  0
SECTION
  2
HEADER
  9
$ACADVER
  1
AC1015
  9
$ACADMAINTVER
 70
    20
  9
$DWGCODEPAGE
  3
ANSI_949
  9
$INSBASE
 10
0.0
 20
0.0
 30
0.0
  9
$EXTMIN
 10
-12185.34543815945
 20
-4298.377209165551
 30
-0.0000305208376332
  9
$EXTMAX
 10
-11486.14915741492
 20
-3867.854217737435
 30
0.0000457719440412
  9
$LIMMIN
 10
0.0
 20
0.0
  9
$LIMMAX
 10
420.0
 20
297.0
  9
$ORTHOMODE
 70
     0
  9
$REGENMODE
 70
     1
  9
$FILLMODE
 70
     1
  9
$QTEXTMODE
 70
     0
  9
$MIRRTEXT
 70
     0
  9
$LTSCALE
 40
1.0
  9
$ATTMODE
 70
     1
  9
$TEXTSIZE
 40
5.777225951253058
  9
$TRACEWID
 40
1.0
  9
$TEXTSTYLE
  7
H
  9
$CLAYER
  8
0
  9
$CELTYPE
  6
ByLayer
  9
$CECOLOR
 62
   256
  9
$CELTSCALE
 40
1.0
  9
$DISPSILH
 70
     0
  9
$DIMSCALE
 40
1.0
  9
$DIMASZ
 40
2.399999999999999
  9
$DIMEXO
 40
0.8
  9
$DIMDLI
 40
3.75
  9
$DIMRND
 40
0.0
  9
$DIMDLE
 40
0.0
  9
$DIMEXE
 40
0.5
  9
$DIMTP
 40
0.0
  9
$DIMTM
 40
0.0
  9
$DIMTXT
 40
2.399999999999999
  9
$DIMCEN
 40
2.5
  9
$DIMTSZ
 40
0.0
  9
$DIMTOL
 70
     0
  9
$DIMLIM
 70
     0
  9
$DIMTIH
 70
     0
  9
$DIMTOH
 70
     0
  9
$DIMSE1
 70
     0
  9
$DIMSE2
 70
     0
  9
$DIMTAD
 70
     1
  9
$DIMZIN
 70
     9
  9
$DIMBLK
  1

  9
$DIMASO
 70
     1
  9
$DIMSHO
 70
     1
  9
$DIMPOST
  1

  9
$DIMAPOST
  1

  9
$DIMALT
 70
     0
  9
$DIMALTD
 70
     3
  9
$DIMALTF
 40
0.03937007874016
  9
$DIMLFAC
 40
1.0
  9
$DIMTOFL
 70
     1
  9
$DIMTVP
 40
0.0
  9
$DIMTIX
 70
     0
  9
$DIMSOXD
 70
     0
  9
$DIMSAH
 70
     0
  9
$DIMBLK1
  1

  9
$DIMBLK2
  1

  9
$DIMSTYLE
  2
standard
  9
$DIMCLRD
 70
   123
  9
$DIMCLRE
 70
   123
  9
$DIMCLRT
 70
     3
  9
$DIMTFAC
 40
1.0
  9
$DIMGAP
 40
1.0
  9
$DIMJUST
 70
     0
  9
$DIMSD1
 70
     0
  9
$DIMSD2
 70
     0
  9
$DIMTOLJ
 70
     0
  9
$DIMTZIN
 70
     8
  9
$DIMALTZ
 70
     0
  9
$DIMALTTZ
 70
     0
  9
$DIMUPT
 70
     0
  9
$DIMDEC
 70
     3
  9
$DIMTDEC
 70
     3
  9
$DIMALTU
 70
     2
  9
$DIMALTTD
 70
     3
  9
$DIMTXSTY
  7
Standard
  9
$DIMAUNIT
 70
     0
  9
$DIMADEC
 70
     0
  9
$DIMALTRND
 40
0.0
  9
$DIMAZIN
 70
     0
  9
$DIMDSEP
 70
    46
  9
$DIMATFIT
 70
     2
  9
$DIMFRAC
 70
     0
  9
$DIMLDRBLK
  1

  9
$DIMLUNIT
 70
     2
  9
$DIMLWD
 70
     9
  9
$DIMLWE
 70
     9
  9
$DIMTMOVE
 70
     0
  9
$LUNITS
 70
     2
  9
$LUPREC
 70
     2
  9
$SKETCHINC
 40
1.0
  9
$FILLETRAD
 40
0.5
  9
$AUNITS
 70
     0
  9
$AUPREC
 70
     0
  9
$MENU
  1
.
  9
$ELEVATION
 40
0.0
  9
$PELEVATION
 40
0.0
  9
$THICKNESS
 40
0.0
  9
$LIMCHECK
 70
     0
  9
$CHAMFERA
 40
0.3
  9
$CHAMFERB
 40
0.3
  9
$CHAMFERC
 40
20.0
  9
$CHAMFERD
 40
0.0
  9
$SKPOLY
 70
     0
  9
$TDCREATE
 40
2452453.692344098
  9
$TDUCREATE
 40
2452453.317344097
  9
$TDUPDATE
 40
2456226.677632535
  9
$TDUUPDATE
 40
2456226.302632535
  9
$TDINDWG
 40
81.3641780208
  9
$TDUSRTIMER
 40
81.3641780208
  9
$USRTIMER
 70
     1
  9
$ANGBASE
 50
0.0
  9
$ANGDIR
 70
     0
  9
$PDMODE
 70
     0
  9
$PDSIZE
 40
0.0
  9
$PLINEWID
 40
4.420751464023806
  9
$SPLFRAME
 70
     0
  9
$SPLINETYPE
 70
     6
  9
$SPLINESEGS
 70
 32767
  9
$HANDSEED
  5
A41
  9
$SURFTAB1
 70
     6
  9
$SURFTAB2
 70
     6
  9
$SURFTYPE
 70
     6
  9
$SURFU
 70
     6
  9
$SURFV
 70
     6
  9
$UCSBASE
  2

  9
$UCSNAME
  2

  9
$UCSORG
 10
0.0
 20
0.0
 30
0.0
  9
$UCSXDIR
 10
1.0
 20
0.0
 30
0.0
  9
$UCSYDIR
 10
0.0
 20
1.0
 30
0.0
  9
$UCSORTHOREF
  2

  9
$UCSORTHOVIEW
 70
     0
  9
$UCSORGTOP
 10
0.0
 20
0.0
 30
0.0
  9
$UCSORGBOTTOM
 10
0.0
 20
0.0
 30
0.0
  9
$UCSORGLEFT
 10
0.0
 20
0.0
 30
0.0
  9
$UCSORGRIGHT
 10
0.0
 20
0.0
 30
0.0
  9
$UCSORGFRONT
 10
0.0
 20
0.0
 30
0.0
  9
$UCSORGBACK
 10
0.0
 20
0.0
 30
0.0
  9
$PUCSBASE
  2

  9
$PUCSNAME
  2

  9
$PUCSORG
 10
0.0
 20
0.0
 30
0.0
  9
$PUCSXDIR
 10
1.0
 20
0.0
 30
0.0
  9
$PUCSYDIR
 10
0.0
 20
1.0
 30
0.0
  9
$PUCSORTHOREF
  2

  9
$PUCSORTHOVIEW
 70
     0
  9
$PUCSORGTOP
 10
0.0
 20
0.0
 30
0.0
  9
$PUCSORGBOTTOM
 10
0.0
 20
0.0
 30
0.0
  9
$PUCSORGLEFT
 10
0.0
 20
0.0
 30
0.0
  9
$PUCSORGRIGHT
 10
0.0
 20
0.0
 30
0.0
  9
$PUCSORGFRONT
 10
0.0
 20
0.0
 30
0.0
  9
$PUCSORGBACK
 10
0.0
 20
0.0
 30
0.0
  9
$USERI1
 70
     0
  9
$USERI2
 70
     0
  9
$USERI3
 70
     0
  9
$USERI4
 70
     0
  9
$USERI5
 70
     0
  9
$USERR1
 40
0.0
  9
$USERR2
 40
0.0
  9
$USERR3
 40
0.0
  9
$USERR4
 40
0.0
  9
$USERR5
 40
0.0
  9
$WORLDVIEW
 70
     1
  9
$SHADEDGE
 70
     3
  9
$SHADEDIF
 70
    70
  9
$TILEMODE
 70
     1
  9
$MAXACTVP
 70
    48
  9
$PINSBASE
 10
0.0
 20
0.0
 30
0.0
  9
$PLIMCHECK
 70
     0
  9
$PEXTMIN
 10
26.66999878883363
 20
20.31999878883363
 30
0.0
  9
$PEXTMAX
 10
240.0299890995026
 20
182.8799890995025
 30
0.0
  9
$PLIMMIN
 10
-6.350006103515625
 20
-6.349999904632567
  9
$PLIMMAX
 10
273.0499877929688
 20
209.5499939918518
  9
$UNITMODE
 70
     0
  9
$VISRETAIN
 70
     1
  9
$PLINEGEN
 70
     0
  9
$PSLTSCALE
 70
     1
  9
$TREEDEPTH
 70
  3020
  9
$CMLSTYLE
  2
Standard
  9
$CMLJUST
 70
     0
  9
$CMLSCALE
 40
20.0
  9
$PROXYGRAPHICS
 70
     1
  9
$MEASUREMENT
 70
     1
  9
$CELWEIGHT
370
    -1
  9
$ENDCAPS
280
     0
  9
$JOINSTYLE
280
     0
  9
$LWDISPLAY
290
     0
  9
$INSUNITS
 70
     4
  9
$HYPERLINKBASE
  1

  9
$STYLESHEET
  1

  9
$XEDIT
290
     1
  9
$CEPSNTYPE
380
     0
  9
$PSTYLEMODE
290
     1
  9
$FINGERPRINTGUID
  2
{2E4CC8F9-213D-4221-9255-B61ABCAE5C11}
  9
$VERSIONGUID
  2
{A480556D-F439-4B43-8242-9431753FA952}
  9
$EXTNAMES
290
     1
  9
$PSVPSCALE
 40
0.0
  9
$OLESTARTUP
290
     0
  0
ENDSEC
  0
SECTION
  2
CLASSES
  0
CLASS
  1
ACDBDICTIONARYWDFLT
  2
AcDbDictionaryWithDefault
  3
ObjectDBX Classes
 90
        0
280
     0
281
     0
  0
CLASS
  1
ACDBPLACEHOLDER
  2
AcDbPlaceHolder
  3
ObjectDBX Classes
 90
        0
280
     0
281
     0
  0
CLASS
  1
LAYOUT
  2
AcDbLayout
  3
ObjectDBX Classes
 90
        0
280
     0
281
     0
  0
CLASS
  1
DICTIONARYVAR
  2
AcDbDictionaryVar
  3
ObjectDBX Classes
 90
        0
280
     0
281
     0
  0
CLASS
  1
DIMASSOC
  2
AcDbDimAssoc
  3
"AcDbDimAssoc|Product Desc:     AcDim ARX App For Dimension|Company:          Autodesk, Inc.|WEB Address:      www.autodesk.com"
 90
        0
280
     0
281
     0
  0
CLASS
  1
MATERIAL
  2
AcDbMaterial
  3
ObjectDBX Classes
 90
     1153
280
     0
281
     0
  0
CLASS
  1
VISUALSTYLE
  2
AcDbVisualStyle
  3
ObjectDBX Classes
 90
     4095
280
     0
281
     0
  0
CLASS
  1
TABLESTYLE
  2
AcDbTableStyle
  3
ObjectDBX Classes
 90
     4095
280
     0
281
     0
  0
CLASS
  1
SCALE
  2
AcDbScale
  3
ObjectDBX Classes
 90
     1153
280
     0
281
     0
  0
CLASS
  1
MLEADERSTYLE
  2
AcDbMLeaderStyle
  3
ACDB_MLEADERSTYLE_CLASS
 90
     4095
280
     0
281
     0
  0
CLASS
  1
CELLSTYLEMAP
  2
AcDbCellStyleMap
  3
ObjectDBX Classes
 90
     1152
280
     0
281
     0
  0
CLASS
  1
SORTENTSTABLE
  2
AcDbSortentsTable
  3
ObjectDBX Classes
 90
        0
280
     0
281
     0
  0
CLASS
  1
RASTERVARIABLES
  2
AcDbRasterVariables
  3
ISM
 90
    32768
280
     0
281
     0
  0
CLASS
  1
IMAGEDEF
  2
AcDbRasterImageDef
  3
ISM
 90
    32768
280
     0
281
     0
  0
CLASS
  1
IMAGEDEF_REACTOR
  2
AcDbRasterImageDefReactor
  3
ISM
 90
    32769
280
     0
281
     0
  0
CLASS
  1
IMAGE
  2
AcDbRasterImage
  3
ISM
 90
    34943
280
     0
281
     1
  0
CLASS
  1
EXACXREFPANELOBJECT
  2
ExAcXREFPanelObject
  3
EXAC_ESW
 90
    33793
280
     0
281
     0
  0
CLASS
  1
NPOCOLLECTION
  2
AcDbImpNonPersistentObjectsCollection
  3
ObjectDBX Classes
 90
    33921
280
     0
281
     0
  0
CLASS
  1
ACME_DOCUMENT
  2
AcMeDbDoc
  3
AcMeServices
 90
    33792
280
     1
281
     0
  0
CLASS
  1
ACMESCOPE
  2
AcMeScope
  3
AcMeServices
 90
    33792
280
     1
281
     0
  0
CLASS
  1
ACMECOMMANDHISTORY
  2
AcMeCommandHistory
  3
AcMeServices
 90
    33792
280
     1
281
     0
  0
CLASS
  1
ACIMSYSVARMAN
  2
AcImSysVarManager
  3
AcMeServices
 90
    33792
280
     1
281
     0
  0
CLASS
  1
ACIMINTSYSVAR
  2
AcImIntSysVar
  3
AcMeServices
 90
    33792
280
     1
281
     0
  0
CLASS
  1
ACMEDRAWINGMAN
  2
AcMeDrawingMan
  3
AcMeServices
 90
    33792
280
     1
281
     0
  0
CLASS
  1
ACMEVIEW
  2
AcMeView
  3
AcMeServices
 90
    33792
280
     1
281
     0
  0
CLASS
  1
ACDBENTITYCACHE
  2
AcMeEntityCache
  3
AcMeServices
 90
    33792
280
     1
281
     0
  0
CLASS
  1
GSMANAGER
  2
AcMeGSManager
  3
AcMeServices
 90
    33792
280
     1
281
     0
  0
CLASS
  1
AMDTINTERNALREACTOR
  2
AmdtInternalReactor
  3
AcMeServices
 90
    33792
280
     1
281
     0
  0
CLASS
  1
ACMESTATEMGR
  2
AcMeStateMgr
  3
AcMeServices
 90
    33792
280
     1
281
     0
  0
CLASS
  1
ACGREFMASTER
  2
AcGrefMaster
  3
AcAttribServices
 90
    33792
280
     1
281
     0
  0
CLASS
  1
AM_DRAWING_MGR
  2
AcDmDwgMgr
  3
AcMechDwgViewMgmt
 90
    33792
280
     1
281
     0
  0
CLASS
  1
AM_DWG_DOCUMENT
  2
AcDmDwgDocument
  3
AcMechDwgViewMgmt
 90
    33792
280
     1
281
     0
  0
CLASS
  1
AM_DWG_SHEET
  2
AcDmSheet
  3
AcMechDwgViewMgmt
 90
    33792
280
     1
281
     0
  0
CLASS
  1
AM_VIEWDIMPARMAP
  2
AcDmViewDimParMap
  3
AcMechDwgViewMgmt
 90
    33792
280
     1
281
     0
  0
CLASS
  1
ACIMREALSYSVAR
  2
AcImRealSysVar
  3
AcMeServices
 90
    33792
280
     1
281
     0
  0
CLASS
  1
AM_DWGMGR_NAME
  2
AcDmDwgMgrName
  3
AcMechDwgViewMgmt
 90
    33792
280
     1
281
     0
  0
CLASS
  1
ACME_DATABASE
  2
AcMeDbDatabase
  3
AcMeServices
 90
    33792
280
     1
281
     0
  0
CLASS
  1
ACRFINSADJUSTERMGR
  2
AcRfInsAdjusterMgr
  3
AcMeServices
 90
    33792
280
     1
281
     0
  0
CLASS
  1
ACGREFACADMASTER
  2
AcGrefacadMaster
  3
AcGrefServices
 90
    33792
280
     1
281
     0
  0
CLASS
  1
AMDTMENUSTATEMGR
  2
AmdtMenuStateMgr
  3
McadcomServices
 90
    33792
280
     1
281
     0
  0
CLASS
  1
AMDTMCOMMENUSTATE
  2
AmdtMcomMenuState
  3
McadcomServices
 90
    33792
280
     1
281
     0
  0
CLASS
  1
AMIMASTER
  2
AmiMaster
  3
AmiServices
 90
    33792
280
     1
281
     0
  0
CLASS
  1
AMGSETTINGSOBJ
  2
AmgSettingsObj
  3
"AcadM|Product Description: AutoCAD Mechanical|Company: Autodesk, Inc."
 90
    33792
280
     1
281
     0
  0
CLASS
  1
MAPIAMMOUDLE
  2
MApiAmModule
  3
MApiAmServices
 90
    33792
280
     1
281
     0
  0
CLASS
  1
ACIMSTRSYSVAR
  2
AcImStrSysVar
  3
AcMeServices
 90
    33792
280
     1
281
     0
  0
CLASS
  1
AMDTADMENUSTATE
  2
AmdtAdMenuState
  3
DesignerServices
 90
    33792
280
     1
281
     0
  0
CLASS
  1
ADAPPL
  2
AcAdAppl
  3
DesignerServices
 90
    33792
280
     1
281
     0
  0
CLASS
  1
DEPMGR
  2
AcAdDepMgr
  3
DesignerServices
 90
    33792
280
     1
281
     0
  0
CLASS
  1
PARAMMGR
  2
AcAdParamMgr
  3
DesignerServices
 90
    33792
280
     1
281
     0
  0
CLASS
  1
PARAMSCOPE
  2
AcAdParamScope
  3
DesignerServices
 90
    33792
280
     1
281
     0
  0
CLASS
  1
NAMEDAPPL
  2
AcAdNamedAppl
  3
DesignerServices
 90
    33792
280
     1
281
     0
  0
CLASS
  1
AMDTDMMENUSTATE
  2
AmdtDmMenuState
  3
AcMechDwgViewMgmt
 90
    33792
280
     1
281
     0
  0
CLASS
  1
AMDTAMMENUSTATE
  2
AmdtAmMenuState
  3
DesignerAssemblies
 90
    33792
280
     1
281
     0
  0
CLASS
  1
ACAMPROJECT
  2
AcAmProject
  3
DesignerAssemblies
 90
    33792
280
     1
281
     0
  0
CLASS
  1
ACAMGRCOMPDEF
  2
AcAmGrCompDef
  3
DesignerAssemblies
 90
    33792
280
     1
281
     0
  0
CLASS
  1
ACCMCONTEXT
  2
AcCmContext
  3
DesignerAssemblies
 90
    33792
280
     1
281
     0
  0
CLASS
  1
ACAMCOMPDEF
  2
AcAmCompDef
  3
DesignerAssemblies
 90
    33792
280
     1
281
     0
  0
CLASS
  1
ACAMCOMPDEFMGR
  2
AcAmCompDefMgr
  3
DesignerAssemblies
 90
    33792
280
     1
281
     0
  0
CLASS
  1
AMCONTEXTMGR
  2
AcAmContextMgr
  3
DesignerAssemblies
 90
    33792
280
     1
281
     0
  0
CLASS
  1
ACAMCONTEXTMODELER
  2
AcAmContextModeler
  3
DesignerAssemblies
 90
    33792
280
     1
281
     0
  0
CLASS
  1
ACMDATADICTIONARY
  2
AcmDataDictionary
  3
"AcmSymBB|Product Description: AutoCAD Mechanical|Company: Autodesk, Inc."
 90
    33792
280
     1
281
     0
  0
CLASS
  1
CATALOGSTATE
  2
AcAmCatalogState
  3
DesignerAssemblies
 90
    33792
280
     1
281
     0
  0
CLASS
  1
ACAMGRCOMPDEFSET
  2
AcAmGrCompDefSet
  3
DesignerAssemblies
 90
    33792
280
     1
281
     0
  0
CLASS
  1
AMDTBROWSERDBTAB
  2
AmdtBrowserDbTab
  3
McadcomServices
 90
    33792
280
     1
281
     0
  0
CLASS
  1
CBROWSERAPPOBJECT
  2
CBrowserAppObject
  3
McadcomServices
 90
    33792
280
     1
281
     0
  0
CLASS
  1
DM_PLACEHOLDER
  2
AcDmSelsetPlaceholder
  3
AcMechDwgViewMgmt
 90
    33792
280
     1
281
     0
  0
CLASS
  1
ACMSTANDARDISO
  2
AcmStandardISO
  3
"Amdt_StdImp|Product Description: AutoCAD Mechanical|Company: Autodesk, Inc."
 90
    33792
280
     1
281
     0
  0
CLASS
  1
AMGOBJPROPCFG
  2
AmgObjPropCfg
  3
"AmgLay|Product Description: AutoCAD Mechanical|Company: Autodesk, Inc."
 90
    33793
280
     1
281
     0
  0
CLASS
  1
AMDTEDGESTANDARDISO13715
  2
AmdtEdgeStdISO13715
  3
"Amdt_StdImp|Product Description: AutoCAD Mechanical|Company: Autodesk, Inc."
 90
    33792
280
     1
281
     0
  0
CLASS
  1
ACMSURFSTANDARDISO2002
  2
AcmSurfTextStdISO2002
  3
"Amdt_StdImp|Product Description: AutoCAD Mechanical|Company: Autodesk, Inc."
 90
    33792
280
     1
281
     0
  0
CLASS
  1
ACMFCFSTANDARDISO
  2
AcmFCFStdISO
  3
"Amdt_StdImp|Product Description: AutoCAD Mechanical|Company: Autodesk, Inc."
 90
    33792
280
     1
281
     0
  0
CLASS
  1
ACMWELDSTANDARDISO
  2
AcmWeldingStdISO
  3
"Amdt_StdImp|Product Description: AutoCAD Mechanical|Company: Autodesk, Inc."
 90
    33792
280
     1
281
     0
  0
CLASS
  1
ACMIDSTANDARDISO
  2
AcmIdStdISO
  3
"Amdt_StdImp|Product Description: AutoCAD Mechanical|Company: Autodesk, Inc."
 90
    33792
280
     1
281
     0
  0
CLASS
  1
ACMDATUMSTANDARDISO
  2
AcmDatumStdISO
  3
"Amdt_StdImp|Product Description: AutoCAD Mechanical|Company: Autodesk, Inc."
 90
    33792
280
     1
281
     0
  0
CLASS
  1
ACMBOMSTANDARDISO
  2
AcmBOMStdISO
  3
"Amdt_StdImp|Product Description: AutoCAD Mechanical|Company: Autodesk, Inc."
 90
    33792
280
     1
281
     0
  0
CLASS
  1
ACMDETAILSTANDARDISO
  2
AmdtDetailSymStdISO
  3
"Amdt_StdImp|Product Description: AutoCAD Mechanical|Company: Autodesk, Inc."
 90
    33792
280
     1
281
     0
  0
CLASS
  1
ACMSECTIONSTANDARDISO2001
  2
AmdtSectionSymStdISO2001
  3
"Amdt_StdImp|Product Description: AutoCAD Mechanical|Company: Autodesk, Inc."
 90
    33792
280
     1
281
     0
  0
CLASS
  1
ACMCENTERLINESTANDARDISO
  2
AmdtCenterLineStdISO
  3
"Amdt_StdImp|Product Description: AutoCAD Mechanical|Company: Autodesk, Inc."
 90
    33792
280
     1
281
     0
  0
CLASS
  1
ACMTHREADLINESTANDARDISO
  2
AmdtThreadLineStdISO
  3
"Amdt_StdImp|Product Description: AutoCAD Mechanical|Company: Autodesk, Inc."
 90
    33792
280
     1
281
     0
  0
CLASS
  1
ACMNOTESTANDARDISO
  2
AmdtNoteStdISO
  3
"Amdt_StdImp|Product Description: AutoCAD Mechanical|Company: Autodesk, Inc."
 90
    33792
280
     1
281
     0
  0
CLASS
  1
ACMTAPERSTANDARDISO
  2
AcmTaperStdISO
  3
"Amdt_StdImp|Product Description: AutoCAD Mechanical|Company: Autodesk, Inc."
 90
    33792
280
     1
281
     0
  0
CLASS
  1
ACMANOOTATIONVIEWSTANDARDISO
  2
AmdtAnViewStdISO
  3
"Amdt_StdImp|Product Description: AutoCAD Mechanical|Company: Autodesk, Inc."
 90
    33792
280
     1
281
     0
  0
CLASS
  1
AMDTNOTETEMPLATEDB
  2
AmdtNoteTemplateDB
  3
AcmSymBB|Product Description: AutoCAD Mechanical|Company: Autodesk, Inc.
 90
    33792
280
     1
281
     0
  0
CLASS
  1
ACAMGLAYSTD
  2
AcAmgLayStd
  3
"AmgLay|Product Description: AutoCAD Mechanical|Company: Autodesk, Inc."
 90
    33792
280
     1
281
     0
  0
CLASS
  1
ACAMGDIMSTD
  2
AcAmgDimStd
  3
"AmgDim|Product Description: AutoCAD Mechanical|Company: Autodesk, Inc."
 90
    33792
280
     1
281
     0
  0
CLASS
  1
ACAMGHOLECHARTSTDISO
  2
AcAmgHoleChartStdISO
  3
AmgDim|Product Description: AutoCAD Mechanical|Company: Autodesk, Inc.
 90
    33792
280
     1
281
     0
  0
CLASS
  1
ACAMGTITLESTD
  2
AcAmgTitleStd
  3
"AmgTitle|Product Description: AutoCAD Mechanical|Company: Autodesk, Inc."
 90
    36863
280
     1
281
     0
  0
CLASS
  1
ACAMGFILTERDAT
  2
AcAmgFilterDat
  3
"AcadM|Product Description: AutoCAD Mechanical|Company: Autodesk, Inc."
 90
    33792
280
     1
281
     0
  0
CLASS
  1
CAMSSTRUCTBTNSTATE
  2
StructBtnState
  3
DesignerAssemblies
 90
    33792
280
     1
281
     0
  0
CLASS
  1
STDPART2D
  2
AmgStdPart
  3
AmgStdPart|Product Description: AutoCAD Mechanical|Company: Autodesk, Inc.
 90
    36863
280
     1
281
     1
  0
CLASS
  1
ACMDATAENTRYPART
  2
AcmDataEntryPart
  3
AcmSymBB|Product Description: AutoCAD Mechanical|Company: Autodesk, Inc.
 90
    33792
280
     1
281
     0
  0
CLASS
  1
ACMPARTREF
  2
AcmPartRef
  3
"AcmSymBB|Product Description: AutoCAD Mechanical|Company: Autodesk, Inc."
 90
    36863
280
     1
281
     1
  0
CLASS
  1
ACDBSTDPARTRES_LINE
  2
AcDbStdPartRes_Line
  3
AmgStdPart|Product Description: AutoCAD Mechanical|Company: Autodesk, Inc.
 90
    33792
280
     1
281
     0
  0
CLASS
  1
ACMSURFSYM
  2
AcmSurfaceTexture
  3
"AcmSymBB|Product Description: AutoCAD Mechanical|Company: Autodesk, Inc."
 90
    36863
280
     1
281
     1
  0
CLASS
  1
ACAD_PROXY_OBJECT_WRAPPER
  2
AcDbProxyObjectWrapper
  3
ObjectDBX Classes
 90
    32768
280
     0
281
     0
  0
CLASS
  1
SOLID_BACKGROUND
  2
AcDbSolidBackground
  3
SCENEOE
 90
    36863
280
     0
281
     0
  0
ENDSEC
  0
SECTION
  2
TABLES
  0
TABLE
  2
VPORT
  5
2C
102
{ACAD_XDICTIONARY
360
30
102
}
330
0
100
AcDbSymbolTable
 70
     1
  0
VPORT
  5
2D
330
2C
100
AcDbSymbolTableRecord
100
AcDbViewportTableRecord
  2
*Active
 70
     0
 10
0.0
 20
0.0
 11
1.0
 21
1.0
 12
-11835.74729778718
 22
-4083.115713451493
 13
0.0
 23
0.0
 14
10.0
 24
10.0
 15
10.0
 25
10.0
 16
0.0
 26
0.0
 36
1.0
 17
0.0
 27
0.0
 37
0.0
 40
443.4340057215742
 41
1.584158415841584
 42
50.0
 43
0.0
 44
0.0
 50
0.0
 51
0.0
 71
     0
 72
 20000
 73
     1
 74
     2
 75
     0
 76
     0
 77
     0
 78
     2
281
     0
 65
     0
110
0.0
120
0.0
130
0.0
111
1.0
121
0.0
131
0.0
112
0.0
122
1.0
132
0.0
 79
     0
146
0.0
1001
ACAD_NAV_VCDISPLAY
1070
     3
  0
ENDTAB
  0
TABLE
  2
LTYPE
  5
27
330
0
100
AcDbSymbolTable
 70
     4
  0
LTYPE
  5
28
330
27
100
AcDbSymbolTableRecord
100
AcDbLinetypeTableRecord
  2
ByBlock
 70
     0
  3

 72
    65
 73
     0
 40
0.0
  0
LTYPE
  5
29
330
27
100
AcDbSymbolTableRecord
100
AcDbLinetypeTableRecord
  2
ByLayer
 70
     0
  3

 72
    65
 73
     0
 40
0.0
  0
LTYPE
  5
16
330
27
100
AcDbSymbolTableRecord
100
AcDbLinetypeTableRecord
  2
Continuous
 70
     0
  3
Solid line
 72
    65
 73
     0
 40
0.0
  0
LTYPE
  5
76
330
27
100
AcDbSymbolTableRecord
100
AcDbLinetypeTableRecord
  2
CENTER
 70
     0
  3
Center ____ _ ____ _ ____ _ ____ _ ____ _ ____
 72
    65
 73
     4
 40
50.8
 49
31.75
 74
     0
 49
-6.349999999999997
 74
     0
 49
6.349999999999997
 74
     0
 49
-6.349999999999997
 74
     0
  0
LTYPE
  5
17C
330
27
100
AcDbSymbolTableRecord
100
AcDbLinetypeTableRecord
  2
HIDDEN
 70
     0
  3
Hidden __ __ __ __ __ __ __ __ __ __ __ __ __ _
 72
    65
 73
     2
 40
9.524999999999996
 49
6.349999999999997
 74
     0
 49
-3.174999999999998
 74
     0
  0
ENDTAB
  0
TABLE
  2
LAYER
  5
20
102
{ACAD_XDICTIONARY
360
21
102
}
330
0
100
AcDbSymbolTable
 70
     3
  0
LAYER
  5
7
102
{ACAD_XDICTIONARY
360
8
102
}
330
20
100
AcDbSymbolTableRecord
100
AcDbLayerTableRecord
  2
0
 70
     0
 62
     7
  6
Continuous
370
    -3
390
A
  0
LAYER
  5
9A
330
20
100
AcDbSymbolTableRecord
100
AcDbLayerTableRecord
  2
Defpoints
 70
     0
 62
     7
  6
Continuous
290
     0
370
    -3
390
A
  0
LAYER
  5
701
330
20
100
AcDbSymbolTableRecord
100
AcDbLayerTableRecord
  2
3
 70
     0
 62
     3
  6
Continuous
370
    -3
390
A
  0
ENDTAB
  0
TABLE
  2
STYLE
  5
24
330
0
100
AcDbSymbolTable
 70
     5
  0
STYLE
  5
25
330
24
100
AcDbSymbolTableRecord
100
AcDbTextStyleTableRecord
  2
Standard
 70
     0
 40
0.0
 41
1.0
 50
0.0
 71
     0
 42
2.0
  3
romans.shx
  4
whgtxt.shx
  0
STYLE
  5
4B
330
24
100
AcDbSymbolTableRecord
100
AcDbTextStyleTableRecord
  2
H
 70
     0
 40
0.0
 41
1.0
 50
0.0
 71
     0
 42
5.777225951253058
  3
txt.shx
  4

  0
STYLE
  5
702
330
24
100
AcDbSymbolTableRecord
100
AcDbTextStyleTableRecord
  2
GHS
 70
     0
 40
0.0
 41
0.6
 50
0.0
 71
     0
 42
3.0
  3
ROMANS
  4
GHS
  0
STYLE
  5
703
330
24
100
AcDbSymbolTableRecord
100
AcDbTextStyleTableRecord
  2
WHGTXT
 70
     0
 40
0.0
 41
0.8
 50
0.0
 71
     0
 42
3.0
  3
simplex.shx
  4
whgtxt.shx
  0
STYLE
  5
704
330
24
100
AcDbSymbolTableRecord
100
AcDbTextStyleTableRecord
  2
DIM
 70
     0
 40
0.0
 41
1.0
 50
0.0
 71
     0
 42
0.2
  3
romans.shx
  4
whgtxt.shx
  0
ENDTAB
  0
TABLE
  2
VIEW
  5
2A
330
0
100
AcDbSymbolTable
 70
     0
  0
ENDTAB
  0
TABLE
  2
UCS
  5
2B
330
0
100
AcDbSymbolTable
 70
     0
  0
ENDTAB
  0
TABLE
  2
APPID
  5
31
330
0
100
AcDbSymbolTable
 70
     7
  0
APPID
  5
32
330
31
100
AcDbSymbolTableRecord
100
AcDbRegAppTableRecord
  2
ACAD
 70
     0
  0
APPID
  5
383
330
31
100
AcDbSymbolTableRecord
100
AcDbRegAppTableRecord
  2
ACAD_DSTYLE_DIMRADIAL_EXTENSION
 70
     0
  0
APPID
  5
52
330
31
100
AcDbSymbolTableRecord
100
AcDbRegAppTableRecord
  2
ACAD_DSTYLE_DIMJAG
 70
     0
  0
APPID
  5
53
330
31
100
AcDbSymbolTableRecord
100
AcDbRegAppTableRecord
  2
ACAD_DSTYLE_DIMTALN
 70
     0
  0
APPID
  5
41F
330
31
100
AcDbSymbolTableRecord
100
AcDbRegAppTableRecord
  2
ACAD_MLEADERVER
 70
     0
  0
APPID
  5
705
330
31
100
AcDbSymbolTableRecord
100
AcDbRegAppTableRecord
  2
ACAD_NAV_VCDISPLAY
 70
     0
  0
APPID
  5
9FA
330
31
100
AcDbSymbolTableRecord
100
AcDbRegAppTableRecord
  2
ACAD_EXEMPT_FROM_CAD_STANDARDS
 70
     0
  0
ENDTAB
  0
TABLE
  2
DIMSTYLE
  5
33
330
0
100
AcDbSymbolTable
 70
     3
100
AcDbDimStyleTable
 71
     1
340
51
  0
DIMSTYLE
105
51
102
{ACAD_REACTORS
330
DB
330
D8
330
139
330
19F
330
2AB
330
270
330
319
330
2BB
330
2B9
330
31B
330
377
330
36E
330
355
330
258
330
249
330
23C
330
22F
330
29E
330
332
330
291
330
284
330
90
330
9E
330
AB
330
C3
330
13B
330
193
330
1A0
330
1AD
330
1BA
330
1C7
330
1D4
330
1E1
330
1EF
330
1FC
330
39C
330
3AD
330
3BC
330
3D1
330
3E2
102
}
330
33
100
AcDbSymbolTableRecord
100
AcDbDimStyleTableRecord
  2
standard
 70
     0
 41
2.399999999999999
 42
0.8
 43
3.75
 44
0.5
 73
     0
 74
     0
 77
     1
 78
     9
140
2.399999999999999
141
2.5
143
0.03937007874016
147
1.0
171
     3
172
     1
176
   123
177
   123
178
     3
271
     3
272
     3
274
     3
283
     0
284
     8
289
     2
340
25
371
     9
372
     9
1001
ACAD_DSTYLE_DIMJAG
1070
   388
1040
1.5
1001
ACAD_DSTYLE_DIMTALN
1070
   392
1070
     0
  0
ENDTAB
  0
TABLE
  2
BLOCK_RECORD
  5
1
330
0
100
AcDbSymbolTable
 70
    72
  0
BLOCK_RECORD
  5
2
102
{ACAD_XDICTIONARY
360
3
102
}
330
1
100
AcDbSymbolTableRecord
100
AcDbBlockTableRecord
  2
*Model_Space
340
18
  0
BLOCK_RECORD
  5
1A
102
{ACAD_XDICTIONARY
360
1B
102
}
330
1
100
AcDbSymbolTableRecord
100
AcDbBlockTableRecord
  2
*Paper_Space
340
1F
  0
BLOCK_RECORD
  5
427
330
1
100
AcDbSymbolTableRecord
100
AcDbBlockTableRecord
  2
*D32
340
0
  0
BLOCK_RECORD
  5
434
330
1
100
AcDbSymbolTableRecord
100
AcDbBlockTableRecord
  2
*D33
340
0
  0
BLOCK_RECORD
  5
440
330
1
100
AcDbSymbolTableRecord
100
AcDbBlockTableRecord
  2
*D34
340
0
  0
BLOCK_RECORD
  5
44C
330
1
100
AcDbSymbolTableRecord
100
AcDbBlockTableRecord
  2
*D35
340
0
  0
BLOCK_RECORD
  5
458
330
1
100
AcDbSymbolTableRecord
100
AcDbBlockTableRecord
  2
*D36
340
0
  0
BLOCK_RECORD
  5
464
330
1
100
AcDbSymbolTableRecord
100
AcDbBlockTableRecord
  2
*D37
340
0
  0
BLOCK_RECORD
  5
470
330
1
100
AcDbSymbolTableRecord
100
AcDbBlockTableRecord
  2
*D38
340
0
  0
BLOCK_RECORD
  5
47C
330
1
100
AcDbSymbolTableRecord
100
AcDbBlockTableRecord
  2
*D39
340
0
  0
BLOCK_RECORD
  5
488
330
1
100
AcDbSymbolTableRecord
100
AcDbBlockTableRecord
  2
*D40
340
0
  0
BLOCK_RECORD
  5
494
330
1
100
AcDbSymbolTableRecord
100
AcDbBlockTableRecord
  2
*D41
340
0
  0
BLOCK_RECORD
  5
4A0
330
1
100
AcDbSymbolTableRecord
100
AcDbBlockTableRecord
  2
*D42
340
0
  0
BLOCK_RECORD
  5
4AC
330
1
100
AcDbSymbolTableRecord
100
AcDbBlockTableRecord
  2
*D43
340
0
  0
BLOCK_RECORD
  5
4B8
330
1
100
AcDbSymbolTableRecord
100
AcDbBlockTableRecord
  2
*D44
340
0
  0
BLOCK_RECORD
  5
4C4
330
1
100
AcDbSymbolTableRecord
100
AcDbBlockTableRecord
  2
*D45
340
0
  0
BLOCK_RECORD
  5
4CE
330
1
100
AcDbSymbolTableRecord
100
AcDbBlockTableRecord
  2
*D46
340
0
  0
BLOCK_RECORD
  5
4DA
330
1
100
AcDbSymbolTableRecord
100
AcDbBlockTableRecord
  2
*D47
340
0
  0
BLOCK_RECORD
  5
4E6
330
1
100
AcDbSymbolTableRecord
100
AcDbBlockTableRecord
  2
*D48
340
0
  0
BLOCK_RECORD
  5
4F2
330
1
100
AcDbSymbolTableRecord
100
AcDbBlockTableRecord
  2
*D49
340
0
  0
BLOCK_RECORD
  5
4FC
330
1
100
AcDbSymbolTableRecord
100
AcDbBlockTableRecord
  2
*D50
340
0
  0
BLOCK_RECORD
  5
508
330
1
100
AcDbSymbolTableRecord
100
AcDbBlockTableRecord
  2
*D51
340
0
  0
BLOCK_RECORD
  5
514
330
1
100
AcDbSymbolTableRecord
100
AcDbBlockTableRecord
  2
*D52
340
0
  0
BLOCK_RECORD
  5
522
330
1
100
AcDbSymbolTableRecord
100
AcDbBlockTableRecord
  2
*D53
340
0
  0
BLOCK_RECORD
  5
52E
330
1
100
AcDbSymbolTableRecord
100
AcDbBlockTableRecord
  2
*D54
340
0
  0
BLOCK_RECORD
  5
53A
330
1
100
AcDbSymbolTableRecord
100
AcDbBlockTableRecord
  2
*D55
340
0
  0
BLOCK_RECORD
  5
546
330
1
100
AcDbSymbolTableRecord
100
AcDbBlockTableRecord
  2
*D56
340
0
  0
BLOCK_RECORD
  5
552
330
1
100
AcDbSymbolTableRecord
100
AcDbBlockTableRecord
  2
*D57
340
0
  0
BLOCK_RECORD
  5
55E
330
1
100
AcDbSymbolTableRecord
100
AcDbBlockTableRecord
  2
*D58
340
0
  0
BLOCK_RECORD
  5
60B
330
1
100
AcDbSymbolTableRecord
100
AcDbBlockTableRecord
  2
*D59
340
0
  0
BLOCK_RECORD
  5
619
330
1
100
AcDbSymbolTableRecord
100
AcDbBlockTableRecord
  2
*D60
340
0
  0
BLOCK_RECORD
  5
625
330
1
100
AcDbSymbolTableRecord
100
AcDbBlockTableRecord
  2
*D61
340
0
  0
BLOCK_RECORD
  5
633
330
1
100
AcDbSymbolTableRecord
100
AcDbBlockTableRecord
  2
*D62
340
0
  0
BLOCK_RECORD
  5
641
330
1
100
AcDbSymbolTableRecord
100
AcDbBlockTableRecord
  2
*D63
340
0
  0
ENDTAB
  0
ENDSEC
  0
SECTION
  2
BLOCKS
  0
BLOCK
  5
6
330
2
100
AcDbEntity
  8
0
100
AcDbBlockBegin
  2
*Model_Space
 70
     0
 10
0.0
 20
0.0
 30
0.0
  3
*Model_Space
  1

  0
ENDBLK
  5
17
330
2
100
AcDbEntity
  8
0
100
AcDbBlockEnd
  0
BLOCK
  5
1D
330
1A
100
AcDbEntity
 67
     1
  8
0
100
AcDbBlockBegin
  2
*Paper_Space
 70
     0
 10
0.0
 20
0.0
 30
0.0
  3
*Paper_Space
  1

  0
ENDBLK
  5
1E
330
1A
100
AcDbEntity
 67
     1
  8
0
100
AcDbBlockEnd
  0
BLOCK
  5
428
330
427
100
AcDbEntity
  8
0
100
AcDbBlockBegin
  2
*D32
 70
     1
 10
0.0
 20
0.0
 30
0.0
  3
*D32
  1

  0
LINE
  5
6B0
330
427
100
AcDbEntity
  8
0
 62
   123
370
     9
100
AcDbLine
 10
-11823.86499952399
 20
-4166.380860223937
 30
0.0
 11
-11834.32246650059
 21
-4166.380860223937
 31
0.0
  0
LINE
  5
6B1
330
427
100
AcDbEntity
  8
0
 62
   123
370
     9
100
AcDbLine
 10
-11823.86499952399
 20
-4151.380860223937
 30
0.0
 11
-11834.32246650059
 21
-4151.380860223937
 31
0.0
  0
LINE
  5
6B2
330
427
100
AcDbEntity
  8
0
 62
   123
370
     9
100
AcDbLine
 10
-11833.82246650059
 20
-4163.980860223937
 30
0.0
 11
-11833.82246650059
 21
-4153.780860223936
 31
0.0
  0
LINE
  5
6B3
330
427
100
AcDbEntity
  8
0
 62
   123
370
     9
100
AcDbLine
 10
-11833.82246650059
 20
-4151.380860223937
 30
0.0
 11
-11833.82246650059
 21
-4115.140597050809
 31
0.0
  0
SOLID
  5
6B4
330
427
100
AcDbEntity
  8
0
 62
   123
100
AcDbTrace
 10
-11834.22246650059
 20
-4163.980860223937
 30
0.0
 11
-11833.42246650059
 21
-4163.980860223937
 31
0.0
 12
-11833.82246650059
 22
-4166.380860223937
 32
0.0
 13
-11833.82246650059
 23
-4166.380860223937
 33
0.0
  0
SOLID
  5
6B5
330
427
100
AcDbEntity
  8
0
 62
   123
100
AcDbTrace
 10
-11834.22246650059
 20
-4153.780860223936
 30
0.0
 11
-11833.42246650059
 21
-4153.780860223936
 31
0.0
 12
-11833.82246650059
 22
-4151.380860223937
 32
0.0
 13
-11833.82246650059
 23
-4151.380860223937
 33
0.0
  0
MTEXT
  5
6B6
330
427
100
AcDbEntity
  8
0
 62
     3
100
AcDbMText
 10
-11837.68079983392
 20
-4127.165597050811
 30
0.0
 40
3.5
 41
0.0
 71
     5
 72
     1
  1
%%C15{\H0.7x;\S  0^ -0.018;}
 11
0.0000000000000001
 21
1.0
 31
0.0
 73
     1
 44
1.0
1001
ACAD
1000
MTEXTBEGIN
1070
    73
1070
     1
1070
    44
1040
1.0
1070
    74
1070
     0
1000
MTEXTEND
  0
POINT
  5
6B7
330
427
100
AcDbEntity
  8
Defpoints
 62
     0
100
AcDbPoint
 10
-11823.064999524
 20
-4166.380860223937
 30
0.0
  0
POINT
  5
6B8
330
427
100
AcDbEntity
  8
Defpoints
 62
     0
100
AcDbPoint
 10
-11823.064999524
 20
-4151.380860223937
 30
0.0
  0
POINT
  5
6B9
330
427
100
AcDbEntity
  8
Defpoints
 62
     0
100
AcDbPoint
 10
-11833.82246650059
 20
-4151.380860223937
 30
0.0
  0
ENDBLK
  5
429
330
427
100
AcDbEntity
  8
0
100
AcDbBlockEnd
  0
BLOCK
  5
435
330
434
100
AcDbEntity
  8
0
100
AcDbBlockBegin
  2
*D33
 70
     1
 10
0.0
 20
0.0
 30
0.0
  3
*D33
  1

  0
LINE
  5
6A7
330
434
100
AcDbEntity
  8
0
 62
   123
370
     9
100
AcDbLine
 10
-11798.06499952399
 20
-4150.580860223937
 30
0.0
 11
-11798.06499952399
 21
-4130.464379207565
 31
0.0
  0
LINE
  5
6A8
330
434
100
AcDbEntity
  8
0
 62
   123
370
     9
100
AcDbLine
 10
-11823.064999524
 20
-4150.580860223937
 30
0.0
 11
-11823.064999524
 21
-4130.464379207565
 31
0.0
  0
LINE
  5
6A9
330
434
100
AcDbEntity
  8
0
 62
   123
370
     9
100
AcDbLine
 10
-11800.46499952399
 20
-4130.964379207564
 30
0.0
 11
-11820.66499952399
 21
-4130.964379207564
 31
0.0
  0
SOLID
  5
6AA
330
434
100
AcDbEntity
  8
0
 62
   123
100
AcDbTrace
 10
-11800.46499952399
 20
-4130.564379207565
 30
0.0
 11
-11800.46499952399
 21
-4131.364379207564
 31
0.0
 12
-11798.06499952399
 22
-4130.964379207564
 32
0.0
 13
-11798.06499952399
 23
-4130.964379207564
 33
0.0
  0
SOLID
  5
6AB
330
434
100
AcDbEntity
  8
0
 62
   123
100
AcDbTrace
 10
-11820.66499952399
 20
-4130.564379207565
 30
0.0
 11
-11820.66499952399
 21
-4131.364379207564
 31
0.0
 12
-11823.064999524
 22
-4130.964379207564
 32
0.0
 13
-11823.064999524
 23
-4130.964379207564
 33
0.0
  0
MTEXT
  5
6AC
330
434
100
AcDbEntity
  8
0
 62
     3
100
AcDbMText
 10
-11810.564999524
 20
-4128.214379207565
 30
0.0
 40
3.5
 41
0.0
 71
     5
 72
     1
  1
25
 73
     1
 44
1.0
1001
ACAD
1000
MTEXTBEGIN
1070
    73
1070
     1
1070
    44
1040
1.0
1070
    74
1070
     0
1000
MTEXTEND
  0
POINT
  5
6AD
330
434
100
AcDbEntity
  8
Defpoints
 62
     0
100
AcDbPoint
 10
-11798.06499952399
 20
-4151.380860223937
 30
0.0
  0
POINT
  5
6AE
330
434
100
AcDbEntity
  8
Defpoints
 62
     0
100
AcDbPoint
 10
-11823.064999524
 20
-4151.380860223937
 30
0.0
  0
POINT
  5
6AF
330
434
100
AcDbEntity
  8
Defpoints
 62
     0
100
AcDbPoint
 10
-11823.064999524
 20
-4130.964379207564
 30
0.0
  0
ENDBLK
  5
436
330
434
100
AcDbEntity
  8
0
100
AcDbBlockEnd
  0
BLOCK
  5
441
330
440
100
AcDbEntity
  8
0
100
AcDbBlockBegin
  2
*D34
 70
     1
 10
0.0
 20
0.0
 30
0.0
  3
*D34
  1

  0
LINE
  5
69E
330
440
100
AcDbEntity
  8
0
 62
   123
370
     9
100
AcDbLine
 10
-11788.06499952399
 20
-4132.080860227989
 30
0.0
 11
-11788.06499952399
 21
-4122.570966165464
 31
0.0
  0
LINE
  5
69F
330
440
100
AcDbEntity
  8
0
 62
   123
370
     9
100
AcDbLine
 10
-11795.06499952399
 20
-4142.080860227988
 30
0.0
 11
-11795.06499952399
 21
-4122.570966165464
 31
0.0
  0
LINE
  5
6A0
330
440
100
AcDbEntity
  8
0
 62
   123
370
     9
100
AcDbLine
 10
-11790.46499952399
 20
-4123.070966165465
 30
0.0
 11
-11792.66499952399
 21
-4123.070966165465
 31
0.0
  0
SOLID
  5
6A1
330
440
100
AcDbEntity
  8
0
 62
   123
100
AcDbTrace
 10
-11790.46499952399
 20
-4122.670966165465
 30
0.0
 11
-11790.46499952399
 21
-4123.470966165464
 31
0.0
 12
-11788.06499952399
 22
-4123.070966165465
 32
0.0
 13
-11788.06499952399
 23
-4123.070966165465
 33
0.0
  0
SOLID
  5
6A2
330
440
100
AcDbEntity
  8
0
 62
   123
100
AcDbTrace
 10
-11792.66499952399
 20
-4122.670966165465
 30
0.0
 11
-11792.66499952399
 21
-4123.470966165464
 31
0.0
 12
-11795.06499952399
 22
-4123.070966165465
 32
0.0
 13
-11795.06499952399
 23
-4123.070966165465
 33
0.0
  0
MTEXT
  5
6A3
330
440
100
AcDbEntity
  8
0
 62
     3
100
AcDbMText
 10
-11791.564999524
 20
-4120.320966165464
 30
0.0
 40
3.5
 41
0.0
 71
     5
 72
     1
  1
7
 73
     1
 44
1.0
1001
ACAD
1000
MTEXTBEGIN
1070
    73
1070
     1
1070
    44
1040
1.0
1070
    74
1070
     0
1000
MTEXTEND
  0
POINT
  5
6A4
330
440
100
AcDbEntity
  8
Defpoints
 62
     0
100
AcDbPoint
 10
-11788.06499952399
 20
-4132.880860227988
 30
0.0
  0
POINT
  5
6A5
330
440
100
AcDbEntity
  8
Defpoints
 62
     0
100
AcDbPoint
 10
-11795.06499952399
 20
-4142.880860227989
 30
0.0
  0
POINT
  5
6A6
330
440
100
AcDbEntity
  8
Defpoints
 62
     0
100
AcDbPoint
 10
-11795.06499952399
 20
-4123.070966165465
 30
0.0
  0
ENDBLK
  5
442
330
440
100
AcDbEntity
  8
0
100
AcDbBlockEnd
  0
BLOCK
  5
44D
330
44C
100
AcDbEntity
  8
0
100
AcDbBlockBegin
  2
*D35
 70
     1
 10
0.0
 20
0.0
 30
0.0
  3
*D35
  1

  0
LINE
  5
695
330
44C
100
AcDbEntity
  8
0
 62
   123
370
     9
100
AcDbLine
 10
-11788.06499952399
 20
-4132.080860227989
 30
0.0
 11
-11788.06499952399
 21
-4113.668182822413
 31
0.0
  0
LINE
  5
696
330
44C
100
AcDbEntity
  8
0
 62
   123
370
     9
100
AcDbLine
 10
-11823.064999524
 20
-4150.580860223937
 30
0.0
 11
-11823.064999524
 21
-4113.668182822413
 31
0.0
  0
LINE
  5
697
330
44C
100
AcDbEntity
  8
0
 62
   123
370
     9
100
AcDbLine
 10
-11790.46499952399
 20
-4114.168182822413
 30
0.0
 11
-11820.66499952399
 21
-4114.168182822413
 31
0.0
  0
SOLID
  5
698
330
44C
100
AcDbEntity
  8
0
 62
   123
100
AcDbTrace
 10
-11790.46499952399
 20
-4113.768182822414
 30
0.0
 11
-11790.46499952399
 21
-4114.568182822413
 31
0.0
 12
-11788.06499952399
 22
-4114.168182822413
 32
0.0
 13
-11788.06499952399
 23
-4114.168182822413
 33
0.0
  0
SOLID
  5
699
330
44C
100
AcDbEntity
  8
0
 62
   123
100
AcDbTrace
 10
-11820.66499952399
 20
-4113.768182822414
 30
0.0
 11
-11820.66499952399
 21
-4114.568182822413
 31
0.0
 12
-11823.064999524
 22
-4114.168182822413
 32
0.0
 13
-11823.064999524
 23
-4114.168182822413
 33
0.0
  0
MTEXT
  5
69A
330
44C
100
AcDbEntity
  8
0
 62
     3
100
AcDbMText
 10
-11805.56499952399
 20
-4111.418182822414
 30
0.0
 40
3.5
 41
0.0
 71
     5
 72
     1
  1
35
 73
     1
 44
1.0
1001
ACAD
1000
MTEXTBEGIN
1070
    73
1070
     1
1070
    44
1040
1.0
1070
    74
1070
     0
1000
MTEXTEND
  0
POINT
  5
69B
330
44C
100
AcDbEntity
  8
Defpoints
 62
     0
100
AcDbPoint
 10
-11788.06499952399
 20
-4132.880860227988
 30
0.0
  0
POINT
  5
69C
330
44C
100
AcDbEntity
  8
Defpoints
 62
     0
100
AcDbPoint
 10
-11823.064999524
 20
-4151.380860223937
 30
0.0
  0
POINT
  5
69D
330
44C
100
AcDbEntity
  8
Defpoints
 62
     0
100
AcDbPoint
 10
-11823.064999524
 20
-4114.168182822413
 30
0.0
  0
ENDBLK
  5
44E
330
44C
100
AcDbEntity
  8
0
100
AcDbBlockEnd
  0
BLOCK
  5
459
330
458
100
AcDbEntity
  8
0
100
AcDbBlockBegin
  2
*D36
 70
     1
 10
0.0
 20
0.0
 30
0.0
  3
*D36
  1

  0
LINE
  5
68C
330
458
100
AcDbEntity
  8
0
 62
   123
370
     9
100
AcDbLine
 10
-11788.06499952399
 20
-4132.080860227989
 30
0.0
 11
-11788.06499952399
 21
-4113.622850620429
 31
0.0
  0
LINE
  5
68D
330
458
100
AcDbEntity
  8
0
 62
   123
370
     9
100
AcDbLine
 10
-11742.064999524
 20
-4131.080860223936
 30
0.0
 11
-11742.064999524
 21
-4113.622850620429
 31
0.0
  0
LINE
  5
68E
330
458
100
AcDbEntity
  8
0
 62
   123
370
     9
100
AcDbLine
 10
-11785.66499952399
 20
-4114.122850620429
 30
0.0
 11
-11744.46499952399
 21
-4114.122850620429
 31
0.0
  0
SOLID
  5
68F
330
458
100
AcDbEntity
  8
0
 62
   123
100
AcDbTrace
 10
-11785.66499952399
 20
-4113.722850620429
 30
0.0
 11
-11785.66499952399
 21
-4114.522850620428
 31
0.0
 12
-11788.06499952399
 22
-4114.122850620429
 32
0.0
 13
-11788.06499952399
 23
-4114.122850620429
 33
0.0
  0
SOLID
  5
690
330
458
100
AcDbEntity
  8
0
 62
   123
100
AcDbTrace
 10
-11744.46499952399
 20
-4113.722850620429
 30
0.0
 11
-11744.46499952399
 21
-4114.522850620428
 31
0.0
 12
-11742.064999524
 22
-4114.122850620429
 32
0.0
 13
-11742.064999524
 23
-4114.122850620429
 33
0.0
  0
MTEXT
  5
691
330
458
100
AcDbEntity
  8
0
 62
     3
100
AcDbMText
 10
-11765.06499952399
 20
-4111.372850620429
 30
0.0
 40
3.5
 41
0.0
 71
     5
 72
     1
  1
L
 73
     1
 44
1.0
1001
ACAD
1000
MTEXTBEGIN
1070
    73
1070
     1
1070
    44
1040
1.0
1070
    74
1070
     0
1000
MTEXTEND
  0
POINT
  5
692
330
458
100
AcDbEntity
  8
Defpoints
 62
     0
100
AcDbPoint
 10
-11788.06499952399
 20
-4132.880860227988
 30
0.0
  0
POINT
  5
693
330
458
100
AcDbEntity
  8
Defpoints
 62
     0
100
AcDbPoint
 10
-11742.064999524
 20
-4131.880860223936
 30
0.0
  0
POINT
  5
694
330
458
100
AcDbEntity
  8
Defpoints
 62
     0
100
AcDbPoint
 10
-11742.064999524
 20
-4114.122850620429
 30
0.0
  0
ENDBLK
  5
45A
330
458
100
AcDbEntity
  8
0
100
AcDbBlockEnd
  0
BLOCK
  5
465
330
464
100
AcDbEntity
  8
0
100
AcDbBlockBegin
  2
*D37
 70
     1
 10
0.0
 20
0.0
 30
0.0
  3
*D37
  1

  0
LINE
  5
658
330
464
100
AcDbEntity
  8
0
 62
   123
370
     9
100
AcDbLine
 10
-11742.064999524
 20
-4131.080860223936
 30
0.0
 11
-11742.064999524
 21
-4113.622850620429
 31
0.0
  0
LINE
  5
659
330
464
100
AcDbEntity
  8
0
 62
   123
370
     9
100
AcDbLine
 10
-11700.064999524
 20
-4131.580860223939
 30
0.0
 11
-11700.064999524
 21
-4113.622850620429
 31
0.0
  0
LINE
  5
65A
330
464
100
AcDbEntity
  8
0
 62
   123
370
     9
100
AcDbLine
 10
-11739.66499952399
 20
-4114.122850620429
 30
0.0
 11
-11702.46499952399
 21
-4114.122850620429
 31
0.0
  0
SOLID
  5
65B
330
464
100
AcDbEntity
  8
0
 62
   123
100
AcDbTrace
 10
-11739.66499952399
 20
-4113.722850620429
 30
0.0
 11
-11739.66499952399
 21
-4114.522850620428
 31
0.0
 12
-11742.064999524
 22
-4114.122850620429
 32
0.0
 13
-11742.064999524
 23
-4114.122850620429
 33
0.0
  0
SOLID
  5
65C
330
464
100
AcDbEntity
  8
0
 62
   123
100
AcDbTrace
 10
-11702.46499952399
 20
-4113.722850620429
 30
0.0
 11
-11702.46499952399
 21
-4114.522850620428
 31
0.0
 12
-11700.064999524
 22
-4114.122850620429
 32
0.0
 13
-11700.064999524
 23
-4114.122850620429
 33
0.0
  0
MTEXT
  5
65D
330
464
100
AcDbEntity
  8
0
 62
     3
100
AcDbMText
 10
-11721.064999524
 20
-4111.372850620429
 30
0.0
 40
3.5
 41
0.0
 71
     5
 72
     1
  1
42
 73
     1
 44
1.0
1001
ACAD
1000
MTEXTBEGIN
1070
    73
1070
     1
1070
    44
1040
1.0
1070
    74
1070
     0
1000
MTEXTEND
  0
POINT
  5
65E
330
464
100
AcDbEntity
  8
Defpoints
 62
     0
100
AcDbPoint
 10
-11742.064999524
 20
-4131.880860223936
 30
0.0
  0
POINT
  5
65F
330
464
100
AcDbEntity
  8
Defpoints
 62
     0
100
AcDbPoint
 10
-11700.064999524
 20
-4132.380860223939
 30
0.0
  0
POINT
  5
660
330
464
100
AcDbEntity
  8
Defpoints
 62
     0
100
AcDbPoint
 10
-11700.064999524
 20
-4114.122850620429
 30
0.0
  0
ENDBLK
  5
466
330
464
100
AcDbEntity
  8
0
100
AcDbBlockEnd
  0
BLOCK
  5
471
330
470
100
AcDbEntity
  8
0
100
AcDbBlockBegin
  2
*D38
 70
     1
 10
0.0
 20
0.0
 30
0.0
  3
*D38
  1

  0
LINE
  5
64F
330
470
100
AcDbEntity
  8
0
 62
   123
370
     9
100
AcDbLine
 10
-11742.064999524
 20
-4131.080860223936
 30
0.0
 11
-11742.064999524
 21
-4122.763947673658
 31
0.0
  0
LINE
  5
650
330
470
100
AcDbEntity
  8
0
 62
   123
370
     9
100
AcDbLine
 10
-11734.06499952391
 20
-4131.080860223936
 30
0.0
 11
-11734.06499952391
 21
-4122.763947673658
 31
0.0
  0
LINE
  5
651
330
470
100
AcDbEntity
  8
0
 62
   123
370
     9
100
AcDbLine
 10
-11739.66499952399
 20
-4123.263947673659
 30
0.0
 11
-11736.46499952391
 21
-4123.263947673659
 31
0.0
  0
SOLID
  5
652
330
470
100
AcDbEntity
  8
0
 62
   123
100
AcDbTrace
 10
-11739.66499952399
 20
-4122.863947673659
 30
0.0
 11
-11739.66499952399
 21
-4123.663947673658
 31
0.0
 12
-11742.064999524
 22
-4123.263947673659
 32
0.0
 13
-11742.064999524
 23
-4123.263947673659
 33
0.0
  0
SOLID
  5
653
330
470
100
AcDbEntity
  8
0
 62
   123
100
AcDbTrace
 10
-11736.46499952391
 20
-4122.863947673659
 30
0.0
 11
-11736.46499952391
 21
-4123.663947673658
 31
0.0
 12
-11734.06499952391
 22
-4123.263947673659
 32
0.0
 13
-11734.06499952391
 23
-4123.263947673659
 33
0.0
  0
MTEXT
  5
654
330
470
100
AcDbEntity
  8
0
 62
     3
100
AcDbMText
 10
-11738.06499952395
 20
-4120.513947673658
 30
0.0
 40
3.5
 41
0.0
 71
     5
 72
     1
  1
8
 73
     1
 44
1.0
1001
ACAD
1000
MTEXTBEGIN
1070
    73
1070
     1
1070
    44
1040
1.0
1070
    74
1070
     0
1000
MTEXTEND
  0
POINT
  5
655
330
470
100
AcDbEntity
  8
Defpoints
 62
     0
100
AcDbPoint
 10
-11742.064999524
 20
-4131.880860223936
 30
0.0
  0
POINT
  5
656
330
470
100
AcDbEntity
  8
Defpoints
 62
     0
100
AcDbPoint
 10
-11734.06499952391
 20
-4131.880860223936
 30
0.0
  0
POINT
  5
657
330
470
100
AcDbEntity
  8
Defpoints
 62
     0
100
AcDbPoint
 10
-11734.06499952391
 20
-4123.263947673659
 30
0.0
  0
ENDBLK
  5
472
330
470
100
AcDbEntity
  8
0
100
AcDbBlockEnd
  0
BLOCK
  5
47D
330
47C
100
AcDbEntity
  8
0
100
AcDbBlockBegin
  2
*D39
 70
     1
 10
0.0
 20
0.0
 30
0.0
  3
*D39
  1

  0
LINE
  5
6C3
330
47C
100
AcDbEntity
  8
0
 62
   123
370
     9
100
AcDbLine
 10
-11828.86499952399
 20
-4158.880860223937
 30
0.0
 11
-11841.62406972647
 21
-4158.880860223937
 31
0.0
  0
LINE
  5
6C4
330
47C
100
AcDbEntity
  8
0
 62
   123
370
     9
100
AcDbLine
 10
-11803.33124711917
 20
-4171.880860223937
 30
0.0
 11
-11841.62406972647
 21
-4171.880860223937
 31
0.0
  0
LINE
  5
6C5
330
47C
100
AcDbEntity
  8
0
 62
   123
370
     9
100
AcDbLine
 10
-11841.12406972646
 20
-4161.280860223937
 30
0.0
 11
-11841.12406972646
 21
-4169.480860223937
 31
0.0
  0
SOLID
  5
6C6
330
47C
100
AcDbEntity
  8
0
 62
   123
100
AcDbTrace
 10
-11841.52406972647
 20
-4161.280860223937
 30
0.0
 11
-11840.72406972647
 21
-4161.280860223937
 31
0.0
 12
-11841.12406972646
 22
-4158.880860223937
 32
0.0
 13
-11841.12406972646
 23
-4158.880860223937
 33
0.0
  0
SOLID
  5
6C7
330
47C
100
AcDbEntity
  8
0
 62
   123
100
AcDbTrace
 10
-11841.52406972647
 20
-4169.480860223937
 30
0.0
 11
-11840.72406972647
 21
-4169.480860223937
 31
0.0
 12
-11841.12406972646
 22
-4171.880860223937
 32
0.0
 13
-11841.12406972646
 23
-4171.880860223937
 33
0.0
  0
MTEXT
  5
6C8
330
47C
100
AcDbEntity
  8
0
 62
     3
100
AcDbMText
 10
-11843.87406972646
 20
-4165.380860223936
 30
0.0
 40
3.5
 41
0.0
 71
     5
 72
     1
  1
13
 11
0.0000000000000001
 21
1.0
 31
0.0
 73
     1
 44
1.0
1001
ACAD
1000
MTEXTBEGIN
1070
    73
1070
     1
1070
    44
1040
1.0
1070
    74
1070
     0
1000
MTEXTEND
  0
POINT
  5
6C9
330
47C
100
AcDbEntity
  8
Defpoints
 62
     0
100
AcDbPoint
 10
-11828.06499952399
 20
-4158.880860223937
 30
0.0
  0
POINT
  5
6CA
330
47C
100
AcDbEntity
  8
Defpoints
 62
     0
100
AcDbPoint
 10
-11802.53124711918
 20
-4171.880860223937
 30
0.0
  0
POINT
  5
6CB
330
47C
100
AcDbEntity
  8
Defpoints
 62
     0
100
AcDbPoint
 10
-11841.12406972646
 20
-4171.880860223937
 30
0.0
  0
ENDBLK
  5
47E
330
47C
100
AcDbEntity
  8
0
100
AcDbBlockEnd
  0
BLOCK
  5
489
330
488
100
AcDbEntity
  8
0
100
AcDbBlockBegin
  2
*D40
 70
     1
 10
0.0
 20
0.0
 30
0.0
  3
*D40
  1

  0
LINE
  5
6BA
330
488
100
AcDbEntity
  8
0
 62
   123
370
     9
100
AcDbLine
 10
-11794.86499951994
 20
-4141.880860223939
 30
0.0
 11
-11850.12082113122
 21
-4141.880860223939
 31
0.0
  0
LINE
  5
6BB
330
488
100
AcDbEntity
  8
0
 62
   123
370
     9
100
AcDbLine
 10
-11794.86499951994
 20
-4175.880860223936
 30
0.0
 11
-11850.12082113122
 21
-4175.880860223936
 31
0.0
  0
LINE
  5
6BC
330
488
100
AcDbEntity
  8
0
 62
   123
370
     9
100
AcDbLine
 10
-11849.62082113122
 20
-4144.280860223939
 30
0.0
 11
-11849.62082113122
 21
-4173.480860223937
 31
0.0
  0
SOLID
  5
6BD
330
488
100
AcDbEntity
  8
0
 62
   123
100
AcDbTrace
 10
-11850.02082113122
 20
-4144.280860223939
 30
0.0
 11
-11849.22082113122
 21
-4144.280860223939
 31
0.0
 12
-11849.62082113122
 22
-4141.880860223939
 32
0.0
 13
-11849.62082113122
 23
-4141.880860223939
 33
0.0
  0
SOLID
  5
6BE
330
488
100
AcDbEntity
  8
0
 62
   123
100
AcDbTrace
 10
-11850.02082113122
 20
-4173.480860223937
 30
0.0
 11
-11849.22082113122
 21
-4173.480860223937
 31
0.0
 12
-11849.62082113122
 22
-4175.880860223936
 32
0.0
 13
-11849.62082113122
 23
-4175.880860223936
 33
0.0
  0
MTEXT
  5
6BF
330
488
100
AcDbEntity
  8
0
 62
     3
100
AcDbMText
 10
-11852.37082113121
 20
-4158.880860223939
 30
0.0
 40
3.5
 41
0.0
 71
     5
 72
     1
  1
%%C34
 11
0.0000000000000001
 21
1.0
 31
0.0
 73
     1
 44
1.0
1001
ACAD
1000
MTEXTBEGIN
1070
    73
1070
     1
1070
    44
1040
1.0
1070
    74
1070
     0
1000
MTEXTEND
  0
POINT
  5
6C0
330
488
100
AcDbEntity
  8
Defpoints
 62
     0
100
AcDbPoint
 10
-11794.06499951995
 20
-4141.880860223939
 30
0.0
  0
POINT
  5
6C1
330
488
100
AcDbEntity
  8
Defpoints
 62
     0
100
AcDbPoint
 10
-11794.06499951995
 20
-4175.880860223936
 30
0.0
  0
POINT
  5
6C2
330
488
100
AcDbEntity
  8
Defpoints
 62
     0
100
AcDbPoint
 10
-11849.62082113122
 20
-4175.880860223936
 30
0.0
  0
ENDBLK
  5
48A
330
488
100
AcDbEntity
  8
0
100
AcDbBlockEnd
  0
BLOCK
  5
495
330
494
100
AcDbEntity
  8
0
100
AcDbBlockBegin
  2
*D41
 70
     1
 10
0.0
 20
0.0
 30
0.0
  3
*D41
  1

  0
LINE
  5
66A
330
494
100
AcDbEntity
  8
0
 62
   123
370
     9
100
AcDbLine
 10
-11698.96533474968
 20
-4211.880860223943
 30
0.0
 11
-11683.2410955944
 21
-4211.880860223943
 31
0.0
  0
LINE
  5
66B
330
494
100
AcDbEntity
  8
0
 62
   123
370
     9
100
AcDbLine
 10
-11701.27686684188
 20
-4222.88086022394
 30
0.0
 11
-11683.2410955944
 21
-4222.88086022394
 31
0.0
  0
LINE
  5
66C
330
494
100
AcDbEntity
  8
0
 62
   123
370
     9
100
AcDbLine
 10
-11683.7410955944
 20
-4214.280860223943
 30
0.0
 11
-11683.7410955944
 21
-4220.48086022394
 31
0.0
  0
SOLID
  5
66D
330
494
100
AcDbEntity
  8
0
 62
   123
100
AcDbTrace
 10
-11684.1410955944
 20
-4214.280860223943
 30
0.0
 11
-11683.34109559441
 21
-4214.280860223943
 31
0.0
 12
-11683.7410955944
 22
-4211.880860223943
 32
0.0
 13
-11683.7410955944
 23
-4211.880860223943
 33
0.0
  0
SOLID
  5
66E
330
494
100
AcDbEntity
  8
0
 62
   123
100
AcDbTrace
 10
-11684.1410955944
 20
-4220.48086022394
 30
0.0
 11
-11683.34109559441
 21
-4220.48086022394
 31
0.0
 12
-11683.7410955944
 22
-4222.88086022394
 32
0.0
 13
-11683.7410955944
 23
-4222.88086022394
 33
0.0
  0
MTEXT
  5
66F
330
494
100
AcDbEntity
  8
0
 62
     3
100
AcDbMText
 10
-11686.4910955944
 20
-4217.380860223943
 30
0.0
 40
3.5
 41
0.0
 71
     5
 72
     1
  1
11
 11
0.0000000000000001
 21
1.0
 31
0.0
 73
     1
 44
1.0
1001
ACAD
1000
MTEXTBEGIN
1070
    73
1070
     1
1070
    44
1040
1.0
1070
    74
1070
     0
1000
MTEXTEND
  0
POINT
  5
670
330
494
100
AcDbEntity
  8
Defpoints
 62
     0
100
AcDbPoint
 10
-11699.76533474968
 20
-4211.880860223943
 30
0.0
  0
POINT
  5
671
330
494
100
AcDbEntity
  8
Defpoints
 62
     0
100
AcDbPoint
 10
-11702.07686684188
 20
-4222.88086022394
 30
0.0
  0
POINT
  5
672
330
494
100
AcDbEntity
  8
Defpoints
 62
     0
100
AcDbPoint
 10
-11683.7410955944
 20
-4222.88086022394
 30
0.0
  0
ENDBLK
  5
496
330
494
100
AcDbEntity
  8
0
100
AcDbBlockEnd
  0
BLOCK
  5
4A1
330
4A0
100
AcDbEntity
  8
0
100
AcDbBlockBegin
  2
*D42
 70
     1
 10
0.0
 20
0.0
 30
0.0
  3
*D42
  1

  0
LINE
  5
661
330
4A0
100
AcDbEntity
  8
0
 62
   123
370
     9
100
AcDbLine
 10
-11699.764999524
 20
-4131.880860223939
 30
0.0
 11
-11683.2410955944
 21
-4131.880860223939
 31
0.0
  0
LINE
  5
662
330
4A0
100
AcDbEntity
  8
0
 62
   123
370
     9
100
AcDbLine
 10
-11699.76499952402
 20
-4211.88086022394
 30
0.0
 11
-11683.2410955944
 21
-4211.88086022394
 31
0.0
  0
LINE
  5
663
330
4A0
100
AcDbEntity
  8
0
 62
   123
370
     9
100
AcDbLine
 10
-11683.7410955944
 20
-4134.280860223939
 30
0.0
 11
-11683.7410955944
 21
-4209.480860223941
 31
0.0
  0
SOLID
  5
664
330
4A0
100
AcDbEntity
  8
0
 62
   123
100
AcDbTrace
 10
-11684.1410955944
 20
-4134.280860223939
 30
0.0
 11
-11683.34109559441
 21
-4134.280860223939
 31
0.0
 12
-11683.7410955944
 22
-4131.880860223939
 32
0.0
 13
-11683.7410955944
 23
-4131.880860223939
 33
0.0
  0
SOLID
  5
665
330
4A0
100
AcDbEntity
  8
0
 62
   123
100
AcDbTrace
 10
-11684.1410955944
 20
-4209.480860223941
 30
0.0
 11
-11683.34109559441
 21
-4209.480860223941
 31
0.0
 12
-11683.7410955944
 22
-4211.88086022394
 32
0.0
 13
-11683.7410955944
 23
-4211.88086022394
 33
0.0
  0
MTEXT
  5
666
330
4A0
100
AcDbEntity
  8
0
 62
     3
100
AcDbMText
 10
-11686.4910955944
 20
-4171.880860223941
 30
0.0
 40
3.5
 41
0.0
 71
     5
 72
     1
  1
80
 11
0.0000000000000001
 21
1.0
 31
0.0
 73
     1
 44
1.0
1001
ACAD
1000
MTEXTBEGIN
1070
    73
1070
     1
1070
    44
1040
1.0
1070
    74
1070
     0
1000
MTEXTEND
  0
POINT
  5
667
330
4A0
100
AcDbEntity
  8
Defpoints
 62
     0
100
AcDbPoint
 10
-11700.56499952399
 20
-4131.880860223939
 30
0.0
  0
POINT
  5
668
330
4A0
100
AcDbEntity
  8
Defpoints
 62
     0
100
AcDbPoint
 10
-11700.56499952401
 20
-4211.88086022394
 30
0.0
  0
POINT
  5
669
330
4A0
100
AcDbEntity
  8
Defpoints
 62
     0
100
AcDbPoint
 10
-11683.7410955944
 20
-4211.88086022394
 30
0.0
  0
ENDBLK
  5
4A2
330
4A0
100
AcDbEntity
  8
0
100
AcDbBlockEnd
  0
BLOCK
  5
4AD
330
4AC
100
AcDbEntity
  8
0
100
AcDbBlockBegin
  2
*D43
 70
     1
 10
0.0
 20
0.0
 30
0.0
  3
*D43
  1

  0
LINE
  5
673
330
4AC
100
AcDbEntity
  8
0
 62
   123
370
     9
100
AcDbLine
 10
-11763.95223034747
 20
-4261.650533801282
 30
0.0
 11
-11756.50077187158
 21
-4270.747855305675
 31
0.0
  0
LINE
  5
674
330
4AC
100
AcDbEntity
  8
0
 62
   123
370
     9
100
AcDbLine
 10
-11783.83451102307
 20
-4277.935765535563
 30
0.0
 11
-11776.38305254717
 21
-4287.033087039955
 31
0.0
  0
LINE
  5
675
330
4AC
100
AcDbEntity
  8
0
 62
   123
370
     9
100
AcDbLine
 10
-11758.67427695551
 20
-4271.881819877479
 30
0.0
 11
-11774.84320262368
 21
-4285.125506841606
 31
0.0
  0
SOLID
  5
676
330
4AC
100
AcDbEntity
  8
0
 62
   123
100
AcDbTrace
 10
-11758.9277390197
 20
-4271.57237362686
 30
0.0
 11
-11758.42081489134
 21
-4272.191266128096
 31
0.0
 12
-11756.8175994518
 22
-4270.361047492403
 32
0.0
 13
-11756.8175994518
 23
-4270.361047492403
 33
0.0
  0
SOLID
  5
677
330
4AC
100
AcDbEntity
  8
0
 62
   123
100
AcDbTrace
 10
-11775.09666468786
 20
-4284.816060590989
 30
0.0
 11
-11774.5897405595
 21
-4285.434953092225
 31
0.0
 12
-11776.69988012739
 22
-4286.646279226682
 32
0.0
 13
-11776.69988012739
 23
-4286.646279226682
 33
0.0
  0
MTEXT
  5
678
330
4AC
100
AcDbEntity
  8
0
 62
     3
100
AcDbMText
 10
-11768.50129148083
 20
-4276.376220386539
 30
0.0
 40
3.5
 41
0.0
 71
     5
 72
     1
  1
200
 11
0.7736156265466
 21
0.633655160448419
 31
0.0
 73
     1
 44
1.0
1001
ACAD
1000
MTEXTBEGIN
1070
    73
1070
     1
1070
    44
1040
1.0
1070
    74
1070
     0
1000
MTEXTEND
  0
POINT
  5
679
330
4AC
100
AcDbEntity
  8
Defpoints
 62
     0
100
AcDbPoint
 10
-11764.45915447583
 20
-4261.031641300045
 30
0.0
  0
POINT
  5
67A
330
4AC
100
AcDbEntity
  8
Defpoints
 62
     0
100
AcDbPoint
 10
-11784.34143515142
 20
-4277.316873034325
 30
0.0
  0
POINT
  5
67B
330
4AC
100
AcDbEntity
  8
Defpoints
 62
     0
100
AcDbPoint
 10
-11776.69988012739
 20
-4286.646279226682
 30
0.0
  0
ENDBLK
  5
4AE
330
4AC
100
AcDbEntity
  8
0
100
AcDbBlockEnd
  0
BLOCK
  5
4B9
330
4B8
100
AcDbEntity
  8
0
100
AcDbBlockBegin
  2
*D44
 70
     1
 10
0.0
 20
0.0
 30
0.0
  3
*D44
  1

  0
LINE
  5
683
330
4B8
100
AcDbEntity
  8
0
 62
   123
370
     9
100
AcDbLine
 10
-11953.98294949134
 20
-4139.280860223936
 30
0.0
 11
-11953.98294949134
 21
-4106.399491601631
 31
0.0
  0
LINE
  5
684
330
4B8
100
AcDbEntity
  8
0
 62
   123
370
     9
100
AcDbLine
 10
-11873.98294949134
 20
-4139.280860223936
 30
0.0
 11
-11873.98294949134
 21
-4106.399491601631
 31
0.0
  0
LINE
  5
685
330
4B8
100
AcDbEntity
  8
0
 62
   123
370
     9
100
AcDbLine
 10
-11951.58294949135
 20
-4106.89949160163
 30
0.0
 11
-11876.38294949134
 21
-4106.89949160163
 31
0.0
  0
SOLID
  5
686
330
4B8
100
AcDbEntity
  8
0
 62
   123
100
AcDbTrace
 10
-11951.58294949135
 20
-4106.49949160163
 30
0.0
 11
-11951.58294949135
 21
-4107.29949160163
 31
0.0
 12
-11953.98294949134
 22
-4106.89949160163
 32
0.0
 13
-11953.98294949134
 23
-4106.89949160163
 33
0.0
  0
SOLID
  5
687
330
4B8
100
AcDbEntity
  8
0
 62
   123
100
AcDbTrace
 10
-11876.38294949134
 20
-4106.49949160163
 30
0.0
 11
-11876.38294949134
 21
-4107.29949160163
 31
0.0
 12
-11873.98294949134
 22
-4106.89949160163
 32
0.0
 13
-11873.98294949134
 23
-4106.89949160163
 33
0.0
  0
MTEXT
  5
688
330
4B8
100
AcDbEntity
  8
0
 62
     3
100
AcDbMText
 10
-11913.98294949134
 20
-4104.112207979794
 30
0.0
 40
3.5
 41
0.0
 71
     5
 72
     1
  1
{\fGulim|b0|i0|c129|p50;□}80
 73
     1
 44
1.0
1001
ACAD
1000
MTEXTBEGIN
1070
    73
1070
     1
1070
    44
1040
1.0
1070
    74
1070
     0
1000
MTEXTEND
  0
POINT
  5
689
330
4B8
100
AcDbEntity
  8
Defpoints
 62
     0
100
AcDbPoint
 10
-11953.98294949134
 20
-4140.080860223936
 30
0.0
  0
POINT
  5
68A
330
4B8
100
AcDbEntity
  8
Defpoints
 62
     0
100
AcDbPoint
 10
-11873.98294949134
 20
-4140.080860223936
 30
0.0
  0
POINT
  5
68B
330
4B8
100
AcDbEntity
  8
Defpoints
 62
     0
100
AcDbPoint
 10
-11873.98294949134
 20
-4106.89949160163
 30
0.0
  0
ENDBLK
  5
4BA
330
4B8
100
AcDbEntity
  8
0
100
AcDbBlockEnd
  0
BLOCK
  5
4C5
330
4C4
100
AcDbEntity
  8
0
100
AcDbBlockBegin
  2
*D45
 70
     1
 10
0.0
 20
0.0
 30
0.0
  3
*D45
  1

  0
LINE
  5
67C
330
4C4
100
AcDbEntity
  8
0
 62
   123
370
     9
100
AcDbLine
 10
-11955.13495661261
 20
-4154.685735627409
 30
0.0
 11
-11872.83094237008
 21
-4189.075984820497
 31
0.0
  0
LINE
  5
67D
330
4C4
100
AcDbEntity
  8
0
 62
   123
370
     9
100
AcDbLine
 10
-11870.61648458777
 20
-4190.001283005066
 30
0.0
 11
-11845.73678777758
 21
-4200.397118263227
 31
0.0
  0
SOLID
  5
67E
330
4C4
100
AcDbEntity
  8
0
 62
   123
100
AcDbTrace
 10
-11954.98074024852
 20
-4154.316659330357
 30
0.0
 11
-11955.28917297671
 21
-4155.054811924461
 31
0.0
 12
-11957.34941439492
 22
-4153.760437442841
 32
0.0
 13
-11957.34941439492
 23
-4153.760437442841
 33
0.0
  0
SOLID
  5
67F
330
4C4
100
AcDbEntity
  8
0
 62
   123
100
AcDbTrace
 10
-11872.67672600599
 20
-4188.706908523447
 30
0.0
 11
-11872.98515873418
 21
-4189.445061117549
 31
0.0
 12
-11870.61648458777
 22
-4190.001283005066
 32
0.0
 13
-11870.61648458777
 23
-4190.001283005066
 33
0.0
  0
MTEXT
  5
680
102
{ACAD_XDICTIONARY
360
A3D
102
}
330
4C4
100
AcDbEntity
  8
0
 62
     3
100
AcDbMText
 10
-11855.51816650033
 20
-4193.329613025716
 30
0.0
 40
3.5
 41
0.0
 71
     5
 72
     1
  1
\U+220594%%P0.5
 11
0.9226907426294223
 21
-0.3855409102364692
 31
0.0
 73
     1
 44
1.0
1001
ACAD
1000
MTEXTBEGIN
1070
    73
1070
     1
1070
    44
1040
1.0
1070
    74
1070
     0
1000
MTEXTEND
  0
POINT
  5
681
330
4C4
100
AcDbEntity
  8
Defpoints
 62
     0
100
AcDbPoint
 10
-11870.61648458777
 20
-4190.001283005066
 30
0.0
  0
POINT
  5
682
330
4C4
100
AcDbEntity
  8
Defpoints
 62
     0
100
AcDbPoint
 10
-11957.34941439492
 20
-4153.760437442841
 30
0.0
  0
ENDBLK
  5
4C6
330
4C4
100
AcDbEntity
  8
0
100
AcDbBlockEnd
  0
BLOCK
  5
4CF
330
4CE
100
AcDbEntity
  8
0
100
AcDbBlockBegin
  2
*D46
 70
     1
 10
0.0
 20
0.0
 30
0.0
  3
*D46
  1

  0
LINE
  5
4D1
330
4CE
100
AcDbEntity
  8
0
 62
   123
370
     9
100
AcDbLine
 10
-11699.764999524
 20
-3888.512007544632
 30
0.0
 11
-11686.39930159983
 21
-3888.512007544632
 31
0.0
  0
LINE
  5
4D2
330
4CE
100
AcDbEntity
  8
0
 62
   123
370
     9
100
AcDbLine
 10
-11699.76499952402
 20
-3968.512007544632
 30
0.0
 11
-11686.39930159983
 21
-3968.512007544632
 31
0.0
  0
LINE
  5
4D3
330
4CE
100
AcDbEntity
  8
0
 62
   123
370
     9
100
AcDbLine
 10
-11686.89930159983
 20
-3890.912007544633
 30
0.0
 11
-11686.89930159983
 21
-3966.112007544632
 31
0.0
  0
SOLID
  5
4D4
330
4CE
100
AcDbEntity
  8
0
 62
   123
100
AcDbTrace
 10
-11687.29930159983
 20
-3890.912007544633
 30
0.0
 11
-11686.49930159983
 21
-3890.912007544633
 31
0.0
 12
-11686.89930159983
 22
-3888.512007544632
 32
0.0
 13
-11686.89930159983
 23
-3888.512007544632
 33
0.0
  0
SOLID
  5
4D5
330
4CE
100
AcDbEntity
  8
0
 62
   123
100
AcDbTrace
 10
-11687.29930159983
 20
-3966.112007544632
 30
0.0
 11
-11686.49930159983
 21
-3966.112007544632
 31
0.0
 12
-11686.89930159983
 22
-3968.512007544632
 32
0.0
 13
-11686.89930159983
 23
-3968.512007544632
 33
0.0
  0
MTEXT
  5
4D6
330
4CE
100
AcDbEntity
  8
0
 62
     3
100
AcDbMText
 10
-11689.64930159983
 20
-3928.512007544634
 30
0.0
 40
3.5
 41
0.0
 71
     5
 72
     1
  1
80
 11
0.0000000000000001
 21
1.0
 31
0.0
 73
     1
 44
1.0
1001
ACAD
1000
MTEXTBEGIN
1070
    73
1070
     1
1070
    44
1040
1.0
1070
    74
1070
     0
1000
MTEXTEND
  0
POINT
  5
4D7
330
4CE
100
AcDbEntity
  8
Defpoints
 62
     0
100
AcDbPoint
 10
-11700.564999524
 20
-3888.512007544632
 30
0.0
  0
POINT
  5
4D8
330
4CE
100
AcDbEntity
  8
Defpoints
 62
     0
100
AcDbPoint
 10
-11700.56499952402
 20
-3968.512007544632
 30
0.0
  0
POINT
  5
4D9
330
4CE
100
AcDbEntity
  8
Defpoints
 62
     0
100
AcDbPoint
 10
-11686.89930159983
 20
-3968.512007544632
 30
0.0
  0
ENDBLK
  5
4D0
330
4CE
100
AcDbEntity
  8
0
100
AcDbBlockEnd
  0
BLOCK
  5
4DB
330
4DA
100
AcDbEntity
  8
0
100
AcDbBlockBegin
  2
*D47
 70
     1
 10
0.0
 20
0.0
 30
0.0
  3
*D47
  1

  0
LINE
  5
4DD
330
4DA
100
AcDbEntity
  8
0
 62
   123
370
     9
100
AcDbLine
 10
-11699.764999524
 20
-3968.512007544632
 30
0.0
 11
-11686.39930159983
 21
-3968.512007544632
 31
0.0
  0
LINE
  5
4DE
330
4DA
100
AcDbEntity
  8
0
 62
   123
370
     9
100
AcDbLine
 10
-11701.27686684189
 20
-3979.512007544632
 30
0.0
 11
-11686.39930159983
 21
-3979.512007544632
 31
0.0
  0
LINE
  5
4DF
330
4DA
100
AcDbEntity
  8
0
 62
   123
370
     9
100
AcDbLine
 10
-11686.89930159983
 20
-3970.912007544632
 30
0.0
 11
-11686.89930159983
 21
-3977.112007544632
 31
0.0
  0
SOLID
  5
4E0
330
4DA
100
AcDbEntity
  8
0
 62
   123
100
AcDbTrace
 10
-11687.29930159983
 20
-3970.912007544632
 30
0.0
 11
-11686.49930159983
 21
-3970.912007544632
 31
0.0
 12
-11686.89930159983
 22
-3968.512007544632
 32
0.0
 13
-11686.89930159983
 23
-3968.512007544632
 33
0.0
  0
SOLID
  5
4E1
330
4DA
100
AcDbEntity
  8
0
 62
   123
100
AcDbTrace
 10
-11687.29930159983
 20
-3977.112007544632
 30
0.0
 11
-11686.49930159983
 21
-3977.112007544632
 31
0.0
 12
-11686.89930159983
 22
-3979.512007544632
 32
0.0
 13
-11686.89930159983
 23
-3979.512007544632
 33
0.0
  0
MTEXT
  5
4E2
330
4DA
100
AcDbEntity
  8
0
 62
     3
100
AcDbMText
 10
-11689.64930159983
 20
-3974.012007544634
 30
0.0
 40
3.5
 41
0.0
 71
     5
 72
     1
  1
11
 11
0.0000000000000001
 21
1.0
 31
0.0
 73
     1
 44
1.0
1001
ACAD
1000
MTEXTBEGIN
1070
    73
1070
     1
1070
    44
1040
1.0
1070
    74
1070
     0
1000
MTEXTEND
  0
POINT
  5
4E3
330
4DA
100
AcDbEntity
  8
Defpoints
 62
     0
100
AcDbPoint
 10
-11700.564999524
 20
-3968.512007544632
 30
0.0
  0
POINT
  5
4E4
330
4DA
100
AcDbEntity
  8
Defpoints
 62
     0
100
AcDbPoint
 10
-11702.07686684189
 20
-3979.512007544632
 30
0.0
  0
POINT
  5
4E5
330
4DA
100
AcDbEntity
  8
Defpoints
 62
     0
100
AcDbPoint
 10
-11686.89930159983
 20
-3979.512007544632
 30
0.0
  0
ENDBLK
  5
4DC
330
4DA
100
AcDbEntity
  8
0
100
AcDbBlockEnd
  0
BLOCK
  5
4E7
330
4E6
100
AcDbEntity
  8
0
100
AcDbBlockBegin
  2
*D48
 70
     1
 10
0.0
 20
0.0
 30
0.0
  3
*D48
  1

  0
LINE
  5
4E9
330
4E6
100
AcDbEntity
  8
0
 62
   123
370
     9
100
AcDbLine
 10
-11766.17063382447
 20
-4018.281681121972
 30
0.0
 11
-11758.71917534854
 21
-4027.379002626395
 31
0.0
  0
LINE
  5
4EA
330
4E6
100
AcDbEntity
  8
0
 62
   123
370
     9
100
AcDbLine
 10
-11786.05291450006
 20
-4034.566912856256
 30
0.0
 11
-11778.60145602414
 21
-4043.664234360681
 31
0.0
  0
LINE
  5
4EB
330
4E6
100
AcDbEntity
  8
0
 62
   123
370
     9
100
AcDbLine
 10
-11760.89268043248
 20
-4028.512967198198
 30
0.0
 11
-11777.06160610065
 21
-4041.756654162329
 31
0.0
  0
SOLID
  5
4EC
330
4E6
100
AcDbEntity
  8
0
 62
   123
100
AcDbTrace
 10
-11761.14614249666
 20
-4028.203520947581
 30
0.0
 11
-11760.6392183683
 21
-4028.822413448818
 31
0.0
 12
-11759.03600292877
 22
-4026.992194813123
 32
0.0
 13
-11759.03600292877
 23
-4026.992194813123
 33
0.0
  0
SOLID
  5
4ED
330
4E6
100
AcDbEntity
  8
0
 62
   123
100
AcDbTrace
 10
-11777.31506816483
 20
-4041.447207911712
 30
0.0
 11
-11776.80814403647
 21
-4042.06610041295
 31
0.0
 12
-11778.91828360436
 22
-4043.277426547407
 32
0.0
 13
-11778.91828360436
 23
-4043.277426547407
 33
0.0
  0
MTEXT
  5
4EE
330
4E6
100
AcDbEntity
  8
0
 62
     3
100
AcDbMText
 10
-11770.7196949578
 20
-4033.00736770726
 30
0.0
 40
3.5
 41
0.0
 71
     5
 72
     1
  1
200
 11
0.7736156265465307
 21
0.6336551604485035
 31
0.0
 73
     1
 44
1.0
1001
ACAD
1000
MTEXTBEGIN
1070
    73
1070
     1
1070
    44
1040
1.0
1070
    74
1070
     0
1000
MTEXTEND
  0
POINT
  5
4EF
330
4E6
100
AcDbEntity
  8
Defpoints
 62
     0
100
AcDbPoint
 10
-11766.67755795283
 20
-4017.662788620734
 30
0.0
  0
POINT
  5
4F0
330
4E6
100
AcDbEntity
  8
Defpoints
 62
     0
100
AcDbPoint
 10
-11786.55983862842
 20
-4033.948020355018
 30
0.0
  0
POINT
  5
4F1
330
4E6
100
AcDbEntity
  8
Defpoints
 62
     0
100
AcDbPoint
 10
-11778.91828360436
 20
-4043.277426547407
 30
0.0
  0
ENDBLK
  5
4E8
330
4E6
100
AcDbEntity
  8
0
100
AcDbBlockEnd
  0
BLOCK
  5
4F3
330
4F2
100
AcDbEntity
  8
0
100
AcDbBlockBegin
  2
*D49
 70
     1
 10
0.0
 20
0.0
 30
0.0
  3
*D49
  1

  0
LINE
  5
4F5
330
4F2
100
AcDbEntity
  8
0
 62
   123
370
     9
100
AcDbLine
 10
-11920.41787259837
 20
-3902.395436714582
 30
0.0
 11
-11848.11061907343
 21
-3954.628578374637
 31
0.0
  0
LINE
  5
4F6
330
4F2
100
AcDbEntity
  8
0
 62
   123
370
     9
100
AcDbLine
 10
-11846.1651324315
 20
-3956.033954383428
 30
0.0
 11
-11820.89743865957
 21
-3974.286770855803
 31
0.0
  0
SOLID
  5
4F7
330
4F2
100
AcDbEntity
  8
0
 62
   123
100
AcDbTrace
 10
-11920.18364326357
 20
-3902.071188940927
 30
0.0
 11
-11920.65210193317
 21
-3902.719684488236
 31
0.0
 12
-11922.3633592403
 22
-3900.990060705792
 32
0.0
 13
-11922.3633592403
 23
-3900.990060705792
 33
0.0
  0
SOLID
  5
4F8
330
4F2
100
AcDbEntity
  8
0
 62
   123
100
AcDbTrace
 10
-11847.87638973863
 20
-3954.304330600982
 30
0.0
 11
-11848.34484840823
 21
-3954.952826148291
 31
0.0
 12
-11846.1651324315
 22
-3956.033954383428
 32
0.0
 13
-11846.1651324315
 23
-3956.033954383428
 33
0.0
  0
MTEXT
  5
4F9
102
{ACAD_XDICTIONARY
360
A27
102
}
330
4F2
100
AcDbEntity
  8
0
 62
     3
100
AcDbMText
 10
-11828.40658061687
 20
-3965.469867370719
 30
0.0
 40
3.5
 41
0.0
 71
     5
 72
     1
  1
\U+220594%%P0.1
 11
0.8106194341361348
 21
-0.5855733369961551
 31
0.0
 73
     1
 44
1.0
1001
ACAD
1000
MTEXTBEGIN
1070
    73
1070
     1
1070
    44
1040
1.0
1070
    74
1070
     0
1000
MTEXTEND
  0
POINT
  5
4FA
330
4F2
100
AcDbEntity
  8
Defpoints
 62
     0
100
AcDbPoint
 10
-11846.1651324315
 20
-3956.033954383428
 30
0.0
  0
POINT
  5
4FB
330
4F2
100
AcDbEntity
  8
Defpoints
 62
     0
100
AcDbPoint
 10
-11922.3633592403
 20
-3900.990060705792
 30
0.0
  0
ENDBLK
  5
4F4
330
4F2
100
AcDbEntity
  8
0
100
AcDbBlockEnd
  0
BLOCK
  5
4FD
330
4FC
100
AcDbEntity
  8
0
100
AcDbBlockBegin
  2
*D50
 70
     1
 10
0.0
 20
0.0
 30
0.0
  3
*D50
  1

  0
LINE
  5
4FF
330
4FC
100
AcDbEntity
  8
0
 62
   123
370
     9
100
AcDbLine
 10
-11843.76424583589
 20
-3893.712007544629
 30
0.0
 11
-11843.76424583589
 21
-3873.52710950816
 31
0.0
  0
LINE
  5
500
330
4FC
100
AcDbEntity
  8
0
 62
   123
370
     9
100
AcDbLine
 10
-11924.76424583589
 20
-3893.712007544629
 30
0.0
 11
-11924.76424583589
 21
-3873.52710950816
 31
0.0
  0
LINE
  5
501
330
4FC
100
AcDbEntity
  8
0
 62
   123
370
     9
100
AcDbLine
 10
-11846.16424583589
 20
-3874.027109508161
 30
0.0
 11
-11922.36424583589
 21
-3874.027109508161
 31
0.0
  0
SOLID
  5
502
330
4FC
100
AcDbEntity
  8
0
 62
   123
100
AcDbTrace
 10
-11846.16424583589
 20
-3873.627109508159
 30
0.0
 11
-11846.16424583589
 21
-3874.427109508161
 31
0.0
 12
-11843.76424583589
 22
-3874.027109508161
 32
0.0
 13
-11843.76424583589
 23
-3874.027109508161
 33
0.0
  0
SOLID
  5
503
330
4FC
100
AcDbEntity
  8
0
 62
   123
100
AcDbTrace
 10
-11922.36424583589
 20
-3873.627109508159
 30
0.0
 11
-11922.36424583589
 21
-3874.427109508161
 31
0.0
 12
-11924.76424583589
 22
-3874.027109508161
 32
0.0
 13
-11924.76424583589
 23
-3874.027109508161
 33
0.0
  0
MTEXT
  5
504
330
4FC
100
AcDbEntity
  8
0
 62
     3
100
AcDbMText
 10
-11884.26424583589
 20
-3871.239825886322
 30
0.0
 40
3.5
 41
0.0
 71
     5
 72
     1
  1
{\fGulim|b0|i0|c129|p50;□}80
 73
     1
 44
1.0
1001
ACAD
1000
MTEXTBEGIN
1070
    73
1070
     1
1070
    44
1040
1.0
1070
    74
1070
     0
1000
MTEXTEND
  0
POINT
  5
505
330
4FC
100
AcDbEntity
  8
Defpoints
 62
     0
100
AcDbPoint
 10
-11843.76424583589
 20
-3894.512007544629
 30
0.0
  0
POINT
  5
506
330
4FC
100
AcDbEntity
  8
Defpoints
 62
     0
100
AcDbPoint
 10
-11924.76424583589
 20
-3894.512007544629
 30
0.0
  0
POINT
  5
507
330
4FC
100
AcDbEntity
  8
Defpoints
 62
     0
100
AcDbPoint
 10
-11924.76424583589
 20
-3874.027109508161
 30
0.0
  0
ENDBLK
  5
4FE
330
4FC
100
AcDbEntity
  8
0
100
AcDbBlockEnd
  0
BLOCK
  5
509
330
508
100
AcDbEntity
  8
0
100
AcDbBlockBegin
  2
*D51
 70
     1
 10
0.0
 20
0.0
 30
0.0
  3
*D51
  1

  0
LINE
  5
50B
330
508
100
AcDbEntity
  8
0
 62
   123
370
     9
100
AcDbLine
 10
-11742.064999524
 20
-3888.215286197791
 30
0.0
 11
-11742.064999524
 21
-3873.648943642325
 31
0.0
  0
LINE
  5
50C
330
508
100
AcDbEntity
  8
0
 62
   123
370
     9
100
AcDbLine
 10
-11774.064999524
 20
-3923.712007544629
 30
0.0
 11
-11774.064999524
 21
-3873.648943642325
 31
0.0
  0
LINE
  5
50D
330
508
100
AcDbEntity
  8
0
 62
   123
370
     9
100
AcDbLine
 10
-11744.464999524
 20
-3874.148943642325
 30
0.0
 11
-11771.664999524
 21
-3874.148943642325
 31
0.0
  0
SOLID
  5
50E
330
508
100
AcDbEntity
  8
0
 62
   123
100
AcDbTrace
 10
-11744.464999524
 20
-3873.748943642325
 30
0.0
 11
-11744.464999524
 21
-3874.548943642325
 31
0.0
 12
-11742.064999524
 22
-3874.148943642325
 32
0.0
 13
-11742.064999524
 23
-3874.148943642325
 33
0.0
  0
SOLID
  5
50F
330
508
100
AcDbEntity
  8
0
 62
   123
100
AcDbTrace
 10
-11771.664999524
 20
-3873.748943642325
 30
0.0
 11
-11771.664999524
 21
-3874.548943642325
 31
0.0
 12
-11774.064999524
 22
-3874.148943642325
 32
0.0
 13
-11774.064999524
 23
-3874.148943642325
 33
0.0
  0
MTEXT
  5
510
330
508
100
AcDbEntity
  8
0
 62
     3
100
AcDbMText
 10
-11758.064999524
 20
-3871.398943642325
 30
0.0
 40
3.5
 41
0.0
 71
     5
 72
     1
  1
32
 73
     1
 44
1.0
1001
ACAD
1000
MTEXTBEGIN
1070
    73
1070
     1
1070
    44
1040
1.0
1070
    74
1070
     0
1000
MTEXTEND
  0
POINT
  5
511
330
508
100
AcDbEntity
  8
Defpoints
 62
     0
100
AcDbPoint
 10
-11742.064999524
 20
-3889.015286197792
 30
0.0
  0
POINT
  5
512
330
508
100
AcDbEntity
  8
Defpoints
 62
     0
100
AcDbPoint
 10
-11774.064999524
 20
-3924.512007544629
 30
0.0
  0
POINT
  5
513
330
508
100
AcDbEntity
  8
Defpoints
 62
     0
100
AcDbPoint
 10
-11774.064999524
 20
-3874.148943642325
 30
0.0
  0
ENDBLK
  5
50A
330
508
100
AcDbEntity
  8
0
100
AcDbBlockEnd
  0
BLOCK
  5
515
330
514
100
AcDbEntity
  8
0
100
AcDbBlockBegin
  2
*D52
 70
     1
 10
0.0
 20
0.0
 30
0.0
  3
*D52
  1

  0
LINE
  5
517
330
514
100
AcDbEntity
  8
0
 62
   123
370
     9
100
AcDbLine
 10
-11742.064999524
 20
-3888.215286197791
 30
0.0
 11
-11742.064999524
 21
-3880.824534831288
 31
0.0
  0
LINE
  5
518
330
514
100
AcDbEntity
  8
0
 62
   123
370
     9
100
AcDbLine
 10
-11744.064999524
 20
-3891.512007544628
 30
0.0
 11
-11744.064999524
 21
-3880.824534831288
 31
0.0
  0
LINE
  5
519
330
514
100
AcDbEntity
  8
0
 62
   123
370
     9
100
AcDbLine
 10
-11739.664999524
 20
-3881.324534831288
 30
0.0
 11
-11737.264999524
 21
-3881.324534831288
 31
0.0
  0
LINE
  5
51A
330
514
100
AcDbEntity
  8
0
 62
   123
370
     9
100
AcDbLine
 10
-11746.464999524
 20
-3881.324534831288
 30
0.0
 11
-11753.23166619066
 21
-3881.324534831288
 31
0.0
  0
LINE
  5
51B
330
514
100
AcDbEntity
  8
0
 62
   123
370
     9
100
AcDbLine
 10
-11742.064999524
 20
-3881.324534831288
 30
0.0
 11
-11744.064999524
 21
-3881.324534831288
 31
0.0
  0
SOLID
  5
51C
330
514
100
AcDbEntity
  8
0
 62
   123
100
AcDbTrace
 10
-11739.664999524
 20
-3880.924534831288
 30
0.0
 11
-11739.664999524
 21
-3881.724534831288
 31
0.0
 12
-11742.064999524
 22
-3881.324534831288
 32
0.0
 13
-11742.064999524
 23
-3881.324534831288
 33
0.0
  0
SOLID
  5
51D
330
514
100
AcDbEntity
  8
0
 62
   123
100
AcDbTrace
 10
-11746.464999524
 20
-3880.924534831288
 30
0.0
 11
-11746.464999524
 21
-3881.724534831288
 31
0.0
 12
-11744.064999524
 22
-3881.324534831288
 32
0.0
 13
-11744.064999524
 23
-3881.324534831288
 33
0.0
  0
MTEXT
  5
51E
330
514
100
AcDbEntity
  8
0
 62
     3
100
AcDbMText
 10
-11751.064999524
 20
-3878.574534831288
 30
0.0
 40
3.5
 41
0.0
 71
     5
 72
     1
  1
2
 73
     1
 44
1.0
1001
ACAD
1000
MTEXTBEGIN
1070
    73
1070
     1
1070
    44
1040
1.0
1070
    74
1070
     0
1000
MTEXTEND
  0
POINT
  5
51F
330
514
100
AcDbEntity
  8
Defpoints
 62
     0
100
AcDbPoint
 10
-11742.064999524
 20
-3889.015286197792
 30
0.0
  0
POINT
  5
520
330
514
100
AcDbEntity
  8
Defpoints
 62
     0
100
AcDbPoint
 10
-11744.064999524
 20
-3892.312007544628
 30
0.0
  0
POINT
  5
521
330
514
100
AcDbEntity
  8
Defpoints
 62
     0
100
AcDbPoint
 10
-11744.064999524
 20
-3881.324534831288
 30
0.0
  0
ENDBLK
  5
516
330
514
100
AcDbEntity
  8
0
100
AcDbBlockEnd
  0
BLOCK
  5
523
330
522
100
AcDbEntity
  8
0
100
AcDbBlockBegin
  2
*D53
 70
     1
 10
0.0
 20
0.0
 30
0.0
  3
*D53
  1

  0
LINE
  5
525
330
522
100
AcDbEntity
  8
0
 62
   123
370
     9
100
AcDbLine
 10
-11742.064999524
 20
-3888.215286197791
 30
0.0
 11
-11742.064999524
 21
-3873.648943642325
 31
0.0
  0
LINE
  5
526
330
522
100
AcDbEntity
  8
0
 62
   123
370
     9
100
AcDbLine
 10
-11700.064999524
 20
-3888.212007544632
 30
0.0
 11
-11700.064999524
 21
-3873.648943642325
 31
0.0
  0
LINE
  5
527
330
522
100
AcDbEntity
  8
0
 62
   123
370
     9
100
AcDbLine
 10
-11739.664999524
 20
-3874.148943642325
 30
0.0
 11
-11702.464999524
 21
-3874.148943642325
 31
0.0
  0
SOLID
  5
528
330
522
100
AcDbEntity
  8
0
 62
   123
100
AcDbTrace
 10
-11739.664999524
 20
-3873.748943642325
 30
0.0
 11
-11739.664999524
 21
-3874.548943642325
 31
0.0
 12
-11742.064999524
 22
-3874.148943642325
 32
0.0
 13
-11742.064999524
 23
-3874.148943642325
 33
0.0
  0
SOLID
  5
529
330
522
100
AcDbEntity
  8
0
 62
   123
100
AcDbTrace
 10
-11702.464999524
 20
-3873.748943642325
 30
0.0
 11
-11702.464999524
 21
-3874.548943642325
 31
0.0
 12
-11700.064999524
 22
-3874.148943642325
 32
0.0
 13
-11700.064999524
 23
-3874.148943642325
 33
0.0
  0
MTEXT
  5
52A
330
522
100
AcDbEntity
  8
0
 62
     3
100
AcDbMText
 10
-11721.064999524
 20
-3871.398943642325
 30
0.0
 40
3.5
 41
0.0
 71
     5
 72
     1
  1
42
 73
     1
 44
1.0
1001
ACAD
1000
MTEXTBEGIN
1070
    73
1070
     1
1070
    44
1040
1.0
1070
    74
1070
     0
1000
MTEXTEND
  0
POINT
  5
52B
330
522
100
AcDbEntity
  8
Defpoints
 62
     0
100
AcDbPoint
 10
-11742.064999524
 20
-3889.015286197792
 30
0.0
  0
POINT
  5
52C
330
522
100
AcDbEntity
  8
Defpoints
 62
     0
100
AcDbPoint
 10
-11700.064999524
 20
-3889.012007544632
 30
0.0
  0
POINT
  5
52D
330
522
100
AcDbEntity
  8
Defpoints
 62
     0
100
AcDbPoint
 10
-11700.064999524
 20
-3874.148943642325
 30
0.0
  0
ENDBLK
  5
524
330
522
100
AcDbEntity
  8
0
100
AcDbBlockEnd
  0
BLOCK
  5
52F
330
52E
100
AcDbEntity
  8
0
100
AcDbBlockBegin
  2
*D54
 70
     1
 10
0.0
 20
0.0
 30
0.0
  3
*D54
  1

  0
LINE
  5
531
330
52E
100
AcDbEntity
  8
0
 62
   123
370
     9
100
AcDbLine
 10
-11742.064999524
 20
-3888.215286197791
 30
0.0
 11
-11742.064999524
 21
-3880.824534831288
 31
0.0
  0
LINE
  5
532
330
52E
100
AcDbEntity
  8
0
 62
   123
370
     9
100
AcDbLine
 10
-11734.06499952392
 20
-3887.712007544628
 30
0.0
 11
-11734.06499952392
 21
-3880.824534831288
 31
0.0
  0
LINE
  5
533
330
52E
100
AcDbEntity
  8
0
 62
   123
370
     9
100
AcDbLine
 10
-11739.664999524
 20
-3881.324534831288
 30
0.0
 11
-11736.46499952392
 21
-3881.324534831288
 31
0.0
  0
SOLID
  5
534
330
52E
100
AcDbEntity
  8
0
 62
   123
100
AcDbTrace
 10
-11739.664999524
 20
-3880.924534831288
 30
0.0
 11
-11739.664999524
 21
-3881.724534831288
 31
0.0
 12
-11742.064999524
 22
-3881.324534831288
 32
0.0
 13
-11742.064999524
 23
-3881.324534831288
 33
0.0
  0
SOLID
  5
535
330
52E
100
AcDbEntity
  8
0
 62
   123
100
AcDbTrace
 10
-11736.46499952392
 20
-3880.924534831288
 30
0.0
 11
-11736.46499952392
 21
-3881.724534831288
 31
0.0
 12
-11734.06499952392
 22
-3881.324534831288
 32
0.0
 13
-11734.06499952392
 23
-3881.324534831288
 33
0.0
  0
MTEXT
  5
536
330
52E
100
AcDbEntity
  8
0
 62
     3
100
AcDbMText
 10
-11738.06499952396
 20
-3878.574534831288
 30
0.0
 40
3.5
 41
0.0
 71
     5
 72
     1
  1
8
 73
     1
 44
1.0
1001
ACAD
1000
MTEXTBEGIN
1070
    73
1070
     1
1070
    44
1040
1.0
1070
    74
1070
     0
1000
MTEXTEND
  0
POINT
  5
537
330
52E
100
AcDbEntity
  8
Defpoints
 62
     0
100
AcDbPoint
 10
-11742.064999524
 20
-3889.015286197792
 30
0.0
  0
POINT
  5
538
330
52E
100
AcDbEntity
  8
Defpoints
 62
     0
100
AcDbPoint
 10
-11734.06499952392
 20
-3888.512007544629
 30
0.0
  0
POINT
  5
539
330
52E
100
AcDbEntity
  8
Defpoints
 62
     0
100
AcDbPoint
 10
-11734.06499952392
 20
-3881.324534831288
 30
0.0
  0
ENDBLK
  5
530
330
52E
100
AcDbEntity
  8
0
100
AcDbBlockEnd
  0
BLOCK
  5
53B
330
53A
100
AcDbEntity
  8
0
100
AcDbBlockBegin
  2
*D55
 70
     1
 10
0.0
 20
0.0
 30
0.0
  3
*D55
  1

  0
LINE
  5
53D
330
53A
100
AcDbEntity
  8
0
 62
   123
370
     9
100
AcDbLine
 10
-11749.064999524
 20
-3922.712007544634
 30
0.0
 11
-11749.064999524
 21
-3906.38062286226
 31
0.0
  0
LINE
  5
53E
330
53A
100
AcDbEntity
  8
0
 62
   123
370
     9
100
AcDbLine
 10
-11774.064999524
 20
-3923.712007544629
 30
0.0
 11
-11774.064999524
 21
-3906.38062286226
 31
0.0
  0
LINE
  5
53F
330
53A
100
AcDbEntity
  8
0
 62
   123
370
     9
100
AcDbLine
 10
-11751.464999524
 20
-3906.88062286226
 30
0.0
 11
-11771.664999524
 21
-3906.88062286226
 31
0.0
  0
SOLID
  5
540
330
53A
100
AcDbEntity
  8
0
 62
   123
100
AcDbTrace
 10
-11751.464999524
 20
-3906.48062286226
 30
0.0
 11
-11751.464999524
 21
-3907.280622862261
 31
0.0
 12
-11749.064999524
 22
-3906.88062286226
 32
0.0
 13
-11749.064999524
 23
-3906.88062286226
 33
0.0
  0
SOLID
  5
541
330
53A
100
AcDbEntity
  8
0
 62
   123
100
AcDbTrace
 10
-11771.664999524
 20
-3906.48062286226
 30
0.0
 11
-11771.664999524
 21
-3907.280622862261
 31
0.0
 12
-11774.064999524
 22
-3906.88062286226
 32
0.0
 13
-11774.064999524
 23
-3906.88062286226
 33
0.0
  0
MTEXT
  5
542
330
53A
100
AcDbEntity
  8
0
 62
     3
100
AcDbMText
 10
-11761.564999524
 20
-3904.13062286226
 30
0.0
 40
3.5
 41
0.0
 71
     5
 72
     1
  1
25
 73
     1
 44
1.0
1001
ACAD
1000
MTEXTBEGIN
1070
    73
1070
     1
1070
    44
1040
1.0
1070
    74
1070
     0
1000
MTEXTEND
  0
POINT
  5
543
330
53A
100
AcDbEntity
  8
Defpoints
 62
     0
100
AcDbPoint
 10
-11749.064999524
 20
-3923.512007544633
 30
0.0
  0
POINT
  5
544
330
53A
100
AcDbEntity
  8
Defpoints
 62
     0
100
AcDbPoint
 10
-11774.064999524
 20
-3924.512007544629
 30
0.0
  0
POINT
  5
545
330
53A
100
AcDbEntity
  8
Defpoints
 62
     0
100
AcDbPoint
 10
-11774.064999524
 20
-3906.88062286226
 30
0.0
  0
ENDBLK
  5
53C
330
53A
100
AcDbEntity
  8
0
100
AcDbBlockEnd
  0
BLOCK
  5
547
330
546
100
AcDbEntity
  8
0
100
AcDbBlockBegin
  2
*D56
 70
     1
 10
0.0
 20
0.0
 30
0.0
  3
*D56
  1

  0
LINE
  5
549
330
546
100
AcDbEntity
  8
0
 62
   123
370
     9
100
AcDbLine
 10
-11774.86499952399
 20
-3924.512007544629
 30
0.0
 11
-11786.16006378333
 21
-3924.512007544629
 31
0.0
  0
LINE
  5
54A
330
546
100
AcDbEntity
  8
0
 62
   123
370
     9
100
AcDbLine
 10
-11774.86499952399
 20
-3933.512007544628
 30
0.0
 11
-11786.16006378333
 21
-3933.512007544628
 31
0.0
  0
LINE
  5
54B
330
546
100
AcDbEntity
  8
0
 62
   123
370
     9
100
AcDbLine
 10
-11785.66006378333
 20
-3926.912007544629
 30
0.0
 11
-11785.66006378333
 21
-3931.112007544628
 31
0.0
  0
SOLID
  5
54C
330
546
100
AcDbEntity
  8
0
 62
   123
100
AcDbTrace
 10
-11786.06006378333
 20
-3926.912007544629
 30
0.0
 11
-11785.26006378333
 21
-3926.912007544629
 31
0.0
 12
-11785.66006378333
 22
-3924.512007544629
 32
0.0
 13
-11785.66006378333
 23
-3924.512007544629
 33
0.0
  0
SOLID
  5
54D
330
546
100
AcDbEntity
  8
0
 62
   123
100
AcDbTrace
 10
-11786.06006378333
 20
-3931.112007544628
 30
0.0
 11
-11785.26006378333
 21
-3931.112007544628
 31
0.0
 12
-11785.66006378333
 22
-3933.512007544628
 32
0.0
 13
-11785.66006378333
 23
-3933.512007544628
 33
0.0
  0
MTEXT
  5
54E
330
546
100
AcDbEntity
  8
0
 62
     3
100
AcDbMText
 10
-11788.41006378333
 20
-3929.012007544628
 30
0.0
 40
3.5
 41
0.0
 71
     5
 72
     1
  1
9
 11
0.0000000000000001
 21
1.0
 31
0.0
 73
     1
 44
1.0
1001
ACAD
1000
MTEXTBEGIN
1070
    73
1070
     1
1070
    44
1040
1.0
1070
    74
1070
     0
1000
MTEXTEND
  0
POINT
  5
54F
330
546
100
AcDbEntity
  8
Defpoints
 62
     0
100
AcDbPoint
 10
-11774.064999524
 20
-3924.512007544629
 30
0.0
  0
POINT
  5
550
330
546
100
AcDbEntity
  8
Defpoints
 62
     0
100
AcDbPoint
 10
-11774.064999524
 20
-3933.512007544628
 30
0.0
  0
POINT
  5
551
330
546
100
AcDbEntity
  8
Defpoints
 62
     0
100
AcDbPoint
 10
-11785.66006378333
 20
-3933.512007544628
 30
0.0
  0
ENDBLK
  5
548
330
546
100
AcDbEntity
  8
0
100
AcDbBlockEnd
  0
BLOCK
  5
553
330
552
100
AcDbEntity
  8
0
100
AcDbBlockBegin
  2
*D57
 70
     1
 10
0.0
 20
0.0
 30
0.0
  3
*D57
  1

  0
LINE
  5
555
330
552
100
AcDbEntity
  8
0
 62
   123
370
     9
100
AcDbLine
 10
-11744.56499952402
 20
-3965.012007544626
 30
0.0
 11
-11805.10568784664
 21
-3965.012007544626
 31
0.0
  0
LINE
  5
556
330
552
100
AcDbEntity
  8
0
 62
   123
370
     9
100
AcDbLine
 10
-11744.564999524
 20
-3892.012007544629
 30
0.0
 11
-11805.10568784664
 21
-3892.012007544629
 31
0.0
  0
LINE
  5
557
330
552
100
AcDbEntity
  8
0
 62
   123
370
     9
100
AcDbLine
 10
-11804.60568784664
 20
-3962.612007544625
 30
0.0
 11
-11804.60568784664
 21
-3894.412007544629
 31
0.0
  0
SOLID
  5
558
330
552
100
AcDbEntity
  8
0
 62
   123
100
AcDbTrace
 10
-11805.00568784664
 20
-3962.612007544625
 30
0.0
 11
-11804.20568784664
 21
-3962.612007544625
 31
0.0
 12
-11804.60568784664
 22
-3965.012007544626
 32
0.0
 13
-11804.60568784664
 23
-3965.012007544626
 33
0.0
  0
SOLID
  5
559
330
552
100
AcDbEntity
  8
0
 62
   123
100
AcDbTrace
 10
-11805.00568784664
 20
-3894.412007544629
 30
0.0
 11
-11804.20568784664
 21
-3894.412007544629
 31
0.0
 12
-11804.60568784664
 22
-3892.012007544629
 32
0.0
 13
-11804.60568784664
 23
-3892.012007544629
 33
0.0
  0
MTEXT
  5
55A
330
552
100
AcDbEntity
  8
0
 62
     3
100
AcDbMText
 10
-11809.04735451331
 20
-3928.512007544629
 30
0.0
 40
3.5
 41
0.0
 71
     5
 72
     1
  1
%%C73{\H0.7x;\S  0^ -0.030;}(h7)
 11
0.0000000000000001
 21
1.0
 31
0.0
 73
     1
 44
1.0
1001
ACAD
1000
MTEXTBEGIN
1070
    73
1070
     1
1070
    44
1040
1.0
1070
    74
1070
     0
1000
MTEXTEND
  0
POINT
  5
55B
330
552
100
AcDbEntity
  8
Defpoints
 62
     0
100
AcDbPoint
 10
-11743.76499952402
 20
-3965.012007544626
 30
0.0
  0
POINT
  5
55C
330
552
100
AcDbEntity
  8
Defpoints
 62
     0
100
AcDbPoint
 10
-11743.764999524
 20
-3892.012007544629
 30
0.0
  0
POINT
  5
55D
330
552
100
AcDbEntity
  8
Defpoints
 62
     0
100
AcDbPoint
 10
-11804.60568784664
 20
-3892.012007544629
 30
0.0
  0
ENDBLK
  5
554
330
552
100
AcDbEntity
  8
0
100
AcDbBlockEnd
  0
BLOCK
  5
55F
330
55E
100
AcDbEntity
  8
0
100
AcDbBlockBegin
  2
*D58
 70
     1
 10
0.0
 20
0.0
 30
0.0
  3
*D58
  1

  0
LINE
  5
561
330
55E
100
AcDbEntity
  8
0
 62
   123
370
     9
100
AcDbLine
 10
-11774.86499952399
 20
-3933.512007544628
 30
0.0
 11
-11794.83743360546
 21
-3933.512007544628
 31
0.0
  0
LINE
  5
562
330
55E
100
AcDbEntity
  8
0
 62
   123
370
     9
100
AcDbLine
 10
-11749.864999524
 20
-3923.512007544633
 30
0.0
 11
-11794.83743360546
 21
-3923.512007544633
 31
0.0
  0
LINE
  5
563
330
55E
100
AcDbEntity
  8
0
 62
   123
370
     9
100
AcDbLine
 10
-11794.33743360546
 20
-3931.112007544628
 30
0.0
 11
-11794.33743360546
 21
-3925.912007544634
 31
0.0
  0
SOLID
  5
564
330
55E
100
AcDbEntity
  8
0
 62
   123
100
AcDbTrace
 10
-11794.73743360546
 20
-3931.112007544628
 30
0.0
 11
-11793.93743360546
 21
-3931.112007544628
 31
0.0
 12
-11794.33743360546
 22
-3933.512007544628
 32
0.0
 13
-11794.33743360546
 23
-3933.512007544628
 33
0.0
  0
SOLID
  5
565
330
55E
100
AcDbEntity
  8
0
 62
   123
100
AcDbTrace
 10
-11794.73743360546
 20
-3925.912007544634
 30
0.0
 11
-11793.93743360546
 21
-3925.912007544634
 31
0.0
 12
-11794.33743360546
 22
-3923.512007544633
 32
0.0
 13
-11794.33743360546
 23
-3923.512007544633
 33
0.0
  0
MTEXT
  5
566
330
55E
100
AcDbEntity
  8
0
 62
     3
100
AcDbMText
 10
-11798.77910027212
 20
-3928.512007544633
 30
0.0
 40
3.5
 41
0.0
 71
     5
 72
     1
  1
%%C10{\H0.7x;\S  0^ -0.015;}(h7)
 11
0.0000000000000001
 21
1.0
 31
0.0
 73
     1
 44
1.0
1001
ACAD
1000
MTEXTBEGIN
1070
    73
1070
     1
1070
    44
1040
1.0
1070
    74
1070
     0
1000
MTEXTEND
  0
POINT
  5
567
330
55E
100
AcDbEntity
  8
Defpoints
 62
     0
100
AcDbPoint
 10
-11774.064999524
 20
-3933.512007544628
 30
0.0
  0
POINT
  5
568
330
55E
100
AcDbEntity
  8
Defpoints
 62
     0
100
AcDbPoint
 10
-11749.064999524
 20
-3923.512007544633
 30
0.0
  0
POINT
  5
569
330
55E
100
AcDbEntity
  8
Defpoints
 62
     0
100
AcDbPoint
 10
-11794.33743360546
 20
-3923.512007544633
 30
0.0
  0
ENDBLK
  5
560
330
55E
100
AcDbEntity
  8
0
100
AcDbBlockEnd
  0
BLOCK
  5
60C
330
60B
100
AcDbEntity
  8
0
100
AcDbBlockBegin
  2
*D59
 70
     1
 10
0.0
 20
0.0
 30
0.0
  3
*D59
  1

  0
LINE
  5
6CC
330
60B
100
AcDbEntity
  8
0
 62
   123
370
     9
100
AcDbLine
 10
-11928.77057691953
 20
-4277.734910619388
 30
0.0
 11
-11928.77057691953
 21
-4269.132641712699
 31
0.0
  0
LINE
  5
6CD
330
60B
100
AcDbEntity
  8
0
 62
   123
370
     9
100
AcDbLine
 10
-11923.77057691953
 20
-4277.734910619388
 30
0.0
 11
-11923.77057691953
 21
-4269.132641712699
 31
0.0
  0
LINE
  5
6CE
330
60B
100
AcDbEntity
  8
0
 62
   123
370
     9
100
AcDbLine
 10
-11931.17057691953
 20
-4269.632641712699
 30
0.0
 11
-11933.57057691953
 21
-4269.632641712699
 31
0.0
  0
LINE
  5
6CF
330
60B
100
AcDbEntity
  8
0
 62
   123
370
     9
100
AcDbLine
 10
-11921.37057691953
 20
-4269.632641712699
 30
0.0
 11
-11918.97057691954
 21
-4269.632641712699
 31
0.0
  0
LINE
  5
6D0
330
60B
100
AcDbEntity
  8
0
 62
   123
370
     9
100
AcDbLine
 10
-11928.77057691953
 20
-4269.632641712699
 30
0.0
 11
-11923.77057691953
 21
-4269.632641712699
 31
0.0
  0
SOLID
  5
6D1
330
60B
100
AcDbEntity
  8
0
 62
   123
100
AcDbTrace
 10
-11931.17057691953
 20
-4269.2326417127
 30
0.0
 11
-11931.17057691953
 21
-4270.032641712698
 31
0.0
 12
-11928.77057691953
 22
-4269.632641712699
 32
0.0
 13
-11928.77057691953
 23
-4269.632641712699
 33
0.0
  0
SOLID
  5
6D2
330
60B
100
AcDbEntity
  8
0
 62
   123
100
AcDbTrace
 10
-11921.37057691953
 20
-4269.2326417127
 30
0.0
 11
-11921.37057691953
 21
-4270.032641712698
 31
0.0
 12
-11923.77057691953
 22
-4269.632641712699
 32
0.0
 13
-11923.77057691953
 23
-4269.632641712699
 33
0.0
  0
MTEXT
  5
6D3
330
60B
100
AcDbEntity
  8
0
 62
     3
100
AcDbMText
 10
-11926.27057691953
 20
-4265.774308379365
 30
0.0
 40
3.5
 41
0.0
 71
     5
 72
     1
  1
\A1;5{\f??|b0|i0|c0|p49;\H0.7x;\S+0^ -0.03;}
 73
     1
 44
1.0
1001
ACAD
1000
MTEXTBEGIN
1070
    73
1070
     1
1070
    44
1040
1.0
1070
    74
1070
     0
1000
MTEXTEND
  0
POINT
  5
6D4
330
60B
100
AcDbEntity
  8
Defpoints
 62
     0
100
AcDbPoint
 10
-11928.77057691953
 20
-4278.534910619388
 30
0.0
  0
POINT
  5
6D5
330
60B
100
AcDbEntity
  8
Defpoints
 62
     0
100
AcDbPoint
 10
-11923.77057691953
 20
-4278.534910619388
 30
0.0
  0
POINT
  5
6D6
330
60B
100
AcDbEntity
  8
Defpoints
 62
     0
100
AcDbPoint
 10
-11923.77057691953
 20
-4269.632641712699
 30
0.0
  0
ENDBLK
  5
60D
330
60B
100
AcDbEntity
  8
0
100
AcDbBlockEnd
  0
BLOCK
  5
61A
330
619
100
AcDbEntity
  8
0
100
AcDbBlockBegin
  2
*D60
 70
     1
 10
0.0
 20
0.0
 30
0.0
  3
*D60
  1

  0
LINE
  5
6D7
330
619
100
AcDbEntity
  8
0
 62
   123
370
     9
100
AcDbLine
 10
-11977.26854944728
 20
-4280.234910619388
 30
0.0
 11
-11977.26854944728
 21
-4269.132641712699
 31
0.0
  0
LINE
  5
6D8
330
619
100
AcDbEntity
  8
0
 62
   123
370
     9
100
AcDbLine
 10
-11952.26854944728
 20
-4277.734910619388
 30
0.0
 11
-11952.26854944728
 21
-4269.132641712699
 31
0.0
  0
LINE
  5
6D9
330
619
100
AcDbEntity
  8
0
 62
   123
370
     9
100
AcDbLine
 10
-11974.86854944728
 20
-4269.632641712699
 30
0.0
 11
-11954.66854944728
 21
-4269.632641712699
 31
0.0
  0
SOLID
  5
6DA
330
619
100
AcDbEntity
  8
0
 62
   123
100
AcDbTrace
 10
-11974.86854944728
 20
-4269.2326417127
 30
0.0
 11
-11974.86854944728
 21
-4270.032641712698
 31
0.0
 12
-11977.26854944728
 22
-4269.632641712699
 32
0.0
 13
-11977.26854944728
 23
-4269.632641712699
 33
0.0
  0
SOLID
  5
6DB
330
619
100
AcDbEntity
  8
0
 62
   123
100
AcDbTrace
 10
-11954.66854944728
 20
-4269.2326417127
 30
0.0
 11
-11954.66854944728
 21
-4270.032641712698
 31
0.0
 12
-11952.26854944728
 22
-4269.632641712699
 32
0.0
 13
-11952.26854944728
 23
-4269.632641712699
 33
0.0
  0
MTEXT
  5
6DC
330
619
100
AcDbEntity
  8
0
 62
     3
100
AcDbMText
 10
-11964.76854944728
 20
-4266.882641712699
 30
0.0
 40
3.5
 41
0.0
 71
     5
 72
     1
  1
25{\f??|b0|i0|c0|p49;%%p0.2}
 73
     1
 44
1.0
1001
ACAD
1000
MTEXTBEGIN
1070
    73
1070
     1
1070
    44
1040
1.0
1070
    74
1070
     0
1000
MTEXTEND
  0
POINT
  5
6DD
330
619
100
AcDbEntity
  8
Defpoints
 62
     0
100
AcDbPoint
 10
-11977.26854944728
 20
-4281.034910619388
 30
0.0
  0
POINT
  5
6DE
330
619
100
AcDbEntity
  8
Defpoints
 62
     0
100
AcDbPoint
 10
-11952.26854944728
 20
-4278.534910619388
 30
0.0
  0
POINT
  5
6DF
330
619
100
AcDbEntity
  8
Defpoints
 62
     0
100
AcDbPoint
 10
-11952.26854944728
 20
-4269.632641712699
 30
0.0
  0
ENDBLK
  5
61B
330
619
100
AcDbEntity
  8
0
100
AcDbBlockEnd
  0
BLOCK
  5
626
330
625
100
AcDbEntity
  8
0
100
AcDbBlockBegin
  2
*D61
 70
     1
 10
0.0
 20
0.0
 30
0.0
  3
*D61
  1

  0
LINE
  5
6E0
330
625
100
AcDbEntity
  8
0
 62
   123
370
     9
100
AcDbLine
 10
-11951.46854944729
 20
-4283.534910619389
 30
0.0
 11
-11940.53615257526
 21
-4283.534910619389
 31
0.0
  0
LINE
  5
6E1
330
625
100
AcDbEntity
  8
0
 62
   123
370
     9
100
AcDbLine
 10
-11951.46854944729
 20
-4278.534910619388
 30
0.0
 11
-11940.53615257526
 21
-4278.534910619388
 31
0.0
  0
LINE
  5
6E2
330
625
100
AcDbEntity
  8
0
 62
   123
370
     9
100
AcDbLine
 10
-11941.03615257525
 20
-4285.934910619388
 30
0.0
 11
-11941.03615257525
 21
-4288.334910619389
 31
0.0
  0
LINE
  5
6E3
330
625
100
AcDbEntity
  8
0
 62
   123
370
     9
100
AcDbLine
 10
-11941.03615257525
 20
-4276.134910619388
 30
0.0
 11
-11941.03615257525
 21
-4258.401577286056
 31
0.0
  0
LINE
  5
6E4
330
625
100
AcDbEntity
  8
0
 62
   123
370
     9
100
AcDbLine
 10
-11941.03615257525
 20
-4283.534910619389
 30
0.0
 11
-11941.03615257525
 21
-4278.534910619388
 31
0.0
  0
SOLID
  5
6E5
330
625
100
AcDbEntity
  8
0
 62
   123
100
AcDbTrace
 10
-11941.43615257526
 20
-4285.934910619388
 30
0.0
 11
-11940.63615257526
 21
-4285.934910619388
 31
0.0
 12
-11941.03615257525
 22
-4283.534910619389
 32
0.0
 13
-11941.03615257525
 23
-4283.534910619389
 33
0.0
  0
SOLID
  5
6E6
330
625
100
AcDbEntity
  8
0
 62
   123
100
AcDbTrace
 10
-11941.43615257526
 20
-4276.134910619388
 30
0.0
 11
-11940.63615257526
 21
-4276.134910619388
 31
0.0
 12
-11941.03615257525
 22
-4278.534910619388
 32
0.0
 13
-11941.03615257525
 23
-4278.534910619388
 33
0.0
  0
MTEXT
  5
6E7
330
625
100
AcDbEntity
  8
0
 62
     3
100
AcDbMText
 10
-11944.89448590859
 20
-4266.068243952723
 30
0.0
 40
3.5
 41
0.0
 71
     5
 72
     1
  1
\A1;5{\f??|b0|i0|c0|p49;\H0.7x;\S+0^ -0.03;}
 11
0.0000000000000001
 21
1.0
 31
0.0
 73
     1
 44
1.0
1001
ACAD
1000
MTEXTBEGIN
1070
    73
1070
     1
1070
    44
1040
1.0
1070
    74
1070
     0
1000
MTEXTEND
  0
POINT
  5
6E8
330
625
100
AcDbEntity
  8
Defpoints
 62
     0
100
AcDbPoint
 10
-11952.26854944728
 20
-4283.534910619389
 30
0.0
  0
POINT
  5
6E9
330
625
100
AcDbEntity
  8
Defpoints
 62
     0
100
AcDbPoint
 10
-11952.26854944728
 20
-4278.534910619388
 30
0.0
  0
POINT
  5
6EA
330
625
100
AcDbEntity
  8
Defpoints
 62
     0
100
AcDbPoint
 10
-11941.03615257525
 20
-4278.534910619388
 30
0.0
  0
ENDBLK
  5
627
330
625
100
AcDbEntity
  8
0
100
AcDbBlockEnd
  0
BLOCK
  5
634
330
633
100
AcDbEntity
  8
0
100
AcDbBlockBegin
  2
*D62
 70
     1
 10
0.0
 20
0.0
 30
0.0
  3
*D62
  1

  0
LINE
  5
6EB
330
633
100
AcDbEntity
  8
0
 62
   123
370
     9
100
AcDbLine
 10
-11886.50258096945
 20
-4276.534910619388
 30
0.0
 11
-11870.7287497453
 21
-4276.534910619388
 31
0.0
  0
LINE
  5
6EC
330
633
100
AcDbEntity
  8
0
 62
   123
370
     9
100
AcDbLine
 10
-11889.00258096945
 20
-4273.534910619388
 30
0.0
 11
-11870.7287497453
 21
-4273.534910619388
 31
0.0
  0
LINE
  5
6ED
330
633
100
AcDbEntity
  8
0
 62
   123
370
     9
100
AcDbLine
 10
-11871.2287497453
 20
-4278.934910619389
 30
0.0
 11
-11871.2287497453
 21
-4281.334910619388
 31
0.0
  0
LINE
  5
6EE
330
633
100
AcDbEntity
  8
0
 62
   123
370
     9
100
AcDbLine
 10
-11871.2287497453
 20
-4271.134910619389
 30
0.0
 11
-11871.2287497453
 21
-4256.78491061939
 31
0.0
  0
LINE
  5
6EF
330
633
100
AcDbEntity
  8
0
 62
   123
370
     9
100
AcDbLine
 10
-11871.2287497453
 20
-4276.534910619388
 30
0.0
 11
-11871.2287497453
 21
-4273.534910619388
 31
0.0
  0
SOLID
  5
6F0
330
633
100
AcDbEntity
  8
0
 62
   123
100
AcDbTrace
 10
-11871.62874974529
 20
-4278.934910619389
 30
0.0
 11
-11870.8287497453
 21
-4278.934910619389
 31
0.0
 12
-11871.2287497453
 22
-4276.534910619388
 32
0.0
 13
-11871.2287497453
 23
-4276.534910619388
 33
0.0
  0
SOLID
  5
6F1
330
633
100
AcDbEntity
  8
0
 62
   123
100
AcDbTrace
 10
-11871.62874974529
 20
-4271.134910619389
 30
0.0
 11
-11870.8287497453
 21
-4271.134910619389
 31
0.0
 12
-11871.2287497453
 22
-4273.534910619388
 32
0.0
 13
-11871.2287497453
 23
-4273.534910619388
 33
0.0
  0
MTEXT
  5
6F2
330
633
100
AcDbEntity
  8
0
 62
     3
100
AcDbMText
 10
-11875.08708307863
 20
-4262.759910619391
 30
0.0
 40
3.5
 41
0.0
 71
     5
 72
     1
  1
\A1;3{\f??|b0|i0|c0|p49;\H0.7x;\S+0.1^ -0;\H1.429x; }
 11
0.0000000000000001
 21
1.0
 31
0.0
 73
     1
 44
1.0
1001
ACAD
1000
MTEXTBEGIN
1070
    73
1070
     1
1070
    44
1040
1.0
1070
    74
1070
     0
1000
MTEXTEND
  0
POINT
  5
6F3
330
633
100
AcDbEntity
  8
Defpoints
 62
     0
100
AcDbPoint
 10
-11887.30258096945
 20
-4276.534910619388
 30
0.0
  0
POINT
  5
6F4
330
633
100
AcDbEntity
  8
Defpoints
 62
     0
100
AcDbPoint
 10
-11889.80258096945
 20
-4273.534910619388
 30
0.0
  0
POINT
  5
6F5
330
633
100
AcDbEntity
  8
Defpoints
 62
     0
100
AcDbPoint
 10
-11871.2287497453
 20
-4273.534910619388
 30
0.0
  0
ENDBLK
  5
635
330
633
100
AcDbEntity
  8
0
100
AcDbBlockEnd
  0
BLOCK
  5
642
330
641
100
AcDbEntity
  8
0
100
AcDbBlockBegin
  2
*D63
 70
     1
 10
0.0
 20
0.0
 30
0.0
  3
*D63
  1

  0
LINE
  5
6F6
330
641
100
AcDbEntity
  8
0
 62
   123
370
     9
100
AcDbLine
 10
-11892.30258096945
 20
-4273.163842807524
 30
0.0
 11
-11892.30258096945
 21
-4266.188050447754
 31
0.0
  0
LINE
  5
6F7
330
641
100
AcDbEntity
  8
0
 62
   123
370
     9
100
AcDbLine
 10
-11887.30258096945
 20
-4273.163842807524
 30
0.0
 11
-11887.30258096945
 21
-4266.188050447754
 31
0.0
  0
LINE
  5
6F8
330
641
100
AcDbEntity
  8
0
 62
   123
370
     9
100
AcDbLine
 10
-11894.70258096945
 20
-4266.688050447754
 30
0.0
 11
-11897.10258096945
 21
-4266.688050447754
 31
0.0
  0
LINE
  5
6F9
330
641
100
AcDbEntity
  8
0
 62
   123
370
     9
100
AcDbLine
 10
-11884.90258096945
 20
-4266.688050447754
 30
0.0
 11
-11882.50258096945
 21
-4266.688050447754
 31
0.0
  0
LINE
  5
6FA
330
641
100
AcDbEntity
  8
0
 62
   123
370
     9
100
AcDbLine
 10
-11892.30258096945
 20
-4266.688050447754
 30
0.0
 11
-11887.30258096945
 21
-4266.688050447754
 31
0.0
  0
SOLID
  5
6FB
330
641
100
AcDbEntity
  8
0
 62
   123
100
AcDbTrace
 10
-11894.70258096945
 20
-4266.288050447755
 30
0.0
 11
-11894.70258096945
 21
-4267.088050447754
 31
0.0
 12
-11892.30258096945
 22
-4266.688050447754
 32
0.0
 13
-11892.30258096945
 23
-4266.688050447754
 33
0.0
  0
SOLID
  5
6FC
330
641
100
AcDbEntity
  8
0
 62
   123
100
AcDbTrace
 10
-11884.90258096945
 20
-4266.288050447755
 30
0.0
 11
-11884.90258096945
 21
-4267.088050447754
 31
0.0
 12
-11887.30258096945
 22
-4266.688050447754
 32
0.0
 13
-11887.30258096945
 23
-4266.688050447754
 33
0.0
  0
MTEXT
  5
6FD
330
641
100
AcDbEntity
  8
0
 62
     3
100
AcDbMText
 10
-11889.80258096945
 20
-4262.829717114421
 30
0.0
 40
3.5
 41
0.0
 71
     5
 72
     1
  1
5{\f??|b0|i0|c0|p49;\H0.7x;\S+0.03^ -0;\H1.429x; }
 73
     1
 44
1.0
1001
ACAD
1000
MTEXTBEGIN
1070
    73
1070
     1
1070
    44
1040
1.0
1070
    74
1070
     0
1000
MTEXTEND
  0
POINT
  5
6FE
330
641
100
AcDbEntity
  8
Defpoints
 62
     0
100
AcDbPoint
 10
-11892.30258096945
 20
-4273.963842807524
 30
0.0
  0
POINT
  5
6FF
330
641
100
AcDbEntity
  8
Defpoints
 62
     0
100
AcDbPoint
 10
-11887.30258096945
 20
-4273.963842807524
 30
0.0
  0
POINT
  5
700
330
641
100
AcDbEntity
  8
Defpoints
 62
     0
100
AcDbPoint
 10
-11887.30258096945
 20
-4266.688050447754
 30
0.0
  0
ENDBLK
  5
643
330
641
100
AcDbEntity
  8
0
100
AcDbBlockEnd
  0
ENDSEC
  0
SECTION
  2
ENTITIES
  0
LINE
  5
75
330
2
100
AcDbEntity
  8
0
  6
CENTER
 62
     1
 48
0.6
100
AcDbLine
 10
-11802.53124711918
 20
-4171.880860223937
 30
0.0
 11
-11692.32939912294
 21
-4171.880860223939
 31
0.0
  0
LINE
  5
77
330
2
100
AcDbEntity
  8
0
100
AcDbLine
 10
-11742.064999524
 20
-4211.880860223937
 30
0.0
 11
-11742.064999524
 21
-4131.880860223936
 31
0.0
  0
LINE
  5
78
330
2
100
AcDbEntity
  8
0
100
AcDbLine
 10
-11734.06499952399
 20
-4131.880860223936
 30
0.0
 11
-11705.06499952399
 21
-4131.877570750253
 31
0.0
  0
LINE
  5
79
330
2
100
AcDbEntity
  8
0
100
AcDbLine
 10
-11734.06499952399
 20
-4131.880860223936
 30
0.0
 11
-11734.06499952399
 21
-4143.880860223936
 31
0.0
  0
LINE
  5
7A
330
2
100
AcDbEntity
  8
0
100
AcDbLine
 10
-11700.064999524
 20
-4132.380860223939
 30
0.0
 11
-11700.064999524
 21
-4211.380860223939
 31
0.0
  0
LINE
  5
7B
330
2
100
AcDbEntity
  8
0
100
AcDbLine
 10
-11702.26499952399
 20
-4189.88086022394
 30
0.0
 11
-11702.26499952399
 21
-4199.880860223941
 31
0.0
  0
LINE
  5
7C
330
2
100
AcDbEntity
  8
0
100
AcDbLine
 10
-11702.26499952399
 20
-4131.880860223939
 30
0.0
 11
-11702.26499952399
 21
-4138.88086022394
 31
0.0
  0
ARC
  5
7D
330
2
100
AcDbEntity
  8
0
100
AcDbCircle
 10
-11700.56499952399
 20
-4132.380860223939
 30
0.0
 40
0.5
100
AcDbArc
 50
0.0
 51
90.0
  0
LINE
  5
7E
330
2
100
AcDbEntity
  8
0
100
AcDbLine
 10
-11700.56499952399
 20
-4131.880860223939
 30
0.0
 11
-11704.56499952399
 21
-4131.880860223939
 31
0.0
  0
LINE
  5
7F
330
2
100
AcDbEntity
  8
0
100
AcDbLine
 10
-11704.56499952399
 20
-4131.630860223939
 30
0.0
 11
-11705.06499952399
 21
-4131.630860223939
 31
0.0
  0
LINE
  5
80
330
2
100
AcDbEntity
  8
0
  6
CENTER
 62
     1
 48
0.6
100
AcDbLine
 10
-11960.7399769848
 20
-4171.880860223932
 30
0.0
 11
-11867.22592199789
 21
-4171.880860223937
 31
0.0
  0
LINE
  5
81
330
2
100
AcDbEntity
  8
0
  6
CENTER
 62
     1
 48
0.6
100
AcDbLine
 10
-11913.98294949134
 20
-4125.123832730484
 30
0.0
 11
-11913.98294949134
 21
-4218.637887717387
 31
0.0
  0
LINE
  5
82
330
2
100
AcDbEntity
  8
0
100
AcDbLine
 10
-11742.064999524
 20
-4131.880860223936
 30
0.0
 11
-11734.06499952391
 21
-4131.880860223936
 31
0.0
  0
LINE
  5
83
330
2
100
AcDbEntity
  8
0
100
AcDbLine
 10
-11700.064999524
 20
-4143.880860223936
 30
0.0
 11
-11704.56499952399
 21
-4143.880860223936
 31
0.0
  0
LINE
  5
84
330
2
100
AcDbEntity
  8
0
100
AcDbLine
 10
-11705.06499952399
 20
-4143.880860223936
 30
0.0
 11
-11734.06499952399
 21
-4143.880860223936
 31
0.0
  0
LINE
  5
85
330
2
100
AcDbEntity
  8
0
100
AcDbLine
 10
-11700.064999524
 20
-4199.880860223941
 30
0.0
 11
-11704.564999524
 21
-4199.880860223941
 31
0.0
  0
LINE
  5
86
330
2
100
AcDbEntity
  8
0
100
AcDbLine
 10
-11705.06499952401
 20
-4199.880860223941
 30
0.0
 11
-11734.06499952399
 21
-4199.880860223941
 31
0.0
  0
LINE
  5
87
330
2
100
AcDbEntity
  8
0
100
AcDbLine
 10
-11742.064999524
 20
-4211.880860223937
 30
0.0
 11
-11734.06499952391
 21
-4211.880860223937
 31
0.0
  0
LINE
  5
88
330
2
100
AcDbEntity
  8
0
100
AcDbLine
 10
-11734.06499952399
 20
-4211.880860223937
 30
0.0
 11
-11734.06499952399
 21
-4199.880860223941
 31
0.0
  0
LINE
  5
89
330
2
100
AcDbEntity
  8
0
100
AcDbLine
 10
-11705.06499952401
 20
-4212.130860223939
 30
0.0
 11
-11705.06499952399
 21
-4131.630860223939
 31
0.0
  0
LINE
  5
8A
330
2
100
AcDbEntity
  8
0
100
AcDbLine
 10
-11734.064999524
 20
-4211.880860223932
 30
0.0
 11
-11705.06499952401
 21
-4211.884149697627
 31
0.0
  0
LINE
  5
8B
330
2
100
AcDbEntity
  8
0
100
AcDbLine
 10
-11700.56499952399
 20
-4211.88086022394
 30
0.0
 11
-11704.564999524
 21
-4211.88086022394
 31
0.0
  0
ARC
  5
8C
330
2
100
AcDbEntity
  8
0
100
AcDbCircle
 10
-11700.56499952399
 20
-4211.380860223939
 30
0.0
 40
0.5
100
AcDbArc
 50
269.9999999998958
 51
0.0
  0
LINE
  5
8D
330
2
100
AcDbEntity
  8
0
100
AcDbLine
 10
-11704.564999524
 20
-4212.130860223939
 30
0.0
 11
-11704.56499952399
 21
-4131.630860223939
 31
0.0
  0
LINE
  5
8E
330
2
100
AcDbEntity
  8
0
100
AcDbLine
 10
-11700.064999524
 20
-4138.88086022394
 30
0.0
 11
-11702.26499952399
 21
-4138.88086022394
 31
0.0
  0
LINE
  5
8F
330
2
100
AcDbEntity
  8
0
100
AcDbLine
 10
-11700.064999524
 20
-4189.88086022394
 30
0.0
 11
-11702.26499952399
 21
-4189.88086022394
 31
0.0
  0
DIMENSION
  5
90
330
2
100
AcDbEntity
  8
0
100
AcDbDimension
  2
*D38
 10
-11734.06499952391
 20
-4123.263947673659
 30
0.0
 11
-11738.06499952395
 21
-4120.513947673658
 31
0.0
 70
    32
 71
     5
 42
8.000000000080035
  3
standard
100
AcDbAlignedDimension
 13
-11742.064999524
 23
-4131.880860223936
 33
0.0
 14
-11734.06499952391
 24
-4131.880860223936
 34
0.0
100
AcDbRotatedDimension
1001
ACAD
1000
DSTYLE
1002
{
1070
   140
1040
3.5
1002
}
  0
DIMENSION
  5
9E
330
2
100
AcDbEntity
  8
0
100
AcDbDimension
  2
*D37
 10
-11700.064999524
 20
-4114.122850620429
 30
0.0
 11
-11721.064999524
 21
-4111.372850620429
 31
0.0
 70
    32
 71
     5
 42
42.0
  3
standard
100
AcDbAlignedDimension
 13
-11742.064999524
 23
-4131.880860223936
 33
0.0
 14
-11700.064999524
 24
-4132.380860223939
 34
0.0
100
AcDbRotatedDimension
1001
ACAD
1000
DSTYLE
1002
{
1070
   140
1040
3.5
1002
}
  0
DIMENSION
  5
AB
330
2
100
AcDbEntity
  8
0
100
AcDbDimension
  2
*D42
 10
-11683.7410955944
 20
-4211.88086022394
 30
0.0
 11
-11686.4910955944
 21
-4171.880860223941
 31
0.0
 70
    32
 71
     5
 42
80.0000000000009
  3
standard
100
AcDbAlignedDimension
 13
-11700.56499952399
 23
-4131.880860223939
 33
0.0
 14
-11700.56499952401
 24
-4211.88086022394
 34
0.0
 50
90.0
100
AcDbRotatedDimension
1001
ACAD
1000
DSTYLE
1002
{
1070
   140
1040
3.5
1002
}
  0
LINE
  5
B8
330
2
100
AcDbEntity
  8
0
100
AcDbLine
 10
-11701.77961779147
 20
-4222.621394185359
 30
0.0
 11
-11701.50576451429
 21
-4220.613136819406
 31
0.0
  0
ARC
  5
B9
330
2
100
AcDbEntity
  8
0
100
AcDbCircle
 10
-11716.72245844577
 20
-4222.58086022394
 30
0.0
 40
0.2999999999999997
100
AcDbArc
 50
235.7131230227832
 51
270.0
  0
ARC
  5
BA
330
2
100
AcDbEntity
  8
0
100
AcDbCircle
 10
-11702.07686684188
 20
-4222.58086022394
 30
0.0
 40
0.2999999999999999
100
AcDbArc
 50
270.0
 51
352.2348339814868
  0
LINE
  5
BB
330
2
100
AcDbEntity
  8
0
100
AcDbLine
 10
-11701.50576451429
 20
-4220.613136819406
 30
0.0
 11
-11700.31499952401
 21
-4211.88086022394
 31
0.0
  0
ARC
  5
BC
330
2
100
AcDbEntity
  8
0
100
AcDbCircle
 10
-11727.55635038754
 20
-4215.194115718197
 30
0.0
 40
0.3
100
AcDbArc
 50
195.9453959009803
 51
235.7131230227832
  0
LINE
  5
BD
330
2
100
AcDbEntity
  8
0
100
AcDbLine
 10
-11727.72535143493
 20
-4215.441983921043
 30
0.0
 11
-11716.89145949317
 21
-4222.828728426781
 31
0.0
  0
LINE
  5
BE
330
2
100
AcDbEntity
  8
0
100
AcDbLine
 10
-11728.81499952401
 20
-4211.880860223943
 30
0.0
 11
-11727.84480757182
 21
-4215.276532056566
 31
0.0
  0
LINE
  5
BF
330
2
100
AcDbEntity
  8
0
100
AcDbLine
 10
-11713.56499952401
 20
-4217.880860223943
 30
0.0
 11
-11706.564999524
 21
-4217.880860223941
 31
0.0
  0
LINE
  5
C0
330
2
100
AcDbEntity
  8
0
100
AcDbLine
 10
-11713.56499952401
 20
-4222.88086022394
 30
0.0
 11
-11713.56499952401
 21
-4217.880860223943
 31
0.0
  0
LINE
  5
C1
330
2
100
AcDbEntity
  8
0
100
AcDbLine
 10
-11706.564999524
 20
-4217.880860223941
 30
0.0
 11
-11706.564999524
 21
-4222.88086022394
 31
0.0
  0
LINE
  5
C2
102
{ACAD_REACTORS
330
C5
102
}
330
2
100
AcDbEntity
  8
0
100
AcDbLine
 10
-11716.72245844577
 20
-4222.880860223943
 30
0.0
 11
-11702.07686684188
 21
-4222.88086022394
 31
0.0
  0
DIMENSION
  5
C3
102
{ACAD_XDICTIONARY
360
C4
102
}
102
{ACAD_REACTORS
330
C5
102
}
330
2
100
AcDbEntity
  8
0
100
AcDbDimension
  2
*D41
 10
-11683.7410955944
 20
-4222.88086022394
 30
0.0
 11
-11686.4910955944
 21
-4217.380860223943
 31
0.0
 70
    32
 71
     5
 42
10.99999999999636
  3
standard
100
AcDbAlignedDimension
 13
-11699.76533474968
 23
-4211.880860223943
 33
0.0
 14
-11702.07686684188
 24
-4222.88086022394
 34
0.0
 50
90.0
100
AcDbRotatedDimension
1001
ACAD
1000
DSTYLE
1002
{
1070
   140
1040
3.5
1002
}
  0
ARC
  5
D2
330
2
100
AcDbEntity
  8
0
  6
Continuous
100
AcDbCircle
 10
-11712.33603614125
 20
-4219.199856089374
 30
0.0
 40
0.5
100
AcDbArc
 50
181.2829771460754
 51
240.5451081460153
  0
ARC
  5
D3
330
2
100
AcDbEntity
  8
0
  6
Continuous
100
AcDbCircle
 10
-11707.73718933495
 20
-4219.09686069006
 30
0.0
 40
0.5
100
AcDbArc
 50
302.0208461459644
 51
1.282977146075429
  0
ARC
  5
D4
330
2
100
AcDbEntity
  8
0
  6
Continuous
100
AcDbCircle
 10
-11710.12321431493
 20
-4215.281512029082
 30
0.0
 40
5.0
100
AcDbArc
 50
240.5451081460153
 51
302.0208461459644
  0
LINE
  5
D5
330
2
100
AcDbEntity
  8
0
  6
Continuous
100
AcDbLine
 10
-11707.23731468209
 20
-4219.085665537964
 30
0.0
 11
-11707.264297404
 21
-4217.880860223941
 31
0.0
  0
LINE
  5
D6
330
2
100
AcDbEntity
  8
0
  6
Continuous
100
AcDbLine
 10
-11712.83591079411
 20
-4219.211051241468
 30
0.0
 11
-11712.86429758001
 21
-4217.943553075695
 31
0.0
  0
MTEXT
  5
D7
102
{ACAD_REACTORS
330
D8
102
}
330
2
100
AcDbEntity
  8
0
 62
     3
100
AcDbMText
 10
-11852.42603527423
 20
-4275.695877657446
 30
0.0
 40
3.5
 41
0.0
 71
     7
 72
     1
  1
HOUSING:\P5557-10R(MOLEX)
 73
     1
 44
1.0
1001
ACAD
1000
MTEXTBEGIN
1070
    73
1070
     1
1070
    44
1040
1.0
1070
    74
1070
     0
1000
MTEXTEND
  0
LEADER
  5
D8
330
2
100
AcDbEntity
  8
0
100
AcDbLeader
  3
standard
 74
     0
 76
     2
 10
-11783.00896674343
 20
-4261.88786288753
 30
0.0
 10
-11802.04631393183
 20
-4276.695877657445
 30
0.0
211
-1.0
221
0.0
231
0.0
1001
ACAD
1000
DSTYLE
1002
{
1070
   140
1040
3.5
1002
}
  0
MTEXT
  5
DA
102
{ACAD_REACTORS
330
DB
102
}
330
2
100
AcDbEntity
  8
0
 62
     3
100
AcDbMText
 10
-11839.57284970536
 20
-4297.288289419448
 30
0.0
 40
3.5
 41
0.0
 71
     7
 72
     1
  1
EARTH (M4)
 73
     1
 44
1.0
1001
ACAD
1000
MTEXTBEGIN
1070
    73
1070
     1
1070
    44
1040
1.0
1070
    74
1070
     0
1000
MTEXTEND
  0
LEADER
  5
DB
330
2
100
AcDbEntity
  8
0
100
AcDbLeader
  3
standard
 74
     0
 76
     2
 10
-11798.29694598945
 20
-4287.817198848558
 30
0.0
 10
-11808.72709075335
 20
-4298.051395215945
 30
0.0
211
-1.0
221
0.0
231
0.0
1001
ACAD
1000
DSTYLE
1002
{
1070
   140
1040
3.5
1002
}
  0
LINE
  5
DC
330
2
100
AcDbEntity
  8
0
100
AcDbLine
 10
-11706.06499952401
 20
-4239.539644034321
 30
0.0
 11
-11706.06499952401
 21
-4235.197986558702
 31
0.0
  0
LINE
  5
DD
330
2
100
AcDbEntity
  8
0
100
AcDbLine
 10
-11706.06499952401
 20
-4232.129922651935
 30
0.0
 11
-11706.06499952401
 21
-4223.030860223942
 31
0.0
  0
LINE
  5
DE
330
2
100
AcDbEntity
  8
0
100
AcDbLine
 10
-11714.06499952401
 20
-4239.539644034321
 30
0.0
 11
-11714.06499952401
 21
-4236.954449562738
 31
0.0
  0
LINE
  5
DF
330
2
100
AcDbEntity
  8
0
100
AcDbLine
 10
-11714.06499952401
 20
-4233.904387832502
 30
0.0
 11
-11714.06499952401
 21
-4223.030860223942
 31
0.0
  0
ARC
  5
E0
330
2
100
AcDbEntity
  8
0
100
AcDbCircle
 10
-11726.06499952401
 20
-4239.539644034325
 30
0.0
 40
20.0
100
AcDbArc
 50
270.0
 51
0.0
  0
LINE
  5
E1
330
2
100
AcDbEntity
  8
0
100
AcDbLine
 10
-11753.43355015142
 20
-4259.539644034327
 30
0.0
 11
-11726.06499952401
 21
-4259.539644034323
 31
0.0
  0
LINE
  5
E2
330
2
100
AcDbEntity
  8
0
100
AcDbLine
 10
-11753.43355015142
 20
-4251.539644034327
 30
0.0
 11
-11726.06499952401
 21
-4251.539644034323
 31
0.0
  0
ARC
  5
E3
330
2
100
AcDbEntity
  8
0
100
AcDbCircle
 10
-11726.06499952401
 20
-4239.539644034325
 30
0.0
 40
12.0
100
AcDbArc
 50
270.0
 51
0.0
  0
LINE
  5
E4
330
2
100
AcDbEntity
  8
0
100
AcDbLine
 10
-11763.93355015143
 20
-4249.901064034324
 30
0.0
 11
-11763.93355015143
 21
-4261.178224034327
 31
0.0
  0
LINE
  5
E5
330
2
100
AcDbEntity
  8
0
100
AcDbLine
 10
-11776.93355015142
 20
-4261.553590034327
 30
0.0
 11
-11763.93355015143
 21
-4259.406712034326
 31
0.0
  0
LINE
  5
E6
330
2
100
AcDbEntity
  8
0
100
AcDbLine
 10
-11776.93355015142
 20
-4263.073907034327
 30
0.0
 11
-11763.93355015143
 21
-4260.927029034325
 31
0.0
  0
LINE
  5
E7
330
2
100
AcDbEntity
  8
0
100
AcDbLine
 10
-11776.93355015142
 20
-4258.042838034328
 30
0.0
 11
-11763.93355015143
 21
-4257.879676034327
 31
0.0
  0
LINE
  5
E8
330
2
100
AcDbEntity
  8
0
100
AcDbLine
 10
-11776.93355015142
 20
-4259.542956034329
 30
0.0
 11
-11764.17490715142
 21
-4259.382824034327
 31
0.0
  0
LINE
  5
E9
330
2
100
AcDbEntity
  8
0
100
AcDbLine
 10
-11776.93355015142
 20
-4248.050710034326
 30
0.0
 11
-11764.00752215142
 21
-4251.607803034326
 31
0.0
  0
LINE
  5
EA
330
2
100
AcDbEntity
  8
0
100
AcDbLine
 10
-11776.93355015142
 20
-4246.494950034327
 30
0.0
 11
-11763.93355015143
 21
-4250.072399034327
 31
0.0
  0
LINE
  5
EB
330
2
100
AcDbEntity
  8
0
100
AcDbLine
 10
-11776.93355015142
 20
-4250.938040034326
 30
0.0
 11
-11763.93355015143
 21
-4252.235473034327
 31
0.0
  0
LINE
  5
EC
330
2
100
AcDbEntity
  8
0
100
AcDbLine
 10
-11776.93355015142
 20
-4252.445492034325
 30
0.0
 11
-11763.93355015143
 21
-4253.742925034326
 31
0.0
  0
LINE
  5
ED
330
2
100
AcDbEntity
  8
0
100
AcDbLine
 10
-11776.92142115142
 20
-4254.616993034327
 30
0.0
 11
-11763.93355015143
 21
-4254.599716034327
 31
0.0
  0
LINE
  5
EE
330
2
100
AcDbEntity
  8
0
100
AcDbLine
 10
-11776.93355015142
 20
-4256.11701003433
 30
0.0
 11
-11763.93355015143
 21
-4256.099717034326
 31
0.0
  0
LINE
  5
EF
330
2
100
AcDbEntity
  8
0
100
AcDbLine
 10
-11776.93355015142
 20
-4257.117011034325
 30
0.0
 11
-11763.93355015143
 21
-4257.099718034328
 31
0.0
  0
LINE
  5
F0
330
2
100
AcDbEntity
  8
0
100
AcDbLine
 10
-11776.93355015142
 20
-4253.617008034328
 30
0.0
 11
-11765.34961115142
 21
-4253.601599034324
 31
0.0
  0
ARC
  5
F1
330
2
100
AcDbEntity
  8
0
100
AcDbCircle
 10
-11753.43355015142
 20
-4259.039644034327
 30
0.0
 40
0.5
100
AcDbArc
 50
213.5453330000686
 51
270.0
  0
ARC
  5
F2
330
2
100
AcDbEntity
  8
0
100
AcDbCircle
 10
-11754.26699915143
 20
-4259.592241034325
 30
0.0
 40
0.5
100
AcDbArc
 50
33.54533300006868
 51
98.11409000000518
  0
ARC
  5
F3
330
2
100
AcDbEntity
  8
0
100
AcDbCircle
 10
-11753.43355015142
 20
-4252.039644034327
 30
0.0
 40
0.5
100
AcDbArc
 50
90.0
 51
146.4546669999313
  0
ARC
  5
F4
330
2
100
AcDbEntity
  8
0
100
AcDbCircle
 10
-11754.26699915143
 20
-4251.487047034327
 30
0.0
 40
0.5
100
AcDbArc
 50
261.8859099999948
 51
326.4546669999327
  0
LINE
  5
F5
330
2
100
AcDbEntity
  8
0
100
AcDbLine
 10
-11754.33757115142
 20
-4259.097246034325
 30
0.0
 11
-11763.93355015143
 21
-4261.178224034327
 31
0.0
  0
LINE
  5
F6
330
2
100
AcDbEntity
  8
0
100
AcDbLine
 10
-11754.33757115142
 20
-4251.982042034327
 30
0.0
 11
-11763.93355015143
 21
-4249.901064034324
 31
0.0
  0
LINE
  5
F7
330
2
100
AcDbEntity
  8
0
100
AcDbLine
 10
-11779.86114815142
 20
-4271.708200034328
 30
0.0
 11
-11785.29191715142
 21
-4276.156450034327
 31
0.0
  0
LINE
  5
F8
330
2
100
AcDbEntity
  8
0
100
AcDbLine
 10
-11779.00709415142
 20
-4272.947607034324
 30
0.0
 11
-11784.34143515142
 21
-4277.316873034327
 31
0.0
  0
ARC
  5
F9
330
2
100
AcDbEntity
  8
0
100
AcDbCircle
 10
-11779.48564115143
 20
-4271.92447203433
 30
0.0
 40
0.433334
100
AcDbArc
 50
150.0602740000929
 51
286.070440000002
  0
LINE
  5
FA
330
2
100
AcDbEntity
  8
0
100
AcDbLine
 10
-11767.86028915142
 20
-4261.878505034327
 30
0.0
 11
-11778.82700715142
 21
-4270.861154034327
 31
0.0
  0
LINE
  5
FB
330
2
100
AcDbEntity
  8
0
100
AcDbLine
 10
-11764.45915415142
 20
-4261.031641034324
 30
0.0
 11
-11777.97295415142
 21
-4272.100561034328
 31
0.0
  0
ARC
  5
FC
330
2
100
AcDbEntity
  8
0
100
AcDbCircle
 10
-11778.26158215143
 20
-4271.856865034329
 30
0.0
 40
0.369719
100
AcDbArc
 50
320.0555930000422
 51
100.9081109999943
  0
ARC
  5
FD
330
2
100
AcDbEntity
  8
0
100
AcDbCircle
 10
-11778.45150115143
 20
-4271.077426034326
 30
0.0
 40
0.433334
100
AcDbArc
 50
150.0602740000929
 51
286.070440000002
  0
ARC
  5
FE
330
2
100
AcDbEntity
  8
0
100
AcDbCircle
 10
-11779.29572215142
 20
-4272.703912034327
 30
0.0
 40
0.369719
100
AcDbArc
 50
320.0555930000422
 51
100.9081109999943
  0
LINE
  5
FF
330
2
100
AcDbEntity
  8
0
100
AcDbLine
 10
-11790.67032015142
 20
-4283.793385034328
 30
0.0
 11
-11783.70778015142
 21
-4278.090489034329
 31
0.0
  0
LINE
  5
100
330
2
100
AcDbEntity
  8
0
100
AcDbLine
 10
-11783.70778015142
 20
-4278.090489034329
 30
0.0
 11
-11785.92557315142
 21
-4275.382834034327
 31
0.0
  0
LINE
  5
101
330
2
100
AcDbEntity
  8
0
100
AcDbLine
 10
-11792.88811315142
 20
-4281.085730034329
 30
0.0
 11
-11785.92557315142
 21
-4275.382834034327
 31
0.0
  0
LINE
  5
102
330
2
100
AcDbEntity
  8
0
100
AcDbLine
 10
-11790.67032015142
 20
-4283.793385034328
 30
0.0
 11
-11792.88811315142
 21
-4281.085730034329
 31
0.0
  0
LINE
  5
103
330
2
100
AcDbEntity
  8
0
100
AcDbLine
 10
-11797.49041515142
 20
-4283.23960603433
 30
0.0
 11
-11792.79306515143
 21
-4281.201773034328
 31
0.0
  0
ARC
  5
104
330
2
100
AcDbEntity
  8
0
100
AcDbCircle
 10
-11796.65299515142
 20
-4286.431585034329
 30
0.0
 40
3.299999999999998
100
AcDbArc
 50
104.7003339999763
 51
333.9402890000144
  0
LINE
  5
105
330
2
100
AcDbEntity
  8
0
100
AcDbLine
 10
-11793.68848415142
 20
-4287.881300034327
 30
0.0
 11
-11790.76536815142
 21
-4283.677343034329
 31
0.0
  0
CIRCLE
  5
106
330
2
100
AcDbEntity
  8
0
100
AcDbCircle
 10
-11796.65299515142
 20
-4286.431585034329
 30
0.0
 40
2.149999999999999
  0
LINE
  5
107
330
2
100
AcDbEntity
  8
0
100
AcDbLine
 10
-11743.93355015143
 20
-4251.539644034323
 30
0.0
 11
-11743.93355015143
 21
-4259.539644034323
 31
0.0
  0
LINE
  5
108
330
2
100
AcDbEntity
  8
0
100
AcDbLine
 10
-11776.93355015142
 20
-4248.976393034328
 30
0.0
 11
-11763.93355015143
 21
-4251.622862034326
 31
0.0
  0
LINE
  5
109
330
2
100
AcDbEntity
  8
0
100
AcDbLine
 10
-11776.94215715142
 20
-4264.139839034327
 30
0.0
 11
-11764.18835615142
 21
-4260.964214034326
 31
0.0
  0
LINE
  5
10A
330
2
100
AcDbEntity
  8
0
100
AcDbLine
 10
-11776.93355015142
 20
-4260.106898034329
 30
0.0
 11
-11764.17490715142
 21
-4259.382824034327
 31
0.0
  0
LINE
  5
10B
330
2
100
AcDbEntity
  8
0
100
AcDbLine
 10
-11776.93355015142
 20
-4266.639644034326
 30
0.0
 11
-11776.93355015143
 21
-4244.439644034328
 31
0.0
  0
LINE
  5
10C
330
2
100
AcDbEntity
  8
0
100
AcDbLine
 10
-11777.93355015142
 20
-4252.239644034328
 30
0.0
 11
-11777.93355015143
 21
-4244.439644034328
 31
0.0
  0
LINE
  5
10D
330
2
100
AcDbEntity
  8
0
100
AcDbLine
 10
-11777.93355015142
 20
-4266.639644034326
 30
0.0
 11
-11777.93355015142
 21
-4258.839644034327
 31
0.0
  0
LINE
  5
10E
330
2
100
AcDbEntity
  8
0
100
AcDbLine
 10
-11787.93355015143
 20
-4257.039644034327
 30
0.0
 11
-11787.93355015143
 21
-4266.63964403433
 31
0.0
  0
LINE
  5
10F
330
2
100
AcDbEntity
  8
0
100
AcDbLine
 10
-11787.93355015143
 20
-4244.439644034328
 30
0.0
 11
-11776.93355015143
 21
-4244.439644034328
 31
0.0
  0
LINE
  5
110
330
2
100
AcDbEntity
  8
0
100
AcDbLine
 10
-11796.53355015142
 20
-4245.33964403433
 30
0.0
 11
-11787.93355015143
 21
-4245.339644034326
 31
0.0
  0
LINE
  5
111
330
2
100
AcDbEntity
  8
0
100
AcDbLine
 10
-11796.53355015142
 20
-4248.939644034328
 30
0.0
 11
-11787.93355015143
 21
-4248.939644034328
 31
0.0
  0
LINE
  5
112
330
2
100
AcDbEntity
  8
0
100
AcDbLine
 10
-11796.53355015142
 20
-4249.539644034327
 30
0.0
 11
-11787.93355015143
 21
-4249.539644034327
 31
0.0
  0
LINE
  5
113
330
2
100
AcDbEntity
  8
0
100
AcDbLine
 10
-11796.53355015142
 20
-4253.139644034329
 30
0.0
 11
-11787.93355015143
 21
-4253.139644034329
 31
0.0
  0
LINE
  5
114
330
2
100
AcDbEntity
  8
0
100
AcDbLine
 10
-11796.53355015142
 20
-4248.939644034328
 30
0.0
 11
-11796.53355015142
 21
-4245.33964403433
 31
0.0
  0
LINE
  5
115
330
2
100
AcDbEntity
  8
0
100
AcDbLine
 10
-11796.53355015142
 20
-4262.13964403433
 30
0.0
 11
-11787.93355015143
 21
-4262.13964403433
 31
0.0
  0
LINE
  5
116
330
2
100
AcDbEntity
  8
0
100
AcDbLine
 10
-11796.53355015142
 20
-4265.739644034328
 30
0.0
 11
-11787.93355015143
 21
-4265.739644034328
 31
0.0
  0
LINE
  5
117
330
2
100
AcDbEntity
  8
0
100
AcDbLine
 10
-11796.53355015142
 20
-4257.939644034329
 30
0.0
 11
-11787.93355015143
 21
-4257.939644034329
 31
0.0
  0
LINE
  5
118
330
2
100
AcDbEntity
  8
0
100
AcDbLine
 10
-11796.53355015142
 20
-4261.539644034328
 30
0.0
 11
-11787.93355015143
 21
-4261.539644034328
 31
0.0
  0
LINE
  5
119
330
2
100
AcDbEntity
  8
0
100
AcDbLine
 10
-11796.53355015142
 20
-4253.739644034329
 30
0.0
 11
-11787.93355015143
 21
-4253.739644034329
 31
0.0
  0
LINE
  5
11A
330
2
100
AcDbEntity
  8
0
100
AcDbLine
 10
-11796.53355015142
 20
-4257.33964403433
 30
0.0
 11
-11787.93355015143
 21
-4257.339644034327
 31
0.0
  0
LINE
  5
11B
330
2
100
AcDbEntity
  8
0
100
AcDbLine
 10
-11796.53355015142
 20
-4253.139644034329
 30
0.0
 11
-11796.53355015142
 21
-4249.539644034327
 31
0.0
  0
LINE
  5
11C
330
2
100
AcDbEntity
  8
0
100
AcDbLine
 10
-11796.53355015142
 20
-4261.539644034328
 30
0.0
 11
-11796.53355015142
 21
-4257.939644034329
 31
0.0
  0
LINE
  5
11D
330
2
100
AcDbEntity
  8
0
100
AcDbLine
 10
-11796.53355015142
 20
-4265.739644034328
 30
0.0
 11
-11796.53355015142
 21
-4262.13964403433
 31
0.0
  0
LINE
  5
11E
330
2
100
AcDbEntity
  8
0
100
AcDbLine
 10
-11796.53355015142
 20
-4257.33964403433
 30
0.0
 11
-11796.53355015142
 21
-4253.739644034329
 31
0.0
  0
LINE
  5
11F
330
2
100
AcDbEntity
  8
0
100
AcDbLine
 10
-11787.93355015143
 20
-4244.439644034328
 30
0.0
 11
-11787.93355015143
 21
-4254.039644034327
 31
0.0
  0
LINE
  5
120
330
2
100
AcDbEntity
  8
0
100
AcDbLine
 10
-11778.63355015142
 20
-4252.839644034327
 30
0.0
 11
-11778.63355015142
 21
-4258.239644034329
 31
0.0
  0
LINE
  5
121
330
2
100
AcDbEntity
  8
0
100
AcDbLine
 10
-11779.63355015142
 20
-4252.839644034327
 30
0.0
 11
-11779.63355015142
 21
-4258.239644034329
 31
0.0
  0
LINE
  5
122
330
2
100
AcDbEntity
  8
0
100
AcDbLine
 10
-11792.43355015142
 20
-4254.039644034327
 30
0.0
 11
-11792.43355015142
 21
-4257.039644034327
 31
0.0
  0
LINE
  5
123
330
2
100
AcDbEntity
  8
0
100
AcDbLine
 10
-11793.43355015142
 20
-4254.039644034327
 30
0.0
 11
-11793.43355015142
 21
-4257.039644034327
 31
0.0
  0
LINE
  5
124
330
2
100
AcDbEntity
  8
0
100
AcDbLine
 10
-11787.13355015142
 20
-4252.839644034327
 30
0.0
 11
-11787.13355015142
 21
-4254.039644034327
 31
0.0
  0
LINE
  5
125
330
2
100
AcDbEntity
  8
0
100
AcDbLine
 10
-11787.13355015142
 20
-4257.039644034327
 30
0.0
 11
-11787.13355015142
 21
-4258.239644034329
 31
0.0
  0
LINE
  5
126
330
2
100
AcDbEntity
  8
0
100
AcDbLine
 10
-11780.63355015142
 20
-4252.839644034327
 30
0.0
 11
-11780.63355015142
 21
-4254.039644034327
 31
0.0
  0
LINE
  5
127
330
2
100
AcDbEntity
  8
0
100
AcDbLine
 10
-11780.63355015142
 20
-4257.039644034327
 30
0.0
 11
-11780.63355015142
 21
-4258.239644034329
 31
0.0
  0
LINE
  5
128
330
2
100
AcDbEntity
  8
0
100
AcDbLine
 10
-11787.13355015142
 20
-4252.839644034327
 30
0.0
 11
-11778.63355015142
 21
-4252.839644034327
 31
0.0
  0
LINE
  5
129
330
2
100
AcDbEntity
  8
0
100
AcDbLine
 10
-11787.13355015142
 20
-4258.239644034329
 30
0.0
 11
-11778.63355015142
 21
-4258.239644034329
 31
0.0
  0
LINE
  5
12A
330
2
100
AcDbEntity
  8
0
100
AcDbLine
 10
-11793.43355015142
 20
-4254.039644034327
 30
0.0
 11
-11779.63355015142
 21
-4254.039644034327
 31
0.0
  0
LINE
  5
12B
330
2
100
AcDbEntity
  8
0
100
AcDbLine
 10
-11793.43355015142
 20
-4257.039644034327
 30
0.0
 11
-11779.63355015142
 21
-4257.039644034327
 31
0.0
  0
LINE
  5
12C
330
2
100
AcDbEntity
  8
0
100
AcDbLine
 10
-11787.93355015143
 20
-4266.63964403433
 30
0.0
 11
-11776.93355015142
 21
-4266.639644034326
 31
0.0
  0
LINE
  5
12D
330
2
100
AcDbEntity
  8
0
100
AcDbLine
 10
-11777.93355015142
 20
-4258.839644034327
 30
0.0
 11
-11776.93355015142
 21
-4258.839644034327
 31
0.0
  0
LINE
  5
12E
330
2
100
AcDbEntity
  8
0
100
AcDbLine
 10
-11777.93355015142
 20
-4252.239644034328
 30
0.0
 11
-11776.93355015142
 21
-4252.239644034328
 31
0.0
  0
ARC
  5
12F
330
2
100
AcDbEntity
  8
0
100
AcDbCircle
 10
-11707.89585146162
 20
-4234.929722023174
 30
0.0
 40
2.600007
100
AcDbArc
 50
64.57646797315963
 51
153.2244989999725
  0
ARC
  5
130
330
2
100
AcDbEntity
  8
0
100
AcDbCircle
 10
-11706.56499952401
 20
-4232.129922651935
 30
0.0
 40
0.5
100
AcDbArc
 50
244.5764679731596
 51
0.0
  0
ARC
  5
131
330
2
100
AcDbEntity
  8
0
100
AcDbCircle
 10
-11712.47609346162
 20
-4232.350248023172
 30
0.0
 40
2.661974999999999
100
AcDbArc
 50
249.2469321856146
 51
328.0621690000282
  0
ARC
  5
132
330
2
100
AcDbEntity
  8
0
100
AcDbCircle
 10
-11713.064999524
 20
-4233.904387832502
 30
0.0
 40
1.0
100
AcDbArc
 50
180.0
 51
249.2469321856146
  0
ARC
  5
133
330
2
100
AcDbEntity
  8
0
100
AcDbCircle
 10
-11707.89585146162
 20
-4236.565359023175
 30
0.0
 40
2.600007
100
AcDbArc
 50
58.71601960534682
 51
153.2244989999725
  0
ARC
  5
134
330
2
100
AcDbEntity
  8
0
100
AcDbCircle
 10
-11707.06499952401
 20
-4235.197986558702
 30
0.0
 40
1.0
100
AcDbArc
 50
0.0
 51
58.71601960534682
  0
ARC
  5
135
330
2
100
AcDbEntity
  8
0
100
AcDbCircle
 10
-11712.47609346162
 20
-4233.985886023171
 30
0.0
 40
2.661974999999999
100
AcDbArc
 50
249.85633408959
 51
328.0621690000282
  0
ARC
  5
136
330
2
100
AcDbEntity
  8
0
100
AcDbCircle
 10
-11713.56499952401
 20
-4236.954449562738
 30
0.0
 40
0.5
100
AcDbArc
 50
69.85633408959002
 51
180.0
  0
LINE
  5
137
330
2
100
AcDbEntity
  8
0
 62
   123
100
AcDbLine
 10
-11802.04631393183
 20
-4276.695877657445
 30
0.0
 11
-11853.0789777216
 21
-4276.695877657445
 31
0.0
  0
LINE
  5
138
330
2
100
AcDbEntity
  8
0
 62
   123
100
AcDbLine
 10
-11808.72709075335
 20
-4298.051395215945
 30
0.0
 11
-11840.00506201378
 21
-4298.051395215945
 31
0.0
  0
LEADER
  5
139
330
2
100
AcDbEntity
  8
0
100
AcDbLeader
  3
standard
 73
     0
 75
     1
 40
3.5
 41
70.4479166666667
 76
     3
 10
-11733.5845475969
 20
-4251.539644034323
 30
0.0
 10
-11744.65379276562
 20
-4232.826950270657
 30
0.0
 10
-11747.05379276562
 20
-4232.826950270657
 30
0.0
340
13A
1001
ACAD
1000
DSTYLE
1002
{
1070
   140
1040
3.5
1002
}
  0
MTEXT
  5
13A
102
{ACAD_REACTORS
330
139
102
}
330
2
100
AcDbEntity
  8
0
 62
     3
100
AcDbMText
 10
-11748.05379276562
 20
-4231.826950270657
 30
0.0
 40
3.5
 41
0.0
 71
     9
 72
     1
  1
MOTOR CABLE %%C8.5 500mm
 73
     1
 44
1.0
1001
ACAD
1000
MTEXTBEGIN
1070
    73
1070
     1
1070
    44
1040
1.0
1070
    74
1070
     0
1000
MTEXTEND
  0
DIMENSION
  5
13B
330
2
100
AcDbEntity
  8
0
100
AcDbDimension
  2
*D43
 10
-11776.69988012739
 20
-4286.646279226682
 30
0.0
 11
-11768.50129148083
 21
-4276.376220386539
 31
0.0
 70
    33
  1
200
 71
     5
 42
25.70046414954777
  3
standard
100
AcDbAlignedDimension
 13
-11764.45915447583
 23
-4261.031641300046
 33
0.0
 14
-11784.34143515142
 24
-4277.316873034327
 34
0.0
1001
ACAD
1000
DSTYLE
1002
{
1070
   140
1040
3.5
1002
}
  0
LINE
  5
148
330
2
100
AcDbEntity
  8
0
  6
Continuous
100
AcDbLine
 10
-11701.21063618178
 20
-4190.855317925331
 30
0.0
 11
-11702.26499952399
 21
-4190.878931361053
 31
0.0
  0
LINE
  5
149
330
2
100
AcDbEntity
  8
0
  6
Continuous
100
AcDbLine
 10
-11701.10090717588
 20
-4195.75482694944
 30
0.0
 11
-11702.21013502105
 21
-4195.779669126114
 31
0.0
  0
ARC
  5
14A
330
2
100
AcDbEntity
  8
0
  6
Continuous
100
AcDbCircle
 10
-11704.5397715709
 20
-4193.380860223939
 30
0.0
 40
4.375658581266057
100
AcDbArc
 50
330.5451081458857
 51
32.02084614594292
  0
ARC
  5
14B
330
2
100
AcDbEntity
  8
0
  6
Continuous
100
AcDbCircle
 10
-11701.20083894911
 20
-4191.292774088202
 30
0.0
 40
0.4375658581266058
100
AcDbArc
 50
32.02084614594292
 51
91.28297714597119
  0
ARC
  5
14C
330
2
100
AcDbEntity
  8
0
  6
Continuous
100
AcDbCircle
 10
-11701.11070440855
 20
-4195.317370786574
 30
0.0
 40
0.4375658581266058
100
AcDbArc
 50
271.2829771459712
 51
330.5451081458857
  0
LINE
  5
14D
330
2
100
AcDbEntity
  8
0
  6
Continuous
100
AcDbLine
 10
-11701.21063618178
 20
-4132.855317925328
 30
0.0
 11
-11702.26499952399
 21
-4132.87893136105
 31
0.0
  0
LINE
  5
14E
330
2
100
AcDbEntity
  8
0
  6
Continuous
100
AcDbLine
 10
-11701.10090717588
 20
-4137.754826949435
 30
0.0
 11
-11702.21013502105
 21
-4137.77966912611
 31
0.0
  0
ARC
  5
14F
330
2
100
AcDbEntity
  8
0
  6
Continuous
100
AcDbCircle
 10
-11704.5397715709
 20
-4135.380860223937
 30
0.0
 40
4.375658581266057
100
AcDbArc
 50
330.5451081458857
 51
32.02084614594292
  0
ARC
  5
150
330
2
100
AcDbEntity
  8
0
  6
Continuous
100
AcDbCircle
 10
-11701.20083894911
 20
-4133.292774088197
 30
0.0
 40
0.4375658581266058
100
AcDbArc
 50
32.02084614594292
 51
91.28297714597119
  0
ARC
  5
151
330
2
100
AcDbEntity
  8
0
  6
Continuous
100
AcDbCircle
 10
-11701.11070440855
 20
-4137.317370786572
 30
0.0
 40
0.4375658581266058
100
AcDbArc
 50
271.2829771459712
 51
330.5451081458857
  0
LINE
  5
152
330
2
100
AcDbEntity
  8
0
100
AcDbLine
 10
-11917.98294949135
 20
-4223.130860223921
 30
0.0
 11
-11917.98294949136
 21
-4230.761404759537
 31
0.0
  0
LINE
  5
153
330
2
100
AcDbEntity
  8
0
100
AcDbLine
 10
-11909.98294949135
 20
-4223.130860223935
 30
0.0
 11
-11909.98294949138
 21
-4231.477514959645
 31
0.0
  0
ARC
  5
154
330
2
100
AcDbEntity
  8
0
100
AcDbCircle
 10
-11911.98294949137
 20
-4230.359480970895
 30
0.0
 40
2.500000000000634
100
AcDbArc
 50
216.8698976457398
 51
311.8103148958718
  0
ARC
  5
155
330
2
100
AcDbEntity
  8
0
100
AcDbCircle
 10
-11910.98294949138
 20
-4231.477514959645
 30
0.0
 40
1.0
100
AcDbArc
 50
311.8103148957058
 51
359.9999999997915
  0
ARC
  5
156
330
2
100
AcDbEntity
  8
0
100
AcDbCircle
 10
-11915.98294949137
 20
-4233.359480970896
 30
0.0
 40
2.500000000001453
100
AcDbArc
 50
36.86989764573981
 51
119.9999999998802
  0
ARC
  5
157
330
2
100
AcDbEntity
  8
0
100
AcDbCircle
 10
-11917.48294949136
 20
-4230.761404759537
 30
0.0
 40
0.5
100
AcDbArc
 50
180.0
 51
299.9999999998802
  0
LINE
  5
158
330
2
100
AcDbEntity
  8
0
 48
25.4
100
AcDbLine
 10
-11901.73615272517
 20
-4223.130860223928
 30
0.0
 11
-11926.22974625753
 21
-4223.130860223928
 31
0.0
  0
ARC
  5
159
330
2
100
AcDbEntity
  8
0
 48
25.4
100
AcDbCircle
 10
-11926.22974625753
 20
-4220.63086022393
 30
0.0
 40
2.499999999999996
100
AcDbArc
 50
184.9999999998691
 51
270.0
  0
LINE
  5
15A
330
2
100
AcDbEntity
  8
0
 48
25.4
100
AcDbLine
 10
-11928.72023300276
 20
-4220.848749580799
 30
0.0
 11
-11929.46107732548
 21
-4212.380860223932
 31
0.0
  0
ARC
  5
15B
330
2
100
AcDbEntity
  8
0
 48
25.4
100
AcDbCircle
 10
-11901.73615272517
 20
-4220.63086022393
 30
0.0
 40
2.500000000000002
100
AcDbArc
 50
270.0
 51
355.0000000001309
  0
LINE
  5
15C
330
2
100
AcDbEntity
  8
0
 48
25.4
100
AcDbLine
 10
-11898.50482165722
 20
-4212.380860223932
 30
0.0
 11
-11899.24566597996
 21
-4220.848749580799
 31
0.0
  0
LINE
  5
15D
330
2
100
AcDbEntity
  8
0
 48
25.4
100
AcDbLine
 10
-11928.89193124496
 20
-4215.776532056565
 30
0.0
 11
-11899.07396773771
 21
-4215.776532056565
 31
0.0
  0
LINE
  5
15E
330
2
100
AcDbEntity
  8
0
 48
25.4
100
AcDbLine
 10
-11899.07396773771
 20
-4215.941983921044
 30
0.0
 11
-11928.89193124496
 21
-4215.941983921044
 31
0.0
  0
LWPOLYLINE
  5
15F
330
2
100
AcDbEntity
  8
0
  6
ByBlock
 62
     0
100
AcDbPolyline
 90
        2
 70
     0
 43
0.0
 10
-11787.06499952399
 20
-4131.880860223936
 10
-11742.064999524
 20
-4131.880860223936
  0
LWPOLYLINE
  5
160
330
2
100
AcDbEntity
  8
0
  6
ByBlock
 62
     0
100
AcDbPolyline
 90
        2
 70
     0
 43
0.0
 10
-11945.78294949134
 20
-4211.880860223937
 10
-11882.18294949134
 20
-4211.880860223937
  0
LWPOLYLINE
  5
161
330
2
100
AcDbEntity
  8
0
  6
ByBlock
 62
     0
100
AcDbPolyline
 90
        2
 70
     0
 43
0.0
 10
-11945.78294949134
 20
-4131.880860223936
 10
-11882.18294949134
 20
-4131.880860223936
  0
LWPOLYLINE
  5
162
330
2
100
AcDbEntity
  8
0
  6
ByBlock
 62
     0
100
AcDbPolyline
 90
        2
 70
     0
 43
0.0
 10
-11873.98294949134
 20
-4140.080860223936
 10
-11873.98294949134
 20
-4203.680860223935
  0
LWPOLYLINE
  5
163
330
2
100
AcDbEntity
  8
0
  6
ByBlock
 62
     0
100
AcDbPolyline
 90
        2
 70
     0
 43
0.0
 10
-11953.98294949134
 20
-4140.080860223936
 10
-11953.98294949134
 20
-4203.680860223935
  0
LWPOLYLINE
  5
164
330
2
100
AcDbEntity
  8
0
  6
ByBlock
 62
     0
100
AcDbPolyline
 90
        3
 70
     0
 43
0.0
 10
-11950.48294949135
 20
-4171.880860223937
 42
-1.0
 10
-11877.48294949134
 20
-4171.880860223937
 42
-1.0
 10
-11950.48294949135
 20
-4171.880860223937
  0
LWPOLYLINE
  5
165
330
2
100
AcDbEntity
  8
0
  6
ByBlock
 62
     0
100
AcDbPolyline
 90
        3
 70
     0
 43
0.0
 10
-11883.99892949134
 20
-4205.114870223937
 42
-1.0
 10
-11877.49892949135
 20
-4205.114870223937
 42
-1.0
 10
-11883.99892949134
 20
-4205.114870223937
  0
LWPOLYLINE
  5
166
330
2
100
AcDbEntity
  8
0
  6
ByBlock
 62
     0
100
AcDbPolyline
 90
        3
 70
     0
 43
0.0
 10
-11950.46696949134
 20
-4205.114870223937
 42
-1.0
 10
-11943.96696949134
 20
-4205.114870223937
 42
-1.0
 10
-11950.46696949134
 20
-4205.114870223937
  0
LWPOLYLINE
  5
167
330
2
100
AcDbEntity
  8
0
  6
ByBlock
 62
     0
100
AcDbPolyline
 90
        3
 70
     0
 43
0.0
 10
-11950.46696949134
 20
-4138.646840223937
 42
-1.0
 10
-11943.96696949134
 20
-4138.646840223937
 42
-1.0
 10
-11950.46696949134
 20
-4138.646840223937
  0
LWPOLYLINE
  5
168
330
2
100
AcDbEntity
  8
0
  6
ByBlock
 62
     0
100
AcDbPolyline
 90
        3
 70
     0
 43
0.0
 10
-11883.99892949134
 20
-4138.646840223937
 42
-1.0
 10
-11877.49892949135
 20
-4138.646840223937
 42
-1.0
 10
-11883.99892949134
 20
-4138.646840223937
  0
ARC
  5
169
330
2
100
AcDbEntity
  8
0
  6
CENTER
 62
     1
 48
0.6
100
AcDbCircle
 10
-11913.98294949134
 20
-4171.880860223937
 30
0.0
 40
47.0
100
AcDbArc
 50
304.9298099999477
 51
341.5946325836316
  0
ARC
  5
16A
330
2
100
AcDbEntity
  8
0
  6
CENTER
 62
     1
 48
0.6
100
AcDbCircle
 10
-11913.98294949134
 20
-4171.880860223937
 30
0.0
 40
47.0
100
AcDbArc
 50
124.9298099999477
 51
160.4746407516334
  0
LINE
  5
16B
330
2
100
AcDbEntity
  8
0
  6
CENTER
 62
     1
 48
0.6
100
AcDbLine
 10
-11874.91529949134
 20
-4132.813210223937
 30
0.0
 11
-11886.58255949134
 21
-4144.480470223937
 31
0.0
  0
LINE
  5
16C
330
2
100
AcDbEntity
  8
0
  6
CENTER
 62
     1
 48
0.6
100
AcDbLine
 10
-11941.38333949134
 20
-4199.281240223935
 30
0.0
 11
-11953.05059949134
 21
-4210.948510223937
 31
0.0
  0
LINE
  5
16D
330
2
100
AcDbEntity
  8
0
  6
CENTER
 62
     1
 48
0.6
100
AcDbLine
 10
-11886.58255949134
 20
-4199.281240223935
 30
0.0
 11
-11874.91529949134
 21
-4210.948510223937
 31
0.0
  0
LINE
  5
16E
330
2
100
AcDbEntity
  8
0
  6
CENTER
 62
     1
 48
0.6
100
AcDbLine
 10
-11953.05059949134
 20
-4132.813210223937
 30
0.0
 11
-11941.38333949134
 21
-4144.480470223937
 31
0.0
  0
LWPOLYLINE
  5
16F
330
2
100
AcDbEntity
  8
0
  6
ByBlock
 62
     0
100
AcDbPolyline
 90
        2
 70
     0
 43
0.0
 10
-11787.06499952399
 20
-4211.880860223937
 10
-11742.064999524
 20
-4211.880860223937
  0
LWPOLYLINE
  5
170
330
2
100
AcDbEntity
  8
0
  6
ByBlock
 62
     0
100
AcDbPolyline
 90
        2
 70
     0
 43
0.0
 10
-11742.064999524
 20
-4211.880860223937
 10
-11742.064999524
 20
-4131.880860223936
  0
LWPOLYLINE
  5
171
330
2
100
AcDbEntity
  8
0
  6
ByBlock
 62
     0
100
AcDbPolyline
 90
        2
 70
     0
 43
0.0
 10
-11788.06499952399
 20
-4132.880860223937
 10
-11788.06499952399
 20
-4210.880860223936
  0
LWPOLYLINE
  5
172
330
2
100
AcDbEntity
  8
0
  6
ByBlock
 62
     0
100
AcDbPolyline
 90
        2
 70
     0
 43
0.0
 10
-11795.06499952399
 20
-4142.880860223936
 10
-11795.06499952399
 20
-4174.880860223937
  0
LINE
  5
173
330
2
100
AcDbEntity
  8
0
  6
CENTER
 62
     1
 48
0.6
100
AcDbLine
 10
-11828.06499952399
 20
-4158.880860223937
 30
0.0
 11
-11781.996729524
 21
-4158.880860223937
 31
0.0
  0
LWPOLYLINE
  5
174
330
2
100
AcDbEntity
  8
0
  6
ByBlock
 62
     0
100
AcDbPolyline
 90
        2
 70
     0
 43
0.0
 10
-11794.06499952399
 20
-4175.880860223936
 10
-11788.06499952399
 20
-4175.880860223936
  0
LWPOLYLINE
  5
175
330
2
100
AcDbEntity
  8
0
  6
ByBlock
 62
     0
100
AcDbPolyline
 90
        2
 70
     0
 43
0.0
 10
-11794.06499952399
 20
-4141.880860223937
 10
-11788.06499952399
 20
-4141.880860223937
  0
LWPOLYLINE
  5
176
330
2
100
AcDbEntity
  8
0
  6
ByBlock
 62
     0
100
AcDbPolyline
 90
        2
 70
     0
 43
0.0
 10
-11795.06499952399
 20
-4142.880860223936
 42
-0.41421356
 10
-11794.06499952399
 20
-4141.880860223937
  0
LWPOLYLINE
  5
177
330
2
100
AcDbEntity
  8
0
  6
ByBlock
 62
     0
100
AcDbPolyline
 90
        2
 70
     0
 43
0.0
 10
-11794.06499952399
 20
-4175.880860223936
 42
-0.41421356
 10
-11795.06499952399
 20
-4174.880860223937
  0
LWPOLYLINE
  5
178
330
2
100
AcDbEntity
  8
0
  6
ByBlock
 62
     0
100
AcDbPolyline
 90
        2
 70
     0
 43
0.0
 10
-11823.064999524
 20
-4151.380860223937
 10
-11823.064999524
 20
-4166.380860223937
  0
LWPOLYLINE
  5
179
330
2
100
AcDbEntity
  8
0
  6
ByBlock
 62
     0
100
AcDbPolyline
 90
        2
 70
     0
 43
0.0
 10
-11823.064999524
 20
-4166.380860223937
 10
-11795.06499952399
 20
-4166.380860223937
  0
LWPOLYLINE
  5
17A
330
2
100
AcDbEntity
  8
0
  6
ByBlock
 62
     0
100
AcDbPolyline
 90
        2
 70
     0
 43
0.0
 10
-11823.064999524
 20
-4151.380860223937
 10
-11795.06499952399
 20
-4151.380860223937
  0
LINE
  5
17B
330
2
100
AcDbEntity
  8
0
  6
HIDDEN
 62
     2
 48
0.5
100
AcDbLine
 10
-11823.064999524
 20
-4154.380860223937
 30
0.0
 11
-11798.06499952399
 21
-4154.380860223937
 31
0.0
  0
LINE
  5
17D
330
2
100
AcDbEntity
  8
0
  6
HIDDEN
 62
     2
 48
0.5
100
AcDbLine
 10
-11798.06499952399
 20
-4151.380860223937
 30
0.0
 11
-11798.06499952399
 21
-4154.380860223937
 31
0.0
  0
LINE
  5
17E
330
2
100
AcDbEntity
  8
0
  6
CENTER
 62
     1
 48
0.6
100
AcDbLine
 10
-11893.08755949135
 20
-4158.880860223937
 30
0.0
 11
-11935.81716949134
 21
-4158.880860223937
 31
0.0
  0
LWPOLYLINE
  5
17F
330
2
100
AcDbEntity
  8
0
  6
ByBlock
 62
     0
100
AcDbPolyline
 90
        3
 70
     0
 43
0.0
 10
-11930.98294949134
 20
-4158.880860223937
 42
-1.0
 10
-11896.98294949135
 20
-4158.880860223937
 42
-1.0
 10
-11930.98294949134
 20
-4158.880860223937
  0
LWPOLYLINE
  5
180
330
2
100
AcDbEntity
  8
0
  6
ByBlock
 62
     0
100
AcDbPolyline
 90
        3
 70
     0
 43
0.0
 10
-11921.48294949134
 20
-4158.880860223937
 42
-1.0
 10
-11906.48294949134
 20
-4158.880860223937
 42
-1.0
 10
-11921.48294949134
 20
-4158.880860223937
  0
LWPOLYLINE
  5
181
330
2
100
AcDbEntity
  8
0
  6
ByBlock
 62
     0
100
AcDbPolyline
 90
        2
 70
     0
 43
0.0
 10
-11911.48294949134
 20
-4151.809790223934
 10
-11911.48294949134
 20
-4154.380860223937
  0
LWPOLYLINE
  5
182
330
2
100
AcDbEntity
  8
0
  6
ByBlock
 62
     0
100
AcDbPolyline
 90
        2
 70
     0
 43
0.0
 10
-11916.48294949134
 20
-4151.809790223934
 10
-11916.48294949134
 20
-4154.380860223937
  0
LWPOLYLINE
  5
183
330
2
100
AcDbEntity
  8
0
  6
ByBlock
 62
     0
100
AcDbPolyline
 90
        2
 70
     0
 43
0.0
 10
-11911.48294949134
 20
-4154.380860223937
 10
-11916.48294949134
 20
-4154.380860223937
  0
LWPOLYLINE
  5
184
330
2
100
AcDbEntity
  8
0
  6
ByBlock
 62
     0
100
AcDbPolyline
 90
        2
 70
     0
 43
0.0
 10
-11787.06499952399
 20
-4211.880860223937
 42
-0.41421356
 10
-11788.06499952399
 20
-4210.880860223936
  0
LWPOLYLINE
  5
185
330
2
100
AcDbEntity
  8
0
  6
ByBlock
 62
     0
100
AcDbPolyline
 90
        2
 70
     0
 43
0.0
 10
-11788.06499952399
 20
-4132.880860223937
 42
-0.41421356
 10
-11787.06499952399
 20
-4131.880860223936
  0
LWPOLYLINE
  5
186
330
2
100
AcDbEntity
  8
0
  6
ByBlock
 62
     0
100
AcDbPolyline
 90
        2
 70
     0
 43
0.0
 10
-11747.56499952399
 20
-4131.880860223936
 10
-11747.56499952399
 20
-4211.880860223937
  0
LWPOLYLINE
  5
187
330
2
100
AcDbEntity
  8
0
  6
ByBlock
 62
     0
100
AcDbPolyline
 90
        2
 70
     0
 43
0.0
 10
-11742.064999524
 20
-4203.380860223938
 10
-11747.56499952399
 20
-4203.380860223938
  0
LWPOLYLINE
  5
188
330
2
100
AcDbEntity
  8
0
  6
ByBlock
 62
     0
100
AcDbPolyline
 90
        2
 70
     0
 43
0.0
 10
-11742.064999524
 20
-4184.380860223937
 10
-11747.56499952399
 20
-4184.380860223937
  0
LWPOLYLINE
  5
189
330
2
100
AcDbEntity
  8
0
  6
ByBlock
 62
     0
100
AcDbPolyline
 90
        2
 70
     0
 43
0.0
 10
-11742.064999524
 20
-4181.380860223937
 10
-11747.56499952399
 20
-4181.380860223937
  0
LWPOLYLINE
  5
18A
330
2
100
AcDbEntity
  8
0
  6
ByBlock
 62
     0
100
AcDbPolyline
 90
        2
 70
     0
 43
0.0
 10
-11742.064999524
 20
-4162.380860223936
 10
-11747.56499952399
 20
-4162.380860223936
  0
LWPOLYLINE
  5
18B
330
2
100
AcDbEntity
  8
0
  6
ByBlock
 62
     0
100
AcDbPolyline
 90
        2
 70
     0
 43
0.0
 10
-11742.064999524
 20
-4159.380860223937
 10
-11747.56499952399
 20
-4159.380860223937
  0
LWPOLYLINE
  5
18C
330
2
100
AcDbEntity
  8
0
  6
ByBlock
 62
     0
100
AcDbPolyline
 90
        2
 70
     0
 43
0.0
 10
-11742.064999524
 20
-4140.380860223937
 10
-11747.56499952399
 20
-4140.380860223937
  0
LWPOLYLINE
  5
18D
330
2
100
AcDbEntity
  8
0
  6
ByBlock
 62
     0
100
AcDbPolyline
 90
        2
 70
     0
 43
0.0
 10
-11953.98294949134
 20
-4140.080860223936
 42
-0.41421356
 10
-11945.78294949134
 20
-4131.880860223936
  0
LWPOLYLINE
  5
18E
330
2
100
AcDbEntity
  8
0
  6
ByBlock
 62
     0
100
AcDbPolyline
 90
        2
 70
     0
 43
0.0
 10
-11945.78294949134
 20
-4211.880860223937
 42
-0.41421356
 10
-11953.98294949134
 20
-4203.680860223935
  0
LWPOLYLINE
  5
18F
330
2
100
AcDbEntity
  8
0
  6
ByBlock
 62
     0
100
AcDbPolyline
 90
        2
 70
     0
 43
0.0
 10
-11873.98294949134
 20
-4203.680860223935
 42
-0.41421356
 10
-11882.18294949134
 20
-4211.880860223937
  0
LWPOLYLINE
  5
190
330
2
100
AcDbEntity
  8
0
  6
ByBlock
 62
     0
100
AcDbPolyline
 90
        2
 70
     0
 43
0.0
 10
-11882.18294949134
 20
-4131.880860223936
 42
-0.41421356
 10
-11873.98294949134
 20
-4140.080860223936
  0
ARC
  5
191
330
2
100
AcDbEntity
  8
0
  6
CENTER
 62
     1
 48
0.6
100
AcDbCircle
 10
-11913.98294949134
 20
-4171.880860223937
 30
0.0
 40
47.0
100
AcDbArc
 50
34.9298099999852
 51
55.07019000005229
  0
ARC
  5
192
330
2
100
AcDbEntity
  8
0
  6
CENTER
 62
     1
 48
0.6
100
AcDbCircle
 10
-11913.98294949134
 20
-4171.880860223937
 30
0.0
 40
47.0
100
AcDbArc
 50
214.9298099999852
 51
235.0701900000523
  0
DIMENSION
  5
193
330
2
100
AcDbEntity
  8
0
100
AcDbDimension
  2
*D45
 10
-11957.34941439492
 20
-4153.760437442841
 30
0.0
 11
-11856.57840400348
 21
-4195.867012567947
 31
0.0
 70
   163
  1
<>%%P0.5
 71
     5
 42
93.99999999998545
  3
standard
100
AcDbDiametricDimension
 15
-11870.61648458777
 25
-4190.001283005066
 35
0.0
 40
0.0
1001
ACAD
1000
DSTYLE
1002
{
1070
   140
1040
3.5
1002
}
  0
MTEXT
  5
19E
102
{ACAD_REACTORS
330
19F
102
}
330
2
100
AcDbEntity
  8
0
 62
     3
100
AcDbMText
 10
-11890.14119037621
 20
-4116.756485532437
 30
0.0
 40
3.5
 41
0.0
 71
     9
 72
     1
  1
4-%%C6.5 hole
 73
     1
 44
1.0
1001
ACAD
1000
MTEXTBEGIN
1070
    73
1070
     1
1070
    44
1040
1.0
1070
    74
1070
     0
1000
MTEXTEND
  0
LEADER
  5
19F
330
2
100
AcDbEntity
  8
0
100
AcDbLeader
  3
standard
 73
     0
 75
     1
 40
3.5
 41
31.09375
 76
     3
 10
-11880.74893077557
 20
-4135.896841508168
 30
0.0
 10
-11886.74119037621
 20
-4118.172562378673
 30
0.0
 10
-11889.14119037622
 20
-4118.172562378673
 30
0.0
340
19E
213
0.0
223
-0.416076846235228
233
0.0
1001
ACAD
1000
DSTYLE
1002
{
1070
   140
1040
3.5
1002
}
  0
DIMENSION
  5
1A0
330
2
100
AcDbEntity
  8
0
100
AcDbDimension
  2
*D44
 10
-11873.98294949134
 20
-4106.89949160163
 30
0.0
 11
-11913.98294949134
 21
-4106.89949160163
 31
0.0
 70
   160
  1
{\fGulim|b0|i0|c129|p50;□}<>
 71
     5
 42
80.0
  3
standard
100
AcDbAlignedDimension
 13
-11953.98294949134
 23
-4140.080860223936
 33
0.0
 14
-11873.98294949134
 24
-4140.080860223936
 34
0.0
100
AcDbRotatedDimension
1001
ACAD
1000
DSTYLE
1002
{
1070
   140
1040
3.5
1002
}
  0
DIMENSION
  5
1AD
330
2
100
AcDbEntity
  8
0
100
AcDbDimension
  2
*D36
 10
-11742.064999524
 20
-4114.122850620429
 30
0.0
 11
-11765.06499952399
 21
-4114.122850620429
 31
0.0
 70
   160
  1
L
 71
     5
 42
46.0
  3
standard
100
AcDbAlignedDimension
 13
-11788.06499952399
 23
-4132.880860227988
 33
0.0
 14
-11742.064999524
 24
-4131.880860223936
 34
0.0
100
AcDbRotatedDimension
1001
ACAD
1000
DSTYLE
1002
{
1070
   140
1040
3.5
1002
}
  0
DIMENSION
  5
1BA
330
2
100
AcDbEntity
  8
0
100
AcDbDimension
  2
*D35
 10
-11823.064999524
 20
-4114.168182822413
 30
0.0
 11
-11805.56499952399
 21
-4114.168182822413
 31
0.0
 70
   160
 71
     5
 42
35.0
  3
standard
100
AcDbAlignedDimension
 13
-11788.06499952399
 23
-4132.880860227988
 33
0.0
 14
-11823.064999524
 24
-4151.380860223937
 34
0.0
100
AcDbRotatedDimension
1001
ACAD
1000
DSTYLE
1002
{
1070
   140
1040
3.5
1002
}
  0
DIMENSION
  5
1C7
330
2
100
AcDbEntity
  8
0
100
AcDbDimension
  2
*D34
 10
-11795.06499952399
 20
-4123.070966165465
 30
0.0
 11
-11791.564999524
 21
-4123.070966165465
 31
0.0
 70
   160
 71
     5
 42
7.0
  3
standard
100
AcDbAlignedDimension
 13
-11788.06499952399
 23
-4132.880860227988
 33
0.0
 14
-11795.06499952399
 24
-4142.880860227989
 34
0.0
100
AcDbRotatedDimension
1001
ACAD
1000
DSTYLE
1002
{
1070
   140
1040
3.5
1002
}
  0
DIMENSION
  5
1D4
330
2
100
AcDbEntity
  8
0
100
AcDbDimension
  2
*D33
 10
-11823.064999524
 20
-4130.964379207564
 30
0.0
 11
-11810.564999524
 21
-4130.964379207564
 31
0.0
 70
   160
 71
     5
 42
25.0
  3
standard
100
AcDbAlignedDimension
 13
-11798.06499952399
 23
-4151.380860223937
 33
0.0
 14
-11823.064999524
 24
-4151.380860223937
 34
0.0
100
AcDbRotatedDimension
1001
ACAD
1000
DSTYLE
1002
{
1070
   140
1040
3.5
1002
}
  0
DIMENSION
  5
1E1
330
2
100
AcDbEntity
  8
0
100
AcDbDimension
  2
*D32
 10
-11833.82246650059
 20
-4151.380860223937
 30
0.0
 11
-11833.82246650058
 21
-4127.165597050811
 31
0.0
 70
   160
  1
%%C<>{\H0.7x;\S  0^ -0.018;}
 71
     5
 42
15.0
  3
standard
100
AcDbAlignedDimension
 13
-11823.064999524
 23
-4166.380860223937
 33
0.0
 14
-11823.064999524
 24
-4151.380860223937
 34
0.0
 50
90.0
100
AcDbRotatedDimension
1001
ACAD
1000
DSTYLE
1002
{
1070
   140
1040
3.5
1002
}
  0
DIMENSION
  5
1EF
330
2
100
AcDbEntity
  8
0
100
AcDbDimension
  2
*D40
 10
-11849.62082113122
 20
-4175.880860223936
 30
0.0
 11
-11849.62082113121
 21
-4158.880860223939
 31
0.0
 70
   160
  1
%%C<>
 71
     5
 42
33.99999999999727
  3
standard
100
AcDbAlignedDimension
 13
-11794.06499951995
 23
-4141.880860223939
 33
0.0
 14
-11794.06499951995
 24
-4175.880860223936
 34
0.0
 50
90.0
100
AcDbRotatedDimension
1001
ACAD
1000
DSTYLE
1002
{
1070
   140
1040
3.5
1002
}
  0
DIMENSION
  5
1FC
330
2
100
AcDbEntity
  8
0
100
AcDbDimension
  2
*D39
 10
-11841.12406972646
 20
-4171.880860223937
 30
0.0
 11
-11841.12406972646
 21
-4165.380860223936
 31
0.0
 70
   160
 71
     5
 42
13.0
  3
standard
100
AcDbAlignedDimension
 13
-11828.06499952399
 23
-4158.880860223937
 33
0.0
 14
-11802.53124711918
 24
-4171.880860223937
 34
0.0
 50
90.0
100
AcDbRotatedDimension
1001
ACAD
1000
DSTYLE
1002
{
1070
   140
1040
3.5
1002
}
  0
LINE
  5
209
330
2
100
AcDbEntity
  8
0
100
AcDbLine
 10
-11704.56499952399
 20
-4212.130860223939
 30
0.0
 11
-11705.06499952399
 21
-4212.130860223939
 31
0.0
  0
LINE
  5
20A
330
2
100
AcDbEntity
  8
0
  6
CENTER
 62
     1
 48
0.6
100
AcDbLine
 10
-11781.69793508817
 20
-3928.512007544629
 30
0.0
 11
-11694.41423192017
 21
-3928.512007544632
 31
0.0
  0
LINE
  5
20B
330
2
100
AcDbEntity
  8
0
100
AcDbLine
 10
-11774.064999524
 20
-3933.512007544628
 30
0.0
 11
-11744.064999524
 21
-3933.512007544628
 31
0.0
  0
LINE
  5
20C
330
2
100
AcDbEntity
  8
0
100
AcDbLine
 10
-11749.064999524
 20
-3923.512007544633
 30
0.0
 11
-11744.064999524
 21
-3923.512007544628
 31
0.0
  0
LINE
  5
20D
330
2
100
AcDbEntity
  8
0
100
AcDbLine
 10
-11774.064999524
 20
-3924.512007544629
 30
0.0
 11
-11749.064999524
 21
-3924.512007544633
 31
0.0
  0
LINE
  5
20E
330
2
100
AcDbEntity
  8
0
100
AcDbLine
 10
-11744.064999524
 20
-3964.71200754463
 30
0.0
 11
-11744.064999524
 21
-3892.312007544628
 31
0.0
  0
LINE
  5
20F
330
2
100
AcDbEntity
  8
0
100
AcDbLine
 10
-11742.064999524
 20
-3968.008728891469
 30
0.0
 11
-11742.064999524
 21
-3889.015286197792
 31
0.0
  0
LINE
  5
210
330
2
100
AcDbEntity
  8
0
100
AcDbLine
 10
-11734.064999524
 20
-3888.512007544629
 30
0.0
 11
-11705.064999524
 21
-3888.508718070946
 31
0.0
  0
LINE
  5
211
330
2
100
AcDbEntity
  8
0
100
AcDbLine
 10
-11741.55839893559
 20
-3888.512007544629
 30
0.0
 11
-11742.064999524
 21
-3889.015286197792
 31
0.0
  0
LINE
  5
212
330
2
100
AcDbEntity
  8
0
100
AcDbLine
 10
-11743.764999524
 20
-3892.012007544632
 30
0.0
 11
-11744.064999524
 21
-3892.312007544628
 31
0.0
  0
LINE
  5
213
330
2
100
AcDbEntity
  8
0
100
AcDbLine
 10
-11734.064999524
 20
-3888.512007544629
 30
0.0
 11
-11734.064999524
 21
-3900.512007544629
 31
0.0
  0
LINE
  5
214
330
2
100
AcDbEntity
  8
0
100
AcDbLine
 10
-11774.064999524
 20
-3924.512007544629
 30
0.0
 11
-11774.064999524
 21
-3933.512007544628
 31
0.0
  0
LINE
  5
215
330
2
100
AcDbEntity
  8
0
100
AcDbLine
 10
-11749.064999524
 20
-3923.512007544633
 30
0.0
 11
-11749.064999524
 21
-3924.512007544629
 31
0.0
  0
LINE
  5
216
330
2
100
AcDbEntity
  8
0
100
AcDbLine
 10
-11743.764999524
 20
-3892.012007544629
 30
0.0
 11
-11742.064999524
 21
-3892.012007544629
 31
0.0
  0
LINE
  5
217
330
2
100
AcDbEntity
  8
0
100
AcDbLine
 10
-11700.064999524
 20
-3889.012007544632
 30
0.0
 11
-11700.064999524
 21
-3890.667989507336
 31
0.0
  0
LINE
  5
218
330
2
100
AcDbEntity
  8
0
100
AcDbLine
 10
-11700.064999524
 20
-3893.472455163756
 30
0.0
 11
-11700.064999524
 21
-3948.667989507332
 31
0.0
  0
LINE
  5
219
330
2
100
AcDbEntity
  8
0
100
AcDbLine
 10
-11700.064999524
 20
-3951.472455163756
 30
0.0
 11
-11700.064999524
 21
-3968.012007544632
 31
0.0
  0
LINE
  5
21A
330
2
100
AcDbEntity
  8
0
100
AcDbLine
 10
-11702.264999524
 20
-3946.512007544632
 30
0.0
 11
-11702.264999524
 21
-3956.512007544633
 31
0.0
  0
LINE
  5
21B
330
2
100
AcDbEntity
  8
0
100
AcDbLine
 10
-11702.264999524
 20
-3888.512007544632
 30
0.0
 11
-11702.264999524
 21
-3895.512007544633
 31
0.0
  0
ARC
  5
21C
330
2
100
AcDbEntity
  8
0
100
AcDbCircle
 10
-11700.564999524
 20
-3889.012007544632
 30
0.0
 40
0.5
100
AcDbArc
 50
0.0
 51
90.0
  0
LINE
  5
21D
330
2
100
AcDbEntity
  8
0
100
AcDbLine
 10
-11700.564999524
 20
-3888.512007544632
 30
0.0
 11
-11704.564999524
 21
-3888.512007544632
 31
0.0
  0
LINE
  5
21E
330
2
100
AcDbEntity
  8
0
100
AcDbLine
 10
-11741.55839893559
 20
-3888.512007544629
 30
0.0
 11
-11734.06499952392
 21
-3888.512007544629
 31
0.0
  0
LINE
  5
21F
330
2
100
AcDbEntity
  8
0
100
AcDbLine
 10
-11700.064999524
 20
-3900.512007544629
 30
0.0
 11
-11704.564999524
 21
-3900.512007544629
 31
0.0
  0
LINE
  5
220
330
2
100
AcDbEntity
  8
0
100
AcDbLine
 10
-11705.064999524
 20
-3900.512007544629
 30
0.0
 11
-11734.064999524
 21
-3900.512007544629
 31
0.0
  0
LINE
  5
221
330
2
100
AcDbEntity
  8
0
100
AcDbLine
 10
-11700.064999524
 20
-3956.512007544633
 30
0.0
 11
-11704.56499952401
 21
-3956.512007544633
 31
0.0
  0
LINE
  5
222
330
2
100
AcDbEntity
  8
0
100
AcDbLine
 10
-11705.06499952401
 20
-3956.512007544633
 30
0.0
 11
-11734.064999524
 21
-3956.512007544633
 31
0.0
  0
LINE
  5
223
330
2
100
AcDbEntity
  8
0
100
AcDbLine
 10
-11743.76499952402
 20
-3965.012007544626
 30
0.0
 11
-11744.06499952402
 21
-3964.71200754463
 31
0.0
  0
LINE
  5
224
330
2
100
AcDbEntity
  8
0
100
AcDbLine
 10
-11743.76499952402
 20
-3965.012007544626
 30
0.0
 11
-11742.06499952402
 21
-3965.012007544629
 31
0.0
  0
LINE
  5
225
330
2
100
AcDbEntity
  8
0
100
AcDbLine
 10
-11741.55839893559
 20
-3968.512007544632
 30
0.0
 11
-11742.064999524
 21
-3968.008728891469
 31
0.0
  0
LINE
  5
226
330
2
100
AcDbEntity
  8
0
100
AcDbLine
 10
-11741.55839893559
 20
-3968.512007544632
 30
0.0
 11
-11734.06499952392
 21
-3968.512007544632
 31
0.0
  0
LINE
  5
227
330
2
100
AcDbEntity
  8
0
100
AcDbLine
 10
-11734.064999524
 20
-3968.512007544632
 30
0.0
 11
-11734.064999524
 21
-3956.512007544633
 31
0.0
  0
LINE
  5
228
330
2
100
AcDbEntity
  8
0
100
AcDbLine
 10
-11705.06499952401
 20
-3968.515297018319
 30
0.0
 11
-11705.064999524
 21
-3888.508718070946
 31
0.0
  0
LINE
  5
229
330
2
100
AcDbEntity
  8
0
100
AcDbLine
 10
-11734.06499952401
 20
-3968.512007544628
 30
0.0
 11
-11705.06499952401
 21
-3968.515297018319
 31
0.0
  0
LINE
  5
22A
330
2
100
AcDbEntity
  8
0
100
AcDbLine
 10
-11700.564999524
 20
-3968.512007544632
 30
0.0
 11
-11704.56499952401
 21
-3968.512007544632
 31
0.0
  0
ARC
  5
22B
330
2
100
AcDbEntity
  8
0
100
AcDbCircle
 10
-11700.564999524
 20
-3968.012007544632
 30
0.0
 40
0.5
100
AcDbArc
 50
269.9999999998958
 51
0.0
  0
LINE
  5
22C
330
2
100
AcDbEntity
  8
0
100
AcDbLine
 10
-11704.56499952401
 20
-3968.512007544632
 30
0.0
 11
-11704.564999524
 21
-3888.512007544632
 31
0.0
  0
LINE
  5
22D
330
2
100
AcDbEntity
  8
0
100
AcDbLine
 10
-11700.064999524
 20
-3895.512007544633
 30
0.0
 11
-11702.264999524
 21
-3895.512007544633
 31
0.0
  0
LINE
  5
22E
330
2
100
AcDbEntity
  8
0
100
AcDbLine
 10
-11700.064999524
 20
-3946.512007544632
 30
0.0
 11
-11702.264999524
 21
-3946.512007544632
 31
0.0
  0
DIMENSION
  5
22F
330
2
100
AcDbEntity
  8
0
100
AcDbDimension
  2
*D54
 10
-11734.06499952392
 20
-3881.324534831288
 30
0.0
 11
-11738.06499952396
 21
-3878.574534831288
 31
0.0
 70
    32
 71
     5
 42
8.000000000078214
  3
standard
100
AcDbAlignedDimension
 13
-11742.064999524
 23
-3889.015286197792
 33
0.0
 14
-11734.06499952392
 24
-3888.512007544629
 34
0.0
100
AcDbRotatedDimension
1001
ACAD
1000
DSTYLE
1002
{
1070
   140
1040
3.5
1002
}
  0
DIMENSION
  5
23C
330
2
100
AcDbEntity
  8
0
100
AcDbDimension
  2
*D53
 10
-11700.064999524
 20
-3874.148943642325
 30
0.0
 11
-11721.064999524
 21
-3871.398943642325
 31
0.0
 70
    32
 71
     5
 42
42.0
  3
standard
100
AcDbAlignedDimension
 13
-11742.064999524
 23
-3889.015286197792
 33
0.0
 14
-11700.064999524
 24
-3889.012007544632
 34
0.0
100
AcDbRotatedDimension
1001
ACAD
1000
DSTYLE
1002
{
1070
   140
1040
3.5
1002
}
  0
DIMENSION
  5
249
330
2
100
AcDbEntity
  8
0
100
AcDbDimension
  2
*D52
 10
-11744.064999524
 20
-3881.324534831288
 30
0.0
 11
-11751.064999524
 21
-3881.324534831288
 31
0.0
 70
   160
 71
     5
 42
2.0
  3
standard
100
AcDbAlignedDimension
 13
-11742.064999524
 23
-3889.015286197792
 33
0.0
 14
-11744.064999524
 24
-3892.312007544628
 34
0.0
100
AcDbRotatedDimension
1001
ACAD
1000
DSTYLE
1002
{
1070
   140
1040
3.5
1002
}
  0
DIMENSION
  5
258
330
2
100
AcDbEntity
  8
0
100
AcDbDimension
  2
*D51
 10
-11774.064999524
 20
-3874.148943642325
 30
0.0
 11
-11758.064999524
 21
-3871.398943642325
 31
0.0
 70
    32
 71
     5
 42
32.0
  3
standard
100
AcDbAlignedDimension
 13
-11742.064999524
 23
-3889.015286197792
 33
0.0
 14
-11774.064999524
 24
-3924.512007544629
 34
0.0
100
AcDbRotatedDimension
1001
ACAD
1000
DSTYLE
1002
{
1070
   140
1040
3.5
1002
}
  0
LINE
  5
265
330
2
100
AcDbEntity
  8
0
100
AcDbLine
 10
-11701.77961779148
 20
-3979.252541506053
 30
0.0
 11
-11701.5057645143
 21
-3977.244284140095
 31
0.0
  0
ARC
  5
266
330
2
100
AcDbEntity
  8
0
100
AcDbCircle
 10
-11716.72245844578
 20
-3979.212007544634
 30
0.0
 40
0.2999999999999997
100
AcDbArc
 50
235.7131230227842
 51
270.0
  0
ARC
  5
267
330
2
100
AcDbEntity
  8
0
100
AcDbCircle
 10
-11702.07686684189
 20
-3979.212007544634
 30
0.0
 40
0.2999999999999999
100
AcDbArc
 50
270.0
 51
352.2348339814866
  0
LINE
  5
268
330
2
100
AcDbEntity
  8
0
100
AcDbLine
 10
-11701.5057645143
 20
-3977.244284140095
 30
0.0
 11
-11700.31499952401
 21
-3968.512007544632
 31
0.0
  0
ARC
  5
269
330
2
100
AcDbEntity
  8
0
100
AcDbCircle
 10
-11727.55635038754
 20
-3971.82526303889
 30
0.0
 40
0.3
100
AcDbArc
 50
195.9453959009801
 51
235.7131230227842
  0
LINE
  5
26A
330
2
100
AcDbEntity
  8
0
100
AcDbLine
 10
-11727.72535143493
 20
-3972.07313124173
 30
0.0
 11
-11716.89145949318
 21
-3979.459875747475
 31
0.0
  0
LINE
  5
26B
330
2
100
AcDbEntity
  8
0
100
AcDbLine
 10
-11728.81499952401
 20
-3968.512007544632
 30
0.0
 11
-11727.84480757183
 21
-3971.907679377259
 31
0.0
  0
LINE
  5
26C
330
2
100
AcDbEntity
  8
0
100
AcDbLine
 10
-11713.56499952401
 20
-3974.512007544632
 30
0.0
 11
-11706.56499952401
 21
-3974.512007544632
 31
0.0
  0
LINE
  5
26D
330
2
100
AcDbEntity
  8
0
100
AcDbLine
 10
-11713.56499952401
 20
-3979.512007544632
 30
0.0
 11
-11713.56499952401
 21
-3974.512007544632
 31
0.0
  0
LINE
  5
26E
330
2
100
AcDbEntity
  8
0
100
AcDbLine
 10
-11706.56499952401
 20
-3974.512007544632
 30
0.0
 11
-11706.56499952401
 21
-3979.512007544632
 31
0.0
  0
LINE
  5
26F
102
{ACAD_REACTORS
330
272
102
}
330
2
100
AcDbEntity
  8
0
100
AcDbLine
 10
-11716.72245844578
 20
-3979.512007544632
 30
0.0
 11
-11702.07686684189
 21
-3979.512007544632
 31
0.0
  0
DIMENSION
  5
270
102
{ACAD_XDICTIONARY
360
271
102
}
102
{ACAD_REACTORS
330
272
102
}
330
2
100
AcDbEntity
  8
0
100
AcDbDimension
  2
*D47
 10
-11686.89930159983
 20
-3979.512007544632
 30
0.0
 11
-11689.64930159983
 21
-3974.012007544634
 31
0.0
 70
    32
 71
     5
 42
11.0
  3
standard
100
AcDbAlignedDimension
 13
-11700.564999524
 23
-3968.512007544632
 33
0.0
 14
-11702.07686684189
 24
-3979.512007544632
 34
0.0
 50
90.0
100
AcDbRotatedDimension
1001
ACAD
1000
DSTYLE
1002
{
1070
   140
1040
3.5
1002
}
  0
ARC
  5
27F
330
2
100
AcDbEntity
  8
0
  6
Continuous
100
AcDbCircle
 10
-11712.33603614125
 20
-3975.831003410063
 30
0.0
 40
0.5
100
AcDbArc
 50
181.2829771460751
 51
240.5451081460145
  0
ARC
  5
280
330
2
100
AcDbEntity
  8
0
  6
Continuous
100
AcDbCircle
 10
-11707.73718933496
 20
-3975.728008010752
 30
0.0
 40
0.5
100
AcDbArc
 50
302.0208461459795
 51
1.282977146075159
  0
ARC
  5
281
330
2
100
AcDbEntity
  8
0
  6
Continuous
100
AcDbCircle
 10
-11710.12321431493
 20
-3971.912659349771
 30
0.0
 40
5.0
100
AcDbArc
 50
240.5451081460145
 51
302.0208461459795
  0
LINE
  5
282
330
2
100
AcDbEntity
  8
0
  6
Continuous
100
AcDbLine
 10
-11707.23731468211
 20
-3975.716812858653
 30
0.0
 11
-11707.264297404
 21
-3974.512007544632
 31
0.0
  0
LINE
  5
283
330
2
100
AcDbEntity
  8
0
  6
Continuous
100
AcDbLine
 10
-11712.83591079411
 20
-3975.842198562162
 30
0.0
 11
-11712.86429758002
 21
-3974.574700396388
 31
0.0
  0
DIMENSION
  5
284
330
2
100
AcDbEntity
  8
0
100
AcDbDimension
  2
*D58
 10
-11794.33743360546
 20
-3923.512007544633
 30
0.0
 11
-11794.33743360546
 21
-3928.512007544633
 31
0.0
 70
   160
  1
%%C<>{\H0.7x;\S  0^ -0.015;}(h7)
 71
     5
 42
9.999999999995452
  3
standard
100
AcDbAlignedDimension
 13
-11774.064999524
 23
-3933.512007544628
 33
0.0
 14
-11749.064999524
 24
-3923.512007544633
 34
0.0
 50
90.0
100
AcDbRotatedDimension
1001
ACAD
1000
DSTYLE
1002
{
1070
   140
1040
3.5
1002
}
  0
DIMENSION
  5
291
330
2
100
AcDbEntity
  8
0
100
AcDbDimension
  2
*D57
 10
-11804.60568784664
 20
-3892.012007544629
 30
0.0
 11
-11809.04735451331
 21
-3928.512007544629
 31
0.0
 70
    32
  1
%%C<>{\H0.7x;\S  0^ -0.030;}(h7)
 71
     5
 42
72.99999999999636
  3
standard
100
AcDbAlignedDimension
 13
-11743.76499952402
 23
-3965.012007544626
 33
0.0
 14
-11743.764999524
 24
-3892.012007544629
 34
0.0
 50
90.0
100
AcDbRotatedDimension
1001
ACAD
1000
DSTYLE
1002
{
1070
   140
1040
3.5
1002
}
  0
DIMENSION
  5
29E
330
2
100
AcDbEntity
  8
0
100
AcDbDimension
  2
*D55
 10
-11774.064999524
 20
-3906.88062286226
 30
0.0
 11
-11761.564999524
 21
-3904.13062286226
 31
0.0
 70
    32
 71
     5
 42
25.0
  3
standard
100
AcDbAlignedDimension
 13
-11749.064999524
 23
-3923.512007544633
 33
0.0
 14
-11774.064999524
 24
-3924.512007544629
 34
0.0
100
AcDbRotatedDimension
1001
ACAD
1000
DSTYLE
1002
{
1070
   140
1040
3.5
1002
}
  0
DIMENSION
  5
2AB
330
2
100
AcDbEntity
  8
0
100
AcDbDimension
  2
*D46
 10
-11686.89930159983
 20
-3968.512007544632
 30
0.0
 11
-11689.64930159983
 21
-3928.512007544634
 31
0.0
 70
    32
 71
     5
 42
80.0
  3
standard
100
AcDbAlignedDimension
 13
-11700.564999524
 23
-3888.512007544632
 33
0.0
 14
-11700.56499952402
 24
-3968.512007544632
 34
0.0
 50
90.0
100
AcDbRotatedDimension
1001
ACAD
1000
DSTYLE
1002
{
1070
   140
1040
3.5
1002
}
  0
MTEXT
  5
2B8
102
{ACAD_REACTORS
330
2B9
102
}
330
2
100
AcDbEntity
  8
0
 62
     3
100
AcDbMText
 10
-11858.64856249423
 20
-4035.122585811403
 30
0.0
 40
3.5
 41
0.0
 71
     7
 72
     1
  1
HOUSING:\P5557-10R(MOLEX)
 73
     1
 44
1.0
1001
ACAD
1000
MTEXTBEGIN
1070
    73
1070
     1
1070
    44
1040
1.0
1070
    74
1070
     0
1000
MTEXTEND
  0
LEADER
  5
2B9
330
2
100
AcDbEntity
  8
0
100
AcDbLeader
  3
standard
 74
     0
 76
     2
 10
-11785.22737022043
 20
-4018.519010208223
 30
0.0
 10
-11806.96135691116
 20
-4036.694441571952
 30
0.0
211
-1.0
221
0.0
231
0.0
1001
ACAD
1000
DSTYLE
1002
{
1070
   140
1040
3.5
1002
}
  0
MTEXT
  5
2BA
102
{ACAD_REACTORS
330
2BB
102
}
330
2
100
AcDbEntity
  8
0
 62
     3
100
AcDbMText
 10
-11843.84996135409
 20
-4055.487526437937
 30
0.0
 40
3.5
 41
0.0
 71
     7
 72
     1
  1
EARTH (M4)
 73
     1
 44
1.0
1001
ACAD
1000
MTEXTBEGIN
1070
    73
1070
     1
1070
    44
1040
1.0
1070
    74
1070
     0
1000
MTEXTEND
  0
LEADER
  5
2BB
330
2
100
AcDbEntity
  8
0
100
AcDbLeader
  3
standard
 74
     0
 76
     2
 10
-11801.02450396786
 20
-4044.448346169246
 30
0.0
 10
-11812.76254045209
 20
-4056.440184709841
 30
0.0
211
-1.0
221
0.0
231
0.0
1001
ACAD
1000
DSTYLE
1002
{
1070
   140
1040
3.5
1002
}
  0
LINE
  5
2BC
330
2
100
AcDbEntity
  8
0
100
AcDbLine
 10
-11706.06499952401
 20
-3996.170791355013
 30
0.0
 11
-11706.06499952401
 21
-3991.82913387939
 31
0.0
  0
LINE
  5
2BD
330
2
100
AcDbEntity
  8
0
100
AcDbLine
 10
-11706.06499952401
 20
-3988.761069972625
 30
0.0
 11
-11706.06499952401
 21
-3979.662007544634
 31
0.0
  0
LINE
  5
2BE
330
2
100
AcDbEntity
  8
0
100
AcDbLine
 10
-11714.06499952401
 20
-3996.170791355013
 30
0.0
 11
-11714.06499952401
 21
-3993.58559688343
 31
0.0
  0
LINE
  5
2BF
330
2
100
AcDbEntity
  8
0
100
AcDbLine
 10
-11714.06499952401
 20
-3990.535535153191
 30
0.0
 11
-11714.06499952401
 21
-3979.662007544634
 31
0.0
  0
ARC
  5
2C0
330
2
100
AcDbEntity
  8
0
100
AcDbCircle
 10
-11726.06499952401
 20
-3996.170791355013
 30
0.0
 40
20.0
100
AcDbArc
 50
270.0
 51
0.0
  0
LINE
  5
2C1
330
2
100
AcDbEntity
  8
0
100
AcDbLine
 10
-11755.65195362842
 20
-4016.170791355015
 30
0.0
 11
-11726.06499952401
 21
-4016.170791355012
 31
0.0
  0
LINE
  5
2C2
330
2
100
AcDbEntity
  8
0
100
AcDbLine
 10
-11755.65195362842
 20
-4008.170791355015
 30
0.0
 11
-11726.06499952401
 21
-4008.170791355012
 31
0.0
  0
ARC
  5
2C3
330
2
100
AcDbEntity
  8
0
100
AcDbCircle
 10
-11726.06499952401
 20
-3996.170791355013
 30
0.0
 40
12.0
100
AcDbArc
 50
270.0
 51
0.0
  0
LINE
  5
2C4
330
2
100
AcDbEntity
  8
0
100
AcDbLine
 10
-11766.15195362842
 20
-4006.532211355017
 30
0.0
 11
-11766.15195362842
 21
-4017.809371355019
 31
0.0
  0
LINE
  5
2C5
330
2
100
AcDbEntity
  8
0
100
AcDbLine
 10
-11779.15195362842
 20
-4018.184737355019
 30
0.0
 11
-11766.15195362842
 21
-4016.037859355019
 31
0.0
  0
LINE
  5
2C6
330
2
100
AcDbEntity
  8
0
100
AcDbLine
 10
-11779.15195362842
 20
-4019.705054355017
 30
0.0
 11
-11766.15195362842
 21
-4017.558176355016
 31
0.0
  0
LINE
  5
2C7
330
2
100
AcDbEntity
  8
0
100
AcDbLine
 10
-11779.15195362842
 20
-4014.673985355017
 30
0.0
 11
-11766.15195362842
 21
-4014.510823355016
 31
0.0
  0
LINE
  5
2C8
330
2
100
AcDbEntity
  8
0
100
AcDbLine
 10
-11779.15195362842
 20
-4016.174103355017
 30
0.0
 11
-11766.39331062842
 21
-4016.013971355016
 31
0.0
  0
LINE
  5
2C9
330
2
100
AcDbEntity
  8
0
100
AcDbLine
 10
-11779.15195362842
 20
-4004.681857355019
 30
0.0
 11
-11766.22592562842
 21
-4008.238950355017
 31
0.0
  0
LINE
  5
2CA
330
2
100
AcDbEntity
  8
0
100
AcDbLine
 10
-11779.15195362842
 20
-4003.12609735502
 30
0.0
 11
-11766.15195362842
 21
-4006.703546355016
 31
0.0
  0
LINE
  5
2CB
330
2
100
AcDbEntity
  8
0
100
AcDbLine
 10
-11779.15195362842
 20
-4007.569187355016
 30
0.0
 11
-11766.15195362842
 21
-4008.866620355017
 31
0.0
  0
LINE
  5
2CC
330
2
100
AcDbEntity
  8
0
100
AcDbLine
 10
-11779.15195362842
 20
-4009.076639355018
 30
0.0
 11
-11766.15195362842
 21
-4010.374072355017
 31
0.0
  0
LINE
  5
2CD
330
2
100
AcDbEntity
  8
0
100
AcDbLine
 10
-11779.13982462842
 20
-4011.248140355019
 30
0.0
 11
-11766.15195362842
 21
-4011.230863355016
 31
0.0
  0
LINE
  5
2CE
330
2
100
AcDbEntity
  8
0
100
AcDbLine
 10
-11779.15195362842
 20
-4012.748157355018
 30
0.0
 11
-11766.15195362842
 21
-4012.730864355017
 31
0.0
  0
LINE
  5
2CF
330
2
100
AcDbEntity
  8
0
100
AcDbLine
 10
-11779.15195362842
 20
-4013.748158355016
 30
0.0
 11
-11766.15195362842
 21
-4013.730865355017
 31
0.0
  0
LINE
  5
2D0
330
2
100
AcDbEntity
  8
0
100
AcDbLine
 10
-11779.15195362842
 20
-4010.248155355017
 30
0.0
 11
-11767.56801462842
 21
-4010.232746355018
 31
0.0
  0
ARC
  5
2D1
330
2
100
AcDbEntity
  8
0
100
AcDbCircle
 10
-11755.65195362842
 20
-4015.670791355016
 30
0.0
 40
0.5
100
AcDbArc
 50
213.5453330000664
 51
270.0
  0
ARC
  5
2D2
330
2
100
AcDbEntity
  8
0
100
AcDbCircle
 10
-11756.48540262842
 20
-4016.223388355018
 30
0.0
 40
0.5
100
AcDbArc
 50
33.54533300006641
 51
98.11409000000521
  0
ARC
  5
2D3
330
2
100
AcDbEntity
  8
0
100
AcDbCircle
 10
-11755.65195362842
 20
-4008.670791355015
 30
0.0
 40
0.5
100
AcDbArc
 50
90.0
 51
146.4546669999336
  0
ARC
  5
2D4
330
2
100
AcDbEntity
  8
0
100
AcDbCircle
 10
-11756.48540262842
 20
-4008.118194355017
 30
0.0
 40
0.5
100
AcDbArc
 50
261.8859099999948
 51
326.4546669999337
  0
LINE
  5
2D5
330
2
100
AcDbEntity
  8
0
100
AcDbLine
 10
-11756.55597462842
 20
-4015.728393355017
 30
0.0
 11
-11766.15195362842
 21
-4017.809371355019
 31
0.0
  0
LINE
  5
2D6
330
2
100
AcDbEntity
  8
0
100
AcDbLine
 10
-11756.55597462842
 20
-4008.613189355015
 30
0.0
 11
-11766.15195362842
 21
-4006.532211355017
 31
0.0
  0
LINE
  5
2D7
330
2
100
AcDbEntity
  8
0
100
AcDbLine
 10
-11782.07955162842
 20
-4028.339347355021
 30
0.0
 11
-11787.51032062842
 21
-4032.787597355016
 31
0.0
  0
LINE
  5
2D8
330
2
100
AcDbEntity
  8
0
100
AcDbLine
 10
-11781.22549762842
 20
-4029.578754355017
 30
0.0
 11
-11786.55983862842
 21
-4033.948020355018
 31
0.0
  0
ARC
  5
2D9
330
2
100
AcDbEntity
  8
0
100
AcDbCircle
 10
-11781.70404462842
 20
-4028.555619355016
 30
0.0
 40
0.433334
100
AcDbArc
 50
150.0602740000933
 51
286.0704400000029
  0
LINE
  5
2DA
330
2
100
AcDbEntity
  8
0
100
AcDbLine
 10
-11770.07869262842
 20
-4018.509652355017
 30
0.0
 11
-11781.04541062842
 21
-4027.492301355017
 31
0.0
  0
LINE
  5
2DB
330
2
100
AcDbEntity
  8
0
100
AcDbLine
 10
-11766.67755762842
 20
-4017.662788355017
 30
0.0
 11
-11780.19135762842
 21
-4028.731708355016
 31
0.0
  0
ARC
  5
2DC
330
2
100
AcDbEntity
  8
0
100
AcDbCircle
 10
-11780.47998562842
 20
-4028.488012355017
 30
0.0
 40
0.369719
100
AcDbArc
 50
320.0555930000413
 51
100.9081109999961
  0
ARC
  5
2DD
330
2
100
AcDbEntity
  8
0
100
AcDbCircle
 10
-11780.66990462842
 20
-4027.708573355019
 30
0.0
 40
0.433334
100
AcDbArc
 50
150.0602740000933
 51
286.0704400000029
  0
ARC
  5
2DE
330
2
100
AcDbEntity
  8
0
100
AcDbCircle
 10
-11781.51412562842
 20
-4029.33505935502
 30
0.0
 40
0.369719
100
AcDbArc
 50
320.0555930000413
 51
100.9081109999961
  0
LINE
  5
2DF
330
2
100
AcDbEntity
  8
0
100
AcDbLine
 10
-11792.88872362842
 20
-4040.424532355021
 30
0.0
 11
-11785.92618362842
 21
-4034.721636355018
 31
0.0
  0
LINE
  5
2E0
330
2
100
AcDbEntity
  8
0
100
AcDbLine
 10
-11785.92618362842
 20
-4034.721636355018
 30
0.0
 11
-11788.14397662842
 21
-4032.01398135502
 31
0.0
  0
LINE
  5
2E1
330
2
100
AcDbEntity
  8
0
100
AcDbLine
 10
-11795.10651662842
 20
-4037.716877355018
 30
0.0
 11
-11788.14397662842
 21
-4032.01398135502
 31
0.0
  0
LINE
  5
2E2
330
2
100
AcDbEntity
  8
0
100
AcDbLine
 10
-11792.88872362842
 20
-4040.424532355021
 30
0.0
 11
-11795.10651662842
 21
-4037.716877355018
 31
0.0
  0
LINE
  5
2E3
330
2
100
AcDbEntity
  8
0
100
AcDbLine
 10
-11799.70881862842
 20
-4039.870753355017
 30
0.0
 11
-11795.01146862842
 21
-4037.83292035502
 31
0.0
  0
ARC
  5
2E4
330
2
100
AcDbEntity
  8
0
100
AcDbCircle
 10
-11798.87139862842
 20
-4043.062732355021
 30
0.0
 40
3.299999999999998
100
AcDbArc
 50
104.7003339999784
 51
333.9402890000144
  0
LINE
  5
2E5
330
2
100
AcDbEntity
  8
0
100
AcDbLine
 10
-11795.90688762842
 20
-4044.51244735502
 30
0.0
 11
-11792.98377162842
 21
-4040.308490355019
 31
0.0
  0
CIRCLE
  5
2E6
330
2
100
AcDbEntity
  8
0
100
AcDbCircle
 10
-11798.87139862842
 20
-4043.062732355021
 30
0.0
 40
2.149999999999999
  0
LINE
  5
2E7
330
2
100
AcDbEntity
  8
0
100
AcDbLine
 10
-11746.15195362842
 20
-4008.170791355015
 30
0.0
 11
-11746.15195362842
 21
-4016.170791355015
 31
0.0
  0
LINE
  5
2E8
330
2
100
AcDbEntity
  8
0
100
AcDbLine
 10
-11779.15195362842
 20
-4005.60754035502
 30
0.0
 11
-11766.15195362842
 21
-4008.254009355016
 31
0.0
  0
LINE
  5
2E9
330
2
100
AcDbEntity
  8
0
100
AcDbLine
 10
-11779.16056062842
 20
-4020.770986355019
 30
0.0
 11
-11766.40675962842
 21
-4017.595361355016
 31
0.0
  0
LINE
  5
2EA
330
2
100
AcDbEntity
  8
0
100
AcDbLine
 10
-11779.15195362842
 20
-4016.738045355018
 30
0.0
 11
-11766.39331062842
 21
-4016.013971355016
 31
0.0
  0
LINE
  5
2EB
330
2
100
AcDbEntity
  8
0
100
AcDbLine
 10
-11779.15195362842
 20
-4023.270791355018
 30
0.0
 11
-11779.15195362842
 21
-4001.070791355018
 31
0.0
  0
LINE
  5
2EC
330
2
100
AcDbEntity
  8
0
100
AcDbLine
 10
-11780.15195362842
 20
-4008.870791355017
 30
0.0
 11
-11780.15195362842
 21
-4001.070791355018
 31
0.0
  0
LINE
  5
2ED
330
2
100
AcDbEntity
  8
0
100
AcDbLine
 10
-11780.15195362842
 20
-4023.270791355018
 30
0.0
 11
-11780.15195362842
 21
-4015.470791355019
 31
0.0
  0
LINE
  5
2EE
330
2
100
AcDbEntity
  8
0
100
AcDbLine
 10
-11790.15195362842
 20
-4013.67079135502
 30
0.0
 11
-11790.15195362842
 21
-4023.270791355018
 31
0.0
  0
LINE
  5
2EF
330
2
100
AcDbEntity
  8
0
100
AcDbLine
 10
-11790.15195362842
 20
-4001.070791355018
 30
0.0
 11
-11779.15195362842
 21
-4001.070791355018
 31
0.0
  0
LINE
  5
2F0
330
2
100
AcDbEntity
  8
0
100
AcDbLine
 10
-11798.75195362842
 20
-4001.970791355017
 30
0.0
 11
-11790.15195362842
 21
-4001.970791355017
 31
0.0
  0
LINE
  5
2F1
330
2
100
AcDbEntity
  8
0
100
AcDbLine
 10
-11798.75195362842
 20
-4005.570791355022
 30
0.0
 11
-11790.15195362842
 21
-4005.570791355018
 31
0.0
  0
LINE
  5
2F2
330
2
100
AcDbEntity
  8
0
100
AcDbLine
 10
-11798.75195362842
 20
-4006.17079135502
 30
0.0
 11
-11790.15195362842
 21
-4006.17079135502
 31
0.0
  0
LINE
  5
2F3
330
2
100
AcDbEntity
  8
0
100
AcDbLine
 10
-11798.75195362842
 20
-4009.770791355019
 30
0.0
 11
-11790.15195362842
 21
-4009.770791355019
 31
0.0
  0
LINE
  5
2F4
330
2
100
AcDbEntity
  8
0
100
AcDbLine
 10
-11798.75195362842
 20
-4005.570791355022
 30
0.0
 11
-11798.75195362842
 21
-4001.970791355017
 31
0.0
  0
LINE
  5
2F5
330
2
100
AcDbEntity
  8
0
100
AcDbLine
 10
-11798.75195362842
 20
-4018.770791355017
 30
0.0
 11
-11790.15195362842
 21
-4018.770791355017
 31
0.0
  0
LINE
  5
2F6
330
2
100
AcDbEntity
  8
0
100
AcDbLine
 10
-11798.75195362842
 20
-4022.370791355021
 30
0.0
 11
-11790.15195362842
 21
-4022.370791355021
 31
0.0
  0
LINE
  5
2F7
330
2
100
AcDbEntity
  8
0
100
AcDbLine
 10
-11798.75195362842
 20
-4014.570791355021
 30
0.0
 11
-11790.15195362842
 21
-4014.570791355017
 31
0.0
  0
LINE
  5
2F8
330
2
100
AcDbEntity
  8
0
100
AcDbLine
 10
-11798.75195362842
 20
-4018.170791355021
 30
0.0
 11
-11790.15195362842
 21
-4018.170791355021
 31
0.0
  0
LINE
  5
2F9
330
2
100
AcDbEntity
  8
0
100
AcDbLine
 10
-11798.75195362842
 20
-4010.370791355021
 30
0.0
 11
-11790.15195362842
 21
-4010.370791355021
 31
0.0
  0
LINE
  5
2FA
330
2
100
AcDbEntity
  8
0
100
AcDbLine
 10
-11798.75195362842
 20
-4013.970791355019
 30
0.0
 11
-11790.15195362842
 21
-4013.970791355019
 31
0.0
  0
LINE
  5
2FB
330
2
100
AcDbEntity
  8
0
100
AcDbLine
 10
-11798.75195362842
 20
-4009.770791355019
 30
0.0
 11
-11798.75195362842
 21
-4006.17079135502
 31
0.0
  0
LINE
  5
2FC
330
2
100
AcDbEntity
  8
0
100
AcDbLine
 10
-11798.75195362842
 20
-4018.170791355021
 30
0.0
 11
-11798.75195362842
 21
-4014.570791355021
 31
0.0
  0
LINE
  5
2FD
330
2
100
AcDbEntity
  8
0
100
AcDbLine
 10
-11798.75195362842
 20
-4022.370791355021
 30
0.0
 11
-11798.75195362842
 21
-4018.770791355017
 31
0.0
  0
LINE
  5
2FE
330
2
100
AcDbEntity
  8
0
100
AcDbLine
 10
-11798.75195362842
 20
-4013.970791355019
 30
0.0
 11
-11798.75195362842
 21
-4010.370791355021
 31
0.0
  0
LINE
  5
2FF
330
2
100
AcDbEntity
  8
0
100
AcDbLine
 10
-11790.15195362842
 20
-4001.070791355018
 30
0.0
 11
-11790.15195362842
 21
-4010.67079135502
 31
0.0
  0
LINE
  5
300
330
2
100
AcDbEntity
  8
0
100
AcDbLine
 10
-11780.85195362842
 20
-4009.47079135502
 30
0.0
 11
-11780.85195362842
 21
-4014.870791355017
 31
0.0
  0
LINE
  5
301
330
2
100
AcDbEntity
  8
0
100
AcDbLine
 10
-11781.85195362842
 20
-4009.47079135502
 30
0.0
 11
-11781.85195362842
 21
-4014.870791355017
 31
0.0
  0
LINE
  5
302
330
2
100
AcDbEntity
  8
0
100
AcDbLine
 10
-11794.65195362842
 20
-4010.67079135502
 30
0.0
 11
-11794.65195362842
 21
-4013.67079135502
 31
0.0
  0
LINE
  5
303
330
2
100
AcDbEntity
  8
0
100
AcDbLine
 10
-11795.65195362842
 20
-4010.67079135502
 30
0.0
 11
-11795.65195362842
 21
-4013.67079135502
 31
0.0
  0
LINE
  5
304
330
2
100
AcDbEntity
  8
0
100
AcDbLine
 10
-11789.35195362842
 20
-4009.47079135502
 30
0.0
 11
-11789.35195362842
 21
-4010.67079135502
 31
0.0
  0
LINE
  5
305
330
2
100
AcDbEntity
  8
0
100
AcDbLine
 10
-11789.35195362842
 20
-4013.67079135502
 30
0.0
 11
-11789.35195362842
 21
-4014.87079135502
 31
0.0
  0
LINE
  5
306
330
2
100
AcDbEntity
  8
0
100
AcDbLine
 10
-11782.85195362842
 20
-4009.47079135502
 30
0.0
 11
-11782.85195362842
 21
-4010.67079135502
 31
0.0
  0
LINE
  5
307
330
2
100
AcDbEntity
  8
0
100
AcDbLine
 10
-11782.85195362842
 20
-4013.67079135502
 30
0.0
 11
-11782.85195362842
 21
-4014.870791355017
 31
0.0
  0
LINE
  5
308
330
2
100
AcDbEntity
  8
0
100
AcDbLine
 10
-11789.35195362842
 20
-4009.47079135502
 30
0.0
 11
-11780.85195362842
 21
-4009.47079135502
 31
0.0
  0
LINE
  5
309
330
2
100
AcDbEntity
  8
0
100
AcDbLine
 10
-11789.35195362842
 20
-4014.87079135502
 30
0.0
 11
-11780.85195362842
 21
-4014.870791355017
 31
0.0
  0
LINE
  5
30A
330
2
100
AcDbEntity
  8
0
100
AcDbLine
 10
-11795.65195362842
 20
-4010.67079135502
 30
0.0
 11
-11781.85195362842
 21
-4010.67079135502
 31
0.0
  0
LINE
  5
30B
330
2
100
AcDbEntity
  8
0
100
AcDbLine
 10
-11795.65195362842
 20
-4013.67079135502
 30
0.0
 11
-11781.85195362842
 21
-4013.67079135502
 31
0.0
  0
LINE
  5
30C
330
2
100
AcDbEntity
  8
0
100
AcDbLine
 10
-11790.15195362842
 20
-4023.270791355018
 30
0.0
 11
-11779.15195362842
 21
-4023.270791355018
 31
0.0
  0
LINE
  5
30D
330
2
100
AcDbEntity
  8
0
100
AcDbLine
 10
-11780.15195362842
 20
-4015.470791355019
 30
0.0
 11
-11779.15195362842
 21
-4015.470791355019
 31
0.0
  0
LINE
  5
30E
330
2
100
AcDbEntity
  8
0
100
AcDbLine
 10
-11780.15195362842
 20
-4008.870791355017
 30
0.0
 11
-11779.15195362842
 21
-4008.870791355017
 31
0.0
  0
ARC
  5
30F
330
2
100
AcDbEntity
  8
0
100
AcDbCircle
 10
-11707.89585146163
 20
-3991.560869343863
 30
0.0
 40
2.600007
100
AcDbArc
 50
64.576467973162
 51
153.2244989999739
  0
ARC
  5
310
330
2
100
AcDbEntity
  8
0
100
AcDbCircle
 10
-11706.56499952401
 20
-3988.761069972625
 30
0.0
 40
0.5
100
AcDbArc
 50
244.576467973162
 51
0.0
  0
ARC
  5
311
330
2
100
AcDbEntity
  8
0
100
AcDbCircle
 10
-11712.47609346163
 20
-3988.981395343864
 30
0.0
 40
2.661974999999999
100
AcDbArc
 50
249.246932185614
 51
328.0621690000276
  0
ARC
  5
312
330
2
100
AcDbEntity
  8
0
100
AcDbCircle
 10
-11713.06499952401
 20
-3990.535535153191
 30
0.0
 40
1.0
100
AcDbArc
 50
180.0
 51
249.246932185614
  0
ARC
  5
313
330
2
100
AcDbEntity
  8
0
100
AcDbCircle
 10
-11707.89585146163
 20
-3993.196506343863
 30
0.0
 40
2.600007
100
AcDbArc
 50
58.716019605349
 51
153.2244989999739
  0
ARC
  5
314
330
2
100
AcDbEntity
  8
0
100
AcDbCircle
 10
-11707.06499952401
 20
-3991.82913387939
 30
0.0
 40
1.0
100
AcDbArc
 50
0.0
 51
58.716019605349
  0
ARC
  5
315
330
2
100
AcDbEntity
  8
0
100
AcDbCircle
 10
-11712.47609346163
 20
-3990.617033343864
 30
0.0
 40
2.661974999999999
100
AcDbArc
 50
249.85633408959
 51
328.0621690000276
  0
ARC
  5
316
330
2
100
AcDbEntity
  8
0
100
AcDbCircle
 10
-11713.56499952401
 20
-3993.58559688343
 30
0.0
 40
0.5
100
AcDbArc
 50
69.85633408959002
 51
180.0
  0
LINE
  5
317
330
2
100
AcDbEntity
  8
0
 62
   123
100
AcDbLine
 10
-11806.96135691116
 20
-4036.694441571952
 30
0.0
 11
-11859.35412540592
 21
-4036.694441571952
 31
0.0
  0
LINE
  5
318
330
2
100
AcDbEntity
  8
0
 62
   123
100
AcDbLine
 10
-11812.76254045209
 20
-4056.440184709841
 30
0.0
 11
-11844.68055887929
 21
-4056.440184709841
 31
0.0
  0
LEADER
  5
319
330
2
100
AcDbEntity
  8
0
100
AcDbLeader
  3
standard
 73
     0
 75
     1
 40
3.5
 41
70.4479166666667
 76
     3
 10
-11733.5845475969
 20
-4008.170791355012
 30
0.0
 10
-11744.65379276563
 20
-3989.458097591345
 30
0.0
 10
-11747.05379276563
 20
-3989.458097591345
 30
0.0
340
31A
1001
ACAD
1000
DSTYLE
1002
{
1070
   140
1040
3.5
1002
}
  0
MTEXT
  5
31A
102
{ACAD_REACTORS
330
319
102
}
330
2
100
AcDbEntity
  8
0
 62
     3
100
AcDbMText
 10
-11748.05379276563
 20
-3988.458097591345
 30
0.0
 40
3.5
 41
0.0
 71
     9
 72
     1
  1
MOTOR CABLE %%C8.5 500mm
 73
     1
 44
1.0
1001
ACAD
1000
MTEXTBEGIN
1070
    73
1070
     1
1070
    44
1040
1.0
1070
    74
1070
     0
1000
MTEXTEND
  0
DIMENSION
  5
31B
330
2
100
AcDbEntity
  8
0
100
AcDbDimension
  2
*D48
 10
-11778.91828360436
 20
-4043.277426547407
 30
0.0
 11
-11770.7196949578
 21
-4033.00736770726
 31
0.0
 70
    33
  1
200
 71
     5
 42
25.70046414954959
  3
standard
100
AcDbAlignedDimension
 13
-11766.67755795283
 23
-4017.662788620735
 33
0.0
 14
-11786.55983862842
 24
-4033.948020355018
 34
0.0
1001
ACAD
1000
DSTYLE
1002
{
1070
   140
1040
3.5
1002
}
  0
LINE
  5
328
330
2
100
AcDbEntity
  8
0
  6
Continuous
100
AcDbLine
 10
-11701.21063618179
 20
-3947.486465246024
 30
0.0
 11
-11702.264999524
 21
-3947.510078681747
 31
0.0
  0
LINE
  5
329
330
2
100
AcDbEntity
  8
0
  6
Continuous
100
AcDbLine
 10
-11701.10090717588
 20
-3952.385974270132
 30
0.0
 11
-11702.21013502104
 21
-3952.410816446806
 31
0.0
  0
ARC
  5
32A
330
2
100
AcDbEntity
  8
0
  6
Continuous
100
AcDbCircle
 10
-11704.5397715709
 20
-3950.012007544632
 30
0.0
 40
4.375658581266057
100
AcDbArc
 50
330.5451081458853
 51
32.02084614594362
  0
ARC
  5
32B
330
2
100
AcDbEntity
  8
0
  6
Continuous
100
AcDbCircle
 10
-11701.20083894912
 20
-3947.923921408892
 30
0.0
 40
0.4375658581266058
100
AcDbArc
 50
32.02084614594362
 51
91.28297714597096
  0
ARC
  5
32C
330
2
100
AcDbEntity
  8
0
  6
Continuous
100
AcDbCircle
 10
-11701.11070440855
 20
-3951.948518107267
 30
0.0
 40
0.4375658581266058
100
AcDbArc
 50
271.282977145971
 51
330.5451081458853
  0
LINE
  5
32D
330
2
100
AcDbEntity
  8
0
  6
Continuous
100
AcDbLine
 10
-11701.21063618179
 20
-3889.486465246021
 30
0.0
 11
-11702.264999524
 21
-3889.510078681744
 31
0.0
  0
LINE
  5
32E
330
2
100
AcDbEntity
  8
0
  6
Continuous
100
AcDbLine
 10
-11701.10090717588
 20
-3894.385974270129
 30
0.0
 11
-11702.21013502104
 21
-3894.410816446802
 31
0.0
  0
ARC
  5
32F
330
2
100
AcDbEntity
  8
0
  6
Continuous
100
AcDbCircle
 10
-11704.5397715709
 20
-3892.012007544629
 30
0.0
 40
4.375658581266057
100
AcDbArc
 50
330.5451081458853
 51
32.02084614594362
  0
ARC
  5
330
330
2
100
AcDbEntity
  8
0
  6
Continuous
100
AcDbCircle
 10
-11701.20083894912
 20
-3889.92392140889
 30
0.0
 40
0.4375658581266058
100
AcDbArc
 50
32.02084614594362
 51
91.28297714597096
  0
ARC
  5
331
330
2
100
AcDbEntity
  8
0
  6
Continuous
100
AcDbCircle
 10
-11701.11070440855
 20
-3893.948518107264
 30
0.0
 40
0.4375658581266058
100
AcDbArc
 50
271.282977145971
 51
330.5451081458853
  0
DIMENSION
  5
332
330
2
100
AcDbEntity
  8
0
100
AcDbDimension
  2
*D56
 10
-11785.66006378333
 20
-3933.512007544628
 30
0.0
 11
-11785.66006378333
 21
-3929.012007544628
 31
0.0
 70
   160
 71
     5
 42
8.999999999999545
  3
standard
100
AcDbAlignedDimension
 13
-11774.064999524
 23
-3924.512007544629
 33
0.0
 14
-11774.064999524
 24
-3933.512007544628
 34
0.0
 50
90.0
100
AcDbRotatedDimension
1001
ACAD
1000
DSTYLE
1002
{
1070
   140
1040
3.5
1002
}
  0
LINE
  5
33F
330
2
100
AcDbEntity
  8
0
  6
CENTER
 62
     1
 48
0.6
100
AcDbLine
 10
-11931.02127332935
 20
-3928.512007544625
 30
0.0
 11
-11837.50721834244
 21
-3928.512007544629
 31
0.0
  0
LINE
  5
340
330
2
100
AcDbEntity
  8
0
100
AcDbLine
 10
-11918.26424583589
 20
-3969.012007544629
 30
0.0
 11
-11850.26424583589
 21
-3969.012007544625
 31
0.0
  0
CIRCLE
  5
341
330
2
100
AcDbEntity
  8
0
100
AcDbCircle
 10
-11884.2642458359
 20
-3928.512007544625
 30
0.0
 40
20.00000000000046
  0
CIRCLE
  5
342
330
2
100
AcDbEntity
  8
0
100
AcDbCircle
 10
-11884.2642458359
 20
-3928.512007544625
 30
0.0
 40
33.99999999999955
  0
CIRCLE
  5
343
330
2
100
AcDbEntity
  8
0
100
AcDbCircle
 10
-11884.2642458359
 20
-3928.512007544625
 30
0.0
 40
36.49999999999864
  0
CIRCLE
  5
344
330
2
100
AcDbEntity
  8
0
100
AcDbCircle
 10
-11884.2642458359
 20
-3928.512007544625
 30
0.0
 40
38.50000000000046
  0
LINE
  5
345
330
2
100
AcDbEntity
  8
0
  6
CENTER
 62
     1
 48
0.6
100
AcDbLine
 10
-11884.2642458359
 20
-3881.754980051177
 30
0.0
 11
-11884.2642458359
 21
-3975.26903503808
 31
0.0
  0
CIRCLE
  5
346
330
2
100
AcDbEntity
  8
0
100
AcDbCircle
 10
-11884.2642458359
 20
-3943.012007544626
 30
0.0
 40
1.6
  0
LINE
  5
347
102
{ACAD_REACTORS
330
357
102
}
330
2
100
AcDbEntity
  8
0
100
AcDbLine
 10
-11924.76424583589
 20
-3894.512007544629
 30
0.0
 11
-11924.76424583589
 21
-3962.512007544626
 31
0.0
  0
LINE
  5
348
330
2
100
AcDbEntity
  8
0
  6
CENTER
 62
     1
 48
0.6
100
AcDbLine
 10
-11914.17970761753
 20
-3958.427469326263
 30
0.0
 11
-11920.8168214858
 21
-3965.064583194526
 31
0.0
  0
ARC
  5
349
330
2
100
AcDbEntity
  8
0
  6
CENTER
 62
     1
 48
0.6
100
AcDbCircle
 10
-11884.2642458359
 20
-3928.512007544629
 30
0.0
 40
47.0
100
AcDbArc
 50
219.2763952004424
 51
230.7236047994275
  0
CIRCLE
  5
34A
330
2
100
AcDbEntity
  8
0
100
AcDbCircle
 10
-11917.49826455166
 20
-3961.746026260396
 30
0.0
 40
3.25
  0
ARC
  5
34B
330
2
100
AcDbEntity
  8
0
100
AcDbCircle
 10
-11918.26424583589
 20
-3962.512007544626
 30
0.0
 40
6.5
100
AcDbArc
 50
180.0
 51
270.0
  0
CIRCLE
  5
34C
330
2
100
AcDbEntity
  8
0
100
AcDbCircle
 10
-11884.2642458359
 20
-3928.512007544625
 30
0.0
 40
8.749999999999545
  0
CIRCLE
  5
34D
330
2
100
AcDbEntity
  8
0
100
AcDbCircle
 10
-11896.82161419077
 20
-3921.262007544629
 30
0.0
 40
1.6
  0
CIRCLE
  5
34E
330
2
100
AcDbEntity
  8
0
100
AcDbCircle
 10
-11871.70687748102
 20
-3921.262007544629
 30
0.0
 40
1.6
  0
LINE
  5
34F
330
2
100
AcDbEntity
  8
0
100
AcDbLine
 10
-11843.76424583589
 20
-3894.512007544629
 30
0.0
 11
-11843.76424583589
 21
-3962.512007544626
 31
0.0
  0
LINE
  5
350
330
2
100
AcDbEntity
  8
0
  6
CENTER
 62
     1
 48
0.6
100
AcDbLine
 10
-11854.34878405426
 20
-3958.427469326263
 30
0.0
 11
-11847.711670186
 21
-3965.064583194526
 31
0.0
  0
ARC
  5
351
330
2
100
AcDbEntity
  8
0
  6
CENTER
 62
     1
 48
0.6
100
AcDbCircle
 10
-11884.2642458359
 20
-3928.512007544629
 30
0.0
 40
47.0
100
AcDbArc
 50
309.2763952005725
 51
329.5082382421528
  0
CIRCLE
  5
352
330
2
100
AcDbEntity
  8
0
100
AcDbCircle
 10
-11851.03022712013
 20
-3961.746026260396
 30
0.0
 40
3.25
  0
ARC
  5
353
330
2
100
AcDbEntity
  8
0
100
AcDbCircle
 10
-11850.26424583589
 20
-3962.512007544626
 30
0.0
 40
6.5
100
AcDbArc
 50
270.0
 51
0.0
  0
LINE
  5
354
330
2
100
AcDbEntity
  8
0
100
AcDbLine
 10
-11918.26424583589
 20
-3888.012007544629
 30
0.0
 11
-11850.26424583589
 21
-3888.012007544629
 31
0.0
  0
DIMENSION
  5
355
102
{ACAD_XDICTIONARY
360
356
102
}
102
{ACAD_REACTORS
330
357
102
}
330
2
100
AcDbEntity
  8
0
100
AcDbDimension
  2
*D50
 10
-11924.76424583589
 20
-3874.027109508161
 30
0.0
 11
-11884.26424583589
 21
-3871.239825886322
 31
0.0
 70
    32
  1
{\fGulim|b0|i0|c129|p50;□}80
 71
     5
 42
81.0
  3
standard
100
AcDbAlignedDimension
 13
-11843.76424583589
 23
-3894.512007544629
 33
0.0
 14
-11924.76424583589
 24
-3894.512007544629
 34
0.0
100
AcDbRotatedDimension
1001
ACAD
1000
DSTYLE
1002
{
1070
   140
1040
3.5
1002
}
  0
ARC
  5
364
330
2
100
AcDbEntity
  8
0
  6
CENTER
 62
     1
 48
0.6
100
AcDbCircle
 10
-11884.2642458359
 20
-3928.512007544629
 30
0.0
 40
47.0
100
AcDbArc
 50
129.2763952005725
 51
149.5082382422691
  0
LINE
  5
365
330
2
100
AcDbEntity
  8
0
  6
CENTER
 62
     1
 48
0.6
100
AcDbLine
 10
-11914.17970761753
 20
-3898.59654576299
 30
0.0
 11
-11920.8168214858
 21
-3891.959431894728
 31
0.0
  0
CIRCLE
  5
366
330
2
100
AcDbEntity
  8
0
100
AcDbCircle
 10
-11917.49826455166
 20
-3895.277988828857
 30
0.0
 40
3.25
  0
ARC
  5
367
330
2
100
AcDbEntity
  8
0
100
AcDbCircle
 10
-11918.26424583589
 20
-3894.512007544629
 30
0.0
 40
6.5
100
AcDbArc
 50
90.0
 51
180.0
  0
ARC
  5
368
330
2
100
AcDbEntity
  8
0
  6
CENTER
 62
     1
 48
0.6
100
AcDbCircle
 10
-11884.2642458359
 20
-3928.512007544629
 30
0.0
 40
47.0
100
AcDbArc
 50
39.27639520044237
 51
50.72360479942743
  0
LINE
  5
369
330
2
100
AcDbEntity
  8
0
  6
CENTER
 62
     1
 48
0.6
100
AcDbLine
 10
-11854.34878405426
 20
-3898.59654576299
 30
0.0
 11
-11847.711670186
 21
-3891.959431894728
 31
0.0
  0
CIRCLE
  5
36A
330
2
100
AcDbEntity
  8
0
100
AcDbCircle
 10
-11851.03022712013
 20
-3895.277988828857
 30
0.0
 40
3.25
  0
ARC
  5
36B
102
{ACAD_REACTORS
330
357
102
}
330
2
100
AcDbEntity
  8
0
100
AcDbCircle
 10
-11850.26424583589
 20
-3894.512007544629
 30
0.0
 40
6.5
100
AcDbArc
 50
0.0
 51
90.0
  0
CIRCLE
  5
36C
330
2
100
AcDbEntity
  8
0
100
AcDbCircle
 10
-11884.2642458359
 20
-3928.512007544625
 30
0.0
 40
5.0
  0
LINE
  5
36D
330
2
100
AcDbEntity
  8
0
100
AcDbLine
 10
-11887.26424583589
 20
-3924.512007544625
 30
0.0
 11
-11881.26424583589
 21
-3924.512007544625
 31
0.0
  0
LEADER
  5
36E
330
2
100
AcDbEntity
  8
0
100
AcDbLeader
  3
standard
 73
     0
 74
     0
 75
     1
 40
3.5
 41
32.42708333333334
 76
     3
 10
-11849.83073695657
 20
-3892.257438655871
 30
0.0
 10
-11834.11667517908
 20
-3872.626852513679
 30
0.0
 10
-11831.71667517908
 20
-3872.626852513679
 30
0.0
340
36F
1001
ACAD
1000
DSTYLE
1002
{
1070
   140
1040
3.5
1002
}
  0
MTEXT
  5
36F
102
{ACAD_REACTORS
330
36E
102
}
330
2
100
AcDbEntity
  8
0
 62
     3
100
AcDbMText
 10
-11830.71667517908
 20
-3871.62685251368
 30
0.0
 40
3.5
 41
0.0
 71
     7
 72
     1
  1
4x%%C6.5 HOLE
 73
     1
 44
1.0
1001
ACAD
1000
MTEXTBEGIN
1070
    73
1070
     1
1070
    44
1040
1.0
1070
    74
1070
     0
1000
MTEXTEND
  0
CIRCLE
  5
371
330
2
100
AcDbEntity
  8
0
100
AcDbCircle
 10
-11855.56424583589
 20
-3965.712007544622
 30
0.0
 40
1.6
  0
CIRCLE
  5
372
330
2
100
AcDbEntity
  8
0
100
AcDbCircle
 10
-11912.96424583589
 20
-3891.312007544626
 30
0.0
 40
1.6
  0
LINE
  5
373
330
2
100
AcDbEntity
  8
0
  6
CENTER
 62
     1
 48
0.6
100
AcDbLine
 10
-11855.56424583589
 20
-3968.337007544623
 30
0.0
 11
-11855.56424583589
 21
-3963.087007544622
 31
0.0
  0
LINE
  5
374
330
2
100
AcDbEntity
  8
0
  6
CENTER
 62
     1
 48
0.6
100
AcDbLine
 10
-11852.93924583589
 20
-3965.712007544622
 30
0.0
 11
-11858.18924583589
 21
-3965.712007544622
 31
0.0
  0
LINE
  5
375
330
2
100
AcDbEntity
  8
0
  6
CENTER
 62
     1
 48
0.6
100
AcDbLine
 10
-11912.96424583589
 20
-3888.687007544624
 30
0.0
 11
-11912.96424583589
 21
-3893.937007544624
 31
0.0
  0
LINE
  5
376
330
2
100
AcDbEntity
  8
0
  6
CENTER
 62
     1
 48
0.6
100
AcDbLine
 10
-11915.5892458359
 20
-3891.312007544626
 30
0.0
 11
-11910.3392458359
 21
-3891.312007544626
 31
0.0
  0
DIMENSION
  5
377
330
2
100
AcDbEntity
  8
0
100
AcDbDimension
  2
*D49
 10
-11922.3633592403
 20
-3900.990060705792
 30
0.0
 11
-11830.01690729361
 21
-3967.699070814593
 31
0.0
 70
   163
  1
<>%%P0.1
 71
     5
 42
93.99999999999456
  3
standard
100
AcDbDiametricDimension
 15
-11846.1651324315
 25
-3956.033954383428
 35
0.0
 40
0.0
1001
ACAD_DSTYLE_DIMRADIAL_EXTENSION
1070
   387
1070
     1
1070
   388
1040
5.24457061779189
1070
   390
1040
5.751003669772456
1001
ACAD
1000
DSTYLE
1002
{
1070
   140
1040
3.5
1002
}
  0
LINE
  5
384
330
2
100
AcDbEntity
  8
0
100
AcDbLine
 10
-11888.26424583591
 20
-3979.762007544615
 30
0.0
 11
-11888.26424583591
 21
-3987.39255208023
 31
0.0
  0
LINE
  5
385
330
2
100
AcDbEntity
  8
0
100
AcDbLine
 10
-11880.2642458359
 20
-3979.762007544628
 30
0.0
 11
-11880.26424583592
 21
-3988.108662280338
 31
0.0
  0
ARC
  5
386
330
2
100
AcDbEntity
  8
0
100
AcDbCircle
 10
-11882.26424583592
 20
-3986.990628291587
 30
0.0
 40
2.500000000000634
100
AcDbArc
 50
216.8698976457398
 51
311.8103148958718
  0
ARC
  5
387
330
2
100
AcDbEntity
  8
0
100
AcDbCircle
 10
-11881.26424583592
 20
-3988.108662280338
 30
0.0
 40
1.0
100
AcDbArc
 50
311.8103148957053
 51
359.9999999997915
  0
ARC
  5
388
330
2
100
AcDbEntity
  8
0
100
AcDbCircle
 10
-11886.26424583592
 20
-3989.990628291587
 30
0.0
 40
2.500000000001453
100
AcDbArc
 50
36.86989764573981
 51
119.999999999881
  0
ARC
  5
389
330
2
100
AcDbEntity
  8
0
100
AcDbCircle
 10
-11887.76424583591
 20
-3987.39255208023
 30
0.0
 40
0.5
100
AcDbArc
 50
180.0
 51
299.999999999881
  0
LINE
  5
38A
330
2
100
AcDbEntity
  8
0
 48
25.4
100
AcDbLine
 10
-11872.01744906973
 20
-3979.762007544621
 30
0.0
 11
-11896.51104260207
 21
-3979.762007544621
 31
0.0
  0
ARC
  5
38B
330
2
100
AcDbEntity
  8
0
 48
25.4
100
AcDbCircle
 10
-11896.51104260207
 20
-3977.262007544621
 30
0.0
 40
2.499999999999996
100
AcDbArc
 50
184.9999999998685
 51
270.0
  0
LINE
  5
38C
330
2
100
AcDbEntity
  8
0
 48
25.4
100
AcDbLine
 10
-11899.0015293473
 20
-3977.479896901492
 30
0.0
 11
-11899.74237367002
 21
-3969.012007544625
 31
0.0
  0
ARC
  5
38D
330
2
100
AcDbEntity
  8
0
 48
25.4
100
AcDbCircle
 10
-11872.01744906973
 20
-3977.262007544621
 30
0.0
 40
2.500000000000002
100
AcDbArc
 50
270.0
 51
355.0000000001314
  0
LINE
  5
38E
330
2
100
AcDbEntity
  8
0
 48
25.4
100
AcDbLine
 10
-11868.78611800178
 20
-3969.012007544625
 30
0.0
 11
-11869.5269623245
 21
-3977.479896901492
 31
0.0
  0
LINE
  5
38F
330
2
100
AcDbEntity
  8
0
 48
25.4
100
AcDbLine
 10
-11899.17322758951
 20
-3972.407679377258
 30
0.0
 11
-11869.35526408227
 21
-3972.407679377258
 31
0.0
  0
LINE
  5
390
330
2
100
AcDbEntity
  8
0
 48
25.4
100
AcDbLine
 10
-11869.35526408227
 20
-3972.57313124173
 30
0.0
 11
-11899.17322758951
 21
-3972.57313124173
 31
0.0
  0
LINE
  5
391
330
2
100
AcDbEntity
  8
0
  6
CENTER
 62
     1
 48
0.4
100
AcDbLine
 10
-11926.27057691953
 20
-4277.034910619388
 30
0.0
 11
-11926.27057691953
 21
-4285.034910619388
 31
0.0
  0
LINE
  5
392
330
2
100
AcDbEntity
  8
0
  6
CENTER
 62
     1
 48
0.4
100
AcDbLine
 10
-11930.27057691953
 20
-4281.034910619388
 30
0.0
 11
-11922.27057691953
 21
-4281.034910619388
 31
0.0
  0
LINE
  5
393
102
{ACAD_REACTORS
330
39E
102
}
330
2
100
AcDbEntity
  8
0
100
AcDbLine
 10
-11923.77057691953
 20
-4278.534910619388
 30
0.0
 11
-11923.77057691953
 21
-4283.534910619389
 31
0.0
  0
LINE
  5
394
102
{ACAD_REACTORS
330
39E
102
}
330
2
100
AcDbEntity
  8
0
100
AcDbLine
 10
-11928.77057691953
 20
-4278.534910619388
 30
0.0
 11
-11928.77057691953
 21
-4283.534910619389
 31
0.0
  0
LINE
  5
395
330
2
100
AcDbEntity
  8
0
 48
0.2
100
AcDbLine
 10
-11928.77057691953
 20
-4278.534910619388
 30
0.0
 11
-11923.77057691953
 21
-4278.534910619388
 31
0.0
  0
LINE
  5
396
330
2
100
AcDbEntity
  8
0
 48
0.2
100
AcDbLine
 10
-11928.77057691953
 20
-4283.534910619389
 30
0.0
 11
-11923.77057691953
 21
-4283.534910619389
 31
0.0
  0
LINE
  5
397
330
2
100
AcDbEntity
  8
0
100
AcDbLine
 10
-11952.26854944728
 20
-4278.634910619387
 30
0.0
 11
-11952.26854944728
 21
-4283.534910619389
 31
0.0
  0
LINE
  5
398
102
{ACAD_REACTORS
330
3AF
102
}
330
2
100
AcDbEntity
  8
0
 48
0.2
100
AcDbLine
 10
-11974.76854944729
 20
-4278.534910619388
 30
0.0
 11
-11952.26854944728
 21
-4278.534910619388
 31
0.0
  0
LINE
  5
399
330
2
100
AcDbEntity
  8
0
 48
0.2
100
AcDbLine
 10
-11974.76854944729
 20
-4283.534910619389
 30
0.0
 11
-11952.26854944728
 21
-4283.534910619389
 31
0.0
  0
LINE
  5
39A
330
2
100
AcDbEntity
  8
0
  6
CENTER
 62
     1
 48
0.6
100
AcDbLine
 10
-11982.955435764
 20
-4281.034910619388
 30
0.0
 11
-11946.2145358759
 21
-4281.034910619388
 31
0.0
  0
ARC
  5
39B
330
2
100
AcDbEntity
  8
0
100
AcDbCircle
 10
-11974.76854944729
 20
-4281.034910619388
 30
0.0
 40
2.5
100
AcDbArc
 50
90.0
 51
270.0
  0
DIMENSION
  5
39C
102
{ACAD_XDICTIONARY
360
39D
102
}
102
{ACAD_REACTORS
330
39E
102
}
330
2
100
AcDbEntity
  8
0
100
AcDbDimension
  2
*D59
 10
-11923.77057691953
 20
-4269.632641712699
 30
0.0
 11
-11926.27057691953
 21
-4269.632641712699
 31
0.0
 70
   160
  1
\A1;<>{\f??|b0|i0|c0|p49;\H0.7x;\S+0^ -0.03;}
 71
     5
 42
5.0
  3
standard
100
AcDbAlignedDimension
 13
-11928.77057691953
 23
-4278.534910619388
 33
0.0
 14
-11923.77057691953
 24
-4278.534910619388
 34
0.0
100
AcDbRotatedDimension
1001
ACAD
1000
DSTYLE
1002
{
1070
   140
1040
3.5
1002
}
  0
DIMENSION
  5
3AD
102
{ACAD_XDICTIONARY
360
3AE
102
}
102
{ACAD_REACTORS
330
3AF
102
}
330
2
100
AcDbEntity
  8
0
100
AcDbDimension
  2
*D60
 10
-11952.26854944728
 20
-4269.632641712699
 30
0.0
 11
-11964.76854944728
 21
-4266.882641712699
 31
0.0
 70
    32
  1
<>{\f??|b0|i0|c0|p49;%%p0.2}
 71
     5
 42
25.0
  3
standard
100
AcDbAlignedDimension
 13
-11977.26854944728
 23
-4281.034910619388
 33
0.0
 14
-11952.26854944728
 24
-4278.534910619388
 34
0.0
100
AcDbRotatedDimension
1001
ACAD
1000
DSTYLE
1002
{
1070
   140
1040
3.5
1002
}
  0
DIMENSION
  5
3BC
330
2
100
AcDbEntity
  8
0
100
AcDbDimension
  2
*D61
 10
-11941.03615257525
 20
-4278.534910619388
 30
0.0
 11
-11941.03615257525
 21
-4266.068243952723
 31
0.0
 70
   160
  1
\A1;<>{\f??|b0|i0|c0|p49;\H0.7x;\S+0^ -0.03;}
 71
     5
 42
5.000000000000909
  3
standard
100
AcDbAlignedDimension
 13
-11952.26854944728
 23
-4283.534910619389
 33
0.0
 14
-11952.26854944728
 24
-4278.534910619388
 34
0.0
 50
90.0
100
AcDbRotatedDimension
1001
ACAD
1000
DSTYLE
1002
{
1070
   140
1040
3.5
1002
}
  0
LINE
  5
3CB
330
2
100
AcDbEntity
  8
0
100
AcDbLine
 10
-11887.30258096945
 20
-4276.534910619388
 30
0.0
 11
-11887.30258096945
 21
-4273.963842807524
 31
0.0
  0
LINE
  5
3CC
330
2
100
AcDbEntity
  8
0
  6
CENTER
 62
     1
 48
0.6
100
AcDbLine
 10
-11889.80258096945
 20
-4271.06314597617
 30
0.0
 11
-11889.80258096945
 21
-4291.691904198944
 31
0.0
  0
LINE
  5
3CD
330
2
100
AcDbEntity
  8
0
100
AcDbLine
 10
-11892.30258096945
 20
-4276.534910619388
 30
0.0
 11
-11892.30258096944
 21
-4273.963842807524
 31
0.0
  0
CIRCLE
  5
3CE
102
{ACAD_REACTORS
330
3D3
102
}
330
2
100
AcDbEntity
  8
0
100
AcDbCircle
 10
-11889.80258096945
 20
-4281.034910619388
 30
0.0
 40
7.5
  0
LINE
  5
3CF
102
{ACAD_REACTORS
330
3D3
102
}
330
2
100
AcDbEntity
  8
0
100
AcDbLine
 10
-11892.30258096945
 20
-4276.534910619388
 30
0.0
 11
-11887.30258096945
 21
-4276.534910619388
 31
0.0
  0
LINE
  5
3D0
330
2
100
AcDbEntity
  8
0
  6
CENTER
 62
     1
 48
0.6
100
AcDbLine
 10
-11900.47847850027
 20
-4281.034910619388
 30
0.0
 11
-11879.73422435913
 21
-4281.034910619388
 31
0.0
  0
DIMENSION
  5
3D1
102
{ACAD_XDICTIONARY
360
3D2
102
}
102
{ACAD_REACTORS
330
3D3
102
}
330
2
100
AcDbEntity
  8
0
100
AcDbDimension
  2
*D62
 10
-11871.2287497453
 20
-4273.534910619388
 30
0.0
 11
-11871.22874974529
 21
-4262.759910619391
 31
0.0
 70
   160
  1
\A1;<>{\f??|b0|i0|c0|p49;\H0.7x;\S+0.1^ -0;\H1.429x; }
 71
     5
 42
3.0
  3
standard
100
AcDbAlignedDimension
 13
-11887.30258096945
 23
-4276.534910619388
 33
0.0
 14
-11889.80258096945
 24
-4273.534910619388
 34
0.0
 50
90.0
100
AcDbRotatedDimension
1001
ACAD
1000
DSTYLE
1002
{
1070
   140
1040
3.5
1002
}
  0
DIMENSION
  5
3E2
330
2
100
AcDbEntity
  8
0
100
AcDbDimension
  2
*D63
 10
-11887.30258096945
 20
-4266.688050447754
 30
0.0
 11
-11889.80258096945
 21
-4266.688050447754
 31
0.0
 70
   160
  1
<>{\f??|b0|i0|c0|p49;\H0.7x;\S+0.03^ -0;\H1.429x; }
 71
     5
 42
5.0
  3
standard
100
AcDbAlignedDimension
 13
-11892.30258096945
 23
-4273.963842807524
 33
0.0
 14
-11887.30258096945
 24
-4273.963842807524
 34
0.0
100
AcDbRotatedDimension
1001
ACAD
1000
DSTYLE
1002
{
1070
   140
1040
3.5
1002
}
  0
MTEXT
  5
7BD
330
2
100
AcDbEntity
  8
0
100
AcDbMText
 10
-11961.67932086927
 20
-4245.870064118648
 30
0.0
 40
4.589999999999999
 41
0.0
 71
     1
 72
     5
  1
{\fGulim|b0|i0|c129|p50;KEY}
 73
     1
 44
1.0
1001
ACAD
1000
MTEXTBEGIN
1070
    73
1070
     1
1070
    44
1040
1.0
1070
    74
1070
     0
1000
MTEXTEND
  0
CIRCLE
  5
7BE
330
2
100
AcDbEntity
  8
0
100
AcDbCircle
 10
-11965.8701715898
 20
-4248.477464374733
 30
0.0
 40
1.5
  0
CIRCLE
  5
7BF
330
2
100
AcDbEntity
  8
0
100
AcDbCircle
 10
-11908.74190972357
 20
-4248.496273006734
 30
0.0
 40
1.5
  0
MTEXT
  5
7C0
330
2
100
AcDbEntity
  8
0
100
AcDbMText
 10
-11903.74673844852
 20
-4245.841895616591
 30
0.0
 40
4.589999999999999
 41
0.0
 71
     1
 72
     5
  1
{\fGulim|b0|i0|c129|p50;KEY GROOVE }
 73
     1
 44
1.0
1001
ACAD
1000
MTEXTBEGIN
1070
    73
1070
     1
1070
    44
1040
1.0
1070
    74
1070
     0
1000
MTEXTEND
  0
HATCH
  5
7C1
330
2
100
AcDbEntity
  8
0
100
AcDbHatch
 10
0.0
 20
0.0
 30
0.0
210
0.0
220
0.0
230
1.0
  2
SOLID
 70
     1
 71
     0
 91
        1
 92
        7
 72
     1
 73
     1
 93
        2
 10
-11967.3701715898
 20
-4248.477464374733
 42
1.0
 10
-11964.3701715898
 20
-4248.477464374733
 42
1.0
 97
        0
 75
     0
 76
     1
 47
0.1659866430586484
 98
        1
 10
-11965.17166039426
 20
-4248.48598752361
1001
ACAD
1010
0.0
1020
0.0
1030
0.0
  0
HATCH
  5
7C2
330
2
100
AcDbEntity
  8
0
100
AcDbHatch
 10
0.0
 20
0.0
 30
0.0
210
0.0
220
0.0
230
1.0
  2
SOLID
 70
     1
 71
     0
 91
        1
 92
        7
 72
     1
 73
     1
 93
        2
 10
-11907.24190972356
 20
-4248.496273006734
 42
1.0
 10
-11910.24190972356
 20
-4248.496273006734
 42
1.0
 97
        0
 75
     0
 76
     1
 47
0.1659866430586484
 98
        1
 10
-11908.79395259761
 20
-4248.554090240956
1001
ACAD
1010
0.0
1020
0.0
1030
0.0
  0
TEXT
  5
7C3
330
2
100
AcDbEntity
  8
3
100
AcDbText
 10
-11563.77655759849
 20
-4162.174004494879
 30
0.0
 40
3.5
  1
5, 10, 15, 20
  7
WHGTXT
 72
     4
 11
-11547.38593259849
 21
-4160.757337828212
 31
0.0
100
AcDbText
  0
TEXT
  5
7C4
330
2
100
AcDbEntity
  8
3
100
AcDbText
 10
-11564.80022350964
 20
-4172.17400449488
 30
0.0
 40
3.5
  1
30, 50, 100
  7
WHGTXT
 72
     4
 11
-11550.03980684297
 21
-4170.757337828212
 31
0.0
100
AcDbText
  0
TEXT
  5
7C5
330
2
100
AcDbEntity
  8
3
100
AcDbText
 10
-11564.08299540501
 20
-4182.507337828211
 30
0.0
 40
3.5
  1
200
  7
WHGTXT
 72
     4
 11
-11559.58299540501
 21
-4180.757337828212
 31
0.0
100
AcDbText
  0
TEXT
  5
7C6
330
2
100
AcDbEntity
  8
0
 62
     3
100
AcDbText
 10
-11628.36924127963
 20
-4199.15081319439
 30
0.0
 40
4.0
  1
WEIGHT
  7
GHS
 72
     4
 11
-11617.7978127082
 21
-4197.150813194389
 31
0.0
100
AcDbText
  0
LINE
  5
7C7
330
2
100
AcDbEntity
  8
3
100
AcDbLine
 10
-11487.02385915605
 20
-4145.650813194391
 30
0.0
 11
-11632.02385915605
 21
-4145.650813194388
 31
0.0
  0
LINE
  5
7C8
330
2
100
AcDbEntity
  8
3
100
AcDbLine
 10
-11487.02385915605
 20
-4155.65081319439
 30
0.0
 11
-11632.02385915605
 21
-4155.65081319439
 31
0.0
  0
LINE
  5
7C9
330
2
100
AcDbEntity
  8
3
100
AcDbLine
 10
-11487.02385915605
 20
-4165.65081319439
 30
0.0
 11
-11632.02385915605
 21
-4165.65081319439
 31
0.0
  0
LINE
  5
7CA
330
2
100
AcDbEntity
  8
3
100
AcDbLine
 10
-11487.02385915605
 20
-4175.65081319439
 30
0.0
 11
-11632.02385915605
 21
-4175.65081319439
 31
0.0
  0
LINE
  5
7CB
330
2
100
AcDbEntity
  8
3
100
AcDbLine
 10
-11572.02385915605
 20
-4185.65081319439
 30
0.0
 11
-11572.02385915605
 21
-4145.650813194389
 31
0.0
  0
LINE
  5
7CC
330
2
100
AcDbEntity
  8
3
100
AcDbLine
 10
-11487.02385915605
 20
-4185.65081319439
 30
0.0
 11
-11632.02385915605
 21
-4185.65081319439
 31
0.0
  0
TEXT
  5
7CD
330
2
100
AcDbEntity
  8
3
100
AcDbText
 10
-11562.1021016392
 20
-4152.507337828212
 30
0.0
 40
3.5
  1
GEAR RATIO
  7
WHGTXT
 72
     4
 11
-11546.97189330587
 21
-4150.757337828212
 31
0.0
100
AcDbText
  0
TEXT
  5
7CE
330
2
100
AcDbEntity
  8
3
100
AcDbText
 10
-11512.22549606081
 20
-4152.289023839339
 30
0.0
 40
3.5
  1
L (mm)
  7
WHGTXT
 72
     4
 11
-11502.92862106081
 21
-4150.789023839339
 31
0.0
100
AcDbText
  0
LINE
  5
7CF
330
2
100
AcDbEntity
  8
3
100
AcDbLine
 10
-11520.02385915605
 20
-4185.65081319439
 30
0.0
 11
-11520.02385915605
 21
-4145.650813194389
 31
0.0
  0
LINE
  5
7D0
330
2
100
AcDbEntity
  8
3
100
AcDbLine
 10
-11487.02385915605
 20
-4185.65081319439
 30
0.0
 11
-11487.02385915605
 21
-4145.650813194389
 31
0.0
  0
TEXT
  5
7D1
330
2
100
AcDbEntity
  8
3
100
AcDbText
 10
-11506.15775435454
 20
-4162.90081319439
 30
0.0
 40
3.5
  1
41
  7
WHGTXT
 72
     4
 11
-11504.07442102121
 21
-4161.15081319439
 31
0.0
100
AcDbText
  0
TEXT
  5
7D2
330
2
100
AcDbEntity
  8
3
100
AcDbText
 10
-11506.82442102121
 20
-4172.90081319439
 30
0.0
 40
3.5
  1
46
  7
WHGTXT
 72
     4
 11
-11504.07442102121
 21
-4171.150813194389
 31
0.0
100
AcDbText
  0
TEXT
  5
7D3
330
2
100
AcDbEntity
  8
3
100
AcDbText
 10
-11506.15775435454
 20
-4182.90081319439
 30
0.0
 40
3.5
  1
51
  7
WHGTXT
 72
     4
 11
-11504.07442102121
 21
-4181.15081319439
 31
0.0
100
AcDbText
  0
TEXT
  5
7D4
330
2
100
AcDbEntity
  8
3
100
AcDbText
 10
-11536.87877795695
 20
-4240.900813194389
 30
0.0
 40
3.5
  1
1.1
  7
WHGTXT
 72
     4
 11
-11534.29544462362
 21
-4239.15081319439
 31
0.0
100
AcDbText
  0
LINE
  5
7D5
330
2
100
AcDbEntity
  8
3
100
AcDbLine
 10
-11516.93203824819
 20
-4253.65081319439
 30
0.0
 11
-11516.93203824819
 21
-4203.65081319439
 31
0.0
  0
LINE
  5
7D6
330
2
100
AcDbEntity
  8
3
100
AcDbLine
 10
-11551.93203824819
 20
-4253.65081319439
 30
0.0
 11
-11551.9320382482
 21
-4203.65081319439
 31
0.0
  0
TEXT
  5
7D7
330
2
100
AcDbEntity
  8
3
100
AcDbText
 10
-11598.79896455313
 20
-4220.507337828212
 30
0.0
 40
3.5
  1
MOTOR
  7
WHGTXT
 72
     4
 11
-11590.4656312198
 21
-4218.757337828212
 31
0.0
100
AcDbText
  0
LINE
  5
7D8
330
2
100
AcDbEntity
  8
3
100
AcDbLine
 10
-11516.93203824819
 20
-4253.65081319439
 30
0.0
 11
-11631.93203824819
 21
-4253.65081319439
 31
0.0
  0
LINE
  5
7D9
330
2
100
AcDbEntity
  8
3
100
AcDbLine
 10
-11551.93203824819
 20
-4243.65081319439
 30
0.0
 11
-11613.9320382482
 21
-4243.65081319439
 31
0.0
  0
LINE
  5
7DA
330
2
100
AcDbEntity
  8
3
100
AcDbLine
 10
-11551.9320382482
 20
-4233.650813194389
 30
0.0
 11
-11613.9320382482
 21
-4233.650813194389
 31
0.0
  0
LINE
  5
7DB
330
2
100
AcDbEntity
  8
3
100
AcDbLine
 10
-11516.93203824819
 20
-4223.65081319439
 30
0.0
 11
-11631.93203824819
 21
-4223.65081319439
 31
0.0
  0
LINE
  5
7DC
330
2
100
AcDbEntity
  8
3
100
AcDbLine
 10
-11516.93203824819
 20
-4213.65081319439
 30
0.0
 11
-11631.93203824819
 21
-4213.65081319439
 31
0.0
  0
LINE
  5
7DD
330
2
100
AcDbEntity
  8
3
100
AcDbLine
 10
-11631.93203824819
 20
-4253.65081319439
 30
0.0
 11
-11631.9320382482
 21
-4203.65081319439
 31
0.0
  0
MTEXT
  5
7DE
330
2
100
AcDbEntity
  8
0
 62
     3
100
AcDbMText
 10
-11622.88634961886
 20
-4237.146583153795
 30
0.0
 40
3.5
 41
20.37057877566497
 71
     5
 72
     5
  1
{\W1;GEAR\PHEAD}
  7
GHS
 73
     1
 44
1.0
1001
ACAD
1000
MTEXTBEGIN
1070
    73
1070
     1
1070
    44
1040
1.0
1070
    74
1070
     0
1000
MTEXTEND
  0
LINE
  5
7DF
330
2
100
AcDbEntity
  8
3
100
AcDbLine
 10
-11516.93203824819
 20
-4203.65081319439
 30
0.0
 11
-11631.93203824819
 21
-4203.65081319439
 31
0.0
  0
TEXT
  5
7E0
330
2
100
AcDbEntity
  8
3
100
AcDbText
 10
-11597.43203824819
 20
-4210.507337828212
 30
0.0
 40
3.5
  1
PART
  7
WHGTXT
 72
     4
 11
-11590.93203824819
 21
-4208.757337828212
 31
0.0
100
AcDbText
  0
TEXT
  5
7E1
330
2
100
AcDbEntity
  8
3
100
AcDbText
 10
-11548.1865968512
 20
-4210.309708078685
 30
0.0
 40
3.5
  1
Weight(kg)
  7
WHGTXT
 72
     4
 11
-11534.9365968512
 21
-4208.809708078685
 31
0.0
100
AcDbText
  0
TEXT
  5
7E2
330
2
100
AcDbEntity
  8
3
100
AcDbText
 10
-11537.56593344669
 20
-4220.90081319439
 30
0.0
 40
3.5
  1
0.9
  7
WHGTXT
 72
     4
 11
-11533.98260011336
 21
-4219.15081319439
 31
0.0
100
AcDbText
  0
LINE
  5
7E3
330
2
100
AcDbEntity
  8
3
100
AcDbLine
 10
-11613.9320382482
 20
-4253.65081319439
 30
0.0
 11
-11613.9320382482
 21
-4223.65081319439
 31
0.0
  0
MTEXT
  5
7E4
330
2
100
AcDbEntity
  8
0
 62
     3
100
AcDbMText
 10
-11625.91891879999
 20
-4141.415330809806
 30
0.0
 40
4.0
 41
0.0
 71
     7
 72
     1
  1
DIMENSION TABLE
 73
     1
 44
1.0
1001
ACAD
1000
MTEXTBEGIN
1070
    73
1070
     1
1070
    44
1040
1.0
1070
    74
1070
     0
1000
MTEXTEND
  0
LINE
  5
7E5
330
2
100
AcDbEntity
  8
3
100
AcDbLine
 10
-11632.02385915605
 20
-4185.65081319439
 30
0.0
 11
-11632.02385915605
 21
-4145.650813194389
 31
0.0
  0
TEXT
  5
7E6
330
2
100
AcDbEntity
  8
3
100
AcDbText
 10
-11609.84437075316
 20
-4152.507337828212
 30
0.0
 40
3.5
  1
PART
  7
WHGTXT
 72
     4
 11
-11603.34437075316
 21
-4150.757337828212
 31
0.0
100
AcDbText
  0
TEXT
  5
7E7
330
2
100
AcDbEntity
  8
3
100
AcDbText
 10
-11627.17887930472
 20
-4162.507337828212
 30
0.0
 40
3.5
  1
K8H5B ~ K8H20B
  7
WHGTXT
 72
     4
 11
-11604.33512930473
 21
-4160.757337828212
 31
0.0
100
AcDbText
  0
TEXT
  5
7E8
330
2
100
AcDbEntity
  8
3
100
AcDbText
 10
-11627.43602216187
 20
-4172.507337828212
 30
0.0
 40
3.5
  1
K8H30B ~ K8H100B
  7
WHGTXT
 72
     4
 11
-11601.59227216187
 21
-4170.757337828212
 31
0.0
100
AcDbText
  0
TEXT
  5
7E9
330
2
100
AcDbEntity
  8
3
100
AcDbText
 10
-11627.44376296747
 20
-4182.507337828211
 30
0.0
 40
3.5
  1
K8H200B
  7
WHGTXT
 72
     4
 11
-11616.0270963008
 21
-4180.757337828212
 31
0.0
100
AcDbText
  0
TEXT
  5
7EA
330
2
100
AcDbEntity
  8
3
100
AcDbText
 10
-11609.08705839687
 20
-4230.507337828212
 30
0.0
 40
3.5
  1
K8H5B ~ K8H20B
  7
WHGTXT
 72
     4
 11
-11586.24330839687
 21
-4228.757337828212
 31
0.0
100
AcDbText
  0
TEXT
  5
7EB
330
2
100
AcDbEntity
  8
3
100
AcDbText
 10
-11609.34420125402
 20
-4240.507337828212
 30
0.0
 40
3.5
  1
K8H30B ~ K8H100B
  7
WHGTXT
 72
     4
 11
-11583.50045125402
 21
-4238.757337828212
 31
0.0
100
AcDbText
  0
TEXT
  5
7EC
330
2
100
AcDbEntity
  8
3
100
AcDbText
 10
-11609.35194205962
 20
-4250.507337828213
 30
0.0
 40
3.5
  1
K8H200B
  7
WHGTXT
 72
     4
 11
-11597.93527539295
 21
-4248.757337828211
 31
0.0
100
AcDbText
  0
LINE
  5
7ED
330
2
100
AcDbEntity
  8
0
 62
     3
100
AcDbLine
 10
-12012.91308388422
 20
-4193.838142688313
 30
0.0
 11
-12012.91308388422
 21
-4170.638142688316
 31
0.0
  0
LINE
  5
7EE
330
2
100
AcDbEntity
  8
0
 62
     3
100
AcDbLine
 10
-12057.31308388422
 20
-4170.638142688316
 30
0.0
 11
-12057.31308388422
 21
-4193.838142688313
 31
0.0
  0
LINE
  5
7EF
330
2
100
AcDbEntity
  8
0
 62
     3
100
AcDbLine
 10
-12012.91308388422
 20
-4193.838142688313
 30
0.0
 11
-12057.31308388422
 21
-4193.838142688313
 31
0.0
  0
LINE
  5
7F0
330
2
100
AcDbEntity
  8
0
 62
     3
100
AcDbLine
 10
-12028.11308388422
 20
-4170.638142688316
 30
0.0
 11
-12012.91308388422
 21
-4170.638142688316
 31
0.0
  0
LINE
  5
7F1
330
2
100
AcDbEntity
  8
0
 62
     3
100
AcDbLine
 10
-12028.11308388422
 20
-4172.638142688316
 30
0.0
 11
-12028.11308388422
 21
-4170.638142688316
 31
0.0
  0
LINE
  5
7F2
330
2
100
AcDbEntity
  8
0
 62
     3
100
AcDbLine
 10
-12028.11308388422
 20
-4172.638142688316
 30
0.0
 11
-12042.11308388422
 21
-4172.638142688316
 31
0.0
  0
LINE
  5
7F3
330
2
100
AcDbEntity
  8
0
 62
     3
100
AcDbLine
 10
-12042.11308388422
 20
-4170.638142688316
 30
0.0
 11
-12042.11308388422
 21
-4172.638142688316
 31
0.0
  0
LINE
  5
7F4
330
2
100
AcDbEntity
  8
0
 62
     3
100
AcDbLine
 10
-12057.31308388422
 20
-4170.638142688316
 30
0.0
 11
-12042.11308388422
 21
-4170.638142688316
 31
0.0
  0
LINE
  5
7F5
330
2
100
AcDbEntity
  8
0
 62
     3
100
AcDbLine
 10
-12021.91308388422
 20
-4182.738142688315
 30
0.0
 11
-12021.91308388422
 21
-4189.838142688313
 31
0.0
  0
LINE
  5
7F6
330
2
100
AcDbEntity
  8
0
 62
     3
100
AcDbLine
 10
-12014.71308388422
 20
-4182.738142688315
 30
0.0
 11
-12021.91308388422
 21
-4182.738142688315
 31
0.0
  0
LINE
  5
7F7
330
2
100
AcDbEntity
  8
0
 62
     3
100
AcDbLine
 10
-12014.71308388422
 20
-4189.838142688313
 30
0.0
 11
-12014.71308388422
 21
-4182.738142688315
 31
0.0
  0
LINE
  5
7F8
330
2
100
AcDbEntity
  8
0
 62
     3
100
AcDbLine
 10
-12021.91308388422
 20
-4189.838142688313
 30
0.0
 11
-12014.71308388422
 21
-4189.838142688313
 31
0.0
  0
LINE
  5
7F9
330
2
100
AcDbEntity
  8
0
 62
     3
100
AcDbLine
 10
-12030.31308388422
 20
-4182.738142688315
 30
0.0
 11
-12030.31308388422
 21
-4189.838142688313
 31
0.0
  0
LINE
  5
7FA
330
2
100
AcDbEntity
  8
0
 62
     3
100
AcDbLine
 10
-12023.11308388422
 20
-4182.738142688315
 30
0.0
 11
-12030.31308388422
 21
-4182.738142688315
 31
0.0
  0
LINE
  5
7FB
330
2
100
AcDbEntity
  8
0
 62
     3
100
AcDbLine
 10
-12023.11308388422
 20
-4189.838142688313
 30
0.0
 11
-12023.11308388422
 21
-4182.738142688315
 31
0.0
  0
LINE
  5
7FC
330
2
100
AcDbEntity
  8
0
 62
     3
100
AcDbLine
 10
-12030.31308388422
 20
-4189.838142688313
 30
0.0
 11
-12023.11308388422
 21
-4189.838142688313
 31
0.0
  0
LINE
  5
7FD
330
2
100
AcDbEntity
  8
0
 62
     3
100
AcDbLine
 10
-12038.71308388422
 20
-4182.738142688315
 30
0.0
 11
-12038.71308388422
 21
-4189.838142688313
 31
0.0
  0
LINE
  5
7FE
330
2
100
AcDbEntity
  8
0
 62
     3
100
AcDbLine
 10
-12031.51308388422
 20
-4182.738142688315
 30
0.0
 11
-12038.71308388422
 21
-4182.738142688315
 31
0.0
  0
LINE
  5
7FF
330
2
100
AcDbEntity
  8
0
 62
     3
100
AcDbLine
 10
-12031.51308388422
 20
-4189.838142688313
 30
0.0
 11
-12031.51308388422
 21
-4182.738142688315
 31
0.0
  0
LINE
  5
800
330
2
100
AcDbEntity
  8
0
 62
     3
100
AcDbLine
 10
-12038.71308388422
 20
-4189.838142688313
 30
0.0
 11
-12031.51308388422
 21
-4189.838142688313
 31
0.0
  0
LINE
  5
801
330
2
100
AcDbEntity
  8
0
 62
     3
100
AcDbLine
 10
-12047.11308388422
 20
-4182.738142688315
 30
0.0
 11
-12047.11308388422
 21
-4189.838142688313
 31
0.0
  0
LINE
  5
802
330
2
100
AcDbEntity
  8
0
 62
     3
100
AcDbLine
 10
-12039.91308388422
 20
-4182.738142688315
 30
0.0
 11
-12047.11308388422
 21
-4182.738142688315
 31
0.0
  0
LINE
  5
803
330
2
100
AcDbEntity
  8
0
 62
     3
100
AcDbLine
 10
-12039.91308388422
 20
-4189.838142688313
 30
0.0
 11
-12039.91308388422
 21
-4182.738142688315
 31
0.0
  0
LINE
  5
804
330
2
100
AcDbEntity
  8
0
 62
     3
100
AcDbLine
 10
-12047.11308388422
 20
-4189.838142688313
 30
0.0
 11
-12039.91308388422
 21
-4189.838142688313
 31
0.0
  0
LINE
  5
805
330
2
100
AcDbEntity
  8
0
 62
     3
100
AcDbLine
 10
-12055.51308388422
 20
-4182.738142688315
 30
0.0
 11
-12055.51308388422
 21
-4189.838142688313
 31
0.0
  0
LINE
  5
806
330
2
100
AcDbEntity
  8
0
 62
     3
100
AcDbLine
 10
-12048.31308388423
 20
-4182.738142688315
 30
0.0
 11
-12055.51308388422
 21
-4182.738142688315
 31
0.0
  0
LINE
  5
807
330
2
100
AcDbEntity
  8
0
 62
     3
100
AcDbLine
 10
-12048.31308388423
 20
-4189.838142688313
 30
0.0
 11
-12048.31308388423
 21
-4182.738142688315
 31
0.0
  0
LINE
  5
808
330
2
100
AcDbEntity
  8
0
 62
     3
100
AcDbLine
 10
-12055.51308388422
 20
-4189.838142688313
 30
0.0
 11
-12048.31308388423
 21
-4189.838142688313
 31
0.0
  0
LINE
  5
809
330
2
100
AcDbEntity
  8
0
 62
     3
100
AcDbLine
 10
-12021.91308388422
 20
-4181.53814268831
 30
0.0
 11
-12014.71308388422
 21
-4181.53814268831
 31
0.0
  0
LINE
  5
80A
330
2
100
AcDbEntity
  8
0
 62
     3
100
AcDbLine
 10
-12021.91308388422
 20
-4174.238142688315
 30
0.0
 11
-12021.91308388422
 21
-4181.53814268831
 31
0.0
  0
LINE
  5
80B
330
2
100
AcDbEntity
  8
0
 62
     3
100
AcDbLine
 10
-12014.71308388422
 20
-4174.238142688315
 30
0.0
 11
-12021.91308388422
 21
-4174.238142688315
 31
0.0
  0
LINE
  5
80C
330
2
100
AcDbEntity
  8
0
 62
     3
100
AcDbLine
 10
-12014.71308388422
 20
-4181.53814268831
 30
0.0
 11
-12014.71308388422
 21
-4174.238142688315
 31
0.0
  0
LINE
  5
80D
330
2
100
AcDbEntity
  8
0
 62
     3
100
AcDbLine
 10
-12030.31308388422
 20
-4181.53814268831
 30
0.0
 11
-12023.11308388422
 21
-4181.53814268831
 31
0.0
  0
LINE
  5
80E
330
2
100
AcDbEntity
  8
0
 62
     3
100
AcDbLine
 10
-12030.31308388422
 20
-4174.238142688315
 30
0.0
 11
-12030.31308388422
 21
-4181.53814268831
 31
0.0
  0
LINE
  5
80F
330
2
100
AcDbEntity
  8
0
 62
     3
100
AcDbLine
 10
-12023.11308388422
 20
-4174.238142688315
 30
0.0
 11
-12030.31308388422
 21
-4174.238142688315
 31
0.0
  0
LINE
  5
810
330
2
100
AcDbEntity
  8
0
 62
     3
100
AcDbLine
 10
-12023.11308388422
 20
-4181.53814268831
 30
0.0
 11
-12023.11308388422
 21
-4174.238142688315
 31
0.0
  0
LINE
  5
811
330
2
100
AcDbEntity
  8
0
 62
     3
100
AcDbLine
 10
-12038.71308388422
 20
-4181.53814268831
 30
0.0
 11
-12031.51308388422
 21
-4181.53814268831
 31
0.0
  0
LINE
  5
812
330
2
100
AcDbEntity
  8
0
 62
     3
100
AcDbLine
 10
-12038.71308388422
 20
-4174.238142688315
 30
0.0
 11
-12038.71308388422
 21
-4181.53814268831
 31
0.0
  0
LINE
  5
813
330
2
100
AcDbEntity
  8
0
 62
     3
100
AcDbLine
 10
-12031.51308388422
 20
-4174.238142688315
 30
0.0
 11
-12038.71308388422
 21
-4174.238142688315
 31
0.0
  0
LINE
  5
814
330
2
100
AcDbEntity
  8
0
 62
     3
100
AcDbLine
 10
-12031.51308388422
 20
-4181.53814268831
 30
0.0
 11
-12031.51308388422
 21
-4174.238142688315
 31
0.0
  0
LINE
  5
815
330
2
100
AcDbEntity
  8
0
 62
     3
100
AcDbLine
 10
-12047.11308388422
 20
-4181.53814268831
 30
0.0
 11
-12039.91308388422
 21
-4181.53814268831
 31
0.0
  0
LINE
  5
816
330
2
100
AcDbEntity
  8
0
 62
     3
100
AcDbLine
 10
-12047.11308388422
 20
-4174.238142688315
 30
0.0
 11
-12047.11308388422
 21
-4181.53814268831
 31
0.0
  0
LINE
  5
817
330
2
100
AcDbEntity
  8
0
 62
     3
100
AcDbLine
 10
-12039.91308388422
 20
-4174.238142688315
 30
0.0
 11
-12047.11308388422
 21
-4174.238142688315
 31
0.0
  0
LINE
  5
818
330
2
100
AcDbEntity
  8
0
 62
     3
100
AcDbLine
 10
-12039.91308388422
 20
-4181.53814268831
 30
0.0
 11
-12039.91308388422
 21
-4174.238142688315
 31
0.0
  0
LINE
  5
819
330
2
100
AcDbEntity
  8
0
 62
     3
100
AcDbLine
 10
-12055.51308388422
 20
-4181.53814268831
 30
0.0
 11
-12048.31308388423
 21
-4181.53814268831
 31
0.0
  0
LINE
  5
81A
330
2
100
AcDbEntity
  8
0
 62
     3
100
AcDbLine
 10
-12055.51308388422
 20
-4174.238142688315
 30
0.0
 11
-12055.51308388422
 21
-4181.53814268831
 31
0.0
  0
LINE
  5
81B
330
2
100
AcDbEntity
  8
0
 62
     3
100
AcDbLine
 10
-12048.31308388423
 20
-4174.238142688315
 30
0.0
 11
-12055.51308388422
 21
-4174.238142688315
 31
0.0
  0
LINE
  5
81C
330
2
100
AcDbEntity
  8
0
 62
     3
100
AcDbLine
 10
-12048.31308388423
 20
-4181.53814268831
 30
0.0
 11
-12048.31308388423
 21
-4174.238142688315
 31
0.0
  0
LINE
  5
81D
330
2
100
AcDbEntity
  8
0
 62
     3
100
AcDbLine
 10
-12038.11308388423
 20
-4172.638142688316
 30
0.0
 11
-12038.11308388423
 21
-4169.638142688309
 31
0.0
  0
LINE
  5
81E
330
2
100
AcDbEntity
  8
0
 62
     3
100
AcDbLine
 10
-12032.11308388423
 20
-4169.638142688309
 30
0.0
 11
-12038.11308388423
 21
-4169.638142688309
 31
0.0
  0
LINE
  5
81F
330
2
100
AcDbEntity
  8
0
 62
     3
100
AcDbLine
 10
-12029.71308388423
 20
-4168.73425759287
 30
0.0
 11
-12040.51308388423
 21
-4168.73425759287
 31
0.0
  0
LINE
  5
820
330
2
100
AcDbEntity
  8
0
 62
     3
100
AcDbLine
 10
-12040.51308388423
 20
-4172.638142688316
 30
0.0
 11
-12040.51308388423
 21
-4165.03814268831
 31
0.0
  0
LINE
  5
821
330
2
100
AcDbEntity
  8
0
 62
     3
100
AcDbLine
 10
-12032.11308388423
 20
-4172.638142688316
 30
0.0
 11
-12032.11308388423
 21
-4169.638142688309
 31
0.0
  0
LINE
  5
822
330
2
100
AcDbEntity
  8
0
 62
     3
100
AcDbLine
 10
-12029.71308388423
 20
-4172.638142688316
 30
0.0
 11
-12029.71308388423
 21
-4165.03814268831
 31
0.0
  0
LINE
  5
823
330
2
100
AcDbEntity
  8
0
 62
     3
100
AcDbLine
 10
-12029.71308388423
 20
-4165.03814268831
 30
0.0
 11
-12040.51308388423
 21
-4165.03814268831
 31
0.0
  0
TEXT
  5
824
330
2
100
AcDbEntity
  8
0
 62
     3
100
AcDbText
 10
-12057.06657731065
 20
-4208.00469503699
 30
0.0
 40
6.0
  1
 VIEW "A"
  7
GHS
100
AcDbText
  0
LINE
  5
825
330
2
100
AcDbEntity
  8
0
 62
     1
100
AcDbLine
 10
-12060.58386280573
 20
-4211.669574293904
 30
0.0
 11
-12010.31818150014
 21
-4211.669574293904
 31
0.0
  0
TEXT
  5
826
330
2
100
AcDbEntity
  8
0
100
AcDbText
 10
-12019.66043727003
 20
-4188.094317129235
 30
0.0
 40
3.0
  1
1
  7
GHS
100
AcDbText
  0
TEXT
  5
827
330
2
100
AcDbEntity
  8
0
100
AcDbText
 10
-12027.76357264204
 20
-4187.918795160225
 30
0.0
 40
3.0
  1
2
  7
GHS
100
AcDbText
  0
TEXT
  5
828
330
2
100
AcDbEntity
  8
0
100
AcDbText
 10
-12036.58341770367
 20
-4187.831028831933
 30
0.0
 40
3.0
  1
3
  7
GHS
100
AcDbText
  0
TEXT
  5
829
330
2
100
AcDbEntity
  8
0
100
AcDbText
 10
-12044.72938945984
 20
-4187.743273191212
 30
0.0
 40
3.0
  1
4
  7
GHS
100
AcDbText
  0
TEXT
  5
82A
330
2
100
AcDbEntity
  8
0
100
AcDbText
 10
-12053.29476146964
 20
-4187.874911996078
 30
0.0
 40
3.0
  1
5
  7
GHS
100
AcDbText
  0
TEXT
  5
82B
330
2
100
AcDbEntity
  8
0
100
AcDbText
 10
-12019.54809429585
 20
-4179.37107742536
 30
0.0
 40
3.0
  1
6
  7
GHS
100
AcDbText
  0
TEXT
  5
82C
330
2
100
AcDbEntity
  8
0
100
AcDbText
 10
-12027.95341133376
 20
-4179.37107742536
 30
0.0
 40
3.0
  1
7
  7
GHS
100
AcDbText
  0
TEXT
  5
82D
330
2
100
AcDbEntity
  8
0
100
AcDbText
 10
-12036.4168418088
 20
-4179.37107742536
 30
0.0
 40
3.0
  1
8
  7
GHS
100
AcDbText
  0
TEXT
  5
82E
330
2
100
AcDbEntity
  8
0
100
AcDbText
 10
-12044.82246863249
 20
-4179.37107742536
 30
0.0
 40
3.0
  1
9
  7
GHS
100
AcDbText
  0
TEXT
  5
82F
330
2
100
AcDbEntity
  8
0
100
AcDbText
 10
-12054.55360066308
 20
-4179.258793810524
 30
0.0
 40
3.0
  1
10
  7
GHS
100
AcDbText
  0
TEXT
  5
830
330
2
100
AcDbEntity
  8
0
 62
     3
100
AcDbText
 10
-12181.14358117453
 20
-4159.091450518427
 30
0.0
 40
2.5
  1
NO.
100
AcDbText
  0
TEXT
  5
831
330
2
100
AcDbEntity
  8
0
100
AcDbText
 10
-12185.84950180213
 20
-4145.473797662475
 30
0.0
 40
4.0
  1
- PIN MAP
100
AcDbText
  0
TEXT
  5
832
330
2
100
AcDbEntity
  8
0
 62
     3
100
AcDbText
 10
-12139.27745659358
 20
-4165.611702037146
 30
0.0
 40
2.5
  1
UL3266 AWG #22
  7
DIM
100
AcDbText
  0
TEXT
  5
833
330
2
100
AcDbEntity
  8
0
 62
     3
100
AcDbText
 10
-12164.33512865341
 20
-4156.33641685013
 30
0.0
 40
2.5
  1
COLOR
100
AcDbText
  0
TEXT
  5
834
330
2
100
AcDbEntity
  8
0
 62
     3
100
AcDbText
 10
-12163.08256729098
 20
-4165.611702037146
 30
0.0
 40
2.5
  1
BLUE
  7
DIM
100
AcDbText
  0
TEXT
  5
835
330
2
100
AcDbEntity
  8
0
 62
     3
100
AcDbText
 10
-12181.68666712079
 20
-4154.208158531234
 30
0.0
 40
2.5
  1
PIN
100
AcDbText
  0
TEXT
  5
836
330
2
100
AcDbEntity
  8
0
 62
     3
100
AcDbText
 10
-12179.86726700209
 20
-4165.611702037146
 30
0.0
 40
3.0
  1
1
  7
DIM
100
AcDbText
  0
LINE
  5
837
330
2
100
AcDbEntity
  8
0
 62
     3
100
AcDbLine
 10
-12184.1655227557
 20
-4149.094471877297
 30
0.0
 11
-12083.69514796814
 21
-4149.094471877297
 31
0.0
  0
LINE
  5
838
330
2
100
AcDbEntity
  8
0
 62
     3
100
AcDbLine
 10
-12184.1655227557
 20
-4160.828937134706
 30
0.0
 11
-12083.69514796814
 21
-4160.828937134706
 31
0.0
  0
LINE
  5
839
330
2
100
AcDbEntity
  8
0
 62
     3
100
AcDbLine
 10
-12184.1655227557
 20
-4167.828937134706
 30
0.0
 11
-12083.69514796814
 21
-4167.828937134706
 31
0.0
  0
TEXT
  5
83A
330
2
100
AcDbEntity
  8
0
 62
     3
100
AcDbText
 10
-12133.27516097797
 20
-4156.177904898443
 30
0.0
 40
2.5
  1
WIRE SPEC
100
AcDbText
  0
TEXT
  5
83B
330
2
100
AcDbEntity
  8
0
 62
     3
100
AcDbText
 10
-12139.27745659358
 20
-4194.010204918042
 30
0.0
 40
2.5
  1
UL3266 AWG #24
  7
DIM
100
AcDbText
  0
TEXT
  5
83C
330
2
100
AcDbEntity
  8
0
 62
     3
100
AcDbText
 10
-12139.27745659358
 20
-4200.931954420409
 30
0.0
 40
2.5
  1
UL3266 AWG #22
  7
DIM
100
AcDbText
  0
TEXT
  5
83D
330
2
100
AcDbEntity
  8
0
 62
     3
100
AcDbText
 10
-12139.27745659358
 20
-4208.113683406017
 30
0.0
 40
2.5
  1
UL3266 AWG #22
  7
DIM
100
AcDbText
  0
TEXT
  5
83E
330
2
100
AcDbEntity
  8
0
 62
     3
100
AcDbText
 10
-12138.98620035038
 20
-4221.524134174994
 30
0.0
 40
2.5
  1
UL3266 AWG #24
  7
DIM
100
AcDbText
  0
TEXT
  5
83F
330
2
100
AcDbEntity
  8
0
 62
     3
100
AcDbText
 10
-12139.15316763428
 20
-4228.674746112215
 30
0.0
 40
2.5
  1
UL3266 AWG #24
  7
DIM
100
AcDbText
  0
TEXT
  5
840
330
2
100
AcDbEntity
  8
0
 62
     3
100
AcDbText
 10
-12139.27745659358
 20
-4179.869024704342
 30
0.0
 40
2.5
  1
UL3266 AWG #24
  7
DIM
100
AcDbText
  0
TEXT
  5
841
330
2
100
AcDbEntity
  8
0
 62
     3
100
AcDbText
 10
-12139.27745659358
 20
-4187.089538788154
 30
0.0
 40
2.5
  1
UL3266 AWG #24
  7
DIM
100
AcDbText
  0
TEXT
  5
842
330
2
100
AcDbEntity
  8
0
 62
     3
100
AcDbText
 10
-12164.83550213893
 20
-4179.869024704342
 30
0.0
 40
2.5
  1
GREEN
  7
DIM
100
AcDbText
  0
TEXT
  5
843
330
2
100
AcDbEntity
  8
0
 62
     3
100
AcDbText
 10
-12163.11793538109
 20
-4207.826597533182
 30
0.0
 40
2.5
  1
GRAY
  7
DIM
100
AcDbText
  0
TEXT
  5
844
330
2
100
AcDbEntity
  8
0
 62
     3
100
AcDbText
 10
-12165.57564657839
 20
-4200.659024806905
 30
0.0
 40
2.5
  1
PURPLE
  7
DIM
100
AcDbText
  0
TEXT
  5
845
330
2
100
AcDbEntity
  8
0
 62
     3
100
AcDbText
 10
-12165.51336362695
 20
-4186.581489964425
 30
0.0
 40
2.5
  1
YELLOW
  7
DIM
100
AcDbText
  0
TEXT
  5
846
330
2
100
AcDbEntity
  8
0
 62
     3
100
AcDbText
 10
-12165.43152013946
 20
-4193.696793492877
 30
0.0
 40
2.5
  1
ORANGE
  7
DIM
100
AcDbText
  0
TEXT
  5
847
330
2
100
AcDbEntity
  8
0
 62
     3
100
AcDbText
 10
-12164.51682145207
 20
-4221.9630282519
 30
0.0
 40
2.5
  1
BROWN
  7
DIM
100
AcDbText
  0
TEXT
  5
848
330
2
100
AcDbEntity
  8
0
 62
     3
100
AcDbText
 10
-12163.67170505188
 20
-4228.637766981287
 30
0.0
 40
2.5
  1
WHITE
  7
DIM
100
AcDbText
  0
TEXT
  5
849
330
2
100
AcDbEntity
  8
0
 62
     3
100
AcDbText
 10
-12179.86726700209
 20
-4194.010204918042
 30
0.0
 40
3.0
  1
5
  7
DIM
100
AcDbText
  0
TEXT
  5
84A
330
2
100
AcDbEntity
  8
0
 62
     3
100
AcDbText
 10
-12181.42550117715
 20
-4228.674746112215
 30
0.0
 40
3.0
  1
10
  7
DIM
100
AcDbText
  0
TEXT
  5
84B
330
2
100
AcDbEntity
  8
0
 62
     3
100
AcDbText
 10
-12179.57601075889
 20
-4221.524134174994
 30
0.0
 40
3.0
  1
9
  7
DIM
100
AcDbText
  0
TEXT
  5
84C
330
2
100
AcDbEntity
  8
0
 62
     3
100
AcDbText
 10
-12179.86726700209
 20
-4208.113683406017
 30
0.0
 40
3.0
  1
7
  7
DIM
100
AcDbText
  0
TEXT
  5
84D
330
2
100
AcDbEntity
  8
0
 62
     3
100
AcDbText
 10
-12179.80722017566
 20
-4214.774458174423
 30
0.0
 40
3.0
  1
8
  7
DIM
100
AcDbText
  0
TEXT
  5
84E
330
2
100
AcDbEntity
  8
0
 62
     3
100
AcDbText
 10
-12179.86726700209
 20
-4200.931954420409
 30
0.0
 40
3.0
  1
6
  7
DIM
100
AcDbText
  0
TEXT
  5
84F
330
2
100
AcDbEntity
  8
0
 62
     3
100
AcDbText
 10
-12179.86726700209
 20
-4187.089538788154
 30
0.0
 40
3.0
  1
4
  7
DIM
100
AcDbText
  0
TEXT
  5
850
330
2
100
AcDbEntity
  8
0
 62
     3
100
AcDbText
 10
-12179.86726700209
 20
-4179.869024704342
 30
0.0
 40
3.0
  1
3
  7
DIM
100
AcDbText
  0
LINE
  5
851
330
2
100
AcDbEntity
  8
0
 62
     3
100
AcDbLine
 10
-12184.1655227557
 20
-4174.828937134706
 30
0.0
 11
-12083.69514796814
 21
-4174.828937134706
 31
0.0
  0
LINE
  5
852
330
2
100
AcDbEntity
  8
0
 62
     3
100
AcDbLine
 10
-12184.1655227557
 20
-4181.828937134706
 30
0.0
 11
-12083.69514796814
 21
-4181.828937134706
 31
0.0
  0
LINE
  5
853
330
2
100
AcDbEntity
  8
0
 62
     3
100
AcDbLine
 10
-12184.1655227557
 20
-4188.828937134706
 30
0.0
 11
-12083.69514796814
 21
-4188.828937134706
 31
0.0
  0
LINE
  5
854
330
2
100
AcDbEntity
  8
0
 62
     3
100
AcDbLine
 10
-12184.1655227557
 20
-4195.828937134706
 30
0.0
 11
-12083.69514796814
 21
-4195.828937134706
 31
0.0
  0
LINE
  5
855
330
2
100
AcDbEntity
  8
0
 62
     3
100
AcDbLine
 10
-12184.1655227557
 20
-4202.828937134706
 30
0.0
 11
-12083.69514796814
 21
-4202.828937134706
 31
0.0
  0
LINE
  5
856
330
2
100
AcDbEntity
  8
0
 62
     3
100
AcDbLine
 10
-12184.1655227557
 20
-4209.828937134706
 30
0.0
 11
-12083.69514796814
 21
-4209.828937134706
 31
0.0
  0
LINE
  5
857
330
2
100
AcDbEntity
  8
0
 62
     3
100
AcDbLine
 10
-12184.1655227557
 20
-4216.828937134706
 30
0.0
 11
-12083.69514796814
 21
-4216.828937134706
 31
0.0
  0
LINE
  5
858
330
2
100
AcDbEntity
  8
0
 62
     3
100
AcDbLine
 10
-12184.1655227557
 20
-4223.828937134706
 30
0.0
 11
-12083.69514796814
 21
-4223.828937134706
 31
0.0
  0
LINE
  5
859
330
2
100
AcDbEntity
  8
0
 62
     3
100
AcDbLine
 10
-12184.1655227557
 20
-4230.828937134706
 30
0.0
 11
-12083.69514796814
 21
-4230.828937134706
 31
0.0
  0
LINE
  5
85A
330
2
100
AcDbEntity
  8
0
 62
     3
100
AcDbLine
 10
-12184.1655227557
 20
-4149.094471877297
 30
0.0
 11
-12184.1655227557
 21
-4230.828937134706
 31
0.0
  0
LINE
  5
85B
330
2
100
AcDbEntity
  8
0
 62
     3
100
AcDbLine
 10
-12172.32373067045
 20
-4149.094471877297
 30
0.0
 11
-12172.32373067045
 21
-4230.828937134706
 31
0.0
  0
TEXT
  5
85C
330
2
100
AcDbEntity
  8
0
 62
     3
100
AcDbText
 10
-12179.86726700209
 20
-4173.197411132661
 30
0.0
 40
3.0
  1
2
  7
DIM
100
AcDbText
  0
LINE
  5
85D
330
2
100
AcDbEntity
  8
0
 62
     3
100
AcDbLine
 10
-12141.99035944205
 20
-4149.094471877297
 30
0.0
 11
-12141.99035944205
 21
-4230.828937134706
 31
0.0
  0
LINE
  5
85E
330
2
100
AcDbEntity
  8
0
 62
     3
100
AcDbLine
 10
-12103.69514796814
 20
-4149.094471877297
 30
0.0
 11
-12103.69514796814
 21
-4230.828937134706
 31
0.0
  0
TEXT
  5
85F
330
2
100
AcDbEntity
  8
0
 62
     3
100
AcDbText
 10
-12159.45489290367
 20
-4172.497371835329
 30
0.0
 40
2.5
  1
-
  7
DIM
100
AcDbText
  0
TEXT
  5
860
330
2
100
AcDbEntity
  8
0
 62
     3
100
AcDbText
 10
-12124.68281378705
 20
-4172.497371835329
 30
0.0
 40
2.5
  1
-
  7
DIM
100
AcDbText
  0
LINE
  5
861
330
2
100
AcDbEntity
  8
0
 62
     3
100
AcDbLine
 10
-12083.69514796814
 20
-4149.094471877297
 30
0.0
 11
-12083.69514796814
 21
-4230.828937134706
 31
0.0
  0
TEXT
  5
862
330
2
100
AcDbEntity
  8
0
 62
     3
100
AcDbText
 10
-12095.25936286764
 20
-4165.611702037146
 30
0.0
 40
2.5
  1
U
  7
DIM
100
AcDbText
  0
TEXT
  5
863
330
2
100
AcDbEntity
  8
0
 62
     3
100
AcDbText
 10
-12100.67573656067
 20
-4179.611702037147
 30
0.0
 40
2.5
  1
Ground
  7
DIM
100
AcDbText
  0
TEXT
  5
864
330
2
100
AcDbEntity
  8
0
 62
     3
100
AcDbText
 10
-12097.4819372536
 20
-4186.611702037146
 30
0.0
 40
2.5
  1
Vcc
  7
DIM
100
AcDbText
  0
TEXT
  5
865
330
2
100
AcDbEntity
  8
0
 62
     3
100
AcDbText
 10
-12096.796766693
 20
-4193.61170203715
 30
0.0
 40
2.5
  1
Hw
  7
DIM
100
AcDbText
  0
TEXT
  5
866
330
2
100
AcDbEntity
  8
0
 62
     3
100
AcDbText
 10
-12095.25944193186
 20
-4200.61170203715
 30
0.0
 40
2.5
  1
V
  7
DIM
100
AcDbText
  0
TEXT
  5
867
330
2
100
AcDbEntity
  8
0
 62
     3
100
AcDbText
 10
-12095.70006684927
 20
-4207.611702037147
 30
0.0
 40
2.5
  1
W
  7
DIM
100
AcDbText
  0
TEXT
  5
868
330
2
100
AcDbEntity
  8
0
 62
     3
100
AcDbText
 10
-12096.43726166889
 20
-4221.61170203715
 30
0.0
 40
2.5
  1
Hu
  7
DIM
100
AcDbText
  0
TEXT
  5
869
330
2
100
AcDbEntity
  8
0
 62
     3
100
AcDbText
 10
-12096.43726166889
 20
-4228.611702037147
 30
0.0
 40
2.5
  1
Hv
  7
DIM
100
AcDbText
  0
TEXT
  5
86A
330
2
100
AcDbEntity
  8
0
 62
     3
100
AcDbText
 10
-12098.95226424167
 20
-4156.177904898443
 30
0.0
 40
2.5
  1
SIGNAL
100
AcDbText
  0
TEXT
  5
86B
330
2
100
AcDbEntity
  8
0
 62
     3
100
AcDbText
 10
-12129.75334088101
 20
-4214.653436319411
 30
0.0
 40
2.5
  1
(Drain)
  7
DIM
100
AcDbText
  0
TEXT
  5
86C
330
2
100
AcDbEntity
  8
0
 62
     3
100
AcDbText
 10
-12168.73037604396
 20
-4214.394587999647
 30
0.0
 40
2.5
  1
(Colorless)
  7
DIM
100
AcDbText
  0
LINE
  5
9B3
330
2
100
AcDbEntity
  8
0
 62
     1
100
AcDbLine
 10
-11771.20750818266
 20
-3993.823353246618
 30
0.0
 11
-11771.20750818266
 21
-4028.647007999536
 31
0.0
  0
LINE
  5
9B4
330
2
100
AcDbEntity
  8
0
 62
     1
100
AcDbLine
 10
-11771.20750818266
 20
-4041.37800424483
 30
0.0
 11
-11771.20750818266
 21
-4054.846726266437
 31
0.0
  0
LEADER
  5
9B5
330
2
100
AcDbEntity
  8
0
100
AcDbLeader
  3
standard
 76
     2
 10
-11771.20750818266
 20
-4047.376932567554
 30
0.0
 10
-11752.31260340563
 20
-4047.376932567554
 30
0.0
1001
ACAD
1000
DSTYLE
1002
{
1070
     5
1000

1070
    41
1040
5.0
1070
    77
1070
     1
1070
   147
1040
1.0
1002
}
  0
TEXT
  5
9B6
330
2
100
AcDbEntity
  8
0
 62
     3
100
AcDbText
 10
-11749.28141461007
 20
-4049.47611655466
 30
0.0
 40
6.0
  1
"A"
  7
GHS
100
AcDbText
  0
LINE
  5
9F6
330
2
100
AcDbEntity
  8
0
 62
     1
100
AcDbLine
 10
-11768.98910470567
 20
-4237.192205925929
 30
0.0
 11
-11768.98910470567
 21
-4272.015860678847
 31
0.0
  0
LINE
  5
9F7
330
2
100
AcDbEntity
  8
0
 62
     1
100
AcDbLine
 10
-11768.98910470567
 20
-4284.74685692414
 30
0.0
 11
-11768.98910470567
 21
-4298.215578945749
 31
0.0
  0
LEADER
  5
9F8
330
2
100
AcDbEntity
  8
0
100
AcDbLeader
  3
standard
 76
     2
 10
-11768.98910470567
 20
-4290.745785246866
 30
0.0
 10
-11750.09419992864
 20
-4290.745785246866
 30
0.0
1001
ACAD
1000
DSTYLE
1002
{
1070
     5
1000

1070
    41
1040
5.0
1070
    77
1070
     1
1070
   147
1040
1.0
1002
}
  0
TEXT
  5
9F9
330
2
100
AcDbEntity
  8
0
 62
     3
100
AcDbText
 10
-11747.06301113307
 20
-4292.844969233971
 30
0.0
 40
6.0
  1
"A"
  7
GHS
100
AcDbText
  0
ENDSEC
  0
SECTION
  2
OBJECTS
  0
DICTIONARY
  5
C
330
0
100
AcDbDictionary
281
     1
  3
ACAD_2007HEADERVARS_RT
350
A00
  3
ACAD_CIP_PREVIOUS_PRODUCT_INFO
350
58B
  3
ACAD_COLOR
350
48
  3
ACAD_GROUP
350
35
  3
ACAD_LAYOUT
350
19
  3
ACAD_MATERIAL
350
E
  3
ACAD_MLEADERSTYLE
350
41D
  3
ACAD_MLINESTYLE
350
36
  3
ACAD_PLOTSETTINGS
350
37
  3
ACAD_PLOTSTYLENAME
350
B
  3
ACAD_SCALELIST
350
49
  3
ACAD_TABLESTYLE
350
4A
  3
ACAD_VISUALSTYLE
350
2F
  3
ACDB_RECOMPOSE_DATA
350
9FE
  3
AcDbVariableDictionary
350
3F6
  3
DWGPROPS
350
9FF
  0
DICTIONARY
  5
30
330
2C
100
AcDbDictionary
280
     1
281
     1
  0
DICTIONARY
  5
21
330
20
100
AcDbDictionary
280
     1
281
     1
  3
ACAD_LAYERSTATES
360
22
  3
AMLAYER_GROUPCOLORS
360
23
  0
DICTIONARY
  5
8
330
7
100
AcDbDictionary
280
     1
281
     1
  3
ADSK_XREC_LAYER_RECONCILED
360
9
  0
DICTIONARY
  5
3
330
2
100
AcDbDictionary
280
     1
281
     1
  3
ACAD_LAYOUTSELFREF
360
4
  3
ACAD_SORTENTS
360
3F1
  0
DICTIONARY
  5
1B
330
1A
100
AcDbDictionary
280
     1
281
     1
  3
ACAD_LAYOUTSELFREF
360
1C
  0
DICTIONARY
  5
A3D
330
680
100
AcDbDictionary
280
     1
281
     1
  3
ACAD_MTEXT_RT
360
A3E
  0
DICTIONARY
  5
A27
330
4F9
100
AcDbDictionary
280
     1
281
     1
  3
ACAD_MTEXT_RT
360
A28
  0
DICTIONARY
  5
C4
330
C3
100
AcDbDictionary
280
     1
281
     1
  3
ACAD_DIMASSOC
360
C5
  0
DICTIONARY
  5
271
330
270
100
AcDbDictionary
280
     1
281
     1
  3
ACAD_DIMASSOC
360
272
  0
DICTIONARY
  5
356
330
355
100
AcDbDictionary
280
     1
281
     1
  3
ACAD_DIMASSOC
360
357
  0
DICTIONARY
  5
39D
330
39C
100
AcDbDictionary
280
     1
281
     1
  3
ACAD_DIMASSOC
360
39E
  0
DICTIONARY
  5
3AE
330
3AD
100
AcDbDictionary
280
     1
281
     1
  3
ACAD_DIMASSOC
360
3AF
  0
DICTIONARY
  5
3D2
330
3D1
100
AcDbDictionary
280
     1
281
     1
  3
ACAD_DIMASSOC
360
3D3
  0
DICTIONARY
  5
A00
102
{ACAD_REACTORS
330
C
102
}
330
C
100
AcDbDictionary
281
     1
  3
DIMARCSYM
350
A01
  0
XRECORD
  5
58B
102
{ACAD_REACTORS
330
C
102
}
330
C
100
AcDbXrecord
280
     1
300
AMECH_PP
300
2012
300
PDSP_F_S
  0
DICTIONARY
  5
48
102
{ACAD_REACTORS
330
C
102
}
330
C
100
AcDbDictionary
281
     1
  0
DICTIONARY
  5
35
102
{ACAD_REACTORS
330
C
102
}
330
C
100
AcDbDictionary
281
     1
  0
DICTIONARY
  5
19
102
{ACAD_REACTORS
330
C
102
}
330
C
100
AcDbDictionary
281
     1
  3
Layout1
350
1F
  3
Model
350
18
  0
DICTIONARY
  5
E
102
{ACAD_REACTORS
330
C
102
}
330
C
100
AcDbDictionary
281
     1
  3
ByBlock
350
40
  3
ByLayer
350
38
  3
Global
350
D
  0
DICTIONARY
  5
41D
102
{ACAD_REACTORS
330
C
102
}
330
C
100
AcDbDictionary
281
     1
  3
Standard
350
41E
  0
DICTIONARY
  5
36
102
{ACAD_REACTORS
330
C
102
}
330
C
100
AcDbDictionary
281
     1
  3
Standard
350
4C
  0
DICTIONARY
  5
37
102
{ACAD_REACTORS
330
C
102
}
330
C
100
AcDbDictionary
281
     1
  0
ACDBDICTIONARYWDFLT
  5
B
102
{ACAD_REACTORS
330
C
102
}
330
C
100
AcDbDictionary
281
     1
  3
Normal
350
A
100
AcDbDictionaryWithDefault
340
A
  0
DICTIONARY
  5
49
102
{ACAD_REACTORS
330
C
102
}
330
C
100
AcDbDictionary
281
     1
  3
A0
350
54
  3
A1
350
55
  3
A2
350
56
  3
A3
350
57
  3
A4
350
58
  3
A5
350
59
  3
A6
350
5A
  3
A7
350
5B
  3
A8
350
5C
  3
A9
350
5D
  3
B0
350
5E
  3
B1
350
5F
  3
B2
350
60
  3
B3
350
61
  3
B4
350
62
  3
B5
350
63
  3
B6
350
64
  3
B7
350
65
  3
B8
350
66
  3
B9
350
67
  3
C0
350
68
  3
C1
350
69
  3
C2
350
6A
  3
C3
350
6B
  3
C4
350
6C
  3
C5
350
6D
  3
C6
350
6E
  3
C7
350
6F
  3
C8
350
70
  3
C9
350
71
  3
D0
350
72
  3
D1
350
73
  3
D2
350
74
  0
DICTIONARY
  5
4A
102
{ACAD_REACTORS
330
C
102
}
330
C
100
AcDbDictionary
281
     1
  3
Standard
350
4D
  0
DICTIONARY
  5
2F
102
{ACAD_REACTORS
330
C
102
}
330
C
100
AcDbDictionary
281
     1
  3
2dWireframe
350
2E
  3
3D Hidden
350
415
  3
3dWireframe
350
50
  3
Basic
350
414
  3
Brighten
350
418
  3
ColorChange
350
41C
  3
Conceptual
350
416
  3
Dim
350
417
  3
EdgeColorOff
350
586
  3
Facepattern
350
41B
  3
Flat
350
410
  3
FlatWithEdges
350
411
  3
Gouraud
350
412
  3
GouraudWithEdges
350
413
  3
Hidden
350
57E
  3
JitterOff
350
584
  3
Linepattern
350
41A
  3
OverhangOff
350
585
  3
Realistic
350
4F
  3
Shaded
350
583
  3
Shaded with edges
350
582
  3
Shades of Gray
350
57F
  3
Sketchy
350
580
  3
Thicken
350
419
  3
Wireframe
350
57D
  3
X-Ray
350
581
  0
XRECORD
  5
9FE
102
{ACAD_REACTORS
330
C
102
}
330
C
100
AcDbXrecord
280
     1
 90
        1
330
4D
  0
DICTIONARY
  5
3F6
102
{ACAD_REACTORS
330
C
102
}
330
C
100
AcDbDictionary
281
     1
  3
CANNOSCALE
350
3F9
  3
CMLEADERSTYLE
350
3F8
  3
CTABLESTYLE
350
3F7
  3
DIMASSOC
350
3FD
  3
HIDETEXT
350
3FC
  3
INDEXCTL
350
3FB
  3
SORTENTS
350
3FA
  3
XCLIPFRAME
350
9FC
  0
XRECORD
  5
9FF
102
{ACAD_REACTORS
330
C
102
}
330
C
100
AcDbXrecord
280
     1
  1
DWGPROPS COOKIE
  2

  3

  4

  6

  7

  8
김성진
  9

300
=
301
=
302
=
303
=
304
=
305
=
306
=
307
=
308
=
309
=
 40
81.36417729166666
 41
2452453.692344098
 42
2456226.677632535
  1

 90
        0
  0
DICTIONARY
  5
22
102
{ACAD_REACTORS
330
21
102
}
330
21
100
AcDbDictionary
281
     1
  0
DICTIONARY
  5
23
102
{ACAD_REACTORS
330
21
102
}
330
21
100
AcDbDictionary
280
     1
281
     1
  0
XRECORD
  5
9
102
{ACAD_REACTORS
330
8
102
}
330
8
100
AcDbXrecord
280
     1
290
     1
  0
XRECORD
  5
4
102
{ACAD_REACTORS
330
3
102
}
330
3
100
AcDbXrecord
280
     1
340
2
  0
SORTENTSTABLE
  5
3F1
102
{ACAD_REACTORS
330
3
102
}
330
3
100
AcDbSortentsTable
330
2
  0
XRECORD
  5
1C
102
{ACAD_REACTORS
330
1B
102
}
330
1B
100
AcDbXrecord
280
     1
340
1A
  0
XRECORD
  5
A3E
102
{ACAD_REACTORS
330
A3D
102
}
330
A3D
100
AcDbXrecord
280
     1
 40
6224.0
  1
\U+220594%%P0.5
  0
XRECORD
  5
A28
102
{ACAD_REACTORS
330
A27
102
}
330
A27
100
AcDbXrecord
280
     1
 40
6164.0
  1
\U+220594%%P0.1
  0
DIMASSOC
  5
C5
102
{ACAD_REACTORS
330
C4
102
}
330
C4
100
AcDbDimAssoc
330
C3
 90
        2
 70
     0
 71
     0
  1
AcDbOsnapPointRef
 72
     1
331
C2
 73
     2
 91
        0
 40
1.0
 10
-5315.531593601635
 20
2849.688411490918
 30
0.0
 75
     0
  0
DIMASSOC
  5
272
102
{ACAD_REACTORS
330
271
102
}
330
271
100
AcDbDimAssoc
330
270
 90
        2
 70
     0
 71
     0
  1
AcDbOsnapPointRef
 72
     1
331
26F
 73
     2
 91
        0
 40
1.0
 10
-5315.531593601635
 20
2849.688411490918
 30
0.0
 75
     0
  0
DIMASSOC
  5
357
102
{ACAD_REACTORS
330
356
102
}
330
356
100
AcDbDimAssoc
330
355
 90
        3
 70
     0
 71
     0
  1
AcDbOsnapPointRef
 72
    13
331
36B
 73
     2
 91
        0
 40
0.0
 10
1410.418561328056
 20
5204.766107316348
 30
0.0
 75
     0
  1
AcDbOsnapPointRef
 72
    13
331
347
 73
     2
 91
        0
 40
0.0
 10
1329.418561328056
 20
5204.766107316348
 30
0.0
 75
     0
  0
DIMASSOC
  5
39E
102
{ACAD_REACTORS
330
39D
102
}
330
39D
100
AcDbDimAssoc
330
39C
 90
        3
 70
     0
 71
     0
  1
AcDbOsnapPointRef
 72
    13
331
394
 73
     2
 91
        0
 40
0.0
 10
23257.64440101732
 20
-3712.116820528115
 30
0.0
 75
     0
  1
AcDbOsnapPointRef
 72
    13
331
393
 73
     2
 91
        0
 40
0.0
 10
23262.64440101732
 20
-3712.116820528115
 30
0.0
 75
     0
  0
DIMASSOC
  5
3AF
102
{ACAD_REACTORS
330
3AE
102
}
330
3AE
100
AcDbDimAssoc
330
3AD
 90
        2
 70
     0
 71
     0
  1
AcDbOsnapPointRef
 72
     1
331
398
 73
     2
 91
        0
 40
1.0
 10
23234.14642848957
 20
-3712.116820528115
 30
0.0
 75
     0
  0
DIMASSOC
  5
3D3
102
{ACAD_REACTORS
330
3D2
102
}
330
3D2
100
AcDbDimAssoc
330
3D1
 90
        3
 70
     0
 71
     0
  1
AcDbOsnapPointRef
 72
     1
331
3CF
 73
     2
 91
        0
 40
1.0
 10
23318.08644951336
 20
-3710.116820528114
 30
0.0
 75
     0
  1
AcDbOsnapPointRef
 72
     5
331
3CE
 73
     2
 91
        0
 40
1.570796326794896
 10
23315.58644951336
 20
-3707.116820528114
 30
0.0
 75
     0
  0
XRECORD
  5
A01
102
{ACAD_REACTORS
330
A00
102
}
330
A00
100
AcDbXrecord
280
     1
 70
     1
  0
LAYOUT
  5
1F
102
{ACAD_XDICTIONARY
360
A04
102
}
102
{ACAD_REACTORS
330
19
102
}
330
19
100
AcDbPlotSettings
  1

  2
none_device
  4
Letter_(8.50_x_11.00_Inches)
  6

 40
6.349999904632567
 41
6.349999904632567
 42
6.350006103515625
 43
6.350006103515625
 44
215.8999938964844
 45
279.3999938964844
 46
0.0
 47
0.0
 48
0.0
 49
0.0
140
0.0
141
0.0
142
1.0
143
1.0
 70
   688
 72
     1
 73
     1
 74
     5
  7
KSJ2008.ctb
 75
    16
147
1.0
148
0.0
149
0.0
100
AcDbLayout
  1
Layout1
 70
     1
 71
     1
 10
-6.350006103515625
 20
-6.349999904632567
 11
273.0499877929688
 21
209.5499939918518
 12
0.0
 22
0.0
 32
0.0
 14
26.66999878883363
 24
20.31999878883363
 34
0.0
 15
240.0299890995026
 25
182.8799890995025
 35
0.0
146
0.0
 13
0.0
 23
0.0
 33
0.0
 16
1.0
 26
0.0
 36
0.0
 17
0.0
 27
1.0
 37
0.0
 76
     0
330
1A
  0
LAYOUT
  5
18
102
{ACAD_XDICTIONARY
360
A02
102
}
102
{ACAD_REACTORS
330
19
102
}
330
19
100
AcDbPlotSettings
  1

  2
HP LaserJet 5000 Series
  4
A4
  6

 40
6.805083274841307
 41
5.027085304260253
 42
6.805084228515625
 43
5.027069091796875
 44
209.9733276367186
 45
296.9683227539062
 46
45.07
 47
86.57
 48
3693.796282049502
 49
4411.8749254653
140
3800.02395557164
141
4525.647904783305
142
1.0
143
1.0
 70
 11956
 72
     1
 73
     0
 74
     4
  7
KSJ2008.ctb
 75
    16
147
1.0
148
-3693.796282049502
149
-4411.8749254653
100
AcDbLayout
  1
Model
 70
     1
 71
     0
 10
0.0
 20
0.0
 11
12.0
 21
9.0
 12
0.0
 22
0.0
 32
0.0
 14
0.0
 24
0.0
 34
0.0
 15
0.0
 25
0.0
 35
0.0
146
0.0
 13
0.0
 23
0.0
 33
0.0
 16
1.0
 26
0.0
 36
0.0
 17
0.0
 27
1.0
 37
0.0
 76
     0
330
2
331
2D
  0
MATERIAL
  5
40
102
{ACAD_XDICTIONARY
360
41
102
}
102
{ACAD_REACTORS
330
E
102
}
330
E
100
AcDbMaterial
  1
ByBlock
 72
     0
 43
0.0008202099737533
 43
0.0
 43
0.0
 43
0.0
 43
0.0
 43
0.0008202099737533
 43
0.0
 43
0.0
 43
0.0
 43
0.0
 43
1.0
 43
0.0
 43
0.0
 43
0.0
 43
0.0
 43
1.0
 77
     0
 47
0.0008202099737533
 47
0.0
 47
0.0
 47
0.0
 47
0.0
 47
0.0008202099737533
 47
0.0
 47
0.0
 47
0.0
 47
0.0
 47
1.0
 47
0.0
 47
0.0
 47
0.0
 47
0.0
 47
1.0
171
     0
 49
0.0008202099737533
 49
0.0
 49
0.0
 49
0.0
 49
0.0
 49
0.0008202099737533
 49
0.0
 49
0.0
 49
0.0
 49
0.0
 49
1.0
 49
0.0
 49
0.0
 49
0.0
 49
0.0
 49
1.0
175
     0
142
0.0008202099737533
142
0.0
142
0.0
142
0.0
142
0.0
142
0.0008202099737533
142
0.0
142
0.0
142
0.0
142
0.0
142
1.0
142
0.0
142
0.0
142
0.0
142
0.0
142
1.0
179
     0
144
0.0008202099737533
144
0.0
144
0.0
144
0.0
144
0.0
144
0.0008202099737533
144
0.0
144
0.0
144
0.0
144
0.0
144
1.0
144
0.0
144
0.0
144
0.0
144
0.0
144
1.0
147
0.0008202099737533
147
0.0
147
0.0
147
0.0
147
0.0
147
0.0008202099737533
147
0.0
147
0.0
147
0.0
147
0.0
147
1.0
147
0.0
147
0.0
147
0.0
147
0.0
147
1.0
  0
MATERIAL
  5
38
102
{ACAD_XDICTIONARY
360
39
102
}
102
{ACAD_REACTORS
330
E
102
}
330
E
100
AcDbMaterial
  1
ByLayer
 72
     0
 43
0.0008202099737533
 43
0.0
 43
0.0
 43
0.0
 43
0.0
 43
0.0008202099737533
 43
0.0
 43
0.0
 43
0.0
 43
0.0
 43
1.0
 43
0.0
 43
0.0
 43
0.0
 43
0.0
 43
1.0
 77
     0
 47
0.0008202099737533
 47
0.0
 47
0.0
 47
0.0
 47
0.0
 47
0.0008202099737533
 47
0.0
 47
0.0
 47
0.0
 47
0.0
 47
1.0
 47
0.0
 47
0.0
 47
0.0
 47
0.0
 47
1.0
171
     0
 49
0.0008202099737533
 49
0.0
 49
0.0
 49
0.0
 49
0.0
 49
0.0008202099737533
 49
0.0
 49
0.0
 49
0.0
 49
0.0
 49
1.0
 49
0.0
 49
0.0
 49
0.0
 49
0.0
 49
1.0
175
     0
142
0.0008202099737533
142
0.0
142
0.0
142
0.0
142
0.0
142
0.0008202099737533
142
0.0
142
0.0
142
0.0
142
0.0
142
1.0
142
0.0
142
0.0
142
0.0
142
0.0
142
1.0
179
     0
144
0.0008202099737533
144
0.0
144
0.0
144
0.0
144
0.0
144
0.0008202099737533
144
0.0
144
0.0
144
0.0
144
0.0
144
1.0
144
0.0
144
0.0
144
0.0
144
0.0
144
1.0
147
0.0008202099737533
147
0.0
147
0.0
147
0.0
147
0.0
147
0.0008202099737533
147
0.0
147
0.0
147
0.0
147
0.0
147
1.0
147
0.0
147
0.0
147
0.0
147
0.0
147
1.0
  0
MATERIAL
  5
D
102
{ACAD_XDICTIONARY
360
F
102
}
102
{ACAD_REACTORS
330
E
102
}
330
E
100
AcDbMaterial
  1
Global
 72
     0
 43
0.0008202099737533
 43
0.0
 43
0.0
 43
0.0
 43
0.0
 43
0.0008202099737533
 43
0.0
 43
0.0
 43
0.0
 43
0.0
 43
1.0
 43
0.0
 43
0.0
 43
0.0
 43
0.0
 43
1.0
 77
     0
 47
0.0008202099737533
 47
0.0
 47
0.0
 47
0.0
 47
0.0
 47
0.0008202099737533
 47
0.0
 47
0.0
 47
0.0
 47
0.0
 47
1.0
 47
0.0
 47
0.0
 47
0.0
 47
0.0
 47
1.0
171
     0
 49
0.0008202099737533
 49
0.0
 49
0.0
 49
0.0
 49
0.0
 49
0.0008202099737533
 49
0.0
 49
0.0
 49
0.0
 49
0.0
 49
1.0
 49
0.0
 49
0.0
 49
0.0
 49
0.0
 49
1.0
175
     0
142
0.0008202099737533
142
0.0
142
0.0
142
0.0
142
0.0
142
0.0008202099737533
142
0.0
142
0.0
142
0.0
142
0.0
142
1.0
142
0.0
142
0.0
142
0.0
142
0.0
142
1.0
179
     0
144
0.0008202099737533
144
0.0
144
0.0
144
0.0
144
0.0
144
0.0008202099737533
144
0.0
144
0.0
144
0.0
144
0.0
144
1.0
144
0.0
144
0.0
144
0.0
144
0.0
144
1.0
147
0.0008202099737533
147
0.0
147
0.0
147
0.0
147
0.0
147
0.0008202099737533
147
0.0
147
0.0
147
0.0
147
0.0
147
1.0
147
0.0
147
0.0
147
0.0
147
0.0
147
1.0
  0
MLEADERSTYLE
  5
41E
102
{ACAD_REACTORS
330
41D
102
}
330
41D
100
AcDbMLeaderStyle
170
     2
171
     1
172
     0
 90
        2
 40
0.0
 41
0.0
173
     1
 91
-1056964608
340
28
 92
       -2
290
     1
 42
2.0
291
     1
 43
0.36
  3
Standard
 44
4.0
300

342
25
174
     1
178
     6
175
     1
176
     0
 93
-1056964608
 45
4.0
292
     0
297
     0
 46
4.0
 94
-1056964608
 47
1.0
 49
1.0
140
1.0
293
     1
141
0.0
294
     1
177
     0
142
1.0
295
     0
296
     0
143
0.125
1001
ACAD_MLEADERVER
1070
     2
  0
MLINESTYLE
  5
4C
102
{ACAD_REACTORS
330
36
102
}
330
36
100
AcDbMlineStyle
  2
STANDARD
 70
     0
  3

 62
   256
 51
90.0
 52
90.0
 71
     2
 49
0.5
 62
   256
  6
BYLAYER
 49
-0.5
 62
   256
  6
BYLAYER
  0
ACDBPLACEHOLDER
  5
A
102
{ACAD_REACTORS
330
B
102
}
330
B
  0
SCALE
  5
54
102
{ACAD_REACTORS
330
49
102
}
330
49
100
AcDbScale
 70
     0
300
1:1
140
1.0
141
1.0
290
     1
  0
SCALE
  5
55
102
{ACAD_REACTORS
330
49
102
}
330
49
100
AcDbScale
 70
     0
300
1:2
140
1.0
141
2.0
290
     0
  0
SCALE
  5
56
102
{ACAD_REACTORS
330
49
102
}
330
49
100
AcDbScale
 70
     0
300
1:4
140
1.0
141
4.0
290
     0
  0
SCALE
  5
57
102
{ACAD_REACTORS
330
49
102
}
330
49
100
AcDbScale
 70
     0
300
1:5
140
1.0
141
5.0
290
     0
  0
SCALE
  5
58
102
{ACAD_REACTORS
330
49
102
}
330
49
100
AcDbScale
 70
     0
300
1:8
140
1.0
141
8.0
290
     0
  0
SCALE
  5
59
102
{ACAD_REACTORS
330
49
102
}
330
49
100
AcDbScale
 70
     0
300
1:10
140
1.0
141
10.0
290
     0
  0
SCALE
  5
5A
102
{ACAD_REACTORS
330
49
102
}
330
49
100
AcDbScale
 70
     0
300
1:16
140
1.0
141
16.0
290
     0
  0
SCALE
  5
5B
102
{ACAD_REACTORS
330
49
102
}
330
49
100
AcDbScale
 70
     0
300
1:20
140
1.0
141
20.0
290
     0
  0
SCALE
  5
5C
102
{ACAD_REACTORS
330
49
102
}
330
49
100
AcDbScale
 70
     0
300
1:30
140
1.0
141
30.0
290
     0
  0
SCALE
  5
5D
102
{ACAD_REACTORS
330
49
102
}
330
49
100
AcDbScale
 70
     0
300
1:40
140
1.0
141
40.0
290
     0
  0
SCALE
  5
5E
102
{ACAD_REACTORS
330
49
102
}
330
49
100
AcDbScale
 70
     0
300
1:50
140
1.0
141
50.0
290
     0
  0
SCALE
  5
5F
102
{ACAD_REACTORS
330
49
102
}
330
49
100
AcDbScale
 70
     0
300
1:100
140
1.0
141
100.0
290
     0
  0
SCALE
  5
60
102
{ACAD_REACTORS
330
49
102
}
330
49
100
AcDbScale
 70
     0
300
2:1
140
2.0
141
1.0
290
     0
  0
SCALE
  5
61
102
{ACAD_REACTORS
330
49
102
}
330
49
100
AcDbScale
 70
     0
300
4:1
140
4.0
141
1.0
290
     0
  0
SCALE
  5
62
102
{ACAD_REACTORS
330
49
102
}
330
49
100
AcDbScale
 70
     0
300
8:1
140
8.0
141
1.0
290
     0
  0
SCALE
  5
63
102
{ACAD_REACTORS
330
49
102
}
330
49
100
AcDbScale
 70
     0
300
10:1
140
10.0
141
1.0
290
     0
  0
SCALE
  5
64
102
{ACAD_REACTORS
330
49
102
}
330
49
100
AcDbScale
 70
     0
300
100:1
140
100.0
141
1.0
290
     0
  0
SCALE
  5
65
102
{ACAD_REACTORS
330
49
102
}
330
49
100
AcDbScale
 70
     0
300
1/128" = 1'-0"
140
0.0078125
141
12.0
290
     0
  0
SCALE
  5
66
102
{ACAD_REACTORS
330
49
102
}
330
49
100
AcDbScale
 70
     0
300
1/64" = 1'-0"
140
0.015625
141
12.0
290
     0
  0
SCALE
  5
67
102
{ACAD_REACTORS
330
49
102
}
330
49
100
AcDbScale
 70
     0
300
1/32" = 1'-0"
140
0.03125
141
12.0
290
     0
  0
SCALE
  5
68
102
{ACAD_REACTORS
330
49
102
}
330
49
100
AcDbScale
 70
     0
300
1/16" = 1'-0"
140
0.0625
141
12.0
290
     0
  0
SCALE
  5
69
102
{ACAD_REACTORS
330
49
102
}
330
49
100
AcDbScale
 70
     0
300
3/32" = 1'-0"
140
0.09375
141
12.0
290
     0
  0
SCALE
  5
6A
102
{ACAD_REACTORS
330
49
102
}
330
49
100
AcDbScale
 70
     0
300
1/8" = 1'-0"
140
0.125
141
12.0
290
     0
  0
SCALE
  5
6B
102
{ACAD_REACTORS
330
49
102
}
330
49
100
AcDbScale
 70
     0
300
3/16" = 1'-0"
140
0.1875
141
12.0
290
     0
  0
SCALE
  5
6C
102
{ACAD_REACTORS
330
49
102
}
330
49
100
AcDbScale
 70
     0
300
1/4" = 1'-0"
140
0.25
141
12.0
290
     0
  0
SCALE
  5
6D
102
{ACAD_REACTORS
330
49
102
}
330
49
100
AcDbScale
 70
     0
300
3/8" = 1'-0"
140
0.375
141
12.0
290
     0
  0
SCALE
  5
6E
102
{ACAD_REACTORS
330
49
102
}
330
49
100
AcDbScale
 70
     0
300
1/2" = 1'-0"
140
0.5
141
12.0
290
     0
  0
SCALE
  5
6F
102
{ACAD_REACTORS
330
49
102
}
330
49
100
AcDbScale
 70
     0
300
3/4" = 1'-0"
140
0.75
141
12.0
290
     0
  0
SCALE
  5
70
102
{ACAD_REACTORS
330
49
102
}
330
49
100
AcDbScale
 70
     0
300
1" = 1'-0"
140
1.0
141
12.0
290
     0
  0
SCALE
  5
71
102
{ACAD_REACTORS
330
49
102
}
330
49
100
AcDbScale
 70
     0
300
1-1/2" = 1'-0"
140
1.5
141
12.0
290
     0
  0
SCALE
  5
72
102
{ACAD_REACTORS
330
49
102
}
330
49
100
AcDbScale
 70
     0
300
3" = 1'-0"
140
3.0
141
12.0
290
     0
  0
SCALE
  5
73
102
{ACAD_REACTORS
330
49
102
}
330
49
100
AcDbScale
 70
     0
300
6" = 1'-0"
140
6.0
141
12.0
290
     0
  0
SCALE
  5
74
102
{ACAD_REACTORS
330
49
102
}
330
49
100
AcDbScale
 70
     0
300
1'-0" = 1'-0"
140
12.0
141
12.0
290
     0
  0
TABLESTYLE
  5
4D
102
{ACAD_XDICTIONARY
360
4E
102
}
102
{ACAD_REACTORS
330
4A
102
}
330
4A
100
AcDbTableStyle
  3
Standard
 70
     0
 71
     0
 40
1.5
 41
1.5
280
     0
281
     0
  7
Standard
140
4.5
170
     2
 62
     0
 63
     7
283
     0
274
    -2
284
     1
 64
     0
275
    -2
285
     1
 65
     0
276
    -2
286
     1
 66
     0
277
    -2
287
     1
 67
     0
278
    -2
288
     1
 68
     0
279
    -2
289
     1
 69
     0
  7
Standard
140
6.0
170
     5
 62
     0
 63
     7
283
     0
274
    -2
284
     1
 64
     0
275
    -2
285
     1
 65
     0
276
    -2
286
     1
 66
     0
277
    -2
287
     1
 67
     0
278
    -2
288
     1
 68
     0
279
    -2
289
     1
 69
     0
  7
Standard
140
4.5
170
     5
 62
     0
 63
     7
283
     0
274
    -2
284
     1
 64
     0
275
    -2
285
     1
 65
     0
276
    -2
286
     1
 66
     0
277
    -2
287
     1
 67
     0
278
    -2
288
     1
 68
     0
279
    -2
289
     1
 69
     0
  0
VISUALSTYLE
  5
2E
102
{ACAD_XDICTIONARY
360
A06
102
}
102
{ACAD_REACTORS
330
2F
102
}
330
2F
100
AcDbVisualStyle
  2

 70
     4
 71
     0
 72
     2
 73
     0
 90
        0
 40
-0.6
 41
-30.0
 62
     5
 63
     7
 74
     1
 91
        4
 64
     7
 65
   257
 75
     1
175
     1
 42
1.0
 92
        0
 66
   257
 43
1.0
 76
     1
 77
     6
 78
     2
 67
     7
 79
     5
170
     0
171
     0
290
     0
174
     0
 93
        1
 44
0.0
173
     0
291
     0
 45
0.0
1001
ACAD
1000
AcDbSavedByObjectVersion
1070
     0
  0
VISUALSTYLE
  5
415
102
{ACAD_XDICTIONARY
360
A17
102
}
102
{ACAD_REACTORS
330
2F
102
}
330
2F
100
AcDbVisualStyle
  2

 70
     6
 71
     1
 72
     2
 73
     2
 90
        0
 40
-0.6
 41
-30.0
 62
     5
 63
     7
 74
     2
 91
        2
 64
     7
 65
   257
 75
     2
175
     1
 42
40.0
 92
        0
 66
   257
 43
1.0
 76
     1
 77
     6
 78
     2
 67
     7
 79
     3
170
     0
171
     0
290
     0
174
     0
 93
        1
 44
0.0
173
     0
291
     0
 45
0.0
1001
ACAD
1000
AcDbSavedByObjectVersion
1070
     0
  0
VISUALSTYLE
  5
50
102
{ACAD_XDICTIONARY
360
A0B
102
}
102
{ACAD_REACTORS
330
2F
102
}
330
2F
100
AcDbVisualStyle
  2

 70
     5
 71
     0
 72
     2
 73
     0
 90
        0
 40
-0.6
 41
-30.0
 62
     5
 63
     7
 74
     1
 91
        4
 64
     7
 65
   257
 75
     1
175
     1
 42
1.0
 92
        0
 66
   257
 43
1.0
 76
     1
 77
     6
 78
     2
 67
     7
 79
     5
170
     0
171
     0
290
     0
174
     0
 93
        1
 44
0.0
173
     0
291
     0
 45
0.0
1001
ACAD
1000
AcDbSavedByObjectVersion
1070
     0
  0
VISUALSTYLE
  5
414
102
{ACAD_XDICTIONARY
360
A15
102
}
102
{ACAD_REACTORS
330
2F
102
}
330
2F
100
AcDbVisualStyle
  2

 70
     7
 71
     1
 72
     0
 73
     1
 90
        0
 40
-0.6
 41
-30.0
 62
     5
 63
     7
 74
     0
 91
        4
 64
     7
 65
   257
 75
     1
175
     1
 42
1.0
 92
        8
 66
     7
 43
1.0
 76
     1
 77
     6
 78
     2
 67
     7
 79
     5
170
     0
171
     0
290
     0
174
     0
 93
        1
 44
0.0
173
     0
291
     1
 45
0.0
1001
ACAD
1000
AcDbSavedByObjectVersion
1070
     0
  0
VISUALSTYLE
  5
418
102
{ACAD_XDICTIONARY
360
A1D
102
}
102
{ACAD_REACTORS
330
2F
102
}
330
2F
100
AcDbVisualStyle
  2

 70
    12
 71
     2
 72
     2
 73
     0
 90
        0
 40
-0.6
 41
-30.0
 62
     5
 63
     7
 74
     1
 91
        4
 64
     7
 65
   257
 75
     1
175
     1
 42
1.0
 92
        8
 66
     7
 43
1.0
 76
     1
 77
     6
 78
     2
 67
     7
 79
     5
170
     0
171
     0
290
     0
174
     0
 93
        1
 44
50.0
173
     0
291
     1
 45
0.0
1001
ACAD
1000
AcDbSavedByObjectVersion
1070
     0
  0
VISUALSTYLE
  5
41C
102
{ACAD_XDICTIONARY
360
A25
102
}
102
{ACAD_REACTORS
330
2F
102
}
330
2F
100
AcDbVisualStyle
  2

 70
    16
 71
     2
 72
     2
 73
     3
 90
        0
 40
-0.6
 41
-30.0
 62
     5
 63
     8
 74
     1
 91
        4
 64
     7
 65
   257
 75
     1
175
     1
 42
1.0
 92
        8
 66
     8
 43
1.0
 76
     1
 77
     6
 78
     2
 67
     7
 79
     5
170
     0
171
     0
290
     0
174
     0
 93
        1
 44
0.0
173
     0
291
     1
 45
0.0
1001
ACAD
1000
AcDbSavedByObjectVersion
1070
     0
  0
VISUALSTYLE
  5
416
102
{ACAD_XDICTIONARY
360
A19
102
}
102
{ACAD_REACTORS
330
2F
102
}
330
2F
100
AcDbVisualStyle
  2

 70
     9
 71
     3
 72
     2
 73
     0
 90
        0
 40
-0.6
 41
-30.0
 62
     5
 63
     7
 74
     2
 91
        2
 64
     7
 65
   257
 75
     1
175
     1
 42
40.0
 92
        8
 66
     7
 43
1.0
 76
     1
 77
     6
 78
     2
 67
     7
 79
     3
170
     0
171
     0
290
     0
174
     0
 93
        1
 44
0.0
173
     0
291
     0
 45
0.0
1001
ACAD
1000
AcDbSavedByObjectVersion
1070
     0
  0
VISUALSTYLE
  5
417
102
{ACAD_XDICTIONARY
360
A1B
102
}
102
{ACAD_REACTORS
330
2F
102
}
330
2F
100
AcDbVisualStyle
  2

 70
    11
 71
     2
 72
     2
 73
     0
 90
        0
 40
-0.6
 41
-30.0
 62
     5
 63
     7
 74
     1
 91
        4
 64
     7
 65
   257
 75
     1
175
     1
 42
1.0
 92
        8
 66
     7
 43
1.0
 76
     1
 77
     6
 78
     2
 67
     7
 79
     5
170
     0
171
     0
290
     0
174
     0
 93
        1
 44
-50.0
173
     0
291
     1
 45
0.0
1001
ACAD
1000
AcDbSavedByObjectVersion
1070
     0
  0
VISUALSTYLE
  5
586
102
{ACAD_XDICTIONARY
360
A3B
102
}
102
{ACAD_REACTORS
330
2F
102
}
330
2F
100
AcDbVisualStyle
  2
EdgeColorOff
 70
    22
 71
     2
 72
     2
 73
     0
 90
        0
 40
-0.6
 41
-30.0
 62
     5
 63
     7
 74
     1
 91
        4
 64
     7
 65
   257
 75
     1
175
     1
 42
1.0
 92
        8
 66
     7
 43
1.0
 76
     1
 77
     6
 78
     2
 67
     7
 79
     5
170
     0
171
     0
290
     0
174
     0
 93
        1
 44
0.0
173
     0
291
     1
 45
0.0
1001
ACAD
1000
AcDbSavedByObjectVersion
1070
     0
  0
VISUALSTYLE
  5
41B
102
{ACAD_XDICTIONARY
360
A23
102
}
102
{ACAD_REACTORS
330
2F
102
}
330
2F
100
AcDbVisualStyle
  2

 70
    15
 71
     2
 72
     2
 73
     0
 90
        0
 40
-0.6
 41
-30.0
 62
     5
 63
     7
 74
     1
 91
        4
 64
     7
 65
   257
 75
     1
175
     1
 42
1.0
 92
        8
 66
     7
 43
1.0
 76
     1
 77
     6
 78
     2
 67
     7
 79
     5
170
     0
171
     0
290
     0
174
     0
 93
        1
 44
0.0
173
     0
291
     1
 45
0.0
1001
ACAD
1000
AcDbSavedByObjectVersion
1070
     0
  0
VISUALSTYLE
  5
410
102
{ACAD_XDICTIONARY
360
A0D
102
}
102
{ACAD_REACTORS
330
2F
102
}
330
2F
100
AcDbVisualStyle
  2

 70
     0
 71
     2
 72
     1
 73
     1
 90
        2
 40
-0.6
 41
30.0
 62
     5
 63
     7
 74
     0
 91
        4
 64
     7
 65
   257
 75
     1
175
     1
 42
1.0
 92
        8
 66
     7
 43
1.0
 76
     1
 77
     6
 78
     2
 67
     7
 79
     5
170
     0
171
     0
290
     0
174
     0
 93
       13
 44
0.0
173
     0
291
     1
 45
0.0
1001
ACAD
1000
AcDbSavedByObjectVersion
1070
     0
  0
VISUALSTYLE
  5
411
102
{ACAD_XDICTIONARY
360
A0F
102
}
102
{ACAD_REACTORS
330
2F
102
}
330
2F
100
AcDbVisualStyle
  2

 70
     1
 71
     2
 72
     1
 73
     1
 90
        2
 40
-0.6
 41
30.0
 62
     5
 63
     7
 74
     1
 91
        4
 64
     7
 65
   257
 75
     1
175
     1
 42
1.0
 92
        0
 66
   257
 43
1.0
 76
     1
 77
     6
 78
     2
 67
     7
 79
     5
170
     0
171
     0
290
     0
174
     0
 93
       13
 44
0.0
173
     0
291
     1
 45
0.0
1001
ACAD
1000
AcDbSavedByObjectVersion
1070
     0
  0
VISUALSTYLE
  5
412
102
{ACAD_XDICTIONARY
360
A11
102
}
102
{ACAD_REACTORS
330
2F
102
}
330
2F
100
AcDbVisualStyle
  2

 70
     2
 71
     2
 72
     2
 73
     1
 90
        2
 40
-0.6
 41
30.0
 62
     5
 63
     7
 74
     0
 91
        4
 64
     7
 65
   257
 75
     1
175
     1
 42
1.0
 92
        0
 66
     7
 43
1.0
 76
     1
 77
     6
 78
     2
 67
     7
 79
     5
170
     0
171
     0
290
     0
174
     0
 93
       13
 44
0.0
173
     0
291
     1
 45
0.0
1001
ACAD
1000
AcDbSavedByObjectVersion
1070
     0
  0
VISUALSTYLE
  5
413
102
{ACAD_XDICTIONARY
360
A13
102
}
102
{ACAD_REACTORS
330
2F
102
}
330
2F
100
AcDbVisualStyle
  2

 70
     3
 71
     2
 72
     2
 73
     1
 90
        2
 40
-0.6
 41
30.0
 62
     5
 63
     7
 74
     1
 91
        4
 64
     7
 65
   257
 75
     1
175
     1
 42
1.0
 92
        0
 66
   257
 43
1.0
 76
     1
 77
     6
 78
     2
 67
     7
 79
     5
170
     0
171
     0
290
     0
174
     0
 93
       13
 44
0.0
173
     0
291
     1
 45
0.0
1001
ACAD
1000
AcDbSavedByObjectVersion
1070
     0
  0
VISUALSTYLE
  5
57E
102
{ACAD_XDICTIONARY
360
A2B
102
}
102
{ACAD_REACTORS
330
2F
102
}
330
2F
100
AcDbVisualStyle
  2
Hidden
 70
     6
 71
     1
 72
     2
 73
     2
 90
        0
 40
-0.6
 41
-30.0
 62
     5
 63
     7
 74
     2
 91
        2
 64
     7
 65
   257
 75
     2
175
     1
 42
40.0
 92
        0
 66
   257
 43
1.0
 76
     1
 77
     6
 78
     2
 67
     7
 79
     3
170
     0
171
     0
290
     0
174
     0
 93
        1
 44
0.0
173
     0
291
     0
 45
0.0
1001
ACAD
1000
AcDbSavedByObjectVersion
1070
     0
  0
VISUALSTYLE
  5
584
102
{ACAD_XDICTIONARY
360
A37
102
}
102
{ACAD_REACTORS
330
2F
102
}
330
2F
100
AcDbVisualStyle
  2
JitterOff
 70
    20
 71
     2
 72
     2
 73
     0
 90
        0
 40
-0.6
 41
-30.0
 62
     5
 63
     7
 74
     1
 91
        4
 64
     7
 65
   257
 75
     1
175
     1
 42
1.0
 92
       10
 66
     7
 43
1.0
 76
     1
 77
     6
 78
     2
 67
     7
 79
     5
170
     0
171
     0
290
     0
174
     0
 93
        1
 44
0.0
173
     0
291
     1
 45
0.0
1001
ACAD
1000
AcDbSavedByObjectVersion
1070
     0
  0
VISUALSTYLE
  5
41A
102
{ACAD_XDICTIONARY
360
A21
102
}
102
{ACAD_REACTORS
330
2F
102
}
330
2F
100
AcDbVisualStyle
  2

 70
    14
 71
     2
 72
     2
 73
     0
 90
        0
 40
-0.6
 41
-30.0
 62
     5
 63
     7
 74
     1
 91
        4
 64
     7
 65
   257
 75
     7
175
     7
 42
1.0
 92
        8
 66
     7
 43
1.0
 76
     1
 77
     6
 78
     2
 67
     7
 79
     5
170
     0
171
     0
290
     0
174
     0
 93
        1
 44
0.0
173
     0
291
     1
 45
0.0
1001
ACAD
1000
AcDbSavedByObjectVersion
1070
     0
  0
VISUALSTYLE
  5
585
102
{ACAD_XDICTIONARY
360
A39
102
}
102
{ACAD_REACTORS
330
2F
102
}
330
2F
100
AcDbVisualStyle
  2
OverhangOff
 70
    21
 71
     2
 72
     2
 73
     0
 90
        0
 40
-0.6
 41
-30.0
 62
     5
 63
     7
 74
     1
 91
        4
 64
     7
 65
   257
 75
     1
175
     1
 42
1.0
 92
        9
 66
     7
 43
1.0
 76
     1
 77
     6
 78
     2
 67
     7
 79
     5
170
     0
171
     0
290
     0
174
     0
 93
        1
 44
0.0
173
     0
291
     1
 45
0.0
1001
ACAD
1000
AcDbSavedByObjectVersion
1070
     0
  0
VISUALSTYLE
  5
4F
102
{ACAD_XDICTIONARY
360
A09
102
}
102
{ACAD_REACTORS
330
2F
102
}
330
2F
100
AcDbVisualStyle
  2

 70
     8
 71
     2
 72
     2
 73
     0
 90
        0
 40
-0.6
 41
-30.0
 62
     5
 63
     7
 74
     1
 91
        0
 64
     7
 65
   257
 75
     1
175
     1
 42
1.0
 92
        8
 66
     8
 43
1.0
 76
     1
 77
     6
 78
     2
 67
     7
 79
     5
170
     0
171
     0
290
     0
174
     0
 93
       13
 44
0.0
173
     0
291
     0
 45
0.0
1001
ACAD
1000
AcDbSavedByObjectVersion
1070
     0
  0
VISUALSTYLE
  5
583
102
{ACAD_XDICTIONARY
360
A35
102
}
102
{ACAD_REACTORS
330
2F
102
}
330
2F
100
AcDbVisualStyle
  2
Shaded
 70
    27
 71
     2
 72
     2
 73
     1
 90
        2
 40
-0.6
 41
30.0
 62
     5
 63
     7
 74
     0
 91
        4
 64
     7
 65
   257
 75
     1
175
     1
 42
1.0
 92
        8
 66
   257
 43
1.0
 76
     1
 77
     6
 78
     2
 67
     8
 79
     3
170
     0
171
     0
290
     0
174
     0
 93
        5
 44
0.0
173
     0
291
     0
 45
0.0
1001
ACAD
1000
AcDbSavedByObjectVersion
1070
     0
  0
VISUALSTYLE
  5
582
102
{ACAD_XDICTIONARY
360
A33
102
}
102
{ACAD_REACTORS
330
2F
102
}
330
2F
100
AcDbVisualStyle
  2
Shaded with edges
 70
    26
 71
     2
 72
     2
 73
     1
 90
        2
 40
-0.6
 41
30.0
 62
     5
 63
     7
 74
     1
 91
       10
 64
     7
 65
   257
 75
     2
175
     1
 42
1.0
 92
        8
 66
   257
 43
1.0
 76
     1
 77
     6
 78
     2
 67
     7
 79
     3
170
     0
171
     0
290
     0
174
     0
 93
        5
 44
0.0
173
     0
291
     0
 45
0.0
1001
ACAD
1000
AcDbSavedByObjectVersion
1070
     0
  0
VISUALSTYLE
  5
57F
102
{ACAD_XDICTIONARY
360
A2D
102
}
102
{ACAD_REACTORS
330
2F
102
}
330
2F
100
AcDbVisualStyle
  2
Shades of Gray
 70
    23
 71
     2
 72
     2
 73
     3
 90
        0
 40
-0.6
 41
-30.0
 62
     5
 63
     7
 74
     2
 91
        2
 64
     7
 65
     7
 75
     1
175
     1
 42
40.0
 92
        8
 66
     7
 43
1.0
 76
     1
 77
     6
 78
     2
 67
     7
 79
     3
170
     0
171
     0
290
     0
174
     0
 93
        1
 44
0.0
173
     0
291
     0
 45
0.0
1001
ACAD
1000
AcDbSavedByObjectVersion
1070
     0
  0
VISUALSTYLE
  5
580
102
{ACAD_XDICTIONARY
360
A2F
102
}
102
{ACAD_REACTORS
330
2F
102
}
330
2F
100
AcDbVisualStyle
  2
Sketchy
 70
    24
 71
     1
 72
     2
 73
     2
 90
        0
 40
-0.6
 41
-30.0
 62
     5
 63
     7
 74
     2
 91
        2
 64
     7
 65
     7
 75
     1
175
     1
 42
40.0
 92
       11
 66
     7
 43
1.0
 76
     1
 77
     6
 78
     2
 67
     7
 79
     6
170
     0
171
     0
290
     0
174
     0
 93
        1
 44
0.0
173
     0
291
     0
 45
0.0
1001
ACAD
1000
AcDbSavedByObjectVersion
1070
     0
  0
VISUALSTYLE
  5
419
102
{ACAD_XDICTIONARY
360
A1F
102
}
102
{ACAD_REACTORS
330
2F
102
}
330
2F
100
AcDbVisualStyle
  2

 70
    13
 71
     2
 72
     2
 73
     0
 90
        0
 40
-0.6
 41
-30.0
 62
     5
 63
     7
 74
     1
 91
        4
 64
     7
 65
   257
 75
     1
175
     1
 42
1.0
 92
       12
 66
     7
 43
1.0
 76
     1
 77
     6
 78
     2
 67
     7
 79
     5
170
     0
171
     0
290
     0
174
     0
 93
        1
 44
0.0
173
     0
291
     1
 45
0.0
1001
ACAD
1000
AcDbSavedByObjectVersion
1070
     0
  0
VISUALSTYLE
  5
57D
102
{ACAD_XDICTIONARY
360
A29
102
}
102
{ACAD_REACTORS
330
2F
102
}
330
2F
100
AcDbVisualStyle
  2
Wireframe
 70
     5
 71
     0
 72
     2
 73
     0
 90
        0
 40
-0.6
 41
-30.0
 62
     5
 63
     7
 74
     1
 91
        4
 64
     7
 65
   257
 75
     1
175
     1
 42
1.0
 92
        0
 66
   257
 43
1.0
 76
     1
 77
     6
 78
     2
 67
     7
 79
     3
170
     0
171
     0
290
     0
174
     0
 93
        1
 44
0.0
173
     0
291
     0
 45
0.0
1001
ACAD
1000
AcDbSavedByObjectVersion
1070
     0
  0
VISUALSTYLE
  5
581
102
{ACAD_XDICTIONARY
360
A31
102
}
102
{ACAD_REACTORS
330
2F
102
}
330
2F
100
AcDbVisualStyle
  2
X-Ray
 70
    25
 71
     2
 72
     2
 73
     1
 90
        1
 40
0.5
 41
-30.0
 62
     5
 63
     7
 74
     1
 91
        0
 64
     7
 65
   257
 75
     1
175
     1
 42
1.0
 92
        8
 66
     7
 43
1.0
 76
     1
 77
     6
 78
     2
 67
     7
 79
     3
170
     0
171
     0
290
     0
174
     0
 93
       13
 44
0.0
173
     0
291
     0
 45
0.0
1001
ACAD
1000
AcDbSavedByObjectVersion
1070
     0
  0
DICTIONARYVAR
  5
3F9
102
{ACAD_REACTORS
330
3F6
102
}
330
3F6
100
DictionaryVariables
280
     0
  1
1:1
  0
DICTIONARYVAR
  5
3F8
102
{ACAD_REACTORS
330
3F6
102
}
330
3F6
100
DictionaryVariables
280
     0
  1
STANDARD
  0
DICTIONARYVAR
  5
3F7
102
{ACAD_REACTORS
330
3F6
102
}
330
3F6
100
DictionaryVariables
280
     0
  1
STANDARD
  0
DICTIONARYVAR
  5
3FD
102
{ACAD_REACTORS
330
3F6
102
}
330
3F6
100
DictionaryVariables
280
     0
  1
1
  0
DICTIONARYVAR
  5
3FC
102
{ACAD_REACTORS
330
3F6
102
}
330
3F6
100
DictionaryVariables
280
     0
  1
1
  0
DICTIONARYVAR
  5
3FB
102
{ACAD_REACTORS
330
3F6
102
}
330
3F6
100
DictionaryVariables
280
     0
  1
0
  0
DICTIONARYVAR
  5
3FA
102
{ACAD_REACTORS
330
3F6
102
}
330
3F6
100
DictionaryVariables
280
     0
  1
127
  0
DICTIONARYVAR
  5
9FC
102
{ACAD_REACTORS
330
3F6
102
}
330
3F6
100
DictionaryVariables
280
     0
  1
2
  0
DICTIONARY
  5
A04
330
1F
100
AcDbDictionary
280
     1
281
     1
  3
ACAD_XREC_ROUNDTRIP
360
A05
  0
DICTIONARY
  5
A02
330
18
100
AcDbDictionary
280
     1
281
     1
  3
ACAD_XREC_ROUNDTRIP
360
A03
  0
DICTIONARY
  5
41
330
40
100
AcDbDictionary
280
     1
281
     1
  3
ACAD_XREC_ROUNDTRIP
360
408
  3
BUMPTILE
360
42
  3
DIFFUSETILE
360
43
  3
OPACITYTILE
360
44
  3
REFLECTIONTILE
360
45
  3
REFRACTIONTILE
360
46
  3
SPECULARTILE
360
47
  0
DICTIONARY
  5
39
330
38
100
AcDbDictionary
280
     1
281
     1
  3
ACAD_XREC_ROUNDTRIP
360
407
  3
BUMPTILE
360
3A
  3
DIFFUSETILE
360
3B
  3
OPACITYTILE
360
3C
  3
REFLECTIONTILE
360
3D
  3
REFRACTIONTILE
360
3E
  3
SPECULARTILE
360
3F
  0
DICTIONARY
  5
F
330
D
100
AcDbDictionary
280
     1
281
     1
  3
ACAD_XREC_ROUNDTRIP
360
402
  3
BUMPTILE
360
10
  3
DIFFUSETILE
360
11
  3
OPACITYTILE
360
12
  3
REFLECTIONTILE
360
13
  3
REFRACTIONTILE
360
14
  3
SPECULARTILE
360
15
  0
DICTIONARY
  5
4E
330
4D
100
AcDbDictionary
280
     1
281
     1
  3
ACAD_ROUNDTRIP_2008_TABLESTYLE_CELLSTYLEMAP
360
9FD
  3
ACAD_XREC_ROUNDTRIP
360
A08
  0
DICTIONARY
  5
A06
330
2E
100
AcDbDictionary
280
     1
281
     1
  3
ACAD_XREC_ROUNDTRIP
360
A07
  0
DICTIONARY
  5
A17
330
415
100
AcDbDictionary
280
     1
281
     1
  3
ACAD_XREC_ROUNDTRIP
360
A18
  0
DICTIONARY
  5
A0B
330
50
100
AcDbDictionary
280
     1
281
     1
  3
ACAD_XREC_ROUNDTRIP
360
A0C
  0
DICTIONARY
  5
A15
330
414
100
AcDbDictionary
280
     1
281
     1
  3
ACAD_XREC_ROUNDTRIP
360
A16
  0
DICTIONARY
  5
A1D
330
418
100
AcDbDictionary
280
     1
281
     1
  3
ACAD_XREC_ROUNDTRIP
360
A1E
  0
DICTIONARY
  5
A25
330
41C
100
AcDbDictionary
280
     1
281
     1
  3
ACAD_XREC_ROUNDTRIP
360
A26
  0
DICTIONARY
  5
A19
330
416
100
AcDbDictionary
280
     1
281
     1
  3
ACAD_XREC_ROUNDTRIP
360
A1A
  0
DICTIONARY
  5
A1B
330
417
100
AcDbDictionary
280
     1
281
     1
  3
ACAD_XREC_ROUNDTRIP
360
A1C
  0
DICTIONARY
  5
A3B
330
586
100
AcDbDictionary
280
     1
281
     1
  3
ACAD_XREC_ROUNDTRIP
360
A3C
  0
DICTIONARY
  5
A23
330
41B
100
AcDbDictionary
280
     1
281
     1
  3
ACAD_XREC_ROUNDTRIP
360
A24
  0
DICTIONARY
  5
A0D
330
410
100
AcDbDictionary
280
     1
281
     1
  3
ACAD_XREC_ROUNDTRIP
360
A0E
  0
DICTIONARY
  5
A0F
330
411
100
AcDbDictionary
280
     1
281
     1
  3
ACAD_XREC_ROUNDTRIP
360
A10
  0
DICTIONARY
  5
A11
330
412
100
AcDbDictionary
280
     1
281
     1
  3
ACAD_XREC_ROUNDTRIP
360
A12
  0
DICTIONARY
  5
A13
330
413
100
AcDbDictionary
280
     1
281
     1
  3
ACAD_XREC_ROUNDTRIP
360
A14
  0
DICTIONARY
  5
A2B
330
57E
100
AcDbDictionary
280
     1
281
     1
  3
ACAD_XREC_ROUNDTRIP
360
A2C
  0
DICTIONARY
  5
A37
330
584
100
AcDbDictionary
280
     1
281
     1
  3
ACAD_XREC_ROUNDTRIP
360
A38
  0
DICTIONARY
  5
A21
330
41A
100
AcDbDictionary
280
     1
281
     1
  3
ACAD_XREC_ROUNDTRIP
360
A22
  0
DICTIONARY
  5
A39
330
585
100
AcDbDictionary
280
     1
281
     1
  3
ACAD_XREC_ROUNDTRIP
360
A3A
  0
DICTIONARY
  5
A09
330
4F
100
AcDbDictionary
280
     1
281
     1
  3
ACAD_XREC_ROUNDTRIP
360
A0A
  0
DICTIONARY
  5
A35
330
583
100
AcDbDictionary
280
     1
281
     1
  3
ACAD_XREC_ROUNDTRIP
360
A36
  0
DICTIONARY
  5
A33
330
582
100
AcDbDictionary
280
     1
281
     1
  3
ACAD_XREC_ROUNDTRIP
360
A34
  0
DICTIONARY
  5
A2D
330
57F
100
AcDbDictionary
280
     1
281
     1
  3
ACAD_XREC_ROUNDTRIP
360
A2E
  0
DICTIONARY
  5
A2F
330
580
100
AcDbDictionary
280
     1
281
     1
  3
ACAD_XREC_ROUNDTRIP
360
A30
  0
DICTIONARY
  5
A1F
330
419
100
AcDbDictionary
280
     1
281
     1
  3
ACAD_XREC_ROUNDTRIP
360
A20
  0
DICTIONARY
  5
A29
330
57D
100
AcDbDictionary
280
     1
281
     1
  3
ACAD_XREC_ROUNDTRIP
360
A2A
  0
DICTIONARY
  5
A31
330
581
100
AcDbDictionary
280
     1
281
     1
  3
ACAD_XREC_ROUNDTRIP
360
A32
  0
XRECORD
  5
A05
102
{ACAD_REACTORS
330
A04
102
}
330
A04
100
AcDbXrecord
280
     1
102
SHADEPLOT
 70
     0
102
SHADEPLOTRESLEVEL
 70
     2
102
SHADEPLOTCUSTOMDPI
 70
   300
  0
XRECORD
  5
A03
102
{ACAD_REACTORS
330
A02
102
}
330
A02
100
AcDbXrecord
280
     1
102
SHADEPLOT
 70
     0
102
SHADEPLOTRESLEVEL
 70
     2
102
SHADEPLOTCUSTOMDPI
 70
   300
  0
XRECORD
  5
408
102
{ACAD_REACTORS
330
41
102
}
330
41
100
AcDbXrecord
280
     1
102
MATERIAL
148
0.0
149
0.0
149
0.0
 93
        0
 94
      127
282
     0
 72
     0
 77
     0
171
     0
175
     0
179
     0
273
     0
  0
XRECORD
  5
42
102
{ACAD_REACTORS
330
41
102
}
330
41
100
AcDbXrecord
280
     1
270
     1
271
     1
  0
XRECORD
  5
43
102
{ACAD_REACTORS
330
41
102
}
330
41
100
AcDbXrecord
280
     1
270
     1
271
     1
  0
XRECORD
  5
44
102
{ACAD_REACTORS
330
41
102
}
330
41
100
AcDbXrecord
280
     1
270
     1
271
     1
  0
XRECORD
  5
45
102
{ACAD_REACTORS
330
41
102
}
330
41
100
AcDbXrecord
280
     1
270
     1
271
     1
  0
XRECORD
  5
46
102
{ACAD_REACTORS
330
41
102
}
330
41
100
AcDbXrecord
280
     1
270
     1
271
     1
  0
XRECORD
  5
47
102
{ACAD_REACTORS
330
41
102
}
330
41
100
AcDbXrecord
280
     1
270
     1
271
     1
  0
XRECORD
  5
407
102
{ACAD_REACTORS
330
39
102
}
330
39
100
AcDbXrecord
280
     1
102
MATERIAL
148
0.0
149
0.0
149
0.0
 93
        0
 94
      127
282
     0
 72
     0
 77
     0
171
     0
175
     0
179
     0
273
     0
  0
XRECORD
  5
3A
102
{ACAD_REACTORS
330
39
102
}
330
39
100
AcDbXrecord
280
     1
270
     1
271
     1
  0
XRECORD
  5
3B
102
{ACAD_REACTORS
330
39
102
}
330
39
100
AcDbXrecord
280
     1
270
     1
271
     1
  0
XRECORD
  5
3C
102
{ACAD_REACTORS
330
39
102
}
330
39
100
AcDbXrecord
280
     1
270
     1
271
     1
  0
XRECORD
  5
3D
102
{ACAD_REACTORS
330
39
102
}
330
39
100
AcDbXrecord
280
     1
270
     1
271
     1
  0
XRECORD
  5
3E
102
{ACAD_REACTORS
330
39
102
}
330
39
100
AcDbXrecord
280
     1
270
     1
271
     1
  0
XRECORD
  5
3F
102
{ACAD_REACTORS
330
39
102
}
330
39
100
AcDbXrecord
280
     1
270
     1
271
     1
  0
XRECORD
  5
402
102
{ACAD_REACTORS
330
F
102
}
330
F
100
AcDbXrecord
280
     1
102
MATERIAL
148
0.0
149
0.0
149
0.0
 93
        0
 94
      127
282
     0
 72
     0
 77
     0
171
     0
175
     0
179
     0
273
     0
  0
XRECORD
  5
10
102
{ACAD_REACTORS
330
F
102
}
330
F
100
AcDbXrecord
280
     1
270
     1
271
     1
  0
XRECORD
  5
11
102
{ACAD_REACTORS
330
F
102
}
330
F
100
AcDbXrecord
280
     1
270
     1
271
     1
  0
XRECORD
  5
12
102
{ACAD_REACTORS
330
F
102
}
330
F
100
AcDbXrecord
280
     1
270
     1
271
     1
  0
XRECORD
  5
13
102
{ACAD_REACTORS
330
F
102
}
330
F
100
AcDbXrecord
280
     1
270
     1
271
     1
  0
XRECORD
  5
14
102
{ACAD_REACTORS
330
F
102
}
330
F
100
AcDbXrecord
280
     1
270
     1
271
     1
  0
XRECORD
  5
15
102
{ACAD_REACTORS
330
F
102
}
330
F
100
AcDbXrecord
280
     1
270
     1
271
     1
  0
CELLSTYLEMAP
  5
9FD
102
{ACAD_REACTORS
330
4E
102
}
330
4E
100
AcDbCellStyleMap
 90
        3
300
CELLSTYLE
  1
TABLEFORMAT_BEGIN
 90
        5
170
     1
 91
        0
 92
    32768
 62
   257
 93
        1
300
CONTENTFORMAT
  1
CONTENTFORMAT_BEGIN
 90
        0
 91
        0
 92
      512
 93
        0
300

 40
0.0
140
1.0
 94
        5
 62
     0
340
25
144
6.0
309
CONTENTFORMAT_END
171
     1
301
MARGIN
  1
CELLMARGIN_BEGIN
 40
1.5
 40
1.5
 40
1.5
 40
1.5
 40
0.18
 40
0.18
309
CELLMARGIN_END
 94
        6
 95
        1
302
GRIDFORMAT
  1
GRIDFORMAT_BEGIN
 90
        0
 91
        1
 62
     0
 92
       -2
340
0
 93
        0
 40
1.125
309
GRIDFORMAT_END
 95
        2
302
GRIDFORMAT
  1
GRIDFORMAT_BEGIN
 90
        0
 91
        1
 62
     0
 92
       -2
340
0
 93
        0
 40
1.125
309
GRIDFORMAT_END
 95
        4
302
GRIDFORMAT
  1
GRIDFORMAT_BEGIN
 90
        0
 91
        1
 62
     0
 92
       -2
340
0
 93
        0
 40
1.125
309
GRIDFORMAT_END
 95
        8
302
GRIDFORMAT
  1
GRIDFORMAT_BEGIN
 90
        0
 91
        1
 62
     0
 92
       -2
340
0
 93
        0
 40
1.125
309
GRIDFORMAT_END
 95
       16
302
GRIDFORMAT
  1
GRIDFORMAT_BEGIN
 90
        0
 91
        1
 62
     0
 92
       -2
340
0
 93
        0
 40
1.125
309
GRIDFORMAT_END
 95
       32
302
GRIDFORMAT
  1
GRIDFORMAT_BEGIN
 90
        0
 91
        1
 62
     0
 92
       -2
340
0
 93
        0
 40
1.125
309
GRIDFORMAT_END
309
TABLEFORMAT_END
  1
CELLSTYLE_BEGIN
 90
        1
 91
        1
300
_TITLE
309
CELLSTYLE_END
300
CELLSTYLE
  1
TABLEFORMAT_BEGIN
 90
        5
170
     1
 91
        0
 92
        0
 62
   257
 93
        1
300
CONTENTFORMAT
  1
CONTENTFORMAT_BEGIN
 90
        0
 91
        0
 92
      512
 93
        0
300

 40
0.0
140
1.0
 94
        5
 62
     0
340
25
144
4.5
309
CONTENTFORMAT_END
171
     1
301
MARGIN
  1
CELLMARGIN_BEGIN
 40
1.5
 40
1.5
 40
1.5
 40
1.5
 40
0.18
 40
0.18
309
CELLMARGIN_END
 94
        6
 95
        1
302
GRIDFORMAT
  1
GRIDFORMAT_BEGIN
 90
        0
 91
        1
 62
     0
 92
       -2
340
0
 93
        0
 40
1.125
309
GRIDFORMAT_END
 95
        2
302
GRIDFORMAT
  1
GRIDFORMAT_BEGIN
 90
        0
 91
        1
 62
     0
 92
       -2
340
0
 93
        0
 40
1.125
309
GRIDFORMAT_END
 95
        4
302
GRIDFORMAT
  1
GRIDFORMAT_BEGIN
 90
        0
 91
        1
 62
     0
 92
       -2
340
0
 93
        0
 40
1.125
309
GRIDFORMAT_END
 95
        8
302
GRIDFORMAT
  1
GRIDFORMAT_BEGIN
 90
        0
 91
        1
 62
     0
 92
       -2
340
0
 93
        0
 40
1.125
309
GRIDFORMAT_END
 95
       16
302
GRIDFORMAT
  1
GRIDFORMAT_BEGIN
 90
        0
 91
        1
 62
     0
 92
       -2
340
0
 93
        0
 40
1.125
309
GRIDFORMAT_END
 95
       32
302
GRIDFORMAT
  1
GRIDFORMAT_BEGIN
 90
        0
 91
        1
 62
     0
 92
       -2
340
0
 93
        0
 40
1.125
309
GRIDFORMAT_END
309
TABLEFORMAT_END
  1
CELLSTYLE_BEGIN
 90
        2
 91
        1
300
_HEADER
309
CELLSTYLE_END
300
CELLSTYLE
  1
TABLEFORMAT_BEGIN
 90
        5
170
     1
 91
        0
 92
        0
 62
   257
 93
        1
300
CONTENTFORMAT
  1
CONTENTFORMAT_BEGIN
 90
        0
 91
        0
 92
      512
 93
        0
300

 40
0.0
140
1.0
 94
        2
 62
     0
340
25
144
4.5
309
CONTENTFORMAT_END
171
     1
301
MARGIN
  1
CELLMARGIN_BEGIN
 40
1.5
 40
1.5
 40
1.5
 40
1.5
 40
0.18
 40
0.18
309
CELLMARGIN_END
 94
        6
 95
        1
302
GRIDFORMAT
  1
GRIDFORMAT_BEGIN
 90
        0
 91
        1
 62
     0
 92
       -2
340
0
 93
        0
 40
1.125
309
GRIDFORMAT_END
 95
        2
302
GRIDFORMAT
  1
GRIDFORMAT_BEGIN
 90
        0
 91
        1
 62
     0
 92
       -2
340
0
 93
        0
 40
1.125
309
GRIDFORMAT_END
 95
        4
302
GRIDFORMAT
  1
GRIDFORMAT_BEGIN
 90
        0
 91
        1
 62
     0
 92
       -2
340
0
 93
        0
 40
1.125
309
GRIDFORMAT_END
 95
        8
302
GRIDFORMAT
  1
GRIDFORMAT_BEGIN
 90
        0
 91
        1
 62
     0
 92
       -2
340
0
 93
        0
 40
1.125
309
GRIDFORMAT_END
 95
       16
302
GRIDFORMAT
  1
GRIDFORMAT_BEGIN
 90
        0
 91
        1
 62
     0
 92
       -2
340
0
 93
        0
 40
1.125
309
GRIDFORMAT_END
 95
       32
302
GRIDFORMAT
  1
GRIDFORMAT_BEGIN
 90
        0
 91
        1
 62
     0
 92
       -2
340
0
 93
        0
 40
1.125
309
GRIDFORMAT_END
309
TABLEFORMAT_END
  1
CELLSTYLE_BEGIN
 90
        3
 91
        2
300
_DATA
309
CELLSTYLE_END
  0
XRECORD
  5
A08
102
{ACAD_REACTORS
330
4E
102
}
330
4E
100
AcDbXrecord
280
     1
102
ACAD_ROUNDTRIP_PRE2007_TABLESTYLE
 90
      512
 91
        0
  1

 92
      512
 93
        0
  2

 94
      512
 95
        0
  3

  0
XRECORD
  5
A07
102
{ACAD_REACTORS
330
A06
102
}
330
A06
100
AcDbXrecord
280
     1
102
RTVSPropertyOp0
 70
     1
102
RTVSPropertyOp1
 70
     1
102
RTVSPropertyOp2
 70
     1
102
RTVSPropertyOp3
 70
     1
102
RTVSPropertyOp4
 70
     1
102
RTVSPropertyOp5
 70
     1
102
RTVSPropertyOp6
 70
     1
102
RTVSPropertyOp7
 70
     1
102
RTVSPropertyOp8
 70
     1
102
RTVSPropertyOp9
 70
     1
102
RTVSPropertyOp10
 70
     1
102
RTVSPropertyOp11
 70
     1
102
RTVSPropertyOp12
 70
     1
102
RTVSPropertyOp13
 70
     1
102
RTVSPropertyOp14
 70
     1
102
RTVSPropertyOp15
 70
     1
102
RTVSPropertyOp16
 70
     1
102
RTVSPropertyOp17
 70
     1
102
RTVSPropertyOp18
 70
     1
102
RTVSPropertyOp19
 70
     1
102
RTVSPropertyOp20
 70
     1
102
RTVSPropertyOp21
 70
     1
102
RTVSPropertyOp22
 70
     1
102
RTVSPropertyOp23
 70
     1
102
RTVSPropertyOp24
 70
     1
102
RTVSPropertyOp25
 70
     1
102
RTVSPropertyOp26
 70
     1
102
RTVSPropertyOp27
 70
     1
102
RTVSPropertyOp28
 70
     1
102
RTVSPropertyOp29
 70
     1
102
RTVSPropertyOp30
 70
     1
102
RTVSPropertyOp31
 70
     1
102
RTVSPropertyOp32
 70
     1
  0
XRECORD
  5
A18
102
{ACAD_REACTORS
330
A17
102
}
330
A17
100
AcDbXrecord
280
     1
102
RTVSPropertyOp0
 70
     1
102
RTVSPropertyOp1
 70
     1
102
RTVSPropertyOp2
 70
     1
102
RTVSPropertyOp3
 70
     1
102
RTVSPropertyOp4
 70
     1
102
RTVSPropertyOp5
 70
     1
102
RTVSPropertyOp6
 70
     1
102
RTVSPropertyOp7
 70
     1
102
RTVSPropertyOp8
 70
     1
102
RTVSPropertyOp9
 70
     1
102
RTVSPropertyOp10
 70
     1
102
RTVSPropertyOp11
 70
     1
102
RTVSPropertyOp12
 70
     1
102
RTVSPropertyOp13
 70
     1
102
RTVSPropertyOp14
 70
     1
102
RTVSPropertyOp15
 70
     1
102
RTVSPropertyOp16
 70
     1
102
RTVSPropertyOp17
 70
     1
102
RTVSPropertyOp18
 70
     1
102
RTVSPropertyOp19
 70
     1
102
RTVSPropertyOp20
 70
     1
102
RTVSPropertyOp21
 70
     1
102
RTVSPropertyOp22
 70
     1
102
RTVSPropertyOp23
 70
     1
102
RTVSPropertyOp24
 70
     1
102
RTVSPropertyOp25
 70
     1
102
RTVSPropertyOp26
 70
     1
102
RTVSPropertyOp27
 70
     1
102
RTVSPropertyOp28
 70
     1
102
RTVSPropertyOp29
 70
     1
102
RTVSPropertyOp30
 70
     1
102
RTVSPropertyOp31
 70
     1
102
RTVSPropertyOp32
 70
     1
  0
XRECORD
  5
A0C
102
{ACAD_REACTORS
330
A0B
102
}
330
A0B
100
AcDbXrecord
280
     1
102
RTVSPropertyOp0
 70
     1
102
RTVSPropertyOp1
 70
     1
102
RTVSPropertyOp2
 70
     1
102
RTVSPropertyOp3
 70
     1
102
RTVSPropertyOp4
 70
     1
102
RTVSPropertyOp5
 70
     1
102
RTVSPropertyOp6
 70
     1
102
RTVSPropertyOp7
 70
     1
102
RTVSPropertyOp8
 70
     1
102
RTVSPropertyOp9
 70
     1
102
RTVSPropertyOp10
 70
     1
102
RTVSPropertyOp11
 70
     1
102
RTVSPropertyOp12
 70
     1
102
RTVSPropertyOp13
 70
     1
102
RTVSPropertyOp14
 70
     1
102
RTVSPropertyOp15
 70
     1
102
RTVSPropertyOp16
 70
     1
102
RTVSPropertyOp17
 70
     1
102
RTVSPropertyOp18
 70
     1
102
RTVSPropertyOp19
 70
     1
102
RTVSPropertyOp20
 70
     1
102
RTVSPropertyOp21
 70
     1
102
RTVSPropertyOp22
 70
     1
102
RTVSPropertyOp23
 70
     1
102
RTVSPropertyOp24
 70
     1
102
RTVSPropertyOp25
 70
     1
102
RTVSPropertyOp26
 70
     1
102
RTVSPropertyOp27
 70
     1
102
RTVSPropertyOp28
 70
     1
102
RTVSPropertyOp29
 70
     1
102
RTVSPropertyOp30
 70
     1
102
RTVSPropertyOp31
 70
     1
102
RTVSPropertyOp32
 70
     1
  0
XRECORD
  5
A16
102
{ACAD_REACTORS
330
A15
102
}
330
A15
100
AcDbXrecord
280
     1
102
RTVSPropertyOp0
 70
     1
102
RTVSPropertyOp1
 70
     1
102
RTVSPropertyOp2
 70
     1
102
RTVSPropertyOp3
 70
     1
102
RTVSPropertyOp4
 70
     1
102
RTVSPropertyOp5
 70
     1
102
RTVSPropertyOp6
 70
     1
102
RTVSPropertyOp7
 70
     1
102
RTVSPropertyOp8
 70
     1
102
RTVSPropertyOp9
 70
     1
102
RTVSPropertyOp10
 70
     1
102
RTVSPropertyOp11
 70
     1
102
RTVSPropertyOp12
 70
     1
102
RTVSPropertyOp13
 70
     1
102
RTVSPropertyOp14
 70
     1
102
RTVSPropertyOp15
 70
     1
102
RTVSPropertyOp16
 70
     1
102
RTVSPropertyOp17
 70
     1
102
RTVSPropertyOp18
 70
     1
102
RTVSPropertyOp19
 70
     1
102
RTVSPropertyOp20
 70
     1
102
RTVSPropertyOp21
 70
     1
102
RTVSPropertyOp22
 70
     1
102
RTVSPropertyOp23
 70
     1
102
RTVSPropertyOp24
 70
     1
102
RTVSPropertyOp25
 70
     1
102
RTVSPropertyOp26
 70
     1
102
RTVSPropertyOp27
 70
     1
102
RTVSPropertyOp28
 70
     1
102
RTVSPropertyOp29
 70
     1
102
RTVSPropertyOp30
 70
     1
102
RTVSPropertyOp31
 70
     1
102
RTVSPropertyOp32
 70
     1
  0
XRECORD
  5
A1E
102
{ACAD_REACTORS
330
A1D
102
}
330
A1D
100
AcDbXrecord
280
     1
102
RTVSPropertyOp0
 70
     1
102
RTVSPropertyOp1
 70
     1
102
RTVSPropertyOp2
 70
     1
102
RTVSPropertyOp3
 70
     1
102
RTVSPropertyOp4
 70
     1
102
RTVSPropertyOp5
 70
     1
102
RTVSPropertyOp6
 70
     1
102
RTVSPropertyOp7
 70
     1
102
RTVSPropertyOp8
 70
     1
102
RTVSPropertyOp9
 70
     1
102
RTVSPropertyOp10
 70
     1
102
RTVSPropertyOp11
 70
     1
102
RTVSPropertyOp12
 70
     1
102
RTVSPropertyOp13
 70
     1
102
RTVSPropertyOp14
 70
     1
102
RTVSPropertyOp15
 70
     1
102
RTVSPropertyOp16
 70
     1
102
RTVSPropertyOp17
 70
     1
102
RTVSPropertyOp18
 70
     1
102
RTVSPropertyOp19
 70
     1
102
RTVSPropertyOp20
 70
     1
102
RTVSPropertyOp21
 70
     1
102
RTVSPropertyOp22
 70
     1
102
RTVSPropertyOp23
 70
     1
102
RTVSPropertyOp24
 70
     1
102
RTVSPropertyOp25
 70
     1
102
RTVSPropertyOp26
 70
     1
102
RTVSPropertyOp27
 70
     1
102
RTVSPropertyOp28
 70
     1
102
RTVSPropertyOp29
 70
     1
102
RTVSPropertyOp30
 70
     1
102
RTVSPropertyOp31
 70
     1
102
RTVSPropertyOp32
 70
     1
  0
XRECORD
  5
A26
102
{ACAD_REACTORS
330
A25
102
}
330
A25
100
AcDbXrecord
280
     1
102
RTVSPropertyOp0
 70
     1
102
RTVSPropertyOp1
 70
     1
102
RTVSPropertyOp2
 70
     1
102
RTVSPropertyOp3
 70
     1
102
RTVSPropertyOp4
 70
     1
102
RTVSPropertyOp5
 70
     1
102
RTVSPropertyOp6
 70
     1
102
RTVSPropertyOp7
 70
     1
102
RTVSPropertyOp8
 70
     1
102
RTVSPropertyOp9
 70
     1
102
RTVSPropertyOp10
 70
     1
102
RTVSPropertyOp11
 70
     1
102
RTVSPropertyOp12
 70
     1
102
RTVSPropertyOp13
 70
     1
102
RTVSPropertyOp14
 70
     1
102
RTVSPropertyOp15
 70
     1
102
RTVSPropertyOp16
 70
     1
102
RTVSPropertyOp17
 70
     1
102
RTVSPropertyOp18
 70
     1
102
RTVSPropertyOp19
 70
     1
102
RTVSPropertyOp20
 70
     1
102
RTVSPropertyOp21
 70
     1
102
RTVSPropertyOp22
 70
     1
102
RTVSPropertyOp23
 70
     1
102
RTVSPropertyOp24
 70
     1
102
RTVSPropertyOp25
 70
     1
102
RTVSPropertyOp26
 70
     1
102
RTVSPropertyOp27
 70
     1
102
RTVSPropertyOp28
 70
     1
102
RTVSPropertyOp29
 70
     1
102
RTVSPropertyOp30
 70
     1
102
RTVSPropertyOp31
 70
     1
102
RTVSPropertyOp32
 70
     1
  0
XRECORD
  5
A1A
102
{ACAD_REACTORS
330
A19
102
}
330
A19
100
AcDbXrecord
280
     1
102
RTVSPropertyOp0
 70
     1
102
RTVSPropertyOp1
 70
     1
102
RTVSPropertyOp2
 70
     1
102
RTVSPropertyOp3
 70
     1
102
RTVSPropertyOp4
 70
     1
102
RTVSPropertyOp5
 70
     1
102
RTVSPropertyOp6
 70
     1
102
RTVSPropertyOp7
 70
     1
102
RTVSPropertyOp8
 70
     1
102
RTVSPropertyOp9
 70
     1
102
RTVSPropertyOp10
 70
     1
102
RTVSPropertyOp11
 70
     1
102
RTVSPropertyOp12
 70
     1
102
RTVSPropertyOp13
 70
     1
102
RTVSPropertyOp14
 70
     1
102
RTVSPropertyOp15
 70
     1
102
RTVSPropertyOp16
 70
     1
102
RTVSPropertyOp17
 70
     1
102
RTVSPropertyOp18
 70
     1
102
RTVSPropertyOp19
 70
     1
102
RTVSPropertyOp20
 70
     1
102
RTVSPropertyOp21
 70
     1
102
RTVSPropertyOp22
 70
     1
102
RTVSPropertyOp23
 70
     1
102
RTVSPropertyOp24
 70
     1
102
RTVSPropertyOp25
 70
     1
102
RTVSPropertyOp26
 70
     1
102
RTVSPropertyOp27
 70
     1
102
RTVSPropertyOp28
 70
     1
102
RTVSPropertyOp29
 70
     1
102
RTVSPropertyOp30
 70
     1
102
RTVSPropertyOp31
 70
     1
102
RTVSPropertyOp32
 70
     1
  0
XRECORD
  5
A1C
102
{ACAD_REACTORS
330
A1B
102
}
330
A1B
100
AcDbXrecord
280
     1
102
RTVSPropertyOp0
 70
     1
102
RTVSPropertyOp1
 70
     1
102
RTVSPropertyOp2
 70
     1
102
RTVSPropertyOp3
 70
     1
102
RTVSPropertyOp4
 70
     1
102
RTVSPropertyOp5
 70
     1
102
RTVSPropertyOp6
 70
     1
102
RTVSPropertyOp7
 70
     1
102
RTVSPropertyOp8
 70
     1
102
RTVSPropertyOp9
 70
     1
102
RTVSPropertyOp10
 70
     1
102
RTVSPropertyOp11
 70
     1
102
RTVSPropertyOp12
 70
     1
102
RTVSPropertyOp13
 70
     1
102
RTVSPropertyOp14
 70
     1
102
RTVSPropertyOp15
 70
     1
102
RTVSPropertyOp16
 70
     1
102
RTVSPropertyOp17
 70
     1
102
RTVSPropertyOp18
 70
     1
102
RTVSPropertyOp19
 70
     1
102
RTVSPropertyOp20
 70
     1
102
RTVSPropertyOp21
 70
     1
102
RTVSPropertyOp22
 70
     1
102
RTVSPropertyOp23
 70
     1
102
RTVSPropertyOp24
 70
     1
102
RTVSPropertyOp25
 70
     1
102
RTVSPropertyOp26
 70
     1
102
RTVSPropertyOp27
 70
     1
102
RTVSPropertyOp28
 70
     1
102
RTVSPropertyOp29
 70
     1
102
RTVSPropertyOp30
 70
     1
102
RTVSPropertyOp31
 70
     1
102
RTVSPropertyOp32
 70
     1
  0
XRECORD
  5
A3C
102
{ACAD_REACTORS
330
A3B
102
}
330
A3B
100
AcDbXrecord
280
     1
102
RTVSPropertyOp0
 70
     0
102
RTVSPropertyOp1
 70
     0
102
RTVSPropertyOp2
 70
     0
102
RTVSPropertyOp3
 70
     0
102
RTVSPropertyOp4
 70
     0
102
RTVSPropertyOp5
 70
     0
102
RTVSPropertyOp6
 70
     0
102
RTVSPropertyOp7
 70
     0
102
RTVSPropertyOp8
 70
     0
102
RTVSPropertyOp9
 70
     0
102
RTVSPropertyOp10
 70
     0
102
RTVSPropertyOp11
 70
     0
102
RTVSPropertyOp12
 70
     0
102
RTVSPropertyOp13
 70
     0
102
RTVSPropertyOp14
 70
     2
102
RTVSPropertyOp15
 70
     0
102
RTVSPropertyOp16
 70
     0
102
RTVSPropertyOp17
 70
     0
102
RTVSPropertyOp18
 70
     0
102
RTVSPropertyOp19
 70
     0
102
RTVSPropertyOp20
 70
     0
102
RTVSPropertyOp21
 70
     0
102
RTVSPropertyOp22
 70
     0
102
RTVSPropertyOp23
 70
     0
102
RTVSPropertyOp24
 70
     0
102
RTVSPropertyOp25
 70
     0
102
RTVSPropertyOp26
 70
     0
102
RTVSPropertyOp27
 70
     0
102
RTVSPropertyOp28
 70
     0
102
RTVSPropertyOp29
 70
     0
102
RTVSPropertyOp30
 70
     0
102
RTVSPropertyOp31
 70
     0
102
RTVSPropertyOp32
 70
     0
  0
XRECORD
  5
A24
102
{ACAD_REACTORS
330
A23
102
}
330
A23
100
AcDbXrecord
280
     1
102
RTVSPropertyOp0
 70
     1
102
RTVSPropertyOp1
 70
     1
102
RTVSPropertyOp2
 70
     1
102
RTVSPropertyOp3
 70
     1
102
RTVSPropertyOp4
 70
     1
102
RTVSPropertyOp5
 70
     1
102
RTVSPropertyOp6
 70
     1
102
RTVSPropertyOp7
 70
     1
102
RTVSPropertyOp8
 70
     1
102
RTVSPropertyOp9
 70
     1
102
RTVSPropertyOp10
 70
     1
102
RTVSPropertyOp11
 70
     1
102
RTVSPropertyOp12
 70
     1
102
RTVSPropertyOp13
 70
     1
102
RTVSPropertyOp14
 70
     1
102
RTVSPropertyOp15
 70
     1
102
RTVSPropertyOp16
 70
     1
102
RTVSPropertyOp17
 70
     1
102
RTVSPropertyOp18
 70
     1
102
RTVSPropertyOp19
 70
     1
102
RTVSPropertyOp20
 70
     1
102
RTVSPropertyOp21
 70
     1
102
RTVSPropertyOp22
 70
     1
102
RTVSPropertyOp23
 70
     1
102
RTVSPropertyOp24
 70
     1
102
RTVSPropertyOp25
 70
     1
102
RTVSPropertyOp26
 70
     1
102
RTVSPropertyOp27
 70
     1
102
RTVSPropertyOp28
 70
     1
102
RTVSPropertyOp29
 70
     1
102
RTVSPropertyOp30
 70
     1
102
RTVSPropertyOp31
 70
     1
102
RTVSPropertyOp32
 70
     1
  0
XRECORD
  5
A0E
102
{ACAD_REACTORS
330
A0D
102
}
330
A0D
100
AcDbXrecord
280
     1
102
RTVSPropertyOp0
 70
     1
102
RTVSPropertyOp1
 70
     1
102
RTVSPropertyOp2
 70
     1
102
RTVSPropertyOp3
 70
     1
102
RTVSPropertyOp4
 70
     1
102
RTVSPropertyOp5
 70
     1
102
RTVSPropertyOp6
 70
     1
102
RTVSPropertyOp7
 70
     1
102
RTVSPropertyOp8
 70
     1
102
RTVSPropertyOp9
 70
     1
102
RTVSPropertyOp10
 70
     1
102
RTVSPropertyOp11
 70
     1
102
RTVSPropertyOp12
 70
     1
102
RTVSPropertyOp13
 70
     1
102
RTVSPropertyOp14
 70
     1
102
RTVSPropertyOp15
 70
     1
102
RTVSPropertyOp16
 70
     1
102
RTVSPropertyOp17
 70
     1
102
RTVSPropertyOp18
 70
     1
102
RTVSPropertyOp19
 70
     1
102
RTVSPropertyOp20
 70
     1
102
RTVSPropertyOp21
 70
     1
102
RTVSPropertyOp22
 70
     1
102
RTVSPropertyOp23
 70
     1
102
RTVSPropertyOp24
 70
     1
102
RTVSPropertyOp25
 70
     1
102
RTVSPropertyOp26
 70
     1
102
RTVSPropertyOp27
 70
     1
102
RTVSPropertyOp28
 70
     1
102
RTVSPropertyOp29
 70
     1
102
RTVSPropertyOp30
 70
     1
102
RTVSPropertyOp31
 70
     1
102
RTVSPropertyOp32
 70
     1
  0
XRECORD
  5
A10
102
{ACAD_REACTORS
330
A0F
102
}
330
A0F
100
AcDbXrecord
280
     1
102
RTVSPropertyOp0
 70
     1
102
RTVSPropertyOp1
 70
     1
102
RTVSPropertyOp2
 70
     1
102
RTVSPropertyOp3
 70
     1
102
RTVSPropertyOp4
 70
     1
102
RTVSPropertyOp5
 70
     1
102
RTVSPropertyOp6
 70
     1
102
RTVSPropertyOp7
 70
     1
102
RTVSPropertyOp8
 70
     1
102
RTVSPropertyOp9
 70
     1
102
RTVSPropertyOp10
 70
     1
102
RTVSPropertyOp11
 70
     1
102
RTVSPropertyOp12
 70
     1
102
RTVSPropertyOp13
 70
     1
102
RTVSPropertyOp14
 70
     1
102
RTVSPropertyOp15
 70
     1
102
RTVSPropertyOp16
 70
     1
102
RTVSPropertyOp17
 70
     1
102
RTVSPropertyOp18
 70
     1
102
RTVSPropertyOp19
 70
     1
102
RTVSPropertyOp20
 70
     1
102
RTVSPropertyOp21
 70
     1
102
RTVSPropertyOp22
 70
     1
102
RTVSPropertyOp23
 70
     1
102
RTVSPropertyOp24
 70
     1
102
RTVSPropertyOp25
 70
     1
102
RTVSPropertyOp26
 70
     1
102
RTVSPropertyOp27
 70
     1
102
RTVSPropertyOp28
 70
     1
102
RTVSPropertyOp29
 70
     1
102
RTVSPropertyOp30
 70
     1
102
RTVSPropertyOp31
 70
     1
102
RTVSPropertyOp32
 70
     1
  0
XRECORD
  5
A12
102
{ACAD_REACTORS
330
A11
102
}
330
A11
100
AcDbXrecord
280
     1
102
RTVSPropertyOp0
 70
     1
102
RTVSPropertyOp1
 70
     1
102
RTVSPropertyOp2
 70
     1
102
RTVSPropertyOp3
 70
     1
102
RTVSPropertyOp4
 70
     1
102
RTVSPropertyOp5
 70
     1
102
RTVSPropertyOp6
 70
     1
102
RTVSPropertyOp7
 70
     1
102
RTVSPropertyOp8
 70
     1
102
RTVSPropertyOp9
 70
     1
102
RTVSPropertyOp10
 70
     1
102
RTVSPropertyOp11
 70
     1
102
RTVSPropertyOp12
 70
     1
102
RTVSPropertyOp13
 70
     1
102
RTVSPropertyOp14
 70
     1
102
RTVSPropertyOp15
 70
     1
102
RTVSPropertyOp16
 70
     1
102
RTVSPropertyOp17
 70
     1
102
RTVSPropertyOp18
 70
     1
102
RTVSPropertyOp19
 70
     1
102
RTVSPropertyOp20
 70
     1
102
RTVSPropertyOp21
 70
     1
102
RTVSPropertyOp22
 70
     1
102
RTVSPropertyOp23
 70
     1
102
RTVSPropertyOp24
 70
     1
102
RTVSPropertyOp25
 70
     1
102
RTVSPropertyOp26
 70
     1
102
RTVSPropertyOp27
 70
     1
102
RTVSPropertyOp28
 70
     1
102
RTVSPropertyOp29
 70
     1
102
RTVSPropertyOp30
 70
     1
102
RTVSPropertyOp31
 70
     1
102
RTVSPropertyOp32
 70
     1
  0
XRECORD
  5
A14
102
{ACAD_REACTORS
330
A13
102
}
330
A13
100
AcDbXrecord
280
     1
102
RTVSPropertyOp0
 70
     1
102
RTVSPropertyOp1
 70
     1
102
RTVSPropertyOp2
 70
     1
102
RTVSPropertyOp3
 70
     1
102
RTVSPropertyOp4
 70
     1
102
RTVSPropertyOp5
 70
     1
102
RTVSPropertyOp6
 70
     1
102
RTVSPropertyOp7
 70
     1
102
RTVSPropertyOp8
 70
     1
102
RTVSPropertyOp9
 70
     1
102
RTVSPropertyOp10
 70
     1
102
RTVSPropertyOp11
 70
     1
102
RTVSPropertyOp12
 70
     1
102
RTVSPropertyOp13
 70
     1
102
RTVSPropertyOp14
 70
     1
102
RTVSPropertyOp15
 70
     1
102
RTVSPropertyOp16
 70
     1
102
RTVSPropertyOp17
 70
     1
102
RTVSPropertyOp18
 70
     1
102
RTVSPropertyOp19
 70
     1
102
RTVSPropertyOp20
 70
     1
102
RTVSPropertyOp21
 70
     1
102
RTVSPropertyOp22
 70
     1
102
RTVSPropertyOp23
 70
     1
102
RTVSPropertyOp24
 70
     1
102
RTVSPropertyOp25
 70
     1
102
RTVSPropertyOp26
 70
     1
102
RTVSPropertyOp27
 70
     1
102
RTVSPropertyOp28
 70
     1
102
RTVSPropertyOp29
 70
     1
102
RTVSPropertyOp30
 70
     1
102
RTVSPropertyOp31
 70
     1
102
RTVSPropertyOp32
 70
     1
  0
XRECORD
  5
A2C
102
{ACAD_REACTORS
330
A2B
102
}
330
A2B
100
AcDbXrecord
280
     1
102
RTVSPropertyOp0
 70
     1
102
RTVSPropertyOp1
 70
     1
102
RTVSPropertyOp2
 70
     1
102
RTVSPropertyOp3
 70
     1
102
RTVSPropertyOp4
 70
     1
102
RTVSPropertyOp5
 70
     1
102
RTVSPropertyOp6
 70
     1
102
RTVSPropertyOp7
 70
     1
102
RTVSPropertyOp8
 70
     1
102
RTVSPropertyOp9
 70
     1
102
RTVSPropertyOp10
 70
     1
102
RTVSPropertyOp11
 70
     1
102
RTVSPropertyOp12
 70
     1
102
RTVSPropertyOp13
 70
     1
102
RTVSPropertyOp14
 70
     1
102
RTVSPropertyOp15
 70
     1
102
RTVSPropertyOp16
 70
     1
102
RTVSPropertyOp17
 70
     1
102
RTVSPropertyOp18
 70
     1
102
RTVSPropertyOp19
 70
     1
102
RTVSPropertyOp20
 70
     1
102
RTVSPropertyOp21
 70
     1
102
RTVSPropertyOp22
 70
     1
102
RTVSPropertyOp23
 70
     1
102
RTVSPropertyOp24
 70
     1
102
RTVSPropertyOp25
 70
     1
102
RTVSPropertyOp26
 70
     1
102
RTVSPropertyOp27
 70
     1
102
RTVSPropertyOp28
 70
     1
102
RTVSPropertyOp29
 70
     1
102
RTVSPropertyOp30
 70
     1
102
RTVSPropertyOp31
 70
     1
102
RTVSPropertyOp32
 70
     1
  0
XRECORD
  5
A38
102
{ACAD_REACTORS
330
A37
102
}
330
A37
100
AcDbXrecord
280
     1
102
RTVSPropertyOp0
 70
     0
102
RTVSPropertyOp1
 70
     0
102
RTVSPropertyOp2
 70
     0
102
RTVSPropertyOp3
 70
     0
102
RTVSPropertyOp4
 70
     0
102
RTVSPropertyOp5
 70
     0
102
RTVSPropertyOp6
 70
     0
102
RTVSPropertyOp7
 70
     0
102
RTVSPropertyOp8
 70
     0
102
RTVSPropertyOp9
 70
     0
102
RTVSPropertyOp10
 70
     0
102
RTVSPropertyOp11
 70
     0
102
RTVSPropertyOp12
 70
     0
102
RTVSPropertyOp13
 70
     0
102
RTVSPropertyOp14
 70
     2
102
RTVSPropertyOp15
 70
     0
102
RTVSPropertyOp16
 70
     0
102
RTVSPropertyOp17
 70
     0
102
RTVSPropertyOp18
 70
     0
102
RTVSPropertyOp19
 70
     0
102
RTVSPropertyOp20
 70
     0
102
RTVSPropertyOp21
 70
     0
102
RTVSPropertyOp22
 70
     0
102
RTVSPropertyOp23
 70
     0
102
RTVSPropertyOp24
 70
     0
102
RTVSPropertyOp25
 70
     0
102
RTVSPropertyOp26
 70
     0
102
RTVSPropertyOp27
 70
     0
102
RTVSPropertyOp28
 70
     0
102
RTVSPropertyOp29
 70
     0
102
RTVSPropertyOp30
 70
     0
102
RTVSPropertyOp31
 70
     0
102
RTVSPropertyOp32
 70
     0
  0
XRECORD
  5
A22
102
{ACAD_REACTORS
330
A21
102
}
330
A21
100
AcDbXrecord
280
     1
102
RTVSPropertyOp0
 70
     1
102
RTVSPropertyOp1
 70
     1
102
RTVSPropertyOp2
 70
     1
102
RTVSPropertyOp3
 70
     1
102
RTVSPropertyOp4
 70
     1
102
RTVSPropertyOp5
 70
     1
102
RTVSPropertyOp6
 70
     1
102
RTVSPropertyOp7
 70
     1
102
RTVSPropertyOp8
 70
     1
102
RTVSPropertyOp9
 70
     1
102
RTVSPropertyOp10
 70
     1
102
RTVSPropertyOp11
 70
     1
102
RTVSPropertyOp12
 70
     1
102
RTVSPropertyOp13
 70
     1
102
RTVSPropertyOp14
 70
     1
102
RTVSPropertyOp15
 70
     1
102
RTVSPropertyOp16
 70
     1
102
RTVSPropertyOp17
 70
     1
102
RTVSPropertyOp18
 70
     1
102
RTVSPropertyOp19
 70
     1
102
RTVSPropertyOp20
 70
     1
102
RTVSPropertyOp21
 70
     1
102
RTVSPropertyOp22
 70
     1
102
RTVSPropertyOp23
 70
     1
102
RTVSPropertyOp24
 70
     1
102
RTVSPropertyOp25
 70
     1
102
RTVSPropertyOp26
 70
     1
102
RTVSPropertyOp27
 70
     1
102
RTVSPropertyOp28
 70
     1
102
RTVSPropertyOp29
 70
     1
102
RTVSPropertyOp30
 70
     1
102
RTVSPropertyOp31
 70
     1
102
RTVSPropertyOp32
 70
     1
  0
XRECORD
  5
A3A
102
{ACAD_REACTORS
330
A39
102
}
330
A39
100
AcDbXrecord
280
     1
102
RTVSPropertyOp0
 70
     0
102
RTVSPropertyOp1
 70
     0
102
RTVSPropertyOp2
 70
     0
102
RTVSPropertyOp3
 70
     0
102
RTVSPropertyOp4
 70
     0
102
RTVSPropertyOp5
 70
     0
102
RTVSPropertyOp6
 70
     0
102
RTVSPropertyOp7
 70
     0
102
RTVSPropertyOp8
 70
     0
102
RTVSPropertyOp9
 70
     0
102
RTVSPropertyOp10
 70
     0
102
RTVSPropertyOp11
 70
     0
102
RTVSPropertyOp12
 70
     0
102
RTVSPropertyOp13
 70
     0
102
RTVSPropertyOp14
 70
     2
102
RTVSPropertyOp15
 70
     0
102
RTVSPropertyOp16
 70
     0
102
RTVSPropertyOp17
 70
     0
102
RTVSPropertyOp18
 70
     0
102
RTVSPropertyOp19
 70
     0
102
RTVSPropertyOp20
 70
     0
102
RTVSPropertyOp21
 70
     0
102
RTVSPropertyOp22
 70
     0
102
RTVSPropertyOp23
 70
     0
102
RTVSPropertyOp24
 70
     0
102
RTVSPropertyOp25
 70
     0
102
RTVSPropertyOp26
 70
     0
102
RTVSPropertyOp27
 70
     0
102
RTVSPropertyOp28
 70
     0
102
RTVSPropertyOp29
 70
     0
102
RTVSPropertyOp30
 70
     0
102
RTVSPropertyOp31
 70
     0
102
RTVSPropertyOp32
 70
     0
  0
XRECORD
  5
A0A
102
{ACAD_REACTORS
330
A09
102
}
330
A09
100
AcDbXrecord
280
     1
102
RTVSPropertyOp0
 70
     1
102
RTVSPropertyOp1
 70
     1
102
RTVSPropertyOp2
 70
     1
102
RTVSPropertyOp3
 70
     1
102
RTVSPropertyOp4
 70
     1
102
RTVSPropertyOp5
 70
     1
102
RTVSPropertyOp6
 70
     1
102
RTVSPropertyOp7
 70
     1
102
RTVSPropertyOp8
 70
     1
102
RTVSPropertyOp9
 70
     1
102
RTVSPropertyOp10
 70
     1
102
RTVSPropertyOp11
 70
     1
102
RTVSPropertyOp12
 70
     1
102
RTVSPropertyOp13
 70
     1
102
RTVSPropertyOp14
 70
     1
102
RTVSPropertyOp15
 70
     1
102
RTVSPropertyOp16
 70
     1
102
RTVSPropertyOp17
 70
     1
102
RTVSPropertyOp18
 70
     1
102
RTVSPropertyOp19
 70
     1
102
RTVSPropertyOp20
 70
     1
102
RTVSPropertyOp21
 70
     1
102
RTVSPropertyOp22
 70
     1
102
RTVSPropertyOp23
 70
     1
102
RTVSPropertyOp24
 70
     1
102
RTVSPropertyOp25
 70
     1
102
RTVSPropertyOp26
 70
     1
102
RTVSPropertyOp27
 70
     1
102
RTVSPropertyOp28
 70
     1
102
RTVSPropertyOp29
 70
     1
102
RTVSPropertyOp30
 70
     1
102
RTVSPropertyOp31
 70
     1
102
RTVSPropertyOp32
 70
     1
  0
XRECORD
  5
A36
102
{ACAD_REACTORS
330
A35
102
}
330
A35
100
AcDbXrecord
280
     1
102
RTVSPropertyOp0
 70
     1
102
RTVSPropertyOp1
 70
     1
102
RTVSPropertyOp2
 70
     1
102
RTVSPropertyOp3
 70
     1
102
RTVSPropertyOp4
 70
     1
102
RTVSPropertyOp5
 70
     1
102
RTVSPropertyOp6
 70
     1
102
RTVSPropertyOp7
 70
     1
102
RTVSPropertyOp8
 70
     1
102
RTVSPropertyOp9
 70
     1
102
RTVSPropertyOp10
 70
     1
102
RTVSPropertyOp11
 70
     1
102
RTVSPropertyOp12
 70
     1
102
RTVSPropertyOp13
 70
     1
102
RTVSPropertyOp14
 70
     1
102
RTVSPropertyOp15
 70
     1
102
RTVSPropertyOp16
 70
     1
102
RTVSPropertyOp17
 70
     1
102
RTVSPropertyOp18
 70
     1
102
RTVSPropertyOp19
 70
     1
102
RTVSPropertyOp20
 70
     1
102
RTVSPropertyOp21
 70
     1
102
RTVSPropertyOp22
 70
     1
102
RTVSPropertyOp23
 70
     1
102
RTVSPropertyOp24
 70
     1
102
RTVSPropertyOp25
 70
     1
102
RTVSPropertyOp26
 70
     1
102
RTVSPropertyOp27
 70
     1
102
RTVSPropertyOp28
 70
     1
102
RTVSPropertyOp29
 70
     1
102
RTVSPropertyOp30
 70
     1
102
RTVSPropertyOp31
 70
     1
102
RTVSPropertyOp32
 70
     1
  0
XRECORD
  5
A34
102
{ACAD_REACTORS
330
A33
102
}
330
A33
100
AcDbXrecord
280
     1
102
RTVSPropertyOp0
 70
     1
102
RTVSPropertyOp1
 70
     1
102
RTVSPropertyOp2
 70
     1
102
RTVSPropertyOp3
 70
     1
102
RTVSPropertyOp4
 70
     1
102
RTVSPropertyOp5
 70
     1
102
RTVSPropertyOp6
 70
     1
102
RTVSPropertyOp7
 70
     1
102
RTVSPropertyOp8
 70
     1
102
RTVSPropertyOp9
 70
     1
102
RTVSPropertyOp10
 70
     1
102
RTVSPropertyOp11
 70
     1
102
RTVSPropertyOp12
 70
     1
102
RTVSPropertyOp13
 70
     1
102
RTVSPropertyOp14
 70
     1
102
RTVSPropertyOp15
 70
     1
102
RTVSPropertyOp16
 70
     1
102
RTVSPropertyOp17
 70
     1
102
RTVSPropertyOp18
 70
     1
102
RTVSPropertyOp19
 70
     1
102
RTVSPropertyOp20
 70
     1
102
RTVSPropertyOp21
 70
     1
102
RTVSPropertyOp22
 70
     1
102
RTVSPropertyOp23
 70
     1
102
RTVSPropertyOp24
 70
     1
102
RTVSPropertyOp25
 70
     1
102
RTVSPropertyOp26
 70
     1
102
RTVSPropertyOp27
 70
     1
102
RTVSPropertyOp28
 70
     1
102
RTVSPropertyOp29
 70
     1
102
RTVSPropertyOp30
 70
     1
102
RTVSPropertyOp31
 70
     1
102
RTVSPropertyOp32
 70
     1
  0
XRECORD
  5
A2E
102
{ACAD_REACTORS
330
A2D
102
}
330
A2D
100
AcDbXrecord
280
     1
102
RTVSPropertyOp0
 70
     1
102
RTVSPropertyOp1
 70
     1
102
RTVSPropertyOp2
 70
     1
102
RTVSPropertyOp3
 70
     1
102
RTVSPropertyOp4
 70
     1
102
RTVSPropertyOp5
 70
     1
102
RTVSPropertyOp6
 70
     1
102
RTVSPropertyOp7
 70
     1
102
RTVSPropertyOp8
 70
     1
102
RTVSPropertyOp9
 70
     1
102
RTVSPropertyOp10
 70
     1
102
RTVSPropertyOp11
 70
     1
102
RTVSPropertyOp12
 70
     1
102
RTVSPropertyOp13
 70
     1
102
RTVSPropertyOp14
 70
     1
102
RTVSPropertyOp15
 70
     1
102
RTVSPropertyOp16
 70
     1
102
RTVSPropertyOp17
 70
     1
102
RTVSPropertyOp18
 70
     1
102
RTVSPropertyOp19
 70
     1
102
RTVSPropertyOp20
 70
     1
102
RTVSPropertyOp21
 70
     1
102
RTVSPropertyOp22
 70
     1
102
RTVSPropertyOp23
 70
     1
102
RTVSPropertyOp24
 70
     1
102
RTVSPropertyOp25
 70
     1
102
RTVSPropertyOp26
 70
     1
102
RTVSPropertyOp27
 70
     1
102
RTVSPropertyOp28
 70
     1
102
RTVSPropertyOp29
 70
     1
102
RTVSPropertyOp30
 70
     1
102
RTVSPropertyOp31
 70
     1
102
RTVSPropertyOp32
 70
     1
  0
XRECORD
  5
A30
102
{ACAD_REACTORS
330
A2F
102
}
330
A2F
100
AcDbXrecord
280
     1
102
RTVSPropertyOp0
 70
     1
102
RTVSPropertyOp1
 70
     1
102
RTVSPropertyOp2
 70
     1
102
RTVSPropertyOp3
 70
     1
102
RTVSPropertyOp4
 70
     1
102
RTVSPropertyOp5
 70
     1
102
RTVSPropertyOp6
 70
     1
102
RTVSPropertyOp7
 70
     1
102
RTVSPropertyOp8
 70
     1
102
RTVSPropertyOp9
 70
     1
102
RTVSPropertyOp10
 70
     1
102
RTVSPropertyOp11
 70
     1
102
RTVSPropertyOp12
 70
     1
102
RTVSPropertyOp13
 70
     1
102
RTVSPropertyOp14
 70
     1
102
RTVSPropertyOp15
 70
     1
102
RTVSPropertyOp16
 70
     1
102
RTVSPropertyOp17
 70
     1
102
RTVSPropertyOp18
 70
     1
102
RTVSPropertyOp19
 70
     1
102
RTVSPropertyOp20
 70
     1
102
RTVSPropertyOp21
 70
     1
102
RTVSPropertyOp22
 70
     1
102
RTVSPropertyOp23
 70
     1
102
RTVSPropertyOp24
 70
     1
102
RTVSPropertyOp25
 70
     1
102
RTVSPropertyOp26
 70
     1
102
RTVSPropertyOp27
 70
     1
102
RTVSPropertyOp28
 70
     1
102
RTVSPropertyOp29
 70
     1
102
RTVSPropertyOp30
 70
     1
102
RTVSPropertyOp31
 70
     1
102
RTVSPropertyOp32
 70
     1
  0
XRECORD
  5
A20
102
{ACAD_REACTORS
330
A1F
102
}
330
A1F
100
AcDbXrecord
280
     1
102
RTVSPropertyOp0
 70
     1
102
RTVSPropertyOp1
 70
     1
102
RTVSPropertyOp2
 70
     1
102
RTVSPropertyOp3
 70
     1
102
RTVSPropertyOp4
 70
     1
102
RTVSPropertyOp5
 70
     1
102
RTVSPropertyOp6
 70
     1
102
RTVSPropertyOp7
 70
     1
102
RTVSPropertyOp8
 70
     1
102
RTVSPropertyOp9
 70
     1
102
RTVSPropertyOp10
 70
     1
102
RTVSPropertyOp11
 70
     1
102
RTVSPropertyOp12
 70
     1
102
RTVSPropertyOp13
 70
     1
102
RTVSPropertyOp14
 70
     1
102
RTVSPropertyOp15
 70
     1
102
RTVSPropertyOp16
 70
     1
102
RTVSPropertyOp17
 70
     1
102
RTVSPropertyOp18
 70
     1
102
RTVSPropertyOp19
 70
     1
102
RTVSPropertyOp20
 70
     1
102
RTVSPropertyOp21
 70
     1
102
RTVSPropertyOp22
 70
     1
102
RTVSPropertyOp23
 70
     1
102
RTVSPropertyOp24
 70
     1
102
RTVSPropertyOp25
 70
     1
102
RTVSPropertyOp26
 70
     1
102
RTVSPropertyOp27
 70
     1
102
RTVSPropertyOp28
 70
     1
102
RTVSPropertyOp29
 70
     1
102
RTVSPropertyOp30
 70
     1
102
RTVSPropertyOp31
 70
     1
102
RTVSPropertyOp32
 70
     1
  0
XRECORD
  5
A2A
102
{ACAD_REACTORS
330
A29
102
}
330
A29
100
AcDbXrecord
280
     1
102
RTVSPropertyOp0
 70
     1
102
RTVSPropertyOp1
 70
     1
102
RTVSPropertyOp2
 70
     1
102
RTVSPropertyOp3
 70
     1
102
RTVSPropertyOp4
 70
     1
102
RTVSPropertyOp5
 70
     1
102
RTVSPropertyOp6
 70
     1
102
RTVSPropertyOp7
 70
     1
102
RTVSPropertyOp8
 70
     1
102
RTVSPropertyOp9
 70
     1
102
RTVSPropertyOp10
 70
     1
102
RTVSPropertyOp11
 70
     1
102
RTVSPropertyOp12
 70
     1
102
RTVSPropertyOp13
 70
     1
102
RTVSPropertyOp14
 70
     1
102
RTVSPropertyOp15
 70
     1
102
RTVSPropertyOp16
 70
     1
102
RTVSPropertyOp17
 70
     1
102
RTVSPropertyOp18
 70
     1
102
RTVSPropertyOp19
 70
     1
102
RTVSPropertyOp20
 70
     1
102
RTVSPropertyOp21
 70
     1
102
RTVSPropertyOp22
 70
     1
102
RTVSPropertyOp23
 70
     1
102
RTVSPropertyOp24
 70
     1
102
RTVSPropertyOp25
 70
     1
102
RTVSPropertyOp26
 70
     1
102
RTVSPropertyOp27
 70
     1
102
RTVSPropertyOp28
 70
     1
102
RTVSPropertyOp29
 70
     1
102
RTVSPropertyOp30
 70
     1
102
RTVSPropertyOp31
 70
     1
102
RTVSPropertyOp32
 70
     1
  0
XRECORD
  5
A32
102
{ACAD_REACTORS
330
A31
102
}
330
A31
100
AcDbXrecord
280
     1
102
RTVSPropertyOp0
 70
     1
102
RTVSPropertyOp1
 70
     1
102
RTVSPropertyOp2
 70
     1
102
RTVSPropertyOp3
 70
     1
102
RTVSPropertyOp4
 70
     1
102
RTVSPropertyOp5
 70
     1
102
RTVSPropertyOp6
 70
     1
102
RTVSPropertyOp7
 70
     1
102
RTVSPropertyOp8
 70
     1
102
RTVSPropertyOp9
 70
     1
102
RTVSPropertyOp10
 70
     1
102
RTVSPropertyOp11
 70
     1
102
RTVSPropertyOp12
 70
     1
102
RTVSPropertyOp13
 70
     1
102
RTVSPropertyOp14
 70
     1
102
RTVSPropertyOp15
 70
     1
102
RTVSPropertyOp16
 70
     1
102
RTVSPropertyOp17
 70
     1
102
RTVSPropertyOp18
 70
     1
102
RTVSPropertyOp19
 70
     1
102
RTVSPropertyOp20
 70
     1
102
RTVSPropertyOp21
 70
     1
102
RTVSPropertyOp22
 70
     1
102
RTVSPropertyOp23
 70
     1
102
RTVSPropertyOp24
 70
     1
102
RTVSPropertyOp25
 70
     1
102
RTVSPropertyOp26
 70
     1
102
RTVSPropertyOp27
 70
     1
102
RTVSPropertyOp28
 70
     1
102
RTVSPropertyOp29
 70
     1
102
RTVSPropertyOp30
 70
     1
102
RTVSPropertyOp31
 70
     1
102
RTVSPropertyOp32
 70
     1
  0
ENDSEC
  0
EOF
