  0
SECTION
  2
HEADER
  9
$ACADVER
  1
AC1014
  9
$ACADMAINTVER
 70
     9
  9
$DWGCODEPAGE
  3
ANSI_949
  9
$INSBASE
 10
0.0
 20
0.0
 30
0.0
  9
$EXTMIN
 10
-5.332845661756437
 20
4.859590622778341
 30
-0.0000000000000058
  9
$EXTMAX
 10
337.4223723895265
 20
317.7015010945087
 30
0.0000000000000104
  9
$LIMMIN
 10
0.0
 20
0.0
  9
$LIMMAX
 10
100.0
 20
50.0
  9
$ORTHOMODE
 70
     1
  9
$REGENMODE
 70
     1
  9
$FILLMODE
 70
     1
  9
$QTEXTMODE
 70
     0
  9
$MIRRTEXT
 70
     0
  9
$DRAGMODE
 70
     2
  9
$LTSCALE
 40
0.5
  9
$OSMODE
 70
   567
  9
$ATTMODE
 70
     1
  9
$TEXTSIZE
 40
5.777225951253058
  9
$TRACEWID
 40
1.0
  9
$TEXTSTYLE
  7
STANDARD
  9
$CLAYER
  8
0
  9
$CELTYPE
  6
BYLAYER
  9
$CECOLOR
 62
   256
  9
$CELTSCALE
 40
1.0
  9
$DELOBJ
 70
     1
  9
$DISPSILH
 70
     0
  9
$DIMSCALE
 40
1.0
  9
$DIMASZ
 40
3.5
  9
$DIMEXO
 40
1.0
  9
$DIMDLI
 40
10.0
  9
$DIMRND
 40
0.0
  9
$DIMDLE
 40
0.0
  9
$DIMEXE
 40
0.6
  9
$DIMTP
 40
0.0
  9
$DIMTM
 40
0.0
  9
$DIMTXT
 40
3.0
  9
$DIMCEN
 40
0.09
  9
$DIMTSZ
 40
0.0
  9
$DIMTOL
 70
     0
  9
$DIMLIM
 70
     0
  9
$DIMTIH
 70
     0
  9
$DIMTOH
 70
     0
  9
$DIMSE1
 70
     0
  9
$DIMSE2
 70
     0
  9
$DIMTAD
 70
     1
  9
$DIMZIN
 70
     8
  9
$DIMBLK
  1

  9
$DIMASO
 70
     1
  9
$DIMSHO
 70
     1
  9
$DIMPOST
  1

  9
$DIMAPOST
  1

  9
$DIMALT
 70
     0
  9
$DIMALTD
 70
     2
  9
$DIMALTF
 40
25.4
  9
$DIMLFAC
 40
1.0
  9
$DIMTOFL
 70
     1
  9
$DIMTVP
 40
0.0
  9
$DIMTIX
 70
     1
  9
$DIMSOXD
 70
     0
  9
$DIMSAH
 70
     0
  9
$DIMBLK1
  1

  9
$DIMBLK2
  1

  9
$DIMSTYLE
  2
STANDARD
  9
$DIMCLRD
 70
   123
  9
$DIMCLRE
 70
   123
  9
$DIMCLRT
 70
     3
  9
$DIMTFAC
 40
1.0
  9
$DIMGAP
 40
1.0
  9
$DIMJUST
 70
     0
  9
$DIMSD1
 70
     0
  9
$DIMSD2
 70
     0
  9
$DIMTOLJ
 70
     1
  9
$DIMTZIN
 70
     0
  9
$DIMALTZ
 70
     0
  9
$DIMALTTZ
 70
     0
  9
$DIMFIT
 70
     0
  9
$DIMUPT
 70
     1
  9
$DIMUNIT
 70
     2
  9
$DIMDEC
 70
     2
  9
$DIMTDEC
 70
     2
  9
$DIMALTU
 70
     2
  9
$DIMALTTD
 70
     2
  9
$DIMTXSTY
  7
STANDARD
  9
$DIMAUNIT
 70
     1
  9
$LUNITS
 70
     2
  9
$LUPREC
 70
     4
  9
$SKETCHINC
 40
1.0
  9
$FILLETRAD
 40
6.0
  9
$AUNITS
 70
     0
  9
$AUPREC
 70
     0
  9
$MENU
  1
.
  9
$ELEVATION
 40
0.0
  9
$PELEVATION
 40
0.0
  9
$THICKNESS
 40
0.0
  9
$LIMCHECK
 70
     0
  9
$BLIPMODE
 70
     1
  9
$CHAMFERA
 40
1.0
  9
$CHAMFERB
 40
1.0
  9
$CHAMFERC
 40
20.0
  9
$CHAMFERD
 40
0.0
  9
$SKPOLY
 70
     0
  9
$TDCREATE
 40
2452839.586179271
  9
$TDUPDATE
 40
2453377.778962476
  9
$TDINDWG
 40
9.8516295486
  9
$TDUSRTIMER
 40
9.8516295486
  9
$USRTIMER
 70
     1
  9
$ANGBASE
 50
0.0
  9
$ANGDIR
 70
     0
  9
$PDMODE
 70
     0
  9
$PDSIZE
 40
0.0
  9
$PLINEWID
 40
0.0
  9
$COORDS
 70
     2
  9
$SPLFRAME
 70
     0
  9
$SPLINETYPE
 70
     6
  9
$SPLINESEGS
 70
   800
  9
$ATTDIA
 70
     0
  9
$ATTREQ
 70
     1
  9
$HANDLING
 70
 22529
  9
$HANDSEED
  5
392
  9
$SURFTAB1
 70
     6
  9
$SURFTAB2
 70
     6
  9
$SURFTYPE
 70
     6
  9
$SURFU
 70
     6
  9
$SURFV
 70
     6
  9
$UCSNAME
  2

  9
$UCSORG
 10
0.0
 20
0.0
 30
0.0
  9
$UCSXDIR
 10
1.0
 20
0.0
 30
0.0
  9
$UCSYDIR
 10
0.0
 20
1.0
 30
0.0
  9
$PUCSNAME
  2

  9
$PUCSORG
 10
0.0
 20
0.0
 30
0.0
  9
$PUCSXDIR
 10
1.0
 20
0.0
 30
0.0
  9
$PUCSYDIR
 10
0.0
 20
1.0
 30
0.0
  9
$USERI1
 70
     0
  9
$USERI2
 70
     0
  9
$USERI3
 70
     0
  9
$USERI4
 70
     0
  9
$USERI5
 70
     0
  9
$USERR1
 40
0.0
  9
$USERR2
 40
0.0
  9
$USERR3
 40
0.0
  9
$USERR4
 40
0.0
  9
$USERR5
 40
0.0
  9
$WORLDVIEW
 70
     1
  9
$SHADEDGE
 70
     3
  9
$SHADEDIF
 70
    70
  9
$TILEMODE
 70
     1
  9
$MAXACTVP
 70
    48
  9
$PINSBASE
 10
0.0
 20
0.0
 30
0.0
  9
$PLIMCHECK
 70
     0
  9
$PEXTMIN
 10
0.0
 20
0.0
 30
0.0
  9
$PEXTMAX
 10
0.0
 20
0.0
 30
0.0
  9
$PLIMMIN
 10
0.0
 20
0.0
  9
$PLIMMAX
 10
12.0
 20
9.0
  9
$UNITMODE
 70
     0
  9
$VISRETAIN
 70
     1
  9
$PLINEGEN
 70
     0
  9
$PSLTSCALE
 70
     1
  9
$TREEDEPTH
 70
  3020
  9
$PICKSTYLE
 70
     0
  9
$CMLSTYLE
  2
STANDARD
  9
$CMLJUST
 70
     0
  9
$CMLSCALE
 40
20.0
  9
$PROXYGRAPHICS
 70
     1
  9
$MEASUREMENT
 70
     1
  0
ENDSEC
  0
SECTION
  2
CLASSES
  0
CLASS
  1
ACDBDICTIONARYWDFLT
  2
AcDbDictionaryWithDefault
  3
AutoCAD 2000
 90
        0
280
     0
281
     0
  0
CLASS
  1
ACDBPLACEHOLDER
  2
AcDbPlaceHolder
  3
AutoCAD 2000
 90
        0
280
     0
281
     0
  0
CLASS
  1
LAYOUT
  2
AcDbLayout
  3
AutoCAD 2000
 90
        0
280
     0
281
     0
  0
CLASS
  1
DICTIONARYVAR
  2
AcDbDictionaryVar
  3
AutoCAD 2000
 90
        0
280
     0
281
     0
  0
CLASS
  1
DIMASSOC
  2
AcDbDimAssoc
  3
"AcDbDimAssoc|Product Desc:     AcDim ARX App For Dimension|Company:          Autodesk, Inc.|WEB Address:      www.autodesk.com"
 90
        0
280
     0
281
     0
  0
CLASS
  1
LONG_TRANSACTION
  2
AcDbLongTransaction
  3
AutoCAD 2000
 90
        0
280
     0
281
     0
  0
CLASS
  1
LWPOLYLINE
  2
AcDbPolyline
  3
AutoCAD 2000
 90
        0
280
     0
281
     1
  0
CLASS
  1
HATCH
  2
AcDbHatch
  3
AutoCAD 2000
 90
        0
280
     0
281
     1
  0
CLASS
  1
XRECORD
  2
AcDbXrecord
  3
AutoCAD 2000
 90
        0
280
     0
281
     0
  0
CLASS
  1
LONG_TRANSACTION
  2
AcDbLongTransaction
  3
AutoCAD 2000
 90
        0
280
     0
281
     0
  0
CLASS
  1
LWPOLYLINE
  2
AcDbPolyline
  3
AutoCAD 2000
 90
        0
280
     0
281
     1
  0
CLASS
  1
HATCH
  2
AcDbHatch
  3
AutoCAD 2000
 90
        0
280
     0
281
     1
  0
CLASS
  1
XRECORD
  2
AcDbXrecord
  3
AutoCAD 2000
 90
        0
280
     0
281
     0
  0
CLASS
  1
LONG_TRANSACTION
  2
AcDbLongTransaction
  3
AutoCAD 2000
 90
        0
280
     0
281
     0
  0
CLASS
  1
LWPOLYLINE
  2
AcDbPolyline
  3
AutoCAD 2000
 90
        0
280
     0
281
     1
  0
CLASS
  1
HATCH
  2
AcDbHatch
  3
AutoCAD 2000
 90
        0
280
     0
281
     1
  0
CLASS
  1
XRECORD
  2
AcDbXrecord
  3
AutoCAD 2000
 90
        0
280
     0
281
     0
  0
CLASS
  1
LONG_TRANSACTION
  2
AcDbLongTransaction
  3
AutoCAD 2000
 90
        0
280
     0
281
     0
  0
CLASS
  1
LWPOLYLINE
  2
AcDbPolyline
  3
AutoCAD 2000
 90
        0
280
     0
281
     1
  0
CLASS
  1
HATCH
  2
AcDbHatch
  3
AutoCAD 2000
 90
        0
280
     0
281
     1
  0
CLASS
  1
XRECORD
  2
AcDbXrecord
  3
AutoCAD 2000
 90
        0
280
     0
281
     0
  0
CLASS
  1
LONG_TRANSACTION
  2
AcDbLongTransaction
  3
AutoCAD 2000
 90
        0
280
     0
281
     0
  0
CLASS
  1
LWPOLYLINE
  2
AcDbPolyline
  3
AutoCAD 2000
 90
        0
280
     0
281
     1
  0
CLASS
  1
HATCH
  2
AcDbHatch
  3
AutoCAD 2000
 90
        0
280
     0
281
     1
  0
CLASS
  1
XRECORD
  2
AcDbXrecord
  3
AutoCAD 2000
 90
        0
280
     0
281
     0
  0
CLASS
  1
LONG_TRANSACTION
  2
AcDbLongTransaction
  3
AutoCAD 2000
 90
        0
280
     0
281
     0
  0
CLASS
  1
LWPOLYLINE
  2
AcDbPolyline
  3
AutoCAD 2000
 90
        0
280
     0
281
     1
  0
CLASS
  1
HATCH
  2
AcDbHatch
  3
AutoCAD 2000
 90
        0
280
     0
281
     1
  0
CLASS
  1
XRECORD
  2
AcDbXrecord
  3
AutoCAD 2000
 90
        0
280
     0
281
     0
  0
CLASS
  1
LONG_TRANSACTION
  2
AcDbLongTransaction
  3
AutoCAD 2000
 90
        0
280
     0
281
     0
  0
CLASS
  1
LWPOLYLINE
  2
AcDbPolyline
  3
AutoCAD 2000
 90
        0
280
     0
281
     1
  0
CLASS
  1
HATCH
  2
AcDbHatch
  3
AutoCAD 2000
 90
        0
280
     0
281
     1
  0
CLASS
  1
XRECORD
  2
AcDbXrecord
  3
AutoCAD 2000
 90
        0
280
     0
281
     0
  0
CLASS
  1
LONG_TRANSACTION
  2
AcDbLongTransaction
  3
AutoCAD 2000
 90
        0
280
     0
281
     0
  0
CLASS
  1
LWPOLYLINE
  2
AcDbPolyline
  3
AutoCAD 2000
 90
        0
280
     0
281
     1
  0
CLASS
  1
HATCH
  2
AcDbHatch
  3
AutoCAD 2000
 90
        0
280
     0
281
     1
  0
CLASS
  1
XRECORD
  2
AcDbXrecord
  3
AutoCAD 2000
 90
        0
280
     0
281
     0
  0
CLASS
  1
LONG_TRANSACTION
  2
AcDbLongTransaction
  3
AutoCAD 2000
 90
        0
280
     0
281
     0
  0
CLASS
  1
LWPOLYLINE
  2
AcDbPolyline
  3
AutoCAD 2000
 90
        0
280
     0
281
     1
  0
CLASS
  1
HATCH
  2
AcDbHatch
  3
AutoCAD 2000
 90
        0
280
     0
281
     1
  0
CLASS
  1
XRECORD
  2
AcDbXrecord
  3
AutoCAD 2000
 90
        0
280
     0
281
     0
  0
CLASS
  1
LONG_TRANSACTION
  2
AcDbLongTransaction
  3
AutoCAD 2000
 90
        0
280
     0
281
     0
  0
CLASS
  1
LWPOLYLINE
  2
AcDbPolyline
  3
AutoCAD 2000
 90
        0
280
     0
281
     1
  0
CLASS
  1
HATCH
  2
AcDbHatch
  3
AutoCAD 2000
 90
        0
280
     0
281
     1
  0
CLASS
  1
XRECORD
  2
AcDbXrecord
  3
AutoCAD 2000
 90
        0
280
     0
281
     0
  0
CLASS
  1
LONG_TRANSACTION
  2
AcDbLongTransaction
  3
AutoCAD 2000
 90
        0
280
     0
281
     0
  0
CLASS
  1
LWPOLYLINE
  2
AcDbPolyline
  3
AutoCAD 2000
 90
        0
280
     0
281
     1
  0
CLASS
  1
HATCH
  2
AcDbHatch
  3
AutoCAD 2000
 90
        0
280
     0
281
     1
  0
CLASS
  1
XRECORD
  2
AcDbXrecord
  3
AutoCAD 2000
 90
        0
280
     0
281
     0
  0
CLASS
  1
LONG_TRANSACTION
  2
AcDbLongTransaction
  3
AutoCAD 2000
 90
        0
280
     0
281
     0
  0
CLASS
  1
LWPOLYLINE
  2
AcDbPolyline
  3
AutoCAD 2000
 90
        0
280
     0
281
     1
  0
CLASS
  1
HATCH
  2
AcDbHatch
  3
AutoCAD 2000
 90
        0
280
     0
281
     1
  0
CLASS
  1
XRECORD
  2
AcDbXrecord
  3
AutoCAD 2000
 90
        0
280
     0
281
     0
  0
CLASS
  1
LONG_TRANSACTION
  2
AcDbLongTransaction
  3
AutoCAD 2000
 90
        0
280
     0
281
     0
  0
CLASS
  1
LWPOLYLINE
  2
AcDbPolyline
  3
AutoCAD 2000
 90
        0
280
     0
281
     1
  0
CLASS
  1
HATCH
  2
AcDbHatch
  3
AutoCAD 2000
 90
        0
280
     0
281
     1
  0
CLASS
  1
XRECORD
  2
AcDbXrecord
  3
AutoCAD 2000
 90
        0
280
     0
281
     0
  0
CLASS
  1
LONG_TRANSACTION
  2
AcDbLongTransaction
  3
AutoCAD 2000
 90
        0
280
     0
281
     0
  0
CLASS
  1
LWPOLYLINE
  2
AcDbPolyline
  3
AutoCAD 2000
 90
        0
280
     0
281
     1
  0
CLASS
  1
HATCH
  2
AcDbHatch
  3
AutoCAD 2000
 90
        0
280
     0
281
     1
  0
CLASS
  1
XRECORD
  2
AcDbXrecord
  3
AutoCAD 2000
 90
        0
280
     0
281
     0
  0
CLASS
  1
LONG_TRANSACTION
  2
AcDbLongTransaction
  3
AutoCAD 2000
 90
        0
280
     0
281
     0
  0
CLASS
  1
LWPOLYLINE
  2
AcDbPolyline
  3
AutoCAD 2000
 90
        0
280
     0
281
     1
  0
CLASS
  1
HATCH
  2
AcDbHatch
  3
AutoCAD 2000
 90
        0
280
     0
281
     1
  0
CLASS
  1
XRECORD
  2
AcDbXrecord
  3
AutoCAD 2000
 90
        0
280
     0
281
     0
  0
CLASS
  1
LONG_TRANSACTION
  2
AcDbLongTransaction
  3
AutoCAD 2000
 90
        0
280
     0
281
     0
  0
CLASS
  1
LWPOLYLINE
  2
AcDbPolyline
  3
AutoCAD 2000
 90
        0
280
     0
281
     1
  0
CLASS
  1
HATCH
  2
AcDbHatch
  3
AutoCAD 2000
 90
        0
280
     0
281
     1
  0
CLASS
  1
XRECORD
  2
AcDbXrecord
  3
AutoCAD 2000
 90
        0
280
     0
281
     0
  0
CLASS
  1
LONG_TRANSACTION
  2
AcDbLongTransaction
  3
AutoCAD 2000
 90
        0
280
     0
281
     0
  0
CLASS
  1
LWPOLYLINE
  2
AcDbPolyline
  3
AutoCAD 2000
 90
        0
280
     0
281
     1
  0
CLASS
  1
HATCH
  2
AcDbHatch
  3
AutoCAD 2000
 90
        0
280
     0
281
     1
  0
CLASS
  1
XRECORD
  2
AcDbXrecord
  3
AutoCAD 2000
 90
        0
280
     0
281
     0
  0
CLASS
  1
LONG_TRANSACTION
  2
AcDbLongTransaction
  3
AutoCAD 2000
 90
        0
280
     0
281
     0
  0
CLASS
  1
LWPOLYLINE
  2
AcDbPolyline
  3
AutoCAD 2000
 90
        0
280
     0
281
     1
  0
CLASS
  1
HATCH
  2
AcDbHatch
  3
AutoCAD 2000
 90
        0
280
     0
281
     1
  0
CLASS
  1
XRECORD
  2
AcDbXrecord
  3
AutoCAD 2000
 90
        0
280
     0
281
     0
  0
CLASS
  1
LONG_TRANSACTION
  2
AcDbLongTransaction
  3
AutoCAD 2000
 90
        0
280
     0
281
     0
  0
CLASS
  1
LWPOLYLINE
  2
AcDbPolyline
  3
AutoCAD 2000
 90
        0
280
     0
281
     1
  0
CLASS
  1
HATCH
  2
AcDbHatch
  3
AutoCAD 2000
 90
        0
280
     0
281
     1
  0
CLASS
  1
XRECORD
  2
AcDbXrecord
  3
AutoCAD 2000
 90
        0
280
     0
281
     0
  0
CLASS
  1
LONG_TRANSACTION
  2
AcDbLongTransaction
  3
AutoCAD 2000
 90
        0
280
     0
281
     0
  0
CLASS
  1
LWPOLYLINE
  2
AcDbPolyline
  3
AutoCAD 2000
 90
        0
280
     0
281
     1
  0
CLASS
  1
HATCH
  2
AcDbHatch
  3
AutoCAD 2000
 90
        0
280
     0
281
     1
  0
CLASS
  1
XRECORD
  2
AcDbXrecord
  3
AutoCAD 2000
 90
        0
280
     0
281
     0
  0
CLASS
  1
LONG_TRANSACTION
  2
AcDbLongTransaction
  3
AutoCAD 2000
 90
        0
280
     0
281
     0
  0
CLASS
  1
LWPOLYLINE
  2
AcDbPolyline
  3
AutoCAD 2000
 90
        0
280
     0
281
     1
  0
CLASS
  1
HATCH
  2
AcDbHatch
  3
AutoCAD 2000
 90
        0
280
     0
281
     1
  0
CLASS
  1
XRECORD
  2
AcDbXrecord
  3
AutoCAD 2000
 90
        0
280
     0
281
     0
  0
CLASS
  1
LONG_TRANSACTION
  2
AcDbLongTransaction
  3
AutoCAD 2000
 90
        0
280
     0
281
     0
  0
CLASS
  1
LWPOLYLINE
  2
AcDbPolyline
  3
AutoCAD 2000
 90
        0
280
     0
281
     1
  0
CLASS
  1
HATCH
  2
AcDbHatch
  3
AutoCAD 2000
 90
        0
280
     0
281
     1
  0
CLASS
  1
XRECORD
  2
AcDbXrecord
  3
AutoCAD 2000
 90
        0
280
     0
281
     0
  0
CLASS
  1
LONG_TRANSACTION
  2
AcDbLongTransaction
  3
AutoCAD 2000
 90
        0
280
     0
281
     0
  0
CLASS
  1
LWPOLYLINE
  2
AcDbPolyline
  3
AutoCAD 2000
 90
        0
280
     0
281
     1
  0
CLASS
  1
HATCH
  2
AcDbHatch
  3
AutoCAD 2000
 90
        0
280
     0
281
     1
  0
CLASS
  1
XRECORD
  2
AcDbXrecord
  3
AutoCAD 2000
 90
        0
280
     0
281
     0
  0
CLASS
  1
LONG_TRANSACTION
  2
AcDbLongTransaction
  3
AutoCAD 2000
 90
        0
280
     0
281
     0
  0
CLASS
  1
LWPOLYLINE
  2
AcDbPolyline
  3
AutoCAD 2000
 90
        0
280
     0
281
     1
  0
CLASS
  1
HATCH
  2
AcDbHatch
  3
AutoCAD 2000
 90
        0
280
     0
281
     1
  0
CLASS
  1
XRECORD
  2
AcDbXrecord
  3
AutoCAD 2000
 90
        0
280
     0
281
     0
  0
CLASS
  1
LONG_TRANSACTION
  2
AcDbLongTransaction
  3
AutoCAD 2000
 90
        0
280
     0
281
     0
  0
CLASS
  1
LWPOLYLINE
  2
AcDbPolyline
  3
AutoCAD 2000
 90
        0
280
     0
281
     1
  0
CLASS
  1
HATCH
  2
AcDbHatch
  3
AutoCAD 2000
 90
        0
280
     0
281
     1
  0
CLASS
  1
XRECORD
  2
AcDbXrecord
  3
AutoCAD 2000
 90
        0
280
     0
281
     0
  0
CLASS
  1
LONG_TRANSACTION
  2
AcDbLongTransaction
  3
AutoCAD 2000
 90
        0
280
     0
281
     0
  0
CLASS
  1
LWPOLYLINE
  2
AcDbPolyline
  3
AutoCAD 2000
 90
        0
280
     0
281
     1
  0
CLASS
  1
HATCH
  2
AcDbHatch
  3
AutoCAD 2000
 90
        0
280
     0
281
     1
  0
CLASS
  1
XRECORD
  2
AcDbXrecord
  3
AutoCAD 2000
 90
        0
280
     0
281
     0
  0
CLASS
  1
LONG_TRANSACTION
  2
AcDbLongTransaction
  3
AutoCAD 2000
 90
        0
280
     0
281
     0
  0
CLASS
  1
LWPOLYLINE
  2
AcDbPolyline
  3
AutoCAD 2000
 90
        0
280
     0
281
     1
  0
CLASS
  1
HATCH
  2
AcDbHatch
  3
AutoCAD 2000
 90
        0
280
     0
281
     1
  0
CLASS
  1
XRECORD
  2
AcDbXrecord
  3
AutoCAD 2000
 90
        0
280
     0
281
     0
  0
CLASS
  1
LONG_TRANSACTION
  2
AcDbLongTransaction
  3
AutoCAD 2000
 90
        0
280
     0
281
     0
  0
CLASS
  1
LWPOLYLINE
  2
AcDbPolyline
  3
AutoCAD 2000
 90
        0
280
     0
281
     1
  0
CLASS
  1
HATCH
  2
AcDbHatch
  3
AutoCAD 2000
 90
        0
280
     0
281
     1
  0
CLASS
  1
XRECORD
  2
AcDbXrecord
  3
AutoCAD 2000
 90
        0
280
     0
281
     0
  0
CLASS
  1
LONG_TRANSACTION
  2
AcDbLongTransaction
  3
AutoCAD 2000
 90
        0
280
     0
281
     0
  0
CLASS
  1
LWPOLYLINE
  2
AcDbPolyline
  3
AutoCAD 2000
 90
        0
280
     0
281
     1
  0
CLASS
  1
HATCH
  2
AcDbHatch
  3
AutoCAD 2000
 90
        0
280
     0
281
     1
  0
CLASS
  1
XRECORD
  2
AcDbXrecord
  3
AutoCAD 2000
 90
        0
280
     0
281
     0
  0
CLASS
  1
LONG_TRANSACTION
  2
AcDbLongTransaction
  3
AutoCAD 2000
 90
        0
280
     0
281
     0
  0
CLASS
  1
LWPOLYLINE
  2
AcDbPolyline
  3
AutoCAD 2000
 90
        0
280
     0
281
     1
  0
CLASS
  1
HATCH
  2
AcDbHatch
  3
AutoCAD 2000
 90
        0
280
     0
281
     1
  0
CLASS
  1
XRECORD
  2
AcDbXrecord
  3
AutoCAD 2000
 90
        0
280
     0
281
     0
  0
CLASS
  1
LONG_TRANSACTION
  2
AcDbLongTransaction
  3
AutoCAD 2000
 90
        0
280
     0
281
     0
  0
CLASS
  1
LWPOLYLINE
  2
AcDbPolyline
  3
AutoCAD 2000
 90
        0
280
     0
281
     1
  0
CLASS
  1
HATCH
  2
AcDbHatch
  3
AutoCAD 2000
 90
        0
280
     0
281
     1
  0
CLASS
  1
XRECORD
  2
AcDbXrecord
  3
AutoCAD 2000
 90
        0
280
     0
281
     0
  0
CLASS
  1
LONG_TRANSACTION
  2
AcDbLongTransaction
  3
AutoCAD 2000
 90
        0
280
     0
281
     0
  0
CLASS
  1
LWPOLYLINE
  2
AcDbPolyline
  3
AutoCAD 2000
 90
        0
280
     0
281
     1
  0
CLASS
  1
HATCH
  2
AcDbHatch
  3
AutoCAD 2000
 90
        0
280
     0
281
     1
  0
CLASS
  1
XRECORD
  2
AcDbXrecord
  3
AutoCAD 2000
 90
        0
280
     0
281
     0
  0
CLASS
  1
LONG_TRANSACTION
  2
AcDbLongTransaction
  3
AutoCAD 2000
 90
        0
280
     0
281
     0
  0
CLASS
  1
LWPOLYLINE
  2
AcDbPolyline
  3
AutoCAD 2000
 90
        0
280
     0
281
     1
  0
CLASS
  1
HATCH
  2
AcDbHatch
  3
AutoCAD 2000
 90
        0
280
     0
281
     1
  0
CLASS
  1
XRECORD
  2
AcDbXrecord
  3
AutoCAD 2000
 90
        0
280
     0
281
     0
  0
CLASS
  1
LONG_TRANSACTION
  2
AcDbLongTransaction
  3
AutoCAD 2000
 90
        0
280
     0
281
     0
  0
CLASS
  1
LWPOLYLINE
  2
AcDbPolyline
  3
AutoCAD 2000
 90
        0
280
     0
281
     1
  0
CLASS
  1
HATCH
  2
AcDbHatch
  3
AutoCAD 2000
 90
        0
280
     0
281
     1
  0
CLASS
  1
XRECORD
  2
AcDbXrecord
  3
AutoCAD 2000
 90
        0
280
     0
281
     0
  0
CLASS
  1
LONG_TRANSACTION
  2
AcDbLongTransaction
  3
AutoCAD 2000
 90
        0
280
     0
281
     0
  0
CLASS
  1
LWPOLYLINE
  2
AcDbPolyline
  3
AutoCAD 2000
 90
        0
280
     0
281
     1
  0
CLASS
  1
HATCH
  2
AcDbHatch
  3
AutoCAD 2000
 90
        0
280
     0
281
     1
  0
CLASS
  1
XRECORD
  2
AcDbXrecord
  3
AutoCAD 2000
 90
        0
280
     0
281
     0
  0
CLASS
  1
LONG_TRANSACTION
  2
AcDbLongTransaction
  3
AutoCAD 2000
 90
        0
280
     0
281
     0
  0
CLASS
  1
LWPOLYLINE
  2
AcDbPolyline
  3
AutoCAD 2000
 90
        0
280
     0
281
     1
  0
CLASS
  1
HATCH
  2
AcDbHatch
  3
AutoCAD 2000
 90
        0
280
     0
281
     1
  0
CLASS
  1
XRECORD
  2
AcDbXrecord
  3
AutoCAD 2000
 90
        0
280
     0
281
     0
  0
CLASS
  1
LONG_TRANSACTION
  2
AcDbLongTransaction
  3
AutoCAD 2000
 90
        0
280
     0
281
     0
  0
CLASS
  1
LWPOLYLINE
  2
AcDbPolyline
  3
AutoCAD 2000
 90
        0
280
     0
281
     1
  0
CLASS
  1
HATCH
  2
AcDbHatch
  3
AutoCAD 2000
 90
        0
280
     0
281
     1
  0
CLASS
  1
XRECORD
  2
AcDbXrecord
  3
AutoCAD 2000
 90
        0
280
     0
281
     0
  0
CLASS
  1
LONG_TRANSACTION
  2
AcDbLongTransaction
  3
AutoCAD 2000
 90
        0
280
     0
281
     0
  0
CLASS
  1
LWPOLYLINE
  2
AcDbPolyline
  3
AutoCAD 2000
 90
        0
280
     0
281
     1
  0
CLASS
  1
HATCH
  2
AcDbHatch
  3
AutoCAD 2000
 90
        0
280
     0
281
     1
  0
CLASS
  1
XRECORD
  2
AcDbXrecord
  3
AutoCAD 2000
 90
        0
280
     0
281
     0
  0
CLASS
  1
LONG_TRANSACTION
  2
AcDbLongTransaction
  3
AutoCAD 2000
 90
        0
280
     0
281
     0
  0
CLASS
  1
LWPOLYLINE
  2
AcDbPolyline
  3
AutoCAD 2000
 90
        0
280
     0
281
     1
  0
CLASS
  1
HATCH
  2
AcDbHatch
  3
AutoCAD 2000
 90
        0
280
     0
281
     1
  0
CLASS
  1
XRECORD
  2
AcDbXrecord
  3
AutoCAD 2000
 90
        0
280
     0
281
     0
  0
CLASS
  1
LONG_TRANSACTION
  2
AcDbLongTransaction
  3
AutoCAD 2000
 90
        0
280
     0
281
     0
  0
CLASS
  1
LWPOLYLINE
  2
AcDbPolyline
  3
AutoCAD 2000
 90
        0
280
     0
281
     1
  0
CLASS
  1
HATCH
  2
AcDbHatch
  3
AutoCAD 2000
 90
        0
280
     0
281
     1
  0
CLASS
  1
XRECORD
  2
AcDbXrecord
  3
AutoCAD 2000
 90
        0
280
     0
281
     0
  0
CLASS
  1
LONG_TRANSACTION
  2
AcDbLongTransaction
  3
AutoCAD 2000
 90
        0
280
     0
281
     0
  0
CLASS
  1
LWPOLYLINE
  2
AcDbPolyline
  3
AutoCAD 2000
 90
        0
280
     0
281
     1
  0
CLASS
  1
HATCH
  2
AcDbHatch
  3
AutoCAD 2000
 90
        0
280
     0
281
     1
  0
CLASS
  1
XRECORD
  2
AcDbXrecord
  3
AutoCAD 2000
 90
        0
280
     0
281
     0
  0
CLASS
  1
LONG_TRANSACTION
  2
AcDbLongTransaction
  3
AutoCAD 2000
 90
        0
280
     0
281
     0
  0
CLASS
  1
LWPOLYLINE
  2
AcDbPolyline
  3
AutoCAD 2000
 90
        0
280
     0
281
     1
  0
CLASS
  1
HATCH
  2
AcDbHatch
  3
AutoCAD 2000
 90
        0
280
     0
281
     1
  0
CLASS
  1
XRECORD
  2
AcDbXrecord
  3
AutoCAD 2000
 90
        0
280
     0
281
     0
  0
CLASS
  1
LONG_TRANSACTION
  2
AcDbLongTransaction
  3
AutoCAD 2000
 90
        0
280
     0
281
     0
  0
CLASS
  1
LWPOLYLINE
  2
AcDbPolyline
  3
AutoCAD 2000
 90
        0
280
     0
281
     1
  0
CLASS
  1
HATCH
  2
AcDbHatch
  3
AutoCAD 2000
 90
        0
280
     0
281
     1
  0
CLASS
  1
XRECORD
  2
AcDbXrecord
  3
AutoCAD 2000
 90
        0
280
     0
281
     0
  0
CLASS
  1
LONG_TRANSACTION
  2
AcDbLongTransaction
  3
AutoCAD 2000
 90
        0
280
     0
281
     0
  0
CLASS
  1
LWPOLYLINE
  2
AcDbPolyline
  3
AutoCAD 2000
 90
        0
280
     0
281
     1
  0
CLASS
  1
HATCH
  2
AcDbHatch
  3
AutoCAD 2000
 90
        0
280
     0
281
     1
  0
CLASS
  1
XRECORD
  2
AcDbXrecord
  3
AutoCAD 2000
 90
        0
280
     0
281
     0
  0
CLASS
  1
LONG_TRANSACTION
  2
AcDbLongTransaction
  3
AutoCAD 2000
 90
        0
280
     0
281
     0
  0
CLASS
  1
LWPOLYLINE
  2
AcDbPolyline
  3
AutoCAD 2000
 90
        0
280
     0
281
     1
  0
CLASS
  1
HATCH
  2
AcDbHatch
  3
AutoCAD 2000
 90
        0
280
     0
281
     1
  0
CLASS
  1
XRECORD
  2
AcDbXrecord
  3
AutoCAD 2000
 90
        0
280
     0
281
     0
  0
CLASS
  1
LONG_TRANSACTION
  2
AcDbLongTransaction
  3
AutoCAD 2000
 90
        0
280
     0
281
     0
  0
CLASS
  1
LWPOLYLINE
  2
AcDbPolyline
  3
AutoCAD 2000
 90
        0
280
     0
281
     1
  0
CLASS
  1
HATCH
  2
AcDbHatch
  3
AutoCAD 2000
 90
        0
280
     0
281
     1
  0
CLASS
  1
XRECORD
  2
AcDbXrecord
  3
AutoCAD 2000
 90
        0
280
     0
281
     0
  0
CLASS
  1
LONG_TRANSACTION
  2
AcDbLongTransaction
  3
AutoCAD 2000
 90
        0
280
     0
281
     0
  0
CLASS
  1
LWPOLYLINE
  2
AcDbPolyline
  3
AutoCAD 2000
 90
        0
280
     0
281
     1
  0
CLASS
  1
HATCH
  2
AcDbHatch
  3
AutoCAD 2000
 90
        0
280
     0
281
     1
  0
CLASS
  1
XRECORD
  2
AcDbXrecord
  3
AutoCAD 2000
 90
        0
280
     0
281
     0
  0
CLASS
  1
LONG_TRANSACTION
  2
AcDbLongTransaction
  3
AutoCAD 2000
 90
        0
280
     0
281
     0
  0
CLASS
  1
LWPOLYLINE
  2
AcDbPolyline
  3
AutoCAD 2000
 90
        0
280
     0
281
     1
  0
CLASS
  1
HATCH
  2
AcDbHatch
  3
AutoCAD 2000
 90
        0
280
     0
281
     1
  0
CLASS
  1
XRECORD
  2
AcDbXrecord
  3
AutoCAD 2000
 90
        0
280
     0
281
     0
  0
CLASS
  1
LONG_TRANSACTION
  2
AcDbLongTransaction
  3
AutoCAD 2000
 90
        0
280
     0
281
     0
  0
CLASS
  1
LWPOLYLINE
  2
AcDbPolyline
  3
AutoCAD 2000
 90
        0
280
     0
281
     1
  0
CLASS
  1
HATCH
  2
AcDbHatch
  3
AutoCAD 2000
 90
        0
280
     0
281
     1
  0
CLASS
  1
XRECORD
  2
AcDbXrecord
  3
AutoCAD 2000
 90
        0
280
     0
281
     0
  0
CLASS
  1
LONG_TRANSACTION
  2
AcDbLongTransaction
  3
AutoCAD 2000
 90
        0
280
     0
281
     0
  0
CLASS
  1
LWPOLYLINE
  2
AcDbPolyline
  3
AutoCAD 2000
 90
        0
280
     0
281
     1
  0
CLASS
  1
HATCH
  2
AcDbHatch
  3
AutoCAD 2000
 90
        0
280
     0
281
     1
  0
CLASS
  1
XRECORD
  2
AcDbXrecord
  3
AutoCAD 2000
 90
        0
280
     0
281
     0
  0
CLASS
  1
LONG_TRANSACTION
  2
AcDbLongTransaction
  3
AutoCAD 2000
 90
        0
280
     0
281
     0
  0
CLASS
  1
LWPOLYLINE
  2
AcDbPolyline
  3
AutoCAD 2000
 90
        0
280
     0
281
     1
  0
CLASS
  1
HATCH
  2
AcDbHatch
  3
AutoCAD 2000
 90
        0
280
     0
281
     1
  0
CLASS
  1
XRECORD
  2
AcDbXrecord
  3
AutoCAD 2000
 90
        0
280
     0
281
     0
  0
CLASS
  1
LONG_TRANSACTION
  2
AcDbLongTransaction
  3
AutoCAD 2000
 90
        0
280
     0
281
     0
  0
CLASS
  1
LWPOLYLINE
  2
AcDbPolyline
  3
AutoCAD 2000
 90
        0
280
     0
281
     1
  0
CLASS
  1
HATCH
  2
AcDbHatch
  3
AutoCAD 2000
 90
        0
280
     0
281
     1
  0
CLASS
  1
XRECORD
  2
AcDbXrecord
  3
AutoCAD 2000
 90
        0
280
     0
281
     0
  0
CLASS
  1
LONG_TRANSACTION
  2
AcDbLongTransaction
  3
AutoCAD 2000
 90
        0
280
     0
281
     0
  0
CLASS
  1
LWPOLYLINE
  2
AcDbPolyline
  3
AutoCAD 2000
 90
        0
280
     0
281
     1
  0
CLASS
  1
HATCH
  2
AcDbHatch
  3
AutoCAD 2000
 90
        0
280
     0
281
     1
  0
CLASS
  1
XRECORD
  2
AcDbXrecord
  3
AutoCAD 2000
 90
        0
280
     0
281
     0
  0
CLASS
  1
LONG_TRANSACTION
  2
AcDbLongTransaction
  3
AutoCAD 2000
 90
        0
280
     0
281
     0
  0
CLASS
  1
LWPOLYLINE
  2
AcDbPolyline
  3
AutoCAD 2000
 90
        0
280
     0
281
     1
  0
CLASS
  1
HATCH
  2
AcDbHatch
  3
AutoCAD 2000
 90
        0
280
     0
281
     1
  0
CLASS
  1
XRECORD
  2
AcDbXrecord
  3
AutoCAD 2000
 90
        0
280
     0
281
     0
  0
CLASS
  1
LONG_TRANSACTION
  2
AcDbLongTransaction
  3
AutoCAD 2000
 90
        0
280
     0
281
     0
  0
CLASS
  1
LWPOLYLINE
  2
AcDbPolyline
  3
AutoCAD 2000
 90
        0
280
     0
281
     1
  0
CLASS
  1
HATCH
  2
AcDbHatch
  3
AutoCAD 2000
 90
        0
280
     0
281
     1
  0
CLASS
  1
XRECORD
  2
AcDbXrecord
  3
AutoCAD 2000
 90
        0
280
     0
281
     0
  0
CLASS
  1
LONG_TRANSACTION
  2
AcDbLongTransaction
  3
AutoCAD 2000
 90
        0
280
     0
281
     0
  0
CLASS
  1
LWPOLYLINE
  2
AcDbPolyline
  3
AutoCAD 2000
 90
        0
280
     0
281
     1
  0
CLASS
  1
HATCH
  2
AcDbHatch
  3
AutoCAD 2000
 90
        0
280
     0
281
     1
  0
CLASS
  1
XRECORD
  2
AcDbXrecord
  3
AutoCAD 2000
 90
        0
280
     0
281
     0
  0
CLASS
  1
LONG_TRANSACTION
  2
AcDbLongTransaction
  3
AutoCAD 2000
 90
        0
280
     0
281
     0
  0
CLASS
  1
LWPOLYLINE
  2
AcDbPolyline
  3
AutoCAD 2000
 90
        0
280
     0
281
     1
  0
CLASS
  1
HATCH
  2
AcDbHatch
  3
AutoCAD 2000
 90
        0
280
     0
281
     1
  0
CLASS
  1
XRECORD
  2
AcDbXrecord
  3
AutoCAD 2000
 90
        0
280
     0
281
     0
  0
CLASS
  1
LONG_TRANSACTION
  2
AcDbLongTransaction
  3
AutoCAD 2000
 90
        0
280
     0
281
     0
  0
CLASS
  1
LWPOLYLINE
  2
AcDbPolyline
  3
AutoCAD 2000
 90
        0
280
     0
281
     1
  0
CLASS
  1
HATCH
  2
AcDbHatch
  3
AutoCAD 2000
 90
        0
280
     0
281
     1
  0
CLASS
  1
XRECORD
  2
AcDbXrecord
  3
AutoCAD 2000
 90
        0
280
     0
281
     0
  0
CLASS
  1
LONG_TRANSACTION
  2
AcDbLongTransaction
  3
AutoCAD 2000
 90
        0
280
     0
281
     0
  0
CLASS
  1
LWPOLYLINE
  2
AcDbPolyline
  3
AutoCAD 2000
 90
        0
280
     0
281
     1
  0
CLASS
  1
HATCH
  2
AcDbHatch
  3
AutoCAD 2000
 90
        0
280
     0
281
     1
  0
CLASS
  1
XRECORD
  2
AcDbXrecord
  3
AutoCAD 2000
 90
        0
280
     0
281
     0
  0
CLASS
  1
LONG_TRANSACTION
  2
AcDbLongTransaction
  3
AutoCAD 2000
 90
        0
280
     0
281
     0
  0
CLASS
  1
LWPOLYLINE
  2
AcDbPolyline
  3
AutoCAD 2000
 90
        0
280
     0
281
     1
  0
CLASS
  1
HATCH
  2
AcDbHatch
  3
AutoCAD 2000
 90
        0
280
     0
281
     1
  0
CLASS
  1
XRECORD
  2
AcDbXrecord
  3
AutoCAD 2000
 90
        0
280
     0
281
     0
  0
CLASS
  1
LONG_TRANSACTION
  2
AcDbLongTransaction
  3
AutoCAD 2000
 90
        0
280
     0
281
     0
  0
CLASS
  1
LWPOLYLINE
  2
AcDbPolyline
  3
AutoCAD 2000
 90
        0
280
     0
281
     1
  0
CLASS
  1
HATCH
  2
AcDbHatch
  3
AutoCAD 2000
 90
        0
280
     0
281
     1
  0
CLASS
  1
XRECORD
  2
AcDbXrecord
  3
AutoCAD 2000
 90
        0
280
     0
281
     0
  0
CLASS
  1
LONG_TRANSACTION
  2
AcDbLongTransaction
  3
AutoCAD 2000
 90
        0
280
     0
281
     0
  0
CLASS
  1
LWPOLYLINE
  2
AcDbPolyline
  3
AutoCAD 2000
 90
        0
280
     0
281
     1
  0
CLASS
  1
HATCH
  2
AcDbHatch
  3
AutoCAD 2000
 90
        0
280
     0
281
     1
  0
CLASS
  1
XRECORD
  2
AcDbXrecord
  3
AutoCAD 2000
 90
        0
280
     0
281
     0
  0
CLASS
  1
LONG_TRANSACTION
  2
AcDbLongTransaction
  3
AutoCAD 2000
 90
        0
280
     0
281
     0
  0
CLASS
  1
LWPOLYLINE
  2
AcDbPolyline
  3
AutoCAD 2000
 90
        0
280
     0
281
     1
  0
CLASS
  1
HATCH
  2
AcDbHatch
  3
AutoCAD 2000
 90
        0
280
     0
281
     1
  0
CLASS
  1
XRECORD
  2
AcDbXrecord
  3
AutoCAD 2000
 90
        0
280
     0
281
     0
  0
CLASS
  1
LONG_TRANSACTION
  2
AcDbLongTransaction
  3
AutoCAD 2000
 90
        0
280
     0
281
     0
  0
CLASS
  1
LWPOLYLINE
  2
AcDbPolyline
  3
AutoCAD 2000
 90
        0
280
     0
281
     1
  0
CLASS
  1
HATCH
  2
AcDbHatch
  3
AutoCAD 2000
 90
        0
280
     0
281
     1
  0
CLASS
  1
XRECORD
  2
AcDbXrecord
  3
AutoCAD 2000
 90
        0
280
     0
281
     0
  0
CLASS
  1
LONG_TRANSACTION
  2
AcDbLongTransaction
  3
AutoCAD 2000
 90
        0
280
     0
281
     0
  0
CLASS
  1
LWPOLYLINE
  2
AcDbPolyline
  3
AutoCAD 2000
 90
        0
280
     0
281
     1
  0
CLASS
  1
HATCH
  2
AcDbHatch
  3
AutoCAD 2000
 90
        0
280
     0
281
     1
  0
CLASS
  1
XRECORD
  2
AcDbXrecord
  3
AutoCAD 2000
 90
        0
280
     0
281
     0
  0
CLASS
  1
LONG_TRANSACTION
  2
AcDbLongTransaction
  3
AutoCAD 2000
 90
        0
280
     0
281
     0
  0
CLASS
  1
LWPOLYLINE
  2
AcDbPolyline
  3
AutoCAD 2000
 90
        0
280
     0
281
     1
  0
CLASS
  1
HATCH
  2
AcDbHatch
  3
AutoCAD 2000
 90
        0
280
     0
281
     1
  0
CLASS
  1
XRECORD
  2
AcDbXrecord
  3
AutoCAD 2000
 90
        0
280
     0
281
     0
  0
CLASS
  1
LONG_TRANSACTION
  2
AcDbLongTransaction
  3
AutoCAD 2000
 90
        0
280
     0
281
     0
  0
CLASS
  1
LWPOLYLINE
  2
AcDbPolyline
  3
AutoCAD 2000
 90
        0
280
     0
281
     1
  0
CLASS
  1
HATCH
  2
AcDbHatch
  3
AutoCAD 2000
 90
        0
280
     0
281
     1
  0
CLASS
  1
XRECORD
  2
AcDbXrecord
  3
AutoCAD 2000
 90
        0
280
     0
281
     0
  0
CLASS
  1
LONG_TRANSACTION
  2
AcDbLongTransaction
  3
AutoCAD 2000
 90
        0
280
     0
281
     0
  0
CLASS
  1
LWPOLYLINE
  2
AcDbPolyline
  3
AutoCAD 2000
 90
        0
280
     0
281
     1
  0
CLASS
  1
HATCH
  2
AcDbHatch
  3
AutoCAD 2000
 90
        0
280
     0
281
     1
  0
CLASS
  1
XRECORD
  2
AcDbXrecord
  3
AutoCAD 2000
 90
        0
280
     0
281
     0
  0
CLASS
  1
LONG_TRANSACTION
  2
AcDbLongTransaction
  3
AutoCAD 2000
 90
        0
280
     0
281
     0
  0
CLASS
  1
LWPOLYLINE
  2
AcDbPolyline
  3
AutoCAD 2000
 90
        0
280
     0
281
     1
  0
CLASS
  1
HATCH
  2
AcDbHatch
  3
AutoCAD 2000
 90
        0
280
     0
281
     1
  0
CLASS
  1
XRECORD
  2
AcDbXrecord
  3
AutoCAD 2000
 90
        0
280
     0
281
     0
  0
CLASS
  1
LONG_TRANSACTION
  2
AcDbLongTransaction
  3
AutoCAD 2000
 90
        0
280
     0
281
     0
  0
CLASS
  1
LWPOLYLINE
  2
AcDbPolyline
  3
AutoCAD 2000
 90
        0
280
     0
281
     1
  0
CLASS
  1
HATCH
  2
AcDbHatch
  3
AutoCAD 2000
 90
        0
280
     0
281
     1
  0
CLASS
  1
XRECORD
  2
AcDbXrecord
  3
AutoCAD 2000
 90
        0
280
     0
281
     0
  0
CLASS
  1
LONG_TRANSACTION
  2
AcDbLongTransaction
  3
AutoCAD 2000
 90
        0
280
     0
281
     0
  0
CLASS
  1
LWPOLYLINE
  2
AcDbPolyline
  3
AutoCAD 2000
 90
        0
280
     0
281
     1
  0
CLASS
  1
HATCH
  2
AcDbHatch
  3
AutoCAD 2000
 90
        0
280
     0
281
     1
  0
CLASS
  1
XRECORD
  2
AcDbXrecord
  3
AutoCAD 2000
 90
        0
280
     0
281
     0
  0
CLASS
  1
LONG_TRANSACTION
  2
AcDbLongTransaction
  3
AutoCAD 2000
 90
        0
280
     0
281
     0
  0
CLASS
  1
LWPOLYLINE
  2
AcDbPolyline
  3
AutoCAD 2000
 90
        0
280
     0
281
     1
  0
CLASS
  1
HATCH
  2
AcDbHatch
  3
AutoCAD 2000
 90
        0
280
     0
281
     1
  0
CLASS
  1
XRECORD
  2
AcDbXrecord
  3
AutoCAD 2000
 90
        0
280
     0
281
     0
  0
CLASS
  1
LONG_TRANSACTION
  2
AcDbLongTransaction
  3
AutoCAD 2000
 90
        0
280
     0
281
     0
  0
CLASS
  1
LWPOLYLINE
  2
AcDbPolyline
  3
AutoCAD 2000
 90
        0
280
     0
281
     1
  0
CLASS
  1
HATCH
  2
AcDbHatch
  3
AutoCAD 2000
 90
        0
280
     0
281
     1
  0
CLASS
  1
XRECORD
  2
AcDbXrecord
  3
AutoCAD 2000
 90
        0
280
     0
281
     0
  0
CLASS
  1
LONG_TRANSACTION
  2
AcDbLongTransaction
  3
AutoCAD 2000
 90
        0
280
     0
281
     0
  0
CLASS
  1
LWPOLYLINE
  2
AcDbPolyline
  3
AutoCAD 2000
 90
        0
280
     0
281
     1
  0
CLASS
  1
HATCH
  2
AcDbHatch
  3
AutoCAD 2000
 90
        0
280
     0
281
     1
  0
CLASS
  1
XRECORD
  2
AcDbXrecord
  3
AutoCAD 2000
 90
        0
280
     0
281
     0
  0
CLASS
  1
LONG_TRANSACTION
  2
AcDbLongTransaction
  3
AutoCAD 2000
 90
        0
280
     0
281
     0
  0
CLASS
  1
LWPOLYLINE
  2
AcDbPolyline
  3
AutoCAD 2000
 90
        0
280
     0
281
     1
  0
CLASS
  1
HATCH
  2
AcDbHatch
  3
AutoCAD 2000
 90
        0
280
     0
281
     1
  0
CLASS
  1
XRECORD
  2
AcDbXrecord
  3
AutoCAD 2000
 90
        0
280
     0
281
     0
  0
CLASS
  1
LONG_TRANSACTION
  2
AcDbLongTransaction
  3
AutoCAD 2000
 90
        0
280
     0
281
     0
  0
CLASS
  1
LWPOLYLINE
  2
AcDbPolyline
  3
AutoCAD 2000
 90
        0
280
     0
281
     1
  0
CLASS
  1
HATCH
  2
AcDbHatch
  3
AutoCAD 2000
 90
        0
280
     0
281
     1
  0
CLASS
  1
XRECORD
  2
AcDbXrecord
  3
AutoCAD 2000
 90
        0
280
     0
281
     0
  0
CLASS
  1
LONG_TRANSACTION
  2
AcDbLongTransaction
  3
AutoCAD 2000
 90
        0
280
     0
281
     0
  0
CLASS
  1
LWPOLYLINE
  2
AcDbPolyline
  3
AutoCAD 2000
 90
        0
280
     0
281
     1
  0
CLASS
  1
HATCH
  2
AcDbHatch
  3
AutoCAD 2000
 90
        0
280
     0
281
     1
  0
CLASS
  1
XRECORD
  2
AcDbXrecord
  3
AutoCAD 2000
 90
        0
280
     0
281
     0
  0
CLASS
  1
LONG_TRANSACTION
  2
AcDbLongTransaction
  3
AutoCAD 2000
 90
        0
280
     0
281
     0
  0
CLASS
  1
LWPOLYLINE
  2
AcDbPolyline
  3
AutoCAD 2000
 90
        0
280
     0
281
     1
  0
CLASS
  1
HATCH
  2
AcDbHatch
  3
AutoCAD 2000
 90
        0
280
     0
281
     1
  0
CLASS
  1
XRECORD
  2
AcDbXrecord
  3
AutoCAD 2000
 90
        0
280
     0
281
     0
  0
CLASS
  1
LONG_TRANSACTION
  2
AcDbLongTransaction
  3
AutoCAD 2000
 90
        0
280
     0
281
     0
  0
CLASS
  1
LWPOLYLINE
  2
AcDbPolyline
  3
AutoCAD 2000
 90
        0
280
     0
281
     1
  0
CLASS
  1
HATCH
  2
AcDbHatch
  3
AutoCAD 2000
 90
        0
280
     0
281
     1
  0
CLASS
  1
XRECORD
  2
AcDbXrecord
  3
AutoCAD 2000
 90
        0
280
     0
281
     0
  0
CLASS
  1
LONG_TRANSACTION
  2
AcDbLongTransaction
  3
AutoCAD 2000
 90
        0
280
     0
281
     0
  0
CLASS
  1
LWPOLYLINE
  2
AcDbPolyline
  3
AutoCAD 2000
 90
        0
280
     0
281
     1
  0
CLASS
  1
HATCH
  2
AcDbHatch
  3
AutoCAD 2000
 90
        0
280
     0
281
     1
  0
CLASS
  1
XRECORD
  2
AcDbXrecord
  3
AutoCAD 2000
 90
        0
280
     0
281
     0
  0
CLASS
  1
LONG_TRANSACTION
  2
AcDbLongTransaction
  3
AutoCAD 2000
 90
        0
280
     0
281
     0
  0
CLASS
  1
LWPOLYLINE
  2
AcDbPolyline
  3
AutoCAD 2000
 90
        0
280
     0
281
     1
  0
CLASS
  1
HATCH
  2
AcDbHatch
  3
AutoCAD 2000
 90
        0
280
     0
281
     1
  0
CLASS
  1
XRECORD
  2
AcDbXrecord
  3
AutoCAD 2000
 90
        0
280
     0
281
     0
  0
CLASS
  1
LONG_TRANSACTION
  2
AcDbLongTransaction
  3
AutoCAD 2000
 90
        0
280
     0
281
     0
  0
CLASS
  1
LWPOLYLINE
  2
AcDbPolyline
  3
AutoCAD 2000
 90
        0
280
     0
281
     1
  0
CLASS
  1
HATCH
  2
AcDbHatch
  3
AutoCAD 2000
 90
        0
280
     0
281
     1
  0
CLASS
  1
XRECORD
  2
AcDbXrecord
  3
AutoCAD 2000
 90
        0
280
     0
281
     0
  0
CLASS
  1
LONG_TRANSACTION
  2
AcDbLongTransaction
  3
AutoCAD 2000
 90
        0
280
     0
281
     0
  0
CLASS
  1
LWPOLYLINE
  2
AcDbPolyline
  3
AutoCAD 2000
 90
        0
280
     0
281
     1
  0
CLASS
  1
HATCH
  2
AcDbHatch
  3
AutoCAD 2000
 90
        0
280
     0
281
     1
  0
CLASS
  1
XRECORD
  2
AcDbXrecord
  3
AutoCAD 2000
 90
        0
280
     0
281
     0
  0
CLASS
  1
LONG_TRANSACTION
  2
AcDbLongTransaction
  3
AutoCAD 2000
 90
        0
280
     0
281
     0
  0
CLASS
  1
LWPOLYLINE
  2
AcDbPolyline
  3
AutoCAD 2000
 90
        0
280
     0
281
     1
  0
CLASS
  1
HATCH
  2
AcDbHatch
  3
AutoCAD 2000
 90
        0
280
     0
281
     1
  0
CLASS
  1
XRECORD
  2
AcDbXrecord
  3
AutoCAD 2000
 90
        0
280
     0
281
     0
  0
CLASS
  1
LONG_TRANSACTION
  2
AcDbLongTransaction
  3
AutoCAD 2000
 90
        0
280
     0
281
     0
  0
CLASS
  1
LWPOLYLINE
  2
AcDbPolyline
  3
AutoCAD 2000
 90
        0
280
     0
281
     1
  0
CLASS
  1
HATCH
  2
AcDbHatch
  3
AutoCAD 2000
 90
        0
280
     0
281
     1
  0
CLASS
  1
XRECORD
  2
AcDbXrecord
  3
AutoCAD 2000
 90
        0
280
     0
281
     0
  0
CLASS
  1
LONG_TRANSACTION
  2
AcDbLongTransaction
  3
AutoCAD 2000
 90
        0
280
     0
281
     0
  0
CLASS
  1
LWPOLYLINE
  2
AcDbPolyline
  3
AutoCAD 2000
 90
        0
280
     0
281
     1
  0
CLASS
  1
HATCH
  2
AcDbHatch
  3
AutoCAD 2000
 90
        0
280
     0
281
     1
  0
CLASS
  1
XRECORD
  2
AcDbXrecord
  3
AutoCAD 2000
 90
        0
280
     0
281
     0
  0
CLASS
  1
LONG_TRANSACTION
  2
AcDbLongTransaction
  3
AutoCAD 2000
 90
        0
280
     0
281
     0
  0
CLASS
  1
LWPOLYLINE
  2
AcDbPolyline
  3
AutoCAD 2000
 90
        0
280
     0
281
     1
  0
CLASS
  1
HATCH
  2
AcDbHatch
  3
AutoCAD 2000
 90
        0
280
     0
281
     1
  0
CLASS
  1
XRECORD
  2
AcDbXrecord
  3
AutoCAD 2000
 90
        0
280
     0
281
     0
  0
CLASS
  1
LONG_TRANSACTION
  2
AcDbLongTransaction
  3
AutoCAD 2000
 90
        0
280
     0
281
     0
  0
CLASS
  1
LWPOLYLINE
  2
AcDbPolyline
  3
AutoCAD 2000
 90
        0
280
     0
281
     1
  0
CLASS
  1
HATCH
  2
AcDbHatch
  3
AutoCAD 2000
 90
        0
280
     0
281
     1
  0
CLASS
  1
XRECORD
  2
AcDbXrecord
  3
AutoCAD 2000
 90
        0
280
     0
281
     0
  0
CLASS
  1
LONG_TRANSACTION
  2
AcDbLongTransaction
  3
AutoCAD 2000
 90
        0
280
     0
281
     0
  0
CLASS
  1
LWPOLYLINE
  2
AcDbPolyline
  3
AutoCAD 2000
 90
        0
280
     0
281
     1
  0
CLASS
  1
HATCH
  2
AcDbHatch
  3
AutoCAD 2000
 90
        0
280
     0
281
     1
  0
CLASS
  1
XRECORD
  2
AcDbXrecord
  3
AutoCAD 2000
 90
        0
280
     0
281
     0
  0
CLASS
  1
LONG_TRANSACTION
  2
AcDbLongTransaction
  3
AutoCAD 2000
 90
        0
280
     0
281
     0
  0
CLASS
  1
LWPOLYLINE
  2
AcDbPolyline
  3
AutoCAD 2000
 90
        0
280
     0
281
     1
  0
CLASS
  1
HATCH
  2
AcDbHatch
  3
AutoCAD 2000
 90
        0
280
     0
281
     1
  0
CLASS
  1
XRECORD
  2
AcDbXrecord
  3
AutoCAD 2000
 90
        0
280
     0
281
     0
  0
CLASS
  1
LONG_TRANSACTION
  2
AcDbLongTransaction
  3
AutoCAD 2000
 90
        0
280
     0
281
     0
  0
CLASS
  1
LWPOLYLINE
  2
AcDbPolyline
  3
AutoCAD 2000
 90
        0
280
     0
281
     1
  0
CLASS
  1
HATCH
  2
AcDbHatch
  3
AutoCAD 2000
 90
        0
280
     0
281
     1
  0
CLASS
  1
XRECORD
  2
AcDbXrecord
  3
AutoCAD 2000
 90
        0
280
     0
281
     0
  0
CLASS
  1
LONG_TRANSACTION
  2
AcDbLongTransaction
  3
AutoCAD 2000
 90
        0
280
     0
281
     0
  0
CLASS
  1
LWPOLYLINE
  2
AcDbPolyline
  3
AutoCAD 2000
 90
        0
280
     0
281
     1
  0
CLASS
  1
HATCH
  2
AcDbHatch
  3
AutoCAD 2000
 90
        0
280
     0
281
     1
  0
CLASS
  1
XRECORD
  2
AcDbXrecord
  3
AutoCAD 2000
 90
        0
280
     0
281
     0
  0
CLASS
  1
LONG_TRANSACTION
  2
AcDbLongTransaction
  3
AutoCAD 2000
 90
        0
280
     0
281
     0
  0
CLASS
  1
LWPOLYLINE
  2
AcDbPolyline
  3
AutoCAD 2000
 90
        0
280
     0
281
     1
  0
CLASS
  1
HATCH
  2
AcDbHatch
  3
AutoCAD 2000
 90
        0
280
     0
281
     1
  0
CLASS
  1
XRECORD
  2
AcDbXrecord
  3
AutoCAD 2000
 90
        0
280
     0
281
     0
  0
CLASS
  1
LONG_TRANSACTION
  2
AcDbLongTransaction
  3
AutoCAD 2000
 90
        0
280
     0
281
     0
  0
CLASS
  1
LWPOLYLINE
  2
AcDbPolyline
  3
AutoCAD 2000
 90
        0
280
     0
281
     1
  0
CLASS
  1
HATCH
  2
AcDbHatch
  3
AutoCAD 2000
 90
        0
280
     0
281
     1
  0
CLASS
  1
XRECORD
  2
AcDbXrecord
  3
AutoCAD 2000
 90
        0
280
     0
281
     0
  0
ENDSEC
  0
SECTION
  2
TABLES
  0
TABLE
  2
VPORT
  5
1E
330
0
100
AcDbSymbolTable
 70
     2
  0
VPORT
  5
36E
330
1E
100
AcDbSymbolTableRecord
100
AcDbViewportTableRecord
  2
*ACTIVE
 70
     0
 10
0.0
 20
0.0
 11
1.0
 21
1.0
 12
166.044763363885
 22
158.8507505472544
 13
0.0
 23
0.0
 14
10.0
 24
10.0
 15
10.0
 25
10.0
 16
0.0
 26
0.0
 36
1.0
 17
0.0
 27
0.0
 37
0.0
 40
320.1113734163381
 41
1.549367088607595
 42
50.0
 43
0.0
 44
0.0
 50
0.0
 51
0.0
 71
     0
 72
 10000
 73
     1
 74
     3
 75
     0
 76
     0
 77
     0
 78
     1
  0
ENDTAB
  0
TABLE
  2
LTYPE
  5
19
330
0
100
AcDbSymbolTable
 70
     3
  0
LTYPE
  5
1A
330
19
100
AcDbSymbolTableRecord
100
AcDbLinetypeTableRecord
  2
BYBLOCK
 70
     0
  3

 72
    65
 73
     0
 40
0.0
  0
LTYPE
  5
1B
330
19
100
AcDbSymbolTableRecord
100
AcDbLinetypeTableRecord
  2
BYLAYER
 70
     0
  3

 72
    65
 73
     0
 40
0.0
  0
LTYPE
  5
9
330
19
100
AcDbSymbolTableRecord
100
AcDbLinetypeTableRecord
  2
CONTINUOUS
 70
     0
  3
Solid line
 72
    65
 73
     0
 40
0.0
  0
LTYPE
  5
5A
330
19
100
AcDbSymbolTableRecord
100
AcDbLinetypeTableRecord
  2
CENTER
 70
     0
  3
Center ____ _ ____ _ ____ _ ____ _ ____ _ ____
 72
    65
 73
     4
 40
50.8
 49
31.75
 74
     0
 49
-6.349999999999998
 74
     0
 49
6.349999999999998
 74
     0
 49
-6.349999999999998
 74
     0
  0
LTYPE
  5
E0
330
19
100
AcDbSymbolTableRecord
100
AcDbLinetypeTableRecord
  2
ACAD_ISO02W100
 70
     0
  3
ISO dash __ __ __ __ __ __ __ __ __ __ __ __ __
 72
    65
 73
     2
 40
15.0
 49
12.0
 74
     0
 49
-3.0
 74
     0
  0
ENDTAB
  0
TABLE
  2
LAYER
  5
12
102
{ACAD_XDICTIONARY
360
13
102
}
330
0
100
AcDbSymbolTable
 70
     4
  0
LAYER
  5
5
330
12
100
AcDbSymbolTableRecord
100
AcDbLayerTableRecord
  2
0
 70
     0
 62
     7
  6
CONTINUOUS
  0
LAYER
  5
34
330
12
100
AcDbSymbolTableRecord
100
AcDbLayerTableRecord
  2
DEFPOINTS
 70
     0
 62
     7
  6
CONTINUOUS
  0
LAYER
  5
59
330
12
100
AcDbSymbolTableRecord
100
AcDbLayerTableRecord
  2
CEN
 70
     0
 62
     1
  6
CENTER
  0
LAYER
  5
DF
330
12
100
AcDbSymbolTableRecord
100
AcDbLayerTableRecord
  2
HI
 70
     0
 62
     4
  6
ACAD_ISO02W100
  0
ENDTAB
  0
TABLE
  2
STYLE
  5
16
330
0
100
AcDbSymbolTable
 70
     1
  0
STYLE
  5
17
330
16
100
AcDbSymbolTableRecord
100
AcDbTextStyleTableRecord
  2
STANDARD
 70
     0
 40
0.0
 41
1.0
 50
0.0
 71
     0
 42
5.777225951253058
  3
romans.shx
  4
whgtxt.shx
  0
ENDTAB
  0
TABLE
  2
VIEW
  5
1C
330
0
100
AcDbSymbolTable
 70
     0
  0
ENDTAB
  0
TABLE
  2
UCS
  5
1D
330
0
100
AcDbSymbolTable
 70
     0
  0
ENDTAB
  0
TABLE
  2
APPID
  5
20
330
0
100
AcDbSymbolTable
 70
     1
  0
APPID
  5
21
330
20
100
AcDbSymbolTableRecord
100
AcDbRegAppTableRecord
  2
ACAD
 70
     0
  0
ENDTAB
  0
TABLE
  2
DIMSTYLE
  5
22
330
0
100
AcDbSymbolTable
 70
     1
  0
DIMSTYLE
105
23
102
{ACAD_REACTORS
330
17B
330
1AD
330
162
330
8D
330
1CD
330
1BE
330
48
330
AD
330
A0
330
BC
330
205
330
E3
330
F4
330
7E
330
1DD
330
5C
330
148
330
CA
330
29
330
39
330
122
330
18C
330
1F7
330
6F
102
}
330
22
100
AcDbSymbolTableRecord
100
AcDbDimStyleTableRecord
  2
STANDARD
 70
     0
  3

  4

  5

  6

  7

 40
1.0
 41
3.5
 42
1.0
 43
10.0
 44
0.6
 45
0.0
 46
0.0
 47
0.0
 48
0.0
140
3.0
141
0.09
142
0.0
143
25.4
144
1.0
145
0.0
146
1.0
147
1.0
 71
     0
 72
     0
 73
     0
 74
     0
 75
     0
 76
     0
 77
     1
 78
     8
170
     0
171
     2
172
     1
173
     0
174
     1
175
     0
176
   123
177
   123
178
     3
270
     2
271
     2
272
     2
273
     2
274
     2
340
17
275
     1
280
     0
281
     0
282
     0
283
     1
284
     0
285
     0
286
     0
287
     0
288
     1
  0
ENDTAB
  0
TABLE
  2
BLOCK_RECORD
  5
1
330
0
100
AcDbSymbolTable
 70
    48
  0
BLOCK_RECORD
  5
2
102
{ACAD_XDICTIONARY
360
3
102
}
330
1
100
AcDbSymbolTableRecord
100
AcDbBlockTableRecord
  2
*MODEL_SPACE
  0
BLOCK_RECORD
  5
D
102
{ACAD_XDICTIONARY
360
E
102
}
330
1
100
AcDbSymbolTableRecord
100
AcDbBlockTableRecord
  2
*PAPER_SPACE
  0
BLOCK_RECORD
  5
A1
330
1
100
AcDbSymbolTableRecord
100
AcDbBlockTableRecord
  2
*D0
  0
BLOCK_RECORD
  5
F5
330
1
100
AcDbSymbolTableRecord
100
AcDbBlockTableRecord
  2
*D1
  0
BLOCK_RECORD
  5
7F
330
1
100
AcDbSymbolTableRecord
100
AcDbBlockTableRecord
  2
*D2
  0
BLOCK_RECORD
  5
3A
330
1
100
AcDbSymbolTableRecord
100
AcDbBlockTableRecord
  2
*D3
  0
BLOCK_RECORD
  5
123
330
1
100
AcDbSymbolTableRecord
100
AcDbBlockTableRecord
  2
*D4
  0
BLOCK_RECORD
  5
70
330
1
100
AcDbSymbolTableRecord
100
AcDbBlockTableRecord
  2
*D5
  0
BLOCK_RECORD
  5
17E
330
1
100
AcDbSymbolTableRecord
100
AcDbBlockTableRecord
  2
*D6
  0
BLOCK_RECORD
  5
1B0
330
1
100
AcDbSymbolTableRecord
100
AcDbBlockTableRecord
  2
*D7
  0
BLOCK_RECORD
  5
165
330
1
100
AcDbSymbolTableRecord
100
AcDbBlockTableRecord
  2
*D8
  0
BLOCK_RECORD
  5
90
330
1
100
AcDbSymbolTableRecord
100
AcDbBlockTableRecord
  2
*D9
  0
BLOCK_RECORD
  5
1D0
330
1
100
AcDbSymbolTableRecord
100
AcDbBlockTableRecord
  2
*D10
  0
BLOCK_RECORD
  5
1C1
330
1
100
AcDbSymbolTableRecord
100
AcDbBlockTableRecord
  2
*D11
  0
BLOCK_RECORD
  5
4B
330
1
100
AcDbSymbolTableRecord
100
AcDbBlockTableRecord
  2
*D12
  0
BLOCK_RECORD
  5
B0
330
1
100
AcDbSymbolTableRecord
100
AcDbBlockTableRecord
  2
*D13
  0
BLOCK_RECORD
  5
BF
330
1
100
AcDbSymbolTableRecord
100
AcDbBlockTableRecord
  2
*D14
  0
BLOCK_RECORD
  5
208
330
1
100
AcDbSymbolTableRecord
100
AcDbBlockTableRecord
  2
*D15
  0
BLOCK_RECORD
  5
E6
330
1
100
AcDbSymbolTableRecord
100
AcDbBlockTableRecord
  2
*D16
  0
BLOCK_RECORD
  5
1E0
330
1
100
AcDbSymbolTableRecord
100
AcDbBlockTableRecord
  2
*D17
  0
BLOCK_RECORD
  5
5F
330
1
100
AcDbSymbolTableRecord
100
AcDbBlockTableRecord
  2
*D18
  0
BLOCK_RECORD
  5
14B
330
1
100
AcDbSymbolTableRecord
100
AcDbBlockTableRecord
  2
*D19
  0
BLOCK_RECORD
  5
CD
330
1
100
AcDbSymbolTableRecord
100
AcDbBlockTableRecord
  2
*D20
  0
BLOCK_RECORD
  5
2C
330
1
100
AcDbSymbolTableRecord
100
AcDbBlockTableRecord
  2
*D21
  0
BLOCK_RECORD
  5
18F
330
1
100
AcDbSymbolTableRecord
100
AcDbBlockTableRecord
  2
*D22
  0
BLOCK_RECORD
  5
1FA
330
1
100
AcDbSymbolTableRecord
100
AcDbBlockTableRecord
  2
*D23
  0
BLOCK_RECORD
  5
221
330
1
100
AcDbSymbolTableRecord
100
AcDbBlockTableRecord
  2
*D24
  0
BLOCK_RECORD
  5
22D
330
1
100
AcDbSymbolTableRecord
100
AcDbBlockTableRecord
  2
*D25
  0
BLOCK_RECORD
  5
239
330
1
100
AcDbSymbolTableRecord
100
AcDbBlockTableRecord
  2
*D26
  0
BLOCK_RECORD
  5
244
330
1
100
AcDbSymbolTableRecord
100
AcDbBlockTableRecord
  2
*D27
  0
BLOCK_RECORD
  5
250
330
1
100
AcDbSymbolTableRecord
100
AcDbBlockTableRecord
  2
*D28
  0
BLOCK_RECORD
  5
25C
330
1
100
AcDbSymbolTableRecord
100
AcDbBlockTableRecord
  2
*D29
  0
BLOCK_RECORD
  5
268
330
1
100
AcDbSymbolTableRecord
100
AcDbBlockTableRecord
  2
*D30
  0
BLOCK_RECORD
  5
274
330
1
100
AcDbSymbolTableRecord
100
AcDbBlockTableRecord
  2
*D31
  0
BLOCK_RECORD
  5
280
330
1
100
AcDbSymbolTableRecord
100
AcDbBlockTableRecord
  2
*D32
  0
BLOCK_RECORD
  5
28E
330
1
100
AcDbSymbolTableRecord
100
AcDbBlockTableRecord
  2
*D33
  0
BLOCK_RECORD
  5
29C
330
1
100
AcDbSymbolTableRecord
100
AcDbBlockTableRecord
  2
*D34
  0
BLOCK_RECORD
  5
2A8
330
1
100
AcDbSymbolTableRecord
100
AcDbBlockTableRecord
  2
*D35
  0
BLOCK_RECORD
  5
2B4
330
1
100
AcDbSymbolTableRecord
100
AcDbBlockTableRecord
  2
*D36
  0
BLOCK_RECORD
  5
2C0
330
1
100
AcDbSymbolTableRecord
100
AcDbBlockTableRecord
  2
*D37
  0
BLOCK_RECORD
  5
2CC
330
1
100
AcDbSymbolTableRecord
100
AcDbBlockTableRecord
  2
*D38
  0
BLOCK_RECORD
  5
2D8
330
1
100
AcDbSymbolTableRecord
100
AcDbBlockTableRecord
  2
*D39
  0
BLOCK_RECORD
  5
2E6
330
1
100
AcDbSymbolTableRecord
100
AcDbBlockTableRecord
  2
*D40
  0
BLOCK_RECORD
  5
2F4
330
1
100
AcDbSymbolTableRecord
100
AcDbBlockTableRecord
  2
*D41
  0
BLOCK_RECORD
  5
300
330
1
100
AcDbSymbolTableRecord
100
AcDbBlockTableRecord
  2
*D42
  0
BLOCK_RECORD
  5
30C
330
1
100
AcDbSymbolTableRecord
100
AcDbBlockTableRecord
  2
*D43
  0
BLOCK_RECORD
  5
315
330
1
100
AcDbSymbolTableRecord
100
AcDbBlockTableRecord
  2
*D44
  0
BLOCK_RECORD
  5
31E
330
1
100
AcDbSymbolTableRecord
100
AcDbBlockTableRecord
  2
*D45
  0
BLOCK_RECORD
  5
32A
330
1
100
AcDbSymbolTableRecord
100
AcDbBlockTableRecord
  2
*D46
  0
BLOCK_RECORD
  5
338
330
1
100
AcDbSymbolTableRecord
100
AcDbBlockTableRecord
  2
*D47
  0
ENDTAB
  0
ENDSEC
  0
SECTION
  2
BLOCKS
  0
BLOCK
  5
4
330
2
100
AcDbEntity
  8
0
100
AcDbBlockBegin
  2
*MODEL_SPACE
 70
     0
 10
0.0
 20
0.0
 30
0.0
  3
*MODEL_SPACE
  1

  0
ENDBLK
  5
A
330
2
100
AcDbEntity
  8
0
100
AcDbBlockEnd
  0
BLOCK
  5
F
330
D
100
AcDbEntity
 67
     1
  8
0
100
AcDbBlockBegin
  2
*PAPER_SPACE
 70
     0
 10
0.0
 20
0.0
 30
0.0
  3
*PAPER_SPACE
  1

  0
ENDBLK
  5
10
330
D
100
AcDbEntity
 67
     1
  8
0
100
AcDbBlockEnd
  0
BLOCK
  5
AB
330
A1
100
AcDbEntity
  8
0
100
AcDbBlockBegin
  2
*D0
 70
     1
 10
0.0
 20
0.0
 30
0.0
  3
*D0
  1

  0
LINE
  5
A2
330
A1
100
AcDbEntity
  8
0
 62
   123
100
AcDbLine
 10
-5649.381885331379
 20
-2214.387723311776
 30
0.0
 11
-5649.381885331379
 21
-2181.169662821554
 31
0.0
  0
LINE
  5
A3
330
A1
100
AcDbEntity
  8
0
 62
   123
100
AcDbLine
 10
-5557.38188533138
 20
-2214.387723311776
 30
0.0
 11
-5557.38188533138
 21
-2181.169662821554
 31
0.0
  0
LINE
  5
A4
330
A1
100
AcDbEntity
  8
0
 62
   123
100
AcDbLine
 10
-5644.131885331379
 20
-2182.069662821554
 30
0.0
 11
-5562.63188533138
 21
-2182.069662821554
 31
0.0
  0
SOLID
  5
A5
330
A1
100
AcDbEntity
  8
0
 62
   123
100
AcDbTrace
 10
-5644.131885331379
 20
-2181.194662821554
 30
0.0
 11
-5644.131885331379
 21
-2182.944662821554
 31
0.0
 12
-5649.381885331379
 22
-2182.069662821554
 32
0.0
 13
-5649.381885331379
 23
-2182.069662821554
 33
0.0
  0
SOLID
  5
A6
330
A1
100
AcDbEntity
  8
0
 62
   123
100
AcDbTrace
 10
-5562.63188533138
 20
-2181.194662821554
 30
0.0
 11
-5562.63188533138
 21
-2182.944662821554
 31
0.0
 12
-5557.38188533138
 22
-2182.069662821554
 32
0.0
 13
-5557.38188533138
 23
-2182.069662821554
 33
0.0
  0
MTEXT
  5
A7
330
A1
100
AcDbEntity
  8
0
 62
     3
100
AcDbMText
 10
-5603.38188533138
 20
-2178.319662821554
 30
0.0
 40
4.5
 41
0.0
 71
     5
 72
     1
  1
\A1;92
1001
ACAD
1000
MTEXTBEGIN
1070
    73
1070
     1
1070
    44
1040
1.0
1070
    74
1070
     0
1000
MTEXTEND
  0
POINT
  5
A8
330
A1
100
AcDbEntity
  8
DEFPOINTS
 62
     0
100
AcDbPoint
 10
-5649.381885331379
 20
-2215.887723311776
 30
0.0
  0
POINT
  5
A9
330
A1
100
AcDbEntity
  8
DEFPOINTS
 62
     0
100
AcDbPoint
 10
-5557.38188533138
 20
-2215.887723311776
 30
0.0
  0
POINT
  5
AA
330
A1
100
AcDbEntity
  8
DEFPOINTS
 62
     0
100
AcDbPoint
 10
-5557.38188533138
 20
-2182.069662821554
 30
0.0
  0
ENDBLK
  5
AC
330
A1
100
AcDbEntity
  8
0
100
AcDbBlockEnd
  0
BLOCK
  5
FF
330
F5
100
AcDbEntity
  8
0
100
AcDbBlockBegin
  2
*D1
 70
     1
 10
0.0
 20
0.0
 30
0.0
  3
*D1
  1

  0
LINE
  5
F6
330
F5
100
AcDbEntity
  8
0
 62
   123
100
AcDbLine
 10
-5676.881885331379
 20
-2319.187723311776
 30
0.0
 11
-5694.015560630551
 21
-2319.187723311776
 31
0.0
  0
LINE
  5
F7
330
F5
100
AcDbEntity
  8
0
 62
   123
100
AcDbLine
 10
-5676.977552831379
 20
-2253.187723311776
 30
0.0
 11
-5694.015560630551
 21
-2253.187723311776
 31
0.0
  0
LINE
  5
F8
330
F5
100
AcDbEntity
  8
0
 62
   123
100
AcDbLine
 10
-5693.11556063055
 20
-2313.937723311776
 30
0.0
 11
-5693.11556063055
 21
-2258.437723311776
 31
0.0
  0
SOLID
  5
F9
330
F5
100
AcDbEntity
  8
0
 62
   123
100
AcDbTrace
 10
-5693.99056063055
 20
-2313.937723311776
 30
0.0
 11
-5692.24056063055
 21
-2313.937723311776
 31
0.0
 12
-5693.11556063055
 22
-2319.187723311776
 32
0.0
 13
-5693.11556063055
 23
-2319.187723311776
 33
0.0
  0
SOLID
  5
FA
330
F5
100
AcDbEntity
  8
0
 62
   123
100
AcDbTrace
 10
-5693.99056063055
 20
-2258.437723311776
 30
0.0
 11
-5692.24056063055
 21
-2258.437723311776
 31
0.0
 12
-5693.11556063055
 22
-2253.187723311776
 32
0.0
 13
-5693.11556063055
 23
-2253.187723311776
 33
0.0
  0
MTEXT
  5
FB
330
F5
100
AcDbEntity
  8
0
 62
     3
100
AcDbMText
 10
-5696.86556063055
 20
-2290.095821269019
 30
0.0
 40
4.5
 41
0.0
 71
     5
 72
     1
  1
\A1;66%%P0.5
 11
0.0000000000000001
 21
1.0
 31
0.0
1001
ACAD
1000
MTEXTBEGIN
1070
    73
1070
     1
1070
    44
1040
1.0
1070
    74
1070
     0
1000
MTEXTEND
  0
POINT
  5
FC
330
F5
100
AcDbEntity
  8
DEFPOINTS
 62
     0
100
AcDbPoint
 10
-5675.381885331379
 20
-2319.187723311776
 30
0.0
  0
POINT
  5
FD
330
F5
100
AcDbEntity
  8
DEFPOINTS
 62
     0
100
AcDbPoint
 10
-5675.477552831381
 20
-2253.187723311776
 30
0.0
  0
POINT
  5
FE
330
F5
100
AcDbEntity
  8
DEFPOINTS
 62
     0
100
AcDbPoint
 10
-5693.11556063055
 20
-2253.187723311776
 30
0.0
  0
ENDBLK
  5
100
330
F5
100
AcDbEntity
  8
0
100
AcDbBlockEnd
  0
BLOCK
  5
8B
330
7F
100
AcDbEntity
  8
0
100
AcDbBlockBegin
  2
*D2
 70
     1
 10
0.0
 20
0.0
 30
0.0
  3
*D2
  1

  0
LINE
  5
80
330
7F
100
AcDbEntity
  8
0
 62
   123
100
AcDbLine
 10
-5670.38188533138
 20
-2079.098556162731
 30
0.0
 11
-5686.224211380801
 21
-2079.098556162731
 31
0.0
  0
LINE
  5
81
330
7F
100
AcDbEntity
  8
0
 62
   123
100
AcDbLine
 10
-5670.38188533138
 20
-2072.698556162731
 30
0.0
 11
-5686.224211380801
 21
-2072.698556162731
 31
0.0
  0
LINE
  5
82
330
7F
100
AcDbEntity
  8
0
 62
   123
100
AcDbLine
 10
-5685.324211380802
 20
-2084.348556162731
 30
0.0
 11
-5685.324211380802
 21
-2089.598556162731
 31
0.0
  0
LINE
  5
83
330
7F
100
AcDbEntity
  8
0
 62
   123
100
AcDbLine
 10
-5685.324211380802
 20
-2067.448556162732
 30
0.0
 11
-5685.324211380802
 21
-2062.198556162731
 31
0.0
  0
LINE
  5
84
330
7F
100
AcDbEntity
  8
0
 62
   123
100
AcDbLine
 10
-5685.324211380802
 20
-2079.098556162731
 30
0.0
 11
-5685.324211380802
 21
-2072.698556162731
 31
0.0
  0
SOLID
  5
85
330
7F
100
AcDbEntity
  8
0
 62
   123
100
AcDbTrace
 10
-5686.199211380802
 20
-2084.348556162731
 30
0.0
 11
-5684.449211380802
 21
-2084.348556162731
 31
0.0
 12
-5685.324211380802
 22
-2079.098556162731
 32
0.0
 13
-5685.324211380802
 23
-2079.098556162731
 33
0.0
  0
SOLID
  5
86
330
7F
100
AcDbEntity
  8
0
 62
   123
100
AcDbTrace
 10
-5686.199211380802
 20
-2067.448556162732
 30
0.0
 11
-5684.449211380802
 21
-2067.448556162732
 31
0.0
 12
-5685.324211380802
 22
-2072.698556162731
 32
0.0
 13
-5685.324211380802
 23
-2072.698556162731
 33
0.0
  0
MTEXT
  5
87
330
7F
100
AcDbEntity
  8
0
 62
     3
100
AcDbMText
 10
-5689.074211380801
 20
-2075.898556162731
 30
0.0
 40
4.5
 41
0.0
 71
     5
 72
     1
  1
\A1;6.4
 11
0.0000000000000001
 21
1.0
 31
0.0
1001
ACAD
1000
MTEXTBEGIN
1070
    73
1070
     1
1070
    44
1040
1.0
1070
    74
1070
     0
1000
MTEXTEND
  0
POINT
  5
88
330
7F
100
AcDbEntity
  8
DEFPOINTS
 62
     0
100
AcDbPoint
 10
-5668.88188533138
 20
-2079.098556162731
 30
0.0
  0
POINT
  5
89
330
7F
100
AcDbEntity
  8
DEFPOINTS
 62
     0
100
AcDbPoint
 10
-5668.88188533138
 20
-2072.698556162731
 30
0.0
  0
POINT
  5
8A
330
7F
100
AcDbEntity
  8
DEFPOINTS
 62
     0
100
AcDbPoint
 10
-5685.324211380802
 20
-2072.698556162731
 30
0.0
  0
ENDBLK
  5
8C
330
7F
100
AcDbEntity
  8
0
100
AcDbBlockEnd
  0
BLOCK
  5
46
330
3A
100
AcDbEntity
  8
0
100
AcDbBlockBegin
  2
*D3
 70
     1
 10
0.0
 20
0.0
 30
0.0
  3
*D3
  1

  0
LINE
  5
3B
330
3A
100
AcDbEntity
  8
0
 62
   123
100
AcDbLine
 10
-5568.881885331379
 20
-2319.187723311776
 30
0.0
 11
-5577.093960058284
 21
-2319.187723311776
 31
0.0
  0
LINE
  5
3C
330
3A
100
AcDbEntity
  8
0
 62
   123
100
AcDbLine
 10
-5572.080511941866
 20
-2318.187723311776
 30
0.0
 11
-5577.093960058284
 21
-2318.187723311776
 31
0.0
  0
LINE
  5
3D
330
3A
100
AcDbEntity
  8
0
 62
   123
100
AcDbLine
 10
-5576.193960058287
 20
-2312.937723311776
 30
0.0
 11
-5576.193960058287
 21
-2307.687723311776
 31
0.0
  0
LINE
  5
3E
330
3A
100
AcDbEntity
  8
0
 62
   123
100
AcDbLine
 10
-5576.193960058287
 20
-2324.437723311776
 30
0.0
 11
-5576.193960058287
 21
-2333.759151883205
 31
0.0
  0
LINE
  5
3F
330
3A
100
AcDbEntity
  8
0
 62
   123
100
AcDbLine
 10
-5576.193960058287
 20
-2318.187723311776
 30
0.0
 11
-5576.193960058287
 21
-2319.187723311776
 31
0.0
  0
SOLID
  5
40
330
3A
100
AcDbEntity
  8
0
 62
   123
100
AcDbTrace
 10
-5577.068960058285
 20
-2312.937723311776
 30
0.0
 11
-5575.318960058286
 21
-2312.937723311776
 31
0.0
 12
-5576.193960058287
 22
-2318.187723311776
 32
0.0
 13
-5576.193960058287
 23
-2318.187723311776
 33
0.0
  0
SOLID
  5
41
330
3A
100
AcDbEntity
  8
0
 62
   123
100
AcDbTrace
 10
-5577.068960058285
 20
-2324.437723311776
 30
0.0
 11
-5575.318960058286
 21
-2324.437723311776
 31
0.0
 12
-5576.193960058287
 22
-2319.187723311776
 32
0.0
 13
-5576.193960058287
 23
-2319.187723311776
 33
0.0
  0
MTEXT
  5
42
330
3A
100
AcDbEntity
  8
0
 62
     3
100
AcDbMText
 10
-5579.943960058283
 20
-2331.723437597491
 30
0.0
 40
4.5
 41
0.0
 71
     5
 72
     1
  1
\A1;1
 11
0.0000000000000001
 21
1.0
 31
0.0
1001
ACAD
1000
MTEXTBEGIN
1070
    73
1070
     1
1070
    44
1040
1.0
1070
    74
1070
     0
1000
MTEXTEND
  0
POINT
  5
43
330
3A
100
AcDbEntity
  8
DEFPOINTS
 62
     0
100
AcDbPoint
 10
-5567.381885331379
 20
-2319.187723311776
 30
0.0
  0
POINT
  5
44
330
3A
100
AcDbEntity
  8
DEFPOINTS
 62
     0
100
AcDbPoint
 10
-5570.580511941866
 20
-2318.187723311776
 30
0.0
  0
POINT
  5
45
330
3A
100
AcDbEntity
  8
DEFPOINTS
 62
     0
100
AcDbPoint
 10
-5576.193960058287
 20
-2318.187723311776
 30
0.0
  0
ENDBLK
  5
47
330
3A
100
AcDbEntity
  8
0
100
AcDbBlockEnd
  0
BLOCK
  5
12F
330
123
100
AcDbEntity
  8
0
100
AcDbBlockBegin
  2
*D4
 70
     1
 10
0.0
 20
0.0
 30
0.0
  3
*D4
  1

  0
LINE
  5
124
330
123
100
AcDbEntity
  8
0
 62
   123
100
AcDbLine
 10
-5529.88188533138
 20
-2319.187723311776
 30
0.0
 11
-5512.607768259151
 21
-2319.187723311776
 31
0.0
  0
LINE
  5
125
330
123
100
AcDbEntity
  8
0
 62
   123
100
AcDbLine
 10
-5529.381885331378
 20
-2310.187723311776
 30
0.0
 11
-5512.607768259151
 21
-2310.187723311776
 31
0.0
  0
LINE
  5
126
330
123
100
AcDbEntity
  8
0
 62
   123
100
AcDbLine
 10
-5513.507768259152
 20
-2324.437723311776
 30
0.0
 11
-5513.507768259152
 21
-2329.687723311776
 31
0.0
  0
LINE
  5
127
330
123
100
AcDbEntity
  8
0
 62
   123
100
AcDbLine
 10
-5513.507768259152
 20
-2304.937723311776
 30
0.0
 11
-5513.507768259152
 21
-2299.687723311776
 31
0.0
  0
LINE
  5
128
330
123
100
AcDbEntity
  8
0
 62
   123
100
AcDbLine
 10
-5513.507768259152
 20
-2319.187723311776
 30
0.0
 11
-5513.507768259152
 21
-2310.187723311776
 31
0.0
  0
SOLID
  5
129
330
123
100
AcDbEntity
  8
0
 62
   123
100
AcDbTrace
 10
-5514.382768259152
 20
-2324.437723311776
 30
0.0
 11
-5512.632768259152
 21
-2324.437723311776
 31
0.0
 12
-5513.507768259152
 22
-2319.187723311776
 32
0.0
 13
-5513.507768259152
 23
-2319.187723311776
 33
0.0
  0
SOLID
  5
12A
330
123
100
AcDbEntity
  8
0
 62
   123
100
AcDbTrace
 10
-5514.382768259152
 20
-2304.937723311776
 30
0.0
 11
-5512.632768259152
 21
-2304.937723311776
 31
0.0
 12
-5513.507768259152
 22
-2310.187723311776
 32
0.0
 13
-5513.507768259152
 23
-2310.187723311776
 33
0.0
  0
MTEXT
  5
12B
330
123
100
AcDbEntity
  8
0
 62
     3
100
AcDbMText
 10
-5517.25776825915
 20
-2314.687723311777
 30
0.0
 40
4.5
 41
0.0
 71
     5
 72
     1
  1
\A1;9
 11
0.0000000000000001
 21
1.0
 31
0.0
1001
ACAD
1000
MTEXTBEGIN
1070
    73
1070
     1
1070
    44
1040
1.0
1070
    74
1070
     0
1000
MTEXTEND
  0
POINT
  5
12C
330
123
100
AcDbEntity
  8
DEFPOINTS
 62
     0
100
AcDbPoint
 10
-5531.38188533138
 20
-2319.187723311776
 30
0.0
  0
POINT
  5
12D
330
123
100
AcDbEntity
  8
DEFPOINTS
 62
     0
100
AcDbPoint
 10
-5530.881885331378
 20
-2310.187723311776
 30
0.0
  0
POINT
  5
12E
330
123
100
AcDbEntity
  8
DEFPOINTS
 62
     0
100
AcDbPoint
 10
-5513.507768259152
 20
-2310.187723311776
 30
0.0
  0
ENDBLK
  5
130
330
123
100
AcDbEntity
  8
0
100
AcDbBlockEnd
  0
BLOCK
  5
7A
330
70
100
AcDbEntity
  8
0
100
AcDbBlockBegin
  2
*D5
 70
     1
 10
0.0
 20
0.0
 30
0.0
  3
*D5
  1

  0
LINE
  5
71
330
70
100
AcDbEntity
  8
0
 62
   123
100
AcDbLine
 10
-5530.467056331378
 20
-2115.898556162731
 30
0.0
 11
-5507.93828980165
 21
-2115.898556162731
 31
0.0
  0
LINE
  5
72
330
70
100
AcDbEntity
  8
0
 62
   123
100
AcDbLine
 10
-5531.193567331378
 20
-2075.898556162731
 30
0.0
 11
-5507.93828980165
 21
-2075.898556162731
 31
0.0
  0
LINE
  5
73
330
70
100
AcDbEntity
  8
0
 62
   123
100
AcDbLine
 10
-5508.838289801651
 20
-2110.648556162732
 30
0.0
 11
-5508.838289801651
 21
-2081.148556162732
 31
0.0
  0
SOLID
  5
74
330
70
100
AcDbEntity
  8
0
 62
   123
100
AcDbTrace
 10
-5509.713289801651
 20
-2110.648556162732
 30
0.0
 11
-5507.963289801651
 21
-2110.648556162732
 31
0.0
 12
-5508.838289801651
 22
-2115.898556162731
 32
0.0
 13
-5508.838289801651
 23
-2115.898556162731
 33
0.0
  0
SOLID
  5
75
330
70
100
AcDbEntity
  8
0
 62
   123
100
AcDbTrace
 10
-5509.713289801651
 20
-2081.148556162732
 30
0.0
 11
-5507.963289801651
 21
-2081.148556162732
 31
0.0
 12
-5508.838289801651
 22
-2075.898556162731
 32
0.0
 13
-5508.838289801651
 23
-2075.898556162731
 33
0.0
  0
MTEXT
  5
76
330
70
100
AcDbEntity
  8
0
 62
     3
100
AcDbMText
 10
-5512.588289801651
 20
-2095.898556162731
 30
0.0
 40
4.5
 41
0.0
 71
     5
 72
     1
  1
\A1;40
 11
0.0000000000000001
 21
1.0
 31
0.0
1001
ACAD
1000
MTEXTBEGIN
1070
    73
1070
     1
1070
    44
1040
1.0
1070
    74
1070
     0
1000
MTEXTEND
  0
POINT
  5
77
330
70
100
AcDbEntity
  8
DEFPOINTS
 62
     0
100
AcDbPoint
 10
-5531.967056331378
 20
-2115.898556162731
 30
0.0
  0
POINT
  5
78
330
70
100
AcDbEntity
  8
DEFPOINTS
 62
     0
100
AcDbPoint
 10
-5532.693567331378
 20
-2075.898556162731
 30
0.0
  0
POINT
  5
79
330
70
100
AcDbEntity
  8
DEFPOINTS
 62
     0
100
AcDbPoint
 10
-5508.838289801651
 20
-2075.898556162731
 30
0.0
  0
ENDBLK
  5
7B
330
70
100
AcDbEntity
  8
0
100
AcDbBlockEnd
  0
BLOCK
  5
188
330
17E
100
AcDbEntity
  8
0
100
AcDbBlockBegin
  2
*D6
 70
     1
 10
0.0
 20
0.0
 30
0.0
  3
*D6
  1

  0
LINE
  5
17F
330
17E
100
AcDbEntity
  8
0
 62
   123
100
AcDbLine
 10
-5440.887733322999
 20
-2213.257883311777
 30
0.0
 11
-5458.763517144562
 21
-2213.257883311777
 31
0.0
  0
LINE
  5
180
330
17E
100
AcDbEntity
  8
0
 62
   123
100
AcDbLine
 10
-5440.887733322999
 20
-2293.257883311777
 30
0.0
 11
-5458.763517144562
 21
-2293.257883311777
 31
0.0
  0
LINE
  5
181
330
17E
100
AcDbEntity
  8
0
 62
   123
100
AcDbLine
 10
-5457.863517144563
 20
-2218.507883311775
 30
0.0
 11
-5457.863517144563
 21
-2288.007883311776
 31
0.0
  0
SOLID
  5
182
330
17E
100
AcDbEntity
  8
0
 62
   123
100
AcDbTrace
 10
-5458.738517144563
 20
-2218.507883311775
 30
0.0
 11
-5456.988517144563
 21
-2218.507883311775
 31
0.0
 12
-5457.863517144563
 22
-2213.257883311777
 32
0.0
 13
-5457.863517144563
 23
-2213.257883311777
 33
0.0
  0
SOLID
  5
183
330
17E
100
AcDbEntity
  8
0
 62
   123
100
AcDbTrace
 10
-5458.738517144563
 20
-2288.007883311776
 30
0.0
 11
-5456.988517144563
 21
-2288.007883311776
 31
0.0
 12
-5457.863517144563
 22
-2293.257883311777
 32
0.0
 13
-5457.863517144563
 23
-2293.257883311777
 33
0.0
  0
MTEXT
  5
184
330
17E
100
AcDbEntity
  8
0
 62
     3
100
AcDbMText
 10
-5461.613517144562
 20
-2253.264011619675
 30
0.0
 40
4.5
 41
0.0
 71
     5
 72
     1
  1
\A1;%%c80
 11
0.0000000000000001
 21
1.0
 31
0.0
1001
ACAD
1000
MTEXTBEGIN
1070
    73
1070
     1
1070
    44
1040
1.0
1070
    74
1070
     0
1000
MTEXTEND
  0
POINT
  5
185
330
17E
100
AcDbEntity
  8
DEFPOINTS
 62
     0
100
AcDbPoint
 10
-5439.387733322999
 20
-2213.257883311777
 30
0.0
  0
POINT
  5
186
330
17E
100
AcDbEntity
  8
DEFPOINTS
 62
     0
100
AcDbPoint
 10
-5439.387733322999
 20
-2293.257883311777
 30
0.0
  0
POINT
  5
187
330
17E
100
AcDbEntity
  8
DEFPOINTS
 62
     0
100
AcDbPoint
 10
-5457.863517144563
 20
-2293.257883311777
 30
0.0
  0
ENDBLK
  5
189
330
17E
100
AcDbEntity
  8
0
100
AcDbBlockEnd
  0
BLOCK
  5
1BC
330
1B0
100
AcDbEntity
  8
0
100
AcDbBlockBegin
  2
*D7
 70
     1
 10
0.0
 20
0.0
 30
0.0
  3
*D7
  1

  0
LINE
  5
1B1
330
1B0
100
AcDbEntity
  8
0
 62
   123
100
AcDbLine
 10
-5439.387733322999
 20
-2206.257883311776
 30
0.0
 11
-5439.387733322999
 21
-2183.143471698997
 31
0.0
  0
LINE
  5
1B2
330
1B0
100
AcDbEntity
  8
0
 62
   123
100
AcDbLine
 10
-5430.387733322999
 20
-2206.257883311776
 30
0.0
 11
-5430.387733322999
 21
-2183.143471698997
 31
0.0
  0
LINE
  5
1B3
330
1B0
100
AcDbEntity
  8
0
 62
   123
100
AcDbLine
 10
-5444.637733322999
 20
-2184.043471698997
 30
0.0
 11
-5449.887733322999
 21
-2184.043471698997
 31
0.0
  0
LINE
  5
1B4
330
1B0
100
AcDbEntity
  8
0
 62
   123
100
AcDbLine
 10
-5425.137733322999
 20
-2184.043471698997
 30
0.0
 11
-5419.887733322999
 21
-2184.043471698997
 31
0.0
  0
LINE
  5
1B5
330
1B0
100
AcDbEntity
  8
0
 62
   123
100
AcDbLine
 10
-5439.387733322999
 20
-2184.043471698997
 30
0.0
 11
-5430.387733322999
 21
-2184.043471698997
 31
0.0
  0
SOLID
  5
1B6
330
1B0
100
AcDbEntity
  8
0
 62
   123
100
AcDbTrace
 10
-5444.637733322999
 20
-2183.168471698997
 30
0.0
 11
-5444.637733322999
 21
-2184.918471698997
 31
0.0
 12
-5439.387733322999
 22
-2184.043471698997
 32
0.0
 13
-5439.387733322999
 23
-2184.043471698997
 33
0.0
  0
SOLID
  5
1B7
330
1B0
100
AcDbEntity
  8
0
 62
   123
100
AcDbTrace
 10
-5425.137733322999
 20
-2183.168471698997
 30
0.0
 11
-5425.137733322999
 21
-2184.918471698997
 31
0.0
 12
-5430.387733322999
 22
-2184.043471698997
 32
0.0
 13
-5430.387733322999
 23
-2184.043471698997
 33
0.0
  0
MTEXT
  5
1B8
330
1B0
100
AcDbEntity
  8
0
 62
     3
100
AcDbMText
 10
-5434.887733322999
 20
-2180.293471698997
 30
0.0
 40
4.5
 41
0.0
 71
     5
 72
     1
  1
\A1;9
1001
ACAD
1000
MTEXTBEGIN
1070
    73
1070
     1
1070
    44
1040
1.0
1070
    74
1070
     0
1000
MTEXTEND
  0
POINT
  5
1B9
330
1B0
100
AcDbEntity
  8
DEFPOINTS
 62
     0
100
AcDbPoint
 10
-5439.387733322999
 20
-2207.757883311777
 30
0.0
  0
POINT
  5
1BA
330
1B0
100
AcDbEntity
  8
DEFPOINTS
 62
     0
100
AcDbPoint
 10
-5430.387733322999
 20
-2207.757883311777
 30
0.0
  0
POINT
  5
1BB
330
1B0
100
AcDbEntity
  8
DEFPOINTS
 62
     0
100
AcDbPoint
 10
-5430.387733322999
 20
-2184.043471698997
 30
0.0
  0
ENDBLK
  5
1BD
330
1B0
100
AcDbEntity
  8
0
100
AcDbBlockEnd
  0
BLOCK
  5
171
330
165
100
AcDbEntity
  8
0
100
AcDbBlockBegin
  2
*D8
 70
     1
 10
0.0
 20
0.0
 30
0.0
  3
*D8
  1

  0
LINE
  5
166
330
165
100
AcDbEntity
  8
0
 62
   123
100
AcDbLine
 10
-5433.387733322999
 20
-2210.257883311776
 30
0.0
 11
-5433.387733322999
 21
-2193.774856668197
 31
0.0
  0
LINE
  5
167
330
165
100
AcDbEntity
  8
0
 62
   123
100
AcDbLine
 10
-5430.387733322999
 20
-2206.257883311776
 30
0.0
 11
-5430.387733322999
 21
-2193.774856668197
 31
0.0
  0
LINE
  5
168
330
165
100
AcDbEntity
  8
0
 62
   123
100
AcDbLine
 10
-5438.637733322999
 20
-2194.674856668197
 30
0.0
 11
-5443.887733322999
 21
-2194.674856668197
 31
0.0
  0
LINE
  5
169
330
165
100
AcDbEntity
  8
0
 62
   123
100
AcDbLine
 10
-5425.137733322999
 20
-2194.674856668197
 30
0.0
 11
-5413.887733322999
 21
-2194.674856668197
 31
0.0
  0
LINE
  5
16A
330
165
100
AcDbEntity
  8
0
 62
   123
100
AcDbLine
 10
-5433.387733322999
 20
-2194.674856668197
 30
0.0
 11
-5430.387733322999
 21
-2194.674856668197
 31
0.0
  0
SOLID
  5
16B
330
165
100
AcDbEntity
  8
0
 62
   123
100
AcDbTrace
 10
-5438.637733322999
 20
-2193.799856668197
 30
0.0
 11
-5438.637733322999
 21
-2195.549856668197
 31
0.0
 12
-5433.387733322999
 22
-2194.674856668197
 32
0.0
 13
-5433.387733322999
 23
-2194.674856668197
 33
0.0
  0
SOLID
  5
16C
330
165
100
AcDbEntity
  8
0
 62
   123
100
AcDbTrace
 10
-5425.137733322999
 20
-2193.799856668197
 30
0.0
 11
-5425.137733322999
 21
-2195.549856668197
 31
0.0
 12
-5430.387733322999
 22
-2194.674856668197
 32
0.0
 13
-5430.387733322999
 23
-2194.674856668197
 33
0.0
  0
MTEXT
  5
16D
330
165
100
AcDbEntity
  8
0
 62
     3
100
AcDbMText
 10
-5416.887733322999
 20
-2190.924856668197
 30
0.0
 40
4.5
 41
0.0
 71
     5
 72
     1
  1
\A1;3
1001
ACAD
1000
MTEXTBEGIN
1070
    73
1070
     1
1070
    44
1040
1.0
1070
    74
1070
     0
1000
MTEXTEND
  0
POINT
  5
16E
330
165
100
AcDbEntity
  8
DEFPOINTS
 62
     0
100
AcDbPoint
 10
-5433.387733322999
 20
-2211.757883311777
 30
0.0
  0
POINT
  5
16F
330
165
100
AcDbEntity
  8
DEFPOINTS
 62
     0
100
AcDbPoint
 10
-5430.387733322999
 20
-2207.757883311777
 30
0.0
  0
POINT
  5
170
330
165
100
AcDbEntity
  8
DEFPOINTS
 62
     0
100
AcDbPoint
 10
-5430.387733322999
 20
-2194.674856668197
 30
0.0
  0
ENDBLK
  5
172
330
165
100
AcDbEntity
  8
0
100
AcDbBlockEnd
  0
BLOCK
  5
9A
330
90
100
AcDbEntity
  8
0
100
AcDbBlockBegin
  2
*D9
 70
     1
 10
0.0
 20
0.0
 30
0.0
  3
*D9
  1

  0
LINE
  5
91
330
90
100
AcDbEntity
  8
0
 62
   123
100
AcDbLine
 10
-5434.887733322999
 20
-2211.757883311777
 30
0.0
 11
-5470.566074042615
 21
-2211.757883311777
 31
0.0
  0
LINE
  5
92
330
90
100
AcDbEntity
  8
0
 62
   123
100
AcDbLine
 10
-5434.887733322999
 20
-2294.757883311777
 30
0.0
 11
-5470.566074042615
 21
-2294.757883311777
 31
0.0
  0
LINE
  5
93
330
90
100
AcDbEntity
  8
0
 62
   123
100
AcDbLine
 10
-5469.666074042615
 20
-2217.007883311775
 30
0.0
 11
-5469.666074042615
 21
-2289.507883311777
 31
0.0
  0
SOLID
  5
94
330
90
100
AcDbEntity
  8
0
 62
   123
100
AcDbTrace
 10
-5470.541074042615
 20
-2217.007883311775
 30
0.0
 11
-5468.791074042615
 21
-2217.007883311775
 31
0.0
 12
-5469.666074042615
 22
-2211.757883311777
 32
0.0
 13
-5469.666074042615
 23
-2211.757883311777
 33
0.0
  0
SOLID
  5
95
330
90
100
AcDbEntity
  8
0
 62
   123
100
AcDbTrace
 10
-5470.541074042615
 20
-2289.507883311777
 30
0.0
 11
-5468.791074042615
 21
-2289.507883311777
 31
0.0
 12
-5469.666074042615
 22
-2294.757883311777
 32
0.0
 13
-5469.666074042615
 23
-2294.757883311777
 33
0.0
  0
MTEXT
  5
96
330
90
100
AcDbEntity
  8
0
 62
     3
100
AcDbMText
 10
-5473.416074042614
 20
-2253.062333592031
 30
0.0
 40
4.5
 41
0.0
 71
     5
 72
     1
  1
\A1;%%c83
 11
0.0000000000000001
 21
1.0
 31
0.0
1001
ACAD
1000
MTEXTBEGIN
1070
    73
1070
     1
1070
    44
1040
1.0
1070
    74
1070
     0
1000
MTEXTEND
  0
POINT
  5
97
330
90
100
AcDbEntity
  8
DEFPOINTS
 62
     0
100
AcDbPoint
 10
-5433.387733322999
 20
-2211.757883311777
 30
0.0
  0
POINT
  5
98
330
90
100
AcDbEntity
  8
DEFPOINTS
 62
     0
100
AcDbPoint
 10
-5433.387733322999
 20
-2294.757883311777
 30
0.0
  0
POINT
  5
99
330
90
100
AcDbEntity
  8
DEFPOINTS
 62
     0
100
AcDbPoint
 10
-5469.666074042615
 20
-2294.757883311777
 30
0.0
  0
ENDBLK
  5
9B
330
90
100
AcDbEntity
  8
0
100
AcDbBlockEnd
  0
BLOCK
  5
1DA
330
1D0
100
AcDbEntity
  8
0
100
AcDbBlockBegin
  2
*D10
 70
     1
 10
0.0
 20
0.0
 30
0.0
  3
*D10
  1

  0
LINE
  5
1D1
330
1D0
100
AcDbEntity
  8
0
 62
   123
100
AcDbLine
 10
-5667.38188533138
 20
-2070.08209716273
 30
0.0
 11
-5667.38188533138
 21
-2034.064661268506
 31
0.0
  0
LINE
  5
1D2
330
1D0
100
AcDbEntity
  8
0
 62
   123
100
AcDbLine
 10
-5539.38188533138
 20
-2070.08209716273
 30
0.0
 11
-5539.38188533138
 21
-2034.064661268506
 31
0.0
  0
LINE
  5
1D3
330
1D0
100
AcDbEntity
  8
0
 62
   123
100
AcDbLine
 10
-5662.13188533138
 20
-2034.964661268507
 30
0.0
 11
-5544.63188533138
 21
-2034.964661268507
 31
0.0
  0
SOLID
  5
1D4
330
1D0
100
AcDbEntity
  8
0
 62
   123
100
AcDbTrace
 10
-5662.13188533138
 20
-2034.089661268507
 30
0.0
 11
-5662.13188533138
 21
-2035.839661268507
 31
0.0
 12
-5667.38188533138
 22
-2034.964661268507
 32
0.0
 13
-5667.38188533138
 23
-2034.964661268507
 33
0.0
  0
SOLID
  5
1D5
330
1D0
100
AcDbEntity
  8
0
 62
   123
100
AcDbTrace
 10
-5544.63188533138
 20
-2034.089661268507
 30
0.0
 11
-5544.63188533138
 21
-2035.839661268507
 31
0.0
 12
-5539.38188533138
 22
-2034.964661268507
 32
0.0
 13
-5539.38188533138
 23
-2034.964661268507
 33
0.0
  0
MTEXT
  5
1D6
330
1D0
100
AcDbEntity
  8
0
 62
     3
100
AcDbMText
 10
-5605.524539131129
 20
-2031.214661268507
 30
0.0
 40
4.5
 41
0.0
 71
     5
 72
     1
  1
\A1;128
1001
ACAD
1000
MTEXTBEGIN
1070
    73
1070
     1
1070
    44
1040
1.0
1070
    74
1070
     0
1000
MTEXTEND
  0
POINT
  5
1D7
330
1D0
100
AcDbEntity
  8
DEFPOINTS
 62
     0
100
AcDbPoint
 10
-5667.38188533138
 20
-2071.582097162731
 30
0.0
  0
POINT
  5
1D8
330
1D0
100
AcDbEntity
  8
DEFPOINTS
 62
     0
100
AcDbPoint
 10
-5539.38188533138
 20
-2071.582097162731
 30
0.0
  0
POINT
  5
1D9
330
1D0
100
AcDbEntity
  8
DEFPOINTS
 62
     0
100
AcDbPoint
 10
-5539.38188533138
 20
-2034.964661268507
 30
0.0
  0
ENDBLK
  5
1DB
330
1D0
100
AcDbEntity
  8
0
100
AcDbBlockEnd
  0
BLOCK
  5
1CB
330
1C1
100
AcDbEntity
  8
0
100
AcDbBlockBegin
  2
*D11
 70
     1
 10
0.0
 20
0.0
 30
0.0
  3
*D11
  1

  0
LINE
  5
1C2
330
1C1
100
AcDbEntity
  8
0
 62
   123
100
AcDbLine
 10
-5628.381885331378
 20
-2076.398556162732
 30
0.0
 11
-5628.381885331378
 21
-2045.816544534435
 31
0.0
  0
LINE
  5
1C3
330
1C1
100
AcDbEntity
  8
0
 62
   123
100
AcDbLine
 10
-5578.38188533138
 20
-2076.398556162731
 30
0.0
 11
-5578.38188533138
 21
-2045.816544534435
 31
0.0
  0
LINE
  5
1C4
330
1C1
100
AcDbEntity
  8
0
 62
   123
100
AcDbLine
 10
-5623.131885331378
 20
-2046.716544534433
 30
0.0
 11
-5583.63188533138
 21
-2046.716544534433
 31
0.0
  0
SOLID
  5
1C5
330
1C1
100
AcDbEntity
  8
0
 62
   123
100
AcDbTrace
 10
-5623.131885331378
 20
-2045.841544534435
 30
0.0
 11
-5623.131885331378
 21
-2047.591544534435
 31
0.0
 12
-5628.381885331378
 22
-2046.716544534433
 32
0.0
 13
-5628.381885331378
 23
-2046.716544534433
 33
0.0
  0
SOLID
  5
1C6
330
1C1
100
AcDbEntity
  8
0
 62
   123
100
AcDbTrace
 10
-5583.63188533138
 20
-2045.841544534435
 30
0.0
 11
-5583.63188533138
 21
-2047.591544534435
 31
0.0
 12
-5578.38188533138
 22
-2046.716544534433
 32
0.0
 13
-5578.38188533138
 23
-2046.716544534433
 33
0.0
  0
MTEXT
  5
1C7
330
1C1
100
AcDbEntity
  8
0
 62
     3
100
AcDbMText
 10
-5605.450015266907
 20
-2042.966544534434
 30
0.0
 40
4.5
 41
0.0
 71
     5
 72
     1
  1
\A1;50
1001
ACAD
1000
MTEXTBEGIN
1070
    73
1070
     1
1070
    44
1040
1.0
1070
    74
1070
     0
1000
MTEXTEND
  0
POINT
  5
1C8
330
1C1
100
AcDbEntity
  8
DEFPOINTS
 62
     0
100
AcDbPoint
 10
-5628.381885331378
 20
-2077.898556162732
 30
0.0
  0
POINT
  5
1C9
330
1C1
100
AcDbEntity
  8
DEFPOINTS
 62
     0
100
AcDbPoint
 10
-5578.38188533138
 20
-2077.89855616273
 30
0.0
  0
POINT
  5
1CA
330
1C1
100
AcDbEntity
  8
DEFPOINTS
 62
     0
100
AcDbPoint
 10
-5578.38188533138
 20
-2046.716544534433
 30
0.0
  0
ENDBLK
  5
1CC
330
1C1
100
AcDbEntity
  8
0
100
AcDbBlockEnd
  0
BLOCK
  5
55
330
4B
100
AcDbEntity
  8
0
100
AcDbBlockBegin
  2
*D12
 70
     1
 10
0.0
 20
0.0
 30
0.0
  3
*D12
  1

  0
LINE
  5
4C
330
4B
100
AcDbEntity
  8
0
 62
   123
100
AcDbLine
 10
-5676.381885331378
 20
-2319.687723311776
 30
0.0
 11
-5676.381885331378
 21
-2341.300068333397
 31
0.0
  0
LINE
  5
4D
330
4B
100
AcDbEntity
  8
0
 62
   123
100
AcDbLine
 10
-5530.381885331379
 20
-2319.687723311776
 30
0.0
 11
-5530.381885331379
 21
-2341.300068333397
 31
0.0
  0
LINE
  5
4E
330
4B
100
AcDbEntity
  8
0
 62
   123
100
AcDbLine
 10
-5671.13188533138
 20
-2340.400068333397
 30
0.0
 11
-5535.63188533138
 21
-2340.400068333397
 31
0.0
  0
SOLID
  5
4F
330
4B
100
AcDbEntity
  8
0
 62
   123
100
AcDbTrace
 10
-5671.13188533138
 20
-2339.525068333397
 30
0.0
 11
-5671.13188533138
 21
-2341.275068333397
 31
0.0
 12
-5676.381885331378
 22
-2340.400068333397
 32
0.0
 13
-5676.381885331378
 23
-2340.400068333397
 33
0.0
  0
SOLID
  5
50
330
4B
100
AcDbEntity
  8
0
 62
   123
100
AcDbTrace
 10
-5535.63188533138
 20
-2339.525068333397
 30
0.0
 11
-5535.63188533138
 21
-2341.275068333397
 31
0.0
 12
-5530.381885331379
 22
-2340.400068333397
 32
0.0
 13
-5530.381885331379
 23
-2340.400068333397
 33
0.0
  0
MTEXT
  5
51
330
4B
100
AcDbEntity
  8
0
 62
     3
100
AcDbMText
 10
-5603.3788847711
 20
-2336.650068333397
 30
0.0
 40
4.5
 41
0.0
 71
     5
 72
     1
  1
\A1;146
1001
ACAD
1000
MTEXTBEGIN
1070
    73
1070
     1
1070
    44
1040
1.0
1070
    74
1070
     0
1000
MTEXTEND
  0
POINT
  5
52
330
4B
100
AcDbEntity
  8
DEFPOINTS
 62
     0
100
AcDbPoint
 10
-5676.381885331378
 20
-2318.187723311776
 30
0.0
  0
POINT
  5
53
330
4B
100
AcDbEntity
  8
DEFPOINTS
 62
     0
100
AcDbPoint
 10
-5530.381885331379
 20
-2318.187723311776
 30
0.0
  0
POINT
  5
54
330
4B
100
AcDbEntity
  8
DEFPOINTS
 62
     0
100
AcDbPoint
 10
-5530.381885331379
 20
-2340.400068333397
 30
0.0
  0
ENDBLK
  5
56
330
4B
100
AcDbEntity
  8
0
100
AcDbBlockEnd
  0
BLOCK
  5
BA
330
B0
100
AcDbEntity
  8
0
100
AcDbBlockBegin
  2
*D13
 70
     1
 10
0.0
 20
0.0
 30
0.0
  3
*D13
  1

  0
LINE
  5
B1
330
B0
100
AcDbEntity
  8
0
 62
   123
100
AcDbLine
 10
-5659.38188533138
 20
-2243.687723311776
 30
0.0
 11
-5659.38188533138
 21
-2168.218594797103
 31
0.0
  0
LINE
  5
B2
330
B0
100
AcDbEntity
  8
0
 62
   123
100
AcDbLine
 10
-5547.381885331379
 20
-2244.187723311776
 30
0.0
 11
-5547.381885331379
 21
-2168.218594797103
 31
0.0
  0
LINE
  5
B3
330
B0
100
AcDbEntity
  8
0
 62
   123
100
AcDbLine
 10
-5654.13188533138
 20
-2169.118594797105
 30
0.0
 11
-5552.631885331379
 21
-2169.118594797105
 31
0.0
  0
SOLID
  5
B4
330
B0
100
AcDbEntity
  8
0
 62
   123
100
AcDbTrace
 10
-5654.13188533138
 20
-2168.243594797103
 30
0.0
 11
-5654.13188533138
 21
-2169.993594797105
 31
0.0
 12
-5659.38188533138
 22
-2169.118594797105
 32
0.0
 13
-5659.38188533138
 23
-2169.118594797105
 33
0.0
  0
SOLID
  5
B5
330
B0
100
AcDbEntity
  8
0
 62
   123
100
AcDbTrace
 10
-5552.631885331379
 20
-2168.243594797103
 30
0.0
 11
-5552.631885331379
 21
-2169.993594797105
 31
0.0
 12
-5547.381885331379
 22
-2169.118594797105
 32
0.0
 13
-5547.381885331379
 23
-2169.118594797105
 33
0.0
  0
MTEXT
  5
B6
330
B0
100
AcDbEntity
  8
0
 62
     3
100
AcDbMText
 10
-5605.002004750452
 20
-2165.368594797103
 30
0.0
 40
4.5
 41
0.0
 71
     5
 72
     1
  1
\A1;112
1001
ACAD
1000
MTEXTBEGIN
1070
    73
1070
     1
1070
    44
1040
1.0
1070
    74
1070
     0
1000
MTEXTEND
  0
POINT
  5
B7
330
B0
100
AcDbEntity
  8
DEFPOINTS
 62
     0
100
AcDbPoint
 10
-5659.38188533138
 20
-2245.187723311776
 30
0.0
  0
POINT
  5
B8
330
B0
100
AcDbEntity
  8
DEFPOINTS
 62
     0
100
AcDbPoint
 10
-5547.381885331379
 20
-2245.687723311776
 30
0.0
  0
POINT
  5
B9
330
B0
100
AcDbEntity
  8
DEFPOINTS
 62
     0
100
AcDbPoint
 10
-5547.381885331379
 20
-2169.118594797105
 30
0.0
  0
ENDBLK
  5
BB
330
B0
100
AcDbEntity
  8
0
100
AcDbBlockEnd
  0
BLOCK
  5
C8
330
BF
100
AcDbEntity
  8
0
100
AcDbBlockBegin
  2
*D14
 70
     1
 10
0.0
 20
0.0
 30
0.0
  3
*D14
  1

  0
LINE
  5
C0
330
BF
100
AcDbEntity
  8
0
 62
   123
100
AcDbLine
 10
-5648.020153844008
 20
-2289.034445396154
 30
0.0
 11
-5652.11361951547
 21
-2292.321699386424
 31
0.0
  0
LINE
  5
C1
330
BF
100
AcDbEntity
  8
0
 62
   123
100
AcDbLine
 10
-5558.743616818752
 20
-2217.341001227399
 30
0.0
 11
-5516.209605411762
 21
-2183.184100952272
 31
0.0
  0
LINE
  5
C2
330
BF
100
AcDbEntity
  8
0
 62
   123
100
AcDbLine
 10
-5643.926688172545
 20
-2285.747191405883
 30
0.0
 11
-5562.837082490216
 21
-2220.62825521767
 31
0.0
  0
SOLID
  5
C3
330
BF
100
AcDbEntity
  8
0
 62
   123
100
AcDbTrace
 10
-5648.568029509052
 20
-2288.352201117576
 30
0.0
 11
-5647.472278178963
 21
-2289.716689674731
 31
0.0
 12
-5643.926688172545
 22
-2285.747191405883
 32
0.0
 13
-5643.926688172545
 23
-2285.747191405883
 33
0.0
  0
SOLID
  5
C4
330
BF
100
AcDbEntity
  8
0
 62
   123
100
AcDbTrace
 10
-5559.291492483797
 20
-2216.658756948822
 30
0.0
 11
-5558.195741153706
 21
-2218.023245505976
 31
0.0
 12
-5562.837082490216
 22
-2220.62825521767
 32
0.0
 13
-5562.837082490216
 23
-2220.62825521767
 33
0.0
  0
MTEXT
  5
C5
330
BF
100
AcDbEntity
  8
0
 62
     3
100
AcDbMText
 10
-5532.174682842537
 20
-2191.195347930086
 30
0.0
 40
4.5
 41
0.0
 71
     5
 72
     1
  1
\A1;\U+2205104%%P0.3
 11
0.7797077469454585
 21
0.62614361719436
 31
0.0
1001
ACAD
1000
MTEXTBEGIN
1070
    73
1070
     1
1070
    44
1040
1.0
1070
    74
1070
     0
1000
MTEXTEND
  0
POINT
  5
C6
330
BF
100
AcDbEntity
  8
DEFPOINTS
 62
     0
100
AcDbPoint
 10
-5562.837082490216
 20
-2220.62825521767
 30
0.0
  0
POINT
  5
C7
330
BF
100
AcDbEntity
  8
DEFPOINTS
 62
     0
100
AcDbPoint
 10
-5643.926688172545
 20
-2285.747191405883
 30
0.0
  0
ENDBLK
  5
C9
330
BF
100
AcDbEntity
  8
0
100
AcDbBlockEnd
  0
BLOCK
  5
20F
330
208
100
AcDbEntity
  8
0
100
AcDbBlockBegin
  2
*D15
 70
     1
 10
0.0
 20
0.0
 30
0.0
  3
*D15
  1

  0
LINE
  5
209
330
208
100
AcDbEntity
  8
0
 62
   123
100
AcDbLine
 10
-5579.31087842191
 20
-2067.262785855546
 30
0.0
 11
-5593.516009956445
 21
-2053.438775268924
 31
0.0
  0
LINE
  5
20A
330
208
100
AcDbEntity
  8
0
 62
   123
100
AcDbLine
 10
-5568.381885331376
 20
-2077.898556162733
 30
0.0
 11
-5575.54843817763
 21
-2070.924280551462
 31
0.0
  0
SOLID
  5
20B
330
208
100
AcDbEntity
  8
0
 62
   123
100
AcDbTrace
 10
-5578.700629305925
 20
-2066.6357124815
 30
0.0
 11
-5579.921127537897
 21
-2067.889859229594
 31
0.0
 12
-5575.54843817763
 22
-2070.924280551462
 32
0.0
 13
-5575.54843817763
 23
-2070.924280551462
 33
0.0
  0
MTEXT
  5
20C
330
208
100
AcDbEntity
  8
0
 62
     3
100
AcDbMText
 10
-5585.679310957097
 20
-2055.832575896934
 30
0.0
 40
4.5
 41
0.0
 71
     5
 72
     1
  1
\A1;R10
 11
0.7166552846249711
 21
-0.6974275611266748
 31
0.0
1001
ACAD
1000
MTEXTBEGIN
1070
    73
1070
     1
1070
    44
1040
1.0
1070
    74
1070
     0
1000
MTEXTEND
  0
POINT
  5
20D
330
208
100
AcDbEntity
  8
DEFPOINTS
 62
     0
100
AcDbPoint
 10
-5575.54843817763
 20
-2070.924280551462
 30
0.0
  0
POINT
  5
20E
330
208
100
AcDbEntity
  8
DEFPOINTS
 62
     0
100
AcDbPoint
 10
-5568.381885331376
 20
-2077.898556162733
 30
0.0
  0
ENDBLK
  5
210
330
208
100
AcDbEntity
  8
0
100
AcDbBlockEnd
  0
BLOCK
  5
F0
330
E6
100
AcDbEntity
  8
0
100
AcDbBlockBegin
  2
*D16
 70
     1
 10
0.0
 20
0.0
 30
0.0
  3
*D16
  1

  0
LINE
  5
E7
330
E6
100
AcDbEntity
  8
0
 62
   123
100
AcDbLine
 10
-5678.381885331379
 20
-2319.187723311776
 30
0.0
 11
-5711.076132296487
 21
-2319.187723311776
 31
0.0
  0
LINE
  5
E8
330
E6
100
AcDbEntity
  8
0
 62
   123
100
AcDbLine
 10
-5660.881885331377
 20
-2245.187723311776
 30
0.0
 11
-5711.076132296487
 21
-2245.187723311776
 31
0.0
  0
LINE
  5
E9
330
E6
100
AcDbEntity
  8
0
 62
   123
100
AcDbLine
 10
-5710.176132296488
 20
-2313.937723311776
 30
0.0
 11
-5710.176132296488
 21
-2250.437723311776
 31
0.0
  0
SOLID
  5
EA
330
E6
100
AcDbEntity
  8
0
 62
   123
100
AcDbTrace
 10
-5711.051132296486
 20
-2313.937723311776
 30
0.0
 11
-5709.301132296488
 21
-2313.937723311776
 31
0.0
 12
-5710.176132296488
 22
-2319.187723311776
 32
0.0
 13
-5710.176132296488
 23
-2319.187723311776
 33
0.0
  0
SOLID
  5
EB
330
E6
100
AcDbEntity
  8
0
 62
   123
100
AcDbTrace
 10
-5711.051132296486
 20
-2250.437723311776
 30
0.0
 11
-5709.301132296488
 21
-2250.437723311776
 31
0.0
 12
-5710.176132296488
 22
-2245.187723311776
 32
0.0
 13
-5710.176132296488
 23
-2245.187723311776
 33
0.0
  0
MTEXT
  5
EC
330
E6
100
AcDbEntity
  8
0
 62
     3
100
AcDbMText
 10
-5713.926132296487
 20
-2282.187723311776
 30
0.0
 40
4.5
 41
0.0
 71
     5
 72
     1
  1
\A1;74
 11
0.0000000000000001
 21
1.0
 31
0.0
1001
ACAD
1000
MTEXTBEGIN
1070
    73
1070
     1
1070
    44
1040
1.0
1070
    74
1070
     0
1000
MTEXTEND
  0
POINT
  5
ED
330
E6
100
AcDbEntity
  8
DEFPOINTS
 62
     0
100
AcDbPoint
 10
-5676.881885331379
 20
-2319.187723311776
 30
0.0
  0
POINT
  5
EE
330
E6
100
AcDbEntity
  8
DEFPOINTS
 62
     0
100
AcDbPoint
 10
-5659.38188533138
 20
-2245.187723311776
 30
0.0
  0
POINT
  5
EF
330
E6
100
AcDbEntity
  8
DEFPOINTS
 62
     0
100
AcDbPoint
 10
-5710.176132296488
 20
-2245.187723311776
 30
0.0
  0
ENDBLK
  5
F1
330
E6
100
AcDbEntity
  8
0
100
AcDbBlockEnd
  0
BLOCK
  5
1EC
330
1E0
100
AcDbEntity
  8
0
100
AcDbBlockBegin
  2
*D17
 70
     1
 10
0.0
 20
0.0
 30
0.0
  3
*D17
  1

  0
LINE
  5
1E1
330
1E0
100
AcDbEntity
  8
0
 62
   123
100
AcDbLine
 10
-5672.08188533138
 20
-2074.39855616273
 30
0.0
 11
-5672.08188533138
 21
-2055.496268585899
 31
0.0
  0
LINE
  5
1E2
330
1E0
100
AcDbEntity
  8
0
 62
   123
100
AcDbLine
 10
-5662.68188533138
 20
-2074.39855616273
 30
0.0
 11
-5662.68188533138
 21
-2055.496268585899
 31
0.0
  0
LINE
  5
1E3
330
1E0
100
AcDbEntity
  8
0
 62
   123
100
AcDbLine
 10
-5657.43188533138
 20
-2056.396268585899
 30
0.0
 11
-5652.18188533138
 21
-2056.396268585899
 31
0.0
  0
LINE
  5
1E4
330
1E0
100
AcDbEntity
  8
0
 62
   123
100
AcDbLine
 10
-5677.33188533138
 20
-2056.396268585899
 30
0.0
 11
-5695.224742474234
 21
-2056.396268585899
 31
0.0
  0
LINE
  5
1E5
330
1E0
100
AcDbEntity
  8
0
 62
   123
100
AcDbLine
 10
-5662.68188533138
 20
-2056.396268585899
 30
0.0
 11
-5672.08188533138
 21
-2056.396268585899
 31
0.0
  0
SOLID
  5
1E6
330
1E0
100
AcDbEntity
  8
0
 62
   123
100
AcDbTrace
 10
-5657.43188533138
 20
-2055.521268585899
 30
0.0
 11
-5657.43188533138
 21
-2057.271268585899
 31
0.0
 12
-5662.68188533138
 22
-2056.396268585899
 32
0.0
 13
-5662.68188533138
 23
-2056.396268585899
 33
0.0
  0
SOLID
  5
1E7
330
1E0
100
AcDbEntity
  8
0
 62
   123
100
AcDbTrace
 10
-5677.33188533138
 20
-2055.521268585899
 30
0.0
 11
-5677.33188533138
 21
-2057.271268585899
 31
0.0
 12
-5672.08188533138
 22
-2056.396268585899
 32
0.0
 13
-5672.08188533138
 23
-2056.396268585899
 33
0.0
  0
MTEXT
  5
1E8
330
1E0
100
AcDbEntity
  8
0
 62
     3
100
AcDbMText
 10
-5688.903313902806
 20
-2052.646268585899
 30
0.0
 40
4.5
 41
0.0
 71
     5
 72
     1
  1
\A1;9.4
1001
ACAD
1000
MTEXTBEGIN
1070
    73
1070
     1
1070
    44
1040
1.0
1070
    74
1070
     0
1000
MTEXTEND
  0
POINT
  5
1E9
330
1E0
100
AcDbEntity
  8
DEFPOINTS
 62
     0
100
AcDbPoint
 10
-5672.08188533138
 20
-2075.898556162731
 30
0.0
  0
POINT
  5
1EA
330
1E0
100
AcDbEntity
  8
DEFPOINTS
 62
     0
100
AcDbPoint
 10
-5662.68188533138
 20
-2075.898556162731
 30
0.0
  0
POINT
  5
1EB
330
1E0
100
AcDbEntity
  8
DEFPOINTS
 62
     0
100
AcDbPoint
 10
-5662.68188533138
 20
-2056.396268585899
 30
0.0
  0
ENDBLK
  5
1ED
330
1E0
100
AcDbEntity
  8
0
100
AcDbBlockEnd
  0
BLOCK
  5
69
330
5F
100
AcDbEntity
  8
0
100
AcDbBlockBegin
  2
*D18
 70
     1
 10
0.0
 20
0.0
 30
0.0
  3
*D18
  1

  0
LINE
  5
60
330
5F
100
AcDbEntity
  8
0
 62
   123
100
AcDbLine
 10
-5618.881885331379
 20
-2110.898556162732
 30
0.0
 11
-5612.196891543822
 21
-2110.898556162732
 31
0.0
  0
LINE
  5
61
330
5F
100
AcDbEntity
  8
0
 62
   123
100
AcDbLine
 10
-5636.88188533138
 20
-2067.89855616273
 30
0.0
 11
-5612.196891543822
 21
-2067.89855616273
 31
0.0
  0
LINE
  5
62
330
5F
100
AcDbEntity
  8
0
 62
   123
100
AcDbLine
 10
-5613.096891543822
 20
-2105.64855616273
 30
0.0
 11
-5613.096891543822
 21
-2073.148556162732
 31
0.0
  0
SOLID
  5
63
330
5F
100
AcDbEntity
  8
0
 62
   123
100
AcDbTrace
 10
-5613.971891543822
 20
-2105.64855616273
 30
0.0
 11
-5612.221891543821
 21
-2105.64855616273
 31
0.0
 12
-5613.096891543822
 22
-2110.898556162732
 32
0.0
 13
-5613.096891543822
 23
-2110.898556162732
 33
0.0
  0
SOLID
  5
64
330
5F
100
AcDbEntity
  8
0
 62
   123
100
AcDbTrace
 10
-5613.971891543822
 20
-2073.148556162732
 30
0.0
 11
-5612.221891543821
 21
-2073.148556162732
 31
0.0
 12
-5613.096891543822
 22
-2067.89855616273
 32
0.0
 13
-5613.096891543822
 23
-2067.89855616273
 33
0.0
  0
MTEXT
  5
65
330
5F
100
AcDbEntity
  8
0
 62
     3
100
AcDbMText
 10
-5616.846891543821
 20
-2090.486921251411
 30
0.0
 40
4.5
 41
0.0
 71
     5
 72
     1
  1
\A1;43
 11
0.0000000000000001
 21
1.0
 31
0.0
1001
ACAD
1000
MTEXTBEGIN
1070
    73
1070
     1
1070
    44
1040
1.0
1070
    74
1070
     0
1000
MTEXTEND
  0
POINT
  5
66
330
5F
100
AcDbEntity
  8
DEFPOINTS
 62
     0
100
AcDbPoint
 10
-5620.381885331379
 20
-2110.898556162732
 30
0.0
  0
POINT
  5
67
330
5F
100
AcDbEntity
  8
DEFPOINTS
 62
     0
100
AcDbPoint
 10
-5638.38188533138
 20
-2067.89855616273
 30
0.0
  0
POINT
  5
68
330
5F
100
AcDbEntity
  8
DEFPOINTS
 62
     0
100
AcDbPoint
 10
-5613.096891543822
 20
-2067.89855616273
 30
0.0
  0
ENDBLK
  5
6A
330
5F
100
AcDbEntity
  8
0
100
AcDbBlockEnd
  0
BLOCK
  5
155
330
14B
100
AcDbEntity
  8
0
100
AcDbBlockBegin
  2
*D19
 70
     1
 10
0.0
 20
0.0
 30
0.0
  3
*D19
  1

  0
LINE
  5
14C
330
14B
100
AcDbEntity
  8
0
 62
   123
100
AcDbLine
 10
-5545.88188533138
 20
-2132.898556162732
 30
0.0
 11
-5507.93828980165
 21
-2132.898556162732
 31
0.0
  0
LINE
  5
14D
330
14B
100
AcDbEntity
  8
0
 62
   123
100
AcDbLine
 10
-5531.967056331378
 20
-2115.898556162731
 30
0.0
 11
-5507.93828980165
 21
-2115.898556162731
 31
0.0
  0
LINE
  5
14E
330
14B
100
AcDbEntity
  8
0
 62
   123
100
AcDbLine
 10
-5508.838289801651
 20
-2127.648556162732
 30
0.0
 11
-5508.838289801651
 21
-2121.148556162732
 31
0.0
  0
SOLID
  5
14F
330
14B
100
AcDbEntity
  8
0
 62
   123
100
AcDbTrace
 10
-5509.713289801651
 20
-2127.648556162732
 30
0.0
 11
-5507.963289801651
 21
-2127.648556162732
 31
0.0
 12
-5508.838289801651
 22
-2132.898556162732
 32
0.0
 13
-5508.838289801651
 23
-2132.898556162732
 33
0.0
  0
SOLID
  5
150
330
14B
100
AcDbEntity
  8
0
 62
   123
100
AcDbTrace
 10
-5509.713289801651
 20
-2121.148556162732
 30
0.0
 11
-5507.963289801651
 21
-2121.148556162732
 31
0.0
 12
-5508.838289801651
 22
-2115.898556162731
 32
0.0
 13
-5508.838289801651
 23
-2115.898556162731
 33
0.0
  0
MTEXT
  5
151
330
14B
100
AcDbEntity
  8
0
 62
     3
100
AcDbMText
 10
-5512.588289801651
 20
-2123.820434212544
 30
0.0
 40
4.5
 41
0.0
 71
     5
 72
     1
  1
\A1;17
 11
0.0000000000000001
 21
1.0
 31
0.0
1001
ACAD
1000
MTEXTBEGIN
1070
    73
1070
     1
1070
    44
1040
1.0
1070
    74
1070
     0
1000
MTEXTEND
  0
POINT
  5
152
330
14B
100
AcDbEntity
  8
DEFPOINTS
 62
     0
100
AcDbPoint
 10
-5547.381885331379
 20
-2132.898556162732
 30
0.0
  0
POINT
  5
153
330
14B
100
AcDbEntity
  8
DEFPOINTS
 62
     0
100
AcDbPoint
 10
-5533.467056331378
 20
-2115.898556162731
 30
0.0
  0
POINT
  5
154
330
14B
100
AcDbEntity
  8
DEFPOINTS
 62
     0
100
AcDbPoint
 10
-5508.838289801651
 20
-2115.898556162731
 30
0.0
  0
ENDBLK
  5
156
330
14B
100
AcDbEntity
  8
0
100
AcDbBlockEnd
  0
BLOCK
  5
D7
330
CD
100
AcDbEntity
  8
0
100
AcDbBlockBegin
  2
*D20
 70
     1
 10
0.0
 20
0.0
 30
0.0
  3
*D20
  1

  0
LINE
  5
CE
330
CD
100
AcDbEntity
  8
0
 62
   123
100
AcDbLine
 10
-5564.581885331378
 20
-2207.187723311776
 30
0.0
 11
-5501.000482475679
 21
-2207.187723311776
 31
0.0
  0
LINE
  5
CF
330
CD
100
AcDbEntity
  8
0
 62
   123
100
AcDbLine
 10
-5529.88188533138
 20
-2319.187723311776
 30
0.0
 11
-5501.000482475679
 21
-2319.187723311776
 31
0.0
  0
LINE
  5
D0
330
CD
100
AcDbEntity
  8
0
 62
   123
100
AcDbLine
 10
-5501.900482475678
 20
-2212.437723311776
 30
0.0
 11
-5501.900482475678
 21
-2313.937723311776
 31
0.0
  0
SOLID
  5
D1
330
CD
100
AcDbEntity
  8
0
 62
   123
100
AcDbTrace
 10
-5502.775482475677
 20
-2212.437723311776
 30
0.0
 11
-5501.025482475679
 21
-2212.437723311776
 31
0.0
 12
-5501.900482475678
 22
-2207.187723311776
 32
0.0
 13
-5501.900482475678
 23
-2207.187723311776
 33
0.0
  0
SOLID
  5
D2
330
CD
100
AcDbEntity
  8
0
 62
   123
100
AcDbTrace
 10
-5502.775482475677
 20
-2313.937723311776
 30
0.0
 11
-5501.025482475679
 21
-2313.937723311776
 31
0.0
 12
-5501.900482475678
 22
-2319.187723311776
 32
0.0
 13
-5501.900482475678
 23
-2319.187723311776
 33
0.0
  0
MTEXT
  5
D3
330
CD
100
AcDbEntity
  8
0
 62
     3
100
AcDbMText
 10
-5505.650482475678
 20
-2263.612566843315
 30
0.0
 40
4.5
 41
0.0
 71
     5
 72
     1
  1
\A1;112
 11
0.0000000000000001
 21
1.0
 31
0.0
1001
ACAD
1000
MTEXTBEGIN
1070
    73
1070
     1
1070
    44
1040
1.0
1070
    74
1070
     0
1000
MTEXTEND
  0
POINT
  5
D4
330
CD
100
AcDbEntity
  8
DEFPOINTS
 62
     0
100
AcDbPoint
 10
-5566.081885331378
 20
-2207.187723311776
 30
0.0
  0
POINT
  5
D5
330
CD
100
AcDbEntity
  8
DEFPOINTS
 62
     0
100
AcDbPoint
 10
-5531.38188533138
 20
-2319.187723311776
 30
0.0
  0
POINT
  5
D6
330
CD
100
AcDbEntity
  8
DEFPOINTS
 62
     0
100
AcDbPoint
 10
-5501.900482475678
 20
-2319.187723311776
 30
0.0
  0
ENDBLK
  5
D8
330
CD
100
AcDbEntity
  8
0
100
AcDbBlockEnd
  0
BLOCK
  5
37
330
2C
100
AcDbEntity
  8
0
100
AcDbBlockBegin
  2
*D21
 70
     1
 10
0.0
 20
0.0
 30
0.0
  3
*D21
  1

  0
LINE
  5
2D
330
2C
100
AcDbEntity
  8
0
 62
   123
100
AcDbLine
 10
-5439.387733322999
 20
-2312.757883311777
 30
0.0
 11
-5439.387733322999
 21
-2337.186435875949
 31
0.0
  0
LINE
  5
2E
330
2C
100
AcDbEntity
  8
0
 62
   123
100
AcDbLine
 10
-5374.387733323001
 20
-2319.757883311777
 30
0.0
 11
-5374.387733323001
 21
-2337.186435875949
 31
0.0
  0
LINE
  5
2F
330
2C
100
AcDbEntity
  8
0
 62
   123
100
AcDbLine
 10
-5434.137733322999
 20
-2336.286435875948
 30
0.0
 11
-5379.637733323001
 21
-2336.286435875948
 31
0.0
  0
SOLID
  5
30
330
2C
100
AcDbEntity
  8
0
 62
   123
100
AcDbTrace
 10
-5434.137733322999
 20
-2335.41143587595
 30
0.0
 11
-5434.137733322999
 21
-2337.16143587595
 31
0.0
 12
-5439.387733322999
 22
-2336.286435875948
 32
0.0
 13
-5439.387733322999
 23
-2336.286435875948
 33
0.0
  0
SOLID
  5
31
330
2C
100
AcDbEntity
  8
0
 62
   123
100
AcDbTrace
 10
-5379.637733323001
 20
-2335.41143587595
 30
0.0
 11
-5379.637733323001
 21
-2337.16143587595
 31
0.0
 12
-5374.387733323001
 22
-2336.286435875948
 32
0.0
 13
-5374.387733323001
 23
-2336.286435875948
 33
0.0
  0
MTEXT
  5
32
330
2C
100
AcDbEntity
  8
0
 62
     3
100
AcDbMText
 10
-5406.616290467469
 20
-2332.536435875949
 30
0.0
 40
4.5
 41
0.0
 71
     5
 72
     1
  1
\A1;65
1001
ACAD
1000
MTEXTBEGIN
1070
    73
1070
     1
1070
    44
1040
1.0
1070
    74
1070
     0
1000
MTEXTEND
  0
POINT
  5
33
330
2C
100
AcDbEntity
  8
DEFPOINTS
 62
     0
100
AcDbPoint
 10
-5439.387733322999
 20
-2311.257883311776
 30
0.0
  0
POINT
  5
35
330
2C
100
AcDbEntity
  8
DEFPOINTS
 62
     0
100
AcDbPoint
 10
-5374.387733323001
 20
-2318.257883311777
 30
0.0
  0
POINT
  5
36
330
2C
100
AcDbEntity
  8
DEFPOINTS
 62
     0
100
AcDbPoint
 10
-5374.387733323001
 20
-2336.286435875948
 30
0.0
  0
ENDBLK
  5
38
330
2C
100
AcDbEntity
  8
0
100
AcDbBlockEnd
  0
BLOCK
  5
199
330
18F
100
AcDbEntity
  8
0
100
AcDbBlockBegin
  2
*D22
 70
     1
 10
0.0
 20
0.0
 30
0.0
  3
*D22
  1

  0
LINE
  5
190
330
18F
100
AcDbEntity
  8
0
 62
   123
100
AcDbLine
 10
-5404.387733322999
 20
-2308.757883311777
 30
0.0
 11
-5404.387733322999
 21
-2291.423994363419
 31
0.0
  0
LINE
  5
191
330
18F
100
AcDbEntity
  8
0
 62
   123
100
AcDbLine
 10
-5374.387733323001
 20
-2313.257883311777
 30
0.0
 11
-5374.387733323001
 21
-2291.423994363419
 31
0.0
  0
LINE
  5
192
330
18F
100
AcDbEntity
  8
0
 62
   123
100
AcDbLine
 10
-5399.137733322999
 20
-2292.323994363419
 30
0.0
 11
-5379.637733323001
 21
-2292.323994363419
 31
0.0
  0
SOLID
  5
193
330
18F
100
AcDbEntity
  8
0
 62
   123
100
AcDbTrace
 10
-5399.137733322999
 20
-2291.448994363419
 30
0.0
 11
-5399.137733322999
 21
-2293.198994363419
 31
0.0
 12
-5404.387733322999
 22
-2292.323994363419
 32
0.0
 13
-5404.387733322999
 23
-2292.323994363419
 33
0.0
  0
SOLID
  5
194
330
18F
100
AcDbEntity
  8
0
 62
   123
100
AcDbTrace
 10
-5379.637733323001
 20
-2291.448994363419
 30
0.0
 11
-5379.637733323001
 21
-2293.198994363419
 31
0.0
 12
-5374.387733323001
 22
-2292.323994363419
 32
0.0
 13
-5374.387733323001
 23
-2292.323994363419
 33
0.0
  0
MTEXT
  5
195
330
18F
100
AcDbEntity
  8
0
 62
     3
100
AcDbMText
 10
-5386.737825956076
 20
-2288.57399436342
 30
0.0
 40
4.5
 41
0.0
 71
     5
 72
     1
  1
\A1;30
1001
ACAD
1000
MTEXTBEGIN
1070
    73
1070
     1
1070
    44
1040
1.0
1070
    74
1070
     0
1000
MTEXTEND
  0
POINT
  5
196
330
18F
100
AcDbEntity
  8
DEFPOINTS
 62
     0
100
AcDbPoint
 10
-5404.387733322999
 20
-2310.257883311777
 30
0.0
  0
POINT
  5
197
330
18F
100
AcDbEntity
  8
DEFPOINTS
 62
     0
100
AcDbPoint
 10
-5374.387733323001
 20
-2314.757883311777
 30
0.0
  0
POINT
  5
198
330
18F
100
AcDbEntity
  8
DEFPOINTS
 62
     0
100
AcDbPoint
 10
-5374.387733323001
 20
-2292.323994363419
 30
0.0
  0
ENDBLK
  5
19A
330
18F
100
AcDbEntity
  8
0
100
AcDbBlockEnd
  0
BLOCK
  5
201
330
1FA
100
AcDbEntity
  8
0
100
AcDbBlockBegin
  2
*D23
 70
     1
 10
0.0
 20
0.0
 30
0.0
  3
*D23
  1

  0
LINE
  5
1FB
330
1FA
100
AcDbEntity
  8
0
 62
   123
100
AcDbLine
 10
-5529.412477102242
 20
-2067.304473705881
 30
0.0
 11
-5515.154815352428
 21
-2053.534647561731
 31
0.0
  0
LINE
  5
1FC
330
1FA
100
AcDbEntity
  8
0
 62
   123
100
AcDbLine
 10
-5540.381885331381
 20
-2077.898556162733
 30
0.0
 11
-5533.188830754896
 21
-2070.951616846764
 31
0.0
  0
SOLID
  5
1FD
330
1FA
100
AcDbEntity
  8
0
 62
   123
100
AcDbTrace
 10
-5530.020334292391
 20
-2066.675081430439
 30
0.0
 11
-5528.804619912095
 21
-2067.933865981324
 31
0.0
 12
-5533.188830754896
 22
-2070.951616846764
 32
0.0
 13
-5533.188830754896
 23
-2070.951616846764
 33
0.0
  0
MTEXT
  5
1FE
330
1FA
100
AcDbEntity
  8
0
 62
     3
100
AcDbMText
 10
-5523.000571644494
 20
-2055.898593597182
 30
0.0
 40
4.5
 41
0.0
 71
     5
 72
     1
  1
\A1;R10
 11
0.7193054576483087
 21
0.6946939315967553
 31
0.0
1001
ACAD
1000
MTEXTBEGIN
1070
    73
1070
     1
1070
    44
1040
1.0
1070
    74
1070
     0
1000
MTEXTEND
  0
POINT
  5
1FF
330
1FA
100
AcDbEntity
  8
DEFPOINTS
 62
     0
100
AcDbPoint
 10
-5533.188830754896
 20
-2070.951616846764
 30
0.0
  0
POINT
  5
200
330
1FA
100
AcDbEntity
  8
DEFPOINTS
 62
     0
100
AcDbPoint
 10
-5540.381885331381
 20
-2077.898556162733
 30
0.0
  0
ENDBLK
  5
202
330
1FA
100
AcDbEntity
  8
0
100
AcDbBlockEnd
  0
BLOCK
  5
22B
330
221
100
AcDbEntity
  8
0
100
AcDbBlockBegin
  2
*D24
 70
     1
 10
0.0
 20
0.0
 30
0.0
  3
*D24
  1

  0
LINE
  5
222
330
221
100
AcDbEntity
  8
0
 62
   123
100
AcDbLine
 10
270.281331843018
 20
133.0959589347839
 30
0.0
 11
252.4055480214543
 21
133.0959589347839
 31
0.0
  0
LINE
  5
223
330
221
100
AcDbEntity
  8
0
 62
   123
100
AcDbLine
 10
270.281331843018
 20
53.09595893478399
 30
0.0
 11
252.4055480214543
 21
53.09595893478399
 31
0.0
  0
LINE
  5
224
330
221
100
AcDbEntity
  8
0
 62
   123
100
AcDbLine
 10
253.3055480214543
 20
127.8459589347839
 30
0.0
 11
253.3055480214543
 21
58.34595893478399
 31
0.0
  0
SOLID
  5
225
330
221
100
AcDbEntity
  8
0
 62
   123
100
AcDbTrace
 10
252.4305480214543
 20
127.8459589347839
 30
0.0
 11
254.1805480214543
 21
127.8459589347839
 31
0.0
 12
253.3055480214543
 22
133.0959589347839
 32
0.0
 13
253.3055480214543
 23
133.0959589347839
 33
0.0
  0
SOLID
  5
226
330
221
100
AcDbEntity
  8
0
 62
   123
100
AcDbTrace
 10
252.4305480214543
 20
58.34595893478399
 30
0.0
 11
254.1805480214543
 21
58.34595893478399
 31
0.0
 12
253.3055480214543
 22
53.09595893478399
 32
0.0
 13
253.3055480214543
 23
53.09595893478399
 33
0.0
  0
MTEXT
  5
227
330
221
100
AcDbEntity
  8
0
 62
     3
100
AcDbMText
 10
249.5555480214543
 20
93.08983062688595
 30
0.0
 40
4.5
 41
0.0
 71
     5
 72
     1
  1
\A1;%%c80
 11
0.0000000000000001
 21
1.0
 31
0.0
1001
ACAD
1000
MTEXTBEGIN
1070
    73
1070
     1
1070
    44
1040
1.0
1070
    74
1070
     0
1000
MTEXTEND
  0
POINT
  5
228
330
221
100
AcDbEntity
  8
DEFPOINTS
 62
     0
100
AcDbPoint
 10
271.781331843018
 20
133.0959589347839
 30
0.0
  0
POINT
  5
229
330
221
100
AcDbEntity
  8
DEFPOINTS
 62
     0
100
AcDbPoint
 10
271.781331843018
 20
53.09595893478399
 30
0.0
  0
POINT
  5
22A
330
221
100
AcDbEntity
  8
DEFPOINTS
 62
     0
100
AcDbPoint
 10
253.3055480214543
 20
53.09595893478399
 30
0.0
  0
ENDBLK
  5
22C
330
221
100
AcDbEntity
  8
0
100
AcDbBlockEnd
  0
BLOCK
  5
237
330
22D
100
AcDbEntity
  8
0
100
AcDbBlockBegin
  2
*D25
 70
     1
 10
0.0
 20
0.0
 30
0.0
  3
*D25
  1

  0
LINE
  5
22E
330
22D
100
AcDbEntity
  8
0
 62
   123
100
AcDbLine
 10
146.5871798346388
 20
139.1661189347846
 30
0.0
 11
210.1685826903398
 21
139.1661189347846
 31
0.0
  0
LINE
  5
22F
330
22D
100
AcDbEntity
  8
0
 62
   123
100
AcDbLine
 10
181.2871798346377
 20
27.16611893478466
 30
0.0
 11
210.1685826903398
 21
27.16611893478465
 31
0.0
  0
LINE
  5
230
330
22D
100
AcDbEntity
  8
0
 62
   123
100
AcDbLine
 10
209.2685826903398
 20
133.9161189347846
 30
0.0
 11
209.2685826903398
 21
32.41611893478465
 31
0.0
  0
SOLID
  5
231
330
22D
100
AcDbEntity
  8
0
 62
   123
100
AcDbTrace
 10
208.3935826903398
 20
133.9161189347846
 30
0.0
 11
210.1435826903398
 21
133.9161189347846
 31
0.0
 12
209.2685826903398
 22
139.1661189347846
 32
0.0
 13
209.2685826903398
 23
139.1661189347846
 33
0.0
  0
SOLID
  5
232
330
22D
100
AcDbEntity
  8
0
 62
   123
100
AcDbTrace
 10
208.3935826903398
 20
32.41611893478465
 30
0.0
 11
210.1435826903398
 21
32.41611893478465
 31
0.0
 12
209.2685826903398
 22
27.16611893478465
 32
0.0
 13
209.2685826903398
 23
27.16611893478465
 33
0.0
  0
MTEXT
  5
233
330
22D
100
AcDbEntity
  8
0
 62
     3
100
AcDbMText
 10
205.5185826903398
 20
82.7412754032457
 30
0.0
 40
4.5
 41
0.0
 71
     5
 72
     1
  1
\A1;112
 11
0.0000000000000001
 21
1.0
 31
0.0
1001
ACAD
1000
MTEXTBEGIN
1070
    73
1070
     1
1070
    44
1040
1.0
1070
    74
1070
     0
1000
MTEXTEND
  0
POINT
  5
234
330
22D
100
AcDbEntity
  8
DEFPOINTS
 62
     0
100
AcDbPoint
 10
145.0871798346388
 20
139.1661189347846
 30
0.0
  0
POINT
  5
235
330
22D
100
AcDbEntity
  8
DEFPOINTS
 62
     0
100
AcDbPoint
 10
179.7871798346377
 20
27.16611893478466
 30
0.0
  0
POINT
  5
236
330
22D
100
AcDbEntity
  8
DEFPOINTS
 62
     0
100
AcDbPoint
 10
209.2685826903398
 20
27.16611893478465
 30
0.0
  0
ENDBLK
  5
238
330
22D
100
AcDbEntity
  8
0
100
AcDbBlockEnd
  0
BLOCK
  5
242
330
239
100
AcDbEntity
  8
0
100
AcDbBlockBegin
  2
*D26
 70
     1
 10
0.0
 20
0.0
 30
0.0
  3
*D26
  1

  0
LINE
  5
366
330
239
100
AcDbEntity
  8
0
 62
   123
100
AcDbLine
 10
63.14891132200948
 20
57.31939685040789
 30
0.0
 11
59.05544565054577
 21
54.03214286013755
 31
0.0
  0
LINE
  5
367
330
239
100
AcDbEntity
  8
0
 62
   123
100
AcDbLine
 10
152.4254483472657
 20
129.0128410191611
 30
0.0
 11
194.9594597542575
 21
163.1697412942873
 31
0.0
  0
LINE
  5
368
330
239
100
AcDbEntity
  8
0
 62
   123
100
AcDbLine
 10
67.24237699347316
 20
60.60665084067822
 30
0.0
 11
148.331982675802
 21
125.7255870288908
 31
0.0
  0
SOLID
  5
369
330
239
100
AcDbEntity
  8
0
 62
   123
100
AcDbTrace
 10
62.60103565696442
 20
58.00164112898517
 30
0.0
 11
63.69678698705453
 21
56.6371525718306
 31
0.0
 12
67.24237699347316
 22
60.60665084067822
 32
0.0
 13
67.24237699347316
 23
60.60665084067822
 33
0.0
  0
SOLID
  5
36A
330
239
100
AcDbEntity
  8
0
 62
   123
100
AcDbTrace
 10
151.8775726822206
 20
129.6950852977384
 30
0.0
 11
152.9733240123107
 21
128.3305967405839
 31
0.0
 12
148.331982675802
 22
125.7255870288908
 32
0.0
 13
148.331982675802
 23
125.7255870288908
 33
0.0
  0
MTEXT
  5
36B
330
239
100
AcDbEntity
  8
0
 62
     3
100
AcDbMText
 10
178.9943823234811
 20
155.1584943164743
 30
0.0
 40
4.5
 41
0.0
 71
     5
 72
     1
  1
\A1;\U+2205104%%P0.3
 11
0.7797077469454666
 21
0.6261436171943497
 31
0.0
1001
ACAD
1000
MTEXTBEGIN
1070
    73
1070
     1
1070
    44
1040
1.0
1070
    74
1070
     0
1000
MTEXTEND
  0
POINT
  5
36C
330
239
100
AcDbEntity
  8
DEFPOINTS
 62
     0
100
AcDbPoint
 10
148.331982675802
 20
125.7255870288908
 30
0.0
  0
POINT
  5
36D
330
239
100
AcDbEntity
  8
DEFPOINTS
 62
     0
100
AcDbPoint
 10
67.24237699347316
 20
60.60665084067822
 30
0.0
  0
ENDBLK
  5
243
330
239
100
AcDbEntity
  8
0
100
AcDbBlockEnd
  0
BLOCK
  5
24E
330
244
100
AcDbEntity
  8
0
100
AcDbBlockBegin
  2
*D27
 70
     1
 10
0.0
 20
0.0
 30
0.0
  3
*D27
  1

  0
LINE
  5
245
330
244
100
AcDbEntity
  8
0
 62
   123
100
AcDbLine
 10
51.78717983463775
 20
102.6661189347846
 30
0.0
 11
51.78717983463776
 21
178.1352474494555
 31
0.0
  0
LINE
  5
246
330
244
100
AcDbEntity
  8
0
 62
   123
100
AcDbLine
 10
163.7871798346377
 20
102.1661189347846
 30
0.0
 11
163.7871798346377
 21
178.1352474494555
 31
0.0
  0
LINE
  5
247
330
244
100
AcDbEntity
  8
0
 62
   123
100
AcDbLine
 10
57.03717983463776
 20
177.2352474494555
 30
0.0
 11
158.5371798346377
 21
177.2352474494555
 31
0.0
  0
SOLID
  5
248
330
244
100
AcDbEntity
  8
0
 62
   123
100
AcDbTrace
 10
57.03717983463776
 20
178.1102474494555
 30
0.0
 11
57.03717983463776
 21
176.3602474494555
 31
0.0
 12
51.78717983463776
 22
177.2352474494555
 32
0.0
 13
51.78717983463776
 23
177.2352474494555
 33
0.0
  0
SOLID
  5
249
330
244
100
AcDbEntity
  8
0
 62
   123
100
AcDbTrace
 10
158.5371798346377
 20
178.1102474494555
 30
0.0
 11
158.5371798346377
 21
176.3602474494555
 31
0.0
 12
163.7871798346377
 22
177.2352474494555
 32
0.0
 13
163.7871798346377
 23
177.2352474494555
 33
0.0
  0
MTEXT
  5
24A
330
244
100
AcDbEntity
  8
0
 62
     3
100
AcDbMText
 10
106.167060415566
 20
180.9852474494555
 30
0.0
 40
4.5
 41
0.0
 71
     5
 72
     1
  1
\A1;112
1001
ACAD
1000
MTEXTBEGIN
1070
    73
1070
     1
1070
    44
1040
1.0
1070
    74
1070
     0
1000
MTEXTEND
  0
POINT
  5
24B
330
244
100
AcDbEntity
  8
DEFPOINTS
 62
     0
100
AcDbPoint
 10
51.78717983463775
 20
101.1661189347846
 30
0.0
  0
POINT
  5
24C
330
244
100
AcDbEntity
  8
DEFPOINTS
 62
     0
100
AcDbPoint
 10
163.7871798346377
 20
100.6661189347846
 30
0.0
  0
POINT
  5
24D
330
244
100
AcDbEntity
  8
DEFPOINTS
 62
     0
100
AcDbPoint
 10
163.7871798346377
 20
177.2352474494555
 30
0.0
  0
ENDBLK
  5
24F
330
244
100
AcDbEntity
  8
0
100
AcDbBlockEnd
  0
BLOCK
  5
25A
330
250
100
AcDbEntity
  8
0
100
AcDbBlockBegin
  2
*D28
 70
     1
 10
0.0
 20
0.0
 30
0.0
  3
*D28
  1

  0
LINE
  5
251
330
250
100
AcDbEntity
  8
0
 62
   123
100
AcDbLine
 10
276.281331843018
 20
134.5959589347839
 30
0.0
 11
240.6029911234042
 21
134.5959589347839
 31
0.0
  0
LINE
  5
252
330
250
100
AcDbEntity
  8
0
 62
   123
100
AcDbLine
 10
276.281331843018
 20
51.595958934784
 30
0.0
 11
240.6029911234041
 21
51.595958934784
 31
0.0
  0
LINE
  5
253
330
250
100
AcDbEntity
  8
0
 62
   123
100
AcDbLine
 10
241.5029911234042
 20
129.345958934784
 30
0.0
 11
241.5029911234041
 21
56.845958934784
 31
0.0
  0
SOLID
  5
254
330
250
100
AcDbEntity
  8
0
 62
   123
100
AcDbTrace
 10
240.6279911234042
 20
129.345958934784
 30
0.0
 11
242.3779911234042
 21
129.345958934784
 31
0.0
 12
241.5029911234042
 22
134.5959589347839
 32
0.0
 13
241.5029911234042
 23
134.5959589347839
 33
0.0
  0
SOLID
  5
255
330
250
100
AcDbEntity
  8
0
 62
   123
100
AcDbTrace
 10
240.6279911234041
 20
56.845958934784
 30
0.0
 11
242.3779911234041
 21
56.845958934784
 31
0.0
 12
241.5029911234041
 22
51.595958934784
 32
0.0
 13
241.5029911234041
 23
51.595958934784
 33
0.0
  0
MTEXT
  5
256
330
250
100
AcDbEntity
  8
0
 62
     3
100
AcDbMText
 10
237.7529911234041
 20
93.29150865452993
 30
0.0
 40
4.5
 41
0.0
 71
     5
 72
     1
  1
\A1;%%c83
 11
0.0000000000000001
 21
1.0
 31
0.0
1001
ACAD
1000
MTEXTBEGIN
1070
    73
1070
     1
1070
    44
1040
1.0
1070
    74
1070
     0
1000
MTEXTEND
  0
POINT
  5
257
330
250
100
AcDbEntity
  8
DEFPOINTS
 62
     0
100
AcDbPoint
 10
277.781331843018
 20
134.5959589347839
 30
0.0
  0
POINT
  5
258
330
250
100
AcDbEntity
  8
DEFPOINTS
 62
     0
100
AcDbPoint
 10
277.781331843018
 20
51.595958934784
 30
0.0
  0
POINT
  5
259
330
250
100
AcDbEntity
  8
DEFPOINTS
 62
     0
100
AcDbPoint
 10
241.5029911234041
 20
51.595958934784
 30
0.0
  0
ENDBLK
  5
25B
330
250
100
AcDbEntity
  8
0
100
AcDbBlockEnd
  0
BLOCK
  5
266
330
25C
100
AcDbEntity
  8
0
100
AcDbBlockBegin
  2
*D29
 70
     1
 10
0.0
 20
0.0
 30
0.0
  3
*D29
  1

  0
LINE
  5
25D
330
25C
100
AcDbEntity
  8
0
 62
   123
100
AcDbLine
 10
34.78717983463957
 20
26.66611893478466
 30
0.0
 11
34.78717983463957
 21
5.053773913163787
 31
0.0
  0
LINE
  5
25E
330
25C
100
AcDbEntity
  8
0
 62
   123
100
AcDbLine
 10
180.7871798346377
 20
26.66611893478466
 30
0.0
 11
180.7871798346377
 21
5.053773913163787
 31
0.0
  0
LINE
  5
25F
330
25C
100
AcDbEntity
  8
0
 62
   123
100
AcDbLine
 10
40.03717983463957
 20
5.953773913163786
 30
0.0
 11
175.5371798346377
 21
5.953773913163786
 31
0.0
  0
SOLID
  5
260
330
25C
100
AcDbEntity
  8
0
 62
   123
100
AcDbTrace
 10
40.03717983463957
 20
6.828773913163786
 30
0.0
 11
40.03717983463957
 21
5.078773913163786
 31
0.0
 12
34.78717983463957
 22
5.953773913163786
 32
0.0
 13
34.78717983463957
 23
5.953773913163786
 33
0.0
  0
SOLID
  5
261
330
25C
100
AcDbEntity
  8
0
 62
   123
100
AcDbTrace
 10
175.5371798346377
 20
6.828773913163786
 30
0.0
 11
175.5371798346377
 21
5.078773913163786
 31
0.0
 12
180.7871798346377
 22
5.953773913163786
 32
0.0
 13
180.7871798346377
 23
5.953773913163786
 33
0.0
  0
MTEXT
  5
262
330
25C
100
AcDbEntity
  8
0
 62
     3
100
AcDbMText
 10
107.7901803949171
 20
9.703773913163786
 30
0.0
 40
4.5
 41
0.0
 71
     5
 72
     1
  1
\A1;146
1001
ACAD
1000
MTEXTBEGIN
1070
    73
1070
     1
1070
    44
1040
1.0
1070
    74
1070
     0
1000
MTEXTEND
  0
POINT
  5
263
330
25C
100
AcDbEntity
  8
DEFPOINTS
 62
     0
100
AcDbPoint
 10
34.78717983463957
 20
28.16611893478466
 30
0.0
  0
POINT
  5
264
330
25C
100
AcDbEntity
  8
DEFPOINTS
 62
     0
100
AcDbPoint
 10
180.7871798346377
 20
28.16611893478466
 30
0.0
  0
POINT
  5
265
330
25C
100
AcDbEntity
  8
DEFPOINTS
 62
     0
100
AcDbPoint
 10
180.7871798346377
 20
5.953773913163786
 30
0.0
  0
ENDBLK
  5
267
330
25C
100
AcDbEntity
  8
0
100
AcDbBlockEnd
  0
BLOCK
  5
272
330
268
100
AcDbEntity
  8
0
100
AcDbBlockBegin
  2
*D30
 70
     1
 10
0.0
 20
0.0
 30
0.0
  3
*D30
  1

  0
LINE
  5
269
330
268
100
AcDbEntity
  8
0
 62
   123
100
AcDbLine
 10
32.78717983463775
 20
27.16611893478466
 30
0.0
 11
0.0929328695307053
 21
27.16611893478467
 31
0.0
  0
LINE
  5
26A
330
268
100
AcDbEntity
  8
0
 62
   123
100
AcDbLine
 10
50.28717983463775
 20
101.1661189347846
 30
0.0
 11
0.0929328695307217
 21
101.1661189347846
 31
0.0
  0
LINE
  5
26B
330
268
100
AcDbEntity
  8
0
 62
   123
100
AcDbLine
 10
0.9929328695307082
 20
32.41611893478467
 30
0.0
 11
0.9929328695307223
 21
95.91611893478468
 31
0.0
  0
SOLID
  5
26C
330
268
100
AcDbEntity
  8
0
 62
   123
100
AcDbTrace
 10
0.1179328695307082
 20
32.41611893478467
 30
0.0
 11
1.867932869530708
 21
32.41611893478467
 31
0.0
 12
0.992932869530707
 22
27.16611893478467
 32
0.0
 13
0.992932869530707
 23
27.16611893478467
 33
0.0
  0
SOLID
  5
26D
330
268
100
AcDbEntity
  8
0
 62
   123
100
AcDbTrace
 10
0.1179328695307223
 20
95.91611893478468
 30
0.0
 11
1.867932869530722
 21
95.91611893478468
 31
0.0
 12
0.9929328695307233
 22
101.1661189347846
 32
0.0
 13
0.9929328695307233
 23
101.1661189347846
 33
0.0
  0
MTEXT
  5
26E
330
268
100
AcDbEntity
  8
0
 62
     3
100
AcDbMText
 10
-2.757067130469295
 20
64.16611893478466
 30
0.0
 40
4.5
 41
0.0
 71
     5
 72
     1
  1
\A1;74
 11
0.0000000000000001
 21
1.0
 31
0.0
1001
ACAD
1000
MTEXTBEGIN
1070
    73
1070
     1
1070
    44
1040
1.0
1070
    74
1070
     0
1000
MTEXTEND
  0
POINT
  5
26F
330
268
100
AcDbEntity
  8
DEFPOINTS
 62
     0
100
AcDbPoint
 10
34.28717983463775
 20
27.16611893478466
 30
0.0
  0
POINT
  5
270
330
268
100
AcDbEntity
  8
DEFPOINTS
 62
     0
100
AcDbPoint
 10
51.78717983463775
 20
101.1661189347846
 30
0.0
  0
POINT
  5
271
330
268
100
AcDbEntity
  8
DEFPOINTS
 62
     0
100
AcDbPoint
 10
0.9929328695307233
 20
101.1661189347846
 30
0.0
  0
ENDBLK
  5
273
330
268
100
AcDbEntity
  8
0
100
AcDbBlockEnd
  0
BLOCK
  5
27E
330
274
100
AcDbEntity
  8
0
100
AcDbBlockBegin
  2
*D31
 70
     1
 10
0.0
 20
0.0
 30
0.0
  3
*D31
  1

  0
LINE
  5
275
330
274
100
AcDbEntity
  8
0
 62
   123
100
AcDbLine
 10
34.28717983463775
 20
27.16611893478466
 30
0.0
 11
17.15350453546726
 21
27.16611893478466
 31
0.0
  0
LINE
  5
276
330
274
100
AcDbEntity
  8
0
 62
   123
100
AcDbLine
 10
34.19151233463708
 20
93.16611893478466
 30
0.0
 11
17.15350453546727
 21
93.16611893478468
 31
0.0
  0
LINE
  5
277
330
274
100
AcDbEntity
  8
0
 62
   123
100
AcDbLine
 10
18.05350453546726
 20
32.41611893478466
 30
0.0
 11
18.05350453546727
 21
87.91611893478467
 31
0.0
  0
SOLID
  5
278
330
274
100
AcDbEntity
  8
0
 62
   123
100
AcDbTrace
 10
17.17850453546725
 20
32.41611893478466
 30
0.0
 11
18.92850453546725
 21
32.41611893478466
 31
0.0
 12
18.05350453546726
 22
27.16611893478466
 32
0.0
 13
18.05350453546726
 23
27.16611893478466
 33
0.0
  0
SOLID
  5
279
330
274
100
AcDbEntity
  8
0
 62
   123
100
AcDbTrace
 10
17.17850453546726
 20
87.91611893478467
 30
0.0
 11
18.92850453546726
 21
87.91611893478467
 31
0.0
 12
18.05350453546727
 22
93.16611893478468
 32
0.0
 13
18.05350453546727
 23
93.16611893478468
 33
0.0
  0
MTEXT
  5
27A
330
274
100
AcDbEntity
  8
0
 62
     3
100
AcDbMText
 10
14.30350453546725
 20
56.25802097754195
 30
0.0
 40
4.5
 41
0.0
 71
     5
 72
     1
  1
\A1;66%%P0.5
 11
0.0000000000000001
 21
1.0
 31
0.0
1001
ACAD
1000
MTEXTBEGIN
1070
    73
1070
     1
1070
    44
1040
1.0
1070
    74
1070
     0
1000
MTEXTEND
  0
POINT
  5
27B
330
274
100
AcDbEntity
  8
DEFPOINTS
 62
     0
100
AcDbPoint
 10
35.78717983463775
 20
27.16611893478466
 30
0.0
  0
POINT
  5
27C
330
274
100
AcDbEntity
  8
DEFPOINTS
 62
     0
100
AcDbPoint
 10
35.69151233463708
 20
93.16611893478466
 30
0.0
  0
POINT
  5
27D
330
274
100
AcDbEntity
  8
DEFPOINTS
 62
     0
100
AcDbPoint
 10
18.05350453546727
 20
93.16611893478468
 30
0.0
  0
ENDBLK
  5
27F
330
274
100
AcDbEntity
  8
0
100
AcDbBlockEnd
  0
BLOCK
  5
28C
330
280
100
AcDbEntity
  8
0
100
AcDbBlockBegin
  2
*D32
 70
     1
 10
0.0
 20
0.0
 30
0.0
  3
*D32
  1

  0
LINE
  5
281
330
280
100
AcDbEntity
  8
0
 62
   123
100
AcDbLine
 10
142.2871798346377
 20
27.16611893478466
 30
0.0
 11
134.0751051077328
 21
27.16611893478466
 31
0.0
  0
LINE
  5
282
330
280
100
AcDbEntity
  8
0
 62
   123
100
AcDbLine
 10
139.0885532241509
 20
28.16611893478466
 30
0.0
 11
134.0751051077328
 21
28.16611893478466
 31
0.0
  0
LINE
  5
283
330
280
100
AcDbEntity
  8
0
 62
   123
100
AcDbLine
 10
134.9751051077328
 20
33.41611893478466
 30
0.0
 11
134.9751051077328
 21
38.66611893478466
 31
0.0
  0
LINE
  5
284
330
280
100
AcDbEntity
  8
0
 62
   123
100
AcDbLine
 10
134.9751051077328
 20
21.91611893478466
 30
0.0
 11
134.9751051077328
 21
12.59469036335522
 31
0.0
  0
LINE
  5
285
330
280
100
AcDbEntity
  8
0
 62
   123
100
AcDbLine
 10
134.9751051077328
 20
28.16611893478466
 30
0.0
 11
134.9751051077328
 21
27.16611893478466
 31
0.0
  0
SOLID
  5
286
330
280
100
AcDbEntity
  8
0
 62
   123
100
AcDbTrace
 10
134.1001051077328
 20
33.41611893478466
 30
0.0
 11
135.8501051077328
 21
33.41611893478466
 31
0.0
 12
134.9751051077328
 22
28.16611893478466
 32
0.0
 13
134.9751051077328
 23
28.16611893478466
 33
0.0
  0
SOLID
  5
287
330
280
100
AcDbEntity
  8
0
 62
   123
100
AcDbTrace
 10
134.1001051077328
 20
21.91611893478466
 30
0.0
 11
135.8501051077328
 21
21.91611893478466
 31
0.0
 12
134.9751051077328
 22
27.16611893478466
 32
0.0
 13
134.9751051077328
 23
27.16611893478466
 33
0.0
  0
MTEXT
  5
288
330
280
100
AcDbEntity
  8
0
 62
     3
100
AcDbMText
 10
131.2251051077328
 20
14.63040464906953
 30
0.0
 40
4.5
 41
0.0
 71
     5
 72
     1
  1
\A1;1
 11
0.0000000000000001
 21
1.0
 31
0.0
1001
ACAD
1000
MTEXTBEGIN
1070
    73
1070
     1
1070
    44
1040
1.0
1070
    74
1070
     0
1000
MTEXTEND
  0
POINT
  5
289
330
280
100
AcDbEntity
  8
DEFPOINTS
 62
     0
100
AcDbPoint
 10
143.7871798346377
 20
27.16611893478466
 30
0.0
  0
POINT
  5
28A
330
280
100
AcDbEntity
  8
DEFPOINTS
 62
     0
100
AcDbPoint
 10
140.5885532241509
 20
28.16611893478466
 30
0.0
  0
POINT
  5
28B
330
280
100
AcDbEntity
  8
DEFPOINTS
 62
     0
100
AcDbPoint
 10
134.9751051077328
 20
28.16611893478466
 30
0.0
  0
ENDBLK
  5
28D
330
280
100
AcDbEntity
  8
0
100
AcDbBlockEnd
  0
BLOCK
  5
29A
330
28E
100
AcDbEntity
  8
0
100
AcDbBlockBegin
  2
*D33
 70
     1
 10
0.0
 20
0.0
 30
0.0
  3
*D33
  1

  0
LINE
  5
28F
330
28E
100
AcDbEntity
  8
0
 62
   123
100
AcDbLine
 10
181.2871798346377
 20
27.16611893478466
 30
0.0
 11
198.5612969068674
 21
27.16611893478466
 31
0.0
  0
LINE
  5
290
330
28E
100
AcDbEntity
  8
0
 62
   123
100
AcDbLine
 10
181.7871798346395
 20
36.16611893478466
 30
0.0
 11
198.5612969068674
 21
36.16611893478466
 31
0.0
  0
LINE
  5
291
330
28E
100
AcDbEntity
  8
0
 62
   123
100
AcDbLine
 10
197.6612969068673
 20
21.91611893478465
 30
0.0
 11
197.6612969068673
 21
16.66611893478465
 31
0.0
  0
LINE
  5
292
330
28E
100
AcDbEntity
  8
0
 62
   123
100
AcDbLine
 10
197.6612969068673
 20
41.41611893478466
 30
0.0
 11
197.6612969068673
 21
46.66611893478466
 31
0.0
  0
LINE
  5
293
330
28E
100
AcDbEntity
  8
0
 62
   123
100
AcDbLine
 10
197.6612969068673
 20
27.16611893478466
 30
0.0
 11
197.6612969068673
 21
36.16611893478466
 31
0.0
  0
SOLID
  5
294
330
28E
100
AcDbEntity
  8
0
 62
   123
100
AcDbTrace
 10
196.7862969068674
 20
21.91611893478465
 30
0.0
 11
198.5362969068674
 21
21.91611893478465
 31
0.0
 12
197.6612969068673
 22
27.16611893478466
 32
0.0
 13
197.6612969068673
 23
27.16611893478466
 33
0.0
  0
SOLID
  5
295
330
28E
100
AcDbEntity
  8
0
 62
   123
100
AcDbTrace
 10
196.7862969068674
 20
41.41611893478466
 30
0.0
 11
198.5362969068674
 21
41.41611893478466
 31
0.0
 12
197.6612969068673
 22
36.16611893478466
 32
0.0
 13
197.6612969068673
 23
36.16611893478466
 33
0.0
  0
MTEXT
  5
296
330
28E
100
AcDbEntity
  8
0
 62
     3
100
AcDbMText
 10
193.9112969068673
 20
31.66611893478469
 30
0.0
 40
4.5
 41
0.0
 71
     5
 72
     1
  1
\A1;9
 11
0.0000000000000001
 21
1.0
 31
0.0
1001
ACAD
1000
MTEXTBEGIN
1070
    73
1070
     1
1070
    44
1040
1.0
1070
    74
1070
     0
1000
MTEXTEND
  0
POINT
  5
297
330
28E
100
AcDbEntity
  8
DEFPOINTS
 62
     0
100
AcDbPoint
 10
179.7871798346377
 20
27.16611893478466
 30
0.0
  0
POINT
  5
298
330
28E
100
AcDbEntity
  8
DEFPOINTS
 62
     0
100
AcDbPoint
 10
180.2871798346395
 20
36.16611893478466
 30
0.0
  0
POINT
  5
299
330
28E
100
AcDbEntity
  8
DEFPOINTS
 62
     0
100
AcDbPoint
 10
197.6612969068673
 20
36.16611893478466
 30
0.0
  0
ENDBLK
  5
29B
330
28E
100
AcDbEntity
  8
0
100
AcDbBlockEnd
  0
BLOCK
  5
2A6
330
29C
100
AcDbEntity
  8
0
100
AcDbBlockBegin
  2
*D34
 70
     1
 10
0.0
 20
0.0
 30
0.0
  3
*D34
  1

  0
LINE
  5
29D
330
29C
100
AcDbEntity
  8
0
 62
   123
100
AcDbLine
 10
306.781331843018
 20
37.59595893478399
 30
0.0
 11
306.781331843018
 21
54.92984788314097
 31
0.0
  0
LINE
  5
29E
330
29C
100
AcDbEntity
  8
0
 62
   123
100
AcDbLine
 10
336.7813318430171
 20
33.09595893478399
 30
0.0
 11
336.7813318430171
 21
54.92984788314097
 31
0.0
  0
LINE
  5
29F
330
29C
100
AcDbEntity
  8
0
 62
   123
100
AcDbLine
 10
312.031331843018
 20
54.02984788314097
 30
0.0
 11
331.5313318430171
 21
54.02984788314097
 31
0.0
  0
SOLID
  5
2A0
330
29C
100
AcDbEntity
  8
0
 62
   123
100
AcDbTrace
 10
312.031331843018
 20
54.90484788314097
 30
0.0
 11
312.031331843018
 21
53.15484788314098
 31
0.0
 12
306.781331843018
 22
54.02984788314097
 32
0.0
 13
306.781331843018
 23
54.02984788314097
 33
0.0
  0
SOLID
  5
2A1
330
29C
100
AcDbEntity
  8
0
 62
   123
100
AcDbTrace
 10
331.5313318430171
 20
54.90484788314097
 30
0.0
 11
331.5313318430171
 21
53.15484788314098
 31
0.0
 12
336.7813318430171
 22
54.02984788314097
 32
0.0
 13
336.7813318430171
 23
54.02984788314097
 33
0.0
  0
MTEXT
  5
2A2
330
29C
100
AcDbEntity
  8
0
 62
     3
100
AcDbMText
 10
324.4312392099409
 20
57.77984788314097
 30
0.0
 40
4.5
 41
0.0
 71
     5
 72
     1
  1
\A1;30
1001
ACAD
1000
MTEXTBEGIN
1070
    73
1070
     1
1070
    44
1040
1.0
1070
    74
1070
     0
1000
MTEXTEND
  0
POINT
  5
2A3
330
29C
100
AcDbEntity
  8
DEFPOINTS
 62
     0
100
AcDbPoint
 10
306.781331843018
 20
36.09595893478399
 30
0.0
  0
POINT
  5
2A4
330
29C
100
AcDbEntity
  8
DEFPOINTS
 62
     0
100
AcDbPoint
 10
336.7813318430171
 20
31.59595893478399
 30
0.0
  0
POINT
  5
2A5
330
29C
100
AcDbEntity
  8
DEFPOINTS
 62
     0
100
AcDbPoint
 10
336.7813318430171
 20
54.02984788314097
 30
0.0
  0
ENDBLK
  5
2A7
330
29C
100
AcDbEntity
  8
0
100
AcDbBlockEnd
  0
BLOCK
  5
2B2
330
2A8
100
AcDbEntity
  8
0
100
AcDbBlockBegin
  2
*D35
 70
     1
 10
0.0
 20
0.0
 30
0.0
  3
*D35
  1

  0
LINE
  5
2A9
330
2A8
100
AcDbEntity
  8
0
 62
   123
100
AcDbLine
 10
271.781331843018
 20
33.5959589347849
 30
0.0
 11
271.781331843018
 21
9.167406370611935
 31
0.0
  0
LINE
  5
2AA
330
2A8
100
AcDbEntity
  8
0
 62
   123
100
AcDbLine
 10
336.7813318430171
 20
26.59595893478399
 30
0.0
 11
336.7813318430171
 21
9.167406370611935
 31
0.0
  0
LINE
  5
2AB
330
2A8
100
AcDbEntity
  8
0
 62
   123
100
AcDbLine
 10
277.031331843018
 20
10.06740637061193
 30
0.0
 11
331.5313318430171
 21
10.06740637061193
 31
0.0
  0
SOLID
  5
2AC
330
2A8
100
AcDbEntity
  8
0
 62
   123
100
AcDbTrace
 10
277.031331843018
 20
10.94240637061193
 30
0.0
 11
277.031331843018
 21
9.192406370611934
 31
0.0
 12
271.781331843018
 22
10.06740637061193
 32
0.0
 13
271.781331843018
 23
10.06740637061193
 33
0.0
  0
SOLID
  5
2AD
330
2A8
100
AcDbEntity
  8
0
 62
   123
100
AcDbTrace
 10
331.5313318430171
 20
10.94240637061193
 30
0.0
 11
331.5313318430171
 21
9.192406370611934
 31
0.0
 12
336.7813318430171
 22
10.06740637061193
 32
0.0
 13
336.7813318430171
 23
10.06740637061193
 33
0.0
  0
MTEXT
  5
2AE
330
2A8
100
AcDbEntity
  8
0
 62
     3
100
AcDbMText
 10
304.552774698548
 20
13.81740637061193
 30
0.0
 40
4.5
 41
0.0
 71
     5
 72
     1
  1
\A1;65
1001
ACAD
1000
MTEXTBEGIN
1070
    73
1070
     1
1070
    44
1040
1.0
1070
    74
1070
     0
1000
MTEXTEND
  0
POINT
  5
2AF
330
2A8
100
AcDbEntity
  8
DEFPOINTS
 62
     0
100
AcDbPoint
 10
271.781331843018
 20
35.0959589347849
 30
0.0
  0
POINT
  5
2B0
330
2A8
100
AcDbEntity
  8
DEFPOINTS
 62
     0
100
AcDbPoint
 10
336.7813318430171
 20
28.09595893478399
 30
0.0
  0
POINT
  5
2B1
330
2A8
100
AcDbEntity
  8
DEFPOINTS
 62
     0
100
AcDbPoint
 10
336.7813318430171
 20
10.06740637061193
 30
0.0
  0
ENDBLK
  5
2B3
330
2A8
100
AcDbEntity
  8
0
100
AcDbBlockEnd
  0
BLOCK
  5
2BE
330
2B4
100
AcDbEntity
  8
0
100
AcDbBlockBegin
  2
*D36
 70
     1
 10
0.0
 20
0.0
 30
0.0
  3
*D36
  1

  0
LINE
  5
2B5
330
2B4
100
AcDbEntity
  8
0
 62
   123
100
AcDbLine
 10
43.78717983463775
 20
276.2717450838299
 30
0.0
 11
43.78717983463775
 21
312.2891809780536
 31
0.0
  0
LINE
  5
2B6
330
2B4
100
AcDbEntity
  8
0
 62
   123
100
AcDbLine
 10
171.7871798346377
 20
276.2717450838299
 30
0.0
 11
171.7871798346377
 21
312.2891809780536
 31
0.0
  0
LINE
  5
2B7
330
2B4
100
AcDbEntity
  8
0
 62
   123
100
AcDbLine
 10
49.03717983463775
 20
311.3891809780536
 30
0.0
 11
166.5371798346377
 21
311.3891809780536
 31
0.0
  0
SOLID
  5
2B8
330
2B4
100
AcDbEntity
  8
0
 62
   123
100
AcDbTrace
 10
49.03717983463775
 20
312.2641809780536
 30
0.0
 11
49.03717983463775
 21
310.5141809780536
 31
0.0
 12
43.78717983463775
 22
311.3891809780536
 32
0.0
 13
43.78717983463775
 23
311.3891809780536
 33
0.0
  0
SOLID
  5
2B9
330
2B4
100
AcDbEntity
  8
0
 62
   123
100
AcDbTrace
 10
166.5371798346377
 20
312.2641809780536
 30
0.0
 11
166.5371798346377
 21
310.5141809780536
 31
0.0
 12
171.7871798346377
 22
311.3891809780536
 32
0.0
 13
171.7871798346377
 23
311.3891809780536
 33
0.0
  0
MTEXT
  5
2BA
330
2B4
100
AcDbEntity
  8
0
 62
     3
100
AcDbMText
 10
105.6445260348882
 20
315.1391809780536
 30
0.0
 40
4.5
 41
0.0
 71
     5
 72
     1
  1
\A1;128
1001
ACAD
1000
MTEXTBEGIN
1070
    73
1070
     1
1070
    44
1040
1.0
1070
    74
1070
     0
1000
MTEXTEND
  0
POINT
  5
2BB
330
2B4
100
AcDbEntity
  8
DEFPOINTS
 62
     0
100
AcDbPoint
 10
43.78717983463775
 20
274.7717450838299
 30
0.0
  0
POINT
  5
2BC
330
2B4
100
AcDbEntity
  8
DEFPOINTS
 62
     0
100
AcDbPoint
 10
171.7871798346377
 20
274.7717450838299
 30
0.0
  0
POINT
  5
2BD
330
2B4
100
AcDbEntity
  8
DEFPOINTS
 62
     0
100
AcDbPoint
 10
171.7871798346377
 20
311.3891809780536
 30
0.0
  0
ENDBLK
  5
2BF
330
2B4
100
AcDbEntity
  8
0
100
AcDbBlockEnd
  0
BLOCK
  5
2CA
330
2C0
100
AcDbEntity
  8
0
100
AcDbBlockBegin
  2
*D37
 70
     1
 10
0.0
 20
0.0
 30
0.0
  3
*D37
  1

  0
LINE
  5
35D
330
2C0
100
AcDbEntity
  8
0
 62
   123
100
AcDbLine
 10
82.78717983463776
 20
269.9552860838289
 30
0.0
 11
82.78717983463776
 21
300.5372977121268
 31
0.0
  0
LINE
  5
35E
330
2C0
100
AcDbEntity
  8
0
 62
   123
100
AcDbLine
 10
132.7871798346359
 20
269.9552860838298
 30
0.0
 11
132.7871798346359
 21
300.5372977121268
 31
0.0
  0
LINE
  5
35F
330
2C0
100
AcDbEntity
  8
0
 62
   123
100
AcDbLine
 10
88.03717983463775
 20
299.6372977121268
 30
0.0
 11
127.5371798346359
 21
299.6372977121268
 31
0.0
  0
SOLID
  5
360
330
2C0
100
AcDbEntity
  8
0
 62
   123
100
AcDbTrace
 10
88.03717983463775
 20
300.5122977121268
 30
0.0
 11
88.03717983463775
 21
298.7622977121268
 31
0.0
 12
82.78717983463776
 22
299.6372977121268
 32
0.0
 13
82.78717983463776
 23
299.6372977121268
 33
0.0
  0
SOLID
  5
361
330
2C0
100
AcDbEntity
  8
0
 62
   123
100
AcDbTrace
 10
127.5371798346359
 20
300.5122977121268
 30
0.0
 11
127.5371798346359
 21
298.7622977121268
 31
0.0
 12
132.7871798346359
 22
299.6372977121268
 32
0.0
 13
132.7871798346359
 23
299.6372977121268
 33
0.0
  0
MTEXT
  5
362
330
2C0
100
AcDbEntity
  8
0
 62
     3
100
AcDbMText
 10
105.7190498991085
 20
303.3872977121268
 30
0.0
 40
4.5
 41
0.0
 71
     5
 72
     1
  1
\A1;50
1001
ACAD
1000
MTEXTBEGIN
1070
    73
1070
     1
1070
    44
1040
1.0
1070
    74
1070
     0
1000
MTEXTEND
  0
POINT
  5
363
330
2C0
100
AcDbEntity
  8
DEFPOINTS
 62
     0
100
AcDbPoint
 10
82.78717983463776
 20
268.4552860838289
 30
0.0
  0
POINT
  5
364
330
2C0
100
AcDbEntity
  8
DEFPOINTS
 62
     0
100
AcDbPoint
 10
132.7871798346359
 20
268.4552860838298
 30
0.0
  0
POINT
  5
365
330
2C0
100
AcDbEntity
  8
DEFPOINTS
 62
     0
100
AcDbPoint
 10
132.7871798346359
 20
299.6372977121268
 30
0.0
  0
ENDBLK
  5
2CB
330
2C0
100
AcDbEntity
  8
0
100
AcDbBlockEnd
  0
BLOCK
  5
2D6
330
2CC
100
AcDbEntity
  8
0
100
AcDbBlockBegin
  2
*D38
 70
     1
 10
0.0
 20
0.0
 30
0.0
  3
*D38
  1

  0
LINE
  5
2CD
330
2CC
100
AcDbEntity
  8
0
 62
   123
100
AcDbLine
 10
61.78717983463775
 20
131.9661189347848
 30
0.0
 11
61.78717983463775
 21
165.1841794250066
 31
0.0
  0
LINE
  5
2CE
330
2CC
100
AcDbEntity
  8
0
 62
   123
100
AcDbLine
 10
153.7871798346377
 20
131.9661189347848
 30
0.0
 11
153.7871798346377
 21
165.1841794250066
 31
0.0
  0
LINE
  5
2CF
330
2CC
100
AcDbEntity
  8
0
 62
   123
100
AcDbLine
 10
67.03717983463775
 20
164.2841794250066
 30
0.0
 11
148.5371798346377
 21
164.2841794250066
 31
0.0
  0
SOLID
  5
2D0
330
2CC
100
AcDbEntity
  8
0
 62
   123
100
AcDbTrace
 10
67.03717983463775
 20
165.1591794250066
 30
0.0
 11
67.03717983463775
 21
163.4091794250066
 31
0.0
 12
61.78717983463775
 22
164.2841794250066
 32
0.0
 13
61.78717983463775
 23
164.2841794250066
 33
0.0
  0
SOLID
  5
2D1
330
2CC
100
AcDbEntity
  8
0
 62
   123
100
AcDbTrace
 10
148.5371798346377
 20
165.1591794250066
 30
0.0
 11
148.5371798346377
 21
163.4091794250066
 31
0.0
 12
153.7871798346377
 22
164.2841794250066
 32
0.0
 13
153.7871798346377
 23
164.2841794250066
 33
0.0
  0
MTEXT
  5
2D2
330
2CC
100
AcDbEntity
  8
0
 62
     3
100
AcDbMText
 10
107.7871798346377
 20
168.0341794250066
 30
0.0
 40
4.5
 41
0.0
 71
     5
 72
     1
  1
\A1;92
1001
ACAD
1000
MTEXTBEGIN
1070
    73
1070
     1
1070
    44
1040
1.0
1070
    74
1070
     0
1000
MTEXTEND
  0
POINT
  5
2D3
330
2CC
100
AcDbEntity
  8
DEFPOINTS
 62
     0
100
AcDbPoint
 10
61.78717983463775
 20
130.4661189347848
 30
0.0
  0
POINT
  5
2D4
330
2CC
100
AcDbEntity
  8
DEFPOINTS
 62
     0
100
AcDbPoint
 10
153.7871798346377
 20
130.4661189347848
 30
0.0
  0
POINT
  5
2D5
330
2CC
100
AcDbEntity
  8
DEFPOINTS
 62
     0
100
AcDbPoint
 10
153.7871798346377
 20
164.2841794250066
 30
0.0
  0
ENDBLK
  5
2D7
330
2CC
100
AcDbEntity
  8
0
100
AcDbBlockEnd
  0
BLOCK
  5
2E4
330
2D8
100
AcDbEntity
  8
0
100
AcDbBlockBegin
  2
*D39
 70
     1
 10
0.0
 20
0.0
 30
0.0
  3
*D39
  1

  0
LINE
  5
352
330
2D8
100
AcDbEntity
  8
0
 62
   123
100
AcDbLine
 10
39.08717983463775
 20
271.9552860838298
 30
0.0
 11
39.08717983463775
 21
290.8575736606616
 31
0.0
  0
LINE
  5
353
330
2D8
100
AcDbEntity
  8
0
 62
   123
100
AcDbLine
 10
48.48717983463739
 20
271.9552860838298
 30
0.0
 11
48.48717983463739
 21
290.8575736606616
 31
0.0
  0
LINE
  5
354
330
2D8
100
AcDbEntity
  8
0
 62
   123
100
AcDbLine
 10
53.73717983463738
 20
289.9575736606616
 30
0.0
 11
58.98717983463739
 21
289.9575736606616
 31
0.0
  0
LINE
  5
355
330
2D8
100
AcDbEntity
  8
0
 62
   123
100
AcDbLine
 10
33.83717983463775
 20
289.9575736606616
 30
0.0
 11
15.94432269178061
 21
289.9575736606616
 31
0.0
  0
LINE
  5
356
330
2D8
100
AcDbEntity
  8
0
 62
   123
100
AcDbLine
 10
48.48717983463739
 20
289.9575736606616
 30
0.0
 11
39.08717983463775
 21
289.9575736606616
 31
0.0
  0
SOLID
  5
357
330
2D8
100
AcDbEntity
  8
0
 62
   123
100
AcDbTrace
 10
53.73717983463738
 20
290.8325736606616
 30
0.0
 11
53.73717983463738
 21
289.0825736606616
 31
0.0
 12
48.48717983463739
 22
289.9575736606616
 32
0.0
 13
48.48717983463739
 23
289.9575736606616
 33
0.0
  0
SOLID
  5
358
330
2D8
100
AcDbEntity
  8
0
 62
   123
100
AcDbTrace
 10
33.83717983463775
 20
290.8325736606616
 30
0.0
 11
33.83717983463775
 21
289.0825736606616
 31
0.0
 12
39.08717983463775
 22
289.9575736606616
 32
0.0
 13
39.08717983463775
 23
289.9575736606616
 33
0.0
  0
MTEXT
  5
359
330
2D8
100
AcDbEntity
  8
0
 62
     3
100
AcDbMText
 10
22.26575126320918
 20
293.7075736606616
 30
0.0
 40
4.5
 41
0.0
 71
     5
 72
     1
  1
\A1;9.4
1001
ACAD
1000
MTEXTBEGIN
1070
    73
1070
     1
1070
    44
1040
1.0
1070
    74
1070
     0
1000
MTEXTEND
  0
POINT
  5
35A
330
2D8
100
AcDbEntity
  8
DEFPOINTS
 62
     0
100
AcDbPoint
 10
39.08717983463775
 20
270.4552860838298
 30
0.0
  0
POINT
  5
35B
330
2D8
100
AcDbEntity
  8
DEFPOINTS
 62
     0
100
AcDbPoint
 10
48.48717983463739
 20
270.4552860838298
 30
0.0
  0
POINT
  5
35C
330
2D8
100
AcDbEntity
  8
DEFPOINTS
 62
     0
100
AcDbPoint
 10
48.48717983463739
 20
289.9575736606616
 30
0.0
  0
ENDBLK
  5
2E5
330
2D8
100
AcDbEntity
  8
0
100
AcDbBlockEnd
  0
BLOCK
  5
2F2
330
2E6
100
AcDbEntity
  8
0
100
AcDbBlockBegin
  2
*D40
 70
     1
 10
0.0
 20
0.0
 30
0.0
  3
*D40
  1

  0
LINE
  5
2E7
330
2E6
100
AcDbEntity
  8
0
 62
   123
100
AcDbLine
 10
40.78717983463775
 20
267.255286083829
 30
0.0
 11
24.94485378521644
 21
267.255286083829
 31
0.0
  0
LINE
  5
2E8
330
2E6
100
AcDbEntity
  8
0
 62
   123
100
AcDbLine
 10
40.78717983463775
 20
273.6552860838296
 30
0.0
 11
24.94485378521644
 21
273.6552860838296
 31
0.0
  0
LINE
  5
2E9
330
2E6
100
AcDbEntity
  8
0
 62
   123
100
AcDbLine
 10
25.84485378521644
 20
262.0052860838291
 30
0.0
 11
25.84485378521644
 21
256.755286083829
 31
0.0
  0
LINE
  5
2EA
330
2E6
100
AcDbEntity
  8
0
 62
   123
100
AcDbLine
 10
25.84485378521644
 20
278.9052860838296
 30
0.0
 11
25.84485378521645
 21
284.1552860838296
 31
0.0
  0
LINE
  5
2EB
330
2E6
100
AcDbEntity
  8
0
 62
   123
100
AcDbLine
 10
25.84485378521644
 20
267.255286083829
 30
0.0
 11
25.84485378521644
 21
273.6552860838296
 31
0.0
  0
SOLID
  5
2EC
330
2E6
100
AcDbEntity
  8
0
 62
   123
100
AcDbTrace
 10
24.96985378521644
 20
262.0052860838291
 30
0.0
 11
26.71985378521644
 21
262.0052860838291
 31
0.0
 12
25.84485378521644
 22
267.255286083829
 32
0.0
 13
25.84485378521644
 23
267.255286083829
 33
0.0
  0
SOLID
  5
2ED
330
2E6
100
AcDbEntity
  8
0
 62
   123
100
AcDbTrace
 10
24.96985378521644
 20
278.9052860838296
 30
0.0
 11
26.71985378521644
 21
278.9052860838296
 31
0.0
 12
25.84485378521644
 22
273.6552860838296
 32
0.0
 13
25.84485378521644
 23
273.6552860838296
 33
0.0
  0
MTEXT
  5
2EE
330
2E6
100
AcDbEntity
  8
0
 62
     3
100
AcDbMText
 10
22.0948537852164
 20
270.4552860838294
 30
0.0
 40
4.5
 41
0.0
 71
     5
 72
     1
  1
\A1;6.4
 11
0.0000000000000001
 21
1.0
 31
0.0
1001
ACAD
1000
MTEXTBEGIN
1070
    73
1070
     1
1070
    44
1040
1.0
1070
    74
1070
     0
1000
MTEXTEND
  0
POINT
  5
2EF
330
2E6
100
AcDbEntity
  8
DEFPOINTS
 62
     0
100
AcDbPoint
 10
42.28717983463775
 20
267.255286083829
 30
0.0
  0
POINT
  5
2F0
330
2E6
100
AcDbEntity
  8
DEFPOINTS
 62
     0
100
AcDbPoint
 10
42.28717983463775
 20
273.6552860838296
 30
0.0
  0
POINT
  5
2F1
330
2E6
100
AcDbEntity
  8
DEFPOINTS
 62
     0
100
AcDbPoint
 10
25.84485378521644
 20
273.6552860838296
 30
0.0
  0
ENDBLK
  5
2F3
330
2E6
100
AcDbEntity
  8
0
100
AcDbBlockEnd
  0
BLOCK
  5
2FE
330
2F4
100
AcDbEntity
  8
0
100
AcDbBlockBegin
  2
*D41
 70
     1
 10
0.0
 20
0.0
 30
0.0
  3
*D41
  1

  0
LINE
  5
2F5
330
2F4
100
AcDbEntity
  8
0
 62
   123
100
AcDbLine
 10
92.28717983463775
 20
235.4552860838289
 30
0.0
 11
98.97217362219677
 21
235.4552860838289
 31
0.0
  0
LINE
  5
2F6
330
2F4
100
AcDbEntity
  8
0
 62
   123
100
AcDbLine
 10
74.28717983463775
 20
278.4552860838298
 30
0.0
 11
98.97217362219675
 21
278.4552860838298
 31
0.0
  0
LINE
  5
2F7
330
2F4
100
AcDbEntity
  8
0
 62
   123
100
AcDbLine
 10
98.07217362219676
 20
240.7052860838289
 30
0.0
 11
98.07217362219676
 21
273.2052860838298
 31
0.0
  0
SOLID
  5
2F8
330
2F4
100
AcDbEntity
  8
0
 62
   123
100
AcDbTrace
 10
97.19717362219675
 20
240.7052860838289
 30
0.0
 11
98.94717362219676
 21
240.7052860838289
 31
0.0
 12
98.07217362219676
 22
235.4552860838289
 32
0.0
 13
98.07217362219676
 23
235.4552860838289
 33
0.0
  0
SOLID
  5
2F9
330
2F4
100
AcDbEntity
  8
0
 62
   123
100
AcDbTrace
 10
97.19717362219675
 20
273.2052860838298
 30
0.0
 11
98.94717362219676
 21
273.2052860838298
 31
0.0
 12
98.07217362219676
 22
278.4552860838298
 32
0.0
 13
98.07217362219676
 23
278.4552860838298
 33
0.0
  0
MTEXT
  5
2FA
330
2F4
100
AcDbEntity
  8
0
 62
     3
100
AcDbMText
 10
94.32217362219672
 20
255.8669209951494
 30
0.0
 40
4.5
 41
0.0
 71
     5
 72
     1
  1
\A1;43
 11
0.0000000000000001
 21
1.0
 31
0.0
1001
ACAD
1000
MTEXTBEGIN
1070
    73
1070
     1
1070
    44
1040
1.0
1070
    74
1070
     0
1000
MTEXTEND
  0
POINT
  5
2FB
330
2F4
100
AcDbEntity
  8
DEFPOINTS
 62
     0
100
AcDbPoint
 10
90.78717983463775
 20
235.4552860838289
 30
0.0
  0
POINT
  5
2FC
330
2F4
100
AcDbEntity
  8
DEFPOINTS
 62
     0
100
AcDbPoint
 10
72.78717983463775
 20
278.4552860838298
 30
0.0
  0
POINT
  5
2FD
330
2F4
100
AcDbEntity
  8
DEFPOINTS
 62
     0
100
AcDbPoint
 10
98.07217362219676
 20
278.4552860838298
 30
0.0
  0
ENDBLK
  5
2FF
330
2F4
100
AcDbEntity
  8
0
100
AcDbBlockEnd
  0
BLOCK
  5
30A
330
300
100
AcDbEntity
  8
0
100
AcDbBlockBegin
  2
*D42
 70
     1
 10
0.0
 20
0.0
 30
0.0
  3
*D42
  1

  0
LINE
  5
301
330
300
100
AcDbEntity
  8
0
 62
   123
100
AcDbLine
 10
165.2871798346377
 20
213.4552860838289
 30
0.0
 11
203.2307753643667
 21
213.4552860838288
 31
0.0
  0
LINE
  5
302
330
300
100
AcDbEntity
  8
0
 62
   123
100
AcDbLine
 10
179.2020088346389
 20
230.4552860838298
 30
0.0
 11
203.2307753643667
 21
230.4552860838298
 31
0.0
  0
LINE
  5
303
330
300
100
AcDbEntity
  8
0
 62
   123
100
AcDbLine
 10
202.3307753643667
 20
218.7052860838289
 30
0.0
 11
202.3307753643667
 21
225.2052860838297
 31
0.0
  0
SOLID
  5
304
330
300
100
AcDbEntity
  8
0
 62
   123
100
AcDbTrace
 10
201.4557753643667
 20
218.7052860838289
 30
0.0
 11
203.2057753643667
 21
218.7052860838289
 31
0.0
 12
202.3307753643667
 22
213.4552860838288
 32
0.0
 13
202.3307753643667
 23
213.4552860838288
 33
0.0
  0
SOLID
  5
305
330
300
100
AcDbEntity
  8
0
 62
   123
100
AcDbTrace
 10
201.4557753643667
 20
225.2052860838297
 30
0.0
 11
203.2057753643667
 21
225.2052860838297
 31
0.0
 12
202.3307753643667
 22
230.4552860838298
 32
0.0
 13
202.3307753643667
 23
230.4552860838298
 33
0.0
  0
MTEXT
  5
306
330
300
100
AcDbEntity
  8
0
 62
     3
100
AcDbMText
 10
198.5807753643666
 20
222.5334080340167
 30
0.0
 40
4.5
 41
0.0
 71
     5
 72
     1
  1
\A1;17
 11
0.0000000000000001
 21
1.0
 31
0.0
1001
ACAD
1000
MTEXTBEGIN
1070
    73
1070
     1
1070
    44
1040
1.0
1070
    74
1070
     0
1000
MTEXTEND
  0
POINT
  5
307
330
300
100
AcDbEntity
  8
DEFPOINTS
 62
     0
100
AcDbPoint
 10
163.7871798346377
 20
213.4552860838289
 30
0.0
  0
POINT
  5
308
330
300
100
AcDbEntity
  8
DEFPOINTS
 62
     0
100
AcDbPoint
 10
177.7020088346389
 20
230.4552860838298
 30
0.0
  0
POINT
  5
309
330
300
100
AcDbEntity
  8
DEFPOINTS
 62
     0
100
AcDbPoint
 10
202.3307753643667
 20
230.4552860838298
 30
0.0
  0
ENDBLK
  5
30B
330
300
100
AcDbEntity
  8
0
100
AcDbBlockEnd
  0
BLOCK
  5
313
330
30C
100
AcDbEntity
  8
0
100
AcDbBlockBegin
  2
*D43
 70
     1
 10
0.0
 20
0.0
 30
0.0
  3
*D43
  1

  0
LINE
  5
34C
330
30C
100
AcDbEntity
  8
0
 62
   123
100
AcDbLine
 10
181.7565880637774
 20
279.0493685406806
 30
0.0
 11
196.0142498135926
 21
292.8191946848314
 31
0.0
  0
LINE
  5
34D
330
30C
100
AcDbEntity
  8
0
 62
   123
100
AcDbLine
 10
170.7871798346395
 20
268.4552860838288
 30
0.0
 11
177.9802344111238
 21
275.4022253997977
 31
0.0
  0
SOLID
  5
34E
330
30C
100
AcDbEntity
  8
0
 62
   123
100
AcDbTrace
 10
181.1487308736302
 20
279.6787608161229
 30
0.0
 11
182.3644452539246
 21
278.4199762652384
 31
0.0
 12
177.9802344111238
 22
275.4022253997977
 32
0.0
 13
177.9802344111238
 23
275.4022253997977
 33
0.0
  0
MTEXT
  5
34F
330
30C
100
AcDbEntity
  8
0
 62
     3
100
AcDbMText
 10
188.1684935215243
 20
290.455248649379
 30
0.0
 40
4.5
 41
0.0
 71
     5
 72
     1
  1
\A1;R10
 11
0.7193054576483028
 21
0.6946939315967614
 31
0.0
1001
ACAD
1000
MTEXTBEGIN
1070
    73
1070
     1
1070
    44
1040
1.0
1070
    74
1070
     0
1000
MTEXTEND
  0
POINT
  5
350
330
30C
100
AcDbEntity
  8
DEFPOINTS
 62
     0
100
AcDbPoint
 10
177.9802344111238
 20
275.4022253997977
 30
0.0
  0
POINT
  5
351
330
30C
100
AcDbEntity
  8
DEFPOINTS
 62
     0
100
AcDbPoint
 10
170.7871798346395
 20
268.4552860838288
 30
0.0
  0
ENDBLK
  5
314
330
30C
100
AcDbEntity
  8
0
100
AcDbBlockEnd
  0
BLOCK
  5
31C
330
315
100
AcDbEntity
  8
0
100
AcDbBlockBegin
  2
*D44
 70
     1
 10
0.0
 20
0.0
 30
0.0
  3
*D44
  1

  0
LINE
  5
346
330
315
100
AcDbEntity
  8
0
 62
   123
100
AcDbLine
 10
131.8581867441028
 20
279.0910563910151
 30
0.0
 11
117.6530552095678
 21
292.9150669776367
 31
0.0
  0
LINE
  5
347
330
315
100
AcDbEntity
  8
0
 62
   123
100
AcDbLine
 10
142.7871798346377
 20
268.4552860838298
 30
0.0
 11
135.6206269883839
 21
275.4295616951002
 31
0.0
  0
SOLID
  5
348
330
315
100
AcDbEntity
  8
0
 62
   123
100
AcDbTrace
 10
132.4684358600886
 20
279.718129765062
 30
0.0
 11
131.247937628117
 21
278.4639830169683
 31
0.0
 12
135.6206269883839
 22
275.4295616951002
 32
0.0
 13
135.6206269883839
 23
275.4295616951002
 33
0.0
  0
MTEXT
  5
349
330
315
100
AcDbEntity
  8
0
 62
     3
100
AcDbMText
 10
125.4897542089177
 20
290.5212663496291
 30
0.0
 40
4.5
 41
0.0
 71
     5
 72
     1
  1
\A1;R10
 11
0.7166552846249853
 21
-0.6974275611266602
 31
0.0
1001
ACAD
1000
MTEXTBEGIN
1070
    73
1070
     1
1070
    44
1040
1.0
1070
    74
1070
     0
1000
MTEXTEND
  0
POINT
  5
34A
330
315
100
AcDbEntity
  8
DEFPOINTS
 62
     0
100
AcDbPoint
 10
135.6206269883839
 20
275.4295616951002
 30
0.0
  0
POINT
  5
34B
330
315
100
AcDbEntity
  8
DEFPOINTS
 62
     0
100
AcDbPoint
 10
142.7871798346377
 20
268.4552860838298
 30
0.0
  0
ENDBLK
  5
31D
330
315
100
AcDbEntity
  8
0
100
AcDbBlockEnd
  0
BLOCK
  5
328
330
31E
100
AcDbEntity
  8
0
100
AcDbBlockBegin
  2
*D45
 70
     1
 10
0.0
 20
0.0
 30
0.0
  3
*D45
  1

  0
LINE
  5
31F
330
31E
100
AcDbEntity
  8
0
 62
   123
100
AcDbLine
 10
180.7020088346389
 20
230.4552860838298
 30
0.0
 11
203.2307753643666
 21
230.4552860838298
 31
0.0
  0
LINE
  5
320
330
31E
100
AcDbEntity
  8
0
 62
   123
100
AcDbLine
 10
179.9754978346391
 20
270.4552860838298
 30
0.0
 11
203.2307753643666
 21
270.4552860838298
 31
0.0
  0
LINE
  5
321
330
31E
100
AcDbEntity
  8
0
 62
   123
100
AcDbLine
 10
202.3307753643666
 20
235.7052860838297
 30
0.0
 11
202.3307753643666
 21
265.2052860838298
 31
0.0
  0
SOLID
  5
322
330
31E
100
AcDbEntity
  8
0
 62
   123
100
AcDbTrace
 10
201.4557753643666
 20
235.7052860838297
 30
0.0
 11
203.2057753643667
 21
235.7052860838297
 31
0.0
 12
202.3307753643666
 22
230.4552860838298
 32
0.0
 13
202.3307753643666
 23
230.4552860838298
 33
0.0
  0
SOLID
  5
323
330
31E
100
AcDbEntity
  8
0
 62
   123
100
AcDbTrace
 10
201.4557753643666
 20
265.2052860838298
 30
0.0
 11
203.2057753643667
 21
265.2052860838298
 31
0.0
 12
202.3307753643666
 22
270.4552860838298
 32
0.0
 13
202.3307753643666
 23
270.4552860838298
 33
0.0
  0
MTEXT
  5
324
330
31E
100
AcDbEntity
  8
0
 62
     3
100
AcDbMText
 10
198.5807753643666
 20
250.4552860838298
 30
0.0
 40
4.5
 41
0.0
 71
     5
 72
     1
  1
\A1;40
 11
0.0000000000000001
 21
1.0
 31
0.0
1001
ACAD
1000
MTEXTBEGIN
1070
    73
1070
     1
1070
    44
1040
1.0
1070
    74
1070
     0
1000
MTEXTEND
  0
POINT
  5
325
330
31E
100
AcDbEntity
  8
DEFPOINTS
 62
     0
100
AcDbPoint
 10
179.2020088346389
 20
230.4552860838298
 30
0.0
  0
POINT
  5
326
330
31E
100
AcDbEntity
  8
DEFPOINTS
 62
     0
100
AcDbPoint
 10
178.475497834639
 20
270.4552860838298
 30
0.0
  0
POINT
  5
327
330
31E
100
AcDbEntity
  8
DEFPOINTS
 62
     0
100
AcDbPoint
 10
202.3307753643666
 20
270.4552860838298
 30
0.0
  0
ENDBLK
  5
329
330
31E
100
AcDbEntity
  8
0
100
AcDbBlockEnd
  0
BLOCK
  5
336
330
32A
100
AcDbEntity
  8
0
100
AcDbBlockBegin
  2
*D46
 70
     1
 10
0.0
 20
0.0
 30
0.0
  3
*D46
  1

  0
LINE
  5
32B
330
32A
100
AcDbEntity
  8
0
 62
   123
100
AcDbLine
 10
271.781331843018
 20
140.0959589347839
 30
0.0
 11
271.781331843018
 21
163.2103705475637
 31
0.0
  0
LINE
  5
32C
330
32A
100
AcDbEntity
  8
0
 62
   123
100
AcDbLine
 10
280.781331843018
 20
140.0959589347839
 30
0.0
 11
280.781331843018
 21
163.2103705475637
 31
0.0
  0
LINE
  5
32D
330
32A
100
AcDbEntity
  8
0
 62
   123
100
AcDbLine
 10
266.531331843018
 20
162.3103705475637
 30
0.0
 11
261.281331843018
 21
162.3103705475637
 31
0.0
  0
LINE
  5
32E
330
32A
100
AcDbEntity
  8
0
 62
   123
100
AcDbLine
 10
286.031331843018
 20
162.3103705475637
 30
0.0
 11
291.281331843018
 21
162.3103705475637
 31
0.0
  0
LINE
  5
32F
330
32A
100
AcDbEntity
  8
0
 62
   123
100
AcDbLine
 10
271.781331843018
 20
162.3103705475637
 30
0.0
 11
280.781331843018
 21
162.3103705475637
 31
0.0
  0
SOLID
  5
330
330
32A
100
AcDbEntity
  8
0
 62
   123
100
AcDbTrace
 10
266.531331843018
 20
163.1853705475637
 30
0.0
 11
266.531331843018
 21
161.4353705475637
 31
0.0
 12
271.781331843018
 22
162.3103705475637
 32
0.0
 13
271.781331843018
 23
162.3103705475637
 33
0.0
  0
SOLID
  5
331
330
32A
100
AcDbEntity
  8
0
 62
   123
100
AcDbTrace
 10
286.031331843018
 20
163.1853705475637
 30
0.0
 11
286.031331843018
 21
161.4353705475637
 31
0.0
 12
280.781331843018
 22
162.3103705475637
 32
0.0
 13
280.781331843018
 23
162.3103705475637
 33
0.0
  0
MTEXT
  5
332
330
32A
100
AcDbEntity
  8
0
 62
     3
100
AcDbMText
 10
276.281331843018
 20
166.0603705475637
 30
0.0
 40
4.5
 41
0.0
 71
     5
 72
     1
  1
\A1;9
1001
ACAD
1000
MTEXTBEGIN
1070
    73
1070
     1
1070
    44
1040
1.0
1070
    74
1070
     0
1000
MTEXTEND
  0
POINT
  5
333
330
32A
100
AcDbEntity
  8
DEFPOINTS
 62
     0
100
AcDbPoint
 10
271.781331843018
 20
138.595958934784
 30
0.0
  0
POINT
  5
334
330
32A
100
AcDbEntity
  8
DEFPOINTS
 62
     0
100
AcDbPoint
 10
280.781331843018
 20
138.595958934784
 30
0.0
  0
POINT
  5
335
330
32A
100
AcDbEntity
  8
DEFPOINTS
 62
     0
100
AcDbPoint
 10
280.781331843018
 20
162.3103705475637
 30
0.0
  0
ENDBLK
  5
337
330
32A
100
AcDbEntity
  8
0
100
AcDbBlockEnd
  0
BLOCK
  5
344
330
338
100
AcDbEntity
  8
0
100
AcDbBlockBegin
  2
*D47
 70
     1
 10
0.0
 20
0.0
 30
0.0
  3
*D47
  1

  0
LINE
  5
339
330
338
100
AcDbEntity
  8
0
 62
   123
100
AcDbLine
 10
277.781331843018
 20
136.0959589347839
 30
0.0
 11
277.781331843018
 21
152.5789855783636
 31
0.0
  0
LINE
  5
33A
330
338
100
AcDbEntity
  8
0
 62
   123
100
AcDbLine
 10
280.781331843018
 20
140.0959589347839
 30
0.0
 11
280.781331843018
 21
152.5789855783636
 31
0.0
  0
LINE
  5
33B
330
338
100
AcDbEntity
  8
0
 62
   123
100
AcDbLine
 10
272.531331843018
 20
151.6789855783636
 30
0.0
 11
267.281331843018
 21
151.6789855783636
 31
0.0
  0
LINE
  5
33C
330
338
100
AcDbEntity
  8
0
 62
   123
100
AcDbLine
 10
286.031331843018
 20
151.6789855783636
 30
0.0
 11
297.281331843018
 21
151.6789855783636
 31
0.0
  0
LINE
  5
33D
330
338
100
AcDbEntity
  8
0
 62
   123
100
AcDbLine
 10
277.781331843018
 20
151.6789855783636
 30
0.0
 11
280.781331843018
 21
151.6789855783636
 31
0.0
  0
SOLID
  5
33E
330
338
100
AcDbEntity
  8
0
 62
   123
100
AcDbTrace
 10
272.531331843018
 20
152.5539855783636
 30
0.0
 11
272.531331843018
 21
150.8039855783636
 31
0.0
 12
277.781331843018
 22
151.6789855783636
 32
0.0
 13
277.781331843018
 23
151.6789855783636
 33
0.0
  0
SOLID
  5
33F
330
338
100
AcDbEntity
  8
0
 62
   123
100
AcDbTrace
 10
286.031331843018
 20
152.5539855783636
 30
0.0
 11
286.031331843018
 21
150.8039855783636
 31
0.0
 12
280.781331843018
 22
151.6789855783636
 32
0.0
 13
280.781331843018
 23
151.6789855783636
 33
0.0
  0
MTEXT
  5
340
330
338
100
AcDbEntity
  8
0
 62
     3
100
AcDbMText
 10
294.281331843018
 20
155.4289855783636
 30
0.0
 40
4.5
 41
0.0
 71
     5
 72
     1
  1
\A1;3
1001
ACAD
1000
MTEXTBEGIN
1070
    73
1070
     1
1070
    44
1040
1.0
1070
    74
1070
     0
1000
MTEXTEND
  0
POINT
  5
341
330
338
100
AcDbEntity
  8
DEFPOINTS
 62
     0
100
AcDbPoint
 10
277.781331843018
 20
134.5959589347839
 30
0.0
  0
POINT
  5
342
330
338
100
AcDbEntity
  8
DEFPOINTS
 62
     0
100
AcDbPoint
 10
280.781331843018
 20
138.595958934784
 30
0.0
  0
POINT
  5
343
330
338
100
AcDbEntity
  8
DEFPOINTS
 62
     0
100
AcDbPoint
 10
280.781331843018
 20
151.6789855783636
 30
0.0
  0
ENDBLK
  5
345
330
338
100
AcDbEntity
  8
0
100
AcDbBlockEnd
  0
ENDSEC
  0
SECTION
  2
ENTITIES
  0
DIMENSION
  5
29
102
{ACAD_XDICTIONARY
360
2A
102
}
102
{ACAD_REACTORS
330
2B
102
}
330
2
100
AcDbEntity
  8
0
100
AcDbDimension
  2
*D35
 10
336.7813318430171
 20
10.06740637061193
 30
0.0
 11
304.552774698548
 21
10.06740637061193
 31
0.0
 70
   160
  3
STANDARD
100
AcDbAlignedDimension
 13
271.781331843018
 23
35.0959589347849
 33
0.0
 14
336.7813318430171
 24
28.09595893478399
 34
0.0
100
AcDbRotatedDimension
1001
ACAD
1000
DSTYLE
1002
{
1070
    40
1040
1.5
1002
}
  0
DIMENSION
  5
39
330
2
100
AcDbEntity
  8
0
100
AcDbDimension
  2
*D32
 10
134.9751051077328
 20
28.16611893478466
 30
0.0
 11
134.9751051077328
 21
14.63040464906953
 31
0.0
 70
   160
  3
STANDARD
100
AcDbAlignedDimension
 13
143.7871798346377
 23
27.16611893478466
 33
0.0
 14
140.5885532241509
 24
28.16611893478466
 34
0.0
 50
90.0
100
AcDbRotatedDimension
1001
ACAD
1000
DSTYLE
1002
{
1070
    40
1040
1.5
1002
}
  0
DIMENSION
  5
48
102
{ACAD_XDICTIONARY
360
49
102
}
102
{ACAD_REACTORS
330
4A
102
}
330
2
100
AcDbEntity
  8
0
100
AcDbDimension
  2
*D29
 10
180.7871798346377
 20
5.953773913163786
 30
0.0
 11
107.7901803949171
 21
5.953773913163786
 31
0.0
 70
   160
  3
STANDARD
100
AcDbAlignedDimension
 13
34.78717983463957
 23
28.16611893478466
 33
0.0
 14
180.7871798346377
 24
28.16611893478466
 34
0.0
100
AcDbRotatedDimension
1001
ACAD
1000
DSTYLE
1002
{
1070
    40
1040
1.5
1002
}
  0
LINE
  5
57
330
2
100
AcDbEntity
  8
0
  6
CONTINUOUS
100
AcDbLine
 10
60.78717983463775
 20
213.4552860838298
 30
0.0
 11
60.78717983463775
 21
278.4552860838298
 31
0.0
  0
LINE
  5
58
330
2
100
AcDbEntity
  8
CEN
  6
CENTER
100
AcDbLine
 10
107.7871798346377
 20
199.9195425438397
 30
0.0
 11
107.7871798346377
 21
283.8837165935456
 31
0.0
  0
LINE
  5
5B
330
2
100
AcDbEntity
  8
0
  6
CONTINUOUS
100
AcDbLine
 10
67.78717983463775
 20
222.4552860838298
 30
0.0
 11
67.78717983463775
 21
278.4552860838298
 31
0.0
  0
DIMENSION
  5
5C
102
{ACAD_XDICTIONARY
360
5D
102
}
102
{ACAD_REACTORS
330
5E
102
}
330
2
100
AcDbEntity
  8
0
100
AcDbDimension
  2
*D41
 10
98.07217362219676
 20
278.4552860838298
 30
0.0
 11
98.07217362219672
 21
255.8669209951494
 31
0.0
 70
   160
  3
STANDARD
100
AcDbAlignedDimension
 13
90.78717983463775
 23
235.4552860838289
 33
0.0
 14
72.78717983463775
 24
278.4552860838298
 34
0.0
 50
90.0
100
AcDbRotatedDimension
1001
ACAD
1000
DSTYLE
1002
{
1070
    40
1040
1.5
1002
}
  0
LINE
  5
6B
330
2
100
AcDbEntity
  8
0
  6
CONTINUOUS
100
AcDbLine
 10
34.78717983463957
 20
228.4552860838298
 30
0.0
 11
34.78717983463957
 21
268.4552860838298
 31
0.0
  0
LINE
  5
6C
330
2
100
AcDbEntity
  8
0
  6
CONTINUOUS
100
AcDbLine
 10
82.78717983463957
 20
243.4552860838289
 30
0.0
 11
82.78717983463957
 21
268.4552860838289
 31
0.0
  0
LINE
  5
6D
330
2
100
AcDbEntity
  8
0
  6
CONTINUOUS
100
AcDbLine
 10
154.7871798346377
 20
213.4552860838289
 30
0.0
 11
154.7871798346377
 21
278.4552860838298
 31
0.0
  0
LINE
  5
6E
330
2
100
AcDbEntity
  8
0
  6
CONTINUOUS
100
AcDbLine
 10
147.7871798346377
 20
222.4552860838298
 30
0.0
 11
147.7871798346377
 21
278.4552860838298
 31
0.0
  0
DIMENSION
  5
6F
330
2
100
AcDbEntity
  8
0
100
AcDbDimension
  2
*D45
 10
202.3307753643666
 20
270.4552860838298
 30
0.0
 11
202.3307753643666
 21
250.4552860838298
 31
0.0
 70
   160
  3
STANDARD
100
AcDbAlignedDimension
 13
179.2020088346389
 23
230.4552860838298
 33
0.0
 14
178.475497834639
 24
270.4552860838298
 34
0.0
 50
90.0
100
AcDbRotatedDimension
1001
ACAD
1000
DSTYLE
1002
{
1070
    40
1040
1.5
1002
}
  0
LINE
  5
7C
330
2
100
AcDbEntity
  8
0
  6
CONTINUOUS
100
AcDbLine
 10
180.7871798346377
 20
228.4552860838298
 30
0.0
 11
180.7871798346377
 21
268.4552860838289
 31
0.0
  0
LINE
  5
7D
102
{ACAD_REACTORS
330
1C0
102
}
330
2
100
AcDbEntity
  8
0
  6
CONTINUOUS
100
AcDbLine
 10
132.7871798346377
 20
243.4552860838289
 30
0.0
 11
132.7871798346377
 21
268.4552860838298
 31
0.0
  0
DIMENSION
  5
7E
330
2
100
AcDbEntity
  8
0
100
AcDbDimension
  2
*D40
 10
25.84485378521644
 20
273.6552860838296
 30
0.0
 11
25.8448537852164
 21
270.4552860838294
 31
0.0
 70
   160
  3
STANDARD
100
AcDbAlignedDimension
 13
42.28717983463775
 23
267.255286083829
 33
0.0
 14
42.28717983463775
 24
273.6552860838296
 34
0.0
 50
90.0
100
AcDbRotatedDimension
1001
ACAD
1000
DSTYLE
1002
{
1070
    40
1040
1.5
1002
}
  0
DIMENSION
  5
8D
102
{ACAD_XDICTIONARY
360
8E
102
}
102
{ACAD_REACTORS
330
8F
102
}
330
2
100
AcDbEntity
  8
0
100
AcDbDimension
  2
*D28
 10
241.5029911234041
 20
51.595958934784
 30
0.0
 11
241.5029911234041
 21
93.29150865452993
 31
0.0
 70
   160
  1
%%c<>
  3
STANDARD
100
AcDbAlignedDimension
 13
277.781331843018
 23
134.5959589347839
 33
0.0
 14
277.781331843018
 24
51.595958934784
 34
0.0
 50
90.0
100
AcDbRotatedDimension
1001
ACAD
1000
DSTYLE
1002
{
1070
    40
1040
1.5
1002
}
  0
LEADER
  5
9C
330
2
100
AcDbEntity
  8
0
100
AcDbLeader
  3
STANDARD
 73
     0
 75
     1
 40
4.5
 41
36.85714285714286
 76
     3
 10
68.19995042522169
 20
130.9655709379367
 30
0.0
 10
45.67563269285801
 20
148.0915292894305
 30
0.0
 10
40.42563269285802
 20
148.0915292894305
 30
0.0
340
9D
1001
ACAD
1000
DSTYLE
1002
{
1070
     5
1000

1070
    40
1040
1.5
1070
    77
1070
     1
1070
   147
1040
1.0
1070
   342
1005
0
1002
}
  0
MTEXT
  5
9D
102
{ACAD_REACTORS
330
9C
102
}
330
2
100
AcDbEntity
  8
0
 62
     3
100
AcDbMText
 10
38.92563269285801
 20
149.5915292894305
 30
0.0
 40
4.5
 41
0.0
 71
     9
 72
     1
  1
4-M6xP1.0
1001
ACAD
1000
MTEXTBEGIN
1070
    73
1070
     1
1070
    44
1040
1.0
1070
    74
1070
     0
1000
MTEXTEND
  0
ARC
  5
9E
330
2
100
AcDbEntity
  8
0
  6
CONTINUOUS
100
AcDbCircle
 10
145.7871798346377
 20
131.1661189347846
 30
0.0
 40
8.0
100
AcDbArc
 50
0.0
 51
90.0
  0
ARC
  5
9F
330
2
100
AcDbEntity
  8
0
  6
CONTINUOUS
100
AcDbCircle
 10
69.78717983463957
 20
131.1661189347846
 30
0.0
 40
8.0
100
AcDbArc
 50
90.0
 51
180.0
  0
DIMENSION
  5
A0
330
2
100
AcDbEntity
  8
0
100
AcDbDimension
  2
*D38
 10
153.7871798346377
 20
164.2841794250066
 30
0.0
 11
107.7871798346377
 21
164.2841794250066
 31
0.0
 70
   160
  3
STANDARD
100
AcDbAlignedDimension
 13
61.78717983463775
 23
130.4661189347848
 33
0.0
 14
153.7871798346377
 24
130.4661189347848
 34
0.0
100
AcDbRotatedDimension
1001
ACAD
1000
DSTYLE
1002
{
1070
    40
1040
1.5
1002
}
  0
DIMENSION
  5
AD
102
{ACAD_XDICTIONARY
360
AE
102
}
102
{ACAD_REACTORS
330
AF
102
}
330
2
100
AcDbEntity
  8
0
100
AcDbDimension
  2
*D27
 10
163.7871798346377
 20
177.2352474494555
 30
0.0
 11
106.167060415566
 21
177.2352474494555
 31
0.0
 70
   160
  3
STANDARD
100
AcDbAlignedDimension
 13
51.78717983463775
 23
101.1661189347846
 33
0.0
 14
163.7871798346377
 24
100.6661189347846
 34
0.0
100
AcDbRotatedDimension
1001
ACAD
1000
DSTYLE
1002
{
1070
    40
1040
1.5
1002
}
  0
DIMENSION
  5
BC
102
{ACAD_XDICTIONARY
360
BD
102
}
102
{ACAD_REACTORS
330
BE
102
}
330
2
100
AcDbEntity
  8
0
100
AcDbDimension
  2
*D26
 10
67.24237699347316
 20
60.60665084067822
 30
0.0
 11
181.3424208879599
 21
152.2345902654288
 31
0.0
 70
   163
  1
<>%%P0.3
  3
STANDARD
100
AcDbDiametricDimension
 15
148.331982675802
 25
125.7255870288908
 35
0.0
 40
0.0
1001
ACAD
1000
DSTYLE
1002
{
1070
    40
1040
1.5
1002
}
  0
DIMENSION
  5
CA
102
{ACAD_XDICTIONARY
360
CB
102
}
102
{ACAD_REACTORS
330
CC
102
}
330
2
100
AcDbEntity
  8
0
100
AcDbDimension
  2
*D25
 10
209.2685826903398
 20
27.16611893478465
 30
0.0
 11
209.2685826903398
 21
82.7412754032457
 31
0.0
 70
   160
  3
STANDARD
100
AcDbAlignedDimension
 13
145.0871798346388
 23
139.1661189347846
 33
0.0
 14
179.7871798346377
 24
27.16611893478466
 34
0.0
 50
90.0
100
AcDbRotatedDimension
1001
ACAD
1000
DSTYLE
1002
{
1070
    40
1040
1.5
1002
}
  0
LINE
  5
D9
330
2
100
AcDbEntity
  8
CEN
  6
CENTER
100
AcDbLine
 10
107.7871798346377
 20
28.08937943478395
 30
0.0
 11
107.7871798346377
 21
158.2428584347844
 31
0.0
  0
LINE
  5
DA
330
2
100
AcDbEntity
  8
0
  6
CONTINUOUS
100
AcDbLine
 10
142.7871798346377
 20
28.16611893478466
 30
0.0
 11
72.78717983463775
 21
28.16611893478466
 31
0.0
  0
LINE
  5
DB
330
2
100
AcDbEntity
  8
0
  6
CONTINUOUS
100
AcDbLine
 10
153.7871798346377
 20
35.16611893478466
 30
0.0
 11
107.7871798346377
 21
35.16611893478466
 31
0.0
  0
LINE
  5
DC
330
2
100
AcDbEntity
  8
0
 62
    35
100
AcDbLine
 10
153.7871798346377
 20
35.16611893478466
 30
0.0
 11
61.78717983463775
 21
35.16611893478466
 31
0.0
  0
LINE
  5
DD
330
2
100
AcDbEntity
  8
CEN
  6
CENTER
100
AcDbLine
 10
179.2597395846378
 20
93.16611893478466
 30
0.0
 11
36.31462008463677
 21
93.16611893478466
 31
0.0
  0
CIRCLE
  5
DE
330
2
100
AcDbEntity
  8
HI
100
AcDbCircle
 10
107.7871798346377
 20
93.16611893478466
 30
0.0
 40
41.5
  0
ARC
  5
E1
330
2
100
AcDbEntity
  8
0
  6
CONTINUOUS
100
AcDbCircle
 10
107.7871798346377
 20
93.16611893478466
 30
0.0
 40
40.0
100
AcDbArc
 50
270.0
 51
90.0
  0
CIRCLE
  5
E2
330
2
100
AcDbEntity
  8
0
  6
CONTINUOUS
100
AcDbCircle
 10
107.7871798346377
 20
93.16611893478466
 30
0.0
 40
40.0
  0
DIMENSION
  5
E3
102
{ACAD_XDICTIONARY
360
E4
102
}
102
{ACAD_REACTORS
330
E5
102
}
330
2
100
AcDbEntity
  8
0
100
AcDbDimension
  2
*D30
 10
0.9929328695307233
 20
101.1661189347846
 30
0.0
 11
0.9929328695307049
 21
64.16611893478466
 31
0.0
 70
   160
  3
STANDARD
100
AcDbAlignedDimension
 13
34.28717983463775
 23
27.16611893478466
 33
0.0
 14
51.78717983463775
 24
101.1661189347846
 34
0.0
 50
90.0
100
AcDbRotatedDimension
1001
ACAD
1000
DSTYLE
1002
{
1070
    40
1040
1.5
1002
}
  0
LINE
  5
F2
102
{ACAD_REACTORS
330
E5
102
}
330
2
100
AcDbEntity
  8
0
  6
CONTINUOUS
100
AcDbLine
 10
51.78717983463775
 20
27.16611893478466
 30
0.0
 11
51.78717983463775
 21
101.1661189347846
 31
0.0
  0
LINE
  5
F3
330
2
100
AcDbEntity
  8
0
 62
    35
100
AcDbLine
 10
61.78717983463775
 20
35.16611893478466
 30
0.0
 11
61.78717983463775
 21
114.6661189347846
 31
0.0
  0
DIMENSION
  5
F4
330
2
100
AcDbEntity
  8
0
100
AcDbDimension
  2
*D31
 10
18.05350453546727
 20
93.16611893478468
 30
0.0
 11
18.05350453546725
 21
56.25802097754195
 31
0.0
 70
   160
  1
<>%%P0.5
  3
STANDARD
100
AcDbAlignedDimension
 13
35.78717983463775
 23
27.16611893478466
 33
0.0
 14
35.69151233463708
 24
93.16611893478466
 34
0.0
 50
90.0
100
AcDbRotatedDimension
1001
ACAD
1000
DSTYLE
1002
{
1070
    40
1040
1.5
1002
}
  0
LINE
  5
101
330
2
100
AcDbEntity
  8
0
  6
CONTINUOUS
100
AcDbLine
 10
61.78717983463775
 20
35.16611893478466
 30
0.0
 11
61.78717983463775
 21
130.4661189347848
 31
0.0
  0
LINE
  5
102
330
2
100
AcDbEntity
  8
0
  6
CONTINUOUS
100
AcDbLine
 10
35.78717983463775
 20
27.16611893478466
 30
0.0
 11
71.78717983463775
 21
27.16611893478466
 31
0.0
  0
LINE
  5
103
330
2
100
AcDbEntity
  8
0
  6
CONTINUOUS
100
AcDbLine
 10
35.28717983463775
 20
36.16611893478466
 30
0.0
 11
51.28717983463776
 21
36.16611893478466
 31
0.0
  0
LINE
  5
104
102
{ACAD_REACTORS
330
4A
102
}
330
2
100
AcDbEntity
  8
0
  6
CONTINUOUS
100
AcDbLine
 10
34.78717983463957
 20
28.16611893478466
 30
0.0
 11
34.78717983463957
 21
35.66611893478466
 31
0.0
  0
LINE
  5
105
330
2
100
AcDbEntity
  8
0
  6
CONTINUOUS
100
AcDbLine
 10
35.78717983463775
 20
27.16611893478466
 30
0.0
 11
34.78717983463957
 21
28.16611893478466
 31
0.0
  0
ARC
  5
106
330
2
100
AcDbEntity
  8
0
  6
CONTINUOUS
100
AcDbCircle
 10
35.28717983463775
 20
35.66611893478466
 30
0.0
 40
0.5
100
AcDbArc
 50
90.0
 51
180.0
  0
LINE
  5
107
330
2
100
AcDbEntity
  8
0
 62
    35
100
AcDbLine
 10
61.78717983463775
 20
35.16611893478466
 30
0.0
 11
51.78717983463775
 21
27.16611893478466
 31
0.0
  0
LINE
  5
108
330
2
100
AcDbEntity
  8
0
  6
CONTINUOUS
100
AcDbLine
 10
72.78717983463775
 20
28.16611893478466
 30
0.0
 11
71.78717983463775
 21
27.16611893478466
 31
0.0
  0
ARC
  5
109
330
2
100
AcDbEntity
  8
0
  6
CONTINUOUS
100
AcDbCircle
 10
51.28717983463776
 20
36.66611893478466
 30
0.0
 40
0.5
100
AcDbArc
 50
270.0
 51
0.0
  0
ARC
  5
10A
330
2
100
AcDbEntity
  8
0
  6
CONTINUOUS
100
AcDbCircle
 10
51.28717983463776
 20
36.66611893478466
 30
0.0
 40
0.5
100
AcDbArc
 50
270.0
 51
0.0
  0
CIRCLE
  5
10B
330
2
100
AcDbEntity
  8
0
  6
CONTINUOUS
100
AcDbCircle
 10
71.01762783463164
 20
56.396566934784
 30
0.0
 40
2.0
  0
ARC
  5
10C
330
2
100
AcDbEntity
  8
0
  6
CONTINUOUS
 62
     3
100
AcDbCircle
 10
71.01762783463164
 20
56.396566934784
 30
0.0
 40
3.0
100
AcDbArc
 50
269.9999999999913
 51
180.0
  0
LINE
  5
10D
330
2
100
AcDbEntity
  8
CEN
  6
CENTER
 48
0.5
100
AcDbLine
 10
75.56664883463781
 20
60.94558793478473
 30
0.0
 11
66.10702783463785
 21
51.48596693478475
 31
0.0
  0
ARC
  5
10E
330
2
100
AcDbEntity
  8
CEN
  6
CENTER
 48
0.5
100
AcDbCircle
 10
107.7871798346377
 20
93.16611893478466
 30
0.0
 40
52.0
100
AcDbArc
 50
212.7373040000038
 51
231.8611529999974
  0
LINE
  5
10F
102
{ACAD_REACTORS
330
AF
102
}
330
2
100
AcDbEntity
  8
0
  6
CONTINUOUS
100
AcDbLine
 10
51.78717983463775
 20
101.1661189347846
 30
0.0
 11
61.78717983463775
 21
114.6661189347846
 31
0.0
  0
LINE
  5
110
330
2
100
AcDbEntity
  8
0
  6
CONTINUOUS
100
AcDbLine
 10
61.78717983463775
 20
114.6661189347846
 30
0.0
 11
61.78717983463775
 21
131.1661189347846
 31
0.0
  0
CIRCLE
  5
111
330
2
100
AcDbEntity
  8
0
  6
CONTINUOUS
100
AcDbCircle
 10
71.01762783463437
 20
129.9356709347889
 30
0.0
 40
2.0
  0
ARC
  5
112
330
2
100
AcDbEntity
  8
0
  6
CONTINUOUS
 62
     3
100
AcDbCircle
 10
71.01762783463437
 20
129.9356709347889
 30
0.0
 40
3.0
100
AcDbArc
 50
269.9999999999913
 51
180.0
  0
LINE
  5
113
330
2
100
AcDbEntity
  8
CEN
  6
CENTER
 48
0.5
100
AcDbLine
 10
75.56664883463781
 20
125.3866499347846
 30
0.0
 11
66.10702783463785
 21
134.8462709347836
 31
0.0
  0
ARC
  5
114
330
2
100
AcDbEntity
  8
CEN
  6
CENTER
 48
0.5
100
AcDbCircle
 10
107.7871798346377
 20
93.16611893478375
 30
0.0
 40
52.0
100
AcDbArc
 50
122.7373040000039
 51
141.8611529999974
  0
LINE
  5
115
330
2
100
AcDbEntity
  8
0
  6
CONTINUOUS
100
AcDbLine
 10
163.7871798346377
 20
28.16611893478466
 30
0.0
 11
163.7871798346377
 21
100.6661189347846
 31
0.0
  0
LINE
  5
116
330
2
100
AcDbEntity
  8
0
 62
    35
100
AcDbLine
 10
153.7871798346377
 20
35.16611893478466
 30
0.0
 11
153.7871798346377
 21
114.6661189347846
 31
0.0
  0
LINE
  5
117
330
2
100
AcDbEntity
  8
0
  6
CONTINUOUS
100
AcDbLine
 10
153.7871798346395
 20
35.16611893478466
 30
0.0
 11
153.7871798346377
 21
131.1661189347846
 31
0.0
  0
LINE
  5
118
330
2
100
AcDbEntity
  8
0
  6
CONTINUOUS
100
AcDbLine
 10
179.7871798346377
 20
27.16611893478466
 30
0.0
 11
143.7871798346377
 21
27.16611893478466
 31
0.0
  0
LINE
  5
119
330
2
100
AcDbEntity
  8
0
  6
CONTINUOUS
100
AcDbLine
 10
180.2871798346395
 20
36.16611893478466
 30
0.0
 11
164.2871798346377
 21
36.16611893478466
 31
0.0
  0
LINE
  5
11A
330
2
100
AcDbEntity
  8
0
 62
    35
100
AcDbLine
 10
153.7871798346395
 20
35.16611893478466
 30
0.0
 11
163.7871798346377
 21
27.16611893478466
 31
0.0
  0
LINE
  5
11B
330
2
100
AcDbEntity
  8
0
  6
CONTINUOUS
100
AcDbLine
 10
142.7871798346377
 20
28.16611893478466
 30
0.0
 11
143.7871798346377
 21
27.16611893478466
 31
0.0
  0
CIRCLE
  5
11C
330
2
100
AcDbEntity
  8
0
  6
CONTINUOUS
100
AcDbCircle
 10
144.5567318346347
 20
56.39656693477991
 30
0.0
 40
2.0
  0
ARC
  5
11D
330
2
100
AcDbEntity
  8
0
  6
CONTINUOUS
 62
     3
100
AcDbCircle
 10
144.5567318346347
 20
56.39656693477991
 30
0.0
 40
3.0
100
AcDbArc
 50
269.9999999999913
 51
180.0
  0
LINE
  5
11E
330
2
100
AcDbEntity
  8
CEN
  6
CENTER
 48
0.5
100
AcDbLine
 10
140.0077108346376
 20
60.94558793478473
 30
0.0
 11
149.4673318346394
 21
51.48596693478385
 31
0.0
  0
ARC
  5
11F
330
2
100
AcDbEntity
  8
CEN
  6
CENTER
 48
0.5
100
AcDbCircle
 10
107.7871798346377
 20
93.16611893478466
 30
0.0
 40
52.0
100
AcDbArc
 50
302.7373040000039
 51
321.8611529999973
  0
ARC
  5
120
330
2
100
AcDbEntity
  8
0
  6
CONTINUOUS
100
AcDbCircle
 10
164.2871798346377
 20
36.66611893478466
 30
0.0
 40
0.5
100
AcDbArc
 50
180.0
 51
270.0
  0
LINE
  5
121
102
{ACAD_REACTORS
330
4A
102
}
330
2
100
AcDbEntity
  8
0
  6
CONTINUOUS
100
AcDbLine
 10
180.7871798346377
 20
28.16611893478466
 30
0.0
 11
180.7871798346377
 21
35.66611893478466
 31
0.0
  0
DIMENSION
  5
122
330
2
100
AcDbEntity
  8
0
100
AcDbDimension
  2
*D33
 10
197.6612969068673
 20
36.16611893478466
 30
0.0
 11
197.6612969068673
 21
31.66611893478469
 31
0.0
 70
   160
  3
STANDARD
100
AcDbAlignedDimension
 13
179.7871798346377
 23
27.16611893478466
 33
0.0
 14
180.2871798346395
 24
36.16611893478466
 34
0.0
 50
90.0
100
AcDbRotatedDimension
1001
ACAD
1000
DSTYLE
1002
{
1070
    40
1040
1.5
1002
}
  0
LINE
  5
131
102
{ACAD_REACTORS
330
CC
102
}
330
2
100
AcDbEntity
  8
0
  6
CONTINUOUS
100
AcDbLine
 10
179.7871798346377
 20
27.16611893478466
 30
0.0
 11
180.7871798346377
 21
28.16611893478466
 31
0.0
  0
ARC
  5
132
330
2
100
AcDbEntity
  8
0
  6
CONTINUOUS
100
AcDbCircle
 10
180.2871798346395
 20
35.66611893478466
 30
0.0
 40
0.5
100
AcDbArc
 50
0.0
 51
90.0
  0
LINE
  5
133
330
2
100
AcDbEntity
  8
0
  6
CONTINUOUS
100
AcDbLine
 10
163.7871798346377
 20
100.6661189347846
 30
0.0
 11
153.7871798346377
 21
114.6661189347846
 31
0.0
  0
CIRCLE
  5
134
330
2
100
AcDbEntity
  8
0
  6
CONTINUOUS
100
AcDbCircle
 10
144.5567318346384
 20
129.9356709347848
 30
0.0
 40
2.0
  0
ARC
  5
135
330
2
100
AcDbEntity
  8
0
  6
CONTINUOUS
 62
     3
100
AcDbCircle
 10
144.5567318346384
 20
129.9356709347848
 30
0.0
 40
3.0
100
AcDbArc
 50
269.9999999999913
 51
180.0
  0
ARC
  5
136
102
{ACAD_REACTORS
330
BE
102
}
330
2
100
AcDbEntity
  8
CEN
  6
CENTER
 48
0.5
100
AcDbCircle
 10
107.7871798346377
 20
93.16611893478466
 30
0.0
 40
52.0
100
AcDbArc
 50
32.73730400000394
 51
51.86115299999745
  0
LINE
  5
137
330
2
100
AcDbEntity
  8
CEN
  6
CENTER
 48
0.5
100
AcDbLine
 10
140.0077108346376
 20
125.3866499347846
 30
0.0
 11
149.4673318346394
 21
134.8462709347836
 31
0.0
  0
LINE
  5
138
330
2
100
AcDbEntity
  8
0
  6
CONTINUOUS
100
AcDbLine
 10
163.7871798346377
 20
222.4552860838298
 30
0.0
 11
51.78717983463775
 21
222.4552860838298
 31
0.0
  0
LINE
  5
139
330
2
100
AcDbEntity
  8
0
  6
CONTINUOUS
100
AcDbLine
 10
165.7871798346377
 20
213.4552860838289
 30
0.0
 11
49.78717983463775
 21
213.4552860838298
 31
0.0
  0
LINE
  5
13A
102
{ACAD_REACTORS
330
5E
102
}
330
2
100
AcDbEntity
  8
0
  6
CONTINUOUS
100
AcDbLine
 10
124.7871798346377
 20
235.4552860838289
 30
0.0
 11
90.78717983463775
 21
235.4552860838289
 31
0.0
  0
LINE
  5
13B
330
2
100
AcDbEntity
  8
0
  6
CONTINUOUS
100
AcDbLine
 10
145.7871798346377
 20
139.1661189347846
 30
0.0
 11
69.78717983463957
 21
139.1661189347846
 31
0.0
  0
ARC
  5
13C
330
2
100
AcDbEntity
  8
0
  6
CONTINUOUS
100
AcDbCircle
 10
49.78717983463775
 20
228.4552860838298
 30
0.0
 40
15.0
100
AcDbArc
 50
180.0
 51
270.0
  0
LINE
  5
13D
330
2
100
AcDbEntity
  8
0
  6
CONTINUOUS
100
AcDbLine
 10
41.98717983463938
 20
233.6552860838296
 30
0.0
 11
45.58717983463793
 21
233.6552860838296
 31
0.0
  0
LINE
  5
13E
330
2
100
AcDbEntity
  8
0
  6
CONTINUOUS
100
AcDbLine
 10
41.98717983463938
 20
227.2552860838291
 30
0.0
 11
45.58717983463793
 21
227.2552860838291
 31
0.0
  0
LINE
  5
13F
330
2
100
AcDbEntity
  8
CEN
  6
CENTER
 48
0.5
100
AcDbLine
 10
37.41164883463807
 20
230.4552860838298
 30
0.0
 11
50.4754978346391
 21
230.4552860838298
 31
0.0
  0
ARC
  5
140
330
2
100
AcDbEntity
  8
0
  6
CONTINUOUS
100
AcDbCircle
 10
42.28717983463775
 20
230.4552860838298
 30
0.0
 40
3.2
100
AcDbArc
 50
90.0
 51
270.0
  0
LINE
  5
141
330
2
100
AcDbEntity
  8
0
  6
CONTINUOUS
100
AcDbLine
 10
51.78717983463775
 20
213.4552860838298
 30
0.0
 11
51.78717983463775
 21
249.4552860838289
 31
0.0
  0
LINE
  5
142
330
2
100
AcDbEntity
  8
0
  6
CONTINUOUS
100
AcDbLine
 10
51.78717983463775
 20
249.4552860838289
 30
0.0
 11
60.78717983463775
 21
249.4552860838289
 31
0.0
  0
LINE
  5
143
330
2
100
AcDbEntity
  8
0
  6
CONTINUOUS
100
AcDbLine
 10
48.98717983463939
 20
230.4552860838298
 30
0.0
 11
49.00880583463913
 21
230.4552860838298
 31
0.0
  0
ARC
  5
144
330
2
100
AcDbEntity
  8
0
  6
CONTINUOUS
100
AcDbCircle
 10
45.28717983463775
 20
230.4552860838298
 30
0.0
 40
3.2
100
AcDbArc
 50
270.0
 51
90.0
  0
ARC
  5
145
330
2
100
AcDbEntity
  8
0
  6
CONTINUOUS
100
AcDbCircle
 10
90.78717983463775
 20
243.4552860838289
 30
0.0
 40
8.0
100
AcDbArc
 50
180.0
 51
270.0
  0
LINE
  5
146
330
2
100
AcDbEntity
  8
CEN
  6
CENTER
 48
0.5
100
AcDbLine
 10
43.78717983463775
 20
226.0243660838286
 30
0.0
 11
43.78717983463775
 21
234.7717450838299
 31
0.0
  0
ARC
  5
147
330
2
100
AcDbEntity
  8
0
  6
CONTINUOUS
100
AcDbCircle
 10
165.7871798346377
 20
228.4552860838298
 30
0.0
 40
15.0
100
AcDbArc
 50
269.9999999999998
 51
0.0
  0
DIMENSION
  5
148
102
{ACAD_XDICTIONARY
360
149
102
}
102
{ACAD_REACTORS
330
14A
102
}
330
2
100
AcDbEntity
  8
0
100
AcDbDimension
  2
*D42
 10
202.3307753643667
 20
230.4552860838298
 30
0.0
 11
202.3307753643666
 21
222.5334080340167
 31
0.0
 70
   160
  3
STANDARD
100
AcDbAlignedDimension
 13
163.7871798346377
 23
213.4552860838289
 33
0.0
 14
177.7020088346389
 24
230.4552860838298
 34
0.0
 50
90.0
100
AcDbRotatedDimension
1001
ACAD
1000
DSTYLE
1002
{
1070
    40
1040
1.5
1002
}
  0
LINE
  5
157
330
2
100
AcDbEntity
  8
CEN
  6
CENTER
 48
0.5
100
AcDbLine
 10
165.411648834638
 20
230.4552860838298
 30
0.0
 11
178.475497834639
 21
230.4552860838298
 31
0.0
  0
LINE
  5
158
102
{ACAD_REACTORS
330
14A
102
}
330
2
100
AcDbEntity
  8
0
  6
CONTINUOUS
100
AcDbLine
 10
163.7871798346377
 20
213.4552860838289
 30
0.0
 11
163.7871798346377
 21
249.4552860838289
 31
0.0
  0
LINE
  5
159
330
2
100
AcDbEntity
  8
0
  6
CONTINUOUS
100
AcDbLine
 10
163.7871798346377
 20
249.4552860838289
 30
0.0
 11
154.7871798346377
 21
249.4552860838289
 31
0.0
  0
LINE
  5
15A
330
2
100
AcDbEntity
  8
0
  6
CONTINUOUS
100
AcDbLine
 10
176.9871798346375
 20
230.4552860838298
 30
0.0
 11
177.0088058346391
 21
230.4552860838298
 31
0.0
  0
ARC
  5
15B
330
2
100
AcDbEntity
  8
0
  6
CONTINUOUS
100
AcDbCircle
 10
173.2871798346377
 20
230.4552860838298
 30
0.0
 40
3.2
100
AcDbArc
 50
270.0
 51
90.0
  0
LINE
  5
15C
330
2
100
AcDbEntity
  8
0
  6
CONTINUOUS
100
AcDbLine
 10
169.9871798346375
 20
233.6552860838296
 30
0.0
 11
173.5871798346379
 21
233.6552860838296
 31
0.0
  0
LINE
  5
15D
330
2
100
AcDbEntity
  8
0
  6
CONTINUOUS
100
AcDbLine
 10
166.5871798346388
 20
230.4552860838298
 30
0.0
 11
166.5655528346387
 21
230.4552860838298
 31
0.0
  0
LINE
  5
15E
330
2
100
AcDbEntity
  8
0
  6
CONTINUOUS
100
AcDbLine
 10
169.9871798346375
 20
227.2552860838291
 30
0.0
 11
173.5871798346379
 21
227.2552860838291
 31
0.0
  0
ARC
  5
15F
330
2
100
AcDbEntity
  8
0
  6
CONTINUOUS
100
AcDbCircle
 10
170.2871798346377
 20
230.4552860838298
 30
0.0
 40
3.2
100
AcDbArc
 50
90.0
 51
270.0
  0
ARC
  5
160
330
2
100
AcDbEntity
  8
0
  6
CONTINUOUS
100
AcDbCircle
 10
124.7871798346377
 20
243.4552860838289
 30
0.0
 40
8.0
100
AcDbArc
 50
270.0
 51
0.0
  0
LINE
  5
161
330
2
100
AcDbEntity
  8
CEN
  6
CENTER
 48
0.5
100
AcDbLine
 10
171.7871798346377
 20
226.0243660838286
 30
0.0
 11
171.7871798346377
 21
234.7717450838299
 31
0.0
  0
DIMENSION
  5
162
102
{ACAD_XDICTIONARY
360
163
102
}
102
{ACAD_REACTORS
330
164
102
}
330
2
100
AcDbEntity
  8
0
100
AcDbDimension
  2
*D47
 10
280.781331843018
 20
151.6789855783636
 30
0.0
 11
294.281331843018
 21
151.6789855783636
 31
0.0
 70
   160
  3
STANDARD
100
AcDbAlignedDimension
 13
277.781331843018
 23
134.5959589347839
 33
0.0
 14
280.781331843018
 24
138.595958934784
 34
0.0
100
AcDbRotatedDimension
1001
ACAD
1000
DSTYLE
1002
{
1070
    40
1040
1.5
1002
}
  0
LINE
  5
173
102
{ACAD_REACTORS
330
2B
330
1AF
102
}
330
2
100
AcDbEntity
  8
0
  6
CONTINUOUS
100
AcDbLine
 10
271.781331843018
 20
35.0959589347849
 30
0.0
 11
271.781331843018
 21
138.595958934784
 31
0.0
  0
LINE
  5
174
102
{ACAD_REACTORS
330
1AF
330
164
102
}
330
2
100
AcDbEntity
  8
0
  6
CONTINUOUS
100
AcDbLine
 10
280.781331843018
 20
101.5959589347849
 30
0.0
 11
280.781331843018
 21
138.595958934784
 31
0.0
  0
LINE
  5
175
330
2
100
AcDbEntity
  8
0
  6
CONTINUOUS
100
AcDbLine
 10
280.781331843018
 20
101.5959589347849
 30
0.0
 11
280.781331843018
 21
36.09595893478399
 31
0.0
  0
LINE
  5
176
102
{ACAD_REACTORS
330
18E
102
}
330
2
100
AcDbEntity
  8
0
  6
CONTINUOUS
100
AcDbLine
 10
280.781331843018
 20
101.5959589347849
 30
0.0
 11
306.781331843018
 21
36.09595893478399
 31
0.0
  0
LINE
  5
177
330
2
100
AcDbEntity
  8
0
  6
CONTINUOUS
100
AcDbLine
 10
280.781331843018
 20
101.5959589347849
 30
0.0
 11
280.781331843018
 21
36.09595893478399
 31
0.0
  0
LINE
  5
178
330
2
100
AcDbEntity
  8
0
 62
    35
100
AcDbLine
 10
273.281331843018
 20
28.09595893478399
 30
0.0
 11
273.281331843018
 21
101.0959589347808
 31
0.0
  0
LINE
  5
179
330
2
100
AcDbEntity
  8
HI
100
AcDbLine
 10
277.781331843018
 20
51.595958934784
 30
0.0
 11
277.781331843018
 21
134.5959589347839
 31
0.0
  0
LINE
  5
17A
102
{ACAD_REACTORS
330
164
330
8F
102
}
330
2
100
AcDbEntity
  8
HI
100
AcDbLine
 10
277.781331843018
 20
51.595958934784
 30
0.0
 11
277.781331843018
 21
134.5959589347839
 31
0.0
  0
DIMENSION
  5
17B
102
{ACAD_XDICTIONARY
360
17C
102
}
102
{ACAD_REACTORS
330
17D
102
}
330
2
100
AcDbEntity
  8
0
100
AcDbDimension
  2
*D24
 10
253.3055480214543
 20
53.09595893478399
 30
0.0
 11
253.3055480214543
 21
93.08983062688595
 31
0.0
 70
   160
  1
%%c<>
  3
STANDARD
100
AcDbAlignedDimension
 13
271.781331843018
 23
133.0959589347839
 33
0.0
 14
271.781331843018
 24
53.09595893478399
 34
0.0
 50
90.0
100
AcDbRotatedDimension
1001
ACAD
1000
DSTYLE
1002
{
1070
    40
1040
1.5
1002
}
  0
LINE
  5
18A
330
2
100
AcDbEntity
  8
0
  6
CONTINUOUS
100
AcDbLine
 10
335.781331843018
 20
27.0959589347849
 30
0.0
 11
274.3040333475373
 21
27.0959589347849
 31
0.0
  0
LINE
  5
18B
330
2
100
AcDbEntity
  8
0
  6
CONTINUOUS
100
AcDbLine
 10
335.781331843018
 20
36.09595893478399
 30
0.0
 11
273.281331843018
 21
36.09595893478399
 31
0.0
  0
DIMENSION
  5
18C
102
{ACAD_XDICTIONARY
360
18D
102
}
102
{ACAD_REACTORS
330
18E
102
}
330
2
100
AcDbEntity
  8
0
100
AcDbDimension
  2
*D34
 10
336.7813318430171
 20
54.02984788314097
 30
0.0
 11
324.4312392099409
 21
54.02984788314097
 31
0.0
 70
   160
  3
STANDARD
100
AcDbAlignedDimension
 13
306.781331843018
 23
36.09595893478399
 33
0.0
 14
336.7813318430171
 24
31.59595893478399
 34
0.0
100
AcDbRotatedDimension
1001
ACAD
1000
DSTYLE
1002
{
1070
    40
1040
1.5
1002
}
  0
LINE
  5
19B
330
2
100
AcDbEntity
  8
HI
100
AcDbLine
 10
280.781331843018
 20
51.595958934784
 30
0.0
 11
277.781331843018
 21
51.595958934784
 31
0.0
  0
LINE
  5
19C
330
2
100
AcDbEntity
  8
HI
100
AcDbLine
 10
280.781331843018
 20
51.595958934784
 30
0.0
 11
277.781331843018
 21
51.595958934784
 31
0.0
  0
LINE
  5
19D
330
2
100
AcDbEntity
  8
0
  6
CONTINUOUS
100
AcDbLine
 10
271.781331843018
 20
35.0959589347849
 30
0.0
 11
273.3262309334604
 21
27.88642984605394
 31
0.0
  0
ARC
  5
19E
330
2
100
AcDbEntity
  8
0
  6
CONTINUOUS
100
AcDbCircle
 10
274.3040333475373
 20
28.09595893478399
 30
0.0
 40
1.0
100
AcDbArc
 50
192.0947570770108
 51
270.0
  0
LINE
  5
19F
102
{ACAD_REACTORS
330
17D
102
}
330
2
100
AcDbEntity
  8
HI
100
AcDbLine
 10
277.781331843018
 20
53.09595893478399
 30
0.0
 11
271.781331843018
 21
53.09595893478399
 31
0.0
  0
LINE
  5
1A0
102
{ACAD_REACTORS
330
18E
330
2B
102
}
330
2
100
AcDbEntity
  8
0
  6
CONTINUOUS
100
AcDbLine
 10
336.7813318430171
 20
28.09595893478399
 30
0.0
 11
336.7813318430171
 21
35.0959589347849
 31
0.0
  0
ARC
  5
1A1
330
2
100
AcDbEntity
  8
0
  6
CONTINUOUS
100
AcDbCircle
 10
335.781331843018
 20
28.09595893478399
 30
0.0
 40
1.0
100
AcDbArc
 50
270.0
 51
0.0
  0
ARC
  5
1A2
330
2
100
AcDbEntity
  8
0
  6
CONTINUOUS
100
AcDbCircle
 10
335.781331843018
 20
35.0959589347849
 30
0.0
 40
1.0
100
AcDbArc
 50
0.0
 51
90.0
  0
LINE
  5
1A3
330
2
100
AcDbEntity
  8
HI
100
AcDbLine
 10
280.781331843018
 20
134.5959589347839
 30
0.0
 11
277.781331843018
 21
134.5959589347839
 31
0.0
  0
LINE
  5
1A4
330
2
100
AcDbEntity
  8
HI
100
AcDbLine
 10
280.781331843018
 20
134.5959589347839
 30
0.0
 11
277.781331843018
 21
134.5959589347839
 31
0.0
  0
LINE
  5
1A5
102
{ACAD_REACTORS
330
17D
102
}
330
2
100
AcDbEntity
  8
HI
100
AcDbLine
 10
277.781331843018
 20
133.0959589347839
 30
0.0
 11
271.781331843018
 21
133.0959589347839
 31
0.0
  0
LINE
  5
1A6
330
2
100
AcDbEntity
  8
CEN
  6
CENTER
100
AcDbLine
 10
294.5500038430182
 20
93.09595893478491
 30
0.0
 11
263.3436848430174
 21
93.09595893478491
 31
0.0
  0
LINE
  5
1A7
330
2
100
AcDbEntity
  8
0
 62
    35
100
AcDbLine
 10
280.781331843018
 20
114.595958934784
 30
0.0
 11
271.781331843018
 21
114.595958934784
 31
0.0
  0
LINE
  5
1A8
330
2
100
AcDbEntity
  8
0
 62
    35
100
AcDbLine
 10
280.781331843018
 20
101.095958934784
 30
0.0
 11
273.281331843018
 21
101.095958934784
 31
0.0
  0
LINE
  5
1A9
330
2
100
AcDbEntity
  8
0
 62
    35
100
AcDbLine
 10
273.281331843018
 20
101.095958934784
 30
0.0
 11
271.781331843018
 21
114.595958934784
 31
0.0
  0
LINE
  5
1AA
330
2
100
AcDbEntity
  8
0
  6
CONTINUOUS
100
AcDbLine
 10
280.281331843018
 20
139.0959589347839
 30
0.0
 11
272.281331843018
 21
139.0959589347839
 31
0.0
  0
ARC
  5
1AB
330
2
100
AcDbEntity
  8
0
  6
CONTINUOUS
100
AcDbCircle
 10
272.281331843018
 20
138.595958934784
 30
0.0
 40
0.5
100
AcDbArc
 50
90.0
 51
180.0
  0
ARC
  5
1AC
330
2
100
AcDbEntity
  8
0
  6
CONTINUOUS
100
AcDbCircle
 10
280.281331843018
 20
138.595958934784
 30
0.0
 40
0.5
100
AcDbArc
 50
0.000000000000007
 51
90.0
  0
DIMENSION
  5
1AD
102
{ACAD_XDICTIONARY
360
1AE
102
}
102
{ACAD_REACTORS
330
1AF
102
}
330
2
100
AcDbEntity
  8
0
100
AcDbDimension
  2
*D46
 10
280.781331843018
 20
162.3103705475637
 30
0.0
 11
276.281331843018
 21
162.3103705475637
 31
0.0
 70
   160
  3
STANDARD
100
AcDbAlignedDimension
 13
271.781331843018
 23
138.595958934784
 33
0.0
 14
280.781331843018
 24
138.595958934784
 34
0.0
100
AcDbRotatedDimension
1001
ACAD
1000
DSTYLE
1002
{
1070
    40
1040
1.5
1002
}
  0
DIMENSION
  5
1BE
102
{ACAD_XDICTIONARY
360
1BF
102
}
102
{ACAD_REACTORS
330
1C0
102
}
330
2
100
AcDbEntity
  8
0
100
AcDbDimension
  2
*D37
 10
132.7871798346359
 20
299.6372977121268
 30
0.0
 11
105.7190498991085
 21
299.6372977121268
 31
0.0
 70
   160
  3
STANDARD
100
AcDbAlignedDimension
 13
82.78717983463776
 23
268.4552860838289
 33
0.0
 14
132.7871798346359
 24
268.4552860838298
 34
0.0
100
AcDbRotatedDimension
1001
ACAD
1000
DSTYLE
1002
{
1070
    40
1040
1.5
1002
}
  0
DIMENSION
  5
1CD
102
{ACAD_XDICTIONARY
360
1CE
102
}
102
{ACAD_REACTORS
330
1CF
102
}
330
2
100
AcDbEntity
  8
0
100
AcDbDimension
  2
*D36
 10
171.7871798346377
 20
311.3891809780536
 30
0.0
 11
105.6445260348882
 21
311.3891809780536
 31
0.0
 70
   160
  3
STANDARD
100
AcDbAlignedDimension
 13
43.78717983463775
 23
274.7717450838299
 33
0.0
 14
171.7871798346377
 24
274.7717450838299
 34
0.0
100
AcDbRotatedDimension
1001
ACAD
1000
DSTYLE
1002
{
1070
    40
1040
1.5
1002
}
  0
ARC
  5
1DC
330
2
100
AcDbEntity
  8
0
  6
CONTINUOUS
100
AcDbCircle
 10
44.78717983463957
 20
268.4552860838289
 30
0.0
 40
10.0
100
AcDbArc
 50
90.0
 51
179.9999999999992
  0
DIMENSION
  5
1DD
102
{ACAD_XDICTIONARY
360
1DE
102
}
102
{ACAD_REACTORS
330
1DF
102
}
330
2
100
AcDbEntity
  8
0
100
AcDbDimension
  2
*D39
 10
48.48717983463739
 20
289.9575736606616
 30
0.0
 11
22.26575126320918
 21
289.9575736606616
 31
0.0
 70
   160
  3
STANDARD
100
AcDbAlignedDimension
 13
39.08717983463775
 23
270.4552860838298
 33
0.0
 14
48.48717983463739
 24
270.4552860838298
 34
0.0
100
AcDbRotatedDimension
1001
ACAD
1000
DSTYLE
1002
{
1070
    40
1040
1.5
1002
}
  0
LINE
  5
1EE
330
2
100
AcDbEntity
  8
CEN
  6
CENTER
 48
0.5
100
AcDbLine
 10
37.41164883463807
 20
270.4552860838298
 30
0.0
 11
50.4754978346391
 21
270.4552860838298
 31
0.0
  0
LINE
  5
1EF
330
2
100
AcDbEntity
  8
0
  6
CONTINUOUS
100
AcDbLine
 10
41.98717983463938
 20
273.6552860838296
 30
0.0
 11
45.58717983463793
 21
273.6552860838296
 31
0.0
  0
LINE
  5
1F0
330
2
100
AcDbEntity
  8
0
  6
CONTINUOUS
100
AcDbLine
 10
41.98717983463938
 20
267.255286083829
 30
0.0
 11
45.58717983463793
 21
267.255286083829
 31
0.0
  0
ARC
  5
1F1
102
{ACAD_REACTORS
330
1DF
102
}
330
2
100
AcDbEntity
  8
0
  6
CONTINUOUS
100
AcDbCircle
 10
42.28717983463775
 20
270.4552860838298
 30
0.0
 40
3.2
100
AcDbArc
 50
90.0
 51
270.0
  0
ARC
  5
1F2
102
{ACAD_REACTORS
330
5E
330
1C0
102
}
330
2
100
AcDbEntity
  8
0
  6
CONTINUOUS
100
AcDbCircle
 10
72.78717983463775
 20
268.4552860838289
 30
0.0
 40
10.0
100
AcDbArc
 50
0.0
 51
90.0
  0
LINE
  5
1F3
102
{ACAD_REACTORS
330
1CF
102
}
330
2
100
AcDbEntity
  8
CEN
  6
CENTER
 48
0.5
100
AcDbLine
 10
43.78717983463775
 20
266.0243660838286
 30
0.0
 11
43.78717983463775
 21
274.7717450838299
 31
0.0
  0
LINE
  5
1F4
330
2
100
AcDbEntity
  8
0
  6
CONTINUOUS
100
AcDbLine
 10
48.98717983463939
 20
270.4552860838298
 30
0.0
 11
49.00880583463913
 21
270.4552860838298
 31
0.0
  0
ARC
  5
1F5
102
{ACAD_REACTORS
330
1DF
102
}
330
2
100
AcDbEntity
  8
0
  6
CONTINUOUS
100
AcDbCircle
 10
45.28717983463775
 20
270.4552860838298
 30
0.0
 40
3.2
100
AcDbArc
 50
270.0
 51
90.0
  0
LINE
  5
1F6
330
2
100
AcDbEntity
  8
0
  6
CONTINUOUS
100
AcDbLine
 10
44.78717983463957
 20
278.4552860838298
 30
0.0
 11
72.78717983463775
 21
278.4552860838298
 31
0.0
  0
DIMENSION
  5
1F7
102
{ACAD_XDICTIONARY
360
1F8
102
}
102
{ACAD_REACTORS
330
1F9
102
}
330
2
100
AcDbEntity
  8
0
100
AcDbDimension
  2
*D43
 10
170.7871798346395
 20
268.4552860838288
 30
0.0
 11
190.7735957650121
 21
287.7578531831978
 31
0.0
 70
   164
  3
STANDARD
100
AcDbRadialDimension
 15
177.9802344111238
 25
275.4022253997977
 35
0.0
 40
0.0
1001
ACAD
1000
DSTYLE
1002
{
1070
    40
1040
1.5
1002
}
  0
ARC
  5
203
102
{ACAD_REACTORS
330
1F9
102
}
330
2
100
AcDbEntity
  8
0
  6
CONTINUOUS
100
AcDbCircle
 10
170.7871798346395
 20
268.4552860838289
 30
0.0
 40
10.0
100
AcDbArc
 50
0.0
 51
90.0
  0
LINE
  5
204
330
2
100
AcDbEntity
  8
CEN
  6
CENTER
 48
0.5
100
AcDbLine
 10
165.411648834638
 20
270.4552860838298
 30
0.0
 11
178.475497834639
 21
270.4552860838298
 31
0.0
  0
DIMENSION
  5
205
102
{ACAD_XDICTIONARY
360
206
102
}
102
{ACAD_REACTORS
330
207
102
}
330
2
100
AcDbEntity
  8
0
100
AcDbDimension
  2
*D44
 10
142.7871798346377
 20
268.4552860838298
 30
0.0
 11
122.8744008546927
 21
287.8338090322854
 31
0.0
 70
   164
  3
STANDARD
100
AcDbRadialDimension
 15
135.6206269883839
 25
275.4295616951002
 35
0.0
 40
0.0
1001
ACAD
1000
DSTYLE
1002
{
1070
    40
1040
1.5
1002
}
  0
ARC
  5
211
102
{ACAD_REACTORS
330
207
330
1C0
102
}
330
2
100
AcDbEntity
  8
0
  6
CONTINUOUS
100
AcDbCircle
 10
142.7871798346377
 20
268.4552860838298
 30
0.0
 40
10.0
100
AcDbArc
 50
90.0
 51
180.0
  0
LINE
  5
212
330
2
100
AcDbEntity
  8
0
  6
CONTINUOUS
100
AcDbLine
 10
176.9871798346375
 20
270.4552860838298
 30
0.0
 11
177.0088058346391
 21
270.4552860838298
 31
0.0
  0
ARC
  5
213
330
2
100
AcDbEntity
  8
0
  6
CONTINUOUS
100
AcDbCircle
 10
173.2871798346377
 20
270.4552860838298
 30
0.0
 40
3.2
100
AcDbArc
 50
270.0
 51
90.0
  0
ARC
  5
214
330
2
100
AcDbEntity
  8
0
  6
CONTINUOUS
100
AcDbCircle
 10
170.2871798346377
 20
270.4552860838298
 30
0.0
 40
3.2
100
AcDbArc
 50
90.0
 51
270.0
  0
LINE
  5
215
330
2
100
AcDbEntity
  8
0
  6
CONTINUOUS
100
AcDbLine
 10
169.9871798346375
 20
267.255286083829
 30
0.0
 11
173.5871798346379
 21
267.255286083829
 31
0.0
  0
LINE
  5
216
330
2
100
AcDbEntity
  8
0
  6
CONTINUOUS
100
AcDbLine
 10
169.9871798346375
 20
273.6552860838296
 30
0.0
 11
173.5871798346379
 21
273.6552860838296
 31
0.0
  0
LINE
  5
217
330
2
100
AcDbEntity
  8
0
  6
CONTINUOUS
100
AcDbLine
 10
170.7871798346395
 20
278.4552860838298
 30
0.0
 11
142.7871798346377
 21
278.4552860838298
 31
0.0
  0
LINE
  5
218
330
2
100
AcDbEntity
  8
CEN
  6
CENTER
 48
0.5
100
AcDbLine
 10
171.7871798346377
 20
266.0243660838286
 30
0.0
 11
171.7871798346377
 21
274.7717450838299
 31
0.0
  0
ENDSEC
  0
SECTION
  2
OBJECTS
  0
DICTIONARY
  5
8
330
0
100
AcDbDictionary
  3
ACAD_GROUP
350
25
  3
ACAD_LAYOUT
350
C
  3
ACAD_MLINESTYLE
350
26
  3
ACAD_PLOTSETTINGS
350
27
  3
ACAD_PLOTSTYLENAME
350
7
  3
ACDBHEADERROUNDTRIPXREC
350
36F
  3
ACDBVARIABLEDICTIONARY
350
219
  0
DICTIONARY
  5
13
330
12
100
AcDbDictionary
280
     1
  3
ACAD_LAYERFILTERS
360
14
  3
ACAD_LAYERSTATES
360
15
  0
DICTIONARY
  5
3
330
2
100
AcDbDictionary
280
     1
  3
ACAD_LAYOUTSELFREF
360
390
  0
DICTIONARY
  5
E
330
D
100
AcDbDictionary
280
     1
  3
ACAD_LAYOUTSELFREF
360
391
  0
DICTIONARY
  5
2A
330
29
100
AcDbDictionary
280
     1
  3
ACAD_DIMASSOC
360
2B
  0
DICTIONARY
  5
49
330
48
100
AcDbDictionary
280
     1
  3
ACAD_DIMASSOC
360
4A
  0
DICTIONARY
  5
5D
330
5C
100
AcDbDictionary
280
     1
  3
ACAD_DIMASSOC
360
5E
  0
DICTIONARY
  5
8E
330
8D
100
AcDbDictionary
280
     1
  3
ACAD_DIMASSOC
360
8F
  0
DICTIONARY
  5
AE
330
AD
100
AcDbDictionary
280
     1
  3
ACAD_DIMASSOC
360
AF
  0
DICTIONARY
  5
BD
330
BC
100
AcDbDictionary
280
     1
  3
ACAD_DIMASSOC
360
BE
  0
DICTIONARY
  5
CB
330
CA
100
AcDbDictionary
280
     1
  3
ACAD_DIMASSOC
360
CC
  0
DICTIONARY
  5
E4
330
E3
100
AcDbDictionary
280
     1
  3
ACAD_DIMASSOC
360
E5
  0
DICTIONARY
  5
149
330
148
100
AcDbDictionary
280
     1
  3
ACAD_DIMASSOC
360
14A
  0
DICTIONARY
  5
163
330
162
100
AcDbDictionary
280
     1
  3
ACAD_DIMASSOC
360
164
  0
DICTIONARY
  5
17C
330
17B
100
AcDbDictionary
280
     1
  3
ACAD_DIMASSOC
360
17D
  0
DICTIONARY
  5
18D
330
18C
100
AcDbDictionary
280
     1
  3
ACAD_DIMASSOC
360
18E
  0
DICTIONARY
  5
1AE
330
1AD
100
AcDbDictionary
280
     1
  3
ACAD_DIMASSOC
360
1AF
  0
DICTIONARY
  5
1BF
330
1BE
100
AcDbDictionary
280
     1
  3
ACAD_DIMASSOC
360
1C0
  0
DICTIONARY
  5
1CE
330
1CD
100
AcDbDictionary
280
     1
  3
ACAD_DIMASSOC
360
1CF
  0
DICTIONARY
  5
1DE
330
1DD
100
AcDbDictionary
280
     1
  3
ACAD_DIMASSOC
360
1DF
  0
DICTIONARY
  5
1F8
330
1F7
100
AcDbDictionary
280
     1
  3
ACAD_DIMASSOC
360
1F9
  0
DICTIONARY
  5
206
330
205
100
AcDbDictionary
280
     1
  3
ACAD_DIMASSOC
360
207
  0
DICTIONARY
  5
25
102
{ACAD_REACTORS
330
8
102
}
330
8
100
AcDbDictionary
  0
DICTIONARY
  5
C
102
{ACAD_REACTORS
330
8
102
}
330
8
100
AcDbDictionary
  0
DICTIONARY
  5
26
102
{ACAD_REACTORS
330
8
102
}
330
8
100
AcDbDictionary
  3
STANDARD
350
28
  0
DICTIONARY
  5
27
102
{ACAD_REACTORS
330
8
102
}
330
8
100
AcDbDictionary
  0
ACDBDICTIONARYWDFLT
  5
7
102
{ACAD_REACTORS
330
8
102
}
330
8
100
AcDbDictionary
281
     1
  3
Normal
350
6
100
AcDbDictionaryWithDefault
340
6
  0
DICTIONARY
  5
36F
102
{ACAD_REACTORS
330
8
102
}
330
8
100
AcDbDictionary
  3
CEPSNTYPE
350
379
  3
DIMSTYLEDATA
350
37D
  3
FINGERPRINTGUID
350
37A
  3
HYPERLINKBASE
350
372
  3
INSUNITS
350
378
  3
LAYOUTDICT
350
374
  3
LWETCUNION
350
377
  3
PLOTSETDICT
350
375
  3
PLOTSTYLNAMDICT
350
376
  3
PSVPSCALE
350
37C
  3
PUCSBASE
350
380
  3
PUCSORGBACK
350
386
  3
PUCSORGBOTTOM
350
382
  3
PUCSORGFRONT
350
385
  3
PUCSORGLEFT
350
383
  3
PUCSORGRIGHT
350
384
  3
PUCSORGTOP
350
381
  3
PUCSORTHOREF
350
37E
  3
PUCSORTHOVIEW
350
37F
  3
STYLESHEET
350
373
  3
TSTACKALIGN
350
370
  3
TSTACKSIZE
350
371
  3
UCSBASE
350
389
  3
UCSORGBACK
350
38F
  3
UCSORGBOTTOM
350
38B
  3
UCSORGFRONT
350
38E
  3
UCSORGLEFT
350
38C
  3
UCSORGRIGHT
350
38D
  3
UCSORGTOP
350
38A
  3
UCSORTHOREF
350
387
  3
UCSORTHOVIEW
350
388
  3
VERSIONGUID
350
37B
  0
DICTIONARY
  5
219
102
{ACAD_REACTORS
330
8
102
}
330
8
100
AcDbDictionary
  3
DIMASSOC
350
21B
  3
HIDETEXT
350
21A
  0
DICTIONARY
  5
14
102
{ACAD_REACTORS
330
13
102
}
330
13
100
AcDbDictionary
280
     1
  0
DICTIONARY
  5
15
102
{ACAD_REACTORS
330
13
102
}
330
13
100
AcDbDictionary
  0
XRECORD
  5
390
102
{ACAD_REACTORS
330
3
102
}
330
3
100
AcDbXrecord
340
2
  0
XRECORD
  5
391
102
{ACAD_REACTORS
330
E
102
}
330
E
100
AcDbXrecord
340
D
  0
DIMASSOC
  5
2B
102
{ACAD_REACTORS
330
2A
102
}
330
2A
100
AcDbDimAssoc
330
29
 90
        3
 70
     0
 71
     0
  1
AcDbOsnapPointRef
 72
    13
331
173
 73
     2
 91
        0
 40
0.0
 10
271.781331843018
 20
35.0959589347849
 30
0.0
 75
     0
  1
AcDbOsnapPointRef
 72
    13
331
1A0
 73
     2
 91
        0
 40
0.0
 10
336.7813318430171
 20
28.09595893478399
 30
0.0
 75
     0
  0
DIMASSOC
  5
4A
102
{ACAD_REACTORS
330
49
102
}
330
49
100
AcDbDimAssoc
330
48
 90
        3
 70
     0
 71
     0
  1
AcDbOsnapPointRef
 72
    13
331
104
 73
     2
 91
        0
 40
0.0
 10
34.78717983463957
 20
28.16611893478466
 30
0.0
 75
     0
  1
AcDbOsnapPointRef
 72
    13
331
121
 73
     2
 91
        0
 40
0.0
 10
180.7871798346377
 20
28.16611893478466
 30
0.0
 75
     0
  0
DIMASSOC
  5
5E
102
{ACAD_REACTORS
330
5D
102
}
330
5D
100
AcDbDimAssoc
330
5C
 90
        3
 70
     0
 71
     0
  1
AcDbOsnapPointRef
 72
     1
331
13A
 73
     2
 91
        0
 40
1.0
 10
90.78717983463775
 20
235.4552860838289
 30
0.0
 75
     0
  1
AcDbOsnapPointRef
 72
     1
331
1F2
 73
     2
 91
        0
 40
1.570796326794896
 10
72.78717983463775
 20
278.4552860838289
 30
0.0
 75
     0
  0
DIMASSOC
  5
8F
102
{ACAD_REACTORS
330
8E
102
}
330
8E
100
AcDbDimAssoc
330
8D
 90
        3
 70
     0
 71
     0
  1
AcDbOsnapPointRef
 72
     1
331
17A
 73
     2
 91
        0
 40
1.0
 10
277.781331843018
 20
134.5959589347839
 30
0.0
 75
     0
  1
AcDbOsnapPointRef
 72
    13
331
17A
 73
     2
 91
        0
 40
0.0
 10
277.781331843018
 20
51.595958934784
 30
0.0
 75
     0
  0
DIMASSOC
  5
AF
102
{ACAD_REACTORS
330
AE
102
}
330
AE
100
AcDbDimAssoc
330
AD
 90
        1
 70
     0
 71
     0
  1
AcDbOsnapPointRef
 72
    13
331
10F
 73
     2
 91
        0
 40
0.0
 10
51.78717983463775
 20
101.1661189347846
 30
0.0
 75
     0
  0
DIMASSOC
  5
BE
102
{ACAD_REACTORS
330
BD
102
}
330
BD
100
AcDbDimAssoc
330
BC
 90
        2
 70
     0
 71
     0
  1
AcDbOsnapPointRef
 72
     3
331
136
 73
     2
 91
        0
 40
0.0
 10
107.7871798346377
 20
93.16611893478466
 30
0.0
 75
     0
  0
DIMASSOC
  5
CC
102
{ACAD_REACTORS
330
CB
102
}
330
CB
100
AcDbDimAssoc
330
CA
 90
        2
 70
     0
 71
     0
  1
AcDbOsnapPointRef
 72
    13
331
131
 73
     2
 91
        0
 40
0.0
 10
179.7871798346377
 20
27.16611893478466
 30
0.0
 75
     0
  0
DIMASSOC
  5
E5
102
{ACAD_REACTORS
330
E4
102
}
330
E4
100
AcDbDimAssoc
330
E3
 90
        2
 70
     0
 71
     0
  1
AcDbOsnapPointRef
 72
     1
331
F2
 73
     2
 91
        0
 40
1.0
 10
51.78717983463775
 20
101.1661189347846
 30
0.0
 75
     0
  0
DIMASSOC
  5
14A
102
{ACAD_REACTORS
330
149
102
}
330
149
100
AcDbDimAssoc
330
148
 90
        1
 70
     0
 71
     0
  1
AcDbOsnapPointRef
 72
    13
331
158
 73
     2
 91
        0
 40
0.0
 10
163.7871798346377
 20
213.4552860838289
 30
0.0
 75
     0
  0
DIMASSOC
  5
164
102
{ACAD_REACTORS
330
163
102
}
330
163
100
AcDbDimAssoc
330
162
 90
        3
 70
     0
 71
     0
  1
AcDbOsnapPointRef
 72
     1
331
17A
 73
     2
 91
        0
 40
1.0
 10
277.781331843018
 20
134.5959589347839
 30
0.0
 75
     0
  1
AcDbOsnapPointRef
 72
     1
331
174
 73
     2
 91
        0
 40
1.0
 10
280.781331843018
 20
138.595958934784
 30
0.0
 75
     0
  0
DIMASSOC
  5
17D
102
{ACAD_REACTORS
330
17C
102
}
330
17C
100
AcDbDimAssoc
330
17B
 90
        3
 70
     0
 71
     0
  1
AcDbOsnapPointRef
 72
     1
331
1A5
 73
     2
 91
        0
 40
1.0
 10
271.781331843018
 20
133.0959589347839
 30
0.0
 75
     0
  1
AcDbOsnapPointRef
 72
     1
331
19F
 73
     2
 91
        0
 40
1.0
 10
271.781331843018
 20
53.09595893478399
 30
0.0
 75
     0
  0
DIMASSOC
  5
18E
102
{ACAD_REACTORS
330
18D
102
}
330
18D
100
AcDbDimAssoc
330
18C
 90
        3
 70
     0
 71
     0
  1
AcDbOsnapPointRef
 72
     1
331
176
 73
     2
 91
        0
 40
0.9999999999999998
 10
306.781331843018
 20
36.09595893478399
 30
0.0
 75
     0
  1
AcDbOsnapPointRef
 72
     2
331
1A0
 73
     2
 91
        0
 40
0.5
 10
336.7813318430171
 20
31.59595893478444
 30
0.0
 75
     0
  0
DIMASSOC
  5
1AF
102
{ACAD_REACTORS
330
1AE
102
}
330
1AE
100
AcDbDimAssoc
330
1AD
 90
        3
 70
     0
 71
     0
  1
AcDbOsnapPointRef
 72
     1
331
173
 73
     2
 91
        0
 40
1.0
 10
271.781331843018
 20
138.595958934784
 30
0.0
 75
     0
  1
AcDbOsnapPointRef
 72
     1
331
174
 73
     2
 91
        0
 40
1.0
 10
280.781331843018
 20
138.595958934784
 30
0.0
 75
     0
  0
DIMASSOC
  5
1C0
102
{ACAD_REACTORS
330
1BF
102
}
330
1BF
100
AcDbDimAssoc
330
1BE
 90
        3
 70
     0
 71
     0
  1
AcDbOsnapPointRef
 72
    13
331
1F2
 73
     2
 91
        0
 40
0.0
 10
82.78717983463776
 20
268.4552860838289
 30
0.0
 75
     0
  1
AcDbOsnapPointRef
 72
     6
331
7D
 73
     2
 91
        0
 40
1.0
 10
132.7871798346377
 20
268.4552860838298
 30
0.0
332
211
 74
     2
 92
        0
 75
     0
  0
DIMASSOC
  5
1CF
102
{ACAD_REACTORS
330
1CE
102
}
330
1CE
100
AcDbDimAssoc
330
1CD
 90
        1
 70
     0
 71
     0
  1
AcDbOsnapPointRef
 72
     1
331
1F3
 73
     2
 91
        0
 40
1.0
 10
43.78717983463775
 20
274.7717450838299
 30
0.0
 75
     0
  0
DIMASSOC
  5
1DF
102
{ACAD_REACTORS
330
1DE
102
}
330
1DE
100
AcDbDimAssoc
330
1DD
 90
        3
 70
     0
 71
     0
  1
AcDbOsnapPointRef
 72
     2
331
1F1
 73
     2
 91
        0
 40
3.141592653589792
 10
39.08717983463775
 20
270.4552860838298
 30
0.0
 75
     0
  1
AcDbOsnapPointRef
 72
     2
331
1F5
 73
     2
 91
        0
 40
6.283185307179585
 10
48.48717983463775
 20
270.4552860838298
 30
0.0
 75
     0
  0
DIMASSOC
  5
1F9
102
{ACAD_REACTORS
330
1F8
102
}
330
1F8
100
AcDbDimAssoc
330
1F7
 90
        2
 70
     0
 71
     0
  1
AcDbOsnapPointRef
 72
     3
331
203
 73
     2
 91
        0
 40
0.0
 10
170.7871798346395
 20
268.4552860838289
 30
0.0
 75
     0
  0
DIMASSOC
  5
207
102
{ACAD_REACTORS
330
206
102
}
330
206
100
AcDbDimAssoc
330
205
 90
        2
 70
     0
 71
     0
  1
AcDbOsnapPointRef
 72
     3
331
211
 73
     2
 91
        0
 40
0.0
 10
142.7871798346377
 20
268.4552860838298
 30
0.0
 75
     0
  0
MLINESTYLE
  5
28
102
{ACAD_REACTORS
330
26
102
}
330
26
100
AcDbMlineStyle
  2
STANDARD
 70
     0
  3

 62
   256
 51
90.0
 52
90.0
 71
     2
 49
0.5
 62
   256
  6
BYLAYER
 49
-0.5
 62
   256
  6
BYLAYER
  0
ACDBPLACEHOLDER
  5
6
102
{ACAD_REACTORS
330
7
102
}
330
7
100
AcDbPlaceHolder
280
     0
  0
XRECORD
  5
379
102
{ACAD_REACTORS
330
36F
102
}
330
36F
100
AcDbXrecord
 90
        0
  0
XRECORD
  5
37D
102
{ACAD_REACTORS
330
36F
102
}
330
36F
100
AcDbXrecord
1000
DSTYLE
1002
{
1070
    79
 70
     2
1070
   179
 70
     1
1070
   289
 70
     0
1002
}
  0
XRECORD
  5
37A
102
{ACAD_REACTORS
330
36F
102
}
330
36F
100
AcDbXrecord
  1
{FDEAD578-A652-11D2-9A35-0060089B3A3F}
  0
XRECORD
  5
372
102
{ACAD_REACTORS
330
36F
102
}
330
36F
100
AcDbXrecord
  1

  0
XRECORD
  5
378
102
{ACAD_REACTORS
330
36F
102
}
330
36F
100
AcDbXrecord
 90
        4
  0
XRECORD
  5
374
102
{ACAD_REACTORS
330
36F
102
}
330
36F
100
AcDbXrecord
340
C
  0
XRECORD
  5
377
102
{ACAD_REACTORS
330
36F
102
}
330
36F
100
AcDbXrecord
 90
    10781
  0
XRECORD
  5
375
102
{ACAD_REACTORS
330
36F
102
}
330
36F
100
AcDbXrecord
340
27
  0
XRECORD
  5
376
102
{ACAD_REACTORS
330
36F
102
}
330
36F
100
AcDbXrecord
340
7
  0
XRECORD
  5
37C
102
{ACAD_REACTORS
330
36F
102
}
330
36F
100
AcDbXrecord
 40
0.0
  0
XRECORD
  5
380
102
{ACAD_REACTORS
330
36F
102
}
330
36F
100
AcDbXrecord
340
0
  0
XRECORD
  5
386
102
{ACAD_REACTORS
330
36F
102
}
330
36F
100
AcDbXrecord
 10
0.0
 20
0.0
 30
0.0
  0
XRECORD
  5
382
102
{ACAD_REACTORS
330
36F
102
}
330
36F
100
AcDbXrecord
 10
0.0
 20
0.0
 30
0.0
  0
XRECORD
  5
385
102
{ACAD_REACTORS
330
36F
102
}
330
36F
100
AcDbXrecord
 10
0.0
 20
0.0
 30
0.0
  0
XRECORD
  5
383
102
{ACAD_REACTORS
330
36F
102
}
330
36F
100
AcDbXrecord
 10
0.0
 20
0.0
 30
0.0
  0
XRECORD
  5
384
102
{ACAD_REACTORS
330
36F
102
}
330
36F
100
AcDbXrecord
 10
0.0
 20
0.0
 30
0.0
  0
XRECORD
  5
381
102
{ACAD_REACTORS
330
36F
102
}
330
36F
100
AcDbXrecord
 10
0.0
 20
0.0
 30
0.0
  0
XRECORD
  5
37E
102
{ACAD_REACTORS
330
36F
102
}
330
36F
100
AcDbXrecord
340
0
  0
XRECORD
  5
37F
102
{ACAD_REACTORS
330
36F
102
}
330
36F
100
AcDbXrecord
 70
     0
  0
XRECORD
  5
373
102
{ACAD_REACTORS
330
36F
102
}
330
36F
100
AcDbXrecord
  1

  0
XRECORD
  5
370
102
{ACAD_REACTORS
330
36F
102
}
330
36F
100
AcDbXrecord
 90
        1
  0
XRECORD
  5
371
102
{ACAD_REACTORS
330
36F
102
}
330
36F
100
AcDbXrecord
 90
       70
  0
XRECORD
  5
389
102
{ACAD_REACTORS
330
36F
102
}
330
36F
100
AcDbXrecord
340
0
  0
XRECORD
  5
38F
102
{ACAD_REACTORS
330
36F
102
}
330
36F
100
AcDbXrecord
 10
0.0
 20
0.0
 30
0.0
  0
XRECORD
  5
38B
102
{ACAD_REACTORS
330
36F
102
}
330
36F
100
AcDbXrecord
 10
0.0
 20
0.0
 30
0.0
  0
XRECORD
  5
38E
102
{ACAD_REACTORS
330
36F
102
}
330
36F
100
AcDbXrecord
 10
0.0
 20
0.0
 30
0.0
  0
XRECORD
  5
38C
102
{ACAD_REACTORS
330
36F
102
}
330
36F
100
AcDbXrecord
 10
0.0
 20
0.0
 30
0.0
  0
XRECORD
  5
38D
102
{ACAD_REACTORS
330
36F
102
}
330
36F
100
AcDbXrecord
 10
0.0
 20
0.0
 30
0.0
  0
XRECORD
  5
38A
102
{ACAD_REACTORS
330
36F
102
}
330
36F
100
AcDbXrecord
 10
0.0
 20
0.0
 30
0.0
  0
XRECORD
  5
387
102
{ACAD_REACTORS
330
36F
102
}
330
36F
100
AcDbXrecord
340
0
  0
XRECORD
  5
388
102
{ACAD_REACTORS
330
36F
102
}
330
36F
100
AcDbXrecord
 70
     0
  0
XRECORD
  5
37B
102
{ACAD_REACTORS
330
36F
102
}
330
36F
100
AcDbXrecord
  1
{46A26F03-3B88-4B1D-A944-7A96188D515B}
  0
DICTIONARYVAR
  5
21B
102
{ACAD_REACTORS
330
219
102
}
330
219
100
DictionaryVariables
280
     0
  1
2
  0
DICTIONARYVAR
  5
21A
102
{ACAD_REACTORS
330
219
102
}
330
219
100
DictionaryVariables
280
     0
  1
1
  0
ENDSEC
  0
EOF
