  0
SECTION
  2
HEADER
  9
$ACADVER
  1
AC1014
  9
$ACADMAINTVER
 70
     9
  9
$DWGCODEPAGE
  3
ANSI_949
  9
$INSBASE
 10
0.0
 20
0.0
 30
0.0
  9
$EXTMIN
 10
-13.24258164862476
 20
4.402219398434681
 30
-0.0000000000000058
  9
$EXTMAX
 10
321.6029004157971
 20
299.8640233451297
 30
0.0000000000000104
  9
$LIMMIN
 10
0.0
 20
0.0
  9
$LIMMAX
 10
100.0
 20
50.0
  9
$ORTHOMODE
 70
     1
  9
$REGENMODE
 70
     1
  9
$FILLMODE
 70
     1
  9
$QTEXTMODE
 70
     0
  9
$MIRRTEXT
 70
     0
  9
$DRAGMODE
 70
     2
  9
$LTSCALE
 40
0.5
  9
$OSMODE
 70
   567
  9
$ATTMODE
 70
     1
  9
$TEXTSIZE
 40
5.777225951253058
  9
$TRACEWID
 40
1.0
  9
$TEXTSTYLE
  7
STANDARD
  9
$CLAYER
  8
0
  9
$CELTYPE
  6
BYLAYER
  9
$CECOLOR
 62
   256
  9
$CELTSCALE
 40
1.0
  9
$DELOBJ
 70
     1
  9
$DISPSILH
 70
     0
  9
$DIMSCALE
 40
1.0
  9
$DIMASZ
 40
3.5
  9
$DIMEXO
 40
1.0
  9
$DIMDLI
 40
10.0
  9
$DIMRND
 40
0.0
  9
$DIMDLE
 40
0.0
  9
$DIMEXE
 40
0.6
  9
$DIMTP
 40
0.0
  9
$DIMTM
 40
0.0
  9
$DIMTXT
 40
3.0
  9
$DIMCEN
 40
0.09
  9
$DIMTSZ
 40
0.0
  9
$DIMTOL
 70
     0
  9
$DIMLIM
 70
     0
  9
$DIMTIH
 70
     0
  9
$DIMTOH
 70
     0
  9
$DIMSE1
 70
     0
  9
$DIMSE2
 70
     0
  9
$DIMTAD
 70
     1
  9
$DIMZIN
 70
     8
  9
$DIMBLK
  1

  9
$DIMASO
 70
     1
  9
$DIMSHO
 70
     1
  9
$DIMPOST
  1

  9
$DIMAPOST
  1

  9
$DIMALT
 70
     0
  9
$DIMALTD
 70
     2
  9
$DIMALTF
 40
25.4
  9
$DIMLFAC
 40
1.0
  9
$DIMTOFL
 70
     1
  9
$DIMTVP
 40
0.0
  9
$DIMTIX
 70
     1
  9
$DIMSOXD
 70
     0
  9
$DIMSAH
 70
     0
  9
$DIMBLK1
  1

  9
$DIMBLK2
  1

  9
$DIMSTYLE
  2
STANDARD
  9
$DIMCLRD
 70
   123
  9
$DIMCLRE
 70
   123
  9
$DIMCLRT
 70
     3
  9
$DIMTFAC
 40
1.0
  9
$DIMGAP
 40
1.0
  9
$DIMJUST
 70
     0
  9
$DIMSD1
 70
     0
  9
$DIMSD2
 70
     0
  9
$DIMTOLJ
 70
     1
  9
$DIMTZIN
 70
     0
  9
$DIMALTZ
 70
     0
  9
$DIMALTTZ
 70
     0
  9
$DIMFIT
 70
     0
  9
$DIMUPT
 70
     1
  9
$DIMUNIT
 70
     2
  9
$DIMDEC
 70
     2
  9
$DIMTDEC
 70
     2
  9
$DIMALTU
 70
     2
  9
$DIMALTTD
 70
     2
  9
$DIMTXSTY
  7
STANDARD
  9
$DIMAUNIT
 70
     1
  9
$LUNITS
 70
     2
  9
$LUPREC
 70
     4
  9
$SKETCHINC
 40
1.0
  9
$FILLETRAD
 40
6.0
  9
$AUNITS
 70
     0
  9
$AUPREC
 70
     0
  9
$MENU
  1
.
  9
$ELEVATION
 40
0.0
  9
$PELEVATION
 40
0.0
  9
$THICKNESS
 40
0.0
  9
$LIMCHECK
 70
     0
  9
$BLIPMODE
 70
     1
  9
$CHAMFERA
 40
1.0
  9
$CHAMFERB
 40
1.0
  9
$CHAMFERC
 40
20.0
  9
$CHAMFERD
 40
0.0
  9
$SKPOLY
 70
     0
  9
$TDCREATE
 40
2452839.586179271
  9
$TDUPDATE
 40
2453377.778570219
  9
$TDINDWG
 40
9.8475491551
  9
$TDUSRTIMER
 40
9.8475491551
  9
$USRTIMER
 70
     1
  9
$ANGBASE
 50
0.0
  9
$ANGDIR
 70
     0
  9
$PDMODE
 70
     0
  9
$PDSIZE
 40
0.0
  9
$PLINEWID
 40
0.0
  9
$COORDS
 70
     2
  9
$SPLFRAME
 70
     0
  9
$SPLINETYPE
 70
     6
  9
$SPLINESEGS
 70
   800
  9
$ATTDIA
 70
     0
  9
$ATTREQ
 70
     1
  9
$HANDLING
 70
 22529
  9
$HANDSEED
  5
35F
  9
$SURFTAB1
 70
     6
  9
$SURFTAB2
 70
     6
  9
$SURFTYPE
 70
     6
  9
$SURFU
 70
     6
  9
$SURFV
 70
     6
  9
$UCSNAME
  2

  9
$UCSORG
 10
0.0
 20
0.0
 30
0.0
  9
$UCSXDIR
 10
1.0
 20
0.0
 30
0.0
  9
$UCSYDIR
 10
0.0
 20
1.0
 30
0.0
  9
$PUCSNAME
  2

  9
$PUCSORG
 10
0.0
 20
0.0
 30
0.0
  9
$PUCSXDIR
 10
1.0
 20
0.0
 30
0.0
  9
$PUCSYDIR
 10
0.0
 20
1.0
 30
0.0
  9
$USERI1
 70
     0
  9
$USERI2
 70
     0
  9
$USERI3
 70
     0
  9
$USERI4
 70
     0
  9
$USERI5
 70
     0
  9
$USERR1
 40
0.0
  9
$USERR2
 40
0.0
  9
$USERR3
 40
0.0
  9
$USERR4
 40
0.0
  9
$USERR5
 40
0.0
  9
$WORLDVIEW
 70
     1
  9
$SHADEDGE
 70
     3
  9
$SHADEDIF
 70
    70
  9
$TILEMODE
 70
     1
  9
$MAXACTVP
 70
    48
  9
$PINSBASE
 10
0.0
 20
0.0
 30
0.0
  9
$PLIMCHECK
 70
     0
  9
$PEXTMIN
 10
0.0
 20
0.0
 30
0.0
  9
$PEXTMAX
 10
0.0
 20
0.0
 30
0.0
  9
$PLIMMIN
 10
0.0
 20
0.0
  9
$PLIMMAX
 10
12.0
 20
9.0
  9
$UNITMODE
 70
     0
  9
$VISRETAIN
 70
     1
  9
$PLINEGEN
 70
     0
  9
$PSLTSCALE
 70
     1
  9
$TREEDEPTH
 70
  3020
  9
$PICKSTYLE
 70
     0
  9
$CMLSTYLE
  2
STANDARD
  9
$CMLJUST
 70
     0
  9
$CMLSCALE
 40
20.0
  9
$PROXYGRAPHICS
 70
     1
  9
$MEASUREMENT
 70
     1
  0
ENDSEC
  0
SECTION
  2
CLASSES
  0
CLASS
  1
ACDBDICTIONARYWDFLT
  2
AcDbDictionaryWithDefault
  3
AutoCAD 2000
 90
        0
280
     0
281
     0
  0
CLASS
  1
ACDBPLACEHOLDER
  2
AcDbPlaceHolder
  3
AutoCAD 2000
 90
        0
280
     0
281
     0
  0
CLASS
  1
LAYOUT
  2
AcDbLayout
  3
AutoCAD 2000
 90
        0
280
     0
281
     0
  0
CLASS
  1
DICTIONARYVAR
  2
AcDbDictionaryVar
  3
AutoCAD 2000
 90
        0
280
     0
281
     0
  0
CLASS
  1
DIMASSOC
  2
AcDbDimAssoc
  3
"AcDbDimAssoc|Product Desc:     AcDim ARX App For Dimension|Company:          Autodesk, Inc.|WEB Address:      www.autodesk.com"
 90
        0
280
     0
281
     0
  0
CLASS
  1
LONG_TRANSACTION
  2
AcDbLongTransaction
  3
AutoCAD 2000
 90
        0
280
     0
281
     0
  0
CLASS
  1
LWPOLYLINE
  2
AcDbPolyline
  3
AutoCAD 2000
 90
        0
280
     0
281
     1
  0
CLASS
  1
HATCH
  2
AcDbHatch
  3
AutoCAD 2000
 90
        0
280
     0
281
     1
  0
CLASS
  1
XRECORD
  2
AcDbXrecord
  3
AutoCAD 2000
 90
        0
280
     0
281
     0
  0
CLASS
  1
LONG_TRANSACTION
  2
AcDbLongTransaction
  3
AutoCAD 2000
 90
        0
280
     0
281
     0
  0
CLASS
  1
LWPOLYLINE
  2
AcDbPolyline
  3
AutoCAD 2000
 90
        0
280
     0
281
     1
  0
CLASS
  1
HATCH
  2
AcDbHatch
  3
AutoCAD 2000
 90
        0
280
     0
281
     1
  0
CLASS
  1
XRECORD
  2
AcDbXrecord
  3
AutoCAD 2000
 90
        0
280
     0
281
     0
  0
CLASS
  1
LONG_TRANSACTION
  2
AcDbLongTransaction
  3
AutoCAD 2000
 90
        0
280
     0
281
     0
  0
CLASS
  1
LWPOLYLINE
  2
AcDbPolyline
  3
AutoCAD 2000
 90
        0
280
     0
281
     1
  0
CLASS
  1
HATCH
  2
AcDbHatch
  3
AutoCAD 2000
 90
        0
280
     0
281
     1
  0
CLASS
  1
XRECORD
  2
AcDbXrecord
  3
AutoCAD 2000
 90
        0
280
     0
281
     0
  0
CLASS
  1
LONG_TRANSACTION
  2
AcDbLongTransaction
  3
AutoCAD 2000
 90
        0
280
     0
281
     0
  0
CLASS
  1
LWPOLYLINE
  2
AcDbPolyline
  3
AutoCAD 2000
 90
        0
280
     0
281
     1
  0
CLASS
  1
HATCH
  2
AcDbHatch
  3
AutoCAD 2000
 90
        0
280
     0
281
     1
  0
CLASS
  1
XRECORD
  2
AcDbXrecord
  3
AutoCAD 2000
 90
        0
280
     0
281
     0
  0
CLASS
  1
LONG_TRANSACTION
  2
AcDbLongTransaction
  3
AutoCAD 2000
 90
        0
280
     0
281
     0
  0
CLASS
  1
LWPOLYLINE
  2
AcDbPolyline
  3
AutoCAD 2000
 90
        0
280
     0
281
     1
  0
CLASS
  1
HATCH
  2
AcDbHatch
  3
AutoCAD 2000
 90
        0
280
     0
281
     1
  0
CLASS
  1
XRECORD
  2
AcDbXrecord
  3
AutoCAD 2000
 90
        0
280
     0
281
     0
  0
CLASS
  1
LONG_TRANSACTION
  2
AcDbLongTransaction
  3
AutoCAD 2000
 90
        0
280
     0
281
     0
  0
CLASS
  1
LWPOLYLINE
  2
AcDbPolyline
  3
AutoCAD 2000
 90
        0
280
     0
281
     1
  0
CLASS
  1
HATCH
  2
AcDbHatch
  3
AutoCAD 2000
 90
        0
280
     0
281
     1
  0
CLASS
  1
XRECORD
  2
AcDbXrecord
  3
AutoCAD 2000
 90
        0
280
     0
281
     0
  0
CLASS
  1
LONG_TRANSACTION
  2
AcDbLongTransaction
  3
AutoCAD 2000
 90
        0
280
     0
281
     0
  0
CLASS
  1
LWPOLYLINE
  2
AcDbPolyline
  3
AutoCAD 2000
 90
        0
280
     0
281
     1
  0
CLASS
  1
HATCH
  2
AcDbHatch
  3
AutoCAD 2000
 90
        0
280
     0
281
     1
  0
CLASS
  1
XRECORD
  2
AcDbXrecord
  3
AutoCAD 2000
 90
        0
280
     0
281
     0
  0
CLASS
  1
LONG_TRANSACTION
  2
AcDbLongTransaction
  3
AutoCAD 2000
 90
        0
280
     0
281
     0
  0
CLASS
  1
LWPOLYLINE
  2
AcDbPolyline
  3
AutoCAD 2000
 90
        0
280
     0
281
     1
  0
CLASS
  1
HATCH
  2
AcDbHatch
  3
AutoCAD 2000
 90
        0
280
     0
281
     1
  0
CLASS
  1
XRECORD
  2
AcDbXrecord
  3
AutoCAD 2000
 90
        0
280
     0
281
     0
  0
CLASS
  1
LONG_TRANSACTION
  2
AcDbLongTransaction
  3
AutoCAD 2000
 90
        0
280
     0
281
     0
  0
CLASS
  1
LWPOLYLINE
  2
AcDbPolyline
  3
AutoCAD 2000
 90
        0
280
     0
281
     1
  0
CLASS
  1
HATCH
  2
AcDbHatch
  3
AutoCAD 2000
 90
        0
280
     0
281
     1
  0
CLASS
  1
XRECORD
  2
AcDbXrecord
  3
AutoCAD 2000
 90
        0
280
     0
281
     0
  0
CLASS
  1
LONG_TRANSACTION
  2
AcDbLongTransaction
  3
AutoCAD 2000
 90
        0
280
     0
281
     0
  0
CLASS
  1
LWPOLYLINE
  2
AcDbPolyline
  3
AutoCAD 2000
 90
        0
280
     0
281
     1
  0
CLASS
  1
HATCH
  2
AcDbHatch
  3
AutoCAD 2000
 90
        0
280
     0
281
     1
  0
CLASS
  1
XRECORD
  2
AcDbXrecord
  3
AutoCAD 2000
 90
        0
280
     0
281
     0
  0
CLASS
  1
LONG_TRANSACTION
  2
AcDbLongTransaction
  3
AutoCAD 2000
 90
        0
280
     0
281
     0
  0
CLASS
  1
LWPOLYLINE
  2
AcDbPolyline
  3
AutoCAD 2000
 90
        0
280
     0
281
     1
  0
CLASS
  1
HATCH
  2
AcDbHatch
  3
AutoCAD 2000
 90
        0
280
     0
281
     1
  0
CLASS
  1
XRECORD
  2
AcDbXrecord
  3
AutoCAD 2000
 90
        0
280
     0
281
     0
  0
CLASS
  1
LONG_TRANSACTION
  2
AcDbLongTransaction
  3
AutoCAD 2000
 90
        0
280
     0
281
     0
  0
CLASS
  1
LWPOLYLINE
  2
AcDbPolyline
  3
AutoCAD 2000
 90
        0
280
     0
281
     1
  0
CLASS
  1
HATCH
  2
AcDbHatch
  3
AutoCAD 2000
 90
        0
280
     0
281
     1
  0
CLASS
  1
XRECORD
  2
AcDbXrecord
  3
AutoCAD 2000
 90
        0
280
     0
281
     0
  0
CLASS
  1
LONG_TRANSACTION
  2
AcDbLongTransaction
  3
AutoCAD 2000
 90
        0
280
     0
281
     0
  0
CLASS
  1
LWPOLYLINE
  2
AcDbPolyline
  3
AutoCAD 2000
 90
        0
280
     0
281
     1
  0
CLASS
  1
HATCH
  2
AcDbHatch
  3
AutoCAD 2000
 90
        0
280
     0
281
     1
  0
CLASS
  1
XRECORD
  2
AcDbXrecord
  3
AutoCAD 2000
 90
        0
280
     0
281
     0
  0
CLASS
  1
LONG_TRANSACTION
  2
AcDbLongTransaction
  3
AutoCAD 2000
 90
        0
280
     0
281
     0
  0
CLASS
  1
LWPOLYLINE
  2
AcDbPolyline
  3
AutoCAD 2000
 90
        0
280
     0
281
     1
  0
CLASS
  1
HATCH
  2
AcDbHatch
  3
AutoCAD 2000
 90
        0
280
     0
281
     1
  0
CLASS
  1
XRECORD
  2
AcDbXrecord
  3
AutoCAD 2000
 90
        0
280
     0
281
     0
  0
CLASS
  1
LONG_TRANSACTION
  2
AcDbLongTransaction
  3
AutoCAD 2000
 90
        0
280
     0
281
     0
  0
CLASS
  1
LWPOLYLINE
  2
AcDbPolyline
  3
AutoCAD 2000
 90
        0
280
     0
281
     1
  0
CLASS
  1
HATCH
  2
AcDbHatch
  3
AutoCAD 2000
 90
        0
280
     0
281
     1
  0
CLASS
  1
XRECORD
  2
AcDbXrecord
  3
AutoCAD 2000
 90
        0
280
     0
281
     0
  0
CLASS
  1
LONG_TRANSACTION
  2
AcDbLongTransaction
  3
AutoCAD 2000
 90
        0
280
     0
281
     0
  0
CLASS
  1
LWPOLYLINE
  2
AcDbPolyline
  3
AutoCAD 2000
 90
        0
280
     0
281
     1
  0
CLASS
  1
HATCH
  2
AcDbHatch
  3
AutoCAD 2000
 90
        0
280
     0
281
     1
  0
CLASS
  1
XRECORD
  2
AcDbXrecord
  3
AutoCAD 2000
 90
        0
280
     0
281
     0
  0
CLASS
  1
LONG_TRANSACTION
  2
AcDbLongTransaction
  3
AutoCAD 2000
 90
        0
280
     0
281
     0
  0
CLASS
  1
LWPOLYLINE
  2
AcDbPolyline
  3
AutoCAD 2000
 90
        0
280
     0
281
     1
  0
CLASS
  1
HATCH
  2
AcDbHatch
  3
AutoCAD 2000
 90
        0
280
     0
281
     1
  0
CLASS
  1
XRECORD
  2
AcDbXrecord
  3
AutoCAD 2000
 90
        0
280
     0
281
     0
  0
CLASS
  1
LONG_TRANSACTION
  2
AcDbLongTransaction
  3
AutoCAD 2000
 90
        0
280
     0
281
     0
  0
CLASS
  1
LWPOLYLINE
  2
AcDbPolyline
  3
AutoCAD 2000
 90
        0
280
     0
281
     1
  0
CLASS
  1
HATCH
  2
AcDbHatch
  3
AutoCAD 2000
 90
        0
280
     0
281
     1
  0
CLASS
  1
XRECORD
  2
AcDbXrecord
  3
AutoCAD 2000
 90
        0
280
     0
281
     0
  0
CLASS
  1
LONG_TRANSACTION
  2
AcDbLongTransaction
  3
AutoCAD 2000
 90
        0
280
     0
281
     0
  0
CLASS
  1
LWPOLYLINE
  2
AcDbPolyline
  3
AutoCAD 2000
 90
        0
280
     0
281
     1
  0
CLASS
  1
HATCH
  2
AcDbHatch
  3
AutoCAD 2000
 90
        0
280
     0
281
     1
  0
CLASS
  1
XRECORD
  2
AcDbXrecord
  3
AutoCAD 2000
 90
        0
280
     0
281
     0
  0
CLASS
  1
LONG_TRANSACTION
  2
AcDbLongTransaction
  3
AutoCAD 2000
 90
        0
280
     0
281
     0
  0
CLASS
  1
LWPOLYLINE
  2
AcDbPolyline
  3
AutoCAD 2000
 90
        0
280
     0
281
     1
  0
CLASS
  1
HATCH
  2
AcDbHatch
  3
AutoCAD 2000
 90
        0
280
     0
281
     1
  0
CLASS
  1
XRECORD
  2
AcDbXrecord
  3
AutoCAD 2000
 90
        0
280
     0
281
     0
  0
CLASS
  1
LONG_TRANSACTION
  2
AcDbLongTransaction
  3
AutoCAD 2000
 90
        0
280
     0
281
     0
  0
CLASS
  1
LWPOLYLINE
  2
AcDbPolyline
  3
AutoCAD 2000
 90
        0
280
     0
281
     1
  0
CLASS
  1
HATCH
  2
AcDbHatch
  3
AutoCAD 2000
 90
        0
280
     0
281
     1
  0
CLASS
  1
XRECORD
  2
AcDbXrecord
  3
AutoCAD 2000
 90
        0
280
     0
281
     0
  0
CLASS
  1
LONG_TRANSACTION
  2
AcDbLongTransaction
  3
AutoCAD 2000
 90
        0
280
     0
281
     0
  0
CLASS
  1
LWPOLYLINE
  2
AcDbPolyline
  3
AutoCAD 2000
 90
        0
280
     0
281
     1
  0
CLASS
  1
HATCH
  2
AcDbHatch
  3
AutoCAD 2000
 90
        0
280
     0
281
     1
  0
CLASS
  1
XRECORD
  2
AcDbXrecord
  3
AutoCAD 2000
 90
        0
280
     0
281
     0
  0
CLASS
  1
LONG_TRANSACTION
  2
AcDbLongTransaction
  3
AutoCAD 2000
 90
        0
280
     0
281
     0
  0
CLASS
  1
LWPOLYLINE
  2
AcDbPolyline
  3
AutoCAD 2000
 90
        0
280
     0
281
     1
  0
CLASS
  1
HATCH
  2
AcDbHatch
  3
AutoCAD 2000
 90
        0
280
     0
281
     1
  0
CLASS
  1
XRECORD
  2
AcDbXrecord
  3
AutoCAD 2000
 90
        0
280
     0
281
     0
  0
CLASS
  1
LONG_TRANSACTION
  2
AcDbLongTransaction
  3
AutoCAD 2000
 90
        0
280
     0
281
     0
  0
CLASS
  1
LWPOLYLINE
  2
AcDbPolyline
  3
AutoCAD 2000
 90
        0
280
     0
281
     1
  0
CLASS
  1
HATCH
  2
AcDbHatch
  3
AutoCAD 2000
 90
        0
280
     0
281
     1
  0
CLASS
  1
XRECORD
  2
AcDbXrecord
  3
AutoCAD 2000
 90
        0
280
     0
281
     0
  0
CLASS
  1
LONG_TRANSACTION
  2
AcDbLongTransaction
  3
AutoCAD 2000
 90
        0
280
     0
281
     0
  0
CLASS
  1
LWPOLYLINE
  2
AcDbPolyline
  3
AutoCAD 2000
 90
        0
280
     0
281
     1
  0
CLASS
  1
HATCH
  2
AcDbHatch
  3
AutoCAD 2000
 90
        0
280
     0
281
     1
  0
CLASS
  1
XRECORD
  2
AcDbXrecord
  3
AutoCAD 2000
 90
        0
280
     0
281
     0
  0
CLASS
  1
LONG_TRANSACTION
  2
AcDbLongTransaction
  3
AutoCAD 2000
 90
        0
280
     0
281
     0
  0
CLASS
  1
LWPOLYLINE
  2
AcDbPolyline
  3
AutoCAD 2000
 90
        0
280
     0
281
     1
  0
CLASS
  1
HATCH
  2
AcDbHatch
  3
AutoCAD 2000
 90
        0
280
     0
281
     1
  0
CLASS
  1
XRECORD
  2
AcDbXrecord
  3
AutoCAD 2000
 90
        0
280
     0
281
     0
  0
CLASS
  1
LONG_TRANSACTION
  2
AcDbLongTransaction
  3
AutoCAD 2000
 90
        0
280
     0
281
     0
  0
CLASS
  1
LWPOLYLINE
  2
AcDbPolyline
  3
AutoCAD 2000
 90
        0
280
     0
281
     1
  0
CLASS
  1
HATCH
  2
AcDbHatch
  3
AutoCAD 2000
 90
        0
280
     0
281
     1
  0
CLASS
  1
XRECORD
  2
AcDbXrecord
  3
AutoCAD 2000
 90
        0
280
     0
281
     0
  0
CLASS
  1
LONG_TRANSACTION
  2
AcDbLongTransaction
  3
AutoCAD 2000
 90
        0
280
     0
281
     0
  0
CLASS
  1
LWPOLYLINE
  2
AcDbPolyline
  3
AutoCAD 2000
 90
        0
280
     0
281
     1
  0
CLASS
  1
HATCH
  2
AcDbHatch
  3
AutoCAD 2000
 90
        0
280
     0
281
     1
  0
CLASS
  1
XRECORD
  2
AcDbXrecord
  3
AutoCAD 2000
 90
        0
280
     0
281
     0
  0
CLASS
  1
LONG_TRANSACTION
  2
AcDbLongTransaction
  3
AutoCAD 2000
 90
        0
280
     0
281
     0
  0
CLASS
  1
LWPOLYLINE
  2
AcDbPolyline
  3
AutoCAD 2000
 90
        0
280
     0
281
     1
  0
CLASS
  1
HATCH
  2
AcDbHatch
  3
AutoCAD 2000
 90
        0
280
     0
281
     1
  0
CLASS
  1
XRECORD
  2
AcDbXrecord
  3
AutoCAD 2000
 90
        0
280
     0
281
     0
  0
CLASS
  1
LONG_TRANSACTION
  2
AcDbLongTransaction
  3
AutoCAD 2000
 90
        0
280
     0
281
     0
  0
CLASS
  1
LWPOLYLINE
  2
AcDbPolyline
  3
AutoCAD 2000
 90
        0
280
     0
281
     1
  0
CLASS
  1
HATCH
  2
AcDbHatch
  3
AutoCAD 2000
 90
        0
280
     0
281
     1
  0
CLASS
  1
XRECORD
  2
AcDbXrecord
  3
AutoCAD 2000
 90
        0
280
     0
281
     0
  0
CLASS
  1
LONG_TRANSACTION
  2
AcDbLongTransaction
  3
AutoCAD 2000
 90
        0
280
     0
281
     0
  0
CLASS
  1
LWPOLYLINE
  2
AcDbPolyline
  3
AutoCAD 2000
 90
        0
280
     0
281
     1
  0
CLASS
  1
HATCH
  2
AcDbHatch
  3
AutoCAD 2000
 90
        0
280
     0
281
     1
  0
CLASS
  1
XRECORD
  2
AcDbXrecord
  3
AutoCAD 2000
 90
        0
280
     0
281
     0
  0
CLASS
  1
LONG_TRANSACTION
  2
AcDbLongTransaction
  3
AutoCAD 2000
 90
        0
280
     0
281
     0
  0
CLASS
  1
LWPOLYLINE
  2
AcDbPolyline
  3
AutoCAD 2000
 90
        0
280
     0
281
     1
  0
CLASS
  1
HATCH
  2
AcDbHatch
  3
AutoCAD 2000
 90
        0
280
     0
281
     1
  0
CLASS
  1
XRECORD
  2
AcDbXrecord
  3
AutoCAD 2000
 90
        0
280
     0
281
     0
  0
CLASS
  1
LONG_TRANSACTION
  2
AcDbLongTransaction
  3
AutoCAD 2000
 90
        0
280
     0
281
     0
  0
CLASS
  1
LWPOLYLINE
  2
AcDbPolyline
  3
AutoCAD 2000
 90
        0
280
     0
281
     1
  0
CLASS
  1
HATCH
  2
AcDbHatch
  3
AutoCAD 2000
 90
        0
280
     0
281
     1
  0
CLASS
  1
XRECORD
  2
AcDbXrecord
  3
AutoCAD 2000
 90
        0
280
     0
281
     0
  0
CLASS
  1
LONG_TRANSACTION
  2
AcDbLongTransaction
  3
AutoCAD 2000
 90
        0
280
     0
281
     0
  0
CLASS
  1
LWPOLYLINE
  2
AcDbPolyline
  3
AutoCAD 2000
 90
        0
280
     0
281
     1
  0
CLASS
  1
HATCH
  2
AcDbHatch
  3
AutoCAD 2000
 90
        0
280
     0
281
     1
  0
CLASS
  1
XRECORD
  2
AcDbXrecord
  3
AutoCAD 2000
 90
        0
280
     0
281
     0
  0
CLASS
  1
LONG_TRANSACTION
  2
AcDbLongTransaction
  3
AutoCAD 2000
 90
        0
280
     0
281
     0
  0
CLASS
  1
LWPOLYLINE
  2
AcDbPolyline
  3
AutoCAD 2000
 90
        0
280
     0
281
     1
  0
CLASS
  1
HATCH
  2
AcDbHatch
  3
AutoCAD 2000
 90
        0
280
     0
281
     1
  0
CLASS
  1
XRECORD
  2
AcDbXrecord
  3
AutoCAD 2000
 90
        0
280
     0
281
     0
  0
CLASS
  1
LONG_TRANSACTION
  2
AcDbLongTransaction
  3
AutoCAD 2000
 90
        0
280
     0
281
     0
  0
CLASS
  1
LWPOLYLINE
  2
AcDbPolyline
  3
AutoCAD 2000
 90
        0
280
     0
281
     1
  0
CLASS
  1
HATCH
  2
AcDbHatch
  3
AutoCAD 2000
 90
        0
280
     0
281
     1
  0
CLASS
  1
XRECORD
  2
AcDbXrecord
  3
AutoCAD 2000
 90
        0
280
     0
281
     0
  0
CLASS
  1
LONG_TRANSACTION
  2
AcDbLongTransaction
  3
AutoCAD 2000
 90
        0
280
     0
281
     0
  0
CLASS
  1
LWPOLYLINE
  2
AcDbPolyline
  3
AutoCAD 2000
 90
        0
280
     0
281
     1
  0
CLASS
  1
HATCH
  2
AcDbHatch
  3
AutoCAD 2000
 90
        0
280
     0
281
     1
  0
CLASS
  1
XRECORD
  2
AcDbXrecord
  3
AutoCAD 2000
 90
        0
280
     0
281
     0
  0
CLASS
  1
LONG_TRANSACTION
  2
AcDbLongTransaction
  3
AutoCAD 2000
 90
        0
280
     0
281
     0
  0
CLASS
  1
LWPOLYLINE
  2
AcDbPolyline
  3
AutoCAD 2000
 90
        0
280
     0
281
     1
  0
CLASS
  1
HATCH
  2
AcDbHatch
  3
AutoCAD 2000
 90
        0
280
     0
281
     1
  0
CLASS
  1
XRECORD
  2
AcDbXrecord
  3
AutoCAD 2000
 90
        0
280
     0
281
     0
  0
CLASS
  1
LONG_TRANSACTION
  2
AcDbLongTransaction
  3
AutoCAD 2000
 90
        0
280
     0
281
     0
  0
CLASS
  1
LWPOLYLINE
  2
AcDbPolyline
  3
AutoCAD 2000
 90
        0
280
     0
281
     1
  0
CLASS
  1
HATCH
  2
AcDbHatch
  3
AutoCAD 2000
 90
        0
280
     0
281
     1
  0
CLASS
  1
XRECORD
  2
AcDbXrecord
  3
AutoCAD 2000
 90
        0
280
     0
281
     0
  0
CLASS
  1
LONG_TRANSACTION
  2
AcDbLongTransaction
  3
AutoCAD 2000
 90
        0
280
     0
281
     0
  0
CLASS
  1
LWPOLYLINE
  2
AcDbPolyline
  3
AutoCAD 2000
 90
        0
280
     0
281
     1
  0
CLASS
  1
HATCH
  2
AcDbHatch
  3
AutoCAD 2000
 90
        0
280
     0
281
     1
  0
CLASS
  1
XRECORD
  2
AcDbXrecord
  3
AutoCAD 2000
 90
        0
280
     0
281
     0
  0
CLASS
  1
LONG_TRANSACTION
  2
AcDbLongTransaction
  3
AutoCAD 2000
 90
        0
280
     0
281
     0
  0
CLASS
  1
LWPOLYLINE
  2
AcDbPolyline
  3
AutoCAD 2000
 90
        0
280
     0
281
     1
  0
CLASS
  1
HATCH
  2
AcDbHatch
  3
AutoCAD 2000
 90
        0
280
     0
281
     1
  0
CLASS
  1
XRECORD
  2
AcDbXrecord
  3
AutoCAD 2000
 90
        0
280
     0
281
     0
  0
CLASS
  1
LONG_TRANSACTION
  2
AcDbLongTransaction
  3
AutoCAD 2000
 90
        0
280
     0
281
     0
  0
CLASS
  1
LWPOLYLINE
  2
AcDbPolyline
  3
AutoCAD 2000
 90
        0
280
     0
281
     1
  0
CLASS
  1
HATCH
  2
AcDbHatch
  3
AutoCAD 2000
 90
        0
280
     0
281
     1
  0
CLASS
  1
XRECORD
  2
AcDbXrecord
  3
AutoCAD 2000
 90
        0
280
     0
281
     0
  0
CLASS
  1
LONG_TRANSACTION
  2
AcDbLongTransaction
  3
AutoCAD 2000
 90
        0
280
     0
281
     0
  0
CLASS
  1
LWPOLYLINE
  2
AcDbPolyline
  3
AutoCAD 2000
 90
        0
280
     0
281
     1
  0
CLASS
  1
HATCH
  2
AcDbHatch
  3
AutoCAD 2000
 90
        0
280
     0
281
     1
  0
CLASS
  1
XRECORD
  2
AcDbXrecord
  3
AutoCAD 2000
 90
        0
280
     0
281
     0
  0
CLASS
  1
LONG_TRANSACTION
  2
AcDbLongTransaction
  3
AutoCAD 2000
 90
        0
280
     0
281
     0
  0
CLASS
  1
LWPOLYLINE
  2
AcDbPolyline
  3
AutoCAD 2000
 90
        0
280
     0
281
     1
  0
CLASS
  1
HATCH
  2
AcDbHatch
  3
AutoCAD 2000
 90
        0
280
     0
281
     1
  0
CLASS
  1
XRECORD
  2
AcDbXrecord
  3
AutoCAD 2000
 90
        0
280
     0
281
     0
  0
CLASS
  1
LONG_TRANSACTION
  2
AcDbLongTransaction
  3
AutoCAD 2000
 90
        0
280
     0
281
     0
  0
CLASS
  1
LWPOLYLINE
  2
AcDbPolyline
  3
AutoCAD 2000
 90
        0
280
     0
281
     1
  0
CLASS
  1
HATCH
  2
AcDbHatch
  3
AutoCAD 2000
 90
        0
280
     0
281
     1
  0
CLASS
  1
XRECORD
  2
AcDbXrecord
  3
AutoCAD 2000
 90
        0
280
     0
281
     0
  0
CLASS
  1
LONG_TRANSACTION
  2
AcDbLongTransaction
  3
AutoCAD 2000
 90
        0
280
     0
281
     0
  0
CLASS
  1
LWPOLYLINE
  2
AcDbPolyline
  3
AutoCAD 2000
 90
        0
280
     0
281
     1
  0
CLASS
  1
HATCH
  2
AcDbHatch
  3
AutoCAD 2000
 90
        0
280
     0
281
     1
  0
CLASS
  1
XRECORD
  2
AcDbXrecord
  3
AutoCAD 2000
 90
        0
280
     0
281
     0
  0
CLASS
  1
LONG_TRANSACTION
  2
AcDbLongTransaction
  3
AutoCAD 2000
 90
        0
280
     0
281
     0
  0
CLASS
  1
LWPOLYLINE
  2
AcDbPolyline
  3
AutoCAD 2000
 90
        0
280
     0
281
     1
  0
CLASS
  1
HATCH
  2
AcDbHatch
  3
AutoCAD 2000
 90
        0
280
     0
281
     1
  0
CLASS
  1
XRECORD
  2
AcDbXrecord
  3
AutoCAD 2000
 90
        0
280
     0
281
     0
  0
CLASS
  1
LONG_TRANSACTION
  2
AcDbLongTransaction
  3
AutoCAD 2000
 90
        0
280
     0
281
     0
  0
CLASS
  1
LWPOLYLINE
  2
AcDbPolyline
  3
AutoCAD 2000
 90
        0
280
     0
281
     1
  0
CLASS
  1
HATCH
  2
AcDbHatch
  3
AutoCAD 2000
 90
        0
280
     0
281
     1
  0
CLASS
  1
XRECORD
  2
AcDbXrecord
  3
AutoCAD 2000
 90
        0
280
     0
281
     0
  0
CLASS
  1
LONG_TRANSACTION
  2
AcDbLongTransaction
  3
AutoCAD 2000
 90
        0
280
     0
281
     0
  0
CLASS
  1
LWPOLYLINE
  2
AcDbPolyline
  3
AutoCAD 2000
 90
        0
280
     0
281
     1
  0
CLASS
  1
HATCH
  2
AcDbHatch
  3
AutoCAD 2000
 90
        0
280
     0
281
     1
  0
CLASS
  1
XRECORD
  2
AcDbXrecord
  3
AutoCAD 2000
 90
        0
280
     0
281
     0
  0
CLASS
  1
LONG_TRANSACTION
  2
AcDbLongTransaction
  3
AutoCAD 2000
 90
        0
280
     0
281
     0
  0
CLASS
  1
LWPOLYLINE
  2
AcDbPolyline
  3
AutoCAD 2000
 90
        0
280
     0
281
     1
  0
CLASS
  1
HATCH
  2
AcDbHatch
  3
AutoCAD 2000
 90
        0
280
     0
281
     1
  0
CLASS
  1
XRECORD
  2
AcDbXrecord
  3
AutoCAD 2000
 90
        0
280
     0
281
     0
  0
CLASS
  1
LONG_TRANSACTION
  2
AcDbLongTransaction
  3
AutoCAD 2000
 90
        0
280
     0
281
     0
  0
CLASS
  1
LWPOLYLINE
  2
AcDbPolyline
  3
AutoCAD 2000
 90
        0
280
     0
281
     1
  0
CLASS
  1
HATCH
  2
AcDbHatch
  3
AutoCAD 2000
 90
        0
280
     0
281
     1
  0
CLASS
  1
XRECORD
  2
AcDbXrecord
  3
AutoCAD 2000
 90
        0
280
     0
281
     0
  0
CLASS
  1
LONG_TRANSACTION
  2
AcDbLongTransaction
  3
AutoCAD 2000
 90
        0
280
     0
281
     0
  0
CLASS
  1
LWPOLYLINE
  2
AcDbPolyline
  3
AutoCAD 2000
 90
        0
280
     0
281
     1
  0
CLASS
  1
HATCH
  2
AcDbHatch
  3
AutoCAD 2000
 90
        0
280
     0
281
     1
  0
CLASS
  1
XRECORD
  2
AcDbXrecord
  3
AutoCAD 2000
 90
        0
280
     0
281
     0
  0
CLASS
  1
LONG_TRANSACTION
  2
AcDbLongTransaction
  3
AutoCAD 2000
 90
        0
280
     0
281
     0
  0
CLASS
  1
LWPOLYLINE
  2
AcDbPolyline
  3
AutoCAD 2000
 90
        0
280
     0
281
     1
  0
CLASS
  1
HATCH
  2
AcDbHatch
  3
AutoCAD 2000
 90
        0
280
     0
281
     1
  0
CLASS
  1
XRECORD
  2
AcDbXrecord
  3
AutoCAD 2000
 90
        0
280
     0
281
     0
  0
CLASS
  1
LONG_TRANSACTION
  2
AcDbLongTransaction
  3
AutoCAD 2000
 90
        0
280
     0
281
     0
  0
CLASS
  1
LWPOLYLINE
  2
AcDbPolyline
  3
AutoCAD 2000
 90
        0
280
     0
281
     1
  0
CLASS
  1
HATCH
  2
AcDbHatch
  3
AutoCAD 2000
 90
        0
280
     0
281
     1
  0
CLASS
  1
XRECORD
  2
AcDbXrecord
  3
AutoCAD 2000
 90
        0
280
     0
281
     0
  0
CLASS
  1
LONG_TRANSACTION
  2
AcDbLongTransaction
  3
AutoCAD 2000
 90
        0
280
     0
281
     0
  0
CLASS
  1
LWPOLYLINE
  2
AcDbPolyline
  3
AutoCAD 2000
 90
        0
280
     0
281
     1
  0
CLASS
  1
HATCH
  2
AcDbHatch
  3
AutoCAD 2000
 90
        0
280
     0
281
     1
  0
CLASS
  1
XRECORD
  2
AcDbXrecord
  3
AutoCAD 2000
 90
        0
280
     0
281
     0
  0
CLASS
  1
LONG_TRANSACTION
  2
AcDbLongTransaction
  3
AutoCAD 2000
 90
        0
280
     0
281
     0
  0
CLASS
  1
LWPOLYLINE
  2
AcDbPolyline
  3
AutoCAD 2000
 90
        0
280
     0
281
     1
  0
CLASS
  1
HATCH
  2
AcDbHatch
  3
AutoCAD 2000
 90
        0
280
     0
281
     1
  0
CLASS
  1
XRECORD
  2
AcDbXrecord
  3
AutoCAD 2000
 90
        0
280
     0
281
     0
  0
CLASS
  1
LONG_TRANSACTION
  2
AcDbLongTransaction
  3
AutoCAD 2000
 90
        0
280
     0
281
     0
  0
CLASS
  1
LWPOLYLINE
  2
AcDbPolyline
  3
AutoCAD 2000
 90
        0
280
     0
281
     1
  0
CLASS
  1
HATCH
  2
AcDbHatch
  3
AutoCAD 2000
 90
        0
280
     0
281
     1
  0
CLASS
  1
XRECORD
  2
AcDbXrecord
  3
AutoCAD 2000
 90
        0
280
     0
281
     0
  0
CLASS
  1
LONG_TRANSACTION
  2
AcDbLongTransaction
  3
AutoCAD 2000
 90
        0
280
     0
281
     0
  0
CLASS
  1
LWPOLYLINE
  2
AcDbPolyline
  3
AutoCAD 2000
 90
        0
280
     0
281
     1
  0
CLASS
  1
HATCH
  2
AcDbHatch
  3
AutoCAD 2000
 90
        0
280
     0
281
     1
  0
CLASS
  1
XRECORD
  2
AcDbXrecord
  3
AutoCAD 2000
 90
        0
280
     0
281
     0
  0
CLASS
  1
LONG_TRANSACTION
  2
AcDbLongTransaction
  3
AutoCAD 2000
 90
        0
280
     0
281
     0
  0
CLASS
  1
LWPOLYLINE
  2
AcDbPolyline
  3
AutoCAD 2000
 90
        0
280
     0
281
     1
  0
CLASS
  1
HATCH
  2
AcDbHatch
  3
AutoCAD 2000
 90
        0
280
     0
281
     1
  0
CLASS
  1
XRECORD
  2
AcDbXrecord
  3
AutoCAD 2000
 90
        0
280
     0
281
     0
  0
CLASS
  1
LONG_TRANSACTION
  2
AcDbLongTransaction
  3
AutoCAD 2000
 90
        0
280
     0
281
     0
  0
CLASS
  1
LWPOLYLINE
  2
AcDbPolyline
  3
AutoCAD 2000
 90
        0
280
     0
281
     1
  0
CLASS
  1
HATCH
  2
AcDbHatch
  3
AutoCAD 2000
 90
        0
280
     0
281
     1
  0
CLASS
  1
XRECORD
  2
AcDbXrecord
  3
AutoCAD 2000
 90
        0
280
     0
281
     0
  0
CLASS
  1
LONG_TRANSACTION
  2
AcDbLongTransaction
  3
AutoCAD 2000
 90
        0
280
     0
281
     0
  0
CLASS
  1
LWPOLYLINE
  2
AcDbPolyline
  3
AutoCAD 2000
 90
        0
280
     0
281
     1
  0
CLASS
  1
HATCH
  2
AcDbHatch
  3
AutoCAD 2000
 90
        0
280
     0
281
     1
  0
CLASS
  1
XRECORD
  2
AcDbXrecord
  3
AutoCAD 2000
 90
        0
280
     0
281
     0
  0
CLASS
  1
LONG_TRANSACTION
  2
AcDbLongTransaction
  3
AutoCAD 2000
 90
        0
280
     0
281
     0
  0
CLASS
  1
LWPOLYLINE
  2
AcDbPolyline
  3
AutoCAD 2000
 90
        0
280
     0
281
     1
  0
CLASS
  1
HATCH
  2
AcDbHatch
  3
AutoCAD 2000
 90
        0
280
     0
281
     1
  0
CLASS
  1
XRECORD
  2
AcDbXrecord
  3
AutoCAD 2000
 90
        0
280
     0
281
     0
  0
CLASS
  1
LONG_TRANSACTION
  2
AcDbLongTransaction
  3
AutoCAD 2000
 90
        0
280
     0
281
     0
  0
CLASS
  1
LWPOLYLINE
  2
AcDbPolyline
  3
AutoCAD 2000
 90
        0
280
     0
281
     1
  0
CLASS
  1
HATCH
  2
AcDbHatch
  3
AutoCAD 2000
 90
        0
280
     0
281
     1
  0
CLASS
  1
XRECORD
  2
AcDbXrecord
  3
AutoCAD 2000
 90
        0
280
     0
281
     0
  0
CLASS
  1
LONG_TRANSACTION
  2
AcDbLongTransaction
  3
AutoCAD 2000
 90
        0
280
     0
281
     0
  0
CLASS
  1
LWPOLYLINE
  2
AcDbPolyline
  3
AutoCAD 2000
 90
        0
280
     0
281
     1
  0
CLASS
  1
HATCH
  2
AcDbHatch
  3
AutoCAD 2000
 90
        0
280
     0
281
     1
  0
CLASS
  1
XRECORD
  2
AcDbXrecord
  3
AutoCAD 2000
 90
        0
280
     0
281
     0
  0
CLASS
  1
LONG_TRANSACTION
  2
AcDbLongTransaction
  3
AutoCAD 2000
 90
        0
280
     0
281
     0
  0
CLASS
  1
LWPOLYLINE
  2
AcDbPolyline
  3
AutoCAD 2000
 90
        0
280
     0
281
     1
  0
CLASS
  1
HATCH
  2
AcDbHatch
  3
AutoCAD 2000
 90
        0
280
     0
281
     1
  0
CLASS
  1
XRECORD
  2
AcDbXrecord
  3
AutoCAD 2000
 90
        0
280
     0
281
     0
  0
CLASS
  1
LONG_TRANSACTION
  2
AcDbLongTransaction
  3
AutoCAD 2000
 90
        0
280
     0
281
     0
  0
CLASS
  1
LWPOLYLINE
  2
AcDbPolyline
  3
AutoCAD 2000
 90
        0
280
     0
281
     1
  0
CLASS
  1
HATCH
  2
AcDbHatch
  3
AutoCAD 2000
 90
        0
280
     0
281
     1
  0
CLASS
  1
XRECORD
  2
AcDbXrecord
  3
AutoCAD 2000
 90
        0
280
     0
281
     0
  0
CLASS
  1
LONG_TRANSACTION
  2
AcDbLongTransaction
  3
AutoCAD 2000
 90
        0
280
     0
281
     0
  0
CLASS
  1
LWPOLYLINE
  2
AcDbPolyline
  3
AutoCAD 2000
 90
        0
280
     0
281
     1
  0
CLASS
  1
HATCH
  2
AcDbHatch
  3
AutoCAD 2000
 90
        0
280
     0
281
     1
  0
CLASS
  1
XRECORD
  2
AcDbXrecord
  3
AutoCAD 2000
 90
        0
280
     0
281
     0
  0
CLASS
  1
LONG_TRANSACTION
  2
AcDbLongTransaction
  3
AutoCAD 2000
 90
        0
280
     0
281
     0
  0
CLASS
  1
LWPOLYLINE
  2
AcDbPolyline
  3
AutoCAD 2000
 90
        0
280
     0
281
     1
  0
CLASS
  1
HATCH
  2
AcDbHatch
  3
AutoCAD 2000
 90
        0
280
     0
281
     1
  0
CLASS
  1
XRECORD
  2
AcDbXrecord
  3
AutoCAD 2000
 90
        0
280
     0
281
     0
  0
CLASS
  1
LONG_TRANSACTION
  2
AcDbLongTransaction
  3
AutoCAD 2000
 90
        0
280
     0
281
     0
  0
CLASS
  1
LWPOLYLINE
  2
AcDbPolyline
  3
AutoCAD 2000
 90
        0
280
     0
281
     1
  0
CLASS
  1
HATCH
  2
AcDbHatch
  3
AutoCAD 2000
 90
        0
280
     0
281
     1
  0
CLASS
  1
XRECORD
  2
AcDbXrecord
  3
AutoCAD 2000
 90
        0
280
     0
281
     0
  0
CLASS
  1
LONG_TRANSACTION
  2
AcDbLongTransaction
  3
AutoCAD 2000
 90
        0
280
     0
281
     0
  0
CLASS
  1
LWPOLYLINE
  2
AcDbPolyline
  3
AutoCAD 2000
 90
        0
280
     0
281
     1
  0
CLASS
  1
HATCH
  2
AcDbHatch
  3
AutoCAD 2000
 90
        0
280
     0
281
     1
  0
CLASS
  1
XRECORD
  2
AcDbXrecord
  3
AutoCAD 2000
 90
        0
280
     0
281
     0
  0
CLASS
  1
LONG_TRANSACTION
  2
AcDbLongTransaction
  3
AutoCAD 2000
 90
        0
280
     0
281
     0
  0
CLASS
  1
LWPOLYLINE
  2
AcDbPolyline
  3
AutoCAD 2000
 90
        0
280
     0
281
     1
  0
CLASS
  1
HATCH
  2
AcDbHatch
  3
AutoCAD 2000
 90
        0
280
     0
281
     1
  0
CLASS
  1
XRECORD
  2
AcDbXrecord
  3
AutoCAD 2000
 90
        0
280
     0
281
     0
  0
CLASS
  1
LONG_TRANSACTION
  2
AcDbLongTransaction
  3
AutoCAD 2000
 90
        0
280
     0
281
     0
  0
CLASS
  1
LWPOLYLINE
  2
AcDbPolyline
  3
AutoCAD 2000
 90
        0
280
     0
281
     1
  0
CLASS
  1
HATCH
  2
AcDbHatch
  3
AutoCAD 2000
 90
        0
280
     0
281
     1
  0
CLASS
  1
XRECORD
  2
AcDbXrecord
  3
AutoCAD 2000
 90
        0
280
     0
281
     0
  0
CLASS
  1
LONG_TRANSACTION
  2
AcDbLongTransaction
  3
AutoCAD 2000
 90
        0
280
     0
281
     0
  0
CLASS
  1
LWPOLYLINE
  2
AcDbPolyline
  3
AutoCAD 2000
 90
        0
280
     0
281
     1
  0
CLASS
  1
HATCH
  2
AcDbHatch
  3
AutoCAD 2000
 90
        0
280
     0
281
     1
  0
CLASS
  1
XRECORD
  2
AcDbXrecord
  3
AutoCAD 2000
 90
        0
280
     0
281
     0
  0
CLASS
  1
LONG_TRANSACTION
  2
AcDbLongTransaction
  3
AutoCAD 2000
 90
        0
280
     0
281
     0
  0
CLASS
  1
LWPOLYLINE
  2
AcDbPolyline
  3
AutoCAD 2000
 90
        0
280
     0
281
     1
  0
CLASS
  1
HATCH
  2
AcDbHatch
  3
AutoCAD 2000
 90
        0
280
     0
281
     1
  0
CLASS
  1
XRECORD
  2
AcDbXrecord
  3
AutoCAD 2000
 90
        0
280
     0
281
     0
  0
CLASS
  1
LONG_TRANSACTION
  2
AcDbLongTransaction
  3
AutoCAD 2000
 90
        0
280
     0
281
     0
  0
CLASS
  1
LWPOLYLINE
  2
AcDbPolyline
  3
AutoCAD 2000
 90
        0
280
     0
281
     1
  0
CLASS
  1
HATCH
  2
AcDbHatch
  3
AutoCAD 2000
 90
        0
280
     0
281
     1
  0
CLASS
  1
XRECORD
  2
AcDbXrecord
  3
AutoCAD 2000
 90
        0
280
     0
281
     0
  0
CLASS
  1
LONG_TRANSACTION
  2
AcDbLongTransaction
  3
AutoCAD 2000
 90
        0
280
     0
281
     0
  0
CLASS
  1
LWPOLYLINE
  2
AcDbPolyline
  3
AutoCAD 2000
 90
        0
280
     0
281
     1
  0
CLASS
  1
HATCH
  2
AcDbHatch
  3
AutoCAD 2000
 90
        0
280
     0
281
     1
  0
CLASS
  1
XRECORD
  2
AcDbXrecord
  3
AutoCAD 2000
 90
        0
280
     0
281
     0
  0
CLASS
  1
LONG_TRANSACTION
  2
AcDbLongTransaction
  3
AutoCAD 2000
 90
        0
280
     0
281
     0
  0
CLASS
  1
LWPOLYLINE
  2
AcDbPolyline
  3
AutoCAD 2000
 90
        0
280
     0
281
     1
  0
CLASS
  1
HATCH
  2
AcDbHatch
  3
AutoCAD 2000
 90
        0
280
     0
281
     1
  0
CLASS
  1
XRECORD
  2
AcDbXrecord
  3
AutoCAD 2000
 90
        0
280
     0
281
     0
  0
CLASS
  1
LONG_TRANSACTION
  2
AcDbLongTransaction
  3
AutoCAD 2000
 90
        0
280
     0
281
     0
  0
CLASS
  1
LWPOLYLINE
  2
AcDbPolyline
  3
AutoCAD 2000
 90
        0
280
     0
281
     1
  0
CLASS
  1
HATCH
  2
AcDbHatch
  3
AutoCAD 2000
 90
        0
280
     0
281
     1
  0
CLASS
  1
XRECORD
  2
AcDbXrecord
  3
AutoCAD 2000
 90
        0
280
     0
281
     0
  0
CLASS
  1
LONG_TRANSACTION
  2
AcDbLongTransaction
  3
AutoCAD 2000
 90
        0
280
     0
281
     0
  0
CLASS
  1
LWPOLYLINE
  2
AcDbPolyline
  3
AutoCAD 2000
 90
        0
280
     0
281
     1
  0
CLASS
  1
HATCH
  2
AcDbHatch
  3
AutoCAD 2000
 90
        0
280
     0
281
     1
  0
CLASS
  1
XRECORD
  2
AcDbXrecord
  3
AutoCAD 2000
 90
        0
280
     0
281
     0
  0
CLASS
  1
LONG_TRANSACTION
  2
AcDbLongTransaction
  3
AutoCAD 2000
 90
        0
280
     0
281
     0
  0
CLASS
  1
LWPOLYLINE
  2
AcDbPolyline
  3
AutoCAD 2000
 90
        0
280
     0
281
     1
  0
CLASS
  1
HATCH
  2
AcDbHatch
  3
AutoCAD 2000
 90
        0
280
     0
281
     1
  0
CLASS
  1
XRECORD
  2
AcDbXrecord
  3
AutoCAD 2000
 90
        0
280
     0
281
     0
  0
CLASS
  1
LONG_TRANSACTION
  2
AcDbLongTransaction
  3
AutoCAD 2000
 90
        0
280
     0
281
     0
  0
CLASS
  1
LWPOLYLINE
  2
AcDbPolyline
  3
AutoCAD 2000
 90
        0
280
     0
281
     1
  0
CLASS
  1
HATCH
  2
AcDbHatch
  3
AutoCAD 2000
 90
        0
280
     0
281
     1
  0
CLASS
  1
XRECORD
  2
AcDbXrecord
  3
AutoCAD 2000
 90
        0
280
     0
281
     0
  0
CLASS
  1
LONG_TRANSACTION
  2
AcDbLongTransaction
  3
AutoCAD 2000
 90
        0
280
     0
281
     0
  0
CLASS
  1
LWPOLYLINE
  2
AcDbPolyline
  3
AutoCAD 2000
 90
        0
280
     0
281
     1
  0
CLASS
  1
HATCH
  2
AcDbHatch
  3
AutoCAD 2000
 90
        0
280
     0
281
     1
  0
CLASS
  1
XRECORD
  2
AcDbXrecord
  3
AutoCAD 2000
 90
        0
280
     0
281
     0
  0
CLASS
  1
LONG_TRANSACTION
  2
AcDbLongTransaction
  3
AutoCAD 2000
 90
        0
280
     0
281
     0
  0
CLASS
  1
LWPOLYLINE
  2
AcDbPolyline
  3
AutoCAD 2000
 90
        0
280
     0
281
     1
  0
CLASS
  1
HATCH
  2
AcDbHatch
  3
AutoCAD 2000
 90
        0
280
     0
281
     1
  0
CLASS
  1
XRECORD
  2
AcDbXrecord
  3
AutoCAD 2000
 90
        0
280
     0
281
     0
  0
CLASS
  1
LONG_TRANSACTION
  2
AcDbLongTransaction
  3
AutoCAD 2000
 90
        0
280
     0
281
     0
  0
CLASS
  1
LWPOLYLINE
  2
AcDbPolyline
  3
AutoCAD 2000
 90
        0
280
     0
281
     1
  0
CLASS
  1
HATCH
  2
AcDbHatch
  3
AutoCAD 2000
 90
        0
280
     0
281
     1
  0
CLASS
  1
XRECORD
  2
AcDbXrecord
  3
AutoCAD 2000
 90
        0
280
     0
281
     0
  0
CLASS
  1
LONG_TRANSACTION
  2
AcDbLongTransaction
  3
AutoCAD 2000
 90
        0
280
     0
281
     0
  0
CLASS
  1
LWPOLYLINE
  2
AcDbPolyline
  3
AutoCAD 2000
 90
        0
280
     0
281
     1
  0
CLASS
  1
HATCH
  2
AcDbHatch
  3
AutoCAD 2000
 90
        0
280
     0
281
     1
  0
CLASS
  1
XRECORD
  2
AcDbXrecord
  3
AutoCAD 2000
 90
        0
280
     0
281
     0
  0
CLASS
  1
LONG_TRANSACTION
  2
AcDbLongTransaction
  3
AutoCAD 2000
 90
        0
280
     0
281
     0
  0
CLASS
  1
LWPOLYLINE
  2
AcDbPolyline
  3
AutoCAD 2000
 90
        0
280
     0
281
     1
  0
CLASS
  1
HATCH
  2
AcDbHatch
  3
AutoCAD 2000
 90
        0
280
     0
281
     1
  0
CLASS
  1
XRECORD
  2
AcDbXrecord
  3
AutoCAD 2000
 90
        0
280
     0
281
     0
  0
CLASS
  1
LONG_TRANSACTION
  2
AcDbLongTransaction
  3
AutoCAD 2000
 90
        0
280
     0
281
     0
  0
CLASS
  1
LWPOLYLINE
  2
AcDbPolyline
  3
AutoCAD 2000
 90
        0
280
     0
281
     1
  0
CLASS
  1
HATCH
  2
AcDbHatch
  3
AutoCAD 2000
 90
        0
280
     0
281
     1
  0
CLASS
  1
XRECORD
  2
AcDbXrecord
  3
AutoCAD 2000
 90
        0
280
     0
281
     0
  0
CLASS
  1
LONG_TRANSACTION
  2
AcDbLongTransaction
  3
AutoCAD 2000
 90
        0
280
     0
281
     0
  0
CLASS
  1
LWPOLYLINE
  2
AcDbPolyline
  3
AutoCAD 2000
 90
        0
280
     0
281
     1
  0
CLASS
  1
HATCH
  2
AcDbHatch
  3
AutoCAD 2000
 90
        0
280
     0
281
     1
  0
CLASS
  1
XRECORD
  2
AcDbXrecord
  3
AutoCAD 2000
 90
        0
280
     0
281
     0
  0
CLASS
  1
LONG_TRANSACTION
  2
AcDbLongTransaction
  3
AutoCAD 2000
 90
        0
280
     0
281
     0
  0
CLASS
  1
LWPOLYLINE
  2
AcDbPolyline
  3
AutoCAD 2000
 90
        0
280
     0
281
     1
  0
CLASS
  1
HATCH
  2
AcDbHatch
  3
AutoCAD 2000
 90
        0
280
     0
281
     1
  0
CLASS
  1
XRECORD
  2
AcDbXrecord
  3
AutoCAD 2000
 90
        0
280
     0
281
     0
  0
CLASS
  1
LONG_TRANSACTION
  2
AcDbLongTransaction
  3
AutoCAD 2000
 90
        0
280
     0
281
     0
  0
CLASS
  1
LWPOLYLINE
  2
AcDbPolyline
  3
AutoCAD 2000
 90
        0
280
     0
281
     1
  0
CLASS
  1
HATCH
  2
AcDbHatch
  3
AutoCAD 2000
 90
        0
280
     0
281
     1
  0
CLASS
  1
XRECORD
  2
AcDbXrecord
  3
AutoCAD 2000
 90
        0
280
     0
281
     0
  0
CLASS
  1
LONG_TRANSACTION
  2
AcDbLongTransaction
  3
AutoCAD 2000
 90
        0
280
     0
281
     0
  0
CLASS
  1
LWPOLYLINE
  2
AcDbPolyline
  3
AutoCAD 2000
 90
        0
280
     0
281
     1
  0
CLASS
  1
HATCH
  2
AcDbHatch
  3
AutoCAD 2000
 90
        0
280
     0
281
     1
  0
CLASS
  1
XRECORD
  2
AcDbXrecord
  3
AutoCAD 2000
 90
        0
280
     0
281
     0
  0
CLASS
  1
LONG_TRANSACTION
  2
AcDbLongTransaction
  3
AutoCAD 2000
 90
        0
280
     0
281
     0
  0
CLASS
  1
LWPOLYLINE
  2
AcDbPolyline
  3
AutoCAD 2000
 90
        0
280
     0
281
     1
  0
CLASS
  1
HATCH
  2
AcDbHatch
  3
AutoCAD 2000
 90
        0
280
     0
281
     1
  0
CLASS
  1
XRECORD
  2
AcDbXrecord
  3
AutoCAD 2000
 90
        0
280
     0
281
     0
  0
CLASS
  1
LONG_TRANSACTION
  2
AcDbLongTransaction
  3
AutoCAD 2000
 90
        0
280
     0
281
     0
  0
CLASS
  1
LWPOLYLINE
  2
AcDbPolyline
  3
AutoCAD 2000
 90
        0
280
     0
281
     1
  0
CLASS
  1
HATCH
  2
AcDbHatch
  3
AutoCAD 2000
 90
        0
280
     0
281
     1
  0
CLASS
  1
XRECORD
  2
AcDbXrecord
  3
AutoCAD 2000
 90
        0
280
     0
281
     0
  0
CLASS
  1
LONG_TRANSACTION
  2
AcDbLongTransaction
  3
AutoCAD 2000
 90
        0
280
     0
281
     0
  0
CLASS
  1
LWPOLYLINE
  2
AcDbPolyline
  3
AutoCAD 2000
 90
        0
280
     0
281
     1
  0
CLASS
  1
HATCH
  2
AcDbHatch
  3
AutoCAD 2000
 90
        0
280
     0
281
     1
  0
CLASS
  1
XRECORD
  2
AcDbXrecord
  3
AutoCAD 2000
 90
        0
280
     0
281
     0
  0
ENDSEC
  0
SECTION
  2
TABLES
  0
TABLE
  2
VPORT
  5
1E
330
0
100
AcDbSymbolTable
 70
     2
  0
VPORT
  5
33B
330
1E
100
AcDbSymbolTableRecord
100
AcDbViewportTableRecord
  2
*ACTIVE
 70
     0
 10
0.0
 20
0.0
 11
1.0
 21
1.0
 12
154.1801593835862
 22
149.9320116725648
 13
0.0
 23
0.0
 14
10.0
 24
10.0
 15
10.0
 25
10.0
 16
0.0
 26
0.0
 36
1.0
 17
0.0
 27
0.0
 37
0.0
 40
302.1385924223367
 41
1.549367088607595
 42
50.0
 43
0.0
 44
0.0
 50
0.0
 51
0.0
 71
     0
 72
 10000
 73
     1
 74
     3
 75
     0
 76
     0
 77
     0
 78
     1
  0
ENDTAB
  0
TABLE
  2
LTYPE
  5
19
330
0
100
AcDbSymbolTable
 70
     3
  0
LTYPE
  5
1A
330
19
100
AcDbSymbolTableRecord
100
AcDbLinetypeTableRecord
  2
BYBLOCK
 70
     0
  3

 72
    65
 73
     0
 40
0.0
  0
LTYPE
  5
1B
330
19
100
AcDbSymbolTableRecord
100
AcDbLinetypeTableRecord
  2
BYLAYER
 70
     0
  3

 72
    65
 73
     0
 40
0.0
  0
LTYPE
  5
9
330
19
100
AcDbSymbolTableRecord
100
AcDbLinetypeTableRecord
  2
CONTINUOUS
 70
     0
  3
Solid line
 72
    65
 73
     0
 40
0.0
  0
LTYPE
  5
6D
330
19
100
AcDbSymbolTableRecord
100
AcDbLinetypeTableRecord
  2
CENTER
 70
     0
  3
Center ____ _ ____ _ ____ _ ____ _ ____ _ ____
 72
    65
 73
     4
 40
50.8
 49
31.75
 74
     0
 49
-6.349999999999998
 74
     0
 49
6.349999999999998
 74
     0
 49
-6.349999999999998
 74
     0
  0
LTYPE
  5
48
330
19
100
AcDbSymbolTableRecord
100
AcDbLinetypeTableRecord
  2
ACAD_ISO02W100
 70
     0
  3
ISO dash __ __ __ __ __ __ __ __ __ __ __ __ __
 72
    65
 73
     2
 40
15.0
 49
12.0
 74
     0
 49
-3.0
 74
     0
  0
ENDTAB
  0
TABLE
  2
LAYER
  5
12
102
{ACAD_XDICTIONARY
360
13
102
}
330
0
100
AcDbSymbolTable
 70
     4
  0
LAYER
  5
5
330
12
100
AcDbSymbolTableRecord
100
AcDbLayerTableRecord
  2
0
 70
     0
 62
     7
  6
CONTINUOUS
  0
LAYER
  5
33
330
12
100
AcDbSymbolTableRecord
100
AcDbLayerTableRecord
  2
DEFPOINTS
 70
     0
 62
     7
  6
CONTINUOUS
  0
LAYER
  5
6C
330
12
100
AcDbSymbolTableRecord
100
AcDbLayerTableRecord
  2
CEN
 70
     0
 62
     1
  6
CENTER
  0
LAYER
  5
47
330
12
100
AcDbSymbolTableRecord
100
AcDbLayerTableRecord
  2
HI
 70
     0
 62
     4
  6
ACAD_ISO02W100
  0
ENDTAB
  0
TABLE
  2
STYLE
  5
16
330
0
100
AcDbSymbolTable
 70
     1
  0
STYLE
  5
17
330
16
100
AcDbSymbolTableRecord
100
AcDbTextStyleTableRecord
  2
STANDARD
 70
     0
 40
0.0
 41
1.0
 50
0.0
 71
     0
 42
5.777225951253058
  3
romans.shx
  4
whgtxt.shx
  0
ENDTAB
  0
TABLE
  2
VIEW
  5
1C
330
0
100
AcDbSymbolTable
 70
     0
  0
ENDTAB
  0
TABLE
  2
UCS
  5
1D
330
0
100
AcDbSymbolTable
 70
     0
  0
ENDTAB
  0
TABLE
  2
APPID
  5
20
330
0
100
AcDbSymbolTable
 70
     1
  0
APPID
  5
21
330
20
100
AcDbSymbolTableRecord
100
AcDbRegAppTableRecord
  2
ACAD
 70
     0
  0
ENDTAB
  0
TABLE
  2
DIMSTYLE
  5
22
330
0
100
AcDbSymbolTable
 70
     2
  0
DIMSTYLE
105
23
330
22
100
AcDbSymbolTableRecord
100
AcDbDimStyleTableRecord
  2
STANDARD
 70
     0
  3

  4

  5

  6

  7

 40
1.0
 41
3.5
 42
1.0
 43
10.0
 44
0.6
 45
0.0
 46
0.0
 47
0.0
 48
0.0
140
3.0
141
0.09
142
0.0
143
25.4
144
1.0
145
0.0
146
1.0
147
1.0
 71
     0
 72
     0
 73
     0
 74
     0
 75
     0
 76
     0
 77
     1
 78
     8
170
     0
171
     2
172
     1
173
     0
174
     1
175
     0
176
   123
177
   123
178
     3
270
     2
271
     2
272
     2
273
     2
274
     2
340
17
275
     1
280
     0
281
     0
282
     0
283
     1
284
     0
285
     0
286
     0
287
     0
288
     1
  0
DIMSTYLE
105
2A
102
{ACAD_REACTORS
330
F5
330
38
330
144
330
135
330
C4
330
D3
330
29
330
4C
330
5E
330
6E
330
1AF
330
1BE
330
1D2
330
1E1
330
18D
330
19E
330
17A
330
122
330
163
330
7B
330
8A
330
AC
330
9B
330
10A
102
}
330
22
100
AcDbSymbolTableRecord
100
AcDbDimStyleTableRecord
  2
1_5
 70
     0
  3

  4

  5

  6

  7

 40
1.0
 41
3.5
 42
1.0
 43
10.0
 44
0.6
 45
0.0
 46
0.0
 47
0.0
 48
0.0
140
4.5
141
0.09
142
0.0
143
25.4
144
1.0
145
0.0
146
1.0
147
1.0
 71
     0
 72
     0
 73
     0
 74
     0
 75
     0
 76
     0
 77
     1
 78
     8
170
     0
171
     2
172
     1
173
     0
174
     1
175
     0
176
   123
177
   123
178
     3
270
     2
271
     2
272
     2
273
     2
274
     2
340
17
275
     1
280
     0
281
     0
282
     0
283
     1
284
     0
285
     0
286
     0
287
     0
288
     1
  0
ENDTAB
  0
TABLE
  2
BLOCK_RECORD
  5
1
330
0
100
AcDbSymbolTable
 70
    48
  0
BLOCK_RECORD
  5
2
102
{ACAD_XDICTIONARY
360
3
102
}
330
1
100
AcDbSymbolTableRecord
100
AcDbBlockTableRecord
  2
*MODEL_SPACE
  0
BLOCK_RECORD
  5
D
102
{ACAD_XDICTIONARY
360
E
102
}
330
1
100
AcDbSymbolTableRecord
100
AcDbBlockTableRecord
  2
*PAPER_SPACE
  0
BLOCK_RECORD
  5
145
330
1
100
AcDbSymbolTableRecord
100
AcDbBlockTableRecord
  2
*D0
  0
BLOCK_RECORD
  5
2B
330
1
100
AcDbSymbolTableRecord
100
AcDbBlockTableRecord
  2
*D1
  0
BLOCK_RECORD
  5
5F
330
1
100
AcDbSymbolTableRecord
100
AcDbBlockTableRecord
  2
*D2
  0
BLOCK_RECORD
  5
6F
330
1
100
AcDbSymbolTableRecord
100
AcDbBlockTableRecord
  2
*D3
  0
BLOCK_RECORD
  5
1D3
330
1
100
AcDbSymbolTableRecord
100
AcDbBlockTableRecord
  2
*D4
  0
BLOCK_RECORD
  5
123
330
1
100
AcDbSymbolTableRecord
100
AcDbBlockTableRecord
  2
*D5
  0
BLOCK_RECORD
  5
8B
330
1
100
AcDbSymbolTableRecord
100
AcDbBlockTableRecord
  2
*D6
  0
BLOCK_RECORD
  5
9C
330
1
100
AcDbSymbolTableRecord
100
AcDbBlockTableRecord
  2
*D7
  0
BLOCK_RECORD
  5
10B
330
1
100
AcDbSymbolTableRecord
100
AcDbBlockTableRecord
  2
*D8
  0
BLOCK_RECORD
  5
F8
330
1
100
AcDbSymbolTableRecord
100
AcDbBlockTableRecord
  2
*D9
  0
BLOCK_RECORD
  5
3B
330
1
100
AcDbSymbolTableRecord
100
AcDbBlockTableRecord
  2
*D10
  0
BLOCK_RECORD
  5
138
330
1
100
AcDbSymbolTableRecord
100
AcDbBlockTableRecord
  2
*D11
  0
BLOCK_RECORD
  5
C7
330
1
100
AcDbSymbolTableRecord
100
AcDbBlockTableRecord
  2
*D12
  0
BLOCK_RECORD
  5
D6
330
1
100
AcDbSymbolTableRecord
100
AcDbBlockTableRecord
  2
*D13
  0
BLOCK_RECORD
  5
4F
330
1
100
AcDbSymbolTableRecord
100
AcDbBlockTableRecord
  2
*D14
  0
BLOCK_RECORD
  5
1B2
330
1
100
AcDbSymbolTableRecord
100
AcDbBlockTableRecord
  2
*D15
  0
BLOCK_RECORD
  5
1C1
330
1
100
AcDbSymbolTableRecord
100
AcDbBlockTableRecord
  2
*D16
  0
BLOCK_RECORD
  5
1E4
330
1
100
AcDbSymbolTableRecord
100
AcDbBlockTableRecord
  2
*D17
  0
BLOCK_RECORD
  5
190
330
1
100
AcDbSymbolTableRecord
100
AcDbBlockTableRecord
  2
*D18
  0
BLOCK_RECORD
  5
1A1
330
1
100
AcDbSymbolTableRecord
100
AcDbBlockTableRecord
  2
*D19
  0
BLOCK_RECORD
  5
17D
330
1
100
AcDbSymbolTableRecord
100
AcDbBlockTableRecord
  2
*D20
  0
BLOCK_RECORD
  5
166
330
1
100
AcDbSymbolTableRecord
100
AcDbBlockTableRecord
  2
*D21
  0
BLOCK_RECORD
  5
7E
330
1
100
AcDbSymbolTableRecord
100
AcDbBlockTableRecord
  2
*D22
  0
BLOCK_RECORD
  5
AF
330
1
100
AcDbSymbolTableRecord
100
AcDbBlockTableRecord
  2
*D23
  0
BLOCK_RECORD
  5
20A
330
1
100
AcDbSymbolTableRecord
100
AcDbBlockTableRecord
  2
*D24
  0
BLOCK_RECORD
  5
216
330
1
100
AcDbSymbolTableRecord
100
AcDbBlockTableRecord
  2
*D25
  0
BLOCK_RECORD
  5
222
330
1
100
AcDbSymbolTableRecord
100
AcDbBlockTableRecord
  2
*D26
  0
BLOCK_RECORD
  5
22E
330
1
100
AcDbSymbolTableRecord
100
AcDbBlockTableRecord
  2
*D27
  0
BLOCK_RECORD
  5
23C
330
1
100
AcDbSymbolTableRecord
100
AcDbBlockTableRecord
  2
*D28
  0
BLOCK_RECORD
  5
247
330
1
100
AcDbSymbolTableRecord
100
AcDbBlockTableRecord
  2
*D29
  0
BLOCK_RECORD
  5
253
330
1
100
AcDbSymbolTableRecord
100
AcDbBlockTableRecord
  2
*D30
  0
BLOCK_RECORD
  5
25F
330
1
100
AcDbSymbolTableRecord
100
AcDbBlockTableRecord
  2
*D31
  0
BLOCK_RECORD
  5
26B
330
1
100
AcDbSymbolTableRecord
100
AcDbBlockTableRecord
  2
*D32
  0
BLOCK_RECORD
  5
277
330
1
100
AcDbSymbolTableRecord
100
AcDbBlockTableRecord
  2
*D33
  0
BLOCK_RECORD
  5
280
330
1
100
AcDbSymbolTableRecord
100
AcDbBlockTableRecord
  2
*D34
  0
BLOCK_RECORD
  5
28E
330
1
100
AcDbSymbolTableRecord
100
AcDbBlockTableRecord
  2
*D35
  0
BLOCK_RECORD
  5
29C
330
1
100
AcDbSymbolTableRecord
100
AcDbBlockTableRecord
  2
*D36
  0
BLOCK_RECORD
  5
2A8
330
1
100
AcDbSymbolTableRecord
100
AcDbBlockTableRecord
  2
*D37
  0
BLOCK_RECORD
  5
2B4
330
1
100
AcDbSymbolTableRecord
100
AcDbBlockTableRecord
  2
*D38
  0
BLOCK_RECORD
  5
2C0
330
1
100
AcDbSymbolTableRecord
100
AcDbBlockTableRecord
  2
*D39
  0
BLOCK_RECORD
  5
2CC
330
1
100
AcDbSymbolTableRecord
100
AcDbBlockTableRecord
  2
*D40
  0
BLOCK_RECORD
  5
2D8
330
1
100
AcDbSymbolTableRecord
100
AcDbBlockTableRecord
  2
*D41
  0
BLOCK_RECORD
  5
2E4
330
1
100
AcDbSymbolTableRecord
100
AcDbBlockTableRecord
  2
*D42
  0
BLOCK_RECORD
  5
2F0
330
1
100
AcDbSymbolTableRecord
100
AcDbBlockTableRecord
  2
*D43
  0
BLOCK_RECORD
  5
2FC
330
1
100
AcDbSymbolTableRecord
100
AcDbBlockTableRecord
  2
*D44
  0
BLOCK_RECORD
  5
308
330
1
100
AcDbSymbolTableRecord
100
AcDbBlockTableRecord
  2
*D45
  0
BLOCK_RECORD
  5
311
330
1
100
AcDbSymbolTableRecord
100
AcDbBlockTableRecord
  2
*D46
  0
BLOCK_RECORD
  5
31F
330
1
100
AcDbSymbolTableRecord
100
AcDbBlockTableRecord
  2
*D47
  0
ENDTAB
  0
ENDSEC
  0
SECTION
  2
BLOCKS
  0
BLOCK
  5
4
330
2
100
AcDbEntity
  8
0
100
AcDbBlockBegin
  2
*MODEL_SPACE
 70
     0
 10
0.0
 20
0.0
 30
0.0
  3
*MODEL_SPACE
  1

  0
ENDBLK
  5
A
330
2
100
AcDbEntity
  8
0
100
AcDbBlockEnd
  0
BLOCK
  5
F
330
D
100
AcDbEntity
 67
     1
  8
0
100
AcDbBlockBegin
  2
*PAPER_SPACE
 70
     0
 10
0.0
 20
0.0
 30
0.0
  3
*PAPER_SPACE
  1

  0
ENDBLK
  5
10
330
D
100
AcDbEntity
 67
     1
  8
0
100
AcDbBlockEnd
  0
BLOCK
  5
14F
330
145
100
AcDbEntity
  8
0
100
AcDbBlockBegin
  2
*D0
 70
     1
 10
0.0
 20
0.0
 30
0.0
  3
*D0
  1

  0
LINE
  5
146
330
145
100
AcDbEntity
  8
0
 62
   123
100
AcDbLine
 10
-6240.869689628418
 20
-2305.867719061731
 30
0.0
 11
-6226.470652162607
 21
-2305.867719061731
 31
0.0
  0
LINE
  5
147
330
145
100
AcDbEntity
  8
0
 62
   123
100
AcDbLine
 10
-6240.869689628418
 20
-2296.867719061731
 30
0.0
 11
-6226.470652162607
 21
-2296.867719061731
 31
0.0
  0
LINE
  5
148
330
145
100
AcDbEntity
  8
0
 62
   123
100
AcDbLine
 10
-6227.070652162607
 20
-2302.36771906173
 30
0.0
 11
-6227.070652162607
 21
-2300.367719061731
 31
0.0
  0
SOLID
  5
149
330
145
100
AcDbEntity
  8
0
 62
   123
100
AcDbTrace
 10
-6227.65398549594
 20
-2302.36771906173
 30
0.0
 11
-6226.487318829274
 21
-2302.36771906173
 31
0.0
 12
-6227.070652162607
 22
-2305.867719061731
 32
0.0
 13
-6227.070652162607
 23
-2305.867719061731
 33
0.0
  0
SOLID
  5
14A
330
145
100
AcDbEntity
  8
0
 62
   123
100
AcDbTrace
 10
-6227.65398549594
 20
-2300.367719061731
 30
0.0
 11
-6226.487318829274
 21
-2300.367719061731
 31
0.0
 12
-6227.070652162607
 22
-2296.867719061731
 32
0.0
 13
-6227.070652162607
 23
-2296.867719061731
 33
0.0
  0
MTEXT
  5
14B
330
145
100
AcDbEntity
  8
0
 62
     3
100
AcDbMText
 10
-6230.320652162607
 20
-2301.367719061731
 30
0.0
 40
4.5
 41
0.0
 71
     5
 72
     1
  1
\A1;9
 11
0.0000000000000001
 21
1.0
 31
0.0
1001
ACAD
1000
MTEXTBEGIN
1070
    73
1070
     1
1070
    44
1040
1.0
1070
    74
1070
     0
1000
MTEXTEND
  0
POINT
  5
14C
330
145
100
AcDbEntity
  8
DEFPOINTS
 62
     0
100
AcDbPoint
 10
-6241.869689628416
 20
-2305.867719061731
 30
0.0
  0
POINT
  5
14D
330
145
100
AcDbEntity
  8
DEFPOINTS
 62
     0
100
AcDbPoint
 10
-6241.869689628416
 20
-2296.867719061731
 30
0.0
  0
POINT
  5
14E
330
145
100
AcDbEntity
  8
DEFPOINTS
 62
     0
100
AcDbPoint
 10
-6227.070652162607
 20
-2296.867719061731
 30
0.0
  0
ENDBLK
  5
150
330
145
100
AcDbEntity
  8
0
100
AcDbBlockEnd
  0
BLOCK
  5
36
330
2B
100
AcDbEntity
  8
0
100
AcDbBlockBegin
  2
*D1
 70
     1
 10
0.0
 20
0.0
 30
0.0
  3
*D1
  1

  0
LINE
  5
2C
330
2B
100
AcDbEntity
  8
0
 62
   123
100
AcDbLine
 10
-6360.869689628416
 20
-2305.867719061731
 30
0.0
 11
-6360.869689628416
 21
-2330.017952797418
 31
0.0
  0
LINE
  5
2D
330
2B
100
AcDbEntity
  8
0
 62
   123
100
AcDbLine
 10
-6240.869689628418
 20
-2306.867719061731
 30
0.0
 11
-6240.869689628418
 21
-2330.017952797418
 31
0.0
  0
LINE
  5
2E
330
2B
100
AcDbEntity
  8
0
 62
   123
100
AcDbLine
 10
-6357.369689628416
 20
-2329.417952797419
 30
0.0
 11
-6244.369689628417
 21
-2329.417952797419
 31
0.0
  0
SOLID
  5
2F
330
2B
100
AcDbEntity
  8
0
 62
   123
100
AcDbTrace
 10
-6357.369689628416
 20
-2328.834619464085
 30
0.0
 11
-6357.369689628416
 21
-2330.001286130753
 31
0.0
 12
-6360.869689628416
 22
-2329.417952797419
 32
0.0
 13
-6360.869689628416
 23
-2329.417952797419
 33
0.0
  0
SOLID
  5
30
330
2B
100
AcDbEntity
  8
0
 62
   123
100
AcDbTrace
 10
-6244.369689628417
 20
-2328.834619464085
 30
0.0
 11
-6244.369689628417
 21
-2330.001286130753
 31
0.0
 12
-6240.869689628418
 22
-2329.417952797419
 32
0.0
 13
-6240.869689628418
 23
-2329.417952797419
 33
0.0
  0
MTEXT
  5
31
330
2B
100
AcDbEntity
  8
0
 62
     3
100
AcDbMText
 10
-6300.369689628418
 20
-2326.167952797419
 30
0.0
 40
4.5
 41
0.0
 71
     5
 72
     1
  1
\A1;120
1001
ACAD
1000
MTEXTBEGIN
1070
    73
1070
     1
1070
    44
1040
1.0
1070
    74
1070
     0
1000
MTEXTEND
  0
POINT
  5
32
330
2B
100
AcDbEntity
  8
DEFPOINTS
 62
     0
100
AcDbPoint
 10
-6360.869689628416
 20
-2304.86771906173
 30
0.0
  0
POINT
  5
34
330
2B
100
AcDbEntity
  8
DEFPOINTS
 62
     0
100
AcDbPoint
 10
-6240.869689628418
 20
-2305.867719061731
 30
0.0
  0
POINT
  5
35
330
2B
100
AcDbEntity
  8
DEFPOINTS
 62
     0
100
AcDbPoint
 10
-6240.869689628418
 20
-2329.417952797419
 30
0.0
  0
ENDBLK
  5
37
330
2B
100
AcDbEntity
  8
0
100
AcDbBlockEnd
  0
BLOCK
  5
69
330
5F
100
AcDbEntity
  8
0
100
AcDbBlockBegin
  2
*D2
 70
     1
 10
0.0
 20
0.0
 30
0.0
  3
*D2
  1

  0
LINE
  5
60
330
5F
100
AcDbEntity
  8
0
 62
   123
100
AcDbLine
 10
-6341.369689628416
 20
-2218.86771906173
 30
0.0
 11
-6341.369689628416
 21
-2202.162836920061
 31
0.0
  0
LINE
  5
61
330
5F
100
AcDbEntity
  8
0
 62
   123
100
AcDbLine
 10
-6260.369689628419
 20
-2218.86771906173
 30
0.0
 11
-6260.369689628419
 21
-2202.162836920061
 31
0.0
  0
LINE
  5
62
330
5F
100
AcDbEntity
  8
0
 62
   123
100
AcDbLine
 10
-6337.869689628417
 20
-2202.762836920061
 30
0.0
 11
-6263.869689628418
 21
-2202.762836920061
 31
0.0
  0
SOLID
  5
63
330
5F
100
AcDbEntity
  8
0
 62
   123
100
AcDbTrace
 10
-6337.869689628417
 20
-2202.179503586728
 30
0.0
 11
-6337.869689628417
 21
-2203.346170253395
 31
0.0
 12
-6341.369689628416
 22
-2202.762836920061
 32
0.0
 13
-6341.369689628416
 23
-2202.762836920061
 33
0.0
  0
SOLID
  5
64
330
5F
100
AcDbEntity
  8
0
 62
   123
100
AcDbTrace
 10
-6263.869689628418
 20
-2202.179503586728
 30
0.0
 11
-6263.869689628418
 21
-2203.346170253395
 31
0.0
 12
-6260.369689628419
 22
-2202.762836920061
 32
0.0
 13
-6260.369689628419
 23
-2202.762836920061
 33
0.0
  0
MTEXT
  5
65
330
5F
100
AcDbEntity
  8
0
 62
     3
100
AcDbMText
 10
-6300.869689628417
 20
-2199.512836920061
 30
0.0
 40
4.5
 41
0.0
 71
     5
 72
     1
  1
\A1;81
1001
ACAD
1000
MTEXTBEGIN
1070
    73
1070
     1
1070
    44
1040
1.0
1070
    74
1070
     0
1000
MTEXTEND
  0
POINT
  5
66
330
5F
100
AcDbEntity
  8
DEFPOINTS
 62
     0
100
AcDbPoint
 10
-6341.369689628416
 20
-2219.867719061731
 30
0.0
  0
POINT
  5
67
330
5F
100
AcDbEntity
  8
DEFPOINTS
 62
     0
100
AcDbPoint
 10
-6260.369689628419
 20
-2219.867719061731
 30
0.0
  0
POINT
  5
68
330
5F
100
AcDbEntity
  8
DEFPOINTS
 62
     0
100
AcDbPoint
 10
-6260.369689628419
 20
-2202.762836920061
 30
0.0
  0
ENDBLK
  5
6A
330
5F
100
AcDbEntity
  8
0
100
AcDbBlockEnd
  0
BLOCK
  5
79
330
6F
100
AcDbEntity
  8
0
100
AcDbBlockBegin
  2
*D3
 70
     1
 10
0.0
 20
0.0
 30
0.0
  3
*D3
  1

  0
LINE
  5
70
330
6F
100
AcDbEntity
  8
0
 62
   123
100
AcDbLine
 10
-6345.869689628417
 20
-2249.86771906173
 30
0.0
 11
-6345.869689628417
 21
-2189.636566289747
 31
0.0
  0
LINE
  5
71
330
6F
100
AcDbEntity
  8
0
 62
   123
100
AcDbLine
 10
-6255.869689628418
 20
-2249.86771906173
 30
0.0
 11
-6255.869689628418
 21
-2189.636566289747
 31
0.0
  0
LINE
  5
72
330
6F
100
AcDbEntity
  8
0
 62
   123
100
AcDbLine
 10
-6342.369689628418
 20
-2190.236566289747
 30
0.0
 11
-6259.369689628416
 21
-2190.236566289747
 31
0.0
  0
SOLID
  5
73
330
6F
100
AcDbEntity
  8
0
 62
   123
100
AcDbTrace
 10
-6342.369689628418
 20
-2189.653232956413
 30
0.0
 11
-6342.369689628418
 21
-2190.81989962308
 31
0.0
 12
-6345.869689628417
 22
-2190.236566289747
 32
0.0
 13
-6345.869689628417
 23
-2190.236566289747
 33
0.0
  0
SOLID
  5
74
330
6F
100
AcDbEntity
  8
0
 62
   123
100
AcDbTrace
 10
-6259.369689628416
 20
-2189.653232956413
 30
0.0
 11
-6259.369689628416
 21
-2190.81989962308
 31
0.0
 12
-6255.869689628418
 22
-2190.236566289747
 32
0.0
 13
-6255.869689628418
 23
-2190.236566289747
 33
0.0
  0
MTEXT
  5
75
330
6F
100
AcDbEntity
  8
0
 62
     3
100
AcDbMText
 10
-6300.869689628417
 20
-2186.986566289746
 30
0.0
 40
4.5
 41
0.0
 71
     5
 72
     1
  1
\A1;90
1001
ACAD
1000
MTEXTBEGIN
1070
    73
1070
     1
1070
    44
1040
1.0
1070
    74
1070
     0
1000
MTEXTEND
  0
POINT
  5
76
330
6F
100
AcDbEntity
  8
DEFPOINTS
 62
     0
100
AcDbPoint
 10
-6345.869689628417
 20
-2250.86771906173
 30
0.0
  0
POINT
  5
77
330
6F
100
AcDbEntity
  8
DEFPOINTS
 62
     0
100
AcDbPoint
 10
-6255.869689628418
 20
-2250.86771906173
 30
0.0
  0
POINT
  5
78
330
6F
100
AcDbEntity
  8
DEFPOINTS
 62
     0
100
AcDbPoint
 10
-6255.869689628418
 20
-2190.236566289747
 30
0.0
  0
ENDBLK
  5
7A
330
6F
100
AcDbEntity
  8
0
100
AcDbBlockEnd
  0
BLOCK
  5
1DD
330
1D3
100
AcDbEntity
  8
0
100
AcDbBlockBegin
  2
*D4
 70
     1
 10
0.0
 20
0.0
 30
0.0
  3
*D4
  1

  0
LINE
  5
1D4
330
1D3
100
AcDbEntity
  8
0
 62
   123
100
AcDbLine
 10
-6123.591981145743
 20
-2297.86771906173
 30
0.0
 11
-6123.591981145743
 21
-2321.081725843097
 31
0.0
  0
LINE
  5
1D5
330
1D3
100
AcDbEntity
  8
0
 62
   123
100
AcDbLine
 10
-6068.591981145743
 20
-2306.36771906173
 30
0.0
 11
-6068.591981145743
 21
-2321.081725843097
 31
0.0
  0
LINE
  5
1D6
330
1D3
100
AcDbEntity
  8
0
 62
   123
100
AcDbLine
 10
-6120.091981145743
 20
-2320.481725843097
 30
0.0
 11
-6072.091981145743
 21
-2320.481725843097
 31
0.0
  0
SOLID
  5
1D7
330
1D3
100
AcDbEntity
  8
0
 62
   123
100
AcDbTrace
 10
-6120.091981145743
 20
-2319.898392509763
 30
0.0
 11
-6120.091981145743
 21
-2321.06505917643
 31
0.0
 12
-6123.591981145743
 22
-2320.481725843097
 32
0.0
 13
-6123.591981145743
 23
-2320.481725843097
 33
0.0
  0
SOLID
  5
1D8
330
1D3
100
AcDbEntity
  8
0
 62
   123
100
AcDbTrace
 10
-6072.091981145743
 20
-2319.898392509763
 30
0.0
 11
-6072.091981145743
 21
-2321.06505917643
 31
0.0
 12
-6068.591981145743
 22
-2320.481725843097
 32
0.0
 13
-6068.591981145743
 23
-2320.481725843097
 33
0.0
  0
MTEXT
  5
1D9
330
1D3
100
AcDbEntity
  8
0
 62
     3
100
AcDbMText
 10
-6094.591981145743
 20
-2317.231725843097
 30
0.0
 40
4.5
 41
0.0
 71
     5
 72
     1
  1
\A1;55
1001
ACAD
1000
MTEXTBEGIN
1070
    73
1070
     1
1070
    44
1040
1.0
1070
    74
1070
     0
1000
MTEXTEND
  0
POINT
  5
1DA
330
1D3
100
AcDbEntity
  8
DEFPOINTS
 62
     0
100
AcDbPoint
 10
-6123.591981145743
 20
-2296.867719061729
 30
0.0
  0
POINT
  5
1DB
330
1D3
100
AcDbEntity
  8
DEFPOINTS
 62
     0
100
AcDbPoint
 10
-6068.591981145743
 20
-2305.36771906173
 30
0.0
  0
POINT
  5
1DC
330
1D3
100
AcDbEntity
  8
DEFPOINTS
 62
     0
100
AcDbPoint
 10
-6068.591981145743
 20
-2320.481725843097
 30
0.0
  0
ENDBLK
  5
1DE
330
1D3
100
AcDbEntity
  8
0
100
AcDbBlockEnd
  0
BLOCK
  5
12D
330
123
100
AcDbEntity
  8
0
100
AcDbBlockBegin
  2
*D5
 70
     1
 10
0.0
 20
0.0
 30
0.0
  3
*D5
  1

  0
LINE
  5
124
330
123
100
AcDbEntity
  8
0
 62
   123
100
AcDbLine
 10
-6242.869689628417
 20
-2118.478651497005
 30
0.0
 11
-6212.680834561396
 21
-2118.478651497005
 31
0.0
  0
LINE
  5
125
330
123
100
AcDbEntity
  8
0
 62
   123
100
AcDbLine
 10
-6243.760798839876
 20
-2083.478651497004
 30
0.0
 11
-6212.680834561396
 21
-2083.478651497004
 31
0.0
  0
LINE
  5
126
330
123
100
AcDbEntity
  8
0
 62
   123
100
AcDbLine
 10
-6213.280834561397
 20
-2114.978651497005
 30
0.0
 11
-6213.280834561397
 21
-2086.978651497004
 31
0.0
  0
SOLID
  5
127
330
123
100
AcDbEntity
  8
0
 62
   123
100
AcDbTrace
 10
-6213.864167894731
 20
-2114.978651497005
 30
0.0
 11
-6212.697501228063
 21
-2114.978651497005
 31
0.0
 12
-6213.280834561397
 22
-2118.478651497005
 32
0.0
 13
-6213.280834561397
 23
-2118.478651497005
 33
0.0
  0
SOLID
  5
128
330
123
100
AcDbEntity
  8
0
 62
   123
100
AcDbTrace
 10
-6213.864167894731
 20
-2086.978651497004
 30
0.0
 11
-6212.697501228063
 21
-2086.978651497004
 31
0.0
 12
-6213.280834561397
 22
-2083.478651497004
 32
0.0
 13
-6213.280834561397
 23
-2083.478651497004
 33
0.0
  0
MTEXT
  5
129
330
123
100
AcDbEntity
  8
0
 62
     3
100
AcDbMText
 10
-6216.530834561396
 20
-2094.19563392803
 30
0.0
 40
4.5
 41
0.0
 71
     5
 72
     1
  1
\A1;35
 11
0.0000000000000001
 21
1.0
 31
0.0
1001
ACAD
1000
MTEXTBEGIN
1070
    73
1070
     1
1070
    44
1040
1.0
1070
    74
1070
     0
1000
MTEXTEND
  0
POINT
  5
12A
330
123
100
AcDbEntity
  8
DEFPOINTS
 62
     0
100
AcDbPoint
 10
-6243.869689628418
 20
-2118.478651497005
 30
0.0
  0
POINT
  5
12B
330
123
100
AcDbEntity
  8
DEFPOINTS
 62
     0
100
AcDbPoint
 10
-6244.760798839876
 20
-2083.478651497004
 30
0.0
  0
POINT
  5
12C
330
123
100
AcDbEntity
  8
DEFPOINTS
 62
     0
100
AcDbPoint
 10
-6213.280834561397
 20
-2083.478651497004
 30
0.0
  0
ENDBLK
  5
12E
330
123
100
AcDbEntity
  8
0
100
AcDbBlockEnd
  0
BLOCK
  5
95
330
8B
100
AcDbEntity
  8
0
100
AcDbBlockBegin
  2
*D6
 70
     1
 10
0.0
 20
0.0
 30
0.0
  3
*D6
  1

  0
LINE
  5
8C
330
8B
100
AcDbEntity
  8
0
 62
   123
100
AcDbLine
 10
-6325.869689628415
 20
-2078.978651497005
 30
0.0
 11
-6325.869689628415
 21
-2050.728727929468
 31
0.0
  0
LINE
  5
8D
330
8B
100
AcDbEntity
  8
0
 62
   123
100
AcDbLine
 10
-6275.869689628416
 20
-2078.098091172381
 30
0.0
 11
-6275.869689628416
 21
-2050.728727929468
 31
0.0
  0
LINE
  5
8E
330
8B
100
AcDbEntity
  8
0
 62
   123
100
AcDbLine
 10
-6322.369689628415
 20
-2051.328727929467
 30
0.0
 11
-6279.369689628417
 21
-2051.328727929467
 31
0.0
  0
SOLID
  5
8F
330
8B
100
AcDbEntity
  8
0
 62
   123
100
AcDbTrace
 10
-6322.369689628415
 20
-2050.745394596134
 30
0.0
 11
-6322.369689628415
 21
-2051.9120612628
 31
0.0
 12
-6325.869689628415
 22
-2051.328727929467
 32
0.0
 13
-6325.869689628415
 23
-2051.328727929467
 33
0.0
  0
SOLID
  5
90
330
8B
100
AcDbEntity
  8
0
 62
   123
100
AcDbTrace
 10
-6279.369689628417
 20
-2050.745394596134
 30
0.0
 11
-6279.369689628417
 21
-2051.9120612628
 31
0.0
 12
-6275.869689628416
 22
-2051.328727929467
 32
0.0
 13
-6275.869689628416
 23
-2051.328727929467
 33
0.0
  0
MTEXT
  5
91
330
8B
100
AcDbEntity
  8
0
 62
     3
100
AcDbMText
 10
-6300.318365748275
 20
-2048.078727929467
 30
0.0
 40
4.5
 41
0.0
 71
     5
 72
     1
  1
\A1;50
1001
ACAD
1000
MTEXTBEGIN
1070
    73
1070
     1
1070
    44
1040
1.0
1070
    74
1070
     0
1000
MTEXTEND
  0
POINT
  5
92
330
8B
100
AcDbEntity
  8
DEFPOINTS
 62
     0
100
AcDbPoint
 10
-6325.869689628415
 20
-2079.978651497005
 30
0.0
  0
POINT
  5
93
330
8B
100
AcDbEntity
  8
DEFPOINTS
 62
     0
100
AcDbPoint
 10
-6275.869689628416
 20
-2079.098091172381
 30
0.0
  0
POINT
  5
94
330
8B
100
AcDbEntity
  8
DEFPOINTS
 62
     0
100
AcDbPoint
 10
-6275.869689628416
 20
-2051.328727929467
 30
0.0
  0
ENDBLK
  5
96
330
8B
100
AcDbEntity
  8
0
100
AcDbBlockEnd
  0
BLOCK
  5
A8
330
9C
100
AcDbEntity
  8
0
100
AcDbBlockBegin
  2
*D7
 70
     1
 10
0.0
 20
0.0
 30
0.0
  3
*D7
  1

  0
LINE
  5
9D
330
9C
100
AcDbEntity
  8
0
 62
   123
100
AcDbLine
 10
-6354.319689628418
 20
-2086.228651497004
 30
0.0
 11
-6370.308917184393
 21
-2086.228651497004
 31
0.0
  0
LINE
  5
9E
330
9C
100
AcDbEntity
  8
0
 62
   123
100
AcDbLine
 10
-6354.319689628418
 20
-2080.728651497004
 30
0.0
 11
-6370.308917184393
 21
-2080.728651497004
 31
0.0
  0
LINE
  5
9F
330
9C
100
AcDbEntity
  8
0
 62
   123
100
AcDbLine
 10
-6369.708917184393
 20
-2089.728651497004
 30
0.0
 11
-6369.708917184393
 21
-2093.228651497005
 31
0.0
  0
LINE
  5
A0
330
9C
100
AcDbEntity
  8
0
 62
   123
100
AcDbLine
 10
-6369.708917184393
 20
-2077.228651497005
 30
0.0
 11
-6369.708917184393
 21
-2073.728651497004
 31
0.0
  0
LINE
  5
A1
330
9C
100
AcDbEntity
  8
0
 62
   123
100
AcDbLine
 10
-6369.708917184393
 20
-2086.228651497004
 30
0.0
 11
-6369.708917184393
 21
-2080.728651497004
 31
0.0
  0
SOLID
  5
A2
330
9C
100
AcDbEntity
  8
0
 62
   123
100
AcDbTrace
 10
-6370.292250517724
 20
-2089.728651497004
 30
0.0
 11
-6369.12558385106
 21
-2089.728651497004
 31
0.0
 12
-6369.708917184393
 22
-2086.228651497004
 32
0.0
 13
-6369.708917184393
 23
-2086.228651497004
 33
0.0
  0
SOLID
  5
A3
330
9C
100
AcDbEntity
  8
0
 62
   123
100
AcDbTrace
 10
-6370.292250517724
 20
-2077.228651497005
 30
0.0
 11
-6369.12558385106
 21
-2077.228651497005
 31
0.0
 12
-6369.708917184393
 22
-2080.728651497004
 32
0.0
 13
-6369.708917184393
 23
-2080.728651497004
 33
0.0
  0
MTEXT
  5
A4
330
9C
100
AcDbEntity
  8
0
 62
     3
100
AcDbMText
 10
-6372.958917184392
 20
-2083.478651497005
 30
0.0
 40
4.5
 41
0.0
 71
     5
 72
     1
  1
\A1;5.5
 11
0.0000000000000001
 21
1.0
 31
0.0
1001
ACAD
1000
MTEXTBEGIN
1070
    73
1070
     1
1070
    44
1040
1.0
1070
    74
1070
     0
1000
MTEXTEND
  0
POINT
  5
A5
330
9C
100
AcDbEntity
  8
DEFPOINTS
 62
     0
100
AcDbPoint
 10
-6353.319689628418
 20
-2086.228651497004
 30
0.0
  0
POINT
  5
A6
330
9C
100
AcDbEntity
  8
DEFPOINTS
 62
     0
100
AcDbPoint
 10
-6353.319689628418
 20
-2080.728651497004
 30
0.0
  0
POINT
  5
A7
330
9C
100
AcDbEntity
  8
DEFPOINTS
 62
     0
100
AcDbPoint
 10
-6369.708917184393
 20
-2080.728651497004
 30
0.0
  0
ENDBLK
  5
A9
330
9C
100
AcDbEntity
  8
0
100
AcDbBlockEnd
  0
BLOCK
  5
117
330
10B
100
AcDbEntity
  8
0
100
AcDbBlockBegin
  2
*D8
 70
     1
 10
0.0
 20
0.0
 30
0.0
  3
*D8
  1

  0
LINE
  5
10C
330
10B
100
AcDbEntity
  8
0
 62
   123
100
AcDbLine
 10
-6356.069689628419
 20
-2082.478651497004
 30
0.0
 11
-6356.069689628419
 21
-2064.724582985256
 31
0.0
  0
LINE
  5
10D
330
10B
100
AcDbEntity
  8
0
 62
   123
100
AcDbLine
 10
-6347.669689628419
 20
-2082.478651497004
 30
0.0
 11
-6347.669689628419
 21
-2064.724582985256
 31
0.0
  0
LINE
  5
10E
330
10B
100
AcDbEntity
  8
0
 62
   123
100
AcDbLine
 10
-6344.169689628419
 20
-2065.324582985257
 30
0.0
 11
-6340.669689628416
 21
-2065.324582985257
 31
0.0
  0
LINE
  5
10F
330
10B
100
AcDbEntity
  8
0
 62
   123
100
AcDbLine
 10
-6359.569689628418
 20
-2065.324582985257
 30
0.0
 11
-6378.905403914131
 21
-2065.324582985257
 31
0.0
  0
LINE
  5
110
330
10B
100
AcDbEntity
  8
0
 62
   123
100
AcDbLine
 10
-6347.669689628419
 20
-2065.324582985257
 30
0.0
 11
-6356.069689628419
 21
-2065.324582985257
 31
0.0
  0
SOLID
  5
111
330
10B
100
AcDbEntity
  8
0
 62
   123
100
AcDbTrace
 10
-6344.169689628419
 20
-2064.741249651922
 30
0.0
 11
-6344.169689628419
 21
-2065.907916318589
 31
0.0
 12
-6347.669689628419
 22
-2065.324582985257
 32
0.0
 13
-6347.669689628419
 23
-2065.324582985257
 33
0.0
  0
SOLID
  5
112
330
10B
100
AcDbEntity
  8
0
 62
   123
100
AcDbTrace
 10
-6359.569689628418
 20
-2064.741249651922
 30
0.0
 11
-6359.569689628418
 21
-2065.907916318589
 31
0.0
 12
-6356.069689628419
 22
-2065.324582985257
 32
0.0
 13
-6356.069689628419
 23
-2065.324582985257
 33
0.0
  0
MTEXT
  5
113
330
10B
100
AcDbEntity
  8
0
 62
     3
100
AcDbMText
 10
-6373.083975342702
 20
-2062.074582985257
 30
0.0
 40
4.5
 41
0.0
 71
     5
 72
     1
  1
\A1;8.4
1001
ACAD
1000
MTEXTBEGIN
1070
    73
1070
     1
1070
    44
1040
1.0
1070
    74
1070
     0
1000
MTEXTEND
  0
POINT
  5
114
330
10B
100
AcDbEntity
  8
DEFPOINTS
 62
     0
100
AcDbPoint
 10
-6356.069689628419
 20
-2083.478651497004
 30
0.0
  0
POINT
  5
115
330
10B
100
AcDbEntity
  8
DEFPOINTS
 62
     0
100
AcDbPoint
 10
-6347.669689628419
 20
-2083.478651497004
 30
0.0
  0
POINT
  5
116
330
10B
100
AcDbEntity
  8
DEFPOINTS
 62
     0
100
AcDbPoint
 10
-6347.669689628419
 20
-2065.324582985257
 30
0.0
  0
ENDBLK
  5
118
330
10B
100
AcDbEntity
  8
0
100
AcDbBlockEnd
  0
BLOCK
  5
FF
330
F8
100
AcDbEntity
  8
0
100
AcDbBlockBegin
  2
*D9
 70
     1
 10
0.0
 20
0.0
 30
0.0
  3
*D9
  1

  0
LINE
  5
F9
330
F8
100
AcDbEntity
  8
0
 62
   123
100
AcDbLine
 10
-6360.937414929291
 20
-2130.212413850317
 30
0.0
 11
-6380.588744235498
 21
-2144.211388114019
 31
0.0
  0
LINE
  5
FA
330
F8
100
AcDbEntity
  8
0
 62
   123
100
AcDbLine
 10
-6345.869689628416
 20
-2119.478651497005
 30
0.0
 11
-6358.086764196691
 21
-2128.181702053745
 31
0.0
  0
SOLID
  5
FB
330
F8
100
AcDbEntity
  8
0
 62
   123
100
AcDbTrace
 10
-6361.275866895386
 20
-2129.737305394884
 30
0.0
 11
-6360.598962963194
 21
-2130.68752230575
 31
0.0
 12
-6358.086764196691
 22
-2128.181702053745
 32
0.0
 13
-6358.086764196691
 23
-2128.181702053745
 33
0.0
  0
MTEXT
  5
FC
330
F8
100
AcDbEntity
  8
0
 62
     3
100
AcDbMText
 10
-6376.947633360951
 20
-2137.627260991416
 30
0.0
 40
4.5
 41
0.0
 71
     5
 72
     1
  1
\A1;R15
 11
0.8144716378851446
 21
0.5802033704492672
 31
0.0
1001
ACAD
1000
MTEXTBEGIN
1070
    73
1070
     1
1070
    44
1040
1.0
1070
    74
1070
     0
1000
MTEXTEND
  0
POINT
  5
FD
330
F8
100
AcDbEntity
  8
DEFPOINTS
 62
     0
100
AcDbPoint
 10
-6358.086764196691
 20
-2128.181702053745
 30
0.0
  0
POINT
  5
FE
330
F8
100
AcDbEntity
  8
DEFPOINTS
 62
     0
100
AcDbPoint
 10
-6345.869689628416
 20
-2119.478651497005
 30
0.0
  0
ENDBLK
  5
100
330
F8
100
AcDbEntity
  8
0
100
AcDbBlockEnd
  0
BLOCK
  5
44
330
3B
100
AcDbEntity
  8
0
100
AcDbBlockBegin
  2
*D10
 70
     1
 10
0.0
 20
0.0
 30
0.0
  3
*D10
  1

  0
LINE
  5
3C
330
3B
100
AcDbEntity
  8
0
 62
   123
100
AcDbLine
 10
-6340.039575243856
 20
-2289.742004387013
 30
0.0
 11
-6342.754319771873
 21
-2291.951113290533
 31
0.0
  0
LINE
  5
3D
330
3B
100
AcDbEntity
  8
0
 62
   123
100
AcDbLine
 10
-6261.699804578275
 20
-2225.993433171151
 30
0.0
 11
-6229.358304704302
 21
-2199.675709868834
 31
0.0
  0
LINE
  5
3E
330
3B
100
AcDbEntity
  8
0
 62
   123
100
AcDbLine
 10
-6337.324830715842
 20
-2287.532895483493
 30
0.0
 11
-6264.41454910629
 21
-2228.20254207467
 31
0.0
  0
SOLID
  5
3F
330
3B
100
AcDbEntity
  8
0
 62
   123
100
AcDbTrace
 10
-6340.407760061111
 20
-2289.289546965676
 30
0.0
 11
-6339.671390426603
 21
-2290.194461808348
 31
0.0
 12
-6337.324830715842
 22
-2287.532895483493
 32
0.0
 13
-6337.324830715842
 23
-2287.532895483493
 33
0.0
  0
SOLID
  5
40
330
3B
100
AcDbEntity
  8
0
 62
   123
100
AcDbTrace
 10
-6262.067989395529
 20
-2225.540975749815
 30
0.0
 11
-6261.33161976102
 21
-2226.445890592485
 31
0.0
 12
-6264.41454910629
 22
-2228.20254207467
 32
0.0
 13
-6264.41454910629
 23
-2228.20254207467
 33
0.0
  0
MTEXT
  5
41
330
3B
100
AcDbEntity
  8
0
 62
     3
100
AcDbMText
 10
-6242.905732146613
 20
-2206.509775612829
 30
0.0
 40
4.5
 41
0.0
 71
     5
 72
     1
  1
\A1;\U+220594%%P0.3
 11
0.7756412937186428
 21
0.6311739724342808
 31
0.0
1001
ACAD
1000
MTEXTBEGIN
1070
    73
1070
     1
1070
    44
1040
1.0
1070
    74
1070
     0
1000
MTEXTEND
  0
POINT
  5
42
330
3B
100
AcDbEntity
  8
DEFPOINTS
 62
     0
100
AcDbPoint
 10
-6264.41454910629
 20
-2228.20254207467
 30
0.0
  0
POINT
  5
43
330
3B
100
AcDbEntity
  8
DEFPOINTS
 62
     0
100
AcDbPoint
 10
-6337.324830715842
 20
-2287.532895483493
 30
0.0
  0
ENDBLK
  5
45
330
3B
100
AcDbEntity
  8
0
100
AcDbBlockEnd
  0
BLOCK
  5
142
330
138
100
AcDbEntity
  8
0
100
AcDbBlockBegin
  2
*D11
 70
     1
 10
0.0
 20
0.0
 30
0.0
  3
*D11
  1

  0
LINE
  5
139
330
138
100
AcDbEntity
  8
0
 62
   123
100
AcDbLine
 10
-6240.869689628418
 20
-2305.867719061731
 30
0.0
 11
-6216.395799629019
 21
-2305.867719061731
 31
0.0
  0
LINE
  5
13A
330
138
100
AcDbEntity
  8
0
 62
   123
100
AcDbLine
 10
-6266.369689628416
 20
-2217.367719061731
 30
0.0
 11
-6216.395799629019
 21
-2217.367719061731
 31
0.0
  0
LINE
  5
13B
330
138
100
AcDbEntity
  8
0
 62
   123
100
AcDbLine
 10
-6216.995799629018
 20
-2302.36771906173
 30
0.0
 11
-6216.995799629018
 21
-2220.867719061732
 31
0.0
  0
SOLID
  5
13C
330
138
100
AcDbEntity
  8
0
 62
   123
100
AcDbTrace
 10
-6217.579132962352
 20
-2302.36771906173
 30
0.0
 11
-6216.412466295686
 21
-2302.36771906173
 31
0.0
 12
-6216.995799629018
 22
-2305.867719061731
 32
0.0
 13
-6216.995799629018
 23
-2305.867719061731
 33
0.0
  0
SOLID
  5
13D
330
138
100
AcDbEntity
  8
0
 62
   123
100
AcDbTrace
 10
-6217.579132962352
 20
-2220.867719061732
 30
0.0
 11
-6216.412466295686
 21
-2220.867719061732
 31
0.0
 12
-6216.995799629018
 22
-2217.367719061731
 32
0.0
 13
-6216.995799629018
 23
-2217.367719061731
 33
0.0
  0
MTEXT
  5
13E
330
138
100
AcDbEntity
  8
0
 62
     3
100
AcDbMText
 10
-6220.245799629019
 20
-2253.192431770087
 30
0.0
 40
4.5
 41
0.0
 71
     5
 72
     1
  1
\A1;88.5
 11
0.0000000000000001
 21
1.0
 31
0.0
1001
ACAD
1000
MTEXTBEGIN
1070
    73
1070
     1
1070
    44
1040
1.0
1070
    74
1070
     0
1000
MTEXTEND
  0
POINT
  5
13F
330
138
100
AcDbEntity
  8
DEFPOINTS
 62
     0
100
AcDbPoint
 10
-6241.869689628416
 20
-2305.867719061731
 30
0.0
  0
POINT
  5
140
330
138
100
AcDbEntity
  8
DEFPOINTS
 62
     0
100
AcDbPoint
 10
-6267.369689628417
 20
-2217.367719061731
 30
0.0
  0
POINT
  5
141
330
138
100
AcDbEntity
  8
DEFPOINTS
 62
     0
100
AcDbPoint
 10
-6216.995799629018
 20
-2217.367719061731
 30
0.0
  0
ENDBLK
  5
143
330
138
100
AcDbEntity
  8
0
100
AcDbBlockEnd
  0
BLOCK
  5
D1
330
C7
100
AcDbEntity
  8
0
100
AcDbBlockBegin
  2
*D12
 70
     1
 10
0.0
 20
0.0
 30
0.0
  3
*D12
  1

  0
LINE
  5
C8
330
C7
100
AcDbEntity
  8
0
 62
   123
100
AcDbLine
 10
-6360.869689628416
 20
-2305.867719061731
 30
0.0
 11
-6391.974704763452
 21
-2305.867719061731
 31
0.0
  0
LINE
  5
C9
330
C7
100
AcDbEntity
  8
0
 62
   123
100
AcDbLine
 10
-6346.869689628416
 20
-2250.86771906173
 30
0.0
 11
-6391.974704763452
 21
-2250.86771906173
 31
0.0
  0
LINE
  5
CA
330
C7
100
AcDbEntity
  8
0
 62
   123
100
AcDbLine
 10
-6391.374704763451
 20
-2302.36771906173
 30
0.0
 11
-6391.374704763451
 21
-2254.367719061729
 31
0.0
  0
SOLID
  5
CB
330
C7
100
AcDbEntity
  8
0
 62
   123
100
AcDbTrace
 10
-6391.958038096785
 20
-2302.36771906173
 30
0.0
 11
-6390.791371430118
 21
-2302.36771906173
 31
0.0
 12
-6391.374704763451
 22
-2305.867719061731
 32
0.0
 13
-6391.374704763451
 23
-2305.867719061731
 33
0.0
  0
SOLID
  5
CC
330
C7
100
AcDbEntity
  8
0
 62
   123
100
AcDbTrace
 10
-6391.958038096785
 20
-2254.367719061729
 30
0.0
 11
-6390.791371430118
 21
-2254.367719061729
 31
0.0
 12
-6391.374704763451
 22
-2250.86771906173
 32
0.0
 13
-6391.374704763451
 23
-2250.86771906173
 33
0.0
  0
MTEXT
  5
CD
330
C7
100
AcDbEntity
  8
0
 62
     3
100
AcDbMText
 10
-6394.624704763451
 20
-2278.367719061729
 30
0.0
 40
4.5
 41
0.0
 71
     5
 72
     1
  1
\A1;55
 11
0.0000000000000001
 21
1.0
 31
0.0
1001
ACAD
1000
MTEXTBEGIN
1070
    73
1070
     1
1070
    44
1040
1.0
1070
    74
1070
     0
1000
MTEXTEND
  0
POINT
  5
CE
330
C7
100
AcDbEntity
  8
DEFPOINTS
 62
     0
100
AcDbPoint
 10
-6359.869689628418
 20
-2305.867719061731
 30
0.0
  0
POINT
  5
CF
330
C7
100
AcDbEntity
  8
DEFPOINTS
 62
     0
100
AcDbPoint
 10
-6345.869689628417
 20
-2250.86771906173
 30
0.0
  0
POINT
  5
D0
330
C7
100
AcDbEntity
  8
DEFPOINTS
 62
     0
100
AcDbPoint
 10
-6391.374704763451
 20
-2250.86771906173
 30
0.0
  0
ENDBLK
  5
D2
330
C7
100
AcDbEntity
  8
0
100
AcDbBlockEnd
  0
BLOCK
  5
E0
330
D6
100
AcDbEntity
  8
0
100
AcDbBlockBegin
  2
*D13
 70
     1
 10
0.0
 20
0.0
 30
0.0
  3
*D13
  1

  0
LINE
  5
D7
330
D6
100
AcDbEntity
  8
0
 62
   123
100
AcDbLine
 10
-6360.869689628416
 20
-2305.867719061731
 30
0.0
 11
-6378.218711040016
 21
-2305.867719061731
 31
0.0
  0
LINE
  5
D8
330
D6
100
AcDbEntity
  8
0
 62
   123
100
AcDbLine
 10
-6354.616790203898
 20
-2257.867719061731
 30
0.0
 11
-6378.218711040016
 21
-2257.867719061731
 31
0.0
  0
LINE
  5
D9
330
D6
100
AcDbEntity
  8
0
 62
   123
100
AcDbLine
 10
-6377.618711040014
 20
-2302.36771906173
 30
0.0
 11
-6377.618711040014
 21
-2261.36771906173
 31
0.0
  0
SOLID
  5
DA
330
D6
100
AcDbEntity
  8
0
 62
   123
100
AcDbTrace
 10
-6378.202044373348
 20
-2302.36771906173
 30
0.0
 11
-6377.035377706683
 21
-2302.36771906173
 31
0.0
 12
-6377.618711040014
 22
-2305.867719061731
 32
0.0
 13
-6377.618711040014
 23
-2305.867719061731
 33
0.0
  0
SOLID
  5
DB
330
D6
100
AcDbEntity
  8
0
 62
   123
100
AcDbTrace
 10
-6378.202044373348
 20
-2261.36771906173
 30
0.0
 11
-6377.035377706683
 21
-2261.36771906173
 31
0.0
 12
-6377.618711040014
 22
-2257.867719061731
 32
0.0
 13
-6377.618711040014
 23
-2257.867719061731
 33
0.0
  0
MTEXT
  5
DC
330
D6
100
AcDbEntity
  8
0
 62
     3
100
AcDbMText
 10
-6380.868711040013
 20
-2280.867719061731
 30
0.0
 40
4.5
 41
0.0
 71
     5
 72
     1
  1
\A1;48%%P0.5
 11
0.0000000000000001
 21
1.0
 31
0.0
1001
ACAD
1000
MTEXTBEGIN
1070
    73
1070
     1
1070
    44
1040
1.0
1070
    74
1070
     0
1000
MTEXTEND
  0
POINT
  5
DD
330
D6
100
AcDbEntity
  8
DEFPOINTS
 62
     0
100
AcDbPoint
 10
-6359.869689628418
 20
-2305.867719061731
 30
0.0
  0
POINT
  5
DE
330
D6
100
AcDbEntity
  8
DEFPOINTS
 62
     0
100
AcDbPoint
 10
-6353.616790203899
 20
-2257.867719061731
 30
0.0
  0
POINT
  5
DF
330
D6
100
AcDbEntity
  8
DEFPOINTS
 62
     0
100
AcDbPoint
 10
-6377.618711040014
 20
-2257.867719061731
 30
0.0
  0
ENDBLK
  5
E1
330
D6
100
AcDbEntity
  8
0
100
AcDbBlockEnd
  0
BLOCK
  5
5B
330
4F
100
AcDbEntity
  8
0
100
AcDbBlockBegin
  2
*D14
 70
     1
 10
0.0
 20
0.0
 30
0.0
  3
*D14
  1

  0
LINE
  5
50
330
4F
100
AcDbEntity
  8
0
 62
   123
100
AcDbLine
 10
-6273.869689628416
 20
-2305.867719061731
 30
0.0
 11
-6283.05704772912
 21
-2305.867719061731
 31
0.0
  0
LINE
  5
51
330
4F
100
AcDbEntity
  8
0
 62
   123
100
AcDbLine
 10
-6276.624440176988
 20
-2304.86771906173
 30
0.0
 11
-6283.05704772912
 21
-2304.86771906173
 31
0.0
  0
LINE
  5
52
330
4F
100
AcDbEntity
  8
0
 62
   123
100
AcDbLine
 10
-6282.457047729121
 20
-2301.36771906173
 30
0.0
 11
-6282.457047729121
 21
-2297.86771906173
 31
0.0
  0
LINE
  5
53
330
4F
100
AcDbEntity
  8
0
 62
   123
100
AcDbLine
 10
-6282.457047729121
 20
-2309.36771906173
 30
0.0
 11
-6282.457047729121
 21
-2319.93914763316
 31
0.0
  0
LINE
  5
54
330
4F
100
AcDbEntity
  8
0
 62
   123
100
AcDbLine
 10
-6282.457047729121
 20
-2304.86771906173
 30
0.0
 11
-6282.457047729121
 21
-2305.867719061731
 31
0.0
  0
SOLID
  5
55
330
4F
100
AcDbEntity
  8
0
 62
   123
100
AcDbTrace
 10
-6283.040381062452
 20
-2301.36771906173
 30
0.0
 11
-6281.873714395787
 21
-2301.36771906173
 31
0.0
 12
-6282.457047729121
 22
-2304.86771906173
 32
0.0
 13
-6282.457047729121
 23
-2304.86771906173
 33
0.0
  0
SOLID
  5
56
330
4F
100
AcDbEntity
  8
0
 62
   123
100
AcDbTrace
 10
-6283.040381062452
 20
-2309.36771906173
 30
0.0
 11
-6281.873714395787
 21
-2309.36771906173
 31
0.0
 12
-6282.457047729121
 22
-2305.867719061731
 32
0.0
 13
-6282.457047729121
 23
-2305.867719061731
 33
0.0
  0
MTEXT
  5
57
330
4F
100
AcDbEntity
  8
0
 62
     3
100
AcDbMText
 10
-6285.707047729119
 20
-2318.403433347446
 30
0.0
 40
4.5
 41
0.0
 71
     5
 72
     1
  1
\A1;1
 11
0.0000000000000001
 21
1.0
 31
0.0
1001
ACAD
1000
MTEXTBEGIN
1070
    73
1070
     1
1070
    44
1040
1.0
1070
    74
1070
     0
1000
MTEXTEND
  0
POINT
  5
58
330
4F
100
AcDbEntity
  8
DEFPOINTS
 62
     0
100
AcDbPoint
 10
-6272.869689628418
 20
-2305.867719061731
 30
0.0
  0
POINT
  5
59
330
4F
100
AcDbEntity
  8
DEFPOINTS
 62
     0
100
AcDbPoint
 10
-6275.624440176986
 20
-2304.86771906173
 30
0.0
  0
POINT
  5
5A
330
4F
100
AcDbEntity
  8
DEFPOINTS
 62
     0
100
AcDbPoint
 10
-6282.457047729121
 20
-2304.86771906173
 30
0.0
  0
ENDBLK
  5
5C
330
4F
100
AcDbEntity
  8
0
100
AcDbBlockEnd
  0
BLOCK
  5
1BC
330
1B2
100
AcDbEntity
  8
0
100
AcDbBlockBegin
  2
*D15
 70
     1
 10
0.0
 20
0.0
 30
0.0
  3
*D15
  1

  0
LINE
  5
1B3
330
1B2
100
AcDbEntity
  8
0
 62
   123
100
AcDbLine
 10
-6124.591981145743
 20
-2292.367720195487
 30
0.0
 11
-6140.052369564455
 21
-2292.367720195487
 31
0.0
  0
LINE
  5
1B4
330
1B2
100
AcDbEntity
  8
0
 62
   123
100
AcDbLine
 10
-6124.591981145743
 20
-2223.367719061732
 30
0.0
 11
-6140.052369564455
 21
-2223.367719061732
 31
0.0
  0
LINE
  5
1B5
330
1B2
100
AcDbEntity
  8
0
 62
   123
100
AcDbLine
 10
-6139.452369564455
 20
-2288.867720195487
 30
0.0
 11
-6139.452369564455
 21
-2226.867719061731
 31
0.0
  0
SOLID
  5
1B6
330
1B2
100
AcDbEntity
  8
0
 62
   123
100
AcDbTrace
 10
-6140.035702897788
 20
-2288.867720195487
 30
0.0
 11
-6138.86903623112
 21
-2288.867720195487
 31
0.0
 12
-6139.452369564455
 22
-2292.367720195487
 32
0.0
 13
-6139.452369564455
 23
-2292.367720195487
 33
0.0
  0
SOLID
  5
1B7
330
1B2
100
AcDbEntity
  8
0
 62
   123
100
AcDbTrace
 10
-6140.035702897788
 20
-2226.867719061731
 30
0.0
 11
-6138.86903623112
 21
-2226.867719061731
 31
0.0
 12
-6139.452369564455
 22
-2223.367719061732
 32
0.0
 13
-6139.452369564455
 23
-2223.367719061732
 33
0.0
  0
MTEXT
  5
1B8
330
1B2
100
AcDbEntity
  8
0
 62
     3
100
AcDbMText
 10
-6142.702369564455
 20
-2257.687851780749
 30
0.0
 40
4.5
 41
0.0
 71
     5
 72
     1
  1
\A1;%%c69
 11
0.0000000000000001
 21
1.0
 31
0.0
1001
ACAD
1000
MTEXTBEGIN
1070
    73
1070
     1
1070
    44
1040
1.0
1070
    74
1070
     0
1000
MTEXTEND
  0
POINT
  5
1B9
330
1B2
100
AcDbEntity
  8
DEFPOINTS
 62
     0
100
AcDbPoint
 10
-6123.591981145743
 20
-2292.367720195487
 30
0.0
  0
POINT
  5
1BA
330
1B2
100
AcDbEntity
  8
DEFPOINTS
 62
     0
100
AcDbPoint
 10
-6123.591981145743
 20
-2223.367719061732
 30
0.0
  0
POINT
  5
1BB
330
1B2
100
AcDbEntity
  8
DEFPOINTS
 62
     0
100
AcDbPoint
 10
-6139.452369564455
 20
-2223.367719061732
 30
0.0
  0
ENDBLK
  5
1BD
330
1B2
100
AcDbEntity
  8
0
100
AcDbBlockEnd
  0
BLOCK
  5
1CB
330
1C1
100
AcDbEntity
  8
0
100
AcDbBlockBegin
  2
*D16
 70
     1
 10
0.0
 20
0.0
 30
0.0
  3
*D16
  1

  0
LINE
  5
1C2
330
1C1
100
AcDbEntity
  8
0
 62
   123
100
AcDbLine
 10
-6120.591981145743
 20
-2221.367719061731
 30
0.0
 11
-6153.016268547562
 21
-2221.367719061731
 31
0.0
  0
LINE
  5
1C3
330
1C1
100
AcDbEntity
  8
0
 62
   123
100
AcDbLine
 10
-6120.591981145743
 20
-2294.367719061731
 30
0.0
 11
-6153.016268547562
 21
-2294.367719061731
 31
0.0
  0
LINE
  5
1C4
330
1C1
100
AcDbEntity
  8
0
 62
   123
100
AcDbLine
 10
-6152.416268547562
 20
-2224.867719061732
 30
0.0
 11
-6152.416268547562
 21
-2290.867719061731
 31
0.0
  0
SOLID
  5
1C5
330
1C1
100
AcDbEntity
  8
0
 62
   123
100
AcDbTrace
 10
-6152.999601880895
 20
-2224.867719061732
 30
0.0
 11
-6151.83293521423
 21
-2224.867719061732
 31
0.0
 12
-6152.416268547562
 22
-2221.367719061731
 32
0.0
 13
-6152.416268547562
 23
-2221.367719061731
 33
0.0
  0
SOLID
  5
1C6
330
1C1
100
AcDbEntity
  8
0
 62
   123
100
AcDbTrace
 10
-6152.999601880895
 20
-2290.867719061731
 30
0.0
 11
-6151.83293521423
 21
-2290.867719061731
 31
0.0
 12
-6152.416268547562
 22
-2294.367719061731
 32
0.0
 13
-6152.416268547562
 23
-2294.367719061731
 33
0.0
  0
MTEXT
  5
1C7
330
1C1
100
AcDbEntity
  8
0
 62
     3
100
AcDbMText
 10
-6155.666268547562
 20
-2256.153593380088
 30
0.0
 40
4.5
 41
0.0
 71
     5
 72
     1
  1
\A1;%%c73
 11
0.0000000000000001
 21
1.0
 31
0.0
1001
ACAD
1000
MTEXTBEGIN
1070
    73
1070
     1
1070
    44
1040
1.0
1070
    74
1070
     0
1000
MTEXTEND
  0
POINT
  5
1C8
330
1C1
100
AcDbEntity
  8
DEFPOINTS
 62
     0
100
AcDbPoint
 10
-6119.591981145743
 20
-2221.367719061731
 30
0.0
  0
POINT
  5
1C9
330
1C1
100
AcDbEntity
  8
DEFPOINTS
 62
     0
100
AcDbPoint
 10
-6119.591981145743
 20
-2294.367719061731
 30
0.0
  0
POINT
  5
1CA
330
1C1
100
AcDbEntity
  8
DEFPOINTS
 62
     0
100
AcDbPoint
 10
-6152.416268547562
 20
-2294.367719061731
 30
0.0
  0
ENDBLK
  5
1CC
330
1C1
100
AcDbEntity
  8
0
100
AcDbBlockEnd
  0
BLOCK
  5
1EE
330
1E4
100
AcDbEntity
  8
0
100
AcDbBlockBegin
  2
*D17
 70
     1
 10
0.0
 20
0.0
 30
0.0
  3
*D17
  1

  0
LINE
  5
1E5
330
1E4
100
AcDbEntity
  8
0
 62
   123
100
AcDbLine
 10
-6098.591981145744
 20
-2295.86771906173
 30
0.0
 11
-6098.591981145744
 21
-2282.673884858341
 31
0.0
  0
LINE
  5
1E6
330
1E4
100
AcDbEntity
  8
0
 62
   123
100
AcDbLine
 10
-6068.591981145743
 20
-2296.36771906173
 30
0.0
 11
-6068.591981145743
 21
-2282.673884858341
 31
0.0
  0
LINE
  5
1E7
330
1E4
100
AcDbEntity
  8
0
 62
   123
100
AcDbLine
 10
-6095.091981145743
 20
-2283.27388485834
 30
0.0
 11
-6072.091981145743
 21
-2283.27388485834
 31
0.0
  0
SOLID
  5
1E8
330
1E4
100
AcDbEntity
  8
0
 62
   123
100
AcDbTrace
 10
-6095.091981145743
 20
-2282.690551525007
 30
0.0
 11
-6095.091981145743
 21
-2283.857218191673
 31
0.0
 12
-6098.591981145744
 22
-2283.27388485834
 32
0.0
 13
-6098.591981145744
 23
-2283.27388485834
 33
0.0
  0
SOLID
  5
1E9
330
1E4
100
AcDbEntity
  8
0
 62
   123
100
AcDbTrace
 10
-6072.091981145743
 20
-2282.690551525007
 30
0.0
 11
-6072.091981145743
 21
-2283.857218191673
 31
0.0
 12
-6068.591981145743
 22
-2283.27388485834
 32
0.0
 13
-6068.591981145743
 23
-2283.27388485834
 33
0.0
  0
MTEXT
  5
1EA
330
1E4
100
AcDbEntity
  8
0
 62
     3
100
AcDbMText
 10
-6083.045955141155
 20
-2280.02388485834
 30
0.0
 40
4.5
 41
0.0
 71
     5
 72
     1
  1
\A1;30
1001
ACAD
1000
MTEXTBEGIN
1070
    73
1070
     1
1070
    44
1040
1.0
1070
    74
1070
     0
1000
MTEXTEND
  0
POINT
  5
1EB
330
1E4
100
AcDbEntity
  8
DEFPOINTS
 62
     0
100
AcDbPoint
 10
-6098.591981145744
 20
-2296.867719061729
 30
0.0
  0
POINT
  5
1EC
330
1E4
100
AcDbEntity
  8
DEFPOINTS
 62
     0
100
AcDbPoint
 10
-6068.591981145743
 20
-2297.36771906173
 30
0.0
  0
POINT
  5
1ED
330
1E4
100
AcDbEntity
  8
DEFPOINTS
 62
     0
100
AcDbPoint
 10
-6068.591981145743
 20
-2283.27388485834
 30
0.0
  0
ENDBLK
  5
1EF
330
1E4
100
AcDbEntity
  8
0
100
AcDbBlockEnd
  0
BLOCK
  5
19C
330
190
100
AcDbEntity
  8
0
100
AcDbBlockBegin
  2
*D18
 70
     1
 10
0.0
 20
0.0
 30
0.0
  3
*D18
  1

  0
LINE
  5
191
330
190
100
AcDbEntity
  8
0
 62
   123
100
AcDbLine
 10
-6119.591981145743
 20
-2220.367719061731
 30
0.0
 11
-6119.591981145743
 21
-2202.326403447913
 31
0.0
  0
LINE
  5
192
330
190
100
AcDbEntity
  8
0
 62
   123
100
AcDbLine
 10
-6116.591981145743
 20
-2218.542706657089
 30
0.0
 11
-6116.591981145743
 21
-2202.326403447913
 31
0.0
  0
LINE
  5
193
330
190
100
AcDbEntity
  8
0
 62
   123
100
AcDbLine
 10
-6123.091981145742
 20
-2202.926403447913
 30
0.0
 11
-6126.591981145742
 21
-2202.926403447913
 31
0.0
  0
LINE
  5
194
330
190
100
AcDbEntity
  8
0
 62
   123
100
AcDbLine
 10
-6113.091981145743
 20
-2202.926403447913
 30
0.0
 11
-6100.591981145743
 21
-2202.926403447913
 31
0.0
  0
LINE
  5
195
330
190
100
AcDbEntity
  8
0
 62
   123
100
AcDbLine
 10
-6119.591981145743
 20
-2202.926403447913
 30
0.0
 11
-6116.591981145743
 21
-2202.926403447913
 31
0.0
  0
SOLID
  5
196
330
190
100
AcDbEntity
  8
0
 62
   123
100
AcDbTrace
 10
-6123.091981145742
 20
-2202.343070114579
 30
0.0
 11
-6123.091981145742
 21
-2203.509736781247
 31
0.0
 12
-6119.591981145743
 22
-2202.926403447913
 32
0.0
 13
-6119.591981145743
 23
-2202.926403447913
 33
0.0
  0
SOLID
  5
197
330
190
100
AcDbEntity
  8
0
 62
   123
100
AcDbTrace
 10
-6113.091981145743
 20
-2202.343070114579
 30
0.0
 11
-6113.091981145743
 21
-2203.509736781247
 31
0.0
 12
-6116.591981145743
 22
-2202.926403447913
 32
0.0
 13
-6116.591981145743
 23
-2202.926403447913
 33
0.0
  0
MTEXT
  5
198
330
190
100
AcDbEntity
  8
0
 62
     3
100
AcDbMText
 10
-6103.091981145744
 20
-2199.676403447913
 30
0.0
 40
4.5
 41
0.0
 71
     5
 72
     1
  1
\A1;3
1001
ACAD
1000
MTEXTBEGIN
1070
    73
1070
     1
1070
    44
1040
1.0
1070
    74
1070
     0
1000
MTEXTEND
  0
POINT
  5
199
330
190
100
AcDbEntity
  8
DEFPOINTS
 62
     0
100
AcDbPoint
 10
-6119.591981145743
 20
-2221.367719061731
 30
0.0
  0
POINT
  5
19A
330
190
100
AcDbEntity
  8
DEFPOINTS
 62
     0
100
AcDbPoint
 10
-6116.591981145743
 20
-2219.542706657088
 30
0.0
  0
POINT
  5
19B
330
190
100
AcDbEntity
  8
DEFPOINTS
 62
     0
100
AcDbPoint
 10
-6116.591981145743
 20
-2202.926403447913
 30
0.0
  0
ENDBLK
  5
19D
330
190
100
AcDbEntity
  8
0
100
AcDbBlockEnd
  0
BLOCK
  5
1AD
330
1A1
100
AcDbEntity
  8
0
100
AcDbBlockBegin
  2
*D19
 70
     1
 10
0.0
 20
0.0
 30
0.0
  3
*D19
  1

  0
LINE
  5
1A2
330
1A1
100
AcDbEntity
  8
0
 62
   123
100
AcDbLine
 10
-6123.591981145743
 20
-2217.36771906173
 30
0.0
 11
-6123.591981145743
 21
-2189.987549140757
 31
0.0
  0
LINE
  5
1A3
330
1A1
100
AcDbEntity
  8
0
 62
   123
100
AcDbLine
 10
-6116.591981145743
 20
-2217.36771906173
 30
0.0
 11
-6116.591981145743
 21
-2189.987549140757
 31
0.0
  0
LINE
  5
1A4
330
1A1
100
AcDbEntity
  8
0
 62
   123
100
AcDbLine
 10
-6127.091981145743
 20
-2190.587549140757
 30
0.0
 11
-6130.591981145744
 21
-2190.587549140757
 31
0.0
  0
LINE
  5
1A5
330
1A1
100
AcDbEntity
  8
0
 62
   123
100
AcDbLine
 10
-6113.091981145743
 20
-2190.587549140757
 30
0.0
 11
-6109.591981145744
 21
-2190.587549140757
 31
0.0
  0
LINE
  5
1A6
330
1A1
100
AcDbEntity
  8
0
 62
   123
100
AcDbLine
 10
-6123.591981145743
 20
-2190.587549140757
 30
0.0
 11
-6116.591981145743
 21
-2190.587549140757
 31
0.0
  0
SOLID
  5
1A7
330
1A1
100
AcDbEntity
  8
0
 62
   123
100
AcDbTrace
 10
-6127.091981145743
 20
-2190.004215807423
 30
0.0
 11
-6127.091981145743
 21
-2191.170882474091
 31
0.0
 12
-6123.591981145743
 22
-2190.587549140757
 32
0.0
 13
-6123.591981145743
 23
-2190.587549140757
 33
0.0
  0
SOLID
  5
1A8
330
1A1
100
AcDbEntity
  8
0
 62
   123
100
AcDbTrace
 10
-6113.091981145743
 20
-2190.004215807423
 30
0.0
 11
-6113.091981145743
 21
-2191.170882474091
 31
0.0
 12
-6116.591981145743
 22
-2190.587549140757
 32
0.0
 13
-6116.591981145743
 23
-2190.587549140757
 33
0.0
  0
MTEXT
  5
1A9
330
1A1
100
AcDbEntity
  8
0
 62
     3
100
AcDbMText
 10
-6120.091981145743
 20
-2187.337549140757
 30
0.0
 40
4.5
 41
0.0
 71
     5
 72
     1
  1
\A1;7
1001
ACAD
1000
MTEXTBEGIN
1070
    73
1070
     1
1070
    44
1040
1.0
1070
    74
1070
     0
1000
MTEXTEND
  0
POINT
  5
1AA
330
1A1
100
AcDbEntity
  8
DEFPOINTS
 62
     0
100
AcDbPoint
 10
-6123.591981145743
 20
-2218.367719061729
 30
0.0
  0
POINT
  5
1AB
330
1A1
100
AcDbEntity
  8
DEFPOINTS
 62
     0
100
AcDbPoint
 10
-6116.591981145743
 20
-2218.367719061729
 30
0.0
  0
POINT
  5
1AC
330
1A1
100
AcDbEntity
  8
DEFPOINTS
 62
     0
100
AcDbPoint
 10
-6116.591981145743
 20
-2190.587549140757
 30
0.0
  0
ENDBLK
  5
1AE
330
1A1
100
AcDbEntity
  8
0
100
AcDbBlockEnd
  0
BLOCK
  5
184
330
17D
100
AcDbEntity
  8
0
100
AcDbBlockBegin
  2
*D20
 70
     1
 10
0.0
 20
0.0
 30
0.0
  3
*D20
  1

  0
LINE
  5
17E
330
17D
100
AcDbEntity
  8
0
 62
   123
100
AcDbLine
 10
-6240.769013259562
 20
-2075.521735906709
 30
0.0
 11
-6225.003407287008
 21
-2061.541365011808
 31
0.0
  0
LINE
  5
17F
330
17D
100
AcDbEntity
  8
0
 62
   123
100
AcDbLine
 10
-6250.869689628419
 20
-2084.478651497004
 30
0.0
 11
-6243.387707132969
 21
-2077.843899207898
 31
0.0
  0
SOLID
  5
180
330
17D
100
AcDbEntity
  8
0
 62
   123
100
AcDbTrace
 10
-6241.156040476425
 20
-2075.08528692781
 30
0.0
 11
-6240.381986042698
 21
-2075.958184885612
 31
0.0
 12
-6243.387707132969
 22
-2077.843899207898
 32
0.0
 13
-6243.387707132969
 23
-2077.843899207898
 33
0.0
  0
MTEXT
  5
181
330
17D
100
AcDbEntity
  8
0
 62
     3
100
AcDbMText
 10
-6232.236761331452
 20
-2063.611874039823
 30
0.0
 40
4.5
 41
0.0
 71
     5
 72
     1
  1
\A1;R10
 11
0.7481982495448977
 21
0.6634752289105835
 31
0.0
1001
ACAD
1000
MTEXTBEGIN
1070
    73
1070
     1
1070
    44
1040
1.0
1070
    74
1070
     0
1000
MTEXTEND
  0
POINT
  5
182
330
17D
100
AcDbEntity
  8
DEFPOINTS
 62
     0
100
AcDbPoint
 10
-6243.387707132969
 20
-2077.843899207898
 30
0.0
  0
POINT
  5
183
330
17D
100
AcDbEntity
  8
DEFPOINTS
 62
     0
100
AcDbPoint
 10
-6250.869689628419
 20
-2084.478651497004
 30
0.0
  0
ENDBLK
  5
185
330
17D
100
AcDbEntity
  8
0
100
AcDbBlockEnd
  0
BLOCK
  5
170
330
166
100
AcDbEntity
  8
0
100
AcDbBlockBegin
  2
*D21
 70
     1
 10
0.0
 20
0.0
 30
0.0
  3
*D21
  1

  0
LINE
  5
167
330
166
100
AcDbEntity
  8
0
 62
   123
100
AcDbLine
 10
-6254.869689628416
 20
-2134.478651497004
 30
0.0
 11
-6212.6808345614
 21
-2134.478651497004
 31
0.0
  0
LINE
  5
168
330
166
100
AcDbEntity
  8
0
 62
   123
100
AcDbLine
 10
-6242.869689628417
 20
-2118.478651497005
 30
0.0
 11
-6212.6808345614
 21
-2118.478651497005
 31
0.0
  0
LINE
  5
169
330
166
100
AcDbEntity
  8
0
 62
   123
100
AcDbLine
 10
-6213.280834561398
 20
-2130.978651497005
 30
0.0
 11
-6213.280834561398
 21
-2121.978651497005
 31
0.0
  0
SOLID
  5
16A
330
166
100
AcDbEntity
  8
0
 62
   123
100
AcDbTrace
 10
-6213.864167894731
 20
-2130.978651497005
 30
0.0
 11
-6212.697501228067
 21
-2130.978651497005
 31
0.0
 12
-6213.280834561398
 22
-2134.478651497004
 32
0.0
 13
-6213.280834561398
 23
-2134.478651497004
 33
0.0
  0
SOLID
  5
16B
330
166
100
AcDbEntity
  8
0
 62
   123
100
AcDbTrace
 10
-6213.864167894731
 20
-2121.978651497005
 30
0.0
 11
-6212.697501228067
 21
-2121.978651497005
 31
0.0
 12
-6213.280834561398
 22
-2118.478651497005
 32
0.0
 13
-6213.280834561398
 23
-2118.478651497005
 33
0.0
  0
MTEXT
  5
16C
330
166
100
AcDbEntity
  8
0
 62
     3
100
AcDbMText
 10
-6216.530834561399
 20
-2125.090994478244
 30
0.0
 40
4.5
 41
0.0
 71
     5
 72
     1
  1
\A1;16
 11
0.0000000000000001
 21
1.0
 31
0.0
1001
ACAD
1000
MTEXTBEGIN
1070
    73
1070
     1
1070
    44
1040
1.0
1070
    74
1070
     0
1000
MTEXTEND
  0
POINT
  5
16D
330
166
100
AcDbEntity
  8
DEFPOINTS
 62
     0
100
AcDbPoint
 10
-6255.869689628418
 20
-2134.478651497004
 30
0.0
  0
POINT
  5
16E
330
166
100
AcDbEntity
  8
DEFPOINTS
 62
     0
100
AcDbPoint
 10
-6243.869689628418
 20
-2118.478651497005
 30
0.0
  0
POINT
  5
16F
330
166
100
AcDbEntity
  8
DEFPOINTS
 62
     0
100
AcDbPoint
 10
-6213.280834561398
 20
-2118.478651497005
 30
0.0
  0
ENDBLK
  5
171
330
166
100
AcDbEntity
  8
0
100
AcDbBlockEnd
  0
BLOCK
  5
88
330
7E
100
AcDbEntity
  8
0
100
AcDbBlockBegin
  2
*D22
 70
     1
 10
0.0
 20
0.0
 30
0.0
  3
*D22
  1

  0
LINE
  5
7F
330
7E
100
AcDbEntity
  8
0
 62
   123
100
AcDbLine
 10
-6351.869689628419
 20
-2068.478651497005
 30
0.0
 11
-6351.869689628419
 21
-2039.810083462274
 31
0.0
  0
LINE
  5
80
330
7E
100
AcDbEntity
  8
0
 62
   123
100
AcDbLine
 10
-6249.869689628416
 20
-2068.478651497005
 30
0.0
 11
-6249.869689628416
 21
-2039.810083462274
 31
0.0
  0
LINE
  5
81
330
7E
100
AcDbEntity
  8
0
 62
   123
100
AcDbLine
 10
-6348.369689628416
 20
-2040.410083462273
 30
0.0
 11
-6253.369689628416
 21
-2040.410083462273
 31
0.0
  0
SOLID
  5
82
330
7E
100
AcDbEntity
  8
0
 62
   123
100
AcDbTrace
 10
-6348.369689628416
 20
-2039.826750128939
 30
0.0
 11
-6348.369689628416
 21
-2040.993416795607
 31
0.0
 12
-6351.869689628419
 22
-2040.410083462273
 32
0.0
 13
-6351.869689628419
 23
-2040.410083462273
 33
0.0
  0
SOLID
  5
83
330
7E
100
AcDbEntity
  8
0
 62
   123
100
AcDbTrace
 10
-6253.369689628416
 20
-2039.826750128939
 30
0.0
 11
-6253.369689628416
 21
-2040.993416795607
 31
0.0
 12
-6249.869689628416
 22
-2040.410083462273
 32
0.0
 13
-6249.869689628416
 23
-2040.410083462273
 33
0.0
  0
MTEXT
  5
84
330
7E
100
AcDbEntity
  8
0
 62
     3
100
AcDbMText
 10
-6300.815492260351
 20
-2037.160083462273
 30
0.0
 40
4.5
 41
0.0
 71
     5
 72
     1
  1
\A1;102
1001
ACAD
1000
MTEXTBEGIN
1070
    73
1070
     1
1070
    44
1040
1.0
1070
    74
1070
     0
1000
MTEXTEND
  0
POINT
  5
85
330
7E
100
AcDbEntity
  8
DEFPOINTS
 62
     0
100
AcDbPoint
 10
-6351.869689628419
 20
-2069.478651497005
 30
0.0
  0
POINT
  5
86
330
7E
100
AcDbEntity
  8
DEFPOINTS
 62
     0
100
AcDbPoint
 10
-6249.869689628416
 20
-2069.478651497005
 30
0.0
  0
POINT
  5
87
330
7E
100
AcDbEntity
  8
DEFPOINTS
 62
     0
100
AcDbPoint
 10
-6249.869689628416
 20
-2040.410083462273
 30
0.0
  0
ENDBLK
  5
89
330
7E
100
AcDbEntity
  8
0
100
AcDbBlockEnd
  0
BLOCK
  5
B9
330
AF
100
AcDbEntity
  8
0
100
AcDbBlockBegin
  2
*D23
 70
     1
 10
0.0
 20
0.0
 30
0.0
  3
*D23
  1

  0
LINE
  5
B0
330
AF
100
AcDbEntity
  8
0
 62
   123
100
AcDbLine
 10
-6332.369689628417
 20
-2074.478651497005
 30
0.0
 11
-6311.444727325439
 21
-2074.478651497005
 31
0.0
  0
LINE
  5
B1
330
AF
100
AcDbEntity
  8
0
 62
   123
100
AcDbLine
 10
-6315.171469477098
 20
-2117.478651497005
 30
0.0
 11
-6311.444727325439
 21
-2117.478651497005
 31
0.0
  0
LINE
  5
B2
330
AF
100
AcDbEntity
  8
0
 62
   123
100
AcDbLine
 10
-6312.04472732544
 20
-2077.978651497005
 30
0.0
 11
-6312.04472732544
 21
-2113.978651497005
 31
0.0
  0
SOLID
  5
B3
330
AF
100
AcDbEntity
  8
0
 62
   123
100
AcDbTrace
 10
-6312.628060658774
 20
-2077.978651497005
 30
0.0
 11
-6311.461393992106
 21
-2077.978651497005
 31
0.0
 12
-6312.04472732544
 22
-2074.478651497005
 32
0.0
 13
-6312.04472732544
 23
-2074.478651497005
 33
0.0
  0
SOLID
  5
B4
330
AF
100
AcDbEntity
  8
0
 62
   123
100
AcDbTrace
 10
-6312.628060658774
 20
-2113.978651497005
 30
0.0
 11
-6311.461393992106
 21
-2113.978651497005
 31
0.0
 12
-6312.04472732544
 22
-2117.478651497005
 32
0.0
 13
-6312.04472732544
 23
-2117.478651497005
 33
0.0
  0
MTEXT
  5
B5
330
AF
100
AcDbEntity
  8
0
 62
     3
100
AcDbMText
 10
-6315.294727325438
 20
-2090.689067090842
 30
0.0
 40
4.5
 41
0.0
 71
     5
 72
     1
  1
\A1;43
 11
0.0000000000000001
 21
1.0
 31
0.0
1001
ACAD
1000
MTEXTBEGIN
1070
    73
1070
     1
1070
    44
1040
1.0
1070
    74
1070
     0
1000
MTEXTEND
  0
POINT
  5
B6
330
AF
100
AcDbEntity
  8
DEFPOINTS
 62
     0
100
AcDbPoint
 10
-6333.369689628415
 20
-2074.478651497005
 30
0.0
  0
POINT
  5
B7
330
AF
100
AcDbEntity
  8
DEFPOINTS
 62
     0
100
AcDbPoint
 10
-6316.171469477098
 20
-2117.478651497005
 30
0.0
  0
POINT
  5
B8
330
AF
100
AcDbEntity
  8
DEFPOINTS
 62
     0
100
AcDbPoint
 10
-6312.04472732544
 20
-2117.478651497005
 30
0.0
  0
ENDBLK
  5
BA
330
AF
100
AcDbEntity
  8
0
100
AcDbBlockEnd
  0
BLOCK
  5
214
330
20A
100
AcDbEntity
  8
0
100
AcDbBlockBegin
  2
*D24
 70
     1
 10
0.0
 20
0.0
 30
0.0
  3
*D24
  1

  0
LINE
  5
20B
330
20A
100
AcDbEntity
  8
0
 62
   123
100
AcDbLine
 10
37.78615757953776
 20
265.9868329748519
 30
0.0
 11
37.78615757953776
 21
294.6554010095841
 31
0.0
  0
LINE
  5
20C
330
20A
100
AcDbEntity
  8
0
 62
   123
100
AcDbLine
 10
139.7861575795395
 20
265.9868329748519
 30
0.0
 11
139.7861575795395
 21
294.6554010095841
 31
0.0
  0
LINE
  5
20D
330
20A
100
AcDbEntity
  8
0
 62
   123
100
AcDbLine
 10
41.28615757953776
 20
294.0554010095841
 30
0.0
 11
136.2861575795395
 21
294.0554010095841
 31
0.0
  0
SOLID
  5
20E
330
20A
100
AcDbEntity
  8
0
 62
   123
100
AcDbTrace
 10
41.28615757953776
 20
294.6387343429174
 30
0.0
 11
41.28615757953776
 21
293.4720676762507
 31
0.0
 12
37.78615757953776
 22
294.0554010095841
 32
0.0
 13
37.78615757953776
 23
294.0554010095841
 33
0.0
  0
SOLID
  5
20F
330
20A
100
AcDbEntity
  8
0
 62
   123
100
AcDbTrace
 10
136.2861575795395
 20
294.6387343429174
 30
0.0
 11
136.2861575795395
 21
293.4720676762507
 31
0.0
 12
139.7861575795395
 22
294.0554010095841
 32
0.0
 13
139.7861575795395
 23
294.0554010095841
 33
0.0
  0
MTEXT
  5
210
330
20A
100
AcDbEntity
  8
0
 62
     3
100
AcDbMText
 10
88.84035494760428
 20
297.305401009584
 30
0.0
 40
4.5
 41
0.0
 71
     5
 72
     1
  1
\A1;102
1001
ACAD
1000
MTEXTBEGIN
1070
    73
1070
     1
1070
    44
1040
1.0
1070
    74
1070
     0
1000
MTEXTEND
  0
POINT
  5
211
330
20A
100
AcDbEntity
  8
DEFPOINTS
 62
     0
100
AcDbPoint
 10
37.78615757953776
 20
264.9868329748519
 30
0.0
  0
POINT
  5
212
330
20A
100
AcDbEntity
  8
DEFPOINTS
 62
     0
100
AcDbPoint
 10
139.7861575795395
 20
264.9868329748519
 30
0.0
  0
POINT
  5
213
330
20A
100
AcDbEntity
  8
DEFPOINTS
 62
     0
100
AcDbPoint
 10
139.7861575795395
 20
294.0554010095841
 30
0.0
  0
ENDBLK
  5
215
330
20A
100
AcDbEntity
  8
0
100
AcDbBlockEnd
  0
BLOCK
  5
220
330
216
100
AcDbEntity
  8
0
100
AcDbBlockBegin
  2
*D25
 70
     1
 10
0.0
 20
0.0
 30
0.0
  3
*D25
  1

  0
LINE
  5
217
330
216
100
AcDbEntity
  8
0
 62
   123
100
AcDbLine
 10
43.78615757953958
 20
84.59776541012706
 30
0.0
 11
43.78615757953958
 21
144.8289181821101
 31
0.0
  0
LINE
  5
218
330
216
100
AcDbEntity
  8
0
 62
   123
100
AcDbLine
 10
133.7861575795377
 20
84.59776541012706
 30
0.0
 11
133.7861575795377
 21
144.8289181821101
 31
0.0
  0
LINE
  5
219
330
216
100
AcDbEntity
  8
0
 62
   123
100
AcDbLine
 10
47.28615757953958
 20
144.2289181821101
 30
0.0
 11
130.2861575795377
 21
144.2289181821101
 31
0.0
  0
SOLID
  5
21A
330
216
100
AcDbEntity
  8
0
 62
   123
100
AcDbTrace
 10
47.28615757953958
 20
144.8122515154435
 30
0.0
 11
47.28615757953958
 21
143.6455848487768
 31
0.0
 12
43.78615757953958
 22
144.2289181821101
 32
0.0
 13
43.78615757953958
 23
144.2289181821101
 33
0.0
  0
SOLID
  5
21B
330
216
100
AcDbEntity
  8
0
 62
   123
100
AcDbTrace
 10
130.2861575795377
 20
144.8122515154435
 30
0.0
 11
130.2861575795377
 21
143.6455848487768
 31
0.0
 12
133.7861575795377
 22
144.2289181821101
 32
0.0
 13
133.7861575795377
 23
144.2289181821101
 33
0.0
  0
MTEXT
  5
21C
330
216
100
AcDbEntity
  8
0
 62
     3
100
AcDbMText
 10
88.78615757953957
 20
147.4789181821101
 30
0.0
 40
4.5
 41
0.0
 71
     5
 72
     1
  1
\A1;90
1001
ACAD
1000
MTEXTBEGIN
1070
    73
1070
     1
1070
    44
1040
1.0
1070
    74
1070
     0
1000
MTEXTEND
  0
POINT
  5
21D
330
216
100
AcDbEntity
  8
DEFPOINTS
 62
     0
100
AcDbPoint
 10
43.78615757953958
 20
83.59776541012706
 30
0.0
  0
POINT
  5
21E
330
216
100
AcDbEntity
  8
DEFPOINTS
 62
     0
100
AcDbPoint
 10
133.7861575795377
 20
83.59776541012706
 30
0.0
  0
POINT
  5
21F
330
216
100
AcDbEntity
  8
DEFPOINTS
 62
     0
100
AcDbPoint
 10
133.7861575795377
 20
144.2289181821101
 30
0.0
  0
ENDBLK
  5
221
330
216
100
AcDbEntity
  8
0
100
AcDbBlockEnd
  0
BLOCK
  5
22C
330
222
100
AcDbEntity
  8
0
100
AcDbBlockBegin
  2
*D26
 70
     1
 10
0.0
 20
0.0
 30
0.0
  3
*D26
  1

  0
LINE
  5
223
330
222
100
AcDbEntity
  8
0
 62
   123
100
AcDbLine
 10
48.28615757953958
 20
115.5977654101261
 30
0.0
 11
48.28615757953958
 21
132.3026475517959
 31
0.0
  0
LINE
  5
224
330
222
100
AcDbEntity
  8
0
 62
   123
100
AcDbLine
 10
129.2861575795377
 20
115.5977654101261
 30
0.0
 11
129.2861575795377
 21
132.3026475517959
 31
0.0
  0
LINE
  5
225
330
222
100
AcDbEntity
  8
0
 62
   123
100
AcDbLine
 10
51.78615757953958
 20
131.7026475517959
 30
0.0
 11
125.7861575795377
 21
131.7026475517959
 31
0.0
  0
SOLID
  5
226
330
222
100
AcDbEntity
  8
0
 62
   123
100
AcDbTrace
 10
51.78615757953958
 20
132.2859808851293
 30
0.0
 11
51.78615757953958
 21
131.1193142184626
 31
0.0
 12
48.28615757953958
 22
131.7026475517959
 32
0.0
 13
48.28615757953958
 23
131.7026475517959
 33
0.0
  0
SOLID
  5
227
330
222
100
AcDbEntity
  8
0
 62
   123
100
AcDbTrace
 10
125.7861575795377
 20
132.2859808851293
 30
0.0
 11
125.7861575795377
 21
131.1193142184626
 31
0.0
 12
129.2861575795377
 22
131.7026475517959
 32
0.0
 13
129.2861575795377
 23
131.7026475517959
 33
0.0
  0
MTEXT
  5
228
330
222
100
AcDbEntity
  8
0
 62
     3
100
AcDbMText
 10
88.78615757953957
 20
134.9526475517959
 30
0.0
 40
4.5
 41
0.0
 71
     5
 72
     1
  1
\A1;81
1001
ACAD
1000
MTEXTBEGIN
1070
    73
1070
     1
1070
    44
1040
1.0
1070
    74
1070
     0
1000
MTEXTEND
  0
POINT
  5
229
330
222
100
AcDbEntity
  8
DEFPOINTS
 62
     0
100
AcDbPoint
 10
48.28615757953958
 20
114.5977654101261
 30
0.0
  0
POINT
  5
22A
330
222
100
AcDbEntity
  8
DEFPOINTS
 62
     0
100
AcDbPoint
 10
129.2861575795377
 20
114.5977654101261
 30
0.0
  0
POINT
  5
22B
330
222
100
AcDbEntity
  8
DEFPOINTS
 62
     0
100
AcDbPoint
 10
129.2861575795377
 20
131.7026475517959
 30
0.0
  0
ENDBLK
  5
22D
330
222
100
AcDbEntity
  8
0
100
AcDbBlockEnd
  0
BLOCK
  5
23A
330
22E
100
AcDbEntity
  8
0
100
AcDbBlockBegin
  2
*D27
 70
     1
 10
0.0
 20
0.0
 30
0.0
  3
*D27
  1

  0
LINE
  5
22F
330
22E
100
AcDbEntity
  8
0
 62
   123
100
AcDbLine
 10
115.7861575795377
 20
28.59776541012616
 30
0.0
 11
106.5987994788369
 21
28.59776541012616
 31
0.0
  0
LINE
  5
230
330
22E
100
AcDbEntity
  8
0
 62
   123
100
AcDbLine
 10
113.0314070309696
 20
29.59776541012615
 30
0.0
 11
106.5987994788369
 21
29.59776541012615
 31
0.0
  0
LINE
  5
231
330
22E
100
AcDbEntity
  8
0
 62
   123
100
AcDbLine
 10
107.1987994788369
 20
33.09776541012616
 30
0.0
 11
107.1987994788369
 21
36.59776541012616
 31
0.0
  0
LINE
  5
232
330
22E
100
AcDbEntity
  8
0
 62
   123
100
AcDbLine
 10
107.1987994788369
 20
25.09776541012616
 30
0.0
 11
107.1987994788369
 21
14.52633683869672
 31
0.0
  0
LINE
  5
233
330
22E
100
AcDbEntity
  8
0
 62
   123
100
AcDbLine
 10
107.1987994788369
 20
29.59776541012615
 30
0.0
 11
107.1987994788369
 21
28.59776541012616
 31
0.0
  0
SOLID
  5
234
330
22E
100
AcDbEntity
  8
0
 62
   123
100
AcDbTrace
 10
106.6154661455036
 20
33.09776541012616
 30
0.0
 11
107.7821328121702
 21
33.09776541012616
 31
0.0
 12
107.1987994788369
 22
29.59776541012615
 32
0.0
 13
107.1987994788369
 23
29.59776541012615
 33
0.0
  0
SOLID
  5
235
330
22E
100
AcDbEntity
  8
0
 62
   123
100
AcDbTrace
 10
106.6154661455035
 20
25.09776541012616
 30
0.0
 11
107.7821328121702
 21
25.09776541012616
 31
0.0
 12
107.1987994788369
 22
28.59776541012616
 32
0.0
 13
107.1987994788369
 23
28.59776541012616
 33
0.0
  0
MTEXT
  5
236
330
22E
100
AcDbEntity
  8
0
 62
     3
100
AcDbMText
 10
103.9487994788369
 20
16.06205112441102
 30
0.0
 40
4.5
 41
0.0
 71
     5
 72
     1
  1
\A1;1
 11
0.0000000000000001
 21
1.0
 31
0.0
1001
ACAD
1000
MTEXTBEGIN
1070
    73
1070
     1
1070
    44
1040
1.0
1070
    74
1070
     0
1000
MTEXTEND
  0
POINT
  5
237
330
22E
100
AcDbEntity
  8
DEFPOINTS
 62
     0
100
AcDbPoint
 10
116.7861575795377
 20
28.59776541012616
 30
0.0
  0
POINT
  5
238
330
22E
100
AcDbEntity
  8
DEFPOINTS
 62
     0
100
AcDbPoint
 10
114.0314070309696
 20
29.59776541012615
 30
0.0
  0
POINT
  5
239
330
22E
100
AcDbEntity
  8
DEFPOINTS
 62
     0
100
AcDbPoint
 10
107.1987994788369
 20
29.59776541012615
 30
0.0
  0
ENDBLK
  5
23B
330
22E
100
AcDbEntity
  8
0
100
AcDbBlockEnd
  0
BLOCK
  5
245
330
23C
100
AcDbEntity
  8
0
100
AcDbBlockBegin
  2
*D28
 70
     1
 10
0.0
 20
0.0
 30
0.0
  3
*D28
  1

  0
LINE
  5
333
330
23C
100
AcDbEntity
  8
0
 62
   123
100
AcDbLine
 10
49.61627196409647
 20
44.72348008484434
 30
0.0
 11
46.90152743608118
 21
42.51437118132442
 31
0.0
  0
LINE
  5
334
330
23C
100
AcDbEntity
  8
0
 62
   123
100
AcDbLine
 10
127.9560426296807
 20
108.4720513007052
 30
0.0
 11
160.2975425036535
 21
134.7897746030209
 31
0.0
  0
LINE
  5
335
330
23C
100
AcDbEntity
  8
0
 62
   123
100
AcDbLine
 10
52.33101649211176
 20
46.93258898836428
 30
0.0
 11
125.2412981016654
 21
106.2629423971853
 31
0.0
  0
SOLID
  5
336
330
23C
100
AcDbEntity
  8
0
 62
   123
100
AcDbTrace
 10
49.24808714684314
 20
45.17593750618022
 30
0.0
 11
49.98445678134979
 21
44.27102266350845
 31
0.0
 12
52.33101649211176
 22
46.93258898836428
 32
0.0
 13
52.33101649211176
 23
46.93258898836428
 33
0.0
  0
SOLID
  5
337
330
23C
100
AcDbEntity
  8
0
 62
   123
100
AcDbTrace
 10
127.5878578124273
 20
108.9245087220411
 30
0.0
 11
128.324227446934
 21
108.0195938793693
 31
0.0
 12
125.2412981016654
 22
106.2629423971853
 32
0.0
 13
125.2412981016654
 23
106.2629423971853
 33
0.0
  0
MTEXT
  5
338
330
23C
100
AcDbEntity
  8
0
 62
     3
100
AcDbMText
 10
146.7501150613407
 20
127.9557088590273
 30
0.0
 40
4.5
 41
0.0
 71
     5
 72
     1
  1
\A1;\U+220594%%P0.3
 11
0.7756412937186551
 21
0.6311739724342656
 31
0.0
1001
ACAD
1000
MTEXTBEGIN
1070
    73
1070
     1
1070
    44
1040
1.0
1070
    74
1070
     0
1000
MTEXTEND
  0
POINT
  5
339
330
23C
100
AcDbEntity
  8
DEFPOINTS
 62
     0
100
AcDbPoint
 10
125.2412981016654
 20
106.2629423971853
 30
0.0
  0
POINT
  5
33A
330
23C
100
AcDbEntity
  8
DEFPOINTS
 62
     0
100
AcDbPoint
 10
52.33101649211176
 20
46.93258898836428
 30
0.0
  0
ENDBLK
  5
246
330
23C
100
AcDbEntity
  8
0
100
AcDbBlockEnd
  0
BLOCK
  5
251
330
247
100
AcDbEntity
  8
0
100
AcDbBlockBegin
  2
*D29
 70
     1
 10
0.0
 20
0.0
 30
0.0
  3
*D29
  1

  0
LINE
  5
248
330
247
100
AcDbEntity
  8
0
 62
   123
100
AcDbLine
 10
28.78615757953957
 20
28.59776541012616
 30
0.0
 11
28.78615757953957
 21
4.447531674437776
 31
0.0
  0
LINE
  5
249
330
247
100
AcDbEntity
  8
0
 62
   123
100
AcDbLine
 10
148.7861575795377
 20
27.59776541012525
 30
0.0
 11
148.7861575795377
 21
4.447531674437776
 31
0.0
  0
LINE
  5
24A
330
247
100
AcDbEntity
  8
0
 62
   123
100
AcDbLine
 10
32.28615757953957
 20
5.047531674437777
 30
0.0
 11
145.2861575795377
 21
5.047531674437777
 31
0.0
  0
SOLID
  5
24B
330
247
100
AcDbEntity
  8
0
 62
   123
100
AcDbTrace
 10
32.28615757953957
 20
5.63086500777111
 30
0.0
 11
32.28615757953957
 21
4.464198341104444
 31
0.0
 12
28.78615757953957
 22
5.047531674437777
 32
0.0
 13
28.78615757953957
 23
5.047531674437777
 33
0.0
  0
SOLID
  5
24C
330
247
100
AcDbEntity
  8
0
 62
   123
100
AcDbTrace
 10
145.2861575795377
 20
5.63086500777111
 30
0.0
 11
145.2861575795377
 21
4.464198341104444
 31
0.0
 12
148.7861575795377
 22
5.047531674437777
 32
0.0
 13
148.7861575795377
 23
5.047531674437777
 33
0.0
  0
MTEXT
  5
24D
330
247
100
AcDbEntity
  8
0
 62
     3
100
AcDbMText
 10
89.28615757953776
 20
8.297531674437777
 30
0.0
 40
4.5
 41
0.0
 71
     5
 72
     1
  1
\A1;120
1001
ACAD
1000
MTEXTBEGIN
1070
    73
1070
     1
1070
    44
1040
1.0
1070
    74
1070
     0
1000
MTEXTEND
  0
POINT
  5
24E
330
247
100
AcDbEntity
  8
DEFPOINTS
 62
     0
100
AcDbPoint
 10
28.78615757953957
 20
29.59776541012615
 30
0.0
  0
POINT
  5
24F
330
247
100
AcDbEntity
  8
DEFPOINTS
 62
     0
100
AcDbPoint
 10
148.7861575795377
 20
28.59776541012525
 30
0.0
  0
POINT
  5
250
330
247
100
AcDbEntity
  8
DEFPOINTS
 62
     0
100
AcDbPoint
 10
148.7861575795377
 20
5.047531674437777
 30
0.0
  0
ENDBLK
  5
252
330
247
100
AcDbEntity
  8
0
100
AcDbBlockEnd
  0
BLOCK
  5
25D
330
253
100
AcDbEntity
  8
0
100
AcDbBlockBegin
  2
*D30
 70
     1
 10
0.0
 20
0.0
 30
0.0
  3
*D30
  1

  0
LINE
  5
254
330
253
100
AcDbEntity
  8
0
 62
   123
100
AcDbLine
 10
28.78615757953776
 20
28.59776541012616
 30
0.0
 11
11.43713616794266
 21
28.59776541012616
 31
0.0
  0
LINE
  5
255
330
253
100
AcDbEntity
  8
0
 62
   123
100
AcDbLine
 10
35.03905700405721
 20
76.59776541012615
 30
0.0
 11
11.43713616794267
 21
76.59776541012617
 31
0.0
  0
LINE
  5
256
330
253
100
AcDbEntity
  8
0
 62
   123
100
AcDbLine
 10
12.03713616794266
 20
32.09776541012616
 30
0.0
 11
12.03713616794267
 21
73.09776541012617
 31
0.0
  0
SOLID
  5
257
330
253
100
AcDbEntity
  8
0
 62
   123
100
AcDbTrace
 10
11.45380283460933
 20
32.09776541012616
 30
0.0
 11
12.620469501276
 21
32.09776541012616
 31
0.0
 12
12.03713616794266
 22
28.59776541012616
 32
0.0
 13
12.03713616794266
 23
28.59776541012616
 33
0.0
  0
SOLID
  5
258
330
253
100
AcDbEntity
  8
0
 62
   123
100
AcDbTrace
 10
11.45380283460934
 20
73.09776541012617
 30
0.0
 11
12.62046950127601
 21
73.09776541012617
 31
0.0
 12
12.03713616794267
 22
76.59776541012617
 32
0.0
 13
12.03713616794267
 23
76.59776541012617
 33
0.0
  0
MTEXT
  5
259
330
253
100
AcDbEntity
  8
0
 62
     3
100
AcDbMText
 10
8.787136167942662
 20
53.59776541012616
 30
0.0
 40
4.5
 41
0.0
 71
     5
 72
     1
  1
\A1;48%%P0.5
 11
0.0000000000000001
 21
1.0
 31
0.0
1001
ACAD
1000
MTEXTBEGIN
1070
    73
1070
     1
1070
    44
1040
1.0
1070
    74
1070
     0
1000
MTEXTEND
  0
POINT
  5
25A
330
253
100
AcDbEntity
  8
DEFPOINTS
 62
     0
100
AcDbPoint
 10
29.78615757953775
 20
28.59776541012616
 30
0.0
  0
POINT
  5
25B
330
253
100
AcDbEntity
  8
DEFPOINTS
 62
     0
100
AcDbPoint
 10
36.03905700405721
 20
76.59776541012615
 30
0.0
  0
POINT
  5
25C
330
253
100
AcDbEntity
  8
DEFPOINTS
 62
     0
100
AcDbPoint
 10
12.03713616794267
 20
76.59776541012617
 30
0.0
  0
ENDBLK
  5
25E
330
253
100
AcDbEntity
  8
0
100
AcDbBlockEnd
  0
BLOCK
  5
269
330
25F
100
AcDbEntity
  8
0
100
AcDbBlockBegin
  2
*D31
 70
     1
 10
0.0
 20
0.0
 30
0.0
  3
*D31
  1

  0
LINE
  5
260
330
25F
100
AcDbEntity
  8
0
 62
   123
100
AcDbLine
 10
28.78615757953776
 20
28.59776541012616
 30
0.0
 11
-2.318857555494646
 21
28.59776541012617
 31
0.0
  0
LINE
  5
261
330
25F
100
AcDbEntity
  8
0
 62
   123
100
AcDbLine
 10
42.78615757953957
 20
83.59776541012706
 30
0.0
 11
-2.318857555494633
 21
83.59776541012708
 31
0.0
  0
LINE
  5
262
330
25F
100
AcDbEntity
  8
0
 62
   123
100
AcDbLine
 10
-1.718857555494647
 20
32.09776541012617
 30
0.0
 11
-1.718857555494636
 21
80.09776541012708
 31
0.0
  0
SOLID
  5
263
330
25F
100
AcDbEntity
  8
0
 62
   123
100
AcDbTrace
 10
-2.30219088882798
 20
32.09776541012617
 30
0.0
 11
-1.135524222161313
 21
32.09776541012617
 31
0.0
 12
-1.718857555494647
 22
28.59776541012617
 32
0.0
 13
-1.718857555494647
 23
28.59776541012617
 33
0.0
  0
SOLID
  5
264
330
25F
100
AcDbEntity
  8
0
 62
   123
100
AcDbTrace
 10
-2.302190888827969
 20
80.09776541012708
 30
0.0
 11
-1.135524222161303
 21
80.09776541012708
 31
0.0
 12
-1.718857555494635
 22
83.59776541012708
 32
0.0
 13
-1.718857555494635
 23
83.59776541012708
 33
0.0
  0
MTEXT
  5
265
330
25F
100
AcDbEntity
  8
0
 62
     3
100
AcDbMText
 10
-4.968857555494651
 20
56.09776541012706
 30
0.0
 40
4.5
 41
0.0
 71
     5
 72
     1
  1
\A1;55
 11
0.0000000000000001
 21
1.0
 31
0.0
1001
ACAD
1000
MTEXTBEGIN
1070
    73
1070
     1
1070
    44
1040
1.0
1070
    74
1070
     0
1000
MTEXTEND
  0
POINT
  5
266
330
25F
100
AcDbEntity
  8
DEFPOINTS
 62
     0
100
AcDbPoint
 10
29.78615757953775
 20
28.59776541012616
 30
0.0
  0
POINT
  5
267
330
25F
100
AcDbEntity
  8
DEFPOINTS
 62
     0
100
AcDbPoint
 10
43.78615757953958
 20
83.59776541012706
 30
0.0
  0
POINT
  5
268
330
25F
100
AcDbEntity
  8
DEFPOINTS
 62
     0
100
AcDbPoint
 10
-1.718857555494635
 20
83.59776541012708
 30
0.0
  0
ENDBLK
  5
26A
330
25F
100
AcDbEntity
  8
0
100
AcDbBlockEnd
  0
BLOCK
  5
275
330
26B
100
AcDbEntity
  8
0
100
AcDbBlockBegin
  2
*D32
 70
     1
 10
0.0
 20
0.0
 30
0.0
  3
*D32
  1

  0
LINE
  5
26C
330
26B
100
AcDbEntity
  8
0
 62
   123
100
AcDbLine
 10
57.28615757954049
 20
259.9868329748519
 30
0.0
 11
78.21111988251655
 21
259.9868329748519
 31
0.0
  0
LINE
  5
26D
330
26B
100
AcDbEntity
  8
0
 62
   123
100
AcDbLine
 10
74.48437773085789
 20
216.9868329748519
 30
0.0
 11
78.21111988251653
 21
216.9868329748519
 31
0.0
  0
LINE
  5
26E
330
26B
100
AcDbEntity
  8
0
 62
   123
100
AcDbLine
 10
77.61111988251655
 20
256.4868329748519
 30
0.0
 11
77.61111988251653
 21
220.4868329748519
 31
0.0
  0
SOLID
  5
26F
330
26B
100
AcDbEntity
  8
0
 62
   123
100
AcDbTrace
 10
77.02778654918322
 20
256.4868329748519
 30
0.0
 11
78.19445321584987
 21
256.4868329748519
 31
0.0
 12
77.61111988251655
 22
259.9868329748519
 32
0.0
 13
77.61111988251655
 23
259.9868329748519
 33
0.0
  0
SOLID
  5
270
330
26B
100
AcDbEntity
  8
0
 62
   123
100
AcDbTrace
 10
77.0277865491832
 20
220.4868329748519
 30
0.0
 11
78.19445321584986
 21
220.4868329748519
 31
0.0
 12
77.61111988251653
 22
216.9868329748519
 32
0.0
 13
77.61111988251653
 23
216.9868329748519
 33
0.0
  0
MTEXT
  5
271
330
26B
100
AcDbEntity
  8
0
 62
     3
100
AcDbMText
 10
74.3611198825165
 20
243.7764173810141
 30
0.0
 40
4.5
 41
0.0
 71
     5
 72
     1
  1
\A1;43
 11
0.0000000000000001
 21
1.0
 31
0.0
1001
ACAD
1000
MTEXTBEGIN
1070
    73
1070
     1
1070
    44
1040
1.0
1070
    74
1070
     0
1000
MTEXTEND
  0
POINT
  5
272
330
26B
100
AcDbEntity
  8
DEFPOINTS
 62
     0
100
AcDbPoint
 10
56.28615757954048
 20
259.9868329748519
 30
0.0
  0
POINT
  5
273
330
26B
100
AcDbEntity
  8
DEFPOINTS
 62
     0
100
AcDbPoint
 10
73.48437773085788
 20
216.9868329748519
 30
0.0
  0
POINT
  5
274
330
26B
100
AcDbEntity
  8
DEFPOINTS
 62
     0
100
AcDbPoint
 10
77.61111988251653
 20
216.9868329748519
 30
0.0
  0
ENDBLK
  5
276
330
26B
100
AcDbEntity
  8
0
100
AcDbBlockEnd
  0
BLOCK
  5
27E
330
277
100
AcDbEntity
  8
0
100
AcDbBlockBegin
  2
*D33
 70
     1
 10
0.0
 20
0.0
 30
0.0
  3
*D33
  1

  0
LINE
  5
278
330
277
100
AcDbEntity
  8
0
 62
   123
100
AcDbLine
 10
28.71843227866588
 20
204.2530706215403
 30
0.0
 11
9.067102972458599
 21
190.2540963578368
 31
0.0
  0
LINE
  5
279
330
277
100
AcDbEntity
  8
0
 62
   123
100
AcDbLine
 10
43.78615757954048
 20
214.9868329748519
 30
0.0
 11
31.56908301126384
 21
206.2837824181128
 31
0.0
  0
SOLID
  5
27A
330
277
100
AcDbEntity
  8
0
 62
   123
100
AcDbTrace
 10
28.37998031257047
 20
204.7281790769732
 30
0.0
 11
29.05688424476132
 21
203.7779621661072
 31
0.0
 12
31.56908301126384
 22
206.2837824181128
 32
0.0
 13
31.56908301126384
 23
206.2837824181128
 33
0.0
  0
MTEXT
  5
27B
330
277
100
AcDbEntity
  8
0
 62
     3
100
AcDbMText
 10
12.70821384700465
 20
196.8382234804408
 30
0.0
 40
4.5
 41
0.0
 71
     5
 72
     1
  1
\A1;R15
 11
0.8144716378851294
 21
0.5802033704492887
 31
0.0
1001
ACAD
1000
MTEXTBEGIN
1070
    73
1070
     1
1070
    44
1040
1.0
1070
    74
1070
     0
1000
MTEXTEND
  0
POINT
  5
27C
330
277
100
AcDbEntity
  8
DEFPOINTS
 62
     0
100
AcDbPoint
 10
31.56908301126384
 20
206.2837824181128
 30
0.0
  0
POINT
  5
27D
330
277
100
AcDbEntity
  8
DEFPOINTS
 62
     0
100
AcDbPoint
 10
43.78615757954048
 20
214.9868329748519
 30
0.0
  0
ENDBLK
  5
27F
330
277
100
AcDbEntity
  8
0
100
AcDbBlockEnd
  0
BLOCK
  5
28C
330
280
100
AcDbEntity
  8
0
100
AcDbBlockBegin
  2
*D34
 70
     1
 10
0.0
 20
0.0
 30
0.0
  3
*D34
  1

  0
LINE
  5
281
330
280
100
AcDbEntity
  8
0
 62
   123
100
AcDbLine
 10
33.58615757953703
 20
251.9868329748528
 30
0.0
 11
33.58615757953703
 21
269.7409014865999
 31
0.0
  0
LINE
  5
282
330
280
100
AcDbEntity
  8
0
 62
   123
100
AcDbLine
 10
41.98615757953757
 20
251.9868329748528
 30
0.0
 11
41.98615757953757
 21
269.7409014865999
 31
0.0
  0
LINE
  5
283
330
280
100
AcDbEntity
  8
0
 62
   123
100
AcDbLine
 10
45.48615757953757
 20
269.1409014865998
 30
0.0
 11
48.98615757953757
 21
269.1409014865998
 31
0.0
  0
LINE
  5
284
330
280
100
AcDbEntity
  8
0
 62
   123
100
AcDbLine
 10
30.08615757953703
 20
269.1409014865998
 30
0.0
 11
10.75044329382476
 21
269.1409014865998
 31
0.0
  0
LINE
  5
285
330
280
100
AcDbEntity
  8
0
 62
   123
100
AcDbLine
 10
41.98615757953757
 20
269.1409014865998
 30
0.0
 11
33.58615757953703
 21
269.1409014865998
 31
0.0
  0
SOLID
  5
286
330
280
100
AcDbEntity
  8
0
 62
   123
100
AcDbTrace
 10
45.48615757953757
 20
269.7242348199332
 30
0.0
 11
45.48615757953757
 21
268.5575681532665
 31
0.0
 12
41.98615757953757
 22
269.1409014865998
 32
0.0
 13
41.98615757953757
 23
269.1409014865998
 33
0.0
  0
SOLID
  5
287
330
280
100
AcDbEntity
  8
0
 62
   123
100
AcDbTrace
 10
30.08615757953703
 20
269.7242348199332
 30
0.0
 11
30.08615757953703
 21
268.5575681532665
 31
0.0
 12
33.58615757953703
 22
269.1409014865998
 32
0.0
 13
33.58615757953703
 23
269.1409014865998
 33
0.0
  0
MTEXT
  5
288
330
280
100
AcDbEntity
  8
0
 62
     3
100
AcDbMText
 10
16.57187186525334
 20
272.3909014865999
 30
0.0
 40
4.5
 41
0.0
 71
     5
 72
     1
  1
\A1;8.4
1001
ACAD
1000
MTEXTBEGIN
1070
    73
1070
     1
1070
    44
1040
1.0
1070
    74
1070
     0
1000
MTEXTEND
  0
POINT
  5
289
330
280
100
AcDbEntity
  8
DEFPOINTS
 62
     0
100
AcDbPoint
 10
33.58615757953703
 20
250.9868329748528
 30
0.0
  0
POINT
  5
28A
330
280
100
AcDbEntity
  8
DEFPOINTS
 62
     0
100
AcDbPoint
 10
41.98615757953757
 20
250.9868329748528
 30
0.0
  0
POINT
  5
28B
330
280
100
AcDbEntity
  8
DEFPOINTS
 62
     0
100
AcDbPoint
 10
41.98615757953757
 20
269.1409014865998
 30
0.0
  0
ENDBLK
  5
28D
330
280
100
AcDbEntity
  8
0
100
AcDbBlockEnd
  0
BLOCK
  5
29A
330
28E
100
AcDbEntity
  8
0
100
AcDbBlockBegin
  2
*D35
 70
     1
 10
0.0
 20
0.0
 30
0.0
  3
*D35
  1

  0
LINE
  5
28F
330
28E
100
AcDbEntity
  8
0
 62
   123
100
AcDbLine
 10
35.33615757953794
 20
248.2368329748528
 30
0.0
 11
19.3469300235642
 21
248.2368329748528
 31
0.0
  0
LINE
  5
290
330
28E
100
AcDbEntity
  8
0
 62
   123
100
AcDbLine
 10
35.33615757953794
 20
253.7368329748528
 30
0.0
 11
19.3469300235642
 21
253.7368329748528
 31
0.0
  0
LINE
  5
291
330
28E
100
AcDbEntity
  8
0
 62
   123
100
AcDbLine
 10
19.9469300235642
 20
244.7368329748528
 30
0.0
 11
19.9469300235642
 21
241.2368329748528
 31
0.0
  0
LINE
  5
292
330
28E
100
AcDbEntity
  8
0
 62
   123
100
AcDbLine
 10
19.9469300235642
 20
257.2368329748528
 30
0.0
 11
19.9469300235642
 21
260.7368329748528
 31
0.0
  0
LINE
  5
293
330
28E
100
AcDbEntity
  8
0
 62
   123
100
AcDbLine
 10
19.9469300235642
 20
248.2368329748528
 30
0.0
 11
19.9469300235642
 21
253.7368329748528
 31
0.0
  0
SOLID
  5
294
330
28E
100
AcDbEntity
  8
0
 62
   123
100
AcDbTrace
 10
19.36359669023087
 20
244.7368329748528
 30
0.0
 11
20.53026335689753
 21
244.7368329748528
 31
0.0
 12
19.9469300235642
 22
248.2368329748528
 32
0.0
 13
19.9469300235642
 23
248.2368329748528
 33
0.0
  0
SOLID
  5
295
330
28E
100
AcDbEntity
  8
0
 62
   123
100
AcDbTrace
 10
19.36359669023087
 20
257.2368329748528
 30
0.0
 11
20.53026335689753
 21
257.2368329748528
 31
0.0
 12
19.9469300235642
 22
253.7368329748528
 32
0.0
 13
19.9469300235642
 23
253.7368329748528
 33
0.0
  0
MTEXT
  5
296
330
28E
100
AcDbEntity
  8
0
 62
     3
100
AcDbMText
 10
16.69693002356416
 20
250.9868329748528
 30
0.0
 40
4.5
 41
0.0
 71
     5
 72
     1
  1
\A1;5.5
 11
0.0000000000000001
 21
1.0
 31
0.0
1001
ACAD
1000
MTEXTBEGIN
1070
    73
1070
     1
1070
    44
1040
1.0
1070
    74
1070
     0
1000
MTEXTEND
  0
POINT
  5
297
330
28E
100
AcDbEntity
  8
DEFPOINTS
 62
     0
100
AcDbPoint
 10
36.33615757953794
 20
248.2368329748528
 30
0.0
  0
POINT
  5
298
330
28E
100
AcDbEntity
  8
DEFPOINTS
 62
     0
100
AcDbPoint
 10
36.33615757953794
 20
253.7368329748528
 30
0.0
  0
POINT
  5
299
330
28E
100
AcDbEntity
  8
DEFPOINTS
 62
     0
100
AcDbPoint
 10
19.9469300235642
 20
253.7368329748528
 30
0.0
  0
ENDBLK
  5
29B
330
28E
100
AcDbEntity
  8
0
100
AcDbBlockEnd
  0
BLOCK
  5
2A6
330
29C
100
AcDbEntity
  8
0
100
AcDbBlockBegin
  2
*D36
 70
     1
 10
0.0
 20
0.0
 30
0.0
  3
*D36
  1

  0
LINE
  5
29D
330
29C
100
AcDbEntity
  8
0
 62
   123
100
AcDbLine
 10
63.78615757954048
 20
255.4868329748519
 30
0.0
 11
63.78615757954048
 21
283.7367565423902
 31
0.0
  0
LINE
  5
29E
330
29C
100
AcDbEntity
  8
0
 62
   123
100
AcDbLine
 10
113.7861575795395
 20
256.3673932994752
 30
0.0
 11
113.7861575795395
 21
283.7367565423902
 31
0.0
  0
LINE
  5
29F
330
29C
100
AcDbEntity
  8
0
 62
   123
100
AcDbLine
 10
67.28615757954049
 20
283.1367565423902
 30
0.0
 11
110.2861575795395
 21
283.1367565423902
 31
0.0
  0
SOLID
  5
2A0
330
29C
100
AcDbEntity
  8
0
 62
   123
100
AcDbTrace
 10
67.28615757954049
 20
283.7200898757235
 30
0.0
 11
67.28615757954049
 21
282.5534232090569
 31
0.0
 12
63.78615757954048
 22
283.1367565423902
 32
0.0
 13
63.78615757954048
 23
283.1367565423902
 33
0.0
  0
SOLID
  5
2A1
330
29C
100
AcDbEntity
  8
0
 62
   123
100
AcDbTrace
 10
110.2861575795395
 20
283.7200898757235
 30
0.0
 11
110.2861575795395
 21
282.5534232090569
 31
0.0
 12
113.7861575795395
 22
283.1367565423902
 32
0.0
 13
113.7861575795395
 23
283.1367565423902
 33
0.0
  0
MTEXT
  5
2A2
330
29C
100
AcDbEntity
  8
0
 62
     3
100
AcDbMText
 10
89.33748145968094
 20
286.3867565423902
 30
0.0
 40
4.5
 41
0.0
 71
     5
 72
     1
  1
\A1;50
1001
ACAD
1000
MTEXTBEGIN
1070
    73
1070
     1
1070
    44
1040
1.0
1070
    74
1070
     0
1000
MTEXTEND
  0
POINT
  5
2A3
330
29C
100
AcDbEntity
  8
DEFPOINTS
 62
     0
100
AcDbPoint
 10
63.78615757954048
 20
254.4868329748519
 30
0.0
  0
POINT
  5
2A4
330
29C
100
AcDbEntity
  8
DEFPOINTS
 62
     0
100
AcDbPoint
 10
113.7861575795395
 20
255.3673932994752
 30
0.0
  0
POINT
  5
2A5
330
29C
100
AcDbEntity
  8
DEFPOINTS
 62
     0
100
AcDbPoint
 10
113.7861575795395
 20
283.1367565423902
 30
0.0
  0
ENDBLK
  5
2A7
330
29C
100
AcDbEntity
  8
0
100
AcDbBlockEnd
  0
BLOCK
  5
2B2
330
2A8
100
AcDbEntity
  8
0
100
AcDbBlockBegin
  2
*D37
 70
     1
 10
0.0
 20
0.0
 30
0.0
  3
*D37
  1

  0
LINE
  5
2A9
330
2A8
100
AcDbEntity
  8
0
 62
   123
100
AcDbLine
 10
269.0638660622125
 20
113.0977654101252
 30
0.0
 11
236.6395786603947
 21
113.0977654101252
 31
0.0
  0
LINE
  5
2AA
330
2A8
100
AcDbEntity
  8
0
 62
   123
100
AcDbLine
 10
269.0638660622125
 20
40.09776541012525
 30
0.0
 11
236.6395786603947
 21
40.09776541012525
 31
0.0
  0
LINE
  5
2AB
330
2A8
100
AcDbEntity
  8
0
 62
   123
100
AcDbLine
 10
237.2395786603947
 20
109.5977654101252
 30
0.0
 11
237.2395786603947
 21
43.59776541012525
 31
0.0
  0
SOLID
  5
2AC
330
2A8
100
AcDbEntity
  8
0
 62
   123
100
AcDbTrace
 10
236.6562453270613
 20
109.5977654101252
 30
0.0
 11
237.8229119937281
 21
109.5977654101252
 31
0.0
 12
237.2395786603947
 22
113.0977654101252
 32
0.0
 13
237.2395786603947
 23
113.0977654101252
 33
0.0
  0
SOLID
  5
2AD
330
2A8
100
AcDbEntity
  8
0
 62
   123
100
AcDbTrace
 10
236.6562453270613
 20
43.59776541012525
 30
0.0
 11
237.822911993728
 21
43.59776541012525
 31
0.0
 12
237.2395786603947
 22
40.09776541012525
 32
0.0
 13
237.2395786603947
 23
40.09776541012525
 33
0.0
  0
MTEXT
  5
2AE
330
2A8
100
AcDbEntity
  8
0
 62
     3
100
AcDbMText
 10
233.9895786603947
 20
78.31189109176921
 30
0.0
 40
4.5
 41
0.0
 71
     5
 72
     1
  1
\A1;%%c73
 11
0.0000000000000001
 21
1.0
 31
0.0
1001
ACAD
1000
MTEXTBEGIN
1070
    73
1070
     1
1070
    44
1040
1.0
1070
    74
1070
     0
1000
MTEXTEND
  0
POINT
  5
2AF
330
2A8
100
AcDbEntity
  8
DEFPOINTS
 62
     0
100
AcDbPoint
 10
270.0638660622125
 20
113.0977654101252
 30
0.0
  0
POINT
  5
2B0
330
2A8
100
AcDbEntity
  8
DEFPOINTS
 62
     0
100
AcDbPoint
 10
270.0638660622125
 20
40.09776541012525
 30
0.0
  0
POINT
  5
2B1
330
2A8
100
AcDbEntity
  8
DEFPOINTS
 62
     0
100
AcDbPoint
 10
237.2395786603947
 20
40.09776541012525
 30
0.0
  0
ENDBLK
  5
2B3
330
2A8
100
AcDbEntity
  8
0
100
AcDbBlockEnd
  0
BLOCK
  5
2BE
330
2B4
100
AcDbEntity
  8
0
100
AcDbBlockBegin
  2
*D38
 70
     1
 10
0.0
 20
0.0
 30
0.0
  3
*D38
  1

  0
LINE
  5
2B5
330
2B4
100
AcDbEntity
  8
0
 62
   123
100
AcDbLine
 10
265.0638660622125
 20
42.09776427637007
 30
0.0
 11
249.6034776435011
 21
42.09776427637007
 31
0.0
  0
LINE
  5
2B6
330
2B4
100
AcDbEntity
  8
0
 62
   123
100
AcDbLine
 10
265.0638660622125
 20
111.0977654101252
 30
0.0
 11
249.6034776435012
 21
111.0977654101252
 31
0.0
  0
LINE
  5
2B7
330
2B4
100
AcDbEntity
  8
0
 62
   123
100
AcDbLine
 10
250.2034776435011
 20
45.59776427637006
 30
0.0
 11
250.2034776435011
 21
107.5977654101252
 31
0.0
  0
SOLID
  5
2B8
330
2B4
100
AcDbEntity
  8
0
 62
   123
100
AcDbTrace
 10
249.6201443101678
 20
45.59776427637006
 30
0.0
 11
250.7868109768345
 21
45.59776427637006
 31
0.0
 12
250.2034776435011
 22
42.09776427637007
 32
0.0
 13
250.2034776435011
 23
42.09776427637007
 33
0.0
  0
SOLID
  5
2B9
330
2B4
100
AcDbEntity
  8
0
 62
   123
100
AcDbTrace
 10
249.6201443101678
 20
107.5977654101252
 30
0.0
 11
250.7868109768345
 21
107.5977654101252
 31
0.0
 12
250.2034776435011
 22
111.0977654101252
 32
0.0
 13
250.2034776435011
 23
111.0977654101252
 33
0.0
  0
MTEXT
  5
2BA
330
2B4
100
AcDbEntity
  8
0
 62
     3
100
AcDbMText
 10
246.9534776435011
 20
76.77763269110801
 30
0.0
 40
4.5
 41
0.0
 71
     5
 72
     1
  1
\A1;%%c69
 11
0.0000000000000001
 21
1.0
 31
0.0
1001
ACAD
1000
MTEXTBEGIN
1070
    73
1070
     1
1070
    44
1040
1.0
1070
    74
1070
     0
1000
MTEXTEND
  0
POINT
  5
2BB
330
2B4
100
AcDbEntity
  8
DEFPOINTS
 62
     0
100
AcDbPoint
 10
266.0638660622125
 20
42.09776427637007
 30
0.0
  0
POINT
  5
2BC
330
2B4
100
AcDbEntity
  8
DEFPOINTS
 62
     0
100
AcDbPoint
 10
266.0638660622125
 20
111.0977654101252
 30
0.0
  0
POINT
  5
2BD
330
2B4
100
AcDbEntity
  8
DEFPOINTS
 62
     0
100
AcDbPoint
 10
250.2034776435011
 20
111.0977654101252
 30
0.0
  0
ENDBLK
  5
2BF
330
2B4
100
AcDbEntity
  8
0
100
AcDbBlockEnd
  0
BLOCK
  5
2CA
330
2C0
100
AcDbEntity
  8
0
100
AcDbBlockBegin
  2
*D39
 70
     1
 10
0.0
 20
0.0
 30
0.0
  3
*D39
  1

  0
LINE
  5
2C1
330
2C0
100
AcDbEntity
  8
0
 62
   123
100
AcDbLine
 10
148.7861575795395
 20
28.59776541012616
 30
0.0
 11
173.2600475789373
 21
28.59776541012615
 31
0.0
  0
LINE
  5
2C2
330
2C0
100
AcDbEntity
  8
0
 62
   123
100
AcDbLine
 10
123.2861575795395
 20
117.0977654101252
 30
0.0
 11
173.2600475789373
 21
117.0977654101252
 31
0.0
  0
LINE
  5
2C3
330
2C0
100
AcDbEntity
  8
0
 62
   123
100
AcDbLine
 10
172.6600475789373
 20
32.09776541012615
 30
0.0
 11
172.6600475789373
 21
113.5977654101252
 31
0.0
  0
SOLID
  5
2C4
330
2C0
100
AcDbEntity
  8
0
 62
   123
100
AcDbTrace
 10
172.076714245604
 20
32.09776541012615
 30
0.0
 11
173.2433809122706
 21
32.09776541012615
 31
0.0
 12
172.6600475789373
 22
28.59776541012615
 32
0.0
 13
172.6600475789373
 23
28.59776541012615
 33
0.0
  0
SOLID
  5
2C5
330
2C0
100
AcDbEntity
  8
0
 62
   123
100
AcDbTrace
 10
172.076714245604
 20
113.5977654101252
 30
0.0
 11
173.2433809122707
 21
113.5977654101252
 31
0.0
 12
172.6600475789373
 22
117.0977654101252
 32
0.0
 13
172.6600475789373
 23
117.0977654101252
 33
0.0
  0
MTEXT
  5
2C6
330
2C0
100
AcDbEntity
  8
0
 62
     3
100
AcDbMText
 10
169.4100475789373
 20
81.27305270177021
 30
0.0
 40
4.5
 41
0.0
 71
     5
 72
     1
  1
\A1;88.5
 11
0.0000000000000001
 21
1.0
 31
0.0
1001
ACAD
1000
MTEXTBEGIN
1070
    73
1070
     1
1070
    44
1040
1.0
1070
    74
1070
     0
1000
MTEXTEND
  0
POINT
  5
2C7
330
2C0
100
AcDbEntity
  8
DEFPOINTS
 62
     0
100
AcDbPoint
 10
147.7861575795395
 20
28.59776541012616
 30
0.0
  0
POINT
  5
2C8
330
2C0
100
AcDbEntity
  8
DEFPOINTS
 62
     0
100
AcDbPoint
 10
122.2861575795395
 20
117.0977654101252
 30
0.0
  0
POINT
  5
2C9
330
2C0
100
AcDbEntity
  8
DEFPOINTS
 62
     0
100
AcDbPoint
 10
172.6600475789373
 20
117.0977654101252
 30
0.0
  0
ENDBLK
  5
2CB
330
2C0
100
AcDbEntity
  8
0
100
AcDbBlockEnd
  0
BLOCK
  5
2D6
330
2CC
100
AcDbEntity
  8
0
100
AcDbBlockBegin
  2
*D40
 70
     1
 10
0.0
 20
0.0
 30
0.0
  3
*D40
  1

  0
LINE
  5
2CD
330
2CC
100
AcDbEntity
  8
0
 62
   123
100
AcDbLine
 10
148.7861575795395
 20
28.59776541012616
 30
0.0
 11
163.1851950453497
 21
28.59776541012615
 31
0.0
  0
LINE
  5
2CE
330
2CC
100
AcDbEntity
  8
0
 62
   123
100
AcDbLine
 10
148.7861575795395
 20
37.59776541012616
 30
0.0
 11
163.1851950453497
 21
37.59776541012616
 31
0.0
  0
LINE
  5
2CF
330
2CC
100
AcDbEntity
  8
0
 62
   123
100
AcDbLine
 10
162.5851950453498
 20
32.09776541012615
 30
0.0
 11
162.5851950453498
 21
34.09776541012615
 31
0.0
  0
SOLID
  5
2D0
330
2CC
100
AcDbEntity
  8
0
 62
   123
100
AcDbTrace
 10
162.0018617120164
 20
32.09776541012615
 30
0.0
 11
163.1685283786831
 21
32.09776541012615
 31
0.0
 12
162.5851950453498
 22
28.59776541012615
 32
0.0
 13
162.5851950453498
 23
28.59776541012615
 33
0.0
  0
SOLID
  5
2D1
330
2CC
100
AcDbEntity
  8
0
 62
   123
100
AcDbTrace
 10
162.0018617120164
 20
34.09776541012615
 30
0.0
 11
163.1685283786831
 21
34.09776541012615
 31
0.0
 12
162.5851950453498
 22
37.59776541012616
 32
0.0
 13
162.5851950453498
 23
37.59776541012616
 33
0.0
  0
MTEXT
  5
2D2
330
2CC
100
AcDbEntity
  8
0
 62
     3
100
AcDbMText
 10
159.3351950453497
 20
33.09776541012524
 30
0.0
 40
4.5
 41
0.0
 71
     5
 72
     1
  1
\A1;9
 11
0.0000000000000001
 21
1.0
 31
0.0
1001
ACAD
1000
MTEXTBEGIN
1070
    73
1070
     1
1070
    44
1040
1.0
1070
    74
1070
     0
1000
MTEXTEND
  0
POINT
  5
2D3
330
2CC
100
AcDbEntity
  8
DEFPOINTS
 62
     0
100
AcDbPoint
 10
147.7861575795395
 20
28.59776541012616
 30
0.0
  0
POINT
  5
2D4
330
2CC
100
AcDbEntity
  8
DEFPOINTS
 62
     0
100
AcDbPoint
 10
147.7861575795395
 20
37.59776541012616
 30
0.0
  0
POINT
  5
2D5
330
2CC
100
AcDbEntity
  8
DEFPOINTS
 62
     0
100
AcDbPoint
 10
162.5851950453498
 20
37.59776541012616
 30
0.0
  0
ENDBLK
  5
2D7
330
2CC
100
AcDbEntity
  8
0
100
AcDbBlockEnd
  0
BLOCK
  5
2E2
330
2D8
100
AcDbEntity
  8
0
100
AcDbBlockBegin
  2
*D41
 70
     1
 10
0.0
 20
0.0
 30
0.0
  3
*D41
  1

  0
LINE
  5
2D9
330
2D8
100
AcDbEntity
  8
0
 62
   123
100
AcDbLine
 10
291.0638660622126
 20
38.59776541012706
 30
0.0
 11
291.0638660622126
 21
51.79159961351715
 31
0.0
  0
LINE
  5
2DA
330
2D8
100
AcDbEntity
  8
0
 62
   123
100
AcDbLine
 10
321.0638660622125
 20
38.09776541012706
 30
0.0
 11
321.0638660622125
 21
51.79159961351715
 31
0.0
  0
LINE
  5
2DB
330
2D8
100
AcDbEntity
  8
0
 62
   123
100
AcDbLine
 10
294.5638660622126
 20
51.19159961351716
 30
0.0
 11
317.5638660622126
 21
51.19159961351716
 31
0.0
  0
SOLID
  5
2DC
330
2D8
100
AcDbEntity
  8
0
 62
   123
100
AcDbTrace
 10
294.5638660622126
 20
51.77493294685049
 30
0.0
 11
294.5638660622126
 21
50.60826628018382
 31
0.0
 12
291.0638660622126
 22
51.19159961351716
 32
0.0
 13
291.0638660622126
 23
51.19159961351716
 33
0.0
  0
SOLID
  5
2DD
330
2D8
100
AcDbEntity
  8
0
 62
   123
100
AcDbTrace
 10
317.5638660622126
 20
51.77493294685049
 30
0.0
 11
317.5638660622126
 21
50.60826628018382
 31
0.0
 12
321.0638660622125
 22
51.19159961351716
 32
0.0
 13
321.0638660622125
 23
51.19159961351716
 33
0.0
  0
MTEXT
  5
2DE
330
2D8
100
AcDbEntity
  8
0
 62
     3
100
AcDbMText
 10
306.6098920668009
 20
54.44159961351715
 30
0.0
 40
4.5
 41
0.0
 71
     5
 72
     1
  1
\A1;30
1001
ACAD
1000
MTEXTBEGIN
1070
    73
1070
     1
1070
    44
1040
1.0
1070
    74
1070
     0
1000
MTEXTEND
  0
POINT
  5
2DF
330
2D8
100
AcDbEntity
  8
DEFPOINTS
 62
     0
100
AcDbPoint
 10
291.0638660622126
 20
37.59776541012707
 30
0.0
  0
POINT
  5
2E0
330
2D8
100
AcDbEntity
  8
DEFPOINTS
 62
     0
100
AcDbPoint
 10
321.0638660622125
 20
37.09776541012706
 30
0.0
  0
POINT
  5
2E1
330
2D8
100
AcDbEntity
  8
DEFPOINTS
 62
     0
100
AcDbPoint
 10
321.0638660622125
 20
51.19159961351716
 30
0.0
  0
ENDBLK
  5
2E3
330
2D8
100
AcDbEntity
  8
0
100
AcDbBlockEnd
  0
BLOCK
  5
2EE
330
2E4
100
AcDbEntity
  8
0
100
AcDbBlockBegin
  2
*D42
 70
     1
 10
0.0
 20
0.0
 30
0.0
  3
*D42
  1

  0
LINE
  5
2E5
330
2E4
100
AcDbEntity
  8
0
 62
   123
100
AcDbLine
 10
266.0638660622125
 20
36.59776541012706
 30
0.0
 11
266.0638660622125
 21
13.38375862875991
 31
0.0
  0
LINE
  5
2E6
330
2E4
100
AcDbEntity
  8
0
 62
   123
100
AcDbLine
 10
321.0638660622125
 20
28.09776541012706
 30
0.0
 11
321.0638660622125
 21
13.38375862875991
 31
0.0
  0
LINE
  5
2E7
330
2E4
100
AcDbEntity
  8
0
 62
   123
100
AcDbLine
 10
269.5638660622126
 20
13.98375862875991
 30
0.0
 11
317.5638660622126
 21
13.98375862875991
 31
0.0
  0
SOLID
  5
2E8
330
2E4
100
AcDbEntity
  8
0
 62
   123
100
AcDbTrace
 10
269.5638660622126
 20
14.56709196209325
 30
0.0
 11
269.5638660622126
 21
13.40042529542658
 31
0.0
 12
266.0638660622125
 22
13.98375862875991
 32
0.0
 13
266.0638660622125
 23
13.98375862875991
 33
0.0
  0
SOLID
  5
2E9
330
2E4
100
AcDbEntity
  8
0
 62
   123
100
AcDbTrace
 10
317.5638660622126
 20
14.56709196209325
 30
0.0
 11
317.5638660622126
 21
13.40042529542658
 31
0.0
 12
321.0638660622125
 22
13.98375862875991
 32
0.0
 13
321.0638660622125
 23
13.98375862875991
 33
0.0
  0
MTEXT
  5
2EA
330
2E4
100
AcDbEntity
  8
0
 62
     3
100
AcDbMText
 10
295.0638660622125
 20
17.23375862875991
 30
0.0
 40
4.5
 41
0.0
 71
     5
 72
     1
  1
\A1;55
1001
ACAD
1000
MTEXTBEGIN
1070
    73
1070
     1
1070
    44
1040
1.0
1070
    74
1070
     0
1000
MTEXTEND
  0
POINT
  5
2EB
330
2E4
100
AcDbEntity
  8
DEFPOINTS
 62
     0
100
AcDbPoint
 10
266.0638660622125
 20
37.59776541012707
 30
0.0
  0
POINT
  5
2EC
330
2E4
100
AcDbEntity
  8
DEFPOINTS
 62
     0
100
AcDbPoint
 10
321.0638660622125
 20
29.09776541012707
 30
0.0
  0
POINT
  5
2ED
330
2E4
100
AcDbEntity
  8
DEFPOINTS
 62
     0
100
AcDbPoint
 10
321.0638660622125
 20
13.98375862875991
 30
0.0
  0
ENDBLK
  5
2EF
330
2E4
100
AcDbEntity
  8
0
100
AcDbBlockEnd
  0
BLOCK
  5
2FA
330
2F0
100
AcDbEntity
  8
0
100
AcDbBlockBegin
  2
*D43
 70
     1
 10
0.0
 20
0.0
 30
0.0
  3
*D43
  1

  0
LINE
  5
2F1
330
2F0
100
AcDbEntity
  8
0
 62
   123
100
AcDbLine
 10
146.7861575795377
 20
215.9868329748519
 30
0.0
 11
176.9750126465593
 21
215.9868329748519
 31
0.0
  0
LINE
  5
2F2
330
2F0
100
AcDbEntity
  8
0
 62
   123
100
AcDbLine
 10
145.89504836808
 20
250.9868329748528
 30
0.0
 11
176.9750126465593
 21
250.9868329748528
 31
0.0
  0
LINE
  5
2F3
330
2F0
100
AcDbEntity
  8
0
 62
   123
100
AcDbLine
 10
176.3750126465593
 20
219.4868329748519
 30
0.0
 11
176.3750126465593
 21
247.4868329748528
 31
0.0
  0
SOLID
  5
2F4
330
2F0
100
AcDbEntity
  8
0
 62
   123
100
AcDbTrace
 10
175.7916793132259
 20
219.4868329748519
 30
0.0
 11
176.9583459798926
 21
219.4868329748519
 31
0.0
 12
176.3750126465593
 22
215.9868329748519
 32
0.0
 13
176.3750126465593
 23
215.9868329748519
 33
0.0
  0
SOLID
  5
2F5
330
2F0
100
AcDbEntity
  8
0
 62
   123
100
AcDbTrace
 10
175.7916793132259
 20
247.4868329748528
 30
0.0
 11
176.9583459798926
 21
247.4868329748528
 31
0.0
 12
176.3750126465593
 22
250.9868329748528
 32
0.0
 13
176.3750126465593
 23
250.9868329748528
 33
0.0
  0
MTEXT
  5
2F6
330
2F0
100
AcDbEntity
  8
0
 62
     3
100
AcDbMText
 10
173.1250126465593
 20
240.269850543827
 30
0.0
 40
4.5
 41
0.0
 71
     5
 72
     1
  1
\A1;35
 11
0.0000000000000001
 21
1.0
 31
0.0
1001
ACAD
1000
MTEXTBEGIN
1070
    73
1070
     1
1070
    44
1040
1.0
1070
    74
1070
     0
1000
MTEXTEND
  0
POINT
  5
2F7
330
2F0
100
AcDbEntity
  8
DEFPOINTS
 62
     0
100
AcDbPoint
 10
145.7861575795377
 20
215.9868329748519
 30
0.0
  0
POINT
  5
2F8
330
2F0
100
AcDbEntity
  8
DEFPOINTS
 62
     0
100
AcDbPoint
 10
144.89504836808
 20
250.9868329748528
 30
0.0
  0
POINT
  5
2F9
330
2F0
100
AcDbEntity
  8
DEFPOINTS
 62
     0
100
AcDbPoint
 10
176.3750126465593
 20
250.9868329748528
 30
0.0
  0
ENDBLK
  5
2FB
330
2F0
100
AcDbEntity
  8
0
100
AcDbBlockEnd
  0
BLOCK
  5
306
330
2FC
100
AcDbEntity
  8
0
100
AcDbBlockBegin
  2
*D44
 70
     1
 10
0.0
 20
0.0
 30
0.0
  3
*D44
  1

  0
LINE
  5
2FD
330
2FC
100
AcDbEntity
  8
0
 62
   123
100
AcDbLine
 10
134.7861575795377
 20
199.9868329748528
 30
0.0
 11
176.9750126465584
 21
199.9868329748528
 31
0.0
  0
LINE
  5
2FE
330
2FC
100
AcDbEntity
  8
0
 62
   123
100
AcDbLine
 10
146.7861575795377
 20
215.9868329748519
 30
0.0
 11
176.9750126465584
 21
215.9868329748519
 31
0.0
  0
LINE
  5
2FF
330
2FC
100
AcDbEntity
  8
0
 62
   123
100
AcDbLine
 10
176.3750126465584
 20
203.4868329748528
 30
0.0
 11
176.3750126465584
 21
212.4868329748519
 31
0.0
  0
SOLID
  5
300
330
2FC
100
AcDbEntity
  8
0
 62
   123
100
AcDbTrace
 10
175.7916793132251
 20
203.4868329748528
 30
0.0
 11
176.9583459798917
 21
203.4868329748528
 31
0.0
 12
176.3750126465584
 22
199.9868329748528
 32
0.0
 13
176.3750126465584
 23
199.9868329748528
 33
0.0
  0
SOLID
  5
301
330
2FC
100
AcDbEntity
  8
0
 62
   123
100
AcDbTrace
 10
175.7916793132251
 20
212.4868329748519
 30
0.0
 11
176.9583459798917
 21
212.4868329748519
 31
0.0
 12
176.3750126465584
 22
215.9868329748519
 32
0.0
 13
176.3750126465584
 23
215.9868329748519
 33
0.0
  0
MTEXT
  5
302
330
2FC
100
AcDbEntity
  8
0
 62
     3
100
AcDbMText
 10
173.1250126465583
 20
209.3744899936123
 30
0.0
 40
4.5
 41
0.0
 71
     5
 72
     1
  1
\A1;16
 11
0.0000000000000001
 21
1.0
 31
0.0
1001
ACAD
1000
MTEXTBEGIN
1070
    73
1070
     1
1070
    44
1040
1.0
1070
    74
1070
     0
1000
MTEXTEND
  0
POINT
  5
303
330
2FC
100
AcDbEntity
  8
DEFPOINTS
 62
     0
100
AcDbPoint
 10
133.7861575795377
 20
199.9868329748528
 30
0.0
  0
POINT
  5
304
330
2FC
100
AcDbEntity
  8
DEFPOINTS
 62
     0
100
AcDbPoint
 10
145.7861575795377
 20
215.9868329748519
 30
0.0
  0
POINT
  5
305
330
2FC
100
AcDbEntity
  8
DEFPOINTS
 62
     0
100
AcDbPoint
 10
176.3750126465584
 20
215.9868329748519
 30
0.0
  0
ENDBLK
  5
307
330
2FC
100
AcDbEntity
  8
0
100
AcDbBlockEnd
  0
BLOCK
  5
30F
330
308
100
AcDbEntity
  8
0
100
AcDbBlockBegin
  2
*D45
 70
     1
 10
0.0
 20
0.0
 30
0.0
  3
*D45
  1

  0
LINE
  5
32D
330
308
100
AcDbEntity
  8
0
 62
   123
100
AcDbLine
 10
148.8868339483965
 20
258.9437485651453
 30
0.0
 11
164.6524399209507
 21
272.9241194600473
 31
0.0
  0
LINE
  5
32E
330
308
100
AcDbEntity
  8
0
 62
   123
100
AcDbLine
 10
138.7861575795395
 20
249.9868329748519
 30
0.0
 11
146.2681400749893
 21
256.6215852639583
 31
0.0
  0
SOLID
  5
32F
330
308
100
AcDbEntity
  8
0
 62
   123
100
AcDbTrace
 10
148.499806731532
 20
259.3801975440464
 30
0.0
 11
149.273861165261
 21
258.5072995862441
 31
0.0
 12
146.2681400749893
 22
256.6215852639583
 32
0.0
 13
146.2681400749893
 23
256.6215852639583
 33
0.0
  0
MTEXT
  5
330
330
308
100
AcDbEntity
  8
0
 62
     3
100
AcDbMText
 10
157.4190858765081
 20
270.8536104320323
 30
0.0
 40
4.5
 41
0.0
 71
     5
 72
     1
  1
\A1;R10
 11
0.7481982495449066
 21
0.6634752289105734
 31
0.0
1001
ACAD
1000
MTEXTBEGIN
1070
    73
1070
     1
1070
    44
1040
1.0
1070
    74
1070
     0
1000
MTEXTEND
  0
POINT
  5
331
330
308
100
AcDbEntity
  8
DEFPOINTS
 62
     0
100
AcDbPoint
 10
146.2681400749893
 20
256.6215852639583
 30
0.0
  0
POINT
  5
332
330
308
100
AcDbEntity
  8
DEFPOINTS
 62
     0
100
AcDbPoint
 10
138.7861575795395
 20
249.9868329748519
 30
0.0
  0
ENDBLK
  5
310
330
308
100
AcDbEntity
  8
0
100
AcDbBlockEnd
  0
BLOCK
  5
31D
330
311
100
AcDbEntity
  8
0
100
AcDbBlockBegin
  2
*D46
 70
     1
 10
0.0
 20
0.0
 30
0.0
  3
*D46
  1

  0
LINE
  5
312
330
311
100
AcDbEntity
  8
0
 62
   123
100
AcDbLine
 10
266.0638660622125
 20
117.097765410127
 30
0.0
 11
266.0638660622125
 21
144.4779353310996
 31
0.0
  0
LINE
  5
313
330
311
100
AcDbEntity
  8
0
 62
   123
100
AcDbLine
 10
273.0638660622125
 20
117.097765410127
 30
0.0
 11
273.0638660622125
 21
144.4779353310996
 31
0.0
  0
LINE
  5
314
330
311
100
AcDbEntity
  8
0
 62
   123
100
AcDbLine
 10
262.5638660622125
 20
143.8779353310997
 30
0.0
 11
259.0638660622125
 21
143.8779353310997
 31
0.0
  0
LINE
  5
315
330
311
100
AcDbEntity
  8
0
 62
   123
100
AcDbLine
 10
276.5638660622125
 20
143.8779353310997
 30
0.0
 11
280.0638660622126
 21
143.8779353310997
 31
0.0
  0
LINE
  5
316
330
311
100
AcDbEntity
  8
0
 62
   123
100
AcDbLine
 10
266.0638660622125
 20
143.8779353310997
 30
0.0
 11
273.0638660622125
 21
143.8779353310997
 31
0.0
  0
SOLID
  5
317
330
311
100
AcDbEntity
  8
0
 62
   123
100
AcDbTrace
 10
262.5638660622125
 20
144.461268664433
 30
0.0
 11
262.5638660622125
 21
143.2946019977663
 31
0.0
 12
266.0638660622125
 22
143.8779353310997
 32
0.0
 13
266.0638660622125
 23
143.8779353310997
 33
0.0
  0
SOLID
  5
318
330
311
100
AcDbEntity
  8
0
 62
   123
100
AcDbTrace
 10
276.5638660622125
 20
144.461268664433
 30
0.0
 11
276.5638660622125
 21
143.2946019977663
 31
0.0
 12
273.0638660622125
 22
143.8779353310997
 32
0.0
 13
273.0638660622125
 23
143.8779353310997
 33
0.0
  0
MTEXT
  5
319
330
311
100
AcDbEntity
  8
0
 62
     3
100
AcDbMText
 10
269.5638660622126
 20
147.1279353310997
 30
0.0
 40
4.5
 41
0.0
 71
     5
 72
     1
  1
\A1;7
1001
ACAD
1000
MTEXTBEGIN
1070
    73
1070
     1
1070
    44
1040
1.0
1070
    74
1070
     0
1000
MTEXTEND
  0
POINT
  5
31A
330
311
100
AcDbEntity
  8
DEFPOINTS
 62
     0
100
AcDbPoint
 10
266.0638660622125
 20
116.097765410127
 30
0.0
  0
POINT
  5
31B
330
311
100
AcDbEntity
  8
DEFPOINTS
 62
     0
100
AcDbPoint
 10
273.0638660622125
 20
116.097765410127
 30
0.0
  0
POINT
  5
31C
330
311
100
AcDbEntity
  8
DEFPOINTS
 62
     0
100
AcDbPoint
 10
273.0638660622125
 20
143.8779353310997
 30
0.0
  0
ENDBLK
  5
31E
330
311
100
AcDbEntity
  8
0
100
AcDbBlockEnd
  0
BLOCK
  5
32B
330
31F
100
AcDbEntity
  8
0
100
AcDbBlockBegin
  2
*D47
 70
     1
 10
0.0
 20
0.0
 30
0.0
  3
*D47
  1

  0
LINE
  5
320
330
31F
100
AcDbEntity
  8
0
 62
   123
100
AcDbLine
 10
270.0638660622125
 20
114.0977654101252
 30
0.0
 11
270.0638660622125
 21
132.1390810239441
 31
0.0
  0
LINE
  5
321
330
31F
100
AcDbEntity
  8
0
 62
   123
100
AcDbLine
 10
273.0638660622125
 20
115.9227778147692
 30
0.0
 11
273.0638660622125
 21
132.1390810239441
 31
0.0
  0
LINE
  5
322
330
31F
100
AcDbEntity
  8
0
 62
   123
100
AcDbLine
 10
266.5638660622125
 20
131.5390810239441
 30
0.0
 11
263.0638660622125
 21
131.5390810239441
 31
0.0
  0
LINE
  5
323
330
31F
100
AcDbEntity
  8
0
 62
   123
100
AcDbLine
 10
276.5638660622125
 20
131.5390810239441
 30
0.0
 11
289.0638660622125
 21
131.5390810239441
 31
0.0
  0
LINE
  5
324
330
31F
100
AcDbEntity
  8
0
 62
   123
100
AcDbLine
 10
270.0638660622125
 20
131.5390810239441
 30
0.0
 11
273.0638660622125
 21
131.5390810239441
 31
0.0
  0
SOLID
  5
325
330
31F
100
AcDbEntity
  8
0
 62
   123
100
AcDbTrace
 10
266.5638660622125
 20
132.1224143572775
 30
0.0
 11
266.5638660622125
 21
130.9557476906108
 31
0.0
 12
270.0638660622125
 22
131.5390810239441
 32
0.0
 13
270.0638660622125
 23
131.5390810239441
 33
0.0
  0
SOLID
  5
326
330
31F
100
AcDbEntity
  8
0
 62
   123
100
AcDbTrace
 10
276.5638660622125
 20
132.1224143572775
 30
0.0
 11
276.5638660622125
 21
130.9557476906108
 31
0.0
 12
273.0638660622125
 22
131.5390810239441
 32
0.0
 13
273.0638660622125
 23
131.5390810239441
 33
0.0
  0
MTEXT
  5
327
330
31F
100
AcDbEntity
  8
0
 62
     3
100
AcDbMText
 10
286.5638660622126
 20
134.7890810239441
 30
0.0
 40
4.5
 41
0.0
 71
     5
 72
     1
  1
\A1;3
1001
ACAD
1000
MTEXTBEGIN
1070
    73
1070
     1
1070
    44
1040
1.0
1070
    74
1070
     0
1000
MTEXTEND
  0
POINT
  5
328
330
31F
100
AcDbEntity
  8
DEFPOINTS
 62
     0
100
AcDbPoint
 10
270.0638660622125
 20
113.0977654101252
 30
0.0
  0
POINT
  5
329
330
31F
100
AcDbEntity
  8
DEFPOINTS
 62
     0
100
AcDbPoint
 10
273.0638660622125
 20
114.9227778147692
 30
0.0
  0
POINT
  5
32A
330
31F
100
AcDbEntity
  8
DEFPOINTS
 62
     0
100
AcDbPoint
 10
273.0638660622125
 20
131.5390810239441
 30
0.0
  0
ENDBLK
  5
32C
330
31F
100
AcDbEntity
  8
0
100
AcDbBlockEnd
  0
ENDSEC
  0
SECTION
  2
ENTITIES
  0
DIMENSION
  5
29
330
2
100
AcDbEntity
  8
0
100
AcDbDimension
  2
*D29
 10
148.7861575795377
 20
5.047531674437777
 30
0.0
 11
89.28615757953776
 21
5.047531674437777
 31
0.0
 70
   160
  3
1_5
100
AcDbAlignedDimension
 13
28.78615757953957
 23
29.59776541012615
 33
0.0
 14
148.7861575795377
 24
28.59776541012525
 34
0.0
100
AcDbRotatedDimension
  0
DIMENSION
  5
38
102
{ACAD_XDICTIONARY
360
39
102
}
102
{ACAD_REACTORS
330
3A
102
}
330
2
100
AcDbEntity
  8
0
100
AcDbDimension
  2
*D28
 10
52.33101649211176
 20
46.93258898836428
 30
0.0
 11
148.801430471752
 21
125.4348746544416
 31
0.0
 70
   163
  1
<>%%P0.3
  3
1_5
100
AcDbDiametricDimension
 15
125.2412981016654
 25
106.2629423971853
 35
0.0
 40
0.0
  0
CIRCLE
  5
46
330
2
100
AcDbEntity
  8
HI
100
AcDbCircle
 10
88.78615757953957
 20
76.59776541012615
 30
0.0
 40
36.5
  0
CIRCLE
  5
49
330
2
100
AcDbEntity
  8
0
100
AcDbCircle
 10
88.78615757953957
 20
76.59776541012615
 30
0.0
 40
34.5
  0
LINE
  5
4A
330
2
100
AcDbEntity
  8
0
 62
    35
100
AcDbLine
 10
48.28615757953958
 20
37.59776541012616
 30
0.0
 11
129.2861575795377
 21
37.59776541012616
 31
0.0
  0
LINE
  5
4B
102
{ACAD_REACTORS
330
C6
330
4E
102
}
330
2
100
AcDbEntity
  8
0
100
AcDbLine
 10
63.78615757953958
 20
29.59776541012615
 30
0.0
 11
115.7861575795395
 21
29.59776541012615
 31
0.0
  0
DIMENSION
  5
4C
102
{ACAD_XDICTIONARY
360
4D
102
}
102
{ACAD_REACTORS
330
4E
102
}
330
2
100
AcDbEntity
  8
0
100
AcDbDimension
  2
*D27
 10
107.1987994788369
 20
29.59776541012615
 30
0.0
 11
107.1987994788369
 21
16.06205112441102
 31
0.0
 70
   160
  3
1_5
100
AcDbAlignedDimension
 13
116.7861575795377
 23
28.59776541012616
 33
0.0
 14
114.0314070309696
 24
29.59776541012615
 34
0.0
 50
90.0
100
AcDbRotatedDimension
  0
LINE
  5
5D
102
{ACAD_REACTORS
330
137
102
}
330
2
100
AcDbEntity
  8
0
100
AcDbLine
 10
55.28615757953957
 20
117.0977654101261
 30
0.0
 11
122.2861575795395
 21
117.0977654101252
 31
0.0
  0
DIMENSION
  5
5E
330
2
100
AcDbEntity
  8
0
100
AcDbDimension
  2
*D26
 10
129.2861575795377
 20
131.7026475517959
 30
0.0
 11
88.78615757953957
 21
131.7026475517959
 31
0.0
 70
   160
  3
1_5
100
AcDbAlignedDimension
 13
48.28615757953958
 23
114.5977654101261
 33
0.0
 14
129.2861575795377
 24
114.5977654101261
 34
0.0
100
AcDbRotatedDimension
  0
LINE
  5
6B
102
{ACAD_REACTORS
330
D5
102
}
330
2
100
AcDbEntity
  8
CEN
100
AcDbLine
 10
36.03905700405721
 20
76.59776541012615
 30
0.0
 11
141.5332581550201
 21
76.59776541012615
 31
0.0
  0
DIMENSION
  5
6E
330
2
100
AcDbEntity
  8
0
100
AcDbDimension
  2
*D25
 10
133.7861575795377
 20
144.2289181821101
 30
0.0
 11
88.78615757953957
 21
144.2289181821101
 31
0.0
 70
   160
  3
1_5
100
AcDbAlignedDimension
 13
43.78615757953958
 23
83.59776541012706
 33
0.0
 14
133.7861575795377
 24
83.59776541012706
 34
0.0
100
AcDbRotatedDimension
  0
DIMENSION
  5
7B
102
{ACAD_XDICTIONARY
360
7C
102
}
102
{ACAD_REACTORS
330
7D
102
}
330
2
100
AcDbEntity
  8
0
100
AcDbDimension
  2
*D24
 10
139.7861575795395
 20
294.0554010095841
 30
0.0
 11
88.84035494760428
 21
294.0554010095841
 31
0.0
 70
   160
  3
1_5
100
AcDbAlignedDimension
 13
37.78615757953776
 23
264.9868329748519
 33
0.0
 14
139.7861575795395
 24
264.9868329748519
 34
0.0
100
AcDbRotatedDimension
  0
DIMENSION
  5
8A
330
2
100
AcDbEntity
  8
0
100
AcDbDimension
  2
*D36
 10
113.7861575795395
 20
283.1367565423902
 30
0.0
 11
89.33748145968094
 21
283.1367565423902
 31
0.0
 70
   160
  3
1_5
100
AcDbAlignedDimension
 13
63.78615757954048
 23
254.4868329748519
 33
0.0
 14
113.7861575795395
 24
255.3673932994752
 34
0.0
100
AcDbRotatedDimension
  0
LINE
  5
97
330
2
100
AcDbEntity
  8
0
100
AcDbLine
 10
43.78615757953958
 20
206.9868329748519
 30
0.0
 11
133.7861575795377
 21
206.9868329748519
 31
0.0
  0
LINE
  5
98
102
{ACAD_REACTORS
330
165
102
}
330
2
100
AcDbEntity
  8
0
100
AcDbLine
 10
43.78615757954048
 20
199.9868329748528
 30
0.0
 11
133.7861575795377
 21
199.9868329748528
 31
0.0
  0
ARC
  5
99
330
2
100
AcDbEntity
  8
0
100
AcDbCircle
 10
123.7861575795395
 20
249.9868329748519
 30
0.0
 40
10.0
100
AcDbArc
 50
90.0
 51
180.0
  0
ARC
  5
9A
330
2
100
AcDbEntity
  8
0
100
AcDbCircle
 10
109.7861575795377
 20
220.9868329748519
 30
0.0
 40
4.0
100
AcDbArc
 50
270.0
 51
0.0
  0
DIMENSION
  5
9B
330
2
100
AcDbEntity
  8
0
100
AcDbDimension
  2
*D35
 10
19.9469300235642
 20
253.7368329748528
 30
0.0
 11
19.94693002356416
 21
250.9868329748528
 31
0.0
 70
   160
  3
1_5
100
AcDbAlignedDimension
 13
36.33615757953794
 23
248.2368329748528
 33
0.0
 14
36.33615757953794
 24
253.7368329748528
 34
0.0
 50
90.0
100
AcDbRotatedDimension
  0
LINE
  5
AA
330
2
100
AcDbEntity
  8
CEN
100
AcDbLine
 10
88.78615757953957
 20
195.986832974851
 30
0.0
 11
88.78615757953957
 21
274.7694186682738
 31
0.0
  0
LINE
  5
AB
102
{ACAD_REACTORS
330
7D
102
}
330
2
100
AcDbEntity
  8
CEN
100
AcDbLine
 10
37.78615757953776
 20
195.986832974851
 30
0.0
 11
37.78615757953776
 21
264.9868329748519
 31
0.0
  0
DIMENSION
  5
AC
102
{ACAD_XDICTIONARY
360
AD
102
}
102
{ACAD_REACTORS
330
AE
102
}
330
2
100
AcDbEntity
  8
0
100
AcDbDimension
  2
*D32
 10
77.61111988251653
 20
216.9868329748519
 30
0.0
 11
77.6111198825165
 21
243.7764173810141
 31
0.0
 70
   160
  3
1_5
100
AcDbAlignedDimension
 13
56.28615757954048
 23
259.9868329748519
 33
0.0
 14
73.48437773085788
 24
216.9868329748519
 34
0.0
 50
90.0
100
AcDbRotatedDimension
  0
LINE
  5
BB
330
2
100
AcDbEntity
  8
0
100
AcDbLine
 10
57.78615757953957
 20
206.9868329748519
 30
0.0
 11
57.78615757953957
 21
259.1519843647652
 31
0.0
  0
LINE
  5
BC
330
2
100
AcDbEntity
  8
0
100
AcDbLine
 10
48.28615757953958
 20
199.9868329748528
 30
0.0
 11
48.28615757953958
 21
259.9868329748519
 31
0.0
  0
LINE
  5
BD
330
2
100
AcDbEntity
  8
0
100
AcDbLine
 10
28.78615757954139
 20
249.9868329748519
 30
0.0
 11
28.78615757954048
 21
214.9868329748519
 31
0.0
  0
LINE
  5
BE
330
2
100
AcDbEntity
  8
0
100
AcDbLine
 10
63.78615757953958
 20
220.9868329748519
 30
0.0
 11
63.78615757954048
 21
249.9868329748519
 31
0.0
  0
LEADER
  5
BF
330
2
100
AcDbEntity
  8
0
100
AcDbLeader
  3
1_5
 73
     0
 75
     1
 40
4.5
 41
36.85714285714286
 76
     3
 10
53.23011924702678
 20
110.7581872157952
 30
0.0
 10
28.45580151466402
 20
128.38414556729
 30
0.0
 10
24.95580151466401
 20
128.38414556729
 30
0.0
340
C0
1001
ACAD
1000
DSTYLE
1002
{
1070
     5
1000

1070
   342
1005
0
1002
}
  0
MTEXT
  5
C0
102
{ACAD_REACTORS
330
BF
102
}
330
2
100
AcDbEntity
  8
0
 62
     3
100
AcDbMText
 10
23.95580151466401
 20
129.38414556729
 30
0.0
 40
4.5
 41
0.0
 71
     9
 72
     1
  1
\A1;4-M5xP0.8
1001
ACAD
1000
MTEXTBEGIN
1070
    73
1070
     1
1070
    44
1040
1.0
1070
    74
1070
     0
1000
MTEXTEND
  0
LINE
  5
C1
330
2
100
AcDbEntity
  8
CEN
100
AcDbLine
 10
88.78615694954623
 20
131.309600583354
 30
0.0
 11
88.78615694954623
 21
21.88593023689782
 31
0.0
  0
LINE
  5
C2
330
2
100
AcDbEntity
  8
0
 62
    35
100
AcDbLine
 10
48.28615757953958
 20
87.59776541012797
 30
0.0
 11
48.28615757953958
 21
37.59776541012616
 31
0.0
  0
LINE
  5
C3
330
2
100
AcDbEntity
  8
0
100
AcDbLine
 10
43.78615757953958
 20
83.59776541012706
 30
0.0
 11
43.78615757953958
 21
28.59776541012525
 31
0.0
  0
DIMENSION
  5
C4
102
{ACAD_XDICTIONARY
360
C5
102
}
102
{ACAD_REACTORS
330
C6
102
}
330
2
100
AcDbEntity
  8
0
100
AcDbDimension
  2
*D31
 10
-1.718857555494635
 20
83.59776541012708
 30
0.0
 11
-1.718857555494651
 21
56.09776541012706
 31
0.0
 70
   160
  3
1_5
100
AcDbAlignedDimension
 13
29.78615757953775
 23
28.59776541012616
 33
0.0
 14
43.78615757953958
 24
83.59776541012706
 34
0.0
 50
90.0
100
AcDbRotatedDimension
  0
DIMENSION
  5
D3
102
{ACAD_XDICTIONARY
360
D4
102
}
102
{ACAD_REACTORS
330
D5
102
}
330
2
100
AcDbEntity
  8
0
100
AcDbDimension
  2
*D30
 10
12.03713616794267
 20
76.59776541012617
 30
0.0
 11
12.03713616794266
 21
53.59776541012616
 31
0.0
 70
   160
  1
<>%%P0.5
  3
1_5
100
AcDbAlignedDimension
 13
29.78615757953775
 23
28.59776541012616
 33
0.0
 14
36.03905700405721
 24
76.59776541012615
 34
0.0
 50
90.0
100
AcDbRotatedDimension
  0
LINE
  5
E2
330
2
100
AcDbEntity
  8
0
 62
    35
100
AcDbLine
 10
48.28615757953958
 20
37.59776541012616
 30
0.0
 11
43.78615757953958
 21
28.59776541012616
 31
0.0
  0
LINE
  5
E3
102
{ACAD_REACTORS
330
C6
330
D5
102
}
330
2
100
AcDbEntity
  8
0
100
AcDbLine
 10
29.78615757953775
 20
28.59776541012616
 30
0.0
 11
62.78615757953957
 21
28.59776541012616
 31
0.0
  0
ARC
  5
E4
330
2
100
AcDbEntity
  8
0
100
AcDbCircle
 10
30.78615757953957
 20
35.59776541012615
 30
0.0
 40
2.0
100
AcDbArc
 50
90.0
 51
180.0
  0
LINE
  5
E5
330
2
100
AcDbEntity
  8
0
100
AcDbLine
 10
43.78615757953958
 20
37.59776541012616
 30
0.0
 11
30.78615757953957
 21
37.59776541012616
 31
0.0
  0
ARC
  5
E6
330
2
100
AcDbEntity
  8
0
100
AcDbCircle
 10
29.78615757953775
 20
29.59776541012615
 30
0.0
 40
1.0
100
AcDbArc
 50
180.0
 51
270.0
  0
LINE
  5
E7
330
2
100
AcDbEntity
  8
0
100
AcDbLine
 10
28.78615757953957
 20
29.59776541012615
 30
0.0
 11
28.78615757953957
 21
35.59776541012615
 31
0.0
  0
ARC
  5
E8
330
2
100
AcDbEntity
  8
CEN
  6
CENTER
100
AcDbCircle
 10
88.78615786218778
 20
76.59776512747612
 30
0.0
 40
47.0
100
AcDbArc
 50
214.9594680000016
 51
231.7762779999919
  0
LINE
  5
E9
330
2
100
AcDbEntity
  8
CEN
  6
CENTER
100
AcDbLine
 10
51.30949820529441
 20
39.1211060358928
 30
0.0
 11
59.79478020529405
 21
47.60638803589199
 31
0.0
  0
CIRCLE
  5
EA
330
2
100
AcDbEntity
  8
0
  6
CONTINUOUS
100
AcDbCircle
 10
55.55213886377169
 20
43.36374669435781
 30
0.0
 40
2.0
  0
ARC
  5
EB
330
2
100
AcDbEntity
  8
0
  6
CONTINUOUS
 62
     3
100
AcDbCircle
 10
55.55213894930239
 20
43.36374571354418
 30
0.0
 40
2.5
100
AcDbArc
 50
279.9999885771236
 51
190.0000015328206
  0
LINE
  5
EC
330
2
100
AcDbEntity
  8
0
  6
CONTINUOUS
100
AcDbLine
 10
63.78615757953958
 20
29.59776541012615
 30
0.0
 11
62.78615757953957
 21
28.59776541012616
 31
0.0
  0
LINE
  5
ED
330
2
100
AcDbEntity
  8
0
100
AcDbLine
 10
43.78615757953958
 20
83.59776541012706
 30
0.0
 11
48.28615757953958
 21
87.59776541012797
 31
0.0
  0
CIRCLE
  5
EE
330
2
100
AcDbEntity
  8
0
  6
CONTINUOUS
100
AcDbCircle
 10
55.55213886377169
 20
109.831784125894
 30
0.0
 40
2.0
  0
ARC
  5
EF
330
2
100
AcDbEntity
  8
0
  6
CONTINUOUS
 62
     3
100
AcDbCircle
 10
55.55213894930239
 20
109.8317831450799
 30
0.0
 40
2.5
100
AcDbArc
 50
279.9999885771236
 51
190.0000015328206
  0
ARC
  5
F0
330
2
100
AcDbEntity
  8
CEN
  6
CENTER
100
AcDbCircle
 10
88.78615729688863
 20
76.59776512747703
 30
0.0
 40
47.0
100
AcDbArc
 50
124.9594680000196
 51
141.7762780000102
  0
LINE
  5
F1
330
2
100
AcDbEntity
  8
CEN
  6
CENTER
100
AcDbLine
 10
51.30949820530441
 20
114.0744247843699
 30
0.0
 11
59.79478020530496
 21
105.5891427843712
 31
0.0
  0
LINE
  5
F2
330
2
100
AcDbEntity
  8
0
100
AcDbLine
 10
48.28615757953958
 20
110.0977654101261
 30
0.0
 11
48.28615757953958
 21
87.59776541012797
 31
0.0
  0
ARC
  5
F3
330
2
100
AcDbEntity
  8
0
100
AcDbCircle
 10
55.28615757953957
 20
110.0977654101261
 30
0.0
 40
7.0
100
AcDbArc
 50
90.0
 51
180.0
  0
LINE
  5
F4
102
{ACAD_REACTORS
330
AE
102
}
330
2
100
AcDbEntity
  8
0
100
AcDbLine
 10
43.78615757953958
 20
224.9868329748528
 30
0.0
 11
48.28615757953958
 21
224.9868329748528
 31
0.0
  0
DIMENSION
  5
F5
102
{ACAD_XDICTIONARY
360
F6
102
}
102
{ACAD_REACTORS
330
F7
102
}
330
2
100
AcDbEntity
  8
0
100
AcDbDimension
  2
*D33
 10
43.78615757954048
 20
214.9868329748519
 30
0.0
 11
14.59387480096484
 21
194.1911906573141
 31
0.0
 70
   164
  3
1_5
100
AcDbRadialDimension
 15
31.56908301126384
 25
206.2837824181128
 35
0.0
 40
0.0
  0
LINE
  5
101
330
2
100
AcDbEntity
  8
CEN
100
AcDbLine
 10
31.78615757953958
 20
215.9868329748528
 30
0.0
 11
43.78615757953958
 21
215.9868329748528
 31
0.0
  0
LINE
  5
102
330
2
100
AcDbEntity
  8
0
100
AcDbLine
 10
36.33615757953794
 20
218.7368329748528
 30
0.0
 11
39.23615757953939
 21
218.7368329748528
 31
0.0
  0
ARC
  5
103
330
2
100
AcDbEntity
  8
0
100
AcDbCircle
 10
36.33615757953794
 20
215.9868329748528
 30
0.0
 40
2.75
100
AcDbArc
 50
90.0
 51
270.0
  0
LINE
  5
104
330
2
100
AcDbEntity
  8
0
100
AcDbLine
 10
36.33615757953794
 20
213.2368329748528
 30
0.0
 11
39.23615757953939
 21
213.2368329748528
 31
0.0
  0
ARC
  5
105
330
2
100
AcDbEntity
  8
0
100
AcDbCircle
 10
39.23615757953939
 20
215.9868329748528
 30
0.0
 40
2.75
100
AcDbArc
 50
270.0
 51
90.0
  0
ARC
  5
106
102
{ACAD_REACTORS
330
F7
102
}
330
2
100
AcDbEntity
  8
0
100
AcDbCircle
 10
43.78615757954048
 20
214.9868329748519
 30
0.0
 40
15.0
100
AcDbArc
 50
180.0
 51
270.0
  0
LINE
  5
107
330
2
100
AcDbEntity
  8
0
100
AcDbLine
 10
43.78615757953958
 20
224.9868329748528
 30
0.0
 11
43.78615757953958
 21
199.9868329748528
 31
0.0
  0
ARC
  5
108
330
2
100
AcDbEntity
  8
0
100
AcDbCircle
 10
67.78615757953957
 20
220.9868329748519
 30
0.0
 40
4.0
100
AcDbArc
 50
180.0
 51
270.0
  0
LINE
  5
109
102
{ACAD_REACTORS
330
AE
102
}
330
2
100
AcDbEntity
  8
0
100
AcDbLine
 10
67.78615757953957
 20
216.9868329748519
 30
0.0
 11
109.7861575795377
 21
216.9868329748519
 31
0.0
  0
DIMENSION
  5
10A
330
2
100
AcDbEntity
  8
0
100
AcDbDimension
  2
*D34
 10
41.98615757953757
 20
269.1409014865998
 30
0.0
 11
16.57187186525334
 21
269.1409014865998
 31
0.0
 70
   160
  3
1_5
100
AcDbAlignedDimension
 13
33.58615757953703
 23
250.9868329748528
 33
0.0
 14
41.98615757953757
 24
250.9868329748528
 34
0.0
100
AcDbRotatedDimension
  0
LINE
  5
119
330
2
100
AcDbEntity
  8
0
100
AcDbLine
 10
38.78615757954048
 20
259.9868329748519
 30
0.0
 11
53.78615757954048
 21
259.9868329748519
 31
0.0
  0
ARC
  5
11A
330
2
100
AcDbEntity
  8
0
100
AcDbCircle
 10
38.78615757954048
 20
249.9868329748519
 30
0.0
 40
10.0
100
AcDbArc
 50
90.0
 51
180.0
  0
LINE
  5
11B
330
2
100
AcDbEntity
  8
CEN
100
AcDbLine
 10
31.78615757953958
 20
250.9868329748528
 30
0.0
 11
43.78615757953958
 21
250.9868329748528
 31
0.0
  0
LINE
  5
11C
330
2
100
AcDbEntity
  8
0
100
AcDbLine
 10
36.33615757953794
 20
248.2368329748528
 30
0.0
 11
39.23615757953939
 21
248.2368329748528
 31
0.0
  0
LINE
  5
11D
330
2
100
AcDbEntity
  8
0
100
AcDbLine
 10
36.33615757953794
 20
253.7368329748528
 30
0.0
 11
39.23615757953939
 21
253.7368329748528
 31
0.0
  0
ARC
  5
11E
330
2
100
AcDbEntity
  8
0
100
AcDbCircle
 10
36.33615757953794
 20
250.9868329748528
 30
0.0
 40
2.75
100
AcDbArc
 50
90.0
 51
270.0
  0
ARC
  5
11F
330
2
100
AcDbEntity
  8
0
100
AcDbCircle
 10
39.23615757953939
 20
250.9868329748528
 30
0.0
 40
2.75
100
AcDbArc
 50
270.0
 51
90.0
  0
ARC
  5
120
330
2
100
AcDbEntity
  8
0
100
AcDbCircle
 10
53.78615757954048
 20
249.9868329748519
 30
0.0
 40
10.0
100
AcDbArc
 50
0.0
 51
90.0
  0
LINE
  5
121
102
{ACAD_REACTORS
330
7D
102
}
330
2
100
AcDbEntity
  8
CEN
100
AcDbLine
 10
139.7861575795395
 20
195.986832974851
 30
0.0
 11
139.7861575795395
 21
264.9868329748519
 31
0.0
  0
DIMENSION
  5
122
330
2
100
AcDbEntity
  8
0
100
AcDbDimension
  2
*D43
 10
176.3750126465593
 20
250.9868329748528
 30
0.0
 11
176.3750126465593
 21
240.269850543827
 31
0.0
 70
   160
  3
1_5
100
AcDbAlignedDimension
 13
145.7861575795377
 23
215.9868329748519
 33
0.0
 14
144.89504836808
 24
250.9868329748528
 34
0.0
 50
90.0
100
AcDbRotatedDimension
  0
LINE
  5
12F
330
2
100
AcDbEntity
  8
0
100
AcDbLine
 10
119.7861575795377
 20
206.9868329748519
 30
0.0
 11
119.7861575795395
 21
259.1519843647652
 31
0.0
  0
LINE
  5
130
330
2
100
AcDbEntity
  8
0
100
AcDbLine
 10
129.2861575795377
 20
199.9868329748528
 30
0.0
 11
129.2861575795377
 21
259.9868329748519
 31
0.0
  0
LINE
  5
131
330
2
100
AcDbEntity
  8
0
100
AcDbLine
 10
113.7861575795395
 20
220.9868329748519
 30
0.0
 11
113.7861575795395
 21
249.9868329748519
 31
0.0
  0
LINE
  5
132
330
2
100
AcDbEntity
  8
0
100
AcDbLine
 10
148.7861575795377
 20
249.9868329748519
 30
0.0
 11
148.7861575795377
 21
214.9868329748519
 31
0.0
  0
LINE
  5
133
330
2
100
AcDbEntity
  8
0
 62
    35
100
AcDbLine
 10
129.2861575795377
 20
87.59776541012797
 30
0.0
 11
129.2861575795377
 21
37.59776541012616
 31
0.0
  0
LINE
  5
134
330
2
100
AcDbEntity
  8
0
100
AcDbLine
 10
133.7861575795377
 20
83.59776541012706
 30
0.0
 11
133.7861575795377
 21
28.59776541012525
 31
0.0
  0
DIMENSION
  5
135
102
{ACAD_XDICTIONARY
360
136
102
}
102
{ACAD_REACTORS
330
137
102
}
330
2
100
AcDbEntity
  8
0
100
AcDbDimension
  2
*D39
 10
172.6600475789373
 20
117.0977654101252
 30
0.0
 11
172.6600475789373
 21
81.27305270177021
 31
0.0
 70
   160
  3
1_5
100
AcDbAlignedDimension
 13
147.7861575795395
 23
28.59776541012616
 33
0.0
 14
122.2861575795395
 24
117.0977654101252
 34
0.0
 50
90.0
100
AcDbRotatedDimension
  0
DIMENSION
  5
144
330
2
100
AcDbEntity
  8
0
100
AcDbDimension
  2
*D40
 10
162.5851950453498
 20
37.59776541012616
 30
0.0
 11
162.5851950453498
 21
33.09776541012524
 31
0.0
 70
   160
  3
1_5
100
AcDbAlignedDimension
 13
147.7861575795395
 23
28.59776541012616
 33
0.0
 14
147.7861575795395
 24
37.59776541012616
 34
0.0
 50
90.0
100
AcDbRotatedDimension
  0
ARC
  5
151
330
2
100
AcDbEntity
  8
CEN
  6
CENTER
100
AcDbCircle
 10
88.78615786218778
 20
76.59776569277574
 30
0.0
 40
47.0
100
AcDbArc
 50
304.9594680000196
 51
321.7762780000101
  0
LINE
  5
152
330
2
100
AcDbEntity
  8
CEN
  6
CENTER
100
AcDbLine
 10
126.2628169537711
 20
39.12110603588189
 30
0.0
 11
117.7775349537714
 21
47.60638803588108
 31
0.0
  0
CIRCLE
  5
153
330
2
100
AcDbEntity
  8
0
  6
CONTINUOUS
100
AcDbCircle
 10
122.0201762953056
 20
43.36374669435781
 30
0.0
 40
2.0
  0
ARC
  5
154
330
2
100
AcDbEntity
  8
0
  6
CONTINUOUS
 62
     3
100
AcDbCircle
 10
122.020176380839
 20
43.36374571354418
 30
0.0
 40
2.5
100
AcDbArc
 50
279.9999885771236
 51
190.0000015328206
  0
LINE
  5
155
102
{ACAD_REACTORS
330
4E
102
}
330
2
100
AcDbEntity
  8
0
  6
CONTINUOUS
100
AcDbLine
 10
115.7861575795395
 20
29.59776541012615
 30
0.0
 11
116.7861575795377
 21
28.59776541012616
 31
0.0
  0
LINE
  5
156
330
2
100
AcDbEntity
  8
0
 62
    35
100
AcDbLine
 10
129.2861575795377
 20
37.59776541012616
 30
0.0
 11
133.7861575795377
 21
28.59776541012616
 31
0.0
  0
ARC
  5
157
330
2
100
AcDbEntity
  8
0
100
AcDbCircle
 10
147.7861575795395
 20
29.59776541012615
 30
0.0
 40
1.0
100
AcDbArc
 50
270.0
 51
0.0
  0
LINE
  5
158
330
2
100
AcDbEntity
  8
0
100
AcDbLine
 10
148.7861575795377
 20
29.59776541012615
 30
0.0
 11
148.7861575795377
 21
35.59776541012615
 31
0.0
  0
ARC
  5
159
330
2
100
AcDbEntity
  8
0
100
AcDbCircle
 10
146.7861575795395
 20
35.59776541012615
 30
0.0
 40
2.0
100
AcDbArc
 50
0.0
 51
90.0
  0
LINE
  5
15A
330
2
100
AcDbEntity
  8
0
100
AcDbLine
 10
146.7861575795395
 20
37.59776541012616
 30
0.0
 11
133.7861575795377
 21
37.59776541012616
 31
0.0
  0
LINE
  5
15B
102
{ACAD_REACTORS
330
137
102
}
330
2
100
AcDbEntity
  8
0
100
AcDbLine
 10
116.7861575795377
 20
28.59776541012616
 30
0.0
 11
147.7861575795395
 21
28.59776541012616
 31
0.0
  0
LINE
  5
15C
330
2
100
AcDbEntity
  8
0
100
AcDbLine
 10
129.2861575795377
 20
87.59776541012797
 30
0.0
 11
133.7861575795377
 21
83.59776541012706
 31
0.0
  0
ARC
  5
15D
330
2
100
AcDbEntity
  8
0
  6
CONTINUOUS
 62
     3
100
AcDbCircle
 10
122.020176380839
 20
109.8317831450799
 30
0.0
 40
2.5
100
AcDbArc
 50
279.9999885771236
 51
190.0000015328206
  0
CIRCLE
  5
15E
330
2
100
AcDbEntity
  8
0
  6
CONTINUOUS
100
AcDbCircle
 10
122.0201762953056
 20
109.8317841258931
 30
0.0
 40
2.0
  0
ARC
  5
15F
102
{ACAD_REACTORS
330
3A
102
}
330
2
100
AcDbEntity
  8
CEN
  6
CENTER
100
AcDbCircle
 10
88.78615729688863
 20
76.59776569277482
 30
0.0
 40
47.0
100
AcDbArc
 50
34.95946800000163
 51
51.77627799999193
  0
LINE
  5
160
330
2
100
AcDbEntity
  8
CEN
  6
CENTER
100
AcDbLine
 10
126.262816953782
 20
114.074424784359
 30
0.0
 11
117.7775349537823
 21
105.5891427843594
 31
0.0
  0
LINE
  5
161
330
2
100
AcDbEntity
  8
0
100
AcDbLine
 10
129.2861575795377
 20
110.0977654101252
 30
0.0
 11
129.2861575795377
 21
87.59776541012797
 31
0.0
  0
ARC
  5
162
330
2
100
AcDbEntity
  8
0
100
AcDbCircle
 10
122.2861575795395
 20
110.0977654101252
 30
0.0
 40
7.0
100
AcDbArc
 50
0.0
 51
90.0
  0
DIMENSION
  5
163
102
{ACAD_XDICTIONARY
360
164
102
}
102
{ACAD_REACTORS
330
165
102
}
330
2
100
AcDbEntity
  8
0
100
AcDbDimension
  2
*D44
 10
176.3750126465584
 20
215.9868329748519
 30
0.0
 11
176.3750126465583
 21
209.3744899936123
 31
0.0
 70
   160
  3
1_5
100
AcDbAlignedDimension
 13
133.7861575795377
 23
199.9868329748528
 33
0.0
 14
145.7861575795377
 24
215.9868329748519
 34
0.0
 50
90.0
100
AcDbRotatedDimension
  0
LINE
  5
172
330
2
100
AcDbEntity
  8
0
100
AcDbLine
 10
129.2861575795377
 20
224.9868329748528
 30
0.0
 11
133.7861575795377
 21
224.9868329748528
 31
0.0
  0
LINE
  5
173
330
2
100
AcDbEntity
  8
0
100
AcDbLine
 10
138.3361575795388
 20
218.7368329748519
 30
0.0
 11
141.2361575795394
 21
218.7368329748519
 31
0.0
  0
ARC
  5
174
330
2
100
AcDbEntity
  8
0
100
AcDbCircle
 10
138.3361575795388
 20
215.9868329748519
 30
0.0
 40
2.75
100
AcDbArc
 50
90.0
 51
270.0
  0
LINE
  5
175
330
2
100
AcDbEntity
  8
0
100
AcDbLine
 10
138.3361575795388
 20
213.2368329748519
 30
0.0
 11
141.2361575795394
 21
213.2368329748519
 31
0.0
  0
ARC
  5
176
330
2
100
AcDbEntity
  8
0
100
AcDbCircle
 10
141.2361575795394
 20
215.9868329748519
 30
0.0
 40
2.75
100
AcDbArc
 50
270.0
 51
90.0
  0
LINE
  5
177
330
2
100
AcDbEntity
  8
CEN
100
AcDbLine
 10
133.7861575795377
 20
215.9868329748519
 30
0.0
 11
145.7861575795377
 21
215.9868329748519
 31
0.0
  0
LINE
  5
178
330
2
100
AcDbEntity
  8
0
100
AcDbLine
 10
133.7861575795377
 20
224.9868329748528
 30
0.0
 11
133.7861575795377
 21
199.9868329748528
 31
0.0
  0
ARC
  5
179
330
2
100
AcDbEntity
  8
0
100
AcDbCircle
 10
133.7861575795377
 20
214.9868329748519
 30
0.0
 40
15.0
100
AcDbArc
 50
270.0
 51
0.0
  0
DIMENSION
  5
17A
102
{ACAD_XDICTIONARY
360
17B
102
}
102
{ACAD_REACTORS
330
17C
102
}
330
2
100
AcDbEntity
  8
0
100
AcDbDimension
  2
*D45
 10
138.7861575795395
 20
249.9868329748519
 30
0.0
 11
159.5753803704674
 21
268.4219661210113
 31
0.0
 70
   164
  3
1_5
100
AcDbRadialDimension
 15
146.2681400749893
 25
256.6215852639583
 35
0.0
 40
0.0
  0
ARC
  5
186
102
{ACAD_REACTORS
330
17C
102
}
330
2
100
AcDbEntity
  8
0
100
AcDbCircle
 10
138.7861575795395
 20
249.9868329748519
 30
0.0
 40
10.0
100
AcDbArc
 50
0.0
 51
90.0
  0
LINE
  5
187
330
2
100
AcDbEntity
  8
0
100
AcDbLine
 10
138.3361575795388
 20
253.7368329748528
 30
0.0
 11
141.2361575795394
 21
253.7368329748528
 31
0.0
  0
ARC
  5
188
330
2
100
AcDbEntity
  8
0
100
AcDbCircle
 10
138.3361575795388
 20
250.9868329748528
 30
0.0
 40
2.75
100
AcDbArc
 50
90.0
 51
270.0
  0
LINE
  5
189
330
2
100
AcDbEntity
  8
0
100
AcDbLine
 10
138.3361575795388
 20
248.2368329748528
 30
0.0
 11
141.2361575795394
 21
248.2368329748528
 31
0.0
  0
ARC
  5
18A
330
2
100
AcDbEntity
  8
0
100
AcDbCircle
 10
141.2361575795394
 20
250.9868329748528
 30
0.0
 40
2.75
100
AcDbArc
 50
270.0
 51
90.0
  0
LINE
  5
18B
330
2
100
AcDbEntity
  8
CEN
100
AcDbLine
 10
133.7861575795377
 20
250.9868329748528
 30
0.0
 11
145.7861575795377
 21
250.9868329748528
 31
0.0
  0
LINE
  5
18C
330
2
100
AcDbEntity
  8
0
100
AcDbLine
 10
123.7861575795395
 20
259.9868329748519
 30
0.0
 11
138.7861575795395
 21
259.9868329748519
 31
0.0
  0
DIMENSION
  5
18D
102
{ACAD_XDICTIONARY
360
18E
102
}
102
{ACAD_REACTORS
330
18F
102
}
330
2
100
AcDbEntity
  8
0
100
AcDbDimension
  2
*D47
 10
273.0638660622125
 20
131.5390810239441
 30
0.0
 11
286.5638660622126
 21
131.5390810239441
 31
0.0
 70
   160
  3
1_5
100
AcDbAlignedDimension
 13
270.0638660622125
 23
113.0977654101252
 33
0.0
 14
273.0638660622125
 24
114.9227778147692
 34
0.0
100
AcDbRotatedDimension
  0
DIMENSION
  5
19E
102
{ACAD_XDICTIONARY
360
19F
102
}
102
{ACAD_REACTORS
330
1A0
102
}
330
2
100
AcDbEntity
  8
0
100
AcDbDimension
  2
*D46
 10
273.0638660622125
 20
143.8779353310997
 30
0.0
 11
269.5638660622126
 21
143.8779353310997
 31
0.0
 70
   160
  3
1_5
100
AcDbAlignedDimension
 13
266.0638660622125
 23
116.097765410127
 33
0.0
 14
273.0638660622125
 24
116.097765410127
 34
0.0
100
AcDbRotatedDimension
  0
DIMENSION
  5
1AF
102
{ACAD_XDICTIONARY
360
1B0
102
}
102
{ACAD_REACTORS
330
1B1
102
}
330
2
100
AcDbEntity
  8
0
100
AcDbDimension
  2
*D38
 10
250.2034776435011
 20
111.0977654101252
 30
0.0
 11
250.2034776435011
 21
76.77763269110801
 31
0.0
 70
   160
  1
%%c<>
  3
1_5
100
AcDbAlignedDimension
 13
266.0638660622125
 23
42.09776427637007
 33
0.0
 14
266.0638660622125
 24
111.0977654101252
 34
0.0
 50
90.0
100
AcDbRotatedDimension
  0
DIMENSION
  5
1BE
102
{ACAD_XDICTIONARY
360
1BF
102
}
102
{ACAD_REACTORS
330
1C0
102
}
330
2
100
AcDbEntity
  8
0
100
AcDbDimension
  2
*D37
 10
237.2395786603947
 20
40.09776541012525
 30
0.0
 11
237.2395786603947
 21
78.31189109176921
 31
0.0
 70
   160
  1
%%c<>
  3
1_5
100
AcDbAlignedDimension
 13
270.0638660622125
 23
113.0977654101252
 33
0.0
 14
270.0638660622125
 24
40.09776541012525
 34
0.0
 50
90.0
100
AcDbRotatedDimension
  0
LINE
  5
1CD
330
2
100
AcDbEntity
  8
0
 62
    35
100
AcDbLine
 10
267.0638660622125
 20
83.59776541012706
 30
0.0
 11
267.0638660622135
 21
28.86287418283382
 31
0.0
  0
LINE
  5
1CE
102
{ACAD_REACTORS
330
1E3
102
}
330
2
100
AcDbEntity
  8
0
100
AcDbLine
 10
291.0638660622126
 20
37.59776541012707
 30
0.0
 11
273.0638660622125
 21
83.59776541012706
 31
0.0
  0
LINE
  5
1CF
330
2
100
AcDbEntity
  8
HI
100
AcDbLine
 10
273.0638660622125
 20
82.59776541012707
 30
0.0
 11
273.0638660622125
 21
37.59776541012707
 31
0.0
  0
LINE
  5
1D0
102
{ACAD_REACTORS
330
1C0
330
18F
102
}
330
2
100
AcDbEntity
  8
HI
100
AcDbLine
 10
270.0638660622125
 20
113.0977654101252
 30
0.0
 11
270.0638660622125
 21
40.09776541012525
 31
0.0
  0
LINE
  5
1D1
102
{ACAD_REACTORS
330
1B1
330
1A0
102
}
330
2
100
AcDbEntity
  8
0
100
AcDbLine
 10
266.0638660622125
 20
116.097765410127
 30
0.0
 11
266.0638660622125
 21
37.59776541012707
 31
0.0
  0
DIMENSION
  5
1D2
330
2
100
AcDbEntity
  8
0
100
AcDbDimension
  2
*D42
 10
321.0638660622125
 20
13.98375862875991
 30
0.0
 11
295.0638660622125
 21
13.98375862875991
 31
0.0
 70
   160
  3
1_5
100
AcDbAlignedDimension
 13
266.0638660622125
 23
37.59776541012707
 33
0.0
 14
321.0638660622125
 24
29.09776541012707
 34
0.0
100
AcDbRotatedDimension
  0
LINE
  5
1DF
330
2
100
AcDbEntity
  8
0
100
AcDbLine
 10
267.5052571714804
 20
28.59776541012706
 30
0.0
 11
320.5638660622125
 21
28.59776541012706
 31
0.0
  0
LINE
  5
1E0
330
2
100
AcDbEntity
  8
0
100
AcDbLine
 10
267.0638660622125
 20
37.59776541012707
 30
0.0
 11
320.5638660622125
 21
37.59776541012707
 31
0.0
  0
DIMENSION
  5
1E1
102
{ACAD_XDICTIONARY
360
1E2
102
}
102
{ACAD_REACTORS
330
1E3
102
}
330
2
100
AcDbEntity
  8
0
100
AcDbDimension
  2
*D41
 10
321.0638660622125
 20
51.19159961351716
 30
0.0
 11
306.6098920668009
 21
51.19159961351716
 31
0.0
 70
   160
  3
1_5
100
AcDbAlignedDimension
 13
291.0638660622126
 23
37.59776541012707
 33
0.0
 14
321.0638660622125
 24
37.09776541012706
 34
0.0
100
AcDbRotatedDimension
  0
LINE
  5
1F0
330
2
100
AcDbEntity
  8
0
100
AcDbLine
 10
266.0638660622125
 20
37.59776541012707
 30
0.0
 11
267.0091182331243
 21
29.03574804283198
 31
0.0
  0
ARC
  5
1F1
330
2
100
AcDbEntity
  8
0
100
AcDbCircle
 10
267.5052571714804
 20
29.09776541012707
 30
0.0
 40
0.5
100
AcDbArc
 50
187.1250163489016
 51
270.0
  0
LINE
  5
1F2
102
{ACAD_REACTORS
330
1B1
102
}
330
2
100
AcDbEntity
  8
HI
100
AcDbLine
 10
266.0638660622125
 20
42.09776427637007
 30
0.0
 11
270.0638660622125
 21
42.09776427636916
 31
0.0
  0
LINE
  5
1F3
330
2
100
AcDbEntity
  8
HI
100
AcDbLine
 10
270.0638660622125
 20
40.09776541012525
 30
0.0
 11
273.0638660622125
 21
40.09776541012615
 31
0.0
  0
LINE
  5
1F4
102
{ACAD_REACTORS
330
1E3
102
}
330
2
100
AcDbEntity
  8
0
100
AcDbLine
 10
321.0638660622125
 20
37.09776541012706
 30
0.0
 11
321.0638660622125
 21
29.09776541012707
 31
0.0
  0
ARC
  5
1F5
330
2
100
AcDbEntity
  8
0
100
AcDbCircle
 10
320.5638660622125
 20
29.09776541012707
 30
0.0
 40
0.5
100
AcDbArc
 50
270.0
 51
0.0
  0
ARC
  5
1F6
330
2
100
AcDbEntity
  8
0
100
AcDbCircle
 10
320.5638660622125
 20
37.09776541012706
 30
0.0
 40
0.5
100
AcDbArc
 50
0.0
 51
90.0
  0
LINE
  5
1F7
330
2
100
AcDbEntity
  8
CEN
100
AcDbLine
 10
261.0638660622135
 20
76.59776541012615
 30
0.0
 11
278.0638660622126
 21
76.59776541012615
 31
0.0
  0
LINE
  5
1F8
102
{ACAD_REACTORS
330
18F
330
1A0
102
}
330
2
100
AcDbEntity
  8
0
100
AcDbLine
 10
273.0638660622125
 20
116.097765410127
 30
0.0
 11
273.0638660622125
 21
82.59776541012707
 31
0.0
  0
ARC
  5
1F9
330
2
100
AcDbEntity
  8
0
100
AcDbCircle
 10
272.0638660622126
 20
116.097765410127
 30
0.0
 40
1.0
100
AcDbArc
 50
0.0
 51
90.0
  0
ARC
  5
1FA
330
2
100
AcDbEntity
  8
0
100
AcDbCircle
 10
267.0638660622125
 20
116.097765410127
 30
0.0
 40
1.0
100
AcDbArc
 50
90.0
 51
180.0
  0
LINE
  5
1FB
330
2
100
AcDbEntity
  8
0
100
AcDbLine
 10
267.0638660622125
 20
117.097765410127
 30
0.0
 11
272.0638660622126
 21
117.097765410127
 31
0.0
  0
LINE
  5
1FC
102
{ACAD_REACTORS
330
1B1
102
}
330
2
100
AcDbEntity
  8
HI
100
AcDbLine
 10
266.0638660622125
 20
111.0977654101252
 30
0.0
 11
270.0638660622125
 21
111.0977654101252
 31
0.0
  0
LINE
  5
1FD
330
2
100
AcDbEntity
  8
HI
100
AcDbLine
 10
270.0638660622125
 20
113.0977654101252
 30
0.0
 11
273.0638660622125
 21
113.0977654101261
 31
0.0
  0
LINE
  5
1FE
330
2
100
AcDbEntity
  8
0
 62
    35
100
AcDbLine
 10
267.0638660622125
 20
83.59776541012616
 30
0.0
 11
273.0638660622125
 21
83.59776541012934
 31
0.0
  0
LINE
  5
1FF
330
2
100
AcDbEntity
  8
0
 62
    35
100
AcDbLine
 10
266.0638660622125
 20
87.59776541012797
 30
0.0
 11
273.0638660622135
 21
87.59776541012797
 31
0.0
  0
LINE
  5
200
330
2
100
AcDbEntity
  8
0
 62
    35
100
AcDbLine
 10
267.0638660622125
 20
83.59776541012706
 30
0.0
 11
266.0638660622125
 21
87.59776541012797
 31
0.0
  0
LINE
  5
201
330
2
100
AcDbEntity
  8
0
100
AcDbLine
 10
266.0638660622125
 20
87.59776541012707
 30
0.0
 11
273.0638660622125
 21
87.59776541012707
 31
0.0
  0
ENDSEC
  0
SECTION
  2
OBJECTS
  0
DICTIONARY
  5
8
330
0
100
AcDbDictionary
  3
ACAD_GROUP
350
25
  3
ACAD_LAYOUT
350
C
  3
ACAD_MLINESTYLE
350
26
  3
ACAD_PLOTSETTINGS
350
27
  3
ACAD_PLOTSTYLENAME
350
7
  3
ACDBHEADERROUNDTRIPXREC
350
33C
  3
ACDBVARIABLEDICTIONARY
350
202
  0
DICTIONARY
  5
13
330
12
100
AcDbDictionary
280
     1
  3
ACAD_LAYERFILTERS
360
14
  3
ACAD_LAYERSTATES
360
15
  0
DICTIONARY
  5
3
330
2
100
AcDbDictionary
280
     1
  3
ACAD_LAYOUTSELFREF
360
35D
  0
DICTIONARY
  5
E
330
D
100
AcDbDictionary
280
     1
  3
ACAD_LAYOUTSELFREF
360
35E
  0
DICTIONARY
  5
39
330
38
100
AcDbDictionary
280
     1
  3
ACAD_DIMASSOC
360
3A
  0
DICTIONARY
  5
4D
330
4C
100
AcDbDictionary
280
     1
  3
ACAD_DIMASSOC
360
4E
  0
DICTIONARY
  5
7C
330
7B
100
AcDbDictionary
280
     1
  3
ACAD_DIMASSOC
360
7D
  0
DICTIONARY
  5
AD
330
AC
100
AcDbDictionary
280
     1
  3
ACAD_DIMASSOC
360
AE
  0
DICTIONARY
  5
C5
330
C4
100
AcDbDictionary
280
     1
  3
ACAD_DIMASSOC
360
C6
  0
DICTIONARY
  5
D4
330
D3
100
AcDbDictionary
280
     1
  3
ACAD_DIMASSOC
360
D5
  0
DICTIONARY
  5
F6
330
F5
100
AcDbDictionary
280
     1
  3
ACAD_DIMASSOC
360
F7
  0
DICTIONARY
  5
136
330
135
100
AcDbDictionary
280
     1
  3
ACAD_DIMASSOC
360
137
  0
DICTIONARY
  5
164
330
163
100
AcDbDictionary
280
     1
  3
ACAD_DIMASSOC
360
165
  0
DICTIONARY
  5
17B
330
17A
100
AcDbDictionary
280
     1
  3
ACAD_DIMASSOC
360
17C
  0
DICTIONARY
  5
18E
330
18D
100
AcDbDictionary
280
     1
  3
ACAD_DIMASSOC
360
18F
  0
DICTIONARY
  5
19F
330
19E
100
AcDbDictionary
280
     1
  3
ACAD_DIMASSOC
360
1A0
  0
DICTIONARY
  5
1B0
330
1AF
100
AcDbDictionary
280
     1
  3
ACAD_DIMASSOC
360
1B1
  0
DICTIONARY
  5
1BF
330
1BE
100
AcDbDictionary
280
     1
  3
ACAD_DIMASSOC
360
1C0
  0
DICTIONARY
  5
1E2
330
1E1
100
AcDbDictionary
280
     1
  3
ACAD_DIMASSOC
360
1E3
  0
DICTIONARY
  5
25
102
{ACAD_REACTORS
330
8
102
}
330
8
100
AcDbDictionary
  0
DICTIONARY
  5
C
102
{ACAD_REACTORS
330
8
102
}
330
8
100
AcDbDictionary
  0
DICTIONARY
  5
26
102
{ACAD_REACTORS
330
8
102
}
330
8
100
AcDbDictionary
  3
STANDARD
350
28
  0
DICTIONARY
  5
27
102
{ACAD_REACTORS
330
8
102
}
330
8
100
AcDbDictionary
  0
ACDBDICTIONARYWDFLT
  5
7
102
{ACAD_REACTORS
330
8
102
}
330
8
100
AcDbDictionary
281
     1
  3
Normal
350
6
100
AcDbDictionaryWithDefault
340
6
  0
DICTIONARY
  5
33C
102
{ACAD_REACTORS
330
8
102
}
330
8
100
AcDbDictionary
  3
CEPSNTYPE
350
346
  3
DIMSTYLEDATA
350
34A
  3
FINGERPRINTGUID
350
347
  3
HYPERLINKBASE
350
33F
  3
INSUNITS
350
345
  3
LAYOUTDICT
350
341
  3
LWETCUNION
350
344
  3
PLOTSETDICT
350
342
  3
PLOTSTYLNAMDICT
350
343
  3
PSVPSCALE
350
349
  3
PUCSBASE
350
34D
  3
PUCSORGBACK
350
353
  3
PUCSORGBOTTOM
350
34F
  3
PUCSORGFRONT
350
352
  3
PUCSORGLEFT
350
350
  3
PUCSORGRIGHT
350
351
  3
PUCSORGTOP
350
34E
  3
PUCSORTHOREF
350
34B
  3
PUCSORTHOVIEW
350
34C
  3
STYLESHEET
350
340
  3
TSTACKALIGN
350
33D
  3
TSTACKSIZE
350
33E
  3
UCSBASE
350
356
  3
UCSORGBACK
350
35C
  3
UCSORGBOTTOM
350
358
  3
UCSORGFRONT
350
35B
  3
UCSORGLEFT
350
359
  3
UCSORGRIGHT
350
35A
  3
UCSORGTOP
350
357
  3
UCSORTHOREF
350
354
  3
UCSORTHOVIEW
350
355
  3
VERSIONGUID
350
348
  0
DICTIONARY
  5
202
102
{ACAD_REACTORS
330
8
102
}
330
8
100
AcDbDictionary
  3
DIMASSOC
350
204
  3
HIDETEXT
350
203
  0
DICTIONARY
  5
14
102
{ACAD_REACTORS
330
13
102
}
330
13
100
AcDbDictionary
280
     1
  0
DICTIONARY
  5
15
102
{ACAD_REACTORS
330
13
102
}
330
13
100
AcDbDictionary
  0
XRECORD
  5
35D
102
{ACAD_REACTORS
330
3
102
}
330
3
100
AcDbXrecord
340
2
  0
XRECORD
  5
35E
102
{ACAD_REACTORS
330
E
102
}
330
E
100
AcDbXrecord
340
D
  0
DIMASSOC
  5
3A
102
{ACAD_REACTORS
330
39
102
}
330
39
100
AcDbDimAssoc
330
38
 90
        2
 70
     0
 71
     0
  1
AcDbOsnapPointRef
 72
     3
331
15F
 73
     2
 91
        0
 40
0.0
 10
88.78615729688863
 20
76.59776569277482
 30
0.0
 75
     0
  0
DIMASSOC
  5
4E
102
{ACAD_REACTORS
330
4D
102
}
330
4D
100
AcDbDimAssoc
330
4C
 90
        3
 70
     0
 71
     0
  1
AcDbOsnapPointRef
 72
     1
331
155
 73
     2
 91
        0
 40
0.9999999999999998
 10
116.7861575795377
 20
28.59776541012616
 30
0.0
 75
     0
  1
AcDbOsnapPointRef
 72
    10
331
4B
 73
     2
 91
        0
 40
0.9662547971429095
 10
114.0314070309708
 20
29.59776541012615
 30
0.0
 75
     0
  0
DIMASSOC
  5
7D
102
{ACAD_REACTORS
330
7C
102
}
330
7C
100
AcDbDimAssoc
330
7B
 90
        3
 70
     0
 71
     0
  1
AcDbOsnapPointRef
 72
     1
331
AB
 73
     2
 91
        0
 40
1.0
 10
37.78615757953776
 20
264.9868329748519
 30
0.0
 75
     0
  1
AcDbOsnapPointRef
 72
     1
331
121
 73
     2
 91
        0
 40
1.0
 10
139.7861575795395
 20
264.9868329748519
 30
0.0
 75
     0
  0
DIMASSOC
  5
AE
102
{ACAD_REACTORS
330
AD
102
}
330
AD
100
AcDbDimAssoc
330
AC
 90
        2
 70
     0
 71
     0
  1
AcDbOsnapPointRef
 72
    10
331
109
 73
     2
 91
        0
 40
0.1356719083647476
 10
73.48437773085873
 20
216.9868329748519
 30
0.0
 75
     0
  0
DIMASSOC
  5
C6
102
{ACAD_REACTORS
330
C5
102
}
330
C5
100
AcDbDimAssoc
330
C4
 90
        1
 70
     0
 71
     0
  1
AcDbOsnapPointRef
 72
    13
331
E3
 73
     2
 91
        0
 40
0.0
 10
29.78615757953775
 20
28.59776541012616
 30
0.0
 75
     0
  0
DIMASSOC
  5
D5
102
{ACAD_REACTORS
330
D4
102
}
330
D4
100
AcDbDimAssoc
330
D3
 90
        3
 70
     0
 71
     0
  1
AcDbOsnapPointRef
 72
    13
331
E3
 73
     2
 91
        0
 40
0.0
 10
29.78615757953775
 20
28.59776541012616
 30
0.0
 75
     0
  1
AcDbOsnapPointRef
 72
    13
331
6B
 73
     2
 91
        0
 40
0.0
 10
36.03905700405721
 20
76.59776541012615
 30
0.0
 75
     0
  0
DIMASSOC
  5
F7
102
{ACAD_REACTORS
330
F6
102
}
330
F6
100
AcDbDimAssoc
330
F5
 90
        2
 70
     0
 71
     0
  1
AcDbOsnapPointRef
 72
     3
331
106
 73
     2
 91
        0
 40
0.0
 10
43.78615757954048
 20
214.9868329748519
 30
0.0
 75
     0
  0
DIMASSOC
  5
137
102
{ACAD_REACTORS
330
136
102
}
330
136
100
AcDbDimAssoc
330
135
 90
        3
 70
     0
 71
     0
  1
AcDbOsnapPointRef
 72
     1
331
15B
 73
     2
 91
        0
 40
1.0
 10
147.7861575795395
 20
28.59776541012616
 30
0.0
 75
     0
  1
AcDbOsnapPointRef
 72
     1
331
5D
 73
     2
 91
        0
 40
1.0
 10
122.2861575795395
 20
117.0977654101252
 30
0.0
 75
     0
  0
DIMASSOC
  5
165
102
{ACAD_REACTORS
330
164
102
}
330
164
100
AcDbDimAssoc
330
163
 90
        1
 70
     0
 71
     0
  1
AcDbOsnapPointRef
 72
     1
331
98
 73
     2
 91
        0
 40
1.0
 10
133.7861575795377
 20
199.9868329748528
 30
0.0
 75
     0
  0
DIMASSOC
  5
17C
102
{ACAD_REACTORS
330
17B
102
}
330
17B
100
AcDbDimAssoc
330
17A
 90
        2
 70
     0
 71
     0
  1
AcDbOsnapPointRef
 72
     3
331
186
 73
     2
 91
        0
 40
0.0
 10
138.7861575795395
 20
249.9868329748519
 30
0.0
 75
     0
  0
DIMASSOC
  5
18F
102
{ACAD_REACTORS
330
18E
102
}
330
18E
100
AcDbDimAssoc
330
18D
 90
        3
 70
     0
 71
     0
  1
AcDbOsnapPointRef
 72
    13
331
1D0
 73
     2
 91
        0
 40
0.0
 10
270.0638660622125
 20
113.0977654101252
 30
0.0
 75
     0
  1
AcDbOsnapPointRef
 72
    10
331
1F8
 73
     2
 91
        0
 40
0.0350742565778466
 10
273.0638660622125
 20
114.9227778147692
 30
0.0
 75
     0
  0
DIMASSOC
  5
1A0
102
{ACAD_REACTORS
330
19F
102
}
330
19F
100
AcDbDimAssoc
330
19E
 90
        3
 70
     0
 71
     0
  1
AcDbOsnapPointRef
 72
    13
331
1D1
 73
     2
 91
        0
 40
0.0
 10
266.0638660622125
 20
116.097765410127
 30
0.0
 75
     0
  1
AcDbOsnapPointRef
 72
    13
331
1F8
 73
     2
 91
        0
 40
0.0
 10
273.0638660622125
 20
116.097765410127
 30
0.0
 75
     0
  0
DIMASSOC
  5
1B1
102
{ACAD_REACTORS
330
1B0
102
}
330
1B0
100
AcDbDimAssoc
330
1AF
 90
        3
 70
     0
 71
     0
  1
AcDbOsnapPointRef
 72
    13
331
1F2
 73
     2
 91
        0
 40
0.0
 10
266.0638660622125
 20
42.09776427637007
 30
0.0
 75
     0
  1
AcDbOsnapPointRef
 72
     6
331
1D1
 73
     2
 91
        0
 40
0.0756302521008556
 10
266.0638660622125
 20
111.0977654101252
 30
0.0
332
1FC
 74
     2
 92
        0
 75
     0
  0
DIMASSOC
  5
1C0
102
{ACAD_REACTORS
330
1BF
102
}
330
1BF
100
AcDbDimAssoc
330
1BE
 90
        3
 70
     0
 71
     0
  1
AcDbOsnapPointRef
 72
    13
331
1D0
 73
     2
 91
        0
 40
0.0
 10
270.0638660622125
 20
113.0977654101252
 30
0.0
 75
     0
  1
AcDbOsnapPointRef
 72
     1
331
1D0
 73
     2
 91
        0
 40
1.0
 10
270.0638660622125
 20
40.09776541012525
 30
0.0
 75
     0
  0
DIMASSOC
  5
1E3
102
{ACAD_REACTORS
330
1E2
102
}
330
1E2
100
AcDbDimAssoc
330
1E1
 90
        3
 70
     0
 71
     0
  1
AcDbOsnapPointRef
 72
    13
331
1CE
 73
     2
 91
        0
 40
0.0
 10
291.0638660622126
 20
37.59776541012707
 30
0.0
 75
     0
  1
AcDbOsnapPointRef
 72
    13
331
1F4
 73
     2
 91
        0
 40
0.0
 10
321.0638660622125
 20
37.09776541012706
 30
0.0
 75
     0
  0
MLINESTYLE
  5
28
102
{ACAD_REACTORS
330
26
102
}
330
26
100
AcDbMlineStyle
  2
STANDARD
 70
     0
  3

 62
   256
 51
90.0
 52
90.0
 71
     2
 49
0.5
 62
   256
  6
BYLAYER
 49
-0.5
 62
   256
  6
BYLAYER
  0
ACDBPLACEHOLDER
  5
6
102
{ACAD_REACTORS
330
7
102
}
330
7
100
AcDbPlaceHolder
280
     0
  0
XRECORD
  5
346
102
{ACAD_REACTORS
330
33C
102
}
330
33C
100
AcDbXrecord
 90
        0
  0
XRECORD
  5
34A
102
{ACAD_REACTORS
330
33C
102
}
330
33C
100
AcDbXrecord
1000
DSTYLE
1002
{
1070
    79
 70
     2
1070
   179
 70
     1
1070
   289
 70
     0
1002
}
  0
XRECORD
  5
347
102
{ACAD_REACTORS
330
33C
102
}
330
33C
100
AcDbXrecord
  1
{FDEAD578-A652-11D2-9A35-0060089B3A3F}
  0
XRECORD
  5
33F
102
{ACAD_REACTORS
330
33C
102
}
330
33C
100
AcDbXrecord
  1

  0
XRECORD
  5
345
102
{ACAD_REACTORS
330
33C
102
}
330
33C
100
AcDbXrecord
 90
        4
  0
XRECORD
  5
341
102
{ACAD_REACTORS
330
33C
102
}
330
33C
100
AcDbXrecord
340
C
  0
XRECORD
  5
344
102
{ACAD_REACTORS
330
33C
102
}
330
33C
100
AcDbXrecord
 90
    10781
  0
XRECORD
  5
342
102
{ACAD_REACTORS
330
33C
102
}
330
33C
100
AcDbXrecord
340
27
  0
XRECORD
  5
343
102
{ACAD_REACTORS
330
33C
102
}
330
33C
100
AcDbXrecord
340
7
  0
XRECORD
  5
349
102
{ACAD_REACTORS
330
33C
102
}
330
33C
100
AcDbXrecord
 40
0.0
  0
XRECORD
  5
34D
102
{ACAD_REACTORS
330
33C
102
}
330
33C
100
AcDbXrecord
340
0
  0
XRECORD
  5
353
102
{ACAD_REACTORS
330
33C
102
}
330
33C
100
AcDbXrecord
 10
0.0
 20
0.0
 30
0.0
  0
XRECORD
  5
34F
102
{ACAD_REACTORS
330
33C
102
}
330
33C
100
AcDbXrecord
 10
0.0
 20
0.0
 30
0.0
  0
XRECORD
  5
352
102
{ACAD_REACTORS
330
33C
102
}
330
33C
100
AcDbXrecord
 10
0.0
 20
0.0
 30
0.0
  0
XRECORD
  5
350
102
{ACAD_REACTORS
330
33C
102
}
330
33C
100
AcDbXrecord
 10
0.0
 20
0.0
 30
0.0
  0
XRECORD
  5
351
102
{ACAD_REACTORS
330
33C
102
}
330
33C
100
AcDbXrecord
 10
0.0
 20
0.0
 30
0.0
  0
XRECORD
  5
34E
102
{ACAD_REACTORS
330
33C
102
}
330
33C
100
AcDbXrecord
 10
0.0
 20
0.0
 30
0.0
  0
XRECORD
  5
34B
102
{ACAD_REACTORS
330
33C
102
}
330
33C
100
AcDbXrecord
340
0
  0
XRECORD
  5
34C
102
{ACAD_REACTORS
330
33C
102
}
330
33C
100
AcDbXrecord
 70
     0
  0
XRECORD
  5
340
102
{ACAD_REACTORS
330
33C
102
}
330
33C
100
AcDbXrecord
  1

  0
XRECORD
  5
33D
102
{ACAD_REACTORS
330
33C
102
}
330
33C
100
AcDbXrecord
 90
        1
  0
XRECORD
  5
33E
102
{ACAD_REACTORS
330
33C
102
}
330
33C
100
AcDbXrecord
 90
       70
  0
XRECORD
  5
356
102
{ACAD_REACTORS
330
33C
102
}
330
33C
100
AcDbXrecord
340
0
  0
XRECORD
  5
35C
102
{ACAD_REACTORS
330
33C
102
}
330
33C
100
AcDbXrecord
 10
0.0
 20
0.0
 30
0.0
  0
XRECORD
  5
358
102
{ACAD_REACTORS
330
33C
102
}
330
33C
100
AcDbXrecord
 10
0.0
 20
0.0
 30
0.0
  0
XRECORD
  5
35B
102
{ACAD_REACTORS
330
33C
102
}
330
33C
100
AcDbXrecord
 10
0.0
 20
0.0
 30
0.0
  0
XRECORD
  5
359
102
{ACAD_REACTORS
330
33C
102
}
330
33C
100
AcDbXrecord
 10
0.0
 20
0.0
 30
0.0
  0
XRECORD
  5
35A
102
{ACAD_REACTORS
330
33C
102
}
330
33C
100
AcDbXrecord
 10
0.0
 20
0.0
 30
0.0
  0
XRECORD
  5
357
102
{ACAD_REACTORS
330
33C
102
}
330
33C
100
AcDbXrecord
 10
0.0
 20
0.0
 30
0.0
  0
XRECORD
  5
354
102
{ACAD_REACTORS
330
33C
102
}
330
33C
100
AcDbXrecord
340
0
  0
XRECORD
  5
355
102
{ACAD_REACTORS
330
33C
102
}
330
33C
100
AcDbXrecord
 70
     0
  0
XRECORD
  5
348
102
{ACAD_REACTORS
330
33C
102
}
330
33C
100
AcDbXrecord
  1
{927B2F7D-302E-45AA-96C3-B8C9C1EAB284}
  0
DICTIONARYVAR
  5
204
102
{ACAD_REACTORS
330
202
102
}
330
202
100
DictionaryVariables
280
     0
  1
2
  0
DICTIONARYVAR
  5
203
102
{ACAD_REACTORS
330
202
102
}
330
202
100
DictionaryVariables
280
     0
  1
1
  0
ENDSEC
  0
EOF
