  0
SECTION
  2
HEADER
  9
$ACADVER
  1
AC1014
  9
$ACADMAINTVER
 70
     9
  9
$DWGCODEPAGE
  3
ANSI_949
  9
$INSBASE
 10
0.0
 20
0.0
 30
0.0
  9
$EXTMIN
 10
-3.223582731927308
 20
2.572734501063678
 30
-0.0000000000000058
  9
$EXTMAX
 10
270.4532743674026
 20
220.7388015337783
 30
0.0000000000000104
  9
$LIMMIN
 10
0.0
 20
0.0
  9
$LIMMAX
 10
100.0
 20
50.0
  9
$ORTHOMODE
 70
     1
  9
$REGENMODE
 70
     1
  9
$FILLMODE
 70
     1
  9
$QTEXTMODE
 70
     0
  9
$MIRRTEXT
 70
     0
  9
$DRAGMODE
 70
     2
  9
$LTSCALE
 40
0.5
  9
$OSMODE
 70
   567
  9
$ATTMODE
 70
     1
  9
$TEXTSIZE
 40
5.777225951253058
  9
$TRACEWID
 40
1.0
  9
$TEXTSTYLE
  7
STANDARD
  9
$CLAYER
  8
0
  9
$CELTYPE
  6
BYLAYER
  9
$CECOLOR
 62
   256
  9
$CELTSCALE
 40
1.0
  9
$DELOBJ
 70
     1
  9
$DISPSILH
 70
     0
  9
$DIMSCALE
 40
1.0
  9
$DIMASZ
 40
3.5
  9
$DIMEXO
 40
1.0
  9
$DIMDLI
 40
10.0
  9
$DIMRND
 40
0.0
  9
$DIMDLE
 40
0.0
  9
$DIMEXE
 40
0.6
  9
$DIMTP
 40
0.0
  9
$DIMTM
 40
0.0
  9
$DIMTXT
 40
3.0
  9
$DIMCEN
 40
0.09
  9
$DIMTSZ
 40
0.0
  9
$DIMTOL
 70
     0
  9
$DIMLIM
 70
     0
  9
$DIMTIH
 70
     0
  9
$DIMTOH
 70
     0
  9
$DIMSE1
 70
     0
  9
$DIMSE2
 70
     0
  9
$DIMTAD
 70
     1
  9
$DIMZIN
 70
     8
  9
$DIMBLK
  1

  9
$DIMASO
 70
     1
  9
$DIMSHO
 70
     1
  9
$DIMPOST
  1

  9
$DIMAPOST
  1

  9
$DIMALT
 70
     0
  9
$DIMALTD
 70
     2
  9
$DIMALTF
 40
25.4
  9
$DIMLFAC
 40
1.0
  9
$DIMTOFL
 70
     1
  9
$DIMTVP
 40
0.0
  9
$DIMTIX
 70
     1
  9
$DIMSOXD
 70
     0
  9
$DIMSAH
 70
     0
  9
$DIMBLK1
  1

  9
$DIMBLK2
  1

  9
$DIMSTYLE
  2
STANDARD
  9
$DIMCLRD
 70
   123
  9
$DIMCLRE
 70
   123
  9
$DIMCLRT
 70
     3
  9
$DIMTFAC
 40
1.0
  9
$DIMGAP
 40
1.0
  9
$DIMJUST
 70
     0
  9
$DIMSD1
 70
     0
  9
$DIMSD2
 70
     0
  9
$DIMTOLJ
 70
     1
  9
$DIMTZIN
 70
     0
  9
$DIMALTZ
 70
     0
  9
$DIMALTTZ
 70
     0
  9
$DIMFIT
 70
     0
  9
$DIMUPT
 70
     1
  9
$DIMUNIT
 70
     2
  9
$DIMDEC
 70
     2
  9
$DIMTDEC
 70
     2
  9
$DIMALTU
 70
     2
  9
$DIMALTTD
 70
     2
  9
$DIMTXSTY
  7
STANDARD
  9
$DIMAUNIT
 70
     1
  9
$LUNITS
 70
     2
  9
$LUPREC
 70
     4
  9
$SKETCHINC
 40
1.0
  9
$FILLETRAD
 40
6.0
  9
$AUNITS
 70
     0
  9
$AUPREC
 70
     0
  9
$MENU
  1
.
  9
$ELEVATION
 40
0.0
  9
$PELEVATION
 40
0.0
  9
$THICKNESS
 40
0.0
  9
$LIMCHECK
 70
     0
  9
$BLIPMODE
 70
     1
  9
$CHAMFERA
 40
1.0
  9
$CHAMFERB
 40
1.0
  9
$CHAMFERC
 40
20.0
  9
$CHAMFERD
 40
0.0
  9
$SKPOLY
 70
     0
  9
$TDCREATE
 40
2452839.586179271
  9
$TDUPDATE
 40
2453377.778227882
  9
$TDINDWG
 40
9.8477920139
  9
$TDUSRTIMER
 40
9.8477920139
  9
$USRTIMER
 70
     1
  9
$ANGBASE
 50
0.0
  9
$ANGDIR
 70
     0
  9
$PDMODE
 70
     0
  9
$PDSIZE
 40
0.0
  9
$PLINEWID
 40
0.0
  9
$COORDS
 70
     2
  9
$SPLFRAME
 70
     0
  9
$SPLINETYPE
 70
     6
  9
$SPLINESEGS
 70
   800
  9
$ATTDIA
 70
     0
  9
$ATTREQ
 70
     1
  9
$HANDLING
 70
 22529
  9
$HANDSEED
  5
371
  9
$SURFTAB1
 70
     6
  9
$SURFTAB2
 70
     6
  9
$SURFTYPE
 70
     6
  9
$SURFU
 70
     6
  9
$SURFV
 70
     6
  9
$UCSNAME
  2

  9
$UCSORG
 10
0.0
 20
0.0
 30
0.0
  9
$UCSXDIR
 10
1.0
 20
0.0
 30
0.0
  9
$UCSYDIR
 10
0.0
 20
1.0
 30
0.0
  9
$PUCSNAME
  2

  9
$PUCSORG
 10
0.0
 20
0.0
 30
0.0
  9
$PUCSXDIR
 10
1.0
 20
0.0
 30
0.0
  9
$PUCSYDIR
 10
0.0
 20
1.0
 30
0.0
  9
$USERI1
 70
     0
  9
$USERI2
 70
     0
  9
$USERI3
 70
     0
  9
$USERI4
 70
     0
  9
$USERI5
 70
     0
  9
$USERR1
 40
0.0
  9
$USERR2
 40
0.0
  9
$USERR3
 40
0.0
  9
$USERR4
 40
0.0
  9
$USERR5
 40
0.0
  9
$WORLDVIEW
 70
     1
  9
$SHADEDGE
 70
     3
  9
$SHADEDIF
 70
    70
  9
$TILEMODE
 70
     1
  9
$MAXACTVP
 70
    48
  9
$PINSBASE
 10
0.0
 20
0.0
 30
0.0
  9
$PLIMCHECK
 70
     0
  9
$PEXTMIN
 10
0.0
 20
0.0
 30
0.0
  9
$PEXTMAX
 10
0.0
 20
0.0
 30
0.0
  9
$PLIMMIN
 10
0.0
 20
0.0
  9
$PLIMMAX
 10
12.0
 20
9.0
  9
$UNITMODE
 70
     0
  9
$VISRETAIN
 70
     1
  9
$PLINEGEN
 70
     0
  9
$PSLTSCALE
 70
     1
  9
$TREEDEPTH
 70
  3020
  9
$PICKSTYLE
 70
     0
  9
$CMLSTYLE
  2
STANDARD
  9
$CMLJUST
 70
     0
  9
$CMLSCALE
 40
20.0
  9
$PROXYGRAPHICS
 70
     1
  9
$MEASUREMENT
 70
     1
  0
ENDSEC
  0
SECTION
  2
CLASSES
  0
CLASS
  1
ACDBDICTIONARYWDFLT
  2
AcDbDictionaryWithDefault
  3
AutoCAD 2000
 90
        0
280
     0
281
     0
  0
CLASS
  1
ACDBPLACEHOLDER
  2
AcDbPlaceHolder
  3
AutoCAD 2000
 90
        0
280
     0
281
     0
  0
CLASS
  1
LAYOUT
  2
AcDbLayout
  3
AutoCAD 2000
 90
        0
280
     0
281
     0
  0
CLASS
  1
DICTIONARYVAR
  2
AcDbDictionaryVar
  3
AutoCAD 2000
 90
        0
280
     0
281
     0
  0
CLASS
  1
DIMASSOC
  2
AcDbDimAssoc
  3
"AcDbDimAssoc|Product Desc:     AcDim ARX App For Dimension|Company:          Autodesk, Inc.|WEB Address:      www.autodesk.com"
 90
        0
280
     0
281
     0
  0
CLASS
  1
LONG_TRANSACTION
  2
AcDbLongTransaction
  3
AutoCAD 2000
 90
        0
280
     0
281
     0
  0
CLASS
  1
LWPOLYLINE
  2
AcDbPolyline
  3
AutoCAD 2000
 90
        0
280
     0
281
     1
  0
CLASS
  1
HATCH
  2
AcDbHatch
  3
AutoCAD 2000
 90
        0
280
     0
281
     1
  0
CLASS
  1
XRECORD
  2
AcDbXrecord
  3
AutoCAD 2000
 90
        0
280
     0
281
     0
  0
CLASS
  1
LONG_TRANSACTION
  2
AcDbLongTransaction
  3
AutoCAD 2000
 90
        0
280
     0
281
     0
  0
CLASS
  1
LWPOLYLINE
  2
AcDbPolyline
  3
AutoCAD 2000
 90
        0
280
     0
281
     1
  0
CLASS
  1
HATCH
  2
AcDbHatch
  3
AutoCAD 2000
 90
        0
280
     0
281
     1
  0
CLASS
  1
XRECORD
  2
AcDbXrecord
  3
AutoCAD 2000
 90
        0
280
     0
281
     0
  0
CLASS
  1
LONG_TRANSACTION
  2
AcDbLongTransaction
  3
AutoCAD 2000
 90
        0
280
     0
281
     0
  0
CLASS
  1
LWPOLYLINE
  2
AcDbPolyline
  3
AutoCAD 2000
 90
        0
280
     0
281
     1
  0
CLASS
  1
HATCH
  2
AcDbHatch
  3
AutoCAD 2000
 90
        0
280
     0
281
     1
  0
CLASS
  1
XRECORD
  2
AcDbXrecord
  3
AutoCAD 2000
 90
        0
280
     0
281
     0
  0
CLASS
  1
LONG_TRANSACTION
  2
AcDbLongTransaction
  3
AutoCAD 2000
 90
        0
280
     0
281
     0
  0
CLASS
  1
LWPOLYLINE
  2
AcDbPolyline
  3
AutoCAD 2000
 90
        0
280
     0
281
     1
  0
CLASS
  1
HATCH
  2
AcDbHatch
  3
AutoCAD 2000
 90
        0
280
     0
281
     1
  0
CLASS
  1
XRECORD
  2
AcDbXrecord
  3
AutoCAD 2000
 90
        0
280
     0
281
     0
  0
CLASS
  1
LONG_TRANSACTION
  2
AcDbLongTransaction
  3
AutoCAD 2000
 90
        0
280
     0
281
     0
  0
CLASS
  1
LWPOLYLINE
  2
AcDbPolyline
  3
AutoCAD 2000
 90
        0
280
     0
281
     1
  0
CLASS
  1
HATCH
  2
AcDbHatch
  3
AutoCAD 2000
 90
        0
280
     0
281
     1
  0
CLASS
  1
XRECORD
  2
AcDbXrecord
  3
AutoCAD 2000
 90
        0
280
     0
281
     0
  0
CLASS
  1
LONG_TRANSACTION
  2
AcDbLongTransaction
  3
AutoCAD 2000
 90
        0
280
     0
281
     0
  0
CLASS
  1
LWPOLYLINE
  2
AcDbPolyline
  3
AutoCAD 2000
 90
        0
280
     0
281
     1
  0
CLASS
  1
HATCH
  2
AcDbHatch
  3
AutoCAD 2000
 90
        0
280
     0
281
     1
  0
CLASS
  1
XRECORD
  2
AcDbXrecord
  3
AutoCAD 2000
 90
        0
280
     0
281
     0
  0
CLASS
  1
LONG_TRANSACTION
  2
AcDbLongTransaction
  3
AutoCAD 2000
 90
        0
280
     0
281
     0
  0
CLASS
  1
LWPOLYLINE
  2
AcDbPolyline
  3
AutoCAD 2000
 90
        0
280
     0
281
     1
  0
CLASS
  1
HATCH
  2
AcDbHatch
  3
AutoCAD 2000
 90
        0
280
     0
281
     1
  0
CLASS
  1
XRECORD
  2
AcDbXrecord
  3
AutoCAD 2000
 90
        0
280
     0
281
     0
  0
CLASS
  1
LONG_TRANSACTION
  2
AcDbLongTransaction
  3
AutoCAD 2000
 90
        0
280
     0
281
     0
  0
CLASS
  1
LWPOLYLINE
  2
AcDbPolyline
  3
AutoCAD 2000
 90
        0
280
     0
281
     1
  0
CLASS
  1
HATCH
  2
AcDbHatch
  3
AutoCAD 2000
 90
        0
280
     0
281
     1
  0
CLASS
  1
XRECORD
  2
AcDbXrecord
  3
AutoCAD 2000
 90
        0
280
     0
281
     0
  0
CLASS
  1
LONG_TRANSACTION
  2
AcDbLongTransaction
  3
AutoCAD 2000
 90
        0
280
     0
281
     0
  0
CLASS
  1
LWPOLYLINE
  2
AcDbPolyline
  3
AutoCAD 2000
 90
        0
280
     0
281
     1
  0
CLASS
  1
HATCH
  2
AcDbHatch
  3
AutoCAD 2000
 90
        0
280
     0
281
     1
  0
CLASS
  1
XRECORD
  2
AcDbXrecord
  3
AutoCAD 2000
 90
        0
280
     0
281
     0
  0
CLASS
  1
LONG_TRANSACTION
  2
AcDbLongTransaction
  3
AutoCAD 2000
 90
        0
280
     0
281
     0
  0
CLASS
  1
LWPOLYLINE
  2
AcDbPolyline
  3
AutoCAD 2000
 90
        0
280
     0
281
     1
  0
CLASS
  1
HATCH
  2
AcDbHatch
  3
AutoCAD 2000
 90
        0
280
     0
281
     1
  0
CLASS
  1
XRECORD
  2
AcDbXrecord
  3
AutoCAD 2000
 90
        0
280
     0
281
     0
  0
CLASS
  1
LONG_TRANSACTION
  2
AcDbLongTransaction
  3
AutoCAD 2000
 90
        0
280
     0
281
     0
  0
CLASS
  1
LWPOLYLINE
  2
AcDbPolyline
  3
AutoCAD 2000
 90
        0
280
     0
281
     1
  0
CLASS
  1
HATCH
  2
AcDbHatch
  3
AutoCAD 2000
 90
        0
280
     0
281
     1
  0
CLASS
  1
XRECORD
  2
AcDbXrecord
  3
AutoCAD 2000
 90
        0
280
     0
281
     0
  0
CLASS
  1
LONG_TRANSACTION
  2
AcDbLongTransaction
  3
AutoCAD 2000
 90
        0
280
     0
281
     0
  0
CLASS
  1
LWPOLYLINE
  2
AcDbPolyline
  3
AutoCAD 2000
 90
        0
280
     0
281
     1
  0
CLASS
  1
HATCH
  2
AcDbHatch
  3
AutoCAD 2000
 90
        0
280
     0
281
     1
  0
CLASS
  1
XRECORD
  2
AcDbXrecord
  3
AutoCAD 2000
 90
        0
280
     0
281
     0
  0
CLASS
  1
LONG_TRANSACTION
  2
AcDbLongTransaction
  3
AutoCAD 2000
 90
        0
280
     0
281
     0
  0
CLASS
  1
LWPOLYLINE
  2
AcDbPolyline
  3
AutoCAD 2000
 90
        0
280
     0
281
     1
  0
CLASS
  1
HATCH
  2
AcDbHatch
  3
AutoCAD 2000
 90
        0
280
     0
281
     1
  0
CLASS
  1
XRECORD
  2
AcDbXrecord
  3
AutoCAD 2000
 90
        0
280
     0
281
     0
  0
CLASS
  1
LONG_TRANSACTION
  2
AcDbLongTransaction
  3
AutoCAD 2000
 90
        0
280
     0
281
     0
  0
CLASS
  1
LWPOLYLINE
  2
AcDbPolyline
  3
AutoCAD 2000
 90
        0
280
     0
281
     1
  0
CLASS
  1
HATCH
  2
AcDbHatch
  3
AutoCAD 2000
 90
        0
280
     0
281
     1
  0
CLASS
  1
XRECORD
  2
AcDbXrecord
  3
AutoCAD 2000
 90
        0
280
     0
281
     0
  0
CLASS
  1
LONG_TRANSACTION
  2
AcDbLongTransaction
  3
AutoCAD 2000
 90
        0
280
     0
281
     0
  0
CLASS
  1
LWPOLYLINE
  2
AcDbPolyline
  3
AutoCAD 2000
 90
        0
280
     0
281
     1
  0
CLASS
  1
HATCH
  2
AcDbHatch
  3
AutoCAD 2000
 90
        0
280
     0
281
     1
  0
CLASS
  1
XRECORD
  2
AcDbXrecord
  3
AutoCAD 2000
 90
        0
280
     0
281
     0
  0
CLASS
  1
LONG_TRANSACTION
  2
AcDbLongTransaction
  3
AutoCAD 2000
 90
        0
280
     0
281
     0
  0
CLASS
  1
LWPOLYLINE
  2
AcDbPolyline
  3
AutoCAD 2000
 90
        0
280
     0
281
     1
  0
CLASS
  1
HATCH
  2
AcDbHatch
  3
AutoCAD 2000
 90
        0
280
     0
281
     1
  0
CLASS
  1
XRECORD
  2
AcDbXrecord
  3
AutoCAD 2000
 90
        0
280
     0
281
     0
  0
CLASS
  1
LONG_TRANSACTION
  2
AcDbLongTransaction
  3
AutoCAD 2000
 90
        0
280
     0
281
     0
  0
CLASS
  1
LWPOLYLINE
  2
AcDbPolyline
  3
AutoCAD 2000
 90
        0
280
     0
281
     1
  0
CLASS
  1
HATCH
  2
AcDbHatch
  3
AutoCAD 2000
 90
        0
280
     0
281
     1
  0
CLASS
  1
XRECORD
  2
AcDbXrecord
  3
AutoCAD 2000
 90
        0
280
     0
281
     0
  0
CLASS
  1
LONG_TRANSACTION
  2
AcDbLongTransaction
  3
AutoCAD 2000
 90
        0
280
     0
281
     0
  0
CLASS
  1
LWPOLYLINE
  2
AcDbPolyline
  3
AutoCAD 2000
 90
        0
280
     0
281
     1
  0
CLASS
  1
HATCH
  2
AcDbHatch
  3
AutoCAD 2000
 90
        0
280
     0
281
     1
  0
CLASS
  1
XRECORD
  2
AcDbXrecord
  3
AutoCAD 2000
 90
        0
280
     0
281
     0
  0
CLASS
  1
LONG_TRANSACTION
  2
AcDbLongTransaction
  3
AutoCAD 2000
 90
        0
280
     0
281
     0
  0
CLASS
  1
LWPOLYLINE
  2
AcDbPolyline
  3
AutoCAD 2000
 90
        0
280
     0
281
     1
  0
CLASS
  1
HATCH
  2
AcDbHatch
  3
AutoCAD 2000
 90
        0
280
     0
281
     1
  0
CLASS
  1
XRECORD
  2
AcDbXrecord
  3
AutoCAD 2000
 90
        0
280
     0
281
     0
  0
CLASS
  1
LONG_TRANSACTION
  2
AcDbLongTransaction
  3
AutoCAD 2000
 90
        0
280
     0
281
     0
  0
CLASS
  1
LWPOLYLINE
  2
AcDbPolyline
  3
AutoCAD 2000
 90
        0
280
     0
281
     1
  0
CLASS
  1
HATCH
  2
AcDbHatch
  3
AutoCAD 2000
 90
        0
280
     0
281
     1
  0
CLASS
  1
XRECORD
  2
AcDbXrecord
  3
AutoCAD 2000
 90
        0
280
     0
281
     0
  0
CLASS
  1
LONG_TRANSACTION
  2
AcDbLongTransaction
  3
AutoCAD 2000
 90
        0
280
     0
281
     0
  0
CLASS
  1
LWPOLYLINE
  2
AcDbPolyline
  3
AutoCAD 2000
 90
        0
280
     0
281
     1
  0
CLASS
  1
HATCH
  2
AcDbHatch
  3
AutoCAD 2000
 90
        0
280
     0
281
     1
  0
CLASS
  1
XRECORD
  2
AcDbXrecord
  3
AutoCAD 2000
 90
        0
280
     0
281
     0
  0
CLASS
  1
LONG_TRANSACTION
  2
AcDbLongTransaction
  3
AutoCAD 2000
 90
        0
280
     0
281
     0
  0
CLASS
  1
LWPOLYLINE
  2
AcDbPolyline
  3
AutoCAD 2000
 90
        0
280
     0
281
     1
  0
CLASS
  1
HATCH
  2
AcDbHatch
  3
AutoCAD 2000
 90
        0
280
     0
281
     1
  0
CLASS
  1
XRECORD
  2
AcDbXrecord
  3
AutoCAD 2000
 90
        0
280
     0
281
     0
  0
CLASS
  1
LONG_TRANSACTION
  2
AcDbLongTransaction
  3
AutoCAD 2000
 90
        0
280
     0
281
     0
  0
CLASS
  1
LWPOLYLINE
  2
AcDbPolyline
  3
AutoCAD 2000
 90
        0
280
     0
281
     1
  0
CLASS
  1
HATCH
  2
AcDbHatch
  3
AutoCAD 2000
 90
        0
280
     0
281
     1
  0
CLASS
  1
XRECORD
  2
AcDbXrecord
  3
AutoCAD 2000
 90
        0
280
     0
281
     0
  0
CLASS
  1
LONG_TRANSACTION
  2
AcDbLongTransaction
  3
AutoCAD 2000
 90
        0
280
     0
281
     0
  0
CLASS
  1
LWPOLYLINE
  2
AcDbPolyline
  3
AutoCAD 2000
 90
        0
280
     0
281
     1
  0
CLASS
  1
HATCH
  2
AcDbHatch
  3
AutoCAD 2000
 90
        0
280
     0
281
     1
  0
CLASS
  1
XRECORD
  2
AcDbXrecord
  3
AutoCAD 2000
 90
        0
280
     0
281
     0
  0
CLASS
  1
LONG_TRANSACTION
  2
AcDbLongTransaction
  3
AutoCAD 2000
 90
        0
280
     0
281
     0
  0
CLASS
  1
LWPOLYLINE
  2
AcDbPolyline
  3
AutoCAD 2000
 90
        0
280
     0
281
     1
  0
CLASS
  1
HATCH
  2
AcDbHatch
  3
AutoCAD 2000
 90
        0
280
     0
281
     1
  0
CLASS
  1
XRECORD
  2
AcDbXrecord
  3
AutoCAD 2000
 90
        0
280
     0
281
     0
  0
CLASS
  1
LONG_TRANSACTION
  2
AcDbLongTransaction
  3
AutoCAD 2000
 90
        0
280
     0
281
     0
  0
CLASS
  1
LWPOLYLINE
  2
AcDbPolyline
  3
AutoCAD 2000
 90
        0
280
     0
281
     1
  0
CLASS
  1
HATCH
  2
AcDbHatch
  3
AutoCAD 2000
 90
        0
280
     0
281
     1
  0
CLASS
  1
XRECORD
  2
AcDbXrecord
  3
AutoCAD 2000
 90
        0
280
     0
281
     0
  0
CLASS
  1
LONG_TRANSACTION
  2
AcDbLongTransaction
  3
AutoCAD 2000
 90
        0
280
     0
281
     0
  0
CLASS
  1
LWPOLYLINE
  2
AcDbPolyline
  3
AutoCAD 2000
 90
        0
280
     0
281
     1
  0
CLASS
  1
HATCH
  2
AcDbHatch
  3
AutoCAD 2000
 90
        0
280
     0
281
     1
  0
CLASS
  1
XRECORD
  2
AcDbXrecord
  3
AutoCAD 2000
 90
        0
280
     0
281
     0
  0
CLASS
  1
LONG_TRANSACTION
  2
AcDbLongTransaction
  3
AutoCAD 2000
 90
        0
280
     0
281
     0
  0
CLASS
  1
LWPOLYLINE
  2
AcDbPolyline
  3
AutoCAD 2000
 90
        0
280
     0
281
     1
  0
CLASS
  1
HATCH
  2
AcDbHatch
  3
AutoCAD 2000
 90
        0
280
     0
281
     1
  0
CLASS
  1
XRECORD
  2
AcDbXrecord
  3
AutoCAD 2000
 90
        0
280
     0
281
     0
  0
CLASS
  1
LONG_TRANSACTION
  2
AcDbLongTransaction
  3
AutoCAD 2000
 90
        0
280
     0
281
     0
  0
CLASS
  1
LWPOLYLINE
  2
AcDbPolyline
  3
AutoCAD 2000
 90
        0
280
     0
281
     1
  0
CLASS
  1
HATCH
  2
AcDbHatch
  3
AutoCAD 2000
 90
        0
280
     0
281
     1
  0
CLASS
  1
XRECORD
  2
AcDbXrecord
  3
AutoCAD 2000
 90
        0
280
     0
281
     0
  0
CLASS
  1
LONG_TRANSACTION
  2
AcDbLongTransaction
  3
AutoCAD 2000
 90
        0
280
     0
281
     0
  0
CLASS
  1
LWPOLYLINE
  2
AcDbPolyline
  3
AutoCAD 2000
 90
        0
280
     0
281
     1
  0
CLASS
  1
HATCH
  2
AcDbHatch
  3
AutoCAD 2000
 90
        0
280
     0
281
     1
  0
CLASS
  1
XRECORD
  2
AcDbXrecord
  3
AutoCAD 2000
 90
        0
280
     0
281
     0
  0
CLASS
  1
LONG_TRANSACTION
  2
AcDbLongTransaction
  3
AutoCAD 2000
 90
        0
280
     0
281
     0
  0
CLASS
  1
LWPOLYLINE
  2
AcDbPolyline
  3
AutoCAD 2000
 90
        0
280
     0
281
     1
  0
CLASS
  1
HATCH
  2
AcDbHatch
  3
AutoCAD 2000
 90
        0
280
     0
281
     1
  0
CLASS
  1
XRECORD
  2
AcDbXrecord
  3
AutoCAD 2000
 90
        0
280
     0
281
     0
  0
CLASS
  1
LONG_TRANSACTION
  2
AcDbLongTransaction
  3
AutoCAD 2000
 90
        0
280
     0
281
     0
  0
CLASS
  1
LWPOLYLINE
  2
AcDbPolyline
  3
AutoCAD 2000
 90
        0
280
     0
281
     1
  0
CLASS
  1
HATCH
  2
AcDbHatch
  3
AutoCAD 2000
 90
        0
280
     0
281
     1
  0
CLASS
  1
XRECORD
  2
AcDbXrecord
  3
AutoCAD 2000
 90
        0
280
     0
281
     0
  0
CLASS
  1
LONG_TRANSACTION
  2
AcDbLongTransaction
  3
AutoCAD 2000
 90
        0
280
     0
281
     0
  0
CLASS
  1
LWPOLYLINE
  2
AcDbPolyline
  3
AutoCAD 2000
 90
        0
280
     0
281
     1
  0
CLASS
  1
HATCH
  2
AcDbHatch
  3
AutoCAD 2000
 90
        0
280
     0
281
     1
  0
CLASS
  1
XRECORD
  2
AcDbXrecord
  3
AutoCAD 2000
 90
        0
280
     0
281
     0
  0
CLASS
  1
LONG_TRANSACTION
  2
AcDbLongTransaction
  3
AutoCAD 2000
 90
        0
280
     0
281
     0
  0
CLASS
  1
LWPOLYLINE
  2
AcDbPolyline
  3
AutoCAD 2000
 90
        0
280
     0
281
     1
  0
CLASS
  1
HATCH
  2
AcDbHatch
  3
AutoCAD 2000
 90
        0
280
     0
281
     1
  0
CLASS
  1
XRECORD
  2
AcDbXrecord
  3
AutoCAD 2000
 90
        0
280
     0
281
     0
  0
CLASS
  1
LONG_TRANSACTION
  2
AcDbLongTransaction
  3
AutoCAD 2000
 90
        0
280
     0
281
     0
  0
CLASS
  1
LWPOLYLINE
  2
AcDbPolyline
  3
AutoCAD 2000
 90
        0
280
     0
281
     1
  0
CLASS
  1
HATCH
  2
AcDbHatch
  3
AutoCAD 2000
 90
        0
280
     0
281
     1
  0
CLASS
  1
XRECORD
  2
AcDbXrecord
  3
AutoCAD 2000
 90
        0
280
     0
281
     0
  0
CLASS
  1
LONG_TRANSACTION
  2
AcDbLongTransaction
  3
AutoCAD 2000
 90
        0
280
     0
281
     0
  0
CLASS
  1
LWPOLYLINE
  2
AcDbPolyline
  3
AutoCAD 2000
 90
        0
280
     0
281
     1
  0
CLASS
  1
HATCH
  2
AcDbHatch
  3
AutoCAD 2000
 90
        0
280
     0
281
     1
  0
CLASS
  1
XRECORD
  2
AcDbXrecord
  3
AutoCAD 2000
 90
        0
280
     0
281
     0
  0
CLASS
  1
LONG_TRANSACTION
  2
AcDbLongTransaction
  3
AutoCAD 2000
 90
        0
280
     0
281
     0
  0
CLASS
  1
LWPOLYLINE
  2
AcDbPolyline
  3
AutoCAD 2000
 90
        0
280
     0
281
     1
  0
CLASS
  1
HATCH
  2
AcDbHatch
  3
AutoCAD 2000
 90
        0
280
     0
281
     1
  0
CLASS
  1
XRECORD
  2
AcDbXrecord
  3
AutoCAD 2000
 90
        0
280
     0
281
     0
  0
CLASS
  1
LONG_TRANSACTION
  2
AcDbLongTransaction
  3
AutoCAD 2000
 90
        0
280
     0
281
     0
  0
CLASS
  1
LWPOLYLINE
  2
AcDbPolyline
  3
AutoCAD 2000
 90
        0
280
     0
281
     1
  0
CLASS
  1
HATCH
  2
AcDbHatch
  3
AutoCAD 2000
 90
        0
280
     0
281
     1
  0
CLASS
  1
XRECORD
  2
AcDbXrecord
  3
AutoCAD 2000
 90
        0
280
     0
281
     0
  0
CLASS
  1
LONG_TRANSACTION
  2
AcDbLongTransaction
  3
AutoCAD 2000
 90
        0
280
     0
281
     0
  0
CLASS
  1
LWPOLYLINE
  2
AcDbPolyline
  3
AutoCAD 2000
 90
        0
280
     0
281
     1
  0
CLASS
  1
HATCH
  2
AcDbHatch
  3
AutoCAD 2000
 90
        0
280
     0
281
     1
  0
CLASS
  1
XRECORD
  2
AcDbXrecord
  3
AutoCAD 2000
 90
        0
280
     0
281
     0
  0
CLASS
  1
LONG_TRANSACTION
  2
AcDbLongTransaction
  3
AutoCAD 2000
 90
        0
280
     0
281
     0
  0
CLASS
  1
LWPOLYLINE
  2
AcDbPolyline
  3
AutoCAD 2000
 90
        0
280
     0
281
     1
  0
CLASS
  1
HATCH
  2
AcDbHatch
  3
AutoCAD 2000
 90
        0
280
     0
281
     1
  0
CLASS
  1
XRECORD
  2
AcDbXrecord
  3
AutoCAD 2000
 90
        0
280
     0
281
     0
  0
CLASS
  1
LONG_TRANSACTION
  2
AcDbLongTransaction
  3
AutoCAD 2000
 90
        0
280
     0
281
     0
  0
CLASS
  1
LWPOLYLINE
  2
AcDbPolyline
  3
AutoCAD 2000
 90
        0
280
     0
281
     1
  0
CLASS
  1
HATCH
  2
AcDbHatch
  3
AutoCAD 2000
 90
        0
280
     0
281
     1
  0
CLASS
  1
XRECORD
  2
AcDbXrecord
  3
AutoCAD 2000
 90
        0
280
     0
281
     0
  0
CLASS
  1
LONG_TRANSACTION
  2
AcDbLongTransaction
  3
AutoCAD 2000
 90
        0
280
     0
281
     0
  0
CLASS
  1
LWPOLYLINE
  2
AcDbPolyline
  3
AutoCAD 2000
 90
        0
280
     0
281
     1
  0
CLASS
  1
HATCH
  2
AcDbHatch
  3
AutoCAD 2000
 90
        0
280
     0
281
     1
  0
CLASS
  1
XRECORD
  2
AcDbXrecord
  3
AutoCAD 2000
 90
        0
280
     0
281
     0
  0
CLASS
  1
LONG_TRANSACTION
  2
AcDbLongTransaction
  3
AutoCAD 2000
 90
        0
280
     0
281
     0
  0
CLASS
  1
LWPOLYLINE
  2
AcDbPolyline
  3
AutoCAD 2000
 90
        0
280
     0
281
     1
  0
CLASS
  1
HATCH
  2
AcDbHatch
  3
AutoCAD 2000
 90
        0
280
     0
281
     1
  0
CLASS
  1
XRECORD
  2
AcDbXrecord
  3
AutoCAD 2000
 90
        0
280
     0
281
     0
  0
CLASS
  1
LONG_TRANSACTION
  2
AcDbLongTransaction
  3
AutoCAD 2000
 90
        0
280
     0
281
     0
  0
CLASS
  1
LWPOLYLINE
  2
AcDbPolyline
  3
AutoCAD 2000
 90
        0
280
     0
281
     1
  0
CLASS
  1
HATCH
  2
AcDbHatch
  3
AutoCAD 2000
 90
        0
280
     0
281
     1
  0
CLASS
  1
XRECORD
  2
AcDbXrecord
  3
AutoCAD 2000
 90
        0
280
     0
281
     0
  0
CLASS
  1
LONG_TRANSACTION
  2
AcDbLongTransaction
  3
AutoCAD 2000
 90
        0
280
     0
281
     0
  0
CLASS
  1
LWPOLYLINE
  2
AcDbPolyline
  3
AutoCAD 2000
 90
        0
280
     0
281
     1
  0
CLASS
  1
HATCH
  2
AcDbHatch
  3
AutoCAD 2000
 90
        0
280
     0
281
     1
  0
CLASS
  1
XRECORD
  2
AcDbXrecord
  3
AutoCAD 2000
 90
        0
280
     0
281
     0
  0
CLASS
  1
LONG_TRANSACTION
  2
AcDbLongTransaction
  3
AutoCAD 2000
 90
        0
280
     0
281
     0
  0
CLASS
  1
LWPOLYLINE
  2
AcDbPolyline
  3
AutoCAD 2000
 90
        0
280
     0
281
     1
  0
CLASS
  1
HATCH
  2
AcDbHatch
  3
AutoCAD 2000
 90
        0
280
     0
281
     1
  0
CLASS
  1
XRECORD
  2
AcDbXrecord
  3
AutoCAD 2000
 90
        0
280
     0
281
     0
  0
CLASS
  1
LONG_TRANSACTION
  2
AcDbLongTransaction
  3
AutoCAD 2000
 90
        0
280
     0
281
     0
  0
CLASS
  1
LWPOLYLINE
  2
AcDbPolyline
  3
AutoCAD 2000
 90
        0
280
     0
281
     1
  0
CLASS
  1
HATCH
  2
AcDbHatch
  3
AutoCAD 2000
 90
        0
280
     0
281
     1
  0
CLASS
  1
XRECORD
  2
AcDbXrecord
  3
AutoCAD 2000
 90
        0
280
     0
281
     0
  0
CLASS
  1
LONG_TRANSACTION
  2
AcDbLongTransaction
  3
AutoCAD 2000
 90
        0
280
     0
281
     0
  0
CLASS
  1
LWPOLYLINE
  2
AcDbPolyline
  3
AutoCAD 2000
 90
        0
280
     0
281
     1
  0
CLASS
  1
HATCH
  2
AcDbHatch
  3
AutoCAD 2000
 90
        0
280
     0
281
     1
  0
CLASS
  1
XRECORD
  2
AcDbXrecord
  3
AutoCAD 2000
 90
        0
280
     0
281
     0
  0
CLASS
  1
LONG_TRANSACTION
  2
AcDbLongTransaction
  3
AutoCAD 2000
 90
        0
280
     0
281
     0
  0
CLASS
  1
LWPOLYLINE
  2
AcDbPolyline
  3
AutoCAD 2000
 90
        0
280
     0
281
     1
  0
CLASS
  1
HATCH
  2
AcDbHatch
  3
AutoCAD 2000
 90
        0
280
     0
281
     1
  0
CLASS
  1
XRECORD
  2
AcDbXrecord
  3
AutoCAD 2000
 90
        0
280
     0
281
     0
  0
CLASS
  1
LONG_TRANSACTION
  2
AcDbLongTransaction
  3
AutoCAD 2000
 90
        0
280
     0
281
     0
  0
CLASS
  1
LWPOLYLINE
  2
AcDbPolyline
  3
AutoCAD 2000
 90
        0
280
     0
281
     1
  0
CLASS
  1
HATCH
  2
AcDbHatch
  3
AutoCAD 2000
 90
        0
280
     0
281
     1
  0
CLASS
  1
XRECORD
  2
AcDbXrecord
  3
AutoCAD 2000
 90
        0
280
     0
281
     0
  0
CLASS
  1
LONG_TRANSACTION
  2
AcDbLongTransaction
  3
AutoCAD 2000
 90
        0
280
     0
281
     0
  0
CLASS
  1
LWPOLYLINE
  2
AcDbPolyline
  3
AutoCAD 2000
 90
        0
280
     0
281
     1
  0
CLASS
  1
HATCH
  2
AcDbHatch
  3
AutoCAD 2000
 90
        0
280
     0
281
     1
  0
CLASS
  1
XRECORD
  2
AcDbXrecord
  3
AutoCAD 2000
 90
        0
280
     0
281
     0
  0
CLASS
  1
LONG_TRANSACTION
  2
AcDbLongTransaction
  3
AutoCAD 2000
 90
        0
280
     0
281
     0
  0
CLASS
  1
LWPOLYLINE
  2
AcDbPolyline
  3
AutoCAD 2000
 90
        0
280
     0
281
     1
  0
CLASS
  1
HATCH
  2
AcDbHatch
  3
AutoCAD 2000
 90
        0
280
     0
281
     1
  0
CLASS
  1
XRECORD
  2
AcDbXrecord
  3
AutoCAD 2000
 90
        0
280
     0
281
     0
  0
CLASS
  1
LONG_TRANSACTION
  2
AcDbLongTransaction
  3
AutoCAD 2000
 90
        0
280
     0
281
     0
  0
CLASS
  1
LWPOLYLINE
  2
AcDbPolyline
  3
AutoCAD 2000
 90
        0
280
     0
281
     1
  0
CLASS
  1
HATCH
  2
AcDbHatch
  3
AutoCAD 2000
 90
        0
280
     0
281
     1
  0
CLASS
  1
XRECORD
  2
AcDbXrecord
  3
AutoCAD 2000
 90
        0
280
     0
281
     0
  0
CLASS
  1
LONG_TRANSACTION
  2
AcDbLongTransaction
  3
AutoCAD 2000
 90
        0
280
     0
281
     0
  0
CLASS
  1
LWPOLYLINE
  2
AcDbPolyline
  3
AutoCAD 2000
 90
        0
280
     0
281
     1
  0
CLASS
  1
HATCH
  2
AcDbHatch
  3
AutoCAD 2000
 90
        0
280
     0
281
     1
  0
CLASS
  1
XRECORD
  2
AcDbXrecord
  3
AutoCAD 2000
 90
        0
280
     0
281
     0
  0
CLASS
  1
LONG_TRANSACTION
  2
AcDbLongTransaction
  3
AutoCAD 2000
 90
        0
280
     0
281
     0
  0
CLASS
  1
LWPOLYLINE
  2
AcDbPolyline
  3
AutoCAD 2000
 90
        0
280
     0
281
     1
  0
CLASS
  1
HATCH
  2
AcDbHatch
  3
AutoCAD 2000
 90
        0
280
     0
281
     1
  0
CLASS
  1
XRECORD
  2
AcDbXrecord
  3
AutoCAD 2000
 90
        0
280
     0
281
     0
  0
CLASS
  1
LONG_TRANSACTION
  2
AcDbLongTransaction
  3
AutoCAD 2000
 90
        0
280
     0
281
     0
  0
CLASS
  1
LWPOLYLINE
  2
AcDbPolyline
  3
AutoCAD 2000
 90
        0
280
     0
281
     1
  0
CLASS
  1
HATCH
  2
AcDbHatch
  3
AutoCAD 2000
 90
        0
280
     0
281
     1
  0
CLASS
  1
XRECORD
  2
AcDbXrecord
  3
AutoCAD 2000
 90
        0
280
     0
281
     0
  0
CLASS
  1
LONG_TRANSACTION
  2
AcDbLongTransaction
  3
AutoCAD 2000
 90
        0
280
     0
281
     0
  0
CLASS
  1
LWPOLYLINE
  2
AcDbPolyline
  3
AutoCAD 2000
 90
        0
280
     0
281
     1
  0
CLASS
  1
HATCH
  2
AcDbHatch
  3
AutoCAD 2000
 90
        0
280
     0
281
     1
  0
CLASS
  1
XRECORD
  2
AcDbXrecord
  3
AutoCAD 2000
 90
        0
280
     0
281
     0
  0
CLASS
  1
LONG_TRANSACTION
  2
AcDbLongTransaction
  3
AutoCAD 2000
 90
        0
280
     0
281
     0
  0
CLASS
  1
LWPOLYLINE
  2
AcDbPolyline
  3
AutoCAD 2000
 90
        0
280
     0
281
     1
  0
CLASS
  1
HATCH
  2
AcDbHatch
  3
AutoCAD 2000
 90
        0
280
     0
281
     1
  0
CLASS
  1
XRECORD
  2
AcDbXrecord
  3
AutoCAD 2000
 90
        0
280
     0
281
     0
  0
CLASS
  1
LONG_TRANSACTION
  2
AcDbLongTransaction
  3
AutoCAD 2000
 90
        0
280
     0
281
     0
  0
CLASS
  1
LWPOLYLINE
  2
AcDbPolyline
  3
AutoCAD 2000
 90
        0
280
     0
281
     1
  0
CLASS
  1
HATCH
  2
AcDbHatch
  3
AutoCAD 2000
 90
        0
280
     0
281
     1
  0
CLASS
  1
XRECORD
  2
AcDbXrecord
  3
AutoCAD 2000
 90
        0
280
     0
281
     0
  0
CLASS
  1
LONG_TRANSACTION
  2
AcDbLongTransaction
  3
AutoCAD 2000
 90
        0
280
     0
281
     0
  0
CLASS
  1
LWPOLYLINE
  2
AcDbPolyline
  3
AutoCAD 2000
 90
        0
280
     0
281
     1
  0
CLASS
  1
HATCH
  2
AcDbHatch
  3
AutoCAD 2000
 90
        0
280
     0
281
     1
  0
CLASS
  1
XRECORD
  2
AcDbXrecord
  3
AutoCAD 2000
 90
        0
280
     0
281
     0
  0
CLASS
  1
LONG_TRANSACTION
  2
AcDbLongTransaction
  3
AutoCAD 2000
 90
        0
280
     0
281
     0
  0
CLASS
  1
LWPOLYLINE
  2
AcDbPolyline
  3
AutoCAD 2000
 90
        0
280
     0
281
     1
  0
CLASS
  1
HATCH
  2
AcDbHatch
  3
AutoCAD 2000
 90
        0
280
     0
281
     1
  0
CLASS
  1
XRECORD
  2
AcDbXrecord
  3
AutoCAD 2000
 90
        0
280
     0
281
     0
  0
CLASS
  1
LONG_TRANSACTION
  2
AcDbLongTransaction
  3
AutoCAD 2000
 90
        0
280
     0
281
     0
  0
CLASS
  1
LWPOLYLINE
  2
AcDbPolyline
  3
AutoCAD 2000
 90
        0
280
     0
281
     1
  0
CLASS
  1
HATCH
  2
AcDbHatch
  3
AutoCAD 2000
 90
        0
280
     0
281
     1
  0
CLASS
  1
XRECORD
  2
AcDbXrecord
  3
AutoCAD 2000
 90
        0
280
     0
281
     0
  0
CLASS
  1
LONG_TRANSACTION
  2
AcDbLongTransaction
  3
AutoCAD 2000
 90
        0
280
     0
281
     0
  0
CLASS
  1
LWPOLYLINE
  2
AcDbPolyline
  3
AutoCAD 2000
 90
        0
280
     0
281
     1
  0
CLASS
  1
HATCH
  2
AcDbHatch
  3
AutoCAD 2000
 90
        0
280
     0
281
     1
  0
CLASS
  1
XRECORD
  2
AcDbXrecord
  3
AutoCAD 2000
 90
        0
280
     0
281
     0
  0
CLASS
  1
LONG_TRANSACTION
  2
AcDbLongTransaction
  3
AutoCAD 2000
 90
        0
280
     0
281
     0
  0
CLASS
  1
LWPOLYLINE
  2
AcDbPolyline
  3
AutoCAD 2000
 90
        0
280
     0
281
     1
  0
CLASS
  1
HATCH
  2
AcDbHatch
  3
AutoCAD 2000
 90
        0
280
     0
281
     1
  0
CLASS
  1
XRECORD
  2
AcDbXrecord
  3
AutoCAD 2000
 90
        0
280
     0
281
     0
  0
CLASS
  1
LONG_TRANSACTION
  2
AcDbLongTransaction
  3
AutoCAD 2000
 90
        0
280
     0
281
     0
  0
CLASS
  1
LWPOLYLINE
  2
AcDbPolyline
  3
AutoCAD 2000
 90
        0
280
     0
281
     1
  0
CLASS
  1
HATCH
  2
AcDbHatch
  3
AutoCAD 2000
 90
        0
280
     0
281
     1
  0
CLASS
  1
XRECORD
  2
AcDbXrecord
  3
AutoCAD 2000
 90
        0
280
     0
281
     0
  0
CLASS
  1
LONG_TRANSACTION
  2
AcDbLongTransaction
  3
AutoCAD 2000
 90
        0
280
     0
281
     0
  0
CLASS
  1
LWPOLYLINE
  2
AcDbPolyline
  3
AutoCAD 2000
 90
        0
280
     0
281
     1
  0
CLASS
  1
HATCH
  2
AcDbHatch
  3
AutoCAD 2000
 90
        0
280
     0
281
     1
  0
CLASS
  1
XRECORD
  2
AcDbXrecord
  3
AutoCAD 2000
 90
        0
280
     0
281
     0
  0
CLASS
  1
LONG_TRANSACTION
  2
AcDbLongTransaction
  3
AutoCAD 2000
 90
        0
280
     0
281
     0
  0
CLASS
  1
LWPOLYLINE
  2
AcDbPolyline
  3
AutoCAD 2000
 90
        0
280
     0
281
     1
  0
CLASS
  1
HATCH
  2
AcDbHatch
  3
AutoCAD 2000
 90
        0
280
     0
281
     1
  0
CLASS
  1
XRECORD
  2
AcDbXrecord
  3
AutoCAD 2000
 90
        0
280
     0
281
     0
  0
CLASS
  1
LONG_TRANSACTION
  2
AcDbLongTransaction
  3
AutoCAD 2000
 90
        0
280
     0
281
     0
  0
CLASS
  1
LWPOLYLINE
  2
AcDbPolyline
  3
AutoCAD 2000
 90
        0
280
     0
281
     1
  0
CLASS
  1
HATCH
  2
AcDbHatch
  3
AutoCAD 2000
 90
        0
280
     0
281
     1
  0
CLASS
  1
XRECORD
  2
AcDbXrecord
  3
AutoCAD 2000
 90
        0
280
     0
281
     0
  0
CLASS
  1
LONG_TRANSACTION
  2
AcDbLongTransaction
  3
AutoCAD 2000
 90
        0
280
     0
281
     0
  0
CLASS
  1
LWPOLYLINE
  2
AcDbPolyline
  3
AutoCAD 2000
 90
        0
280
     0
281
     1
  0
CLASS
  1
HATCH
  2
AcDbHatch
  3
AutoCAD 2000
 90
        0
280
     0
281
     1
  0
CLASS
  1
XRECORD
  2
AcDbXrecord
  3
AutoCAD 2000
 90
        0
280
     0
281
     0
  0
CLASS
  1
LONG_TRANSACTION
  2
AcDbLongTransaction
  3
AutoCAD 2000
 90
        0
280
     0
281
     0
  0
CLASS
  1
LWPOLYLINE
  2
AcDbPolyline
  3
AutoCAD 2000
 90
        0
280
     0
281
     1
  0
CLASS
  1
HATCH
  2
AcDbHatch
  3
AutoCAD 2000
 90
        0
280
     0
281
     1
  0
CLASS
  1
XRECORD
  2
AcDbXrecord
  3
AutoCAD 2000
 90
        0
280
     0
281
     0
  0
CLASS
  1
LONG_TRANSACTION
  2
AcDbLongTransaction
  3
AutoCAD 2000
 90
        0
280
     0
281
     0
  0
CLASS
  1
LWPOLYLINE
  2
AcDbPolyline
  3
AutoCAD 2000
 90
        0
280
     0
281
     1
  0
CLASS
  1
HATCH
  2
AcDbHatch
  3
AutoCAD 2000
 90
        0
280
     0
281
     1
  0
CLASS
  1
XRECORD
  2
AcDbXrecord
  3
AutoCAD 2000
 90
        0
280
     0
281
     0
  0
CLASS
  1
LONG_TRANSACTION
  2
AcDbLongTransaction
  3
AutoCAD 2000
 90
        0
280
     0
281
     0
  0
CLASS
  1
LWPOLYLINE
  2
AcDbPolyline
  3
AutoCAD 2000
 90
        0
280
     0
281
     1
  0
CLASS
  1
HATCH
  2
AcDbHatch
  3
AutoCAD 2000
 90
        0
280
     0
281
     1
  0
CLASS
  1
XRECORD
  2
AcDbXrecord
  3
AutoCAD 2000
 90
        0
280
     0
281
     0
  0
CLASS
  1
LONG_TRANSACTION
  2
AcDbLongTransaction
  3
AutoCAD 2000
 90
        0
280
     0
281
     0
  0
CLASS
  1
LWPOLYLINE
  2
AcDbPolyline
  3
AutoCAD 2000
 90
        0
280
     0
281
     1
  0
CLASS
  1
HATCH
  2
AcDbHatch
  3
AutoCAD 2000
 90
        0
280
     0
281
     1
  0
CLASS
  1
XRECORD
  2
AcDbXrecord
  3
AutoCAD 2000
 90
        0
280
     0
281
     0
  0
CLASS
  1
LONG_TRANSACTION
  2
AcDbLongTransaction
  3
AutoCAD 2000
 90
        0
280
     0
281
     0
  0
CLASS
  1
LWPOLYLINE
  2
AcDbPolyline
  3
AutoCAD 2000
 90
        0
280
     0
281
     1
  0
CLASS
  1
HATCH
  2
AcDbHatch
  3
AutoCAD 2000
 90
        0
280
     0
281
     1
  0
CLASS
  1
XRECORD
  2
AcDbXrecord
  3
AutoCAD 2000
 90
        0
280
     0
281
     0
  0
CLASS
  1
LONG_TRANSACTION
  2
AcDbLongTransaction
  3
AutoCAD 2000
 90
        0
280
     0
281
     0
  0
CLASS
  1
LWPOLYLINE
  2
AcDbPolyline
  3
AutoCAD 2000
 90
        0
280
     0
281
     1
  0
CLASS
  1
HATCH
  2
AcDbHatch
  3
AutoCAD 2000
 90
        0
280
     0
281
     1
  0
CLASS
  1
XRECORD
  2
AcDbXrecord
  3
AutoCAD 2000
 90
        0
280
     0
281
     0
  0
CLASS
  1
LONG_TRANSACTION
  2
AcDbLongTransaction
  3
AutoCAD 2000
 90
        0
280
     0
281
     0
  0
CLASS
  1
LWPOLYLINE
  2
AcDbPolyline
  3
AutoCAD 2000
 90
        0
280
     0
281
     1
  0
CLASS
  1
HATCH
  2
AcDbHatch
  3
AutoCAD 2000
 90
        0
280
     0
281
     1
  0
CLASS
  1
XRECORD
  2
AcDbXrecord
  3
AutoCAD 2000
 90
        0
280
     0
281
     0
  0
CLASS
  1
LONG_TRANSACTION
  2
AcDbLongTransaction
  3
AutoCAD 2000
 90
        0
280
     0
281
     0
  0
CLASS
  1
LWPOLYLINE
  2
AcDbPolyline
  3
AutoCAD 2000
 90
        0
280
     0
281
     1
  0
CLASS
  1
HATCH
  2
AcDbHatch
  3
AutoCAD 2000
 90
        0
280
     0
281
     1
  0
CLASS
  1
XRECORD
  2
AcDbXrecord
  3
AutoCAD 2000
 90
        0
280
     0
281
     0
  0
CLASS
  1
LONG_TRANSACTION
  2
AcDbLongTransaction
  3
AutoCAD 2000
 90
        0
280
     0
281
     0
  0
CLASS
  1
LWPOLYLINE
  2
AcDbPolyline
  3
AutoCAD 2000
 90
        0
280
     0
281
     1
  0
CLASS
  1
HATCH
  2
AcDbHatch
  3
AutoCAD 2000
 90
        0
280
     0
281
     1
  0
CLASS
  1
XRECORD
  2
AcDbXrecord
  3
AutoCAD 2000
 90
        0
280
     0
281
     0
  0
CLASS
  1
LONG_TRANSACTION
  2
AcDbLongTransaction
  3
AutoCAD 2000
 90
        0
280
     0
281
     0
  0
CLASS
  1
LWPOLYLINE
  2
AcDbPolyline
  3
AutoCAD 2000
 90
        0
280
     0
281
     1
  0
CLASS
  1
HATCH
  2
AcDbHatch
  3
AutoCAD 2000
 90
        0
280
     0
281
     1
  0
CLASS
  1
XRECORD
  2
AcDbXrecord
  3
AutoCAD 2000
 90
        0
280
     0
281
     0
  0
CLASS
  1
LONG_TRANSACTION
  2
AcDbLongTransaction
  3
AutoCAD 2000
 90
        0
280
     0
281
     0
  0
CLASS
  1
LWPOLYLINE
  2
AcDbPolyline
  3
AutoCAD 2000
 90
        0
280
     0
281
     1
  0
CLASS
  1
HATCH
  2
AcDbHatch
  3
AutoCAD 2000
 90
        0
280
     0
281
     1
  0
CLASS
  1
XRECORD
  2
AcDbXrecord
  3
AutoCAD 2000
 90
        0
280
     0
281
     0
  0
CLASS
  1
LONG_TRANSACTION
  2
AcDbLongTransaction
  3
AutoCAD 2000
 90
        0
280
     0
281
     0
  0
CLASS
  1
LWPOLYLINE
  2
AcDbPolyline
  3
AutoCAD 2000
 90
        0
280
     0
281
     1
  0
CLASS
  1
HATCH
  2
AcDbHatch
  3
AutoCAD 2000
 90
        0
280
     0
281
     1
  0
CLASS
  1
XRECORD
  2
AcDbXrecord
  3
AutoCAD 2000
 90
        0
280
     0
281
     0
  0
CLASS
  1
LONG_TRANSACTION
  2
AcDbLongTransaction
  3
AutoCAD 2000
 90
        0
280
     0
281
     0
  0
CLASS
  1
LWPOLYLINE
  2
AcDbPolyline
  3
AutoCAD 2000
 90
        0
280
     0
281
     1
  0
CLASS
  1
HATCH
  2
AcDbHatch
  3
AutoCAD 2000
 90
        0
280
     0
281
     1
  0
CLASS
  1
XRECORD
  2
AcDbXrecord
  3
AutoCAD 2000
 90
        0
280
     0
281
     0
  0
CLASS
  1
LONG_TRANSACTION
  2
AcDbLongTransaction
  3
AutoCAD 2000
 90
        0
280
     0
281
     0
  0
CLASS
  1
LWPOLYLINE
  2
AcDbPolyline
  3
AutoCAD 2000
 90
        0
280
     0
281
     1
  0
CLASS
  1
HATCH
  2
AcDbHatch
  3
AutoCAD 2000
 90
        0
280
     0
281
     1
  0
CLASS
  1
XRECORD
  2
AcDbXrecord
  3
AutoCAD 2000
 90
        0
280
     0
281
     0
  0
CLASS
  1
LONG_TRANSACTION
  2
AcDbLongTransaction
  3
AutoCAD 2000
 90
        0
280
     0
281
     0
  0
CLASS
  1
LWPOLYLINE
  2
AcDbPolyline
  3
AutoCAD 2000
 90
        0
280
     0
281
     1
  0
CLASS
  1
HATCH
  2
AcDbHatch
  3
AutoCAD 2000
 90
        0
280
     0
281
     1
  0
CLASS
  1
XRECORD
  2
AcDbXrecord
  3
AutoCAD 2000
 90
        0
280
     0
281
     0
  0
CLASS
  1
LONG_TRANSACTION
  2
AcDbLongTransaction
  3
AutoCAD 2000
 90
        0
280
     0
281
     0
  0
CLASS
  1
LWPOLYLINE
  2
AcDbPolyline
  3
AutoCAD 2000
 90
        0
280
     0
281
     1
  0
CLASS
  1
HATCH
  2
AcDbHatch
  3
AutoCAD 2000
 90
        0
280
     0
281
     1
  0
CLASS
  1
XRECORD
  2
AcDbXrecord
  3
AutoCAD 2000
 90
        0
280
     0
281
     0
  0
CLASS
  1
LONG_TRANSACTION
  2
AcDbLongTransaction
  3
AutoCAD 2000
 90
        0
280
     0
281
     0
  0
CLASS
  1
LWPOLYLINE
  2
AcDbPolyline
  3
AutoCAD 2000
 90
        0
280
     0
281
     1
  0
CLASS
  1
HATCH
  2
AcDbHatch
  3
AutoCAD 2000
 90
        0
280
     0
281
     1
  0
CLASS
  1
XRECORD
  2
AcDbXrecord
  3
AutoCAD 2000
 90
        0
280
     0
281
     0
  0
CLASS
  1
LONG_TRANSACTION
  2
AcDbLongTransaction
  3
AutoCAD 2000
 90
        0
280
     0
281
     0
  0
CLASS
  1
LWPOLYLINE
  2
AcDbPolyline
  3
AutoCAD 2000
 90
        0
280
     0
281
     1
  0
CLASS
  1
HATCH
  2
AcDbHatch
  3
AutoCAD 2000
 90
        0
280
     0
281
     1
  0
CLASS
  1
XRECORD
  2
AcDbXrecord
  3
AutoCAD 2000
 90
        0
280
     0
281
     0
  0
CLASS
  1
LONG_TRANSACTION
  2
AcDbLongTransaction
  3
AutoCAD 2000
 90
        0
280
     0
281
     0
  0
CLASS
  1
LWPOLYLINE
  2
AcDbPolyline
  3
AutoCAD 2000
 90
        0
280
     0
281
     1
  0
CLASS
  1
HATCH
  2
AcDbHatch
  3
AutoCAD 2000
 90
        0
280
     0
281
     1
  0
CLASS
  1
XRECORD
  2
AcDbXrecord
  3
AutoCAD 2000
 90
        0
280
     0
281
     0
  0
CLASS
  1
LONG_TRANSACTION
  2
AcDbLongTransaction
  3
AutoCAD 2000
 90
        0
280
     0
281
     0
  0
CLASS
  1
LWPOLYLINE
  2
AcDbPolyline
  3
AutoCAD 2000
 90
        0
280
     0
281
     1
  0
CLASS
  1
HATCH
  2
AcDbHatch
  3
AutoCAD 2000
 90
        0
280
     0
281
     1
  0
CLASS
  1
XRECORD
  2
AcDbXrecord
  3
AutoCAD 2000
 90
        0
280
     0
281
     0
  0
CLASS
  1
LONG_TRANSACTION
  2
AcDbLongTransaction
  3
AutoCAD 2000
 90
        0
280
     0
281
     0
  0
CLASS
  1
LWPOLYLINE
  2
AcDbPolyline
  3
AutoCAD 2000
 90
        0
280
     0
281
     1
  0
CLASS
  1
HATCH
  2
AcDbHatch
  3
AutoCAD 2000
 90
        0
280
     0
281
     1
  0
CLASS
  1
XRECORD
  2
AcDbXrecord
  3
AutoCAD 2000
 90
        0
280
     0
281
     0
  0
CLASS
  1
LONG_TRANSACTION
  2
AcDbLongTransaction
  3
AutoCAD 2000
 90
        0
280
     0
281
     0
  0
CLASS
  1
LWPOLYLINE
  2
AcDbPolyline
  3
AutoCAD 2000
 90
        0
280
     0
281
     1
  0
CLASS
  1
HATCH
  2
AcDbHatch
  3
AutoCAD 2000
 90
        0
280
     0
281
     1
  0
CLASS
  1
XRECORD
  2
AcDbXrecord
  3
AutoCAD 2000
 90
        0
280
     0
281
     0
  0
CLASS
  1
LONG_TRANSACTION
  2
AcDbLongTransaction
  3
AutoCAD 2000
 90
        0
280
     0
281
     0
  0
CLASS
  1
LWPOLYLINE
  2
AcDbPolyline
  3
AutoCAD 2000
 90
        0
280
     0
281
     1
  0
CLASS
  1
HATCH
  2
AcDbHatch
  3
AutoCAD 2000
 90
        0
280
     0
281
     1
  0
CLASS
  1
XRECORD
  2
AcDbXrecord
  3
AutoCAD 2000
 90
        0
280
     0
281
     0
  0
CLASS
  1
LONG_TRANSACTION
  2
AcDbLongTransaction
  3
AutoCAD 2000
 90
        0
280
     0
281
     0
  0
CLASS
  1
LWPOLYLINE
  2
AcDbPolyline
  3
AutoCAD 2000
 90
        0
280
     0
281
     1
  0
CLASS
  1
HATCH
  2
AcDbHatch
  3
AutoCAD 2000
 90
        0
280
     0
281
     1
  0
CLASS
  1
XRECORD
  2
AcDbXrecord
  3
AutoCAD 2000
 90
        0
280
     0
281
     0
  0
CLASS
  1
LONG_TRANSACTION
  2
AcDbLongTransaction
  3
AutoCAD 2000
 90
        0
280
     0
281
     0
  0
CLASS
  1
LWPOLYLINE
  2
AcDbPolyline
  3
AutoCAD 2000
 90
        0
280
     0
281
     1
  0
CLASS
  1
HATCH
  2
AcDbHatch
  3
AutoCAD 2000
 90
        0
280
     0
281
     1
  0
CLASS
  1
XRECORD
  2
AcDbXrecord
  3
AutoCAD 2000
 90
        0
280
     0
281
     0
  0
ENDSEC
  0
SECTION
  2
TABLES
  0
TABLE
  2
VPORT
  5
1E
330
0
100
AcDbSymbolTable
 70
     2
  0
VPORT
  5
34D
330
1E
100
AcDbSymbolTableRecord
100
AcDbViewportTableRecord
  2
*ACTIVE
 70
     0
 10
0.0
 20
0.0
 11
1.0
 21
1.0
 12
133.6148458177376
 22
111.655768017421
 13
0.0
 23
0.0
 14
10.0
 24
10.0
 15
10.0
 25
10.0
 16
0.0
 26
0.0
 36
1.0
 17
0.0
 27
0.0
 37
0.0
 40
219.8209297409273
 41
1.549367088607595
 42
50.0
 43
0.0
 44
0.0
 50
0.0
 51
0.0
 71
     0
 72
 10000
 73
     1
 74
     3
 75
     0
 76
     0
 77
     0
 78
     1
  0
ENDTAB
  0
TABLE
  2
LTYPE
  5
19
330
0
100
AcDbSymbolTable
 70
     3
  0
LTYPE
  5
1A
330
19
100
AcDbSymbolTableRecord
100
AcDbLinetypeTableRecord
  2
BYBLOCK
 70
     0
  3

 72
    65
 73
     0
 40
0.0
  0
LTYPE
  5
1B
330
19
100
AcDbSymbolTableRecord
100
AcDbLinetypeTableRecord
  2
BYLAYER
 70
     0
  3

 72
    65
 73
     0
 40
0.0
  0
LTYPE
  5
9
330
19
100
AcDbSymbolTableRecord
100
AcDbLinetypeTableRecord
  2
CONTINUOUS
 70
     0
  3
Solid line
 72
    65
 73
     0
 40
0.0
  0
LTYPE
  5
62
330
19
100
AcDbSymbolTableRecord
100
AcDbLinetypeTableRecord
  2
CENTER
 70
     0
  3
Center ____ _ ____ _ ____ _ ____ _ ____ _ ____
 72
    65
 73
     4
 40
50.8
 49
31.75
 74
     0
 49
-6.349999999999998
 74
     0
 49
6.349999999999998
 74
     0
 49
-6.349999999999998
 74
     0
  0
LTYPE
  5
5D
330
19
100
AcDbSymbolTableRecord
100
AcDbLinetypeTableRecord
  2
ACAD_ISO02W100
 70
     0
  3
ISO dash __ __ __ __ __ __ __ __ __ __ __ __ __
 72
    65
 73
     2
 40
15.0
 49
12.0
 74
     0
 49
-3.0
 74
     0
  0
ENDTAB
  0
TABLE
  2
LAYER
  5
12
102
{ACAD_XDICTIONARY
360
13
102
}
330
0
100
AcDbSymbolTable
 70
     4
  0
LAYER
  5
5
330
12
100
AcDbSymbolTableRecord
100
AcDbLayerTableRecord
  2
0
 70
     0
 62
     7
  6
CONTINUOUS
  0
LAYER
  5
34
330
12
100
AcDbSymbolTableRecord
100
AcDbLayerTableRecord
  2
DEFPOINTS
 70
     0
 62
     7
  6
CONTINUOUS
  0
LAYER
  5
61
330
12
100
AcDbSymbolTableRecord
100
AcDbLayerTableRecord
  2
CEN
 70
     0
 62
     1
  6
CENTER
  0
LAYER
  5
5C
330
12
100
AcDbSymbolTableRecord
100
AcDbLayerTableRecord
  2
HI
 70
     0
 62
     4
  6
ACAD_ISO02W100
  0
ENDTAB
  0
TABLE
  2
STYLE
  5
16
330
0
100
AcDbSymbolTable
 70
     1
  0
STYLE
  5
17
330
16
100
AcDbSymbolTableRecord
100
AcDbTextStyleTableRecord
  2
STANDARD
 70
     0
 40
0.0
 41
1.0
 50
0.0
 71
     0
 42
5.777225951253058
  3
romans.shx
  4
whgtxt.shx
  0
ENDTAB
  0
TABLE
  2
VIEW
  5
1C
330
0
100
AcDbSymbolTable
 70
     0
  0
ENDTAB
  0
TABLE
  2
UCS
  5
1D
330
0
100
AcDbSymbolTable
 70
     0
  0
ENDTAB
  0
TABLE
  2
APPID
  5
20
330
0
100
AcDbSymbolTable
 70
     1
  0
APPID
  5
21
330
20
100
AcDbSymbolTableRecord
100
AcDbRegAppTableRecord
  2
ACAD
 70
     0
  0
ENDTAB
  0
TABLE
  2
DIMSTYLE
  5
22
330
0
100
AcDbSymbolTable
 70
     1
  0
DIMSTYLE
105
23
102
{ACAD_REACTORS
330
83
330
152
330
163
330
FD
330
10A
330
94
330
117
330
29
330
74
330
63
330
B3
330
39
330
48
330
C7
330
E7
330
DA
330
17E
330
1B7
330
18E
330
1C6
330
19D
330
1F4
330
142
330
1DE
102
}
330
22
100
AcDbSymbolTableRecord
100
AcDbDimStyleTableRecord
  2
STANDARD
 70
     0
  3

  4

  5

  6

  7

 40
1.0
 41
3.5
 42
1.0
 43
10.0
 44
0.6
 45
0.0
 46
0.0
 47
0.0
 48
0.0
140
3.0
141
0.09
142
0.0
143
25.4
144
1.0
145
0.0
146
1.0
147
1.0
 71
     0
 72
     0
 73
     0
 74
     0
 75
     0
 76
     0
 77
     1
 78
     8
170
     0
171
     2
172
     1
173
     0
174
     1
175
     0
176
   123
177
   123
178
     3
270
     2
271
     2
272
     2
273
     2
274
     2
340
17
275
     1
280
     0
281
     0
282
     0
283
     1
284
     0
285
     0
286
     0
287
     0
288
     1
  0
ENDTAB
  0
TABLE
  2
BLOCK_RECORD
  5
1
330
0
100
AcDbSymbolTable
 70
    48
  0
BLOCK_RECORD
  5
2
102
{ACAD_XDICTIONARY
360
3
102
}
330
1
100
AcDbSymbolTableRecord
100
AcDbBlockTableRecord
  2
*MODEL_SPACE
  0
BLOCK_RECORD
  5
D
102
{ACAD_XDICTIONARY
360
E
102
}
330
1
100
AcDbSymbolTableRecord
100
AcDbBlockTableRecord
  2
*PAPER_SPACE
  0
BLOCK_RECORD
  5
FE
330
1
100
AcDbSymbolTableRecord
100
AcDbBlockTableRecord
  2
*D0
  0
BLOCK_RECORD
  5
10B
330
1
100
AcDbSymbolTableRecord
100
AcDbBlockTableRecord
  2
*D1
  0
BLOCK_RECORD
  5
95
330
1
100
AcDbSymbolTableRecord
100
AcDbBlockTableRecord
  2
*D2
  0
BLOCK_RECORD
  5
C8
330
1
100
AcDbSymbolTableRecord
100
AcDbBlockTableRecord
  2
*D3
  0
BLOCK_RECORD
  5
DB
330
1
100
AcDbSymbolTableRecord
100
AcDbBlockTableRecord
  2
*D4
  0
BLOCK_RECORD
  5
1B8
330
1
100
AcDbSymbolTableRecord
100
AcDbBlockTableRecord
  2
*D5
  0
BLOCK_RECORD
  5
1C7
330
1
100
AcDbSymbolTableRecord
100
AcDbBlockTableRecord
  2
*D6
  0
BLOCK_RECORD
  5
1DF
330
1
100
AcDbSymbolTableRecord
100
AcDbBlockTableRecord
  2
*D7
  0
BLOCK_RECORD
  5
86
330
1
100
AcDbSymbolTableRecord
100
AcDbBlockTableRecord
  2
*D8
  0
BLOCK_RECORD
  5
155
330
1
100
AcDbSymbolTableRecord
100
AcDbBlockTableRecord
  2
*D9
  0
BLOCK_RECORD
  5
166
330
1
100
AcDbSymbolTableRecord
100
AcDbBlockTableRecord
  2
*D10
  0
BLOCK_RECORD
  5
11A
330
1
100
AcDbSymbolTableRecord
100
AcDbBlockTableRecord
  2
*D11
  0
BLOCK_RECORD
  5
2C
330
1
100
AcDbSymbolTableRecord
100
AcDbBlockTableRecord
  2
*D12
  0
BLOCK_RECORD
  5
77
330
1
100
AcDbSymbolTableRecord
100
AcDbBlockTableRecord
  2
*D13
  0
BLOCK_RECORD
  5
66
330
1
100
AcDbSymbolTableRecord
100
AcDbBlockTableRecord
  2
*D14
  0
BLOCK_RECORD
  5
B6
330
1
100
AcDbSymbolTableRecord
100
AcDbBlockTableRecord
  2
*D15
  0
BLOCK_RECORD
  5
3C
330
1
100
AcDbSymbolTableRecord
100
AcDbBlockTableRecord
  2
*D16
  0
BLOCK_RECORD
  5
4B
330
1
100
AcDbSymbolTableRecord
100
AcDbBlockTableRecord
  2
*D17
  0
BLOCK_RECORD
  5
EA
330
1
100
AcDbSymbolTableRecord
100
AcDbBlockTableRecord
  2
*D18
  0
BLOCK_RECORD
  5
181
330
1
100
AcDbSymbolTableRecord
100
AcDbBlockTableRecord
  2
*D19
  0
BLOCK_RECORD
  5
191
330
1
100
AcDbSymbolTableRecord
100
AcDbBlockTableRecord
  2
*D20
  0
BLOCK_RECORD
  5
1A0
330
1
100
AcDbSymbolTableRecord
100
AcDbBlockTableRecord
  2
*D21
  0
BLOCK_RECORD
  5
1F7
330
1
100
AcDbSymbolTableRecord
100
AcDbBlockTableRecord
  2
*D22
  0
BLOCK_RECORD
  5
145
330
1
100
AcDbSymbolTableRecord
100
AcDbBlockTableRecord
  2
*D23
  0
BLOCK_RECORD
  5
210
330
1
100
AcDbSymbolTableRecord
100
AcDbBlockTableRecord
  2
*D24
  0
BLOCK_RECORD
  5
21E
330
1
100
AcDbSymbolTableRecord
100
AcDbBlockTableRecord
  2
*D25
  0
BLOCK_RECORD
  5
22A
330
1
100
AcDbSymbolTableRecord
100
AcDbBlockTableRecord
  2
*D26
  0
BLOCK_RECORD
  5
235
330
1
100
AcDbSymbolTableRecord
100
AcDbBlockTableRecord
  2
*D27
  0
BLOCK_RECORD
  5
241
330
1
100
AcDbSymbolTableRecord
100
AcDbBlockTableRecord
  2
*D28
  0
BLOCK_RECORD
  5
24D
330
1
100
AcDbSymbolTableRecord
100
AcDbBlockTableRecord
  2
*D29
  0
BLOCK_RECORD
  5
258
330
1
100
AcDbSymbolTableRecord
100
AcDbBlockTableRecord
  2
*D30
  0
BLOCK_RECORD
  5
264
330
1
100
AcDbSymbolTableRecord
100
AcDbBlockTableRecord
  2
*D31
  0
BLOCK_RECORD
  5
270
330
1
100
AcDbSymbolTableRecord
100
AcDbBlockTableRecord
  2
*D32
  0
BLOCK_RECORD
  5
27C
330
1
100
AcDbSymbolTableRecord
100
AcDbBlockTableRecord
  2
*D33
  0
BLOCK_RECORD
  5
28A
330
1
100
AcDbSymbolTableRecord
100
AcDbBlockTableRecord
  2
*D34
  0
BLOCK_RECORD
  5
296
330
1
100
AcDbSymbolTableRecord
100
AcDbBlockTableRecord
  2
*D35
  0
BLOCK_RECORD
  5
2A4
330
1
100
AcDbSymbolTableRecord
100
AcDbBlockTableRecord
  2
*D36
  0
BLOCK_RECORD
  5
2B0
330
1
100
AcDbSymbolTableRecord
100
AcDbBlockTableRecord
  2
*D37
  0
BLOCK_RECORD
  5
2BC
330
1
100
AcDbSymbolTableRecord
100
AcDbBlockTableRecord
  2
*D38
  0
BLOCK_RECORD
  5
2CA
330
1
100
AcDbSymbolTableRecord
100
AcDbBlockTableRecord
  2
*D39
  0
BLOCK_RECORD
  5
2D6
330
1
100
AcDbSymbolTableRecord
100
AcDbBlockTableRecord
  2
*D40
  0
BLOCK_RECORD
  5
2E2
330
1
100
AcDbSymbolTableRecord
100
AcDbBlockTableRecord
  2
*D41
  0
BLOCK_RECORD
  5
2EE
330
1
100
AcDbSymbolTableRecord
100
AcDbBlockTableRecord
  2
*D42
  0
BLOCK_RECORD
  5
2FA
330
1
100
AcDbSymbolTableRecord
100
AcDbBlockTableRecord
  2
*D43
  0
BLOCK_RECORD
  5
308
330
1
100
AcDbSymbolTableRecord
100
AcDbBlockTableRecord
  2
*D44
  0
BLOCK_RECORD
  5
316
330
1
100
AcDbSymbolTableRecord
100
AcDbBlockTableRecord
  2
*D45
  0
BLOCK_RECORD
  5
31F
330
1
100
AcDbSymbolTableRecord
100
AcDbBlockTableRecord
  2
*D46
  0
BLOCK_RECORD
  5
32B
330
1
100
AcDbSymbolTableRecord
100
AcDbBlockTableRecord
  2
*D47
  0
ENDTAB
  0
ENDSEC
  0
SECTION
  2
BLOCKS
  0
BLOCK
  5
4
330
2
100
AcDbEntity
  8
0
100
AcDbBlockBegin
  2
*MODEL_SPACE
 70
     0
 10
0.0
 20
0.0
 30
0.0
  3
*MODEL_SPACE
  1

  0
ENDBLK
  5
A
330
2
100
AcDbEntity
  8
0
100
AcDbBlockEnd
  0
BLOCK
  5
F
330
D
100
AcDbEntity
 67
     1
  8
0
100
AcDbBlockBegin
  2
*PAPER_SPACE
 70
     0
 10
0.0
 20
0.0
 30
0.0
  3
*PAPER_SPACE
  1

  0
ENDBLK
  5
10
330
D
100
AcDbEntity
 67
     1
  8
0
100
AcDbBlockEnd
  0
BLOCK
  5
108
330
FE
100
AcDbEntity
  8
0
100
AcDbBlockBegin
  2
*D0
 70
     1
 10
0.0
 20
0.0
 30
0.0
  3
*D0
  1

  0
LINE
  5
FF
330
FE
100
AcDbEntity
  8
0
 62
   123
100
AcDbLine
 10
-5750.994479800387
 20
-1797.350946584717
 30
0.0
 11
-5750.994479800387
 21
-1779.146064443047
 31
0.0
  0
LINE
  5
100
330
FE
100
AcDbEntity
  8
0
 62
   123
100
AcDbLine
 10
-5679.994479800387
 20
-1797.350946584717
 30
0.0
 11
-5679.994479800387
 21
-1779.146064443047
 31
0.0
  0
LINE
  5
101
330
FE
100
AcDbEntity
  8
0
 62
   123
100
AcDbLine
 10
-5747.494479800387
 20
-1779.746064443046
 30
0.0
 11
-5683.494479800387
 21
-1779.746064443046
 31
0.0
  0
SOLID
  5
102
330
FE
100
AcDbEntity
  8
0
 62
   123
100
AcDbTrace
 10
-5747.494479800387
 20
-1779.162731109714
 30
0.0
 11
-5747.494479800387
 21
-1780.32939777638
 31
0.0
 12
-5750.994479800387
 22
-1779.746064443046
 32
0.0
 13
-5750.994479800387
 23
-1779.746064443046
 33
0.0
  0
SOLID
  5
103
330
FE
100
AcDbEntity
  8
0
 62
   123
100
AcDbTrace
 10
-5683.494479800387
 20
-1779.162731109714
 30
0.0
 11
-5683.494479800387
 21
-1780.32939777638
 31
0.0
 12
-5679.994479800387
 22
-1779.746064443046
 32
0.0
 13
-5679.994479800387
 23
-1779.746064443046
 33
0.0
  0
MTEXT
  5
104
330
FE
100
AcDbEntity
  8
0
 62
     3
100
AcDbMText
 10
-5715.494479800387
 20
-1777.246064443047
 30
0.0
 40
3.0
 41
0.0
 71
     5
 72
     1
  1
\A1;71
1001
ACAD
1000
MTEXTBEGIN
1070
    73
1070
     1
1070
    44
1040
1.0
1070
    74
1070
     0
1000
MTEXTEND
  0
POINT
  5
105
330
FE
100
AcDbEntity
  8
DEFPOINTS
 62
     0
100
AcDbPoint
 10
-5750.994479800387
 20
-1798.350946584717
 30
0.0
  0
POINT
  5
106
330
FE
100
AcDbEntity
  8
DEFPOINTS
 62
     0
100
AcDbPoint
 10
-5679.994479800387
 20
-1798.350946584717
 30
0.0
  0
POINT
  5
107
330
FE
100
AcDbEntity
  8
DEFPOINTS
 62
     0
100
AcDbPoint
 10
-5679.994479800387
 20
-1779.746064443046
 30
0.0
  0
ENDBLK
  5
109
330
FE
100
AcDbEntity
  8
0
100
AcDbBlockEnd
  0
BLOCK
  5
115
330
10B
100
AcDbEntity
  8
0
100
AcDbBlockBegin
  2
*D1
 70
     1
 10
0.0
 20
0.0
 30
0.0
  3
*D1
  1

  0
LINE
  5
10C
330
10B
100
AcDbEntity
  8
0
 62
   123
100
AcDbLine
 10
-5754.494479800388
 20
-1823.850946584715
 30
0.0
 11
-5754.494479800388
 21
-1766.619793812733
 31
0.0
  0
LINE
  5
10D
330
10B
100
AcDbEntity
  8
0
 62
   123
100
AcDbLine
 10
-5676.494479800387
 20
-1823.850946584715
 30
0.0
 11
-5676.494479800387
 21
-1766.619793812733
 31
0.0
  0
LINE
  5
10E
330
10B
100
AcDbEntity
  8
0
 62
   123
100
AcDbLine
 10
-5750.994479800387
 20
-1767.219793812731
 30
0.0
 11
-5679.994479800387
 21
-1767.219793812731
 31
0.0
  0
SOLID
  5
10F
330
10B
100
AcDbEntity
  8
0
 62
   123
100
AcDbTrace
 10
-5750.994479800387
 20
-1766.636460479399
 30
0.0
 11
-5750.994479800387
 21
-1767.803127146066
 31
0.0
 12
-5754.494479800388
 22
-1767.219793812731
 32
0.0
 13
-5754.494479800388
 23
-1767.219793812731
 33
0.0
  0
SOLID
  5
110
330
10B
100
AcDbEntity
  8
0
 62
   123
100
AcDbTrace
 10
-5679.994479800387
 20
-1766.636460479399
 30
0.0
 11
-5679.994479800387
 21
-1767.803127146066
 31
0.0
 12
-5676.494479800387
 22
-1767.219793812731
 32
0.0
 13
-5676.494479800387
 23
-1767.219793812731
 33
0.0
  0
MTEXT
  5
111
330
10B
100
AcDbEntity
  8
0
 62
     3
100
AcDbMText
 10
-5715.494479800387
 20
-1764.719793812733
 30
0.0
 40
3.0
 41
0.0
 71
     5
 72
     1
  1
\A1;78
1001
ACAD
1000
MTEXTBEGIN
1070
    73
1070
     1
1070
    44
1040
1.0
1070
    74
1070
     0
1000
MTEXTEND
  0
POINT
  5
112
330
10B
100
AcDbEntity
  8
DEFPOINTS
 62
     0
100
AcDbPoint
 10
-5754.494479800388
 20
-1824.850946584716
 30
0.0
  0
POINT
  5
113
330
10B
100
AcDbEntity
  8
DEFPOINTS
 62
     0
100
AcDbPoint
 10
-5676.494479800387
 20
-1824.850946584716
 30
0.0
  0
POINT
  5
114
330
10B
100
AcDbEntity
  8
DEFPOINTS
 62
     0
100
AcDbPoint
 10
-5676.494479800387
 20
-1767.219793812731
 30
0.0
  0
ENDBLK
  5
116
330
10B
100
AcDbEntity
  8
0
100
AcDbBlockEnd
  0
BLOCK
  5
9F
330
95
100
AcDbEntity
  8
0
100
AcDbBlockBegin
  2
*D2
 70
     1
 10
0.0
 20
0.0
 30
0.0
  3
*D2
  1

  0
LINE
  5
96
330
95
100
AcDbEntity
  8
0
 62
   123
100
AcDbLine
 10
-5770.494479800387
 20
-1872.850946584716
 30
0.0
 11
-5770.494479800387
 21
-1891.257856153514
 31
0.0
  0
LINE
  5
97
330
95
100
AcDbEntity
  8
0
 62
   123
100
AcDbLine
 10
-5660.494479800387
 20
-1873.850946584718
 30
0.0
 11
-5660.494479800387
 21
-1891.257856153514
 31
0.0
  0
LINE
  5
98
330
95
100
AcDbEntity
  8
0
 62
   123
100
AcDbLine
 10
-5766.994479800388
 20
-1890.657856153514
 30
0.0
 11
-5663.994479800387
 21
-1890.657856153514
 31
0.0
  0
SOLID
  5
99
330
95
100
AcDbEntity
  8
0
 62
   123
100
AcDbTrace
 10
-5766.994479800388
 20
-1890.074522820181
 30
0.0
 11
-5766.994479800388
 21
-1891.241189486846
 31
0.0
 12
-5770.494479800387
 22
-1890.657856153514
 32
0.0
 13
-5770.494479800387
 23
-1890.657856153514
 33
0.0
  0
SOLID
  5
9A
330
95
100
AcDbEntity
  8
0
 62
   123
100
AcDbTrace
 10
-5663.994479800387
 20
-1890.074522820181
 30
0.0
 11
-5663.994479800387
 21
-1891.241189486846
 31
0.0
 12
-5660.494479800387
 22
-1890.657856153514
 32
0.0
 13
-5660.494479800387
 23
-1890.657856153514
 33
0.0
  0
MTEXT
  5
9B
330
95
100
AcDbEntity
  8
0
 62
     3
100
AcDbMText
 10
-5714.952391031157
 20
-1888.157856153514
 30
0.0
 40
3.0
 41
0.0
 71
     5
 72
     1
  1
\A1;110
1001
ACAD
1000
MTEXTBEGIN
1070
    73
1070
     1
1070
    44
1040
1.0
1070
    74
1070
     0
1000
MTEXTEND
  0
POINT
  5
9C
330
95
100
AcDbEntity
  8
DEFPOINTS
 62
     0
100
AcDbPoint
 10
-5770.494479800387
 20
-1871.850946584715
 30
0.0
  0
POINT
  5
9D
330
95
100
AcDbEntity
  8
DEFPOINTS
 62
     0
100
AcDbPoint
 10
-5660.494479800387
 20
-1872.850946584717
 30
0.0
  0
POINT
  5
9E
330
95
100
AcDbEntity
  8
DEFPOINTS
 62
     0
100
AcDbPoint
 10
-5660.494479800387
 20
-1890.657856153514
 30
0.0
  0
ENDBLK
  5
A0
330
95
100
AcDbEntity
  8
0
100
AcDbBlockEnd
  0
BLOCK
  5
D4
330
C8
100
AcDbEntity
  8
0
100
AcDbBlockBegin
  2
*D3
 70
     1
 10
0.0
 20
0.0
 30
0.0
  3
*D3
  1

  0
LINE
  5
C9
330
C8
100
AcDbEntity
  8
0
 62
   123
100
AcDbLine
 10
-5660.494479800387
 20
-1872.850946584717
 30
0.0
 11
-5646.855909531243
 21
-1872.850946584717
 31
0.0
  0
LINE
  5
CA
330
C8
100
AcDbEntity
  8
0
 62
   123
100
AcDbLine
 10
-5660.494479800387
 20
-1864.850946584716
 30
0.0
 11
-5646.855909531243
 21
-1864.850946584716
 31
0.0
  0
LINE
  5
CB
330
C8
100
AcDbEntity
  8
0
 62
   123
100
AcDbLine
 10
-5647.455909531243
 20
-1876.350946584717
 30
0.0
 11
-5647.455909531243
 21
-1879.850946584717
 31
0.0
  0
LINE
  5
CC
330
C8
100
AcDbEntity
  8
0
 62
   123
100
AcDbLine
 10
-5647.455909531243
 20
-1861.350946584717
 30
0.0
 11
-5647.455909531243
 21
-1857.850946584717
 31
0.0
  0
LINE
  5
CD
330
C8
100
AcDbEntity
  8
0
 62
   123
100
AcDbLine
 10
-5647.455909531243
 20
-1872.850946584717
 30
0.0
 11
-5647.455909531243
 21
-1864.850946584716
 31
0.0
  0
SOLID
  5
CE
330
C8
100
AcDbEntity
  8
0
 62
   123
100
AcDbTrace
 10
-5648.039242864577
 20
-1876.350946584717
 30
0.0
 11
-5646.87257619791
 21
-1876.350946584717
 31
0.0
 12
-5647.455909531243
 22
-1872.850946584717
 32
0.0
 13
-5647.455909531243
 23
-1872.850946584717
 33
0.0
  0
SOLID
  5
CF
330
C8
100
AcDbEntity
  8
0
 62
   123
100
AcDbTrace
 10
-5648.039242864577
 20
-1861.350946584717
 30
0.0
 11
-5646.87257619791
 21
-1861.350946584717
 31
0.0
 12
-5647.455909531243
 22
-1864.850946584716
 32
0.0
 13
-5647.455909531243
 23
-1864.850946584716
 33
0.0
  0
MTEXT
  5
D0
330
C8
100
AcDbEntity
  8
0
 62
     3
100
AcDbMText
 10
-5649.955909531243
 20
-1868.850946584718
 30
0.0
 40
3.0
 41
0.0
 71
     5
 72
     1
  1
\A1;8
 11
0.0000000000000001
 21
1.0
 31
0.0
1001
ACAD
1000
MTEXTBEGIN
1070
    73
1070
     1
1070
    44
1040
1.0
1070
    74
1070
     0
1000
MTEXTEND
  0
POINT
  5
D1
330
C8
100
AcDbEntity
  8
DEFPOINTS
 62
     0
100
AcDbPoint
 10
-5661.494479800389
 20
-1872.850946584717
 30
0.0
  0
POINT
  5
D2
330
C8
100
AcDbEntity
  8
DEFPOINTS
 62
     0
100
AcDbPoint
 10
-5661.494479800389
 20
-1864.850946584716
 30
0.0
  0
POINT
  5
D3
330
C8
100
AcDbEntity
  8
DEFPOINTS
 62
     0
100
AcDbPoint
 10
-5647.455909531243
 20
-1864.850946584716
 30
0.0
  0
ENDBLK
  5
D5
330
C8
100
AcDbEntity
  8
0
100
AcDbBlockEnd
  0
BLOCK
  5
E5
330
DB
100
AcDbEntity
  8
0
100
AcDbBlockBegin
  2
*D4
 70
     1
 10
0.0
 20
0.0
 30
0.0
  3
*D4
  1

  0
LINE
  5
DC
330
DB
100
AcDbEntity
  8
0
 62
   123
100
AcDbLine
 10
-5578.123642947971
 20
-1865.850946584716
 30
0.0
 11
-5578.123642947971
 21
-1885.050341741028
 31
0.0
  0
LINE
  5
DD
330
DB
100
AcDbEntity
  8
0
 62
   123
100
AcDbLine
 10
-5523.123642947972
 20
-1873.350946584715
 30
0.0
 11
-5523.123642947972
 21
-1885.050341741028
 31
0.0
  0
LINE
  5
DE
330
DB
100
AcDbEntity
  8
0
 62
   123
100
AcDbLine
 10
-5574.623642947972
 20
-1884.450341741028
 30
0.0
 11
-5526.623642947971
 21
-1884.450341741028
 31
0.0
  0
SOLID
  5
DF
330
DB
100
AcDbEntity
  8
0
 62
   123
100
AcDbTrace
 10
-5574.623642947972
 20
-1883.867008407695
 30
0.0
 11
-5574.623642947972
 21
-1885.03367507436
 31
0.0
 12
-5578.123642947971
 22
-1884.450341741028
 32
0.0
 13
-5578.123642947971
 23
-1884.450341741028
 33
0.0
  0
SOLID
  5
E0
330
DB
100
AcDbEntity
  8
0
 62
   123
100
AcDbTrace
 10
-5526.623642947971
 20
-1883.867008407695
 30
0.0
 11
-5526.623642947971
 21
-1885.03367507436
 31
0.0
 12
-5523.123642947972
 22
-1884.450341741028
 32
0.0
 13
-5523.123642947972
 23
-1884.450341741028
 33
0.0
  0
MTEXT
  5
E1
330
DB
100
AcDbEntity
  8
0
 62
     3
100
AcDbMText
 10
-5549.458772303022
 20
-1881.950341741029
 30
0.0
 40
3.0
 41
0.0
 71
     5
 72
     1
  1
\A1;55
1001
ACAD
1000
MTEXTBEGIN
1070
    73
1070
     1
1070
    44
1040
1.0
1070
    74
1070
     0
1000
MTEXTEND
  0
POINT
  5
E2
330
DB
100
AcDbEntity
  8
DEFPOINTS
 62
     0
100
AcDbPoint
 10
-5578.123642947971
 20
-1864.850946584716
 30
0.0
  0
POINT
  5
E3
330
DB
100
AcDbEntity
  8
DEFPOINTS
 62
     0
100
AcDbPoint
 10
-5523.123642947972
 20
-1872.350946584716
 30
0.0
  0
POINT
  5
E4
330
DB
100
AcDbEntity
  8
DEFPOINTS
 62
     0
100
AcDbPoint
 10
-5523.123642947972
 20
-1884.450341741028
 30
0.0
  0
ENDBLK
  5
E6
330
DB
100
AcDbEntity
  8
0
100
AcDbBlockEnd
  0
BLOCK
  5
1C4
330
1B8
100
AcDbEntity
  8
0
100
AcDbBlockBegin
  2
*D5
 70
     1
 10
0.0
 20
0.0
 30
0.0
  3
*D5
  1

  0
LINE
  5
1B9
330
1B8
100
AcDbEntity
  8
0
 62
   123
100
AcDbLine
 10
-5765.494479800388
 20
-1706.930027834883
 30
0.0
 11
-5765.494479800388
 21
-1689.175959323136
 31
0.0
  0
LINE
  5
1BA
330
1B8
100
AcDbEntity
  8
0
 62
   123
100
AcDbLine
 10
-5757.494479800387
 20
-1706.930027834883
 30
0.0
 11
-5757.494479800387
 21
-1689.175959323136
 31
0.0
  0
LINE
  5
1BB
330
1B8
100
AcDbEntity
  8
0
 62
   123
100
AcDbLine
 10
-5753.994479800387
 20
-1689.775959323136
 30
0.0
 11
-5750.494479800387
 21
-1689.775959323136
 31
0.0
  0
LINE
  5
1BC
330
1B8
100
AcDbEntity
  8
0
 62
   123
100
AcDbLine
 10
-5768.994479800387
 20
-1689.775959323136
 30
0.0
 11
-5780.994479800387
 21
-1689.775959323136
 31
0.0
  0
LINE
  5
1BD
330
1B8
100
AcDbEntity
  8
0
 62
   123
100
AcDbLine
 10
-5757.494479800387
 20
-1689.775959323136
 30
0.0
 11
-5765.494479800388
 21
-1689.775959323136
 31
0.0
  0
SOLID
  5
1BE
330
1B8
100
AcDbEntity
  8
0
 62
   123
100
AcDbTrace
 10
-5753.994479800387
 20
-1689.192625989801
 30
0.0
 11
-5753.994479800387
 21
-1690.359292656469
 31
0.0
 12
-5757.494479800387
 22
-1689.775959323136
 32
0.0
 13
-5757.494479800387
 23
-1689.775959323136
 33
0.0
  0
SOLID
  5
1BF
330
1B8
100
AcDbEntity
  8
0
 62
   123
100
AcDbTrace
 10
-5768.994479800387
 20
-1689.192625989801
 30
0.0
 11
-5768.994479800387
 21
-1690.359292656469
 31
0.0
 12
-5765.494479800388
 22
-1689.775959323136
 32
0.0
 13
-5765.494479800388
 23
-1689.775959323136
 33
0.0
  0
MTEXT
  5
1C0
330
1B8
100
AcDbEntity
  8
0
 62
     3
100
AcDbMText
 10
-5778.994479800387
 20
-1687.275959323135
 30
0.0
 40
3.0
 41
0.0
 71
     5
 72
     1
  1
\A1;8
1001
ACAD
1000
MTEXTBEGIN
1070
    73
1070
     1
1070
    44
1040
1.0
1070
    74
1070
     0
1000
MTEXTEND
  0
POINT
  5
1C1
330
1B8
100
AcDbEntity
  8
DEFPOINTS
 62
     0
100
AcDbPoint
 10
-5765.494479800388
 20
-1707.930027834883
 30
0.0
  0
POINT
  5
1C2
330
1B8
100
AcDbEntity
  8
DEFPOINTS
 62
     0
100
AcDbPoint
 10
-5757.494479800387
 20
-1707.930027834883
 30
0.0
  0
POINT
  5
1C3
330
1B8
100
AcDbEntity
  8
DEFPOINTS
 62
     0
100
AcDbPoint
 10
-5757.494479800387
 20
-1689.775959323136
 30
0.0
  0
ENDBLK
  5
1C5
330
1B8
100
AcDbEntity
  8
0
100
AcDbBlockEnd
  0
BLOCK
  5
1D3
330
1C7
100
AcDbEntity
  8
0
100
AcDbBlockBegin
  2
*D6
 70
     1
 10
0.0
 20
0.0
 30
0.0
  3
*D6
  1

  0
LINE
  5
1C8
330
1C7
100
AcDbEntity
  8
0
 62
   123
100
AcDbLine
 10
-5764.244479800387
 20
-1710.180027834882
 30
0.0
 11
-5779.933707356362
 21
-1710.180027834882
 31
0.0
  0
LINE
  5
1C9
330
1C7
100
AcDbEntity
  8
0
 62
   123
100
AcDbLine
 10
-5764.244479800387
 20
-1705.680027834882
 30
0.0
 11
-5779.933707356362
 21
-1705.680027834882
 31
0.0
  0
LINE
  5
1CA
330
1C7
100
AcDbEntity
  8
0
 62
   123
100
AcDbLine
 10
-5779.333707356363
 20
-1713.680027834882
 30
0.0
 11
-5779.333707356363
 21
-1717.180027834881
 31
0.0
  0
LINE
  5
1CB
330
1C7
100
AcDbEntity
  8
0
 62
   123
100
AcDbLine
 10
-5779.333707356363
 20
-1702.180027834882
 30
0.0
 11
-5779.333707356363
 21
-1698.680027834882
 31
0.0
  0
LINE
  5
1CC
330
1C7
100
AcDbEntity
  8
0
 62
   123
100
AcDbLine
 10
-5779.333707356363
 20
-1710.180027834882
 30
0.0
 11
-5779.333707356363
 21
-1705.680027834882
 31
0.0
  0
SOLID
  5
1CD
330
1C7
100
AcDbEntity
  8
0
 62
   123
100
AcDbTrace
 10
-5779.917040689695
 20
-1713.680027834882
 30
0.0
 11
-5778.750374023029
 21
-1713.680027834882
 31
0.0
 12
-5779.333707356363
 22
-1710.180027834882
 32
0.0
 13
-5779.333707356363
 23
-1710.180027834882
 33
0.0
  0
SOLID
  5
1CE
330
1C7
100
AcDbEntity
  8
0
 62
   123
100
AcDbTrace
 10
-5779.917040689695
 20
-1702.180027834882
 30
0.0
 11
-5778.750374023029
 21
-1702.180027834882
 31
0.0
 12
-5779.333707356363
 22
-1705.680027834882
 32
0.0
 13
-5779.333707356363
 23
-1705.680027834882
 33
0.0
  0
MTEXT
  5
1CF
330
1C7
100
AcDbEntity
  8
0
 62
     3
100
AcDbMText
 10
-5781.833707356362
 20
-1707.930027834883
 30
0.0
 40
3.0
 41
0.0
 71
     5
 72
     1
  1
\A1;4.5
 11
0.0000000000000001
 21
1.0
 31
0.0
1001
ACAD
1000
MTEXTBEGIN
1070
    73
1070
     1
1070
    44
1040
1.0
1070
    74
1070
     0
1000
MTEXTEND
  0
POINT
  5
1D0
330
1C7
100
AcDbEntity
  8
DEFPOINTS
 62
     0
100
AcDbPoint
 10
-5763.244479800388
 20
-1710.180027834882
 30
0.0
  0
POINT
  5
1D1
330
1C7
100
AcDbEntity
  8
DEFPOINTS
 62
     0
100
AcDbPoint
 10
-5763.244479800388
 20
-1705.680027834882
 30
0.0
  0
POINT
  5
1D2
330
1C7
100
AcDbEntity
  8
DEFPOINTS
 62
     0
100
AcDbPoint
 10
-5779.333707356363
 20
-1705.680027834882
 30
0.0
  0
ENDBLK
  5
1D4
330
1C7
100
AcDbEntity
  8
0
100
AcDbBlockEnd
  0
BLOCK
  5
1E9
330
1DF
100
AcDbEntity
  8
0
100
AcDbBlockBegin
  2
*D7
 70
     1
 10
0.0
 20
0.0
 30
0.0
  3
*D7
  1

  0
LINE
  5
1E0
330
1DF
100
AcDbEntity
  8
0
 62
   123
100
AcDbLine
 10
-5662.494479800387
 20
-1737.930027834883
 30
0.0
 11
-5645.144872948591
 21
-1737.930027834883
 31
0.0
  0
LINE
  5
1E1
330
1DF
100
AcDbEntity
  8
0
 62
   123
100
AcDbLine
 10
-5664.885589011845
 20
-1707.930027834883
 30
0.0
 11
-5645.144872948591
 21
-1707.930027834883
 31
0.0
  0
LINE
  5
1E2
330
1DF
100
AcDbEntity
  8
0
 62
   123
100
AcDbLine
 10
-5645.744872948593
 20
-1734.430027834883
 30
0.0
 11
-5645.744872948593
 21
-1711.430027834881
 31
0.0
  0
SOLID
  5
1E3
330
1DF
100
AcDbEntity
  8
0
 62
   123
100
AcDbTrace
 10
-5646.328206281925
 20
-1734.430027834883
 30
0.0
 11
-5645.161539615259
 21
-1734.430027834883
 31
0.0
 12
-5645.744872948593
 22
-1737.930027834883
 32
0.0
 13
-5645.744872948593
 23
-1737.930027834883
 33
0.0
  0
SOLID
  5
1E4
330
1DF
100
AcDbEntity
  8
0
 62
   123
100
AcDbTrace
 10
-5646.328206281925
 20
-1711.430027834881
 30
0.0
 11
-5645.161539615259
 21
-1711.430027834881
 31
0.0
 12
-5645.744872948593
 22
-1707.930027834883
 32
0.0
 13
-5645.744872948593
 23
-1707.930027834883
 33
0.0
  0
MTEXT
  5
1E5
330
1DF
100
AcDbEntity
  8
0
 62
     3
100
AcDbMText
 10
-5648.244872948592
 20
-1722.930027834881
 30
0.0
 40
3.0
 41
0.0
 71
     5
 72
     1
  1
\A1;30
 11
0.0000000000000001
 21
1.0
 31
0.0
1001
ACAD
1000
MTEXTBEGIN
1070
    73
1070
     1
1070
    44
1040
1.0
1070
    74
1070
     0
1000
MTEXTEND
  0
POINT
  5
1E6
330
1DF
100
AcDbEntity
  8
DEFPOINTS
 62
     0
100
AcDbPoint
 10
-5663.494479800387
 20
-1737.930027834883
 30
0.0
  0
POINT
  5
1E7
330
1DF
100
AcDbEntity
  8
DEFPOINTS
 62
     0
100
AcDbPoint
 10
-5665.885589011844
 20
-1707.930027834883
 30
0.0
  0
POINT
  5
1E8
330
1DF
100
AcDbEntity
  8
DEFPOINTS
 62
     0
100
AcDbPoint
 10
-5645.744872948593
 20
-1707.930027834883
 30
0.0
  0
ENDBLK
  5
1EA
330
1DF
100
AcDbEntity
  8
0
100
AcDbBlockEnd
  0
BLOCK
  5
8F
330
86
100
AcDbEntity
  8
0
100
AcDbBlockBegin
  2
*D8
 70
     1
 10
0.0
 20
0.0
 30
0.0
  3
*D8
  1

  0
LINE
  5
87
330
86
100
AcDbEntity
  8
0
 62
   123
100
AcDbLine
 10
-5750.066608844036
 20
-1857.869118119307
 30
0.0
 11
-5752.785765034094
 21
-1860.072794505278
 31
0.0
  0
LINE
  5
88
330
86
100
AcDbEntity
  8
0
 62
   123
100
AcDbLine
 10
-5680.922351439782
 20
-1801.832775733196
 30
0.0
 11
-5649.08766467668
 21
-1776.03310018267
 31
0.0
  0
LINE
  5
89
330
86
100
AcDbEntity
  8
0
 62
   123
100
AcDbLine
 10
-5747.347452653983
 20
-1855.665441733336
 30
0.0
 11
-5683.641507629838
 21
-1804.036452119166
 31
0.0
  0
SOLID
  5
8A
330
86
100
AcDbEntity
  8
0
 62
   123
100
AcDbTrace
 10
-5750.433888241699
 20
-1857.415925420964
 30
0.0
 11
-5749.699329446375
 21
-1858.322310817649
 31
0.0
 12
-5747.347452653983
 22
-1855.665441733336
 32
0.0
 13
-5747.347452653983
 23
-1855.665441733336
 33
0.0
  0
SOLID
  5
8B
330
86
100
AcDbEntity
  8
0
 62
   123
100
AcDbTrace
 10
-5681.289630837444
 20
-1801.379583034852
 30
0.0
 11
-5680.555072042121
 21
-1802.285968431538
 31
0.0
 12
-5683.641507629838
 22
-1804.036452119166
 32
0.0
 13
-5683.641507629838
 23
-1804.036452119166
 33
0.0
  0
MTEXT
  5
8C
330
86
100
AcDbEntity
  8
0
 62
     3
100
AcDbMText
 10
-5658.59721587437
 20
-1780.521982969239
 30
0.0
 40
3.0
 41
0.0
 71
     5
 72
     1
  1
\A1;\U+220582%%P0.3
 11
0.7769017685871668
 21
0.6296218245630726
 31
0.0
1001
ACAD
1000
MTEXTBEGIN
1070
    73
1070
     1
1070
    44
1040
1.0
1070
    74
1070
     0
1000
MTEXTEND
  0
POINT
  5
8D
330
86
100
AcDbEntity
  8
DEFPOINTS
 62
     0
100
AcDbPoint
 10
-5683.641507629838
 20
-1804.036452119166
 30
0.0
  0
POINT
  5
8E
330
86
100
AcDbEntity
  8
DEFPOINTS
 62
     0
100
AcDbPoint
 10
-5747.347452653983
 20
-1855.665441733336
 30
0.0
  0
ENDBLK
  5
90
330
86
100
AcDbEntity
  8
0
100
AcDbBlockEnd
  0
BLOCK
  5
161
330
155
100
AcDbEntity
  8
0
100
AcDbBlockBegin
  2
*D9
 70
     1
 10
0.0
 20
0.0
 30
0.0
  3
*D9
  1

  0
LINE
  5
156
330
155
100
AcDbEntity
  8
0
 62
   123
100
AcDbLine
 10
-5574.12364294797
 20
-1796.850946584717
 30
0.0
 11
-5574.12364294797
 21
-1779.879779484055
 31
0.0
  0
LINE
  5
157
330
155
100
AcDbEntity
  8
0
 62
   123
100
AcDbLine
 10
-5571.12364294797
 20
-1795.59608269323
 30
0.0
 11
-5571.12364294797
 21
-1779.879779484055
 31
0.0
  0
LINE
  5
158
330
155
100
AcDbEntity
  8
0
 62
   123
100
AcDbLine
 10
-5577.623642947969
 20
-1780.479779484054
 30
0.0
 11
-5581.123642947972
 21
-1780.479779484054
 31
0.0
  0
LINE
  5
159
330
155
100
AcDbEntity
  8
0
 62
   123
100
AcDbLine
 10
-5567.623642947971
 20
-1780.479779484054
 30
0.0
 11
-5555.623642947971
 21
-1780.479779484054
 31
0.0
  0
LINE
  5
15A
330
155
100
AcDbEntity
  8
0
 62
   123
100
AcDbLine
 10
-5574.12364294797
 20
-1780.479779484054
 30
0.0
 11
-5571.12364294797
 21
-1780.479779484054
 31
0.0
  0
SOLID
  5
15B
330
155
100
AcDbEntity
  8
0
 62
   123
100
AcDbTrace
 10
-5577.623642947969
 20
-1779.896446150721
 30
0.0
 11
-5577.623642947969
 21
-1781.063112817388
 31
0.0
 12
-5574.12364294797
 22
-1780.479779484054
 32
0.0
 13
-5574.12364294797
 23
-1780.479779484054
 33
0.0
  0
SOLID
  5
15C
330
155
100
AcDbEntity
  8
0
 62
   123
100
AcDbTrace
 10
-5567.623642947971
 20
-1779.896446150721
 30
0.0
 11
-5567.623642947971
 21
-1781.063112817388
 31
0.0
 12
-5571.12364294797
 22
-1780.479779484054
 32
0.0
 13
-5571.12364294797
 23
-1780.479779484054
 33
0.0
  0
MTEXT
  5
15D
330
155
100
AcDbEntity
  8
0
 62
     3
100
AcDbMText
 10
-5557.623642947969
 20
-1777.979779484055
 30
0.0
 40
3.0
 41
0.0
 71
     5
 72
     1
  1
\A1;3
1001
ACAD
1000
MTEXTBEGIN
1070
    73
1070
     1
1070
    44
1040
1.0
1070
    74
1070
     0
1000
MTEXTEND
  0
POINT
  5
15E
330
155
100
AcDbEntity
  8
DEFPOINTS
 62
     0
100
AcDbPoint
 10
-5574.12364294797
 20
-1797.850946584717
 30
0.0
  0
POINT
  5
15F
330
155
100
AcDbEntity
  8
DEFPOINTS
 62
     0
100
AcDbPoint
 10
-5571.12364294797
 20
-1796.59608269323
 30
0.0
  0
POINT
  5
160
330
155
100
AcDbEntity
  8
DEFPOINTS
 62
     0
100
AcDbPoint
 10
-5571.12364294797
 20
-1780.479779484054
 30
0.0
  0
ENDBLK
  5
162
330
155
100
AcDbEntity
  8
0
100
AcDbBlockEnd
  0
BLOCK
  5
172
330
166
100
AcDbEntity
  8
0
100
AcDbBlockBegin
  2
*D10
 70
     1
 10
0.0
 20
0.0
 30
0.0
  3
*D10
  1

  0
LINE
  5
167
330
166
100
AcDbEntity
  8
0
 62
   123
100
AcDbLine
 10
-5578.123642947971
 20
-1794.350946584716
 30
0.0
 11
-5578.123642947971
 21
-1766.970776663742
 31
0.0
  0
LINE
  5
168
330
166
100
AcDbEntity
  8
0
 62
   123
100
AcDbLine
 10
-5571.12364294797
 20
-1794.350946584716
 30
0.0
 11
-5571.12364294797
 21
-1766.970776663742
 31
0.0
  0
LINE
  5
169
330
166
100
AcDbEntity
  8
0
 62
   123
100
AcDbLine
 10
-5581.623642947969
 20
-1767.570776663743
 30
0.0
 11
-5585.123642947969
 21
-1767.570776663743
 31
0.0
  0
LINE
  5
16A
330
166
100
AcDbEntity
  8
0
 62
   123
100
AcDbLine
 10
-5567.623642947971
 20
-1767.570776663743
 30
0.0
 11
-5564.123642947969
 21
-1767.570776663743
 31
0.0
  0
LINE
  5
16B
330
166
100
AcDbEntity
  8
0
 62
   123
100
AcDbLine
 10
-5578.123642947971
 20
-1767.570776663743
 30
0.0
 11
-5571.12364294797
 21
-1767.570776663743
 31
0.0
  0
SOLID
  5
16C
330
166
100
AcDbEntity
  8
0
 62
   123
100
AcDbTrace
 10
-5581.623642947969
 20
-1766.98744333041
 30
0.0
 11
-5581.623642947969
 21
-1768.154109997076
 31
0.0
 12
-5578.123642947971
 22
-1767.570776663743
 32
0.0
 13
-5578.123642947971
 23
-1767.570776663743
 33
0.0
  0
SOLID
  5
16D
330
166
100
AcDbEntity
  8
0
 62
   123
100
AcDbTrace
 10
-5567.623642947971
 20
-1766.98744333041
 30
0.0
 11
-5567.623642947971
 21
-1768.154109997076
 31
0.0
 12
-5571.12364294797
 22
-1767.570776663743
 32
0.0
 13
-5571.12364294797
 23
-1767.570776663743
 33
0.0
  0
MTEXT
  5
16E
330
166
100
AcDbEntity
  8
0
 62
     3
100
AcDbMText
 10
-5574.623642947972
 20
-1765.070776663742
 30
0.0
 40
3.0
 41
0.0
 71
     5
 72
     1
  1
\A1;7
1001
ACAD
1000
MTEXTBEGIN
1070
    73
1070
     1
1070
    44
1040
1.0
1070
    74
1070
     0
1000
MTEXTEND
  0
POINT
  5
16F
330
166
100
AcDbEntity
  8
DEFPOINTS
 62
     0
100
AcDbPoint
 10
-5578.123642947971
 20
-1795.350946584715
 30
0.0
  0
POINT
  5
170
330
166
100
AcDbEntity
  8
DEFPOINTS
 62
     0
100
AcDbPoint
 10
-5571.12364294797
 20
-1795.350946584715
 30
0.0
  0
POINT
  5
171
330
166
100
AcDbEntity
  8
DEFPOINTS
 62
     0
100
AcDbPoint
 10
-5571.12364294797
 20
-1767.570776663743
 30
0.0
  0
ENDBLK
  5
173
330
166
100
AcDbEntity
  8
0
100
AcDbBlockEnd
  0
BLOCK
  5
123
330
11A
100
AcDbEntity
  8
0
100
AcDbBlockBegin
  2
*D11
 70
     1
 10
0.0
 20
0.0
 30
0.0
  3
*D11
  1

  0
LINE
  5
11B
330
11A
100
AcDbEntity
  8
0
 62
   123
100
AcDbLine
 10
-5746.481700180815
 20
-1842.580525253897
 30
0.0
 11
-5749.71917096683
 21
-1843.910481234258
 31
0.0
  0
LINE
  5
11C
330
11A
100
AcDbEntity
  8
0
 62
   123
100
AcDbLine
 10
-5684.507259419959
 20
-1817.121367915539
 30
0.0
 11
-5662.838786833123
 21
-1808.219939421834
 31
0.0
  0
LINE
  5
11D
330
11A
100
AcDbEntity
  8
0
 62
   123
100
AcDbLine
 10
-5743.2442293948
 20
-1841.250569273534
 30
0.0
 11
-5687.744730205975
 21
-1818.451323895899
 31
0.0
  0
SOLID
  5
11E
330
11A
100
AcDbEntity
  8
0
 62
   123
100
AcDbTrace
 10
-5746.703359510878
 20
-1842.040946789561
 30
0.0
 11
-5746.260040850756
 21
-1843.120103718232
 31
0.0
 12
-5743.2442293948
 22
-1841.250569273534
 32
0.0
 13
-5743.2442293948
 23
-1841.250569273534
 33
0.0
  0
SOLID
  5
11F
330
11A
100
AcDbEntity
  8
0
 62
   123
100
AcDbTrace
 10
-5684.728918750019
 20
-1816.581789451202
 30
0.0
 11
-5684.285600089897
 21
-1817.660946379875
 31
0.0
 12
-5687.744730205975
 22
-1818.451323895899
 32
0.0
 13
-5687.744730205975
 23
-1818.451323895899
 33
0.0
  0
MTEXT
  5
120
330
11A
100
AcDbEntity
  8
0
 62
     3
100
AcDbMText
 10
-5668.215501159156
 20
-1807.725971527419
 30
0.0
 40
3.0
 41
0.0
 71
     5
 72
     1
  1
\A1;\U+220560
 11
0.9249916531470933
 21
0.3799874229605598
 31
0.0
1001
ACAD
1000
MTEXTBEGIN
1070
    73
1070
     1
1070
    44
1040
1.0
1070
    74
1070
     0
1000
MTEXTEND
  0
POINT
  5
121
330
11A
100
AcDbEntity
  8
DEFPOINTS
 62
     0
100
AcDbPoint
 10
-5687.744730205975
 20
-1818.451323895899
 30
0.0
  0
POINT
  5
122
330
11A
100
AcDbEntity
  8
DEFPOINTS
 62
     0
100
AcDbPoint
 10
-5743.2442293948
 20
-1841.250569273534
 30
0.0
  0
ENDBLK
  5
124
330
11A
100
AcDbEntity
  8
0
100
AcDbBlockEnd
  0
BLOCK
  5
37
330
2C
100
AcDbEntity
  8
0
100
AcDbBlockBegin
  2
*D12
 70
     1
 10
0.0
 20
0.0
 30
0.0
  3
*D12
  1

  0
LINE
  5
2D
330
2C
100
AcDbEntity
  8
0
 62
   123
100
AcDbLine
 10
-5660.494479800387
 20
-1872.850946584717
 30
0.0
 11
-5634.193845881497
 21
-1872.850946584717
 31
0.0
  0
LINE
  5
2E
330
2C
100
AcDbEntity
  8
0
 62
   123
100
AcDbLine
 10
-5684.994479800385
 20
-1794.350946584718
 30
0.0
 11
-5634.193845881497
 21
-1794.350946584718
 31
0.0
  0
LINE
  5
2F
330
2C
100
AcDbEntity
  8
0
 62
   123
100
AcDbLine
 10
-5634.793845881499
 20
-1869.350946584717
 30
0.0
 11
-5634.793845881499
 21
-1797.850946584718
 31
0.0
  0
SOLID
  5
30
330
2C
100
AcDbEntity
  8
0
 62
   123
100
AcDbTrace
 10
-5635.377179214832
 20
-1869.350946584717
 30
0.0
 11
-5634.210512548166
 21
-1869.350946584717
 31
0.0
 12
-5634.793845881499
 22
-1872.850946584717
 32
0.0
 13
-5634.793845881499
 23
-1872.850946584717
 33
0.0
  0
SOLID
  5
31
330
2C
100
AcDbEntity
  8
0
 62
   123
100
AcDbTrace
 10
-5635.377179214832
 20
-1797.850946584718
 30
0.0
 11
-5634.210512548166
 21
-1797.850946584718
 31
0.0
 12
-5634.793845881499
 22
-1794.350946584718
 32
0.0
 13
-5634.793845881499
 23
-1794.350946584718
 33
0.0
  0
MTEXT
  5
32
330
2C
100
AcDbEntity
  8
0
 62
     3
100
AcDbMText
 10
-5637.293845881497
 20
-1830.008704416422
 30
0.0
 40
3.0
 41
0.0
 71
     5
 72
     1
  1
\A1;78.5
 11
0.0000000000000001
 21
1.0
 31
0.0
1001
ACAD
1000
MTEXTBEGIN
1070
    73
1070
     1
1070
    44
1040
1.0
1070
    74
1070
     0
1000
MTEXTEND
  0
POINT
  5
33
330
2C
100
AcDbEntity
  8
DEFPOINTS
 62
     0
100
AcDbPoint
 10
-5661.494479800389
 20
-1872.850946584717
 30
0.0
  0
POINT
  5
35
330
2C
100
AcDbEntity
  8
DEFPOINTS
 62
     0
100
AcDbPoint
 10
-5685.994479800385
 20
-1794.350946584718
 30
0.0
  0
POINT
  5
36
330
2C
100
AcDbEntity
  8
DEFPOINTS
 62
     0
100
AcDbPoint
 10
-5634.793845881499
 20
-1794.350946584718
 30
0.0
  0
ENDBLK
  5
38
330
2C
100
AcDbEntity
  8
0
100
AcDbBlockEnd
  0
BLOCK
  5
81
330
77
100
AcDbEntity
  8
0
100
AcDbBlockBegin
  2
*D13
 70
     1
 10
0.0
 20
0.0
 30
0.0
  3
*D13
  1

  0
LINE
  5
78
330
77
100
AcDbEntity
  8
0
 62
   123
100
AcDbLine
 10
-5770.494479800387
 20
-1872.850946584716
 30
0.0
 11
-5782.255440313983
 21
-1872.850946584716
 31
0.0
  0
LINE
  5
79
330
77
100
AcDbEntity
  8
0
 62
   123
100
AcDbLine
 10
-5763.741580213829
 20
-1829.850946518152
 30
0.0
 11
-5782.255440313983
 21
-1829.850946518152
 31
0.0
  0
LINE
  5
7A
330
77
100
AcDbEntity
  8
0
 62
   123
100
AcDbLine
 10
-5781.655440313983
 20
-1869.350946584716
 30
0.0
 11
-5781.655440313983
 21
-1833.350946518151
 31
0.0
  0
SOLID
  5
7B
330
77
100
AcDbEntity
  8
0
 62
   123
100
AcDbTrace
 10
-5782.238773647316
 20
-1869.350946584716
 30
0.0
 11
-5781.07210698065
 21
-1869.350946584716
 31
0.0
 12
-5781.655440313983
 22
-1872.850946584716
 32
0.0
 13
-5781.655440313983
 23
-1872.850946584716
 33
0.0
  0
SOLID
  5
7C
330
77
100
AcDbEntity
  8
0
 62
   123
100
AcDbTrace
 10
-5782.238773647316
 20
-1833.350946518151
 30
0.0
 11
-5781.07210698065
 21
-1833.350946518151
 31
0.0
 12
-5781.655440313983
 22
-1829.850946518152
 32
0.0
 13
-5781.655440313983
 23
-1829.850946518152
 33
0.0
  0
MTEXT
  5
7D
330
77
100
AcDbEntity
  8
0
 62
     3
100
AcDbMText
 10
-5784.155440313981
 20
-1850.543170209435
 30
0.0
 40
3.0
 41
0.0
 71
     5
 72
     1
  1
\A1;43%%P0.5
 11
0.0000000000000001
 21
1.0
 31
0.0
1001
ACAD
1000
MTEXTBEGIN
1070
    73
1070
     1
1070
    44
1040
1.0
1070
    74
1070
     0
1000
MTEXTEND
  0
POINT
  5
7E
330
77
100
AcDbEntity
  8
DEFPOINTS
 62
     0
100
AcDbPoint
 10
-5769.494479800387
 20
-1872.850946584716
 30
0.0
  0
POINT
  5
7F
330
77
100
AcDbEntity
  8
DEFPOINTS
 62
     0
100
AcDbPoint
 10
-5762.741580213829
 20
-1829.850946518152
 30
0.0
  0
POINT
  5
80
330
77
100
AcDbEntity
  8
DEFPOINTS
 62
     0
100
AcDbPoint
 10
-5781.655440313983
 20
-1829.850946518152
 30
0.0
  0
ENDBLK
  5
82
330
77
100
AcDbEntity
  8
0
100
AcDbBlockEnd
  0
BLOCK
  5
70
330
66
100
AcDbEntity
  8
0
100
AcDbBlockBegin
  2
*D14
 70
     1
 10
0.0
 20
0.0
 30
0.0
  3
*D14
  1

  0
LINE
  5
67
330
66
100
AcDbEntity
  8
0
 62
   123
100
AcDbLine
 10
-5770.494479800387
 20
-1872.850946584716
 30
0.0
 11
-5792.533683472602
 21
-1872.850946584716
 31
0.0
  0
LINE
  5
68
330
66
100
AcDbEntity
  8
0
 62
   123
100
AcDbLine
 10
-5755.494479800387
 20
-1824.850946584716
 30
0.0
 11
-5792.533683472602
 21
-1824.850946584716
 31
0.0
  0
LINE
  5
69
330
66
100
AcDbEntity
  8
0
 62
   123
100
AcDbLine
 10
-5791.933683472603
 20
-1869.350946584716
 30
0.0
 11
-5791.933683472603
 21
-1828.350946584716
 31
0.0
  0
SOLID
  5
6A
330
66
100
AcDbEntity
  8
0
 62
   123
100
AcDbTrace
 10
-5792.517016805937
 20
-1869.350946584716
 30
0.0
 11
-5791.35035013927
 21
-1869.350946584716
 31
0.0
 12
-5791.933683472603
 22
-1872.850946584716
 32
0.0
 13
-5791.933683472603
 23
-1872.850946584716
 33
0.0
  0
SOLID
  5
6B
330
66
100
AcDbEntity
  8
0
 62
   123
100
AcDbTrace
 10
-5792.517016805937
 20
-1828.350946584716
 30
0.0
 11
-5791.35035013927
 21
-1828.350946584716
 31
0.0
 12
-5791.933683472603
 22
-1824.850946584716
 32
0.0
 13
-5791.933683472603
 23
-1824.850946584716
 33
0.0
  0
MTEXT
  5
6C
330
66
100
AcDbEntity
  8
0
 62
     3
100
AcDbMText
 10
-5794.433683472603
 20
-1848.043170243967
 30
0.0
 40
3.0
 41
0.0
 71
     5
 72
     1
  1
\A1;48
 11
0.0000000000000001
 21
1.0
 31
0.0
1001
ACAD
1000
MTEXTBEGIN
1070
    73
1070
     1
1070
    44
1040
1.0
1070
    74
1070
     0
1000
MTEXTEND
  0
POINT
  5
6D
330
66
100
AcDbEntity
  8
DEFPOINTS
 62
     0
100
AcDbPoint
 10
-5769.494479800387
 20
-1872.850946584716
 30
0.0
  0
POINT
  5
6E
330
66
100
AcDbEntity
  8
DEFPOINTS
 62
     0
100
AcDbPoint
 10
-5754.494479800388
 20
-1824.850946584716
 30
0.0
  0
POINT
  5
6F
330
66
100
AcDbEntity
  8
DEFPOINTS
 62
     0
100
AcDbPoint
 10
-5791.933683472603
 20
-1824.850946584716
 30
0.0
  0
ENDBLK
  5
71
330
66
100
AcDbEntity
  8
0
100
AcDbBlockEnd
  0
BLOCK
  5
C2
330
B6
100
AcDbEntity
  8
0
100
AcDbBlockBegin
  2
*D15
 70
     1
 10
0.0
 20
0.0
 30
0.0
  3
*D15
  1

  0
LINE
  5
B7
330
B6
100
AcDbEntity
  8
0
 62
   123
100
AcDbLine
 10
-5688.494479800387
 20
-1872.850946584717
 30
0.0
 11
-5697.68183790109
 21
-1872.850946584717
 31
0.0
  0
LINE
  5
B8
330
B6
100
AcDbEntity
  8
0
 62
   123
100
AcDbLine
 10
-5691.249230348956
 20
-1871.850946584717
 30
0.0
 11
-5697.68183790109
 21
-1871.850946584717
 31
0.0
  0
LINE
  5
B9
330
B6
100
AcDbEntity
  8
0
 62
   123
100
AcDbLine
 10
-5697.081837901087
 20
-1868.350946584717
 30
0.0
 11
-5697.081837901087
 21
-1864.850946584717
 31
0.0
  0
LINE
  5
BA
330
B6
100
AcDbEntity
  8
0
 62
   123
100
AcDbLine
 10
-5697.081837901087
 20
-1876.350946584717
 30
0.0
 11
-5697.081837901087
 21
-1882.565232299003
 31
0.0
  0
LINE
  5
BB
330
B6
100
AcDbEntity
  8
0
 62
   123
100
AcDbLine
 10
-5697.081837901087
 20
-1871.850946584717
 30
0.0
 11
-5697.081837901087
 21
-1872.850946584717
 31
0.0
  0
SOLID
  5
BC
330
B6
100
AcDbEntity
  8
0
 62
   123
100
AcDbTrace
 10
-5697.665171234421
 20
-1868.350946584717
 30
0.0
 11
-5696.498504567755
 21
-1868.350946584717
 31
0.0
 12
-5697.081837901087
 22
-1871.850946584717
 32
0.0
 13
-5697.081837901087
 23
-1871.850946584717
 33
0.0
  0
SOLID
  5
BD
330
B6
100
AcDbEntity
  8
0
 62
   123
100
AcDbTrace
 10
-5697.665171234421
 20
-1876.350946584717
 30
0.0
 11
-5696.498504567755
 21
-1876.350946584717
 31
0.0
 12
-5697.081837901087
 22
-1872.850946584717
 32
0.0
 13
-5697.081837901087
 23
-1872.850946584717
 33
0.0
  0
MTEXT
  5
BE
330
B6
100
AcDbEntity
  8
0
 62
     3
100
AcDbMText
 10
-5699.581837901088
 20
-1881.208089441861
 30
0.0
 40
3.0
 41
0.0
 71
     5
 72
     1
  1
\A1;1
 11
0.0000000000000001
 21
1.0
 31
0.0
1001
ACAD
1000
MTEXTBEGIN
1070
    73
1070
     1
1070
    44
1040
1.0
1070
    74
1070
     0
1000
MTEXTEND
  0
POINT
  5
BF
330
B6
100
AcDbEntity
  8
DEFPOINTS
 62
     0
100
AcDbPoint
 10
-5687.494479800387
 20
-1872.850946584717
 30
0.0
  0
POINT
  5
C0
330
B6
100
AcDbEntity
  8
DEFPOINTS
 62
     0
100
AcDbPoint
 10
-5690.249230348957
 20
-1871.850946584717
 30
0.0
  0
POINT
  5
C1
330
B6
100
AcDbEntity
  8
DEFPOINTS
 62
     0
100
AcDbPoint
 10
-5697.081837901087
 20
-1871.850946584717
 30
0.0
  0
ENDBLK
  5
C3
330
B6
100
AcDbEntity
  8
0
100
AcDbBlockEnd
  0
BLOCK
  5
46
330
3C
100
AcDbEntity
  8
0
100
AcDbBlockBegin
  2
*D16
 70
     1
 10
0.0
 20
0.0
 30
0.0
  3
*D16
  1

  0
LINE
  5
3D
330
3C
100
AcDbEntity
  8
0
 62
   123
100
AcDbLine
 10
-5579.123642947969
 20
-1859.850946584717
 30
0.0
 11
-5590.146124451941
 21
-1859.850946584717
 31
0.0
  0
LINE
  5
3E
330
3C
100
AcDbEntity
  8
0
 62
   123
100
AcDbLine
 10
-5579.123642947969
 20
-1799.850946584717
 30
0.0
 11
-5590.146124451941
 21
-1799.850946584717
 31
0.0
  0
LINE
  5
3F
330
3C
100
AcDbEntity
  8
0
 62
   123
100
AcDbLine
 10
-5589.546124451941
 20
-1856.350946584718
 30
0.0
 11
-5589.546124451941
 21
-1803.350946584717
 31
0.0
  0
SOLID
  5
40
330
3C
100
AcDbEntity
  8
0
 62
   123
100
AcDbTrace
 10
-5590.129457785273
 20
-1856.350946584718
 30
0.0
 11
-5588.962791118608
 21
-1856.350946584718
 31
0.0
 12
-5589.546124451941
 22
-1859.850946584717
 32
0.0
 13
-5589.546124451941
 23
-1859.850946584717
 33
0.0
  0
SOLID
  5
41
330
3C
100
AcDbEntity
  8
0
 62
   123
100
AcDbTrace
 10
-5590.129457785273
 20
-1803.350946584717
 30
0.0
 11
-5588.962791118608
 21
-1803.350946584717
 31
0.0
 12
-5589.546124451941
 22
-1799.850946584717
 32
0.0
 13
-5589.546124451941
 23
-1799.850946584717
 33
0.0
  0
MTEXT
  5
42
330
3C
100
AcDbEntity
  8
0
 62
     3
100
AcDbMText
 10
-5592.046124451941
 20
-1835.671079303735
 30
0.0
 40
3.0
 41
0.0
 71
     5
 72
     1
  1
\A1;%%c60
 11
0.0000000000000001
 21
1.0
 31
0.0
1001
ACAD
1000
MTEXTBEGIN
1070
    73
1070
     1
1070
    44
1040
1.0
1070
    74
1070
     0
1000
MTEXTEND
  0
POINT
  5
43
330
3C
100
AcDbEntity
  8
DEFPOINTS
 62
     0
100
AcDbPoint
 10
-5578.123642947971
 20
-1859.850946584717
 30
0.0
  0
POINT
  5
44
330
3C
100
AcDbEntity
  8
DEFPOINTS
 62
     0
100
AcDbPoint
 10
-5578.123642947971
 20
-1799.850946584717
 30
0.0
  0
POINT
  5
45
330
3C
100
AcDbEntity
  8
DEFPOINTS
 62
     0
100
AcDbPoint
 10
-5589.546124451941
 20
-1799.850946584717
 30
0.0
  0
ENDBLK
  5
47
330
3C
100
AcDbEntity
  8
0
100
AcDbBlockEnd
  0
BLOCK
  5
55
330
4B
100
AcDbEntity
  8
0
100
AcDbBlockBegin
  2
*D17
 70
     1
 10
0.0
 20
0.0
 30
0.0
  3
*D17
  1

  0
LINE
  5
4C
330
4B
100
AcDbEntity
  8
0
 62
   123
100
AcDbLine
 10
-5575.12364294797
 20
-1797.850946584717
 30
0.0
 11
-5603.110023435049
 21
-1797.850946584717
 31
0.0
  0
LINE
  5
4D
330
4B
100
AcDbEntity
  8
0
 62
   123
100
AcDbLine
 10
-5575.12364294797
 20
-1861.850945450962
 30
0.0
 11
-5603.110023435049
 21
-1861.850945450962
 31
0.0
  0
LINE
  5
4E
330
4B
100
AcDbEntity
  8
0
 62
   123
100
AcDbLine
 10
-5602.510023435048
 20
-1801.350946584717
 30
0.0
 11
-5602.510023435048
 21
-1858.350945450962
 31
0.0
  0
SOLID
  5
4F
330
4B
100
AcDbEntity
  8
0
 62
   123
100
AcDbTrace
 10
-5603.093356768383
 20
-1801.350946584717
 30
0.0
 11
-5601.926690101715
 21
-1801.350946584717
 31
0.0
 12
-5602.510023435048
 22
-1797.850946584717
 32
0.0
 13
-5602.510023435048
 23
-1797.850946584717
 33
0.0
  0
SOLID
  5
50
330
4B
100
AcDbEntity
  8
0
 62
   123
100
AcDbTrace
 10
-5603.093356768383
 20
-1858.350945450962
 30
0.0
 11
-5601.926690101715
 21
-1858.350945450962
 31
0.0
 12
-5602.510023435048
 22
-1861.850945450962
 32
0.0
 13
-5602.510023435048
 23
-1861.850945450962
 33
0.0
  0
MTEXT
  5
51
330
4B
100
AcDbEntity
  8
0
 62
     3
100
AcDbMText
 10
-5605.010023435049
 20
-1834.136820903074
 30
0.0
 40
3.0
 41
0.0
 71
     5
 72
     1
  1
\A1;%%c64
 11
0.0000000000000001
 21
1.0
 31
0.0
1001
ACAD
1000
MTEXTBEGIN
1070
    73
1070
     1
1070
    44
1040
1.0
1070
    74
1070
     0
1000
MTEXTEND
  0
POINT
  5
52
330
4B
100
AcDbEntity
  8
DEFPOINTS
 62
     0
100
AcDbPoint
 10
-5574.12364294797
 20
-1797.850946584717
 30
0.0
  0
POINT
  5
53
330
4B
100
AcDbEntity
  8
DEFPOINTS
 62
     0
100
AcDbPoint
 10
-5574.12364294797
 20
-1861.850945450962
 30
0.0
  0
POINT
  5
54
330
4B
100
AcDbEntity
  8
DEFPOINTS
 62
     0
100
AcDbPoint
 10
-5602.510023435048
 20
-1861.850945450962
 30
0.0
  0
ENDBLK
  5
56
330
4B
100
AcDbEntity
  8
0
100
AcDbBlockEnd
  0
BLOCK
  5
F4
330
EA
100
AcDbEntity
  8
0
100
AcDbBlockBegin
  2
*D18
 70
     1
 10
0.0
 20
0.0
 30
0.0
  3
*D18
  1

  0
LINE
  5
EB
330
EA
100
AcDbEntity
  8
0
 62
   123
100
AcDbLine
 10
-5553.123642947969
 20
-1863.850946584716
 30
0.0
 11
-5553.123642947969
 21
-1850.657112381325
 31
0.0
  0
LINE
  5
EC
330
EA
100
AcDbEntity
  8
0
 62
   123
100
AcDbLine
 10
-5523.123642947972
 20
-1864.350946584716
 30
0.0
 11
-5523.123642947972
 21
-1850.657112381325
 31
0.0
  0
LINE
  5
ED
330
EA
100
AcDbEntity
  8
0
 62
   123
100
AcDbLine
 10
-5549.623642947969
 20
-1851.257112381325
 30
0.0
 11
-5526.623642947971
 21
-1851.257112381325
 31
0.0
  0
SOLID
  5
EE
330
EA
100
AcDbEntity
  8
0
 62
   123
100
AcDbTrace
 10
-5549.623642947969
 20
-1850.673779047992
 30
0.0
 11
-5549.623642947969
 21
-1851.840445714659
 31
0.0
 12
-5553.123642947969
 22
-1851.257112381325
 32
0.0
 13
-5553.123642947969
 23
-1851.257112381325
 33
0.0
  0
SOLID
  5
EF
330
EA
100
AcDbEntity
  8
0
 62
   123
100
AcDbTrace
 10
-5526.623642947971
 20
-1850.673779047992
 30
0.0
 11
-5526.623642947971
 21
-1851.840445714659
 31
0.0
 12
-5523.123642947972
 22
-1851.257112381325
 32
0.0
 13
-5523.123642947972
 23
-1851.257112381325
 33
0.0
  0
MTEXT
  5
F0
330
EA
100
AcDbEntity
  8
0
 62
     3
100
AcDbMText
 10
-5537.577616943384
 20
-1848.757112381326
 30
0.0
 40
3.0
 41
0.0
 71
     5
 72
     1
  1
\A1;30
1001
ACAD
1000
MTEXTBEGIN
1070
    73
1070
     1
1070
    44
1040
1.0
1070
    74
1070
     0
1000
MTEXTEND
  0
POINT
  5
F1
330
EA
100
AcDbEntity
  8
DEFPOINTS
 62
     0
100
AcDbPoint
 10
-5553.123642947969
 20
-1864.850946584716
 30
0.0
  0
POINT
  5
F2
330
EA
100
AcDbEntity
  8
DEFPOINTS
 62
     0
100
AcDbPoint
 10
-5523.123642947972
 20
-1865.350946584716
 30
0.0
  0
POINT
  5
F3
330
EA
100
AcDbEntity
  8
DEFPOINTS
 62
     0
100
AcDbPoint
 10
-5523.123642947972
 20
-1851.257112381325
 30
0.0
  0
ENDBLK
  5
F5
330
EA
100
AcDbEntity
  8
0
100
AcDbBlockEnd
  0
BLOCK
  5
18B
330
181
100
AcDbEntity
  8
0
100
AcDbBlockBegin
  2
*D19
 70
     1
 10
0.0
 20
0.0
 30
0.0
  3
*D19
  1

  0
LINE
  5
182
330
181
100
AcDbEntity
  8
0
 62
   123
100
AcDbLine
 10
-5761.494479800387
 20
-1692.930027834883
 30
0.0
 11
-5761.494479800387
 21
-1676.825482852873
 31
0.0
  0
LINE
  5
183
330
181
100
AcDbEntity
  8
0
 62
   123
100
AcDbLine
 10
-5669.494479800388
 20
-1692.930027834883
 30
0.0
 11
-5669.494479800388
 21
-1676.825482852873
 31
0.0
  0
LINE
  5
184
330
181
100
AcDbEntity
  8
0
 62
   123
100
AcDbLine
 10
-5757.994479800387
 20
-1677.425482852871
 30
0.0
 11
-5672.994479800387
 21
-1677.425482852871
 31
0.0
  0
SOLID
  5
185
330
181
100
AcDbEntity
  8
0
 62
   123
100
AcDbTrace
 10
-5757.994479800387
 20
-1676.842149519539
 30
0.0
 11
-5757.994479800387
 21
-1678.008816186206
 31
0.0
 12
-5761.494479800387
 22
-1677.425482852871
 32
0.0
 13
-5761.494479800387
 23
-1677.425482852871
 33
0.0
  0
SOLID
  5
186
330
181
100
AcDbEntity
  8
0
 62
   123
100
AcDbTrace
 10
-5672.994479800387
 20
-1676.842149519539
 30
0.0
 11
-5672.994479800387
 21
-1678.008816186206
 31
0.0
 12
-5669.494479800388
 22
-1677.425482852871
 32
0.0
 13
-5669.494479800388
 23
-1677.425482852871
 33
0.0
  0
MTEXT
  5
187
330
181
100
AcDbEntity
  8
0
 62
     3
100
AcDbMText
 10
-5715.694000646866
 20
-1674.925482852872
 30
0.0
 40
3.0
 41
0.0
 71
     5
 72
     1
  1
\A1;92
1001
ACAD
1000
MTEXTBEGIN
1070
    73
1070
     1
1070
    44
1040
1.0
1070
    74
1070
     0
1000
MTEXTEND
  0
POINT
  5
188
330
181
100
AcDbEntity
  8
DEFPOINTS
 62
     0
100
AcDbPoint
 10
-5761.494479800387
 20
-1693.930027834883
 30
0.0
  0
POINT
  5
189
330
181
100
AcDbEntity
  8
DEFPOINTS
 62
     0
100
AcDbPoint
 10
-5669.494479800388
 20
-1693.930027834883
 30
0.0
  0
POINT
  5
18A
330
181
100
AcDbEntity
  8
DEFPOINTS
 62
     0
100
AcDbPoint
 10
-5669.494479800388
 20
-1677.425482852871
 30
0.0
  0
ENDBLK
  5
18C
330
181
100
AcDbEntity
  8
0
100
AcDbBlockEnd
  0
BLOCK
  5
19B
330
191
100
AcDbEntity
  8
0
100
AcDbBlockBegin
  2
*D20
 70
     1
 10
0.0
 20
0.0
 30
0.0
  3
*D20
  1

  0
LINE
  5
192
330
191
100
AcDbEntity
  8
0
 62
   123
100
AcDbLine
 10
-5737.494479800385
 20
-1704.930027834883
 30
0.0
 11
-5737.494479800385
 21
-1685.412169991264
 31
0.0
  0
LINE
  5
193
330
191
100
AcDbEntity
  8
0
 62
   123
100
AcDbLine
 10
-5693.494479800387
 20
-1705.930027834883
 30
0.0
 11
-5693.494479800387
 21
-1685.412169991264
 31
0.0
  0
LINE
  5
194
330
191
100
AcDbEntity
  8
0
 62
   123
100
AcDbLine
 10
-5733.994479800387
 20
-1686.012169991264
 30
0.0
 11
-5696.994479800387
 21
-1686.012169991264
 31
0.0
  0
SOLID
  5
195
330
191
100
AcDbEntity
  8
0
 62
   123
100
AcDbTrace
 10
-5733.994479800387
 20
-1685.428836657931
 30
0.0
 11
-5733.994479800387
 21
-1686.595503324596
 31
0.0
 12
-5737.494479800385
 22
-1686.012169991264
 32
0.0
 13
-5737.494479800385
 23
-1686.012169991264
 33
0.0
  0
SOLID
  5
196
330
191
100
AcDbEntity
  8
0
 62
   123
100
AcDbTrace
 10
-5696.994479800387
 20
-1685.428836657931
 30
0.0
 11
-5696.994479800387
 21
-1686.595503324596
 31
0.0
 12
-5693.494479800387
 22
-1686.012169991264
 32
0.0
 13
-5693.494479800387
 23
-1686.012169991264
 33
0.0
  0
MTEXT
  5
197
330
191
100
AcDbEntity
  8
0
 62
     3
100
AcDbMText
 10
-5714.943155920247
 20
-1683.512169991264
 30
0.0
 40
3.0
 41
0.0
 71
     5
 72
     1
  1
\A1;44
1001
ACAD
1000
MTEXTBEGIN
1070
    73
1070
     1
1070
    44
1040
1.0
1070
    74
1070
     0
1000
MTEXTEND
  0
POINT
  5
198
330
191
100
AcDbEntity
  8
DEFPOINTS
 62
     0
100
AcDbPoint
 10
-5737.494479800385
 20
-1705.930027834883
 30
0.0
  0
POINT
  5
199
330
191
100
AcDbEntity
  8
DEFPOINTS
 62
     0
100
AcDbPoint
 10
-5693.494479800387
 20
-1706.930027834883
 30
0.0
  0
POINT
  5
19A
330
191
100
AcDbEntity
  8
DEFPOINTS
 62
     0
100
AcDbPoint
 10
-5693.494479800387
 20
-1686.012169991264
 30
0.0
  0
ENDBLK
  5
19C
330
191
100
AcDbEntity
  8
0
100
AcDbBlockEnd
  0
BLOCK
  5
1AA
330
1A0
100
AcDbEntity
  8
0
100
AcDbBlockBegin
  2
*D21
 70
     1
 10
0.0
 20
0.0
 30
0.0
  3
*D21
  1

  0
LINE
  5
1A1
330
1A0
100
AcDbEntity
  8
0
 62
   123
100
AcDbLine
 10
-5743.994479800385
 20
-1698.930027834883
 30
0.0
 11
-5723.883548947597
 21
-1698.930027834883
 31
0.0
  0
LINE
  5
1A2
330
1A0
100
AcDbEntity
  8
0
 62
   123
100
AcDbLine
 10
-5727.610291099257
 20
-1735.930027834883
 30
0.0
 11
-5723.883548947597
 21
-1735.930027834883
 31
0.0
  0
LINE
  5
1A3
330
1A0
100
AcDbEntity
  8
0
 62
   123
100
AcDbLine
 10
-5724.483548947596
 20
-1702.430027834883
 30
0.0
 11
-5724.483548947596
 21
-1732.430027834882
 31
0.0
  0
SOLID
  5
1A4
330
1A0
100
AcDbEntity
  8
0
 62
   123
100
AcDbTrace
 10
-5725.06688228093
 20
-1702.430027834883
 30
0.0
 11
-5723.900215614264
 21
-1702.430027834883
 31
0.0
 12
-5724.483548947596
 22
-1698.930027834883
 32
0.0
 13
-5724.483548947596
 23
-1698.930027834883
 33
0.0
  0
SOLID
  5
1A5
330
1A0
100
AcDbEntity
  8
0
 62
   123
100
AcDbTrace
 10
-5725.06688228093
 20
-1732.430027834882
 30
0.0
 11
-5723.900215614264
 21
-1732.430027834882
 31
0.0
 12
-5724.483548947596
 22
-1735.930027834883
 32
0.0
 13
-5724.483548947596
 23
-1735.930027834883
 33
0.0
  0
MTEXT
  5
1A6
330
1A0
100
AcDbEntity
  8
0
 62
     3
100
AcDbMText
 10
-5726.983548947597
 20
-1714.140443428722
 30
0.0
 40
3.0
 41
0.0
 71
     5
 72
     1
  1
\A1;37
 11
0.0000000000000001
 21
1.0
 31
0.0
1001
ACAD
1000
MTEXTBEGIN
1070
    73
1070
     1
1070
    44
1040
1.0
1070
    74
1070
     0
1000
MTEXTEND
  0
POINT
  5
1A7
330
1A0
100
AcDbEntity
  8
DEFPOINTS
 62
     0
100
AcDbPoint
 10
-5744.994479800386
 20
-1698.930027834883
 30
0.0
  0
POINT
  5
1A8
330
1A0
100
AcDbEntity
  8
DEFPOINTS
 62
     0
100
AcDbPoint
 10
-5728.610291099257
 20
-1735.930027834883
 30
0.0
  0
POINT
  5
1A9
330
1A0
100
AcDbEntity
  8
DEFPOINTS
 62
     0
100
AcDbPoint
 10
-5724.483548947596
 20
-1735.930027834883
 30
0.0
  0
ENDBLK
  5
1AB
330
1A0
100
AcDbEntity
  8
0
100
AcDbBlockEnd
  0
BLOCK
  5
1FE
330
1F7
100
AcDbEntity
  8
0
100
AcDbBlockBegin
  2
*D22
 70
     1
 10
0.0
 20
0.0
 30
0.0
  3
*D22
  1

  0
LINE
  5
1F8
330
1F7
100
AcDbEntity
  8
0
 62
   123
100
AcDbLine
 10
-5660.29846027393
 20
-1700.081797174684
 30
0.0
 11
-5645.840612479799
 21
-1687.535099730593
 31
0.0
  0
LINE
  5
1F9
330
1F7
100
AcDbEntity
  8
0
 62
   123
100
AcDbLine
 10
-5670.494479800388
 20
-1708.930027834883
 30
0.0
 11
-5662.941872743752
 21
-1702.375782901402
 31
0.0
  0
SOLID
  5
1FA
330
1F7
100
AcDbEntity
  8
0
 62
   123
100
AcDbTrace
 10
-5660.680791228383
 20
-1699.641228429713
 30
0.0
 11
-5659.916129319476
 21
-1700.522365919654
 31
0.0
 12
-5662.941872743752
 22
-1702.375782901402
 32
0.0
 13
-5662.941872743752
 23
-1702.375782901402
 33
0.0
  0
MTEXT
  5
1FB
330
1F7
100
AcDbEntity
  8
0
 62
     3
100
AcDbMText
 10
-5651.147582854964
 20
-1688.830438362695
 30
0.0
 40
3.0
 41
0.0
 71
     5
 72
     1
  1
\A1;R10
 11
0.755260705663576
 21
0.6554244933480571
 31
0.0
1001
ACAD
1000
MTEXTBEGIN
1070
    73
1070
     1
1070
    44
1040
1.0
1070
    74
1070
     0
1000
MTEXTEND
  0
POINT
  5
1FC
330
1F7
100
AcDbEntity
  8
DEFPOINTS
 62
     0
100
AcDbPoint
 10
-5662.941872743752
 20
-1702.375782901402
 30
0.0
  0
POINT
  5
1FD
330
1F7
100
AcDbEntity
  8
DEFPOINTS
 62
     0
100
AcDbPoint
 10
-5670.494479800388
 20
-1708.930027834883
 30
0.0
  0
ENDBLK
  5
1FF
330
1F7
100
AcDbEntity
  8
0
100
AcDbBlockEnd
  0
BLOCK
  5
14F
330
145
100
AcDbEntity
  8
0
100
AcDbBlockBegin
  2
*D23
 70
     1
 10
0.0
 20
0.0
 30
0.0
  3
*D23
  1

  0
LINE
  5
146
330
145
100
AcDbEntity
  8
0
 62
   123
100
AcDbLine
 10
-5674.494479800387
 20
-1753.930027834883
 30
0.0
 11
-5645.144872948594
 21
-1753.930027834883
 31
0.0
  0
LINE
  5
147
330
145
100
AcDbEntity
  8
0
 62
   123
100
AcDbLine
 10
-5662.494479800387
 20
-1737.930027834883
 30
0.0
 11
-5645.144872948594
 21
-1737.930027834883
 31
0.0
  0
LINE
  5
148
330
145
100
AcDbEntity
  8
0
 62
   123
100
AcDbLine
 10
-5645.744872948593
 20
-1750.430027834883
 30
0.0
 11
-5645.744872948593
 21
-1741.430027834883
 31
0.0
  0
SOLID
  5
149
330
145
100
AcDbEntity
  8
0
 62
   123
100
AcDbTrace
 10
-5646.328206281927
 20
-1750.430027834883
 30
0.0
 11
-5645.161539615261
 21
-1750.430027834883
 31
0.0
 12
-5645.744872948593
 22
-1753.930027834883
 32
0.0
 13
-5645.744872948593
 23
-1753.930027834883
 33
0.0
  0
SOLID
  5
14A
330
145
100
AcDbEntity
  8
0
 62
   123
100
AcDbTrace
 10
-5646.328206281927
 20
-1741.430027834883
 30
0.0
 11
-5645.161539615261
 21
-1741.430027834883
 31
0.0
 12
-5645.744872948593
 22
-1737.930027834883
 32
0.0
 13
-5645.744872948593
 23
-1737.930027834883
 33
0.0
  0
MTEXT
  5
14B
330
145
100
AcDbEntity
  8
0
 62
     3
100
AcDbMText
 10
-5648.244872948595
 20
-1745.930027834883
 30
0.0
 40
3.0
 41
0.0
 71
     5
 72
     1
  1
\A1;16
 11
0.0000000000000001
 21
1.0
 31
0.0
1001
ACAD
1000
MTEXTBEGIN
1070
    73
1070
     1
1070
    44
1040
1.0
1070
    74
1070
     0
1000
MTEXTEND
  0
POINT
  5
14C
330
145
100
AcDbEntity
  8
DEFPOINTS
 62
     0
100
AcDbPoint
 10
-5675.494479800387
 20
-1753.930027834883
 30
0.0
  0
POINT
  5
14D
330
145
100
AcDbEntity
  8
DEFPOINTS
 62
     0
100
AcDbPoint
 10
-5663.494479800387
 20
-1737.930027834883
 30
0.0
  0
POINT
  5
14E
330
145
100
AcDbEntity
  8
DEFPOINTS
 62
     0
100
AcDbPoint
 10
-5645.744872948593
 20
-1737.930027834883
 30
0.0
  0
ENDBLK
  5
150
330
145
100
AcDbEntity
  8
0
100
AcDbBlockEnd
  0
BLOCK
  5
21C
330
210
100
AcDbEntity
  8
0
100
AcDbBlockBegin
  2
*D24
 70
     1
 10
0.0
 20
0.0
 30
0.0
  3
*D24
  1

  0
LINE
  5
211
330
210
100
AcDbEntity
  8
0
 62
   123
100
AcDbLine
 10
215.2381712022807
 20
99.61693123069427
 30
0.0
 11
215.2381712022807
 21
126.9971011516673
 31
0.0
  0
LINE
  5
212
330
210
100
AcDbEntity
  8
0
 62
   123
100
AcDbLine
 10
222.2381712022825
 20
99.61693123069427
 30
0.0
 11
222.2381712022825
 21
126.9971011516673
 31
0.0
  0
LINE
  5
213
330
210
100
AcDbEntity
  8
0
 62
   123
100
AcDbLine
 10
211.7381712022806
 20
126.3971011516673
 30
0.0
 11
208.2381712022806
 21
126.3971011516673
 31
0.0
  0
LINE
  5
214
330
210
100
AcDbEntity
  8
0
 62
   123
100
AcDbLine
 10
225.7381712022825
 20
126.3971011516673
 30
0.0
 11
229.2381712022824
 21
126.3971011516673
 31
0.0
  0
LINE
  5
215
330
210
100
AcDbEntity
  8
0
 62
   123
100
AcDbLine
 10
215.2381712022807
 20
126.3971011516673
 30
0.0
 11
222.2381712022825
 21
126.3971011516673
 31
0.0
  0
SOLID
  5
216
330
210
100
AcDbEntity
  8
0
 62
   123
100
AcDbTrace
 10
211.7381712022806
 20
126.9804344850006
 30
0.0
 11
211.7381712022806
 21
125.813767818334
 31
0.0
 12
215.2381712022807
 22
126.3971011516673
 32
0.0
 13
215.2381712022807
 23
126.3971011516673
 33
0.0
  0
SOLID
  5
217
330
210
100
AcDbEntity
  8
0
 62
   123
100
AcDbTrace
 10
225.7381712022825
 20
126.9804344850006
 30
0.0
 11
225.7381712022825
 21
125.813767818334
 31
0.0
 12
222.2381712022825
 22
126.3971011516673
 32
0.0
 13
222.2381712022825
 23
126.3971011516673
 33
0.0
  0
MTEXT
  5
218
330
210
100
AcDbEntity
  8
0
 62
     3
100
AcDbMText
 10
218.7381712022816
 20
128.8971011516673
 30
0.0
 40
3.0
 41
0.0
 71
     5
 72
     1
  1
\A1;7
1001
ACAD
1000
MTEXTBEGIN
1070
    73
1070
     1
1070
    44
1040
1.0
1070
    74
1070
     0
1000
MTEXTEND
  0
POINT
  5
219
330
210
100
AcDbEntity
  8
DEFPOINTS
 62
     0
100
AcDbPoint
 10
215.2381712022807
 20
98.61693123069427
 30
0.0
  0
POINT
  5
21A
330
210
100
AcDbEntity
  8
DEFPOINTS
 62
     0
100
AcDbPoint
 10
222.2381712022825
 20
98.61693123069427
 30
0.0
  0
POINT
  5
21B
330
210
100
AcDbEntity
  8
DEFPOINTS
 62
     0
100
AcDbPoint
 10
222.2381712022825
 20
126.3971011516673
 30
0.0
  0
ENDBLK
  5
21D
330
210
100
AcDbEntity
  8
0
100
AcDbBlockEnd
  0
BLOCK
  5
228
330
21E
100
AcDbEntity
  8
0
100
AcDbBlockBegin
  2
*D25
 70
     1
 10
0.0
 20
0.0
 30
0.0
  3
*D25
  1

  0
LINE
  5
21F
330
21E
100
AcDbEntity
  8
0
 62
   123
100
AcDbLine
 10
38.86733434986399
 20
70.11693123069426
 30
0.0
 11
38.867334349864
 21
127.3480840026782
 31
0.0
  0
LINE
  5
220
330
21E
100
AcDbEntity
  8
0
 62
   123
100
AcDbLine
 10
116.8673343498649
 20
70.11693123069426
 30
0.0
 11
116.8673343498649
 21
127.3480840026782
 31
0.0
  0
LINE
  5
221
330
21E
100
AcDbEntity
  8
0
 62
   123
100
AcDbLine
 10
42.36733434986399
 20
126.7480840026782
 30
0.0
 11
113.3673343498649
 21
126.7480840026782
 31
0.0
  0
SOLID
  5
222
330
21E
100
AcDbEntity
  8
0
 62
   123
100
AcDbTrace
 10
42.36733434986399
 20
127.3314173360116
 30
0.0
 11
42.36733434986399
 21
126.1647506693449
 31
0.0
 12
38.86733434986399
 22
126.7480840026782
 32
0.0
 13
38.86733434986399
 23
126.7480840026782
 33
0.0
  0
SOLID
  5
223
330
21E
100
AcDbEntity
  8
0
 62
   123
100
AcDbTrace
 10
113.3673343498649
 20
127.3314173360116
 30
0.0
 11
113.3673343498649
 21
126.1647506693449
 31
0.0
 12
116.8673343498649
 22
126.7480840026782
 32
0.0
 13
116.8673343498649
 23
126.7480840026782
 33
0.0
  0
MTEXT
  5
224
330
21E
100
AcDbEntity
  8
0
 62
     3
100
AcDbMText
 10
77.86733434986491
 20
129.2480840026783
 30
0.0
 40
3.0
 41
0.0
 71
     5
 72
     1
  1
\A1;78
1001
ACAD
1000
MTEXTBEGIN
1070
    73
1070
     1
1070
    44
1040
1.0
1070
    74
1070
     0
1000
MTEXTEND
  0
POINT
  5
225
330
21E
100
AcDbEntity
  8
DEFPOINTS
 62
     0
100
AcDbPoint
 10
38.86733434986399
 20
69.11693123069426
 30
0.0
  0
POINT
  5
226
330
21E
100
AcDbEntity
  8
DEFPOINTS
 62
     0
100
AcDbPoint
 10
116.8673343498649
 20
69.11693123069426
 30
0.0
  0
POINT
  5
227
330
21E
100
AcDbEntity
  8
DEFPOINTS
 62
     0
100
AcDbPoint
 10
116.8673343498649
 20
126.7480840026782
 30
0.0
  0
ENDBLK
  5
229
330
21E
100
AcDbEntity
  8
0
100
AcDbBlockEnd
  0
BLOCK
  5
233
330
22A
100
AcDbEntity
  8
0
100
AcDbBlockBegin
  2
*D26
 70
     1
 10
0.0
 20
0.0
 30
0.0
  3
*D26
  1

  0
LINE
  5
345
330
22A
100
AcDbEntity
  8
0
 62
   123
100
AcDbLine
 10
46.88011396943755
 20
51.38735256151431
 30
0.0
 11
43.64264318342273
 21
50.05739658115233
 31
0.0
  0
LINE
  5
346
330
22A
100
AcDbEntity
  8
0
 62
   123
100
AcDbLine
 10
108.8545547302924
 20
76.84650989987208
 30
0.0
 11
130.523027317128
 21
85.74793839357758
 31
0.0
  0
LINE
  5
347
330
22A
100
AcDbEntity
  8
0
 62
   123
100
AcDbLine
 10
50.11758475545237
 20
52.71730854187629
 30
0.0
 11
105.6170839442776
 21
75.51655391951005
 31
0.0
  0
SOLID
  5
348
330
22A
100
AcDbEntity
  8
0
 62
   123
100
AcDbTrace
 10
46.65845463937722
 20
51.92693102585011
 30
0.0
 11
47.10177329949788
 21
50.84777409717851
 31
0.0
 12
50.11758475545237
 22
52.71730854187629
 32
0.0
 13
50.11758475545237
 23
52.71730854187629
 33
0.0
  0
SOLID
  5
349
330
22A
100
AcDbEntity
  8
0
 62
   123
100
AcDbTrace
 10
108.6328954002321
 20
77.38608836420782
 30
0.0
 11
109.0762140603528
 21
76.30693143553621
 31
0.0
 12
105.6170839442776
 22
75.51655391951005
 32
0.0
 13
105.6170839442776
 23
75.51655391951005
 33
0.0
  0
MTEXT
  5
34A
330
22A
100
AcDbEntity
  8
0
 62
     3
100
AcDbMText
 10
125.1463129910941
 20
86.24190628799111
 30
0.0
 40
3.0
 41
0.0
 71
     5
 72
     1
  1
\A1;\U+220560
 11
0.9249916531470912
 21
0.3799874229605647
 31
0.0
1001
ACAD
1000
MTEXTBEGIN
1070
    73
1070
     1
1070
    44
1040
1.0
1070
    74
1070
     0
1000
MTEXTEND
  0
POINT
  5
34B
330
22A
100
AcDbEntity
  8
DEFPOINTS
 62
     0
100
AcDbPoint
 10
105.6170839442776
 20
75.51655391951005
 30
0.0
  0
POINT
  5
34C
330
22A
100
AcDbEntity
  8
DEFPOINTS
 62
     0
100
AcDbPoint
 10
50.11758475545237
 20
52.71730854187629
 30
0.0
  0
ENDBLK
  5
234
330
22A
100
AcDbEntity
  8
0
100
AcDbBlockEnd
  0
BLOCK
  5
23F
330
235
100
AcDbEntity
  8
0
100
AcDbBlockBegin
  2
*D27
 70
     1
 10
0.0
 20
0.0
 30
0.0
  3
*D27
  1

  0
LINE
  5
236
330
235
100
AcDbEntity
  8
0
 62
   123
100
AcDbLine
 10
42.3673343498649
 20
96.61693123069312
 30
0.0
 11
42.3673343498649
 21
114.8218133723633
 31
0.0
  0
LINE
  5
237
330
235
100
AcDbEntity
  8
0
 62
   123
100
AcDbLine
 10
113.3673343498649
 20
96.61693123069312
 30
0.0
 11
113.3673343498649
 21
114.8218133723633
 31
0.0
  0
LINE
  5
238
330
235
100
AcDbEntity
  8
0
 62
   123
100
AcDbLine
 10
45.8673343498649
 20
114.2218133723633
 30
0.0
 11
109.8673343498649
 21
114.2218133723633
 31
0.0
  0
SOLID
  5
239
330
235
100
AcDbEntity
  8
0
 62
   123
100
AcDbTrace
 10
45.8673343498649
 20
114.8051467056967
 30
0.0
 11
45.8673343498649
 21
113.63848003903
 31
0.0
 12
42.3673343498649
 22
114.2218133723633
 32
0.0
 13
42.3673343498649
 23
114.2218133723633
 33
0.0
  0
SOLID
  5
23A
330
235
100
AcDbEntity
  8
0
 62
   123
100
AcDbTrace
 10
109.8673343498649
 20
114.8051467056967
 30
0.0
 11
109.8673343498649
 21
113.63848003903
 31
0.0
 12
113.3673343498649
 22
114.2218133723633
 32
0.0
 13
113.3673343498649
 23
114.2218133723633
 33
0.0
  0
MTEXT
  5
23B
330
235
100
AcDbEntity
  8
0
 62
     3
100
AcDbMText
 10
77.86733434986491
 20
116.7218133723633
 30
0.0
 40
3.0
 41
0.0
 71
     5
 72
     1
  1
\A1;71
1001
ACAD
1000
MTEXTBEGIN
1070
    73
1070
     1
1070
    44
1040
1.0
1070
    74
1070
     0
1000
MTEXTEND
  0
POINT
  5
23C
330
235
100
AcDbEntity
  8
DEFPOINTS
 62
     0
100
AcDbPoint
 10
42.3673343498649
 20
95.61693123069312
 30
0.0
  0
POINT
  5
23D
330
235
100
AcDbEntity
  8
DEFPOINTS
 62
     0
100
AcDbPoint
 10
113.3673343498649
 20
95.61693123069312
 30
0.0
  0
POINT
  5
23E
330
235
100
AcDbEntity
  8
DEFPOINTS
 62
     0
100
AcDbPoint
 10
113.3673343498649
 20
114.2218133723633
 30
0.0
  0
ENDBLK
  5
240
330
235
100
AcDbEntity
  8
0
100
AcDbBlockEnd
  0
BLOCK
  5
24B
330
241
100
AcDbEntity
  8
0
100
AcDbBlockBegin
  2
*D28
 70
     1
 10
0.0
 20
0.0
 30
0.0
  3
*D28
  1

  0
LINE
  5
242
330
241
100
AcDbEntity
  8
0
 62
   123
100
AcDbLine
 10
22.8673343498649
 20
21.11693123069426
 30
0.0
 11
22.8673343498649
 21
2.710021661896142
 31
0.0
  0
LINE
  5
243
330
241
100
AcDbEntity
  8
0
 62
   123
100
AcDbLine
 10
132.8673343498649
 20
20.11693123069312
 30
0.0
 11
132.8673343498649
 21
2.710021661896142
 31
0.0
  0
LINE
  5
244
330
241
100
AcDbEntity
  8
0
 62
   123
100
AcDbLine
 10
26.3673343498649
 20
3.310021661896143
 30
0.0
 11
129.3673343498649
 21
3.310021661896143
 31
0.0
  0
SOLID
  5
245
330
241
100
AcDbEntity
  8
0
 62
   123
100
AcDbTrace
 10
26.3673343498649
 20
3.893354995229477
 30
0.0
 11
26.3673343498649
 21
2.72668832856281
 31
0.0
 12
22.8673343498649
 22
3.310021661896143
 32
0.0
 13
22.8673343498649
 23
3.310021661896143
 33
0.0
  0
SOLID
  5
246
330
241
100
AcDbEntity
  8
0
 62
   123
100
AcDbTrace
 10
129.3673343498649
 20
3.893354995229477
 30
0.0
 11
129.3673343498649
 21
2.72668832856281
 31
0.0
 12
132.8673343498649
 22
3.310021661896143
 32
0.0
 13
132.8673343498649
 23
3.310021661896143
 33
0.0
  0
MTEXT
  5
247
330
241
100
AcDbEntity
  8
0
 62
     3
100
AcDbMText
 10
78.40942311909476
 20
5.810021661896143
 30
0.0
 40
3.0
 41
0.0
 71
     5
 72
     1
  1
\A1;110
1001
ACAD
1000
MTEXTBEGIN
1070
    73
1070
     1
1070
    44
1040
1.0
1070
    74
1070
     0
1000
MTEXTEND
  0
POINT
  5
248
330
241
100
AcDbEntity
  8
DEFPOINTS
 62
     0
100
AcDbPoint
 10
22.8673343498649
 20
22.11693123069426
 30
0.0
  0
POINT
  5
249
330
241
100
AcDbEntity
  8
DEFPOINTS
 62
     0
100
AcDbPoint
 10
132.8673343498649
 20
21.11693123069312
 30
0.0
  0
POINT
  5
24A
330
241
100
AcDbEntity
  8
DEFPOINTS
 62
     0
100
AcDbPoint
 10
132.8673343498649
 20
3.310021661896143
 30
0.0
  0
ENDBLK
  5
24C
330
241
100
AcDbEntity
  8
0
100
AcDbBlockEnd
  0
BLOCK
  5
256
330
24D
100
AcDbEntity
  8
0
100
AcDbBlockBegin
  2
*D29
 70
     1
 10
0.0
 20
0.0
 30
0.0
  3
*D29
  1

  0
LINE
  5
33D
330
24D
100
AcDbEntity
  8
0
 62
   123
100
AcDbLine
 10
43.29520530621456
 20
36.09875969610421
 30
0.0
 11
40.57604911615943
 21
33.89508331013351
 31
0.0
  0
LINE
  5
33E
330
24D
100
AcDbEntity
  8
0
 62
   123
100
AcDbLine
 10
112.4394627104709
 20
92.13510208221405
 30
0.0
 11
144.274149473574
 21
117.934777632739
 31
0.0
  0
LINE
  5
33F
330
24D
100
AcDbEntity
  8
0
 62
   123
100
AcDbLine
 10
46.01436149626969
 20
38.3024360820749
 30
0.0
 11
109.7203065204158
 21
89.93142569624337
 31
0.0
  0
SOLID
  5
340
330
24D
100
AcDbEntity
  8
0
 62
   123
100
AcDbTrace
 10
42.92792590855277
 20
36.55195239444672
 30
0.0
 11
43.66248470387634
 21
35.64556699776169
 31
0.0
 12
46.01436149626969
 22
38.3024360820749
 32
0.0
 13
46.01436149626969
 23
38.3024360820749
 33
0.0
  0
SOLID
  5
341
330
24D
100
AcDbEntity
  8
0
 62
   123
100
AcDbTrace
 10
112.0721833128091
 20
92.58829478055657
 30
0.0
 11
112.8067421081327
 21
91.68190938387153
 31
0.0
 12
109.7203065204158
 22
89.93142569624337
 32
0.0
 13
109.7203065204158
 23
89.93142569624337
 33
0.0
  0
MTEXT
  5
342
330
24D
100
AcDbEntity
  8
0
 62
     3
100
AcDbMText
 10
134.764598275883
 20
113.4458948461701
 30
0.0
 40
3.0
 41
0.0
 71
     5
 72
     1
  1
\A1;\U+220582%%P0.3
 11
0.7769017685871801
 21
0.6296218245630561
 31
0.0
1001
ACAD
1000
MTEXTBEGIN
1070
    73
1070
     1
1070
    44
1040
1.0
1070
    74
1070
     0
1000
MTEXTEND
  0
POINT
  5
343
330
24D
100
AcDbEntity
  8
DEFPOINTS
 62
     0
100
AcDbPoint
 10
109.7203065204158
 20
89.93142569624337
 30
0.0
  0
POINT
  5
344
330
24D
100
AcDbEntity
  8
DEFPOINTS
 62
     0
100
AcDbPoint
 10
46.01436149626969
 20
38.3024360820749
 30
0.0
  0
ENDBLK
  5
257
330
24D
100
AcDbEntity
  8
0
100
AcDbBlockEnd
  0
BLOCK
  5
262
330
258
100
AcDbEntity
  8
0
100
AcDbBlockBegin
  2
*D30
 70
     1
 10
0.0
 20
0.0
 30
0.0
  3
*D30
  1

  0
LINE
  5
259
330
258
100
AcDbEntity
  8
0
 62
   123
100
AcDbLine
 10
22.8673343498649
 20
21.11693123069426
 30
0.0
 11
11.10637383626854
 21
21.11693123069426
 31
0.0
  0
LINE
  5
25A
330
258
100
AcDbEntity
  8
0
 62
   123
100
AcDbLine
 10
29.62023393642266
 20
64.11693129725836
 30
0.0
 11
11.10637383626855
 21
64.11693129725836
 31
0.0
  0
LINE
  5
25B
330
258
100
AcDbEntity
  8
0
 62
   123
100
AcDbLine
 10
11.70637383626854
 20
24.61693123069426
 30
0.0
 11
11.70637383626855
 21
60.61693129725836
 31
0.0
  0
SOLID
  5
25C
330
258
100
AcDbEntity
  8
0
 62
   123
100
AcDbTrace
 10
11.12304050293521
 20
24.61693123069426
 30
0.0
 11
12.28970716960187
 21
24.61693123069426
 31
0.0
 12
11.70637383626854
 22
21.11693123069426
 32
0.0
 13
11.70637383626854
 23
21.11693123069426
 33
0.0
  0
SOLID
  5
25D
330
258
100
AcDbEntity
  8
0
 62
   123
100
AcDbTrace
 10
11.12304050293521
 20
60.61693129725836
 30
0.0
 11
12.28970716960188
 21
60.61693129725836
 31
0.0
 12
11.70637383626855
 22
64.11693129725836
 32
0.0
 13
11.70637383626855
 23
64.11693129725836
 33
0.0
  0
MTEXT
  5
25E
330
258
100
AcDbEntity
  8
0
 62
     3
100
AcDbMText
 10
9.206373836268539
 20
43.42470760597507
 30
0.0
 40
3.0
 41
0.0
 71
     5
 72
     1
  1
\A1;43%%P0.5
 11
0.0000000000000001
 21
1.0
 31
0.0
1001
ACAD
1000
MTEXTBEGIN
1070
    73
1070
     1
1070
    44
1040
1.0
1070
    74
1070
     0
1000
MTEXTEND
  0
POINT
  5
25F
330
258
100
AcDbEntity
  8
DEFPOINTS
 62
     0
100
AcDbPoint
 10
23.8673343498649
 20
21.11693123069426
 30
0.0
  0
POINT
  5
260
330
258
100
AcDbEntity
  8
DEFPOINTS
 62
     0
100
AcDbPoint
 10
30.62023393642266
 20
64.11693129725836
 30
0.0
  0
POINT
  5
261
330
258
100
AcDbEntity
  8
DEFPOINTS
 62
     0
100
AcDbPoint
 10
11.70637383626855
 20
64.11693129725836
 30
0.0
  0
ENDBLK
  5
263
330
258
100
AcDbEntity
  8
0
100
AcDbBlockEnd
  0
BLOCK
  5
26E
330
264
100
AcDbEntity
  8
0
100
AcDbBlockBegin
  2
*D31
 70
     1
 10
0.0
 20
0.0
 30
0.0
  3
*D31
  1

  0
LINE
  5
265
330
264
100
AcDbEntity
  8
0
 62
   123
100
AcDbLine
 10
22.8673343498649
 20
21.11693123069426
 30
0.0
 11
0.828130677649278
 21
21.11693123069426
 31
0.0
  0
LINE
  5
266
330
264
100
AcDbEntity
  8
0
 62
   123
100
AcDbLine
 10
37.86733434986399
 20
69.11693123069426
 30
0.0
 11
0.8281306776492922
 21
69.11693123069428
 31
0.0
  0
LINE
  5
267
330
264
100
AcDbEntity
  8
0
 62
   123
100
AcDbLine
 10
1.428130677649281
 20
24.61693123069427
 30
0.0
 11
1.42813067764929
 21
65.61693123069428
 31
0.0
  0
SOLID
  5
268
330
264
100
AcDbEntity
  8
0
 62
   123
100
AcDbTrace
 10
0.8447973443159476
 20
24.61693123069427
 30
0.0
 11
2.011464010982614
 21
24.61693123069427
 31
0.0
 12
1.42813067764928
 22
21.11693123069426
 32
0.0
 13
1.42813067764928
 23
21.11693123069426
 33
0.0
  0
SOLID
  5
269
330
264
100
AcDbEntity
  8
0
 62
   123
100
AcDbTrace
 10
0.8447973443159566
 20
65.61693123069428
 30
0.0
 11
2.011464010982623
 21
65.61693123069428
 31
0.0
 12
1.42813067764929
 22
69.11693123069428
 32
0.0
 13
1.42813067764929
 23
69.11693123069428
 33
0.0
  0
MTEXT
  5
26A
330
264
100
AcDbEntity
  8
0
 62
     3
100
AcDbMText
 10
-1.071869322350721
 20
45.92470757144337
 30
0.0
 40
3.0
 41
0.0
 71
     5
 72
     1
  1
\A1;48
 11
0.0000000000000001
 21
1.0
 31
0.0
1001
ACAD
1000
MTEXTBEGIN
1070
    73
1070
     1
1070
    44
1040
1.0
1070
    74
1070
     0
1000
MTEXTEND
  0
POINT
  5
26B
330
264
100
AcDbEntity
  8
DEFPOINTS
 62
     0
100
AcDbPoint
 10
23.8673343498649
 20
21.11693123069426
 30
0.0
  0
POINT
  5
26C
330
264
100
AcDbEntity
  8
DEFPOINTS
 62
     0
100
AcDbPoint
 10
38.86733434986399
 20
69.11693123069426
 30
0.0
  0
POINT
  5
26D
330
264
100
AcDbEntity
  8
DEFPOINTS
 62
     0
100
AcDbPoint
 10
1.42813067764929
 20
69.11693123069428
 30
0.0
  0
ENDBLK
  5
26F
330
264
100
AcDbEntity
  8
0
100
AcDbBlockEnd
  0
BLOCK
  5
27A
330
270
100
AcDbEntity
  8
0
100
AcDbBlockBegin
  2
*D32
 70
     1
 10
0.0
 20
0.0
 30
0.0
  3
*D32
  1

  0
LINE
  5
271
330
270
100
AcDbEntity
  8
0
 62
   123
100
AcDbLine
 10
218.2381712022825
 20
96.11693123069313
 30
0.0
 11
190.2517907152045
 21
96.11693123069313
 31
0.0
  0
LINE
  5
272
330
270
100
AcDbEntity
  8
0
 62
   123
100
AcDbLine
 10
218.2381712022825
 20
32.1169323644483
 30
0.0
 11
190.2517907152045
 21
32.11693236444831
 31
0.0
  0
LINE
  5
273
330
270
100
AcDbEntity
  8
0
 62
   123
100
AcDbLine
 10
190.8517907152045
 20
92.61693123069312
 30
0.0
 11
190.8517907152045
 21
35.61693236444831
 31
0.0
  0
SOLID
  5
274
330
270
100
AcDbEntity
  8
0
 62
   123
100
AcDbTrace
 10
190.2684573818712
 20
92.61693123069312
 30
0.0
 11
191.4351240485378
 21
92.61693123069312
 31
0.0
 12
190.8517907152045
 22
96.11693123069313
 32
0.0
 13
190.8517907152045
 23
96.11693123069313
 33
0.0
  0
SOLID
  5
275
330
270
100
AcDbEntity
  8
0
 62
   123
100
AcDbTrace
 10
190.2684573818711
 20
35.61693236444831
 30
0.0
 11
191.4351240485378
 21
35.61693236444831
 31
0.0
 12
190.8517907152045
 22
32.11693236444831
 32
0.0
 13
190.8517907152045
 23
32.11693236444831
 33
0.0
  0
MTEXT
  5
276
330
270
100
AcDbEntity
  8
0
 62
     3
100
AcDbMText
 10
188.3517907152045
 20
59.83105691233618
 30
0.0
 40
3.0
 41
0.0
 71
     5
 72
     1
  1
\A1;%%c64
 11
0.0000000000000001
 21
1.0
 31
0.0
1001
ACAD
1000
MTEXTBEGIN
1070
    73
1070
     1
1070
    44
1040
1.0
1070
    74
1070
     0
1000
MTEXTEND
  0
POINT
  5
277
330
270
100
AcDbEntity
  8
DEFPOINTS
 62
     0
100
AcDbPoint
 10
219.2381712022825
 20
96.11693123069313
 30
0.0
  0
POINT
  5
278
330
270
100
AcDbEntity
  8
DEFPOINTS
 62
     0
100
AcDbPoint
 10
219.2381712022825
 20
32.1169323644483
 30
0.0
  0
POINT
  5
279
330
270
100
AcDbEntity
  8
DEFPOINTS
 62
     0
100
AcDbPoint
 10
190.8517907152045
 20
32.11693236444831
 30
0.0
  0
ENDBLK
  5
27B
330
270
100
AcDbEntity
  8
0
100
AcDbBlockEnd
  0
BLOCK
  5
288
330
27C
100
AcDbEntity
  8
0
100
AcDbBlockBegin
  2
*D33
 70
     1
 10
0.0
 20
0.0
 30
0.0
  3
*D33
  1

  0
LINE
  5
27D
330
27C
100
AcDbEntity
  8
0
 62
   123
100
AcDbLine
 10
104.8673343498649
 20
21.11693123069312
 30
0.0
 11
95.67997624916589
 21
21.11693123069313
 31
0.0
  0
LINE
  5
27E
330
27C
100
AcDbEntity
  8
0
 62
   123
100
AcDbLine
 10
102.1125838012949
 20
22.11693123069312
 30
0.0
 11
95.67997624916589
 21
22.11693123069312
 31
0.0
  0
LINE
  5
27F
330
27C
100
AcDbEntity
  8
0
 62
   123
100
AcDbLine
 10
96.27997624916588
 20
25.61693123069312
 30
0.0
 11
96.27997624916588
 21
29.11693123069312
 31
0.0
  0
LINE
  5
280
330
27C
100
AcDbEntity
  8
0
 62
   123
100
AcDbLine
 10
96.27997624916588
 20
17.61693123069313
 30
0.0
 11
96.27997624916588
 21
11.40264551640645
 31
0.0
  0
LINE
  5
281
330
27C
100
AcDbEntity
  8
0
 62
   123
100
AcDbLine
 10
96.27997624916588
 20
22.11693123069312
 30
0.0
 11
96.27997624916588
 21
21.11693123069313
 31
0.0
  0
SOLID
  5
282
330
27C
100
AcDbEntity
  8
0
 62
   123
100
AcDbTrace
 10
95.69664291583256
 20
25.61693123069312
 30
0.0
 11
96.86330958249921
 21
25.61693123069312
 31
0.0
 12
96.27997624916588
 22
22.11693123069312
 32
0.0
 13
96.27997624916588
 23
22.11693123069312
 33
0.0
  0
SOLID
  5
283
330
27C
100
AcDbEntity
  8
0
 62
   123
100
AcDbTrace
 10
95.69664291583256
 20
17.61693123069313
 30
0.0
 11
96.86330958249921
 21
17.61693123069313
 31
0.0
 12
96.27997624916588
 22
21.11693123069313
 32
0.0
 13
96.27997624916588
 23
21.11693123069313
 33
0.0
  0
MTEXT
  5
284
330
27C
100
AcDbEntity
  8
0
 62
     3
100
AcDbMText
 10
93.77997624916588
 20
12.75978837354932
 30
0.0
 40
3.0
 41
0.0
 71
     5
 72
     1
  1
\A1;1
 11
0.0000000000000001
 21
1.0
 31
0.0
1001
ACAD
1000
MTEXTBEGIN
1070
    73
1070
     1
1070
    44
1040
1.0
1070
    74
1070
     0
1000
MTEXTEND
  0
POINT
  5
285
330
27C
100
AcDbEntity
  8
DEFPOINTS
 62
     0
100
AcDbPoint
 10
105.8673343498649
 20
21.11693123069312
 30
0.0
  0
POINT
  5
286
330
27C
100
AcDbEntity
  8
DEFPOINTS
 62
     0
100
AcDbPoint
 10
103.1125838012949
 20
22.11693123069312
 30
0.0
  0
POINT
  5
287
330
27C
100
AcDbEntity
  8
DEFPOINTS
 62
     0
100
AcDbPoint
 10
96.27997624916588
 20
22.11693123069312
 30
0.0
  0
ENDBLK
  5
289
330
27C
100
AcDbEntity
  8
0
100
AcDbBlockEnd
  0
BLOCK
  5
294
330
28A
100
AcDbEntity
  8
0
100
AcDbBlockBegin
  2
*D34
 70
     1
 10
0.0
 20
0.0
 30
0.0
  3
*D34
  1

  0
LINE
  5
28B
330
28A
100
AcDbEntity
  8
0
 62
   123
100
AcDbLine
 10
132.8673343498639
 20
21.11693123069312
 30
0.0
 11
159.1679682687532
 21
21.11693123069311
 31
0.0
  0
LINE
  5
28C
330
28A
100
AcDbEntity
  8
0
 62
   123
100
AcDbLine
 10
108.3673343498667
 20
99.61693123069222
 30
0.0
 11
159.1679682687532
 21
99.61693123069222
 31
0.0
  0
LINE
  5
28D
330
28A
100
AcDbEntity
  8
0
 62
   123
100
AcDbLine
 10
158.5679682687532
 20
24.61693123069311
 30
0.0
 11
158.5679682687532
 21
96.11693123069223
 31
0.0
  0
SOLID
  5
28E
330
28A
100
AcDbEntity
  8
0
 62
   123
100
AcDbTrace
 10
157.9846349354198
 20
24.61693123069311
 30
0.0
 11
159.1513016020865
 21
24.61693123069311
 31
0.0
 12
158.5679682687532
 22
21.11693123069311
 32
0.0
 13
158.5679682687532
 23
21.11693123069311
 33
0.0
  0
SOLID
  5
28F
330
28A
100
AcDbEntity
  8
0
 62
   123
100
AcDbTrace
 10
157.9846349354199
 20
96.11693123069223
 30
0.0
 11
159.1513016020866
 21
96.11693123069223
 31
0.0
 12
158.5679682687532
 22
99.61693123069222
 32
0.0
 13
158.5679682687532
 23
99.61693123069222
 33
0.0
  0
MTEXT
  5
290
330
28A
100
AcDbEntity
  8
0
 62
     3
100
AcDbMText
 10
156.0679682687532
 20
63.95917339898824
 30
0.0
 40
3.0
 41
0.0
 71
     5
 72
     1
  1
\A1;78.5
 11
0.0000000000000001
 21
1.0
 31
0.0
1001
ACAD
1000
MTEXTBEGIN
1070
    73
1070
     1
1070
    44
1040
1.0
1070
    74
1070
     0
1000
MTEXTEND
  0
POINT
  5
291
330
28A
100
AcDbEntity
  8
DEFPOINTS
 62
     0
100
AcDbPoint
 10
131.8673343498639
 20
21.11693123069312
 30
0.0
  0
POINT
  5
292
330
28A
100
AcDbEntity
  8
DEFPOINTS
 62
     0
100
AcDbPoint
 10
107.3673343498667
 20
99.61693123069222
 30
0.0
  0
POINT
  5
293
330
28A
100
AcDbEntity
  8
DEFPOINTS
 62
     0
100
AcDbPoint
 10
158.5679682687532
 20
99.61693123069222
 30
0.0
  0
ENDBLK
  5
295
330
28A
100
AcDbEntity
  8
0
100
AcDbBlockEnd
  0
BLOCK
  5
2A2
330
296
100
AcDbEntity
  8
0
100
AcDbBlockBegin
  2
*D35
 70
     1
 10
0.0
 20
0.0
 30
0.0
  3
*D35
  1

  0
LINE
  5
297
330
296
100
AcDbEntity
  8
0
 62
   123
100
AcDbLine
 10
132.8673343498639
 20
21.11693123069312
 30
0.0
 11
146.5059046190095
 21
21.11693123069312
 31
0.0
  0
LINE
  5
298
330
296
100
AcDbEntity
  8
0
 62
   123
100
AcDbLine
 10
132.8673343498639
 20
29.11693123069426
 30
0.0
 11
146.5059046190095
 21
29.11693123069426
 31
0.0
  0
LINE
  5
299
330
296
100
AcDbEntity
  8
0
 62
   123
100
AcDbLine
 10
145.9059046190095
 20
17.61693123069312
 30
0.0
 11
145.9059046190095
 21
14.11693123069312
 31
0.0
  0
LINE
  5
29A
330
296
100
AcDbEntity
  8
0
 62
   123
100
AcDbLine
 10
145.9059046190095
 20
32.61693123069425
 30
0.0
 11
145.9059046190095
 21
36.11693123069425
 31
0.0
  0
LINE
  5
29B
330
296
100
AcDbEntity
  8
0
 62
   123
100
AcDbLine
 10
145.9059046190095
 20
21.11693123069312
 30
0.0
 11
145.9059046190095
 21
29.11693123069426
 31
0.0
  0
SOLID
  5
29C
330
296
100
AcDbEntity
  8
0
 62
   123
100
AcDbTrace
 10
145.3225712856762
 20
17.61693123069312
 30
0.0
 11
146.4892379523428
 21
17.61693123069312
 31
0.0
 12
145.9059046190095
 22
21.11693123069312
 32
0.0
 13
145.9059046190095
 23
21.11693123069312
 33
0.0
  0
SOLID
  5
29D
330
296
100
AcDbEntity
  8
0
 62
   123
100
AcDbTrace
 10
145.3225712856762
 20
32.61693123069425
 30
0.0
 11
146.4892379523428
 21
32.61693123069425
 31
0.0
 12
145.9059046190095
 22
29.11693123069426
 32
0.0
 13
145.9059046190095
 23
29.11693123069426
 33
0.0
  0
MTEXT
  5
29E
330
296
100
AcDbEntity
  8
0
 62
     3
100
AcDbMText
 10
143.4059046190095
 20
25.11693123069371
 30
0.0
 40
3.0
 41
0.0
 71
     5
 72
     1
  1
\A1;8
 11
0.0000000000000001
 21
1.0
 31
0.0
1001
ACAD
1000
MTEXTBEGIN
1070
    73
1070
     1
1070
    44
1040
1.0
1070
    74
1070
     0
1000
MTEXTEND
  0
POINT
  5
29F
330
296
100
AcDbEntity
  8
DEFPOINTS
 62
     0
100
AcDbPoint
 10
131.8673343498639
 20
21.11693123069312
 30
0.0
  0
POINT
  5
2A0
330
296
100
AcDbEntity
  8
DEFPOINTS
 62
     0
100
AcDbPoint
 10
131.8673343498639
 20
29.11693123069426
 30
0.0
  0
POINT
  5
2A1
330
296
100
AcDbEntity
  8
DEFPOINTS
 62
     0
100
AcDbPoint
 10
145.9059046190095
 20
29.11693123069426
 30
0.0
  0
ENDBLK
  5
2A3
330
296
100
AcDbEntity
  8
0
100
AcDbBlockEnd
  0
BLOCK
  5
2AE
330
2A4
100
AcDbEntity
  8
0
100
AcDbBlockBegin
  2
*D36
 70
     1
 10
0.0
 20
0.0
 30
0.0
  3
*D36
  1

  0
LINE
  5
2A5
330
2A4
100
AcDbEntity
  8
0
 62
   123
100
AcDbLine
 10
215.2381712022807
 20
28.11693123069426
 30
0.0
 11
215.2381712022807
 21
8.917536074382176
 31
0.0
  0
LINE
  5
2A6
330
2A4
100
AcDbEntity
  8
0
 62
   123
100
AcDbLine
 10
270.2381712022806
 20
20.61693123069426
 30
0.0
 11
270.2381712022806
 21
8.917536074382178
 31
0.0
  0
LINE
  5
2A7
330
2A4
100
AcDbEntity
  8
0
 62
   123
100
AcDbLine
 10
218.7381712022806
 20
9.517536074382178
 30
0.0
 11
266.7381712022806
 21
9.517536074382178
 31
0.0
  0
SOLID
  5
2A8
330
2A4
100
AcDbEntity
  8
0
 62
   123
100
AcDbTrace
 10
218.7381712022806
 20
10.10086940771551
 30
0.0
 11
218.7381712022806
 21
8.934202741048844
 31
0.0
 12
215.2381712022807
 22
9.517536074382178
 32
0.0
 13
215.2381712022807
 23
9.517536074382178
 33
0.0
  0
SOLID
  5
2A9
330
2A4
100
AcDbEntity
  8
0
 62
   123
100
AcDbTrace
 10
266.7381712022806
 20
10.10086940771551
 30
0.0
 11
266.7381712022806
 21
8.934202741048844
 31
0.0
 12
270.2381712022806
 22
9.517536074382178
 32
0.0
 13
270.2381712022806
 23
9.517536074382178
 33
0.0
  0
MTEXT
  5
2AA
330
2A4
100
AcDbEntity
  8
0
 62
     3
100
AcDbMText
 10
243.9030418472293
 20
12.01753607438218
 30
0.0
 40
3.0
 41
0.0
 71
     5
 72
     1
  1
\A1;55
1001
ACAD
1000
MTEXTBEGIN
1070
    73
1070
     1
1070
    44
1040
1.0
1070
    74
1070
     0
1000
MTEXTEND
  0
POINT
  5
2AB
330
2A4
100
AcDbEntity
  8
DEFPOINTS
 62
     0
100
AcDbPoint
 10
215.2381712022807
 20
29.11693123069426
 30
0.0
  0
POINT
  5
2AC
330
2A4
100
AcDbEntity
  8
DEFPOINTS
 62
     0
100
AcDbPoint
 10
270.2381712022806
 20
21.61693123069426
 30
0.0
  0
POINT
  5
2AD
330
2A4
100
AcDbEntity
  8
DEFPOINTS
 62
     0
100
AcDbPoint
 10
270.2381712022806
 20
9.517536074382178
 30
0.0
  0
ENDBLK
  5
2AF
330
2A4
100
AcDbEntity
  8
0
100
AcDbBlockEnd
  0
BLOCK
  5
2BA
330
2B0
100
AcDbEntity
  8
0
100
AcDbBlockBegin
  2
*D37
 70
     1
 10
0.0
 20
0.0
 30
0.0
  3
*D37
  1

  0
LINE
  5
2B1
330
2B0
100
AcDbEntity
  8
0
 62
   123
100
AcDbLine
 10
240.2381712022825
 20
30.11693123069426
 30
0.0
 11
240.2381712022825
 21
43.31076543408435
 31
0.0
  0
LINE
  5
2B2
330
2B0
100
AcDbEntity
  8
0
 62
   123
100
AcDbLine
 10
270.2381712022806
 20
29.61693123069426
 30
0.0
 11
270.2381712022806
 21
43.31076543408435
 31
0.0
  0
LINE
  5
2B3
330
2B0
100
AcDbEntity
  8
0
 62
   123
100
AcDbLine
 10
243.7381712022824
 20
42.71076543408435
 30
0.0
 11
266.7381712022806
 21
42.71076543408435
 31
0.0
  0
SOLID
  5
2B4
330
2B0
100
AcDbEntity
  8
0
 62
   123
100
AcDbTrace
 10
243.7381712022824
 20
43.29409876741769
 30
0.0
 11
243.7381712022824
 21
42.12743210075101
 31
0.0
 12
240.2381712022825
 22
42.71076543408435
 32
0.0
 13
240.2381712022825
 23
42.71076543408435
 33
0.0
  0
SOLID
  5
2B5
330
2B0
100
AcDbEntity
  8
0
 62
   123
100
AcDbTrace
 10
266.7381712022806
 20
43.29409876741769
 30
0.0
 11
266.7381712022806
 21
42.12743210075101
 31
0.0
 12
270.2381712022806
 22
42.71076543408435
 32
0.0
 13
270.2381712022806
 23
42.71076543408435
 33
0.0
  0
MTEXT
  5
2B6
330
2B0
100
AcDbEntity
  8
0
 62
     3
100
AcDbMText
 10
255.7841972068681
 20
45.21076543408435
 30
0.0
 40
3.0
 41
0.0
 71
     5
 72
     1
  1
\A1;30
1001
ACAD
1000
MTEXTBEGIN
1070
    73
1070
     1
1070
    44
1040
1.0
1070
    74
1070
     0
1000
MTEXTEND
  0
POINT
  5
2B7
330
2B0
100
AcDbEntity
  8
DEFPOINTS
 62
     0
100
AcDbPoint
 10
240.2381712022825
 20
29.11693123069426
 30
0.0
  0
POINT
  5
2B8
330
2B0
100
AcDbEntity
  8
DEFPOINTS
 62
     0
100
AcDbPoint
 10
270.2381712022806
 20
28.61693123069426
 30
0.0
  0
POINT
  5
2B9
330
2B0
100
AcDbEntity
  8
DEFPOINTS
 62
     0
100
AcDbPoint
 10
270.2381712022806
 20
42.71076543408435
 30
0.0
  0
ENDBLK
  5
2BB
330
2B0
100
AcDbEntity
  8
0
100
AcDbBlockEnd
  0
BLOCK
  5
2C8
330
2BC
100
AcDbEntity
  8
0
100
AcDbBlockBegin
  2
*D38
 70
     1
 10
0.0
 20
0.0
 30
0.0
  3
*D38
  1

  0
LINE
  5
2BD
330
2BC
100
AcDbEntity
  8
0
 62
   123
100
AcDbLine
 10
219.2381712022825
 20
97.11693123069313
 30
0.0
 11
219.2381712022825
 21
114.0880983313553
 31
0.0
  0
LINE
  5
2BE
330
2BC
100
AcDbEntity
  8
0
 62
   123
100
AcDbLine
 10
222.2381712022825
 20
98.37179512218018
 30
0.0
 11
222.2381712022825
 21
114.0880983313553
 31
0.0
  0
LINE
  5
2BF
330
2BC
100
AcDbEntity
  8
0
 62
   123
100
AcDbLine
 10
215.7381712022825
 20
113.4880983313553
 30
0.0
 11
212.2381712022824
 21
113.4880983313553
 31
0.0
  0
LINE
  5
2C0
330
2BC
100
AcDbEntity
  8
0
 62
   123
100
AcDbLine
 10
225.7381712022825
 20
113.4880983313553
 30
0.0
 11
237.7381712022824
 21
113.4880983313553
 31
0.0
  0
LINE
  5
2C1
330
2BC
100
AcDbEntity
  8
0
 62
   123
100
AcDbLine
 10
219.2381712022825
 20
113.4880983313553
 30
0.0
 11
222.2381712022825
 21
113.4880983313553
 31
0.0
  0
SOLID
  5
2C2
330
2BC
100
AcDbEntity
  8
0
 62
   123
100
AcDbTrace
 10
215.7381712022825
 20
114.0714316646886
 30
0.0
 11
215.7381712022825
 21
112.904764998022
 31
0.0
 12
219.2381712022825
 22
113.4880983313553
 32
0.0
 13
219.2381712022825
 23
113.4880983313553
 33
0.0
  0
SOLID
  5
2C3
330
2BC
100
AcDbEntity
  8
0
 62
   123
100
AcDbTrace
 10
225.7381712022825
 20
114.0714316646886
 30
0.0
 11
225.7381712022825
 21
112.904764998022
 31
0.0
 12
222.2381712022825
 22
113.4880983313553
 32
0.0
 13
222.2381712022825
 23
113.4880983313553
 33
0.0
  0
MTEXT
  5
2C4
330
2BC
100
AcDbEntity
  8
0
 62
     3
100
AcDbMText
 10
235.7381712022824
 20
115.9880983313553
 30
0.0
 40
3.0
 41
0.0
 71
     5
 72
     1
  1
\A1;3
1001
ACAD
1000
MTEXTBEGIN
1070
    73
1070
     1
1070
    44
1040
1.0
1070
    74
1070
     0
1000
MTEXTEND
  0
POINT
  5
2C5
330
2BC
100
AcDbEntity
  8
DEFPOINTS
 62
     0
100
AcDbPoint
 10
219.2381712022825
 20
96.11693123069313
 30
0.0
  0
POINT
  5
2C6
330
2BC
100
AcDbEntity
  8
DEFPOINTS
 62
     0
100
AcDbPoint
 10
222.2381712022825
 20
97.37179512218018
 30
0.0
  0
POINT
  5
2C7
330
2BC
100
AcDbEntity
  8
DEFPOINTS
 62
     0
100
AcDbPoint
 10
222.2381712022825
 20
113.4880983313553
 30
0.0
  0
ENDBLK
  5
2C9
330
2BC
100
AcDbEntity
  8
0
100
AcDbBlockEnd
  0
BLOCK
  5
2D4
330
2CA
100
AcDbEntity
  8
0
100
AcDbBlockBegin
  2
*D39
 70
     1
 10
0.0
 20
0.0
 30
0.0
  3
*D39
  1

  0
LINE
  5
2CB
330
2CA
100
AcDbEntity
  8
0
 62
   123
100
AcDbLine
 10
214.2381712022806
 20
34.11693123069312
 30
0.0
 11
203.2156896983109
 21
34.11693123069313
 31
0.0
  0
LINE
  5
2CC
330
2CA
100
AcDbEntity
  8
0
 62
   123
100
AcDbLine
 10
214.2381712022806
 20
94.11693123069312
 30
0.0
 11
203.215689698311
 21
94.11693123069312
 31
0.0
  0
LINE
  5
2CD
330
2CA
100
AcDbEntity
  8
0
 62
   123
100
AcDbLine
 10
203.8156896983109
 20
37.61693123069313
 30
0.0
 11
203.8156896983109
 21
90.61693123069312
 31
0.0
  0
SOLID
  5
2CE
330
2CA
100
AcDbEntity
  8
0
 62
   123
100
AcDbTrace
 10
203.2323563649776
 20
37.61693123069313
 30
0.0
 11
204.3990230316443
 21
37.61693123069313
 31
0.0
 12
203.8156896983109
 22
34.11693123069313
 32
0.0
 13
203.8156896983109
 23
34.11693123069313
 33
0.0
  0
SOLID
  5
2CF
330
2CA
100
AcDbEntity
  8
0
 62
   123
100
AcDbTrace
 10
203.2323563649776
 20
90.61693123069312
 30
0.0
 11
204.3990230316443
 21
90.61693123069312
 31
0.0
 12
203.8156896983109
 22
94.11693123069312
 32
0.0
 13
203.8156896983109
 23
94.11693123069312
 33
0.0
  0
MTEXT
  5
2D0
330
2CA
100
AcDbEntity
  8
0
 62
     3
100
AcDbMText
 10
201.3156896983109
 20
58.2967985116752
 30
0.0
 40
3.0
 41
0.0
 71
     5
 72
     1
  1
\A1;%%c60
 11
0.0000000000000001
 21
1.0
 31
0.0
1001
ACAD
1000
MTEXTBEGIN
1070
    73
1070
     1
1070
    44
1040
1.0
1070
    74
1070
     0
1000
MTEXTEND
  0
POINT
  5
2D1
330
2CA
100
AcDbEntity
  8
DEFPOINTS
 62
     0
100
AcDbPoint
 10
215.2381712022807
 20
34.11693123069312
 30
0.0
  0
POINT
  5
2D2
330
2CA
100
AcDbEntity
  8
DEFPOINTS
 62
     0
100
AcDbPoint
 10
215.2381712022807
 20
94.11693123069312
 30
0.0
  0
POINT
  5
2D3
330
2CA
100
AcDbEntity
  8
DEFPOINTS
 62
     0
100
AcDbPoint
 10
203.8156896983109
 20
94.11693123069312
 30
0.0
  0
ENDBLK
  5
2D5
330
2CA
100
AcDbEntity
  8
0
100
AcDbBlockEnd
  0
BLOCK
  5
2E0
330
2D6
100
AcDbEntity
  8
0
100
AcDbBlockBegin
  2
*D40
 70
     1
 10
0.0
 20
0.0
 30
0.0
  3
*D40
  1

  0
LINE
  5
2D7
330
2D6
100
AcDbEntity
  8
0
 62
   123
100
AcDbLine
 10
49.36733434986672
 20
195.0378499805271
 30
0.0
 11
69.47826520265575
 21
195.0378499805271
 31
0.0
  0
LINE
  5
2D8
330
2D6
100
AcDbEntity
  8
0
 62
   123
100
AcDbLine
 10
65.75152305099527
 20
158.0378499805272
 30
0.0
 11
69.47826520265572
 21
158.0378499805272
 31
0.0
  0
LINE
  5
2D9
330
2D6
100
AcDbEntity
  8
0
 62
   123
100
AcDbLine
 10
68.87826520265574
 20
191.5378499805271
 30
0.0
 11
68.87826520265574
 21
161.5378499805272
 31
0.0
  0
SOLID
  5
2DA
330
2D6
100
AcDbEntity
  8
0
 62
   123
100
AcDbTrace
 10
68.29493186932241
 20
191.5378499805271
 30
0.0
 11
69.46159853598906
 21
191.5378499805271
 31
0.0
 12
68.87826520265574
 22
195.0378499805271
 32
0.0
 13
68.87826520265574
 23
195.0378499805271
 33
0.0
  0
SOLID
  5
2DB
330
2D6
100
AcDbEntity
  8
0
 62
   123
100
AcDbTrace
 10
68.29493186932241
 20
161.5378499805272
 30
0.0
 11
69.46159853598906
 21
161.5378499805272
 31
0.0
 12
68.87826520265573
 22
158.0378499805272
 32
0.0
 13
68.87826520265573
 23
158.0378499805272
 33
0.0
  0
MTEXT
  5
2DC
330
2D6
100
AcDbEntity
  8
0
 62
     3
100
AcDbMText
 10
66.37826520265571
 20
179.8274343866883
 30
0.0
 40
3.0
 41
0.0
 71
     5
 72
     1
  1
\A1;37
 11
0.0000000000000001
 21
1.0
 31
0.0
1001
ACAD
1000
MTEXTBEGIN
1070
    73
1070
     1
1070
    44
1040
1.0
1070
    74
1070
     0
1000
MTEXTEND
  0
POINT
  5
2DD
330
2D6
100
AcDbEntity
  8
DEFPOINTS
 62
     0
100
AcDbPoint
 10
48.36733434986673
 20
195.0378499805271
 30
0.0
  0
POINT
  5
2DE
330
2D6
100
AcDbEntity
  8
DEFPOINTS
 62
     0
100
AcDbPoint
 10
64.75152305099527
 20
158.0378499805272
 30
0.0
  0
POINT
  5
2DF
330
2D6
100
AcDbEntity
  8
DEFPOINTS
 62
     0
100
AcDbPoint
 10
68.87826520265573
 20
158.0378499805272
 30
0.0
  0
ENDBLK
  5
2E1
330
2D6
100
AcDbEntity
  8
0
100
AcDbBlockEnd
  0
BLOCK
  5
2EC
330
2E2
100
AcDbEntity
  8
0
100
AcDbBlockBegin
  2
*D41
 70
     1
 10
0.0
 20
0.0
 30
0.0
  3
*D41
  1

  0
LINE
  5
2E3
330
2E2
100
AcDbEntity
  8
0
 62
   123
100
AcDbLine
 10
55.86733434986673
 20
189.0378499805271
 30
0.0
 11
55.86733434986673
 21
208.5557078241461
 31
0.0
  0
LINE
  5
2E4
330
2E2
100
AcDbEntity
  8
0
 62
   123
100
AcDbLine
 10
99.8673343498649
 20
188.0378499805271
 30
0.0
 11
99.8673343498649
 21
208.5557078241461
 31
0.0
  0
LINE
  5
2E5
330
2E2
100
AcDbEntity
  8
0
 62
   123
100
AcDbLine
 10
59.36733434986672
 20
207.9557078241462
 30
0.0
 11
96.3673343498649
 21
207.9557078241462
 31
0.0
  0
SOLID
  5
2E6
330
2E2
100
AcDbEntity
  8
0
 62
   123
100
AcDbTrace
 10
59.36733434986672
 20
208.5390411574795
 30
0.0
 11
59.36733434986672
 21
207.3723744908128
 31
0.0
 12
55.86733434986673
 22
207.9557078241462
 32
0.0
 13
55.86733434986673
 23
207.9557078241462
 33
0.0
  0
SOLID
  5
2E7
330
2E2
100
AcDbEntity
  8
0
 62
   123
100
AcDbTrace
 10
96.3673343498649
 20
208.5390411574795
 30
0.0
 11
96.3673343498649
 21
207.3723744908128
 31
0.0
 12
99.8673343498649
 22
207.9557078241462
 32
0.0
 13
99.8673343498649
 23
207.9557078241462
 33
0.0
  0
MTEXT
  5
2E8
330
2E2
100
AcDbEntity
  8
0
 62
     3
100
AcDbMText
 10
78.41865823000535
 20
210.4557078241461
 30
0.0
 40
3.0
 41
0.0
 71
     5
 72
     1
  1
\A1;44
1001
ACAD
1000
MTEXTBEGIN
1070
    73
1070
     1
1070
    44
1040
1.0
1070
    74
1070
     0
1000
MTEXTEND
  0
POINT
  5
2E9
330
2E2
100
AcDbEntity
  8
DEFPOINTS
 62
     0
100
AcDbPoint
 10
55.86733434986673
 20
188.0378499805271
 30
0.0
  0
POINT
  5
2EA
330
2E2
100
AcDbEntity
  8
DEFPOINTS
 62
     0
100
AcDbPoint
 10
99.8673343498649
 20
187.0378499805271
 30
0.0
  0
POINT
  5
2EB
330
2E2
100
AcDbEntity
  8
DEFPOINTS
 62
     0
100
AcDbPoint
 10
99.8673343498649
 20
207.9557078241462
 30
0.0
  0
ENDBLK
  5
2ED
330
2E2
100
AcDbEntity
  8
0
100
AcDbBlockEnd
  0
BLOCK
  5
2F8
330
2EE
100
AcDbEntity
  8
0
100
AcDbBlockBegin
  2
*D42
 70
     1
 10
0.0
 20
0.0
 30
0.0
  3
*D42
  1

  0
LINE
  5
2EF
330
2EE
100
AcDbEntity
  8
0
 62
   123
100
AcDbLine
 10
31.8673343498649
 20
201.0378499805272
 30
0.0
 11
31.8673343498649
 21
217.1423949625383
 31
0.0
  0
LINE
  5
2F0
330
2EE
100
AcDbEntity
  8
0
 62
   123
100
AcDbLine
 10
123.8673343498639
 20
201.0378499805272
 30
0.0
 11
123.8673343498639
 21
217.1423949625383
 31
0.0
  0
LINE
  5
2F1
330
2EE
100
AcDbEntity
  8
0
 62
   123
100
AcDbLine
 10
35.3673343498649
 20
216.5423949625383
 30
0.0
 11
120.3673343498639
 21
216.5423949625383
 31
0.0
  0
SOLID
  5
2F2
330
2EE
100
AcDbEntity
  8
0
 62
   123
100
AcDbTrace
 10
35.3673343498649
 20
217.1257282958716
 30
0.0
 11
35.3673343498649
 21
215.9590616292049
 31
0.0
 12
31.8673343498649
 22
216.5423949625383
 32
0.0
 13
31.8673343498649
 23
216.5423949625383
 33
0.0
  0
SOLID
  5
2F3
330
2EE
100
AcDbEntity
  8
0
 62
   123
100
AcDbTrace
 10
120.3673343498639
 20
217.1257282958716
 30
0.0
 11
120.3673343498639
 21
215.9590616292049
 31
0.0
 12
123.8673343498639
 22
216.5423949625383
 32
0.0
 13
123.8673343498639
 23
216.5423949625383
 33
0.0
  0
MTEXT
  5
2F4
330
2EE
100
AcDbEntity
  8
0
 62
     3
100
AcDbMText
 10
77.66781350338533
 20
219.0423949625383
 30
0.0
 40
3.0
 41
0.0
 71
     5
 72
     1
  1
\A1;92
1001
ACAD
1000
MTEXTBEGIN
1070
    73
1070
     1
1070
    44
1040
1.0
1070
    74
1070
     0
1000
MTEXTEND
  0
POINT
  5
2F5
330
2EE
100
AcDbEntity
  8
DEFPOINTS
 62
     0
100
AcDbPoint
 10
31.8673343498649
 20
200.0378499805271
 30
0.0
  0
POINT
  5
2F6
330
2EE
100
AcDbEntity
  8
DEFPOINTS
 62
     0
100
AcDbPoint
 10
123.8673343498639
 20
200.0378499805271
 30
0.0
  0
POINT
  5
2F7
330
2EE
100
AcDbEntity
  8
DEFPOINTS
 62
     0
100
AcDbPoint
 10
123.8673343498639
 20
216.5423949625383
 30
0.0
  0
ENDBLK
  5
2F9
330
2EE
100
AcDbEntity
  8
0
100
AcDbBlockEnd
  0
BLOCK
  5
306
330
2FA
100
AcDbEntity
  8
0
100
AcDbBlockBegin
  2
*D43
 70
     1
 10
0.0
 20
0.0
 30
0.0
  3
*D43
  1

  0
LINE
  5
2FB
330
2FA
100
AcDbEntity
  8
0
 62
   123
100
AcDbLine
 10
29.11733434986399
 20
183.7878499805283
 30
0.0
 11
13.42810679388952
 21
183.7878499805283
 31
0.0
  0
LINE
  5
2FC
330
2FA
100
AcDbEntity
  8
0
 62
   123
100
AcDbLine
 10
29.11733434986399
 20
188.2878499805283
 30
0.0
 11
13.42810679388952
 21
188.2878499805283
 31
0.0
  0
LINE
  5
2FD
330
2FA
100
AcDbEntity
  8
0
 62
   123
100
AcDbLine
 10
14.02810679388952
 20
180.2878499805283
 30
0.0
 11
14.02810679388952
 21
176.7878499805283
 31
0.0
  0
LINE
  5
2FE
330
2FA
100
AcDbEntity
  8
0
 62
   123
100
AcDbLine
 10
14.02810679388952
 20
191.7878499805283
 30
0.0
 11
14.02810679388952
 21
195.2878499805283
 31
0.0
  0
LINE
  5
2FF
330
2FA
100
AcDbEntity
  8
0
 62
   123
100
AcDbLine
 10
14.02810679388952
 20
183.7878499805283
 30
0.0
 11
14.02810679388952
 21
188.2878499805283
 31
0.0
  0
SOLID
  5
300
330
2FA
100
AcDbEntity
  8
0
 62
   123
100
AcDbTrace
 10
13.44477346055618
 20
180.2878499805283
 30
0.0
 11
14.61144012722285
 21
180.2878499805283
 31
0.0
 12
14.02810679388952
 22
183.7878499805283
 32
0.0
 13
14.02810679388952
 23
183.7878499805283
 33
0.0
  0
SOLID
  5
301
330
2FA
100
AcDbEntity
  8
0
 62
   123
100
AcDbTrace
 10
13.44477346055619
 20
191.7878499805283
 30
0.0
 11
14.61144012722285
 21
191.7878499805283
 31
0.0
 12
14.02810679388952
 22
188.2878499805283
 32
0.0
 13
14.02810679388952
 23
188.2878499805283
 33
0.0
  0
MTEXT
  5
302
330
2FA
100
AcDbEntity
  8
0
 62
     3
100
AcDbMText
 10
11.52810679388949
 20
186.0378499805283
 30
0.0
 40
3.0
 41
0.0
 71
     5
 72
     1
  1
\A1;4.5
 11
0.0000000000000001
 21
1.0
 31
0.0
1001
ACAD
1000
MTEXTBEGIN
1070
    73
1070
     1
1070
    44
1040
1.0
1070
    74
1070
     0
1000
MTEXTEND
  0
POINT
  5
303
330
2FA
100
AcDbEntity
  8
DEFPOINTS
 62
     0
100
AcDbPoint
 10
30.11733434986399
 20
183.7878499805283
 30
0.0
  0
POINT
  5
304
330
2FA
100
AcDbEntity
  8
DEFPOINTS
 62
     0
100
AcDbPoint
 10
30.11733434986399
 20
188.2878499805283
 30
0.0
  0
POINT
  5
305
330
2FA
100
AcDbEntity
  8
DEFPOINTS
 62
     0
100
AcDbPoint
 10
14.02810679388952
 20
188.2878499805283
 30
0.0
  0
ENDBLK
  5
307
330
2FA
100
AcDbEntity
  8
0
100
AcDbBlockEnd
  0
BLOCK
  5
314
330
308
100
AcDbEntity
  8
0
100
AcDbBlockBegin
  2
*D44
 70
     1
 10
0.0
 20
0.0
 30
0.0
  3
*D44
  1

  0
LINE
  5
309
330
308
100
AcDbEntity
  8
0
 62
   123
100
AcDbLine
 10
27.86733434986399
 20
187.0378499805271
 30
0.0
 11
27.86733434986399
 21
204.7919184922742
 31
0.0
  0
LINE
  5
30A
330
308
100
AcDbEntity
  8
0
 62
   123
100
AcDbLine
 10
35.8673343498649
 20
187.0378499805271
 30
0.0
 11
35.8673343498649
 21
204.7919184922742
 31
0.0
  0
LINE
  5
30B
330
308
100
AcDbEntity
  8
0
 62
   123
100
AcDbLine
 10
39.3673343498649
 20
204.1919184922742
 30
0.0
 11
42.8673343498649
 21
204.1919184922742
 31
0.0
  0
LINE
  5
30C
330
308
100
AcDbEntity
  8
0
 62
   123
100
AcDbLine
 10
24.36733434986399
 20
204.1919184922742
 30
0.0
 11
12.3673343498649
 21
204.1919184922742
 31
0.0
  0
LINE
  5
30D
330
308
100
AcDbEntity
  8
0
 62
   123
100
AcDbLine
 10
35.8673343498649
 20
204.1919184922742
 30
0.0
 11
27.86733434986399
 21
204.1919184922742
 31
0.0
  0
SOLID
  5
30E
330
308
100
AcDbEntity
  8
0
 62
   123
100
AcDbTrace
 10
39.3673343498649
 20
204.7752518256075
 30
0.0
 11
39.3673343498649
 21
203.6085851589408
 31
0.0
 12
35.8673343498649
 22
204.1919184922742
 32
0.0
 13
35.8673343498649
 23
204.1919184922742
 33
0.0
  0
SOLID
  5
30F
330
308
100
AcDbEntity
  8
0
 62
   123
100
AcDbTrace
 10
24.36733434986399
 20
204.7752518256075
 30
0.0
 11
24.36733434986399
 21
203.6085851589408
 31
0.0
 12
27.86733434986399
 22
204.1919184922742
 32
0.0
 13
27.86733434986399
 23
204.1919184922742
 33
0.0
  0
MTEXT
  5
310
330
308
100
AcDbEntity
  8
0
 62
     3
100
AcDbMText
 10
14.3673343498649
 20
206.6919184922742
 30
0.0
 40
3.0
 41
0.0
 71
     5
 72
     1
  1
\A1;8
1001
ACAD
1000
MTEXTBEGIN
1070
    73
1070
     1
1070
    44
1040
1.0
1070
    74
1070
     0
1000
MTEXTEND
  0
POINT
  5
311
330
308
100
AcDbEntity
  8
DEFPOINTS
 62
     0
100
AcDbPoint
 10
27.86733434986399
 20
186.0378499805271
 30
0.0
  0
POINT
  5
312
330
308
100
AcDbEntity
  8
DEFPOINTS
 62
     0
100
AcDbPoint
 10
35.8673343498649
 20
186.0378499805271
 30
0.0
  0
POINT
  5
313
330
308
100
AcDbEntity
  8
DEFPOINTS
 62
     0
100
AcDbPoint
 10
35.8673343498649
 20
204.1919184922742
 30
0.0
  0
ENDBLK
  5
315
330
308
100
AcDbEntity
  8
0
100
AcDbBlockEnd
  0
BLOCK
  5
31D
330
316
100
AcDbEntity
  8
0
100
AcDbBlockBegin
  2
*D45
 70
     1
 10
0.0
 20
0.0
 30
0.0
  3
*D45
  1

  0
LINE
  5
337
330
316
100
AcDbEntity
  8
0
 62
   123
100
AcDbLine
 10
133.0633538763231
 20
193.8860806407264
 30
0.0
 11
147.5212016704542
 21
206.4327780848183
 31
0.0
  0
LINE
  5
338
330
316
100
AcDbEntity
  8
0
 62
   123
100
AcDbLine
 10
122.8673343498649
 20
185.0378499805272
 30
0.0
 11
130.4199414065007
 21
191.5920949140081
 31
0.0
  0
SOLID
  5
339
330
316
100
AcDbEntity
  8
0
 62
   123
100
AcDbTrace
 10
132.6810229218701
 20
194.3266493856969
 30
0.0
 11
133.4456848307762
 21
193.445511895756
 31
0.0
 12
130.4199414065007
 22
191.5920949140081
 32
0.0
 13
130.4199414065007
 23
191.5920949140081
 33
0.0
  0
MTEXT
  5
33A
330
316
100
AcDbEntity
  8
0
 62
     3
100
AcDbMText
 10
142.2142312952896
 20
205.1374394527151
 30
0.0
 40
3.0
 41
0.0
 71
     5
 72
     1
  1
\A1;R10
 11
0.7552607056635586
 21
0.6554244933480772
 31
0.0
1001
ACAD
1000
MTEXTBEGIN
1070
    73
1070
     1
1070
    44
1040
1.0
1070
    74
1070
     0
1000
MTEXTEND
  0
POINT
  5
33B
330
316
100
AcDbEntity
  8
DEFPOINTS
 62
     0
100
AcDbPoint
 10
130.4199414065007
 20
191.5920949140081
 30
0.0
  0
POINT
  5
33C
330
316
100
AcDbEntity
  8
DEFPOINTS
 62
     0
100
AcDbPoint
 10
122.8673343498649
 20
185.0378499805272
 30
0.0
  0
ENDBLK
  5
31E
330
316
100
AcDbEntity
  8
0
100
AcDbBlockEnd
  0
BLOCK
  5
329
330
31F
100
AcDbEntity
  8
0
100
AcDbBlockBegin
  2
*D46
 70
     1
 10
0.0
 20
0.0
 30
0.0
  3
*D46
  1

  0
LINE
  5
320
330
31F
100
AcDbEntity
  8
0
 62
   123
100
AcDbLine
 10
118.8673343498649
 20
140.0378499805271
 30
0.0
 11
148.2169412016597
 21
140.0378499805271
 31
0.0
  0
LINE
  5
321
330
31F
100
AcDbEntity
  8
0
 62
   123
100
AcDbLine
 10
130.8673343498649
 20
156.0378499805272
 30
0.0
 11
148.2169412016597
 21
156.0378499805272
 31
0.0
  0
LINE
  5
322
330
31F
100
AcDbEntity
  8
0
 62
   123
100
AcDbLine
 10
147.6169412016597
 20
143.5378499805272
 30
0.0
 11
147.6169412016597
 21
152.5378499805271
 31
0.0
  0
SOLID
  5
323
330
31F
100
AcDbEntity
  8
0
 62
   123
100
AcDbTrace
 10
147.0336078683264
 20
143.5378499805272
 30
0.0
 11
148.2002745349931
 21
143.5378499805272
 31
0.0
 12
147.6169412016597
 22
140.0378499805271
 32
0.0
 13
147.6169412016597
 23
140.0378499805271
 33
0.0
  0
SOLID
  5
324
330
31F
100
AcDbEntity
  8
0
 62
   123
100
AcDbTrace
 10
147.0336078683264
 20
152.5378499805271
 30
0.0
 11
148.2002745349931
 21
152.5378499805271
 31
0.0
 12
147.6169412016597
 22
156.0378499805272
 32
0.0
 13
147.6169412016597
 23
156.0378499805272
 33
0.0
  0
MTEXT
  5
325
330
31F
100
AcDbEntity
  8
0
 62
     3
100
AcDbMText
 10
145.1169412016597
 20
148.0378499805271
 30
0.0
 40
3.0
 41
0.0
 71
     5
 72
     1
  1
\A1;16
 11
0.0000000000000001
 21
1.0
 31
0.0
1001
ACAD
1000
MTEXTBEGIN
1070
    73
1070
     1
1070
    44
1040
1.0
1070
    74
1070
     0
1000
MTEXTEND
  0
POINT
  5
326
330
31F
100
AcDbEntity
  8
DEFPOINTS
 62
     0
100
AcDbPoint
 10
117.8673343498649
 20
140.0378499805271
 30
0.0
  0
POINT
  5
327
330
31F
100
AcDbEntity
  8
DEFPOINTS
 62
     0
100
AcDbPoint
 10
129.8673343498649
 20
156.0378499805272
 30
0.0
  0
POINT
  5
328
330
31F
100
AcDbEntity
  8
DEFPOINTS
 62
     0
100
AcDbPoint
 10
147.6169412016597
 20
156.0378499805272
 30
0.0
  0
ENDBLK
  5
32A
330
31F
100
AcDbEntity
  8
0
100
AcDbBlockEnd
  0
BLOCK
  5
335
330
32B
100
AcDbEntity
  8
0
100
AcDbBlockBegin
  2
*D47
 70
     1
 10
0.0
 20
0.0
 30
0.0
  3
*D47
  1

  0
LINE
  5
32C
330
32B
100
AcDbEntity
  8
0
 62
   123
100
AcDbLine
 10
130.8673343498649
 20
156.0378499805272
 30
0.0
 11
148.2169412016597
 21
156.0378499805272
 31
0.0
  0
LINE
  5
32D
330
32B
100
AcDbEntity
  8
0
 62
   123
100
AcDbLine
 10
128.4762251384072
 20
186.0378499805271
 30
0.0
 11
148.2169412016597
 21
186.0378499805271
 31
0.0
  0
LINE
  5
32E
330
32B
100
AcDbEntity
  8
0
 62
   123
100
AcDbLine
 10
147.6169412016597
 20
159.5378499805272
 30
0.0
 11
147.6169412016597
 21
182.5378499805271
 31
0.0
  0
SOLID
  5
32F
330
32B
100
AcDbEntity
  8
0
 62
   123
100
AcDbTrace
 10
147.0336078683264
 20
159.5378499805272
 30
0.0
 11
148.2002745349931
 21
159.5378499805272
 31
0.0
 12
147.6169412016597
 22
156.0378499805272
 32
0.0
 13
147.6169412016597
 23
156.0378499805272
 33
0.0
  0
SOLID
  5
330
330
32B
100
AcDbEntity
  8
0
 62
   123
100
AcDbTrace
 10
147.0336078683264
 20
182.5378499805271
 30
0.0
 11
148.2002745349931
 21
182.5378499805271
 31
0.0
 12
147.6169412016597
 22
186.0378499805271
 32
0.0
 13
147.6169412016597
 23
186.0378499805271
 33
0.0
  0
MTEXT
  5
331
330
32B
100
AcDbEntity
  8
0
 62
     3
100
AcDbMText
 10
145.1169412016597
 20
171.0378499805283
 30
0.0
 40
3.0
 41
0.0
 71
     5
 72
     1
  1
\A1;30
 11
0.0000000000000001
 21
1.0
 31
0.0
1001
ACAD
1000
MTEXTBEGIN
1070
    73
1070
     1
1070
    44
1040
1.0
1070
    74
1070
     0
1000
MTEXTEND
  0
POINT
  5
332
330
32B
100
AcDbEntity
  8
DEFPOINTS
 62
     0
100
AcDbPoint
 10
129.8673343498649
 20
156.0378499805272
 30
0.0
  0
POINT
  5
333
330
32B
100
AcDbEntity
  8
DEFPOINTS
 62
     0
100
AcDbPoint
 10
127.4762251384072
 20
186.0378499805271
 30
0.0
  0
POINT
  5
334
330
32B
100
AcDbEntity
  8
DEFPOINTS
 62
     0
100
AcDbPoint
 10
147.6169412016597
 20
186.0378499805271
 30
0.0
  0
ENDBLK
  5
336
330
32B
100
AcDbEntity
  8
0
100
AcDbBlockEnd
  0
ENDSEC
  0
SECTION
  2
ENTITIES
  0
DIMENSION
  5
29
102
{ACAD_XDICTIONARY
360
2A
102
}
102
{ACAD_REACTORS
330
2B
102
}
330
2
100
AcDbEntity
  8
0
100
AcDbDimension
  2
*D34
 10
158.5679682687532
 20
99.61693123069222
 30
0.0
 11
158.5679682687532
 21
63.95917339898824
 31
0.0
 70
   160
  3
STANDARD
100
AcDbAlignedDimension
 13
131.8673343498639
 23
21.11693123069312
 33
0.0
 14
107.3673343498667
 24
99.61693123069222
 34
0.0
 50
90.0
100
AcDbRotatedDimension
  0
DIMENSION
  5
39
102
{ACAD_XDICTIONARY
360
3A
102
}
102
{ACAD_REACTORS
330
3B
102
}
330
2
100
AcDbEntity
  8
0
100
AcDbDimension
  2
*D39
 10
203.8156896983109
 20
94.11693123069312
 30
0.0
 11
203.8156896983109
 21
58.2967985116752
 31
0.0
 70
   160
  1
%%c<>
  3
STANDARD
100
AcDbAlignedDimension
 13
215.2381712022807
 23
34.11693123069312
 33
0.0
 14
215.2381712022807
 24
94.11693123069312
 34
0.0
 50
90.0
100
AcDbRotatedDimension
  0
DIMENSION
  5
48
102
{ACAD_XDICTIONARY
360
49
102
}
102
{ACAD_REACTORS
330
4A
102
}
330
2
100
AcDbEntity
  8
0
100
AcDbDimension
  2
*D32
 10
190.8517907152045
 20
32.11693236444831
 30
0.0
 11
190.8517907152045
 21
59.83105691233618
 31
0.0
 70
   160
  1
%%c<>
  3
STANDARD
100
AcDbAlignedDimension
 13
219.2381712022825
 23
96.11693123069313
 33
0.0
 14
219.2381712022825
 24
32.1169323644483
 34
0.0
 50
90.0
100
AcDbRotatedDimension
  0
LINE
  5
57
330
2
100
AcDbEntity
  8
0
100
AcDbLine
 10
116.8673343498649
 20
69.11693123069426
 30
0.0
 11
116.8673343498649
 21
21.11693123069312
 31
0.0
  0
LINE
  5
58
330
2
100
AcDbEntity
  8
0
 62
    35
100
AcDbLine
 10
113.3673343498649
 20
73.11693123069517
 30
0.0
 11
113.3673343498649
 21
29.11693123069426
 31
0.0
  0
LINE
  5
59
102
{ACAD_REACTORS
330
E9
102
}
330
2
100
AcDbEntity
  8
0
100
AcDbLine
 10
240.2381712022825
 20
29.11693123069426
 30
0.0
 11
222.2381712022825
 21
69.11693123069426
 31
0.0
  0
LINE
  5
5A
102
{ACAD_REACTORS
330
3B
330
165
102
}
330
2
100
AcDbEntity
  8
0
100
AcDbLine
 10
215.2381712022807
 20
98.61693123069427
 30
0.0
 11
215.2381712022807
 21
29.11693123069426
 31
0.0
  0
LINE
  5
5B
330
2
100
AcDbEntity
  8
HI
100
AcDbLine
 10
222.2381712022825
 20
63.11693123069426
 30
0.0
 11
222.2381712022825
 21
29.11693123069426
 31
0.0
  0
LINE
  5
5E
102
{ACAD_REACTORS
330
4A
330
154
102
}
330
2
100
AcDbEntity
  8
HI
100
AcDbLine
 10
219.2381712022825
 20
96.11693123069313
 30
0.0
 11
219.2381712022825
 21
32.1169323644483
 31
0.0
  0
LINE
  5
5F
330
2
100
AcDbEntity
  8
0
 62
    35
100
AcDbLine
 10
216.2381712022825
 20
69.11693123069426
 30
0.0
 11
216.2381712022825
 21
21.38204000340124
 31
0.0
  0
LINE
  5
60
330
2
100
AcDbEntity
  8
CEN
100
AcDbLine
 10
77.86733451190321
 20
111.1132320489532
 30
0.0
 11
77.86733451190321
 21
17.12063054556438
 31
0.0
  0
DIMENSION
  5
63
102
{ACAD_XDICTIONARY
360
64
102
}
102
{ACAD_REACTORS
330
65
102
}
330
2
100
AcDbEntity
  8
0
100
AcDbDimension
  2
*D31
 10
1.42813067764929
 20
69.11693123069428
 30
0.0
 11
1.428130677649278
 21
45.92470757144337
 31
0.0
 70
   160
  3
STANDARD
100
AcDbAlignedDimension
 13
23.8673343498649
 23
21.11693123069426
 33
0.0
 14
38.86733434986399
 24
69.11693123069426
 34
0.0
 50
90.0
100
AcDbRotatedDimension
  0
LINE
  5
72
330
2
100
AcDbEntity
  8
0
100
AcDbLine
 10
38.86733434986399
 20
69.11693123069426
 30
0.0
 11
38.86733434986399
 21
21.11693123069312
 31
0.0
  0
LINE
  5
73
330
2
100
AcDbEntity
  8
0
 62
    35
100
AcDbLine
 10
42.3673343498649
 20
73.11693123069517
 30
0.0
 11
42.3673343498649
 21
29.11693123069426
 31
0.0
  0
DIMENSION
  5
74
102
{ACAD_XDICTIONARY
360
75
102
}
102
{ACAD_REACTORS
330
76
102
}
330
2
100
AcDbEntity
  8
0
100
AcDbDimension
  2
*D30
 10
11.70637383626855
 20
64.11693129725836
 30
0.0
 11
11.70637383626853
 21
43.42470760597507
 31
0.0
 70
   160
  1
<>%%P0.5
  3
STANDARD
100
AcDbAlignedDimension
 13
23.8673343498649
 23
21.11693123069426
 33
0.0
 14
30.62023393642266
 24
64.11693129725836
 34
0.0
 50
90.0
100
AcDbRotatedDimension
  0
DIMENSION
  5
83
102
{ACAD_XDICTIONARY
360
84
102
}
102
{ACAD_REACTORS
330
85
102
}
330
2
100
AcDbEntity
  8
0
100
AcDbDimension
  2
*D29
 10
46.01436149626969
 20
38.3024360820749
 30
0.0
 11
136.3386528372906
 21
111.5036404247021
 31
0.0
 70
   163
  1
<>%%P0.3
  3
STANDARD
100
AcDbDiametricDimension
 15
109.7203065204158
 25
89.93142569624337
 35
0.0
 40
0.0
  0
CIRCLE
  5
91
102
{ACAD_REACTORS
330
119
102
}
330
2
100
AcDbEntity
  8
0
100
AcDbCircle
 10
77.86733434986491
 20
64.11693123069312
 30
0.0
 40
30.0
  0
CIRCLE
  5
92
330
2
100
AcDbEntity
  8
HI
100
AcDbCircle
 10
77.86733435145288
 20
64.11693179757117
 30
0.0
 40
31.99999943312241
  0
LINE
  5
93
330
2
100
AcDbEntity
  8
0
 62
    35
100
AcDbLine
 10
42.3673343498649
 20
29.11693123069426
 30
0.0
 11
113.3673343498649
 21
29.11693123069426
 31
0.0
  0
DIMENSION
  5
94
330
2
100
AcDbEntity
  8
0
100
AcDbDimension
  2
*D28
 10
132.8673343498649
 20
3.310021661896143
 30
0.0
 11
78.40942311909476
 21
3.310021661896143
 31
0.0
 70
   160
  3
STANDARD
100
AcDbAlignedDimension
 13
22.8673343498649
 23
22.11693123069426
 33
0.0
 14
132.8673343498649
 24
21.11693123069312
 34
0.0
100
AcDbRotatedDimension
  0
LINE
  5
A1
102
{ACAD_REACTORS
330
65
330
B5
102
}
330
2
100
AcDbEntity
  8
0
100
AcDbLine
 10
52.86733434986491
 20
22.11693123069426
 30
0.0
 11
104.8673343498649
 21
22.11693123069312
 31
0.0
  0
CIRCLE
  5
A2
330
2
100
AcDbEntity
  8
0
  6
CONTINUOUS
100
AcDbCircle
 10
48.8759563212152
 20
35.12555320204546
 30
0.0
 40
2.0
  0
ARC
  5
A3
330
2
100
AcDbEntity
  8
0
  6
CONTINUOUS
 62
     3
100
AcDbCircle
 10
48.87595640674863
 20
35.12555222123114
 30
0.0
 40
2.5
100
AcDbArc
 50
279.9999885770985
 51
190.0000015328269
  0
LINE
  5
A4
330
2
100
AcDbEntity
  8
CEN
  6
CENTER
100
AcDbLine
 10
44.63331566273973
 20
30.88291254357909
 30
0.0
 11
53.11859766273847
 21
39.36819454357919
 31
0.0
  0
LINE
  5
A5
330
2
100
AcDbEntity
  8
0
 62
    35
100
AcDbLine
 10
42.3673343498649
 20
29.11693123069426
 30
0.0
 11
38.86733434986399
 21
21.11693123069426
 31
0.0
  0
LINE
  5
A6
330
2
100
AcDbEntity
  8
0
  6
CONTINUOUS
100
AcDbLine
 10
52.86733434986491
 20
22.11693123069426
 30
0.0
 11
51.8673343498649
 21
21.11693123069426
 31
0.0
  0
ARC
  5
A7
330
2
100
AcDbEntity
  8
0
100
AcDbCircle
 10
23.8673343498649
 20
22.11693123069426
 30
0.0
 40
1.0
100
AcDbArc
 50
180.0
 51
270.0
  0
LINE
  5
A8
102
{ACAD_REACTORS
330
65
330
76
102
}
330
2
100
AcDbEntity
  8
0
100
AcDbLine
 10
23.8673343498649
 20
21.11693123069426
 30
0.0
 11
51.8673343498649
 21
21.11693123069426
 31
0.0
  0
ARC
  5
A9
330
2
100
AcDbEntity
  8
0
100
AcDbCircle
 10
24.8673343498649
 20
27.11693123069426
 30
0.0
 40
2.0
100
AcDbArc
 50
90.0
 51
180.0
  0
LINE
  5
AA
330
2
100
AcDbEntity
  8
0
100
AcDbLine
 10
22.8673343498649
 20
22.11693123069426
 30
0.0
 11
22.8673343498649
 21
27.11693123069426
 31
0.0
  0
LINE
  5
AB
330
2
100
AcDbEntity
  8
0
100
AcDbLine
 10
38.86733434986399
 20
29.11693123069426
 30
0.0
 11
24.8673343498649
 21
29.11693123069426
 31
0.0
  0
ARC
  5
AC
330
2
100
AcDbEntity
  8
CEN
  6
CENTER
100
AcDbCircle
 10
77.86733469138835
 20
64.11693157222817
 30
0.0
 40
41.0
100
AcDbArc
 50
214.5175780000201
 51
235.4824220000121
  0
LINE
  5
AD
102
{ACAD_REACTORS
330
2B
102
}
330
2
100
AcDbEntity
  8
0
100
AcDbLine
 10
105.8673343498649
 20
21.11693123069312
 30
0.0
 11
131.8673343498639
 21
21.11693123069312
 31
0.0
  0
LINE
  5
AE
330
2
100
AcDbEntity
  8
0
100
AcDbLine
 10
130.8673343498649
 20
29.11693123069312
 30
0.0
 11
116.8673343498649
 21
29.11693123069426
 31
0.0
  0
CIRCLE
  5
AF
330
2
100
AcDbEntity
  8
0
  6
CONTINUOUS
100
AcDbCircle
 10
106.8587123785127
 20
35.12555320204546
 30
0.0
 40
2.0
  0
ARC
  5
B0
330
2
100
AcDbEntity
  8
0
  6
CONTINUOUS
 62
     3
100
AcDbCircle
 10
106.8587124640444
 20
35.12555222123114
 30
0.0
 40
2.5
100
AcDbArc
 50
279.9999885770985
 51
190.0000015328269
  0
LINE
  5
B1
330
2
100
AcDbEntity
  8
CEN
  6
CENTER
100
AcDbLine
 10
111.1013530369782
 20
30.88291254356909
 30
0.0
 11
102.6160710369795
 21
39.36819454356827
 31
0.0
  0
LINE
  5
B2
102
{ACAD_REACTORS
330
B5
102
}
330
2
100
AcDbEntity
  8
0
  6
CONTINUOUS
100
AcDbLine
 10
104.8673343498649
 20
22.11693123069312
 30
0.0
 11
105.8673343498649
 21
21.11693123069312
 31
0.0
  0
DIMENSION
  5
B3
102
{ACAD_XDICTIONARY
360
B4
102
}
102
{ACAD_REACTORS
330
B5
102
}
330
2
100
AcDbEntity
  8
0
100
AcDbDimension
  2
*D33
 10
96.27997624916588
 20
22.11693123069312
 30
0.0
 11
96.27997624916588
 21
12.75978837354932
 31
0.0
 70
   160
  3
STANDARD
100
AcDbAlignedDimension
 13
105.8673343498649
 23
21.11693123069312
 33
0.0
 14
103.1125838012949
 24
22.11693123069312
 34
0.0
 50
90.0
100
AcDbRotatedDimension
  0
LINE
  5
C4
330
2
100
AcDbEntity
  8
0
 62
    35
100
AcDbLine
 10
113.3673343498649
 20
29.11693123069426
 30
0.0
 11
116.8673343498649
 21
21.11693123069312
 31
0.0
  0
ARC
  5
C5
330
2
100
AcDbEntity
  8
CEN
  6
CENTER
100
AcDbCircle
 10
77.86733400832964
 20
64.11693157221725
 30
0.0
 40
41.0
100
AcDbArc
 50
304.5175780000202
 51
325.4824220000122
  0
ARC
  5
C6
330
2
100
AcDbEntity
  8
0
100
AcDbCircle
 10
131.8673343498639
 20
22.11693123069312
 30
0.0
 40
1.0
100
AcDbArc
 50
270.0
 51
0.0
  0
DIMENSION
  5
C7
330
2
100
AcDbEntity
  8
0
100
AcDbDimension
  2
*D35
 10
145.9059046190095
 20
29.11693123069426
 30
0.0
 11
145.9059046190095
 21
25.11693123069371
 31
0.0
 70
   160
  3
STANDARD
100
AcDbAlignedDimension
 13
131.8673343498639
 23
21.11693123069312
 33
0.0
 14
131.8673343498639
 24
29.11693123069426
 34
0.0
 50
90.0
100
AcDbRotatedDimension
  0
ARC
  5
D6
330
2
100
AcDbEntity
  8
0
100
AcDbCircle
 10
130.8673343498649
 20
27.11693123069312
 30
0.0
 40
2.0
100
AcDbArc
 50
0.0
 51
90.0
  0
LINE
  5
D7
330
2
100
AcDbEntity
  8
0
100
AcDbLine
 10
132.8673343498649
 20
22.11693123069312
 30
0.0
 11
132.8673343498649
 21
27.11693123069312
 31
0.0
  0
LINE
  5
D8
330
2
100
AcDbEntity
  8
0
100
AcDbLine
 10
216.6795623115512
 20
21.11693123069426
 30
0.0
 11
269.7381712022806
 21
21.11693123069426
 31
0.0
  0
LINE
  5
D9
330
2
100
AcDbEntity
  8
0
100
AcDbLine
 10
216.2381712022825
 20
29.11693123069426
 30
0.0
 11
269.7381712022806
 21
29.11693123069426
 31
0.0
  0
DIMENSION
  5
DA
330
2
100
AcDbEntity
  8
0
100
AcDbDimension
  2
*D36
 10
270.2381712022806
 20
9.517536074382178
 30
0.0
 11
243.9030418472293
 21
9.517536074382178
 31
0.0
 70
   160
  3
STANDARD
100
AcDbAlignedDimension
 13
215.2381712022807
 23
29.11693123069426
 33
0.0
 14
270.2381712022806
 24
21.61693123069426
 34
0.0
100
AcDbRotatedDimension
  0
DIMENSION
  5
E7
102
{ACAD_XDICTIONARY
360
E8
102
}
102
{ACAD_REACTORS
330
E9
102
}
330
2
100
AcDbEntity
  8
0
100
AcDbDimension
  2
*D37
 10
270.2381712022806
 20
42.71076543408435
 30
0.0
 11
255.7841972068681
 21
42.71076543408435
 31
0.0
 70
   160
  3
STANDARD
100
AcDbAlignedDimension
 13
240.2381712022825
 23
29.11693123069426
 33
0.0
 14
270.2381712022806
 24
28.61693123069426
 34
0.0
100
AcDbRotatedDimension
  0
LINE
  5
F6
102
{ACAD_REACTORS
330
3B
102
}
330
2
100
AcDbEntity
  8
HI
100
AcDbLine
 10
215.2381712022807
 20
34.11693123069312
 30
0.0
 11
219.2381712022825
 21
34.11693123069222
 31
0.0
  0
LINE
  5
F7
330
2
100
AcDbEntity
  8
HI
100
AcDbLine
 10
219.2381712022825
 20
32.1169323644483
 30
0.0
 11
222.2381712022825
 21
32.11693236444921
 31
0.0
  0
ARC
  5
F8
330
2
100
AcDbEntity
  8
0
100
AcDbCircle
 10
216.6795623115512
 20
21.61693123069426
 30
0.0
 40
0.5
100
AcDbArc
 50
187.1250163489018
 51
270.0
  0
LINE
  5
F9
330
2
100
AcDbEntity
  8
0
100
AcDbLine
 10
215.2381712022807
 20
29.11693123069426
 30
0.0
 11
216.1834233731924
 21
21.55491386339917
 31
0.0
  0
ARC
  5
FA
330
2
100
AcDbEntity
  8
0
100
AcDbCircle
 10
269.7381712022806
 20
21.61693123069426
 30
0.0
 40
0.5
100
AcDbArc
 50
270.0
 51
0.0
  0
ARC
  5
FB
330
2
100
AcDbEntity
  8
0
100
AcDbCircle
 10
269.7381712022806
 20
28.61693123069426
 30
0.0
 40
0.5
100
AcDbArc
 50
0.0
 51
90.0
  0
LINE
  5
FC
102
{ACAD_REACTORS
330
E9
102
}
330
2
100
AcDbEntity
  8
0
100
AcDbLine
 10
270.2381712022806
 20
28.61693123069426
 30
0.0
 11
270.2381712022806
 21
21.61693123069426
 31
0.0
  0
DIMENSION
  5
FD
330
2
100
AcDbEntity
  8
0
100
AcDbDimension
  2
*D27
 10
113.3673343498649
 20
114.2218133723633
 30
0.0
 11
77.86733434986491
 21
114.2218133723633
 31
0.0
 70
   160
  3
STANDARD
100
AcDbAlignedDimension
 13
42.3673343498649
 23
95.61693123069312
 33
0.0
 14
113.3673343498649
 24
95.61693123069312
 34
0.0
100
AcDbRotatedDimension
  0
DIMENSION
  5
10A
330
2
100
AcDbEntity
  8
0
100
AcDbDimension
  2
*D25
 10
116.8673343498649
 20
126.7480840026782
 30
0.0
 11
77.86733434986491
 21
126.7480840026782
 31
0.0
 70
   160
  3
STANDARD
100
AcDbAlignedDimension
 13
38.86733434986399
 23
69.11693123069426
 33
0.0
 14
116.8673343498649
 24
69.11693123069426
 34
0.0
100
AcDbRotatedDimension
  0
DIMENSION
  5
117
102
{ACAD_XDICTIONARY
360
118
102
}
102
{ACAD_REACTORS
330
119
102
}
330
2
100
AcDbEntity
  8
0
100
AcDbDimension
  2
*D26
 10
50.11758475545237
 20
52.71730854187629
 30
0.0
 11
126.0962815484955
 21
83.92942715512338
 31
0.0
 70
   163
  3
STANDARD
100
AcDbDiametricDimension
 15
105.6170839442776
 25
75.51655391951005
 35
0.0
 40
0.0
  0
LINE
  5
125
102
{ACAD_REACTORS
330
2B
102
}
330
2
100
AcDbEntity
  8
0
100
AcDbLine
 10
48.3673343498649
 20
99.61693123069427
 30
0.0
 11
107.3673343498667
 21
99.61693123069222
 31
0.0
  0
LINE
  5
126
102
{ACAD_REACTORS
330
144
102
}
330
2
100
AcDbEntity
  8
0
100
AcDbLine
 10
37.86733434986763
 20
140.0378499805271
 30
0.0
 11
117.8673343498649
 21
140.0378499805271
 31
0.0
  0
LINE
  5
127
102
{ACAD_REACTORS
330
76
102
}
330
2
100
AcDbEntity
  8
CEN
100
AcDbLine
 10
30.62023393642266
 20
64.11693129725836
 30
0.0
 11
125.1144350873855
 21
64.11693129725836
 31
0.0
  0
LINE
  5
128
102
{ACAD_REACTORS
330
180
102
}
330
2
100
AcDbEntity
  8
CEN
100
AcDbLine
 10
31.8673343498649
 20
136.0378499805262
 30
0.0
 11
31.8673343498649
 21
200.0378499805271
 31
0.0
  0
LINE
  5
129
330
2
100
AcDbEntity
  8
0
100
AcDbLine
 10
42.3673343498649
 20
140.0378499805271
 30
0.0
 11
42.3673343498649
 21
195.0378499805271
 31
0.0
  0
LEADER
  5
12A
102
{ACAD_XDICTIONARY
360
12B
102
}
102
{ACAD_REACTORS
330
12C
102
}
330
2
100
AcDbEntity
  8
0
100
AcDbLeader
  3
STANDARD
 73
     0
 75
     1
 40
3.0
 41
24.57142857142858
 76
     3
 10
46.63338410524374
 20
94.21323790186239
 30
0.0
 10
26.22249699027543
 20
110.8832250845644
 30
0.0
 10
22.72249699027543
 20
110.8832250845644
 30
0.0
340
12D
1001
ACAD
1000
DSTYLE
1002
{
1070
     5
1000

1070
   342
1005
0
1002
}
  0
MTEXT
  5
12D
102
{ACAD_REACTORS
330
12A
102
}
330
2
100
AcDbEntity
  8
0
 62
     3
100
AcDbMText
 10
21.72249699027543
 20
111.8832250845644
 30
0.0
 40
3.0
 41
0.0
 71
     9
 72
     1
  1
4-M5xP0.8
1001
ACAD
1000
MTEXTBEGIN
1070
    73
1070
     1
1070
    44
1040
1.0
1070
    74
1070
     0
1000
MTEXTEND
  0
ARC
  5
12E
330
2
100
AcDbEntity
  8
CEN
  6
CENTER
100
AcDbCircle
 10
77.86733469139836
 20
64.116930889169
 30
0.0
 40
41.0
100
AcDbArc
 50
124.5175780000202
 51
145.4824220000123
  0
CIRCLE
  5
12F
330
2
100
AcDbEntity
  8
0
  6
CONTINUOUS
100
AcDbCircle
 10
48.87595632121611
 20
93.10830925934215
 30
0.0
 40
2.0
  0
ARC
  5
130
102
{ACAD_REACTORS
330
12C
102
}
330
2
100
AcDbEntity
  8
0
  6
CONTINUOUS
 62
     3
100
AcDbCircle
 10
48.87595640674954
 20
93.10830827852829
 30
0.0
 40
2.5
100
AcDbArc
 50
279.9999885770985
 51
190.0000015328269
  0
LINE
  5
131
330
2
100
AcDbEntity
  8
CEN
  6
CENTER
100
AcDbLine
 10
44.63331566275065
 20
97.35094991781716
 30
0.0
 11
53.11859766274938
 21
88.86566791781843
 31
0.0
  0
LINE
  5
132
330
2
100
AcDbEntity
  8
0
100
AcDbLine
 10
38.86733434986399
 20
69.11693123069426
 30
0.0
 11
42.3673343498649
 21
73.11693123069517
 31
0.0
  0
LINE
  5
133
330
2
100
AcDbEntity
  8
0
100
AcDbLine
 10
42.3673343498649
 20
93.61693123069313
 30
0.0
 11
42.3673343498649
 21
73.11693123069517
 31
0.0
  0
ARC
  5
134
330
2
100
AcDbEntity
  8
0
100
AcDbCircle
 10
48.3673343498649
 20
93.61693123069313
 30
0.0
 40
6.0
100
AcDbArc
 50
89.99999999999918
 51
180.0
  0
ARC
  5
135
330
2
100
AcDbEntity
  8
0
100
AcDbCircle
 10
37.86733434986763
 20
155.0378499805272
 30
0.0
 40
15.0
100
AcDbArc
 50
180.0
 51
270.0
  0
LINE
  5
136
330
2
100
AcDbEntity
  8
0
100
AcDbLine
 10
38.86733434986399
 20
165.0378499805271
 30
0.0
 11
38.86733434986399
 21
140.0378499805271
 31
0.0
  0
LINE
  5
137
330
2
100
AcDbEntity
  8
CEN
100
AcDbLine
 10
77.86733434986491
 20
136.0378499805262
 30
0.0
 11
77.86733434986491
 21
200.0378499805271
 31
0.0
  0
LINE
  5
138
102
{ACAD_REACTORS
330
180
102
}
330
2
100
AcDbEntity
  8
CEN
100
AcDbLine
 10
123.8673343498639
 20
136.0378499805262
 30
0.0
 11
123.8673343498639
 21
200.0378499805271
 31
0.0
  0
LINE
  5
139
330
2
100
AcDbEntity
  8
0
100
AcDbLine
 10
113.3673343498649
 20
140.0378499805271
 30
0.0
 11
113.3673343498649
 21
195.0378499805271
 31
0.0
  0
ARC
  5
13A
102
{ACAD_REACTORS
330
85
102
}
330
2
100
AcDbEntity
  8
CEN
  6
CENTER
100
AcDbCircle
 10
77.86733400834146
 20
64.11693088915808
 30
0.0
 40
41.0
100
AcDbArc
 50
34.51757800002017
 51
55.48242200001226
  0
ARC
  5
13B
330
2
100
AcDbEntity
  8
0
  6
CONTINUOUS
 62
     3
100
AcDbCircle
 10
106.8587124640444
 20
93.10830827852829
 30
0.0
 40
2.5
100
AcDbArc
 50
279.9999885770985
 51
190.0000015328269
  0
CIRCLE
  5
13C
330
2
100
AcDbEntity
  8
0
  6
CONTINUOUS
100
AcDbCircle
 10
106.8587123785127
 20
93.10830925934215
 30
0.0
 40
2.0
  0
LINE
  5
13D
330
2
100
AcDbEntity
  8
CEN
  6
CENTER
100
AcDbLine
 10
111.1013530369891
 20
97.35094991780716
 30
0.0
 11
102.6160710369895
 21
88.86566791780706
 31
0.0
  0
LINE
  5
13E
330
2
100
AcDbEntity
  8
0
100
AcDbLine
 10
113.3673343498649
 20
73.11693123069517
 30
0.0
 11
116.8673343498649
 21
69.11693123069426
 31
0.0
  0
LINE
  5
13F
330
2
100
AcDbEntity
  8
0
100
AcDbLine
 10
113.3673343498667
 20
93.61693123069221
 30
0.0
 11
113.3673343498649
 21
73.11693123069517
 31
0.0
  0
ARC
  5
140
330
2
100
AcDbEntity
  8
0
100
AcDbCircle
 10
107.3673343498667
 20
93.61693123069221
 30
0.0
 40
6.0
100
AcDbArc
 50
0.0
 51
89.99999999999912
  0
ARC
  5
141
330
2
100
AcDbEntity
  8
0
100
AcDbCircle
 10
117.8673343498649
 20
155.0378499805272
 30
0.0
 40
15.0
100
AcDbArc
 50
270.0
 51
0.0
  0
DIMENSION
  5
142
102
{ACAD_XDICTIONARY
360
143
102
}
102
{ACAD_REACTORS
330
144
102
}
330
2
100
AcDbEntity
  8
0
100
AcDbDimension
  2
*D46
 10
147.6169412016597
 20
156.0378499805272
 30
0.0
 11
147.6169412016597
 21
148.0378499805271
 31
0.0
 70
   160
  3
STANDARD
100
AcDbAlignedDimension
 13
117.8673343498649
 23
140.0378499805271
 33
0.0
 14
129.8673343498649
 24
156.0378499805272
 34
0.0
 50
90.0
100
AcDbRotatedDimension
  0
LINE
  5
151
330
2
100
AcDbEntity
  8
0
100
AcDbLine
 10
116.8673343498649
 20
165.0378499805271
 30
0.0
 11
116.8673343498649
 21
140.0378499805271
 31
0.0
  0
DIMENSION
  5
152
102
{ACAD_XDICTIONARY
360
153
102
}
102
{ACAD_REACTORS
330
154
102
}
330
2
100
AcDbEntity
  8
0
100
AcDbDimension
  2
*D38
 10
222.2381712022825
 20
113.4880983313553
 30
0.0
 11
235.7381712022824
 21
113.4880983313553
 31
0.0
 70
   160
  3
STANDARD
100
AcDbAlignedDimension
 13
219.2381712022825
 23
96.11693123069313
 33
0.0
 14
222.2381712022825
 24
97.37179512218018
 34
0.0
100
AcDbRotatedDimension
  0
DIMENSION
  5
163
102
{ACAD_XDICTIONARY
360
164
102
}
102
{ACAD_REACTORS
330
165
102
}
330
2
100
AcDbEntity
  8
0
100
AcDbDimension
  2
*D24
 10
222.2381712022825
 20
126.3971011516673
 30
0.0
 11
218.7381712022816
 21
126.3971011516673
 31
0.0
 70
   160
  3
STANDARD
100
AcDbAlignedDimension
 13
215.2381712022807
 23
98.61693123069427
 33
0.0
 14
222.2381712022825
 24
98.61693123069427
 34
0.0
100
AcDbRotatedDimension
  0
LINE
  5
174
330
2
100
AcDbEntity
  8
0
 62
    35
100
AcDbLine
 10
216.2381712022825
 20
69.11693123069426
 30
0.0
 11
215.2381712022807
 21
73.11693123069517
 31
0.0
  0
LINE
  5
175
330
2
100
AcDbEntity
  8
0
 62
    35
100
AcDbLine
 10
215.2381712022807
 20
73.11693123069517
 30
0.0
 11
222.2381712022825
 21
73.11693123069517
 31
0.0
  0
LINE
  5
176
330
2
100
AcDbEntity
  8
0
 62
    35
100
AcDbLine
 10
216.2381712022825
 20
69.11693123069426
 30
0.0
 11
222.2381712022825
 21
69.11693123069426
 31
0.0
  0
ARC
  5
177
330
2
100
AcDbEntity
  8
0
100
AcDbCircle
 10
216.2381712022825
 20
98.61693123069427
 30
0.0
 40
1.0
100
AcDbArc
 50
90.0
 51
180.0
  0
ARC
  5
178
330
2
100
AcDbEntity
  8
0
100
AcDbCircle
 10
221.2381712022824
 20
98.61693123069427
 30
0.0
 40
1.0
100
AcDbArc
 50
0.0
 51
90.0
  0
LINE
  5
179
330
2
100
AcDbEntity
  8
0
100
AcDbLine
 10
216.2381712022825
 20
99.61693123069427
 30
0.0
 11
221.2381712022824
 21
99.61693123069427
 31
0.0
  0
LINE
  5
17A
102
{ACAD_REACTORS
330
154
330
165
102
}
330
2
100
AcDbEntity
  8
0
100
AcDbLine
 10
222.2381712022825
 20
98.61693123069427
 30
0.0
 11
222.2381712022825
 21
63.11693123069426
 31
0.0
  0
LINE
  5
17B
102
{ACAD_REACTORS
330
3B
102
}
330
2
100
AcDbEntity
  8
HI
100
AcDbLine
 10
215.2381712022807
 20
94.11693123069312
 30
0.0
 11
219.2381712022825
 21
94.11693123069312
 31
0.0
  0
LINE
  5
17C
330
2
100
AcDbEntity
  8
HI
100
AcDbLine
 10
219.2381712022825
 20
96.11693123069313
 30
0.0
 11
222.2381712022825
 21
96.11693123069427
 31
0.0
  0
LINE
  5
17D
330
2
100
AcDbEntity
  8
CEN
100
AcDbLine
 10
210.2381712022824
 20
64.11693123069312
 30
0.0
 11
227.2381712022806
 21
64.11693123069312
 31
0.0
  0
DIMENSION
  5
17E
102
{ACAD_XDICTIONARY
360
17F
102
}
102
{ACAD_REACTORS
330
180
102
}
330
2
100
AcDbEntity
  8
0
100
AcDbDimension
  2
*D42
 10
123.8673343498639
 20
216.5423949625383
 30
0.0
 11
77.66781350338533
 21
216.5423949625383
 31
0.0
 70
   160
  3
STANDARD
100
AcDbAlignedDimension
 13
31.8673343498649
 23
200.0378499805271
 33
0.0
 14
123.8673343498639
 24
200.0378499805271
 34
0.0
100
AcDbRotatedDimension
  0
LINE
  5
18D
330
2
100
AcDbEntity
  8
0
100
AcDbLine
 10
38.86733434986399
 20
147.0378499805272
 30
0.0
 11
116.8673343498649
 21
147.0378499805272
 31
0.0
  0
DIMENSION
  5
18E
102
{ACAD_XDICTIONARY
360
18F
102
}
102
{ACAD_REACTORS
330
190
102
}
330
2
100
AcDbEntity
  8
0
100
AcDbDimension
  2
*D41
 10
99.8673343498649
 20
207.9557078241462
 30
0.0
 11
78.41865823000535
 21
207.9557078241462
 31
0.0
 70
   160
  3
STANDARD
100
AcDbAlignedDimension
 13
55.86733434986673
 23
188.0378499805271
 33
0.0
 14
99.8673343498649
 24
187.0378499805271
 34
0.0
100
AcDbRotatedDimension
  0
DIMENSION
  5
19D
102
{ACAD_XDICTIONARY
360
19E
102
}
102
{ACAD_REACTORS
330
19F
102
}
330
2
100
AcDbEntity
  8
0
100
AcDbDimension
  2
*D40
 10
68.87826520265573
 20
158.0378499805272
 30
0.0
 11
68.87826520265571
 21
179.8274343866883
 31
0.0
 70
   160
  3
STANDARD
100
AcDbAlignedDimension
 13
48.36733434986673
 23
195.0378499805271
 33
0.0
 14
64.75152305099527
 24
158.0378499805272
 34
0.0
 50
90.0
100
AcDbRotatedDimension
  0
ARC
  5
1AC
330
2
100
AcDbEntity
  8
0
100
AcDbCircle
 10
47.8673343498649
 20
187.0378499805271
 30
0.0
 40
8.0
100
AcDbArc
 50
359.9999999999987
 51
90.0
  0
ARC
  5
1AD
330
2
100
AcDbEntity
  8
0
100
AcDbCircle
 10
59.86733434986399
 20
162.0378499805271
 30
0.0
 40
4.0
100
AcDbArc
 50
180.0
 51
270.0000000000007
  0
LINE
  5
1AE
330
2
100
AcDbEntity
  8
0
100
AcDbLine
 10
55.86733434986673
 20
162.0378499805271
 30
0.0
 11
55.8673343498649
 21
187.0378499805271
 31
0.0
  0
LINE
  5
1AF
330
2
100
AcDbEntity
  8
0
100
AcDbLine
 10
22.8673343498649
 20
185.0378499805271
 30
0.0
 11
22.86733434986763
 21
155.0378499805272
 31
0.0
  0
LINE
  5
1B0
330
2
100
AcDbEntity
  8
0
100
AcDbLine
 10
49.8673343498649
 20
147.0378499805272
 30
0.0
 11
49.8673343498649
 21
194.7838166729422
 31
0.0
  0
LINE
  5
1B1
102
{ACAD_REACTORS
330
19F
102
}
330
2
100
AcDbEntity
  8
0
100
AcDbLine
 10
38.86733434986399
 20
165.0378499805271
 30
0.0
 11
42.3673343498649
 21
165.0378499805283
 31
0.0
  0
LINE
  5
1B2
330
2
100
AcDbEntity
  8
0
100
AcDbLine
 10
30.41733434986508
 20
158.2878499805283
 30
0.0
 11
33.31733434986381
 21
158.2878499805283
 31
0.0
  0
ARC
  5
1B3
330
2
100
AcDbEntity
  8
0
100
AcDbCircle
 10
33.31733434986381
 20
156.0378499805283
 30
0.0
 40
2.25
100
AcDbArc
 50
270.0
 51
90.0
  0
LINE
  5
1B4
330
2
100
AcDbEntity
  8
0
100
AcDbLine
 10
30.41733434986508
 20
153.7878499805283
 30
0.0
 11
33.31733434986381
 21
153.7878499805283
 31
0.0
  0
ARC
  5
1B5
330
2
100
AcDbEntity
  8
0
100
AcDbCircle
 10
30.41733434986508
 20
156.0378499805283
 30
0.0
 40
2.25
100
AcDbArc
 50
90.0
 51
270.0
  0
LINE
  5
1B6
330
2
100
AcDbEntity
  8
CEN
100
AcDbLine
 10
25.8673343498649
 20
156.0378499805272
 30
0.0
 11
37.8673343498649
 21
156.0378499805272
 31
0.0
  0
DIMENSION
  5
1B7
330
2
100
AcDbEntity
  8
0
100
AcDbDimension
  2
*D44
 10
35.8673343498649
 20
204.1919184922742
 30
0.0
 11
14.3673343498649
 21
204.1919184922742
 31
0.0
 70
   160
  3
STANDARD
100
AcDbAlignedDimension
 13
27.86733434986399
 23
186.0378499805271
 33
0.0
 14
35.8673343498649
 24
186.0378499805271
 34
0.0
100
AcDbRotatedDimension
  0
DIMENSION
  5
1C6
330
2
100
AcDbEntity
  8
0
100
AcDbDimension
  2
*D43
 10
14.02810679388952
 20
188.2878499805283
 30
0.0
 11
14.02810679388949
 21
186.0378499805283
 31
0.0
 70
   160
  3
STANDARD
100
AcDbAlignedDimension
 13
30.11733434986399
 23
183.7878499805283
 33
0.0
 14
30.11733434986399
 24
188.2878499805283
 34
0.0
 50
90.0
100
AcDbRotatedDimension
  0
ARC
  5
1D5
330
2
100
AcDbEntity
  8
0
100
AcDbCircle
 10
32.86733434986672
 20
185.0378499805271
 30
0.0
 40
10.0
100
AcDbArc
 50
90.0
 51
180.0000000000009
  0
LINE
  5
1D6
330
2
100
AcDbEntity
  8
0
100
AcDbLine
 10
30.41733434986508
 20
188.2878499805283
 30
0.0
 11
33.31733434986381
 21
188.2878499805283
 31
0.0
  0
ARC
  5
1D7
330
2
100
AcDbEntity
  8
0
100
AcDbCircle
 10
33.31733434986381
 20
186.0378499805283
 30
0.0
 40
2.25
100
AcDbArc
 50
270.0
 51
90.0
  0
LINE
  5
1D8
330
2
100
AcDbEntity
  8
0
100
AcDbLine
 10
30.41733434986508
 20
183.7878499805283
 30
0.0
 11
33.31733434986381
 21
183.7878499805283
 31
0.0
  0
ARC
  5
1D9
330
2
100
AcDbEntity
  8
0
100
AcDbCircle
 10
30.41733434986508
 20
186.0378499805283
 30
0.0
 40
2.25
100
AcDbArc
 50
90.0
 51
270.0
  0
LINE
  5
1DA
330
2
100
AcDbEntity
  8
CEN
100
AcDbLine
 10
25.8673343498649
 20
186.0378499805271
 30
0.0
 11
37.8673343498649
 21
186.0378499805271
 31
0.0
  0
LINE
  5
1DB
330
2
100
AcDbEntity
  8
0
100
AcDbLine
 10
32.86733434986672
 20
195.0378499805271
 30
0.0
 11
47.8673343498649
 21
195.0378499805271
 31
0.0
  0
LINE
  5
1DC
102
{ACAD_REACTORS
330
190
102
}
330
2
100
AcDbEntity
  8
0
100
AcDbLine
 10
99.8673343498649
 20
162.0378499805271
 30
0.0
 11
99.8673343498649
 21
187.0378499805271
 31
0.0
  0
LINE
  5
1DD
330
2
100
AcDbEntity
  8
0
100
AcDbLine
 10
105.8673343498649
 20
147.0378499805272
 30
0.0
 11
105.8673343498649
 21
194.7838166729422
 31
0.0
  0
DIMENSION
  5
1DE
330
2
100
AcDbEntity
  8
0
100
AcDbDimension
  2
*D47
 10
147.6169412016597
 20
186.0378499805271
 30
0.0
 11
147.6169412016597
 21
171.0378499805283
 31
0.0
 70
   160
  3
STANDARD
100
AcDbAlignedDimension
 13
129.8673343498649
 23
156.0378499805272
 33
0.0
 14
127.4762251384072
 24
186.0378499805271
 34
0.0
 50
90.0
100
AcDbRotatedDimension
  0
LINE
  5
1EB
330
2
100
AcDbEntity
  8
0
100
AcDbLine
 10
132.8673343498649
 20
185.0378499805271
 30
0.0
 11
132.8673343498649
 21
155.0378499805272
 31
0.0
  0
LINE
  5
1EC
330
2
100
AcDbEntity
  8
0
100
AcDbLine
 10
122.417334349865
 20
158.2878499805283
 30
0.0
 11
125.3173343498647
 21
158.2878499805283
 31
0.0
  0
LINE
  5
1ED
330
2
100
AcDbEntity
  8
0
100
AcDbLine
 10
122.417334349865
 20
153.7878499805271
 30
0.0
 11
125.3173343498647
 21
153.7878499805271
 31
0.0
  0
LINE
  5
1EE
330
2
100
AcDbEntity
  8
CEN
100
AcDbLine
 10
117.8673343498649
 20
156.0378499805272
 30
0.0
 11
129.8673343498649
 21
156.0378499805272
 31
0.0
  0
LINE
  5
1EF
330
2
100
AcDbEntity
  8
0
100
AcDbLine
 10
113.3673343498649
 20
165.0378499805271
 30
0.0
 11
116.8673343498649
 21
165.0378499805271
 31
0.0
  0
LINE
  5
1F0
102
{ACAD_REACTORS
330
19F
102
}
330
2
100
AcDbEntity
  8
0
100
AcDbLine
 10
59.86733434986399
 20
158.0378499805272
 30
0.0
 11
95.8673343498649
 21
158.0378499805272
 31
0.0
  0
ARC
  5
1F1
330
2
100
AcDbEntity
  8
0
100
AcDbCircle
 10
122.417334349865
 20
156.0378499805272
 30
0.0
 40
2.25
100
AcDbArc
 50
90.0
 51
270.0
  0
ARC
  5
1F2
330
2
100
AcDbEntity
  8
0
100
AcDbCircle
 10
95.8673343498649
 20
162.0378499805271
 30
0.0
 40
4.0
100
AcDbArc
 50
270.0000000000007
 51
0.0
  0
ARC
  5
1F3
330
2
100
AcDbEntity
  8
0
100
AcDbCircle
 10
125.3173343498647
 20
156.0378499805272
 30
0.0
 40
2.25
100
AcDbArc
 50
270.0
 51
90.0
  0
DIMENSION
  5
1F4
102
{ACAD_XDICTIONARY
360
1F5
102
}
102
{ACAD_REACTORS
330
1F6
102
}
330
2
100
AcDbEntity
  8
0
100
AcDbDimension
  2
*D45
 10
122.8673343498649
 20
185.0378499805272
 30
0.0
 11
143.8527925286598
 21
203.2492876885562
 31
0.0
 70
   164
  3
STANDARD
100
AcDbRadialDimension
 15
130.4199414065007
 25
191.5920949140081
 35
0.0
 40
0.0
  0
ARC
  5
200
102
{ACAD_REACTORS
330
1F6
102
}
330
2
100
AcDbEntity
  8
0
100
AcDbCircle
 10
122.8673343498648
 20
185.0378499805271
 30
0.0
 40
10.0
100
AcDbArc
 50
0.0
 51
90.0
  0
LINE
  5
201
330
2
100
AcDbEntity
  8
0
100
AcDbLine
 10
122.417334349865
 20
188.2878499805283
 30
0.0
 11
125.3173343498647
 21
188.2878499805283
 31
0.0
  0
LINE
  5
202
330
2
100
AcDbEntity
  8
0
100
AcDbLine
 10
122.417334349865
 20
183.7878499805283
 30
0.0
 11
125.3173343498647
 21
183.7878499805283
 31
0.0
  0
LINE
  5
203
330
2
100
AcDbEntity
  8
CEN
100
AcDbLine
 10
117.8673343498649
 20
186.0378499805271
 30
0.0
 11
129.8673343498649
 21
186.0378499805271
 31
0.0
  0
LINE
  5
204
330
2
100
AcDbEntity
  8
0
100
AcDbLine
 10
107.8673343498649
 20
195.0378499805271
 30
0.0
 11
122.8673343498648
 21
195.0378499805283
 31
0.0
  0
ARC
  5
205
330
2
100
AcDbEntity
  8
0
100
AcDbCircle
 10
107.8673343498649
 20
187.0378499805271
 30
0.0
 40
8.0
100
AcDbArc
 50
90.0
 51
180.0
  0
ARC
  5
206
330
2
100
AcDbEntity
  8
0
100
AcDbCircle
 10
122.417334349865
 20
186.0378499805283
 30
0.0
 40
2.25
100
AcDbArc
 50
90.0
 51
270.0
  0
ARC
  5
207
330
2
100
AcDbEntity
  8
0
100
AcDbCircle
 10
125.3173343498647
 20
186.0378499805283
 30
0.0
 40
2.25
100
AcDbArc
 50
270.0
 51
90.0
  0
ENDSEC
  0
SECTION
  2
OBJECTS
  0
DICTIONARY
  5
8
330
0
100
AcDbDictionary
  3
ACAD_GROUP
350
25
  3
ACAD_LAYOUT
350
C
  3
ACAD_MLINESTYLE
350
26
  3
ACAD_PLOTSETTINGS
350
27
  3
ACAD_PLOTSTYLENAME
350
7
  3
ACDBHEADERROUNDTRIPXREC
350
34E
  3
ACDBVARIABLEDICTIONARY
350
208
  0
DICTIONARY
  5
13
330
12
100
AcDbDictionary
280
     1
  3
ACAD_LAYERFILTERS
360
14
  3
ACAD_LAYERSTATES
360
15
  0
DICTIONARY
  5
3
330
2
100
AcDbDictionary
280
     1
  3
ACAD_LAYOUTSELFREF
360
36F
  0
DICTIONARY
  5
E
330
D
100
AcDbDictionary
280
     1
  3
ACAD_LAYOUTSELFREF
360
370
  0
DICTIONARY
  5
2A
330
29
100
AcDbDictionary
280
     1
  3
ACAD_DIMASSOC
360
2B
  0
DICTIONARY
  5
3A
330
39
100
AcDbDictionary
280
     1
  3
ACAD_DIMASSOC
360
3B
  0
DICTIONARY
  5
49
330
48
100
AcDbDictionary
280
     1
  3
ACAD_DIMASSOC
360
4A
  0
DICTIONARY
  5
64
330
63
100
AcDbDictionary
280
     1
  3
ACAD_DIMASSOC
360
65
  0
DICTIONARY
  5
75
330
74
100
AcDbDictionary
280
     1
  3
ACAD_DIMASSOC
360
76
  0
DICTIONARY
  5
84
330
83
100
AcDbDictionary
280
     1
  3
ACAD_DIMASSOC
360
85
  0
DICTIONARY
  5
B4
330
B3
100
AcDbDictionary
280
     1
  3
ACAD_DIMASSOC
360
B5
  0
DICTIONARY
  5
E8
330
E7
100
AcDbDictionary
280
     1
  3
ACAD_DIMASSOC
360
E9
  0
DICTIONARY
  5
118
330
117
100
AcDbDictionary
280
     1
  3
ACAD_DIMASSOC
360
119
  0
DICTIONARY
  5
12B
330
12A
100
AcDbDictionary
280
     1
  3
ACAD_DIMASSOC
360
12C
  0
DICTIONARY
  5
143
330
142
100
AcDbDictionary
280
     1
  3
ACAD_DIMASSOC
360
144
  0
DICTIONARY
  5
153
330
152
100
AcDbDictionary
280
     1
  3
ACAD_DIMASSOC
360
154
  0
DICTIONARY
  5
164
330
163
100
AcDbDictionary
280
     1
  3
ACAD_DIMASSOC
360
165
  0
DICTIONARY
  5
17F
330
17E
100
AcDbDictionary
280
     1
  3
ACAD_DIMASSOC
360
180
  0
DICTIONARY
  5
18F
330
18E
100
AcDbDictionary
280
     1
  3
ACAD_DIMASSOC
360
190
  0
DICTIONARY
  5
19E
330
19D
100
AcDbDictionary
280
     1
  3
ACAD_DIMASSOC
360
19F
  0
DICTIONARY
  5
1F5
330
1F4
100
AcDbDictionary
280
     1
  3
ACAD_DIMASSOC
360
1F6
  0
DICTIONARY
  5
25
102
{ACAD_REACTORS
330
8
102
}
330
8
100
AcDbDictionary
  0
DICTIONARY
  5
C
102
{ACAD_REACTORS
330
8
102
}
330
8
100
AcDbDictionary
  0
DICTIONARY
  5
26
102
{ACAD_REACTORS
330
8
102
}
330
8
100
AcDbDictionary
  3
STANDARD
350
28
  0
DICTIONARY
  5
27
102
{ACAD_REACTORS
330
8
102
}
330
8
100
AcDbDictionary
  0
ACDBDICTIONARYWDFLT
  5
7
102
{ACAD_REACTORS
330
8
102
}
330
8
100
AcDbDictionary
281
     1
  3
Normal
350
6
100
AcDbDictionaryWithDefault
340
6
  0
DICTIONARY
  5
34E
102
{ACAD_REACTORS
330
8
102
}
330
8
100
AcDbDictionary
  3
CEPSNTYPE
350
358
  3
DIMSTYLEDATA
350
35C
  3
FINGERPRINTGUID
350
359
  3
HYPERLINKBASE
350
351
  3
INSUNITS
350
357
  3
LAYOUTDICT
350
353
  3
LWETCUNION
350
356
  3
PLOTSETDICT
350
354
  3
PLOTSTYLNAMDICT
350
355
  3
PSVPSCALE
350
35B
  3
PUCSBASE
350
35F
  3
PUCSORGBACK
350
365
  3
PUCSORGBOTTOM
350
361
  3
PUCSORGFRONT
350
364
  3
PUCSORGLEFT
350
362
  3
PUCSORGRIGHT
350
363
  3
PUCSORGTOP
350
360
  3
PUCSORTHOREF
350
35D
  3
PUCSORTHOVIEW
350
35E
  3
STYLESHEET
350
352
  3
TSTACKALIGN
350
34F
  3
TSTACKSIZE
350
350
  3
UCSBASE
350
368
  3
UCSORGBACK
350
36E
  3
UCSORGBOTTOM
350
36A
  3
UCSORGFRONT
350
36D
  3
UCSORGLEFT
350
36B
  3
UCSORGRIGHT
350
36C
  3
UCSORGTOP
350
369
  3
UCSORTHOREF
350
366
  3
UCSORTHOVIEW
350
367
  3
VERSIONGUID
350
35A
  0
DICTIONARY
  5
208
102
{ACAD_REACTORS
330
8
102
}
330
8
100
AcDbDictionary
  3
DIMASSOC
350
20A
  3
HIDETEXT
350
209
  0
DICTIONARY
  5
14
102
{ACAD_REACTORS
330
13
102
}
330
13
100
AcDbDictionary
280
     1
  0
DICTIONARY
  5
15
102
{ACAD_REACTORS
330
13
102
}
330
13
100
AcDbDictionary
  0
XRECORD
  5
36F
102
{ACAD_REACTORS
330
3
102
}
330
3
100
AcDbXrecord
340
2
  0
XRECORD
  5
370
102
{ACAD_REACTORS
330
E
102
}
330
E
100
AcDbXrecord
340
D
  0
DIMASSOC
  5
2B
102
{ACAD_REACTORS
330
2A
102
}
330
2A
100
AcDbDimAssoc
330
29
 90
        3
 70
     0
 71
     0
  1
AcDbOsnapPointRef
 72
     1
331
AD
 73
     2
 91
        0
 40
1.0
 10
131.8673343498639
 20
21.11693123069312
 30
0.0
 75
     0
  1
AcDbOsnapPointRef
 72
     1
331
125
 73
     2
 91
        0
 40
1.0
 10
107.3673343498667
 20
99.61693123069222
 30
0.0
 75
     0
  0
DIMASSOC
  5
3B
102
{ACAD_REACTORS
330
3A
102
}
330
3A
100
AcDbDimAssoc
330
39
 90
        3
 70
     0
 71
     0
  1
AcDbOsnapPointRef
 72
    13
331
F6
 73
     2
 91
        0
 40
0.0
 10
215.2381712022807
 20
34.11693123069312
 30
0.0
 75
     0
  1
AcDbOsnapPointRef
 72
     6
331
5A
 73
     2
 91
        0
 40
0.0756302521008556
 10
215.2381712022807
 20
94.11693123069312
 30
0.0
332
17B
 74
     2
 92
        0
 75
     0
  0
DIMASSOC
  5
4A
102
{ACAD_REACTORS
330
49
102
}
330
49
100
AcDbDimAssoc
330
48
 90
        3
 70
     0
 71
     0
  1
AcDbOsnapPointRef
 72
    13
331
5E
 73
     2
 91
        0
 40
0.0
 10
219.2381712022825
 20
96.11693123069313
 30
0.0
 75
     0
  1
AcDbOsnapPointRef
 72
     1
331
5E
 73
     2
 91
        0
 40
1.0
 10
219.2381712022825
 20
32.1169323644483
 30
0.0
 75
     0
  0
DIMASSOC
  5
65
102
{ACAD_REACTORS
330
64
102
}
330
64
100
AcDbDimAssoc
330
63
 90
        1
 70
     0
 71
     0
  1
AcDbOsnapPointRef
 72
    13
331
A8
 73
     2
 91
        0
 40
0.0
 10
23.8673343498649
 20
21.11693123069426
 30
0.0
 75
     0
  0
DIMASSOC
  5
76
102
{ACAD_REACTORS
330
75
102
}
330
75
100
AcDbDimAssoc
330
74
 90
        3
 70
     0
 71
     0
  1
AcDbOsnapPointRef
 72
    13
331
A8
 73
     2
 91
        0
 40
0.0
 10
23.8673343498649
 20
21.11693123069426
 30
0.0
 75
     0
  1
AcDbOsnapPointRef
 72
    13
331
127
 73
     2
 91
        0
 40
0.0
 10
30.62023393642266
 20
64.11693129725836
 30
0.0
 75
     0
  0
DIMASSOC
  5
85
102
{ACAD_REACTORS
330
84
102
}
330
84
100
AcDbDimAssoc
330
83
 90
        2
 70
     0
 71
     0
  1
AcDbOsnapPointRef
 72
     3
331
13A
 73
     2
 91
        0
 40
0.0
 10
77.86733400834146
 20
64.11693088915808
 30
0.0
 75
     0
  0
DIMASSOC
  5
B5
102
{ACAD_REACTORS
330
B4
102
}
330
B4
100
AcDbDimAssoc
330
B3
 90
        3
 70
     0
 71
     0
  1
AcDbOsnapPointRef
 72
     1
331
B2
 73
     2
 91
        0
 40
0.9999999999999998
 10
105.8673343498649
 20
21.11693123069312
 30
0.0
 75
     0
  1
AcDbOsnapPointRef
 72
    10
331
A1
 73
     2
 91
        0
 40
0.9662547971429095
 10
103.1125838012962
 20
22.11693123069316
 30
0.0
 75
     0
  0
DIMASSOC
  5
E9
102
{ACAD_REACTORS
330
E8
102
}
330
E8
100
AcDbDimAssoc
330
E7
 90
        3
 70
     0
 71
     0
  1
AcDbOsnapPointRef
 72
    13
331
59
 73
     2
 91
        0
 40
0.0
 10
240.2381712022825
 20
29.11693123069426
 30
0.0
 75
     0
  1
AcDbOsnapPointRef
 72
    13
331
FC
 73
     2
 91
        0
 40
0.0
 10
270.2381712022806
 20
28.61693123069426
 30
0.0
 75
     0
  0
DIMASSOC
  5
119
102
{ACAD_REACTORS
330
118
102
}
330
118
100
AcDbDimAssoc
330
117
 90
        2
 70
     0
 71
     0
  1
AcDbOsnapPointRef
 72
     3
331
91
 73
     2
 91
        0
 40
0.0
 10
77.86733434986491
 20
64.11693123069312
 30
0.0
 75
     0
  0
DIMASSOC
  5
12C
102
{ACAD_REACTORS
330
12B
102
}
330
12B
100
AcDbDimAssoc
330
12A
 90
        1
 70
     0
 71
     0
  1
AcDbOsnapPointRef
 72
    10
331
130
 73
     2
 91
        0
 40
8.966982274317597
 10
46.63338410524441
 20
94.21323790186274
 30
0.0
 75
     0
  0
DIMASSOC
  5
144
102
{ACAD_REACTORS
330
143
102
}
330
143
100
AcDbDimAssoc
330
142
 90
        1
 70
     0
 71
     0
  1
AcDbOsnapPointRef
 72
     1
331
126
 73
     2
 91
        0
 40
1.0
 10
117.8673343498649
 20
140.0378499805271
 30
0.0
 75
     0
  0
DIMASSOC
  5
154
102
{ACAD_REACTORS
330
153
102
}
330
153
100
AcDbDimAssoc
330
152
 90
        3
 70
     0
 71
     0
  1
AcDbOsnapPointRef
 72
    13
331
5E
 73
     2
 91
        0
 40
0.0
 10
219.2381712022825
 20
96.11693123069313
 30
0.0
 75
     0
  1
AcDbOsnapPointRef
 72
    10
331
17A
 73
     2
 91
        0
 40
0.0350742565778466
 10
222.2381712022825
 20
97.37179512218071
 30
0.0
 75
     0
  0
DIMASSOC
  5
165
102
{ACAD_REACTORS
330
164
102
}
330
164
100
AcDbDimAssoc
330
163
 90
        3
 70
     0
 71
     0
  1
AcDbOsnapPointRef
 72
    13
331
5A
 73
     2
 91
        0
 40
0.0
 10
215.2381712022807
 20
98.61693123069427
 30
0.0
 75
     0
  1
AcDbOsnapPointRef
 72
    13
331
17A
 73
     2
 91
        0
 40
0.0
 10
222.2381712022825
 20
98.61693123069427
 30
0.0
 75
     0
  0
DIMASSOC
  5
180
102
{ACAD_REACTORS
330
17F
102
}
330
17F
100
AcDbDimAssoc
330
17E
 90
        3
 70
     0
 71
     0
  1
AcDbOsnapPointRef
 72
     1
331
128
 73
     2
 91
        0
 40
1.0
 10
31.8673343498649
 20
200.0378499805271
 30
0.0
 75
     0
  1
AcDbOsnapPointRef
 72
     1
331
138
 73
     2
 91
        0
 40
1.0
 10
123.8673343498639
 20
200.0378499805271
 30
0.0
 75
     0
  0
DIMASSOC
  5
190
102
{ACAD_REACTORS
330
18F
102
}
330
18F
100
AcDbDimAssoc
330
18E
 90
        2
 70
     0
 71
     0
  1
AcDbOsnapPointRef
 72
     1
331
1DC
 73
     2
 91
        0
 40
1.0
 10
99.8673343498649
 20
187.0378499805271
 30
0.0
 75
     0
  0
DIMASSOC
  5
19F
102
{ACAD_REACTORS
330
19E
102
}
330
19E
100
AcDbDimAssoc
330
19D
 90
        2
 70
     0
 71
     0
  1
AcDbOsnapPointRef
 72
    10
331
1F0
 73
     2
 91
        0
 40
0.1356719083647476
 10
64.75152305099503
 20
158.0378499805272
 30
0.0
 75
     0
  0
DIMASSOC
  5
1F6
102
{ACAD_REACTORS
330
1F5
102
}
330
1F5
100
AcDbDimAssoc
330
1F4
 90
        2
 70
     0
 71
     0
  1
AcDbOsnapPointRef
 72
     3
331
200
 73
     2
 91
        0
 40
0.0
 10
122.8673343498648
 20
185.0378499805271
 30
0.0
 75
     0
  0
MLINESTYLE
  5
28
102
{ACAD_REACTORS
330
26
102
}
330
26
100
AcDbMlineStyle
  2
STANDARD
 70
     0
  3

 62
   256
 51
90.0
 52
90.0
 71
     2
 49
0.5
 62
   256
  6
BYLAYER
 49
-0.5
 62
   256
  6
BYLAYER
  0
ACDBPLACEHOLDER
  5
6
102
{ACAD_REACTORS
330
7
102
}
330
7
100
AcDbPlaceHolder
280
     0
  0
XRECORD
  5
358
102
{ACAD_REACTORS
330
34E
102
}
330
34E
100
AcDbXrecord
 90
        0
  0
XRECORD
  5
35C
102
{ACAD_REACTORS
330
34E
102
}
330
34E
100
AcDbXrecord
1000
DSTYLE
1002
{
1070
    79
 70
     2
1070
   179
 70
     1
1070
   289
 70
     0
1002
}
  0
XRECORD
  5
359
102
{ACAD_REACTORS
330
34E
102
}
330
34E
100
AcDbXrecord
  1
{FDEAD578-A652-11D2-9A35-0060089B3A3F}
  0
XRECORD
  5
351
102
{ACAD_REACTORS
330
34E
102
}
330
34E
100
AcDbXrecord
  1

  0
XRECORD
  5
357
102
{ACAD_REACTORS
330
34E
102
}
330
34E
100
AcDbXrecord
 90
        4
  0
XRECORD
  5
353
102
{ACAD_REACTORS
330
34E
102
}
330
34E
100
AcDbXrecord
340
C
  0
XRECORD
  5
356
102
{ACAD_REACTORS
330
34E
102
}
330
34E
100
AcDbXrecord
 90
    10781
  0
XRECORD
  5
354
102
{ACAD_REACTORS
330
34E
102
}
330
34E
100
AcDbXrecord
340
27
  0
XRECORD
  5
355
102
{ACAD_REACTORS
330
34E
102
}
330
34E
100
AcDbXrecord
340
7
  0
XRECORD
  5
35B
102
{ACAD_REACTORS
330
34E
102
}
330
34E
100
AcDbXrecord
 40
0.0
  0
XRECORD
  5
35F
102
{ACAD_REACTORS
330
34E
102
}
330
34E
100
AcDbXrecord
340
0
  0
XRECORD
  5
365
102
{ACAD_REACTORS
330
34E
102
}
330
34E
100
AcDbXrecord
 10
0.0
 20
0.0
 30
0.0
  0
XRECORD
  5
361
102
{ACAD_REACTORS
330
34E
102
}
330
34E
100
AcDbXrecord
 10
0.0
 20
0.0
 30
0.0
  0
XRECORD
  5
364
102
{ACAD_REACTORS
330
34E
102
}
330
34E
100
AcDbXrecord
 10
0.0
 20
0.0
 30
0.0
  0
XRECORD
  5
362
102
{ACAD_REACTORS
330
34E
102
}
330
34E
100
AcDbXrecord
 10
0.0
 20
0.0
 30
0.0
  0
XRECORD
  5
363
102
{ACAD_REACTORS
330
34E
102
}
330
34E
100
AcDbXrecord
 10
0.0
 20
0.0
 30
0.0
  0
XRECORD
  5
360
102
{ACAD_REACTORS
330
34E
102
}
330
34E
100
AcDbXrecord
 10
0.0
 20
0.0
 30
0.0
  0
XRECORD
  5
35D
102
{ACAD_REACTORS
330
34E
102
}
330
34E
100
AcDbXrecord
340
0
  0
XRECORD
  5
35E
102
{ACAD_REACTORS
330
34E
102
}
330
34E
100
AcDbXrecord
 70
     0
  0
XRECORD
  5
352
102
{ACAD_REACTORS
330
34E
102
}
330
34E
100
AcDbXrecord
  1

  0
XRECORD
  5
34F
102
{ACAD_REACTORS
330
34E
102
}
330
34E
100
AcDbXrecord
 90
        1
  0
XRECORD
  5
350
102
{ACAD_REACTORS
330
34E
102
}
330
34E
100
AcDbXrecord
 90
       70
  0
XRECORD
  5
368
102
{ACAD_REACTORS
330
34E
102
}
330
34E
100
AcDbXrecord
340
0
  0
XRECORD
  5
36E
102
{ACAD_REACTORS
330
34E
102
}
330
34E
100
AcDbXrecord
 10
0.0
 20
0.0
 30
0.0
  0
XRECORD
  5
36A
102
{ACAD_REACTORS
330
34E
102
}
330
34E
100
AcDbXrecord
 10
0.0
 20
0.0
 30
0.0
  0
XRECORD
  5
36D
102
{ACAD_REACTORS
330
34E
102
}
330
34E
100
AcDbXrecord
 10
0.0
 20
0.0
 30
0.0
  0
XRECORD
  5
36B
102
{ACAD_REACTORS
330
34E
102
}
330
34E
100
AcDbXrecord
 10
0.0
 20
0.0
 30
0.0
  0
XRECORD
  5
36C
102
{ACAD_REACTORS
330
34E
102
}
330
34E
100
AcDbXrecord
 10
0.0
 20
0.0
 30
0.0
  0
XRECORD
  5
369
102
{ACAD_REACTORS
330
34E
102
}
330
34E
100
AcDbXrecord
 10
0.0
 20
0.0
 30
0.0
  0
XRECORD
  5
366
102
{ACAD_REACTORS
330
34E
102
}
330
34E
100
AcDbXrecord
340
0
  0
XRECORD
  5
367
102
{ACAD_REACTORS
330
34E
102
}
330
34E
100
AcDbXrecord
 70
     0
  0
XRECORD
  5
35A
102
{ACAD_REACTORS
330
34E
102
}
330
34E
100
AcDbXrecord
  1
{644277A9-935D-4C96-B82E-DA27D2C40D80}
  0
DICTIONARYVAR
  5
20A
102
{ACAD_REACTORS
330
208
102
}
330
208
100
DictionaryVariables
280
     0
  1
2
  0
DICTIONARYVAR
  5
209
102
{ACAD_REACTORS
330
208
102
}
330
208
100
DictionaryVariables
280
     0
  1
1
  0
ENDSEC
  0
EOF
