  0
SECTION
  2
HEADER
  9
$ACADVER
  1
AC1014
  9
$ACADMAINTVER
 70
     9
  9
$DWGCODEPAGE
  3
ANSI_949
  9
$INSBASE
 10
0.0
 20
0.0
 30
0.0
  9
$EXTMIN
 10
-2.685579498138395
 20
6.515401494405523
 30
-0.0015258207003583
  9
$EXTMAX
 10
366.3882024596968
 20
552.2910564035992
 30
0.0000000349246037
  9
$LIMMIN
 10
0.0
 20
0.0
  9
$LIMMAX
 10
420.0
 20
297.0
  9
$ORTHOMODE
 70
     0
  9
$REGENMODE
 70
     1
  9
$FILLMODE
 70
     1
  9
$QTEXTMODE
 70
     0
  9
$MIRRTEXT
 70
     0
  9
$DRAGMODE
 70
     2
  9
$LTSCALE
 40
0.2
  9
$OSMODE
 70
   567
  9
$ATTMODE
 70
     1
  9
$TEXTSIZE
 40
5.777225951253058
  9
$TRACEWID
 40
1.0
  9
$TEXTSTYLE
  7
STANDARD
  9
$CLAYER
  8
0
  9
$CELTYPE
  6
BYLAYER
  9
$CECOLOR
 62
   256
  9
$CELTSCALE
 40
1.0
  9
$DELOBJ
 70
     1
  9
$DISPSILH
 70
     0
  9
$DIMSCALE
 40
1.0
  9
$DIMASZ
 40
3.0
  9
$DIMEXO
 40
1.0
  9
$DIMDLI
 40
10.0
  9
$DIMRND
 40
0.0
  9
$DIMDLE
 40
0.0
  9
$DIMEXE
 40
0.6
  9
$DIMTP
 40
0.0
  9
$DIMTM
 40
0.0
  9
$DIMTXT
 40
3.5
  9
$DIMCEN
 40
0.09
  9
$DIMTSZ
 40
0.0
  9
$DIMTOL
 70
     0
  9
$DIMLIM
 70
     0
  9
$DIMTIH
 70
     0
  9
$DIMTOH
 70
     0
  9
$DIMSE1
 70
     0
  9
$DIMSE2
 70
     0
  9
$DIMTAD
 70
     1
  9
$DIMZIN
 70
     8
  9
$DIMBLK
  1

  9
$DIMASO
 70
     1
  9
$DIMSHO
 70
     1
  9
$DIMPOST
  1

  9
$DIMAPOST
  1

  9
$DIMALT
 70
     0
  9
$DIMALTD
 70
     2
  9
$DIMALTF
 40
25.4
  9
$DIMLFAC
 40
1.0
  9
$DIMTOFL
 70
     1
  9
$DIMTVP
 40
0.0
  9
$DIMTIX
 70
     1
  9
$DIMSOXD
 70
     0
  9
$DIMSAH
 70
     0
  9
$DIMBLK1
  1

  9
$DIMBLK2
  1

  9
$DIMSTYLE
  2
1_1_2
  9
$DIMCLRD
 70
   123
  9
$DIMCLRE
 70
   123
  9
$DIMCLRT
 70
     3
  9
$DIMTFAC
 40
1.0
  9
$DIMGAP
 40
1.0
  9
$DIMJUST
 70
     0
  9
$DIMSD1
 70
     0
  9
$DIMSD2
 70
     0
  9
$DIMTOLJ
 70
     1
  9
$DIMTZIN
 70
     0
  9
$DIMALTZ
 70
     0
  9
$DIMALTTZ
 70
     0
  9
$DIMFIT
 70
     0
  9
$DIMUPT
 70
     1
  9
$DIMUNIT
 70
     2
  9
$DIMDEC
 70
     2
  9
$DIMTDEC
 70
     2
  9
$DIMALTU
 70
     2
  9
$DIMALTTD
 70
     2
  9
$DIMTXSTY
  7
STANDARD
  9
$DIMAUNIT
 70
     1
  9
$LUNITS
 70
     2
  9
$LUPREC
 70
     4
  9
$SKETCHINC
 40
1.0
  9
$FILLETRAD
 40
0.5
  9
$AUNITS
 70
     0
  9
$AUPREC
 70
     0
  9
$MENU
  1
.
  9
$ELEVATION
 40
0.0
  9
$PELEVATION
 40
0.0
  9
$THICKNESS
 40
0.0
  9
$LIMCHECK
 70
     0
  9
$BLIPMODE
 70
     1
  9
$CHAMFERA
 40
1.0
  9
$CHAMFERB
 40
1.0
  9
$CHAMFERC
 40
20.0
  9
$CHAMFERD
 40
0.0
  9
$SKPOLY
 70
     0
  9
$TDCREATE
 40
2452839.586179271
  9
$TDUPDATE
 40
2453376.719496701
  9
$TDINDWG
 40
11.1160246065
  9
$TDUSRTIMER
 40
11.1160244329
  9
$USRTIMER
 70
     1
  9
$ANGBASE
 50
0.0
  9
$ANGDIR
 70
     0
  9
$PDMODE
 70
     0
  9
$PDSIZE
 40
0.0
  9
$PLINEWID
 40
0.0
  9
$COORDS
 70
     2
  9
$SPLFRAME
 70
     0
  9
$SPLINETYPE
 70
     6
  9
$SPLINESEGS
 70
   800
  9
$ATTDIA
 70
     0
  9
$ATTREQ
 70
     1
  9
$HANDLING
 70
 22529
  9
$HANDSEED
  5
5F5
  9
$SURFTAB1
 70
     6
  9
$SURFTAB2
 70
     6
  9
$SURFTYPE
 70
     6
  9
$SURFU
 70
     6
  9
$SURFV
 70
     6
  9
$UCSNAME
  2

  9
$UCSORG
 10
0.0
 20
0.0
 30
0.0
  9
$UCSXDIR
 10
1.0
 20
0.0
 30
0.0
  9
$UCSYDIR
 10
0.0
 20
1.0
 30
0.0
  9
$PUCSNAME
  2

  9
$PUCSORG
 10
0.0
 20
0.0
 30
0.0
  9
$PUCSXDIR
 10
1.0
 20
0.0
 30
0.0
  9
$PUCSYDIR
 10
0.0
 20
1.0
 30
0.0
  9
$USERI1
 70
     0
  9
$USERI2
 70
     0
  9
$USERI3
 70
     0
  9
$USERI4
 70
     0
  9
$USERI5
 70
     0
  9
$USERR1
 40
0.0
  9
$USERR2
 40
0.0
  9
$USERR3
 40
0.0
  9
$USERR4
 40
0.0
  9
$USERR5
 40
0.0
  9
$WORLDVIEW
 70
     1
  9
$SHADEDGE
 70
     3
  9
$SHADEDIF
 70
    70
  9
$TILEMODE
 70
     1
  9
$MAXACTVP
 70
    48
  9
$PINSBASE
 10
0.0
 20
0.0
 30
0.0
  9
$PLIMCHECK
 70
     0
  9
$PEXTMIN
 10
0.0
 20
0.0
 30
0.0
  9
$PEXTMAX
 10
0.0
 20
0.0
 30
0.0
  9
$PLIMMIN
 10
0.0
 20
0.0
  9
$PLIMMAX
 10
12.0
 20
9.0
  9
$UNITMODE
 70
     0
  9
$VISRETAIN
 70
     1
  9
$PLINEGEN
 70
     0
  9
$PSLTSCALE
 70
     1
  9
$TREEDEPTH
 70
  3020
  9
$PICKSTYLE
 70
     0
  9
$CMLSTYLE
  2
STANDARD
  9
$CMLJUST
 70
     0
  9
$CMLSCALE
 40
20.0
  9
$PROXYGRAPHICS
 70
     1
  9
$MEASUREMENT
 70
     1
  0
ENDSEC
  0
SECTION
  2
CLASSES
  0
CLASS
  1
ACDBDICTIONARYWDFLT
  2
AcDbDictionaryWithDefault
  3
AutoCAD 2000
 90
        0
280
     0
281
     0
  0
CLASS
  1
ACDBPLACEHOLDER
  2
AcDbPlaceHolder
  3
AutoCAD 2000
 90
        0
280
     0
281
     0
  0
CLASS
  1
LAYOUT
  2
AcDbLayout
  3
AutoCAD 2000
 90
        0
280
     0
281
     0
  0
CLASS
  1
DICTIONARYVAR
  2
AcDbDictionaryVar
  3
AutoCAD 2000
 90
        0
280
     0
281
     0
  0
CLASS
  1
DIMASSOC
  2
AcDbDimAssoc
  3
"AcDbDimAssoc|Product Desc:     AcDim ARX App For Dimension|Company:          Autodesk, Inc.|WEB Address:      www.autodesk.com"
 90
        0
280
     0
281
     0
  0
CLASS
  1
LONG_TRANSACTION
  2
AcDbLongTransaction
  3
AutoCAD 2000
 90
        0
280
     0
281
     0
  0
CLASS
  1
LWPOLYLINE
  2
AcDbPolyline
  3
AutoCAD 2000
 90
        0
280
     0
281
     1
  0
CLASS
  1
HATCH
  2
AcDbHatch
  3
AutoCAD 2000
 90
        0
280
     0
281
     1
  0
CLASS
  1
XRECORD
  2
AcDbXrecord
  3
AutoCAD 2000
 90
        0
280
     0
281
     0
  0
CLASS
  1
LONG_TRANSACTION
  2
AcDbLongTransaction
  3
AutoCAD 2000
 90
        0
280
     0
281
     0
  0
CLASS
  1
LWPOLYLINE
  2
AcDbPolyline
  3
AutoCAD 2000
 90
        0
280
     0
281
     1
  0
CLASS
  1
HATCH
  2
AcDbHatch
  3
AutoCAD 2000
 90
        0
280
     0
281
     1
  0
CLASS
  1
XRECORD
  2
AcDbXrecord
  3
AutoCAD 2000
 90
        0
280
     0
281
     0
  0
CLASS
  1
LONG_TRANSACTION
  2
AcDbLongTransaction
  3
AutoCAD 2000
 90
        0
280
     0
281
     0
  0
CLASS
  1
LWPOLYLINE
  2
AcDbPolyline
  3
AutoCAD 2000
 90
        0
280
     0
281
     1
  0
CLASS
  1
HATCH
  2
AcDbHatch
  3
AutoCAD 2000
 90
        0
280
     0
281
     1
  0
CLASS
  1
XRECORD
  2
AcDbXrecord
  3
AutoCAD 2000
 90
        0
280
     0
281
     0
  0
CLASS
  1
LONG_TRANSACTION
  2
AcDbLongTransaction
  3
AutoCAD 2000
 90
        0
280
     0
281
     0
  0
CLASS
  1
LWPOLYLINE
  2
AcDbPolyline
  3
AutoCAD 2000
 90
        0
280
     0
281
     1
  0
CLASS
  1
HATCH
  2
AcDbHatch
  3
AutoCAD 2000
 90
        0
280
     0
281
     1
  0
CLASS
  1
XRECORD
  2
AcDbXrecord
  3
AutoCAD 2000
 90
        0
280
     0
281
     0
  0
CLASS
  1
LONG_TRANSACTION
  2
AcDbLongTransaction
  3
AutoCAD 2000
 90
        0
280
     0
281
     0
  0
CLASS
  1
LWPOLYLINE
  2
AcDbPolyline
  3
AutoCAD 2000
 90
        0
280
     0
281
     1
  0
CLASS
  1
HATCH
  2
AcDbHatch
  3
AutoCAD 2000
 90
        0
280
     0
281
     1
  0
CLASS
  1
XRECORD
  2
AcDbXrecord
  3
AutoCAD 2000
 90
        0
280
     0
281
     0
  0
CLASS
  1
LONG_TRANSACTION
  2
AcDbLongTransaction
  3
AutoCAD 2000
 90
        0
280
     0
281
     0
  0
CLASS
  1
LWPOLYLINE
  2
AcDbPolyline
  3
AutoCAD 2000
 90
        0
280
     0
281
     1
  0
CLASS
  1
HATCH
  2
AcDbHatch
  3
AutoCAD 2000
 90
        0
280
     0
281
     1
  0
CLASS
  1
XRECORD
  2
AcDbXrecord
  3
AutoCAD 2000
 90
        0
280
     0
281
     0
  0
CLASS
  1
LONG_TRANSACTION
  2
AcDbLongTransaction
  3
AutoCAD 2000
 90
        0
280
     0
281
     0
  0
CLASS
  1
LWPOLYLINE
  2
AcDbPolyline
  3
AutoCAD 2000
 90
        0
280
     0
281
     1
  0
CLASS
  1
HATCH
  2
AcDbHatch
  3
AutoCAD 2000
 90
        0
280
     0
281
     1
  0
CLASS
  1
XRECORD
  2
AcDbXrecord
  3
AutoCAD 2000
 90
        0
280
     0
281
     0
  0
CLASS
  1
LONG_TRANSACTION
  2
AcDbLongTransaction
  3
AutoCAD 2000
 90
        0
280
     0
281
     0
  0
CLASS
  1
LWPOLYLINE
  2
AcDbPolyline
  3
AutoCAD 2000
 90
        0
280
     0
281
     1
  0
CLASS
  1
HATCH
  2
AcDbHatch
  3
AutoCAD 2000
 90
        0
280
     0
281
     1
  0
CLASS
  1
XRECORD
  2
AcDbXrecord
  3
AutoCAD 2000
 90
        0
280
     0
281
     0
  0
CLASS
  1
LONG_TRANSACTION
  2
AcDbLongTransaction
  3
AutoCAD 2000
 90
        0
280
     0
281
     0
  0
CLASS
  1
LWPOLYLINE
  2
AcDbPolyline
  3
AutoCAD 2000
 90
        0
280
     0
281
     1
  0
CLASS
  1
HATCH
  2
AcDbHatch
  3
AutoCAD 2000
 90
        0
280
     0
281
     1
  0
CLASS
  1
XRECORD
  2
AcDbXrecord
  3
AutoCAD 2000
 90
        0
280
     0
281
     0
  0
CLASS
  1
LONG_TRANSACTION
  2
AcDbLongTransaction
  3
AutoCAD 2000
 90
        0
280
     0
281
     0
  0
CLASS
  1
LWPOLYLINE
  2
AcDbPolyline
  3
AutoCAD 2000
 90
        0
280
     0
281
     1
  0
CLASS
  1
HATCH
  2
AcDbHatch
  3
AutoCAD 2000
 90
        0
280
     0
281
     1
  0
CLASS
  1
XRECORD
  2
AcDbXrecord
  3
AutoCAD 2000
 90
        0
280
     0
281
     0
  0
CLASS
  1
LONG_TRANSACTION
  2
AcDbLongTransaction
  3
AutoCAD 2000
 90
        0
280
     0
281
     0
  0
CLASS
  1
LWPOLYLINE
  2
AcDbPolyline
  3
AutoCAD 2000
 90
        0
280
     0
281
     1
  0
CLASS
  1
HATCH
  2
AcDbHatch
  3
AutoCAD 2000
 90
        0
280
     0
281
     1
  0
CLASS
  1
XRECORD
  2
AcDbXrecord
  3
AutoCAD 2000
 90
        0
280
     0
281
     0
  0
CLASS
  1
LONG_TRANSACTION
  2
AcDbLongTransaction
  3
AutoCAD 2000
 90
        0
280
     0
281
     0
  0
CLASS
  1
LWPOLYLINE
  2
AcDbPolyline
  3
AutoCAD 2000
 90
        0
280
     0
281
     1
  0
CLASS
  1
HATCH
  2
AcDbHatch
  3
AutoCAD 2000
 90
        0
280
     0
281
     1
  0
CLASS
  1
XRECORD
  2
AcDbXrecord
  3
AutoCAD 2000
 90
        0
280
     0
281
     0
  0
CLASS
  1
LONG_TRANSACTION
  2
AcDbLongTransaction
  3
AutoCAD 2000
 90
        0
280
     0
281
     0
  0
CLASS
  1
LWPOLYLINE
  2
AcDbPolyline
  3
AutoCAD 2000
 90
        0
280
     0
281
     1
  0
CLASS
  1
HATCH
  2
AcDbHatch
  3
AutoCAD 2000
 90
        0
280
     0
281
     1
  0
CLASS
  1
XRECORD
  2
AcDbXrecord
  3
AutoCAD 2000
 90
        0
280
     0
281
     0
  0
CLASS
  1
LONG_TRANSACTION
  2
AcDbLongTransaction
  3
AutoCAD 2000
 90
        0
280
     0
281
     0
  0
CLASS
  1
LWPOLYLINE
  2
AcDbPolyline
  3
AutoCAD 2000
 90
        0
280
     0
281
     1
  0
CLASS
  1
HATCH
  2
AcDbHatch
  3
AutoCAD 2000
 90
        0
280
     0
281
     1
  0
CLASS
  1
XRECORD
  2
AcDbXrecord
  3
AutoCAD 2000
 90
        0
280
     0
281
     0
  0
CLASS
  1
LONG_TRANSACTION
  2
AcDbLongTransaction
  3
AutoCAD 2000
 90
        0
280
     0
281
     0
  0
CLASS
  1
LWPOLYLINE
  2
AcDbPolyline
  3
AutoCAD 2000
 90
        0
280
     0
281
     1
  0
CLASS
  1
HATCH
  2
AcDbHatch
  3
AutoCAD 2000
 90
        0
280
     0
281
     1
  0
CLASS
  1
XRECORD
  2
AcDbXrecord
  3
AutoCAD 2000
 90
        0
280
     0
281
     0
  0
CLASS
  1
LONG_TRANSACTION
  2
AcDbLongTransaction
  3
AutoCAD 2000
 90
        0
280
     0
281
     0
  0
CLASS
  1
LWPOLYLINE
  2
AcDbPolyline
  3
AutoCAD 2000
 90
        0
280
     0
281
     1
  0
CLASS
  1
HATCH
  2
AcDbHatch
  3
AutoCAD 2000
 90
        0
280
     0
281
     1
  0
CLASS
  1
XRECORD
  2
AcDbXrecord
  3
AutoCAD 2000
 90
        0
280
     0
281
     0
  0
CLASS
  1
LONG_TRANSACTION
  2
AcDbLongTransaction
  3
AutoCAD 2000
 90
        0
280
     0
281
     0
  0
CLASS
  1
LWPOLYLINE
  2
AcDbPolyline
  3
AutoCAD 2000
 90
        0
280
     0
281
     1
  0
CLASS
  1
HATCH
  2
AcDbHatch
  3
AutoCAD 2000
 90
        0
280
     0
281
     1
  0
CLASS
  1
XRECORD
  2
AcDbXrecord
  3
AutoCAD 2000
 90
        0
280
     0
281
     0
  0
CLASS
  1
LONG_TRANSACTION
  2
AcDbLongTransaction
  3
AutoCAD 2000
 90
        0
280
     0
281
     0
  0
CLASS
  1
LWPOLYLINE
  2
AcDbPolyline
  3
AutoCAD 2000
 90
        0
280
     0
281
     1
  0
CLASS
  1
HATCH
  2
AcDbHatch
  3
AutoCAD 2000
 90
        0
280
     0
281
     1
  0
CLASS
  1
XRECORD
  2
AcDbXrecord
  3
AutoCAD 2000
 90
        0
280
     0
281
     0
  0
CLASS
  1
LONG_TRANSACTION
  2
AcDbLongTransaction
  3
AutoCAD 2000
 90
        0
280
     0
281
     0
  0
CLASS
  1
LWPOLYLINE
  2
AcDbPolyline
  3
AutoCAD 2000
 90
        0
280
     0
281
     1
  0
CLASS
  1
HATCH
  2
AcDbHatch
  3
AutoCAD 2000
 90
        0
280
     0
281
     1
  0
CLASS
  1
XRECORD
  2
AcDbXrecord
  3
AutoCAD 2000
 90
        0
280
     0
281
     0
  0
CLASS
  1
LONG_TRANSACTION
  2
AcDbLongTransaction
  3
AutoCAD 2000
 90
        0
280
     0
281
     0
  0
CLASS
  1
LWPOLYLINE
  2
AcDbPolyline
  3
AutoCAD 2000
 90
        0
280
     0
281
     1
  0
CLASS
  1
HATCH
  2
AcDbHatch
  3
AutoCAD 2000
 90
        0
280
     0
281
     1
  0
CLASS
  1
XRECORD
  2
AcDbXrecord
  3
AutoCAD 2000
 90
        0
280
     0
281
     0
  0
CLASS
  1
LONG_TRANSACTION
  2
AcDbLongTransaction
  3
AutoCAD 2000
 90
        0
280
     0
281
     0
  0
CLASS
  1
LWPOLYLINE
  2
AcDbPolyline
  3
AutoCAD 2000
 90
        0
280
     0
281
     1
  0
CLASS
  1
HATCH
  2
AcDbHatch
  3
AutoCAD 2000
 90
        0
280
     0
281
     1
  0
CLASS
  1
XRECORD
  2
AcDbXrecord
  3
AutoCAD 2000
 90
        0
280
     0
281
     0
  0
CLASS
  1
LONG_TRANSACTION
  2
AcDbLongTransaction
  3
AutoCAD 2000
 90
        0
280
     0
281
     0
  0
CLASS
  1
LWPOLYLINE
  2
AcDbPolyline
  3
AutoCAD 2000
 90
        0
280
     0
281
     1
  0
CLASS
  1
HATCH
  2
AcDbHatch
  3
AutoCAD 2000
 90
        0
280
     0
281
     1
  0
CLASS
  1
XRECORD
  2
AcDbXrecord
  3
AutoCAD 2000
 90
        0
280
     0
281
     0
  0
CLASS
  1
LONG_TRANSACTION
  2
AcDbLongTransaction
  3
AutoCAD 2000
 90
        0
280
     0
281
     0
  0
CLASS
  1
LWPOLYLINE
  2
AcDbPolyline
  3
AutoCAD 2000
 90
        0
280
     0
281
     1
  0
CLASS
  1
HATCH
  2
AcDbHatch
  3
AutoCAD 2000
 90
        0
280
     0
281
     1
  0
CLASS
  1
XRECORD
  2
AcDbXrecord
  3
AutoCAD 2000
 90
        0
280
     0
281
     0
  0
CLASS
  1
LONG_TRANSACTION
  2
AcDbLongTransaction
  3
AutoCAD 2000
 90
        0
280
     0
281
     0
  0
CLASS
  1
LWPOLYLINE
  2
AcDbPolyline
  3
AutoCAD 2000
 90
        0
280
     0
281
     1
  0
CLASS
  1
HATCH
  2
AcDbHatch
  3
AutoCAD 2000
 90
        0
280
     0
281
     1
  0
CLASS
  1
XRECORD
  2
AcDbXrecord
  3
AutoCAD 2000
 90
        0
280
     0
281
     0
  0
CLASS
  1
LONG_TRANSACTION
  2
AcDbLongTransaction
  3
AutoCAD 2000
 90
        0
280
     0
281
     0
  0
CLASS
  1
LWPOLYLINE
  2
AcDbPolyline
  3
AutoCAD 2000
 90
        0
280
     0
281
     1
  0
CLASS
  1
HATCH
  2
AcDbHatch
  3
AutoCAD 2000
 90
        0
280
     0
281
     1
  0
CLASS
  1
XRECORD
  2
AcDbXrecord
  3
AutoCAD 2000
 90
        0
280
     0
281
     0
  0
CLASS
  1
LONG_TRANSACTION
  2
AcDbLongTransaction
  3
AutoCAD 2000
 90
        0
280
     0
281
     0
  0
CLASS
  1
LWPOLYLINE
  2
AcDbPolyline
  3
AutoCAD 2000
 90
        0
280
     0
281
     1
  0
CLASS
  1
HATCH
  2
AcDbHatch
  3
AutoCAD 2000
 90
        0
280
     0
281
     1
  0
CLASS
  1
XRECORD
  2
AcDbXrecord
  3
AutoCAD 2000
 90
        0
280
     0
281
     0
  0
CLASS
  1
LONG_TRANSACTION
  2
AcDbLongTransaction
  3
AutoCAD 2000
 90
        0
280
     0
281
     0
  0
CLASS
  1
LWPOLYLINE
  2
AcDbPolyline
  3
AutoCAD 2000
 90
        0
280
     0
281
     1
  0
CLASS
  1
HATCH
  2
AcDbHatch
  3
AutoCAD 2000
 90
        0
280
     0
281
     1
  0
CLASS
  1
XRECORD
  2
AcDbXrecord
  3
AutoCAD 2000
 90
        0
280
     0
281
     0
  0
CLASS
  1
LONG_TRANSACTION
  2
AcDbLongTransaction
  3
AutoCAD 2000
 90
        0
280
     0
281
     0
  0
CLASS
  1
LWPOLYLINE
  2
AcDbPolyline
  3
AutoCAD 2000
 90
        0
280
     0
281
     1
  0
CLASS
  1
HATCH
  2
AcDbHatch
  3
AutoCAD 2000
 90
        0
280
     0
281
     1
  0
CLASS
  1
XRECORD
  2
AcDbXrecord
  3
AutoCAD 2000
 90
        0
280
     0
281
     0
  0
CLASS
  1
LONG_TRANSACTION
  2
AcDbLongTransaction
  3
AutoCAD 2000
 90
        0
280
     0
281
     0
  0
CLASS
  1
LWPOLYLINE
  2
AcDbPolyline
  3
AutoCAD 2000
 90
        0
280
     0
281
     1
  0
CLASS
  1
HATCH
  2
AcDbHatch
  3
AutoCAD 2000
 90
        0
280
     0
281
     1
  0
CLASS
  1
XRECORD
  2
AcDbXrecord
  3
AutoCAD 2000
 90
        0
280
     0
281
     0
  0
CLASS
  1
LONG_TRANSACTION
  2
AcDbLongTransaction
  3
AutoCAD 2000
 90
        0
280
     0
281
     0
  0
CLASS
  1
LWPOLYLINE
  2
AcDbPolyline
  3
AutoCAD 2000
 90
        0
280
     0
281
     1
  0
CLASS
  1
HATCH
  2
AcDbHatch
  3
AutoCAD 2000
 90
        0
280
     0
281
     1
  0
CLASS
  1
XRECORD
  2
AcDbXrecord
  3
AutoCAD 2000
 90
        0
280
     0
281
     0
  0
CLASS
  1
LONG_TRANSACTION
  2
AcDbLongTransaction
  3
AutoCAD 2000
 90
        0
280
     0
281
     0
  0
CLASS
  1
LWPOLYLINE
  2
AcDbPolyline
  3
AutoCAD 2000
 90
        0
280
     0
281
     1
  0
CLASS
  1
HATCH
  2
AcDbHatch
  3
AutoCAD 2000
 90
        0
280
     0
281
     1
  0
CLASS
  1
XRECORD
  2
AcDbXrecord
  3
AutoCAD 2000
 90
        0
280
     0
281
     0
  0
CLASS
  1
LONG_TRANSACTION
  2
AcDbLongTransaction
  3
AutoCAD 2000
 90
        0
280
     0
281
     0
  0
CLASS
  1
LWPOLYLINE
  2
AcDbPolyline
  3
AutoCAD 2000
 90
        0
280
     0
281
     1
  0
CLASS
  1
HATCH
  2
AcDbHatch
  3
AutoCAD 2000
 90
        0
280
     0
281
     1
  0
CLASS
  1
XRECORD
  2
AcDbXrecord
  3
AutoCAD 2000
 90
        0
280
     0
281
     0
  0
CLASS
  1
LONG_TRANSACTION
  2
AcDbLongTransaction
  3
AutoCAD 2000
 90
        0
280
     0
281
     0
  0
CLASS
  1
LWPOLYLINE
  2
AcDbPolyline
  3
AutoCAD 2000
 90
        0
280
     0
281
     1
  0
CLASS
  1
HATCH
  2
AcDbHatch
  3
AutoCAD 2000
 90
        0
280
     0
281
     1
  0
CLASS
  1
XRECORD
  2
AcDbXrecord
  3
AutoCAD 2000
 90
        0
280
     0
281
     0
  0
CLASS
  1
LONG_TRANSACTION
  2
AcDbLongTransaction
  3
AutoCAD 2000
 90
        0
280
     0
281
     0
  0
CLASS
  1
LWPOLYLINE
  2
AcDbPolyline
  3
AutoCAD 2000
 90
        0
280
     0
281
     1
  0
CLASS
  1
HATCH
  2
AcDbHatch
  3
AutoCAD 2000
 90
        0
280
     0
281
     1
  0
CLASS
  1
XRECORD
  2
AcDbXrecord
  3
AutoCAD 2000
 90
        0
280
     0
281
     0
  0
CLASS
  1
LONG_TRANSACTION
  2
AcDbLongTransaction
  3
AutoCAD 2000
 90
        0
280
     0
281
     0
  0
CLASS
  1
LWPOLYLINE
  2
AcDbPolyline
  3
AutoCAD 2000
 90
        0
280
     0
281
     1
  0
CLASS
  1
HATCH
  2
AcDbHatch
  3
AutoCAD 2000
 90
        0
280
     0
281
     1
  0
CLASS
  1
XRECORD
  2
AcDbXrecord
  3
AutoCAD 2000
 90
        0
280
     0
281
     0
  0
CLASS
  1
LONG_TRANSACTION
  2
AcDbLongTransaction
  3
AutoCAD 2000
 90
        0
280
     0
281
     0
  0
CLASS
  1
LWPOLYLINE
  2
AcDbPolyline
  3
AutoCAD 2000
 90
        0
280
     0
281
     1
  0
CLASS
  1
HATCH
  2
AcDbHatch
  3
AutoCAD 2000
 90
        0
280
     0
281
     1
  0
CLASS
  1
XRECORD
  2
AcDbXrecord
  3
AutoCAD 2000
 90
        0
280
     0
281
     0
  0
CLASS
  1
LONG_TRANSACTION
  2
AcDbLongTransaction
  3
AutoCAD 2000
 90
        0
280
     0
281
     0
  0
CLASS
  1
LWPOLYLINE
  2
AcDbPolyline
  3
AutoCAD 2000
 90
        0
280
     0
281
     1
  0
CLASS
  1
HATCH
  2
AcDbHatch
  3
AutoCAD 2000
 90
        0
280
     0
281
     1
  0
CLASS
  1
XRECORD
  2
AcDbXrecord
  3
AutoCAD 2000
 90
        0
280
     0
281
     0
  0
CLASS
  1
LONG_TRANSACTION
  2
AcDbLongTransaction
  3
AutoCAD 2000
 90
        0
280
     0
281
     0
  0
CLASS
  1
LWPOLYLINE
  2
AcDbPolyline
  3
AutoCAD 2000
 90
        0
280
     0
281
     1
  0
CLASS
  1
HATCH
  2
AcDbHatch
  3
AutoCAD 2000
 90
        0
280
     0
281
     1
  0
CLASS
  1
XRECORD
  2
AcDbXrecord
  3
AutoCAD 2000
 90
        0
280
     0
281
     0
  0
CLASS
  1
LONG_TRANSACTION
  2
AcDbLongTransaction
  3
AutoCAD 2000
 90
        0
280
     0
281
     0
  0
CLASS
  1
LWPOLYLINE
  2
AcDbPolyline
  3
AutoCAD 2000
 90
        0
280
     0
281
     1
  0
CLASS
  1
HATCH
  2
AcDbHatch
  3
AutoCAD 2000
 90
        0
280
     0
281
     1
  0
CLASS
  1
XRECORD
  2
AcDbXrecord
  3
AutoCAD 2000
 90
        0
280
     0
281
     0
  0
CLASS
  1
LONG_TRANSACTION
  2
AcDbLongTransaction
  3
AutoCAD 2000
 90
        0
280
     0
281
     0
  0
CLASS
  1
LWPOLYLINE
  2
AcDbPolyline
  3
AutoCAD 2000
 90
        0
280
     0
281
     1
  0
CLASS
  1
HATCH
  2
AcDbHatch
  3
AutoCAD 2000
 90
        0
280
     0
281
     1
  0
CLASS
  1
XRECORD
  2
AcDbXrecord
  3
AutoCAD 2000
 90
        0
280
     0
281
     0
  0
CLASS
  1
LONG_TRANSACTION
  2
AcDbLongTransaction
  3
AutoCAD 2000
 90
        0
280
     0
281
     0
  0
CLASS
  1
LWPOLYLINE
  2
AcDbPolyline
  3
AutoCAD 2000
 90
        0
280
     0
281
     1
  0
CLASS
  1
HATCH
  2
AcDbHatch
  3
AutoCAD 2000
 90
        0
280
     0
281
     1
  0
CLASS
  1
XRECORD
  2
AcDbXrecord
  3
AutoCAD 2000
 90
        0
280
     0
281
     0
  0
CLASS
  1
LONG_TRANSACTION
  2
AcDbLongTransaction
  3
AutoCAD 2000
 90
        0
280
     0
281
     0
  0
CLASS
  1
LWPOLYLINE
  2
AcDbPolyline
  3
AutoCAD 2000
 90
        0
280
     0
281
     1
  0
CLASS
  1
HATCH
  2
AcDbHatch
  3
AutoCAD 2000
 90
        0
280
     0
281
     1
  0
CLASS
  1
XRECORD
  2
AcDbXrecord
  3
AutoCAD 2000
 90
        0
280
     0
281
     0
  0
CLASS
  1
LONG_TRANSACTION
  2
AcDbLongTransaction
  3
AutoCAD 2000
 90
        0
280
     0
281
     0
  0
CLASS
  1
LWPOLYLINE
  2
AcDbPolyline
  3
AutoCAD 2000
 90
        0
280
     0
281
     1
  0
CLASS
  1
HATCH
  2
AcDbHatch
  3
AutoCAD 2000
 90
        0
280
     0
281
     1
  0
CLASS
  1
XRECORD
  2
AcDbXrecord
  3
AutoCAD 2000
 90
        0
280
     0
281
     0
  0
CLASS
  1
LONG_TRANSACTION
  2
AcDbLongTransaction
  3
AutoCAD 2000
 90
        0
280
     0
281
     0
  0
CLASS
  1
LWPOLYLINE
  2
AcDbPolyline
  3
AutoCAD 2000
 90
        0
280
     0
281
     1
  0
CLASS
  1
HATCH
  2
AcDbHatch
  3
AutoCAD 2000
 90
        0
280
     0
281
     1
  0
CLASS
  1
XRECORD
  2
AcDbXrecord
  3
AutoCAD 2000
 90
        0
280
     0
281
     0
  0
CLASS
  1
LONG_TRANSACTION
  2
AcDbLongTransaction
  3
AutoCAD 2000
 90
        0
280
     0
281
     0
  0
CLASS
  1
LWPOLYLINE
  2
AcDbPolyline
  3
AutoCAD 2000
 90
        0
280
     0
281
     1
  0
CLASS
  1
HATCH
  2
AcDbHatch
  3
AutoCAD 2000
 90
        0
280
     0
281
     1
  0
CLASS
  1
XRECORD
  2
AcDbXrecord
  3
AutoCAD 2000
 90
        0
280
     0
281
     0
  0
CLASS
  1
LONG_TRANSACTION
  2
AcDbLongTransaction
  3
AutoCAD 2000
 90
        0
280
     0
281
     0
  0
CLASS
  1
LWPOLYLINE
  2
AcDbPolyline
  3
AutoCAD 2000
 90
        0
280
     0
281
     1
  0
CLASS
  1
HATCH
  2
AcDbHatch
  3
AutoCAD 2000
 90
        0
280
     0
281
     1
  0
CLASS
  1
XRECORD
  2
AcDbXrecord
  3
AutoCAD 2000
 90
        0
280
     0
281
     0
  0
CLASS
  1
LONG_TRANSACTION
  2
AcDbLongTransaction
  3
AutoCAD 2000
 90
        0
280
     0
281
     0
  0
CLASS
  1
LWPOLYLINE
  2
AcDbPolyline
  3
AutoCAD 2000
 90
        0
280
     0
281
     1
  0
CLASS
  1
HATCH
  2
AcDbHatch
  3
AutoCAD 2000
 90
        0
280
     0
281
     1
  0
CLASS
  1
XRECORD
  2
AcDbXrecord
  3
AutoCAD 2000
 90
        0
280
     0
281
     0
  0
CLASS
  1
LONG_TRANSACTION
  2
AcDbLongTransaction
  3
AutoCAD 2000
 90
        0
280
     0
281
     0
  0
CLASS
  1
LWPOLYLINE
  2
AcDbPolyline
  3
AutoCAD 2000
 90
        0
280
     0
281
     1
  0
CLASS
  1
HATCH
  2
AcDbHatch
  3
AutoCAD 2000
 90
        0
280
     0
281
     1
  0
CLASS
  1
XRECORD
  2
AcDbXrecord
  3
AutoCAD 2000
 90
        0
280
     0
281
     0
  0
CLASS
  1
LONG_TRANSACTION
  2
AcDbLongTransaction
  3
AutoCAD 2000
 90
        0
280
     0
281
     0
  0
CLASS
  1
LWPOLYLINE
  2
AcDbPolyline
  3
AutoCAD 2000
 90
        0
280
     0
281
     1
  0
CLASS
  1
HATCH
  2
AcDbHatch
  3
AutoCAD 2000
 90
        0
280
     0
281
     1
  0
CLASS
  1
XRECORD
  2
AcDbXrecord
  3
AutoCAD 2000
 90
        0
280
     0
281
     0
  0
CLASS
  1
LONG_TRANSACTION
  2
AcDbLongTransaction
  3
AutoCAD 2000
 90
        0
280
     0
281
     0
  0
CLASS
  1
LWPOLYLINE
  2
AcDbPolyline
  3
AutoCAD 2000
 90
        0
280
     0
281
     1
  0
CLASS
  1
HATCH
  2
AcDbHatch
  3
AutoCAD 2000
 90
        0
280
     0
281
     1
  0
CLASS
  1
XRECORD
  2
AcDbXrecord
  3
AutoCAD 2000
 90
        0
280
     0
281
     0
  0
CLASS
  1
LONG_TRANSACTION
  2
AcDbLongTransaction
  3
AutoCAD 2000
 90
        0
280
     0
281
     0
  0
CLASS
  1
LWPOLYLINE
  2
AcDbPolyline
  3
AutoCAD 2000
 90
        0
280
     0
281
     1
  0
CLASS
  1
HATCH
  2
AcDbHatch
  3
AutoCAD 2000
 90
        0
280
     0
281
     1
  0
CLASS
  1
XRECORD
  2
AcDbXrecord
  3
AutoCAD 2000
 90
        0
280
     0
281
     0
  0
CLASS
  1
LONG_TRANSACTION
  2
AcDbLongTransaction
  3
AutoCAD 2000
 90
        0
280
     0
281
     0
  0
CLASS
  1
LWPOLYLINE
  2
AcDbPolyline
  3
AutoCAD 2000
 90
        0
280
     0
281
     1
  0
CLASS
  1
HATCH
  2
AcDbHatch
  3
AutoCAD 2000
 90
        0
280
     0
281
     1
  0
CLASS
  1
XRECORD
  2
AcDbXrecord
  3
AutoCAD 2000
 90
        0
280
     0
281
     0
  0
CLASS
  1
LONG_TRANSACTION
  2
AcDbLongTransaction
  3
AutoCAD 2000
 90
        0
280
     0
281
     0
  0
CLASS
  1
LWPOLYLINE
  2
AcDbPolyline
  3
AutoCAD 2000
 90
        0
280
     0
281
     1
  0
CLASS
  1
HATCH
  2
AcDbHatch
  3
AutoCAD 2000
 90
        0
280
     0
281
     1
  0
CLASS
  1
XRECORD
  2
AcDbXrecord
  3
AutoCAD 2000
 90
        0
280
     0
281
     0
  0
CLASS
  1
LONG_TRANSACTION
  2
AcDbLongTransaction
  3
AutoCAD 2000
 90
        0
280
     0
281
     0
  0
CLASS
  1
LWPOLYLINE
  2
AcDbPolyline
  3
AutoCAD 2000
 90
        0
280
     0
281
     1
  0
CLASS
  1
HATCH
  2
AcDbHatch
  3
AutoCAD 2000
 90
        0
280
     0
281
     1
  0
CLASS
  1
XRECORD
  2
AcDbXrecord
  3
AutoCAD 2000
 90
        0
280
     0
281
     0
  0
CLASS
  1
LONG_TRANSACTION
  2
AcDbLongTransaction
  3
AutoCAD 2000
 90
        0
280
     0
281
     0
  0
CLASS
  1
LWPOLYLINE
  2
AcDbPolyline
  3
AutoCAD 2000
 90
        0
280
     0
281
     1
  0
CLASS
  1
HATCH
  2
AcDbHatch
  3
AutoCAD 2000
 90
        0
280
     0
281
     1
  0
CLASS
  1
XRECORD
  2
AcDbXrecord
  3
AutoCAD 2000
 90
        0
280
     0
281
     0
  0
CLASS
  1
LONG_TRANSACTION
  2
AcDbLongTransaction
  3
AutoCAD 2000
 90
        0
280
     0
281
     0
  0
CLASS
  1
LWPOLYLINE
  2
AcDbPolyline
  3
AutoCAD 2000
 90
        0
280
     0
281
     1
  0
CLASS
  1
HATCH
  2
AcDbHatch
  3
AutoCAD 2000
 90
        0
280
     0
281
     1
  0
CLASS
  1
XRECORD
  2
AcDbXrecord
  3
AutoCAD 2000
 90
        0
280
     0
281
     0
  0
CLASS
  1
LONG_TRANSACTION
  2
AcDbLongTransaction
  3
AutoCAD 2000
 90
        0
280
     0
281
     0
  0
CLASS
  1
LWPOLYLINE
  2
AcDbPolyline
  3
AutoCAD 2000
 90
        0
280
     0
281
     1
  0
CLASS
  1
HATCH
  2
AcDbHatch
  3
AutoCAD 2000
 90
        0
280
     0
281
     1
  0
CLASS
  1
XRECORD
  2
AcDbXrecord
  3
AutoCAD 2000
 90
        0
280
     0
281
     0
  0
CLASS
  1
LONG_TRANSACTION
  2
AcDbLongTransaction
  3
AutoCAD 2000
 90
        0
280
     0
281
     0
  0
CLASS
  1
LWPOLYLINE
  2
AcDbPolyline
  3
AutoCAD 2000
 90
        0
280
     0
281
     1
  0
CLASS
  1
HATCH
  2
AcDbHatch
  3
AutoCAD 2000
 90
        0
280
     0
281
     1
  0
CLASS
  1
XRECORD
  2
AcDbXrecord
  3
AutoCAD 2000
 90
        0
280
     0
281
     0
  0
CLASS
  1
LONG_TRANSACTION
  2
AcDbLongTransaction
  3
AutoCAD 2000
 90
        0
280
     0
281
     0
  0
CLASS
  1
LWPOLYLINE
  2
AcDbPolyline
  3
AutoCAD 2000
 90
        0
280
     0
281
     1
  0
CLASS
  1
HATCH
  2
AcDbHatch
  3
AutoCAD 2000
 90
        0
280
     0
281
     1
  0
CLASS
  1
XRECORD
  2
AcDbXrecord
  3
AutoCAD 2000
 90
        0
280
     0
281
     0
  0
CLASS
  1
LONG_TRANSACTION
  2
AcDbLongTransaction
  3
AutoCAD 2000
 90
        0
280
     0
281
     0
  0
CLASS
  1
LWPOLYLINE
  2
AcDbPolyline
  3
AutoCAD 2000
 90
        0
280
     0
281
     1
  0
CLASS
  1
HATCH
  2
AcDbHatch
  3
AutoCAD 2000
 90
        0
280
     0
281
     1
  0
CLASS
  1
XRECORD
  2
AcDbXrecord
  3
AutoCAD 2000
 90
        0
280
     0
281
     0
  0
CLASS
  1
LONG_TRANSACTION
  2
AcDbLongTransaction
  3
AutoCAD 2000
 90
        0
280
     0
281
     0
  0
CLASS
  1
LWPOLYLINE
  2
AcDbPolyline
  3
AutoCAD 2000
 90
        0
280
     0
281
     1
  0
CLASS
  1
HATCH
  2
AcDbHatch
  3
AutoCAD 2000
 90
        0
280
     0
281
     1
  0
CLASS
  1
XRECORD
  2
AcDbXrecord
  3
AutoCAD 2000
 90
        0
280
     0
281
     0
  0
CLASS
  1
LONG_TRANSACTION
  2
AcDbLongTransaction
  3
AutoCAD 2000
 90
        0
280
     0
281
     0
  0
CLASS
  1
LWPOLYLINE
  2
AcDbPolyline
  3
AutoCAD 2000
 90
        0
280
     0
281
     1
  0
CLASS
  1
HATCH
  2
AcDbHatch
  3
AutoCAD 2000
 90
        0
280
     0
281
     1
  0
CLASS
  1
XRECORD
  2
AcDbXrecord
  3
AutoCAD 2000
 90
        0
280
     0
281
     0
  0
CLASS
  1
LONG_TRANSACTION
  2
AcDbLongTransaction
  3
AutoCAD 2000
 90
        0
280
     0
281
     0
  0
CLASS
  1
LWPOLYLINE
  2
AcDbPolyline
  3
AutoCAD 2000
 90
        0
280
     0
281
     1
  0
CLASS
  1
HATCH
  2
AcDbHatch
  3
AutoCAD 2000
 90
        0
280
     0
281
     1
  0
CLASS
  1
XRECORD
  2
AcDbXrecord
  3
AutoCAD 2000
 90
        0
280
     0
281
     0
  0
CLASS
  1
LONG_TRANSACTION
  2
AcDbLongTransaction
  3
AutoCAD 2000
 90
        0
280
     0
281
     0
  0
CLASS
  1
LWPOLYLINE
  2
AcDbPolyline
  3
AutoCAD 2000
 90
        0
280
     0
281
     1
  0
CLASS
  1
HATCH
  2
AcDbHatch
  3
AutoCAD 2000
 90
        0
280
     0
281
     1
  0
CLASS
  1
XRECORD
  2
AcDbXrecord
  3
AutoCAD 2000
 90
        0
280
     0
281
     0
  0
CLASS
  1
LONG_TRANSACTION
  2
AcDbLongTransaction
  3
AutoCAD 2000
 90
        0
280
     0
281
     0
  0
CLASS
  1
LWPOLYLINE
  2
AcDbPolyline
  3
AutoCAD 2000
 90
        0
280
     0
281
     1
  0
CLASS
  1
HATCH
  2
AcDbHatch
  3
AutoCAD 2000
 90
        0
280
     0
281
     1
  0
CLASS
  1
XRECORD
  2
AcDbXrecord
  3
AutoCAD 2000
 90
        0
280
     0
281
     0
  0
CLASS
  1
LONG_TRANSACTION
  2
AcDbLongTransaction
  3
AutoCAD 2000
 90
        0
280
     0
281
     0
  0
CLASS
  1
LWPOLYLINE
  2
AcDbPolyline
  3
AutoCAD 2000
 90
        0
280
     0
281
     1
  0
CLASS
  1
HATCH
  2
AcDbHatch
  3
AutoCAD 2000
 90
        0
280
     0
281
     1
  0
CLASS
  1
XRECORD
  2
AcDbXrecord
  3
AutoCAD 2000
 90
        0
280
     0
281
     0
  0
CLASS
  1
LONG_TRANSACTION
  2
AcDbLongTransaction
  3
AutoCAD 2000
 90
        0
280
     0
281
     0
  0
CLASS
  1
LWPOLYLINE
  2
AcDbPolyline
  3
AutoCAD 2000
 90
        0
280
     0
281
     1
  0
CLASS
  1
HATCH
  2
AcDbHatch
  3
AutoCAD 2000
 90
        0
280
     0
281
     1
  0
CLASS
  1
XRECORD
  2
AcDbXrecord
  3
AutoCAD 2000
 90
        0
280
     0
281
     0
  0
CLASS
  1
LONG_TRANSACTION
  2
AcDbLongTransaction
  3
AutoCAD 2000
 90
        0
280
     0
281
     0
  0
CLASS
  1
LWPOLYLINE
  2
AcDbPolyline
  3
AutoCAD 2000
 90
        0
280
     0
281
     1
  0
CLASS
  1
HATCH
  2
AcDbHatch
  3
AutoCAD 2000
 90
        0
280
     0
281
     1
  0
CLASS
  1
XRECORD
  2
AcDbXrecord
  3
AutoCAD 2000
 90
        0
280
     0
281
     0
  0
CLASS
  1
LONG_TRANSACTION
  2
AcDbLongTransaction
  3
AutoCAD 2000
 90
        0
280
     0
281
     0
  0
CLASS
  1
LWPOLYLINE
  2
AcDbPolyline
  3
AutoCAD 2000
 90
        0
280
     0
281
     1
  0
CLASS
  1
HATCH
  2
AcDbHatch
  3
AutoCAD 2000
 90
        0
280
     0
281
     1
  0
CLASS
  1
XRECORD
  2
AcDbXrecord
  3
AutoCAD 2000
 90
        0
280
     0
281
     0
  0
CLASS
  1
LONG_TRANSACTION
  2
AcDbLongTransaction
  3
AutoCAD 2000
 90
        0
280
     0
281
     0
  0
CLASS
  1
LWPOLYLINE
  2
AcDbPolyline
  3
AutoCAD 2000
 90
        0
280
     0
281
     1
  0
CLASS
  1
HATCH
  2
AcDbHatch
  3
AutoCAD 2000
 90
        0
280
     0
281
     1
  0
CLASS
  1
XRECORD
  2
AcDbXrecord
  3
AutoCAD 2000
 90
        0
280
     0
281
     0
  0
CLASS
  1
LONG_TRANSACTION
  2
AcDbLongTransaction
  3
AutoCAD 2000
 90
        0
280
     0
281
     0
  0
CLASS
  1
LWPOLYLINE
  2
AcDbPolyline
  3
AutoCAD 2000
 90
        0
280
     0
281
     1
  0
CLASS
  1
HATCH
  2
AcDbHatch
  3
AutoCAD 2000
 90
        0
280
     0
281
     1
  0
CLASS
  1
XRECORD
  2
AcDbXrecord
  3
AutoCAD 2000
 90
        0
280
     0
281
     0
  0
CLASS
  1
LONG_TRANSACTION
  2
AcDbLongTransaction
  3
AutoCAD 2000
 90
        0
280
     0
281
     0
  0
CLASS
  1
LWPOLYLINE
  2
AcDbPolyline
  3
AutoCAD 2000
 90
        0
280
     0
281
     1
  0
CLASS
  1
HATCH
  2
AcDbHatch
  3
AutoCAD 2000
 90
        0
280
     0
281
     1
  0
CLASS
  1
XRECORD
  2
AcDbXrecord
  3
AutoCAD 2000
 90
        0
280
     0
281
     0
  0
CLASS
  1
LONG_TRANSACTION
  2
AcDbLongTransaction
  3
AutoCAD 2000
 90
        0
280
     0
281
     0
  0
CLASS
  1
LWPOLYLINE
  2
AcDbPolyline
  3
AutoCAD 2000
 90
        0
280
     0
281
     1
  0
CLASS
  1
HATCH
  2
AcDbHatch
  3
AutoCAD 2000
 90
        0
280
     0
281
     1
  0
CLASS
  1
XRECORD
  2
AcDbXrecord
  3
AutoCAD 2000
 90
        0
280
     0
281
     0
  0
CLASS
  1
LONG_TRANSACTION
  2
AcDbLongTransaction
  3
AutoCAD 2000
 90
        0
280
     0
281
     0
  0
CLASS
  1
LWPOLYLINE
  2
AcDbPolyline
  3
AutoCAD 2000
 90
        0
280
     0
281
     1
  0
CLASS
  1
HATCH
  2
AcDbHatch
  3
AutoCAD 2000
 90
        0
280
     0
281
     1
  0
CLASS
  1
XRECORD
  2
AcDbXrecord
  3
AutoCAD 2000
 90
        0
280
     0
281
     0
  0
CLASS
  1
LONG_TRANSACTION
  2
AcDbLongTransaction
  3
AutoCAD 2000
 90
        0
280
     0
281
     0
  0
CLASS
  1
LWPOLYLINE
  2
AcDbPolyline
  3
AutoCAD 2000
 90
        0
280
     0
281
     1
  0
CLASS
  1
HATCH
  2
AcDbHatch
  3
AutoCAD 2000
 90
        0
280
     0
281
     1
  0
CLASS
  1
XRECORD
  2
AcDbXrecord
  3
AutoCAD 2000
 90
        0
280
     0
281
     0
  0
CLASS
  1
LONG_TRANSACTION
  2
AcDbLongTransaction
  3
AutoCAD 2000
 90
        0
280
     0
281
     0
  0
CLASS
  1
LWPOLYLINE
  2
AcDbPolyline
  3
AutoCAD 2000
 90
        0
280
     0
281
     1
  0
CLASS
  1
HATCH
  2
AcDbHatch
  3
AutoCAD 2000
 90
        0
280
     0
281
     1
  0
CLASS
  1
XRECORD
  2
AcDbXrecord
  3
AutoCAD 2000
 90
        0
280
     0
281
     0
  0
CLASS
  1
LONG_TRANSACTION
  2
AcDbLongTransaction
  3
AutoCAD 2000
 90
        0
280
     0
281
     0
  0
CLASS
  1
LWPOLYLINE
  2
AcDbPolyline
  3
AutoCAD 2000
 90
        0
280
     0
281
     1
  0
CLASS
  1
HATCH
  2
AcDbHatch
  3
AutoCAD 2000
 90
        0
280
     0
281
     1
  0
CLASS
  1
XRECORD
  2
AcDbXrecord
  3
AutoCAD 2000
 90
        0
280
     0
281
     0
  0
CLASS
  1
LONG_TRANSACTION
  2
AcDbLongTransaction
  3
AutoCAD 2000
 90
        0
280
     0
281
     0
  0
CLASS
  1
LWPOLYLINE
  2
AcDbPolyline
  3
AutoCAD 2000
 90
        0
280
     0
281
     1
  0
CLASS
  1
HATCH
  2
AcDbHatch
  3
AutoCAD 2000
 90
        0
280
     0
281
     1
  0
CLASS
  1
XRECORD
  2
AcDbXrecord
  3
AutoCAD 2000
 90
        0
280
     0
281
     0
  0
CLASS
  1
LONG_TRANSACTION
  2
AcDbLongTransaction
  3
AutoCAD 2000
 90
        0
280
     0
281
     0
  0
CLASS
  1
LWPOLYLINE
  2
AcDbPolyline
  3
AutoCAD 2000
 90
        0
280
     0
281
     1
  0
CLASS
  1
HATCH
  2
AcDbHatch
  3
AutoCAD 2000
 90
        0
280
     0
281
     1
  0
CLASS
  1
XRECORD
  2
AcDbXrecord
  3
AutoCAD 2000
 90
        0
280
     0
281
     0
  0
CLASS
  1
LONG_TRANSACTION
  2
AcDbLongTransaction
  3
AutoCAD 2000
 90
        0
280
     0
281
     0
  0
CLASS
  1
LWPOLYLINE
  2
AcDbPolyline
  3
AutoCAD 2000
 90
        0
280
     0
281
     1
  0
CLASS
  1
HATCH
  2
AcDbHatch
  3
AutoCAD 2000
 90
        0
280
     0
281
     1
  0
CLASS
  1
XRECORD
  2
AcDbXrecord
  3
AutoCAD 2000
 90
        0
280
     0
281
     0
  0
CLASS
  1
LONG_TRANSACTION
  2
AcDbLongTransaction
  3
AutoCAD 2000
 90
        0
280
     0
281
     0
  0
CLASS
  1
LWPOLYLINE
  2
AcDbPolyline
  3
AutoCAD 2000
 90
        0
280
     0
281
     1
  0
CLASS
  1
HATCH
  2
AcDbHatch
  3
AutoCAD 2000
 90
        0
280
     0
281
     1
  0
CLASS
  1
XRECORD
  2
AcDbXrecord
  3
AutoCAD 2000
 90
        0
280
     0
281
     0
  0
CLASS
  1
LONG_TRANSACTION
  2
AcDbLongTransaction
  3
AutoCAD 2000
 90
        0
280
     0
281
     0
  0
CLASS
  1
LWPOLYLINE
  2
AcDbPolyline
  3
AutoCAD 2000
 90
        0
280
     0
281
     1
  0
CLASS
  1
HATCH
  2
AcDbHatch
  3
AutoCAD 2000
 90
        0
280
     0
281
     1
  0
CLASS
  1
XRECORD
  2
AcDbXrecord
  3
AutoCAD 2000
 90
        0
280
     0
281
     0
  0
CLASS
  1
LONG_TRANSACTION
  2
AcDbLongTransaction
  3
AutoCAD 2000
 90
        0
280
     0
281
     0
  0
CLASS
  1
LWPOLYLINE
  2
AcDbPolyline
  3
AutoCAD 2000
 90
        0
280
     0
281
     1
  0
CLASS
  1
HATCH
  2
AcDbHatch
  3
AutoCAD 2000
 90
        0
280
     0
281
     1
  0
CLASS
  1
XRECORD
  2
AcDbXrecord
  3
AutoCAD 2000
 90
        0
280
     0
281
     0
  0
CLASS
  1
LONG_TRANSACTION
  2
AcDbLongTransaction
  3
AutoCAD 2000
 90
        0
280
     0
281
     0
  0
CLASS
  1
LWPOLYLINE
  2
AcDbPolyline
  3
AutoCAD 2000
 90
        0
280
     0
281
     1
  0
CLASS
  1
HATCH
  2
AcDbHatch
  3
AutoCAD 2000
 90
        0
280
     0
281
     1
  0
CLASS
  1
XRECORD
  2
AcDbXrecord
  3
AutoCAD 2000
 90
        0
280
     0
281
     0
  0
CLASS
  1
LONG_TRANSACTION
  2
AcDbLongTransaction
  3
AutoCAD 2000
 90
        0
280
     0
281
     0
  0
CLASS
  1
LWPOLYLINE
  2
AcDbPolyline
  3
AutoCAD 2000
 90
        0
280
     0
281
     1
  0
CLASS
  1
HATCH
  2
AcDbHatch
  3
AutoCAD 2000
 90
        0
280
     0
281
     1
  0
CLASS
  1
XRECORD
  2
AcDbXrecord
  3
AutoCAD 2000
 90
        0
280
     0
281
     0
  0
CLASS
  1
LONG_TRANSACTION
  2
AcDbLongTransaction
  3
AutoCAD 2000
 90
        0
280
     0
281
     0
  0
CLASS
  1
LWPOLYLINE
  2
AcDbPolyline
  3
AutoCAD 2000
 90
        0
280
     0
281
     1
  0
CLASS
  1
HATCH
  2
AcDbHatch
  3
AutoCAD 2000
 90
        0
280
     0
281
     1
  0
CLASS
  1
XRECORD
  2
AcDbXrecord
  3
AutoCAD 2000
 90
        0
280
     0
281
     0
  0
CLASS
  1
LONG_TRANSACTION
  2
AcDbLongTransaction
  3
AutoCAD 2000
 90
        0
280
     0
281
     0
  0
CLASS
  1
LWPOLYLINE
  2
AcDbPolyline
  3
AutoCAD 2000
 90
        0
280
     0
281
     1
  0
CLASS
  1
HATCH
  2
AcDbHatch
  3
AutoCAD 2000
 90
        0
280
     0
281
     1
  0
CLASS
  1
XRECORD
  2
AcDbXrecord
  3
AutoCAD 2000
 90
        0
280
     0
281
     0
  0
CLASS
  1
LONG_TRANSACTION
  2
AcDbLongTransaction
  3
AutoCAD 2000
 90
        0
280
     0
281
     0
  0
CLASS
  1
LWPOLYLINE
  2
AcDbPolyline
  3
AutoCAD 2000
 90
        0
280
     0
281
     1
  0
CLASS
  1
HATCH
  2
AcDbHatch
  3
AutoCAD 2000
 90
        0
280
     0
281
     1
  0
CLASS
  1
XRECORD
  2
AcDbXrecord
  3
AutoCAD 2000
 90
        0
280
     0
281
     0
  0
CLASS
  1
LONG_TRANSACTION
  2
AcDbLongTransaction
  3
AutoCAD 2000
 90
        0
280
     0
281
     0
  0
CLASS
  1
LWPOLYLINE
  2
AcDbPolyline
  3
AutoCAD 2000
 90
        0
280
     0
281
     1
  0
CLASS
  1
HATCH
  2
AcDbHatch
  3
AutoCAD 2000
 90
        0
280
     0
281
     1
  0
CLASS
  1
XRECORD
  2
AcDbXrecord
  3
AutoCAD 2000
 90
        0
280
     0
281
     0
  0
CLASS
  1
LONG_TRANSACTION
  2
AcDbLongTransaction
  3
AutoCAD 2000
 90
        0
280
     0
281
     0
  0
CLASS
  1
LWPOLYLINE
  2
AcDbPolyline
  3
AutoCAD 2000
 90
        0
280
     0
281
     1
  0
CLASS
  1
HATCH
  2
AcDbHatch
  3
AutoCAD 2000
 90
        0
280
     0
281
     1
  0
CLASS
  1
XRECORD
  2
AcDbXrecord
  3
AutoCAD 2000
 90
        0
280
     0
281
     0
  0
CLASS
  1
LONG_TRANSACTION
  2
AcDbLongTransaction
  3
AutoCAD 2000
 90
        0
280
     0
281
     0
  0
CLASS
  1
LWPOLYLINE
  2
AcDbPolyline
  3
AutoCAD 2000
 90
        0
280
     0
281
     1
  0
CLASS
  1
HATCH
  2
AcDbHatch
  3
AutoCAD 2000
 90
        0
280
     0
281
     1
  0
CLASS
  1
XRECORD
  2
AcDbXrecord
  3
AutoCAD 2000
 90
        0
280
     0
281
     0
  0
CLASS
  1
LONG_TRANSACTION
  2
AcDbLongTransaction
  3
AutoCAD 2000
 90
        0
280
     0
281
     0
  0
CLASS
  1
LWPOLYLINE
  2
AcDbPolyline
  3
AutoCAD 2000
 90
        0
280
     0
281
     1
  0
CLASS
  1
HATCH
  2
AcDbHatch
  3
AutoCAD 2000
 90
        0
280
     0
281
     1
  0
CLASS
  1
XRECORD
  2
AcDbXrecord
  3
AutoCAD 2000
 90
        0
280
     0
281
     0
  0
CLASS
  1
LONG_TRANSACTION
  2
AcDbLongTransaction
  3
AutoCAD 2000
 90
        0
280
     0
281
     0
  0
CLASS
  1
LWPOLYLINE
  2
AcDbPolyline
  3
AutoCAD 2000
 90
        0
280
     0
281
     1
  0
CLASS
  1
HATCH
  2
AcDbHatch
  3
AutoCAD 2000
 90
        0
280
     0
281
     1
  0
CLASS
  1
XRECORD
  2
AcDbXrecord
  3
AutoCAD 2000
 90
        0
280
     0
281
     0
  0
CLASS
  1
LONG_TRANSACTION
  2
AcDbLongTransaction
  3
AutoCAD 2000
 90
        0
280
     0
281
     0
  0
CLASS
  1
LWPOLYLINE
  2
AcDbPolyline
  3
AutoCAD 2000
 90
        0
280
     0
281
     1
  0
CLASS
  1
HATCH
  2
AcDbHatch
  3
AutoCAD 2000
 90
        0
280
     0
281
     1
  0
CLASS
  1
XRECORD
  2
AcDbXrecord
  3
AutoCAD 2000
 90
        0
280
     0
281
     0
  0
CLASS
  1
LONG_TRANSACTION
  2
AcDbLongTransaction
  3
AutoCAD 2000
 90
        0
280
     0
281
     0
  0
CLASS
  1
LWPOLYLINE
  2
AcDbPolyline
  3
AutoCAD 2000
 90
        0
280
     0
281
     1
  0
CLASS
  1
HATCH
  2
AcDbHatch
  3
AutoCAD 2000
 90
        0
280
     0
281
     1
  0
CLASS
  1
XRECORD
  2
AcDbXrecord
  3
AutoCAD 2000
 90
        0
280
     0
281
     0
  0
CLASS
  1
LONG_TRANSACTION
  2
AcDbLongTransaction
  3
AutoCAD 2000
 90
        0
280
     0
281
     0
  0
CLASS
  1
LWPOLYLINE
  2
AcDbPolyline
  3
AutoCAD 2000
 90
        0
280
     0
281
     1
  0
CLASS
  1
HATCH
  2
AcDbHatch
  3
AutoCAD 2000
 90
        0
280
     0
281
     1
  0
CLASS
  1
XRECORD
  2
AcDbXrecord
  3
AutoCAD 2000
 90
        0
280
     0
281
     0
  0
CLASS
  1
LONG_TRANSACTION
  2
AcDbLongTransaction
  3
AutoCAD 2000
 90
        0
280
     0
281
     0
  0
CLASS
  1
LWPOLYLINE
  2
AcDbPolyline
  3
AutoCAD 2000
 90
        0
280
     0
281
     1
  0
CLASS
  1
HATCH
  2
AcDbHatch
  3
AutoCAD 2000
 90
        0
280
     0
281
     1
  0
CLASS
  1
XRECORD
  2
AcDbXrecord
  3
AutoCAD 2000
 90
        0
280
     0
281
     0
  0
CLASS
  1
LONG_TRANSACTION
  2
AcDbLongTransaction
  3
AutoCAD 2000
 90
        0
280
     0
281
     0
  0
CLASS
  1
LWPOLYLINE
  2
AcDbPolyline
  3
AutoCAD 2000
 90
        0
280
     0
281
     1
  0
CLASS
  1
HATCH
  2
AcDbHatch
  3
AutoCAD 2000
 90
        0
280
     0
281
     1
  0
CLASS
  1
XRECORD
  2
AcDbXrecord
  3
AutoCAD 2000
 90
        0
280
     0
281
     0
  0
CLASS
  1
LONG_TRANSACTION
  2
AcDbLongTransaction
  3
AutoCAD 2000
 90
        0
280
     0
281
     0
  0
CLASS
  1
LWPOLYLINE
  2
AcDbPolyline
  3
AutoCAD 2000
 90
        0
280
     0
281
     1
  0
CLASS
  1
HATCH
  2
AcDbHatch
  3
AutoCAD 2000
 90
        0
280
     0
281
     1
  0
CLASS
  1
XRECORD
  2
AcDbXrecord
  3
AutoCAD 2000
 90
        0
280
     0
281
     0
  0
CLASS
  1
LONG_TRANSACTION
  2
AcDbLongTransaction
  3
AutoCAD 2000
 90
        0
280
     0
281
     0
  0
CLASS
  1
LWPOLYLINE
  2
AcDbPolyline
  3
AutoCAD 2000
 90
        0
280
     0
281
     1
  0
CLASS
  1
HATCH
  2
AcDbHatch
  3
AutoCAD 2000
 90
        0
280
     0
281
     1
  0
CLASS
  1
XRECORD
  2
AcDbXrecord
  3
AutoCAD 2000
 90
        0
280
     0
281
     0
  0
ENDSEC
  0
SECTION
  2
TABLES
  0
TABLE
  2
VPORT
  5
92
330
0
100
AcDbSymbolTable
 70
     2
  0
VPORT
  5
5D0
330
92
100
AcDbSymbolTableRecord
100
AcDbViewportTableRecord
  2
*ACTIVE
 70
     0
 10
0.0
 20
0.0
 11
1.0
 21
1.0
 12
208.6572102509308
 22
276.1455282017996
 13
0.0
 23
0.0
 14
10.0
 24
10.0
 15
10.0
 25
10.0
 16
0.0
 26
0.0
 36
1.0
 17
0.0
 27
0.0
 37
0.0
 40
556.4803690943977
 41
1.549367088607595
 42
50.0
 43
0.0
 44
0.0
 50
0.0
 51
0.0
 71
     0
 72
 10000
 73
     1
 74
     3
 75
     0
 76
     0
 77
     0
 78
     1
  0
ENDTAB
  0
TABLE
  2
LTYPE
  5
8D
330
0
100
AcDbSymbolTable
 70
     4
  0
LTYPE
  5
8E
330
8D
100
AcDbSymbolTableRecord
100
AcDbLinetypeTableRecord
  2
BYBLOCK
 70
     0
  3

 72
    65
 73
     0
 40
0.0
  0
LTYPE
  5
8F
330
8D
100
AcDbSymbolTableRecord
100
AcDbLinetypeTableRecord
  2
BYLAYER
 70
     0
  3

 72
    65
 73
     0
 40
0.0
  0
LTYPE
  5
A
330
8D
100
AcDbSymbolTableRecord
100
AcDbLinetypeTableRecord
  2
CONTINUOUS
 70
     0
  3
Solid line
 72
    65
 73
     0
 40
0.0
  0
LTYPE
  5
A3
330
8D
100
AcDbSymbolTableRecord
100
AcDbLinetypeTableRecord
  2
CENTER
 70
     0
  3
Center ____ _ ____ _ ____ _ ____ _ ____ _ ____
 72
    65
 73
     4
 40
50.8
 49
31.75
 74
     0
 49
-6.349999999999998
 74
     0
 49
6.349999999999998
 74
     0
 49
-6.349999999999998
 74
     0
  0
LTYPE
  5
A2
330
8D
100
AcDbSymbolTableRecord
100
AcDbLinetypeTableRecord
  2
CENTERX2
 70
     0
  3
Center (2x) ________  __  ________  __  _____
 72
    65
 73
     4
 40
101.6
 49
63.5
 74
     0
 49
-12.7
 74
     0
 49
12.7
 74
     0
 49
-12.7
 74
     0
  0
LTYPE
  5
26B
330
8D
100
AcDbSymbolTableRecord
100
AcDbLinetypeTableRecord
  2
HIDDEN
 70
     0
  3
Hidden __ __ __ __ __ __ __ __ __ __ __ __ __ _
 72
    65
 73
     2
 40
9.524999999999996
 49
6.349999999999998
 74
     0
 49
-3.174999999999998
 74
     0
  0
ENDTAB
  0
TABLE
  2
LAYER
  5
14
102
{ACAD_XDICTIONARY
360
15
102
}
330
0
100
AcDbSymbolTable
 70
     8
  0
LAYER
  5
6
330
14
100
AcDbSymbolTableRecord
100
AcDbLayerTableRecord
  2
0
 70
     0
 62
     7
  6
CONTINUOUS
  0
LAYER
  5
118
330
14
100
AcDbSymbolTableRecord
100
AcDbLayerTableRecord
  2
3
 70
     0
 62
     3
  6
CONTINUOUS
  0
LAYER
  5
201
330
14
100
AcDbSymbolTableRecord
100
AcDbLayerTableRecord
  2
1
 70
     0
 62
     1
  6
CENTER
  0
LAYER
  5
B8
330
14
100
AcDbSymbolTableRecord
100
AcDbLayerTableRecord
  2
DEFPOINTS
 70
     0
 62
     7
  6
CONTINUOUS
  0
LAYER
  5
173
330
14
100
AcDbSymbolTableRecord
100
AcDbLayerTableRecord
  2
DIM
 70
     0
 62
     3
  6
CONTINUOUS
  0
LAYER
  5
A1
330
14
100
AcDbSymbolTableRecord
100
AcDbLayerTableRecord
  2
CL
 70
     0
 62
     1
  6
CENTERX2
  0
LAYER
  5
CC
330
14
100
AcDbSymbolTableRecord
100
AcDbLayerTableRecord
  2
CEN
 70
     0
 62
     1
  6
CENTER
  0
LAYER
  5
354
330
14
100
AcDbSymbolTableRecord
100
AcDbLayerTableRecord
  2
2
 70
     0
 62
     2
  6
CONTINUOUS
  0
ENDTAB
  0
TABLE
  2
STYLE
  5
8A
330
0
100
AcDbSymbolTable
 70
     2
  0
STYLE
  5
8B
330
8A
100
AcDbSymbolTableRecord
100
AcDbTextStyleTableRecord
  2
STANDARD
 70
     0
 40
0.0
 41
1.0
 50
0.0
 71
     0
 42
5.777225951253058
  3
romans.shx
  4
whgtxt.shx
  0
STYLE
  5
225
330
8A
100
AcDbSymbolTableRecord
100
AcDbTextStyleTableRecord
  2
GHS
 70
     0
 40
0.0
 41
0.6
 50
0.0
 71
     0
 42
3.0
  3
ROMANS
  4
GHS
  0
ENDTAB
  0
TABLE
  2
VIEW
  5
90
330
0
100
AcDbSymbolTable
 70
     0
  0
ENDTAB
  0
TABLE
  2
UCS
  5
91
330
0
100
AcDbSymbolTable
 70
     0
  0
ENDTAB
  0
TABLE
  2
APPID
  5
94
330
0
100
AcDbSymbolTable
 70
     2
  0
APPID
  5
95
330
94
100
AcDbSymbolTableRecord
100
AcDbRegAppTableRecord
  2
ACAD
 70
     0
  0
APPID
  5
5F4
330
94
100
AcDbSymbolTableRecord
100
AcDbRegAppTableRecord
  2
CONTENTBLOCKICON
 70
     0
  0
ENDTAB
  0
TABLE
  2
DIMSTYLE
  5
96
330
0
100
AcDbSymbolTable
 70
     2
  0
DIMSTYLE
105
AF
102
{ACAD_REACTORS
330
3CD
330
2C2
330
2FC
330
357
330
161
330
17B
330
18D
330
1A2
330
1B7
330
BD
330
369
330
2B3
330
30F
330
31D
330
332
330
38B
330
3B8
330
AC
330
3A5
330
2EC
330
343
330
215
330
287
330
296
330
11B
330
151
330
CD
330
12E
330
13E
330
25B
330
DF
330
26F
330
FD
330
EC
330
1E2
330
1F3
330
3E7
102
}
330
96
100
AcDbSymbolTableRecord
100
AcDbDimStyleTableRecord
  2
STANDARD
 70
     0
  3

  4

  5

  6

  7

 40
1.0
 41
2.5
 42
1.0
 43
10.0
 44
0.6
 45
0.0
 46
0.0
 47
0.0
 48
0.0
140
3.0
141
0.09
142
0.0
143
25.4
144
1.0
145
0.0
146
1.0
147
1.0
 71
     0
 72
     0
 73
     0
 74
     0
 75
     0
 76
     0
 77
     1
 78
     8
170
     0
171
     2
172
     1
173
     0
174
     1
175
     0
176
   123
177
   123
178
     3
270
     2
271
     2
272
     2
273
     2
274
     2
340
8B
275
     1
280
     0
281
     0
282
     0
283
     1
284
     0
285
     0
286
     0
287
     0
288
     1
  0
DIMSTYLE
105
9C
330
96
100
AcDbSymbolTableRecord
100
AcDbDimStyleTableRecord
  2
1_1_2
 70
     0
  3

  4

  5

  6

  7

 40
1.0
 41
3.0
 42
1.0
 43
10.0
 44
0.6
 45
0.0
 46
0.0
 47
0.0
 48
0.0
140
3.5
141
0.09
142
0.0
143
25.4
144
1.0
145
0.0
146
1.0
147
1.0
 71
     0
 72
     0
 73
     0
 74
     0
 75
     0
 76
     0
 77
     1
 78
     8
170
     0
171
     2
172
     1
173
     0
174
     1
175
     0
176
   123
177
   123
178
     3
270
     2
271
     2
272
     2
273
     2
274
     2
340
8B
275
     1
280
     0
281
     0
282
     0
283
     1
284
     0
285
     0
286
     0
287
     0
288
     1
  0
ENDTAB
  0
TABLE
  2
BLOCK_RECORD
  5
1
330
0
100
AcDbSymbolTable
 70
    74
  0
BLOCK_RECORD
  5
2
102
{ACAD_XDICTIONARY
360
3
102
}
330
1
100
AcDbSymbolTableRecord
100
AcDbBlockTableRecord
  2
*MODEL_SPACE
  0
BLOCK_RECORD
  5
E
102
{ACAD_XDICTIONARY
360
F
102
}
330
1
100
AcDbSymbolTableRecord
100
AcDbBlockTableRecord
  2
*PAPER_SPACE
  0
BLOCK_RECORD
  5
3D0
330
1
100
AcDbSymbolTableRecord
100
AcDbBlockTableRecord
  2
*D0
  0
BLOCK_RECORD
  5
3C8
330
1
100
AcDbSymbolTableRecord
100
AcDbBlockTableRecord
  2
4
1001
ACAD
1000
DesignCenter Data
1002
{
1070
     1
1070
     4
1002
}
1001
CONTENTBLOCKICON
1071
        0
1004
2800000020000000200000000100080000000000000400000000000000000000000000000000000000000000000080000080000000808000800000008000800080800000C0C0C000C0DCC000F0CAA6000020400000206000002080000020A0000020C0000020E00000400000004020000040400000406000004080000040A0
1004
000040C0000040E00000600000006020000060400000606000006080000060A0000060C0000060E00000800000008020000080400000806000008080000080A0000080C0000080E00000A0000000A0200000A0400000A0600000A0800000A0A00000A0C00000A0E00000C0000000C0200000C0400000C0600000C0800000C0
1004
A00000C0C00000C0E00000E0000000E0200000E0400000E0600000E0800000E0A00000E0C00000E0E00040000000400020004000400040006000400080004000A0004000C0004000E00040200000402020004020400040206000402080004020A0004020C0004020E000404000004040200040404000404060004040800040
1004
40A0004040C0004040E00040600000406020004060400040606000406080004060A0004060C0004060E00040800000408020004080400040806000408080004080A0004080C0004080E00040A0000040A0200040A0400040A0600040A0800040A0A00040A0C00040A0E00040C0000040C0200040C0400040C0600040C08000
1004
40C0A00040C0C00040C0E00040E0000040E0200040E0400040E0600040E0800040E0A00040E0C00040E0E00080000000800020008000400080006000800080008000A0008000C0008000E00080200000802020008020400080206000802080008020A0008020C0008020E00080400000804020008040400080406000804080
1004
008040A0008040C0008040E00080600000806020008060400080606000806080008060A0008060C0008060E00080800000808020008080400080806000808080008080A0008080C0008080E00080A0000080A0200080A0400080A0600080A0800080A0A00080A0C00080A0E00080C0000080C0200080C0400080C0600080C0
1004
800080C0A00080C0C00080C0E00080E0000080E0200080E0400080E0600080E0800080E0A00080E0C00080E0E000C0000000C0002000C0004000C0006000C0008000C000A000C000C000C000E000C0200000C0202000C0204000C0206000C0208000C020A000C020C000C020E000C0400000C0402000C0404000C0406000C0
1004
408000C040A000C040C000C040E000C0600000C0602000C0604000C0606000C0608000C060A000C060C000C060E000C0800000C0802000C0804000C0806000C0808000C080A000C080C000C080E000C0A00000C0A02000C0A04000C0A06000C0A08000C0A0A000C0A0C000C0A0E000C0C00000C0C02000C0C04000C0C06000
1004
C0C08000C0C0A000F0FBFF00A4A0A000808080000000FF0000FF000000FFFF00FF000000FF00FF00FFFF0000FFFFFF0000000000000000000000000000000000000000000000000000000000000000000000000000000000000000000000000000000000000000000000000000000000000000000000000000000000000000
1004
0000000000000000000000000000000000000000FFFFFFFFFFFFFFFFFFFFFFFFFFFFFFFFFFFFFFFFFF000000000000000000FFFFFF00F9000000000000000000000000000000F9FFF9FF0000000000000000FF00FFF90000000000000000000000000000000000FFFFFF0000000000000000F3F3F9F9000000000000000000
1004
00000000000000F9FFF9FF0000000000000000FFF9000000000000000000000000000000000000000000FF0000000000000000FF00F3F300000000000000000000000000000000000000FF0000000000000000FF000000F3000000000000000000000000000000000000FF0000000000000000FF00000000F3000000000000
1004
0000000000000000000000FF0000000000000000FF0000000000F3F3000000000000000000000000000000FF0000000000000000FF00000000000000F30000000000000000000000000000FF0000000000000000FF0000000000000000F3F3000000000000000000000000FF0000000000000000FF00000000000000000000
1004
F30000000000000000000000FF0000000000000000FF0000000000000000000000F300000000000000000000FF0000000000000000FF000000000000000000000000F3F30000000000000000FF0000000000000000FF0000000000000000000000000000F300000000000000FF0000000000000000FF000000000000000000
1004
000000000000F3F30000000000FF0000000000000000FF0000000000000000000000000000000000F300000000FF0000000000000000FF000000000000000000000000000000000000F3000000FF0000000000000000FF00000000000000000000000000000000000000F3F300FF0000000000000000FF0000000000000000
1004
00000000000000000000000000FFFF0000000000000000FF00FFF900000000000000000000000000000000F9F900F30000000000000000FF00FFFF00000000000000000000000000000000F9F9FFFFFAF300000000000000FFF900F90000000000000000000000000000F90000F9FFFAFAF300000000000000FFFFFFFFFFFF
1004
FFFFFFFFFFFFFFFFFFFFFFFFFFFFFF0000FAFAFAF30000000000000000000000000000000000000000000000000000000000FAFAFAF30000000000000000000000000000000000000000000000000000000000FAFA000000000000000000000000000000000000000000000000000000000000000000000000000000000000
1004
0000000000000000000000000000000000000000000000000000000000000000000000000000000000000000000000000000000000000000
  0
BLOCK_RECORD
  5
2FD
330
1
100
AcDbSymbolTableRecord
100
AcDbBlockTableRecord
  2
*D2
  0
BLOCK_RECORD
  5
358
330
1
100
AcDbSymbolTableRecord
100
AcDbBlockTableRecord
  2
*D3
  0
BLOCK_RECORD
  5
17C
330
1
100
AcDbSymbolTableRecord
100
AcDbBlockTableRecord
  2
*D4
  0
BLOCK_RECORD
  5
36A
330
1
100
AcDbSymbolTableRecord
100
AcDbBlockTableRecord
  2
*D5
  0
BLOCK_RECORD
  5
2B4
330
1
100
AcDbSymbolTableRecord
100
AcDbBlockTableRecord
  2
*D6
  0
BLOCK_RECORD
  5
310
330
1
100
AcDbSymbolTableRecord
100
AcDbBlockTableRecord
  2
*D7
  0
BLOCK_RECORD
  5
333
330
1
100
AcDbSymbolTableRecord
100
AcDbBlockTableRecord
  2
*D8
  0
BLOCK_RECORD
  5
38C
330
1
100
AcDbSymbolTableRecord
100
AcDbBlockTableRecord
  2
*D9
  0
BLOCK_RECORD
  5
2ED
330
1
100
AcDbSymbolTableRecord
100
AcDbBlockTableRecord
  2
*D10
  0
BLOCK_RECORD
  5
25C
330
1
100
AcDbSymbolTableRecord
100
AcDbBlockTableRecord
  2
*D11
  0
BLOCK_RECORD
  5
E0
330
1
100
AcDbSymbolTableRecord
100
AcDbBlockTableRecord
  2
*D12
  0
BLOCK_RECORD
  5
270
330
1
100
AcDbSymbolTableRecord
100
AcDbBlockTableRecord
  2
*D13
  0
BLOCK_RECORD
  5
1F4
330
1
100
AcDbSymbolTableRecord
100
AcDbBlockTableRecord
  2
*D14
  0
BLOCK_RECORD
  5
3E8
330
1
100
AcDbSymbolTableRecord
100
AcDbBlockTableRecord
  2
*D15
  0
BLOCK_RECORD
  5
2C5
330
1
100
AcDbSymbolTableRecord
100
AcDbBlockTableRecord
  2
*D16
  0
BLOCK_RECORD
  5
164
330
1
100
AcDbSymbolTableRecord
100
AcDbBlockTableRecord
  2
*D17
  0
BLOCK_RECORD
  5
190
330
1
100
AcDbSymbolTableRecord
100
AcDbBlockTableRecord
  2
*D18
  0
BLOCK_RECORD
  5
1A5
330
1
100
AcDbSymbolTableRecord
100
AcDbBlockTableRecord
  2
*D19
  0
BLOCK_RECORD
  5
1BA
330
1
100
AcDbSymbolTableRecord
100
AcDbBlockTableRecord
  2
*D20
  0
BLOCK_RECORD
  5
C0
330
1
100
AcDbSymbolTableRecord
100
AcDbBlockTableRecord
  2
*D21
  0
BLOCK_RECORD
  5
320
330
1
100
AcDbSymbolTableRecord
100
AcDbBlockTableRecord
  2
*D22
  0
BLOCK_RECORD
  5
3BB
330
1
100
AcDbSymbolTableRecord
100
AcDbBlockTableRecord
  2
*D23
  0
BLOCK_RECORD
  5
B0
330
1
100
AcDbSymbolTableRecord
100
AcDbBlockTableRecord
  2
*D24
  0
BLOCK_RECORD
  5
3A8
330
1
100
AcDbSymbolTableRecord
100
AcDbBlockTableRecord
  2
*D25
  0
BLOCK_RECORD
  5
346
330
1
100
AcDbSymbolTableRecord
100
AcDbBlockTableRecord
  2
*D26
  0
BLOCK_RECORD
  5
218
330
1
100
AcDbSymbolTableRecord
100
AcDbBlockTableRecord
  2
*D27
  0
BLOCK_RECORD
  5
28A
330
1
100
AcDbSymbolTableRecord
100
AcDbBlockTableRecord
  2
*D28
  0
BLOCK_RECORD
  5
299
330
1
100
AcDbSymbolTableRecord
100
AcDbBlockTableRecord
  2
*D29
  0
BLOCK_RECORD
  5
11E
330
1
100
AcDbSymbolTableRecord
100
AcDbBlockTableRecord
  2
*D30
  0
BLOCK_RECORD
  5
154
330
1
100
AcDbSymbolTableRecord
100
AcDbBlockTableRecord
  2
*D31
  0
BLOCK_RECORD
  5
D0
330
1
100
AcDbSymbolTableRecord
100
AcDbBlockTableRecord
  2
*D32
  0
BLOCK_RECORD
  5
131
330
1
100
AcDbSymbolTableRecord
100
AcDbBlockTableRecord
  2
*D33
  0
BLOCK_RECORD
  5
141
330
1
100
AcDbSymbolTableRecord
100
AcDbBlockTableRecord
  2
*D34
  0
BLOCK_RECORD
  5
100
330
1
100
AcDbSymbolTableRecord
100
AcDbBlockTableRecord
  2
*D35
  0
BLOCK_RECORD
  5
EF
330
1
100
AcDbSymbolTableRecord
100
AcDbBlockTableRecord
  2
*D36
  0
BLOCK_RECORD
  5
1E5
330
1
100
AcDbSymbolTableRecord
100
AcDbBlockTableRecord
  2
*D37
  0
BLOCK_RECORD
  5
3FE
330
1
100
AcDbSymbolTableRecord
100
AcDbBlockTableRecord
  2
*D38
  0
BLOCK_RECORD
  5
409
330
1
100
AcDbSymbolTableRecord
100
AcDbBlockTableRecord
  2
*D39
  0
BLOCK_RECORD
  5
415
330
1
100
AcDbSymbolTableRecord
100
AcDbBlockTableRecord
  2
*D40
  0
BLOCK_RECORD
  5
421
330
1
100
AcDbSymbolTableRecord
100
AcDbBlockTableRecord
  2
*D41
  0
BLOCK_RECORD
  5
42F
330
1
100
AcDbSymbolTableRecord
100
AcDbBlockTableRecord
  2
*D42
  0
BLOCK_RECORD
  5
43B
330
1
100
AcDbSymbolTableRecord
100
AcDbBlockTableRecord
  2
*D43
  0
BLOCK_RECORD
  5
447
330
1
100
AcDbSymbolTableRecord
100
AcDbBlockTableRecord
  2
*D44
  0
BLOCK_RECORD
  5
453
330
1
100
AcDbSymbolTableRecord
100
AcDbBlockTableRecord
  2
*D45
  0
BLOCK_RECORD
  5
45F
330
1
100
AcDbSymbolTableRecord
100
AcDbBlockTableRecord
  2
*D46
  0
BLOCK_RECORD
  5
46B
330
1
100
AcDbSymbolTableRecord
100
AcDbBlockTableRecord
  2
*D47
  0
BLOCK_RECORD
  5
477
330
1
100
AcDbSymbolTableRecord
100
AcDbBlockTableRecord
  2
*D48
  0
BLOCK_RECORD
  5
483
330
1
100
AcDbSymbolTableRecord
100
AcDbBlockTableRecord
  2
*D49
  0
BLOCK_RECORD
  5
491
330
1
100
AcDbSymbolTableRecord
100
AcDbBlockTableRecord
  2
*D50
  0
BLOCK_RECORD
  5
49D
330
1
100
AcDbSymbolTableRecord
100
AcDbBlockTableRecord
  2
*D51
  0
BLOCK_RECORD
  5
4A9
330
1
100
AcDbSymbolTableRecord
100
AcDbBlockTableRecord
  2
*D52
  0
BLOCK_RECORD
  5
4B7
330
1
100
AcDbSymbolTableRecord
100
AcDbBlockTableRecord
  2
*D53
  0
BLOCK_RECORD
  5
4C3
330
1
100
AcDbSymbolTableRecord
100
AcDbBlockTableRecord
  2
*D54
  0
BLOCK_RECORD
  5
4D1
330
1
100
AcDbSymbolTableRecord
100
AcDbBlockTableRecord
  2
*D55
  0
BLOCK_RECORD
  5
4DF
330
1
100
AcDbSymbolTableRecord
100
AcDbBlockTableRecord
  2
*D56
  0
BLOCK_RECORD
  5
4ED
330
1
100
AcDbSymbolTableRecord
100
AcDbBlockTableRecord
  2
*D57
  0
BLOCK_RECORD
  5
4F9
330
1
100
AcDbSymbolTableRecord
100
AcDbBlockTableRecord
  2
*D58
  0
BLOCK_RECORD
  5
505
330
1
100
AcDbSymbolTableRecord
100
AcDbBlockTableRecord
  2
*D59
  0
BLOCK_RECORD
  5
513
330
1
100
AcDbSymbolTableRecord
100
AcDbBlockTableRecord
  2
*D60
  0
BLOCK_RECORD
  5
51F
330
1
100
AcDbSymbolTableRecord
100
AcDbBlockTableRecord
  2
*D61
  0
BLOCK_RECORD
  5
52A
330
1
100
AcDbSymbolTableRecord
100
AcDbBlockTableRecord
  2
*D62
  0
BLOCK_RECORD
  5
536
330
1
100
AcDbSymbolTableRecord
100
AcDbBlockTableRecord
  2
*D63
  0
BLOCK_RECORD
  5
542
330
1
100
AcDbSymbolTableRecord
100
AcDbBlockTableRecord
  2
*D64
  0
BLOCK_RECORD
  5
54E
330
1
100
AcDbSymbolTableRecord
100
AcDbBlockTableRecord
  2
*D65
  0
BLOCK_RECORD
  5
55C
330
1
100
AcDbSymbolTableRecord
100
AcDbBlockTableRecord
  2
*D66
  0
BLOCK_RECORD
  5
56A
330
1
100
AcDbSymbolTableRecord
100
AcDbBlockTableRecord
  2
*D67
  0
BLOCK_RECORD
  5
576
330
1
100
AcDbSymbolTableRecord
100
AcDbBlockTableRecord
  2
*D68
  0
BLOCK_RECORD
  5
582
330
1
100
AcDbSymbolTableRecord
100
AcDbBlockTableRecord
  2
*D69
  0
BLOCK_RECORD
  5
58E
330
1
100
AcDbSymbolTableRecord
100
AcDbBlockTableRecord
  2
*D70
  0
BLOCK_RECORD
  5
59A
330
1
100
AcDbSymbolTableRecord
100
AcDbBlockTableRecord
  2
*D71
  0
BLOCK_RECORD
  5
5A6
330
1
100
AcDbSymbolTableRecord
100
AcDbBlockTableRecord
  2
*D72
  0
BLOCK_RECORD
  5
5B4
330
1
100
AcDbSymbolTableRecord
100
AcDbBlockTableRecord
  2
*D73
  0
ENDTAB
  0
ENDSEC
  0
SECTION
  2
BLOCKS
  0
BLOCK
  5
5
330
2
100
AcDbEntity
  8
0
100
AcDbBlockBegin
  2
*MODEL_SPACE
 70
     0
 10
0.0
 20
0.0
 30
0.0
  3
*MODEL_SPACE
  1

  0
ENDBLK
  5
B
330
2
100
AcDbEntity
  8
0
100
AcDbBlockEnd
  0
BLOCK
  5
11
330
E
100
AcDbEntity
 67
     1
  8
0
100
AcDbBlockBegin
  2
*PAPER_SPACE
 70
     0
 10
0.0
 20
0.0
 30
0.0
  3
*PAPER_SPACE
  1

  0
ENDBLK
  5
12
330
E
100
AcDbEntity
 67
     1
  8
0
100
AcDbBlockEnd
  0
BLOCK
  5
3D9
330
3D0
100
AcDbEntity
  8
0
100
AcDbBlockBegin
  2
*D0
 70
     1
 10
0.0
 20
0.0
 30
0.0
  3
*D0
  1

  0
LINE
  5
3D1
330
3D0
100
AcDbEntity
  8
0
 62
   123
100
AcDbLine
 10
-474.0668181331803
 20
-2516.925402556208
 30
0.0
 11
-497.6135875546876
 21
-2534.857403328699
 31
0.0
  0
LINE
  5
3D2
330
3D0
100
AcDbEntity
  8
0
 62
   123
100
AcDbLine
 10
-584.3305466904876
 20
-2600.896550796242
 30
0.0
 11
-586.3194677715838
 21
-2602.411210141828
 31
0.0
  0
MTEXT
  5
3D3
330
3D0
100
AcDbEntity
  8
0
 62
     3
100
AcDbMText
 10
-484.8441670850144
 20
-2521.990466427412
 30
0.0
 40
3.0
 41
0.0
 71
     5
 72
     1
  1
\A1;\U+2205104%%P0.5
 11
0.7955684324385314
 21
0.6058637382343476
 31
0.0
1001
ACAD
1000
MTEXTBEGIN
1070
    73
1070
     1
1070
    44
1040
1.0
1070
    74
1070
     0
1000
MTEXTEND
  0
LINE
  5
3D4
330
3D0
100
AcDbEntity
  8
0
 62
   123
100
AcDbLine
 10
-582.3416256093914
 20
-2599.381891450657
 30
0.0
 11
-499.6025086357839
 21
-2536.372062674285
 31
0.0
  0
SOLID
  5
3D5
330
3D0
100
AcDbEntity
  8
0
 62
   123
100
AcDbTrace
 10
-584.5829899147519
 20
-2600.565063949392
 30
0.0
 11
-584.0781034662234
 21
-2601.228037643092
 31
0.0
 12
-582.3416256093914
 22
-2599.381891450657
 32
0.0
 13
-582.3416256093914
 23
-2599.381891450657
 33
0.0
  0
SOLID
  5
3D6
330
3D0
100
AcDbEntity
  8
0
 62
   123
100
AcDbTrace
 10
-497.8660307789517
 20
-2534.52591648185
 30
0.0
 11
-497.3611443304232
 21
-2535.188890175549
 31
0.0
 12
-499.6025086357839
 22
-2536.372062674285
 32
0.0
 13
-499.6025086357839
 23
-2536.372062674285
 33
0.0
  0
POINT
  5
3D7
330
3D0
100
AcDbEntity
  8
DEFPOINTS
 62
     0
100
AcDbPoint
 10
-499.6025086357839
 20
-2536.372062674285
 30
0.0
  0
POINT
  5
3D8
330
3D0
100
AcDbEntity
  8
DEFPOINTS
 62
     0
100
AcDbPoint
 10
-582.3416256093914
 20
-2599.381891450657
 30
0.0
  0
ENDBLK
  5
3DA
330
3D0
100
AcDbEntity
  8
0
100
AcDbBlockEnd
  0
BLOCK
  5
3E4
330
3C8
100
AcDbEntity
  8
0
100
AcDbBlockBegin
  2
4
 70
     0
 10
0.0
 20
0.0
 30
0.0
  3
4
  1

  0
LWPOLYLINE
  5
3C9
330
3C8
100
AcDbEntity
  8
0
100
AcDbPolyline
 90
        8
 70
     1
 43
0.0
 10
-40.0
 20
-45.00000000000045
 10
40.0
 20
-45.0
 42
0.4142135623730951
 10
45.0
 20
-40.0
 10
45.0
 20
40.0
 42
0.4142135623730951
 10
40.0
 20
45.0
 10
-40.0
 20
45.0
 42
0.4142135623730951
 10
-45.0
 20
40.0
 10
-45.0
 20
-40.00000000000045
 42
0.4142135623730951
  0
CIRCLE
  5
3CA
330
3C8
100
AcDbEntity
  8
0
100
AcDbCircle
 10
36.76955262170071
 20
36.76955262170031
 30
0.0
 40
3.25
  0
LINE
  5
3CB
330
3C8
100
AcDbEntity
  8
CL
 48
0.6
100
AcDbLine
 10
33.05724202047111
 20
33.05724202047122
 30
0.0
 11
40.48186322293008
 21
40.48186322292986
 31
0.0
  0
ARC
  5
3CC
102
{ACAD_REACTORS
330
3CF
102
}
330
3C8
100
AcDbEntity
  8
CL
 48
0.6
100
AcDbCircle
 10
0.0
 20
0.0
 30
0.0
 40
51.9999999999996
100
AcDbArc
 50
35.90024337538245
 51
54.09975662462136
  0
DIMENSION
  5
3CD
102
{ACAD_XDICTIONARY
360
3CE
102
}
102
{ACAD_REACTORS
330
3CF
102
}
330
3C8
100
AcDbEntity
  8
0
100
AcDbDimension
  2
*D0
 10
-41.36955848680371
 20
-31.50491438818607
 30
0.0
 11
57.64255938315909
 21
43.89758955396246
 31
0.0
 12
540.9720671225876
 22
2567.87697706247
 32
0.0
 70
   131
  1
<>%%P0.5
  3
STANDARD
100
AcDbDiametricDimension
 15
41.36955848680371
 25
31.50491438818607
 35
0.0
 40
0.0
1001
ACAD
1000
DSTYLE
1002
{
1070
   287
1070
     4
1070
   287
1070
     4
1070
   287
1070
     4
1070
   287
1070
     4
1070
   287
1070
     4
1070
   279
1070
     1
1070
   289
1070
     3
1002
}
  0
ARC
  5
3DB
330
3C8
100
AcDbEntity
  8
CL
 48
0.6
100
AcDbCircle
 10
-0.0000000000002274
 20
0.0
 30
0.0
 40
52.0
100
AcDbArc
 50
129.2128702778055
 51
140.7871297221883
  0
LINE
  5
3DC
330
3C8
100
AcDbEntity
  8
CL
 48
0.6
100
AcDbLine
 10
-33.05724202047122
 20
33.05724202047122
 30
0.0
 11
-40.48186322292986
 21
40.48186322293031
 31
0.0
  0
CIRCLE
  5
3DD
330
3C8
100
AcDbEntity
  8
0
100
AcDbCircle
 10
-36.76955262170054
 20
36.76955262170077
 30
0.0
 40
3.25
  0
LINE
  5
3DE
330
3C8
100
AcDbEntity
  8
CL
 48
0.6
100
AcDbLine
 10
-33.05724202047122
 20
-33.05724202047122
 30
0.0
 11
-40.48186322293008
 21
-40.48186322292986
 31
0.0
  0
CIRCLE
  5
3DF
330
3C8
100
AcDbEntity
  8
0
100
AcDbCircle
 10
-36.76955262170077
 20
-36.76955262170031
 30
0.0
 40
3.25
  0
ARC
  5
3E0
330
3C8
100
AcDbEntity
  8
CL
 48
0.6
100
AcDbCircle
 10
0.0
 20
0.0
 30
0.0
 40
51.9999999999996
100
AcDbArc
 50
215.9002433753824
 51
234.0997566246214
  0
ARC
  5
3E1
330
3C8
100
AcDbEntity
  8
CL
 48
0.6
100
AcDbCircle
 10
0.0
 20
0.0000000000004547
 30
0.0
 40
52.0
100
AcDbArc
 50
309.2128702778056
 51
320.7871297221883
  0
LINE
  5
3E2
330
3C8
100
AcDbEntity
  8
CL
 48
0.6
100
AcDbLine
 10
33.05724202047076
 20
-33.05724202047122
 30
0.0
 11
40.48186322292941
 21
-40.48186322293031
 31
0.0
  0
CIRCLE
  5
3E3
330
3C8
100
AcDbEntity
  8
0
100
AcDbCircle
 10
36.76955262170025
 20
-36.76955262170077
 30
0.0
 40
3.25
  0
ENDBLK
  5
3E5
330
3C8
100
AcDbEntity
  8
0
100
AcDbBlockEnd
  0
BLOCK
  5
307
330
2FD
100
AcDbEntity
  8
0
100
AcDbBlockBegin
  2
*D2
 70
     1
 10
0.0
 20
0.0
 30
0.0
  3
*D2
  1

  0
LINE
  5
2FE
330
2FD
100
AcDbEntity
  8
0
 62
   123
100
AcDbLine
 10
15234.79047971714
 20
-3600.973695839282
 30
0.0
 11
15234.79047971714
 21
-3671.5792490509
 31
0.0
  0
LINE
  5
2FF
330
2FD
100
AcDbEntity
  8
0
 62
   123
100
AcDbLine
 10
15266.79047971714
 20
-3655.473695839282
 30
0.0
 11
15266.79047971714
 21
-3671.5792490509
 31
0.0
  0
LINE
  5
300
330
2FD
100
AcDbEntity
  8
0
 62
   123
100
AcDbLine
 10
15237.29047971714
 20
-3670.9792490509
 30
0.0
 11
15264.29047971714
 21
-3670.9792490509
 31
0.0
  0
SOLID
  5
301
330
2FD
100
AcDbEntity
  8
0
 62
   123
100
AcDbTrace
 10
15237.29047971714
 20
-3670.562582384234
 30
0.0
 11
15237.29047971714
 21
-3671.395915717567
 31
0.0
 12
15234.79047971714
 22
-3670.9792490509
 32
0.0
 13
15234.79047971714
 23
-3670.9792490509
 33
0.0
  0
SOLID
  5
302
330
2FD
100
AcDbEntity
  8
0
 62
   123
100
AcDbTrace
 10
15264.29047971714
 20
-3670.562582384234
 30
0.0
 11
15264.29047971714
 21
-3671.395915717567
 31
0.0
 12
15266.79047971714
 22
-3670.9792490509
 32
0.0
 13
15266.79047971714
 23
-3670.9792490509
 33
0.0
  0
MTEXT
  5
303
330
2FD
100
AcDbEntity
  8
0
 62
     3
100
AcDbMText
 10
15250.79047971714
 20
-3668.4792490509
 30
0.0
 40
3.0
 41
0.0
 71
     5
 72
     1
  1
\A1;32
1001
ACAD
1000
MTEXTBEGIN
1070
    73
1070
     1
1070
    44
1040
1.0
1070
    74
1070
     0
1000
MTEXTEND
  0
POINT
  5
304
330
2FD
100
AcDbEntity
  8
DEFPOINTS
 62
     0
100
AcDbPoint
 10
15234.79047971714
 20
-3599.973695839282
 30
0.0
  0
POINT
  5
305
330
2FD
100
AcDbEntity
  8
DEFPOINTS
 62
     0
100
AcDbPoint
 10
15266.79047971714
 20
-3654.473695839282
 30
0.0
  0
POINT
  5
306
330
2FD
100
AcDbEntity
  8
DEFPOINTS
 62
     0
100
AcDbPoint
 10
15266.79047971714
 20
-3670.9792490509
 30
0.0
  0
ENDBLK
  5
308
330
2FD
100
AcDbEntity
  8
0
100
AcDbBlockEnd
  0
BLOCK
  5
362
330
358
100
AcDbEntity
  8
0
100
AcDbBlockBegin
  2
*D3
 70
     1
 10
0.0
 20
0.0
 30
0.0
  3
*D3
  1

  0
LINE
  5
359
330
358
100
AcDbEntity
  8
0
 62
   123
100
AcDbLine
 10
15308.79047971714
 20
-3655.473695839282
 30
0.0
 11
15308.79047971714
 21
-3671.5792490509
 31
0.0
  0
LINE
  5
35A
330
358
100
AcDbEntity
  8
0
 62
   123
100
AcDbLine
 10
15266.79047971714
 20
-3655.473695839282
 30
0.0
 11
15266.79047971714
 21
-3671.5792490509
 31
0.0
  0
LINE
  5
35B
330
358
100
AcDbEntity
  8
0
 62
   123
100
AcDbLine
 10
15306.29047971714
 20
-3670.9792490509
 30
0.0
 11
15269.29047971714
 21
-3670.9792490509
 31
0.0
  0
SOLID
  5
35C
330
358
100
AcDbEntity
  8
0
 62
   123
100
AcDbTrace
 10
15306.29047971714
 20
-3670.562582384234
 30
0.0
 11
15306.29047971714
 21
-3671.395915717567
 31
0.0
 12
15308.79047971714
 22
-3670.9792490509
 32
0.0
 13
15308.79047971714
 23
-3670.9792490509
 33
0.0
  0
SOLID
  5
35D
330
358
100
AcDbEntity
  8
0
 62
   123
100
AcDbTrace
 10
15269.29047971714
 20
-3670.562582384234
 30
0.0
 11
15269.29047971714
 21
-3671.395915717567
 31
0.0
 12
15266.79047971714
 22
-3670.9792490509
 32
0.0
 13
15266.79047971714
 23
-3670.9792490509
 33
0.0
  0
MTEXT
  5
35E
330
358
100
AcDbEntity
  8
0
 62
     3
100
AcDbMText
 10
15287.79047971714
 20
-3668.4792490509
 30
0.0
 40
3.0
 41
0.0
 71
     5
 72
     1
  1
\A1;L
1001
ACAD
1000
MTEXTBEGIN
1070
    73
1070
     1
1070
    44
1040
1.0
1070
    74
1070
     0
1000
MTEXTEND
  0
POINT
  5
35F
330
358
100
AcDbEntity
  8
DEFPOINTS
 62
     0
100
AcDbPoint
 10
15308.79047971714
 20
-3654.473695839282
 30
0.0
  0
POINT
  5
360
330
358
100
AcDbEntity
  8
DEFPOINTS
 62
     0
100
AcDbPoint
 10
15266.79047971714
 20
-3654.473695839282
 30
0.0
  0
POINT
  5
361
330
358
100
AcDbEntity
  8
DEFPOINTS
 62
     0
100
AcDbPoint
 10
15266.79047971714
 20
-3670.9792490509
 30
0.0
  0
ENDBLK
  5
363
330
358
100
AcDbEntity
  8
0
100
AcDbBlockEnd
  0
BLOCK
  5
188
330
17C
100
AcDbEntity
  8
0
100
AcDbBlockBegin
  2
*D4
 70
     1
 10
0.0
 20
0.0
 30
0.0
  3
*D4
  1

  0
LINE
  5
17D
330
17C
100
AcDbEntity
  8
0
 62
   123
100
AcDbLine
 10
15079.03846905358
 20
-3721.90279054202
 30
0.0
 11
15086.80752420904
 21
-3721.90279054202
 31
0.0
  0
LINE
  5
17E
330
17C
100
AcDbEntity
  8
0
 62
   123
100
AcDbLine
 10
15079.03846905358
 20
-3717.90279054202
 30
0.0
 11
15086.80752420904
 21
-3717.90279054202
 31
0.0
  0
LINE
  5
17F
330
17C
100
AcDbEntity
  8
0
 62
   123
100
AcDbLine
 10
15086.20752420904
 20
-3724.402790542021
 30
0.0
 11
15086.20752420904
 21
-3726.902790542021
 31
0.0
  0
LINE
  5
180
330
17C
100
AcDbEntity
  8
0
 62
   123
100
AcDbLine
 10
15086.20752420904
 20
-3715.40279054202
 30
0.0
 11
15086.20752420904
 21
-3696.339043033646
 31
0.0
  0
LINE
  5
181
330
17C
100
AcDbEntity
  8
0
 62
   123
100
AcDbLine
 10
15086.20752420904
 20
-3721.90279054202
 30
0.0
 11
15086.20752420904
 21
-3717.90279054202
 31
0.0
  0
SOLID
  5
182
330
17C
100
AcDbEntity
  8
0
 62
   123
100
AcDbTrace
 10
15085.79085754238
 20
-3724.402790542021
 30
0.0
 11
15086.62419087571
 21
-3724.402790542021
 31
0.0
 12
15086.20752420904
 22
-3721.90279054202
 32
0.0
 13
15086.20752420904
 23
-3721.90279054202
 33
0.0
  0
SOLID
  5
183
330
17C
100
AcDbEntity
  8
0
 62
   123
100
AcDbTrace
 10
15085.79085754238
 20
-3715.40279054202
 30
0.0
 11
15086.62419087571
 21
-3715.40279054202
 31
0.0
 12
15086.20752420904
 22
-3717.90279054202
 32
0.0
 13
15086.20752420904
 23
-3717.90279054202
 33
0.0
  0
MTEXT
  5
184
330
17C
100
AcDbEntity
  8
0
 62
     3
100
AcDbMText
 10
15082.75752420904
 20
-3703.05332874793
 30
0.0
 40
3.0
 41
0.0
 71
     5
 72
     1
  1
\A1;\A1;4{\f??|b0|i0|c0|p49;\H0.7x;\S+0^ -0.03;}
 11
0.0000000000000001
 21
1.0
 31
0.0
1001
ACAD
1000
MTEXTBEGIN
1070
    73
1070
     1
1070
    44
1040
1.0
1070
    74
1070
     0
1000
MTEXTEND
  0
POINT
  5
185
330
17C
100
AcDbEntity
  8
DEFPOINTS
 62
     0
100
AcDbPoint
 10
15078.03846905358
 20
-3721.90279054202
 30
0.0
  0
POINT
  5
186
330
17C
100
AcDbEntity
  8
DEFPOINTS
 62
     0
100
AcDbPoint
 10
15078.03846905358
 20
-3717.90279054202
 30
0.0
  0
POINT
  5
187
330
17C
100
AcDbEntity
  8
DEFPOINTS
 62
     0
100
AcDbPoint
 10
15086.20752420904
 20
-3717.90279054202
 30
0.0
  0
ENDBLK
  5
189
330
17C
100
AcDbEntity
  8
0
100
AcDbBlockEnd
  0
BLOCK
  5
374
330
36A
100
AcDbEntity
  8
0
100
AcDbBlockBegin
  2
*D5
 70
     1
 10
0.0
 20
0.0
 30
0.0
  3
*D5
  1

  0
LINE
  5
36B
330
36A
100
AcDbEntity
  8
0
 62
   123
100
AcDbLine
 10
15090.28714285818
 20
-3428.045761556359
 30
0.0
 11
15090.28714285818
 21
-3410.077323997104
 31
0.0
  0
LINE
  5
36C
330
36A
100
AcDbEntity
  8
0
 62
   123
100
AcDbLine
 10
15180.28714285818
 20
-3428.045761556359
 30
0.0
 11
15180.28714285818
 21
-3410.077323997104
 31
0.0
  0
LINE
  5
36D
330
36A
100
AcDbEntity
  8
0
 62
   123
100
AcDbLine
 10
15092.78714285818
 20
-3410.677323997104
 30
0.0
 11
15177.78714285818
 21
-3410.677323997104
 31
0.0
  0
SOLID
  5
36E
330
36A
100
AcDbEntity
  8
0
 62
   123
100
AcDbTrace
 10
15092.78714285818
 20
-3410.260657330438
 30
0.0
 11
15092.78714285818
 21
-3411.093990663771
 31
0.0
 12
15090.28714285818
 22
-3410.677323997104
 32
0.0
 13
15090.28714285818
 23
-3410.677323997104
 33
0.0
  0
SOLID
  5
36F
330
36A
100
AcDbEntity
  8
0
 62
   123
100
AcDbTrace
 10
15177.78714285818
 20
-3410.260657330438
 30
0.0
 11
15177.78714285818
 21
-3411.093990663771
 31
0.0
 12
15180.28714285818
 22
-3410.677323997104
 32
0.0
 13
15180.28714285818
 23
-3410.677323997104
 33
0.0
  0
MTEXT
  5
370
330
36A
100
AcDbEntity
  8
0
 62
     3
100
AcDbMText
 10
15135.28714285818
 20
-3408.177323997104
 30
0.0
 40
3.0
 41
0.0
 71
     5
 72
     1
  1
\A1;90
1001
ACAD
1000
MTEXTBEGIN
1070
    73
1070
     1
1070
    44
1040
1.0
1070
    74
1070
     0
1000
MTEXTEND
  0
POINT
  5
371
330
36A
100
AcDbEntity
  8
DEFPOINTS
 62
     0
100
AcDbPoint
 10
15090.28714285818
 20
-3429.045761556359
 30
0.0
  0
POINT
  5
372
330
36A
100
AcDbEntity
  8
DEFPOINTS
 62
     0
100
AcDbPoint
 10
15180.28714285818
 20
-3429.045761556359
 30
0.0
  0
POINT
  5
373
330
36A
100
AcDbEntity
  8
DEFPOINTS
 62
     0
100
AcDbPoint
 10
15180.28714285818
 20
-3410.677323997104
 30
0.0
  0
ENDBLK
  5
375
330
36A
100
AcDbEntity
  8
0
100
AcDbBlockEnd
  0
BLOCK
  5
2BE
330
2B4
100
AcDbEntity
  8
0
100
AcDbBlockBegin
  2
*D6
 70
     1
 10
0.0
 20
0.0
 30
0.0
  3
*D6
  1

  0
LINE
  5
2B5
330
2B4
100
AcDbEntity
  8
0
 62
   123
100
AcDbLine
 10
15073.72633005919
 20
-3569.037886477476
 30
0.0
 11
15073.72633005919
 21
-3551.916065811576
 31
0.0
  0
LINE
  5
2B6
330
2B4
100
AcDbEntity
  8
0
 62
   123
100
AcDbLine
 10
15163.7263300592
 20
-3569.037886477476
 30
0.0
 11
15163.7263300592
 21
-3551.916065811576
 31
0.0
  0
LINE
  5
2B7
330
2B4
100
AcDbEntity
  8
0
 62
   123
100
AcDbLine
 10
15076.22633005919
 20
-3552.516065811575
 30
0.0
 11
15161.22633005919
 21
-3552.516065811575
 31
0.0
  0
SOLID
  5
2B8
330
2B4
100
AcDbEntity
  8
0
 62
   123
100
AcDbTrace
 10
15076.22633005919
 20
-3552.09939914491
 30
0.0
 11
15076.22633005919
 21
-3552.932732478243
 31
0.0
 12
15073.72633005919
 22
-3552.516065811575
 32
0.0
 13
15073.72633005919
 23
-3552.516065811575
 33
0.0
  0
SOLID
  5
2B9
330
2B4
100
AcDbEntity
  8
0
 62
   123
100
AcDbTrace
 10
15161.22633005919
 20
-3552.09939914491
 30
0.0
 11
15161.22633005919
 21
-3552.932732478243
 31
0.0
 12
15163.7263300592
 22
-3552.516065811575
 32
0.0
 13
15163.7263300592
 23
-3552.516065811575
 33
0.0
  0
MTEXT
  5
2BA
330
2B4
100
AcDbEntity
  8
0
 62
     3
100
AcDbMText
 10
15118.7263300592
 20
-3550.016065811576
 30
0.0
 40
3.0
 41
0.0
 71
     5
 72
     1
  1
\A1;90
1001
ACAD
1000
MTEXTBEGIN
1070
    73
1070
     1
1070
    44
1040
1.0
1070
    74
1070
     0
1000
MTEXTEND
  0
POINT
  5
2BB
330
2B4
100
AcDbEntity
  8
DEFPOINTS
 62
     0
100
AcDbPoint
 10
15073.72633005919
 20
-3570.037886477477
 30
0.0
  0
POINT
  5
2BC
330
2B4
100
AcDbEntity
  8
DEFPOINTS
 62
     0
100
AcDbPoint
 10
15163.7263300592
 20
-3570.037886477477
 30
0.0
  0
POINT
  5
2BD
330
2B4
100
AcDbEntity
  8
DEFPOINTS
 62
     0
100
AcDbPoint
 10
15163.7263300592
 20
-3552.516065811575
 30
0.0
  0
ENDBLK
  5
2BF
330
2B4
100
AcDbEntity
  8
0
100
AcDbBlockEnd
  0
BLOCK
  5
31A
330
310
100
AcDbEntity
  8
0
100
AcDbBlockBegin
  2
*D7
 70
     1
 10
0.0
 20
0.0
 30
0.0
  3
*D7
  1

  0
LINE
  5
311
330
310
100
AcDbEntity
  8
0
 62
   123
100
AcDbLine
 10
15259.79047971714
 20
-3584.973695839282
 30
0.0
 11
15259.79047971714
 21
-3568.497875976726
 31
0.0
  0
LINE
  5
312
330
310
100
AcDbEntity
  8
0
 62
   123
100
AcDbLine
 10
15234.79047971714
 20
-3585.973695839282
 30
0.0
 11
15234.79047971714
 21
-3568.497875976726
 31
0.0
  0
LINE
  5
313
330
310
100
AcDbEntity
  8
0
 62
   123
100
AcDbLine
 10
15257.29047971714
 20
-3569.097875976726
 30
0.0
 11
15237.29047971714
 21
-3569.097875976726
 31
0.0
  0
SOLID
  5
314
330
310
100
AcDbEntity
  8
0
 62
   123
100
AcDbTrace
 10
15257.29047971714
 20
-3568.68120931006
 30
0.0
 11
15257.29047971714
 21
-3569.514542643393
 31
0.0
 12
15259.79047971714
 22
-3569.097875976726
 32
0.0
 13
15259.79047971714
 23
-3569.097875976726
 33
0.0
  0
SOLID
  5
315
330
310
100
AcDbEntity
  8
0
 62
   123
100
AcDbTrace
 10
15237.29047971714
 20
-3568.68120931006
 30
0.0
 11
15237.29047971714
 21
-3569.514542643393
 31
0.0
 12
15234.79047971714
 22
-3569.097875976726
 32
0.0
 13
15234.79047971714
 23
-3569.097875976726
 33
0.0
  0
MTEXT
  5
316
330
310
100
AcDbEntity
  8
0
 62
     3
100
AcDbMText
 10
15247.29047971714
 20
-3566.597875976726
 30
0.0
 40
3.0
 41
0.0
 71
     5
 72
     1
  1
\A1;25
1001
ACAD
1000
MTEXTBEGIN
1070
    73
1070
     1
1070
    44
1040
1.0
1070
    74
1070
     0
1000
MTEXTEND
  0
POINT
  5
317
330
310
100
AcDbEntity
  8
DEFPOINTS
 62
     0
100
AcDbPoint
 10
15259.79047971714
 20
-3585.973695839282
 30
0.0
  0
POINT
  5
318
330
310
100
AcDbEntity
  8
DEFPOINTS
 62
     0
100
AcDbPoint
 10
15234.79047971714
 20
-3586.973695839282
 30
0.0
  0
POINT
  5
319
330
310
100
AcDbEntity
  8
DEFPOINTS
 62
     0
100
AcDbPoint
 10
15234.79047971714
 20
-3569.097875976726
 30
0.0
  0
ENDBLK
  5
31B
330
310
100
AcDbEntity
  8
0
100
AcDbBlockEnd
  0
BLOCK
  5
33F
330
333
100
AcDbEntity
  8
0
100
AcDbBlockBegin
  2
*D8
 70
     1
 10
0.0
 20
0.0
 30
0.0
  3
*D8
  1

  0
LINE
  5
334
330
333
100
AcDbEntity
  8
0
 62
   123
100
AcDbLine
 10
15266.79047971714
 20
-3564.473695839282
 30
0.0
 11
15266.79047971714
 21
-3556.854382415503
 31
0.0
  0
LINE
  5
335
330
333
100
AcDbEntity
  8
0
 62
   123
100
AcDbLine
 10
15263.79047971714
 20
-3573.827249229875
 30
0.0
 11
15263.79047971714
 21
-3556.854382415503
 31
0.0
  0
LINE
  5
336
330
333
100
AcDbEntity
  8
0
 62
   123
100
AcDbLine
 10
15269.29047971714
 20
-3557.454382415503
 30
0.0
 11
15271.79047971714
 21
-3557.454382415503
 31
0.0
  0
LINE
  5
337
330
333
100
AcDbEntity
  8
0
 62
   123
100
AcDbLine
 10
15261.29047971714
 20
-3557.454382415503
 30
0.0
 11
15258.79047971714
 21
-3557.454382415503
 31
0.0
  0
LINE
  5
338
330
333
100
AcDbEntity
  8
0
 62
   123
100
AcDbLine
 10
15266.79047971714
 20
-3557.454382415503
 30
0.0
 11
15263.79047971714
 21
-3557.454382415503
 31
0.0
  0
SOLID
  5
339
330
333
100
AcDbEntity
  8
0
 62
   123
100
AcDbTrace
 10
15269.29047971714
 20
-3557.037715748834
 30
0.0
 11
15269.29047971714
 21
-3557.871049082169
 31
0.0
 12
15266.79047971714
 22
-3557.454382415503
 32
0.0
 13
15266.79047971714
 23
-3557.454382415503
 33
0.0
  0
SOLID
  5
33A
330
333
100
AcDbEntity
  8
0
 62
   123
100
AcDbTrace
 10
15261.29047971714
 20
-3557.037715748834
 30
0.0
 11
15261.29047971714
 21
-3557.871049082169
 31
0.0
 12
15263.79047971714
 22
-3557.454382415503
 32
0.0
 13
15263.79047971714
 23
-3557.454382415503
 33
0.0
  0
MTEXT
  5
33B
330
333
100
AcDbEntity
  8
0
 62
     3
100
AcDbMText
 10
15265.29047971714
 20
-3554.954382415501
 30
0.0
 40
3.0
 41
0.0
 71
     5
 72
     1
  1
\A1;3
1001
ACAD
1000
MTEXTBEGIN
1070
    73
1070
     1
1070
    44
1040
1.0
1070
    74
1070
     0
1000
MTEXTEND
  0
POINT
  5
33C
330
333
100
AcDbEntity
  8
DEFPOINTS
 62
     0
100
AcDbPoint
 10
15266.79047971714
 20
-3565.473695839282
 30
0.0
  0
POINT
  5
33D
330
333
100
AcDbEntity
  8
DEFPOINTS
 62
     0
100
AcDbPoint
 10
15263.79047971714
 20
-3574.827249229876
 30
0.0
  0
POINT
  5
33E
330
333
100
AcDbEntity
  8
DEFPOINTS
 62
     0
100
AcDbPoint
 10
15263.79047971714
 20
-3557.454382415503
 30
0.0
  0
ENDBLK
  5
340
330
333
100
AcDbEntity
  8
0
100
AcDbBlockEnd
  0
BLOCK
  5
396
330
38C
100
AcDbEntity
  8
0
100
AcDbBlockBegin
  2
*D9
 70
     1
 10
0.0
 20
0.0
 30
0.0
  3
*D9
  1

  0
LINE
  5
38D
330
38C
100
AcDbEntity
  8
0
 62
   123
100
AcDbLine
 10
15236.83564752936
 20
-3465.002967797562
 30
0.0
 11
15236.83564752936
 21
-3401.351687010738
 31
0.0
  0
LINE
  5
38E
330
38C
100
AcDbEntity
  8
0
 62
   123
100
AcDbLine
 10
15254.83564752936
 20
-3423.002967797561
 30
0.0
 11
15254.83564752936
 21
-3401.351687010738
 31
0.0
  0
LINE
  5
38F
330
38C
100
AcDbEntity
  8
0
 62
   123
100
AcDbLine
 10
15239.33564752936
 20
-3401.951687010738
 30
0.0
 11
15252.33564752936
 21
-3401.951687010738
 31
0.0
  0
SOLID
  5
390
330
38C
100
AcDbEntity
  8
0
 62
   123
100
AcDbTrace
 10
15239.33564752936
 20
-3401.535020344072
 30
0.0
 11
15239.33564752936
 21
-3402.368353677404
 31
0.0
 12
15236.83564752936
 22
-3401.951687010738
 32
0.0
 13
15236.83564752936
 23
-3401.951687010738
 33
0.0
  0
SOLID
  5
391
330
38C
100
AcDbEntity
  8
0
 62
   123
100
AcDbTrace
 10
15252.33564752936
 20
-3401.535020344072
 30
0.0
 11
15252.33564752936
 21
-3402.368353677404
 31
0.0
 12
15254.83564752936
 22
-3401.951687010738
 32
0.0
 13
15254.83564752936
 23
-3401.951687010738
 33
0.0
  0
MTEXT
  5
392
330
38C
100
AcDbEntity
  8
0
 62
     3
100
AcDbMText
 10
15245.83564752936
 20
-3399.451687010737
 30
0.0
 40
3.0
 41
0.0
 71
     5
 72
     1
  1
\A1;18
1001
ACAD
1000
MTEXTBEGIN
1070
    73
1070
     1
1070
    44
1040
1.0
1070
    74
1070
     0
1000
MTEXTEND
  0
POINT
  5
393
330
38C
100
AcDbEntity
  8
DEFPOINTS
 62
     0
100
AcDbPoint
 10
15236.83564752936
 20
-3466.002967797562
 30
0.0
  0
POINT
  5
394
330
38C
100
AcDbEntity
  8
DEFPOINTS
 62
     0
100
AcDbPoint
 10
15254.83564752936
 20
-3424.002967797562
 30
0.0
  0
POINT
  5
395
330
38C
100
AcDbEntity
  8
DEFPOINTS
 62
     0
100
AcDbPoint
 10
15254.83564752936
 20
-3401.951687010738
 30
0.0
  0
ENDBLK
  5
397
330
38C
100
AcDbEntity
  8
0
100
AcDbBlockEnd
  0
BLOCK
  5
2F7
330
2ED
100
AcDbEntity
  8
0
100
AcDbBlockBegin
  2
*D10
 70
     1
 10
0.0
 20
0.0
 30
0.0
  3
*D10
  1

  0
LINE
  5
2EE
330
2ED
100
AcDbEntity
  8
0
 62
   123
100
AcDbLine
 10
15263.29047971714
 20
-3573.973695839282
 30
0.0
 11
15195.17167245601
 21
-3573.973695839282
 31
0.0
  0
LINE
  5
2EF
330
2ED
100
AcDbEntity
  8
0
 62
   123
100
AcDbLine
 10
15222.18280658304
 20
-3609.973695839282
 30
0.0
 11
15195.17167245601
 21
-3609.973695839282
 31
0.0
  0
LINE
  5
2F0
330
2ED
100
AcDbEntity
  8
0
 62
   123
100
AcDbLine
 10
15195.77167245601
 20
-3576.473695839282
 30
0.0
 11
15195.77167245601
 21
-3607.473695839282
 31
0.0
  0
SOLID
  5
2F1
330
2ED
100
AcDbEntity
  8
0
 62
   123
100
AcDbTrace
 10
15195.35500578936
 20
-3576.473695839282
 30
0.0
 11
15196.18833912269
 21
-3576.473695839282
 31
0.0
 12
15195.77167245601
 22
-3573.973695839282
 32
0.0
 13
15195.77167245601
 23
-3573.973695839282
 33
0.0
  0
SOLID
  5
2F2
330
2ED
100
AcDbEntity
  8
0
 62
   123
100
AcDbTrace
 10
15195.35500578936
 20
-3607.473695839282
 30
0.0
 11
15196.18833912269
 21
-3607.473695839282
 31
0.0
 12
15195.77167245601
 22
-3609.973695839282
 32
0.0
 13
15195.77167245601
 23
-3609.973695839282
 33
0.0
  0
MTEXT
  5
2F3
330
2ED
100
AcDbEntity
  8
0
 62
     3
100
AcDbMText
 10
15193.27167245601
 20
-3592.223695839282
 30
0.0
 40
3.0
 41
0.0
 71
     5
 72
     1
  1
\A1;{\f??|b0|i0|c0|p49;%%C}36
 11
0.0000000000000001
 21
1.0
 31
0.0
1001
ACAD
1000
MTEXTBEGIN
1070
    73
1070
     1
1070
    44
1040
1.0
1070
    74
1070
     0
1000
MTEXTEND
  0
POINT
  5
2F4
330
2ED
100
AcDbEntity
  8
DEFPOINTS
 62
     0
100
AcDbPoint
 10
15264.29047971714
 20
-3573.973695839282
 30
0.0
  0
POINT
  5
2F5
330
2ED
100
AcDbEntity
  8
DEFPOINTS
 62
     0
100
AcDbPoint
 10
15223.18280658303
 20
-3609.973695839282
 30
0.0
  0
POINT
  5
2F6
330
2ED
100
AcDbEntity
  8
DEFPOINTS
 62
     0
100
AcDbPoint
 10
15195.77167245601
 20
-3609.973695839282
 30
0.0
  0
ENDBLK
  5
2F8
330
2ED
100
AcDbEntity
  8
0
100
AcDbBlockEnd
  0
BLOCK
  5
268
330
25C
100
AcDbEntity
  8
0
100
AcDbBlockBegin
  2
*D11
 70
     1
 10
0.0
 20
0.0
 30
0.0
  3
*D11
  1

  0
LINE
  5
25D
330
25C
100
AcDbEntity
  8
0
 62
   123
100
AcDbLine
 10
15231.79779300854
 20
-3823.23776543356
 30
0.0
 11
15231.79779300854
 21
-3809.626380381487
 31
0.0
  0
LINE
  5
25E
330
25C
100
AcDbEntity
  8
0
 62
   123
100
AcDbLine
 10
15228.79779300855
 20
-3833.091318824155
 30
0.0
 11
15228.79779300855
 21
-3809.626380381487
 31
0.0
  0
LINE
  5
25F
330
25C
100
AcDbEntity
  8
0
 62
   123
100
AcDbLine
 10
15234.29779300854
 20
-3810.226380381488
 30
0.0
 11
15236.79779300854
 21
-3810.226380381488
 31
0.0
  0
LINE
  5
260
330
25C
100
AcDbEntity
  8
0
 62
   123
100
AcDbLine
 10
15226.29779300855
 20
-3810.226380381488
 30
0.0
 11
15223.79779300854
 21
-3810.226380381488
 31
0.0
  0
LINE
  5
261
330
25C
100
AcDbEntity
  8
0
 62
   123
100
AcDbLine
 10
15231.79779300854
 20
-3810.226380381488
 30
0.0
 11
15228.79779300855
 21
-3810.226380381488
 31
0.0
  0
SOLID
  5
262
330
25C
100
AcDbEntity
  8
0
 62
   123
100
AcDbTrace
 10
15234.29779300854
 20
-3809.809713714821
 30
0.0
 11
15234.29779300854
 21
-3810.643047048154
 31
0.0
 12
15231.79779300854
 22
-3810.226380381488
 32
0.0
 13
15231.79779300854
 23
-3810.226380381488
 33
0.0
  0
SOLID
  5
263
330
25C
100
AcDbEntity
  8
0
 62
   123
100
AcDbTrace
 10
15226.29779300855
 20
-3809.809713714821
 30
0.0
 11
15226.29779300855
 21
-3810.643047048154
 31
0.0
 12
15228.79779300855
 22
-3810.226380381488
 32
0.0
 13
15228.79779300855
 23
-3810.226380381488
 33
0.0
  0
MTEXT
  5
264
330
25C
100
AcDbEntity
  8
0
 62
     3
100
AcDbMText
 10
15230.29779300854
 20
-3807.726380381488
 30
0.0
 40
3.0
 41
0.0
 71
     5
 72
     1
  1
\A1;3
1001
ACAD
1000
MTEXTBEGIN
1070
    73
1070
     1
1070
    44
1040
1.0
1070
    74
1070
     0
1000
MTEXTEND
  0
POINT
  5
265
330
25C
100
AcDbEntity
  8
DEFPOINTS
 62
     0
100
AcDbPoint
 10
15231.79779300854
 20
-3824.237765433561
 30
0.0
  0
POINT
  5
266
330
25C
100
AcDbEntity
  8
DEFPOINTS
 62
     0
100
AcDbPoint
 10
15228.79779300855
 20
-3834.091318824155
 30
0.0
  0
POINT
  5
267
330
25C
100
AcDbEntity
  8
DEFPOINTS
 62
     0
100
AcDbPoint
 10
15228.79779300855
 20
-3810.226380381488
 30
0.0
  0
ENDBLK
  5
269
330
25C
100
AcDbEntity
  8
0
100
AcDbBlockEnd
  0
BLOCK
  5
EA
330
E0
100
AcDbEntity
  8
0
100
AcDbBlockBegin
  2
*D12
 70
     1
 10
0.0
 20
0.0
 30
0.0
  3
*D12
  1

  0
LINE
  5
E1
330
E0
100
AcDbEntity
  8
0
 62
   123
100
AcDbLine
 10
15228.29779300854
 20
-3833.23776543356
 30
0.0
 11
15164.3739856498
 21
-3833.23776543356
 31
0.0
  0
LINE
  5
E2
330
E0
100
AcDbEntity
  8
0
 62
   123
100
AcDbLine
 10
15187.19011987445
 20
-3869.237765433561
 30
0.0
 11
15164.3739856498
 21
-3869.237765433561
 31
0.0
  0
LINE
  5
E3
330
E0
100
AcDbEntity
  8
0
 62
   123
100
AcDbLine
 10
15164.97398564981
 20
-3835.73776543356
 30
0.0
 11
15164.97398564981
 21
-3866.737765433562
 31
0.0
  0
SOLID
  5
E4
330
E0
100
AcDbEntity
  8
0
 62
   123
100
AcDbTrace
 10
15164.55731898314
 20
-3835.73776543356
 30
0.0
 11
15165.39065231648
 21
-3835.73776543356
 31
0.0
 12
15164.97398564981
 22
-3833.23776543356
 32
0.0
 13
15164.97398564981
 23
-3833.23776543356
 33
0.0
  0
SOLID
  5
E5
330
E0
100
AcDbEntity
  8
0
 62
   123
100
AcDbTrace
 10
15164.55731898314
 20
-3866.737765433562
 30
0.0
 11
15165.39065231648
 21
-3866.737765433562
 31
0.0
 12
15164.97398564981
 22
-3869.237765433561
 32
0.0
 13
15164.97398564981
 23
-3869.237765433561
 33
0.0
  0
MTEXT
  5
E6
330
E0
100
AcDbEntity
  8
0
 62
     3
100
AcDbMText
 10
15162.4739856498
 20
-3851.487765433561
 30
0.0
 40
3.0
 41
0.0
 71
     5
 72
     1
  1
\A1;{\f??|b0|i0|c0|p49;%%C}36
 11
0.0000000000000001
 21
1.0
 31
0.0
1001
ACAD
1000
MTEXTBEGIN
1070
    73
1070
     1
1070
    44
1040
1.0
1070
    74
1070
     0
1000
MTEXTEND
  0
POINT
  5
E7
330
E0
100
AcDbEntity
  8
DEFPOINTS
 62
     0
100
AcDbPoint
 10
15229.29779300854
 20
-3833.23776543356
 30
0.0
  0
POINT
  5
E8
330
E0
100
AcDbEntity
  8
DEFPOINTS
 62
     0
100
AcDbPoint
 10
15188.19011987445
 20
-3869.237765433561
 30
0.0
  0
POINT
  5
E9
330
E0
100
AcDbEntity
  8
DEFPOINTS
 62
     0
100
AcDbPoint
 10
15164.97398564981
 20
-3869.237765433561
 30
0.0
  0
ENDBLK
  5
EB
330
E0
100
AcDbEntity
  8
0
100
AcDbBlockEnd
  0
BLOCK
  5
27A
330
270
100
AcDbEntity
  8
0
100
AcDbBlockBegin
  2
*D13
 70
     1
 10
0.0
 20
0.0
 30
0.0
  3
*D13
  1

  0
LINE
  5
271
330
270
100
AcDbEntity
  8
0
 62
   123
100
AcDbLine
 10
15224.79779300854
 20
-3844.237765433561
 30
0.0
 11
15224.79779300854
 21
-3827.761945571007
 31
0.0
  0
LINE
  5
272
330
270
100
AcDbEntity
  8
0
 62
   123
100
AcDbLine
 10
15199.79779300854
 20
-3845.237765433561
 30
0.0
 11
15199.79779300854
 21
-3827.761945571007
 31
0.0
  0
LINE
  5
273
330
270
100
AcDbEntity
  8
0
 62
   123
100
AcDbLine
 10
15222.29779300855
 20
-3828.361945571007
 30
0.0
 11
15202.29779300855
 21
-3828.361945571007
 31
0.0
  0
SOLID
  5
274
330
270
100
AcDbEntity
  8
0
 62
   123
100
AcDbTrace
 10
15222.29779300855
 20
-3827.945278904339
 30
0.0
 11
15222.29779300855
 21
-3828.778612237673
 31
0.0
 12
15224.79779300854
 22
-3828.361945571007
 32
0.0
 13
15224.79779300854
 23
-3828.361945571007
 33
0.0
  0
SOLID
  5
275
330
270
100
AcDbEntity
  8
0
 62
   123
100
AcDbTrace
 10
15202.29779300855
 20
-3827.945278904339
 30
0.0
 11
15202.29779300855
 21
-3828.778612237673
 31
0.0
 12
15199.79779300854
 22
-3828.361945571007
 32
0.0
 13
15199.79779300854
 23
-3828.361945571007
 33
0.0
  0
MTEXT
  5
276
330
270
100
AcDbEntity
  8
0
 62
     3
100
AcDbMText
 10
15212.29779300854
 20
-3825.861945571007
 30
0.0
 40
3.0
 41
0.0
 71
     5
 72
     1
  1
\A1;25
1001
ACAD
1000
MTEXTBEGIN
1070
    73
1070
     1
1070
    44
1040
1.0
1070
    74
1070
     0
1000
MTEXTEND
  0
POINT
  5
277
330
270
100
AcDbEntity
  8
DEFPOINTS
 62
     0
100
AcDbPoint
 10
15224.79779300854
 20
-3845.237765433561
 30
0.0
  0
POINT
  5
278
330
270
100
AcDbEntity
  8
DEFPOINTS
 62
     0
100
AcDbPoint
 10
15199.79779300854
 20
-3846.237765433562
 30
0.0
  0
POINT
  5
279
330
270
100
AcDbEntity
  8
DEFPOINTS
 62
     0
100
AcDbPoint
 10
15199.79779300854
 20
-3828.361945571007
 30
0.0
  0
ENDBLK
  5
27B
330
270
100
AcDbEntity
  8
0
100
AcDbBlockEnd
  0
BLOCK
  5
1FE
330
1F4
100
AcDbEntity
  8
0
100
AcDbBlockBegin
  2
*D14
 70
     1
 10
0.0
 20
0.0
 30
0.0
  3
*D14
  1

  0
LINE
  5
1F5
330
1F4
100
AcDbEntity
  8
0
 62
   123
100
AcDbLine
 10
15123.33221651631
 20
-3824.237765433491
 30
0.0
 11
15130.00428833644
 21
-3824.237765433491
 31
0.0
  0
LINE
  5
1F6
330
1F4
100
AcDbEntity
  8
0
 62
   123
100
AcDbLine
 10
15111.61324826518
 20
-3781.237765433491
 30
0.0
 11
15130.00428833644
 21
-3781.237765433491
 31
0.0
  0
LINE
  5
1F7
330
1F4
100
AcDbEntity
  8
0
 62
   123
100
AcDbLine
 10
15129.40428833644
 20
-3821.737765433491
 30
0.0
 11
15129.40428833644
 21
-3783.737765433492
 31
0.0
  0
SOLID
  5
1F8
330
1F4
100
AcDbEntity
  8
0
 62
   123
100
AcDbTrace
 10
15128.98762166978
 20
-3821.737765433491
 30
0.0
 11
15129.8209550031
 21
-3821.737765433491
 31
0.0
 12
15129.40428833644
 22
-3824.237765433491
 32
0.0
 13
15129.40428833644
 23
-3824.237765433491
 33
0.0
  0
SOLID
  5
1F9
330
1F4
100
AcDbEntity
  8
0
 62
   123
100
AcDbTrace
 10
15128.98762166978
 20
-3783.737765433492
 30
0.0
 11
15129.8209550031
 21
-3783.737765433492
 31
0.0
 12
15129.40428833644
 22
-3781.237765433491
 32
0.0
 13
15129.40428833644
 23
-3781.237765433491
 33
0.0
  0
MTEXT
  5
1FA
330
1F4
100
AcDbEntity
  8
0
 62
     3
100
AcDbMText
 10
15126.90428833644
 20
-3801.142929636407
 30
0.0
 40
3.0
 41
0.0
 71
     5
 72
     1
  1
\A1;43
 11
0.0000000000000001
 21
1.0
 31
0.0
1001
ACAD
1000
MTEXTBEGIN
1070
    73
1070
     1
1070
    44
1040
1.0
1070
    74
1070
     0
1000
MTEXTEND
  0
POINT
  5
1FB
330
1F4
100
AcDbEntity
  8
DEFPOINTS
 62
     0
100
AcDbPoint
 10
15122.3322165163
 20
-3824.237765433491
 30
0.0
  0
POINT
  5
1FC
330
1F4
100
AcDbEntity
  8
DEFPOINTS
 62
     0
100
AcDbPoint
 10
15110.61324826519
 20
-3781.237765433491
 30
0.0
  0
POINT
  5
1FD
330
1F4
100
AcDbEntity
  8
DEFPOINTS
 62
     0
100
AcDbPoint
 10
15129.40428833644
 20
-3781.237765433491
 30
0.0
  0
ENDBLK
  5
1FF
330
1F4
100
AcDbEntity
  8
0
100
AcDbBlockEnd
  0
BLOCK
  5
3F2
330
3E8
100
AcDbEntity
  8
0
100
AcDbBlockBegin
  2
*D15
 70
     1
 10
0.0
 20
0.0
 30
0.0
  3
*D15
  1

  0
LINE
  5
3E9
330
3E8
100
AcDbEntity
  8
0
 62
   123
100
AcDbLine
 10
15037.08494226519
 20
-3911.237765433561
 30
0.0
 11
15037.08494226519
 21
-3930.517946119589
 31
0.0
  0
LINE
  5
3EA
330
3E8
100
AcDbEntity
  8
0
 62
   123
100
AcDbLine
 10
15127.08494226519
 20
-3911.237765433561
 30
0.0
 11
15127.08494226519
 21
-3930.517946119589
 31
0.0
  0
LINE
  5
3EB
330
3E8
100
AcDbEntity
  8
0
 62
   123
100
AcDbLine
 10
15039.58494226519
 20
-3929.917946119589
 30
0.0
 11
15124.58494226519
 21
-3929.917946119589
 31
0.0
  0
SOLID
  5
3EC
330
3E8
100
AcDbEntity
  8
0
 62
   123
100
AcDbTrace
 10
15039.58494226519
 20
-3929.501279452923
 30
0.0
 11
15039.58494226519
 21
-3930.334612786255
 31
0.0
 12
15037.08494226519
 22
-3929.917946119589
 32
0.0
 13
15037.08494226519
 23
-3929.917946119589
 33
0.0
  0
SOLID
  5
3ED
330
3E8
100
AcDbEntity
  8
0
 62
   123
100
AcDbTrace
 10
15124.58494226519
 20
-3929.501279452923
 30
0.0
 11
15124.58494226519
 21
-3930.334612786255
 31
0.0
 12
15127.08494226519
 22
-3929.917946119589
 32
0.0
 13
15127.08494226519
 23
-3929.917946119589
 33
0.0
  0
MTEXT
  5
3EE
330
3E8
100
AcDbEntity
  8
0
 62
     3
100
AcDbMText
 10
15082.08494226519
 20
-3927.417946119589
 30
0.0
 40
3.0
 41
0.0
 71
     5
 72
     1
  1
\A1;90
1001
ACAD
1000
MTEXTBEGIN
1070
    73
1070
     1
1070
    44
1040
1.0
1070
    74
1070
     0
1000
MTEXTEND
  0
POINT
  5
3EF
330
3E8
100
AcDbEntity
  8
DEFPOINTS
 62
     0
100
AcDbPoint
 10
15037.08494226519
 20
-3910.237765433561
 30
0.0
  0
POINT
  5
3F0
330
3E8
100
AcDbEntity
  8
DEFPOINTS
 62
     0
100
AcDbPoint
 10
15127.08494226519
 20
-3910.237765433561
 30
0.0
  0
POINT
  5
3F1
330
3E8
100
AcDbEntity
  8
DEFPOINTS
 62
     0
100
AcDbPoint
 10
15127.08494226519
 20
-3929.917946119589
 30
0.0
  0
ENDBLK
  5
3F3
330
3E8
100
AcDbEntity
  8
0
100
AcDbBlockEnd
  0
BLOCK
  5
2CE
330
2C5
100
AcDbEntity
  8
0
100
AcDbBlockBegin
  2
*D16
 70
     1
 10
0.0
 20
0.0
 30
0.0
  3
*D16
  1

  0
LINE
  5
2C6
330
2C5
100
AcDbEntity
  8
0
 62
   123
100
AcDbLine
 10
15076.49959396077
 20
-3644.449671359184
 30
0.0
 11
15074.56258771771
 21
-3646.030179762957
 31
0.0
  0
LINE
  5
2C7
330
2C5
100
AcDbEntity
  8
0
 62
   123
100
AcDbLine
 10
15160.95306615763
 20
-3575.539504954692
 30
0.0
 11
15183.96929025915
 21
-3556.759319941794
 31
0.0
  0
LINE
  5
2C8
330
2C5
100
AcDbEntity
  8
0
 62
   123
100
AcDbLine
 10
15078.43660020381
 20
-3642.869162955411
 30
0.0
 11
15159.01605991458
 21
-3577.120013358466
 31
0.0
  0
SOLID
  5
2C9
330
2C5
100
AcDbEntity
  8
0
 62
   123
100
AcDbTrace
 10
15076.23617589346
 20
-3644.126836985343
 30
0.0
 11
15076.76301202806
 21
-3644.772505733025
 31
0.0
 12
15078.43660020381
 22
-3642.869162955411
 32
0.0
 13
15078.43660020381
 23
-3642.869162955411
 33
0.0
  0
SOLID
  5
2CA
330
2C5
100
AcDbEntity
  8
0
 62
   123
100
AcDbTrace
 10
15160.68964809034
 20
-3575.216670580852
 30
0.0
 11
15161.21648422491
 21
-3575.862339328534
 31
0.0
 12
15159.01605991458
 22
-3577.120013358466
 32
0.0
 13
15159.01605991458
 23
-3577.120013358466
 33
0.0
  0
MTEXT
  5
2CB
330
2C5
100
AcDbEntity
  8
0
 62
     3
100
AcDbMText
 10
15173.36786706631
 20
-3562.182967122031
 30
0.0
 40
3.0
 41
0.0
 71
     5
 72
     1
  1
\A1;\U+2205104%%P0.5
 11
0.774802497218882
 21
0.632203361509083
 31
0.0
1001
ACAD
1000
MTEXTBEGIN
1070
    73
1070
     1
1070
    44
1040
1.0
1070
    74
1070
     0
1000
MTEXTEND
  0
POINT
  5
2CC
330
2C5
100
AcDbEntity
  8
DEFPOINTS
 62
     0
100
AcDbPoint
 10
15159.01605991458
 20
-3577.120013358466
 30
0.0
  0
POINT
  5
2CD
330
2C5
100
AcDbEntity
  8
DEFPOINTS
 62
     0
100
AcDbPoint
 10
15078.43660020381
 20
-3642.869162955411
 30
0.0
  0
ENDBLK
  5
2CF
330
2C5
100
AcDbEntity
  8
0
100
AcDbBlockEnd
  0
BLOCK
  5
170
330
164
100
AcDbEntity
  8
0
100
AcDbBlockBegin
  2
*D17
 70
     1
 10
0.0
 20
0.0
 30
0.0
  3
*D17
  1

  0
LINE
  5
165
330
164
100
AcDbEntity
  8
0
 62
   123
100
AcDbLine
 10
15145.14250208084
 20
-3719.003085829016
 30
0.0
 11
15160.23983457501
 21
-3719.003085829016
 31
0.0
  0
LINE
  5
166
330
164
100
AcDbEntity
  8
0
 62
   123
100
AcDbLine
 10
15143.14250208084
 20
-3716.503085829016
 30
0.0
 11
15160.23983457501
 21
-3716.503085829016
 31
0.0
  0
LINE
  5
167
330
164
100
AcDbEntity
  8
0
 62
   123
100
AcDbLine
 10
15159.63983457502
 20
-3721.503085829016
 30
0.0
 11
15159.63983457502
 21
-3724.003085829016
 31
0.0
  0
LINE
  5
168
330
164
100
AcDbEntity
  8
0
 62
   123
100
AcDbLine
 10
15159.63983457502
 20
-3714.003085829016
 30
0.0
 11
15159.63983457502
 21
-3692.588800114733
 31
0.0
  0
LINE
  5
169
330
164
100
AcDbEntity
  8
0
 62
   123
100
AcDbLine
 10
15159.63983457502
 20
-3719.003085829016
 30
0.0
 11
15159.63983457502
 21
-3716.503085829016
 31
0.0
  0
SOLID
  5
16A
330
164
100
AcDbEntity
  8
0
 62
   123
100
AcDbTrace
 10
15159.22316790834
 20
-3721.503085829016
 30
0.0
 11
15160.05650124168
 21
-3721.503085829016
 31
0.0
 12
15159.63983457502
 22
-3719.003085829016
 32
0.0
 13
15159.63983457502
 23
-3719.003085829016
 33
0.0
  0
SOLID
  5
16B
330
164
100
AcDbEntity
  8
0
 62
   123
100
AcDbTrace
 10
15159.22316790834
 20
-3714.003085829016
 30
0.0
 11
15160.05650124168
 21
-3714.003085829016
 31
0.0
 12
15159.63983457502
 22
-3716.503085829016
 32
0.0
 13
15159.63983457502
 23
-3716.503085829016
 33
0.0
  0
MTEXT
  5
16C
330
164
100
AcDbEntity
  8
0
 62
     3
100
AcDbMText
 10
15156.18983457502
 20
-3700.295942971874
 30
0.0
 40
3.0
 41
0.0
 71
     5
 72
     1
  1
\A1;\A1;2.5{\f??|b0|i0|c0|p49;\H0.7x;\S+0.1^ -0;\H1.429x; }
 11
0.0000000000000001
 21
1.0
 31
0.0
1001
ACAD
1000
MTEXTBEGIN
1070
    73
1070
     1
1070
    44
1040
1.0
1070
    74
1070
     0
1000
MTEXTEND
  0
POINT
  5
16D
330
164
100
AcDbEntity
  8
DEFPOINTS
 62
     0
100
AcDbPoint
 10
15144.14250208084
 20
-3719.003085829016
 30
0.0
  0
POINT
  5
16E
330
164
100
AcDbEntity
  8
DEFPOINTS
 62
     0
100
AcDbPoint
 10
15142.14250208083
 20
-3716.503085829016
 30
0.0
  0
POINT
  5
16F
330
164
100
AcDbEntity
  8
DEFPOINTS
 62
     0
100
AcDbPoint
 10
15159.63983457502
 20
-3716.503085829016
 30
0.0
  0
ENDBLK
  5
171
330
164
100
AcDbEntity
  8
0
100
AcDbBlockEnd
  0
BLOCK
  5
19C
330
190
100
AcDbEntity
  8
0
100
AcDbBlockBegin
  2
*D18
 70
     1
 10
0.0
 20
0.0
 30
0.0
  3
*D18
  1

  0
LINE
  5
191
330
190
100
AcDbEntity
  8
0
 62
   123
100
AcDbLine
 10
15095.20912234029
 20
-3716.90279054202
 30
0.0
 11
15095.20912234029
 21
-3708.628314883388
 31
0.0
  0
LINE
  5
192
330
190
100
AcDbEntity
  8
0
 62
   123
100
AcDbLine
 10
15099.20912234029
 20
-3716.90279054202
 30
0.0
 11
15099.20912234029
 21
-3708.628314883388
 31
0.0
  0
LINE
  5
193
330
190
100
AcDbEntity
  8
0
 62
   123
100
AcDbLine
 10
15092.70912234029
 20
-3709.228314883388
 30
0.0
 11
15090.20912234029
 21
-3709.228314883388
 31
0.0
  0
LINE
  5
194
330
190
100
AcDbEntity
  8
0
 62
   123
100
AcDbLine
 10
15101.70912234029
 20
-3709.228314883388
 30
0.0
 11
15104.20912234029
 21
-3709.228314883388
 31
0.0
  0
LINE
  5
195
330
190
100
AcDbEntity
  8
0
 62
   123
100
AcDbLine
 10
15095.20912234029
 20
-3709.228314883388
 30
0.0
 11
15099.20912234029
 21
-3709.228314883388
 31
0.0
  0
SOLID
  5
196
330
190
100
AcDbEntity
  8
0
 62
   123
100
AcDbTrace
 10
15092.70912234029
 20
-3708.811648216722
 30
0.0
 11
15092.70912234029
 21
-3709.644981550053
 31
0.0
 12
15095.20912234029
 22
-3709.228314883388
 32
0.0
 13
15095.20912234029
 23
-3709.228314883388
 33
0.0
  0
SOLID
  5
197
330
190
100
AcDbEntity
  8
0
 62
   123
100
AcDbTrace
 10
15101.70912234029
 20
-3708.811648216722
 30
0.0
 11
15101.70912234029
 21
-3709.644981550053
 31
0.0
 12
15099.20912234029
 22
-3709.228314883388
 32
0.0
 13
15099.20912234029
 23
-3709.228314883388
 33
0.0
  0
MTEXT
  5
198
330
190
100
AcDbEntity
  8
0
 62
     3
100
AcDbMText
 10
15097.20912234029
 20
-3705.778314883388
 30
0.0
 40
3.0
 41
0.0
 71
     5
 72
     1
  1
\A1;\A1;4{\f??|b0|i0|c0|p49;\H0.7x;\S+0^ -0.03;}
1001
ACAD
1000
MTEXTBEGIN
1070
    73
1070
     1
1070
    44
1040
1.0
1070
    74
1070
     0
1000
MTEXTEND
  0
POINT
  5
199
330
190
100
AcDbEntity
  8
DEFPOINTS
 62
     0
100
AcDbPoint
 10
15095.20912234029
 20
-3717.90279054202
 30
0.0
  0
POINT
  5
19A
330
190
100
AcDbEntity
  8
DEFPOINTS
 62
     0
100
AcDbPoint
 10
15099.20912234029
 20
-3717.90279054202
 30
0.0
  0
POINT
  5
19B
330
190
100
AcDbEntity
  8
DEFPOINTS
 62
     0
100
AcDbPoint
 10
15099.20912234029
 20
-3709.228314883388
 30
0.0
  0
ENDBLK
  5
19D
330
190
100
AcDbEntity
  8
0
100
AcDbBlockEnd
  0
BLOCK
  5
1AF
330
1A5
100
AcDbEntity
  8
0
100
AcDbBlockBegin
  2
*D19
 70
     1
 10
0.0
 20
0.0
 30
0.0
  3
*D19
  1

  0
LINE
  5
1A6
330
1A5
100
AcDbEntity
  8
0
 62
   123
100
AcDbLine
 10
15053.03846905358
 20
-3718.902790542021
 30
0.0
 11
15053.03846905358
 21
-3709.497596561544
 31
0.0
  0
LINE
  5
1A7
330
1A5
100
AcDbEntity
  8
0
 62
   123
100
AcDbLine
 10
15078.03846905358
 20
-3716.90279054202
 30
0.0
 11
15078.03846905358
 21
-3709.497596561544
 31
0.0
  0
LINE
  5
1A8
330
1A5
100
AcDbEntity
  8
0
 62
   123
100
AcDbLine
 10
15055.53846905358
 20
-3710.097596561544
 30
0.0
 11
15075.53846905358
 21
-3710.097596561544
 31
0.0
  0
SOLID
  5
1A9
330
1A5
100
AcDbEntity
  8
0
 62
   123
100
AcDbTrace
 10
15055.53846905358
 20
-3709.680929894879
 30
0.0
 11
15055.53846905358
 21
-3710.514263228211
 31
0.0
 12
15053.03846905358
 22
-3710.097596561544
 32
0.0
 13
15053.03846905358
 23
-3710.097596561544
 33
0.0
  0
SOLID
  5
1AA
330
1A5
100
AcDbEntity
  8
0
 62
   123
100
AcDbTrace
 10
15075.53846905358
 20
-3709.680929894879
 30
0.0
 11
15075.53846905358
 21
-3710.514263228211
 31
0.0
 12
15078.03846905358
 22
-3710.097596561544
 32
0.0
 13
15078.03846905358
 23
-3710.097596561544
 33
0.0
  0
MTEXT
  5
1AB
330
1A5
100
AcDbEntity
  8
0
 62
     3
100
AcDbMText
 10
15065.53846905358
 20
-3707.597596561544
 30
0.0
 40
3.0
 41
0.0
 71
     5
 72
     1
  1
\A1;25{\f??|b0|i0|c0|p49;%%p0.2}
1001
ACAD
1000
MTEXTBEGIN
1070
    73
1070
     1
1070
    44
1040
1.0
1070
    74
1070
     0
1000
MTEXTEND
  0
POINT
  5
1AC
330
1A5
100
AcDbEntity
  8
DEFPOINTS
 62
     0
100
AcDbPoint
 10
15053.03846905358
 20
-3719.90279054202
 30
0.0
  0
POINT
  5
1AD
330
1A5
100
AcDbEntity
  8
DEFPOINTS
 62
     0
100
AcDbPoint
 10
15078.03846905358
 20
-3717.90279054202
 30
0.0
  0
POINT
  5
1AE
330
1A5
100
AcDbEntity
  8
DEFPOINTS
 62
     0
100
AcDbPoint
 10
15078.03846905358
 20
-3710.097596561544
 30
0.0
  0
ENDBLK
  5
1B0
330
1A5
100
AcDbEntity
  8
0
100
AcDbBlockEnd
  0
BLOCK
  5
1C6
330
1BA
100
AcDbEntity
  8
0
100
AcDbBlockBegin
  2
*D20
 70
     1
 10
0.0
 20
0.0
 30
0.0
  3
*D20
  1

  0
LINE
  5
1BB
330
1BA
100
AcDbEntity
  8
0
 62
   123
100
AcDbLine
 10
15140.14250208084
 20
-3715.920510134061
 30
0.0
 11
15140.14250208084
 21
-3707.561497589086
 31
0.0
  0
LINE
  5
1BC
330
1BA
100
AcDbEntity
  8
0
 62
   123
100
AcDbLine
 10
15144.14250208084
 20
-3715.920510134061
 30
0.0
 11
15144.14250208084
 21
-3707.561497589086
 31
0.0
  0
LINE
  5
1BD
330
1BA
100
AcDbEntity
  8
0
 62
   123
100
AcDbLine
 10
15137.64250208084
 20
-3708.161497589086
 30
0.0
 11
15135.14250208084
 21
-3708.161497589086
 31
0.0
  0
LINE
  5
1BE
330
1BA
100
AcDbEntity
  8
0
 62
   123
100
AcDbLine
 10
15146.64250208084
 20
-3708.161497589086
 30
0.0
 11
15149.14250208084
 21
-3708.161497589086
 31
0.0
  0
LINE
  5
1BF
330
1BA
100
AcDbEntity
  8
0
 62
   123
100
AcDbLine
 10
15140.14250208084
 20
-3708.161497589086
 30
0.0
 11
15144.14250208084
 21
-3708.161497589086
 31
0.0
  0
SOLID
  5
1C0
330
1BA
100
AcDbEntity
  8
0
 62
   123
100
AcDbTrace
 10
15137.64250208084
 20
-3707.744830922418
 30
0.0
 11
15137.64250208084
 21
-3708.578164255753
 31
0.0
 12
15140.14250208084
 22
-3708.161497589086
 32
0.0
 13
15140.14250208084
 23
-3708.161497589086
 33
0.0
  0
SOLID
  5
1C1
330
1BA
100
AcDbEntity
  8
0
 62
   123
100
AcDbTrace
 10
15146.64250208084
 20
-3707.744830922418
 30
0.0
 11
15146.64250208084
 21
-3708.578164255753
 31
0.0
 12
15144.14250208084
 22
-3708.161497589086
 32
0.0
 13
15144.14250208084
 23
-3708.161497589086
 33
0.0
  0
MTEXT
  5
1C2
330
1BA
100
AcDbEntity
  8
0
 62
     3
100
AcDbMText
 10
15142.14250208083
 20
-3704.711497589086
 30
0.0
 40
3.0
 41
0.0
 71
     5
 72
     1
  1
\A1;\A1;4{\f??|b0|i0|c0|p49;\H0.7x;\S+0.40^ -0;}
1001
ACAD
1000
MTEXTBEGIN
1070
    73
1070
     1
1070
    44
1040
1.0
1070
    74
1070
     0
1000
MTEXTEND
  0
POINT
  5
1C3
330
1BA
100
AcDbEntity
  8
DEFPOINTS
 62
     0
100
AcDbPoint
 10
15140.14250208084
 20
-3716.920510134061
 30
0.0
  0
POINT
  5
1C4
330
1BA
100
AcDbEntity
  8
DEFPOINTS
 62
     0
100
AcDbPoint
 10
15144.14250208084
 20
-3716.920510134061
 30
0.0
  0
POINT
  5
1C5
330
1BA
100
AcDbEntity
  8
DEFPOINTS
 62
     0
100
AcDbPoint
 10
15144.14250208084
 20
-3708.161497589086
 30
0.0
  0
ENDBLK
  5
1C7
330
1BA
100
AcDbEntity
  8
0
100
AcDbBlockEnd
  0
BLOCK
  5
C9
330
C0
100
AcDbEntity
  8
0
100
AcDbBlockBegin
  2
*D21
 70
     1
 10
0.0
 20
0.0
 30
0.0
  3
*D21
  1

  0
LINE
  5
C1
330
C0
100
AcDbEntity
  8
0
 62
   123
100
AcDbLine
 10
15093.06040675975
 20
-3503.458050999709
 30
0.0
 11
15091.12340051671
 21
-3505.038559403482
 31
0.0
  0
LINE
  5
C2
330
C0
100
AcDbEntity
  8
0
 62
   123
100
AcDbLine
 10
15177.51387895661
 20
-3434.547884595254
 30
0.0
 11
15200.53010305816
 21
-3415.76769958235
 31
0.0
  0
LINE
  5
C3
330
C0
100
AcDbEntity
  8
0
 62
   123
100
AcDbLine
 10
15094.99741300281
 20
-3501.877542595938
 30
0.0
 11
15175.57687271357
 21
-3436.128392999028
 31
0.0
  0
SOLID
  5
C4
330
C0
100
AcDbEntity
  8
0
 62
   123
100
AcDbTrace
 10
15092.79698869245
 20
-3503.135216625869
 30
0.0
 11
15093.32382482704
 21
-3503.780885373551
 31
0.0
 12
15094.99741300281
 22
-3501.877542595938
 32
0.0
 13
15094.99741300281
 23
-3501.877542595938
 33
0.0
  0
SOLID
  5
C5
330
C0
100
AcDbEntity
  8
0
 62
   123
100
AcDbTrace
 10
15177.25046088933
 20
-3434.225050221415
 30
0.0
 11
15177.77729702391
 21
-3434.870718969097
 31
0.0
 12
15175.57687271357
 22
-3436.128392999028
 32
0.0
 13
15175.57687271357
 23
-3436.128392999028
 33
0.0
  0
MTEXT
  5
C6
330
C0
100
AcDbEntity
  8
0
 62
     3
100
AcDbMText
 10
15189.92867986534
 20
-3421.191346762583
 30
0.0
 40
3.0
 41
0.0
 71
     5
 72
     1
  1
\A1;\U+2205104%%P0.5
 11
0.7748024972190459
 21
0.6322033615088822
 31
0.0
1001
ACAD
1000
MTEXTBEGIN
1070
    73
1070
     1
1070
    44
1040
1.0
1070
    74
1070
     0
1000
MTEXTEND
  0
POINT
  5
C7
330
C0
100
AcDbEntity
  8
DEFPOINTS
 62
     0
100
AcDbPoint
 10
15175.57687271357
 20
-3436.128392999028
 30
0.0
  0
POINT
  5
C8
330
C0
100
AcDbEntity
  8
DEFPOINTS
 62
     0
100
AcDbPoint
 10
15094.99741300281
 20
-3501.877542595938
 30
0.0
  0
ENDBLK
  5
CA
330
C0
100
AcDbEntity
  8
0
100
AcDbBlockEnd
  0
BLOCK
  5
32C
330
320
100
AcDbEntity
  8
0
100
AcDbBlockBegin
  2
*D22
 70
     1
 10
0.0
 20
0.0
 30
0.0
  3
*D22
  1

  0
LINE
  5
321
330
320
100
AcDbEntity
  8
0
 62
   123
100
AcDbLine
 10
15233.79047971714
 20
-3597.973695839282
 30
0.0
 11
15219.62211888646
 21
-3597.973695839282
 31
0.0
  0
LINE
  5
322
330
320
100
AcDbEntity
  8
0
 62
   123
100
AcDbLine
 10
15233.79047971714
 20
-3585.973695839282
 30
0.0
 11
15219.62211888646
 21
-3585.973695839282
 31
0.0
  0
LINE
  5
323
330
320
100
AcDbEntity
  8
0
 62
   123
100
AcDbLine
 10
15220.22211888647
 20
-3600.473695839282
 30
0.0
 11
15220.22211888647
 21
-3602.973695839282
 31
0.0
  0
LINE
  5
324
330
320
100
AcDbEntity
  8
0
 62
   123
100
AcDbLine
 10
15220.22211888647
 20
-3583.473695839282
 30
0.0
 11
15220.22211888647
 21
-3542.965040502019
 31
0.0
  0
LINE
  5
325
330
320
100
AcDbEntity
  8
0
 62
   123
100
AcDbLine
 10
15220.22211888647
 20
-3597.973695839282
 30
0.0
 11
15220.22211888647
 21
-3585.973695839282
 31
0.0
  0
SOLID
  5
326
330
320
100
AcDbEntity
  8
0
 62
   123
100
AcDbTrace
 10
15219.8054522198
 20
-3600.473695839282
 30
0.0
 11
15220.63878555313
 21
-3600.473695839282
 31
0.0
 12
15220.22211888647
 22
-3597.973695839282
 32
0.0
 13
15220.22211888647
 23
-3597.973695839282
 33
0.0
  0
SOLID
  5
327
330
320
100
AcDbEntity
  8
0
 62
   123
100
AcDbTrace
 10
15219.8054522198
 20
-3583.473695839282
 30
0.0
 11
15220.63878555313
 21
-3583.473695839282
 31
0.0
 12
15220.22211888647
 22
-3585.973695839282
 32
0.0
 13
15220.22211888647
 23
-3585.973695839282
 33
0.0
  0
MTEXT
  5
328
330
320
100
AcDbEntity
  8
0
 62
     3
100
AcDbMText
 10
15216.27196888647
 20
-3557.780611930589
 30
0.0
 40
3.0
 41
0.0
 71
     5
 72
     1
  1
\A1;\A1;{\f??|b0|i0|c0|p49;%%C12\H0.7x;\S+0^ -0.018;\H1.429x;(h7)}
 11
0.0000000000000001
 21
1.0
 31
0.0
1001
ACAD
1000
MTEXTBEGIN
1070
    73
1070
     1
1070
    44
1040
1.0
1070
    74
1070
     0
1000
MTEXTEND
  0
POINT
  5
329
330
320
100
AcDbEntity
  8
DEFPOINTS
 62
     0
100
AcDbPoint
 10
15234.79047971714
 20
-3597.973695839282
 30
0.0
  0
POINT
  5
32A
330
320
100
AcDbEntity
  8
DEFPOINTS
 62
     0
100
AcDbPoint
 10
15234.79047971714
 20
-3585.973695839282
 30
0.0
  0
POINT
  5
32B
330
320
100
AcDbEntity
  8
DEFPOINTS
 62
     0
100
AcDbPoint
 10
15220.22211888647
 20
-3585.973695839282
 30
0.0
  0
ENDBLK
  5
32D
330
320
100
AcDbEntity
  8
0
100
AcDbBlockEnd
  0
BLOCK
  5
3C5
330
3BB
100
AcDbEntity
  8
0
100
AcDbBlockBegin
  2
*D23
 70
     1
 10
0.0
 20
0.0
 30
0.0
  3
*D23
  1

  0
LINE
  5
3BC
330
3BB
100
AcDbEntity
  8
0
 62
   123
100
AcDbLine
 10
15254.83564752936
 20
-3423.002967797561
 30
0.0
 11
15254.83564752936
 21
-3401.351687010738
 31
0.0
  0
LINE
  5
3BD
330
3BB
100
AcDbEntity
  8
0
 62
   123
100
AcDbLine
 10
15291.83564752936
 20
-3423.002967797561
 30
0.0
 11
15291.83564752936
 21
-3401.351687010738
 31
0.0
  0
LINE
  5
3BE
330
3BB
100
AcDbEntity
  8
0
 62
   123
100
AcDbLine
 10
15257.33564752936
 20
-3401.951687010738
 30
0.0
 11
15289.33564752936
 21
-3401.951687010738
 31
0.0
  0
SOLID
  5
3BF
330
3BB
100
AcDbEntity
  8
0
 62
   123
100
AcDbTrace
 10
15257.33564752936
 20
-3401.535020344072
 30
0.0
 11
15257.33564752936
 21
-3402.368353677404
 31
0.0
 12
15254.83564752936
 22
-3401.951687010738
 32
0.0
 13
15254.83564752936
 23
-3401.951687010738
 33
0.0
  0
SOLID
  5
3C0
330
3BB
100
AcDbEntity
  8
0
 62
   123
100
AcDbTrace
 10
15289.33564752936
 20
-3401.535020344072
 30
0.0
 11
15289.33564752936
 21
-3402.368353677404
 31
0.0
 12
15291.83564752936
 22
-3401.951687010738
 32
0.0
 13
15291.83564752936
 23
-3401.951687010738
 33
0.0
  0
MTEXT
  5
3C1
330
3BB
100
AcDbEntity
  8
0
 62
     3
100
AcDbMText
 10
15273.33564752936
 20
-3399.451687010737
 30
0.0
 40
3.0
 41
0.0
 71
     5
 72
     1
  1
\A1;37
1001
ACAD
1000
MTEXTBEGIN
1070
    73
1070
     1
1070
    44
1040
1.0
1070
    74
1070
     0
1000
MTEXTEND
  0
POINT
  5
3C2
330
3BB
100
AcDbEntity
  8
DEFPOINTS
 62
     0
100
AcDbPoint
 10
15254.83564752936
 20
-3424.002967797562
 30
0.0
  0
POINT
  5
3C3
330
3BB
100
AcDbEntity
  8
DEFPOINTS
 62
     0
100
AcDbPoint
 10
15291.83564752936
 20
-3424.002967797562
 30
0.0
  0
POINT
  5
3C4
330
3BB
100
AcDbEntity
  8
DEFPOINTS
 62
     0
100
AcDbPoint
 10
15291.83564752936
 20
-3401.951687010738
 30
0.0
  0
ENDBLK
  5
3C6
330
3BB
100
AcDbEntity
  8
0
100
AcDbBlockEnd
  0
BLOCK
  5
BB
330
B0
100
AcDbEntity
  8
0
100
AcDbBlockBegin
  2
*D24
 70
     1
 10
0.0
 20
0.0
 30
0.0
  3
*D24
  1

  0
LINE
  5
B1
330
B0
100
AcDbEntity
  8
0
 62
   123
100
AcDbLine
 10
15251.83564752936
 20
-3427.502967797561
 30
0.0
 11
15226.71927918672
 21
-3427.502967797561
 31
0.0
  0
LINE
  5
B2
330
B0
100
AcDbEntity
  8
0
 62
   123
100
AcDbLine
 10
15251.83564752936
 20
-3510.50296779756
 30
0.0
 11
15226.71927918672
 21
-3510.50296779756
 31
0.0
  0
LINE
  5
B3
330
B0
100
AcDbEntity
  8
0
 62
   123
100
AcDbLine
 10
15227.31927918671
 20
-3430.002967797561
 30
0.0
 11
15227.31927918671
 21
-3508.002967797561
 31
0.0
  0
SOLID
  5
B4
330
B0
100
AcDbEntity
  8
0
 62
   123
100
AcDbTrace
 10
15226.90261252005
 20
-3430.002967797561
 30
0.0
 11
15227.73594585339
 21
-3430.002967797561
 31
0.0
 12
15227.31927918671
 22
-3427.502967797561
 32
0.0
 13
15227.31927918671
 23
-3427.502967797561
 33
0.0
  0
SOLID
  5
B5
330
B0
100
AcDbEntity
  8
0
 62
   123
100
AcDbTrace
 10
15226.90261252005
 20
-3508.002967797561
 30
0.0
 11
15227.73594585339
 21
-3508.002967797561
 31
0.0
 12
15227.31927918671
 22
-3510.50296779756
 32
0.0
 13
15227.31927918671
 23
-3510.50296779756
 33
0.0
  0
MTEXT
  5
B6
330
B0
100
AcDbEntity
  8
0
 62
     3
100
AcDbMText
 10
15223.36912918671
 20
-3469.744375978386
 30
0.0
 40
3.0
 41
0.0
 71
     5
 72
     1
  1
\A1;\A1;{\f??|b0|i0|c0|p49;%%c}83{\f??|b0|i0|c0|p49;\H0.7x;\S+0^ -0.035;\H1.429x;(h7)}
 11
0.0000000000000001
 21
1.0
 31
0.0
1001
ACAD
1000
MTEXTBEGIN
1070
    73
1070
     1
1070
    44
1040
1.0
1070
    74
1070
     0
1000
MTEXTEND
  0
POINT
  5
B7
330
B0
100
AcDbEntity
  8
DEFPOINTS
 62
     0
100
AcDbPoint
 10
15252.83564752936
 20
-3427.502967797561
 30
0.0
  0
POINT
  5
B9
330
B0
100
AcDbEntity
  8
DEFPOINTS
 62
     0
100
AcDbPoint
 10
15252.83564752936
 20
-3510.50296779756
 30
0.0
  0
POINT
  5
BA
330
B0
100
AcDbEntity
  8
DEFPOINTS
 62
     0
100
AcDbPoint
 10
15227.31927918671
 20
-3510.50296779756
 30
0.0
  0
ENDBLK
  5
BC
330
B0
100
AcDbEntity
  8
0
100
AcDbBlockEnd
  0
BLOCK
  5
3B4
330
3A8
100
AcDbEntity
  8
0
100
AcDbBlockBegin
  2
*D25
 70
     1
 10
0.0
 20
0.0
 30
0.0
  3
*D25
  1

  0
LINE
  5
3A9
330
3A8
100
AcDbEntity
  8
0
 62
   123
100
AcDbLine
 10
15252.83564752936
 20
-3426.502967797562
 30
0.0
 11
15252.83564752936
 21
-3411.57732740415
 31
0.0
  0
LINE
  5
3AA
330
3A8
100
AcDbEntity
  8
0
 62
   123
100
AcDbLine
 10
15254.83564752936
 20
-3423.002967797561
 30
0.0
 11
15254.83564752936
 21
-3411.57732740415
 31
0.0
  0
LINE
  5
3AB
330
3A8
100
AcDbEntity
  8
0
 62
   123
100
AcDbLine
 10
15250.33564752936
 20
-3412.17732740415
 30
0.0
 11
15247.83564752936
 21
-3412.17732740415
 31
0.0
  0
LINE
  5
3AC
330
3A8
100
AcDbEntity
  8
0
 62
   123
100
AcDbLine
 10
15257.33564752936
 20
-3412.17732740415
 30
0.0
 11
15265.83564752936
 21
-3412.17732740415
 31
0.0
  0
LINE
  5
3AD
330
3A8
100
AcDbEntity
  8
0
 62
   123
100
AcDbLine
 10
15252.83564752936
 20
-3412.17732740415
 30
0.0
 11
15254.83564752936
 21
-3412.17732740415
 31
0.0
  0
SOLID
  5
3AE
330
3A8
100
AcDbEntity
  8
0
 62
   123
100
AcDbTrace
 10
15250.33564752936
 20
-3411.760660737483
 30
0.0
 11
15250.33564752936
 21
-3412.593994070816
 31
0.0
 12
15252.83564752936
 22
-3412.17732740415
 32
0.0
 13
15252.83564752936
 23
-3412.17732740415
 33
0.0
  0
SOLID
  5
3AF
330
3A8
100
AcDbEntity
  8
0
 62
   123
100
AcDbTrace
 10
15257.33564752936
 20
-3411.760660737483
 30
0.0
 11
15257.33564752936
 21
-3412.593994070816
 31
0.0
 12
15254.83564752936
 22
-3412.17732740415
 32
0.0
 13
15254.83564752936
 23
-3412.17732740415
 33
0.0
  0
MTEXT
  5
3B0
330
3A8
100
AcDbEntity
  8
0
 62
     3
100
AcDbMText
 10
15263.83564752936
 20
-3409.677327404149
 30
0.0
 40
3.0
 41
0.0
 71
     5
 72
     1
  1
\A1;2
1001
ACAD
1000
MTEXTBEGIN
1070
    73
1070
     1
1070
    44
1040
1.0
1070
    74
1070
     0
1000
MTEXTEND
  0
POINT
  5
3B1
330
3A8
100
AcDbEntity
  8
DEFPOINTS
 62
     0
100
AcDbPoint
 10
15252.83564752936
 20
-3427.502967797561
 30
0.0
  0
POINT
  5
3B2
330
3A8
100
AcDbEntity
  8
DEFPOINTS
 62
     0
100
AcDbPoint
 10
15254.83564752936
 20
-3424.00296779756
 30
0.0
  0
POINT
  5
3B3
330
3A8
100
AcDbEntity
  8
DEFPOINTS
 62
     0
100
AcDbPoint
 10
15254.83564752936
 20
-3412.17732740415
 30
0.0
  0
ENDBLK
  5
3B5
330
3A8
100
AcDbEntity
  8
0
100
AcDbBlockEnd
  0
BLOCK
  5
350
330
346
100
AcDbEntity
  8
0
100
AcDbBlockBegin
  2
*D26
 70
     1
 10
0.0
 20
0.0
 30
0.0
  3
*D26
  1

  0
LINE
  5
347
330
346
100
AcDbEntity
  8
0
 62
   123
100
AcDbLine
 10
15229.8923409159
 20
-3591.973695839282
 30
0.0
 11
15208.07723951953
 21
-3591.973695839282
 31
0.0
  0
LINE
  5
348
330
346
100
AcDbEntity
  8
0
 62
   123
100
AcDbLine
 10
15222.18280658304
 20
-3609.973695839282
 30
0.0
 11
15208.07723951953
 21
-3609.973695839282
 31
0.0
  0
LINE
  5
349
330
346
100
AcDbEntity
  8
0
 62
   123
100
AcDbLine
 10
15208.67723951953
 20
-3594.473695839282
 30
0.0
 11
15208.67723951953
 21
-3607.473695839282
 31
0.0
  0
SOLID
  5
34A
330
346
100
AcDbEntity
  8
0
 62
   123
100
AcDbTrace
 10
15208.26057285287
 20
-3594.473695839282
 30
0.0
 11
15209.0939061862
 21
-3594.473695839282
 31
0.0
 12
15208.67723951953
 22
-3591.973695839282
 32
0.0
 13
15208.67723951953
 23
-3591.973695839282
 33
0.0
  0
SOLID
  5
34B
330
346
100
AcDbEntity
  8
0
 62
   123
100
AcDbTrace
 10
15208.26057285287
 20
-3607.473695839282
 30
0.0
 11
15209.0939061862
 21
-3607.473695839282
 31
0.0
 12
15208.67723951953
 22
-3609.973695839282
 32
0.0
 13
15208.67723951953
 23
-3609.973695839282
 33
0.0
  0
MTEXT
  5
34C
330
346
100
AcDbEntity
  8
0
 62
     3
100
AcDbMText
 10
15206.17723951953
 20
-3600.97369583928
 30
0.0
 40
3.0
 41
0.0
 71
     5
 72
     1
  1
\A1;18
 11
0.0000000000000001
 21
1.0
 31
0.0
1001
ACAD
1000
MTEXTBEGIN
1070
    73
1070
     1
1070
    44
1040
1.0
1070
    74
1070
     0
1000
MTEXTEND
  0
POINT
  5
34D
330
346
100
AcDbEntity
  8
DEFPOINTS
 62
     0
100
AcDbPoint
 10
15230.8923409159
 20
-3591.973695839282
 30
0.0
  0
POINT
  5
34E
330
346
100
AcDbEntity
  8
DEFPOINTS
 62
     0
100
AcDbPoint
 10
15223.18280658303
 20
-3609.973695839282
 30
0.0
  0
POINT
  5
34F
330
346
100
AcDbEntity
  8
DEFPOINTS
 62
     0
100
AcDbPoint
 10
15208.67723951953
 20
-3609.973695839282
 30
0.0
  0
ENDBLK
  5
351
330
346
100
AcDbEntity
  8
0
100
AcDbBlockEnd
  0
BLOCK
  5
222
330
218
100
AcDbEntity
  8
0
100
AcDbBlockBegin
  2
*D27
 70
     1
 10
0.0
 20
0.0
 30
0.0
  3
*D27
  1

  0
LINE
  5
219
330
218
100
AcDbEntity
  8
0
 62
   123
100
AcDbLine
 10
15354.79446000855
 20
-3783.23776643356
 30
0.0
 11
15354.79446000855
 21
-3768.598732949387
 31
0.0
  0
LINE
  5
21A
330
218
100
AcDbEntity
  8
0
 62
   123
100
AcDbLine
 10
15382.79446000855
 20
-3791.23776643356
 30
0.0
 11
15382.79446000855
 21
-3768.598732949387
 31
0.0
  0
LINE
  5
21B
330
218
100
AcDbEntity
  8
0
 62
   123
100
AcDbLine
 10
15357.29446000854
 20
-3769.198732949387
 30
0.0
 11
15380.29446000854
 21
-3769.198732949387
 31
0.0
  0
SOLID
  5
21C
330
218
100
AcDbEntity
  8
0
 62
   123
100
AcDbTrace
 10
15357.29446000854
 20
-3768.78206628272
 30
0.0
 11
15357.29446000854
 21
-3769.615399616053
 31
0.0
 12
15354.79446000855
 22
-3769.198732949387
 32
0.0
 13
15354.79446000855
 23
-3769.198732949387
 33
0.0
  0
SOLID
  5
21D
330
218
100
AcDbEntity
  8
0
 62
   123
100
AcDbTrace
 10
15380.29446000854
 20
-3768.78206628272
 30
0.0
 11
15380.29446000854
 21
-3769.615399616053
 31
0.0
 12
15382.79446000855
 22
-3769.198732949387
 32
0.0
 13
15382.79446000855
 23
-3769.198732949387
 33
0.0
  0
MTEXT
  5
21E
330
218
100
AcDbEntity
  8
0
 62
     3
100
AcDbMText
 10
15368.79446000854
 20
-3766.698732949388
 30
0.0
 40
3.0
 41
0.0
 71
     5
 72
     1
  1
\A1;MAX. 28
1001
ACAD
1000
MTEXTBEGIN
1070
    73
1070
     1
1070
    44
1040
1.0
1070
    74
1070
     0
1000
MTEXTEND
  0
POINT
  5
21F
330
218
100
AcDbEntity
  8
DEFPOINTS
 62
     0
100
AcDbPoint
 10
15354.79446000855
 20
-3784.23776643356
 30
0.0
  0
POINT
  5
220
330
218
100
AcDbEntity
  8
DEFPOINTS
 62
     0
100
AcDbPoint
 10
15382.79446000855
 20
-3792.23776643356
 30
0.0
  0
POINT
  5
221
330
218
100
AcDbEntity
  8
DEFPOINTS
 62
     0
100
AcDbPoint
 10
15382.79446000855
 20
-3769.198732949387
 30
0.0
  0
ENDBLK
  5
223
330
218
100
AcDbEntity
  8
0
100
AcDbBlockEnd
  0
BLOCK
  5
294
330
28A
100
AcDbEntity
  8
0
100
AcDbBlockBegin
  2
*D28
 70
     1
 10
0.0
 20
0.0
 30
0.0
  3
*D28
  1

  0
LINE
  5
28B
330
28A
100
AcDbEntity
  8
0
 62
   123
100
AcDbLine
 10
15279.79779300854
 20
-3814.537766433559
 30
0.0
 11
15279.79779300854
 21
-3768.582161928875
 31
0.0
  0
LINE
  5
28C
330
28A
100
AcDbEntity
  8
0
 62
   123
100
AcDbLine
 10
15354.79446000855
 20
-3783.23776643356
 30
0.0
 11
15354.79446000855
 21
-3768.582161928875
 31
0.0
  0
LINE
  5
28D
330
28A
100
AcDbEntity
  8
0
 62
   123
100
AcDbLine
 10
15282.29779300855
 20
-3769.182161928876
 30
0.0
 11
15352.29446000855
 21
-3769.182161928876
 31
0.0
  0
SOLID
  5
28E
330
28A
100
AcDbEntity
  8
0
 62
   123
100
AcDbTrace
 10
15282.29779300855
 20
-3768.76549526221
 30
0.0
 11
15282.29779300855
 21
-3769.598828595543
 31
0.0
 12
15279.79779300854
 22
-3769.182161928876
 32
0.0
 13
15279.79779300854
 23
-3769.182161928876
 33
0.0
  0
SOLID
  5
28F
330
28A
100
AcDbEntity
  8
0
 62
   123
100
AcDbTrace
 10
15352.29446000855
 20
-3768.76549526221
 30
0.0
 11
15352.29446000855
 21
-3769.598828595543
 31
0.0
 12
15354.79446000855
 22
-3769.182161928876
 32
0.0
 13
15354.79446000855
 23
-3769.182161928876
 33
0.0
  0
MTEXT
  5
290
330
28A
100
AcDbEntity
  8
0
 62
     3
100
AcDbMText
 10
15310.6976702513
 20
-3766.682161928876
 30
0.0
 40
3.0
 41
0.0
 71
     5
 72
     1
  1
\A1;75
1001
ACAD
1000
MTEXTBEGIN
1070
    73
1070
     1
1070
    44
1040
1.0
1070
    74
1070
     0
1000
MTEXTEND
  0
POINT
  5
291
330
28A
100
AcDbEntity
  8
DEFPOINTS
 62
     0
100
AcDbPoint
 10
15279.79779300854
 20
-3815.537766433559
 30
0.0
  0
POINT
  5
292
330
28A
100
AcDbEntity
  8
DEFPOINTS
 62
     0
100
AcDbPoint
 10
15354.79446000855
 20
-3784.23776643356
 30
0.0
  0
POINT
  5
293
330
28A
100
AcDbEntity
  8
DEFPOINTS
 62
     0
100
AcDbPoint
 10
15354.79446000855
 20
-3769.182161928876
 30
0.0
  0
ENDBLK
  5
295
330
28A
100
AcDbEntity
  8
0
100
AcDbBlockEnd
  0
BLOCK
  5
2A5
330
299
100
AcDbEntity
  8
0
100
AcDbBlockBegin
  2
*D29
 70
     1
 10
0.0
 20
0.0
 30
0.0
  3
*D29
  1

  0
LINE
  5
29A
330
299
100
AcDbEntity
  8
0
 62
   123
100
AcDbLine
 10
15273.79779300854
 20
-3823.23776543356
 30
0.0
 11
15273.79779300854
 21
-3768.582161928875
 31
0.0
  0
LINE
  5
29B
330
299
100
AcDbEntity
  8
0
 62
   123
100
AcDbLine
 10
15279.79779300854
 20
-3814.537766433559
 30
0.0
 11
15279.79779300854
 21
-3768.582161928875
 31
0.0
  0
LINE
  5
29C
330
299
100
AcDbEntity
  8
0
 62
   123
100
AcDbLine
 10
15271.29779300854
 20
-3769.182161928876
 30
0.0
 11
15268.79779300855
 21
-3769.182161928876
 31
0.0
  0
LINE
  5
29D
330
299
100
AcDbEntity
  8
0
 62
   123
100
AcDbLine
 10
15282.29779300855
 20
-3769.182161928876
 30
0.0
 11
15284.79779300854
 21
-3769.182161928876
 31
0.0
  0
LINE
  5
29E
330
299
100
AcDbEntity
  8
0
 62
   123
100
AcDbLine
 10
15273.79779300854
 20
-3769.182161928876
 30
0.0
 11
15279.79779300854
 21
-3769.182161928876
 31
0.0
  0
SOLID
  5
29F
330
299
100
AcDbEntity
  8
0
 62
   123
100
AcDbTrace
 10
15271.29779300854
 20
-3768.76549526221
 30
0.0
 11
15271.29779300854
 21
-3769.598828595543
 31
0.0
 12
15273.79779300854
 22
-3769.182161928876
 32
0.0
 13
15273.79779300854
 23
-3769.182161928876
 33
0.0
  0
SOLID
  5
2A0
330
299
100
AcDbEntity
  8
0
 62
   123
100
AcDbTrace
 10
15282.29779300855
 20
-3768.76549526221
 30
0.0
 11
15282.29779300855
 21
-3769.598828595543
 31
0.0
 12
15279.79779300854
 22
-3769.182161928876
 32
0.0
 13
15279.79779300854
 23
-3769.182161928876
 33
0.0
  0
MTEXT
  5
2A1
330
299
100
AcDbEntity
  8
0
 62
     3
100
AcDbMText
 10
15276.79779300854
 20
-3766.682161928876
 30
0.0
 40
3.0
 41
0.0
 71
     5
 72
     1
  1
\A1;6
1001
ACAD
1000
MTEXTBEGIN
1070
    73
1070
     1
1070
    44
1040
1.0
1070
    74
1070
     0
1000
MTEXTEND
  0
POINT
  5
2A2
330
299
100
AcDbEntity
  8
DEFPOINTS
 62
     0
100
AcDbPoint
 10
15273.79779300854
 20
-3824.237765433561
 30
0.0
  0
POINT
  5
2A3
330
299
100
AcDbEntity
  8
DEFPOINTS
 62
     0
100
AcDbPoint
 10
15279.79779300854
 20
-3815.537766433559
 30
0.0
  0
POINT
  5
2A4
330
299
100
AcDbEntity
  8
DEFPOINTS
 62
     0
100
AcDbPoint
 10
15279.79779300854
 20
-3769.182161928876
 30
0.0
  0
ENDBLK
  5
2A6
330
299
100
AcDbEntity
  8
0
100
AcDbBlockEnd
  0
BLOCK
  5
128
330
11E
100
AcDbEntity
  8
0
100
AcDbBlockBegin
  2
*D30
 70
     1
 10
0.0
 20
0.0
 30
0.0
  3
*D30
  1

  0
LINE
  5
11F
330
11E
100
AcDbEntity
  8
0
 62
   123
100
AcDbLine
 10
15273.79779300854
 20
-3915.237765433561
 30
0.0
 11
15273.79779300854
 21
-3929.364610561469
 31
0.0
  0
LINE
  5
120
330
11E
100
AcDbEntity
  8
0
 62
   123
100
AcDbLine
 10
15281.29779300854
 20
-3913.83650277509
 30
0.0
 11
15281.29779300854
 21
-3929.364610561469
 31
0.0
  0
LINE
  5
121
330
11E
100
AcDbEntity
  8
0
 62
   123
100
AcDbLine
 10
15276.29779300854
 20
-3928.764610561469
 30
0.0
 11
15278.79779300854
 21
-3928.764610561469
 31
0.0
  0
SOLID
  5
122
330
11E
100
AcDbEntity
  8
0
 62
   123
100
AcDbTrace
 10
15276.29779300854
 20
-3928.347943894802
 30
0.0
 11
15276.29779300854
 21
-3929.181277228136
 31
0.0
 12
15273.79779300854
 22
-3928.764610561469
 32
0.0
 13
15273.79779300854
 23
-3928.764610561469
 33
0.0
  0
SOLID
  5
123
330
11E
100
AcDbEntity
  8
0
 62
   123
100
AcDbTrace
 10
15278.79779300854
 20
-3928.347943894802
 30
0.0
 11
15278.79779300854
 21
-3929.181277228136
 31
0.0
 12
15281.29779300854
 22
-3928.764610561469
 32
0.0
 13
15281.29779300854
 23
-3928.764610561469
 33
0.0
  0
MTEXT
  5
124
330
11E
100
AcDbEntity
  8
0
 62
     3
100
AcDbMText
 10
15277.54779300854
 20
-3926.264610561469
 30
0.0
 40
3.0
 41
0.0
 71
     5
 72
     1
  1
\A1;7.5
1001
ACAD
1000
MTEXTBEGIN
1070
    73
1070
     1
1070
    44
1040
1.0
1070
    74
1070
     0
1000
MTEXTEND
  0
POINT
  5
125
330
11E
100
AcDbEntity
  8
DEFPOINTS
 62
     0
100
AcDbPoint
 10
15273.79779300854
 20
-3914.237765433561
 30
0.0
  0
POINT
  5
126
330
11E
100
AcDbEntity
  8
DEFPOINTS
 62
     0
100
AcDbPoint
 10
15281.29779300854
 20
-3912.836502775089
 30
0.0
  0
POINT
  5
127
330
11E
100
AcDbEntity
  8
DEFPOINTS
 62
     0
100
AcDbPoint
 10
15281.29779300854
 20
-3928.764610561469
 30
0.0
  0
ENDBLK
  5
129
330
11E
100
AcDbEntity
  8
0
100
AcDbBlockEnd
  0
BLOCK
  5
15E
330
154
100
AcDbEntity
  8
0
100
AcDbBlockBegin
  2
*D31
 70
     1
 10
0.0
 20
0.0
 30
0.0
  3
*D31
  1

  0
LINE
  5
155
330
154
100
AcDbEntity
  8
0
 62
   123
100
AcDbLine
 10
15273.79779300854
 20
-3915.237765433561
 30
0.0
 11
15273.79779300854
 21
-3938.519619073952
 31
0.0
  0
LINE
  5
156
330
154
100
AcDbEntity
  8
0
 62
   123
100
AcDbLine
 10
15378.79779300854
 20
-3912.237765433561
 30
0.0
 11
15378.79779300854
 21
-3938.519619073952
 31
0.0
  0
LINE
  5
157
330
154
100
AcDbEntity
  8
0
 62
   123
100
AcDbLine
 10
15276.29779300854
 20
-3937.919619073953
 30
0.0
 11
15376.29779300854
 21
-3937.919619073953
 31
0.0
  0
SOLID
  5
158
330
154
100
AcDbEntity
  8
0
 62
   123
100
AcDbTrace
 10
15276.29779300854
 20
-3937.502952407285
 30
0.0
 11
15276.29779300854
 21
-3938.33628574062
 31
0.0
 12
15273.79779300854
 22
-3937.919619073953
 32
0.0
 13
15273.79779300854
 23
-3937.919619073953
 33
0.0
  0
SOLID
  5
159
330
154
100
AcDbEntity
  8
0
 62
   123
100
AcDbTrace
 10
15376.29779300854
 20
-3937.502952407285
 30
0.0
 11
15376.29779300854
 21
-3938.33628574062
 31
0.0
 12
15378.79779300854
 22
-3937.919619073953
 32
0.0
 13
15378.79779300854
 23
-3937.919619073953
 33
0.0
  0
MTEXT
  5
15A
330
154
100
AcDbEntity
  8
0
 62
     3
100
AcDbMText
 10
15326.29779300854
 20
-3935.419619073952
 30
0.0
 40
3.0
 41
0.0
 71
     5
 72
     1
  1
\A1;105
1001
ACAD
1000
MTEXTBEGIN
1070
    73
1070
     1
1070
    44
1040
1.0
1070
    74
1070
     0
1000
MTEXTEND
  0
POINT
  5
15B
330
154
100
AcDbEntity
  8
DEFPOINTS
 62
     0
100
AcDbPoint
 10
15273.79779300854
 20
-3914.237765433561
 30
0.0
  0
POINT
  5
15C
330
154
100
AcDbEntity
  8
DEFPOINTS
 62
     0
100
AcDbPoint
 10
15378.79779300854
 20
-3911.237765433561
 30
0.0
  0
POINT
  5
15D
330
154
100
AcDbEntity
  8
DEFPOINTS
 62
     0
100
AcDbPoint
 10
15378.79779300854
 20
-3937.919619073953
 30
0.0
  0
ENDBLK
  5
15F
330
154
100
AcDbEntity
  8
0
100
AcDbBlockEnd
  0
BLOCK
  5
DA
330
D0
100
AcDbEntity
  8
0
100
AcDbBlockBegin
  2
*D32
 70
     1
 10
0.0
 20
0.0
 30
0.0
  3
*D32
  1

  0
LINE
  5
D1
330
D0
100
AcDbEntity
  8
0
 62
   123
100
AcDbLine
 10
15372.79779300854
 20
-3824.73776543356
 30
0.0
 11
15397.80088990319
 21
-3824.73776543356
 31
0.0
  0
LINE
  5
D2
330
D0
100
AcDbEntity
  8
0
 62
   123
100
AcDbLine
 10
15372.79779300854
 20
-3913.737765433561
 30
0.0
 11
15397.80088990319
 21
-3913.737765433561
 31
0.0
  0
LINE
  5
D3
330
D0
100
AcDbEntity
  8
0
 62
   123
100
AcDbLine
 10
15397.20088990319
 20
-3827.237765433561
 30
0.0
 11
15397.20088990319
 21
-3911.237765433561
 31
0.0
  0
SOLID
  5
D4
330
D0
100
AcDbEntity
  8
0
 62
   123
100
AcDbTrace
 10
15396.78422323653
 20
-3827.237765433561
 30
0.0
 11
15397.61755656985
 21
-3827.237765433561
 31
0.0
 12
15397.20088990319
 22
-3824.73776543356
 32
0.0
 13
15397.20088990319
 23
-3824.73776543356
 33
0.0
  0
SOLID
  5
D5
330
D0
100
AcDbEntity
  8
0
 62
   123
100
AcDbTrace
 10
15396.78422323653
 20
-3911.237765433561
 30
0.0
 11
15397.61755656985
 21
-3911.237765433561
 31
0.0
 12
15397.20088990319
 22
-3913.737765433561
 32
0.0
 13
15397.20088990319
 23
-3913.737765433561
 33
0.0
  0
MTEXT
  5
D6
330
D0
100
AcDbEntity
  8
0
 62
     3
100
AcDbMText
 10
15394.70088990319
 20
-3869.237765433561
 30
0.0
 40
3.0
 41
0.0
 71
     5
 72
     1
  1
\A1;%%C89
 11
0.0000000000000001
 21
1.0
 31
0.0
1001
ACAD
1000
MTEXTBEGIN
1070
    73
1070
     1
1070
    44
1040
1.0
1070
    74
1070
     0
1000
MTEXTEND
  0
POINT
  5
D7
330
D0
100
AcDbEntity
  8
DEFPOINTS
 62
     0
100
AcDbPoint
 10
15371.79779300855
 20
-3824.73776543356
 30
0.0
  0
POINT
  5
D8
330
D0
100
AcDbEntity
  8
DEFPOINTS
 62
     0
100
AcDbPoint
 10
15371.79779300855
 20
-3913.737765433561
 30
0.0
  0
POINT
  5
D9
330
D0
100
AcDbEntity
  8
DEFPOINTS
 62
     0
100
AcDbPoint
 10
15397.20088990319
 20
-3913.737765433561
 30
0.0
  0
ENDBLK
  5
DB
330
D0
100
AcDbEntity
  8
0
100
AcDbBlockEnd
  0
BLOCK
  5
13B
330
131
100
AcDbEntity
  8
0
100
AcDbBlockBegin
  2
*D33
 70
     1
 10
0.0
 20
0.0
 30
0.0
  3
*D33
  1

  0
LINE
  5
132
330
131
100
AcDbEntity
  8
0
 62
   123
100
AcDbLine
 10
15231.79779300854
 20
-3915.237765433561
 30
0.0
 11
15231.79779300854
 21
-3929.364610561469
 31
0.0
  0
LINE
  5
133
330
131
100
AcDbEntity
  8
0
 62
   123
100
AcDbLine
 10
15273.79779300854
 20
-3915.737765433561
 30
0.0
 11
15273.79779300854
 21
-3929.364610561469
 31
0.0
  0
LINE
  5
134
330
131
100
AcDbEntity
  8
0
 62
   123
100
AcDbLine
 10
15234.29779300854
 20
-3928.764610561469
 30
0.0
 11
15271.29779300854
 21
-3928.764610561469
 31
0.0
  0
SOLID
  5
135
330
131
100
AcDbEntity
  8
0
 62
   123
100
AcDbTrace
 10
15234.29779300854
 20
-3928.347943894802
 30
0.0
 11
15234.29779300854
 21
-3929.181277228136
 31
0.0
 12
15231.79779300854
 22
-3928.764610561469
 32
0.0
 13
15231.79779300854
 23
-3928.764610561469
 33
0.0
  0
SOLID
  5
136
330
131
100
AcDbEntity
  8
0
 62
   123
100
AcDbTrace
 10
15271.29779300854
 20
-3928.347943894802
 30
0.0
 11
15271.29779300854
 21
-3929.181277228136
 31
0.0
 12
15273.79779300854
 22
-3928.764610561469
 32
0.0
 13
15273.79779300854
 23
-3928.764610561469
 33
0.0
  0
MTEXT
  5
137
330
131
100
AcDbEntity
  8
0
 62
     3
100
AcDbMText
 10
15257.84017983215
 20
-3926.264610561469
 30
0.0
 40
3.0
 41
0.0
 71
     5
 72
     1
  1
\A1;L
1001
ACAD
1000
MTEXTBEGIN
1070
    73
1070
     1
1070
    44
1040
1.0
1070
    74
1070
     0
1000
MTEXTEND
  0
POINT
  5
138
330
131
100
AcDbEntity
  8
DEFPOINTS
 62
     0
100
AcDbPoint
 10
15231.79779300854
 20
-3914.237765433561
 30
0.0
  0
POINT
  5
139
330
131
100
AcDbEntity
  8
DEFPOINTS
 62
     0
100
AcDbPoint
 10
15273.79779300854
 20
-3914.737765433561
 30
0.0
  0
POINT
  5
13A
330
131
100
AcDbEntity
  8
DEFPOINTS
 62
     0
100
AcDbPoint
 10
15273.79779300854
 20
-3928.764610561469
 30
0.0
  0
ENDBLK
  5
13C
330
131
100
AcDbEntity
  8
0
100
AcDbBlockEnd
  0
BLOCK
  5
14B
330
141
100
AcDbEntity
  8
0
100
AcDbBlockBegin
  2
*D34
 70
     1
 10
0.0
 20
0.0
 30
0.0
  3
*D34
  1

  0
LINE
  5
142
330
141
100
AcDbEntity
  8
0
 62
   123
100
AcDbLine
 10
15199.79779300854
 20
-3858.23776543356
 30
0.0
 11
15199.79779300854
 21
-3929.364610561469
 31
0.0
  0
LINE
  5
143
330
141
100
AcDbEntity
  8
0
 62
   123
100
AcDbLine
 10
15231.79779300854
 20
-3915.237765433561
 30
0.0
 11
15231.79779300854
 21
-3929.364610561469
 31
0.0
  0
LINE
  5
144
330
141
100
AcDbEntity
  8
0
 62
   123
100
AcDbLine
 10
15202.29779300855
 20
-3928.764610561469
 30
0.0
 11
15229.29779300854
 21
-3928.764610561469
 31
0.0
  0
SOLID
  5
145
330
141
100
AcDbEntity
  8
0
 62
   123
100
AcDbTrace
 10
15202.29779300855
 20
-3928.347943894802
 30
0.0
 11
15202.29779300855
 21
-3929.181277228136
 31
0.0
 12
15199.79779300854
 22
-3928.764610561469
 32
0.0
 13
15199.79779300854
 23
-3928.764610561469
 33
0.0
  0
SOLID
  5
146
330
141
100
AcDbEntity
  8
0
 62
   123
100
AcDbTrace
 10
15229.29779300854
 20
-3928.347943894802
 30
0.0
 11
15229.29779300854
 21
-3929.181277228136
 31
0.0
 12
15231.79779300854
 22
-3928.764610561469
 32
0.0
 13
15231.79779300854
 23
-3928.764610561469
 33
0.0
  0
MTEXT
  5
147
330
141
100
AcDbEntity
  8
0
 62
     3
100
AcDbMText
 10
15216.49815319156
 20
-3926.264610561469
 30
0.0
 40
3.0
 41
0.0
 71
     5
 72
     1
  1
\A1;32
1001
ACAD
1000
MTEXTBEGIN
1070
    73
1070
     1
1070
    44
1040
1.0
1070
    74
1070
     0
1000
MTEXTEND
  0
POINT
  5
148
330
141
100
AcDbEntity
  8
DEFPOINTS
 62
     0
100
AcDbPoint
 10
15199.79779300854
 20
-3857.237765433561
 30
0.0
  0
POINT
  5
149
330
141
100
AcDbEntity
  8
DEFPOINTS
 62
     0
100
AcDbPoint
 10
15231.79779300854
 20
-3914.237765433561
 30
0.0
  0
POINT
  5
14A
330
141
100
AcDbEntity
  8
DEFPOINTS
 62
     0
100
AcDbPoint
 10
15231.79779300854
 20
-3928.764610561469
 30
0.0
  0
ENDBLK
  5
14C
330
141
100
AcDbEntity
  8
0
100
AcDbBlockEnd
  0
BLOCK
  5
10A
330
100
100
AcDbEntity
  8
0
100
AcDbBlockBegin
  2
*D35
 70
     1
 10
0.0
 20
0.0
 30
0.0
  3
*D35
  1

  0
LINE
  5
101
330
100
100
AcDbEntity
  8
0
 62
   123
100
AcDbLine
 10
15194.89965420732
 20
-3851.237765433561
 30
0.0
 11
15175.08455281094
 21
-3851.237765433561
 31
0.0
  0
LINE
  5
102
330
100
100
AcDbEntity
  8
0
 62
   123
100
AcDbLine
 10
15187.19011987445
 20
-3869.237765433561
 30
0.0
 11
15175.08455281094
 21
-3869.237765433561
 31
0.0
  0
LINE
  5
103
330
100
100
AcDbEntity
  8
0
 62
   123
100
AcDbLine
 10
15175.68455281094
 20
-3853.73776543356
 30
0.0
 11
15175.68455281094
 21
-3866.737765433562
 31
0.0
  0
SOLID
  5
104
330
100
100
AcDbEntity
  8
0
 62
   123
100
AcDbTrace
 10
15175.26788614426
 20
-3853.73776543356
 30
0.0
 11
15176.10121947761
 21
-3853.73776543356
 31
0.0
 12
15175.68455281094
 22
-3851.237765433561
 32
0.0
 13
15175.68455281094
 23
-3851.237765433561
 33
0.0
  0
SOLID
  5
105
330
100
100
AcDbEntity
  8
0
 62
   123
100
AcDbTrace
 10
15175.26788614426
 20
-3866.737765433562
 30
0.0
 11
15176.10121947761
 21
-3866.737765433562
 31
0.0
 12
15175.68455281094
 22
-3869.237765433561
 32
0.0
 13
15175.68455281094
 23
-3869.237765433561
 33
0.0
  0
MTEXT
  5
106
330
100
100
AcDbEntity
  8
0
 62
     3
100
AcDbMText
 10
15173.18455281094
 20
-3860.237765433559
 30
0.0
 40
3.0
 41
0.0
 71
     5
 72
     1
  1
\A1;18
 11
0.0000000000000001
 21
1.0
 31
0.0
1001
ACAD
1000
MTEXTBEGIN
1070
    73
1070
     1
1070
    44
1040
1.0
1070
    74
1070
     0
1000
MTEXTEND
  0
POINT
  5
107
330
100
100
AcDbEntity
  8
DEFPOINTS
 62
     0
100
AcDbPoint
 10
15195.89965420732
 20
-3851.237765433561
 30
0.0
  0
POINT
  5
108
330
100
100
AcDbEntity
  8
DEFPOINTS
 62
     0
100
AcDbPoint
 10
15188.19011987445
 20
-3869.237765433561
 30
0.0
  0
POINT
  5
109
330
100
100
AcDbEntity
  8
DEFPOINTS
 62
     0
100
AcDbPoint
 10
15175.68455281094
 20
-3869.237765433561
 30
0.0
  0
ENDBLK
  5
10B
330
100
100
AcDbEntity
  8
0
100
AcDbBlockEnd
  0
BLOCK
  5
FB
330
EF
100
AcDbEntity
  8
0
100
AcDbBlockBegin
  2
*D36
 70
     1
 10
0.0
 20
0.0
 30
0.0
  3
*D36
  1

  0
LINE
  5
F0
330
EF
100
AcDbEntity
  8
0
 62
   123
100
AcDbLine
 10
15198.79779300854
 20
-3857.237765433561
 30
0.0
 11
15184.62943217786
 21
-3857.237765433561
 31
0.0
  0
LINE
  5
F1
330
EF
100
AcDbEntity
  8
0
 62
   123
100
AcDbLine
 10
15198.79779300854
 20
-3845.237765433561
 30
0.0
 11
15184.62943217786
 21
-3845.237765433561
 31
0.0
  0
LINE
  5
F2
330
EF
100
AcDbEntity
  8
0
 62
   123
100
AcDbLine
 10
15185.22943217788
 20
-3859.73776543356
 30
0.0
 11
15185.22943217788
 21
-3862.23776543356
 31
0.0
  0
LINE
  5
F3
330
EF
100
AcDbEntity
  8
0
 62
   123
100
AcDbLine
 10
15185.22943217788
 20
-3842.737765433561
 30
0.0
 11
15185.22943217788
 21
-3802.504760399193
 31
0.0
  0
LINE
  5
F4
330
EF
100
AcDbEntity
  8
0
 62
   123
100
AcDbLine
 10
15185.22943217788
 20
-3857.237765433561
 30
0.0
 11
15185.22943217788
 21
-3845.237765433561
 31
0.0
  0
SOLID
  5
F5
330
EF
100
AcDbEntity
  8
0
 62
   123
100
AcDbTrace
 10
15184.81276551121
 20
-3859.73776543356
 30
0.0
 11
15185.64609884454
 21
-3859.73776543356
 31
0.0
 12
15185.22943217788
 22
-3857.237765433561
 32
0.0
 13
15185.22943217788
 23
-3857.237765433561
 33
0.0
  0
SOLID
  5
F6
330
EF
100
AcDbEntity
  8
0
 62
   123
100
AcDbTrace
 10
15184.81276551121
 20
-3842.737765433561
 30
0.0
 11
15185.64609884454
 21
-3842.737765433561
 31
0.0
 12
15185.22943217788
 22
-3845.237765433561
 32
0.0
 13
15185.22943217788
 23
-3845.237765433561
 33
0.0
  0
MTEXT
  5
F7
330
EF
100
AcDbEntity
  8
0
 62
     3
100
AcDbMText
 10
15181.27928217787
 20
-3817.320331827763
 30
0.0
 40
3.0
 41
0.0
 71
     5
 72
     1
  1
\A1;\A1;{\f??|b0|i0|c0|p49;%%C12\H0.7x;\S+0^ -0.018;\H1.429x;(h7)}
 11
0.0000000000000001
 21
1.0
 31
0.0
1001
ACAD
1000
MTEXTBEGIN
1070
    73
1070
     1
1070
    44
1040
1.0
1070
    74
1070
     0
1000
MTEXTEND
  0
POINT
  5
F8
330
EF
100
AcDbEntity
  8
DEFPOINTS
 62
     0
100
AcDbPoint
 10
15199.79779300854
 20
-3857.237765433561
 30
0.0
  0
POINT
  5
F9
330
EF
100
AcDbEntity
  8
DEFPOINTS
 62
     0
100
AcDbPoint
 10
15199.79779300854
 20
-3845.237765433561
 30
0.0
  0
POINT
  5
FA
330
EF
100
AcDbEntity
  8
DEFPOINTS
 62
     0
100
AcDbPoint
 10
15185.22943217788
 20
-3845.237765433561
 30
0.0
  0
ENDBLK
  5
FC
330
EF
100
AcDbEntity
  8
0
100
AcDbBlockEnd
  0
BLOCK
  5
1EF
330
1E5
100
AcDbEntity
  8
0
100
AcDbBlockBegin
  2
*D37
 70
     1
 10
0.0
 20
0.0
 30
0.0
  3
*D37
  1

  0
LINE
  5
1E6
330
1E5
100
AcDbEntity
  8
0
 62
   123
100
AcDbLine
 10
15051.08494226519
 20
-3815.237765433492
 30
0.0
 11
15051.08494226519
 21
-3766.728035838067
 31
0.0
  0
LINE
  5
1E7
330
1E5
100
AcDbEntity
  8
0
 62
   123
100
AcDbLine
 10
15113.08494226519
 20
-3815.237765433492
 30
0.0
 11
15113.08494226519
 21
-3766.728035838067
 31
0.0
  0
LINE
  5
1E8
330
1E5
100
AcDbEntity
  8
0
 62
   123
100
AcDbLine
 10
15053.58494226519
 20
-3767.328035838067
 30
0.0
 11
15110.58494226519
 21
-3767.328035838067
 31
0.0
  0
SOLID
  5
1E9
330
1E5
100
AcDbEntity
  8
0
 62
   123
100
AcDbTrace
 10
15053.58494226519
 20
-3766.911369171401
 30
0.0
 11
15053.58494226519
 21
-3767.744702504733
 31
0.0
 12
15051.08494226519
 22
-3767.328035838067
 32
0.0
 13
15051.08494226519
 23
-3767.328035838067
 33
0.0
  0
SOLID
  5
1EA
330
1E5
100
AcDbEntity
  8
0
 62
   123
100
AcDbTrace
 10
15110.58494226519
 20
-3766.911369171401
 30
0.0
 11
15110.58494226519
 21
-3767.744702504733
 31
0.0
 12
15113.08494226519
 22
-3767.328035838067
 32
0.0
 13
15113.08494226519
 23
-3767.328035838067
 33
0.0
  0
MTEXT
  5
1EB
330
1E5
100
AcDbEntity
  8
0
 62
     3
100
AcDbMText
 10
15082.08494226519
 20
-3764.828035838067
 30
0.0
 40
3.0
 41
0.0
 71
     5
 72
     1
  1
\A1;62
1001
ACAD
1000
MTEXTBEGIN
1070
    73
1070
     1
1070
    44
1040
1.0
1070
    74
1070
     0
1000
MTEXTEND
  0
POINT
  5
1EC
330
1E5
100
AcDbEntity
  8
DEFPOINTS
 62
     0
100
AcDbPoint
 10
15051.08494226519
 20
-3816.237765433491
 30
0.0
  0
POINT
  5
1ED
330
1E5
100
AcDbEntity
  8
DEFPOINTS
 62
     0
100
AcDbPoint
 10
15113.08494226519
 20
-3816.237765433491
 30
0.0
  0
POINT
  5
1EE
330
1E5
100
AcDbEntity
  8
DEFPOINTS
 62
     0
100
AcDbPoint
 10
15113.08494226519
 20
-3767.328035838067
 30
0.0
  0
ENDBLK
  5
1F0
330
1E5
100
AcDbEntity
  8
0
100
AcDbBlockEnd
  0
BLOCK
  5
407
330
3FE
100
AcDbEntity
  8
0
100
AcDbBlockBegin
  2
*D38
 70
     1
 10
0.0
 20
0.0
 30
0.0
  3
*D38
  1

  0
LINE
  5
5C8
330
3FE
100
AcDbEntity
  8
0
 62
   123
100
AcDbLine
 10
59.73558676241783
 20
441.923464872223
 30
0.0
 11
57.7985805193702
 21
440.3429564684508
 31
0.0
  0
LINE
  5
5C9
330
3FE
100
AcDbEntity
  8
0
 62
   123
100
AcDbLine
 10
144.1890589592746
 20
510.8336312766753
 30
0.0
 11
167.2052830608157
 21
529.6138162895823
 31
0.0
  0
LINE
  5
5CA
330
3FE
100
AcDbEntity
  8
0
 62
   123
100
AcDbLine
 10
61.67259300546544
 20
443.5039732759952
 30
0.0
 11
142.252052716227
 21
509.2531228729029
 31
0.0
  0
SOLID
  5
5CB
330
3FE
100
AcDbEntity
  8
0
 62
   123
100
AcDbTrace
 10
59.47216869512243
 20
442.2462992460642
 30
0.0
 11
59.99900482971319
 21
441.6006304983816
 31
0.0
 12
61.67259300546544
 22
443.5039732759952
 32
0.0
 13
61.67259300546544
 23
443.5039732759952
 33
0.0
  0
SOLID
  5
5CC
330
3FE
100
AcDbEntity
  8
0
 62
   123
100
AcDbTrace
 10
143.9256408919793
 20
511.1564656505164
 30
0.0
 11
144.45247702657
 21
510.5107969028339
 31
0.0
 12
142.252052716227
 22
509.2531228729029
 32
0.0
 13
142.252052716227
 23
509.2531228729029
 33
0.0
  0
MTEXT
  5
5CD
330
3FE
100
AcDbEntity
  8
0
 62
     3
100
AcDbMText
 10
156.6038598679933
 20
524.1901691093478
 30
0.0
 40
3.0
 41
0.0
 71
     5
 72
     1
  1
\A1;\U+2205104%%P0.5
 11
0.7748024972190465
 21
0.6322033615088815
 31
0.0
1001
ACAD
1000
MTEXTBEGIN
1070
    73
1070
     1
1070
    44
1040
1.0
1070
    74
1070
     0
1000
MTEXTEND
  0
POINT
  5
5CE
330
3FE
100
AcDbEntity
  8
DEFPOINTS
 62
     0
100
AcDbPoint
 10
142.252052716227
 20
509.2531228729029
 30
0.0
  0
POINT
  5
5CF
330
3FE
100
AcDbEntity
  8
DEFPOINTS
 62
     0
100
AcDbPoint
 10
61.67259300546544
 20
443.5039732759952
 30
0.0
  0
ENDBLK
  5
408
330
3FE
100
AcDbEntity
  8
0
100
AcDbBlockEnd
  0
BLOCK
  5
413
330
409
100
AcDbEntity
  8
0
100
AcDbBlockBegin
  2
*D39
 70
     1
 10
0.0
 20
0.0
 30
0.0
  3
*D39
  1

  0
LINE
  5
40A
330
409
100
AcDbEntity
  8
0
 62
   123
100
AcDbLine
 10
218.5108275320144
 20
517.878548074369
 30
0.0
 11
193.3944591893728
 21
517.878548074369
 31
0.0
  0
LINE
  5
40B
330
409
100
AcDbEntity
  8
0
 62
   123
100
AcDbLine
 10
218.5108275320144
 20
434.878548074369
 30
0.0
 11
193.3944591893727
 21
434.878548074369
 31
0.0
  0
LINE
  5
40C
330
409
100
AcDbEntity
  8
0
 62
   123
100
AcDbLine
 10
193.9944591893728
 20
515.3785480743691
 30
0.0
 11
193.9944591893727
 21
437.378548074369
 31
0.0
  0
SOLID
  5
40D
330
409
100
AcDbEntity
  8
0
 62
   123
100
AcDbTrace
 10
193.5777925227061
 20
515.3785480743691
 30
0.0
 11
194.4111258560394
 21
515.3785480743691
 31
0.0
 12
193.9944591893728
 22
517.878548074369
 32
0.0
 13
193.9944591893728
 23
517.878548074369
 33
0.0
  0
SOLID
  5
40E
330
409
100
AcDbEntity
  8
0
 62
   123
100
AcDbTrace
 10
193.5777925227061
 20
437.378548074369
 30
0.0
 11
194.4111258560394
 21
437.378548074369
 31
0.0
 12
193.9944591893727
 22
434.878548074369
 32
0.0
 13
193.9944591893727
 23
434.878548074369
 33
0.0
  0
MTEXT
  5
40F
330
409
100
AcDbEntity
  8
0
 62
     3
100
AcDbMText
 10
190.0443091893727
 20
475.6371398935434
 30
0.0
 40
3.0
 41
0.0
 71
     5
 72
     1
  1
\A1;\A1;{\f??|b0|i0|c0|p49;%%c}83{\f??|b0|i0|c0|p49;\H0.7x;\S+0^ -0.035;\H1.429x;(h7)}
 11
0.0000000000000001
 21
1.0
 31
0.0
1001
ACAD
1000
MTEXTBEGIN
1070
    73
1070
     1
1070
    44
1040
1.0
1070
    74
1070
     0
1000
MTEXTEND
  0
POINT
  5
410
330
409
100
AcDbEntity
  8
DEFPOINTS
 62
     0
100
AcDbPoint
 10
219.5108275320144
 20
517.878548074369
 30
0.0
  0
POINT
  5
411
330
409
100
AcDbEntity
  8
DEFPOINTS
 62
     0
100
AcDbPoint
 10
219.5108275320144
 20
434.878548074369
 30
0.0
  0
POINT
  5
412
330
409
100
AcDbEntity
  8
DEFPOINTS
 62
     0
100
AcDbPoint
 10
193.9944591893727
 20
434.878548074369
 30
0.0
  0
ENDBLK
  5
414
330
409
100
AcDbEntity
  8
0
100
AcDbBlockEnd
  0
BLOCK
  5
41F
330
415
100
AcDbEntity
  8
0
100
AcDbBlockBegin
  2
*D40
 70
     1
 10
0.0
 20
0.0
 30
0.0
  3
*D40
  1

  0
LINE
  5
416
330
415
100
AcDbEntity
  8
0
 62
   123
100
AcDbLine
 10
161.5748342099741
 20
94.14375043836889
 30
0.0
 11
141.7597328135947
 21
94.14375043836891
 31
0.0
  0
LINE
  5
417
330
415
100
AcDbEntity
  8
0
 62
   123
100
AcDbLine
 10
153.8652998771049
 20
76.1437504383689
 30
0.0
 11
141.7597328135947
 21
76.1437504383689
 31
0.0
  0
LINE
  5
418
330
415
100
AcDbEntity
  8
0
 62
   123
100
AcDbLine
 10
142.3597328135947
 20
91.64375043836891
 30
0.0
 11
142.3597328135947
 21
78.6437504383689
 31
0.0
  0
SOLID
  5
419
330
415
100
AcDbEntity
  8
0
 62
   123
100
AcDbTrace
 10
141.943066146928
 20
91.64375043836891
 30
0.0
 11
142.7763994802614
 21
91.64375043836891
 31
0.0
 12
142.3597328135947
 22
94.14375043836891
 32
0.0
 13
142.3597328135947
 23
94.14375043836891
 33
0.0
  0
SOLID
  5
41A
330
415
100
AcDbEntity
  8
0
 62
   123
100
AcDbTrace
 10
141.943066146928
 20
78.6437504383689
 30
0.0
 11
142.7763994802614
 21
78.6437504383689
 31
0.0
 12
142.3597328135947
 22
76.1437504383689
 32
0.0
 13
142.3597328135947
 23
76.1437504383689
 33
0.0
  0
MTEXT
  5
41B
330
415
100
AcDbEntity
  8
0
 62
     3
100
AcDbMText
 10
139.8597328135947
 20
85.1437504383689
 30
0.0
 40
3.0
 41
0.0
 71
     5
 72
     1
  1
\A1;18
 11
0.0000000000000001
 21
1.0
 31
0.0
1001
ACAD
1000
MTEXTBEGIN
1070
    73
1070
     1
1070
    44
1040
1.0
1070
    74
1070
     0
1000
MTEXTEND
  0
POINT
  5
41C
330
415
100
AcDbEntity
  8
DEFPOINTS
 62
     0
100
AcDbPoint
 10
162.5748342099741
 20
94.14375043836889
 30
0.0
  0
POINT
  5
41D
330
415
100
AcDbEntity
  8
DEFPOINTS
 62
     0
100
AcDbPoint
 10
154.8652998771049
 20
76.1437504383689
 30
0.0
  0
POINT
  5
41E
330
415
100
AcDbEntity
  8
DEFPOINTS
 62
     0
100
AcDbPoint
 10
142.3597328135947
 20
76.1437504383689
 30
0.0
  0
ENDBLK
  5
420
330
415
100
AcDbEntity
  8
0
100
AcDbBlockEnd
  0
BLOCK
  5
42D
330
421
100
AcDbEntity
  8
0
100
AcDbBlockBegin
  2
*D41
 70
     1
 10
0.0
 20
0.0
 30
0.0
  3
*D41
  1

  0
LINE
  5
422
330
421
100
AcDbEntity
  8
0
 62
   123
100
AcDbLine
 10
165.472973011203
 20
88.14375043836889
 30
0.0
 11
151.304612180535
 21
88.14375043836891
 31
0.0
  0
LINE
  5
423
330
421
100
AcDbEntity
  8
0
 62
   123
100
AcDbLine
 10
165.472973011203
 20
100.1437504383688
 30
0.0
 11
151.304612180535
 21
100.1437504383689
 31
0.0
  0
LINE
  5
424
330
421
100
AcDbEntity
  8
0
 62
   123
100
AcDbLine
 10
151.9046121805349
 20
85.64375043836891
 30
0.0
 11
151.9046121805349
 21
83.14375043836891
 31
0.0
  0
LINE
  5
425
330
421
100
AcDbEntity
  8
0
 62
   123
100
AcDbLine
 10
151.9046121805349
 20
102.6437504383689
 30
0.0
 11
151.9046121805349
 21
142.8767554727384
 31
0.0
  0
LINE
  5
426
330
421
100
AcDbEntity
  8
0
 62
   123
100
AcDbLine
 10
151.9046121805349
 20
88.14375043836891
 30
0.0
 11
151.9046121805349
 21
100.1437504383689
 31
0.0
  0
SOLID
  5
427
330
421
100
AcDbEntity
  8
0
 62
   123
100
AcDbTrace
 10
151.4879455138683
 20
85.64375043836891
 30
0.0
 11
152.3212788472016
 21
85.64375043836891
 31
0.0
 12
151.9046121805349
 22
88.14375043836891
 32
0.0
 13
151.9046121805349
 23
88.14375043836891
 33
0.0
  0
SOLID
  5
428
330
421
100
AcDbEntity
  8
0
 62
   123
100
AcDbTrace
 10
151.4879455138683
 20
102.6437504383689
 30
0.0
 11
152.3212788472016
 21
102.6437504383689
 31
0.0
 12
151.9046121805349
 22
100.1437504383689
 32
0.0
 13
151.9046121805349
 23
100.1437504383689
 33
0.0
  0
MTEXT
  5
429
330
421
100
AcDbEntity
  8
0
 62
     3
100
AcDbMText
 10
147.9544621805349
 20
128.061184044167
 30
0.0
 40
3.0
 41
0.0
 71
     5
 72
     1
  1
\A1;\A1;{\f??|b0|i0|c0|p49;%%C12\H0.7x;\S+0^ -0.018;\H1.429x;(h7)}
 11
0.0000000000000001
 21
1.0
 31
0.0
1001
ACAD
1000
MTEXTBEGIN
1070
    73
1070
     1
1070
    44
1040
1.0
1070
    74
1070
     0
1000
MTEXTEND
  0
POINT
  5
42A
330
421
100
AcDbEntity
  8
DEFPOINTS
 62
     0
100
AcDbPoint
 10
166.472973011203
 20
88.14375043836889
 30
0.0
  0
POINT
  5
42B
330
421
100
AcDbEntity
  8
DEFPOINTS
 62
     0
100
AcDbPoint
 10
166.472973011203
 20
100.1437504383688
 30
0.0
  0
POINT
  5
42C
330
421
100
AcDbEntity
  8
DEFPOINTS
 62
     0
100
AcDbPoint
 10
151.9046121805349
 20
100.1437504383689
 30
0.0
  0
ENDBLK
  5
42E
330
421
100
AcDbEntity
  8
0
100
AcDbBlockEnd
  0
BLOCK
  5
439
330
42F
100
AcDbEntity
  8
0
100
AcDbBlockBegin
  2
*D42
 70
     1
 10
0.0
 20
0.0
 30
0.0
  3
*D42
  1

  0
LINE
  5
430
330
42F
100
AcDbEntity
  8
0
 62
   123
100
AcDbLine
 10
194.972973011203
 20
112.1437504383689
 30
0.0
 11
131.0491656524631
 21
112.1437504383689
 31
0.0
  0
LINE
  5
431
330
42F
100
AcDbEntity
  8
0
 62
   123
100
AcDbLine
 10
153.8652998771049
 20
76.1437504383689
 30
0.0
 11
131.0491656524631
 21
76.1437504383689
 31
0.0
  0
LINE
  5
432
330
42F
100
AcDbEntity
  8
0
 62
   123
100
AcDbLine
 10
131.6491656524631
 20
109.6437504383689
 30
0.0
 11
131.6491656524631
 21
78.6437504383689
 31
0.0
  0
SOLID
  5
433
330
42F
100
AcDbEntity
  8
0
 62
   123
100
AcDbTrace
 10
131.2324989857964
 20
109.6437504383689
 30
0.0
 11
132.0658323191298
 21
109.6437504383689
 31
0.0
 12
131.6491656524631
 22
112.1437504383689
 32
0.0
 13
131.6491656524631
 23
112.1437504383689
 33
0.0
  0
SOLID
  5
434
330
42F
100
AcDbEntity
  8
0
 62
   123
100
AcDbTrace
 10
131.2324989857964
 20
78.6437504383689
 30
0.0
 11
132.0658323191298
 21
78.6437504383689
 31
0.0
 12
131.6491656524631
 22
76.1437504383689
 32
0.0
 13
131.6491656524631
 23
76.1437504383689
 33
0.0
  0
MTEXT
  5
435
330
42F
100
AcDbEntity
  8
0
 62
     3
100
AcDbMText
 10
129.1491656524631
 20
93.8937504383689
 30
0.0
 40
3.0
 41
0.0
 71
     5
 72
     1
  1
\A1;{\f??|b0|i0|c0|p49;%%C}36
 11
0.0000000000000001
 21
1.0
 31
0.0
1001
ACAD
1000
MTEXTBEGIN
1070
    73
1070
     1
1070
    44
1040
1.0
1070
    74
1070
     0
1000
MTEXTEND
  0
POINT
  5
436
330
42F
100
AcDbEntity
  8
DEFPOINTS
 62
     0
100
AcDbPoint
 10
195.972973011203
 20
112.1437504383689
 30
0.0
  0
POINT
  5
437
330
42F
100
AcDbEntity
  8
DEFPOINTS
 62
     0
100
AcDbPoint
 10
154.8652998771049
 20
76.1437504383689
 30
0.0
  0
POINT
  5
438
330
42F
100
AcDbEntity
  8
DEFPOINTS
 62
     0
100
AcDbPoint
 10
131.6491656524631
 20
76.1437504383689
 30
0.0
  0
ENDBLK
  5
43A
330
42F
100
AcDbEntity
  8
0
100
AcDbBlockEnd
  0
BLOCK
  5
445
330
43B
100
AcDbEntity
  8
0
100
AcDbBlockBegin
  2
*D43
 70
     1
 10
0.0
 20
0.0
 30
0.0
  3
*D43
  1

  0
LINE
  5
43C
330
43B
100
AcDbEntity
  8
0
 62
   123
100
AcDbLine
 10
339.472973011203
 20
120.6437504383689
 30
0.0
 11
364.4760699058457
 21
120.6437504383688
 31
0.0
  0
LINE
  5
43D
330
43B
100
AcDbEntity
  8
0
 62
   123
100
AcDbLine
 10
339.472973011203
 20
31.64375043836889
 30
0.0
 11
364.4760699058457
 21
31.64375043836889
 31
0.0
  0
LINE
  5
43E
330
43B
100
AcDbEntity
  8
0
 62
   123
100
AcDbLine
 10
363.8760699058457
 20
118.1437504383688
 30
0.0
 11
363.8760699058457
 21
34.14375043836889
 31
0.0
  0
SOLID
  5
43F
330
43B
100
AcDbEntity
  8
0
 62
   123
100
AcDbTrace
 10
363.459403239179
 20
118.1437504383688
 30
0.0
 11
364.2927365725124
 21
118.1437504383688
 31
0.0
 12
363.8760699058457
 22
120.6437504383688
 32
0.0
 13
363.8760699058457
 23
120.6437504383688
 33
0.0
  0
SOLID
  5
440
330
43B
100
AcDbEntity
  8
0
 62
   123
100
AcDbTrace
 10
363.459403239179
 20
34.14375043836889
 30
0.0
 11
364.2927365725124
 21
34.14375043836889
 31
0.0
 12
363.8760699058457
 22
31.64375043836889
 32
0.0
 13
363.8760699058457
 23
31.64375043836889
 33
0.0
  0
MTEXT
  5
441
330
43B
100
AcDbEntity
  8
0
 62
     3
100
AcDbMText
 10
361.3760699058457
 20
76.1437504383689
 30
0.0
 40
3.0
 41
0.0
 71
     5
 72
     1
  1
\A1;%%C89
 11
0.0000000000000001
 21
1.0
 31
0.0
1001
ACAD
1000
MTEXTBEGIN
1070
    73
1070
     1
1070
    44
1040
1.0
1070
    74
1070
     0
1000
MTEXTEND
  0
POINT
  5
442
330
43B
100
AcDbEntity
  8
DEFPOINTS
 62
     0
100
AcDbPoint
 10
338.472973011203
 20
120.6437504383689
 30
0.0
  0
POINT
  5
443
330
43B
100
AcDbEntity
  8
DEFPOINTS
 62
     0
100
AcDbPoint
 10
338.472973011203
 20
31.64375043836889
 30
0.0
  0
POINT
  5
444
330
43B
100
AcDbEntity
  8
DEFPOINTS
 62
     0
100
AcDbPoint
 10
363.8760699058457
 20
31.64375043836889
 30
0.0
  0
ENDBLK
  5
446
330
43B
100
AcDbEntity
  8
0
100
AcDbBlockEnd
  0
BLOCK
  5
451
330
447
100
AcDbEntity
  8
0
100
AcDbBlockBegin
  2
*D44
 70
     1
 10
0.0
 20
0.0
 30
0.0
  3
*D44
  1

  0
LINE
  5
448
330
447
100
AcDbEntity
  8
0
 62
   123
100
AcDbLine
 10
3.760122267844053
 20
34.14375043836889
 30
0.0
 11
3.760122267844052
 21
14.86356975234084
 31
0.0
  0
LINE
  5
449
330
447
100
AcDbEntity
  8
0
 62
   123
100
AcDbLine
 10
93.76012226784405
 20
34.14375043836889
 30
0.0
 11
93.76012226784405
 21
14.86356975234084
 31
0.0
  0
LINE
  5
44A
330
447
100
AcDbEntity
  8
0
 62
   123
100
AcDbLine
 10
6.260122267844051
 20
15.46356975234084
 30
0.0
 11
91.26012226784405
 21
15.46356975234084
 31
0.0
  0
SOLID
  5
44B
330
447
100
AcDbEntity
  8
0
 62
   123
100
AcDbTrace
 10
6.260122267844051
 20
15.88023641900751
 30
0.0
 11
6.260122267844051
 21
15.04690308567417
 31
0.0
 12
3.760122267844052
 22
15.46356975234084
 32
0.0
 13
3.760122267844052
 23
15.46356975234084
 33
0.0
  0
SOLID
  5
44C
330
447
100
AcDbEntity
  8
0
 62
   123
100
AcDbTrace
 10
91.26012226784405
 20
15.88023641900751
 30
0.0
 11
91.26012226784405
 21
15.04690308567417
 31
0.0
 12
93.76012226784405
 22
15.46356975234084
 32
0.0
 13
93.76012226784405
 23
15.46356975234084
 33
0.0
  0
MTEXT
  5
44D
330
447
100
AcDbEntity
  8
0
 62
     3
100
AcDbMText
 10
48.76012226784405
 20
17.96356975234084
 30
0.0
 40
3.0
 41
0.0
 71
     5
 72
     1
  1
\A1;90
1001
ACAD
1000
MTEXTBEGIN
1070
    73
1070
     1
1070
    44
1040
1.0
1070
    74
1070
     0
1000
MTEXTEND
  0
POINT
  5
44E
330
447
100
AcDbEntity
  8
DEFPOINTS
 62
     0
100
AcDbPoint
 10
3.760122267844053
 20
35.14375043836889
 30
0.0
  0
POINT
  5
44F
330
447
100
AcDbEntity
  8
DEFPOINTS
 62
     0
100
AcDbPoint
 10
93.76012226784405
 20
35.14375043836889
 30
0.0
  0
POINT
  5
450
330
447
100
AcDbEntity
  8
DEFPOINTS
 62
     0
100
AcDbPoint
 10
93.76012226784405
 20
15.46356975234084
 30
0.0
  0
ENDBLK
  5
452
330
447
100
AcDbEntity
  8
0
100
AcDbBlockEnd
  0
BLOCK
  5
45D
330
453
100
AcDbEntity
  8
0
100
AcDbBlockBegin
  2
*D45
 70
     1
 10
0.0
 20
0.0
 30
0.0
  3
*D45
  1

  0
LINE
  5
454
330
453
100
AcDbEntity
  8
0
 62
   123
100
AcDbLine
 10
240.472973011203
 20
30.14375043836889
 30
0.0
 11
240.472973011203
 21
6.861896797976804
 31
0.0
  0
LINE
  5
455
330
453
100
AcDbEntity
  8
0
 62
   123
100
AcDbLine
 10
345.472973011203
 20
33.14375043836889
 30
0.0
 11
345.472973011203
 21
6.861896797976804
 31
0.0
  0
LINE
  5
456
330
453
100
AcDbEntity
  8
0
 62
   123
100
AcDbLine
 10
242.972973011203
 20
7.461896797976805
 30
0.0
 11
342.972973011203
 21
7.461896797976805
 31
0.0
  0
SOLID
  5
457
330
453
100
AcDbEntity
  8
0
 62
   123
100
AcDbTrace
 10
242.972973011203
 20
7.878563464643472
 30
0.0
 11
242.972973011203
 21
7.045230131310138
 31
0.0
 12
240.472973011203
 22
7.461896797976805
 32
0.0
 13
240.472973011203
 23
7.461896797976805
 33
0.0
  0
SOLID
  5
458
330
453
100
AcDbEntity
  8
0
 62
   123
100
AcDbTrace
 10
342.972973011203
 20
7.878563464643472
 30
0.0
 11
342.972973011203
 21
7.045230131310138
 31
0.0
 12
345.472973011203
 22
7.461896797976805
 32
0.0
 13
345.472973011203
 23
7.461896797976805
 33
0.0
  0
MTEXT
  5
459
330
453
100
AcDbEntity
  8
0
 62
     3
100
AcDbMText
 10
292.972973011203
 20
9.961896797976805
 30
0.0
 40
3.0
 41
0.0
 71
     5
 72
     1
  1
\A1;105
1001
ACAD
1000
MTEXTBEGIN
1070
    73
1070
     1
1070
    44
1040
1.0
1070
    74
1070
     0
1000
MTEXTEND
  0
POINT
  5
45A
330
453
100
AcDbEntity
  8
DEFPOINTS
 62
     0
100
AcDbPoint
 10
240.472973011203
 20
31.1437504383689
 30
0.0
  0
POINT
  5
45B
330
453
100
AcDbEntity
  8
DEFPOINTS
 62
     0
100
AcDbPoint
 10
345.472973011203
 20
34.14375043836889
 30
0.0
  0
POINT
  5
45C
330
453
100
AcDbEntity
  8
DEFPOINTS
 62
     0
100
AcDbPoint
 10
345.472973011203
 20
7.461896797976805
 30
0.0
  0
ENDBLK
  5
45E
330
453
100
AcDbEntity
  8
0
100
AcDbBlockEnd
  0
BLOCK
  5
469
330
45F
100
AcDbEntity
  8
0
100
AcDbBlockBegin
  2
*D46
 70
     1
 10
0.0
 20
0.0
 30
0.0
  3
*D46
  1

  0
LINE
  5
460
330
45F
100
AcDbEntity
  8
0
 62
   123
100
AcDbLine
 10
166.472973011203
 20
87.1437504383689
 30
0.0
 11
166.472973011203
 21
16.01690531046088
 31
0.0
  0
LINE
  5
461
330
45F
100
AcDbEntity
  8
0
 62
   123
100
AcDbLine
 10
198.472973011203
 20
30.14375043836889
 30
0.0
 11
198.472973011203
 21
16.01690531046087
 31
0.0
  0
LINE
  5
462
330
45F
100
AcDbEntity
  8
0
 62
   123
100
AcDbLine
 10
168.972973011203
 20
16.61690531046088
 30
0.0
 11
195.972973011203
 21
16.61690531046088
 31
0.0
  0
SOLID
  5
463
330
45F
100
AcDbEntity
  8
0
 62
   123
100
AcDbTrace
 10
168.972973011203
 20
17.03357197712754
 30
0.0
 11
168.972973011203
 21
16.20023864379421
 31
0.0
 12
166.472973011203
 22
16.61690531046088
 32
0.0
 13
166.472973011203
 23
16.61690531046088
 33
0.0
  0
SOLID
  5
464
330
45F
100
AcDbEntity
  8
0
 62
   123
100
AcDbTrace
 10
195.972973011203
 20
17.03357197712754
 30
0.0
 11
195.972973011203
 21
16.20023864379421
 31
0.0
 12
198.472973011203
 22
16.61690531046088
 32
0.0
 13
198.472973011203
 23
16.61690531046088
 33
0.0
  0
MTEXT
  5
465
330
45F
100
AcDbEntity
  8
0
 62
     3
100
AcDbMText
 10
183.1733331942141
 20
19.11690531046088
 30
0.0
 40
3.0
 41
0.0
 71
     5
 72
     1
  1
\A1;32
1001
ACAD
1000
MTEXTBEGIN
1070
    73
1070
     1
1070
    44
1040
1.0
1070
    74
1070
     0
1000
MTEXTEND
  0
POINT
  5
466
330
45F
100
AcDbEntity
  8
DEFPOINTS
 62
     0
100
AcDbPoint
 10
166.472973011203
 20
88.14375043836889
 30
0.0
  0
POINT
  5
467
330
45F
100
AcDbEntity
  8
DEFPOINTS
 62
     0
100
AcDbPoint
 10
198.472973011203
 20
31.1437504383689
 30
0.0
  0
POINT
  5
468
330
45F
100
AcDbEntity
  8
DEFPOINTS
 62
     0
100
AcDbPoint
 10
198.472973011203
 20
16.61690531046088
 30
0.0
  0
ENDBLK
  5
46A
330
45F
100
AcDbEntity
  8
0
100
AcDbBlockEnd
  0
BLOCK
  5
475
330
46B
100
AcDbEntity
  8
0
100
AcDbBlockBegin
  2
*D47
 70
     1
 10
0.0
 20
0.0
 30
0.0
  3
*D47
  1

  0
LINE
  5
46C
330
46B
100
AcDbEntity
  8
0
 62
   123
100
AcDbLine
 10
198.472973011203
 20
30.14375043836889
 30
0.0
 11
198.472973011203
 21
16.01690531046087
 31
0.0
  0
LINE
  5
46D
330
46B
100
AcDbEntity
  8
0
 62
   123
100
AcDbLine
 10
240.472973011203
 20
29.6437504383689
 30
0.0
 11
240.472973011203
 21
16.01690531046087
 31
0.0
  0
LINE
  5
46E
330
46B
100
AcDbEntity
  8
0
 62
   123
100
AcDbLine
 10
200.972973011203
 20
16.61690531046088
 30
0.0
 11
237.972973011203
 21
16.61690531046088
 31
0.0
  0
SOLID
  5
46F
330
46B
100
AcDbEntity
  8
0
 62
   123
100
AcDbTrace
 10
200.972973011203
 20
17.03357197712754
 30
0.0
 11
200.972973011203
 21
16.20023864379421
 31
0.0
 12
198.472973011203
 22
16.61690531046088
 32
0.0
 13
198.472973011203
 23
16.61690531046088
 33
0.0
  0
SOLID
  5
470
330
46B
100
AcDbEntity
  8
0
 62
   123
100
AcDbTrace
 10
237.972973011203
 20
17.03357197712754
 30
0.0
 11
237.972973011203
 21
16.20023864379421
 31
0.0
 12
240.472973011203
 22
16.61690531046088
 32
0.0
 13
240.472973011203
 23
16.61690531046088
 33
0.0
  0
MTEXT
  5
471
330
46B
100
AcDbEntity
  8
0
 62
     3
100
AcDbMText
 10
224.5153598348042
 20
19.11690531046088
 30
0.0
 40
3.0
 41
0.0
 71
     5
 72
     1
  1
\A1;L
1001
ACAD
1000
MTEXTBEGIN
1070
    73
1070
     1
1070
    44
1040
1.0
1070
    74
1070
     0
1000
MTEXTEND
  0
POINT
  5
472
330
46B
100
AcDbEntity
  8
DEFPOINTS
 62
     0
100
AcDbPoint
 10
198.472973011203
 20
31.1437504383689
 30
0.0
  0
POINT
  5
473
330
46B
100
AcDbEntity
  8
DEFPOINTS
 62
     0
100
AcDbPoint
 10
240.472973011203
 20
30.64375043836889
 30
0.0
  0
POINT
  5
474
330
46B
100
AcDbEntity
  8
DEFPOINTS
 62
     0
100
AcDbPoint
 10
240.472973011203
 20
16.61690531046088
 30
0.0
  0
ENDBLK
  5
476
330
46B
100
AcDbEntity
  8
0
100
AcDbBlockEnd
  0
BLOCK
  5
481
330
477
100
AcDbEntity
  8
0
100
AcDbBlockBegin
  2
*D48
 70
     1
 10
0.0
 20
0.0
 30
0.0
  3
*D48
  1

  0
LINE
  5
478
330
477
100
AcDbEntity
  8
0
 62
   123
100
AcDbLine
 10
240.472973011203
 20
30.14375043836889
 30
0.0
 11
240.472973011203
 21
16.01690531046087
 31
0.0
  0
LINE
  5
479
330
477
100
AcDbEntity
  8
0
 62
   123
100
AcDbLine
 10
247.972973011203
 20
31.54501309684064
 30
0.0
 11
247.972973011203
 21
16.01690531046087
 31
0.0
  0
LINE
  5
47A
330
477
100
AcDbEntity
  8
0
 62
   123
100
AcDbLine
 10
242.972973011203
 20
16.61690531046088
 30
0.0
 11
245.472973011203
 21
16.61690531046088
 31
0.0
  0
SOLID
  5
47B
330
477
100
AcDbEntity
  8
0
 62
   123
100
AcDbTrace
 10
242.972973011203
 20
17.03357197712754
 30
0.0
 11
242.972973011203
 21
16.20023864379421
 31
0.0
 12
240.472973011203
 22
16.61690531046088
 32
0.0
 13
240.472973011203
 23
16.61690531046088
 33
0.0
  0
SOLID
  5
47C
330
477
100
AcDbEntity
  8
0
 62
   123
100
AcDbTrace
 10
245.472973011203
 20
17.03357197712754
 30
0.0
 11
245.472973011203
 21
16.20023864379421
 31
0.0
 12
247.972973011203
 22
16.61690531046088
 32
0.0
 13
247.972973011203
 23
16.61690531046088
 33
0.0
  0
MTEXT
  5
47D
330
477
100
AcDbEntity
  8
0
 62
     3
100
AcDbMText
 10
244.222973011203
 20
19.11690531046088
 30
0.0
 40
3.0
 41
0.0
 71
     5
 72
     1
  1
\A1;7.5
1001
ACAD
1000
MTEXTBEGIN
1070
    73
1070
     1
1070
    44
1040
1.0
1070
    74
1070
     0
1000
MTEXTEND
  0
POINT
  5
47E
330
477
100
AcDbEntity
  8
DEFPOINTS
 62
     0
100
AcDbPoint
 10
240.472973011203
 20
31.1437504383689
 30
0.0
  0
POINT
  5
47F
330
477
100
AcDbEntity
  8
DEFPOINTS
 62
     0
100
AcDbPoint
 10
247.972973011203
 20
32.54501309684064
 30
0.0
  0
POINT
  5
480
330
477
100
AcDbEntity
  8
DEFPOINTS
 62
     0
100
AcDbPoint
 10
247.972973011203
 20
16.61690531046088
 30
0.0
  0
ENDBLK
  5
482
330
477
100
AcDbEntity
  8
0
100
AcDbBlockEnd
  0
BLOCK
  5
48F
330
483
100
AcDbEntity
  8
0
100
AcDbBlockBegin
  2
*D49
 70
     1
 10
0.0
 20
0.0
 30
0.0
  3
*D49
  1

  0
LINE
  5
484
330
483
100
AcDbEntity
  8
0
 62
   123
100
AcDbLine
 10
111.8176820834942
 20
226.3784300429133
 30
0.0
 11
126.9150145776744
 21
226.3784300429133
 31
0.0
  0
LINE
  5
485
330
483
100
AcDbEntity
  8
0
 62
   123
100
AcDbLine
 10
109.8176820834942
 20
228.8784300429133
 30
0.0
 11
126.9150145776744
 21
228.8784300429133
 31
0.0
  0
LINE
  5
486
330
483
100
AcDbEntity
  8
0
 62
   123
100
AcDbLine
 10
126.3150145776744
 20
223.8784300429133
 30
0.0
 11
126.3150145776744
 21
221.3784300429133
 31
0.0
  0
LINE
  5
487
330
483
100
AcDbEntity
  8
0
 62
   123
100
AcDbLine
 10
126.3150145776744
 20
231.3784300429133
 30
0.0
 11
126.3150145776744
 21
252.7927157571987
 31
0.0
  0
LINE
  5
488
330
483
100
AcDbEntity
  8
0
 62
   123
100
AcDbLine
 10
126.3150145776744
 20
226.3784300429133
 30
0.0
 11
126.3150145776744
 21
228.8784300429133
 31
0.0
  0
SOLID
  5
489
330
483
100
AcDbEntity
  8
0
 62
   123
100
AcDbTrace
 10
125.8983479110078
 20
223.8784300429133
 30
0.0
 11
126.7316812443411
 21
223.8784300429133
 31
0.0
 12
126.3150145776744
 22
226.3784300429133
 32
0.0
 13
126.3150145776744
 23
226.3784300429133
 33
0.0
  0
SOLID
  5
48A
330
483
100
AcDbEntity
  8
0
 62
   123
100
AcDbTrace
 10
125.8983479110078
 20
231.3784300429133
 30
0.0
 11
126.7316812443411
 21
231.3784300429133
 31
0.0
 12
126.3150145776744
 22
228.8784300429133
 32
0.0
 13
126.3150145776744
 23
228.8784300429133
 33
0.0
  0
MTEXT
  5
48B
330
483
100
AcDbEntity
  8
0
 62
     3
100
AcDbMText
 10
122.8650145776744
 20
245.0855729000559
 30
0.0
 40
3.0
 41
0.0
 71
     5
 72
     1
  1
\A1;\A1;2.5{\f??|b0|i0|c0|p49;\H0.7x;\S+0.1^ -0;\H1.429x; }
 11
0.0000000000000001
 21
1.0
 31
0.0
1001
ACAD
1000
MTEXTBEGIN
1070
    73
1070
     1
1070
    44
1040
1.0
1070
    74
1070
     0
1000
MTEXTEND
  0
POINT
  5
48C
330
483
100
AcDbEntity
  8
DEFPOINTS
 62
     0
100
AcDbPoint
 10
110.8176820834942
 20
226.3784300429133
 30
0.0
  0
POINT
  5
48D
330
483
100
AcDbEntity
  8
DEFPOINTS
 62
     0
100
AcDbPoint
 10
108.8176820834942
 20
228.8784300429133
 30
0.0
  0
POINT
  5
48E
330
483
100
AcDbEntity
  8
DEFPOINTS
 62
     0
100
AcDbPoint
 10
126.3150145776744
 20
228.8784300429133
 30
0.0
  0
ENDBLK
  5
490
330
483
100
AcDbEntity
  8
0
100
AcDbBlockEnd
  0
BLOCK
  5
49B
330
491
100
AcDbEntity
  8
0
100
AcDbBlockBegin
  2
*D50
 70
     1
 10
0.0
 20
0.0
 30
0.0
  3
*D50
  1

  0
LINE
  5
492
330
491
100
AcDbEntity
  8
0
 62
   123
100
AcDbLine
 10
90.00739651896219
 20
121.1437504384384
 30
0.0
 11
96.67946833909411
 21
121.1437504384384
 31
0.0
  0
LINE
  5
493
330
491
100
AcDbEntity
  8
0
 62
   123
100
AcDbLine
 10
78.28842826784421
 20
164.1437504384384
 30
0.0
 11
96.67946833909413
 21
164.1437504384384
 31
0.0
  0
LINE
  5
494
330
491
100
AcDbEntity
  8
0
 62
   123
100
AcDbLine
 10
96.0794683390941
 20
123.6437504384384
 30
0.0
 11
96.07946833909412
 21
161.6437504384384
 31
0.0
  0
SOLID
  5
495
330
491
100
AcDbEntity
  8
0
 62
   123
100
AcDbTrace
 10
95.66280167242743
 20
123.6437504384384
 30
0.0
 11
96.49613500576078
 21
123.6437504384384
 31
0.0
 12
96.0794683390941
 22
121.1437504384384
 32
0.0
 13
96.0794683390941
 23
121.1437504384384
 33
0.0
  0
SOLID
  5
496
330
491
100
AcDbEntity
  8
0
 62
   123
100
AcDbTrace
 10
95.66280167242744
 20
161.6437504384384
 30
0.0
 11
96.4961350057608
 21
161.6437504384384
 31
0.0
 12
96.07946833909412
 22
164.1437504384384
 32
0.0
 13
96.07946833909412
 23
164.1437504384384
 33
0.0
  0
MTEXT
  5
497
330
491
100
AcDbEntity
  8
0
 62
     3
100
AcDbMText
 10
93.57946833909409
 20
144.2385862355231
 30
0.0
 40
3.0
 41
0.0
 71
     5
 72
     1
  1
\A1;43
 11
0.0000000000000001
 21
1.0
 31
0.0
1001
ACAD
1000
MTEXTBEGIN
1070
    73
1070
     1
1070
    44
1040
1.0
1070
    74
1070
     0
1000
MTEXTEND
  0
POINT
  5
498
330
491
100
AcDbEntity
  8
DEFPOINTS
 62
     0
100
AcDbPoint
 10
89.0073965189622
 20
121.1437504384384
 30
0.0
  0
POINT
  5
499
330
491
100
AcDbEntity
  8
DEFPOINTS
 62
     0
100
AcDbPoint
 10
77.28842826784421
 20
164.1437504384384
 30
0.0
  0
POINT
  5
49A
330
491
100
AcDbEntity
  8
DEFPOINTS
 62
     0
100
AcDbPoint
 10
96.07946833909412
 20
164.1437504384384
 30
0.0
  0
ENDBLK
  5
49C
330
491
100
AcDbEntity
  8
0
100
AcDbBlockEnd
  0
BLOCK
  5
4A7
330
49D
100
AcDbEntity
  8
0
100
AcDbBlockBegin
  2
*D51
 70
     1
 10
0.0
 20
0.0
 30
0.0
  3
*D51
  1

  0
LINE
  5
49E
330
49D
100
AcDbEntity
  8
0
 62
   123
100
AcDbLine
 10
17.76012226784405
 20
130.143750438438
 30
0.0
 11
17.76012226784405
 21
178.6534800338627
 31
0.0
  0
LINE
  5
49F
330
49D
100
AcDbEntity
  8
0
 62
   123
100
AcDbLine
 10
79.76012226784405
 20
130.143750438438
 30
0.0
 11
79.76012226784405
 21
178.6534800338627
 31
0.0
  0
LINE
  5
4A0
330
49D
100
AcDbEntity
  8
0
 62
   123
100
AcDbLine
 10
20.26012226784405
 20
178.0534800338628
 30
0.0
 11
77.26012226784405
 21
178.0534800338628
 31
0.0
  0
SOLID
  5
4A1
330
49D
100
AcDbEntity
  8
0
 62
   123
100
AcDbTrace
 10
20.26012226784405
 20
178.4701467005294
 30
0.0
 11
20.26012226784405
 21
177.6368133671961
 31
0.0
 12
17.76012226784405
 22
178.0534800338628
 32
0.0
 13
17.76012226784405
 23
178.0534800338628
 33
0.0
  0
SOLID
  5
4A2
330
49D
100
AcDbEntity
  8
0
 62
   123
100
AcDbTrace
 10
77.26012226784405
 20
178.4701467005294
 30
0.0
 11
77.26012226784405
 21
177.6368133671961
 31
0.0
 12
79.76012226784405
 22
178.0534800338628
 32
0.0
 13
79.76012226784405
 23
178.0534800338628
 33
0.0
  0
MTEXT
  5
4A3
330
49D
100
AcDbEntity
  8
0
 62
     3
100
AcDbMText
 10
48.76012226784405
 20
180.5534800338628
 30
0.0
 40
3.0
 41
0.0
 71
     5
 72
     1
  1
\A1;62
1001
ACAD
1000
MTEXTBEGIN
1070
    73
1070
     1
1070
    44
1040
1.0
1070
    74
1070
     0
1000
MTEXTEND
  0
POINT
  5
4A4
330
49D
100
AcDbEntity
  8
DEFPOINTS
 62
     0
100
AcDbPoint
 10
17.76012226784405
 20
129.143750438438
 30
0.0
  0
POINT
  5
4A5
330
49D
100
AcDbEntity
  8
DEFPOINTS
 62
     0
100
AcDbPoint
 10
79.76012226784405
 20
129.143750438438
 30
0.0
  0
POINT
  5
4A6
330
49D
100
AcDbEntity
  8
DEFPOINTS
 62
     0
100
AcDbPoint
 10
79.76012226784405
 20
178.0534800338628
 30
0.0
  0
ENDBLK
  5
4A8
330
49D
100
AcDbEntity
  8
0
100
AcDbBlockEnd
  0
BLOCK
  5
4B5
330
4A9
100
AcDbEntity
  8
0
100
AcDbBlockBegin
  2
*D52
 70
     1
 10
0.0
 20
0.0
 30
0.0
  3
*D52
  1

  0
LINE
  5
4AA
330
4A9
100
AcDbEntity
  8
0
 62
   123
100
AcDbLine
 10
106.8176820834942
 20
229.4610057378686
 30
0.0
 11
106.8176820834942
 21
237.8200182828437
 31
0.0
  0
LINE
  5
4AB
330
4A9
100
AcDbEntity
  8
0
 62
   123
100
AcDbLine
 10
110.8176820834942
 20
229.4610057378686
 30
0.0
 11
110.8176820834942
 21
237.8200182828437
 31
0.0
  0
LINE
  5
4AC
330
4A9
100
AcDbEntity
  8
0
 62
   123
100
AcDbLine
 10
104.3176820834942
 20
237.2200182828437
 30
0.0
 11
101.8176820834942
 21
237.2200182828437
 31
0.0
  0
LINE
  5
4AD
330
4A9
100
AcDbEntity
  8
0
 62
   123
100
AcDbLine
 10
113.3176820834942
 20
237.2200182828437
 30
0.0
 11
115.8176820834942
 21
237.2200182828437
 31
0.0
  0
LINE
  5
4AE
330
4A9
100
AcDbEntity
  8
0
 62
   123
100
AcDbLine
 10
106.8176820834942
 20
237.2200182828437
 30
0.0
 11
110.8176820834942
 21
237.2200182828437
 31
0.0
  0
SOLID
  5
4AF
330
4A9
100
AcDbEntity
  8
0
 62
   123
100
AcDbTrace
 10
104.3176820834942
 20
237.6366849495104
 30
0.0
 11
104.3176820834942
 21
236.803351616177
 31
0.0
 12
106.8176820834942
 22
237.2200182828437
 32
0.0
 13
106.8176820834942
 23
237.2200182828437
 33
0.0
  0
SOLID
  5
4B0
330
4A9
100
AcDbEntity
  8
0
 62
   123
100
AcDbTrace
 10
113.3176820834942
 20
237.6366849495104
 30
0.0
 11
113.3176820834942
 21
236.803351616177
 31
0.0
 12
110.8176820834942
 22
237.2200182828437
 32
0.0
 13
110.8176820834942
 23
237.2200182828437
 33
0.0
  0
MTEXT
  5
4B1
330
4A9
100
AcDbEntity
  8
0
 62
     3
100
AcDbMText
 10
108.8176820834942
 20
240.6700182828437
 30
0.0
 40
3.0
 41
0.0
 71
     5
 72
     1
  1
\A1;\A1;4{\f??|b0|i0|c0|p49;\H0.7x;\S+0.40^ -0;}
1001
ACAD
1000
MTEXTBEGIN
1070
    73
1070
     1
1070
    44
1040
1.0
1070
    74
1070
     0
1000
MTEXTEND
  0
POINT
  5
4B2
330
4A9
100
AcDbEntity
  8
DEFPOINTS
 62
     0
100
AcDbPoint
 10
106.8176820834942
 20
228.4610057378686
 30
0.0
  0
POINT
  5
4B3
330
4A9
100
AcDbEntity
  8
DEFPOINTS
 62
     0
100
AcDbPoint
 10
110.8176820834942
 20
228.4610057378686
 30
0.0
  0
POINT
  5
4B4
330
4A9
100
AcDbEntity
  8
DEFPOINTS
 62
     0
100
AcDbPoint
 10
110.8176820834942
 20
237.2200182828437
 30
0.0
  0
ENDBLK
  5
4B6
330
4A9
100
AcDbEntity
  8
0
100
AcDbBlockEnd
  0
BLOCK
  5
4C1
330
4B7
100
AcDbEntity
  8
0
100
AcDbBlockBegin
  2
*D53
 70
     1
 10
0.0
 20
0.0
 30
0.0
  3
*D53
  1

  0
LINE
  5
4B8
330
4B7
100
AcDbEntity
  8
0
 62
   123
100
AcDbLine
 10
19.71364905623522
 20
226.4787253299096
 30
0.0
 11
19.71364905623522
 21
235.883919310385
 31
0.0
  0
LINE
  5
4B9
330
4B7
100
AcDbEntity
  8
0
 62
   123
100
AcDbLine
 10
44.71364905623523
 20
228.4787253299096
 30
0.0
 11
44.71364905623523
 21
235.883919310385
 31
0.0
  0
LINE
  5
4BA
330
4B7
100
AcDbEntity
  8
0
 62
   123
100
AcDbLine
 10
22.21364905623522
 20
235.283919310385
 30
0.0
 11
42.21364905623523
 21
235.283919310385
 31
0.0
  0
SOLID
  5
4BB
330
4B7
100
AcDbEntity
  8
0
 62
   123
100
AcDbTrace
 10
22.21364905623522
 20
235.7005859770517
 30
0.0
 11
22.21364905623522
 21
234.8672526437183
 31
0.0
 12
19.71364905623522
 22
235.283919310385
 32
0.0
 13
19.71364905623522
 23
235.283919310385
 33
0.0
  0
SOLID
  5
4BC
330
4B7
100
AcDbEntity
  8
0
 62
   123
100
AcDbTrace
 10
42.21364905623523
 20
235.7005859770517
 30
0.0
 11
42.21364905623523
 21
234.8672526437183
 31
0.0
 12
44.71364905623523
 22
235.283919310385
 32
0.0
 13
44.71364905623523
 23
235.283919310385
 33
0.0
  0
MTEXT
  5
4BD
330
4B7
100
AcDbEntity
  8
0
 62
     3
100
AcDbMText
 10
32.21364905623522
 20
237.783919310385
 30
0.0
 40
3.0
 41
0.0
 71
     5
 72
     1
  1
\A1;25{\f??|b0|i0|c0|p49;%%p0.2}
1001
ACAD
1000
MTEXTBEGIN
1070
    73
1070
     1
1070
    44
1040
1.0
1070
    74
1070
     0
1000
MTEXTEND
  0
POINT
  5
4BE
330
4B7
100
AcDbEntity
  8
DEFPOINTS
 62
     0
100
AcDbPoint
 10
19.71364905623522
 20
225.4787253299095
 30
0.0
  0
POINT
  5
4BF
330
4B7
100
AcDbEntity
  8
DEFPOINTS
 62
     0
100
AcDbPoint
 10
44.71364905623523
 20
227.4787253299095
 30
0.0
  0
POINT
  5
4C0
330
4B7
100
AcDbEntity
  8
DEFPOINTS
 62
     0
100
AcDbPoint
 10
44.71364905623523
 20
235.283919310385
 30
0.0
  0
ENDBLK
  5
4C2
330
4B7
100
AcDbEntity
  8
0
100
AcDbBlockEnd
  0
BLOCK
  5
4CF
330
4C3
100
AcDbEntity
  8
0
100
AcDbBlockBegin
  2
*D54
 70
     1
 10
0.0
 20
0.0
 30
0.0
  3
*D54
  1

  0
LINE
  5
4C4
330
4C3
100
AcDbEntity
  8
0
 62
   123
100
AcDbLine
 10
61.88430234294537
 20
228.4787253299096
 30
0.0
 11
61.88430234294537
 21
236.7532009885418
 31
0.0
  0
LINE
  5
4C5
330
4C3
100
AcDbEntity
  8
0
 62
   123
100
AcDbLine
 10
65.88430234294538
 20
228.4787253299096
 30
0.0
 11
65.88430234294538
 21
236.7532009885418
 31
0.0
  0
LINE
  5
4C6
330
4C3
100
AcDbEntity
  8
0
 62
   123
100
AcDbLine
 10
59.38430234294537
 20
236.1532009885418
 30
0.0
 11
56.88430234294537
 21
236.1532009885418
 31
0.0
  0
LINE
  5
4C7
330
4C3
100
AcDbEntity
  8
0
 62
   123
100
AcDbLine
 10
68.38430234294538
 20
236.1532009885418
 30
0.0
 11
70.88430234294538
 21
236.1532009885418
 31
0.0
  0
LINE
  5
4C8
330
4C3
100
AcDbEntity
  8
0
 62
   123
100
AcDbLine
 10
61.88430234294537
 20
236.1532009885418
 30
0.0
 11
65.88430234294538
 21
236.1532009885418
 31
0.0
  0
SOLID
  5
4C9
330
4C3
100
AcDbEntity
  8
0
 62
   123
100
AcDbTrace
 10
59.38430234294537
 20
236.5698676552084
 30
0.0
 11
59.38430234294537
 21
235.7365343218751
 31
0.0
 12
61.88430234294537
 22
236.1532009885418
 32
0.0
 13
61.88430234294537
 23
236.1532009885418
 33
0.0
  0
SOLID
  5
4CA
330
4C3
100
AcDbEntity
  8
0
 62
   123
100
AcDbTrace
 10
68.38430234294538
 20
236.5698676552084
 30
0.0
 11
68.38430234294538
 21
235.7365343218751
 31
0.0
 12
65.88430234294538
 22
236.1532009885418
 32
0.0
 13
65.88430234294538
 23
236.1532009885418
 33
0.0
  0
MTEXT
  5
4CB
330
4C3
100
AcDbEntity
  8
0
 62
     3
100
AcDbMText
 10
63.88430234294538
 20
239.6032009885418
 30
0.0
 40
3.0
 41
0.0
 71
     5
 72
     1
  1
\A1;\A1;4{\f??|b0|i0|c0|p49;\H0.7x;\S+0^ -0.03;}
1001
ACAD
1000
MTEXTBEGIN
1070
    73
1070
     1
1070
    44
1040
1.0
1070
    74
1070
     0
1000
MTEXTEND
  0
POINT
  5
4CC
330
4C3
100
AcDbEntity
  8
DEFPOINTS
 62
     0
100
AcDbPoint
 10
61.88430234294537
 20
227.4787253299095
 30
0.0
  0
POINT
  5
4CD
330
4C3
100
AcDbEntity
  8
DEFPOINTS
 62
     0
100
AcDbPoint
 10
65.88430234294538
 20
227.4787253299095
 30
0.0
  0
POINT
  5
4CE
330
4C3
100
AcDbEntity
  8
DEFPOINTS
 62
     0
100
AcDbPoint
 10
65.88430234294538
 20
236.1532009885418
 30
0.0
  0
ENDBLK
  5
4D0
330
4C3
100
AcDbEntity
  8
0
100
AcDbBlockEnd
  0
BLOCK
  5
4DD
330
4D1
100
AcDbEntity
  8
0
100
AcDbBlockBegin
  2
*D55
 70
     1
 10
0.0
 20
0.0
 30
0.0
  3
*D55
  1

  0
LINE
  5
4D2
330
4D1
100
AcDbEntity
  8
0
 62
   123
100
AcDbLine
 10
45.71364905623522
 20
223.4787253299095
 30
0.0
 11
53.48270421169549
 21
223.4787253299095
 31
0.0
  0
LINE
  5
4D3
330
4D1
100
AcDbEntity
  8
0
 62
   123
100
AcDbLine
 10
45.71364905623522
 20
227.4787253299095
 30
0.0
 11
53.48270421169549
 21
227.4787253299095
 31
0.0
  0
LINE
  5
4D4
330
4D1
100
AcDbEntity
  8
0
 62
   123
100
AcDbLine
 10
52.88270421169549
 20
220.9787253299095
 30
0.0
 11
52.88270421169549
 21
218.4787253299095
 31
0.0
  0
LINE
  5
4D5
330
4D1
100
AcDbEntity
  8
0
 62
   123
100
AcDbLine
 10
52.88270421169549
 20
229.9787253299096
 30
0.0
 11
52.88270421169549
 21
249.0424728382858
 31
0.0
  0
LINE
  5
4D6
330
4D1
100
AcDbEntity
  8
0
 62
   123
100
AcDbLine
 10
52.88270421169549
 20
223.4787253299095
 30
0.0
 11
52.88270421169549
 21
227.4787253299095
 31
0.0
  0
SOLID
  5
4D7
330
4D1
100
AcDbEntity
  8
0
 62
   123
100
AcDbTrace
 10
52.46603754502882
 20
220.9787253299095
 30
0.0
 11
53.29937087836215
 21
220.9787253299095
 31
0.0
 12
52.88270421169549
 22
223.4787253299095
 32
0.0
 13
52.88270421169549
 23
223.4787253299095
 33
0.0
  0
SOLID
  5
4D8
330
4D1
100
AcDbEntity
  8
0
 62
   123
100
AcDbTrace
 10
52.46603754502882
 20
229.9787253299096
 30
0.0
 11
53.29937087836215
 21
229.9787253299096
 31
0.0
 12
52.88270421169549
 22
227.4787253299095
 32
0.0
 13
52.88270421169549
 23
227.4787253299095
 33
0.0
  0
MTEXT
  5
4D9
330
4D1
100
AcDbEntity
  8
0
 62
     3
100
AcDbMText
 10
49.43270421169545
 20
242.3281871240001
 30
0.0
 40
3.0
 41
0.0
 71
     5
 72
     1
  1
\A1;\A1;4{\f??|b0|i0|c0|p49;\H0.7x;\S+0^ -0.03;}
 11
0.0000000000000001
 21
1.0
 31
0.0
1001
ACAD
1000
MTEXTBEGIN
1070
    73
1070
     1
1070
    44
1040
1.0
1070
    74
1070
     0
1000
MTEXTEND
  0
POINT
  5
4DA
330
4D1
100
AcDbEntity
  8
DEFPOINTS
 62
     0
100
AcDbPoint
 10
44.71364905623523
 20
223.4787253299095
 30
0.0
  0
POINT
  5
4DB
330
4D1
100
AcDbEntity
  8
DEFPOINTS
 62
     0
100
AcDbPoint
 10
44.71364905623523
 20
227.4787253299095
 30
0.0
  0
POINT
  5
4DC
330
4D1
100
AcDbEntity
  8
DEFPOINTS
 62
     0
100
AcDbPoint
 10
52.88270421169549
 20
227.4787253299095
 30
0.0
  0
ENDBLK
  5
4DE
330
4D1
100
AcDbEntity
  8
0
100
AcDbBlockEnd
  0
BLOCK
  5
4EB
330
4DF
100
AcDbEntity
  8
0
100
AcDbBlockBegin
  2
*D56
 70
     1
 10
0.0
 20
0.0
 30
0.0
  3
*D56
  1

  0
LINE
  5
4E0
330
4DF
100
AcDbEntity
  8
0
 62
   123
100
AcDbLine
 10
240.472973011203
 20
122.1437504383688
 30
0.0
 11
240.472973011203
 21
176.7993539430541
 31
0.0
  0
LINE
  5
4E1
330
4DF
100
AcDbEntity
  8
0
 62
   123
100
AcDbLine
 10
246.472973011203
 20
130.8437494383711
 30
0.0
 11
246.472973011203
 21
176.7993539430541
 31
0.0
  0
LINE
  5
4E2
330
4DF
100
AcDbEntity
  8
0
 62
   123
100
AcDbLine
 10
237.972973011203
 20
176.1993539430541
 30
0.0
 11
235.472973011203
 21
176.1993539430541
 31
0.0
  0
LINE
  5
4E3
330
4DF
100
AcDbEntity
  8
0
 62
   123
100
AcDbLine
 10
248.972973011203
 20
176.1993539430541
 30
0.0
 11
251.472973011203
 21
176.1993539430541
 31
0.0
  0
LINE
  5
4E4
330
4DF
100
AcDbEntity
  8
0
 62
   123
100
AcDbLine
 10
240.472973011203
 20
176.1993539430541
 30
0.0
 11
246.472973011203
 21
176.1993539430541
 31
0.0
  0
SOLID
  5
4E5
330
4DF
100
AcDbEntity
  8
0
 62
   123
100
AcDbTrace
 10
237.972973011203
 20
176.6160206097207
 30
0.0
 11
237.972973011203
 21
175.7826872763874
 31
0.0
 12
240.472973011203
 22
176.1993539430541
 32
0.0
 13
240.472973011203
 23
176.1993539430541
 33
0.0
  0
SOLID
  5
4E6
330
4DF
100
AcDbEntity
  8
0
 62
   123
100
AcDbTrace
 10
248.972973011203
 20
176.6160206097207
 30
0.0
 11
248.972973011203
 21
175.7826872763874
 31
0.0
 12
246.472973011203
 22
176.1993539430541
 32
0.0
 13
246.472973011203
 23
176.1993539430541
 33
0.0
  0
MTEXT
  5
4E7
330
4DF
100
AcDbEntity
  8
0
 62
     3
100
AcDbMText
 10
243.472973011203
 20
178.6993539430541
 30
0.0
 40
3.0
 41
0.0
 71
     5
 72
     1
  1
\A1;6
1001
ACAD
1000
MTEXTBEGIN
1070
    73
1070
     1
1070
    44
1040
1.0
1070
    74
1070
     0
1000
MTEXTEND
  0
POINT
  5
4E8
330
4DF
100
AcDbEntity
  8
DEFPOINTS
 62
     0
100
AcDbPoint
 10
240.472973011203
 20
121.1437504383688
 30
0.0
  0
POINT
  5
4E9
330
4DF
100
AcDbEntity
  8
DEFPOINTS
 62
     0
100
AcDbPoint
 10
246.472973011203
 20
129.8437494383711
 30
0.0
  0
POINT
  5
4EA
330
4DF
100
AcDbEntity
  8
DEFPOINTS
 62
     0
100
AcDbPoint
 10
246.472973011203
 20
176.1993539430541
 30
0.0
  0
ENDBLK
  5
4EC
330
4DF
100
AcDbEntity
  8
0
100
AcDbBlockEnd
  0
BLOCK
  5
4F7
330
4ED
100
AcDbEntity
  8
0
100
AcDbBlockBegin
  2
*D57
 70
     1
 10
0.0
 20
0.0
 30
0.0
  3
*D57
  1

  0
LINE
  5
4EE
330
4ED
100
AcDbEntity
  8
0
 62
   123
100
AcDbLine
 10
246.472973011203
 20
130.8437494383711
 30
0.0
 11
246.472973011203
 21
176.7993539430541
 31
0.0
  0
LINE
  5
4EF
330
4ED
100
AcDbEntity
  8
0
 62
   123
100
AcDbLine
 10
321.4696400112043
 20
162.1437494383699
 30
0.0
 11
321.4696400112043
 21
176.7993539430541
 31
0.0
  0
LINE
  5
4F0
330
4ED
100
AcDbEntity
  8
0
 62
   123
100
AcDbLine
 10
248.972973011203
 20
176.1993539430541
 30
0.0
 11
318.9696400112043
 21
176.1993539430541
 31
0.0
  0
SOLID
  5
4F1
330
4ED
100
AcDbEntity
  8
0
 62
   123
100
AcDbTrace
 10
248.972973011203
 20
176.6160206097207
 30
0.0
 11
248.972973011203
 21
175.7826872763874
 31
0.0
 12
246.472973011203
 22
176.1993539430541
 32
0.0
 13
246.472973011203
 23
176.1993539430541
 33
0.0
  0
SOLID
  5
4F2
330
4ED
100
AcDbEntity
  8
0
 62
   123
100
AcDbTrace
 10
318.9696400112043
 20
176.6160206097207
 30
0.0
 11
318.9696400112043
 21
175.7826872763874
 31
0.0
 12
321.4696400112043
 22
176.1993539430541
 32
0.0
 13
321.4696400112043
 23
176.1993539430541
 33
0.0
  0
MTEXT
  5
4F3
330
4ED
100
AcDbEntity
  8
0
 62
     3
100
AcDbMText
 10
277.3728502539634
 20
178.6993539430541
 30
0.0
 40
3.0
 41
0.0
 71
     5
 72
     1
  1
\A1;75
1001
ACAD
1000
MTEXTBEGIN
1070
    73
1070
     1
1070
    44
1040
1.0
1070
    74
1070
     0
1000
MTEXTEND
  0
POINT
  5
4F4
330
4ED
100
AcDbEntity
  8
DEFPOINTS
 62
     0
100
AcDbPoint
 10
246.472973011203
 20
129.8437494383711
 30
0.0
  0
POINT
  5
4F5
330
4ED
100
AcDbEntity
  8
DEFPOINTS
 62
     0
100
AcDbPoint
 10
321.4696400112043
 20
161.1437494383699
 30
0.0
  0
POINT
  5
4F6
330
4ED
100
AcDbEntity
  8
DEFPOINTS
 62
     0
100
AcDbPoint
 10
321.4696400112043
 20
176.1993539430541
 30
0.0
  0
ENDBLK
  5
4F8
330
4ED
100
AcDbEntity
  8
0
100
AcDbBlockEnd
  0
BLOCK
  5
503
330
4F9
100
AcDbEntity
  8
0
100
AcDbBlockBegin
  2
*D58
 70
     1
 10
0.0
 20
0.0
 30
0.0
  3
*D58
  1

  0
LINE
  5
4FA
330
4F9
100
AcDbEntity
  8
0
 62
   123
100
AcDbLine
 10
191.472973011203
 20
101.1437504383688
 30
0.0
 11
191.472973011203
 21
117.6195703009226
 31
0.0
  0
LINE
  5
4FB
330
4F9
100
AcDbEntity
  8
0
 62
   123
100
AcDbLine
 10
166.472973011203
 20
100.1437504383679
 30
0.0
 11
166.472973011203
 21
117.6195703009226
 31
0.0
  0
LINE
  5
4FC
330
4F9
100
AcDbEntity
  8
0
 62
   123
100
AcDbLine
 10
188.972973011203
 20
117.0195703009226
 30
0.0
 11
168.972973011203
 21
117.0195703009226
 31
0.0
  0
SOLID
  5
4FD
330
4F9
100
AcDbEntity
  8
0
 62
   123
100
AcDbTrace
 10
188.972973011203
 20
117.4362369675892
 30
0.0
 11
188.972973011203
 21
116.6029036342559
 31
0.0
 12
191.472973011203
 22
117.0195703009226
 32
0.0
 13
191.472973011203
 23
117.0195703009226
 33
0.0
  0
SOLID
  5
4FE
330
4F9
100
AcDbEntity
  8
0
 62
   123
100
AcDbTrace
 10
168.972973011203
 20
117.4362369675892
 30
0.0
 11
168.972973011203
 21
116.6029036342559
 31
0.0
 12
166.472973011203
 22
117.0195703009226
 32
0.0
 13
166.472973011203
 23
117.0195703009226
 33
0.0
  0
MTEXT
  5
4FF
330
4F9
100
AcDbEntity
  8
0
 62
     3
100
AcDbMText
 10
178.972973011203
 20
119.5195703009226
 30
0.0
 40
3.0
 41
0.0
 71
     5
 72
     1
  1
\A1;25
1001
ACAD
1000
MTEXTBEGIN
1070
    73
1070
     1
1070
    44
1040
1.0
1070
    74
1070
     0
1000
MTEXTEND
  0
POINT
  5
500
330
4F9
100
AcDbEntity
  8
DEFPOINTS
 62
     0
100
AcDbPoint
 10
191.472973011203
 20
100.1437504383688
 30
0.0
  0
POINT
  5
501
330
4F9
100
AcDbEntity
  8
DEFPOINTS
 62
     0
100
AcDbPoint
 10
166.472973011203
 20
99.14375043836798
 30
0.0
  0
POINT
  5
502
330
4F9
100
AcDbEntity
  8
DEFPOINTS
 62
     0
100
AcDbPoint
 10
166.472973011203
 20
117.0195703009226
 30
0.0
  0
ENDBLK
  5
504
330
4F9
100
AcDbEntity
  8
0
100
AcDbBlockEnd
  0
BLOCK
  5
511
330
505
100
AcDbEntity
  8
0
100
AcDbBlockBegin
  2
*D59
 70
     1
 10
0.0
 20
0.0
 30
0.0
  3
*D59
  1

  0
LINE
  5
506
330
505
100
AcDbEntity
  8
0
 62
   123
100
AcDbLine
 10
198.472973011203
 20
122.1437504383688
 30
0.0
 11
198.472973011203
 21
135.7551354904418
 31
0.0
  0
LINE
  5
507
330
505
100
AcDbEntity
  8
0
 62
   123
100
AcDbLine
 10
195.472973011203
 20
112.2901970477746
 30
0.0
 11
195.472973011203
 21
135.7551354904418
 31
0.0
  0
LINE
  5
508
330
505
100
AcDbEntity
  8
0
 62
   123
100
AcDbLine
 10
200.972973011203
 20
135.1551354904418
 30
0.0
 11
203.472973011203
 21
135.1551354904418
 31
0.0
  0
LINE
  5
509
330
505
100
AcDbEntity
  8
0
 62
   123
100
AcDbLine
 10
192.972973011203
 20
135.1551354904418
 30
0.0
 11
190.472973011203
 21
135.1551354904418
 31
0.0
  0
LINE
  5
50A
330
505
100
AcDbEntity
  8
0
 62
   123
100
AcDbLine
 10
198.472973011203
 20
135.1551354904418
 30
0.0
 11
195.472973011203
 21
135.1551354904418
 31
0.0
  0
SOLID
  5
50B
330
505
100
AcDbEntity
  8
0
 62
   123
100
AcDbTrace
 10
200.972973011203
 20
135.5718021571084
 30
0.0
 11
200.972973011203
 21
134.7384688237751
 31
0.0
 12
198.472973011203
 22
135.1551354904418
 32
0.0
 13
198.472973011203
 23
135.1551354904418
 33
0.0
  0
SOLID
  5
50C
330
505
100
AcDbEntity
  8
0
 62
   123
100
AcDbTrace
 10
192.972973011203
 20
135.5718021571084
 30
0.0
 11
192.972973011203
 21
134.7384688237751
 31
0.0
 12
195.472973011203
 22
135.1551354904418
 32
0.0
 13
195.472973011203
 23
135.1551354904418
 33
0.0
  0
MTEXT
  5
50D
330
505
100
AcDbEntity
  8
0
 62
     3
100
AcDbMText
 10
196.972973011203
 20
137.6551354904418
 30
0.0
 40
3.0
 41
0.0
 71
     5
 72
     1
  1
\A1;3
1001
ACAD
1000
MTEXTBEGIN
1070
    73
1070
     1
1070
    44
1040
1.0
1070
    74
1070
     0
1000
MTEXTEND
  0
POINT
  5
50E
330
505
100
AcDbEntity
  8
DEFPOINTS
 62
     0
100
AcDbPoint
 10
198.472973011203
 20
121.1437504383688
 30
0.0
  0
POINT
  5
50F
330
505
100
AcDbEntity
  8
DEFPOINTS
 62
     0
100
AcDbPoint
 10
195.472973011203
 20
111.2901970477746
 30
0.0
  0
POINT
  5
510
330
505
100
AcDbEntity
  8
DEFPOINTS
 62
     0
100
AcDbPoint
 10
195.472973011203
 20
135.1551354904418
 30
0.0
  0
ENDBLK
  5
512
330
505
100
AcDbEntity
  8
0
100
AcDbBlockEnd
  0
BLOCK
  5
51D
330
513
100
AcDbEntity
  8
0
100
AcDbBlockBegin
  2
*D60
 70
     1
 10
0.0
 20
0.0
 30
0.0
  3
*D60
  1

  0
LINE
  5
514
330
513
100
AcDbEntity
  8
0
 62
   123
100
AcDbLine
 10
321.4696400112043
 20
162.1437494383699
 30
0.0
 11
321.4696400112043
 21
176.7827829225426
 31
0.0
  0
LINE
  5
515
330
513
100
AcDbEntity
  8
0
 62
   123
100
AcDbLine
 10
349.4696400112043
 20
154.1437494383699
 30
0.0
 11
349.4696400112043
 21
176.7827829225426
 31
0.0
  0
LINE
  5
516
330
513
100
AcDbEntity
  8
0
 62
   123
100
AcDbLine
 10
323.9696400112043
 20
176.1827829225426
 30
0.0
 11
346.9696400112043
 21
176.1827829225426
 31
0.0
  0
SOLID
  5
517
330
513
100
AcDbEntity
  8
0
 62
   123
100
AcDbTrace
 10
323.9696400112043
 20
176.5994495892092
 30
0.0
 11
323.9696400112043
 21
175.7661162558759
 31
0.0
 12
321.4696400112043
 22
176.1827829225426
 32
0.0
 13
321.4696400112043
 23
176.1827829225426
 33
0.0
  0
SOLID
  5
518
330
513
100
AcDbEntity
  8
0
 62
   123
100
AcDbTrace
 10
346.9696400112043
 20
176.5994495892092
 30
0.0
 11
346.9696400112043
 21
175.7661162558759
 31
0.0
 12
349.4696400112043
 22
176.1827829225426
 32
0.0
 13
349.4696400112043
 23
176.1827829225426
 33
0.0
  0
MTEXT
  5
519
330
513
100
AcDbEntity
  8
0
 62
     3
100
AcDbMText
 10
335.4696400112043
 20
178.6827829225426
 30
0.0
 40
3.0
 41
0.0
 71
     5
 72
     1
  1
\A1;MAX. 28
1001
ACAD
1000
MTEXTBEGIN
1070
    73
1070
     1
1070
    44
1040
1.0
1070
    74
1070
     0
1000
MTEXTEND
  0
POINT
  5
51A
330
513
100
AcDbEntity
  8
DEFPOINTS
 62
     0
100
AcDbPoint
 10
321.4696400112043
 20
161.1437494383699
 30
0.0
  0
POINT
  5
51B
330
513
100
AcDbEntity
  8
DEFPOINTS
 62
     0
100
AcDbPoint
 10
349.4696400112043
 20
153.1437494383699
 30
0.0
  0
POINT
  5
51C
330
513
100
AcDbEntity
  8
DEFPOINTS
 62
     0
100
AcDbPoint
 10
349.4696400112043
 20
176.1827829225426
 30
0.0
  0
ENDBLK
  5
51E
330
513
100
AcDbEntity
  8
0
100
AcDbBlockEnd
  0
BLOCK
  5
528
330
51F
100
AcDbEntity
  8
0
100
AcDbBlockBegin
  2
*D61
 70
     1
 10
0.0
 20
0.0
 30
0.0
  3
*D61
  1

  0
LINE
  5
5C0
330
51F
100
AcDbEntity
  8
0
 62
   123
100
AcDbLine
 10
43.17477396342925
 20
300.931844512746
 30
0.0
 11
41.23776772038207
 21
299.3513361089732
 31
0.0
  0
LINE
  5
5C1
330
51F
100
AcDbEntity
  8
0
 62
   123
100
AcDbLine
 10
127.6282461602849
 20
369.8420109172372
 30
0.0
 11
150.6444702618054
 21
388.6221959301383
 31
0.0
  0
LINE
  5
5C2
330
51F
100
AcDbEntity
  8
0
 62
   123
100
AcDbLine
 10
45.11178020647642
 20
302.5123529165187
 30
0.0
 11
125.6912399172378
 21
368.2615025134645
 31
0.0
  0
SOLID
  5
5C3
330
51F
100
AcDbEntity
  8
0
 62
   123
100
AcDbTrace
 10
42.91135589613381
 20
301.2546788865871
 30
0.0
 11
43.4381920307247
 21
300.6090101389048
 31
0.0
 12
45.11178020647642
 22
302.5123529165187
 32
0.0
 13
45.11178020647642
 23
302.5123529165187
 33
0.0
  0
SOLID
  5
5C4
330
51F
100
AcDbEntity
  8
0
 62
   123
100
AcDbTrace
 10
127.3648280929894
 20
370.1648452910784
 30
0.0
 11
127.8916642275804
 21
369.519176543396
 31
0.0
 12
125.6912399172378
 22
368.2615025134645
 32
0.0
 13
125.6912399172378
 23
368.2615025134645
 33
0.0
  0
MTEXT
  5
5C5
330
51F
100
AcDbEntity
  8
0
 62
     3
100
AcDbMText
 10
140.0430470689845
 20
383.1985487499009
 30
0.0
 40
3.0
 41
0.0
 71
     5
 72
     1
  1
\A1;\U+2205104%%P0.5
 11
0.7748024972188673
 21
0.6322033615091011
 31
0.0
1001
ACAD
1000
MTEXTBEGIN
1070
    73
1070
     1
1070
    44
1040
1.0
1070
    74
1070
     0
1000
MTEXTEND
  0
POINT
  5
5C6
330
51F
100
AcDbEntity
  8
DEFPOINTS
 62
     0
100
AcDbPoint
 10
125.6912399172378
 20
368.2615025134645
 30
0.0
  0
POINT
  5
5C7
330
51F
100
AcDbEntity
  8
DEFPOINTS
 62
     0
100
AcDbPoint
 10
45.11178020647642
 20
302.5123529165187
 30
0.0
  0
ENDBLK
  5
529
330
51F
100
AcDbEntity
  8
0
100
AcDbBlockEnd
  0
BLOCK
  5
534
330
52A
100
AcDbEntity
  8
0
100
AcDbBlockBegin
  2
*D62
 70
     1
 10
0.0
 20
0.0
 30
0.0
  3
*D62
  1

  0
LINE
  5
52B
330
52A
100
AcDbEntity
  8
0
 62
   123
100
AcDbLine
 10
40.40151006185261
 20
376.3436293944532
 30
0.0
 11
40.40151006185261
 21
393.4654500603538
 31
0.0
  0
LINE
  5
52C
330
52A
100
AcDbEntity
  8
0
 62
   123
100
AcDbLine
 10
130.4015100618526
 20
376.3436293944532
 30
0.0
 11
130.4015100618526
 21
393.4654500603538
 31
0.0
  0
LINE
  5
52D
330
52A
100
AcDbEntity
  8
0
 62
   123
100
AcDbLine
 10
42.90151006185261
 20
392.8654500603538
 30
0.0
 11
127.9015100618525
 21
392.8654500603538
 31
0.0
  0
SOLID
  5
52E
330
52A
100
AcDbEntity
  8
0
 62
   123
100
AcDbTrace
 10
42.90151006185261
 20
393.2821167270205
 30
0.0
 11
42.90151006185261
 21
392.4487833936871
 31
0.0
 12
40.40151006185261
 22
392.8654500603538
 32
0.0
 13
40.40151006185261
 23
392.8654500603538
 33
0.0
  0
SOLID
  5
52F
330
52A
100
AcDbEntity
  8
0
 62
   123
100
AcDbTrace
 10
127.9015100618525
 20
393.2821167270205
 30
0.0
 11
127.9015100618525
 21
392.4487833936871
 31
0.0
 12
130.4015100618526
 22
392.8654500603538
 32
0.0
 13
130.4015100618526
 23
392.8654500603538
 33
0.0
  0
MTEXT
  5
530
330
52A
100
AcDbEntity
  8
0
 62
     3
100
AcDbMText
 10
85.4015100618526
 20
395.3654500603538
 30
0.0
 40
3.0
 41
0.0
 71
     5
 72
     1
  1
\A1;90
1001
ACAD
1000
MTEXTBEGIN
1070
    73
1070
     1
1070
    44
1040
1.0
1070
    74
1070
     0
1000
MTEXTEND
  0
POINT
  5
531
330
52A
100
AcDbEntity
  8
DEFPOINTS
 62
     0
100
AcDbPoint
 10
40.40151006185261
 20
375.3436293944532
 30
0.0
  0
POINT
  5
532
330
52A
100
AcDbEntity
  8
DEFPOINTS
 62
     0
100
AcDbPoint
 10
130.4015100618526
 20
375.3436293944532
 30
0.0
  0
POINT
  5
533
330
52A
100
AcDbEntity
  8
DEFPOINTS
 62
     0
100
AcDbPoint
 10
130.4015100618526
 20
392.8654500603538
 30
0.0
  0
ENDBLK
  5
535
330
52A
100
AcDbEntity
  8
0
100
AcDbBlockEnd
  0
BLOCK
  5
540
330
536
100
AcDbEntity
  8
0
100
AcDbBlockBegin
  2
*D63
 70
     1
 10
0.0
 20
0.0
 30
0.0
  3
*D63
  1

  0
LINE
  5
537
330
536
100
AcDbEntity
  8
0
 62
   123
100
AcDbLine
 10
275.4656597197954
 20
289.9078200326475
 30
0.0
 11
275.4656597197954
 21
273.8022668210295
 31
0.0
  0
LINE
  5
538
330
536
100
AcDbEntity
  8
0
 62
   123
100
AcDbLine
 10
233.4656597197954
 20
289.9078200326475
 30
0.0
 11
233.4656597197954
 21
273.8022668210295
 31
0.0
  0
LINE
  5
539
330
536
100
AcDbEntity
  8
0
 62
   123
100
AcDbLine
 10
272.9656597197954
 20
274.4022668210295
 30
0.0
 11
235.9656597197954
 21
274.4022668210295
 31
0.0
  0
SOLID
  5
53A
330
536
100
AcDbEntity
  8
0
 62
   123
100
AcDbTrace
 10
272.9656597197954
 20
274.8189334876962
 30
0.0
 11
272.9656597197954
 21
273.9856001543628
 31
0.0
 12
275.4656597197954
 22
274.4022668210295
 32
0.0
 13
275.4656597197954
 23
274.4022668210295
 33
0.0
  0
SOLID
  5
53B
330
536
100
AcDbEntity
  8
0
 62
   123
100
AcDbTrace
 10
235.9656597197954
 20
274.8189334876962
 30
0.0
 11
235.9656597197954
 21
273.9856001543628
 31
0.0
 12
233.4656597197954
 22
274.4022668210295
 32
0.0
 13
233.4656597197954
 23
274.4022668210295
 33
0.0
  0
MTEXT
  5
53C
330
536
100
AcDbEntity
  8
0
 62
     3
100
AcDbMText
 10
254.4656597197954
 20
276.9022668210295
 30
0.0
 40
3.0
 41
0.0
 71
     5
 72
     1
  1
\A1;L
1001
ACAD
1000
MTEXTBEGIN
1070
    73
1070
     1
1070
    44
1040
1.0
1070
    74
1070
     0
1000
MTEXTEND
  0
POINT
  5
53D
330
536
100
AcDbEntity
  8
DEFPOINTS
 62
     0
100
AcDbPoint
 10
275.4656597197954
 20
290.9078200326475
 30
0.0
  0
POINT
  5
53E
330
536
100
AcDbEntity
  8
DEFPOINTS
 62
     0
100
AcDbPoint
 10
233.4656597197954
 20
290.9078200326475
 30
0.0
  0
POINT
  5
53F
330
536
100
AcDbEntity
  8
DEFPOINTS
 62
     0
100
AcDbPoint
 10
233.4656597197954
 20
274.4022668210295
 30
0.0
  0
ENDBLK
  5
541
330
536
100
AcDbEntity
  8
0
100
AcDbBlockEnd
  0
BLOCK
  5
54C
330
542
100
AcDbEntity
  8
0
100
AcDbBlockBegin
  2
*D64
 70
     1
 10
0.0
 20
0.0
 30
0.0
  3
*D64
  1

  0
LINE
  5
543
330
542
100
AcDbEntity
  8
0
 62
   123
100
AcDbLine
 10
196.5675209185628
 20
353.4078200326475
 30
0.0
 11
174.7524195221853
 21
353.4078200326475
 31
0.0
  0
LINE
  5
544
330
542
100
AcDbEntity
  8
0
 62
   123
100
AcDbLine
 10
188.8579865856936
 20
335.4078200326475
 30
0.0
 11
174.7524195221853
 21
335.4078200326475
 31
0.0
  0
LINE
  5
545
330
542
100
AcDbEntity
  8
0
 62
   123
100
AcDbLine
 10
175.3524195221852
 20
350.9078200326475
 30
0.0
 11
175.3524195221852
 21
337.9078200326475
 31
0.0
  0
SOLID
  5
546
330
542
100
AcDbEntity
  8
0
 62
   123
100
AcDbTrace
 10
174.9357528555186
 20
350.9078200326475
 30
0.0
 11
175.7690861888519
 21
350.9078200326475
 31
0.0
 12
175.3524195221852
 22
353.4078200326475
 32
0.0
 13
175.3524195221852
 23
353.4078200326475
 33
0.0
  0
SOLID
  5
547
330
542
100
AcDbEntity
  8
0
 62
   123
100
AcDbTrace
 10
174.9357528555186
 20
337.9078200326475
 30
0.0
 11
175.7690861888519
 21
337.9078200326475
 31
0.0
 12
175.3524195221852
 22
335.4078200326475
 32
0.0
 13
175.3524195221852
 23
335.4078200326475
 33
0.0
  0
MTEXT
  5
548
330
542
100
AcDbEntity
  8
0
 62
     3
100
AcDbMText
 10
172.8524195221852
 20
344.4078200326476
 30
0.0
 40
3.0
 41
0.0
 71
     5
 72
     1
  1
\A1;18
 11
0.0000000000000001
 21
1.0
 31
0.0
1001
ACAD
1000
MTEXTBEGIN
1070
    73
1070
     1
1070
    44
1040
1.0
1070
    74
1070
     0
1000
MTEXTEND
  0
POINT
  5
549
330
542
100
AcDbEntity
  8
DEFPOINTS
 62
     0
100
AcDbPoint
 10
197.5675209185628
 20
353.4078200326475
 30
0.0
  0
POINT
  5
54A
330
542
100
AcDbEntity
  8
DEFPOINTS
 62
     0
100
AcDbPoint
 10
189.8579865856936
 20
335.4078200326475
 30
0.0
  0
POINT
  5
54B
330
542
100
AcDbEntity
  8
DEFPOINTS
 62
     0
100
AcDbPoint
 10
175.3524195221852
 20
335.4078200326475
 30
0.0
  0
ENDBLK
  5
54D
330
542
100
AcDbEntity
  8
0
100
AcDbBlockEnd
  0
BLOCK
  5
55A
330
54E
100
AcDbEntity
  8
0
100
AcDbBlockBegin
  2
*D65
 70
     1
 10
0.0
 20
0.0
 30
0.0
  3
*D65
  1

  0
LINE
  5
54F
330
54E
100
AcDbEntity
  8
0
 62
   123
100
AcDbLine
 10
233.4656597197954
 20
380.9078200326475
 30
0.0
 11
233.4656597197954
 21
388.5271334564269
 31
0.0
  0
LINE
  5
550
330
54E
100
AcDbEntity
  8
0
 62
   123
100
AcDbLine
 10
230.4656597197954
 20
371.5542666420537
 30
0.0
 11
230.4656597197954
 21
388.5271334564269
 31
0.0
  0
LINE
  5
551
330
54E
100
AcDbEntity
  8
0
 62
   123
100
AcDbLine
 10
235.9656597197954
 20
387.9271334564268
 30
0.0
 11
238.4656597197954
 21
387.9271334564268
 31
0.0
  0
LINE
  5
552
330
54E
100
AcDbEntity
  8
0
 62
   123
100
AcDbLine
 10
227.9656597197954
 20
387.9271334564268
 30
0.0
 11
225.4656597197954
 21
387.9271334564268
 31
0.0
  0
LINE
  5
553
330
54E
100
AcDbEntity
  8
0
 62
   123
100
AcDbLine
 10
233.4656597197954
 20
387.9271334564268
 30
0.0
 11
230.4656597197954
 21
387.9271334564268
 31
0.0
  0
SOLID
  5
554
330
54E
100
AcDbEntity
  8
0
 62
   123
100
AcDbTrace
 10
235.9656597197954
 20
388.3438001230935
 30
0.0
 11
235.9656597197954
 21
387.5104667897602
 31
0.0
 12
233.4656597197954
 22
387.9271334564268
 32
0.0
 13
233.4656597197954
 23
387.9271334564268
 33
0.0
  0
SOLID
  5
555
330
54E
100
AcDbEntity
  8
0
 62
   123
100
AcDbTrace
 10
227.9656597197954
 20
388.3438001230935
 30
0.0
 11
227.9656597197954
 21
387.5104667897602
 31
0.0
 12
230.4656597197954
 22
387.9271334564268
 32
0.0
 13
230.4656597197954
 23
387.9271334564268
 33
0.0
  0
MTEXT
  5
556
330
54E
100
AcDbEntity
  8
0
 62
     3
100
AcDbMText
 10
231.9656597197954
 20
390.4271334564268
 30
0.0
 40
3.0
 41
0.0
 71
     5
 72
     1
  1
\A1;3
1001
ACAD
1000
MTEXTBEGIN
1070
    73
1070
     1
1070
    44
1040
1.0
1070
    74
1070
     0
1000
MTEXTEND
  0
POINT
  5
557
330
54E
100
AcDbEntity
  8
DEFPOINTS
 62
     0
100
AcDbPoint
 10
233.4656597197954
 20
379.9078200326476
 30
0.0
  0
POINT
  5
558
330
54E
100
AcDbEntity
  8
DEFPOINTS
 62
     0
100
AcDbPoint
 10
230.4656597197954
 20
370.5542666420537
 30
0.0
  0
POINT
  5
559
330
54E
100
AcDbEntity
  8
DEFPOINTS
 62
     0
100
AcDbPoint
 10
230.4656597197954
 20
387.9271334564268
 30
0.0
  0
ENDBLK
  5
55B
330
54E
100
AcDbEntity
  8
0
100
AcDbBlockEnd
  0
BLOCK
  5
568
330
55C
100
AcDbEntity
  8
0
100
AcDbBlockBegin
  2
*D66
 70
     1
 10
0.0
 20
0.0
 30
0.0
  3
*D66
  1

  0
LINE
  5
55D
330
55C
100
AcDbEntity
  8
0
 62
   123
100
AcDbLine
 10
200.4656597197954
 20
347.4078200326475
 30
0.0
 11
186.2972988891237
 21
347.4078200326475
 31
0.0
  0
LINE
  5
55E
330
55C
100
AcDbEntity
  8
0
 62
   123
100
AcDbLine
 10
200.4656597197954
 20
359.4078200326475
 30
0.0
 11
186.2972988891237
 21
359.4078200326475
 31
0.0
  0
LINE
  5
55F
330
55C
100
AcDbEntity
  8
0
 62
   123
100
AcDbLine
 10
186.8972988891237
 20
344.9078200326475
 30
0.0
 11
186.8972988891237
 21
342.4078200326476
 31
0.0
  0
LINE
  5
560
330
55C
100
AcDbEntity
  8
0
 62
   123
100
AcDbLine
 10
186.8972988891237
 20
361.9078200326475
 30
0.0
 11
186.8972988891237
 21
402.4164753699119
 31
0.0
  0
LINE
  5
561
330
55C
100
AcDbEntity
  8
0
 62
   123
100
AcDbLine
 10
186.8972988891237
 20
347.4078200326475
 30
0.0
 11
186.8972988891237
 21
359.4078200326475
 31
0.0
  0
SOLID
  5
562
330
55C
100
AcDbEntity
  8
0
 62
   123
100
AcDbTrace
 10
186.4806322224571
 20
344.9078200326475
 30
0.0
 11
187.3139655557904
 21
344.9078200326475
 31
0.0
 12
186.8972988891237
 22
347.4078200326475
 32
0.0
 13
186.8972988891237
 23
347.4078200326475
 33
0.0
  0
SOLID
  5
563
330
55C
100
AcDbEntity
  8
0
 62
   123
100
AcDbTrace
 10
186.4806322224571
 20
361.9078200326475
 30
0.0
 11
187.3139655557904
 21
361.9078200326475
 31
0.0
 12
186.8972988891237
 22
359.4078200326475
 32
0.0
 13
186.8972988891237
 23
359.4078200326475
 33
0.0
  0
MTEXT
  5
564
330
55C
100
AcDbEntity
  8
0
 62
     3
100
AcDbMText
 10
182.9471488891236
 20
387.6009039413407
 30
0.0
 40
3.0
 41
0.0
 71
     5
 72
     1
  1
\A1;\A1;{\f??|b0|i0|c0|p49;%%C12\H0.7x;\S+0^ -0.018;\H1.429x;(h7)}
 11
0.0000000000000001
 21
1.0
 31
0.0
1001
ACAD
1000
MTEXTBEGIN
1070
    73
1070
     1
1070
    44
1040
1.0
1070
    74
1070
     0
1000
MTEXTEND
  0
POINT
  5
565
330
55C
100
AcDbEntity
  8
DEFPOINTS
 62
     0
100
AcDbPoint
 10
201.4656597197954
 20
347.4078200326475
 30
0.0
  0
POINT
  5
566
330
55C
100
AcDbEntity
  8
DEFPOINTS
 62
     0
100
AcDbPoint
 10
201.4656597197954
 20
359.4078200326475
 30
0.0
  0
POINT
  5
567
330
55C
100
AcDbEntity
  8
DEFPOINTS
 62
     0
100
AcDbPoint
 10
186.8972988891237
 20
359.4078200326475
 30
0.0
  0
ENDBLK
  5
569
330
55C
100
AcDbEntity
  8
0
100
AcDbBlockEnd
  0
BLOCK
  5
574
330
56A
100
AcDbEntity
  8
0
100
AcDbBlockBegin
  2
*D67
 70
     1
 10
0.0
 20
0.0
 30
0.0
  3
*D67
  1

  0
LINE
  5
56B
330
56A
100
AcDbEntity
  8
0
 62
   123
100
AcDbLine
 10
226.4656597197954
 20
360.4078200326475
 30
0.0
 11
226.4656597197954
 21
376.8836398952036
 31
0.0
  0
LINE
  5
56C
330
56A
100
AcDbEntity
  8
0
 62
   123
100
AcDbLine
 10
201.4656597197954
 20
359.4078200326475
 30
0.0
 11
201.4656597197954
 21
376.8836398952036
 31
0.0
  0
LINE
  5
56D
330
56A
100
AcDbEntity
  8
0
 62
   123
100
AcDbLine
 10
223.9656597197954
 20
376.2836398952035
 30
0.0
 11
203.9656597197954
 21
376.2836398952035
 31
0.0
  0
SOLID
  5
56E
330
56A
100
AcDbEntity
  8
0
 62
   123
100
AcDbTrace
 10
223.9656597197954
 20
376.7003065618702
 30
0.0
 11
223.9656597197954
 21
375.8669732285369
 31
0.0
 12
226.4656597197954
 22
376.2836398952035
 32
0.0
 13
226.4656597197954
 23
376.2836398952035
 33
0.0
  0
SOLID
  5
56F
330
56A
100
AcDbEntity
  8
0
 62
   123
100
AcDbTrace
 10
203.9656597197954
 20
376.7003065618702
 30
0.0
 11
203.9656597197954
 21
375.8669732285369
 31
0.0
 12
201.4656597197954
 22
376.2836398952035
 32
0.0
 13
201.4656597197954
 23
376.2836398952035
 33
0.0
  0
MTEXT
  5
570
330
56A
100
AcDbEntity
  8
0
 62
     3
100
AcDbMText
 10
213.9656597197954
 20
378.7836398952035
 30
0.0
 40
3.0
 41
0.0
 71
     5
 72
     1
  1
\A1;25
1001
ACAD
1000
MTEXTBEGIN
1070
    73
1070
     1
1070
    44
1040
1.0
1070
    74
1070
     0
1000
MTEXTEND
  0
POINT
  5
571
330
56A
100
AcDbEntity
  8
DEFPOINTS
 62
     0
100
AcDbPoint
 10
226.4656597197954
 20
359.4078200326475
 30
0.0
  0
POINT
  5
572
330
56A
100
AcDbEntity
  8
DEFPOINTS
 62
     0
100
AcDbPoint
 10
201.4656597197954
 20
358.4078200326475
 30
0.0
  0
POINT
  5
573
330
56A
100
AcDbEntity
  8
DEFPOINTS
 62
     0
100
AcDbPoint
 10
201.4656597197954
 20
376.2836398952035
 30
0.0
  0
ENDBLK
  5
575
330
56A
100
AcDbEntity
  8
0
100
AcDbBlockEnd
  0
BLOCK
  5
580
330
576
100
AcDbEntity
  8
0
100
AcDbBlockBegin
  2
*D68
 70
     1
 10
0.0
 20
0.0
 30
0.0
  3
*D68
  1

  0
LINE
  5
577
330
576
100
AcDbEntity
  8
0
 62
   123
100
AcDbLine
 10
201.4656597197954
 20
344.4078200326476
 30
0.0
 11
201.4656597197954
 21
273.8022668210295
 31
0.0
  0
LINE
  5
578
330
576
100
AcDbEntity
  8
0
 62
   123
100
AcDbLine
 10
233.4656597197954
 20
289.9078200326475
 30
0.0
 11
233.4656597197954
 21
273.8022668210295
 31
0.0
  0
LINE
  5
579
330
576
100
AcDbEntity
  8
0
 62
   123
100
AcDbLine
 10
203.9656597197954
 20
274.4022668210295
 30
0.0
 11
230.9656597197954
 21
274.4022668210295
 31
0.0
  0
SOLID
  5
57A
330
576
100
AcDbEntity
  8
0
 62
   123
100
AcDbTrace
 10
203.9656597197954
 20
274.8189334876962
 30
0.0
 11
203.9656597197954
 21
273.9856001543628
 31
0.0
 12
201.4656597197954
 22
274.4022668210295
 32
0.0
 13
201.4656597197954
 23
274.4022668210295
 33
0.0
  0
SOLID
  5
57B
330
576
100
AcDbEntity
  8
0
 62
   123
100
AcDbTrace
 10
230.9656597197954
 20
274.8189334876962
 30
0.0
 11
230.9656597197954
 21
273.9856001543628
 31
0.0
 12
233.4656597197954
 22
274.4022668210295
 32
0.0
 13
233.4656597197954
 23
274.4022668210295
 33
0.0
  0
MTEXT
  5
57C
330
576
100
AcDbEntity
  8
0
 62
     3
100
AcDbMText
 10
217.4656597197954
 20
276.9022668210295
 30
0.0
 40
3.0
 41
0.0
 71
     5
 72
     1
  1
\A1;32
1001
ACAD
1000
MTEXTBEGIN
1070
    73
1070
     1
1070
    44
1040
1.0
1070
    74
1070
     0
1000
MTEXTEND
  0
POINT
  5
57D
330
576
100
AcDbEntity
  8
DEFPOINTS
 62
     0
100
AcDbPoint
 10
201.4656597197954
 20
345.4078200326475
 30
0.0
  0
POINT
  5
57E
330
576
100
AcDbEntity
  8
DEFPOINTS
 62
     0
100
AcDbPoint
 10
233.4656597197954
 20
290.9078200326475
 30
0.0
  0
POINT
  5
57F
330
576
100
AcDbEntity
  8
DEFPOINTS
 62
     0
100
AcDbPoint
 10
233.4656597197954
 20
274.4022668210295
 30
0.0
  0
ENDBLK
  5
581
330
576
100
AcDbEntity
  8
0
100
AcDbBlockEnd
  0
BLOCK
  5
58C
330
582
100
AcDbEntity
  8
0
100
AcDbBlockBegin
  2
*D69
 70
     1
 10
0.0
 20
0.0
 30
0.0
  3
*D69
  1

  0
LINE
  5
583
330
582
100
AcDbEntity
  8
0
 62
   123
100
AcDbLine
 10
229.9656597197954
 20
371.4078200326476
 30
0.0
 11
161.8468524586719
 21
371.4078200326476
 31
0.0
  0
LINE
  5
584
330
582
100
AcDbEntity
  8
0
 62
   123
100
AcDbLine
 10
188.8579865856936
 20
335.4078200326475
 30
0.0
 11
161.8468524586719
 21
335.4078200326475
 31
0.0
  0
LINE
  5
585
330
582
100
AcDbEntity
  8
0
 62
   123
100
AcDbLine
 10
162.4468524586719
 20
368.9078200326475
 30
0.0
 11
162.4468524586719
 21
337.9078200326475
 31
0.0
  0
SOLID
  5
586
330
582
100
AcDbEntity
  8
0
 62
   123
100
AcDbTrace
 10
162.0301857920052
 20
368.9078200326475
 30
0.0
 11
162.8635191253385
 21
368.9078200326475
 31
0.0
 12
162.4468524586719
 22
371.4078200326476
 32
0.0
 13
162.4468524586719
 23
371.4078200326476
 33
0.0
  0
SOLID
  5
587
330
582
100
AcDbEntity
  8
0
 62
   123
100
AcDbTrace
 10
162.0301857920052
 20
337.9078200326475
 30
0.0
 11
162.8635191253385
 21
337.9078200326475
 31
0.0
 12
162.4468524586719
 22
335.4078200326475
 32
0.0
 13
162.4468524586719
 23
335.4078200326475
 33
0.0
  0
MTEXT
  5
588
330
582
100
AcDbEntity
  8
0
 62
     3
100
AcDbMText
 10
159.9468524586718
 20
353.1578200326475
 30
0.0
 40
3.0
 41
0.0
 71
     5
 72
     1
  1
\A1;{\f??|b0|i0|c0|p49;%%C}36
 11
0.0000000000000001
 21
1.0
 31
0.0
1001
ACAD
1000
MTEXTBEGIN
1070
    73
1070
     1
1070
    44
1040
1.0
1070
    74
1070
     0
1000
MTEXTEND
  0
POINT
  5
589
330
582
100
AcDbEntity
  8
DEFPOINTS
 62
     0
100
AcDbPoint
 10
230.9656597197954
 20
371.4078200326476
 30
0.0
  0
POINT
  5
58A
330
582
100
AcDbEntity
  8
DEFPOINTS
 62
     0
100
AcDbPoint
 10
189.8579865856936
 20
335.4078200326475
 30
0.0
  0
POINT
  5
58B
330
582
100
AcDbEntity
  8
DEFPOINTS
 62
     0
100
AcDbPoint
 10
162.4468524586719
 20
335.4078200326475
 30
0.0
  0
ENDBLK
  5
58D
330
582
100
AcDbEntity
  8
0
100
AcDbBlockEnd
  0
BLOCK
  5
598
330
58E
100
AcDbEntity
  8
0
100
AcDbBlockBegin
  2
*D70
 70
     1
 10
0.0
 20
0.0
 30
0.0
  3
*D70
  1

  0
LINE
  5
58F
330
58E
100
AcDbEntity
  8
0
 62
   123
100
AcDbLine
 10
56.96232286083613
 20
517.3357543155707
 30
0.0
 11
56.96232286083613
 21
535.3041918748259
 31
0.0
  0
LINE
  5
590
330
58E
100
AcDbEntity
  8
0
 62
   123
100
AcDbLine
 10
146.9623228608361
 20
517.3357543155707
 30
0.0
 11
146.9623228608361
 21
535.3041918748259
 31
0.0
  0
LINE
  5
591
330
58E
100
AcDbEntity
  8
0
 62
   123
100
AcDbLine
 10
59.46232286083613
 20
534.7041918748259
 30
0.0
 11
144.4623228608361
 21
534.7041918748259
 31
0.0
  0
SOLID
  5
592
330
58E
100
AcDbEntity
  8
0
 62
   123
100
AcDbTrace
 10
59.46232286083613
 20
535.1208585414926
 30
0.0
 11
59.46232286083613
 21
534.2875252081593
 31
0.0
 12
56.96232286083613
 22
534.7041918748259
 32
0.0
 13
56.96232286083613
 23
534.7041918748259
 33
0.0
  0
SOLID
  5
593
330
58E
100
AcDbEntity
  8
0
 62
   123
100
AcDbTrace
 10
144.4623228608361
 20
535.1208585414926
 30
0.0
 11
144.4623228608361
 21
534.2875252081593
 31
0.0
 12
146.9623228608361
 22
534.7041918748259
 32
0.0
 13
146.9623228608361
 23
534.7041918748259
 33
0.0
  0
MTEXT
  5
594
330
58E
100
AcDbEntity
  8
0
 62
     3
100
AcDbMText
 10
101.9623228608361
 20
537.2041918748259
 30
0.0
 40
3.0
 41
0.0
 71
     5
 72
     1
  1
\A1;90
1001
ACAD
1000
MTEXTBEGIN
1070
    73
1070
     1
1070
    44
1040
1.0
1070
    74
1070
     0
1000
MTEXTEND
  0
POINT
  5
595
330
58E
100
AcDbEntity
  8
DEFPOINTS
 62
     0
100
AcDbPoint
 10
56.96232286083613
 20
516.3357543155707
 30
0.0
  0
POINT
  5
596
330
58E
100
AcDbEntity
  8
DEFPOINTS
 62
     0
100
AcDbPoint
 10
146.9623228608361
 20
516.3357543155707
 30
0.0
  0
POINT
  5
597
330
58E
100
AcDbEntity
  8
DEFPOINTS
 62
     0
100
AcDbPoint
 10
146.9623228608361
 20
534.7041918748259
 30
0.0
  0
ENDBLK
  5
599
330
58E
100
AcDbEntity
  8
0
100
AcDbBlockEnd
  0
BLOCK
  5
5A4
330
59A
100
AcDbEntity
  8
0
100
AcDbBlockBegin
  2
*D71
 70
     1
 10
0.0
 20
0.0
 30
0.0
  3
*D71
  1

  0
LINE
  5
59B
330
59A
100
AcDbEntity
  8
0
 62
   123
100
AcDbLine
 10
221.5108275320217
 20
522.3785480743677
 30
0.0
 11
221.5108275320217
 21
544.0298288611922
 31
0.0
  0
LINE
  5
59C
330
59A
100
AcDbEntity
  8
0
 62
   123
100
AcDbLine
 10
258.5108275320217
 20
522.3785480743677
 30
0.0
 11
258.5108275320217
 21
544.0298288611922
 31
0.0
  0
LINE
  5
59D
330
59A
100
AcDbEntity
  8
0
 62
   123
100
AcDbLine
 10
224.0108275320217
 20
543.4298288611921
 30
0.0
 11
256.0108275320217
 21
543.4298288611921
 31
0.0
  0
SOLID
  5
59E
330
59A
100
AcDbEntity
  8
0
 62
   123
100
AcDbTrace
 10
224.0108275320217
 20
543.8464955278588
 30
0.0
 11
224.0108275320217
 21
543.0131621945255
 31
0.0
 12
221.5108275320217
 22
543.4298288611921
 32
0.0
 13
221.5108275320217
 23
543.4298288611921
 33
0.0
  0
SOLID
  5
59F
330
59A
100
AcDbEntity
  8
0
 62
   123
100
AcDbTrace
 10
256.0108275320217
 20
543.8464955278588
 30
0.0
 11
256.0108275320217
 21
543.0131621945255
 31
0.0
 12
258.5108275320217
 22
543.4298288611921
 32
0.0
 13
258.5108275320217
 23
543.4298288611921
 33
0.0
  0
MTEXT
  5
5A0
330
59A
100
AcDbEntity
  8
0
 62
     3
100
AcDbMText
 10
240.0108275320144
 20
545.9298288611921
 30
0.0
 40
3.0
 41
0.0
 71
     5
 72
     1
  1
\A1;37
1001
ACAD
1000
MTEXTBEGIN
1070
    73
1070
     1
1070
    44
1040
1.0
1070
    74
1070
     0
1000
MTEXTEND
  0
POINT
  5
5A1
330
59A
100
AcDbEntity
  8
DEFPOINTS
 62
     0
100
AcDbPoint
 10
221.5108275320217
 20
521.3785480743677
 30
0.0
  0
POINT
  5
5A2
330
59A
100
AcDbEntity
  8
DEFPOINTS
 62
     0
100
AcDbPoint
 10
258.5108275320217
 20
521.3785480743677
 30
0.0
  0
POINT
  5
5A3
330
59A
100
AcDbEntity
  8
DEFPOINTS
 62
     0
100
AcDbPoint
 10
258.5108275320217
 20
543.4298288611921
 30
0.0
  0
ENDBLK
  5
5A5
330
59A
100
AcDbEntity
  8
0
100
AcDbBlockEnd
  0
BLOCK
  5
5B2
330
5A6
100
AcDbEntity
  8
0
100
AcDbBlockBegin
  2
*D72
 70
     1
 10
0.0
 20
0.0
 30
0.0
  3
*D72
  1

  0
LINE
  5
5A7
330
5A6
100
AcDbEntity
  8
0
 62
   123
100
AcDbLine
 10
219.5108275320144
 20
518.878548074369
 30
0.0
 11
219.5108275320144
 21
533.8041884677801
 31
0.0
  0
LINE
  5
5A8
330
5A6
100
AcDbEntity
  8
0
 62
   123
100
AcDbLine
 10
221.5108275320217
 20
522.378548074369
 30
0.0
 11
221.5108275320217
 21
533.8041884677801
 31
0.0
  0
LINE
  5
5A9
330
5A6
100
AcDbEntity
  8
0
 62
   123
100
AcDbLine
 10
217.0108275320144
 20
533.2041884677801
 30
0.0
 11
214.5108275320144
 21
533.2041884677801
 31
0.0
  0
LINE
  5
5AA
330
5A6
100
AcDbEntity
  8
0
 62
   123
100
AcDbLine
 10
224.0108275320217
 20
533.2041884677801
 30
0.0
 11
232.5108275320217
 21
533.2041884677801
 31
0.0
  0
LINE
  5
5AB
330
5A6
100
AcDbEntity
  8
0
 62
   123
100
AcDbLine
 10
219.5108275320144
 20
533.2041884677801
 30
0.0
 11
221.5108275320217
 21
533.2041884677801
 31
0.0
  0
SOLID
  5
5AC
330
5A6
100
AcDbEntity
  8
0
 62
   123
100
AcDbTrace
 10
217.0108275320144
 20
533.6208551344467
 30
0.0
 11
217.0108275320144
 21
532.7875218011135
 31
0.0
 12
219.5108275320144
 22
533.2041884677801
 32
0.0
 13
219.5108275320144
 23
533.2041884677801
 33
0.0
  0
SOLID
  5
5AD
330
5A6
100
AcDbEntity
  8
0
 62
   123
100
AcDbTrace
 10
224.0108275320217
 20
533.6208551344467
 30
0.0
 11
224.0108275320217
 21
532.7875218011135
 31
0.0
 12
221.5108275320217
 22
533.2041884677801
 32
0.0
 13
221.5108275320217
 23
533.2041884677801
 33
0.0
  0
MTEXT
  5
5AE
330
5A6
100
AcDbEntity
  8
0
 62
     3
100
AcDbMText
 10
230.5108275320217
 20
535.70418846778
 30
0.0
 40
3.0
 41
0.0
 71
     5
 72
     1
  1
\A1;2
1001
ACAD
1000
MTEXTBEGIN
1070
    73
1070
     1
1070
    44
1040
1.0
1070
    74
1070
     0
1000
MTEXTEND
  0
POINT
  5
5AF
330
5A6
100
AcDbEntity
  8
DEFPOINTS
 62
     0
100
AcDbPoint
 10
219.5108275320144
 20
517.878548074369
 30
0.0
  0
POINT
  5
5B0
330
5A6
100
AcDbEntity
  8
DEFPOINTS
 62
     0
100
AcDbPoint
 10
221.5108275320217
 20
521.378548074369
 30
0.0
  0
POINT
  5
5B1
330
5A6
100
AcDbEntity
  8
DEFPOINTS
 62
     0
100
AcDbPoint
 10
221.5108275320217
 20
533.2041884677801
 30
0.0
  0
ENDBLK
  5
5B3
330
5A6
100
AcDbEntity
  8
0
100
AcDbBlockEnd
  0
BLOCK
  5
5BE
330
5B4
100
AcDbEntity
  8
0
100
AcDbBlockBegin
  2
*D73
 70
     1
 10
0.0
 20
0.0
 30
0.0
  3
*D73
  1

  0
LINE
  5
5B5
330
5B4
100
AcDbEntity
  8
0
 62
   123
100
AcDbLine
 10
203.5108275320144
 20
480.3785480743677
 30
0.0
 11
203.5108275320144
 21
544.0298288611922
 31
0.0
  0
LINE
  5
5B6
330
5B4
100
AcDbEntity
  8
0
 62
   123
100
AcDbLine
 10
221.5108275320217
 20
522.3785480743677
 30
0.0
 11
221.5108275320217
 21
544.0298288611922
 31
0.0
  0
LINE
  5
5B7
330
5B4
100
AcDbEntity
  8
0
 62
   123
100
AcDbLine
 10
206.0108275320144
 20
543.4298288611921
 30
0.0
 11
219.0108275320217
 21
543.4298288611921
 31
0.0
  0
SOLID
  5
5B8
330
5B4
100
AcDbEntity
  8
0
 62
   123
100
AcDbTrace
 10
206.0108275320144
 20
543.8464955278588
 30
0.0
 11
206.0108275320144
 21
543.0131621945255
 31
0.0
 12
203.5108275320144
 22
543.4298288611921
 32
0.0
 13
203.5108275320144
 23
543.4298288611921
 33
0.0
  0
SOLID
  5
5B9
330
5B4
100
AcDbEntity
  8
0
 62
   123
100
AcDbTrace
 10
219.0108275320217
 20
543.8464955278588
 30
0.0
 11
219.0108275320217
 21
543.0131621945255
 31
0.0
 12
221.5108275320217
 22
543.4298288611921
 32
0.0
 13
221.5108275320217
 23
543.4298288611921
 33
0.0
  0
MTEXT
  5
5BA
330
5B4
100
AcDbEntity
  8
0
 62
     3
100
AcDbMText
 10
212.5108275320217
 20
545.9298288611921
 30
0.0
 40
3.0
 41
0.0
 71
     5
 72
     1
  1
\A1;18
1001
ACAD
1000
MTEXTBEGIN
1070
    73
1070
     1
1070
    44
1040
1.0
1070
    74
1070
     0
1000
MTEXTEND
  0
POINT
  5
5BB
330
5B4
100
AcDbEntity
  8
DEFPOINTS
 62
     0
100
AcDbPoint
 10
203.5108275320144
 20
479.3785480743677
 30
0.0
  0
POINT
  5
5BC
330
5B4
100
AcDbEntity
  8
DEFPOINTS
 62
     0
100
AcDbPoint
 10
221.5108275320217
 20
521.3785480743677
 30
0.0
  0
POINT
  5
5BD
330
5B4
100
AcDbEntity
  8
DEFPOINTS
 62
     0
100
AcDbPoint
 10
221.5108275320217
 20
543.4298288611921
 30
0.0
  0
ENDBLK
  5
5BF
330
5B4
100
AcDbEntity
  8
0
100
AcDbBlockEnd
  0
ENDSEC
  0
SECTION
  2
ENTITIES
  0
LINE
  5
9D
102
{ACAD_REACTORS
330
3BA
102
}
330
2
100
AcDbEntity
  8
0
100
AcDbLine
 10
258.5108275320217
 20
521.3785480743677
 30
0.0
 11
258.5108275320217
 21
431.3785480743677
 31
0.0
  0
CIRCLE
  5
9E
330
2
100
AcDbEntity
  8
0
100
AcDbCircle
 10
101.9623228608361
 20
476.378548074369
 30
0.0
 40
42.00000000000005
  0
CIRCLE
  5
9F
330
2
100
AcDbEntity
  8
0
100
AcDbCircle
 10
138.7318754825446
 20
439.6089954527361
 30
0.0
 40
3.25
  0
LINE
  5
A0
330
2
100
AcDbEntity
  8
CL
  6
CENTER
100
AcDbLine
 10
142.4441860837632
 20
435.8966848515069
 30
0.0
 11
135.0195648813041
 21
443.321306053966
 31
0.0
  0
ARC
  5
A4
330
2
100
AcDbEntity
  8
CL
  6
CENTER
100
AcDbCircle
 10
101.9623228608361
 20
476.3785480744345
 30
0.0
 40
52.0
100
AcDbArc
 50
309.2128702778047
 51
320.7871297221982
  0
LINE
  5
A5
330
2
100
AcDbEntity
  8
0
100
AcDbLine
 10
56.96232286083613
 20
516.3785480744377
 30
0.0
 11
56.96232286083613
 21
436.3785480744377
 31
0.0
  0
ARC
  5
A6
330
2
100
AcDbEntity
  8
CL
  6
CENTER
100
AcDbCircle
 10
101.9623228608361
 20
476.3785480744345
 30
0.0
 40
52.0
100
AcDbArc
 50
217.5220799114929
 51
230.7871297221982
  0
CIRCLE
  5
A7
330
2
100
AcDbEntity
  8
0
100
AcDbCircle
 10
65.19277023913673
 20
439.6089954527337
 30
0.0
 40
3.25
  0
LINE
  5
A8
330
2
100
AcDbEntity
  8
CL
  6
CENTER
100
AcDbLine
 10
61.48045963790355
 20
435.8966848515069
 30
0.0
 11
68.90508084036446
 21
443.3213060539647
 31
0.0
  0
LINE
  5
A9
330
2
100
AcDbEntity
  8
0
100
AcDbLine
 10
146.9623228608361
 20
516.3785480744377
 30
0.0
 11
146.9623228608361
 21
436.3785480744377
 31
0.0
  0
LINE
  5
AA
102
{ACAD_REACTORS
330
AE
330
3A7
102
}
330
2
100
AcDbEntity
  8
0
100
AcDbLine
 10
219.5108275320144
 20
517.878548074369
 30
0.0
 11
219.5108275320144
 21
434.878548074369
 31
0.0
  0
LINE
  5
AB
102
{ACAD_REACTORS
330
3A7
102
}
330
2
100
AcDbEntity
  8
0
100
AcDbLine
 10
221.5108275320217
 20
521.3785480743677
 30
0.0
 11
221.5108275320217
 21
431.3785480743677
 31
0.0
  0
DIMENSION
  5
AC
102
{ACAD_XDICTIONARY
360
AD
102
}
102
{ACAD_REACTORS
330
AE
102
}
330
2
100
AcDbEntity
  8
0
100
AcDbDimension
  2
*D39
 10
193.9944591893727
 20
434.878548074369
 30
0.0
 11
193.9944591893727
 21
475.6371398935434
 31
0.0
 70
   160
  1
\A1;{\f??|b0|i0|c0|p49;%%c}<>{\f??|b0|i0|c0|p49;\H0.7x;\S+0^ -0.035;\H1.429x;(h7)}
  3
STANDARD
100
AcDbAlignedDimension
 13
219.5108275320144
 23
517.878548074369
 33
0.0
 14
219.5108275320144
 24
434.878548074369
 34
0.0
 50
90.0
100
AcDbRotatedDimension
  0
DIMENSION
  5
BD
102
{ACAD_XDICTIONARY
360
BE
102
}
102
{ACAD_REACTORS
330
BF
102
}
330
2
100
AcDbEntity
  8
0
100
AcDbDimension
  2
*D38
 10
61.67259300546544
 20
443.5039732759952
 30
0.0
 11
158.1843682717655
 21
522.2531628663002
 31
0.0
 70
   163
  1
<>%%P0.5
  3
STANDARD
100
AcDbDiametricDimension
 15
142.252052716227
 25
509.2531228729029
 35
0.0
 40
0.0
  0
LINE
  5
CB
330
2
100
AcDbEntity
  8
CEN
100
AcDbLine
 10
101.9623228608361
 20
424.805245940257
 30
0.0
 11
101.9623228608361
 21
527.9518502086339
 31
0.0
  0
DIMENSION
  5
CD
102
{ACAD_XDICTIONARY
360
CE
102
}
102
{ACAD_REACTORS
330
CF
102
}
330
2
100
AcDbEntity
  8
0
100
AcDbDimension
  2
*D43
 10
363.8760699058457
 20
31.64375043836889
 30
0.0
 11
363.8760699058457
 21
76.1437504383689
 31
0.0
 70
   160
  1
%%C<>
  3
STANDARD
100
AcDbAlignedDimension
 13
338.472973011203
 23
120.6437504383689
 33
0.0
 14
338.472973011203
 24
31.64375043836889
 34
0.0
 50
90.0
100
AcDbRotatedDimension
  0
LINE
  5
DC
102
{ACAD_REACTORS
330
CF
102
}
330
2
100
AcDbEntity
  8
0
100
AcDbLine
 10
338.472973011203
 20
31.64375043836889
 30
0.0
 11
338.472973011203
 21
120.6437504383689
 31
0.0
  0
LINE
  5
DD
330
2
100
AcDbEntity
  8
0
100
AcDbLine
 10
345.472973011203
 20
118.1437504383689
 30
0.0
 11
345.472973011203
 21
34.14375043836889
 31
0.0
  0
LINE
  5
DE
330
2
100
AcDbEntity
  8
0
100
AcDbLine
 10
344.472973011203
 20
119.1437504383688
 30
0.0
 11
344.472973011203
 21
33.14375043836889
 31
0.0
  0
DIMENSION
  5
DF
330
2
100
AcDbEntity
  8
0
100
AcDbDimension
  2
*D42
 10
131.6491656524631
 20
76.1437504383689
 30
0.0
 11
131.6491656524631
 21
93.8937504383689
 31
0.0
 70
   160
  1
{\f??|b0|i0|c0|p49;%%C}<>
  3
STANDARD
100
AcDbAlignedDimension
 13
195.972973011203
 23
112.1437504383689
 33
0.0
 14
154.8652998771049
 24
76.1437504383689
 34
0.0
 50
90.0
100
AcDbRotatedDimension
  0
DIMENSION
  5
EC
102
{ACAD_XDICTIONARY
360
ED
102
}
102
{ACAD_REACTORS
330
EE
102
}
330
2
100
AcDbEntity
  8
0
100
AcDbDimension
  2
*D41
 10
151.9046121805349
 20
100.1437504383689
 30
0.0
 11
151.9046121805349
 21
128.061184044167
 31
0.0
 70
   160
  1
\A1;{\f??|b0|i0|c0|p49;%%C12\H0.7x;\S+0^ -0.018;\H1.429x;(h7)}
  3
STANDARD
100
AcDbAlignedDimension
 13
166.472973011203
 23
88.14375043836889
 33
0.0
 14
166.472973011203
 24
100.1437504383688
 34
0.0
 50
90.0
100
AcDbRotatedDimension
  0
DIMENSION
  5
FD
102
{ACAD_XDICTIONARY
360
FE
102
}
102
{ACAD_REACTORS
330
FF
102
}
330
2
100
AcDbEntity
  8
0
100
AcDbDimension
  2
*D40
 10
142.3597328135947
 20
76.1437504383689
 30
0.0
 11
139.8597328135947
 21
85.1437504383689
 31
0.0
 70
    32
  3
STANDARD
100
AcDbAlignedDimension
 13
162.5748342099741
 23
94.14375043836889
 33
0.0
 14
154.8652998771049
 24
76.1437504383689
 34
0.0
 50
90.0
100
AcDbRotatedDimension
  0
CIRCLE
  5
10C
330
2
100
AcDbEntity
  8
0
 48
0.6
100
AcDbCircle
 10
48.76012226784405
 20
94.14375043836889
 30
0.0
 40
18.0
  0
CIRCLE
  5
10D
330
2
100
AcDbEntity
  8
0
 48
0.6
100
AcDbCircle
 10
48.76012226784405
 20
94.14375043836889
 30
0.0
 40
6.0
  0
CIRCLE
  5
10E
330
2
100
AcDbEntity
  8
0
 48
0.6
100
AcDbCircle
 10
48.79715843748636
 20
76.1437504383689
 30
0.0
 40
41.5
  0
LINE
  5
10F
330
2
100
AcDbEntity
  8
0
100
AcDbLine
 10
247.0729730112034
 20
123.1437494383699
 30
0.0
 11
247.0729730112034
 21
30.64375043836889
 31
0.0
  0
LINE
  5
110
102
{ACAD_REACTORS
330
130
102
}
330
2
100
AcDbEntity
  8
0
100
AcDbLine
 10
240.472973011203
 20
121.6437504383689
 30
0.0
 11
240.472973011203
 21
30.64375043836889
 31
0.0
  0
LINE
  5
111
330
2
100
AcDbEntity
  8
0
100
AcDbLine
 10
195.472973011203
 20
111.6437504383679
 30
0.0
 11
195.472973011203
 21
76.6437504383689
 31
0.0
  0
LINE
  5
112
102
{ACAD_REACTORS
330
140
102
}
330
2
100
AcDbEntity
  8
0
100
AcDbLine
 10
166.472973011203
 20
100.1437504383688
 30
0.0
 11
166.472973011203
 21
88.14375043836889
 31
0.0
  0
LINE
  5
113
330
2
100
AcDbEntity
  8
0
100
AcDbLine
 10
198.472973011203
 20
121.1437504383688
 30
0.0
 11
198.472973011203
 21
31.1437504383689
 31
0.0
  0
LINE
  5
114
330
2
100
AcDbEntity
  8
CEN
100
AcDbLine
 10
48.76012226784405
 20
26.21519158872797
 30
0.0
 11
48.76012226784405
 21
171.7342364817886
 31
0.0
  0
MTEXT
  5
115
102
{ACAD_REACTORS
330
116
102
}
330
2
100
AcDbEntity
  8
0
 62
     3
100
AcDbMText
 10
101.0416198845632
 20
19.19930272654892
 30
0.0
 40
3.0
 41
0.0
 71
     4
 72
     1
  1
4-%%C6.5 hole
1001
ACAD
1000
MTEXTBEGIN
1070
    73
1070
     1
1070
    44
1040
1.0
1070
    74
1070
     0
1000
MTEXTEND
  0
LEADER
  5
116
330
2
100
AcDbEntity
  8
0
100
AcDbLeader
  3
STANDARD
 73
     0
 74
     0
 75
     1
 40
3.0
 41
26.65178571428571
 76
     3
 10
86.51136952316482
 20
36.51011233083818
 30
0.0
 10
97.54161988456326
 20
16.69930272654892
 30
0.0
 10
100.0416198845632
 20
16.69930272654892
 30
0.0
340
115
1001
ACAD
1000
DSTYLE
1002
{
1070
     5
1000

1070
    77
1070
     1
1070
   147
1040
1.0
1070
   342
1005
0
1002
}
  0
LWPOLYLINE
  5
117
330
2
100
AcDbEntity
  8
3
100
AcDbPolyline
 90
        4
 70
     1
 43
0.0
 10
41.72744045255422
 20
16.21091914305043
 10
45.02744045255349
 20
16.21091914305043
 10
45.02744045255349
 20
19.71091914305043
 10
41.72744045255422
 20
19.71091914305043
  0
LINE
  5
119
102
{ACAD_REACTORS
330
153
102
}
330
2
100
AcDbEntity
  8
0
100
AcDbLine
 10
345.472973011203
 20
34.14375043836889
 30
0.0
 11
344.472973011203
 21
33.14375043836889
 31
0.0
  0
LINE
  5
11A
330
2
100
AcDbEntity
  8
0
100
AcDbLine
 10
344.472973011203
 20
33.14375043836889
 30
0.0
 11
338.472973011203
 21
33.14375043836889
 31
0.0
  0
DIMENSION
  5
11B
102
{ACAD_XDICTIONARY
360
11C
102
}
102
{ACAD_REACTORS
330
11D
102
}
330
2
100
AcDbEntity
  8
0
100
AcDbDimension
  2
*D48
 10
247.972973011203
 20
16.61690531046088
 30
0.0
 11
244.222973011203
 21
16.61690531046088
 31
0.0
 70
   160
  3
STANDARD
100
AcDbAlignedDimension
 13
240.472973011203
 23
31.1437504383689
 33
0.0
 14
247.972973011203
 24
32.54501309684064
 34
0.0
100
AcDbRotatedDimension
  0
LINE
  5
12A
330
2
100
AcDbEntity
  8
0
100
AcDbLine
 10
247.0729730112034
 20
40.2450130968391
 30
0.0
 11
247.972973011203
 21
40.2450130968391
 31
0.0
  0
LINE
  5
12B
102
{ACAD_REACTORS
330
11D
102
}
330
2
100
AcDbEntity
  8
0
100
AcDbLine
 10
247.0729730112034
 20
32.54501309684064
 30
0.0
 11
247.972973011203
 21
32.54501309684064
 31
0.0
  0
LINE
  5
12C
330
2
100
AcDbEntity
  8
0
100
AcDbLine
 10
247.972973011203
 20
40.2450130968391
 30
0.0
 11
247.972973011203
 21
32.54501309684064
 31
0.0
  0
LINE
  5
12D
330
2
100
AcDbEntity
  8
0
100
AcDbLine
 10
247.0729730112034
 20
30.64375043836889
 30
0.0
 11
198.972973011203
 21
30.64375043836889
 31
0.0
  0
DIMENSION
  5
12E
102
{ACAD_XDICTIONARY
360
12F
102
}
102
{ACAD_REACTORS
330
130
102
}
330
2
100
AcDbEntity
  8
0
100
AcDbDimension
  2
*D47
 10
240.472973011203
 20
16.61690531046088
 30
0.0
 11
224.5153598348042
 21
16.61690531046088
 31
0.0
 70
   160
  1
L
  3
STANDARD
100
AcDbAlignedDimension
 13
198.472973011203
 23
31.1437504383689
 33
0.0
 14
240.472973011203
 24
30.64375043836889
 34
0.0
100
AcDbRotatedDimension
  0
LINE
  5
13D
330
2
100
AcDbEntity
  8
0
100
AcDbLine
 10
195.972973011203
 20
76.1437504383689
 30
0.0
 11
198.472973011203
 21
76.1437504383689
 31
0.0
  0
DIMENSION
  5
13E
102
{ACAD_XDICTIONARY
360
13F
102
}
102
{ACAD_REACTORS
330
140
102
}
330
2
100
AcDbEntity
  8
0
100
AcDbDimension
  2
*D46
 10
198.472973011203
 20
16.61690531046088
 30
0.0
 11
183.1733331942141
 21
16.61690531046088
 31
0.0
 70
   160
  3
STANDARD
100
AcDbAlignedDimension
 13
166.472973011203
 23
88.14375043836889
 33
0.0
 14
198.472973011203
 24
31.1437504383689
 34
0.0
100
AcDbRotatedDimension
  0
LINE
  5
14D
102
{ACAD_REACTORS
330
FF
330
EE
102
}
330
2
100
AcDbEntity
  8
CEN
  6
BYBLOCK
 62
     0
100
AcDbLine
 10
195.472973011203
 20
88.14375043836889
 30
0.0
 11
166.472973011203
 21
88.14375043836889
 31
0.0
  0
ARC
  5
14E
330
2
100
AcDbEntity
  8
0
100
AcDbCircle
 10
195.972973011203
 20
76.6437504383689
 30
0.0
 40
0.5
100
AcDbArc
 50
180.0
 51
270.0
  0
ARC
  5
14F
102
{ACAD_REACTORS
330
130
330
140
102
}
330
2
100
AcDbEntity
  8
0
100
AcDbCircle
 10
198.972973011203
 20
31.1437504383689
 30
0.0
 40
0.5
100
AcDbArc
 50
180.0
 51
270.0
  0
LINE
  5
150
330
2
100
AcDbEntity
  8
CEN
100
AcDbLine
 10
353.5818727580863
 20
76.1437504383689
 30
0.0
 11
154.8652998771049
 21
76.1437504383689
 31
0.0
  0
DIMENSION
  5
151
102
{ACAD_XDICTIONARY
360
152
102
}
102
{ACAD_REACTORS
330
153
102
}
330
2
100
AcDbEntity
  8
0
100
AcDbDimension
  2
*D45
 10
345.472973011203
 20
7.461896797976805
 30
0.0
 11
292.972973011203
 21
7.461896797976805
 31
0.0
 70
   160
  3
STANDARD
100
AcDbAlignedDimension
 13
240.472973011203
 23
31.1437504383689
 33
0.0
 14
345.472973011203
 24
34.14375043836889
 34
0.0
100
AcDbRotatedDimension
  0
LINE
  5
160
330
2
100
AcDbEntity
  8
0
100
AcDbLine
 10
338.472973011203
 20
31.64375043836889
 30
0.0
 11
247.0729730112034
 21
31.64375043836889
 31
0.0
  0
DIMENSION
  5
161
102
{ACAD_XDICTIONARY
360
162
102
}
102
{ACAD_REACTORS
330
163
102
}
330
2
100
AcDbEntity
  8
0
100
AcDbDimension
  2
*D49
 10
126.3150145776744
 20
228.8784300429133
 30
0.0
 11
126.3150145776744
 21
245.0855729000559
 31
0.0
 70
   160
  1
\A1;<>{\f??|b0|i0|c0|p49;\H0.7x;\S+0.1^ -0;\H1.429x; }
  3
STANDARD
100
AcDbAlignedDimension
 13
110.8176820834942
 23
226.3784300429133
 33
0.0
 14
108.8176820834942
 24
228.8784300429133
 34
0.0
 50
90.0
100
AcDbRotatedDimension
  0
MTEXT
  5
172
330
2
100
AcDbEntity
  8
DIM
 62
     0
100
AcDbMText
 10
29.68088595647168
 20
258.4418533168009
 30
0.0
 40
4.589999999999998
 41
0.0
 71
     1
 72
     5
  1
{\f굴림|b0|i0|c129|p50;KEY\f??|b0|i0|c0|p49;                  \f굴림|b0|i0|c129|p50;KEY GROOVE }
1001
ACAD
1000
MTEXTBEGIN
1070
    73
1070
     1
1070
    44
1040
1.0
1070
    74
1070
     0
1000
MTEXTEND
  0
LINE
  5
174
330
2
100
AcDbEntity
  8
0
  6
CENTER
 62
     1
 48
0.4
100
AcDbLine
 10
63.88430234294538
 20
229.4787253299095
 30
0.0
 11
63.88430234294538
 21
221.4787253299091
 31
0.0
  0
LINE
  5
175
102
{ACAD_REACTORS
330
18F
102
}
330
2
100
AcDbEntity
  8
0
100
AcDbLine
 10
65.88430234294538
 20
227.4787253299095
 30
0.0
 11
65.88430234294538
 21
223.4787253299095
 31
0.0
  0
LINE
  5
176
102
{ACAD_REACTORS
330
18F
102
}
330
2
100
AcDbEntity
  8
0
100
AcDbLine
 10
61.88430234294537
 20
227.4787253299095
 30
0.0
 11
61.88430234294537
 21
223.4787253299095
 31
0.0
  0
LINE
  5
177
330
2
100
AcDbEntity
  8
0
  6
CENTER
 62
     1
 48
0.4
100
AcDbLine
 10
108.8176820834942
 20
233.8501946861297
 30
0.0
 11
108.8176820834942
 21
213.2214364633528
 31
0.0
  0
CIRCLE
  5
178
102
{ACAD_REACTORS
330
163
102
}
330
2
100
AcDbEntity
  8
0
100
AcDbCircle
 10
108.8176820834942
 20
223.8784300429133
 30
0.0
 40
5.0
  0
LINE
  5
179
330
2
100
AcDbEntity
  8
0
100
AcDbLine
 10
44.71364905623523
 20
227.4787253299095
 30
0.0
 11
44.71364905623523
 21
223.4787253299095
 31
0.0
  0
ARC
  5
17A
102
{ACAD_REACTORS
330
1A4
102
}
330
2
100
AcDbEntity
  8
0
100
AcDbCircle
 10
21.71364905623522
 20
225.4787253299095
 30
0.0
 40
2.0
100
AcDbArc
 50
90.0
 51
270.0
  0
DIMENSION
  5
17B
330
2
100
AcDbEntity
  8
0
100
AcDbDimension
  2
*D55
 10
52.88270421169549
 20
227.4787253299095
 30
0.0
 11
52.88270421169546
 21
242.3281871240001
 31
0.0
 70
   160
  1
\A1;<>{\f??|b0|i0|c0|p49;\H0.7x;\S+0^ -0.03;}
  3
STANDARD
100
AcDbAlignedDimension
 13
44.71364905623523
 23
223.4787253299095
 33
0.0
 14
44.71364905623523
 24
227.4787253299095
 34
0.0
 50
90.0
100
AcDbRotatedDimension
  0
LINE
  5
18A
330
2
100
AcDbEntity
  8
0
 48
0.2
100
AcDbLine
 10
61.88430234294537
 20
223.4787253299095
 30
0.0
 11
65.88430234294538
 21
223.4787253299095
 31
0.0
  0
LINE
  5
18B
330
2
100
AcDbEntity
  8
0
 48
0.2
100
AcDbLine
 10
21.71364905623522
 20
223.4787253299095
 30
0.0
 11
44.71364905623523
 21
223.4787253299095
 31
0.0
  0
LINE
  5
18C
330
2
100
AcDbEntity
  8
0
  6
CENTER
 62
     1
 48
0.4
100
AcDbLine
 10
100.2100427667246
 20
223.8784300429133
 30
0.0
 11
117.1435373128733
 21
223.8784300429133
 31
0.0
  0
DIMENSION
  5
18D
102
{ACAD_XDICTIONARY
360
18E
102
}
102
{ACAD_REACTORS
330
18F
102
}
330
2
100
AcDbEntity
  8
0
100
AcDbDimension
  2
*D54
 10
65.88430234294538
 20
236.1532009885418
 30
0.0
 11
63.88430234294538
 21
239.6032009885418
 31
0.0
 70
    32
  1
\A1;<>{\f??|b0|i0|c0|p49;\H0.7x;\S+0^ -0.03;}
  3
STANDARD
100
AcDbAlignedDimension
 13
61.88430234294537
 23
227.4787253299095
 33
0.0
 14
65.88430234294538
 24
227.4787253299095
 34
0.0
100
AcDbRotatedDimension
  0
LINE
  5
19E
330
2
100
AcDbEntity
  8
0
  6
CENTER
 62
     1
 48
0.4
100
AcDbLine
 10
59.88430234294537
 20
225.4787253299095
 30
0.0
 11
67.88430234294537
 21
225.4787253299095
 31
0.0
  0
LINE
  5
19F
330
2
100
AcDbEntity
  8
0
 48
0.2
100
AcDbLine
 10
61.88430234294537
 20
227.4787253299095
 30
0.0
 11
65.88430234294538
 21
227.4787253299095
 31
0.0
  0
LINE
  5
1A0
330
2
100
AcDbEntity
  8
0
  6
CENTER
 62
     1
 48
0.4
100
AcDbLine
 10
14.02676273952238
 20
225.4787253299095
 30
0.0
 11
49.53251636856293
 21
225.4787253299095
 31
0.0
  0
LINE
  5
1A1
102
{ACAD_REACTORS
330
1A4
102
}
330
2
100
AcDbEntity
  8
0
 48
0.2
100
AcDbLine
 10
21.71364905623522
 20
227.4787253299095
 30
0.0
 11
44.71364905623523
 21
227.4787253299095
 31
0.0
  0
DIMENSION
  5
1A2
102
{ACAD_XDICTIONARY
360
1A3
102
}
102
{ACAD_REACTORS
330
1A4
102
}
330
2
100
AcDbEntity
  8
0
100
AcDbDimension
  2
*D53
 10
44.71364905623523
 20
235.283919310385
 30
0.0
 11
32.21364905623522
 21
237.783919310385
 31
0.0
 70
    32
  1
<>{\f??|b0|i0|c0|p49;%%p0.2}
  3
STANDARD
100
AcDbAlignedDimension
 13
19.71364905623522
 23
225.4787253299095
 33
0.0
 14
44.71364905623523
 24
227.4787253299095
 34
0.0
100
AcDbRotatedDimension
  0
CIRCLE
  5
1B1
330
2
100
AcDbEntity
  8
0
100
AcDbCircle
 10
25.49003523595456
 20
255.8344530607114
 30
0.0
 40
1.5
  0
LWPOLYLINE
  5
1B2
330
2
100
AcDbEntity
  8
0
100
AcDbPolyline
 90
        2
 70
     1
 43
1.5
 10
24.74003523595456
 20
255.8344530607114
 42
1.0
 10
26.24003523595456
 20
255.8344530607114
 42
1.0
  0
LWPOLYLINE
  5
1B3
330
2
100
AcDbEntity
  8
0
100
AcDbPolyline
 90
        2
 70
     1
 43
1.5
 10
89.26466246058589
 20
256.0497689767125
 42
1.0
 10
90.7646624605859
 20
256.0497689767125
 42
1.0
  0
LINE
  5
1B4
102
{ACAD_REACTORS
330
163
102
}
330
2
100
AcDbEntity
  8
0
100
AcDbLine
 10
106.8176820834942
 20
226.3784300429133
 30
0.0
 11
110.8176820834942
 21
226.3784300429133
 31
0.0
  0
LINE
  5
1B5
102
{ACAD_REACTORS
330
1B9
102
}
330
2
100
AcDbEntity
  8
0
100
AcDbLine
 10
106.8176820834942
 20
226.3784300429133
 30
0.0
 11
106.8176820834942
 21
228.4610057378686
 31
0.0
  0
LINE
  5
1B6
102
{ACAD_REACTORS
330
1B9
102
}
330
2
100
AcDbEntity
  8
0
100
AcDbLine
 10
110.8176820834942
 20
226.3784300429133
 30
0.0
 11
110.8176820834942
 21
228.4610057378686
 31
0.0
  0
DIMENSION
  5
1B7
102
{ACAD_XDICTIONARY
360
1B8
102
}
102
{ACAD_REACTORS
330
1B9
102
}
330
2
100
AcDbEntity
  8
0
100
AcDbDimension
  2
*D52
 10
110.8176820834942
 20
237.2200182828437
 30
0.0
 11
108.8176820834942
 21
240.6700182828437
 31
0.0
 70
    32
  1
\A1;<>{\f??|b0|i0|c0|p49;\H0.7x;\S+0.40^ -0;}
  3
STANDARD
100
AcDbAlignedDimension
 13
106.8176820834942
 23
228.4610057378686
 33
0.0
 14
110.8176820834942
 24
228.4610057378686
 34
0.0
100
AcDbRotatedDimension
  0
CIRCLE
  5
1C8
330
2
100
AcDbEntity
  8
0
100
AcDbCircle
 10
90.01466246058589
 20
256.0497689767125
 30
0.0
 40
1.5
  0
ARC
  5
1C9
330
2
100
AcDbEntity
  8
0
100
AcDbCircle
 10
20.23181726784423
 20
163.643750438438
 30
0.0
 40
0.5
100
AcDbArc
 50
90.0
 51
176.6629169999623
  0
ARC
  5
1CA
330
2
100
AcDbEntity
  8
0
100
AcDbCircle
 10
77.28842826784421
 20
163.643750438438
 30
0.0
 40
0.5
100
AcDbArc
 50
3.337083000037623
 51
90.0
  0
LINE
  5
1CB
330
2
100
AcDbEntity
  8
0
100
AcDbLine
 10
20.23181726784423
 20
164.143750438438
 30
0.0
 11
77.28842826784421
 21
164.143750438438
 31
0.0
  0
LINE
  5
1CC
330
2
100
AcDbEntity
  8
0
100
AcDbLine
 10
63.76012226784405
 20
123.143750438438
 30
0.0
 11
78.33999026784477
 21
123.143750438438
 31
0.0
  0
LINE
  5
1CD
330
2
100
AcDbEntity
  8
0
100
AcDbLine
 10
63.76012226784405
 20
123.143750438438
 30
0.0
 11
63.76012226784405
 21
121.143750438438
 31
0.0
  0
ARC
  5
1CE
330
2
100
AcDbEntity
  8
0
100
AcDbCircle
 10
76.76012226784405
 20
122.143750438438
 30
0.0
 40
1.0
100
AcDbArc
 50
90.0
 51
180.0
  0
ARC
  5
1CF
330
2
100
AcDbEntity
  8
0
100
AcDbCircle
 10
78.33999026784477
 20
124.143750438438
 30
0.0
 40
1.0
100
AcDbArc
 50
270.0
 51
355.2363579999948
  0
LINE
  5
1D0
330
2
100
AcDbEntity
  8
0
100
AcDbLine
 10
75.76012226784405
 20
122.143750438438
 30
0.0
 11
75.76012226784405
 21
121.143750438438
 31
0.0
  0
LINE
  5
1D1
330
2
100
AcDbEntity
  8
0
100
AcDbLine
 10
33.76012226784405
 20
123.143750438438
 30
0.0
 11
19.18025526784367
 21
123.143750438438
 31
0.0
  0
ARC
  5
1D2
330
2
100
AcDbEntity
  8
0
100
AcDbCircle
 10
19.18025526784367
 20
124.143750438438
 30
0.0
 40
1.0
100
AcDbArc
 50
184.7636420000051
 51
270.0
  0
LINE
  5
1D3
330
2
100
AcDbEntity
  8
0
100
AcDbLine
 10
18.1837102678437
 20
124.0607054384386
 30
0.0
 11
17.76012226784405
 21
129.143750438438
 31
0.0
  0
ARC
  5
1D4
330
2
100
AcDbEntity
  8
0
100
AcDbCircle
 10
20.76012226784405
 20
122.143750438438
 30
0.0
 40
1.0
100
AcDbArc
 50
0.0
 51
90.0
  0
LINE
  5
1D5
330
2
100
AcDbEntity
  8
0
100
AcDbLine
 10
21.76012226784405
 20
122.143750438438
 30
0.0
 11
21.76012226784405
 21
121.143750438438
 31
0.0
  0
LINE
  5
1D6
330
2
100
AcDbEntity
  8
0
100
AcDbLine
 10
33.76012226784405
 20
123.143750438438
 30
0.0
 11
33.76012226784405
 21
121.143750438438
 31
0.0
  0
LINE
  5
1D7
102
{ACAD_REACTORS
330
1E4
102
}
330
2
100
AcDbEntity
  8
0
100
AcDbLine
 10
48.76012226784405
 20
129.143750438438
 30
0.0
 11
17.76012226784405
 21
129.143750438438
 31
0.0
  0
LINE
  5
1D8
330
2
100
AcDbEntity
  8
0
100
AcDbLine
 10
18.46012226784478
 20
129.8437504384378
 30
0.0
 11
18.46012226784478
 21
129.143750438438
 31
0.0
  0
LINE
  5
1D9
330
2
100
AcDbEntity
  8
0
100
AcDbLine
 10
79.76012226784405
 20
129.8437504384378
 30
0.0
 11
17.76012226784405
 21
129.8437504384378
 31
0.0
  0
LINE
  5
1DA
330
2
100
AcDbEntity
  8
0
100
AcDbLine
 10
48.76012226784405
 20
129.143750438438
 30
0.0
 11
79.76012226784405
 21
129.143750438438
 31
0.0
  0
LINE
  5
1DB
102
{ACAD_REACTORS
330
1E4
102
}
330
2
100
AcDbEntity
  8
0
100
AcDbLine
 10
79.33653526784474
 20
124.0607054384386
 30
0.0
 11
79.76012226784405
 21
129.143750438438
 31
0.0
  0
LINE
  5
1DC
330
2
100
AcDbEntity
  8
0
100
AcDbLine
 10
79.06012226784515
 20
129.8437504384378
 30
0.0
 11
79.06012226784515
 21
129.143750438438
 31
0.0
  0
LINE
  5
1DD
330
2
100
AcDbEntity
  8
CL
  6
CENTER
 48
0.6
100
AcDbLine
 10
28.48455684623513
 20
94.14375043836889
 30
0.0
 11
69.03568768945297
 21
94.14375043836889
 31
0.0
  0
LINE
  5
1DE
330
2
100
AcDbEntity
  8
0
 48
0.6
100
AcDbLine
 10
48.76012226784405
 20
94.14375043836889
 30
0.0
 11
48.62534850054544
 21
94.14375043836889
 31
0.0
  0
LINE
  5
1DF
330
2
100
AcDbEntity
  8
0
 48
0.6
100
AcDbLine
 10
46.62534850054544
 20
97.64223658335868
 30
0.0
 11
50.62534850054544
 21
97.64223658335868
 31
0.0
  0
LINE
  5
1E0
330
2
100
AcDbEntity
  8
0
 48
0.6
100
AcDbLine
 10
46.62534850054544
 20
99.75113315782483
 30
0.0
 11
46.62534850054544
 21
97.64223658335868
 31
0.0
  0
LINE
  5
1E1
330
2
100
AcDbEntity
  8
0
 48
0.6
100
AcDbLine
 10
50.62534850054544
 20
99.84646304736816
 30
0.0
 11
50.62534850054544
 21
97.64223658335868
 31
0.0
  0
DIMENSION
  5
1E2
102
{ACAD_XDICTIONARY
360
1E3
102
}
102
{ACAD_REACTORS
330
1E4
102
}
330
2
100
AcDbEntity
  8
0
100
AcDbDimension
  2
*D51
 10
79.76012226784405
 20
178.0534800338628
 30
0.0
 11
48.76012226784405
 21
178.0534800338628
 31
0.0
 70
   160
  3
STANDARD
100
AcDbAlignedDimension
 13
17.76012226784405
 23
129.143750438438
 33
0.0
 14
79.76012226784405
 24
129.143750438438
 34
0.0
100
AcDbRotatedDimension
  0
LINE
  5
1F1
330
2
100
AcDbEntity
  8
0
100
AcDbLine
 10
17.76012226784405
 20
129.8437504384378
 30
0.0
 11
19.73266526784391
 21
163.6728554384385
 31
0.0
  0
LINE
  5
1F2
330
2
100
AcDbEntity
  8
0
100
AcDbLine
 10
79.76012226784405
 20
129.8437504384378
 30
0.0
 11
77.78758026784453
 21
163.6728554384385
 31
0.0
  0
DIMENSION
  5
1F3
330
2
100
AcDbEntity
  8
0
100
AcDbDimension
  2
*D50
 10
96.07946833909412
 20
164.1437504384384
 30
0.0
 11
96.07946833909409
 21
144.2385862355231
 31
0.0
 70
   160
  3
STANDARD
100
AcDbAlignedDimension
 13
89.0073965189622
 23
121.1437504384384
 33
0.0
 14
77.28842826784421
 24
164.1437504384384
 34
0.0
 50
90.0
100
AcDbRotatedDimension
  0
LINE
  5
200
330
2
100
AcDbEntity
  8
1
  6
BYBLOCK
 62
     0
100
AcDbLine
 10
298.469678030864
 20
250.1859438803949
 30
0.0
 11
298.469678030864
 21
222.6459438803936
 31
0.0
  0
LINE
  5
202
330
2
100
AcDbEntity
  8
0
100
AcDbLine
 10
332.4696400112043
 20
156.1437494383699
 30
0.0
 11
326.4696400112043
 21
156.1437494383699
 31
0.0
  0
LINE
  5
203
330
2
100
AcDbEntity
  8
0
100
AcDbLine
 10
332.4696400112043
 20
155.1437494383699
 30
0.0
 11
326.4696400112043
 21
155.1437494383699
 31
0.0
  0
ARC
  5
204
330
2
100
AcDbEntity
  8
0
100
AcDbCircle
 10
333.3863070112038
 20
158.1437494383699
 30
0.0
 40
9.083332999999999
100
AcDbArc
 50
326.601511999943
 51
0.0
  0
LINE
  5
205
330
2
100
AcDbEntity
  8
0
100
AcDbLine
 10
341.7682480112034
 20
149.6437494383699
 30
0.0
 11
332.4696400112043
 21
149.6437494383699
 31
0.0
  0
LINE
  5
206
330
2
100
AcDbEntity
  8
0
100
AcDbLine
 10
341.3873660112039
 20
153.8437494383711
 30
0.0
 11
332.4696400112043
 21
153.8437494383711
 31
0.0
  0
LINE
  5
207
330
2
100
AcDbEntity
  8
0
100
AcDbLine
 10
340.9696400112043
 20
153.1437494383699
 30
0.0
 11
332.4696400112043
 21
153.1437494383699
 31
0.0
  0
LINE
  5
208
330
2
100
AcDbEntity
  8
0
100
AcDbLine
 10
340.9696400112043
 20
151.1437494383699
 30
0.0
 11
332.4696400112043
 21
151.1437494383699
 31
0.0
  0
LINE
  5
209
330
2
100
AcDbEntity
  8
0
100
AcDbLine
 10
340.9696400112043
 20
153.1437494383699
 30
0.0
 11
340.9696400112043
 21
151.1437494383699
 31
0.0
  0
LINE
  5
20A
330
2
100
AcDbEntity
  8
0
100
AcDbLine
 10
342.4696400112043
 20
158.1437494383699
 30
0.0
 11
332.4696400112043
 21
158.1437494383699
 31
0.0
  0
LINE
  5
20B
330
2
100
AcDbEntity
  8
0
100
AcDbLine
 10
340.9696400112043
 20
159.1437494383699
 30
0.0
 11
332.4696400112043
 21
159.1437494383699
 31
0.0
  0
LINE
  5
20C
330
2
100
AcDbEntity
  8
0
100
AcDbLine
 10
343.4696400112043
 20
158.1437494383699
 30
0.0
 11
342.4696400112043
 21
158.1437494383699
 31
0.0
  0
LINE
  5
20D
330
2
100
AcDbEntity
  8
0
100
AcDbLine
 10
340.9696400112043
 20
159.1437494383699
 30
0.0
 11
342.4696400112043
 21
158.1437494383699
 31
0.0
  0
ARC
  5
20E
330
2
100
AcDbEntity
  8
0
100
AcDbCircle
 10
320.1162620112045
 20
161.6437494383699
 30
0.0
 40
0.5
100
AcDbArc
 50
183.3370830000376
 51
270.0
  0
LINE
  5
20F
102
{ACAD_REACTORS
330
289
102
}
330
2
100
AcDbEntity
  8
0
100
AcDbLine
 10
321.4696400112043
 20
161.1437494383699
 30
0.0
 11
320.1162620112045
 21
161.1437494383699
 31
0.0
  0
LINE
  5
210
330
2
100
AcDbEntity
  8
0
100
AcDbLine
 10
326.4696400112043
 20
159.1437494383699
 30
0.0
 11
321.4696400112043
 21
159.1437494383699
 31
0.0
  0
LINE
  5
211
330
2
100
AcDbEntity
  8
0
100
AcDbLine
 10
326.4696400112043
 20
154.1437494383699
 30
0.0
 11
321.4696400112043
 21
154.1437494383699
 31
0.0
  0
LINE
  5
212
330
2
100
AcDbEntity
  8
0
100
AcDbLine
 10
326.4696400112043
 20
151.6437494383699
 30
0.0
 11
321.4696400112043
 21
151.6437494383699
 31
0.0
  0
ARC
  5
213
330
2
100
AcDbEntity
  8
0
100
AcDbCircle
 10
318.9979450112041
 20
163.6437494383699
 30
0.0
 40
0.5
100
AcDbArc
 50
3.337083000037623
 51
90.0
  0
ARC
  5
214
330
2
100
AcDbEntity
  8
0
100
AcDbCircle
 10
342.9696400112043
 20
151.4437494383692
 30
0.0
 40
6.718630999999999
100
AcDbArc
 50
14.65675100003822
 51
85.73210700004995
  0
DIMENSION
  5
215
102
{ACAD_XDICTIONARY
360
216
102
}
102
{ACAD_REACTORS
330
217
102
}
330
2
100
AcDbEntity
  8
0
100
AcDbDimension
  2
*D60
 10
349.4696400112043
 20
176.1827829225426
 30
0.0
 11
335.4696400112043
 21
176.1827829225426
 31
0.0
 70
   160
  1
MAX. <>
  3
STANDARD
100
AcDbAlignedDimension
 13
321.4696400112043
 23
161.1437494383699
 33
0.0
 14
349.4696400112043
 24
153.1437494383699
 34
0.0
100
AcDbRotatedDimension
  0
TEXT
  5
224
330
2
100
AcDbEntity
  8
1
 62
     0
100
AcDbText
 10
185.6076716905135
 20
255.6933826673639
 30
0.0
 40
4.589999999999998
  1
DIMENSION TABLE
 41
0.8
  7
GHS
100
AcDbText
  0
LINE
  5
226
330
2
100
AcDbEntity
  8
1
  6
BYBLOCK
 62
     0
100
AcDbLine
 10
184.9456811962936
 20
253.6436007956076
 30
0.0
 11
234.611119008523
 21
253.6436007956076
 31
0.0
  0
LINE
  5
227
330
2
100
AcDbEntity
  8
1
  6
BYBLOCK
 62
     0
100
AcDbLine
 10
184.9456811962936
 20
253.8686007956062
 30
0.0
 11
234.611119008523
 21
253.8686007956062
 31
0.0
  0
LINE
  5
228
330
2
100
AcDbEntity
  8
1
  6
BYBLOCK
 62
     0
100
AcDbLine
 10
184.9456811962936
 20
254.5976327566022
 30
0.0
 11
234.611119008523
 21
254.5976327566022
 31
0.0
  0
LINE
  5
229
330
2
100
AcDbEntity
  8
1
  6
BYBLOCK
 62
     0
100
AcDbLine
 10
185.7159477668355
 20
250.1859438803949
 30
0.0
 11
185.7159477668355
 21
222.6459438803936
 31
0.0
  0
TEXT
  5
22A
330
2
100
AcDbEntity
  8
1
  6
BYBLOCK
 62
     0
100
AcDbText
 10
193.2770729272051
 20
243.1747566063659
 30
0.0
 40
4.589999999999998
  1
NO.
 41
0.8
  7
GHS
100
AcDbText
  0
TEXT
  5
22B
330
2
100
AcDbEntity
  8
1
  6
BYBLOCK
 62
     0
100
AcDbText
 10
194.1552014668541
 20
233.9375332642844
 30
0.0
 40
4.589999999999998
  1
01
 41
0.8
  7
GHS
100
AcDbText
  0
TEXT
  5
22C
330
2
100
AcDbEntity
  8
1
  6
BYBLOCK
 62
     0
100
AcDbText
 10
194.1552014668541
 20
224.7575332642845
 30
0.0
 40
4.589999999999998
  1
02
 41
0.8
  7
GHS
100
AcDbText
  0
LINE
  5
22D
330
2
100
AcDbEntity
  8
1
  6
BYBLOCK
 62
     0
100
AcDbLine
 10
239.2257649503444
 20
250.1859438803949
 30
0.0
 11
239.2257649503444
 21
222.6459438803936
 31
0.0
  0
LINE
  5
22E
330
2
100
AcDbEntity
  8
1
  6
BYBLOCK
 62
     0
100
AcDbLine
 10
209.5327309647545
 20
250.1859438803949
 30
0.0
 11
209.5327309647545
 21
222.6459438803936
 31
0.0
  0
TEXT
  5
22F
330
2
100
AcDbEntity
  8
1
  6
BYBLOCK
 62
     0
100
AcDbText
 10
219.2557802160627
 20
224.8130288375373
 30
0.0
 40
4.589999999999998
  1
60
 41
0.8
  7
GHS
100
AcDbText
  0
TEXT
  5
230
330
2
100
AcDbEntity
  8
1
  6
BYBLOCK
 62
     0
100
AcDbText
 10
221.1045810217729
 20
243.0065586934215
 30
0.0
 40
4.589999999999998
  1
L
 41
0.8
  7
GHS
100
AcDbText
  0
TEXT
  5
231
330
2
100
AcDbEntity
  8
1
  6
BYBLOCK
 62
     0
100
AcDbText
 10
219.2557802160627
 20
233.9930288375358
 30
0.0
 40
4.589999999999998
  1
42
 41
0.8
  7
GHS
100
AcDbText
  0
ARC
  5
232
330
2
100
AcDbEntity
  8
0
100
AcDbCircle
 10
249.0597360112042
 20
163.6437494383699
 30
0.0
 40
0.5
100
AcDbArc
 50
90.0
 51
176.4687330000435
  0
LINE
  5
233
330
2
100
AcDbEntity
  8
1
  6
BYBLOCK
 62
     0
100
AcDbLine
 10
298.469678030864
 20
222.6459438803936
 30
0.0
 11
185.7159477668355
 21
222.6459438803936
 31
0.0
  0
LINE
  5
234
330
2
100
AcDbEntity
  8
1
  6
BYBLOCK
 62
     0
100
AcDbLine
 10
298.469678030864
 20
231.8259438803934
 30
0.0
 11
185.7159477668355
 21
231.8259438803934
 31
0.0
  0
LINE
  5
235
330
2
100
AcDbEntity
  8
1
  6
BYBLOCK
 62
     0
100
AcDbLine
 10
298.469678030864
 20
241.0059438803946
 30
0.0
 11
185.7159477668355
 21
241.0059438803946
 31
0.0
  0
LINE
  5
236
330
2
100
AcDbEntity
  8
1
  6
BYBLOCK
 62
     0
100
AcDbLine
 10
298.469678030864
 20
250.1859438803949
 30
0.0
 11
185.7159477668355
 21
250.1859438803949
 31
0.0
  0
TEXT
  5
237
330
2
100
AcDbEntity
  8
1
  6
BYBLOCK
 62
     0
100
AcDbText
 10
245.856484183585
 20
225.2611803574004
 30
0.0
 40
4.589999999999998
  1
K9G25~180B(C)
 41
0.8
  7
GHS
100
AcDbText
  0
TEXT
  5
238
330
2
100
AcDbEntity
  8
1
  6
BYBLOCK
 62
     0
100
AcDbText
 10
245.9639943608126
 20
234.0043224954538
 30
0.0
 40
4.589999999999998
  1
K9G3~18B(C)
 41
0.8
  7
GHS
100
AcDbText
  0
TEXT
  5
239
330
2
100
AcDbEntity
  8
1
  6
BYBLOCK
 62
     0
100
AcDbText
 10
241.8507114732455
 20
242.7982170388586
 30
0.0
 40
4.589999999999998
  1
APPLICATION MODEL
 41
0.8
  7
GHS
100
AcDbText
  0
LINE
  5
23A
330
2
100
AcDbEntity
  8
0
100
AcDbLine
 10
318.9979450112041
 20
164.1437494383699
 30
0.0
 11
249.0597360112042
 21
164.1437494383699
 31
0.0
  0
LINE
  5
23B
330
2
100
AcDbEntity
  8
CEN
 48
0.6
100
AcDbLine
 10
355.2534340112033
 20
146.1437494383708
 30
0.0
 11
244.0443310581231
 21
146.1437494383708
 31
0.0
  0
LINE
  5
23C
330
2
100
AcDbEntity
  8
0
100
AcDbLine
 10
341.7682480112034
 20
142.6437494383699
 30
0.0
 11
332.4696400112043
 21
142.6437494383699
 31
0.0
  0
LINE
  5
23D
330
2
100
AcDbEntity
  8
0
100
AcDbLine
 10
332.4696400112043
 20
136.1437494383699
 30
0.0
 11
326.4696400112043
 21
136.1437494383699
 31
0.0
  0
LINE
  5
23E
330
2
100
AcDbEntity
  8
0
100
AcDbLine
 10
332.4696400112043
 20
137.1437494383699
 30
0.0
 11
326.4696400112043
 21
137.1437494383699
 31
0.0
  0
LINE
  5
23F
330
2
100
AcDbEntity
  8
0
100
AcDbLine
 10
340.9696400112043
 20
141.1437494383699
 30
0.0
 11
340.9696400112043
 21
139.1437494383708
 31
0.0
  0
LINE
  5
240
330
2
100
AcDbEntity
  8
0
100
AcDbLine
 10
341.3873660112039
 20
138.4437494383696
 30
0.0
 11
332.4696400112043
 21
138.4437494383696
 31
0.0
  0
LINE
  5
241
330
2
100
AcDbEntity
  8
0
100
AcDbLine
 10
340.9696400112043
 20
139.1437494383708
 30
0.0
 11
332.4696400112043
 21
139.1437494383708
 31
0.0
  0
LINE
  5
242
330
2
100
AcDbEntity
  8
0
100
AcDbLine
 10
342.4696400112043
 20
134.1437494383699
 30
0.0
 11
332.4696400112043
 21
134.1437494383699
 31
0.0
  0
LINE
  5
243
330
2
100
AcDbEntity
  8
0
100
AcDbLine
 10
340.9696400112043
 20
133.1437494383699
 30
0.0
 11
332.4696400112043
 21
133.1437494383699
 31
0.0
  0
ARC
  5
244
330
2
100
AcDbEntity
  8
0
100
AcDbCircle
 10
333.3863070112038
 20
134.1437494383699
 30
0.0
 40
9.083332999999999
100
AcDbArc
 50
0.0
 51
33.398488000057
  0
LINE
  5
245
330
2
100
AcDbEntity
  8
0
100
AcDbLine
 10
343.4696400112043
 20
134.1437494383699
 30
0.0
 11
342.4696400112043
 21
134.1437494383699
 31
0.0
  0
LINE
  5
246
330
2
100
AcDbEntity
  8
0
100
AcDbLine
 10
340.9696400112043
 20
133.1437494383699
 30
0.0
 11
342.4696400112043
 21
134.1437494383699
 31
0.0
  0
LINE
  5
247
330
2
100
AcDbEntity
  8
0
100
AcDbLine
 10
340.9696400112043
 20
141.1437494383699
 30
0.0
 11
332.4696400112043
 21
141.1437494383699
 31
0.0
  0
LINE
  5
248
330
2
100
AcDbEntity
  8
0
100
AcDbLine
 10
326.4696400112043
 20
140.6437494383708
 30
0.0
 11
321.4696400112043
 21
140.6437494383708
 31
0.0
  0
LINE
  5
249
330
2
100
AcDbEntity
  8
0
100
AcDbLine
 10
326.4696400112043
 20
138.1437494383708
 30
0.0
 11
321.4696400112043
 21
138.1437494383708
 31
0.0
  0
LINE
  5
24A
330
2
100
AcDbEntity
  8
0
100
AcDbLine
 10
326.4696400112043
 20
133.1437494383699
 30
0.0
 11
321.4696400112043
 21
133.1437494383699
 31
0.0
  0
ARC
  5
24B
330
2
100
AcDbEntity
  8
0
100
AcDbCircle
 10
342.9696400112043
 20
140.8437494383697
 30
0.0
 40
6.718630999999999
100
AcDbArc
 50
274.2678929999499
 51
345.3432489999617
  0
LINE
  5
24C
330
2
100
AcDbEntity
  8
0
100
AcDbLine
 10
321.4696400112043
 20
129.1437494383699
 30
0.0
 11
320.6089070112048
 21
123.979350438371
 31
0.0
  0
ARC
  5
24D
330
2
100
AcDbEntity
  8
0
100
AcDbCircle
 10
319.6225130112034
 20
124.1437494383699
 30
0.0
 40
1.0
100
AcDbArc
 50
270.0
 51
350.5376779999607
  0
ARC
  5
24E
330
2
100
AcDbEntity
  8
0
100
AcDbCircle
 10
305.0896400112033
 20
121.6437494383699
 30
0.0
 40
1.5
100
AcDbArc
 50
90.0
 51
180.0
  0
LINE
  5
24F
330
2
100
AcDbEntity
  8
0
100
AcDbLine
 10
303.5896400112032
 20
121.6437494383699
 30
0.0
 11
303.5896400112032
 21
111.308467779897
 31
0.0
  0
LINE
  5
250
330
2
100
AcDbEntity
  8
0
100
AcDbLine
 10
345.472973011203
 20
118.1437504383689
 30
0.0
 11
344.472973011203
 21
119.1437504383688
 31
0.0
  0
LINE
  5
251
330
2
100
AcDbEntity
  8
0
100
AcDbLine
 10
344.472973011203
 20
119.1437504383688
 30
0.0
 11
338.472973011203
 21
119.1437504383688
 31
0.0
  0
LINE
  5
252
330
2
100
AcDbEntity
  8
0
100
AcDbLine
 10
320.7696400112035
 20
129.8437494383711
 30
0.0
 11
320.7696400112035
 21
129.1437494383699
 31
0.0
  0
LINE
  5
253
102
{ACAD_REACTORS
330
FF
102
}
330
2
100
AcDbEntity
  8
CEN
 48
0.6
100
AcDbLine
 10
209.1183750162363
 20
94.14375043836889
 30
0.0
 11
162.5748342099741
 21
94.14375043836889
 31
0.0
  0
LINE
  5
254
330
2
100
AcDbEntity
  8
0
100
AcDbLine
 10
246.5896400112033
 20
129.1437494383699
 30
0.0
 11
247.5896400112032
 21
123.1437494383699
 31
0.0
  0
LINE
  5
255
330
2
100
AcDbEntity
  8
0
100
AcDbLine
 10
247.972973011203
 20
112.0424877798982
 30
0.0
 11
247.972973011203
 21
119.7424877798966
 31
0.0
  0
LINE
  5
256
330
2
100
AcDbEntity
  8
0
100
AcDbLine
 10
247.0729730112034
 20
112.0424877798982
 30
0.0
 11
247.972973011203
 21
112.0424877798982
 31
0.0
  0
LINE
  5
257
330
2
100
AcDbEntity
  8
0
100
AcDbLine
 10
247.289640011204
 20
129.8437494383711
 30
0.0
 11
247.289640011204
 21
129.1437494383699
 31
0.0
  0
LINE
  5
258
330
2
100
AcDbEntity
  8
0
100
AcDbLine
 10
247.972973011203
 20
119.7424877798966
 30
0.0
 11
247.0729730112034
 21
119.7424877798985
 31
0.0
  0
LINE
  5
259
330
2
100
AcDbEntity
  8
0
100
AcDbLine
 10
247.0729730112034
 20
121.6437504383689
 30
0.0
 11
198.972973011203
 21
121.6437504383689
 31
0.0
  0
LINE
  5
25A
330
2
100
AcDbEntity
  8
0
100
AcDbLine
 10
195.972973011203
 20
112.1437504383689
 30
0.0
 11
198.472973011203
 21
112.1437504383689
 31
0.0
  0
DIMENSION
  5
25B
330
2
100
AcDbEntity
  8
0
100
AcDbDimension
  2
*D59
 10
195.472973011203
 20
135.1551354904418
 30
0.0
 11
196.972973011203
 21
135.1551354904418
 31
0.0
 70
   160
  3
STANDARD
100
AcDbAlignedDimension
 13
198.472973011203
 23
121.1437504383688
 33
0.0
 14
195.472973011203
 24
111.2901970477746
 34
0.0
 50
180.0
100
AcDbRotatedDimension
  0
LINE
  5
26A
102
{ACAD_REACTORS
330
FF
102
}
330
2
100
AcDbEntity
  8
CEN
  6
HIDDEN
 62
     2
100
AcDbLine
 10
191.472973011203
 20
97.6437504383689
 30
0.0
 11
166.472973011203
 21
97.6437504383689
 31
0.0
  0
LINE
  5
26C
102
{ACAD_REACTORS
330
FF
102
}
330
2
100
AcDbEntity
  8
CEN
  6
BYBLOCK
 62
     0
100
AcDbLine
 10
195.472973011203
 20
100.1437504383688
 30
0.0
 11
166.472973011203
 21
100.1437504383688
 31
0.0
  0
LINE
  5
26D
330
2
100
AcDbEntity
  8
0
  6
HIDDEN
 62
     2
100
AcDbLine
 10
191.472973011203
 20
100.1437504383688
 30
0.0
 11
191.472973011203
 21
97.6437504383689
 31
0.0
  0
ARC
  5
26E
330
2
100
AcDbEntity
  8
0
100
AcDbCircle
 10
195.972973011203
 20
111.6437504383679
 30
0.0
 40
0.5
100
AcDbArc
 50
90.0
 51
180.0
  0
DIMENSION
  5
26F
330
2
100
AcDbEntity
  8
0
100
AcDbDimension
  2
*D58
 10
166.472973011203
 20
117.0195703009226
 30
0.0
 11
178.972973011203
 21
117.0195703009226
 31
0.0
 70
   160
  3
STANDARD
100
AcDbAlignedDimension
 13
191.472973011203
 23
100.1437504383688
 33
0.0
 14
166.472973011203
 24
99.14375043836798
 34
0.0
 50
180.0
100
AcDbRotatedDimension
  0
ARC
  5
27C
330
2
100
AcDbEntity
  8
0
100
AcDbCircle
 10
198.972973011203
 20
121.1437504383688
 30
0.0
 40
0.5
100
AcDbArc
 50
90.0
 51
180.0
  0
LINE
  5
27D
330
2
100
AcDbEntity
  8
0
100
AcDbLine
 10
303.5896400112032
 20
111.3084677798979
 30
0.0
 11
247.0729730112034
 21
111.308467779897
 31
0.0
  0
LINE
  5
27E
330
2
100
AcDbEntity
  8
0
100
AcDbLine
 10
319.6225130112034
 20
123.1437494383699
 30
0.0
 11
247.0729730112034
 21
123.1437494383699
 31
0.0
  0
LINE
  5
27F
330
2
100
AcDbEntity
  8
0
100
AcDbLine
 10
338.472973011203
 20
120.6437504383689
 30
0.0
 11
247.0729730112034
 21
120.6437504383689
 31
0.0
  0
LINE
  5
280
330
2
100
AcDbEntity
  8
0
100
AcDbLine
 10
321.4696400112043
 20
129.1437494383699
 30
0.0
 11
246.5896400112033
 21
129.1437494383699
 31
0.0
  0
LINE
  5
281
102
{ACAD_REACTORS
330
298
330
289
102
}
330
2
100
AcDbEntity
  8
0
100
AcDbLine
 10
321.4696400112043
 20
129.8437494383711
 30
0.0
 11
246.472973011203
 21
129.8437494383711
 31
0.0
  0
LINE
  5
282
102
{ACAD_REACTORS
330
217
102
}
330
2
100
AcDbEntity
  8
0
100
AcDbLine
 10
349.4696400112043
 20
153.1437494383699
 30
0.0
 11
349.4696400112043
 21
139.1437494383708
 31
0.0
  0
LINE
  5
283
330
2
100
AcDbEntity
  8
0
100
AcDbLine
 10
326.4696400112043
 20
159.1437494383699
 30
0.0
 11
326.4696400112043
 21
133.1437494383699
 31
0.0
  0
LINE
  5
284
330
2
100
AcDbEntity
  8
0
100
AcDbLine
 10
342.4696400112043
 20
158.1437494383699
 30
0.0
 11
342.4696400112043
 21
134.1437494383699
 31
0.0
  0
LINE
  5
285
330
2
100
AcDbEntity
  8
0
100
AcDbLine
 10
332.4696400112043
 20
159.1437494383699
 30
0.0
 11
332.4696400112043
 21
133.1437494383699
 31
0.0
  0
ARC
  5
286
330
2
100
AcDbEntity
  8
0
100
AcDbCircle
 10
333.3863070112038
 20
146.1437494383708
 30
0.0
 40
9.083332999999999
100
AcDbArc
 50
326.601511999943
 51
33.398488000057
  0
DIMENSION
  5
287
102
{ACAD_XDICTIONARY
360
288
102
}
102
{ACAD_REACTORS
330
289
102
}
330
2
100
AcDbEntity
  8
0
100
AcDbDimension
  2
*D57
 10
321.4696400112043
 20
176.1993539430541
 30
0.0
 11
277.3728502539634
 21
176.1993539430541
 31
0.0
 70
   160
  3
STANDARD
100
AcDbAlignedDimension
 13
246.472973011203
 23
129.8437494383711
 33
0.0
 14
321.4696400112043
 24
161.1437494383699
 34
0.0
100
AcDbRotatedDimension
  0
DIMENSION
  5
296
102
{ACAD_XDICTIONARY
360
297
102
}
102
{ACAD_REACTORS
330
298
102
}
330
2
100
AcDbEntity
  8
0
100
AcDbDimension
  2
*D56
 10
246.472973011203
 20
176.1993539430541
 30
0.0
 11
243.472973011203
 21
176.1993539430541
 31
0.0
 70
   160
  3
STANDARD
100
AcDbAlignedDimension
 13
240.472973011203
 23
121.1437504383688
 33
0.0
 14
246.472973011203
 24
129.8437494383711
 34
0.0
100
AcDbRotatedDimension
  0
LINE
  5
2A7
330
2
100
AcDbEntity
  8
0
100
AcDbLine
 10
246.472973011203
 20
129.8437494383711
 30
0.0
 11
248.5606850112035
 21
163.6745464383698
 31
0.0
  0
LINE
  5
2A8
330
2
100
AcDbEntity
  8
0
100
AcDbLine
 10
321.4696400112043
 20
129.8437494383711
 30
0.0
 11
319.4970980112048
 21
163.6728544383695
 31
0.0
  0
LINE
  5
2A9
102
{ACAD_REACTORS
330
217
102
}
330
2
100
AcDbEntity
  8
0
100
AcDbLine
 10
321.4696400112043
 20
161.1437494383699
 30
0.0
 11
321.4696400112043
 21
129.8437494383711
 31
0.0
  0
LINE
  5
2AA
330
2
100
AcDbEntity
  8
0
100
AcDbLine
 10
61.96232286083613
 20
431.3785480744363
 30
0.0
 11
141.9623228608361
 21
431.3785480744363
 31
0.0
  0
CIRCLE
  5
2AB
330
2
100
AcDbEntity
  8
0
 48
0.6
100
AcDbCircle
 10
85.40151006186352
 20
335.386927714997
 30
0.0
 40
41.5
  0
CIRCLE
  5
2AC
330
2
100
AcDbEntity
  8
0
100
AcDbCircle
 10
122.1710626835556
 20
298.6173750932889
 30
0.0
 40
3.25
  0
LINE
  5
2AD
330
2
100
AcDbEntity
  8
CL
  6
CENTER
100
AcDbLine
 10
125.8833732847852
 20
294.905064492058
 30
0.0
 11
118.4587520823224
 21
302.3296856945171
 31
0.0
  0
ARC
  5
2AE
330
2
100
AcDbEntity
  8
CL
  6
CENTER
100
AcDbCircle
 10
85.4015100618526
 20
335.3869277149879
 30
0.0
 40
52.0
100
AcDbArc
 50
309.2128702778047
 51
320.7871297221982
  0
LINE
  5
2AF
330
2
100
AcDbEntity
  8
0
100
AcDbLine
 10
45.32604574767356
 20
290.3864231533189
 30
0.0
 11
125.3260457476735
 21
290.3864231533189
 31
0.0
  0
ARC
  5
2B0
102
{ACAD_REACTORS
330
2C4
102
}
330
2
100
AcDbEntity
  8
CL
  6
CENTER
100
AcDbCircle
 10
85.40151006188535
 20
335.3869277150147
 30
0.0
 40
51.99999999996308
100
AcDbArc
 50
36.36425856586086
 51
50.78712972219959
  0
LINE
  5
2B1
330
2
100
AcDbEntity
  8
CL
  6
CENTER
100
AcDbLine
 10
125.8833732847852
 20
375.8687909379168
 30
0.0
 11
118.4587520823224
 21
368.4441697354595
 31
0.0
  0
CIRCLE
  5
2B2
330
2
100
AcDbEntity
  8
0
100
AcDbCircle
 10
122.1710626835556
 20
372.15648033669
 30
0.0
 40
3.25
  0
DIMENSION
  5
2B3
330
2
100
AcDbEntity
  8
0
100
AcDbDimension
  2
*D62
 10
130.4015100618526
 20
392.8654500603538
 30
0.0
 11
85.4015100618526
 21
392.8654500603538
 31
0.0
 70
   160
  3
STANDARD
100
AcDbAlignedDimension
 13
40.40151006185261
 23
375.3436293944532
 33
0.0
 14
130.4015100618526
 24
375.3436293944532
 34
0.0
100
AcDbRotatedDimension
  0
LINE
  5
2C0
330
2
100
AcDbEntity
  8
0
100
AcDbLine
 10
45.32604574767356
 20
380.3864231533188
 30
0.0
 11
125.3260457476735
 21
380.3864231533188
 31
0.0
  0
LINE
  5
2C1
330
2
100
AcDbEntity
  8
CEN
 48
0.6
100
AcDbLine
 10
32.58220987287313
 20
335.386927714997
 30
0.0
 11
138.2208102508448
 21
335.386927714997
 31
0.0
  0
DIMENSION
  5
2C2
102
{ACAD_XDICTIONARY
360
2C3
102
}
102
{ACAD_REACTORS
330
2C4
102
}
330
2
100
AcDbEntity
  8
0
100
AcDbDimension
  2
*D61
 10
45.11178020647642
 20
302.5123529165187
 30
0.0
 11
141.6235554727572
 21
381.2615425068537
 31
0.0
 70
   163
  1
<>%%P0.5
  3
STANDARD
100
AcDbDiametricDimension
 15
125.6912399172378
 25
368.2615025134645
 35
0.0
 40
0.0
  0
ARC
  5
2D0
330
2
100
AcDbEntity
  8
0
100
AcDbCircle
 10
61.96232286083613
 20
436.3785480744377
 30
0.0
 40
5.0
100
AcDbArc
 50
180.0
 51
270.0
  0
LINE
  5
2D1
330
2
100
AcDbEntity
  8
CL
  6
CENTER
 48
0.6
100
AcDbLine
 10
85.4015100618526
 20
283.2384126346946
 30
0.0
 11
85.4015100618526
 21
387.5354427952988
 31
0.0
  0
LINE
  5
2D2
330
2
100
AcDbEntity
  8
0
100
AcDbLine
 10
40.32604574767356
 20
375.3864231533189
 30
0.0
 11
40.32604574767356
 21
295.3864231533188
 31
0.0
  0
ARC
  5
2D3
330
2
100
AcDbEntity
  8
CL
  6
CENTER
100
AcDbCircle
 10
85.4015100618526
 20
335.3869277149879
 30
0.0
 40
52.0
100
AcDbArc
 50
217.5220799114929
 51
230.7871297221982
  0
CIRCLE
  5
2D4
330
2
100
AcDbEntity
  8
0
100
AcDbCircle
 10
48.6319574401532
 20
298.6173750932866
 30
0.0
 40
3.25
  0
LINE
  5
2D5
330
2
100
AcDbEntity
  8
CL
  6
CENTER
100
AcDbLine
 10
44.91964683892365
 20
294.905064492058
 30
0.0
 11
52.34426804138457
 21
302.3296856945171
 31
0.0
  0
ARC
  5
2D6
330
2
100
AcDbEntity
  8
0
100
AcDbCircle
 10
45.32604574767356
 20
295.3864231533188
 30
0.0
 40
5.0
100
AcDbArc
 50
180.0
 51
270.0
  0
LWPOLYLINE
  5
2D7
330
2
100
AcDbEntity
  8
3
100
AcDbPolyline
 90
        4
 70
     1
 43
0.0
 10
78.26367827145259
 20
393.7239454117198
 10
81.5636782714464
 20
393.7239454117198
 10
81.5636782714464
 20
397.2239454117198
 10
78.26367827145259
 20
397.2239454117198
  0
LINE
  5
2D8
330
2
100
AcDbEntity
  8
0
 48
0.6
100
AcDbLine
 10
87.26673629455399
 20
359.0896403239971
 30
0.0
 11
87.26673629455399
 21
356.885413859989
 31
0.0
  0
LINE
  5
2D9
330
2
100
AcDbEntity
  8
0
 48
0.6
100
AcDbLine
 10
83.26673629455399
 20
358.9943104344529
 30
0.0
 11
83.26673629455399
 21
356.885413859989
 31
0.0
  0
LINE
  5
2DA
330
2
100
AcDbEntity
  8
0
 48
0.6
100
AcDbLine
 10
83.26673629455399
 20
356.885413859989
 30
0.0
 11
87.26673629455399
 21
356.885413859989
 31
0.0
  0
CIRCLE
  5
2DB
330
2
100
AcDbEntity
  8
0
 48
0.6
100
AcDbCircle
 10
85.4015100618526
 20
353.3869277149979
 30
0.0
 40
6.0
  0
CIRCLE
  5
2DC
330
2
100
AcDbEntity
  8
0
100
AcDbCircle
 10
48.6319574401532
 20
372.1564803366868
 30
0.0
 40
3.25
  0
LINE
  5
2DD
330
2
100
AcDbEntity
  8
CL
  6
CENTER
100
AcDbLine
 10
44.91964683892365
 20
375.8687909379168
 30
0.0
 11
52.34426804138457
 21
368.4441697354577
 31
0.0
  0
ARC
  5
2DE
330
2
100
AcDbEntity
  8
CL
  6
CENTER
100
AcDbCircle
 10
85.4015100618526
 20
335.3869277149879
 30
0.0
 40
52.0
100
AcDbArc
 50
129.2128702778049
 51
140.7871297221982
  0
ARC
  5
2DF
330
2
100
AcDbEntity
  8
0
100
AcDbCircle
 10
45.32604574767356
 20
375.3864231533189
 30
0.0
 40
5.0
100
AcDbArc
 50
90.00000000000033
 51
180.0
  0
LINE
  5
2E0
330
2
100
AcDbEntity
  8
CEN
 48
0.6
100
AcDbLine
 10
64.4015100618526
 20
353.3869277149979
 30
0.0
 11
106.4015100618526
 21
353.3869277149979
 31
0.0
  0
CIRCLE
  5
2E1
330
2
100
AcDbEntity
  8
0
 48
0.6
100
AcDbCircle
 10
85.4015100618526
 20
353.3869277149979
 30
0.0
 40
18.0
  0
MTEXT
  5
2E2
102
{ACAD_REACTORS
330
2E3
102
}
330
2
100
AcDbEntity
  8
0
 62
     3
100
AcDbMText
 10
110.4111005236845
 20
405.4939817795084
 30
0.0
 40
3.0
 41
0.0
 71
     9
 72
     1
  1
4-%%C6.5 hole
1001
ACAD
1000
MTEXTBEGIN
1070
    73
1070
     1
1070
    44
1040
1.0
1070
    74
1070
     0
1000
MTEXTEND
  0
LEADER
  5
2E3
330
2
100
AcDbEntity
  8
0
100
AcDbLeader
  3
STANDARD
 73
     0
 75
     1
 40
3.0
 41
26.65178571428571
 76
     3
 10
122.1957545969526
 20
375.251144649339
 30
0.0
 10
113.9111005236845
 20
404.4939817795084
 30
0.0
 10
111.4111005236845
 20
404.4939817795084
 30
0.0
340
2E2
1001
ACAD
1000
DSTYLE
1002
{
1070
     5
1000

1070
   342
1005
0
1002
}
  0
ARC
  5
2E4
330
2
100
AcDbEntity
  8
0
100
AcDbCircle
 10
141.9623228608361
 20
436.3785480744377
 30
0.0
 40
5.0
100
AcDbArc
 50
270.0
 51
0.0
  0
LINE
  5
2E5
330
2
100
AcDbEntity
  8
0
100
AcDbLine
 10
221.5108275320217
 20
434.878548074369
 30
0.0
 11
219.5108275320144
 21
434.878548074369
 31
0.0
  0
LINE
  5
2E6
330
2
100
AcDbEntity
  8
0
100
AcDbLine
 10
221.5108275320217
 20
431.3785480743677
 30
0.0
 11
258.5108275320217
 21
431.3785480743677
 31
0.0
  0
LINE
  5
2E7
330
2
100
AcDbEntity
  8
0
100
AcDbLine
 10
275.4656597197954
 20
379.9078200326476
 30
0.0
 11
275.4656597197954
 21
290.9078200326475
 31
0.0
  0
LINE
  5
2E8
330
2
100
AcDbEntity
  8
0
100
AcDbLine
 10
274.4656597197954
 20
290.9078200326475
 30
0.0
 11
274.4656597197954
 21
290.4078200326475
 31
0.0
  0
LINE
  5
2E9
330
2
100
AcDbEntity
  8
0
100
AcDbLine
 10
275.4656597197954
 20
290.9078200326475
 30
0.0
 11
274.4656597197954
 21
290.9078200326475
 31
0.0
  0
LINE
  5
2EA
330
2
100
AcDbEntity
  8
0
100
AcDbLine
 10
274.4656597197954
 20
380.4078200326475
 30
0.0
 11
274.4656597197954
 21
379.9078200326476
 31
0.0
  0
LINE
  5
2EB
330
2
100
AcDbEntity
  8
0
100
AcDbLine
 10
275.4656597197954
 20
379.9078200326476
 30
0.0
 11
274.4656597197954
 21
379.9078200326476
 31
0.0
  0
DIMENSION
  5
2EC
330
2
100
AcDbEntity
  8
0
100
AcDbDimension
  2
*D69
 10
162.4468524586719
 20
335.4078200326475
 30
0.0
 11
162.4468524586718
 21
353.1578200326475
 31
0.0
 70
   160
  1
{\f??|b0|i0|c0|p49;%%C}<>
  3
STANDARD
100
AcDbAlignedDimension
 13
230.9656597197954
 23
371.4078200326476
 33
0.0
 14
189.8579865856936
 24
335.4078200326475
 34
0.0
 50
90.0
100
AcDbRotatedDimension
  0
LINE
  5
2F9
330
2
100
AcDbEntity
  8
0
100
AcDbLine
 10
130.3260457476735
 20
375.3864231533189
 30
0.0
 11
130.3260457476735
 21
295.3864231533188
 31
0.0
  0
ARC
  5
2FA
330
2
100
AcDbEntity
  8
0
100
AcDbCircle
 10
125.3260457476735
 20
295.3864231533188
 30
0.0
 40
5.0
100
AcDbArc
 50
270.0
 51
0.0
  0
ARC
  5
2FB
330
2
100
AcDbEntity
  8
0
100
AcDbCircle
 10
125.3260457476735
 20
375.3864231533189
 30
0.0
 40
5.0
100
AcDbArc
 50
0.0000000000006488
 51
90.0000000000003
  0
DIMENSION
  5
2FC
330
2
100
AcDbEntity
  8
0
100
AcDbDimension
  2
*D68
 10
233.4656597197954
 20
274.4022668210295
 30
0.0
 11
217.4656597197954
 21
276.9022668210295
 31
0.0
 70
    32
  3
STANDARD
100
AcDbAlignedDimension
 13
201.4656597197954
 23
345.4078200326475
 33
0.0
 14
233.4656597197954
 24
290.9078200326475
 34
0.0
 50
180.0
100
AcDbRotatedDimension
  0
LINE
  5
309
330
2
100
AcDbEntity
  8
0
100
AcDbLine
 10
233.4656597197954
 20
379.9078200326476
 30
0.0
 11
233.4656597197954
 21
290.9078200326475
 31
0.0
  0
ARC
  5
30A
330
2
100
AcDbEntity
  8
0
100
AcDbCircle
 10
233.9656597197954
 20
290.9078200326475
 30
0.0
 40
0.5
100
AcDbArc
 50
180.0
 51
270.0
  0
LINE
  5
30B
102
{ACAD_REACTORS
330
345
102
}
330
2
100
AcDbEntity
  8
CEN
  6
HIDDEN
 62
     2
100
AcDbLine
 10
226.4656597197954
 20
356.9078200326476
 30
0.0
 11
201.4656597197954
 21
356.9078200326476
 31
0.0
  0
LINE
  5
30C
102
{ACAD_REACTORS
330
345
102
}
330
2
100
AcDbEntity
  8
CEN
 48
0.6
100
AcDbLine
 10
244.1110617248123
 20
353.4078200326475
 30
0.0
 11
197.5675209185628
 21
353.4078200326475
 31
0.0
  0
LINE
  5
30D
102
{ACAD_REACTORS
330
345
102
}
330
2
100
AcDbEntity
  8
CEN
  6
BYBLOCK
 62
     0
100
AcDbLine
 10
230.4656597197954
 20
359.4078200326475
 30
0.0
 11
201.4656597197954
 21
359.4078200326475
 31
0.0
  0
LINE
  5
30E
102
{ACAD_REACTORS
330
345
330
31F
102
}
330
2
100
AcDbEntity
  8
CEN
  6
BYBLOCK
 62
     0
100
AcDbLine
 10
230.4656597197954
 20
347.4078200326475
 30
0.0
 11
201.4656597197954
 21
347.4078200326475
 31
0.0
  0
DIMENSION
  5
30F
330
2
100
AcDbEntity
  8
0
100
AcDbDimension
  2
*D67
 10
201.4656597197954
 20
376.2836398952035
 30
0.0
 11
213.9656597197954
 21
376.2836398952035
 31
0.0
 70
   160
  3
STANDARD
100
AcDbAlignedDimension
 13
226.4656597197954
 23
359.4078200326475
 33
0.0
 14
201.4656597197954
 24
358.4078200326475
 34
0.0
 50
180.0
100
AcDbRotatedDimension
  0
LINE
  5
31C
330
2
100
AcDbEntity
  8
0
100
AcDbLine
 10
201.4656597197954
 20
359.4078200326475
 30
0.0
 11
201.4656597197954
 21
347.4078200326475
 31
0.0
  0
DIMENSION
  5
31D
102
{ACAD_XDICTIONARY
360
31E
102
}
102
{ACAD_REACTORS
330
31F
102
}
330
2
100
AcDbEntity
  8
0
100
AcDbDimension
  2
*D66
 10
186.8972988891237
 20
359.4078200326475
 30
0.0
 11
186.8972988891236
 21
387.6009039413407
 31
0.0
 70
   160
  1
\A1;{\f??|b0|i0|c0|p49;%%C12\H0.7x;\S+0^ -0.018;\H1.429x;(h7)}
  3
STANDARD
100
AcDbAlignedDimension
 13
201.4656597197954
 23
347.4078200326475
 33
0.0
 14
201.4656597197954
 24
359.4078200326475
 34
0.0
 50
90.0
100
AcDbRotatedDimension
  0
LINE
  5
32E
330
2
100
AcDbEntity
  8
0
  6
HIDDEN
 62
     2
100
AcDbLine
 10
226.4656597197954
 20
359.4078200326475
 30
0.0
 11
226.4656597197954
 21
356.9078200326476
 31
0.0
  0
ARC
  5
32F
330
2
100
AcDbEntity
  8
0
100
AcDbCircle
 10
230.9656597197954
 20
370.9078200326475
 30
0.0
 40
0.5
100
AcDbArc
 50
90.0
 51
180.0
  0
ARC
  5
330
330
2
100
AcDbEntity
  8
0
100
AcDbCircle
 10
233.9656597197954
 20
379.9078200326476
 30
0.0
 40
0.5
100
AcDbArc
 50
90.0
 51
180.0
  0
LINE
  5
331
330
2
100
AcDbEntity
  8
0
100
AcDbLine
 10
230.9656597197954
 20
371.4078200326476
 30
0.0
 11
233.4656597197954
 21
371.4078200326476
 31
0.0
  0
DIMENSION
  5
332
330
2
100
AcDbEntity
  8
0
100
AcDbDimension
  2
*D65
 10
230.4656597197954
 20
387.9271334564268
 30
0.0
 11
231.9656597197954
 21
387.9271334564268
 31
0.0
 70
   160
  3
STANDARD
100
AcDbAlignedDimension
 13
233.4656597197954
 23
379.9078200326476
 33
0.0
 14
230.4656597197954
 24
370.5542666420537
 34
0.0
 50
180.0
100
AcDbRotatedDimension
  0
ARC
  5
341
330
2
100
AcDbEntity
  8
0
100
AcDbCircle
 10
230.9656597197954
 20
335.9078200326475
 30
0.0
 40
0.5
100
AcDbArc
 50
180.0
 51
270.0
  0
LINE
  5
342
330
2
100
AcDbEntity
  8
0
100
AcDbLine
 10
230.9656597197954
 20
335.4078200326475
 30
0.0
 11
233.4656597197954
 21
335.4078200326475
 31
0.0
  0
DIMENSION
  5
343
102
{ACAD_XDICTIONARY
360
344
102
}
102
{ACAD_REACTORS
330
345
102
}
330
2
100
AcDbEntity
  8
0
100
AcDbDimension
  2
*D64
 10
175.3524195221852
 20
335.4078200326475
 30
0.0
 11
172.8524195221852
 21
344.4078200326476
 31
0.0
 70
    32
  3
STANDARD
100
AcDbAlignedDimension
 13
197.5675209185628
 23
353.4078200326475
 33
0.0
 14
189.8579865856936
 24
335.4078200326475
 34
0.0
 50
90.0
100
AcDbRotatedDimension
  0
LINE
  5
352
330
2
100
AcDbEntity
  8
0
100
AcDbLine
 10
230.4656597197954
 20
370.9078200326475
 30
0.0
 11
230.4656597197954
 21
335.9078200326475
 31
0.0
  0
ARC
  5
353
330
2
100
AcDbEntity
  8
2
 62
     7
100
AcDbCircle
 10
230.9656597197954
 20
335.9078200326475
 30
0.0
 40
0.4999999999999967
100
AcDbArc
 50
180.0
 51
270.0
  0
LINE
  5
355
330
2
100
AcDbEntity
  8
2
 62
     7
100
AcDbLine
 10
233.4656597197954
 20
335.4078200326475
 30
0.0
 11
230.9656597197954
 21
335.4078200326475
 31
0.0
  0
LINE
  5
356
330
2
100
AcDbEntity
  8
2
 62
     7
100
AcDbLine
 10
230.4656597197954
 20
335.9078200326475
 30
0.0
 11
230.4656597197954
 21
337.4078200326475
 31
0.0
  0
DIMENSION
  5
357
330
2
100
AcDbEntity
  8
0
100
AcDbDimension
  2
*D63
 10
233.4656597197954
 20
274.4022668210295
 30
0.0
 11
254.4656597197954
 21
276.9022668210295
 31
0.0
 70
    32
  1
L
  3
STANDARD
100
AcDbAlignedDimension
 13
275.4656597197954
 23
290.9078200326475
 33
0.0
 14
233.4656597197954
 24
290.9078200326475
 34
0.0
 50
180.0
100
AcDbRotatedDimension
  0
LINE
  5
364
330
2
100
AcDbEntity
  8
0
100
AcDbLine
 10
274.4656597197954
 20
290.4078200326475
 30
0.0
 11
233.9656597197954
 21
290.4078200326475
 31
0.0
  0
LINE
  5
365
330
2
100
AcDbEntity
  8
0
100
AcDbLine
 10
274.4656597197954
 20
380.4078200326475
 30
0.0
 11
233.9656597197954
 21
380.4078200326475
 31
0.0
  0
LINE
  5
366
102
{ACAD_REACTORS
330
345
102
}
330
2
100
AcDbEntity
  8
CEN
 48
0.6
100
AcDbLine
 10
189.8579865856936
 20
335.4078200326475
 30
0.0
 11
286.6251290594136
 21
335.4078200326475
 31
0.0
  0
LINE
  5
367
330
2
100
AcDbEntity
  8
CEN
100
AcDbLine
 10
52.70904664643603
 20
476.378548074369
 30
0.0
 11
151.2155990752344
 21
476.378548074369
 31
0.0
  0
LINE
  5
368
330
2
100
AcDbEntity
  8
0
100
AcDbLine
 10
61.96232286083613
 20
521.3785480744377
 30
0.0
 11
141.9623228608361
 21
521.3785480744377
 31
0.0
  0
DIMENSION
  5
369
330
2
100
AcDbEntity
  8
0
100
AcDbDimension
  2
*D70
 10
146.9623228608361
 20
534.7041918748259
 30
0.0
 11
101.9623228608361
 21
534.7041918748259
 31
0.0
 70
   160
  3
STANDARD
100
AcDbAlignedDimension
 13
56.96232286083613
 23
516.3357543155707
 33
0.0
 14
146.9623228608361
 24
516.3357543155707
 34
0.0
100
AcDbRotatedDimension
  0
MTEXT
  5
376
102
{ACAD_REACTORS
330
377
102
}
330
2
100
AcDbEntity
  8
0
 62
     3
100
AcDbMText
 10
127.9665331143241
 20
548.8267533797489
 30
0.0
 40
3.0
 41
0.0
 71
     9
 72
     1
  1
4-%%C6.5 hole
1001
ACAD
1000
MTEXTBEGIN
1070
    73
1070
     1
1070
    44
1040
1.0
1070
    74
1070
     0
1000
MTEXTEND
  0
LEADER
  5
377
330
2
100
AcDbEntity
  8
0
100
AcDbLeader
  3
STANDARD
 73
     0
 75
     1
 40
3.0
 41
26.65178571428571
 76
     3
 10
138.756516057263
 20
516.2977225271729
 30
0.0
 10
131.4665331143241
 20
547.8267533797488
 30
0.0
 10
128.9665331143241
 20
547.8267533797488
 30
0.0
340
376
1001
ACAD
1000
DSTYLE
1002
{
1070
     5
1000

1070
   342
1005
0
1002
}
  0
CIRCLE
  5
378
330
2
100
AcDbEntity
  8
0
100
AcDbCircle
 10
101.9623228608361
 20
476.378548074369
 30
0.0
 40
3.198036349121024
  0
CIRCLE
  5
379
330
2
100
AcDbEntity
  8
0
100
AcDbCircle
 10
101.9623228608361
 20
476.378548074369
 30
0.0
 40
4.235
  0
CIRCLE
  5
37A
330
2
100
AcDbEntity
  8
0
100
AcDbCircle
 10
65.19277023913673
 20
513.1481006961371
 30
0.0
 40
3.25
  0
LINE
  5
37B
330
2
100
AcDbEntity
  8
CL
  6
CENTER
100
AcDbLine
 10
61.48045963790355
 20
516.8604112973658
 30
0.0
 11
68.90508084036446
 21
509.4357900949071
 31
0.0
  0
ARC
  5
37C
330
2
100
AcDbEntity
  8
CL
  6
CENTER
100
AcDbCircle
 10
101.9623228608361
 20
476.3785480744377
 30
0.0
 40
52.0
100
AcDbArc
 50
129.2128702778049
 51
140.7871297221982
  0
ARC
  5
37D
330
2
100
AcDbEntity
  8
0
100
AcDbCircle
 10
61.96232286083613
 20
516.3785480744377
 30
0.0
 40
5.0
100
AcDbArc
 50
90.00000000000033
 51
180.0
  0
LWPOLYLINE
  5
37E
330
2
100
AcDbEntity
  8
3
100
AcDbPolyline
 90
        4
 70
     1
 43
0.0
 10
94.87223878338591
 20
535.3463081660288
 10
98.17223878338701
 20
535.3463081660288
 10
98.17223878338701
 20
538.8463081660288
 10
94.87223878338591
 20
538.8463081660288
  0
ARC
  5
37F
102
{ACAD_REACTORS
330
BF
102
}
330
2
100
AcDbEntity
  8
CL
  6
CENTER
100
AcDbCircle
 10
101.9623228608652
 20
476.3785480744645
 30
0.0
 40
51.99999999996308
100
AcDbArc
 50
36.36425856586086
 51
50.78712972219959
  0
LINE
  5
380
330
2
100
AcDbEntity
  8
CL
  6
CENTER
100
AcDbLine
 10
142.4441860837632
 20
516.8604112973658
 30
0.0
 11
135.0195648813041
 21
509.4357900949071
 31
0.0
  0
CIRCLE
  5
381
330
2
100
AcDbEntity
  8
0
100
AcDbCircle
 10
138.7318754825337
 20
513.1481006961371
 30
0.0
 40
3.25
  0
ARC
  5
382
330
2
100
AcDbEntity
  8
0
100
AcDbCircle
 10
141.9623228608361
 20
516.3785480744377
 30
0.0
 40
5.0
100
AcDbArc
 50
0.0000000000006488
 51
90.0000000000003
  0
LINE
  5
383
330
2
100
AcDbEntity
  8
0
100
AcDbLine
 10
204.5108275320144
 20
472.1435480743675
 30
0.0
 11
219.5108275320144
 21
472.1435480743675
 31
0.0
  0
LINE
  5
384
330
2
100
AcDbEntity
  8
0
100
AcDbLine
 10
204.5108275320144
 20
480.6135480743687
 30
0.0
 11
219.5108275320144
 21
480.6135480743687
 31
0.0
  0
LINE
  5
385
330
2
100
AcDbEntity
  8
CEN
100
AcDbLine
 10
201.5920157203345
 20
480.1030480743674
 30
0.0
 11
222.5108275320144
 21
480.1030480743674
 31
0.0
  0
LINE
  5
386
330
2
100
AcDbEntity
  8
CEN
100
AcDbLine
 10
201.5920157203345
 20
472.6540480743674
 30
0.0
 11
222.5108275320144
 21
472.6540480743674
 31
0.0
  0
LINE
  5
387
330
2
100
AcDbEntity
  8
2
100
AcDbLine
 10
214.5108275320217
 20
478.9986374513801
 30
0.0
 11
204.5108275320144
 21
473.7062599838077
 31
0.0
  0
LINE
  5
388
330
2
100
AcDbEntity
  8
0
100
AcDbLine
 10
203.610827532022
 20
473.0435480743676
 30
0.0
 11
214.5108275320217
 21
473.0435480743676
 31
0.0
  0
LINE
  5
389
330
2
100
AcDbEntity
  8
2
100
AcDbLine
 10
213.9889752646049
 20
479.7135480743677
 30
0.0
 11
204.5108275320144
 21
474.9253633226421
 31
0.0
  0
LINE
  5
38A
330
2
100
AcDbEntity
  8
0
100
AcDbLine
 10
203.610827532022
 20
479.7135480743677
 30
0.0
 11
214.5108275320217
 21
479.7135480743677
 31
0.0
  0
DIMENSION
  5
38B
330
2
100
AcDbEntity
  8
0
100
AcDbDimension
  2
*D73
 10
221.5108275320217
 20
543.4298288611921
 30
0.0
 11
212.5108275320217
 21
543.4298288611921
 31
0.0
 70
   160
  3
STANDARD
100
AcDbAlignedDimension
 13
203.5108275320144
 23
479.3785480743677
 33
0.0
 14
221.5108275320217
 24
521.3785480743677
 34
0.0
100
AcDbRotatedDimension
  0
LINE
  5
398
330
2
100
AcDbEntity
  8
2
100
AcDbLine
 10
204.5108275320144
 20
480.6135480743687
 30
0.0
 11
204.5108275320144
 21
472.1435480743675
 31
0.0
  0
LINE
  5
399
330
2
100
AcDbEntity
  8
0
100
AcDbLine
 10
203.5108275320144
 20
473.1435480743676
 30
0.0
 11
204.5108275320144
 21
472.1435480743675
 31
0.0
  0
LINE
  5
39A
330
2
100
AcDbEntity
  8
0
100
AcDbLine
 10
203.5108275320144
 20
479.6135480743687
 30
0.0
 11
204.5108275320144
 21
480.6135480743687
 31
0.0
  0
LINE
  5
39B
330
2
100
AcDbEntity
  8
0
100
AcDbLine
 10
203.5108275320144
 20
479.6135480743687
 30
0.0
 11
203.5108275320144
 21
473.1435480743676
 31
0.0
  0
ARC
  5
39C
330
2
100
AcDbEntity
  8
0
100
AcDbCircle
 10
214.5540144428541
 20
506.5297789633878
 30
0.0
 40
26.81626566475105
100
AcDbArc
 50
269.9077265708258
 51
280.6520097392901
  0
ARC
  5
39D
330
2
100
AcDbEntity
  8
0
100
AcDbCircle
 10
214.5540144428541
 20
446.227317185318
 30
0.0
 40
26.81626566478071
100
AcDbArc
 50
79.34799026071575
 51
90.09227342916824
  0
LINE
  5
39E
330
2
100
AcDbEntity
  8
0
100
AcDbLine
 10
208.5108275320144
 20
472.1435480743675
 30
0.0
 11
219.5108275320144
 21
472.1435480743675
 31
0.0
  0
LINE
  5
39F
330
2
100
AcDbEntity
  8
0
100
AcDbLine
 10
208.5108275320144
 20
480.6135480743687
 30
0.0
 11
219.5108275320144
 21
480.6135480743687
 31
0.0
  0
LINE
  5
3A0
330
2
100
AcDbEntity
  8
2
100
AcDbLine
 10
214.5108275320217
 20
479.4785480743671
 30
0.0
 11
214.5108275320217
 21
473.2785480743678
 31
0.0
  0
LINE
  5
3A1
330
2
100
AcDbEntity
  8
2
100
AcDbLine
 10
214.5108275320217
 20
477.833447958717
 30
0.0
 11
205.3226031333942
 21
473.0435480743676
 31
0.0
  0
LINE
  5
3A2
330
2
100
AcDbEntity
  8
0
100
AcDbLine
 10
221.5108275320217
 20
479.1985480743687
 30
0.0
 11
221.5108275320217
 21
473.5585480743688
 31
0.0
  0
LINE
  5
3A3
330
2
100
AcDbEntity
  8
0
100
AcDbLine
 10
221.5108275320217
 20
479.1985480743687
 30
0.0
 11
221.5108275320217
 21
473.5585480743688
 31
0.0
  0
LINE
  5
3A4
330
2
100
AcDbEntity
  8
0
100
AcDbLine
 10
221.5108275320217
 20
517.878548074369
 30
0.0
 11
219.5108275320144
 21
517.878548074369
 31
0.0
  0
DIMENSION
  5
3A5
102
{ACAD_XDICTIONARY
360
3A6
102
}
102
{ACAD_REACTORS
330
3A7
102
}
330
2
100
AcDbEntity
  8
0
100
AcDbDimension
  2
*D72
 10
221.5108275320217
 20
533.2041884677801
 30
0.0
 11
230.5108275320217
 21
533.2041884677801
 31
0.0
 70
   160
  3
STANDARD
100
AcDbAlignedDimension
 13
219.5108275320144
 23
517.878548074369
 33
0.0
 14
221.5108275320217
 24
521.378548074369
 34
0.0
100
AcDbRotatedDimension
  0
LINE
  5
3B6
330
2
100
AcDbEntity
  8
CEN
100
AcDbLine
 10
271.5757863878643
 20
476.378548074369
 30
0.0
 11
197.3663550916135
 21
476.378548074369
 31
0.0
  0
LINE
  5
3B7
102
{ACAD_REACTORS
330
3BA
102
}
330
2
100
AcDbEntity
  8
0
100
AcDbLine
 10
221.5108275320217
 20
521.3785480743677
 30
0.0
 11
258.5108275320217
 21
521.3785480743677
 31
0.0
  0
DIMENSION
  5
3B8
102
{ACAD_XDICTIONARY
360
3B9
102
}
102
{ACAD_REACTORS
330
3BA
102
}
330
2
100
AcDbEntity
  8
0
100
AcDbDimension
  2
*D71
 10
258.5108275320217
 20
543.4298288611921
 30
0.0
 11
240.0108275320144
 21
543.4298288611921
 31
0.0
 70
   160
  3
STANDARD
100
AcDbAlignedDimension
 13
221.5108275320217
 23
521.3785480743677
 33
0.0
 14
258.5108275320217
 24
521.3785480743677
 34
0.0
100
AcDbRotatedDimension
  0
INSERT
  5
3C7
330
2
100
AcDbEntity
  8
0
100
AcDbBlockReference
  2
4
 10
48.76012226774401
 20
76.1437504383689
 30
0.0
  0
LINE
  5
3E6
330
2
100
AcDbEntity
  8
CEN
100
AcDbLine
 10
-0.4931539465542301
 20
76.1437504384412
 30
0.0
 11
98.01339848224415
 21
76.1437504384412
 31
0.0
  0
DIMENSION
  5
3E7
330
2
100
AcDbEntity
  8
0
100
AcDbDimension
  2
*D44
 10
93.76012226784405
 20
15.46356975234084
 30
0.0
 11
48.76012226784405
 21
15.46356975234084
 31
0.0
 70
   160
  3
STANDARD
100
AcDbAlignedDimension
 13
3.760122267844053
 23
35.14375043836889
 33
0.0
 14
93.76012226784405
 24
35.14375043836889
 34
0.0
100
AcDbRotatedDimension
  0
ENDSEC
  0
SECTION
  2
OBJECTS
  0
DICTIONARY
  5
9
330
0
100
AcDbDictionary
  3
ACAD_GROUP
350
98
  3
ACAD_LAYOUT
350
D
  3
ACAD_MLINESTYLE
350
99
  3
ACAD_PLOTSETTINGS
350
9A
  3
ACAD_PLOTSTYLENAME
350
8
  3
ACDBHEADERROUNDTRIPXREC
350
5D1
  3
ACDBVARIABLEDICTIONARY
350
3F4
  0
DICTIONARY
  5
15
330
14
100
AcDbDictionary
280
     1
  3
ACAD_LAYERFILTERS
360
16
  3
ACAD_LAYERSTATES
360
89
  0
DICTIONARY
  5
3
330
2
100
AcDbDictionary
280
     1
  3
ACAD_LAYOUTSELFREF
360
5F2
  0
DICTIONARY
  5
F
330
E
100
AcDbDictionary
280
     1
  3
ACAD_LAYOUTSELFREF
360
5F3
  0
DICTIONARY
  5
3CE
330
3CD
100
AcDbDictionary
280
     1
  3
ACAD_DIMASSOC
360
3CF
  0
DICTIONARY
  5
AD
330
AC
100
AcDbDictionary
280
     1
  3
ACAD_DIMASSOC
360
AE
  0
DICTIONARY
  5
BE
330
BD
100
AcDbDictionary
280
     1
  3
ACAD_DIMASSOC
360
BF
  0
DICTIONARY
  5
CE
330
CD
100
AcDbDictionary
280
     1
  3
ACAD_DIMASSOC
360
CF
  0
DICTIONARY
  5
ED
330
EC
100
AcDbDictionary
280
     1
  3
ACAD_DIMASSOC
360
EE
  0
DICTIONARY
  5
FE
330
FD
100
AcDbDictionary
280
     1
  3
ACAD_DIMASSOC
360
FF
  0
DICTIONARY
  5
11C
330
11B
100
AcDbDictionary
280
     1
  3
ACAD_DIMASSOC
360
11D
  0
DICTIONARY
  5
12F
330
12E
100
AcDbDictionary
280
     1
  3
ACAD_DIMASSOC
360
130
  0
DICTIONARY
  5
13F
330
13E
100
AcDbDictionary
280
     1
  3
ACAD_DIMASSOC
360
140
  0
DICTIONARY
  5
152
330
151
100
AcDbDictionary
280
     1
  3
ACAD_DIMASSOC
360
153
  0
DICTIONARY
  5
162
330
161
100
AcDbDictionary
280
     1
  3
ACAD_DIMASSOC
360
163
  0
DICTIONARY
  5
18E
330
18D
100
AcDbDictionary
280
     1
  3
ACAD_DIMASSOC
360
18F
  0
DICTIONARY
  5
1A3
330
1A2
100
AcDbDictionary
280
     1
  3
ACAD_DIMASSOC
360
1A4
  0
DICTIONARY
  5
1B8
330
1B7
100
AcDbDictionary
280
     1
  3
ACAD_DIMASSOC
360
1B9
  0
DICTIONARY
  5
1E3
330
1E2
100
AcDbDictionary
280
     1
  3
ACAD_DIMASSOC
360
1E4
  0
DICTIONARY
  5
216
330
215
100
AcDbDictionary
280
     1
  3
ACAD_DIMASSOC
360
217
  0
DICTIONARY
  5
288
330
287
100
AcDbDictionary
280
     1
  3
ACAD_DIMASSOC
360
289
  0
DICTIONARY
  5
297
330
296
100
AcDbDictionary
280
     1
  3
ACAD_DIMASSOC
360
298
  0
DICTIONARY
  5
2C3
330
2C2
100
AcDbDictionary
280
     1
  3
ACAD_DIMASSOC
360
2C4
  0
DICTIONARY
  5
31E
330
31D
100
AcDbDictionary
280
     1
  3
ACAD_DIMASSOC
360
31F
  0
DICTIONARY
  5
344
330
343
100
AcDbDictionary
280
     1
  3
ACAD_DIMASSOC
360
345
  0
DICTIONARY
  5
3A6
330
3A5
100
AcDbDictionary
280
     1
  3
ACAD_DIMASSOC
360
3A7
  0
DICTIONARY
  5
3B9
330
3B8
100
AcDbDictionary
280
     1
  3
ACAD_DIMASSOC
360
3BA
  0
DICTIONARY
  5
98
102
{ACAD_REACTORS
330
9
102
}
330
9
100
AcDbDictionary
  0
DICTIONARY
  5
D
102
{ACAD_REACTORS
330
9
102
}
330
9
100
AcDbDictionary
  0
DICTIONARY
  5
99
102
{ACAD_REACTORS
330
9
102
}
330
9
100
AcDbDictionary
  3
STANDARD
350
9B
  0
DICTIONARY
  5
9A
102
{ACAD_REACTORS
330
9
102
}
330
9
100
AcDbDictionary
  0
ACDBDICTIONARYWDFLT
  5
8
102
{ACAD_REACTORS
330
9
102
}
330
9
100
AcDbDictionary
281
     1
  3
Normal
350
7
100
AcDbDictionaryWithDefault
340
7
  0
DICTIONARY
  5
5D1
102
{ACAD_REACTORS
330
9
102
}
330
9
100
AcDbDictionary
  3
CEPSNTYPE
350
5DB
  3
DIMSTYLEDATA
350
5DF
  3
FINGERPRINTGUID
350
5DC
  3
HYPERLINKBASE
350
5D4
  3
INSUNITS
350
5DA
  3
LAYOUTDICT
350
5D6
  3
LWETCUNION
350
5D9
  3
PLOTSETDICT
350
5D7
  3
PLOTSTYLNAMDICT
350
5D8
  3
PSVPSCALE
350
5DE
  3
PUCSBASE
350
5E2
  3
PUCSORGBACK
350
5E8
  3
PUCSORGBOTTOM
350
5E4
  3
PUCSORGFRONT
350
5E7
  3
PUCSORGLEFT
350
5E5
  3
PUCSORGRIGHT
350
5E6
  3
PUCSORGTOP
350
5E3
  3
PUCSORTHOREF
350
5E0
  3
PUCSORTHOVIEW
350
5E1
  3
STYLESHEET
350
5D5
  3
TSTACKALIGN
350
5D2
  3
TSTACKSIZE
350
5D3
  3
UCSBASE
350
5EB
  3
UCSORGBACK
350
5F1
  3
UCSORGBOTTOM
350
5ED
  3
UCSORGFRONT
350
5F0
  3
UCSORGLEFT
350
5EE
  3
UCSORGRIGHT
350
5EF
  3
UCSORGTOP
350
5EC
  3
UCSORTHOREF
350
5E9
  3
UCSORTHOVIEW
350
5EA
  3
VERSIONGUID
350
5DD
  0
DICTIONARY
  5
3F4
102
{ACAD_REACTORS
330
9
102
}
330
9
100
AcDbDictionary
  3
DIMASSOC
350
3F6
  3
HIDETEXT
350
3F5
  0
DICTIONARY
  5
16
102
{ACAD_REACTORS
330
15
102
}
330
15
100
AcDbDictionary
280
     1
  3
$LAYERS
360
17
  3
-_UND_0
360
18
  3
-PEGC
360
19
  3
101
360
1A
  3
102
360
1B
  3
1DUC
360
1C
  3
1EQ
360
1D
  3
1TUB
360
1E
  3
2
360
1F
  3
2000
360
20
  3
50
360
21
  3
58J
360
22
  3
65
360
23
  3
AA
360
24
  3
ACABADOS
360
25
  3
AGUA_Y_DREN
360
26
  3
AIRE
360
27
  3
ALLE_AUS
360
28
  3
ALLES_MIT_S
360
29
  3
AMARILLO
360
2A
  3
APAGADOS
360
2B
  3
ARR
360
2C
  3
BA
360
2D
  3
BACKS
360
2E
  3
BASE
360
2F
  3
BLOQ_INUTIL
360
30
  3
CADKON
360
31
  3
CARPINTERIA
360
32
  3
CERRADOS
360
33
  3
COL
360
34
  3
COLOR
360
35
  3
COLOR_250
360
36
  3
COLORES
360
37
  3
CONGELADOS
360
38
  3
CONJUNTO
360
39
  3
D1
360
3A
  3
DA_
360
3B
  3
DET-
360
3C
  3
DOR-H
360
3D
  3
EJES
360
3E
  3
ELECTRICO
360
3F
  3
F1
360
40
  3
FROZEN
360
41
  3
GRID
360
42
  3
GRIDTXT
360
43
  3
HATCH
360
44
  3
HCAD
360
45
  3
INSTALACIONES
360
46
  3
JIZNI
360
47
  3
KCK
360
48
  3
KKK
360
49
  3
LAY
360
4A
  3
LAYER-0
360
4E
  3
LAYER-1
360
4F
  3
LAYER_1_UND_0
360
4B
  3
LAYER_2_UND_0
360
4C
  3
LAYER_9_UND_0_SCHRAFFUR
360
4D
  3
LOCK
360
50
  3
LOCKED
360
51
  3
LOTES
360
52
  3
LUNAR
360
53
  3
LUNAR2
360
54
  3
M
360
55
  3
MIS_LAYERS
360
56
  3
MRKCK
360
57
  3
NECADKON
360
58
  3
NI_LH
360
59
  3
NI_RH
360
5A
  3
NUM
360
5B
  3
OFF
360
5C
  3
ON
360
5D
  3
PBASE
360
5E
  3
PEGC
360
5F
  3
PEGCT
360
60
  3
PFRAME
360
61
  3
PGRID
360
62
  3
PGRIDT
360
63
  3
PLAFONES
360
64
  3
PLANTAS
360
65
  3
PLOT
360
66
  3
PRENDIDAS
360
67
  3
PRENDIDOS
360
68
  3
PRINT
360
69
  3
PT
360
6A
  3
PTH
360
6B
  3
PVGRID
360
6C
  3
RED_DE_AGUA_POTABLE
360
6D
  3
RED_DE_ENERGIA_ELECTRICA
360
6E
  3
SEVERNI
360
6F
  3
SHIN
360
70
  3
SHOW_ALL_LAYER
360
71
  3
SIN
360
72
  3
STORAGE-CART
360
73
  3
T
360
74
  3
TEXTOS
360
75
  3
TEXTURAS
360
76
  3
TUBERIAS
360
77
  3
UNFRZ
360
78
  3
V\U+0160ECHNY_NEPOU\U+017D\U+00CDVAN\U+00C9
360
79
  3
VA
360
7A
  3
VENTILACI\U+00D3N
360
7B
  3
VYHODNI
360
7C
  3
YO
360
7D
  3
ZAPADNI
360
7E
  3
사용
360
7F
  3
신규
360
80
  3
실박스
360
81
  3
우리토목
360
82
  3
주차
360
83
  3
지상정밀
360
84
  3
쩜선
360
85
  3
플로터_작업층
360
86
  3
현재_작업층
360
87
  3
현재_잠금
360
88
  0
DICTIONARY
  5
89
102
{ACAD_REACTORS
330
15
102
}
330
15
100
AcDbDictionary
  0
XRECORD
  5
5F2
102
{ACAD_REACTORS
330
3
102
}
330
3
100
AcDbXrecord
340
2
  0
XRECORD
  5
5F3
102
{ACAD_REACTORS
330
F
102
}
330
F
100
AcDbXrecord
340
E
  0
DIMASSOC
  5
3CF
102
{ACAD_REACTORS
330
3CE
102
}
330
3CE
100
AcDbDimAssoc
330
3CD
 90
        2
 70
     0
 71
     0
  1
AcDbOsnapPointRef
 72
     3
331
3CC
 73
     2
 91
        0
 40
0.0
 10
0.0
 20
0.0
 30
0.0
 75
     0
  0
DIMASSOC
  5
AE
102
{ACAD_REACTORS
330
AD
102
}
330
AD
100
AcDbDimAssoc
330
AC
 90
        3
 70
     0
 71
     0
  1
AcDbOsnapPointRef
 72
    13
331
AA
 73
     2
 91
        0
 40
0.0
 10
219.5108275320144
 20
517.878548074369
 30
0.0
 75
     0
  1
AcDbOsnapPointRef
 72
     1
331
AA
 73
     2
 91
        0
 40
1.0
 10
219.5108275320144
 20
434.878548074369
 30
0.0
 75
     0
  0
DIMASSOC
  5
BF
102
{ACAD_REACTORS
330
BE
102
}
330
BE
100
AcDbDimAssoc
330
BD
 90
        2
 70
     0
 71
     0
  1
AcDbOsnapPointRef
 72
     3
331
37F
 73
     2
 91
        0
 40
0.0
 10
101.9623228608652
 20
476.3785480744645
 30
0.0
 75
     0
  0
DIMASSOC
  5
CF
102
{ACAD_REACTORS
330
CE
102
}
330
CE
100
AcDbDimAssoc
330
CD
 90
        1
 70
     0
 71
     0
  1
AcDbOsnapPointRef
 72
     1
331
DC
 73
     2
 91
        0
 40
1.0
 10
338.472973011203
 20
120.6437504383689
 30
0.0
 75
     0
  0
DIMASSOC
  5
EE
102
{ACAD_REACTORS
330
ED
102
}
330
ED
100
AcDbDimAssoc
330
EC
 90
        1
 70
     0
 71
     0
  1
AcDbOsnapPointRef
 72
     1
331
14D
 73
     2
 91
        0
 40
1.0
 10
166.472973011203
 20
88.14375043836889
 30
0.0
 75
     0
  0
DIMASSOC
  5
FF
102
{ACAD_REACTORS
330
FE
102
}
330
FE
100
AcDbDimAssoc
330
FD
 90
        1
 70
     0
 71
     0
  1
AcDbOsnapPointRef
 72
     1
331
253
 73
     2
 91
        0
 40
1.0
 10
162.5748342099741
 20
94.14375043836889
 30
0.0
 75
     0
  0
DIMASSOC
  5
11D
102
{ACAD_REACTORS
330
11C
102
}
330
11C
100
AcDbDimAssoc
330
11B
 90
        2
 70
     0
 71
     0
  1
AcDbOsnapPointRef
 72
     1
331
12B
 73
     2
 91
        0
 40
1.0
 10
247.972973011203
 20
32.54501309684064
 30
0.0
 75
     0
  0
DIMASSOC
  5
130
102
{ACAD_REACTORS
330
12F
102
}
330
12F
100
AcDbDimAssoc
330
12E
 90
        3
 70
     0
 71
     0
  1
AcDbOsnapPointRef
 72
    13
331
14F
 73
     2
 91
        0
 40
3.141592653589792
 10
198.472973011203
 20
31.1437504383689
 30
0.0
 75
     0
  1
AcDbOsnapPointRef
 72
     1
331
110
 73
     2
 91
        0
 40
1.0
 10
240.472973011203
 20
30.64375043836889
 30
0.0
 75
     0
  0
DIMASSOC
  5
140
102
{ACAD_REACTORS
330
13F
102
}
330
13F
100
AcDbDimAssoc
330
13E
 90
        3
 70
     0
 71
     0
  1
AcDbOsnapPointRef
 72
     1
331
112
 73
     2
 91
        0
 40
1.0
 10
166.472973011203
 20
88.14375043836889
 30
0.0
 75
     0
  1
AcDbOsnapPointRef
 72
    13
331
14F
 73
     2
 91
        0
 40
3.141592653589792
 10
198.472973011203
 20
31.1437504383689
 30
0.0
 75
     0
  0
DIMASSOC
  5
153
102
{ACAD_REACTORS
330
152
102
}
330
152
100
AcDbDimAssoc
330
151
 90
        2
 70
     0
 71
     0
  1
AcDbOsnapPointRef
 72
    13
331
119
 73
     2
 91
        0
 40
0.0
 10
345.472973011203
 20
34.14375043836889
 30
0.0
 75
     0
  0
DIMASSOC
  5
163
102
{ACAD_REACTORS
330
162
102
}
330
162
100
AcDbDimAssoc
330
161
 90
        3
 70
     0
 71
     0
  1
AcDbOsnapPointRef
 72
     1
331
1B4
 73
     2
 91
        0
 40
1.0
 10
110.8176820834942
 20
226.3784300429133
 30
0.0
 75
     0
  1
AcDbOsnapPointRef
 72
     5
331
178
 73
     2
 91
        0
 40
1.570796326794896
 10
108.8176820834942
 20
228.8784300429133
 30
0.0
 75
     0
  0
DIMASSOC
  5
18F
102
{ACAD_REACTORS
330
18E
102
}
330
18E
100
AcDbDimAssoc
330
18D
 90
        3
 70
     0
 71
     0
  1
AcDbOsnapPointRef
 72
    13
331
176
 73
     2
 91
        0
 40
0.0
 10
61.88430234294537
 20
227.4787253299095
 30
0.0
 75
     0
  1
AcDbOsnapPointRef
 72
    13
331
175
 73
     2
 91
        0
 40
0.0
 10
65.88430234294538
 20
227.4787253299095
 30
0.0
 75
     0
  0
DIMASSOC
  5
1A4
102
{ACAD_REACTORS
330
1A3
102
}
330
1A3
100
AcDbDimAssoc
330
1A2
 90
        3
 70
     0
 71
     0
  1
AcDbOsnapPointRef
 72
     2
331
17A
 73
     2
 91
        0
 40
3.141592653589792
 10
19.71364905623522
 20
225.4787253299095
 30
0.0
 75
     0
  1
AcDbOsnapPointRef
 72
     1
331
1A1
 73
     2
 91
        0
 40
1.0
 10
44.71364905623523
 20
227.4787253299095
 30
0.0
 75
     0
  0
DIMASSOC
  5
1B9
102
{ACAD_REACTORS
330
1B8
102
}
330
1B8
100
AcDbDimAssoc
330
1B7
 90
        3
 70
     0
 71
     0
  1
AcDbOsnapPointRef
 72
     1
331
1B5
 73
     2
 91
        0
 40
1.0
 10
106.8176820834942
 20
228.4610057378686
 30
0.0
 75
     0
  1
AcDbOsnapPointRef
 72
     1
331
1B6
 73
     2
 91
        0
 40
1.0
 10
110.8176820834942
 20
228.4610057378686
 30
0.0
 75
     0
  0
DIMASSOC
  5
1E4
102
{ACAD_REACTORS
330
1E3
102
}
330
1E3
100
AcDbDimAssoc
330
1E2
 90
        3
 70
     0
 71
     0
  1
AcDbOsnapPointRef
 72
     1
331
1D7
 73
     2
 91
        0
 40
1.0
 10
17.76012226784405
 20
129.143750438438
 30
0.0
 75
     0
  1
AcDbOsnapPointRef
 72
     1
331
1DB
 73
     2
 91
        0
 40
1.0
 10
79.76012226784405
 20
129.143750438438
 30
0.0
 75
     0
  0
DIMASSOC
  5
217
102
{ACAD_REACTORS
330
216
102
}
330
216
100
AcDbDimAssoc
330
215
 90
        3
 70
     0
 71
     0
  1
AcDbOsnapPointRef
 72
    13
331
2A9
 73
     2
 91
        0
 40
0.0
 10
321.4696400112043
 20
161.1437494383699
 30
0.0
 75
     0
  1
AcDbOsnapPointRef
 72
    13
331
282
 73
     2
 91
        0
 40
0.0
 10
349.4696400112043
 20
153.1437494383699
 30
0.0
 75
     0
  0
DIMASSOC
  5
289
102
{ACAD_REACTORS
330
288
102
}
330
288
100
AcDbDimAssoc
330
287
 90
        3
 70
     0
 71
     0
  1
AcDbOsnapPointRef
 72
     1
331
281
 73
     2
 91
        0
 40
1.0
 10
246.472973011203
 20
129.8437494383711
 30
0.0
 75
     0
  1
AcDbOsnapPointRef
 72
    13
331
20F
 73
     2
 91
        0
 40
0.0
 10
321.4696400112043
 20
161.1437494383699
 30
0.0
 75
     0
  0
DIMASSOC
  5
298
102
{ACAD_REACTORS
330
297
102
}
330
297
100
AcDbDimAssoc
330
296
 90
        2
 70
     0
 71
     0
  1
AcDbOsnapPointRef
 72
     1
331
281
 73
     2
 91
        0
 40
1.0
 10
246.472973011203
 20
129.8437494383711
 30
0.0
 75
     0
  0
DIMASSOC
  5
2C4
102
{ACAD_REACTORS
330
2C3
102
}
330
2C3
100
AcDbDimAssoc
330
2C2
 90
        2
 70
     0
 71
     0
  1
AcDbOsnapPointRef
 72
     3
331
2B0
 73
     2
 91
        0
 40
0.0
 10
85.40151006188535
 20
335.3869277150147
 30
0.0
 75
     0
  0
DIMASSOC
  5
31F
102
{ACAD_REACTORS
330
31E
102
}
330
31E
100
AcDbDimAssoc
330
31D
 90
        1
 70
     0
 71
     0
  1
AcDbOsnapPointRef
 72
     1
331
30E
 73
     2
 91
        0
 40
1.0
 10
201.4656597197954
 20
347.4078200326475
 30
0.0
 75
     0
  0
DIMASSOC
  5
345
102
{ACAD_REACTORS
330
344
102
}
330
344
100
AcDbDimAssoc
330
343
 90
        3
 70
     0
 71
     0
  1
AcDbOsnapPointRef
 72
     1
331
30C
 73
     2
 91
        0
 40
1.0
 10
197.5675209185628
 20
353.4078200326475
 30
0.0
 75
     0
  1
AcDbOsnapPointRef
 72
    13
331
366
 73
     2
 91
        0
 40
0.0
 10
189.8579865856936
 20
335.4078200326475
 30
0.0
 75
     0
  0
DIMASSOC
  5
3A7
102
{ACAD_REACTORS
330
3A6
102
}
330
3A6
100
AcDbDimAssoc
330
3A5
 90
        3
 70
     0
 71
     0
  1
AcDbOsnapPointRef
 72
    13
331
AA
 73
     2
 91
        0
 40
0.0
 10
219.5108275320144
 20
517.878548074369
 30
0.0
 75
     0
  1
AcDbOsnapPointRef
 72
    13
331
AB
 73
     2
 91
        0
 40
0.0
 10
221.5108275320217
 20
521.3785480743677
 30
0.0
 75
     0
  0
DIMASSOC
  5
3BA
102
{ACAD_REACTORS
330
3B9
102
}
330
3B9
100
AcDbDimAssoc
330
3B8
 90
        3
 70
     0
 71
     0
  1
AcDbOsnapPointRef
 72
    13
331
3B7
 73
     2
 91
        0
 40
0.0
 10
221.5108275320217
 20
521.3785480743677
 30
0.0
 75
     0
  1
AcDbOsnapPointRef
 72
    13
331
9D
 73
     2
 91
        0
 40
0.0
 10
258.5108275320217
 20
521.3785480743677
 30
0.0
 75
     0
  0
MLINESTYLE
  5
9B
102
{ACAD_REACTORS
330
99
102
}
330
99
100
AcDbMlineStyle
  2
STANDARD
 70
     0
  3

 62
   256
 51
90.0
 52
90.0
 71
     2
 49
0.5
 62
   256
  6
BYLAYER
 49
-0.5
 62
   256
  6
BYLAYER
  0
ACDBPLACEHOLDER
  5
7
102
{ACAD_REACTORS
330
8
102
}
330
8
100
AcDbPlaceHolder
280
     0
  0
XRECORD
  5
5DB
102
{ACAD_REACTORS
330
5D1
102
}
330
5D1
100
AcDbXrecord
 90
        0
  0
XRECORD
  5
5DF
102
{ACAD_REACTORS
330
5D1
102
}
330
5D1
100
AcDbXrecord
1000
DSTYLE
1002
{
1070
    79
 70
     2
1070
   179
 70
     1
1070
   289
 70
     0
1002
}
  0
XRECORD
  5
5DC
102
{ACAD_REACTORS
330
5D1
102
}
330
5D1
100
AcDbXrecord
  1
{FDEAD578-A652-11D2-9A35-0060089B3A3F}
  0
XRECORD
  5
5D4
102
{ACAD_REACTORS
330
5D1
102
}
330
5D1
100
AcDbXrecord
  1

  0
XRECORD
  5
5DA
102
{ACAD_REACTORS
330
5D1
102
}
330
5D1
100
AcDbXrecord
 90
        4
  0
XRECORD
  5
5D6
102
{ACAD_REACTORS
330
5D1
102
}
330
5D1
100
AcDbXrecord
340
D
  0
XRECORD
  5
5D9
102
{ACAD_REACTORS
330
5D1
102
}
330
5D1
100
AcDbXrecord
 90
    10781
  0
XRECORD
  5
5D7
102
{ACAD_REACTORS
330
5D1
102
}
330
5D1
100
AcDbXrecord
340
9A
  0
XRECORD
  5
5D8
102
{ACAD_REACTORS
330
5D1
102
}
330
5D1
100
AcDbXrecord
340
8
  0
XRECORD
  5
5DE
102
{ACAD_REACTORS
330
5D1
102
}
330
5D1
100
AcDbXrecord
 40
0.0
  0
XRECORD
  5
5E2
102
{ACAD_REACTORS
330
5D1
102
}
330
5D1
100
AcDbXrecord
340
0
  0
XRECORD
  5
5E8
102
{ACAD_REACTORS
330
5D1
102
}
330
5D1
100
AcDbXrecord
 10
0.0
 20
0.0
 30
0.0
  0
XRECORD
  5
5E4
102
{ACAD_REACTORS
330
5D1
102
}
330
5D1
100
AcDbXrecord
 10
0.0
 20
0.0
 30
0.0
  0
XRECORD
  5
5E7
102
{ACAD_REACTORS
330
5D1
102
}
330
5D1
100
AcDbXrecord
 10
0.0
 20
0.0
 30
0.0
  0
XRECORD
  5
5E5
102
{ACAD_REACTORS
330
5D1
102
}
330
5D1
100
AcDbXrecord
 10
0.0
 20
0.0
 30
0.0
  0
XRECORD
  5
5E6
102
{ACAD_REACTORS
330
5D1
102
}
330
5D1
100
AcDbXrecord
 10
0.0
 20
0.0
 30
0.0
  0
XRECORD
  5
5E3
102
{ACAD_REACTORS
330
5D1
102
}
330
5D1
100
AcDbXrecord
 10
0.0
 20
0.0
 30
0.0
  0
XRECORD
  5
5E0
102
{ACAD_REACTORS
330
5D1
102
}
330
5D1
100
AcDbXrecord
340
0
  0
XRECORD
  5
5E1
102
{ACAD_REACTORS
330
5D1
102
}
330
5D1
100
AcDbXrecord
 70
     0
  0
XRECORD
  5
5D5
102
{ACAD_REACTORS
330
5D1
102
}
330
5D1
100
AcDbXrecord
  1

  0
XRECORD
  5
5D2
102
{ACAD_REACTORS
330
5D1
102
}
330
5D1
100
AcDbXrecord
 90
        1
  0
XRECORD
  5
5D3
102
{ACAD_REACTORS
330
5D1
102
}
330
5D1
100
AcDbXrecord
 90
       70
  0
XRECORD
  5
5EB
102
{ACAD_REACTORS
330
5D1
102
}
330
5D1
100
AcDbXrecord
340
0
  0
XRECORD
  5
5F1
102
{ACAD_REACTORS
330
5D1
102
}
330
5D1
100
AcDbXrecord
 10
0.0
 20
0.0
 30
0.0
  0
XRECORD
  5
5ED
102
{ACAD_REACTORS
330
5D1
102
}
330
5D1
100
AcDbXrecord
 10
0.0
 20
0.0
 30
0.0
  0
XRECORD
  5
5F0
102
{ACAD_REACTORS
330
5D1
102
}
330
5D1
100
AcDbXrecord
 10
0.0
 20
0.0
 30
0.0
  0
XRECORD
  5
5EE
102
{ACAD_REACTORS
330
5D1
102
}
330
5D1
100
AcDbXrecord
 10
0.0
 20
0.0
 30
0.0
  0
XRECORD
  5
5EF
102
{ACAD_REACTORS
330
5D1
102
}
330
5D1
100
AcDbXrecord
 10
0.0
 20
0.0
 30
0.0
  0
XRECORD
  5
5EC
102
{ACAD_REACTORS
330
5D1
102
}
330
5D1
100
AcDbXrecord
 10
0.0
 20
0.0
 30
0.0
  0
XRECORD
  5
5E9
102
{ACAD_REACTORS
330
5D1
102
}
330
5D1
100
AcDbXrecord
340
0
  0
XRECORD
  5
5EA
102
{ACAD_REACTORS
330
5D1
102
}
330
5D1
100
AcDbXrecord
 70
     0
  0
XRECORD
  5
5DD
102
{ACAD_REACTORS
330
5D1
102
}
330
5D1
100
AcDbXrecord
  1
{DB028B94-6919-45C9-A000-1E0C8F2F77D8}
  0
DICTIONARYVAR
  5
3F6
102
{ACAD_REACTORS
330
3F4
102
}
330
3F4
100
DictionaryVariables
280
     0
  1
2
  0
DICTIONARYVAR
  5
3F5
102
{ACAD_REACTORS
330
3F4
102
}
330
3F4
100
DictionaryVariables
280
     0
  1
1
  0
XRECORD
  5
17
102
{ACAD_REACTORS
330
16
102
}
330
16
100
AcDbXrecord
  1
$layers
  1
*
  1
*
  1
*
 70
     0
  1
*
  1
*
  0
XRECORD
  5
18
102
{ACAD_REACTORS
330
16
102
}
330
16
100
AcDbXrecord
  1
- und 0
  1
-*,0
  1
*
  1
*
 70
     0
  1
*
  1
*
  0
XRECORD
  5
19
102
{ACAD_REACTORS
330
16
102
}
330
16
100
AcDbXrecord
  1
-pegc
  1
*-pegc
  1
*
  1
*
 70
     0
  1
*
  1
*
  0
XRECORD
  5
1A
102
{ACAD_REACTORS
330
16
102
}
330
16
100
AcDbXrecord
  1
101
  1
*101
  1
*
  1
*
 70
   256
  1
*
  1
*
  0
XRECORD
  5
1B
102
{ACAD_REACTORS
330
16
102
}
330
16
100
AcDbXrecord
  1
102
  1
102*
  1
*
  1
*
 70
     0
  1
*
  1
*
  0
XRECORD
  5
1C
102
{ACAD_REACTORS
330
16
102
}
330
16
100
AcDbXrecord
  1
1duc
  1
*1duc*
  1
*
  1
*
 70
     0
  1
*
  1
*
  0
XRECORD
  5
1D
102
{ACAD_REACTORS
330
16
102
}
330
16
100
AcDbXrecord
  1
1eq
  1
*1eq*
  1
*
  1
*
 70
     0
  1
*
  1
*
  0
XRECORD
  5
1E
102
{ACAD_REACTORS
330
16
102
}
330
16
100
AcDbXrecord
  1
1tub
  1
*1t*
  1
*
  1
*
 70
     0
  1
*
  1
*
  0
XRECORD
  5
1F
102
{ACAD_REACTORS
330
16
102
}
330
16
100
AcDbXrecord
  1
2
  1
*
  1
2
  1
*
 70
     0
  1
*
  1
*
  0
XRECORD
  5
20
102
{ACAD_REACTORS
330
16
102
}
330
16
100
AcDbXrecord
  1
2000
  1
2000*
  1
*
  1
*
 70
     0
  1
*
  1
*
  0
XRECORD
  5
21
102
{ACAD_REACTORS
330
16
102
}
330
16
100
AcDbXrecord
  1
50
  1
*-50
  1
*
  1
*
 70
     0
  1
*
  1
*
  0
XRECORD
  5
22
102
{ACAD_REACTORS
330
16
102
}
330
16
100
AcDbXrecord
  1
58J
  1
*58*
  1
*
  1
*
 70
     0
  1
*
  1
*
  0
XRECORD
  5
23
102
{ACAD_REACTORS
330
16
102
}
330
16
100
AcDbXrecord
  1
65
  1
*65
  1
*
  1
*
 70
     0
  1
*
  1
*
  0
XRECORD
  5
24
102
{ACAD_REACTORS
330
16
102
}
330
16
100
AcDbXrecord
  1
aa
  1
aa*
  1
*
  1
*
 70
     0
  1
*
  1
*
  0
XRECORD
  5
25
102
{ACAD_REACTORS
330
16
102
}
330
16
100
AcDbXrecord
  1
acabados
  1
a-*
  1
*
  1
*
 70
     5
  1
*
  1
*
  0
XRECORD
  5
26
102
{ACAD_REACTORS
330
16
102
}
330
16
100
AcDbXrecord
  1
AGUA Y DREN
  1
A-DS-*
  1
*
  1
*
 70
     0
  1
*
  1
*
  0
XRECORD
  5
27
102
{ACAD_REACTORS
330
16
102
}
330
16
100
AcDbXrecord
  1
Aire
  1
*
  1
*
  1
*
 70
     0
  1
*
  1
*
  0
XRECORD
  5
28
102
{ACAD_REACTORS
330
16
102
}
330
16
100
AcDbXrecord
  1
alle aus
  1
99999999999
  1
*
  1
*
 70
     0
  1
*
  1
*
  0
XRECORD
  5
29
102
{ACAD_REACTORS
330
16
102
}
330
16
100
AcDbXrecord
  1
Alles mit S
  1
s*
  1
*
  1
*
 70
     0
  1
*
  1
*
  0
XRECORD
  5
2A
102
{ACAD_REACTORS
330
16
102
}
330
16
100
AcDbXrecord
  1
amarillo
  1
*
  1
yellow
  1
*
 70
     0
  1
*
  1
*
  0
XRECORD
  5
2B
102
{ACAD_REACTORS
330
16
102
}
330
16
100
AcDbXrecord
  1
APAGADOS
  1
*
  1
*
  1
*
 70
     4
  1
*
  1
*
  0
XRECORD
  5
2C
102
{ACAD_REACTORS
330
16
102
}
330
16
100
AcDbXrecord
  1
ARR
  1
ARR*
  1
*
  1
*
 70
     0
  1
*
  1
*
  0
XRECORD
  5
2D
102
{ACAD_REACTORS
330
16
102
}
330
16
100
AcDbXrecord
  1
ba
  1
*
  1
*
  1
*
 70
     0
  1
*
  1
*
  0
XRECORD
  5
2E
102
{ACAD_REACTORS
330
16
102
}
330
16
100
AcDbXrecord
  1
BACKS
  1
*-H
  1
*
  1
*
 70
     0
  1
*
  1
*
  0
XRECORD
  5
2F
102
{ACAD_REACTORS
330
16
102
}
330
16
100
AcDbXrecord
  1
BASE
  1
*-PBASE
  1
*
  1
*
 70
     0
  1
*
  1
*
  0
XRECORD
  5
30
102
{ACAD_REACTORS
330
16
102
}
330
16
100
AcDbXrecord
  1
BLOQ_INUTIL
  1
*
  1
*
  1
*
 70
     0
  1
*
  1
*
  0
XRECORD
  5
31
102
{ACAD_REACTORS
330
16
102
}
330
16
100
AcDbXrecord
  1
CADKON
  1
?[KAHBSM]?????[23M],?[KAHBSM]?????[23M][1456A-DGHILN-SU-Z]
  1
*
  1
*
 70
     0
  1
*
  1
*
  0
XRECORD
  5
32
102
{ACAD_REACTORS
330
16
102
}
330
16
100
AcDbXrecord
  1
carpinteria
  1
carp*
  1
*
  1
*
 70
     0
  1
*
  1
*
  0
XRECORD
  5
33
102
{ACAD_REACTORS
330
16
102
}
330
16
100
AcDbXrecord
  1
cerrados
  1
*
  1
*
  1
*
 70
   256
  1
*
  1
*
  0
XRECORD
  5
34
102
{ACAD_REACTORS
330
16
102
}
330
16
100
AcDbXrecord
  1
COL
  1
*
  1
*
  1
*
 70
     1
  1
*
  1
*
  0
XRECORD
  5
35
102
{ACAD_REACTORS
330
16
102
}
330
16
100
AcDbXrecord
  1
COLOR
  1
*
  1
253
  1
*
 70
     0
  1
*
  1
*
  0
XRECORD
  5
36
102
{ACAD_REACTORS
330
16
102
}
330
16
100
AcDbXrecord
  1
color 250
  1
*
  1
250
  1
*
 70
     0
  1
*
  1
*
  0
XRECORD
  5
37
102
{ACAD_REACTORS
330
16
102
}
330
16
100
AcDbXrecord
  1
COLORES
  1
*
  1
6
  1
*
 70
     0
  1
*
  1
*
  0
XRECORD
  5
38
102
{ACAD_REACTORS
330
16
102
}
330
16
100
AcDbXrecord
  1
Congelados
  1
*
  1
*
  1
*
 70
     4
  1
*
  1
*
  0
XRECORD
  5
39
102
{ACAD_REACTORS
330
16
102
}
330
16
100
AcDbXrecord
  1
CONJUNTO
  1
CON-*
  1
*
  1
*
 70
     0
  1
*
  1
*
  0
XRECORD
  5
3A
102
{ACAD_REACTORS
330
16
102
}
330
16
100
AcDbXrecord
  1
d1
  1
achurados
  1
*
  1
*
 70
     0
  1
*
  1
*
  0
XRECORD
  5
3B
102
{ACAD_REACTORS
330
16
102
}
330
16
100
AcDbXrecord
  1
DA_
  1
DA*
  1
*
  1
*
 70
     0
  1
*
  1
*
  0
XRECORD
  5
3C
102
{ACAD_REACTORS
330
16
102
}
330
16
100
AcDbXrecord
  1
DET-
  1
*
  1
*
  1
*
 70
     0
  1
*
  1
*
  0
XRECORD
  5
3D
102
{ACAD_REACTORS
330
16
102
}
330
16
100
AcDbXrecord
  1
DOR-H
  1
*
  1
7
  1
*
 70
     0
  1
*
  1
*
  0
XRECORD
  5
3E
102
{ACAD_REACTORS
330
16
102
}
330
16
100
AcDbXrecord
  1
ejes
  1
eje*
  1
*
  1
*
 70
     0
  1
*
  1
*
  0
XRECORD
  5
3F
102
{ACAD_REACTORS
330
16
102
}
330
16
100
AcDbXrecord
  1
ELECTRICO
  1
ELEC-*
  1
*
  1
*
 70
     0
  1
*
  1
*
  0
XRECORD
  5
40
102
{ACAD_REACTORS
330
16
102
}
330
16
100
AcDbXrecord
  1
F1
  1
Halaxref*
  1
*
  1
*
 70
     0
  1
*
  1
*
  0
XRECORD
  5
41
102
{ACAD_REACTORS
330
16
102
}
330
16
100
AcDbXrecord
  1
frozen
  1
*
  1
*
  1
*
 70
     4
  1
*
  1
*
  0
XRECORD
  5
42
102
{ACAD_REACTORS
330
16
102
}
330
16
100
AcDbXrecord
  1
grid
  1
*-PGRID
  1
*
  1
*
 70
     1
  1
*
  1
*
  0
XRECORD
  5
43
102
{ACAD_REACTORS
330
16
102
}
330
16
100
AcDbXrecord
  1
GRIDTXT
  1
*-PGRIDT
  1
*
  1
*
 70
     0
  1
*
  1
*
  0
XRECORD
  5
44
102
{ACAD_REACTORS
330
16
102
}
330
16
100
AcDbXrecord
  1
HATCH
  1
HAT*
  1
*
  1
*
 70
     0
  1
*
  1
*
  0
XRECORD
  5
45
102
{ACAD_REACTORS
330
16
102
}
330
16
100
AcDbXrecord
  1
HCAD
  1
1HCAD-*
  1
*
  1
*
 70
    13
  1
*
  1
*
  0
XRECORD
  5
46
102
{ACAD_REACTORS
330
16
102
}
330
16
100
AcDbXrecord
  1
INSTALACIONES
  1
I-*
  1
*
  1
*
 70
     0
  1
*
  1
*
  0
XRECORD
  5
47
102
{ACAD_REACTORS
330
16
102
}
330
16
100
AcDbXrecord
  1
JIZNI
  1
*-J
  1
*
  1
*
 70
     0
  1
*
  1
*
  0
XRECORD
  5
48
102
{ACAD_REACTORS
330
16
102
}
330
16
100
AcDbXrecord
  1
kck
  1
*
  1
*
  1
*
 70
     0
  1
*
  1
*
  0
XRECORD
  5
49
102
{ACAD_REACTORS
330
16
102
}
330
16
100
AcDbXrecord
  1
kkk
  1
k
  1
*
  1
*
 70
     0
  1
*
  1
*
  0
XRECORD
  5
4A
102
{ACAD_REACTORS
330
16
102
}
330
16
100
AcDbXrecord
  1
lay
  1
??-*
  1
*
  1
*
 70
     0
  1
*
  1
*
  0
XRECORD
  5
4E
102
{ACAD_REACTORS
330
16
102
}
330
16
100
AcDbXrecord
  1
Layer-0
  1
0*
  1
*
  1
*
 70
     0
  1
*
  1
*
  0
XRECORD
  5
4F
102
{ACAD_REACTORS
330
16
102
}
330
16
100
AcDbXrecord
  1
Layer-1
  1
1*
  1
*
  1
*
 70
     0
  1
*
  1
*
  0
XRECORD
  5
4B
102
{ACAD_REACTORS
330
16
102
}
330
16
100
AcDbXrecord
  1
Layer 1 und 0
  1
1*,0
  1
*
  1
*
 70
     0
  1
*
  1
*
  0
XRECORD
  5
4C
102
{ACAD_REACTORS
330
16
102
}
330
16
100
AcDbXrecord
  1
Layer 2 und 0
  1
2*,0
  1
*
  1
*
 70
     0
  1
*
  1
*
  0
XRECORD
  5
4D
102
{ACAD_REACTORS
330
16
102
}
330
16
100
AcDbXrecord
  1
Layer 9 und 0 Schraffur
  1
9*,0
  1
*
  1
*
 70
     0
  1
*
  1
*
  0
XRECORD
  5
50
102
{ACAD_REACTORS
330
16
102
}
330
16
100
AcDbXrecord
  1
LOCK
  1
*
  1
*
  1
*
 70
   256
  1
*
  1
*
  0
XRECORD
  5
51
102
{ACAD_REACTORS
330
16
102
}
330
16
100
AcDbXrecord
  1
locked
  1
*
  1
*
  1
*
 70
   256
  1
*
  1
*
  0
XRECORD
  5
52
102
{ACAD_REACTORS
330
16
102
}
330
16
100
AcDbXrecord
  1
Lotes
  1
*
  1
*
  1
*
 70
     1
  1
*
  1
*
  0
XRECORD
  5
53
102
{ACAD_REACTORS
330
16
102
}
330
16
100
AcDbXrecord
  1
LUNAR
  1
*
  1
*
  1
*
 70
    48
  1
*
  1
*
  0
XRECORD
  5
54
102
{ACAD_REACTORS
330
16
102
}
330
16
100
AcDbXrecord
  1
LUNAR2
  1
*
  1
*
  1
*
 70
    12
  1
*
  1
*
  0
XRECORD
  5
55
102
{ACAD_REACTORS
330
16
102
}
330
16
100
AcDbXrecord
  1
M
  1
M*
  1
*
  1
*
 70
     0
  1
*
  1
*
  0
XRECORD
  5
56
102
{ACAD_REACTORS
330
16
102
}
330
16
100
AcDbXrecord
  1
mis_layers
  1
mis_*
  1
*
  1
*
 70
     0
  1
*
  1
*
  0
XRECORD
  5
57
102
{ACAD_REACTORS
330
16
102
}
330
16
100
AcDbXrecord
  1
MRKCK
  1
*
  1
*
  1
*
 70
     0
  1
*
  1
*
  0
XRECORD
  5
58
102
{ACAD_REACTORS
330
16
102
}
330
16
100
AcDbXrecord
  1
NECADKON
  1
~*?[KAHBSM]?????[23M]*
  1
*
  1
*
 70
     0
  1
*
  1
*
  0
XRECORD
  5
59
102
{ACAD_REACTORS
330
16
102
}
330
16
100
AcDbXrecord
  1
NI_LH
  1
NI_LH*
  1
*
  1
*
 70
     0
  1
*
  1
*
  0
XRECORD
  5
5A
102
{ACAD_REACTORS
330
16
102
}
330
16
100
AcDbXrecord
  1
NI_RH
  1
NI_RH*
  1
*
  1
*
 70
     0
  1
*
  1
*
  0
XRECORD
  5
5B
102
{ACAD_REACTORS
330
16
102
}
330
16
100
AcDbXrecord
  1
NUM
  1
NUM*
  1
*
  1
*
 70
     0
  1
*
  1
*
  0
XRECORD
  5
5C
102
{ACAD_REACTORS
330
16
102
}
330
16
100
AcDbXrecord
  1
off
  1
*
  1
*
  1
*
 70
     3
  1
*
  1
*
  0
XRECORD
  5
5D
102
{ACAD_REACTORS
330
16
102
}
330
16
100
AcDbXrecord
  1
on
  1
*
  1
*
  1
*
 70
     0
  1
*
  1
*
  0
XRECORD
  5
5E
102
{ACAD_REACTORS
330
16
102
}
330
16
100
AcDbXrecord
  1
PBASE
  1
*PBASE
  1
*
  1
*
 70
     0
  1
*
  1
*
  0
XRECORD
  5
5F
102
{ACAD_REACTORS
330
16
102
}
330
16
100
AcDbXrecord
  1
PEGC
  1
*PEGC
  1
*
  1
*
 70
     0
  1
*
  1
*
  0
XRECORD
  5
60
102
{ACAD_REACTORS
330
16
102
}
330
16
100
AcDbXrecord
  1
PEGCT
  1
*PEGCT
  1
*
  1
*
 70
     0
  1
*
  1
*
  0
XRECORD
  5
61
102
{ACAD_REACTORS
330
16
102
}
330
16
100
AcDbXrecord
  1
PFRAME
  1
PFRAME*
  1
*
  1
*
 70
     0
  1
*
  1
*
  0
XRECORD
  5
62
102
{ACAD_REACTORS
330
16
102
}
330
16
100
AcDbXrecord
  1
PGRID
  1
*PGRID
  1
*
  1
*
 70
     0
  1
*
  1
*
  0
XRECORD
  5
63
102
{ACAD_REACTORS
330
16
102
}
330
16
100
AcDbXrecord
  1
PGRIDT
  1
*PGRIDT
  1
*
  1
*
 70
     0
  1
*
  1
*
  0
XRECORD
  5
64
102
{ACAD_REACTORS
330
16
102
}
330
16
100
AcDbXrecord
  1
PLAFONES
  1
0-*
  1
*
  1
*
 70
     0
  1
*
  1
*
  0
XRECORD
  5
65
102
{ACAD_REACTORS
330
16
102
}
330
16
100
AcDbXrecord
  1
PLANTAS
  1
P-*
  1
*
  1
*
 70
     0
  1
*
  1
*
  0
XRECORD
  5
66
102
{ACAD_REACTORS
330
16
102
}
330
16
100
AcDbXrecord
  1
Plot
  1
*
  1
*
  1
*
 70
  1024
  1
*
  1
*
  0
XRECORD
  5
67
102
{ACAD_REACTORS
330
16
102
}
330
16
100
AcDbXrecord
  1
PRENDIDAS
  1
*
  1
*
  1
*
 70
    13
  1
*
  1
*
  0
XRECORD
  5
68
102
{ACAD_REACTORS
330
16
102
}
330
16
100
AcDbXrecord
  1
PRENDIDOS
  1
*
  1
*
  1
*
 70
    12
  1
*
  1
*
  0
XRECORD
  5
69
102
{ACAD_REACTORS
330
16
102
}
330
16
100
AcDbXrecord
  1
print
  1
*
  1
7
  1
*
 70
  1280
  1
*
  1
*
  0
XRECORD
  5
6A
102
{ACAD_REACTORS
330
16
102
}
330
16
100
AcDbXrecord
  1
PT
  1
PT-*
  1
*
  1
*
 70
     0
  1
*
  1
*
  0
XRECORD
  5
6B
102
{ACAD_REACTORS
330
16
102
}
330
16
100
AcDbXrecord
  1
PTH
  1
PTH*
  1
*
  1
*
 70
     0
  1
*
  1
*
  0
XRECORD
  5
6C
102
{ACAD_REACTORS
330
16
102
}
330
16
100
AcDbXrecord
  1
PVGRID
  1
*PVGRID
  1
*
  1
*
 70
     0
  1
*
  1
*
  0
XRECORD
  5
6D
102
{ACAD_REACTORS
330
16
102
}
330
16
100
AcDbXrecord
  1
Red de Agua Potable
  1
Red de Agua Potable
  1
*
  1
*
 70
     1
  1
*
  1
*
  0
XRECORD
  5
6E
102
{ACAD_REACTORS
330
16
102
}
330
16
100
AcDbXrecord
  1
Red de Energia Electrica
  1
Lotes
  1
*
  1
*
 70
     1
  1
*
  1
*
  0
XRECORD
  5
6F
102
{ACAD_REACTORS
330
16
102
}
330
16
100
AcDbXrecord
  1
SEVERNI
  1
*-S
  1
*
  1
*
 70
     0
  1
*
  1
*
  0
XRECORD
  5
70
102
{ACAD_REACTORS
330
16
102
}
330
16
100
AcDbXrecord
  1
shin
  1
일*
  1
*
  1
*
 70
     0
  1
*
  1
*
  0
XRECORD
  5
71
102
{ACAD_REACTORS
330
16
102
}
330
16
100
AcDbXrecord
  1
SHOW ALL LAYER
  1
*
  1
*
  1
*
 70
     0
  1
*
  1
*
  0
XRECORD
  5
72
102
{ACAD_REACTORS
330
16
102
}
330
16
100
AcDbXrecord
  1
sin
  1
sin
  1
*
  1
*
 70
     0
  1
*
  1
*
  0
XRECORD
  5
73
102
{ACAD_REACTORS
330
16
102
}
330
16
100
AcDbXrecord
  1
STORAGE-CART
  1
STORAGE-CART*
  1
*
  1
*
 70
     0
  1
*
  1
*
  0
XRECORD
  5
74
102
{ACAD_REACTORS
330
16
102
}
330
16
100
AcDbXrecord
  1
T
  1
T*
  1
*
  1
*
 70
     0
  1
*
  1
*
  0
XRECORD
  5
75
102
{ACAD_REACTORS
330
16
102
}
330
16
100
AcDbXrecord
  1
TEXTOS
  1
TXT*
  1
*
  1
*
 70
     0
  1
*
  1
*
  0
XRECORD
  5
76
102
{ACAD_REACTORS
330
16
102
}
330
16
100
AcDbXrecord
  1
TEXTURAS
  1
*TEXTURAS
  1
*
  1
*
 70
     0
  1
*
  1
*
  0
XRECORD
  5
77
102
{ACAD_REACTORS
330
16
102
}
330
16
100
AcDbXrecord
  1
TUBERIAS
  1
T*
  1
*
  1
*
 70
     0
  1
*
  1
*
  0
XRECORD
  5
78
102
{ACAD_REACTORS
330
16
102
}
330
16
100
AcDbXrecord
  1
UNFRZ
  1
*
  1
*
  1
*
 70
    12
  1
*
  1
*
  0
XRECORD
  5
79
102
{ACAD_REACTORS
330
16
102
}
330
16
100
AcDbXrecord
  1
v\U+0161echny nepou\U+017E\U+00EDvan\U+00E9
  1
*
  1
*
  1
*
 70
     0
  1
*
  1
*
  0
XRECORD
  5
7A
102
{ACAD_REACTORS
330
16
102
}
330
16
100
AcDbXrecord
  1
VA
  1
VA*
  1
*
  1
*
 70
     0
  1
*
  1
*
  0
XRECORD
  5
7B
102
{ACAD_REACTORS
330
16
102
}
330
16
100
AcDbXrecord
  1
Ventilaci\U+00F3n
  1
*
  1
*
  1
*
 70
     0
  1
*
  1
*
  0
XRECORD
  5
7C
102
{ACAD_REACTORS
330
16
102
}
330
16
100
AcDbXrecord
  1
VYHODNI
  1
*-V
  1
*
  1
*
 70
     0
  1
*
  1
*
  0
XRECORD
  5
7D
102
{ACAD_REACTORS
330
16
102
}
330
16
100
AcDbXrecord
  1
Yo
  1
Muros
  1
*
  1
*
 70
     0
  1
*
  1
*
  0
XRECORD
  5
7E
102
{ACAD_REACTORS
330
16
102
}
330
16
100
AcDbXrecord
  1
ZAPADNI
  1
*-Z
  1
*
  1
*
 70
     0
  1
*
  1
*
  0
XRECORD
  5
7F
102
{ACAD_REACTORS
330
16
102
}
330
16
100
AcDbXrecord
  1
사용
  1
*
  1
*
  1
*
 70
   256
  1
*
  1
*
  0
XRECORD
  5
80
102
{ACAD_REACTORS
330
16
102
}
330
16
100
AcDbXrecord
  1
신규
  1
신규
  1
*
  1
*
 70
     0
  1
*
  1
*
  0
XRECORD
  5
81
102
{ACAD_REACTORS
330
16
102
}
330
16
100
AcDbXrecord
  1
실박스
  1
BLO,SYM,SYM1,SYM2
  1
*
  1
*
 70
     0
  1
*
  1
*
  0
XRECORD
  5
82
102
{ACAD_REACTORS
330
16
102
}
330
16
100
AcDbXrecord
  1
우리토목
  1
w-*
  1
*
  1
*
 70
     0
  1
*
  1
*
  0
XRECORD
  5
83
102
{ACAD_REACTORS
330
16
102
}
330
16
100
AcDbXrecord
  1
주차
  1
car*
  1
*
  1
*
 70
     0
  1
*
  1
*
  0
XRECORD
  5
84
102
{ACAD_REACTORS
330
16
102
}
330
16
100
AcDbXrecord
  1
지상정밀
  1
*
  1
*
  1
*
 70
     0
  1
*
  1
*
  0
XRECORD
  5
85
102
{ACAD_REACTORS
330
16
102
}
330
16
100
AcDbXrecord
  1
쩜선
  1
*
  1
*
  1
*
 70
     0
  1
*
  1
*
  0
XRECORD
  5
86
102
{ACAD_REACTORS
330
16
102
}
330
16
100
AcDbXrecord
  1
플로터 작업층
  1
*
  1
*
  1
*
 70
  1025
  1
*
  1
*
  0
XRECORD
  5
87
102
{ACAD_REACTORS
330
16
102
}
330
16
100
AcDbXrecord
  1
현재 작업층
  1
*
  1
*
  1
*
 70
     1
  1
*
  1
*
  0
XRECORD
  5
88
102
{ACAD_REACTORS
330
16
102
}
330
16
100
AcDbXrecord
  1
현재 잠금
  1
*
  1
*
  1
*
 70
   257
  1
*
  1
*
  0
ENDSEC
  0
EOF
