  0
SECTION
  2
HEADER
  9
$ACADVER
  1
AC1014
  9
$ACADMAINTVER
 70
     9
  9
$DWGCODEPAGE
  3
ANSI_949
  9
$INSBASE
 10
0.0
 20
0.0
 30
0.0
  9
$EXTMIN
 10
-5.213482378487242
 20
-3.795221907315863
 30
-0.0015258207003583
  9
$EXTMAX
 10
328.4696592544932
 20
509.6738130098238
 30
0.0000000349246037
  9
$LIMMIN
 10
0.0
 20
0.0
  9
$LIMMAX
 10
420.0
 20
297.0
  9
$ORTHOMODE
 70
     0
  9
$REGENMODE
 70
     1
  9
$FILLMODE
 70
     1
  9
$QTEXTMODE
 70
     0
  9
$MIRRTEXT
 70
     0
  9
$DRAGMODE
 70
     2
  9
$LTSCALE
 40
0.2
  9
$OSMODE
 70
   567
  9
$ATTMODE
 70
     1
  9
$TEXTSIZE
 40
5.777225951253058
  9
$TRACEWID
 40
1.0
  9
$TEXTSTYLE
  7
STANDARD
  9
$CLAYER
  8
0
  9
$CELTYPE
  6
BYLAYER
  9
$CECOLOR
 62
   256
  9
$CELTSCALE
 40
1.0
  9
$DELOBJ
 70
     1
  9
$DISPSILH
 70
     0
  9
$DIMSCALE
 40
1.0
  9
$DIMASZ
 40
3.0
  9
$DIMEXO
 40
1.0
  9
$DIMDLI
 40
10.0
  9
$DIMRND
 40
0.0
  9
$DIMDLE
 40
0.0
  9
$DIMEXE
 40
0.6
  9
$DIMTP
 40
0.0
  9
$DIMTM
 40
0.0
  9
$DIMTXT
 40
3.5
  9
$DIMCEN
 40
0.09
  9
$DIMTSZ
 40
0.0
  9
$DIMTOL
 70
     0
  9
$DIMLIM
 70
     0
  9
$DIMTIH
 70
     0
  9
$DIMTOH
 70
     0
  9
$DIMSE1
 70
     0
  9
$DIMSE2
 70
     0
  9
$DIMTAD
 70
     1
  9
$DIMZIN
 70
     8
  9
$DIMBLK
  1

  9
$DIMASO
 70
     1
  9
$DIMSHO
 70
     1
  9
$DIMPOST
  1

  9
$DIMAPOST
  1

  9
$DIMALT
 70
     0
  9
$DIMALTD
 70
     2
  9
$DIMALTF
 40
25.4
  9
$DIMLFAC
 40
1.0
  9
$DIMTOFL
 70
     1
  9
$DIMTVP
 40
0.0
  9
$DIMTIX
 70
     1
  9
$DIMSOXD
 70
     0
  9
$DIMSAH
 70
     0
  9
$DIMBLK1
  1

  9
$DIMBLK2
  1

  9
$DIMSTYLE
  2
1_1_2
  9
$DIMCLRD
 70
   123
  9
$DIMCLRE
 70
   123
  9
$DIMCLRT
 70
     3
  9
$DIMTFAC
 40
1.0
  9
$DIMGAP
 40
1.0
  9
$DIMJUST
 70
     0
  9
$DIMSD1
 70
     0
  9
$DIMSD2
 70
     0
  9
$DIMTOLJ
 70
     1
  9
$DIMTZIN
 70
     0
  9
$DIMALTZ
 70
     0
  9
$DIMALTTZ
 70
     0
  9
$DIMFIT
 70
     0
  9
$DIMUPT
 70
     1
  9
$DIMUNIT
 70
     2
  9
$DIMDEC
 70
     2
  9
$DIMTDEC
 70
     2
  9
$DIMALTU
 70
     2
  9
$DIMALTTD
 70
     2
  9
$DIMTXSTY
  7
STANDARD
  9
$DIMAUNIT
 70
     1
  9
$LUNITS
 70
     2
  9
$LUPREC
 70
     4
  9
$SKETCHINC
 40
1.0
  9
$FILLETRAD
 40
0.5
  9
$AUNITS
 70
     0
  9
$AUPREC
 70
     0
  9
$MENU
  1
.
  9
$ELEVATION
 40
0.0
  9
$PELEVATION
 40
0.0
  9
$THICKNESS
 40
0.0
  9
$LIMCHECK
 70
     0
  9
$BLIPMODE
 70
     1
  9
$CHAMFERA
 40
1.0
  9
$CHAMFERB
 40
1.0
  9
$CHAMFERC
 40
20.0
  9
$CHAMFERD
 40
0.0
  9
$SKPOLY
 70
     0
  9
$TDCREATE
 40
2452839.586179271
  9
$TDUPDATE
 40
2453376.719023784
  9
$TDINDWG
 40
11.1153335880
  9
$TDUSRTIMER
 40
11.1153335880
  9
$USRTIMER
 70
     1
  9
$ANGBASE
 50
0.0
  9
$ANGDIR
 70
     0
  9
$PDMODE
 70
     0
  9
$PDSIZE
 40
0.0
  9
$PLINEWID
 40
0.0
  9
$COORDS
 70
     2
  9
$SPLFRAME
 70
     0
  9
$SPLINETYPE
 70
     6
  9
$SPLINESEGS
 70
   800
  9
$ATTDIA
 70
     0
  9
$ATTREQ
 70
     1
  9
$HANDLING
 70
 22529
  9
$HANDSEED
  5
5C8
  9
$SURFTAB1
 70
     6
  9
$SURFTAB2
 70
     6
  9
$SURFTYPE
 70
     6
  9
$SURFU
 70
     6
  9
$SURFV
 70
     6
  9
$UCSNAME
  2

  9
$UCSORG
 10
0.0
 20
0.0
 30
0.0
  9
$UCSXDIR
 10
1.0
 20
0.0
 30
0.0
  9
$UCSYDIR
 10
0.0
 20
1.0
 30
0.0
  9
$PUCSNAME
  2

  9
$PUCSORG
 10
0.0
 20
0.0
 30
0.0
  9
$PUCSXDIR
 10
1.0
 20
0.0
 30
0.0
  9
$PUCSYDIR
 10
0.0
 20
1.0
 30
0.0
  9
$USERI1
 70
     0
  9
$USERI2
 70
     0
  9
$USERI3
 70
     0
  9
$USERI4
 70
     0
  9
$USERI5
 70
     0
  9
$USERR1
 40
0.0
  9
$USERR2
 40
0.0
  9
$USERR3
 40
0.0
  9
$USERR4
 40
0.0
  9
$USERR5
 40
0.0
  9
$WORLDVIEW
 70
     1
  9
$SHADEDGE
 70
     3
  9
$SHADEDIF
 70
    70
  9
$TILEMODE
 70
     1
  9
$MAXACTVP
 70
    48
  9
$PINSBASE
 10
0.0
 20
0.0
 30
0.0
  9
$PLIMCHECK
 70
     0
  9
$PEXTMIN
 10
0.0
 20
0.0
 30
0.0
  9
$PEXTMAX
 10
0.0
 20
0.0
 30
0.0
  9
$PLIMMIN
 10
0.0
 20
0.0
  9
$PLIMMAX
 10
12.0
 20
9.0
  9
$UNITMODE
 70
     0
  9
$VISRETAIN
 70
     1
  9
$PLINEGEN
 70
     0
  9
$PSLTSCALE
 70
     1
  9
$TREEDEPTH
 70
  3020
  9
$PICKSTYLE
 70
     0
  9
$CMLSTYLE
  2
STANDARD
  9
$CMLJUST
 70
     0
  9
$CMLSCALE
 40
20.0
  9
$PROXYGRAPHICS
 70
     1
  9
$MEASUREMENT
 70
     1
  0
ENDSEC
  0
SECTION
  2
CLASSES
  0
CLASS
  1
ACDBDICTIONARYWDFLT
  2
AcDbDictionaryWithDefault
  3
AutoCAD 2000
 90
        0
280
     0
281
     0
  0
CLASS
  1
ACDBPLACEHOLDER
  2
AcDbPlaceHolder
  3
AutoCAD 2000
 90
        0
280
     0
281
     0
  0
CLASS
  1
LAYOUT
  2
AcDbLayout
  3
AutoCAD 2000
 90
        0
280
     0
281
     0
  0
CLASS
  1
DICTIONARYVAR
  2
AcDbDictionaryVar
  3
AutoCAD 2000
 90
        0
280
     0
281
     0
  0
CLASS
  1
DIMASSOC
  2
AcDbDimAssoc
  3
"AcDbDimAssoc|Product Desc:     AcDim ARX App For Dimension|Company:          Autodesk, Inc.|WEB Address:      www.autodesk.com"
 90
        0
280
     0
281
     0
  0
CLASS
  1
LONG_TRANSACTION
  2
AcDbLongTransaction
  3
AutoCAD 2000
 90
        0
280
     0
281
     0
  0
CLASS
  1
LWPOLYLINE
  2
AcDbPolyline
  3
AutoCAD 2000
 90
        0
280
     0
281
     1
  0
CLASS
  1
HATCH
  2
AcDbHatch
  3
AutoCAD 2000
 90
        0
280
     0
281
     1
  0
CLASS
  1
XRECORD
  2
AcDbXrecord
  3
AutoCAD 2000
 90
        0
280
     0
281
     0
  0
CLASS
  1
LONG_TRANSACTION
  2
AcDbLongTransaction
  3
AutoCAD 2000
 90
        0
280
     0
281
     0
  0
CLASS
  1
LWPOLYLINE
  2
AcDbPolyline
  3
AutoCAD 2000
 90
        0
280
     0
281
     1
  0
CLASS
  1
HATCH
  2
AcDbHatch
  3
AutoCAD 2000
 90
        0
280
     0
281
     1
  0
CLASS
  1
XRECORD
  2
AcDbXrecord
  3
AutoCAD 2000
 90
        0
280
     0
281
     0
  0
CLASS
  1
LONG_TRANSACTION
  2
AcDbLongTransaction
  3
AutoCAD 2000
 90
        0
280
     0
281
     0
  0
CLASS
  1
LWPOLYLINE
  2
AcDbPolyline
  3
AutoCAD 2000
 90
        0
280
     0
281
     1
  0
CLASS
  1
HATCH
  2
AcDbHatch
  3
AutoCAD 2000
 90
        0
280
     0
281
     1
  0
CLASS
  1
XRECORD
  2
AcDbXrecord
  3
AutoCAD 2000
 90
        0
280
     0
281
     0
  0
CLASS
  1
LONG_TRANSACTION
  2
AcDbLongTransaction
  3
AutoCAD 2000
 90
        0
280
     0
281
     0
  0
CLASS
  1
LWPOLYLINE
  2
AcDbPolyline
  3
AutoCAD 2000
 90
        0
280
     0
281
     1
  0
CLASS
  1
HATCH
  2
AcDbHatch
  3
AutoCAD 2000
 90
        0
280
     0
281
     1
  0
CLASS
  1
XRECORD
  2
AcDbXrecord
  3
AutoCAD 2000
 90
        0
280
     0
281
     0
  0
CLASS
  1
LONG_TRANSACTION
  2
AcDbLongTransaction
  3
AutoCAD 2000
 90
        0
280
     0
281
     0
  0
CLASS
  1
LWPOLYLINE
  2
AcDbPolyline
  3
AutoCAD 2000
 90
        0
280
     0
281
     1
  0
CLASS
  1
HATCH
  2
AcDbHatch
  3
AutoCAD 2000
 90
        0
280
     0
281
     1
  0
CLASS
  1
XRECORD
  2
AcDbXrecord
  3
AutoCAD 2000
 90
        0
280
     0
281
     0
  0
CLASS
  1
LONG_TRANSACTION
  2
AcDbLongTransaction
  3
AutoCAD 2000
 90
        0
280
     0
281
     0
  0
CLASS
  1
LWPOLYLINE
  2
AcDbPolyline
  3
AutoCAD 2000
 90
        0
280
     0
281
     1
  0
CLASS
  1
HATCH
  2
AcDbHatch
  3
AutoCAD 2000
 90
        0
280
     0
281
     1
  0
CLASS
  1
XRECORD
  2
AcDbXrecord
  3
AutoCAD 2000
 90
        0
280
     0
281
     0
  0
CLASS
  1
LONG_TRANSACTION
  2
AcDbLongTransaction
  3
AutoCAD 2000
 90
        0
280
     0
281
     0
  0
CLASS
  1
LWPOLYLINE
  2
AcDbPolyline
  3
AutoCAD 2000
 90
        0
280
     0
281
     1
  0
CLASS
  1
HATCH
  2
AcDbHatch
  3
AutoCAD 2000
 90
        0
280
     0
281
     1
  0
CLASS
  1
XRECORD
  2
AcDbXrecord
  3
AutoCAD 2000
 90
        0
280
     0
281
     0
  0
CLASS
  1
LONG_TRANSACTION
  2
AcDbLongTransaction
  3
AutoCAD 2000
 90
        0
280
     0
281
     0
  0
CLASS
  1
LWPOLYLINE
  2
AcDbPolyline
  3
AutoCAD 2000
 90
        0
280
     0
281
     1
  0
CLASS
  1
HATCH
  2
AcDbHatch
  3
AutoCAD 2000
 90
        0
280
     0
281
     1
  0
CLASS
  1
XRECORD
  2
AcDbXrecord
  3
AutoCAD 2000
 90
        0
280
     0
281
     0
  0
CLASS
  1
LONG_TRANSACTION
  2
AcDbLongTransaction
  3
AutoCAD 2000
 90
        0
280
     0
281
     0
  0
CLASS
  1
LWPOLYLINE
  2
AcDbPolyline
  3
AutoCAD 2000
 90
        0
280
     0
281
     1
  0
CLASS
  1
HATCH
  2
AcDbHatch
  3
AutoCAD 2000
 90
        0
280
     0
281
     1
  0
CLASS
  1
XRECORD
  2
AcDbXrecord
  3
AutoCAD 2000
 90
        0
280
     0
281
     0
  0
CLASS
  1
LONG_TRANSACTION
  2
AcDbLongTransaction
  3
AutoCAD 2000
 90
        0
280
     0
281
     0
  0
CLASS
  1
LWPOLYLINE
  2
AcDbPolyline
  3
AutoCAD 2000
 90
        0
280
     0
281
     1
  0
CLASS
  1
HATCH
  2
AcDbHatch
  3
AutoCAD 2000
 90
        0
280
     0
281
     1
  0
CLASS
  1
XRECORD
  2
AcDbXrecord
  3
AutoCAD 2000
 90
        0
280
     0
281
     0
  0
CLASS
  1
LONG_TRANSACTION
  2
AcDbLongTransaction
  3
AutoCAD 2000
 90
        0
280
     0
281
     0
  0
CLASS
  1
LWPOLYLINE
  2
AcDbPolyline
  3
AutoCAD 2000
 90
        0
280
     0
281
     1
  0
CLASS
  1
HATCH
  2
AcDbHatch
  3
AutoCAD 2000
 90
        0
280
     0
281
     1
  0
CLASS
  1
XRECORD
  2
AcDbXrecord
  3
AutoCAD 2000
 90
        0
280
     0
281
     0
  0
CLASS
  1
LONG_TRANSACTION
  2
AcDbLongTransaction
  3
AutoCAD 2000
 90
        0
280
     0
281
     0
  0
CLASS
  1
LWPOLYLINE
  2
AcDbPolyline
  3
AutoCAD 2000
 90
        0
280
     0
281
     1
  0
CLASS
  1
HATCH
  2
AcDbHatch
  3
AutoCAD 2000
 90
        0
280
     0
281
     1
  0
CLASS
  1
XRECORD
  2
AcDbXrecord
  3
AutoCAD 2000
 90
        0
280
     0
281
     0
  0
CLASS
  1
LONG_TRANSACTION
  2
AcDbLongTransaction
  3
AutoCAD 2000
 90
        0
280
     0
281
     0
  0
CLASS
  1
LWPOLYLINE
  2
AcDbPolyline
  3
AutoCAD 2000
 90
        0
280
     0
281
     1
  0
CLASS
  1
HATCH
  2
AcDbHatch
  3
AutoCAD 2000
 90
        0
280
     0
281
     1
  0
CLASS
  1
XRECORD
  2
AcDbXrecord
  3
AutoCAD 2000
 90
        0
280
     0
281
     0
  0
CLASS
  1
LONG_TRANSACTION
  2
AcDbLongTransaction
  3
AutoCAD 2000
 90
        0
280
     0
281
     0
  0
CLASS
  1
LWPOLYLINE
  2
AcDbPolyline
  3
AutoCAD 2000
 90
        0
280
     0
281
     1
  0
CLASS
  1
HATCH
  2
AcDbHatch
  3
AutoCAD 2000
 90
        0
280
     0
281
     1
  0
CLASS
  1
XRECORD
  2
AcDbXrecord
  3
AutoCAD 2000
 90
        0
280
     0
281
     0
  0
CLASS
  1
LONG_TRANSACTION
  2
AcDbLongTransaction
  3
AutoCAD 2000
 90
        0
280
     0
281
     0
  0
CLASS
  1
LWPOLYLINE
  2
AcDbPolyline
  3
AutoCAD 2000
 90
        0
280
     0
281
     1
  0
CLASS
  1
HATCH
  2
AcDbHatch
  3
AutoCAD 2000
 90
        0
280
     0
281
     1
  0
CLASS
  1
XRECORD
  2
AcDbXrecord
  3
AutoCAD 2000
 90
        0
280
     0
281
     0
  0
CLASS
  1
LONG_TRANSACTION
  2
AcDbLongTransaction
  3
AutoCAD 2000
 90
        0
280
     0
281
     0
  0
CLASS
  1
LWPOLYLINE
  2
AcDbPolyline
  3
AutoCAD 2000
 90
        0
280
     0
281
     1
  0
CLASS
  1
HATCH
  2
AcDbHatch
  3
AutoCAD 2000
 90
        0
280
     0
281
     1
  0
CLASS
  1
XRECORD
  2
AcDbXrecord
  3
AutoCAD 2000
 90
        0
280
     0
281
     0
  0
CLASS
  1
LONG_TRANSACTION
  2
AcDbLongTransaction
  3
AutoCAD 2000
 90
        0
280
     0
281
     0
  0
CLASS
  1
LWPOLYLINE
  2
AcDbPolyline
  3
AutoCAD 2000
 90
        0
280
     0
281
     1
  0
CLASS
  1
HATCH
  2
AcDbHatch
  3
AutoCAD 2000
 90
        0
280
     0
281
     1
  0
CLASS
  1
XRECORD
  2
AcDbXrecord
  3
AutoCAD 2000
 90
        0
280
     0
281
     0
  0
CLASS
  1
LONG_TRANSACTION
  2
AcDbLongTransaction
  3
AutoCAD 2000
 90
        0
280
     0
281
     0
  0
CLASS
  1
LWPOLYLINE
  2
AcDbPolyline
  3
AutoCAD 2000
 90
        0
280
     0
281
     1
  0
CLASS
  1
HATCH
  2
AcDbHatch
  3
AutoCAD 2000
 90
        0
280
     0
281
     1
  0
CLASS
  1
XRECORD
  2
AcDbXrecord
  3
AutoCAD 2000
 90
        0
280
     0
281
     0
  0
CLASS
  1
LONG_TRANSACTION
  2
AcDbLongTransaction
  3
AutoCAD 2000
 90
        0
280
     0
281
     0
  0
CLASS
  1
LWPOLYLINE
  2
AcDbPolyline
  3
AutoCAD 2000
 90
        0
280
     0
281
     1
  0
CLASS
  1
HATCH
  2
AcDbHatch
  3
AutoCAD 2000
 90
        0
280
     0
281
     1
  0
CLASS
  1
XRECORD
  2
AcDbXrecord
  3
AutoCAD 2000
 90
        0
280
     0
281
     0
  0
CLASS
  1
LONG_TRANSACTION
  2
AcDbLongTransaction
  3
AutoCAD 2000
 90
        0
280
     0
281
     0
  0
CLASS
  1
LWPOLYLINE
  2
AcDbPolyline
  3
AutoCAD 2000
 90
        0
280
     0
281
     1
  0
CLASS
  1
HATCH
  2
AcDbHatch
  3
AutoCAD 2000
 90
        0
280
     0
281
     1
  0
CLASS
  1
XRECORD
  2
AcDbXrecord
  3
AutoCAD 2000
 90
        0
280
     0
281
     0
  0
CLASS
  1
LONG_TRANSACTION
  2
AcDbLongTransaction
  3
AutoCAD 2000
 90
        0
280
     0
281
     0
  0
CLASS
  1
LWPOLYLINE
  2
AcDbPolyline
  3
AutoCAD 2000
 90
        0
280
     0
281
     1
  0
CLASS
  1
HATCH
  2
AcDbHatch
  3
AutoCAD 2000
 90
        0
280
     0
281
     1
  0
CLASS
  1
XRECORD
  2
AcDbXrecord
  3
AutoCAD 2000
 90
        0
280
     0
281
     0
  0
CLASS
  1
LONG_TRANSACTION
  2
AcDbLongTransaction
  3
AutoCAD 2000
 90
        0
280
     0
281
     0
  0
CLASS
  1
LWPOLYLINE
  2
AcDbPolyline
  3
AutoCAD 2000
 90
        0
280
     0
281
     1
  0
CLASS
  1
HATCH
  2
AcDbHatch
  3
AutoCAD 2000
 90
        0
280
     0
281
     1
  0
CLASS
  1
XRECORD
  2
AcDbXrecord
  3
AutoCAD 2000
 90
        0
280
     0
281
     0
  0
CLASS
  1
LONG_TRANSACTION
  2
AcDbLongTransaction
  3
AutoCAD 2000
 90
        0
280
     0
281
     0
  0
CLASS
  1
LWPOLYLINE
  2
AcDbPolyline
  3
AutoCAD 2000
 90
        0
280
     0
281
     1
  0
CLASS
  1
HATCH
  2
AcDbHatch
  3
AutoCAD 2000
 90
        0
280
     0
281
     1
  0
CLASS
  1
XRECORD
  2
AcDbXrecord
  3
AutoCAD 2000
 90
        0
280
     0
281
     0
  0
CLASS
  1
LONG_TRANSACTION
  2
AcDbLongTransaction
  3
AutoCAD 2000
 90
        0
280
     0
281
     0
  0
CLASS
  1
LWPOLYLINE
  2
AcDbPolyline
  3
AutoCAD 2000
 90
        0
280
     0
281
     1
  0
CLASS
  1
HATCH
  2
AcDbHatch
  3
AutoCAD 2000
 90
        0
280
     0
281
     1
  0
CLASS
  1
XRECORD
  2
AcDbXrecord
  3
AutoCAD 2000
 90
        0
280
     0
281
     0
  0
CLASS
  1
LONG_TRANSACTION
  2
AcDbLongTransaction
  3
AutoCAD 2000
 90
        0
280
     0
281
     0
  0
CLASS
  1
LWPOLYLINE
  2
AcDbPolyline
  3
AutoCAD 2000
 90
        0
280
     0
281
     1
  0
CLASS
  1
HATCH
  2
AcDbHatch
  3
AutoCAD 2000
 90
        0
280
     0
281
     1
  0
CLASS
  1
XRECORD
  2
AcDbXrecord
  3
AutoCAD 2000
 90
        0
280
     0
281
     0
  0
CLASS
  1
LONG_TRANSACTION
  2
AcDbLongTransaction
  3
AutoCAD 2000
 90
        0
280
     0
281
     0
  0
CLASS
  1
LWPOLYLINE
  2
AcDbPolyline
  3
AutoCAD 2000
 90
        0
280
     0
281
     1
  0
CLASS
  1
HATCH
  2
AcDbHatch
  3
AutoCAD 2000
 90
        0
280
     0
281
     1
  0
CLASS
  1
XRECORD
  2
AcDbXrecord
  3
AutoCAD 2000
 90
        0
280
     0
281
     0
  0
CLASS
  1
LONG_TRANSACTION
  2
AcDbLongTransaction
  3
AutoCAD 2000
 90
        0
280
     0
281
     0
  0
CLASS
  1
LWPOLYLINE
  2
AcDbPolyline
  3
AutoCAD 2000
 90
        0
280
     0
281
     1
  0
CLASS
  1
HATCH
  2
AcDbHatch
  3
AutoCAD 2000
 90
        0
280
     0
281
     1
  0
CLASS
  1
XRECORD
  2
AcDbXrecord
  3
AutoCAD 2000
 90
        0
280
     0
281
     0
  0
CLASS
  1
LONG_TRANSACTION
  2
AcDbLongTransaction
  3
AutoCAD 2000
 90
        0
280
     0
281
     0
  0
CLASS
  1
LWPOLYLINE
  2
AcDbPolyline
  3
AutoCAD 2000
 90
        0
280
     0
281
     1
  0
CLASS
  1
HATCH
  2
AcDbHatch
  3
AutoCAD 2000
 90
        0
280
     0
281
     1
  0
CLASS
  1
XRECORD
  2
AcDbXrecord
  3
AutoCAD 2000
 90
        0
280
     0
281
     0
  0
CLASS
  1
LONG_TRANSACTION
  2
AcDbLongTransaction
  3
AutoCAD 2000
 90
        0
280
     0
281
     0
  0
CLASS
  1
LWPOLYLINE
  2
AcDbPolyline
  3
AutoCAD 2000
 90
        0
280
     0
281
     1
  0
CLASS
  1
HATCH
  2
AcDbHatch
  3
AutoCAD 2000
 90
        0
280
     0
281
     1
  0
CLASS
  1
XRECORD
  2
AcDbXrecord
  3
AutoCAD 2000
 90
        0
280
     0
281
     0
  0
CLASS
  1
LONG_TRANSACTION
  2
AcDbLongTransaction
  3
AutoCAD 2000
 90
        0
280
     0
281
     0
  0
CLASS
  1
LWPOLYLINE
  2
AcDbPolyline
  3
AutoCAD 2000
 90
        0
280
     0
281
     1
  0
CLASS
  1
HATCH
  2
AcDbHatch
  3
AutoCAD 2000
 90
        0
280
     0
281
     1
  0
CLASS
  1
XRECORD
  2
AcDbXrecord
  3
AutoCAD 2000
 90
        0
280
     0
281
     0
  0
CLASS
  1
LONG_TRANSACTION
  2
AcDbLongTransaction
  3
AutoCAD 2000
 90
        0
280
     0
281
     0
  0
CLASS
  1
LWPOLYLINE
  2
AcDbPolyline
  3
AutoCAD 2000
 90
        0
280
     0
281
     1
  0
CLASS
  1
HATCH
  2
AcDbHatch
  3
AutoCAD 2000
 90
        0
280
     0
281
     1
  0
CLASS
  1
XRECORD
  2
AcDbXrecord
  3
AutoCAD 2000
 90
        0
280
     0
281
     0
  0
CLASS
  1
LONG_TRANSACTION
  2
AcDbLongTransaction
  3
AutoCAD 2000
 90
        0
280
     0
281
     0
  0
CLASS
  1
LWPOLYLINE
  2
AcDbPolyline
  3
AutoCAD 2000
 90
        0
280
     0
281
     1
  0
CLASS
  1
HATCH
  2
AcDbHatch
  3
AutoCAD 2000
 90
        0
280
     0
281
     1
  0
CLASS
  1
XRECORD
  2
AcDbXrecord
  3
AutoCAD 2000
 90
        0
280
     0
281
     0
  0
CLASS
  1
LONG_TRANSACTION
  2
AcDbLongTransaction
  3
AutoCAD 2000
 90
        0
280
     0
281
     0
  0
CLASS
  1
LWPOLYLINE
  2
AcDbPolyline
  3
AutoCAD 2000
 90
        0
280
     0
281
     1
  0
CLASS
  1
HATCH
  2
AcDbHatch
  3
AutoCAD 2000
 90
        0
280
     0
281
     1
  0
CLASS
  1
XRECORD
  2
AcDbXrecord
  3
AutoCAD 2000
 90
        0
280
     0
281
     0
  0
CLASS
  1
LONG_TRANSACTION
  2
AcDbLongTransaction
  3
AutoCAD 2000
 90
        0
280
     0
281
     0
  0
CLASS
  1
LWPOLYLINE
  2
AcDbPolyline
  3
AutoCAD 2000
 90
        0
280
     0
281
     1
  0
CLASS
  1
HATCH
  2
AcDbHatch
  3
AutoCAD 2000
 90
        0
280
     0
281
     1
  0
CLASS
  1
XRECORD
  2
AcDbXrecord
  3
AutoCAD 2000
 90
        0
280
     0
281
     0
  0
CLASS
  1
LONG_TRANSACTION
  2
AcDbLongTransaction
  3
AutoCAD 2000
 90
        0
280
     0
281
     0
  0
CLASS
  1
LWPOLYLINE
  2
AcDbPolyline
  3
AutoCAD 2000
 90
        0
280
     0
281
     1
  0
CLASS
  1
HATCH
  2
AcDbHatch
  3
AutoCAD 2000
 90
        0
280
     0
281
     1
  0
CLASS
  1
XRECORD
  2
AcDbXrecord
  3
AutoCAD 2000
 90
        0
280
     0
281
     0
  0
CLASS
  1
LONG_TRANSACTION
  2
AcDbLongTransaction
  3
AutoCAD 2000
 90
        0
280
     0
281
     0
  0
CLASS
  1
LWPOLYLINE
  2
AcDbPolyline
  3
AutoCAD 2000
 90
        0
280
     0
281
     1
  0
CLASS
  1
HATCH
  2
AcDbHatch
  3
AutoCAD 2000
 90
        0
280
     0
281
     1
  0
CLASS
  1
XRECORD
  2
AcDbXrecord
  3
AutoCAD 2000
 90
        0
280
     0
281
     0
  0
CLASS
  1
LONG_TRANSACTION
  2
AcDbLongTransaction
  3
AutoCAD 2000
 90
        0
280
     0
281
     0
  0
CLASS
  1
LWPOLYLINE
  2
AcDbPolyline
  3
AutoCAD 2000
 90
        0
280
     0
281
     1
  0
CLASS
  1
HATCH
  2
AcDbHatch
  3
AutoCAD 2000
 90
        0
280
     0
281
     1
  0
CLASS
  1
XRECORD
  2
AcDbXrecord
  3
AutoCAD 2000
 90
        0
280
     0
281
     0
  0
CLASS
  1
LONG_TRANSACTION
  2
AcDbLongTransaction
  3
AutoCAD 2000
 90
        0
280
     0
281
     0
  0
CLASS
  1
LWPOLYLINE
  2
AcDbPolyline
  3
AutoCAD 2000
 90
        0
280
     0
281
     1
  0
CLASS
  1
HATCH
  2
AcDbHatch
  3
AutoCAD 2000
 90
        0
280
     0
281
     1
  0
CLASS
  1
XRECORD
  2
AcDbXrecord
  3
AutoCAD 2000
 90
        0
280
     0
281
     0
  0
CLASS
  1
LONG_TRANSACTION
  2
AcDbLongTransaction
  3
AutoCAD 2000
 90
        0
280
     0
281
     0
  0
CLASS
  1
LWPOLYLINE
  2
AcDbPolyline
  3
AutoCAD 2000
 90
        0
280
     0
281
     1
  0
CLASS
  1
HATCH
  2
AcDbHatch
  3
AutoCAD 2000
 90
        0
280
     0
281
     1
  0
CLASS
  1
XRECORD
  2
AcDbXrecord
  3
AutoCAD 2000
 90
        0
280
     0
281
     0
  0
CLASS
  1
LONG_TRANSACTION
  2
AcDbLongTransaction
  3
AutoCAD 2000
 90
        0
280
     0
281
     0
  0
CLASS
  1
LWPOLYLINE
  2
AcDbPolyline
  3
AutoCAD 2000
 90
        0
280
     0
281
     1
  0
CLASS
  1
HATCH
  2
AcDbHatch
  3
AutoCAD 2000
 90
        0
280
     0
281
     1
  0
CLASS
  1
XRECORD
  2
AcDbXrecord
  3
AutoCAD 2000
 90
        0
280
     0
281
     0
  0
CLASS
  1
LONG_TRANSACTION
  2
AcDbLongTransaction
  3
AutoCAD 2000
 90
        0
280
     0
281
     0
  0
CLASS
  1
LWPOLYLINE
  2
AcDbPolyline
  3
AutoCAD 2000
 90
        0
280
     0
281
     1
  0
CLASS
  1
HATCH
  2
AcDbHatch
  3
AutoCAD 2000
 90
        0
280
     0
281
     1
  0
CLASS
  1
XRECORD
  2
AcDbXrecord
  3
AutoCAD 2000
 90
        0
280
     0
281
     0
  0
CLASS
  1
LONG_TRANSACTION
  2
AcDbLongTransaction
  3
AutoCAD 2000
 90
        0
280
     0
281
     0
  0
CLASS
  1
LWPOLYLINE
  2
AcDbPolyline
  3
AutoCAD 2000
 90
        0
280
     0
281
     1
  0
CLASS
  1
HATCH
  2
AcDbHatch
  3
AutoCAD 2000
 90
        0
280
     0
281
     1
  0
CLASS
  1
XRECORD
  2
AcDbXrecord
  3
AutoCAD 2000
 90
        0
280
     0
281
     0
  0
CLASS
  1
LONG_TRANSACTION
  2
AcDbLongTransaction
  3
AutoCAD 2000
 90
        0
280
     0
281
     0
  0
CLASS
  1
LWPOLYLINE
  2
AcDbPolyline
  3
AutoCAD 2000
 90
        0
280
     0
281
     1
  0
CLASS
  1
HATCH
  2
AcDbHatch
  3
AutoCAD 2000
 90
        0
280
     0
281
     1
  0
CLASS
  1
XRECORD
  2
AcDbXrecord
  3
AutoCAD 2000
 90
        0
280
     0
281
     0
  0
CLASS
  1
LONG_TRANSACTION
  2
AcDbLongTransaction
  3
AutoCAD 2000
 90
        0
280
     0
281
     0
  0
CLASS
  1
LWPOLYLINE
  2
AcDbPolyline
  3
AutoCAD 2000
 90
        0
280
     0
281
     1
  0
CLASS
  1
HATCH
  2
AcDbHatch
  3
AutoCAD 2000
 90
        0
280
     0
281
     1
  0
CLASS
  1
XRECORD
  2
AcDbXrecord
  3
AutoCAD 2000
 90
        0
280
     0
281
     0
  0
CLASS
  1
LONG_TRANSACTION
  2
AcDbLongTransaction
  3
AutoCAD 2000
 90
        0
280
     0
281
     0
  0
CLASS
  1
LWPOLYLINE
  2
AcDbPolyline
  3
AutoCAD 2000
 90
        0
280
     0
281
     1
  0
CLASS
  1
HATCH
  2
AcDbHatch
  3
AutoCAD 2000
 90
        0
280
     0
281
     1
  0
CLASS
  1
XRECORD
  2
AcDbXrecord
  3
AutoCAD 2000
 90
        0
280
     0
281
     0
  0
CLASS
  1
LONG_TRANSACTION
  2
AcDbLongTransaction
  3
AutoCAD 2000
 90
        0
280
     0
281
     0
  0
CLASS
  1
LWPOLYLINE
  2
AcDbPolyline
  3
AutoCAD 2000
 90
        0
280
     0
281
     1
  0
CLASS
  1
HATCH
  2
AcDbHatch
  3
AutoCAD 2000
 90
        0
280
     0
281
     1
  0
CLASS
  1
XRECORD
  2
AcDbXrecord
  3
AutoCAD 2000
 90
        0
280
     0
281
     0
  0
CLASS
  1
LONG_TRANSACTION
  2
AcDbLongTransaction
  3
AutoCAD 2000
 90
        0
280
     0
281
     0
  0
CLASS
  1
LWPOLYLINE
  2
AcDbPolyline
  3
AutoCAD 2000
 90
        0
280
     0
281
     1
  0
CLASS
  1
HATCH
  2
AcDbHatch
  3
AutoCAD 2000
 90
        0
280
     0
281
     1
  0
CLASS
  1
XRECORD
  2
AcDbXrecord
  3
AutoCAD 2000
 90
        0
280
     0
281
     0
  0
CLASS
  1
LONG_TRANSACTION
  2
AcDbLongTransaction
  3
AutoCAD 2000
 90
        0
280
     0
281
     0
  0
CLASS
  1
LWPOLYLINE
  2
AcDbPolyline
  3
AutoCAD 2000
 90
        0
280
     0
281
     1
  0
CLASS
  1
HATCH
  2
AcDbHatch
  3
AutoCAD 2000
 90
        0
280
     0
281
     1
  0
CLASS
  1
XRECORD
  2
AcDbXrecord
  3
AutoCAD 2000
 90
        0
280
     0
281
     0
  0
CLASS
  1
LONG_TRANSACTION
  2
AcDbLongTransaction
  3
AutoCAD 2000
 90
        0
280
     0
281
     0
  0
CLASS
  1
LWPOLYLINE
  2
AcDbPolyline
  3
AutoCAD 2000
 90
        0
280
     0
281
     1
  0
CLASS
  1
HATCH
  2
AcDbHatch
  3
AutoCAD 2000
 90
        0
280
     0
281
     1
  0
CLASS
  1
XRECORD
  2
AcDbXrecord
  3
AutoCAD 2000
 90
        0
280
     0
281
     0
  0
CLASS
  1
LONG_TRANSACTION
  2
AcDbLongTransaction
  3
AutoCAD 2000
 90
        0
280
     0
281
     0
  0
CLASS
  1
LWPOLYLINE
  2
AcDbPolyline
  3
AutoCAD 2000
 90
        0
280
     0
281
     1
  0
CLASS
  1
HATCH
  2
AcDbHatch
  3
AutoCAD 2000
 90
        0
280
     0
281
     1
  0
CLASS
  1
XRECORD
  2
AcDbXrecord
  3
AutoCAD 2000
 90
        0
280
     0
281
     0
  0
CLASS
  1
LONG_TRANSACTION
  2
AcDbLongTransaction
  3
AutoCAD 2000
 90
        0
280
     0
281
     0
  0
CLASS
  1
LWPOLYLINE
  2
AcDbPolyline
  3
AutoCAD 2000
 90
        0
280
     0
281
     1
  0
CLASS
  1
HATCH
  2
AcDbHatch
  3
AutoCAD 2000
 90
        0
280
     0
281
     1
  0
CLASS
  1
XRECORD
  2
AcDbXrecord
  3
AutoCAD 2000
 90
        0
280
     0
281
     0
  0
CLASS
  1
LONG_TRANSACTION
  2
AcDbLongTransaction
  3
AutoCAD 2000
 90
        0
280
     0
281
     0
  0
CLASS
  1
LWPOLYLINE
  2
AcDbPolyline
  3
AutoCAD 2000
 90
        0
280
     0
281
     1
  0
CLASS
  1
HATCH
  2
AcDbHatch
  3
AutoCAD 2000
 90
        0
280
     0
281
     1
  0
CLASS
  1
XRECORD
  2
AcDbXrecord
  3
AutoCAD 2000
 90
        0
280
     0
281
     0
  0
CLASS
  1
LONG_TRANSACTION
  2
AcDbLongTransaction
  3
AutoCAD 2000
 90
        0
280
     0
281
     0
  0
CLASS
  1
LWPOLYLINE
  2
AcDbPolyline
  3
AutoCAD 2000
 90
        0
280
     0
281
     1
  0
CLASS
  1
HATCH
  2
AcDbHatch
  3
AutoCAD 2000
 90
        0
280
     0
281
     1
  0
CLASS
  1
XRECORD
  2
AcDbXrecord
  3
AutoCAD 2000
 90
        0
280
     0
281
     0
  0
CLASS
  1
LONG_TRANSACTION
  2
AcDbLongTransaction
  3
AutoCAD 2000
 90
        0
280
     0
281
     0
  0
CLASS
  1
LWPOLYLINE
  2
AcDbPolyline
  3
AutoCAD 2000
 90
        0
280
     0
281
     1
  0
CLASS
  1
HATCH
  2
AcDbHatch
  3
AutoCAD 2000
 90
        0
280
     0
281
     1
  0
CLASS
  1
XRECORD
  2
AcDbXrecord
  3
AutoCAD 2000
 90
        0
280
     0
281
     0
  0
CLASS
  1
LONG_TRANSACTION
  2
AcDbLongTransaction
  3
AutoCAD 2000
 90
        0
280
     0
281
     0
  0
CLASS
  1
LWPOLYLINE
  2
AcDbPolyline
  3
AutoCAD 2000
 90
        0
280
     0
281
     1
  0
CLASS
  1
HATCH
  2
AcDbHatch
  3
AutoCAD 2000
 90
        0
280
     0
281
     1
  0
CLASS
  1
XRECORD
  2
AcDbXrecord
  3
AutoCAD 2000
 90
        0
280
     0
281
     0
  0
CLASS
  1
LONG_TRANSACTION
  2
AcDbLongTransaction
  3
AutoCAD 2000
 90
        0
280
     0
281
     0
  0
CLASS
  1
LWPOLYLINE
  2
AcDbPolyline
  3
AutoCAD 2000
 90
        0
280
     0
281
     1
  0
CLASS
  1
HATCH
  2
AcDbHatch
  3
AutoCAD 2000
 90
        0
280
     0
281
     1
  0
CLASS
  1
XRECORD
  2
AcDbXrecord
  3
AutoCAD 2000
 90
        0
280
     0
281
     0
  0
CLASS
  1
LONG_TRANSACTION
  2
AcDbLongTransaction
  3
AutoCAD 2000
 90
        0
280
     0
281
     0
  0
CLASS
  1
LWPOLYLINE
  2
AcDbPolyline
  3
AutoCAD 2000
 90
        0
280
     0
281
     1
  0
CLASS
  1
HATCH
  2
AcDbHatch
  3
AutoCAD 2000
 90
        0
280
     0
281
     1
  0
CLASS
  1
XRECORD
  2
AcDbXrecord
  3
AutoCAD 2000
 90
        0
280
     0
281
     0
  0
CLASS
  1
LONG_TRANSACTION
  2
AcDbLongTransaction
  3
AutoCAD 2000
 90
        0
280
     0
281
     0
  0
CLASS
  1
LWPOLYLINE
  2
AcDbPolyline
  3
AutoCAD 2000
 90
        0
280
     0
281
     1
  0
CLASS
  1
HATCH
  2
AcDbHatch
  3
AutoCAD 2000
 90
        0
280
     0
281
     1
  0
CLASS
  1
XRECORD
  2
AcDbXrecord
  3
AutoCAD 2000
 90
        0
280
     0
281
     0
  0
CLASS
  1
LONG_TRANSACTION
  2
AcDbLongTransaction
  3
AutoCAD 2000
 90
        0
280
     0
281
     0
  0
CLASS
  1
LWPOLYLINE
  2
AcDbPolyline
  3
AutoCAD 2000
 90
        0
280
     0
281
     1
  0
CLASS
  1
HATCH
  2
AcDbHatch
  3
AutoCAD 2000
 90
        0
280
     0
281
     1
  0
CLASS
  1
XRECORD
  2
AcDbXrecord
  3
AutoCAD 2000
 90
        0
280
     0
281
     0
  0
CLASS
  1
LONG_TRANSACTION
  2
AcDbLongTransaction
  3
AutoCAD 2000
 90
        0
280
     0
281
     0
  0
CLASS
  1
LWPOLYLINE
  2
AcDbPolyline
  3
AutoCAD 2000
 90
        0
280
     0
281
     1
  0
CLASS
  1
HATCH
  2
AcDbHatch
  3
AutoCAD 2000
 90
        0
280
     0
281
     1
  0
CLASS
  1
XRECORD
  2
AcDbXrecord
  3
AutoCAD 2000
 90
        0
280
     0
281
     0
  0
CLASS
  1
LONG_TRANSACTION
  2
AcDbLongTransaction
  3
AutoCAD 2000
 90
        0
280
     0
281
     0
  0
CLASS
  1
LWPOLYLINE
  2
AcDbPolyline
  3
AutoCAD 2000
 90
        0
280
     0
281
     1
  0
CLASS
  1
HATCH
  2
AcDbHatch
  3
AutoCAD 2000
 90
        0
280
     0
281
     1
  0
CLASS
  1
XRECORD
  2
AcDbXrecord
  3
AutoCAD 2000
 90
        0
280
     0
281
     0
  0
CLASS
  1
LONG_TRANSACTION
  2
AcDbLongTransaction
  3
AutoCAD 2000
 90
        0
280
     0
281
     0
  0
CLASS
  1
LWPOLYLINE
  2
AcDbPolyline
  3
AutoCAD 2000
 90
        0
280
     0
281
     1
  0
CLASS
  1
HATCH
  2
AcDbHatch
  3
AutoCAD 2000
 90
        0
280
     0
281
     1
  0
CLASS
  1
XRECORD
  2
AcDbXrecord
  3
AutoCAD 2000
 90
        0
280
     0
281
     0
  0
CLASS
  1
LONG_TRANSACTION
  2
AcDbLongTransaction
  3
AutoCAD 2000
 90
        0
280
     0
281
     0
  0
CLASS
  1
LWPOLYLINE
  2
AcDbPolyline
  3
AutoCAD 2000
 90
        0
280
     0
281
     1
  0
CLASS
  1
HATCH
  2
AcDbHatch
  3
AutoCAD 2000
 90
        0
280
     0
281
     1
  0
CLASS
  1
XRECORD
  2
AcDbXrecord
  3
AutoCAD 2000
 90
        0
280
     0
281
     0
  0
CLASS
  1
LONG_TRANSACTION
  2
AcDbLongTransaction
  3
AutoCAD 2000
 90
        0
280
     0
281
     0
  0
CLASS
  1
LWPOLYLINE
  2
AcDbPolyline
  3
AutoCAD 2000
 90
        0
280
     0
281
     1
  0
CLASS
  1
HATCH
  2
AcDbHatch
  3
AutoCAD 2000
 90
        0
280
     0
281
     1
  0
CLASS
  1
XRECORD
  2
AcDbXrecord
  3
AutoCAD 2000
 90
        0
280
     0
281
     0
  0
CLASS
  1
LONG_TRANSACTION
  2
AcDbLongTransaction
  3
AutoCAD 2000
 90
        0
280
     0
281
     0
  0
CLASS
  1
LWPOLYLINE
  2
AcDbPolyline
  3
AutoCAD 2000
 90
        0
280
     0
281
     1
  0
CLASS
  1
HATCH
  2
AcDbHatch
  3
AutoCAD 2000
 90
        0
280
     0
281
     1
  0
CLASS
  1
XRECORD
  2
AcDbXrecord
  3
AutoCAD 2000
 90
        0
280
     0
281
     0
  0
CLASS
  1
LONG_TRANSACTION
  2
AcDbLongTransaction
  3
AutoCAD 2000
 90
        0
280
     0
281
     0
  0
CLASS
  1
LWPOLYLINE
  2
AcDbPolyline
  3
AutoCAD 2000
 90
        0
280
     0
281
     1
  0
CLASS
  1
HATCH
  2
AcDbHatch
  3
AutoCAD 2000
 90
        0
280
     0
281
     1
  0
CLASS
  1
XRECORD
  2
AcDbXrecord
  3
AutoCAD 2000
 90
        0
280
     0
281
     0
  0
CLASS
  1
LONG_TRANSACTION
  2
AcDbLongTransaction
  3
AutoCAD 2000
 90
        0
280
     0
281
     0
  0
CLASS
  1
LWPOLYLINE
  2
AcDbPolyline
  3
AutoCAD 2000
 90
        0
280
     0
281
     1
  0
CLASS
  1
HATCH
  2
AcDbHatch
  3
AutoCAD 2000
 90
        0
280
     0
281
     1
  0
CLASS
  1
XRECORD
  2
AcDbXrecord
  3
AutoCAD 2000
 90
        0
280
     0
281
     0
  0
CLASS
  1
LONG_TRANSACTION
  2
AcDbLongTransaction
  3
AutoCAD 2000
 90
        0
280
     0
281
     0
  0
CLASS
  1
LWPOLYLINE
  2
AcDbPolyline
  3
AutoCAD 2000
 90
        0
280
     0
281
     1
  0
CLASS
  1
HATCH
  2
AcDbHatch
  3
AutoCAD 2000
 90
        0
280
     0
281
     1
  0
CLASS
  1
XRECORD
  2
AcDbXrecord
  3
AutoCAD 2000
 90
        0
280
     0
281
     0
  0
CLASS
  1
LONG_TRANSACTION
  2
AcDbLongTransaction
  3
AutoCAD 2000
 90
        0
280
     0
281
     0
  0
CLASS
  1
LWPOLYLINE
  2
AcDbPolyline
  3
AutoCAD 2000
 90
        0
280
     0
281
     1
  0
CLASS
  1
HATCH
  2
AcDbHatch
  3
AutoCAD 2000
 90
        0
280
     0
281
     1
  0
CLASS
  1
XRECORD
  2
AcDbXrecord
  3
AutoCAD 2000
 90
        0
280
     0
281
     0
  0
CLASS
  1
LONG_TRANSACTION
  2
AcDbLongTransaction
  3
AutoCAD 2000
 90
        0
280
     0
281
     0
  0
CLASS
  1
LWPOLYLINE
  2
AcDbPolyline
  3
AutoCAD 2000
 90
        0
280
     0
281
     1
  0
CLASS
  1
HATCH
  2
AcDbHatch
  3
AutoCAD 2000
 90
        0
280
     0
281
     1
  0
CLASS
  1
XRECORD
  2
AcDbXrecord
  3
AutoCAD 2000
 90
        0
280
     0
281
     0
  0
CLASS
  1
LONG_TRANSACTION
  2
AcDbLongTransaction
  3
AutoCAD 2000
 90
        0
280
     0
281
     0
  0
CLASS
  1
LWPOLYLINE
  2
AcDbPolyline
  3
AutoCAD 2000
 90
        0
280
     0
281
     1
  0
CLASS
  1
HATCH
  2
AcDbHatch
  3
AutoCAD 2000
 90
        0
280
     0
281
     1
  0
CLASS
  1
XRECORD
  2
AcDbXrecord
  3
AutoCAD 2000
 90
        0
280
     0
281
     0
  0
CLASS
  1
LONG_TRANSACTION
  2
AcDbLongTransaction
  3
AutoCAD 2000
 90
        0
280
     0
281
     0
  0
CLASS
  1
LWPOLYLINE
  2
AcDbPolyline
  3
AutoCAD 2000
 90
        0
280
     0
281
     1
  0
CLASS
  1
HATCH
  2
AcDbHatch
  3
AutoCAD 2000
 90
        0
280
     0
281
     1
  0
CLASS
  1
XRECORD
  2
AcDbXrecord
  3
AutoCAD 2000
 90
        0
280
     0
281
     0
  0
CLASS
  1
LONG_TRANSACTION
  2
AcDbLongTransaction
  3
AutoCAD 2000
 90
        0
280
     0
281
     0
  0
CLASS
  1
LWPOLYLINE
  2
AcDbPolyline
  3
AutoCAD 2000
 90
        0
280
     0
281
     1
  0
CLASS
  1
HATCH
  2
AcDbHatch
  3
AutoCAD 2000
 90
        0
280
     0
281
     1
  0
CLASS
  1
XRECORD
  2
AcDbXrecord
  3
AutoCAD 2000
 90
        0
280
     0
281
     0
  0
CLASS
  1
LONG_TRANSACTION
  2
AcDbLongTransaction
  3
AutoCAD 2000
 90
        0
280
     0
281
     0
  0
CLASS
  1
LWPOLYLINE
  2
AcDbPolyline
  3
AutoCAD 2000
 90
        0
280
     0
281
     1
  0
CLASS
  1
HATCH
  2
AcDbHatch
  3
AutoCAD 2000
 90
        0
280
     0
281
     1
  0
CLASS
  1
XRECORD
  2
AcDbXrecord
  3
AutoCAD 2000
 90
        0
280
     0
281
     0
  0
CLASS
  1
LONG_TRANSACTION
  2
AcDbLongTransaction
  3
AutoCAD 2000
 90
        0
280
     0
281
     0
  0
CLASS
  1
LWPOLYLINE
  2
AcDbPolyline
  3
AutoCAD 2000
 90
        0
280
     0
281
     1
  0
CLASS
  1
HATCH
  2
AcDbHatch
  3
AutoCAD 2000
 90
        0
280
     0
281
     1
  0
CLASS
  1
XRECORD
  2
AcDbXrecord
  3
AutoCAD 2000
 90
        0
280
     0
281
     0
  0
CLASS
  1
LONG_TRANSACTION
  2
AcDbLongTransaction
  3
AutoCAD 2000
 90
        0
280
     0
281
     0
  0
CLASS
  1
LWPOLYLINE
  2
AcDbPolyline
  3
AutoCAD 2000
 90
        0
280
     0
281
     1
  0
CLASS
  1
HATCH
  2
AcDbHatch
  3
AutoCAD 2000
 90
        0
280
     0
281
     1
  0
CLASS
  1
XRECORD
  2
AcDbXrecord
  3
AutoCAD 2000
 90
        0
280
     0
281
     0
  0
CLASS
  1
LONG_TRANSACTION
  2
AcDbLongTransaction
  3
AutoCAD 2000
 90
        0
280
     0
281
     0
  0
CLASS
  1
LWPOLYLINE
  2
AcDbPolyline
  3
AutoCAD 2000
 90
        0
280
     0
281
     1
  0
CLASS
  1
HATCH
  2
AcDbHatch
  3
AutoCAD 2000
 90
        0
280
     0
281
     1
  0
CLASS
  1
XRECORD
  2
AcDbXrecord
  3
AutoCAD 2000
 90
        0
280
     0
281
     0
  0
CLASS
  1
LONG_TRANSACTION
  2
AcDbLongTransaction
  3
AutoCAD 2000
 90
        0
280
     0
281
     0
  0
CLASS
  1
LWPOLYLINE
  2
AcDbPolyline
  3
AutoCAD 2000
 90
        0
280
     0
281
     1
  0
CLASS
  1
HATCH
  2
AcDbHatch
  3
AutoCAD 2000
 90
        0
280
     0
281
     1
  0
CLASS
  1
XRECORD
  2
AcDbXrecord
  3
AutoCAD 2000
 90
        0
280
     0
281
     0
  0
CLASS
  1
LONG_TRANSACTION
  2
AcDbLongTransaction
  3
AutoCAD 2000
 90
        0
280
     0
281
     0
  0
CLASS
  1
LWPOLYLINE
  2
AcDbPolyline
  3
AutoCAD 2000
 90
        0
280
     0
281
     1
  0
CLASS
  1
HATCH
  2
AcDbHatch
  3
AutoCAD 2000
 90
        0
280
     0
281
     1
  0
CLASS
  1
XRECORD
  2
AcDbXrecord
  3
AutoCAD 2000
 90
        0
280
     0
281
     0
  0
CLASS
  1
LONG_TRANSACTION
  2
AcDbLongTransaction
  3
AutoCAD 2000
 90
        0
280
     0
281
     0
  0
CLASS
  1
LWPOLYLINE
  2
AcDbPolyline
  3
AutoCAD 2000
 90
        0
280
     0
281
     1
  0
CLASS
  1
HATCH
  2
AcDbHatch
  3
AutoCAD 2000
 90
        0
280
     0
281
     1
  0
CLASS
  1
XRECORD
  2
AcDbXrecord
  3
AutoCAD 2000
 90
        0
280
     0
281
     0
  0
CLASS
  1
LONG_TRANSACTION
  2
AcDbLongTransaction
  3
AutoCAD 2000
 90
        0
280
     0
281
     0
  0
CLASS
  1
LWPOLYLINE
  2
AcDbPolyline
  3
AutoCAD 2000
 90
        0
280
     0
281
     1
  0
CLASS
  1
HATCH
  2
AcDbHatch
  3
AutoCAD 2000
 90
        0
280
     0
281
     1
  0
CLASS
  1
XRECORD
  2
AcDbXrecord
  3
AutoCAD 2000
 90
        0
280
     0
281
     0
  0
CLASS
  1
LONG_TRANSACTION
  2
AcDbLongTransaction
  3
AutoCAD 2000
 90
        0
280
     0
281
     0
  0
CLASS
  1
LWPOLYLINE
  2
AcDbPolyline
  3
AutoCAD 2000
 90
        0
280
     0
281
     1
  0
CLASS
  1
HATCH
  2
AcDbHatch
  3
AutoCAD 2000
 90
        0
280
     0
281
     1
  0
CLASS
  1
XRECORD
  2
AcDbXrecord
  3
AutoCAD 2000
 90
        0
280
     0
281
     0
  0
CLASS
  1
LONG_TRANSACTION
  2
AcDbLongTransaction
  3
AutoCAD 2000
 90
        0
280
     0
281
     0
  0
CLASS
  1
LWPOLYLINE
  2
AcDbPolyline
  3
AutoCAD 2000
 90
        0
280
     0
281
     1
  0
CLASS
  1
HATCH
  2
AcDbHatch
  3
AutoCAD 2000
 90
        0
280
     0
281
     1
  0
CLASS
  1
XRECORD
  2
AcDbXrecord
  3
AutoCAD 2000
 90
        0
280
     0
281
     0
  0
CLASS
  1
LONG_TRANSACTION
  2
AcDbLongTransaction
  3
AutoCAD 2000
 90
        0
280
     0
281
     0
  0
CLASS
  1
LWPOLYLINE
  2
AcDbPolyline
  3
AutoCAD 2000
 90
        0
280
     0
281
     1
  0
CLASS
  1
HATCH
  2
AcDbHatch
  3
AutoCAD 2000
 90
        0
280
     0
281
     1
  0
CLASS
  1
XRECORD
  2
AcDbXrecord
  3
AutoCAD 2000
 90
        0
280
     0
281
     0
  0
CLASS
  1
LONG_TRANSACTION
  2
AcDbLongTransaction
  3
AutoCAD 2000
 90
        0
280
     0
281
     0
  0
CLASS
  1
LWPOLYLINE
  2
AcDbPolyline
  3
AutoCAD 2000
 90
        0
280
     0
281
     1
  0
CLASS
  1
HATCH
  2
AcDbHatch
  3
AutoCAD 2000
 90
        0
280
     0
281
     1
  0
CLASS
  1
XRECORD
  2
AcDbXrecord
  3
AutoCAD 2000
 90
        0
280
     0
281
     0
  0
CLASS
  1
LONG_TRANSACTION
  2
AcDbLongTransaction
  3
AutoCAD 2000
 90
        0
280
     0
281
     0
  0
CLASS
  1
LWPOLYLINE
  2
AcDbPolyline
  3
AutoCAD 2000
 90
        0
280
     0
281
     1
  0
CLASS
  1
HATCH
  2
AcDbHatch
  3
AutoCAD 2000
 90
        0
280
     0
281
     1
  0
CLASS
  1
XRECORD
  2
AcDbXrecord
  3
AutoCAD 2000
 90
        0
280
     0
281
     0
  0
CLASS
  1
LONG_TRANSACTION
  2
AcDbLongTransaction
  3
AutoCAD 2000
 90
        0
280
     0
281
     0
  0
CLASS
  1
LWPOLYLINE
  2
AcDbPolyline
  3
AutoCAD 2000
 90
        0
280
     0
281
     1
  0
CLASS
  1
HATCH
  2
AcDbHatch
  3
AutoCAD 2000
 90
        0
280
     0
281
     1
  0
CLASS
  1
XRECORD
  2
AcDbXrecord
  3
AutoCAD 2000
 90
        0
280
     0
281
     0
  0
CLASS
  1
LONG_TRANSACTION
  2
AcDbLongTransaction
  3
AutoCAD 2000
 90
        0
280
     0
281
     0
  0
CLASS
  1
LWPOLYLINE
  2
AcDbPolyline
  3
AutoCAD 2000
 90
        0
280
     0
281
     1
  0
CLASS
  1
HATCH
  2
AcDbHatch
  3
AutoCAD 2000
 90
        0
280
     0
281
     1
  0
CLASS
  1
XRECORD
  2
AcDbXrecord
  3
AutoCAD 2000
 90
        0
280
     0
281
     0
  0
CLASS
  1
LONG_TRANSACTION
  2
AcDbLongTransaction
  3
AutoCAD 2000
 90
        0
280
     0
281
     0
  0
CLASS
  1
LWPOLYLINE
  2
AcDbPolyline
  3
AutoCAD 2000
 90
        0
280
     0
281
     1
  0
CLASS
  1
HATCH
  2
AcDbHatch
  3
AutoCAD 2000
 90
        0
280
     0
281
     1
  0
CLASS
  1
XRECORD
  2
AcDbXrecord
  3
AutoCAD 2000
 90
        0
280
     0
281
     0
  0
CLASS
  1
LONG_TRANSACTION
  2
AcDbLongTransaction
  3
AutoCAD 2000
 90
        0
280
     0
281
     0
  0
CLASS
  1
LWPOLYLINE
  2
AcDbPolyline
  3
AutoCAD 2000
 90
        0
280
     0
281
     1
  0
CLASS
  1
HATCH
  2
AcDbHatch
  3
AutoCAD 2000
 90
        0
280
     0
281
     1
  0
CLASS
  1
XRECORD
  2
AcDbXrecord
  3
AutoCAD 2000
 90
        0
280
     0
281
     0
  0
CLASS
  1
LONG_TRANSACTION
  2
AcDbLongTransaction
  3
AutoCAD 2000
 90
        0
280
     0
281
     0
  0
CLASS
  1
LWPOLYLINE
  2
AcDbPolyline
  3
AutoCAD 2000
 90
        0
280
     0
281
     1
  0
CLASS
  1
HATCH
  2
AcDbHatch
  3
AutoCAD 2000
 90
        0
280
     0
281
     1
  0
CLASS
  1
XRECORD
  2
AcDbXrecord
  3
AutoCAD 2000
 90
        0
280
     0
281
     0
  0
CLASS
  1
LONG_TRANSACTION
  2
AcDbLongTransaction
  3
AutoCAD 2000
 90
        0
280
     0
281
     0
  0
CLASS
  1
LWPOLYLINE
  2
AcDbPolyline
  3
AutoCAD 2000
 90
        0
280
     0
281
     1
  0
CLASS
  1
HATCH
  2
AcDbHatch
  3
AutoCAD 2000
 90
        0
280
     0
281
     1
  0
CLASS
  1
XRECORD
  2
AcDbXrecord
  3
AutoCAD 2000
 90
        0
280
     0
281
     0
  0
CLASS
  1
LONG_TRANSACTION
  2
AcDbLongTransaction
  3
AutoCAD 2000
 90
        0
280
     0
281
     0
  0
CLASS
  1
LWPOLYLINE
  2
AcDbPolyline
  3
AutoCAD 2000
 90
        0
280
     0
281
     1
  0
CLASS
  1
HATCH
  2
AcDbHatch
  3
AutoCAD 2000
 90
        0
280
     0
281
     1
  0
CLASS
  1
XRECORD
  2
AcDbXrecord
  3
AutoCAD 2000
 90
        0
280
     0
281
     0
  0
CLASS
  1
LONG_TRANSACTION
  2
AcDbLongTransaction
  3
AutoCAD 2000
 90
        0
280
     0
281
     0
  0
CLASS
  1
LWPOLYLINE
  2
AcDbPolyline
  3
AutoCAD 2000
 90
        0
280
     0
281
     1
  0
CLASS
  1
HATCH
  2
AcDbHatch
  3
AutoCAD 2000
 90
        0
280
     0
281
     1
  0
CLASS
  1
XRECORD
  2
AcDbXrecord
  3
AutoCAD 2000
 90
        0
280
     0
281
     0
  0
CLASS
  1
LONG_TRANSACTION
  2
AcDbLongTransaction
  3
AutoCAD 2000
 90
        0
280
     0
281
     0
  0
CLASS
  1
LWPOLYLINE
  2
AcDbPolyline
  3
AutoCAD 2000
 90
        0
280
     0
281
     1
  0
CLASS
  1
HATCH
  2
AcDbHatch
  3
AutoCAD 2000
 90
        0
280
     0
281
     1
  0
CLASS
  1
XRECORD
  2
AcDbXrecord
  3
AutoCAD 2000
 90
        0
280
     0
281
     0
  0
CLASS
  1
LONG_TRANSACTION
  2
AcDbLongTransaction
  3
AutoCAD 2000
 90
        0
280
     0
281
     0
  0
CLASS
  1
LWPOLYLINE
  2
AcDbPolyline
  3
AutoCAD 2000
 90
        0
280
     0
281
     1
  0
CLASS
  1
HATCH
  2
AcDbHatch
  3
AutoCAD 2000
 90
        0
280
     0
281
     1
  0
CLASS
  1
XRECORD
  2
AcDbXrecord
  3
AutoCAD 2000
 90
        0
280
     0
281
     0
  0
CLASS
  1
LONG_TRANSACTION
  2
AcDbLongTransaction
  3
AutoCAD 2000
 90
        0
280
     0
281
     0
  0
CLASS
  1
LWPOLYLINE
  2
AcDbPolyline
  3
AutoCAD 2000
 90
        0
280
     0
281
     1
  0
CLASS
  1
HATCH
  2
AcDbHatch
  3
AutoCAD 2000
 90
        0
280
     0
281
     1
  0
CLASS
  1
XRECORD
  2
AcDbXrecord
  3
AutoCAD 2000
 90
        0
280
     0
281
     0
  0
CLASS
  1
LONG_TRANSACTION
  2
AcDbLongTransaction
  3
AutoCAD 2000
 90
        0
280
     0
281
     0
  0
CLASS
  1
LWPOLYLINE
  2
AcDbPolyline
  3
AutoCAD 2000
 90
        0
280
     0
281
     1
  0
CLASS
  1
HATCH
  2
AcDbHatch
  3
AutoCAD 2000
 90
        0
280
     0
281
     1
  0
CLASS
  1
XRECORD
  2
AcDbXrecord
  3
AutoCAD 2000
 90
        0
280
     0
281
     0
  0
CLASS
  1
LONG_TRANSACTION
  2
AcDbLongTransaction
  3
AutoCAD 2000
 90
        0
280
     0
281
     0
  0
CLASS
  1
LWPOLYLINE
  2
AcDbPolyline
  3
AutoCAD 2000
 90
        0
280
     0
281
     1
  0
CLASS
  1
HATCH
  2
AcDbHatch
  3
AutoCAD 2000
 90
        0
280
     0
281
     1
  0
CLASS
  1
XRECORD
  2
AcDbXrecord
  3
AutoCAD 2000
 90
        0
280
     0
281
     0
  0
CLASS
  1
LONG_TRANSACTION
  2
AcDbLongTransaction
  3
AutoCAD 2000
 90
        0
280
     0
281
     0
  0
CLASS
  1
LWPOLYLINE
  2
AcDbPolyline
  3
AutoCAD 2000
 90
        0
280
     0
281
     1
  0
CLASS
  1
HATCH
  2
AcDbHatch
  3
AutoCAD 2000
 90
        0
280
     0
281
     1
  0
CLASS
  1
XRECORD
  2
AcDbXrecord
  3
AutoCAD 2000
 90
        0
280
     0
281
     0
  0
ENDSEC
  0
SECTION
  2
TABLES
  0
TABLE
  2
VPORT
  5
92
330
0
100
AcDbSymbolTable
 70
     2
  0
VPORT
  5
5A3
330
92
100
AcDbSymbolTableRecord
100
AcDbViewportTableRecord
  2
*ACTIVE
 70
     0
 10
0.0
 20
0.0
 11
1.0
 21
1.0
 12
207.3932588107563
 22
252.9392955512539
 13
0.0
 23
0.0
 14
10.0
 24
10.0
 15
10.0
 25
10.0
 16
0.0
 26
0.0
 36
1.0
 17
0.0
 27
0.0
 37
0.0
 40
517.36386956885
 41
1.549367088607595
 42
50.0
 43
0.0
 44
0.0
 50
0.0
 51
0.0
 71
     0
 72
 10000
 73
     1
 74
     3
 75
     0
 76
     0
 77
     0
 78
     1
  0
ENDTAB
  0
TABLE
  2
LTYPE
  5
8D
330
0
100
AcDbSymbolTable
 70
     3
  0
LTYPE
  5
8E
330
8D
100
AcDbSymbolTableRecord
100
AcDbLinetypeTableRecord
  2
BYBLOCK
 70
     0
  3

 72
    65
 73
     0
 40
0.0
  0
LTYPE
  5
8F
330
8D
100
AcDbSymbolTableRecord
100
AcDbLinetypeTableRecord
  2
BYLAYER
 70
     0
  3

 72
    65
 73
     0
 40
0.0
  0
LTYPE
  5
A
330
8D
100
AcDbSymbolTableRecord
100
AcDbLinetypeTableRecord
  2
CONTINUOUS
 70
     0
  3
Solid line
 72
    65
 73
     0
 40
0.0
  0
LTYPE
  5
10D
330
8D
100
AcDbSymbolTableRecord
100
AcDbLinetypeTableRecord
  2
CENTER
 70
     0
  3
Center ____ _ ____ _ ____ _ ____ _ ____ _ ____
 72
    65
 73
     4
 40
50.8
 49
31.75
 74
     0
 49
-6.349999999999998
 74
     0
 49
6.349999999999998
 74
     0
 49
-6.349999999999998
 74
     0
  0
LTYPE
  5
224
330
8D
100
AcDbSymbolTableRecord
100
AcDbLinetypeTableRecord
  2
HIDDEN
 70
     0
  3
Hidden __ __ __ __ __ __ __ __ __ __ __ __ __ _
 72
    65
 73
     2
 40
9.524999999999996
 49
6.349999999999998
 74
     0
 49
-3.174999999999998
 74
     0
  0
ENDTAB
  0
TABLE
  2
LAYER
  5
14
102
{ACAD_XDICTIONARY
360
15
102
}
330
0
100
AcDbSymbolTable
 70
     7
  0
LAYER
  5
6
330
14
100
AcDbSymbolTableRecord
100
AcDbLayerTableRecord
  2
0
 70
     0
 62
     7
  6
CONTINUOUS
  0
LAYER
  5
130
330
14
100
AcDbSymbolTableRecord
100
AcDbLayerTableRecord
  2
3
 70
     0
 62
     3
  6
CONTINUOUS
  0
LAYER
  5
270
330
14
100
AcDbSymbolTableRecord
100
AcDbLayerTableRecord
  2
1
 70
     0
 62
     1
  6
CENTER
  0
LAYER
  5
A7
330
14
100
AcDbSymbolTableRecord
100
AcDbLayerTableRecord
  2
DEFPOINTS
 70
     0
 62
     7
  6
CONTINUOUS
  0
LAYER
  5
210
330
14
100
AcDbSymbolTableRecord
100
AcDbLayerTableRecord
  2
DIM
 70
     0
 62
     3
  6
CONTINUOUS
  0
LAYER
  5
10C
330
14
100
AcDbSymbolTableRecord
100
AcDbLayerTableRecord
  2
CEN
 70
     0
 62
     1
  6
CENTER
  0
LAYER
  5
141
330
14
100
AcDbSymbolTableRecord
100
AcDbLayerTableRecord
  2
2
 70
     0
 62
     2
  6
CONTINUOUS
  0
ENDTAB
  0
TABLE
  2
STYLE
  5
8A
330
0
100
AcDbSymbolTable
 70
     2
  0
STYLE
  5
8B
330
8A
100
AcDbSymbolTableRecord
100
AcDbTextStyleTableRecord
  2
STANDARD
 70
     0
 40
0.0
 41
1.0
 50
0.0
 71
     0
 42
5.777225951253058
  3
romans.shx
  4
whgtxt.shx
  0
STYLE
  5
275
330
8A
100
AcDbSymbolTableRecord
100
AcDbTextStyleTableRecord
  2
GHS
 70
     0
 40
0.0
 41
0.6
 50
0.0
 71
     0
 42
3.0
  3
ROMANS
  4
GHS
  0
ENDTAB
  0
TABLE
  2
VIEW
  5
90
330
0
100
AcDbSymbolTable
 70
     0
  0
ENDTAB
  0
TABLE
  2
UCS
  5
91
330
0
100
AcDbSymbolTable
 70
     0
  0
ENDTAB
  0
TABLE
  2
APPID
  5
94
330
0
100
AcDbSymbolTable
 70
     2
  0
APPID
  5
95
330
94
100
AcDbSymbolTableRecord
100
AcDbRegAppTableRecord
  2
ACAD
 70
     0
  0
APPID
  5
5C7
330
94
100
AcDbSymbolTableRecord
100
AcDbRegAppTableRecord
  2
CONTENTBLOCKICON
 70
     0
  0
ENDTAB
  0
TABLE
  2
DIMSTYLE
  5
96
330
0
100
AcDbSymbolTable
 70
     2
  0
DIMSTYLE
105
9E
102
{ACAD_REACTORS
330
2DF
330
30E
330
AC
330
19D
330
1AE
330
1BF
330
1D0
330
1DF
330
BB
330
9D
330
36D
330
35A
330
31B
330
34B
330
392
330
3A6
330
3B7
330
3C6
330
2FC
330
1EF
330
23A
330
122
330
FF
330
2B1
330
29D
330
155
330
F0
330
179
330
16C
330
247
330
227
330
DF
330
D0
330
10E
330
146
330
2C9
102
}
330
96
100
AcDbSymbolTableRecord
100
AcDbDimStyleTableRecord
  2
STANDARD
 70
     0
  3

  4

  5

  6

  7

 40
1.0
 41
2.5
 42
1.0
 43
10.0
 44
0.6
 45
0.0
 46
0.0
 47
0.0
 48
0.0
140
3.0
141
0.09
142
0.0
143
25.4
144
1.0
145
0.0
146
1.0
147
1.0
 71
     0
 72
     0
 73
     0
 74
     0
 75
     0
 76
     0
 77
     1
 78
     8
170
     0
171
     2
172
     1
173
     0
174
     1
175
     0
176
   123
177
   123
178
     3
270
     2
271
     2
272
     2
273
     2
274
     2
340
8B
275
     1
280
     0
281
     0
282
     0
283
     1
284
     0
285
     0
286
     0
287
     0
288
     1
  0
DIMSTYLE
105
9C
330
96
100
AcDbSymbolTableRecord
100
AcDbDimStyleTableRecord
  2
1_1_2
 70
     0
  3

  4

  5

  6

  7

 40
1.0
 41
3.0
 42
1.0
 43
10.0
 44
0.6
 45
0.0
 46
0.0
 47
0.0
 48
0.0
140
3.5
141
0.09
142
0.0
143
25.4
144
1.0
145
0.0
146
1.0
147
1.0
 71
     0
 72
     0
 73
     0
 74
     0
 75
     0
 76
     0
 77
     1
 78
     8
170
     0
171
     2
172
     1
173
     0
174
     1
175
     0
176
   123
177
   123
178
     3
270
     2
271
     2
272
     2
273
     2
274
     2
340
8B
275
     1
280
     0
281
     0
282
     0
283
     1
284
     0
285
     0
286
     0
287
     0
288
     1
  0
ENDTAB
  0
TABLE
  2
BLOCK_RECORD
  5
1
330
0
100
AcDbSymbolTable
 70
    72
  0
BLOCK_RECORD
  5
2
102
{ACAD_XDICTIONARY
360
3
102
}
330
1
100
AcDbSymbolTableRecord
100
AcDbBlockTableRecord
  2
*MODEL_SPACE
  0
BLOCK_RECORD
  5
E
102
{ACAD_XDICTIONARY
360
F
102
}
330
1
100
AcDbSymbolTableRecord
100
AcDbBlockTableRecord
  2
*PAPER_SPACE
  0
BLOCK_RECORD
  5
2DB
330
1
100
AcDbSymbolTableRecord
100
AcDbBlockTableRecord
  2
5
1001
ACAD
1000
DesignCenter Data
1002
{
1070
     1
1070
     4
1002
}
1001
CONTENTBLOCKICON
1071
        0
1004
2800000020000000200000000100080000000000000400000000000000000000000000000000000000000000000080000080000000808000800000008000800080800000C0C0C000C0DCC000F0CAA6000020400000206000002080000020A0000020C0000020E00000400000004020000040400000406000004080000040A0
1004
000040C0000040E00000600000006020000060400000606000006080000060A0000060C0000060E00000800000008020000080400000806000008080000080A0000080C0000080E00000A0000000A0200000A0400000A0600000A0800000A0A00000A0C00000A0E00000C0000000C0200000C0400000C0600000C0800000C0
1004
A00000C0C00000C0E00000E0000000E0200000E0400000E0600000E0800000E0A00000E0C00000E0E00040000000400020004000400040006000400080004000A0004000C0004000E00040200000402020004020400040206000402080004020A0004020C0004020E000404000004040200040404000404060004040800040
1004
40A0004040C0004040E00040600000406020004060400040606000406080004060A0004060C0004060E00040800000408020004080400040806000408080004080A0004080C0004080E00040A0000040A0200040A0400040A0600040A0800040A0A00040A0C00040A0E00040C0000040C0200040C0400040C0600040C08000
1004
40C0A00040C0C00040C0E00040E0000040E0200040E0400040E0600040E0800040E0A00040E0C00040E0E00080000000800020008000400080006000800080008000A0008000C0008000E00080200000802020008020400080206000802080008020A0008020C0008020E00080400000804020008040400080406000804080
1004
008040A0008040C0008040E00080600000806020008060400080606000806080008060A0008060C0008060E00080800000808020008080400080806000808080008080A0008080C0008080E00080A0000080A0200080A0400080A0600080A0800080A0A00080A0C00080A0E00080C0000080C0200080C0400080C0600080C0
1004
800080C0A00080C0C00080C0E00080E0000080E0200080E0400080E0600080E0800080E0A00080E0C00080E0E000C0000000C0002000C0004000C0006000C0008000C000A000C000C000C000E000C0200000C0202000C0204000C0206000C0208000C020A000C020C000C020E000C0400000C0402000C0404000C0406000C0
1004
408000C040A000C040C000C040E000C0600000C0602000C0604000C0606000C0608000C060A000C060C000C060E000C0800000C0802000C0804000C0806000C0808000C080A000C080C000C080E000C0A00000C0A02000C0A04000C0A06000C0A08000C0A0A000C0A0C000C0A0E000C0C00000C0C02000C0C04000C0C06000
1004
C0C08000C0C0A000F0FBFF00A4A0A000808080000000FF0000FF000000FFFF00FF000000FF00FF00FFFF0000FFFFFF0000000000000000000000000000000000000000000000000000000000000000000000000000000000000000000000000000000000000000000000000000000000000000000000000000000000000000
1004
00000000000000000000000000000000000000000000F9000000000000000000000000000000F900000000000000000000000000FFF90000000000000000000000000000000000FFF9000000000000000000F3F3F9FF0000000000000000000000000000000000FFFF00000000000000000000F9FF00F90000000000000000
1004
00000000000000F900F9000000000000000000000000F30000000000000000000000000000000000000000000000000000000000000000F3F30000000000000000000000000000000000000000000000000000000000000000F30000000000000000000000000000000000000000000000000000000000000000F300000000
1004
00000000000000000000000000000000000000000000000000000000F30000000000000000000000000000000000000000000000000000000000000000F3F30000000000000000000000000000000000000000000000000000000000000000F300000000000000000000000000000000000000000000000000000000000000
1004
00F30000000000000000000000000000000000000000000000000000000000000000F30000000000000000000000000000000000000000000000000000000000000000F3F30000000000000000000000000000000000000000000000000000000000000000F300000000000000000000000000000000000000000000000000
1004
00000000000000F30000000000000000000000000000000000000000000000000000000000000000F30000000000000000000000000000000000000000000000000000000000000000F3F30000000000000000000000000000000000000000000000000000000000000000F3F900000000000000000000F9FF00F900000000
1004
0000000000000000000000F9F9FFF300000000000000000000FFFF00000000000000000000000000000000F9F9FF00F3000000000000000000FF00F90000000000000000000000000000F900FFF900FAFA000000000000000000000000000000000000000000000000000000000000FAFAFAF3000000000000000000000000
1004
0000000000000000000000000000000000FAFAFAFA0000000000000000000000000000000000000000000000000000000000FAFAFAF3000000000000000000000000000000000000000000000000000000000000FA000000000000000000000000000000000000000000000000000000000000000000000000000000000000
1004
0000000000000000000000000000000000000000000000000000000000000000000000000000000000000000000000000000000000000000
  0
BLOCK_RECORD
  5
2E2
330
1
100
AcDbSymbolTableRecord
100
AcDbBlockTableRecord
  2
*D1
  0
BLOCK_RECORD
  5
30F
330
1
100
AcDbSymbolTableRecord
100
AcDbBlockTableRecord
  2
*D2
  0
BLOCK_RECORD
  5
1D1
330
1
100
AcDbSymbolTableRecord
100
AcDbBlockTableRecord
  2
*D3
  0
BLOCK_RECORD
  5
BC
330
1
100
AcDbSymbolTableRecord
100
AcDbBlockTableRecord
  2
*D4
  0
BLOCK_RECORD
  5
9F
330
1
100
AcDbSymbolTableRecord
100
AcDbBlockTableRecord
  2
*D5
  0
BLOCK_RECORD
  5
36E
330
1
100
AcDbSymbolTableRecord
100
AcDbBlockTableRecord
  2
*D6
  0
BLOCK_RECORD
  5
3B8
330
1
100
AcDbSymbolTableRecord
100
AcDbBlockTableRecord
  2
*D7
  0
BLOCK_RECORD
  5
3C7
330
1
100
AcDbSymbolTableRecord
100
AcDbBlockTableRecord
  2
*D8
  0
BLOCK_RECORD
  5
23B
330
1
100
AcDbSymbolTableRecord
100
AcDbBlockTableRecord
  2
*D9
  0
BLOCK_RECORD
  5
123
330
1
100
AcDbSymbolTableRecord
100
AcDbBlockTableRecord
  2
*D10
  0
BLOCK_RECORD
  5
100
330
1
100
AcDbSymbolTableRecord
100
AcDbBlockTableRecord
  2
*D11
  0
BLOCK_RECORD
  5
17A
330
1
100
AcDbSymbolTableRecord
100
AcDbBlockTableRecord
  2
*D12
  0
BLOCK_RECORD
  5
16D
330
1
100
AcDbSymbolTableRecord
100
AcDbBlockTableRecord
  2
*D13
  0
BLOCK_RECORD
  5
E0
330
1
100
AcDbSymbolTableRecord
100
AcDbBlockTableRecord
  2
*D14
  0
BLOCK_RECORD
  5
AF
330
1
100
AcDbSymbolTableRecord
100
AcDbBlockTableRecord
  2
*D15
  0
BLOCK_RECORD
  5
1A0
330
1
100
AcDbSymbolTableRecord
100
AcDbBlockTableRecord
  2
*D16
  0
BLOCK_RECORD
  5
1B1
330
1
100
AcDbSymbolTableRecord
100
AcDbBlockTableRecord
  2
*D17
  0
BLOCK_RECORD
  5
1C2
330
1
100
AcDbSymbolTableRecord
100
AcDbBlockTableRecord
  2
*D18
  0
BLOCK_RECORD
  5
1E2
330
1
100
AcDbSymbolTableRecord
100
AcDbBlockTableRecord
  2
*D19
  0
BLOCK_RECORD
  5
35D
330
1
100
AcDbSymbolTableRecord
100
AcDbBlockTableRecord
  2
*D20
  0
BLOCK_RECORD
  5
31E
330
1
100
AcDbSymbolTableRecord
100
AcDbBlockTableRecord
  2
*D21
  0
BLOCK_RECORD
  5
34E
330
1
100
AcDbSymbolTableRecord
100
AcDbBlockTableRecord
  2
*D22
  0
BLOCK_RECORD
  5
395
330
1
100
AcDbSymbolTableRecord
100
AcDbBlockTableRecord
  2
*D23
  0
BLOCK_RECORD
  5
3A9
330
1
100
AcDbSymbolTableRecord
100
AcDbBlockTableRecord
  2
*D24
  0
BLOCK_RECORD
  5
2FF
330
1
100
AcDbSymbolTableRecord
100
AcDbBlockTableRecord
  2
*D25
  0
BLOCK_RECORD
  5
1F2
330
1
100
AcDbSymbolTableRecord
100
AcDbBlockTableRecord
  2
*D26
  0
BLOCK_RECORD
  5
2B4
330
1
100
AcDbSymbolTableRecord
100
AcDbBlockTableRecord
  2
*D27
  0
BLOCK_RECORD
  5
2A0
330
1
100
AcDbSymbolTableRecord
100
AcDbBlockTableRecord
  2
*D28
  0
BLOCK_RECORD
  5
158
330
1
100
AcDbSymbolTableRecord
100
AcDbBlockTableRecord
  2
*D29
  0
BLOCK_RECORD
  5
F3
330
1
100
AcDbSymbolTableRecord
100
AcDbBlockTableRecord
  2
*D30
  0
BLOCK_RECORD
  5
24A
330
1
100
AcDbSymbolTableRecord
100
AcDbBlockTableRecord
  2
*D31
  0
BLOCK_RECORD
  5
22A
330
1
100
AcDbSymbolTableRecord
100
AcDbBlockTableRecord
  2
*D32
  0
BLOCK_RECORD
  5
D3
330
1
100
AcDbSymbolTableRecord
100
AcDbBlockTableRecord
  2
*D33
  0
BLOCK_RECORD
  5
111
330
1
100
AcDbSymbolTableRecord
100
AcDbBlockTableRecord
  2
*D34
  0
BLOCK_RECORD
  5
149
330
1
100
AcDbSymbolTableRecord
100
AcDbBlockTableRecord
  2
*D35
  0
BLOCK_RECORD
  5
2CC
330
1
100
AcDbSymbolTableRecord
100
AcDbBlockTableRecord
  2
*D36
  0
BLOCK_RECORD
  5
3EC
330
1
100
AcDbSymbolTableRecord
100
AcDbBlockTableRecord
  2
*D37
  0
BLOCK_RECORD
  5
3F8
330
1
100
AcDbSymbolTableRecord
100
AcDbBlockTableRecord
  2
*D38
  0
BLOCK_RECORD
  5
404
330
1
100
AcDbSymbolTableRecord
100
AcDbBlockTableRecord
  2
*D39
  0
BLOCK_RECORD
  5
410
330
1
100
AcDbSymbolTableRecord
100
AcDbBlockTableRecord
  2
*D40
  0
BLOCK_RECORD
  5
41E
330
1
100
AcDbSymbolTableRecord
100
AcDbBlockTableRecord
  2
*D41
  0
BLOCK_RECORD
  5
429
330
1
100
AcDbSymbolTableRecord
100
AcDbBlockTableRecord
  2
*D42
  0
BLOCK_RECORD
  5
435
330
1
100
AcDbSymbolTableRecord
100
AcDbBlockTableRecord
  2
*D43
  0
BLOCK_RECORD
  5
441
330
1
100
AcDbSymbolTableRecord
100
AcDbBlockTableRecord
  2
*D44
  0
BLOCK_RECORD
  5
44D
330
1
100
AcDbSymbolTableRecord
100
AcDbBlockTableRecord
  2
*D45
  0
BLOCK_RECORD
  5
459
330
1
100
AcDbSymbolTableRecord
100
AcDbBlockTableRecord
  2
*D46
  0
BLOCK_RECORD
  5
465
330
1
100
AcDbSymbolTableRecord
100
AcDbBlockTableRecord
  2
*D47
  0
BLOCK_RECORD
  5
471
330
1
100
AcDbSymbolTableRecord
100
AcDbBlockTableRecord
  2
*D48
  0
BLOCK_RECORD
  5
47F
330
1
100
AcDbSymbolTableRecord
100
AcDbBlockTableRecord
  2
*D49
  0
BLOCK_RECORD
  5
48B
330
1
100
AcDbSymbolTableRecord
100
AcDbBlockTableRecord
  2
*D50
  0
BLOCK_RECORD
  5
497
330
1
100
AcDbSymbolTableRecord
100
AcDbBlockTableRecord
  2
*D51
  0
BLOCK_RECORD
  5
4A3
330
1
100
AcDbSymbolTableRecord
100
AcDbBlockTableRecord
  2
*D52
  0
BLOCK_RECORD
  5
4AF
330
1
100
AcDbSymbolTableRecord
100
AcDbBlockTableRecord
  2
*D53
  0
BLOCK_RECORD
  5
4BB
330
1
100
AcDbSymbolTableRecord
100
AcDbBlockTableRecord
  2
*D54
  0
BLOCK_RECORD
  5
4C7
330
1
100
AcDbSymbolTableRecord
100
AcDbBlockTableRecord
  2
*D55
  0
BLOCK_RECORD
  5
4D5
330
1
100
AcDbSymbolTableRecord
100
AcDbBlockTableRecord
  2
*D56
  0
BLOCK_RECORD
  5
4E3
330
1
100
AcDbSymbolTableRecord
100
AcDbBlockTableRecord
  2
*D57
  0
BLOCK_RECORD
  5
4F1
330
1
100
AcDbSymbolTableRecord
100
AcDbBlockTableRecord
  2
*D58
  0
BLOCK_RECORD
  5
4FF
330
1
100
AcDbSymbolTableRecord
100
AcDbBlockTableRecord
  2
*D59
  0
BLOCK_RECORD
  5
50D
330
1
100
AcDbSymbolTableRecord
100
AcDbBlockTableRecord
  2
*D60
  0
BLOCK_RECORD
  5
519
330
1
100
AcDbSymbolTableRecord
100
AcDbBlockTableRecord
  2
*D61
  0
BLOCK_RECORD
  5
525
330
1
100
AcDbSymbolTableRecord
100
AcDbBlockTableRecord
  2
*D62
  0
BLOCK_RECORD
  5
531
330
1
100
AcDbSymbolTableRecord
100
AcDbBlockTableRecord
  2
*D63
  0
BLOCK_RECORD
  5
53D
330
1
100
AcDbSymbolTableRecord
100
AcDbBlockTableRecord
  2
*D64
  0
BLOCK_RECORD
  5
549
330
1
100
AcDbSymbolTableRecord
100
AcDbBlockTableRecord
  2
*D65
  0
BLOCK_RECORD
  5
557
330
1
100
AcDbSymbolTableRecord
100
AcDbBlockTableRecord
  2
*D66
  0
BLOCK_RECORD
  5
565
330
1
100
AcDbSymbolTableRecord
100
AcDbBlockTableRecord
  2
*D67
  0
BLOCK_RECORD
  5
571
330
1
100
AcDbSymbolTableRecord
100
AcDbBlockTableRecord
  2
*D68
  0
BLOCK_RECORD
  5
57D
330
1
100
AcDbSymbolTableRecord
100
AcDbBlockTableRecord
  2
*D69
  0
BLOCK_RECORD
  5
589
330
1
100
AcDbSymbolTableRecord
100
AcDbBlockTableRecord
  2
*D70
  0
BLOCK_RECORD
  5
597
330
1
100
AcDbSymbolTableRecord
100
AcDbBlockTableRecord
  2
*D71
  0
ENDTAB
  0
ENDSEC
  0
SECTION
  2
BLOCKS
  0
BLOCK
  5
5
330
2
100
AcDbEntity
  8
0
100
AcDbBlockBegin
  2
*MODEL_SPACE
 70
     0
 10
0.0
 20
0.0
 30
0.0
  3
*MODEL_SPACE
  1

  0
ENDBLK
  5
B
330
2
100
AcDbEntity
  8
0
100
AcDbBlockEnd
  0
BLOCK
  5
11
330
E
100
AcDbEntity
 67
     1
  8
0
100
AcDbBlockBegin
  2
*PAPER_SPACE
 70
     0
 10
0.0
 20
0.0
 30
0.0
  3
*PAPER_SPACE
  1

  0
ENDBLK
  5
12
330
E
100
AcDbEntity
 67
     1
  8
0
100
AcDbBlockEnd
  0
BLOCK
  5
2F6
330
2DB
100
AcDbEntity
  8
0
100
AcDbBlockBegin
  2
5
 70
     0
 10
0.0
 20
0.0
 30
0.0
  3
5
  1

  0
CIRCLE
  5
2DC
330
2DB
100
AcDbEntity
  8
0
100
AcDbCircle
 10
33.23401871576971
 20
33.2340187157647
 30
0.0
 40
2.75
  0
LINE
  5
2DD
330
2DB
100
AcDbEntity
  8
CEN
 48
0.6
100
AcDbLine
 10
29.87526150513349
 20
29.87526150512849
 30
0.0
 11
36.59277592640592
 21
36.59277592640092
 31
0.0
  0
ARC
  5
2DE
102
{ACAD_REACTORS
330
2E1
102
}
330
2DB
100
AcDbEntity
  8
CEN
 48
0.6
100
AcDbCircle
 10
-0.0000000000009095
 20
0.0
 30
0.0
 40
47.0
100
AcDbArc
 50
35.54155537381702
 51
54.45844462620417
  0
DIMENSION
  5
2DF
102
{ACAD_XDICTIONARY
360
2E0
102
}
102
{ACAD_REACTORS
330
2E1
102
}
330
2DB
100
AcDbEntity
  8
0
100
AcDbDimension
  2
*D1
 10
-37.12703852731556
 20
-28.81983709515498
 30
0.0
 11
52.82902883363476
 21
41.00849583681338
 31
0.0
 12
-5558.635528985877
 22
2192.234809732951
 32
0.0
 70
   131
  1
<>%%P0.5
  3
STANDARD
100
AcDbDiametricDimension
 15
37.12703852731374
 25
28.81983709515407
 35
0.0
 40
0.0
  0
ARC
  5
2ED
330
2DB
100
AcDbEntity
  8
CEN
 48
0.6
100
AcDbCircle
 10
-0.0000000000009095
 20
0.0000000000004547
 30
0.0
 40
47.0
100
AcDbArc
 50
126.7642625682232
 51
143.2357374317767
  0
LINE
  5
2EE
330
2DB
100
AcDbEntity
  8
CEN
 48
0.6
100
AcDbLine
 10
-29.87526150512985
 20
29.87526150513439
 30
0.0
 11
-36.59277592640228
 21
36.59277592640683
 31
0.0
  0
CIRCLE
  5
2EF
330
2DB
100
AcDbEntity
  8
0
100
AcDbCircle
 10
-33.23401871576605
 20
33.23401871577107
 30
0.0
 40
2.75
  0
LINE
  5
2F0
330
2DB
100
AcDbEntity
  8
CEN
 48
0.6
100
AcDbLine
 10
-29.87526150513439
 20
-29.87526150512895
 30
0.0
 11
-36.59277592640683
 21
-36.59277592640136
 31
0.0
  0
CIRCLE
  5
2F1
330
2DB
100
AcDbEntity
  8
0
100
AcDbCircle
 10
-33.23401871577061
 20
-33.23401871576516
 30
0.0
 40
2.75
  0
ARC
  5
2F2
330
2DB
100
AcDbEntity
  8
CEN
 48
0.6
100
AcDbCircle
 10
0.0
 20
-0.0000000000004547
 30
0.0
 40
47.0
100
AcDbArc
 50
215.5415553738169
 51
234.4584446262041
  0
ARC
  5
2F3
330
2DB
100
AcDbEntity
  8
CEN
 48
0.6
100
AcDbCircle
 10
-0.000000000001819
 20
-0.0000000000004547
 30
0.0
 40
47.0
100
AcDbArc
 50
306.7642625682233
 51
323.2357374317766
  0
LINE
  5
2F4
330
2DB
100
AcDbEntity
  8
CEN
 48
0.6
100
AcDbLine
 10
29.87526150512712
 20
-29.87526150513439
 30
0.0
 11
36.59277592639954
 21
-36.59277592640683
 31
0.0
  0
CIRCLE
  5
2F5
330
2DB
100
AcDbEntity
  8
0
100
AcDbCircle
 10
33.23401871576243
 20
-33.23401871577107
 30
0.0
 40
2.75
  0
ENDBLK
  5
2F7
330
2DB
100
AcDbEntity
  8
0
100
AcDbBlockEnd
  0
BLOCK
  5
2EB
330
2E2
100
AcDbEntity
  8
0
100
AcDbBlockBegin
  2
*D1
 70
     1
 10
0.0
 20
0.0
 30
0.0
  3
*D1
  1

  0
LINE
  5
2E3
330
2E2
100
AcDbEntity
  8
0
 62
   123
100
AcDbLine
 10
5519.533647983703
 20
-2222.58761688636
 30
0.0
 11
5517.558805508848
 21
-2224.120586944613
 31
0.0
  0
LINE
  5
2E4
330
2E2
100
AcDbEntity
  8
0
 62
   123
100
AcDbLine
 10
5597.737409988048
 20
-2161.882002579545
 30
0.0
 11
5619.53319993107
 21
-2144.963036229563
 31
0.0
  0
LINE
  5
2E5
330
2E2
100
AcDbEntity
  8
0
 62
   123
100
AcDbLine
 10
5521.508490458562
 20
-2221.054646828107
 30
0.0
 11
5595.762567513191
 21
-2163.414972637797
 31
0.0
  0
SOLID
  5
2E6
330
2E2
100
AcDbEntity
  8
0
 62
   123
100
AcDbTrace
 10
5519.278152973996
 20
-2222.258476473883
 30
0.0
 11
5519.789142993413
 21
-2222.916757298836
 31
0.0
 12
5521.508490458562
 22
-2221.054646828107
 32
0.0
 13
5521.508490458562
 23
-2221.054646828107
 33
0.0
  0
SOLID
  5
2E7
330
2E2
100
AcDbEntity
  8
0
 62
   123
100
AcDbTrace
 10
5597.481914978339
 20
-2161.552862167069
 30
0.0
 11
5597.992904997757
 21
-2162.21114299202
 31
0.0
 12
5595.762567513191
 22
-2163.414972637797
 32
0.0
 13
5595.762567513191
 23
-2163.414972637797
 33
0.0
  0
MTEXT
  5
2E8
330
2E2
100
AcDbEntity
  8
0
 62
     3
100
AcDbMText
 10
5609.931587761259
 20
-2149.251471421281
 30
0.0
 40
3.0
 41
0.0
 71
     5
 72
     1
  1
\A1;\U+220594%%P0.5
 11
0.7899369899428739
 21
0.6131880233011666
 31
0.0
1001
ACAD
1000
MTEXTBEGIN
1070
    73
1070
     1
1070
    44
1040
1.0
1070
    74
1070
     0
1000
MTEXTEND
  0
POINT
  5
2E9
330
2E2
100
AcDbEntity
  8
DEFPOINTS
 62
     0
100
AcDbPoint
 10
5595.762567513191
 20
-2163.414972637797
 30
0.0
  0
POINT
  5
2EA
330
2E2
100
AcDbEntity
  8
DEFPOINTS
 62
     0
100
AcDbPoint
 10
5521.508490458562
 20
-2221.054646828107
 30
0.0
  0
ENDBLK
  5
2EC
330
2E2
100
AcDbEntity
  8
0
100
AcDbBlockEnd
  0
BLOCK
  5
319
330
30F
100
AcDbEntity
  8
0
100
AcDbBlockBegin
  2
*D2
 70
     1
 10
0.0
 20
0.0
 30
0.0
  3
*D2
  1

  0
LINE
  5
310
330
30F
100
AcDbEntity
  8
0
 62
   123
100
AcDbLine
 10
15206.93623911409
 20
-2719.608826439166
 30
0.0
 11
15144.32185722252
 21
-2719.608826439166
 31
0.0
  0
LINE
  5
311
330
30F
100
AcDbEntity
  8
0
 62
   123
100
AcDbLine
 10
15206.93623911409
 20
-2753.608826439166
 30
0.0
 11
15144.32185722252
 21
-2753.608826439166
 31
0.0
  0
LINE
  5
312
330
30F
100
AcDbEntity
  8
0
 62
   123
100
AcDbLine
 10
15144.92185722251
 20
-2722.108826439166
 30
0.0
 11
15144.92185722251
 21
-2751.108826439166
 31
0.0
  0
SOLID
  5
313
330
30F
100
AcDbEntity
  8
0
 62
   123
100
AcDbTrace
 10
15144.50519055585
 20
-2722.108826439166
 30
0.0
 11
15145.33852388919
 21
-2722.108826439166
 31
0.0
 12
15144.92185722251
 22
-2719.608826439166
 32
0.0
 13
15144.92185722251
 23
-2719.608826439166
 33
0.0
  0
SOLID
  5
314
330
30F
100
AcDbEntity
  8
0
 62
   123
100
AcDbTrace
 10
15144.50519055585
 20
-2751.108826439166
 30
0.0
 11
15145.33852388919
 21
-2751.108826439166
 31
0.0
 12
15144.92185722251
 22
-2753.608826439166
 32
0.0
 13
15144.92185722251
 23
-2753.608826439166
 33
0.0
  0
MTEXT
  5
315
330
30F
100
AcDbEntity
  8
0
 62
     3
100
AcDbMText
 10
15142.42185722252
 20
-2736.608826439165
 30
0.0
 40
3.0
 41
0.0
 71
     5
 72
     1
  1
\A1;{\f??|b0|i0|c0|p49;%%c}34
 11
0.0000000000000001
 21
1.0
 31
0.0
1001
ACAD
1000
MTEXTBEGIN
1070
    73
1070
     1
1070
    44
1040
1.0
1070
    74
1070
     0
1000
MTEXTEND
  0
POINT
  5
316
330
30F
100
AcDbEntity
  8
DEFPOINTS
 62
     0
100
AcDbPoint
 10
15207.93623911409
 20
-2719.608826439166
 30
0.0
  0
POINT
  5
317
330
30F
100
AcDbEntity
  8
DEFPOINTS
 62
     0
100
AcDbPoint
 10
15207.93623911409
 20
-2753.608826439166
 30
0.0
  0
POINT
  5
318
330
30F
100
AcDbEntity
  8
DEFPOINTS
 62
     0
100
AcDbPoint
 10
15144.92185722251
 20
-2753.608826439166
 30
0.0
  0
ENDBLK
  5
31A
330
30F
100
AcDbEntity
  8
0
100
AcDbBlockEnd
  0
BLOCK
  5
1DD
330
1D1
100
AcDbEntity
  8
0
100
AcDbBlockBegin
  2
*D3
 70
     1
 10
0.0
 20
0.0
 30
0.0
  3
*D3
  1

  0
LINE
  5
1D2
330
1D1
100
AcDbEntity
  8
0
 62
   123
100
AcDbLine
 10
15027.08461510876
 20
-2859.770498690501
 30
0.0
 11
15034.85367026423
 21
-2859.770498690501
 31
0.0
  0
LINE
  5
1D3
330
1D1
100
AcDbEntity
  8
0
 62
   123
100
AcDbLine
 10
15027.08461510876
 20
-2855.770498690501
 30
0.0
 11
15034.85367026423
 21
-2855.770498690501
 31
0.0
  0
LINE
  5
1D4
330
1D1
100
AcDbEntity
  8
0
 62
   123
100
AcDbLine
 10
15034.25367026423
 20
-2862.2704986905
 30
0.0
 11
15034.25367026423
 21
-2864.770498690501
 31
0.0
  0
LINE
  5
1D5
330
1D1
100
AcDbEntity
  8
0
 62
   123
100
AcDbLine
 10
15034.25367026423
 20
-2853.270498690501
 30
0.0
 11
15034.25367026423
 21
-2834.206751182127
 31
0.0
  0
LINE
  5
1D6
330
1D1
100
AcDbEntity
  8
0
 62
   123
100
AcDbLine
 10
15034.25367026423
 20
-2859.770498690501
 30
0.0
 11
15034.25367026423
 21
-2855.770498690501
 31
0.0
  0
SOLID
  5
1D7
330
1D1
100
AcDbEntity
  8
0
 62
   123
100
AcDbTrace
 10
15033.83700359756
 20
-2862.2704986905
 30
0.0
 11
15034.6703369309
 21
-2862.2704986905
 31
0.0
 12
15034.25367026423
 22
-2859.770498690501
 32
0.0
 13
15034.25367026423
 23
-2859.770498690501
 33
0.0
  0
SOLID
  5
1D8
330
1D1
100
AcDbEntity
  8
0
 62
   123
100
AcDbTrace
 10
15033.83700359756
 20
-2853.270498690501
 30
0.0
 11
15034.6703369309
 21
-2853.270498690501
 31
0.0
 12
15034.25367026423
 22
-2855.770498690501
 32
0.0
 13
15034.25367026423
 23
-2855.770498690501
 33
0.0
  0
MTEXT
  5
1D9
330
1D1
100
AcDbEntity
  8
0
 62
     3
100
AcDbMText
 10
15030.80367026423
 20
-2840.92103689641
 30
0.0
 40
3.0
 41
0.0
 71
     5
 72
     1
  1
\A1;\A1;4{\f??|b0|i0|c0|p49;\H0.7x;\S+0^ -0.03;}
 11
0.0000000000000001
 21
1.0
 31
0.0
1001
ACAD
1000
MTEXTBEGIN
1070
    73
1070
     1
1070
    44
1040
1.0
1070
    74
1070
     0
1000
MTEXTEND
  0
POINT
  5
1DA
330
1D1
100
AcDbEntity
  8
DEFPOINTS
 62
     0
100
AcDbPoint
 10
15026.08461510877
 20
-2859.770498690501
 30
0.0
  0
POINT
  5
1DB
330
1D1
100
AcDbEntity
  8
DEFPOINTS
 62
     0
100
AcDbPoint
 10
15026.08461510877
 20
-2855.770498690501
 30
0.0
  0
POINT
  5
1DC
330
1D1
100
AcDbEntity
  8
DEFPOINTS
 62
     0
100
AcDbPoint
 10
15034.25367026423
 20
-2855.770498690501
 30
0.0
  0
ENDBLK
  5
1DE
330
1D1
100
AcDbEntity
  8
0
100
AcDbBlockEnd
  0
BLOCK
  5
C6
330
BC
100
AcDbEntity
  8
0
100
AcDbBlockBegin
  2
*D4
 70
     1
 10
0.0
 20
0.0
 30
0.0
  3
*D4
  1

  0
LINE
  5
BD
330
BC
100
AcDbEntity
  8
0
 62
   123
100
AcDbLine
 10
15252.93623911409
 20
-2792.108826439166
 30
0.0
 11
15252.93623911409
 21
-2805.296507487457
 31
0.0
  0
LINE
  5
BE
330
BC
100
AcDbEntity
  8
0
 62
   123
100
AcDbLine
 10
15210.43623911408
 20
-2792.108826439166
 30
0.0
 11
15210.43623911408
 21
-2805.296507487457
 31
0.0
  0
LINE
  5
BF
330
BC
100
AcDbEntity
  8
0
 62
   123
100
AcDbLine
 10
15250.43623911408
 20
-2804.696507487457
 30
0.0
 11
15212.93623911408
 21
-2804.696507487457
 31
0.0
  0
SOLID
  5
C0
330
BC
100
AcDbEntity
  8
0
 62
   123
100
AcDbTrace
 10
15250.43623911408
 20
-2804.279840820791
 30
0.0
 11
15250.43623911408
 21
-2805.113174154124
 31
0.0
 12
15252.93623911409
 22
-2804.696507487457
 32
0.0
 13
15252.93623911409
 23
-2804.696507487457
 33
0.0
  0
SOLID
  5
C1
330
BC
100
AcDbEntity
  8
0
 62
   123
100
AcDbTrace
 10
15212.93623911408
 20
-2804.279840820791
 30
0.0
 11
15212.93623911408
 21
-2805.113174154124
 31
0.0
 12
15210.43623911408
 22
-2804.696507487457
 32
0.0
 13
15210.43623911408
 23
-2804.696507487457
 33
0.0
  0
MTEXT
  5
C2
330
BC
100
AcDbEntity
  8
0
 62
     3
100
AcDbMText
 10
15231.68623911409
 20
-2802.196507487457
 30
0.0
 40
3.0
 41
0.0
 71
     5
 72
     1
  1
\A1;L
1001
ACAD
1000
MTEXTBEGIN
1070
    73
1070
     1
1070
    44
1040
1.0
1070
    74
1070
     0
1000
MTEXTEND
  0
POINT
  5
C3
330
BC
100
AcDbEntity
  8
DEFPOINTS
 62
     0
100
AcDbPoint
 10
15252.93623911409
 20
-2791.108826439166
 30
0.0
  0
POINT
  5
C4
330
BC
100
AcDbEntity
  8
DEFPOINTS
 62
     0
100
AcDbPoint
 10
15210.43623911408
 20
-2791.108826439166
 30
0.0
  0
POINT
  5
C5
330
BC
100
AcDbEntity
  8
DEFPOINTS
 62
     0
100
AcDbPoint
 10
15210.43623911408
 20
-2804.696507487457
 30
0.0
  0
ENDBLK
  5
C7
330
BC
100
AcDbEntity
  8
0
100
AcDbBlockEnd
  0
BLOCK
  5
AA
330
9F
100
AcDbEntity
  8
0
100
AcDbBlockBegin
  2
*D5
 70
     1
 10
0.0
 20
0.0
 30
0.0
  3
*D5
  1

  0
LINE
  5
A0
330
9F
100
AcDbEntity
  8
0
 62
   123
100
AcDbLine
 10
15178.43623911408
 20
-2742.608826439166
 30
0.0
 11
15178.43623911408
 21
-2805.296507487457
 31
0.0
  0
LINE
  5
A1
330
9F
100
AcDbEntity
  8
0
 62
   123
100
AcDbLine
 10
15210.43623911408
 20
-2792.108826439166
 30
0.0
 11
15210.43623911408
 21
-2805.296507487457
 31
0.0
  0
LINE
  5
A2
330
9F
100
AcDbEntity
  8
0
 62
   123
100
AcDbLine
 10
15180.93623911409
 20
-2804.696507487457
 30
0.0
 11
15207.93623911409
 21
-2804.696507487457
 31
0.0
  0
SOLID
  5
A3
330
9F
100
AcDbEntity
  8
0
 62
   123
100
AcDbTrace
 10
15180.93623911409
 20
-2804.279840820791
 30
0.0
 11
15180.93623911409
 21
-2805.113174154124
 31
0.0
 12
15178.43623911408
 22
-2804.696507487457
 32
0.0
 13
15178.43623911408
 23
-2804.696507487457
 33
0.0
  0
SOLID
  5
A4
330
9F
100
AcDbEntity
  8
0
 62
   123
100
AcDbTrace
 10
15207.93623911409
 20
-2804.279840820791
 30
0.0
 11
15207.93623911409
 21
-2805.113174154124
 31
0.0
 12
15210.43623911408
 22
-2804.696507487457
 32
0.0
 13
15210.43623911408
 23
-2804.696507487457
 33
0.0
  0
MTEXT
  5
A5
330
9F
100
AcDbEntity
  8
0
 62
     3
100
AcDbMText
 10
15194.43623911409
 20
-2802.196507487457
 30
0.0
 40
3.0
 41
0.0
 71
     5
 72
     1
  1
\A1;32
1001
ACAD
1000
MTEXTBEGIN
1070
    73
1070
     1
1070
    44
1040
1.0
1070
    74
1070
     0
1000
MTEXTEND
  0
POINT
  5
A6
330
9F
100
AcDbEntity
  8
DEFPOINTS
 62
     0
100
AcDbPoint
 10
15178.43623911408
 20
-2741.608826439166
 30
0.0
  0
POINT
  5
A8
330
9F
100
AcDbEntity
  8
DEFPOINTS
 62
     0
100
AcDbPoint
 10
15210.43623911408
 20
-2791.108826439166
 30
0.0
  0
POINT
  5
A9
330
9F
100
AcDbEntity
  8
DEFPOINTS
 62
     0
100
AcDbPoint
 10
15210.43623911408
 20
-2804.696507487457
 30
0.0
  0
ENDBLK
  5
AB
330
9F
100
AcDbEntity
  8
0
100
AcDbBlockEnd
  0
BLOCK
  5
37A
330
36E
100
AcDbEntity
  8
0
100
AcDbBlockBegin
  2
*D6
 70
     1
 10
0.0
 20
0.0
 30
0.0
  3
*D6
  1

  0
LINE
  5
36F
330
36E
100
AcDbEntity
  8
0
 62
   123
100
AcDbLine
 10
15210.43623911408
 20
-2711.108826439166
 30
0.0
 11
15210.43623911408
 21
-2704.398898530261
 31
0.0
  0
LINE
  5
370
330
36E
100
AcDbEntity
  8
0
 62
   123
100
AcDbLine
 10
15207.43623911408
 20
-2719.108826439166
 30
0.0
 11
15207.43623911408
 21
-2704.398898530261
 31
0.0
  0
LINE
  5
371
330
36E
100
AcDbEntity
  8
0
 62
   123
100
AcDbLine
 10
15212.93623911408
 20
-2704.998898530261
 30
0.0
 11
15215.43623911409
 21
-2704.998898530261
 31
0.0
  0
LINE
  5
372
330
36E
100
AcDbEntity
  8
0
 62
   123
100
AcDbLine
 10
15204.93623911409
 20
-2704.998898530261
 30
0.0
 11
15202.43623911408
 21
-2704.998898530261
 31
0.0
  0
LINE
  5
373
330
36E
100
AcDbEntity
  8
0
 62
   123
100
AcDbLine
 10
15210.43623911408
 20
-2704.998898530261
 30
0.0
 11
15207.43623911408
 21
-2704.998898530261
 31
0.0
  0
SOLID
  5
374
330
36E
100
AcDbEntity
  8
0
 62
   123
100
AcDbTrace
 10
15212.93623911408
 20
-2704.582231863594
 30
0.0
 11
15212.93623911408
 21
-2705.415565196926
 31
0.0
 12
15210.43623911408
 22
-2704.998898530261
 32
0.0
 13
15210.43623911408
 23
-2704.998898530261
 33
0.0
  0
SOLID
  5
375
330
36E
100
AcDbEntity
  8
0
 62
   123
100
AcDbTrace
 10
15204.93623911409
 20
-2704.582231863594
 30
0.0
 11
15204.93623911409
 21
-2705.415565196926
 31
0.0
 12
15207.43623911408
 22
-2704.998898530261
 32
0.0
 13
15207.43623911408
 23
-2704.998898530261
 33
0.0
  0
MTEXT
  5
376
330
36E
100
AcDbEntity
  8
0
 62
     3
100
AcDbMText
 10
15208.93623911408
 20
-2702.49889853026
 30
0.0
 40
3.0
 41
0.0
 71
     5
 72
     1
  1
\A1;3
1001
ACAD
1000
MTEXTBEGIN
1070
    73
1070
     1
1070
    44
1040
1.0
1070
    74
1070
     0
1000
MTEXTEND
  0
POINT
  5
377
330
36E
100
AcDbEntity
  8
DEFPOINTS
 62
     0
100
AcDbPoint
 10
15210.43623911408
 20
-2712.108826439166
 30
0.0
  0
POINT
  5
378
330
36E
100
AcDbEntity
  8
DEFPOINTS
 62
     0
100
AcDbPoint
 10
15207.43623911408
 20
-2720.108826439166
 30
0.0
  0
POINT
  5
379
330
36E
100
AcDbEntity
  8
DEFPOINTS
 62
     0
100
AcDbPoint
 10
15207.43623911408
 20
-2704.998898530261
 30
0.0
  0
ENDBLK
  5
37B
330
36E
100
AcDbEntity
  8
0
100
AcDbBlockEnd
  0
BLOCK
  5
3C4
330
3B8
100
AcDbEntity
  8
0
100
AcDbBlockBegin
  2
*D7
 70
     1
 10
0.0
 20
0.0
 30
0.0
  3
*D7
  1

  0
LINE
  5
3B9
330
3B8
100
AcDbEntity
  8
0
 62
   123
100
AcDbLine
 10
15183.17492572894
 20
-2567.179481555808
 30
0.0
 11
15183.17492572894
 21
-2554.516993830779
 31
0.0
  0
LINE
  5
3BA
330
3B8
100
AcDbEntity
  8
0
 62
   123
100
AcDbLine
 10
15185.17492572894
 20
-2563.679481555808
 30
0.0
 11
15185.17492572894
 21
-2554.516993830779
 31
0.0
  0
LINE
  5
3BB
330
3B8
100
AcDbEntity
  8
0
 62
   123
100
AcDbLine
 10
15187.67492572894
 20
-2555.116993830778
 30
0.0
 11
15190.17492572895
 21
-2555.116993830778
 31
0.0
  0
LINE
  5
3BC
330
3B8
100
AcDbEntity
  8
0
 62
   123
100
AcDbLine
 10
15180.67492572894
 20
-2555.116993830778
 30
0.0
 11
15174.17492572894
 21
-2555.116993830778
 31
0.0
  0
LINE
  5
3BD
330
3B8
100
AcDbEntity
  8
0
 62
   123
100
AcDbLine
 10
15185.17492572894
 20
-2555.116993830778
 30
0.0
 11
15183.17492572894
 21
-2555.116993830778
 31
0.0
  0
SOLID
  5
3BE
330
3B8
100
AcDbEntity
  8
0
 62
   123
100
AcDbTrace
 10
15187.67492572894
 20
-2554.700327164112
 30
0.0
 11
15187.67492572894
 21
-2555.533660497445
 31
0.0
 12
15185.17492572894
 22
-2555.116993830778
 32
0.0
 13
15185.17492572894
 23
-2555.116993830778
 33
0.0
  0
SOLID
  5
3BF
330
3B8
100
AcDbEntity
  8
0
 62
   123
100
AcDbTrace
 10
15180.67492572894
 20
-2554.700327164112
 30
0.0
 11
15180.67492572894
 21
-2555.533660497445
 31
0.0
 12
15183.17492572894
 22
-2555.116993830778
 32
0.0
 13
15183.17492572894
 23
-2555.116993830778
 33
0.0
  0
MTEXT
  5
3C0
330
3B8
100
AcDbEntity
  8
0
 62
     3
100
AcDbMText
 10
15176.17492572894
 20
-2552.616993830778
 30
0.0
 40
3.0
 41
0.0
 71
     5
 72
     1
  1
\A1;2
1001
ACAD
1000
MTEXTBEGIN
1070
    73
1070
     1
1070
    44
1040
1.0
1070
    74
1070
     0
1000
MTEXTEND
  0
POINT
  5
3C1
330
3B8
100
AcDbEntity
  8
DEFPOINTS
 62
     0
100
AcDbPoint
 10
15183.17492572894
 20
-2568.179481555809
 30
0.0
  0
POINT
  5
3C2
330
3B8
100
AcDbEntity
  8
DEFPOINTS
 62
     0
100
AcDbPoint
 10
15185.17492572894
 20
-2564.679481555808
 30
0.0
  0
POINT
  5
3C3
330
3B8
100
AcDbEntity
  8
DEFPOINTS
 62
     0
100
AcDbPoint
 10
15185.17492572894
 20
-2555.116993830778
 30
0.0
  0
ENDBLK
  5
3C5
330
3B8
100
AcDbEntity
  8
0
100
AcDbBlockEnd
  0
BLOCK
  5
3D1
330
3C7
100
AcDbEntity
  8
0
100
AcDbBlockBegin
  2
*D8
 70
     1
 10
0.0
 20
0.0
 30
0.0
  3
*D8
  1

  0
LINE
  5
3C8
330
3C7
100
AcDbEntity
  8
0
 62
   123
100
AcDbLine
 10
15171.67492572894
 20
-2600.574481555808
 30
0.0
 11
15171.67492572894
 21
-2544.222989935868
 31
0.0
  0
LINE
  5
3C9
330
3C7
100
AcDbEntity
  8
0
 62
   123
100
AcDbLine
 10
15185.17492572894
 20
-2563.679481555808
 30
0.0
 11
15185.17492572894
 21
-2544.222989935868
 31
0.0
  0
LINE
  5
3CA
330
3C7
100
AcDbEntity
  8
0
 62
   123
100
AcDbLine
 10
15174.17492572894
 20
-2544.822989935868
 30
0.0
 11
15182.67492572894
 21
-2544.822989935868
 31
0.0
  0
SOLID
  5
3CB
330
3C7
100
AcDbEntity
  8
0
 62
   123
100
AcDbTrace
 10
15174.17492572894
 20
-2544.406323269202
 30
0.0
 11
15174.17492572894
 21
-2545.239656602534
 31
0.0
 12
15171.67492572894
 22
-2544.822989935868
 32
0.0
 13
15171.67492572894
 23
-2544.822989935868
 33
0.0
  0
SOLID
  5
3CC
330
3C7
100
AcDbEntity
  8
0
 62
   123
100
AcDbTrace
 10
15182.67492572894
 20
-2544.406323269202
 30
0.0
 11
15182.67492572894
 21
-2545.239656602534
 31
0.0
 12
15185.17492572894
 22
-2544.822989935868
 32
0.0
 13
15185.17492572894
 23
-2544.822989935868
 33
0.0
  0
MTEXT
  5
3CD
330
3C7
100
AcDbEntity
  8
0
 62
     3
100
AcDbMText
 10
15178.92492572894
 20
-2542.322989935868
 30
0.0
 40
3.0
 41
0.0
 71
     5
 72
     1
  1
\A1;13.5
1001
ACAD
1000
MTEXTBEGIN
1070
    73
1070
     1
1070
    44
1040
1.0
1070
    74
1070
     0
1000
MTEXTEND
  0
POINT
  5
3CE
330
3C7
100
AcDbEntity
  8
DEFPOINTS
 62
     0
100
AcDbPoint
 10
15171.67492572894
 20
-2601.574481555808
 30
0.0
  0
POINT
  5
3CF
330
3C7
100
AcDbEntity
  8
DEFPOINTS
 62
     0
100
AcDbPoint
 10
15185.17492572894
 20
-2564.679481555808
 30
0.0
  0
POINT
  5
3D0
330
3C7
100
AcDbEntity
  8
DEFPOINTS
 62
     0
100
AcDbPoint
 10
15185.17492572894
 20
-2544.822989935868
 30
0.0
  0
ENDBLK
  5
3D2
330
3C7
100
AcDbEntity
  8
0
100
AcDbBlockEnd
  0
BLOCK
  5
245
330
23B
100
AcDbEntity
  8
0
100
AcDbBlockBegin
  2
*D9
 70
     1
 10
0.0
 20
0.0
 30
0.0
  3
*D9
  1

  0
LINE
  5
23C
330
23B
100
AcDbEntity
  8
0
 62
   123
100
AcDbLine
 10
15059.71712186823
 20
-2948.114352973206
 30
0.0
 11
15071.63646793948
 21
-2948.114352973206
 31
0.0
  0
LINE
  5
23D
330
23B
100
AcDbEntity
  8
0
 62
   123
100
AcDbLine
 10
15053.24542786823
 20
-2905.114352973209
 30
0.0
 11
15071.63646793948
 21
-2905.114352973209
 31
0.0
  0
LINE
  5
23E
330
23B
100
AcDbEntity
  8
0
 62
   123
100
AcDbLine
 10
15071.03646793948
 20
-2945.614352973207
 30
0.0
 11
15071.03646793948
 21
-2907.614352973208
 31
0.0
  0
SOLID
  5
23F
330
23B
100
AcDbEntity
  8
0
 62
   123
100
AcDbTrace
 10
15070.61980127281
 20
-2945.614352973207
 30
0.0
 11
15071.45313460615
 21
-2945.614352973207
 31
0.0
 12
15071.03646793948
 22
-2948.114352973206
 32
0.0
 13
15071.03646793948
 23
-2948.114352973206
 33
0.0
  0
SOLID
  5
240
330
23B
100
AcDbEntity
  8
0
 62
   123
100
AcDbTrace
 10
15070.61980127281
 20
-2907.614352973208
 30
0.0
 11
15071.45313460615
 21
-2907.614352973208
 31
0.0
 12
15071.03646793948
 22
-2905.114352973209
 32
0.0
 13
15071.03646793948
 23
-2905.114352973209
 33
0.0
  0
MTEXT
  5
241
330
23B
100
AcDbEntity
  8
0
 62
     3
100
AcDbMText
 10
15068.53646793948
 20
-2924.976723417255
 30
0.0
 40
3.0
 41
0.0
 71
     5
 72
     1
  1
\A1;43
 11
0.0000000000000001
 21
1.0
 31
0.0
1001
ACAD
1000
MTEXTBEGIN
1070
    73
1070
     1
1070
    44
1040
1.0
1070
    74
1070
     0
1000
MTEXTEND
  0
POINT
  5
242
330
23B
100
AcDbEntity
  8
DEFPOINTS
 62
     0
100
AcDbPoint
 10
15058.71712186823
 20
-2948.114352973206
 30
0.0
  0
POINT
  5
243
330
23B
100
AcDbEntity
  8
DEFPOINTS
 62
     0
100
AcDbPoint
 10
15052.24542786823
 20
-2905.114352973209
 30
0.0
  0
POINT
  5
244
330
23B
100
AcDbEntity
  8
DEFPOINTS
 62
     0
100
AcDbPoint
 10
15071.03646793948
 20
-2905.114352973209
 30
0.0
  0
ENDBLK
  5
246
330
23B
100
AcDbEntity
  8
0
100
AcDbBlockEnd
  0
BLOCK
  5
12D
330
123
100
AcDbEntity
  8
0
100
AcDbBlockBegin
  2
*D10
 70
     1
 10
0.0
 20
0.0
 30
0.0
  3
*D10
  1

  0
LINE
  5
124
330
123
100
AcDbEntity
  8
0
 62
   123
100
AcDbLine
 10
14983.71712186823
 20
-3024.114352973207
 30
0.0
 11
14983.71712186823
 21
-3044.298548505091
 31
0.0
  0
LINE
  5
125
330
123
100
AcDbEntity
  8
0
 62
   123
100
AcDbLine
 10
15063.71712186823
 20
-3024.114352973207
 30
0.0
 11
15063.71712186823
 21
-3044.298548505091
 31
0.0
  0
LINE
  5
126
330
123
100
AcDbEntity
  8
0
 62
   123
100
AcDbLine
 10
14986.21712186823
 20
-3043.698548505092
 30
0.0
 11
15061.21712186823
 21
-3043.698548505092
 31
0.0
  0
SOLID
  5
127
330
123
100
AcDbEntity
  8
0
 62
   123
100
AcDbTrace
 10
14986.21712186823
 20
-3043.281881838425
 30
0.0
 11
14986.21712186823
 21
-3044.115215171757
 31
0.0
 12
14983.71712186823
 22
-3043.698548505092
 32
0.0
 13
14983.71712186823
 23
-3043.698548505092
 33
0.0
  0
SOLID
  5
128
330
123
100
AcDbEntity
  8
0
 62
   123
100
AcDbTrace
 10
15061.21712186823
 20
-3043.281881838425
 30
0.0
 11
15061.21712186823
 21
-3044.115215171757
 31
0.0
 12
15063.71712186823
 22
-3043.698548505092
 32
0.0
 13
15063.71712186823
 23
-3043.698548505092
 33
0.0
  0
MTEXT
  5
129
330
123
100
AcDbEntity
  8
0
 62
     3
100
AcDbMText
 10
15026.5845967553
 20
-3041.198548505092
 30
0.0
 40
3.0
 41
0.0
 71
     5
 72
     1
  1
\A1;80
1001
ACAD
1000
MTEXTBEGIN
1070
    73
1070
     1
1070
    44
1040
1.0
1070
    74
1070
     0
1000
MTEXTEND
  0
POINT
  5
12A
330
123
100
AcDbEntity
  8
DEFPOINTS
 62
     0
100
AcDbPoint
 10
14983.71712186823
 20
-3023.114352973206
 30
0.0
  0
POINT
  5
12B
330
123
100
AcDbEntity
  8
DEFPOINTS
 62
     0
100
AcDbPoint
 10
15063.71712186823
 20
-3023.114352973206
 30
0.0
  0
POINT
  5
12C
330
123
100
AcDbEntity
  8
DEFPOINTS
 62
     0
100
AcDbPoint
 10
15063.71712186823
 20
-3043.698548505092
 30
0.0
  0
ENDBLK
  5
12E
330
123
100
AcDbEntity
  8
0
100
AcDbBlockEnd
  0
BLOCK
  5
109
330
100
100
AcDbEntity
  8
0
100
AcDbBlockBegin
  2
*D11
 70
     1
 10
0.0
 20
0.0
 30
0.0
  3
*D11
  1

  0
LINE
  5
101
330
100
100
AcDbEntity
  8
0
 62
   123
100
AcDbLine
 10
14984.3210444107
 20
-3018.084322625515
 30
0.0
 11
14982.33134352899
 21
-3019.597957456442
 31
0.0
  0
LINE
  5
102
330
100
100
AcDbEntity
  8
0
 62
   123
100
AcDbLine
 10
15063.11319932575
 20
-2958.14438332089
 30
0.0
 11
15093.45331254806
 21
-2935.063601395306
 31
0.0
  0
LINE
  5
103
330
100
100
AcDbEntity
  8
0
 62
   123
100
AcDbLine
 10
14986.31074529239
 20
-3016.57068779459
 30
0.0
 11
15061.12349844405
 21
-2959.658018151817
 31
0.0
  0
SOLID
  5
104
330
100
100
AcDbEntity
  8
0
 62
   123
100
AcDbTrace
 10
14984.06877193888
 20
-3017.752705811901
 30
0.0
 11
14984.57331688251
 21
-3018.415939439131
 31
0.0
 12
14986.31074529239
 22
-3016.57068779459
 32
0.0
 13
14986.31074529239
 23
-3016.57068779459
 33
0.0
  0
SOLID
  5
105
330
100
100
AcDbEntity
  8
0
 62
   123
100
AcDbTrace
 10
15062.86092685393
 20
-2957.812766507277
 30
0.0
 11
15063.36547179758
 21
-2958.476000134506
 31
0.0
 12
15061.12349844405
 22
-2959.658018151817
 32
0.0
 13
15061.12349844405
 23
-2959.658018151817
 33
0.0
  0
MTEXT
  5
106
330
100
100
AcDbEntity
  8
0
 62
     3
100
AcDbMText
 10
15083.81032840051
 20
-2939.258179965676
 30
0.0
 40
3.0
 41
0.0
 71
     5
 72
     1
  1
\A1;\U+220594%%P0.5
 11
0.7958803526773232
 21
0.6054539323699366
 31
0.0
1001
ACAD
1000
MTEXTBEGIN
1070
    73
1070
     1
1070
    44
1040
1.0
1070
    74
1070
     0
1000
MTEXTEND
  0
POINT
  5
107
330
100
100
AcDbEntity
  8
DEFPOINTS
 62
     0
100
AcDbPoint
 10
15061.12349844405
 20
-2959.658018151817
 30
0.0
  0
POINT
  5
108
330
100
100
AcDbEntity
  8
DEFPOINTS
 62
     0
100
AcDbPoint
 10
14986.31074529239
 20
-3016.57068779459
 30
0.0
  0
ENDBLK
  5
10A
330
100
100
AcDbEntity
  8
0
100
AcDbBlockEnd
  0
BLOCK
  5
186
330
17A
100
AcDbEntity
  8
0
100
AcDbBlockBegin
  2
*D12
 70
     1
 10
0.0
 20
0.0
 30
0.0
  3
*D12
  1

  0
LINE
  5
17B
330
17A
100
AcDbEntity
  8
0
 62
   123
100
AcDbLine
 10
15153.39798020071
 20
-2947.114352973207
 30
0.0
 11
15153.39798020071
 21
-2939.804425064301
 31
0.0
  0
LINE
  5
17C
330
17A
100
AcDbEntity
  8
0
 62
   123
100
AcDbLine
 10
15150.39798020071
 20
-2955.614352973206
 30
0.0
 11
15150.39798020071
 21
-2939.804425064301
 31
0.0
  0
LINE
  5
17D
330
17A
100
AcDbEntity
  8
0
 62
   123
100
AcDbLine
 10
15155.89798020071
 20
-2940.404425064301
 30
0.0
 11
15158.39798020071
 21
-2940.404425064301
 31
0.0
  0
LINE
  5
17E
330
17A
100
AcDbEntity
  8
0
 62
   123
100
AcDbLine
 10
15147.89798020071
 20
-2940.404425064301
 30
0.0
 11
15145.39798020071
 21
-2940.404425064301
 31
0.0
  0
LINE
  5
17F
330
17A
100
AcDbEntity
  8
0
 62
   123
100
AcDbLine
 10
15153.39798020071
 20
-2940.404425064301
 30
0.0
 11
15150.39798020071
 21
-2940.404425064301
 31
0.0
  0
SOLID
  5
180
330
17A
100
AcDbEntity
  8
0
 62
   123
100
AcDbTrace
 10
15155.89798020071
 20
-2939.987758397634
 30
0.0
 11
15155.89798020071
 21
-2940.821091730968
 31
0.0
 12
15153.39798020071
 22
-2940.404425064301
 32
0.0
 13
15153.39798020071
 23
-2940.404425064301
 33
0.0
  0
SOLID
  5
181
330
17A
100
AcDbEntity
  8
0
 62
   123
100
AcDbTrace
 10
15147.89798020071
 20
-2939.987758397634
 30
0.0
 11
15147.89798020071
 21
-2940.821091730968
 31
0.0
 12
15150.39798020071
 22
-2940.404425064301
 32
0.0
 13
15150.39798020071
 23
-2940.404425064301
 33
0.0
  0
MTEXT
  5
182
330
17A
100
AcDbEntity
  8
0
 62
     3
100
AcDbMText
 10
15151.89798020071
 20
-2937.904425064301
 30
0.0
 40
3.0
 41
0.0
 71
     5
 72
     1
  1
\A1;3
1001
ACAD
1000
MTEXTBEGIN
1070
    73
1070
     1
1070
    44
1040
1.0
1070
    74
1070
     0
1000
MTEXTEND
  0
POINT
  5
183
330
17A
100
AcDbEntity
  8
DEFPOINTS
 62
     0
100
AcDbPoint
 10
15153.39798020071
 20
-2948.114352973206
 30
0.0
  0
POINT
  5
184
330
17A
100
AcDbEntity
  8
DEFPOINTS
 62
     0
100
AcDbPoint
 10
15150.39798020071
 20
-2956.614352973206
 30
0.0
  0
POINT
  5
185
330
17A
100
AcDbEntity
  8
DEFPOINTS
 62
     0
100
AcDbPoint
 10
15150.39798020071
 20
-2940.404425064301
 30
0.0
  0
ENDBLK
  5
187
330
17A
100
AcDbEntity
  8
0
100
AcDbBlockEnd
  0
BLOCK
  5
177
330
16D
100
AcDbEntity
  8
0
100
AcDbBlockBegin
  2
*D13
 70
     1
 10
0.0
 20
0.0
 30
0.0
  3
*D13
  1

  0
LINE
  5
16E
330
16D
100
AcDbEntity
  8
0
 62
   123
100
AcDbLine
 10
15153.39798020071
 20
-2947.114352973207
 30
0.0
 11
15153.39798020071
 21
-2928.070473617935
 31
0.0
  0
LINE
  5
16F
330
16D
100
AcDbEntity
  8
0
 62
   123
100
AcDbLine
 10
15195.89798020071
 20
-2946.614352973205
 30
0.0
 11
15195.89798020071
 21
-2928.070473617935
 31
0.0
  0
LINE
  5
170
330
16D
100
AcDbEntity
  8
0
 62
   123
100
AcDbLine
 10
15155.89798020071
 20
-2928.670473617936
 30
0.0
 11
15193.39798020071
 21
-2928.670473617936
 31
0.0
  0
SOLID
  5
171
330
16D
100
AcDbEntity
  8
0
 62
   123
100
AcDbTrace
 10
15155.89798020071
 20
-2928.25380695127
 30
0.0
 11
15155.89798020071
 21
-2929.087140284602
 31
0.0
 12
15153.39798020071
 22
-2928.670473617936
 32
0.0
 13
15153.39798020071
 23
-2928.670473617936
 33
0.0
  0
SOLID
  5
172
330
16D
100
AcDbEntity
  8
0
 62
   123
100
AcDbTrace
 10
15193.39798020071
 20
-2928.25380695127
 30
0.0
 11
15193.39798020071
 21
-2929.087140284602
 31
0.0
 12
15195.89798020071
 22
-2928.670473617936
 32
0.0
 13
15195.89798020071
 23
-2928.670473617936
 33
0.0
  0
MTEXT
  5
173
330
16D
100
AcDbEntity
  8
0
 62
     3
100
AcDbMText
 10
15173.39798020071
 20
-2926.170473617935
 30
0.0
 40
3.0
 41
0.0
 71
     5
 72
     1
  1
\A1;{\f??|b0|i0|c0|p49;L}
1001
ACAD
1000
MTEXTBEGIN
1070
    73
1070
     1
1070
    44
1040
1.0
1070
    74
1070
     0
1000
MTEXTEND
  0
POINT
  5
174
330
16D
100
AcDbEntity
  8
DEFPOINTS
 62
     0
100
AcDbPoint
 10
15153.39798020071
 20
-2948.114352973206
 30
0.0
  0
POINT
  5
175
330
16D
100
AcDbEntity
  8
DEFPOINTS
 62
     0
100
AcDbPoint
 10
15195.89798020071
 20
-2947.614352973205
 30
0.0
  0
POINT
  5
176
330
16D
100
AcDbEntity
  8
DEFPOINTS
 62
     0
100
AcDbPoint
 10
15195.89798020071
 20
-2928.670473617936
 30
0.0
  0
ENDBLK
  5
178
330
16D
100
AcDbEntity
  8
0
100
AcDbBlockEnd
  0
BLOCK
  5
EA
330
E0
100
AcDbEntity
  8
0
100
AcDbBlockBegin
  2
*D14
 70
     1
 10
0.0
 20
0.0
 30
0.0
  3
*D14
  1

  0
LINE
  5
E1
330
E0
100
AcDbEntity
  8
0
 62
   123
100
AcDbLine
 10
15149.89798020071
 20
-2956.114352973207
 30
0.0
 11
15087.28359830915
 21
-2956.114352973207
 31
0.0
  0
LINE
  5
E2
330
E0
100
AcDbEntity
  8
0
 62
   123
100
AcDbLine
 10
15149.89798020071
 20
-2990.114352973206
 30
0.0
 11
15087.28359830915
 21
-2990.114352973206
 31
0.0
  0
LINE
  5
E3
330
E0
100
AcDbEntity
  8
0
 62
   123
100
AcDbLine
 10
15087.88359830915
 20
-2958.614352973206
 30
0.0
 11
15087.88359830915
 21
-2987.614352973206
 31
0.0
  0
SOLID
  5
E4
330
E0
100
AcDbEntity
  8
0
 62
   123
100
AcDbTrace
 10
15087.46693164248
 20
-2958.614352973206
 30
0.0
 11
15088.30026497581
 21
-2958.614352973206
 31
0.0
 12
15087.88359830915
 22
-2956.114352973207
 32
0.0
 13
15087.88359830915
 23
-2956.114352973207
 33
0.0
  0
SOLID
  5
E5
330
E0
100
AcDbEntity
  8
0
 62
   123
100
AcDbTrace
 10
15087.46693164248
 20
-2987.614352973206
 30
0.0
 11
15088.30026497581
 21
-2987.614352973206
 31
0.0
 12
15087.88359830915
 22
-2990.114352973206
 32
0.0
 13
15087.88359830915
 23
-2990.114352973206
 33
0.0
  0
MTEXT
  5
E6
330
E0
100
AcDbEntity
  8
0
 62
     3
100
AcDbMText
 10
15085.38359830914
 20
-2973.114352973206
 30
0.0
 40
3.0
 41
0.0
 71
     5
 72
     1
  1
\A1;{\f??|b0|i0|c0|p49;%%c}34
 11
0.0000000000000001
 21
1.0
 31
0.0
1001
ACAD
1000
MTEXTBEGIN
1070
    73
1070
     1
1070
    44
1040
1.0
1070
    74
1070
     0
1000
MTEXTEND
  0
POINT
  5
E7
330
E0
100
AcDbEntity
  8
DEFPOINTS
 62
     0
100
AcDbPoint
 10
15150.89798020071
 20
-2956.114352973207
 30
0.0
  0
POINT
  5
E8
330
E0
100
AcDbEntity
  8
DEFPOINTS
 62
     0
100
AcDbPoint
 10
15150.89798020071
 20
-2990.114352973206
 30
0.0
  0
POINT
  5
E9
330
E0
100
AcDbEntity
  8
DEFPOINTS
 62
     0
100
AcDbPoint
 10
15087.88359830915
 20
-2990.114352973206
 30
0.0
  0
ENDBLK
  5
EB
330
E0
100
AcDbEntity
  8
0
100
AcDbBlockEnd
  0
BLOCK
  5
B9
330
AF
100
AcDbEntity
  8
0
100
AcDbBlockBegin
  2
*D15
 70
     1
 10
0.0
 20
0.0
 30
0.0
  3
*D15
  1

  0
LINE
  5
B0
330
AF
100
AcDbEntity
  8
0
 62
   123
100
AcDbLine
 10
15032.78311852159
 20
-2787.608826439166
 30
0.0
 11
15032.78311852159
 21
-2813.185787779285
 31
0.0
  0
LINE
  5
B1
330
AF
100
AcDbEntity
  8
0
 62
   123
100
AcDbLine
 10
15112.78311852159
 20
-2787.608826439166
 30
0.0
 11
15112.78311852159
 21
-2813.185787779285
 31
0.0
  0
LINE
  5
B2
330
AF
100
AcDbEntity
  8
0
 62
   123
100
AcDbLine
 10
15035.28311852159
 20
-2812.585787779285
 30
0.0
 11
15110.28311852159
 21
-2812.585787779285
 31
0.0
  0
SOLID
  5
B3
330
AF
100
AcDbEntity
  8
0
 62
   123
100
AcDbTrace
 10
15035.28311852159
 20
-2812.169121112619
 30
0.0
 11
15035.28311852159
 21
-2813.002454445951
 31
0.0
 12
15032.78311852159
 22
-2812.585787779285
 32
0.0
 13
15032.78311852159
 23
-2812.585787779285
 33
0.0
  0
SOLID
  5
B4
330
AF
100
AcDbEntity
  8
0
 62
   123
100
AcDbTrace
 10
15110.28311852159
 20
-2812.169121112619
 30
0.0
 11
15110.28311852159
 21
-2813.002454445951
 31
0.0
 12
15112.78311852159
 22
-2812.585787779285
 32
0.0
 13
15112.78311852159
 23
-2812.585787779285
 33
0.0
  0
MTEXT
  5
B5
330
AF
100
AcDbEntity
  8
0
 62
     3
100
AcDbMText
 10
15076.60233629211
 20
-2810.085787779285
 30
0.0
 40
3.0
 41
0.0
 71
     5
 72
     1
  1
\A1;80
1001
ACAD
1000
MTEXTBEGIN
1070
    73
1070
     1
1070
    44
1040
1.0
1070
    74
1070
     0
1000
MTEXTEND
  0
POINT
  5
B6
330
AF
100
AcDbEntity
  8
DEFPOINTS
 62
     0
100
AcDbPoint
 10
15032.78311852159
 20
-2786.608826439166
 30
0.0
  0
POINT
  5
B7
330
AF
100
AcDbEntity
  8
DEFPOINTS
 62
     0
100
AcDbPoint
 10
15112.78311852159
 20
-2786.608826439166
 30
0.0
  0
POINT
  5
B8
330
AF
100
AcDbEntity
  8
DEFPOINTS
 62
     0
100
AcDbPoint
 10
15112.78311852159
 20
-2812.585787779285
 30
0.0
  0
ENDBLK
  5
BA
330
AF
100
AcDbEntity
  8
0
100
AcDbBlockEnd
  0
BLOCK
  5
1AC
330
1A0
100
AcDbEntity
  8
0
100
AcDbBlockBegin
  2
*D16
 70
     1
 10
0.0
 20
0.0
 30
0.0
  3
*D16
  1

  0
LINE
  5
1A1
330
1A0
100
AcDbEntity
  8
0
 62
   123
100
AcDbLine
 10
15088.18864813603
 20
-2853.788218282542
 30
0.0
 11
15088.18864813603
 21
-2845.429205737566
 31
0.0
  0
LINE
  5
1A2
330
1A0
100
AcDbEntity
  8
0
 62
   123
100
AcDbLine
 10
15092.18864813603
 20
-2853.788218282542
 30
0.0
 11
15092.18864813603
 21
-2845.429205737566
 31
0.0
  0
LINE
  5
1A3
330
1A0
100
AcDbEntity
  8
0
 62
   123
100
AcDbLine
 10
15085.68864813603
 20
-2846.029205737566
 30
0.0
 11
15083.18864813603
 21
-2846.029205737566
 31
0.0
  0
LINE
  5
1A4
330
1A0
100
AcDbEntity
  8
0
 62
   123
100
AcDbLine
 10
15094.68864813603
 20
-2846.029205737566
 30
0.0
 11
15097.18864813603
 21
-2846.029205737566
 31
0.0
  0
LINE
  5
1A5
330
1A0
100
AcDbEntity
  8
0
 62
   123
100
AcDbLine
 10
15088.18864813603
 20
-2846.029205737566
 30
0.0
 11
15092.18864813603
 21
-2846.029205737566
 31
0.0
  0
SOLID
  5
1A6
330
1A0
100
AcDbEntity
  8
0
 62
   123
100
AcDbTrace
 10
15085.68864813603
 20
-2845.612539070899
 30
0.0
 11
15085.68864813603
 21
-2846.445872404233
 31
0.0
 12
15088.18864813603
 22
-2846.029205737566
 32
0.0
 13
15088.18864813603
 23
-2846.029205737566
 33
0.0
  0
SOLID
  5
1A7
330
1A0
100
AcDbEntity
  8
0
 62
   123
100
AcDbTrace
 10
15094.68864813603
 20
-2845.612539070899
 30
0.0
 11
15094.68864813603
 21
-2846.445872404233
 31
0.0
 12
15092.18864813603
 22
-2846.029205737566
 32
0.0
 13
15092.18864813603
 23
-2846.029205737566
 33
0.0
  0
MTEXT
  5
1A8
330
1A0
100
AcDbEntity
  8
0
 62
     3
100
AcDbMText
 10
15090.18864813603
 20
-2842.579205737566
 30
0.0
 40
3.0
 41
0.0
 71
     5
 72
     1
  1
\A1;\A1;4{\f??|b0|i0|c0|p49;\H0.7x;\S+0.40^ -0;}
1001
ACAD
1000
MTEXTBEGIN
1070
    73
1070
     1
1070
    44
1040
1.0
1070
    74
1070
     0
1000
MTEXTEND
  0
POINT
  5
1A9
330
1A0
100
AcDbEntity
  8
DEFPOINTS
 62
     0
100
AcDbPoint
 10
15088.18864813603
 20
-2854.788218282541
 30
0.0
  0
POINT
  5
1AA
330
1A0
100
AcDbEntity
  8
DEFPOINTS
 62
     0
100
AcDbPoint
 10
15092.18864813603
 20
-2854.788218282541
 30
0.0
  0
POINT
  5
1AB
330
1A0
100
AcDbEntity
  8
DEFPOINTS
 62
     0
100
AcDbPoint
 10
15092.18864813603
 20
-2846.029205737566
 30
0.0
  0
ENDBLK
  5
1AD
330
1A0
100
AcDbEntity
  8
0
100
AcDbBlockEnd
  0
BLOCK
  5
1BD
330
1B1
100
AcDbEntity
  8
0
100
AcDbBlockBegin
  2
*D17
 70
     1
 10
0.0
 20
0.0
 30
0.0
  3
*D17
  1

  0
LINE
  5
1B2
330
1B1
100
AcDbEntity
  8
0
 62
   123
100
AcDbLine
 10
15043.25526839548
 20
-2854.770498690501
 30
0.0
 11
15043.25526839548
 21
-2846.496023031868
 31
0.0
  0
LINE
  5
1B3
330
1B1
100
AcDbEntity
  8
0
 62
   123
100
AcDbLine
 10
15047.25526839548
 20
-2854.770498690501
 30
0.0
 11
15047.25526839548
 21
-2846.496023031868
 31
0.0
  0
LINE
  5
1B4
330
1B1
100
AcDbEntity
  8
0
 62
   123
100
AcDbLine
 10
15040.75526839548
 20
-2847.096023031868
 30
0.0
 11
15038.25526839548
 21
-2847.096023031868
 31
0.0
  0
LINE
  5
1B5
330
1B1
100
AcDbEntity
  8
0
 62
   123
100
AcDbLine
 10
15049.75526839548
 20
-2847.096023031868
 30
0.0
 11
15052.25526839548
 21
-2847.096023031868
 31
0.0
  0
LINE
  5
1B6
330
1B1
100
AcDbEntity
  8
0
 62
   123
100
AcDbLine
 10
15043.25526839548
 20
-2847.096023031868
 30
0.0
 11
15047.25526839548
 21
-2847.096023031868
 31
0.0
  0
SOLID
  5
1B7
330
1B1
100
AcDbEntity
  8
0
 62
   123
100
AcDbTrace
 10
15040.75526839548
 20
-2846.679356365202
 30
0.0
 11
15040.75526839548
 21
-2847.512689698535
 31
0.0
 12
15043.25526839548
 22
-2847.096023031868
 32
0.0
 13
15043.25526839548
 23
-2847.096023031868
 33
0.0
  0
SOLID
  5
1B8
330
1B1
100
AcDbEntity
  8
0
 62
   123
100
AcDbTrace
 10
15049.75526839548
 20
-2846.679356365202
 30
0.0
 11
15049.75526839548
 21
-2847.512689698535
 31
0.0
 12
15047.25526839548
 22
-2847.096023031868
 32
0.0
 13
15047.25526839548
 23
-2847.096023031868
 33
0.0
  0
MTEXT
  5
1B9
330
1B1
100
AcDbEntity
  8
0
 62
     3
100
AcDbMText
 10
15045.25526839548
 20
-2843.646023031869
 30
0.0
 40
3.0
 41
0.0
 71
     5
 72
     1
  1
\A1;\A1;4{\f??|b0|i0|c0|p49;\H0.7x;\S+0^ -0.03;}
1001
ACAD
1000
MTEXTBEGIN
1070
    73
1070
     1
1070
    44
1040
1.0
1070
    74
1070
     0
1000
MTEXTEND
  0
POINT
  5
1BA
330
1B1
100
AcDbEntity
  8
DEFPOINTS
 62
     0
100
AcDbPoint
 10
15043.25526839548
 20
-2855.770498690501
 30
0.0
  0
POINT
  5
1BB
330
1B1
100
AcDbEntity
  8
DEFPOINTS
 62
     0
100
AcDbPoint
 10
15047.25526839548
 20
-2855.770498690501
 30
0.0
  0
POINT
  5
1BC
330
1B1
100
AcDbEntity
  8
DEFPOINTS
 62
     0
100
AcDbPoint
 10
15047.25526839548
 20
-2847.096023031868
 30
0.0
  0
ENDBLK
  5
1BE
330
1B1
100
AcDbEntity
  8
0
100
AcDbBlockEnd
  0
BLOCK
  5
1CE
330
1C2
100
AcDbEntity
  8
0
100
AcDbBlockBegin
  2
*D18
 70
     1
 10
0.0
 20
0.0
 30
0.0
  3
*D18
  1

  0
LINE
  5
1C3
330
1C2
100
AcDbEntity
  8
0
 62
   123
100
AcDbLine
 10
15093.18864813603
 20
-2856.870793977496
 30
0.0
 11
15108.2859806302
 21
-2856.870793977496
 31
0.0
  0
LINE
  5
1C4
330
1C2
100
AcDbEntity
  8
0
 62
   123
100
AcDbLine
 10
15091.18864813603
 20
-2854.370793977496
 30
0.0
 11
15108.2859806302
 21
-2854.370793977496
 31
0.0
  0
LINE
  5
1C5
330
1C2
100
AcDbEntity
  8
0
 62
   123
100
AcDbLine
 10
15107.6859806302
 20
-2859.370793977497
 30
0.0
 11
15107.6859806302
 21
-2861.870793977498
 31
0.0
  0
LINE
  5
1C6
330
1C2
100
AcDbEntity
  8
0
 62
   123
100
AcDbLine
 10
15107.6859806302
 20
-2851.870793977496
 30
0.0
 11
15107.6859806302
 21
-2830.456508263214
 31
0.0
  0
LINE
  5
1C7
330
1C2
100
AcDbEntity
  8
0
 62
   123
100
AcDbLine
 10
15107.6859806302
 20
-2856.870793977496
 30
0.0
 11
15107.6859806302
 21
-2854.370793977496
 31
0.0
  0
SOLID
  5
1C8
330
1C2
100
AcDbEntity
  8
0
 62
   123
100
AcDbTrace
 10
15107.26931396354
 20
-2859.370793977497
 30
0.0
 11
15108.10264729686
 21
-2859.370793977497
 31
0.0
 12
15107.6859806302
 22
-2856.870793977496
 32
0.0
 13
15107.6859806302
 23
-2856.870793977496
 33
0.0
  0
SOLID
  5
1C9
330
1C2
100
AcDbEntity
  8
0
 62
   123
100
AcDbTrace
 10
15107.26931396354
 20
-2851.870793977496
 30
0.0
 11
15108.10264729686
 21
-2851.870793977496
 31
0.0
 12
15107.6859806302
 22
-2854.370793977496
 32
0.0
 13
15107.6859806302
 23
-2854.370793977496
 33
0.0
  0
MTEXT
  5
1CA
330
1C2
100
AcDbEntity
  8
0
 62
     3
100
AcDbMText
 10
15104.23598063021
 20
-2838.163651120354
 30
0.0
 40
3.0
 41
0.0
 71
     5
 72
     1
  1
\A1;\A1;2.5{\f??|b0|i0|c0|p49;\H0.7x;\S+0.1^ -0;\H1.429x; }
 11
0.0000000000000001
 21
1.0
 31
0.0
1001
ACAD
1000
MTEXTBEGIN
1070
    73
1070
     1
1070
    44
1040
1.0
1070
    74
1070
     0
1000
MTEXTEND
  0
POINT
  5
1CB
330
1C2
100
AcDbEntity
  8
DEFPOINTS
 62
     0
100
AcDbPoint
 10
15092.18864813603
 20
-2856.870793977496
 30
0.0
  0
POINT
  5
1CC
330
1C2
100
AcDbEntity
  8
DEFPOINTS
 62
     0
100
AcDbPoint
 10
15090.18864813603
 20
-2854.370793977496
 30
0.0
  0
POINT
  5
1CD
330
1C2
100
AcDbEntity
  8
DEFPOINTS
 62
     0
100
AcDbPoint
 10
15107.6859806302
 20
-2854.370793977496
 30
0.0
  0
ENDBLK
  5
1CF
330
1C2
100
AcDbEntity
  8
0
100
AcDbBlockEnd
  0
BLOCK
  5
1EC
330
1E2
100
AcDbEntity
  8
0
100
AcDbBlockBegin
  2
*D19
 70
     1
 10
0.0
 20
0.0
 30
0.0
  3
*D19
  1

  0
LINE
  5
1E3
330
1E2
100
AcDbEntity
  8
0
 62
   123
100
AcDbLine
 10
15001.08461510877
 20
-2856.770498690501
 30
0.0
 11
15001.08461510877
 21
-2847.365304710026
 31
0.0
  0
LINE
  5
1E4
330
1E2
100
AcDbEntity
  8
0
 62
   123
100
AcDbLine
 10
15026.08461510877
 20
-2854.770498690501
 30
0.0
 11
15026.08461510877
 21
-2847.365304710026
 31
0.0
  0
LINE
  5
1E5
330
1E2
100
AcDbEntity
  8
0
 62
   123
100
AcDbLine
 10
15003.58461510877
 20
-2847.965304710026
 30
0.0
 11
15023.58461510877
 21
-2847.965304710026
 31
0.0
  0
SOLID
  5
1E6
330
1E2
100
AcDbEntity
  8
0
 62
   123
100
AcDbTrace
 10
15003.58461510877
 20
-2847.548638043358
 30
0.0
 11
15003.58461510877
 21
-2848.381971376692
 31
0.0
 12
15001.08461510877
 22
-2847.965304710026
 32
0.0
 13
15001.08461510877
 23
-2847.965304710026
 33
0.0
  0
SOLID
  5
1E7
330
1E2
100
AcDbEntity
  8
0
 62
   123
100
AcDbTrace
 10
15023.58461510877
 20
-2847.548638043358
 30
0.0
 11
15023.58461510877
 21
-2848.381971376692
 31
0.0
 12
15026.08461510877
 22
-2847.965304710026
 32
0.0
 13
15026.08461510877
 23
-2847.965304710026
 33
0.0
  0
MTEXT
  5
1E8
330
1E2
100
AcDbEntity
  8
0
 62
     3
100
AcDbMText
 10
15013.58461510877
 20
-2845.465304710025
 30
0.0
 40
3.0
 41
0.0
 71
     5
 72
     1
  1
\A1;25{\f??|b0|i0|c0|p49;%%p0.2}
1001
ACAD
1000
MTEXTBEGIN
1070
    73
1070
     1
1070
    44
1040
1.0
1070
    74
1070
     0
1000
MTEXTEND
  0
POINT
  5
1E9
330
1E2
100
AcDbEntity
  8
DEFPOINTS
 62
     0
100
AcDbPoint
 10
15001.08461510877
 20
-2857.770498690501
 30
0.0
  0
POINT
  5
1EA
330
1E2
100
AcDbEntity
  8
DEFPOINTS
 62
     0
100
AcDbPoint
 10
15026.08461510877
 20
-2855.770498690501
 30
0.0
  0
POINT
  5
1EB
330
1E2
100
AcDbEntity
  8
DEFPOINTS
 62
     0
100
AcDbPoint
 10
15026.08461510877
 20
-2847.965304710026
 30
0.0
  0
ENDBLK
  5
1ED
330
1E2
100
AcDbEntity
  8
0
100
AcDbBlockEnd
  0
BLOCK
  5
369
330
35D
100
AcDbEntity
  8
0
100
AcDbBlockBegin
  2
*D20
 70
     1
 10
0.0
 20
0.0
 30
0.0
  3
*D20
  1

  0
LINE
  5
35E
330
35D
100
AcDbEntity
  8
0
 62
   123
100
AcDbLine
 10
15177.43623911409
 20
-2741.608826439165
 30
0.0
 11
15163.01157582511
 21
-2741.608826439165
 31
0.0
  0
LINE
  5
35F
330
35D
100
AcDbEntity
  8
0
 62
   123
100
AcDbLine
 10
15177.43623911409
 20
-2731.608826439165
 30
0.0
 11
15163.01157582511
 21
-2731.608826439165
 31
0.0
  0
LINE
  5
360
330
35D
100
AcDbEntity
  8
0
 62
   123
100
AcDbLine
 10
15163.6115758251
 20
-2744.108826439165
 30
0.0
 11
15163.6115758251
 21
-2746.608826439166
 31
0.0
  0
LINE
  5
361
330
35D
100
AcDbEntity
  8
0
 62
   123
100
AcDbLine
 10
15163.6115758251
 20
-2729.108826439166
 30
0.0
 11
15163.6115758251
 21
-2688.682321084852
 31
0.0
  0
LINE
  5
362
330
35D
100
AcDbEntity
  8
0
 62
   123
100
AcDbLine
 10
15163.6115758251
 20
-2741.608826439165
 30
0.0
 11
15163.6115758251
 21
-2731.608826439165
 31
0.0
  0
SOLID
  5
363
330
35D
100
AcDbEntity
  8
0
 62
   123
100
AcDbTrace
 10
15163.19490915843
 20
-2744.108826439165
 30
0.0
 11
15164.02824249178
 21
-2744.108826439165
 31
0.0
 12
15163.6115758251
 22
-2741.608826439165
 32
0.0
 13
15163.6115758251
 23
-2741.608826439165
 33
0.0
  0
SOLID
  5
364
330
35D
100
AcDbEntity
  8
0
 62
   123
100
AcDbTrace
 10
15163.19490915843
 20
-2729.108826439166
 30
0.0
 11
15164.02824249178
 21
-2729.108826439166
 31
0.0
 12
15163.6115758251
 22
-2731.608826439165
 32
0.0
 13
15163.6115758251
 23
-2731.608826439165
 33
0.0
  0
MTEXT
  5
365
330
35D
100
AcDbEntity
  8
0
 62
     3
100
AcDbMText
 10
15159.66142582511
 20
-2703.497892513423
 30
0.0
 40
3.0
 41
0.0
 71
     5
 72
     1
  1
\A1;\A1;{\f??|b0|i0|c0|p49;%%C10\H0.7x;\S+0^ -0.015;\H1.429x;(h7)}
 11
0.0000000000000001
 21
1.0
 31
0.0
1001
ACAD
1000
MTEXTBEGIN
1070
    73
1070
     1
1070
    44
1040
1.0
1070
    74
1070
     0
1000
MTEXTEND
  0
POINT
  5
366
330
35D
100
AcDbEntity
  8
DEFPOINTS
 62
     0
100
AcDbPoint
 10
15178.43623911408
 20
-2741.608826439165
 30
0.0
  0
POINT
  5
367
330
35D
100
AcDbEntity
  8
DEFPOINTS
 62
     0
100
AcDbPoint
 10
15178.43623911408
 20
-2731.608826439165
 30
0.0
  0
POINT
  5
368
330
35D
100
AcDbEntity
  8
DEFPOINTS
 62
     0
100
AcDbPoint
 10
15163.6115758251
 20
-2731.608826439165
 30
0.0
  0
ENDBLK
  5
36A
330
35D
100
AcDbEntity
  8
0
100
AcDbBlockEnd
  0
BLOCK
  5
328
330
31E
100
AcDbEntity
  8
0
100
AcDbBlockBegin
  2
*D21
 70
     1
 10
0.0
 20
0.0
 30
0.0
  3
*D21
  1

  0
LINE
  5
31F
330
31E
100
AcDbEntity
  8
0
 62
   123
100
AcDbLine
 10
15173.53810031285
 20
-2736.608826439165
 30
0.0
 11
15153.98969244259
 21
-2736.608826439165
 31
0.0
  0
LINE
  5
320
330
31E
100
AcDbEntity
  8
0
 62
   123
100
AcDbLine
 10
15165.82856597998
 20
-2751.608826439165
 30
0.0
 11
15153.98969244259
 21
-2751.608826439165
 31
0.0
  0
LINE
  5
321
330
31E
100
AcDbEntity
  8
0
 62
   123
100
AcDbLine
 10
15154.58969244259
 20
-2739.108826439165
 30
0.0
 11
15154.58969244259
 21
-2749.108826439165
 31
0.0
  0
SOLID
  5
322
330
31E
100
AcDbEntity
  8
0
 62
   123
100
AcDbTrace
 10
15154.17302577591
 20
-2739.108826439165
 30
0.0
 11
15155.00635910926
 21
-2739.108826439165
 31
0.0
 12
15154.58969244259
 22
-2736.608826439165
 32
0.0
 13
15154.58969244259
 23
-2736.608826439165
 33
0.0
  0
SOLID
  5
323
330
31E
100
AcDbEntity
  8
0
 62
   123
100
AcDbTrace
 10
15154.17302577591
 20
-2749.108826439165
 30
0.0
 11
15155.00635910926
 21
-2749.108826439165
 31
0.0
 12
15154.58969244259
 22
-2751.608826439165
 32
0.0
 13
15154.58969244259
 23
-2751.608826439165
 33
0.0
  0
MTEXT
  5
324
330
31E
100
AcDbEntity
  8
0
 62
     3
100
AcDbMText
 10
15152.08969244259
 20
-2744.108826439163
 30
0.0
 40
3.0
 41
0.0
 71
     5
 72
     1
  1
\A1;15
 11
0.0000000000000001
 21
1.0
 31
0.0
1001
ACAD
1000
MTEXTBEGIN
1070
    73
1070
     1
1070
    44
1040
1.0
1070
    74
1070
     0
1000
MTEXTEND
  0
POINT
  5
325
330
31E
100
AcDbEntity
  8
DEFPOINTS
 62
     0
100
AcDbPoint
 10
15174.53810031286
 20
-2736.608826439165
 30
0.0
  0
POINT
  5
326
330
31E
100
AcDbEntity
  8
DEFPOINTS
 62
     0
100
AcDbPoint
 10
15166.82856597998
 20
-2751.608826439165
 30
0.0
  0
POINT
  5
327
330
31E
100
AcDbEntity
  8
DEFPOINTS
 62
     0
100
AcDbPoint
 10
15154.58969244259
 20
-2751.608826439165
 30
0.0
  0
ENDBLK
  5
329
330
31E
100
AcDbEntity
  8
0
100
AcDbBlockEnd
  0
BLOCK
  5
358
330
34E
100
AcDbEntity
  8
0
100
AcDbBlockBegin
  2
*D22
 70
     1
 10
0.0
 20
0.0
 30
0.0
  3
*D22
  1

  0
LINE
  5
34F
330
34E
100
AcDbEntity
  8
0
 62
   123
100
AcDbLine
 10
15203.43623911409
 20
-2730.608826439166
 30
0.0
 11
15203.43623911409
 21
-2714.788538232264
 31
0.0
  0
LINE
  5
350
330
34E
100
AcDbEntity
  8
0
 62
   123
100
AcDbLine
 10
15178.43623911408
 20
-2730.608826439166
 30
0.0
 11
15178.43623911408
 21
-2714.788538232264
 31
0.0
  0
LINE
  5
351
330
34E
100
AcDbEntity
  8
0
 62
   123
100
AcDbLine
 10
15200.93623911409
 20
-2715.388538232264
 30
0.0
 11
15180.93623911409
 21
-2715.388538232264
 31
0.0
  0
SOLID
  5
352
330
34E
100
AcDbEntity
  8
0
 62
   123
100
AcDbTrace
 10
15200.93623911409
 20
-2714.971871565596
 30
0.0
 11
15200.93623911409
 21
-2715.80520489893
 31
0.0
 12
15203.43623911409
 22
-2715.388538232264
 32
0.0
 13
15203.43623911409
 23
-2715.388538232264
 33
0.0
  0
SOLID
  5
353
330
34E
100
AcDbEntity
  8
0
 62
   123
100
AcDbTrace
 10
15180.93623911409
 20
-2714.971871565596
 30
0.0
 11
15180.93623911409
 21
-2715.80520489893
 31
0.0
 12
15178.43623911408
 22
-2715.388538232264
 32
0.0
 13
15178.43623911408
 23
-2715.388538232264
 33
0.0
  0
MTEXT
  5
354
330
34E
100
AcDbEntity
  8
0
 62
     3
100
AcDbMText
 10
15191.24716978148
 20
-2712.888538232263
 30
0.0
 40
3.0
 41
0.0
 71
     5
 72
     1
  1
\A1;25
1001
ACAD
1000
MTEXTBEGIN
1070
    73
1070
     1
1070
    44
1040
1.0
1070
    74
1070
     0
1000
MTEXTEND
  0
POINT
  5
355
330
34E
100
AcDbEntity
  8
DEFPOINTS
 62
     0
100
AcDbPoint
 10
15203.43623911409
 20
-2731.608826439165
 30
0.0
  0
POINT
  5
356
330
34E
100
AcDbEntity
  8
DEFPOINTS
 62
     0
100
AcDbPoint
 10
15178.43623911408
 20
-2731.608826439166
 30
0.0
  0
POINT
  5
357
330
34E
100
AcDbEntity
  8
DEFPOINTS
 62
     0
100
AcDbPoint
 10
15178.43623911408
 20
-2715.388538232264
 30
0.0
  0
ENDBLK
  5
359
330
34E
100
AcDbEntity
  8
0
100
AcDbBlockEnd
  0
BLOCK
  5
39F
330
395
100
AcDbEntity
  8
0
100
AcDbBlockBegin
  2
*D23
 70
     1
 10
0.0
 20
0.0
 30
0.0
  3
*D23
  1

  0
LINE
  5
396
330
395
100
AcDbEntity
  8
0
 62
   123
100
AcDbLine
 10
15043.98197725758
 20
-2568.679481555808
 30
0.0
 11
15043.98197725758
 21
-2549.604914906069
 31
0.0
  0
LINE
  5
397
330
395
100
AcDbEntity
  8
0
 62
   123
100
AcDbLine
 10
15123.98197725758
 20
-2568.679481555808
 30
0.0
 11
15123.98197725758
 21
-2549.604914906069
 31
0.0
  0
LINE
  5
398
330
395
100
AcDbEntity
  8
0
 62
   123
100
AcDbLine
 10
15046.48197725758
 20
-2550.204914906069
 30
0.0
 11
15121.48197725758
 21
-2550.204914906069
 31
0.0
  0
SOLID
  5
399
330
395
100
AcDbEntity
  8
0
 62
   123
100
AcDbTrace
 10
15046.48197725758
 20
-2549.788248239402
 30
0.0
 11
15046.48197725758
 21
-2550.621581572735
 31
0.0
 12
15043.98197725758
 22
-2550.204914906069
 32
0.0
 13
15043.98197725758
 23
-2550.204914906069
 33
0.0
  0
SOLID
  5
39A
330
395
100
AcDbEntity
  8
0
 62
   123
100
AcDbTrace
 10
15121.48197725758
 20
-2549.788248239402
 30
0.0
 11
15121.48197725758
 21
-2550.621581572735
 31
0.0
 12
15123.98197725758
 22
-2550.204914906069
 32
0.0
 13
15123.98197725758
 23
-2550.204914906069
 33
0.0
  0
MTEXT
  5
39B
330
395
100
AcDbEntity
  8
0
 62
     3
100
AcDbMText
 10
15085.59069864221
 20
-2547.704914906069
 30
0.0
 40
3.0
 41
0.0
 71
     5
 72
     1
  1
\A1;80
1001
ACAD
1000
MTEXTBEGIN
1070
    73
1070
     1
1070
    44
1040
1.0
1070
    74
1070
     0
1000
MTEXTEND
  0
POINT
  5
39C
330
395
100
AcDbEntity
  8
DEFPOINTS
 62
     0
100
AcDbPoint
 10
15043.98197725758
 20
-2569.679481555807
 30
0.0
  0
POINT
  5
39D
330
395
100
AcDbEntity
  8
DEFPOINTS
 62
     0
100
AcDbPoint
 10
15123.98197725758
 20
-2569.679481555807
 30
0.0
  0
POINT
  5
39E
330
395
100
AcDbEntity
  8
DEFPOINTS
 62
     0
100
AcDbPoint
 10
15123.98197725758
 20
-2550.204914906069
 30
0.0
  0
ENDBLK
  5
3A0
330
395
100
AcDbEntity
  8
0
100
AcDbBlockEnd
  0
BLOCK
  5
3B3
330
3A9
100
AcDbEntity
  8
0
100
AcDbBlockBegin
  2
*D24
 70
     1
 10
0.0
 20
0.0
 30
0.0
  3
*D24
  1

  0
LINE
  5
3AA
330
3A9
100
AcDbEntity
  8
0
 62
   123
100
AcDbLine
 10
15185.17492572894
 20
-2563.679481555808
 30
0.0
 11
15185.17492572894
 21
-2544.222989935867
 31
0.0
  0
LINE
  5
3AB
330
3A9
100
AcDbEntity
  8
0
 62
   123
100
AcDbLine
 10
15217.17492572894
 20
-2563.679481555808
 30
0.0
 11
15217.17492572894
 21
-2544.222989935867
 31
0.0
  0
LINE
  5
3AC
330
3A9
100
AcDbEntity
  8
0
 62
   123
100
AcDbLine
 10
15187.67492572894
 20
-2544.822989935867
 30
0.0
 11
15214.67492572894
 21
-2544.822989935867
 31
0.0
  0
SOLID
  5
3AD
330
3A9
100
AcDbEntity
  8
0
 62
   123
100
AcDbTrace
 10
15187.67492572894
 20
-2544.406323269201
 30
0.0
 11
15187.67492572894
 21
-2545.239656602534
 31
0.0
 12
15185.17492572894
 22
-2544.822989935867
 32
0.0
 13
15185.17492572894
 23
-2544.822989935867
 33
0.0
  0
SOLID
  5
3AE
330
3A9
100
AcDbEntity
  8
0
 62
   123
100
AcDbTrace
 10
15214.67492572894
 20
-2544.406323269201
 30
0.0
 11
15214.67492572894
 21
-2545.239656602534
 31
0.0
 12
15217.17492572894
 22
-2544.822989935867
 32
0.0
 13
15217.17492572894
 23
-2544.822989935867
 33
0.0
  0
MTEXT
  5
3AF
330
3A9
100
AcDbEntity
  8
0
 62
     3
100
AcDbMText
 10
15201.17492572894
 20
-2542.322989935867
 30
0.0
 40
3.0
 41
0.0
 71
     5
 72
     1
  1
\A1;32
1001
ACAD
1000
MTEXTBEGIN
1070
    73
1070
     1
1070
    44
1040
1.0
1070
    74
1070
     0
1000
MTEXTEND
  0
POINT
  5
3B0
330
3A9
100
AcDbEntity
  8
DEFPOINTS
 62
     0
100
AcDbPoint
 10
15185.17492572894
 20
-2564.679481555808
 30
0.0
  0
POINT
  5
3B1
330
3A9
100
AcDbEntity
  8
DEFPOINTS
 62
     0
100
AcDbPoint
 10
15217.17492572894
 20
-2564.679481555808
 30
0.0
  0
POINT
  5
3B2
330
3A9
100
AcDbEntity
  8
DEFPOINTS
 62
     0
100
AcDbPoint
 10
15217.17492572894
 20
-2544.822989935867
 30
0.0
  0
ENDBLK
  5
3B4
330
3A9
100
AcDbEntity
  8
0
100
AcDbBlockEnd
  0
BLOCK
  5
309
330
2FF
100
AcDbEntity
  8
0
100
AcDbBlockBegin
  2
*D25
 70
     1
 10
0.0
 20
0.0
 30
0.0
  3
*D25
  1

  0
LINE
  5
300
330
2FF
100
AcDbEntity
  8
0
 62
   123
100
AcDbLine
 10
15182.17492572894
 20
-2641.179481555809
 30
0.0
 11
15159.07382833757
 21
-2641.179481555809
 31
0.0
  0
LINE
  5
301
330
2FF
100
AcDbEntity
  8
0
 62
   123
100
AcDbLine
 10
15182.17492572894
 20
-2568.179481555809
 30
0.0
 11
15159.07382833757
 21
-2568.179481555809
 31
0.0
  0
LINE
  5
302
330
2FF
100
AcDbEntity
  8
0
 62
   123
100
AcDbLine
 10
15159.67382833756
 20
-2638.679481555808
 30
0.0
 11
15159.67382833756
 21
-2570.679481555808
 31
0.0
  0
SOLID
  5
303
330
2FF
100
AcDbEntity
  8
0
 62
   123
100
AcDbTrace
 10
15159.2571616709
 20
-2638.679481555808
 30
0.0
 11
15160.09049500423
 21
-2638.679481555808
 31
0.0
 12
15159.67382833756
 22
-2641.179481555809
 32
0.0
 13
15159.67382833756
 23
-2641.179481555809
 33
0.0
  0
SOLID
  5
304
330
2FF
100
AcDbEntity
  8
0
 62
   123
100
AcDbTrace
 10
15159.2571616709
 20
-2570.679481555808
 30
0.0
 11
15160.09049500423
 21
-2570.679481555808
 31
0.0
 12
15159.67382833756
 22
-2568.179481555809
 32
0.0
 13
15159.67382833756
 23
-2568.179481555809
 33
0.0
  0
MTEXT
  5
305
330
2FF
100
AcDbEntity
  8
0
 62
     3
100
AcDbMText
 10
15155.72367833756
 20
-2604.679481555808
 30
0.0
 40
3.0
 41
0.0
 71
     5
 72
     1
  1
\A1;\A1;{\f??|b0|i0|c0|p49;%%C}73{\f??|b0|i0|c0|p49;\H0.7x;\S+0^ -0.030;\H1.429x;(h7)}
 11
0.0000000000000001
 21
1.0
 31
0.0
1001
ACAD
1000
MTEXTBEGIN
1070
    73
1070
     1
1070
    44
1040
1.0
1070
    74
1070
     0
1000
MTEXTEND
  0
POINT
  5
306
330
2FF
100
AcDbEntity
  8
DEFPOINTS
 62
     0
100
AcDbPoint
 10
15183.17492572894
 20
-2641.179481555809
 30
0.0
  0
POINT
  5
307
330
2FF
100
AcDbEntity
  8
DEFPOINTS
 62
     0
100
AcDbPoint
 10
15183.17492572894
 20
-2568.179481555809
 30
0.0
  0
POINT
  5
308
330
2FF
100
AcDbEntity
  8
DEFPOINTS
 62
     0
100
AcDbPoint
 10
15159.67382833756
 20
-2568.179481555809
 30
0.0
  0
ENDBLK
  5
30A
330
2FF
100
AcDbEntity
  8
0
100
AcDbBlockEnd
  0
BLOCK
  5
1FC
330
1F2
100
AcDbEntity
  8
0
100
AcDbBlockBegin
  2
*D26
 70
     1
 10
0.0
 20
0.0
 30
0.0
  3
*D26
  1

  0
LINE
  5
1F3
330
1F2
100
AcDbEntity
  8
0
 62
   123
100
AcDbLine
 10
14992.71712186823
 20
-2939.114352973206
 30
0.0
 11
14992.71712186823
 21
-2892.222379261751
 31
0.0
  0
LINE
  5
1F4
330
1F2
100
AcDbEntity
  8
0
 62
   123
100
AcDbLine
 10
15054.71712186823
 20
-2939.114352973206
 30
0.0
 11
15054.71712186823
 21
-2892.222379261751
 31
0.0
  0
LINE
  5
1F5
330
1F2
100
AcDbEntity
  8
0
 62
   123
100
AcDbLine
 10
14995.21712186823
 20
-2892.822379261751
 30
0.0
 11
15052.21712186823
 21
-2892.822379261751
 31
0.0
  0
SOLID
  5
1F6
330
1F2
100
AcDbEntity
  8
0
 62
   123
100
AcDbTrace
 10
14995.21712186823
 20
-2892.405712595085
 30
0.0
 11
14995.21712186823
 21
-2893.239045928417
 31
0.0
 12
14992.71712186823
 22
-2892.822379261751
 32
0.0
 13
14992.71712186823
 23
-2892.822379261751
 33
0.0
  0
SOLID
  5
1F7
330
1F2
100
AcDbEntity
  8
0
 62
   123
100
AcDbTrace
 10
15052.21712186823
 20
-2892.405712595085
 30
0.0
 11
15052.21712186823
 21
-2893.239045928417
 31
0.0
 12
15054.71712186823
 22
-2892.822379261751
 32
0.0
 13
15054.71712186823
 23
-2892.822379261751
 33
0.0
  0
MTEXT
  5
1F8
330
1F2
100
AcDbEntity
  8
0
 62
     3
100
AcDbMText
 10
15023.71712186823
 20
-2890.322379261752
 30
0.0
 40
3.0
 41
0.0
 71
     5
 72
     1
  1
\A1;62
1001
ACAD
1000
MTEXTBEGIN
1070
    73
1070
     1
1070
    44
1040
1.0
1070
    74
1070
     0
1000
MTEXTEND
  0
POINT
  5
1F9
330
1F2
100
AcDbEntity
  8
DEFPOINTS
 62
     0
100
AcDbPoint
 10
14992.71712186823
 20
-2940.114352973207
 30
0.0
  0
POINT
  5
1FA
330
1F2
100
AcDbEntity
  8
DEFPOINTS
 62
     0
100
AcDbPoint
 10
15054.71712186823
 20
-2940.114352973207
 30
0.0
  0
POINT
  5
1FB
330
1F2
100
AcDbEntity
  8
DEFPOINTS
 62
     0
100
AcDbPoint
 10
15054.71712186823
 20
-2892.822379261751
 30
0.0
  0
ENDBLK
  5
1FD
330
1F2
100
AcDbEntity
  8
0
100
AcDbBlockEnd
  0
BLOCK
  5
2BE
330
2B4
100
AcDbEntity
  8
0
100
AcDbBlockBegin
  2
*D27
 70
     1
 10
0.0
 20
0.0
 30
0.0
  3
*D27
  1

  0
LINE
  5
2B5
330
2B4
100
AcDbEntity
  8
0
 62
   123
100
AcDbLine
 10
15276.39464720071
 20
-2907.114353973204
 30
0.0
 11
15276.39464720071
 21
-2892.475320489033
 31
0.0
  0
LINE
  5
2B6
330
2B4
100
AcDbEntity
  8
0
 62
   123
100
AcDbLine
 10
15304.39464720071
 20
-2915.114353973205
 30
0.0
 11
15304.39464720071
 21
-2892.475320489033
 31
0.0
  0
LINE
  5
2B7
330
2B4
100
AcDbEntity
  8
0
 62
   123
100
AcDbLine
 10
15278.89464720071
 20
-2893.075320489033
 30
0.0
 11
15301.89464720071
 21
-2893.075320489033
 31
0.0
  0
SOLID
  5
2B8
330
2B4
100
AcDbEntity
  8
0
 62
   123
100
AcDbTrace
 10
15278.89464720071
 20
-2892.658653822367
 30
0.0
 11
15278.89464720071
 21
-2893.4919871557
 31
0.0
 12
15276.39464720071
 22
-2893.075320489033
 32
0.0
 13
15276.39464720071
 23
-2893.075320489033
 33
0.0
  0
SOLID
  5
2B9
330
2B4
100
AcDbEntity
  8
0
 62
   123
100
AcDbTrace
 10
15301.89464720071
 20
-2892.658653822367
 30
0.0
 11
15301.89464720071
 21
-2893.4919871557
 31
0.0
 12
15304.39464720071
 22
-2893.075320489033
 32
0.0
 13
15304.39464720071
 23
-2893.075320489033
 33
0.0
  0
MTEXT
  5
2BA
330
2B4
100
AcDbEntity
  8
0
 62
     3
100
AcDbMText
 10
15290.39464720071
 20
-2890.575320489033
 30
0.0
 40
3.0
 41
0.0
 71
     5
 72
     1
  1
\A1;MAX. 28
1001
ACAD
1000
MTEXTBEGIN
1070
    73
1070
     1
1070
    44
1040
1.0
1070
    74
1070
     0
1000
MTEXTEND
  0
POINT
  5
2BB
330
2B4
100
AcDbEntity
  8
DEFPOINTS
 62
     0
100
AcDbPoint
 10
15276.39464720071
 20
-2908.114353973204
 30
0.0
  0
POINT
  5
2BC
330
2B4
100
AcDbEntity
  8
DEFPOINTS
 62
     0
100
AcDbPoint
 10
15304.39464720071
 20
-2916.114353973204
 30
0.0
  0
POINT
  5
2BD
330
2B4
100
AcDbEntity
  8
DEFPOINTS
 62
     0
100
AcDbPoint
 10
15304.39464720071
 20
-2893.075320489033
 30
0.0
  0
ENDBLK
  5
2BF
330
2B4
100
AcDbEntity
  8
0
100
AcDbBlockEnd
  0
BLOCK
  5
2AA
330
2A0
100
AcDbEntity
  8
0
100
AcDbBlockBegin
  2
*D28
 70
     1
 10
0.0
 20
0.0
 30
0.0
  3
*D28
  1

  0
LINE
  5
2A1
330
2A0
100
AcDbEntity
  8
0
 62
   123
100
AcDbLine
 10
15201.39798020071
 20
-2938.414353973205
 30
0.0
 11
15201.39798020071
 21
-2892.458749468521
 31
0.0
  0
LINE
  5
2A2
330
2A0
100
AcDbEntity
  8
0
 62
   123
100
AcDbLine
 10
15276.39464720071
 20
-2907.114353973204
 30
0.0
 11
15276.39464720071
 21
-2892.458749468521
 31
0.0
  0
LINE
  5
2A3
330
2A0
100
AcDbEntity
  8
0
 62
   123
100
AcDbLine
 10
15203.89798020071
 20
-2893.058749468522
 30
0.0
 11
15273.89464720071
 21
-2893.058749468522
 31
0.0
  0
SOLID
  5
2A4
330
2A0
100
AcDbEntity
  8
0
 62
   123
100
AcDbTrace
 10
15203.89798020071
 20
-2892.642082801856
 30
0.0
 11
15203.89798020071
 21
-2893.475416135188
 31
0.0
 12
15201.39798020071
 22
-2893.058749468522
 32
0.0
 13
15201.39798020071
 23
-2893.058749468522
 33
0.0
  0
SOLID
  5
2A5
330
2A0
100
AcDbEntity
  8
0
 62
   123
100
AcDbTrace
 10
15273.89464720071
 20
-2892.642082801856
 30
0.0
 11
15273.89464720071
 21
-2893.475416135188
 31
0.0
 12
15276.39464720071
 22
-2893.058749468522
 32
0.0
 13
15276.39464720071
 23
-2893.058749468522
 33
0.0
  0
MTEXT
  5
2A6
330
2A0
100
AcDbEntity
  8
0
 62
     3
100
AcDbMText
 10
15232.29785744348
 20
-2890.558749468522
 30
0.0
 40
3.0
 41
0.0
 71
     5
 72
     1
  1
\A1;75
1001
ACAD
1000
MTEXTBEGIN
1070
    73
1070
     1
1070
    44
1040
1.0
1070
    74
1070
     0
1000
MTEXTEND
  0
POINT
  5
2A7
330
2A0
100
AcDbEntity
  8
DEFPOINTS
 62
     0
100
AcDbPoint
 10
15201.39798020071
 20
-2939.414353973205
 30
0.0
  0
POINT
  5
2A8
330
2A0
100
AcDbEntity
  8
DEFPOINTS
 62
     0
100
AcDbPoint
 10
15276.39464720071
 20
-2908.114353973204
 30
0.0
  0
POINT
  5
2A9
330
2A0
100
AcDbEntity
  8
DEFPOINTS
 62
     0
100
AcDbPoint
 10
15276.39464720071
 20
-2893.058749468522
 30
0.0
  0
ENDBLK
  5
2AB
330
2A0
100
AcDbEntity
  8
0
100
AcDbBlockEnd
  0
BLOCK
  5
162
330
158
100
AcDbEntity
  8
0
100
AcDbBlockBegin
  2
*D29
 70
     1
 10
0.0
 20
0.0
 30
0.0
  3
*D29
  1

  0
LINE
  5
159
330
158
100
AcDbEntity
  8
0
 62
   123
100
AcDbLine
 10
15195.89798020071
 20
-3029.114352973209
 30
0.0
 11
15195.89798020071
 21
-3048.021715166441
 31
0.0
  0
LINE
  5
15A
330
158
100
AcDbEntity
  8
0
 62
   123
100
AcDbLine
 10
15280.89798020071
 20
-3026.114352973206
 30
0.0
 11
15280.89798020071
 21
-3048.021715166441
 31
0.0
  0
LINE
  5
15B
330
158
100
AcDbEntity
  8
0
 62
   123
100
AcDbLine
 10
15198.39798020071
 20
-3047.421715166441
 30
0.0
 11
15278.39798020071
 21
-3047.421715166441
 31
0.0
  0
SOLID
  5
15C
330
158
100
AcDbEntity
  8
0
 62
   123
100
AcDbTrace
 10
15198.39798020071
 20
-3047.005048499774
 30
0.0
 11
15198.39798020071
 21
-3047.838381833108
 31
0.0
 12
15195.89798020071
 22
-3047.421715166441
 32
0.0
 13
15195.89798020071
 23
-3047.421715166441
 33
0.0
  0
SOLID
  5
15D
330
158
100
AcDbEntity
  8
0
 62
   123
100
AcDbTrace
 10
15278.39798020071
 20
-3047.005048499774
 30
0.0
 11
15278.39798020071
 21
-3047.838381833108
 31
0.0
 12
15280.89798020071
 22
-3047.421715166441
 32
0.0
 13
15280.89798020071
 23
-3047.421715166441
 33
0.0
  0
MTEXT
  5
15E
330
158
100
AcDbEntity
  8
0
 62
     3
100
AcDbMText
 10
15238.39798020071
 20
-3044.921715166442
 30
0.0
 40
3.0
 41
0.0
 71
     5
 72
     1
  1
\A1;85
1001
ACAD
1000
MTEXTBEGIN
1070
    73
1070
     1
1070
    44
1040
1.0
1070
    74
1070
     0
1000
MTEXTEND
  0
POINT
  5
15F
330
158
100
AcDbEntity
  8
DEFPOINTS
 62
     0
100
AcDbPoint
 10
15195.89798020071
 20
-3028.114352973209
 30
0.0
  0
POINT
  5
160
330
158
100
AcDbEntity
  8
DEFPOINTS
 62
     0
100
AcDbPoint
 10
15280.89798020071
 20
-3025.114352973206
 30
0.0
  0
POINT
  5
161
330
158
100
AcDbEntity
  8
DEFPOINTS
 62
     0
100
AcDbPoint
 10
15280.89798020071
 20
-3047.421715166441
 30
0.0
  0
ENDBLK
  5
163
330
158
100
AcDbEntity
  8
0
100
AcDbBlockEnd
  0
BLOCK
  5
FD
330
F3
100
AcDbEntity
  8
0
100
AcDbBlockBegin
  2
*D30
 70
     1
 10
0.0
 20
0.0
 30
0.0
  3
*D30
  1

  0
LINE
  5
F4
330
F3
100
AcDbEntity
  8
0
 62
   123
100
AcDbLine
 10
15274.89798020071
 20
-2948.614352973207
 30
0.0
 11
15302.04483433669
 21
-2948.614352973207
 31
0.0
  0
LINE
  5
F5
330
F3
100
AcDbEntity
  8
0
 62
   123
100
AcDbLine
 10
15274.89798020071
 20
-3027.614352973206
 30
0.0
 11
15302.04483433669
 21
-3027.614352973206
 31
0.0
  0
LINE
  5
F6
330
F3
100
AcDbEntity
  8
0
 62
   123
100
AcDbLine
 10
15301.44483433669
 20
-2951.114352973206
 30
0.0
 11
15301.44483433669
 21
-3025.114352973206
 31
0.0
  0
SOLID
  5
F7
330
F3
100
AcDbEntity
  8
0
 62
   123
100
AcDbTrace
 10
15301.02816767003
 20
-2951.114352973206
 30
0.0
 11
15301.86150100336
 21
-2951.114352973206
 31
0.0
 12
15301.44483433669
 22
-2948.614352973207
 32
0.0
 13
15301.44483433669
 23
-2948.614352973207
 33
0.0
  0
SOLID
  5
F8
330
F3
100
AcDbEntity
  8
0
 62
   123
100
AcDbTrace
 10
15301.02816767003
 20
-3025.114352973206
 30
0.0
 11
15301.86150100336
 21
-3025.114352973206
 31
0.0
 12
15301.44483433669
 22
-3027.614352973206
 32
0.0
 13
15301.44483433669
 23
-3027.614352973206
 33
0.0
  0
MTEXT
  5
F9
330
F3
100
AcDbEntity
  8
0
 62
     3
100
AcDbMText
 10
15298.94483433669
 20
-2988.114352973207
 30
0.0
 40
3.0
 41
0.0
 71
     5
 72
     1
  1
\A1;%%C79
 11
0.0000000000000001
 21
1.0
 31
0.0
1001
ACAD
1000
MTEXTBEGIN
1070
    73
1070
     1
1070
    44
1040
1.0
1070
    74
1070
     0
1000
MTEXTEND
  0
POINT
  5
FA
330
F3
100
AcDbEntity
  8
DEFPOINTS
 62
     0
100
AcDbPoint
 10
15273.89798020071
 20
-2948.614352973207
 30
0.0
  0
POINT
  5
FB
330
F3
100
AcDbEntity
  8
DEFPOINTS
 62
     0
100
AcDbPoint
 10
15273.89798020071
 20
-3027.614352973206
 30
0.0
  0
POINT
  5
FC
330
F3
100
AcDbEntity
  8
DEFPOINTS
 62
     0
100
AcDbPoint
 10
15301.44483433669
 20
-3027.614352973206
 30
0.0
  0
ENDBLK
  5
FE
330
F3
100
AcDbEntity
  8
0
100
AcDbBlockEnd
  0
BLOCK
  5
254
330
24A
100
AcDbEntity
  8
0
100
AcDbBlockBegin
  2
*D31
 70
     1
 10
0.0
 20
0.0
 30
0.0
  3
*D31
  1

  0
LINE
  5
24B
330
24A
100
AcDbEntity
  8
0
 62
   123
100
AcDbLine
 10
15121.39798020071
 20
-2967.114352973206
 30
0.0
 11
15121.39798020071
 21
-2928.072991536872
 31
0.0
  0
LINE
  5
24C
330
24A
100
AcDbEntity
  8
0
 62
   123
100
AcDbLine
 10
15153.39798020071
 20
-2947.114352973207
 30
0.0
 11
15153.39798020071
 21
-2928.072991536872
 31
0.0
  0
LINE
  5
24D
330
24A
100
AcDbEntity
  8
0
 62
   123
100
AcDbLine
 10
15123.89798020071
 20
-2928.672991536872
 30
0.0
 11
15150.89798020071
 21
-2928.672991536872
 31
0.0
  0
SOLID
  5
24E
330
24A
100
AcDbEntity
  8
0
 62
   123
100
AcDbTrace
 10
15123.89798020071
 20
-2928.256324870206
 30
0.0
 11
15123.89798020071
 21
-2929.089658203539
 31
0.0
 12
15121.39798020071
 22
-2928.672991536872
 32
0.0
 13
15121.39798020071
 23
-2928.672991536872
 33
0.0
  0
SOLID
  5
24F
330
24A
100
AcDbEntity
  8
0
 62
   123
100
AcDbTrace
 10
15150.89798020071
 20
-2928.256324870206
 30
0.0
 11
15150.89798020071
 21
-2929.089658203539
 31
0.0
 12
15153.39798020071
 22
-2928.672991536872
 32
0.0
 13
15153.39798020071
 23
-2928.672991536872
 33
0.0
  0
MTEXT
  5
250
330
24A
100
AcDbEntity
  8
0
 62
     3
100
AcDbMText
 10
15137.71921213059
 20
-2926.172991536871
 30
0.0
 40
3.0
 41
0.0
 71
     5
 72
     1
  1
\A1;32
1001
ACAD
1000
MTEXTBEGIN
1070
    73
1070
     1
1070
    44
1040
1.0
1070
    74
1070
     0
1000
MTEXTEND
  0
POINT
  5
251
330
24A
100
AcDbEntity
  8
DEFPOINTS
 62
     0
100
AcDbPoint
 10
15121.39798020071
 20
-2968.114352973207
 30
0.0
  0
POINT
  5
252
330
24A
100
AcDbEntity
  8
DEFPOINTS
 62
     0
100
AcDbPoint
 10
15153.39798020071
 20
-2948.114352973206
 30
0.0
  0
POINT
  5
253
330
24A
100
AcDbEntity
  8
DEFPOINTS
 62
     0
100
AcDbPoint
 10
15153.39798020071
 20
-2928.672991536872
 30
0.0
  0
ENDBLK
  5
255
330
24A
100
AcDbEntity
  8
0
100
AcDbBlockEnd
  0
BLOCK
  5
234
330
22A
100
AcDbEntity
  8
0
100
AcDbBlockBegin
  2
*D32
 70
     1
 10
0.0
 20
0.0
 30
0.0
  3
*D32
  1

  0
LINE
  5
22B
330
22A
100
AcDbEntity
  8
0
 62
   123
100
AcDbLine
 10
15146.39798020071
 20
-2967.114352973206
 30
0.0
 11
15146.39798020071
 21
-2951.294064766303
 31
0.0
  0
LINE
  5
22C
330
22A
100
AcDbEntity
  8
0
 62
   123
100
AcDbLine
 10
15121.39798020071
 20
-2967.114352973206
 30
0.0
 11
15121.39798020071
 21
-2951.294064766303
 31
0.0
  0
LINE
  5
22D
330
22A
100
AcDbEntity
  8
0
 62
   123
100
AcDbLine
 10
15143.89798020071
 20
-2951.894064766304
 30
0.0
 11
15123.89798020071
 21
-2951.894064766304
 31
0.0
  0
SOLID
  5
22E
330
22A
100
AcDbEntity
  8
0
 62
   123
100
AcDbTrace
 10
15143.89798020071
 20
-2951.477398099637
 30
0.0
 11
15143.89798020071
 21
-2952.310731432969
 31
0.0
 12
15146.39798020071
 22
-2951.894064766304
 32
0.0
 13
15146.39798020071
 23
-2951.894064766304
 33
0.0
  0
SOLID
  5
22F
330
22A
100
AcDbEntity
  8
0
 62
   123
100
AcDbTrace
 10
15123.89798020071
 20
-2951.477398099637
 30
0.0
 11
15123.89798020071
 21
-2952.310731432969
 31
0.0
 12
15121.39798020071
 22
-2951.894064766304
 32
0.0
 13
15121.39798020071
 23
-2951.894064766304
 33
0.0
  0
MTEXT
  5
230
330
22A
100
AcDbEntity
  8
0
 62
     3
100
AcDbMText
 10
15134.2089108681
 20
-2949.394064766304
 30
0.0
 40
3.0
 41
0.0
 71
     5
 72
     1
  1
\A1;25
1001
ACAD
1000
MTEXTBEGIN
1070
    73
1070
     1
1070
    44
1040
1.0
1070
    74
1070
     0
1000
MTEXTEND
  0
POINT
  5
231
330
22A
100
AcDbEntity
  8
DEFPOINTS
 62
     0
100
AcDbPoint
 10
15146.39798020071
 20
-2968.114352973207
 30
0.0
  0
POINT
  5
232
330
22A
100
AcDbEntity
  8
DEFPOINTS
 62
     0
100
AcDbPoint
 10
15121.39798020071
 20
-2968.114352973207
 30
0.0
  0
POINT
  5
233
330
22A
100
AcDbEntity
  8
DEFPOINTS
 62
     0
100
AcDbPoint
 10
15121.39798020071
 20
-2951.894064766304
 30
0.0
  0
ENDBLK
  5
235
330
22A
100
AcDbEntity
  8
0
100
AcDbBlockEnd
  0
BLOCK
  5
DD
330
D3
100
AcDbEntity
  8
0
100
AcDbBlockBegin
  2
*D33
 70
     1
 10
0.0
 20
0.0
 30
0.0
  3
*D33
  1

  0
LINE
  5
D4
330
D3
100
AcDbEntity
  8
0
 62
   123
100
AcDbLine
 10
15116.49984139948
 20
-2973.114352973206
 30
0.0
 11
15096.46813284236
 21
-2973.114352973206
 31
0.0
  0
LINE
  5
D5
330
D3
100
AcDbEntity
  8
0
 62
   123
100
AcDbLine
 10
15117.34078925493
 20
-2988.114352973207
 30
0.0
 11
15096.46813284236
 21
-2988.114352973207
 31
0.0
  0
LINE
  5
D6
330
D3
100
AcDbEntity
  8
0
 62
   123
100
AcDbLine
 10
15097.06813284237
 20
-2975.614352973206
 30
0.0
 11
15097.06813284237
 21
-2985.614352973206
 31
0.0
  0
SOLID
  5
D7
330
D3
100
AcDbEntity
  8
0
 62
   123
100
AcDbTrace
 10
15096.65146617571
 20
-2975.614352973206
 30
0.0
 11
15097.48479950904
 21
-2975.614352973206
 31
0.0
 12
15097.06813284237
 22
-2973.114352973206
 32
0.0
 13
15097.06813284237
 23
-2973.114352973206
 33
0.0
  0
SOLID
  5
D8
330
D3
100
AcDbEntity
  8
0
 62
   123
100
AcDbTrace
 10
15096.65146617571
 20
-2985.614352973206
 30
0.0
 11
15097.48479950904
 21
-2985.614352973206
 31
0.0
 12
15097.06813284237
 22
-2988.114352973207
 32
0.0
 13
15097.06813284237
 23
-2988.114352973207
 33
0.0
  0
MTEXT
  5
D9
330
D3
100
AcDbEntity
  8
0
 62
     3
100
AcDbMText
 10
15094.56813284236
 20
-2980.614352973207
 30
0.0
 40
3.0
 41
0.0
 71
     5
 72
     1
  1
\A1;15
 11
0.0000000000000001
 21
1.0
 31
0.0
1001
ACAD
1000
MTEXTBEGIN
1070
    73
1070
     1
1070
    44
1040
1.0
1070
    74
1070
     0
1000
MTEXTEND
  0
POINT
  5
DA
330
D3
100
AcDbEntity
  8
DEFPOINTS
 62
     0
100
AcDbPoint
 10
15117.49984139948
 20
-2973.114352973206
 30
0.0
  0
POINT
  5
DB
330
D3
100
AcDbEntity
  8
DEFPOINTS
 62
     0
100
AcDbPoint
 10
15118.34078925493
 20
-2988.114352973207
 30
0.0
  0
POINT
  5
DC
330
D3
100
AcDbEntity
  8
DEFPOINTS
 62
     0
100
AcDbPoint
 10
15097.06813284237
 20
-2988.114352973207
 30
0.0
  0
ENDBLK
  5
DE
330
D3
100
AcDbEntity
  8
0
100
AcDbBlockEnd
  0
BLOCK
  5
11D
330
111
100
AcDbEntity
  8
0
100
AcDbBlockBegin
  2
*D34
 70
     1
 10
0.0
 20
0.0
 30
0.0
  3
*D34
  1

  0
LINE
  5
112
330
111
100
AcDbEntity
  8
0
 62
   123
100
AcDbLine
 10
15120.39798020071
 20
-2978.114352973206
 30
0.0
 11
15105.97331691174
 21
-2978.114352973206
 31
0.0
  0
LINE
  5
113
330
111
100
AcDbEntity
  8
0
 62
   123
100
AcDbLine
 10
15120.39798020071
 20
-2968.114352973207
 30
0.0
 11
15105.97331691174
 21
-2968.114352973207
 31
0.0
  0
LINE
  5
114
330
111
100
AcDbEntity
  8
0
 62
   123
100
AcDbLine
 10
15106.57331691174
 20
-2980.614352973207
 30
0.0
 11
15106.57331691174
 21
-2983.114352973206
 31
0.0
  0
LINE
  5
115
330
111
100
AcDbEntity
  8
0
 62
   123
100
AcDbLine
 10
15106.57331691174
 20
-2965.614352973206
 30
0.0
 11
15106.57331691174
 21
-2925.495624123104
 31
0.0
  0
LINE
  5
116
330
111
100
AcDbEntity
  8
0
 62
   123
100
AcDbLine
 10
15106.57331691174
 20
-2978.114352973206
 30
0.0
 11
15106.57331691174
 21
-2968.114352973207
 31
0.0
  0
SOLID
  5
117
330
111
100
AcDbEntity
  8
0
 62
   123
100
AcDbTrace
 10
15106.15665024506
 20
-2980.614352973207
 30
0.0
 11
15106.9899835784
 21
-2980.614352973207
 31
0.0
 12
15106.57331691174
 22
-2978.114352973206
 32
0.0
 13
15106.57331691174
 23
-2978.114352973206
 33
0.0
  0
SOLID
  5
118
330
111
100
AcDbEntity
  8
0
 62
   123
100
AcDbTrace
 10
15106.15665024506
 20
-2965.614352973206
 30
0.0
 11
15106.9899835784
 21
-2965.614352973206
 31
0.0
 12
15106.57331691174
 22
-2968.114352973207
 32
0.0
 13
15106.57331691174
 23
-2968.114352973207
 33
0.0
  0
MTEXT
  5
119
330
111
100
AcDbEntity
  8
0
 62
     3
100
AcDbMText
 10
15102.62316691174
 20
-2940.311195551674
 30
0.0
 40
3.0
 41
0.0
 71
     5
 72
     1
  1
\A1;\A1;{\f??|b0|i0|c0|p49;%%C10\H0.7x;\S+0^ -0.015;\H1.429x;(h7)}
 11
0.0000000000000001
 21
1.0
 31
0.0
1001
ACAD
1000
MTEXTBEGIN
1070
    73
1070
     1
1070
    44
1040
1.0
1070
    74
1070
     0
1000
MTEXTEND
  0
POINT
  5
11A
330
111
100
AcDbEntity
  8
DEFPOINTS
 62
     0
100
AcDbPoint
 10
15121.39798020071
 20
-2978.114352973206
 30
0.0
  0
POINT
  5
11B
330
111
100
AcDbEntity
  8
DEFPOINTS
 62
     0
100
AcDbPoint
 10
15121.39798020071
 20
-2968.114352973207
 30
0.0
  0
POINT
  5
11C
330
111
100
AcDbEntity
  8
DEFPOINTS
 62
     0
100
AcDbPoint
 10
15106.57331691174
 20
-2968.114352973207
 30
0.0
  0
ENDBLK
  5
11E
330
111
100
AcDbEntity
  8
0
100
AcDbBlockEnd
  0
BLOCK
  5
153
330
149
100
AcDbEntity
  8
0
100
AcDbBlockBegin
  2
*D35
 70
     1
 10
0.0
 20
0.0
 30
0.0
  3
*D35
  1

  0
LINE
  5
14A
330
149
100
AcDbEntity
  8
0
 62
   123
100
AcDbLine
 10
15195.89798020071
 20
-3030.114352973209
 30
0.0
 11
15195.89798020071
 21
-3039.309681252963
 31
0.0
  0
LINE
  5
14B
330
149
100
AcDbEntity
  8
0
 62
   123
100
AcDbLine
 10
15202.89798020071
 20
-3027.713090314736
 30
0.0
 11
15202.89798020071
 21
-3039.309681252963
 31
0.0
  0
LINE
  5
14C
330
149
100
AcDbEntity
  8
0
 62
   123
100
AcDbLine
 10
15198.39798020071
 20
-3038.709681252963
 30
0.0
 11
15200.39798020071
 21
-3038.709681252963
 31
0.0
  0
SOLID
  5
14D
330
149
100
AcDbEntity
  8
0
 62
   123
100
AcDbTrace
 10
15198.39798020071
 20
-3038.293014586297
 30
0.0
 11
15198.39798020071
 21
-3039.12634791963
 31
0.0
 12
15195.89798020071
 22
-3038.709681252963
 32
0.0
 13
15195.89798020071
 23
-3038.709681252963
 33
0.0
  0
SOLID
  5
14E
330
149
100
AcDbEntity
  8
0
 62
   123
100
AcDbTrace
 10
15200.39798020071
 20
-3038.293014586297
 30
0.0
 11
15200.39798020071
 21
-3039.12634791963
 31
0.0
 12
15202.89798020071
 22
-3038.709681252963
 32
0.0
 13
15202.89798020071
 23
-3038.709681252963
 33
0.0
  0
MTEXT
  5
14F
330
149
100
AcDbEntity
  8
0
 62
     3
100
AcDbMText
 10
15199.39798020071
 20
-3036.209681252963
 30
0.0
 40
3.0
 41
0.0
 71
     5
 72
     1
  1
\A1;7
1001
ACAD
1000
MTEXTBEGIN
1070
    73
1070
     1
1070
    44
1040
1.0
1070
    74
1070
     0
1000
MTEXTEND
  0
POINT
  5
150
330
149
100
AcDbEntity
  8
DEFPOINTS
 62
     0
100
AcDbPoint
 10
15195.89798020071
 20
-3029.114352973209
 30
0.0
  0
POINT
  5
151
330
149
100
AcDbEntity
  8
DEFPOINTS
 62
     0
100
AcDbPoint
 10
15202.89798020071
 20
-3026.713090314737
 30
0.0
  0
POINT
  5
152
330
149
100
AcDbEntity
  8
DEFPOINTS
 62
     0
100
AcDbPoint
 10
15202.89798020071
 20
-3038.709681252963
 30
0.0
  0
ENDBLK
  5
154
330
149
100
AcDbEntity
  8
0
100
AcDbBlockEnd
  0
BLOCK
  5
2D8
330
2CC
100
AcDbEntity
  8
0
100
AcDbBlockBegin
  2
*D36
 70
     1
 10
0.0
 20
0.0
 30
0.0
  3
*D36
  1

  0
LINE
  5
2CD
330
2CC
100
AcDbEntity
  8
0
 62
   123
100
AcDbLine
 10
15195.89798020071
 20
-2946.614352973205
 30
0.0
 11
15195.89798020071
 21
-2892.458749468521
 31
0.0
  0
LINE
  5
2CE
330
2CC
100
AcDbEntity
  8
0
 62
   123
100
AcDbLine
 10
15201.39798020071
 20
-2938.414353973205
 30
0.0
 11
15201.39798020071
 21
-2892.458749468521
 31
0.0
  0
LINE
  5
2CF
330
2CC
100
AcDbEntity
  8
0
 62
   123
100
AcDbLine
 10
15193.39798020071
 20
-2893.058749468522
 30
0.0
 11
15190.89798020071
 21
-2893.058749468522
 31
0.0
  0
LINE
  5
2D0
330
2CC
100
AcDbEntity
  8
0
 62
   123
100
AcDbLine
 10
15203.89798020071
 20
-2893.058749468522
 30
0.0
 11
15206.39798020071
 21
-2893.058749468522
 31
0.0
  0
LINE
  5
2D1
330
2CC
100
AcDbEntity
  8
0
 62
   123
100
AcDbLine
 10
15195.89798020071
 20
-2893.058749468522
 30
0.0
 11
15201.39798020071
 21
-2893.058749468522
 31
0.0
  0
SOLID
  5
2D2
330
2CC
100
AcDbEntity
  8
0
 62
   123
100
AcDbTrace
 10
15193.39798020071
 20
-2892.642082801856
 30
0.0
 11
15193.39798020071
 21
-2893.475416135188
 31
0.0
 12
15195.89798020071
 22
-2893.058749468522
 32
0.0
 13
15195.89798020071
 23
-2893.058749468522
 33
0.0
  0
SOLID
  5
2D3
330
2CC
100
AcDbEntity
  8
0
 62
   123
100
AcDbTrace
 10
15203.89798020071
 20
-2892.642082801856
 30
0.0
 11
15203.89798020071
 21
-2893.475416135188
 31
0.0
 12
15201.39798020071
 22
-2893.058749468522
 32
0.0
 13
15201.39798020071
 23
-2893.058749468522
 33
0.0
  0
MTEXT
  5
2D4
330
2CC
100
AcDbEntity
  8
0
 62
     3
100
AcDbMText
 10
15198.64798020071
 20
-2890.558749468522
 30
0.0
 40
3.0
 41
0.0
 71
     5
 72
     1
  1
\A1;5.5
1001
ACAD
1000
MTEXTBEGIN
1070
    73
1070
     1
1070
    44
1040
1.0
1070
    74
1070
     0
1000
MTEXTEND
  0
POINT
  5
2D5
330
2CC
100
AcDbEntity
  8
DEFPOINTS
 62
     0
100
AcDbPoint
 10
15195.89798020071
 20
-2947.614352973205
 30
0.0
  0
POINT
  5
2D6
330
2CC
100
AcDbEntity
  8
DEFPOINTS
 62
     0
100
AcDbPoint
 10
15201.39798020071
 20
-2939.414353973205
 30
0.0
  0
POINT
  5
2D7
330
2CC
100
AcDbEntity
  8
DEFPOINTS
 62
     0
100
AcDbPoint
 10
15201.39798020071
 20
-2893.058749468522
 30
0.0
  0
ENDBLK
  5
2D9
330
2CC
100
AcDbEntity
  8
0
100
AcDbBlockEnd
  0
BLOCK
  5
3F6
330
3EC
100
AcDbEntity
  8
0
100
AcDbBlockBegin
  2
*D37
 70
     1
 10
0.0
 20
0.0
 30
0.0
  3
*D37
  1

  0
LINE
  5
3ED
330
3EC
100
AcDbEntity
  8
0
 62
   123
100
AcDbLine
 10
269.2191172458588
 20
252.1897220659243
 30
0.0
 11
269.2191172458588
 21
239.0020410176334
 31
0.0
  0
LINE
  5
3EE
330
3EC
100
AcDbEntity
  8
0
 62
   123
100
AcDbLine
 10
226.7191172458497
 20
252.1897220659243
 30
0.0
 11
226.7191172458497
 21
239.0020410176334
 31
0.0
  0
LINE
  5
3EF
330
3EC
100
AcDbEntity
  8
0
 62
   123
100
AcDbLine
 10
266.7191172458588
 20
239.6020410176333
 30
0.0
 11
229.2191172458497
 21
239.6020410176333
 31
0.0
  0
SOLID
  5
3F0
330
3EC
100
AcDbEntity
  8
0
 62
   123
100
AcDbTrace
 10
266.7191172458588
 20
240.0187076843
 30
0.0
 11
266.7191172458588
 21
239.1853743509667
 31
0.0
 12
269.2191172458588
 22
239.6020410176333
 32
0.0
 13
269.2191172458588
 23
239.6020410176333
 33
0.0
  0
SOLID
  5
3F1
330
3EC
100
AcDbEntity
  8
0
 62
   123
100
AcDbTrace
 10
229.2191172458497
 20
240.0187076843
 30
0.0
 11
229.2191172458497
 21
239.1853743509667
 31
0.0
 12
226.7191172458497
 22
239.6020410176333
 32
0.0
 13
226.7191172458497
 23
239.6020410176333
 33
0.0
  0
MTEXT
  5
3F2
330
3EC
100
AcDbEntity
  8
0
 62
     3
100
AcDbMText
 10
247.9691172458542
 20
242.1020410176333
 30
0.0
 40
3.0
 41
0.0
 71
     5
 72
     1
  1
\A1;L
1001
ACAD
1000
MTEXTBEGIN
1070
    73
1070
     1
1070
    44
1040
1.0
1070
    74
1070
     0
1000
MTEXTEND
  0
POINT
  5
3F3
330
3EC
100
AcDbEntity
  8
DEFPOINTS
 62
     0
100
AcDbPoint
 10
269.2191172458588
 20
253.1897220659243
 30
0.0
  0
POINT
  5
3F4
330
3EC
100
AcDbEntity
  8
DEFPOINTS
 62
     0
100
AcDbPoint
 10
226.7191172458497
 20
253.1897220659243
 30
0.0
  0
POINT
  5
3F5
330
3EC
100
AcDbEntity
  8
DEFPOINTS
 62
     0
100
AcDbPoint
 10
226.7191172458497
 20
239.6020410176333
 30
0.0
  0
ENDBLK
  5
3F7
330
3EC
100
AcDbEntity
  8
0
100
AcDbBlockEnd
  0
BLOCK
  5
402
330
3F8
100
AcDbEntity
  8
0
100
AcDbBlockBegin
  2
*D38
 70
     1
 10
0.0
 20
0.0
 30
0.0
  3
*D38
  1

  0
LINE
  5
3F9
330
3F8
100
AcDbEntity
  8
0
 62
   123
100
AcDbLine
 10
49.06599665335853
 20
256.6897220659243
 30
0.0
 11
49.06599665335853
 21
231.1127607258057
 31
0.0
  0
LINE
  5
3FA
330
3F8
100
AcDbEntity
  8
0
 62
   123
100
AcDbLine
 10
129.0659966533585
 20
256.6897220659243
 30
0.0
 11
129.0659966533585
 21
231.1127607258057
 31
0.0
  0
LINE
  5
3FB
330
3F8
100
AcDbEntity
  8
0
 62
   123
100
AcDbLine
 10
51.56599665335853
 20
231.7127607258057
 30
0.0
 11
126.5659966533585
 21
231.7127607258057
 31
0.0
  0
SOLID
  5
3FC
330
3F8
100
AcDbEntity
  8
0
 62
   123
100
AcDbTrace
 10
51.56599665335853
 20
232.1294273924724
 30
0.0
 11
51.56599665335853
 21
231.2960940591391
 31
0.0
 12
49.06599665335853
 22
231.7127607258057
 32
0.0
 13
49.06599665335853
 23
231.7127607258057
 33
0.0
  0
SOLID
  5
3FD
330
3F8
100
AcDbEntity
  8
0
 62
   123
100
AcDbTrace
 10
126.5659966533585
 20
232.1294273924724
 30
0.0
 11
126.5659966533585
 21
231.2960940591391
 31
0.0
 12
129.0659966533585
 22
231.7127607258057
 32
0.0
 13
129.0659966533585
 23
231.7127607258057
 33
0.0
  0
MTEXT
  5
3FE
330
3F8
100
AcDbEntity
  8
0
 62
     3
100
AcDbMText
 10
92.88521442387718
 20
234.2127607258057
 30
0.0
 40
3.0
 41
0.0
 71
     5
 72
     1
  1
\A1;80
1001
ACAD
1000
MTEXTBEGIN
1070
    73
1070
     1
1070
    44
1040
1.0
1070
    74
1070
     0
1000
MTEXTEND
  0
POINT
  5
3FF
330
3F8
100
AcDbEntity
  8
DEFPOINTS
 62
     0
100
AcDbPoint
 10
49.06599665335853
 20
257.6897220659243
 30
0.0
  0
POINT
  5
400
330
3F8
100
AcDbEntity
  8
DEFPOINTS
 62
     0
100
AcDbPoint
 10
129.0659966533585
 20
257.6897220659243
 30
0.0
  0
POINT
  5
401
330
3F8
100
AcDbEntity
  8
DEFPOINTS
 62
     0
100
AcDbPoint
 10
129.0659966533585
 20
231.7127607258057
 30
0.0
  0
ENDBLK
  5
403
330
3F8
100
AcDbEntity
  8
0
100
AcDbBlockEnd
  0
BLOCK
  5
40E
330
404
100
AcDbEntity
  8
0
100
AcDbBlockBegin
  2
*D39
 70
     1
 10
0.0
 20
0.0
 30
0.0
  3
*D39
  1

  0
LINE
  5
405
330
404
100
AcDbEntity
  8
0
 62
   123
100
AcDbLine
 10
194.7191172458497
 20
301.6897220659247
 30
0.0
 11
194.7191172458497
 21
239.0020410176334
 31
0.0
  0
LINE
  5
406
330
404
100
AcDbEntity
  8
0
 62
   123
100
AcDbLine
 10
226.7191172458497
 20
252.1897220659243
 30
0.0
 11
226.7191172458497
 21
239.0020410176334
 31
0.0
  0
LINE
  5
407
330
404
100
AcDbEntity
  8
0
 62
   123
100
AcDbLine
 10
197.2191172458497
 20
239.6020410176333
 30
0.0
 11
224.2191172458496
 21
239.6020410176333
 31
0.0
  0
SOLID
  5
408
330
404
100
AcDbEntity
  8
0
 62
   123
100
AcDbTrace
 10
197.2191172458497
 20
240.0187076843
 30
0.0
 11
197.2191172458497
 21
239.1853743509667
 31
0.0
 12
194.7191172458497
 22
239.6020410176333
 32
0.0
 13
194.7191172458497
 23
239.6020410176333
 33
0.0
  0
SOLID
  5
409
330
404
100
AcDbEntity
  8
0
 62
   123
100
AcDbTrace
 10
224.2191172458496
 20
240.0187076843
 30
0.0
 11
224.2191172458496
 21
239.1853743509667
 31
0.0
 12
226.7191172458497
 22
239.6020410176333
 32
0.0
 13
226.7191172458497
 23
239.6020410176333
 33
0.0
  0
MTEXT
  5
40A
330
404
100
AcDbEntity
  8
0
 62
     3
100
AcDbMText
 10
210.7191172458497
 20
242.1020410176333
 30
0.0
 40
3.0
 41
0.0
 71
     5
 72
     1
  1
\A1;32
1001
ACAD
1000
MTEXTBEGIN
1070
    73
1070
     1
1070
    44
1040
1.0
1070
    74
1070
     0
1000
MTEXTEND
  0
POINT
  5
40B
330
404
100
AcDbEntity
  8
DEFPOINTS
 62
     0
100
AcDbPoint
 10
194.7191172458497
 20
302.6897220659248
 30
0.0
  0
POINT
  5
40C
330
404
100
AcDbEntity
  8
DEFPOINTS
 62
     0
100
AcDbPoint
 10
226.7191172458497
 20
253.1897220659243
 30
0.0
  0
POINT
  5
40D
330
404
100
AcDbEntity
  8
DEFPOINTS
 62
     0
100
AcDbPoint
 10
226.7191172458497
 20
239.6020410176333
 30
0.0
  0
ENDBLK
  5
40F
330
404
100
AcDbEntity
  8
0
100
AcDbBlockEnd
  0
BLOCK
  5
41C
330
410
100
AcDbEntity
  8
0
100
AcDbBlockBegin
  2
*D40
 70
     1
 10
0.0
 20
0.0
 30
0.0
  3
*D40
  1

  0
LINE
  5
411
330
410
100
AcDbEntity
  8
0
 62
   123
100
AcDbLine
 10
136.6808583324855
 20
66.18419553188414
 30
0.0
 11
122.2561950435087
 21
66.18419553188414
 31
0.0
  0
LINE
  5
412
330
410
100
AcDbEntity
  8
0
 62
   123
100
AcDbLine
 10
136.6808583324855
 20
76.18419553188414
 30
0.0
 11
122.2561950435087
 21
76.18419553188414
 31
0.0
  0
LINE
  5
413
330
410
100
AcDbEntity
  8
0
 62
   123
100
AcDbLine
 10
122.8561950435087
 20
63.68419553188414
 30
0.0
 11
122.8561950435087
 21
61.18419553188414
 31
0.0
  0
LINE
  5
414
330
410
100
AcDbEntity
  8
0
 62
   123
100
AcDbLine
 10
122.8561950435087
 20
78.68419553188414
 30
0.0
 11
122.8561950435087
 21
118.8029243819879
 31
0.0
  0
LINE
  5
415
330
410
100
AcDbEntity
  8
0
 62
   123
100
AcDbLine
 10
122.8561950435087
 20
66.18419553188414
 30
0.0
 11
122.8561950435087
 21
76.18419553188414
 31
0.0
  0
SOLID
  5
416
330
410
100
AcDbEntity
  8
0
 62
   123
100
AcDbTrace
 10
122.439528376842
 20
63.68419553188414
 30
0.0
 11
123.2728617101753
 21
63.68419553188414
 31
0.0
 12
122.8561950435087
 22
66.18419553188414
 32
0.0
 13
122.8561950435087
 23
66.18419553188414
 33
0.0
  0
SOLID
  5
417
330
410
100
AcDbEntity
  8
0
 62
   123
100
AcDbTrace
 10
122.439528376842
 20
78.68419553188414
 30
0.0
 11
123.2728617101753
 21
78.68419553188414
 31
0.0
 12
122.8561950435087
 22
76.18419553188414
 32
0.0
 13
122.8561950435087
 23
76.18419553188414
 33
0.0
  0
MTEXT
  5
418
330
410
100
AcDbEntity
  8
0
 62
     3
100
AcDbMText
 10
118.9060450435087
 20
103.9873529534165
 30
0.0
 40
3.0
 41
0.0
 71
     5
 72
     1
  1
\A1;\A1;{\f??|b0|i0|c0|p49;%%C10\H0.7x;\S+0^ -0.015;\H1.429x;(h7)}
 11
0.0000000000000001
 21
1.0
 31
0.0
1001
ACAD
1000
MTEXTBEGIN
1070
    73
1070
     1
1070
    44
1040
1.0
1070
    74
1070
     0
1000
MTEXTEND
  0
POINT
  5
419
330
410
100
AcDbEntity
  8
DEFPOINTS
 62
     0
100
AcDbPoint
 10
137.6808583324855
 20
66.18419553188414
 30
0.0
  0
POINT
  5
41A
330
410
100
AcDbEntity
  8
DEFPOINTS
 62
     0
100
AcDbPoint
 10
137.6808583324855
 20
76.18419553188414
 30
0.0
  0
POINT
  5
41B
330
410
100
AcDbEntity
  8
DEFPOINTS
 62
     0
100
AcDbPoint
 10
122.8561950435087
 20
76.18419553188414
 30
0.0
  0
ENDBLK
  5
41D
330
410
100
AcDbEntity
  8
0
100
AcDbBlockEnd
  0
BLOCK
  5
427
330
41E
100
AcDbEntity
  8
0
100
AcDbBlockBegin
  2
*D41
 70
     1
 10
0.0
 20
0.0
 30
0.0
  3
*D41
  1

  0
LINE
  5
41F
330
41E
100
AcDbEntity
  8
0
 62
   123
100
AcDbLine
 10
0.6039225424659023
 20
26.2142258795736
 30
0.0
 11
-1.385778339227357
 21
24.7005910486487
 31
0.0
  0
LINE
  5
420
330
41E
100
AcDbEntity
  8
0
 62
   123
100
AcDbLine
 10
79.39607745751953
 20
86.15416518420014
 30
0.0
 11
109.7361906798398
 21
109.2349471097866
 31
0.0
  0
LINE
  5
421
330
41E
100
AcDbEntity
  8
0
 62
   123
100
AcDbLine
 10
2.593623424159163
 20
27.7278607104985
 30
0.0
 11
77.40637657582627
 21
84.64053035327523
 31
0.0
  0
SOLID
  5
422
330
41E
100
AcDbEntity
  8
0
 62
   123
100
AcDbTrace
 10
0.3516500706450838
 20
26.54584269318915
 30
0.0
 11
0.8561950142867189
 21
25.88260906595805
 31
0.0
 12
2.593623424159163
 22
27.7278607104985
 32
0.0
 13
2.593623424159163
 23
27.7278607104985
 33
0.0
  0
SOLID
  5
423
330
41E
100
AcDbEntity
  8
0
 62
   123
100
AcDbTrace
 10
79.14380498569871
 20
86.48578199781567
 30
0.0
 11
79.64834992934036
 21
85.82254837058458
 31
0.0
 12
77.40637657582627
 22
84.64053035327523
 32
0.0
 13
77.40637657582627
 23
84.64053035327523
 33
0.0
  0
MTEXT
  5
424
330
41E
100
AcDbEntity
  8
0
 62
     3
100
AcDbMText
 10
100.0932065322825
 20
105.0403685394152
 30
0.0
 40
3.0
 41
0.0
 71
     5
 72
     1
  1
\A1;\U+220594%%P0.5
 11
0.7958803526773045
 21
0.6054539323699613
 31
0.0
1001
ACAD
1000
MTEXTBEGIN
1070
    73
1070
     1
1070
    44
1040
1.0
1070
    74
1070
     0
1000
MTEXTEND
  0
POINT
  5
425
330
41E
100
AcDbEntity
  8
DEFPOINTS
 62
     0
100
AcDbPoint
 10
77.40637657582627
 20
84.64053035327523
 30
0.0
  0
POINT
  5
426
330
41E
100
AcDbEntity
  8
DEFPOINTS
 62
     0
100
AcDbPoint
 10
2.593623424159163
 20
27.7278607104985
 30
0.0
  0
ENDBLK
  5
428
330
41E
100
AcDbEntity
  8
0
100
AcDbBlockEnd
  0
BLOCK
  5
433
330
429
100
AcDbEntity
  8
0
100
AcDbBlockBegin
  2
*D42
 70
     1
 10
0.0
 20
0.0
 30
0.0
  3
*D42
  1

  0
LINE
  5
42A
330
429
100
AcDbEntity
  8
0
 62
   123
100
AcDbLine
 10
291.1808583324855
 20
95.68419553188414
 30
0.0
 11
318.327712468466
 21
95.68419553188414
 31
0.0
  0
LINE
  5
42B
330
429
100
AcDbEntity
  8
0
 62
   123
100
AcDbLine
 10
291.1808583324855
 20
16.68419553188414
 30
0.0
 11
318.327712468466
 21
16.68419553188413
 31
0.0
  0
LINE
  5
42C
330
429
100
AcDbEntity
  8
0
 62
   123
100
AcDbLine
 10
317.727712468466
 20
93.18419553188414
 30
0.0
 11
317.727712468466
 21
19.18419553188413
 31
0.0
  0
SOLID
  5
42D
330
429
100
AcDbEntity
  8
0
 62
   123
100
AcDbTrace
 10
317.3110458017993
 20
93.18419553188414
 30
0.0
 11
318.1443791351327
 21
93.18419553188414
 31
0.0
 12
317.727712468466
 22
95.68419553188414
 32
0.0
 13
317.727712468466
 23
95.68419553188414
 33
0.0
  0
SOLID
  5
42E
330
429
100
AcDbEntity
  8
0
 62
   123
100
AcDbTrace
 10
317.3110458017993
 20
19.18419553188413
 30
0.0
 11
318.1443791351327
 21
19.18419553188413
 31
0.0
 12
317.727712468466
 22
16.68419553188413
 32
0.0
 13
317.727712468466
 23
16.68419553188413
 33
0.0
  0
MTEXT
  5
42F
330
429
100
AcDbEntity
  8
0
 62
     3
100
AcDbMText
 10
315.227712468466
 20
56.18419553188414
 30
0.0
 40
3.0
 41
0.0
 71
     5
 72
     1
  1
\A1;%%C79
 11
0.0000000000000001
 21
1.0
 31
0.0
1001
ACAD
1000
MTEXTBEGIN
1070
    73
1070
     1
1070
    44
1040
1.0
1070
    74
1070
     0
1000
MTEXTEND
  0
POINT
  5
430
330
429
100
AcDbEntity
  8
DEFPOINTS
 62
     0
100
AcDbPoint
 10
290.1808583324855
 20
95.68419553188414
 30
0.0
  0
POINT
  5
431
330
429
100
AcDbEntity
  8
DEFPOINTS
 62
     0
100
AcDbPoint
 10
290.1808583324855
 20
16.68419553188414
 30
0.0
  0
POINT
  5
432
330
429
100
AcDbEntity
  8
DEFPOINTS
 62
     0
100
AcDbPoint
 10
317.727712468466
 20
16.68419553188413
 30
0.0
  0
ENDBLK
  5
434
330
429
100
AcDbEntity
  8
0
100
AcDbBlockEnd
  0
BLOCK
  5
43F
330
435
100
AcDbEntity
  8
0
100
AcDbBlockBegin
  2
*D43
 70
     1
 10
0.0
 20
0.0
 30
0.0
  3
*D43
  1

  0
LINE
  5
436
330
435
100
AcDbEntity
  8
0
 62
   123
100
AcDbLine
 10
166.1808583324855
 20
88.18419553188414
 30
0.0
 11
103.5664764409179
 21
88.18419553188416
 31
0.0
  0
LINE
  5
437
330
435
100
AcDbEntity
  8
0
 62
   123
100
AcDbLine
 10
166.1808583324855
 20
54.18419553188414
 30
0.0
 11
103.5664764409179
 21
54.18419553188416
 31
0.0
  0
LINE
  5
438
330
435
100
AcDbEntity
  8
0
 62
   123
100
AcDbLine
 10
104.1664764409179
 20
85.68419553188416
 30
0.0
 11
104.1664764409179
 21
56.68419553188416
 31
0.0
  0
SOLID
  5
439
330
435
100
AcDbEntity
  8
0
 62
   123
100
AcDbTrace
 10
103.7498097742512
 20
85.68419553188416
 30
0.0
 11
104.5831431075845
 21
85.68419553188416
 31
0.0
 12
104.1664764409179
 22
88.18419553188416
 32
0.0
 13
104.1664764409179
 23
88.18419553188416
 33
0.0
  0
SOLID
  5
43A
330
435
100
AcDbEntity
  8
0
 62
   123
100
AcDbTrace
 10
103.7498097742512
 20
56.68419553188416
 30
0.0
 11
104.5831431075845
 21
56.68419553188416
 31
0.0
 12
104.1664764409179
 22
54.18419553188416
 32
0.0
 13
104.1664764409179
 23
54.18419553188416
 33
0.0
  0
MTEXT
  5
43B
330
435
100
AcDbEntity
  8
0
 62
     3
100
AcDbMText
 10
101.6664764409179
 20
71.18419553188414
 30
0.0
 40
3.0
 41
0.0
 71
     5
 72
     1
  1
\A1;{\f??|b0|i0|c0|p49;%%c}34
 11
0.0000000000000001
 21
1.0
 31
0.0
1001
ACAD
1000
MTEXTBEGIN
1070
    73
1070
     1
1070
    44
1040
1.0
1070
    74
1070
     0
1000
MTEXTEND
  0
POINT
  5
43C
330
435
100
AcDbEntity
  8
DEFPOINTS
 62
     0
100
AcDbPoint
 10
167.1808583324855
 20
88.18419553188414
 30
0.0
  0
POINT
  5
43D
330
435
100
AcDbEntity
  8
DEFPOINTS
 62
     0
100
AcDbPoint
 10
167.1808583324855
 20
54.18419553188414
 30
0.0
  0
POINT
  5
43E
330
435
100
AcDbEntity
  8
DEFPOINTS
 62
     0
100
AcDbPoint
 10
104.1664764409179
 20
54.18419553188416
 30
0.0
  0
ENDBLK
  5
440
330
435
100
AcDbEntity
  8
0
100
AcDbBlockEnd
  0
BLOCK
  5
44B
330
441
100
AcDbEntity
  8
0
100
AcDbBlockBegin
  2
*D44
 70
     1
 10
0.0
 20
0.0
 30
0.0
  3
*D44
  1

  0
LINE
  5
442
330
441
100
AcDbEntity
  8
0
 62
   123
100
AcDbLine
 10
132.7827195312565
 20
71.18419553188414
 30
0.0
 11
112.7510109741364
 21
71.18419553188414
 31
0.0
  0
LINE
  5
443
330
441
100
AcDbEntity
  8
0
 62
   123
100
AcDbLine
 10
133.6236673866987
 20
56.18419553188414
 30
0.0
 11
112.7510109741364
 21
56.18419553188414
 31
0.0
  0
LINE
  5
444
330
441
100
AcDbEntity
  8
0
 62
   123
100
AcDbLine
 10
113.3510109741364
 20
68.68419553188414
 30
0.0
 11
113.3510109741364
 21
58.68419553188414
 31
0.0
  0
SOLID
  5
445
330
441
100
AcDbEntity
  8
0
 62
   123
100
AcDbTrace
 10
112.9343443074697
 20
68.68419553188414
 30
0.0
 11
113.7676776408031
 21
68.68419553188414
 31
0.0
 12
113.3510109741364
 22
71.18419553188414
 32
0.0
 13
113.3510109741364
 23
71.18419553188414
 33
0.0
  0
SOLID
  5
446
330
441
100
AcDbEntity
  8
0
 62
   123
100
AcDbTrace
 10
112.9343443074697
 20
58.68419553188414
 30
0.0
 11
113.7676776408031
 21
58.68419553188414
 31
0.0
 12
113.3510109741364
 22
56.18419553188414
 32
0.0
 13
113.3510109741364
 23
56.18419553188414
 33
0.0
  0
MTEXT
  5
447
330
441
100
AcDbEntity
  8
0
 62
     3
100
AcDbMText
 10
110.8510109741364
 20
63.68419553188414
 30
0.0
 40
3.0
 41
0.0
 71
     5
 72
     1
  1
\A1;15
 11
0.0000000000000001
 21
1.0
 31
0.0
1001
ACAD
1000
MTEXTBEGIN
1070
    73
1070
     1
1070
    44
1040
1.0
1070
    74
1070
     0
1000
MTEXTEND
  0
POINT
  5
448
330
441
100
AcDbEntity
  8
DEFPOINTS
 62
     0
100
AcDbPoint
 10
133.7827195312565
 20
71.18419553188414
 30
0.0
  0
POINT
  5
449
330
441
100
AcDbEntity
  8
DEFPOINTS
 62
     0
100
AcDbPoint
 10
134.6236673866987
 20
56.18419553188414
 30
0.0
  0
POINT
  5
44A
330
441
100
AcDbEntity
  8
DEFPOINTS
 62
     0
100
AcDbPoint
 10
113.3510109741364
 20
56.18419553188414
 30
0.0
  0
ENDBLK
  5
44C
330
441
100
AcDbEntity
  8
0
100
AcDbBlockEnd
  0
BLOCK
  5
457
330
44D
100
AcDbEntity
  8
0
100
AcDbBlockBegin
  2
*D45
 70
     1
 10
0.0
 20
0.0
 30
0.0
  3
*D45
  1

  0
LINE
  5
44E
330
44D
100
AcDbEntity
  8
0
 62
   123
100
AcDbLine
 10
-0.0000000000000001
 20
20.18419553188414
 30
0.0
 11
-0.0000000000000013
 21
-0.0000000000014566
 31
0.0
  0
LINE
  5
44F
330
44D
100
AcDbEntity
  8
0
 62
   123
100
AcDbLine
 10
80.0
 20
20.18419553188414
 30
0.0
 11
80.0
 21
-0.0000000000014566
 31
0.0
  0
LINE
  5
450
330
44D
100
AcDbEntity
  8
0
 62
   123
100
AcDbLine
 10
2.499999999999998
 20
0.5999999999985448
 30
0.0
 11
77.5
 21
0.5999999999985448
 31
0.0
  0
SOLID
  5
451
330
44D
100
AcDbEntity
  8
0
 62
   123
100
AcDbTrace
 10
2.499999999999998
 20
1.016666666665211
 30
0.0
 11
2.499999999999998
 21
0.1833333333318782
 31
0.0
 12
-0.0000000000000013
 22
0.5999999999985448
 32
0.0
 13
-0.0000000000000013
 23
0.5999999999985448
 33
0.0
  0
SOLID
  5
452
330
44D
100
AcDbEntity
  8
0
 62
   123
100
AcDbTrace
 10
77.5
 20
1.016666666665211
 30
0.0
 11
77.5
 21
0.1833333333318782
 31
0.0
 12
80.0
 22
0.5999999999985448
 32
0.0
 13
80.0
 23
0.5999999999985448
 33
0.0
  0
MTEXT
  5
453
330
44D
100
AcDbEntity
  8
0
 62
     3
100
AcDbMText
 10
42.86747488707805
 20
3.099999999998544
 30
0.0
 40
3.0
 41
0.0
 71
     5
 72
     1
  1
\A1;80
1001
ACAD
1000
MTEXTBEGIN
1070
    73
1070
     1
1070
    44
1040
1.0
1070
    74
1070
     0
1000
MTEXTEND
  0
POINT
  5
454
330
44D
100
AcDbEntity
  8
DEFPOINTS
 62
     0
100
AcDbPoint
 10
0.0
 20
21.18419553188414
 30
0.0
  0
POINT
  5
455
330
44D
100
AcDbEntity
  8
DEFPOINTS
 62
     0
100
AcDbPoint
 10
80.0
 20
21.18419553188414
 30
0.0
  0
POINT
  5
456
330
44D
100
AcDbEntity
  8
DEFPOINTS
 62
     0
100
AcDbPoint
 10
80.0
 20
0.5999999999985448
 30
0.0
  0
ENDBLK
  5
458
330
44D
100
AcDbEntity
  8
0
100
AcDbBlockEnd
  0
BLOCK
  5
463
330
459
100
AcDbEntity
  8
0
100
AcDbBlockBegin
  2
*D46
 70
     1
 10
0.0
 20
0.0
 30
0.0
  3
*D46
  1

  0
LINE
  5
45A
330
459
100
AcDbEntity
  8
0
 62
   123
100
AcDbLine
 10
212.1808583324855
 20
15.18419553188141
 30
0.0
 11
212.1808583324855
 21
-3.723166661350298
 31
0.0
  0
LINE
  5
45B
330
459
100
AcDbEntity
  8
0
 62
   123
100
AcDbLine
 10
297.1808583324855
 20
18.18419553188414
 30
0.0
 11
297.1808583324855
 21
-3.723166661350298
 31
0.0
  0
LINE
  5
45C
330
459
100
AcDbEntity
  8
0
 62
   123
100
AcDbLine
 10
214.6808583324855
 20
-3.123166661350296
 30
0.0
 11
294.6808583324855
 21
-3.123166661350296
 31
0.0
  0
SOLID
  5
45D
330
459
100
AcDbEntity
  8
0
 62
   123
100
AcDbTrace
 10
214.6808583324855
 20
-2.70649999468363
 30
0.0
 11
214.6808583324855
 21
-3.539833328016963
 31
0.0
 12
212.1808583324855
 22
-3.123166661350296
 32
0.0
 13
212.1808583324855
 23
-3.123166661350296
 33
0.0
  0
SOLID
  5
45E
330
459
100
AcDbEntity
  8
0
 62
   123
100
AcDbTrace
 10
294.6808583324855
 20
-2.70649999468363
 30
0.0
 11
294.6808583324855
 21
-3.539833328016963
 31
0.0
 12
297.1808583324855
 22
-3.123166661350296
 32
0.0
 13
297.1808583324855
 23
-3.123166661350296
 33
0.0
  0
MTEXT
  5
45F
330
459
100
AcDbEntity
  8
0
 62
     3
100
AcDbMText
 10
254.6808583324782
 20
-0.6231666613502967
 30
0.0
 40
3.0
 41
0.0
 71
     5
 72
     1
  1
\A1;85
1001
ACAD
1000
MTEXTBEGIN
1070
    73
1070
     1
1070
    44
1040
1.0
1070
    74
1070
     0
1000
MTEXTEND
  0
POINT
  5
460
330
459
100
AcDbEntity
  8
DEFPOINTS
 62
     0
100
AcDbPoint
 10
212.1808583324855
 20
16.18419553188141
 30
0.0
  0
POINT
  5
461
330
459
100
AcDbEntity
  8
DEFPOINTS
 62
     0
100
AcDbPoint
 10
297.1808583324855
 20
19.18419553188414
 30
0.0
  0
POINT
  5
462
330
459
100
AcDbEntity
  8
DEFPOINTS
 62
     0
100
AcDbPoint
 10
297.1808583324855
 20
-3.123166661350296
 30
0.0
  0
ENDBLK
  5
464
330
459
100
AcDbEntity
  8
0
100
AcDbBlockEnd
  0
BLOCK
  5
46F
330
465
100
AcDbEntity
  8
0
100
AcDbBlockBegin
  2
*D47
 70
     1
 10
0.0
 20
0.0
 30
0.0
  3
*D47
  1

  0
LINE
  5
466
330
465
100
AcDbEntity
  8
0
 62
   123
100
AcDbLine
 10
212.1808583324855
 20
14.18419553188141
 30
0.0
 11
212.1808583324855
 21
4.988867252127784
 31
0.0
  0
LINE
  5
467
330
465
100
AcDbEntity
  8
0
 62
   123
100
AcDbLine
 10
219.1808583324855
 20
16.58545819035407
 30
0.0
 11
219.1808583324855
 21
4.988867252127784
 31
0.0
  0
LINE
  5
468
330
465
100
AcDbEntity
  8
0
 62
   123
100
AcDbLine
 10
214.6808583324855
 20
5.588867252127784
 30
0.0
 11
216.6808583324855
 21
5.588867252127784
 31
0.0
  0
SOLID
  5
469
330
465
100
AcDbEntity
  8
0
 62
   123
100
AcDbTrace
 10
214.6808583324855
 20
6.00553391879445
 30
0.0
 11
214.6808583324855
 21
5.172200585461117
 31
0.0
 12
212.1808583324855
 22
5.588867252127784
 32
0.0
 13
212.1808583324855
 23
5.588867252127784
 33
0.0
  0
SOLID
  5
46A
330
465
100
AcDbEntity
  8
0
 62
   123
100
AcDbTrace
 10
216.6808583324855
 20
6.00553391879445
 30
0.0
 11
216.6808583324855
 21
5.172200585461117
 31
0.0
 12
219.1808583324855
 22
5.588867252127784
 32
0.0
 13
219.1808583324855
 23
5.588867252127784
 33
0.0
  0
MTEXT
  5
46B
330
465
100
AcDbEntity
  8
0
 62
     3
100
AcDbMText
 10
215.6808583324782
 20
8.088867252127784
 30
0.0
 40
3.0
 41
0.0
 71
     5
 72
     1
  1
\A1;7
1001
ACAD
1000
MTEXTBEGIN
1070
    73
1070
     1
1070
    44
1040
1.0
1070
    74
1070
     0
1000
MTEXTEND
  0
POINT
  5
46C
330
465
100
AcDbEntity
  8
DEFPOINTS
 62
     0
100
AcDbPoint
 10
212.1808583324855
 20
15.18419553188141
 30
0.0
  0
POINT
  5
46D
330
465
100
AcDbEntity
  8
DEFPOINTS
 62
     0
100
AcDbPoint
 10
219.1808583324855
 20
17.58545819035407
 30
0.0
  0
POINT
  5
46E
330
465
100
AcDbEntity
  8
DEFPOINTS
 62
     0
100
AcDbPoint
 10
219.1808583324855
 20
5.588867252127784
 30
0.0
  0
ENDBLK
  5
470
330
465
100
AcDbEntity
  8
0
100
AcDbBlockEnd
  0
BLOCK
  5
47D
330
471
100
AcDbEntity
  8
0
100
AcDbBlockBegin
  2
*D48
 70
     1
 10
0.0
 20
0.0
 30
0.0
  3
*D48
  1

  0
LINE
  5
472
330
471
100
AcDbEntity
  8
0
 62
   123
100
AcDbLine
 10
169.6808583324855
 20
97.18419553188414
 30
0.0
 11
169.6808583324855
 21
104.4941234407898
 31
0.0
  0
LINE
  5
473
330
471
100
AcDbEntity
  8
0
 62
   123
100
AcDbLine
 10
166.6808583324855
 20
88.68419553188415
 30
0.0
 11
166.6808583324855
 21
104.4941234407898
 31
0.0
  0
LINE
  5
474
330
471
100
AcDbEntity
  8
0
 62
   123
100
AcDbLine
 10
172.1808583324855
 20
103.8941234407898
 30
0.0
 11
174.6808583324855
 21
103.8941234407898
 31
0.0
  0
LINE
  5
475
330
471
100
AcDbEntity
  8
0
 62
   123
100
AcDbLine
 10
164.1808583324855
 20
103.8941234407898
 30
0.0
 11
161.6808583324855
 21
103.8941234407898
 31
0.0
  0
LINE
  5
476
330
471
100
AcDbEntity
  8
0
 62
   123
100
AcDbLine
 10
169.6808583324855
 20
103.8941234407898
 30
0.0
 11
166.6808583324855
 21
103.8941234407898
 31
0.0
  0
SOLID
  5
477
330
471
100
AcDbEntity
  8
0
 62
   123
100
AcDbTrace
 10
172.1808583324855
 20
104.3107901074564
 30
0.0
 11
172.1808583324855
 21
103.4774567741231
 31
0.0
 12
169.6808583324855
 22
103.8941234407898
 32
0.0
 13
169.6808583324855
 23
103.8941234407898
 33
0.0
  0
SOLID
  5
478
330
471
100
AcDbEntity
  8
0
 62
   123
100
AcDbTrace
 10
164.1808583324855
 20
104.3107901074564
 30
0.0
 11
164.1808583324855
 21
103.4774567741231
 31
0.0
 12
166.6808583324855
 22
103.8941234407898
 32
0.0
 13
166.6808583324855
 23
103.8941234407898
 33
0.0
  0
MTEXT
  5
479
330
471
100
AcDbEntity
  8
0
 62
     3
100
AcDbMText
 10
168.1808583324855
 20
106.3941234407898
 30
0.0
 40
3.0
 41
0.0
 71
     5
 72
     1
  1
\A1;3
1001
ACAD
1000
MTEXTBEGIN
1070
    73
1070
     1
1070
    44
1040
1.0
1070
    74
1070
     0
1000
MTEXTEND
  0
POINT
  5
47A
330
471
100
AcDbEntity
  8
DEFPOINTS
 62
     0
100
AcDbPoint
 10
169.6808583324855
 20
96.18419553188415
 30
0.0
  0
POINT
  5
47B
330
471
100
AcDbEntity
  8
DEFPOINTS
 62
     0
100
AcDbPoint
 10
166.6808583324855
 20
87.68419553188413
 30
0.0
  0
POINT
  5
47C
330
471
100
AcDbEntity
  8
DEFPOINTS
 62
     0
100
AcDbPoint
 10
166.6808583324855
 20
103.8941234407898
 30
0.0
  0
ENDBLK
  5
47E
330
471
100
AcDbEntity
  8
0
100
AcDbBlockEnd
  0
BLOCK
  5
489
330
47F
100
AcDbEntity
  8
0
100
AcDbBlockBegin
  2
*D49
 70
     1
 10
0.0
 20
0.0
 30
0.0
  3
*D49
  1

  0
LINE
  5
480
330
47F
100
AcDbEntity
  8
0
 62
   123
100
AcDbLine
 10
169.6808583324855
 20
97.18419553188414
 30
0.0
 11
169.6808583324855
 21
116.2280748871549
 31
0.0
  0
LINE
  5
481
330
47F
100
AcDbEntity
  8
0
 62
   123
100
AcDbLine
 10
212.1808583324855
 20
97.68419553188596
 30
0.0
 11
212.1808583324855
 21
116.2280748871549
 31
0.0
  0
LINE
  5
482
330
47F
100
AcDbEntity
  8
0
 62
   123
100
AcDbLine
 10
172.1808583324855
 20
115.6280748871549
 30
0.0
 11
209.6808583324855
 21
115.6280748871549
 31
0.0
  0
SOLID
  5
483
330
47F
100
AcDbEntity
  8
0
 62
   123
100
AcDbTrace
 10
172.1808583324855
 20
116.0447415538216
 30
0.0
 11
172.1808583324855
 21
115.2114082204883
 31
0.0
 12
169.6808583324855
 22
115.6280748871549
 32
0.0
 13
169.6808583324855
 23
115.6280748871549
 33
0.0
  0
SOLID
  5
484
330
47F
100
AcDbEntity
  8
0
 62
   123
100
AcDbTrace
 10
209.6808583324855
 20
116.0447415538216
 30
0.0
 11
209.6808583324855
 21
115.2114082204883
 31
0.0
 12
212.1808583324855
 22
115.6280748871549
 32
0.0
 13
212.1808583324855
 23
115.6280748871549
 33
0.0
  0
MTEXT
  5
485
330
47F
100
AcDbEntity
  8
0
 62
     3
100
AcDbMText
 10
189.6808583324855
 20
118.1280748871549
 30
0.0
 40
3.0
 41
0.0
 71
     5
 72
     1
  1
\A1;{\f??|b0|i0|c0|p49;L}
1001
ACAD
1000
MTEXTBEGIN
1070
    73
1070
     1
1070
    44
1040
1.0
1070
    74
1070
     0
1000
MTEXTEND
  0
POINT
  5
486
330
47F
100
AcDbEntity
  8
DEFPOINTS
 62
     0
100
AcDbPoint
 10
169.6808583324855
 20
96.18419553188415
 30
0.0
  0
POINT
  5
487
330
47F
100
AcDbEntity
  8
DEFPOINTS
 62
     0
100
AcDbPoint
 10
212.1808583324855
 20
96.68419553188597
 30
0.0
  0
POINT
  5
488
330
47F
100
AcDbEntity
  8
DEFPOINTS
 62
     0
100
AcDbPoint
 10
212.1808583324855
 20
115.6280748871549
 30
0.0
  0
ENDBLK
  5
48A
330
47F
100
AcDbEntity
  8
0
100
AcDbBlockEnd
  0
BLOCK
  5
495
330
48B
100
AcDbEntity
  8
0
100
AcDbBlockBegin
  2
*D50
 70
     1
 10
0.0
 20
0.0
 30
0.0
  3
*D50
  1

  0
LINE
  5
48C
330
48B
100
AcDbEntity
  8
0
 62
   123
100
AcDbLine
 10
137.6808583324855
 20
77.18419553188414
 30
0.0
 11
137.6808583324855
 21
116.2255569682189
 31
0.0
  0
LINE
  5
48D
330
48B
100
AcDbEntity
  8
0
 62
   123
100
AcDbLine
 10
169.6808583324855
 20
97.18419553188414
 30
0.0
 11
169.6808583324855
 21
116.2255569682189
 31
0.0
  0
LINE
  5
48E
330
48B
100
AcDbEntity
  8
0
 62
   123
100
AcDbLine
 10
140.1808583324855
 20
115.6255569682189
 30
0.0
 11
167.1808583324855
 21
115.6255569682189
 31
0.0
  0
SOLID
  5
48F
330
48B
100
AcDbEntity
  8
0
 62
   123
100
AcDbTrace
 10
140.1808583324855
 20
116.0422236348855
 30
0.0
 11
140.1808583324855
 21
115.2088903015522
 31
0.0
 12
137.6808583324855
 22
115.6255569682189
 32
0.0
 13
137.6808583324855
 23
115.6255569682189
 33
0.0
  0
SOLID
  5
490
330
48B
100
AcDbEntity
  8
0
 62
   123
100
AcDbTrace
 10
167.1808583324855
 20
116.0422236348855
 30
0.0
 11
167.1808583324855
 21
115.2088903015522
 31
0.0
 12
169.6808583324855
 22
115.6255569682189
 32
0.0
 13
169.6808583324855
 23
115.6255569682189
 33
0.0
  0
MTEXT
  5
491
330
48B
100
AcDbEntity
  8
0
 62
     3
100
AcDbMText
 10
154.0020902623673
 20
118.1255569682189
 30
0.0
 40
3.0
 41
0.0
 71
     5
 72
     1
  1
\A1;32
1001
ACAD
1000
MTEXTBEGIN
1070
    73
1070
     1
1070
    44
1040
1.0
1070
    74
1070
     0
1000
MTEXTEND
  0
POINT
  5
492
330
48B
100
AcDbEntity
  8
DEFPOINTS
 62
     0
100
AcDbPoint
 10
137.6808583324855
 20
76.18419553188414
 30
0.0
  0
POINT
  5
493
330
48B
100
AcDbEntity
  8
DEFPOINTS
 62
     0
100
AcDbPoint
 10
169.6808583324855
 20
96.18419553188415
 30
0.0
  0
POINT
  5
494
330
48B
100
AcDbEntity
  8
DEFPOINTS
 62
     0
100
AcDbPoint
 10
169.6808583324855
 20
115.6255569682189
 30
0.0
  0
ENDBLK
  5
496
330
48B
100
AcDbEntity
  8
0
100
AcDbBlockEnd
  0
BLOCK
  5
4A1
330
497
100
AcDbEntity
  8
0
100
AcDbBlockBegin
  2
*D51
 70
     1
 10
0.0
 20
0.0
 30
0.0
  3
*D51
  1

  0
LINE
  5
498
330
497
100
AcDbEntity
  8
0
 62
   123
100
AcDbLine
 10
76.0
 20
96.18419553188415
 30
0.0
 11
87.91934607125005
 21
96.18419553188415
 31
0.0
  0
LINE
  5
499
330
497
100
AcDbEntity
  8
0
 62
   123
100
AcDbLine
 10
69.52830600000016
 20
139.1841955318814
 30
0.0
 11
87.91934607125005
 21
139.1841955318814
 31
0.0
  0
LINE
  5
49A
330
497
100
AcDbEntity
  8
0
 62
   123
100
AcDbLine
 10
87.31934607125005
 20
98.68419553188415
 30
0.0
 11
87.31934607125005
 21
136.6841955318814
 31
0.0
  0
SOLID
  5
49B
330
497
100
AcDbEntity
  8
0
 62
   123
100
AcDbTrace
 10
86.90267940458339
 20
98.68419553188415
 30
0.0
 11
87.73601273791673
 21
98.68419553188415
 31
0.0
 12
87.31934607125005
 22
96.18419553188415
 32
0.0
 13
87.31934607125005
 23
96.18419553188415
 33
0.0
  0
SOLID
  5
49C
330
497
100
AcDbEntity
  8
0
 62
   123
100
AcDbTrace
 10
86.90267940458339
 20
136.6841955318814
 30
0.0
 11
87.73601273791673
 21
136.6841955318814
 31
0.0
 12
87.31934607125005
 22
139.1841955318814
 32
0.0
 13
87.31934607125005
 23
139.1841955318814
 33
0.0
  0
MTEXT
  5
49D
330
497
100
AcDbEntity
  8
0
 62
     3
100
AcDbMText
 10
84.81934607125003
 20
119.3218250878353
 30
0.0
 40
3.0
 41
0.0
 71
     5
 72
     1
  1
\A1;43
 11
0.0000000000000001
 21
1.0
 31
0.0
1001
ACAD
1000
MTEXTBEGIN
1070
    73
1070
     1
1070
    44
1040
1.0
1070
    74
1070
     0
1000
MTEXTEND
  0
POINT
  5
49E
330
497
100
AcDbEntity
  8
DEFPOINTS
 62
     0
100
AcDbPoint
 10
75.0
 20
96.18419553188415
 30
0.0
  0
POINT
  5
49F
330
497
100
AcDbEntity
  8
DEFPOINTS
 62
     0
100
AcDbPoint
 10
68.52830600000015
 20
139.1841955318814
 30
0.0
  0
POINT
  5
4A0
330
497
100
AcDbEntity
  8
DEFPOINTS
 62
     0
100
AcDbPoint
 10
87.31934607125005
 20
139.1841955318814
 30
0.0
  0
ENDBLK
  5
4A2
330
497
100
AcDbEntity
  8
0
100
AcDbBlockEnd
  0
BLOCK
  5
4AD
330
4A3
100
AcDbEntity
  8
0
100
AcDbBlockBegin
  2
*D52
 70
     1
 10
0.0
 20
0.0
 30
0.0
  3
*D52
  1

  0
LINE
  5
4A4
330
4A3
100
AcDbEntity
  8
0
 62
   123
100
AcDbLine
 10
162.6808583324855
 20
77.18419553188414
 30
0.0
 11
162.6808583324855
 21
93.00448373878689
 31
0.0
  0
LINE
  5
4A5
330
4A3
100
AcDbEntity
  8
0
 62
   123
100
AcDbLine
 10
137.6808583324855
 20
77.18419553188414
 30
0.0
 11
137.6808583324855
 21
93.00448373878689
 31
0.0
  0
LINE
  5
4A6
330
4A3
100
AcDbEntity
  8
0
 62
   123
100
AcDbLine
 10
160.1808583324855
 20
92.4044837387869
 30
0.0
 11
140.1808583324855
 21
92.4044837387869
 31
0.0
  0
SOLID
  5
4A7
330
4A3
100
AcDbEntity
  8
0
 62
   123
100
AcDbTrace
 10
160.1808583324855
 20
92.82115040545356
 30
0.0
 11
160.1808583324855
 21
91.98781707212022
 31
0.0
 12
162.6808583324855
 22
92.4044837387869
 32
0.0
 13
162.6808583324855
 23
92.4044837387869
 33
0.0
  0
SOLID
  5
4A8
330
4A3
100
AcDbEntity
  8
0
 62
   123
100
AcDbTrace
 10
140.1808583324855
 20
92.82115040545356
 30
0.0
 11
140.1808583324855
 21
91.98781707212022
 31
0.0
 12
137.6808583324855
 22
92.4044837387869
 32
0.0
 13
137.6808583324855
 23
92.4044837387869
 33
0.0
  0
MTEXT
  5
4A9
330
4A3
100
AcDbEntity
  8
0
 62
     3
100
AcDbMText
 10
150.4917889998778
 20
94.9044837387869
 30
0.0
 40
3.0
 41
0.0
 71
     5
 72
     1
  1
\A1;25
1001
ACAD
1000
MTEXTBEGIN
1070
    73
1070
     1
1070
    44
1040
1.0
1070
    74
1070
     0
1000
MTEXTEND
  0
POINT
  5
4AA
330
4A3
100
AcDbEntity
  8
DEFPOINTS
 62
     0
100
AcDbPoint
 10
162.6808583324855
 20
76.18419553188414
 30
0.0
  0
POINT
  5
4AB
330
4A3
100
AcDbEntity
  8
DEFPOINTS
 62
     0
100
AcDbPoint
 10
137.6808583324855
 20
76.18419553188414
 30
0.0
  0
POINT
  5
4AC
330
4A3
100
AcDbEntity
  8
DEFPOINTS
 62
     0
100
AcDbPoint
 10
137.6808583324855
 20
92.4044837387869
 30
0.0
  0
ENDBLK
  5
4AE
330
4A3
100
AcDbEntity
  8
0
100
AcDbBlockEnd
  0
BLOCK
  5
4B9
330
4AF
100
AcDbEntity
  8
0
100
AcDbBlockBegin
  2
*D53
 70
     1
 10
0.0
 20
0.0
 30
0.0
  3
*D53
  1

  0
LINE
  5
4B0
330
4AF
100
AcDbEntity
  8
0
 62
   123
100
AcDbLine
 10
9.0
 20
105.1841955318841
 30
0.0
 11
9.000000000000003
 21
152.0761692433398
 31
0.0
  0
LINE
  5
4B1
330
4AF
100
AcDbEntity
  8
0
 62
   123
100
AcDbLine
 10
71.0
 20
105.1841955318841
 30
0.0
 11
71.0
 21
152.0761692433398
 31
0.0
  0
LINE
  5
4B2
330
4AF
100
AcDbEntity
  8
0
 62
   123
100
AcDbLine
 10
11.5
 20
151.4761692433398
 30
0.0
 11
68.5
 21
151.4761692433398
 31
0.0
  0
SOLID
  5
4B3
330
4AF
100
AcDbEntity
  8
0
 62
   123
100
AcDbTrace
 10
11.5
 20
151.8928359100065
 30
0.0
 11
11.5
 21
151.0595025766732
 31
0.0
 12
9.000000000000003
 22
151.4761692433398
 32
0.0
 13
9.000000000000003
 23
151.4761692433398
 33
0.0
  0
SOLID
  5
4B4
330
4AF
100
AcDbEntity
  8
0
 62
   123
100
AcDbTrace
 10
68.5
 20
151.8928359100065
 30
0.0
 11
68.5
 21
151.0595025766732
 31
0.0
 12
71.0
 22
151.4761692433398
 32
0.0
 13
71.0
 23
151.4761692433398
 33
0.0
  0
MTEXT
  5
4B5
330
4AF
100
AcDbEntity
  8
0
 62
     3
100
AcDbMText
 10
40.0
 20
153.9761692433398
 30
0.0
 40
3.0
 41
0.0
 71
     5
 72
     1
  1
\A1;62
1001
ACAD
1000
MTEXTBEGIN
1070
    73
1070
     1
1070
    44
1040
1.0
1070
    74
1070
     0
1000
MTEXTEND
  0
POINT
  5
4B6
330
4AF
100
AcDbEntity
  8
DEFPOINTS
 62
     0
100
AcDbPoint
 10
9.0
 20
104.1841955318841
 30
0.0
  0
POINT
  5
4B7
330
4AF
100
AcDbEntity
  8
DEFPOINTS
 62
     0
100
AcDbPoint
 10
71.0
 20
104.1841955318841
 30
0.0
  0
POINT
  5
4B8
330
4AF
100
AcDbEntity
  8
DEFPOINTS
 62
     0
100
AcDbPoint
 10
71.0
 20
151.4761692433398
 30
0.0
  0
ENDBLK
  5
4BA
330
4AF
100
AcDbEntity
  8
0
100
AcDbBlockEnd
  0
BLOCK
  5
4C5
330
4BB
100
AcDbEntity
  8
0
100
AcDbBlockBegin
  2
*D54
 70
     1
 10
0.0
 20
0.0
 30
0.0
  3
*D54
  1

  0
LINE
  5
4BC
330
4BB
100
AcDbEntity
  8
0
 62
   123
100
AcDbLine
 10
17.36749324053744
 20
187.5280498145898
 30
0.0
 11
17.36749324053744
 21
196.9332437950643
 31
0.0
  0
LINE
  5
4BD
330
4BB
100
AcDbEntity
  8
0
 62
   123
100
AcDbLine
 10
42.36749324053744
 20
189.5280498145898
 30
0.0
 11
42.36749324053744
 21
196.9332437950643
 31
0.0
  0
LINE
  5
4BE
330
4BB
100
AcDbEntity
  8
0
 62
   123
100
AcDbLine
 10
19.86749324053744
 20
196.3332437950644
 30
0.0
 11
39.86749324053744
 21
196.3332437950644
 31
0.0
  0
SOLID
  5
4BF
330
4BB
100
AcDbEntity
  8
0
 62
   123
100
AcDbTrace
 10
19.86749324053744
 20
196.749910461731
 30
0.0
 11
19.86749324053744
 21
195.9165771283977
 31
0.0
 12
17.36749324053744
 22
196.3332437950644
 32
0.0
 13
17.36749324053744
 23
196.3332437950644
 33
0.0
  0
SOLID
  5
4C0
330
4BB
100
AcDbEntity
  8
0
 62
   123
100
AcDbTrace
 10
39.86749324053744
 20
196.749910461731
 30
0.0
 11
39.86749324053744
 21
195.9165771283977
 31
0.0
 12
42.36749324053744
 22
196.3332437950644
 32
0.0
 13
42.36749324053744
 23
196.3332437950644
 33
0.0
  0
MTEXT
  5
4C1
330
4BB
100
AcDbEntity
  8
0
 62
     3
100
AcDbMText
 10
29.86749324053744
 20
198.8332437950644
 30
0.0
 40
3.0
 41
0.0
 71
     5
 72
     1
  1
\A1;25{\f??|b0|i0|c0|p49;%%p0.2}
1001
ACAD
1000
MTEXTBEGIN
1070
    73
1070
     1
1070
    44
1040
1.0
1070
    74
1070
     0
1000
MTEXTEND
  0
POINT
  5
4C2
330
4BB
100
AcDbEntity
  8
DEFPOINTS
 62
     0
100
AcDbPoint
 10
17.36749324053744
 20
186.5280498145898
 30
0.0
  0
POINT
  5
4C3
330
4BB
100
AcDbEntity
  8
DEFPOINTS
 62
     0
100
AcDbPoint
 10
42.36749324053744
 20
188.5280498145898
 30
0.0
  0
POINT
  5
4C4
330
4BB
100
AcDbEntity
  8
DEFPOINTS
 62
     0
100
AcDbPoint
 10
42.36749324053744
 20
196.3332437950644
 30
0.0
  0
ENDBLK
  5
4C6
330
4BB
100
AcDbEntity
  8
0
100
AcDbBlockEnd
  0
BLOCK
  5
4D3
330
4C7
100
AcDbEntity
  8
0
100
AcDbBlockBegin
  2
*D55
 70
     1
 10
0.0
 20
0.0
 30
0.0
  3
*D55
  1

  0
LINE
  5
4C8
330
4C7
100
AcDbEntity
  8
0
 62
   123
100
AcDbLine
 10
43.36749324053744
 20
184.5280498145898
 30
0.0
 11
51.1365483959977
 21
184.5280498145898
 31
0.0
  0
LINE
  5
4C9
330
4C7
100
AcDbEntity
  8
0
 62
   123
100
AcDbLine
 10
43.36749324053744
 20
188.5280498145898
 30
0.0
 11
51.1365483959977
 21
188.5280498145898
 31
0.0
  0
LINE
  5
4CA
330
4C7
100
AcDbEntity
  8
0
 62
   123
100
AcDbLine
 10
50.5365483959977
 20
182.0280498145898
 30
0.0
 11
50.5365483959977
 21
179.5280498145898
 31
0.0
  0
LINE
  5
4CB
330
4C7
100
AcDbEntity
  8
0
 62
   123
100
AcDbLine
 10
50.5365483959977
 20
191.0280498145898
 30
0.0
 11
50.5365483959977
 21
210.0917973229665
 31
0.0
  0
LINE
  5
4CC
330
4C7
100
AcDbEntity
  8
0
 62
   123
100
AcDbLine
 10
50.5365483959977
 20
184.5280498145898
 30
0.0
 11
50.5365483959977
 21
188.5280498145898
 31
0.0
  0
SOLID
  5
4CD
330
4C7
100
AcDbEntity
  8
0
 62
   123
100
AcDbTrace
 10
50.11988172933103
 20
182.0280498145898
 30
0.0
 11
50.95321506266436
 21
182.0280498145898
 31
0.0
 12
50.5365483959977
 22
184.5280498145898
 32
0.0
 13
50.5365483959977
 23
184.5280498145898
 33
0.0
  0
SOLID
  5
4CE
330
4C7
100
AcDbEntity
  8
0
 62
   123
100
AcDbTrace
 10
50.11988172933103
 20
191.0280498145898
 30
0.0
 11
50.95321506266436
 21
191.0280498145898
 31
0.0
 12
50.5365483959977
 22
188.5280498145898
 32
0.0
 13
50.5365483959977
 23
188.5280498145898
 33
0.0
  0
MTEXT
  5
4CF
330
4C7
100
AcDbEntity
  8
0
 62
     3
100
AcDbMText
 10
47.08654839599766
 20
203.3775116086808
 30
0.0
 40
3.0
 41
0.0
 71
     5
 72
     1
  1
\A1;\A1;4{\f??|b0|i0|c0|p49;\H0.7x;\S+0^ -0.03;}
 11
0.0000000000000001
 21
1.0
 31
0.0
1001
ACAD
1000
MTEXTBEGIN
1070
    73
1070
     1
1070
    44
1040
1.0
1070
    74
1070
     0
1000
MTEXTEND
  0
POINT
  5
4D0
330
4C7
100
AcDbEntity
  8
DEFPOINTS
 62
     0
100
AcDbPoint
 10
42.36749324053744
 20
184.5280498145898
 30
0.0
  0
POINT
  5
4D1
330
4C7
100
AcDbEntity
  8
DEFPOINTS
 62
     0
100
AcDbPoint
 10
42.36749324053744
 20
188.5280498145898
 30
0.0
  0
POINT
  5
4D2
330
4C7
100
AcDbEntity
  8
DEFPOINTS
 62
     0
100
AcDbPoint
 10
50.5365483959977
 20
188.5280498145898
 30
0.0
  0
ENDBLK
  5
4D4
330
4C7
100
AcDbEntity
  8
0
100
AcDbBlockEnd
  0
BLOCK
  5
4E1
330
4D5
100
AcDbEntity
  8
0
100
AcDbBlockBegin
  2
*D56
 70
     1
 10
0.0
 20
0.0
 30
0.0
  3
*D56
  1

  0
LINE
  5
4D6
330
4D5
100
AcDbEntity
  8
0
 62
   123
100
AcDbLine
 10
109.4715262677982
 20
187.427754527594
 30
0.0
 11
124.5688587619766
 21
187.427754527594
 31
0.0
  0
LINE
  5
4D7
330
4D5
100
AcDbEntity
  8
0
 62
   123
100
AcDbLine
 10
107.4715262677982
 20
189.927754527594
 30
0.0
 11
124.5688587619766
 21
189.927754527594
 31
0.0
  0
LINE
  5
4D8
330
4D5
100
AcDbEntity
  8
0
 62
   123
100
AcDbLine
 10
123.9688587619766
 20
184.927754527594
 30
0.0
 11
123.9688587619766
 21
182.427754527594
 31
0.0
  0
LINE
  5
4D9
330
4D5
100
AcDbEntity
  8
0
 62
   123
100
AcDbLine
 10
123.9688587619766
 20
192.427754527594
 30
0.0
 11
123.9688587619766
 21
213.8420402418794
 31
0.0
  0
LINE
  5
4DA
330
4D5
100
AcDbEntity
  8
0
 62
   123
100
AcDbLine
 10
123.9688587619766
 20
187.427754527594
 30
0.0
 11
123.9688587619766
 21
189.927754527594
 31
0.0
  0
SOLID
  5
4DB
330
4D5
100
AcDbEntity
  8
0
 62
   123
100
AcDbTrace
 10
123.55219209531
 20
184.927754527594
 30
0.0
 11
124.3855254286433
 21
184.927754527594
 31
0.0
 12
123.9688587619766
 22
187.427754527594
 32
0.0
 13
123.9688587619766
 23
187.427754527594
 33
0.0
  0
SOLID
  5
4DC
330
4D5
100
AcDbEntity
  8
0
 62
   123
100
AcDbTrace
 10
123.55219209531
 20
192.427754527594
 30
0.0
 11
124.3855254286433
 21
192.427754527594
 31
0.0
 12
123.9688587619766
 22
189.927754527594
 32
0.0
 13
123.9688587619766
 23
189.927754527594
 33
0.0
  0
MTEXT
  5
4DD
330
4D5
100
AcDbEntity
  8
0
 62
     3
100
AcDbMText
 10
120.5188587619766
 20
206.1348973847366
 30
0.0
 40
3.0
 41
0.0
 71
     5
 72
     1
  1
\A1;\A1;2.5{\f??|b0|i0|c0|p49;\H0.7x;\S+0.1^ -0;\H1.429x; }
 11
0.0000000000000001
 21
1.0
 31
0.0
1001
ACAD
1000
MTEXTBEGIN
1070
    73
1070
     1
1070
    44
1040
1.0
1070
    74
1070
     0
1000
MTEXTEND
  0
POINT
  5
4DE
330
4D5
100
AcDbEntity
  8
DEFPOINTS
 62
     0
100
AcDbPoint
 10
108.4715262677982
 20
187.427754527594
 30
0.0
  0
POINT
  5
4DF
330
4D5
100
AcDbEntity
  8
DEFPOINTS
 62
     0
100
AcDbPoint
 10
106.4715262677982
 20
189.927754527594
 30
0.0
  0
POINT
  5
4E0
330
4D5
100
AcDbEntity
  8
DEFPOINTS
 62
     0
100
AcDbPoint
 10
123.9688587619766
 20
189.927754527594
 30
0.0
  0
ENDBLK
  5
4E2
330
4D5
100
AcDbEntity
  8
0
100
AcDbBlockEnd
  0
BLOCK
  5
4EF
330
4E3
100
AcDbEntity
  8
0
100
AcDbBlockBegin
  2
*D57
 70
     1
 10
0.0
 20
0.0
 30
0.0
  3
*D57
  1

  0
LINE
  5
4E4
330
4E3
100
AcDbEntity
  8
0
 62
   123
100
AcDbLine
 10
59.53814652724941
 20
189.5280498145898
 30
0.0
 11
59.53814652724941
 21
197.8025254732225
 31
0.0
  0
LINE
  5
4E5
330
4E3
100
AcDbEntity
  8
0
 62
   123
100
AcDbLine
 10
63.53814652724941
 20
189.5280498145898
 30
0.0
 11
63.53814652724941
 21
197.8025254732225
 31
0.0
  0
LINE
  5
4E6
330
4E3
100
AcDbEntity
  8
0
 62
   123
100
AcDbLine
 10
57.03814652724941
 20
197.2025254732225
 30
0.0
 11
54.53814652724941
 21
197.2025254732225
 31
0.0
  0
LINE
  5
4E7
330
4E3
100
AcDbEntity
  8
0
 62
   123
100
AcDbLine
 10
66.03814652724941
 20
197.2025254732225
 30
0.0
 11
68.53814652724941
 21
197.2025254732225
 31
0.0
  0
LINE
  5
4E8
330
4E3
100
AcDbEntity
  8
0
 62
   123
100
AcDbLine
 10
59.53814652724941
 20
197.2025254732225
 30
0.0
 11
63.53814652724941
 21
197.2025254732225
 31
0.0
  0
SOLID
  5
4E9
330
4E3
100
AcDbEntity
  8
0
 62
   123
100
AcDbTrace
 10
57.03814652724941
 20
197.6191921398891
 30
0.0
 11
57.03814652724941
 21
196.7858588065558
 31
0.0
 12
59.53814652724941
 22
197.2025254732225
 32
0.0
 13
59.53814652724941
 23
197.2025254732225
 33
0.0
  0
SOLID
  5
4EA
330
4E3
100
AcDbEntity
  8
0
 62
   123
100
AcDbTrace
 10
66.03814652724941
 20
197.6191921398891
 30
0.0
 11
66.03814652724941
 21
196.7858588065558
 31
0.0
 12
63.53814652724941
 22
197.2025254732225
 32
0.0
 13
63.53814652724941
 23
197.2025254732225
 33
0.0
  0
MTEXT
  5
4EB
330
4E3
100
AcDbEntity
  8
0
 62
     3
100
AcDbMText
 10
61.53814652724941
 20
200.6525254732224
 30
0.0
 40
3.0
 41
0.0
 71
     5
 72
     1
  1
\A1;\A1;4{\f??|b0|i0|c0|p49;\H0.7x;\S+0^ -0.03;}
1001
ACAD
1000
MTEXTBEGIN
1070
    73
1070
     1
1070
    44
1040
1.0
1070
    74
1070
     0
1000
MTEXTEND
  0
POINT
  5
4EC
330
4E3
100
AcDbEntity
  8
DEFPOINTS
 62
     0
100
AcDbPoint
 10
59.53814652724941
 20
188.5280498145898
 30
0.0
  0
POINT
  5
4ED
330
4E3
100
AcDbEntity
  8
DEFPOINTS
 62
     0
100
AcDbPoint
 10
63.53814652724941
 20
188.5280498145898
 30
0.0
  0
POINT
  5
4EE
330
4E3
100
AcDbEntity
  8
DEFPOINTS
 62
     0
100
AcDbPoint
 10
63.53814652724941
 20
197.2025254732225
 30
0.0
  0
ENDBLK
  5
4F0
330
4E3
100
AcDbEntity
  8
0
100
AcDbBlockEnd
  0
BLOCK
  5
4FD
330
4F1
100
AcDbEntity
  8
0
100
AcDbBlockBegin
  2
*D58
 70
     1
 10
0.0
 20
0.0
 30
0.0
  3
*D58
  1

  0
LINE
  5
4F2
330
4F1
100
AcDbEntity
  8
0
 62
   123
100
AcDbLine
 10
104.4715262677982
 20
190.5103302225498
 30
0.0
 11
104.4715262677982
 21
198.8693427675249
 31
0.0
  0
LINE
  5
4F3
330
4F1
100
AcDbEntity
  8
0
 62
   123
100
AcDbLine
 10
108.4715262677982
 20
190.5103302225498
 30
0.0
 11
108.4715262677982
 21
198.8693427675249
 31
0.0
  0
LINE
  5
4F4
330
4F1
100
AcDbEntity
  8
0
 62
   123
100
AcDbLine
 10
101.9715262677982
 20
198.2693427675249
 30
0.0
 11
99.47152626779825
 21
198.2693427675249
 31
0.0
  0
LINE
  5
4F5
330
4F1
100
AcDbEntity
  8
0
 62
   123
100
AcDbLine
 10
110.9715262677982
 20
198.2693427675249
 30
0.0
 11
113.4715262677982
 21
198.2693427675249
 31
0.0
  0
LINE
  5
4F6
330
4F1
100
AcDbEntity
  8
0
 62
   123
100
AcDbLine
 10
104.4715262677982
 20
198.2693427675249
 30
0.0
 11
108.4715262677982
 21
198.2693427675249
 31
0.0
  0
SOLID
  5
4F7
330
4F1
100
AcDbEntity
  8
0
 62
   123
100
AcDbTrace
 10
101.9715262677982
 20
198.6860094341915
 30
0.0
 11
101.9715262677982
 21
197.8526761008582
 31
0.0
 12
104.4715262677982
 22
198.2693427675249
 32
0.0
 13
104.4715262677982
 23
198.2693427675249
 33
0.0
  0
SOLID
  5
4F8
330
4F1
100
AcDbEntity
  8
0
 62
   123
100
AcDbTrace
 10
110.9715262677982
 20
198.6860094341915
 30
0.0
 11
110.9715262677982
 21
197.8526761008582
 31
0.0
 12
108.4715262677982
 22
198.2693427675249
 32
0.0
 13
108.4715262677982
 23
198.2693427675249
 33
0.0
  0
MTEXT
  5
4F9
330
4F1
100
AcDbEntity
  8
0
 62
     3
100
AcDbMText
 10
106.4715262677982
 20
201.7193427675248
 30
0.0
 40
3.0
 41
0.0
 71
     5
 72
     1
  1
\A1;\A1;4{\f??|b0|i0|c0|p49;\H0.7x;\S+0.40^ -0;}
1001
ACAD
1000
MTEXTBEGIN
1070
    73
1070
     1
1070
    44
1040
1.0
1070
    74
1070
     0
1000
MTEXTEND
  0
POINT
  5
4FA
330
4F1
100
AcDbEntity
  8
DEFPOINTS
 62
     0
100
AcDbPoint
 10
104.4715262677982
 20
189.5103302225497
 30
0.0
  0
POINT
  5
4FB
330
4F1
100
AcDbEntity
  8
DEFPOINTS
 62
     0
100
AcDbPoint
 10
108.4715262677982
 20
189.5103302225497
 30
0.0
  0
POINT
  5
4FC
330
4F1
100
AcDbEntity
  8
DEFPOINTS
 62
     0
100
AcDbPoint
 10
108.4715262677982
 20
198.2693427675249
 30
0.0
  0
ENDBLK
  5
4FE
330
4F1
100
AcDbEntity
  8
0
100
AcDbBlockEnd
  0
BLOCK
  5
50B
330
4FF
100
AcDbEntity
  8
0
100
AcDbBlockBegin
  2
*D59
 70
     1
 10
0.0
 20
0.0
 30
0.0
  3
*D59
  1

  0
LINE
  5
500
330
4FF
100
AcDbEntity
  8
0
 62
   123
100
AcDbLine
 10
212.1808583324855
 20
97.68419553188596
 30
0.0
 11
212.1808583324855
 21
151.8397990365689
 31
0.0
  0
LINE
  5
501
330
4FF
100
AcDbEntity
  8
0
 62
   123
100
AcDbLine
 10
217.6808583324855
 20
105.8841945318858
 30
0.0
 11
217.6808583324855
 21
151.8397990365689
 31
0.0
  0
LINE
  5
502
330
4FF
100
AcDbEntity
  8
0
 62
   123
100
AcDbLine
 10
209.6808583324855
 20
151.2397990365689
 30
0.0
 11
207.1808583324854
 21
151.2397990365689
 31
0.0
  0
LINE
  5
503
330
4FF
100
AcDbEntity
  8
0
 62
   123
100
AcDbLine
 10
220.1808583324855
 20
151.2397990365689
 30
0.0
 11
222.6808583324855
 21
151.2397990365689
 31
0.0
  0
LINE
  5
504
330
4FF
100
AcDbEntity
  8
0
 62
   123
100
AcDbLine
 10
212.1808583324855
 20
151.2397990365689
 30
0.0
 11
217.6808583324855
 21
151.2397990365689
 31
0.0
  0
SOLID
  5
505
330
4FF
100
AcDbEntity
  8
0
 62
   123
100
AcDbTrace
 10
209.6808583324855
 20
151.6564657032355
 30
0.0
 11
209.6808583324855
 21
150.8231323699022
 31
0.0
 12
212.1808583324855
 22
151.2397990365689
 32
0.0
 13
212.1808583324855
 23
151.2397990365689
 33
0.0
  0
SOLID
  5
506
330
4FF
100
AcDbEntity
  8
0
 62
   123
100
AcDbTrace
 10
220.1808583324855
 20
151.6564657032355
 30
0.0
 11
220.1808583324855
 21
150.8231323699022
 31
0.0
 12
217.6808583324855
 22
151.2397990365689
 32
0.0
 13
217.6808583324855
 23
151.2397990365689
 33
0.0
  0
MTEXT
  5
507
330
4FF
100
AcDbEntity
  8
0
 62
     3
100
AcDbMText
 10
214.9308583324855
 20
153.7397990365689
 30
0.0
 40
3.0
 41
0.0
 71
     5
 72
     1
  1
\A1;5.5
1001
ACAD
1000
MTEXTBEGIN
1070
    73
1070
     1
1070
    44
1040
1.0
1070
    74
1070
     0
1000
MTEXTEND
  0
POINT
  5
508
330
4FF
100
AcDbEntity
  8
DEFPOINTS
 62
     0
100
AcDbPoint
 10
212.1808583324855
 20
96.68419553188597
 30
0.0
  0
POINT
  5
509
330
4FF
100
AcDbEntity
  8
DEFPOINTS
 62
     0
100
AcDbPoint
 10
217.6808583324855
 20
104.8841945318858
 30
0.0
  0
POINT
  5
50A
330
4FF
100
AcDbEntity
  8
DEFPOINTS
 62
     0
100
AcDbPoint
 10
217.6808583324855
 20
151.2397990365689
 30
0.0
  0
ENDBLK
  5
50C
330
4FF
100
AcDbEntity
  8
0
100
AcDbBlockEnd
  0
BLOCK
  5
517
330
50D
100
AcDbEntity
  8
0
100
AcDbBlockBegin
  2
*D60
 70
     1
 10
0.0
 20
0.0
 30
0.0
  3
*D60
  1

  0
LINE
  5
50E
330
50D
100
AcDbEntity
  8
0
 62
   123
100
AcDbLine
 10
292.6775253324849
 20
137.184194531886
 30
0.0
 11
292.6775253324849
 21
151.8232280160574
 31
0.0
  0
LINE
  5
50F
330
50D
100
AcDbEntity
  8
0
 62
   123
100
AcDbLine
 10
320.6775253324849
 20
129.184194531886
 30
0.0
 11
320.6775253324849
 21
151.8232280160574
 31
0.0
  0
LINE
  5
510
330
50D
100
AcDbEntity
  8
0
 62
   123
100
AcDbLine
 10
295.1775253324849
 20
151.2232280160574
 30
0.0
 11
318.1775253324849
 21
151.2232280160574
 31
0.0
  0
SOLID
  5
511
330
50D
100
AcDbEntity
  8
0
 62
   123
100
AcDbTrace
 10
295.1775253324849
 20
151.639894682724
 30
0.0
 11
295.1775253324849
 21
150.8065613493907
 31
0.0
 12
292.6775253324849
 22
151.2232280160574
 32
0.0
 13
292.6775253324849
 23
151.2232280160574
 33
0.0
  0
SOLID
  5
512
330
50D
100
AcDbEntity
  8
0
 62
   123
100
AcDbTrace
 10
318.1775253324849
 20
151.639894682724
 30
0.0
 11
318.1775253324849
 21
150.8065613493907
 31
0.0
 12
320.6775253324849
 22
151.2232280160574
 32
0.0
 13
320.6775253324849
 23
151.2232280160574
 33
0.0
  0
MTEXT
  5
513
330
50D
100
AcDbEntity
  8
0
 62
     3
100
AcDbMText
 10
306.6775253324849
 20
153.7232280160574
 30
0.0
 40
3.0
 41
0.0
 71
     5
 72
     1
  1
\A1;MAX. 28
1001
ACAD
1000
MTEXTBEGIN
1070
    73
1070
     1
1070
    44
1040
1.0
1070
    74
1070
     0
1000
MTEXTEND
  0
POINT
  5
514
330
50D
100
AcDbEntity
  8
DEFPOINTS
 62
     0
100
AcDbPoint
 10
292.6775253324849
 20
136.184194531886
 30
0.0
  0
POINT
  5
515
330
50D
100
AcDbEntity
  8
DEFPOINTS
 62
     0
100
AcDbPoint
 10
320.6775253324849
 20
128.184194531886
 30
0.0
  0
POINT
  5
516
330
50D
100
AcDbEntity
  8
DEFPOINTS
 62
     0
100
AcDbPoint
 10
320.6775253324849
 20
151.2232280160574
 30
0.0
  0
ENDBLK
  5
518
330
50D
100
AcDbEntity
  8
0
100
AcDbBlockEnd
  0
BLOCK
  5
523
330
519
100
AcDbEntity
  8
0
100
AcDbBlockBegin
  2
*D61
 70
     1
 10
0.0
 20
0.0
 30
0.0
  3
*D61
  1

  0
LINE
  5
51A
330
519
100
AcDbEntity
  8
0
 62
   123
100
AcDbLine
 10
217.6808583324855
 20
105.8841945318858
 30
0.0
 11
217.6808583324855
 21
151.8397990365689
 31
0.0
  0
LINE
  5
51B
330
519
100
AcDbEntity
  8
0
 62
   123
100
AcDbLine
 10
292.6775253324849
 20
137.184194531886
 30
0.0
 11
292.6775253324849
 21
151.8397990365689
 31
0.0
  0
LINE
  5
51C
330
519
100
AcDbEntity
  8
0
 62
   123
100
AcDbLine
 10
220.1808583324855
 20
151.2397990365689
 30
0.0
 11
290.1775253324849
 21
151.2397990365689
 31
0.0
  0
SOLID
  5
51D
330
519
100
AcDbEntity
  8
0
 62
   123
100
AcDbTrace
 10
220.1808583324855
 20
151.6564657032355
 30
0.0
 11
220.1808583324855
 21
150.8231323699022
 31
0.0
 12
217.6808583324855
 22
151.2397990365689
 32
0.0
 13
217.6808583324855
 23
151.2397990365689
 33
0.0
  0
SOLID
  5
51E
330
519
100
AcDbEntity
  8
0
 62
   123
100
AcDbTrace
 10
290.1775253324849
 20
151.6564657032355
 30
0.0
 11
290.1775253324849
 21
150.8231323699022
 31
0.0
 12
292.6775253324849
 22
151.2397990365689
 32
0.0
 13
292.6775253324849
 23
151.2397990365689
 33
0.0
  0
MTEXT
  5
51F
330
519
100
AcDbEntity
  8
0
 62
     3
100
AcDbMText
 10
248.5807355752494
 20
153.7397990365689
 30
0.0
 40
3.0
 41
0.0
 71
     5
 72
     1
  1
\A1;75
1001
ACAD
1000
MTEXTBEGIN
1070
    73
1070
     1
1070
    44
1040
1.0
1070
    74
1070
     0
1000
MTEXTEND
  0
POINT
  5
520
330
519
100
AcDbEntity
  8
DEFPOINTS
 62
     0
100
AcDbPoint
 10
217.6808583324855
 20
104.8841945318858
 30
0.0
  0
POINT
  5
521
330
519
100
AcDbEntity
  8
DEFPOINTS
 62
     0
100
AcDbPoint
 10
292.6775253324849
 20
136.184194531886
 30
0.0
  0
POINT
  5
522
330
519
100
AcDbEntity
  8
DEFPOINTS
 62
     0
100
AcDbPoint
 10
292.6775253324849
 20
151.2397990365689
 30
0.0
  0
ENDBLK
  5
524
330
519
100
AcDbEntity
  8
0
100
AcDbBlockEnd
  0
BLOCK
  5
52F
330
525
100
AcDbEntity
  8
0
100
AcDbBlockBegin
  2
*D62
 70
     1
 10
0.0
 20
0.0
 30
0.0
  3
*D62
  1

  0
LINE
  5
526
330
525
100
AcDbEntity
  8
0
 62
   123
100
AcDbLine
 10
198.4578038607087
 20
403.1190669492816
 30
0.0
 11
175.3567064693365
 21
403.1190669492816
 31
0.0
  0
LINE
  5
527
330
525
100
AcDbEntity
  8
0
 62
   123
100
AcDbLine
 10
198.4578038607087
 20
476.1190669492816
 30
0.0
 11
175.3567064693365
 21
476.1190669492816
 31
0.0
  0
LINE
  5
528
330
525
100
AcDbEntity
  8
0
 62
   123
100
AcDbLine
 10
175.9567064693365
 20
405.6190669492816
 30
0.0
 11
175.9567064693365
 21
473.6190669492816
 31
0.0
  0
SOLID
  5
529
330
525
100
AcDbEntity
  8
0
 62
   123
100
AcDbTrace
 10
175.5400398026699
 20
405.6190669492816
 30
0.0
 11
176.3733731360032
 21
405.6190669492816
 31
0.0
 12
175.9567064693365
 22
403.1190669492816
 32
0.0
 13
175.9567064693365
 23
403.1190669492816
 33
0.0
  0
SOLID
  5
52A
330
525
100
AcDbEntity
  8
0
 62
   123
100
AcDbTrace
 10
175.5400398026699
 20
473.6190669492816
 30
0.0
 11
176.3733731360032
 21
473.6190669492816
 31
0.0
 12
175.9567064693365
 22
476.1190669492816
 32
0.0
 13
175.9567064693365
 23
476.1190669492816
 33
0.0
  0
MTEXT
  5
52B
330
525
100
AcDbEntity
  8
0
 62
     3
100
AcDbMText
 10
172.0065564693364
 20
439.6190669492825
 30
0.0
 40
3.0
 41
0.0
 71
     5
 72
     1
  1
\A1;\A1;{\f??|b0|i0|c0|p49;%%C}73{\f??|b0|i0|c0|p49;\H0.7x;\S+0^ -0.030;\H1.429x;(h7)}
 11
0.0000000000000001
 21
1.0
 31
0.0
1001
ACAD
1000
MTEXTBEGIN
1070
    73
1070
     1
1070
    44
1040
1.0
1070
    74
1070
     0
1000
MTEXTEND
  0
POINT
  5
52C
330
525
100
AcDbEntity
  8
DEFPOINTS
 62
     0
100
AcDbPoint
 10
199.4578038607087
 20
403.1190669492816
 30
0.0
  0
POINT
  5
52D
330
525
100
AcDbEntity
  8
DEFPOINTS
 62
     0
100
AcDbPoint
 10
199.4578038607087
 20
476.1190669492816
 30
0.0
  0
POINT
  5
52E
330
525
100
AcDbEntity
  8
DEFPOINTS
 62
     0
100
AcDbPoint
 10
175.9567064693365
 20
476.1190669492816
 30
0.0
  0
ENDBLK
  5
530
330
525
100
AcDbEntity
  8
0
100
AcDbBlockEnd
  0
BLOCK
  5
53B
330
531
100
AcDbEntity
  8
0
100
AcDbBlockBegin
  2
*D63
 70
     1
 10
0.0
 20
0.0
 30
0.0
  3
*D63
  1

  0
LINE
  5
532
330
531
100
AcDbEntity
  8
0
 62
   123
100
AcDbLine
 10
189.8209784446262
 20
307.6897220659257
 30
0.0
 11
170.2725705743581
 21
307.6897220659257
 31
0.0
  0
LINE
  5
533
330
531
100
AcDbEntity
  8
0
 62
   123
100
AcDbLine
 10
182.1114441117479
 20
292.6897220659256
 30
0.0
 11
170.2725705743581
 21
292.6897220659256
 31
0.0
  0
LINE
  5
534
330
531
100
AcDbEntity
  8
0
 62
   123
100
AcDbLine
 10
170.8725705743581
 20
305.1897220659256
 30
0.0
 11
170.8725705743581
 21
295.1897220659257
 31
0.0
  0
SOLID
  5
535
330
531
100
AcDbEntity
  8
0
 62
   123
100
AcDbTrace
 10
170.4559039076915
 20
305.1897220659256
 30
0.0
 11
171.2892372410248
 21
305.1897220659256
 31
0.0
 12
170.8725705743581
 22
307.6897220659257
 32
0.0
 13
170.8725705743581
 23
307.6897220659257
 33
0.0
  0
SOLID
  5
536
330
531
100
AcDbEntity
  8
0
 62
   123
100
AcDbTrace
 10
170.4559039076915
 20
295.1897220659257
 30
0.0
 11
171.2892372410248
 21
295.1897220659257
 31
0.0
 12
170.8725705743581
 22
292.6897220659256
 32
0.0
 13
170.8725705743581
 23
292.6897220659256
 33
0.0
  0
MTEXT
  5
537
330
531
100
AcDbEntity
  8
0
 62
     3
100
AcDbMText
 10
168.3725705743581
 20
300.1897220659257
 30
0.0
 40
3.0
 41
0.0
 71
     5
 72
     1
  1
\A1;15
 11
0.0000000000000001
 21
1.0
 31
0.0
1001
ACAD
1000
MTEXTBEGIN
1070
    73
1070
     1
1070
    44
1040
1.0
1070
    74
1070
     0
1000
MTEXTEND
  0
POINT
  5
538
330
531
100
AcDbEntity
  8
DEFPOINTS
 62
     0
100
AcDbPoint
 10
190.8209784446262
 20
307.6897220659257
 30
0.0
  0
POINT
  5
539
330
531
100
AcDbEntity
  8
DEFPOINTS
 62
     0
100
AcDbPoint
 10
183.1114441117479
 20
292.6897220659256
 30
0.0
  0
POINT
  5
53A
330
531
100
AcDbEntity
  8
DEFPOINTS
 62
     0
100
AcDbPoint
 10
170.8725705743581
 20
292.6897220659256
 30
0.0
  0
ENDBLK
  5
53C
330
531
100
AcDbEntity
  8
0
100
AcDbBlockEnd
  0
BLOCK
  5
547
330
53D
100
AcDbEntity
  8
0
100
AcDbBlockBegin
  2
*D64
 70
     1
 10
0.0
 20
0.0
 30
0.0
  3
*D64
  1

  0
LINE
  5
53E
330
53D
100
AcDbEntity
  8
0
 62
   123
100
AcDbLine
 10
223.2191172458588
 20
324.6897220659247
 30
0.0
 11
160.6047353542876
 21
324.6897220659247
 31
0.0
  0
LINE
  5
53F
330
53D
100
AcDbEntity
  8
0
 62
   123
100
AcDbLine
 10
223.2191172458588
 20
290.6897220659243
 30
0.0
 11
160.6047353542875
 21
290.6897220659243
 31
0.0
  0
LINE
  5
540
330
53D
100
AcDbEntity
  8
0
 62
   123
100
AcDbLine
 10
161.2047353542876
 20
322.1897220659247
 30
0.0
 11
161.2047353542875
 21
293.1897220659243
 31
0.0
  0
SOLID
  5
541
330
53D
100
AcDbEntity
  8
0
 62
   123
100
AcDbTrace
 10
160.7880686876209
 20
322.1897220659247
 30
0.0
 11
161.6214020209542
 21
322.1897220659247
 31
0.0
 12
161.2047353542876
 22
324.6897220659247
 32
0.0
 13
161.2047353542876
 23
324.6897220659247
 33
0.0
  0
SOLID
  5
542
330
53D
100
AcDbEntity
  8
0
 62
   123
100
AcDbTrace
 10
160.7880686876209
 20
293.1897220659243
 30
0.0
 11
161.6214020209542
 21
293.1897220659243
 31
0.0
 12
161.2047353542875
 22
290.6897220659243
 32
0.0
 13
161.2047353542875
 23
290.6897220659243
 33
0.0
  0
MTEXT
  5
543
330
53D
100
AcDbEntity
  8
0
 62
     3
100
AcDbMText
 10
158.7047353542875
 20
307.6897220659257
 30
0.0
 40
3.0
 41
0.0
 71
     5
 72
     1
  1
\A1;{\f??|b0|i0|c0|p49;%%c}34
 11
0.0000000000000001
 21
1.0
 31
0.0
1001
ACAD
1000
MTEXTBEGIN
1070
    73
1070
     1
1070
    44
1040
1.0
1070
    74
1070
     0
1000
MTEXTEND
  0
POINT
  5
544
330
53D
100
AcDbEntity
  8
DEFPOINTS
 62
     0
100
AcDbPoint
 10
224.2191172458587
 20
324.6897220659247
 30
0.0
  0
POINT
  5
545
330
53D
100
AcDbEntity
  8
DEFPOINTS
 62
     0
100
AcDbPoint
 10
224.2191172458587
 20
290.6897220659243
 30
0.0
  0
POINT
  5
546
330
53D
100
AcDbEntity
  8
DEFPOINTS
 62
     0
100
AcDbPoint
 10
161.2047353542875
 20
290.6897220659243
 30
0.0
  0
ENDBLK
  5
548
330
53D
100
AcDbEntity
  8
0
100
AcDbBlockEnd
  0
BLOCK
  5
555
330
549
100
AcDbEntity
  8
0
100
AcDbBlockBegin
  2
*D65
 70
     1
 10
0.0
 20
0.0
 30
0.0
  3
*D65
  1

  0
LINE
  5
54A
330
549
100
AcDbEntity
  8
0
 62
   123
100
AcDbLine
 10
226.7191172458497
 20
333.1897220659247
 30
0.0
 11
226.7191172458497
 21
339.8996499748301
 31
0.0
  0
LINE
  5
54B
330
549
100
AcDbEntity
  8
0
 62
   123
100
AcDbLine
 10
223.7191172458496
 20
325.1897220659248
 30
0.0
 11
223.7191172458496
 21
339.8996499748301
 31
0.0
  0
LINE
  5
54C
330
549
100
AcDbEntity
  8
0
 62
   123
100
AcDbLine
 10
229.2191172458497
 20
339.2996499748301
 30
0.0
 11
231.7191172458497
 21
339.2996499748301
 31
0.0
  0
LINE
  5
54D
330
549
100
AcDbEntity
  8
0
 62
   123
100
AcDbLine
 10
221.2191172458497
 20
339.2996499748301
 30
0.0
 11
218.7191172458497
 21
339.2996499748301
 31
0.0
  0
LINE
  5
54E
330
549
100
AcDbEntity
  8
0
 62
   123
100
AcDbLine
 10
226.7191172458497
 20
339.2996499748301
 30
0.0
 11
223.7191172458496
 21
339.2996499748301
 31
0.0
  0
SOLID
  5
54F
330
549
100
AcDbEntity
  8
0
 62
   123
100
AcDbTrace
 10
229.2191172458497
 20
339.7163166414967
 30
0.0
 11
229.2191172458497
 21
338.8829833081634
 31
0.0
 12
226.7191172458497
 22
339.2996499748301
 32
0.0
 13
226.7191172458497
 23
339.2996499748301
 33
0.0
  0
SOLID
  5
550
330
549
100
AcDbEntity
  8
0
 62
   123
100
AcDbTrace
 10
221.2191172458497
 20
339.7163166414967
 30
0.0
 11
221.2191172458497
 21
338.8829833081634
 31
0.0
 12
223.7191172458496
 22
339.2996499748301
 32
0.0
 13
223.7191172458496
 23
339.2996499748301
 33
0.0
  0
MTEXT
  5
551
330
549
100
AcDbEntity
  8
0
 62
     3
100
AcDbMText
 10
225.2191172458497
 20
341.7996499748301
 30
0.0
 40
3.0
 41
0.0
 71
     5
 72
     1
  1
\A1;3
1001
ACAD
1000
MTEXTBEGIN
1070
    73
1070
     1
1070
    44
1040
1.0
1070
    74
1070
     0
1000
MTEXTEND
  0
POINT
  5
552
330
549
100
AcDbEntity
  8
DEFPOINTS
 62
     0
100
AcDbPoint
 10
226.7191172458497
 20
332.1897220659248
 30
0.0
  0
POINT
  5
553
330
549
100
AcDbEntity
  8
DEFPOINTS
 62
     0
100
AcDbPoint
 10
223.7191172458496
 20
324.1897220659248
 30
0.0
  0
POINT
  5
554
330
549
100
AcDbEntity
  8
DEFPOINTS
 62
     0
100
AcDbPoint
 10
223.7191172458496
 20
339.2996499748301
 30
0.0
  0
ENDBLK
  5
556
330
549
100
AcDbEntity
  8
0
100
AcDbBlockEnd
  0
BLOCK
  5
563
330
557
100
AcDbEntity
  8
0
100
AcDbBlockBegin
  2
*D66
 70
     1
 10
0.0
 20
0.0
 30
0.0
  3
*D66
  1

  0
LINE
  5
558
330
557
100
AcDbEntity
  8
0
 62
   123
100
AcDbLine
 10
193.7191172458497
 20
302.6897220659257
 30
0.0
 11
179.2944539568765
 21
302.6897220659257
 31
0.0
  0
LINE
  5
559
330
557
100
AcDbEntity
  8
0
 62
   123
100
AcDbLine
 10
193.7191172458497
 20
312.6897220659257
 30
0.0
 11
179.2944539568765
 21
312.6897220659257
 31
0.0
  0
LINE
  5
55A
330
557
100
AcDbEntity
  8
0
 62
   123
100
AcDbLine
 10
179.8944539568765
 20
300.1897220659257
 30
0.0
 11
179.8944539568765
 21
297.6897220659257
 31
0.0
  0
LINE
  5
55B
330
557
100
AcDbEntity
  8
0
 62
   123
100
AcDbLine
 10
179.8944539568765
 20
315.1897220659257
 30
0.0
 11
179.8944539568766
 21
355.6162274202393
 31
0.0
  0
LINE
  5
55C
330
557
100
AcDbEntity
  8
0
 62
   123
100
AcDbLine
 10
179.8944539568765
 20
302.6897220659257
 30
0.0
 11
179.8944539568765
 21
312.6897220659257
 31
0.0
  0
SOLID
  5
55D
330
557
100
AcDbEntity
  8
0
 62
   123
100
AcDbTrace
 10
179.4777872902099
 20
300.1897220659257
 30
0.0
 11
180.3111206235432
 21
300.1897220659257
 31
0.0
 12
179.8944539568765
 22
302.6897220659257
 32
0.0
 13
179.8944539568765
 23
302.6897220659257
 33
0.0
  0
SOLID
  5
55E
330
557
100
AcDbEntity
  8
0
 62
   123
100
AcDbTrace
 10
179.4777872902099
 20
315.1897220659257
 30
0.0
 11
180.3111206235432
 21
315.1897220659257
 31
0.0
 12
179.8944539568765
 22
312.6897220659257
 32
0.0
 13
179.8944539568765
 23
312.6897220659257
 33
0.0
  0
MTEXT
  5
55F
330
557
100
AcDbEntity
  8
0
 62
     3
100
AcDbMText
 10
175.9443039568765
 20
340.800655991668
 30
0.0
 40
3.0
 41
0.0
 71
     5
 72
     1
  1
\A1;\A1;{\f??|b0|i0|c0|p49;%%C10\H0.7x;\S+0^ -0.015;\H1.429x;(h7)}
 11
0.0000000000000001
 21
1.0
 31
0.0
1001
ACAD
1000
MTEXTBEGIN
1070
    73
1070
     1
1070
    44
1040
1.0
1070
    74
1070
     0
1000
MTEXTEND
  0
POINT
  5
560
330
557
100
AcDbEntity
  8
DEFPOINTS
 62
     0
100
AcDbPoint
 10
194.7191172458497
 20
302.6897220659257
 30
0.0
  0
POINT
  5
561
330
557
100
AcDbEntity
  8
DEFPOINTS
 62
     0
100
AcDbPoint
 10
194.7191172458497
 20
312.6897220659257
 30
0.0
  0
POINT
  5
562
330
557
100
AcDbEntity
  8
DEFPOINTS
 62
     0
100
AcDbPoint
 10
179.8944539568765
 20
312.6897220659257
 30
0.0
  0
ENDBLK
  5
564
330
557
100
AcDbEntity
  8
0
100
AcDbBlockEnd
  0
BLOCK
  5
56F
330
565
100
AcDbEntity
  8
0
100
AcDbBlockBegin
  2
*D67
 70
     1
 10
0.0
 20
0.0
 30
0.0
  3
*D67
  1

  0
LINE
  5
566
330
565
100
AcDbEntity
  8
0
 62
   123
100
AcDbLine
 10
219.7191172458587
 20
313.6897220659257
 30
0.0
 11
219.7191172458587
 21
329.5100102728266
 31
0.0
  0
LINE
  5
567
330
565
100
AcDbEntity
  8
0
 62
   123
100
AcDbLine
 10
194.7191172458497
 20
313.6897220659248
 30
0.0
 11
194.7191172458497
 21
329.5100102728266
 31
0.0
  0
LINE
  5
568
330
565
100
AcDbEntity
  8
0
 62
   123
100
AcDbLine
 10
217.2191172458588
 20
328.9100102728266
 30
0.0
 11
197.2191172458497
 21
328.9100102728266
 31
0.0
  0
SOLID
  5
569
330
565
100
AcDbEntity
  8
0
 62
   123
100
AcDbTrace
 10
217.2191172458588
 20
329.3266769394933
 30
0.0
 11
217.2191172458588
 21
328.4933436061599
 31
0.0
 12
219.7191172458587
 22
328.9100102728266
 32
0.0
 13
219.7191172458587
 23
328.9100102728266
 33
0.0
  0
SOLID
  5
56A
330
565
100
AcDbEntity
  8
0
 62
   123
100
AcDbTrace
 10
197.2191172458497
 20
329.3266769394933
 30
0.0
 11
197.2191172458497
 21
328.4933436061599
 31
0.0
 12
194.7191172458497
 22
328.9100102728266
 32
0.0
 13
194.7191172458497
 23
328.9100102728266
 33
0.0
  0
MTEXT
  5
56B
330
565
100
AcDbEntity
  8
0
 62
     3
100
AcDbMText
 10
207.5300479132493
 20
331.4100102728266
 30
0.0
 40
3.0
 41
0.0
 71
     5
 72
     1
  1
\A1;25
1001
ACAD
1000
MTEXTBEGIN
1070
    73
1070
     1
1070
    44
1040
1.0
1070
    74
1070
     0
1000
MTEXTEND
  0
POINT
  5
56C
330
565
100
AcDbEntity
  8
DEFPOINTS
 62
     0
100
AcDbPoint
 10
219.7191172458587
 20
312.6897220659257
 30
0.0
  0
POINT
  5
56D
330
565
100
AcDbEntity
  8
DEFPOINTS
 62
     0
100
AcDbPoint
 10
194.7191172458497
 20
312.6897220659248
 30
0.0
  0
POINT
  5
56E
330
565
100
AcDbEntity
  8
DEFPOINTS
 62
     0
100
AcDbPoint
 10
194.7191172458497
 20
328.9100102728266
 30
0.0
  0
ENDBLK
  5
570
330
565
100
AcDbEntity
  8
0
100
AcDbBlockEnd
  0
BLOCK
  5
57B
330
571
100
AcDbEntity
  8
0
100
AcDbBlockBegin
  2
*D68
 70
     1
 10
0.0
 20
0.0
 30
0.0
  3
*D68
  1

  0
LINE
  5
572
330
571
100
AcDbEntity
  8
0
 62
   123
100
AcDbLine
 10
60.26485538934867
 20
475.6190669492839
 30
0.0
 11
60.26485538934867
 21
494.6936335990218
 31
0.0
  0
LINE
  5
573
330
571
100
AcDbEntity
  8
0
 62
   123
100
AcDbLine
 10
140.2648553893486
 20
475.6190669492839
 30
0.0
 11
140.2648553893486
 21
494.6936335990218
 31
0.0
  0
LINE
  5
574
330
571
100
AcDbEntity
  8
0
 62
   123
100
AcDbLine
 10
62.76485538934867
 20
494.0936335990218
 30
0.0
 11
137.7648553893486
 21
494.0936335990218
 31
0.0
  0
SOLID
  5
575
330
571
100
AcDbEntity
  8
0
 62
   123
100
AcDbTrace
 10
62.76485538934867
 20
494.5103002656884
 30
0.0
 11
62.76485538934867
 21
493.6769669323551
 31
0.0
 12
60.26485538934867
 22
494.0936335990218
 32
0.0
 13
60.26485538934867
 23
494.0936335990218
 33
0.0
  0
SOLID
  5
576
330
571
100
AcDbEntity
  8
0
 62
   123
100
AcDbTrace
 10
137.7648553893486
 20
494.5103002656884
 30
0.0
 11
137.7648553893486
 21
493.6769669323551
 31
0.0
 12
140.2648553893486
 22
494.0936335990218
 32
0.0
 13
140.2648553893486
 23
494.0936335990218
 33
0.0
  0
MTEXT
  5
577
330
571
100
AcDbEntity
  8
0
 62
     3
100
AcDbMText
 10
101.8735767739872
 20
496.5936335990217
 30
0.0
 40
3.0
 41
0.0
 71
     5
 72
     1
  1
\A1;80
1001
ACAD
1000
MTEXTBEGIN
1070
    73
1070
     1
1070
    44
1040
1.0
1070
    74
1070
     0
1000
MTEXTEND
  0
POINT
  5
578
330
571
100
AcDbEntity
  8
DEFPOINTS
 62
     0
100
AcDbPoint
 10
60.26485538934867
 20
474.6190669492839
 30
0.0
  0
POINT
  5
579
330
571
100
AcDbEntity
  8
DEFPOINTS
 62
     0
100
AcDbPoint
 10
140.2648553893486
 20
474.6190669492839
 30
0.0
  0
POINT
  5
57A
330
571
100
AcDbEntity
  8
DEFPOINTS
 62
     0
100
AcDbPoint
 10
140.2648553893486
 20
494.0936335990218
 30
0.0
  0
ENDBLK
  5
57C
330
571
100
AcDbEntity
  8
0
100
AcDbBlockEnd
  0
BLOCK
  5
587
330
57D
100
AcDbEntity
  8
0
100
AcDbBlockBegin
  2
*D69
 70
     1
 10
0.0
 20
0.0
 30
0.0
  3
*D69
  1

  0
LINE
  5
57E
330
57D
100
AcDbEntity
  8
0
 62
   123
100
AcDbLine
 10
187.9578038607087
 20
443.7240669492825
 30
0.0
 11
187.9578038607087
 21
500.0755585692228
 31
0.0
  0
LINE
  5
57F
330
57D
100
AcDbEntity
  8
0
 62
   123
100
AcDbLine
 10
201.4578038607087
 20
480.6190669492825
 30
0.0
 11
201.4578038607087
 21
500.0755585692228
 31
0.0
  0
LINE
  5
580
330
57D
100
AcDbEntity
  8
0
 62
   123
100
AcDbLine
 10
190.4578038607087
 20
499.4755585692228
 30
0.0
 11
198.9578038607087
 21
499.4755585692228
 31
0.0
  0
SOLID
  5
581
330
57D
100
AcDbEntity
  8
0
 62
   123
100
AcDbTrace
 10
190.4578038607087
 20
499.8922252358894
 30
0.0
 11
190.4578038607087
 21
499.0588919025561
 31
0.0
 12
187.9578038607087
 22
499.4755585692228
 32
0.0
 13
187.9578038607087
 23
499.4755585692228
 33
0.0
  0
SOLID
  5
582
330
57D
100
AcDbEntity
  8
0
 62
   123
100
AcDbTrace
 10
198.9578038607087
 20
499.8922252358894
 30
0.0
 11
198.9578038607087
 21
499.0588919025561
 31
0.0
 12
201.4578038607087
 22
499.4755585692228
 32
0.0
 13
201.4578038607087
 23
499.4755585692228
 33
0.0
  0
MTEXT
  5
583
330
57D
100
AcDbEntity
  8
0
 62
     3
100
AcDbMText
 10
195.2078038607087
 20
501.9755585692228
 30
0.0
 40
3.0
 41
0.0
 71
     5
 72
     1
  1
\A1;13.5
1001
ACAD
1000
MTEXTBEGIN
1070
    73
1070
     1
1070
    44
1040
1.0
1070
    74
1070
     0
1000
MTEXTEND
  0
POINT
  5
584
330
57D
100
AcDbEntity
  8
DEFPOINTS
 62
     0
100
AcDbPoint
 10
187.9578038607087
 20
442.7240669492825
 30
0.0
  0
POINT
  5
585
330
57D
100
AcDbEntity
  8
DEFPOINTS
 62
     0
100
AcDbPoint
 10
201.4578038607087
 20
479.6190669492825
 30
0.0
  0
POINT
  5
586
330
57D
100
AcDbEntity
  8
DEFPOINTS
 62
     0
100
AcDbPoint
 10
201.4578038607087
 20
499.4755585692228
 30
0.0
  0
ENDBLK
  5
588
330
57D
100
AcDbEntity
  8
0
100
AcDbBlockEnd
  0
BLOCK
  5
595
330
589
100
AcDbEntity
  8
0
100
AcDbBlockBegin
  2
*D70
 70
     1
 10
0.0
 20
0.0
 30
0.0
  3
*D70
  1

  0
LINE
  5
58A
330
589
100
AcDbEntity
  8
0
 62
   123
100
AcDbLine
 10
199.4578038607087
 20
477.1190669492816
 30
0.0
 11
199.4578038607087
 21
489.7815546743128
 31
0.0
  0
LINE
  5
58B
330
589
100
AcDbEntity
  8
0
 62
   123
100
AcDbLine
 10
201.4578038607087
 20
480.6190669492825
 30
0.0
 11
201.4578038607087
 21
489.7815546743128
 31
0.0
  0
LINE
  5
58C
330
589
100
AcDbEntity
  8
0
 62
   123
100
AcDbLine
 10
203.9578038607087
 20
489.1815546743128
 30
0.0
 11
206.4578038607087
 21
489.1815546743128
 31
0.0
  0
LINE
  5
58D
330
589
100
AcDbEntity
  8
0
 62
   123
100
AcDbLine
 10
196.9578038607087
 20
489.1815546743128
 30
0.0
 11
190.4578038607087
 21
489.1815546743128
 31
0.0
  0
LINE
  5
58E
330
589
100
AcDbEntity
  8
0
 62
   123
100
AcDbLine
 10
201.4578038607087
 20
489.1815546743128
 30
0.0
 11
199.4578038607087
 21
489.1815546743128
 31
0.0
  0
SOLID
  5
58F
330
589
100
AcDbEntity
  8
0
 62
   123
100
AcDbTrace
 10
203.9578038607087
 20
489.5982213409794
 30
0.0
 11
203.9578038607087
 21
488.7648880076461
 31
0.0
 12
201.4578038607087
 22
489.1815546743128
 32
0.0
 13
201.4578038607087
 23
489.1815546743128
 33
0.0
  0
SOLID
  5
590
330
589
100
AcDbEntity
  8
0
 62
   123
100
AcDbTrace
 10
196.9578038607087
 20
489.5982213409794
 30
0.0
 11
196.9578038607087
 21
488.7648880076461
 31
0.0
 12
199.4578038607087
 22
489.1815546743128
 32
0.0
 13
199.4578038607087
 23
489.1815546743128
 33
0.0
  0
MTEXT
  5
591
330
589
100
AcDbEntity
  8
0
 62
     3
100
AcDbMText
 10
192.4578038607087
 20
491.6815546743127
 30
0.0
 40
3.0
 41
0.0
 71
     5
 72
     1
  1
\A1;2
1001
ACAD
1000
MTEXTBEGIN
1070
    73
1070
     1
1070
    44
1040
1.0
1070
    74
1070
     0
1000
MTEXTEND
  0
POINT
  5
592
330
589
100
AcDbEntity
  8
DEFPOINTS
 62
     0
100
AcDbPoint
 10
199.4578038607087
 20
476.1190669492816
 30
0.0
  0
POINT
  5
593
330
589
100
AcDbEntity
  8
DEFPOINTS
 62
     0
100
AcDbPoint
 10
201.4578038607087
 20
479.6190669492825
 30
0.0
  0
POINT
  5
594
330
589
100
AcDbEntity
  8
DEFPOINTS
 62
     0
100
AcDbPoint
 10
201.4578038607087
 20
489.1815546743128
 30
0.0
  0
ENDBLK
  5
596
330
589
100
AcDbEntity
  8
0
100
AcDbBlockEnd
  0
BLOCK
  5
5A1
330
597
100
AcDbEntity
  8
0
100
AcDbBlockBegin
  2
*D71
 70
     1
 10
0.0
 20
0.0
 30
0.0
  3
*D71
  1

  0
LINE
  5
598
330
597
100
AcDbEntity
  8
0
 62
   123
100
AcDbLine
 10
201.4578038607087
 20
480.6190669492825
 30
0.0
 11
201.4578038607087
 21
500.0755585692237
 31
0.0
  0
LINE
  5
599
330
597
100
AcDbEntity
  8
0
 62
   123
100
AcDbLine
 10
233.4578038607087
 20
480.6190669492825
 30
0.0
 11
233.4578038607087
 21
500.0755585692237
 31
0.0
  0
LINE
  5
59A
330
597
100
AcDbEntity
  8
0
 62
   123
100
AcDbLine
 10
203.9578038607087
 20
499.4755585692237
 30
0.0
 11
230.9578038607087
 21
499.4755585692237
 31
0.0
  0
SOLID
  5
59B
330
597
100
AcDbEntity
  8
0
 62
   123
100
AcDbTrace
 10
203.9578038607087
 20
499.8922252358903
 30
0.0
 11
203.9578038607087
 21
499.058891902557
 31
0.0
 12
201.4578038607087
 22
499.4755585692237
 32
0.0
 13
201.4578038607087
 23
499.4755585692237
 33
0.0
  0
SOLID
  5
59C
330
597
100
AcDbEntity
  8
0
 62
   123
100
AcDbTrace
 10
230.9578038607087
 20
499.8922252358903
 30
0.0
 11
230.9578038607087
 21
499.058891902557
 31
0.0
 12
233.4578038607087
 22
499.4755585692237
 32
0.0
 13
233.4578038607087
 23
499.4755585692237
 33
0.0
  0
MTEXT
  5
59D
330
597
100
AcDbEntity
  8
0
 62
     3
100
AcDbMText
 10
217.4578038607087
 20
501.9755585692236
 30
0.0
 40
3.0
 41
0.0
 71
     5
 72
     1
  1
\A1;32
1001
ACAD
1000
MTEXTBEGIN
1070
    73
1070
     1
1070
    44
1040
1.0
1070
    74
1070
     0
1000
MTEXTEND
  0
POINT
  5
59E
330
597
100
AcDbEntity
  8
DEFPOINTS
 62
     0
100
AcDbPoint
 10
201.4578038607087
 20
479.6190669492825
 30
0.0
  0
POINT
  5
59F
330
597
100
AcDbEntity
  8
DEFPOINTS
 62
     0
100
AcDbPoint
 10
233.4578038607087
 20
479.6190669492825
 30
0.0
  0
POINT
  5
5A0
330
597
100
AcDbEntity
  8
DEFPOINTS
 62
     0
100
AcDbPoint
 10
233.4578038607087
 20
499.4755585692237
 30
0.0
  0
ENDBLK
  5
5A2
330
597
100
AcDbEntity
  8
0
100
AcDbBlockEnd
  0
ENDSEC
  0
SECTION
  2
ENTITIES
  0
DIMENSION
  5
9D
330
2
100
AcDbEntity
  8
0
100
AcDbDimension
  2
*D39
 10
226.7191172458497
 20
239.6020410176333
 30
0.0
 11
210.7191172458497
 21
242.1020410176333
 31
0.0
 70
    32
  3
STANDARD
100
AcDbAlignedDimension
 13
194.7191172458497
 23
302.6897220659248
 33
0.0
 14
226.7191172458497
 24
253.1897220659243
 34
0.0
 50
180.0
100
AcDbRotatedDimension
  0
DIMENSION
  5
AC
102
{ACAD_XDICTIONARY
360
AD
102
}
102
{ACAD_REACTORS
330
AE
102
}
330
2
100
AcDbEntity
  8
0
100
AcDbDimension
  2
*D38
 10
129.0659966533585
 20
231.7127607258057
 30
0.0
 11
92.88521442387718
 21
231.7127607258057
 31
0.0
 70
   160
  3
STANDARD
100
AcDbAlignedDimension
 13
49.06599665335853
 23
257.6897220659243
 33
0.0
 14
129.0659966533585
 24
257.6897220659243
 34
0.0
100
AcDbRotatedDimension
  0
DIMENSION
  5
BB
330
2
100
AcDbEntity
  8
0
100
AcDbDimension
  2
*D37
 10
226.7191172458497
 20
239.6020410176333
 30
0.0
 11
247.9691172458542
 21
242.1020410176333
 31
0.0
 70
    32
  1
L
  3
STANDARD
100
AcDbAlignedDimension
 13
269.2191172458588
 23
253.1897220659243
 33
0.0
 14
226.7191172458497
 24
253.1897220659243
 34
0.0
 50
180.0
100
AcDbRotatedDimension
  0
CIRCLE
  5
C8
330
2
100
AcDbEntity
  8
0
 48
0.6
100
AcDbCircle
 10
39.99999999998545
 20
71.18419553188414
 30
0.0
 40
17.0
  0
CIRCLE
  5
C9
330
2
100
AcDbEntity
  8
0
 48
0.6
100
AcDbCircle
 10
39.99999999998545
 20
71.18419553188414
 30
0.0
 40
5.0
  0
CIRCLE
  5
CA
330
2
100
AcDbEntity
  8
0
 48
0.6
100
AcDbCircle
 10
39.99999999998545
 20
56.18419553188414
 30
0.0
 40
36.5
  0
LINE
  5
CB
330
2
100
AcDbEntity
  8
0
 48
0.6
100
AcDbLine
 10
0.0
 20
91.18419553188415
 30
0.0
 11
0.0
 21
21.18419553188414
 31
0.0
  0
LINE
  5
CC
330
2
100
AcDbEntity
  8
0
 48
0.6
100
AcDbLine
 10
80.0
 20
91.18419553188415
 30
0.0
 11
80.0
 21
21.18419553188414
 31
0.0
  0
LINE
  5
CD
330
2
100
AcDbEntity
  8
0
100
AcDbLine
 10
169.6808583324855
 20
96.18419553188415
 30
0.0
 11
169.6808583324855
 21
16.18419553188414
 31
0.0
  0
LINE
  5
CE
330
2
100
AcDbEntity
  8
0
100
AcDbLine
 10
166.6808583324855
 20
87.68419553188413
 30
0.0
 11
166.6808583324855
 21
56.68419553188414
 31
0.0
  0
LINE
  5
CF
102
{ACAD_REACTORS
330
110
102
}
330
2
100
AcDbEntity
  8
0
100
AcDbLine
 10
137.6808583324855
 20
76.18419553188414
 30
0.0
 11
137.6808583324855
 21
66.18419553188414
 31
0.0
  0
DIMENSION
  5
D0
102
{ACAD_XDICTIONARY
360
D1
102
}
102
{ACAD_REACTORS
330
D2
102
}
330
2
100
AcDbEntity
  8
0
100
AcDbDimension
  2
*D44
 10
113.3510109741364
 20
56.18419553188414
 30
0.0
 11
113.3510109741364
 21
63.68419553188414
 31
0.0
 70
   160
  3
STANDARD
100
AcDbAlignedDimension
 13
133.7827195312565
 23
71.18419553188414
 33
0.0
 14
134.6236673866987
 24
56.18419553188414
 34
0.0
 50
90.0
100
AcDbRotatedDimension
  0
DIMENSION
  5
DF
330
2
100
AcDbEntity
  8
0
100
AcDbDimension
  2
*D43
 10
104.1664764409179
 20
54.18419553188416
 30
0.0
 11
104.1664764409178
 21
71.18419553188414
 31
0.0
 70
   160
  1
{\f??|b0|i0|c0|p49;%%c}<>
  3
STANDARD
100
AcDbAlignedDimension
 13
167.1808583324855
 23
88.18419553188414
 33
0.0
 14
167.1808583324855
 24
54.18419553188414
 34
0.0
 50
90.0
100
AcDbRotatedDimension
  0
LINE
  5
EC
330
2
100
AcDbEntity
  8
0
100
AcDbLine
 10
212.1808583324855
 20
96.68419553188597
 30
0.0
 11
212.1808583324855
 21
15.68419553188414
 31
0.0
  0
LINE
  5
ED
330
2
100
AcDbEntity
  8
0
100
AcDbLine
 10
297.1808583324855
 20
93.18419553188414
 30
0.0
 11
297.1808583324855
 21
19.18419553188414
 31
0.0
  0
LINE
  5
EE
330
2
100
AcDbEntity
  8
0
100
AcDbLine
 10
296.1808583324854
 20
94.18419553188414
 30
0.0
 11
296.1808583324854
 21
18.18419553188414
 31
0.0
  0
LINE
  5
EF
102
{ACAD_REACTORS
330
F2
102
}
330
2
100
AcDbEntity
  8
0
100
AcDbLine
 10
290.1808583324855
 20
16.68419553188414
 30
0.0
 11
290.1808583324855
 21
95.68419553188414
 31
0.0
  0
DIMENSION
  5
F0
102
{ACAD_XDICTIONARY
360
F1
102
}
102
{ACAD_REACTORS
330
F2
102
}
330
2
100
AcDbEntity
  8
0
100
AcDbDimension
  2
*D42
 10
317.727712468466
 20
16.68419553188413
 30
0.0
 11
317.727712468466
 21
56.18419553188414
 31
0.0
 70
   160
  1
%%C<>
  3
STANDARD
100
AcDbAlignedDimension
 13
290.1808583324855
 23
95.68419553188414
 33
0.0
 14
290.1808583324855
 24
16.68419553188414
 34
0.0
 50
90.0
100
AcDbRotatedDimension
  0
DIMENSION
  5
FF
330
2
100
AcDbEntity
  8
0
100
AcDbDimension
  2
*D41
 10
2.593623424159163
 20
27.7278607104985
 30
0.0
 11
101.6068413632074
 21
103.050667657722
 31
0.0
 70
   163
  1
<>%%P0.5
  3
STANDARD
100
AcDbDiametricDimension
 15
77.40637657582627
 25
84.64053035327523
 35
0.0
 40
0.0
  0
LINE
  5
10B
330
2
100
AcDbEntity
  8
CEN
 48
0.6
100
AcDbLine
 10
40.0
 20
8.839949115088984
 30
0.0
 11
40.0
 21
142.9759561464397
 31
0.0
  0
DIMENSION
  5
10E
102
{ACAD_XDICTIONARY
360
10F
102
}
102
{ACAD_REACTORS
330
110
102
}
330
2
100
AcDbEntity
  8
0
100
AcDbDimension
  2
*D40
 10
122.8561950435087
 20
76.18419553188414
 30
0.0
 11
122.8561950435087
 21
103.9873529534165
 31
0.0
 70
   160
  1
\A1;{\f??|b0|i0|c0|p49;%%C10\H0.7x;\S+0^ -0.015;\H1.429x;(h7)}
  3
STANDARD
100
AcDbAlignedDimension
 13
137.6808583324855
 23
66.18419553188414
 33
0.0
 14
137.6808583324855
 24
76.18419553188414
 34
0.0
 50
90.0
100
AcDbRotatedDimension
  0
LINE
  5
11F
330
2
100
AcDbEntity
  8
0
100
AcDbLine
 10
218.2808583324785
 20
98.18419453188608
 30
0.0
 11
218.2808583324858
 21
15.68419553188414
 31
0.0
  0
LINE
  5
120
330
2
100
AcDbEntity
  8
0
100
AcDbLine
 10
218.2808583324785
 20
15.68419553188414
 30
0.0
 11
170.1808583324855
 21
15.68419553188414
 31
0.0
  0
LINE
  5
121
330
2
100
AcDbEntity
  8
CEN
 48
0.6
100
AcDbLine
 10
304.4651599923581
 20
56.18419553188414
 30
0.0
 11
134.838900177976
 21
56.18419553188414
 31
0.0
  0
DIMENSION
  5
122
330
2
100
AcDbEntity
  8
0
100
AcDbDimension
  2
*D45
 10
80.0
 20
0.5999999999985448
 30
0.0
 11
42.86747488707805
 21
0.5999999999985448
 31
0.0
 70
   160
  3
STANDARD
100
AcDbAlignedDimension
 13
0.0
 23
21.18419553188414
 33
0.0
 14
80.0
 24
21.18419553188414
 34
0.0
100
AcDbRotatedDimension
  0
LWPOLYLINE
  5
12F
330
2
100
AcDbEntity
  8
3
100
AcDbPolyline
 90
        4
 70
     1
 43
0.0
 10
35.38477565259745
 20
1.281493221667915
 10
38.68477565259854
 20
1.281493221667915
 10
38.68477565259854
 20
4.78149322166837
 10
35.38477565259745
 20
4.78149322166837
  0
LINE
  5
131
330
2
100
AcDbEntity
  8
CEN
 48
0.6
100
AcDbLine
 10
-4.076989725601379
 20
56.18419553188414
 30
0.0
 11
84.07698972559774
 21
56.18419553188414
 31
0.0
  0
ARC
  5
132
330
2
100
AcDbEntity
  8
0
 48
0.6
100
AcDbCircle
 10
75.0
 20
21.18419553188414
 30
0.0
 40
5.0
100
AcDbArc
 50
270.0
 51
0.0
  0
ARC
  5
133
330
2
100
AcDbEntity
  8
0
 48
0.6
100
AcDbCircle
 10
5.0
 20
21.18419553188414
 30
0.0
 40
5.0
100
AcDbArc
 50
180.0
 51
270.0
  0
LINE
  5
134
330
2
100
AcDbEntity
  8
0
 48
0.6
100
AcDbLine
 10
5.0
 20
16.18419553188414
 30
0.0
 11
75.0
 21
16.18419553188414
 31
0.0
  0
LINE
  5
135
330
2
100
AcDbEntity
  8
0
 48
0.6
100
AcDbLine
 10
59.45218796355766
 20
16.18419553188414
 30
0.0
 11
53.71113773703655
 21
16.18419553188414
 31
0.0
  0
CIRCLE
  5
136
330
2
100
AcDbEntity
  8
0
100
AcDbCircle
 10
73.23401871575879
 20
22.95017681611398
 30
0.0
 40
2.75
  0
LINE
  5
137
330
2
100
AcDbEntity
  8
CEN
 48
0.6
100
AcDbLine
 10
69.87526150512713
 20
26.30893402674837
 30
0.0
 11
76.59277592639956
 21
19.59141960547776
 31
0.0
  0
ARC
  5
138
330
2
100
AcDbEntity
  8
CEN
 48
0.6
100
AcDbCircle
 10
40.0
 20
56.18419553188414
 30
0.0
 40
47.0
100
AcDbArc
 50
306.7642625682233
 51
323.2357374318078
  0
ARC
  5
139
330
2
100
AcDbEntity
  8
CEN
 48
0.6
100
AcDbCircle
 10
40.0
 20
56.18419553188414
 30
0.0
 40
47.0
100
AcDbArc
 50
215.5415553738169
 51
234.4584446262041
  0
CIRCLE
  5
13A
330
2
100
AcDbEntity
  8
0
100
AcDbCircle
 10
6.765981284226654
 20
22.95017681611989
 30
0.0
 40
2.75
  0
LINE
  5
13B
330
2
100
AcDbEntity
  8
CEN
 48
0.6
100
AcDbLine
 10
10.12473849485832
 20
26.30893402675474
 30
0.0
 11
3.407224073585894
 21
19.59141960548277
 31
0.0
  0
ARC
  5
13C
330
2
100
AcDbEntity
  8
0
100
AcDbCircle
 10
170.1808583324855
 20
16.18419553188414
 30
0.0
 40
0.5
100
AcDbArc
 50
180.0
 51
270.0
  0
LINE
  5
13D
330
2
100
AcDbEntity
  8
0
100
AcDbLine
 10
167.1808583324855
 20
54.18419553188414
 30
0.0
 11
169.6808583324855
 21
54.18419553188414
 31
0.0
  0
ARC
  5
13E
330
2
100
AcDbEntity
  8
0
100
AcDbCircle
 10
167.1808583324855
 20
54.68419553188414
 30
0.0
 40
0.5
100
AcDbArc
 50
180.0
 51
270.0
  0
LINE
  5
13F
102
{ACAD_REACTORS
330
D2
102
}
330
2
100
AcDbEntity
  8
CEN
  6
BYBLOCK
 62
     0
100
AcDbLine
 10
166.6808583324855
 20
66.18419553188414
 30
0.0
 11
137.6808583324855
 21
66.18419553188414
 31
0.0
  0
LINE
  5
140
330
2
100
AcDbEntity
  8
2
 62
     7
100
AcDbLine
 10
166.6808583324855
 20
54.68419553188414
 30
0.0
 11
166.6808583324855
 21
56.18419553188414
 31
0.0
  0
LINE
  5
142
330
2
100
AcDbEntity
  8
2
 62
     7
100
AcDbLine
 10
169.6808583324855
 20
54.18419553188414
 30
0.0
 11
167.1808583324855
 21
54.18419553188414
 31
0.0
  0
ARC
  5
143
330
2
100
AcDbEntity
  8
2
 62
     7
100
AcDbCircle
 10
167.1808583324855
 20
54.68419553188414
 30
0.0
 40
0.4999999999999967
100
AcDbArc
 50
180.0
 51
270.0
  0
MTEXT
  5
144
102
{ACAD_REACTORS
330
145
102
}
330
2
100
AcDbEntity
  8
0
 62
     3
100
AcDbMText
 10
91.32588145008595
 20
5.954907637941687
 30
0.0
 40
3.0
 41
0.0
 71
     4
 72
     1
  1
4-%%c5.5 hole
1001
ACAD
1000
MTEXTBEGIN
1070
    73
1070
     1
1070
    44
1040
1.0
1070
    74
1070
     0
1000
MTEXTEND
  0
LEADER
  5
145
330
2
100
AcDbEntity
  8
0
100
AcDbLeader
  3
STANDARD
 73
     0
 74
     0
 75
     1
 40
3.0
 41
26.65178571428571
 76
     3
 10
73.93389126733564
 20
20.86358111933441
 30
0.0
 10
87.82588145008594
 20
3.454907637941686
 30
0.0
 10
90.32588145008594
 20
3.454907637941686
 30
0.0
340
144
1001
ACAD
1000
DSTYLE
1002
{
1070
     5
1000

1070
    77
1070
     1
1070
   147
1040
1.0
1070
   342
1005
0
1002
}
  0
DIMENSION
  5
146
102
{ACAD_XDICTIONARY
360
147
102
}
102
{ACAD_REACTORS
330
148
102
}
330
2
100
AcDbEntity
  8
0
100
AcDbDimension
  2
*D47
 10
219.1808583324855
 20
5.588867252127784
 30
0.0
 11
215.6808583324782
 21
5.588867252127784
 31
0.0
 70
   160
  3
STANDARD
100
AcDbAlignedDimension
 13
212.1808583324855
 23
15.18419553188141
 33
0.0
 14
219.1808583324855
 24
17.58545819035407
 34
0.0
100
AcDbRotatedDimension
  0
DIMENSION
  5
155
102
{ACAD_XDICTIONARY
360
156
102
}
102
{ACAD_REACTORS
330
157
102
}
330
2
100
AcDbEntity
  8
0
100
AcDbDimension
  2
*D46
 10
297.1808583324855
 20
-3.123166661350296
 30
0.0
 11
254.6808583324782
 21
-3.123166661350296
 31
0.0
 70
   160
  3
STANDARD
100
AcDbAlignedDimension
 13
212.1808583324855
 23
16.18419553188141
 33
0.0
 14
297.1808583324855
 24
19.18419553188414
 34
0.0
100
AcDbRotatedDimension
  0
LINE
  5
164
330
2
100
AcDbEntity
  8
0
100
AcDbLine
 10
219.1808583324855
 20
25.28545819035525
 30
0.0
 11
218.2808583324785
 21
25.28545819035525
 31
0.0
  0
LINE
  5
165
102
{ACAD_REACTORS
330
148
102
}
330
2
100
AcDbEntity
  8
0
100
AcDbLine
 10
218.2808583324785
 20
17.58545819035407
 30
0.0
 11
219.1808583324855
 21
17.58545819035407
 31
0.0
  0
LINE
  5
166
330
2
100
AcDbEntity
  8
0
100
AcDbLine
 10
219.1808583324855
 20
25.28545819035525
 30
0.0
 11
219.1808583324855
 21
17.58545819035407
 31
0.0
  0
LINE
  5
167
102
{ACAD_REACTORS
330
F2
102
}
330
2
100
AcDbEntity
  8
0
100
AcDbLine
 10
290.1808583324855
 20
16.68419553188414
 30
0.0
 11
218.2808583324785
 21
16.68419553188414
 31
0.0
  0
LINE
  5
168
330
2
100
AcDbEntity
  8
0
100
AcDbLine
 10
296.1808583324854
 20
18.18419553188414
 30
0.0
 11
290.1808583324855
 21
18.18419553188414
 31
0.0
  0
LINE
  5
169
102
{ACAD_REACTORS
330
157
102
}
330
2
100
AcDbEntity
  8
0
100
AcDbLine
 10
297.1808583324855
 20
19.18419553188414
 30
0.0
 11
296.1808583324854
 21
18.18419553188414
 31
0.0
  0
LINE
  5
16A
330
2
100
AcDbEntity
  8
0
100
AcDbLine
 10
218.2808583324858
 20
96.68419553188414
 30
0.0
 11
170.1808583324855
 21
96.68419553188414
 31
0.0
  0
LINE
  5
16B
102
{ACAD_REACTORS
330
D2
102
}
330
2
100
AcDbEntity
  8
CEN
 48
0.6
100
AcDbLine
 10
177.4288057151861
 20
71.18419553188414
 30
0.0
 11
133.7827195312565
 21
71.18419553188414
 31
0.0
  0
DIMENSION
  5
16C
330
2
100
AcDbEntity
  8
0
100
AcDbDimension
  2
*D49
 10
212.1808583324855
 20
115.6280748871549
 30
0.0
 11
189.6808583324855
 21
115.6280748871549
 31
0.0
 70
   160
  1
{\f??|b0|i0|c0|p49;L}
  3
STANDARD
100
AcDbAlignedDimension
 13
169.6808583324855
 23
96.18419553188415
 33
0.0
 14
212.1808583324855
 24
96.68419553188597
 34
0.0
100
AcDbRotatedDimension
  0
DIMENSION
  5
179
330
2
100
AcDbEntity
  8
0
100
AcDbDimension
  2
*D48
 10
166.6808583324855
 20
103.8941234407898
 30
0.0
 11
168.1808583324855
 21
103.8941234407898
 31
0.0
 70
   160
  3
STANDARD
100
AcDbAlignedDimension
 13
169.6808583324855
 23
96.18419553188415
 33
0.0
 14
166.6808583324855
 24
87.68419553188413
 34
0.0
 50
180.0
100
AcDbRotatedDimension
  0
LWPOLYLINE
  5
188
330
2
100
AcDbEntity
  8
0
100
AcDbPolyline
 90
        2
 70
     1
 43
1.5
 10
86.91850664488447
 20
217.0990934613937
 42
1.0
 10
88.41850664488447
 20
217.0990934613937
 42
1.0
  0
CIRCLE
  5
189
330
2
100
AcDbEntity
  8
0
100
AcDbCircle
 10
87.66850664488448
 20
217.0990934613937
 30
0.0
 40
1.5
  0
CIRCLE
  5
18A
330
2
100
AcDbEntity
  8
0
100
AcDbCircle
 10
23.1438794202495
 20
216.883777545393
 30
0.0
 40
1.5
  0
LWPOLYLINE
  5
18B
330
2
100
AcDbEntity
  8
0
100
AcDbPolyline
 90
        2
 70
     1
 43
1.5
 10
22.3938794202495
 20
216.883777545393
 42
1.0
 10
23.8938794202586
 20
216.883777545393
 42
1.0
  0
LINE
  5
18C
330
2
100
AcDbEntity
  8
0
  6
CENTER
 62
     1
 48
0.4
100
AcDbLine
 10
106.4715262677982
 20
194.8995191708099
 30
0.0
 11
106.4715262677982
 21
174.2707609480339
 31
0.0
  0
LINE
  5
18D
330
2
100
AcDbEntity
  8
0
  6
CENTER
 62
     1
 48
0.4
100
AcDbLine
 10
61.53814652724941
 20
190.5280498145898
 30
0.0
 11
61.53814652724941
 21
182.5280498145898
 31
0.0
  0
LINE
  5
18E
330
2
100
AcDbEntity
  8
0
  6
CENTER
 62
     1
 48
0.4
100
AcDbLine
 10
57.5381465272494
 20
186.5280498145898
 30
0.0
 11
65.53814652724941
 21
186.5280498145898
 31
0.0
  0
LINE
  5
18F
330
2
100
AcDbEntity
  8
0
  6
CENTER
 62
     1
 48
0.4
100
AcDbLine
 10
97.86388695101777
 20
184.927754527594
 30
0.0
 11
114.7973814971774
 21
184.927754527594
 31
0.0
  0
CIRCLE
  5
190
102
{ACAD_REACTORS
330
1C1
102
}
330
2
100
AcDbEntity
  8
0
100
AcDbCircle
 10
106.4715262677982
 20
184.927754527594
 30
0.0
 40
5.0
  0
LINE
  5
191
102
{ACAD_REACTORS
330
1B0
102
}
330
2
100
AcDbEntity
  8
0
100
AcDbLine
 10
63.53814652724941
 20
188.5280498145898
 30
0.0
 11
63.53814652724941
 21
184.5280498145898
 31
0.0
  0
LINE
  5
192
102
{ACAD_REACTORS
330
1B0
102
}
330
2
100
AcDbEntity
  8
0
100
AcDbLine
 10
59.53814652724941
 20
188.5280498145898
 30
0.0
 11
59.53814652724941
 21
184.5280498145898
 31
0.0
  0
LINE
  5
193
330
2
100
AcDbEntity
  8
0
 48
0.2
100
AcDbLine
 10
59.53814652724941
 20
184.5280498145898
 30
0.0
 11
63.53814652724941
 21
184.5280498145898
 31
0.0
  0
LINE
  5
194
330
2
100
AcDbEntity
  8
0
 48
0.2
100
AcDbLine
 10
59.53814652724941
 20
188.5280498145898
 30
0.0
 11
63.53814652724941
 21
188.5280498145898
 31
0.0
  0
LINE
  5
195
102
{ACAD_REACTORS
330
1C1
102
}
330
2
100
AcDbEntity
  8
0
100
AcDbLine
 10
104.4715262677982
 20
187.427754527594
 30
0.0
 11
108.4715262677982
 21
187.427754527594
 31
0.0
  0
LINE
  5
196
102
{ACAD_REACTORS
330
19F
102
}
330
2
100
AcDbEntity
  8
0
100
AcDbLine
 10
104.4715262677982
 20
187.427754527594
 30
0.0
 11
104.4715262677982
 21
189.5103302225497
 31
0.0
  0
LINE
  5
197
102
{ACAD_REACTORS
330
19F
102
}
330
2
100
AcDbEntity
  8
0
100
AcDbLine
 10
108.4715262677982
 20
187.427754527594
 30
0.0
 11
108.4715262677982
 21
189.5103302225497
 31
0.0
  0
LINE
  5
198
330
2
100
AcDbEntity
  8
0
100
AcDbLine
 10
42.36749324053744
 20
188.5280498145898
 30
0.0
 11
42.36749324053744
 21
184.5280498145898
 31
0.0
  0
ARC
  5
199
102
{ACAD_REACTORS
330
1E1
102
}
330
2
100
AcDbEntity
  8
0
100
AcDbCircle
 10
19.36749324053744
 20
186.5280498145898
 30
0.0
 40
2.0
100
AcDbArc
 50
90.0
 51
270.0
  0
LINE
  5
19A
330
2
100
AcDbEntity
  8
0
  6
CENTER
 62
     1
 48
0.4
100
AcDbLine
 10
11.68060692382823
 20
186.5280498145898
 30
0.0
 11
47.18636055286879
 21
186.5280498145898
 31
0.0
  0
LINE
  5
19B
330
2
100
AcDbEntity
  8
0
 48
0.2
100
AcDbLine
 10
19.36749324053744
 20
184.5280498145898
 30
0.0
 11
42.36749324053744
 21
184.5280498145898
 31
0.0
  0
LINE
  5
19C
102
{ACAD_REACTORS
330
1E1
102
}
330
2
100
AcDbEntity
  8
0
 48
0.2
100
AcDbLine
 10
19.36749324053744
 20
188.5280498145898
 30
0.0
 11
42.36749324053744
 21
188.5280498145898
 31
0.0
  0
DIMENSION
  5
19D
102
{ACAD_XDICTIONARY
360
19E
102
}
102
{ACAD_REACTORS
330
19F
102
}
330
2
100
AcDbEntity
  8
0
100
AcDbDimension
  2
*D58
 10
108.4715262677982
 20
198.2693427675249
 30
0.0
 11
106.4715262677982
 21
201.7193427675248
 31
0.0
 70
    32
  1
\A1;<>{\f??|b0|i0|c0|p49;\H0.7x;\S+0.40^ -0;}
  3
STANDARD
100
AcDbAlignedDimension
 13
104.4715262677982
 23
189.5103302225497
 33
0.0
 14
108.4715262677982
 24
189.5103302225497
 34
0.0
100
AcDbRotatedDimension
  0
DIMENSION
  5
1AE
102
{ACAD_XDICTIONARY
360
1AF
102
}
102
{ACAD_REACTORS
330
1B0
102
}
330
2
100
AcDbEntity
  8
0
100
AcDbDimension
  2
*D57
 10
63.53814652724941
 20
197.2025254732225
 30
0.0
 11
61.53814652724941
 21
200.6525254732224
 31
0.0
 70
    32
  1
\A1;<>{\f??|b0|i0|c0|p49;\H0.7x;\S+0^ -0.03;}
  3
STANDARD
100
AcDbAlignedDimension
 13
59.53814652724941
 23
188.5280498145898
 33
0.0
 14
63.53814652724941
 24
188.5280498145898
 34
0.0
100
AcDbRotatedDimension
  0
DIMENSION
  5
1BF
102
{ACAD_XDICTIONARY
360
1C0
102
}
102
{ACAD_REACTORS
330
1C1
102
}
330
2
100
AcDbEntity
  8
0
100
AcDbDimension
  2
*D56
 10
123.9688587619766
 20
189.927754527594
 30
0.0
 11
123.9688587619766
 21
206.1348973847366
 31
0.0
 70
   160
  1
\A1;<>{\f??|b0|i0|c0|p49;\H0.7x;\S+0.1^ -0;\H1.429x; }
  3
STANDARD
100
AcDbAlignedDimension
 13
108.4715262677982
 23
187.427754527594
 33
0.0
 14
106.4715262677982
 24
189.927754527594
 34
0.0
 50
90.0
100
AcDbRotatedDimension
  0
DIMENSION
  5
1D0
330
2
100
AcDbEntity
  8
0
100
AcDbDimension
  2
*D55
 10
50.5365483959977
 20
188.5280498145898
 30
0.0
 11
50.53654839599767
 21
203.3775116086808
 31
0.0
 70
   160
  1
\A1;<>{\f??|b0|i0|c0|p49;\H0.7x;\S+0^ -0.03;}
  3
STANDARD
100
AcDbAlignedDimension
 13
42.36749324053744
 23
184.5280498145898
 33
0.0
 14
42.36749324053744
 24
188.5280498145898
 34
0.0
 50
90.0
100
AcDbRotatedDimension
  0
DIMENSION
  5
1DF
102
{ACAD_XDICTIONARY
360
1E0
102
}
102
{ACAD_REACTORS
330
1E1
102
}
330
2
100
AcDbEntity
  8
0
100
AcDbDimension
  2
*D54
 10
42.36749324053744
 20
196.3332437950644
 30
0.0
 11
29.86749324053744
 21
198.8332437950644
 31
0.0
 70
    32
  1
<>{\f??|b0|i0|c0|p49;%%p0.2}
  3
STANDARD
100
AcDbAlignedDimension
 13
17.36749324053744
 23
186.5280498145898
 33
0.0
 14
42.36749324053744
 24
188.5280498145898
 34
0.0
100
AcDbRotatedDimension
  0
LWPOLYLINE
  5
1EE
330
2
100
AcDbEntity
  8
3
100
AcDbPolyline
 90
        4
 70
     1
 43
0.0
 10
85.84045554686781
 20
232.404091844367
 10
89.14045554686708
 20
232.404091844367
 10
89.14045554686708
 20
235.904091844367
 10
85.84045554686781
 20
235.904091844367
  0
DIMENSION
  5
1EF
102
{ACAD_XDICTIONARY
360
1F0
102
}
102
{ACAD_REACTORS
330
1F1
102
}
330
2
100
AcDbEntity
  8
0
100
AcDbDimension
  2
*D53
 10
71.0
 20
151.4761692433398
 30
0.0
 11
40.0
 21
151.4761692433398
 31
0.0
 70
   160
  3
STANDARD
100
AcDbAlignedDimension
 13
9.0
 23
104.1841955318841
 33
0.0
 14
71.0
 24
104.1841955318841
 34
0.0
100
AcDbRotatedDimension
  0
ARC
  5
1FE
330
2
100
AcDbEntity
  8
0
100
AcDbCircle
 10
68.52830600000015
 20
138.6841955318841
 30
0.0
 40
0.5
100
AcDbArc
 50
3.337083000037623
 51
90.0
  0
ARC
  5
1FF
330
2
100
AcDbEntity
  8
0
100
AcDbCircle
 10
11.47169500000018
 20
138.6841955318841
 30
0.0
 40
0.5
100
AcDbArc
 50
90.0
 51
176.6629169999623
  0
LINE
  5
200
330
2
100
AcDbEntity
  8
0
100
AcDbLine
 10
40.0
 20
139.1841955318841
 30
0.0
 11
11.47169500000018
 21
139.1841955318841
 31
0.0
  0
LINE
  5
201
330
2
100
AcDbEntity
  8
0
100
AcDbLine
 10
40.0
 20
139.1841955318841
 30
0.0
 11
68.52830600000015
 21
139.1841955318841
 31
0.0
  0
LINE
  5
202
330
2
100
AcDbEntity
  8
0
100
AcDbLine
 10
70.29999999999927
 20
104.8841955318848
 30
0.0
 11
70.29999999999927
 21
104.1841955318841
 31
0.0
  0
LINE
  5
203
102
{ACAD_REACTORS
330
1F1
102
}
330
2
100
AcDbEntity
  8
0
100
AcDbLine
 10
70.57641300000068
 20
99.10115053188475
 30
0.0
 11
71.0
 21
104.1841955318841
 31
0.0
  0
ARC
  5
204
330
2
100
AcDbEntity
  8
0
100
AcDbCircle
 10
69.57986800000071
 20
99.18419553188414
 30
0.0
 40
1.0
100
AcDbArc
 50
270.0
 51
355.2363579999948
  0
LINE
  5
205
330
2
100
AcDbEntity
  8
0
100
AcDbLine
 10
9.700000000000727
 20
104.8841955318848
 30
0.0
 11
9.700000000000727
 21
104.1841955318841
 31
0.0
  0
LINE
  5
206
102
{ACAD_REACTORS
330
1F1
102
}
330
2
100
AcDbEntity
  8
0
100
AcDbLine
 10
40.0
 20
104.1841955318841
 30
0.0
 11
9.0
 21
104.1841955318841
 31
0.0
  0
LINE
  5
207
330
2
100
AcDbEntity
  8
0
100
AcDbLine
 10
25.0
 20
98.18419553188414
 30
0.0
 11
10.42013299999962
 21
98.18419553188414
 31
0.0
  0
LINE
  5
208
330
2
100
AcDbEntity
  8
0
100
AcDbLine
 10
9.423587999999654
 20
99.10115053188475
 30
0.0
 11
9.0
 21
104.1841955318841
 31
0.0
  0
ARC
  5
209
330
2
100
AcDbEntity
  8
0
100
AcDbCircle
 10
10.42013299999962
 20
99.18419553188414
 30
0.0
 40
1.0
100
AcDbArc
 50
184.7636420000051
 51
270.0
  0
LINE
  5
20A
330
2
100
AcDbEntity
  8
0
100
AcDbLine
 10
40.0
 20
104.1841955318841
 30
0.0
 11
71.0
 21
104.1841955318841
 31
0.0
  0
LINE
  5
20B
330
2
100
AcDbEntity
  8
0
100
AcDbLine
 10
55.0
 20
98.18419553188414
 30
0.0
 11
69.57986800000071
 21
98.18419553188414
 31
0.0
  0
LINE
  5
20C
330
2
100
AcDbEntity
  8
0
100
AcDbLine
 10
71.0
 20
104.8841955318848
 30
0.0
 11
9.0
 21
104.8841955318848
 31
0.0
  0
LINE
  5
20D
330
2
100
AcDbEntity
  8
0
100
AcDbLine
 10
71.0
 20
104.8841955318848
 30
0.0
 11
69.02745800000047
 21
138.713300531886
 31
0.0
  0
LINE
  5
20E
330
2
100
AcDbEntity
  8
0
100
AcDbLine
 10
9.0
 20
104.8841955318848
 30
0.0
 11
10.97254299999985
 21
138.713300531886
 31
0.0
  0
MTEXT
  5
20F
330
2
100
AcDbEntity
  8
DIM
 62
     0
100
AcDbMText
 10
27.33473014077572
 20
219.4911778014816
 30
0.0
 40
4.589999999999998
 41
0.0
 71
     1
 72
     5
  1
{\f굴림|b0|i0|c129|p50;KEY\f??|b0|i0|c0|p49;                  \f굴림|b0|i0|c129|p50;KEY GROOVE }
1001
ACAD
1000
MTEXTBEGIN
1070
    73
1070
     1
1070
    44
1040
1.0
1070
    74
1070
     0
1000
MTEXTEND
  0
CIRCLE
  5
211
330
2
100
AcDbEntity
  8
0
100
AcDbCircle
 10
6.765981284226654
 20
89.41821424765567
 30
0.0
 40
2.75
  0
LINE
  5
212
330
2
100
AcDbEntity
  8
CEN
 48
0.6
100
AcDbLine
 10
10.12473849486741
 20
86.059457037019
 30
0.0
 11
3.407224073598627
 21
92.77697145829097
 31
0.0
  0
ARC
  5
213
330
2
100
AcDbEntity
  8
CEN
 48
0.6
100
AcDbCircle
 10
40.0
 20
56.18419553188459
 30
0.0
 40
47.0
100
AcDbArc
 50
126.7642625682232
 51
143.2357374318079
  0
ARC
  5
214
330
2
100
AcDbEntity
  8
CEN
 48
0.6
100
AcDbCircle
 10
40.0
 20
56.18419553188414
 30
0.0
 40
47.0
100
AcDbArc
 50
35.54155537381702
 51
54.45844462620417
  0
LINE
  5
215
330
2
100
AcDbEntity
  8
CEN
 48
0.6
100
AcDbLine
 10
69.87526150512713
 20
86.05945703701264
 30
0.0
 11
76.59277592639956
 21
92.7769714582846
 31
0.0
  0
CIRCLE
  5
216
330
2
100
AcDbEntity
  8
0
100
AcDbCircle
 10
73.23401871576606
 20
89.41821424764885
 30
0.0
 40
2.75
  0
LINE
  5
217
330
2
100
AcDbEntity
  8
0
 62
     0
 48
0.6
100
AcDbLine
 10
41.99999999998545
 20
75.76677122683986
 30
0.0
 11
41.99999999998545
 21
73.68419553188414
 31
0.0
  0
LINE
  5
218
330
2
100
AcDbEntity
  8
0
 62
     0
 48
0.6
100
AcDbLine
 10
37.99999999998544
 20
75.76677122683986
 30
0.0
 11
37.99999999998544
 21
73.68419553188414
 31
0.0
  0
LINE
  5
219
330
2
100
AcDbEntity
  8
0
 48
0.6
100
AcDbLine
 10
37.99999999998544
 20
73.68419553188414
 30
0.0
 11
41.99999999998545
 21
73.68419553188414
 31
0.0
  0
LINE
  5
21A
330
2
100
AcDbEntity
  8
CEN
 48
0.6
100
AcDbLine
 10
20.53439771244848
 20
71.18419553188414
 30
0.0
 11
59.38609552771777
 21
71.18419553188414
 31
0.0
  0
ARC
  5
21B
330
2
100
AcDbEntity
  8
0
 48
0.6
100
AcDbCircle
 10
75.0
 20
91.18419553188415
 30
0.0
 40
5.0
100
AcDbArc
 50
0.0
 51
90.0
  0
LINE
  5
21C
330
2
100
AcDbEntity
  8
0
100
AcDbLine
 10
67.0
 20
97.18419553188414
 30
0.0
 11
67.0
 21
96.18419553188415
 31
0.0
  0
ARC
  5
21D
330
2
100
AcDbEntity
  8
0
 48
0.6
100
AcDbCircle
 10
5.0
 20
91.18419553188415
 30
0.0
 40
5.0
100
AcDbArc
 50
90.0
 51
180.0
  0
LINE
  5
21E
330
2
100
AcDbEntity
  8
0
100
AcDbLine
 10
13.0
 20
97.18419553188414
 30
0.0
 11
13.0
 21
96.18419553188415
 31
0.0
  0
LINE
  5
21F
330
2
100
AcDbEntity
  8
0
 48
0.6
100
AcDbLine
 10
5.0
 20
96.18419553188415
 30
0.0
 11
75.0
 21
96.18419553188415
 31
0.0
  0
ARC
  5
220
330
2
100
AcDbEntity
  8
0
100
AcDbCircle
 10
170.1808583324855
 20
96.18419553188415
 30
0.0
 40
0.5
100
AcDbArc
 50
90.0
 51
180.0
  0
LINE
  5
221
330
2
100
AcDbEntity
  8
0
100
AcDbLine
 10
167.1808583324855
 20
88.18419553188414
 30
0.0
 11
169.6808583324855
 21
88.18419553188414
 31
0.0
  0
ARC
  5
222
330
2
100
AcDbEntity
  8
0
100
AcDbCircle
 10
167.1808583324855
 20
87.68419553188413
 30
0.0
 40
0.5
100
AcDbArc
 50
90.0
 51
180.0
  0
LINE
  5
223
102
{ACAD_REACTORS
330
229
102
}
330
2
100
AcDbEntity
  8
0
  6
HIDDEN
 62
     2
100
AcDbLine
 10
162.6808583324855
 20
76.18419553188414
 30
0.0
 11
162.6808583324855
 21
73.68419553188414
 31
0.0
  0
LINE
  5
225
102
{ACAD_REACTORS
330
D2
102
}
330
2
100
AcDbEntity
  8
CEN
  6
HIDDEN
 62
     2
100
AcDbLine
 10
162.6808583324855
 20
73.68419553188414
 30
0.0
 11
137.6808583324855
 21
73.68419553188414
 31
0.0
  0
LINE
  5
226
102
{ACAD_REACTORS
330
D2
330
229
330
110
330
249
102
}
330
2
100
AcDbEntity
  8
CEN
  6
BYBLOCK
 62
     0
100
AcDbLine
 10
166.6808583324855
 20
76.18419553188414
 30
0.0
 11
137.6808583324855
 21
76.18419553188414
 31
0.0
  0
DIMENSION
  5
227
102
{ACAD_XDICTIONARY
360
228
102
}
102
{ACAD_REACTORS
330
229
102
}
330
2
100
AcDbEntity
  8
0
100
AcDbDimension
  2
*D52
 10
137.6808583324855
 20
92.4044837387869
 30
0.0
 11
150.4917889998778
 21
92.4044837387869
 31
0.0
 70
   160
  3
STANDARD
100
AcDbAlignedDimension
 13
162.6808583324855
 23
76.18419553188414
 33
0.0
 14
137.6808583324855
 24
76.18419553188414
 34
0.0
 50
180.0
100
AcDbRotatedDimension
  0
ARC
  5
236
330
2
100
AcDbEntity
  8
0
100
AcDbCircle
 10
68.0
 20
97.18419553188414
 30
0.0
 40
1.0
100
AcDbArc
 50
90.0
 51
180.0
  0
ARC
  5
237
330
2
100
AcDbEntity
  8
0
100
AcDbCircle
 10
12.0
 20
97.18419553188414
 30
0.0
 40
1.0
100
AcDbArc
 50
0.0
 51
90.0
  0
LINE
  5
238
330
2
100
AcDbEntity
  8
0
100
AcDbLine
 10
25.0
 20
98.18419553188414
 30
0.0
 11
25.0
 21
96.18419553188415
 31
0.0
  0
LINE
  5
239
330
2
100
AcDbEntity
  8
0
100
AcDbLine
 10
55.0
 20
98.18419553188414
 30
0.0
 11
55.0
 21
96.18419553188415
 31
0.0
  0
DIMENSION
  5
23A
330
2
100
AcDbEntity
  8
0
100
AcDbDimension
  2
*D51
 10
87.31934607125005
 20
139.1841955318814
 30
0.0
 11
87.31934607125003
 21
119.3218250878353
 31
0.0
 70
   160
  3
STANDARD
100
AcDbAlignedDimension
 13
75.0
 23
96.18419553188415
 33
0.0
 14
68.52830600000015
 24
139.1841955318814
 34
0.0
 50
90.0
100
AcDbRotatedDimension
  0
DIMENSION
  5
247
102
{ACAD_XDICTIONARY
360
248
102
}
102
{ACAD_REACTORS
330
249
102
}
330
2
100
AcDbEntity
  8
0
100
AcDbDimension
  2
*D50
 10
169.6808583324855
 20
115.6255569682189
 30
0.0
 11
154.0020902623673
 21
115.6255569682189
 31
0.0
 70
   160
  3
STANDARD
100
AcDbAlignedDimension
 13
137.6808583324855
 23
76.18419553188414
 33
0.0
 14
169.6808583324855
 24
96.18419553188415
 34
0.0
100
AcDbRotatedDimension
  0
ARC
  5
256
330
2
100
AcDbEntity
  8
0
100
AcDbCircle
 10
304.5941923324844
 20
133.184194531886
 30
0.0
 40
9.083332999999999
100
AcDbArc
 50
326.601511999943
 51
0.0
  0
LINE
  5
257
330
2
100
AcDbEntity
  8
0
100
AcDbLine
 10
313.6775253324849
 20
133.184194531886
 30
0.0
 11
313.6775253324849
 21
109.184194531886
 31
0.0
  0
LINE
  5
258
330
2
100
AcDbEntity
  8
0
100
AcDbLine
 10
303.6775253324849
 20
134.1841945318847
 30
0.0
 11
303.6775253324849
 21
108.1841945318847
 31
0.0
  0
LINE
  5
259
330
2
100
AcDbEntity
  8
0
100
AcDbLine
 10
312.1775253324849
 20
116.184194531886
 30
0.0
 11
312.1775253324849
 21
114.184194531886
 31
0.0
  0
LINE
  5
25A
330
2
100
AcDbEntity
  8
0
100
AcDbLine
 10
312.5952513324846
 20
113.4841945318844
 30
0.0
 11
303.6775253324849
 21
113.4841945318844
 31
0.0
  0
LINE
  5
25B
330
2
100
AcDbEntity
  8
0
100
AcDbLine
 10
312.1775253324849
 20
114.184194531886
 30
0.0
 11
303.6775253324849
 21
114.184194531886
 31
0.0
  0
LINE
  5
25C
330
2
100
AcDbEntity
  8
0
100
AcDbLine
 10
313.6775253324849
 20
109.184194531886
 30
0.0
 11
303.6775253324849
 21
109.184194531886
 31
0.0
  0
LINE
  5
25D
330
2
100
AcDbEntity
  8
0
100
AcDbLine
 10
312.1775253324849
 20
108.1841945318847
 30
0.0
 11
303.6775253324849
 21
108.1841945318847
 31
0.0
  0
ARC
  5
25E
330
2
100
AcDbEntity
  8
0
100
AcDbCircle
 10
304.5941923324844
 20
109.184194531886
 30
0.0
 40
9.083332999999999
100
AcDbArc
 50
0.0
 51
33.398488000057
  0
LINE
  5
25F
330
2
100
AcDbEntity
  8
0
100
AcDbLine
 10
314.6775253324849
 20
109.184194531886
 30
0.0
 11
313.6775253324849
 21
109.184194531886
 31
0.0
  0
LINE
  5
260
330
2
100
AcDbEntity
  8
0
100
AcDbLine
 10
312.1775253324849
 20
108.1841945318847
 30
0.0
 11
313.6775253324849
 21
109.184194531886
 31
0.0
  0
ARC
  5
261
330
2
100
AcDbEntity
  8
0
100
AcDbCircle
 10
304.5941923324844
 20
121.184194531886
 30
0.0
 40
9.083332999999999
100
AcDbArc
 50
326.601511999943
 51
33.398488000057
  0
LINE
  5
262
330
2
100
AcDbEntity
  8
0
100
AcDbLine
 10
312.9761333324859
 20
117.684194531886
 30
0.0
 11
303.6775253324849
 21
117.684194531886
 31
0.0
  0
LINE
  5
263
330
2
100
AcDbEntity
  8
0
100
AcDbLine
 10
312.1775253324849
 20
116.184194531886
 30
0.0
 11
303.6775253324849
 21
116.184194531886
 31
0.0
  0
LINE
  5
264
330
2
100
AcDbEntity
  8
0
100
AcDbLine
 10
312.9761333324859
 20
124.684194531886
 30
0.0
 11
303.6775253324849
 21
124.684194531886
 31
0.0
  0
LINE
  5
265
330
2
100
AcDbEntity
  8
0
100
AcDbLine
 10
312.5952513324846
 20
128.8841945318859
 30
0.0
 11
303.6775253324849
 21
128.8841945318859
 31
0.0
  0
LINE
  5
266
330
2
100
AcDbEntity
  8
0
100
AcDbLine
 10
312.1775253324849
 20
128.184194531886
 30
0.0
 11
303.6775253324849
 21
128.184194531886
 31
0.0
  0
LINE
  5
267
330
2
100
AcDbEntity
  8
0
100
AcDbLine
 10
312.1775253324849
 20
126.184194531886
 30
0.0
 11
303.6775253324849
 21
126.184194531886
 31
0.0
  0
LINE
  5
268
330
2
100
AcDbEntity
  8
0
100
AcDbLine
 10
312.1775253324849
 20
128.184194531886
 30
0.0
 11
312.1775253324849
 21
126.184194531886
 31
0.0
  0
LINE
  5
269
330
2
100
AcDbEntity
  8
0
100
AcDbLine
 10
313.6775253324849
 20
133.184194531886
 30
0.0
 11
303.6775253324849
 21
133.184194531886
 31
0.0
  0
LINE
  5
26A
330
2
100
AcDbEntity
  8
0
100
AcDbLine
 10
312.1775253324849
 20
134.1841945318847
 30
0.0
 11
303.6775253324849
 21
134.1841945318847
 31
0.0
  0
LINE
  5
26B
330
2
100
AcDbEntity
  8
0
100
AcDbLine
 10
314.6775253324849
 20
133.184194531886
 30
0.0
 11
313.6775253324849
 21
133.184194531886
 31
0.0
  0
LINE
  5
26C
330
2
100
AcDbEntity
  8
0
100
AcDbLine
 10
312.1775253324849
 20
134.1841945318847
 30
0.0
 11
313.6775253324849
 21
133.184194531886
 31
0.0
  0
ARC
  5
26D
330
2
100
AcDbEntity
  8
0
100
AcDbCircle
 10
314.1775253324849
 20
126.4841945318844
 30
0.0
 40
6.718630999999999
100
AcDbArc
 50
14.65675100003822
 51
85.73210700004995
  0
ARC
  5
26E
330
2
100
AcDbEntity
  8
0
100
AcDbCircle
 10
314.1775253324849
 20
115.8841945318872
 30
0.0
 40
6.718630999999999
100
AcDbArc
 50
274.2678929999499
 51
345.3432489999617
  0
LINE
  5
26F
330
2
100
AcDbEntity
  8
1
  6
BYBLOCK
 62
     0
100
AcDbLine
 10
286.8142605318171
 20
183.9455411420599
 30
0.0
 11
174.0605302677758
 21
183.9455411420599
 31
0.0
  0
LINE
  5
271
330
2
100
AcDbEntity
  8
1
  6
BYBLOCK
 62
     0
100
AcDbLine
 10
286.8142605318171
 20
202.3055411420596
 30
0.0
 11
174.0605302677758
 21
202.3055411420596
 31
0.0
  0
LINE
  5
272
330
2
100
AcDbEntity
  8
1
  6
BYBLOCK
 62
     0
100
AcDbLine
 10
286.8142605318171
 20
211.4855411420608
 30
0.0
 11
174.0605302677758
 21
211.4855411420608
 31
0.0
  0
LINE
  5
273
330
2
100
AcDbEntity
  8
1
  6
BYBLOCK
 62
     0
100
AcDbLine
 10
286.8142605318171
 20
193.1255411420597
 30
0.0
 11
174.0605302677758
 21
193.1255411420597
 31
0.0
  0
TEXT
  5
274
330
2
100
AcDbEntity
  8
1
 62
     0
100
AcDbText
 10
173.9522541914575
 20
216.9929799290275
 30
0.0
 40
4.589999999999998
  1
DIMENSION TABLE
 41
0.8
  7
GHS
100
AcDbText
  0
LINE
  5
276
330
2
100
AcDbEntity
  8
1
  6
BYBLOCK
 62
     0
100
AcDbLine
 10
173.2902636972485
 20
214.9431980572726
 30
0.0
 11
222.9557015094778
 21
214.9431980572726
 31
0.0
  0
LINE
  5
277
330
2
100
AcDbEntity
  8
1
  6
BYBLOCK
 62
     0
100
AcDbLine
 10
173.2902636972485
 20
215.1681980572711
 30
0.0
 11
222.9557015094778
 21
215.1681980572711
 31
0.0
  0
LINE
  5
278
330
2
100
AcDbEntity
  8
1
  6
BYBLOCK
 62
     0
100
AcDbLine
 10
173.2902636972485
 20
215.8972300182676
 30
0.0
 11
222.9557015094778
 21
215.8972300182676
 31
0.0
  0
TEXT
  5
279
330
2
100
AcDbEntity
  8
1
  6
BYBLOCK
 62
     0
100
AcDbText
 10
207.6003627170084
 20
186.1126260992009
 30
0.0
 40
4.589999999999998
  1
42.5
 41
0.8
  7
GHS
100
AcDbText
  0
LINE
  5
27A
330
2
100
AcDbEntity
  8
1
  6
BYBLOCK
 62
     0
100
AcDbLine
 10
174.0605302677758
 20
211.4855411420608
 30
0.0
 11
174.0605302677758
 21
183.9455411420599
 31
0.0
  0
LINE
  5
27B
330
2
100
AcDbEntity
  8
1
  6
BYBLOCK
 62
     0
100
AcDbLine
 10
197.8773134657076
 20
211.4855411420608
 30
0.0
 11
197.8773134657076
 21
183.9455411420599
 31
0.0
  0
TEXT
  5
27C
330
2
100
AcDbEntity
  8
1
  6
BYBLOCK
 62
     0
100
AcDbText
 10
209.4491635227277
 20
204.3061559550865
 30
0.0
 40
4.589999999999998
  1
L
 41
0.8
  7
GHS
100
AcDbText
  0
TEXT
  5
27D
330
2
100
AcDbEntity
  8
1
  6
BYBLOCK
 62
     0
100
AcDbText
 10
207.6003627170084
 20
195.2926260992017
 30
0.0
 40
4.589999999999998
  1
32
 41
0.8
  7
GHS
100
AcDbText
  0
TEXT
  5
27E
330
2
100
AcDbEntity
  8
1
  6
BYBLOCK
 62
     0
100
AcDbText
 10
181.62165542816
 20
204.4743538680309
 30
0.0
 40
4.589999999999998
  1
NO.
 41
0.8
  7
GHS
100
AcDbText
  0
TEXT
  5
27F
330
2
100
AcDbEntity
  8
1
  6
BYBLOCK
 62
     0
100
AcDbText
 10
182.5975263216478
 20
195.6016513074637
 30
0.0
 40
4.589999999999998
  1
01
 41
0.8
  7
GHS
100
AcDbText
  0
TEXT
  5
280
330
2
100
AcDbEntity
  8
1
  6
BYBLOCK
 62
     0
100
AcDbText
 10
182.5975263216478
 20
186.4216513074638
 30
0.0
 40
4.589999999999998
  1
02
 41
0.8
  7
GHS
100
AcDbText
  0
TEXT
  5
281
330
2
100
AcDbEntity
  8
1
  6
BYBLOCK
 62
     0
100
AcDbText
 10
230.5822153886674
 20
204.6050062353288
 30
0.0
 40
4.589999999999998
  1
APPLICATION MODEL
 41
0.8
  7
GHS
100
AcDbText
  0
LINE
  5
282
330
2
100
AcDbEntity
  8
1
  6
BYBLOCK
 62
     0
100
AcDbLine
 10
227.5703474512993
 20
211.4855411420608
 30
0.0
 11
227.5703474512993
 21
183.9455411420599
 31
0.0
  0
TEXT
  5
283
330
2
100
AcDbEntity
  8
1
  6
BYBLOCK
 62
     0
100
AcDbText
 10
233.7997137819165
 20
195.7407776190662
 30
0.0
 40
4.589999999999998
  1
K8G3~18B(C)
 41
0.8
  7
GHS
100
AcDbText
  0
TEXT
  5
284
330
2
100
AcDbEntity
  8
1
  6
BYBLOCK
 62
     0
100
AcDbText
 10
234.2010666845362
 20
186.5607776190659
 30
0.0
 40
4.589999999999998
  1
K8G25~180B(C)
 41
0.8
  7
GHS
100
AcDbText
  0
LINE
  5
285
330
2
100
AcDbEntity
  8
1
  6
BYBLOCK
 62
     0
100
AcDbLine
 10
286.8142605318171
 20
211.4855411420608
 30
0.0
 11
286.8142605318171
 21
183.9455411420599
 31
0.0
  0
ARC
  5
286
330
2
100
AcDbEntity
  8
0
100
AcDbCircle
 10
219.1568307580273
 20
133.6876315818485
 30
0.0
 40
0.5
100
AcDbArc
 50
90.0
 51
176.4687330000435
  0
LINE
  5
287
330
2
100
AcDbEntity
  8
0
100
AcDbLine
 10
217.6808583324855
 20
104.8841945318858
 30
0.0
 11
219.768570332486
 21
138.7149915318846
 31
0.0
  0
LINE
  5
288
330
2
100
AcDbEntity
  8
0
100
AcDbLine
 10
217.7975253324857
 20
104.184194531886
 30
0.0
 11
218.7975253324857
 21
98.18419453188608
 31
0.0
  0
LINE
  5
289
330
2
100
AcDbEntity
  8
0
100
AcDbLine
 10
218.4975253324846
 20
104.8841945318858
 30
0.0
 11
218.4975253324846
 21
104.184194531886
 31
0.0
  0
LINE
  5
28A
330
2
100
AcDbEntity
  8
0
100
AcDbLine
 10
290.8303983324858
 20
98.18419453188608
 30
0.0
 11
218.2808583324785
 21
98.18419453188608
 31
0.0
  0
LINE
  5
28B
330
2
100
AcDbEntity
  8
0
100
AcDbLine
 10
292.6775253324849
 20
104.184194531886
 30
0.0
 11
217.7975253324857
 21
104.184194531886
 31
0.0
  0
LINE
  5
28C
102
{ACAD_REACTORS
330
2CB
330
29F
102
}
330
2
100
AcDbEntity
  8
0
100
AcDbLine
 10
292.6775253324849
 20
104.8841945318858
 30
0.0
 11
217.6808583324855
 21
104.8841945318858
 31
0.0
  0
LINE
  5
28D
330
2
100
AcDbEntity
  8
0
100
AcDbLine
 10
290.2058303324847
 20
139.184194531886
 30
0.0
 11
220.2676213324848
 21
139.184194531886
 31
0.0
  0
LINE
  5
28E
330
2
100
AcDbEntity
  8
0
100
AcDbLine
 10
292.6775253324849
 20
104.8841945318858
 30
0.0
 11
290.7049833324854
 21
138.7132995318847
 31
0.0
  0
LINE
  5
28F
102
{ACAD_REACTORS
330
2B3
102
}
330
2
100
AcDbEntity
  8
0
100
AcDbLine
 10
292.6775253324849
 20
136.184194531886
 30
0.0
 11
292.6775253324849
 21
104.8841945318858
 31
0.0
  0
ARC
  5
290
330
2
100
AcDbEntity
  8
0
100
AcDbCircle
 10
290.8303983324858
 20
99.18419453188471
 30
0.0
 40
1.0
100
AcDbArc
 50
270.0
 51
350.5376779999607
  0
LINE
  5
291
330
2
100
AcDbEntity
  8
0
100
AcDbLine
 10
297.6775253324849
 20
134.1841945318847
 30
0.0
 11
297.6775253324849
 21
108.1841945318847
 31
0.0
  0
LINE
  5
292
330
2
100
AcDbEntity
  8
0
100
AcDbLine
 10
292.6775253324849
 20
104.184194531886
 30
0.0
 11
291.8167923324854
 21
99.01979553188585
 31
0.0
  0
LINE
  5
293
330
2
100
AcDbEntity
  8
0
100
AcDbLine
 10
291.977525332486
 20
104.8841945318858
 30
0.0
 11
291.977525332486
 21
104.184194531886
 31
0.0
  0
LINE
  5
294
330
2
100
AcDbEntity
  8
0
100
AcDbLine
 10
297.6775253324849
 20
134.1841945318847
 30
0.0
 11
292.6775253324849
 21
134.1841945318847
 31
0.0
  0
LINE
  5
295
330
2
100
AcDbEntity
  8
0
100
AcDbLine
 10
297.6775253324849
 20
129.184194531886
 30
0.0
 11
292.6775253324849
 21
129.184194531886
 31
0.0
  0
LINE
  5
296
330
2
100
AcDbEntity
  8
0
100
AcDbLine
 10
297.6775253324849
 20
126.684194531886
 30
0.0
 11
292.6775253324849
 21
126.684194531886
 31
0.0
  0
LINE
  5
297
330
2
100
AcDbEntity
  8
0
100
AcDbLine
 10
297.6775253324849
 20
115.684194531886
 30
0.0
 11
292.6775253324849
 21
115.684194531886
 31
0.0
  0
LINE
  5
298
330
2
100
AcDbEntity
  8
0
100
AcDbLine
 10
297.6775253324849
 20
113.184194531886
 30
0.0
 11
292.6775253324849
 21
113.184194531886
 31
0.0
  0
LINE
  5
299
330
2
100
AcDbEntity
  8
0
100
AcDbLine
 10
297.6775253324849
 20
108.1841945318847
 30
0.0
 11
292.6775253324849
 21
108.1841945318847
 31
0.0
  0
ARC
  5
29A
330
2
100
AcDbEntity
  8
0
100
AcDbCircle
 10
291.3241473324851
 20
136.6841945318847
 30
0.0
 40
0.5
100
AcDbArc
 50
183.3370830000376
 51
270.0
  0
LINE
  5
29B
102
{ACAD_REACTORS
330
29F
102
}
330
2
100
AcDbEntity
  8
0
100
AcDbLine
 10
292.6775253324849
 20
136.184194531886
 30
0.0
 11
291.3241473324851
 21
136.184194531886
 31
0.0
  0
ARC
  5
29C
330
2
100
AcDbEntity
  8
0
100
AcDbCircle
 10
290.2058303324847
 20
138.6841945318847
 30
0.0
 40
0.5
100
AcDbArc
 50
3.337083000037623
 51
90.0
  0
DIMENSION
  5
29D
102
{ACAD_XDICTIONARY
360
29E
102
}
102
{ACAD_REACTORS
330
29F
102
}
330
2
100
AcDbEntity
  8
0
100
AcDbDimension
  2
*D61
 10
292.6775253324849
 20
151.2397990365689
 30
0.0
 11
248.5807355752494
 21
151.2397990365689
 31
0.0
 70
   160
  3
STANDARD
100
AcDbAlignedDimension
 13
217.6808583324855
 23
104.8841945318858
 33
0.0
 14
292.6775253324849
 24
136.184194531886
 34
0.0
100
AcDbRotatedDimension
  0
LINE
  5
2AC
330
2
100
AcDbEntity
  8
CEN
 48
0.6
100
AcDbLine
 10
326.4613193324858
 20
121.184194531886
 30
0.0
 11
215.2522163794092
 21
121.184194531886
 31
0.0
  0
LINE
  5
2AD
330
2
100
AcDbEntity
  8
0
100
AcDbLine
 10
303.6775253324849
 20
111.1841945318847
 30
0.0
 11
297.6775253324849
 21
111.1841945318847
 31
0.0
  0
LINE
  5
2AE
330
2
100
AcDbEntity
  8
0
100
AcDbLine
 10
303.6775253324849
 20
112.184194531886
 30
0.0
 11
297.6775253324849
 21
112.184194531886
 31
0.0
  0
LINE
  5
2AF
330
2
100
AcDbEntity
  8
0
100
AcDbLine
 10
303.6775253324849
 20
131.1841945318847
 30
0.0
 11
297.6775253324849
 21
131.1841945318847
 31
0.0
  0
LINE
  5
2B0
330
2
100
AcDbEntity
  8
0
100
AcDbLine
 10
303.6775253324849
 20
130.184194531886
 30
0.0
 11
297.6775253324849
 21
130.184194531886
 31
0.0
  0
DIMENSION
  5
2B1
102
{ACAD_XDICTIONARY
360
2B2
102
}
102
{ACAD_REACTORS
330
2B3
102
}
330
2
100
AcDbEntity
  8
0
100
AcDbDimension
  2
*D60
 10
320.6775253324849
 20
151.2232280160574
 30
0.0
 11
306.6775253324849
 21
151.2232280160574
 31
0.0
 70
   160
  1
MAX. <>
  3
STANDARD
100
AcDbAlignedDimension
 13
292.6775253324849
 23
136.184194531886
 33
0.0
 14
320.6775253324849
 24
128.184194531886
 34
0.0
100
AcDbRotatedDimension
  0
LINE
  5
2C0
330
2
100
AcDbEntity
  8
0
100
AcDbLine
 10
274.7975253324857
 20
96.68419453188471
 30
0.0
 11
274.7975253324857
 21
86.34891287341179
 31
0.0
  0
LINE
  5
2C1
330
2
100
AcDbEntity
  8
0
100
AcDbLine
 10
274.7975253324857
 20
86.34891287341316
 30
0.0
 11
218.2808583324785
 21
86.34891287341179
 31
0.0
  0
LINE
  5
2C2
330
2
100
AcDbEntity
  8
0
100
AcDbLine
 10
218.2808583324785
 20
94.78293287341285
 30
0.0
 11
219.1808583324855
 21
94.78293287341285
 31
0.0
  0
LINE
  5
2C3
330
2
100
AcDbEntity
  8
0
100
AcDbLine
 10
218.2808583324785
 20
87.08293287341303
 30
0.0
 11
219.1808583324855
 21
87.08293287341303
 31
0.0
  0
LINE
  5
2C4
330
2
100
AcDbEntity
  8
0
100
AcDbLine
 10
219.1808583324855
 20
87.08293287341303
 30
0.0
 11
219.1808583324855
 21
94.78293287341285
 31
0.0
  0
LINE
  5
2C5
330
2
100
AcDbEntity
  8
0
100
AcDbLine
 10
290.1808583324855
 20
95.68419553188414
 30
0.0
 11
218.2808583324785
 21
95.68419553188414
 31
0.0
  0
LINE
  5
2C6
330
2
100
AcDbEntity
  8
0
100
AcDbLine
 10
296.1808583324854
 20
94.18419553188414
 30
0.0
 11
290.1808583324855
 21
94.18419553188414
 31
0.0
  0
LINE
  5
2C7
330
2
100
AcDbEntity
  8
0
100
AcDbLine
 10
297.1808583324855
 20
93.18419553188414
 30
0.0
 11
296.1808583324854
 21
94.18419553188414
 31
0.0
  0
ARC
  5
2C8
330
2
100
AcDbEntity
  8
0
100
AcDbCircle
 10
276.2975253324857
 20
96.68419453188471
 30
0.0
 40
1.5
100
AcDbArc
 50
90.0
 51
180.0
  0
DIMENSION
  5
2C9
102
{ACAD_XDICTIONARY
360
2CA
102
}
102
{ACAD_REACTORS
330
2CB
102
}
330
2
100
AcDbEntity
  8
0
100
AcDbDimension
  2
*D59
 10
217.6808583324855
 20
151.2397990365689
 30
0.0
 11
214.9308583324855
 21
151.2397990365689
 31
0.0
 70
   160
  3
STANDARD
100
AcDbAlignedDimension
 13
212.1808583324855
 23
96.68419553188597
 33
0.0
 14
217.6808583324855
 24
104.8841945318858
 34
0.0
100
AcDbRotatedDimension
  0
INSERT
  5
2DA
330
2
100
AcDbEntity
  8
0
100
AcDbBlockReference
  2
5
 10
100.2648553893486
 20
439.6190669492825
 30
0.0
  0
LINE
  5
2F8
330
2
100
AcDbEntity
  8
CEN
 48
0.6
100
AcDbLine
 10
100.2648553893486
 20
392.4469437408847
 30
0.0
 11
100.2648553893486
 21
486.7911901576799
 31
0.0
  0
LINE
  5
2F9
330
2
100
AcDbEntity
  8
0
 48
0.6
100
AcDbLine
 10
140.2648553893486
 20
474.6190669492839
 30
0.0
 11
140.2648553893486
 21
404.6190669492839
 31
0.0
  0
LINE
  5
2FA
330
2
100
AcDbEntity
  8
0
 48
0.6
100
AcDbLine
 10
60.26485538934867
 20
474.6190669492839
 30
0.0
 11
60.26485538934867
 21
404.6190669492839
 31
0.0
  0
CIRCLE
  5
2FB
330
2
100
AcDbEntity
  8
0
 48
0.6
100
AcDbCircle
 10
100.2648553893486
 20
439.6190669492825
 30
0.0
 40
37.00000000000005
  0
DIMENSION
  5
2FC
102
{ACAD_XDICTIONARY
360
2FD
102
}
102
{ACAD_REACTORS
330
2FE
102
}
330
2
100
AcDbEntity
  8
0
100
AcDbDimension
  2
*D62
 10
175.9567064693365
 20
476.1190669492816
 30
0.0
 11
175.9567064693364
 21
439.6190669492825
 31
0.0
 70
   160
  1
\A1;{\f??|b0|i0|c0|p49;%%C}<>{\f??|b0|i0|c0|p49;\H0.7x;\S+0^ -0.030;\H1.429x;(h7)}
  3
STANDARD
100
AcDbAlignedDimension
 13
199.4578038607087
 23
403.1190669492816
 33
0.0
 14
199.4578038607087
 24
476.1190669492816
 34
0.0
 50
90.0
100
AcDbRotatedDimension
  0
LINE
  5
30B
330
2
100
AcDbEntity
  8
0
100
AcDbLine
 10
201.4578038607087
 20
479.6190669492825
 30
0.0
 11
201.4578038607087
 21
399.6190669492816
 31
0.0
  0
LINE
  5
30C
102
{ACAD_REACTORS
330
2FE
102
}
330
2
100
AcDbEntity
  8
0
100
AcDbLine
 10
199.4578038607087
 20
476.1190669492816
 30
0.0
 11
199.4578038607087
 21
403.1190669492816
 31
0.0
  0
LINE
  5
30D
330
2
100
AcDbEntity
  8
0
100
AcDbLine
 10
233.4578038607087
 20
479.6190669492825
 30
0.0
 11
233.4578038607087
 21
399.6190669492816
 31
0.0
  0
DIMENSION
  5
30E
330
2
100
AcDbEntity
  8
0
100
AcDbDimension
  2
*D64
 10
161.2047353542875
 20
290.6897220659243
 30
0.0
 11
161.2047353542875
 21
307.6897220659257
 31
0.0
 70
   160
  1
{\f??|b0|i0|c0|p49;%%c}<>
  3
STANDARD
100
AcDbAlignedDimension
 13
224.2191172458587
 23
324.6897220659247
 33
0.0
 14
224.2191172458587
 24
290.6897220659243
 34
0.0
 50
90.0
100
AcDbRotatedDimension
  0
DIMENSION
  5
31B
102
{ACAD_XDICTIONARY
360
31C
102
}
102
{ACAD_REACTORS
330
31D
102
}
330
2
100
AcDbEntity
  8
0
100
AcDbDimension
  2
*D63
 10
170.8725705743581
 20
292.6897220659256
 30
0.0
 11
168.3725705743581
 21
300.1897220659257
 31
0.0
 70
    32
  3
STANDARD
100
AcDbAlignedDimension
 13
190.8209784446262
 23
307.6897220659257
 33
0.0
 14
183.1114441117479
 24
292.6897220659256
 34
0.0
 50
90.0
100
AcDbRotatedDimension
  0
ARC
  5
32A
330
2
100
AcDbEntity
  8
0
 48
0.6
100
AcDbCircle
 10
135.2648553893486
 20
404.6190669492839
 30
0.0
 40
5.0
100
AcDbArc
 50
270.0
 51
0.0
  0
LINE
  5
32B
330
2
100
AcDbEntity
  8
0
 48
0.6
100
AcDbLine
 10
119.7170433529081
 20
399.6190669492825
 30
0.0
 11
113.9759931263761
 21
399.6190669492825
 31
0.0
  0
ARC
  5
32C
330
2
100
AcDbEntity
  8
0
 48
0.6
100
AcDbCircle
 10
65.26485538934867
 20
404.6190669492839
 30
0.0
 40
5.0
100
AcDbArc
 50
180.0
 51
270.0
  0
LINE
  5
32D
330
2
100
AcDbEntity
  8
0
 48
0.6
100
AcDbLine
 10
65.26485538934867
 20
399.6190669492825
 30
0.0
 11
135.2648553893486
 21
399.6190669492825
 31
0.0
  0
LINE
  5
32E
330
2
100
AcDbEntity
  8
0
 48
0.6
100
AcDbLine
 10
54.06599665335853
 20
332.6897220659247
 30
0.0
 11
124.0659966533585
 21
332.6897220659247
 31
0.0
  0
ARC
  5
32F
330
2
100
AcDbEntity
  8
0
 48
0.6
100
AcDbCircle
 10
54.06599665335853
 20
327.6897220659257
 30
0.0
 40
5.0
100
AcDbArc
 50
90.0
 51
180.0
  0
ARC
  5
330
330
2
100
AcDbEntity
  8
0
 48
0.6
100
AcDbCircle
 10
124.0659966533585
 20
327.6897220659257
 30
0.0
 40
5.0
100
AcDbArc
 50
0.0
 51
90.0
  0
LINE
  5
331
330
2
100
AcDbEntity
  8
0
 48
0.6
100
AcDbLine
 10
54.06599665335853
 20
252.6897220659243
 30
0.0
 11
124.0659966533585
 21
252.6897220659243
 31
0.0
  0
ARC
  5
332
330
2
100
AcDbEntity
  8
0
 48
0.6
100
AcDbCircle
 10
54.06599665335853
 20
257.6897220659257
 30
0.0
 40
5.0
100
AcDbArc
 50
180.0
 51
270.0
  0
ARC
  5
333
330
2
100
AcDbEntity
  8
0
 48
0.6
100
AcDbCircle
 10
124.0659966533585
 20
257.6897220659257
 30
0.0
 40
5.0
100
AcDbArc
 50
270.0
 51
0.0
  0
LINE
  5
334
330
2
100
AcDbEntity
  8
CEN
 48
0.6
100
AcDbLine
 10
69.60039436581792
 20
307.6897220659257
 30
0.0
 11
108.4520921810872
 21
307.6897220659257
 31
0.0
  0
LINE
  5
335
330
2
100
AcDbEntity
  8
0
 48
0.6
100
AcDbLine
 10
87.06599665335852
 20
310.1897220659257
 30
0.0
 11
91.06599665335853
 21
310.1897220659257
 31
0.0
  0
LINE
  5
336
102
{ACAD_REACTORS
330
AE
102
}
330
2
100
AcDbEntity
  8
0
 48
0.6
100
AcDbLine
 10
129.0659966533585
 20
327.6897220659257
 30
0.0
 11
129.0659966533585
 21
257.6897220659257
 31
0.0
  0
LINE
  5
337
330
2
100
AcDbEntity
  8
0
 48
0.6
100
AcDbLine
 10
49.06599665335853
 20
327.6897220659257
 30
0.0
 11
49.06599665335853
 21
257.6897220659257
 31
0.0
  0
CIRCLE
  5
338
330
2
100
AcDbEntity
  8
0
 48
0.6
100
AcDbCircle
 10
89.06599665335852
 20
307.6897220659257
 30
0.0
 40
17.0
  0
CIRCLE
  5
339
330
2
100
AcDbEntity
  8
0
 48
0.6
100
AcDbCircle
 10
89.06599665335852
 20
307.6897220659257
 30
0.0
 40
5.0
  0
LINE
  5
33A
330
2
100
AcDbEntity
  8
0
 62
     0
 48
0.6
100
AcDbLine
 10
87.06599665335852
 20
312.2722977608805
 30
0.0
 11
87.06599665335852
 21
310.1897220659257
 31
0.0
  0
LINE
  5
33B
330
2
100
AcDbEntity
  8
0
 62
     0
 48
0.6
100
AcDbLine
 10
91.06599665335853
 20
312.2722977608805
 30
0.0
 11
91.06599665335853
 21
310.1897220659257
 31
0.0
  0
CIRCLE
  5
33C
330
2
100
AcDbEntity
  8
0
 48
0.6
100
AcDbCircle
 10
89.06599665335852
 20
292.6897220659256
 30
0.0
 40
36.5
  0
LINE
  5
33D
330
2
100
AcDbEntity
  8
CEN
 48
0.6
100
AcDbLine
 10
89.06599665335852
 20
245.5175988575283
 30
0.0
 11
89.06599665335852
 21
339.8618452743225
 31
0.0
  0
LINE
  5
33E
330
2
100
AcDbEntity
  8
CEN
 48
0.6
100
AcDbLine
 10
89.06599665335852
 20
245.5175988575283
 30
0.0
 11
89.06599665335852
 21
339.8618452743217
 31
0.0
  0
INSERT
  5
33F
330
2
100
AcDbEntity
  8
0
100
AcDbBlockReference
  2
5
 10
89.06599665335852
 20
292.6897220659256
 30
0.0
  0
LINE
  5
340
330
2
100
AcDbEntity
  8
CEN
 48
0.6
100
AcDbLine
 10
44.98900692776806
 20
292.6897220659256
 30
0.0
 11
133.142986378958
 21
292.6897220659256
 31
0.0
  0
LINE
  5
341
330
2
100
AcDbEntity
  8
CEN
 48
0.6
100
AcDbLine
 10
44.98900692776806
 20
292.6897220659256
 30
0.0
 11
133.142986378958
 21
292.6897220659256
 31
0.0
  0
MTEXT
  5
342
102
{ACAD_REACTORS
330
343
102
}
330
2
100
AcDbEntity
  8
0
 62
     3
100
AcDbMText
 10
108.5203325239872
 20
350.3031612196487
 30
0.0
 40
3.0
 41
0.0
 71
     9
 72
     1
  1
4-%%c5.5 hole
1001
ACAD
1000
MTEXTBEGIN
1070
    73
1070
     1
1070
    44
1040
1.0
1070
    74
1070
     0
1000
MTEXTEND
  0
LEADER
  5
343
330
2
100
AcDbEntity
  8
0
100
AcDbLeader
  3
STANDARD
 73
     0
 75
     1
 40
3.0
 41
26.65178571428571
 76
     3
 10
122.3000153691264
 20
328.6737407816926
 30
0.0
 10
112.0203325239872
 20
348.8870843734134
 30
0.0
 10
109.5203325239872
 20
348.8870843734134
 30
0.0
340
342
213
0.0
223
-0.416076846235228
233
0.0
1001
ACAD
1000
DSTYLE
1002
{
1070
     5
1000

1070
   342
1005
0
1002
}
  0
LINE
  5
344
330
2
100
AcDbEntity
  8
0
100
AcDbLine
 10
201.4578038607087
 20
399.6190669492816
 30
0.0
 11
233.4578038607087
 21
399.6190669492816
 31
0.0
  0
LINE
  5
345
330
2
100
AcDbEntity
  8
0
100
AcDbLine
 10
201.4578038607087
 20
403.1190669492816
 30
0.0
 11
199.4578038607087
 21
403.1190669492816
 31
0.0
  0
LINE
  5
346
102
{ACAD_REACTORS
330
31D
102
}
330
2
100
AcDbEntity
  8
CEN
 48
0.6
100
AcDbLine
 10
183.1114441117479
 20
292.6897220659256
 30
0.0
 11
282.3785865854751
 21
292.6897220659256
 31
0.0
  0
LINE
  5
347
102
{ACAD_REACTORS
330
31D
102
}
330
2
100
AcDbEntity
  8
CEN
  6
BYBLOCK
 62
     0
100
AcDbLine
 10
223.7191172458496
 20
302.6897220659257
 30
0.0
 11
194.7191172458497
 21
302.6897220659257
 31
0.0
  0
LINE
  5
348
102
{ACAD_REACTORS
330
31D
102
}
330
2
100
AcDbEntity
  8
CEN
 48
0.6
100
AcDbLine
 10
234.4670646285576
 20
307.6897220659257
 30
0.0
 11
190.8209784446262
 21
307.6897220659257
 31
0.0
  0
LINE
  5
349
102
{ACAD_REACTORS
330
31D
330
34D
330
35C
102
}
330
2
100
AcDbEntity
  8
CEN
  6
BYBLOCK
 62
     0
100
AcDbLine
 10
223.7191172458496
 20
312.6897220659257
 30
0.0
 11
194.7191172458497
 21
312.6897220659257
 31
0.0
  0
LINE
  5
34A
102
{ACAD_REACTORS
330
31D
102
}
330
2
100
AcDbEntity
  8
CEN
  6
HIDDEN
 62
     2
100
AcDbLine
 10
219.7191172458587
 20
310.1897220659257
 30
0.0
 11
194.7191172458497
 21
310.1897220659257
 31
0.0
  0
DIMENSION
  5
34B
102
{ACAD_XDICTIONARY
360
34C
102
}
102
{ACAD_REACTORS
330
34D
102
}
330
2
100
AcDbEntity
  8
0
100
AcDbDimension
  2
*D67
 10
194.7191172458497
 20
328.9100102728266
 30
0.0
 11
207.5300479132493
 21
328.9100102728266
 31
0.0
 70
   160
  3
STANDARD
100
AcDbAlignedDimension
 13
219.7191172458587
 23
312.6897220659257
 33
0.0
 14
194.7191172458497
 24
312.6897220659248
 34
0.0
 50
180.0
100
AcDbRotatedDimension
  0
DIMENSION
  5
35A
102
{ACAD_XDICTIONARY
360
35B
102
}
102
{ACAD_REACTORS
330
35C
102
}
330
2
100
AcDbEntity
  8
0
100
AcDbDimension
  2
*D66
 10
179.8944539568765
 20
312.6897220659257
 30
0.0
 11
179.8944539568765
 21
340.800655991668
 31
0.0
 70
   160
  1
\A1;{\f??|b0|i0|c0|p49;%%C10\H0.7x;\S+0^ -0.015;\H1.429x;(h7)}
  3
STANDARD
100
AcDbAlignedDimension
 13
194.7191172458497
 23
302.6897220659257
 33
0.0
 14
194.7191172458497
 24
312.6897220659257
 34
0.0
 50
90.0
100
AcDbRotatedDimension
  0
LINE
  5
36B
102
{ACAD_REACTORS
330
35C
102
}
330
2
100
AcDbEntity
  8
0
100
AcDbLine
 10
194.7191172458497
 20
312.6897220659257
 30
0.0
 11
194.7191172458497
 21
302.6897220659257
 31
0.0
  0
ARC
  5
36C
330
2
100
AcDbEntity
  8
0
100
AcDbCircle
 10
224.2191172458587
 20
291.1897220659257
 30
0.0
 40
0.5
100
AcDbArc
 50
180.0
 51
270.0
  0
DIMENSION
  5
36D
330
2
100
AcDbEntity
  8
0
100
AcDbDimension
  2
*D65
 10
223.7191172458496
 20
339.2996499748301
 30
0.0
 11
225.2191172458497
 21
339.2996499748301
 31
0.0
 70
   160
  3
STANDARD
100
AcDbAlignedDimension
 13
226.7191172458497
 23
332.1897220659248
 33
0.0
 14
223.7191172458496
 24
324.1897220659248
 34
0.0
 50
180.0
100
AcDbRotatedDimension
  0
ARC
  5
37C
330
2
100
AcDbEntity
  8
0
100
AcDbCircle
 10
224.2191172458587
 20
324.1897220659257
 30
0.0
 40
0.5
100
AcDbArc
 50
90.0
 51
180.0
  0
LINE
  5
37D
102
{ACAD_REACTORS
330
34D
102
}
330
2
100
AcDbEntity
  8
0
  6
HIDDEN
 62
     2
100
AcDbLine
 10
219.7191172458587
 20
312.6897220659257
 30
0.0
 11
219.7191172458587
 21
310.1897220659257
 31
0.0
  0
LINE
  5
37E
330
2
100
AcDbEntity
  8
0
100
AcDbLine
 10
269.2191172458588
 20
332.1897220659256
 30
0.0
 11
269.2191172458588
 21
253.1897220659256
 31
0.0
  0
LINE
  5
37F
330
2
100
AcDbEntity
  8
0
100
AcDbLine
 10
269.2191172458588
 20
253.1897220659256
 30
0.0
 11
268.2191172458587
 21
253.1897220659256
 31
0.0
  0
LINE
  5
380
330
2
100
AcDbEntity
  8
0
100
AcDbLine
 10
268.2191172458587
 20
253.1897220659256
 30
0.0
 11
268.2191172458587
 21
252.6897220659243
 31
0.0
  0
LINE
  5
381
330
2
100
AcDbEntity
  8
0
100
AcDbLine
 10
269.2191172458588
 20
332.1897220659256
 30
0.0
 11
268.2191172458587
 21
332.1897220659256
 31
0.0
  0
LINE
  5
382
330
2
100
AcDbEntity
  8
0
100
AcDbLine
 10
268.2191172458587
 20
332.6897220659247
 30
0.0
 11
268.2191172458587
 21
332.1897220659256
 31
0.0
  0
LINE
  5
383
330
2
100
AcDbEntity
  8
0
100
AcDbLine
 10
226.7191172458497
 20
332.1897220659256
 30
0.0
 11
226.7191172458497
 21
253.1897220659256
 31
0.0
  0
LINE
  5
384
330
2
100
AcDbEntity
  8
0
100
AcDbLine
 10
223.7191172458496
 20
324.1897220659257
 30
0.0
 11
223.7191172458496
 21
293.1897220659257
 31
0.0
  0
ARC
  5
385
330
2
100
AcDbEntity
  8
0
100
AcDbCircle
 10
227.2191172458588
 20
253.1897220659256
 30
0.0
 40
0.5
100
AcDbArc
 50
180.0
 51
270.0
  0
LINE
  5
386
330
2
100
AcDbEntity
  8
0
100
AcDbLine
 10
224.2191172458587
 20
290.6897220659256
 30
0.0
 11
226.7191172458497
 21
290.6897220659256
 31
0.0
  0
ARC
  5
387
330
2
100
AcDbEntity
  8
0
100
AcDbCircle
 10
227.2191172458588
 20
332.1897220659256
 30
0.0
 40
0.5
100
AcDbArc
 50
90.0
 51
180.0
  0
LINE
  5
388
330
2
100
AcDbEntity
  8
0
100
AcDbLine
 10
224.2191172458587
 20
324.6897220659257
 30
0.0
 11
226.7191172458497
 21
324.6897220659257
 31
0.0
  0
LINE
  5
389
330
2
100
AcDbEntity
  8
0
100
AcDbLine
 10
268.2191172458587
 20
252.6897220659243
 30
0.0
 11
227.2191172458588
 21
252.6897220659243
 31
0.0
  0
LINE
  5
38A
330
2
100
AcDbEntity
  8
0
100
AcDbLine
 10
268.2191172458587
 20
332.6897220659247
 30
0.0
 11
227.2191172458588
 21
332.6897220659247
 31
0.0
  0
ARC
  5
38B
330
2
100
AcDbEntity
  8
2
 62
     7
100
AcDbCircle
 10
224.2191172458587
 20
291.1897220659257
 30
0.0
 40
0.4999999999999967
100
AcDbArc
 50
180.0
 51
270.0
  0
LINE
  5
38C
330
2
100
AcDbEntity
  8
2
 62
     7
100
AcDbLine
 10
223.7191172458496
 20
291.1897220659257
 30
0.0
 11
223.7191172458496
 21
292.6897220659256
 31
0.0
  0
LINE
  5
38D
330
2
100
AcDbEntity
  8
2
 62
     7
100
AcDbLine
 10
226.7191172458497
 20
290.6897220659256
 30
0.0
 11
224.2191172458587
 21
290.6897220659256
 31
0.0
  0
ARC
  5
38E
102
{ACAD_REACTORS
330
394
102
}
330
2
100
AcDbEntity
  8
0
 48
0.6
100
AcDbCircle
 10
135.2648553893486
 20
474.6190669492839
 30
0.0
 40
5.0
100
AcDbArc
 50
0.0
 51
90.0
  0
CIRCLE
  5
38F
330
2
100
AcDbEntity
  8
0
 48
0.6
100
AcDbCircle
 10
100.2648553893486
 20
439.6190669492825
 30
0.0
 40
3.604999999999998
  0
CIRCLE
  5
390
330
2
100
AcDbEntity
  8
0
 48
0.6
100
AcDbCircle
 10
100.2648553893486
 20
439.6190669492825
 30
0.0
 40
2.460898870766981
  0
ARC
  5
391
102
{ACAD_REACTORS
330
394
102
}
330
2
100
AcDbEntity
  8
0
 48
0.6
100
AcDbCircle
 10
65.26485538934867
 20
474.6190669492839
 30
0.0
 40
5.0
100
AcDbArc
 50
90.0
 51
180.0
  0
DIMENSION
  5
392
102
{ACAD_XDICTIONARY
360
393
102
}
102
{ACAD_REACTORS
330
394
102
}
330
2
100
AcDbEntity
  8
0
100
AcDbDimension
  2
*D68
 10
140.2648553893486
 20
494.0936335990218
 30
0.0
 11
101.8735767739872
 21
494.0936335990218
 31
0.0
 70
   160
  3
STANDARD
100
AcDbAlignedDimension
 13
60.26485538934867
 23
474.6190669492839
 33
0.0
 14
140.2648553893486
 24
474.6190669492839
 34
0.0
100
AcDbRotatedDimension
  0
LINE
  5
3A1
330
2
100
AcDbEntity
  8
0
 48
0.6
100
AcDbLine
 10
65.26485538934867
 20
479.6190669492825
 30
0.0
 11
135.2648553893486
 21
479.6190669492825
 31
0.0
  0
LINE
  5
3A2
330
2
100
AcDbEntity
  8
CEN
 48
0.6
100
AcDbLine
 10
56.18786566374911
 20
439.6190669492825
 30
0.0
 11
144.3418451149373
 21
439.6190669492825
 31
0.0
  0
LWPOLYLINE
  5
3A3
330
2
100
AcDbEntity
  8
3
100
AcDbPolyline
 90
        4
 70
     1
 43
0.0
 10
94.96563147639973
 20
494.9070708158378
 10
98.265631476399
 20
494.9070708158378
 10
98.265631476399
 20
498.4070708158379
 10
94.96563147639973
 20
498.4070708158379
  0
MTEXT
  5
3A4
102
{ACAD_REACTORS
330
3A5
102
}
330
2
100
AcDbEntity
  8
0
 62
     3
100
AcDbMText
 10
119.9532617133991
 20
506.2264223480829
 30
0.0
 40
3.0
 41
0.0
 71
     9
 72
     1
  1
4-%%c5.5 hole
1001
ACAD
1000
MTEXTBEGIN
1070
    73
1070
     1
1070
    44
1040
1.0
1070
    74
1070
     0
1000
MTEXTEND
  0
LEADER
  5
3A5
330
2
100
AcDbEntity
  8
0
100
AcDbLeader
  3
STANDARD
 73
     0
 75
     1
 40
3.0
 41
26.65178571428571
 76
     3
 10
133.7329445585273
 20
475.6030856650477
 30
0.0
 10
123.4532617133991
 20
504.8103455018476
 30
0.0
 10
120.9532617133991
 20
504.8103455018476
 30
0.0
340
3A4
213
0.0
223
-0.416076846235228
233
0.0
1001
ACAD
1000
DSTYLE
1002
{
1070
     5
1000

1070
   342
1005
0
1002
}
  0
DIMENSION
  5
3A6
102
{ACAD_XDICTIONARY
360
3A7
102
}
102
{ACAD_REACTORS
330
3A8
102
}
330
2
100
AcDbEntity
  8
0
100
AcDbDimension
  2
*D71
 10
233.4578038607087
 20
499.4755585692237
 30
0.0
 11
217.4578038607087
 21
499.4755585692237
 31
0.0
 70
   160
  3
STANDARD
100
AcDbAlignedDimension
 13
201.4578038607087
 23
479.6190669492825
 33
0.0
 14
233.4578038607087
 24
479.6190669492825
 34
0.0
100
AcDbRotatedDimension
  0
LINE
  5
3B5
102
{ACAD_REACTORS
330
3A8
102
}
330
2
100
AcDbEntity
  8
0
100
AcDbLine
 10
201.4578038607087
 20
479.6190669492825
 30
0.0
 11
233.4578038607087
 21
479.6190669492825
 31
0.0
  0
LINE
  5
3B6
330
2
100
AcDbEntity
  8
CEN
 48
0.6
100
AcDbLine
 10
242.5710370050856
 20
439.6190669492825
 30
0.0
 11
183.8140100600776
 21
439.6190669492825
 31
0.0
  0
DIMENSION
  5
3B7
330
2
100
AcDbEntity
  8
0
100
AcDbDimension
  2
*D70
 10
201.4578038607087
 20
489.1815546743128
 30
0.0
 11
192.4578038607087
 21
489.1815546743128
 31
0.0
 70
   160
  3
STANDARD
100
AcDbAlignedDimension
 13
199.4578038607087
 23
476.1190669492816
 33
0.0
 14
201.4578038607087
 24
479.6190669492825
 34
0.0
100
AcDbRotatedDimension
  0
DIMENSION
  5
3C6
330
2
100
AcDbEntity
  8
0
100
AcDbDimension
  2
*D69
 10
201.4578038607087
 20
499.4755585692228
 30
0.0
 11
195.2078038607087
 21
499.4755585692228
 31
0.0
 70
   160
  3
STANDARD
100
AcDbAlignedDimension
 13
187.9578038607087
 23
442.7240669492825
 33
0.0
 14
201.4578038607087
 24
479.6190669492825
 34
0.0
100
AcDbRotatedDimension
  0
LINE
  5
3D3
330
2
100
AcDbEntity
  8
0
100
AcDbLine
 10
201.4578038607087
 20
476.1190669492816
 30
0.0
 11
199.4578038607087
 21
476.1190669492816
 31
0.0
  0
ARC
  5
3D4
330
2
100
AcDbEntity
  8
0
100
AcDbCircle
 10
194.5009907715484
 20
469.140297838303
 30
0.0
 40
26.81626566475105
100
AcDbArc
 50
269.9077265708258
 51
280.6520097392901
  0
ARC
  5
3D5
330
2
100
AcDbEntity
  8
0
100
AcDbCircle
 10
194.5009907715357
 20
410.0978360602325
 30
0.0
 40
26.81626566478071
100
AcDbArc
 50
79.34799026071575
 51
90.09227342916824
  0
LINE
  5
3D6
330
2
100
AcDbEntity
  8
0
100
AcDbLine
 10
188.4578038607087
 20
443.2240669492825
 30
0.0
 11
199.4578038607087
 21
443.2240669492825
 31
0.0
  0
LINE
  5
3D7
330
2
100
AcDbEntity
  8
0
100
AcDbLine
 10
188.4578038607087
 20
436.0140669492825
 30
0.0
 11
199.4578038607087
 21
436.0140669492825
 31
0.0
  0
LINE
  5
3D8
330
2
100
AcDbEntity
  8
0
100
AcDbLine
 10
188.4578038607087
 20
443.2240669492825
 30
0.0
 11
187.9578038607087
 21
442.7240669492825
 31
0.0
  0
LINE
  5
3D9
330
2
100
AcDbEntity
  8
0
100
AcDbLine
 10
187.9578038607087
 20
442.3240669492825
 30
0.0
 11
194.4578038607087
 21
442.3240669492825
 31
0.0
  0
LINE
  5
3DA
330
2
100
AcDbEntity
  8
0
100
AcDbLine
 10
187.9578038607087
 20
436.5140669492816
 30
0.0
 11
188.4578038607087
 21
436.0140669492816
 31
0.0
  0
LINE
  5
3DB
330
2
100
AcDbEntity
  8
0
100
AcDbLine
 10
187.9578038607087
 20
436.9140669492826
 30
0.0
 11
194.4578038607087
 21
436.9140669492826
 31
0.0
  0
LINE
  5
3DC
330
2
100
AcDbEntity
  8
2
100
AcDbLine
 10
194.4578038607087
 20
440.3843664109031
 30
0.0
 11
188.4578038607087
 21
437.2565151461467
 31
0.0
  0
LINE
  5
3DD
330
2
100
AcDbEntity
  8
2
100
AcDbLine
 10
194.4578038607087
 20
442.3240669492825
 30
0.0
 11
194.4578038607087
 21
436.9140669492826
 31
0.0
  0
LINE
  5
3DE
330
2
100
AcDbEntity
  8
0
100
AcDbLine
 10
187.9578038607087
 20
442.7240669492825
 30
0.0
 11
187.9578038607087
 21
436.5140669492816
 31
0.0
  0
LINE
  5
3DF
330
2
100
AcDbEntity
  8
2
100
AcDbLine
 10
188.4578038607087
 20
443.2240669492825
 30
0.0
 11
188.4578038607087
 21
436.0140669492816
 31
0.0
  0
LINE
  5
3E0
330
2
100
AcDbEntity
  8
2
100
AcDbLine
 10
194.0117008709276
 20
442.3240669492825
 30
0.0
 11
188.4578038607087
 21
439.5183410071186
 31
0.0
  0
LINE
  5
3E1
330
2
100
AcDbEntity
  8
2
100
AcDbLine
 10
194.4578038607087
 20
441.5390669492826
 30
0.0
 11
188.4578038607087
 21
438.36364046874
 31
0.0
  0
ENDSEC
  0
SECTION
  2
OBJECTS
  0
DICTIONARY
  5
9
330
0
100
AcDbDictionary
  3
ACAD_GROUP
350
98
  3
ACAD_LAYOUT
350
D
  3
ACAD_MLINESTYLE
350
99
  3
ACAD_PLOTSETTINGS
350
9A
  3
ACAD_PLOTSTYLENAME
350
8
  3
ACDBHEADERROUNDTRIPXREC
350
5A4
  3
ACDBVARIABLEDICTIONARY
350
3E2
  0
DICTIONARY
  5
15
330
14
100
AcDbDictionary
280
     1
  3
ACAD_LAYERFILTERS
360
16
  3
ACAD_LAYERSTATES
360
89
  0
DICTIONARY
  5
3
330
2
100
AcDbDictionary
280
     1
  3
ACAD_LAYOUTSELFREF
360
5C5
  0
DICTIONARY
  5
F
330
E
100
AcDbDictionary
280
     1
  3
ACAD_LAYOUTSELFREF
360
5C6
  0
DICTIONARY
  5
2E0
330
2DF
100
AcDbDictionary
280
     1
  3
ACAD_DIMASSOC
360
2E1
  0
DICTIONARY
  5
AD
330
AC
100
AcDbDictionary
280
     1
  3
ACAD_DIMASSOC
360
AE
  0
DICTIONARY
  5
D1
330
D0
100
AcDbDictionary
280
     1
  3
ACAD_DIMASSOC
360
D2
  0
DICTIONARY
  5
F1
330
F0
100
AcDbDictionary
280
     1
  3
ACAD_DIMASSOC
360
F2
  0
DICTIONARY
  5
10F
330
10E
100
AcDbDictionary
280
     1
  3
ACAD_DIMASSOC
360
110
  0
DICTIONARY
  5
147
330
146
100
AcDbDictionary
280
     1
  3
ACAD_DIMASSOC
360
148
  0
DICTIONARY
  5
156
330
155
100
AcDbDictionary
280
     1
  3
ACAD_DIMASSOC
360
157
  0
DICTIONARY
  5
19E
330
19D
100
AcDbDictionary
280
     1
  3
ACAD_DIMASSOC
360
19F
  0
DICTIONARY
  5
1AF
330
1AE
100
AcDbDictionary
280
     1
  3
ACAD_DIMASSOC
360
1B0
  0
DICTIONARY
  5
1C0
330
1BF
100
AcDbDictionary
280
     1
  3
ACAD_DIMASSOC
360
1C1
  0
DICTIONARY
  5
1E0
330
1DF
100
AcDbDictionary
280
     1
  3
ACAD_DIMASSOC
360
1E1
  0
DICTIONARY
  5
1F0
330
1EF
100
AcDbDictionary
280
     1
  3
ACAD_DIMASSOC
360
1F1
  0
DICTIONARY
  5
228
330
227
100
AcDbDictionary
280
     1
  3
ACAD_DIMASSOC
360
229
  0
DICTIONARY
  5
248
330
247
100
AcDbDictionary
280
     1
  3
ACAD_DIMASSOC
360
249
  0
DICTIONARY
  5
29E
330
29D
100
AcDbDictionary
280
     1
  3
ACAD_DIMASSOC
360
29F
  0
DICTIONARY
  5
2B2
330
2B1
100
AcDbDictionary
280
     1
  3
ACAD_DIMASSOC
360
2B3
  0
DICTIONARY
  5
2CA
330
2C9
100
AcDbDictionary
280
     1
  3
ACAD_DIMASSOC
360
2CB
  0
DICTIONARY
  5
2FD
330
2FC
100
AcDbDictionary
280
     1
  3
ACAD_DIMASSOC
360
2FE
  0
DICTIONARY
  5
31C
330
31B
100
AcDbDictionary
280
     1
  3
ACAD_DIMASSOC
360
31D
  0
DICTIONARY
  5
34C
330
34B
100
AcDbDictionary
280
     1
  3
ACAD_DIMASSOC
360
34D
  0
DICTIONARY
  5
35B
330
35A
100
AcDbDictionary
280
     1
  3
ACAD_DIMASSOC
360
35C
  0
DICTIONARY
  5
393
330
392
100
AcDbDictionary
280
     1
  3
ACAD_DIMASSOC
360
394
  0
DICTIONARY
  5
3A7
330
3A6
100
AcDbDictionary
280
     1
  3
ACAD_DIMASSOC
360
3A8
  0
DICTIONARY
  5
98
102
{ACAD_REACTORS
330
9
102
}
330
9
100
AcDbDictionary
  0
DICTIONARY
  5
D
102
{ACAD_REACTORS
330
9
102
}
330
9
100
AcDbDictionary
  0
DICTIONARY
  5
99
102
{ACAD_REACTORS
330
9
102
}
330
9
100
AcDbDictionary
  3
STANDARD
350
9B
  0
DICTIONARY
  5
9A
102
{ACAD_REACTORS
330
9
102
}
330
9
100
AcDbDictionary
  0
ACDBDICTIONARYWDFLT
  5
8
102
{ACAD_REACTORS
330
9
102
}
330
9
100
AcDbDictionary
281
     1
  3
Normal
350
7
100
AcDbDictionaryWithDefault
340
7
  0
DICTIONARY
  5
5A4
102
{ACAD_REACTORS
330
9
102
}
330
9
100
AcDbDictionary
  3
CEPSNTYPE
350
5AE
  3
DIMSTYLEDATA
350
5B2
  3
FINGERPRINTGUID
350
5AF
  3
HYPERLINKBASE
350
5A7
  3
INSUNITS
350
5AD
  3
LAYOUTDICT
350
5A9
  3
LWETCUNION
350
5AC
  3
PLOTSETDICT
350
5AA
  3
PLOTSTYLNAMDICT
350
5AB
  3
PSVPSCALE
350
5B1
  3
PUCSBASE
350
5B5
  3
PUCSORGBACK
350
5BB
  3
PUCSORGBOTTOM
350
5B7
  3
PUCSORGFRONT
350
5BA
  3
PUCSORGLEFT
350
5B8
  3
PUCSORGRIGHT
350
5B9
  3
PUCSORGTOP
350
5B6
  3
PUCSORTHOREF
350
5B3
  3
PUCSORTHOVIEW
350
5B4
  3
STYLESHEET
350
5A8
  3
TSTACKALIGN
350
5A5
  3
TSTACKSIZE
350
5A6
  3
UCSBASE
350
5BE
  3
UCSORGBACK
350
5C4
  3
UCSORGBOTTOM
350
5C0
  3
UCSORGFRONT
350
5C3
  3
UCSORGLEFT
350
5C1
  3
UCSORGRIGHT
350
5C2
  3
UCSORGTOP
350
5BF
  3
UCSORTHOREF
350
5BC
  3
UCSORTHOVIEW
350
5BD
  3
VERSIONGUID
350
5B0
  0
DICTIONARY
  5
3E2
102
{ACAD_REACTORS
330
9
102
}
330
9
100
AcDbDictionary
  3
DIMASSOC
350
3E4
  3
HIDETEXT
350
3E3
  0
DICTIONARY
  5
16
102
{ACAD_REACTORS
330
15
102
}
330
15
100
AcDbDictionary
280
     1
  3
$LAYERS
360
17
  3
-_UND_0
360
18
  3
-PEGC
360
19
  3
101
360
1A
  3
102
360
1B
  3
1DUC
360
1C
  3
1EQ
360
1D
  3
1TUB
360
1E
  3
2
360
1F
  3
2000
360
20
  3
50
360
21
  3
58J
360
22
  3
65
360
23
  3
AA
360
24
  3
ACABADOS
360
25
  3
AGUA_Y_DREN
360
26
  3
AIRE
360
27
  3
ALLE_AUS
360
28
  3
ALLES_MIT_S
360
29
  3
AMARILLO
360
2A
  3
APAGADOS
360
2B
  3
ARR
360
2C
  3
BA
360
2D
  3
BACKS
360
2E
  3
BASE
360
2F
  3
BLOQ_INUTIL
360
30
  3
CADKON
360
31
  3
CARPINTERIA
360
32
  3
CERRADOS
360
33
  3
COL
360
34
  3
COLOR
360
35
  3
COLOR_250
360
36
  3
COLORES
360
37
  3
CONGELADOS
360
38
  3
CONJUNTO
360
39
  3
D1
360
3A
  3
DA_
360
3B
  3
DET-
360
3C
  3
DOR-H
360
3D
  3
EJES
360
3E
  3
ELECTRICO
360
3F
  3
F1
360
40
  3
FROZEN
360
41
  3
GRID
360
42
  3
GRIDTXT
360
43
  3
HATCH
360
44
  3
HCAD
360
45
  3
INSTALACIONES
360
46
  3
JIZNI
360
47
  3
KCK
360
48
  3
KKK
360
49
  3
LAY
360
4A
  3
LAYER-0
360
4E
  3
LAYER-1
360
4F
  3
LAYER_1_UND_0
360
4B
  3
LAYER_2_UND_0
360
4C
  3
LAYER_9_UND_0_SCHRAFFUR
360
4D
  3
LOCK
360
50
  3
LOCKED
360
51
  3
LOTES
360
52
  3
LUNAR
360
53
  3
LUNAR2
360
54
  3
M
360
55
  3
MIS_LAYERS
360
56
  3
MRKCK
360
57
  3
NECADKON
360
58
  3
NI_LH
360
59
  3
NI_RH
360
5A
  3
NUM
360
5B
  3
OFF
360
5C
  3
ON
360
5D
  3
PBASE
360
5E
  3
PEGC
360
5F
  3
PEGCT
360
60
  3
PFRAME
360
61
  3
PGRID
360
62
  3
PGRIDT
360
63
  3
PLAFONES
360
64
  3
PLANTAS
360
65
  3
PLOT
360
66
  3
PRENDIDAS
360
67
  3
PRENDIDOS
360
68
  3
PRINT
360
69
  3
PT
360
6A
  3
PTH
360
6B
  3
PVGRID
360
6C
  3
RED_DE_AGUA_POTABLE
360
6D
  3
RED_DE_ENERGIA_ELECTRICA
360
6E
  3
SEVERNI
360
6F
  3
SHIN
360
70
  3
SHOW_ALL_LAYER
360
71
  3
SIN
360
72
  3
STORAGE-CART
360
73
  3
T
360
74
  3
TEXTOS
360
75
  3
TEXTURAS
360
76
  3
TUBERIAS
360
77
  3
UNFRZ
360
78
  3
V\U+0160ECHNY_NEPOU\U+017D\U+00CDVAN\U+00C9
360
79
  3
VA
360
7A
  3
VENTILACI\U+00D3N
360
7B
  3
VYHODNI
360
7C
  3
YO
360
7D
  3
ZAPADNI
360
7E
  3
사용
360
7F
  3
신규
360
80
  3
실박스
360
81
  3
우리토목
360
82
  3
주차
360
83
  3
지상정밀
360
84
  3
쩜선
360
85
  3
플로터_작업층
360
86
  3
현재_작업층
360
87
  3
현재_잠금
360
88
  0
DICTIONARY
  5
89
102
{ACAD_REACTORS
330
15
102
}
330
15
100
AcDbDictionary
  0
XRECORD
  5
5C5
102
{ACAD_REACTORS
330
3
102
}
330
3
100
AcDbXrecord
340
2
  0
XRECORD
  5
5C6
102
{ACAD_REACTORS
330
F
102
}
330
F
100
AcDbXrecord
340
E
  0
DIMASSOC
  5
2E1
102
{ACAD_REACTORS
330
2E0
102
}
330
2E0
100
AcDbDimAssoc
330
2DF
 90
        2
 70
     0
 71
     0
  1
AcDbOsnapPointRef
 72
     3
331
2DE
 73
     2
 91
        0
 40
0.0
 10
-0.0000000000009095
 20
0.0
 30
0.0
 75
     0
  0
DIMASSOC
  5
AE
102
{ACAD_REACTORS
330
AD
102
}
330
AD
100
AcDbDimAssoc
330
AC
 90
        2
 70
     0
 71
     0
  1
AcDbOsnapPointRef
 72
     1
331
336
 73
     2
 91
        0
 40
1.0
 10
129.0659966533585
 20
257.6897220659257
 30
0.0
 75
     0
  0
DIMASSOC
  5
D2
102
{ACAD_REACTORS
330
D1
102
}
330
D1
100
AcDbDimAssoc
330
D0
 90
        1
 70
     0
 71
     0
  1
AcDbOsnapPointRef
 72
     1
331
16B
 73
     2
 91
        0
 40
1.0
 10
133.7827195312565
 20
71.18419553188414
 30
0.0
 75
     0
  0
DIMASSOC
  5
F2
102
{ACAD_REACTORS
330
F1
102
}
330
F1
100
AcDbDimAssoc
330
F0
 90
        3
 70
     0
 71
     0
  1
AcDbOsnapPointRef
 72
     1
331
EF
 73
     2
 91
        0
 40
1.0
 10
290.1808583324855
 20
95.68419553188414
 30
0.0
 75
     0
  1
AcDbOsnapPointRef
 72
    13
331
167
 73
     2
 91
        0
 40
0.0
 10
290.1808583324855
 20
16.68419553188414
 30
0.0
 75
     0
  0
DIMASSOC
  5
110
102
{ACAD_REACTORS
330
10F
102
}
330
10F
100
AcDbDimAssoc
330
10E
 90
        3
 70
     0
 71
     0
  1
AcDbOsnapPointRef
 72
     1
331
CF
 73
     2
 91
        0
 40
1.0
 10
137.6808583324855
 20
66.18419553188414
 30
0.0
 75
     0
  1
AcDbOsnapPointRef
 72
     6
331
CF
 73
     2
 91
        0
 40
0.0000000000000114
 10
137.6808583324855
 20
76.18419553188414
 30
0.0
332
226
 74
     2
 92
        0
 75
     0
  0
DIMASSOC
  5
148
102
{ACAD_REACTORS
330
147
102
}
330
147
100
AcDbDimAssoc
330
146
 90
        2
 70
     0
 71
     0
  1
AcDbOsnapPointRef
 72
     1
331
165
 73
     2
 91
        0
 40
1.0
 10
219.1808583324855
 20
17.58545819035407
 30
0.0
 75
     0
  0
DIMASSOC
  5
157
102
{ACAD_REACTORS
330
156
102
}
330
156
100
AcDbDimAssoc
330
155
 90
        2
 70
     0
 71
     0
  1
AcDbOsnapPointRef
 72
    13
331
169
 73
     2
 91
        0
 40
0.0
 10
297.1808583324855
 20
19.18419553188414
 30
0.0
 75
     0
  0
DIMASSOC
  5
19F
102
{ACAD_REACTORS
330
19E
102
}
330
19E
100
AcDbDimAssoc
330
19D
 90
        3
 70
     0
 71
     0
  1
AcDbOsnapPointRef
 72
     1
331
196
 73
     2
 91
        0
 40
1.0
 10
104.4715262677982
 20
189.5103302225497
 30
0.0
 75
     0
  1
AcDbOsnapPointRef
 72
     1
331
197
 73
     2
 91
        0
 40
1.0
 10
108.4715262677982
 20
189.5103302225497
 30
0.0
 75
     0
  0
DIMASSOC
  5
1B0
102
{ACAD_REACTORS
330
1AF
102
}
330
1AF
100
AcDbDimAssoc
330
1AE
 90
        3
 70
     0
 71
     0
  1
AcDbOsnapPointRef
 72
    13
331
192
 73
     2
 91
        0
 40
0.0
 10
59.53814652724941
 20
188.5280498145898
 30
0.0
 75
     0
  1
AcDbOsnapPointRef
 72
    13
331
191
 73
     2
 91
        0
 40
0.0
 10
63.53814652724941
 20
188.5280498145898
 30
0.0
 75
     0
  0
DIMASSOC
  5
1C1
102
{ACAD_REACTORS
330
1C0
102
}
330
1C0
100
AcDbDimAssoc
330
1BF
 90
        3
 70
     0
 71
     0
  1
AcDbOsnapPointRef
 72
     1
331
195
 73
     2
 91
        0
 40
1.0
 10
108.4715262677982
 20
187.427754527594
 30
0.0
 75
     0
  1
AcDbOsnapPointRef
 72
     5
331
190
 73
     2
 91
        0
 40
1.570796326794896
 10
106.4715262677982
 20
189.927754527594
 30
0.0
 75
     0
  0
DIMASSOC
  5
1E1
102
{ACAD_REACTORS
330
1E0
102
}
330
1E0
100
AcDbDimAssoc
330
1DF
 90
        3
 70
     0
 71
     0
  1
AcDbOsnapPointRef
 72
     2
331
199
 73
     2
 91
        0
 40
3.141592653589792
 10
17.36749324053744
 20
186.5280498145898
 30
0.0
 75
     0
  1
AcDbOsnapPointRef
 72
     1
331
19C
 73
     2
 91
        0
 40
1.0
 10
42.36749324053744
 20
188.5280498145898
 30
0.0
 75
     0
  0
DIMASSOC
  5
1F1
102
{ACAD_REACTORS
330
1F0
102
}
330
1F0
100
AcDbDimAssoc
330
1EF
 90
        3
 70
     0
 71
     0
  1
AcDbOsnapPointRef
 72
     1
331
206
 73
     2
 91
        0
 40
1.0
 10
9.0
 20
104.1841955318841
 30
0.0
 75
     0
  1
AcDbOsnapPointRef
 72
     1
331
203
 73
     2
 91
        0
 40
1.0
 10
71.0
 20
104.1841955318841
 30
0.0
 75
     0
  0
DIMASSOC
  5
229
102
{ACAD_REACTORS
330
228
102
}
330
228
100
AcDbDimAssoc
330
227
 90
        3
 70
     0
 71
     0
  1
AcDbOsnapPointRef
 72
    13
331
223
 73
     2
 91
        0
 40
0.0
 10
162.6808583324855
 20
76.18419553188414
 30
0.0
 75
     0
  1
AcDbOsnapPointRef
 72
     1
331
226
 73
     2
 91
        0
 40
1.0
 10
137.6808583324855
 20
76.18419553188414
 30
0.0
 75
     0
  0
DIMASSOC
  5
249
102
{ACAD_REACTORS
330
248
102
}
330
248
100
AcDbDimAssoc
330
247
 90
        1
 70
     0
 71
     0
  1
AcDbOsnapPointRef
 72
     1
331
226
 73
     2
 91
        0
 40
1.0
 10
137.6808583324855
 20
76.18419553188414
 30
0.0
 75
     0
  0
DIMASSOC
  5
29F
102
{ACAD_REACTORS
330
29E
102
}
330
29E
100
AcDbDimAssoc
330
29D
 90
        3
 70
     0
 71
     0
  1
AcDbOsnapPointRef
 72
     1
331
28C
 73
     2
 91
        0
 40
1.0
 10
217.6808583324855
 20
104.8841945318858
 30
0.0
 75
     0
  1
AcDbOsnapPointRef
 72
    13
331
29B
 73
     2
 91
        0
 40
0.0
 10
292.6775253324849
 20
136.184194531886
 30
0.0
 75
     0
  0
DIMASSOC
  5
2B3
102
{ACAD_REACTORS
330
2B2
102
}
330
2B2
100
AcDbDimAssoc
330
2B1
 90
        1
 70
     0
 71
     0
  1
AcDbOsnapPointRef
 72
    13
331
28F
 73
     2
 91
        0
 40
0.0
 10
292.6775253324849
 20
136.184194531886
 30
0.0
 75
     0
  0
DIMASSOC
  5
2CB
102
{ACAD_REACTORS
330
2CA
102
}
330
2CA
100
AcDbDimAssoc
330
2C9
 90
        2
 70
     0
 71
     0
  1
AcDbOsnapPointRef
 72
     1
331
28C
 73
     2
 91
        0
 40
1.0
 10
217.6808583324855
 20
104.8841945318858
 30
0.0
 75
     0
  0
DIMASSOC
  5
2FE
102
{ACAD_REACTORS
330
2FD
102
}
330
2FD
100
AcDbDimAssoc
330
2FC
 90
        3
 70
     0
 71
     0
  1
AcDbOsnapPointRef
 72
     1
331
30C
 73
     2
 91
        0
 40
1.0
 10
199.4578038607087
 20
403.1190669492816
 30
0.0
 75
     0
  1
AcDbOsnapPointRef
 72
    13
331
30C
 73
     2
 91
        0
 40
0.0
 10
199.4578038607087
 20
476.1190669492816
 30
0.0
 75
     0
  0
DIMASSOC
  5
31D
102
{ACAD_REACTORS
330
31C
102
}
330
31C
100
AcDbDimAssoc
330
31B
 90
        3
 70
     0
 71
     0
  1
AcDbOsnapPointRef
 72
     1
331
348
 73
     2
 91
        0
 40
1.0
 10
190.8209784446262
 20
307.6897220659257
 30
0.0
 75
     0
  1
AcDbOsnapPointRef
 72
    13
331
346
 73
     2
 91
        0
 40
0.0
 10
183.1114441117479
 20
292.6897220659256
 30
0.0
 75
     0
  0
DIMASSOC
  5
34D
102
{ACAD_REACTORS
330
34C
102
}
330
34C
100
AcDbDimAssoc
330
34B
 90
        3
 70
     0
 71
     0
  1
AcDbOsnapPointRef
 72
    13
331
37D
 73
     2
 91
        0
 40
0.0
 10
219.7191172458587
 20
312.6897220659257
 30
0.0
 75
     0
  1
AcDbOsnapPointRef
 72
     1
331
349
 73
     2
 91
        0
 40
1.0
 10
194.7191172458497
 20
312.6897220659257
 30
0.0
 75
     0
  0
DIMASSOC
  5
35C
102
{ACAD_REACTORS
330
35B
102
}
330
35B
100
AcDbDimAssoc
330
35A
 90
        3
 70
     0
 71
     0
  1
AcDbOsnapPointRef
 72
     1
331
36B
 73
     2
 91
        0
 40
1.0
 10
194.7191172458497
 20
302.6897220659257
 30
0.0
 75
     0
  1
AcDbOsnapPointRef
 72
     6
331
36B
 73
     2
 91
        0
 40
0.0000000000000114
 10
194.7191172458497
 20
312.6897220659257
 30
0.0
332
349
 74
     2
 92
        0
 75
     0
  0
DIMASSOC
  5
394
102
{ACAD_REACTORS
330
393
102
}
330
393
100
AcDbDimAssoc
330
392
 90
        3
 70
     0
 71
     0
  1
AcDbOsnapPointRef
 72
     1
331
391
 73
     2
 91
        0
 40
3.141592653589792
 10
60.26485538934867
 20
474.6190669492839
 30
0.0
 75
     0
  1
AcDbOsnapPointRef
 72
    13
331
38E
 73
     2
 91
        0
 40
0.0
 10
140.2648553893486
 20
474.6190669492839
 30
0.0
 75
     0
  0
DIMASSOC
  5
3A8
102
{ACAD_REACTORS
330
3A7
102
}
330
3A7
100
AcDbDimAssoc
330
3A6
 90
        3
 70
     0
 71
     0
  1
AcDbOsnapPointRef
 72
    13
331
3B5
 73
     2
 91
        0
 40
0.0
 10
201.4578038607087
 20
479.6190669492825
 30
0.0
 75
     0
  1
AcDbOsnapPointRef
 72
     1
331
3B5
 73
     2
 91
        0
 40
1.0
 10
233.4578038607087
 20
479.6190669492825
 30
0.0
 75
     0
  0
MLINESTYLE
  5
9B
102
{ACAD_REACTORS
330
99
102
}
330
99
100
AcDbMlineStyle
  2
STANDARD
 70
     0
  3

 62
   256
 51
90.0
 52
90.0
 71
     2
 49
0.5
 62
   256
  6
BYLAYER
 49
-0.5
 62
   256
  6
BYLAYER
  0
ACDBPLACEHOLDER
  5
7
102
{ACAD_REACTORS
330
8
102
}
330
8
100
AcDbPlaceHolder
280
     0
  0
XRECORD
  5
5AE
102
{ACAD_REACTORS
330
5A4
102
}
330
5A4
100
AcDbXrecord
 90
        0
  0
XRECORD
  5
5B2
102
{ACAD_REACTORS
330
5A4
102
}
330
5A4
100
AcDbXrecord
1000
DSTYLE
1002
{
1070
    79
 70
     2
1070
   179
 70
     1
1070
   289
 70
     0
1002
}
  0
XRECORD
  5
5AF
102
{ACAD_REACTORS
330
5A4
102
}
330
5A4
100
AcDbXrecord
  1
{FDEAD578-A652-11D2-9A35-0060089B3A3F}
  0
XRECORD
  5
5A7
102
{ACAD_REACTORS
330
5A4
102
}
330
5A4
100
AcDbXrecord
  1

  0
XRECORD
  5
5AD
102
{ACAD_REACTORS
330
5A4
102
}
330
5A4
100
AcDbXrecord
 90
        4
  0
XRECORD
  5
5A9
102
{ACAD_REACTORS
330
5A4
102
}
330
5A4
100
AcDbXrecord
340
D
  0
XRECORD
  5
5AC
102
{ACAD_REACTORS
330
5A4
102
}
330
5A4
100
AcDbXrecord
 90
    10781
  0
XRECORD
  5
5AA
102
{ACAD_REACTORS
330
5A4
102
}
330
5A4
100
AcDbXrecord
340
9A
  0
XRECORD
  5
5AB
102
{ACAD_REACTORS
330
5A4
102
}
330
5A4
100
AcDbXrecord
340
8
  0
XRECORD
  5
5B1
102
{ACAD_REACTORS
330
5A4
102
}
330
5A4
100
AcDbXrecord
 40
0.0
  0
XRECORD
  5
5B5
102
{ACAD_REACTORS
330
5A4
102
}
330
5A4
100
AcDbXrecord
340
0
  0
XRECORD
  5
5BB
102
{ACAD_REACTORS
330
5A4
102
}
330
5A4
100
AcDbXrecord
 10
0.0
 20
0.0
 30
0.0
  0
XRECORD
  5
5B7
102
{ACAD_REACTORS
330
5A4
102
}
330
5A4
100
AcDbXrecord
 10
0.0
 20
0.0
 30
0.0
  0
XRECORD
  5
5BA
102
{ACAD_REACTORS
330
5A4
102
}
330
5A4
100
AcDbXrecord
 10
0.0
 20
0.0
 30
0.0
  0
XRECORD
  5
5B8
102
{ACAD_REACTORS
330
5A4
102
}
330
5A4
100
AcDbXrecord
 10
0.0
 20
0.0
 30
0.0
  0
XRECORD
  5
5B9
102
{ACAD_REACTORS
330
5A4
102
}
330
5A4
100
AcDbXrecord
 10
0.0
 20
0.0
 30
0.0
  0
XRECORD
  5
5B6
102
{ACAD_REACTORS
330
5A4
102
}
330
5A4
100
AcDbXrecord
 10
0.0
 20
0.0
 30
0.0
  0
XRECORD
  5
5B3
102
{ACAD_REACTORS
330
5A4
102
}
330
5A4
100
AcDbXrecord
340
0
  0
XRECORD
  5
5B4
102
{ACAD_REACTORS
330
5A4
102
}
330
5A4
100
AcDbXrecord
 70
     0
  0
XRECORD
  5
5A8
102
{ACAD_REACTORS
330
5A4
102
}
330
5A4
100
AcDbXrecord
  1

  0
XRECORD
  5
5A5
102
{ACAD_REACTORS
330
5A4
102
}
330
5A4
100
AcDbXrecord
 90
        1
  0
XRECORD
  5
5A6
102
{ACAD_REACTORS
330
5A4
102
}
330
5A4
100
AcDbXrecord
 90
       70
  0
XRECORD
  5
5BE
102
{ACAD_REACTORS
330
5A4
102
}
330
5A4
100
AcDbXrecord
340
0
  0
XRECORD
  5
5C4
102
{ACAD_REACTORS
330
5A4
102
}
330
5A4
100
AcDbXrecord
 10
0.0
 20
0.0
 30
0.0
  0
XRECORD
  5
5C0
102
{ACAD_REACTORS
330
5A4
102
}
330
5A4
100
AcDbXrecord
 10
0.0
 20
0.0
 30
0.0
  0
XRECORD
  5
5C3
102
{ACAD_REACTORS
330
5A4
102
}
330
5A4
100
AcDbXrecord
 10
0.0
 20
0.0
 30
0.0
  0
XRECORD
  5
5C1
102
{ACAD_REACTORS
330
5A4
102
}
330
5A4
100
AcDbXrecord
 10
0.0
 20
0.0
 30
0.0
  0
XRECORD
  5
5C2
102
{ACAD_REACTORS
330
5A4
102
}
330
5A4
100
AcDbXrecord
 10
0.0
 20
0.0
 30
0.0
  0
XRECORD
  5
5BF
102
{ACAD_REACTORS
330
5A4
102
}
330
5A4
100
AcDbXrecord
 10
0.0
 20
0.0
 30
0.0
  0
XRECORD
  5
5BC
102
{ACAD_REACTORS
330
5A4
102
}
330
5A4
100
AcDbXrecord
340
0
  0
XRECORD
  5
5BD
102
{ACAD_REACTORS
330
5A4
102
}
330
5A4
100
AcDbXrecord
 70
     0
  0
XRECORD
  5
5B0
102
{ACAD_REACTORS
330
5A4
102
}
330
5A4
100
AcDbXrecord
  1
{EADCD9FB-2ABD-438B-9966-6FEAB43F3AAA}
  0
DICTIONARYVAR
  5
3E4
102
{ACAD_REACTORS
330
3E2
102
}
330
3E2
100
DictionaryVariables
280
     0
  1
2
  0
DICTIONARYVAR
  5
3E3
102
{ACAD_REACTORS
330
3E2
102
}
330
3E2
100
DictionaryVariables
280
     0
  1
1
  0
XRECORD
  5
17
102
{ACAD_REACTORS
330
16
102
}
330
16
100
AcDbXrecord
  1
$layers
  1
*
  1
*
  1
*
 70
     0
  1
*
  1
*
  0
XRECORD
  5
18
102
{ACAD_REACTORS
330
16
102
}
330
16
100
AcDbXrecord
  1
- und 0
  1
-*,0
  1
*
  1
*
 70
     0
  1
*
  1
*
  0
XRECORD
  5
19
102
{ACAD_REACTORS
330
16
102
}
330
16
100
AcDbXrecord
  1
-pegc
  1
*-pegc
  1
*
  1
*
 70
     0
  1
*
  1
*
  0
XRECORD
  5
1A
102
{ACAD_REACTORS
330
16
102
}
330
16
100
AcDbXrecord
  1
101
  1
*101
  1
*
  1
*
 70
   256
  1
*
  1
*
  0
XRECORD
  5
1B
102
{ACAD_REACTORS
330
16
102
}
330
16
100
AcDbXrecord
  1
102
  1
102*
  1
*
  1
*
 70
     0
  1
*
  1
*
  0
XRECORD
  5
1C
102
{ACAD_REACTORS
330
16
102
}
330
16
100
AcDbXrecord
  1
1duc
  1
*1duc*
  1
*
  1
*
 70
     0
  1
*
  1
*
  0
XRECORD
  5
1D
102
{ACAD_REACTORS
330
16
102
}
330
16
100
AcDbXrecord
  1
1eq
  1
*1eq*
  1
*
  1
*
 70
     0
  1
*
  1
*
  0
XRECORD
  5
1E
102
{ACAD_REACTORS
330
16
102
}
330
16
100
AcDbXrecord
  1
1tub
  1
*1t*
  1
*
  1
*
 70
     0
  1
*
  1
*
  0
XRECORD
  5
1F
102
{ACAD_REACTORS
330
16
102
}
330
16
100
AcDbXrecord
  1
2
  1
*
  1
2
  1
*
 70
     0
  1
*
  1
*
  0
XRECORD
  5
20
102
{ACAD_REACTORS
330
16
102
}
330
16
100
AcDbXrecord
  1
2000
  1
2000*
  1
*
  1
*
 70
     0
  1
*
  1
*
  0
XRECORD
  5
21
102
{ACAD_REACTORS
330
16
102
}
330
16
100
AcDbXrecord
  1
50
  1
*-50
  1
*
  1
*
 70
     0
  1
*
  1
*
  0
XRECORD
  5
22
102
{ACAD_REACTORS
330
16
102
}
330
16
100
AcDbXrecord
  1
58J
  1
*58*
  1
*
  1
*
 70
     0
  1
*
  1
*
  0
XRECORD
  5
23
102
{ACAD_REACTORS
330
16
102
}
330
16
100
AcDbXrecord
  1
65
  1
*65
  1
*
  1
*
 70
     0
  1
*
  1
*
  0
XRECORD
  5
24
102
{ACAD_REACTORS
330
16
102
}
330
16
100
AcDbXrecord
  1
aa
  1
aa*
  1
*
  1
*
 70
     0
  1
*
  1
*
  0
XRECORD
  5
25
102
{ACAD_REACTORS
330
16
102
}
330
16
100
AcDbXrecord
  1
acabados
  1
a-*
  1
*
  1
*
 70
     5
  1
*
  1
*
  0
XRECORD
  5
26
102
{ACAD_REACTORS
330
16
102
}
330
16
100
AcDbXrecord
  1
AGUA Y DREN
  1
A-DS-*
  1
*
  1
*
 70
     0
  1
*
  1
*
  0
XRECORD
  5
27
102
{ACAD_REACTORS
330
16
102
}
330
16
100
AcDbXrecord
  1
Aire
  1
*
  1
*
  1
*
 70
     0
  1
*
  1
*
  0
XRECORD
  5
28
102
{ACAD_REACTORS
330
16
102
}
330
16
100
AcDbXrecord
  1
alle aus
  1
99999999999
  1
*
  1
*
 70
     0
  1
*
  1
*
  0
XRECORD
  5
29
102
{ACAD_REACTORS
330
16
102
}
330
16
100
AcDbXrecord
  1
Alles mit S
  1
s*
  1
*
  1
*
 70
     0
  1
*
  1
*
  0
XRECORD
  5
2A
102
{ACAD_REACTORS
330
16
102
}
330
16
100
AcDbXrecord
  1
amarillo
  1
*
  1
yellow
  1
*
 70
     0
  1
*
  1
*
  0
XRECORD
  5
2B
102
{ACAD_REACTORS
330
16
102
}
330
16
100
AcDbXrecord
  1
APAGADOS
  1
*
  1
*
  1
*
 70
     4
  1
*
  1
*
  0
XRECORD
  5
2C
102
{ACAD_REACTORS
330
16
102
}
330
16
100
AcDbXrecord
  1
ARR
  1
ARR*
  1
*
  1
*
 70
     0
  1
*
  1
*
  0
XRECORD
  5
2D
102
{ACAD_REACTORS
330
16
102
}
330
16
100
AcDbXrecord
  1
ba
  1
*
  1
*
  1
*
 70
     0
  1
*
  1
*
  0
XRECORD
  5
2E
102
{ACAD_REACTORS
330
16
102
}
330
16
100
AcDbXrecord
  1
BACKS
  1
*-H
  1
*
  1
*
 70
     0
  1
*
  1
*
  0
XRECORD
  5
2F
102
{ACAD_REACTORS
330
16
102
}
330
16
100
AcDbXrecord
  1
BASE
  1
*-PBASE
  1
*
  1
*
 70
     0
  1
*
  1
*
  0
XRECORD
  5
30
102
{ACAD_REACTORS
330
16
102
}
330
16
100
AcDbXrecord
  1
BLOQ_INUTIL
  1
*
  1
*
  1
*
 70
     0
  1
*
  1
*
  0
XRECORD
  5
31
102
{ACAD_REACTORS
330
16
102
}
330
16
100
AcDbXrecord
  1
CADKON
  1
?[KAHBSM]?????[23M],?[KAHBSM]?????[23M][1456A-DGHILN-SU-Z]
  1
*
  1
*
 70
     0
  1
*
  1
*
  0
XRECORD
  5
32
102
{ACAD_REACTORS
330
16
102
}
330
16
100
AcDbXrecord
  1
carpinteria
  1
carp*
  1
*
  1
*
 70
     0
  1
*
  1
*
  0
XRECORD
  5
33
102
{ACAD_REACTORS
330
16
102
}
330
16
100
AcDbXrecord
  1
cerrados
  1
*
  1
*
  1
*
 70
   256
  1
*
  1
*
  0
XRECORD
  5
34
102
{ACAD_REACTORS
330
16
102
}
330
16
100
AcDbXrecord
  1
COL
  1
*
  1
*
  1
*
 70
     1
  1
*
  1
*
  0
XRECORD
  5
35
102
{ACAD_REACTORS
330
16
102
}
330
16
100
AcDbXrecord
  1
COLOR
  1
*
  1
253
  1
*
 70
     0
  1
*
  1
*
  0
XRECORD
  5
36
102
{ACAD_REACTORS
330
16
102
}
330
16
100
AcDbXrecord
  1
color 250
  1
*
  1
250
  1
*
 70
     0
  1
*
  1
*
  0
XRECORD
  5
37
102
{ACAD_REACTORS
330
16
102
}
330
16
100
AcDbXrecord
  1
COLORES
  1
*
  1
6
  1
*
 70
     0
  1
*
  1
*
  0
XRECORD
  5
38
102
{ACAD_REACTORS
330
16
102
}
330
16
100
AcDbXrecord
  1
Congelados
  1
*
  1
*
  1
*
 70
     4
  1
*
  1
*
  0
XRECORD
  5
39
102
{ACAD_REACTORS
330
16
102
}
330
16
100
AcDbXrecord
  1
CONJUNTO
  1
CON-*
  1
*
  1
*
 70
     0
  1
*
  1
*
  0
XRECORD
  5
3A
102
{ACAD_REACTORS
330
16
102
}
330
16
100
AcDbXrecord
  1
d1
  1
achurados
  1
*
  1
*
 70
     0
  1
*
  1
*
  0
XRECORD
  5
3B
102
{ACAD_REACTORS
330
16
102
}
330
16
100
AcDbXrecord
  1
DA_
  1
DA*
  1
*
  1
*
 70
     0
  1
*
  1
*
  0
XRECORD
  5
3C
102
{ACAD_REACTORS
330
16
102
}
330
16
100
AcDbXrecord
  1
DET-
  1
*
  1
*
  1
*
 70
     0
  1
*
  1
*
  0
XRECORD
  5
3D
102
{ACAD_REACTORS
330
16
102
}
330
16
100
AcDbXrecord
  1
DOR-H
  1
*
  1
7
  1
*
 70
     0
  1
*
  1
*
  0
XRECORD
  5
3E
102
{ACAD_REACTORS
330
16
102
}
330
16
100
AcDbXrecord
  1
ejes
  1
eje*
  1
*
  1
*
 70
     0
  1
*
  1
*
  0
XRECORD
  5
3F
102
{ACAD_REACTORS
330
16
102
}
330
16
100
AcDbXrecord
  1
ELECTRICO
  1
ELEC-*
  1
*
  1
*
 70
     0
  1
*
  1
*
  0
XRECORD
  5
40
102
{ACAD_REACTORS
330
16
102
}
330
16
100
AcDbXrecord
  1
F1
  1
Halaxref*
  1
*
  1
*
 70
     0
  1
*
  1
*
  0
XRECORD
  5
41
102
{ACAD_REACTORS
330
16
102
}
330
16
100
AcDbXrecord
  1
frozen
  1
*
  1
*
  1
*
 70
     4
  1
*
  1
*
  0
XRECORD
  5
42
102
{ACAD_REACTORS
330
16
102
}
330
16
100
AcDbXrecord
  1
grid
  1
*-PGRID
  1
*
  1
*
 70
     1
  1
*
  1
*
  0
XRECORD
  5
43
102
{ACAD_REACTORS
330
16
102
}
330
16
100
AcDbXrecord
  1
GRIDTXT
  1
*-PGRIDT
  1
*
  1
*
 70
     0
  1
*
  1
*
  0
XRECORD
  5
44
102
{ACAD_REACTORS
330
16
102
}
330
16
100
AcDbXrecord
  1
HATCH
  1
HAT*
  1
*
  1
*
 70
     0
  1
*
  1
*
  0
XRECORD
  5
45
102
{ACAD_REACTORS
330
16
102
}
330
16
100
AcDbXrecord
  1
HCAD
  1
1HCAD-*
  1
*
  1
*
 70
    13
  1
*
  1
*
  0
XRECORD
  5
46
102
{ACAD_REACTORS
330
16
102
}
330
16
100
AcDbXrecord
  1
INSTALACIONES
  1
I-*
  1
*
  1
*
 70
     0
  1
*
  1
*
  0
XRECORD
  5
47
102
{ACAD_REACTORS
330
16
102
}
330
16
100
AcDbXrecord
  1
JIZNI
  1
*-J
  1
*
  1
*
 70
     0
  1
*
  1
*
  0
XRECORD
  5
48
102
{ACAD_REACTORS
330
16
102
}
330
16
100
AcDbXrecord
  1
kck
  1
*
  1
*
  1
*
 70
     0
  1
*
  1
*
  0
XRECORD
  5
49
102
{ACAD_REACTORS
330
16
102
}
330
16
100
AcDbXrecord
  1
kkk
  1
k
  1
*
  1
*
 70
     0
  1
*
  1
*
  0
XRECORD
  5
4A
102
{ACAD_REACTORS
330
16
102
}
330
16
100
AcDbXrecord
  1
lay
  1
??-*
  1
*
  1
*
 70
     0
  1
*
  1
*
  0
XRECORD
  5
4E
102
{ACAD_REACTORS
330
16
102
}
330
16
100
AcDbXrecord
  1
Layer-0
  1
0*
  1
*
  1
*
 70
     0
  1
*
  1
*
  0
XRECORD
  5
4F
102
{ACAD_REACTORS
330
16
102
}
330
16
100
AcDbXrecord
  1
Layer-1
  1
1*
  1
*
  1
*
 70
     0
  1
*
  1
*
  0
XRECORD
  5
4B
102
{ACAD_REACTORS
330
16
102
}
330
16
100
AcDbXrecord
  1
Layer 1 und 0
  1
1*,0
  1
*
  1
*
 70
     0
  1
*
  1
*
  0
XRECORD
  5
4C
102
{ACAD_REACTORS
330
16
102
}
330
16
100
AcDbXrecord
  1
Layer 2 und 0
  1
2*,0
  1
*
  1
*
 70
     0
  1
*
  1
*
  0
XRECORD
  5
4D
102
{ACAD_REACTORS
330
16
102
}
330
16
100
AcDbXrecord
  1
Layer 9 und 0 Schraffur
  1
9*,0
  1
*
  1
*
 70
     0
  1
*
  1
*
  0
XRECORD
  5
50
102
{ACAD_REACTORS
330
16
102
}
330
16
100
AcDbXrecord
  1
LOCK
  1
*
  1
*
  1
*
 70
   256
  1
*
  1
*
  0
XRECORD
  5
51
102
{ACAD_REACTORS
330
16
102
}
330
16
100
AcDbXrecord
  1
locked
  1
*
  1
*
  1
*
 70
   256
  1
*
  1
*
  0
XRECORD
  5
52
102
{ACAD_REACTORS
330
16
102
}
330
16
100
AcDbXrecord
  1
Lotes
  1
*
  1
*
  1
*
 70
     1
  1
*
  1
*
  0
XRECORD
  5
53
102
{ACAD_REACTORS
330
16
102
}
330
16
100
AcDbXrecord
  1
LUNAR
  1
*
  1
*
  1
*
 70
    48
  1
*
  1
*
  0
XRECORD
  5
54
102
{ACAD_REACTORS
330
16
102
}
330
16
100
AcDbXrecord
  1
LUNAR2
  1
*
  1
*
  1
*
 70
    12
  1
*
  1
*
  0
XRECORD
  5
55
102
{ACAD_REACTORS
330
16
102
}
330
16
100
AcDbXrecord
  1
M
  1
M*
  1
*
  1
*
 70
     0
  1
*
  1
*
  0
XRECORD
  5
56
102
{ACAD_REACTORS
330
16
102
}
330
16
100
AcDbXrecord
  1
mis_layers
  1
mis_*
  1
*
  1
*
 70
     0
  1
*
  1
*
  0
XRECORD
  5
57
102
{ACAD_REACTORS
330
16
102
}
330
16
100
AcDbXrecord
  1
MRKCK
  1
*
  1
*
  1
*
 70
     0
  1
*
  1
*
  0
XRECORD
  5
58
102
{ACAD_REACTORS
330
16
102
}
330
16
100
AcDbXrecord
  1
NECADKON
  1
~*?[KAHBSM]?????[23M]*
  1
*
  1
*
 70
     0
  1
*
  1
*
  0
XRECORD
  5
59
102
{ACAD_REACTORS
330
16
102
}
330
16
100
AcDbXrecord
  1
NI_LH
  1
NI_LH*
  1
*
  1
*
 70
     0
  1
*
  1
*
  0
XRECORD
  5
5A
102
{ACAD_REACTORS
330
16
102
}
330
16
100
AcDbXrecord
  1
NI_RH
  1
NI_RH*
  1
*
  1
*
 70
     0
  1
*
  1
*
  0
XRECORD
  5
5B
102
{ACAD_REACTORS
330
16
102
}
330
16
100
AcDbXrecord
  1
NUM
  1
NUM*
  1
*
  1
*
 70
     0
  1
*
  1
*
  0
XRECORD
  5
5C
102
{ACAD_REACTORS
330
16
102
}
330
16
100
AcDbXrecord
  1
off
  1
*
  1
*
  1
*
 70
     3
  1
*
  1
*
  0
XRECORD
  5
5D
102
{ACAD_REACTORS
330
16
102
}
330
16
100
AcDbXrecord
  1
on
  1
*
  1
*
  1
*
 70
     0
  1
*
  1
*
  0
XRECORD
  5
5E
102
{ACAD_REACTORS
330
16
102
}
330
16
100
AcDbXrecord
  1
PBASE
  1
*PBASE
  1
*
  1
*
 70
     0
  1
*
  1
*
  0
XRECORD
  5
5F
102
{ACAD_REACTORS
330
16
102
}
330
16
100
AcDbXrecord
  1
PEGC
  1
*PEGC
  1
*
  1
*
 70
     0
  1
*
  1
*
  0
XRECORD
  5
60
102
{ACAD_REACTORS
330
16
102
}
330
16
100
AcDbXrecord
  1
PEGCT
  1
*PEGCT
  1
*
  1
*
 70
     0
  1
*
  1
*
  0
XRECORD
  5
61
102
{ACAD_REACTORS
330
16
102
}
330
16
100
AcDbXrecord
  1
PFRAME
  1
PFRAME*
  1
*
  1
*
 70
     0
  1
*
  1
*
  0
XRECORD
  5
62
102
{ACAD_REACTORS
330
16
102
}
330
16
100
AcDbXrecord
  1
PGRID
  1
*PGRID
  1
*
  1
*
 70
     0
  1
*
  1
*
  0
XRECORD
  5
63
102
{ACAD_REACTORS
330
16
102
}
330
16
100
AcDbXrecord
  1
PGRIDT
  1
*PGRIDT
  1
*
  1
*
 70
     0
  1
*
  1
*
  0
XRECORD
  5
64
102
{ACAD_REACTORS
330
16
102
}
330
16
100
AcDbXrecord
  1
PLAFONES
  1
0-*
  1
*
  1
*
 70
     0
  1
*
  1
*
  0
XRECORD
  5
65
102
{ACAD_REACTORS
330
16
102
}
330
16
100
AcDbXrecord
  1
PLANTAS
  1
P-*
  1
*
  1
*
 70
     0
  1
*
  1
*
  0
XRECORD
  5
66
102
{ACAD_REACTORS
330
16
102
}
330
16
100
AcDbXrecord
  1
Plot
  1
*
  1
*
  1
*
 70
  1024
  1
*
  1
*
  0
XRECORD
  5
67
102
{ACAD_REACTORS
330
16
102
}
330
16
100
AcDbXrecord
  1
PRENDIDAS
  1
*
  1
*
  1
*
 70
    13
  1
*
  1
*
  0
XRECORD
  5
68
102
{ACAD_REACTORS
330
16
102
}
330
16
100
AcDbXrecord
  1
PRENDIDOS
  1
*
  1
*
  1
*
 70
    12
  1
*
  1
*
  0
XRECORD
  5
69
102
{ACAD_REACTORS
330
16
102
}
330
16
100
AcDbXrecord
  1
print
  1
*
  1
7
  1
*
 70
  1280
  1
*
  1
*
  0
XRECORD
  5
6A
102
{ACAD_REACTORS
330
16
102
}
330
16
100
AcDbXrecord
  1
PT
  1
PT-*
  1
*
  1
*
 70
     0
  1
*
  1
*
  0
XRECORD
  5
6B
102
{ACAD_REACTORS
330
16
102
}
330
16
100
AcDbXrecord
  1
PTH
  1
PTH*
  1
*
  1
*
 70
     0
  1
*
  1
*
  0
XRECORD
  5
6C
102
{ACAD_REACTORS
330
16
102
}
330
16
100
AcDbXrecord
  1
PVGRID
  1
*PVGRID
  1
*
  1
*
 70
     0
  1
*
  1
*
  0
XRECORD
  5
6D
102
{ACAD_REACTORS
330
16
102
}
330
16
100
AcDbXrecord
  1
Red de Agua Potable
  1
Red de Agua Potable
  1
*
  1
*
 70
     1
  1
*
  1
*
  0
XRECORD
  5
6E
102
{ACAD_REACTORS
330
16
102
}
330
16
100
AcDbXrecord
  1
Red de Energia Electrica
  1
Lotes
  1
*
  1
*
 70
     1
  1
*
  1
*
  0
XRECORD
  5
6F
102
{ACAD_REACTORS
330
16
102
}
330
16
100
AcDbXrecord
  1
SEVERNI
  1
*-S
  1
*
  1
*
 70
     0
  1
*
  1
*
  0
XRECORD
  5
70
102
{ACAD_REACTORS
330
16
102
}
330
16
100
AcDbXrecord
  1
shin
  1
일*
  1
*
  1
*
 70
     0
  1
*
  1
*
  0
XRECORD
  5
71
102
{ACAD_REACTORS
330
16
102
}
330
16
100
AcDbXrecord
  1
SHOW ALL LAYER
  1
*
  1
*
  1
*
 70
     0
  1
*
  1
*
  0
XRECORD
  5
72
102
{ACAD_REACTORS
330
16
102
}
330
16
100
AcDbXrecord
  1
sin
  1
sin
  1
*
  1
*
 70
     0
  1
*
  1
*
  0
XRECORD
  5
73
102
{ACAD_REACTORS
330
16
102
}
330
16
100
AcDbXrecord
  1
STORAGE-CART
  1
STORAGE-CART*
  1
*
  1
*
 70
     0
  1
*
  1
*
  0
XRECORD
  5
74
102
{ACAD_REACTORS
330
16
102
}
330
16
100
AcDbXrecord
  1
T
  1
T*
  1
*
  1
*
 70
     0
  1
*
  1
*
  0
XRECORD
  5
75
102
{ACAD_REACTORS
330
16
102
}
330
16
100
AcDbXrecord
  1
TEXTOS
  1
TXT*
  1
*
  1
*
 70
     0
  1
*
  1
*
  0
XRECORD
  5
76
102
{ACAD_REACTORS
330
16
102
}
330
16
100
AcDbXrecord
  1
TEXTURAS
  1
*TEXTURAS
  1
*
  1
*
 70
     0
  1
*
  1
*
  0
XRECORD
  5
77
102
{ACAD_REACTORS
330
16
102
}
330
16
100
AcDbXrecord
  1
TUBERIAS
  1
T*
  1
*
  1
*
 70
     0
  1
*
  1
*
  0
XRECORD
  5
78
102
{ACAD_REACTORS
330
16
102
}
330
16
100
AcDbXrecord
  1
UNFRZ
  1
*
  1
*
  1
*
 70
    12
  1
*
  1
*
  0
XRECORD
  5
79
102
{ACAD_REACTORS
330
16
102
}
330
16
100
AcDbXrecord
  1
v\U+0161echny nepou\U+017E\U+00EDvan\U+00E9
  1
*
  1
*
  1
*
 70
     0
  1
*
  1
*
  0
XRECORD
  5
7A
102
{ACAD_REACTORS
330
16
102
}
330
16
100
AcDbXrecord
  1
VA
  1
VA*
  1
*
  1
*
 70
     0
  1
*
  1
*
  0
XRECORD
  5
7B
102
{ACAD_REACTORS
330
16
102
}
330
16
100
AcDbXrecord
  1
Ventilaci\U+00F3n
  1
*
  1
*
  1
*
 70
     0
  1
*
  1
*
  0
XRECORD
  5
7C
102
{ACAD_REACTORS
330
16
102
}
330
16
100
AcDbXrecord
  1
VYHODNI
  1
*-V
  1
*
  1
*
 70
     0
  1
*
  1
*
  0
XRECORD
  5
7D
102
{ACAD_REACTORS
330
16
102
}
330
16
100
AcDbXrecord
  1
Yo
  1
Muros
  1
*
  1
*
 70
     0
  1
*
  1
*
  0
XRECORD
  5
7E
102
{ACAD_REACTORS
330
16
102
}
330
16
100
AcDbXrecord
  1
ZAPADNI
  1
*-Z
  1
*
  1
*
 70
     0
  1
*
  1
*
  0
XRECORD
  5
7F
102
{ACAD_REACTORS
330
16
102
}
330
16
100
AcDbXrecord
  1
사용
  1
*
  1
*
  1
*
 70
   256
  1
*
  1
*
  0
XRECORD
  5
80
102
{ACAD_REACTORS
330
16
102
}
330
16
100
AcDbXrecord
  1
신규
  1
신규
  1
*
  1
*
 70
     0
  1
*
  1
*
  0
XRECORD
  5
81
102
{ACAD_REACTORS
330
16
102
}
330
16
100
AcDbXrecord
  1
실박스
  1
BLO,SYM,SYM1,SYM2
  1
*
  1
*
 70
     0
  1
*
  1
*
  0
XRECORD
  5
82
102
{ACAD_REACTORS
330
16
102
}
330
16
100
AcDbXrecord
  1
우리토목
  1
w-*
  1
*
  1
*
 70
     0
  1
*
  1
*
  0
XRECORD
  5
83
102
{ACAD_REACTORS
330
16
102
}
330
16
100
AcDbXrecord
  1
주차
  1
car*
  1
*
  1
*
 70
     0
  1
*
  1
*
  0
XRECORD
  5
84
102
{ACAD_REACTORS
330
16
102
}
330
16
100
AcDbXrecord
  1
지상정밀
  1
*
  1
*
  1
*
 70
     0
  1
*
  1
*
  0
XRECORD
  5
85
102
{ACAD_REACTORS
330
16
102
}
330
16
100
AcDbXrecord
  1
쩜선
  1
*
  1
*
  1
*
 70
     0
  1
*
  1
*
  0
XRECORD
  5
86
102
{ACAD_REACTORS
330
16
102
}
330
16
100
AcDbXrecord
  1
플로터 작업층
  1
*
  1
*
  1
*
 70
  1025
  1
*
  1
*
  0
XRECORD
  5
87
102
{ACAD_REACTORS
330
16
102
}
330
16
100
AcDbXrecord
  1
현재 작업층
  1
*
  1
*
  1
*
 70
     1
  1
*
  1
*
  0
XRECORD
  5
88
102
{ACAD_REACTORS
330
16
102
}
330
16
100
AcDbXrecord
  1
현재 잠금
  1
*
  1
*
  1
*
 70
   257
  1
*
  1
*
  0
ENDSEC
  0
EOF
