  0
SECTION
  2
HEADER
  9
$ACADVER
  1
AC1014
  9
$ACADMAINTVER
 70
     9
  9
$DWGCODEPAGE
  3
ANSI_949
  9
$INSBASE
 10
0.0
 20
0.0
 30
0.0
  9
$EXTMIN
 10
-10.26928813918493
 20
-88.34233380141814
 30
-0.0015258207003583
  9
$EXTMAX
 10
318.3580477331124
 20
379.0725832547068
 30
0.0000000349246037
  9
$LIMMIN
 10
0.0
 20
0.0
  9
$LIMMAX
 10
420.0
 20
297.0
  9
$ORTHOMODE
 70
     0
  9
$REGENMODE
 70
     1
  9
$FILLMODE
 70
     1
  9
$QTEXTMODE
 70
     0
  9
$MIRRTEXT
 70
     0
  9
$DRAGMODE
 70
     2
  9
$LTSCALE
 40
0.2
  9
$OSMODE
 70
   567
  9
$ATTMODE
 70
     1
  9
$TEXTSIZE
 40
5.777225951253058
  9
$TRACEWID
 40
1.0
  9
$TEXTSTYLE
  7
STANDARD
  9
$CLAYER
  8
0
  9
$CELTYPE
  6
BYLAYER
  9
$CECOLOR
 62
   256
  9
$CELTSCALE
 40
1.0
  9
$DELOBJ
 70
     1
  9
$DISPSILH
 70
     0
  9
$DIMSCALE
 40
1.0
  9
$DIMASZ
 40
3.0
  9
$DIMEXO
 40
1.0
  9
$DIMDLI
 40
10.0
  9
$DIMRND
 40
0.0
  9
$DIMDLE
 40
0.0
  9
$DIMEXE
 40
0.6
  9
$DIMTP
 40
0.0
  9
$DIMTM
 40
0.0
  9
$DIMTXT
 40
3.5
  9
$DIMCEN
 40
0.09
  9
$DIMTSZ
 40
0.0
  9
$DIMTOL
 70
     0
  9
$DIMLIM
 70
     0
  9
$DIMTIH
 70
     0
  9
$DIMTOH
 70
     0
  9
$DIMSE1
 70
     0
  9
$DIMSE2
 70
     0
  9
$DIMTAD
 70
     1
  9
$DIMZIN
 70
     8
  9
$DIMBLK
  1

  9
$DIMASO
 70
     1
  9
$DIMSHO
 70
     1
  9
$DIMPOST
  1

  9
$DIMAPOST
  1

  9
$DIMALT
 70
     0
  9
$DIMALTD
 70
     2
  9
$DIMALTF
 40
25.4
  9
$DIMLFAC
 40
1.0
  9
$DIMTOFL
 70
     1
  9
$DIMTVP
 40
0.0
  9
$DIMTIX
 70
     1
  9
$DIMSOXD
 70
     0
  9
$DIMSAH
 70
     0
  9
$DIMBLK1
  1

  9
$DIMBLK2
  1

  9
$DIMSTYLE
  2
1_1_2
  9
$DIMCLRD
 70
   123
  9
$DIMCLRE
 70
   123
  9
$DIMCLRT
 70
     3
  9
$DIMTFAC
 40
1.0
  9
$DIMGAP
 40
1.0
  9
$DIMJUST
 70
     0
  9
$DIMSD1
 70
     0
  9
$DIMSD2
 70
     0
  9
$DIMTOLJ
 70
     1
  9
$DIMTZIN
 70
     0
  9
$DIMALTZ
 70
     0
  9
$DIMALTTZ
 70
     0
  9
$DIMFIT
 70
     0
  9
$DIMUPT
 70
     1
  9
$DIMUNIT
 70
     2
  9
$DIMDEC
 70
     2
  9
$DIMTDEC
 70
     2
  9
$DIMALTU
 70
     2
  9
$DIMALTTD
 70
     2
  9
$DIMTXSTY
  7
STANDARD
  9
$DIMAUNIT
 70
     1
  9
$LUNITS
 70
     2
  9
$LUPREC
 70
     4
  9
$SKETCHINC
 40
1.0
  9
$FILLETRAD
 40
0.5
  9
$AUNITS
 70
     0
  9
$AUPREC
 70
     0
  9
$MENU
  1
.
  9
$ELEVATION
 40
0.0
  9
$PELEVATION
 40
0.0
  9
$THICKNESS
 40
0.0
  9
$LIMCHECK
 70
     0
  9
$BLIPMODE
 70
     1
  9
$CHAMFERA
 40
1.0
  9
$CHAMFERB
 40
1.0
  9
$CHAMFERC
 40
20.0
  9
$CHAMFERD
 40
0.0
  9
$SKPOLY
 70
     0
  9
$TDCREATE
 40
2452839.586179271
  9
$TDUPDATE
 40
2453376.718794294
  9
$TDINDWG
 40
11.1149109491
  9
$TDUSRTIMER
 40
11.1149109491
  9
$USRTIMER
 70
     1
  9
$ANGBASE
 50
0.0
  9
$ANGDIR
 70
     0
  9
$PDMODE
 70
     0
  9
$PDSIZE
 40
0.0
  9
$PLINEWID
 40
0.0
  9
$COORDS
 70
     2
  9
$SPLFRAME
 70
     0
  9
$SPLINETYPE
 70
     6
  9
$SPLINESEGS
 70
   800
  9
$ATTDIA
 70
     0
  9
$ATTREQ
 70
     1
  9
$HANDLING
 70
 22529
  9
$HANDSEED
  5
5D4
  9
$SURFTAB1
 70
     6
  9
$SURFTAB2
 70
     6
  9
$SURFTYPE
 70
     6
  9
$SURFU
 70
     6
  9
$SURFV
 70
     6
  9
$UCSNAME
  2

  9
$UCSORG
 10
0.0
 20
0.0
 30
0.0
  9
$UCSXDIR
 10
1.0
 20
0.0
 30
0.0
  9
$UCSYDIR
 10
0.0
 20
1.0
 30
0.0
  9
$PUCSNAME
  2

  9
$PUCSORG
 10
0.0
 20
0.0
 30
0.0
  9
$PUCSXDIR
 10
1.0
 20
0.0
 30
0.0
  9
$PUCSYDIR
 10
0.0
 20
1.0
 30
0.0
  9
$USERI1
 70
     0
  9
$USERI2
 70
     0
  9
$USERI3
 70
     0
  9
$USERI4
 70
     0
  9
$USERI5
 70
     0
  9
$USERR1
 40
0.0
  9
$USERR2
 40
0.0
  9
$USERR3
 40
0.0
  9
$USERR4
 40
0.0
  9
$USERR5
 40
0.0
  9
$WORLDVIEW
 70
     1
  9
$SHADEDGE
 70
     3
  9
$SHADEDIF
 70
    70
  9
$TILEMODE
 70
     1
  9
$MAXACTVP
 70
    48
  9
$PINSBASE
 10
0.0
 20
0.0
 30
0.0
  9
$PLIMCHECK
 70
     0
  9
$PEXTMIN
 10
0.0
 20
0.0
 30
0.0
  9
$PEXTMAX
 10
0.0
 20
0.0
 30
0.0
  9
$PLIMMIN
 10
0.0
 20
0.0
  9
$PLIMMAX
 10
12.0
 20
9.0
  9
$UNITMODE
 70
     0
  9
$VISRETAIN
 70
     1
  9
$PLINEGEN
 70
     0
  9
$PSLTSCALE
 70
     1
  9
$TREEDEPTH
 70
  3020
  9
$PICKSTYLE
 70
     0
  9
$CMLSTYLE
  2
STANDARD
  9
$CMLJUST
 70
     0
  9
$CMLSCALE
 40
20.0
  9
$PROXYGRAPHICS
 70
     1
  9
$MEASUREMENT
 70
     1
  0
ENDSEC
  0
SECTION
  2
CLASSES
  0
CLASS
  1
ACDBDICTIONARYWDFLT
  2
AcDbDictionaryWithDefault
  3
AutoCAD 2000
 90
        0
280
     0
281
     0
  0
CLASS
  1
ACDBPLACEHOLDER
  2
AcDbPlaceHolder
  3
AutoCAD 2000
 90
        0
280
     0
281
     0
  0
CLASS
  1
LAYOUT
  2
AcDbLayout
  3
AutoCAD 2000
 90
        0
280
     0
281
     0
  0
CLASS
  1
DICTIONARYVAR
  2
AcDbDictionaryVar
  3
AutoCAD 2000
 90
        0
280
     0
281
     0
  0
CLASS
  1
DIMASSOC
  2
AcDbDimAssoc
  3
"AcDbDimAssoc|Product Desc:     AcDim ARX App For Dimension|Company:          Autodesk, Inc.|WEB Address:      www.autodesk.com"
 90
        0
280
     0
281
     0
  0
CLASS
  1
LONG_TRANSACTION
  2
AcDbLongTransaction
  3
AutoCAD 2000
 90
        0
280
     0
281
     0
  0
CLASS
  1
LWPOLYLINE
  2
AcDbPolyline
  3
AutoCAD 2000
 90
        0
280
     0
281
     1
  0
CLASS
  1
HATCH
  2
AcDbHatch
  3
AutoCAD 2000
 90
        0
280
     0
281
     1
  0
CLASS
  1
XRECORD
  2
AcDbXrecord
  3
AutoCAD 2000
 90
        0
280
     0
281
     0
  0
CLASS
  1
LONG_TRANSACTION
  2
AcDbLongTransaction
  3
AutoCAD 2000
 90
        0
280
     0
281
     0
  0
CLASS
  1
LWPOLYLINE
  2
AcDbPolyline
  3
AutoCAD 2000
 90
        0
280
     0
281
     1
  0
CLASS
  1
HATCH
  2
AcDbHatch
  3
AutoCAD 2000
 90
        0
280
     0
281
     1
  0
CLASS
  1
XRECORD
  2
AcDbXrecord
  3
AutoCAD 2000
 90
        0
280
     0
281
     0
  0
CLASS
  1
LONG_TRANSACTION
  2
AcDbLongTransaction
  3
AutoCAD 2000
 90
        0
280
     0
281
     0
  0
CLASS
  1
LWPOLYLINE
  2
AcDbPolyline
  3
AutoCAD 2000
 90
        0
280
     0
281
     1
  0
CLASS
  1
HATCH
  2
AcDbHatch
  3
AutoCAD 2000
 90
        0
280
     0
281
     1
  0
CLASS
  1
XRECORD
  2
AcDbXrecord
  3
AutoCAD 2000
 90
        0
280
     0
281
     0
  0
CLASS
  1
LONG_TRANSACTION
  2
AcDbLongTransaction
  3
AutoCAD 2000
 90
        0
280
     0
281
     0
  0
CLASS
  1
LWPOLYLINE
  2
AcDbPolyline
  3
AutoCAD 2000
 90
        0
280
     0
281
     1
  0
CLASS
  1
HATCH
  2
AcDbHatch
  3
AutoCAD 2000
 90
        0
280
     0
281
     1
  0
CLASS
  1
XRECORD
  2
AcDbXrecord
  3
AutoCAD 2000
 90
        0
280
     0
281
     0
  0
CLASS
  1
LONG_TRANSACTION
  2
AcDbLongTransaction
  3
AutoCAD 2000
 90
        0
280
     0
281
     0
  0
CLASS
  1
LWPOLYLINE
  2
AcDbPolyline
  3
AutoCAD 2000
 90
        0
280
     0
281
     1
  0
CLASS
  1
HATCH
  2
AcDbHatch
  3
AutoCAD 2000
 90
        0
280
     0
281
     1
  0
CLASS
  1
XRECORD
  2
AcDbXrecord
  3
AutoCAD 2000
 90
        0
280
     0
281
     0
  0
CLASS
  1
LONG_TRANSACTION
  2
AcDbLongTransaction
  3
AutoCAD 2000
 90
        0
280
     0
281
     0
  0
CLASS
  1
LWPOLYLINE
  2
AcDbPolyline
  3
AutoCAD 2000
 90
        0
280
     0
281
     1
  0
CLASS
  1
HATCH
  2
AcDbHatch
  3
AutoCAD 2000
 90
        0
280
     0
281
     1
  0
CLASS
  1
XRECORD
  2
AcDbXrecord
  3
AutoCAD 2000
 90
        0
280
     0
281
     0
  0
CLASS
  1
LONG_TRANSACTION
  2
AcDbLongTransaction
  3
AutoCAD 2000
 90
        0
280
     0
281
     0
  0
CLASS
  1
LWPOLYLINE
  2
AcDbPolyline
  3
AutoCAD 2000
 90
        0
280
     0
281
     1
  0
CLASS
  1
HATCH
  2
AcDbHatch
  3
AutoCAD 2000
 90
        0
280
     0
281
     1
  0
CLASS
  1
XRECORD
  2
AcDbXrecord
  3
AutoCAD 2000
 90
        0
280
     0
281
     0
  0
CLASS
  1
LONG_TRANSACTION
  2
AcDbLongTransaction
  3
AutoCAD 2000
 90
        0
280
     0
281
     0
  0
CLASS
  1
LWPOLYLINE
  2
AcDbPolyline
  3
AutoCAD 2000
 90
        0
280
     0
281
     1
  0
CLASS
  1
HATCH
  2
AcDbHatch
  3
AutoCAD 2000
 90
        0
280
     0
281
     1
  0
CLASS
  1
XRECORD
  2
AcDbXrecord
  3
AutoCAD 2000
 90
        0
280
     0
281
     0
  0
CLASS
  1
LONG_TRANSACTION
  2
AcDbLongTransaction
  3
AutoCAD 2000
 90
        0
280
     0
281
     0
  0
CLASS
  1
LWPOLYLINE
  2
AcDbPolyline
  3
AutoCAD 2000
 90
        0
280
     0
281
     1
  0
CLASS
  1
HATCH
  2
AcDbHatch
  3
AutoCAD 2000
 90
        0
280
     0
281
     1
  0
CLASS
  1
XRECORD
  2
AcDbXrecord
  3
AutoCAD 2000
 90
        0
280
     0
281
     0
  0
CLASS
  1
LONG_TRANSACTION
  2
AcDbLongTransaction
  3
AutoCAD 2000
 90
        0
280
     0
281
     0
  0
CLASS
  1
LWPOLYLINE
  2
AcDbPolyline
  3
AutoCAD 2000
 90
        0
280
     0
281
     1
  0
CLASS
  1
HATCH
  2
AcDbHatch
  3
AutoCAD 2000
 90
        0
280
     0
281
     1
  0
CLASS
  1
XRECORD
  2
AcDbXrecord
  3
AutoCAD 2000
 90
        0
280
     0
281
     0
  0
CLASS
  1
LONG_TRANSACTION
  2
AcDbLongTransaction
  3
AutoCAD 2000
 90
        0
280
     0
281
     0
  0
CLASS
  1
LWPOLYLINE
  2
AcDbPolyline
  3
AutoCAD 2000
 90
        0
280
     0
281
     1
  0
CLASS
  1
HATCH
  2
AcDbHatch
  3
AutoCAD 2000
 90
        0
280
     0
281
     1
  0
CLASS
  1
XRECORD
  2
AcDbXrecord
  3
AutoCAD 2000
 90
        0
280
     0
281
     0
  0
CLASS
  1
LONG_TRANSACTION
  2
AcDbLongTransaction
  3
AutoCAD 2000
 90
        0
280
     0
281
     0
  0
CLASS
  1
LWPOLYLINE
  2
AcDbPolyline
  3
AutoCAD 2000
 90
        0
280
     0
281
     1
  0
CLASS
  1
HATCH
  2
AcDbHatch
  3
AutoCAD 2000
 90
        0
280
     0
281
     1
  0
CLASS
  1
XRECORD
  2
AcDbXrecord
  3
AutoCAD 2000
 90
        0
280
     0
281
     0
  0
CLASS
  1
LONG_TRANSACTION
  2
AcDbLongTransaction
  3
AutoCAD 2000
 90
        0
280
     0
281
     0
  0
CLASS
  1
LWPOLYLINE
  2
AcDbPolyline
  3
AutoCAD 2000
 90
        0
280
     0
281
     1
  0
CLASS
  1
HATCH
  2
AcDbHatch
  3
AutoCAD 2000
 90
        0
280
     0
281
     1
  0
CLASS
  1
XRECORD
  2
AcDbXrecord
  3
AutoCAD 2000
 90
        0
280
     0
281
     0
  0
CLASS
  1
LONG_TRANSACTION
  2
AcDbLongTransaction
  3
AutoCAD 2000
 90
        0
280
     0
281
     0
  0
CLASS
  1
LWPOLYLINE
  2
AcDbPolyline
  3
AutoCAD 2000
 90
        0
280
     0
281
     1
  0
CLASS
  1
HATCH
  2
AcDbHatch
  3
AutoCAD 2000
 90
        0
280
     0
281
     1
  0
CLASS
  1
XRECORD
  2
AcDbXrecord
  3
AutoCAD 2000
 90
        0
280
     0
281
     0
  0
CLASS
  1
LONG_TRANSACTION
  2
AcDbLongTransaction
  3
AutoCAD 2000
 90
        0
280
     0
281
     0
  0
CLASS
  1
LWPOLYLINE
  2
AcDbPolyline
  3
AutoCAD 2000
 90
        0
280
     0
281
     1
  0
CLASS
  1
HATCH
  2
AcDbHatch
  3
AutoCAD 2000
 90
        0
280
     0
281
     1
  0
CLASS
  1
XRECORD
  2
AcDbXrecord
  3
AutoCAD 2000
 90
        0
280
     0
281
     0
  0
CLASS
  1
LONG_TRANSACTION
  2
AcDbLongTransaction
  3
AutoCAD 2000
 90
        0
280
     0
281
     0
  0
CLASS
  1
LWPOLYLINE
  2
AcDbPolyline
  3
AutoCAD 2000
 90
        0
280
     0
281
     1
  0
CLASS
  1
HATCH
  2
AcDbHatch
  3
AutoCAD 2000
 90
        0
280
     0
281
     1
  0
CLASS
  1
XRECORD
  2
AcDbXrecord
  3
AutoCAD 2000
 90
        0
280
     0
281
     0
  0
CLASS
  1
LONG_TRANSACTION
  2
AcDbLongTransaction
  3
AutoCAD 2000
 90
        0
280
     0
281
     0
  0
CLASS
  1
LWPOLYLINE
  2
AcDbPolyline
  3
AutoCAD 2000
 90
        0
280
     0
281
     1
  0
CLASS
  1
HATCH
  2
AcDbHatch
  3
AutoCAD 2000
 90
        0
280
     0
281
     1
  0
CLASS
  1
XRECORD
  2
AcDbXrecord
  3
AutoCAD 2000
 90
        0
280
     0
281
     0
  0
CLASS
  1
LONG_TRANSACTION
  2
AcDbLongTransaction
  3
AutoCAD 2000
 90
        0
280
     0
281
     0
  0
CLASS
  1
LWPOLYLINE
  2
AcDbPolyline
  3
AutoCAD 2000
 90
        0
280
     0
281
     1
  0
CLASS
  1
HATCH
  2
AcDbHatch
  3
AutoCAD 2000
 90
        0
280
     0
281
     1
  0
CLASS
  1
XRECORD
  2
AcDbXrecord
  3
AutoCAD 2000
 90
        0
280
     0
281
     0
  0
CLASS
  1
LONG_TRANSACTION
  2
AcDbLongTransaction
  3
AutoCAD 2000
 90
        0
280
     0
281
     0
  0
CLASS
  1
LWPOLYLINE
  2
AcDbPolyline
  3
AutoCAD 2000
 90
        0
280
     0
281
     1
  0
CLASS
  1
HATCH
  2
AcDbHatch
  3
AutoCAD 2000
 90
        0
280
     0
281
     1
  0
CLASS
  1
XRECORD
  2
AcDbXrecord
  3
AutoCAD 2000
 90
        0
280
     0
281
     0
  0
CLASS
  1
LONG_TRANSACTION
  2
AcDbLongTransaction
  3
AutoCAD 2000
 90
        0
280
     0
281
     0
  0
CLASS
  1
LWPOLYLINE
  2
AcDbPolyline
  3
AutoCAD 2000
 90
        0
280
     0
281
     1
  0
CLASS
  1
HATCH
  2
AcDbHatch
  3
AutoCAD 2000
 90
        0
280
     0
281
     1
  0
CLASS
  1
XRECORD
  2
AcDbXrecord
  3
AutoCAD 2000
 90
        0
280
     0
281
     0
  0
CLASS
  1
LONG_TRANSACTION
  2
AcDbLongTransaction
  3
AutoCAD 2000
 90
        0
280
     0
281
     0
  0
CLASS
  1
LWPOLYLINE
  2
AcDbPolyline
  3
AutoCAD 2000
 90
        0
280
     0
281
     1
  0
CLASS
  1
HATCH
  2
AcDbHatch
  3
AutoCAD 2000
 90
        0
280
     0
281
     1
  0
CLASS
  1
XRECORD
  2
AcDbXrecord
  3
AutoCAD 2000
 90
        0
280
     0
281
     0
  0
CLASS
  1
LONG_TRANSACTION
  2
AcDbLongTransaction
  3
AutoCAD 2000
 90
        0
280
     0
281
     0
  0
CLASS
  1
LWPOLYLINE
  2
AcDbPolyline
  3
AutoCAD 2000
 90
        0
280
     0
281
     1
  0
CLASS
  1
HATCH
  2
AcDbHatch
  3
AutoCAD 2000
 90
        0
280
     0
281
     1
  0
CLASS
  1
XRECORD
  2
AcDbXrecord
  3
AutoCAD 2000
 90
        0
280
     0
281
     0
  0
CLASS
  1
LONG_TRANSACTION
  2
AcDbLongTransaction
  3
AutoCAD 2000
 90
        0
280
     0
281
     0
  0
CLASS
  1
LWPOLYLINE
  2
AcDbPolyline
  3
AutoCAD 2000
 90
        0
280
     0
281
     1
  0
CLASS
  1
HATCH
  2
AcDbHatch
  3
AutoCAD 2000
 90
        0
280
     0
281
     1
  0
CLASS
  1
XRECORD
  2
AcDbXrecord
  3
AutoCAD 2000
 90
        0
280
     0
281
     0
  0
CLASS
  1
LONG_TRANSACTION
  2
AcDbLongTransaction
  3
AutoCAD 2000
 90
        0
280
     0
281
     0
  0
CLASS
  1
LWPOLYLINE
  2
AcDbPolyline
  3
AutoCAD 2000
 90
        0
280
     0
281
     1
  0
CLASS
  1
HATCH
  2
AcDbHatch
  3
AutoCAD 2000
 90
        0
280
     0
281
     1
  0
CLASS
  1
XRECORD
  2
AcDbXrecord
  3
AutoCAD 2000
 90
        0
280
     0
281
     0
  0
CLASS
  1
LONG_TRANSACTION
  2
AcDbLongTransaction
  3
AutoCAD 2000
 90
        0
280
     0
281
     0
  0
CLASS
  1
LWPOLYLINE
  2
AcDbPolyline
  3
AutoCAD 2000
 90
        0
280
     0
281
     1
  0
CLASS
  1
HATCH
  2
AcDbHatch
  3
AutoCAD 2000
 90
        0
280
     0
281
     1
  0
CLASS
  1
XRECORD
  2
AcDbXrecord
  3
AutoCAD 2000
 90
        0
280
     0
281
     0
  0
CLASS
  1
LONG_TRANSACTION
  2
AcDbLongTransaction
  3
AutoCAD 2000
 90
        0
280
     0
281
     0
  0
CLASS
  1
LWPOLYLINE
  2
AcDbPolyline
  3
AutoCAD 2000
 90
        0
280
     0
281
     1
  0
CLASS
  1
HATCH
  2
AcDbHatch
  3
AutoCAD 2000
 90
        0
280
     0
281
     1
  0
CLASS
  1
XRECORD
  2
AcDbXrecord
  3
AutoCAD 2000
 90
        0
280
     0
281
     0
  0
CLASS
  1
LONG_TRANSACTION
  2
AcDbLongTransaction
  3
AutoCAD 2000
 90
        0
280
     0
281
     0
  0
CLASS
  1
LWPOLYLINE
  2
AcDbPolyline
  3
AutoCAD 2000
 90
        0
280
     0
281
     1
  0
CLASS
  1
HATCH
  2
AcDbHatch
  3
AutoCAD 2000
 90
        0
280
     0
281
     1
  0
CLASS
  1
XRECORD
  2
AcDbXrecord
  3
AutoCAD 2000
 90
        0
280
     0
281
     0
  0
CLASS
  1
LONG_TRANSACTION
  2
AcDbLongTransaction
  3
AutoCAD 2000
 90
        0
280
     0
281
     0
  0
CLASS
  1
LWPOLYLINE
  2
AcDbPolyline
  3
AutoCAD 2000
 90
        0
280
     0
281
     1
  0
CLASS
  1
HATCH
  2
AcDbHatch
  3
AutoCAD 2000
 90
        0
280
     0
281
     1
  0
CLASS
  1
XRECORD
  2
AcDbXrecord
  3
AutoCAD 2000
 90
        0
280
     0
281
     0
  0
CLASS
  1
LONG_TRANSACTION
  2
AcDbLongTransaction
  3
AutoCAD 2000
 90
        0
280
     0
281
     0
  0
CLASS
  1
LWPOLYLINE
  2
AcDbPolyline
  3
AutoCAD 2000
 90
        0
280
     0
281
     1
  0
CLASS
  1
HATCH
  2
AcDbHatch
  3
AutoCAD 2000
 90
        0
280
     0
281
     1
  0
CLASS
  1
XRECORD
  2
AcDbXrecord
  3
AutoCAD 2000
 90
        0
280
     0
281
     0
  0
CLASS
  1
LONG_TRANSACTION
  2
AcDbLongTransaction
  3
AutoCAD 2000
 90
        0
280
     0
281
     0
  0
CLASS
  1
LWPOLYLINE
  2
AcDbPolyline
  3
AutoCAD 2000
 90
        0
280
     0
281
     1
  0
CLASS
  1
HATCH
  2
AcDbHatch
  3
AutoCAD 2000
 90
        0
280
     0
281
     1
  0
CLASS
  1
XRECORD
  2
AcDbXrecord
  3
AutoCAD 2000
 90
        0
280
     0
281
     0
  0
CLASS
  1
LONG_TRANSACTION
  2
AcDbLongTransaction
  3
AutoCAD 2000
 90
        0
280
     0
281
     0
  0
CLASS
  1
LWPOLYLINE
  2
AcDbPolyline
  3
AutoCAD 2000
 90
        0
280
     0
281
     1
  0
CLASS
  1
HATCH
  2
AcDbHatch
  3
AutoCAD 2000
 90
        0
280
     0
281
     1
  0
CLASS
  1
XRECORD
  2
AcDbXrecord
  3
AutoCAD 2000
 90
        0
280
     0
281
     0
  0
CLASS
  1
LONG_TRANSACTION
  2
AcDbLongTransaction
  3
AutoCAD 2000
 90
        0
280
     0
281
     0
  0
CLASS
  1
LWPOLYLINE
  2
AcDbPolyline
  3
AutoCAD 2000
 90
        0
280
     0
281
     1
  0
CLASS
  1
HATCH
  2
AcDbHatch
  3
AutoCAD 2000
 90
        0
280
     0
281
     1
  0
CLASS
  1
XRECORD
  2
AcDbXrecord
  3
AutoCAD 2000
 90
        0
280
     0
281
     0
  0
CLASS
  1
LONG_TRANSACTION
  2
AcDbLongTransaction
  3
AutoCAD 2000
 90
        0
280
     0
281
     0
  0
CLASS
  1
LWPOLYLINE
  2
AcDbPolyline
  3
AutoCAD 2000
 90
        0
280
     0
281
     1
  0
CLASS
  1
HATCH
  2
AcDbHatch
  3
AutoCAD 2000
 90
        0
280
     0
281
     1
  0
CLASS
  1
XRECORD
  2
AcDbXrecord
  3
AutoCAD 2000
 90
        0
280
     0
281
     0
  0
CLASS
  1
LONG_TRANSACTION
  2
AcDbLongTransaction
  3
AutoCAD 2000
 90
        0
280
     0
281
     0
  0
CLASS
  1
LWPOLYLINE
  2
AcDbPolyline
  3
AutoCAD 2000
 90
        0
280
     0
281
     1
  0
CLASS
  1
HATCH
  2
AcDbHatch
  3
AutoCAD 2000
 90
        0
280
     0
281
     1
  0
CLASS
  1
XRECORD
  2
AcDbXrecord
  3
AutoCAD 2000
 90
        0
280
     0
281
     0
  0
CLASS
  1
LONG_TRANSACTION
  2
AcDbLongTransaction
  3
AutoCAD 2000
 90
        0
280
     0
281
     0
  0
CLASS
  1
LWPOLYLINE
  2
AcDbPolyline
  3
AutoCAD 2000
 90
        0
280
     0
281
     1
  0
CLASS
  1
HATCH
  2
AcDbHatch
  3
AutoCAD 2000
 90
        0
280
     0
281
     1
  0
CLASS
  1
XRECORD
  2
AcDbXrecord
  3
AutoCAD 2000
 90
        0
280
     0
281
     0
  0
CLASS
  1
LONG_TRANSACTION
  2
AcDbLongTransaction
  3
AutoCAD 2000
 90
        0
280
     0
281
     0
  0
CLASS
  1
LWPOLYLINE
  2
AcDbPolyline
  3
AutoCAD 2000
 90
        0
280
     0
281
     1
  0
CLASS
  1
HATCH
  2
AcDbHatch
  3
AutoCAD 2000
 90
        0
280
     0
281
     1
  0
CLASS
  1
XRECORD
  2
AcDbXrecord
  3
AutoCAD 2000
 90
        0
280
     0
281
     0
  0
CLASS
  1
LONG_TRANSACTION
  2
AcDbLongTransaction
  3
AutoCAD 2000
 90
        0
280
     0
281
     0
  0
CLASS
  1
LWPOLYLINE
  2
AcDbPolyline
  3
AutoCAD 2000
 90
        0
280
     0
281
     1
  0
CLASS
  1
HATCH
  2
AcDbHatch
  3
AutoCAD 2000
 90
        0
280
     0
281
     1
  0
CLASS
  1
XRECORD
  2
AcDbXrecord
  3
AutoCAD 2000
 90
        0
280
     0
281
     0
  0
CLASS
  1
LONG_TRANSACTION
  2
AcDbLongTransaction
  3
AutoCAD 2000
 90
        0
280
     0
281
     0
  0
CLASS
  1
LWPOLYLINE
  2
AcDbPolyline
  3
AutoCAD 2000
 90
        0
280
     0
281
     1
  0
CLASS
  1
HATCH
  2
AcDbHatch
  3
AutoCAD 2000
 90
        0
280
     0
281
     1
  0
CLASS
  1
XRECORD
  2
AcDbXrecord
  3
AutoCAD 2000
 90
        0
280
     0
281
     0
  0
CLASS
  1
LONG_TRANSACTION
  2
AcDbLongTransaction
  3
AutoCAD 2000
 90
        0
280
     0
281
     0
  0
CLASS
  1
LWPOLYLINE
  2
AcDbPolyline
  3
AutoCAD 2000
 90
        0
280
     0
281
     1
  0
CLASS
  1
HATCH
  2
AcDbHatch
  3
AutoCAD 2000
 90
        0
280
     0
281
     1
  0
CLASS
  1
XRECORD
  2
AcDbXrecord
  3
AutoCAD 2000
 90
        0
280
     0
281
     0
  0
CLASS
  1
LONG_TRANSACTION
  2
AcDbLongTransaction
  3
AutoCAD 2000
 90
        0
280
     0
281
     0
  0
CLASS
  1
LWPOLYLINE
  2
AcDbPolyline
  3
AutoCAD 2000
 90
        0
280
     0
281
     1
  0
CLASS
  1
HATCH
  2
AcDbHatch
  3
AutoCAD 2000
 90
        0
280
     0
281
     1
  0
CLASS
  1
XRECORD
  2
AcDbXrecord
  3
AutoCAD 2000
 90
        0
280
     0
281
     0
  0
CLASS
  1
LONG_TRANSACTION
  2
AcDbLongTransaction
  3
AutoCAD 2000
 90
        0
280
     0
281
     0
  0
CLASS
  1
LWPOLYLINE
  2
AcDbPolyline
  3
AutoCAD 2000
 90
        0
280
     0
281
     1
  0
CLASS
  1
HATCH
  2
AcDbHatch
  3
AutoCAD 2000
 90
        0
280
     0
281
     1
  0
CLASS
  1
XRECORD
  2
AcDbXrecord
  3
AutoCAD 2000
 90
        0
280
     0
281
     0
  0
CLASS
  1
LONG_TRANSACTION
  2
AcDbLongTransaction
  3
AutoCAD 2000
 90
        0
280
     0
281
     0
  0
CLASS
  1
LWPOLYLINE
  2
AcDbPolyline
  3
AutoCAD 2000
 90
        0
280
     0
281
     1
  0
CLASS
  1
HATCH
  2
AcDbHatch
  3
AutoCAD 2000
 90
        0
280
     0
281
     1
  0
CLASS
  1
XRECORD
  2
AcDbXrecord
  3
AutoCAD 2000
 90
        0
280
     0
281
     0
  0
CLASS
  1
LONG_TRANSACTION
  2
AcDbLongTransaction
  3
AutoCAD 2000
 90
        0
280
     0
281
     0
  0
CLASS
  1
LWPOLYLINE
  2
AcDbPolyline
  3
AutoCAD 2000
 90
        0
280
     0
281
     1
  0
CLASS
  1
HATCH
  2
AcDbHatch
  3
AutoCAD 2000
 90
        0
280
     0
281
     1
  0
CLASS
  1
XRECORD
  2
AcDbXrecord
  3
AutoCAD 2000
 90
        0
280
     0
281
     0
  0
CLASS
  1
LONG_TRANSACTION
  2
AcDbLongTransaction
  3
AutoCAD 2000
 90
        0
280
     0
281
     0
  0
CLASS
  1
LWPOLYLINE
  2
AcDbPolyline
  3
AutoCAD 2000
 90
        0
280
     0
281
     1
  0
CLASS
  1
HATCH
  2
AcDbHatch
  3
AutoCAD 2000
 90
        0
280
     0
281
     1
  0
CLASS
  1
XRECORD
  2
AcDbXrecord
  3
AutoCAD 2000
 90
        0
280
     0
281
     0
  0
CLASS
  1
LONG_TRANSACTION
  2
AcDbLongTransaction
  3
AutoCAD 2000
 90
        0
280
     0
281
     0
  0
CLASS
  1
LWPOLYLINE
  2
AcDbPolyline
  3
AutoCAD 2000
 90
        0
280
     0
281
     1
  0
CLASS
  1
HATCH
  2
AcDbHatch
  3
AutoCAD 2000
 90
        0
280
     0
281
     1
  0
CLASS
  1
XRECORD
  2
AcDbXrecord
  3
AutoCAD 2000
 90
        0
280
     0
281
     0
  0
CLASS
  1
LONG_TRANSACTION
  2
AcDbLongTransaction
  3
AutoCAD 2000
 90
        0
280
     0
281
     0
  0
CLASS
  1
LWPOLYLINE
  2
AcDbPolyline
  3
AutoCAD 2000
 90
        0
280
     0
281
     1
  0
CLASS
  1
HATCH
  2
AcDbHatch
  3
AutoCAD 2000
 90
        0
280
     0
281
     1
  0
CLASS
  1
XRECORD
  2
AcDbXrecord
  3
AutoCAD 2000
 90
        0
280
     0
281
     0
  0
CLASS
  1
LONG_TRANSACTION
  2
AcDbLongTransaction
  3
AutoCAD 2000
 90
        0
280
     0
281
     0
  0
CLASS
  1
LWPOLYLINE
  2
AcDbPolyline
  3
AutoCAD 2000
 90
        0
280
     0
281
     1
  0
CLASS
  1
HATCH
  2
AcDbHatch
  3
AutoCAD 2000
 90
        0
280
     0
281
     1
  0
CLASS
  1
XRECORD
  2
AcDbXrecord
  3
AutoCAD 2000
 90
        0
280
     0
281
     0
  0
CLASS
  1
LONG_TRANSACTION
  2
AcDbLongTransaction
  3
AutoCAD 2000
 90
        0
280
     0
281
     0
  0
CLASS
  1
LWPOLYLINE
  2
AcDbPolyline
  3
AutoCAD 2000
 90
        0
280
     0
281
     1
  0
CLASS
  1
HATCH
  2
AcDbHatch
  3
AutoCAD 2000
 90
        0
280
     0
281
     1
  0
CLASS
  1
XRECORD
  2
AcDbXrecord
  3
AutoCAD 2000
 90
        0
280
     0
281
     0
  0
CLASS
  1
LONG_TRANSACTION
  2
AcDbLongTransaction
  3
AutoCAD 2000
 90
        0
280
     0
281
     0
  0
CLASS
  1
LWPOLYLINE
  2
AcDbPolyline
  3
AutoCAD 2000
 90
        0
280
     0
281
     1
  0
CLASS
  1
HATCH
  2
AcDbHatch
  3
AutoCAD 2000
 90
        0
280
     0
281
     1
  0
CLASS
  1
XRECORD
  2
AcDbXrecord
  3
AutoCAD 2000
 90
        0
280
     0
281
     0
  0
CLASS
  1
LONG_TRANSACTION
  2
AcDbLongTransaction
  3
AutoCAD 2000
 90
        0
280
     0
281
     0
  0
CLASS
  1
LWPOLYLINE
  2
AcDbPolyline
  3
AutoCAD 2000
 90
        0
280
     0
281
     1
  0
CLASS
  1
HATCH
  2
AcDbHatch
  3
AutoCAD 2000
 90
        0
280
     0
281
     1
  0
CLASS
  1
XRECORD
  2
AcDbXrecord
  3
AutoCAD 2000
 90
        0
280
     0
281
     0
  0
CLASS
  1
LONG_TRANSACTION
  2
AcDbLongTransaction
  3
AutoCAD 2000
 90
        0
280
     0
281
     0
  0
CLASS
  1
LWPOLYLINE
  2
AcDbPolyline
  3
AutoCAD 2000
 90
        0
280
     0
281
     1
  0
CLASS
  1
HATCH
  2
AcDbHatch
  3
AutoCAD 2000
 90
        0
280
     0
281
     1
  0
CLASS
  1
XRECORD
  2
AcDbXrecord
  3
AutoCAD 2000
 90
        0
280
     0
281
     0
  0
CLASS
  1
LONG_TRANSACTION
  2
AcDbLongTransaction
  3
AutoCAD 2000
 90
        0
280
     0
281
     0
  0
CLASS
  1
LWPOLYLINE
  2
AcDbPolyline
  3
AutoCAD 2000
 90
        0
280
     0
281
     1
  0
CLASS
  1
HATCH
  2
AcDbHatch
  3
AutoCAD 2000
 90
        0
280
     0
281
     1
  0
CLASS
  1
XRECORD
  2
AcDbXrecord
  3
AutoCAD 2000
 90
        0
280
     0
281
     0
  0
CLASS
  1
LONG_TRANSACTION
  2
AcDbLongTransaction
  3
AutoCAD 2000
 90
        0
280
     0
281
     0
  0
CLASS
  1
LWPOLYLINE
  2
AcDbPolyline
  3
AutoCAD 2000
 90
        0
280
     0
281
     1
  0
CLASS
  1
HATCH
  2
AcDbHatch
  3
AutoCAD 2000
 90
        0
280
     0
281
     1
  0
CLASS
  1
XRECORD
  2
AcDbXrecord
  3
AutoCAD 2000
 90
        0
280
     0
281
     0
  0
CLASS
  1
LONG_TRANSACTION
  2
AcDbLongTransaction
  3
AutoCAD 2000
 90
        0
280
     0
281
     0
  0
CLASS
  1
LWPOLYLINE
  2
AcDbPolyline
  3
AutoCAD 2000
 90
        0
280
     0
281
     1
  0
CLASS
  1
HATCH
  2
AcDbHatch
  3
AutoCAD 2000
 90
        0
280
     0
281
     1
  0
CLASS
  1
XRECORD
  2
AcDbXrecord
  3
AutoCAD 2000
 90
        0
280
     0
281
     0
  0
CLASS
  1
LONG_TRANSACTION
  2
AcDbLongTransaction
  3
AutoCAD 2000
 90
        0
280
     0
281
     0
  0
CLASS
  1
LWPOLYLINE
  2
AcDbPolyline
  3
AutoCAD 2000
 90
        0
280
     0
281
     1
  0
CLASS
  1
HATCH
  2
AcDbHatch
  3
AutoCAD 2000
 90
        0
280
     0
281
     1
  0
CLASS
  1
XRECORD
  2
AcDbXrecord
  3
AutoCAD 2000
 90
        0
280
     0
281
     0
  0
CLASS
  1
LONG_TRANSACTION
  2
AcDbLongTransaction
  3
AutoCAD 2000
 90
        0
280
     0
281
     0
  0
CLASS
  1
LWPOLYLINE
  2
AcDbPolyline
  3
AutoCAD 2000
 90
        0
280
     0
281
     1
  0
CLASS
  1
HATCH
  2
AcDbHatch
  3
AutoCAD 2000
 90
        0
280
     0
281
     1
  0
CLASS
  1
XRECORD
  2
AcDbXrecord
  3
AutoCAD 2000
 90
        0
280
     0
281
     0
  0
CLASS
  1
LONG_TRANSACTION
  2
AcDbLongTransaction
  3
AutoCAD 2000
 90
        0
280
     0
281
     0
  0
CLASS
  1
LWPOLYLINE
  2
AcDbPolyline
  3
AutoCAD 2000
 90
        0
280
     0
281
     1
  0
CLASS
  1
HATCH
  2
AcDbHatch
  3
AutoCAD 2000
 90
        0
280
     0
281
     1
  0
CLASS
  1
XRECORD
  2
AcDbXrecord
  3
AutoCAD 2000
 90
        0
280
     0
281
     0
  0
CLASS
  1
LONG_TRANSACTION
  2
AcDbLongTransaction
  3
AutoCAD 2000
 90
        0
280
     0
281
     0
  0
CLASS
  1
LWPOLYLINE
  2
AcDbPolyline
  3
AutoCAD 2000
 90
        0
280
     0
281
     1
  0
CLASS
  1
HATCH
  2
AcDbHatch
  3
AutoCAD 2000
 90
        0
280
     0
281
     1
  0
CLASS
  1
XRECORD
  2
AcDbXrecord
  3
AutoCAD 2000
 90
        0
280
     0
281
     0
  0
CLASS
  1
LONG_TRANSACTION
  2
AcDbLongTransaction
  3
AutoCAD 2000
 90
        0
280
     0
281
     0
  0
CLASS
  1
LWPOLYLINE
  2
AcDbPolyline
  3
AutoCAD 2000
 90
        0
280
     0
281
     1
  0
CLASS
  1
HATCH
  2
AcDbHatch
  3
AutoCAD 2000
 90
        0
280
     0
281
     1
  0
CLASS
  1
XRECORD
  2
AcDbXrecord
  3
AutoCAD 2000
 90
        0
280
     0
281
     0
  0
CLASS
  1
LONG_TRANSACTION
  2
AcDbLongTransaction
  3
AutoCAD 2000
 90
        0
280
     0
281
     0
  0
CLASS
  1
LWPOLYLINE
  2
AcDbPolyline
  3
AutoCAD 2000
 90
        0
280
     0
281
     1
  0
CLASS
  1
HATCH
  2
AcDbHatch
  3
AutoCAD 2000
 90
        0
280
     0
281
     1
  0
CLASS
  1
XRECORD
  2
AcDbXrecord
  3
AutoCAD 2000
 90
        0
280
     0
281
     0
  0
CLASS
  1
LONG_TRANSACTION
  2
AcDbLongTransaction
  3
AutoCAD 2000
 90
        0
280
     0
281
     0
  0
CLASS
  1
LWPOLYLINE
  2
AcDbPolyline
  3
AutoCAD 2000
 90
        0
280
     0
281
     1
  0
CLASS
  1
HATCH
  2
AcDbHatch
  3
AutoCAD 2000
 90
        0
280
     0
281
     1
  0
CLASS
  1
XRECORD
  2
AcDbXrecord
  3
AutoCAD 2000
 90
        0
280
     0
281
     0
  0
CLASS
  1
LONG_TRANSACTION
  2
AcDbLongTransaction
  3
AutoCAD 2000
 90
        0
280
     0
281
     0
  0
CLASS
  1
LWPOLYLINE
  2
AcDbPolyline
  3
AutoCAD 2000
 90
        0
280
     0
281
     1
  0
CLASS
  1
HATCH
  2
AcDbHatch
  3
AutoCAD 2000
 90
        0
280
     0
281
     1
  0
CLASS
  1
XRECORD
  2
AcDbXrecord
  3
AutoCAD 2000
 90
        0
280
     0
281
     0
  0
CLASS
  1
LONG_TRANSACTION
  2
AcDbLongTransaction
  3
AutoCAD 2000
 90
        0
280
     0
281
     0
  0
CLASS
  1
LWPOLYLINE
  2
AcDbPolyline
  3
AutoCAD 2000
 90
        0
280
     0
281
     1
  0
CLASS
  1
HATCH
  2
AcDbHatch
  3
AutoCAD 2000
 90
        0
280
     0
281
     1
  0
CLASS
  1
XRECORD
  2
AcDbXrecord
  3
AutoCAD 2000
 90
        0
280
     0
281
     0
  0
CLASS
  1
LONG_TRANSACTION
  2
AcDbLongTransaction
  3
AutoCAD 2000
 90
        0
280
     0
281
     0
  0
CLASS
  1
LWPOLYLINE
  2
AcDbPolyline
  3
AutoCAD 2000
 90
        0
280
     0
281
     1
  0
CLASS
  1
HATCH
  2
AcDbHatch
  3
AutoCAD 2000
 90
        0
280
     0
281
     1
  0
CLASS
  1
XRECORD
  2
AcDbXrecord
  3
AutoCAD 2000
 90
        0
280
     0
281
     0
  0
CLASS
  1
LONG_TRANSACTION
  2
AcDbLongTransaction
  3
AutoCAD 2000
 90
        0
280
     0
281
     0
  0
CLASS
  1
LWPOLYLINE
  2
AcDbPolyline
  3
AutoCAD 2000
 90
        0
280
     0
281
     1
  0
CLASS
  1
HATCH
  2
AcDbHatch
  3
AutoCAD 2000
 90
        0
280
     0
281
     1
  0
CLASS
  1
XRECORD
  2
AcDbXrecord
  3
AutoCAD 2000
 90
        0
280
     0
281
     0
  0
CLASS
  1
LONG_TRANSACTION
  2
AcDbLongTransaction
  3
AutoCAD 2000
 90
        0
280
     0
281
     0
  0
CLASS
  1
LWPOLYLINE
  2
AcDbPolyline
  3
AutoCAD 2000
 90
        0
280
     0
281
     1
  0
CLASS
  1
HATCH
  2
AcDbHatch
  3
AutoCAD 2000
 90
        0
280
     0
281
     1
  0
CLASS
  1
XRECORD
  2
AcDbXrecord
  3
AutoCAD 2000
 90
        0
280
     0
281
     0
  0
CLASS
  1
LONG_TRANSACTION
  2
AcDbLongTransaction
  3
AutoCAD 2000
 90
        0
280
     0
281
     0
  0
CLASS
  1
LWPOLYLINE
  2
AcDbPolyline
  3
AutoCAD 2000
 90
        0
280
     0
281
     1
  0
CLASS
  1
HATCH
  2
AcDbHatch
  3
AutoCAD 2000
 90
        0
280
     0
281
     1
  0
CLASS
  1
XRECORD
  2
AcDbXrecord
  3
AutoCAD 2000
 90
        0
280
     0
281
     0
  0
CLASS
  1
LONG_TRANSACTION
  2
AcDbLongTransaction
  3
AutoCAD 2000
 90
        0
280
     0
281
     0
  0
CLASS
  1
LWPOLYLINE
  2
AcDbPolyline
  3
AutoCAD 2000
 90
        0
280
     0
281
     1
  0
CLASS
  1
HATCH
  2
AcDbHatch
  3
AutoCAD 2000
 90
        0
280
     0
281
     1
  0
CLASS
  1
XRECORD
  2
AcDbXrecord
  3
AutoCAD 2000
 90
        0
280
     0
281
     0
  0
CLASS
  1
LONG_TRANSACTION
  2
AcDbLongTransaction
  3
AutoCAD 2000
 90
        0
280
     0
281
     0
  0
CLASS
  1
LWPOLYLINE
  2
AcDbPolyline
  3
AutoCAD 2000
 90
        0
280
     0
281
     1
  0
CLASS
  1
HATCH
  2
AcDbHatch
  3
AutoCAD 2000
 90
        0
280
     0
281
     1
  0
CLASS
  1
XRECORD
  2
AcDbXrecord
  3
AutoCAD 2000
 90
        0
280
     0
281
     0
  0
CLASS
  1
LONG_TRANSACTION
  2
AcDbLongTransaction
  3
AutoCAD 2000
 90
        0
280
     0
281
     0
  0
CLASS
  1
LWPOLYLINE
  2
AcDbPolyline
  3
AutoCAD 2000
 90
        0
280
     0
281
     1
  0
CLASS
  1
HATCH
  2
AcDbHatch
  3
AutoCAD 2000
 90
        0
280
     0
281
     1
  0
CLASS
  1
XRECORD
  2
AcDbXrecord
  3
AutoCAD 2000
 90
        0
280
     0
281
     0
  0
CLASS
  1
LONG_TRANSACTION
  2
AcDbLongTransaction
  3
AutoCAD 2000
 90
        0
280
     0
281
     0
  0
CLASS
  1
LWPOLYLINE
  2
AcDbPolyline
  3
AutoCAD 2000
 90
        0
280
     0
281
     1
  0
CLASS
  1
HATCH
  2
AcDbHatch
  3
AutoCAD 2000
 90
        0
280
     0
281
     1
  0
CLASS
  1
XRECORD
  2
AcDbXrecord
  3
AutoCAD 2000
 90
        0
280
     0
281
     0
  0
CLASS
  1
LONG_TRANSACTION
  2
AcDbLongTransaction
  3
AutoCAD 2000
 90
        0
280
     0
281
     0
  0
CLASS
  1
LWPOLYLINE
  2
AcDbPolyline
  3
AutoCAD 2000
 90
        0
280
     0
281
     1
  0
CLASS
  1
HATCH
  2
AcDbHatch
  3
AutoCAD 2000
 90
        0
280
     0
281
     1
  0
CLASS
  1
XRECORD
  2
AcDbXrecord
  3
AutoCAD 2000
 90
        0
280
     0
281
     0
  0
CLASS
  1
LONG_TRANSACTION
  2
AcDbLongTransaction
  3
AutoCAD 2000
 90
        0
280
     0
281
     0
  0
CLASS
  1
LWPOLYLINE
  2
AcDbPolyline
  3
AutoCAD 2000
 90
        0
280
     0
281
     1
  0
CLASS
  1
HATCH
  2
AcDbHatch
  3
AutoCAD 2000
 90
        0
280
     0
281
     1
  0
CLASS
  1
XRECORD
  2
AcDbXrecord
  3
AutoCAD 2000
 90
        0
280
     0
281
     0
  0
CLASS
  1
LONG_TRANSACTION
  2
AcDbLongTransaction
  3
AutoCAD 2000
 90
        0
280
     0
281
     0
  0
CLASS
  1
LWPOLYLINE
  2
AcDbPolyline
  3
AutoCAD 2000
 90
        0
280
     0
281
     1
  0
CLASS
  1
HATCH
  2
AcDbHatch
  3
AutoCAD 2000
 90
        0
280
     0
281
     1
  0
CLASS
  1
XRECORD
  2
AcDbXrecord
  3
AutoCAD 2000
 90
        0
280
     0
281
     0
  0
CLASS
  1
LONG_TRANSACTION
  2
AcDbLongTransaction
  3
AutoCAD 2000
 90
        0
280
     0
281
     0
  0
CLASS
  1
LWPOLYLINE
  2
AcDbPolyline
  3
AutoCAD 2000
 90
        0
280
     0
281
     1
  0
CLASS
  1
HATCH
  2
AcDbHatch
  3
AutoCAD 2000
 90
        0
280
     0
281
     1
  0
CLASS
  1
XRECORD
  2
AcDbXrecord
  3
AutoCAD 2000
 90
        0
280
     0
281
     0
  0
CLASS
  1
LONG_TRANSACTION
  2
AcDbLongTransaction
  3
AutoCAD 2000
 90
        0
280
     0
281
     0
  0
CLASS
  1
LWPOLYLINE
  2
AcDbPolyline
  3
AutoCAD 2000
 90
        0
280
     0
281
     1
  0
CLASS
  1
HATCH
  2
AcDbHatch
  3
AutoCAD 2000
 90
        0
280
     0
281
     1
  0
CLASS
  1
XRECORD
  2
AcDbXrecord
  3
AutoCAD 2000
 90
        0
280
     0
281
     0
  0
CLASS
  1
LONG_TRANSACTION
  2
AcDbLongTransaction
  3
AutoCAD 2000
 90
        0
280
     0
281
     0
  0
CLASS
  1
LWPOLYLINE
  2
AcDbPolyline
  3
AutoCAD 2000
 90
        0
280
     0
281
     1
  0
CLASS
  1
HATCH
  2
AcDbHatch
  3
AutoCAD 2000
 90
        0
280
     0
281
     1
  0
CLASS
  1
XRECORD
  2
AcDbXrecord
  3
AutoCAD 2000
 90
        0
280
     0
281
     0
  0
CLASS
  1
LONG_TRANSACTION
  2
AcDbLongTransaction
  3
AutoCAD 2000
 90
        0
280
     0
281
     0
  0
CLASS
  1
LWPOLYLINE
  2
AcDbPolyline
  3
AutoCAD 2000
 90
        0
280
     0
281
     1
  0
CLASS
  1
HATCH
  2
AcDbHatch
  3
AutoCAD 2000
 90
        0
280
     0
281
     1
  0
CLASS
  1
XRECORD
  2
AcDbXrecord
  3
AutoCAD 2000
 90
        0
280
     0
281
     0
  0
CLASS
  1
LONG_TRANSACTION
  2
AcDbLongTransaction
  3
AutoCAD 2000
 90
        0
280
     0
281
     0
  0
CLASS
  1
LWPOLYLINE
  2
AcDbPolyline
  3
AutoCAD 2000
 90
        0
280
     0
281
     1
  0
CLASS
  1
HATCH
  2
AcDbHatch
  3
AutoCAD 2000
 90
        0
280
     0
281
     1
  0
CLASS
  1
XRECORD
  2
AcDbXrecord
  3
AutoCAD 2000
 90
        0
280
     0
281
     0
  0
CLASS
  1
LONG_TRANSACTION
  2
AcDbLongTransaction
  3
AutoCAD 2000
 90
        0
280
     0
281
     0
  0
CLASS
  1
LWPOLYLINE
  2
AcDbPolyline
  3
AutoCAD 2000
 90
        0
280
     0
281
     1
  0
CLASS
  1
HATCH
  2
AcDbHatch
  3
AutoCAD 2000
 90
        0
280
     0
281
     1
  0
CLASS
  1
XRECORD
  2
AcDbXrecord
  3
AutoCAD 2000
 90
        0
280
     0
281
     0
  0
CLASS
  1
LONG_TRANSACTION
  2
AcDbLongTransaction
  3
AutoCAD 2000
 90
        0
280
     0
281
     0
  0
CLASS
  1
LWPOLYLINE
  2
AcDbPolyline
  3
AutoCAD 2000
 90
        0
280
     0
281
     1
  0
CLASS
  1
HATCH
  2
AcDbHatch
  3
AutoCAD 2000
 90
        0
280
     0
281
     1
  0
CLASS
  1
XRECORD
  2
AcDbXrecord
  3
AutoCAD 2000
 90
        0
280
     0
281
     0
  0
CLASS
  1
LONG_TRANSACTION
  2
AcDbLongTransaction
  3
AutoCAD 2000
 90
        0
280
     0
281
     0
  0
CLASS
  1
LWPOLYLINE
  2
AcDbPolyline
  3
AutoCAD 2000
 90
        0
280
     0
281
     1
  0
CLASS
  1
HATCH
  2
AcDbHatch
  3
AutoCAD 2000
 90
        0
280
     0
281
     1
  0
CLASS
  1
XRECORD
  2
AcDbXrecord
  3
AutoCAD 2000
 90
        0
280
     0
281
     0
  0
CLASS
  1
LONG_TRANSACTION
  2
AcDbLongTransaction
  3
AutoCAD 2000
 90
        0
280
     0
281
     0
  0
CLASS
  1
LWPOLYLINE
  2
AcDbPolyline
  3
AutoCAD 2000
 90
        0
280
     0
281
     1
  0
CLASS
  1
HATCH
  2
AcDbHatch
  3
AutoCAD 2000
 90
        0
280
     0
281
     1
  0
CLASS
  1
XRECORD
  2
AcDbXrecord
  3
AutoCAD 2000
 90
        0
280
     0
281
     0
  0
CLASS
  1
LONG_TRANSACTION
  2
AcDbLongTransaction
  3
AutoCAD 2000
 90
        0
280
     0
281
     0
  0
CLASS
  1
LWPOLYLINE
  2
AcDbPolyline
  3
AutoCAD 2000
 90
        0
280
     0
281
     1
  0
CLASS
  1
HATCH
  2
AcDbHatch
  3
AutoCAD 2000
 90
        0
280
     0
281
     1
  0
CLASS
  1
XRECORD
  2
AcDbXrecord
  3
AutoCAD 2000
 90
        0
280
     0
281
     0
  0
CLASS
  1
LONG_TRANSACTION
  2
AcDbLongTransaction
  3
AutoCAD 2000
 90
        0
280
     0
281
     0
  0
CLASS
  1
LWPOLYLINE
  2
AcDbPolyline
  3
AutoCAD 2000
 90
        0
280
     0
281
     1
  0
CLASS
  1
HATCH
  2
AcDbHatch
  3
AutoCAD 2000
 90
        0
280
     0
281
     1
  0
CLASS
  1
XRECORD
  2
AcDbXrecord
  3
AutoCAD 2000
 90
        0
280
     0
281
     0
  0
CLASS
  1
LONG_TRANSACTION
  2
AcDbLongTransaction
  3
AutoCAD 2000
 90
        0
280
     0
281
     0
  0
CLASS
  1
LWPOLYLINE
  2
AcDbPolyline
  3
AutoCAD 2000
 90
        0
280
     0
281
     1
  0
CLASS
  1
HATCH
  2
AcDbHatch
  3
AutoCAD 2000
 90
        0
280
     0
281
     1
  0
CLASS
  1
XRECORD
  2
AcDbXrecord
  3
AutoCAD 2000
 90
        0
280
     0
281
     0
  0
CLASS
  1
LONG_TRANSACTION
  2
AcDbLongTransaction
  3
AutoCAD 2000
 90
        0
280
     0
281
     0
  0
CLASS
  1
LWPOLYLINE
  2
AcDbPolyline
  3
AutoCAD 2000
 90
        0
280
     0
281
     1
  0
CLASS
  1
HATCH
  2
AcDbHatch
  3
AutoCAD 2000
 90
        0
280
     0
281
     1
  0
CLASS
  1
XRECORD
  2
AcDbXrecord
  3
AutoCAD 2000
 90
        0
280
     0
281
     0
  0
CLASS
  1
LONG_TRANSACTION
  2
AcDbLongTransaction
  3
AutoCAD 2000
 90
        0
280
     0
281
     0
  0
CLASS
  1
LWPOLYLINE
  2
AcDbPolyline
  3
AutoCAD 2000
 90
        0
280
     0
281
     1
  0
CLASS
  1
HATCH
  2
AcDbHatch
  3
AutoCAD 2000
 90
        0
280
     0
281
     1
  0
CLASS
  1
XRECORD
  2
AcDbXrecord
  3
AutoCAD 2000
 90
        0
280
     0
281
     0
  0
CLASS
  1
LONG_TRANSACTION
  2
AcDbLongTransaction
  3
AutoCAD 2000
 90
        0
280
     0
281
     0
  0
CLASS
  1
LWPOLYLINE
  2
AcDbPolyline
  3
AutoCAD 2000
 90
        0
280
     0
281
     1
  0
CLASS
  1
HATCH
  2
AcDbHatch
  3
AutoCAD 2000
 90
        0
280
     0
281
     1
  0
CLASS
  1
XRECORD
  2
AcDbXrecord
  3
AutoCAD 2000
 90
        0
280
     0
281
     0
  0
CLASS
  1
LONG_TRANSACTION
  2
AcDbLongTransaction
  3
AutoCAD 2000
 90
        0
280
     0
281
     0
  0
CLASS
  1
LWPOLYLINE
  2
AcDbPolyline
  3
AutoCAD 2000
 90
        0
280
     0
281
     1
  0
CLASS
  1
HATCH
  2
AcDbHatch
  3
AutoCAD 2000
 90
        0
280
     0
281
     1
  0
CLASS
  1
XRECORD
  2
AcDbXrecord
  3
AutoCAD 2000
 90
        0
280
     0
281
     0
  0
CLASS
  1
LONG_TRANSACTION
  2
AcDbLongTransaction
  3
AutoCAD 2000
 90
        0
280
     0
281
     0
  0
CLASS
  1
LWPOLYLINE
  2
AcDbPolyline
  3
AutoCAD 2000
 90
        0
280
     0
281
     1
  0
CLASS
  1
HATCH
  2
AcDbHatch
  3
AutoCAD 2000
 90
        0
280
     0
281
     1
  0
CLASS
  1
XRECORD
  2
AcDbXrecord
  3
AutoCAD 2000
 90
        0
280
     0
281
     0
  0
CLASS
  1
LONG_TRANSACTION
  2
AcDbLongTransaction
  3
AutoCAD 2000
 90
        0
280
     0
281
     0
  0
CLASS
  1
LWPOLYLINE
  2
AcDbPolyline
  3
AutoCAD 2000
 90
        0
280
     0
281
     1
  0
CLASS
  1
HATCH
  2
AcDbHatch
  3
AutoCAD 2000
 90
        0
280
     0
281
     1
  0
CLASS
  1
XRECORD
  2
AcDbXrecord
  3
AutoCAD 2000
 90
        0
280
     0
281
     0
  0
CLASS
  1
LONG_TRANSACTION
  2
AcDbLongTransaction
  3
AutoCAD 2000
 90
        0
280
     0
281
     0
  0
CLASS
  1
LWPOLYLINE
  2
AcDbPolyline
  3
AutoCAD 2000
 90
        0
280
     0
281
     1
  0
CLASS
  1
HATCH
  2
AcDbHatch
  3
AutoCAD 2000
 90
        0
280
     0
281
     1
  0
CLASS
  1
XRECORD
  2
AcDbXrecord
  3
AutoCAD 2000
 90
        0
280
     0
281
     0
  0
CLASS
  1
LONG_TRANSACTION
  2
AcDbLongTransaction
  3
AutoCAD 2000
 90
        0
280
     0
281
     0
  0
CLASS
  1
LWPOLYLINE
  2
AcDbPolyline
  3
AutoCAD 2000
 90
        0
280
     0
281
     1
  0
CLASS
  1
HATCH
  2
AcDbHatch
  3
AutoCAD 2000
 90
        0
280
     0
281
     1
  0
CLASS
  1
XRECORD
  2
AcDbXrecord
  3
AutoCAD 2000
 90
        0
280
     0
281
     0
  0
CLASS
  1
LONG_TRANSACTION
  2
AcDbLongTransaction
  3
AutoCAD 2000
 90
        0
280
     0
281
     0
  0
CLASS
  1
LWPOLYLINE
  2
AcDbPolyline
  3
AutoCAD 2000
 90
        0
280
     0
281
     1
  0
CLASS
  1
HATCH
  2
AcDbHatch
  3
AutoCAD 2000
 90
        0
280
     0
281
     1
  0
CLASS
  1
XRECORD
  2
AcDbXrecord
  3
AutoCAD 2000
 90
        0
280
     0
281
     0
  0
CLASS
  1
LONG_TRANSACTION
  2
AcDbLongTransaction
  3
AutoCAD 2000
 90
        0
280
     0
281
     0
  0
CLASS
  1
LWPOLYLINE
  2
AcDbPolyline
  3
AutoCAD 2000
 90
        0
280
     0
281
     1
  0
CLASS
  1
HATCH
  2
AcDbHatch
  3
AutoCAD 2000
 90
        0
280
     0
281
     1
  0
CLASS
  1
XRECORD
  2
AcDbXrecord
  3
AutoCAD 2000
 90
        0
280
     0
281
     0
  0
CLASS
  1
LONG_TRANSACTION
  2
AcDbLongTransaction
  3
AutoCAD 2000
 90
        0
280
     0
281
     0
  0
CLASS
  1
LWPOLYLINE
  2
AcDbPolyline
  3
AutoCAD 2000
 90
        0
280
     0
281
     1
  0
CLASS
  1
HATCH
  2
AcDbHatch
  3
AutoCAD 2000
 90
        0
280
     0
281
     1
  0
CLASS
  1
XRECORD
  2
AcDbXrecord
  3
AutoCAD 2000
 90
        0
280
     0
281
     0
  0
CLASS
  1
LONG_TRANSACTION
  2
AcDbLongTransaction
  3
AutoCAD 2000
 90
        0
280
     0
281
     0
  0
CLASS
  1
LWPOLYLINE
  2
AcDbPolyline
  3
AutoCAD 2000
 90
        0
280
     0
281
     1
  0
CLASS
  1
HATCH
  2
AcDbHatch
  3
AutoCAD 2000
 90
        0
280
     0
281
     1
  0
CLASS
  1
XRECORD
  2
AcDbXrecord
  3
AutoCAD 2000
 90
        0
280
     0
281
     0
  0
CLASS
  1
LONG_TRANSACTION
  2
AcDbLongTransaction
  3
AutoCAD 2000
 90
        0
280
     0
281
     0
  0
CLASS
  1
LWPOLYLINE
  2
AcDbPolyline
  3
AutoCAD 2000
 90
        0
280
     0
281
     1
  0
CLASS
  1
HATCH
  2
AcDbHatch
  3
AutoCAD 2000
 90
        0
280
     0
281
     1
  0
CLASS
  1
XRECORD
  2
AcDbXrecord
  3
AutoCAD 2000
 90
        0
280
     0
281
     0
  0
CLASS
  1
LONG_TRANSACTION
  2
AcDbLongTransaction
  3
AutoCAD 2000
 90
        0
280
     0
281
     0
  0
CLASS
  1
LWPOLYLINE
  2
AcDbPolyline
  3
AutoCAD 2000
 90
        0
280
     0
281
     1
  0
CLASS
  1
HATCH
  2
AcDbHatch
  3
AutoCAD 2000
 90
        0
280
     0
281
     1
  0
CLASS
  1
XRECORD
  2
AcDbXrecord
  3
AutoCAD 2000
 90
        0
280
     0
281
     0
  0
ENDSEC
  0
SECTION
  2
TABLES
  0
TABLE
  2
VPORT
  5
92
330
0
100
AcDbSymbolTable
 70
     2
  0
VPORT
  5
5AF
330
92
100
AcDbSymbolTableRecord
100
AcDbViewportTableRecord
  2
*ACTIVE
 70
     0
 10
0.0
 20
0.0
 11
1.0
 21
1.0
 12
204.8653559304075
 22
145.3651247266443
 13
0.0
 23
0.0
 14
10.0
 24
10.0
 15
10.0
 25
10.0
 16
0.0
 26
0.0
 36
1.0
 17
0.0
 27
0.0
 37
0.0
 40
470.9604157948566
 41
1.549367088607595
 42
50.0
 43
0.0
 44
0.0
 50
0.0
 51
0.0
 71
     0
 72
 10000
 73
     1
 74
     3
 75
     0
 76
     0
 77
     0
 78
     1
  0
ENDTAB
  0
TABLE
  2
LTYPE
  5
8D
330
0
100
AcDbSymbolTable
 70
     3
  0
LTYPE
  5
8E
330
8D
100
AcDbSymbolTableRecord
100
AcDbLinetypeTableRecord
  2
BYBLOCK
 70
     0
  3

 72
    65
 73
     0
 40
0.0
  0
LTYPE
  5
8F
330
8D
100
AcDbSymbolTableRecord
100
AcDbLinetypeTableRecord
  2
BYLAYER
 70
     0
  3

 72
    65
 73
     0
 40
0.0
  0
LTYPE
  5
A
330
8D
100
AcDbSymbolTableRecord
100
AcDbLinetypeTableRecord
  2
CONTINUOUS
 70
     0
  3
Solid line
 72
    65
 73
     0
 40
0.0
  0
LTYPE
  5
9F
330
8D
100
AcDbSymbolTableRecord
100
AcDbLinetypeTableRecord
  2
CENTER
 70
     0
  3
Center ____ _ ____ _ ____ _ ____ _ ____ _ ____
 72
    65
 73
     4
 40
50.8
 49
31.75
 74
     0
 49
-6.349999999999998
 74
     0
 49
6.349999999999998
 74
     0
 49
-6.349999999999998
 74
     0
  0
LTYPE
  5
183
330
8D
100
AcDbSymbolTableRecord
100
AcDbLinetypeTableRecord
  2
HIDDEN
 70
     0
  3
Hidden __ __ __ __ __ __ __ __ __ __ __ __ __ _
 72
    65
 73
     2
 40
9.524999999999996
 49
6.349999999999998
 74
     0
 49
-3.174999999999998
 74
     0
  0
ENDTAB
  0
TABLE
  2
LAYER
  5
14
102
{ACAD_XDICTIONARY
360
15
102
}
330
0
100
AcDbSymbolTable
 70
     7
  0
LAYER
  5
6
330
14
100
AcDbSymbolTableRecord
100
AcDbLayerTableRecord
  2
0
 70
     0
 62
     7
  6
CONTINUOUS
  0
LAYER
  5
303
330
14
100
AcDbSymbolTableRecord
100
AcDbLayerTableRecord
  2
3
 70
     0
 62
     3
  6
CONTINUOUS
  0
LAYER
  5
9E
330
14
100
AcDbSymbolTableRecord
100
AcDbLayerTableRecord
  2
1
 70
     0
 62
     1
  6
CENTER
  0
LAYER
  5
AE
330
14
100
AcDbSymbolTableRecord
100
AcDbLayerTableRecord
  2
DEFPOINTS
 70
     0
 62
     7
  6
CONTINUOUS
  0
LAYER
  5
321
330
14
100
AcDbSymbolTableRecord
100
AcDbLayerTableRecord
  2
DIM
 70
     0
 62
     3
  6
CONTINUOUS
  0
LAYER
  5
C6
330
14
100
AcDbSymbolTableRecord
100
AcDbLayerTableRecord
  2
CEN
 70
     0
 62
     1
  6
CENTER
  0
LAYER
  5
38E
330
14
100
AcDbSymbolTableRecord
100
AcDbLayerTableRecord
  2
2
 70
     0
 62
     2
  6
CONTINUOUS
  0
ENDTAB
  0
TABLE
  2
STYLE
  5
8A
330
0
100
AcDbSymbolTable
 70
     2
  0
STYLE
  5
8B
330
8A
100
AcDbSymbolTableRecord
100
AcDbTextStyleTableRecord
  2
STANDARD
 70
     0
 40
0.0
 41
1.0
 50
0.0
 71
     0
 42
5.777225951253058
  3
romans.shx
  4
whgtxt.shx
  0
STYLE
  5
239
330
8A
100
AcDbSymbolTableRecord
100
AcDbTextStyleTableRecord
  2
GHS
 70
     0
 40
0.0
 41
0.6
 50
0.0
 71
     0
 42
3.0
  3
ROMANS
  4
GHS
  0
ENDTAB
  0
TABLE
  2
VIEW
  5
90
330
0
100
AcDbSymbolTable
 70
     0
  0
ENDTAB
  0
TABLE
  2
UCS
  5
91
330
0
100
AcDbSymbolTable
 70
     0
  0
ENDTAB
  0
TABLE
  2
APPID
  5
94
330
0
100
AcDbSymbolTable
 70
     2
  0
APPID
  5
95
330
94
100
AcDbSymbolTableRecord
100
AcDbRegAppTableRecord
  2
ACAD
 70
     0
  0
APPID
  5
5D3
330
94
100
AcDbSymbolTableRecord
100
AcDbRegAppTableRecord
  2
CONTENTBLOCKICON
 70
     0
  0
ENDTAB
  0
TABLE
  2
DIMSTYLE
  5
96
330
0
100
AcDbSymbolTable
 70
     2
  0
DIMSTYLE
105
A3
102
{ACAD_REACTORS
330
2AF
330
B4
330
A2
330
283
330
128
330
C7
330
14C
330
172
330
247
330
216
330
D4
330
E3
330
298
330
184
330
194
330
1A3
330
F6
330
108
330
118
330
228
330
1BA
330
1D0
330
1E5
330
2CC
330
324
330
362
330
3AD
330
3BE
330
3E1
330
39B
330
338
330
2E8
330
309
330
34B
330
2DB
330
37D
102
}
330
96
100
AcDbSymbolTableRecord
100
AcDbDimStyleTableRecord
  2
STANDARD
 70
     0
  3

  4

  5

  6

  7

 40
1.0
 41
2.5
 42
1.0
 43
10.0
 44
0.6
 45
0.0
 46
0.0
 47
0.0
 48
0.0
140
3.0
141
0.09
142
0.0
143
25.4
144
1.0
145
0.0
146
1.0
147
1.0
 71
     0
 72
     0
 73
     0
 74
     0
 75
     0
 76
     0
 77
     1
 78
     8
170
     0
171
     2
172
     1
173
     0
174
     1
175
     0
176
   123
177
   123
178
     3
270
     2
271
     2
272
     2
273
     2
274
     2
340
8B
275
     1
280
     0
281
     0
282
     0
283
     1
284
     0
285
     0
286
     0
287
     0
288
     1
  0
DIMSTYLE
105
9C
330
96
100
AcDbSymbolTableRecord
100
AcDbDimStyleTableRecord
  2
1_1_2
 70
     0
  3

  4

  5

  6

  7

 40
1.0
 41
3.0
 42
1.0
 43
10.0
 44
0.6
 45
0.0
 46
0.0
 47
0.0
 48
0.0
140
3.5
141
0.09
142
0.0
143
25.4
144
1.0
145
0.0
146
1.0
147
1.0
 71
     0
 72
     0
 73
     0
 74
     0
 75
     0
 76
     0
 77
     1
 78
     8
170
     0
171
     2
172
     1
173
     0
174
     1
175
     0
176
   123
177
   123
178
     3
270
     2
271
     2
272
     2
273
     2
274
     2
340
8B
275
     1
280
     0
281
     0
282
     0
283
     1
284
     0
285
     0
286
     0
287
     0
288
     1
  0
ENDTAB
  0
TABLE
  2
BLOCK_RECORD
  5
1
330
0
100
AcDbSymbolTable
 70
    72
  0
BLOCK_RECORD
  5
2
102
{ACAD_XDICTIONARY
360
3
102
}
330
1
100
AcDbSymbolTableRecord
100
AcDbBlockTableRecord
  2
*MODEL_SPACE
  0
BLOCK_RECORD
  5
E
102
{ACAD_XDICTIONARY
360
F
102
}
330
1
100
AcDbSymbolTableRecord
100
AcDbBlockTableRecord
  2
*PAPER_SPACE
  0
BLOCK_RECORD
  5
2B2
330
1
100
AcDbSymbolTableRecord
100
AcDbBlockTableRecord
  2
*D0
  0
BLOCK_RECORD
  5
2AE
330
1
100
AcDbSymbolTableRecord
100
AcDbBlockTableRecord
  2
3
1001
ACAD
1000
DesignCenter Data
1002
{
1070
     1
1070
     4
1002
}
1001
CONTENTBLOCKICON
1071
        0
1004
2800000020000000200000000100080000000000000400000000000000000000000000000000000000000000000080000080000000808000800000008000800080800000C0C0C000C0DCC000F0CAA6000020400000206000002080000020A0000020C0000020E00000400000004020000040400000406000004080000040A0
1004
000040C0000040E00000600000006020000060400000606000006080000060A0000060C0000060E00000800000008020000080400000806000008080000080A0000080C0000080E00000A0000000A0200000A0400000A0600000A0800000A0A00000A0C00000A0E00000C0000000C0200000C0400000C0600000C0800000C0
1004
A00000C0C00000C0E00000E0000000E0200000E0400000E0600000E0800000E0A00000E0C00000E0E00040000000400020004000400040006000400080004000A0004000C0004000E00040200000402020004020400040206000402080004020A0004020C0004020E000404000004040200040404000404060004040800040
1004
40A0004040C0004040E00040600000406020004060400040606000406080004060A0004060C0004060E00040800000408020004080400040806000408080004080A0004080C0004080E00040A0000040A0200040A0400040A0600040A0800040A0A00040A0C00040A0E00040C0000040C0200040C0400040C0600040C08000
1004
40C0A00040C0C00040C0E00040E0000040E0200040E0400040E0600040E0800040E0A00040E0C00040E0E00080000000800020008000400080006000800080008000A0008000C0008000E00080200000802020008020400080206000802080008020A0008020C0008020E00080400000804020008040400080406000804080
1004
008040A0008040C0008040E00080600000806020008060400080606000806080008060A0008060C0008060E00080800000808020008080400080806000808080008080A0008080C0008080E00080A0000080A0200080A0400080A0600080A0800080A0A00080A0C00080A0E00080C0000080C0200080C0400080C0600080C0
1004
800080C0A00080C0C00080C0E00080E0000080E0200080E0400080E0600080E0800080E0A00080E0C00080E0E000C0000000C0002000C0004000C0006000C0008000C000A000C000C000C000E000C0200000C0202000C0204000C0206000C0208000C020A000C020C000C020E000C0400000C0402000C0404000C0406000C0
1004
408000C040A000C040C000C040E000C0600000C0602000C0604000C0606000C0608000C060A000C060C000C060E000C0800000C0802000C0804000C0806000C0808000C080A000C080C000C080E000C0A00000C0A02000C0A04000C0A06000C0A08000C0A0A000C0A0C000C0A0E000C0C00000C0C02000C0C04000C0C06000
1004
C0C08000C0C0A000F0FBFF00A4A0A000808080000000FF0000FF000000FFFF00FF000000FF00FF00FFFF0000FFFFFF0000000000000000000000000000000000000000000000000000000000000000000000000000000000000000000000000000000000000000000000000000000000000000000000000000000000000000
1004
00000000000000000000000000000000000000000000000000000000000000000000000000000000000000000000000000000000F90000F90000000000000000000000000000F9FFF9000000000000000000F300FFF9FF00000000000000000000000000000000F9FF00000000000000000000F3FFFFF90000000000000000
1004
00000000000000F9FFF900000000000000000000F900F30000000000000000000000000000000000000000000000000000000000000000F3F30000000000000000000000000000000000000000000000000000000000000000F30000000000000000000000000000000000000000000000000000000000000000F300000000
1004
00000000000000000000000000000000000000000000000000000000F30000000000000000000000000000000000000000000000000000000000000000F3F30000000000000000000000000000000000000000000000000000000000000000F300000000000000000000000000000000000000000000000000000000000000
1004
00F30000000000000000000000000000000000000000000000000000000000000000F30000000000000000000000000000000000000000000000000000000000000000F3F30000000000000000000000000000000000000000000000000000000000000000F300000000000000000000000000000000000000000000000000
1004
00000000000000F30000000000000000000000000000000000000000000000000000000000000000F30000000000000000000000000000000000000000000000000000000000000000F3F30000000000000000000000000000000000000000000000000000000000000000F300F900000000000000000000F900F900000000
1004
0000000000000000000000F9FFF9F300000000000000000000FFF9FF00000000000000000000000000000000FFFF00FA000000000000000000F9FFF9000000000000000000000000000000F9FFF9FAFAFA00000000000000000000000000000000000000000000000000F900000000FAFAFAF3000000000000000000000000
1004
0000000000000000000000000000000000FAFAFAFA0000000000000000000000000000000000000000000000000000000000FAFAFAF300000000000000000000000000000000000000000000000000000000000000000000000000000000000000000000000000000000000000000000000000000000000000000000000000
1004
0000000000000000000000000000000000000000000000000000000000000000000000000000000000000000000000000000000000000000
  0
BLOCK_RECORD
  5
A4
330
1
100
AcDbSymbolTableRecord
100
AcDbBlockTableRecord
  2
*D2
  0
BLOCK_RECORD
  5
129
330
1
100
AcDbSymbolTableRecord
100
AcDbBlockTableRecord
  2
*D3
  0
BLOCK_RECORD
  5
C8
330
1
100
AcDbSymbolTableRecord
100
AcDbBlockTableRecord
  2
*D4
  0
BLOCK_RECORD
  5
173
330
1
100
AcDbSymbolTableRecord
100
AcDbBlockTableRecord
  2
*D5
  0
BLOCK_RECORD
  5
119
330
1
100
AcDbSymbolTableRecord
100
AcDbBlockTableRecord
  2
*D6
  0
BLOCK_RECORD
  5
3E2
330
1
100
AcDbSymbolTableRecord
100
AcDbBlockTableRecord
  2
*D7
  0
BLOCK_RECORD
  5
339
330
1
100
AcDbSymbolTableRecord
100
AcDbBlockTableRecord
  2
*D8
  0
BLOCK_RECORD
  5
2DC
330
1
100
AcDbSymbolTableRecord
100
AcDbBlockTableRecord
  2
*D9
  0
BLOCK_RECORD
  5
B7
330
1
100
AcDbSymbolTableRecord
100
AcDbBlockTableRecord
  2
*D10
  0
BLOCK_RECORD
  5
286
330
1
100
AcDbSymbolTableRecord
100
AcDbBlockTableRecord
  2
*D11
  0
BLOCK_RECORD
  5
14F
330
1
100
AcDbSymbolTableRecord
100
AcDbBlockTableRecord
  2
*D12
  0
BLOCK_RECORD
  5
24A
330
1
100
AcDbSymbolTableRecord
100
AcDbBlockTableRecord
  2
*D13
  0
BLOCK_RECORD
  5
219
330
1
100
AcDbSymbolTableRecord
100
AcDbBlockTableRecord
  2
*D14
  0
BLOCK_RECORD
  5
D7
330
1
100
AcDbSymbolTableRecord
100
AcDbBlockTableRecord
  2
*D15
  0
BLOCK_RECORD
  5
E6
330
1
100
AcDbSymbolTableRecord
100
AcDbBlockTableRecord
  2
*D16
  0
BLOCK_RECORD
  5
29B
330
1
100
AcDbSymbolTableRecord
100
AcDbBlockTableRecord
  2
*D17
  0
BLOCK_RECORD
  5
187
330
1
100
AcDbSymbolTableRecord
100
AcDbBlockTableRecord
  2
*D18
  0
BLOCK_RECORD
  5
197
330
1
100
AcDbSymbolTableRecord
100
AcDbBlockTableRecord
  2
*D19
  0
BLOCK_RECORD
  5
1A6
330
1
100
AcDbSymbolTableRecord
100
AcDbBlockTableRecord
  2
*D20
  0
BLOCK_RECORD
  5
F9
330
1
100
AcDbSymbolTableRecord
100
AcDbBlockTableRecord
  2
*D21
  0
BLOCK_RECORD
  5
10B
330
1
100
AcDbSymbolTableRecord
100
AcDbBlockTableRecord
  2
*D22
  0
BLOCK_RECORD
  5
22B
330
1
100
AcDbSymbolTableRecord
100
AcDbBlockTableRecord
  2
*D23
  0
BLOCK_RECORD
  5
1BD
330
1
100
AcDbSymbolTableRecord
100
AcDbBlockTableRecord
  2
*D24
  0
BLOCK_RECORD
  5
1D3
330
1
100
AcDbSymbolTableRecord
100
AcDbBlockTableRecord
  2
*D25
  0
BLOCK_RECORD
  5
1E8
330
1
100
AcDbSymbolTableRecord
100
AcDbBlockTableRecord
  2
*D26
  0
BLOCK_RECORD
  5
2CF
330
1
100
AcDbSymbolTableRecord
100
AcDbBlockTableRecord
  2
*D27
  0
BLOCK_RECORD
  5
327
330
1
100
AcDbSymbolTableRecord
100
AcDbBlockTableRecord
  2
*D28
  0
BLOCK_RECORD
  5
365
330
1
100
AcDbSymbolTableRecord
100
AcDbBlockTableRecord
  2
*D29
  0
BLOCK_RECORD
  5
3B0
330
1
100
AcDbSymbolTableRecord
100
AcDbBlockTableRecord
  2
*D30
  0
BLOCK_RECORD
  5
3C1
330
1
100
AcDbSymbolTableRecord
100
AcDbBlockTableRecord
  2
*D31
  0
BLOCK_RECORD
  5
39E
330
1
100
AcDbSymbolTableRecord
100
AcDbBlockTableRecord
  2
*D32
  0
BLOCK_RECORD
  5
2EB
330
1
100
AcDbSymbolTableRecord
100
AcDbBlockTableRecord
  2
*D33
  0
BLOCK_RECORD
  5
30C
330
1
100
AcDbSymbolTableRecord
100
AcDbBlockTableRecord
  2
*D34
  0
BLOCK_RECORD
  5
34E
330
1
100
AcDbSymbolTableRecord
100
AcDbBlockTableRecord
  2
*D35
  0
BLOCK_RECORD
  5
380
330
1
100
AcDbSymbolTableRecord
100
AcDbBlockTableRecord
  2
*D36
  0
BLOCK_RECORD
  5
3F8
330
1
100
AcDbSymbolTableRecord
100
AcDbBlockTableRecord
  2
*D37
  0
BLOCK_RECORD
  5
406
330
1
100
AcDbSymbolTableRecord
100
AcDbBlockTableRecord
  2
*D38
  0
BLOCK_RECORD
  5
414
330
1
100
AcDbSymbolTableRecord
100
AcDbBlockTableRecord
  2
*D39
  0
BLOCK_RECORD
  5
420
330
1
100
AcDbSymbolTableRecord
100
AcDbBlockTableRecord
  2
*D40
  0
BLOCK_RECORD
  5
42C
330
1
100
AcDbSymbolTableRecord
100
AcDbBlockTableRecord
  2
*D41
  0
BLOCK_RECORD
  5
438
330
1
100
AcDbSymbolTableRecord
100
AcDbBlockTableRecord
  2
*D42
  0
BLOCK_RECORD
  5
444
330
1
100
AcDbSymbolTableRecord
100
AcDbBlockTableRecord
  2
*D43
  0
BLOCK_RECORD
  5
450
330
1
100
AcDbSymbolTableRecord
100
AcDbBlockTableRecord
  2
*D44
  0
BLOCK_RECORD
  5
45E
330
1
100
AcDbSymbolTableRecord
100
AcDbBlockTableRecord
  2
*D45
  0
BLOCK_RECORD
  5
46C
330
1
100
AcDbSymbolTableRecord
100
AcDbBlockTableRecord
  2
*D46
  0
BLOCK_RECORD
  5
478
330
1
100
AcDbSymbolTableRecord
100
AcDbBlockTableRecord
  2
*D47
  0
BLOCK_RECORD
  5
486
330
1
100
AcDbSymbolTableRecord
100
AcDbBlockTableRecord
  2
*D48
  0
BLOCK_RECORD
  5
494
330
1
100
AcDbSymbolTableRecord
100
AcDbBlockTableRecord
  2
*D49
  0
BLOCK_RECORD
  5
4A0
330
1
100
AcDbSymbolTableRecord
100
AcDbBlockTableRecord
  2
*D50
  0
BLOCK_RECORD
  5
4AC
330
1
100
AcDbSymbolTableRecord
100
AcDbBlockTableRecord
  2
*D51
  0
BLOCK_RECORD
  5
4B8
330
1
100
AcDbSymbolTableRecord
100
AcDbBlockTableRecord
  2
*D52
  0
BLOCK_RECORD
  5
4C4
330
1
100
AcDbSymbolTableRecord
100
AcDbBlockTableRecord
  2
*D53
  0
BLOCK_RECORD
  5
4CF
330
1
100
AcDbSymbolTableRecord
100
AcDbBlockTableRecord
  2
*D54
  0
BLOCK_RECORD
  5
4DB
330
1
100
AcDbSymbolTableRecord
100
AcDbBlockTableRecord
  2
*D55
  0
BLOCK_RECORD
  5
4E7
330
1
100
AcDbSymbolTableRecord
100
AcDbBlockTableRecord
  2
*D56
  0
BLOCK_RECORD
  5
4F3
330
1
100
AcDbSymbolTableRecord
100
AcDbBlockTableRecord
  2
*D57
  0
BLOCK_RECORD
  5
4FF
330
1
100
AcDbSymbolTableRecord
100
AcDbBlockTableRecord
  2
*D58
  0
BLOCK_RECORD
  5
50D
330
1
100
AcDbSymbolTableRecord
100
AcDbBlockTableRecord
  2
*D59
  0
BLOCK_RECORD
  5
519
330
1
100
AcDbSymbolTableRecord
100
AcDbBlockTableRecord
  2
*D60
  0
BLOCK_RECORD
  5
525
330
1
100
AcDbSymbolTableRecord
100
AcDbBlockTableRecord
  2
*D61
  0
BLOCK_RECORD
  5
531
330
1
100
AcDbSymbolTableRecord
100
AcDbBlockTableRecord
  2
*D62
  0
BLOCK_RECORD
  5
53D
330
1
100
AcDbSymbolTableRecord
100
AcDbBlockTableRecord
  2
*D63
  0
BLOCK_RECORD
  5
549
330
1
100
AcDbSymbolTableRecord
100
AcDbBlockTableRecord
  2
*D64
  0
BLOCK_RECORD
  5
557
330
1
100
AcDbSymbolTableRecord
100
AcDbBlockTableRecord
  2
*D65
  0
BLOCK_RECORD
  5
565
330
1
100
AcDbSymbolTableRecord
100
AcDbBlockTableRecord
  2
*D66
  0
BLOCK_RECORD
  5
571
330
1
100
AcDbSymbolTableRecord
100
AcDbBlockTableRecord
  2
*D67
  0
BLOCK_RECORD
  5
57D
330
1
100
AcDbSymbolTableRecord
100
AcDbBlockTableRecord
  2
*D68
  0
BLOCK_RECORD
  5
589
330
1
100
AcDbSymbolTableRecord
100
AcDbBlockTableRecord
  2
*D69
  0
BLOCK_RECORD
  5
595
330
1
100
AcDbSymbolTableRecord
100
AcDbBlockTableRecord
  2
*D70
  0
BLOCK_RECORD
  5
5A3
330
1
100
AcDbSymbolTableRecord
100
AcDbBlockTableRecord
  2
*D71
  0
ENDTAB
  0
ENDSEC
  0
SECTION
  2
BLOCKS
  0
BLOCK
  5
5
330
2
100
AcDbEntity
  8
0
100
AcDbBlockBegin
  2
*MODEL_SPACE
 70
     0
 10
0.0
 20
0.0
 30
0.0
  3
*MODEL_SPACE
  1

  0
ENDBLK
  5
B
330
2
100
AcDbEntity
  8
0
100
AcDbBlockEnd
  0
BLOCK
  5
11
330
E
100
AcDbEntity
 67
     1
  8
0
100
AcDbBlockBegin
  2
*PAPER_SPACE
 70
     0
 10
0.0
 20
0.0
 30
0.0
  3
*PAPER_SPACE
  1

  0
ENDBLK
  5
12
330
E
100
AcDbEntity
 67
     1
  8
0
100
AcDbBlockEnd
  0
BLOCK
  5
2BB
330
2B2
100
AcDbEntity
  8
0
100
AcDbBlockBegin
  2
*D0
 70
     1
 10
0.0
 20
0.0
 30
0.0
  3
*D0
  1

  0
LINE
  5
2B3
330
2B2
100
AcDbEntity
  8
0
 62
   123
100
AcDbLine
 10
15629.80488223125
 20
-1733.340049768652
 30
0.0
 11
15627.80633318254
 21
-1734.841982423581
 31
0.0
  0
LINE
  5
2B4
330
2B2
100
AcDbEntity
  8
0
 62
   123
100
AcDbLine
 10
15699.35438912599
 20
-1681.072793377123
 30
0.0
 11
15717.68393897264
 21
-1667.297925313345
 31
0.0
  0
LINE
  5
2B5
330
2B2
100
AcDbEntity
  8
0
 62
   123
100
AcDbLine
 10
15631.80343127995
 20
-1731.838117113723
 30
0.0
 11
15697.35584007729
 21
-1682.574726032052
 31
0.0
  0
SOLID
  5
2B6
330
2B2
100
AcDbEntity
  8
0
 62
   123
100
AcDbTrace
 10
15629.55456012208
 20
-1733.006958260537
 30
0.0
 11
15630.0552043404
 21
-1733.673141276769
 31
0.0
 12
15631.80343127995
 22
-1731.838117113723
 32
0.0
 13
15631.80343127995
 23
-1731.838117113723
 33
0.0
  0
SOLID
  5
2B7
330
2B2
100
AcDbEntity
  8
0
 62
   123
100
AcDbTrace
 10
15699.10406701684
 20
-1680.739701869008
 30
0.0
 11
15699.60471123515
 21
-1681.40588488524
 31
0.0
 12
15697.35584007729
 22
-1682.574726032052
 32
0.0
 13
15697.35584007729
 23
-1682.574726032052
 33
0.0
  0
MTEXT
  5
2B8
330
2B2
100
AcDbEntity
  8
0
 62
     3
100
AcDbMText
 10
15708.01650591874
 20
-1671.435843969068
 30
0.0
 40
3.0
 41
0.0
 71
     5
 72
     1
  1
\A1;\U+220582%%P0.5
 11
0.7994196194798298
 21
0.6007730619715935
 31
0.0
1001
ACAD
1000
MTEXTBEGIN
1070
    73
1070
     1
1070
    44
1040
1.0
1070
    74
1070
     0
1000
MTEXTEND
  0
POINT
  5
2B9
330
2B2
100
AcDbEntity
  8
DEFPOINTS
 62
     0
100
AcDbPoint
 10
15697.35584007729
 20
-1682.574726032052
 30
0.0
  0
POINT
  5
2BA
330
2B2
100
AcDbEntity
  8
DEFPOINTS
 62
     0
100
AcDbPoint
 10
15631.80343127995
 20
-1731.838117113723
 30
0.0
  0
ENDBLK
  5
2BC
330
2B2
100
AcDbEntity
  8
0
100
AcDbBlockEnd
  0
BLOCK
  5
2C9
330
2AE
100
AcDbEntity
  8
0
100
AcDbBlockBegin
  2
3
 70
     0
 10
0.0
 20
0.0
 30
0.0
  3
3
  1

  0
DIMENSION
  5
2AF
102
{ACAD_XDICTIONARY
360
2B0
102
}
102
{ACAD_REACTORS
330
2B1
102
}
330
2AE
100
AcDbEntity
  8
0
100
AcDbDimension
  2
*D0
 10
-32.77620439867496
 20
-24.63169554083719
 30
0.0
 11
44.93880289504522
 21
33.772028555117
 31
0.0
 12
-15664.57963567861
 22
1707.206421572886
 32
0.0
 70
   131
  1
<>%%P0.5
  3
STANDARD
100
AcDbDiametricDimension
 15
32.77620439867132
 25
24.63169554083401
 35
0.0
 40
0.0
  0
ARC
  5
2BD
102
{ACAD_REACTORS
330
2B1
102
}
330
2AE
100
AcDbEntity
  8
CEN
 48
0.6
100
AcDbCircle
 10
-0.000000000003638
 20
0.0000000000020464
 30
0.0
 40
41.0
100
AcDbArc
 50
34.15351134749203
 51
55.84648865250797
  0
LINE
  5
2BE
330
2AE
100
AcDbEntity
  8
CEN
 48
0.6
100
AcDbLine
 10
25.63262081800167
 20
25.63262081802145
 30
0.0
 11
32.35013523927227
 21
32.35013523929547
 31
0.0
  0
CIRCLE
  5
2BF
330
2AE
100
AcDbEntity
  8
0
100
AcDbCircle
 10
28.99137802863515
 20
28.99137802865948
 30
0.0
 40
2.75
  0
CIRCLE
  5
2C0
330
2AE
100
AcDbEntity
  8
0
100
AcDbCircle
 10
-28.99137802866608
 20
28.99137802864379
 30
0.0
 40
2.75
  0
LINE
  5
2C1
330
2AE
100
AcDbEntity
  8
CEN
 48
0.6
100
AcDbLine
 10
-25.63262081802895
 20
25.63262081801099
 30
0.0
 11
-32.35013523930319
 21
32.35013523928158
 31
0.0
  0
ARC
  5
2C2
330
2AE
100
AcDbEntity
  8
CEN
 48
0.6
100
AcDbCircle
 10
-0.0000000000090949
 20
0.0000000000047748
 30
0.0
 40
41.0
100
AcDbArc
 50
128.358356428657
 51
141.641643571353
  0
ARC
  5
2C3
330
2AE
100
AcDbEntity
  8
CEN
 48
0.6
100
AcDbCircle
 10
-0.0000000000127329
 20
-0.0000000000009095
 30
0.0
 40
41.0
100
AcDbArc
 50
214.1535113474919
 51
235.8464886525078
  0
CIRCLE
  5
2C4
330
2AE
100
AcDbEntity
  8
0
100
AcDbCircle
 10
-28.99137802865151
 20
-28.99137802865833
 30
0.0
 40
2.75
  0
LINE
  5
2C5
330
2AE
100
AcDbEntity
  8
CEN
 48
0.6
100
AcDbLine
 10
-25.63262081801804
 20
-25.63262081802031
 30
0.0
 11
-32.35013523928865
 21
-32.35013523929433
 31
0.0
  0
CIRCLE
  5
2C6
330
2AE
100
AcDbEntity
  8
0
100
AcDbCircle
 10
28.99137802865151
 20
-28.99137802864446
 30
0.0
 40
2.75
  0
LINE
  5
2C7
330
2AE
100
AcDbEntity
  8
CEN
 48
0.6
100
AcDbLine
 10
25.63262081801257
 20
-25.63262081801052
 30
0.0
 11
32.35013523928683
 21
-32.35013523928113
 31
0.0
  0
ARC
  5
2C8
330
2AE
100
AcDbEntity
  8
CEN
 48
0.6
100
AcDbCircle
 10
-0.000000000005457
 20
-0.0000000000056843
 30
0.0
 40
41.0
100
AcDbArc
 50
308.3583564286569
 51
321.6416435713529
  0
ENDBLK
  5
2CA
330
2AE
100
AcDbEntity
  8
0
100
AcDbBlockEnd
  0
BLOCK
  5
B1
330
A4
100
AcDbEntity
  8
0
100
AcDbBlockBegin
  2
*D2
 70
     1
 10
0.0
 20
0.0
 30
0.0
  3
*D2
  1

  0
LINE
  5
A5
330
A4
100
AcDbEntity
  8
0
 62
   123
100
AcDbLine
 10
15049.32036810556
 20
-2121.129602892892
 30
0.0
 11
15057.08942326102
 21
-2121.129602892892
 31
0.0
  0
LINE
  5
A6
330
A4
100
AcDbEntity
  8
0
 62
   123
100
AcDbLine
 10
15049.32036810556
 20
-2117.12960289289
 30
0.0
 11
15057.08942326102
 21
-2117.12960289289
 31
0.0
  0
LINE
  5
A7
330
A4
100
AcDbEntity
  8
0
 62
   123
100
AcDbLine
 10
15056.48942326103
 20
-2123.62960289289
 30
0.0
 11
15056.48942326103
 21
-2126.129602892891
 31
0.0
  0
LINE
  5
A8
330
A4
100
AcDbEntity
  8
0
 62
   123
100
AcDbLine
 10
15056.48942326103
 20
-2114.629602892891
 30
0.0
 11
15056.48942326103
 21
-2095.565855384518
 31
0.0
  0
LINE
  5
A9
330
A4
100
AcDbEntity
  8
0
 62
   123
100
AcDbLine
 10
15056.48942326103
 20
-2121.129602892892
 30
0.0
 11
15056.48942326103
 21
-2117.12960289289
 31
0.0
  0
SOLID
  5
AA
330
A4
100
AcDbEntity
  8
0
 62
   123
100
AcDbTrace
 10
15056.07275659436
 20
-2123.62960289289
 30
0.0
 11
15056.9060899277
 21
-2123.62960289289
 31
0.0
 12
15056.48942326103
 22
-2121.129602892892
 32
0.0
 13
15056.48942326103
 23
-2121.129602892892
 33
0.0
  0
SOLID
  5
AB
330
A4
100
AcDbEntity
  8
0
 62
   123
100
AcDbTrace
 10
15056.07275659436
 20
-2114.629602892891
 30
0.0
 11
15056.9060899277
 21
-2114.629602892891
 31
0.0
 12
15056.48942326103
 22
-2117.12960289289
 32
0.0
 13
15056.48942326103
 23
-2117.12960289289
 33
0.0
  0
MTEXT
  5
AC
330
A4
100
AcDbEntity
  8
0
 62
     3
100
AcDbMText
 10
15053.03942326103
 20
-2102.280141098801
 30
0.0
 40
3.0
 41
0.0
 71
     5
 72
     1
  1
\A1;\A1;4{\f??|b0|i0|c0|p49;\H0.7x;\S+0^ -0.03;}
 11
0.0000000000000001
 21
1.0
 31
0.0
1001
ACAD
1000
MTEXTBEGIN
1070
    73
1070
     1
1070
    44
1040
1.0
1070
    74
1070
     0
1000
MTEXTEND
  0
POINT
  5
AD
330
A4
100
AcDbEntity
  8
DEFPOINTS
 62
     0
100
AcDbPoint
 10
15048.32036810556
 20
-2121.129602892892
 30
0.0
  0
POINT
  5
AF
330
A4
100
AcDbEntity
  8
DEFPOINTS
 62
     0
100
AcDbPoint
 10
15048.32036810556
 20
-2117.12960289289
 30
0.0
  0
POINT
  5
B0
330
A4
100
AcDbEntity
  8
DEFPOINTS
 62
     0
100
AcDbPoint
 10
15056.48942326103
 20
-2117.12960289289
 30
0.0
  0
ENDBLK
  5
B2
330
A4
100
AcDbEntity
  8
0
100
AcDbBlockEnd
  0
BLOCK
  5
132
330
129
100
AcDbEntity
  8
0
100
AcDbBlockBegin
  2
*D3
 70
     1
 10
0.0
 20
0.0
 30
0.0
  3
*D3
  1

  0
LINE
  5
12A
330
129
100
AcDbEntity
  8
0
 62
   123
100
AcDbLine
 10
14993.8425746484
 20
-2259.311034171519
 30
0.0
 11
14991.78638617775
 21
-2260.733035920148
 31
0.0
  0
LINE
  5
12B
330
129
100
AcDbEntity
  8
0
 62
   123
100
AcDbLine
 10
15065.39793342756
 20
-2209.825373319251
 30
0.0
 11
15097.02792725745
 21
-2187.950964831468
 31
0.0
  0
LINE
  5
12C
330
129
100
AcDbEntity
  8
0
 62
   123
100
AcDbLine
 10
14995.89876311907
 20
-2257.889032422891
 30
0.0
 11
15063.34174495689
 21
-2211.24737506788
 31
0.0
  0
SOLID
  5
12D
330
129
100
AcDbEntity
  8
0
 62
   123
100
AcDbTrace
 10
14993.60557435696
 20
-2258.968336093075
 30
0.0
 11
14994.07957493985
 21
-2259.653732249963
 31
0.0
 12
14995.89876311907
 22
-2257.889032422891
 32
0.0
 13
14995.89876311907
 23
-2257.889032422891
 33
0.0
  0
SOLID
  5
12E
330
129
100
AcDbEntity
  8
0
 62
   123
100
AcDbTrace
 10
15065.16093313613
 20
-2209.482675240808
 30
0.0
 11
15065.63493371899
 21
-2210.168071397695
 31
0.0
 12
15063.34174495689
 22
-2211.24737506788
 32
0.0
 13
15063.34174495689
 23
-2211.24737506788
 33
0.0
  0
MTEXT
  5
12F
330
129
100
AcDbEntity
  8
0
 62
     3
100
AcDbMText
 10
15087.20492690009
 20
-2191.704669219484
 30
0.0
 40
3.0
 41
0.0
 71
     5
 72
     1
  1
\A1;\U+220582%%P0.5
 11
0.8224753882661872
 21
0.5688006994513849
 31
0.0
1001
ACAD
1000
MTEXTBEGIN
1070
    73
1070
     1
1070
    44
1040
1.0
1070
    74
1070
     0
1000
MTEXTEND
  0
POINT
  5
130
330
129
100
AcDbEntity
  8
DEFPOINTS
 62
     0
100
AcDbPoint
 10
15063.34174495689
 20
-2211.24737506788
 30
0.0
  0
POINT
  5
131
330
129
100
AcDbEntity
  8
DEFPOINTS
 62
     0
100
AcDbPoint
 10
14995.89876311907
 20
-2257.889032422891
 30
0.0
  0
ENDBLK
  5
133
330
129
100
AcDbEntity
  8
0
100
AcDbBlockEnd
  0
BLOCK
  5
D2
330
C8
100
AcDbEntity
  8
0
100
AcDbBlockBegin
  2
*D4
 70
     1
 10
0.0
 20
0.0
 30
0.0
  3
*D4
  1

  0
LINE
  5
C9
330
C8
100
AcDbEntity
  8
0
 62
   123
100
AcDbLine
 10
14994.62025403799
 20
-2266.568203745392
 30
0.0
 11
14994.62025403799
 21
-2285.405008299874
 31
0.0
  0
LINE
  5
CA
330
C8
100
AcDbEntity
  8
0
 62
   123
100
AcDbLine
 10
15064.62025403799
 20
-2267.206959720336
 30
0.0
 11
15064.62025403799
 21
-2285.405008299874
 31
0.0
  0
LINE
  5
CB
330
C8
100
AcDbEntity
  8
0
 62
   123
100
AcDbLine
 10
14997.12025403799
 20
-2284.805008299874
 30
0.0
 11
15062.12025403799
 21
-2284.805008299874
 31
0.0
  0
SOLID
  5
CC
330
C8
100
AcDbEntity
  8
0
 62
   123
100
AcDbTrace
 10
14997.12025403799
 20
-2284.388341633208
 30
0.0
 11
14997.12025403799
 21
-2285.221674966539
 31
0.0
 12
14994.62025403799
 22
-2284.805008299874
 32
0.0
 13
14994.62025403799
 23
-2284.805008299874
 33
0.0
  0
SOLID
  5
CD
330
C8
100
AcDbEntity
  8
0
 62
   123
100
AcDbTrace
 10
15062.12025403799
 20
-2284.388341633208
 30
0.0
 11
15062.12025403799
 21
-2285.221674966539
 31
0.0
 12
15064.62025403799
 22
-2284.805008299874
 32
0.0
 13
15064.62025403799
 23
-2284.805008299874
 33
0.0
  0
MTEXT
  5
CE
330
C8
100
AcDbEntity
  8
0
 62
     3
100
AcDbMText
 10
15029.83901464181
 20
-2282.305008299874
 30
0.0
 40
3.0
 41
0.0
 71
     5
 72
     1
  1
\A1;70
1001
ACAD
1000
MTEXTBEGIN
1070
    73
1070
     1
1070
    44
1040
1.0
1070
    74
1070
     0
1000
MTEXTEND
  0
POINT
  5
CF
330
C8
100
AcDbEntity
  8
DEFPOINTS
 62
     0
100
AcDbPoint
 10
14994.62025403799
 20
-2265.568203745393
 30
0.0
  0
POINT
  5
D0
330
C8
100
AcDbEntity
  8
DEFPOINTS
 62
     0
100
AcDbPoint
 10
15064.62025403799
 20
-2266.206959720336
 30
0.0
  0
POINT
  5
D1
330
C8
100
AcDbEntity
  8
DEFPOINTS
 62
     0
100
AcDbPoint
 10
15064.62025403799
 20
-2284.805008299874
 30
0.0
  0
ENDBLK
  5
D3
330
C8
100
AcDbEntity
  8
0
100
AcDbBlockEnd
  0
BLOCK
  5
17D
330
173
100
AcDbEntity
  8
0
100
AcDbBlockBegin
  2
*D5
 70
     1
 10
0.0
 20
0.0
 30
0.0
  3
*D5
  1

  0
LINE
  5
174
330
173
100
AcDbEntity
  8
0
 62
   123
100
AcDbLine
 10
15060.62025403799
 20
-2199.568203745393
 30
0.0
 11
15072.54941046134
 21
-2199.568203745393
 31
0.0
  0
LINE
  5
175
330
173
100
AcDbEntity
  8
0
 62
   123
100
AcDbLine
 10
15059.14856003799
 20
-2156.568203745395
 30
0.0
 11
15072.54941046134
 21
-2156.568203745395
 31
0.0
  0
LINE
  5
176
330
173
100
AcDbEntity
  8
0
 62
   123
100
AcDbLine
 10
15071.94941046134
 20
-2197.068203745393
 30
0.0
 11
15071.94941046134
 21
-2159.068203745394
 31
0.0
  0
SOLID
  5
177
330
173
100
AcDbEntity
  8
0
 62
   123
100
AcDbTrace
 10
15071.53274379466
 20
-2197.068203745393
 30
0.0
 11
15072.366077128
 21
-2197.068203745393
 31
0.0
 12
15071.94941046134
 22
-2199.568203745393
 32
0.0
 13
15071.94941046134
 23
-2199.568203745393
 33
0.0
  0
SOLID
  5
178
330
173
100
AcDbEntity
  8
0
 62
   123
100
AcDbTrace
 10
15071.53274379466
 20
-2159.068203745394
 30
0.0
 11
15072.366077128
 21
-2159.068203745394
 31
0.0
 12
15071.94941046134
 22
-2156.568203745395
 32
0.0
 13
15071.94941046134
 23
-2156.568203745395
 33
0.0
  0
MTEXT
  5
179
330
173
100
AcDbEntity
  8
0
 62
     3
100
AcDbMText
 10
15069.44941046134
 20
-2176.430574189442
 30
0.0
 40
3.0
 41
0.0
 71
     5
 72
     1
  1
\A1;43
 11
0.0000000000000001
 21
1.0
 31
0.0
1001
ACAD
1000
MTEXTBEGIN
1070
    73
1070
     1
1070
    44
1040
1.0
1070
    74
1070
     0
1000
MTEXTEND
  0
POINT
  5
17A
330
173
100
AcDbEntity
  8
DEFPOINTS
 62
     0
100
AcDbPoint
 10
15059.62025403799
 20
-2199.568203745393
 30
0.0
  0
POINT
  5
17B
330
173
100
AcDbEntity
  8
DEFPOINTS
 62
     0
100
AcDbPoint
 10
15058.14856003799
 20
-2156.568203745395
 30
0.0
  0
POINT
  5
17C
330
173
100
AcDbEntity
  8
DEFPOINTS
 62
     0
100
AcDbPoint
 10
15071.94941046134
 20
-2156.568203745395
 30
0.0
  0
ENDBLK
  5
17E
330
173
100
AcDbEntity
  8
0
100
AcDbBlockEnd
  0
BLOCK
  5
123
330
119
100
AcDbEntity
  8
0
100
AcDbBlockBegin
  2
*D6
 70
     1
 10
0.0
 20
0.0
 30
0.0
  3
*D6
  1

  0
LINE
  5
11A
330
119
100
AcDbEntity
  8
0
 62
   123
100
AcDbLine
 10
15157.7748919499
 20
-2204.568203745393
 30
0.0
 11
15096.25884602745
 21
-2204.568203745393
 31
0.0
  0
LINE
  5
11B
330
119
100
AcDbEntity
  8
0
 62
   123
100
AcDbLine
 10
15144.66517370459
 20
-2234.568203745392
 30
0.0
 11
15096.25884602745
 21
-2234.568203745392
 31
0.0
  0
LINE
  5
11C
330
119
100
AcDbEntity
  8
0
 62
   123
100
AcDbLine
 10
15096.85884602745
 20
-2207.068203745393
 30
0.0
 11
15096.85884602745
 21
-2232.068203745393
 31
0.0
  0
SOLID
  5
11D
330
119
100
AcDbEntity
  8
0
 62
   123
100
AcDbTrace
 10
15096.44217936078
 20
-2207.068203745393
 30
0.0
 11
15097.2755126941
 21
-2207.068203745393
 31
0.0
 12
15096.85884602745
 22
-2204.568203745393
 32
0.0
 13
15096.85884602745
 23
-2204.568203745393
 33
0.0
  0
SOLID
  5
11E
330
119
100
AcDbEntity
  8
0
 62
   123
100
AcDbTrace
 10
15096.44217936078
 20
-2232.068203745393
 30
0.0
 11
15097.2755126941
 21
-2232.068203745393
 31
0.0
 12
15096.85884602745
 22
-2234.568203745392
 32
0.0
 13
15096.85884602745
 23
-2234.568203745392
 33
0.0
  0
MTEXT
  5
11F
330
119
100
AcDbEntity
  8
0
 62
     3
100
AcDbMText
 10
15094.35884602745
 20
-2219.818203745393
 30
0.0
 40
3.0
 41
0.0
 71
     5
 72
     1
  1
\A1;{\f??|b0|i0|c0|p49;%%c}30
 11
0.0000000000000001
 21
1.0
 31
0.0
1001
ACAD
1000
MTEXTBEGIN
1070
    73
1070
     1
1070
    44
1040
1.0
1070
    74
1070
     0
1000
MTEXTEND
  0
POINT
  5
120
330
119
100
AcDbEntity
  8
DEFPOINTS
 62
     0
100
AcDbPoint
 10
15158.77489194989
 20
-2204.568203745393
 30
0.0
  0
POINT
  5
121
330
119
100
AcDbEntity
  8
DEFPOINTS
 62
     0
100
AcDbPoint
 10
15145.66517370459
 20
-2234.568203745392
 30
0.0
  0
POINT
  5
122
330
119
100
AcDbEntity
  8
DEFPOINTS
 62
     0
100
AcDbPoint
 10
15096.85884602745
 20
-2234.568203745392
 30
0.0
  0
ENDBLK
  5
124
330
119
100
AcDbEntity
  8
0
100
AcDbBlockEnd
  0
BLOCK
  5
3EC
330
3E2
100
AcDbEntity
  8
0
100
AcDbBlockBegin
  2
*D7
 70
     1
 10
0.0
 20
0.0
 30
0.0
  3
*D7
  1

  0
LINE
  5
3E3
330
3E2
100
AcDbEntity
  8
0
 62
   123
100
AcDbLine
 10
15161.26693323139
 20
-1885.039749421561
 30
0.0
 11
15161.26693323139
 21
-1833.692171597127
 31
0.0
  0
LINE
  5
3E4
330
3E2
100
AcDbEntity
  8
0
 62
   123
100
AcDbLine
 10
15174.26693323139
 20
-1852.87924942156
 30
0.0
 11
15174.26693323139
 21
-1833.692171597127
 31
0.0
  0
LINE
  5
3E5
330
3E2
100
AcDbEntity
  8
0
 62
   123
100
AcDbLine
 10
15163.76693323139
 20
-1834.292171597128
 30
0.0
 11
15171.76693323138
 21
-1834.292171597128
 31
0.0
  0
SOLID
  5
3E6
330
3E2
100
AcDbEntity
  8
0
 62
   123
100
AcDbTrace
 10
15163.76693323139
 20
-1833.875504930461
 30
0.0
 11
15163.76693323139
 21
-1834.708838263795
 31
0.0
 12
15161.26693323139
 22
-1834.292171597128
 32
0.0
 13
15161.26693323139
 23
-1834.292171597128
 33
0.0
  0
SOLID
  5
3E7
330
3E2
100
AcDbEntity
  8
0
 62
   123
100
AcDbTrace
 10
15171.76693323138
 20
-1833.875504930461
 30
0.0
 11
15171.76693323138
 21
-1834.708838263795
 31
0.0
 12
15174.26693323139
 22
-1834.292171597128
 32
0.0
 13
15174.26693323139
 23
-1834.292171597128
 33
0.0
  0
MTEXT
  5
3E8
330
3E2
100
AcDbEntity
  8
0
 62
     3
100
AcDbMText
 10
15167.76693323139
 20
-1831.792171597128
 30
0.0
 40
3.0
 41
0.0
 71
     5
 72
     1
  1
\A1;13
1001
ACAD
1000
MTEXTBEGIN
1070
    73
1070
     1
1070
    44
1040
1.0
1070
    74
1070
     0
1000
MTEXTEND
  0
POINT
  5
3E9
330
3E2
100
AcDbEntity
  8
DEFPOINTS
 62
     0
100
AcDbPoint
 10
15161.26693323139
 20
-1886.03974942156
 30
0.0
  0
POINT
  5
3EA
330
3E2
100
AcDbEntity
  8
DEFPOINTS
 62
     0
100
AcDbPoint
 10
15174.26693323139
 20
-1853.879249421559
 30
0.0
  0
POINT
  5
3EB
330
3E2
100
AcDbEntity
  8
DEFPOINTS
 62
     0
100
AcDbPoint
 10
15174.26693323139
 20
-1834.292171597128
 30
0.0
  0
ENDBLK
  5
3ED
330
3E2
100
AcDbEntity
  8
0
100
AcDbBlockEnd
  0
BLOCK
  5
343
330
339
100
AcDbEntity
  8
0
100
AcDbBlockBegin
  2
*D8
 70
     1
 10
0.0
 20
0.0
 30
0.0
  3
*D8
  1

  0
LINE
  5
33A
330
339
100
AcDbEntity
  8
0
 62
   123
100
AcDbLine
 10
15178.2469183611
 20
-2005.394683433289
 30
0.0
 11
15178.2469183611
 21
-2063.290697814915
 31
0.0
  0
LINE
  5
33B
330
339
100
AcDbEntity
  8
0
 62
   123
100
AcDbLine
 10
15210.2469183611
 20
-2045.394683433289
 30
0.0
 11
15210.2469183611
 21
-2063.290697814915
 31
0.0
  0
LINE
  5
33C
330
339
100
AcDbEntity
  8
0
 62
   123
100
AcDbLine
 10
15180.7469183611
 20
-2062.690697814915
 30
0.0
 11
15207.7469183611
 21
-2062.690697814915
 31
0.0
  0
SOLID
  5
33D
330
339
100
AcDbEntity
  8
0
 62
   123
100
AcDbTrace
 10
15180.7469183611
 20
-2062.274031148248
 30
0.0
 11
15180.7469183611
 21
-2063.107364481582
 31
0.0
 12
15178.2469183611
 22
-2062.690697814915
 32
0.0
 13
15178.2469183611
 23
-2062.690697814915
 33
0.0
  0
SOLID
  5
33E
330
339
100
AcDbEntity
  8
0
 62
   123
100
AcDbTrace
 10
15207.7469183611
 20
-2062.274031148248
 30
0.0
 11
15207.7469183611
 21
-2063.107364481582
 31
0.0
 12
15210.2469183611
 22
-2062.690697814915
 32
0.0
 13
15210.2469183611
 23
-2062.690697814915
 33
0.0
  0
MTEXT
  5
33F
330
339
100
AcDbEntity
  8
0
 62
     3
100
AcDbMText
 10
15194.2469183611
 20
-2060.190697814916
 30
0.0
 40
3.0
 41
0.0
 71
     5
 72
     1
  1
\A1;32
1001
ACAD
1000
MTEXTBEGIN
1070
    73
1070
     1
1070
    44
1040
1.0
1070
    74
1070
     0
1000
MTEXTEND
  0
POINT
  5
340
330
339
100
AcDbEntity
  8
DEFPOINTS
 62
     0
100
AcDbPoint
 10
15178.2469183611
 20
-2004.394683433289
 30
0.0
  0
POINT
  5
341
330
339
100
AcDbEntity
  8
DEFPOINTS
 62
     0
100
AcDbPoint
 10
15210.2469183611
 20
-2044.39468343329
 30
0.0
  0
POINT
  5
342
330
339
100
AcDbEntity
  8
DEFPOINTS
 62
     0
100
AcDbPoint
 10
15210.2469183611
 20
-2062.690697814915
 30
0.0
  0
ENDBLK
  5
344
330
339
100
AcDbEntity
  8
0
100
AcDbBlockEnd
  0
BLOCK
  5
2E6
330
2DC
100
AcDbEntity
  8
0
100
AcDbBlockBegin
  2
*D9
 70
     1
 10
0.0
 20
0.0
 30
0.0
  3
*D9
  1

  0
LINE
  5
2DD
330
2DC
100
AcDbEntity
  8
0
 62
   123
100
AcDbLine
 10
15206.7469183611
 20
-1984.39468343329
 30
0.0
 11
15145.48087243865
 21
-1984.39468343329
 31
0.0
  0
LINE
  5
2DE
330
2DC
100
AcDbEntity
  8
0
 62
   123
100
AcDbLine
 10
15193.88720011581
 20
-2014.394683433289
 30
0.0
 11
15145.48087243865
 21
-2014.394683433289
 31
0.0
  0
LINE
  5
2DF
330
2DC
100
AcDbEntity
  8
0
 62
   123
100
AcDbLine
 10
15146.08087243864
 20
-1986.894683433289
 30
0.0
 11
15146.08087243864
 21
-2011.894683433289
 31
0.0
  0
SOLID
  5
2E0
330
2DC
100
AcDbEntity
  8
0
 62
   123
100
AcDbTrace
 10
15145.66420577198
 20
-1986.894683433289
 30
0.0
 11
15146.49753910531
 21
-1986.894683433289
 31
0.0
 12
15146.08087243864
 22
-1984.39468343329
 32
0.0
 13
15146.08087243864
 23
-1984.39468343329
 33
0.0
  0
SOLID
  5
2E1
330
2DC
100
AcDbEntity
  8
0
 62
   123
100
AcDbTrace
 10
15145.66420577198
 20
-2011.894683433289
 30
0.0
 11
15146.49753910531
 21
-2011.894683433289
 31
0.0
 12
15146.08087243864
 22
-2014.394683433289
 32
0.0
 13
15146.08087243864
 23
-2014.394683433289
 33
0.0
  0
MTEXT
  5
2E2
330
2DC
100
AcDbEntity
  8
0
 62
     3
100
AcDbMText
 10
15143.58087243866
 20
-1999.64468343329
 30
0.0
 40
3.0
 41
0.0
 71
     5
 72
     1
  1
\A1;{\f??|b0|i0|c0|p49;%%c}30
 11
0.0000000000000001
 21
1.0
 31
0.0
1001
ACAD
1000
MTEXTBEGIN
1070
    73
1070
     1
1070
    44
1040
1.0
1070
    74
1070
     0
1000
MTEXTEND
  0
POINT
  5
2E3
330
2DC
100
AcDbEntity
  8
DEFPOINTS
 62
     0
100
AcDbPoint
 10
15207.7469183611
 20
-1984.39468343329
 30
0.0
  0
POINT
  5
2E4
330
2DC
100
AcDbEntity
  8
DEFPOINTS
 62
     0
100
AcDbPoint
 10
15194.8872001158
 20
-2014.394683433289
 30
0.0
  0
POINT
  5
2E5
330
2DC
100
AcDbEntity
  8
DEFPOINTS
 62
     0
100
AcDbPoint
 10
15146.08087243864
 20
-2014.394683433289
 30
0.0
  0
ENDBLK
  5
2E7
330
2DC
100
AcDbEntity
  8
0
100
AcDbBlockEnd
  0
BLOCK
  5
C3
330
B7
100
AcDbEntity
  8
0
100
AcDbBlockBegin
  2
*D10
 70
     1
 10
0.0
 20
0.0
 30
0.0
  3
*D10
  1

  0
LINE
  5
B8
330
B7
100
AcDbEntity
  8
0
 62
   123
100
AcDbLine
 10
15115.42440113283
 20
-2118.229898179888
 30
0.0
 11
15130.521733627
 21
-2118.229898179888
 31
0.0
  0
LINE
  5
B9
330
B7
100
AcDbEntity
  8
0
 62
   123
100
AcDbLine
 10
15113.42440113283
 20
-2115.729898179888
 30
0.0
 11
15130.521733627
 21
-2115.729898179888
 31
0.0
  0
LINE
  5
BA
330
B7
100
AcDbEntity
  8
0
 62
   123
100
AcDbLine
 10
15129.921733627
 20
-2120.729898179888
 30
0.0
 11
15129.921733627
 21
-2123.229898179888
 31
0.0
  0
LINE
  5
BB
330
B7
100
AcDbEntity
  8
0
 62
   123
100
AcDbLine
 10
15129.921733627
 20
-2113.229898179888
 30
0.0
 11
15129.921733627
 21
-2091.815612465603
 31
0.0
  0
LINE
  5
BC
330
B7
100
AcDbEntity
  8
0
 62
   123
100
AcDbLine
 10
15129.921733627
 20
-2118.229898179888
 30
0.0
 11
15129.921733627
 21
-2115.729898179888
 31
0.0
  0
SOLID
  5
BD
330
B7
100
AcDbEntity
  8
0
 62
   123
100
AcDbTrace
 10
15129.50506696034
 20
-2120.729898179888
 30
0.0
 11
15130.33840029367
 21
-2120.729898179888
 31
0.0
 12
15129.921733627
 22
-2118.229898179888
 32
0.0
 13
15129.921733627
 23
-2118.229898179888
 33
0.0
  0
SOLID
  5
BE
330
B7
100
AcDbEntity
  8
0
 62
   123
100
AcDbTrace
 10
15129.50506696034
 20
-2113.229898179888
 30
0.0
 11
15130.33840029367
 21
-2113.229898179888
 31
0.0
 12
15129.921733627
 22
-2115.729898179888
 32
0.0
 13
15129.921733627
 23
-2115.729898179888
 33
0.0
  0
MTEXT
  5
BF
330
B7
100
AcDbEntity
  8
0
 62
     3
100
AcDbMText
 10
15126.471733627
 20
-2099.522755322745
 30
0.0
 40
3.0
 41
0.0
 71
     5
 72
     1
  1
\A1;\A1;2.5{\f??|b0|i0|c0|p49;\H0.7x;\S+0.1^ -0;\H1.429x; }
 11
0.0000000000000001
 21
1.0
 31
0.0
1001
ACAD
1000
MTEXTBEGIN
1070
    73
1070
     1
1070
    44
1040
1.0
1070
    74
1070
     0
1000
MTEXTEND
  0
POINT
  5
C0
330
B7
100
AcDbEntity
  8
DEFPOINTS
 62
     0
100
AcDbPoint
 10
15114.42440113283
 20
-2118.229898179888
 30
0.0
  0
POINT
  5
C1
330
B7
100
AcDbEntity
  8
DEFPOINTS
 62
     0
100
AcDbPoint
 10
15112.42440113283
 20
-2115.729898179888
 30
0.0
  0
POINT
  5
C2
330
B7
100
AcDbEntity
  8
DEFPOINTS
 62
     0
100
AcDbPoint
 10
15129.921733627
 20
-2115.729898179888
 30
0.0
  0
ENDBLK
  5
C4
330
B7
100
AcDbEntity
  8
0
100
AcDbBlockEnd
  0
BLOCK
  5
290
330
286
100
AcDbEntity
  8
0
100
AcDbBlockBegin
  2
*D11
 70
     1
 10
0.0
 20
0.0
 30
0.0
  3
*D11
  1

  0
LINE
  5
287
330
286
100
AcDbEntity
  8
0
 62
   123
100
AcDbLine
 10
15283.5215589499
 20
-2158.568204745392
 30
0.0
 11
15283.5215589499
 21
-2143.929171261218
 31
0.0
  0
LINE
  5
288
330
286
100
AcDbEntity
  8
0
 62
   123
100
AcDbLine
 10
15311.52155894988
 20
-2166.568204745392
 30
0.0
 11
15311.52155894988
 21
-2143.929171261218
 31
0.0
  0
LINE
  5
289
330
286
100
AcDbEntity
  8
0
 62
   123
100
AcDbLine
 10
15286.02155894988
 20
-2144.52917126122
 30
0.0
 11
15309.0215589499
 21
-2144.52917126122
 31
0.0
  0
SOLID
  5
28A
330
286
100
AcDbEntity
  8
0
 62
   123
100
AcDbTrace
 10
15286.02155894988
 20
-2144.112504594553
 30
0.0
 11
15286.02155894988
 21
-2144.945837927886
 31
0.0
 12
15283.5215589499
 22
-2144.52917126122
 32
0.0
 13
15283.5215589499
 23
-2144.52917126122
 33
0.0
  0
SOLID
  5
28B
330
286
100
AcDbEntity
  8
0
 62
   123
100
AcDbTrace
 10
15309.0215589499
 20
-2144.112504594553
 30
0.0
 11
15309.0215589499
 21
-2144.945837927886
 31
0.0
 12
15311.52155894988
 22
-2144.52917126122
 32
0.0
 13
15311.52155894988
 23
-2144.52917126122
 33
0.0
  0
MTEXT
  5
28C
330
286
100
AcDbEntity
  8
0
 62
     3
100
AcDbMText
 10
15297.5215589499
 20
-2142.029171261218
 30
0.0
 40
3.0
 41
0.0
 71
     5
 72
     1
  1
\A1;MAX. 28
1001
ACAD
1000
MTEXTBEGIN
1070
    73
1070
     1
1070
    44
1040
1.0
1070
    74
1070
     0
1000
MTEXTEND
  0
POINT
  5
28D
330
286
100
AcDbEntity
  8
DEFPOINTS
 62
     0
100
AcDbPoint
 10
15283.5215589499
 20
-2159.568204745391
 30
0.0
  0
POINT
  5
28E
330
286
100
AcDbEntity
  8
DEFPOINTS
 62
     0
100
AcDbPoint
 10
15311.52155894988
 20
-2167.568204745392
 30
0.0
  0
POINT
  5
28F
330
286
100
AcDbEntity
  8
DEFPOINTS
 62
     0
100
AcDbPoint
 10
15311.52155894988
 20
-2144.52917126122
 30
0.0
  0
ENDBLK
  5
291
330
286
100
AcDbEntity
  8
0
100
AcDbBlockEnd
  0
BLOCK
  5
159
330
14F
100
AcDbEntity
  8
0
100
AcDbBlockBegin
  2
*D12
 70
     1
 10
0.0
 20
0.0
 30
0.0
  3
*D12
  1

  0
LINE
  5
150
330
14F
100
AcDbEntity
  8
0
 62
   123
100
AcDbLine
 10
14998.62025403799
 20
-2190.568203745393
 30
0.0
 11
14998.62025403799
 21
-2144.785847982208
 31
0.0
  0
LINE
  5
151
330
14F
100
AcDbEntity
  8
0
 62
   123
100
AcDbLine
 10
15060.62025403799
 20
-2190.568203745393
 30
0.0
 11
15060.62025403799
 21
-2144.785847982208
 31
0.0
  0
LINE
  5
152
330
14F
100
AcDbEntity
  8
0
 62
   123
100
AcDbLine
 10
15001.12025403799
 20
-2145.385847982208
 30
0.0
 11
15058.12025403799
 21
-2145.385847982208
 31
0.0
  0
SOLID
  5
153
330
14F
100
AcDbEntity
  8
0
 62
   123
100
AcDbTrace
 10
15001.12025403799
 20
-2144.969181315541
 30
0.0
 11
15001.12025403799
 21
-2145.802514648873
 31
0.0
 12
14998.62025403799
 22
-2145.385847982208
 32
0.0
 13
14998.62025403799
 23
-2145.385847982208
 33
0.0
  0
SOLID
  5
154
330
14F
100
AcDbEntity
  8
0
 62
   123
100
AcDbTrace
 10
15058.12025403799
 20
-2144.969181315541
 30
0.0
 11
15058.12025403799
 21
-2145.802514648873
 31
0.0
 12
15060.62025403799
 22
-2145.385847982208
 32
0.0
 13
15060.62025403799
 23
-2145.385847982208
 33
0.0
  0
MTEXT
  5
155
330
14F
100
AcDbEntity
  8
0
 62
     3
100
AcDbMText
 10
15029.62025403799
 20
-2142.885847982208
 30
0.0
 40
3.0
 41
0.0
 71
     5
 72
     1
  1
\A1;62
1001
ACAD
1000
MTEXTBEGIN
1070
    73
1070
     1
1070
    44
1040
1.0
1070
    74
1070
     0
1000
MTEXTEND
  0
POINT
  5
156
330
14F
100
AcDbEntity
  8
DEFPOINTS
 62
     0
100
AcDbPoint
 10
14998.62025403799
 20
-2191.568203745393
 30
0.0
  0
POINT
  5
157
330
14F
100
AcDbEntity
  8
DEFPOINTS
 62
     0
100
AcDbPoint
 10
15060.62025403799
 20
-2191.568203745393
 30
0.0
  0
POINT
  5
158
330
14F
100
AcDbEntity
  8
DEFPOINTS
 62
     0
100
AcDbPoint
 10
15060.62025403799
 20
-2145.385847982208
 30
0.0
  0
ENDBLK
  5
15A
330
14F
100
AcDbEntity
  8
0
100
AcDbBlockEnd
  0
BLOCK
  5
254
330
24A
100
AcDbEntity
  8
0
100
AcDbBlockBegin
  2
*D13
 70
     1
 10
0.0
 20
0.0
 30
0.0
  3
*D13
  1

  0
LINE
  5
24B
330
24A
100
AcDbEntity
  8
0
 62
   123
100
AcDbLine
 10
15208.52489194989
 20
-2189.868204745391
 30
0.0
 11
15208.52489194989
 21
-2143.912600240708
 31
0.0
  0
LINE
  5
24C
330
24A
100
AcDbEntity
  8
0
 62
   123
100
AcDbLine
 10
15283.5215589499
 20
-2158.568204745392
 30
0.0
 11
15283.5215589499
 21
-2143.912600240708
 31
0.0
  0
LINE
  5
24D
330
24A
100
AcDbEntity
  8
0
 62
   123
100
AcDbLine
 10
15211.0248919499
 20
-2144.512600240708
 30
0.0
 11
15281.02155894988
 21
-2144.512600240708
 31
0.0
  0
SOLID
  5
24E
330
24A
100
AcDbEntity
  8
0
 62
   123
100
AcDbTrace
 10
15211.0248919499
 20
-2144.095933574042
 30
0.0
 11
15211.0248919499
 21
-2144.929266907375
 31
0.0
 12
15208.52489194989
 22
-2144.512600240708
 32
0.0
 13
15208.52489194989
 23
-2144.512600240708
 33
0.0
  0
SOLID
  5
24F
330
24A
100
AcDbEntity
  8
0
 62
   123
100
AcDbTrace
 10
15281.02155894988
 20
-2144.095933574042
 30
0.0
 11
15281.02155894988
 21
-2144.929266907375
 31
0.0
 12
15283.5215589499
 22
-2144.512600240708
 32
0.0
 13
15283.5215589499
 23
-2144.512600240708
 33
0.0
  0
MTEXT
  5
250
330
24A
100
AcDbEntity
  8
0
 62
     3
100
AcDbMText
 10
15239.42476919265
 20
-2142.012600240707
 30
0.0
 40
3.0
 41
0.0
 71
     5
 72
     1
  1
\A1;75
1001
ACAD
1000
MTEXTBEGIN
1070
    73
1070
     1
1070
    44
1040
1.0
1070
    74
1070
     0
1000
MTEXTEND
  0
POINT
  5
251
330
24A
100
AcDbEntity
  8
DEFPOINTS
 62
     0
100
AcDbPoint
 10
15208.52489194989
 20
-2190.86820474539
 30
0.0
  0
POINT
  5
252
330
24A
100
AcDbEntity
  8
DEFPOINTS
 62
     0
100
AcDbPoint
 10
15283.5215589499
 20
-2159.568204745391
 30
0.0
  0
POINT
  5
253
330
24A
100
AcDbEntity
  8
DEFPOINTS
 62
     0
100
AcDbPoint
 10
15283.5215589499
 20
-2144.512600240708
 30
0.0
  0
ENDBLK
  5
255
330
24A
100
AcDbEntity
  8
0
100
AcDbBlockEnd
  0
BLOCK
  5
225
330
219
100
AcDbEntity
  8
0
100
AcDbBlockBegin
  2
*D14
 70
     1
 10
0.0
 20
0.0
 30
0.0
  3
*D14
  1

  0
LINE
  5
21A
330
219
100
AcDbEntity
  8
0
 62
   123
100
AcDbLine
 10
15203.02489194989
 20
-2198.568203745393
 30
0.0
 11
15203.02489194989
 21
-2143.912600240708
 31
0.0
  0
LINE
  5
21B
330
219
100
AcDbEntity
  8
0
 62
   123
100
AcDbLine
 10
15208.52489194989
 20
-2189.868204745391
 30
0.0
 11
15208.52489194989
 21
-2143.912600240708
 31
0.0
  0
LINE
  5
21C
330
219
100
AcDbEntity
  8
0
 62
   123
100
AcDbLine
 10
15200.5248919499
 20
-2144.512600240708
 30
0.0
 11
15198.02489194989
 21
-2144.512600240708
 31
0.0
  0
LINE
  5
21D
330
219
100
AcDbEntity
  8
0
 62
   123
100
AcDbLine
 10
15211.0248919499
 20
-2144.512600240708
 30
0.0
 11
15213.52489194988
 21
-2144.512600240708
 31
0.0
  0
LINE
  5
21E
330
219
100
AcDbEntity
  8
0
 62
   123
100
AcDbLine
 10
15203.02489194989
 20
-2144.512600240708
 30
0.0
 11
15208.52489194989
 21
-2144.512600240708
 31
0.0
  0
SOLID
  5
21F
330
219
100
AcDbEntity
  8
0
 62
   123
100
AcDbTrace
 10
15200.5248919499
 20
-2144.095933574042
 30
0.0
 11
15200.5248919499
 21
-2144.929266907375
 31
0.0
 12
15203.02489194989
 22
-2144.512600240708
 32
0.0
 13
15203.02489194989
 23
-2144.512600240708
 33
0.0
  0
SOLID
  5
220
330
219
100
AcDbEntity
  8
0
 62
   123
100
AcDbTrace
 10
15211.0248919499
 20
-2144.095933574042
 30
0.0
 11
15211.0248919499
 21
-2144.929266907375
 31
0.0
 12
15208.52489194989
 22
-2144.512600240708
 32
0.0
 13
15208.52489194989
 23
-2144.512600240708
 33
0.0
  0
MTEXT
  5
221
330
219
100
AcDbEntity
  8
0
 62
     3
100
AcDbMText
 10
15205.77489194988
 20
-2142.012600240707
 30
0.0
 40
3.0
 41
0.0
 71
     5
 72
     1
  1
\A1;5.5
1001
ACAD
1000
MTEXTBEGIN
1070
    73
1070
     1
1070
    44
1040
1.0
1070
    74
1070
     0
1000
MTEXTEND
  0
POINT
  5
222
330
219
100
AcDbEntity
  8
DEFPOINTS
 62
     0
100
AcDbPoint
 10
15203.02489194989
 20
-2199.568203745393
 30
0.0
  0
POINT
  5
223
330
219
100
AcDbEntity
  8
DEFPOINTS
 62
     0
100
AcDbPoint
 10
15208.52489194989
 20
-2190.86820474539
 30
0.0
  0
POINT
  5
224
330
219
100
AcDbEntity
  8
DEFPOINTS
 62
     0
100
AcDbPoint
 10
15208.52489194989
 20
-2144.512600240708
 30
0.0
  0
ENDBLK
  5
226
330
219
100
AcDbEntity
  8
0
100
AcDbBlockEnd
  0
BLOCK
  5
E1
330
D7
100
AcDbEntity
  8
0
100
AcDbBlockBegin
  2
*D15
 70
     1
 10
0.0
 20
0.0
 30
0.0
  3
*D15
  1

  0
LINE
  5
D8
330
D7
100
AcDbEntity
  8
0
 62
   123
100
AcDbLine
 10
15283.02489194989
 20
-2267.568203745393
 30
0.0
 11
15283.02489194989
 21
-2292.482662750333
 31
0.0
  0
LINE
  5
D9
330
D7
100
AcDbEntity
  8
0
 62
   123
100
AcDbLine
 10
15203.02489194989
 20
-2271.068203745394
 30
0.0
 11
15203.02489194989
 21
-2292.482662750333
 31
0.0
  0
LINE
  5
DA
330
D7
100
AcDbEntity
  8
0
 62
   123
100
AcDbLine
 10
15280.5248919499
 20
-2291.882662750333
 30
0.0
 11
15205.52489194989
 21
-2291.882662750333
 31
0.0
  0
SOLID
  5
DB
330
D7
100
AcDbEntity
  8
0
 62
   123
100
AcDbTrace
 10
15280.5248919499
 20
-2291.465996083666
 30
0.0
 11
15280.5248919499
 21
-2292.299329416998
 31
0.0
 12
15283.02489194989
 22
-2291.882662750333
 32
0.0
 13
15283.02489194989
 23
-2291.882662750333
 33
0.0
  0
SOLID
  5
DC
330
D7
100
AcDbEntity
  8
0
 62
   123
100
AcDbTrace
 10
15205.52489194989
 20
-2291.465996083666
 30
0.0
 11
15205.52489194989
 21
-2292.299329416998
 31
0.0
 12
15203.02489194989
 22
-2291.882662750333
 32
0.0
 13
15203.02489194989
 23
-2291.882662750333
 33
0.0
  0
MTEXT
  5
DD
330
D7
100
AcDbEntity
  8
0
 62
     3
100
AcDbMText
 10
15242.03387378394
 20
-2289.382662750333
 30
0.0
 40
3.0
 41
0.0
 71
     5
 72
     1
  1
\A1;80
1001
ACAD
1000
MTEXTBEGIN
1070
    73
1070
     1
1070
    44
1040
1.0
1070
    74
1070
     0
1000
MTEXTEND
  0
POINT
  5
DE
330
D7
100
AcDbEntity
  8
DEFPOINTS
 62
     0
100
AcDbPoint
 10
15283.02489194989
 20
-2266.568203745392
 30
0.0
  0
POINT
  5
DF
330
D7
100
AcDbEntity
  8
DEFPOINTS
 62
     0
100
AcDbPoint
 10
15203.02489194989
 20
-2270.068203745394
 30
0.0
  0
POINT
  5
E0
330
D7
100
AcDbEntity
  8
DEFPOINTS
 62
     0
100
AcDbPoint
 10
15203.02489194989
 20
-2291.882662750333
 30
0.0
  0
ENDBLK
  5
E2
330
D7
100
AcDbEntity
  8
0
100
AcDbBlockEnd
  0
BLOCK
  5
F0
330
E6
100
AcDbEntity
  8
0
100
AcDbBlockBegin
  2
*D16
 70
     1
 10
0.0
 20
0.0
 30
0.0
  3
*D16
  1

  0
LINE
  5
E7
330
E6
100
AcDbEntity
  8
0
 62
   123
100
AcDbLine
 10
15203.02489194989
 20
-2271.068203745394
 30
0.0
 11
15203.02489194989
 21
-2282.001612357451
 31
0.0
  0
LINE
  5
E8
330
E6
100
AcDbEntity
  8
0
 62
   123
100
AcDbLine
 10
15210.0248919499
 20
-2269.166941086923
 30
0.0
 11
15210.0248919499
 21
-2282.001612357451
 31
0.0
  0
LINE
  5
E9
330
E6
100
AcDbEntity
  8
0
 62
   123
100
AcDbLine
 10
15205.52489194989
 20
-2281.401612357451
 30
0.0
 11
15207.52489194989
 21
-2281.401612357451
 31
0.0
  0
SOLID
  5
EA
330
E6
100
AcDbEntity
  8
0
 62
   123
100
AcDbTrace
 10
15205.52489194989
 20
-2280.984945690784
 30
0.0
 11
15205.52489194989
 21
-2281.818279024117
 31
0.0
 12
15203.02489194989
 22
-2281.401612357451
 32
0.0
 13
15203.02489194989
 23
-2281.401612357451
 33
0.0
  0
SOLID
  5
EB
330
E6
100
AcDbEntity
  8
0
 62
   123
100
AcDbTrace
 10
15207.52489194989
 20
-2280.984945690784
 30
0.0
 11
15207.52489194989
 21
-2281.818279024117
 31
0.0
 12
15210.0248919499
 22
-2281.401612357451
 32
0.0
 13
15210.0248919499
 23
-2281.401612357451
 33
0.0
  0
MTEXT
  5
EC
330
E6
100
AcDbEntity
  8
0
 62
     3
100
AcDbMText
 10
15206.52489194989
 20
-2278.901612357451
 30
0.0
 40
3.0
 41
0.0
 71
     5
 72
     1
  1
\A1;7
1001
ACAD
1000
MTEXTBEGIN
1070
    73
1070
     1
1070
    44
1040
1.0
1070
    74
1070
     0
1000
MTEXTEND
  0
POINT
  5
ED
330
E6
100
AcDbEntity
  8
DEFPOINTS
 62
     0
100
AcDbPoint
 10
15203.02489194989
 20
-2270.068203745394
 30
0.0
  0
POINT
  5
EE
330
E6
100
AcDbEntity
  8
DEFPOINTS
 62
     0
100
AcDbPoint
 10
15210.0248919499
 20
-2268.166941086922
 30
0.0
  0
POINT
  5
EF
330
E6
100
AcDbEntity
  8
DEFPOINTS
 62
     0
100
AcDbPoint
 10
15210.0248919499
 20
-2281.401612357451
 30
0.0
  0
ENDBLK
  5
F1
330
E6
100
AcDbEntity
  8
0
100
AcDbBlockEnd
  0
BLOCK
  5
2A5
330
29B
100
AcDbEntity
  8
0
100
AcDbBlockBegin
  2
*D17
 70
     1
 10
0.0
 20
0.0
 30
0.0
  3
*D17
  1

  0
LINE
  5
29C
330
29B
100
AcDbEntity
  8
0
 62
   123
100
AcDbLine
 10
15277.02489194989
 20
-2200.068203745393
 30
0.0
 11
15300.28556164276
 21
-2200.068203745393
 31
0.0
  0
LINE
  5
29D
330
29B
100
AcDbEntity
  8
0
 62
   123
100
AcDbLine
 10
15277.02489194989
 20
-2269.068203745393
 30
0.0
 11
15300.28556164276
 21
-2269.068203745393
 31
0.0
  0
LINE
  5
29E
330
29B
100
AcDbEntity
  8
0
 62
   123
100
AcDbLine
 10
15299.68556164277
 20
-2202.568203745392
 30
0.0
 11
15299.68556164277
 21
-2266.568203745392
 31
0.0
  0
SOLID
  5
29F
330
29B
100
AcDbEntity
  8
0
 62
   123
100
AcDbTrace
 10
15299.26889497611
 20
-2202.568203745392
 30
0.0
 11
15300.10222830944
 21
-2202.568203745392
 31
0.0
 12
15299.68556164277
 22
-2200.068203745393
 32
0.0
 13
15299.68556164277
 23
-2200.068203745393
 33
0.0
  0
SOLID
  5
2A0
330
29B
100
AcDbEntity
  8
0
 62
   123
100
AcDbTrace
 10
15299.26889497611
 20
-2266.568203745392
 30
0.0
 11
15300.10222830944
 21
-2266.568203745392
 31
0.0
 12
15299.68556164277
 22
-2269.068203745393
 32
0.0
 13
15299.68556164277
 23
-2269.068203745393
 33
0.0
  0
MTEXT
  5
2A1
330
29B
100
AcDbEntity
  8
0
 62
     3
100
AcDbMText
 10
15297.18556164277
 20
-2236.724284735482
 30
0.0
 40
3.0
 41
0.0
 71
     5
 72
     1
  1
\A1;%%C69
 11
0.0000000000000001
 21
1.0
 31
0.0
1001
ACAD
1000
MTEXTBEGIN
1070
    73
1070
     1
1070
    44
1040
1.0
1070
    74
1070
     0
1000
MTEXTEND
  0
POINT
  5
2A2
330
29B
100
AcDbEntity
  8
DEFPOINTS
 62
     0
100
AcDbPoint
 10
15276.0248919499
 20
-2200.068203745393
 30
0.0
  0
POINT
  5
2A3
330
29B
100
AcDbEntity
  8
DEFPOINTS
 62
     0
100
AcDbPoint
 10
15276.0248919499
 20
-2269.068203745393
 30
0.0
  0
POINT
  5
2A4
330
29B
100
AcDbEntity
  8
DEFPOINTS
 62
     0
100
AcDbPoint
 10
15299.68556164277
 20
-2269.068203745393
 30
0.0
  0
ENDBLK
  5
2A6
330
29B
100
AcDbEntity
  8
0
100
AcDbBlockEnd
  0
BLOCK
  5
191
330
187
100
AcDbEntity
  8
0
100
AcDbBlockBegin
  2
*D18
 70
     1
 10
0.0
 20
0.0
 30
0.0
  3
*D18
  1

  0
LINE
  5
188
330
187
100
AcDbEntity
  8
0
 62
   123
100
AcDbLine
 10
15154.0248919499
 20
-2213.568203745392
 30
0.0
 11
15154.0248919499
 21
-2197.74791553849
 31
0.0
  0
LINE
  5
189
330
187
100
AcDbEntity
  8
0
 62
   123
100
AcDbLine
 10
15129.02489194989
 20
-2213.568203745392
 30
0.0
 11
15129.02489194989
 21
-2197.74791553849
 31
0.0
  0
LINE
  5
18A
330
187
100
AcDbEntity
  8
0
 62
   123
100
AcDbLine
 10
15151.52489194989
 20
-2198.347915538489
 30
0.0
 11
15131.52489194989
 21
-2198.347915538489
 31
0.0
  0
SOLID
  5
18B
330
187
100
AcDbEntity
  8
0
 62
   123
100
AcDbTrace
 10
15151.52489194989
 20
-2197.931248871824
 30
0.0
 11
15151.52489194989
 21
-2198.764582205157
 31
0.0
 12
15154.0248919499
 22
-2198.347915538489
 32
0.0
 13
15154.0248919499
 23
-2198.347915538489
 33
0.0
  0
SOLID
  5
18C
330
187
100
AcDbEntity
  8
0
 62
   123
100
AcDbTrace
 10
15131.52489194989
 20
-2197.931248871824
 30
0.0
 11
15131.52489194989
 21
-2198.764582205157
 31
0.0
 12
15129.02489194989
 22
-2198.347915538489
 32
0.0
 13
15129.02489194989
 23
-2198.347915538489
 33
0.0
  0
MTEXT
  5
18D
330
187
100
AcDbEntity
  8
0
 62
     3
100
AcDbMText
 10
15141.83582261729
 20
-2195.84791553849
 30
0.0
 40
3.0
 41
0.0
 71
     5
 72
     1
  1
\A1;25
1001
ACAD
1000
MTEXTBEGIN
1070
    73
1070
     1
1070
    44
1040
1.0
1070
    74
1070
     0
1000
MTEXTEND
  0
POINT
  5
18E
330
187
100
AcDbEntity
  8
DEFPOINTS
 62
     0
100
AcDbPoint
 10
15154.0248919499
 20
-2214.568203745393
 30
0.0
  0
POINT
  5
18F
330
187
100
AcDbEntity
  8
DEFPOINTS
 62
     0
100
AcDbPoint
 10
15129.02489194989
 20
-2214.568203745393
 30
0.0
  0
POINT
  5
190
330
187
100
AcDbEntity
  8
DEFPOINTS
 62
     0
100
AcDbPoint
 10
15129.02489194989
 20
-2198.347915538489
 30
0.0
  0
ENDBLK
  5
192
330
187
100
AcDbEntity
  8
0
100
AcDbBlockEnd
  0
BLOCK
  5
1A1
330
197
100
AcDbEntity
  8
0
100
AcDbBlockBegin
  2
*D19
 70
     1
 10
0.0
 20
0.0
 30
0.0
  3
*D19
  1

  0
LINE
  5
198
330
197
100
AcDbEntity
  8
0
 62
   123
100
AcDbLine
 10
15124.12675314867
 20
-2219.568203745393
 30
0.0
 11
15105.15264584748
 21
-2219.568203745393
 31
0.0
  0
LINE
  5
199
330
197
100
AcDbEntity
  8
0
 62
   123
100
AcDbLine
 10
15143.66517370459
 20
-2234.568203745392
 30
0.0
 11
15105.15264584748
 21
-2234.568203745392
 31
0.0
  0
LINE
  5
19A
330
197
100
AcDbEntity
  8
0
 62
   123
100
AcDbLine
 10
15105.75264584748
 20
-2222.068203745393
 30
0.0
 11
15105.75264584748
 21
-2232.068203745393
 31
0.0
  0
SOLID
  5
19B
330
197
100
AcDbEntity
  8
0
 62
   123
100
AcDbTrace
 10
15105.33597918081
 20
-2222.068203745393
 30
0.0
 11
15106.16931251414
 21
-2222.068203745393
 31
0.0
 12
15105.75264584748
 22
-2219.568203745393
 32
0.0
 13
15105.75264584748
 23
-2219.568203745393
 33
0.0
  0
SOLID
  5
19C
330
197
100
AcDbEntity
  8
0
 62
   123
100
AcDbTrace
 10
15105.33597918081
 20
-2232.068203745393
 30
0.0
 11
15106.16931251414
 21
-2232.068203745393
 31
0.0
 12
15105.75264584748
 22
-2234.568203745392
 32
0.0
 13
15105.75264584748
 23
-2234.568203745392
 33
0.0
  0
MTEXT
  5
19D
330
197
100
AcDbEntity
  8
0
 62
     3
100
AcDbMText
 10
15103.25264584747
 20
-2227.06820374539
 30
0.0
 40
3.0
 41
0.0
 71
     5
 72
     1
  1
\A1;15
 11
0.0000000000000001
 21
1.0
 31
0.0
1001
ACAD
1000
MTEXTBEGIN
1070
    73
1070
     1
1070
    44
1040
1.0
1070
    74
1070
     0
1000
MTEXTEND
  0
POINT
  5
19E
330
197
100
AcDbEntity
  8
DEFPOINTS
 62
     0
100
AcDbPoint
 10
15125.12675314867
 20
-2219.568203745393
 30
0.0
  0
POINT
  5
19F
330
197
100
AcDbEntity
  8
DEFPOINTS
 62
     0
100
AcDbPoint
 10
15144.66517370459
 20
-2234.568203745392
 30
0.0
  0
POINT
  5
1A0
330
197
100
AcDbEntity
  8
DEFPOINTS
 62
     0
100
AcDbPoint
 10
15105.75264584748
 20
-2234.568203745392
 30
0.0
  0
ENDBLK
  5
1A2
330
197
100
AcDbEntity
  8
0
100
AcDbBlockEnd
  0
BLOCK
  5
1B2
330
1A6
100
AcDbEntity
  8
0
100
AcDbBlockBegin
  2
*D20
 70
     1
 10
0.0
 20
0.0
 30
0.0
  3
*D20
  1

  0
LINE
  5
1A7
330
1A6
100
AcDbEntity
  8
0
 62
   123
100
AcDbLine
 10
15128.0248919499
 20
-2224.568203745393
 30
0.0
 11
15113.60022866091
 21
-2224.568203745393
 31
0.0
  0
LINE
  5
1A8
330
1A6
100
AcDbEntity
  8
0
 62
   123
100
AcDbLine
 10
15128.0248919499
 20
-2214.568203745393
 30
0.0
 11
15113.60022866091
 21
-2214.568203745393
 31
0.0
  0
LINE
  5
1A9
330
1A6
100
AcDbEntity
  8
0
 62
   123
100
AcDbLine
 10
15114.20022866091
 20
-2227.068203745393
 30
0.0
 11
15114.20022866091
 21
-2229.568203745392
 31
0.0
  0
LINE
  5
1AA
330
1A6
100
AcDbEntity
  8
0
 62
   123
100
AcDbLine
 10
15114.20022866091
 20
-2212.068203745393
 30
0.0
 11
15114.20022866091
 21
-2173.740161232228
 31
0.0
  0
LINE
  5
1AB
330
1A6
100
AcDbEntity
  8
0
 62
   123
100
AcDbLine
 10
15114.20022866091
 20
-2224.568203745393
 30
0.0
 11
15114.20022866091
 21
-2214.568203745393
 31
0.0
  0
SOLID
  5
1AC
330
1A6
100
AcDbEntity
  8
0
 62
   123
100
AcDbTrace
 10
15113.78356199425
 20
-2227.068203745393
 30
0.0
 11
15114.61689532758
 21
-2227.068203745393
 31
0.0
 12
15114.20022866091
 22
-2224.568203745393
 32
0.0
 13
15114.20022866091
 23
-2224.568203745393
 33
0.0
  0
SOLID
  5
1AD
330
1A6
100
AcDbEntity
  8
0
 62
   123
100
AcDbTrace
 10
15113.78356199425
 20
-2212.068203745393
 30
0.0
 11
15114.61689532758
 21
-2212.068203745393
 31
0.0
 12
15114.20022866091
 22
-2214.568203745393
 32
0.0
 13
15114.20022866091
 23
-2214.568203745393
 33
0.0
  0
MTEXT
  5
1AE
330
1A6
100
AcDbEntity
  8
0
 62
     3
100
AcDbMText
 10
15110.25007866091
 20
-2188.555732660797
 30
0.0
 40
3.0
 41
0.0
 71
     5
 72
     1
  1
\A1;\A1;{\f??|b0|i0|c0|p49;%%C10\H0.7x;\S+0^ -0.015;\H1.429x;(h7)}
 11
0.0000000000000001
 21
1.0
 31
0.0
1001
ACAD
1000
MTEXTBEGIN
1070
    73
1070
     1
1070
    44
1040
1.0
1070
    74
1070
     0
1000
MTEXTEND
  0
POINT
  5
1AF
330
1A6
100
AcDbEntity
  8
DEFPOINTS
 62
     0
100
AcDbPoint
 10
15129.02489194989
 20
-2224.568203745393
 30
0.0
  0
POINT
  5
1B0
330
1A6
100
AcDbEntity
  8
DEFPOINTS
 62
     0
100
AcDbPoint
 10
15129.02489194989
 20
-2214.568203745393
 30
0.0
  0
POINT
  5
1B1
330
1A6
100
AcDbEntity
  8
DEFPOINTS
 62
     0
100
AcDbPoint
 10
15114.20022866091
 20
-2214.568203745393
 30
0.0
  0
ENDBLK
  5
1B3
330
1A6
100
AcDbEntity
  8
0
100
AcDbBlockEnd
  0
BLOCK
  5
105
330
F9
100
AcDbEntity
  8
0
100
AcDbBlockBegin
  2
*D21
 70
     1
 10
0.0
 20
0.0
 30
0.0
  3
*D21
  1

  0
LINE
  5
FA
330
F9
100
AcDbEntity
  8
0
 62
   123
100
AcDbLine
 10
15161.02489194989
 20
-2198.568203745393
 30
0.0
 11
15161.02489194989
 21
-2182.362460991146
 31
0.0
  0
LINE
  5
FB
330
F9
100
AcDbEntity
  8
0
 62
   123
100
AcDbLine
 10
15158.02489194989
 20
-2204.068203745392
 30
0.0
 11
15158.02489194989
 21
-2182.362460991146
 31
0.0
  0
LINE
  5
FC
330
F9
100
AcDbEntity
  8
0
 62
   123
100
AcDbLine
 10
15163.52489194989
 20
-2182.962460991146
 30
0.0
 11
15166.0248919499
 21
-2182.962460991146
 31
0.0
  0
LINE
  5
FD
330
F9
100
AcDbEntity
  8
0
 62
   123
100
AcDbLine
 10
15155.5248919499
 20
-2182.962460991146
 30
0.0
 11
15153.02489194989
 21
-2182.962460991146
 31
0.0
  0
LINE
  5
FE
330
F9
100
AcDbEntity
  8
0
 62
   123
100
AcDbLine
 10
15161.02489194989
 20
-2182.962460991146
 30
0.0
 11
15158.02489194989
 21
-2182.962460991146
 31
0.0
  0
SOLID
  5
FF
330
F9
100
AcDbEntity
  8
0
 62
   123
100
AcDbTrace
 10
15163.52489194989
 20
-2182.545794324479
 30
0.0
 11
15163.52489194989
 21
-2183.379127657811
 31
0.0
 12
15161.02489194989
 22
-2182.962460991146
 32
0.0
 13
15161.02489194989
 23
-2182.962460991146
 33
0.0
  0
SOLID
  5
100
330
F9
100
AcDbEntity
  8
0
 62
   123
100
AcDbTrace
 10
15155.5248919499
 20
-2182.545794324479
 30
0.0
 11
15155.5248919499
 21
-2183.379127657811
 31
0.0
 12
15158.02489194989
 22
-2182.962460991146
 32
0.0
 13
15158.02489194989
 23
-2182.962460991146
 33
0.0
  0
MTEXT
  5
101
330
F9
100
AcDbEntity
  8
0
 62
     3
100
AcDbMText
 10
15159.52489194989
 20
-2180.462460991146
 30
0.0
 40
3.0
 41
0.0
 71
     5
 72
     1
  1
\A1;3
1001
ACAD
1000
MTEXTBEGIN
1070
    73
1070
     1
1070
    44
1040
1.0
1070
    74
1070
     0
1000
MTEXTEND
  0
POINT
  5
102
330
F9
100
AcDbEntity
  8
DEFPOINTS
 62
     0
100
AcDbPoint
 10
15161.02489194989
 20
-2199.568203745393
 30
0.0
  0
POINT
  5
103
330
F9
100
AcDbEntity
  8
DEFPOINTS
 62
     0
100
AcDbPoint
 10
15158.02489194989
 20
-2205.068203745393
 30
0.0
  0
POINT
  5
104
330
F9
100
AcDbEntity
  8
DEFPOINTS
 62
     0
100
AcDbPoint
 10
15158.02489194989
 20
-2182.962460991146
 30
0.0
  0
ENDBLK
  5
106
330
F9
100
AcDbEntity
  8
0
100
AcDbBlockEnd
  0
BLOCK
  5
115
330
10B
100
AcDbEntity
  8
0
100
AcDbBlockBegin
  2
*D22
 70
     1
 10
0.0
 20
0.0
 30
0.0
  3
*D22
  1

  0
LINE
  5
10C
330
10B
100
AcDbEntity
  8
0
 62
   123
100
AcDbLine
 10
15129.02489194989
 20
-2213.568203745392
 30
0.0
 11
15129.02489194989
 21
-2170.838555798577
 31
0.0
  0
LINE
  5
10D
330
10B
100
AcDbEntity
  8
0
 62
   123
100
AcDbLine
 10
15161.02489194989
 20
-2198.568203745393
 30
0.0
 11
15161.02489194989
 21
-2170.838555798577
 31
0.0
  0
LINE
  5
10E
330
10B
100
AcDbEntity
  8
0
 62
   123
100
AcDbLine
 10
15131.52489194989
 20
-2171.438555798577
 30
0.0
 11
15158.5248919499
 21
-2171.438555798577
 31
0.0
  0
SOLID
  5
10F
330
10B
100
AcDbEntity
  8
0
 62
   123
100
AcDbTrace
 10
15131.52489194989
 20
-2171.02188913191
 30
0.0
 11
15131.52489194989
 21
-2171.855222465242
 31
0.0
 12
15129.02489194989
 22
-2171.438555798577
 32
0.0
 13
15129.02489194989
 23
-2171.438555798577
 33
0.0
  0
SOLID
  5
110
330
10B
100
AcDbEntity
  8
0
 62
   123
100
AcDbTrace
 10
15158.5248919499
 20
-2171.02188913191
 30
0.0
 11
15158.5248919499
 21
-2171.855222465242
 31
0.0
 12
15161.02489194989
 22
-2171.438555798577
 32
0.0
 13
15161.02489194989
 23
-2171.438555798577
 33
0.0
  0
MTEXT
  5
111
330
10B
100
AcDbEntity
  8
0
 62
     3
100
AcDbMText
 10
15145.02489194988
 20
-2168.938555798577
 30
0.0
 40
3.0
 41
0.0
 71
     5
 72
     1
  1
\A1;32
1001
ACAD
1000
MTEXTBEGIN
1070
    73
1070
     1
1070
    44
1040
1.0
1070
    74
1070
     0
1000
MTEXTEND
  0
POINT
  5
112
330
10B
100
AcDbEntity
  8
DEFPOINTS
 62
     0
100
AcDbPoint
 10
15129.02489194989
 20
-2214.568203745393
 30
0.0
  0
POINT
  5
113
330
10B
100
AcDbEntity
  8
DEFPOINTS
 62
     0
100
AcDbPoint
 10
15161.02489194989
 20
-2199.568203745393
 30
0.0
  0
POINT
  5
114
330
10B
100
AcDbEntity
  8
DEFPOINTS
 62
     0
100
AcDbPoint
 10
15161.02489194989
 20
-2171.438555798577
 30
0.0
  0
ENDBLK
  5
116
330
10B
100
AcDbEntity
  8
0
100
AcDbBlockEnd
  0
BLOCK
  5
235
330
22B
100
AcDbEntity
  8
0
100
AcDbBlockBegin
  2
*D23
 70
     1
 10
0.0
 20
0.0
 30
0.0
  3
*D23
  1

  0
LINE
  5
22C
330
22B
100
AcDbEntity
  8
0
 62
   123
100
AcDbLine
 10
15161.02489194989
 20
-2198.568203745393
 30
0.0
 11
15161.02489194989
 21
-2170.838555798577
 31
0.0
  0
LINE
  5
22D
330
22B
100
AcDbEntity
  8
0
 62
   123
100
AcDbLine
 10
15203.02489194989
 20
-2198.568203745393
 30
0.0
 11
15203.02489194989
 21
-2170.838555798577
 31
0.0
  0
LINE
  5
22E
330
22B
100
AcDbEntity
  8
0
 62
   123
100
AcDbLine
 10
15163.52489194989
 20
-2171.438555798577
 30
0.0
 11
15200.5248919499
 21
-2171.438555798577
 31
0.0
  0
SOLID
  5
22F
330
22B
100
AcDbEntity
  8
0
 62
   123
100
AcDbTrace
 10
15163.52489194989
 20
-2171.02188913191
 30
0.0
 11
15163.52489194989
 21
-2171.855222465242
 31
0.0
 12
15161.02489194989
 22
-2171.438555798577
 32
0.0
 13
15161.02489194989
 23
-2171.438555798577
 33
0.0
  0
SOLID
  5
230
330
22B
100
AcDbEntity
  8
0
 62
   123
100
AcDbTrace
 10
15200.5248919499
 20
-2171.02188913191
 30
0.0
 11
15200.5248919499
 21
-2171.855222465242
 31
0.0
 12
15203.02489194989
 22
-2171.438555798577
 32
0.0
 13
15203.02489194989
 23
-2171.438555798577
 33
0.0
  0
MTEXT
  5
231
330
22B
100
AcDbEntity
  8
0
 62
     3
100
AcDbMText
 10
15181.02489194989
 20
-2168.938555798577
 30
0.0
 40
3.0
 41
0.0
 71
     5
 72
     1
  1
\A1;{\f??|b0|i0|c0|p49;L}
1001
ACAD
1000
MTEXTBEGIN
1070
    73
1070
     1
1070
    44
1040
1.0
1070
    74
1070
     0
1000
MTEXTEND
  0
POINT
  5
232
330
22B
100
AcDbEntity
  8
DEFPOINTS
 62
     0
100
AcDbPoint
 10
15161.02489194989
 20
-2199.568203745393
 30
0.0
  0
POINT
  5
233
330
22B
100
AcDbEntity
  8
DEFPOINTS
 62
     0
100
AcDbPoint
 10
15203.02489194989
 20
-2199.568203745393
 30
0.0
  0
POINT
  5
234
330
22B
100
AcDbEntity
  8
DEFPOINTS
 62
     0
100
AcDbPoint
 10
15203.02489194989
 20
-2171.438555798577
 30
0.0
  0
ENDBLK
  5
236
330
22B
100
AcDbEntity
  8
0
100
AcDbBlockEnd
  0
BLOCK
  5
1C9
330
1BD
100
AcDbEntity
  8
0
100
AcDbBlockBegin
  2
*D24
 70
     1
 10
0.0
 20
0.0
 30
0.0
  3
*D24
  1

  0
LINE
  5
1BE
330
1BD
100
AcDbEntity
  8
0
 62
   123
100
AcDbLine
 10
15110.42440113283
 20
-2115.147322484931
 30
0.0
 11
15110.42440113283
 21
-2106.788309939957
 31
0.0
  0
LINE
  5
1BF
330
1BD
100
AcDbEntity
  8
0
 62
   123
100
AcDbLine
 10
15114.42440113283
 20
-2115.147322484931
 30
0.0
 11
15114.42440113283
 21
-2106.788309939957
 31
0.0
  0
LINE
  5
1C0
330
1BD
100
AcDbEntity
  8
0
 62
   123
100
AcDbLine
 10
15107.92440113283
 20
-2107.388309939957
 30
0.0
 11
15105.42440113282
 21
-2107.388309939957
 31
0.0
  0
LINE
  5
1C1
330
1BD
100
AcDbEntity
  8
0
 62
   123
100
AcDbLine
 10
15116.92440113283
 20
-2107.388309939957
 30
0.0
 11
15119.42440113283
 21
-2107.388309939957
 31
0.0
  0
LINE
  5
1C2
330
1BD
100
AcDbEntity
  8
0
 62
   123
100
AcDbLine
 10
15110.42440113283
 20
-2107.388309939957
 30
0.0
 11
15114.42440113283
 21
-2107.388309939957
 31
0.0
  0
SOLID
  5
1C3
330
1BD
100
AcDbEntity
  8
0
 62
   123
100
AcDbTrace
 10
15107.92440113283
 20
-2106.971643273289
 30
0.0
 11
15107.92440113283
 21
-2107.804976606624
 31
0.0
 12
15110.42440113283
 22
-2107.388309939957
 32
0.0
 13
15110.42440113283
 23
-2107.388309939957
 33
0.0
  0
SOLID
  5
1C4
330
1BD
100
AcDbEntity
  8
0
 62
   123
100
AcDbTrace
 10
15116.92440113283
 20
-2106.971643273289
 30
0.0
 11
15116.92440113283
 21
-2107.804976606624
 31
0.0
 12
15114.42440113283
 22
-2107.388309939957
 32
0.0
 13
15114.42440113283
 23
-2107.388309939957
 33
0.0
  0
MTEXT
  5
1C5
330
1BD
100
AcDbEntity
  8
0
 62
     3
100
AcDbMText
 10
15112.42440113283
 20
-2103.938309939957
 30
0.0
 40
3.0
 41
0.0
 71
     5
 72
     1
  1
\A1;\A1;4{\f??|b0|i0|c0|p49;\H0.7x;\S+0.40^ -0;}
1001
ACAD
1000
MTEXTBEGIN
1070
    73
1070
     1
1070
    44
1040
1.0
1070
    74
1070
     0
1000
MTEXTEND
  0
POINT
  5
1C6
330
1BD
100
AcDbEntity
  8
DEFPOINTS
 62
     0
100
AcDbPoint
 10
15110.42440113283
 20
-2116.147322484932
 30
0.0
  0
POINT
  5
1C7
330
1BD
100
AcDbEntity
  8
DEFPOINTS
 62
     0
100
AcDbPoint
 10
15114.42440113283
 20
-2116.147322484932
 30
0.0
  0
POINT
  5
1C8
330
1BD
100
AcDbEntity
  8
DEFPOINTS
 62
     0
100
AcDbPoint
 10
15114.42440113283
 20
-2107.388309939957
 30
0.0
  0
ENDBLK
  5
1CA
330
1BD
100
AcDbEntity
  8
0
100
AcDbBlockEnd
  0
BLOCK
  5
1DD
330
1D3
100
AcDbEntity
  8
0
100
AcDbBlockBegin
  2
*D25
 70
     1
 10
0.0
 20
0.0
 30
0.0
  3
*D25
  1

  0
LINE
  5
1D4
330
1D3
100
AcDbEntity
  8
0
 62
   123
100
AcDbLine
 10
15023.32036810557
 20
-2118.129602892892
 30
0.0
 11
15023.32036810557
 21
-2108.724408912416
 31
0.0
  0
LINE
  5
1D5
330
1D3
100
AcDbEntity
  8
0
 62
   123
100
AcDbLine
 10
15048.32036810556
 20
-2116.129602892891
 30
0.0
 11
15048.32036810556
 21
-2108.724408912416
 31
0.0
  0
LINE
  5
1D6
330
1D3
100
AcDbEntity
  8
0
 62
   123
100
AcDbLine
 10
15025.82036810556
 20
-2109.324408912415
 30
0.0
 11
15045.82036810556
 21
-2109.324408912415
 31
0.0
  0
SOLID
  5
1D7
330
1D3
100
AcDbEntity
  8
0
 62
   123
100
AcDbTrace
 10
15025.82036810556
 20
-2108.90774224575
 30
0.0
 11
15025.82036810556
 21
-2109.741075579083
 31
0.0
 12
15023.32036810557
 22
-2109.324408912415
 32
0.0
 13
15023.32036810557
 23
-2109.324408912415
 33
0.0
  0
SOLID
  5
1D8
330
1D3
100
AcDbEntity
  8
0
 62
   123
100
AcDbTrace
 10
15045.82036810556
 20
-2108.90774224575
 30
0.0
 11
15045.82036810556
 21
-2109.741075579083
 31
0.0
 12
15048.32036810556
 22
-2109.324408912415
 32
0.0
 13
15048.32036810556
 23
-2109.324408912415
 33
0.0
  0
MTEXT
  5
1D9
330
1D3
100
AcDbEntity
  8
0
 62
     3
100
AcDbMText
 10
15035.82036810557
 20
-2106.824408912415
 30
0.0
 40
3.0
 41
0.0
 71
     5
 72
     1
  1
\A1;25{\f??|b0|i0|c0|p49;%%p0.2}
1001
ACAD
1000
MTEXTBEGIN
1070
    73
1070
     1
1070
    44
1040
1.0
1070
    74
1070
     0
1000
MTEXTEND
  0
POINT
  5
1DA
330
1D3
100
AcDbEntity
  8
DEFPOINTS
 62
     0
100
AcDbPoint
 10
15023.32036810557
 20
-2119.129602892891
 30
0.0
  0
POINT
  5
1DB
330
1D3
100
AcDbEntity
  8
DEFPOINTS
 62
     0
100
AcDbPoint
 10
15048.32036810556
 20
-2117.12960289289
 30
0.0
  0
POINT
  5
1DC
330
1D3
100
AcDbEntity
  8
DEFPOINTS
 62
     0
100
AcDbPoint
 10
15048.32036810556
 20
-2109.324408912415
 30
0.0
  0
ENDBLK
  5
1DE
330
1D3
100
AcDbEntity
  8
0
100
AcDbBlockEnd
  0
BLOCK
  5
1F4
330
1E8
100
AcDbEntity
  8
0
100
AcDbBlockBegin
  2
*D26
 70
     1
 10
0.0
 20
0.0
 30
0.0
  3
*D26
  1

  0
LINE
  5
1E9
330
1E8
100
AcDbEntity
  8
0
 62
   123
100
AcDbLine
 10
15065.49102139228
 20
-2116.129602892891
 30
0.0
 11
15065.49102139228
 21
-2107.855127234258
 31
0.0
  0
LINE
  5
1EA
330
1E8
100
AcDbEntity
  8
0
 62
   123
100
AcDbLine
 10
15069.49102139228
 20
-2116.129602892891
 30
0.0
 11
15069.49102139228
 21
-2107.855127234258
 31
0.0
  0
LINE
  5
1EB
330
1E8
100
AcDbEntity
  8
0
 62
   123
100
AcDbLine
 10
15062.99102139228
 20
-2108.455127234259
 30
0.0
 11
15060.49102139227
 21
-2108.455127234259
 31
0.0
  0
LINE
  5
1EC
330
1E8
100
AcDbEntity
  8
0
 62
   123
100
AcDbLine
 10
15071.99102139227
 20
-2108.455127234259
 30
0.0
 11
15074.49102139228
 21
-2108.455127234259
 31
0.0
  0
LINE
  5
1ED
330
1E8
100
AcDbEntity
  8
0
 62
   123
100
AcDbLine
 10
15065.49102139228
 20
-2108.455127234259
 30
0.0
 11
15069.49102139228
 21
-2108.455127234259
 31
0.0
  0
SOLID
  5
1EE
330
1E8
100
AcDbEntity
  8
0
 62
   123
100
AcDbTrace
 10
15062.99102139228
 20
-2108.038460567593
 30
0.0
 11
15062.99102139228
 21
-2108.871793900925
 31
0.0
 12
15065.49102139228
 22
-2108.455127234259
 32
0.0
 13
15065.49102139228
 23
-2108.455127234259
 33
0.0
  0
SOLID
  5
1EF
330
1E8
100
AcDbEntity
  8
0
 62
   123
100
AcDbTrace
 10
15071.99102139227
 20
-2108.038460567593
 30
0.0
 11
15071.99102139227
 21
-2108.871793900925
 31
0.0
 12
15069.49102139228
 22
-2108.455127234259
 32
0.0
 13
15069.49102139228
 23
-2108.455127234259
 33
0.0
  0
MTEXT
  5
1F0
330
1E8
100
AcDbEntity
  8
0
 62
     3
100
AcDbMText
 10
15067.49102139228
 20
-2105.00512723426
 30
0.0
 40
3.0
 41
0.0
 71
     5
 72
     1
  1
\A1;\A1;4{\f??|b0|i0|c0|p49;\H0.7x;\S+0^ -0.03;}
1001
ACAD
1000
MTEXTBEGIN
1070
    73
1070
     1
1070
    44
1040
1.0
1070
    74
1070
     0
1000
MTEXTEND
  0
POINT
  5
1F1
330
1E8
100
AcDbEntity
  8
DEFPOINTS
 62
     0
100
AcDbPoint
 10
15065.49102139228
 20
-2117.12960289289
 30
0.0
  0
POINT
  5
1F2
330
1E8
100
AcDbEntity
  8
DEFPOINTS
 62
     0
100
AcDbPoint
 10
15069.49102139228
 20
-2117.12960289289
 30
0.0
  0
POINT
  5
1F3
330
1E8
100
AcDbEntity
  8
DEFPOINTS
 62
     0
100
AcDbPoint
 10
15069.49102139228
 20
-2108.455127234259
 30
0.0
  0
ENDBLK
  5
1F5
330
1E8
100
AcDbEntity
  8
0
100
AcDbBlockEnd
  0
BLOCK
  5
2D9
330
2CF
100
AcDbEntity
  8
0
100
AcDbBlockBegin
  2
*D27
 70
     1
 10
0.0
 20
0.0
 30
0.0
  3
*D27
  1

  0
LINE
  5
2D0
330
2CF
100
AcDbEntity
  8
0
 62
   123
100
AcDbLine
 10
15171.26693323138
 20
-1856.879249421561
 30
0.0
 11
15149.06910835436
 21
-1856.879249421561
 31
0.0
  0
LINE
  5
2D1
330
2CF
100
AcDbEntity
  8
0
 62
   123
100
AcDbLine
 10
15171.26693323138
 20
-1920.87924942156
 30
0.0
 11
15149.06910835436
 21
-1920.87924942156
 31
0.0
  0
LINE
  5
2D2
330
2CF
100
AcDbEntity
  8
0
 62
   123
100
AcDbLine
 10
15149.66910835436
 20
-1859.379249421561
 30
0.0
 11
15149.66910835436
 21
-1918.379249421559
 31
0.0
  0
SOLID
  5
2D3
330
2CF
100
AcDbEntity
  8
0
 62
   123
100
AcDbTrace
 10
15149.25244168771
 20
-1859.379249421561
 30
0.0
 11
15150.08577502104
 21
-1859.379249421561
 31
0.0
 12
15149.66910835436
 22
-1856.879249421561
 32
0.0
 13
15149.66910835436
 23
-1856.879249421561
 33
0.0
  0
SOLID
  5
2D4
330
2CF
100
AcDbEntity
  8
0
 62
   123
100
AcDbTrace
 10
15149.25244168771
 20
-1918.379249421559
 30
0.0
 11
15150.08577502104
 21
-1918.379249421559
 31
0.0
 12
15149.66910835436
 22
-1920.87924942156
 32
0.0
 13
15149.66910835436
 23
-1920.87924942156
 33
0.0
  0
MTEXT
  5
2D5
330
2CF
100
AcDbEntity
  8
0
 62
     3
100
AcDbMText
 10
15145.71895835436
 20
-1891.51639051386
 30
0.0
 40
3.0
 41
0.0
 71
     5
 72
     1
  1
\A1;\A1;%%C{\f??|b0|i0|c0|p49;64\H0.7x;\S+0^ -0.030;\H1.429x;(h7)} 
 11
0.0000000000000001
 21
1.0
 31
0.0
1001
ACAD
1000
MTEXTBEGIN
1070
    73
1070
     1
1070
    44
1040
1.0
1070
    74
1070
     0
1000
MTEXTEND
  0
POINT
  5
2D6
330
2CF
100
AcDbEntity
  8
DEFPOINTS
 62
     0
100
AcDbPoint
 10
15172.26693323138
 20
-1856.879249421561
 30
0.0
  0
POINT
  5
2D7
330
2CF
100
AcDbEntity
  8
DEFPOINTS
 62
     0
100
AcDbPoint
 10
15172.26693323138
 20
-1920.87924942156
 30
0.0
  0
POINT
  5
2D8
330
2CF
100
AcDbEntity
  8
DEFPOINTS
 62
     0
100
AcDbPoint
 10
15149.66910835436
 20
-1920.87924942156
 30
0.0
  0
ENDBLK
  5
2DA
330
2CF
100
AcDbEntity
  8
0
100
AcDbBlockEnd
  0
BLOCK
  5
331
330
327
100
AcDbEntity
  8
0
100
AcDbBlockBegin
  2
*D28
 70
     1
 10
0.0
 20
0.0
 30
0.0
  3
*D28
  1

  0
LINE
  5
328
330
327
100
AcDbEntity
  8
0
 62
   123
100
AcDbLine
 10
15203.2469183611
 20
-1993.39468343329
 30
0.0
 11
15203.2469183611
 21
-1977.574395226388
 31
0.0
  0
LINE
  5
329
330
327
100
AcDbEntity
  8
0
 62
   123
100
AcDbLine
 10
15178.2469183611
 20
-1993.39468343329
 30
0.0
 11
15178.2469183611
 21
-1977.574395226388
 31
0.0
  0
LINE
  5
32A
330
327
100
AcDbEntity
  8
0
 62
   123
100
AcDbLine
 10
15200.74691836111
 20
-1978.174395226388
 30
0.0
 11
15180.7469183611
 21
-1978.174395226388
 31
0.0
  0
SOLID
  5
32B
330
327
100
AcDbEntity
  8
0
 62
   123
100
AcDbTrace
 10
15200.74691836111
 20
-1977.757728559721
 30
0.0
 11
15200.74691836111
 21
-1978.591061893055
 31
0.0
 12
15203.2469183611
 22
-1978.174395226388
 32
0.0
 13
15203.2469183611
 23
-1978.174395226388
 33
0.0
  0
SOLID
  5
32C
330
327
100
AcDbEntity
  8
0
 62
   123
100
AcDbTrace
 10
15180.7469183611
 20
-1977.757728559721
 30
0.0
 11
15180.7469183611
 21
-1978.591061893055
 31
0.0
 12
15178.2469183611
 22
-1978.174395226388
 32
0.0
 13
15178.2469183611
 23
-1978.174395226388
 33
0.0
  0
MTEXT
  5
32D
330
327
100
AcDbEntity
  8
0
 62
     3
100
AcDbMText
 10
15191.0578490285
 20
-1975.674395226388
 30
0.0
 40
3.0
 41
0.0
 71
     5
 72
     1
  1
\A1;25
1001
ACAD
1000
MTEXTBEGIN
1070
    73
1070
     1
1070
    44
1040
1.0
1070
    74
1070
     0
1000
MTEXTEND
  0
POINT
  5
32E
330
327
100
AcDbEntity
  8
DEFPOINTS
 62
     0
100
AcDbPoint
 10
15203.2469183611
 20
-1994.39468343329
 30
0.0
  0
POINT
  5
32F
330
327
100
AcDbEntity
  8
DEFPOINTS
 62
     0
100
AcDbPoint
 10
15178.2469183611
 20
-1994.39468343329
 30
0.0
  0
POINT
  5
330
330
327
100
AcDbEntity
  8
DEFPOINTS
 62
     0
100
AcDbPoint
 10
15178.2469183611
 20
-1978.174395226388
 30
0.0
  0
ENDBLK
  5
332
330
327
100
AcDbEntity
  8
0
100
AcDbBlockEnd
  0
BLOCK
  5
371
330
365
100
AcDbEntity
  8
0
100
AcDbBlockBegin
  2
*D29
 70
     1
 10
0.0
 20
0.0
 30
0.0
  3
*D29
  1

  0
LINE
  5
366
330
365
100
AcDbEntity
  8
0
 62
   123
100
AcDbLine
 10
15210.2469183611
 20
-1978.394683433291
 30
0.0
 11
15210.2469183611
 21
-1969.612544730081
 31
0.0
  0
LINE
  5
367
330
365
100
AcDbEntity
  8
0
 62
   123
100
AcDbLine
 10
15207.2469183611
 20
-1983.894683433291
 30
0.0
 11
15207.2469183611
 21
-1969.612544730081
 31
0.0
  0
LINE
  5
368
330
365
100
AcDbEntity
  8
0
 62
   123
100
AcDbLine
 10
15212.7469183611
 20
-1970.21254473008
 30
0.0
 11
15215.2469183611
 21
-1970.21254473008
 31
0.0
  0
LINE
  5
369
330
365
100
AcDbEntity
  8
0
 62
   123
100
AcDbLine
 10
15204.7469183611
 20
-1970.21254473008
 30
0.0
 11
15202.2469183611
 21
-1970.21254473008
 31
0.0
  0
LINE
  5
36A
330
365
100
AcDbEntity
  8
0
 62
   123
100
AcDbLine
 10
15210.2469183611
 20
-1970.21254473008
 30
0.0
 11
15207.2469183611
 21
-1970.21254473008
 31
0.0
  0
SOLID
  5
36B
330
365
100
AcDbEntity
  8
0
 62
   123
100
AcDbTrace
 10
15212.7469183611
 20
-1969.795878063413
 30
0.0
 11
15212.7469183611
 21
-1970.629211396747
 31
0.0
 12
15210.2469183611
 22
-1970.21254473008
 32
0.0
 13
15210.2469183611
 23
-1970.21254473008
 33
0.0
  0
SOLID
  5
36C
330
365
100
AcDbEntity
  8
0
 62
   123
100
AcDbTrace
 10
15204.7469183611
 20
-1969.795878063413
 30
0.0
 11
15204.7469183611
 21
-1970.629211396747
 31
0.0
 12
15207.2469183611
 22
-1970.21254473008
 32
0.0
 13
15207.2469183611
 23
-1970.21254473008
 33
0.0
  0
MTEXT
  5
36D
330
365
100
AcDbEntity
  8
0
 62
     3
100
AcDbMText
 10
15208.7469183611
 20
-1967.712544730081
 30
0.0
 40
3.0
 41
0.0
 71
     5
 72
     1
  1
\A1;3
1001
ACAD
1000
MTEXTBEGIN
1070
    73
1070
     1
1070
    44
1040
1.0
1070
    74
1070
     0
1000
MTEXTEND
  0
POINT
  5
36E
330
365
100
AcDbEntity
  8
DEFPOINTS
 62
     0
100
AcDbPoint
 10
15210.2469183611
 20
-1979.394683433291
 30
0.0
  0
POINT
  5
36F
330
365
100
AcDbEntity
  8
DEFPOINTS
 62
     0
100
AcDbPoint
 10
15207.2469183611
 20
-1984.894683433291
 30
0.0
  0
POINT
  5
370
330
365
100
AcDbEntity
  8
DEFPOINTS
 62
     0
100
AcDbPoint
 10
15207.2469183611
 20
-1970.21254473008
 30
0.0
  0
ENDBLK
  5
372
330
365
100
AcDbEntity
  8
0
100
AcDbBlockEnd
  0
BLOCK
  5
3BA
330
3B0
100
AcDbEntity
  8
0
100
AcDbBlockBegin
  2
*D30
 70
     1
 10
0.0
 20
0.0
 30
0.0
  3
*D30
  1

  0
LINE
  5
3B1
330
3B0
100
AcDbEntity
  8
0
 62
   123
100
AcDbLine
 10
15174.26693323139
 20
-1852.87924942156
 30
0.0
 11
15174.26693323139
 21
-1833.692171597127
 31
0.0
  0
LINE
  5
3B2
330
3B0
100
AcDbEntity
  8
0
 62
   123
100
AcDbLine
 10
15204.26693323138
 20
-1852.87924942156
 30
0.0
 11
15204.26693323138
 21
-1833.692171597127
 31
0.0
  0
LINE
  5
3B3
330
3B0
100
AcDbEntity
  8
0
 62
   123
100
AcDbLine
 10
15176.76693323138
 20
-1834.292171597128
 30
0.0
 11
15201.76693323138
 21
-1834.292171597128
 31
0.0
  0
SOLID
  5
3B4
330
3B0
100
AcDbEntity
  8
0
 62
   123
100
AcDbTrace
 10
15176.76693323138
 20
-1833.875504930461
 30
0.0
 11
15176.76693323138
 21
-1834.708838263795
 31
0.0
 12
15174.26693323139
 22
-1834.292171597128
 32
0.0
 13
15174.26693323139
 23
-1834.292171597128
 33
0.0
  0
SOLID
  5
3B5
330
3B0
100
AcDbEntity
  8
0
 62
   123
100
AcDbTrace
 10
15201.76693323138
 20
-1833.875504930461
 30
0.0
 11
15201.76693323138
 21
-1834.708838263795
 31
0.0
 12
15204.26693323138
 22
-1834.292171597128
 32
0.0
 13
15204.26693323138
 23
-1834.292171597128
 33
0.0
  0
MTEXT
  5
3B6
330
3B0
100
AcDbEntity
  8
0
 62
     3
100
AcDbMText
 10
15189.26693323138
 20
-1831.792171597128
 30
0.0
 40
3.0
 41
0.0
 71
     5
 72
     1
  1
\A1;30
1001
ACAD
1000
MTEXTBEGIN
1070
    73
1070
     1
1070
    44
1040
1.0
1070
    74
1070
     0
1000
MTEXTEND
  0
POINT
  5
3B7
330
3B0
100
AcDbEntity
  8
DEFPOINTS
 62
     0
100
AcDbPoint
 10
15174.26693323139
 20
-1853.879249421559
 30
0.0
  0
POINT
  5
3B8
330
3B0
100
AcDbEntity
  8
DEFPOINTS
 62
     0
100
AcDbPoint
 10
15204.26693323138
 20
-1853.879249421559
 30
0.0
  0
POINT
  5
3B9
330
3B0
100
AcDbEntity
  8
DEFPOINTS
 62
     0
100
AcDbPoint
 10
15204.26693323138
 20
-1834.292171597128
 30
0.0
  0
ENDBLK
  5
3BB
330
3B0
100
AcDbEntity
  8
0
100
AcDbBlockEnd
  0
BLOCK
  5
3CD
330
3C1
100
AcDbEntity
  8
0
100
AcDbBlockBegin
  2
*D31
 70
     1
 10
0.0
 20
0.0
 30
0.0
  3
*D31
  1

  0
LINE
  5
3C2
330
3C1
100
AcDbEntity
  8
0
 62
   123
100
AcDbLine
 10
15172.26693323138
 20
-1855.87924942156
 30
0.0
 11
15172.26693323138
 21
-1843.818380275084
 31
0.0
  0
LINE
  5
3C3
330
3C1
100
AcDbEntity
  8
0
 62
   123
100
AcDbLine
 10
15174.26693323139
 20
-1852.87924942156
 30
0.0
 11
15174.26693323139
 21
-1843.818380275084
 31
0.0
  0
LINE
  5
3C4
330
3C1
100
AcDbEntity
  8
0
 62
   123
100
AcDbLine
 10
15176.76693323138
 20
-1844.418380275083
 30
0.0
 11
15179.26693323139
 21
-1844.418380275083
 31
0.0
  0
LINE
  5
3C5
330
3C1
100
AcDbEntity
  8
0
 62
   123
100
AcDbLine
 10
15169.76693323139
 20
-1844.418380275083
 30
0.0
 11
15163.26693323138
 21
-1844.418380275083
 31
0.0
  0
LINE
  5
3C6
330
3C1
100
AcDbEntity
  8
0
 62
   123
100
AcDbLine
 10
15174.26693323139
 20
-1844.418380275083
 30
0.0
 11
15172.26693323138
 21
-1844.418380275083
 31
0.0
  0
SOLID
  5
3C7
330
3C1
100
AcDbEntity
  8
0
 62
   123
100
AcDbTrace
 10
15176.76693323138
 20
-1844.001713608417
 30
0.0
 11
15176.76693323138
 21
-1844.835046941749
 31
0.0
 12
15174.26693323139
 22
-1844.418380275083
 32
0.0
 13
15174.26693323139
 23
-1844.418380275083
 33
0.0
  0
SOLID
  5
3C8
330
3C1
100
AcDbEntity
  8
0
 62
   123
100
AcDbTrace
 10
15169.76693323139
 20
-1844.001713608417
 30
0.0
 11
15169.76693323139
 21
-1844.835046941749
 31
0.0
 12
15172.26693323138
 22
-1844.418380275083
 32
0.0
 13
15172.26693323138
 23
-1844.418380275083
 33
0.0
  0
MTEXT
  5
3C9
330
3C1
100
AcDbEntity
  8
0
 62
     3
100
AcDbMText
 10
15165.26693323138
 20
-1841.918380275083
 30
0.0
 40
3.0
 41
0.0
 71
     5
 72
     1
  1
\A1;2
1001
ACAD
1000
MTEXTBEGIN
1070
    73
1070
     1
1070
    44
1040
1.0
1070
    74
1070
     0
1000
MTEXTEND
  0
POINT
  5
3CA
330
3C1
100
AcDbEntity
  8
DEFPOINTS
 62
     0
100
AcDbPoint
 10
15172.26693323138
 20
-1856.879249421561
 30
0.0
  0
POINT
  5
3CB
330
3C1
100
AcDbEntity
  8
DEFPOINTS
 62
     0
100
AcDbPoint
 10
15174.26693323139
 20
-1853.879249421559
 30
0.0
  0
POINT
  5
3CC
330
3C1
100
AcDbEntity
  8
DEFPOINTS
 62
     0
100
AcDbPoint
 10
15174.26693323139
 20
-1844.418380275083
 30
0.0
  0
ENDBLK
  5
3CE
330
3C1
100
AcDbEntity
  8
0
100
AcDbBlockEnd
  0
BLOCK
  5
3A8
330
39E
100
AcDbEntity
  8
0
100
AcDbBlockBegin
  2
*D32
 70
     1
 10
0.0
 20
0.0
 30
0.0
  3
*D32
  1

  0
LINE
  5
39F
330
39E
100
AcDbEntity
  8
0
 62
   123
100
AcDbLine
 10
15047.70557122914
 20
-1857.87924942156
 30
0.0
 11
15047.70557122914
 21
-1840.711454295654
 31
0.0
  0
LINE
  5
3A0
330
39E
100
AcDbEntity
  8
0
 62
   123
100
AcDbLine
 10
15117.70557122914
 20
-1857.87924942156
 30
0.0
 11
15117.70557122914
 21
-1840.711454295654
 31
0.0
  0
LINE
  5
3A1
330
39E
100
AcDbEntity
  8
0
 62
   123
100
AcDbLine
 10
15050.20557122914
 20
-1841.311454295653
 30
0.0
 11
15115.20557122913
 21
-1841.311454295653
 31
0.0
  0
SOLID
  5
3A2
330
39E
100
AcDbEntity
  8
0
 62
   123
100
AcDbTrace
 10
15050.20557122914
 20
-1840.894787628988
 30
0.0
 11
15050.20557122914
 21
-1841.72812096232
 31
0.0
 12
15047.70557122914
 22
-1841.311454295653
 32
0.0
 13
15047.70557122914
 23
-1841.311454295653
 33
0.0
  0
SOLID
  5
3A3
330
39E
100
AcDbEntity
  8
0
 62
   123
100
AcDbTrace
 10
15115.20557122913
 20
-1840.894787628988
 30
0.0
 11
15115.20557122913
 21
-1841.72812096232
 31
0.0
 12
15117.70557122914
 22
-1841.311454295653
 32
0.0
 13
15117.70557122914
 23
-1841.311454295653
 33
0.0
  0
MTEXT
  5
3A4
330
39E
100
AcDbEntity
  8
0
 62
     3
100
AcDbMText
 10
15082.70557122914
 20
-1838.811454295654
 30
0.0
 40
3.0
 41
0.0
 71
     5
 72
     1
  1
\A1;70
1001
ACAD
1000
MTEXTBEGIN
1070
    73
1070
     1
1070
    44
1040
1.0
1070
    74
1070
     0
1000
MTEXTEND
  0
POINT
  5
3A5
330
39E
100
AcDbEntity
  8
DEFPOINTS
 62
     0
100
AcDbPoint
 10
15047.70557122914
 20
-1858.879249421559
 30
0.0
  0
POINT
  5
3A6
330
39E
100
AcDbEntity
  8
DEFPOINTS
 62
     0
100
AcDbPoint
 10
15117.70557122914
 20
-1858.879249421559
 30
0.0
  0
POINT
  5
3A7
330
39E
100
AcDbEntity
  8
DEFPOINTS
 62
     0
100
AcDbPoint
 10
15117.70557122914
 20
-1841.311454295653
 30
0.0
  0
ENDBLK
  5
3A9
330
39E
100
AcDbEntity
  8
0
100
AcDbBlockEnd
  0
BLOCK
  5
2F5
330
2EB
100
AcDbEntity
  8
0
100
AcDbBlockBegin
  2
*D33
 70
     1
 10
0.0
 20
0.0
 30
0.0
  3
*D33
  1

  0
LINE
  5
2EC
330
2EB
100
AcDbEntity
  8
0
 62
   123
100
AcDbLine
 10
15173.34877955988
 20
-1999.39468343329
 30
0.0
 11
15154.37467225869
 21
-1999.39468343329
 31
0.0
  0
LINE
  5
2ED
330
2EB
100
AcDbEntity
  8
0
 62
   123
100
AcDbLine
 10
15193.88720011581
 20
-2014.394683433291
 30
0.0
 11
15154.37467225869
 21
-2014.394683433291
 31
0.0
  0
LINE
  5
2EE
330
2EB
100
AcDbEntity
  8
0
 62
   123
100
AcDbLine
 10
15154.97467225869
 20
-2001.894683433291
 30
0.0
 11
15154.97467225869
 21
-2011.894683433291
 31
0.0
  0
SOLID
  5
2EF
330
2EB
100
AcDbEntity
  8
0
 62
   123
100
AcDbTrace
 10
15154.55800559201
 20
-2001.894683433291
 30
0.0
 11
15155.39133892534
 21
-2001.894683433291
 31
0.0
 12
15154.97467225869
 22
-1999.39468343329
 32
0.0
 13
15154.97467225869
 23
-1999.39468343329
 33
0.0
  0
SOLID
  5
2F0
330
2EB
100
AcDbEntity
  8
0
 62
   123
100
AcDbTrace
 10
15154.55800559201
 20
-2011.894683433291
 30
0.0
 11
15155.39133892534
 21
-2011.894683433291
 31
0.0
 12
15154.97467225869
 22
-2014.394683433291
 32
0.0
 13
15154.97467225869
 23
-2014.394683433291
 33
0.0
  0
MTEXT
  5
2F1
330
2EB
100
AcDbEntity
  8
0
 62
     3
100
AcDbMText
 10
15152.47467225869
 20
-2006.894683433288
 30
0.0
 40
3.0
 41
0.0
 71
     5
 72
     1
  1
\A1;15
 11
0.0000000000000001
 21
1.0
 31
0.0
1001
ACAD
1000
MTEXTBEGIN
1070
    73
1070
     1
1070
    44
1040
1.0
1070
    74
1070
     0
1000
MTEXTEND
  0
POINT
  5
2F2
330
2EB
100
AcDbEntity
  8
DEFPOINTS
 62
     0
100
AcDbPoint
 10
15174.34877955988
 20
-1999.39468343329
 30
0.0
  0
POINT
  5
2F3
330
2EB
100
AcDbEntity
  8
DEFPOINTS
 62
     0
100
AcDbPoint
 10
15194.8872001158
 20
-2014.394683433291
 30
0.0
  0
POINT
  5
2F4
330
2EB
100
AcDbEntity
  8
DEFPOINTS
 62
     0
100
AcDbPoint
 10
15154.97467225869
 20
-2014.394683433291
 30
0.0
  0
ENDBLK
  5
2F6
330
2EB
100
AcDbEntity
  8
0
100
AcDbBlockEnd
  0
BLOCK
  5
316
330
30C
100
AcDbEntity
  8
0
100
AcDbBlockBegin
  2
*D34
 70
     1
 10
0.0
 20
0.0
 30
0.0
  3
*D34
  1

  0
LINE
  5
30D
330
30C
100
AcDbEntity
  8
0
 62
   123
100
AcDbLine
 10
15038.45750409675
 20
-2042.007671642612
 30
0.0
 11
15038.45750409675
 21
-2064.456673633833
 31
0.0
  0
LINE
  5
30E
330
30C
100
AcDbEntity
  8
0
 62
   123
100
AcDbLine
 10
15108.45750409675
 20
-2042.007671642612
 30
0.0
 11
15108.45750409675
 21
-2064.456673633833
 31
0.0
  0
LINE
  5
30F
330
30C
100
AcDbEntity
  8
0
 62
   123
100
AcDbLine
 10
15040.95750409675
 20
-2063.856673633833
 30
0.0
 11
15105.95750409675
 21
-2063.856673633833
 31
0.0
  0
SOLID
  5
310
330
30C
100
AcDbEntity
  8
0
 62
   123
100
AcDbTrace
 10
15040.95750409675
 20
-2063.440006967167
 30
0.0
 11
15040.95750409675
 21
-2064.2733403005
 31
0.0
 12
15038.45750409675
 22
-2063.856673633833
 32
0.0
 13
15038.45750409675
 23
-2063.856673633833
 33
0.0
  0
SOLID
  5
311
330
30C
100
AcDbEntity
  8
0
 62
   123
100
AcDbTrace
 10
15105.95750409675
 20
-2063.440006967167
 30
0.0
 11
15105.95750409675
 21
-2064.2733403005
 31
0.0
 12
15108.45750409675
 22
-2063.856673633833
 32
0.0
 13
15108.45750409675
 23
-2063.856673633833
 33
0.0
  0
MTEXT
  5
312
330
30C
100
AcDbEntity
  8
0
 62
     3
100
AcDbMText
 10
15076.79931964595
 20
-2061.356673633834
 30
0.0
 40
3.0
 41
0.0
 71
     5
 72
     1
  1
\A1;70
1001
ACAD
1000
MTEXTBEGIN
1070
    73
1070
     1
1070
    44
1040
1.0
1070
    74
1070
     0
1000
MTEXTEND
  0
POINT
  5
313
330
30C
100
AcDbEntity
  8
DEFPOINTS
 62
     0
100
AcDbPoint
 10
15038.45750409675
 20
-2041.007671642611
 30
0.0
  0
POINT
  5
314
330
30C
100
AcDbEntity
  8
DEFPOINTS
 62
     0
100
AcDbPoint
 10
15108.45750409675
 20
-2041.007671642611
 30
0.0
  0
POINT
  5
315
330
30C
100
AcDbEntity
  8
DEFPOINTS
 62
     0
100
AcDbPoint
 10
15108.45750409675
 20
-2063.856673633833
 30
0.0
  0
ENDBLK
  5
317
330
30C
100
AcDbEntity
  8
0
100
AcDbBlockEnd
  0
BLOCK
  5
35A
330
34E
100
AcDbEntity
  8
0
100
AcDbBlockBegin
  2
*D35
 70
     1
 10
0.0
 20
0.0
 30
0.0
  3
*D35
  1

  0
LINE
  5
34F
330
34E
100
AcDbEntity
  8
0
 62
   123
100
AcDbLine
 10
15177.2469183611
 20
-2004.394683433291
 30
0.0
 11
15162.82225507213
 21
-2004.394683433291
 31
0.0
  0
LINE
  5
350
330
34E
100
AcDbEntity
  8
0
 62
   123
100
AcDbLine
 10
15177.2469183611
 20
-1994.394683433291
 30
0.0
 11
15162.82225507213
 21
-1994.394683433291
 31
0.0
  0
LINE
  5
351
330
34E
100
AcDbEntity
  8
0
 62
   123
100
AcDbLine
 10
15163.42225507213
 20
-2006.894683433289
 30
0.0
 11
15163.42225507213
 21
-2009.394683433291
 31
0.0
  0
LINE
  5
352
330
34E
100
AcDbEntity
  8
0
 62
   123
100
AcDbLine
 10
15163.42225507213
 20
-1991.894683433291
 30
0.0
 11
15163.42225507213
 21
-1953.589904795692
 31
0.0
  0
LINE
  5
353
330
34E
100
AcDbEntity
  8
0
 62
   123
100
AcDbLine
 10
15163.42225507213
 20
-2004.394683433291
 30
0.0
 11
15163.42225507213
 21
-1994.394683433291
 31
0.0
  0
SOLID
  5
354
330
34E
100
AcDbEntity
  8
0
 62
   123
100
AcDbTrace
 10
15163.00558840545
 20
-2006.894683433289
 30
0.0
 11
15163.83892173879
 21
-2006.894683433289
 31
0.0
 12
15163.42225507213
 22
-2004.394683433291
 32
0.0
 13
15163.42225507213
 23
-2004.394683433291
 33
0.0
  0
SOLID
  5
355
330
34E
100
AcDbEntity
  8
0
 62
   123
100
AcDbTrace
 10
15163.00558840545
 20
-1991.894683433291
 30
0.0
 11
15163.83892173879
 21
-1991.894683433291
 31
0.0
 12
15163.42225507213
 22
-1994.394683433291
 32
0.0
 13
15163.42225507213
 23
-1994.394683433291
 33
0.0
  0
MTEXT
  5
356
330
34E
100
AcDbEntity
  8
0
 62
     3
100
AcDbMText
 10
15159.47210507213
 20
-1968.405476224261
 30
0.0
 40
3.0
 41
0.0
 71
     5
 72
     1
  1
\A1;\A1;{\f??|b0|i0|c0|p49;%%C10\H0.7x;\S+0^ -0.015;\H1.429x;(h7)}
 11
0.0000000000000001
 21
1.0
 31
0.0
1001
ACAD
1000
MTEXTBEGIN
1070
    73
1070
     1
1070
    44
1040
1.0
1070
    74
1070
     0
1000
MTEXTEND
  0
POINT
  5
357
330
34E
100
AcDbEntity
  8
DEFPOINTS
 62
     0
100
AcDbPoint
 10
15178.2469183611
 20
-2004.394683433291
 30
0.0
  0
POINT
  5
358
330
34E
100
AcDbEntity
  8
DEFPOINTS
 62
     0
100
AcDbPoint
 10
15178.2469183611
 20
-1994.394683433291
 30
0.0
  0
POINT
  5
359
330
34E
100
AcDbEntity
  8
DEFPOINTS
 62
     0
100
AcDbPoint
 10
15163.42225507213
 20
-1994.394683433291
 30
0.0
  0
ENDBLK
  5
35B
330
34E
100
AcDbEntity
  8
0
100
AcDbBlockEnd
  0
BLOCK
  5
38A
330
380
100
AcDbEntity
  8
0
100
AcDbBlockBegin
  2
*D36
 70
     1
 10
0.0
 20
0.0
 30
0.0
  3
*D36
  1

  0
LINE
  5
381
330
380
100
AcDbEntity
  8
0
 62
   123
100
AcDbLine
 10
15252.2469183611
 20
-2050.394683433291
 30
0.0
 11
15252.2469183611
 21
-2063.290697814916
 31
0.0
  0
LINE
  5
382
330
380
100
AcDbEntity
  8
0
 62
   123
100
AcDbLine
 10
15210.2469183611
 20
-2050.394683433291
 30
0.0
 11
15210.2469183611
 21
-2063.290697814916
 31
0.0
  0
LINE
  5
383
330
380
100
AcDbEntity
  8
0
 62
   123
100
AcDbLine
 10
15249.7469183611
 20
-2062.690697814915
 30
0.0
 11
15212.7469183611
 21
-2062.690697814915
 31
0.0
  0
SOLID
  5
384
330
380
100
AcDbEntity
  8
0
 62
   123
100
AcDbTrace
 10
15249.7469183611
 20
-2062.27403114825
 30
0.0
 11
15249.7469183611
 21
-2063.107364481582
 31
0.0
 12
15252.2469183611
 22
-2062.690697814915
 32
0.0
 13
15252.2469183611
 23
-2062.690697814915
 33
0.0
  0
SOLID
  5
385
330
380
100
AcDbEntity
  8
0
 62
   123
100
AcDbTrace
 10
15212.7469183611
 20
-2062.27403114825
 30
0.0
 11
15212.7469183611
 21
-2063.107364481582
 31
0.0
 12
15210.2469183611
 22
-2062.690697814915
 32
0.0
 13
15210.2469183611
 23
-2062.690697814915
 33
0.0
  0
MTEXT
  5
386
330
380
100
AcDbEntity
  8
0
 62
     3
100
AcDbMText
 10
15231.24691836111
 20
-2060.190697814916
 30
0.0
 40
3.0
 41
0.0
 71
     5
 72
     1
  1
\A1;L
1001
ACAD
1000
MTEXTBEGIN
1070
    73
1070
     1
1070
    44
1040
1.0
1070
    74
1070
     0
1000
MTEXTEND
  0
POINT
  5
387
330
380
100
AcDbEntity
  8
DEFPOINTS
 62
     0
100
AcDbPoint
 10
15252.2469183611
 20
-2049.394683433291
 30
0.0
  0
POINT
  5
388
330
380
100
AcDbEntity
  8
DEFPOINTS
 62
     0
100
AcDbPoint
 10
15210.2469183611
 20
-2049.394683433291
 30
0.0
  0
POINT
  5
389
330
380
100
AcDbEntity
  8
DEFPOINTS
 62
     0
100
AcDbPoint
 10
15210.2469183611
 20
-2062.690697814915
 30
0.0
  0
ENDBLK
  5
38B
330
380
100
AcDbEntity
  8
0
100
AcDbBlockEnd
  0
BLOCK
  5
404
330
3F8
100
AcDbEntity
  8
0
100
AcDbBlockBegin
  2
*D37
 70
     1
 10
0.0
 20
0.0
 30
0.0
  3
*D37
  1

  0
LINE
  5
3F9
330
3F8
100
AcDbEntity
  8
0
 62
   123
100
AcDbLine
 10
115.804147094841
 20
86.33830556550492
 30
0.0
 11
130.9014795890176
 21
86.33830556550492
 31
0.0
  0
LINE
  5
3FA
330
3F8
100
AcDbEntity
  8
0
 62
   123
100
AcDbLine
 10
113.804147094841
 20
88.83830556550492
 30
0.0
 11
130.9014795890176
 21
88.83830556550492
 31
0.0
  0
LINE
  5
3FB
330
3F8
100
AcDbEntity
  8
0
 62
   123
100
AcDbLine
 10
130.3014795890176
 20
83.83830556550492
 30
0.0
 11
130.3014795890176
 21
81.33830556550492
 31
0.0
  0
LINE
  5
3FC
330
3F8
100
AcDbEntity
  8
0
 62
   123
100
AcDbLine
 10
130.3014795890176
 20
91.33830556550492
 30
0.0
 11
130.3014795890176
 21
112.7525912797908
 31
0.0
  0
LINE
  5
3FD
330
3F8
100
AcDbEntity
  8
0
 62
   123
100
AcDbLine
 10
130.3014795890176
 20
86.33830556550492
 30
0.0
 11
130.3014795890176
 21
88.83830556550492
 31
0.0
  0
SOLID
  5
3FE
330
3F8
100
AcDbEntity
  8
0
 62
   123
100
AcDbTrace
 10
129.8848129223509
 20
83.83830556550492
 30
0.0
 11
130.7181462556842
 21
83.83830556550492
 31
0.0
 12
130.3014795890176
 22
86.33830556550492
 32
0.0
 13
130.3014795890176
 23
86.33830556550492
 33
0.0
  0
SOLID
  5
3FF
330
3F8
100
AcDbEntity
  8
0
 62
   123
100
AcDbTrace
 10
129.8848129223509
 20
91.33830556550492
 30
0.0
 11
130.7181462556842
 21
91.33830556550492
 31
0.0
 12
130.3014795890176
 22
88.83830556550492
 32
0.0
 13
130.3014795890176
 23
88.83830556550492
 33
0.0
  0
MTEXT
  5
400
330
3F8
100
AcDbEntity
  8
0
 62
     3
100
AcDbMText
 10
126.8514795890176
 20
105.0454484226479
 30
0.0
 40
3.0
 41
0.0
 71
     5
 72
     1
  1
\A1;\A1;2.5{\f??|b0|i0|c0|p49;\H0.7x;\S+0.1^ -0;\H1.429x; }
 11
0.0000000000000001
 21
1.0
 31
0.0
1001
ACAD
1000
MTEXTBEGIN
1070
    73
1070
     1
1070
    44
1040
1.0
1070
    74
1070
     0
1000
MTEXTEND
  0
POINT
  5
401
330
3F8
100
AcDbEntity
  8
DEFPOINTS
 62
     0
100
AcDbPoint
 10
114.804147094841
 20
86.33830556550492
 30
0.0
  0
POINT
  5
402
330
3F8
100
AcDbEntity
  8
DEFPOINTS
 62
     0
100
AcDbPoint
 10
112.804147094841
 20
88.83830556550492
 30
0.0
  0
POINT
  5
403
330
3F8
100
AcDbEntity
  8
DEFPOINTS
 62
     0
100
AcDbPoint
 10
130.3014795890176
 20
88.83830556550492
 30
0.0
  0
ENDBLK
  5
405
330
3F8
100
AcDbEntity
  8
0
100
AcDbBlockEnd
  0
BLOCK
  5
412
330
406
100
AcDbEntity
  8
0
100
AcDbBlockBegin
  2
*D38
 70
     1
 10
0.0
 20
0.0
 30
0.0
  3
*D38
  1

  0
LINE
  5
407
330
406
100
AcDbEntity
  8
0
 62
   123
100
AcDbLine
 10
49.7001140675784
 20
83.43860085250071
 30
0.0
 11
57.46916922303864
 21
83.43860085250071
 31
0.0
  0
LINE
  5
408
330
406
100
AcDbEntity
  8
0
 62
   123
100
AcDbLine
 10
49.7001140675784
 20
87.43860085250208
 30
0.0
 11
57.46916922303864
 21
87.43860085250208
 31
0.0
  0
LINE
  5
409
330
406
100
AcDbEntity
  8
0
 62
   123
100
AcDbLine
 10
56.86916922303864
 20
80.93860085250071
 30
0.0
 11
56.86916922303863
 21
78.43860085250071
 31
0.0
  0
LINE
  5
40A
330
406
100
AcDbEntity
  8
0
 62
   123
100
AcDbLine
 10
56.86916922303864
 20
89.93860085250208
 30
0.0
 11
56.86916922303864
 21
109.0023483608778
 31
0.0
  0
LINE
  5
40B
330
406
100
AcDbEntity
  8
0
 62
   123
100
AcDbLine
 10
56.86916922303864
 20
83.43860085250071
 30
0.0
 11
56.86916922303864
 21
87.43860085250208
 31
0.0
  0
SOLID
  5
40C
330
406
100
AcDbEntity
  8
0
 62
   123
100
AcDbTrace
 10
56.45250255637197
 20
80.93860085250071
 30
0.0
 11
57.2858358897053
 21
80.93860085250071
 31
0.0
 12
56.86916922303864
 22
83.43860085250071
 32
0.0
 13
56.86916922303864
 23
83.43860085250071
 33
0.0
  0
SOLID
  5
40D
330
406
100
AcDbEntity
  8
0
 62
   123
100
AcDbTrace
 10
56.45250255637197
 20
89.93860085250208
 30
0.0
 11
57.2858358897053
 21
89.93860085250208
 31
0.0
 12
56.86916922303864
 22
87.43860085250208
 32
0.0
 13
56.86916922303864
 23
87.43860085250208
 33
0.0
  0
MTEXT
  5
40E
330
406
100
AcDbEntity
  8
0
 62
     3
100
AcDbMText
 10
53.41916922303862
 20
102.2880626465921
 30
0.0
 40
3.0
 41
0.0
 71
     5
 72
     1
  1
\A1;\A1;4{\f??|b0|i0|c0|p49;\H0.7x;\S+0^ -0.03;}
 11
0.0000000000000001
 21
1.0
 31
0.0
1001
ACAD
1000
MTEXTBEGIN
1070
    73
1070
     1
1070
    44
1040
1.0
1070
    74
1070
     0
1000
MTEXTEND
  0
POINT
  5
40F
330
406
100
AcDbEntity
  8
DEFPOINTS
 62
     0
100
AcDbPoint
 10
48.70011406757839
 20
83.43860085250071
 30
0.0
  0
POINT
  5
410
330
406
100
AcDbEntity
  8
DEFPOINTS
 62
     0
100
AcDbPoint
 10
48.70011406757839
 20
87.43860085250208
 30
0.0
  0
POINT
  5
411
330
406
100
AcDbEntity
  8
DEFPOINTS
 62
     0
100
AcDbPoint
 10
56.86916922303864
 20
87.43860085250208
 30
0.0
  0
ENDBLK
  5
413
330
406
100
AcDbEntity
  8
0
100
AcDbBlockEnd
  0
BLOCK
  5
41E
330
414
100
AcDbEntity
  8
0
100
AcDbBlockBegin
  2
*D39
 70
     1
 10
0.0
 20
0.0
 30
0.0
  3
*D39
  1

  0
LINE
  5
415
330
414
100
AcDbEntity
  8
0
 62
   123
100
AcDbLine
 10
203.404637911899
 20
-66.50000000000182
 30
0.0
 11
203.404637911899
 21
-77.43340861205806
 31
0.0
  0
LINE
  5
416
330
414
100
AcDbEntity
  8
0
 62
   123
100
AcDbLine
 10
210.4046379119081
 20
-64.59873734153006
 30
0.0
 11
210.4046379119081
 21
-77.43340861205806
 31
0.0
  0
LINE
  5
417
330
414
100
AcDbEntity
  8
0
 62
   123
100
AcDbLine
 10
205.904637911899
 20
-76.83340861205806
 30
0.0
 11
207.9046379119081
 21
-76.83340861205806
 31
0.0
  0
SOLID
  5
418
330
414
100
AcDbEntity
  8
0
 62
   123
100
AcDbTrace
 10
205.904637911899
 20
-76.41674194539139
 30
0.0
 11
205.904637911899
 21
-77.25007527872474
 31
0.0
 12
203.404637911899
 22
-76.83340861205806
 32
0.0
 13
203.404637911899
 23
-76.83340861205806
 33
0.0
  0
SOLID
  5
419
330
414
100
AcDbEntity
  8
0
 62
   123
100
AcDbTrace
 10
207.9046379119081
 20
-76.41674194539139
 30
0.0
 11
207.9046379119081
 21
-77.25007527872474
 31
0.0
 12
210.4046379119081
 22
-76.83340861205806
 32
0.0
 13
210.4046379119081
 23
-76.83340861205806
 33
0.0
  0
MTEXT
  5
41A
330
414
100
AcDbEntity
  8
0
 62
     3
100
AcDbMText
 10
206.904637911899
 20
-74.33340861205806
 30
0.0
 40
3.0
 41
0.0
 71
     5
 72
     1
  1
\A1;7
1001
ACAD
1000
MTEXTBEGIN
1070
    73
1070
     1
1070
    44
1040
1.0
1070
    74
1070
     0
1000
MTEXTEND
  0
POINT
  5
41B
330
414
100
AcDbEntity
  8
DEFPOINTS
 62
     0
100
AcDbPoint
 10
203.404637911899
 20
-65.50000000000181
 30
0.0
  0
POINT
  5
41C
330
414
100
AcDbEntity
  8
DEFPOINTS
 62
     0
100
AcDbPoint
 10
210.4046379119081
 20
-63.59873734153007
 30
0.0
  0
POINT
  5
41D
330
414
100
AcDbEntity
  8
DEFPOINTS
 62
     0
100
AcDbPoint
 10
210.4046379119081
 20
-76.83340861205806
 30
0.0
  0
ENDBLK
  5
41F
330
414
100
AcDbEntity
  8
0
100
AcDbBlockEnd
  0
BLOCK
  5
42A
330
420
100
AcDbEntity
  8
0
100
AcDbBlockBegin
  2
*D40
 70
     1
 10
0.0
 20
0.0
 30
0.0
  3
*D40
  1

  0
LINE
  5
421
330
420
100
AcDbEntity
  8
0
 62
   123
100
AcDbLine
 10
283.404637911899
 20
-63.0
 30
0.0
 11
283.404637911899
 21
-87.91445900494009
 31
0.0
  0
LINE
  5
422
330
420
100
AcDbEntity
  8
0
 62
   123
100
AcDbLine
 10
203.404637911899
 20
-66.50000000000182
 30
0.0
 11
203.404637911899
 21
-87.91445900494009
 31
0.0
  0
LINE
  5
423
330
420
100
AcDbEntity
  8
0
 62
   123
100
AcDbLine
 10
280.904637911899
 20
-87.31445900494009
 30
0.0
 11
205.904637911899
 21
-87.31445900494009
 31
0.0
  0
SOLID
  5
424
330
420
100
AcDbEntity
  8
0
 62
   123
100
AcDbTrace
 10
280.904637911899
 20
-86.89779233827342
 30
0.0
 11
280.904637911899
 21
-87.73112567160676
 31
0.0
 12
283.404637911899
 22
-87.31445900494009
 32
0.0
 13
283.404637911899
 23
-87.31445900494009
 33
0.0
  0
SOLID
  5
425
330
420
100
AcDbEntity
  8
0
 62
   123
100
AcDbTrace
 10
205.904637911899
 20
-86.89779233827342
 30
0.0
 11
205.904637911899
 21
-87.73112567160676
 31
0.0
 12
203.404637911899
 22
-87.31445900494009
 32
0.0
 13
203.404637911899
 23
-87.31445900494009
 33
0.0
  0
MTEXT
  5
426
330
420
100
AcDbEntity
  8
0
 62
     3
100
AcDbMText
 10
242.4136197459501
 20
-84.81445900494009
 30
0.0
 40
3.0
 41
0.0
 71
     5
 72
     1
  1
\A1;80
1001
ACAD
1000
MTEXTBEGIN
1070
    73
1070
     1
1070
    44
1040
1.0
1070
    74
1070
     0
1000
MTEXTEND
  0
POINT
  5
427
330
420
100
AcDbEntity
  8
DEFPOINTS
 62
     0
100
AcDbPoint
 10
283.404637911899
 20
-62.0
 30
0.0
  0
POINT
  5
428
330
420
100
AcDbEntity
  8
DEFPOINTS
 62
     0
100
AcDbPoint
 10
203.404637911899
 20
-65.50000000000181
 30
0.0
  0
POINT
  5
429
330
420
100
AcDbEntity
  8
DEFPOINTS
 62
     0
100
AcDbPoint
 10
203.404637911899
 20
-87.31445900494009
 30
0.0
  0
ENDBLK
  5
42B
330
420
100
AcDbEntity
  8
0
100
AcDbBlockEnd
  0
BLOCK
  5
436
330
42C
100
AcDbEntity
  8
0
100
AcDbBlockBegin
  2
*D41
 70
     1
 10
0.0
 20
0.0
 30
0.0
  3
*D41
  1

  0
LINE
  5
42D
330
42C
100
AcDbEntity
  8
0
 62
   123
100
AcDbLine
 10
-5.0
 20
-62.0
 30
0.0
 11
-5.0
 21
-80.83680455448083
 31
0.0
  0
LINE
  5
42E
330
42C
100
AcDbEntity
  8
0
 62
   123
100
AcDbLine
 10
65.0
 20
-62.6387559749437
 30
0.0
 11
65.0
 21
-80.83680455448083
 31
0.0
  0
LINE
  5
42F
330
42C
100
AcDbEntity
  8
0
 62
   123
100
AcDbLine
 10
-2.5
 20
-80.23680455448085
 30
0.0
 11
62.5
 21
-80.23680455448085
 31
0.0
  0
SOLID
  5
430
330
42C
100
AcDbEntity
  8
0
 62
   123
100
AcDbTrace
 10
-2.5
 20
-79.82013788781417
 30
0.0
 11
-2.5
 21
-80.65347122114751
 31
0.0
 12
-5.0
 22
-80.23680455448085
 32
0.0
 13
-5.0
 23
-80.23680455448085
 33
0.0
  0
SOLID
  5
431
330
42C
100
AcDbEntity
  8
0
 62
   123
100
AcDbTrace
 10
62.5
 20
-79.82013788781417
 30
0.0
 11
62.5
 21
-80.65347122114751
 31
0.0
 12
65.0
 22
-80.23680455448085
 32
0.0
 13
65.0
 23
-80.23680455448085
 33
0.0
  0
MTEXT
  5
432
330
42C
100
AcDbEntity
  8
0
 62
     3
100
AcDbMText
 10
30.21876060382783
 20
-77.73680455448084
 30
0.0
 40
3.0
 41
0.0
 71
     5
 72
     1
  1
\A1;70
1001
ACAD
1000
MTEXTBEGIN
1070
    73
1070
     1
1070
    44
1040
1.0
1070
    74
1070
     0
1000
MTEXTEND
  0
POINT
  5
433
330
42C
100
AcDbEntity
  8
DEFPOINTS
 62
     0
100
AcDbPoint
 10
-5.0
 20
-61.0
 30
0.0
  0
POINT
  5
434
330
42C
100
AcDbEntity
  8
DEFPOINTS
 62
     0
100
AcDbPoint
 10
65.0
 20
-61.63875597494371
 30
0.0
  0
POINT
  5
435
330
42C
100
AcDbEntity
  8
DEFPOINTS
 62
     0
100
AcDbPoint
 10
65.0
 20
-80.23680455448085
 30
0.0
  0
ENDBLK
  5
437
330
42C
100
AcDbEntity
  8
0
100
AcDbBlockEnd
  0
BLOCK
  5
442
330
438
100
AcDbEntity
  8
0
100
AcDbBlockBegin
  2
*D42
 70
     1
 10
0.0
 20
0.0
 30
0.0
  3
*D42
  1

  0
LINE
  5
439
330
438
100
AcDbEntity
  8
0
 62
   123
100
AcDbLine
 10
158.154637911899
 20
0.0000000000000003
 30
0.0
 11
96.63859198946049
 21
0.0000000000000177
 31
0.0
  0
LINE
  5
43A
330
438
100
AcDbEntity
  8
0
 62
   123
100
AcDbLine
 10
145.0449196665995
 20
-30.0
 30
0.0
 11
96.63859198946049
 21
-29.99999999999998
 31
0.0
  0
LINE
  5
43B
330
438
100
AcDbEntity
  8
0
 62
   123
100
AcDbLine
 10
97.23859198946048
 20
-2.499999999999982
 30
0.0
 11
97.23859198946048
 21
-27.49999999999998
 31
0.0
  0
SOLID
  5
43C
330
438
100
AcDbEntity
  8
0
 62
   123
100
AcDbTrace
 10
96.8219253227938
 20
-2.499999999999982
 30
0.0
 11
97.65525865612715
 21
-2.499999999999982
 31
0.0
 12
97.23859198946048
 22
0.0000000000000175
 32
0.0
 13
97.23859198946048
 23
0.0000000000000175
 33
0.0
  0
SOLID
  5
43D
330
438
100
AcDbEntity
  8
0
 62
   123
100
AcDbTrace
 10
96.8219253227938
 20
-27.49999999999998
 30
0.0
 11
97.65525865612715
 21
-27.49999999999998
 31
0.0
 12
97.23859198946048
 22
-29.99999999999998
 32
0.0
 13
97.23859198946048
 23
-29.99999999999998
 33
0.0
  0
MTEXT
  5
43E
330
438
100
AcDbEntity
  8
0
 62
     3
100
AcDbMText
 10
94.73859198946048
 20
-15.25
 30
0.0
 40
3.0
 41
0.0
 71
     5
 72
     1
  1
\A1;{\f??|b0|i0|c0|p49;%%c}30
 11
0.0000000000000001
 21
1.0
 31
0.0
1001
ACAD
1000
MTEXTBEGIN
1070
    73
1070
     1
1070
    44
1040
1.0
1070
    74
1070
     0
1000
MTEXTEND
  0
POINT
  5
43F
330
438
100
AcDbEntity
  8
DEFPOINTS
 62
     0
100
AcDbPoint
 10
159.154637911899
 20
0.0
 30
0.0
  0
POINT
  5
440
330
438
100
AcDbEntity
  8
DEFPOINTS
 62
     0
100
AcDbPoint
 10
146.0449196665995
 20
-30.0
 30
0.0
  0
POINT
  5
441
330
438
100
AcDbEntity
  8
DEFPOINTS
 62
     0
100
AcDbPoint
 10
97.23859198946048
 20
-29.99999999999998
 30
0.0
  0
ENDBLK
  5
443
330
438
100
AcDbEntity
  8
0
100
AcDbBlockEnd
  0
BLOCK
  5
44E
330
444
100
AcDbEntity
  8
0
100
AcDbBlockBegin
  2
*D43
 70
     1
 10
0.0
 20
0.0
 30
0.0
  3
*D43
  1

  0
LINE
  5
445
330
444
100
AcDbEntity
  8
0
 62
   123
100
AcDbLine
 10
129.404637911899
 20
-9.0
 30
0.0
 11
129.404637911899
 21
33.72964794681602
 31
0.0
  0
LINE
  5
446
330
444
100
AcDbEntity
  8
0
 62
   123
100
AcDbLine
 10
161.404637911899
 20
6.0
 30
0.0
 11
161.404637911899
 21
33.72964794681602
 31
0.0
  0
LINE
  5
447
330
444
100
AcDbEntity
  8
0
 62
   123
100
AcDbLine
 10
131.904637911899
 20
33.12964794681602
 30
0.0
 11
158.904637911899
 21
33.12964794681602
 31
0.0
  0
SOLID
  5
448
330
444
100
AcDbEntity
  8
0
 62
   123
100
AcDbTrace
 10
131.904637911899
 20
33.54631461348268
 30
0.0
 11
131.904637911899
 21
32.71298128014935
 31
0.0
 12
129.404637911899
 22
33.12964794681602
 32
0.0
 13
129.404637911899
 23
33.12964794681602
 33
0.0
  0
SOLID
  5
449
330
444
100
AcDbEntity
  8
0
 62
   123
100
AcDbTrace
 10
158.904637911899
 20
33.54631461348268
 30
0.0
 11
158.904637911899
 21
32.71298128014935
 31
0.0
 12
161.404637911899
 22
33.12964794681602
 32
0.0
 13
161.404637911899
 23
33.12964794681602
 33
0.0
  0
MTEXT
  5
44A
330
444
100
AcDbEntity
  8
0
 62
     3
100
AcDbMText
 10
145.404637911899
 20
35.62964794681602
 30
0.0
 40
3.0
 41
0.0
 71
     5
 72
     1
  1
\A1;32
1001
ACAD
1000
MTEXTBEGIN
1070
    73
1070
     1
1070
    44
1040
1.0
1070
    74
1070
     0
1000
MTEXTEND
  0
POINT
  5
44B
330
444
100
AcDbEntity
  8
DEFPOINTS
 62
     0
100
AcDbPoint
 10
129.404637911899
 20
-10.0
 30
0.0
  0
POINT
  5
44C
330
444
100
AcDbEntity
  8
DEFPOINTS
 62
     0
100
AcDbPoint
 10
161.404637911899
 20
5.0
 30
0.0
  0
POINT
  5
44D
330
444
100
AcDbEntity
  8
DEFPOINTS
 62
     0
100
AcDbPoint
 10
161.404637911899
 20
33.12964794681602
 30
0.0
  0
ENDBLK
  5
44F
330
444
100
AcDbEntity
  8
0
100
AcDbBlockEnd
  0
BLOCK
  5
45C
330
450
100
AcDbEntity
  8
0
100
AcDbBlockBegin
  2
*D44
 70
     1
 10
0.0
 20
0.0
 30
0.0
  3
*D44
  1

  0
LINE
  5
451
330
450
100
AcDbEntity
  8
0
 62
   123
100
AcDbLine
 10
161.404637911899
 20
6.0
 30
0.0
 11
161.404637911899
 21
22.20574275424687
 31
0.0
  0
LINE
  5
452
330
450
100
AcDbEntity
  8
0
 62
   123
100
AcDbLine
 10
158.404637911899
 20
0.5
 30
0.0
 11
158.404637911899
 21
22.20574275424687
 31
0.0
  0
LINE
  5
453
330
450
100
AcDbEntity
  8
0
 62
   123
100
AcDbLine
 10
163.904637911899
 20
21.60574275424687
 30
0.0
 11
166.404637911899
 21
21.60574275424687
 31
0.0
  0
LINE
  5
454
330
450
100
AcDbEntity
  8
0
 62
   123
100
AcDbLine
 10
155.904637911899
 20
21.60574275424687
 30
0.0
 11
153.404637911899
 21
21.60574275424687
 31
0.0
  0
LINE
  5
455
330
450
100
AcDbEntity
  8
0
 62
   123
100
AcDbLine
 10
161.404637911899
 20
21.60574275424687
 30
0.0
 11
158.404637911899
 21
21.60574275424687
 31
0.0
  0
SOLID
  5
456
330
450
100
AcDbEntity
  8
0
 62
   123
100
AcDbTrace
 10
163.904637911899
 20
22.02240942091354
 30
0.0
 11
163.904637911899
 21
21.1890760875802
 31
0.0
 12
161.404637911899
 22
21.60574275424687
 32
0.0
 13
161.404637911899
 23
21.60574275424687
 33
0.0
  0
SOLID
  5
457
330
450
100
AcDbEntity
  8
0
 62
   123
100
AcDbTrace
 10
155.904637911899
 20
22.02240942091354
 30
0.0
 11
155.904637911899
 21
21.1890760875802
 31
0.0
 12
158.404637911899
 22
21.60574275424687
 32
0.0
 13
158.404637911899
 23
21.60574275424687
 33
0.0
  0
MTEXT
  5
458
330
450
100
AcDbEntity
  8
0
 62
     3
100
AcDbMText
 10
159.904637911899
 20
24.10574275424687
 30
0.0
 40
3.0
 41
0.0
 71
     5
 72
     1
  1
\A1;3
1001
ACAD
1000
MTEXTBEGIN
1070
    73
1070
     1
1070
    44
1040
1.0
1070
    74
1070
     0
1000
MTEXTEND
  0
POINT
  5
459
330
450
100
AcDbEntity
  8
DEFPOINTS
 62
     0
100
AcDbPoint
 10
161.404637911899
 20
5.0
 30
0.0
  0
POINT
  5
45A
330
450
100
AcDbEntity
  8
DEFPOINTS
 62
     0
100
AcDbPoint
 10
158.404637911899
 20
-0.5
 30
0.0
  0
POINT
  5
45B
330
450
100
AcDbEntity
  8
DEFPOINTS
 62
     0
100
AcDbPoint
 10
158.404637911899
 20
21.60574275424687
 30
0.0
  0
ENDBLK
  5
45D
330
450
100
AcDbEntity
  8
0
100
AcDbBlockEnd
  0
BLOCK
  5
46A
330
45E
100
AcDbEntity
  8
0
100
AcDbBlockBegin
  2
*D45
 70
     1
 10
0.0
 20
0.0
 30
0.0
  3
*D45
  1

  0
LINE
  5
45F
330
45E
100
AcDbEntity
  8
0
 62
   123
100
AcDbLine
 10
65.87076735428855
 20
88.43860085250208
 30
0.0
 11
65.87076735428855
 21
96.71307651113384
 31
0.0
  0
LINE
  5
460
330
45E
100
AcDbEntity
  8
0
 62
   123
100
AcDbLine
 10
69.87076735428854
 20
88.43860085250208
 30
0.0
 11
69.87076735428854
 21
96.71307651113384
 31
0.0
  0
LINE
  5
461
330
45E
100
AcDbEntity
  8
0
 62
   123
100
AcDbLine
 10
63.37076735428855
 20
96.11307651113385
 30
0.0
 11
60.87076735428855
 21
96.11307651113385
 31
0.0
  0
LINE
  5
462
330
45E
100
AcDbEntity
  8
0
 62
   123
100
AcDbLine
 10
72.37076735428854
 20
96.11307651113385
 30
0.0
 11
74.87076735428854
 21
96.11307651113385
 31
0.0
  0
LINE
  5
463
330
45E
100
AcDbEntity
  8
0
 62
   123
100
AcDbLine
 10
65.87076735428855
 20
96.11307651113385
 30
0.0
 11
69.87076735428854
 21
96.11307651113385
 31
0.0
  0
SOLID
  5
464
330
45E
100
AcDbEntity
  8
0
 62
   123
100
AcDbTrace
 10
63.37076735428855
 20
96.52974317780051
 30
0.0
 11
63.37076735428855
 21
95.69640984446717
 31
0.0
 12
65.87076735428855
 22
96.11307651113385
 32
0.0
 13
65.87076735428855
 23
96.11307651113385
 33
0.0
  0
SOLID
  5
465
330
45E
100
AcDbEntity
  8
0
 62
   123
100
AcDbTrace
 10
72.37076735428854
 20
96.52974317780051
 30
0.0
 11
72.37076735428854
 21
95.69640984446717
 31
0.0
 12
69.87076735428854
 22
96.11307651113385
 32
0.0
 13
69.87076735428854
 23
96.11307651113385
 33
0.0
  0
MTEXT
  5
466
330
45E
100
AcDbEntity
  8
0
 62
     3
100
AcDbMText
 10
67.87076735428854
 20
99.56307651113384
 30
0.0
 40
3.0
 41
0.0
 71
     5
 72
     1
  1
\A1;\A1;4{\f??|b0|i0|c0|p49;\H0.7x;\S+0^ -0.03;}
1001
ACAD
1000
MTEXTBEGIN
1070
    73
1070
     1
1070
    44
1040
1.0
1070
    74
1070
     0
1000
MTEXTEND
  0
POINT
  5
467
330
45E
100
AcDbEntity
  8
DEFPOINTS
 62
     0
100
AcDbPoint
 10
65.87076735428855
 20
87.43860085250208
 30
0.0
  0
POINT
  5
468
330
45E
100
AcDbEntity
  8
DEFPOINTS
 62
     0
100
AcDbPoint
 10
69.87076735428854
 20
87.43860085250208
 30
0.0
  0
POINT
  5
469
330
45E
100
AcDbEntity
  8
DEFPOINTS
 62
     0
100
AcDbPoint
 10
69.87076735428854
 20
96.11307651113385
 30
0.0
  0
ENDBLK
  5
46B
330
45E
100
AcDbEntity
  8
0
100
AcDbBlockEnd
  0
BLOCK
  5
476
330
46C
100
AcDbEntity
  8
0
100
AcDbBlockBegin
  2
*D46
 70
     1
 10
0.0
 20
0.0
 30
0.0
  3
*D46
  1

  0
LINE
  5
46D
330
46C
100
AcDbEntity
  8
0
 62
   123
100
AcDbLine
 10
23.70011406757839
 20
86.43860085250208
 30
0.0
 11
23.70011406757839
 21
95.84379483297707
 31
0.0
  0
LINE
  5
46E
330
46C
100
AcDbEntity
  8
0
 62
   123
100
AcDbLine
 10
48.70011406757839
 20
88.43860085250208
 30
0.0
 11
48.70011406757839
 21
95.84379483297707
 31
0.0
  0
LINE
  5
46F
330
46C
100
AcDbEntity
  8
0
 62
   123
100
AcDbLine
 10
26.20011406757839
 20
95.24379483297707
 30
0.0
 11
46.20011406757839
 21
95.24379483297707
 31
0.0
  0
SOLID
  5
470
330
46C
100
AcDbEntity
  8
0
 62
   123
100
AcDbTrace
 10
26.20011406757839
 20
95.66046149964375
 30
0.0
 11
26.20011406757839
 21
94.82712816631041
 31
0.0
 12
23.70011406757839
 22
95.24379483297707
 32
0.0
 13
23.70011406757839
 23
95.24379483297707
 33
0.0
  0
SOLID
  5
471
330
46C
100
AcDbEntity
  8
0
 62
   123
100
AcDbTrace
 10
46.20011406757839
 20
95.66046149964375
 30
0.0
 11
46.20011406757839
 21
94.82712816631041
 31
0.0
 12
48.70011406757839
 22
95.24379483297707
 32
0.0
 13
48.70011406757839
 23
95.24379483297707
 33
0.0
  0
MTEXT
  5
472
330
46C
100
AcDbEntity
  8
0
 62
     3
100
AcDbMText
 10
36.20011406757839
 20
97.74379483297707
 30
0.0
 40
3.0
 41
0.0
 71
     5
 72
     1
  1
\A1;25{\f??|b0|i0|c0|p49;%%p0.2}
1001
ACAD
1000
MTEXTBEGIN
1070
    73
1070
     1
1070
    44
1040
1.0
1070
    74
1070
     0
1000
MTEXTEND
  0
POINT
  5
473
330
46C
100
AcDbEntity
  8
DEFPOINTS
 62
     0
100
AcDbPoint
 10
23.70011406757839
 20
85.43860085250207
 30
0.0
  0
POINT
  5
474
330
46C
100
AcDbEntity
  8
DEFPOINTS
 62
     0
100
AcDbPoint
 10
48.70011406757839
 20
87.43860085250208
 30
0.0
  0
POINT
  5
475
330
46C
100
AcDbEntity
  8
DEFPOINTS
 62
     0
100
AcDbPoint
 10
48.70011406757839
 20
95.24379483297707
 30
0.0
  0
ENDBLK
  5
477
330
46C
100
AcDbEntity
  8
0
100
AcDbBlockEnd
  0
BLOCK
  5
484
330
478
100
AcDbEntity
  8
0
100
AcDbBlockBegin
  2
*D47
 70
     1
 10
0.0
 20
0.0
 30
0.0
  3
*D47
  1

  0
LINE
  5
479
330
478
100
AcDbEntity
  8
0
 62
   123
100
AcDbLine
 10
110.804147094841
 20
89.4208812604611
 30
0.0
 11
110.804147094841
 21
97.77989380543623
 31
0.0
  0
LINE
  5
47A
330
478
100
AcDbEntity
  8
0
 62
   123
100
AcDbLine
 10
114.804147094841
 20
89.4208812604611
 30
0.0
 11
114.804147094841
 21
97.77989380543623
 31
0.0
  0
LINE
  5
47B
330
478
100
AcDbEntity
  8
0
 62
   123
100
AcDbLine
 10
108.304147094841
 20
97.17989380543622
 30
0.0
 11
105.804147094841
 21
97.17989380543622
 31
0.0
  0
LINE
  5
47C
330
478
100
AcDbEntity
  8
0
 62
   123
100
AcDbLine
 10
117.304147094841
 20
97.17989380543622
 30
0.0
 11
119.804147094841
 21
97.17989380543622
 31
0.0
  0
LINE
  5
47D
330
478
100
AcDbEntity
  8
0
 62
   123
100
AcDbLine
 10
110.804147094841
 20
97.17989380543622
 30
0.0
 11
114.804147094841
 21
97.17989380543622
 31
0.0
  0
SOLID
  5
47E
330
478
100
AcDbEntity
  8
0
 62
   123
100
AcDbTrace
 10
108.304147094841
 20
97.5965604721029
 30
0.0
 11
108.304147094841
 21
96.76322713876956
 31
0.0
 12
110.804147094841
 22
97.17989380543622
 32
0.0
 13
110.804147094841
 23
97.17989380543622
 33
0.0
  0
SOLID
  5
47F
330
478
100
AcDbEntity
  8
0
 62
   123
100
AcDbTrace
 10
117.304147094841
 20
97.5965604721029
 30
0.0
 11
117.304147094841
 21
96.76322713876956
 31
0.0
 12
114.804147094841
 22
97.17989380543622
 32
0.0
 13
114.804147094841
 23
97.17989380543622
 33
0.0
  0
MTEXT
  5
480
330
478
100
AcDbEntity
  8
0
 62
     3
100
AcDbMText
 10
112.804147094841
 20
100.6298938054362
 30
0.0
 40
3.0
 41
0.0
 71
     5
 72
     1
  1
\A1;\A1;4{\f??|b0|i0|c0|p49;\H0.7x;\S+0.40^ -0;}
1001
ACAD
1000
MTEXTBEGIN
1070
    73
1070
     1
1070
    44
1040
1.0
1070
    74
1070
     0
1000
MTEXTEND
  0
POINT
  5
481
330
478
100
AcDbEntity
  8
DEFPOINTS
 62
     0
100
AcDbPoint
 10
110.804147094841
 20
88.4208812604611
 30
0.0
  0
POINT
  5
482
330
478
100
AcDbEntity
  8
DEFPOINTS
 62
     0
100
AcDbPoint
 10
114.804147094841
 20
88.4208812604611
 30
0.0
  0
POINT
  5
483
330
478
100
AcDbEntity
  8
DEFPOINTS
 62
     0
100
AcDbPoint
 10
114.804147094841
 20
97.17989380543622
 30
0.0
  0
ENDBLK
  5
485
330
478
100
AcDbEntity
  8
0
100
AcDbBlockEnd
  0
BLOCK
  5
492
330
486
100
AcDbEntity
  8
0
100
AcDbBlockBegin
  2
*D48
 70
     1
 10
0.0
 20
0.0
 30
0.0
  3
*D48
  1

  0
LINE
  5
487
330
486
100
AcDbEntity
  8
0
 62
   123
100
AcDbLine
 10
128.404637911899
 20
-20.0
 30
0.0
 11
113.9799746229277
 21
-19.99999999999999
 31
0.0
  0
LINE
  5
488
330
486
100
AcDbEntity
  8
0
 62
   123
100
AcDbLine
 10
128.404637911899
 20
-10.0
 30
0.0
 11
113.9799746229277
 21
-9.999999999999994
 31
0.0
  0
LINE
  5
489
330
486
100
AcDbEntity
  8
0
 62
   123
100
AcDbLine
 10
114.5799746229277
 20
-22.49999999999999
 30
0.0
 11
114.5799746229277
 21
-25.0
 31
0.0
  0
LINE
  5
48A
330
486
100
AcDbEntity
  8
0
 62
   123
100
AcDbLine
 10
114.5799746229277
 20
-7.499999999999995
 30
0.0
 11
114.5799746229277
 21
30.82804251316715
 31
0.0
  0
LINE
  5
48B
330
486
100
AcDbEntity
  8
0
 62
   123
100
AcDbLine
 10
114.5799746229277
 20
-19.99999999999999
 30
0.0
 11
114.5799746229277
 21
-9.999999999999994
 31
0.0
  0
SOLID
  5
48C
330
486
100
AcDbEntity
  8
0
 62
   123
100
AcDbTrace
 10
114.163307956261
 20
-22.49999999999999
 30
0.0
 11
114.9966412895943
 21
-22.49999999999999
 31
0.0
 12
114.5799746229277
 22
-19.99999999999999
 32
0.0
 13
114.5799746229277
 23
-19.99999999999999
 33
0.0
  0
SOLID
  5
48D
330
486
100
AcDbEntity
  8
0
 62
   123
100
AcDbTrace
 10
114.163307956261
 20
-7.499999999999995
 30
0.0
 11
114.9966412895943
 21
-7.499999999999995
 31
0.0
 12
114.5799746229277
 22
-9.999999999999994
 32
0.0
 13
114.5799746229277
 23
-9.999999999999994
 33
0.0
  0
MTEXT
  5
48E
330
486
100
AcDbEntity
  8
0
 62
     3
100
AcDbMText
 10
110.6298246229276
 20
16.01247108459574
 30
0.0
 40
3.0
 41
0.0
 71
     5
 72
     1
  1
\A1;\A1;{\f??|b0|i0|c0|p49;%%C10\H0.7x;\S+0^ -0.015;\H1.429x;(h7)}
 11
0.0000000000000001
 21
1.0
 31
0.0
1001
ACAD
1000
MTEXTBEGIN
1070
    73
1070
     1
1070
    44
1040
1.0
1070
    74
1070
     0
1000
MTEXTEND
  0
POINT
  5
48F
330
486
100
AcDbEntity
  8
DEFPOINTS
 62
     0
100
AcDbPoint
 10
129.404637911899
 20
-20.0
 30
0.0
  0
POINT
  5
490
330
486
100
AcDbEntity
  8
DEFPOINTS
 62
     0
100
AcDbPoint
 10
129.404637911899
 20
-10.0
 30
0.0
  0
POINT
  5
491
330
486
100
AcDbEntity
  8
DEFPOINTS
 62
     0
100
AcDbPoint
 10
114.5799746229277
 20
-9.999999999999994
 30
0.0
  0
ENDBLK
  5
493
330
486
100
AcDbEntity
  8
0
100
AcDbBlockEnd
  0
BLOCK
  5
49E
330
494
100
AcDbEntity
  8
0
100
AcDbBlockBegin
  2
*D49
 70
     1
 10
0.0
 20
0.0
 30
0.0
  3
*D49
  1

  0
LINE
  5
495
330
494
100
AcDbEntity
  8
0
 62
   123
100
AcDbLine
 10
124.5064991106792
 20
-15.0
 30
0.0
 11
105.5323918094895
 21
-14.99999999999999
 31
0.0
  0
LINE
  5
496
330
494
100
AcDbEntity
  8
0
 62
   123
100
AcDbLine
 10
144.0449196665995
 20
-30.0
 30
0.0
 11
105.5323918094895
 21
-29.99999999999999
 31
0.0
  0
LINE
  5
497
330
494
100
AcDbEntity
  8
0
 62
   123
100
AcDbLine
 10
106.1323918094895
 20
-17.49999999999999
 30
0.0
 11
106.1323918094895
 21
-27.49999999999999
 31
0.0
  0
SOLID
  5
498
330
494
100
AcDbEntity
  8
0
 62
   123
100
AcDbTrace
 10
105.7157251428228
 20
-17.49999999999999
 30
0.0
 11
106.5490584761561
 21
-17.49999999999999
 31
0.0
 12
106.1323918094895
 22
-14.99999999999999
 32
0.0
 13
106.1323918094895
 23
-14.99999999999999
 33
0.0
  0
SOLID
  5
499
330
494
100
AcDbEntity
  8
0
 62
   123
100
AcDbTrace
 10
105.7157251428228
 20
-27.49999999999999
 30
0.0
 11
106.5490584761561
 21
-27.49999999999999
 31
0.0
 12
106.1323918094895
 22
-29.99999999999999
 32
0.0
 13
106.1323918094895
 23
-29.99999999999999
 33
0.0
  0
MTEXT
  5
49A
330
494
100
AcDbEntity
  8
0
 62
     3
100
AcDbMText
 10
103.6323918094894
 20
-22.49999999999997
 30
0.0
 40
3.0
 41
0.0
 71
     5
 72
     1
  1
\A1;15
 11
0.0000000000000001
 21
1.0
 31
0.0
1001
ACAD
1000
MTEXTBEGIN
1070
    73
1070
     1
1070
    44
1040
1.0
1070
    74
1070
     0
1000
MTEXTEND
  0
POINT
  5
49B
330
494
100
AcDbEntity
  8
DEFPOINTS
 62
     0
100
AcDbPoint
 10
125.5064991106792
 20
-15.0
 30
0.0
  0
POINT
  5
49C
330
494
100
AcDbEntity
  8
DEFPOINTS
 62
     0
100
AcDbPoint
 10
145.0449196665995
 20
-30.0
 30
0.0
  0
POINT
  5
49D
330
494
100
AcDbEntity
  8
DEFPOINTS
 62
     0
100
AcDbPoint
 10
106.1323918094895
 20
-29.99999999999999
 30
0.0
  0
ENDBLK
  5
49F
330
494
100
AcDbEntity
  8
0
100
AcDbBlockEnd
  0
BLOCK
  5
4AA
330
4A0
100
AcDbEntity
  8
0
100
AcDbBlockBegin
  2
*D50
 70
     1
 10
0.0
 20
0.0
 30
0.0
  3
*D50
  1

  0
LINE
  5
4A1
330
4A0
100
AcDbEntity
  8
0
 62
   123
100
AcDbLine
 10
154.4046379119081
 20
-9.0
 30
0.0
 11
154.4046379119081
 21
6.820288206903207
 31
0.0
  0
LINE
  5
4A2
330
4A0
100
AcDbEntity
  8
0
 62
   123
100
AcDbLine
 10
129.404637911899
 20
-9.0
 30
0.0
 11
129.404637911899
 21
6.820288206903207
 31
0.0
  0
LINE
  5
4A3
330
4A0
100
AcDbEntity
  8
0
 62
   123
100
AcDbLine
 10
151.9046379119081
 20
6.220288206903205
 30
0.0
 11
131.904637911899
 21
6.220288206903205
 31
0.0
  0
SOLID
  5
4A4
330
4A0
100
AcDbEntity
  8
0
 62
   123
100
AcDbTrace
 10
151.9046379119081
 20
6.636954873569872
 30
0.0
 11
151.9046379119081
 21
5.803621540236538
 31
0.0
 12
154.4046379119081
 22
6.220288206903205
 32
0.0
 13
154.4046379119081
 23
6.220288206903205
 33
0.0
  0
SOLID
  5
4A5
330
4A0
100
AcDbEntity
  8
0
 62
   123
100
AcDbTrace
 10
131.904637911899
 20
6.636954873569872
 30
0.0
 11
131.904637911899
 21
5.803621540236538
 31
0.0
 12
129.404637911899
 22
6.220288206903205
 32
0.0
 13
129.404637911899
 23
6.220288206903205
 33
0.0
  0
MTEXT
  5
4A6
330
4A0
100
AcDbEntity
  8
0
 62
     3
100
AcDbMText
 10
142.2155685792986
 20
8.720288206903205
 30
0.0
 40
3.0
 41
0.0
 71
     5
 72
     1
  1
\A1;25
1001
ACAD
1000
MTEXTBEGIN
1070
    73
1070
     1
1070
    44
1040
1.0
1070
    74
1070
     0
1000
MTEXTEND
  0
POINT
  5
4A7
330
4A0
100
AcDbEntity
  8
DEFPOINTS
 62
     0
100
AcDbPoint
 10
154.4046379119081
 20
-10.0
 30
0.0
  0
POINT
  5
4A8
330
4A0
100
AcDbEntity
  8
DEFPOINTS
 62
     0
100
AcDbPoint
 10
129.404637911899
 20
-10.0
 30
0.0
  0
POINT
  5
4A9
330
4A0
100
AcDbEntity
  8
DEFPOINTS
 62
     0
100
AcDbPoint
 10
129.404637911899
 20
6.220288206903205
 30
0.0
  0
ENDBLK
  5
4AB
330
4A0
100
AcDbEntity
  8
0
100
AcDbBlockEnd
  0
BLOCK
  5
4B6
330
4AC
100
AcDbEntity
  8
0
100
AcDbBlockBegin
  2
*D51
 70
     1
 10
0.0
 20
0.0
 30
0.0
  3
*D51
  1

  0
LINE
  5
4AD
330
4AC
100
AcDbEntity
  8
0
 62
   123
100
AcDbLine
 10
61.0
 20
5.0
 30
0.0
 11
72.92915642334955
 21
4.999999999999996
 31
0.0
  0
LINE
  5
4AE
330
4AC
100
AcDbEntity
  8
0
 62
   123
100
AcDbLine
 10
59.52830600000016
 20
47.99999999999818
 30
0.0
 11
72.92915642334957
 21
47.99999999999818
 31
0.0
  0
LINE
  5
4AF
330
4AC
100
AcDbEntity
  8
0
 62
   123
100
AcDbLine
 10
72.32915642334956
 20
7.499999999999996
 30
0.0
 11
72.32915642334957
 21
45.49999999999818
 31
0.0
  0
SOLID
  5
4B0
330
4AC
100
AcDbEntity
  8
0
 62
   123
100
AcDbTrace
 10
71.91248975668289
 20
7.499999999999996
 30
0.0
 11
72.74582309001623
 21
7.499999999999996
 31
0.0
 12
72.32915642334956
 22
4.999999999999996
 32
0.0
 13
72.32915642334956
 23
4.999999999999996
 33
0.0
  0
SOLID
  5
4B1
330
4AC
100
AcDbEntity
  8
0
 62
   123
100
AcDbTrace
 10
71.9124897566829
 20
45.49999999999818
 30
0.0
 11
72.74582309001624
 21
45.49999999999818
 31
0.0
 12
72.32915642334957
 22
47.99999999999818
 32
0.0
 13
72.32915642334957
 23
47.99999999999818
 33
0.0
  0
MTEXT
  5
4B2
330
4AC
100
AcDbEntity
  8
0
 62
     3
100
AcDbMText
 10
69.82915642334956
 20
28.13762955595075
 30
0.0
 40
3.0
 41
0.0
 71
     5
 72
     1
  1
\A1;43
 11
0.0000000000000001
 21
1.0
 31
0.0
1001
ACAD
1000
MTEXTBEGIN
1070
    73
1070
     1
1070
    44
1040
1.0
1070
    74
1070
     0
1000
MTEXTEND
  0
POINT
  5
4B3
330
4AC
100
AcDbEntity
  8
DEFPOINTS
 62
     0
100
AcDbPoint
 10
60.0
 20
5.0
 30
0.0
  0
POINT
  5
4B4
330
4AC
100
AcDbEntity
  8
DEFPOINTS
 62
     0
100
AcDbPoint
 10
58.52830600000015
 20
47.99999999999818
 30
0.0
  0
POINT
  5
4B5
330
4AC
100
AcDbEntity
  8
DEFPOINTS
 62
     0
100
AcDbPoint
 10
72.32915642334957
 20
47.99999999999818
 30
0.0
  0
ENDBLK
  5
4B7
330
4AC
100
AcDbEntity
  8
0
100
AcDbBlockEnd
  0
BLOCK
  5
4C2
330
4B8
100
AcDbEntity
  8
0
100
AcDbBlockBegin
  2
*D52
 70
     1
 10
0.0
 20
0.0
 30
0.0
  3
*D52
  1

  0
LINE
  5
4B9
330
4B8
100
AcDbEntity
  8
0
 62
   123
100
AcDbLine
 10
-0.9999999999999998
 20
14.0
 30
0.0
 11
-0.9999999999999971
 21
59.78235576318511
 31
0.0
  0
LINE
  5
4BA
330
4B8
100
AcDbEntity
  8
0
 62
   123
100
AcDbLine
 10
61.0
 20
14.0
 30
0.0
 11
61.0
 21
59.78235576318511
 31
0.0
  0
LINE
  5
4BB
330
4B8
100
AcDbEntity
  8
0
 62
   123
100
AcDbLine
 10
1.500000000000002
 20
59.18235576318512
 30
0.0
 11
58.5
 21
59.18235576318512
 31
0.0
  0
SOLID
  5
4BC
330
4B8
100
AcDbEntity
  8
0
 62
   123
100
AcDbTrace
 10
1.500000000000002
 20
59.59902242985178
 30
0.0
 11
1.500000000000002
 21
58.76568909651845
 31
0.0
 12
-0.9999999999999971
 22
59.18235576318512
 32
0.0
 13
-0.9999999999999971
 23
59.18235576318512
 33
0.0
  0
SOLID
  5
4BD
330
4B8
100
AcDbEntity
  8
0
 62
   123
100
AcDbTrace
 10
58.5
 20
59.59902242985178
 30
0.0
 11
58.5
 21
58.76568909651845
 31
0.0
 12
61.0
 22
59.18235576318512
 32
0.0
 13
61.0
 23
59.18235576318512
 33
0.0
  0
MTEXT
  5
4BE
330
4B8
100
AcDbEntity
  8
0
 62
     3
100
AcDbMText
 10
30.0
 20
61.68235576318512
 30
0.0
 40
3.0
 41
0.0
 71
     5
 72
     1
  1
\A1;62
1001
ACAD
1000
MTEXTBEGIN
1070
    73
1070
     1
1070
    44
1040
1.0
1070
    74
1070
     0
1000
MTEXTEND
  0
POINT
  5
4BF
330
4B8
100
AcDbEntity
  8
DEFPOINTS
 62
     0
100
AcDbPoint
 10
-1.0
 20
13.0
 30
0.0
  0
POINT
  5
4C0
330
4B8
100
AcDbEntity
  8
DEFPOINTS
 62
     0
100
AcDbPoint
 10
61.0
 20
13.0
 30
0.0
  0
POINT
  5
4C1
330
4B8
100
AcDbEntity
  8
DEFPOINTS
 62
     0
100
AcDbPoint
 10
61.0
 20
59.18235576318512
 30
0.0
  0
ENDBLK
  5
4C3
330
4B8
100
AcDbEntity
  8
0
100
AcDbBlockEnd
  0
BLOCK
  5
4CD
330
4C4
100
AcDbEntity
  8
0
100
AcDbBlockBegin
  2
*D53
 70
     1
 10
0.0
 20
0.0
 30
0.0
  3
*D53
  1

  0
LINE
  5
4C5
330
4C4
100
AcDbEntity
  8
0
 62
   123
100
AcDbLine
 10
-5.777679389585539
 20
-54.74283042612718
 30
0.0
 11
-7.833867860251022
 21
-56.16483217475563
 31
0.0
  0
LINE
  5
4C6
330
4C4
100
AcDbEntity
  8
0
 62
   123
100
AcDbLine
 10
65.77767938957279
 20
-5.25716957385779
 30
0.0
 11
97.40767321945941
 21
16.61723891392468
 31
0.0
  0
LINE
  5
4C7
330
4C4
100
AcDbEntity
  8
0
 62
   123
100
AcDbLine
 10
-3.721490918920057
 20
-53.32082867749875
 30
0.0
 11
63.72149091890733
 21
-6.679171322486251
 31
0.0
  0
SOLID
  5
4C8
330
4C4
100
AcDbEntity
  8
0
 62
   123
100
AcDbTrace
 10
-6.014679681023611
 20
-54.40013234768294
 30
0.0
 11
-5.540679098147467
 21
-55.08552850457142
 31
0.0
 12
-3.721490918920057
 22
-53.32082867749875
 32
0.0
 13
-3.721490918920057
 23
-53.32082867749875
 33
0.0
  0
SOLID
  5
4C9
330
4C4
100
AcDbEntity
  8
0
 62
   123
100
AcDbTrace
 10
65.54067909813475
 20
-4.914471495413568
 30
0.0
 11
66.01467968101089
 21
-5.599867652302055
 31
0.0
 12
63.72149091890733
 22
-6.679171322486251
 32
0.0
 13
63.72149091890733
 23
-6.679171322486251
 33
0.0
  0
MTEXT
  5
4CA
330
4C4
100
AcDbEntity
  8
0
 62
     3
100
AcDbMText
 10
87.584672862112
 20
12.86353452590823
 30
0.0
 40
3.0
 41
0.0
 71
     5
 72
     1
  1
\A1;\U+220582%%P0.5
 11
0.8224753882661932
 21
0.5688006994513762
 31
0.0
1001
ACAD
1000
MTEXTBEGIN
1070
    73
1070
     1
1070
    44
1040
1.0
1070
    74
1070
     0
1000
MTEXTEND
  0
POINT
  5
4CB
330
4C4
100
AcDbEntity
  8
DEFPOINTS
 62
     0
100
AcDbPoint
 10
63.72149091890733
 20
-6.679171322486251
 30
0.0
  0
POINT
  5
4CC
330
4C4
100
AcDbEntity
  8
DEFPOINTS
 62
     0
100
AcDbPoint
 10
-3.721490918920057
 20
-53.32082867749875
 30
0.0
  0
ENDBLK
  5
4CE
330
4C4
100
AcDbEntity
  8
0
100
AcDbBlockEnd
  0
BLOCK
  5
4D9
330
4CF
100
AcDbEntity
  8
0
100
AcDbBlockBegin
  2
*D54
 70
     1
 10
0.0
 20
0.0
 30
0.0
  3
*D54
  1

  0
LINE
  5
4D0
330
4CF
100
AcDbEntity
  8
0
 62
   123
100
AcDbLine
 10
277.4046379119081
 20
4.5
 30
0.0
 11
300.6653076047783
 21
4.499999999999992
 31
0.0
  0
LINE
  5
4D1
330
4CF
100
AcDbEntity
  8
0
 62
   123
100
AcDbLine
 10
277.4046379119081
 20
-64.5
 30
0.0
 11
300.6653076047783
 21
-64.50000000000001
 31
0.0
  0
LINE
  5
4D2
330
4CF
100
AcDbEntity
  8
0
 62
   123
100
AcDbLine
 10
300.0653076047783
 20
1.999999999999992
 30
0.0
 11
300.0653076047783
 21
-62.00000000000001
 31
0.0
  0
SOLID
  5
4D3
330
4CF
100
AcDbEntity
  8
0
 62
   123
100
AcDbTrace
 10
299.6486409381116
 20
1.999999999999992
 30
0.0
 11
300.481974271445
 21
1.999999999999992
 31
0.0
 12
300.0653076047783
 22
4.499999999999992
 32
0.0
 13
300.0653076047783
 23
4.499999999999992
 33
0.0
  0
SOLID
  5
4D4
330
4CF
100
AcDbEntity
  8
0
 62
   123
100
AcDbTrace
 10
299.6486409381116
 20
-62.00000000000001
 30
0.0
 11
300.481974271445
 21
-62.00000000000001
 31
0.0
 12
300.0653076047783
 22
-64.50000000000001
 32
0.0
 13
300.0653076047783
 23
-64.50000000000001
 33
0.0
  0
MTEXT
  5
4D5
330
4CF
100
AcDbEntity
  8
0
 62
     3
100
AcDbMText
 10
297.5653076047783
 20
-32.15608099008886
 30
0.0
 40
3.0
 41
0.0
 71
     5
 72
     1
  1
\A1;%%C69
 11
0.0000000000000001
 21
1.0
 31
0.0
1001
ACAD
1000
MTEXTBEGIN
1070
    73
1070
     1
1070
    44
1040
1.0
1070
    74
1070
     0
1000
MTEXTEND
  0
POINT
  5
4D6
330
4CF
100
AcDbEntity
  8
DEFPOINTS
 62
     0
100
AcDbPoint
 10
276.4046379119081
 20
4.5
 30
0.0
  0
POINT
  5
4D7
330
4CF
100
AcDbEntity
  8
DEFPOINTS
 62
     0
100
AcDbPoint
 10
276.4046379119081
 20
-64.5
 30
0.0
  0
POINT
  5
4D8
330
4CF
100
AcDbEntity
  8
DEFPOINTS
 62
     0
100
AcDbPoint
 10
300.0653076047783
 20
-64.50000000000001
 30
0.0
  0
ENDBLK
  5
4DA
330
4CF
100
AcDbEntity
  8
0
100
AcDbBlockEnd
  0
BLOCK
  5
4E5
330
4DB
100
AcDbEntity
  8
0
100
AcDbBlockBegin
  2
*D55
 70
     1
 10
0.0
 20
0.0
 30
0.0
  3
*D55
  1

  0
LINE
  5
4DC
330
4DB
100
AcDbEntity
  8
0
 62
   123
100
AcDbLine
 10
283.9013049119094
 20
45.99999900000193
 30
0.0
 11
283.9013049119094
 21
60.63903248417328
 31
0.0
  0
LINE
  5
4DD
330
4DB
100
AcDbEntity
  8
0
 62
   123
100
AcDbLine
 10
311.9013049118984
 20
37.99999900000102
 30
0.0
 11
311.9013049118984
 21
60.63903248417328
 31
0.0
  0
LINE
  5
4DE
330
4DB
100
AcDbEntity
  8
0
 62
   123
100
AcDbLine
 10
286.4013049119094
 20
60.03903248417327
 30
0.0
 11
309.4013049118984
 21
60.03903248417327
 31
0.0
  0
SOLID
  5
4DF
330
4DB
100
AcDbEntity
  8
0
 62
   123
100
AcDbTrace
 10
286.4013049119094
 20
60.45569915083994
 30
0.0
 11
286.4013049119094
 21
59.62236581750661
 31
0.0
 12
283.9013049119094
 22
60.03903248417327
 32
0.0
 13
283.9013049119094
 23
60.03903248417327
 33
0.0
  0
SOLID
  5
4E0
330
4DB
100
AcDbEntity
  8
0
 62
   123
100
AcDbTrace
 10
309.4013049118984
 20
60.45569915083994
 30
0.0
 11
309.4013049118984
 21
59.62236581750661
 31
0.0
 12
311.9013049118984
 22
60.03903248417327
 32
0.0
 13
311.9013049118984
 23
60.03903248417327
 33
0.0
  0
MTEXT
  5
4E1
330
4DB
100
AcDbEntity
  8
0
 62
     3
100
AcDbMText
 10
297.9013049119093
 20
62.53903248417327
 30
0.0
 40
3.0
 41
0.0
 71
     5
 72
     1
  1
\A1;MAX. 28
1001
ACAD
1000
MTEXTBEGIN
1070
    73
1070
     1
1070
    44
1040
1.0
1070
    74
1070
     0
1000
MTEXTEND
  0
POINT
  5
4E2
330
4DB
100
AcDbEntity
  8
DEFPOINTS
 62
     0
100
AcDbPoint
 10
283.9013049119094
 20
44.99999900000193
 30
0.0
  0
POINT
  5
4E3
330
4DB
100
AcDbEntity
  8
DEFPOINTS
 62
     0
100
AcDbPoint
 10
311.9013049118984
 20
36.99999900000102
 30
0.0
  0
POINT
  5
4E4
330
4DB
100
AcDbEntity
  8
DEFPOINTS
 62
     0
100
AcDbPoint
 10
311.9013049118984
 20
60.03903248417327
 30
0.0
  0
ENDBLK
  5
4E6
330
4DB
100
AcDbEntity
  8
0
100
AcDbBlockEnd
  0
BLOCK
  5
4F1
330
4E7
100
AcDbEntity
  8
0
100
AcDbBlockBegin
  2
*D56
 70
     1
 10
0.0
 20
0.0
 30
0.0
  3
*D56
  1

  0
LINE
  5
4E8
330
4E7
100
AcDbEntity
  8
0
 62
   123
100
AcDbLine
 10
208.904637911899
 20
14.6999990000022
 30
0.0
 11
208.904637911899
 21
60.65560350468523
 31
0.0
  0
LINE
  5
4E9
330
4E7
100
AcDbEntity
  8
0
 62
   123
100
AcDbLine
 10
283.9013049119094
 20
45.99999900000193
 30
0.0
 11
283.9013049119094
 21
60.65560350468523
 31
0.0
  0
LINE
  5
4EA
330
4E7
100
AcDbEntity
  8
0
 62
   123
100
AcDbLine
 10
211.404637911899
 20
60.05560350468522
 30
0.0
 11
281.4013049119093
 21
60.05560350468522
 31
0.0
  0
SOLID
  5
4EB
330
4E7
100
AcDbEntity
  8
0
 62
   123
100
AcDbTrace
 10
211.404637911899
 20
60.47227017135188
 30
0.0
 11
211.404637911899
 21
59.63893683801856
 31
0.0
 12
208.904637911899
 22
60.05560350468522
 32
0.0
 13
208.904637911899
 23
60.05560350468522
 33
0.0
  0
SOLID
  5
4EC
330
4E7
100
AcDbEntity
  8
0
 62
   123
100
AcDbTrace
 10
281.4013049119093
 20
60.47227017135188
 30
0.0
 11
281.4013049119093
 21
59.63893683801856
 31
0.0
 12
283.9013049119094
 22
60.05560350468522
 32
0.0
 13
283.9013049119094
 23
60.05560350468522
 33
0.0
  0
MTEXT
  5
4ED
330
4E7
100
AcDbEntity
  8
0
 62
     3
100
AcDbMText
 10
239.8045151546684
 20
62.55560350468522
 30
0.0
 40
3.0
 41
0.0
 71
     5
 72
     1
  1
\A1;75
1001
ACAD
1000
MTEXTBEGIN
1070
    73
1070
     1
1070
    44
1040
1.0
1070
    74
1070
     0
1000
MTEXTEND
  0
POINT
  5
4EE
330
4E7
100
AcDbEntity
  8
DEFPOINTS
 62
     0
100
AcDbPoint
 10
208.904637911899
 20
13.6999990000022
 30
0.0
  0
POINT
  5
4EF
330
4E7
100
AcDbEntity
  8
DEFPOINTS
 62
     0
100
AcDbPoint
 10
283.9013049119094
 20
44.99999900000193
 30
0.0
  0
POINT
  5
4F0
330
4E7
100
AcDbEntity
  8
DEFPOINTS
 62
     0
100
AcDbPoint
 10
283.9013049119094
 20
60.05560350468522
 30
0.0
  0
ENDBLK
  5
4F2
330
4E7
100
AcDbEntity
  8
0
100
AcDbBlockEnd
  0
BLOCK
  5
4FD
330
4F3
100
AcDbEntity
  8
0
100
AcDbBlockBegin
  2
*D57
 70
     1
 10
0.0
 20
0.0
 30
0.0
  3
*D57
  1

  0
LINE
  5
4F4
330
4F3
100
AcDbEntity
  8
0
 62
   123
100
AcDbLine
 10
161.404637911899
 20
6.0
 30
0.0
 11
161.404637911899
 21
33.72964794681602
 31
0.0
  0
LINE
  5
4F5
330
4F3
100
AcDbEntity
  8
0
 62
   123
100
AcDbLine
 10
203.404637911899
 20
6.0
 30
0.0
 11
203.404637911899
 21
33.72964794681602
 31
0.0
  0
LINE
  5
4F6
330
4F3
100
AcDbEntity
  8
0
 62
   123
100
AcDbLine
 10
163.904637911899
 20
33.12964794681602
 30
0.0
 11
200.904637911899
 21
33.12964794681602
 31
0.0
  0
SOLID
  5
4F7
330
4F3
100
AcDbEntity
  8
0
 62
   123
100
AcDbTrace
 10
163.904637911899
 20
33.54631461348268
 30
0.0
 11
163.904637911899
 21
32.71298128014935
 31
0.0
 12
161.404637911899
 22
33.12964794681602
 32
0.0
 13
161.404637911899
 23
33.12964794681602
 33
0.0
  0
SOLID
  5
4F8
330
4F3
100
AcDbEntity
  8
0
 62
   123
100
AcDbTrace
 10
200.904637911899
 20
33.54631461348268
 30
0.0
 11
200.904637911899
 21
32.71298128014935
 31
0.0
 12
203.404637911899
 22
33.12964794681602
 32
0.0
 13
203.404637911899
 23
33.12964794681602
 33
0.0
  0
MTEXT
  5
4F9
330
4F3
100
AcDbEntity
  8
0
 62
     3
100
AcDbMText
 10
181.404637911899
 20
35.62964794681602
 30
0.0
 40
3.0
 41
0.0
 71
     5
 72
     1
  1
\A1;{\f??|b0|i0|c0|p49;L}
1001
ACAD
1000
MTEXTBEGIN
1070
    73
1070
     1
1070
    44
1040
1.0
1070
    74
1070
     0
1000
MTEXTEND
  0
POINT
  5
4FA
330
4F3
100
AcDbEntity
  8
DEFPOINTS
 62
     0
100
AcDbPoint
 10
161.404637911899
 20
5.0
 30
0.0
  0
POINT
  5
4FB
330
4F3
100
AcDbEntity
  8
DEFPOINTS
 62
     0
100
AcDbPoint
 10
203.404637911899
 20
5.0
 30
0.0
  0
POINT
  5
4FC
330
4F3
100
AcDbEntity
  8
DEFPOINTS
 62
     0
100
AcDbPoint
 10
203.404637911899
 20
33.12964794681602
 30
0.0
  0
ENDBLK
  5
4FE
330
4F3
100
AcDbEntity
  8
0
100
AcDbBlockEnd
  0
BLOCK
  5
50B
330
4FF
100
AcDbEntity
  8
0
100
AcDbBlockBegin
  2
*D58
 70
     1
 10
0.0
 20
0.0
 30
0.0
  3
*D58
  1

  0
LINE
  5
500
330
4FF
100
AcDbEntity
  8
0
 62
   123
100
AcDbLine
 10
203.404637911899
 20
6.0
 30
0.0
 11
203.404637911899
 21
60.65560350468523
 31
0.0
  0
LINE
  5
501
330
4FF
100
AcDbEntity
  8
0
 62
   123
100
AcDbLine
 10
208.904637911899
 20
14.6999990000022
 30
0.0
 11
208.904637911899
 21
60.65560350468523
 31
0.0
  0
LINE
  5
502
330
4FF
100
AcDbEntity
  8
0
 62
   123
100
AcDbLine
 10
200.904637911899
 20
60.05560350468522
 30
0.0
 11
198.404637911899
 21
60.05560350468522
 31
0.0
  0
LINE
  5
503
330
4FF
100
AcDbEntity
  8
0
 62
   123
100
AcDbLine
 10
211.404637911899
 20
60.05560350468522
 30
0.0
 11
213.904637911899
 21
60.05560350468522
 31
0.0
  0
LINE
  5
504
330
4FF
100
AcDbEntity
  8
0
 62
   123
100
AcDbLine
 10
203.404637911899
 20
60.05560350468522
 30
0.0
 11
208.904637911899
 21
60.05560350468522
 31
0.0
  0
SOLID
  5
505
330
4FF
100
AcDbEntity
  8
0
 62
   123
100
AcDbTrace
 10
200.904637911899
 20
60.47227017135188
 30
0.0
 11
200.904637911899
 21
59.63893683801856
 31
0.0
 12
203.404637911899
 22
60.05560350468522
 32
0.0
 13
203.404637911899
 23
60.05560350468522
 33
0.0
  0
SOLID
  5
506
330
4FF
100
AcDbEntity
  8
0
 62
   123
100
AcDbTrace
 10
211.404637911899
 20
60.47227017135188
 30
0.0
 11
211.404637911899
 21
59.63893683801856
 31
0.0
 12
208.904637911899
 22
60.05560350468522
 32
0.0
 13
208.904637911899
 23
60.05560350468522
 33
0.0
  0
MTEXT
  5
507
330
4FF
100
AcDbEntity
  8
0
 62
     3
100
AcDbMText
 10
206.154637911899
 20
62.55560350468522
 30
0.0
 40
3.0
 41
0.0
 71
     5
 72
     1
  1
\A1;5.5
1001
ACAD
1000
MTEXTBEGIN
1070
    73
1070
     1
1070
    44
1040
1.0
1070
    74
1070
     0
1000
MTEXTEND
  0
POINT
  5
508
330
4FF
100
AcDbEntity
  8
DEFPOINTS
 62
     0
100
AcDbPoint
 10
203.404637911899
 20
5.0
 30
0.0
  0
POINT
  5
509
330
4FF
100
AcDbEntity
  8
DEFPOINTS
 62
     0
100
AcDbPoint
 10
208.904637911899
 20
13.6999990000022
 30
0.0
  0
POINT
  5
50A
330
4FF
100
AcDbEntity
  8
DEFPOINTS
 62
     0
100
AcDbPoint
 10
208.904637911899
 20
60.05560350468522
 30
0.0
  0
ENDBLK
  5
50C
330
4FF
100
AcDbEntity
  8
0
100
AcDbBlockEnd
  0
BLOCK
  5
517
330
50D
100
AcDbEntity
  8
0
100
AcDbBlockBegin
  2
*D59
 70
     1
 10
0.0
 20
0.0
 30
0.0
  3
*D59
  1

  0
LINE
  5
50E
330
50D
100
AcDbEntity
  8
0
 62
   123
100
AcDbLine
 10
171.6466791933908
 20
347.6889543238321
 30
0.0
 11
149.4488543163774
 21
347.6889543238321
 31
0.0
  0
LINE
  5
50F
330
50D
100
AcDbEntity
  8
0
 62
   123
100
AcDbLine
 10
171.6466791933908
 20
283.688954323833
 30
0.0
 11
149.4488543163774
 21
283.688954323833
 31
0.0
  0
LINE
  5
510
330
50D
100
AcDbEntity
  8
0
 62
   123
100
AcDbLine
 10
150.0488543163774
 20
345.1889543238321
 30
0.0
 11
150.0488543163774
 21
286.188954323833
 31
0.0
  0
SOLID
  5
511
330
50D
100
AcDbEntity
  8
0
 62
   123
100
AcDbTrace
 10
149.6321876497107
 20
345.1889543238321
 30
0.0
 11
150.4655209830441
 21
345.1889543238321
 31
0.0
 12
150.0488543163774
 22
347.6889543238321
 32
0.0
 13
150.0488543163774
 23
347.6889543238321
 33
0.0
  0
SOLID
  5
512
330
50D
100
AcDbEntity
  8
0
 62
   123
100
AcDbTrace
 10
149.6321876497107
 20
286.188954323833
 30
0.0
 11
150.465520983044
 21
286.188954323833
 31
0.0
 12
150.0488543163774
 22
283.688954323833
 32
0.0
 13
150.0488543163774
 23
283.688954323833
 33
0.0
  0
MTEXT
  5
513
330
50D
100
AcDbEntity
  8
0
 62
     3
100
AcDbMText
 10
146.0987043163773
 20
313.0518132315328
 30
0.0
 40
3.0
 41
0.0
 71
     5
 72
     1
  1
\A1;\A1;%%C{\f??|b0|i0|c0|p49;64\H0.7x;\S+0^ -0.030;\H1.429x;(h7)} 
 11
0.0000000000000001
 21
1.0
 31
0.0
1001
ACAD
1000
MTEXTBEGIN
1070
    73
1070
     1
1070
    44
1040
1.0
1070
    74
1070
     0
1000
MTEXTEND
  0
POINT
  5
514
330
50D
100
AcDbEntity
  8
DEFPOINTS
 62
     0
100
AcDbPoint
 10
172.6466791933908
 20
347.6889543238321
 30
0.0
  0
POINT
  5
515
330
50D
100
AcDbEntity
  8
DEFPOINTS
 62
     0
100
AcDbPoint
 10
172.6466791933908
 20
283.688954323833
 30
0.0
  0
POINT
  5
516
330
50D
100
AcDbEntity
  8
DEFPOINTS
 62
     0
100
AcDbPoint
 10
150.0488543163774
 20
283.688954323833
 30
0.0
  0
ENDBLK
  5
518
330
50D
100
AcDbEntity
  8
0
100
AcDbBlockEnd
  0
BLOCK
  5
523
330
519
100
AcDbEntity
  8
0
100
AcDbBlockBegin
  2
*D60
 70
     1
 10
0.0
 20
0.0
 30
0.0
  3
*D60
  1

  0
LINE
  5
51A
330
519
100
AcDbEntity
  8
0
 62
   123
100
AcDbLine
 10
173.7285255218903
 20
205.1735203121031
 30
0.0
 11
154.7544182207006
 21
205.1735203121031
 31
0.0
  0
LINE
  5
51B
330
519
100
AcDbEntity
  8
0
 62
   123
100
AcDbLine
 10
194.2669460778106
 20
190.173520312102
 30
0.0
 11
154.7544182207006
 21
190.173520312102
 31
0.0
  0
LINE
  5
51C
330
519
100
AcDbEntity
  8
0
 62
   123
100
AcDbLine
 10
155.3544182207006
 20
202.6735203121031
 30
0.0
 11
155.3544182207006
 21
192.673520312102
 31
0.0
  0
SOLID
  5
51D
330
519
100
AcDbEntity
  8
0
 62
   123
100
AcDbTrace
 10
154.9377515540339
 20
202.6735203121031
 30
0.0
 11
155.7710848873673
 21
202.6735203121031
 31
0.0
 12
155.3544182207006
 22
205.1735203121031
 32
0.0
 13
155.3544182207006
 23
205.1735203121031
 33
0.0
  0
SOLID
  5
51E
330
519
100
AcDbEntity
  8
0
 62
   123
100
AcDbTrace
 10
154.9377515540339
 20
192.673520312102
 30
0.0
 11
155.7710848873673
 21
192.673520312102
 31
0.0
 12
155.3544182207006
 22
190.173520312102
 32
0.0
 13
155.3544182207006
 23
190.173520312102
 33
0.0
  0
MTEXT
  5
51F
330
519
100
AcDbEntity
  8
0
 62
     3
100
AcDbMText
 10
152.8544182207005
 20
197.6735203121026
 30
0.0
 40
3.0
 41
0.0
 71
     5
 72
     1
  1
\A1;15
 11
0.0000000000000001
 21
1.0
 31
0.0
1001
ACAD
1000
MTEXTBEGIN
1070
    73
1070
     1
1070
    44
1040
1.0
1070
    74
1070
     0
1000
MTEXTEND
  0
POINT
  5
520
330
519
100
AcDbEntity
  8
DEFPOINTS
 62
     0
100
AcDbPoint
 10
174.7285255218903
 20
205.1735203121031
 30
0.0
  0
POINT
  5
521
330
519
100
AcDbEntity
  8
DEFPOINTS
 62
     0
100
AcDbPoint
 10
195.2669460778106
 20
190.173520312102
 30
0.0
  0
POINT
  5
522
330
519
100
AcDbEntity
  8
DEFPOINTS
 62
     0
100
AcDbPoint
 10
155.3544182207006
 20
190.173520312102
 30
0.0
  0
ENDBLK
  5
524
330
519
100
AcDbEntity
  8
0
100
AcDbBlockEnd
  0
BLOCK
  5
52F
330
525
100
AcDbEntity
  8
0
100
AcDbBlockBegin
  2
*D61
 70
     1
 10
0.0
 20
0.0
 30
0.0
  3
*D61
  1

  0
LINE
  5
526
330
525
100
AcDbEntity
  8
0
 62
   123
100
AcDbLine
 10
207.1266643231174
 20
220.1735203121031
 30
0.0
 11
145.8606184006589
 21
220.1735203121031
 31
0.0
  0
LINE
  5
527
330
525
100
AcDbEntity
  8
0
 62
   123
100
AcDbLine
 10
194.2669460778106
 20
190.1735203121031
 30
0.0
 11
145.8606184006588
 21
190.1735203121031
 31
0.0
  0
LINE
  5
528
330
525
100
AcDbEntity
  8
0
 62
   123
100
AcDbLine
 10
146.4606184006589
 20
217.6735203121031
 30
0.0
 11
146.4606184006589
 21
192.6735203121032
 31
0.0
  0
SOLID
  5
529
330
525
100
AcDbEntity
  8
0
 62
   123
100
AcDbTrace
 10
146.0439517339922
 20
217.6735203121031
 30
0.0
 11
146.8772850673255
 21
217.6735203121031
 31
0.0
 12
146.4606184006589
 22
220.1735203121031
 32
0.0
 13
146.4606184006589
 23
220.1735203121031
 33
0.0
  0
SOLID
  5
52A
330
525
100
AcDbEntity
  8
0
 62
   123
100
AcDbTrace
 10
146.0439517339922
 20
192.6735203121032
 30
0.0
 11
146.8772850673255
 21
192.6735203121032
 31
0.0
 12
146.4606184006588
 22
190.1735203121031
 32
0.0
 13
146.4606184006588
 23
190.1735203121031
 33
0.0
  0
MTEXT
  5
52B
330
525
100
AcDbEntity
  8
0
 62
     3
100
AcDbMText
 10
143.9606184006588
 20
204.9235203121031
 30
0.0
 40
3.0
 41
0.0
 71
     5
 72
     1
  1
\A1;{\f??|b0|i0|c0|p49;%%c}30
 11
0.0000000000000001
 21
1.0
 31
0.0
1001
ACAD
1000
MTEXTBEGIN
1070
    73
1070
     1
1070
    44
1040
1.0
1070
    74
1070
     0
1000
MTEXTEND
  0
POINT
  5
52C
330
525
100
AcDbEntity
  8
DEFPOINTS
 62
     0
100
AcDbPoint
 10
208.1266643231174
 20
220.1735203121031
 30
0.0
  0
POINT
  5
52D
330
525
100
AcDbEntity
  8
DEFPOINTS
 62
     0
100
AcDbPoint
 10
195.2669460778106
 20
190.1735203121031
 30
0.0
  0
POINT
  5
52E
330
525
100
AcDbEntity
  8
DEFPOINTS
 62
     0
100
AcDbPoint
 10
146.4606184006588
 20
190.1735203121031
 30
0.0
  0
ENDBLK
  5
530
330
525
100
AcDbEntity
  8
0
100
AcDbBlockEnd
  0
BLOCK
  5
53B
330
531
100
AcDbEntity
  8
0
100
AcDbBlockBegin
  2
*D62
 70
     1
 10
0.0
 20
0.0
 30
0.0
  3
*D62
  1

  0
LINE
  5
532
330
531
100
AcDbEntity
  8
0
 62
   123
100
AcDbLine
 10
38.8372500587593
 20
162.5605321027819
 30
0.0
 11
38.8372500587593
 21
140.11153011156
 31
0.0
  0
LINE
  5
533
330
531
100
AcDbEntity
  8
0
 62
   123
100
AcDbLine
 10
108.8372500587593
 20
162.5605321027819
 30
0.0
 11
108.8372500587593
 21
140.11153011156
 31
0.0
  0
LINE
  5
534
330
531
100
AcDbEntity
  8
0
 62
   123
100
AcDbLine
 10
41.3372500587593
 20
140.71153011156
 30
0.0
 11
106.3372500587593
 21
140.71153011156
 31
0.0
  0
SOLID
  5
535
330
531
100
AcDbEntity
  8
0
 62
   123
100
AcDbTrace
 10
41.3372500587593
 20
141.1281967782266
 30
0.0
 11
41.3372500587593
 21
140.2948634448933
 31
0.0
 12
38.8372500587593
 22
140.71153011156
 32
0.0
 13
38.8372500587593
 23
140.71153011156
 33
0.0
  0
SOLID
  5
536
330
531
100
AcDbEntity
  8
0
 62
   123
100
AcDbTrace
 10
106.3372500587593
 20
141.1281967782266
 30
0.0
 11
106.3372500587593
 21
140.2948634448933
 31
0.0
 12
108.8372500587593
 22
140.71153011156
 32
0.0
 13
108.8372500587593
 23
140.71153011156
 33
0.0
  0
MTEXT
  5
537
330
531
100
AcDbEntity
  8
0
 62
     3
100
AcDbMText
 10
77.17906560796837
 20
143.21153011156
 30
0.0
 40
3.0
 41
0.0
 71
     5
 72
     1
  1
\A1;70
1001
ACAD
1000
MTEXTBEGIN
1070
    73
1070
     1
1070
    44
1040
1.0
1070
    74
1070
     0
1000
MTEXTEND
  0
POINT
  5
538
330
531
100
AcDbEntity
  8
DEFPOINTS
 62
     0
100
AcDbPoint
 10
38.8372500587593
 20
163.5605321027819
 30
0.0
  0
POINT
  5
539
330
531
100
AcDbEntity
  8
DEFPOINTS
 62
     0
100
AcDbPoint
 10
108.8372500587593
 20
163.5605321027819
 30
0.0
  0
POINT
  5
53A
330
531
100
AcDbEntity
  8
DEFPOINTS
 62
     0
100
AcDbPoint
 10
108.8372500587593
 20
140.71153011156
 30
0.0
  0
ENDBLK
  5
53C
330
531
100
AcDbEntity
  8
0
100
AcDbBlockEnd
  0
BLOCK
  5
547
330
53D
100
AcDbEntity
  8
0
100
AcDbBlockBegin
  2
*D63
 70
     1
 10
0.0
 20
0.0
 30
0.0
  3
*D63
  1

  0
LINE
  5
53E
330
53D
100
AcDbEntity
  8
0
 62
   123
100
AcDbLine
 10
252.6266643231101
 20
154.173520312102
 30
0.0
 11
252.6266643231101
 21
141.2775059304771
 31
0.0
  0
LINE
  5
53F
330
53D
100
AcDbEntity
  8
0
 62
   123
100
AcDbLine
 10
210.6266643231101
 20
154.173520312102
 30
0.0
 11
210.6266643231101
 21
141.2775059304771
 31
0.0
  0
LINE
  5
540
330
53D
100
AcDbEntity
  8
0
 62
   123
100
AcDbLine
 10
250.1266643231101
 20
141.8775059304771
 30
0.0
 11
213.1266643231101
 21
141.8775059304771
 31
0.0
  0
SOLID
  5
541
330
53D
100
AcDbEntity
  8
0
 62
   123
100
AcDbTrace
 10
250.1266643231101
 20
142.2941725971437
 30
0.0
 11
250.1266643231101
 21
141.4608392638104
 31
0.0
 12
252.6266643231101
 22
141.8775059304771
 32
0.0
 13
252.6266643231101
 23
141.8775059304771
 33
0.0
  0
SOLID
  5
542
330
53D
100
AcDbEntity
  8
0
 62
   123
100
AcDbTrace
 10
213.1266643231101
 20
142.2941725971437
 30
0.0
 11
213.1266643231101
 21
141.4608392638104
 31
0.0
 12
210.6266643231101
 22
141.8775059304771
 32
0.0
 13
210.6266643231101
 23
141.8775059304771
 33
0.0
  0
MTEXT
  5
543
330
53D
100
AcDbEntity
  8
0
 62
     3
100
AcDbMText
 10
231.6266643231101
 20
144.3775059304771
 30
0.0
 40
3.0
 41
0.0
 71
     5
 72
     1
  1
\A1;L
1001
ACAD
1000
MTEXTBEGIN
1070
    73
1070
     1
1070
    44
1040
1.0
1070
    74
1070
     0
1000
MTEXTEND
  0
POINT
  5
544
330
53D
100
AcDbEntity
  8
DEFPOINTS
 62
     0
100
AcDbPoint
 10
252.6266643231101
 20
155.173520312102
 30
0.0
  0
POINT
  5
545
330
53D
100
AcDbEntity
  8
DEFPOINTS
 62
     0
100
AcDbPoint
 10
210.6266643231101
 20
155.173520312102
 30
0.0
  0
POINT
  5
546
330
53D
100
AcDbEntity
  8
DEFPOINTS
 62
     0
100
AcDbPoint
 10
210.6266643231101
 20
141.8775059304771
 30
0.0
  0
ENDBLK
  5
548
330
53D
100
AcDbEntity
  8
0
100
AcDbBlockEnd
  0
BLOCK
  5
555
330
549
100
AcDbEntity
  8
0
100
AcDbBlockBegin
  2
*D64
 70
     1
 10
0.0
 20
0.0
 30
0.0
  3
*D64
  1

  0
LINE
  5
54A
330
549
100
AcDbEntity
  8
0
 62
   123
100
AcDbLine
 10
210.6266643231101
 20
226.173520312102
 30
0.0
 11
210.6266643231101
 21
234.955659015313
 31
0.0
  0
LINE
  5
54B
330
549
100
AcDbEntity
  8
0
 62
   123
100
AcDbLine
 10
207.6266643231174
 20
220.673520312102
 30
0.0
 11
207.6266643231174
 21
234.955659015313
 31
0.0
  0
LINE
  5
54C
330
549
100
AcDbEntity
  8
0
 62
   123
100
AcDbLine
 10
213.1266643231101
 20
234.3556590153129
 30
0.0
 11
215.6266643231101
 21
234.3556590153129
 31
0.0
  0
LINE
  5
54D
330
549
100
AcDbEntity
  8
0
 62
   123
100
AcDbLine
 10
205.1266643231174
 20
234.3556590153129
 30
0.0
 11
202.6266643231174
 21
234.3556590153129
 31
0.0
  0
LINE
  5
54E
330
549
100
AcDbEntity
  8
0
 62
   123
100
AcDbLine
 10
210.6266643231101
 20
234.3556590153129
 30
0.0
 11
207.6266643231174
 21
234.3556590153129
 31
0.0
  0
SOLID
  5
54F
330
549
100
AcDbEntity
  8
0
 62
   123
100
AcDbTrace
 10
213.1266643231101
 20
234.7723256819796
 30
0.0
 11
213.1266643231101
 21
233.9389923486463
 31
0.0
 12
210.6266643231101
 22
234.3556590153129
 32
0.0
 13
210.6266643231101
 23
234.3556590153129
 33
0.0
  0
SOLID
  5
550
330
549
100
AcDbEntity
  8
0
 62
   123
100
AcDbTrace
 10
205.1266643231174
 20
234.7723256819796
 30
0.0
 11
205.1266643231174
 21
233.9389923486463
 31
0.0
 12
207.6266643231174
 22
234.3556590153129
 32
0.0
 13
207.6266643231174
 23
234.3556590153129
 33
0.0
  0
MTEXT
  5
551
330
549
100
AcDbEntity
  8
0
 62
     3
100
AcDbMText
 10
209.1266643231138
 20
236.8556590153129
 30
0.0
 40
3.0
 41
0.0
 71
     5
 72
     1
  1
\A1;3
1001
ACAD
1000
MTEXTBEGIN
1070
    73
1070
     1
1070
    44
1040
1.0
1070
    74
1070
     0
1000
MTEXTEND
  0
POINT
  5
552
330
549
100
AcDbEntity
  8
DEFPOINTS
 62
     0
100
AcDbPoint
 10
210.6266643231101
 20
225.173520312102
 30
0.0
  0
POINT
  5
553
330
549
100
AcDbEntity
  8
DEFPOINTS
 62
     0
100
AcDbPoint
 10
207.6266643231174
 20
219.673520312102
 30
0.0
  0
POINT
  5
554
330
549
100
AcDbEntity
  8
DEFPOINTS
 62
     0
100
AcDbPoint
 10
207.6266643231174
 20
234.3556590153129
 30
0.0
  0
ENDBLK
  5
556
330
549
100
AcDbEntity
  8
0
100
AcDbBlockEnd
  0
BLOCK
  5
563
330
557
100
AcDbEntity
  8
0
100
AcDbBlockBegin
  2
*D65
 70
     1
 10
0.0
 20
0.0
 30
0.0
  3
*D65
  1

  0
LINE
  5
558
330
557
100
AcDbEntity
  8
0
 62
   123
100
AcDbLine
 10
177.6266643231174
 20
200.173520312102
 30
0.0
 11
163.2020010341406
 21
200.173520312102
 31
0.0
  0
LINE
  5
559
330
557
100
AcDbEntity
  8
0
 62
   123
100
AcDbLine
 10
177.6266643231174
 20
210.173520312102
 30
0.0
 11
163.2020010341406
 21
210.173520312102
 31
0.0
  0
LINE
  5
55A
330
557
100
AcDbEntity
  8
0
 62
   123
100
AcDbLine
 10
163.8020010341406
 20
197.673520312102
 30
0.0
 11
163.8020010341406
 21
195.173520312102
 31
0.0
  0
LINE
  5
55B
330
557
100
AcDbEntity
  8
0
 62
   123
100
AcDbLine
 10
163.8020010341406
 20
212.673520312102
 30
0.0
 11
163.8020010341406
 21
250.9782989497036
 31
0.0
  0
LINE
  5
55C
330
557
100
AcDbEntity
  8
0
 62
   123
100
AcDbLine
 10
163.8020010341406
 20
200.173520312102
 30
0.0
 11
163.8020010341406
 21
210.173520312102
 31
0.0
  0
SOLID
  5
55D
330
557
100
AcDbEntity
  8
0
 62
   123
100
AcDbTrace
 10
163.3853343674739
 20
197.673520312102
 30
0.0
 11
164.2186677008073
 21
197.673520312102
 31
0.0
 12
163.8020010341406
 22
200.173520312102
 32
0.0
 13
163.8020010341406
 23
200.173520312102
 33
0.0
  0
SOLID
  5
55E
330
557
100
AcDbEntity
  8
0
 62
   123
100
AcDbTrace
 10
163.3853343674739
 20
212.673520312102
 30
0.0
 11
164.2186677008073
 21
212.673520312102
 31
0.0
 12
163.8020010341406
 22
210.173520312102
 32
0.0
 13
163.8020010341406
 23
210.173520312102
 33
0.0
  0
MTEXT
  5
55F
330
557
100
AcDbEntity
  8
0
 62
     3
100
AcDbMText
 10
159.8518510341406
 20
236.1627275211322
 30
0.0
 40
3.0
 41
0.0
 71
     5
 72
     1
  1
\A1;\A1;{\f??|b0|i0|c0|p49;%%C10\H0.7x;\S+0^ -0.015;\H1.429x;(h7)}
 11
0.0000000000000001
 21
1.0
 31
0.0
1001
ACAD
1000
MTEXTBEGIN
1070
    73
1070
     1
1070
    44
1040
1.0
1070
    74
1070
     0
1000
MTEXTEND
  0
POINT
  5
560
330
557
100
AcDbEntity
  8
DEFPOINTS
 62
     0
100
AcDbPoint
 10
178.6266643231174
 20
200.173520312102
 30
0.0
  0
POINT
  5
561
330
557
100
AcDbEntity
  8
DEFPOINTS
 62
     0
100
AcDbPoint
 10
178.6266643231174
 20
210.173520312102
 30
0.0
  0
POINT
  5
562
330
557
100
AcDbEntity
  8
DEFPOINTS
 62
     0
100
AcDbPoint
 10
163.8020010341406
 20
210.173520312102
 30
0.0
  0
ENDBLK
  5
564
330
557
100
AcDbEntity
  8
0
100
AcDbBlockEnd
  0
BLOCK
  5
56F
330
565
100
AcDbEntity
  8
0
100
AcDbBlockBegin
  2
*D66
 70
     1
 10
0.0
 20
0.0
 30
0.0
  3
*D66
  1

  0
LINE
  5
566
330
565
100
AcDbEntity
  8
0
 62
   123
100
AcDbLine
 10
178.6266643231174
 20
199.1735203121031
 30
0.0
 11
178.6266643231174
 21
141.277505930478
 31
0.0
  0
LINE
  5
567
330
565
100
AcDbEntity
  8
0
 62
   123
100
AcDbLine
 10
210.6266643231101
 20
159.1735203121031
 30
0.0
 11
210.6266643231101
 21
141.277505930478
 31
0.0
  0
LINE
  5
568
330
565
100
AcDbEntity
  8
0
 62
   123
100
AcDbLine
 10
181.1266643231174
 20
141.877505930478
 30
0.0
 11
208.1266643231101
 21
141.877505930478
 31
0.0
  0
SOLID
  5
569
330
565
100
AcDbEntity
  8
0
 62
   123
100
AcDbTrace
 10
181.1266643231174
 20
142.2941725971447
 30
0.0
 11
181.1266643231174
 21
141.4608392638113
 31
0.0
 12
178.6266643231174
 22
141.877505930478
 32
0.0
 13
178.6266643231174
 23
141.877505930478
 33
0.0
  0
SOLID
  5
56A
330
565
100
AcDbEntity
  8
0
 62
   123
100
AcDbTrace
 10
208.1266643231101
 20
142.2941725971447
 30
0.0
 11
208.1266643231101
 21
141.4608392638113
 31
0.0
 12
210.6266643231101
 22
141.877505930478
 32
0.0
 13
210.6266643231101
 23
141.877505930478
 33
0.0
  0
MTEXT
  5
56B
330
565
100
AcDbEntity
  8
0
 62
     3
100
AcDbMText
 10
194.6266643231138
 20
144.377505930478
 30
0.0
 40
3.0
 41
0.0
 71
     5
 72
     1
  1
\A1;32
1001
ACAD
1000
MTEXTBEGIN
1070
    73
1070
     1
1070
    44
1040
1.0
1070
    74
1070
     0
1000
MTEXTEND
  0
POINT
  5
56C
330
565
100
AcDbEntity
  8
DEFPOINTS
 62
     0
100
AcDbPoint
 10
178.6266643231174
 20
200.1735203121031
 30
0.0
  0
POINT
  5
56D
330
565
100
AcDbEntity
  8
DEFPOINTS
 62
     0
100
AcDbPoint
 10
210.6266643231101
 20
160.1735203121031
 30
0.0
  0
POINT
  5
56E
330
565
100
AcDbEntity
  8
DEFPOINTS
 62
     0
100
AcDbPoint
 10
210.6266643231101
 20
141.877505930478
 30
0.0
  0
ENDBLK
  5
570
330
565
100
AcDbEntity
  8
0
100
AcDbBlockEnd
  0
BLOCK
  5
57B
330
571
100
AcDbEntity
  8
0
100
AcDbBlockBegin
  2
*D67
 70
     1
 10
0.0
 20
0.0
 30
0.0
  3
*D67
  1

  0
LINE
  5
572
330
571
100
AcDbEntity
  8
0
 62
   123
100
AcDbLine
 10
203.6266643231174
 20
211.1735203121031
 30
0.0
 11
203.6266643231174
 21
226.9938085190049
 31
0.0
  0
LINE
  5
573
330
571
100
AcDbEntity
  8
0
 62
   123
100
AcDbLine
 10
178.6266643231174
 20
211.1735203121031
 30
0.0
 11
178.6266643231174
 21
226.9938085190049
 31
0.0
  0
LINE
  5
574
330
571
100
AcDbEntity
  8
0
 62
   123
100
AcDbLine
 10
201.1266643231174
 20
226.393808519005
 30
0.0
 11
181.1266643231174
 21
226.393808519005
 31
0.0
  0
SOLID
  5
575
330
571
100
AcDbEntity
  8
0
 62
   123
100
AcDbTrace
 10
201.1266643231174
 20
226.8104751856716
 30
0.0
 11
201.1266643231174
 21
225.9771418523383
 31
0.0
 12
203.6266643231174
 22
226.393808519005
 32
0.0
 13
203.6266643231174
 23
226.393808519005
 33
0.0
  0
SOLID
  5
576
330
571
100
AcDbEntity
  8
0
 62
   123
100
AcDbTrace
 10
181.1266643231174
 20
226.8104751856716
 30
0.0
 11
181.1266643231174
 21
225.9771418523383
 31
0.0
 12
178.6266643231174
 22
226.393808519005
 32
0.0
 13
178.6266643231174
 23
226.393808519005
 33
0.0
  0
MTEXT
  5
577
330
571
100
AcDbEntity
  8
0
 62
     3
100
AcDbMText
 10
191.4375949905097
 20
228.893808519005
 30
0.0
 40
3.0
 41
0.0
 71
     5
 72
     1
  1
\A1;25
1001
ACAD
1000
MTEXTBEGIN
1070
    73
1070
     1
1070
    44
1040
1.0
1070
    74
1070
     0
1000
MTEXTEND
  0
POINT
  5
578
330
571
100
AcDbEntity
  8
DEFPOINTS
 62
     0
100
AcDbPoint
 10
203.6266643231174
 20
210.1735203121031
 30
0.0
  0
POINT
  5
579
330
571
100
AcDbEntity
  8
DEFPOINTS
 62
     0
100
AcDbPoint
 10
178.6266643231174
 20
210.1735203121031
 30
0.0
  0
POINT
  5
57A
330
571
100
AcDbEntity
  8
DEFPOINTS
 62
     0
100
AcDbPoint
 10
178.6266643231174
 20
226.393808519005
 30
0.0
  0
ENDBLK
  5
57C
330
571
100
AcDbEntity
  8
0
100
AcDbBlockEnd
  0
BLOCK
  5
587
330
57D
100
AcDbEntity
  8
0
100
AcDbBlockBegin
  2
*D68
 70
     1
 10
0.0
 20
0.0
 30
0.0
  3
*D68
  1

  0
LINE
  5
57E
330
57D
100
AcDbEntity
  8
0
 62
   123
100
AcDbLine
 10
48.08531719114944
 20
346.688954323833
 30
0.0
 11
48.08531719114944
 21
363.8567494497391
 31
0.0
  0
LINE
  5
57F
330
57D
100
AcDbEntity
  8
0
 62
   123
100
AcDbLine
 10
118.0853171911494
 20
346.688954323833
 30
0.0
 11
118.0853171911494
 21
363.8567494497391
 31
0.0
  0
LINE
  5
580
330
57D
100
AcDbEntity
  8
0
 62
   123
100
AcDbLine
 10
50.58531719114944
 20
363.2567494497391
 30
0.0
 11
115.5853171911494
 21
363.2567494497391
 31
0.0
  0
SOLID
  5
581
330
57D
100
AcDbEntity
  8
0
 62
   123
100
AcDbTrace
 10
50.58531719114944
 20
363.6734161164058
 30
0.0
 11
50.58531719114944
 21
362.8400827830724
 31
0.0
 12
48.08531719114944
 22
363.2567494497391
 32
0.0
 13
48.08531719114944
 23
363.2567494497391
 33
0.0
  0
SOLID
  5
582
330
57D
100
AcDbEntity
  8
0
 62
   123
100
AcDbTrace
 10
115.5853171911494
 20
363.6734161164058
 30
0.0
 11
115.5853171911494
 21
362.8400827830724
 31
0.0
 12
118.0853171911494
 22
363.2567494497391
 32
0.0
 13
118.0853171911494
 23
363.2567494497391
 33
0.0
  0
MTEXT
  5
583
330
57D
100
AcDbEntity
  8
0
 62
     3
100
AcDbMText
 10
83.08531719114943
 20
365.7567494497391
 30
0.0
 40
3.0
 41
0.0
 71
     5
 72
     1
  1
\A1;70
1001
ACAD
1000
MTEXTBEGIN
1070
    73
1070
     1
1070
    44
1040
1.0
1070
    74
1070
     0
1000
MTEXTEND
  0
POINT
  5
584
330
57D
100
AcDbEntity
  8
DEFPOINTS
 62
     0
100
AcDbPoint
 10
48.08531719114944
 20
345.688954323833
 30
0.0
  0
POINT
  5
585
330
57D
100
AcDbEntity
  8
DEFPOINTS
 62
     0
100
AcDbPoint
 10
118.0853171911494
 20
345.688954323833
 30
0.0
  0
POINT
  5
586
330
57D
100
AcDbEntity
  8
DEFPOINTS
 62
     0
100
AcDbPoint
 10
118.0853171911494
 20
363.2567494497391
 30
0.0
  0
ENDBLK
  5
588
330
57D
100
AcDbEntity
  8
0
100
AcDbBlockEnd
  0
BLOCK
  5
593
330
589
100
AcDbEntity
  8
0
100
AcDbBlockBegin
  2
*D69
 70
     1
 10
0.0
 20
0.0
 30
0.0
  3
*D69
  1

  0
LINE
  5
58A
330
589
100
AcDbEntity
  8
0
 62
   123
100
AcDbLine
 10
161.6466791933999
 20
319.5284543238329
 30
0.0
 11
161.6466791933999
 21
370.8760321482651
 31
0.0
  0
LINE
  5
58B
330
589
100
AcDbEntity
  8
0
 62
   123
100
AcDbLine
 10
174.6466791933999
 20
351.688954323833
 30
0.0
 11
174.6466791933999
 21
370.8760321482651
 31
0.0
  0
LINE
  5
58C
330
589
100
AcDbEntity
  8
0
 62
   123
100
AcDbLine
 10
164.1466791933999
 20
370.2760321482651
 30
0.0
 11
172.1466791933998
 21
370.2760321482651
 31
0.0
  0
SOLID
  5
58D
330
589
100
AcDbEntity
  8
0
 62
   123
100
AcDbTrace
 10
164.1466791933999
 20
370.6926988149318
 30
0.0
 11
164.1466791933999
 21
369.8593654815984
 31
0.0
 12
161.6466791933999
 22
370.2760321482651
 32
0.0
 13
161.6466791933999
 23
370.2760321482651
 33
0.0
  0
SOLID
  5
58E
330
589
100
AcDbEntity
  8
0
 62
   123
100
AcDbTrace
 10
172.1466791933998
 20
370.6926988149318
 30
0.0
 11
172.1466791933998
 21
369.8593654815984
 31
0.0
 12
174.6466791933999
 22
370.2760321482651
 32
0.0
 13
174.6466791933999
 23
370.2760321482651
 33
0.0
  0
MTEXT
  5
58F
330
589
100
AcDbEntity
  8
0
 62
     3
100
AcDbMText
 10
168.1466791933999
 20
372.7760321482651
 30
0.0
 40
3.0
 41
0.0
 71
     5
 72
     1
  1
\A1;13
1001
ACAD
1000
MTEXTBEGIN
1070
    73
1070
     1
1070
    44
1040
1.0
1070
    74
1070
     0
1000
MTEXTEND
  0
POINT
  5
590
330
589
100
AcDbEntity
  8
DEFPOINTS
 62
     0
100
AcDbPoint
 10
161.6466791933999
 20
318.5284543238328
 30
0.0
  0
POINT
  5
591
330
589
100
AcDbEntity
  8
DEFPOINTS
 62
     0
100
AcDbPoint
 10
174.6466791933999
 20
350.688954323833
 30
0.0
  0
POINT
  5
592
330
589
100
AcDbEntity
  8
DEFPOINTS
 62
     0
100
AcDbPoint
 10
174.6466791933999
 20
370.2760321482651
 30
0.0
  0
ENDBLK
  5
594
330
589
100
AcDbEntity
  8
0
100
AcDbBlockEnd
  0
BLOCK
  5
5A1
330
595
100
AcDbEntity
  8
0
100
AcDbBlockBegin
  2
*D70
 70
     1
 10
0.0
 20
0.0
 30
0.0
  3
*D70
  1

  0
LINE
  5
596
330
595
100
AcDbEntity
  8
0
 62
   123
100
AcDbLine
 10
172.6466791933908
 20
348.6889543238321
 30
0.0
 11
172.6466791933908
 21
360.7498234703099
 31
0.0
  0
LINE
  5
597
330
595
100
AcDbEntity
  8
0
 62
   123
100
AcDbLine
 10
174.6466791933999
 20
351.688954323833
 30
0.0
 11
174.6466791933999
 21
360.7498234703099
 31
0.0
  0
LINE
  5
598
330
595
100
AcDbEntity
  8
0
 62
   123
100
AcDbLine
 10
177.1466791933999
 20
360.1498234703099
 30
0.0
 11
179.6466791933999
 21
360.1498234703099
 31
0.0
  0
LINE
  5
599
330
595
100
AcDbEntity
  8
0
 62
   123
100
AcDbLine
 10
170.1466791933908
 20
360.1498234703099
 30
0.0
 11
163.6466791933908
 21
360.1498234703099
 31
0.0
  0
LINE
  5
59A
330
595
100
AcDbEntity
  8
0
 62
   123
100
AcDbLine
 10
174.6466791933999
 20
360.1498234703099
 30
0.0
 11
172.6466791933908
 21
360.1498234703099
 31
0.0
  0
SOLID
  5
59B
330
595
100
AcDbEntity
  8
0
 62
   123
100
AcDbTrace
 10
177.1466791933999
 20
360.5664901369765
 30
0.0
 11
177.1466791933999
 21
359.7331568036432
 31
0.0
 12
174.6466791933999
 22
360.1498234703099
 32
0.0
 13
174.6466791933999
 23
360.1498234703099
 33
0.0
  0
SOLID
  5
59C
330
595
100
AcDbEntity
  8
0
 62
   123
100
AcDbTrace
 10
170.1466791933908
 20
360.5664901369765
 30
0.0
 11
170.1466791933908
 21
359.7331568036432
 31
0.0
 12
172.6466791933908
 22
360.1498234703099
 32
0.0
 13
172.6466791933908
 23
360.1498234703099
 33
0.0
  0
MTEXT
  5
59D
330
595
100
AcDbEntity
  8
0
 62
     3
100
AcDbMText
 10
165.6466791933908
 20
362.6498234703099
 30
0.0
 40
3.0
 41
0.0
 71
     5
 72
     1
  1
\A1;2
1001
ACAD
1000
MTEXTBEGIN
1070
    73
1070
     1
1070
    44
1040
1.0
1070
    74
1070
     0
1000
MTEXTEND
  0
POINT
  5
59E
330
595
100
AcDbEntity
  8
DEFPOINTS
 62
     0
100
AcDbPoint
 10
172.6466791933908
 20
347.6889543238321
 30
0.0
  0
POINT
  5
59F
330
595
100
AcDbEntity
  8
DEFPOINTS
 62
     0
100
AcDbPoint
 10
174.6466791933999
 20
350.688954323833
 30
0.0
  0
POINT
  5
5A0
330
595
100
AcDbEntity
  8
DEFPOINTS
 62
     0
100
AcDbPoint
 10
174.6466791933999
 20
360.1498234703099
 30
0.0
  0
ENDBLK
  5
5A2
330
595
100
AcDbEntity
  8
0
100
AcDbBlockEnd
  0
BLOCK
  5
5AD
330
5A3
100
AcDbEntity
  8
0
100
AcDbBlockBegin
  2
*D71
 70
     1
 10
0.0
 20
0.0
 30
0.0
  3
*D71
  1

  0
LINE
  5
5A4
330
5A3
100
AcDbEntity
  8
0
 62
   123
100
AcDbLine
 10
174.6466791933999
 20
351.688954323833
 30
0.0
 11
174.6466791933999
 21
370.8760321482651
 31
0.0
  0
LINE
  5
5A5
330
5A3
100
AcDbEntity
  8
0
 62
   123
100
AcDbLine
 10
204.6466791933908
 20
351.688954323833
 30
0.0
 11
204.6466791933908
 21
370.8760321482651
 31
0.0
  0
LINE
  5
5A6
330
5A3
100
AcDbEntity
  8
0
 62
   123
100
AcDbLine
 10
177.1466791933999
 20
370.2760321482651
 30
0.0
 11
202.1466791933907
 21
370.2760321482651
 31
0.0
  0
SOLID
  5
5A7
330
5A3
100
AcDbEntity
  8
0
 62
   123
100
AcDbTrace
 10
177.1466791933999
 20
370.6926988149318
 30
0.0
 11
177.1466791933999
 21
369.8593654815984
 31
0.0
 12
174.6466791933999
 22
370.2760321482651
 32
0.0
 13
174.6466791933999
 23
370.2760321482651
 33
0.0
  0
SOLID
  5
5A8
330
5A3
100
AcDbEntity
  8
0
 62
   123
100
AcDbTrace
 10
202.1466791933907
 20
370.6926988149318
 30
0.0
 11
202.1466791933907
 21
369.8593654815984
 31
0.0
 12
204.6466791933908
 22
370.2760321482651
 32
0.0
 13
204.6466791933908
 23
370.2760321482651
 33
0.0
  0
MTEXT
  5
5A9
330
5A3
100
AcDbEntity
  8
0
 62
     3
100
AcDbMText
 10
189.6466791933908
 20
372.7760321482651
 30
0.0
 40
3.0
 41
0.0
 71
     5
 72
     1
  1
\A1;30
1001
ACAD
1000
MTEXTBEGIN
1070
    73
1070
     1
1070
    44
1040
1.0
1070
    74
1070
     0
1000
MTEXTEND
  0
POINT
  5
5AA
330
5A3
100
AcDbEntity
  8
DEFPOINTS
 62
     0
100
AcDbPoint
 10
174.6466791933999
 20
350.688954323833
 30
0.0
  0
POINT
  5
5AB
330
5A3
100
AcDbEntity
  8
DEFPOINTS
 62
     0
100
AcDbPoint
 10
204.6466791933908
 20
350.688954323833
 30
0.0
  0
POINT
  5
5AC
330
5A3
100
AcDbEntity
  8
DEFPOINTS
 62
     0
100
AcDbPoint
 10
204.6466791933908
 20
370.2760321482651
 30
0.0
  0
ENDBLK
  5
5AE
330
5A3
100
AcDbEntity
  8
0
100
AcDbBlockEnd
  0
ENDSEC
  0
SECTION
  2
ENTITIES
  0
LINE
  5
9D
330
2
100
AcDbEntity
  8
1
  6
BYBLOCK
 62
     0
100
AcDbLine
 10
287.6421100040279
 20
110.678726909236
 30
0.0
 11
287.6421100040279
 21
83.13872690923473
 31
0.0
  0
LINE
  5
A0
330
2
100
AcDbEntity
  8
1
  6
BYBLOCK
 62
     0
100
AcDbLine
 10
198.7051629379093
 20
110.678726909236
 30
0.0
 11
198.7051629379093
 21
83.13872690923473
 31
0.0
  0
LINE
  5
A1
330
2
100
AcDbEntity
  8
1
  6
BYBLOCK
 62
     0
100
AcDbLine
 10
174.8883797399903
 20
110.678726909236
 30
0.0
 11
174.8883797399903
 21
83.13872690923473
 31
0.0
  0
DIMENSION
  5
A2
330
2
100
AcDbEntity
  8
0
100
AcDbDimension
  2
*D38
 10
56.86916922303864
 20
87.43860085250208
 30
0.0
 11
56.86916922303862
 21
102.2880626465921
 31
0.0
 70
   160
  1
\A1;<>{\f??|b0|i0|c0|p49;\H0.7x;\S+0^ -0.03;}
  3
STANDARD
100
AcDbAlignedDimension
 13
48.70011406757839
 23
83.43860085250071
 33
0.0
 14
48.70011406757839
 24
87.43860085250208
 34
0.0
 50
90.0
100
AcDbRotatedDimension
  0
LINE
  5
B3
330
2
100
AcDbEntity
  8
1
  6
BYBLOCK
 62
     0
100
AcDbLine
 10
228.398196923501
 20
110.678726909236
 30
0.0
 11
228.398196923501
 21
83.13872690923473
 31
0.0
  0
DIMENSION
  5
B4
102
{ACAD_XDICTIONARY
360
B5
102
}
102
{ACAD_REACTORS
330
B6
102
}
330
2
100
AcDbEntity
  8
0
100
AcDbDimension
  2
*D37
 10
130.3014795890176
 20
88.83830556550492
 30
0.0
 11
130.3014795890176
 21
105.0454484226479
 31
0.0
 70
   160
  1
\A1;<>{\f??|b0|i0|c0|p49;\H0.7x;\S+0.1^ -0;\H1.429x; }
  3
STANDARD
100
AcDbAlignedDimension
 13
114.804147094841
 23
86.33830556550492
 33
0.0
 14
112.804147094841
 24
88.83830556550492
 34
0.0
 50
90.0
100
AcDbRotatedDimension
  0
LINE
  5
C5
330
2
100
AcDbEntity
  8
CEN
 48
0.6
100
AcDbLine
 10
30.0
 20
-71.33115251418303
 30
0.0
 11
30.0
 21
52.74591522663604
 31
0.0
  0
DIMENSION
  5
C7
330
2
100
AcDbEntity
  8
0
100
AcDbDimension
  2
*D41
 10
65.0
 20
-80.23680455448085
 30
0.0
 11
30.21876060382783
 21
-80.23680455448085
 31
0.0
 70
   160
  3
STANDARD
100
AcDbAlignedDimension
 13
-5.0
 23
-61.0
 33
0.0
 14
65.0
 24
-61.63875597494371
 34
0.0
100
AcDbRotatedDimension
  0
DIMENSION
  5
D4
102
{ACAD_XDICTIONARY
360
D5
102
}
102
{ACAD_REACTORS
330
D6
102
}
330
2
100
AcDbEntity
  8
0
100
AcDbDimension
  2
*D40
 10
203.404637911899
 20
-87.31445900494009
 30
0.0
 11
242.4136197459501
 21
-87.31445900494009
 31
0.0
 70
   160
  3
STANDARD
100
AcDbAlignedDimension
 13
283.404637911899
 23
-62.0
 33
0.0
 14
203.404637911899
 24
-65.50000000000181
 34
0.0
100
AcDbRotatedDimension
  0
DIMENSION
  5
E3
102
{ACAD_XDICTIONARY
360
E4
102
}
102
{ACAD_REACTORS
330
E5
102
}
330
2
100
AcDbEntity
  8
0
100
AcDbDimension
  2
*D39
 10
210.4046379119081
 20
-76.83340861205806
 30
0.0
 11
206.904637911899
 21
-76.83340861205806
 31
0.0
 70
   160
  3
STANDARD
100
AcDbAlignedDimension
 13
203.404637911899
 23
-65.50000000000181
 33
0.0
 14
210.4046379119081
 24
-63.59873734153007
 34
0.0
100
AcDbRotatedDimension
  0
LEADER
  5
F2
330
2
100
AcDbEntity
  8
0
100
AcDbLeader
  3
STANDARD
 73
     0
 74
     0
 75
     1
 40
3.0
 41
26.65178571428571
 76
     3
 10
59.70773037810977
 20
-61.09445352331704
 30
0.0
 10
73.59972056084917
 20
-78.50312700471113
 30
0.0
 10
76.09972056084917
 20
-78.50312700471113
 30
0.0
340
F3
1001
ACAD
1000
DSTYLE
1002
{
1070
     5
1000

1070
    77
1070
     1
1070
   147
1040
1.0
1070
   342
1005
0
1002
}
  0
MTEXT
  5
F3
102
{ACAD_REACTORS
330
F2
102
}
330
2
100
AcDbEntity
  8
0
 62
     3
100
AcDbMText
 10
77.09972056084916
 20
-76.00312700471113
 30
0.0
 40
3.0
 41
0.0
 71
     4
 72
     1
  1
4-%%c5.5 hole
1001
ACAD
1000
MTEXTBEGIN
1070
    73
1070
     1
1070
    44
1040
1.0
1070
    74
1070
     0
1000
MTEXTEND
  0
LWPOLYLINE
  5
F4
330
2
100
AcDbEntity
  8
0
 62
   123
100
AcDbPolyline
 90
        4
 70
     1
 43
0.0
 10
23.72385361887609
 20
-79.44331684772078
 10
27.02385361887718
 20
-79.44331684772078
 10
27.02385361887718
 20
-75.94331684772078
 10
23.72385361887609
 20
-75.94331684772078
  0
LINE
  5
F5
102
{ACAD_REACTORS
330
196
102
}
330
2
100
AcDbEntity
  8
CEN
 48
0.6
100
AcDbLine
 10
172.9803851035685
 20
-15.0
 30
0.0
 11
125.5064991106792
 21
-15.0
 31
0.0
  0
DIMENSION
  5
F6
102
{ACAD_XDICTIONARY
360
F7
102
}
102
{ACAD_REACTORS
330
F8
102
}
330
2
100
AcDbEntity
  8
0
100
AcDbDimension
  2
*D44
 10
158.404637911899
 20
21.60574275424687
 30
0.0
 11
159.904637911899
 21
21.60574275424687
 31
0.0
 70
   160
  3
STANDARD
100
AcDbAlignedDimension
 13
161.404637911899
 23
5.0
 33
0.0
 14
158.404637911899
 24
-0.5
 34
0.0
 50
180.0
100
AcDbRotatedDimension
  0
LINE
  5
107
102
{ACAD_REACTORS
330
196
102
}
330
2
100
AcDbEntity
  8
CEN
  6
BYBLOCK
 62
     0
100
AcDbLine
 10
158.404637911899
 20
-20.0
 30
0.0
 11
129.404637911899
 21
-20.0
 31
0.0
  0
DIMENSION
  5
108
102
{ACAD_XDICTIONARY
360
109
102
}
102
{ACAD_REACTORS
330
10A
102
}
330
2
100
AcDbEntity
  8
0
100
AcDbDimension
  2
*D43
 10
161.404637911899
 20
33.12964794681602
 30
0.0
 11
145.404637911899
 21
33.12964794681602
 31
0.0
 70
   160
  3
STANDARD
100
AcDbAlignedDimension
 13
129.404637911899
 23
-10.0
 33
0.0
 14
161.404637911899
 24
5.0
 34
0.0
100
AcDbRotatedDimension
  0
LINE
  5
117
102
{ACAD_REACTORS
330
196
330
186
330
1A5
330
10A
102
}
330
2
100
AcDbEntity
  8
CEN
  6
BYBLOCK
 62
     0
100
AcDbLine
 10
158.404637911899
 20
-10.0
 30
0.0
 11
129.404637911899
 21
-10.0
 31
0.0
  0
DIMENSION
  5
118
330
2
100
AcDbEntity
  8
0
100
AcDbDimension
  2
*D42
 10
97.23859198946048
 20
-29.99999999999998
 30
0.0
 11
97.23859198946048
 21
-15.25
 31
0.0
 70
   160
  1
{\f??|b0|i0|c0|p49;%%c}<>
  3
STANDARD
100
AcDbAlignedDimension
 13
159.154637911899
 23
0.0
 33
0.0
 14
146.0449196665995
 24
-30.0
 34
0.0
 50
90.0
100
AcDbRotatedDimension
  0
LINE
  5
125
330
2
100
AcDbEntity
  8
CEN
 48
0.6
100
AcDbLine
 10
288.9429368389701
 20
-30.0
 30
0.0
 11
146.0449196665995
 21
-30.0
 31
0.0
  0
CIRCLE
  5
126
330
2
100
AcDbEntity
  8
0
100
AcDbCircle
 10
30.0
 20
-15.0
 30
0.0
 40
5.0
  0
CIRCLE
  5
127
330
2
100
AcDbEntity
  8
0
100
AcDbCircle
 10
30.0
 20
-15.0
 30
0.0
 40
15.0
  0
DIMENSION
  5
128
330
2
100
AcDbEntity
  8
0
100
AcDbDimension
  2
*D53
 10
-3.721490918920057
 20
-53.32082867749875
 30
0.0
 11
89.00667461074045
 21
10.80734605524275
 31
0.0
 70
   163
  1
<>%%P0.5
  3
STANDARD
100
AcDbDiametricDimension
 15
63.72149091890733
 25
-6.679171322486251
 35
0.0
 40
0.0
  0
LINE
  5
134
330
2
100
AcDbEntity
  8
0
 48
0.6
100
AcDbLine
 10
-5.0
 20
0.0
 30
0.0
 11
-5.0
 21
-60.0
 31
0.0
  0
LINE
  5
135
330
2
100
AcDbEntity
  8
0
 48
0.6
100
AcDbLine
 10
65.0
 20
0.0
 30
0.0
 11
65.0
 21
-60.0
 31
0.0
  0
CIRCLE
  5
136
330
2
100
AcDbEntity
  8
0
100
AcDbCircle
 10
30.0
 20
-30.0
 30
0.0
 40
32.0
  0
LINE
  5
137
330
2
100
AcDbEntity
  8
CEN
 48
0.6
100
AcDbLine
 10
-9.597634719852067
 20
-29.99999999999909
 30
0.0
 11
69.59763471984115
 21
-29.99999999999909
 31
0.0
  0
LINE
  5
138
330
2
100
AcDbEntity
  8
CEN
 48
0.6
100
AcDbLine
 10
11.15833712432868
 20
-15.0
 30
0.0
 11
48.8416628756695
 21
-15.0
 31
0.0
  0
ARC
  5
139
330
2
100
AcDbEntity
  8
CEN
 48
0.6
100
AcDbCircle
 10
30.0
 20
-30.0
 30
0.0
 40
41.0
100
AcDbArc
 50
308.3583564286569
 51
321.6416435713429
  0
LINE
  5
13A
330
2
100
AcDbEntity
  8
CEN
 48
0.6
100
AcDbLine
 10
55.63262081801076
 20
-55.63262081800394
 30
0.0
 11
62.35013523928865
 21
-62.350135239275
 31
0.0
  0
CIRCLE
  5
13B
330
2
100
AcDbEntity
  8
0
100
AcDbCircle
 10
58.9913780286497
 20
-58.99137802863879
 30
0.0
 40
2.75
  0
LINE
  5
13C
330
2
100
AcDbEntity
  8
CEN
 48
0.6
100
AcDbLine
 10
4.367379181976502
 20
-55.63262081801394
 30
0.0
 11
-2.350135239290466
 21
-62.3501352392891
 31
0.0
  0
CIRCLE
  5
13D
330
2
100
AcDbEntity
  8
0
100
AcDbCircle
 10
1.008621971350294
 20
-58.99137802865289
 30
0.0
 40
2.75
  0
ARC
  5
13E
330
2
100
AcDbEntity
  8
CEN
 48
0.6
100
AcDbCircle
 10
29.9999999999909
 20
-29.99999999999499
 30
0.0
 40
41.0
100
AcDbArc
 50
214.1535113474703
 51
235.8464886524934
  0
LINE
  5
13F
330
2
100
AcDbEntity
  8
0
 48
0.6
100
AcDbLine
 10
0.0
 20
-65.0
 30
0.0
 11
60.0
 21
-65.0
 31
0.0
  0
LINE
  5
140
330
2
100
AcDbEntity
  8
0
 48
0.6
100
AcDbLine
 10
47.37948010727814
 20
-65.0
 30
0.0
 11
41.63842988074975
 21
-65.0
 31
0.0
  0
ARC
  5
141
330
2
100
AcDbEntity
  8
0
 48
0.6
100
AcDbCircle
 10
0.0
 20
-60.0
 30
0.0
 40
5.0
100
AcDbArc
 50
180.0
 51
270.0
  0
ARC
  5
142
330
2
100
AcDbEntity
  8
0
 48
0.6
100
AcDbCircle
 10
60.0
 20
-60.0
 30
0.0
 40
5.0
100
AcDbArc
 50
270.0
 51
0.0
  0
ARC
  5
143
330
2
100
AcDbEntity
  8
CEN
 48
0.6
100
AcDbCircle
 10
29.9999999999909
 20
-29.99999999998908
 30
0.0
 40
41.0
100
AcDbArc
 50
128.358356428657
 51
141.6416435713428
  0
LINE
  5
144
330
2
100
AcDbEntity
  8
CEN
 48
0.6
100
AcDbLine
 10
4.367379181967407
 20
-4.367379181982869
 30
0.0
 11
-2.350135239299561
 21
2.350135239288192
 31
0.0
  0
CIRCLE
  5
145
330
2
100
AcDbEntity
  8
0
100
AcDbCircle
 10
1.00862197133938
 20
-1.008621971351203
 30
0.0
 40
2.75
  0
CIRCLE
  5
146
330
2
100
AcDbEntity
  8
0
100
AcDbCircle
 10
58.99137802864061
 20
-1.008621971334832
 30
0.0
 40
2.75
  0
LINE
  5
147
330
2
100
AcDbEntity
  8
CEN
 48
0.6
100
AcDbLine
 10
55.63262081799985
 20
-4.367379181972864
 30
0.0
 11
62.35013523926681
 21
2.350135239300925
 31
0.0
  0
ARC
  5
148
330
2
100
AcDbEntity
  8
CEN
 48
0.6
100
AcDbCircle
 10
30.0
 20
-29.99999999999227
 30
0.0
 40
41.0
100
AcDbArc
 50
34.15351134747047
 51
55.84648865249334
  0
LINE
  5
149
330
2
100
AcDbEntity
  8
0
100
AcDbLine
 10
30.0
 20
48.0
 30
0.0
 11
58.52830600000015
 21
48.0
 31
0.0
  0
LINE
  5
14A
330
2
100
AcDbEntity
  8
0
100
AcDbLine
 10
30.0
 20
13.0
 30
0.0
 11
61.0
 21
13.0
 31
0.0
  0
LINE
  5
14B
330
2
100
AcDbEntity
  8
0
100
AcDbLine
 10
45.0
 20
7.0
 30
0.0
 11
59.57986800000071
 21
7.0
 31
0.0
  0
DIMENSION
  5
14C
102
{ACAD_XDICTIONARY
360
14D
102
}
102
{ACAD_REACTORS
330
14E
102
}
330
2
100
AcDbEntity
  8
0
100
AcDbDimension
  2
*D52
 10
61.0
 20
59.18235576318512
 30
0.0
 11
30.0
 21
59.18235576318512
 31
0.0
 70
   160
  3
STANDARD
100
AcDbAlignedDimension
 13
-1.0
 23
13.0
 33
0.0
 14
61.0
 24
13.0
 34
0.0
100
AcDbRotatedDimension
  0
LINE
  5
15B
330
2
100
AcDbEntity
  8
0
100
AcDbLine
 10
61.0
 20
13.69999999999981
 30
0.0
 11
-1.0
 21
13.69999999999981
 31
0.0
  0
LINE
  5
15C
330
2
100
AcDbEntity
  8
0
 48
0.6
100
AcDbLine
 10
0.0
 20
5.0
 30
0.0
 11
60.0
 21
5.0
 31
0.0
  0
LINE
  5
15D
330
2
100
AcDbEntity
  8
0
100
AcDbLine
 10
45.0
 20
7.0
 30
0.0
 11
45.0
 21
5.0
 31
0.0
  0
LINE
  5
15E
330
2
100
AcDbEntity
  8
0
100
AcDbLine
 10
15.0
 20
7.0
 30
0.0
 11
0.4201329999996233
 21
7.0
 31
0.0
  0
ARC
  5
15F
330
2
100
AcDbEntity
  8
0
100
AcDbCircle
 10
1.471695000000181
 20
47.5
 30
0.0
 40
0.5
100
AcDbArc
 50
90.0
 51
176.6629169999623
  0
LINE
  5
160
330
2
100
AcDbEntity
  8
0
100
AcDbLine
 10
3.0
 20
6.0
 30
0.0
 11
3.0
 21
5.0
 31
0.0
  0
ARC
  5
161
330
2
100
AcDbEntity
  8
0
100
AcDbCircle
 10
2.0
 20
6.0
 30
0.0
 40
1.0
100
AcDbArc
 50
0.0
 51
90.0
  0
LINE
  5
162
330
2
100
AcDbEntity
  8
0
100
AcDbLine
 10
-0.2999999999992724
 20
13.69999999999981
 30
0.0
 11
-0.2999999999992724
 21
13.0
 31
0.0
  0
LINE
  5
163
330
2
100
AcDbEntity
  8
0
100
AcDbLine
 10
-0.5764120000003459
 20
7.916955000001053
 30
0.0
 11
-1.0
 21
13.0
 31
0.0
  0
ARC
  5
164
330
2
100
AcDbEntity
  8
0
100
AcDbCircle
 10
0.4201329999996233
 20
8.0
 30
0.0
 40
1.0
100
AcDbArc
 50
184.7636420000051
 51
270.0
  0
LINE
  5
165
330
2
100
AcDbEntity
  8
0
100
AcDbLine
 10
-1.0
 20
13.69999999999981
 30
0.0
 11
0.9725429999998596
 21
47.52910500000098
 31
0.0
  0
ARC
  5
166
330
2
100
AcDbEntity
  8
0
 48
0.6
100
AcDbCircle
 10
0.0
 20
0.0
 30
0.0
 40
5.0
100
AcDbArc
 50
90.0
 51
180.0
  0
LINE
  5
167
330
2
100
AcDbEntity
  8
0
100
AcDbLine
 10
15.0
 20
7.0
 30
0.0
 11
15.0
 21
5.0
 31
0.0
  0
LINE
  5
168
330
2
100
AcDbEntity
  8
0
100
AcDbLine
 10
30.0
 20
48.0
 30
0.0
 11
1.471695000000181
 21
48.0
 31
0.0
  0
LINE
  5
169
102
{ACAD_REACTORS
330
14E
102
}
330
2
100
AcDbEntity
  8
0
100
AcDbLine
 10
30.0
 20
13.0
 30
0.0
 11
-1.0
 21
13.0
 31
0.0
  0
LINE
  5
16A
330
2
100
AcDbEntity
  8
0
100
AcDbLine
 10
60.29999999999927
 20
13.69999999999981
 30
0.0
 11
60.29999999999927
 21
13.0
 31
0.0
  0
LINE
  5
16B
102
{ACAD_REACTORS
330
14E
102
}
330
2
100
AcDbEntity
  8
0
100
AcDbLine
 10
60.57641300000068
 20
7.916955000001053
 30
0.0
 11
61.0
 21
13.0
 31
0.0
  0
LINE
  5
16C
330
2
100
AcDbEntity
  8
0
100
AcDbLine
 10
61.0
 20
13.69999999999981
 30
0.0
 11
59.02745800000047
 21
47.52910500000098
 31
0.0
  0
ARC
  5
16D
330
2
100
AcDbEntity
  8
0
100
AcDbCircle
 10
59.57986800000071
 20
8.0
 30
0.0
 40
1.0
100
AcDbArc
 50
270.0
 51
355.2363579999948
  0
LINE
  5
16E
330
2
100
AcDbEntity
  8
0
100
AcDbLine
 10
57.0
 20
6.0
 30
0.0
 11
57.0
 21
5.0
 31
0.0
  0
ARC
  5
16F
330
2
100
AcDbEntity
  8
0
100
AcDbCircle
 10
58.0
 20
6.0
 30
0.0
 40
1.0
100
AcDbArc
 50
90.0
 51
180.0
  0
ARC
  5
170
330
2
100
AcDbEntity
  8
0
100
AcDbCircle
 10
58.52830600000015
 20
47.5
 30
0.0
 40
0.5
100
AcDbArc
 50
3.337083000037623
 51
90.0
  0
ARC
  5
171
330
2
100
AcDbEntity
  8
0
 48
0.6
100
AcDbCircle
 10
60.0
 20
0.0
 30
0.0
 40
5.0
100
AcDbArc
 50
0.0
 51
90.0
  0
DIMENSION
  5
172
330
2
100
AcDbEntity
  8
0
100
AcDbDimension
  2
*D51
 10
72.32915642334957
 20
47.99999999999818
 30
0.0
 11
72.32915642334956
 21
28.13762955595075
 31
0.0
 70
   160
  3
STANDARD
100
AcDbAlignedDimension
 13
60.0
 23
5.0
 33
0.0
 14
58.52830600000015
 24
47.99999999999818
 34
0.0
 50
90.0
100
AcDbRotatedDimension
  0
LINE
  5
17F
330
2
100
AcDbEntity
  8
0
 62
     0
100
AcDbLine
 10
32.10714459966766
 20
-10.46887112585091
 30
0.0
 11
32.10714459966766
 21
-12.5
 31
0.0
  0
LINE
  5
180
330
2
100
AcDbEntity
  8
0
100
AcDbLine
 10
28.10714459966766
 20
-12.5
 30
0.0
 11
32.10714459966766
 21
-12.5
 31
0.0
  0
LINE
  5
181
330
2
100
AcDbEntity
  8
0
 62
     0
100
AcDbLine
 10
28.10714459966766
 20
-10.46887112585091
 30
0.0
 11
28.10714459966766
 21
-12.5
 31
0.0
  0
LINE
  5
182
102
{ACAD_REACTORS
330
196
102
}
330
2
100
AcDbEntity
  8
CEN
  6
HIDDEN
 62
     2
100
AcDbLine
 10
154.4046379119081
 20
-12.5
 30
0.0
 11
129.404637911899
 21
-12.5
 31
0.0
  0
DIMENSION
  5
184
102
{ACAD_XDICTIONARY
360
185
102
}
102
{ACAD_REACTORS
330
186
102
}
330
2
100
AcDbEntity
  8
0
100
AcDbDimension
  2
*D50
 10
129.404637911899
 20
6.220288206903205
 30
0.0
 11
142.2155685792986
 21
6.220288206903205
 31
0.0
 70
   160
  3
STANDARD
100
AcDbAlignedDimension
 13
154.4046379119081
 23
-10.0
 33
0.0
 14
129.404637911899
 24
-10.0
 34
0.0
 50
180.0
100
AcDbRotatedDimension
  0
LINE
  5
193
102
{ACAD_REACTORS
330
186
102
}
330
2
100
AcDbEntity
  8
0
  6
HIDDEN
 62
     2
100
AcDbLine
 10
154.4046379119081
 20
-10.0
 30
0.0
 11
154.4046379119081
 21
-12.5
 31
0.0
  0
DIMENSION
  5
194
102
{ACAD_XDICTIONARY
360
195
102
}
102
{ACAD_REACTORS
330
196
102
}
330
2
100
AcDbEntity
  8
0
100
AcDbDimension
  2
*D49
 10
106.1323918094895
 20
-29.99999999999999
 30
0.0
 11
103.6323918094894
 21
-22.49999999999997
 31
0.0
 70
    32
  3
STANDARD
100
AcDbAlignedDimension
 13
125.5064991106792
 23
-15.0
 33
0.0
 14
145.0449196665995
 24
-30.0
 34
0.0
 50
90.0
100
AcDbRotatedDimension
  0
DIMENSION
  5
1A3
102
{ACAD_XDICTIONARY
360
1A4
102
}
102
{ACAD_REACTORS
330
1A5
102
}
330
2
100
AcDbEntity
  8
0
100
AcDbDimension
  2
*D48
 10
114.5799746229277
 20
-9.999999999999994
 30
0.0
 11
114.5799746229277
 21
16.01247108459574
 31
0.0
 70
   160
  1
\A1;{\f??|b0|i0|c0|p49;%%C10\H0.7x;\S+0^ -0.015;\H1.429x;(h7)}
  3
STANDARD
100
AcDbAlignedDimension
 13
129.404637911899
 23
-20.0
 33
0.0
 14
129.404637911899
 24
-10.0
 34
0.0
 50
90.0
100
AcDbRotatedDimension
  0
LINE
  5
1B4
102
{ACAD_REACTORS
330
1A5
102
}
330
2
100
AcDbEntity
  8
0
100
AcDbLine
 10
129.404637911899
 20
-10.0
 30
0.0
 11
129.404637911899
 21
-20.0
 31
0.0
  0
LINE
  5
1B5
330
2
100
AcDbEntity
  8
0
  6
CENTER
 62
     1
 48
0.4
100
AcDbLine
 10
112.804147094841
 20
93.81007020872084
 30
0.0
 11
112.804147094841
 21
73.18131198594528
 31
0.0
  0
CIRCLE
  5
1B6
102
{ACAD_REACTORS
330
B6
102
}
330
2
100
AcDbEntity
  8
0
100
AcDbCircle
 10
112.804147094841
 20
83.83830556550492
 30
0.0
 40
5.0
  0
LINE
  5
1B7
102
{ACAD_REACTORS
330
B6
102
}
330
2
100
AcDbEntity
  8
0
100
AcDbLine
 10
110.804147094841
 20
86.33830556550492
 30
0.0
 11
114.804147094841
 21
86.33830556550492
 31
0.0
  0
LINE
  5
1B8
102
{ACAD_REACTORS
330
1BC
102
}
330
2
100
AcDbEntity
  8
0
100
AcDbLine
 10
110.804147094841
 20
86.33830556550492
 30
0.0
 11
110.804147094841
 21
88.4208812604611
 31
0.0
  0
LINE
  5
1B9
102
{ACAD_REACTORS
330
1BC
102
}
330
2
100
AcDbEntity
  8
0
100
AcDbLine
 10
114.804147094841
 20
86.33830556550492
 30
0.0
 11
114.804147094841
 21
88.4208812604611
 31
0.0
  0
DIMENSION
  5
1BA
102
{ACAD_XDICTIONARY
360
1BB
102
}
102
{ACAD_REACTORS
330
1BC
102
}
330
2
100
AcDbEntity
  8
0
100
AcDbDimension
  2
*D47
 10
114.804147094841
 20
97.17989380543622
 30
0.0
 11
112.804147094841
 21
100.6298938054362
 31
0.0
 70
    32
  1
\A1;<>{\f??|b0|i0|c0|p49;\H0.7x;\S+0.40^ -0;}
  3
STANDARD
100
AcDbAlignedDimension
 13
110.804147094841
 23
88.4208812604611
 33
0.0
 14
114.804147094841
 24
88.4208812604611
 34
0.0
100
AcDbRotatedDimension
  0
LINE
  5
1CB
330
2
100
AcDbEntity
  8
0
  6
CENTER
 62
     1
 48
0.4
100
AcDbLine
 10
18.01322775086919
 20
85.43860085250207
 30
0.0
 11
53.51898137990975
 21
85.43860085250207
 31
0.0
  0
LINE
  5
1CC
330
2
100
AcDbEntity
  8
0
100
AcDbLine
 10
48.70011406757839
 20
87.43860085250208
 30
0.0
 11
48.70011406757839
 21
83.43860085250071
 31
0.0
  0
ARC
  5
1CD
102
{ACAD_REACTORS
330
1D2
102
}
330
2
100
AcDbEntity
  8
0
100
AcDbCircle
 10
25.70011406757839
 20
85.43860085250207
 30
0.0
 40
2.0
100
AcDbArc
 50
90.0
 51
270.0
  0
LINE
  5
1CE
330
2
100
AcDbEntity
  8
0
 48
0.2
100
AcDbLine
 10
25.70011406757839
 20
83.43860085250071
 30
0.0
 11
48.70011406757839
 21
83.43860085250071
 31
0.0
  0
LINE
  5
1CF
102
{ACAD_REACTORS
330
1D2
102
}
330
2
100
AcDbEntity
  8
0
 48
0.2
100
AcDbLine
 10
25.70011406757839
 20
87.43860085250208
 30
0.0
 11
48.70011406757839
 21
87.43860085250208
 31
0.0
  0
DIMENSION
  5
1D0
102
{ACAD_XDICTIONARY
360
1D1
102
}
102
{ACAD_REACTORS
330
1D2
102
}
330
2
100
AcDbEntity
  8
0
100
AcDbDimension
  2
*D46
 10
48.70011406757839
 20
95.24379483297707
 30
0.0
 11
36.20011406757839
 21
97.74379483297707
 31
0.0
 70
    32
  1
<>{\f??|b0|i0|c0|p49;%%p0.2}
  3
STANDARD
100
AcDbAlignedDimension
 13
23.70011406757839
 23
85.43860085250207
 33
0.0
 14
48.70011406757839
 24
87.43860085250208
 34
0.0
100
AcDbRotatedDimension
  0
LINE
  5
1DF
330
2
100
AcDbEntity
  8
0
  6
CENTER
 62
     1
 48
0.4
100
AcDbLine
 10
67.87076735428854
 20
89.4386008525007
 30
0.0
 11
67.87076735428854
 21
81.43860085250071
 31
0.0
  0
LINE
  5
1E0
330
2
100
AcDbEntity
  8
0
  6
CENTER
 62
     1
 48
0.4
100
AcDbLine
 10
63.87076735428855
 20
85.43860085250207
 30
0.0
 11
71.87076735428854
 21
85.43860085250207
 31
0.0
  0
LINE
  5
1E1
102
{ACAD_REACTORS
330
1E7
102
}
330
2
100
AcDbEntity
  8
0
100
AcDbLine
 10
69.87076735428854
 20
87.43860085250208
 30
0.0
 11
69.87076735428854
 21
83.43860085250071
 31
0.0
  0
LINE
  5
1E2
102
{ACAD_REACTORS
330
1E7
102
}
330
2
100
AcDbEntity
  8
0
100
AcDbLine
 10
65.87076735428855
 20
87.43860085250208
 30
0.0
 11
65.87076735428855
 21
83.43860085250071
 31
0.0
  0
LINE
  5
1E3
330
2
100
AcDbEntity
  8
0
 48
0.2
100
AcDbLine
 10
65.87076735428855
 20
83.43860085250071
 30
0.0
 11
69.87076735428854
 21
83.43860085250071
 31
0.0
  0
LINE
  5
1E4
330
2
100
AcDbEntity
  8
0
 48
0.2
100
AcDbLine
 10
65.87076735428855
 20
87.43860085250208
 30
0.0
 11
69.87076735428854
 21
87.43860085250208
 31
0.0
  0
DIMENSION
  5
1E5
102
{ACAD_XDICTIONARY
360
1E6
102
}
102
{ACAD_REACTORS
330
1E7
102
}
330
2
100
AcDbEntity
  8
0
100
AcDbDimension
  2
*D45
 10
69.87076735428854
 20
96.11307651113385
 30
0.0
 11
67.87076735428854
 21
99.56307651113384
 31
0.0
 70
    32
  1
\A1;<>{\f??|b0|i0|c0|p49;\H0.7x;\S+0^ -0.03;}
  3
STANDARD
100
AcDbAlignedDimension
 13
65.87076735428855
 23
87.43860085250208
 33
0.0
 14
69.87076735428854
 24
87.43860085250208
 34
0.0
100
AcDbRotatedDimension
  0
LINE
  5
1F6
330
2
100
AcDbEntity
  8
0
  6
CENTER
 62
     1
 48
0.4
100
AcDbLine
 10
104.1965077780678
 20
83.83830556550492
 30
0.0
 11
121.1300023242183
 21
83.83830556550492
 31
0.0
  0
LINE
  5
1F7
330
2
100
AcDbEntity
  8
0
100
AcDbLine
 10
303.4013049118984
 20
42.99999900000102
 30
0.0
 11
294.9013049118984
 21
42.99999900000102
 31
0.0
  0
LINE
  5
1F8
330
2
100
AcDbEntity
  8
0
100
AcDbLine
 10
304.9013049118984
 20
41.99999900000102
 30
0.0
 11
294.9013049118984
 21
41.99999900000102
 31
0.0
  0
LINE
  5
1F9
330
2
100
AcDbEntity
  8
0
100
AcDbLine
 10
303.4013049118984
 20
34.99999900000102
 30
0.0
 11
294.9013049118984
 21
34.99999900000102
 31
0.0
  0
LINE
  5
1FA
330
2
100
AcDbEntity
  8
0
100
AcDbLine
 10
303.4013049118984
 20
36.99999900000102
 30
0.0
 11
294.9013049118984
 21
36.99999900000102
 31
0.0
  0
LINE
  5
1FB
330
2
100
AcDbEntity
  8
0
100
AcDbLine
 10
303.8190309118999
 20
37.6999990000022
 30
0.0
 11
294.9013049118984
 21
37.6999990000022
 31
0.0
  0
LINE
  5
1FC
330
2
100
AcDbEntity
  8
0
100
AcDbLine
 10
304.1999129118994
 20
33.49999900000102
 30
0.0
 11
294.9013049118984
 21
33.49999900000102
 31
0.0
  0
LINE
  5
1FD
330
2
100
AcDbEntity
  8
0
100
AcDbLine
 10
303.4013049118984
 20
24.99999900000193
 30
0.0
 11
294.9013049118984
 21
24.99999900000193
 31
0.0
  0
LINE
  5
1FE
330
2
100
AcDbEntity
  8
0
100
AcDbLine
 10
304.1999129118994
 20
26.49999900000193
 30
0.0
 11
294.9013049118984
 21
26.49999900000193
 31
0.0
  0
LINE
  5
1FF
330
2
100
AcDbEntity
  8
0
100
AcDbLine
 10
303.4013049118984
 20
16.99999900000102
 30
0.0
 11
294.9013049118984
 21
16.99999900000102
 31
0.0
  0
LINE
  5
200
330
2
100
AcDbEntity
  8
0
100
AcDbLine
 10
304.9013049118984
 20
17.99999900000102
 30
0.0
 11
294.9013049118984
 21
17.99999900000102
 31
0.0
  0
LINE
  5
201
330
2
100
AcDbEntity
  8
0
100
AcDbLine
 10
303.4013049118984
 20
22.99999900000102
 30
0.0
 11
294.9013049118984
 21
22.99999900000102
 31
0.0
  0
LINE
  5
202
330
2
100
AcDbEntity
  8
0
100
AcDbLine
 10
303.8190309118999
 20
22.29999900000075
 30
0.0
 11
294.9013049118984
 21
22.29999900000075
 31
0.0
  0
LINE
  5
203
330
2
100
AcDbEntity
  8
0
100
AcDbLine
 10
294.9013049118984
 20
42.99999900000102
 30
0.0
 11
294.9013049118984
 21
16.99999900000102
 31
0.0
  0
LINE
  5
204
330
2
100
AcDbEntity
  8
0
100
AcDbLine
 10
294.9013049118984
 20
38.99999900000102
 30
0.0
 11
288.9013049118984
 21
38.99999900000102
 31
0.0
  0
LINE
  5
205
330
2
100
AcDbEntity
  8
0
100
AcDbLine
 10
294.9013049118984
 20
39.99999900000102
 30
0.0
 11
288.9013049118984
 21
39.99999900000102
 31
0.0
  0
LINE
  5
206
330
2
100
AcDbEntity
  8
0
100
AcDbLine
 10
294.9013049118984
 20
20.99999900000102
 30
0.0
 11
288.9013049118984
 21
20.99999900000102
 31
0.0
  0
LINE
  5
207
330
2
100
AcDbEntity
  8
0
100
AcDbLine
 10
294.9013049118984
 20
19.99999900000102
 30
0.0
 11
288.9013049118984
 21
19.99999900000102
 31
0.0
  0
LINE
  5
208
330
2
100
AcDbEntity
  8
0
100
AcDbLine
 10
288.9013049118984
 20
42.99999900000102
 30
0.0
 11
288.9013049118984
 21
16.99999900000102
 31
0.0
  0
ARC
  5
209
330
2
100
AcDbEntity
  8
0
100
AcDbCircle
 10
305.4013049118984
 20
24.69999900000221
 30
0.0
 40
6.718630999999999
100
AcDbArc
 50
274.2678929999494
 51
345.3432489999617
  0
ARC
  5
20A
330
2
100
AcDbEntity
  8
0
100
AcDbCircle
 10
305.4013049118984
 20
35.29999900000075
 30
0.0
 40
6.718630999999999
100
AcDbArc
 50
14.65675100003822
 51
85.7321070000504
  0
LINE
  5
20B
330
2
100
AcDbEntity
  8
0
100
AcDbLine
 10
303.4013049118984
 20
42.99999900000102
 30
0.0
 11
304.9013049118984
 21
41.99999900000102
 31
0.0
  0
LINE
  5
20C
330
2
100
AcDbEntity
  8
0
100
AcDbLine
 10
305.9013049118984
 20
41.99999900000102
 30
0.0
 11
304.9013049118984
 21
41.99999900000102
 31
0.0
  0
LINE
  5
20D
330
2
100
AcDbEntity
  8
0
100
AcDbLine
 10
303.4013049118984
 20
36.99999900000102
 30
0.0
 11
303.4013049118984
 21
34.99999900000102
 31
0.0
  0
ARC
  5
20E
330
2
100
AcDbEntity
  8
0
100
AcDbCircle
 10
295.8179719118998
 20
29.99999900000102
 30
0.0
 40
9.083332999999999
100
AcDbArc
 50
326.6015119999376
 51
33.39848800006242
  0
LINE
  5
20F
330
2
100
AcDbEntity
  8
0
100
AcDbLine
 10
303.4013049118984
 20
16.99999900000102
 30
0.0
 11
304.9013049118984
 21
17.99999900000102
 31
0.0
  0
LINE
  5
210
330
2
100
AcDbEntity
  8
0
100
AcDbLine
 10
305.9013049118984
 20
17.99999900000102
 30
0.0
 11
304.9013049118984
 21
17.99999900000102
 31
0.0
  0
ARC
  5
211
330
2
100
AcDbEntity
  8
0
100
AcDbCircle
 10
295.8179719118998
 20
17.99999900000102
 30
0.0
 40
9.083332999999999
100
AcDbArc
 50
0.0
 51
33.39848800006242
  0
LINE
  5
212
330
2
100
AcDbEntity
  8
0
100
AcDbLine
 10
303.4013049118984
 20
24.99999900000193
 30
0.0
 11
303.4013049118984
 21
22.99999900000102
 31
0.0
  0
LINE
  5
213
330
2
100
AcDbEntity
  8
0
100
AcDbLine
 10
304.9013049118984
 20
41.99999900000102
 30
0.0
 11
304.9013049118984
 21
17.99999900000102
 31
0.0
  0
ARC
  5
214
330
2
100
AcDbEntity
  8
0
100
AcDbCircle
 10
295.8179719118998
 20
41.99999900000102
 30
0.0
 40
9.083332999999999
100
AcDbArc
 50
326.6015119999376
 51
0.0
  0
LINE
  5
215
102
{ACAD_REACTORS
330
285
102
}
330
2
100
AcDbEntity
  8
0
100
AcDbLine
 10
311.9013049118984
 20
36.99999900000102
 30
0.0
 11
311.9013049118984
 21
22.99999900000102
 31
0.0
  0
DIMENSION
  5
216
102
{ACAD_XDICTIONARY
360
217
102
}
102
{ACAD_REACTORS
330
218
102
}
330
2
100
AcDbEntity
  8
0
100
AcDbDimension
  2
*D58
 10
208.904637911899
 20
60.05560350468522
 30
0.0
 11
206.154637911899
 21
60.05560350468522
 31
0.0
 70
   160
  3
STANDARD
100
AcDbAlignedDimension
 13
203.404637911899
 23
5.0
 33
0.0
 14
208.904637911899
 24
13.6999990000022
 34
0.0
100
AcDbRotatedDimension
  0
LINE
  5
227
330
2
100
AcDbEntity
  8
0
100
AcDbLine
 10
203.404637911899
 20
-65.50000000000181
 30
0.0
 11
161.9046379119081
 21
-65.5
 31
0.0
  0
DIMENSION
  5
228
102
{ACAD_XDICTIONARY
360
229
102
}
102
{ACAD_REACTORS
330
22A
102
}
330
2
100
AcDbEntity
  8
0
100
AcDbDimension
  2
*D57
 10
203.404637911899
 20
33.12964794681602
 30
0.0
 11
181.404637911899
 21
33.12964794681602
 31
0.0
 70
   160
  1
{\f??|b0|i0|c0|p49;L}
  3
STANDARD
100
AcDbAlignedDimension
 13
161.404637911899
 23
5.0
 33
0.0
 14
203.404637911899
 24
5.0
 34
0.0
100
AcDbRotatedDimension
  0
LINE
  5
237
330
2
100
AcDbEntity
  8
0
100
AcDbLine
 10
161.9046379119081
 20
5.5
 30
0.0
 11
203.404637911899
 21
5.5
 31
0.0
  0
TEXT
  5
238
330
2
100
AcDbEntity
  8
1
  6
BYBLOCK
 62
     0
100
AcDbText
 10
182.449504900358
 20
103.667539635207
 30
0.0
 40
4.589999999999998
  1
NO.
 41
0.8
  7
GHS
100
AcDbText
  0
ARC
  5
23A
330
2
100
AcDbEntity
  8
0
100
AcDbCircle
 10
161.9046379119081
 20
5.0
 30
0.0
 40
0.5
100
AcDbArc
 50
90.0
 51
180.0
  0
ARC
  5
23B
330
2
100
AcDbEntity
  8
0
100
AcDbCircle
 10
158.9046379119081
 20
-0.5
 30
0.0
 40
0.5
100
AcDbArc
 50
90.0
 51
180.0
  0
LINE
  5
23C
330
2
100
AcDbEntity
  8
0
100
AcDbLine
 10
158.9046379119081
 20
0.0
 30
0.0
 11
161.404637911899
 21
0.0
 31
0.0
  0
ARC
  5
23D
330
2
100
AcDbEntity
  8
0
100
AcDbCircle
 10
161.9046379119081
 20
-65.0
 30
0.0
 40
0.5
100
AcDbArc
 50
180.0
 51
270.0
  0
ARC
  5
23E
330
2
100
AcDbEntity
  8
0
100
AcDbCircle
 10
158.9046379119081
 20
-29.0
 30
0.0
 40
0.5
100
AcDbArc
 50
180.0
 51
270.0
  0
LINE
  5
23F
330
2
100
AcDbEntity
  8
0
100
AcDbLine
 10
158.9046379119081
 20
-29.5
 30
0.0
 11
161.404637911899
 21
-29.5
 31
0.0
  0
LINE
  5
240
102
{ACAD_REACTORS
330
F8
330
22A
330
10A
102
}
330
2
100
AcDbEntity
  8
0
100
AcDbLine
 10
161.404637911899
 20
5.0
 30
0.0
 11
161.404637911899
 21
-65.0
 31
0.0
  0
LINE
  5
241
102
{ACAD_REACTORS
330
F8
102
}
330
2
100
AcDbEntity
  8
0
100
AcDbLine
 10
158.404637911899
 20
-0.5
 30
0.0
 11
158.404637911899
 21
-29.0
 31
0.0
  0
TEXT
  5
242
330
2
100
AcDbEntity
  8
1
  6
BYBLOCK
 62
     0
100
AcDbText
 10
183.2537574245088
 20
85.65477429053272
 30
0.0
 40
4.589999999999998
  1
02
 41
0.8
  7
GHS
100
AcDbText
  0
TEXT
  5
243
330
2
100
AcDbEntity
  8
1
  6
BYBLOCK
 62
     0
100
AcDbText
 10
183.2537574245088
 20
94.83477429053392
 30
0.0
 40
4.589999999999998
  1
01
 41
0.8
  7
GHS
100
AcDbText
  0
TEXT
  5
244
330
2
100
AcDbEntity
  8
1
  6
BYBLOCK
 62
     0
100
AcDbText
 10
210.2770129949294
 20
103.4993417222626
 30
0.0
 40
4.589999999999998
  1
L
 41
0.8
  7
GHS
100
AcDbText
  0
LINE
  5
245
330
2
100
AcDbEntity
  8
0
100
AcDbLine
 10
266.0213049119083
 20
-4.835282658470987
 30
0.0
 11
209.5046379118993
 21
-4.835282658472806
 31
0.0
  0
LINE
  5
246
330
2
100
AcDbEntity
  8
0
100
AcDbLine
 10
281.4296099119001
 20
47.99999900000194
 30
0.0
 11
211.4914009118983
 21
47.99999900000194
 31
0.0
  0
DIMENSION
  5
247
102
{ACAD_XDICTIONARY
360
248
102
}
102
{ACAD_REACTORS
330
249
102
}
330
2
100
AcDbEntity
  8
0
100
AcDbDimension
  2
*D56
 10
283.9013049119094
 20
60.05560350468522
 30
0.0
 11
239.8045151546684
 21
60.05560350468522
 31
0.0
 70
   160
  3
STANDARD
100
AcDbAlignedDimension
 13
208.904637911899
 23
13.6999990000022
 33
0.0
 14
283.9013049119094
 24
44.99999900000193
 34
0.0
100
AcDbRotatedDimension
  0
LINE
  5
256
102
{ACAD_REACTORS
330
218
330
249
102
}
330
2
100
AcDbEntity
  8
0
100
AcDbLine
 10
283.9013049119094
 20
13.6999990000022
 30
0.0
 11
208.904637911899
 21
13.6999990000022
 31
0.0
  0
LINE
  5
257
330
2
100
AcDbEntity
  8
0
100
AcDbLine
 10
283.9013049119094
 20
12.99999900000193
 30
0.0
 11
209.0213049118992
 21
12.99999900000193
 31
0.0
  0
LINE
  5
258
330
2
100
AcDbEntity
  8
0
100
AcDbLine
 10
276.4046379119081
 20
4.5
 30
0.0
 11
209.5046379118993
 21
4.5
 31
0.0
  0
LINE
  5
259
330
2
100
AcDbEntity
  8
0
100
AcDbLine
 10
282.0541779118993
 20
6.999999000001025
 30
0.0
 11
209.5046379118993
 21
6.999999000001025
 31
0.0
  0
ARC
  5
25A
330
2
100
AcDbEntity
  8
0
100
AcDbCircle
 10
211.4914009118983
 20
47.49999900000102
 30
0.0
 40
0.5
100
AcDbArc
 50
90.0
 51
176.4687330000435
  0
LINE
  5
25B
330
2
100
AcDbEntity
  8
0
100
AcDbLine
 10
208.904637911899
 20
13.6999990000022
 30
0.0
 11
210.9923499119086
 21
47.53079600000091
 31
0.0
  0
LINE
  5
25C
330
2
100
AcDbEntity
  8
0
100
AcDbLine
 10
209.7213049118999
 20
13.6999990000022
 30
0.0
 11
209.7213049118999
 21
12.99999900000193
 31
0.0
  0
LINE
  5
25D
330
2
100
AcDbEntity
  8
0
100
AcDbLine
 10
209.0213049118992
 20
12.99999900000193
 30
0.0
 11
210.0213049119083
 21
6.999999000001025
 31
0.0
  0
LINE
  5
25E
330
2
100
AcDbEntity
  8
0
100
AcDbLine
 10
210.4046379119081
 20
-4.101262658471114
 30
0.0
 11
210.4046379119081
 21
3.598737341530068
 31
0.0
  0
LINE
  5
25F
330
2
100
AcDbEntity
  8
0
100
AcDbLine
 10
209.5046379118993
 20
-4.101262658471114
 30
0.0
 11
210.4046379119081
 21
-4.101262658471114
 31
0.0
  0
LINE
  5
260
102
{ACAD_REACTORS
330
218
102
}
330
2
100
AcDbEntity
  8
0
100
AcDbLine
 10
203.404637911899
 20
5.0
 30
0.0
 11
209.5046379118993
 21
5.0
 31
0.0
  0
LINE
  5
261
330
2
100
AcDbEntity
  8
0
100
AcDbLine
 10
209.5046379118993
 20
3.598737341530068
 30
0.0
 11
210.4046379119081
 21
3.598737341530068
 31
0.0
  0
LINE
  5
262
330
2
100
AcDbEntity
  8
0
100
AcDbLine
 10
266.0213049119083
 20
5.499999000001025
 30
0.0
 11
266.0213049119083
 21
-4.835282658472806
 31
0.0
  0
ARC
  5
263
330
2
100
AcDbEntity
  8
0
100
AcDbCircle
 10
282.0541779874675
 20
7.999998983726982
 30
0.0
 40
1.0
100
AcDbArc
 50
270.0
 51
350.5376779999607
  0
ARC
  5
264
330
2
100
AcDbEntity
  8
0
100
AcDbCircle
 10
281.4296099119001
 20
47.49999900000102
 30
0.0
 40
0.5
100
AcDbArc
 50
3.337083000037623
 51
90.0
  0
LINE
  5
265
102
{ACAD_REACTORS
330
285
102
}
330
2
100
AcDbEntity
  8
0
100
AcDbLine
 10
283.9013049119094
 20
44.99999900000193
 30
0.0
 11
283.9013049119094
 21
13.6999990000022
 31
0.0
  0
LINE
  5
266
330
2
100
AcDbEntity
  8
0
100
AcDbLine
 10
283.9013049119094
 20
13.6999990000022
 30
0.0
 11
281.9287629119098
 21
47.52910400000064
 31
0.0
  0
LINE
  5
267
330
2
100
AcDbEntity
  8
0
100
AcDbLine
 10
283.2013049118995
 20
13.6999990000022
 30
0.0
 11
283.2013049118995
 21
12.99999900000193
 31
0.0
  0
LINE
  5
268
102
{ACAD_REACTORS
330
249
102
}
330
2
100
AcDbEntity
  8
0
100
AcDbLine
 10
283.9013049119094
 20
44.99999900000193
 30
0.0
 11
282.5479269118986
 21
44.99999900000193
 31
0.0
  0
ARC
  5
269
330
2
100
AcDbEntity
  8
0
100
AcDbCircle
 10
282.5479269118986
 20
45.49999900000102
 30
0.0
 40
0.5
100
AcDbArc
 50
183.3370830000376
 51
270.0
  0
LINE
  5
26A
330
2
100
AcDbEntity
  8
0
100
AcDbLine
 10
283.9013049119094
 20
12.99999900000193
 30
0.0
 11
283.0405719118989
 21
7.835600000002159
 31
0.0
  0
ARC
  5
26B
330
2
100
AcDbEntity
  8
0
100
AcDbCircle
 10
267.5213049118992
 20
5.499999000001025
 30
0.0
 40
1.5
100
AcDbArc
 50
90.0
 51
180.0
  0
LINE
  5
26C
330
2
100
AcDbEntity
  8
0
100
AcDbLine
 10
282.404637911899
 20
3.0
 30
0.0
 11
276.4046379119081
 21
3.0
 31
0.0
  0
LINE
  5
26D
330
2
100
AcDbEntity
  8
0
100
AcDbLine
 10
283.404637911899
 20
2.0
 30
0.0
 11
282.404637911899
 21
3.0
 31
0.0
  0
LINE
  5
26E
102
{ACAD_REACTORS
330
29A
102
}
330
2
100
AcDbEntity
  8
0
100
AcDbLine
 10
276.4046379119081
 20
-64.5
 30
0.0
 11
209.5046379118993
 21
-64.5
 31
0.0
  0
LINE
  5
26F
102
{ACAD_REACTORS
330
E5
102
}
330
2
100
AcDbEntity
  8
0
100
AcDbLine
 10
210.4046379119081
 20
-55.89873734152888
 30
0.0
 11
210.4046379119081
 21
-63.59873734153007
 31
0.0
  0
LINE
  5
270
330
2
100
AcDbEntity
  8
0
100
AcDbLine
 10
203.404637911899
 20
-65.0
 30
0.0
 11
209.5046379118993
 21
-65.0
 31
0.0
  0
LINE
  5
271
330
2
100
AcDbEntity
  8
0
100
AcDbLine
 10
209.5046379118993
 20
-63.59873734153007
 30
0.0
 11
210.4046379119081
 21
-63.59873734153007
 31
0.0
  0
LINE
  5
272
330
2
100
AcDbEntity
  8
0
100
AcDbLine
 10
209.5046379118993
 20
-55.89873734152888
 30
0.0
 11
210.4046379119081
 21
-55.89873734152888
 31
0.0
  0
LINE
  5
273
330
2
100
AcDbEntity
  8
0
100
AcDbLine
 10
282.404637911899
 20
-63.0
 30
0.0
 11
276.4046379119081
 21
-63.0
 31
0.0
  0
LINE
  5
274
330
2
100
AcDbEntity
  8
0
100
AcDbLine
 10
283.404637911899
 20
-62.0
 30
0.0
 11
282.404637911899
 21
-63.0
 31
0.0
  0
LINE
  5
275
102
{ACAD_REACTORS
330
D6
330
E5
102
}
330
2
100
AcDbEntity
  8
0
100
AcDbLine
 10
203.404637911899
 20
5.5
 30
0.0
 11
203.404637911899
 21
-65.50000000000181
 31
0.0
  0
LINE
  5
276
330
2
100
AcDbEntity
  8
0
100
AcDbLine
 10
209.5046379118993
 20
6.999999000000116
 30
0.0
 11
209.5046379118993
 21
-65.0
 31
0.0
  0
LINE
  5
277
330
2
100
AcDbEntity
  8
0
100
AcDbLine
 10
282.404637911899
 20
3.0
 30
0.0
 11
282.404637911899
 21
-63.0
 31
0.0
  0
LINE
  5
278
102
{ACAD_REACTORS
330
29A
102
}
330
2
100
AcDbEntity
  8
0
100
AcDbLine
 10
276.4046379119081
 20
-64.5
 30
0.0
 11
276.4046379119081
 21
4.5
 31
0.0
  0
LINE
  5
279
102
{ACAD_REACTORS
330
D6
102
}
330
2
100
AcDbEntity
  8
0
100
AcDbLine
 10
283.404637911899
 20
2.0
 30
0.0
 11
283.404637911899
 21
-62.0
 31
0.0
  0
TEXT
  5
27A
330
2
100
AcDbEntity
  8
1
  6
BYBLOCK
 62
     0
100
AcDbText
 10
236.9008317692496
 20
94.93396338624188
 30
0.0
 40
4.589999999999998
  1
K7G3~18B(C)
 41
0.8
  7
GHS
100
AcDbText
  0
TEXT
  5
27B
330
2
100
AcDbEntity
  8
1
  6
BYBLOCK
 62
     0
100
AcDbText
 10
235.0289161567398
 20
85.75396338624114
 30
0.0
 40
4.589999999999998
  1
K7G25~180B(C)
 41
0.8
  7
GHS
100
AcDbText
  0
TEXT
  5
27C
330
2
100
AcDbEntity
  8
1
  6
BYBLOCK
 62
     0
100
AcDbText
 10
208.4282121892192
 20
94.48581186637829
 30
0.0
 40
4.589999999999998
  1
32
 41
0.8
  7
GHS
100
AcDbText
  0
TEXT
  5
27D
330
2
100
AcDbEntity
  8
1
  6
BYBLOCK
 62
     0
100
AcDbText
 10
208.4282121892192
 20
85.30581186637801
 30
0.0
 40
4.589999999999998
  1
42
 41
0.8
  7
GHS
100
AcDbText
  0
LINE
  5
27E
330
2
100
AcDbEntity
  8
1
  6
BYBLOCK
 62
     0
100
AcDbLine
 10
287.6421100040279
 20
92.31872690923593
 30
0.0
 11
174.8883797399903
 21
92.31872690923593
 31
0.0
  0
LINE
  5
27F
330
2
100
AcDbEntity
  8
1
  6
BYBLOCK
 62
     0
100
AcDbLine
 10
287.6421100040279
 20
101.4987269092362
 30
0.0
 11
174.8883797399903
 21
101.4987269092362
 31
0.0
  0
LINE
  5
280
330
2
100
AcDbEntity
  8
1
  6
BYBLOCK
 62
     0
100
AcDbLine
 10
287.6421100040279
 20
83.13872690923473
 30
0.0
 11
174.8883797399903
 21
83.13872690923473
 31
0.0
  0
TEXT
  5
281
330
2
100
AcDbEntity
  8
1
  6
BYBLOCK
 62
     0
100
AcDbText
 10
231.184388813539
 20
103.5130103013502
 30
0.0
 40
4.589999999999998
  1
APPLICATION MODEL
 41
0.8
  7
GHS
100
AcDbText
  0
LINE
  5
282
330
2
100
AcDbEntity
  8
CEN
 48
0.6
100
AcDbLine
 10
317.6850989118993
 20
29.99999900000102
 30
0.0
 11
206.4759959588172
 21
29.99999900000102
 31
0.0
  0
DIMENSION
  5
283
102
{ACAD_XDICTIONARY
360
284
102
}
102
{ACAD_REACTORS
330
285
102
}
330
2
100
AcDbEntity
  8
0
100
AcDbDimension
  2
*D55
 10
311.9013049118984
 20
60.03903248417327
 30
0.0
 11
297.9013049119093
 21
60.03903248417327
 31
0.0
 70
   160
  1
MAX. <>
  3
STANDARD
100
AcDbAlignedDimension
 13
283.9013049119094
 23
44.99999900000193
 33
0.0
 14
311.9013049118984
 24
36.99999900000102
 34
0.0
100
AcDbRotatedDimension
  0
LINE
  5
292
330
2
100
AcDbEntity
  8
0
100
AcDbLine
 10
288.9013049118984
 20
16.99999900000102
 30
0.0
 11
283.9013049119094
 21
16.99999900000102
 31
0.0
  0
LINE
  5
293
330
2
100
AcDbEntity
  8
0
100
AcDbLine
 10
288.9013049118984
 20
21.99999900000102
 30
0.0
 11
283.9013049119094
 21
21.99999900000102
 31
0.0
  0
LINE
  5
294
330
2
100
AcDbEntity
  8
0
100
AcDbLine
 10
288.9013049118984
 20
24.49999900000102
 30
0.0
 11
283.9013049119094
 21
24.49999900000102
 31
0.0
  0
LINE
  5
295
330
2
100
AcDbEntity
  8
0
100
AcDbLine
 10
288.9013049118984
 20
35.49999900000193
 30
0.0
 11
283.9013049119094
 21
35.49999900000193
 31
0.0
  0
LINE
  5
296
330
2
100
AcDbEntity
  8
0
100
AcDbLine
 10
288.9013049118984
 20
37.99999900000102
 30
0.0
 11
283.9013049119094
 21
37.99999900000102
 31
0.0
  0
LINE
  5
297
330
2
100
AcDbEntity
  8
0
100
AcDbLine
 10
288.9013049118984
 20
42.99999900000102
 30
0.0
 11
283.9013049119094
 21
42.99999900000102
 31
0.0
  0
DIMENSION
  5
298
102
{ACAD_XDICTIONARY
360
299
102
}
102
{ACAD_REACTORS
330
29A
102
}
330
2
100
AcDbEntity
  8
0
100
AcDbDimension
  2
*D54
 10
300.0653076047783
 20
-64.50000000000001
 30
0.0
 11
300.0653076047783
 21
-32.15608099008886
 31
0.0
 70
   160
  1
%%C<>
  3
STANDARD
100
AcDbAlignedDimension
 13
276.4046379119081
 23
4.5
 33
0.0
 14
276.4046379119081
 24
-64.5
 34
0.0
 50
90.0
100
AcDbRotatedDimension
  0
ARC
  5
2A7
330
2
100
AcDbEntity
  8
0
 48
0.6
100
AcDbCircle
 10
113.0853171911494
 20
285.688954323833
 30
0.0
 40
5.0
100
AcDbArc
 50
270.0
 51
0.0
  0
LINE
  5
2A8
330
2
100
AcDbEntity
  8
0
100
AcDbLine
 10
174.6466791933999
 20
350.688954323833
 30
0.0
 11
174.6466791933999
 21
280.6889543238321
 31
0.0
  0
LINE
  5
2A9
102
{ACAD_REACTORS
330
2CE
330
3C0
102
}
330
2
100
AcDbEntity
  8
0
100
AcDbLine
 10
172.6466791933908
 20
347.6889543238321
 30
0.0
 11
172.6466791933908
 21
283.6889543238321
 31
0.0
  0
ARC
  5
2AA
330
2
100
AcDbEntity
  8
0
 48
0.6
100
AcDbCircle
 10
53.08531719114944
 20
285.688954323833
 30
0.0
 40
5.0
100
AcDbArc
 50
180.0
 51
270.0
  0
LINE
  5
2AB
330
2
100
AcDbEntity
  8
CEN
 48
0.6
100
AcDbLine
 10
83.08531719114943
 20
274.4676477650032
 30
0.0
 11
83.08531719114943
 21
356.910260882661
 31
0.0
  0
CIRCLE
  5
2AC
330
2
100
AcDbEntity
  8
0
 48
0.6
100
AcDbCircle
 10
83.08531719114943
 20
315.6889543238321
 30
0.0
 40
32.00000000000005
  0
INSERT
  5
2AD
330
2
100
AcDbEntity
  8
0
100
AcDbBlockReference
  2
3
 10
83.08531719116036
 20
315.6889543238369
 30
0.0
  0
LINE
  5
2CB
330
2
100
AcDbEntity
  8
0
100
AcDbLine
 10
204.6466791933908
 20
350.688954323833
 30
0.0
 11
204.6466791933908
 21
280.6889543238321
 31
0.0
  0
DIMENSION
  5
2CC
102
{ACAD_XDICTIONARY
360
2CD
102
}
102
{ACAD_REACTORS
330
2CE
102
}
330
2
100
AcDbEntity
  8
0
100
AcDbDimension
  2
*D59
 10
150.0488543163774
 20
283.688954323833
 30
0.0
 11
150.0488543163774
 21
313.0518132315328
 31
0.0
 70
   160
  1
\A1;%%C{\f??|b0|i0|c0|p49;64\H0.7x;\S+0^ -0.030;\H1.429x;(h7)} 
  3
STANDARD
100
AcDbAlignedDimension
 13
172.6466791933908
 23
347.6889543238321
 33
0.0
 14
172.6466791933908
 24
283.688954323833
 34
0.0
 50
90.0
100
AcDbRotatedDimension
  0
DIMENSION
  5
2DB
330
2
100
AcDbEntity
  8
0
100
AcDbDimension
  2
*D61
 10
146.4606184006588
 20
190.1735203121031
 30
0.0
 11
146.4606184006588
 21
204.9235203121031
 31
0.0
 70
   160
  1
{\f??|b0|i0|c0|p49;%%c}<>
  3
STANDARD
100
AcDbAlignedDimension
 13
208.1266643231174
 23
220.1735203121031
 33
0.0
 14
195.2669460778106
 24
190.1735203121031
 34
0.0
 50
90.0
100
AcDbRotatedDimension
  0
DIMENSION
  5
2E8
102
{ACAD_XDICTIONARY
360
2E9
102
}
102
{ACAD_REACTORS
330
2EA
102
}
330
2
100
AcDbEntity
  8
0
100
AcDbDimension
  2
*D60
 10
155.3544182207006
 20
190.173520312102
 30
0.0
 11
152.8544182207005
 21
197.6735203121026
 31
0.0
 70
    32
  3
STANDARD
100
AcDbAlignedDimension
 13
174.7285255218903
 23
205.1735203121031
 33
0.0
 14
195.2669460778106
 24
190.173520312102
 34
0.0
 50
90.0
100
AcDbRotatedDimension
  0
LINE
  5
2F7
330
2
100
AcDbEntity
  8
CEN
 48
0.6
100
AcDbLine
 10
64.69650463139078
 20
208.560532102781
 30
0.0
 11
82.60265298074955
 21
208.560532102781
 31
0.0
  0
LINE
  5
2F8
330
2
100
AcDbEntity
  8
0
100
AcDbLine
 10
71.83725005875931
 20
211.060532102781
 30
0.0
 11
75.83725005875931
 21
211.060532102781
 31
0.0
  0
LINE
  5
2F9
330
2
100
AcDbEntity
  8
0
 62
     0
100
AcDbLine
 10
75.83725005875931
 20
213.0916609769299
 30
0.0
 11
75.83725005875931
 21
211.060532102781
 31
0.0
  0
LINE
  5
2FA
330
2
100
AcDbEntity
  8
0
 62
     0
100
AcDbLine
 10
71.83725005875931
 20
213.0916609769299
 30
0.0
 11
71.83725005875931
 21
211.060532102781
 31
0.0
  0
LINE
  5
2FB
330
2
100
AcDbEntity
  8
0
 48
0.6
100
AcDbLine
 10
100.4647972984275
 20
280.688954323833
 30
0.0
 11
94.72374707189919
 21
280.688954323833
 31
0.0
  0
LINE
  5
2FC
330
2
100
AcDbEntity
  8
0
100
AcDbLine
 10
43.8372500587593
 20
228.5605321027819
 30
0.0
 11
103.8372500587593
 21
228.5605321027819
 31
0.0
  0
ARC
  5
2FD
330
2
100
AcDbEntity
  8
0
100
AcDbCircle
 10
43.8372500587593
 20
223.560532102781
 30
0.0
 40
5.0
100
AcDbArc
 50
90.0
 51
180.0
  0
LINE
  5
2FE
330
2
100
AcDbEntity
  8
0
 48
0.6
100
AcDbLine
 10
53.08531719114944
 20
280.688954323833
 30
0.0
 11
113.0853171911494
 21
280.688954323833
 31
0.0
  0
ARC
  5
2FF
330
2
100
AcDbEntity
  8
0
100
AcDbCircle
 10
103.8372500587593
 20
223.560532102781
 30
0.0
 40
5.0
100
AcDbArc
 50
0.0
 51
90.0
  0
LINE
  5
300
330
2
100
AcDbEntity
  8
0
100
AcDbLine
 10
43.8372500587593
 20
158.560532102781
 30
0.0
 11
103.8372500587593
 21
158.560532102781
 31
0.0
  0
ARC
  5
301
330
2
100
AcDbEntity
  8
0
100
AcDbCircle
 10
43.8372500587593
 20
163.5605321027819
 30
0.0
 40
5.0
100
AcDbArc
 50
180.0
 51
270.0
  0
LWPOLYLINE
  5
302
330
2
100
AcDbEntity
  8
3
100
AcDbPolyline
 90
        4
 70
     1
 43
0.0
 10
70.44481325060042
 20
141.5483920902279
 10
73.74481325059969
 20
141.5483920902279
 10
73.74481325059969
 20
145.0483920902279
 10
70.44481325060042
 20
145.0483920902279
  0
CIRCLE
  5
304
330
2
100
AcDbEntity
  8
0
100
AcDbCircle
 10
29.47650024729046
 20
115.7943285833039
 30
0.0
 40
1.5
  0
LWPOLYLINE
  5
305
330
2
100
AcDbEntity
  8
0
100
AcDbPolyline
 90
        2
 70
     1
 43
1.5
 10
28.72650024729045
 20
115.7943285833039
 42
1.0
 10
30.22650024729045
 20
115.7943285833039
 42
1.0
  0
LWPOLYLINE
  5
306
330
2
100
AcDbEntity
  8
0
100
AcDbPolyline
 90
        2
 70
     1
 43
1.5
 10
93.25112747192907
 20
116.009644499305
 42
1.0
 10
94.75112747192907
 20
116.009644499305
 42
1.0
  0
CIRCLE
  5
307
330
2
100
AcDbEntity
  8
0
100
AcDbCircle
 10
94.00112747192906
 20
116.009644499305
 30
0.0
 40
1.5
  0
LINE
  5
308
330
2
100
AcDbEntity
  8
CEN
 48
0.6
100
AcDbLine
 10
31.59950401682908
 20
193.560532102781
 30
0.0
 11
116.0749961006913
 21
193.560532102781
 31
0.0
  0
DIMENSION
  5
309
102
{ACAD_XDICTIONARY
360
30A
102
}
102
{ACAD_REACTORS
330
30B
102
}
330
2
100
AcDbEntity
  8
0
100
AcDbDimension
  2
*D62
 10
108.8372500587593
 20
140.71153011156
 30
0.0
 11
77.17906560796837
 21
140.71153011156
 31
0.0
 70
   160
  3
STANDARD
100
AcDbAlignedDimension
 13
38.8372500587593
 23
163.5605321027819
 33
0.0
 14
108.8372500587593
 24
163.5605321027819
 34
0.0
100
AcDbRotatedDimension
  0
ARC
  5
318
330
2
100
AcDbEntity
  8
0
100
AcDbCircle
 10
103.8372500587593
 20
163.5605321027819
 30
0.0
 40
5.0
100
AcDbArc
 50
270.0
 51
0.0
  0
LINE
  5
319
102
{ACAD_REACTORS
330
30B
102
}
330
2
100
AcDbEntity
  8
0
100
AcDbLine
 10
108.8372500587593
 20
223.560532102781
 30
0.0
 11
108.8372500587593
 21
163.5605321027819
 31
0.0
  0
CIRCLE
  5
31A
330
2
100
AcDbEntity
  8
0
100
AcDbCircle
 10
73.8372500587593
 20
208.560532102781
 30
0.0
 40
15.0
  0
LINE
  5
31B
102
{ACAD_REACTORS
330
30B
102
}
330
2
100
AcDbEntity
  8
0
100
AcDbLine
 10
38.8372500587593
 20
223.560532102781
 30
0.0
 11
38.8372500587593
 21
163.5605321027819
 31
0.0
  0
LINE
  5
31C
330
2
100
AcDbEntity
  8
0
  6
CENTER
 62
     1
 48
0.6
100
AcDbLine
 10
73.8372500587593
 20
233.662177207557
 30
0.0
 11
73.8372500587593
 21
153.4588869980057
 31
0.0
  0
CIRCLE
  5
31D
330
2
100
AcDbEntity
  8
0
100
AcDbCircle
 10
73.8372500587593
 20
208.560532102781
 30
0.0
 40
5.0
  0
CIRCLE
  5
31E
330
2
100
AcDbEntity
  8
0
100
AcDbCircle
 10
73.8372500587593
 20
193.560532102781
 30
0.0
 40
32.0
  0
INSERT
  5
31F
330
2
100
AcDbEntity
  8
0
100
AcDbBlockReference
  2
3
 10
73.83725005877022
 20
193.5605321027858
 30
0.0
  0
MTEXT
  5
320
330
2
100
AcDbEntity
  8
DIM
 62
     0
100
AcDbMText
 10
33.66735096782031
 20
118.4017288393929
 30
0.0
 40
4.589999999999998
 41
0.0
 71
     1
 72
     5
  1
{\f굴림|b0|i0|c129|p50;KEY\f??|b0|i0|c0|p49;                  \f굴림|b0|i0|c129|p50;KEY GROOVE }
1001
ACAD
1000
MTEXTBEGIN
1070
    73
1070
     1
1070
    44
1040
1.0
1070
    74
1070
     0
1000
MTEXTEND
  0
MTEXT
  5
322
102
{ACAD_REACTORS
330
323
102
}
330
2
100
AcDbEntity
  8
0
 62
     3
100
AcDbMText
 10
93.29158592938984
 20
245.334039553858
 30
0.0
 40
3.0
 41
0.0
 71
     9
 72
     1
  1
4-%%c5.5 hole
1001
ACAD
1000
MTEXTBEGIN
1070
    73
1070
     1
1070
    44
1040
1.0
1070
    74
1070
     0
1000
MTEXTEND
  0
LEADER
  5
323
330
2
100
AcDbEntity
  8
0
100
AcDbLeader
  3
STANDARD
 73
     0
 75
     1
 40
3.0
 41
26.65178571428571
 76
     3
 10
102.6997104200418
 20
225.172992464056
 30
0.0
 10
96.79158592938984
 20
244.334039553858
 30
0.0
 10
94.29158592938984
 20
244.334039553858
 30
0.0
340
322
1001
ACAD
1000
DSTYLE
1002
{
1070
     5
1000

1070
   342
1005
0
1002
}
  0
DIMENSION
  5
324
102
{ACAD_XDICTIONARY
360
325
102
}
102
{ACAD_REACTORS
330
326
102
}
330
2
100
AcDbEntity
  8
0
100
AcDbDimension
  2
*D67
 10
178.6266643231174
 20
226.393808519005
 30
0.0
 11
191.4375949905097
 21
226.393808519005
 31
0.0
 70
   160
  3
STANDARD
100
AcDbAlignedDimension
 13
203.6266643231174
 23
210.1735203121031
 33
0.0
 14
178.6266643231174
 24
210.1735203121031
 34
0.0
 50
180.0
100
AcDbRotatedDimension
  0
LINE
  5
333
102
{ACAD_REACTORS
330
2EA
330
326
330
34D
102
}
330
2
100
AcDbEntity
  8
CEN
  6
BYBLOCK
 62
     0
100
AcDbLine
 10
207.6266643231174
 20
210.173520312102
 30
0.0
 11
178.6266643231174
 21
210.173520312102
 31
0.0
  0
LINE
  5
334
102
{ACAD_REACTORS
330
2EA
102
}
330
2
100
AcDbEntity
  8
CEN
  6
HIDDEN
 62
     2
100
AcDbLine
 10
203.6266643231174
 20
207.673520312102
 30
0.0
 11
178.6266643231174
 21
207.673520312102
 31
0.0
  0
LINE
  5
335
330
2
100
AcDbEntity
  8
0
100
AcDbLine
 10
174.6466791933999
 20
280.6889543238321
 30
0.0
 11
204.6466791933908
 21
280.6889543238321
 31
0.0
  0
LINE
  5
336
102
{ACAD_REACTORS
330
2EA
102
}
330
2
100
AcDbEntity
  8
CEN
  6
BYBLOCK
 62
     0
100
AcDbLine
 10
207.6266643231174
 20
200.173520312102
 30
0.0
 11
178.6266643231174
 21
200.173520312102
 31
0.0
  0
LINE
  5
337
102
{ACAD_REACTORS
330
2EA
102
}
330
2
100
AcDbEntity
  8
CEN
 48
0.6
100
AcDbLine
 10
222.2024115147778
 20
205.1735203121031
 30
0.0
 11
174.7285255218903
 21
205.1735203121031
 31
0.0
  0
DIMENSION
  5
338
330
2
100
AcDbEntity
  8
0
100
AcDbDimension
  2
*D66
 10
210.6266643231101
 20
141.877505930478
 30
0.0
 11
194.6266643231138
 21
144.377505930478
 31
0.0
 70
    32
  3
STANDARD
100
AcDbAlignedDimension
 13
178.6266643231174
 23
200.1735203121031
 33
0.0
 14
210.6266643231101
 24
160.1735203121031
 34
0.0
 50
180.0
100
AcDbRotatedDimension
  0
LINE
  5
345
330
2
100
AcDbEntity
  8
1
  6
BYBLOCK
 62
     0
100
AcDbLine
 10
174.1181131694611
 20
115.0904157854438
 30
0.0
 11
223.7835509816777
 21
115.0904157854438
 31
0.0
  0
LINE
  5
346
330
2
100
AcDbEntity
  8
1
  6
BYBLOCK
 62
     0
100
AcDbLine
 10
174.1181131694611
 20
114.3613838244468
 30
0.0
 11
223.7835509816777
 21
114.3613838244468
 31
0.0
  0
LINE
  5
347
330
2
100
AcDbEntity
  8
1
  6
BYBLOCK
 62
     0
100
AcDbLine
 10
174.1181131694611
 20
114.1363838244478
 30
0.0
 11
223.7835509816777
 21
114.1363838244478
 31
0.0
  0
TEXT
  5
348
330
2
100
AcDbEntity
  8
1
 62
     0
100
AcDbText
 10
174.7801036636701
 20
116.1861656962037
 30
0.0
 40
4.589999999999998
  1
DIMENSION TABLE
 41
0.8
  7
GHS
100
AcDbText
  0
LINE
  5
349
102
{ACAD_REACTORS
330
2EA
102
}
330
2
100
AcDbEntity
  8
CEN
 48
0.6
100
AcDbLine
 10
195.2669460778106
 20
190.173520312102
 30
0.0
 11
263.7861336627265
 21
190.173520312102
 31
0.0
  0
LINE
  5
34A
330
2
100
AcDbEntity
  8
0
100
AcDbLine
 10
174.6466791933999
 20
283.6889543238321
 30
0.0
 11
172.6466791933908
 21
283.6889543238321
 31
0.0
  0
DIMENSION
  5
34B
102
{ACAD_XDICTIONARY
360
34C
102
}
102
{ACAD_REACTORS
330
34D
102
}
330
2
100
AcDbEntity
  8
0
100
AcDbDimension
  2
*D65
 10
163.8020010341406
 20
210.173520312102
 30
0.0
 11
163.8020010341406
 21
236.1627275211322
 31
0.0
 70
   160
  1
\A1;{\f??|b0|i0|c0|p49;%%C10\H0.7x;\S+0^ -0.015;\H1.429x;(h7)}
  3
STANDARD
100
AcDbAlignedDimension
 13
178.6266643231174
 23
200.173520312102
 33
0.0
 14
178.6266643231174
 24
210.173520312102
 34
0.0
 50
90.0
100
AcDbRotatedDimension
  0
LINE
  5
35C
102
{ACAD_REACTORS
330
37F
330
34D
102
}
330
2
100
AcDbEntity
  8
0
100
AcDbLine
 10
178.6266643231174
 20
210.173520312102
 30
0.0
 11
178.6266643231174
 21
200.173520312102
 31
0.0
  0
LINE
  5
35D
330
2
100
AcDbEntity
  8
0
100
AcDbLine
 10
251.6266643231101
 20
225.673520312102
 30
0.0
 11
251.6266643231101
 21
225.173520312102
 31
0.0
  0
LINE
  5
35E
330
2
100
AcDbEntity
  8
0
100
AcDbLine
 10
252.6266643231101
 20
225.173520312102
 30
0.0
 11
251.6266643231101
 21
225.173520312102
 31
0.0
  0
LINE
  5
35F
330
2
100
AcDbEntity
  8
0
100
AcDbLine
 10
251.6266643231101
 20
155.173520312102
 30
0.0
 11
251.6266643231101
 21
154.6735203121033
 31
0.0
  0
LINE
  5
360
330
2
100
AcDbEntity
  8
0
100
AcDbLine
 10
252.6266643231101
 20
155.173520312102
 30
0.0
 11
251.6266643231101
 21
155.173520312102
 31
0.0
  0
LINE
  5
361
102
{ACAD_REACTORS
330
37F
102
}
330
2
100
AcDbEntity
  8
0
100
AcDbLine
 10
252.6266643231101
 20
225.173520312102
 30
0.0
 11
252.6266643231101
 21
155.173520312102
 31
0.0
  0
DIMENSION
  5
362
102
{ACAD_XDICTIONARY
360
363
102
}
102
{ACAD_REACTORS
330
364
102
}
330
2
100
AcDbEntity
  8
0
100
AcDbDimension
  2
*D64
 10
207.6266643231174
 20
234.3556590153129
 30
0.0
 11
209.1266643231138
 21
234.3556590153129
 31
0.0
 70
   160
  3
STANDARD
100
AcDbAlignedDimension
 13
210.6266643231101
 23
225.173520312102
 33
0.0
 14
207.6266643231174
 24
219.673520312102
 34
0.0
 50
180.0
100
AcDbRotatedDimension
  0
LINE
  5
373
330
2
100
AcDbEntity
  8
0
100
AcDbLine
 10
208.1266643231174
 20
220.173520312102
 30
0.0
 11
210.6266643231101
 21
220.173520312102
 31
0.0
  0
ARC
  5
374
330
2
100
AcDbEntity
  8
0
100
AcDbCircle
 10
208.1266643231174
 20
219.673520312102
 30
0.0
 40
0.5
100
AcDbArc
 50
90.0
 51
180.0
  0
LINE
  5
375
102
{ACAD_REACTORS
330
37F
330
326
102
}
330
2
100
AcDbEntity
  8
0
  6
HIDDEN
 62
     2
100
AcDbLine
 10
203.6266643231174
 20
210.1735203121031
 30
0.0
 11
203.6266643231174
 21
207.673520312102
 31
0.0
  0
ARC
  5
376
330
2
100
AcDbEntity
  8
0
100
AcDbCircle
 10
211.1266643231174
 20
225.173520312102
 30
0.0
 40
0.5
100
AcDbArc
 50
90.0
 51
180.0
  0
LINE
  5
377
330
2
100
AcDbEntity
  8
0
100
AcDbLine
 10
208.1266643231174
 20
190.173520312102
 30
0.0
 11
210.6266643231101
 21
190.173520312102
 31
0.0
  0
ARC
  5
378
330
2
100
AcDbEntity
  8
0
100
AcDbCircle
 10
211.1266643231174
 20
155.173520312102
 30
0.0
 40
0.5
100
AcDbArc
 50
180.0
 51
270.0
  0
ARC
  5
379
330
2
100
AcDbEntity
  8
0
100
AcDbCircle
 10
208.1266643231174
 20
190.6735203121031
 30
0.0
 40
0.5
100
AcDbArc
 50
180.0
 51
270.0
  0
LINE
  5
37A
102
{ACAD_REACTORS
330
37F
330
364
102
}
330
2
100
AcDbEntity
  8
0
100
AcDbLine
 10
210.6266643231101
 20
225.173520312102
 30
0.0
 11
210.6266643231101
 21
155.173520312102
 31
0.0
  0
LINE
  5
37B
102
{ACAD_REACTORS
330
364
102
}
330
2
100
AcDbEntity
  8
0
100
AcDbLine
 10
207.6266643231174
 20
219.673520312102
 30
0.0
 11
207.6266643231174
 21
190.6735203121031
 31
0.0
  0
LINE
  5
37C
330
2
100
AcDbEntity
  8
0
100
AcDbLine
 10
251.6266643231101
 20
154.6735203121033
 30
0.0
 11
211.1266643231174
 21
154.6735203121033
 31
0.0
  0
DIMENSION
  5
37D
102
{ACAD_XDICTIONARY
360
37E
102
}
102
{ACAD_REACTORS
330
37F
102
}
330
2
100
AcDbEntity
  8
0
100
AcDbDimension
  2
*D63
 10
210.6266643231101
 20
141.8775059304771
 30
0.0
 11
231.6266643231101
 21
144.3775059304771
 31
0.0
 70
    32
  1
L
  3
STANDARD
100
AcDbAlignedDimension
 13
252.6266643231101
 23
155.173520312102
 33
0.0
 14
210.6266643231101
 24
155.173520312102
 34
0.0
 50
180.0
100
AcDbRotatedDimension
  0
LINE
  5
38C
330
2
100
AcDbEntity
  8
0
100
AcDbLine
 10
251.6266643231101
 20
225.673520312102
 30
0.0
 11
211.1266643231174
 21
225.673520312102
 31
0.0
  0
LINE
  5
38D
330
2
100
AcDbEntity
  8
2
 62
     7
100
AcDbLine
 10
210.6266643231101
 20
190.173520312102
 30
0.0
 11
208.1266643231174
 21
190.173520312102
 31
0.0
  0
LINE
  5
38F
330
2
100
AcDbEntity
  8
2
 62
     7
100
AcDbLine
 10
207.6266643231174
 20
190.6735203121031
 30
0.0
 11
207.6266643231174
 21
192.1735203121031
 31
0.0
  0
ARC
  5
390
330
2
100
AcDbEntity
  8
2
 62
     7
100
AcDbCircle
 10
208.1266643231174
 20
190.6735203121031
 30
0.0
 40
0.4999999999999967
100
AcDbArc
 50
180.0
 51
270.0
  0
LINE
  5
391
330
2
100
AcDbEntity
  8
1
  6
BYBLOCK
 62
     0
100
AcDbLine
 10
287.6421100040279
 20
110.678726909236
 30
0.0
 11
174.8883797399903
 21
110.678726909236
 31
0.0
  0
LINE
  5
392
330
2
100
AcDbEntity
  8
CEN
 48
0.6
100
AcDbLine
 10
213.7599123377676
 20
315.6889543238321
 30
0.0
 11
155.0028853927578
 21
315.6889543238321
 31
0.0
  0
ARC
  5
393
102
{ACAD_REACTORS
330
39D
102
}
330
2
100
AcDbEntity
  8
0
 48
0.6
100
AcDbCircle
 10
113.0853171911494
 20
345.688954323833
 30
0.0
 40
5.0
100
AcDbArc
 50
0.0
 51
90.0
  0
LINE
  5
394
330
2
100
AcDbEntity
  8
0
 48
0.6
100
AcDbLine
 10
118.0853171911494
 20
345.688954323833
 30
0.0
 11
118.0853171911494
 21
285.688954323833
 31
0.0
  0
LWPOLYLINE
  5
395
330
2
100
AcDbEntity
  8
3
100
AcDbPolyline
 90
        4
 70
     1
 43
0.0
 10
74.86954759821674
 20
365.586425584669
 10
78.16954759821783
 20
365.586425584669
 10
78.16954759821783
 20
369.086425584669
 10
74.86954759821674
 20
369.086425584669
  0
ARC
  5
396
102
{ACAD_REACTORS
330
39D
102
}
330
2
100
AcDbEntity
  8
0
 48
0.6
100
AcDbCircle
 10
53.08531719114944
 20
345.688954323833
 30
0.0
 40
5.0
100
AcDbArc
 50
90.0
 51
180.0
  0
CIRCLE
  5
397
330
2
100
AcDbEntity
  8
0
 48
0.6
100
AcDbCircle
 10
83.08531719114943
 20
315.6889543238321
 30
0.0
 40
2.000000000000055
  0
CIRCLE
  5
398
330
2
100
AcDbEntity
  8
0
 48
0.6
100
AcDbCircle
 10
83.08531719114943
 20
315.6889543238321
 30
0.0
 40
3.000000000000055
  0
LINE
  5
399
330
2
100
AcDbEntity
  8
0
 48
0.6
100
AcDbLine
 10
48.08531719114944
 20
345.688954323833
 30
0.0
 11
48.08531719114944
 21
285.688954323833
 31
0.0
  0
LINE
  5
39A
330
2
100
AcDbEntity
  8
0
 48
0.6
100
AcDbLine
 10
53.08531719114944
 20
350.6889543238321
 30
0.0
 11
113.0853171911494
 21
350.688954323833
 31
0.0
  0
DIMENSION
  5
39B
102
{ACAD_XDICTIONARY
360
39C
102
}
102
{ACAD_REACTORS
330
39D
102
}
330
2
100
AcDbEntity
  8
0
100
AcDbDimension
  2
*D68
 10
118.0853171911494
 20
363.2567494497391
 30
0.0
 11
83.08531719114943
 21
363.2567494497391
 31
0.0
 70
   160
  3
STANDARD
100
AcDbAlignedDimension
 13
48.08531719114944
 23
345.688954323833
 33
0.0
 14
118.0853171911494
 24
345.688954323833
 34
0.0
100
AcDbRotatedDimension
  0
LINE
  5
3AA
330
2
100
AcDbEntity
  8
CEN
 48
0.6
100
AcDbLine
 10
43.48768247130829
 20
315.6889543238321
 30
0.0
 11
122.6829519110015
 21
315.6889543238321
 31
0.0
  0
MTEXT
  5
3AB
102
{ACAD_REACTORS
330
3AC
102
}
330
2
100
AcDbEntity
  8
0
 62
     3
100
AcDbMText
 10
100.9513178727265
 20
375.6725066585329
 30
0.0
 40
3.0
 41
0.0
 71
     9
 72
     1
  1
4-%%c5.5 hole
1001
ACAD
1000
MTEXTBEGIN
1070
    73
1070
     1
1070
    44
1040
1.0
1070
    74
1070
     0
1000
MTEXTEND
  0
LEADER
  5
3AC
330
2
100
AcDbEntity
  8
0
100
AcDbLeader
  3
STANDARD
 73
     0
 75
     1
 40
3.0
 41
26.65178571428571
 76
     3
 10
112.1209829782001
 20
347.3861237053961
 30
0.0
 10
104.4513178727265
 20
374.6725066585329
 30
0.0
 10
101.9513178727265
 20
374.6725066585329
 30
0.0
340
3AB
1001
ACAD
1000
DSTYLE
1002
{
1070
     5
1000

1070
   342
1005
0
1002
}
  0
DIMENSION
  5
3AD
102
{ACAD_XDICTIONARY
360
3AE
102
}
102
{ACAD_REACTORS
330
3AF
102
}
330
2
100
AcDbEntity
  8
0
100
AcDbDimension
  2
*D71
 10
204.6466791933908
 20
370.2760321482651
 30
0.0
 11
189.6466791933908
 21
370.2760321482651
 31
0.0
 70
   160
  3
STANDARD
100
AcDbAlignedDimension
 13
174.6466791933999
 23
350.688954323833
 33
0.0
 14
204.6466791933908
 24
350.688954323833
 34
0.0
100
AcDbRotatedDimension
  0
LINE
  5
3BC
102
{ACAD_REACTORS
330
3C0
330
3AF
102
}
330
2
100
AcDbEntity
  8
0
100
AcDbLine
 10
174.6466791933999
 20
350.688954323833
 30
0.0
 11
204.6466791933908
 21
350.688954323833
 31
0.0
  0
LINE
  5
3BD
330
2
100
AcDbEntity
  8
0
100
AcDbLine
 10
174.6466791933999
 20
347.6889543238321
 30
0.0
 11
172.6466791933908
 21
347.6889543238321
 31
0.0
  0
DIMENSION
  5
3BE
102
{ACAD_XDICTIONARY
360
3BF
102
}
102
{ACAD_REACTORS
330
3C0
102
}
330
2
100
AcDbEntity
  8
0
100
AcDbDimension
  2
*D70
 10
174.6466791933999
 20
360.1498234703099
 30
0.0
 11
165.6466791933908
 21
360.1498234703099
 31
0.0
 70
   160
  3
STANDARD
100
AcDbAlignedDimension
 13
172.6466791933908
 23
347.6889543238321
 33
0.0
 14
174.6466791933999
 24
350.688954323833
 34
0.0
100
AcDbRotatedDimension
  0
LINE
  5
3CF
330
2
100
AcDbEntity
  8
0
100
AcDbLine
 10
174.6466791933999
 20
318.5089543238329
 30
0.0
 11
174.6466791933999
 21
312.8689543238329
 31
0.0
  0
LINE
  5
3D0
330
2
100
AcDbEntity
  8
0
100
AcDbLine
 10
174.6466791933999
 20
318.5089543238329
 30
0.0
 11
174.6466791933999
 21
312.8689543238329
 31
0.0
  0
LINE
  5
3D1
330
2
100
AcDbEntity
  8
2
100
AcDbLine
 10
168.6466791933908
 20
318.1389543238328
 30
0.0
 11
168.6466791933908
 21
313.238954323833
 31
0.0
  0
LINE
  5
3D2
330
2
100
AcDbEntity
  8
2
100
AcDbLine
 10
162.1466791933908
 20
319.038954323832
 30
0.0
 11
162.1466791933908
 21
312.3389543238329
 31
0.0
  0
LINE
  5
3D3
330
2
100
AcDbEntity
  8
0
100
AcDbLine
 10
161.6466791933999
 20
318.538954323832
 30
0.0
 11
161.6466791933999
 21
312.8494543238321
 31
0.0
  0
LINE
  5
3D4
330
2
100
AcDbEntity
  8
0
100
AcDbLine
 10
161.6466791933999
 20
312.8389543238329
 30
0.0
 11
162.1466791933908
 21
312.3389543238329
 31
0.0
  0
LINE
  5
3D5
330
2
100
AcDbEntity
  8
0
100
AcDbLine
 10
162.1466791933908
 20
319.038954323832
 30
0.0
 11
161.6466791933999
 21
318.538954323832
 31
0.0
  0
LINE
  5
3D6
330
2
100
AcDbEntity
  8
2
100
AcDbLine
 10
168.6466791933908
 20
317.6089543238319
 30
0.0
 11
162.6466791933908
 21
314.43352784329
 31
0.0
  0
LINE
  5
3D7
330
2
100
AcDbEntity
  8
2
100
AcDbLine
 10
167.6958071111184
 20
318.1389543238328
 30
0.0
 11
162.6466791933908
 21
315.588228381669
 31
0.0
  0
LINE
  5
3D8
330
2
100
AcDbEntity
  8
2
100
AcDbLine
 10
168.6466791933908
 20
316.454253785454
 30
0.0
 11
162.478931709018
 21
313.238954323833
 31
0.0
  0
LINE
  5
3D9
330
2
100
AcDbEntity
  8
0
100
AcDbLine
 10
161.6466791933999
 20
313.238954323833
 30
0.0
 11
168.6466791933908
 21
313.238954323833
 31
0.0
  0
LINE
  5
3DA
330
2
100
AcDbEntity
  8
0
100
AcDbLine
 10
161.6466791933999
 20
318.1389543238328
 30
0.0
 11
168.6466791933908
 21
318.1389543238328
 31
0.0
  0
ARC
  5
3DB
330
2
100
AcDbEntity
  8
0
100
AcDbCircle
 10
167.1868069279389
 20
283.056472554135
 30
0.0
 40
30.21776684021463
100
AcDbArc
 50
79.59038642144166
 51
87.23086447351985
  0
ARC
  5
3DC
330
2
100
AcDbEntity
  8
0
100
AcDbCircle
 10
167.1868069279389
 20
348.3214360935269
 30
0.0
 40
30.21776684021192
100
AcDbArc
 50
272.7691355264801
 51
280.4096135785584
  0
LINE
  5
3DD
330
2
100
AcDbEntity
  8
CEN
 48
0.6
100
AcDbLine
 10
160.1466791933908
 20
312.8494543238321
 30
0.0
 11
175.6466791933999
 21
312.8494543238321
 31
0.0
  0
LINE
  5
3DE
330
2
100
AcDbEntity
  8
0
100
AcDbLine
 10
162.1466791933908
 20
312.3389543238329
 30
0.0
 11
172.6466791933908
 21
312.3389543238329
 31
0.0
  0
LINE
  5
3DF
330
2
100
AcDbEntity
  8
CEN
 48
0.6
100
AcDbLine
 10
160.1466791933908
 20
318.5284543238319
 30
0.0
 11
175.6466791933999
 21
318.5284543238319
 31
0.0
  0
LINE
  5
3E0
330
2
100
AcDbEntity
  8
0
100
AcDbLine
 10
162.1466791933908
 20
319.038954323832
 30
0.0
 11
172.6466791933908
 21
319.038954323832
 31
0.0
  0
DIMENSION
  5
3E1
330
2
100
AcDbEntity
  8
0
100
AcDbDimension
  2
*D69
 10
174.6466791933999
 20
370.2760321482651
 30
0.0
 11
168.1466791933999
 21
370.2760321482651
 31
0.0
 70
   160
  1
<>
  3
STANDARD
100
AcDbAlignedDimension
 13
161.6466791933999
 23
318.5284543238328
 33
0.0
 14
174.6466791933999
 24
350.688954323833
 34
0.0
100
AcDbRotatedDimension
  0
ENDSEC
  0
SECTION
  2
OBJECTS
  0
DICTIONARY
  5
9
330
0
100
AcDbDictionary
  3
ACAD_GROUP
350
98
  3
ACAD_LAYOUT
350
D
  3
ACAD_MLINESTYLE
350
99
  3
ACAD_PLOTSETTINGS
350
9A
  3
ACAD_PLOTSTYLENAME
350
8
  3
ACDBHEADERROUNDTRIPXREC
350
5B0
  3
ACDBVARIABLEDICTIONARY
350
3EE
  0
DICTIONARY
  5
15
330
14
100
AcDbDictionary
280
     1
  3
ACAD_LAYERFILTERS
360
16
  3
ACAD_LAYERSTATES
360
89
  0
DICTIONARY
  5
3
330
2
100
AcDbDictionary
280
     1
  3
ACAD_LAYOUTSELFREF
360
5D1
  0
DICTIONARY
  5
F
330
E
100
AcDbDictionary
280
     1
  3
ACAD_LAYOUTSELFREF
360
5D2
  0
DICTIONARY
  5
2B0
330
2AF
100
AcDbDictionary
280
     1
  3
ACAD_DIMASSOC
360
2B1
  0
DICTIONARY
  5
B5
330
B4
100
AcDbDictionary
280
     1
  3
ACAD_DIMASSOC
360
B6
  0
DICTIONARY
  5
D5
330
D4
100
AcDbDictionary
280
     1
  3
ACAD_DIMASSOC
360
D6
  0
DICTIONARY
  5
E4
330
E3
100
AcDbDictionary
280
     1
  3
ACAD_DIMASSOC
360
E5
  0
DICTIONARY
  5
F7
330
F6
100
AcDbDictionary
280
     1
  3
ACAD_DIMASSOC
360
F8
  0
DICTIONARY
  5
109
330
108
100
AcDbDictionary
280
     1
  3
ACAD_DIMASSOC
360
10A
  0
DICTIONARY
  5
14D
330
14C
100
AcDbDictionary
280
     1
  3
ACAD_DIMASSOC
360
14E
  0
DICTIONARY
  5
185
330
184
100
AcDbDictionary
280
     1
  3
ACAD_DIMASSOC
360
186
  0
DICTIONARY
  5
195
330
194
100
AcDbDictionary
280
     1
  3
ACAD_DIMASSOC
360
196
  0
DICTIONARY
  5
1A4
330
1A3
100
AcDbDictionary
280
     1
  3
ACAD_DIMASSOC
360
1A5
  0
DICTIONARY
  5
1BB
330
1BA
100
AcDbDictionary
280
     1
  3
ACAD_DIMASSOC
360
1BC
  0
DICTIONARY
  5
1D1
330
1D0
100
AcDbDictionary
280
     1
  3
ACAD_DIMASSOC
360
1D2
  0
DICTIONARY
  5
1E6
330
1E5
100
AcDbDictionary
280
     1
  3
ACAD_DIMASSOC
360
1E7
  0
DICTIONARY
  5
217
330
216
100
AcDbDictionary
280
     1
  3
ACAD_DIMASSOC
360
218
  0
DICTIONARY
  5
229
330
228
100
AcDbDictionary
280
     1
  3
ACAD_DIMASSOC
360
22A
  0
DICTIONARY
  5
248
330
247
100
AcDbDictionary
280
     1
  3
ACAD_DIMASSOC
360
249
  0
DICTIONARY
  5
284
330
283
100
AcDbDictionary
280
     1
  3
ACAD_DIMASSOC
360
285
  0
DICTIONARY
  5
299
330
298
100
AcDbDictionary
280
     1
  3
ACAD_DIMASSOC
360
29A
  0
DICTIONARY
  5
2CD
330
2CC
100
AcDbDictionary
280
     1
  3
ACAD_DIMASSOC
360
2CE
  0
DICTIONARY
  5
2E9
330
2E8
100
AcDbDictionary
280
     1
  3
ACAD_DIMASSOC
360
2EA
  0
DICTIONARY
  5
30A
330
309
100
AcDbDictionary
280
     1
  3
ACAD_DIMASSOC
360
30B
  0
DICTIONARY
  5
325
330
324
100
AcDbDictionary
280
     1
  3
ACAD_DIMASSOC
360
326
  0
DICTIONARY
  5
34C
330
34B
100
AcDbDictionary
280
     1
  3
ACAD_DIMASSOC
360
34D
  0
DICTIONARY
  5
363
330
362
100
AcDbDictionary
280
     1
  3
ACAD_DIMASSOC
360
364
  0
DICTIONARY
  5
37E
330
37D
100
AcDbDictionary
280
     1
  3
ACAD_DIMASSOC
360
37F
  0
DICTIONARY
  5
39C
330
39B
100
AcDbDictionary
280
     1
  3
ACAD_DIMASSOC
360
39D
  0
DICTIONARY
  5
3AE
330
3AD
100
AcDbDictionary
280
     1
  3
ACAD_DIMASSOC
360
3AF
  0
DICTIONARY
  5
3BF
330
3BE
100
AcDbDictionary
280
     1
  3
ACAD_DIMASSOC
360
3C0
  0
DICTIONARY
  5
98
102
{ACAD_REACTORS
330
9
102
}
330
9
100
AcDbDictionary
  0
DICTIONARY
  5
D
102
{ACAD_REACTORS
330
9
102
}
330
9
100
AcDbDictionary
  0
DICTIONARY
  5
99
102
{ACAD_REACTORS
330
9
102
}
330
9
100
AcDbDictionary
  3
STANDARD
350
9B
  0
DICTIONARY
  5
9A
102
{ACAD_REACTORS
330
9
102
}
330
9
100
AcDbDictionary
  0
ACDBDICTIONARYWDFLT
  5
8
102
{ACAD_REACTORS
330
9
102
}
330
9
100
AcDbDictionary
281
     1
  3
Normal
350
7
100
AcDbDictionaryWithDefault
340
7
  0
DICTIONARY
  5
5B0
102
{ACAD_REACTORS
330
9
102
}
330
9
100
AcDbDictionary
  3
CEPSNTYPE
350
5BA
  3
DIMSTYLEDATA
350
5BE
  3
FINGERPRINTGUID
350
5BB
  3
HYPERLINKBASE
350
5B3
  3
INSUNITS
350
5B9
  3
LAYOUTDICT
350
5B5
  3
LWETCUNION
350
5B8
  3
PLOTSETDICT
350
5B6
  3
PLOTSTYLNAMDICT
350
5B7
  3
PSVPSCALE
350
5BD
  3
PUCSBASE
350
5C1
  3
PUCSORGBACK
350
5C7
  3
PUCSORGBOTTOM
350
5C3
  3
PUCSORGFRONT
350
5C6
  3
PUCSORGLEFT
350
5C4
  3
PUCSORGRIGHT
350
5C5
  3
PUCSORGTOP
350
5C2
  3
PUCSORTHOREF
350
5BF
  3
PUCSORTHOVIEW
350
5C0
  3
STYLESHEET
350
5B4
  3
TSTACKALIGN
350
5B1
  3
TSTACKSIZE
350
5B2
  3
UCSBASE
350
5CA
  3
UCSORGBACK
350
5D0
  3
UCSORGBOTTOM
350
5CC
  3
UCSORGFRONT
350
5CF
  3
UCSORGLEFT
350
5CD
  3
UCSORGRIGHT
350
5CE
  3
UCSORGTOP
350
5CB
  3
UCSORTHOREF
350
5C8
  3
UCSORTHOVIEW
350
5C9
  3
VERSIONGUID
350
5BC
  0
DICTIONARY
  5
3EE
102
{ACAD_REACTORS
330
9
102
}
330
9
100
AcDbDictionary
  3
DIMASSOC
350
3F0
  3
HIDETEXT
350
3EF
  0
DICTIONARY
  5
16
102
{ACAD_REACTORS
330
15
102
}
330
15
100
AcDbDictionary
280
     1
  3
$LAYERS
360
17
  3
-_UND_0
360
18
  3
-PEGC
360
19
  3
101
360
1A
  3
102
360
1B
  3
1DUC
360
1C
  3
1EQ
360
1D
  3
1TUB
360
1E
  3
2
360
1F
  3
2000
360
20
  3
50
360
21
  3
58J
360
22
  3
65
360
23
  3
AA
360
24
  3
ACABADOS
360
25
  3
AGUA_Y_DREN
360
26
  3
AIRE
360
27
  3
ALLE_AUS
360
28
  3
ALLES_MIT_S
360
29
  3
AMARILLO
360
2A
  3
APAGADOS
360
2B
  3
ARR
360
2C
  3
BA
360
2D
  3
BACKS
360
2E
  3
BASE
360
2F
  3
BLOQ_INUTIL
360
30
  3
CADKON
360
31
  3
CARPINTERIA
360
32
  3
CERRADOS
360
33
  3
COL
360
34
  3
COLOR
360
35
  3
COLOR_250
360
36
  3
COLORES
360
37
  3
CONGELADOS
360
38
  3
CONJUNTO
360
39
  3
D1
360
3A
  3
DA_
360
3B
  3
DET-
360
3C
  3
DOR-H
360
3D
  3
EJES
360
3E
  3
ELECTRICO
360
3F
  3
F1
360
40
  3
FROZEN
360
41
  3
GRID
360
42
  3
GRIDTXT
360
43
  3
HATCH
360
44
  3
HCAD
360
45
  3
INSTALACIONES
360
46
  3
JIZNI
360
47
  3
KCK
360
48
  3
KKK
360
49
  3
LAY
360
4A
  3
LAYER-0
360
4E
  3
LAYER-1
360
4F
  3
LAYER_1_UND_0
360
4B
  3
LAYER_2_UND_0
360
4C
  3
LAYER_9_UND_0_SCHRAFFUR
360
4D
  3
LOCK
360
50
  3
LOCKED
360
51
  3
LOTES
360
52
  3
LUNAR
360
53
  3
LUNAR2
360
54
  3
M
360
55
  3
MIS_LAYERS
360
56
  3
MRKCK
360
57
  3
NECADKON
360
58
  3
NI_LH
360
59
  3
NI_RH
360
5A
  3
NUM
360
5B
  3
OFF
360
5C
  3
ON
360
5D
  3
PBASE
360
5E
  3
PEGC
360
5F
  3
PEGCT
360
60
  3
PFRAME
360
61
  3
PGRID
360
62
  3
PGRIDT
360
63
  3
PLAFONES
360
64
  3
PLANTAS
360
65
  3
PLOT
360
66
  3
PRENDIDAS
360
67
  3
PRENDIDOS
360
68
  3
PRINT
360
69
  3
PT
360
6A
  3
PTH
360
6B
  3
PVGRID
360
6C
  3
RED_DE_AGUA_POTABLE
360
6D
  3
RED_DE_ENERGIA_ELECTRICA
360
6E
  3
SEVERNI
360
6F
  3
SHIN
360
70
  3
SHOW_ALL_LAYER
360
71
  3
SIN
360
72
  3
STORAGE-CART
360
73
  3
T
360
74
  3
TEXTOS
360
75
  3
TEXTURAS
360
76
  3
TUBERIAS
360
77
  3
UNFRZ
360
78
  3
V\U+0160ECHNY_NEPOU\U+017D\U+00CDVAN\U+00C9
360
79
  3
VA
360
7A
  3
VENTILACI\U+00D3N
360
7B
  3
VYHODNI
360
7C
  3
YO
360
7D
  3
ZAPADNI
360
7E
  3
사용
360
7F
  3
신규
360
80
  3
실박스
360
81
  3
우리토목
360
82
  3
주차
360
83
  3
지상정밀
360
84
  3
쩜선
360
85
  3
플로터_작업층
360
86
  3
현재_작업층
360
87
  3
현재_잠금
360
88
  0
DICTIONARY
  5
89
102
{ACAD_REACTORS
330
15
102
}
330
15
100
AcDbDictionary
  0
XRECORD
  5
5D1
102
{ACAD_REACTORS
330
3
102
}
330
3
100
AcDbXrecord
340
2
  0
XRECORD
  5
5D2
102
{ACAD_REACTORS
330
F
102
}
330
F
100
AcDbXrecord
340
E
  0
DIMASSOC
  5
2B1
102
{ACAD_REACTORS
330
2B0
102
}
330
2B0
100
AcDbDimAssoc
330
2AF
 90
        2
 70
     0
 71
     0
  1
AcDbOsnapPointRef
 72
     3
331
2BD
 73
     2
 91
        0
 40
0.0
 10
-0.000000000003638
 20
0.0000000000020464
 30
0.0
 75
     0
  0
DIMASSOC
  5
B6
102
{ACAD_REACTORS
330
B5
102
}
330
B5
100
AcDbDimAssoc
330
B4
 90
        3
 70
     0
 71
     0
  1
AcDbOsnapPointRef
 72
     1
331
1B7
 73
     2
 91
        0
 40
1.0
 10
114.804147094841
 20
86.33830556550492
 30
0.0
 75
     0
  1
AcDbOsnapPointRef
 72
     5
331
1B6
 73
     2
 91
        0
 40
1.570796326794896
 10
112.804147094841
 20
88.83830556550492
 30
0.0
 75
     0
  0
DIMASSOC
  5
D6
102
{ACAD_REACTORS
330
D5
102
}
330
D5
100
AcDbDimAssoc
330
D4
 90
        3
 70
     0
 71
     0
  1
AcDbOsnapPointRef
 72
     1
331
279
 73
     2
 91
        0
 40
1.0
 10
283.404637911899
 20
-62.0
 30
0.0
 75
     0
  1
AcDbOsnapPointRef
 72
     1
331
275
 73
     2
 91
        0
 40
1.0
 10
203.404637911899
 20
-65.50000000000181
 30
0.0
 75
     0
  0
DIMASSOC
  5
E5
102
{ACAD_REACTORS
330
E4
102
}
330
E4
100
AcDbDimAssoc
330
E3
 90
        3
 70
     0
 71
     0
  1
AcDbOsnapPointRef
 72
     1
331
275
 73
     2
 91
        0
 40
1.0
 10
203.404637911899
 20
-65.50000000000181
 30
0.0
 75
     0
  1
AcDbOsnapPointRef
 72
     1
331
26F
 73
     2
 91
        0
 40
1.0
 10
210.4046379119081
 20
-63.59873734153007
 30
0.0
 75
     0
  0
DIMASSOC
  5
F8
102
{ACAD_REACTORS
330
F7
102
}
330
F7
100
AcDbDimAssoc
330
F6
 90
        3
 70
     0
 71
     0
  1
AcDbOsnapPointRef
 72
    13
331
240
 73
     2
 91
        0
 40
0.0
 10
161.404637911899
 20
5.0
 30
0.0
 75
     0
  1
AcDbOsnapPointRef
 72
    13
331
241
 73
     2
 91
        0
 40
0.0
 10
158.404637911899
 20
-0.5
 30
0.0
 75
     0
  0
DIMASSOC
  5
10A
102
{ACAD_REACTORS
330
109
102
}
330
109
100
AcDbDimAssoc
330
108
 90
        3
 70
     0
 71
     0
  1
AcDbOsnapPointRef
 72
     1
331
117
 73
     2
 91
        0
 40
1.0
 10
129.404637911899
 20
-10.0
 30
0.0
 75
     0
  1
AcDbOsnapPointRef
 72
    13
331
240
 73
     2
 91
        0
 40
0.0
 10
161.404637911899
 20
5.0
 30
0.0
 75
     0
  0
DIMASSOC
  5
14E
102
{ACAD_REACTORS
330
14D
102
}
330
14D
100
AcDbDimAssoc
330
14C
 90
        3
 70
     0
 71
     0
  1
AcDbOsnapPointRef
 72
     1
331
169
 73
     2
 91
        0
 40
1.0
 10
-1.0
 20
13.0
 30
0.0
 75
     0
  1
AcDbOsnapPointRef
 72
     1
331
16B
 73
     2
 91
        0
 40
1.0
 10
61.0
 20
13.0
 30
0.0
 75
     0
  0
DIMASSOC
  5
186
102
{ACAD_REACTORS
330
185
102
}
330
185
100
AcDbDimAssoc
330
184
 90
        3
 70
     0
 71
     0
  1
AcDbOsnapPointRef
 72
    13
331
193
 73
     2
 91
        0
 40
0.0
 10
154.4046379119081
 20
-10.0
 30
0.0
 75
     0
  1
AcDbOsnapPointRef
 72
     1
331
117
 73
     2
 91
        0
 40
1.0
 10
129.404637911899
 20
-10.0
 30
0.0
 75
     0
  0
DIMASSOC
  5
196
102
{ACAD_REACTORS
330
195
102
}
330
195
100
AcDbDimAssoc
330
194
 90
        1
 70
     0
 71
     0
  1
AcDbOsnapPointRef
 72
     1
331
F5
 73
     2
 91
        0
 40
1.0
 10
125.5064991106792
 20
-15.0
 30
0.0
 75
     0
  0
DIMASSOC
  5
1A5
102
{ACAD_REACTORS
330
1A4
102
}
330
1A4
100
AcDbDimAssoc
330
1A3
 90
        3
 70
     0
 71
     0
  1
AcDbOsnapPointRef
 72
     1
331
1B4
 73
     2
 91
        0
 40
1.0
 10
129.404637911899
 20
-20.0
 30
0.0
 75
     0
  1
AcDbOsnapPointRef
 72
     6
331
1B4
 73
     2
 91
        0
 40
0.0000000000000114
 10
129.404637911899
 20
-10.0
 30
0.0
332
117
 74
     2
 92
        0
 75
     0
  0
DIMASSOC
  5
1BC
102
{ACAD_REACTORS
330
1BB
102
}
330
1BB
100
AcDbDimAssoc
330
1BA
 90
        3
 70
     0
 71
     0
  1
AcDbOsnapPointRef
 72
     1
331
1B8
 73
     2
 91
        0
 40
1.0
 10
110.804147094841
 20
88.4208812604611
 30
0.0
 75
     0
  1
AcDbOsnapPointRef
 72
     1
331
1B9
 73
     2
 91
        0
 40
1.0
 10
114.804147094841
 20
88.4208812604611
 30
0.0
 75
     0
  0
DIMASSOC
  5
1D2
102
{ACAD_REACTORS
330
1D1
102
}
330
1D1
100
AcDbDimAssoc
330
1D0
 90
        3
 70
     0
 71
     0
  1
AcDbOsnapPointRef
 72
     2
331
1CD
 73
     2
 91
        0
 40
3.141592653589792
 10
23.70011406757839
 20
85.43860085250207
 30
0.0
 75
     0
  1
AcDbOsnapPointRef
 72
     1
331
1CF
 73
     2
 91
        0
 40
1.0
 10
48.70011406757839
 20
87.43860085250208
 30
0.0
 75
     0
  0
DIMASSOC
  5
1E7
102
{ACAD_REACTORS
330
1E6
102
}
330
1E6
100
AcDbDimAssoc
330
1E5
 90
        3
 70
     0
 71
     0
  1
AcDbOsnapPointRef
 72
    13
331
1E2
 73
     2
 91
        0
 40
0.0
 10
65.87076735428855
 20
87.43860085250208
 30
0.0
 75
     0
  1
AcDbOsnapPointRef
 72
    13
331
1E1
 73
     2
 91
        0
 40
0.0
 10
69.87076735428854
 20
87.43860085250208
 30
0.0
 75
     0
  0
DIMASSOC
  5
218
102
{ACAD_REACTORS
330
217
102
}
330
217
100
AcDbDimAssoc
330
216
 90
        3
 70
     0
 71
     0
  1
AcDbOsnapPointRef
 72
    13
331
260
 73
     2
 91
        0
 40
0.0
 10
203.404637911899
 20
5.0
 30
0.0
 75
     0
  1
AcDbOsnapPointRef
 72
     1
331
256
 73
     2
 91
        0
 40
1.0
 10
208.904637911899
 20
13.6999990000022
 30
0.0
 75
     0
  0
DIMASSOC
  5
22A
102
{ACAD_REACTORS
330
229
102
}
330
229
100
AcDbDimAssoc
330
228
 90
        1
 70
     0
 71
     0
  1
AcDbOsnapPointRef
 72
    13
331
240
 73
     2
 91
        0
 40
0.0
 10
161.404637911899
 20
5.0
 30
0.0
 75
     0
  0
DIMASSOC
  5
249
102
{ACAD_REACTORS
330
248
102
}
330
248
100
AcDbDimAssoc
330
247
 90
        3
 70
     0
 71
     0
  1
AcDbOsnapPointRef
 72
     1
331
256
 73
     2
 91
        0
 40
1.0
 10
208.904637911899
 20
13.6999990000022
 30
0.0
 75
     0
  1
AcDbOsnapPointRef
 72
    13
331
268
 73
     2
 91
        0
 40
0.0
 10
283.9013049119094
 20
44.99999900000193
 30
0.0
 75
     0
  0
DIMASSOC
  5
285
102
{ACAD_REACTORS
330
284
102
}
330
284
100
AcDbDimAssoc
330
283
 90
        3
 70
     0
 71
     0
  1
AcDbOsnapPointRef
 72
    13
331
265
 73
     2
 91
        0
 40
0.0
 10
283.9013049119094
 20
44.99999900000193
 30
0.0
 75
     0
  1
AcDbOsnapPointRef
 72
    13
331
215
 73
     2
 91
        0
 40
0.0
 10
311.9013049118984
 20
36.99999900000102
 30
0.0
 75
     0
  0
DIMASSOC
  5
29A
102
{ACAD_REACTORS
330
299
102
}
330
299
100
AcDbDimAssoc
330
298
 90
        3
 70
     0
 71
     0
  1
AcDbOsnapPointRef
 72
     1
331
278
 73
     2
 91
        0
 40
1.0
 10
276.4046379119081
 20
4.5
 30
0.0
 75
     0
  1
AcDbOsnapPointRef
 72
    13
331
26E
 73
     2
 91
        0
 40
0.0
 10
276.4046379119081
 20
-64.5
 30
0.0
 75
     0
  0
DIMASSOC
  5
2CE
102
{ACAD_REACTORS
330
2CD
102
}
330
2CD
100
AcDbDimAssoc
330
2CC
 90
        1
 70
     0
 71
     0
  1
AcDbOsnapPointRef
 72
    13
331
2A9
 73
     2
 91
        0
 40
0.0
 10
172.6466791933908
 20
347.6889543238321
 30
0.0
 75
     0
  0
DIMASSOC
  5
2EA
102
{ACAD_REACTORS
330
2E9
102
}
330
2E9
100
AcDbDimAssoc
330
2E8
 90
        3
 70
     0
 71
     0
  1
AcDbOsnapPointRef
 72
     1
331
337
 73
     2
 91
        0
 40
1.0
 10
174.7285255218903
 20
205.1735203121031
 30
0.0
 75
     0
  1
AcDbOsnapPointRef
 72
    13
331
349
 73
     2
 91
        0
 40
0.0
 10
195.2669460778106
 20
190.173520312102
 30
0.0
 75
     0
  0
DIMASSOC
  5
30B
102
{ACAD_REACTORS
330
30A
102
}
330
30A
100
AcDbDimAssoc
330
309
 90
        3
 70
     0
 71
     0
  1
AcDbOsnapPointRef
 72
     1
331
31B
 73
     2
 91
        0
 40
1.0
 10
38.8372500587593
 20
163.5605321027819
 30
0.0
 75
     0
  1
AcDbOsnapPointRef
 72
     1
331
319
 73
     2
 91
        0
 40
1.0
 10
108.8372500587593
 20
163.5605321027819
 30
0.0
 75
     0
  0
DIMASSOC
  5
326
102
{ACAD_REACTORS
330
325
102
}
330
325
100
AcDbDimAssoc
330
324
 90
        3
 70
     0
 71
     0
  1
AcDbOsnapPointRef
 72
    13
331
375
 73
     2
 91
        0
 40
0.0
 10
203.6266643231174
 20
210.1735203121031
 30
0.0
 75
     0
  1
AcDbOsnapPointRef
 72
     1
331
333
 73
     2
 91
        0
 40
1.0
 10
178.6266643231174
 20
210.173520312102
 30
0.0
 75
     0
  0
DIMASSOC
  5
34D
102
{ACAD_REACTORS
330
34C
102
}
330
34C
100
AcDbDimAssoc
330
34B
 90
        3
 70
     0
 71
     0
  1
AcDbOsnapPointRef
 72
     1
331
35C
 73
     2
 91
        0
 40
1.0
 10
178.6266643231174
 20
200.173520312102
 30
0.0
 75
     0
  1
AcDbOsnapPointRef
 72
     6
331
35C
 73
     2
 91
        0
 40
0.0000000000000114
 10
178.6266643231174
 20
210.173520312102
 30
0.0
332
333
 74
     2
 92
        0
 75
     0
  0
DIMASSOC
  5
364
102
{ACAD_REACTORS
330
363
102
}
330
363
100
AcDbDimAssoc
330
362
 90
        3
 70
     0
 71
     0
  1
AcDbOsnapPointRef
 72
    13
331
37A
 73
     2
 91
        0
 40
0.0
 10
210.6266643231101
 20
225.173520312102
 30
0.0
 75
     0
  1
AcDbOsnapPointRef
 72
    13
331
37B
 73
     2
 91
        0
 40
0.0
 10
207.6266643231174
 20
219.673520312102
 30
0.0
 75
     0
  0
DIMASSOC
  5
37F
102
{ACAD_REACTORS
330
37E
102
}
330
37E
100
AcDbDimAssoc
330
37D
 90
        3
 70
     0
 71
     0
  1
AcDbOsnapPointRef
 72
     1
331
361
 73
     2
 91
        0
 40
1.0
 10
252.6266643231101
 20
155.173520312102
 30
0.0
 75
     0
  1
AcDbOsnapPointRef
 72
     1
331
37A
 73
     2
 91
        0
 40
1.0
 10
210.6266643231101
 20
155.173520312102
 30
0.0
 75
     0
  0
DIMASSOC
  5
39D
102
{ACAD_REACTORS
330
39C
102
}
330
39C
100
AcDbDimAssoc
330
39B
 90
        3
 70
     0
 71
     0
  1
AcDbOsnapPointRef
 72
     1
331
396
 73
     2
 91
        0
 40
3.141592653589792
 10
48.08531719114944
 20
345.688954323833
 30
0.0
 75
     0
  1
AcDbOsnapPointRef
 72
    13
331
393
 73
     2
 91
        0
 40
0.0
 10
118.0853171911494
 20
345.688954323833
 30
0.0
 75
     0
  0
DIMASSOC
  5
3AF
102
{ACAD_REACTORS
330
3AE
102
}
330
3AE
100
AcDbDimAssoc
330
3AD
 90
        3
 70
     0
 71
     0
  1
AcDbOsnapPointRef
 72
    13
331
3BC
 73
     2
 91
        0
 40
0.0
 10
174.6466791933999
 20
350.688954323833
 30
0.0
 75
     0
  1
AcDbOsnapPointRef
 72
     1
331
3BC
 73
     2
 91
        0
 40
1.0
 10
204.6466791933908
 20
350.688954323833
 30
0.0
 75
     0
  0
DIMASSOC
  5
3C0
102
{ACAD_REACTORS
330
3BF
102
}
330
3BF
100
AcDbDimAssoc
330
3BE
 90
        3
 70
     0
 71
     0
  1
AcDbOsnapPointRef
 72
    13
331
2A9
 73
     2
 91
        0
 40
0.0
 10
172.6466791933908
 20
347.6889543238321
 30
0.0
 75
     0
  1
AcDbOsnapPointRef
 72
    13
331
3BC
 73
     2
 91
        0
 40
0.0
 10
174.6466791933999
 20
350.688954323833
 30
0.0
 75
     0
  0
MLINESTYLE
  5
9B
102
{ACAD_REACTORS
330
99
102
}
330
99
100
AcDbMlineStyle
  2
STANDARD
 70
     0
  3

 62
   256
 51
90.0
 52
90.0
 71
     2
 49
0.5
 62
   256
  6
BYLAYER
 49
-0.5
 62
   256
  6
BYLAYER
  0
ACDBPLACEHOLDER
  5
7
102
{ACAD_REACTORS
330
8
102
}
330
8
100
AcDbPlaceHolder
280
     0
  0
XRECORD
  5
5BA
102
{ACAD_REACTORS
330
5B0
102
}
330
5B0
100
AcDbXrecord
 90
        0
  0
XRECORD
  5
5BE
102
{ACAD_REACTORS
330
5B0
102
}
330
5B0
100
AcDbXrecord
1000
DSTYLE
1002
{
1070
    79
 70
     2
1070
   179
 70
     1
1070
   289
 70
     0
1002
}
  0
XRECORD
  5
5BB
102
{ACAD_REACTORS
330
5B0
102
}
330
5B0
100
AcDbXrecord
  1
{FDEAD578-A652-11D2-9A35-0060089B3A3F}
  0
XRECORD
  5
5B3
102
{ACAD_REACTORS
330
5B0
102
}
330
5B0
100
AcDbXrecord
  1

  0
XRECORD
  5
5B9
102
{ACAD_REACTORS
330
5B0
102
}
330
5B0
100
AcDbXrecord
 90
        4
  0
XRECORD
  5
5B5
102
{ACAD_REACTORS
330
5B0
102
}
330
5B0
100
AcDbXrecord
340
D
  0
XRECORD
  5
5B8
102
{ACAD_REACTORS
330
5B0
102
}
330
5B0
100
AcDbXrecord
 90
    10781
  0
XRECORD
  5
5B6
102
{ACAD_REACTORS
330
5B0
102
}
330
5B0
100
AcDbXrecord
340
9A
  0
XRECORD
  5
5B7
102
{ACAD_REACTORS
330
5B0
102
}
330
5B0
100
AcDbXrecord
340
8
  0
XRECORD
  5
5BD
102
{ACAD_REACTORS
330
5B0
102
}
330
5B0
100
AcDbXrecord
 40
0.0
  0
XRECORD
  5
5C1
102
{ACAD_REACTORS
330
5B0
102
}
330
5B0
100
AcDbXrecord
340
0
  0
XRECORD
  5
5C7
102
{ACAD_REACTORS
330
5B0
102
}
330
5B0
100
AcDbXrecord
 10
0.0
 20
0.0
 30
0.0
  0
XRECORD
  5
5C3
102
{ACAD_REACTORS
330
5B0
102
}
330
5B0
100
AcDbXrecord
 10
0.0
 20
0.0
 30
0.0
  0
XRECORD
  5
5C6
102
{ACAD_REACTORS
330
5B0
102
}
330
5B0
100
AcDbXrecord
 10
0.0
 20
0.0
 30
0.0
  0
XRECORD
  5
5C4
102
{ACAD_REACTORS
330
5B0
102
}
330
5B0
100
AcDbXrecord
 10
0.0
 20
0.0
 30
0.0
  0
XRECORD
  5
5C5
102
{ACAD_REACTORS
330
5B0
102
}
330
5B0
100
AcDbXrecord
 10
0.0
 20
0.0
 30
0.0
  0
XRECORD
  5
5C2
102
{ACAD_REACTORS
330
5B0
102
}
330
5B0
100
AcDbXrecord
 10
0.0
 20
0.0
 30
0.0
  0
XRECORD
  5
5BF
102
{ACAD_REACTORS
330
5B0
102
}
330
5B0
100
AcDbXrecord
340
0
  0
XRECORD
  5
5C0
102
{ACAD_REACTORS
330
5B0
102
}
330
5B0
100
AcDbXrecord
 70
     0
  0
XRECORD
  5
5B4
102
{ACAD_REACTORS
330
5B0
102
}
330
5B0
100
AcDbXrecord
  1

  0
XRECORD
  5
5B1
102
{ACAD_REACTORS
330
5B0
102
}
330
5B0
100
AcDbXrecord
 90
        1
  0
XRECORD
  5
5B2
102
{ACAD_REACTORS
330
5B0
102
}
330
5B0
100
AcDbXrecord
 90
       70
  0
XRECORD
  5
5CA
102
{ACAD_REACTORS
330
5B0
102
}
330
5B0
100
AcDbXrecord
340
0
  0
XRECORD
  5
5D0
102
{ACAD_REACTORS
330
5B0
102
}
330
5B0
100
AcDbXrecord
 10
0.0
 20
0.0
 30
0.0
  0
XRECORD
  5
5CC
102
{ACAD_REACTORS
330
5B0
102
}
330
5B0
100
AcDbXrecord
 10
0.0
 20
0.0
 30
0.0
  0
XRECORD
  5
5CF
102
{ACAD_REACTORS
330
5B0
102
}
330
5B0
100
AcDbXrecord
 10
0.0
 20
0.0
 30
0.0
  0
XRECORD
  5
5CD
102
{ACAD_REACTORS
330
5B0
102
}
330
5B0
100
AcDbXrecord
 10
0.0
 20
0.0
 30
0.0
  0
XRECORD
  5
5CE
102
{ACAD_REACTORS
330
5B0
102
}
330
5B0
100
AcDbXrecord
 10
0.0
 20
0.0
 30
0.0
  0
XRECORD
  5
5CB
102
{ACAD_REACTORS
330
5B0
102
}
330
5B0
100
AcDbXrecord
 10
0.0
 20
0.0
 30
0.0
  0
XRECORD
  5
5C8
102
{ACAD_REACTORS
330
5B0
102
}
330
5B0
100
AcDbXrecord
340
0
  0
XRECORD
  5
5C9
102
{ACAD_REACTORS
330
5B0
102
}
330
5B0
100
AcDbXrecord
 70
     0
  0
XRECORD
  5
5BC
102
{ACAD_REACTORS
330
5B0
102
}
330
5B0
100
AcDbXrecord
  1
{5BAB7345-14F0-4715-8D49-240C4CC4EF80}
  0
DICTIONARYVAR
  5
3F0
102
{ACAD_REACTORS
330
3EE
102
}
330
3EE
100
DictionaryVariables
280
     0
  1
2
  0
DICTIONARYVAR
  5
3EF
102
{ACAD_REACTORS
330
3EE
102
}
330
3EE
100
DictionaryVariables
280
     0
  1
1
  0
XRECORD
  5
17
102
{ACAD_REACTORS
330
16
102
}
330
16
100
AcDbXrecord
  1
$layers
  1
*
  1
*
  1
*
 70
     0
  1
*
  1
*
  0
XRECORD
  5
18
102
{ACAD_REACTORS
330
16
102
}
330
16
100
AcDbXrecord
  1
- und 0
  1
-*,0
  1
*
  1
*
 70
     0
  1
*
  1
*
  0
XRECORD
  5
19
102
{ACAD_REACTORS
330
16
102
}
330
16
100
AcDbXrecord
  1
-pegc
  1
*-pegc
  1
*
  1
*
 70
     0
  1
*
  1
*
  0
XRECORD
  5
1A
102
{ACAD_REACTORS
330
16
102
}
330
16
100
AcDbXrecord
  1
101
  1
*101
  1
*
  1
*
 70
   256
  1
*
  1
*
  0
XRECORD
  5
1B
102
{ACAD_REACTORS
330
16
102
}
330
16
100
AcDbXrecord
  1
102
  1
102*
  1
*
  1
*
 70
     0
  1
*
  1
*
  0
XRECORD
  5
1C
102
{ACAD_REACTORS
330
16
102
}
330
16
100
AcDbXrecord
  1
1duc
  1
*1duc*
  1
*
  1
*
 70
     0
  1
*
  1
*
  0
XRECORD
  5
1D
102
{ACAD_REACTORS
330
16
102
}
330
16
100
AcDbXrecord
  1
1eq
  1
*1eq*
  1
*
  1
*
 70
     0
  1
*
  1
*
  0
XRECORD
  5
1E
102
{ACAD_REACTORS
330
16
102
}
330
16
100
AcDbXrecord
  1
1tub
  1
*1t*
  1
*
  1
*
 70
     0
  1
*
  1
*
  0
XRECORD
  5
1F
102
{ACAD_REACTORS
330
16
102
}
330
16
100
AcDbXrecord
  1
2
  1
*
  1
2
  1
*
 70
     0
  1
*
  1
*
  0
XRECORD
  5
20
102
{ACAD_REACTORS
330
16
102
}
330
16
100
AcDbXrecord
  1
2000
  1
2000*
  1
*
  1
*
 70
     0
  1
*
  1
*
  0
XRECORD
  5
21
102
{ACAD_REACTORS
330
16
102
}
330
16
100
AcDbXrecord
  1
50
  1
*-50
  1
*
  1
*
 70
     0
  1
*
  1
*
  0
XRECORD
  5
22
102
{ACAD_REACTORS
330
16
102
}
330
16
100
AcDbXrecord
  1
58J
  1
*58*
  1
*
  1
*
 70
     0
  1
*
  1
*
  0
XRECORD
  5
23
102
{ACAD_REACTORS
330
16
102
}
330
16
100
AcDbXrecord
  1
65
  1
*65
  1
*
  1
*
 70
     0
  1
*
  1
*
  0
XRECORD
  5
24
102
{ACAD_REACTORS
330
16
102
}
330
16
100
AcDbXrecord
  1
aa
  1
aa*
  1
*
  1
*
 70
     0
  1
*
  1
*
  0
XRECORD
  5
25
102
{ACAD_REACTORS
330
16
102
}
330
16
100
AcDbXrecord
  1
acabados
  1
a-*
  1
*
  1
*
 70
     5
  1
*
  1
*
  0
XRECORD
  5
26
102
{ACAD_REACTORS
330
16
102
}
330
16
100
AcDbXrecord
  1
AGUA Y DREN
  1
A-DS-*
  1
*
  1
*
 70
     0
  1
*
  1
*
  0
XRECORD
  5
27
102
{ACAD_REACTORS
330
16
102
}
330
16
100
AcDbXrecord
  1
Aire
  1
*
  1
*
  1
*
 70
     0
  1
*
  1
*
  0
XRECORD
  5
28
102
{ACAD_REACTORS
330
16
102
}
330
16
100
AcDbXrecord
  1
alle aus
  1
99999999999
  1
*
  1
*
 70
     0
  1
*
  1
*
  0
XRECORD
  5
29
102
{ACAD_REACTORS
330
16
102
}
330
16
100
AcDbXrecord
  1
Alles mit S
  1
s*
  1
*
  1
*
 70
     0
  1
*
  1
*
  0
XRECORD
  5
2A
102
{ACAD_REACTORS
330
16
102
}
330
16
100
AcDbXrecord
  1
amarillo
  1
*
  1
yellow
  1
*
 70
     0
  1
*
  1
*
  0
XRECORD
  5
2B
102
{ACAD_REACTORS
330
16
102
}
330
16
100
AcDbXrecord
  1
APAGADOS
  1
*
  1
*
  1
*
 70
     4
  1
*
  1
*
  0
XRECORD
  5
2C
102
{ACAD_REACTORS
330
16
102
}
330
16
100
AcDbXrecord
  1
ARR
  1
ARR*
  1
*
  1
*
 70
     0
  1
*
  1
*
  0
XRECORD
  5
2D
102
{ACAD_REACTORS
330
16
102
}
330
16
100
AcDbXrecord
  1
ba
  1
*
  1
*
  1
*
 70
     0
  1
*
  1
*
  0
XRECORD
  5
2E
102
{ACAD_REACTORS
330
16
102
}
330
16
100
AcDbXrecord
  1
BACKS
  1
*-H
  1
*
  1
*
 70
     0
  1
*
  1
*
  0
XRECORD
  5
2F
102
{ACAD_REACTORS
330
16
102
}
330
16
100
AcDbXrecord
  1
BASE
  1
*-PBASE
  1
*
  1
*
 70
     0
  1
*
  1
*
  0
XRECORD
  5
30
102
{ACAD_REACTORS
330
16
102
}
330
16
100
AcDbXrecord
  1
BLOQ_INUTIL
  1
*
  1
*
  1
*
 70
     0
  1
*
  1
*
  0
XRECORD
  5
31
102
{ACAD_REACTORS
330
16
102
}
330
16
100
AcDbXrecord
  1
CADKON
  1
?[KAHBSM]?????[23M],?[KAHBSM]?????[23M][1456A-DGHILN-SU-Z]
  1
*
  1
*
 70
     0
  1
*
  1
*
  0
XRECORD
  5
32
102
{ACAD_REACTORS
330
16
102
}
330
16
100
AcDbXrecord
  1
carpinteria
  1
carp*
  1
*
  1
*
 70
     0
  1
*
  1
*
  0
XRECORD
  5
33
102
{ACAD_REACTORS
330
16
102
}
330
16
100
AcDbXrecord
  1
cerrados
  1
*
  1
*
  1
*
 70
   256
  1
*
  1
*
  0
XRECORD
  5
34
102
{ACAD_REACTORS
330
16
102
}
330
16
100
AcDbXrecord
  1
COL
  1
*
  1
*
  1
*
 70
     1
  1
*
  1
*
  0
XRECORD
  5
35
102
{ACAD_REACTORS
330
16
102
}
330
16
100
AcDbXrecord
  1
COLOR
  1
*
  1
253
  1
*
 70
     0
  1
*
  1
*
  0
XRECORD
  5
36
102
{ACAD_REACTORS
330
16
102
}
330
16
100
AcDbXrecord
  1
color 250
  1
*
  1
250
  1
*
 70
     0
  1
*
  1
*
  0
XRECORD
  5
37
102
{ACAD_REACTORS
330
16
102
}
330
16
100
AcDbXrecord
  1
COLORES
  1
*
  1
6
  1
*
 70
     0
  1
*
  1
*
  0
XRECORD
  5
38
102
{ACAD_REACTORS
330
16
102
}
330
16
100
AcDbXrecord
  1
Congelados
  1
*
  1
*
  1
*
 70
     4
  1
*
  1
*
  0
XRECORD
  5
39
102
{ACAD_REACTORS
330
16
102
}
330
16
100
AcDbXrecord
  1
CONJUNTO
  1
CON-*
  1
*
  1
*
 70
     0
  1
*
  1
*
  0
XRECORD
  5
3A
102
{ACAD_REACTORS
330
16
102
}
330
16
100
AcDbXrecord
  1
d1
  1
achurados
  1
*
  1
*
 70
     0
  1
*
  1
*
  0
XRECORD
  5
3B
102
{ACAD_REACTORS
330
16
102
}
330
16
100
AcDbXrecord
  1
DA_
  1
DA*
  1
*
  1
*
 70
     0
  1
*
  1
*
  0
XRECORD
  5
3C
102
{ACAD_REACTORS
330
16
102
}
330
16
100
AcDbXrecord
  1
DET-
  1
*
  1
*
  1
*
 70
     0
  1
*
  1
*
  0
XRECORD
  5
3D
102
{ACAD_REACTORS
330
16
102
}
330
16
100
AcDbXrecord
  1
DOR-H
  1
*
  1
7
  1
*
 70
     0
  1
*
  1
*
  0
XRECORD
  5
3E
102
{ACAD_REACTORS
330
16
102
}
330
16
100
AcDbXrecord
  1
ejes
  1
eje*
  1
*
  1
*
 70
     0
  1
*
  1
*
  0
XRECORD
  5
3F
102
{ACAD_REACTORS
330
16
102
}
330
16
100
AcDbXrecord
  1
ELECTRICO
  1
ELEC-*
  1
*
  1
*
 70
     0
  1
*
  1
*
  0
XRECORD
  5
40
102
{ACAD_REACTORS
330
16
102
}
330
16
100
AcDbXrecord
  1
F1
  1
Halaxref*
  1
*
  1
*
 70
     0
  1
*
  1
*
  0
XRECORD
  5
41
102
{ACAD_REACTORS
330
16
102
}
330
16
100
AcDbXrecord
  1
frozen
  1
*
  1
*
  1
*
 70
     4
  1
*
  1
*
  0
XRECORD
  5
42
102
{ACAD_REACTORS
330
16
102
}
330
16
100
AcDbXrecord
  1
grid
  1
*-PGRID
  1
*
  1
*
 70
     1
  1
*
  1
*
  0
XRECORD
  5
43
102
{ACAD_REACTORS
330
16
102
}
330
16
100
AcDbXrecord
  1
GRIDTXT
  1
*-PGRIDT
  1
*
  1
*
 70
     0
  1
*
  1
*
  0
XRECORD
  5
44
102
{ACAD_REACTORS
330
16
102
}
330
16
100
AcDbXrecord
  1
HATCH
  1
HAT*
  1
*
  1
*
 70
     0
  1
*
  1
*
  0
XRECORD
  5
45
102
{ACAD_REACTORS
330
16
102
}
330
16
100
AcDbXrecord
  1
HCAD
  1
1HCAD-*
  1
*
  1
*
 70
    13
  1
*
  1
*
  0
XRECORD
  5
46
102
{ACAD_REACTORS
330
16
102
}
330
16
100
AcDbXrecord
  1
INSTALACIONES
  1
I-*
  1
*
  1
*
 70
     0
  1
*
  1
*
  0
XRECORD
  5
47
102
{ACAD_REACTORS
330
16
102
}
330
16
100
AcDbXrecord
  1
JIZNI
  1
*-J
  1
*
  1
*
 70
     0
  1
*
  1
*
  0
XRECORD
  5
48
102
{ACAD_REACTORS
330
16
102
}
330
16
100
AcDbXrecord
  1
kck
  1
*
  1
*
  1
*
 70
     0
  1
*
  1
*
  0
XRECORD
  5
49
102
{ACAD_REACTORS
330
16
102
}
330
16
100
AcDbXrecord
  1
kkk
  1
k
  1
*
  1
*
 70
     0
  1
*
  1
*
  0
XRECORD
  5
4A
102
{ACAD_REACTORS
330
16
102
}
330
16
100
AcDbXrecord
  1
lay
  1
??-*
  1
*
  1
*
 70
     0
  1
*
  1
*
  0
XRECORD
  5
4E
102
{ACAD_REACTORS
330
16
102
}
330
16
100
AcDbXrecord
  1
Layer-0
  1
0*
  1
*
  1
*
 70
     0
  1
*
  1
*
  0
XRECORD
  5
4F
102
{ACAD_REACTORS
330
16
102
}
330
16
100
AcDbXrecord
  1
Layer-1
  1
1*
  1
*
  1
*
 70
     0
  1
*
  1
*
  0
XRECORD
  5
4B
102
{ACAD_REACTORS
330
16
102
}
330
16
100
AcDbXrecord
  1
Layer 1 und 0
  1
1*,0
  1
*
  1
*
 70
     0
  1
*
  1
*
  0
XRECORD
  5
4C
102
{ACAD_REACTORS
330
16
102
}
330
16
100
AcDbXrecord
  1
Layer 2 und 0
  1
2*,0
  1
*
  1
*
 70
     0
  1
*
  1
*
  0
XRECORD
  5
4D
102
{ACAD_REACTORS
330
16
102
}
330
16
100
AcDbXrecord
  1
Layer 9 und 0 Schraffur
  1
9*,0
  1
*
  1
*
 70
     0
  1
*
  1
*
  0
XRECORD
  5
50
102
{ACAD_REACTORS
330
16
102
}
330
16
100
AcDbXrecord
  1
LOCK
  1
*
  1
*
  1
*
 70
   256
  1
*
  1
*
  0
XRECORD
  5
51
102
{ACAD_REACTORS
330
16
102
}
330
16
100
AcDbXrecord
  1
locked
  1
*
  1
*
  1
*
 70
   256
  1
*
  1
*
  0
XRECORD
  5
52
102
{ACAD_REACTORS
330
16
102
}
330
16
100
AcDbXrecord
  1
Lotes
  1
*
  1
*
  1
*
 70
     1
  1
*
  1
*
  0
XRECORD
  5
53
102
{ACAD_REACTORS
330
16
102
}
330
16
100
AcDbXrecord
  1
LUNAR
  1
*
  1
*
  1
*
 70
    48
  1
*
  1
*
  0
XRECORD
  5
54
102
{ACAD_REACTORS
330
16
102
}
330
16
100
AcDbXrecord
  1
LUNAR2
  1
*
  1
*
  1
*
 70
    12
  1
*
  1
*
  0
XRECORD
  5
55
102
{ACAD_REACTORS
330
16
102
}
330
16
100
AcDbXrecord
  1
M
  1
M*
  1
*
  1
*
 70
     0
  1
*
  1
*
  0
XRECORD
  5
56
102
{ACAD_REACTORS
330
16
102
}
330
16
100
AcDbXrecord
  1
mis_layers
  1
mis_*
  1
*
  1
*
 70
     0
  1
*
  1
*
  0
XRECORD
  5
57
102
{ACAD_REACTORS
330
16
102
}
330
16
100
AcDbXrecord
  1
MRKCK
  1
*
  1
*
  1
*
 70
     0
  1
*
  1
*
  0
XRECORD
  5
58
102
{ACAD_REACTORS
330
16
102
}
330
16
100
AcDbXrecord
  1
NECADKON
  1
~*?[KAHBSM]?????[23M]*
  1
*
  1
*
 70
     0
  1
*
  1
*
  0
XRECORD
  5
59
102
{ACAD_REACTORS
330
16
102
}
330
16
100
AcDbXrecord
  1
NI_LH
  1
NI_LH*
  1
*
  1
*
 70
     0
  1
*
  1
*
  0
XRECORD
  5
5A
102
{ACAD_REACTORS
330
16
102
}
330
16
100
AcDbXrecord
  1
NI_RH
  1
NI_RH*
  1
*
  1
*
 70
     0
  1
*
  1
*
  0
XRECORD
  5
5B
102
{ACAD_REACTORS
330
16
102
}
330
16
100
AcDbXrecord
  1
NUM
  1
NUM*
  1
*
  1
*
 70
     0
  1
*
  1
*
  0
XRECORD
  5
5C
102
{ACAD_REACTORS
330
16
102
}
330
16
100
AcDbXrecord
  1
off
  1
*
  1
*
  1
*
 70
     3
  1
*
  1
*
  0
XRECORD
  5
5D
102
{ACAD_REACTORS
330
16
102
}
330
16
100
AcDbXrecord
  1
on
  1
*
  1
*
  1
*
 70
     0
  1
*
  1
*
  0
XRECORD
  5
5E
102
{ACAD_REACTORS
330
16
102
}
330
16
100
AcDbXrecord
  1
PBASE
  1
*PBASE
  1
*
  1
*
 70
     0
  1
*
  1
*
  0
XRECORD
  5
5F
102
{ACAD_REACTORS
330
16
102
}
330
16
100
AcDbXrecord
  1
PEGC
  1
*PEGC
  1
*
  1
*
 70
     0
  1
*
  1
*
  0
XRECORD
  5
60
102
{ACAD_REACTORS
330
16
102
}
330
16
100
AcDbXrecord
  1
PEGCT
  1
*PEGCT
  1
*
  1
*
 70
     0
  1
*
  1
*
  0
XRECORD
  5
61
102
{ACAD_REACTORS
330
16
102
}
330
16
100
AcDbXrecord
  1
PFRAME
  1
PFRAME*
  1
*
  1
*
 70
     0
  1
*
  1
*
  0
XRECORD
  5
62
102
{ACAD_REACTORS
330
16
102
}
330
16
100
AcDbXrecord
  1
PGRID
  1
*PGRID
  1
*
  1
*
 70
     0
  1
*
  1
*
  0
XRECORD
  5
63
102
{ACAD_REACTORS
330
16
102
}
330
16
100
AcDbXrecord
  1
PGRIDT
  1
*PGRIDT
  1
*
  1
*
 70
     0
  1
*
  1
*
  0
XRECORD
  5
64
102
{ACAD_REACTORS
330
16
102
}
330
16
100
AcDbXrecord
  1
PLAFONES
  1
0-*
  1
*
  1
*
 70
     0
  1
*
  1
*
  0
XRECORD
  5
65
102
{ACAD_REACTORS
330
16
102
}
330
16
100
AcDbXrecord
  1
PLANTAS
  1
P-*
  1
*
  1
*
 70
     0
  1
*
  1
*
  0
XRECORD
  5
66
102
{ACAD_REACTORS
330
16
102
}
330
16
100
AcDbXrecord
  1
Plot
  1
*
  1
*
  1
*
 70
  1024
  1
*
  1
*
  0
XRECORD
  5
67
102
{ACAD_REACTORS
330
16
102
}
330
16
100
AcDbXrecord
  1
PRENDIDAS
  1
*
  1
*
  1
*
 70
    13
  1
*
  1
*
  0
XRECORD
  5
68
102
{ACAD_REACTORS
330
16
102
}
330
16
100
AcDbXrecord
  1
PRENDIDOS
  1
*
  1
*
  1
*
 70
    12
  1
*
  1
*
  0
XRECORD
  5
69
102
{ACAD_REACTORS
330
16
102
}
330
16
100
AcDbXrecord
  1
print
  1
*
  1
7
  1
*
 70
  1280
  1
*
  1
*
  0
XRECORD
  5
6A
102
{ACAD_REACTORS
330
16
102
}
330
16
100
AcDbXrecord
  1
PT
  1
PT-*
  1
*
  1
*
 70
     0
  1
*
  1
*
  0
XRECORD
  5
6B
102
{ACAD_REACTORS
330
16
102
}
330
16
100
AcDbXrecord
  1
PTH
  1
PTH*
  1
*
  1
*
 70
     0
  1
*
  1
*
  0
XRECORD
  5
6C
102
{ACAD_REACTORS
330
16
102
}
330
16
100
AcDbXrecord
  1
PVGRID
  1
*PVGRID
  1
*
  1
*
 70
     0
  1
*
  1
*
  0
XRECORD
  5
6D
102
{ACAD_REACTORS
330
16
102
}
330
16
100
AcDbXrecord
  1
Red de Agua Potable
  1
Red de Agua Potable
  1
*
  1
*
 70
     1
  1
*
  1
*
  0
XRECORD
  5
6E
102
{ACAD_REACTORS
330
16
102
}
330
16
100
AcDbXrecord
  1
Red de Energia Electrica
  1
Lotes
  1
*
  1
*
 70
     1
  1
*
  1
*
  0
XRECORD
  5
6F
102
{ACAD_REACTORS
330
16
102
}
330
16
100
AcDbXrecord
  1
SEVERNI
  1
*-S
  1
*
  1
*
 70
     0
  1
*
  1
*
  0
XRECORD
  5
70
102
{ACAD_REACTORS
330
16
102
}
330
16
100
AcDbXrecord
  1
shin
  1
일*
  1
*
  1
*
 70
     0
  1
*
  1
*
  0
XRECORD
  5
71
102
{ACAD_REACTORS
330
16
102
}
330
16
100
AcDbXrecord
  1
SHOW ALL LAYER
  1
*
  1
*
  1
*
 70
     0
  1
*
  1
*
  0
XRECORD
  5
72
102
{ACAD_REACTORS
330
16
102
}
330
16
100
AcDbXrecord
  1
sin
  1
sin
  1
*
  1
*
 70
     0
  1
*
  1
*
  0
XRECORD
  5
73
102
{ACAD_REACTORS
330
16
102
}
330
16
100
AcDbXrecord
  1
STORAGE-CART
  1
STORAGE-CART*
  1
*
  1
*
 70
     0
  1
*
  1
*
  0
XRECORD
  5
74
102
{ACAD_REACTORS
330
16
102
}
330
16
100
AcDbXrecord
  1
T
  1
T*
  1
*
  1
*
 70
     0
  1
*
  1
*
  0
XRECORD
  5
75
102
{ACAD_REACTORS
330
16
102
}
330
16
100
AcDbXrecord
  1
TEXTOS
  1
TXT*
  1
*
  1
*
 70
     0
  1
*
  1
*
  0
XRECORD
  5
76
102
{ACAD_REACTORS
330
16
102
}
330
16
100
AcDbXrecord
  1
TEXTURAS
  1
*TEXTURAS
  1
*
  1
*
 70
     0
  1
*
  1
*
  0
XRECORD
  5
77
102
{ACAD_REACTORS
330
16
102
}
330
16
100
AcDbXrecord
  1
TUBERIAS
  1
T*
  1
*
  1
*
 70
     0
  1
*
  1
*
  0
XRECORD
  5
78
102
{ACAD_REACTORS
330
16
102
}
330
16
100
AcDbXrecord
  1
UNFRZ
  1
*
  1
*
  1
*
 70
    12
  1
*
  1
*
  0
XRECORD
  5
79
102
{ACAD_REACTORS
330
16
102
}
330
16
100
AcDbXrecord
  1
v\U+0161echny nepou\U+017E\U+00EDvan\U+00E9
  1
*
  1
*
  1
*
 70
     0
  1
*
  1
*
  0
XRECORD
  5
7A
102
{ACAD_REACTORS
330
16
102
}
330
16
100
AcDbXrecord
  1
VA
  1
VA*
  1
*
  1
*
 70
     0
  1
*
  1
*
  0
XRECORD
  5
7B
102
{ACAD_REACTORS
330
16
102
}
330
16
100
AcDbXrecord
  1
Ventilaci\U+00F3n
  1
*
  1
*
  1
*
 70
     0
  1
*
  1
*
  0
XRECORD
  5
7C
102
{ACAD_REACTORS
330
16
102
}
330
16
100
AcDbXrecord
  1
VYHODNI
  1
*-V
  1
*
  1
*
 70
     0
  1
*
  1
*
  0
XRECORD
  5
7D
102
{ACAD_REACTORS
330
16
102
}
330
16
100
AcDbXrecord
  1
Yo
  1
Muros
  1
*
  1
*
 70
     0
  1
*
  1
*
  0
XRECORD
  5
7E
102
{ACAD_REACTORS
330
16
102
}
330
16
100
AcDbXrecord
  1
ZAPADNI
  1
*-Z
  1
*
  1
*
 70
     0
  1
*
  1
*
  0
XRECORD
  5
7F
102
{ACAD_REACTORS
330
16
102
}
330
16
100
AcDbXrecord
  1
사용
  1
*
  1
*
  1
*
 70
   256
  1
*
  1
*
  0
XRECORD
  5
80
102
{ACAD_REACTORS
330
16
102
}
330
16
100
AcDbXrecord
  1
신규
  1
신규
  1
*
  1
*
 70
     0
  1
*
  1
*
  0
XRECORD
  5
81
102
{ACAD_REACTORS
330
16
102
}
330
16
100
AcDbXrecord
  1
실박스
  1
BLO,SYM,SYM1,SYM2
  1
*
  1
*
 70
     0
  1
*
  1
*
  0
XRECORD
  5
82
102
{ACAD_REACTORS
330
16
102
}
330
16
100
AcDbXrecord
  1
우리토목
  1
w-*
  1
*
  1
*
 70
     0
  1
*
  1
*
  0
XRECORD
  5
83
102
{ACAD_REACTORS
330
16
102
}
330
16
100
AcDbXrecord
  1
주차
  1
car*
  1
*
  1
*
 70
     0
  1
*
  1
*
  0
XRECORD
  5
84
102
{ACAD_REACTORS
330
16
102
}
330
16
100
AcDbXrecord
  1
지상정밀
  1
*
  1
*
  1
*
 70
     0
  1
*
  1
*
  0
XRECORD
  5
85
102
{ACAD_REACTORS
330
16
102
}
330
16
100
AcDbXrecord
  1
쩜선
  1
*
  1
*
  1
*
 70
     0
  1
*
  1
*
  0
XRECORD
  5
86
102
{ACAD_REACTORS
330
16
102
}
330
16
100
AcDbXrecord
  1
플로터 작업층
  1
*
  1
*
  1
*
 70
  1025
  1
*
  1
*
  0
XRECORD
  5
87
102
{ACAD_REACTORS
330
16
102
}
330
16
100
AcDbXrecord
  1
현재 작업층
  1
*
  1
*
  1
*
 70
     1
  1
*
  1
*
  0
XRECORD
  5
88
102
{ACAD_REACTORS
330
16
102
}
330
16
100
AcDbXrecord
  1
현재 잠금
  1
*
  1
*
  1
*
 70
   257
  1
*
  1
*
  0
ENDSEC
  0
EOF
