  0
SECTION
  2
HEADER
  9
$ACADVER
  1
AC1014
  9
$ACADMAINTVER
 70
     9
  9
$DWGCODEPAGE
  3
ANSI_949
  9
$INSBASE
 10
0.0
 20
0.0
 30
0.0
  9
$EXTMIN
 10
3.159485844848063
 20
-5.090232464473842
 30
-0.0000000000000156
  9
$EXTMAX
 10
306.0342415678714
 20
398.0852247696505
 30
0.0000000000000056
  9
$LIMMIN
 10
0.0
 20
0.0
  9
$LIMMAX
 10
420.0
 20
297.0
  9
$ORTHOMODE
 70
     0
  9
$REGENMODE
 70
     1
  9
$FILLMODE
 70
     1
  9
$QTEXTMODE
 70
     0
  9
$MIRRTEXT
 70
     0
  9
$DRAGMODE
 70
     2
  9
$LTSCALE
 40
0.2
  9
$OSMODE
 70
   567
  9
$ATTMODE
 70
     1
  9
$TEXTSIZE
 40
5.777225951253058
  9
$TRACEWID
 40
1.0
  9
$TEXTSTYLE
  7
STANDARD
  9
$CLAYER
  8
0
  9
$CELTYPE
  6
BYLAYER
  9
$CECOLOR
 62
   256
  9
$CELTSCALE
 40
1.0
  9
$DELOBJ
 70
     1
  9
$DISPSILH
 70
     0
  9
$DIMSCALE
 40
1.0
  9
$DIMASZ
 40
2.5
  9
$DIMEXO
 40
1.0
  9
$DIMDLI
 40
10.0
  9
$DIMRND
 40
0.0
  9
$DIMDLE
 40
0.0
  9
$DIMEXE
 40
0.6
  9
$DIMTP
 40
0.0
  9
$DIMTM
 40
0.0
  9
$DIMTXT
 40
3.0
  9
$DIMCEN
 40
0.09
  9
$DIMTSZ
 40
0.0
  9
$DIMTOL
 70
     0
  9
$DIMLIM
 70
     0
  9
$DIMTIH
 70
     0
  9
$DIMTOH
 70
     0
  9
$DIMSE1
 70
     0
  9
$DIMSE2
 70
     0
  9
$DIMTAD
 70
     1
  9
$DIMZIN
 70
     8
  9
$DIMBLK
  1

  9
$DIMASO
 70
     1
  9
$DIMSHO
 70
     1
  9
$DIMPOST
  1

  9
$DIMAPOST
  1

  9
$DIMALT
 70
     0
  9
$DIMALTD
 70
     2
  9
$DIMALTF
 40
25.4
  9
$DIMLFAC
 40
1.0
  9
$DIMTOFL
 70
     1
  9
$DIMTVP
 40
0.0
  9
$DIMTIX
 70
     1
  9
$DIMSOXD
 70
     0
  9
$DIMSAH
 70
     0
  9
$DIMBLK1
  1

  9
$DIMBLK2
  1

  9
$DIMSTYLE
  2
STANDARD
  9
$DIMCLRD
 70
   123
  9
$DIMCLRE
 70
   123
  9
$DIMCLRT
 70
     3
  9
$DIMTFAC
 40
1.0
  9
$DIMGAP
 40
1.0
  9
$DIMJUST
 70
     0
  9
$DIMSD1
 70
     0
  9
$DIMSD2
 70
     0
  9
$DIMTOLJ
 70
     1
  9
$DIMTZIN
 70
     0
  9
$DIMALTZ
 70
     0
  9
$DIMALTTZ
 70
     0
  9
$DIMFIT
 70
     3
  9
$DIMUPT
 70
     1
  9
$DIMUNIT
 70
     2
  9
$DIMDEC
 70
     2
  9
$DIMTDEC
 70
     2
  9
$DIMALTU
 70
     2
  9
$DIMALTTD
 70
     2
  9
$DIMTXSTY
  7
STANDARD
  9
$DIMAUNIT
 70
     1
  9
$LUNITS
 70
     2
  9
$LUPREC
 70
     4
  9
$SKETCHINC
 40
1.0
  9
$FILLETRAD
 40
0.5
  9
$AUNITS
 70
     0
  9
$AUPREC
 70
     0
  9
$MENU
  1
.
  9
$ELEVATION
 40
0.0
  9
$PELEVATION
 40
0.0
  9
$THICKNESS
 40
0.0
  9
$LIMCHECK
 70
     0
  9
$BLIPMODE
 70
     1
  9
$CHAMFERA
 40
1.0
  9
$CHAMFERB
 40
1.0
  9
$CHAMFERC
 40
20.0
  9
$CHAMFERD
 40
0.0
  9
$SKPOLY
 70
     0
  9
$TDCREATE
 40
2452839.586179271
  9
$TDUPDATE
 40
2453376.720722280
  9
$TDINDWG
 40
11.1316852199
  9
$TDUSRTIMER
 40
11.1316850463
  9
$USRTIMER
 70
     1
  9
$ANGBASE
 50
0.0
  9
$ANGDIR
 70
     0
  9
$PDMODE
 70
     0
  9
$PDSIZE
 40
0.0
  9
$PLINEWID
 40
0.0
  9
$COORDS
 70
     2
  9
$SPLFRAME
 70
     0
  9
$SPLINETYPE
 70
     6
  9
$SPLINESEGS
 70
   800
  9
$ATTDIA
 70
     0
  9
$ATTREQ
 70
     1
  9
$HANDLING
 70
 22529
  9
$HANDSEED
  5
543
  9
$SURFTAB1
 70
     6
  9
$SURFTAB2
 70
     6
  9
$SURFTYPE
 70
     6
  9
$SURFU
 70
     6
  9
$SURFV
 70
     6
  9
$UCSNAME
  2

  9
$UCSORG
 10
0.0
 20
0.0
 30
0.0
  9
$UCSXDIR
 10
1.0
 20
0.0
 30
0.0
  9
$UCSYDIR
 10
0.0
 20
1.0
 30
0.0
  9
$PUCSNAME
  2

  9
$PUCSORG
 10
0.0
 20
0.0
 30
0.0
  9
$PUCSXDIR
 10
1.0
 20
0.0
 30
0.0
  9
$PUCSYDIR
 10
0.0
 20
1.0
 30
0.0
  9
$USERI1
 70
     0
  9
$USERI2
 70
     0
  9
$USERI3
 70
     0
  9
$USERI4
 70
     0
  9
$USERI5
 70
     0
  9
$USERR1
 40
0.0
  9
$USERR2
 40
0.0
  9
$USERR3
 40
0.0
  9
$USERR4
 40
0.0
  9
$USERR5
 40
0.0
  9
$WORLDVIEW
 70
     1
  9
$SHADEDGE
 70
     3
  9
$SHADEDIF
 70
    70
  9
$TILEMODE
 70
     1
  9
$MAXACTVP
 70
    48
  9
$PINSBASE
 10
0.0
 20
0.0
 30
0.0
  9
$PLIMCHECK
 70
     0
  9
$PEXTMIN
 10
0.0
 20
0.0
 30
0.0
  9
$PEXTMAX
 10
0.0
 20
0.0
 30
0.0
  9
$PLIMMIN
 10
0.0
 20
0.0
  9
$PLIMMAX
 10
12.0
 20
9.0
  9
$UNITMODE
 70
     0
  9
$VISRETAIN
 70
     1
  9
$PLINEGEN
 70
     0
  9
$PSLTSCALE
 70
     1
  9
$TREEDEPTH
 70
  3020
  9
$PICKSTYLE
 70
     0
  9
$CMLSTYLE
  2
STANDARD
  9
$CMLJUST
 70
     0
  9
$CMLSCALE
 40
20.0
  9
$PROXYGRAPHICS
 70
     1
  9
$MEASUREMENT
 70
     1
  0
ENDSEC
  0
SECTION
  2
CLASSES
  0
CLASS
  1
ACDBDICTIONARYWDFLT
  2
AcDbDictionaryWithDefault
  3
AutoCAD 2000
 90
        0
280
     0
281
     0
  0
CLASS
  1
ACDBPLACEHOLDER
  2
AcDbPlaceHolder
  3
AutoCAD 2000
 90
        0
280
     0
281
     0
  0
CLASS
  1
LAYOUT
  2
AcDbLayout
  3
AutoCAD 2000
 90
        0
280
     0
281
     0
  0
CLASS
  1
DICTIONARYVAR
  2
AcDbDictionaryVar
  3
AutoCAD 2000
 90
        0
280
     0
281
     0
  0
CLASS
  1
DIMASSOC
  2
AcDbDimAssoc
  3
"AcDbDimAssoc|Product Desc:     AcDim ARX App For Dimension|Company:          Autodesk, Inc.|WEB Address:      www.autodesk.com"
 90
        0
280
     0
281
     0
  0
CLASS
  1
LONG_TRANSACTION
  2
AcDbLongTransaction
  3
AutoCAD 2000
 90
        0
280
     0
281
     0
  0
CLASS
  1
LWPOLYLINE
  2
AcDbPolyline
  3
AutoCAD 2000
 90
        0
280
     0
281
     1
  0
CLASS
  1
HATCH
  2
AcDbHatch
  3
AutoCAD 2000
 90
        0
280
     0
281
     1
  0
CLASS
  1
XRECORD
  2
AcDbXrecord
  3
AutoCAD 2000
 90
        0
280
     0
281
     0
  0
CLASS
  1
LONG_TRANSACTION
  2
AcDbLongTransaction
  3
AutoCAD 2000
 90
        0
280
     0
281
     0
  0
CLASS
  1
LWPOLYLINE
  2
AcDbPolyline
  3
AutoCAD 2000
 90
        0
280
     0
281
     1
  0
CLASS
  1
HATCH
  2
AcDbHatch
  3
AutoCAD 2000
 90
        0
280
     0
281
     1
  0
CLASS
  1
XRECORD
  2
AcDbXrecord
  3
AutoCAD 2000
 90
        0
280
     0
281
     0
  0
CLASS
  1
LONG_TRANSACTION
  2
AcDbLongTransaction
  3
AutoCAD 2000
 90
        0
280
     0
281
     0
  0
CLASS
  1
LWPOLYLINE
  2
AcDbPolyline
  3
AutoCAD 2000
 90
        0
280
     0
281
     1
  0
CLASS
  1
HATCH
  2
AcDbHatch
  3
AutoCAD 2000
 90
        0
280
     0
281
     1
  0
CLASS
  1
XRECORD
  2
AcDbXrecord
  3
AutoCAD 2000
 90
        0
280
     0
281
     0
  0
CLASS
  1
LONG_TRANSACTION
  2
AcDbLongTransaction
  3
AutoCAD 2000
 90
        0
280
     0
281
     0
  0
CLASS
  1
LWPOLYLINE
  2
AcDbPolyline
  3
AutoCAD 2000
 90
        0
280
     0
281
     1
  0
CLASS
  1
HATCH
  2
AcDbHatch
  3
AutoCAD 2000
 90
        0
280
     0
281
     1
  0
CLASS
  1
XRECORD
  2
AcDbXrecord
  3
AutoCAD 2000
 90
        0
280
     0
281
     0
  0
CLASS
  1
LONG_TRANSACTION
  2
AcDbLongTransaction
  3
AutoCAD 2000
 90
        0
280
     0
281
     0
  0
CLASS
  1
LWPOLYLINE
  2
AcDbPolyline
  3
AutoCAD 2000
 90
        0
280
     0
281
     1
  0
CLASS
  1
HATCH
  2
AcDbHatch
  3
AutoCAD 2000
 90
        0
280
     0
281
     1
  0
CLASS
  1
XRECORD
  2
AcDbXrecord
  3
AutoCAD 2000
 90
        0
280
     0
281
     0
  0
CLASS
  1
LONG_TRANSACTION
  2
AcDbLongTransaction
  3
AutoCAD 2000
 90
        0
280
     0
281
     0
  0
CLASS
  1
LWPOLYLINE
  2
AcDbPolyline
  3
AutoCAD 2000
 90
        0
280
     0
281
     1
  0
CLASS
  1
HATCH
  2
AcDbHatch
  3
AutoCAD 2000
 90
        0
280
     0
281
     1
  0
CLASS
  1
XRECORD
  2
AcDbXrecord
  3
AutoCAD 2000
 90
        0
280
     0
281
     0
  0
CLASS
  1
LONG_TRANSACTION
  2
AcDbLongTransaction
  3
AutoCAD 2000
 90
        0
280
     0
281
     0
  0
CLASS
  1
LWPOLYLINE
  2
AcDbPolyline
  3
AutoCAD 2000
 90
        0
280
     0
281
     1
  0
CLASS
  1
HATCH
  2
AcDbHatch
  3
AutoCAD 2000
 90
        0
280
     0
281
     1
  0
CLASS
  1
XRECORD
  2
AcDbXrecord
  3
AutoCAD 2000
 90
        0
280
     0
281
     0
  0
CLASS
  1
LONG_TRANSACTION
  2
AcDbLongTransaction
  3
AutoCAD 2000
 90
        0
280
     0
281
     0
  0
CLASS
  1
LWPOLYLINE
  2
AcDbPolyline
  3
AutoCAD 2000
 90
        0
280
     0
281
     1
  0
CLASS
  1
HATCH
  2
AcDbHatch
  3
AutoCAD 2000
 90
        0
280
     0
281
     1
  0
CLASS
  1
XRECORD
  2
AcDbXrecord
  3
AutoCAD 2000
 90
        0
280
     0
281
     0
  0
CLASS
  1
LONG_TRANSACTION
  2
AcDbLongTransaction
  3
AutoCAD 2000
 90
        0
280
     0
281
     0
  0
CLASS
  1
LWPOLYLINE
  2
AcDbPolyline
  3
AutoCAD 2000
 90
        0
280
     0
281
     1
  0
CLASS
  1
HATCH
  2
AcDbHatch
  3
AutoCAD 2000
 90
        0
280
     0
281
     1
  0
CLASS
  1
XRECORD
  2
AcDbXrecord
  3
AutoCAD 2000
 90
        0
280
     0
281
     0
  0
CLASS
  1
LONG_TRANSACTION
  2
AcDbLongTransaction
  3
AutoCAD 2000
 90
        0
280
     0
281
     0
  0
CLASS
  1
LWPOLYLINE
  2
AcDbPolyline
  3
AutoCAD 2000
 90
        0
280
     0
281
     1
  0
CLASS
  1
HATCH
  2
AcDbHatch
  3
AutoCAD 2000
 90
        0
280
     0
281
     1
  0
CLASS
  1
XRECORD
  2
AcDbXrecord
  3
AutoCAD 2000
 90
        0
280
     0
281
     0
  0
CLASS
  1
LONG_TRANSACTION
  2
AcDbLongTransaction
  3
AutoCAD 2000
 90
        0
280
     0
281
     0
  0
CLASS
  1
LWPOLYLINE
  2
AcDbPolyline
  3
AutoCAD 2000
 90
        0
280
     0
281
     1
  0
CLASS
  1
HATCH
  2
AcDbHatch
  3
AutoCAD 2000
 90
        0
280
     0
281
     1
  0
CLASS
  1
XRECORD
  2
AcDbXrecord
  3
AutoCAD 2000
 90
        0
280
     0
281
     0
  0
CLASS
  1
LONG_TRANSACTION
  2
AcDbLongTransaction
  3
AutoCAD 2000
 90
        0
280
     0
281
     0
  0
CLASS
  1
LWPOLYLINE
  2
AcDbPolyline
  3
AutoCAD 2000
 90
        0
280
     0
281
     1
  0
CLASS
  1
HATCH
  2
AcDbHatch
  3
AutoCAD 2000
 90
        0
280
     0
281
     1
  0
CLASS
  1
XRECORD
  2
AcDbXrecord
  3
AutoCAD 2000
 90
        0
280
     0
281
     0
  0
CLASS
  1
LONG_TRANSACTION
  2
AcDbLongTransaction
  3
AutoCAD 2000
 90
        0
280
     0
281
     0
  0
CLASS
  1
LWPOLYLINE
  2
AcDbPolyline
  3
AutoCAD 2000
 90
        0
280
     0
281
     1
  0
CLASS
  1
HATCH
  2
AcDbHatch
  3
AutoCAD 2000
 90
        0
280
     0
281
     1
  0
CLASS
  1
XRECORD
  2
AcDbXrecord
  3
AutoCAD 2000
 90
        0
280
     0
281
     0
  0
CLASS
  1
LONG_TRANSACTION
  2
AcDbLongTransaction
  3
AutoCAD 2000
 90
        0
280
     0
281
     0
  0
CLASS
  1
LWPOLYLINE
  2
AcDbPolyline
  3
AutoCAD 2000
 90
        0
280
     0
281
     1
  0
CLASS
  1
HATCH
  2
AcDbHatch
  3
AutoCAD 2000
 90
        0
280
     0
281
     1
  0
CLASS
  1
XRECORD
  2
AcDbXrecord
  3
AutoCAD 2000
 90
        0
280
     0
281
     0
  0
CLASS
  1
LONG_TRANSACTION
  2
AcDbLongTransaction
  3
AutoCAD 2000
 90
        0
280
     0
281
     0
  0
CLASS
  1
LWPOLYLINE
  2
AcDbPolyline
  3
AutoCAD 2000
 90
        0
280
     0
281
     1
  0
CLASS
  1
HATCH
  2
AcDbHatch
  3
AutoCAD 2000
 90
        0
280
     0
281
     1
  0
CLASS
  1
XRECORD
  2
AcDbXrecord
  3
AutoCAD 2000
 90
        0
280
     0
281
     0
  0
CLASS
  1
LONG_TRANSACTION
  2
AcDbLongTransaction
  3
AutoCAD 2000
 90
        0
280
     0
281
     0
  0
CLASS
  1
LWPOLYLINE
  2
AcDbPolyline
  3
AutoCAD 2000
 90
        0
280
     0
281
     1
  0
CLASS
  1
HATCH
  2
AcDbHatch
  3
AutoCAD 2000
 90
        0
280
     0
281
     1
  0
CLASS
  1
XRECORD
  2
AcDbXrecord
  3
AutoCAD 2000
 90
        0
280
     0
281
     0
  0
CLASS
  1
LONG_TRANSACTION
  2
AcDbLongTransaction
  3
AutoCAD 2000
 90
        0
280
     0
281
     0
  0
CLASS
  1
LWPOLYLINE
  2
AcDbPolyline
  3
AutoCAD 2000
 90
        0
280
     0
281
     1
  0
CLASS
  1
HATCH
  2
AcDbHatch
  3
AutoCAD 2000
 90
        0
280
     0
281
     1
  0
CLASS
  1
XRECORD
  2
AcDbXrecord
  3
AutoCAD 2000
 90
        0
280
     0
281
     0
  0
CLASS
  1
LONG_TRANSACTION
  2
AcDbLongTransaction
  3
AutoCAD 2000
 90
        0
280
     0
281
     0
  0
CLASS
  1
LWPOLYLINE
  2
AcDbPolyline
  3
AutoCAD 2000
 90
        0
280
     0
281
     1
  0
CLASS
  1
HATCH
  2
AcDbHatch
  3
AutoCAD 2000
 90
        0
280
     0
281
     1
  0
CLASS
  1
XRECORD
  2
AcDbXrecord
  3
AutoCAD 2000
 90
        0
280
     0
281
     0
  0
CLASS
  1
LONG_TRANSACTION
  2
AcDbLongTransaction
  3
AutoCAD 2000
 90
        0
280
     0
281
     0
  0
CLASS
  1
LWPOLYLINE
  2
AcDbPolyline
  3
AutoCAD 2000
 90
        0
280
     0
281
     1
  0
CLASS
  1
HATCH
  2
AcDbHatch
  3
AutoCAD 2000
 90
        0
280
     0
281
     1
  0
CLASS
  1
XRECORD
  2
AcDbXrecord
  3
AutoCAD 2000
 90
        0
280
     0
281
     0
  0
CLASS
  1
LONG_TRANSACTION
  2
AcDbLongTransaction
  3
AutoCAD 2000
 90
        0
280
     0
281
     0
  0
CLASS
  1
LWPOLYLINE
  2
AcDbPolyline
  3
AutoCAD 2000
 90
        0
280
     0
281
     1
  0
CLASS
  1
HATCH
  2
AcDbHatch
  3
AutoCAD 2000
 90
        0
280
     0
281
     1
  0
CLASS
  1
XRECORD
  2
AcDbXrecord
  3
AutoCAD 2000
 90
        0
280
     0
281
     0
  0
CLASS
  1
LONG_TRANSACTION
  2
AcDbLongTransaction
  3
AutoCAD 2000
 90
        0
280
     0
281
     0
  0
CLASS
  1
LWPOLYLINE
  2
AcDbPolyline
  3
AutoCAD 2000
 90
        0
280
     0
281
     1
  0
CLASS
  1
HATCH
  2
AcDbHatch
  3
AutoCAD 2000
 90
        0
280
     0
281
     1
  0
CLASS
  1
XRECORD
  2
AcDbXrecord
  3
AutoCAD 2000
 90
        0
280
     0
281
     0
  0
CLASS
  1
LONG_TRANSACTION
  2
AcDbLongTransaction
  3
AutoCAD 2000
 90
        0
280
     0
281
     0
  0
CLASS
  1
LWPOLYLINE
  2
AcDbPolyline
  3
AutoCAD 2000
 90
        0
280
     0
281
     1
  0
CLASS
  1
HATCH
  2
AcDbHatch
  3
AutoCAD 2000
 90
        0
280
     0
281
     1
  0
CLASS
  1
XRECORD
  2
AcDbXrecord
  3
AutoCAD 2000
 90
        0
280
     0
281
     0
  0
CLASS
  1
LONG_TRANSACTION
  2
AcDbLongTransaction
  3
AutoCAD 2000
 90
        0
280
     0
281
     0
  0
CLASS
  1
LWPOLYLINE
  2
AcDbPolyline
  3
AutoCAD 2000
 90
        0
280
     0
281
     1
  0
CLASS
  1
HATCH
  2
AcDbHatch
  3
AutoCAD 2000
 90
        0
280
     0
281
     1
  0
CLASS
  1
XRECORD
  2
AcDbXrecord
  3
AutoCAD 2000
 90
        0
280
     0
281
     0
  0
CLASS
  1
LONG_TRANSACTION
  2
AcDbLongTransaction
  3
AutoCAD 2000
 90
        0
280
     0
281
     0
  0
CLASS
  1
LWPOLYLINE
  2
AcDbPolyline
  3
AutoCAD 2000
 90
        0
280
     0
281
     1
  0
CLASS
  1
HATCH
  2
AcDbHatch
  3
AutoCAD 2000
 90
        0
280
     0
281
     1
  0
CLASS
  1
XRECORD
  2
AcDbXrecord
  3
AutoCAD 2000
 90
        0
280
     0
281
     0
  0
CLASS
  1
LONG_TRANSACTION
  2
AcDbLongTransaction
  3
AutoCAD 2000
 90
        0
280
     0
281
     0
  0
CLASS
  1
LWPOLYLINE
  2
AcDbPolyline
  3
AutoCAD 2000
 90
        0
280
     0
281
     1
  0
CLASS
  1
HATCH
  2
AcDbHatch
  3
AutoCAD 2000
 90
        0
280
     0
281
     1
  0
CLASS
  1
XRECORD
  2
AcDbXrecord
  3
AutoCAD 2000
 90
        0
280
     0
281
     0
  0
CLASS
  1
LONG_TRANSACTION
  2
AcDbLongTransaction
  3
AutoCAD 2000
 90
        0
280
     0
281
     0
  0
CLASS
  1
LWPOLYLINE
  2
AcDbPolyline
  3
AutoCAD 2000
 90
        0
280
     0
281
     1
  0
CLASS
  1
HATCH
  2
AcDbHatch
  3
AutoCAD 2000
 90
        0
280
     0
281
     1
  0
CLASS
  1
XRECORD
  2
AcDbXrecord
  3
AutoCAD 2000
 90
        0
280
     0
281
     0
  0
CLASS
  1
LONG_TRANSACTION
  2
AcDbLongTransaction
  3
AutoCAD 2000
 90
        0
280
     0
281
     0
  0
CLASS
  1
LWPOLYLINE
  2
AcDbPolyline
  3
AutoCAD 2000
 90
        0
280
     0
281
     1
  0
CLASS
  1
HATCH
  2
AcDbHatch
  3
AutoCAD 2000
 90
        0
280
     0
281
     1
  0
CLASS
  1
XRECORD
  2
AcDbXrecord
  3
AutoCAD 2000
 90
        0
280
     0
281
     0
  0
CLASS
  1
LONG_TRANSACTION
  2
AcDbLongTransaction
  3
AutoCAD 2000
 90
        0
280
     0
281
     0
  0
CLASS
  1
LWPOLYLINE
  2
AcDbPolyline
  3
AutoCAD 2000
 90
        0
280
     0
281
     1
  0
CLASS
  1
HATCH
  2
AcDbHatch
  3
AutoCAD 2000
 90
        0
280
     0
281
     1
  0
CLASS
  1
XRECORD
  2
AcDbXrecord
  3
AutoCAD 2000
 90
        0
280
     0
281
     0
  0
CLASS
  1
LONG_TRANSACTION
  2
AcDbLongTransaction
  3
AutoCAD 2000
 90
        0
280
     0
281
     0
  0
CLASS
  1
LWPOLYLINE
  2
AcDbPolyline
  3
AutoCAD 2000
 90
        0
280
     0
281
     1
  0
CLASS
  1
HATCH
  2
AcDbHatch
  3
AutoCAD 2000
 90
        0
280
     0
281
     1
  0
CLASS
  1
XRECORD
  2
AcDbXrecord
  3
AutoCAD 2000
 90
        0
280
     0
281
     0
  0
CLASS
  1
LONG_TRANSACTION
  2
AcDbLongTransaction
  3
AutoCAD 2000
 90
        0
280
     0
281
     0
  0
CLASS
  1
LWPOLYLINE
  2
AcDbPolyline
  3
AutoCAD 2000
 90
        0
280
     0
281
     1
  0
CLASS
  1
HATCH
  2
AcDbHatch
  3
AutoCAD 2000
 90
        0
280
     0
281
     1
  0
CLASS
  1
XRECORD
  2
AcDbXrecord
  3
AutoCAD 2000
 90
        0
280
     0
281
     0
  0
CLASS
  1
LONG_TRANSACTION
  2
AcDbLongTransaction
  3
AutoCAD 2000
 90
        0
280
     0
281
     0
  0
CLASS
  1
LWPOLYLINE
  2
AcDbPolyline
  3
AutoCAD 2000
 90
        0
280
     0
281
     1
  0
CLASS
  1
HATCH
  2
AcDbHatch
  3
AutoCAD 2000
 90
        0
280
     0
281
     1
  0
CLASS
  1
XRECORD
  2
AcDbXrecord
  3
AutoCAD 2000
 90
        0
280
     0
281
     0
  0
CLASS
  1
LONG_TRANSACTION
  2
AcDbLongTransaction
  3
AutoCAD 2000
 90
        0
280
     0
281
     0
  0
CLASS
  1
LWPOLYLINE
  2
AcDbPolyline
  3
AutoCAD 2000
 90
        0
280
     0
281
     1
  0
CLASS
  1
HATCH
  2
AcDbHatch
  3
AutoCAD 2000
 90
        0
280
     0
281
     1
  0
CLASS
  1
XRECORD
  2
AcDbXrecord
  3
AutoCAD 2000
 90
        0
280
     0
281
     0
  0
CLASS
  1
LONG_TRANSACTION
  2
AcDbLongTransaction
  3
AutoCAD 2000
 90
        0
280
     0
281
     0
  0
CLASS
  1
LWPOLYLINE
  2
AcDbPolyline
  3
AutoCAD 2000
 90
        0
280
     0
281
     1
  0
CLASS
  1
HATCH
  2
AcDbHatch
  3
AutoCAD 2000
 90
        0
280
     0
281
     1
  0
CLASS
  1
XRECORD
  2
AcDbXrecord
  3
AutoCAD 2000
 90
        0
280
     0
281
     0
  0
CLASS
  1
LONG_TRANSACTION
  2
AcDbLongTransaction
  3
AutoCAD 2000
 90
        0
280
     0
281
     0
  0
CLASS
  1
LWPOLYLINE
  2
AcDbPolyline
  3
AutoCAD 2000
 90
        0
280
     0
281
     1
  0
CLASS
  1
HATCH
  2
AcDbHatch
  3
AutoCAD 2000
 90
        0
280
     0
281
     1
  0
CLASS
  1
XRECORD
  2
AcDbXrecord
  3
AutoCAD 2000
 90
        0
280
     0
281
     0
  0
CLASS
  1
LONG_TRANSACTION
  2
AcDbLongTransaction
  3
AutoCAD 2000
 90
        0
280
     0
281
     0
  0
CLASS
  1
LWPOLYLINE
  2
AcDbPolyline
  3
AutoCAD 2000
 90
        0
280
     0
281
     1
  0
CLASS
  1
HATCH
  2
AcDbHatch
  3
AutoCAD 2000
 90
        0
280
     0
281
     1
  0
CLASS
  1
XRECORD
  2
AcDbXrecord
  3
AutoCAD 2000
 90
        0
280
     0
281
     0
  0
CLASS
  1
LONG_TRANSACTION
  2
AcDbLongTransaction
  3
AutoCAD 2000
 90
        0
280
     0
281
     0
  0
CLASS
  1
LWPOLYLINE
  2
AcDbPolyline
  3
AutoCAD 2000
 90
        0
280
     0
281
     1
  0
CLASS
  1
HATCH
  2
AcDbHatch
  3
AutoCAD 2000
 90
        0
280
     0
281
     1
  0
CLASS
  1
XRECORD
  2
AcDbXrecord
  3
AutoCAD 2000
 90
        0
280
     0
281
     0
  0
CLASS
  1
LONG_TRANSACTION
  2
AcDbLongTransaction
  3
AutoCAD 2000
 90
        0
280
     0
281
     0
  0
CLASS
  1
LWPOLYLINE
  2
AcDbPolyline
  3
AutoCAD 2000
 90
        0
280
     0
281
     1
  0
CLASS
  1
HATCH
  2
AcDbHatch
  3
AutoCAD 2000
 90
        0
280
     0
281
     1
  0
CLASS
  1
XRECORD
  2
AcDbXrecord
  3
AutoCAD 2000
 90
        0
280
     0
281
     0
  0
CLASS
  1
LONG_TRANSACTION
  2
AcDbLongTransaction
  3
AutoCAD 2000
 90
        0
280
     0
281
     0
  0
CLASS
  1
LWPOLYLINE
  2
AcDbPolyline
  3
AutoCAD 2000
 90
        0
280
     0
281
     1
  0
CLASS
  1
HATCH
  2
AcDbHatch
  3
AutoCAD 2000
 90
        0
280
     0
281
     1
  0
CLASS
  1
XRECORD
  2
AcDbXrecord
  3
AutoCAD 2000
 90
        0
280
     0
281
     0
  0
CLASS
  1
LONG_TRANSACTION
  2
AcDbLongTransaction
  3
AutoCAD 2000
 90
        0
280
     0
281
     0
  0
CLASS
  1
LWPOLYLINE
  2
AcDbPolyline
  3
AutoCAD 2000
 90
        0
280
     0
281
     1
  0
CLASS
  1
HATCH
  2
AcDbHatch
  3
AutoCAD 2000
 90
        0
280
     0
281
     1
  0
CLASS
  1
XRECORD
  2
AcDbXrecord
  3
AutoCAD 2000
 90
        0
280
     0
281
     0
  0
CLASS
  1
LONG_TRANSACTION
  2
AcDbLongTransaction
  3
AutoCAD 2000
 90
        0
280
     0
281
     0
  0
CLASS
  1
LWPOLYLINE
  2
AcDbPolyline
  3
AutoCAD 2000
 90
        0
280
     0
281
     1
  0
CLASS
  1
HATCH
  2
AcDbHatch
  3
AutoCAD 2000
 90
        0
280
     0
281
     1
  0
CLASS
  1
XRECORD
  2
AcDbXrecord
  3
AutoCAD 2000
 90
        0
280
     0
281
     0
  0
CLASS
  1
LONG_TRANSACTION
  2
AcDbLongTransaction
  3
AutoCAD 2000
 90
        0
280
     0
281
     0
  0
CLASS
  1
LWPOLYLINE
  2
AcDbPolyline
  3
AutoCAD 2000
 90
        0
280
     0
281
     1
  0
CLASS
  1
HATCH
  2
AcDbHatch
  3
AutoCAD 2000
 90
        0
280
     0
281
     1
  0
CLASS
  1
XRECORD
  2
AcDbXrecord
  3
AutoCAD 2000
 90
        0
280
     0
281
     0
  0
CLASS
  1
LONG_TRANSACTION
  2
AcDbLongTransaction
  3
AutoCAD 2000
 90
        0
280
     0
281
     0
  0
CLASS
  1
LWPOLYLINE
  2
AcDbPolyline
  3
AutoCAD 2000
 90
        0
280
     0
281
     1
  0
CLASS
  1
HATCH
  2
AcDbHatch
  3
AutoCAD 2000
 90
        0
280
     0
281
     1
  0
CLASS
  1
XRECORD
  2
AcDbXrecord
  3
AutoCAD 2000
 90
        0
280
     0
281
     0
  0
CLASS
  1
LONG_TRANSACTION
  2
AcDbLongTransaction
  3
AutoCAD 2000
 90
        0
280
     0
281
     0
  0
CLASS
  1
LWPOLYLINE
  2
AcDbPolyline
  3
AutoCAD 2000
 90
        0
280
     0
281
     1
  0
CLASS
  1
HATCH
  2
AcDbHatch
  3
AutoCAD 2000
 90
        0
280
     0
281
     1
  0
CLASS
  1
XRECORD
  2
AcDbXrecord
  3
AutoCAD 2000
 90
        0
280
     0
281
     0
  0
CLASS
  1
LONG_TRANSACTION
  2
AcDbLongTransaction
  3
AutoCAD 2000
 90
        0
280
     0
281
     0
  0
CLASS
  1
LWPOLYLINE
  2
AcDbPolyline
  3
AutoCAD 2000
 90
        0
280
     0
281
     1
  0
CLASS
  1
HATCH
  2
AcDbHatch
  3
AutoCAD 2000
 90
        0
280
     0
281
     1
  0
CLASS
  1
XRECORD
  2
AcDbXrecord
  3
AutoCAD 2000
 90
        0
280
     0
281
     0
  0
CLASS
  1
LONG_TRANSACTION
  2
AcDbLongTransaction
  3
AutoCAD 2000
 90
        0
280
     0
281
     0
  0
CLASS
  1
LWPOLYLINE
  2
AcDbPolyline
  3
AutoCAD 2000
 90
        0
280
     0
281
     1
  0
CLASS
  1
HATCH
  2
AcDbHatch
  3
AutoCAD 2000
 90
        0
280
     0
281
     1
  0
CLASS
  1
XRECORD
  2
AcDbXrecord
  3
AutoCAD 2000
 90
        0
280
     0
281
     0
  0
CLASS
  1
LONG_TRANSACTION
  2
AcDbLongTransaction
  3
AutoCAD 2000
 90
        0
280
     0
281
     0
  0
CLASS
  1
LWPOLYLINE
  2
AcDbPolyline
  3
AutoCAD 2000
 90
        0
280
     0
281
     1
  0
CLASS
  1
HATCH
  2
AcDbHatch
  3
AutoCAD 2000
 90
        0
280
     0
281
     1
  0
CLASS
  1
XRECORD
  2
AcDbXrecord
  3
AutoCAD 2000
 90
        0
280
     0
281
     0
  0
CLASS
  1
LONG_TRANSACTION
  2
AcDbLongTransaction
  3
AutoCAD 2000
 90
        0
280
     0
281
     0
  0
CLASS
  1
LWPOLYLINE
  2
AcDbPolyline
  3
AutoCAD 2000
 90
        0
280
     0
281
     1
  0
CLASS
  1
HATCH
  2
AcDbHatch
  3
AutoCAD 2000
 90
        0
280
     0
281
     1
  0
CLASS
  1
XRECORD
  2
AcDbXrecord
  3
AutoCAD 2000
 90
        0
280
     0
281
     0
  0
CLASS
  1
LONG_TRANSACTION
  2
AcDbLongTransaction
  3
AutoCAD 2000
 90
        0
280
     0
281
     0
  0
CLASS
  1
LWPOLYLINE
  2
AcDbPolyline
  3
AutoCAD 2000
 90
        0
280
     0
281
     1
  0
CLASS
  1
HATCH
  2
AcDbHatch
  3
AutoCAD 2000
 90
        0
280
     0
281
     1
  0
CLASS
  1
XRECORD
  2
AcDbXrecord
  3
AutoCAD 2000
 90
        0
280
     0
281
     0
  0
CLASS
  1
LONG_TRANSACTION
  2
AcDbLongTransaction
  3
AutoCAD 2000
 90
        0
280
     0
281
     0
  0
CLASS
  1
LWPOLYLINE
  2
AcDbPolyline
  3
AutoCAD 2000
 90
        0
280
     0
281
     1
  0
CLASS
  1
HATCH
  2
AcDbHatch
  3
AutoCAD 2000
 90
        0
280
     0
281
     1
  0
CLASS
  1
XRECORD
  2
AcDbXrecord
  3
AutoCAD 2000
 90
        0
280
     0
281
     0
  0
CLASS
  1
LONG_TRANSACTION
  2
AcDbLongTransaction
  3
AutoCAD 2000
 90
        0
280
     0
281
     0
  0
CLASS
  1
LWPOLYLINE
  2
AcDbPolyline
  3
AutoCAD 2000
 90
        0
280
     0
281
     1
  0
CLASS
  1
HATCH
  2
AcDbHatch
  3
AutoCAD 2000
 90
        0
280
     0
281
     1
  0
CLASS
  1
XRECORD
  2
AcDbXrecord
  3
AutoCAD 2000
 90
        0
280
     0
281
     0
  0
CLASS
  1
LONG_TRANSACTION
  2
AcDbLongTransaction
  3
AutoCAD 2000
 90
        0
280
     0
281
     0
  0
CLASS
  1
LWPOLYLINE
  2
AcDbPolyline
  3
AutoCAD 2000
 90
        0
280
     0
281
     1
  0
CLASS
  1
HATCH
  2
AcDbHatch
  3
AutoCAD 2000
 90
        0
280
     0
281
     1
  0
CLASS
  1
XRECORD
  2
AcDbXrecord
  3
AutoCAD 2000
 90
        0
280
     0
281
     0
  0
CLASS
  1
LONG_TRANSACTION
  2
AcDbLongTransaction
  3
AutoCAD 2000
 90
        0
280
     0
281
     0
  0
CLASS
  1
LWPOLYLINE
  2
AcDbPolyline
  3
AutoCAD 2000
 90
        0
280
     0
281
     1
  0
CLASS
  1
HATCH
  2
AcDbHatch
  3
AutoCAD 2000
 90
        0
280
     0
281
     1
  0
CLASS
  1
XRECORD
  2
AcDbXrecord
  3
AutoCAD 2000
 90
        0
280
     0
281
     0
  0
CLASS
  1
LONG_TRANSACTION
  2
AcDbLongTransaction
  3
AutoCAD 2000
 90
        0
280
     0
281
     0
  0
CLASS
  1
LWPOLYLINE
  2
AcDbPolyline
  3
AutoCAD 2000
 90
        0
280
     0
281
     1
  0
CLASS
  1
HATCH
  2
AcDbHatch
  3
AutoCAD 2000
 90
        0
280
     0
281
     1
  0
CLASS
  1
XRECORD
  2
AcDbXrecord
  3
AutoCAD 2000
 90
        0
280
     0
281
     0
  0
CLASS
  1
LONG_TRANSACTION
  2
AcDbLongTransaction
  3
AutoCAD 2000
 90
        0
280
     0
281
     0
  0
CLASS
  1
LWPOLYLINE
  2
AcDbPolyline
  3
AutoCAD 2000
 90
        0
280
     0
281
     1
  0
CLASS
  1
HATCH
  2
AcDbHatch
  3
AutoCAD 2000
 90
        0
280
     0
281
     1
  0
CLASS
  1
XRECORD
  2
AcDbXrecord
  3
AutoCAD 2000
 90
        0
280
     0
281
     0
  0
CLASS
  1
LONG_TRANSACTION
  2
AcDbLongTransaction
  3
AutoCAD 2000
 90
        0
280
     0
281
     0
  0
CLASS
  1
LWPOLYLINE
  2
AcDbPolyline
  3
AutoCAD 2000
 90
        0
280
     0
281
     1
  0
CLASS
  1
HATCH
  2
AcDbHatch
  3
AutoCAD 2000
 90
        0
280
     0
281
     1
  0
CLASS
  1
XRECORD
  2
AcDbXrecord
  3
AutoCAD 2000
 90
        0
280
     0
281
     0
  0
CLASS
  1
LONG_TRANSACTION
  2
AcDbLongTransaction
  3
AutoCAD 2000
 90
        0
280
     0
281
     0
  0
CLASS
  1
LWPOLYLINE
  2
AcDbPolyline
  3
AutoCAD 2000
 90
        0
280
     0
281
     1
  0
CLASS
  1
HATCH
  2
AcDbHatch
  3
AutoCAD 2000
 90
        0
280
     0
281
     1
  0
CLASS
  1
XRECORD
  2
AcDbXrecord
  3
AutoCAD 2000
 90
        0
280
     0
281
     0
  0
CLASS
  1
LONG_TRANSACTION
  2
AcDbLongTransaction
  3
AutoCAD 2000
 90
        0
280
     0
281
     0
  0
CLASS
  1
LWPOLYLINE
  2
AcDbPolyline
  3
AutoCAD 2000
 90
        0
280
     0
281
     1
  0
CLASS
  1
HATCH
  2
AcDbHatch
  3
AutoCAD 2000
 90
        0
280
     0
281
     1
  0
CLASS
  1
XRECORD
  2
AcDbXrecord
  3
AutoCAD 2000
 90
        0
280
     0
281
     0
  0
CLASS
  1
LONG_TRANSACTION
  2
AcDbLongTransaction
  3
AutoCAD 2000
 90
        0
280
     0
281
     0
  0
CLASS
  1
LWPOLYLINE
  2
AcDbPolyline
  3
AutoCAD 2000
 90
        0
280
     0
281
     1
  0
CLASS
  1
HATCH
  2
AcDbHatch
  3
AutoCAD 2000
 90
        0
280
     0
281
     1
  0
CLASS
  1
XRECORD
  2
AcDbXrecord
  3
AutoCAD 2000
 90
        0
280
     0
281
     0
  0
CLASS
  1
LONG_TRANSACTION
  2
AcDbLongTransaction
  3
AutoCAD 2000
 90
        0
280
     0
281
     0
  0
CLASS
  1
LWPOLYLINE
  2
AcDbPolyline
  3
AutoCAD 2000
 90
        0
280
     0
281
     1
  0
CLASS
  1
HATCH
  2
AcDbHatch
  3
AutoCAD 2000
 90
        0
280
     0
281
     1
  0
CLASS
  1
XRECORD
  2
AcDbXrecord
  3
AutoCAD 2000
 90
        0
280
     0
281
     0
  0
CLASS
  1
LONG_TRANSACTION
  2
AcDbLongTransaction
  3
AutoCAD 2000
 90
        0
280
     0
281
     0
  0
CLASS
  1
LWPOLYLINE
  2
AcDbPolyline
  3
AutoCAD 2000
 90
        0
280
     0
281
     1
  0
CLASS
  1
HATCH
  2
AcDbHatch
  3
AutoCAD 2000
 90
        0
280
     0
281
     1
  0
CLASS
  1
XRECORD
  2
AcDbXrecord
  3
AutoCAD 2000
 90
        0
280
     0
281
     0
  0
CLASS
  1
LONG_TRANSACTION
  2
AcDbLongTransaction
  3
AutoCAD 2000
 90
        0
280
     0
281
     0
  0
CLASS
  1
LWPOLYLINE
  2
AcDbPolyline
  3
AutoCAD 2000
 90
        0
280
     0
281
     1
  0
CLASS
  1
HATCH
  2
AcDbHatch
  3
AutoCAD 2000
 90
        0
280
     0
281
     1
  0
CLASS
  1
XRECORD
  2
AcDbXrecord
  3
AutoCAD 2000
 90
        0
280
     0
281
     0
  0
CLASS
  1
LONG_TRANSACTION
  2
AcDbLongTransaction
  3
AutoCAD 2000
 90
        0
280
     0
281
     0
  0
CLASS
  1
LWPOLYLINE
  2
AcDbPolyline
  3
AutoCAD 2000
 90
        0
280
     0
281
     1
  0
CLASS
  1
HATCH
  2
AcDbHatch
  3
AutoCAD 2000
 90
        0
280
     0
281
     1
  0
CLASS
  1
XRECORD
  2
AcDbXrecord
  3
AutoCAD 2000
 90
        0
280
     0
281
     0
  0
CLASS
  1
LONG_TRANSACTION
  2
AcDbLongTransaction
  3
AutoCAD 2000
 90
        0
280
     0
281
     0
  0
CLASS
  1
LWPOLYLINE
  2
AcDbPolyline
  3
AutoCAD 2000
 90
        0
280
     0
281
     1
  0
CLASS
  1
HATCH
  2
AcDbHatch
  3
AutoCAD 2000
 90
        0
280
     0
281
     1
  0
CLASS
  1
XRECORD
  2
AcDbXrecord
  3
AutoCAD 2000
 90
        0
280
     0
281
     0
  0
CLASS
  1
LONG_TRANSACTION
  2
AcDbLongTransaction
  3
AutoCAD 2000
 90
        0
280
     0
281
     0
  0
CLASS
  1
LWPOLYLINE
  2
AcDbPolyline
  3
AutoCAD 2000
 90
        0
280
     0
281
     1
  0
CLASS
  1
HATCH
  2
AcDbHatch
  3
AutoCAD 2000
 90
        0
280
     0
281
     1
  0
CLASS
  1
XRECORD
  2
AcDbXrecord
  3
AutoCAD 2000
 90
        0
280
     0
281
     0
  0
CLASS
  1
LONG_TRANSACTION
  2
AcDbLongTransaction
  3
AutoCAD 2000
 90
        0
280
     0
281
     0
  0
CLASS
  1
LWPOLYLINE
  2
AcDbPolyline
  3
AutoCAD 2000
 90
        0
280
     0
281
     1
  0
CLASS
  1
HATCH
  2
AcDbHatch
  3
AutoCAD 2000
 90
        0
280
     0
281
     1
  0
CLASS
  1
XRECORD
  2
AcDbXrecord
  3
AutoCAD 2000
 90
        0
280
     0
281
     0
  0
CLASS
  1
LONG_TRANSACTION
  2
AcDbLongTransaction
  3
AutoCAD 2000
 90
        0
280
     0
281
     0
  0
CLASS
  1
LWPOLYLINE
  2
AcDbPolyline
  3
AutoCAD 2000
 90
        0
280
     0
281
     1
  0
CLASS
  1
HATCH
  2
AcDbHatch
  3
AutoCAD 2000
 90
        0
280
     0
281
     1
  0
CLASS
  1
XRECORD
  2
AcDbXrecord
  3
AutoCAD 2000
 90
        0
280
     0
281
     0
  0
CLASS
  1
LONG_TRANSACTION
  2
AcDbLongTransaction
  3
AutoCAD 2000
 90
        0
280
     0
281
     0
  0
CLASS
  1
LWPOLYLINE
  2
AcDbPolyline
  3
AutoCAD 2000
 90
        0
280
     0
281
     1
  0
CLASS
  1
HATCH
  2
AcDbHatch
  3
AutoCAD 2000
 90
        0
280
     0
281
     1
  0
CLASS
  1
XRECORD
  2
AcDbXrecord
  3
AutoCAD 2000
 90
        0
280
     0
281
     0
  0
CLASS
  1
LONG_TRANSACTION
  2
AcDbLongTransaction
  3
AutoCAD 2000
 90
        0
280
     0
281
     0
  0
CLASS
  1
LWPOLYLINE
  2
AcDbPolyline
  3
AutoCAD 2000
 90
        0
280
     0
281
     1
  0
CLASS
  1
HATCH
  2
AcDbHatch
  3
AutoCAD 2000
 90
        0
280
     0
281
     1
  0
CLASS
  1
XRECORD
  2
AcDbXrecord
  3
AutoCAD 2000
 90
        0
280
     0
281
     0
  0
CLASS
  1
LONG_TRANSACTION
  2
AcDbLongTransaction
  3
AutoCAD 2000
 90
        0
280
     0
281
     0
  0
CLASS
  1
LWPOLYLINE
  2
AcDbPolyline
  3
AutoCAD 2000
 90
        0
280
     0
281
     1
  0
CLASS
  1
HATCH
  2
AcDbHatch
  3
AutoCAD 2000
 90
        0
280
     0
281
     1
  0
CLASS
  1
XRECORD
  2
AcDbXrecord
  3
AutoCAD 2000
 90
        0
280
     0
281
     0
  0
CLASS
  1
LONG_TRANSACTION
  2
AcDbLongTransaction
  3
AutoCAD 2000
 90
        0
280
     0
281
     0
  0
CLASS
  1
LWPOLYLINE
  2
AcDbPolyline
  3
AutoCAD 2000
 90
        0
280
     0
281
     1
  0
CLASS
  1
HATCH
  2
AcDbHatch
  3
AutoCAD 2000
 90
        0
280
     0
281
     1
  0
CLASS
  1
XRECORD
  2
AcDbXrecord
  3
AutoCAD 2000
 90
        0
280
     0
281
     0
  0
CLASS
  1
LONG_TRANSACTION
  2
AcDbLongTransaction
  3
AutoCAD 2000
 90
        0
280
     0
281
     0
  0
CLASS
  1
LWPOLYLINE
  2
AcDbPolyline
  3
AutoCAD 2000
 90
        0
280
     0
281
     1
  0
CLASS
  1
HATCH
  2
AcDbHatch
  3
AutoCAD 2000
 90
        0
280
     0
281
     1
  0
CLASS
  1
XRECORD
  2
AcDbXrecord
  3
AutoCAD 2000
 90
        0
280
     0
281
     0
  0
CLASS
  1
LONG_TRANSACTION
  2
AcDbLongTransaction
  3
AutoCAD 2000
 90
        0
280
     0
281
     0
  0
CLASS
  1
LWPOLYLINE
  2
AcDbPolyline
  3
AutoCAD 2000
 90
        0
280
     0
281
     1
  0
CLASS
  1
HATCH
  2
AcDbHatch
  3
AutoCAD 2000
 90
        0
280
     0
281
     1
  0
CLASS
  1
XRECORD
  2
AcDbXrecord
  3
AutoCAD 2000
 90
        0
280
     0
281
     0
  0
CLASS
  1
LONG_TRANSACTION
  2
AcDbLongTransaction
  3
AutoCAD 2000
 90
        0
280
     0
281
     0
  0
CLASS
  1
LWPOLYLINE
  2
AcDbPolyline
  3
AutoCAD 2000
 90
        0
280
     0
281
     1
  0
CLASS
  1
HATCH
  2
AcDbHatch
  3
AutoCAD 2000
 90
        0
280
     0
281
     1
  0
CLASS
  1
XRECORD
  2
AcDbXrecord
  3
AutoCAD 2000
 90
        0
280
     0
281
     0
  0
CLASS
  1
LONG_TRANSACTION
  2
AcDbLongTransaction
  3
AutoCAD 2000
 90
        0
280
     0
281
     0
  0
CLASS
  1
LWPOLYLINE
  2
AcDbPolyline
  3
AutoCAD 2000
 90
        0
280
     0
281
     1
  0
CLASS
  1
HATCH
  2
AcDbHatch
  3
AutoCAD 2000
 90
        0
280
     0
281
     1
  0
CLASS
  1
XRECORD
  2
AcDbXrecord
  3
AutoCAD 2000
 90
        0
280
     0
281
     0
  0
CLASS
  1
LONG_TRANSACTION
  2
AcDbLongTransaction
  3
AutoCAD 2000
 90
        0
280
     0
281
     0
  0
CLASS
  1
LWPOLYLINE
  2
AcDbPolyline
  3
AutoCAD 2000
 90
        0
280
     0
281
     1
  0
CLASS
  1
HATCH
  2
AcDbHatch
  3
AutoCAD 2000
 90
        0
280
     0
281
     1
  0
CLASS
  1
XRECORD
  2
AcDbXrecord
  3
AutoCAD 2000
 90
        0
280
     0
281
     0
  0
CLASS
  1
LONG_TRANSACTION
  2
AcDbLongTransaction
  3
AutoCAD 2000
 90
        0
280
     0
281
     0
  0
CLASS
  1
LWPOLYLINE
  2
AcDbPolyline
  3
AutoCAD 2000
 90
        0
280
     0
281
     1
  0
CLASS
  1
HATCH
  2
AcDbHatch
  3
AutoCAD 2000
 90
        0
280
     0
281
     1
  0
CLASS
  1
XRECORD
  2
AcDbXrecord
  3
AutoCAD 2000
 90
        0
280
     0
281
     0
  0
CLASS
  1
LONG_TRANSACTION
  2
AcDbLongTransaction
  3
AutoCAD 2000
 90
        0
280
     0
281
     0
  0
CLASS
  1
LWPOLYLINE
  2
AcDbPolyline
  3
AutoCAD 2000
 90
        0
280
     0
281
     1
  0
CLASS
  1
HATCH
  2
AcDbHatch
  3
AutoCAD 2000
 90
        0
280
     0
281
     1
  0
CLASS
  1
XRECORD
  2
AcDbXrecord
  3
AutoCAD 2000
 90
        0
280
     0
281
     0
  0
CLASS
  1
LONG_TRANSACTION
  2
AcDbLongTransaction
  3
AutoCAD 2000
 90
        0
280
     0
281
     0
  0
CLASS
  1
LWPOLYLINE
  2
AcDbPolyline
  3
AutoCAD 2000
 90
        0
280
     0
281
     1
  0
CLASS
  1
HATCH
  2
AcDbHatch
  3
AutoCAD 2000
 90
        0
280
     0
281
     1
  0
CLASS
  1
XRECORD
  2
AcDbXrecord
  3
AutoCAD 2000
 90
        0
280
     0
281
     0
  0
CLASS
  1
LONG_TRANSACTION
  2
AcDbLongTransaction
  3
AutoCAD 2000
 90
        0
280
     0
281
     0
  0
CLASS
  1
LWPOLYLINE
  2
AcDbPolyline
  3
AutoCAD 2000
 90
        0
280
     0
281
     1
  0
CLASS
  1
HATCH
  2
AcDbHatch
  3
AutoCAD 2000
 90
        0
280
     0
281
     1
  0
CLASS
  1
XRECORD
  2
AcDbXrecord
  3
AutoCAD 2000
 90
        0
280
     0
281
     0
  0
CLASS
  1
LONG_TRANSACTION
  2
AcDbLongTransaction
  3
AutoCAD 2000
 90
        0
280
     0
281
     0
  0
CLASS
  1
LWPOLYLINE
  2
AcDbPolyline
  3
AutoCAD 2000
 90
        0
280
     0
281
     1
  0
CLASS
  1
HATCH
  2
AcDbHatch
  3
AutoCAD 2000
 90
        0
280
     0
281
     1
  0
CLASS
  1
XRECORD
  2
AcDbXrecord
  3
AutoCAD 2000
 90
        0
280
     0
281
     0
  0
CLASS
  1
LONG_TRANSACTION
  2
AcDbLongTransaction
  3
AutoCAD 2000
 90
        0
280
     0
281
     0
  0
CLASS
  1
LWPOLYLINE
  2
AcDbPolyline
  3
AutoCAD 2000
 90
        0
280
     0
281
     1
  0
CLASS
  1
HATCH
  2
AcDbHatch
  3
AutoCAD 2000
 90
        0
280
     0
281
     1
  0
CLASS
  1
XRECORD
  2
AcDbXrecord
  3
AutoCAD 2000
 90
        0
280
     0
281
     0
  0
CLASS
  1
LONG_TRANSACTION
  2
AcDbLongTransaction
  3
AutoCAD 2000
 90
        0
280
     0
281
     0
  0
CLASS
  1
LWPOLYLINE
  2
AcDbPolyline
  3
AutoCAD 2000
 90
        0
280
     0
281
     1
  0
CLASS
  1
HATCH
  2
AcDbHatch
  3
AutoCAD 2000
 90
        0
280
     0
281
     1
  0
CLASS
  1
XRECORD
  2
AcDbXrecord
  3
AutoCAD 2000
 90
        0
280
     0
281
     0
  0
CLASS
  1
LONG_TRANSACTION
  2
AcDbLongTransaction
  3
AutoCAD 2000
 90
        0
280
     0
281
     0
  0
CLASS
  1
LWPOLYLINE
  2
AcDbPolyline
  3
AutoCAD 2000
 90
        0
280
     0
281
     1
  0
CLASS
  1
HATCH
  2
AcDbHatch
  3
AutoCAD 2000
 90
        0
280
     0
281
     1
  0
CLASS
  1
XRECORD
  2
AcDbXrecord
  3
AutoCAD 2000
 90
        0
280
     0
281
     0
  0
CLASS
  1
LONG_TRANSACTION
  2
AcDbLongTransaction
  3
AutoCAD 2000
 90
        0
280
     0
281
     0
  0
CLASS
  1
LWPOLYLINE
  2
AcDbPolyline
  3
AutoCAD 2000
 90
        0
280
     0
281
     1
  0
CLASS
  1
HATCH
  2
AcDbHatch
  3
AutoCAD 2000
 90
        0
280
     0
281
     1
  0
CLASS
  1
XRECORD
  2
AcDbXrecord
  3
AutoCAD 2000
 90
        0
280
     0
281
     0
  0
CLASS
  1
LONG_TRANSACTION
  2
AcDbLongTransaction
  3
AutoCAD 2000
 90
        0
280
     0
281
     0
  0
CLASS
  1
LWPOLYLINE
  2
AcDbPolyline
  3
AutoCAD 2000
 90
        0
280
     0
281
     1
  0
CLASS
  1
HATCH
  2
AcDbHatch
  3
AutoCAD 2000
 90
        0
280
     0
281
     1
  0
CLASS
  1
XRECORD
  2
AcDbXrecord
  3
AutoCAD 2000
 90
        0
280
     0
281
     0
  0
CLASS
  1
LONG_TRANSACTION
  2
AcDbLongTransaction
  3
AutoCAD 2000
 90
        0
280
     0
281
     0
  0
CLASS
  1
LWPOLYLINE
  2
AcDbPolyline
  3
AutoCAD 2000
 90
        0
280
     0
281
     1
  0
CLASS
  1
HATCH
  2
AcDbHatch
  3
AutoCAD 2000
 90
        0
280
     0
281
     1
  0
CLASS
  1
XRECORD
  2
AcDbXrecord
  3
AutoCAD 2000
 90
        0
280
     0
281
     0
  0
CLASS
  1
LONG_TRANSACTION
  2
AcDbLongTransaction
  3
AutoCAD 2000
 90
        0
280
     0
281
     0
  0
CLASS
  1
LWPOLYLINE
  2
AcDbPolyline
  3
AutoCAD 2000
 90
        0
280
     0
281
     1
  0
CLASS
  1
HATCH
  2
AcDbHatch
  3
AutoCAD 2000
 90
        0
280
     0
281
     1
  0
CLASS
  1
XRECORD
  2
AcDbXrecord
  3
AutoCAD 2000
 90
        0
280
     0
281
     0
  0
CLASS
  1
LONG_TRANSACTION
  2
AcDbLongTransaction
  3
AutoCAD 2000
 90
        0
280
     0
281
     0
  0
CLASS
  1
LWPOLYLINE
  2
AcDbPolyline
  3
AutoCAD 2000
 90
        0
280
     0
281
     1
  0
CLASS
  1
HATCH
  2
AcDbHatch
  3
AutoCAD 2000
 90
        0
280
     0
281
     1
  0
CLASS
  1
XRECORD
  2
AcDbXrecord
  3
AutoCAD 2000
 90
        0
280
     0
281
     0
  0
CLASS
  1
LONG_TRANSACTION
  2
AcDbLongTransaction
  3
AutoCAD 2000
 90
        0
280
     0
281
     0
  0
CLASS
  1
LWPOLYLINE
  2
AcDbPolyline
  3
AutoCAD 2000
 90
        0
280
     0
281
     1
  0
CLASS
  1
HATCH
  2
AcDbHatch
  3
AutoCAD 2000
 90
        0
280
     0
281
     1
  0
CLASS
  1
XRECORD
  2
AcDbXrecord
  3
AutoCAD 2000
 90
        0
280
     0
281
     0
  0
CLASS
  1
LONG_TRANSACTION
  2
AcDbLongTransaction
  3
AutoCAD 2000
 90
        0
280
     0
281
     0
  0
CLASS
  1
LWPOLYLINE
  2
AcDbPolyline
  3
AutoCAD 2000
 90
        0
280
     0
281
     1
  0
CLASS
  1
HATCH
  2
AcDbHatch
  3
AutoCAD 2000
 90
        0
280
     0
281
     1
  0
CLASS
  1
XRECORD
  2
AcDbXrecord
  3
AutoCAD 2000
 90
        0
280
     0
281
     0
  0
CLASS
  1
LONG_TRANSACTION
  2
AcDbLongTransaction
  3
AutoCAD 2000
 90
        0
280
     0
281
     0
  0
CLASS
  1
LWPOLYLINE
  2
AcDbPolyline
  3
AutoCAD 2000
 90
        0
280
     0
281
     1
  0
CLASS
  1
HATCH
  2
AcDbHatch
  3
AutoCAD 2000
 90
        0
280
     0
281
     1
  0
CLASS
  1
XRECORD
  2
AcDbXrecord
  3
AutoCAD 2000
 90
        0
280
     0
281
     0
  0
CLASS
  1
LONG_TRANSACTION
  2
AcDbLongTransaction
  3
AutoCAD 2000
 90
        0
280
     0
281
     0
  0
CLASS
  1
LWPOLYLINE
  2
AcDbPolyline
  3
AutoCAD 2000
 90
        0
280
     0
281
     1
  0
CLASS
  1
HATCH
  2
AcDbHatch
  3
AutoCAD 2000
 90
        0
280
     0
281
     1
  0
CLASS
  1
XRECORD
  2
AcDbXrecord
  3
AutoCAD 2000
 90
        0
280
     0
281
     0
  0
CLASS
  1
LONG_TRANSACTION
  2
AcDbLongTransaction
  3
AutoCAD 2000
 90
        0
280
     0
281
     0
  0
CLASS
  1
LWPOLYLINE
  2
AcDbPolyline
  3
AutoCAD 2000
 90
        0
280
     0
281
     1
  0
CLASS
  1
HATCH
  2
AcDbHatch
  3
AutoCAD 2000
 90
        0
280
     0
281
     1
  0
CLASS
  1
XRECORD
  2
AcDbXrecord
  3
AutoCAD 2000
 90
        0
280
     0
281
     0
  0
CLASS
  1
LONG_TRANSACTION
  2
AcDbLongTransaction
  3
AutoCAD 2000
 90
        0
280
     0
281
     0
  0
CLASS
  1
LWPOLYLINE
  2
AcDbPolyline
  3
AutoCAD 2000
 90
        0
280
     0
281
     1
  0
CLASS
  1
HATCH
  2
AcDbHatch
  3
AutoCAD 2000
 90
        0
280
     0
281
     1
  0
CLASS
  1
XRECORD
  2
AcDbXrecord
  3
AutoCAD 2000
 90
        0
280
     0
281
     0
  0
CLASS
  1
LONG_TRANSACTION
  2
AcDbLongTransaction
  3
AutoCAD 2000
 90
        0
280
     0
281
     0
  0
CLASS
  1
LWPOLYLINE
  2
AcDbPolyline
  3
AutoCAD 2000
 90
        0
280
     0
281
     1
  0
CLASS
  1
HATCH
  2
AcDbHatch
  3
AutoCAD 2000
 90
        0
280
     0
281
     1
  0
CLASS
  1
XRECORD
  2
AcDbXrecord
  3
AutoCAD 2000
 90
        0
280
     0
281
     0
  0
CLASS
  1
LONG_TRANSACTION
  2
AcDbLongTransaction
  3
AutoCAD 2000
 90
        0
280
     0
281
     0
  0
CLASS
  1
LWPOLYLINE
  2
AcDbPolyline
  3
AutoCAD 2000
 90
        0
280
     0
281
     1
  0
CLASS
  1
HATCH
  2
AcDbHatch
  3
AutoCAD 2000
 90
        0
280
     0
281
     1
  0
CLASS
  1
XRECORD
  2
AcDbXrecord
  3
AutoCAD 2000
 90
        0
280
     0
281
     0
  0
CLASS
  1
LONG_TRANSACTION
  2
AcDbLongTransaction
  3
AutoCAD 2000
 90
        0
280
     0
281
     0
  0
CLASS
  1
LWPOLYLINE
  2
AcDbPolyline
  3
AutoCAD 2000
 90
        0
280
     0
281
     1
  0
CLASS
  1
HATCH
  2
AcDbHatch
  3
AutoCAD 2000
 90
        0
280
     0
281
     1
  0
CLASS
  1
XRECORD
  2
AcDbXrecord
  3
AutoCAD 2000
 90
        0
280
     0
281
     0
  0
CLASS
  1
LONG_TRANSACTION
  2
AcDbLongTransaction
  3
AutoCAD 2000
 90
        0
280
     0
281
     0
  0
CLASS
  1
LWPOLYLINE
  2
AcDbPolyline
  3
AutoCAD 2000
 90
        0
280
     0
281
     1
  0
CLASS
  1
HATCH
  2
AcDbHatch
  3
AutoCAD 2000
 90
        0
280
     0
281
     1
  0
CLASS
  1
XRECORD
  2
AcDbXrecord
  3
AutoCAD 2000
 90
        0
280
     0
281
     0
  0
CLASS
  1
LONG_TRANSACTION
  2
AcDbLongTransaction
  3
AutoCAD 2000
 90
        0
280
     0
281
     0
  0
CLASS
  1
LWPOLYLINE
  2
AcDbPolyline
  3
AutoCAD 2000
 90
        0
280
     0
281
     1
  0
CLASS
  1
HATCH
  2
AcDbHatch
  3
AutoCAD 2000
 90
        0
280
     0
281
     1
  0
CLASS
  1
XRECORD
  2
AcDbXrecord
  3
AutoCAD 2000
 90
        0
280
     0
281
     0
  0
CLASS
  1
LONG_TRANSACTION
  2
AcDbLongTransaction
  3
AutoCAD 2000
 90
        0
280
     0
281
     0
  0
CLASS
  1
LWPOLYLINE
  2
AcDbPolyline
  3
AutoCAD 2000
 90
        0
280
     0
281
     1
  0
CLASS
  1
HATCH
  2
AcDbHatch
  3
AutoCAD 2000
 90
        0
280
     0
281
     1
  0
CLASS
  1
XRECORD
  2
AcDbXrecord
  3
AutoCAD 2000
 90
        0
280
     0
281
     0
  0
ENDSEC
  0
SECTION
  2
TABLES
  0
TABLE
  2
VPORT
  5
90
330
0
100
AcDbSymbolTable
 70
     2
  0
VPORT
  5
51F
330
90
100
AcDbSymbolTableRecord
100
AcDbViewportTableRecord
  2
*ACTIVE
 70
     0
 10
0.0
 20
0.0
 11
1.0
 21
1.0
 12
154.5968637063597
 22
196.4974961525883
 13
0.0
 23
0.0
 14
10.0
 24
10.0
 15
10.0
 25
10.0
 16
0.0
 26
0.0
 36
1.0
 17
0.0
 27
0.0
 37
0.0
 40
406.233678148669
 41
1.549367088607594
 42
50.0
 43
0.0
 44
0.0
 50
0.0
 51
0.0
 71
     0
 72
 10000
 73
     1
 74
     3
 75
     0
 76
     0
 77
     0
 78
     1
  0
ENDTAB
  0
TABLE
  2
LTYPE
  5
8B
330
0
100
AcDbSymbolTable
 70
     2
  0
LTYPE
  5
8C
330
8B
100
AcDbSymbolTableRecord
100
AcDbLinetypeTableRecord
  2
BYBLOCK
 70
     0
  3

 72
    65
 73
     0
 40
0.0
  0
LTYPE
  5
8D
330
8B
100
AcDbSymbolTableRecord
100
AcDbLinetypeTableRecord
  2
BYLAYER
 70
     0
  3

 72
    65
 73
     0
 40
0.0
  0
LTYPE
  5
9
330
8B
100
AcDbSymbolTableRecord
100
AcDbLinetypeTableRecord
  2
CONTINUOUS
 70
     0
  3
Solid line
 72
    65
 73
     0
 40
0.0
  0
LTYPE
  5
BB
330
8B
100
AcDbSymbolTableRecord
100
AcDbLinetypeTableRecord
  2
CENTER
 70
     0
  3
Center ____ _ ____ _ ____ _ ____ _ ____ _ ____
 72
    65
 73
     4
 40
50.8
 49
31.75
 74
     0
 49
-6.349999999999997
 74
     0
 49
6.349999999999997
 74
     0
 49
-6.349999999999997
 74
     0
  0
ENDTAB
  0
TABLE
  2
LAYER
  5
12
102
{ACAD_XDICTIONARY
360
13
102
}
330
0
100
AcDbSymbolTable
 70
     7
  0
LAYER
  5
5
330
12
100
AcDbSymbolTableRecord
100
AcDbLayerTableRecord
  2
0
 70
     0
 62
     7
  6
CONTINUOUS
  0
LAYER
  5
12F
330
12
100
AcDbSymbolTableRecord
100
AcDbLayerTableRecord
  2
3
 70
     0
 62
     3
  6
CONTINUOUS
  0
LAYER
  5
C9
330
12
100
AcDbSymbolTableRecord
100
AcDbLayerTableRecord
  2
1
 70
     0
 62
     1
  6
CENTER
  0
LAYER
  5
B4
330
12
100
AcDbSymbolTableRecord
100
AcDbLayerTableRecord
  2
DEFPOINTS
 70
     0
 62
     7
  6
CONTINUOUS
  0
LAYER
  5
E5
330
12
100
AcDbSymbolTableRecord
100
AcDbLayerTableRecord
  2
DIM
 70
     0
 62
     3
  6
CONTINUOUS
  0
LAYER
  5
C0
330
12
100
AcDbSymbolTableRecord
100
AcDbLayerTableRecord
  2
CEN
 70
     0
 62
     1
  6
CENTER
  0
LAYER
  5
9F
330
12
100
AcDbSymbolTableRecord
100
AcDbLayerTableRecord
  2
2
 70
     0
 62
     2
  6
CONTINUOUS
  0
ENDTAB
  0
TABLE
  2
STYLE
  5
88
330
0
100
AcDbSymbolTable
 70
     2
  0
STYLE
  5
89
330
88
100
AcDbSymbolTableRecord
100
AcDbTextStyleTableRecord
  2
STANDARD
 70
     0
 40
0.0
 41
1.0
 50
0.0
 71
     0
 42
5.777225951253058
  3
romans.shx
  4
whgtxt.shx
  0
STYLE
  5
CE
330
88
100
AcDbSymbolTableRecord
100
AcDbTextStyleTableRecord
  2
GHS
 70
     0
 40
0.0
 41
0.6
 50
0.0
 71
     0
 42
3.0
  3
ROMANS
  4
GHS
  0
ENDTAB
  0
TABLE
  2
VIEW
  5
8E
330
0
100
AcDbSymbolTable
 70
     0
  0
ENDTAB
  0
TABLE
  2
UCS
  5
8F
330
0
100
AcDbSymbolTable
 70
     0
  0
ENDTAB
  0
TABLE
  2
APPID
  5
92
330
0
100
AcDbSymbolTable
 70
     1
  0
APPID
  5
93
330
92
100
AcDbSymbolTableRecord
100
AcDbRegAppTableRecord
  2
ACAD
 70
     0
  0
ENDTAB
  0
TABLE
  2
DIMSTYLE
  5
94
330
0
100
AcDbSymbolTable
 70
     2
  0
DIMSTYLE
105
95
102
{ACAD_REACTORS
330
2E1
330
2FD
330
2F0
330
2BA
330
2D3
330
279
330
A9
330
299
330
144
330
32A
330
33B
330
25D
330
352
330
26A
330
1FC
330
19E
330
18D
330
101
330
E4
330
15D
330
1AF
330
116
330
130
330
22C
330
1C5
330
23E
330
D3
330
F2
330
1E7
330
1D4
102
}
330
94
100
AcDbSymbolTableRecord
100
AcDbDimStyleTableRecord
  2
STANDARD
 70
     0
  3

  4

  5

  6

  7

 40
1.0
 41
2.5
 42
1.0
 43
10.0
 44
0.6
 45
0.0
 46
0.0
 47
0.0
 48
0.0
140
3.0
141
0.09
142
0.0
143
25.4
144
1.0
145
0.0
146
1.0
147
1.0
 71
     0
 72
     0
 73
     0
 74
     0
 75
     0
 76
     0
 77
     1
 78
     8
170
     0
171
     2
172
     1
173
     0
174
     1
175
     0
176
   123
177
   123
178
     3
270
     2
271
     2
272
     2
273
     2
274
     2
340
89
275
     1
280
     0
281
     0
282
     0
283
     1
284
     0
285
     0
286
     0
287
     3
288
     1
  0
DIMSTYLE
105
96
330
94
100
AcDbSymbolTableRecord
100
AcDbDimStyleTableRecord
  2
1_1_2
 70
     0
  3

  4

  5

  6

  7

 40
1.0
 41
3.0
 42
1.0
 43
10.0
 44
0.6
 45
0.0
 46
0.0
 47
0.0
 48
0.0
140
3.5
141
0.09
142
0.0
143
25.4
144
1.0
145
0.0
146
1.0
147
1.0
 71
     0
 72
     0
 73
     0
 74
     0
 75
     0
 76
     0
 77
     1
 78
     8
170
     0
171
     2
172
     1
173
     0
174
     1
175
     0
176
   123
177
   123
178
     3
270
     2
271
     2
272
     2
273
     2
274
     2
340
89
275
     1
280
     0
281
     0
282
     0
283
     1
284
     0
285
     0
286
     0
287
     3
288
     1
  0
ENDTAB
  0
TABLE
  2
BLOCK_RECORD
  5
1
330
0
100
AcDbSymbolTable
 70
    60
  0
BLOCK_RECORD
  5
2
102
{ACAD_XDICTIONARY
360
3
102
}
330
1
100
AcDbSymbolTableRecord
100
AcDbBlockTableRecord
  2
*MODEL_SPACE
  0
BLOCK_RECORD
  5
D
102
{ACAD_XDICTIONARY
360
E
102
}
330
1
100
AcDbSymbolTableRecord
100
AcDbBlockTableRecord
  2
*PAPER_SPACE
  0
BLOCK_RECORD
  5
2F1
330
1
100
AcDbSymbolTableRecord
100
AcDbBlockTableRecord
  2
*D0
  0
BLOCK_RECORD
  5
29A
330
1
100
AcDbSymbolTableRecord
100
AcDbBlockTableRecord
  2
*D1
  0
BLOCK_RECORD
  5
25E
330
1
100
AcDbSymbolTableRecord
100
AcDbBlockTableRecord
  2
*D2
  0
BLOCK_RECORD
  5
E6
330
1
100
AcDbSymbolTableRecord
100
AcDbBlockTableRecord
  2
*D3
  0
BLOCK_RECORD
  5
131
330
1
100
AcDbSymbolTableRecord
100
AcDbBlockTableRecord
  2
*D4
  0
BLOCK_RECORD
  5
2E4
330
1
100
AcDbSymbolTableRecord
100
AcDbBlockTableRecord
  2
*D5
  0
BLOCK_RECORD
  5
300
330
1
100
AcDbSymbolTableRecord
100
AcDbBlockTableRecord
  2
*D6
  0
BLOCK_RECORD
  5
2BD
330
1
100
AcDbSymbolTableRecord
100
AcDbBlockTableRecord
  2
*D7
  0
BLOCK_RECORD
  5
2D6
330
1
100
AcDbSymbolTableRecord
100
AcDbBlockTableRecord
  2
*D8
  0
BLOCK_RECORD
  5
27C
330
1
100
AcDbSymbolTableRecord
100
AcDbBlockTableRecord
  2
*D9
  0
BLOCK_RECORD
  5
AC
330
1
100
AcDbSymbolTableRecord
100
AcDbBlockTableRecord
  2
*D10
  0
BLOCK_RECORD
  5
147
330
1
100
AcDbSymbolTableRecord
100
AcDbBlockTableRecord
  2
*D11
  0
BLOCK_RECORD
  5
32D
330
1
100
AcDbSymbolTableRecord
100
AcDbBlockTableRecord
  2
*D12
  0
BLOCK_RECORD
  5
33E
330
1
100
AcDbSymbolTableRecord
100
AcDbBlockTableRecord
  2
*D13
  0
BLOCK_RECORD
  5
355
330
1
100
AcDbSymbolTableRecord
100
AcDbBlockTableRecord
  2
*D14
  0
BLOCK_RECORD
  5
26D
330
1
100
AcDbSymbolTableRecord
100
AcDbBlockTableRecord
  2
*D15
  0
BLOCK_RECORD
  5
1FF
330
1
100
AcDbSymbolTableRecord
100
AcDbBlockTableRecord
  2
*D16
  0
BLOCK_RECORD
  5
1A1
330
1
100
AcDbSymbolTableRecord
100
AcDbBlockTableRecord
  2
*D17
  0
BLOCK_RECORD
  5
190
330
1
100
AcDbSymbolTableRecord
100
AcDbBlockTableRecord
  2
*D18
  0
BLOCK_RECORD
  5
104
330
1
100
AcDbSymbolTableRecord
100
AcDbBlockTableRecord
  2
*D19
  0
BLOCK_RECORD
  5
160
330
1
100
AcDbSymbolTableRecord
100
AcDbBlockTableRecord
  2
*D20
  0
BLOCK_RECORD
  5
1B2
330
1
100
AcDbSymbolTableRecord
100
AcDbBlockTableRecord
  2
*D21
  0
BLOCK_RECORD
  5
119
330
1
100
AcDbSymbolTableRecord
100
AcDbBlockTableRecord
  2
*D22
  0
BLOCK_RECORD
  5
22F
330
1
100
AcDbSymbolTableRecord
100
AcDbBlockTableRecord
  2
*D23
  0
BLOCK_RECORD
  5
1C8
330
1
100
AcDbSymbolTableRecord
100
AcDbBlockTableRecord
  2
*D24
  0
BLOCK_RECORD
  5
241
330
1
100
AcDbSymbolTableRecord
100
AcDbBlockTableRecord
  2
*D25
  0
BLOCK_RECORD
  5
D6
330
1
100
AcDbSymbolTableRecord
100
AcDbBlockTableRecord
  2
*D26
  0
BLOCK_RECORD
  5
F5
330
1
100
AcDbSymbolTableRecord
100
AcDbBlockTableRecord
  2
*D27
  0
BLOCK_RECORD
  5
1EA
330
1
100
AcDbSymbolTableRecord
100
AcDbBlockTableRecord
  2
*D28
  0
BLOCK_RECORD
  5
1D7
330
1
100
AcDbSymbolTableRecord
100
AcDbBlockTableRecord
  2
*D29
  0
BLOCK_RECORD
  5
372
330
1
100
AcDbSymbolTableRecord
100
AcDbBlockTableRecord
  2
*D30
  0
BLOCK_RECORD
  5
37E
330
1
100
AcDbSymbolTableRecord
100
AcDbBlockTableRecord
  2
*D31
  0
BLOCK_RECORD
  5
38A
330
1
100
AcDbSymbolTableRecord
100
AcDbBlockTableRecord
  2
*D32
  0
BLOCK_RECORD
  5
395
330
1
100
AcDbSymbolTableRecord
100
AcDbBlockTableRecord
  2
*D33
  0
BLOCK_RECORD
  5
3A1
330
1
100
AcDbSymbolTableRecord
100
AcDbBlockTableRecord
  2
*D34
  0
BLOCK_RECORD
  5
3AD
330
1
100
AcDbSymbolTableRecord
100
AcDbBlockTableRecord
  2
*D35
  0
BLOCK_RECORD
  5
3B9
330
1
100
AcDbSymbolTableRecord
100
AcDbBlockTableRecord
  2
*D36
  0
BLOCK_RECORD
  5
3C5
330
1
100
AcDbSymbolTableRecord
100
AcDbBlockTableRecord
  2
*D37
  0
BLOCK_RECORD
  5
3D1
330
1
100
AcDbSymbolTableRecord
100
AcDbBlockTableRecord
  2
*D38
  0
BLOCK_RECORD
  5
3DD
330
1
100
AcDbSymbolTableRecord
100
AcDbBlockTableRecord
  2
*D39
  0
BLOCK_RECORD
  5
3EB
330
1
100
AcDbSymbolTableRecord
100
AcDbBlockTableRecord
  2
*D40
  0
BLOCK_RECORD
  5
3F7
330
1
100
AcDbSymbolTableRecord
100
AcDbBlockTableRecord
  2
*D41
  0
BLOCK_RECORD
  5
403
330
1
100
AcDbSymbolTableRecord
100
AcDbBlockTableRecord
  2
*D42
  0
BLOCK_RECORD
  5
411
330
1
100
AcDbSymbolTableRecord
100
AcDbBlockTableRecord
  2
*D43
  0
BLOCK_RECORD
  5
41D
330
1
100
AcDbSymbolTableRecord
100
AcDbBlockTableRecord
  2
*D44
  0
BLOCK_RECORD
  5
42B
330
1
100
AcDbSymbolTableRecord
100
AcDbBlockTableRecord
  2
*D45
  0
BLOCK_RECORD
  5
437
330
1
100
AcDbSymbolTableRecord
100
AcDbBlockTableRecord
  2
*D46
  0
BLOCK_RECORD
  5
443
330
1
100
AcDbSymbolTableRecord
100
AcDbBlockTableRecord
  2
*D47
  0
BLOCK_RECORD
  5
44F
330
1
100
AcDbSymbolTableRecord
100
AcDbBlockTableRecord
  2
*D48
  0
BLOCK_RECORD
  5
45B
330
1
100
AcDbSymbolTableRecord
100
AcDbBlockTableRecord
  2
*D49
  0
BLOCK_RECORD
  5
469
330
1
100
AcDbSymbolTableRecord
100
AcDbBlockTableRecord
  2
*D50
  0
BLOCK_RECORD
  5
477
330
1
100
AcDbSymbolTableRecord
100
AcDbBlockTableRecord
  2
*D51
  0
BLOCK_RECORD
  5
483
330
1
100
AcDbSymbolTableRecord
100
AcDbBlockTableRecord
  2
*D52
  0
BLOCK_RECORD
  5
48F
330
1
100
AcDbSymbolTableRecord
100
AcDbBlockTableRecord
  2
*D53
  0
BLOCK_RECORD
  5
49B
330
1
100
AcDbSymbolTableRecord
100
AcDbBlockTableRecord
  2
*D54
  0
BLOCK_RECORD
  5
4A6
330
1
100
AcDbSymbolTableRecord
100
AcDbBlockTableRecord
  2
*D55
  0
BLOCK_RECORD
  5
4B2
330
1
100
AcDbSymbolTableRecord
100
AcDbBlockTableRecord
  2
*D56
  0
BLOCK_RECORD
  5
4BD
330
1
100
AcDbSymbolTableRecord
100
AcDbBlockTableRecord
  2
*D57
  0
BLOCK_RECORD
  5
4C9
330
1
100
AcDbSymbolTableRecord
100
AcDbBlockTableRecord
  2
*D58
  0
BLOCK_RECORD
  5
4D7
330
1
100
AcDbSymbolTableRecord
100
AcDbBlockTableRecord
  2
*D59
  0
ENDTAB
  0
ENDSEC
  0
SECTION
  2
BLOCKS
  0
BLOCK
  5
4
330
2
100
AcDbEntity
  8
0
100
AcDbBlockBegin
  2
*MODEL_SPACE
 70
     0
 10
0.0
 20
0.0
 30
0.0
  3
*MODEL_SPACE
  1

  0
ENDBLK
  5
A
330
2
100
AcDbEntity
  8
0
100
AcDbBlockEnd
  0
BLOCK
  5
F
330
D
100
AcDbEntity
 67
     1
  8
0
100
AcDbBlockBegin
  2
*PAPER_SPACE
 70
     0
 10
0.0
 20
0.0
 30
0.0
  3
*PAPER_SPACE
  1

  0
ENDBLK
  5
10
330
D
100
AcDbEntity
 67
     1
  8
0
100
AcDbBlockEnd
  0
BLOCK
  5
2FB
330
2F1
100
AcDbEntity
  8
0
100
AcDbBlockBegin
  2
*D0
 70
     1
 10
0.0
 20
0.0
 30
0.0
  3
*D0
  1

  0
LINE
  5
2F2
330
2F1
100
AcDbEntity
  8
DIM
 62
   123
100
AcDbLine
 10
15153.46653732156
 20
-1263.421962339285
 30
0.0
 11
15153.46653732156
 21
-1216.260785736134
 31
0.0
  0
LINE
  5
2F3
330
2F1
100
AcDbEntity
  8
DIM
 62
   123
100
AcDbLine
 10
15165.96724675865
 20
-1235.741962339285
 30
0.0
 11
15165.96724675865
 21
-1216.260785736134
 31
0.0
  0
LINE
  5
2F4
330
2F1
100
AcDbEntity
  8
DIM
 62
   123
100
AcDbLine
 10
15155.96653732155
 20
-1216.860785736133
 30
0.0
 11
15163.46724675865
 21
-1216.860785736133
 31
0.0
  0
SOLID
  5
2F5
330
2F1
100
AcDbEntity
  8
DIM
 62
   123
100
AcDbTrace
 10
15155.96653732155
 20
-1216.444119069467
 30
0.0
 11
15155.96653732155
 21
-1217.2774524028
 31
0.0
 12
15153.46653732156
 22
-1216.860785736133
 32
0.0
 13
15153.46653732156
 23
-1216.860785736133
 33
0.0
  0
SOLID
  5
2F6
330
2F1
100
AcDbEntity
  8
DIM
 62
   123
100
AcDbTrace
 10
15163.46724675865
 20
-1216.444119069467
 30
0.0
 11
15163.46724675865
 21
-1217.2774524028
 31
0.0
 12
15165.96724675865
 22
-1216.860785736133
 32
0.0
 13
15165.96724675865
 23
-1216.860785736133
 33
0.0
  0
MTEXT
  5
2F7
330
2F1
100
AcDbEntity
  8
DIM
 62
     3
100
AcDbMText
 10
15158.77153256031
 20
-1214.360785736134
 30
0.0
 40
3.0
 41
0.0
 71
     5
 72
     1
  1
\A1;12.5
1001
ACAD
1000
MTEXTBEGIN
1070
    73
1070
     1
1070
    44
1040
1.0
1070
    74
1070
     0
1000
MTEXTEND
1000
MTEXTBEGIN
1070
    73
1070
     1
1070
    44
1040
1.0
1070
    74
1070
     0
1000
MTEXTEND
  0
POINT
  5
2F8
330
2F1
100
AcDbEntity
  8
DEFPOINTS
 62
     0
100
AcDbPoint
 10
15153.46653732156
 20
-1264.421962339285
 30
0.0
  0
POINT
  5
2F9
330
2F1
100
AcDbEntity
  8
DEFPOINTS
 62
     0
100
AcDbPoint
 10
15165.96724675865
 20
-1236.741962339285
 30
0.0
  0
POINT
  5
2FA
330
2F1
100
AcDbEntity
  8
DEFPOINTS
 62
     0
100
AcDbPoint
 10
15165.96724675865
 20
-1216.860785736133
 30
0.0
  0
ENDBLK
  5
2FC
330
2F1
100
AcDbEntity
  8
0
100
AcDbBlockEnd
  0
BLOCK
  5
2A3
330
29A
100
AcDbEntity
  8
0
100
AcDbBlockBegin
  2
*D1
 70
     1
 10
0.0
 20
0.0
 30
0.0
  3
*D1
  1

  0
LINE
  5
29B
330
29A
100
AcDbEntity
  8
2
 62
   123
100
AcDbLine
 10
15038.70286241759
 20
-1385.428755056643
 30
0.0
 11
15036.5062047541
 21
-1386.622360983848
 31
0.0
  0
LINE
  5
29C
330
29A
100
AcDbEntity
  8
2
 62
   123
100
AcDbLine
 10
15104.60259232215
 20
-1349.620577240609
 30
0.0
 11
15130.24475851225
 21
-1335.687299397847
 31
0.0
  0
LINE
  5
29D
330
29A
100
AcDbEntity
  8
2
 62
   123
100
AcDbLine
 10
15040.89952008108
 20
-1384.235149129445
 30
0.0
 11
15102.40593465866
 21
-1350.814183167809
 31
0.0
  0
SOLID
  5
29E
330
29A
100
AcDbEntity
  8
2
 62
   123
100
AcDbTrace
 10
15038.50392809639
 20
-1385.062645446065
 30
0.0
 11
15038.90179673879
 21
-1385.794864667226
 31
0.0
 12
15040.89952008108
 22
-1384.235149129445
 32
0.0
 13
15040.89952008108
 23
-1384.235149129445
 33
0.0
  0
SOLID
  5
29F
330
29A
100
AcDbEntity
  8
2
 62
   123
100
AcDbTrace
 10
15104.40365800095
 20
-1349.254467630029
 30
0.0
 11
15104.80152664336
 21
-1349.98668685119
 31
0.0
 12
15102.40593465866
 22
-1350.814183167809
 32
0.0
 13
15102.40593465866
 23
-1350.814183167809
 33
0.0
  0
MTEXT
  5
2A0
330
29A
100
AcDbEntity
  8
2
 62
     3
100
AcDbMText
 10
15120.07623698853
 20
-1338.367374522641
 30
0.0
 40
3.0
 41
0.0
 71
     5
 72
     1
  1
\A1;\U+220570%%P0.5
 11
0.8786630653942392
 21
0.4774423708805062
 31
0.0
1001
ACAD
1000
MTEXTBEGIN
1070
    73
1070
     1
1070
    44
1040
1.0
1070
    74
1070
     0
1000
MTEXTEND
1000
MTEXTBEGIN
1070
    73
1070
     1
1070
    44
1040
1.0
1070
    74
1070
     0
1000
MTEXTEND
  0
POINT
  5
2A1
330
29A
100
AcDbEntity
  8
DEFPOINTS
 62
     0
100
AcDbPoint
 10
15102.40593465866
 20
-1350.814183167809
 30
0.0
  0
POINT
  5
2A2
330
29A
100
AcDbEntity
  8
DEFPOINTS
 62
     0
100
AcDbPoint
 10
15040.89952008108
 20
-1384.235149129445
 30
0.0
  0
ENDBLK
  5
2A4
330
29A
100
AcDbEntity
  8
0
100
AcDbBlockEnd
  0
BLOCK
  5
268
330
25E
100
AcDbEntity
  8
0
100
AcDbBlockBegin
  2
*D2
 70
     1
 10
0.0
 20
0.0
 30
0.0
  3
*D2
  1

  0
LINE
  5
25F
330
25E
100
AcDbEntity
  8
0
 62
   123
100
AcDbLine
 10
15195.25429053928
 20
-1345.524666148629
 30
0.0
 11
15135.84356780139
 21
-1345.524666148629
 31
0.0
  0
LINE
  5
260
330
25E
100
AcDbEntity
  8
0
 62
   123
100
AcDbLine
 10
15195.25429053928
 20
-1369.524666148629
 30
0.0
 11
15135.84356780139
 21
-1369.524666148629
 31
0.0
  0
LINE
  5
261
330
25E
100
AcDbEntity
  8
0
 62
   123
100
AcDbLine
 10
15136.4435678014
 20
-1348.024666148629
 30
0.0
 11
15136.4435678014
 21
-1367.024666148629
 31
0.0
  0
SOLID
  5
262
330
25E
100
AcDbEntity
  8
0
 62
   123
100
AcDbTrace
 10
15136.02690113474
 20
-1348.024666148629
 30
0.0
 11
15136.86023446807
 21
-1348.024666148629
 31
0.0
 12
15136.4435678014
 22
-1345.524666148629
 32
0.0
 13
15136.4435678014
 23
-1345.524666148629
 33
0.0
  0
SOLID
  5
263
330
25E
100
AcDbEntity
  8
0
 62
   123
100
AcDbTrace
 10
15136.02690113474
 20
-1367.024666148629
 30
0.0
 11
15136.86023446807
 21
-1367.024666148629
 31
0.0
 12
15136.4435678014
 22
-1369.524666148629
 32
0.0
 13
15136.4435678014
 23
-1369.524666148629
 33
0.0
  0
MTEXT
  5
264
330
25E
100
AcDbEntity
  8
0
 62
     3
100
AcDbMText
 10
15133.9435678014
 20
-1357.524666148626
 30
0.0
 40
3.0
 41
0.0
 71
     5
 72
     1
  1
\A1;%%c24
 11
0.0000000000000001
 21
1.0
 31
0.0
1001
ACAD
1000
MTEXTBEGIN
1070
    73
1070
     1
1070
    44
1040
1.0
1070
    74
1070
     0
1000
MTEXTEND
1000
MTEXTBEGIN
1070
    73
1070
     1
1070
    44
1040
1.0
1070
    74
1070
     0
1000
MTEXTEND
  0
POINT
  5
265
330
25E
100
AcDbEntity
  8
DEFPOINTS
 62
     0
100
AcDbPoint
 10
15196.25429053928
 20
-1345.524666148629
 30
0.0
  0
POINT
  5
266
330
25E
100
AcDbEntity
  8
DEFPOINTS
 62
     0
100
AcDbPoint
 10
15196.25429053928
 20
-1369.524666148629
 30
0.0
  0
POINT
  5
267
330
25E
100
AcDbEntity
  8
DEFPOINTS
 62
     0
100
AcDbPoint
 10
15136.4435678014
 20
-1369.524666148629
 30
0.0
  0
ENDBLK
  5
269
330
25E
100
AcDbEntity
  8
0
100
AcDbBlockEnd
  0
BLOCK
  5
F0
330
E6
100
AcDbEntity
  8
0
100
AcDbBlockBegin
  2
*D3
 70
     1
 10
0.0
 20
0.0
 30
0.0
  3
*D3
  1

  0
LINE
  5
E7
330
E6
100
AcDbEntity
  8
DIM
 62
   123
100
AcDbLine
 10
15161.90747493869
 20
-1545.686060171072
 30
0.0
 11
15089.6261716577
 21
-1545.686060171072
 31
0.0
  0
LINE
  5
E8
330
E6
100
AcDbEntity
  8
DIM
 62
   123
100
AcDbLine
 10
15161.90747493869
 20
-1569.686060171072
 30
0.0
 11
15089.6261716577
 21
-1569.686060171072
 31
0.0
  0
LINE
  5
E9
330
E6
100
AcDbEntity
  8
DIM
 62
   123
100
AcDbLine
 10
15090.2261716577
 20
-1548.186060171072
 30
0.0
 11
15090.2261716577
 21
-1567.186060171072
 31
0.0
  0
SOLID
  5
EA
330
E6
100
AcDbEntity
  8
DIM
 62
   123
100
AcDbTrace
 10
15089.80950499104
 20
-1548.186060171072
 30
0.0
 11
15090.64283832436
 21
-1548.186060171072
 31
0.0
 12
15090.2261716577
 22
-1545.686060171072
 32
0.0
 13
15090.2261716577
 23
-1545.686060171072
 33
0.0
  0
SOLID
  5
EB
330
E6
100
AcDbEntity
  8
DIM
 62
   123
100
AcDbTrace
 10
15089.80950499104
 20
-1567.186060171072
 30
0.0
 11
15090.64283832436
 21
-1567.186060171072
 31
0.0
 12
15090.2261716577
 22
-1569.686060171072
 32
0.0
 13
15090.2261716577
 23
-1569.686060171072
 33
0.0
  0
MTEXT
  5
EC
330
E6
100
AcDbEntity
  8
DIM
 62
     3
100
AcDbMText
 10
15087.7261716577
 20
-1557.68606017107
 30
0.0
 40
3.0
 41
0.0
 71
     5
 72
     1
  1
\A1;%%c24
 11
0.0000000000000001
 21
1.0
 31
0.0
1001
ACAD
1000
MTEXTBEGIN
1070
    73
1070
     1
1070
    44
1040
1.0
1070
    74
1070
     0
1000
MTEXTEND
1000
MTEXTBEGIN
1070
    73
1070
     1
1070
    44
1040
1.0
1070
    74
1070
     0
1000
MTEXTEND
  0
POINT
  5
ED
330
E6
100
AcDbEntity
  8
DEFPOINTS
 62
     0
100
AcDbPoint
 10
15162.90747493869
 20
-1545.686060171072
 30
0.0
  0
POINT
  5
EE
330
E6
100
AcDbEntity
  8
DEFPOINTS
 62
     0
100
AcDbPoint
 10
15162.90747493869
 20
-1569.686060171072
 30
0.0
  0
POINT
  5
EF
330
E6
100
AcDbEntity
  8
DEFPOINTS
 62
     0
100
AcDbPoint
 10
15090.2261716577
 20
-1569.686060171072
 30
0.0
  0
ENDBLK
  5
F1
330
E6
100
AcDbEntity
  8
0
100
AcDbBlockEnd
  0
BLOCK
  5
13B
330
131
100
AcDbEntity
  8
0
100
AcDbBlockBegin
  2
*D4
 70
     1
 10
0.0
 20
0.0
 30
0.0
  3
*D4
  1

  0
LINE
  5
132
330
131
100
AcDbEntity
  8
0
 62
   123
100
AcDbLine
 10
15003.60556042439
 20
-1593.68606017107
 30
0.0
 11
15003.60556042439
 21
-1613.936644889166
 31
0.0
  0
LINE
  5
133
330
131
100
AcDbEntity
  8
0
 62
   123
100
AcDbLine
 10
15063.60556042439
 20
-1593.68606017107
 30
0.0
 11
15063.60556042439
 21
-1613.936644889166
 31
0.0
  0
LINE
  5
134
330
131
100
AcDbEntity
  8
0
 62
   123
100
AcDbLine
 10
15006.10556042439
 20
-1613.336644889166
 30
0.0
 11
15061.10556042439
 21
-1613.336644889166
 31
0.0
  0
SOLID
  5
135
330
131
100
AcDbEntity
  8
0
 62
   123
100
AcDbTrace
 10
15006.10556042439
 20
-1612.919978222499
 30
0.0
 11
15006.10556042439
 21
-1613.753311555833
 31
0.0
 12
15003.60556042439
 22
-1613.336644889166
 32
0.0
 13
15003.60556042439
 23
-1613.336644889166
 33
0.0
  0
SOLID
  5
136
330
131
100
AcDbEntity
  8
0
 62
   123
100
AcDbTrace
 10
15061.10556042439
 20
-1612.919978222499
 30
0.0
 11
15061.10556042439
 21
-1613.753311555833
 31
0.0
 12
15063.60556042439
 22
-1613.336644889166
 32
0.0
 13
15063.60556042439
 23
-1613.336644889166
 33
0.0
  0
MTEXT
  5
137
330
131
100
AcDbEntity
  8
0
 62
     3
100
AcDbMText
 10
15036.0921521427
 20
-1610.836644889166
 30
0.0
 40
3.0
 41
0.0
 71
     5
 72
     1
  1
\A1;60
1001
ACAD
1000
MTEXTBEGIN
1070
    73
1070
     1
1070
    44
1040
1.0
1070
    74
1070
     0
1000
MTEXTEND
1000
MTEXTBEGIN
1070
    73
1070
     1
1070
    44
1040
1.0
1070
    74
1070
     0
1000
MTEXTEND
  0
POINT
  5
138
330
131
100
AcDbEntity
  8
DEFPOINTS
 62
     0
100
AcDbPoint
 10
15003.60556042439
 20
-1592.68606017107
 30
0.0
  0
POINT
  5
139
330
131
100
AcDbEntity
  8
DEFPOINTS
 62
     0
100
AcDbPoint
 10
15063.60556042439
 20
-1592.68606017107
 30
0.0
  0
POINT
  5
13A
330
131
100
AcDbEntity
  8
DEFPOINTS
 62
     0
100
AcDbPoint
 10
15063.60556042439
 20
-1613.336644889166
 30
0.0
  0
ENDBLK
  5
13C
330
131
100
AcDbEntity
  8
0
100
AcDbBlockEnd
  0
BLOCK
  5
2EE
330
2E4
100
AcDbEntity
  8
0
100
AcDbBlockBegin
  2
*D5
 70
     1
 10
0.0
 20
0.0
 30
0.0
  3
*D5
  1

  0
LINE
  5
2E5
330
2E4
100
AcDbEntity
  8
DIM
 62
   123
100
AcDbLine
 10
15165.96724675865
 20
-1235.741962339285
 30
0.0
 11
15165.96724675865
 21
-1216.260785736134
 31
0.0
  0
LINE
  5
2E6
330
2E4
100
AcDbEntity
  8
DIM
 62
   123
100
AcDbLine
 10
15191.96724675865
 20
-1235.741962339285
 30
0.0
 11
15191.96724675865
 21
-1216.260785736134
 31
0.0
  0
LINE
  5
2E7
330
2E4
100
AcDbEntity
  8
DIM
 62
   123
100
AcDbLine
 10
15168.46724675865
 20
-1216.860785736133
 30
0.0
 11
15189.46724675864
 21
-1216.860785736133
 31
0.0
  0
SOLID
  5
2E8
330
2E4
100
AcDbEntity
  8
DIM
 62
   123
100
AcDbTrace
 10
15168.46724675865
 20
-1216.444119069467
 30
0.0
 11
15168.46724675865
 21
-1217.2774524028
 31
0.0
 12
15165.96724675865
 22
-1216.860785736133
 32
0.0
 13
15165.96724675865
 23
-1216.860785736133
 33
0.0
  0
SOLID
  5
2E9
330
2E4
100
AcDbEntity
  8
DIM
 62
   123
100
AcDbTrace
 10
15189.46724675864
 20
-1216.444119069467
 30
0.0
 11
15189.46724675864
 21
-1217.2774524028
 31
0.0
 12
15191.96724675865
 22
-1216.860785736133
 32
0.0
 13
15191.96724675865
 23
-1216.860785736133
 33
0.0
  0
MTEXT
  5
2EA
330
2E4
100
AcDbEntity
  8
DIM
 62
     3
100
AcDbMText
 10
15178.02153256031
 20
-1214.360785736134
 30
0.0
 40
3.0
 41
0.0
 71
     5
 72
     1
  1
\A1;26
1001
ACAD
1000
MTEXTBEGIN
1070
    73
1070
     1
1070
    44
1040
1.0
1070
    74
1070
     0
1000
MTEXTEND
1000
MTEXTBEGIN
1070
    73
1070
     1
1070
    44
1040
1.0
1070
    74
1070
     0
1000
MTEXTEND
  0
POINT
  5
2EB
330
2E4
100
AcDbEntity
  8
DEFPOINTS
 62
     0
100
AcDbPoint
 10
15165.96724675865
 20
-1236.741962339285
 30
0.0
  0
POINT
  5
2EC
330
2E4
100
AcDbEntity
  8
DEFPOINTS
 62
     0
100
AcDbPoint
 10
15191.96724675865
 20
-1236.741962339285
 30
0.0
  0
POINT
  5
2ED
330
2E4
100
AcDbEntity
  8
DEFPOINTS
 62
     0
100
AcDbPoint
 10
15191.96724675865
 20
-1216.860785736133
 30
0.0
  0
ENDBLK
  5
2EF
330
2E4
100
AcDbEntity
  8
0
100
AcDbBlockEnd
  0
BLOCK
  5
30C
330
300
100
AcDbEntity
  8
0
100
AcDbBlockBegin
  2
*D6
 70
     1
 10
0.0
 20
0.0
 30
0.0
  3
*D6
  1

  0
LINE
  5
301
330
300
100
AcDbEntity
  8
DIM
 62
   123
100
AcDbLine
 10
15163.96724675864
 20
-1238.741962339285
 30
0.0
 11
15163.96724675864
 21
-1226.933629005952
 31
0.0
  0
LINE
  5
302
330
300
100
AcDbEntity
  8
DIM
 62
   123
100
AcDbLine
 10
15165.96724675865
 20
-1235.741962339284
 30
0.0
 11
15165.96724675865
 21
-1226.933629005952
 31
0.0
  0
LINE
  5
303
330
300
100
AcDbEntity
  8
DIM
 62
   123
100
AcDbLine
 10
15168.46724675865
 20
-1227.533629005949
 30
0.0
 11
15170.96724675865
 21
-1227.533629005949
 31
0.0
  0
LINE
  5
304
330
300
100
AcDbEntity
  8
DIM
 62
   123
100
AcDbLine
 10
15161.46724675865
 20
-1227.533629005949
 30
0.0
 11
15154.96724675865
 21
-1227.533629005949
 31
0.0
  0
LINE
  5
305
330
300
100
AcDbEntity
  8
DIM
 62
   123
100
AcDbLine
 10
15165.96724675865
 20
-1227.533629005949
 30
0.0
 11
15163.96724675864
 21
-1227.533629005949
 31
0.0
  0
SOLID
  5
306
330
300
100
AcDbEntity
  8
DIM
 62
   123
100
AcDbTrace
 10
15168.46724675865
 20
-1227.116962339285
 30
0.0
 11
15168.46724675865
 21
-1227.950295672618
 31
0.0
 12
15165.96724675865
 22
-1227.533629005949
 32
0.0
 13
15165.96724675865
 23
-1227.533629005949
 33
0.0
  0
SOLID
  5
307
330
300
100
AcDbEntity
  8
DIM
 62
   123
100
AcDbTrace
 10
15161.46724675865
 20
-1227.116962339285
 30
0.0
 11
15161.46724675865
 21
-1227.950295672618
 31
0.0
 12
15163.96724675864
 22
-1227.533629005949
 32
0.0
 13
15163.96724675864
 23
-1227.533629005949
 33
0.0
  0
MTEXT
  5
308
330
300
100
AcDbEntity
  8
DIM
 62
     3
100
AcDbMText
 10
15156.96724675865
 20
-1225.033629005952
 30
0.0
 40
3.0
 41
0.0
 71
     5
 72
     1
  1
\A1;2
1001
ACAD
1000
MTEXTBEGIN
1070
    73
1070
     1
1070
    44
1040
1.0
1070
    74
1070
     0
1000
MTEXTEND
1000
MTEXTBEGIN
1070
    73
1070
     1
1070
    44
1040
1.0
1070
    74
1070
     0
1000
MTEXTEND
  0
POINT
  5
309
330
300
100
AcDbEntity
  8
DEFPOINTS
 62
     0
100
AcDbPoint
 10
15163.96724675864
 20
-1239.741962339285
 30
0.0
  0
POINT
  5
30A
330
300
100
AcDbEntity
  8
DEFPOINTS
 62
     0
100
AcDbPoint
 10
15165.96724675865
 20
-1236.741962339285
 30
0.0
  0
POINT
  5
30B
330
300
100
AcDbEntity
  8
DEFPOINTS
 62
     0
100
AcDbPoint
 10
15165.96724675865
 20
-1227.533629005949
 30
0.0
  0
ENDBLK
  5
30D
330
300
100
AcDbEntity
  8
0
100
AcDbBlockEnd
  0
BLOCK
  5
2C7
330
2BD
100
AcDbEntity
  8
0
100
AcDbBlockBegin
  2
*D7
 70
     1
 10
0.0
 20
0.0
 30
0.0
  3
*D7
  1

  0
LINE
  5
2BE
330
2BD
100
AcDbEntity
  8
DIM
 62
   123
100
AcDbLine
 10
15050.47122369513
 20
-1239.741962339285
 30
0.0
 11
15050.47122369513
 21
-1222.49086454498
 31
0.0
  0
LINE
  5
2BF
330
2BD
100
AcDbEntity
  8
DIM
 62
   123
100
AcDbLine
 10
15110.47122369513
 20
-1240.741962339285
 30
0.0
 11
15110.47122369513
 21
-1222.49086454498
 31
0.0
  0
LINE
  5
2C0
330
2BD
100
AcDbEntity
  8
DIM
 62
   123
100
AcDbLine
 10
15052.97122369513
 20
-1223.09086454498
 30
0.0
 11
15107.97122369513
 21
-1223.09086454498
 31
0.0
  0
SOLID
  5
2C1
330
2BD
100
AcDbEntity
  8
DIM
 62
   123
100
AcDbTrace
 10
15052.97122369513
 20
-1222.674197878313
 30
0.0
 11
15052.97122369513
 21
-1223.507531211647
 31
0.0
 12
15050.47122369513
 22
-1223.09086454498
 32
0.0
 13
15050.47122369513
 23
-1223.09086454498
 33
0.0
  0
SOLID
  5
2C2
330
2BD
100
AcDbEntity
  8
DIM
 62
   123
100
AcDbTrace
 10
15107.97122369513
 20
-1222.674197878313
 30
0.0
 11
15107.97122369513
 21
-1223.507531211647
 31
0.0
 12
15110.47122369513
 22
-1223.09086454498
 32
0.0
 13
15110.47122369513
 23
-1223.09086454498
 33
0.0
  0
MTEXT
  5
2C3
330
2BD
100
AcDbEntity
  8
DIM
 62
     3
100
AcDbMText
 10
15080.14048493546
 20
-1220.59086454498
 30
0.0
 40
3.0
 41
0.0
 71
     5
 72
     1
  1
\A1;60
1001
ACAD
1000
MTEXTBEGIN
1070
    73
1070
     1
1070
    44
1040
1.0
1070
    74
1070
     0
1000
MTEXTEND
1000
MTEXTBEGIN
1070
    73
1070
     1
1070
    44
1040
1.0
1070
    74
1070
     0
1000
MTEXTEND
  0
POINT
  5
2C4
330
2BD
100
AcDbEntity
  8
DEFPOINTS
 62
     0
100
AcDbPoint
 10
15050.47122369513
 20
-1240.741962339285
 30
0.0
  0
POINT
  5
2C5
330
2BD
100
AcDbEntity
  8
DEFPOINTS
 62
     0
100
AcDbPoint
 10
15110.47122369513
 20
-1241.741962339285
 30
0.0
  0
POINT
  5
2C6
330
2BD
100
AcDbEntity
  8
DEFPOINTS
 62
     0
100
AcDbPoint
 10
15110.47122369513
 20
-1223.09086454498
 30
0.0
  0
ENDBLK
  5
2C8
330
2BD
100
AcDbEntity
  8
0
100
AcDbBlockEnd
  0
BLOCK
  5
2DF
330
2D6
100
AcDbEntity
  8
0
100
AcDbBlockBegin
  2
*D8
 70
     1
 10
0.0
 20
0.0
 30
0.0
  3
*D8
  1

  0
LINE
  5
2D7
330
2D6
100
AcDbEntity
  8
0
 62
   123
100
AcDbLine
 10
15047.9478880036
 20
-1285.409651952569
 30
0.0
 11
15045.77966562418
 21
-1286.654164593455
 31
0.0
  0
LINE
  5
2D8
330
2D6
100
AcDbEntity
  8
0
 62
   123
100
AcDbLine
 10
15112.99455938663
 20
-1248.074272726002
 30
0.0
 11
15134.6148339701
 21
-1235.664703821176
 31
0.0
  0
LINE
  5
2D9
330
2D6
100
AcDbEntity
  8
0
 62
   123
100
AcDbLine
 10
15050.11611038304
 20
-1284.165139311684
 30
0.0
 11
15110.82633700719
 21
-1249.318785366887
 31
0.0
  0
SOLID
  5
2DA
330
2D6
100
AcDbEntity
  8
0
 62
   123
100
AcDbTrace
 10
15047.74046923013
 20
-1285.048281555999
 30
0.0
 11
15048.15530677707
 21
-1285.771022349142
 31
0.0
 12
15050.11611038304
 22
-1284.165139311684
 32
0.0
 13
15050.11611038304
 23
-1284.165139311684
 33
0.0
  0
SOLID
  5
2DB
330
2D6
100
AcDbEntity
  8
0
 62
   123
100
AcDbTrace
 10
15112.78714061313
 20
-1247.712902329431
 30
0.0
 11
15113.20197816011
 21
-1248.435643122574
 31
0.0
 12
15110.82633700719
 22
-1249.318785366887
 32
0.0
 13
15110.82633700719
 23
-1249.318785366887
 33
0.0
  0
MTEXT
  5
2DC
330
2D6
100
AcDbEntity
  8
0
 62
     3
100
AcDbMText
 10
15124.51158417898
 20
-1238.581204517358
 30
0.0
 40
3.0
 41
0.0
 71
     5
 72
     1
  1
\A1;\U+220570%%p0.5
 11
0.8672889517734152
 21
0.4978050563541624
 31
0.0
1001
ACAD
1000
MTEXTBEGIN
1070
    73
1070
     1
1070
    44
1040
1.0
1070
    74
1070
     0
1000
MTEXTEND
1000
MTEXTBEGIN
1070
    73
1070
     1
1070
    44
1040
1.0
1070
    74
1070
     0
1000
MTEXTEND
  0
POINT
  5
2DD
330
2D6
100
AcDbEntity
  8
DEFPOINTS
 62
     0
100
AcDbPoint
 10
15110.82633700719
 20
-1249.318785366887
 30
0.0
  0
POINT
  5
2DE
330
2D6
100
AcDbEntity
  8
DEFPOINTS
 62
     0
100
AcDbPoint
 10
15050.11611038304
 20
-1284.165139311684
 30
0.0
  0
ENDBLK
  5
2E0
330
2D6
100
AcDbEntity
  8
0
100
AcDbBlockEnd
  0
BLOCK
  5
286
330
27C
100
AcDbEntity
  8
0
100
AcDbBlockBegin
  2
*D9
 70
     1
 10
0.0
 20
0.0
 30
0.0
  3
*D9
  1

  0
LINE
  5
27D
330
27C
100
AcDbEntity
  8
DIM
 62
   123
100
AcDbLine
 10
15162.96724675864
 20
-1239.741962339285
 30
0.0
 11
15143.79991478441
 21
-1239.741962339285
 31
0.0
  0
LINE
  5
27E
330
27C
100
AcDbEntity
  8
DIM
 62
   123
100
AcDbLine
 10
15162.96724675864
 20
-1293.741962339285
 30
0.0
 11
15143.79991478441
 21
-1293.741962339285
 31
0.0
  0
LINE
  5
27F
330
27C
100
AcDbEntity
  8
DIM
 62
   123
100
AcDbLine
 10
15144.39991478439
 20
-1242.241962339285
 30
0.0
 11
15144.39991478439
 21
-1291.241962339285
 31
0.0
  0
SOLID
  5
280
330
27C
100
AcDbEntity
  8
DIM
 62
   123
100
AcDbTrace
 10
15143.98324811774
 20
-1242.241962339285
 30
0.0
 11
15144.81658145108
 21
-1242.241962339285
 31
0.0
 12
15144.39991478439
 22
-1239.741962339285
 32
0.0
 13
15144.39991478439
 23
-1239.741962339285
 33
0.0
  0
SOLID
  5
281
330
27C
100
AcDbEntity
  8
DIM
 62
   123
100
AcDbTrace
 10
15143.98324811774
 20
-1291.241962339285
 30
0.0
 11
15144.81658145108
 21
-1291.241962339285
 31
0.0
 12
15144.39991478439
 22
-1293.741962339285
 32
0.0
 13
15144.39991478439
 23
-1293.741962339285
 33
0.0
  0
MTEXT
  5
282
330
27C
100
AcDbEntity
  8
DIM
 62
     3
100
AcDbMText
 10
15140.4497647844
 20
-1266.741962339285
 30
0.0
 40
3.0
 41
0.0
 71
     5
 72
     1
  1
\A1;\A1;%%C54{\f??|b0|i0|c0|p49;\H0.7x;\S+0^ -0.03;\H1.429x;(h7)} 
 11
0.0000000000000001
 21
1.0
 31
0.0
1001
ACAD
1000
MTEXTBEGIN
1070
    73
1070
     1
1070
    44
1040
1.0
1070
    74
1070
     0
1000
MTEXTEND
1000
MTEXTBEGIN
1070
    73
1070
     1
1070
    44
1040
1.0
1070
    74
1070
     0
1000
MTEXTEND
  0
POINT
  5
283
330
27C
100
AcDbEntity
  8
DEFPOINTS
 62
     0
100
AcDbPoint
 10
15163.96724675864
 20
-1239.741962339285
 30
0.0
  0
POINT
  5
284
330
27C
100
AcDbEntity
  8
DEFPOINTS
 62
     0
100
AcDbPoint
 10
15163.96724675864
 20
-1293.741962339285
 30
0.0
  0
POINT
  5
285
330
27C
100
AcDbEntity
  8
DEFPOINTS
 62
     0
100
AcDbPoint
 10
15144.39991478439
 20
-1293.741962339285
 30
0.0
  0
ENDBLK
  5
287
330
27C
100
AcDbEntity
  8
0
100
AcDbBlockEnd
  0
BLOCK
  5
B7
330
AC
100
AcDbEntity
  8
0
100
AcDbBlockBegin
  2
*D10
 70
     1
 10
0.0
 20
0.0
 30
0.0
  3
*D10
  1

  0
LINE
  5
AD
330
AC
100
AcDbEntity
  8
0
 62
   123
100
AcDbLine
 10
15166.75429053928
 20
-1362.524666148629
 30
0.0
 11
15166.75429053928
 21
-1410.920680530254
 31
0.0
  0
LINE
  5
AE
330
AC
100
AcDbEntity
  8
0
 62
   123
100
AcDbLine
 10
15198.75429053928
 20
-1398.024666148629
 30
0.0
 11
15198.75429053928
 21
-1410.920680530254
 31
0.0
  0
LINE
  5
AF
330
AC
100
AcDbEntity
  8
0
 62
   123
100
AcDbLine
 10
15169.25429053928
 20
-1410.320680530253
 30
0.0
 11
15196.25429053928
 21
-1410.320680530253
 31
0.0
  0
SOLID
  5
B0
330
AC
100
AcDbEntity
  8
0
 62
   123
100
AcDbTrace
 10
15169.25429053928
 20
-1409.904013863587
 30
0.0
 11
15169.25429053928
 21
-1410.737347196921
 31
0.0
 12
15166.75429053928
 22
-1410.320680530253
 32
0.0
 13
15166.75429053928
 23
-1410.320680530253
 33
0.0
  0
SOLID
  5
B1
330
AC
100
AcDbEntity
  8
0
 62
   123
100
AcDbTrace
 10
15196.25429053928
 20
-1409.904013863587
 30
0.0
 11
15196.25429053928
 21
-1410.737347196921
 31
0.0
 12
15198.75429053928
 22
-1410.320680530253
 32
0.0
 13
15198.75429053928
 23
-1410.320680530253
 33
0.0
  0
MTEXT
  5
B2
330
AC
100
AcDbEntity
  8
0
 62
     3
100
AcDbMText
 10
15182.75429053928
 20
-1407.820680530253
 30
0.0
 40
3.0
 41
0.0
 71
     5
 72
     1
  1
\A1;32
1001
ACAD
1000
MTEXTBEGIN
1070
    73
1070
     1
1070
    44
1040
1.0
1070
    74
1070
     0
1000
MTEXTEND
1000
MTEXTBEGIN
1070
    73
1070
     1
1070
    44
1040
1.0
1070
    74
1070
     0
1000
MTEXTEND
  0
POINT
  5
B3
330
AC
100
AcDbEntity
  8
DEFPOINTS
 62
     0
100
AcDbPoint
 10
15166.75429053928
 20
-1361.524666148629
 30
0.0
  0
POINT
  5
B5
330
AC
100
AcDbEntity
  8
DEFPOINTS
 62
     0
100
AcDbPoint
 10
15198.75429053928
 20
-1397.024666148626
 30
0.0
  0
POINT
  5
B6
330
AC
100
AcDbEntity
  8
DEFPOINTS
 62
     0
100
AcDbPoint
 10
15198.75429053928
 20
-1410.320680530253
 30
0.0
  0
ENDBLK
  5
B8
330
AC
100
AcDbEntity
  8
0
100
AcDbBlockEnd
  0
BLOCK
  5
151
330
147
100
AcDbEntity
  8
0
100
AcDbBlockBegin
  2
*D11
 70
     1
 10
0.0
 20
0.0
 30
0.0
  3
*D11
  1

  0
LINE
  5
148
330
147
100
AcDbEntity
  8
0
 62
   123
100
AcDbLine
 10
15041.65272736988
 20
-1393.524666148628
 30
0.0
 11
15041.65272736988
 21
-1411.152987069013
 31
0.0
  0
LINE
  5
149
330
147
100
AcDbEntity
  8
0
 62
   123
100
AcDbLine
 10
15101.65272736988
 20
-1393.524666148628
 30
0.0
 11
15101.65272736988
 21
-1411.152987069013
 31
0.0
  0
LINE
  5
14A
330
147
100
AcDbEntity
  8
0
 62
   123
100
AcDbLine
 10
15044.15272736988
 20
-1410.552987069013
 30
0.0
 11
15099.15272736988
 21
-1410.552987069013
 31
0.0
  0
SOLID
  5
14B
330
147
100
AcDbEntity
  8
0
 62
   123
100
AcDbTrace
 10
15044.15272736988
 20
-1410.136320402346
 30
0.0
 11
15044.15272736988
 21
-1410.969653735679
 31
0.0
 12
15041.65272736988
 22
-1410.552987069013
 32
0.0
 13
15041.65272736988
 23
-1410.552987069013
 33
0.0
  0
SOLID
  5
14C
330
147
100
AcDbEntity
  8
0
 62
   123
100
AcDbTrace
 10
15099.15272736988
 20
-1410.136320402346
 30
0.0
 11
15099.15272736988
 21
-1410.969653735679
 31
0.0
 12
15101.65272736988
 22
-1410.552987069013
 32
0.0
 13
15101.65272736988
 23
-1410.552987069013
 33
0.0
  0
MTEXT
  5
14D
330
147
100
AcDbEntity
  8
0
 62
     3
100
AcDbMText
 10
15073.69747379873
 20
-1408.052987069013
 30
0.0
 40
3.0
 41
0.0
 71
     5
 72
     1
  1
\A1;60
1001
ACAD
1000
MTEXTBEGIN
1070
    73
1070
     1
1070
    44
1040
1.0
1070
    74
1070
     0
1000
MTEXTEND
1000
MTEXTBEGIN
1070
    73
1070
     1
1070
    44
1040
1.0
1070
    74
1070
     0
1000
MTEXTEND
  0
POINT
  5
14E
330
147
100
AcDbEntity
  8
DEFPOINTS
 62
     0
100
AcDbPoint
 10
15041.65272736988
 20
-1392.524666148629
 30
0.0
  0
POINT
  5
14F
330
147
100
AcDbEntity
  8
DEFPOINTS
 62
     0
100
AcDbPoint
 10
15101.65272736988
 20
-1392.524666148629
 30
0.0
  0
POINT
  5
150
330
147
100
AcDbEntity
  8
DEFPOINTS
 62
     0
100
AcDbPoint
 10
15101.65272736988
 20
-1410.552987069013
 30
0.0
  0
ENDBLK
  5
152
330
147
100
AcDbEntity
  8
0
100
AcDbBlockEnd
  0
BLOCK
  5
339
330
32D
100
AcDbEntity
  8
0
100
AcDbBlockBegin
  2
*D12
 70
     1
 10
0.0
 20
0.0
 30
0.0
  3
*D12
  1

  0
LINE
  5
32E
330
32D
100
AcDbEntity
  8
0
 62
   123
100
AcDbLine
 10
15182.25429053928
 20
-1361.524666148629
 30
0.0
 11
15186.84801587934
 21
-1361.524666148629
 31
0.0
  0
LINE
  5
32F
330
32D
100
AcDbEntity
  8
0
 62
   123
100
AcDbLine
 10
15179.75429053928
 20
-1353.524666148629
 30
0.0
 11
15186.84801587934
 21
-1353.524666148629
 31
0.0
  0
LINE
  5
330
330
32D
100
AcDbEntity
  8
0
 62
   123
100
AcDbLine
 10
15186.24801587934
 20
-1364.024666148629
 30
0.0
 11
15186.24801587934
 21
-1366.524666148626
 31
0.0
  0
LINE
  5
331
330
32D
100
AcDbEntity
  8
0
 62
   123
100
AcDbLine
 10
15186.24801587934
 20
-1351.024666148629
 30
0.0
 11
15186.24801587934
 21
-1311.154662925176
 31
0.0
  0
LINE
  5
332
330
32D
100
AcDbEntity
  8
0
 62
   123
100
AcDbLine
 10
15186.24801587934
 20
-1361.524666148629
 30
0.0
 11
15186.24801587934
 21
-1353.524666148629
 31
0.0
  0
SOLID
  5
333
330
32D
100
AcDbEntity
  8
0
 62
   123
100
AcDbTrace
 10
15185.83134921268
 20
-1364.024666148629
 30
0.0
 11
15186.664682546
 21
-1364.024666148629
 31
0.0
 12
15186.24801587934
 22
-1361.524666148629
 32
0.0
 13
15186.24801587934
 23
-1361.524666148629
 33
0.0
  0
SOLID
  5
334
330
32D
100
AcDbEntity
  8
0
 62
   123
100
AcDbTrace
 10
15185.83134921268
 20
-1351.024666148629
 30
0.0
 11
15186.664682546
 21
-1351.024666148629
 31
0.0
 12
15186.24801587934
 22
-1353.524666148629
 32
0.0
 13
15186.24801587934
 23
-1353.524666148629
 33
0.0
  0
MTEXT
  5
335
330
32D
100
AcDbEntity
  8
0
 62
     3
100
AcDbMText
 10
15182.29786587934
 20
-1324.827377210886
 30
0.0
 40
3.0
 41
0.0
 71
     5
 72
     1
  1
\A1;\A1;{\f??|b0|i0|c0|p49;%%C8\H0.7x;\S+0^ -0.015;\H1.429x;(h7)}
 11
0.0000000000000001
 21
1.0
 31
0.0
1001
ACAD
1000
MTEXTBEGIN
1070
    73
1070
     1
1070
    44
1040
1.0
1070
    74
1070
     0
1000
MTEXTEND
1000
MTEXTBEGIN
1070
    73
1070
     1
1070
    44
1040
1.0
1070
    74
1070
     0
1000
MTEXTEND
  0
POINT
  5
336
330
32D
100
AcDbEntity
  8
DEFPOINTS
 62
     0
100
AcDbPoint
 10
15181.25429053928
 20
-1361.524666148629
 30
0.0
  0
POINT
  5
337
330
32D
100
AcDbEntity
  8
DEFPOINTS
 62
     0
100
AcDbPoint
 10
15178.75429053928
 20
-1353.524666148629
 30
0.0
  0
POINT
  5
338
330
32D
100
AcDbEntity
  8
DEFPOINTS
 62
     0
100
AcDbPoint
 10
15186.24801587934
 20
-1353.524666148629
 30
0.0
  0
ENDBLK
  5
33A
330
32D
100
AcDbEntity
  8
0
100
AcDbBlockEnd
  0
BLOCK
  5
348
330
33E
100
AcDbEntity
  8
0
100
AcDbBlockBegin
  2
*D13
 70
     1
 10
0.0
 20
0.0
 30
0.0
  3
*D13
  1

  0
LINE
  5
33F
330
33E
100
AcDbEntity
  8
0
 62
   123
100
AcDbLine
 10
15166.75429053928
 20
-1353.524666148629
 30
0.0
 11
15166.75429053928
 21
-1339.896829221567
 31
0.0
  0
LINE
  5
340
330
33E
100
AcDbEntity
  8
0
 62
   123
100
AcDbLine
 10
15178.75429053928
 20
-1352.524666148629
 30
0.0
 11
15178.75429053928
 21
-1339.896829221567
 31
0.0
  0
LINE
  5
341
330
33E
100
AcDbEntity
  8
0
 62
   123
100
AcDbLine
 10
15169.25429053928
 20
-1340.496829221567
 30
0.0
 11
15176.25429053928
 21
-1340.496829221567
 31
0.0
  0
SOLID
  5
342
330
33E
100
AcDbEntity
  8
0
 62
   123
100
AcDbTrace
 10
15169.25429053928
 20
-1340.0801625549
 30
0.0
 11
15169.25429053928
 21
-1340.913495888234
 31
0.0
 12
15166.75429053928
 22
-1340.496829221567
 32
0.0
 13
15166.75429053928
 23
-1340.496829221567
 33
0.0
  0
SOLID
  5
343
330
33E
100
AcDbEntity
  8
0
 62
   123
100
AcDbTrace
 10
15176.25429053928
 20
-1340.0801625549
 30
0.0
 11
15176.25429053928
 21
-1340.913495888234
 31
0.0
 12
15178.75429053928
 22
-1340.496829221567
 32
0.0
 13
15178.75429053928
 23
-1340.496829221567
 33
0.0
  0
MTEXT
  5
344
330
33E
100
AcDbEntity
  8
0
 62
     3
100
AcDbMText
 10
15172.75429053928
 20
-1337.996829221567
 30
0.0
 40
3.0
 41
0.0
 71
     5
 72
     1
  1
\A1;12
1001
ACAD
1000
MTEXTBEGIN
1070
    73
1070
     1
1070
    44
1040
1.0
1070
    74
1070
     0
1000
MTEXTEND
1000
MTEXTBEGIN
1070
    73
1070
     1
1070
    44
1040
1.0
1070
    74
1070
     0
1000
MTEXTEND
  0
POINT
  5
345
330
33E
100
AcDbEntity
  8
DEFPOINTS
 62
     0
100
AcDbPoint
 10
15166.75429053928
 20
-1354.524666148629
 30
0.0
  0
POINT
  5
346
330
33E
100
AcDbEntity
  8
DEFPOINTS
 62
     0
100
AcDbPoint
 10
15178.75429053928
 20
-1353.524666148629
 30
0.0
  0
POINT
  5
347
330
33E
100
AcDbEntity
  8
DEFPOINTS
 62
     0
100
AcDbPoint
 10
15178.75429053928
 20
-1340.496829221567
 30
0.0
  0
ENDBLK
  5
349
330
33E
100
AcDbEntity
  8
0
100
AcDbBlockEnd
  0
BLOCK
  5
361
330
355
100
AcDbEntity
  8
0
100
AcDbBlockBegin
  2
*D14
 70
     1
 10
0.0
 20
0.0
 30
0.0
  3
*D14
  1

  0
LINE
  5
356
330
355
100
AcDbEntity
  8
0
 62
   123
100
AcDbLine
 10
15165.75429053928
 20
-1354.524666148629
 30
0.0
 11
15153.28148802969
 21
-1354.524666148629
 31
0.0
  0
LINE
  5
357
330
355
100
AcDbEntity
  8
0
 62
   123
100
AcDbLine
 10
15165.75429053928
 20
-1361.524666148629
 30
0.0
 11
15153.28148802969
 21
-1361.524666148629
 31
0.0
  0
LINE
  5
358
330
355
100
AcDbEntity
  8
0
 62
   123
100
AcDbLine
 10
15153.8814880297
 20
-1364.024666148629
 30
0.0
 11
15153.8814880297
 21
-1366.524666148626
 31
0.0
  0
LINE
  5
359
330
355
100
AcDbEntity
  8
0
 62
   123
100
AcDbLine
 10
15153.8814880297
 20
-1352.024666148629
 30
0.0
 11
15153.8814880297
 21
-1339.524666148632
 31
0.0
  0
LINE
  5
35A
330
355
100
AcDbEntity
  8
0
 62
   123
100
AcDbLine
 10
15153.8814880297
 20
-1361.524666148629
 30
0.0
 11
15153.8814880297
 21
-1354.524666148629
 31
0.0
  0
SOLID
  5
35B
330
355
100
AcDbEntity
  8
0
 62
   123
100
AcDbTrace
 10
15153.46482136304
 20
-1364.024666148629
 30
0.0
 11
15154.29815469637
 21
-1364.024666148629
 31
0.0
 12
15153.8814880297
 22
-1361.524666148629
 32
0.0
 13
15153.8814880297
 23
-1361.524666148629
 33
0.0
  0
SOLID
  5
35C
330
355
100
AcDbEntity
  8
0
 62
   123
100
AcDbTrace
 10
15153.46482136304
 20
-1352.024666148629
 30
0.0
 11
15154.29815469637
 21
-1352.024666148629
 31
0.0
 12
15153.8814880297
 22
-1354.524666148629
 32
0.0
 13
15153.8814880297
 23
-1354.524666148629
 33
0.0
  0
MTEXT
  5
35D
330
355
100
AcDbEntity
  8
0
 62
     3
100
AcDbMText
 10
15151.3814880297
 20
-1341.524666148629
 30
0.0
 40
3.0
 41
0.0
 71
     5
 72
     1
  1
\A1;7
 11
0.0000000000000001
 21
1.0
 31
0.0
1001
ACAD
1000
MTEXTBEGIN
1070
    73
1070
     1
1070
    44
1040
1.0
1070
    74
1070
     0
1000
MTEXTEND
1000
MTEXTBEGIN
1070
    73
1070
     1
1070
    44
1040
1.0
1070
    74
1070
     0
1000
MTEXTEND
  0
POINT
  5
35E
330
355
100
AcDbEntity
  8
DEFPOINTS
 62
     0
100
AcDbPoint
 10
15166.75429053928
 20
-1354.524666148629
 30
0.0
  0
POINT
  5
35F
330
355
100
AcDbEntity
  8
DEFPOINTS
 62
     0
100
AcDbPoint
 10
15166.75429053928
 20
-1361.524666148629
 30
0.0
  0
POINT
  5
360
330
355
100
AcDbEntity
  8
DEFPOINTS
 62
     0
100
AcDbPoint
 10
15153.8814880297
 20
-1361.524666148629
 30
0.0
  0
ENDBLK
  5
362
330
355
100
AcDbEntity
  8
0
100
AcDbBlockEnd
  0
BLOCK
  5
277
330
26D
100
AcDbEntity
  8
0
100
AcDbBlockBegin
  2
*D15
 70
     1
 10
0.0
 20
0.0
 30
0.0
  3
*D15
  1

  0
LINE
  5
26E
330
26D
100
AcDbEntity
  8
0
 62
   123
100
AcDbLine
 10
15161.85615173805
 20
-1357.524666148629
 30
0.0
 11
15143.89184583893
 21
-1357.524666148629
 31
0.0
  0
LINE
  5
26F
330
26D
100
AcDbEntity
  8
0
 62
   123
100
AcDbLine
 10
15154.14661740518
 20
-1367.524666148629
 30
0.0
 11
15143.89184583893
 21
-1367.524666148629
 31
0.0
  0
LINE
  5
270
330
26D
100
AcDbEntity
  8
0
 62
   123
100
AcDbLine
 10
15144.49184583891
 20
-1360.024666148629
 30
0.0
 11
15144.49184583891
 21
-1365.024666148629
 31
0.0
  0
SOLID
  5
271
330
26D
100
AcDbEntity
  8
0
 62
   123
100
AcDbTrace
 10
15144.07517917225
 20
-1360.024666148629
 30
0.0
 11
15144.90851250559
 21
-1360.024666148629
 31
0.0
 12
15144.49184583891
 22
-1357.524666148629
 32
0.0
 13
15144.49184583891
 23
-1357.524666148629
 33
0.0
  0
SOLID
  5
272
330
26D
100
AcDbEntity
  8
0
 62
   123
100
AcDbTrace
 10
15144.07517917225
 20
-1365.024666148629
 30
0.0
 11
15144.90851250559
 21
-1365.024666148629
 31
0.0
 12
15144.49184583891
 22
-1367.524666148629
 32
0.0
 13
15144.49184583891
 23
-1367.524666148629
 33
0.0
  0
MTEXT
  5
273
330
26D
100
AcDbEntity
  8
0
 62
     3
100
AcDbMText
 10
15141.9918458389
 20
-1362.524666148626
 30
0.0
 40
3.0
 41
0.0
 71
     5
 72
     1
  1
\A1;10
 11
0.0000000000000001
 21
1.0
 31
0.0
1001
ACAD
1000
MTEXTBEGIN
1070
    73
1070
     1
1070
    44
1040
1.0
1070
    74
1070
     0
1000
MTEXTEND
1000
MTEXTBEGIN
1070
    73
1070
     1
1070
    44
1040
1.0
1070
    74
1070
     0
1000
MTEXTEND
  0
POINT
  5
274
330
26D
100
AcDbEntity
  8
DEFPOINTS
 62
     0
100
AcDbPoint
 10
15162.85615173805
 20
-1357.524666148629
 30
0.0
  0
POINT
  5
275
330
26D
100
AcDbEntity
  8
DEFPOINTS
 62
     0
100
AcDbPoint
 10
15155.14661740518
 20
-1367.524666148629
 30
0.0
  0
POINT
  5
276
330
26D
100
AcDbEntity
  8
DEFPOINTS
 62
     0
100
AcDbPoint
 10
15144.49184583891
 20
-1367.524666148629
 30
0.0
  0
ENDBLK
  5
278
330
26D
100
AcDbEntity
  8
0
100
AcDbBlockEnd
  0
BLOCK
  5
209
330
1FF
100
AcDbEntity
  8
0
100
AcDbBlockBegin
  2
*D16
 70
     1
 10
0.0
 20
0.0
 30
0.0
  3
*D16
  1

  0
LINE
  5
200
330
1FF
100
AcDbEntity
  8
0
 62
   123
100
AcDbLine
 10
15238.75429053928
 20
-1398.024666148629
 30
0.0
 11
15238.75429053928
 21
-1410.920680530254
 31
0.0
  0
LINE
  5
201
330
1FF
100
AcDbEntity
  8
0
 62
   123
100
AcDbLine
 10
15198.75429053928
 20
-1398.024666148629
 30
0.0
 11
15198.75429053928
 21
-1410.920680530254
 31
0.0
  0
LINE
  5
202
330
1FF
100
AcDbEntity
  8
0
 62
   123
100
AcDbLine
 10
15236.25429053928
 20
-1410.320680530253
 30
0.0
 11
15201.25429053928
 21
-1410.320680530253
 31
0.0
  0
SOLID
  5
203
330
1FF
100
AcDbEntity
  8
0
 62
   123
100
AcDbTrace
 10
15236.25429053928
 20
-1409.904013863587
 30
0.0
 11
15236.25429053928
 21
-1410.737347196921
 31
0.0
 12
15238.75429053928
 22
-1410.320680530253
 32
0.0
 13
15238.75429053928
 23
-1410.320680530253
 33
0.0
  0
SOLID
  5
204
330
1FF
100
AcDbEntity
  8
0
 62
   123
100
AcDbTrace
 10
15201.25429053928
 20
-1409.904013863587
 30
0.0
 11
15201.25429053928
 21
-1410.737347196921
 31
0.0
 12
15198.75429053928
 22
-1410.320680530253
 32
0.0
 13
15198.75429053928
 23
-1410.320680530253
 33
0.0
  0
MTEXT
  5
205
330
1FF
100
AcDbEntity
  8
0
 62
     3
100
AcDbMText
 10
15218.75429053928
 20
-1407.820680530253
 30
0.0
 40
3.0
 41
0.0
 71
     5
 72
     1
  1
\A1;L
1001
ACAD
1000
MTEXTBEGIN
1070
    73
1070
     1
1070
    44
1040
1.0
1070
    74
1070
     0
1000
MTEXTEND
1000
MTEXTBEGIN
1070
    73
1070
     1
1070
    44
1040
1.0
1070
    74
1070
     0
1000
MTEXTEND
  0
POINT
  5
206
330
1FF
100
AcDbEntity
  8
DEFPOINTS
 62
     0
100
AcDbPoint
 10
15238.75429053928
 20
-1397.024666148626
 30
0.0
  0
POINT
  5
207
330
1FF
100
AcDbEntity
  8
DEFPOINTS
 62
     0
100
AcDbPoint
 10
15198.75429053928
 20
-1397.024666148626
 30
0.0
  0
POINT
  5
208
330
1FF
100
AcDbEntity
  8
DEFPOINTS
 62
     0
100
AcDbPoint
 10
15198.75429053928
 20
-1410.320680530253
 30
0.0
  0
ENDBLK
  5
20A
330
1FF
100
AcDbEntity
  8
0
100
AcDbBlockEnd
  0
BLOCK
  5
1AB
330
1A1
100
AcDbEntity
  8
0
100
AcDbBlockBegin
  2
*D17
 70
     1
 10
0.0
 20
0.0
 30
0.0
  3
*D17
  1

  0
LINE
  5
1A2
330
1A1
100
AcDbEntity
  8
DIM
 62
   123
100
AcDbLine
 10
15128.50933613745
 20
-1557.686060171072
 30
0.0
 11
15101.50629336155
 21
-1557.686060171072
 31
0.0
  0
LINE
  5
1A3
330
1A1
100
AcDbEntity
  8
DIM
 62
   123
100
AcDbLine
 10
15127.71490134519
 20
-1567.686060171072
 30
0.0
 11
15101.50629336155
 21
-1567.686060171072
 31
0.0
  0
LINE
  5
1A4
330
1A1
100
AcDbEntity
  8
DIM
 62
   123
100
AcDbLine
 10
15102.10629336155
 20
-1560.186060171072
 30
0.0
 11
15102.10629336155
 21
-1565.186060171072
 31
0.0
  0
SOLID
  5
1A5
330
1A1
100
AcDbEntity
  8
DIM
 62
   123
100
AcDbTrace
 10
15101.68962669489
 20
-1560.186060171072
 30
0.0
 11
15102.52296002821
 21
-1560.186060171072
 31
0.0
 12
15102.10629336155
 22
-1557.686060171072
 32
0.0
 13
15102.10629336155
 23
-1557.686060171072
 33
0.0
  0
SOLID
  5
1A6
330
1A1
100
AcDbEntity
  8
DIM
 62
   123
100
AcDbTrace
 10
15101.68962669489
 20
-1565.186060171072
 30
0.0
 11
15102.52296002821
 21
-1565.186060171072
 31
0.0
 12
15102.10629336155
 22
-1567.686060171072
 32
0.0
 13
15102.10629336155
 23
-1567.686060171072
 33
0.0
  0
MTEXT
  5
1A7
330
1A1
100
AcDbEntity
  8
DIM
 62
     3
100
AcDbMText
 10
15099.60629336155
 20
-1562.686060171072
 30
0.0
 40
3.0
 41
0.0
 71
     5
 72
     1
  1
\A1;10
 11
0.0000000000000001
 21
1.0
 31
0.0
1001
ACAD
1000
MTEXTBEGIN
1070
    73
1070
     1
1070
    44
1040
1.0
1070
    74
1070
     0
1000
MTEXTEND
1000
MTEXTBEGIN
1070
    73
1070
     1
1070
    44
1040
1.0
1070
    74
1070
     0
1000
MTEXTEND
  0
POINT
  5
1A8
330
1A1
100
AcDbEntity
  8
DEFPOINTS
 62
     0
100
AcDbPoint
 10
15129.50933613745
 20
-1557.686060171072
 30
0.0
  0
POINT
  5
1A9
330
1A1
100
AcDbEntity
  8
DEFPOINTS
 62
     0
100
AcDbPoint
 10
15128.71490134519
 20
-1567.686060171072
 30
0.0
  0
POINT
  5
1AA
330
1A1
100
AcDbEntity
  8
DEFPOINTS
 62
     0
100
AcDbPoint
 10
15102.10629336155
 20
-1567.686060171072
 30
0.0
  0
ENDBLK
  5
1AC
330
1A1
100
AcDbEntity
  8
0
100
AcDbBlockEnd
  0
BLOCK
  5
19C
330
190
100
AcDbEntity
  8
0
100
AcDbBlockBegin
  2
*D18
 70
     1
 10
0.0
 20
0.0
 30
0.0
  3
*D18
  1

  0
LINE
  5
191
330
190
100
AcDbEntity
  8
0
 62
   123
100
AcDbLine
 10
15132.40747493869
 20
-1554.686060171072
 30
0.0
 11
15119.93467242912
 21
-1554.686060171072
 31
0.0
  0
LINE
  5
192
330
190
100
AcDbEntity
  8
0
 62
   123
100
AcDbLine
 10
15132.40747493869
 20
-1561.686060171072
 30
0.0
 11
15119.93467242912
 21
-1561.686060171072
 31
0.0
  0
LINE
  5
193
330
190
100
AcDbEntity
  8
0
 62
   123
100
AcDbLine
 10
15120.5346724291
 20
-1564.186060171072
 30
0.0
 11
15120.5346724291
 21
-1566.686060171072
 31
0.0
  0
LINE
  5
194
330
190
100
AcDbEntity
  8
0
 62
   123
100
AcDbLine
 10
15120.5346724291
 20
-1552.186060171072
 30
0.0
 11
15120.5346724291
 21
-1540.030883424154
 31
0.0
  0
LINE
  5
195
330
190
100
AcDbEntity
  8
0
 62
   123
100
AcDbLine
 10
15120.5346724291
 20
-1561.686060171072
 30
0.0
 11
15120.5346724291
 21
-1554.686060171072
 31
0.0
  0
SOLID
  5
196
330
190
100
AcDbEntity
  8
0
 62
   123
100
AcDbTrace
 10
15120.11800576245
 20
-1564.186060171072
 30
0.0
 11
15120.95133909578
 21
-1564.186060171072
 31
0.0
 12
15120.5346724291
 22
-1561.686060171072
 32
0.0
 13
15120.5346724291
 23
-1561.686060171072
 33
0.0
  0
SOLID
  5
197
330
190
100
AcDbEntity
  8
0
 62
   123
100
AcDbTrace
 10
15120.11800576245
 20
-1552.186060171072
 30
0.0
 11
15120.95133909578
 21
-1552.186060171072
 31
0.0
 12
15120.5346724291
 22
-1554.686060171072
 32
0.0
 13
15120.5346724291
 23
-1554.686060171072
 33
0.0
  0
MTEXT
  5
198
330
190
100
AcDbEntity
  8
0
 62
     3
100
AcDbMText
 10
15118.03467242909
 20
-1542.030883424151
 30
0.0
 40
3.0
 41
0.0
 71
     5
 72
     1
  1
\A1;7
 11
0.0000000000000001
 21
1.0
 31
0.0
1001
ACAD
1000
MTEXTBEGIN
1070
    73
1070
     1
1070
    44
1040
1.0
1070
    74
1070
     0
1000
MTEXTEND
1000
MTEXTBEGIN
1070
    73
1070
     1
1070
    44
1040
1.0
1070
    74
1070
     0
1000
MTEXTEND
  0
POINT
  5
199
330
190
100
AcDbEntity
  8
DEFPOINTS
 62
     0
100
AcDbPoint
 10
15133.40747493869
 20
-1554.686060171072
 30
0.0
  0
POINT
  5
19A
330
190
100
AcDbEntity
  8
DEFPOINTS
 62
     0
100
AcDbPoint
 10
15133.40747493869
 20
-1561.686060171072
 30
0.0
  0
POINT
  5
19B
330
190
100
AcDbEntity
  8
DEFPOINTS
 62
     0
100
AcDbPoint
 10
15120.5346724291
 20
-1561.686060171072
 30
0.0
  0
ENDBLK
  5
19D
330
190
100
AcDbEntity
  8
0
100
AcDbBlockEnd
  0
BLOCK
  5
110
330
104
100
AcDbEntity
  8
0
100
AcDbBlockBegin
  2
*D19
 70
     1
 10
0.0
 20
0.0
 30
0.0
  3
*D19
  1

  0
LINE
  5
105
330
104
100
AcDbEntity
  8
DIM
 62
   123
100
AcDbLine
 10
15132.40747493869
 20
-1561.686060171072
 30
0.0
 11
15110.41637918754
 21
-1561.686060171072
 31
0.0
  0
LINE
  5
106
330
104
100
AcDbEntity
  8
DIM
 62
   123
100
AcDbLine
 10
15144.40747493869
 20
-1553.686060171072
 30
0.0
 11
15110.41637918754
 21
-1553.686060171072
 31
0.0
  0
LINE
  5
107
330
104
100
AcDbEntity
  8
DIM
 62
   123
100
AcDbLine
 10
15111.01637918755
 20
-1564.186060171072
 30
0.0
 11
15111.01637918755
 21
-1566.686060171072
 31
0.0
  0
LINE
  5
108
330
104
100
AcDbEntity
  8
DIM
 62
   123
100
AcDbLine
 10
15111.01637918755
 20
-1551.186060171072
 30
0.0
 11
15111.01637918755
 21
-1514.052825909093
 31
0.0
  0
LINE
  5
109
330
104
100
AcDbEntity
  8
DIM
 62
   123
100
AcDbLine
 10
15111.01637918755
 20
-1561.686060171072
 30
0.0
 11
15111.01637918755
 21
-1553.686060171072
 31
0.0
  0
SOLID
  5
10A
330
104
100
AcDbEntity
  8
DIM
 62
   123
100
AcDbTrace
 10
15110.59971252089
 20
-1564.186060171072
 30
0.0
 11
15111.4330458542
 21
-1564.186060171072
 31
0.0
 12
15111.01637918755
 22
-1561.686060171072
 32
0.0
 13
15111.01637918755
 23
-1561.686060171072
 33
0.0
  0
SOLID
  5
10B
330
104
100
AcDbEntity
  8
DIM
 62
   123
100
AcDbTrace
 10
15110.59971252089
 20
-1551.186060171072
 30
0.0
 11
15111.4330458542
 21
-1551.186060171072
 31
0.0
 12
15111.01637918755
 22
-1553.686060171072
 32
0.0
 13
15111.01637918755
 23
-1553.686060171072
 33
0.0
  0
MTEXT
  5
10C
330
104
100
AcDbEntity
  8
DIM
 62
     3
100
AcDbMText
 10
15107.06622918754
 20
-1527.725540194805
 30
0.0
 40
3.0
 41
0.0
 71
     5
 72
     1
  1
\A1;\A1;{\f??|b0|i0|c0|p49;%%C8\H0.7x;\S+0^ -0.015;\H1.429x;(h7)}
 11
0.0000000000000001
 21
1.0
 31
0.0
1001
ACAD
1000
MTEXTBEGIN
1070
    73
1070
     1
1070
    44
1040
1.0
1070
    74
1070
     0
1000
MTEXTEND
1000
MTEXTBEGIN
1070
    73
1070
     1
1070
    44
1040
1.0
1070
    74
1070
     0
1000
MTEXTEND
  0
POINT
  5
10D
330
104
100
AcDbEntity
  8
DEFPOINTS
 62
     0
100
AcDbPoint
 10
15133.40747493869
 20
-1561.686060171072
 30
0.0
  0
POINT
  5
10E
330
104
100
AcDbEntity
  8
DEFPOINTS
 62
     0
100
AcDbPoint
 10
15145.40747493869
 20
-1553.686060171072
 30
0.0
  0
POINT
  5
10F
330
104
100
AcDbEntity
  8
DEFPOINTS
 62
     0
100
AcDbPoint
 10
15111.01637918755
 20
-1553.686060171072
 30
0.0
  0
ENDBLK
  5
111
330
104
100
AcDbEntity
  8
0
100
AcDbBlockEnd
  0
BLOCK
  5
16A
330
160
100
AcDbEntity
  8
0
100
AcDbBlockBegin
  2
*D20
 70
     1
 10
0.0
 20
0.0
 30
0.0
  3
*D20
  1

  0
LINE
  5
161
330
160
100
AcDbEntity
  8
0
 62
   123
100
AcDbLine
 10
15012.60556042439
 20
-1505.186068171069
 30
0.0
 11
15012.60556042439
 21
-1493.763123954112
 31
0.0
  0
LINE
  5
162
330
160
100
AcDbEntity
  8
0
 62
   123
100
AcDbLine
 10
15054.60556042439
 20
-1505.186068171069
 30
0.0
 11
15054.60556042439
 21
-1493.763123954112
 31
0.0
  0
LINE
  5
163
330
160
100
AcDbEntity
  8
0
 62
   123
100
AcDbLine
 10
15015.10556042439
 20
-1494.363123954111
 30
0.0
 11
15052.10556042439
 21
-1494.363123954111
 31
0.0
  0
SOLID
  5
164
330
160
100
AcDbEntity
  8
0
 62
   123
100
AcDbTrace
 10
15015.10556042439
 20
-1493.946457287445
 30
0.0
 11
15015.10556042439
 21
-1494.779790620778
 31
0.0
 12
15012.60556042439
 22
-1494.363123954111
 32
0.0
 13
15012.60556042439
 23
-1494.363123954111
 33
0.0
  0
SOLID
  5
165
330
160
100
AcDbEntity
  8
0
 62
   123
100
AcDbTrace
 10
15052.10556042439
 20
-1493.946457287445
 30
0.0
 11
15052.10556042439
 21
-1494.779790620778
 31
0.0
 12
15054.60556042439
 22
-1494.363123954111
 32
0.0
 13
15054.60556042439
 23
-1494.363123954111
 33
0.0
  0
MTEXT
  5
166
330
160
100
AcDbEntity
  8
0
 62
     3
100
AcDbMText
 10
15033.60556042439
 20
-1491.863123954112
 30
0.0
 40
3.0
 41
0.0
 71
     5
 72
     1
  1
\A1;42
1001
ACAD
1000
MTEXTBEGIN
1070
    73
1070
     1
1070
    44
1040
1.0
1070
    74
1070
     0
1000
MTEXTEND
1000
MTEXTBEGIN
1070
    73
1070
     1
1070
    44
1040
1.0
1070
    74
1070
     0
1000
MTEXTEND
  0
POINT
  5
167
330
160
100
AcDbEntity
  8
DEFPOINTS
 62
     0
100
AcDbPoint
 10
15012.60556042439
 20
-1506.186068171069
 30
0.0
  0
POINT
  5
168
330
160
100
AcDbEntity
  8
DEFPOINTS
 62
     0
100
AcDbPoint
 10
15054.60556042439
 20
-1506.186068171069
 30
0.0
  0
POINT
  5
169
330
160
100
AcDbEntity
  8
DEFPOINTS
 62
     0
100
AcDbPoint
 10
15054.60556042439
 20
-1494.363123954111
 30
0.0
  0
ENDBLK
  5
16B
330
160
100
AcDbEntity
  8
0
100
AcDbBlockEnd
  0
BLOCK
  5
1BC
330
1B2
100
AcDbEntity
  8
0
100
AcDbBlockBegin
  2
*D21
 70
     1
 10
0.0
 20
0.0
 30
0.0
  3
*D21
  1

  0
LINE
  5
1B3
330
1B2
100
AcDbEntity
  8
0
 62
   123
100
AcDbLine
 10
15007.60556042439
 20
-1537.68606017107
 30
0.0
 11
14993.75950093075
 21
-1537.68606017107
 31
0.0
  0
LINE
  5
1B4
330
1B2
100
AcDbEntity
  8
0
 62
   123
100
AcDbLine
 10
15014.60556042438
 20
-1503.186068171069
 30
0.0
 11
14993.75950093075
 21
-1503.186068171069
 31
0.0
  0
LINE
  5
1B5
330
1B2
100
AcDbEntity
  8
0
 62
   123
100
AcDbLine
 10
14994.35950093076
 20
-1535.18606017107
 30
0.0
 11
14994.35950093076
 21
-1505.686068171069
 31
0.0
  0
SOLID
  5
1B6
330
1B2
100
AcDbEntity
  8
0
 62
   123
100
AcDbTrace
 10
14993.9428342641
 20
-1535.18606017107
 30
0.0
 11
14994.77616759743
 21
-1535.18606017107
 31
0.0
 12
14994.35950093076
 22
-1537.68606017107
 32
0.0
 13
14994.35950093076
 23
-1537.68606017107
 33
0.0
  0
SOLID
  5
1B7
330
1B2
100
AcDbEntity
  8
0
 62
   123
100
AcDbTrace
 10
14993.9428342641
 20
-1505.686068171069
 30
0.0
 11
14994.77616759743
 21
-1505.686068171069
 31
0.0
 12
14994.35950093076
 22
-1503.186068171069
 32
0.0
 13
14994.35950093076
 23
-1503.186068171069
 33
0.0
  0
MTEXT
  5
1B8
330
1B2
100
AcDbEntity
  8
0
 62
     3
100
AcDbMText
 10
14991.85950093075
 20
-1520.43606417107
 30
0.0
 40
3.0
 41
0.0
 71
     5
 72
     1
  1
\A1;34.5
 11
0.0000000000000001
 21
1.0
 31
0.0
1001
ACAD
1000
MTEXTBEGIN
1070
    73
1070
     1
1070
    44
1040
1.0
1070
    74
1070
     0
1000
MTEXTEND
1000
MTEXTBEGIN
1070
    73
1070
     1
1070
    44
1040
1.0
1070
    74
1070
     0
1000
MTEXTEND
  0
POINT
  5
1B9
330
1B2
100
AcDbEntity
  8
DEFPOINTS
 62
     0
100
AcDbPoint
 10
15008.60556042439
 20
-1537.68606017107
 30
0.0
  0
POINT
  5
1BA
330
1B2
100
AcDbEntity
  8
DEFPOINTS
 62
     0
100
AcDbPoint
 10
15015.60556042439
 20
-1503.186068171069
 30
0.0
  0
POINT
  5
1BB
330
1B2
100
AcDbEntity
  8
DEFPOINTS
 62
     0
100
AcDbPoint
 10
14994.35950093076
 20
-1503.186068171069
 30
0.0
  0
ENDBLK
  5
1BD
330
1B2
100
AcDbEntity
  8
0
100
AcDbBlockEnd
  0
BLOCK
  5
122
330
119
100
AcDbEntity
  8
0
100
AcDbBlockBegin
  2
*D22
 70
     1
 10
0.0
 20
0.0
 30
0.0
  3
*D22
  1

  0
LINE
  5
11A
330
119
100
AcDbEntity
  8
0
 62
   123
100
AcDbLine
 10
15001.73922730638
 20
-1587.454388719859
 30
0.0
 11
14999.6148050985
 21
-1588.772277289778
 31
0.0
  0
LINE
  5
11B
330
119
100
AcDbEntity
  8
0
 62
   123
100
AcDbLine
 10
15065.47189354238
 20
-1547.917731622286
 30
0.0
 11
15086.65541784368
 21
-1534.776499882237
 31
0.0
  0
LINE
  5
11C
330
119
100
AcDbEntity
  8
0
 62
   123
100
AcDbLine
 10
15003.86364951425
 20
-1586.13650014994
 30
0.0
 11
15063.3474713345
 21
-1549.235620192203
 31
0.0
  0
SOLID
  5
11D
330
119
100
AcDbEntity
  8
0
 62
   123
100
AcDbTrace
 10
15001.51957921139
 20
-1587.100318351882
 30
0.0
 11
15001.95887540137
 21
-1587.808459087836
 31
0.0
 12
15003.86364951425
 22
-1586.13650014994
 32
0.0
 13
15003.86364951425
 23
-1586.13650014994
 33
0.0
  0
SOLID
  5
11E
330
119
100
AcDbEntity
  8
0
 62
   123
100
AcDbTrace
 10
15065.2522454474
 20
-1547.563661254307
 30
0.0
 11
15065.69154163735
 21
-1548.271801990263
 31
0.0
 12
15063.3474713345
 22
-1549.235620192203
 32
0.0
 13
15063.3474713345
 23
-1549.235620192203
 33
0.0
  0
MTEXT
  5
11F
330
119
100
AcDbEntity
  8
0
 62
     3
100
AcDbMText
 10
15076.6577471102
 20
-1538.036593831469
 30
0.0
 40
3.0
 41
0.0
 71
     5
 72
     1
  1
\A1;\U+220570%%p0.5
 11
0.8497688831466302
 21
0.5271554279676241
 31
0.0
1001
ACAD
1000
MTEXTBEGIN
1070
    73
1070
     1
1070
    44
1040
1.0
1070
    74
1070
     0
1000
MTEXTEND
1000
MTEXTBEGIN
1070
    73
1070
     1
1070
    44
1040
1.0
1070
    74
1070
     0
1000
MTEXTEND
  0
POINT
  5
120
330
119
100
AcDbEntity
  8
DEFPOINTS
 62
     0
100
AcDbPoint
 10
15063.3474713345
 20
-1549.235620192203
 30
0.0
  0
POINT
  5
121
330
119
100
AcDbEntity
  8
DEFPOINTS
 62
     0
100
AcDbPoint
 10
15003.86364951425
 20
-1586.13650014994
 30
0.0
  0
ENDBLK
  5
123
330
119
100
AcDbEntity
  8
0
100
AcDbBlockEnd
  0
BLOCK
  5
239
330
22F
100
AcDbEntity
  8
0
100
AcDbBlockBegin
  2
*D23
 70
     1
 10
0.0
 20
0.0
 30
0.0
  3
*D23
  1

  0
LINE
  5
230
330
22F
100
AcDbEntity
  8
0
 62
   123
100
AcDbLine
 10
15211.50747493869
 20
-1505.186068171069
 30
0.0
 11
15211.50747493869
 21
-1488.245260824366
 31
0.0
  0
LINE
  5
231
330
22F
100
AcDbEntity
  8
0
 62
   123
100
AcDbLine
 10
15253.50747493869
 20
-1505.186068171069
 30
0.0
 11
15253.50747493869
 21
-1488.245260824366
 31
0.0
  0
LINE
  5
232
330
22F
100
AcDbEntity
  8
0
 62
   123
100
AcDbLine
 10
15214.00747493869
 20
-1488.845260824366
 30
0.0
 11
15251.00747493869
 21
-1488.845260824366
 31
0.0
  0
SOLID
  5
233
330
22F
100
AcDbEntity
  8
0
 62
   123
100
AcDbTrace
 10
15214.00747493869
 20
-1488.428594157699
 30
0.0
 11
15214.00747493869
 21
-1489.261927491033
 31
0.0
 12
15211.50747493869
 22
-1488.845260824366
 32
0.0
 13
15211.50747493869
 23
-1488.845260824366
 33
0.0
  0
SOLID
  5
234
330
22F
100
AcDbEntity
  8
0
 62
   123
100
AcDbTrace
 10
15251.00747493869
 20
-1488.428594157699
 30
0.0
 11
15251.00747493869
 21
-1489.261927491033
 31
0.0
 12
15253.50747493869
 22
-1488.845260824366
 32
0.0
 13
15253.50747493869
 23
-1488.845260824366
 33
0.0
  0
MTEXT
  5
235
330
22F
100
AcDbEntity
  8
0
 62
     3
100
AcDbMText
 10
15231.38845117883
 20
-1486.345260824366
 30
0.0
 40
3.0
 41
0.0
 71
     5
 72
     1
  1
\A1;42
1001
ACAD
1000
MTEXTBEGIN
1070
    73
1070
     1
1070
    44
1040
1.0
1070
    74
1070
     0
1000
MTEXTEND
1000
MTEXTBEGIN
1070
    73
1070
     1
1070
    44
1040
1.0
1070
    74
1070
     0
1000
MTEXTEND
  0
POINT
  5
236
330
22F
100
AcDbEntity
  8
DEFPOINTS
 62
     0
100
AcDbPoint
 10
15211.50747493869
 20
-1506.186068171069
 30
0.0
  0
POINT
  5
237
330
22F
100
AcDbEntity
  8
DEFPOINTS
 62
     0
100
AcDbPoint
 10
15253.50747493869
 20
-1506.186068171069
 30
0.0
  0
POINT
  5
238
330
22F
100
AcDbEntity
  8
DEFPOINTS
 62
     0
100
AcDbPoint
 10
15253.50747493869
 20
-1488.845260824366
 30
0.0
  0
ENDBLK
  5
23A
330
22F
100
AcDbEntity
  8
0
100
AcDbBlockEnd
  0
BLOCK
  5
1D2
330
1C8
100
AcDbEntity
  8
0
100
AcDbBlockBegin
  2
*D24
 70
     1
 10
0.0
 20
0.0
 30
0.0
  3
*D24
  1

  0
LINE
  5
1C9
330
1C8
100
AcDbEntity
  8
0
 62
   123
100
AcDbLine
 10
15274.40747493869
 20
-1537.686060171072
 30
0.0
 11
15293.21923606978
 21
-1537.686060171072
 31
0.0
  0
LINE
  5
1CA
330
1C8
100
AcDbEntity
  8
0
 62
   123
100
AcDbLine
 10
15274.40747493869
 20
-1597.686060171072
 30
0.0
 11
15293.21923606978
 21
-1597.686060171072
 31
0.0
  0
LINE
  5
1CB
330
1C8
100
AcDbEntity
  8
0
 62
   123
100
AcDbLine
 10
15292.61923606978
 20
-1540.186060171072
 30
0.0
 11
15292.61923606978
 21
-1595.186060171072
 31
0.0
  0
SOLID
  5
1CC
330
1C8
100
AcDbEntity
  8
0
 62
   123
100
AcDbTrace
 10
15292.20256940311
 20
-1540.186060171072
 30
0.0
 11
15293.03590273645
 21
-1540.186060171072
 31
0.0
 12
15292.61923606978
 22
-1537.686060171072
 32
0.0
 13
15292.61923606978
 23
-1537.686060171072
 33
0.0
  0
SOLID
  5
1CD
330
1C8
100
AcDbEntity
  8
0
 62
   123
100
AcDbTrace
 10
15292.20256940311
 20
-1595.186060171072
 30
0.0
 11
15293.03590273645
 21
-1595.186060171072
 31
0.0
 12
15292.61923606978
 22
-1597.686060171072
 32
0.0
 13
15292.61923606978
 23
-1597.686060171072
 33
0.0
  0
MTEXT
  5
1CE
330
1C8
100
AcDbEntity
  8
0
 62
     3
100
AcDbMText
 10
15290.11923606978
 20
-1567.686060171072
 30
0.0
 40
3.0
 41
0.0
 71
     5
 72
     1
  1
\A1;%%C60
 11
0.0000000000000001
 21
1.0
 31
0.0
1001
ACAD
1000
MTEXTBEGIN
1070
    73
1070
     1
1070
    44
1040
1.0
1070
    74
1070
     0
1000
MTEXTEND
1000
MTEXTBEGIN
1070
    73
1070
     1
1070
    44
1040
1.0
1070
    74
1070
     0
1000
MTEXTEND
  0
POINT
  5
1CF
330
1C8
100
AcDbEntity
  8
DEFPOINTS
 62
     0
100
AcDbPoint
 10
15273.40747493869
 20
-1537.686060171072
 30
0.0
  0
POINT
  5
1D0
330
1C8
100
AcDbEntity
  8
DEFPOINTS
 62
     0
100
AcDbPoint
 10
15273.40747493869
 20
-1597.686060171072
 30
0.0
  0
POINT
  5
1D1
330
1C8
100
AcDbEntity
  8
DEFPOINTS
 62
     0
100
AcDbPoint
 10
15292.61923606978
 20
-1597.686060171072
 30
0.0
  0
ENDBLK
  5
1D3
330
1C8
100
AcDbEntity
  8
0
100
AcDbBlockEnd
  0
BLOCK
  5
24D
330
241
100
AcDbEntity
  8
0
100
AcDbBlockBegin
  2
*D25
 70
     1
 10
0.0
 20
0.0
 30
0.0
  3
*D25
  1

  0
LINE
  5
242
330
241
100
AcDbEntity
  8
0
 62
   123
100
AcDbLine
 10
15162.40747493869
 20
-1545.186060171072
 30
0.0
 11
15162.40747493869
 21
-1529.254627421342
 31
0.0
  0
LINE
  5
243
330
241
100
AcDbEntity
  8
0
 62
   123
100
AcDbLine
 10
15165.40747493869
 20
-1537.186060171072
 30
0.0
 11
15165.40747493869
 21
-1529.254627421342
 31
0.0
  0
LINE
  5
244
330
241
100
AcDbEntity
  8
0
 62
   123
100
AcDbLine
 10
15159.90747493869
 20
-1529.85462742134
 30
0.0
 11
15157.40747493869
 21
-1529.85462742134
 31
0.0
  0
LINE
  5
245
330
241
100
AcDbEntity
  8
0
 62
   123
100
AcDbLine
 10
15167.90747493869
 20
-1529.85462742134
 30
0.0
 11
15170.40747493869
 21
-1529.85462742134
 31
0.0
  0
LINE
  5
246
330
241
100
AcDbEntity
  8
0
 62
   123
100
AcDbLine
 10
15162.40747493869
 20
-1529.85462742134
 30
0.0
 11
15165.40747493869
 21
-1529.85462742134
 31
0.0
  0
SOLID
  5
247
330
241
100
AcDbEntity
  8
0
 62
   123
100
AcDbTrace
 10
15159.90747493869
 20
-1529.437960754675
 30
0.0
 11
15159.90747493869
 21
-1530.271294088008
 31
0.0
 12
15162.40747493869
 22
-1529.85462742134
 32
0.0
 13
15162.40747493869
 23
-1529.85462742134
 33
0.0
  0
SOLID
  5
248
330
241
100
AcDbEntity
  8
0
 62
   123
100
AcDbTrace
 10
15167.90747493869
 20
-1529.437960754675
 30
0.0
 11
15167.90747493869
 21
-1530.271294088008
 31
0.0
 12
15165.40747493869
 22
-1529.85462742134
 32
0.0
 13
15165.40747493869
 23
-1529.85462742134
 33
0.0
  0
MTEXT
  5
249
330
241
100
AcDbEntity
  8
0
 62
     3
100
AcDbMText
 10
15163.90747493869
 20
-1527.35462742134
 30
0.0
 40
3.0
 41
0.0
 71
     5
 72
     1
  1
\A1;3
1001
ACAD
1000
MTEXTBEGIN
1070
    73
1070
     1
1070
    44
1040
1.0
1070
    74
1070
     0
1000
MTEXTEND
1000
MTEXTBEGIN
1070
    73
1070
     1
1070
    44
1040
1.0
1070
    74
1070
     0
1000
MTEXTEND
  0
POINT
  5
24A
330
241
100
AcDbEntity
  8
DEFPOINTS
 62
     0
100
AcDbPoint
 10
15162.40747493869
 20
-1546.186060171072
 30
0.0
  0
POINT
  5
24B
330
241
100
AcDbEntity
  8
DEFPOINTS
 62
     0
100
AcDbPoint
 10
15165.40747493869
 20
-1538.186060171072
 30
0.0
  0
POINT
  5
24C
330
241
100
AcDbEntity
  8
DEFPOINTS
 62
     0
100
AcDbPoint
 10
15165.40747493869
 20
-1529.85462742134
 30
0.0
  0
ENDBLK
  5
24E
330
241
100
AcDbEntity
  8
0
100
AcDbBlockEnd
  0
BLOCK
  5
E0
330
D6
100
AcDbEntity
  8
0
100
AcDbBlockBegin
  2
*D26
 70
     1
 10
0.0
 20
0.0
 30
0.0
  3
*D26
  1

  0
LINE
  5
D7
330
D6
100
AcDbEntity
  8
0
 62
   123
100
AcDbLine
 10
15133.40747493869
 20
-1553.686060171072
 30
0.0
 11
15133.40747493869
 21
-1540.05822324401
 31
0.0
  0
LINE
  5
D8
330
D6
100
AcDbEntity
  8
0
 62
   123
100
AcDbLine
 10
15145.40747493869
 20
-1552.686060171072
 30
0.0
 11
15145.40747493869
 21
-1540.05822324401
 31
0.0
  0
LINE
  5
D9
330
D6
100
AcDbEntity
  8
0
 62
   123
100
AcDbLine
 10
15135.90747493869
 20
-1540.65822324401
 30
0.0
 11
15142.90747493869
 21
-1540.65822324401
 31
0.0
  0
SOLID
  5
DA
330
D6
100
AcDbEntity
  8
0
 62
   123
100
AcDbTrace
 10
15135.90747493869
 20
-1540.241556577344
 30
0.0
 11
15135.90747493869
 21
-1541.074889910675
 31
0.0
 12
15133.40747493869
 22
-1540.65822324401
 32
0.0
 13
15133.40747493869
 23
-1540.65822324401
 33
0.0
  0
SOLID
  5
DB
330
D6
100
AcDbEntity
  8
0
 62
   123
100
AcDbTrace
 10
15142.90747493869
 20
-1540.241556577344
 30
0.0
 11
15142.90747493869
 21
-1541.074889910675
 31
0.0
 12
15145.40747493869
 22
-1540.65822324401
 32
0.0
 13
15145.40747493869
 23
-1540.65822324401
 33
0.0
  0
MTEXT
  5
DC
330
D6
100
AcDbEntity
  8
0
 62
     3
100
AcDbMText
 10
15139.40747493869
 20
-1538.15822324401
 30
0.0
 40
3.0
 41
0.0
 71
     5
 72
     1
  1
\A1;12
1001
ACAD
1000
MTEXTBEGIN
1070
    73
1070
     1
1070
    44
1040
1.0
1070
    74
1070
     0
1000
MTEXTEND
1000
MTEXTBEGIN
1070
    73
1070
     1
1070
    44
1040
1.0
1070
    74
1070
     0
1000
MTEXTEND
  0
POINT
  5
DD
330
D6
100
AcDbEntity
  8
DEFPOINTS
 62
     0
100
AcDbPoint
 10
15133.40747493869
 20
-1554.686060171072
 30
0.0
  0
POINT
  5
DE
330
D6
100
AcDbEntity
  8
DEFPOINTS
 62
     0
100
AcDbPoint
 10
15145.40747493869
 20
-1553.686060171072
 30
0.0
  0
POINT
  5
DF
330
D6
100
AcDbEntity
  8
DEFPOINTS
 62
     0
100
AcDbPoint
 10
15145.40747493869
 20
-1540.65822324401
 30
0.0
  0
ENDBLK
  5
E1
330
D6
100
AcDbEntity
  8
0
100
AcDbBlockEnd
  0
BLOCK
  5
FF
330
F5
100
AcDbEntity
  8
0
100
AcDbBlockBegin
  2
*D27
 70
     1
 10
0.0
 20
0.0
 30
0.0
  3
*D27
  1

  0
LINE
  5
F6
330
F5
100
AcDbEntity
  8
0
 62
   123
100
AcDbLine
 10
15133.40747493869
 20
-1553.686060171072
 30
0.0
 11
15133.40747493869
 21
-1517.47102221504
 31
0.0
  0
LINE
  5
F7
330
F5
100
AcDbEntity
  8
0
 62
   123
100
AcDbLine
 10
15165.40747493869
 20
-1537.186060171072
 30
0.0
 11
15165.40747493869
 21
-1517.47102221504
 31
0.0
  0
LINE
  5
F8
330
F5
100
AcDbEntity
  8
0
 62
   123
100
AcDbLine
 10
15135.90747493869
 20
-1518.071022215043
 30
0.0
 11
15162.90747493869
 21
-1518.071022215043
 31
0.0
  0
SOLID
  5
F9
330
F5
100
AcDbEntity
  8
0
 62
   123
100
AcDbTrace
 10
15135.90747493869
 20
-1517.654355548375
 30
0.0
 11
15135.90747493869
 21
-1518.487688881708
 31
0.0
 12
15133.40747493869
 22
-1518.071022215043
 32
0.0
 13
15133.40747493869
 23
-1518.071022215043
 33
0.0
  0
SOLID
  5
FA
330
F5
100
AcDbEntity
  8
0
 62
   123
100
AcDbTrace
 10
15162.90747493869
 20
-1517.654355548375
 30
0.0
 11
15162.90747493869
 21
-1518.487688881708
 31
0.0
 12
15165.40747493869
 22
-1518.071022215043
 32
0.0
 13
15165.40747493869
 23
-1518.071022215043
 33
0.0
  0
MTEXT
  5
FB
330
F5
100
AcDbEntity
  8
0
 62
     3
100
AcDbMText
 10
15149.40747493869
 20
-1515.571022215042
 30
0.0
 40
3.0
 41
0.0
 71
     5
 72
     1
  1
\A1;32
1001
ACAD
1000
MTEXTBEGIN
1070
    73
1070
     1
1070
    44
1040
1.0
1070
    74
1070
     0
1000
MTEXTEND
1000
MTEXTBEGIN
1070
    73
1070
     1
1070
    44
1040
1.0
1070
    74
1070
     0
1000
MTEXTEND
  0
POINT
  5
FC
330
F5
100
AcDbEntity
  8
DEFPOINTS
 62
     0
100
AcDbPoint
 10
15133.40747493869
 20
-1554.686060171072
 30
0.0
  0
POINT
  5
FD
330
F5
100
AcDbEntity
  8
DEFPOINTS
 62
     0
100
AcDbPoint
 10
15165.40747493869
 20
-1538.186060171072
 30
0.0
  0
POINT
  5
FE
330
F5
100
AcDbEntity
  8
DEFPOINTS
 62
     0
100
AcDbPoint
 10
15165.40747493869
 20
-1518.071022215043
 30
0.0
  0
ENDBLK
  5
100
330
F5
100
AcDbEntity
  8
0
100
AcDbBlockEnd
  0
BLOCK
  5
1F4
330
1EA
100
AcDbEntity
  8
0
100
AcDbBlockBegin
  2
*D28
 70
     1
 10
0.0
 20
0.0
 30
0.0
  3
*D28
  1

  0
LINE
  5
1EB
330
1EA
100
AcDbEntity
  8
0
 62
   123
100
AcDbLine
 10
15205.40747493869
 20
-1598.186060171074
 30
0.0
 11
15205.40747493869
 21
-1611.037155093291
 31
0.0
  0
LINE
  5
1EC
330
1EA
100
AcDbEntity
  8
0
 62
   123
100
AcDbLine
 10
15280.40747493869
 20
-1596.186060171072
 30
0.0
 11
15280.40747493869
 21
-1611.037155093291
 31
0.0
  0
LINE
  5
1ED
330
1EA
100
AcDbEntity
  8
0
 62
   123
100
AcDbLine
 10
15207.90747493869
 20
-1610.437155093292
 30
0.0
 11
15277.90747493869
 21
-1610.437155093292
 31
0.0
  0
SOLID
  5
1EE
330
1EA
100
AcDbEntity
  8
0
 62
   123
100
AcDbTrace
 10
15207.90747493869
 20
-1610.020488426625
 30
0.0
 11
15207.90747493869
 21
-1610.853821759957
 31
0.0
 12
15205.40747493869
 22
-1610.437155093292
 32
0.0
 13
15205.40747493869
 23
-1610.437155093292
 33
0.0
  0
SOLID
  5
1EF
330
1EA
100
AcDbEntity
  8
0
 62
   123
100
AcDbTrace
 10
15277.90747493869
 20
-1610.020488426625
 30
0.0
 11
15277.90747493869
 21
-1610.853821759957
 31
0.0
 12
15280.40747493869
 22
-1610.437155093292
 32
0.0
 13
15280.40747493869
 23
-1610.437155093292
 33
0.0
  0
MTEXT
  5
1F0
330
1EA
100
AcDbEntity
  8
0
 62
     3
100
AcDbMText
 10
15224.43226874909
 20
-1607.937155093291
 30
0.0
 40
3.0
 41
0.0
 71
     5
 72
     1
  1
\A1;75
1001
ACAD
1000
MTEXTBEGIN
1070
    73
1070
     1
1070
    44
1040
1.0
1070
    74
1070
     0
1000
MTEXTEND
1000
MTEXTBEGIN
1070
    73
1070
     1
1070
    44
1040
1.0
1070
    74
1070
     0
1000
MTEXTEND
  0
POINT
  5
1F1
330
1EA
100
AcDbEntity
  8
DEFPOINTS
 62
     0
100
AcDbPoint
 10
15205.40747493869
 20
-1597.186060171074
 30
0.0
  0
POINT
  5
1F2
330
1EA
100
AcDbEntity
  8
DEFPOINTS
 62
     0
100
AcDbPoint
 10
15280.40747493869
 20
-1595.186060171072
 30
0.0
  0
POINT
  5
1F3
330
1EA
100
AcDbEntity
  8
DEFPOINTS
 62
     0
100
AcDbPoint
 10
15280.40747493869
 20
-1610.437155093292
 30
0.0
  0
ENDBLK
  5
1F5
330
1EA
100
AcDbEntity
  8
0
100
AcDbBlockEnd
  0
BLOCK
  5
1E1
330
1D7
100
AcDbEntity
  8
0
100
AcDbBlockBegin
  2
*D29
 70
     1
 10
0.0
 20
0.0
 30
0.0
  3
*D29
  1

  0
LINE
  5
1D8
330
1D7
100
AcDbEntity
  8
0
 62
   123
100
AcDbLine
 10
15165.40747493869
 20
-1598.186060171072
 30
0.0
 11
15165.40747493869
 21
-1611.037155093291
 31
0.0
  0
LINE
  5
1D9
330
1D7
100
AcDbEntity
  8
0
 62
   123
100
AcDbLine
 10
15205.40747493869
 20
-1598.686060171072
 30
0.0
 11
15205.40747493869
 21
-1611.037155093291
 31
0.0
  0
LINE
  5
1DA
330
1D7
100
AcDbEntity
  8
0
 62
   123
100
AcDbLine
 10
15167.90747493869
 20
-1610.437155093292
 30
0.0
 11
15202.90747493869
 21
-1610.437155093292
 31
0.0
  0
SOLID
  5
1DB
330
1D7
100
AcDbEntity
  8
0
 62
   123
100
AcDbTrace
 10
15167.90747493869
 20
-1610.020488426625
 30
0.0
 11
15167.90747493869
 21
-1610.853821759957
 31
0.0
 12
15165.40747493869
 22
-1610.437155093292
 32
0.0
 13
15165.40747493869
 23
-1610.437155093292
 33
0.0
  0
SOLID
  5
1DC
330
1D7
100
AcDbEntity
  8
0
 62
   123
100
AcDbTrace
 10
15202.90747493869
 20
-1610.020488426625
 30
0.0
 11
15202.90747493869
 21
-1610.853821759957
 31
0.0
 12
15205.40747493869
 22
-1610.437155093292
 32
0.0
 13
15205.40747493869
 23
-1610.437155093292
 33
0.0
  0
MTEXT
  5
1DD
330
1D7
100
AcDbEntity
  8
0
 62
     3
100
AcDbMText
 10
15186.7976628498
 20
-1607.937155093291
 30
0.0
 40
3.0
 41
0.0
 71
     5
 72
     1
  1
\A1;L
1001
ACAD
1000
MTEXTBEGIN
1070
    73
1070
     1
1070
    44
1040
1.0
1070
    74
1070
     0
1000
MTEXTEND
1000
MTEXTBEGIN
1070
    73
1070
     1
1070
    44
1040
1.0
1070
    74
1070
     0
1000
MTEXTEND
  0
POINT
  5
1DE
330
1D7
100
AcDbEntity
  8
DEFPOINTS
 62
     0
100
AcDbPoint
 10
15165.40747493869
 20
-1597.186060171072
 30
0.0
  0
POINT
  5
1DF
330
1D7
100
AcDbEntity
  8
DEFPOINTS
 62
     0
100
AcDbPoint
 10
15205.40747493869
 20
-1597.686060171072
 30
0.0
  0
POINT
  5
1E0
330
1D7
100
AcDbEntity
  8
DEFPOINTS
 62
     0
100
AcDbPoint
 10
15205.40747493869
 20
-1610.437155093292
 30
0.0
  0
ENDBLK
  5
1E2
330
1D7
100
AcDbEntity
  8
0
100
AcDbBlockEnd
  0
BLOCK
  5
37C
330
372
100
AcDbEntity
  8
0
100
AcDbBlockBegin
  2
*D30
 70
     1
 10
0.0
 20
0.0
 30
0.0
  3
*D30
  1

  0
LINE
  5
373
330
372
100
AcDbEntity
  8
0
 62
   123
100
AcDbLine
 10
179.5624439756702
 20
246.3503146211386
 30
0.0
 11
179.5624439756702
 21
197.9543002395138
 31
0.0
  0
LINE
  5
374
330
372
100
AcDbEntity
  8
0
 62
   123
100
AcDbLine
 10
211.5624439756702
 20
210.8503146211398
 30
0.0
 11
211.5624439756702
 21
197.9543002395138
 31
0.0
  0
LINE
  5
375
330
372
100
AcDbEntity
  8
0
 62
   123
100
AcDbLine
 10
182.0624439756701
 20
198.5543002395138
 30
0.0
 11
209.0624439756701
 21
198.5543002395138
 31
0.0
  0
SOLID
  5
376
330
372
100
AcDbEntity
  8
0
 62
   123
100
AcDbTrace
 10
182.0624439756701
 20
198.9709669061804
 30
0.0
 11
182.0624439756701
 21
198.1376335728471
 31
0.0
 12
179.5624439756702
 22
198.5543002395138
 32
0.0
 13
179.5624439756702
 23
198.5543002395138
 33
0.0
  0
SOLID
  5
377
330
372
100
AcDbEntity
  8
0
 62
   123
100
AcDbTrace
 10
209.0624439756701
 20
198.9709669061804
 30
0.0
 11
209.0624439756701
 21
198.1376335728471
 31
0.0
 12
211.5624439756702
 22
198.5543002395138
 32
0.0
 13
211.5624439756702
 23
198.5543002395138
 33
0.0
  0
MTEXT
  5
378
330
372
100
AcDbEntity
  8
0
 62
     3
100
AcDbMText
 10
195.5624439756702
 20
201.0543002395138
 30
0.0
 40
3.0
 41
0.0
 71
     5
 72
     1
  1
\A1;32
1001
ACAD
1000
MTEXTBEGIN
1070
    73
1070
     1
1070
    44
1040
1.0
1070
    74
1070
     0
1000
MTEXTEND
1000
MTEXTBEGIN
1070
    73
1070
     1
1070
    44
1040
1.0
1070
    74
1070
     0
1000
MTEXTEND
  0
POINT
  5
379
330
372
100
AcDbEntity
  8
DEFPOINTS
 62
     0
100
AcDbPoint
 10
179.5624439756702
 20
247.3503146211387
 30
0.0
  0
POINT
  5
37A
330
372
100
AcDbEntity
  8
DEFPOINTS
 62
     0
100
AcDbPoint
 10
211.5624439756702
 20
211.8503146211399
 30
0.0
  0
POINT
  5
37B
330
372
100
AcDbEntity
  8
DEFPOINTS
 62
     0
100
AcDbPoint
 10
211.5624439756702
 20
198.5543002395138
 30
0.0
  0
ENDBLK
  5
37D
330
372
100
AcDbEntity
  8
0
100
AcDbBlockEnd
  0
BLOCK
  5
388
330
37E
100
AcDbEntity
  8
0
100
AcDbBlockBegin
  2
*D31
 70
     1
 10
0.0
 20
0.0
 30
0.0
  3
*D31
  1

  0
LINE
  5
37F
330
37E
100
AcDbEntity
  8
0
 62
   123
100
AcDbLine
 10
287.2156283750791
 20
71.18892059869562
 30
0.0
 11
306.0273895061687
 21
71.18892059869562
 31
0.0
  0
LINE
  5
380
330
37E
100
AcDbEntity
  8
0
 62
   123
100
AcDbLine
 10
287.2156283750791
 20
11.18892059869563
 30
0.0
 11
306.0273895061687
 21
11.18892059869561
 31
0.0
  0
LINE
  5
381
330
37E
100
AcDbEntity
  8
0
 62
   123
100
AcDbLine
 10
305.4273895061686
 20
68.68892059869562
 30
0.0
 11
305.4273895061686
 21
13.68892059869561
 31
0.0
  0
SOLID
  5
382
330
37E
100
AcDbEntity
  8
0
 62
   123
100
AcDbTrace
 10
305.0107228395019
 20
68.68892059869562
 30
0.0
 11
305.8440561728354
 21
68.68892059869562
 31
0.0
 12
305.4273895061686
 22
71.18892059869562
 32
0.0
 13
305.4273895061686
 23
71.18892059869562
 33
0.0
  0
SOLID
  5
383
330
37E
100
AcDbEntity
  8
0
 62
   123
100
AcDbTrace
 10
305.0107228395019
 20
13.68892059869561
 30
0.0
 11
305.8440561728354
 21
13.68892059869561
 31
0.0
 12
305.4273895061686
 22
11.18892059869561
 32
0.0
 13
305.4273895061686
 23
11.18892059869561
 33
0.0
  0
MTEXT
  5
384
330
37E
100
AcDbEntity
  8
0
 62
     3
100
AcDbMText
 10
302.9273895061686
 20
41.18892059869563
 30
0.0
 40
3.0
 41
0.0
 71
     5
 72
     1
  1
\A1;%%C60
 11
0.0000000000000001
 21
1.0
 31
0.0
1001
ACAD
1000
MTEXTBEGIN
1070
    73
1070
     1
1070
    44
1040
1.0
1070
    74
1070
     0
1000
MTEXTEND
1000
MTEXTBEGIN
1070
    73
1070
     1
1070
    44
1040
1.0
1070
    74
1070
     0
1000
MTEXTEND
  0
POINT
  5
385
330
37E
100
AcDbEntity
  8
DEFPOINTS
 62
     0
100
AcDbPoint
 10
286.2156283750791
 20
71.18892059869562
 30
0.0
  0
POINT
  5
386
330
37E
100
AcDbEntity
  8
DEFPOINTS
 62
     0
100
AcDbPoint
 10
286.2156283750791
 20
11.18892059869563
 30
0.0
  0
POINT
  5
387
330
37E
100
AcDbEntity
  8
DEFPOINTS
 62
     0
100
AcDbPoint
 10
305.4273895061686
 20
11.18892059869561
 30
0.0
  0
ENDBLK
  5
389
330
37E
100
AcDbEntity
  8
0
100
AcDbBlockEnd
  0
BLOCK
  5
393
330
38A
100
AcDbEntity
  8
0
100
AcDbBlockBegin
  2
*D32
 70
     1
 10
0.0
 20
0.0
 30
0.0
  3
*D32
  1

  0
LINE
  5
4EB
330
38A
100
AcDbEntity
  8
0
 62
   123
100
AcDbLine
 10
14.54738074277654
 20
21.42059204990869
 30
0.0
 11
12.42295853491
 21
20.10270347998956
 31
0.0
  0
LINE
  5
4EC
330
38A
100
AcDbEntity
  8
0
 62
   123
100
AcDbLine
 10
78.28004697877656
 20
60.95724914748442
 30
0.0
 11
99.46357128007072
 21
74.09848088753275
 31
0.0
  0
LINE
  5
4ED
330
38A
100
AcDbEntity
  8
0
 62
   123
100
AcDbLine
 10
16.67180295064308
 20
22.7384806198278
 30
0.0
 11
76.15562477091008
 21
59.63936057756524
 31
0.0
  0
SOLID
  5
4EE
330
38A
100
AcDbEntity
  8
0
 62
   123
100
AcDbTrace
 10
14.32773264779003
 20
21.77466241788644
 30
0.0
 11
14.76702883776306
 21
21.06652168193093
 31
0.0
 12
16.67180295064308
 22
22.7384806198278
 32
0.0
 13
16.67180295064308
 23
22.7384806198278
 33
0.0
  0
SOLID
  5
4EF
330
38A
100
AcDbEntity
  8
0
 62
   123
100
AcDbTrace
 10
78.06039888379007
 20
61.31131951546211
 30
0.0
 11
78.49969507376312
 21
60.6031787795066
 31
0.0
 12
76.15562477091008
 22
59.63936057756524
 32
0.0
 13
76.15562477091008
 23
59.63936057756524
 33
0.0
  0
MTEXT
  5
4F0
330
38A
100
AcDbEntity
  8
0
 62
     3
100
AcDbMText
 10
89.46590054658264
 20
70.83838693830109
 30
0.0
 40
3.0
 41
0.0
 71
     5
 72
     1
  1
\A1;\U+220570%%p0.5
 11
0.8497688831466168
 21
0.5271554279676453
 31
0.0
1001
ACAD
1000
MTEXTBEGIN
1070
    73
1070
     1
1070
    44
1040
1.0
1070
    74
1070
     0
1000
MTEXTEND
1000
MTEXTBEGIN
1070
    73
1070
     1
1070
    44
1040
1.0
1070
    74
1070
     0
1000
MTEXTEND
  0
POINT
  5
4F1
330
38A
100
AcDbEntity
  8
DEFPOINTS
 62
     0
100
AcDbPoint
 10
76.15562477091008
 20
59.63936057756524
 30
0.0
  0
POINT
  5
4F2
330
38A
100
AcDbEntity
  8
DEFPOINTS
 62
     0
100
AcDbPoint
 10
16.67180295064308
 20
22.7384806198278
 30
0.0
  0
ENDBLK
  5
394
330
38A
100
AcDbEntity
  8
0
100
AcDbBlockEnd
  0
BLOCK
  5
39F
330
395
100
AcDbEntity
  8
0
100
AcDbBlockBegin
  2
*D33
 70
     1
 10
0.0
 20
0.0
 30
0.0
  3
*D33
  1

  0
LINE
  5
396
330
395
100
AcDbEntity
  8
DIM
 62
   123
100
AcDbLine
 10
174.7156283750791
 20
63.18892059869563
 30
0.0
 11
102.4343250940876
 21
63.18892059869565
 31
0.0
  0
LINE
  5
397
330
395
100
AcDbEntity
  8
DIM
 62
   123
100
AcDbLine
 10
174.7156283750791
 20
39.18892059869563
 30
0.0
 11
102.4343250940876
 21
39.18892059869565
 31
0.0
  0
LINE
  5
398
330
395
100
AcDbEntity
  8
DIM
 62
   123
100
AcDbLine
 10
103.0343250940876
 20
60.68892059869565
 30
0.0
 11
103.0343250940876
 21
41.68892059869565
 31
0.0
  0
SOLID
  5
399
330
395
100
AcDbEntity
  8
DIM
 62
   123
100
AcDbTrace
 10
102.6176584274209
 20
60.68892059869565
 30
0.0
 11
103.4509917607544
 21
60.68892059869565
 31
0.0
 12
103.0343250940876
 22
63.18892059869565
 32
0.0
 13
103.0343250940876
 23
63.18892059869565
 33
0.0
  0
SOLID
  5
39A
330
395
100
AcDbEntity
  8
DIM
 62
   123
100
AcDbTrace
 10
102.6176584274209
 20
41.68892059869565
 30
0.0
 11
103.4509917607544
 21
41.68892059869565
 31
0.0
 12
103.0343250940876
 22
39.18892059869565
 32
0.0
 13
103.0343250940876
 23
39.18892059869565
 33
0.0
  0
MTEXT
  5
39B
330
395
100
AcDbEntity
  8
DIM
 62
     3
100
AcDbMText
 10
100.5343250940876
 20
51.18892059869565
 30
0.0
 40
3.0
 41
0.0
 71
     5
 72
     1
  1
\A1;%%c24
 11
0.0000000000000001
 21
1.0
 31
0.0
1001
ACAD
1000
MTEXTBEGIN
1070
    73
1070
     1
1070
    44
1040
1.0
1070
    74
1070
     0
1000
MTEXTEND
1000
MTEXTBEGIN
1070
    73
1070
     1
1070
    44
1040
1.0
1070
    74
1070
     0
1000
MTEXTEND
  0
POINT
  5
39C
330
395
100
AcDbEntity
  8
DEFPOINTS
 62
     0
100
AcDbPoint
 10
175.7156283750791
 20
63.18892059869563
 30
0.0
  0
POINT
  5
39D
330
395
100
AcDbEntity
  8
DEFPOINTS
 62
     0
100
AcDbPoint
 10
175.7156283750791
 20
39.18892059869563
 30
0.0
  0
POINT
  5
39E
330
395
100
AcDbEntity
  8
DEFPOINTS
 62
     0
100
AcDbPoint
 10
103.0343250940876
 20
39.18892059869565
 30
0.0
  0
ENDBLK
  5
3A0
330
395
100
AcDbEntity
  8
0
100
AcDbBlockEnd
  0
BLOCK
  5
3AB
330
3A1
100
AcDbEntity
  8
0
100
AcDbBlockBegin
  2
*D34
 70
     1
 10
0.0
 20
0.0
 30
0.0
  3
*D34
  1

  0
LINE
  5
3A2
330
3A1
100
AcDbEntity
  8
0
 62
   123
100
AcDbLine
 10
16.41371386077844
 20
15.18892059869767
 30
0.0
 11
16.41371386077844
 21
-5.061664119398165
 31
0.0
  0
LINE
  5
3A3
330
3A1
100
AcDbEntity
  8
0
 62
   123
100
AcDbLine
 10
76.41371386077844
 20
15.18892059869767
 30
0.0
 11
76.41371386077844
 21
-5.061664119398165
 31
0.0
  0
LINE
  5
3A4
330
3A1
100
AcDbEntity
  8
0
 62
   123
100
AcDbLine
 10
18.91371386077844
 20
-4.461664119398164
 30
0.0
 11
73.91371386077844
 21
-4.461664119398164
 31
0.0
  0
SOLID
  5
3A5
330
3A1
100
AcDbEntity
  8
0
 62
   123
100
AcDbTrace
 10
18.91371386077844
 20
-4.044997452731498
 30
0.0
 11
18.91371386077844
 21
-4.878330786064831
 31
0.0
 12
16.41371386077844
 22
-4.461664119398164
 32
0.0
 13
16.41371386077844
 23
-4.461664119398164
 33
0.0
  0
SOLID
  5
3A6
330
3A1
100
AcDbEntity
  8
0
 62
   123
100
AcDbTrace
 10
73.91371386077844
 20
-4.044997452731498
 30
0.0
 11
73.91371386077844
 21
-4.878330786064831
 31
0.0
 12
76.41371386077844
 22
-4.461664119398164
 32
0.0
 13
76.41371386077844
 23
-4.461664119398164
 33
0.0
  0
MTEXT
  5
3A7
330
3A1
100
AcDbEntity
  8
0
 62
     3
100
AcDbMText
 10
48.90030557908904
 20
-1.961664119398164
 30
0.0
 40
3.0
 41
0.0
 71
     5
 72
     1
  1
\A1;60
1001
ACAD
1000
MTEXTBEGIN
1070
    73
1070
     1
1070
    44
1040
1.0
1070
    74
1070
     0
1000
MTEXTEND
1000
MTEXTBEGIN
1070
    73
1070
     1
1070
    44
1040
1.0
1070
    74
1070
     0
1000
MTEXTEND
  0
POINT
  5
3A8
330
3A1
100
AcDbEntity
  8
DEFPOINTS
 62
     0
100
AcDbPoint
 10
16.41371386077844
 20
16.18892059869767
 30
0.0
  0
POINT
  5
3A9
330
3A1
100
AcDbEntity
  8
DEFPOINTS
 62
     0
100
AcDbPoint
 10
76.41371386077844
 20
16.18892059869767
 30
0.0
  0
POINT
  5
3AA
330
3A1
100
AcDbEntity
  8
DEFPOINTS
 62
     0
100
AcDbPoint
 10
76.41371386077844
 20
-4.461664119398164
 30
0.0
  0
ENDBLK
  5
3AC
330
3A1
100
AcDbEntity
  8
0
100
AcDbBlockEnd
  0
BLOCK
  5
3B7
330
3AD
100
AcDbEntity
  8
0
100
AcDbBlockBegin
  2
*D35
 70
     1
 10
0.0
 20
0.0
 30
0.0
  3
*D35
  1

  0
LINE
  5
3AE
330
3AD
100
AcDbEntity
  8
0
 62
   123
100
AcDbLine
 10
218.215628375079
 20
10.68892059869381
 30
0.0
 11
218.215628375079
 21
-2.162174323524231
 31
0.0
  0
LINE
  5
3AF
330
3AD
100
AcDbEntity
  8
0
 62
   123
100
AcDbLine
 10
293.2156283750791
 20
12.68892059869563
 30
0.0
 11
293.2156283750791
 21
-2.162174323524231
 31
0.0
  0
LINE
  5
3B0
330
3AD
100
AcDbEntity
  8
0
 62
   123
100
AcDbLine
 10
220.715628375079
 20
-1.562174323524231
 30
0.0
 11
290.7156283750791
 21
-1.562174323524231
 31
0.0
  0
SOLID
  5
3B1
330
3AD
100
AcDbEntity
  8
0
 62
   123
100
AcDbTrace
 10
220.715628375079
 20
-1.145507656857564
 30
0.0
 11
220.715628375079
 21
-1.978840990190898
 31
0.0
 12
218.215628375079
 22
-1.562174323524231
 32
0.0
 13
218.215628375079
 23
-1.562174323524231
 33
0.0
  0
SOLID
  5
3B2
330
3AD
100
AcDbEntity
  8
0
 62
   123
100
AcDbTrace
 10
290.7156283750791
 20
-1.145507656857564
 30
0.0
 11
290.7156283750791
 21
-1.978840990190898
 31
0.0
 12
293.2156283750791
 22
-1.562174323524231
 32
0.0
 13
293.2156283750791
 23
-1.562174323524231
 33
0.0
  0
MTEXT
  5
3B3
330
3AD
100
AcDbEntity
  8
0
 62
     3
100
AcDbMText
 10
237.2404221854794
 20
0.9378256764757679
 30
0.0
 40
3.0
 41
0.0
 71
     5
 72
     1
  1
\A1;75
1001
ACAD
1000
MTEXTBEGIN
1070
    73
1070
     1
1070
    44
1040
1.0
1070
    74
1070
     0
1000
MTEXTEND
1000
MTEXTBEGIN
1070
    73
1070
     1
1070
    44
1040
1.0
1070
    74
1070
     0
1000
MTEXTEND
  0
POINT
  5
3B4
330
3AD
100
AcDbEntity
  8
DEFPOINTS
 62
     0
100
AcDbPoint
 10
218.215628375079
 20
11.6889205986938
 30
0.0
  0
POINT
  5
3B5
330
3AD
100
AcDbEntity
  8
DEFPOINTS
 62
     0
100
AcDbPoint
 10
293.2156283750791
 20
13.68892059869563
 30
0.0
  0
POINT
  5
3B6
330
3AD
100
AcDbEntity
  8
DEFPOINTS
 62
     0
100
AcDbPoint
 10
293.2156283750791
 20
-1.562174323524231
 30
0.0
  0
ENDBLK
  5
3B8
330
3AD
100
AcDbEntity
  8
0
100
AcDbBlockEnd
  0
BLOCK
  5
3C3
330
3B9
100
AcDbEntity
  8
0
100
AcDbBlockBegin
  2
*D36
 70
     1
 10
0.0
 20
0.0
 30
0.0
  3
*D36
  1

  0
LINE
  5
3BA
330
3B9
100
AcDbEntity
  8
0
 62
   123
100
AcDbLine
 10
178.215628375079
 20
10.68892059869563
 30
0.0
 11
178.215628375079
 21
-2.162174323524231
 31
0.0
  0
LINE
  5
3BB
330
3B9
100
AcDbEntity
  8
0
 62
   123
100
AcDbLine
 10
218.215628375079
 20
10.18892059869563
 30
0.0
 11
218.215628375079
 21
-2.162174323524231
 31
0.0
  0
LINE
  5
3BC
330
3B9
100
AcDbEntity
  8
0
 62
   123
100
AcDbLine
 10
180.715628375079
 20
-1.562174323524231
 30
0.0
 11
215.715628375079
 21
-1.562174323524231
 31
0.0
  0
SOLID
  5
3BD
330
3B9
100
AcDbEntity
  8
0
 62
   123
100
AcDbTrace
 10
180.715628375079
 20
-1.145507656857564
 30
0.0
 11
180.715628375079
 21
-1.978840990190898
 31
0.0
 12
178.215628375079
 22
-1.562174323524231
 32
0.0
 13
178.215628375079
 23
-1.562174323524231
 33
0.0
  0
SOLID
  5
3BE
330
3B9
100
AcDbEntity
  8
0
 62
   123
100
AcDbTrace
 10
215.715628375079
 20
-1.145507656857564
 30
0.0
 11
215.715628375079
 21
-1.978840990190898
 31
0.0
 12
218.215628375079
 22
-1.562174323524231
 32
0.0
 13
218.215628375079
 23
-1.562174323524231
 33
0.0
  0
MTEXT
  5
3BF
330
3B9
100
AcDbEntity
  8
0
 62
     3
100
AcDbMText
 10
199.6058162861882
 20
0.9378256764757679
 30
0.0
 40
3.0
 41
0.0
 71
     5
 72
     1
  1
\A1;L
1001
ACAD
1000
MTEXTBEGIN
1070
    73
1070
     1
1070
    44
1040
1.0
1070
    74
1070
     0
1000
MTEXTEND
1000
MTEXTBEGIN
1070
    73
1070
     1
1070
    44
1040
1.0
1070
    74
1070
     0
1000
MTEXTEND
  0
POINT
  5
3C0
330
3B9
100
AcDbEntity
  8
DEFPOINTS
 62
     0
100
AcDbPoint
 10
178.215628375079
 20
11.68892059869563
 30
0.0
  0
POINT
  5
3C1
330
3B9
100
AcDbEntity
  8
DEFPOINTS
 62
     0
100
AcDbPoint
 10
218.215628375079
 20
11.18892059869563
 30
0.0
  0
POINT
  5
3C2
330
3B9
100
AcDbEntity
  8
DEFPOINTS
 62
     0
100
AcDbPoint
 10
218.215628375079
 20
-1.562174323524231
 30
0.0
  0
ENDBLK
  5
3C4
330
3B9
100
AcDbEntity
  8
0
100
AcDbBlockEnd
  0
BLOCK
  5
3CF
330
3C5
100
AcDbEntity
  8
0
100
AcDbBlockBegin
  2
*D37
 70
     1
 10
0.0
 20
0.0
 30
0.0
  3
*D37
  1

  0
LINE
  5
3C6
330
3C5
100
AcDbEntity
  8
0
 62
   123
100
AcDbLine
 10
146.215628375079
 20
55.18892059869563
 30
0.0
 11
146.215628375079
 21
91.40395855472466
 31
0.0
  0
LINE
  5
3C7
330
3C5
100
AcDbEntity
  8
0
 62
   123
100
AcDbLine
 10
178.215628375079
 20
71.68892059869562
 30
0.0
 11
178.215628375079
 21
91.40395855472466
 31
0.0
  0
LINE
  5
3C8
330
3C5
100
AcDbEntity
  8
0
 62
   123
100
AcDbLine
 10
148.7156283750791
 20
90.80395855472463
 30
0.0
 11
175.7156283750791
 21
90.80395855472463
 31
0.0
  0
SOLID
  5
3C9
330
3C5
100
AcDbEntity
  8
0
 62
   123
100
AcDbTrace
 10
148.7156283750791
 20
91.22062522139131
 30
0.0
 11
148.7156283750791
 21
90.38729188805801
 31
0.0
 12
146.215628375079
 22
90.80395855472463
 32
0.0
 13
146.215628375079
 23
90.80395855472463
 33
0.0
  0
SOLID
  5
3CA
330
3C5
100
AcDbEntity
  8
0
 62
   123
100
AcDbTrace
 10
175.7156283750791
 20
91.22062522139131
 30
0.0
 11
175.7156283750791
 21
90.38729188805801
 31
0.0
 12
178.215628375079
 22
90.80395855472463
 32
0.0
 13
178.215628375079
 23
90.80395855472463
 33
0.0
  0
MTEXT
  5
3CB
330
3C5
100
AcDbEntity
  8
0
 62
     3
100
AcDbMText
 10
162.2156283750791
 20
93.30395855472463
 30
0.0
 40
3.0
 41
0.0
 71
     5
 72
     1
  1
\A1;32
1001
ACAD
1000
MTEXTBEGIN
1070
    73
1070
     1
1070
    44
1040
1.0
1070
    74
1070
     0
1000
MTEXTEND
1000
MTEXTBEGIN
1070
    73
1070
     1
1070
    44
1040
1.0
1070
    74
1070
     0
1000
MTEXTEND
  0
POINT
  5
3CC
330
3C5
100
AcDbEntity
  8
DEFPOINTS
 62
     0
100
AcDbPoint
 10
146.215628375079
 20
54.18892059869563
 30
0.0
  0
POINT
  5
3CD
330
3C5
100
AcDbEntity
  8
DEFPOINTS
 62
     0
100
AcDbPoint
 10
178.215628375079
 20
70.68892059869561
 30
0.0
  0
POINT
  5
3CE
330
3C5
100
AcDbEntity
  8
DEFPOINTS
 62
     0
100
AcDbPoint
 10
178.215628375079
 20
90.80395855472463
 30
0.0
  0
ENDBLK
  5
3D0
330
3C5
100
AcDbEntity
  8
0
100
AcDbBlockEnd
  0
BLOCK
  5
3DB
330
3D1
100
AcDbEntity
  8
0
100
AcDbBlockBegin
  2
*D38
 70
     1
 10
0.0
 20
0.0
 30
0.0
  3
*D38
  1

  0
LINE
  5
3D2
330
3D1
100
AcDbEntity
  8
DIM
 62
   123
100
AcDbLine
 10
141.3174895738466
 20
51.18892059869563
 30
0.0
 11
114.3144467979386
 21
51.18892059869563
 31
0.0
  0
LINE
  5
3D3
330
3D1
100
AcDbEntity
  8
DIM
 62
   123
100
AcDbLine
 10
140.523054781579
 20
41.18892059869563
 30
0.0
 11
114.3144467979386
 21
41.18892059869563
 31
0.0
  0
LINE
  5
3D4
330
3D1
100
AcDbEntity
  8
DIM
 62
   123
100
AcDbLine
 10
114.9144467979386
 20
48.68892059869563
 30
0.0
 11
114.9144467979386
 21
43.68892059869563
 31
0.0
  0
SOLID
  5
3D5
330
3D1
100
AcDbEntity
  8
DIM
 62
   123
100
AcDbTrace
 10
114.4977801312719
 20
48.68892059869563
 30
0.0
 11
115.3311134646052
 21
48.68892059869563
 31
0.0
 12
114.9144467979386
 22
51.18892059869563
 32
0.0
 13
114.9144467979386
 23
51.18892059869563
 33
0.0
  0
SOLID
  5
3D6
330
3D1
100
AcDbEntity
  8
DIM
 62
   123
100
AcDbTrace
 10
114.4977801312719
 20
43.68892059869563
 30
0.0
 11
115.3311134646052
 21
43.68892059869563
 31
0.0
 12
114.9144467979386
 22
41.18892059869563
 32
0.0
 13
114.9144467979386
 23
41.18892059869563
 33
0.0
  0
MTEXT
  5
3D7
330
3D1
100
AcDbEntity
  8
DIM
 62
     3
100
AcDbMText
 10
112.4144467979385
 20
46.18892059869563
 30
0.0
 40
3.0
 41
0.0
 71
     5
 72
     1
  1
\A1;10
 11
0.0000000000000001
 21
1.0
 31
0.0
1001
ACAD
1000
MTEXTBEGIN
1070
    73
1070
     1
1070
    44
1040
1.0
1070
    74
1070
     0
1000
MTEXTEND
1000
MTEXTBEGIN
1070
    73
1070
     1
1070
    44
1040
1.0
1070
    74
1070
     0
1000
MTEXTEND
  0
POINT
  5
3D8
330
3D1
100
AcDbEntity
  8
DEFPOINTS
 62
     0
100
AcDbPoint
 10
142.3174895738465
 20
51.18892059869563
 30
0.0
  0
POINT
  5
3D9
330
3D1
100
AcDbEntity
  8
DEFPOINTS
 62
     0
100
AcDbPoint
 10
141.523054781579
 20
41.18892059869563
 30
0.0
  0
POINT
  5
3DA
330
3D1
100
AcDbEntity
  8
DEFPOINTS
 62
     0
100
AcDbPoint
 10
114.9144467979386
 20
41.18892059869563
 30
0.0
  0
ENDBLK
  5
3DC
330
3D1
100
AcDbEntity
  8
0
100
AcDbBlockEnd
  0
BLOCK
  5
3E9
330
3DD
100
AcDbEntity
  8
0
100
AcDbBlockBegin
  2
*D39
 70
     1
 10
0.0
 20
0.0
 30
0.0
  3
*D39
  1

  0
LINE
  5
3DE
330
3DD
100
AcDbEntity
  8
0
 62
   123
100
AcDbLine
 10
145.215628375079
 20
54.18892059869563
 30
0.0
 11
132.7428258654967
 21
54.18892059869564
 31
0.0
  0
LINE
  5
3DF
330
3DD
100
AcDbEntity
  8
0
 62
   123
100
AcDbLine
 10
145.215628375079
 20
47.18892059869562
 30
0.0
 11
132.7428258654967
 21
47.18892059869562
 31
0.0
  0
LINE
  5
3E0
330
3DD
100
AcDbEntity
  8
0
 62
   123
100
AcDbLine
 10
133.3428258654967
 20
44.68892059869562
 30
0.0
 11
133.3428258654967
 21
42.18892059869562
 31
0.0
  0
LINE
  5
3E1
330
3DD
100
AcDbEntity
  8
0
 62
   123
100
AcDbLine
 10
133.3428258654967
 20
56.68892059869564
 30
0.0
 11
133.3428258654967
 21
68.84409734561676
 31
0.0
  0
LINE
  5
3E2
330
3DD
100
AcDbEntity
  8
0
 62
   123
100
AcDbLine
 10
133.3428258654967
 20
47.18892059869562
 30
0.0
 11
133.3428258654967
 21
54.18892059869564
 31
0.0
  0
SOLID
  5
3E3
330
3DD
100
AcDbEntity
  8
0
 62
   123
100
AcDbTrace
 10
132.92615919883
 20
44.68892059869562
 30
0.0
 11
133.7594925321633
 21
44.68892059869562
 31
0.0
 12
133.3428258654967
 22
47.18892059869562
 32
0.0
 13
133.3428258654967
 23
47.18892059869562
 33
0.0
  0
SOLID
  5
3E4
330
3DD
100
AcDbEntity
  8
0
 62
   123
100
AcDbTrace
 10
132.92615919883
 20
56.68892059869564
 30
0.0
 11
133.7594925321633
 21
56.68892059869564
 31
0.0
 12
133.3428258654967
 22
54.18892059869564
 32
0.0
 13
133.3428258654967
 23
54.18892059869564
 33
0.0
  0
MTEXT
  5
3E5
330
3DD
100
AcDbEntity
  8
0
 62
     3
100
AcDbMText
 10
130.8428258654967
 20
66.84409734561677
 30
0.0
 40
3.0
 41
0.0
 71
     5
 72
     1
  1
\A1;7
 11
0.0000000000000001
 21
1.0
 31
0.0
1001
ACAD
1000
MTEXTBEGIN
1070
    73
1070
     1
1070
    44
1040
1.0
1070
    74
1070
     0
1000
MTEXTEND
1000
MTEXTBEGIN
1070
    73
1070
     1
1070
    44
1040
1.0
1070
    74
1070
     0
1000
MTEXTEND
  0
POINT
  5
3E6
330
3DD
100
AcDbEntity
  8
DEFPOINTS
 62
     0
100
AcDbPoint
 10
146.215628375079
 20
54.18892059869563
 30
0.0
  0
POINT
  5
3E7
330
3DD
100
AcDbEntity
  8
DEFPOINTS
 62
     0
100
AcDbPoint
 10
146.215628375079
 20
47.18892059869562
 30
0.0
  0
POINT
  5
3E8
330
3DD
100
AcDbEntity
  8
DEFPOINTS
 62
     0
100
AcDbPoint
 10
133.3428258654967
 20
47.18892059869562
 30
0.0
  0
ENDBLK
  5
3EA
330
3DD
100
AcDbEntity
  8
0
100
AcDbBlockEnd
  0
BLOCK
  5
3F5
330
3EB
100
AcDbEntity
  8
0
100
AcDbBlockBegin
  2
*D40
 70
     1
 10
0.0
 20
0.0
 30
0.0
  3
*D40
  1

  0
LINE
  5
3EC
330
3EB
100
AcDbEntity
  8
0
 62
   123
100
AcDbLine
 10
25.41371386077844
 20
103.6889125986985
 30
0.0
 11
25.41371386077844
 21
115.1118568156566
 31
0.0
  0
LINE
  5
3ED
330
3EB
100
AcDbEntity
  8
0
 62
   123
100
AcDbLine
 10
67.41371386077844
 20
103.6889125986985
 30
0.0
 11
67.41371386077844
 21
115.1118568156566
 31
0.0
  0
LINE
  5
3EE
330
3EB
100
AcDbEntity
  8
0
 62
   123
100
AcDbLine
 10
27.91371386077844
 20
114.5118568156566
 30
0.0
 11
64.91371386077844
 21
114.5118568156566
 31
0.0
  0
SOLID
  5
3EF
330
3EB
100
AcDbEntity
  8
0
 62
   123
100
AcDbTrace
 10
27.91371386077844
 20
114.9285234823234
 30
0.0
 11
27.91371386077844
 21
114.0951901489899
 31
0.0
 12
25.41371386077844
 22
114.5118568156566
 32
0.0
 13
25.41371386077844
 23
114.5118568156566
 33
0.0
  0
SOLID
  5
3F0
330
3EB
100
AcDbEntity
  8
0
 62
   123
100
AcDbTrace
 10
64.91371386077844
 20
114.9285234823234
 30
0.0
 11
64.91371386077844
 21
114.0951901489899
 31
0.0
 12
67.41371386077844
 22
114.5118568156566
 32
0.0
 13
67.41371386077844
 23
114.5118568156566
 33
0.0
  0
MTEXT
  5
3F1
330
3EB
100
AcDbEntity
  8
0
 62
     3
100
AcDbMText
 10
46.41371386077843
 20
117.0118568156567
 30
0.0
 40
3.0
 41
0.0
 71
     5
 72
     1
  1
\A1;42
1001
ACAD
1000
MTEXTBEGIN
1070
    73
1070
     1
1070
    44
1040
1.0
1070
    74
1070
     0
1000
MTEXTEND
1000
MTEXTBEGIN
1070
    73
1070
     1
1070
    44
1040
1.0
1070
    74
1070
     0
1000
MTEXTEND
  0
POINT
  5
3F2
330
3EB
100
AcDbEntity
  8
DEFPOINTS
 62
     0
100
AcDbPoint
 10
25.41371386077844
 20
102.6889125986985
 30
0.0
  0
POINT
  5
3F3
330
3EB
100
AcDbEntity
  8
DEFPOINTS
 62
     0
100
AcDbPoint
 10
67.41371386077844
 20
102.6889125986985
 30
0.0
  0
POINT
  5
3F4
330
3EB
100
AcDbEntity
  8
DEFPOINTS
 62
     0
100
AcDbPoint
 10
67.41371386077844
 20
114.5118568156566
 30
0.0
  0
ENDBLK
  5
3F6
330
3EB
100
AcDbEntity
  8
0
100
AcDbBlockEnd
  0
BLOCK
  5
401
330
3F7
100
AcDbEntity
  8
0
100
AcDbBlockBegin
  2
*D41
 70
     1
 10
0.0
 20
0.0
 30
0.0
  3
*D41
  1

  0
LINE
  5
3F8
330
3F7
100
AcDbEntity
  8
0
 62
   123
100
AcDbLine
 10
54.46088080626942
 20
215.3503146211384
 30
0.0
 11
54.46088080626942
 21
197.7219937007544
 31
0.0
  0
LINE
  5
3F9
330
3F7
100
AcDbEntity
  8
0
 62
   123
100
AcDbLine
 10
114.4608808062693
 20
215.3503146211384
 30
0.0
 11
114.4608808062693
 21
197.7219937007544
 31
0.0
  0
LINE
  5
3FA
330
3F7
100
AcDbEntity
  8
0
 62
   123
100
AcDbLine
 10
56.96088080626942
 20
198.3219937007545
 30
0.0
 11
111.9608808062694
 21
198.3219937007545
 31
0.0
  0
SOLID
  5
3FB
330
3F7
100
AcDbEntity
  8
0
 62
   123
100
AcDbTrace
 10
56.96088080626942
 20
198.7386603674211
 30
0.0
 11
56.96088080626942
 21
197.9053270340878
 31
0.0
 12
54.46088080626942
 22
198.3219937007545
 32
0.0
 13
54.46088080626942
 23
198.3219937007545
 33
0.0
  0
SOLID
  5
3FC
330
3F7
100
AcDbEntity
  8
0
 62
   123
100
AcDbTrace
 10
111.9608808062694
 20
198.7386603674211
 30
0.0
 11
111.9608808062694
 21
197.9053270340878
 31
0.0
 12
114.4608808062693
 22
198.3219937007545
 32
0.0
 13
114.4608808062693
 23
198.3219937007545
 33
0.0
  0
MTEXT
  5
3FD
330
3F7
100
AcDbEntity
  8
0
 62
     3
100
AcDbMText
 10
86.5056272351194
 20
200.8219937007545
 30
0.0
 40
3.0
 41
0.0
 71
     5
 72
     1
  1
\A1;60
1001
ACAD
1000
MTEXTBEGIN
1070
    73
1070
     1
1070
    44
1040
1.0
1070
    74
1070
     0
1000
MTEXTEND
1000
MTEXTBEGIN
1070
    73
1070
     1
1070
    44
1040
1.0
1070
    74
1070
     0
1000
MTEXTEND
  0
POINT
  5
3FE
330
3F7
100
AcDbEntity
  8
DEFPOINTS
 62
     0
100
AcDbPoint
 10
54.46088080626942
 20
216.3503146211385
 30
0.0
  0
POINT
  5
3FF
330
3F7
100
AcDbEntity
  8
DEFPOINTS
 62
     0
100
AcDbPoint
 10
114.4608808062693
 20
216.3503146211385
 30
0.0
  0
POINT
  5
400
330
3F7
100
AcDbEntity
  8
DEFPOINTS
 62
     0
100
AcDbPoint
 10
114.4608808062693
 20
198.3219937007545
 30
0.0
  0
ENDBLK
  5
402
330
3F7
100
AcDbEntity
  8
0
100
AcDbBlockEnd
  0
BLOCK
  5
40F
330
403
100
AcDbEntity
  8
0
100
AcDbBlockBegin
  2
*D42
 70
     1
 10
0.0
 20
0.0
 30
0.0
  3
*D42
  1

  0
LINE
  5
404
330
403
100
AcDbEntity
  8
DIM
 62
   123
100
AcDbLine
 10
145.215628375079
 20
47.18892059869562
 30
0.0
 11
123.2245326239465
 21
47.18892059869562
 31
0.0
  0
LINE
  5
405
330
403
100
AcDbEntity
  8
DIM
 62
   123
100
AcDbLine
 10
157.215628375079
 20
55.18892059869563
 30
0.0
 11
123.2245326239465
 21
55.18892059869564
 31
0.0
  0
LINE
  5
406
330
403
100
AcDbEntity
  8
DIM
 62
   123
100
AcDbLine
 10
123.8245326239465
 20
44.68892059869562
 30
0.0
 11
123.8245326239465
 21
42.18892059869562
 31
0.0
  0
LINE
  5
407
330
403
100
AcDbEntity
  8
DIM
 62
   123
100
AcDbLine
 10
123.8245326239465
 20
57.68892059869564
 30
0.0
 11
123.8245326239465
 21
94.82215486067696
 31
0.0
  0
LINE
  5
408
330
403
100
AcDbEntity
  8
DIM
 62
   123
100
AcDbLine
 10
123.8245326239465
 20
47.18892059869562
 30
0.0
 11
123.8245326239465
 21
55.18892059869564
 31
0.0
  0
SOLID
  5
409
330
403
100
AcDbEntity
  8
DIM
 62
   123
100
AcDbTrace
 10
123.4078659572799
 20
44.68892059869562
 30
0.0
 11
124.2411992906133
 21
44.68892059869562
 31
0.0
 12
123.8245326239465
 22
47.18892059869562
 32
0.0
 13
123.8245326239465
 23
47.18892059869562
 33
0.0
  0
SOLID
  5
40A
330
403
100
AcDbEntity
  8
DIM
 62
   123
100
AcDbTrace
 10
123.4078659572799
 20
57.68892059869564
 30
0.0
 11
124.2411992906133
 21
57.68892059869564
 31
0.0
 12
123.8245326239465
 22
55.18892059869564
 32
0.0
 13
123.8245326239465
 23
55.18892059869564
 33
0.0
  0
MTEXT
  5
40B
330
403
100
AcDbEntity
  8
DIM
 62
     3
100
AcDbMText
 10
119.8743826239465
 20
81.1494405749627
 30
0.0
 40
3.0
 41
0.0
 71
     5
 72
     1
  1
\A1;\A1;{\f??|b0|i0|c0|p49;%%C8\H0.7x;\S+0^ -0.015;\H1.429x;(h7)}
 11
0.0000000000000001
 21
1.0
 31
0.0
1001
ACAD
1000
MTEXTBEGIN
1070
    73
1070
     1
1070
    44
1040
1.0
1070
    74
1070
     0
1000
MTEXTEND
1000
MTEXTBEGIN
1070
    73
1070
     1
1070
    44
1040
1.0
1070
    74
1070
     0
1000
MTEXTEND
  0
POINT
  5
40C
330
403
100
AcDbEntity
  8
DEFPOINTS
 62
     0
100
AcDbPoint
 10
146.215628375079
 20
47.18892059869562
 30
0.0
  0
POINT
  5
40D
330
403
100
AcDbEntity
  8
DEFPOINTS
 62
     0
100
AcDbPoint
 10
158.2156283750791
 20
55.18892059869563
 30
0.0
  0
POINT
  5
40E
330
403
100
AcDbEntity
  8
DEFPOINTS
 62
     0
100
AcDbPoint
 10
123.8245326239465
 20
55.18892059869564
 30
0.0
  0
ENDBLK
  5
410
330
403
100
AcDbEntity
  8
0
100
AcDbBlockEnd
  0
BLOCK
  5
41B
330
411
100
AcDbEntity
  8
0
100
AcDbBlockBegin
  2
*D43
 70
     1
 10
0.0
 20
0.0
 30
0.0
  3
*D43
  1

  0
LINE
  5
412
330
411
100
AcDbEntity
  8
0
 62
   123
100
AcDbLine
 10
146.215628375079
 20
55.18892059869563
 30
0.0
 11
146.215628375079
 21
68.81675752575765
 31
0.0
  0
LINE
  5
413
330
411
100
AcDbEntity
  8
0
 62
   123
100
AcDbLine
 10
158.2156283750791
 20
56.18892059869563
 30
0.0
 11
158.2156283750791
 21
68.81675752575765
 31
0.0
  0
LINE
  5
414
330
411
100
AcDbEntity
  8
0
 62
   123
100
AcDbLine
 10
148.7156283750791
 20
68.21675752575766
 30
0.0
 11
155.715628375079
 21
68.21675752575766
 31
0.0
  0
SOLID
  5
415
330
411
100
AcDbEntity
  8
0
 62
   123
100
AcDbTrace
 10
148.7156283750791
 20
68.63342419242433
 30
0.0
 11
148.7156283750791
 21
67.800090859091
 31
0.0
 12
146.215628375079
 22
68.21675752575766
 32
0.0
 13
146.215628375079
 23
68.21675752575766
 33
0.0
  0
SOLID
  5
416
330
411
100
AcDbEntity
  8
0
 62
   123
100
AcDbTrace
 10
155.715628375079
 20
68.63342419242433
 30
0.0
 11
155.715628375079
 21
67.800090859091
 31
0.0
 12
158.2156283750791
 22
68.21675752575766
 32
0.0
 13
158.2156283750791
 23
68.21675752575766
 33
0.0
  0
MTEXT
  5
417
330
411
100
AcDbEntity
  8
0
 62
     3
100
AcDbMText
 10
152.215628375079
 20
70.71675752575766
 30
0.0
 40
3.0
 41
0.0
 71
     5
 72
     1
  1
\A1;12
1001
ACAD
1000
MTEXTBEGIN
1070
    73
1070
     1
1070
    44
1040
1.0
1070
    74
1070
     0
1000
MTEXTEND
1000
MTEXTBEGIN
1070
    73
1070
     1
1070
    44
1040
1.0
1070
    74
1070
     0
1000
MTEXTEND
  0
POINT
  5
418
330
411
100
AcDbEntity
  8
DEFPOINTS
 62
     0
100
AcDbPoint
 10
146.215628375079
 20
54.18892059869563
 30
0.0
  0
POINT
  5
419
330
411
100
AcDbEntity
  8
DEFPOINTS
 62
     0
100
AcDbPoint
 10
158.2156283750791
 20
55.18892059869563
 30
0.0
  0
POINT
  5
41A
330
411
100
AcDbEntity
  8
DEFPOINTS
 62
     0
100
AcDbPoint
 10
158.2156283750791
 20
68.21675752575766
 30
0.0
  0
ENDBLK
  5
41C
330
411
100
AcDbEntity
  8
0
100
AcDbBlockEnd
  0
BLOCK
  5
429
330
41D
100
AcDbEntity
  8
0
100
AcDbBlockBegin
  2
*D44
 70
     1
 10
0.0
 20
0.0
 30
0.0
  3
*D44
  1

  0
LINE
  5
41E
330
41D
100
AcDbEntity
  8
0
 62
   123
100
AcDbLine
 10
175.215628375079
 20
63.68892059869563
 30
0.0
 11
175.215628375079
 21
79.62035334842593
 31
0.0
  0
LINE
  5
41F
330
41D
100
AcDbEntity
  8
0
 62
   123
100
AcDbLine
 10
178.215628375079
 20
71.68892059869562
 30
0.0
 11
178.215628375079
 21
79.62035334842593
 31
0.0
  0
LINE
  5
420
330
41D
100
AcDbEntity
  8
0
 62
   123
100
AcDbLine
 10
172.715628375079
 20
79.02035334842594
 30
0.0
 11
170.215628375079
 21
79.02035334842594
 31
0.0
  0
LINE
  5
421
330
41D
100
AcDbEntity
  8
0
 62
   123
100
AcDbLine
 10
180.715628375079
 20
79.02035334842594
 30
0.0
 11
183.2156283750791
 21
79.02035334842594
 31
0.0
  0
LINE
  5
422
330
41D
100
AcDbEntity
  8
0
 62
   123
100
AcDbLine
 10
175.215628375079
 20
79.02035334842594
 30
0.0
 11
178.215628375079
 21
79.02035334842594
 31
0.0
  0
SOLID
  5
423
330
41D
100
AcDbEntity
  8
0
 62
   123
100
AcDbTrace
 10
172.715628375079
 20
79.43702001509262
 30
0.0
 11
172.715628375079
 21
78.60368668175926
 31
0.0
 12
175.215628375079
 22
79.02035334842594
 32
0.0
 13
175.215628375079
 23
79.02035334842594
 33
0.0
  0
SOLID
  5
424
330
41D
100
AcDbEntity
  8
0
 62
   123
100
AcDbTrace
 10
180.715628375079
 20
79.43702001509262
 30
0.0
 11
180.715628375079
 21
78.60368668175926
 31
0.0
 12
178.215628375079
 22
79.02035334842594
 32
0.0
 13
178.215628375079
 23
79.02035334842594
 33
0.0
  0
MTEXT
  5
425
330
41D
100
AcDbEntity
  8
0
 62
     3
100
AcDbMText
 10
176.715628375079
 20
81.52035334842594
 30
0.0
 40
3.0
 41
0.0
 71
     5
 72
     1
  1
\A1;3
1001
ACAD
1000
MTEXTBEGIN
1070
    73
1070
     1
1070
    44
1040
1.0
1070
    74
1070
     0
1000
MTEXTEND
1000
MTEXTBEGIN
1070
    73
1070
     1
1070
    44
1040
1.0
1070
    74
1070
     0
1000
MTEXTEND
  0
POINT
  5
426
330
41D
100
AcDbEntity
  8
DEFPOINTS
 62
     0
100
AcDbPoint
 10
175.215628375079
 20
62.68892059869563
 30
0.0
  0
POINT
  5
427
330
41D
100
AcDbEntity
  8
DEFPOINTS
 62
     0
100
AcDbPoint
 10
178.215628375079
 20
70.68892059869561
 30
0.0
  0
POINT
  5
428
330
41D
100
AcDbEntity
  8
DEFPOINTS
 62
     0
100
AcDbPoint
 10
178.215628375079
 20
79.02035334842594
 30
0.0
  0
ENDBLK
  5
42A
330
41D
100
AcDbEntity
  8
0
100
AcDbBlockEnd
  0
BLOCK
  5
435
330
42B
100
AcDbEntity
  8
0
100
AcDbBlockBegin
  2
*D45
 70
     1
 10
0.0
 20
0.0
 30
0.0
  3
*D45
  1

  0
LINE
  5
42C
330
42B
100
AcDbEntity
  8
0
 62
   123
100
AcDbLine
 10
224.3156283750794
 20
103.6889125986985
 30
0.0
 11
224.3156283750794
 21
120.6297199454015
 31
0.0
  0
LINE
  5
42D
330
42B
100
AcDbEntity
  8
0
 62
   123
100
AcDbLine
 10
266.3156283750794
 20
103.6889125986985
 30
0.0
 11
266.3156283750794
 21
120.6297199454015
 31
0.0
  0
LINE
  5
42E
330
42B
100
AcDbEntity
  8
0
 62
   123
100
AcDbLine
 10
226.8156283750794
 20
120.0297199454015
 30
0.0
 11
263.8156283750794
 21
120.0297199454015
 31
0.0
  0
SOLID
  5
42F
330
42B
100
AcDbEntity
  8
0
 62
   123
100
AcDbTrace
 10
226.8156283750794
 20
120.4463866120683
 30
0.0
 11
226.8156283750794
 21
119.6130532787349
 31
0.0
 12
224.3156283750794
 22
120.0297199454015
 32
0.0
 13
224.3156283750794
 23
120.0297199454015
 33
0.0
  0
SOLID
  5
430
330
42B
100
AcDbEntity
  8
0
 62
   123
100
AcDbTrace
 10
263.8156283750794
 20
120.4463866120683
 30
0.0
 11
263.8156283750794
 21
119.6130532787349
 31
0.0
 12
266.3156283750794
 22
120.0297199454015
 32
0.0
 13
266.3156283750794
 23
120.0297199454015
 33
0.0
  0
MTEXT
  5
431
330
42B
100
AcDbEntity
  8
0
 62
     3
100
AcDbMText
 10
244.1966046152373
 20
122.5297199454016
 30
0.0
 40
3.0
 41
0.0
 71
     5
 72
     1
  1
\A1;42
1001
ACAD
1000
MTEXTBEGIN
1070
    73
1070
     1
1070
    44
1040
1.0
1070
    74
1070
     0
1000
MTEXTEND
1000
MTEXTBEGIN
1070
    73
1070
     1
1070
    44
1040
1.0
1070
    74
1070
     0
1000
MTEXTEND
  0
POINT
  5
432
330
42B
100
AcDbEntity
  8
DEFPOINTS
 62
     0
100
AcDbPoint
 10
224.3156283750794
 20
102.6889125986985
 30
0.0
  0
POINT
  5
433
330
42B
100
AcDbEntity
  8
DEFPOINTS
 62
     0
100
AcDbPoint
 10
266.3156283750794
 20
102.6889125986985
 30
0.0
  0
POINT
  5
434
330
42B
100
AcDbEntity
  8
DEFPOINTS
 62
     0
100
AcDbPoint
 10
266.3156283750794
 20
120.0297199454015
 30
0.0
  0
ENDBLK
  5
436
330
42B
100
AcDbEntity
  8
0
100
AcDbBlockEnd
  0
BLOCK
  5
441
330
437
100
AcDbEntity
  8
0
100
AcDbBlockBegin
  2
*D46
 70
     1
 10
0.0
 20
0.0
 30
0.0
  3
*D46
  1

  0
LINE
  5
438
330
437
100
AcDbEntity
  8
0
 62
   123
100
AcDbLine
 10
251.5624439756702
 20
210.8503146211398
 30
0.0
 11
251.5624439756702
 21
197.9543002395138
 31
0.0
  0
LINE
  5
439
330
437
100
AcDbEntity
  8
0
 62
   123
100
AcDbLine
 10
211.5624439756702
 20
210.8503146211398
 30
0.0
 11
211.5624439756702
 21
197.9543002395138
 31
0.0
  0
LINE
  5
43A
330
437
100
AcDbEntity
  8
0
 62
   123
100
AcDbLine
 10
249.0624439756702
 20
198.5543002395138
 30
0.0
 11
214.0624439756702
 21
198.5543002395138
 31
0.0
  0
SOLID
  5
43B
330
437
100
AcDbEntity
  8
0
 62
   123
100
AcDbTrace
 10
249.0624439756702
 20
198.9709669061804
 30
0.0
 11
249.0624439756702
 21
198.1376335728471
 31
0.0
 12
251.5624439756702
 22
198.5543002395138
 32
0.0
 13
251.5624439756702
 23
198.5543002395138
 33
0.0
  0
SOLID
  5
43C
330
437
100
AcDbEntity
  8
0
 62
   123
100
AcDbTrace
 10
214.0624439756702
 20
198.9709669061804
 30
0.0
 11
214.0624439756702
 21
198.1376335728471
 31
0.0
 12
211.5624439756702
 22
198.5543002395138
 32
0.0
 13
211.5624439756702
 23
198.5543002395138
 33
0.0
  0
MTEXT
  5
43D
330
437
100
AcDbEntity
  8
0
 62
     3
100
AcDbMText
 10
231.5624439756701
 20
201.0543002395138
 30
0.0
 40
3.0
 41
0.0
 71
     5
 72
     1
  1
\A1;L
1001
ACAD
1000
MTEXTBEGIN
1070
    73
1070
     1
1070
    44
1040
1.0
1070
    74
1070
     0
1000
MTEXTEND
1000
MTEXTBEGIN
1070
    73
1070
     1
1070
    44
1040
1.0
1070
    74
1070
     0
1000
MTEXTEND
  0
POINT
  5
43E
330
437
100
AcDbEntity
  8
DEFPOINTS
 62
     0
100
AcDbPoint
 10
251.5624439756702
 20
211.8503146211399
 30
0.0
  0
POINT
  5
43F
330
437
100
AcDbEntity
  8
DEFPOINTS
 62
     0
100
AcDbPoint
 10
211.5624439756702
 20
211.8503146211399
 30
0.0
  0
POINT
  5
440
330
437
100
AcDbEntity
  8
DEFPOINTS
 62
     0
100
AcDbPoint
 10
211.5624439756702
 20
198.5543002395138
 30
0.0
  0
ENDBLK
  5
442
330
437
100
AcDbEntity
  8
0
100
AcDbBlockEnd
  0
BLOCK
  5
44D
330
443
100
AcDbEntity
  8
0
100
AcDbBlockBegin
  2
*D47
 70
     1
 10
0.0
 20
0.0
 30
0.0
  3
*D47
  1

  0
LINE
  5
444
330
443
100
AcDbEntity
  8
DIM
 62
   123
100
AcDbLine
 10
166.2746907579476
 20
345.4530184304826
 30
0.0
 11
166.2746907579476
 21
392.6141950336347
 31
0.0
  0
LINE
  5
445
330
443
100
AcDbEntity
  8
DIM
 62
   123
100
AcDbLine
 10
178.7754001950379
 20
373.1330184304827
 30
0.0
 11
178.7754001950379
 21
392.6141950336347
 31
0.0
  0
LINE
  5
446
330
443
100
AcDbEntity
  8
DIM
 62
   123
100
AcDbLine
 10
168.7746907579476
 20
392.0141950336347
 30
0.0
 11
176.2754001950379
 21
392.0141950336347
 31
0.0
  0
SOLID
  5
447
330
443
100
AcDbEntity
  8
DIM
 62
   123
100
AcDbTrace
 10
168.7746907579476
 20
392.4308617003013
 30
0.0
 11
168.7746907579476
 21
391.597528366968
 31
0.0
 12
166.2746907579476
 22
392.0141950336347
 32
0.0
 13
166.2746907579476
 23
392.0141950336347
 33
0.0
  0
SOLID
  5
448
330
443
100
AcDbEntity
  8
DIM
 62
   123
100
AcDbTrace
 10
176.2754001950379
 20
392.4308617003013
 30
0.0
 11
176.2754001950379
 21
391.597528366968
 31
0.0
 12
178.7754001950379
 22
392.0141950336347
 32
0.0
 13
178.7754001950379
 23
392.0141950336347
 33
0.0
  0
MTEXT
  5
449
330
443
100
AcDbEntity
  8
DIM
 62
     3
100
AcDbMText
 10
171.5796859966976
 20
394.5141950336346
 30
0.0
 40
3.0
 41
0.0
 71
     5
 72
     1
  1
\A1;12.5
1001
ACAD
1000
MTEXTBEGIN
1070
    73
1070
     1
1070
    44
1040
1.0
1070
    74
1070
     0
1000
MTEXTEND
1000
MTEXTBEGIN
1070
    73
1070
     1
1070
    44
1040
1.0
1070
    74
1070
     0
1000
MTEXTEND
  0
POINT
  5
44A
330
443
100
AcDbEntity
  8
DEFPOINTS
 62
     0
100
AcDbPoint
 10
166.2746907579476
 20
344.4530184304826
 30
0.0
  0
POINT
  5
44B
330
443
100
AcDbEntity
  8
DEFPOINTS
 62
     0
100
AcDbPoint
 10
178.7754001950379
 20
372.1330184304826
 30
0.0
  0
POINT
  5
44C
330
443
100
AcDbEntity
  8
DEFPOINTS
 62
     0
100
AcDbPoint
 10
178.7754001950379
 20
392.0141950336347
 30
0.0
  0
ENDBLK
  5
44E
330
443
100
AcDbEntity
  8
0
100
AcDbBlockEnd
  0
BLOCK
  5
459
330
44F
100
AcDbEntity
  8
0
100
AcDbBlockBegin
  2
*D48
 70
     1
 10
0.0
 20
0.0
 30
0.0
  3
*D48
  1

  0
LINE
  5
450
330
44F
100
AcDbEntity
  8
DIM
 62
   123
100
AcDbLine
 10
178.7754001950379
 20
373.1330184304827
 30
0.0
 11
178.7754001950379
 21
392.6141950336347
 31
0.0
  0
LINE
  5
451
330
44F
100
AcDbEntity
  8
DIM
 62
   123
100
AcDbLine
 10
204.7754001950379
 20
373.1330184304827
 30
0.0
 11
204.7754001950379
 21
392.6141950336347
 31
0.0
  0
LINE
  5
452
330
44F
100
AcDbEntity
  8
DIM
 62
   123
100
AcDbLine
 10
181.2754001950379
 20
392.0141950336347
 30
0.0
 11
202.2754001950379
 21
392.0141950336347
 31
0.0
  0
SOLID
  5
453
330
44F
100
AcDbEntity
  8
DIM
 62
   123
100
AcDbTrace
 10
181.2754001950379
 20
392.4308617003013
 30
0.0
 11
181.2754001950379
 21
391.597528366968
 31
0.0
 12
178.7754001950379
 22
392.0141950336347
 32
0.0
 13
178.7754001950379
 23
392.0141950336347
 33
0.0
  0
SOLID
  5
454
330
44F
100
AcDbEntity
  8
DIM
 62
   123
100
AcDbTrace
 10
202.2754001950379
 20
392.4308617003013
 30
0.0
 11
202.2754001950379
 21
391.597528366968
 31
0.0
 12
204.7754001950379
 22
392.0141950336347
 32
0.0
 13
204.7754001950379
 23
392.0141950336347
 33
0.0
  0
MTEXT
  5
455
330
44F
100
AcDbEntity
  8
DIM
 62
     3
100
AcDbMText
 10
190.8296859966975
 20
394.5141950336346
 30
0.0
 40
3.0
 41
0.0
 71
     5
 72
     1
  1
\A1;26
1001
ACAD
1000
MTEXTBEGIN
1070
    73
1070
     1
1070
    44
1040
1.0
1070
    74
1070
     0
1000
MTEXTEND
1000
MTEXTBEGIN
1070
    73
1070
     1
1070
    44
1040
1.0
1070
    74
1070
     0
1000
MTEXTEND
  0
POINT
  5
456
330
44F
100
AcDbEntity
  8
DEFPOINTS
 62
     0
100
AcDbPoint
 10
178.7754001950379
 20
372.1330184304826
 30
0.0
  0
POINT
  5
457
330
44F
100
AcDbEntity
  8
DEFPOINTS
 62
     0
100
AcDbPoint
 10
204.7754001950379
 20
372.1330184304826
 30
0.0
  0
POINT
  5
458
330
44F
100
AcDbEntity
  8
DEFPOINTS
 62
     0
100
AcDbPoint
 10
204.7754001950379
 20
392.0141950336347
 30
0.0
  0
ENDBLK
  5
45A
330
44F
100
AcDbEntity
  8
0
100
AcDbBlockEnd
  0
BLOCK
  5
467
330
45B
100
AcDbEntity
  8
0
100
AcDbBlockBegin
  2
*D49
 70
     1
 10
0.0
 20
0.0
 30
0.0
  3
*D49
  1

  0
LINE
  5
45C
330
45B
100
AcDbEntity
  8
0
 62
   123
100
AcDbLine
 10
178.5624439756702
 20
254.3503146211386
 30
0.0
 11
166.0896414660878
 21
254.3503146211386
 31
0.0
  0
LINE
  5
45D
330
45B
100
AcDbEntity
  8
0
 62
   123
100
AcDbLine
 10
178.5624439756702
 20
247.3503146211387
 30
0.0
 11
166.0896414660878
 21
247.3503146211387
 31
0.0
  0
LINE
  5
45E
330
45B
100
AcDbEntity
  8
0
 62
   123
100
AcDbLine
 10
166.6896414660878
 20
244.8503146211387
 30
0.0
 11
166.6896414660878
 21
242.3503146211387
 31
0.0
  0
LINE
  5
45F
330
45B
100
AcDbEntity
  8
0
 62
   123
100
AcDbLine
 10
166.6896414660878
 20
256.8503146211387
 30
0.0
 11
166.6896414660878
 21
269.3503146211387
 31
0.0
  0
LINE
  5
460
330
45B
100
AcDbEntity
  8
0
 62
   123
100
AcDbLine
 10
166.6896414660878
 20
247.3503146211387
 30
0.0
 11
166.6896414660878
 21
254.3503146211386
 31
0.0
  0
SOLID
  5
461
330
45B
100
AcDbEntity
  8
0
 62
   123
100
AcDbTrace
 10
166.272974799421
 20
244.8503146211387
 30
0.0
 11
167.1063081327543
 21
244.8503146211387
 31
0.0
 12
166.6896414660878
 22
247.3503146211387
 32
0.0
 13
166.6896414660878
 23
247.3503146211387
 33
0.0
  0
SOLID
  5
462
330
45B
100
AcDbEntity
  8
0
 62
   123
100
AcDbTrace
 10
166.272974799421
 20
256.8503146211387
 30
0.0
 11
167.1063081327543
 21
256.8503146211387
 31
0.0
 12
166.6896414660878
 22
254.3503146211386
 32
0.0
 13
166.6896414660878
 23
254.3503146211386
 33
0.0
  0
MTEXT
  5
463
330
45B
100
AcDbEntity
  8
0
 62
     3
100
AcDbMText
 10
164.1896414660877
 20
267.3503146211387
 30
0.0
 40
3.0
 41
0.0
 71
     5
 72
     1
  1
\A1;7
 11
0.0000000000000001
 21
1.0
 31
0.0
1001
ACAD
1000
MTEXTBEGIN
1070
    73
1070
     1
1070
    44
1040
1.0
1070
    74
1070
     0
1000
MTEXTEND
1000
MTEXTBEGIN
1070
    73
1070
     1
1070
    44
1040
1.0
1070
    74
1070
     0
1000
MTEXTEND
  0
POINT
  5
464
330
45B
100
AcDbEntity
  8
DEFPOINTS
 62
     0
100
AcDbPoint
 10
179.5624439756702
 20
254.3503146211386
 30
0.0
  0
POINT
  5
465
330
45B
100
AcDbEntity
  8
DEFPOINTS
 62
     0
100
AcDbPoint
 10
179.5624439756702
 20
247.3503146211387
 30
0.0
  0
POINT
  5
466
330
45B
100
AcDbEntity
  8
DEFPOINTS
 62
     0
100
AcDbPoint
 10
166.6896414660878
 20
247.3503146211387
 30
0.0
  0
ENDBLK
  5
468
330
45B
100
AcDbEntity
  8
0
100
AcDbBlockEnd
  0
BLOCK
  5
475
330
469
100
AcDbEntity
  8
0
100
AcDbBlockBegin
  2
*D50
 70
     1
 10
0.0
 20
0.0
 30
0.0
  3
*D50
  1

  0
LINE
  5
46A
330
469
100
AcDbEntity
  8
DIM
 62
   123
100
AcDbLine
 10
176.7754001950379
 20
370.1330184304826
 30
0.0
 11
176.7754001950379
 21
381.9413517638169
 31
0.0
  0
LINE
  5
46B
330
469
100
AcDbEntity
  8
DIM
 62
   123
100
AcDbLine
 10
178.7754001950379
 20
373.1330184304827
 30
0.0
 11
178.7754001950379
 21
381.9413517638169
 31
0.0
  0
LINE
  5
46C
330
469
100
AcDbEntity
  8
DIM
 62
   123
100
AcDbLine
 10
181.2754001950379
 20
381.3413517638169
 30
0.0
 11
183.7754001950379
 21
381.3413517638169
 31
0.0
  0
LINE
  5
46D
330
469
100
AcDbEntity
  8
DIM
 62
   123
100
AcDbLine
 10
174.2754001950379
 20
381.3413517638169
 30
0.0
 11
167.7754001950378
 21
381.3413517638169
 31
0.0
  0
LINE
  5
46E
330
469
100
AcDbEntity
  8
DIM
 62
   123
100
AcDbLine
 10
178.7754001950379
 20
381.3413517638169
 30
0.0
 11
176.7754001950379
 21
381.3413517638169
 31
0.0
  0
SOLID
  5
46F
330
469
100
AcDbEntity
  8
DIM
 62
   123
100
AcDbTrace
 10
181.2754001950379
 20
381.7580184304834
 30
0.0
 11
181.2754001950379
 21
380.9246850971502
 31
0.0
 12
178.7754001950379
 22
381.3413517638169
 32
0.0
 13
178.7754001950379
 23
381.3413517638169
 33
0.0
  0
SOLID
  5
470
330
469
100
AcDbEntity
  8
DIM
 62
   123
100
AcDbTrace
 10
174.2754001950379
 20
381.7580184304834
 30
0.0
 11
174.2754001950379
 21
380.9246850971502
 31
0.0
 12
176.7754001950379
 22
381.3413517638169
 32
0.0
 13
176.7754001950379
 23
381.3413517638169
 33
0.0
  0
MTEXT
  5
471
330
469
100
AcDbEntity
  8
DIM
 62
     3
100
AcDbMText
 10
169.7754001950378
 20
383.8413517638168
 30
0.0
 40
3.0
 41
0.0
 71
     5
 72
     1
  1
\A1;2
1001
ACAD
1000
MTEXTBEGIN
1070
    73
1070
     1
1070
    44
1040
1.0
1070
    74
1070
     0
1000
MTEXTEND
1000
MTEXTBEGIN
1070
    73
1070
     1
1070
    44
1040
1.0
1070
    74
1070
     0
1000
MTEXTEND
  0
POINT
  5
472
330
469
100
AcDbEntity
  8
DEFPOINTS
 62
     0
100
AcDbPoint
 10
176.7754001950379
 20
369.1330184304827
 30
0.0
  0
POINT
  5
473
330
469
100
AcDbEntity
  8
DEFPOINTS
 62
     0
100
AcDbPoint
 10
178.7754001950379
 20
372.1330184304826
 30
0.0
  0
POINT
  5
474
330
469
100
AcDbEntity
  8
DEFPOINTS
 62
     0
100
AcDbPoint
 10
178.7754001950379
 20
381.3413517638169
 30
0.0
  0
ENDBLK
  5
476
330
469
100
AcDbEntity
  8
0
100
AcDbBlockEnd
  0
BLOCK
  5
481
330
477
100
AcDbEntity
  8
0
100
AcDbBlockBegin
  2
*D51
 70
     1
 10
0.0
 20
0.0
 30
0.0
  3
*D51
  1

  0
LINE
  5
478
330
477
100
AcDbEntity
  8
DIM
 62
   123
100
AcDbLine
 10
175.7754001950379
 20
369.1330184304827
 30
0.0
 11
156.608068220798
 21
369.1330184304827
 31
0.0
  0
LINE
  5
479
330
477
100
AcDbEntity
  8
DIM
 62
   123
100
AcDbLine
 10
175.7754001950379
 20
315.1330184304826
 30
0.0
 11
156.6080682207978
 21
315.1330184304826
 31
0.0
  0
LINE
  5
47A
330
477
100
AcDbEntity
  8
DIM
 62
   123
100
AcDbLine
 10
157.208068220798
 20
366.6330184304827
 30
0.0
 11
157.2080682207979
 21
317.6330184304826
 31
0.0
  0
SOLID
  5
47B
330
477
100
AcDbEntity
  8
DIM
 62
   123
100
AcDbTrace
 10
156.7914015541313
 20
366.6330184304827
 30
0.0
 11
157.6247348874646
 21
366.6330184304827
 31
0.0
 12
157.208068220798
 22
369.1330184304827
 32
0.0
 13
157.208068220798
 23
369.1330184304827
 33
0.0
  0
SOLID
  5
47C
330
477
100
AcDbEntity
  8
DIM
 62
   123
100
AcDbTrace
 10
156.7914015541313
 20
317.6330184304826
 30
0.0
 11
157.6247348874646
 21
317.6330184304826
 31
0.0
 12
157.2080682207979
 22
315.1330184304826
 32
0.0
 13
157.2080682207979
 23
315.1330184304826
 33
0.0
  0
MTEXT
  5
47D
330
477
100
AcDbEntity
  8
DIM
 62
     3
100
AcDbMText
 10
153.2579182207979
 20
342.1330184304826
 30
0.0
 40
3.0
 41
0.0
 71
     5
 72
     1
  1
\A1;\A1;%%C54{\f??|b0|i0|c0|p49;\H0.7x;\S+0^ -0.03;\H1.429x;(h7)} 
 11
0.0000000000000001
 21
1.0
 31
0.0
1001
ACAD
1000
MTEXTBEGIN
1070
    73
1070
     1
1070
    44
1040
1.0
1070
    74
1070
     0
1000
MTEXTEND
1000
MTEXTBEGIN
1070
    73
1070
     1
1070
    44
1040
1.0
1070
    74
1070
     0
1000
MTEXTEND
  0
POINT
  5
47E
330
477
100
AcDbEntity
  8
DEFPOINTS
 62
     0
100
AcDbPoint
 10
176.7754001950379
 20
369.1330184304827
 30
0.0
  0
POINT
  5
47F
330
477
100
AcDbEntity
  8
DEFPOINTS
 62
     0
100
AcDbPoint
 10
176.7754001950379
 20
315.1330184304826
 30
0.0
  0
POINT
  5
480
330
477
100
AcDbEntity
  8
DEFPOINTS
 62
     0
100
AcDbPoint
 10
157.2080682207979
 20
315.1330184304826
 30
0.0
  0
ENDBLK
  5
482
330
477
100
AcDbEntity
  8
0
100
AcDbBlockEnd
  0
BLOCK
  5
48D
330
483
100
AcDbEntity
  8
0
100
AcDbBlockBegin
  2
*D52
 70
     1
 10
0.0
 20
0.0
 30
0.0
  3
*D52
  1

  0
LINE
  5
484
330
483
100
AcDbEntity
  8
0
 62
   123
100
AcDbLine
 10
174.6643051744376
 20
251.3503146211387
 30
0.0
 11
156.6999992753066
 21
251.3503146211387
 31
0.0
  0
LINE
  5
485
330
483
100
AcDbEntity
  8
0
 62
   123
100
AcDbLine
 10
166.9547708415684
 20
241.3503146211386
 30
0.0
 11
156.6999992753066
 21
241.3503146211386
 31
0.0
  0
LINE
  5
486
330
483
100
AcDbEntity
  8
0
 62
   123
100
AcDbLine
 10
157.2999992753065
 20
248.8503146211387
 30
0.0
 11
157.2999992753065
 21
243.8503146211386
 31
0.0
  0
SOLID
  5
487
330
483
100
AcDbEntity
  8
0
 62
   123
100
AcDbTrace
 10
156.8833326086399
 20
248.8503146211387
 30
0.0
 11
157.7166659419732
 21
248.8503146211387
 31
0.0
 12
157.2999992753065
 22
251.3503146211387
 32
0.0
 13
157.2999992753065
 23
251.3503146211387
 33
0.0
  0
SOLID
  5
488
330
483
100
AcDbEntity
  8
0
 62
   123
100
AcDbTrace
 10
156.8833326086399
 20
243.8503146211386
 30
0.0
 11
157.7166659419732
 21
243.8503146211386
 31
0.0
 12
157.2999992753065
 22
241.3503146211386
 32
0.0
 13
157.2999992753065
 23
241.3503146211386
 33
0.0
  0
MTEXT
  5
489
330
483
100
AcDbEntity
  8
0
 62
     3
100
AcDbMText
 10
154.7999992753064
 20
246.3503146211386
 30
0.0
 40
3.0
 41
0.0
 71
     5
 72
     1
  1
\A1;10
 11
0.0000000000000001
 21
1.0
 31
0.0
1001
ACAD
1000
MTEXTBEGIN
1070
    73
1070
     1
1070
    44
1040
1.0
1070
    74
1070
     0
1000
MTEXTEND
1000
MTEXTBEGIN
1070
    73
1070
     1
1070
    44
1040
1.0
1070
    74
1070
     0
1000
MTEXTEND
  0
POINT
  5
48A
330
483
100
AcDbEntity
  8
DEFPOINTS
 62
     0
100
AcDbPoint
 10
175.6643051744377
 20
251.3503146211387
 30
0.0
  0
POINT
  5
48B
330
483
100
AcDbEntity
  8
DEFPOINTS
 62
     0
100
AcDbPoint
 10
167.9547708415683
 20
241.3503146211386
 30
0.0
  0
POINT
  5
48C
330
483
100
AcDbEntity
  8
DEFPOINTS
 62
     0
100
AcDbPoint
 10
157.2999992753065
 20
241.3503146211386
 30
0.0
  0
ENDBLK
  5
48E
330
483
100
AcDbEntity
  8
0
100
AcDbBlockEnd
  0
BLOCK
  5
499
330
48F
100
AcDbEntity
  8
0
100
AcDbBlockBegin
  2
*D53
 70
     1
 10
0.0
 20
0.0
 30
0.0
  3
*D53
  1

  0
LINE
  5
490
330
48F
100
AcDbEntity
  8
0
 62
   123
100
AcDbLine
 10
208.0624439756701
 20
263.3503146211387
 30
0.0
 11
148.651721237797
 21
263.3503146211387
 31
0.0
  0
LINE
  5
491
330
48F
100
AcDbEntity
  8
0
 62
   123
100
AcDbLine
 10
208.0624439756701
 20
239.3503146211386
 30
0.0
 11
148.651721237797
 21
239.3503146211386
 31
0.0
  0
LINE
  5
492
330
48F
100
AcDbEntity
  8
0
 62
   123
100
AcDbLine
 10
149.2517212377969
 20
260.8503146211386
 30
0.0
 11
149.2517212377969
 21
241.8503146211386
 31
0.0
  0
SOLID
  5
493
330
48F
100
AcDbEntity
  8
0
 62
   123
100
AcDbTrace
 10
148.8350545711303
 20
260.8503146211386
 30
0.0
 11
149.6683879044636
 21
260.8503146211386
 31
0.0
 12
149.2517212377969
 22
263.3503146211387
 32
0.0
 13
149.2517212377969
 23
263.3503146211387
 33
0.0
  0
SOLID
  5
494
330
48F
100
AcDbEntity
  8
0
 62
   123
100
AcDbTrace
 10
148.8350545711303
 20
241.8503146211386
 30
0.0
 11
149.6683879044636
 21
241.8503146211386
 31
0.0
 12
149.2517212377969
 22
239.3503146211386
 32
0.0
 13
149.2517212377969
 23
239.3503146211386
 33
0.0
  0
MTEXT
  5
495
330
48F
100
AcDbEntity
  8
0
 62
     3
100
AcDbMText
 10
146.751721237797
 20
251.3503146211387
 30
0.0
 40
3.0
 41
0.0
 71
     5
 72
     1
  1
\A1;%%c24
 11
0.0000000000000001
 21
1.0
 31
0.0
1001
ACAD
1000
MTEXTBEGIN
1070
    73
1070
     1
1070
    44
1040
1.0
1070
    74
1070
     0
1000
MTEXTEND
1000
MTEXTBEGIN
1070
    73
1070
     1
1070
    44
1040
1.0
1070
    74
1070
     0
1000
MTEXTEND
  0
POINT
  5
496
330
48F
100
AcDbEntity
  8
DEFPOINTS
 62
     0
100
AcDbPoint
 10
209.0624439756701
 20
263.3503146211387
 30
0.0
  0
POINT
  5
497
330
48F
100
AcDbEntity
  8
DEFPOINTS
 62
     0
100
AcDbPoint
 10
209.0624439756701
 20
239.3503146211386
 30
0.0
  0
POINT
  5
498
330
48F
100
AcDbEntity
  8
DEFPOINTS
 62
     0
100
AcDbPoint
 10
149.2517212377969
 20
239.3503146211386
 30
0.0
  0
ENDBLK
  5
49A
330
48F
100
AcDbEntity
  8
0
100
AcDbBlockEnd
  0
BLOCK
  5
4A4
330
49B
100
AcDbEntity
  8
0
100
AcDbBlockBegin
  2
*D54
 70
     1
 10
0.0
 20
0.0
 30
0.0
  3
*D54
  1

  0
LINE
  5
4E3
330
49B
100
AcDbEntity
  8
0
 62
   123
100
AcDbLine
 10
60.75604144000751
 20
323.4653288171966
 30
0.0
 11
58.58781906057394
 21
322.2208161763113
 31
0.0
  0
LINE
  5
4E4
330
49B
100
AcDbEntity
  8
0
 62
   123
100
AcDbLine
 10
125.8027128230242
 20
360.800708043763
 30
0.0
 11
147.4229874065161
 21
373.2102769485898
 31
0.0
  0
LINE
  5
4E5
330
49B
100
AcDbEntity
  8
0
 62
   123
100
AcDbLine
 10
62.92426381944109
 20
324.709841458082
 30
0.0
 11
123.6344904435908
 21
359.5561954028776
 31
0.0
  0
SOLID
  5
4E6
330
49B
100
AcDbEntity
  8
0
 62
   123
100
AcDbTrace
 10
60.54862266652661
 20
323.8266992137689
 30
0.0
 11
60.96346021348839
 21
323.1039584206243
 31
0.0
 12
62.92426381944109
 22
324.709841458082
 32
0.0
 13
62.92426381944109
 23
324.709841458082
 33
0.0
  0
SOLID
  5
4E7
330
49B
100
AcDbEntity
  8
0
 62
   123
100
AcDbTrace
 10
125.5952940495435
 20
361.1620784403354
 30
0.0
 11
126.0101315965053
 21
360.4393376471907
 31
0.0
 12
123.6344904435908
 22
359.5561954028776
 32
0.0
 13
123.6344904435908
 23
359.5561954028776
 33
0.0
  0
MTEXT
  5
4E8
330
49B
100
AcDbEntity
  8
0
 62
     3
100
AcDbMText
 10
137.3197376153737
 20
370.293776252406
 30
0.0
 40
3.0
 41
0.0
 71
     5
 72
     1
  1
\A1;\U+220570%%p0.5
 11
0.8672889517734258
 21
0.4978050563541439
 31
0.0
1001
ACAD
1000
MTEXTBEGIN
1070
    73
1070
     1
1070
    44
1040
1.0
1070
    74
1070
     0
1000
MTEXTEND
1000
MTEXTBEGIN
1070
    73
1070
     1
1070
    44
1040
1.0
1070
    74
1070
     0
1000
MTEXTEND
  0
POINT
  5
4E9
330
49B
100
AcDbEntity
  8
DEFPOINTS
 62
     0
100
AcDbPoint
 10
123.6344904435908
 20
359.5561954028776
 30
0.0
  0
POINT
  5
4EA
330
49B
100
AcDbEntity
  8
DEFPOINTS
 62
     0
100
AcDbPoint
 10
62.92426381944109
 20
324.709841458082
 30
0.0
  0
ENDBLK
  5
4A5
330
49B
100
AcDbEntity
  8
0
100
AcDbBlockEnd
  0
BLOCK
  5
4B0
330
4A6
100
AcDbEntity
  8
0
100
AcDbBlockBegin
  2
*D55
 70
     1
 10
0.0
 20
0.0
 30
0.0
  3
*D55
  1

  0
LINE
  5
4A7
330
4A6
100
AcDbEntity
  8
DIM
 62
   123
100
AcDbLine
 10
63.27937713152095
 20
369.1330184304827
 30
0.0
 11
63.27937713152095
 21
386.3841162247878
 31
0.0
  0
LINE
  5
4A8
330
4A6
100
AcDbEntity
  8
DIM
 62
   123
100
AcDbLine
 10
123.2793771315209
 20
368.1330184304826
 30
0.0
 11
123.2793771315209
 21
386.3841162247878
 31
0.0
  0
LINE
  5
4A9
330
4A6
100
AcDbEntity
  8
DIM
 62
   123
100
AcDbLine
 10
65.77937713152095
 20
385.7841162247876
 30
0.0
 11
120.7793771315209
 21
385.7841162247876
 31
0.0
  0
SOLID
  5
4AA
330
4A6
100
AcDbEntity
  8
DIM
 62
   123
100
AcDbTrace
 10
65.77937713152095
 20
386.2007828914543
 30
0.0
 11
65.77937713152095
 21
385.3674495581211
 31
0.0
 12
63.27937713152095
 22
385.7841162247876
 32
0.0
 13
63.27937713152095
 23
385.7841162247876
 33
0.0
  0
SOLID
  5
4AB
330
4A6
100
AcDbEntity
  8
DIM
 62
   123
100
AcDbTrace
 10
120.7793771315209
 20
386.2007828914543
 30
0.0
 11
120.7793771315209
 21
385.3674495581211
 31
0.0
 12
123.2793771315209
 22
385.7841162247876
 32
0.0
 13
123.2793771315209
 23
385.7841162247876
 33
0.0
  0
MTEXT
  5
4AC
330
4A6
100
AcDbEntity
  8
DIM
 62
     3
100
AcDbMText
 10
92.94863837184676
 20
388.2841162247878
 30
0.0
 40
3.0
 41
0.0
 71
     5
 72
     1
  1
\A1;60
1001
ACAD
1000
MTEXTBEGIN
1070
    73
1070
     1
1070
    44
1040
1.0
1070
    74
1070
     0
1000
MTEXTEND
1000
MTEXTBEGIN
1070
    73
1070
     1
1070
    44
1040
1.0
1070
    74
1070
     0
1000
MTEXTEND
  0
POINT
  5
4AD
330
4A6
100
AcDbEntity
  8
DEFPOINTS
 62
     0
100
AcDbPoint
 10
63.27937713152095
 20
368.1330184304826
 30
0.0
  0
POINT
  5
4AE
330
4A6
100
AcDbEntity
  8
DEFPOINTS
 62
     0
100
AcDbPoint
 10
123.2793771315209
 20
367.1330184304827
 30
0.0
  0
POINT
  5
4AF
330
4A6
100
AcDbEntity
  8
DEFPOINTS
 62
     0
100
AcDbPoint
 10
123.2793771315209
 20
385.7841162247876
 30
0.0
  0
ENDBLK
  5
4B1
330
4A6
100
AcDbEntity
  8
0
100
AcDbBlockEnd
  0
BLOCK
  5
4BB
330
4B2
100
AcDbEntity
  8
0
100
AcDbBlockBegin
  2
*D56
 70
     1
 10
0.0
 20
0.0
 30
0.0
  3
*D56
  1

  0
LINE
  5
4B3
330
4B2
100
AcDbEntity
  8
2
 62
   123
100
AcDbLine
 10
51.51101585398301
 20
223.446225713125
 30
0.0
 11
49.31435819049736
 21
222.2526197859238
 31
0.0
  0
LINE
  5
4B4
330
4B2
100
AcDbEntity
  8
2
 62
   123
100
AcDbLine
 10
117.4107457585447
 20
259.2544035291556
 30
0.0
 11
143.0529119486469
 21
273.1876813719198
 31
0.0
  0
LINE
  5
4B5
330
4B2
100
AcDbEntity
  8
2
 62
   123
100
AcDbLine
 10
53.70767351746867
 20
224.6398316403261
 30
0.0
 11
115.2140880950592
 21
258.0607976019543
 31
0.0
  0
SOLID
  5
4B6
330
4B2
100
AcDbEntity
  8
2
 62
   123
100
AcDbTrace
 10
51.31208153278283
 20
223.812335323706
 30
0.0
 11
51.70995017518321
 21
223.0801161025441
 31
0.0
 12
53.70767351746867
 22
224.6398316403261
 32
0.0
 13
53.70767351746867
 23
224.6398316403261
 33
0.0
  0
SOLID
  5
4B7
330
4B2
100
AcDbEntity
  8
2
 62
   123
100
AcDbTrace
 10
117.2118114373447
 20
259.6205131397364
 30
0.0
 11
117.609680079745
 21
258.8882939185746
 31
0.0
 12
115.2140880950592
 22
258.0607976019543
 32
0.0
 13
115.2140880950592
 23
258.0607976019543
 33
0.0
  0
MTEXT
  5
4B8
330
4B2
100
AcDbEntity
  8
2
 62
     3
100
AcDbMText
 10
132.8843904249187
 20
270.5076062471263
 30
0.0
 40
3.0
 41
0.0
 71
     5
 72
     1
  1
\A1;\U+220570%%P0.5
 11
0.8786630653942626
 21
0.4774423708804634
 31
0.0
1001
ACAD
1000
MTEXTBEGIN
1070
    73
1070
     1
1070
    44
1040
1.0
1070
    74
1070
     0
1000
MTEXTEND
1000
MTEXTBEGIN
1070
    73
1070
     1
1070
    44
1040
1.0
1070
    74
1070
     0
1000
MTEXTEND
  0
POINT
  5
4B9
330
4B2
100
AcDbEntity
  8
DEFPOINTS
 62
     0
100
AcDbPoint
 10
115.2140880950592
 20
258.0607976019543
 30
0.0
  0
POINT
  5
4BA
330
4B2
100
AcDbEntity
  8
DEFPOINTS
 62
     0
100
AcDbPoint
 10
53.70767351746867
 20
224.6398316403261
 30
0.0
  0
ENDBLK
  5
4BC
330
4B2
100
AcDbEntity
  8
0
100
AcDbBlockEnd
  0
BLOCK
  5
4C7
330
4BD
100
AcDbEntity
  8
0
100
AcDbBlockBegin
  2
*D57
 70
     1
 10
0.0
 20
0.0
 30
0.0
  3
*D57
  1

  0
LINE
  5
4BE
330
4BD
100
AcDbEntity
  8
0
 62
   123
100
AcDbLine
 10
179.5624439756702
 20
255.3503146211387
 30
0.0
 11
179.5624439756702
 21
268.9781515482008
 31
0.0
  0
LINE
  5
4BF
330
4BD
100
AcDbEntity
  8
0
 62
   123
100
AcDbLine
 10
191.5624439756701
 20
256.3503146211386
 30
0.0
 11
191.5624439756701
 21
268.9781515482008
 31
0.0
  0
LINE
  5
4C0
330
4BD
100
AcDbEntity
  8
0
 62
   123
100
AcDbLine
 10
182.0624439756701
 20
268.3781515482006
 30
0.0
 11
189.0624439756702
 21
268.3781515482006
 31
0.0
  0
SOLID
  5
4C1
330
4BD
100
AcDbEntity
  8
0
 62
   123
100
AcDbTrace
 10
182.0624439756701
 20
268.7948182148673
 30
0.0
 11
182.0624439756701
 21
267.9614848815341
 31
0.0
 12
179.5624439756702
 22
268.3781515482006
 32
0.0
 13
179.5624439756702
 23
268.3781515482006
 33
0.0
  0
SOLID
  5
4C2
330
4BD
100
AcDbEntity
  8
0
 62
   123
100
AcDbTrace
 10
189.0624439756702
 20
268.7948182148673
 30
0.0
 11
189.0624439756702
 21
267.9614848815341
 31
0.0
 12
191.5624439756701
 22
268.3781515482006
 32
0.0
 13
191.5624439756701
 23
268.3781515482006
 33
0.0
  0
MTEXT
  5
4C3
330
4BD
100
AcDbEntity
  8
0
 62
     3
100
AcDbMText
 10
185.5624439756701
 20
270.8781515482006
 30
0.0
 40
3.0
 41
0.0
 71
     5
 72
     1
  1
\A1;12
1001
ACAD
1000
MTEXTBEGIN
1070
    73
1070
     1
1070
    44
1040
1.0
1070
    74
1070
     0
1000
MTEXTEND
1000
MTEXTBEGIN
1070
    73
1070
     1
1070
    44
1040
1.0
1070
    74
1070
     0
1000
MTEXTEND
  0
POINT
  5
4C4
330
4BD
100
AcDbEntity
  8
DEFPOINTS
 62
     0
100
AcDbPoint
 10
179.5624439756702
 20
254.3503146211386
 30
0.0
  0
POINT
  5
4C5
330
4BD
100
AcDbEntity
  8
DEFPOINTS
 62
     0
100
AcDbPoint
 10
191.5624439756701
 20
255.3503146211387
 30
0.0
  0
POINT
  5
4C6
330
4BD
100
AcDbEntity
  8
DEFPOINTS
 62
     0
100
AcDbPoint
 10
191.5624439756701
 20
268.3781515482006
 30
0.0
  0
ENDBLK
  5
4C8
330
4BD
100
AcDbEntity
  8
0
100
AcDbBlockEnd
  0
BLOCK
  5
4D5
330
4C9
100
AcDbEntity
  8
0
100
AcDbBlockBegin
  2
*D58
 70
     1
 10
0.0
 20
0.0
 30
0.0
  3
*D58
  1

  0
LINE
  5
4CA
330
4C9
100
AcDbEntity
  8
0
 62
   123
100
AcDbLine
 10
195.0624439756701
 20
247.3503146211387
 30
0.0
 11
199.6561693157286
 21
247.3503146211387
 31
0.0
  0
LINE
  5
4CB
330
4C9
100
AcDbEntity
  8
0
 62
   123
100
AcDbLine
 10
192.5624439756701
 20
255.3503146211387
 30
0.0
 11
199.6561693157286
 21
255.3503146211387
 31
0.0
  0
LINE
  5
4CC
330
4C9
100
AcDbEntity
  8
0
 62
   123
100
AcDbLine
 10
199.0561693157286
 20
244.8503146211387
 30
0.0
 11
199.0561693157286
 21
242.3503146211387
 31
0.0
  0
LINE
  5
4CD
330
4C9
100
AcDbEntity
  8
0
 62
   123
100
AcDbLine
 10
199.0561693157286
 20
257.8503146211386
 30
0.0
 11
199.0561693157286
 21
297.720317844595
 31
0.0
  0
LINE
  5
4CE
330
4C9
100
AcDbEntity
  8
0
 62
   123
100
AcDbLine
 10
199.0561693157286
 20
247.3503146211387
 30
0.0
 11
199.0561693157286
 21
255.3503146211387
 31
0.0
  0
SOLID
  5
4CF
330
4C9
100
AcDbEntity
  8
0
 62
   123
100
AcDbTrace
 10
198.639502649062
 20
244.8503146211387
 30
0.0
 11
199.4728359823954
 21
244.8503146211387
 31
0.0
 12
199.0561693157286
 22
247.3503146211387
 32
0.0
 13
199.0561693157286
 23
247.3503146211387
 33
0.0
  0
SOLID
  5
4D0
330
4C9
100
AcDbEntity
  8
0
 62
   123
100
AcDbTrace
 10
198.639502649062
 20
257.8503146211386
 30
0.0
 11
199.4728359823954
 21
257.8503146211386
 31
0.0
 12
199.0561693157286
 22
255.3503146211387
 32
0.0
 13
199.0561693157286
 23
255.3503146211387
 33
0.0
  0
MTEXT
  5
4D1
330
4C9
100
AcDbEntity
  8
0
 62
     3
100
AcDbMText
 10
195.1060193157286
 20
284.0476035588807
 30
0.0
 40
3.0
 41
0.0
 71
     5
 72
     1
  1
\A1;\A1;{\f??|b0|i0|c0|p49;%%C8\H0.7x;\S+0^ -0.015;\H1.429x;(h7)}
 11
0.0000000000000001
 21
1.0
 31
0.0
1001
ACAD
1000
MTEXTBEGIN
1070
    73
1070
     1
1070
    44
1040
1.0
1070
    74
1070
     0
1000
MTEXTEND
1000
MTEXTBEGIN
1070
    73
1070
     1
1070
    44
1040
1.0
1070
    74
1070
     0
1000
MTEXTEND
  0
POINT
  5
4D2
330
4C9
100
AcDbEntity
  8
DEFPOINTS
 62
     0
100
AcDbPoint
 10
194.0624439756702
 20
247.3503146211387
 30
0.0
  0
POINT
  5
4D3
330
4C9
100
AcDbEntity
  8
DEFPOINTS
 62
     0
100
AcDbPoint
 10
191.5624439756701
 20
255.3503146211387
 30
0.0
  0
POINT
  5
4D4
330
4C9
100
AcDbEntity
  8
DEFPOINTS
 62
     0
100
AcDbPoint
 10
199.0561693157286
 20
255.3503146211387
 30
0.0
  0
ENDBLK
  5
4D6
330
4C9
100
AcDbEntity
  8
0
100
AcDbBlockEnd
  0
BLOCK
  5
4E1
330
4D7
100
AcDbEntity
  8
0
100
AcDbBlockBegin
  2
*D59
 70
     1
 10
0.0
 20
0.0
 30
0.0
  3
*D59
  1

  0
LINE
  5
4D8
330
4D7
100
AcDbEntity
  8
0
 62
   123
100
AcDbLine
 10
20.41371386077844
 20
71.18892059869769
 30
0.0
 11
6.567654367156512
 21
71.18892059869769
 31
0.0
  0
LINE
  5
4D9
330
4D7
100
AcDbEntity
  8
0
 62
   123
100
AcDbLine
 10
27.41371386077844
 20
105.6889125986985
 30
0.0
 11
6.567654367156518
 21
105.6889125986985
 31
0.0
  0
LINE
  5
4DA
330
4D7
100
AcDbEntity
  8
0
 62
   123
100
AcDbLine
 10
7.167654367156512
 20
73.68892059869769
 30
0.0
 11
7.167654367156518
 21
103.1889125986986
 31
0.0
  0
SOLID
  5
4DB
330
4D7
100
AcDbEntity
  8
0
 62
   123
100
AcDbTrace
 10
6.750987700489845
 20
73.68892059869769
 30
0.0
 11
7.584321033823179
 21
73.68892059869769
 31
0.0
 12
7.167654367156512
 22
71.18892059869769
 32
0.0
 13
7.167654367156512
 23
71.18892059869769
 33
0.0
  0
SOLID
  5
4DC
330
4D7
100
AcDbEntity
  8
0
 62
   123
100
AcDbTrace
 10
6.750987700489852
 20
103.1889125986986
 30
0.0
 11
7.584321033823186
 21
103.1889125986986
 31
0.0
 12
7.167654367156518
 22
105.6889125986985
 32
0.0
 13
7.167654367156518
 23
105.6889125986985
 33
0.0
  0
MTEXT
  5
4DD
330
4D7
100
AcDbEntity
  8
0
 62
     3
100
AcDbMText
 10
4.6676543671565
 20
88.43891659869768
 30
0.0
 40
3.0
 41
0.0
 71
     5
 72
     1
  1
\A1;34.5
 11
0.0000000000000001
 21
1.0
 31
0.0
1001
ACAD
1000
MTEXTBEGIN
1070
    73
1070
     1
1070
    44
1040
1.0
1070
    74
1070
     0
1000
MTEXTEND
1000
MTEXTBEGIN
1070
    73
1070
     1
1070
    44
1040
1.0
1070
    74
1070
     0
1000
MTEXTEND
  0
POINT
  5
4DE
330
4D7
100
AcDbEntity
  8
DEFPOINTS
 62
     0
100
AcDbPoint
 10
21.41371386077844
 20
71.18892059869769
 30
0.0
  0
POINT
  5
4DF
330
4D7
100
AcDbEntity
  8
DEFPOINTS
 62
     0
100
AcDbPoint
 10
28.41371386077844
 20
105.6889125986985
 30
0.0
  0
POINT
  5
4E0
330
4D7
100
AcDbEntity
  8
DEFPOINTS
 62
     0
100
AcDbPoint
 10
7.167654367156518
 20
105.6889125986985
 30
0.0
  0
ENDBLK
  5
4E2
330
4D7
100
AcDbEntity
  8
0
100
AcDbBlockEnd
  0
ENDSEC
  0
SECTION
  2
ENTITIES
  0
LEADER
  5
9C
330
2
100
AcDbEntity
  8
0
100
AcDbLeader
  3
STANDARD
 73
     0
 74
     0
 75
     1
 40
3.0
 41
26.65178571428571
 76
     3
 10
73.41245120230633
 20
16.4401832571657
 30
0.0
 10
86.18234469090749
 20
0.4313485317275072
 30
0.0
 10
88.68234469090749
 20
0.4313485317275072
 30
0.0
340
9D
1001
ACAD
1000
DSTYLE
1002
{
1070
     5
1000

1070
    77
1070
     1
1070
   147
1040
1.0
1070
   342
1005
0
1002
}
  0
MTEXT
  5
9D
102
{ACAD_REACTORS
330
9C
102
}
330
2
100
AcDbEntity
  8
0
 62
     3
100
AcDbMText
 10
89.68234469090749
 20
2.931348531727508
 30
0.0
 40
3.0
 41
0.0
 71
     4
 72
     1
  1
4-%%c4.5 hole
1001
ACAD
1000
MTEXTBEGIN
1070
    73
1070
     1
1070
    44
1040
1.0
1070
    74
1070
     0
1000
MTEXTEND
1000
MTEXTBEGIN
1070
    73
1070
     1
1070
    44
1040
1.0
1070
    74
1070
     0
1000
MTEXTEND
  0
LINE
  5
9E
330
2
100
AcDbEntity
  8
2
 62
     7
100
AcDbLine
 10
178.215628375079
 20
39.18892059869563
 30
0.0
 11
175.7156283750791
 21
39.18892059869563
 31
0.0
  0
ARC
  5
A0
330
2
100
AcDbEntity
  8
2
 62
     7
100
AcDbCircle
 10
175.7156283750791
 20
39.68892059869563
 30
0.0
 40
0.4999999999999968
100
AcDbArc
 50
180.0
 51
270.0
  0
LINE
  5
A1
330
2
100
AcDbEntity
  8
2
 62
     7
100
AcDbLine
 10
175.215628375079
 20
39.68892059869563
 30
0.0
 11
175.215628375079
 21
41.18892059869563
 31
0.0
  0
LEADER
  5
A2
330
2
100
AcDbEntity
  8
0
100
AcDbLeader
  3
STANDARD
 73
     0
 74
     0
 75
     1
 40
3.200000000000001
 41
28.42857142857143
 76
     3
 10
109.3310868940079
 20
268.5421710377767
 30
0.0
 10
119.0763092681554
 20
281.2338031429997
 30
0.0
 10
121.5763092681553
 20
281.2338031429997
 30
0.0
340
A3
1001
ACAD
1000
DSTYLE
1002
{
1070
     5
1000

1070
    77
1070
     1
1070
   147
1040
1.0
1070
   342
1005
0
1002
}
  0
MTEXT
  5
A3
102
{ACAD_REACTORS
330
A2
102
}
330
2
100
AcDbEntity
  8
0
 62
     3
100
AcDbMText
 10
122.5763092681553
 20
282.2338031429996
 30
0.0
 40
3.2
 41
0.0
 71
     7
 72
     1
  1
4-%%C4.5 hole
1001
ACAD
1000
MTEXTBEGIN
1070
    73
1070
     1
1070
    44
1040
1.0
1070
    74
1070
     0
1000
MTEXTEND
1000
MTEXTBEGIN
1070
    73
1070
     1
1070
    44
1040
1.0
1070
    74
1070
     0
1000
MTEXTEND
  0
LINE
  5
A4
330
2
100
AcDbEntity
  8
2
 62
     7
100
AcDbLine
 10
211.5624439756702
 20
239.3503146211386
 30
0.0
 11
209.0624439756701
 21
239.3503146211386
 31
0.0
  0
ARC
  5
A5
330
2
100
AcDbEntity
  8
2
 62
     7
100
AcDbCircle
 10
209.0624439756701
 20
239.8503146211386
 30
0.0
 40
0.4999999999999968
100
AcDbArc
 50
180.0
 51
270.0
  0
LINE
  5
A6
330
2
100
AcDbEntity
  8
2
 62
     7
100
AcDbLine
 10
208.5624439756701
 20
239.8503146211386
 30
0.0
 11
208.5624439756701
 21
241.3503146211386
 31
0.0
  0
LEADER
  5
A7
330
2
100
AcDbEntity
  8
0
100
AcDbLeader
  3
STANDARD
 73
     0
 75
     1
 40
3.0
 41
26.65178571428571
 76
     3
 10
117.9301981470689
 20
369.1296241829986
 30
0.0
 10
113.0267973143199
 20
394.0616092924538
 30
0.0
 10
110.52679731432
 20
394.0616092924538
 30
0.0
340
A8
1001
ACAD
1000
DSTYLE
1002
{
1070
     5
1000

1070
    77
1070
     1
1070
   147
1040
1.0
1070
   342
1005
0
1002
}
  0
MTEXT
  5
A8
102
{ACAD_REACTORS
330
A7
102
}
330
2
100
AcDbEntity
  8
0
 62
     3
100
AcDbMText
 10
109.52679731432
 20
395.0616092924537
 30
0.0
 40
3.0
 41
0.0
 71
     9
 72
     1
  1
4-%%c4.5 hole
1001
ACAD
1000
MTEXTBEGIN
1070
    73
1070
     1
1070
    44
1040
1.0
1070
    74
1070
     0
1000
MTEXTEND
1000
MTEXTBEGIN
1070
    73
1070
     1
1070
    44
1040
1.0
1070
    74
1070
     0
1000
MTEXTEND
  0
DIMENSION
  5
A9
102
{ACAD_XDICTIONARY
360
AA
102
}
102
{ACAD_REACTORS
330
AB
102
}
330
2
100
AcDbEntity
  8
0
100
AcDbDimension
  2
*D30
 10
211.5624439756702
 20
198.5543002395138
 30
0.0
 11
195.5624439756702
 21
201.0543002395138
 31
0.0
 70
    32
  3
STANDARD
100
AcDbAlignedDimension
 13
179.5624439756702
 23
247.3503146211387
 33
0.0
 14
211.5624439756702
 24
211.8503146211399
 34
0.0
 50
180.0
100
AcDbRotatedDimension
  0
CIRCLE
  5
B9
330
2
100
AcDbEntity
  8
0
100
AcDbCircle
 10
84.46088080626941
 20
241.3503146211406
 30
0.0
 40
27.0
  0
LINE
  5
BA
330
2
100
AcDbEntity
  8
0
  6
CENTER
 62
     1
 48
0.4
100
AcDbLine
 10
84.46088080626941
 20
275.4408721962926
 30
0.0
 11
84.46088080626941
 21
207.2597570459894
 31
0.0
  0
LINE
  5
BC
330
2
100
AcDbEntity
  8
0
100
AcDbLine
 10
54.46088080626942
 20
266.3503146211398
 30
0.0
 11
54.46088080626942
 21
216.3503146211385
 31
0.0
  0
LINE
  5
BD
102
{ACAD_REACTORS
330
146
102
}
330
2
100
AcDbEntity
  8
0
100
AcDbLine
 10
114.4608808062693
 20
266.3503146211398
 30
0.0
 11
114.4608808062693
 21
216.3503146211385
 31
0.0
  0
CIRCLE
  5
BE
330
2
100
AcDbEntity
  8
0
 48
0.6
100
AcDbCircle
 10
84.46088080626941
 20
218.3503146211385
 30
0.0
 40
3.0
  0
ARC
  5
BF
330
2
100
AcDbEntity
  8
CEN
 48
0.6
100
AcDbCircle
 10
84.46088080626941
 20
241.3503146211386
 30
0.0
 40
35.0
100
AcDbArc
 50
308.0383738498391
 51
321.9616261501568
  0
LINE
  5
C1
330
2
100
AcDbEntity
  8
CEN
 48
0.6
100
AcDbLine
 10
106.9115211089374
 20
218.8996743184659
 30
0.0
 11
111.507715186657
 21
214.3034802407536
 31
0.0
  0
LINE
  5
C2
330
2
100
AcDbEntity
  8
CEN
 48
0.6
100
AcDbLine
 10
62.01024050359774
 20
218.8996743184659
 30
0.0
 11
57.41404642588713
 21
214.3034802407536
 31
0.0
  0
CIRCLE
  5
C3
330
2
100
AcDbEntity
  8
0
 48
0.6
100
AcDbCircle
 10
109.2096181477973
 20
216.6015772796096
 30
0.0
 40
2.25
  0
CIRCLE
  5
C4
330
2
100
AcDbEntity
  8
0
 48
0.6
100
AcDbCircle
 10
59.71214346473789
 20
216.6015772796096
 30
0.0
 40
2.25
  0
ARC
  5
C5
330
2
100
AcDbEntity
  8
CEN
 48
0.6
100
AcDbCircle
 10
84.46088080620755
 20
241.3503146210936
 30
0.0
 40
34.99999999992732
100
AcDbArc
 50
205.5917490017661
 51
231.9616261501888
  0
LINE
  5
C6
102
{ACAD_REACTORS
330
1FE
330
AB
102
}
330
2
100
AcDbEntity
  8
0
100
AcDbLine
 10
211.5624439756702
 20
270.8503146211386
 30
0.0
 11
211.5624439756702
 21
211.8503146211399
 31
0.0
  0
LINE
  5
C7
102
{ACAD_REACTORS
330
1FE
102
}
330
2
100
AcDbEntity
  8
0
100
AcDbLine
 10
251.5624439756702
 20
270.8503146211386
 30
0.0
 11
251.5624439756702
 21
211.8503146211399
 31
0.0
  0
LINE
  5
C8
330
2
100
AcDbEntity
  8
1
  6
BYBLOCK
 62
     0
100
AcDbLine
 10
215.6084179643894
 20
161.6894688874096
 30
0.0
 11
93.9400946790465
 21
161.6894688874096
 31
0.0
  0
LINE
  5
CA
330
2
100
AcDbEntity
  8
1
  6
BYBLOCK
 62
     0
100
AcDbLine
 10
215.6084179643894
 20
170.8694688874094
 30
0.0
 11
93.9400946790465
 21
170.8694688874094
 31
0.0
  0
LINE
  5
CB
330
2
100
AcDbEntity
  8
1
  6
BYBLOCK
 62
     0
100
AcDbLine
 10
215.6084179643894
 20
180.0494688874096
 30
0.0
 11
93.9400946790465
 21
180.0494688874096
 31
0.0
  0
LINE
  5
CC
330
2
100
AcDbEntity
  8
1
  6
BYBLOCK
 62
     0
100
AcDbLine
 10
215.6084179643894
 20
152.5094688874087
 30
0.0
 11
93.9400946790465
 21
152.5094688874087
 31
0.0
  0
TEXT
  5
CD
330
2
100
AcDbEntity
  8
1
  6
BYBLOCK
 62
     0
100
AcDbText
 10
153.2408910287885
 20
172.9481550552906
 30
0.0
 40
4.589999999999998
  1
APPLICATION MODEL
 41
0.8
  7
GHS
100
AcDbText
  0
TEXT
  5
CF
330
2
100
AcDbEntity
  8
1
  6
BYBLOCK
 62
     0
100
AcDbText
 10
154.0051569508559
 20
155.1247053644146
 30
0.0
 40
4.589999999999998
  1
K6G25~180B(C)
100
AcDbText
  0
TEXT
  5
D0
330
2
100
AcDbEntity
  8
1
  6
BYBLOCK
 62
     0
100
AcDbText
 10
153.3917945818211
 20
164.4531888045065
 30
0.0
 40
4.589999999999998
  1
K6G3~18B(C)
100
AcDbText
  0
LINE
  5
D1
330
2
100
AcDbEntity
  8
CEN
 48
0.6
100
AcDbLine
 10
296.7029334257293
 20
41.18892059869563
 30
0.0
 11
141.523054781579
 21
41.18892059869563
 31
0.0
  0
LINE
  5
D2
102
{ACAD_REACTORS
330
1A0
102
}
330
2
100
AcDbEntity
  8
CEN
 48
0.6
100
AcDbLine
 10
186.0740860784297
 20
51.18892059869563
 30
0.0
 11
142.3174895738465
 21
51.18892059869563
 31
0.0
  0
DIMENSION
  5
D3
102
{ACAD_XDICTIONARY
360
D4
102
}
102
{ACAD_REACTORS
330
D5
102
}
330
2
100
AcDbEntity
  8
0
100
AcDbDimension
  2
*D43
 10
158.2156283750791
 20
68.21675752575766
 30
0.0
 11
152.215628375079
 21
70.71675752575766
 31
0.0
 70
    32
  3
STANDARD
100
AcDbAlignedDimension
 13
146.215628375079
 23
54.18892059869563
 33
0.0
 14
158.2156283750791
 24
55.18892059869563
 34
0.0
 50
180.0
100
AcDbRotatedDimension
  0
LINE
  5
E2
102
{ACAD_REACTORS
330
D5
102
}
330
2
100
AcDbEntity
  8
0
100
AcDbLine
 10
158.2156283750791
 20
54.18892059869563
 30
0.0
 11
146.215628375079
 21
54.18892059869563
 31
0.0
  0
LINE
  5
E3
330
2
100
AcDbEntity
  8
0
100
AcDbLine
 10
175.215628375079
 20
47.18892059869562
 30
0.0
 11
146.215628375079
 21
47.18892059869562
 31
0.0
  0
DIMENSION
  5
E4
330
2
100
AcDbEntity
  8
DIM
100
AcDbDimension
  2
*D33
 10
103.0343250940876
 20
39.18892059869565
 30
0.0
 11
100.5343250940876
 21
51.18892059869565
 31
0.0
 70
    32
  1
%%c<>
  3
STANDARD
100
AcDbAlignedDimension
 13
175.7156283750791
 23
63.18892059869563
 33
0.0
 14
175.7156283750791
 24
39.18892059869563
 34
0.0
 50
90.0
100
AcDbRotatedDimension
  0
DIMENSION
  5
F2
102
{ACAD_XDICTIONARY
360
F3
102
}
102
{ACAD_REACTORS
330
F4
102
}
330
2
100
AcDbEntity
  8
0
100
AcDbDimension
  2
*D37
 10
178.215628375079
 20
90.80395855472463
 30
0.0
 11
162.2156283750791
 21
90.80395855472463
 31
0.0
 70
   160
  3
STANDARD
100
AcDbAlignedDimension
 13
146.215628375079
 23
54.18892059869563
 33
0.0
 14
178.215628375079
 24
70.68892059869561
 34
0.0
100
AcDbRotatedDimension
  0
DIMENSION
  5
101
102
{ACAD_XDICTIONARY
360
102
102
}
102
{ACAD_REACTORS
330
103
102
}
330
2
100
AcDbEntity
  8
DIM
100
AcDbDimension
  2
*D42
 10
123.8245326239465
 20
55.18892059869564
 30
0.0
 11
123.8245326239465
 21
81.1494405749627
 31
0.0
 70
   160
  1
\A1;{\f??|b0|i0|c0|p49;%%C8\H0.7x;\S+0^ -0.015;\H1.429x;(h7)}
  3
STANDARD
100
AcDbAlignedDimension
 13
146.215628375079
 23
47.18892059869562
 33
0.0
 14
158.2156283750791
 24
55.18892059869563
 34
0.0
 50
90.0
100
AcDbRotatedDimension
  0
CIRCLE
  5
112
330
2
100
AcDbEntity
  8
0
100
AcDbCircle
 10
46.41371386077843
 20
51.18892059870177
 30
0.0
 40
12.0
  0
LINE
  5
113
330
2
100
AcDbEntity
  8
0
100
AcDbLine
 10
76.41371386077117
 20
66.18892059870086
 30
0.0
 11
76.41371386077117
 21
16.18892059870177
 31
0.0
  0
CIRCLE
  5
114
330
2
100
AcDbEntity
  8
0
100
AcDbCircle
 10
46.41371386077117
 20
40.9316559974377
 30
0.0
 40
27.0
  0
LINE
  5
115
330
2
100
AcDbEntity
  8
0
100
AcDbLine
 10
16.41371386077116
 20
66.18892059870086
 30
0.0
 11
16.41371386077116
 21
16.18892059870177
 31
0.0
  0
DIMENSION
  5
116
102
{ACAD_XDICTIONARY
360
117
102
}
102
{ACAD_REACTORS
330
118
102
}
330
2
100
AcDbEntity
  8
0
100
AcDbDimension
  2
*D32
 10
16.67180295064308
 20
22.7384806198278
 30
0.0
 11
90.78378911650174
 21
68.71396473043455
 31
0.0
 70
   163
  1
<>%%p0.5
  3
STANDARD
100
AcDbDiametricDimension
 15
76.15562477091008
 25
59.63936057756524
 35
0.0
 40
0.0
  0
LINE
  5
124
330
2
100
AcDbEntity
  8
CEN
  6
CENTER
 48
0.6
100
AcDbLine
 10
46.41371386077843
 20
6.188920598695631
 30
0.0
 11
46.41371386077843
 21
110.2587518666919
 31
0.0
  0
ARC
  5
125
330
2
100
AcDbEntity
  8
CEN
 48
0.6
100
AcDbCircle
 10
46.41371386077843
 20
41.18892059869767
 30
0.0
 40
35.0
100
AcDbArc
 50
199.5241366191761
 51
231.1865505975274
  0
LINE
  5
126
330
2
100
AcDbEntity
  8
0
 48
0.6
100
AcDbLine
 10
21.41371386077115
 20
11.18892059870177
 30
0.0
 11
71.41371386077117
 21
11.18892059870177
 31
0.0
  0
ARC
  5
127
330
2
100
AcDbEntity
  8
0
 48
0.6
100
AcDbCircle
 10
21.41371386077115
 20
16.18892059870177
 30
0.0
 40
5.0
100
AcDbArc
 50
180.0
 51
270.0
  0
LINE
  5
128
330
2
100
AcDbEntity
  8
CEN
 62
     1
 48
0.6
100
AcDbLine
 10
23.96307355808676
 20
18.73828029602782
 30
0.0
 11
19.36687948037979
 21
14.14208621831561
 31
0.0
  0
CIRCLE
  5
129
330
2
100
AcDbEntity
  8
0
 48
0.6
100
AcDbCircle
 10
21.66497651923781
 20
16.4401832571716
 30
0.0
 40
2.25
  0
ARC
  5
12A
330
2
100
AcDbEntity
  8
CEN
 62
     1
 48
0.6
100
AcDbCircle
 10
46.41371386077117
 20
41.18892059870177
 30
0.0
 40
35.0
100
AcDbArc
 50
308.03837384979
 51
321.9616261500961
  0
LINE
  5
12B
330
2
100
AcDbEntity
  8
CEN
 62
     1
 48
0.6
100
AcDbLine
 10
68.8643541634392
 20
18.73828029602782
 30
0.0
 11
73.46054824114617
 21
14.14208621831561
 31
0.0
  0
CIRCLE
  5
12C
330
2
100
AcDbEntity
  8
0
 48
0.6
100
AcDbCircle
 10
71.16245120229724
 20
16.4401832571716
 30
0.0
 40
2.25
  0
ARC
  5
12D
330
2
100
AcDbEntity
  8
0
 48
0.6
100
AcDbCircle
 10
71.41371386077117
 20
16.18892059870177
 30
0.0
 40
5.0
100
AcDbArc
 50
270.0
 51
0.0
  0
LWPOLYLINE
  5
12E
330
2
100
AcDbEntity
  8
3
100
AcDbPolyline
 90
        4
 70
     1
 43
0.0
 10
42.28278092582877
 20
-3.721577754075268
 10
45.58278092582987
 20
-3.721577754075268
 10
45.58278092582987
 20
-0.2215777540752697
 10
42.28278092582877
 20
-0.2215777540752697
  0
DIMENSION
  5
130
330
2
100
AcDbEntity
  8
0
100
AcDbDimension
  2
*D34
 10
76.41371386077844
 20
-4.461664119398164
 30
0.0
 11
48.90030557908904
 21
-4.461664119398164
 31
0.0
 70
   160
  1
60
  3
STANDARD
100
AcDbAlignedDimension
 13
16.41371386077844
 23
16.18892059869767
 33
0.0
 14
76.41371386077844
 24
16.18892059869767
 34
0.0
100
AcDbRotatedDimension
  0
TEXT
  5
13D
330
2
100
AcDbEntity
  8
1
  6
BYBLOCK
 62
     0
100
AcDbText
 10
101.959368290987
 20
154.9311338134548
 30
0.0
 40
4.589999999999998
  1
02
 41
0.8
  7
GHS
100
AcDbText
  0
TEXT
  5
13E
330
2
100
AcDbEntity
  8
1
  6
BYBLOCK
 62
     0
100
AcDbText
 10
101.959368290987
 20
164.1111338134525
 30
0.0
 40
4.589999999999998
  1
01
 41
0.8
  7
GHS
100
AcDbText
  0
TEXT
  5
13F
330
2
100
AcDbEntity
  8
1
  6
BYBLOCK
 62
     0
100
AcDbText
 10
101.5012198394269
 20
173.0382816133796
 30
0.0
 40
4.589999999999998
  1
NO.
 41
0.8
  7
GHS
100
AcDbText
  0
ARC
  5
140
102
{ACAD_REACTORS
330
146
102
}
330
2
100
AcDbEntity
  8
0
 48
0.6
100
AcDbCircle
 10
59.46088080626942
 20
216.3503146211385
 30
0.0
 40
5.0
100
AcDbArc
 50
180.0
 51
270.0
  0
ARC
  5
141
330
2
100
AcDbEntity
  8
0
 48
0.6
100
AcDbCircle
 10
109.4608808062694
 20
216.3503146211385
 30
0.0
 40
5.0
100
AcDbArc
 50
270.0
 51
0.0
  0
LINE
  5
142
330
2
100
AcDbEntity
  8
0
 48
0.6
100
AcDbLine
 10
59.46088080626942
 20
211.3503146211384
 30
0.0
 11
109.4608808062694
 21
211.3503146211384
 31
0.0
  0
LWPOLYLINE
  5
143
330
2
100
AcDbEntity
  8
3
100
AcDbPolyline
 90
        4
 70
     1
 43
0.0
 10
79.92122524442855
 20
199.0654007705595
 10
83.22122524442784
 20
199.0654007705595
 10
83.22122524442784
 20
202.5654007705595
 10
79.92122524442855
 20
202.5654007705595
  0
DIMENSION
  5
144
102
{ACAD_XDICTIONARY
360
145
102
}
102
{ACAD_REACTORS
330
146
102
}
330
2
100
AcDbEntity
  8
0
 48
0.6
100
AcDbDimension
  2
*D41
 10
114.4608808062693
 20
198.3219937007545
 30
0.0
 11
86.5056272351194
 21
198.3219937007545
 31
0.0
 70
   160
  3
STANDARD
100
AcDbAlignedDimension
 13
54.46088080626942
 23
216.3503146211385
 33
0.0
 14
114.4608808062693
 24
216.3503146211385
 34
0.0
100
AcDbRotatedDimension
  0
TEXT
  5
153
330
2
100
AcDbEntity
  8
1
 62
     0
100
AcDbText
 10
93.83181860273909
 20
185.5569076743776
 30
0.0
 40
4.589999999999998
  1
DIMENSION TABLE
 41
0.8
  7
GHS
100
AcDbText
  0
LINE
  5
154
330
2
100
AcDbEntity
  8
1
  6
BYBLOCK
 62
     0
100
AcDbLine
 10
93.16982810851914
 20
184.4611577636178
 30
0.0
 11
142.8352659207394
 21
184.4611577636178
 31
0.0
  0
LINE
  5
155
330
2
100
AcDbEntity
  8
1
  6
BYBLOCK
 62
     0
100
AcDbLine
 10
93.16982810851914
 20
183.7321258026207
 30
0.0
 11
142.8352659207394
 21
183.7321258026207
 31
0.0
  0
LINE
  5
156
330
2
100
AcDbEntity
  8
1
  6
BYBLOCK
 62
     0
100
AcDbLine
 10
93.16982810851914
 20
183.5071258026216
 30
0.0
 11
142.8352659207394
 21
183.5071258026216
 31
0.0
  0
TEXT
  5
157
330
2
100
AcDbEntity
  8
1
  6
BYBLOCK
 62
     0
100
AcDbText
 10
127.4799271282881
 20
163.8565538445516
 30
0.0
 40
4.589999999999998
  1
30
100
AcDbText
  0
TEXT
  5
158
330
2
100
AcDbEntity
  8
1
  6
BYBLOCK
 62
     0
100
AcDbText
 10
127.4799271282881
 20
154.6765538445505
 30
0.0
 40
4.589999999999998
  1
40
100
AcDbText
  0
TEXT
  5
159
330
2
100
AcDbEntity
  8
1
  6
BYBLOCK
 62
     0
100
AcDbText
 10
129.3287279339982
 20
172.8700837004348
 30
0.0
 40
4.589999999999998
  1
L
 41
0.8
  7
GHS
100
AcDbText
  0
LINE
  5
15A
330
2
100
AcDbEntity
  8
1
  6
BYBLOCK
 62
     0
100
AcDbLine
 10
93.9400946790465
 20
180.0494688874096
 30
0.0
 11
93.9400946790465
 21
152.5094688874087
 31
0.0
  0
LINE
  5
15B
330
2
100
AcDbEntity
  8
1
  6
BYBLOCK
 62
     0
100
AcDbLine
 10
117.7568778769782
 20
180.0494688874096
 30
0.0
 11
117.7568778769782
 21
152.5094688874087
 31
0.0
  0
LINE
  5
15C
330
2
100
AcDbEntity
  8
1
  6
BYBLOCK
 62
     0
100
AcDbLine
 10
147.4499118625699
 20
180.0494688874096
 30
0.0
 11
147.4499118625699
 21
152.5094688874087
 31
0.0
  0
DIMENSION
  5
15D
102
{ACAD_XDICTIONARY
360
15E
102
}
102
{ACAD_REACTORS
330
15F
102
}
330
2
100
AcDbEntity
  8
0
100
AcDbDimension
  2
*D40
 10
67.41371386077844
 20
114.5118568156566
 30
0.0
 11
46.41371386077843
 21
114.5118568156566
 31
0.0
 70
   160
  3
STANDARD
100
AcDbAlignedDimension
 13
25.41371386077844
 23
102.6889125986985
 33
0.0
 14
67.41371386077844
 24
102.6889125986985
 34
0.0
100
AcDbRotatedDimension
  0
LINE
  5
16C
330
2
100
AcDbEntity
  8
0
100
AcDbLine
 10
65.17555886077025
 20
104.9270685986978
 30
0.0
 11
64.41371386077117
 21
105.6889125986985
 31
0.0
  0
LINE
  5
16D
330
2
100
AcDbEntity
  8
0
100
AcDbLine
 10
66.71371386077044
 20
102.6889125986985
 30
0.0
 11
66.71371386077044
 21
103.6610265986968
 31
0.0
  0
ARC
  5
16E
330
2
100
AcDbEntity
  8
0
100
AcDbCircle
 10
65.71371386077771
 20
103.6610265986968
 30
0.0
 40
1.0
100
AcDbArc
 50
0.0
 51
63.25631599996061
  0
LINE
  5
16F
330
2
100
AcDbEntity
  8
0
100
AcDbLine
 10
67.41371386077844
 20
102.6889125986985
 30
0.0
 11
66.71371386077044
 21
103.3889125986977
 31
0.0
  0
LINE
  5
170
330
2
100
AcDbEntity
  8
0
100
AcDbLine
 10
60.41371386077845
 20
105.6889125986985
 30
0.0
 11
60.67617986077856
 21
102.6889125986985
 31
0.0
  0
ARC
  5
171
330
2
100
AcDbEntity
  8
0
100
AcDbCircle
 10
62.11371386077735
 20
103.6610265986968
 30
0.0
 40
1.0
100
AcDbArc
 50
116.7436840000394
 51
180.0
  0
LINE
  5
172
330
2
100
AcDbEntity
  8
0
100
AcDbLine
 10
61.11371386077735
 20
102.6889125986985
 30
0.0
 11
61.11371386077735
 21
103.6610265986968
 31
0.0
  0
ARC
  5
173
330
2
100
AcDbEntity
  8
0
100
AcDbCircle
 10
63.91371386077843
 20
100.0889125986976
 30
0.0
 40
5.0
100
AcDbArc
 50
63.25631599996061
 51
116.7436840000394
  0
LINE
  5
174
330
2
100
AcDbEntity
  8
0
100
AcDbLine
 10
67.41371386077844
 20
84.68891259869861
 30
0.0
 11
25.41371386077844
 21
84.68891259869861
 31
0.0
  0
LINE
  5
175
330
2
100
AcDbEntity
  8
0
100
AcDbLine
 10
67.41371386077844
 20
102.6889125986985
 30
0.0
 11
25.41371386077844
 21
102.6889125986985
 31
0.0
  0
LINE
  5
176
330
2
100
AcDbEntity
  8
0
100
AcDbLine
 10
64.41371386077117
 20
105.6889125986985
 30
0.0
 11
28.41371386077844
 21
105.6889125986985
 31
0.0
  0
LINE
  5
177
330
2
100
AcDbEntity
  8
0
100
AcDbLine
 10
32.41371386077844
 20
105.6889125986985
 30
0.0
 11
32.1512478607783
 21
102.6889125986985
 31
0.0
  0
LINE
  5
178
330
2
100
AcDbEntity
  8
0
100
AcDbLine
 10
31.71371386077044
 20
102.6889125986985
 30
0.0
 11
31.71371386077044
 21
103.6610265986968
 31
0.0
  0
ARC
  5
179
330
2
100
AcDbEntity
  8
0
100
AcDbCircle
 10
30.71371386077044
 20
103.6610265986968
 30
0.0
 40
1.0
100
AcDbArc
 50
0.0
 51
63.25631599996061
  0
LINE
  5
17A
330
2
100
AcDbEntity
  8
0
100
AcDbLine
 10
26.11371386077735
 20
102.6889125986985
 30
0.0
 11
26.11371386077735
 21
103.6610265986968
 31
0.0
  0
LINE
  5
17B
330
2
100
AcDbEntity
  8
0
100
AcDbLine
 10
26.11371386077735
 20
103.3889125986977
 30
0.0
 11
25.41371386077844
 21
102.6889125986985
 31
0.0
  0
ARC
  5
17C
330
2
100
AcDbEntity
  8
0
100
AcDbCircle
 10
27.11371386077007
 20
103.6610265986968
 30
0.0
 40
1.0
100
AcDbArc
 50
116.7436840000394
 51
180.0
  0
LINE
  5
17D
102
{ACAD_REACTORS
330
1B1
102
}
330
2
100
AcDbEntity
  8
0
100
AcDbLine
 10
28.41371386077844
 20
105.6889125986985
 30
0.0
 11
27.65186986077788
 21
104.9270685986978
 31
0.0
  0
ARC
  5
17E
330
2
100
AcDbEntity
  8
0
100
AcDbCircle
 10
28.91371386077844
 20
100.0889125986976
 30
0.0
 40
5.0
100
AcDbArc
 50
63.25631599996061
 51
116.7436840000394
  0
LINE
  5
17F
330
2
100
AcDbEntity
  8
0
100
AcDbLine
 10
21.41371386077115
 20
71.18892059870086
 30
0.0
 11
71.41371386077117
 21
71.18892059870086
 31
0.0
  0
LINE
  5
180
330
2
100
AcDbEntity
  8
CEN
 48
0.6
100
AcDbLine
 10
23.96307355808676
 20
68.23575497908564
 30
0.0
 11
19.36687948037979
 21
63.63956090137254
 31
0.0
  0
LINE
  5
181
330
2
100
AcDbEntity
  8
CEN
 48
0.6
100
AcDbLine
 10
23.96307355808676
 20
63.63956090137254
 30
0.0
 11
19.36687948037979
 21
68.23575497908769
 31
0.0
  0
ARC
  5
182
330
2
100
AcDbEntity
  8
0
 48
0.6
100
AcDbCircle
 10
21.41371386077115
 20
66.18892059870086
 30
0.0
 40
5.0
100
AcDbArc
 50
90.0
 51
180.0
  0
CIRCLE
  5
183
330
2
100
AcDbEntity
  8
0
 48
0.6
100
AcDbCircle
 10
21.66497651923781
 20
65.93765794022875
 30
0.0
 40
2.25
  0
LINE
  5
184
330
2
100
AcDbEntity
  8
0
100
AcDbLine
 10
43.05961189452136
 20
54.18892059870085
 30
0.0
 11
49.76781582702097
 21
54.18892059870085
 31
0.0
  0
LINE
  5
185
330
2
100
AcDbEntity
  8
CEN
  6
CENTER
 48
0.6
100
AcDbLine
 10
59.43534014053875
 20
51.18892059870177
 30
0.0
 11
33.39208758101995
 21
51.18892059870177
 31
0.0
  0
CIRCLE
  5
186
330
2
100
AcDbEntity
  8
0
100
AcDbCircle
 10
46.41371386077117
 20
51.18892059870177
 30
0.0
 40
4.5
  0
LINE
  5
187
330
2
100
AcDbEntity
  8
CEN
 48
0.6
100
AcDbLine
 10
68.8643541634392
 20
63.63956090137254
 30
0.0
 11
73.46054824114617
 21
68.23575497908564
 31
0.0
  0
CIRCLE
  5
188
330
2
100
AcDbEntity
  8
0
 48
0.6
100
AcDbCircle
 10
71.16245120229724
 20
65.93765794022875
 30
0.0
 40
2.25
  0
ARC
  5
189
102
{ACAD_REACTORS
330
118
102
}
330
2
100
AcDbEntity
  8
CEN
 48
0.6
100
AcDbCircle
 10
46.41371386077843
 20
41.18892059869767
 30
0.0
 40
35.0
100
AcDbArc
 50
21.71935007262012
 51
51.18655059752748
  0
LINE
  5
18A
330
2
100
AcDbEntity
  8
CEN
 48
0.6
100
AcDbLine
 10
11.41371386077843
 20
41.18892059869563
 30
0.0
 11
81.41371386077844
 21
41.18892059869563
 31
0.0
  0
ARC
  5
18B
330
2
100
AcDbEntity
  8
0
 48
0.6
100
AcDbCircle
 10
71.41371386077117
 20
66.18892059870086
 30
0.0
 40
5.0
100
AcDbArc
 50
0.0
 51
90.0
  0
LINE
  5
18C
102
{ACAD_REACTORS
330
18F
330
F4
102
}
330
2
100
AcDbEntity
  8
0
100
AcDbLine
 10
146.215628375079
 20
54.18892059869563
 30
0.0
 11
146.215628375079
 21
47.18892059869562
 31
0.0
  0
DIMENSION
  5
18D
102
{ACAD_XDICTIONARY
360
18E
102
}
102
{ACAD_REACTORS
330
18F
102
}
330
2
100
AcDbEntity
  8
0
100
AcDbDimension
  2
*D39
 10
133.3428258654967
 20
47.18892059869562
 30
0.0
 11
133.3428258654967
 21
66.84409734561677
 31
0.0
 70
   160
  3
STANDARD
100
AcDbAlignedDimension
 13
146.215628375079
 23
54.18892059869563
 33
0.0
 14
146.215628375079
 24
47.18892059869562
 34
0.0
 50
90.0
100
AcDbRotatedDimension
  0
DIMENSION
  5
19E
102
{ACAD_XDICTIONARY
360
19F
102
}
102
{ACAD_REACTORS
330
1A0
102
}
330
2
100
AcDbEntity
  8
DIM
100
AcDbDimension
  2
*D38
 10
114.9144467979386
 20
41.18892059869563
 30
0.0
 11
114.9144467979384
 21
46.18892059869563
 31
0.0
 70
   160
  3
STANDARD
100
AcDbAlignedDimension
 13
142.3174895738465
 23
51.18892059869563
 33
0.0
 14
141.523054781579
 24
41.18892059869563
 34
0.0
 50
90.0
100
AcDbRotatedDimension
  0
LINE
  5
1AD
102
{ACAD_REACTORS
330
15F
102
}
330
2
100
AcDbEntity
  8
0
100
AcDbLine
 10
67.41371386077844
 20
71.18892959869686
 30
0.0
 11
67.41371386077844
 21
102.6889125986985
 31
0.0
  0
LINE
  5
1AE
102
{ACAD_REACTORS
330
15F
102
}
330
2
100
AcDbEntity
  8
0
100
AcDbLine
 10
25.41371386077844
 20
71.18892959869686
 30
0.0
 11
25.41371386077844
 21
102.6889125986985
 31
0.0
  0
DIMENSION
  5
1AF
102
{ACAD_XDICTIONARY
360
1B0
102
}
102
{ACAD_REACTORS
330
1B1
102
}
330
2
100
AcDbEntity
  8
0
100
AcDbDimension
  2
*D59
 10
7.167654367156518
 20
105.6889125986985
 30
0.0
 11
7.1676543671565
 21
88.43891659869768
 31
0.0
 70
   160
  3
STANDARD
100
AcDbAlignedDimension
 13
21.41371386077844
 23
71.18892059869769
 33
0.0
 14
28.41371386077844
 24
105.6889125986985
 34
0.0
 50
90.0
100
AcDbRotatedDimension
  0
LINE
  5
1BE
102
{ACAD_REACTORS
330
240
102
}
330
2
100
AcDbEntity
  8
0
100
AcDbLine
 10
175.215628375079
 20
62.68892059869563
 30
0.0
 11
175.215628375079
 21
39.68892059869563
 31
0.0
  0
LINE
  5
1BF
102
{ACAD_REACTORS
330
1D6
102
}
330
2
100
AcDbEntity
  8
0
100
AcDbLine
 10
178.215628375079
 20
70.68892059869561
 30
0.0
 11
178.215628375079
 21
11.68892059869563
 31
0.0
  0
LINE
  5
1C0
102
{ACAD_REACTORS
330
1D6
102
}
330
2
100
AcDbEntity
  8
0
100
AcDbLine
 10
218.215628375079
 20
71.18892059869769
 30
0.0
 11
218.215628375079
 21
11.18892059869563
 31
0.0
  0
LINE
  5
1C1
330
2
100
AcDbEntity
  8
0
100
AcDbLine
 10
224.3156283750794
 20
71.18892059869769
 30
0.0
 11
224.3156283750794
 21
11.18892059869563
 31
0.0
  0
LINE
  5
1C2
330
2
100
AcDbEntity
  8
0
100
AcDbLine
 10
292.2156283750791
 20
69.68892059869563
 30
0.0
 11
292.2156283750791
 21
12.68892059869563
 31
0.0
  0
LINE
  5
1C3
330
2
100
AcDbEntity
  8
0
100
AcDbLine
 10
293.2156283750791
 20
68.68892059869563
 30
0.0
 11
293.2156283750791
 21
13.68892059869563
 31
0.0
  0
LINE
  5
1C4
102
{ACAD_REACTORS
330
1C7
102
}
330
2
100
AcDbEntity
  8
0
100
AcDbLine
 10
286.2156283750791
 20
11.18892059869563
 30
0.0
 11
286.2156283750791
 21
71.18892059869562
 31
0.0
  0
DIMENSION
  5
1C5
102
{ACAD_XDICTIONARY
360
1C6
102
}
102
{ACAD_REACTORS
330
1C7
102
}
330
2
100
AcDbEntity
  8
0
100
AcDbDimension
  2
*D31
 10
305.4273895061686
 20
11.18892059869561
 30
0.0
 11
305.4273895061686
 21
41.18892059869563
 31
0.0
 70
   160
  1
%%C<>
  3
STANDARD
100
AcDbAlignedDimension
 13
286.2156283750791
 23
71.18892059869562
 33
0.0
 14
286.2156283750791
 24
11.18892059869563
 34
0.0
 50
90.0
100
AcDbRotatedDimension
  0
DIMENSION
  5
1D4
102
{ACAD_XDICTIONARY
360
1D5
102
}
102
{ACAD_REACTORS
330
1D6
102
}
330
2
100
AcDbEntity
  8
0
100
AcDbDimension
  2
*D36
 10
218.215628375079
 20
-1.562174323524231
 30
0.0
 11
199.6058162861882
 21
-1.562174323524231
 31
0.0
 70
   160
  1
L
  3
STANDARD
100
AcDbAlignedDimension
 13
178.215628375079
 23
11.68892059869563
 33
0.0
 14
218.215628375079
 24
11.18892059869563
 34
0.0
100
AcDbRotatedDimension
  0
LINE
  5
1E3
330
2
100
AcDbEntity
  8
0
100
AcDbLine
 10
178.7156283750791
 20
11.18892059869766
 30
0.0
 11
224.3156283750794
 21
11.18892059869563
 31
0.0
  0
ARC
  5
1E4
330
2
100
AcDbEntity
  8
0
100
AcDbCircle
 10
178.7156283750791
 20
11.68892059869563
 30
0.0
 40
0.5
100
AcDbArc
 50
180.0
 51
270.0
  0
LINE
  5
1E5
330
2
100
AcDbEntity
  8
0
100
AcDbLine
 10
175.7156283750791
 20
39.18892059869563
 30
0.0
 11
178.215628375079
 21
39.18892059869563
 31
0.0
  0
ARC
  5
1E6
330
2
100
AcDbEntity
  8
0
100
AcDbCircle
 10
175.7156283750791
 20
39.68892059869563
 30
0.0
 40
0.5
100
AcDbArc
 50
180.0
 51
270.0
  0
DIMENSION
  5
1E7
102
{ACAD_XDICTIONARY
360
1E8
102
}
102
{ACAD_REACTORS
330
1E9
102
}
330
2
100
AcDbEntity
  8
0
100
AcDbDimension
  2
*D35
 10
293.2156283750791
 20
-1.562174323524231
 30
0.0
 11
237.2404221854794
 21
-1.562174323524231
 31
0.0
 70
   160
  3
STANDARD
100
AcDbAlignedDimension
 13
218.215628375079
 23
11.6889205986938
 33
0.0
 14
293.2156283750791
 24
13.68892059869563
 34
0.0
100
AcDbRotatedDimension
  0
LINE
  5
1F6
102
{ACAD_REACTORS
330
1C7
102
}
330
2
100
AcDbEntity
  8
0
100
AcDbLine
 10
286.2156283750791
 20
11.18892059869563
 30
0.0
 11
224.3156283750794
 21
11.18892059869563
 31
0.0
  0
LINE
  5
1F7
330
2
100
AcDbEntity
  8
0
100
AcDbLine
 10
225.2156283750792
 20
20.29018325716673
 30
0.0
 11
225.2156283750792
 21
12.59018325716761
 31
0.0
  0
LINE
  5
1F8
330
2
100
AcDbEntity
  8
0
100
AcDbLine
 10
224.3156283750794
 20
12.59018325716761
 30
0.0
 11
225.2156283750792
 21
12.59018325716761
 31
0.0
  0
LINE
  5
1F9
330
2
100
AcDbEntity
  8
0
100
AcDbLine
 10
224.3156283750794
 20
20.29018325716673
 30
0.0
 11
225.2156283750792
 21
20.29018325716673
 31
0.0
  0
LINE
  5
1FA
102
{ACAD_REACTORS
330
1E9
102
}
330
2
100
AcDbEntity
  8
0
100
AcDbLine
 10
293.2156283750791
 20
13.68892059869563
 30
0.0
 11
292.2156283750791
 21
12.68892059869563
 31
0.0
  0
LINE
  5
1FB
330
2
100
AcDbEntity
  8
0
100
AcDbLine
 10
292.2156283750791
 20
12.68892059869563
 30
0.0
 11
286.2156283750791
 21
12.68892059869563
 31
0.0
  0
DIMENSION
  5
1FC
102
{ACAD_XDICTIONARY
360
1FD
102
}
102
{ACAD_REACTORS
330
1FE
102
}
330
2
100
AcDbEntity
  8
0
100
AcDbDimension
  2
*D46
 10
211.5624439756702
 20
198.5543002395138
 30
0.0
 11
231.5624439756701
 21
201.0543002395138
 31
0.0
 70
    32
  1
L
  3
STANDARD
100
AcDbAlignedDimension
 13
251.5624439756702
 23
211.8503146211399
 33
0.0
 14
211.5624439756702
 24
211.8503146211399
 34
0.0
 50
180.0
100
AcDbRotatedDimension
  0
ARC
  5
20B
330
2
100
AcDbEntity
  8
0
100
AcDbCircle
 10
212.0624439756702
 20
211.8503146211399
 30
0.0
 40
0.5
100
AcDbArc
 50
180.0
 51
270.0
  0
LINE
  5
20C
330
2
100
AcDbEntity
  8
0
100
AcDbLine
 10
250.5624439756701
 20
211.3503146211384
 30
0.0
 11
212.0624439756702
 21
211.3503146211384
 31
0.0
  0
LINE
  5
20D
330
2
100
AcDbEntity
  8
0
100
AcDbLine
 10
250.5624439756701
 20
211.8503146211399
 30
0.0
 11
250.5624439756701
 21
211.3503146211384
 31
0.0
  0
LINE
  5
20E
330
2
100
AcDbEntity
  8
0
100
AcDbLine
 10
251.5624439756702
 20
211.8503146211399
 30
0.0
 11
250.5624439756701
 21
211.8503146211399
 31
0.0
  0
LINE
  5
20F
330
2
100
AcDbEntity
  8
1
  6
BYBLOCK
 62
     0
100
AcDbLine
 10
215.6084179643894
 20
180.0494688874096
 30
0.0
 11
215.6084179643894
 21
152.5094688874087
 31
0.0
  0
LINE
  5
210
330
2
100
AcDbEntity
  8
0
100
AcDbLine
 10
231.3156283750795
 20
105.6889125986985
 30
0.0
 11
231.0531623750794
 21
102.6889125986985
 31
0.0
  0
LINE
  5
211
330
2
100
AcDbEntity
  8
0
100
AcDbLine
 10
259.3156283750794
 20
105.6889125986985
 30
0.0
 11
259.5780943750796
 21
102.6889125986985
 31
0.0
  0
ARC
  5
212
330
2
100
AcDbEntity
  8
0
100
AcDbCircle
 10
226.0156283750801
 20
103.6610265986987
 30
0.0
 40
1.0
100
AcDbArc
 50
116.7436840000394
 51
180.0
  0
LINE
  5
213
330
2
100
AcDbEntity
  8
0
100
AcDbLine
 10
225.0156283750802
 20
102.6889125986985
 30
0.0
 11
225.0156283750802
 21
103.6610265986987
 31
0.0
  0
ARC
  5
214
330
2
100
AcDbEntity
  8
0
100
AcDbCircle
 10
229.6156283750788
 20
103.6610265986987
 30
0.0
 40
1.0
100
AcDbArc
 50
0.0
 51
63.25631599996061
  0
LINE
  5
215
330
2
100
AcDbEntity
  8
0
100
AcDbLine
 10
230.6156283750788
 20
102.6889125986985
 30
0.0
 11
230.6156283750788
 21
103.6610265986987
 31
0.0
  0
ARC
  5
216
330
2
100
AcDbEntity
  8
0
100
AcDbCircle
 10
227.8156283750794
 20
100.0889125986976
 30
0.0
 40
5.0
100
AcDbArc
 50
63.25631599996061
 51
116.7436840000394
  0
LINE
  5
217
330
2
100
AcDbEntity
  8
0
100
AcDbLine
 10
226.5537833750804
 20
104.9270685986978
 30
0.0
 11
227.3156283750795
 21
105.6889125986985
 31
0.0
  0
LINE
  5
218
330
2
100
AcDbEntity
  8
0
100
AcDbLine
 10
224.3156283750794
 20
102.6889125986985
 30
0.0
 11
225.0156283750802
 21
103.3889125986977
 31
0.0
  0
LINE
  5
219
330
2
100
AcDbEntity
  8
0
100
AcDbLine
 10
274.3156283750794
 20
99.43891259869859
 30
0.0
 11
274.3156283750794
 21
91.93891259869859
 31
0.0
  0
LINE
  5
21A
330
2
100
AcDbEntity
  8
0
100
AcDbLine
 10
270.3156283750794
 20
84.68891259869861
 30
0.0
 11
270.3156283750794
 21
101.6889125986985
 31
0.0
  0
LINE
  5
21B
330
2
100
AcDbEntity
  8
0
100
AcDbLine
 10
268.3156283750794
 20
84.68891259869861
 30
0.0
 11
268.3156283750794
 21
103.1889125986986
 31
0.0
  0
LINE
  5
21C
330
2
100
AcDbEntity
  8
0
100
AcDbLine
 10
274.3156283750794
 20
91.93891259869859
 30
0.0
 11
270.3156283750794
 21
90.68891259869859
 31
0.0
  0
LINE
  5
21D
330
2
100
AcDbEntity
  8
0
100
AcDbLine
 10
224.3156283750794
 20
84.68891259869861
 30
0.0
 11
270.3156283750794
 21
84.68891259869861
 31
0.0
  0
ARC
  5
21E
330
2
100
AcDbEntity
  8
0
100
AcDbCircle
 10
261.0156283750802
 20
103.6610265986987
 30
0.0
 40
1.0
100
AcDbArc
 50
116.7436840000394
 51
180.0
  0
LINE
  5
21F
330
2
100
AcDbEntity
  8
0
100
AcDbLine
 10
260.0156283750802
 20
102.6889125986985
 30
0.0
 11
260.0156283750802
 21
103.6610265986987
 31
0.0
  0
LINE
  5
220
330
2
100
AcDbEntity
  8
0
100
AcDbLine
 10
263.3156283750794
 20
105.6889125986985
 30
0.0
 11
264.0774723750801
 21
104.9270685986978
 31
0.0
  0
LINE
  5
221
330
2
100
AcDbEntity
  8
0
100
AcDbLine
 10
267.8156283750794
 20
103.6889125986985
 30
0.0
 11
265.6156283750788
 21
103.6889125986985
 31
0.0
  0
ARC
  5
222
330
2
100
AcDbEntity
  8
0
100
AcDbCircle
 10
267.8156283750794
 20
103.1889125986986
 30
0.0
 40
0.5
100
AcDbArc
 50
0.0
 51
90.0
  0
ARC
  5
223
330
2
100
AcDbEntity
  8
0
100
AcDbCircle
 10
264.6156283750788
 20
103.6610265986987
 30
0.0
 40
1.0
100
AcDbArc
 50
0.0
 51
63.25631599996061
  0
LINE
  5
224
330
2
100
AcDbEntity
  8
0
100
AcDbLine
 10
265.6156283750788
 20
102.6889125986985
 30
0.0
 11
265.6156283750788
 21
103.6610265986987
 31
0.0
  0
LINE
  5
225
330
2
100
AcDbEntity
  8
0
100
AcDbLine
 10
265.6156283750788
 20
103.3889125986977
 30
0.0
 11
266.3156283750794
 21
102.6889125986985
 31
0.0
  0
LINE
  5
226
330
2
100
AcDbEntity
  8
0
100
AcDbLine
 10
274.3156283750794
 20
99.43891259869859
 30
0.0
 11
270.3156283750794
 21
100.6889125986985
 31
0.0
  0
ARC
  5
227
330
2
100
AcDbEntity
  8
0
100
AcDbCircle
 10
269.3156283750794
 20
101.6889125986985
 30
0.0
 40
1.0
100
AcDbArc
 50
0.0
 51
90.0
  0
LINE
  5
228
330
2
100
AcDbEntity
  8
0
100
AcDbLine
 10
269.3156283750794
 20
102.6889125986985
 30
0.0
 11
268.3156283750794
 21
102.6889125986985
 31
0.0
  0
ARC
  5
229
330
2
100
AcDbEntity
  8
0
100
AcDbCircle
 10
262.8156283750795
 20
100.0889125986976
 30
0.0
 40
5.0
100
AcDbArc
 50
63.25631599996061
 51
116.7436840000394
  0
LINE
  5
22A
330
2
100
AcDbEntity
  8
0
100
AcDbLine
 10
227.3156283750795
 20
105.6889125986985
 30
0.0
 11
263.3156283750794
 21
105.6889125986985
 31
0.0
  0
LINE
  5
22B
330
2
100
AcDbEntity
  8
0
100
AcDbLine
 10
224.3156283750794
 20
102.6889125986985
 30
0.0
 11
266.3156283750794
 21
102.6889125986985
 31
0.0
  0
DIMENSION
  5
22C
102
{ACAD_XDICTIONARY
360
22D
102
}
102
{ACAD_REACTORS
330
22E
102
}
330
2
100
AcDbEntity
  8
0
100
AcDbDimension
  2
*D45
 10
266.3156283750794
 20
120.0297199454015
 30
0.0
 11
244.1966046152373
 21
120.0297199454015
 31
0.0
 70
   160
  3
STANDARD
100
AcDbAlignedDimension
 13
224.3156283750794
 23
102.6889125986985
 33
0.0
 14
266.3156283750794
 24
102.6889125986985
 34
0.0
100
AcDbRotatedDimension
  0
LINE
  5
23B
330
2
100
AcDbEntity
  8
CEN
 48
0.6
100
AcDbLine
 10
296.7029334257293
 20
41.18892059869563
 30
0.0
 11
201.7702109333566
 21
41.18892059869563
 31
0.0
  0
LINE
  5
23C
330
2
100
AcDbEntity
  8
0
100
AcDbLine
 10
178.7156283750791
 20
71.18892059869562
 30
0.0
 11
224.3156283750794
 21
71.18892059869769
 31
0.0
  0
ARC
  5
23D
330
2
100
AcDbEntity
  8
0
100
AcDbCircle
 10
178.7156283750791
 20
70.68892059869561
 30
0.0
 40
0.5
100
AcDbArc
 50
90.0
 51
180.0
  0
DIMENSION
  5
23E
102
{ACAD_XDICTIONARY
360
23F
102
}
102
{ACAD_REACTORS
330
240
102
}
330
2
100
AcDbEntity
  8
0
100
AcDbDimension
  2
*D44
 10
178.215628375079
 20
79.02035334842594
 30
0.0
 11
176.715628375079
 21
79.02035334842594
 31
0.0
 70
   160
  3
STANDARD
100
AcDbAlignedDimension
 13
175.215628375079
 23
62.68892059869563
 33
0.0
 14
178.215628375079
 24
70.68892059869561
 34
0.0
100
AcDbRotatedDimension
  0
LINE
  5
24F
330
2
100
AcDbEntity
  8
0
100
AcDbLine
 10
175.7156283750791
 20
63.18892059869563
 30
0.0
 11
178.215628375079
 21
63.18892059869563
 31
0.0
  0
ARC
  5
250
330
2
100
AcDbEntity
  8
0
100
AcDbCircle
 10
178.7156283750791
 20
70.68892059869561
 30
0.0
 40
0.5
100
AcDbArc
 50
90.0
 51
180.0
  0
ARC
  5
251
330
2
100
AcDbEntity
  8
0
100
AcDbCircle
 10
175.7156283750791
 20
62.68892059869563
 30
0.0
 40
0.5
100
AcDbArc
 50
90.0
 51
180.0
  0
LINE
  5
252
102
{ACAD_REACTORS
330
D5
102
}
330
2
100
AcDbEntity
  8
0
100
AcDbLine
 10
158.2156283750791
 20
55.18892059869563
 30
0.0
 11
158.2156283750791
 21
54.18892059869563
 31
0.0
  0
LINE
  5
253
102
{ACAD_REACTORS
330
103
102
}
330
2
100
AcDbEntity
  8
0
100
AcDbLine
 10
175.215628375079
 20
55.18892059869563
 30
0.0
 11
158.2156283750791
 21
55.18892059869563
 31
0.0
  0
LINE
  5
254
330
2
100
AcDbEntity
  8
0
100
AcDbLine
 10
286.2156283750791
 20
71.18892059869562
 30
0.0
 11
224.3156283750794
 21
71.18892059869769
 31
0.0
  0
LINE
  5
255
330
2
100
AcDbEntity
  8
0
100
AcDbLine
 10
266.3156283750794
 20
62.83738259869688
 30
0.0
 11
225.2156283750792
 21
62.83738259869688
 31
0.0
  0
LINE
  5
256
330
2
100
AcDbEntity
  8
0
100
AcDbLine
 10
225.2156283750792
 20
62.08765794022589
 30
0.0
 11
225.2156283750792
 21
69.7876579402257
 31
0.0
  0
LINE
  5
257
330
2
100
AcDbEntity
  8
0
100
AcDbLine
 10
224.3156283750794
 20
62.08765794022589
 30
0.0
 11
225.2156283750792
 21
62.08765794022589
 31
0.0
  0
LINE
  5
258
330
2
100
AcDbEntity
  8
0
100
AcDbLine
 10
224.3156283750794
 20
69.7876579402257
 30
0.0
 11
225.2156283750792
 21
69.7876579402257
 31
0.0
  0
LINE
  5
259
330
2
100
AcDbEntity
  8
0
100
AcDbLine
 10
293.2156283750791
 20
68.68892059869563
 30
0.0
 11
292.2156283750791
 21
69.68892059869563
 31
0.0
  0
LINE
  5
25A
330
2
100
AcDbEntity
  8
0
100
AcDbLine
 10
292.2156283750791
 20
69.68892059869563
 30
0.0
 11
286.2156283750791
 21
69.68892059869563
 31
0.0
  0
LINE
  5
25B
102
{ACAD_REACTORS
330
22E
102
}
330
2
100
AcDbEntity
  8
0
100
AcDbLine
 10
224.3156283750794
 20
70.98891359869958
 30
0.0
 11
224.3156283750794
 21
102.6889125986985
 31
0.0
  0
LINE
  5
25C
102
{ACAD_REACTORS
330
22E
102
}
330
2
100
AcDbEntity
  8
0
100
AcDbLine
 10
266.3156283750794
 20
63.13737559869786
 30
0.0
 11
266.3156283750794
 21
102.6889125986985
 31
0.0
  0
DIMENSION
  5
25D
330
2
100
AcDbEntity
  8
0
100
AcDbDimension
  2
*D53
 10
149.2517212377969
 20
239.3503146211386
 30
0.0
 11
146.751721237797
 21
251.3503146211387
 31
0.0
 70
    32
  1
%%c<>
  3
STANDARD
100
AcDbAlignedDimension
 13
209.0624439756701
 23
263.3503146211387
 33
0.0
 14
209.0624439756701
 24
239.3503146211386
 34
0.0
 50
90.0
100
AcDbRotatedDimension
  0
DIMENSION
  5
26A
102
{ACAD_XDICTIONARY
360
26B
102
}
102
{ACAD_REACTORS
330
26C
102
}
330
2
100
AcDbEntity
  8
0
100
AcDbDimension
  2
*D52
 10
157.2999992753065
 20
241.3503146211386
 30
0.0
 11
154.7999992753064
 21
246.3503146211386
 31
0.0
 70
    32
  3
STANDARD
100
AcDbAlignedDimension
 13
175.6643051744377
 23
251.3503146211387
 33
0.0
 14
167.9547708415683
 24
241.3503146211386
 34
0.0
 50
90.0
100
AcDbRotatedDimension
  0
DIMENSION
  5
279
102
{ACAD_XDICTIONARY
360
27A
102
}
102
{ACAD_REACTORS
330
27B
102
}
330
2
100
AcDbEntity
  8
DIM
100
AcDbDimension
  2
*D51
 10
157.2080682207979
 20
315.1330184304826
 30
0.0
 11
157.2080682207979
 21
342.1330184304826
 31
0.0
 70
   160
  1
\A1;%%C<>{\f??|b0|i0|c0|p49;\H0.7x;\S+0^ -0.03;\H1.429x;(h7)} 
  3
STANDARD
100
AcDbAlignedDimension
 13
176.7754001950379
 23
369.1330184304827
 33
0.0
 14
176.7754001950379
 24
315.1330184304826
 34
0.0
 50
90.0
100
AcDbRotatedDimension
  0
LINE
  5
288
330
2
100
AcDbEntity
  8
0
100
AcDbLine
 10
68.27937713152095
 20
372.1330184304826
 30
0.0
 11
118.2793771315209
 21
372.1330184304826
 31
0.0
  0
LWPOLYLINE
  5
289
330
2
100
AcDbEntity
  8
3
100
AcDbPolyline
 90
        4
 70
     1
 43
0.0
 10
86.33111371858831
 20
386.5242025901116
 10
89.6311137185985
 20
386.5242025901116
 10
89.6311137185985
 20
390.0242025901114
 10
86.33111371858831
 20
390.0242025901114
  0
LINE
  5
28A
330
2
100
AcDbEntity
  8
0
100
AcDbLine
 10
63.27937713152095
 20
367.1330184304827
 30
0.0
 11
63.27937713152095
 21
317.1330184304826
 31
0.0
  0
LINE
  5
28B
102
{ACAD_REACTORS
330
2BC
102
}
330
2
100
AcDbEntity
  8
0
100
AcDbLine
 10
123.2793771315209
 20
367.1330184304827
 30
0.0
 11
123.2793771315209
 21
317.1330184304826
 31
0.0
  0
LINE
  5
28C
330
2
100
AcDbEntity
  8
CEN
 48
0.6
100
AcDbLine
 10
58.27937713152095
 20
342.1330184304826
 30
0.0
 11
128.2793771315209
 21
342.1330184304826
 31
0.0
  0
LINE
  5
28D
330
2
100
AcDbEntity
  8
0
100
AcDbLine
 10
68.27937713152095
 20
312.1330184304826
 30
0.0
 11
118.2793771315209
 21
312.1330184304826
 31
0.0
  0
ARC
  5
28E
330
2
100
AcDbEntity
  8
0
100
AcDbCircle
 10
68.27937713152095
 20
317.1330184304826
 30
0.0
 40
5.0
100
AcDbArc
 50
180.0
 51
270.0
  0
ARC
  5
28F
330
2
100
AcDbEntity
  8
CEN
 48
0.6
100
AcDbCircle
 10
93.27937713152095
 20
342.1330184304826
 30
0.0
 40
35.0
100
AcDbArc
 50
199.5241366191914
 51
231.1865505975711
  0
CIRCLE
  5
290
330
2
100
AcDbEntity
  8
0
100
AcDbCircle
 10
68.53063978998943
 20
317.3842810889528
 30
0.0
 40
2.25
  0
LINE
  5
291
330
2
100
AcDbEntity
  8
CEN
 48
0.6
100
AcDbLine
 10
71.53584361002867
 20
320.3894849089958
 30
0.0
 11
65.52543596993746
 21
314.3790772689108
 31
0.0
  0
CIRCLE
  5
292
330
2
100
AcDbEntity
  8
0
100
AcDbCircle
 10
93.27937713152095
 20
342.1330184304826
 30
0.0
 40
2.000000000000054
  0
CIRCLE
  5
293
330
2
100
AcDbEntity
  8
0
100
AcDbCircle
 10
93.27937713152095
 20
342.1330184304826
 30
0.0
 40
3.000000000000055
  0
ARC
  5
294
330
2
100
AcDbEntity
  8
0
100
AcDbCircle
 10
118.2793771315209
 20
317.1330184304826
 30
0.0
 40
5.0
100
AcDbArc
 50
270.0
 51
0.0
  0
CIRCLE
  5
295
330
2
100
AcDbEntity
  8
0
100
AcDbCircle
 10
118.0281144730379
 20
317.3842810889528
 30
0.0
 40
2.25
  0
LINE
  5
296
330
2
100
AcDbEntity
  8
CEN
 48
0.6
100
AcDbLine
 10
115.0229106529967
 20
320.3894849089958
 30
0.0
 11
121.033318293088
 21
314.3790772689108
 31
0.0
  0
ARC
  5
297
330
2
100
AcDbEntity
  8
CEN
 48
0.6
100
AcDbCircle
 10
93.27937713152095
 20
342.1330184304826
 30
0.0
 40
35.0
100
AcDbArc
 50
304.6885525890122
 51
322.9113558998458
  0
CIRCLE
  5
298
330
2
100
AcDbEntity
  8
CEN
 48
0.6
100
AcDbCircle
 10
84.46088080626941
 20
241.3503146211386
 30
0.0
 40
23.0
  0
DIMENSION
  5
299
330
2
100
AcDbEntity
  8
2
100
AcDbDimension
  2
*D56
 10
53.70767351746867
 20
224.6398316403261
 30
0.0
 11
134.0779963521198
 21
268.3109485836406
 31
0.0
 70
   163
  1
<>%%P0.5
  3
STANDARD
100
AcDbDiametricDimension
 15
115.2140880950592
 25
258.0607976019543
 35
0.0
 40
0.0
  0
CIRCLE
  5
2A5
330
2
100
AcDbEntity
  8
0
 48
0.6
100
AcDbCircle
 10
84.46088080626941
 20
218.3503146211385
 30
0.0
 40
1.75
  0
LINE
  5
2A6
330
2
100
AcDbEntity
  8
0
100
AcDbLine
 10
81.10677884001779
 20
254.3503146211386
 30
0.0
 11
87.8149827725192
 21
254.3503146211386
 31
0.0
  0
CIRCLE
  5
2A7
330
2
100
AcDbEntity
  8
0
 48
0.6
100
AcDbCircle
 10
104.3794650933068
 20
252.8503146211387
 30
0.0
 40
3.0
  0
CIRCLE
  5
2A8
330
2
100
AcDbEntity
  8
0
100
AcDbCircle
 10
64.54229651923014
 20
252.8503146211387
 30
0.0
 40
3.0
  0
LINE
  5
2A9
330
2
100
AcDbEntity
  8
CEN
 48
0.6
100
AcDbLine
 10
62.01024050359774
 20
268.3971490015236
 30
0.0
 11
57.41404642588713
 21
263.8009549238116
 31
0.0
  0
LINE
  5
2AA
330
2
100
AcDbEntity
  8
CEN
 48
0.6
100
AcDbLine
 10
62.01024050359774
 20
263.8009549238116
 30
0.0
 11
57.41404642588713
 21
268.3971490015245
 31
0.0
  0
LINE
  5
2AB
330
2
100
AcDbEntity
  8
CEN
 48
0.6
100
AcDbLine
 10
106.9115211089374
 20
263.8009549238116
 30
0.0
 11
111.507715186657
 21
268.3971490015236
 31
0.0
  0
LINE
  5
2AC
330
2
100
AcDbEntity
  8
0
  6
CENTER
 62
     1
 48
0.6
100
AcDbLine
 10
107.6631447493272
 20
254.7461479544717
 30
0.0
 11
101.0957854372882
 21
250.9544812878044
 31
0.0
  0
LINE
  5
2AD
330
2
100
AcDbEntity
  8
0
  6
CENTER
 62
     1
 48
0.6
100
AcDbLine
 10
97.27002576393715
 20
251.3503146211387
 30
0.0
 11
71.22677320442017
 21
251.3503146211387
 31
0.0
  0
LINE
  5
2AE
330
2
100
AcDbEntity
  8
0
  6
CENTER
 62
     1
 48
0.4
100
AcDbLine
 10
61.25861686320785
 20
254.7461479544717
 30
0.0
 11
67.8259761752488
 21
250.9544812878044
 31
0.0
  0
ARC
  5
2AF
330
2
100
AcDbEntity
  8
0
 48
0.6
100
AcDbCircle
 10
109.4608808062694
 20
266.3503146211398
 30
0.0
 40
5.0
100
AcDbArc
 50
0.0
 51
90.0
  0
ARC
  5
2B0
330
2
100
AcDbEntity
  8
0
 48
0.6
100
AcDbCircle
 10
59.46088080626942
 20
266.3503146211398
 30
0.0
 40
5.0
100
AcDbArc
 50
90.0
 51
180.0
  0
LINE
  5
2B1
330
2
100
AcDbEntity
  8
0
100
AcDbLine
 10
59.46088080626942
 20
271.3503146211386
 30
0.0
 11
109.4608808062694
 21
271.3503146211386
 31
0.0
  0
CIRCLE
  5
2B2
330
2
100
AcDbEntity
  8
0
 48
0.6
100
AcDbCircle
 10
104.3794650933068
 20
252.8503146211387
 30
0.0
 40
1.75
  0
CIRCLE
  5
2B3
330
2
100
AcDbEntity
  8
0
100
AcDbCircle
 10
64.54229651923014
 20
252.8503146211387
 30
0.0
 40
1.75
  0
CIRCLE
  5
2B4
330
2
100
AcDbEntity
  8
0
100
AcDbCircle
 10
84.46088080626941
 20
251.3503146211387
 30
0.0
 40
4.5
  0
CIRCLE
  5
2B5
330
2
100
AcDbEntity
  8
0
 48
0.6
100
AcDbCircle
 10
109.2096181477973
 20
266.0990519626674
 30
0.0
 40
2.25
  0
CIRCLE
  5
2B6
330
2
100
AcDbEntity
  8
0
 48
0.6
100
AcDbCircle
 10
59.71214346473789
 20
266.0990519626674
 30
0.0
 40
2.25
  0
ARC
  5
2B7
330
2
100
AcDbEntity
  8
CEN
 48
0.6
100
AcDbCircle
 10
84.46088080625669
 20
241.3503146211386
 30
0.0
 40
35.00000000000606
100
AcDbArc
 50
25.70831822988844
 51
51.96162615014948
  0
LINE
  5
2B8
330
2
100
AcDbEntity
  8
CEN
 48
0.6
100
AcDbLine
 10
49.40111738365704
 20
241.3503146211406
 30
0.0
 11
119.520644228878
 21
241.3503146211406
 31
0.0
  0
CIRCLE
  5
2B9
330
2
100
AcDbEntity
  8
0
100
AcDbCircle
 10
84.46088080626941
 20
251.3503146211387
 30
0.0
 40
12.0
  0
DIMENSION
  5
2BA
102
{ACAD_XDICTIONARY
360
2BB
102
}
102
{ACAD_REACTORS
330
2BC
102
}
330
2
100
AcDbEntity
  8
DIM
100
AcDbDimension
  2
*D55
 10
123.2793771315209
 20
385.7841162247876
 30
0.0
 11
92.94863837184676
 21
385.7841162247876
 31
0.0
 70
   160
  1
60
  3
STANDARD
100
AcDbAlignedDimension
 13
63.27937713152095
 23
368.1330184304826
 33
0.0
 14
123.2793771315209
 24
367.1330184304827
 34
0.0
100
AcDbRotatedDimension
  0
ARC
  5
2C9
330
2
100
AcDbEntity
  8
0
100
AcDbCircle
 10
68.27937713152095
 20
367.1330184304827
 30
0.0
 40
5.0
100
AcDbArc
 50
90.0
 51
180.0
  0
ARC
  5
2CA
330
2
100
AcDbEntity
  8
CEN
 48
0.6
100
AcDbCircle
 10
93.27937713152095
 20
342.1330184304826
 30
0.0
 40
35.0
100
AcDbArc
 50
124.6885525890122
 51
145.106569353258
  0
LINE
  5
2CB
330
2
100
AcDbEntity
  8
CEN
 48
0.6
100
AcDbLine
 10
71.53584361002867
 20
363.8765519519697
 30
0.0
 11
65.52543596993746
 21
369.8869595920557
 31
0.0
  0
CIRCLE
  5
2CC
330
2
100
AcDbEntity
  8
0
100
AcDbCircle
 10
68.53063978998943
 20
366.8817557720126
 30
0.0
 40
2.25
  0
ARC
  5
2CD
330
2
100
AcDbEntity
  8
0
100
AcDbCircle
 10
118.2793771315209
 20
367.1330184304827
 30
0.0
 40
5.0
100
AcDbArc
 50
0.0
 51
90.0
  0
LINE
  5
2CE
330
2
100
AcDbEntity
  8
CEN
 48
0.6
100
AcDbLine
 10
115.0229106529967
 20
363.8765519519697
 30
0.0
 11
121.033318293088
 21
369.8869595920557
 31
0.0
  0
CIRCLE
  5
2CF
330
2
100
AcDbEntity
  8
0
100
AcDbCircle
 10
118.0281144730379
 20
366.8817557720126
 30
0.0
 40
2.25
  0
CIRCLE
  5
2D0
330
2
100
AcDbEntity
  8
0
100
AcDbCircle
 10
93.27937713152095
 20
342.1330184304826
 30
0.0
 40
27.00000000000005
  0
LINE
  5
2D1
330
2
100
AcDbEntity
  8
CEN
 48
0.6
100
AcDbLine
 10
93.27937713152095
 20
307.1330184304826
 30
0.0
 11
93.27937713152095
 21
377.1330184304827
 31
0.0
  0
ARC
  5
2D2
102
{ACAD_REACTORS
330
2D5
102
}
330
2
100
AcDbEntity
  8
CEN
 48
0.6
100
AcDbCircle
 10
93.27937713152095
 20
342.1330184304826
 30
0.0
 40
35.0
100
AcDbArc
 50
21.71935007261406
 51
51.18655059757116
  0
DIMENSION
  5
2D3
102
{ACAD_XDICTIONARY
360
2D4
102
}
102
{ACAD_REACTORS
330
2D5
102
}
330
2
100
AcDbEntity
  8
0
100
AcDbDimension
  2
*D54
 10
62.92426381944109
 20
324.709841458082
 30
0.0
 11
138.5642502562591
 21
368.1255538729724
 31
0.0
 70
   163
  1
<>%%p0.5
  3
STANDARD
100
AcDbDiametricDimension
 15
123.6344904435908
 25
359.5561954028776
 35
0.0
 40
0.0
  0
DIMENSION
  5
2E1
102
{ACAD_XDICTIONARY
360
2E2
102
}
102
{ACAD_REACTORS
330
2E3
102
}
330
2
100
AcDbEntity
  8
DIM
100
AcDbDimension
  2
*D48
 10
204.7754001950379
 20
392.0141950336347
 30
0.0
 11
190.8296859966975
 21
392.0141950336347
 31
0.0
 70
   160
  3
STANDARD
100
AcDbAlignedDimension
 13
178.7754001950379
 23
372.1330184304826
 33
0.0
 14
204.7754001950379
 24
372.1330184304826
 34
0.0
100
AcDbRotatedDimension
  0
DIMENSION
  5
2F0
330
2
100
AcDbEntity
  8
DIM
100
AcDbDimension
  2
*D47
 10
178.7754001950379
 20
392.0141950336347
 30
0.0
 11
171.5796859966976
 21
392.0141950336347
 31
0.0
 70
   160
  3
STANDARD
100
AcDbAlignedDimension
 13
166.2746907579476
 23
344.4530184304826
 33
0.0
 14
178.7754001950379
 24
372.1330184304826
 34
0.0
100
AcDbRotatedDimension
  0
DIMENSION
  5
2FD
102
{ACAD_XDICTIONARY
360
2FE
102
}
102
{ACAD_REACTORS
330
2FF
102
}
330
2
100
AcDbEntity
  8
DIM
100
AcDbDimension
  2
*D50
 10
178.7754001950379
 20
381.3413517638169
 30
0.0
 11
169.7754001950378
 21
381.3413517638169
 31
0.0
 70
   160
  3
STANDARD
100
AcDbAlignedDimension
 13
176.7754001950379
 23
369.1330184304827
 33
0.0
 14
178.7754001950379
 24
372.1330184304826
 34
0.0
100
AcDbRotatedDimension
  0
LINE
  5
30E
102
{ACAD_REACTORS
330
2E3
102
}
330
2
100
AcDbEntity
  8
0
100
AcDbLine
 10
178.7754001950379
 20
372.1330184304826
 30
0.0
 11
204.7754001950379
 21
372.1330184304826
 31
0.0
  0
LINE
  5
30F
330
2
100
AcDbEntity
  8
0
100
AcDbLine
 10
178.7754001950379
 20
369.1330184304827
 30
0.0
 11
176.7754001950379
 21
369.1330184304827
 31
0.0
  0
LINE
  5
310
102
{ACAD_REACTORS
330
26C
102
}
330
2
100
AcDbEntity
  8
CEN
 48
0.6
100
AcDbLine
 10
219.4209016790209
 20
251.3503146211387
 30
0.0
 11
175.6643051744377
 21
251.3503146211387
 31
0.0
  0
LINE
  5
311
102
{ACAD_REACTORS
330
26C
102
}
330
2
100
AcDbEntity
  8
CEN
 48
0.6
100
AcDbLine
 10
167.9547708415683
 20
241.3503146211386
 30
0.0
 11
264.7219133152865
 21
241.3503146211386
 31
0.0
  0
ARC
  5
312
330
2
100
AcDbEntity
  8
0
100
AcDbCircle
 10
212.0624439756702
 20
270.8503146211386
 30
0.0
 40
0.5
100
AcDbArc
 50
90.0
 51
180.0
  0
LINE
  5
313
330
2
100
AcDbEntity
  8
CEN
 48
0.6
100
AcDbLine
 10
208.3512748458488
 20
342.1330184304826
 30
0.0
 11
158.3109925770895
 21
342.1330184304826
 31
0.0
  0
LINE
  5
314
330
2
100
AcDbEntity
  8
0
100
AcDbLine
 10
178.7754001950379
 20
312.1330184304826
 30
0.0
 11
204.7754001950379
 21
312.1330184304826
 31
0.0
  0
LINE
  5
315
330
2
100
AcDbEntity
  8
0
100
AcDbLine
 10
178.7754001950379
 20
315.1330184304826
 30
0.0
 11
176.7754001950379
 21
315.1330184304826
 31
0.0
  0
LINE
  5
316
330
2
100
AcDbEntity
  8
0
100
AcDbLine
 10
178.7754001950379
 20
344.9530184304826
 30
0.0
 11
178.7754001950379
 21
339.3130184304826
 31
0.0
  0
LINE
  5
317
330
2
100
AcDbEntity
  8
0
100
AcDbLine
 10
178.7754001950379
 20
344.9530184304826
 30
0.0
 11
178.7754001950379
 21
339.3130184304826
 31
0.0
  0
LINE
  5
318
330
2
100
AcDbEntity
  8
2
100
AcDbLine
 10
172.7754001950379
 20
342.8983178921026
 30
0.0
 11
167.6243250939786
 21
340.2130184304826
 31
0.0
  0
LINE
  5
319
330
2
100
AcDbEntity
  8
2
100
AcDbLine
 10
172.7754001950379
 20
344.0530184304827
 30
0.0
 11
166.2754001950379
 21
340.6129730765608
 31
0.0
  0
LINE
  5
31A
330
2
100
AcDbEntity
  8
2
100
AcDbLine
 10
170.7754001950378
 20
344.0530184304827
 30
0.0
 11
166.2754001950379
 21
341.7797017455486
 31
0.0
  0
LINE
  5
31B
330
2
100
AcDbEntity
  8
0
100
AcDbLine
 10
166.2746907579476
 20
340.2130184304826
 30
0.0
 11
172.7754001950379
 21
340.2130184304826
 31
0.0
  0
LINE
  5
31C
330
2
100
AcDbEntity
  8
0
100
AcDbLine
 10
166.2746907579476
 20
344.0530184304827
 30
0.0
 11
172.7754001950379
 21
344.0530184304827
 31
0.0
  0
LINE
  5
31D
330
2
100
AcDbEntity
  8
2
100
AcDbLine
 10
166.7746907579476
 20
344.9530184304826
 30
0.0
 11
166.7746907579476
 21
339.3130184304826
 31
0.0
  0
LINE
  5
31E
330
2
100
AcDbEntity
  8
0
100
AcDbLine
 10
166.2746907579476
 20
344.4530184304826
 30
0.0
 11
166.2746907579476
 21
339.8130184304826
 31
0.0
  0
LINE
  5
31F
330
2
100
AcDbEntity
  8
0
100
AcDbLine
 10
166.2746907579476
 20
339.8130184304826
 30
0.0
 11
166.7746907579476
 21
339.3130184304826
 31
0.0
  0
LINE
  5
320
330
2
100
AcDbEntity
  8
0
100
AcDbLine
 10
166.7746907579476
 20
344.9530184304826
 30
0.0
 11
166.2746907579476
 21
344.4530184304826
 31
0.0
  0
LINE
  5
321
330
2
100
AcDbEntity
  8
2
100
AcDbLine
 10
172.7754001950379
 20
344.0530184304827
 30
0.0
 11
172.7754001950379
 21
340.2130184304826
 31
0.0
  0
LINE
  5
322
330
2
100
AcDbEntity
  8
CEN
 48
0.6
100
AcDbLine
 10
164.2754001950379
 20
339.8235184304837
 30
0.0
 11
179.7754001950379
 21
339.8235184304837
 31
0.0
  0
LINE
  5
323
330
2
100
AcDbEntity
  8
0
100
AcDbLine
 10
166.7746907579476
 20
339.3130184304826
 30
0.0
 11
176.7754001950379
 21
339.3130184304826
 31
0.0
  0
LINE
  5
324
330
2
100
AcDbEntity
  8
CEN
 48
0.6
100
AcDbLine
 10
164.2754001950379
 20
344.4425184304827
 30
0.0
 11
179.7754001950379
 21
344.4425184304827
 31
0.0
  0
LINE
  5
325
330
2
100
AcDbEntity
  8
0
100
AcDbLine
 10
166.7746907579476
 20
344.9530184304826
 30
0.0
 11
176.7754001950379
 21
344.9530184304826
 31
0.0
  0
ARC
  5
326
330
2
100
AcDbEntity
  8
0
100
AcDbCircle
 10
171.3155279295896
 20
310.0305366607846
 30
0.0
 40
30.21776684021463
100
AcDbArc
 50
79.59038642143004
 51
87.23086447349437
  0
ARC
  5
327
330
2
100
AcDbEntity
  8
0
100
AcDbCircle
 10
171.3155279295896
 20
374.2355002001776
 30
0.0
 40
30.21776684021192
100
AcDbArc
 50
272.7691355265055
 51
280.40961357857
  0
LINE
  5
328
330
2
100
AcDbEntity
  8
0
100
AcDbLine
 10
209.0624439756701
 20
263.3503146211387
 30
0.0
 11
211.5624439756702
 21
263.3503146211387
 31
0.0
  0
LINE
  5
329
330
2
100
AcDbEntity
  8
0
100
AcDbLine
 10
209.0624439756701
 20
239.3503146211386
 30
0.0
 11
211.5624439756702
 21
239.3503146211386
 31
0.0
  0
DIMENSION
  5
32A
102
{ACAD_XDICTIONARY
360
32B
102
}
102
{ACAD_REACTORS
330
32C
102
}
330
2
100
AcDbEntity
  8
0
100
AcDbDimension
  2
*D58
 10
199.0561693157286
 20
255.3503146211387
 30
0.0
 11
199.0561693157286
 21
284.0476035588807
 31
0.0
 70
   160
  1
\A1;{\f??|b0|i0|c0|p49;%%C8\H0.7x;\S+0^ -0.015;\H1.429x;(h7)}
  3
STANDARD
100
AcDbAlignedDimension
 13
194.0624439756702
 23
247.3503146211387
 33
0.0
 14
191.5624439756701
 24
255.3503146211387
 34
0.0
 50
90.0
100
AcDbRotatedDimension
  0
DIMENSION
  5
33B
102
{ACAD_XDICTIONARY
360
33C
102
}
102
{ACAD_REACTORS
330
33D
102
}
330
2
100
AcDbEntity
  8
0
100
AcDbDimension
  2
*D57
 10
191.5624439756701
 20
268.3781515482006
 30
0.0
 11
185.5624439756701
 21
270.8781515482006
 31
0.0
 70
    32
  3
STANDARD
100
AcDbAlignedDimension
 13
179.5624439756702
 23
254.3503146211386
 33
0.0
 14
191.5624439756701
 24
255.3503146211387
 34
0.0
 50
180.0
100
AcDbRotatedDimension
  0
LINE
  5
34A
102
{ACAD_REACTORS
330
33D
102
}
330
2
100
AcDbEntity
  8
0
100
AcDbLine
 10
191.5624439756701
 20
254.3503146211386
 30
0.0
 11
179.5624439756702
 21
254.3503146211386
 31
0.0
  0
LINE
  5
34B
102
{ACAD_REACTORS
330
32C
102
}
330
2
100
AcDbEntity
  8
0
100
AcDbLine
 10
208.5624439756701
 20
247.3503146211387
 30
0.0
 11
179.5624439756702
 21
247.3503146211387
 31
0.0
  0
LINE
  5
34C
102
{ACAD_REACTORS
330
1FE
330
354
330
AB
102
}
330
2
100
AcDbEntity
  8
0
100
AcDbLine
 10
179.5624439756702
 20
254.3503146211386
 30
0.0
 11
179.5624439756702
 21
247.3503146211387
 31
0.0
  0
LINE
  5
34D
102
{ACAD_REACTORS
330
1FE
330
33D
102
}
330
2
100
AcDbEntity
  8
0
100
AcDbLine
 10
191.5624439756701
 20
255.3503146211387
 30
0.0
 11
191.5624439756701
 21
254.3503146211386
 31
0.0
  0
LINE
  5
34E
102
{ACAD_REACTORS
330
32C
102
}
330
2
100
AcDbEntity
  8
0
100
AcDbLine
 10
208.5624439756701
 20
255.3503146211387
 30
0.0
 11
191.5624439756701
 21
255.3503146211387
 31
0.0
  0
ARC
  5
34F
330
2
100
AcDbEntity
  8
0
100
AcDbCircle
 10
209.0624439756701
 20
262.8503146211386
 30
0.0
 40
0.5
100
AcDbArc
 50
90.0
 51
180.0
  0
ARC
  5
350
330
2
100
AcDbEntity
  8
0
100
AcDbCircle
 10
209.0624439756701
 20
239.8503146211386
 30
0.0
 40
0.5
100
AcDbArc
 50
180.0
 51
270.0
  0
LINE
  5
351
330
2
100
AcDbEntity
  8
0
100
AcDbLine
 10
208.5624439756701
 20
262.8503146211386
 30
0.0
 11
208.5624439756701
 21
239.8503146211386
 31
0.0
  0
DIMENSION
  5
352
102
{ACAD_XDICTIONARY
360
353
102
}
102
{ACAD_REACTORS
330
354
102
}
330
2
100
AcDbEntity
  8
0
100
AcDbDimension
  2
*D49
 10
166.6896414660878
 20
247.3503146211387
 30
0.0
 11
166.6896414660876
 21
267.3503146211387
 31
0.0
 70
   160
  3
STANDARD
100
AcDbAlignedDimension
 13
179.5624439756702
 23
254.3503146211386
 33
0.0
 14
179.5624439756702
 24
247.3503146211387
 34
0.0
 50
90.0
100
AcDbRotatedDimension
  0
LINE
  5
363
330
2
100
AcDbEntity
  8
0
100
AcDbLine
 10
250.5624439756701
 20
271.3503146211386
 30
0.0
 11
212.0624439756702
 21
271.3503146211386
 31
0.0
  0
LINE
  5
364
330
2
100
AcDbEntity
  8
0
100
AcDbLine
 10
250.5624439756701
 20
271.3503146211386
 30
0.0
 11
250.5624439756701
 21
270.8503146211386
 31
0.0
  0
LINE
  5
365
330
2
100
AcDbEntity
  8
0
100
AcDbLine
 10
251.5624439756702
 20
270.8503146211386
 30
0.0
 11
250.5624439756701
 21
270.8503146211386
 31
0.0
  0
LINE
  5
366
102
{ACAD_REACTORS
330
2FF
102
}
330
2
100
AcDbEntity
  8
0
100
AcDbLine
 10
178.7754001950379
 20
372.1330184304826
 30
0.0
 11
178.7754001950379
 21
312.1330184304826
 31
0.0
  0
LINE
  5
367
102
{ACAD_REACTORS
330
27B
330
2FF
102
}
330
2
100
AcDbEntity
  8
0
100
AcDbLine
 10
176.7754001950379
 20
369.1330184304827
 30
0.0
 11
176.7754001950379
 21
315.1330184304826
 31
0.0
  0
LINE
  5
368
102
{ACAD_REACTORS
330
2FF
102
}
330
2
100
AcDbEntity
  8
0
100
AcDbLine
 10
204.7754001950379
 20
372.1330184304826
 30
0.0
 11
204.7754001950379
 21
312.1330184304826
 31
0.0
  0
ENDSEC
  0
SECTION
  2
OBJECTS
  0
DICTIONARY
  5
8
330
0
100
AcDbDictionary
  3
ACAD_GROUP
350
98
  3
ACAD_LAYOUT
350
C
  3
ACAD_MLINESTYLE
350
99
  3
ACAD_PLOTSETTINGS
350
9A
  3
ACAD_PLOTSTYLENAME
350
7
  3
ACDBHEADERROUNDTRIPXREC
350
520
  3
ACDBVARIABLEDICTIONARY
350
369
  0
DICTIONARY
  5
13
330
12
100
AcDbDictionary
280
     1
  3
ACAD_LAYERFILTERS
360
14
  3
ACAD_LAYERSTATES
360
87
  0
DICTIONARY
  5
3
330
2
100
AcDbDictionary
280
     1
  3
ACAD_LAYOUTSELFREF
360
541
  0
DICTIONARY
  5
E
330
D
100
AcDbDictionary
280
     1
  3
ACAD_LAYOUTSELFREF
360
542
  0
DICTIONARY
  5
AA
330
A9
100
AcDbDictionary
280
     1
  3
ACAD_DIMASSOC
360
AB
  0
DICTIONARY
  5
D4
330
D3
100
AcDbDictionary
280
     1
  3
ACAD_DIMASSOC
360
D5
  0
DICTIONARY
  5
F3
330
F2
100
AcDbDictionary
280
     1
  3
ACAD_DIMASSOC
360
F4
  0
DICTIONARY
  5
102
330
101
100
AcDbDictionary
280
     1
  3
ACAD_DIMASSOC
360
103
  0
DICTIONARY
  5
117
330
116
100
AcDbDictionary
280
     1
  3
ACAD_DIMASSOC
360
118
  0
DICTIONARY
  5
145
330
144
100
AcDbDictionary
280
     1
  3
ACAD_DIMASSOC
360
146
  0
DICTIONARY
  5
15E
330
15D
100
AcDbDictionary
280
     1
  3
ACAD_DIMASSOC
360
15F
  0
DICTIONARY
  5
18E
330
18D
100
AcDbDictionary
280
     1
  3
ACAD_DIMASSOC
360
18F
  0
DICTIONARY
  5
19F
330
19E
100
AcDbDictionary
280
     1
  3
ACAD_DIMASSOC
360
1A0
  0
DICTIONARY
  5
1B0
330
1AF
100
AcDbDictionary
280
     1
  3
ACAD_DIMASSOC
360
1B1
  0
DICTIONARY
  5
1C6
330
1C5
100
AcDbDictionary
280
     1
  3
ACAD_DIMASSOC
360
1C7
  0
DICTIONARY
  5
1D5
330
1D4
100
AcDbDictionary
280
     1
  3
ACAD_DIMASSOC
360
1D6
  0
DICTIONARY
  5
1E8
330
1E7
100
AcDbDictionary
280
     1
  3
ACAD_DIMASSOC
360
1E9
  0
DICTIONARY
  5
1FD
330
1FC
100
AcDbDictionary
280
     1
  3
ACAD_DIMASSOC
360
1FE
  0
DICTIONARY
  5
22D
330
22C
100
AcDbDictionary
280
     1
  3
ACAD_DIMASSOC
360
22E
  0
DICTIONARY
  5
23F
330
23E
100
AcDbDictionary
280
     1
  3
ACAD_DIMASSOC
360
240
  0
DICTIONARY
  5
26B
330
26A
100
AcDbDictionary
280
     1
  3
ACAD_DIMASSOC
360
26C
  0
DICTIONARY
  5
27A
330
279
100
AcDbDictionary
280
     1
  3
ACAD_DIMASSOC
360
27B
  0
DICTIONARY
  5
2BB
330
2BA
100
AcDbDictionary
280
     1
  3
ACAD_DIMASSOC
360
2BC
  0
DICTIONARY
  5
2D4
330
2D3
100
AcDbDictionary
280
     1
  3
ACAD_DIMASSOC
360
2D5
  0
DICTIONARY
  5
2E2
330
2E1
100
AcDbDictionary
280
     1
  3
ACAD_DIMASSOC
360
2E3
  0
DICTIONARY
  5
2FE
330
2FD
100
AcDbDictionary
280
     1
  3
ACAD_DIMASSOC
360
2FF
  0
DICTIONARY
  5
32B
330
32A
100
AcDbDictionary
280
     1
  3
ACAD_DIMASSOC
360
32C
  0
DICTIONARY
  5
33C
330
33B
100
AcDbDictionary
280
     1
  3
ACAD_DIMASSOC
360
33D
  0
DICTIONARY
  5
353
330
352
100
AcDbDictionary
280
     1
  3
ACAD_DIMASSOC
360
354
  0
DICTIONARY
  5
98
102
{ACAD_REACTORS
330
8
102
}
330
8
100
AcDbDictionary
  0
DICTIONARY
  5
C
102
{ACAD_REACTORS
330
8
102
}
330
8
100
AcDbDictionary
  0
DICTIONARY
  5
99
102
{ACAD_REACTORS
330
8
102
}
330
8
100
AcDbDictionary
  3
STANDARD
350
9B
  0
DICTIONARY
  5
9A
102
{ACAD_REACTORS
330
8
102
}
330
8
100
AcDbDictionary
  0
ACDBDICTIONARYWDFLT
  5
7
102
{ACAD_REACTORS
330
8
102
}
330
8
100
AcDbDictionary
281
     1
  3
Normal
350
6
100
AcDbDictionaryWithDefault
340
6
  0
DICTIONARY
  5
520
102
{ACAD_REACTORS
330
8
102
}
330
8
100
AcDbDictionary
  3
CEPSNTYPE
350
52A
  3
DIMSTYLEDATA
350
52E
  3
FINGERPRINTGUID
350
52B
  3
HYPERLINKBASE
350
523
  3
INSUNITS
350
529
  3
LAYOUTDICT
350
525
  3
LWETCUNION
350
528
  3
PLOTSETDICT
350
526
  3
PLOTSTYLNAMDICT
350
527
  3
PSVPSCALE
350
52D
  3
PUCSBASE
350
531
  3
PUCSORGBACK
350
537
  3
PUCSORGBOTTOM
350
533
  3
PUCSORGFRONT
350
536
  3
PUCSORGLEFT
350
534
  3
PUCSORGRIGHT
350
535
  3
PUCSORGTOP
350
532
  3
PUCSORTHOREF
350
52F
  3
PUCSORTHOVIEW
350
530
  3
STYLESHEET
350
524
  3
TSTACKALIGN
350
521
  3
TSTACKSIZE
350
522
  3
UCSBASE
350
53A
  3
UCSORGBACK
350
540
  3
UCSORGBOTTOM
350
53C
  3
UCSORGFRONT
350
53F
  3
UCSORGLEFT
350
53D
  3
UCSORGRIGHT
350
53E
  3
UCSORGTOP
350
53B
  3
UCSORTHOREF
350
538
  3
UCSORTHOVIEW
350
539
  3
VERSIONGUID
350
52C
  0
DICTIONARY
  5
369
102
{ACAD_REACTORS
330
8
102
}
330
8
100
AcDbDictionary
  3
DIMASSOC
350
36B
  3
HIDETEXT
350
36A
  0
DICTIONARY
  5
14
102
{ACAD_REACTORS
330
13
102
}
330
13
100
AcDbDictionary
280
     1
  3
$LAYERS
360
15
  3
-_UND_0
360
16
  3
-PEGC
360
17
  3
101
360
18
  3
102
360
19
  3
1DUC
360
1A
  3
1EQ
360
1B
  3
1TUB
360
1C
  3
2
360
1D
  3
2000
360
1E
  3
50
360
1F
  3
58J
360
20
  3
65
360
21
  3
AA
360
22
  3
ACABADOS
360
23
  3
AGUA_Y_DREN
360
24
  3
AIRE
360
25
  3
ALLE_AUS
360
26
  3
ALLES_MIT_S
360
27
  3
AMARILLO
360
28
  3
APAGADOS
360
29
  3
ARR
360
2A
  3
BA
360
2B
  3
BACKS
360
2C
  3
BASE
360
2D
  3
BLOQ_INUTIL
360
2E
  3
CADKON
360
2F
  3
CARPINTERIA
360
30
  3
CERRADOS
360
31
  3
COL
360
32
  3
COLOR
360
33
  3
COLOR_250
360
34
  3
COLORES
360
35
  3
CONGELADOS
360
36
  3
CONJUNTO
360
37
  3
D1
360
38
  3
DA_
360
39
  3
DET-
360
3A
  3
DOR-H
360
3B
  3
EJES
360
3C
  3
ELECTRICO
360
3D
  3
F1
360
3E
  3
FROZEN
360
3F
  3
GRID
360
40
  3
GRIDTXT
360
41
  3
HATCH
360
42
  3
HCAD
360
43
  3
INSTALACIONES
360
44
  3
JIZNI
360
45
  3
KCK
360
46
  3
KKK
360
47
  3
LAY
360
48
  3
LAYER-0
360
4C
  3
LAYER-1
360
4D
  3
LAYER_1_UND_0
360
49
  3
LAYER_2_UND_0
360
4A
  3
LAYER_9_UND_0_SCHRAFFUR
360
4B
  3
LOCK
360
4E
  3
LOCKED
360
4F
  3
LOTES
360
50
  3
LUNAR
360
51
  3
LUNAR2
360
52
  3
M
360
53
  3
MIS_LAYERS
360
54
  3
MRKCK
360
55
  3
NECADKON
360
56
  3
NI_LH
360
57
  3
NI_RH
360
58
  3
NUM
360
59
  3
OFF
360
5A
  3
ON
360
5B
  3
PBASE
360
5C
  3
PEGC
360
5D
  3
PEGCT
360
5E
  3
PFRAME
360
5F
  3
PGRID
360
60
  3
PGRIDT
360
61
  3
PLAFONES
360
62
  3
PLANTAS
360
63
  3
PLOT
360
64
  3
PRENDIDAS
360
65
  3
PRENDIDOS
360
66
  3
PRINT
360
67
  3
PT
360
68
  3
PTH
360
69
  3
PVGRID
360
6A
  3
RED_DE_AGUA_POTABLE
360
6B
  3
RED_DE_ENERGIA_ELECTRICA
360
6C
  3
SEVERNI
360
6D
  3
SHIN
360
6E
  3
SHOW_ALL_LAYER
360
6F
  3
SIN
360
70
  3
STORAGE-CART
360
71
  3
T
360
72
  3
TEXTOS
360
73
  3
TEXTURAS
360
74
  3
TUBERIAS
360
75
  3
UNFRZ
360
76
  3
V\U+0160ECHNY_NEPOU\U+017D\U+00CDVAN\U+00C9
360
77
  3
VA
360
78
  3
VENTILACI\U+00D3N
360
79
  3
VYHODNI
360
7A
  3
YO
360
7B
  3
ZAPADNI
360
7C
  3
사용
360
7D
  3
신규
360
7E
  3
실박스
360
7F
  3
우리토목
360
80
  3
주차
360
81
  3
지상정밀
360
82
  3
쩜선
360
83
  3
플로터_작업층
360
84
  3
현재_작업층
360
85
  3
현재_잠금
360
86
  0
DICTIONARY
  5
87
102
{ACAD_REACTORS
330
13
102
}
330
13
100
AcDbDictionary
  0
XRECORD
  5
541
102
{ACAD_REACTORS
330
3
102
}
330
3
100
AcDbXrecord
340
2
  0
XRECORD
  5
542
102
{ACAD_REACTORS
330
E
102
}
330
E
100
AcDbXrecord
340
D
  0
DIMASSOC
  5
AB
102
{ACAD_REACTORS
330
AA
102
}
330
AA
100
AcDbDimAssoc
330
A9
 90
        3
 70
     0
 71
     0
  1
AcDbOsnapPointRef
 72
     1
331
34C
 73
     2
 91
        0
 40
1.0
 10
179.5624439756702
 20
247.3503146211387
 30
0.0
 75
     0
  1
AcDbOsnapPointRef
 72
     1
331
C6
 73
     2
 91
        0
 40
1.0
 10
211.5624439756702
 20
211.8503146211399
 30
0.0
 75
     0
  0
DIMASSOC
  5
D5
102
{ACAD_REACTORS
330
D4
102
}
330
D4
100
AcDbDimAssoc
330
D3
 90
        3
 70
     0
 71
     0
  1
AcDbOsnapPointRef
 72
     1
331
E2
 73
     2
 91
        0
 40
1.0
 10
146.215628375079
 20
54.18892059869563
 30
0.0
 75
     0
  1
AcDbOsnapPointRef
 72
    13
331
252
 73
     2
 91
        0
 40
0.0
 10
158.2156283750791
 20
55.18892059869563
 30
0.0
 75
     0
  0
DIMASSOC
  5
F4
102
{ACAD_REACTORS
330
F3
102
}
330
F3
100
AcDbDimAssoc
330
F2
 90
        1
 70
     0
 71
     0
  1
AcDbOsnapPointRef
 72
    13
331
18C
 73
     2
 91
        0
 40
0.0
 10
146.215628375079
 20
54.18892059869563
 30
0.0
 75
     0
  0
DIMASSOC
  5
103
102
{ACAD_REACTORS
330
102
102
}
330
102
100
AcDbDimAssoc
330
101
 90
        2
 70
     0
 71
     0
  1
AcDbOsnapPointRef
 72
     1
331
253
 73
     2
 91
        0
 40
1.0
 10
158.2156283750791
 20
55.18892059869563
 30
0.0
 75
     0
  0
DIMASSOC
  5
118
102
{ACAD_REACTORS
330
117
102
}
330
117
100
AcDbDimAssoc
330
116
 90
        2
 70
     0
 71
     0
  1
AcDbOsnapPointRef
 72
     3
331
189
 73
     2
 91
        0
 40
0.0
 10
46.41371386077843
 20
41.18892059869767
 30
0.0
 75
     0
  0
DIMASSOC
  5
146
102
{ACAD_REACTORS
330
145
102
}
330
145
100
AcDbDimAssoc
330
144
 90
        3
 70
     0
 71
     0
  1
AcDbOsnapPointRef
 72
    13
331
140
 73
     2
 91
        0
 40
3.141592653589792
 10
54.46088080626942
 20
216.3503146211385
 30
0.0
 75
     0
  1
AcDbOsnapPointRef
 72
     1
331
BD
 73
     2
 91
        0
 40
1.0
 10
114.4608808062693
 20
216.3503146211385
 30
0.0
 75
     0
  0
DIMASSOC
  5
15F
102
{ACAD_REACTORS
330
15E
102
}
330
15E
100
AcDbDimAssoc
330
15D
 90
        3
 70
     0
 71
     0
  1
AcDbOsnapPointRef
 72
     1
331
1AE
 73
     2
 91
        0
 40
1.0
 10
25.41371386077844
 20
102.6889125986985
 30
0.0
 75
     0
  1
AcDbOsnapPointRef
 72
     1
331
1AD
 73
     2
 91
        0
 40
1.0
 10
67.41371386077844
 20
102.6889125986985
 30
0.0
 75
     0
  0
DIMASSOC
  5
18F
102
{ACAD_REACTORS
330
18E
102
}
330
18E
100
AcDbDimAssoc
330
18D
 90
        3
 70
     0
 71
     0
  1
AcDbOsnapPointRef
 72
    13
331
18C
 73
     2
 91
        0
 40
0.0
 10
146.215628375079
 20
54.18892059869563
 30
0.0
 75
     0
  1
AcDbOsnapPointRef
 72
     1
331
18C
 73
     2
 91
        0
 40
1.0
 10
146.215628375079
 20
47.18892059869562
 30
0.0
 75
     0
  0
DIMASSOC
  5
1A0
102
{ACAD_REACTORS
330
19F
102
}
330
19F
100
AcDbDimAssoc
330
19E
 90
        1
 70
     0
 71
     0
  1
AcDbOsnapPointRef
 72
     1
331
D2
 73
     2
 91
        0
 40
1.0
 10
142.3174895738465
 20
51.18892059869563
 30
0.0
 75
     0
  0
DIMASSOC
  5
1B1
102
{ACAD_REACTORS
330
1B0
102
}
330
1B0
100
AcDbDimAssoc
330
1AF
 90
        2
 70
     0
 71
     0
  1
AcDbOsnapPointRef
 72
    13
331
17D
 73
     2
 91
        0
 40
0.0
 10
28.41371386077844
 20
105.6889125986985
 30
0.0
 75
     0
  0
DIMASSOC
  5
1C7
102
{ACAD_REACTORS
330
1C6
102
}
330
1C6
100
AcDbDimAssoc
330
1C5
 90
        3
 70
     0
 71
     0
  1
AcDbOsnapPointRef
 72
     1
331
1C4
 73
     2
 91
        0
 40
1.0
 10
286.2156283750791
 20
71.18892059869562
 30
0.0
 75
     0
  1
AcDbOsnapPointRef
 72
    13
331
1F6
 73
     2
 91
        0
 40
0.0
 10
286.2156283750791
 20
11.18892059869563
 30
0.0
 75
     0
  0
DIMASSOC
  5
1D6
102
{ACAD_REACTORS
330
1D5
102
}
330
1D5
100
AcDbDimAssoc
330
1D4
 90
        3
 70
     0
 71
     0
  1
AcDbOsnapPointRef
 72
     1
331
1BF
 73
     2
 91
        0
 40
1.0
 10
178.215628375079
 20
11.68892059869563
 30
0.0
 75
     0
  1
AcDbOsnapPointRef
 72
     1
331
1C0
 73
     2
 91
        0
 40
1.0
 10
218.215628375079
 20
11.18892059869563
 30
0.0
 75
     0
  0
DIMASSOC
  5
1E9
102
{ACAD_REACTORS
330
1E8
102
}
330
1E8
100
AcDbDimAssoc
330
1E7
 90
        2
 70
     0
 71
     0
  1
AcDbOsnapPointRef
 72
    13
331
1FA
 73
     2
 91
        0
 40
0.0
 10
293.2156283750791
 20
13.68892059869563
 30
0.0
 75
     0
  0
DIMASSOC
  5
1FE
102
{ACAD_REACTORS
330
1FD
102
}
330
1FD
100
AcDbDimAssoc
330
1FC
 90
        3
 70
     0
 71
     0
  1
AcDbOsnapPointRef
 72
     1
331
C7
 73
     2
 91
        0
 40
1.0
 10
251.5624439756702
 20
211.8503146211399
 30
0.0
 75
     0
  1
AcDbOsnapPointRef
 72
     1
331
C6
 73
     2
 91
        0
 40
1.0
 10
211.5624439756702
 20
211.8503146211399
 30
0.0
 75
     0
  0
DIMASSOC
  5
22E
102
{ACAD_REACTORS
330
22D
102
}
330
22D
100
AcDbDimAssoc
330
22C
 90
        3
 70
     0
 71
     0
  1
AcDbOsnapPointRef
 72
     1
331
25B
 73
     2
 91
        0
 40
1.0
 10
224.3156283750794
 20
102.6889125986985
 30
0.0
 75
     0
  1
AcDbOsnapPointRef
 72
     1
331
25C
 73
     2
 91
        0
 40
1.0
 10
266.3156283750794
 20
102.6889125986985
 30
0.0
 75
     0
  0
DIMASSOC
  5
240
102
{ACAD_REACTORS
330
23F
102
}
330
23F
100
AcDbDimAssoc
330
23E
 90
        1
 70
     0
 71
     0
  1
AcDbOsnapPointRef
 72
    13
331
1BE
 73
     2
 91
        0
 40
0.0
 10
175.215628375079
 20
62.68892059869563
 30
0.0
 75
     0
  0
DIMASSOC
  5
26C
102
{ACAD_REACTORS
330
26B
102
}
330
26B
100
AcDbDimAssoc
330
26A
 90
        3
 70
     0
 71
     0
  1
AcDbOsnapPointRef
 72
     1
331
310
 73
     2
 91
        0
 40
1.0
 10
175.6643051744377
 20
251.3503146211387
 30
0.0
 75
     0
  1
AcDbOsnapPointRef
 72
    13
331
311
 73
     2
 91
        0
 40
0.0
 10
167.9547708415683
 20
241.3503146211386
 30
0.0
 75
     0
  0
DIMASSOC
  5
27B
102
{ACAD_REACTORS
330
27A
102
}
330
27A
100
AcDbDimAssoc
330
279
 90
        3
 70
     0
 71
     0
  1
AcDbOsnapPointRef
 72
    13
331
367
 73
     2
 91
        0
 40
0.0
 10
176.7754001950379
 20
369.1330184304827
 30
0.0
 75
     0
  1
AcDbOsnapPointRef
 72
     1
331
367
 73
     2
 91
        0
 40
1.0
 10
176.7754001950379
 20
315.1330184304826
 30
0.0
 75
     0
  0
DIMASSOC
  5
2BC
102
{ACAD_REACTORS
330
2BB
102
}
330
2BB
100
AcDbDimAssoc
330
2BA
 90
        2
 70
     0
 71
     0
  1
AcDbOsnapPointRef
 72
    13
331
28B
 73
     2
 91
        0
 40
0.0
 10
123.2793771315209
 20
367.1330184304827
 30
0.0
 75
     0
  0
DIMASSOC
  5
2D5
102
{ACAD_REACTORS
330
2D4
102
}
330
2D4
100
AcDbDimAssoc
330
2D3
 90
        2
 70
     0
 71
     0
  1
AcDbOsnapPointRef
 72
     3
331
2D2
 73
     2
 91
        0
 40
0.0
 10
93.27937713152095
 20
342.1330184304826
 30
0.0
 75
     0
  0
DIMASSOC
  5
2E3
102
{ACAD_REACTORS
330
2E2
102
}
330
2E2
100
AcDbDimAssoc
330
2E1
 90
        3
 70
     0
 71
     0
  1
AcDbOsnapPointRef
 72
    13
331
30E
 73
     2
 91
        0
 40
0.0
 10
178.7754001950379
 20
372.1330184304826
 30
0.0
 75
     0
  1
AcDbOsnapPointRef
 72
     1
331
30E
 73
     2
 91
        0
 40
1.0
 10
204.7754001950379
 20
372.1330184304826
 30
0.0
 75
     0
  0
DIMASSOC
  5
2FF
102
{ACAD_REACTORS
330
2FE
102
}
330
2FE
100
AcDbDimAssoc
330
2FD
 90
        3
 70
     0
 71
     0
  1
AcDbOsnapPointRef
 72
    13
331
367
 73
     2
 91
        0
 40
0.0
 10
176.7754001950379
 20
369.1330184304827
 30
0.0
 75
     0
  1
AcDbOsnapPointRef
 72
    13
331
366
 73
     2
 91
        0
 40
0.0
 10
178.7754001950379
 20
372.1330184304826
 30
0.0
 75
     0
  0
DIMASSOC
  5
32C
102
{ACAD_REACTORS
330
32B
102
}
330
32B
100
AcDbDimAssoc
330
32A
 90
        3
 70
     0
 71
     0
  1
AcDbOsnapPointRef
 72
     2
331
34B
 73
     2
 91
        0
 40
0.5
 10
194.0624439756702
 20
247.3503146211387
 30
0.0
 75
     0
  1
AcDbOsnapPointRef
 72
     1
331
34E
 73
     2
 91
        0
 40
1.0
 10
191.5624439756701
 20
255.3503146211387
 30
0.0
 75
     0
  0
DIMASSOC
  5
33D
102
{ACAD_REACTORS
330
33C
102
}
330
33C
100
AcDbDimAssoc
330
33B
 90
        3
 70
     0
 71
     0
  1
AcDbOsnapPointRef
 72
     1
331
34A
 73
     2
 91
        0
 40
1.0
 10
179.5624439756702
 20
254.3503146211386
 30
0.0
 75
     0
  1
AcDbOsnapPointRef
 72
    13
331
34D
 73
     2
 91
        0
 40
0.0
 10
191.5624439756701
 20
255.3503146211387
 30
0.0
 75
     0
  0
DIMASSOC
  5
354
102
{ACAD_REACTORS
330
353
102
}
330
353
100
AcDbDimAssoc
330
352
 90
        3
 70
     0
 71
     0
  1
AcDbOsnapPointRef
 72
    13
331
34C
 73
     2
 91
        0
 40
0.0
 10
179.5624439756702
 20
254.3503146211386
 30
0.0
 75
     0
  1
AcDbOsnapPointRef
 72
     1
331
34C
 73
     2
 91
        0
 40
1.0
 10
179.5624439756702
 20
247.3503146211387
 30
0.0
 75
     0
  0
MLINESTYLE
  5
9B
102
{ACAD_REACTORS
330
99
102
}
330
99
100
AcDbMlineStyle
  2
STANDARD
 70
     0
  3

 62
   256
 51
90.0
 52
90.0
 71
     2
 49
0.5
 62
   256
  6
BYLAYER
 49
-0.5
 62
   256
  6
BYLAYER
  0
ACDBPLACEHOLDER
  5
6
102
{ACAD_REACTORS
330
7
102
}
330
7
100
AcDbPlaceHolder
280
     0
  0
XRECORD
  5
52A
102
{ACAD_REACTORS
330
520
102
}
330
520
100
AcDbXrecord
 90
        0
  0
XRECORD
  5
52E
102
{ACAD_REACTORS
330
520
102
}
330
520
100
AcDbXrecord
1000
DSTYLE
1002
{
1070
    79
 70
     2
1070
   179
 70
     1
1002
}
  0
XRECORD
  5
52B
102
{ACAD_REACTORS
330
520
102
}
330
520
100
AcDbXrecord
  1
{FDEAD578-A652-11D2-9A35-0060089B3A3F}
  0
XRECORD
  5
523
102
{ACAD_REACTORS
330
520
102
}
330
520
100
AcDbXrecord
  1

  0
XRECORD
  5
529
102
{ACAD_REACTORS
330
520
102
}
330
520
100
AcDbXrecord
 90
        4
  0
XRECORD
  5
525
102
{ACAD_REACTORS
330
520
102
}
330
520
100
AcDbXrecord
340
C
  0
XRECORD
  5
528
102
{ACAD_REACTORS
330
520
102
}
330
520
100
AcDbXrecord
 90
    10781
  0
XRECORD
  5
526
102
{ACAD_REACTORS
330
520
102
}
330
520
100
AcDbXrecord
340
9A
  0
XRECORD
  5
527
102
{ACAD_REACTORS
330
520
102
}
330
520
100
AcDbXrecord
340
7
  0
XRECORD
  5
52D
102
{ACAD_REACTORS
330
520
102
}
330
520
100
AcDbXrecord
 40
0.0
  0
XRECORD
  5
531
102
{ACAD_REACTORS
330
520
102
}
330
520
100
AcDbXrecord
340
0
  0
XRECORD
  5
537
102
{ACAD_REACTORS
330
520
102
}
330
520
100
AcDbXrecord
 10
0.0
 20
0.0
 30
0.0
  0
XRECORD
  5
533
102
{ACAD_REACTORS
330
520
102
}
330
520
100
AcDbXrecord
 10
0.0
 20
0.0
 30
0.0
  0
XRECORD
  5
536
102
{ACAD_REACTORS
330
520
102
}
330
520
100
AcDbXrecord
 10
0.0
 20
0.0
 30
0.0
  0
XRECORD
  5
534
102
{ACAD_REACTORS
330
520
102
}
330
520
100
AcDbXrecord
 10
0.0
 20
0.0
 30
0.0
  0
XRECORD
  5
535
102
{ACAD_REACTORS
330
520
102
}
330
520
100
AcDbXrecord
 10
0.0
 20
0.0
 30
0.0
  0
XRECORD
  5
532
102
{ACAD_REACTORS
330
520
102
}
330
520
100
AcDbXrecord
 10
0.0
 20
0.0
 30
0.0
  0
XRECORD
  5
52F
102
{ACAD_REACTORS
330
520
102
}
330
520
100
AcDbXrecord
340
0
  0
XRECORD
  5
530
102
{ACAD_REACTORS
330
520
102
}
330
520
100
AcDbXrecord
 70
     0
  0
XRECORD
  5
524
102
{ACAD_REACTORS
330
520
102
}
330
520
100
AcDbXrecord
  1

  0
XRECORD
  5
521
102
{ACAD_REACTORS
330
520
102
}
330
520
100
AcDbXrecord
 90
        1
  0
XRECORD
  5
522
102
{ACAD_REACTORS
330
520
102
}
330
520
100
AcDbXrecord
 90
       70
  0
XRECORD
  5
53A
102
{ACAD_REACTORS
330
520
102
}
330
520
100
AcDbXrecord
340
0
  0
XRECORD
  5
540
102
{ACAD_REACTORS
330
520
102
}
330
520
100
AcDbXrecord
 10
0.0
 20
0.0
 30
0.0
  0
XRECORD
  5
53C
102
{ACAD_REACTORS
330
520
102
}
330
520
100
AcDbXrecord
 10
0.0
 20
0.0
 30
0.0
  0
XRECORD
  5
53F
102
{ACAD_REACTORS
330
520
102
}
330
520
100
AcDbXrecord
 10
0.0
 20
0.0
 30
0.0
  0
XRECORD
  5
53D
102
{ACAD_REACTORS
330
520
102
}
330
520
100
AcDbXrecord
 10
0.0
 20
0.0
 30
0.0
  0
XRECORD
  5
53E
102
{ACAD_REACTORS
330
520
102
}
330
520
100
AcDbXrecord
 10
0.0
 20
0.0
 30
0.0
  0
XRECORD
  5
53B
102
{ACAD_REACTORS
330
520
102
}
330
520
100
AcDbXrecord
 10
0.0
 20
0.0
 30
0.0
  0
XRECORD
  5
538
102
{ACAD_REACTORS
330
520
102
}
330
520
100
AcDbXrecord
340
0
  0
XRECORD
  5
539
102
{ACAD_REACTORS
330
520
102
}
330
520
100
AcDbXrecord
 70
     0
  0
XRECORD
  5
52C
102
{ACAD_REACTORS
330
520
102
}
330
520
100
AcDbXrecord
  1
{7CF1138A-5EBA-4E05-B2FF-AD8B6A9905AB}
  0
DICTIONARYVAR
  5
36B
102
{ACAD_REACTORS
330
369
102
}
330
369
100
DictionaryVariables
280
     0
  1
2
  0
DICTIONARYVAR
  5
36A
102
{ACAD_REACTORS
330
369
102
}
330
369
100
DictionaryVariables
280
     0
  1
1
  0
XRECORD
  5
15
102
{ACAD_REACTORS
330
14
102
}
330
14
100
AcDbXrecord
  1
$layers
  1
*
  1
*
  1
*
 70
     0
  1
*
  1
*
  0
XRECORD
  5
16
102
{ACAD_REACTORS
330
14
102
}
330
14
100
AcDbXrecord
  1
- und 0
  1
-*,0
  1
*
  1
*
 70
     0
  1
*
  1
*
  0
XRECORD
  5
17
102
{ACAD_REACTORS
330
14
102
}
330
14
100
AcDbXrecord
  1
-pegc
  1
*-pegc
  1
*
  1
*
 70
     0
  1
*
  1
*
  0
XRECORD
  5
18
102
{ACAD_REACTORS
330
14
102
}
330
14
100
AcDbXrecord
  1
101
  1
*101
  1
*
  1
*
 70
   256
  1
*
  1
*
  0
XRECORD
  5
19
102
{ACAD_REACTORS
330
14
102
}
330
14
100
AcDbXrecord
  1
102
  1
102*
  1
*
  1
*
 70
     0
  1
*
  1
*
  0
XRECORD
  5
1A
102
{ACAD_REACTORS
330
14
102
}
330
14
100
AcDbXrecord
  1
1duc
  1
*1duc*
  1
*
  1
*
 70
     0
  1
*
  1
*
  0
XRECORD
  5
1B
102
{ACAD_REACTORS
330
14
102
}
330
14
100
AcDbXrecord
  1
1eq
  1
*1eq*
  1
*
  1
*
 70
     0
  1
*
  1
*
  0
XRECORD
  5
1C
102
{ACAD_REACTORS
330
14
102
}
330
14
100
AcDbXrecord
  1
1tub
  1
*1t*
  1
*
  1
*
 70
     0
  1
*
  1
*
  0
XRECORD
  5
1D
102
{ACAD_REACTORS
330
14
102
}
330
14
100
AcDbXrecord
  1
2
  1
*
  1
2
  1
*
 70
     0
  1
*
  1
*
  0
XRECORD
  5
1E
102
{ACAD_REACTORS
330
14
102
}
330
14
100
AcDbXrecord
  1
2000
  1
2000*
  1
*
  1
*
 70
     0
  1
*
  1
*
  0
XRECORD
  5
1F
102
{ACAD_REACTORS
330
14
102
}
330
14
100
AcDbXrecord
  1
50
  1
*-50
  1
*
  1
*
 70
     0
  1
*
  1
*
  0
XRECORD
  5
20
102
{ACAD_REACTORS
330
14
102
}
330
14
100
AcDbXrecord
  1
58J
  1
*58*
  1
*
  1
*
 70
     0
  1
*
  1
*
  0
XRECORD
  5
21
102
{ACAD_REACTORS
330
14
102
}
330
14
100
AcDbXrecord
  1
65
  1
*65
  1
*
  1
*
 70
     0
  1
*
  1
*
  0
XRECORD
  5
22
102
{ACAD_REACTORS
330
14
102
}
330
14
100
AcDbXrecord
  1
aa
  1
aa*
  1
*
  1
*
 70
     0
  1
*
  1
*
  0
XRECORD
  5
23
102
{ACAD_REACTORS
330
14
102
}
330
14
100
AcDbXrecord
  1
acabados
  1
a-*
  1
*
  1
*
 70
     5
  1
*
  1
*
  0
XRECORD
  5
24
102
{ACAD_REACTORS
330
14
102
}
330
14
100
AcDbXrecord
  1
AGUA Y DREN
  1
A-DS-*
  1
*
  1
*
 70
     0
  1
*
  1
*
  0
XRECORD
  5
25
102
{ACAD_REACTORS
330
14
102
}
330
14
100
AcDbXrecord
  1
Aire
  1
*
  1
*
  1
*
 70
     0
  1
*
  1
*
  0
XRECORD
  5
26
102
{ACAD_REACTORS
330
14
102
}
330
14
100
AcDbXrecord
  1
alle aus
  1
99999999999
  1
*
  1
*
 70
     0
  1
*
  1
*
  0
XRECORD
  5
27
102
{ACAD_REACTORS
330
14
102
}
330
14
100
AcDbXrecord
  1
Alles mit S
  1
s*
  1
*
  1
*
 70
     0
  1
*
  1
*
  0
XRECORD
  5
28
102
{ACAD_REACTORS
330
14
102
}
330
14
100
AcDbXrecord
  1
amarillo
  1
*
  1
yellow
  1
*
 70
     0
  1
*
  1
*
  0
XRECORD
  5
29
102
{ACAD_REACTORS
330
14
102
}
330
14
100
AcDbXrecord
  1
APAGADOS
  1
*
  1
*
  1
*
 70
     4
  1
*
  1
*
  0
XRECORD
  5
2A
102
{ACAD_REACTORS
330
14
102
}
330
14
100
AcDbXrecord
  1
ARR
  1
ARR*
  1
*
  1
*
 70
     0
  1
*
  1
*
  0
XRECORD
  5
2B
102
{ACAD_REACTORS
330
14
102
}
330
14
100
AcDbXrecord
  1
ba
  1
*
  1
*
  1
*
 70
     0
  1
*
  1
*
  0
XRECORD
  5
2C
102
{ACAD_REACTORS
330
14
102
}
330
14
100
AcDbXrecord
  1
BACKS
  1
*-H
  1
*
  1
*
 70
     0
  1
*
  1
*
  0
XRECORD
  5
2D
102
{ACAD_REACTORS
330
14
102
}
330
14
100
AcDbXrecord
  1
BASE
  1
*-PBASE
  1
*
  1
*
 70
     0
  1
*
  1
*
  0
XRECORD
  5
2E
102
{ACAD_REACTORS
330
14
102
}
330
14
100
AcDbXrecord
  1
BLOQ_INUTIL
  1
*
  1
*
  1
*
 70
     0
  1
*
  1
*
  0
XRECORD
  5
2F
102
{ACAD_REACTORS
330
14
102
}
330
14
100
AcDbXrecord
  1
CADKON
  1
?[KAHBSM]?????[23M],?[KAHBSM]?????[23M][1456A-DGHILN-SU-Z]
  1
*
  1
*
 70
     0
  1
*
  1
*
  0
XRECORD
  5
30
102
{ACAD_REACTORS
330
14
102
}
330
14
100
AcDbXrecord
  1
carpinteria
  1
carp*
  1
*
  1
*
 70
     0
  1
*
  1
*
  0
XRECORD
  5
31
102
{ACAD_REACTORS
330
14
102
}
330
14
100
AcDbXrecord
  1
cerrados
  1
*
  1
*
  1
*
 70
   256
  1
*
  1
*
  0
XRECORD
  5
32
102
{ACAD_REACTORS
330
14
102
}
330
14
100
AcDbXrecord
  1
COL
  1
*
  1
*
  1
*
 70
     1
  1
*
  1
*
  0
XRECORD
  5
33
102
{ACAD_REACTORS
330
14
102
}
330
14
100
AcDbXrecord
  1
COLOR
  1
*
  1
253
  1
*
 70
     0
  1
*
  1
*
  0
XRECORD
  5
34
102
{ACAD_REACTORS
330
14
102
}
330
14
100
AcDbXrecord
  1
color 250
  1
*
  1
250
  1
*
 70
     0
  1
*
  1
*
  0
XRECORD
  5
35
102
{ACAD_REACTORS
330
14
102
}
330
14
100
AcDbXrecord
  1
COLORES
  1
*
  1
6
  1
*
 70
     0
  1
*
  1
*
  0
XRECORD
  5
36
102
{ACAD_REACTORS
330
14
102
}
330
14
100
AcDbXrecord
  1
Congelados
  1
*
  1
*
  1
*
 70
     4
  1
*
  1
*
  0
XRECORD
  5
37
102
{ACAD_REACTORS
330
14
102
}
330
14
100
AcDbXrecord
  1
CONJUNTO
  1
CON-*
  1
*
  1
*
 70
     0
  1
*
  1
*
  0
XRECORD
  5
38
102
{ACAD_REACTORS
330
14
102
}
330
14
100
AcDbXrecord
  1
d1
  1
achurados
  1
*
  1
*
 70
     0
  1
*
  1
*
  0
XRECORD
  5
39
102
{ACAD_REACTORS
330
14
102
}
330
14
100
AcDbXrecord
  1
DA_
  1
DA*
  1
*
  1
*
 70
     0
  1
*
  1
*
  0
XRECORD
  5
3A
102
{ACAD_REACTORS
330
14
102
}
330
14
100
AcDbXrecord
  1
DET-
  1
*
  1
*
  1
*
 70
     0
  1
*
  1
*
  0
XRECORD
  5
3B
102
{ACAD_REACTORS
330
14
102
}
330
14
100
AcDbXrecord
  1
DOR-H
  1
*
  1
7
  1
*
 70
     0
  1
*
  1
*
  0
XRECORD
  5
3C
102
{ACAD_REACTORS
330
14
102
}
330
14
100
AcDbXrecord
  1
ejes
  1
eje*
  1
*
  1
*
 70
     0
  1
*
  1
*
  0
XRECORD
  5
3D
102
{ACAD_REACTORS
330
14
102
}
330
14
100
AcDbXrecord
  1
ELECTRICO
  1
ELEC-*
  1
*
  1
*
 70
     0
  1
*
  1
*
  0
XRECORD
  5
3E
102
{ACAD_REACTORS
330
14
102
}
330
14
100
AcDbXrecord
  1
F1
  1
Halaxref*
  1
*
  1
*
 70
     0
  1
*
  1
*
  0
XRECORD
  5
3F
102
{ACAD_REACTORS
330
14
102
}
330
14
100
AcDbXrecord
  1
frozen
  1
*
  1
*
  1
*
 70
     4
  1
*
  1
*
  0
XRECORD
  5
40
102
{ACAD_REACTORS
330
14
102
}
330
14
100
AcDbXrecord
  1
grid
  1
*-PGRID
  1
*
  1
*
 70
     1
  1
*
  1
*
  0
XRECORD
  5
41
102
{ACAD_REACTORS
330
14
102
}
330
14
100
AcDbXrecord
  1
GRIDTXT
  1
*-PGRIDT
  1
*
  1
*
 70
     0
  1
*
  1
*
  0
XRECORD
  5
42
102
{ACAD_REACTORS
330
14
102
}
330
14
100
AcDbXrecord
  1
HATCH
  1
HAT*
  1
*
  1
*
 70
     0
  1
*
  1
*
  0
XRECORD
  5
43
102
{ACAD_REACTORS
330
14
102
}
330
14
100
AcDbXrecord
  1
HCAD
  1
1HCAD-*
  1
*
  1
*
 70
    13
  1
*
  1
*
  0
XRECORD
  5
44
102
{ACAD_REACTORS
330
14
102
}
330
14
100
AcDbXrecord
  1
INSTALACIONES
  1
I-*
  1
*
  1
*
 70
     0
  1
*
  1
*
  0
XRECORD
  5
45
102
{ACAD_REACTORS
330
14
102
}
330
14
100
AcDbXrecord
  1
JIZNI
  1
*-J
  1
*
  1
*
 70
     0
  1
*
  1
*
  0
XRECORD
  5
46
102
{ACAD_REACTORS
330
14
102
}
330
14
100
AcDbXrecord
  1
kck
  1
*
  1
*
  1
*
 70
     0
  1
*
  1
*
  0
XRECORD
  5
47
102
{ACAD_REACTORS
330
14
102
}
330
14
100
AcDbXrecord
  1
kkk
  1
k
  1
*
  1
*
 70
     0
  1
*
  1
*
  0
XRECORD
  5
48
102
{ACAD_REACTORS
330
14
102
}
330
14
100
AcDbXrecord
  1
lay
  1
??-*
  1
*
  1
*
 70
     0
  1
*
  1
*
  0
XRECORD
  5
4C
102
{ACAD_REACTORS
330
14
102
}
330
14
100
AcDbXrecord
  1
Layer-0
  1
0*
  1
*
  1
*
 70
     0
  1
*
  1
*
  0
XRECORD
  5
4D
102
{ACAD_REACTORS
330
14
102
}
330
14
100
AcDbXrecord
  1
Layer-1
  1
1*
  1
*
  1
*
 70
     0
  1
*
  1
*
  0
XRECORD
  5
49
102
{ACAD_REACTORS
330
14
102
}
330
14
100
AcDbXrecord
  1
Layer 1 und 0
  1
1*,0
  1
*
  1
*
 70
     0
  1
*
  1
*
  0
XRECORD
  5
4A
102
{ACAD_REACTORS
330
14
102
}
330
14
100
AcDbXrecord
  1
Layer 2 und 0
  1
2*,0
  1
*
  1
*
 70
     0
  1
*
  1
*
  0
XRECORD
  5
4B
102
{ACAD_REACTORS
330
14
102
}
330
14
100
AcDbXrecord
  1
Layer 9 und 0 Schraffur
  1
9*,0
  1
*
  1
*
 70
     0
  1
*
  1
*
  0
XRECORD
  5
4E
102
{ACAD_REACTORS
330
14
102
}
330
14
100
AcDbXrecord
  1
LOCK
  1
*
  1
*
  1
*
 70
   256
  1
*
  1
*
  0
XRECORD
  5
4F
102
{ACAD_REACTORS
330
14
102
}
330
14
100
AcDbXrecord
  1
locked
  1
*
  1
*
  1
*
 70
   256
  1
*
  1
*
  0
XRECORD
  5
50
102
{ACAD_REACTORS
330
14
102
}
330
14
100
AcDbXrecord
  1
Lotes
  1
*
  1
*
  1
*
 70
     1
  1
*
  1
*
  0
XRECORD
  5
51
102
{ACAD_REACTORS
330
14
102
}
330
14
100
AcDbXrecord
  1
LUNAR
  1
*
  1
*
  1
*
 70
    48
  1
*
  1
*
  0
XRECORD
  5
52
102
{ACAD_REACTORS
330
14
102
}
330
14
100
AcDbXrecord
  1
LUNAR2
  1
*
  1
*
  1
*
 70
    12
  1
*
  1
*
  0
XRECORD
  5
53
102
{ACAD_REACTORS
330
14
102
}
330
14
100
AcDbXrecord
  1
M
  1
M*
  1
*
  1
*
 70
     0
  1
*
  1
*
  0
XRECORD
  5
54
102
{ACAD_REACTORS
330
14
102
}
330
14
100
AcDbXrecord
  1
mis_layers
  1
mis_*
  1
*
  1
*
 70
     0
  1
*
  1
*
  0
XRECORD
  5
55
102
{ACAD_REACTORS
330
14
102
}
330
14
100
AcDbXrecord
  1
MRKCK
  1
*
  1
*
  1
*
 70
     0
  1
*
  1
*
  0
XRECORD
  5
56
102
{ACAD_REACTORS
330
14
102
}
330
14
100
AcDbXrecord
  1
NECADKON
  1
~*?[KAHBSM]?????[23M]*
  1
*
  1
*
 70
     0
  1
*
  1
*
  0
XRECORD
  5
57
102
{ACAD_REACTORS
330
14
102
}
330
14
100
AcDbXrecord
  1
NI_LH
  1
NI_LH*
  1
*
  1
*
 70
     0
  1
*
  1
*
  0
XRECORD
  5
58
102
{ACAD_REACTORS
330
14
102
}
330
14
100
AcDbXrecord
  1
NI_RH
  1
NI_RH*
  1
*
  1
*
 70
     0
  1
*
  1
*
  0
XRECORD
  5
59
102
{ACAD_REACTORS
330
14
102
}
330
14
100
AcDbXrecord
  1
NUM
  1
NUM*
  1
*
  1
*
 70
     0
  1
*
  1
*
  0
XRECORD
  5
5A
102
{ACAD_REACTORS
330
14
102
}
330
14
100
AcDbXrecord
  1
off
  1
*
  1
*
  1
*
 70
     3
  1
*
  1
*
  0
XRECORD
  5
5B
102
{ACAD_REACTORS
330
14
102
}
330
14
100
AcDbXrecord
  1
on
  1
*
  1
*
  1
*
 70
     0
  1
*
  1
*
  0
XRECORD
  5
5C
102
{ACAD_REACTORS
330
14
102
}
330
14
100
AcDbXrecord
  1
PBASE
  1
*PBASE
  1
*
  1
*
 70
     0
  1
*
  1
*
  0
XRECORD
  5
5D
102
{ACAD_REACTORS
330
14
102
}
330
14
100
AcDbXrecord
  1
PEGC
  1
*PEGC
  1
*
  1
*
 70
     0
  1
*
  1
*
  0
XRECORD
  5
5E
102
{ACAD_REACTORS
330
14
102
}
330
14
100
AcDbXrecord
  1
PEGCT
  1
*PEGCT
  1
*
  1
*
 70
     0
  1
*
  1
*
  0
XRECORD
  5
5F
102
{ACAD_REACTORS
330
14
102
}
330
14
100
AcDbXrecord
  1
PFRAME
  1
PFRAME*
  1
*
  1
*
 70
     0
  1
*
  1
*
  0
XRECORD
  5
60
102
{ACAD_REACTORS
330
14
102
}
330
14
100
AcDbXrecord
  1
PGRID
  1
*PGRID
  1
*
  1
*
 70
     0
  1
*
  1
*
  0
XRECORD
  5
61
102
{ACAD_REACTORS
330
14
102
}
330
14
100
AcDbXrecord
  1
PGRIDT
  1
*PGRIDT
  1
*
  1
*
 70
     0
  1
*
  1
*
  0
XRECORD
  5
62
102
{ACAD_REACTORS
330
14
102
}
330
14
100
AcDbXrecord
  1
PLAFONES
  1
0-*
  1
*
  1
*
 70
     0
  1
*
  1
*
  0
XRECORD
  5
63
102
{ACAD_REACTORS
330
14
102
}
330
14
100
AcDbXrecord
  1
PLANTAS
  1
P-*
  1
*
  1
*
 70
     0
  1
*
  1
*
  0
XRECORD
  5
64
102
{ACAD_REACTORS
330
14
102
}
330
14
100
AcDbXrecord
  1
Plot
  1
*
  1
*
  1
*
 70
  1024
  1
*
  1
*
  0
XRECORD
  5
65
102
{ACAD_REACTORS
330
14
102
}
330
14
100
AcDbXrecord
  1
PRENDIDAS
  1
*
  1
*
  1
*
 70
    13
  1
*
  1
*
  0
XRECORD
  5
66
102
{ACAD_REACTORS
330
14
102
}
330
14
100
AcDbXrecord
  1
PRENDIDOS
  1
*
  1
*
  1
*
 70
    12
  1
*
  1
*
  0
XRECORD
  5
67
102
{ACAD_REACTORS
330
14
102
}
330
14
100
AcDbXrecord
  1
print
  1
*
  1
7
  1
*
 70
  1280
  1
*
  1
*
  0
XRECORD
  5
68
102
{ACAD_REACTORS
330
14
102
}
330
14
100
AcDbXrecord
  1
PT
  1
PT-*
  1
*
  1
*
 70
     0
  1
*
  1
*
  0
XRECORD
  5
69
102
{ACAD_REACTORS
330
14
102
}
330
14
100
AcDbXrecord
  1
PTH
  1
PTH*
  1
*
  1
*
 70
     0
  1
*
  1
*
  0
XRECORD
  5
6A
102
{ACAD_REACTORS
330
14
102
}
330
14
100
AcDbXrecord
  1
PVGRID
  1
*PVGRID
  1
*
  1
*
 70
     0
  1
*
  1
*
  0
XRECORD
  5
6B
102
{ACAD_REACTORS
330
14
102
}
330
14
100
AcDbXrecord
  1
Red de Agua Potable
  1
Red de Agua Potable
  1
*
  1
*
 70
     1
  1
*
  1
*
  0
XRECORD
  5
6C
102
{ACAD_REACTORS
330
14
102
}
330
14
100
AcDbXrecord
  1
Red de Energia Electrica
  1
Lotes
  1
*
  1
*
 70
     1
  1
*
  1
*
  0
XRECORD
  5
6D
102
{ACAD_REACTORS
330
14
102
}
330
14
100
AcDbXrecord
  1
SEVERNI
  1
*-S
  1
*
  1
*
 70
     0
  1
*
  1
*
  0
XRECORD
  5
6E
102
{ACAD_REACTORS
330
14
102
}
330
14
100
AcDbXrecord
  1
shin
  1
일*
  1
*
  1
*
 70
     0
  1
*
  1
*
  0
XRECORD
  5
6F
102
{ACAD_REACTORS
330
14
102
}
330
14
100
AcDbXrecord
  1
SHOW ALL LAYER
  1
*
  1
*
  1
*
 70
     0
  1
*
  1
*
  0
XRECORD
  5
70
102
{ACAD_REACTORS
330
14
102
}
330
14
100
AcDbXrecord
  1
sin
  1
sin
  1
*
  1
*
 70
     0
  1
*
  1
*
  0
XRECORD
  5
71
102
{ACAD_REACTORS
330
14
102
}
330
14
100
AcDbXrecord
  1
STORAGE-CART
  1
STORAGE-CART*
  1
*
  1
*
 70
     0
  1
*
  1
*
  0
XRECORD
  5
72
102
{ACAD_REACTORS
330
14
102
}
330
14
100
AcDbXrecord
  1
T
  1
T*
  1
*
  1
*
 70
     0
  1
*
  1
*
  0
XRECORD
  5
73
102
{ACAD_REACTORS
330
14
102
}
330
14
100
AcDbXrecord
  1
TEXTOS
  1
TXT*
  1
*
  1
*
 70
     0
  1
*
  1
*
  0
XRECORD
  5
74
102
{ACAD_REACTORS
330
14
102
}
330
14
100
AcDbXrecord
  1
TEXTURAS
  1
*TEXTURAS
  1
*
  1
*
 70
     0
  1
*
  1
*
  0
XRECORD
  5
75
102
{ACAD_REACTORS
330
14
102
}
330
14
100
AcDbXrecord
  1
TUBERIAS
  1
T*
  1
*
  1
*
 70
     0
  1
*
  1
*
  0
XRECORD
  5
76
102
{ACAD_REACTORS
330
14
102
}
330
14
100
AcDbXrecord
  1
UNFRZ
  1
*
  1
*
  1
*
 70
    12
  1
*
  1
*
  0
XRECORD
  5
77
102
{ACAD_REACTORS
330
14
102
}
330
14
100
AcDbXrecord
  1
v\U+0161echny nepou\U+017E\U+00EDvan\U+00E9
  1
*
  1
*
  1
*
 70
     0
  1
*
  1
*
  0
XRECORD
  5
78
102
{ACAD_REACTORS
330
14
102
}
330
14
100
AcDbXrecord
  1
VA
  1
VA*
  1
*
  1
*
 70
     0
  1
*
  1
*
  0
XRECORD
  5
79
102
{ACAD_REACTORS
330
14
102
}
330
14
100
AcDbXrecord
  1
Ventilaci\U+00F3n
  1
*
  1
*
  1
*
 70
     0
  1
*
  1
*
  0
XRECORD
  5
7A
102
{ACAD_REACTORS
330
14
102
}
330
14
100
AcDbXrecord
  1
VYHODNI
  1
*-V
  1
*
  1
*
 70
     0
  1
*
  1
*
  0
XRECORD
  5
7B
102
{ACAD_REACTORS
330
14
102
}
330
14
100
AcDbXrecord
  1
Yo
  1
Muros
  1
*
  1
*
 70
     0
  1
*
  1
*
  0
XRECORD
  5
7C
102
{ACAD_REACTORS
330
14
102
}
330
14
100
AcDbXrecord
  1
ZAPADNI
  1
*-Z
  1
*
  1
*
 70
     0
  1
*
  1
*
  0
XRECORD
  5
7D
102
{ACAD_REACTORS
330
14
102
}
330
14
100
AcDbXrecord
  1
사용
  1
*
  1
*
  1
*
 70
   256
  1
*
  1
*
  0
XRECORD
  5
7E
102
{ACAD_REACTORS
330
14
102
}
330
14
100
AcDbXrecord
  1
신규
  1
신규
  1
*
  1
*
 70
     0
  1
*
  1
*
  0
XRECORD
  5
7F
102
{ACAD_REACTORS
330
14
102
}
330
14
100
AcDbXrecord
  1
실박스
  1
BLO,SYM,SYM1,SYM2
  1
*
  1
*
 70
     0
  1
*
  1
*
  0
XRECORD
  5
80
102
{ACAD_REACTORS
330
14
102
}
330
14
100
AcDbXrecord
  1
우리토목
  1
w-*
  1
*
  1
*
 70
     0
  1
*
  1
*
  0
XRECORD
  5
81
102
{ACAD_REACTORS
330
14
102
}
330
14
100
AcDbXrecord
  1
주차
  1
car*
  1
*
  1
*
 70
     0
  1
*
  1
*
  0
XRECORD
  5
82
102
{ACAD_REACTORS
330
14
102
}
330
14
100
AcDbXrecord
  1
지상정밀
  1
*
  1
*
  1
*
 70
     0
  1
*
  1
*
  0
XRECORD
  5
83
102
{ACAD_REACTORS
330
14
102
}
330
14
100
AcDbXrecord
  1
쩜선
  1
*
  1
*
  1
*
 70
     0
  1
*
  1
*
  0
XRECORD
  5
84
102
{ACAD_REACTORS
330
14
102
}
330
14
100
AcDbXrecord
  1
플로터 작업층
  1
*
  1
*
  1
*
 70
  1025
  1
*
  1
*
  0
XRECORD
  5
85
102
{ACAD_REACTORS
330
14
102
}
330
14
100
AcDbXrecord
  1
현재 작업층
  1
*
  1
*
  1
*
 70
     1
  1
*
  1
*
  0
XRECORD
  5
86
102
{ACAD_REACTORS
330
14
102
}
330
14
100
AcDbXrecord
  1
현재 잠금
  1
*
  1
*
  1
*
 70
   257
  1
*
  1
*
  0
ENDSEC
  0
EOF
