  0
SECTION
  2
HEADER
  9
$ACADVER
  1
AC1014
  9
$ACADMAINTVER
 70
     9
  9
$DWGCODEPAGE
  3
ANSI_949
  9
$INSBASE
 10
0.0
 20
0.0
 30
0.0
  9
$EXTMIN
 10
-7.14746934284733
 20
1.930474495349812
 30
-0.0000000000112498
  9
$EXTMAX
 10
361.9697882339601
 20
510.1587087882574
 30
0.0000000000002956
  9
$LIMMIN
 10
0.0
 20
0.0
  9
$LIMMAX
 10
420.0
 20
297.0
  9
$ORTHOMODE
 70
     0
  9
$REGENMODE
 70
     1
  9
$FILLMODE
 70
     1
  9
$QTEXTMODE
 70
     0
  9
$MIRRTEXT
 70
     0
  9
$DRAGMODE
 70
     2
  9
$LTSCALE
 40
0.2
  9
$OSMODE
 70
  3071
  9
$ATTMODE
 70
     1
  9
$TEXTSIZE
 40
5.777225951253058
  9
$TRACEWID
 40
1.0
  9
$TEXTSTYLE
  7
STANDARD
  9
$CLAYER
  8
0
  9
$CELTYPE
  6
BYLAYER
  9
$CECOLOR
 62
   256
  9
$CELTSCALE
 40
1.0
  9
$DELOBJ
 70
     1
  9
$DISPSILH
 70
     0
  9
$DIMSCALE
 40
1.0
  9
$DIMASZ
 40
3.0
  9
$DIMEXO
 40
1.0
  9
$DIMDLI
 40
10.0
  9
$DIMRND
 40
0.0
  9
$DIMDLE
 40
0.0
  9
$DIMEXE
 40
0.6
  9
$DIMTP
 40
0.0
  9
$DIMTM
 40
0.0
  9
$DIMTXT
 40
3.5
  9
$DIMCEN
 40
0.09
  9
$DIMTSZ
 40
0.0
  9
$DIMTOL
 70
     0
  9
$DIMLIM
 70
     0
  9
$DIMTIH
 70
     0
  9
$DIMTOH
 70
     0
  9
$DIMSE1
 70
     0
  9
$DIMSE2
 70
     0
  9
$DIMTAD
 70
     1
  9
$DIMZIN
 70
     8
  9
$DIMBLK
  1

  9
$DIMASO
 70
     1
  9
$DIMSHO
 70
     1
  9
$DIMPOST
  1

  9
$DIMAPOST
  1

  9
$DIMALT
 70
     0
  9
$DIMALTD
 70
     2
  9
$DIMALTF
 40
25.4
  9
$DIMLFAC
 40
1.0
  9
$DIMTOFL
 70
     1
  9
$DIMTVP
 40
0.0
  9
$DIMTIX
 70
     1
  9
$DIMSOXD
 70
     0
  9
$DIMSAH
 70
     0
  9
$DIMBLK1
  1

  9
$DIMBLK2
  1

  9
$DIMSTYLE
  2
1_1_2
  9
$DIMCLRD
 70
   123
  9
$DIMCLRE
 70
   123
  9
$DIMCLRT
 70
     3
  9
$DIMTFAC
 40
1.0
  9
$DIMGAP
 40
1.0
  9
$DIMJUST
 70
     0
  9
$DIMSD1
 70
     0
  9
$DIMSD2
 70
     0
  9
$DIMTOLJ
 70
     1
  9
$DIMTZIN
 70
     0
  9
$DIMALTZ
 70
     0
  9
$DIMALTTZ
 70
     0
  9
$DIMFIT
 70
     3
  9
$DIMUPT
 70
     1
  9
$DIMUNIT
 70
     2
  9
$DIMDEC
 70
     2
  9
$DIMTDEC
 70
     2
  9
$DIMALTU
 70
     2
  9
$DIMALTTD
 70
     2
  9
$DIMTXSTY
  7
STANDARD
  9
$DIMAUNIT
 70
     1
  9
$LUNITS
 70
     2
  9
$LUPREC
 70
     4
  9
$SKETCHINC
 40
1.0
  9
$FILLETRAD
 40
0.5
  9
$AUNITS
 70
     0
  9
$AUPREC
 70
     0
  9
$MENU
  1
.
  9
$ELEVATION
 40
0.0
  9
$PELEVATION
 40
0.0
  9
$THICKNESS
 40
0.0
  9
$LIMCHECK
 70
     0
  9
$BLIPMODE
 70
     0
  9
$CHAMFERA
 40
1.0
  9
$CHAMFERB
 40
1.0
  9
$CHAMFERC
 40
20.0
  9
$CHAMFERD
 40
0.0
  9
$SKPOLY
 70
     0
  9
$TDCREATE
 40
2452839.586179271
  9
$TDUPDATE
 40
2453385.421736470
  9
$TDINDWG
 40
11.1165362269
  9
$TDUSRTIMER
 40
11.1165358565
  9
$USRTIMER
 70
     1
  9
$ANGBASE
 50
0.0
  9
$ANGDIR
 70
     0
  9
$PDMODE
 70
     0
  9
$PDSIZE
 40
0.0
  9
$PLINEWID
 40
0.0
  9
$COORDS
 70
     1
  9
$SPLFRAME
 70
     0
  9
$SPLINETYPE
 70
     6
  9
$SPLINESEGS
 70
   800
  9
$ATTDIA
 70
     0
  9
$ATTREQ
 70
     1
  9
$HANDLING
 70
 22529
  9
$HANDSEED
  5
5DF
  9
$SURFTAB1
 70
     6
  9
$SURFTAB2
 70
     6
  9
$SURFTYPE
 70
     6
  9
$SURFU
 70
     6
  9
$SURFV
 70
     6
  9
$UCSNAME
  2

  9
$UCSORG
 10
0.0
 20
0.0
 30
0.0
  9
$UCSXDIR
 10
1.0
 20
0.0
 30
0.0
  9
$UCSYDIR
 10
0.0
 20
1.0
 30
0.0
  9
$PUCSNAME
  2

  9
$PUCSORG
 10
0.0
 20
0.0
 30
0.0
  9
$PUCSXDIR
 10
1.0
 20
0.0
 30
0.0
  9
$PUCSYDIR
 10
0.0
 20
1.0
 30
0.0
  9
$USERI1
 70
     0
  9
$USERI2
 70
     0
  9
$USERI3
 70
     0
  9
$USERI4
 70
     0
  9
$USERI5
 70
     0
  9
$USERR1
 40
0.0
  9
$USERR2
 40
0.0
  9
$USERR3
 40
0.0
  9
$USERR4
 40
0.0
  9
$USERR5
 40
0.0
  9
$WORLDVIEW
 70
     1
  9
$SHADEDGE
 70
     3
  9
$SHADEDIF
 70
    70
  9
$TILEMODE
 70
     1
  9
$MAXACTVP
 70
    48
  9
$PINSBASE
 10
0.0
 20
0.0
 30
0.0
  9
$PLIMCHECK
 70
     0
  9
$PEXTMIN
 10
0.0
 20
0.0
 30
0.0
  9
$PEXTMAX
 10
0.0
 20
0.0
 30
0.0
  9
$PLIMMIN
 10
0.0
 20
0.0
  9
$PLIMMAX
 10
12.0
 20
9.0
  9
$UNITMODE
 70
     0
  9
$VISRETAIN
 70
     1
  9
$PLINEGEN
 70
     0
  9
$PSLTSCALE
 70
     1
  9
$TREEDEPTH
 70
  3020
  9
$PICKSTYLE
 70
     1
  9
$CMLSTYLE
  2
STANDARD
  9
$CMLJUST
 70
     0
  9
$CMLSCALE
 40
20.0
  9
$PROXYGRAPHICS
 70
     1
  9
$MEASUREMENT
 70
     1
  0
ENDSEC
  0
SECTION
  2
CLASSES
  0
CLASS
  1
ACDBDICTIONARYWDFLT
  2
AcDbDictionaryWithDefault
  3
AutoCAD 2000
 90
        0
280
     0
281
     0
  0
CLASS
  1
ACDBPLACEHOLDER
  2
AcDbPlaceHolder
  3
AutoCAD 2000
 90
        0
280
     0
281
     0
  0
CLASS
  1
LAYOUT
  2
AcDbLayout
  3
AutoCAD 2000
 90
        0
280
     0
281
     0
  0
CLASS
  1
DICTIONARYVAR
  2
AcDbDictionaryVar
  3
AutoCAD 2000
 90
        0
280
     0
281
     0
  0
CLASS
  1
DIMASSOC
  2
AcDbDimAssoc
  3
"AcDbDimAssoc|Product Desc:     AcDim ARX App For Dimension|Company:          Autodesk, Inc.|WEB Address:      www.autodesk.com"
 90
        0
280
     0
281
     0
  0
CLASS
  1
LONG_TRANSACTION
  2
AcDbLongTransaction
  3
AutoCAD 2000
 90
        0
280
     0
281
     0
  0
CLASS
  1
LWPOLYLINE
  2
AcDbPolyline
  3
AutoCAD 2000
 90
        0
280
     0
281
     1
  0
CLASS
  1
HATCH
  2
AcDbHatch
  3
AutoCAD 2000
 90
        0
280
     0
281
     1
  0
CLASS
  1
XRECORD
  2
AcDbXrecord
  3
AutoCAD 2000
 90
        0
280
     0
281
     0
  0
CLASS
  1
LONG_TRANSACTION
  2
AcDbLongTransaction
  3
AutoCAD 2000
 90
        0
280
     0
281
     0
  0
CLASS
  1
LWPOLYLINE
  2
AcDbPolyline
  3
AutoCAD 2000
 90
        0
280
     0
281
     1
  0
CLASS
  1
HATCH
  2
AcDbHatch
  3
AutoCAD 2000
 90
        0
280
     0
281
     1
  0
CLASS
  1
XRECORD
  2
AcDbXrecord
  3
AutoCAD 2000
 90
        0
280
     0
281
     0
  0
CLASS
  1
LONG_TRANSACTION
  2
AcDbLongTransaction
  3
AutoCAD 2000
 90
        0
280
     0
281
     0
  0
CLASS
  1
LWPOLYLINE
  2
AcDbPolyline
  3
AutoCAD 2000
 90
        0
280
     0
281
     1
  0
CLASS
  1
HATCH
  2
AcDbHatch
  3
AutoCAD 2000
 90
        0
280
     0
281
     1
  0
CLASS
  1
XRECORD
  2
AcDbXrecord
  3
AutoCAD 2000
 90
        0
280
     0
281
     0
  0
CLASS
  1
LONG_TRANSACTION
  2
AcDbLongTransaction
  3
AutoCAD 2000
 90
        0
280
     0
281
     0
  0
CLASS
  1
LWPOLYLINE
  2
AcDbPolyline
  3
AutoCAD 2000
 90
        0
280
     0
281
     1
  0
CLASS
  1
HATCH
  2
AcDbHatch
  3
AutoCAD 2000
 90
        0
280
     0
281
     1
  0
CLASS
  1
XRECORD
  2
AcDbXrecord
  3
AutoCAD 2000
 90
        0
280
     0
281
     0
  0
CLASS
  1
LONG_TRANSACTION
  2
AcDbLongTransaction
  3
AutoCAD 2000
 90
        0
280
     0
281
     0
  0
CLASS
  1
LWPOLYLINE
  2
AcDbPolyline
  3
AutoCAD 2000
 90
        0
280
     0
281
     1
  0
CLASS
  1
HATCH
  2
AcDbHatch
  3
AutoCAD 2000
 90
        0
280
     0
281
     1
  0
CLASS
  1
XRECORD
  2
AcDbXrecord
  3
AutoCAD 2000
 90
        0
280
     0
281
     0
  0
CLASS
  1
LONG_TRANSACTION
  2
AcDbLongTransaction
  3
AutoCAD 2000
 90
        0
280
     0
281
     0
  0
CLASS
  1
LWPOLYLINE
  2
AcDbPolyline
  3
AutoCAD 2000
 90
        0
280
     0
281
     1
  0
CLASS
  1
HATCH
  2
AcDbHatch
  3
AutoCAD 2000
 90
        0
280
     0
281
     1
  0
CLASS
  1
XRECORD
  2
AcDbXrecord
  3
AutoCAD 2000
 90
        0
280
     0
281
     0
  0
CLASS
  1
LONG_TRANSACTION
  2
AcDbLongTransaction
  3
AutoCAD 2000
 90
        0
280
     0
281
     0
  0
CLASS
  1
LWPOLYLINE
  2
AcDbPolyline
  3
AutoCAD 2000
 90
        0
280
     0
281
     1
  0
CLASS
  1
HATCH
  2
AcDbHatch
  3
AutoCAD 2000
 90
        0
280
     0
281
     1
  0
CLASS
  1
XRECORD
  2
AcDbXrecord
  3
AutoCAD 2000
 90
        0
280
     0
281
     0
  0
CLASS
  1
LONG_TRANSACTION
  2
AcDbLongTransaction
  3
AutoCAD 2000
 90
        0
280
     0
281
     0
  0
CLASS
  1
LWPOLYLINE
  2
AcDbPolyline
  3
AutoCAD 2000
 90
        0
280
     0
281
     1
  0
CLASS
  1
HATCH
  2
AcDbHatch
  3
AutoCAD 2000
 90
        0
280
     0
281
     1
  0
CLASS
  1
XRECORD
  2
AcDbXrecord
  3
AutoCAD 2000
 90
        0
280
     0
281
     0
  0
CLASS
  1
LONG_TRANSACTION
  2
AcDbLongTransaction
  3
AutoCAD 2000
 90
        0
280
     0
281
     0
  0
CLASS
  1
LWPOLYLINE
  2
AcDbPolyline
  3
AutoCAD 2000
 90
        0
280
     0
281
     1
  0
CLASS
  1
HATCH
  2
AcDbHatch
  3
AutoCAD 2000
 90
        0
280
     0
281
     1
  0
CLASS
  1
XRECORD
  2
AcDbXrecord
  3
AutoCAD 2000
 90
        0
280
     0
281
     0
  0
CLASS
  1
LONG_TRANSACTION
  2
AcDbLongTransaction
  3
AutoCAD 2000
 90
        0
280
     0
281
     0
  0
CLASS
  1
LWPOLYLINE
  2
AcDbPolyline
  3
AutoCAD 2000
 90
        0
280
     0
281
     1
  0
CLASS
  1
HATCH
  2
AcDbHatch
  3
AutoCAD 2000
 90
        0
280
     0
281
     1
  0
CLASS
  1
XRECORD
  2
AcDbXrecord
  3
AutoCAD 2000
 90
        0
280
     0
281
     0
  0
CLASS
  1
LONG_TRANSACTION
  2
AcDbLongTransaction
  3
AutoCAD 2000
 90
        0
280
     0
281
     0
  0
CLASS
  1
LWPOLYLINE
  2
AcDbPolyline
  3
AutoCAD 2000
 90
        0
280
     0
281
     1
  0
CLASS
  1
HATCH
  2
AcDbHatch
  3
AutoCAD 2000
 90
        0
280
     0
281
     1
  0
CLASS
  1
XRECORD
  2
AcDbXrecord
  3
AutoCAD 2000
 90
        0
280
     0
281
     0
  0
CLASS
  1
LONG_TRANSACTION
  2
AcDbLongTransaction
  3
AutoCAD 2000
 90
        0
280
     0
281
     0
  0
CLASS
  1
LWPOLYLINE
  2
AcDbPolyline
  3
AutoCAD 2000
 90
        0
280
     0
281
     1
  0
CLASS
  1
HATCH
  2
AcDbHatch
  3
AutoCAD 2000
 90
        0
280
     0
281
     1
  0
CLASS
  1
XRECORD
  2
AcDbXrecord
  3
AutoCAD 2000
 90
        0
280
     0
281
     0
  0
CLASS
  1
LONG_TRANSACTION
  2
AcDbLongTransaction
  3
AutoCAD 2000
 90
        0
280
     0
281
     0
  0
CLASS
  1
LWPOLYLINE
  2
AcDbPolyline
  3
AutoCAD 2000
 90
        0
280
     0
281
     1
  0
CLASS
  1
HATCH
  2
AcDbHatch
  3
AutoCAD 2000
 90
        0
280
     0
281
     1
  0
CLASS
  1
XRECORD
  2
AcDbXrecord
  3
AutoCAD 2000
 90
        0
280
     0
281
     0
  0
CLASS
  1
LONG_TRANSACTION
  2
AcDbLongTransaction
  3
AutoCAD 2000
 90
        0
280
     0
281
     0
  0
CLASS
  1
LWPOLYLINE
  2
AcDbPolyline
  3
AutoCAD 2000
 90
        0
280
     0
281
     1
  0
CLASS
  1
HATCH
  2
AcDbHatch
  3
AutoCAD 2000
 90
        0
280
     0
281
     1
  0
CLASS
  1
XRECORD
  2
AcDbXrecord
  3
AutoCAD 2000
 90
        0
280
     0
281
     0
  0
CLASS
  1
LONG_TRANSACTION
  2
AcDbLongTransaction
  3
AutoCAD 2000
 90
        0
280
     0
281
     0
  0
CLASS
  1
LWPOLYLINE
  2
AcDbPolyline
  3
AutoCAD 2000
 90
        0
280
     0
281
     1
  0
CLASS
  1
HATCH
  2
AcDbHatch
  3
AutoCAD 2000
 90
        0
280
     0
281
     1
  0
CLASS
  1
XRECORD
  2
AcDbXrecord
  3
AutoCAD 2000
 90
        0
280
     0
281
     0
  0
CLASS
  1
LONG_TRANSACTION
  2
AcDbLongTransaction
  3
AutoCAD 2000
 90
        0
280
     0
281
     0
  0
CLASS
  1
LWPOLYLINE
  2
AcDbPolyline
  3
AutoCAD 2000
 90
        0
280
     0
281
     1
  0
CLASS
  1
HATCH
  2
AcDbHatch
  3
AutoCAD 2000
 90
        0
280
     0
281
     1
  0
CLASS
  1
XRECORD
  2
AcDbXrecord
  3
AutoCAD 2000
 90
        0
280
     0
281
     0
  0
CLASS
  1
LONG_TRANSACTION
  2
AcDbLongTransaction
  3
AutoCAD 2000
 90
        0
280
     0
281
     0
  0
CLASS
  1
LWPOLYLINE
  2
AcDbPolyline
  3
AutoCAD 2000
 90
        0
280
     0
281
     1
  0
CLASS
  1
HATCH
  2
AcDbHatch
  3
AutoCAD 2000
 90
        0
280
     0
281
     1
  0
CLASS
  1
XRECORD
  2
AcDbXrecord
  3
AutoCAD 2000
 90
        0
280
     0
281
     0
  0
CLASS
  1
LONG_TRANSACTION
  2
AcDbLongTransaction
  3
AutoCAD 2000
 90
        0
280
     0
281
     0
  0
CLASS
  1
LWPOLYLINE
  2
AcDbPolyline
  3
AutoCAD 2000
 90
        0
280
     0
281
     1
  0
CLASS
  1
HATCH
  2
AcDbHatch
  3
AutoCAD 2000
 90
        0
280
     0
281
     1
  0
CLASS
  1
XRECORD
  2
AcDbXrecord
  3
AutoCAD 2000
 90
        0
280
     0
281
     0
  0
CLASS
  1
LONG_TRANSACTION
  2
AcDbLongTransaction
  3
AutoCAD 2000
 90
        0
280
     0
281
     0
  0
CLASS
  1
LWPOLYLINE
  2
AcDbPolyline
  3
AutoCAD 2000
 90
        0
280
     0
281
     1
  0
CLASS
  1
HATCH
  2
AcDbHatch
  3
AutoCAD 2000
 90
        0
280
     0
281
     1
  0
CLASS
  1
XRECORD
  2
AcDbXrecord
  3
AutoCAD 2000
 90
        0
280
     0
281
     0
  0
CLASS
  1
LONG_TRANSACTION
  2
AcDbLongTransaction
  3
AutoCAD 2000
 90
        0
280
     0
281
     0
  0
CLASS
  1
LWPOLYLINE
  2
AcDbPolyline
  3
AutoCAD 2000
 90
        0
280
     0
281
     1
  0
CLASS
  1
HATCH
  2
AcDbHatch
  3
AutoCAD 2000
 90
        0
280
     0
281
     1
  0
CLASS
  1
XRECORD
  2
AcDbXrecord
  3
AutoCAD 2000
 90
        0
280
     0
281
     0
  0
CLASS
  1
LONG_TRANSACTION
  2
AcDbLongTransaction
  3
AutoCAD 2000
 90
        0
280
     0
281
     0
  0
CLASS
  1
LWPOLYLINE
  2
AcDbPolyline
  3
AutoCAD 2000
 90
        0
280
     0
281
     1
  0
CLASS
  1
HATCH
  2
AcDbHatch
  3
AutoCAD 2000
 90
        0
280
     0
281
     1
  0
CLASS
  1
XRECORD
  2
AcDbXrecord
  3
AutoCAD 2000
 90
        0
280
     0
281
     0
  0
CLASS
  1
LONG_TRANSACTION
  2
AcDbLongTransaction
  3
AutoCAD 2000
 90
        0
280
     0
281
     0
  0
CLASS
  1
LWPOLYLINE
  2
AcDbPolyline
  3
AutoCAD 2000
 90
        0
280
     0
281
     1
  0
CLASS
  1
HATCH
  2
AcDbHatch
  3
AutoCAD 2000
 90
        0
280
     0
281
     1
  0
CLASS
  1
XRECORD
  2
AcDbXrecord
  3
AutoCAD 2000
 90
        0
280
     0
281
     0
  0
CLASS
  1
LONG_TRANSACTION
  2
AcDbLongTransaction
  3
AutoCAD 2000
 90
        0
280
     0
281
     0
  0
CLASS
  1
LWPOLYLINE
  2
AcDbPolyline
  3
AutoCAD 2000
 90
        0
280
     0
281
     1
  0
CLASS
  1
HATCH
  2
AcDbHatch
  3
AutoCAD 2000
 90
        0
280
     0
281
     1
  0
CLASS
  1
XRECORD
  2
AcDbXrecord
  3
AutoCAD 2000
 90
        0
280
     0
281
     0
  0
CLASS
  1
LONG_TRANSACTION
  2
AcDbLongTransaction
  3
AutoCAD 2000
 90
        0
280
     0
281
     0
  0
CLASS
  1
LWPOLYLINE
  2
AcDbPolyline
  3
AutoCAD 2000
 90
        0
280
     0
281
     1
  0
CLASS
  1
HATCH
  2
AcDbHatch
  3
AutoCAD 2000
 90
        0
280
     0
281
     1
  0
CLASS
  1
XRECORD
  2
AcDbXrecord
  3
AutoCAD 2000
 90
        0
280
     0
281
     0
  0
CLASS
  1
LONG_TRANSACTION
  2
AcDbLongTransaction
  3
AutoCAD 2000
 90
        0
280
     0
281
     0
  0
CLASS
  1
LWPOLYLINE
  2
AcDbPolyline
  3
AutoCAD 2000
 90
        0
280
     0
281
     1
  0
CLASS
  1
HATCH
  2
AcDbHatch
  3
AutoCAD 2000
 90
        0
280
     0
281
     1
  0
CLASS
  1
XRECORD
  2
AcDbXrecord
  3
AutoCAD 2000
 90
        0
280
     0
281
     0
  0
CLASS
  1
LONG_TRANSACTION
  2
AcDbLongTransaction
  3
AutoCAD 2000
 90
        0
280
     0
281
     0
  0
CLASS
  1
LWPOLYLINE
  2
AcDbPolyline
  3
AutoCAD 2000
 90
        0
280
     0
281
     1
  0
CLASS
  1
HATCH
  2
AcDbHatch
  3
AutoCAD 2000
 90
        0
280
     0
281
     1
  0
CLASS
  1
XRECORD
  2
AcDbXrecord
  3
AutoCAD 2000
 90
        0
280
     0
281
     0
  0
CLASS
  1
LONG_TRANSACTION
  2
AcDbLongTransaction
  3
AutoCAD 2000
 90
        0
280
     0
281
     0
  0
CLASS
  1
LWPOLYLINE
  2
AcDbPolyline
  3
AutoCAD 2000
 90
        0
280
     0
281
     1
  0
CLASS
  1
HATCH
  2
AcDbHatch
  3
AutoCAD 2000
 90
        0
280
     0
281
     1
  0
CLASS
  1
XRECORD
  2
AcDbXrecord
  3
AutoCAD 2000
 90
        0
280
     0
281
     0
  0
CLASS
  1
LONG_TRANSACTION
  2
AcDbLongTransaction
  3
AutoCAD 2000
 90
        0
280
     0
281
     0
  0
CLASS
  1
LWPOLYLINE
  2
AcDbPolyline
  3
AutoCAD 2000
 90
        0
280
     0
281
     1
  0
CLASS
  1
HATCH
  2
AcDbHatch
  3
AutoCAD 2000
 90
        0
280
     0
281
     1
  0
CLASS
  1
XRECORD
  2
AcDbXrecord
  3
AutoCAD 2000
 90
        0
280
     0
281
     0
  0
CLASS
  1
LONG_TRANSACTION
  2
AcDbLongTransaction
  3
AutoCAD 2000
 90
        0
280
     0
281
     0
  0
CLASS
  1
LWPOLYLINE
  2
AcDbPolyline
  3
AutoCAD 2000
 90
        0
280
     0
281
     1
  0
CLASS
  1
HATCH
  2
AcDbHatch
  3
AutoCAD 2000
 90
        0
280
     0
281
     1
  0
CLASS
  1
XRECORD
  2
AcDbXrecord
  3
AutoCAD 2000
 90
        0
280
     0
281
     0
  0
CLASS
  1
LONG_TRANSACTION
  2
AcDbLongTransaction
  3
AutoCAD 2000
 90
        0
280
     0
281
     0
  0
CLASS
  1
LWPOLYLINE
  2
AcDbPolyline
  3
AutoCAD 2000
 90
        0
280
     0
281
     1
  0
CLASS
  1
HATCH
  2
AcDbHatch
  3
AutoCAD 2000
 90
        0
280
     0
281
     1
  0
CLASS
  1
XRECORD
  2
AcDbXrecord
  3
AutoCAD 2000
 90
        0
280
     0
281
     0
  0
CLASS
  1
LONG_TRANSACTION
  2
AcDbLongTransaction
  3
AutoCAD 2000
 90
        0
280
     0
281
     0
  0
CLASS
  1
LWPOLYLINE
  2
AcDbPolyline
  3
AutoCAD 2000
 90
        0
280
     0
281
     1
  0
CLASS
  1
HATCH
  2
AcDbHatch
  3
AutoCAD 2000
 90
        0
280
     0
281
     1
  0
CLASS
  1
XRECORD
  2
AcDbXrecord
  3
AutoCAD 2000
 90
        0
280
     0
281
     0
  0
CLASS
  1
LONG_TRANSACTION
  2
AcDbLongTransaction
  3
AutoCAD 2000
 90
        0
280
     0
281
     0
  0
CLASS
  1
LWPOLYLINE
  2
AcDbPolyline
  3
AutoCAD 2000
 90
        0
280
     0
281
     1
  0
CLASS
  1
HATCH
  2
AcDbHatch
  3
AutoCAD 2000
 90
        0
280
     0
281
     1
  0
CLASS
  1
XRECORD
  2
AcDbXrecord
  3
AutoCAD 2000
 90
        0
280
     0
281
     0
  0
CLASS
  1
LONG_TRANSACTION
  2
AcDbLongTransaction
  3
AutoCAD 2000
 90
        0
280
     0
281
     0
  0
CLASS
  1
LWPOLYLINE
  2
AcDbPolyline
  3
AutoCAD 2000
 90
        0
280
     0
281
     1
  0
CLASS
  1
HATCH
  2
AcDbHatch
  3
AutoCAD 2000
 90
        0
280
     0
281
     1
  0
CLASS
  1
XRECORD
  2
AcDbXrecord
  3
AutoCAD 2000
 90
        0
280
     0
281
     0
  0
CLASS
  1
LONG_TRANSACTION
  2
AcDbLongTransaction
  3
AutoCAD 2000
 90
        0
280
     0
281
     0
  0
CLASS
  1
LWPOLYLINE
  2
AcDbPolyline
  3
AutoCAD 2000
 90
        0
280
     0
281
     1
  0
CLASS
  1
HATCH
  2
AcDbHatch
  3
AutoCAD 2000
 90
        0
280
     0
281
     1
  0
CLASS
  1
XRECORD
  2
AcDbXrecord
  3
AutoCAD 2000
 90
        0
280
     0
281
     0
  0
CLASS
  1
LONG_TRANSACTION
  2
AcDbLongTransaction
  3
AutoCAD 2000
 90
        0
280
     0
281
     0
  0
CLASS
  1
LWPOLYLINE
  2
AcDbPolyline
  3
AutoCAD 2000
 90
        0
280
     0
281
     1
  0
CLASS
  1
HATCH
  2
AcDbHatch
  3
AutoCAD 2000
 90
        0
280
     0
281
     1
  0
CLASS
  1
XRECORD
  2
AcDbXrecord
  3
AutoCAD 2000
 90
        0
280
     0
281
     0
  0
CLASS
  1
LONG_TRANSACTION
  2
AcDbLongTransaction
  3
AutoCAD 2000
 90
        0
280
     0
281
     0
  0
CLASS
  1
LWPOLYLINE
  2
AcDbPolyline
  3
AutoCAD 2000
 90
        0
280
     0
281
     1
  0
CLASS
  1
HATCH
  2
AcDbHatch
  3
AutoCAD 2000
 90
        0
280
     0
281
     1
  0
CLASS
  1
XRECORD
  2
AcDbXrecord
  3
AutoCAD 2000
 90
        0
280
     0
281
     0
  0
CLASS
  1
LONG_TRANSACTION
  2
AcDbLongTransaction
  3
AutoCAD 2000
 90
        0
280
     0
281
     0
  0
CLASS
  1
LWPOLYLINE
  2
AcDbPolyline
  3
AutoCAD 2000
 90
        0
280
     0
281
     1
  0
CLASS
  1
HATCH
  2
AcDbHatch
  3
AutoCAD 2000
 90
        0
280
     0
281
     1
  0
CLASS
  1
XRECORD
  2
AcDbXrecord
  3
AutoCAD 2000
 90
        0
280
     0
281
     0
  0
CLASS
  1
LONG_TRANSACTION
  2
AcDbLongTransaction
  3
AutoCAD 2000
 90
        0
280
     0
281
     0
  0
CLASS
  1
LWPOLYLINE
  2
AcDbPolyline
  3
AutoCAD 2000
 90
        0
280
     0
281
     1
  0
CLASS
  1
HATCH
  2
AcDbHatch
  3
AutoCAD 2000
 90
        0
280
     0
281
     1
  0
CLASS
  1
XRECORD
  2
AcDbXrecord
  3
AutoCAD 2000
 90
        0
280
     0
281
     0
  0
CLASS
  1
LONG_TRANSACTION
  2
AcDbLongTransaction
  3
AutoCAD 2000
 90
        0
280
     0
281
     0
  0
CLASS
  1
LWPOLYLINE
  2
AcDbPolyline
  3
AutoCAD 2000
 90
        0
280
     0
281
     1
  0
CLASS
  1
HATCH
  2
AcDbHatch
  3
AutoCAD 2000
 90
        0
280
     0
281
     1
  0
CLASS
  1
XRECORD
  2
AcDbXrecord
  3
AutoCAD 2000
 90
        0
280
     0
281
     0
  0
CLASS
  1
LONG_TRANSACTION
  2
AcDbLongTransaction
  3
AutoCAD 2000
 90
        0
280
     0
281
     0
  0
CLASS
  1
LWPOLYLINE
  2
AcDbPolyline
  3
AutoCAD 2000
 90
        0
280
     0
281
     1
  0
CLASS
  1
HATCH
  2
AcDbHatch
  3
AutoCAD 2000
 90
        0
280
     0
281
     1
  0
CLASS
  1
XRECORD
  2
AcDbXrecord
  3
AutoCAD 2000
 90
        0
280
     0
281
     0
  0
CLASS
  1
LONG_TRANSACTION
  2
AcDbLongTransaction
  3
AutoCAD 2000
 90
        0
280
     0
281
     0
  0
CLASS
  1
LWPOLYLINE
  2
AcDbPolyline
  3
AutoCAD 2000
 90
        0
280
     0
281
     1
  0
CLASS
  1
HATCH
  2
AcDbHatch
  3
AutoCAD 2000
 90
        0
280
     0
281
     1
  0
CLASS
  1
XRECORD
  2
AcDbXrecord
  3
AutoCAD 2000
 90
        0
280
     0
281
     0
  0
CLASS
  1
LONG_TRANSACTION
  2
AcDbLongTransaction
  3
AutoCAD 2000
 90
        0
280
     0
281
     0
  0
CLASS
  1
LWPOLYLINE
  2
AcDbPolyline
  3
AutoCAD 2000
 90
        0
280
     0
281
     1
  0
CLASS
  1
HATCH
  2
AcDbHatch
  3
AutoCAD 2000
 90
        0
280
     0
281
     1
  0
CLASS
  1
XRECORD
  2
AcDbXrecord
  3
AutoCAD 2000
 90
        0
280
     0
281
     0
  0
CLASS
  1
LONG_TRANSACTION
  2
AcDbLongTransaction
  3
AutoCAD 2000
 90
        0
280
     0
281
     0
  0
CLASS
  1
LWPOLYLINE
  2
AcDbPolyline
  3
AutoCAD 2000
 90
        0
280
     0
281
     1
  0
CLASS
  1
HATCH
  2
AcDbHatch
  3
AutoCAD 2000
 90
        0
280
     0
281
     1
  0
CLASS
  1
XRECORD
  2
AcDbXrecord
  3
AutoCAD 2000
 90
        0
280
     0
281
     0
  0
CLASS
  1
LONG_TRANSACTION
  2
AcDbLongTransaction
  3
AutoCAD 2000
 90
        0
280
     0
281
     0
  0
CLASS
  1
LWPOLYLINE
  2
AcDbPolyline
  3
AutoCAD 2000
 90
        0
280
     0
281
     1
  0
CLASS
  1
HATCH
  2
AcDbHatch
  3
AutoCAD 2000
 90
        0
280
     0
281
     1
  0
CLASS
  1
XRECORD
  2
AcDbXrecord
  3
AutoCAD 2000
 90
        0
280
     0
281
     0
  0
CLASS
  1
LONG_TRANSACTION
  2
AcDbLongTransaction
  3
AutoCAD 2000
 90
        0
280
     0
281
     0
  0
CLASS
  1
LWPOLYLINE
  2
AcDbPolyline
  3
AutoCAD 2000
 90
        0
280
     0
281
     1
  0
CLASS
  1
HATCH
  2
AcDbHatch
  3
AutoCAD 2000
 90
        0
280
     0
281
     1
  0
CLASS
  1
XRECORD
  2
AcDbXrecord
  3
AutoCAD 2000
 90
        0
280
     0
281
     0
  0
CLASS
  1
LONG_TRANSACTION
  2
AcDbLongTransaction
  3
AutoCAD 2000
 90
        0
280
     0
281
     0
  0
CLASS
  1
LWPOLYLINE
  2
AcDbPolyline
  3
AutoCAD 2000
 90
        0
280
     0
281
     1
  0
CLASS
  1
HATCH
  2
AcDbHatch
  3
AutoCAD 2000
 90
        0
280
     0
281
     1
  0
CLASS
  1
XRECORD
  2
AcDbXrecord
  3
AutoCAD 2000
 90
        0
280
     0
281
     0
  0
CLASS
  1
LONG_TRANSACTION
  2
AcDbLongTransaction
  3
AutoCAD 2000
 90
        0
280
     0
281
     0
  0
CLASS
  1
LWPOLYLINE
  2
AcDbPolyline
  3
AutoCAD 2000
 90
        0
280
     0
281
     1
  0
CLASS
  1
HATCH
  2
AcDbHatch
  3
AutoCAD 2000
 90
        0
280
     0
281
     1
  0
CLASS
  1
XRECORD
  2
AcDbXrecord
  3
AutoCAD 2000
 90
        0
280
     0
281
     0
  0
CLASS
  1
LONG_TRANSACTION
  2
AcDbLongTransaction
  3
AutoCAD 2000
 90
        0
280
     0
281
     0
  0
CLASS
  1
LWPOLYLINE
  2
AcDbPolyline
  3
AutoCAD 2000
 90
        0
280
     0
281
     1
  0
CLASS
  1
HATCH
  2
AcDbHatch
  3
AutoCAD 2000
 90
        0
280
     0
281
     1
  0
CLASS
  1
XRECORD
  2
AcDbXrecord
  3
AutoCAD 2000
 90
        0
280
     0
281
     0
  0
CLASS
  1
LONG_TRANSACTION
  2
AcDbLongTransaction
  3
AutoCAD 2000
 90
        0
280
     0
281
     0
  0
CLASS
  1
LWPOLYLINE
  2
AcDbPolyline
  3
AutoCAD 2000
 90
        0
280
     0
281
     1
  0
CLASS
  1
HATCH
  2
AcDbHatch
  3
AutoCAD 2000
 90
        0
280
     0
281
     1
  0
CLASS
  1
XRECORD
  2
AcDbXrecord
  3
AutoCAD 2000
 90
        0
280
     0
281
     0
  0
CLASS
  1
LONG_TRANSACTION
  2
AcDbLongTransaction
  3
AutoCAD 2000
 90
        0
280
     0
281
     0
  0
CLASS
  1
LWPOLYLINE
  2
AcDbPolyline
  3
AutoCAD 2000
 90
        0
280
     0
281
     1
  0
CLASS
  1
HATCH
  2
AcDbHatch
  3
AutoCAD 2000
 90
        0
280
     0
281
     1
  0
CLASS
  1
XRECORD
  2
AcDbXrecord
  3
AutoCAD 2000
 90
        0
280
     0
281
     0
  0
CLASS
  1
LONG_TRANSACTION
  2
AcDbLongTransaction
  3
AutoCAD 2000
 90
        0
280
     0
281
     0
  0
CLASS
  1
LWPOLYLINE
  2
AcDbPolyline
  3
AutoCAD 2000
 90
        0
280
     0
281
     1
  0
CLASS
  1
HATCH
  2
AcDbHatch
  3
AutoCAD 2000
 90
        0
280
     0
281
     1
  0
CLASS
  1
XRECORD
  2
AcDbXrecord
  3
AutoCAD 2000
 90
        0
280
     0
281
     0
  0
CLASS
  1
LONG_TRANSACTION
  2
AcDbLongTransaction
  3
AutoCAD 2000
 90
        0
280
     0
281
     0
  0
CLASS
  1
LWPOLYLINE
  2
AcDbPolyline
  3
AutoCAD 2000
 90
        0
280
     0
281
     1
  0
CLASS
  1
HATCH
  2
AcDbHatch
  3
AutoCAD 2000
 90
        0
280
     0
281
     1
  0
CLASS
  1
XRECORD
  2
AcDbXrecord
  3
AutoCAD 2000
 90
        0
280
     0
281
     0
  0
CLASS
  1
LONG_TRANSACTION
  2
AcDbLongTransaction
  3
AutoCAD 2000
 90
        0
280
     0
281
     0
  0
CLASS
  1
LWPOLYLINE
  2
AcDbPolyline
  3
AutoCAD 2000
 90
        0
280
     0
281
     1
  0
CLASS
  1
HATCH
  2
AcDbHatch
  3
AutoCAD 2000
 90
        0
280
     0
281
     1
  0
CLASS
  1
XRECORD
  2
AcDbXrecord
  3
AutoCAD 2000
 90
        0
280
     0
281
     0
  0
CLASS
  1
LONG_TRANSACTION
  2
AcDbLongTransaction
  3
AutoCAD 2000
 90
        0
280
     0
281
     0
  0
CLASS
  1
LWPOLYLINE
  2
AcDbPolyline
  3
AutoCAD 2000
 90
        0
280
     0
281
     1
  0
CLASS
  1
HATCH
  2
AcDbHatch
  3
AutoCAD 2000
 90
        0
280
     0
281
     1
  0
CLASS
  1
XRECORD
  2
AcDbXrecord
  3
AutoCAD 2000
 90
        0
280
     0
281
     0
  0
CLASS
  1
LONG_TRANSACTION
  2
AcDbLongTransaction
  3
AutoCAD 2000
 90
        0
280
     0
281
     0
  0
CLASS
  1
LWPOLYLINE
  2
AcDbPolyline
  3
AutoCAD 2000
 90
        0
280
     0
281
     1
  0
CLASS
  1
HATCH
  2
AcDbHatch
  3
AutoCAD 2000
 90
        0
280
     0
281
     1
  0
CLASS
  1
XRECORD
  2
AcDbXrecord
  3
AutoCAD 2000
 90
        0
280
     0
281
     0
  0
CLASS
  1
LONG_TRANSACTION
  2
AcDbLongTransaction
  3
AutoCAD 2000
 90
        0
280
     0
281
     0
  0
CLASS
  1
LWPOLYLINE
  2
AcDbPolyline
  3
AutoCAD 2000
 90
        0
280
     0
281
     1
  0
CLASS
  1
HATCH
  2
AcDbHatch
  3
AutoCAD 2000
 90
        0
280
     0
281
     1
  0
CLASS
  1
XRECORD
  2
AcDbXrecord
  3
AutoCAD 2000
 90
        0
280
     0
281
     0
  0
CLASS
  1
LONG_TRANSACTION
  2
AcDbLongTransaction
  3
AutoCAD 2000
 90
        0
280
     0
281
     0
  0
CLASS
  1
LWPOLYLINE
  2
AcDbPolyline
  3
AutoCAD 2000
 90
        0
280
     0
281
     1
  0
CLASS
  1
HATCH
  2
AcDbHatch
  3
AutoCAD 2000
 90
        0
280
     0
281
     1
  0
CLASS
  1
XRECORD
  2
AcDbXrecord
  3
AutoCAD 2000
 90
        0
280
     0
281
     0
  0
CLASS
  1
LONG_TRANSACTION
  2
AcDbLongTransaction
  3
AutoCAD 2000
 90
        0
280
     0
281
     0
  0
CLASS
  1
LWPOLYLINE
  2
AcDbPolyline
  3
AutoCAD 2000
 90
        0
280
     0
281
     1
  0
CLASS
  1
HATCH
  2
AcDbHatch
  3
AutoCAD 2000
 90
        0
280
     0
281
     1
  0
CLASS
  1
XRECORD
  2
AcDbXrecord
  3
AutoCAD 2000
 90
        0
280
     0
281
     0
  0
CLASS
  1
LONG_TRANSACTION
  2
AcDbLongTransaction
  3
AutoCAD 2000
 90
        0
280
     0
281
     0
  0
CLASS
  1
LWPOLYLINE
  2
AcDbPolyline
  3
AutoCAD 2000
 90
        0
280
     0
281
     1
  0
CLASS
  1
HATCH
  2
AcDbHatch
  3
AutoCAD 2000
 90
        0
280
     0
281
     1
  0
CLASS
  1
XRECORD
  2
AcDbXrecord
  3
AutoCAD 2000
 90
        0
280
     0
281
     0
  0
CLASS
  1
LONG_TRANSACTION
  2
AcDbLongTransaction
  3
AutoCAD 2000
 90
        0
280
     0
281
     0
  0
CLASS
  1
LWPOLYLINE
  2
AcDbPolyline
  3
AutoCAD 2000
 90
        0
280
     0
281
     1
  0
CLASS
  1
HATCH
  2
AcDbHatch
  3
AutoCAD 2000
 90
        0
280
     0
281
     1
  0
CLASS
  1
XRECORD
  2
AcDbXrecord
  3
AutoCAD 2000
 90
        0
280
     0
281
     0
  0
CLASS
  1
LONG_TRANSACTION
  2
AcDbLongTransaction
  3
AutoCAD 2000
 90
        0
280
     0
281
     0
  0
CLASS
  1
LWPOLYLINE
  2
AcDbPolyline
  3
AutoCAD 2000
 90
        0
280
     0
281
     1
  0
CLASS
  1
HATCH
  2
AcDbHatch
  3
AutoCAD 2000
 90
        0
280
     0
281
     1
  0
CLASS
  1
XRECORD
  2
AcDbXrecord
  3
AutoCAD 2000
 90
        0
280
     0
281
     0
  0
CLASS
  1
LONG_TRANSACTION
  2
AcDbLongTransaction
  3
AutoCAD 2000
 90
        0
280
     0
281
     0
  0
CLASS
  1
LWPOLYLINE
  2
AcDbPolyline
  3
AutoCAD 2000
 90
        0
280
     0
281
     1
  0
CLASS
  1
HATCH
  2
AcDbHatch
  3
AutoCAD 2000
 90
        0
280
     0
281
     1
  0
CLASS
  1
XRECORD
  2
AcDbXrecord
  3
AutoCAD 2000
 90
        0
280
     0
281
     0
  0
CLASS
  1
LONG_TRANSACTION
  2
AcDbLongTransaction
  3
AutoCAD 2000
 90
        0
280
     0
281
     0
  0
CLASS
  1
LWPOLYLINE
  2
AcDbPolyline
  3
AutoCAD 2000
 90
        0
280
     0
281
     1
  0
CLASS
  1
HATCH
  2
AcDbHatch
  3
AutoCAD 2000
 90
        0
280
     0
281
     1
  0
CLASS
  1
XRECORD
  2
AcDbXrecord
  3
AutoCAD 2000
 90
        0
280
     0
281
     0
  0
CLASS
  1
LONG_TRANSACTION
  2
AcDbLongTransaction
  3
AutoCAD 2000
 90
        0
280
     0
281
     0
  0
CLASS
  1
LWPOLYLINE
  2
AcDbPolyline
  3
AutoCAD 2000
 90
        0
280
     0
281
     1
  0
CLASS
  1
HATCH
  2
AcDbHatch
  3
AutoCAD 2000
 90
        0
280
     0
281
     1
  0
CLASS
  1
XRECORD
  2
AcDbXrecord
  3
AutoCAD 2000
 90
        0
280
     0
281
     0
  0
CLASS
  1
LONG_TRANSACTION
  2
AcDbLongTransaction
  3
AutoCAD 2000
 90
        0
280
     0
281
     0
  0
CLASS
  1
LWPOLYLINE
  2
AcDbPolyline
  3
AutoCAD 2000
 90
        0
280
     0
281
     1
  0
CLASS
  1
HATCH
  2
AcDbHatch
  3
AutoCAD 2000
 90
        0
280
     0
281
     1
  0
CLASS
  1
XRECORD
  2
AcDbXrecord
  3
AutoCAD 2000
 90
        0
280
     0
281
     0
  0
CLASS
  1
LONG_TRANSACTION
  2
AcDbLongTransaction
  3
AutoCAD 2000
 90
        0
280
     0
281
     0
  0
CLASS
  1
LWPOLYLINE
  2
AcDbPolyline
  3
AutoCAD 2000
 90
        0
280
     0
281
     1
  0
CLASS
  1
HATCH
  2
AcDbHatch
  3
AutoCAD 2000
 90
        0
280
     0
281
     1
  0
CLASS
  1
XRECORD
  2
AcDbXrecord
  3
AutoCAD 2000
 90
        0
280
     0
281
     0
  0
CLASS
  1
LONG_TRANSACTION
  2
AcDbLongTransaction
  3
AutoCAD 2000
 90
        0
280
     0
281
     0
  0
CLASS
  1
LWPOLYLINE
  2
AcDbPolyline
  3
AutoCAD 2000
 90
        0
280
     0
281
     1
  0
CLASS
  1
HATCH
  2
AcDbHatch
  3
AutoCAD 2000
 90
        0
280
     0
281
     1
  0
CLASS
  1
XRECORD
  2
AcDbXrecord
  3
AutoCAD 2000
 90
        0
280
     0
281
     0
  0
CLASS
  1
LONG_TRANSACTION
  2
AcDbLongTransaction
  3
AutoCAD 2000
 90
        0
280
     0
281
     0
  0
CLASS
  1
LWPOLYLINE
  2
AcDbPolyline
  3
AutoCAD 2000
 90
        0
280
     0
281
     1
  0
CLASS
  1
HATCH
  2
AcDbHatch
  3
AutoCAD 2000
 90
        0
280
     0
281
     1
  0
CLASS
  1
XRECORD
  2
AcDbXrecord
  3
AutoCAD 2000
 90
        0
280
     0
281
     0
  0
CLASS
  1
LONG_TRANSACTION
  2
AcDbLongTransaction
  3
AutoCAD 2000
 90
        0
280
     0
281
     0
  0
CLASS
  1
LWPOLYLINE
  2
AcDbPolyline
  3
AutoCAD 2000
 90
        0
280
     0
281
     1
  0
CLASS
  1
HATCH
  2
AcDbHatch
  3
AutoCAD 2000
 90
        0
280
     0
281
     1
  0
CLASS
  1
XRECORD
  2
AcDbXrecord
  3
AutoCAD 2000
 90
        0
280
     0
281
     0
  0
CLASS
  1
LONG_TRANSACTION
  2
AcDbLongTransaction
  3
AutoCAD 2000
 90
        0
280
     0
281
     0
  0
CLASS
  1
LWPOLYLINE
  2
AcDbPolyline
  3
AutoCAD 2000
 90
        0
280
     0
281
     1
  0
CLASS
  1
HATCH
  2
AcDbHatch
  3
AutoCAD 2000
 90
        0
280
     0
281
     1
  0
CLASS
  1
XRECORD
  2
AcDbXrecord
  3
AutoCAD 2000
 90
        0
280
     0
281
     0
  0
CLASS
  1
LONG_TRANSACTION
  2
AcDbLongTransaction
  3
AutoCAD 2000
 90
        0
280
     0
281
     0
  0
CLASS
  1
LWPOLYLINE
  2
AcDbPolyline
  3
AutoCAD 2000
 90
        0
280
     0
281
     1
  0
CLASS
  1
HATCH
  2
AcDbHatch
  3
AutoCAD 2000
 90
        0
280
     0
281
     1
  0
CLASS
  1
XRECORD
  2
AcDbXrecord
  3
AutoCAD 2000
 90
        0
280
     0
281
     0
  0
CLASS
  1
LONG_TRANSACTION
  2
AcDbLongTransaction
  3
AutoCAD 2000
 90
        0
280
     0
281
     0
  0
CLASS
  1
LWPOLYLINE
  2
AcDbPolyline
  3
AutoCAD 2000
 90
        0
280
     0
281
     1
  0
CLASS
  1
HATCH
  2
AcDbHatch
  3
AutoCAD 2000
 90
        0
280
     0
281
     1
  0
CLASS
  1
XRECORD
  2
AcDbXrecord
  3
AutoCAD 2000
 90
        0
280
     0
281
     0
  0
CLASS
  1
LONG_TRANSACTION
  2
AcDbLongTransaction
  3
AutoCAD 2000
 90
        0
280
     0
281
     0
  0
CLASS
  1
LWPOLYLINE
  2
AcDbPolyline
  3
AutoCAD 2000
 90
        0
280
     0
281
     1
  0
CLASS
  1
HATCH
  2
AcDbHatch
  3
AutoCAD 2000
 90
        0
280
     0
281
     1
  0
CLASS
  1
XRECORD
  2
AcDbXrecord
  3
AutoCAD 2000
 90
        0
280
     0
281
     0
  0
CLASS
  1
LONG_TRANSACTION
  2
AcDbLongTransaction
  3
AutoCAD 2000
 90
        0
280
     0
281
     0
  0
CLASS
  1
LWPOLYLINE
  2
AcDbPolyline
  3
AutoCAD 2000
 90
        0
280
     0
281
     1
  0
CLASS
  1
HATCH
  2
AcDbHatch
  3
AutoCAD 2000
 90
        0
280
     0
281
     1
  0
CLASS
  1
XRECORD
  2
AcDbXrecord
  3
AutoCAD 2000
 90
        0
280
     0
281
     0
  0
CLASS
  1
LONG_TRANSACTION
  2
AcDbLongTransaction
  3
AutoCAD 2000
 90
        0
280
     0
281
     0
  0
CLASS
  1
LWPOLYLINE
  2
AcDbPolyline
  3
AutoCAD 2000
 90
        0
280
     0
281
     1
  0
CLASS
  1
HATCH
  2
AcDbHatch
  3
AutoCAD 2000
 90
        0
280
     0
281
     1
  0
CLASS
  1
XRECORD
  2
AcDbXrecord
  3
AutoCAD 2000
 90
        0
280
     0
281
     0
  0
CLASS
  1
LONG_TRANSACTION
  2
AcDbLongTransaction
  3
AutoCAD 2000
 90
        0
280
     0
281
     0
  0
CLASS
  1
LWPOLYLINE
  2
AcDbPolyline
  3
AutoCAD 2000
 90
        0
280
     0
281
     1
  0
CLASS
  1
HATCH
  2
AcDbHatch
  3
AutoCAD 2000
 90
        0
280
     0
281
     1
  0
CLASS
  1
XRECORD
  2
AcDbXrecord
  3
AutoCAD 2000
 90
        0
280
     0
281
     0
  0
CLASS
  1
LONG_TRANSACTION
  2
AcDbLongTransaction
  3
AutoCAD 2000
 90
        0
280
     0
281
     0
  0
CLASS
  1
LWPOLYLINE
  2
AcDbPolyline
  3
AutoCAD 2000
 90
        0
280
     0
281
     1
  0
CLASS
  1
HATCH
  2
AcDbHatch
  3
AutoCAD 2000
 90
        0
280
     0
281
     1
  0
CLASS
  1
XRECORD
  2
AcDbXrecord
  3
AutoCAD 2000
 90
        0
280
     0
281
     0
  0
CLASS
  1
LONG_TRANSACTION
  2
AcDbLongTransaction
  3
AutoCAD 2000
 90
        0
280
     0
281
     0
  0
CLASS
  1
LWPOLYLINE
  2
AcDbPolyline
  3
AutoCAD 2000
 90
        0
280
     0
281
     1
  0
CLASS
  1
HATCH
  2
AcDbHatch
  3
AutoCAD 2000
 90
        0
280
     0
281
     1
  0
CLASS
  1
XRECORD
  2
AcDbXrecord
  3
AutoCAD 2000
 90
        0
280
     0
281
     0
  0
CLASS
  1
LONG_TRANSACTION
  2
AcDbLongTransaction
  3
AutoCAD 2000
 90
        0
280
     0
281
     0
  0
CLASS
  1
LWPOLYLINE
  2
AcDbPolyline
  3
AutoCAD 2000
 90
        0
280
     0
281
     1
  0
CLASS
  1
HATCH
  2
AcDbHatch
  3
AutoCAD 2000
 90
        0
280
     0
281
     1
  0
CLASS
  1
XRECORD
  2
AcDbXrecord
  3
AutoCAD 2000
 90
        0
280
     0
281
     0
  0
CLASS
  1
LONG_TRANSACTION
  2
AcDbLongTransaction
  3
AutoCAD 2000
 90
        0
280
     0
281
     0
  0
CLASS
  1
LWPOLYLINE
  2
AcDbPolyline
  3
AutoCAD 2000
 90
        0
280
     0
281
     1
  0
CLASS
  1
HATCH
  2
AcDbHatch
  3
AutoCAD 2000
 90
        0
280
     0
281
     1
  0
CLASS
  1
XRECORD
  2
AcDbXrecord
  3
AutoCAD 2000
 90
        0
280
     0
281
     0
  0
CLASS
  1
LONG_TRANSACTION
  2
AcDbLongTransaction
  3
AutoCAD 2000
 90
        0
280
     0
281
     0
  0
CLASS
  1
LWPOLYLINE
  2
AcDbPolyline
  3
AutoCAD 2000
 90
        0
280
     0
281
     1
  0
CLASS
  1
HATCH
  2
AcDbHatch
  3
AutoCAD 2000
 90
        0
280
     0
281
     1
  0
CLASS
  1
XRECORD
  2
AcDbXrecord
  3
AutoCAD 2000
 90
        0
280
     0
281
     0
  0
CLASS
  1
LONG_TRANSACTION
  2
AcDbLongTransaction
  3
AutoCAD 2000
 90
        0
280
     0
281
     0
  0
CLASS
  1
LWPOLYLINE
  2
AcDbPolyline
  3
AutoCAD 2000
 90
        0
280
     0
281
     1
  0
CLASS
  1
HATCH
  2
AcDbHatch
  3
AutoCAD 2000
 90
        0
280
     0
281
     1
  0
CLASS
  1
XRECORD
  2
AcDbXrecord
  3
AutoCAD 2000
 90
        0
280
     0
281
     0
  0
CLASS
  1
LONG_TRANSACTION
  2
AcDbLongTransaction
  3
AutoCAD 2000
 90
        0
280
     0
281
     0
  0
CLASS
  1
LWPOLYLINE
  2
AcDbPolyline
  3
AutoCAD 2000
 90
        0
280
     0
281
     1
  0
CLASS
  1
HATCH
  2
AcDbHatch
  3
AutoCAD 2000
 90
        0
280
     0
281
     1
  0
CLASS
  1
XRECORD
  2
AcDbXrecord
  3
AutoCAD 2000
 90
        0
280
     0
281
     0
  0
CLASS
  1
LONG_TRANSACTION
  2
AcDbLongTransaction
  3
AutoCAD 2000
 90
        0
280
     0
281
     0
  0
CLASS
  1
LWPOLYLINE
  2
AcDbPolyline
  3
AutoCAD 2000
 90
        0
280
     0
281
     1
  0
CLASS
  1
HATCH
  2
AcDbHatch
  3
AutoCAD 2000
 90
        0
280
     0
281
     1
  0
CLASS
  1
XRECORD
  2
AcDbXrecord
  3
AutoCAD 2000
 90
        0
280
     0
281
     0
  0
CLASS
  1
LONG_TRANSACTION
  2
AcDbLongTransaction
  3
AutoCAD 2000
 90
        0
280
     0
281
     0
  0
CLASS
  1
LWPOLYLINE
  2
AcDbPolyline
  3
AutoCAD 2000
 90
        0
280
     0
281
     1
  0
CLASS
  1
HATCH
  2
AcDbHatch
  3
AutoCAD 2000
 90
        0
280
     0
281
     1
  0
CLASS
  1
XRECORD
  2
AcDbXrecord
  3
AutoCAD 2000
 90
        0
280
     0
281
     0
  0
CLASS
  1
LONG_TRANSACTION
  2
AcDbLongTransaction
  3
AutoCAD 2000
 90
        0
280
     0
281
     0
  0
CLASS
  1
LWPOLYLINE
  2
AcDbPolyline
  3
AutoCAD 2000
 90
        0
280
     0
281
     1
  0
CLASS
  1
HATCH
  2
AcDbHatch
  3
AutoCAD 2000
 90
        0
280
     0
281
     1
  0
CLASS
  1
XRECORD
  2
AcDbXrecord
  3
AutoCAD 2000
 90
        0
280
     0
281
     0
  0
CLASS
  1
LONG_TRANSACTION
  2
AcDbLongTransaction
  3
AutoCAD 2000
 90
        0
280
     0
281
     0
  0
CLASS
  1
LWPOLYLINE
  2
AcDbPolyline
  3
AutoCAD 2000
 90
        0
280
     0
281
     1
  0
CLASS
  1
HATCH
  2
AcDbHatch
  3
AutoCAD 2000
 90
        0
280
     0
281
     1
  0
CLASS
  1
XRECORD
  2
AcDbXrecord
  3
AutoCAD 2000
 90
        0
280
     0
281
     0
  0
CLASS
  1
LONG_TRANSACTION
  2
AcDbLongTransaction
  3
AutoCAD 2000
 90
        0
280
     0
281
     0
  0
CLASS
  1
LWPOLYLINE
  2
AcDbPolyline
  3
AutoCAD 2000
 90
        0
280
     0
281
     1
  0
CLASS
  1
HATCH
  2
AcDbHatch
  3
AutoCAD 2000
 90
        0
280
     0
281
     1
  0
CLASS
  1
XRECORD
  2
AcDbXrecord
  3
AutoCAD 2000
 90
        0
280
     0
281
     0
  0
CLASS
  1
LONG_TRANSACTION
  2
AcDbLongTransaction
  3
AutoCAD 2000
 90
        0
280
     0
281
     0
  0
CLASS
  1
LWPOLYLINE
  2
AcDbPolyline
  3
AutoCAD 2000
 90
        0
280
     0
281
     1
  0
CLASS
  1
HATCH
  2
AcDbHatch
  3
AutoCAD 2000
 90
        0
280
     0
281
     1
  0
CLASS
  1
XRECORD
  2
AcDbXrecord
  3
AutoCAD 2000
 90
        0
280
     0
281
     0
  0
CLASS
  1
LONG_TRANSACTION
  2
AcDbLongTransaction
  3
AutoCAD 2000
 90
        0
280
     0
281
     0
  0
CLASS
  1
LWPOLYLINE
  2
AcDbPolyline
  3
AutoCAD 2000
 90
        0
280
     0
281
     1
  0
CLASS
  1
HATCH
  2
AcDbHatch
  3
AutoCAD 2000
 90
        0
280
     0
281
     1
  0
CLASS
  1
XRECORD
  2
AcDbXrecord
  3
AutoCAD 2000
 90
        0
280
     0
281
     0
  0
CLASS
  1
LONG_TRANSACTION
  2
AcDbLongTransaction
  3
AutoCAD 2000
 90
        0
280
     0
281
     0
  0
CLASS
  1
LWPOLYLINE
  2
AcDbPolyline
  3
AutoCAD 2000
 90
        0
280
     0
281
     1
  0
CLASS
  1
HATCH
  2
AcDbHatch
  3
AutoCAD 2000
 90
        0
280
     0
281
     1
  0
CLASS
  1
XRECORD
  2
AcDbXrecord
  3
AutoCAD 2000
 90
        0
280
     0
281
     0
  0
CLASS
  1
LONG_TRANSACTION
  2
AcDbLongTransaction
  3
AutoCAD 2000
 90
        0
280
     0
281
     0
  0
CLASS
  1
LWPOLYLINE
  2
AcDbPolyline
  3
AutoCAD 2000
 90
        0
280
     0
281
     1
  0
CLASS
  1
HATCH
  2
AcDbHatch
  3
AutoCAD 2000
 90
        0
280
     0
281
     1
  0
CLASS
  1
XRECORD
  2
AcDbXrecord
  3
AutoCAD 2000
 90
        0
280
     0
281
     0
  0
CLASS
  1
LONG_TRANSACTION
  2
AcDbLongTransaction
  3
AutoCAD 2000
 90
        0
280
     0
281
     0
  0
CLASS
  1
LWPOLYLINE
  2
AcDbPolyline
  3
AutoCAD 2000
 90
        0
280
     0
281
     1
  0
CLASS
  1
HATCH
  2
AcDbHatch
  3
AutoCAD 2000
 90
        0
280
     0
281
     1
  0
CLASS
  1
XRECORD
  2
AcDbXrecord
  3
AutoCAD 2000
 90
        0
280
     0
281
     0
  0
CLASS
  1
LONG_TRANSACTION
  2
AcDbLongTransaction
  3
AutoCAD 2000
 90
        0
280
     0
281
     0
  0
CLASS
  1
LWPOLYLINE
  2
AcDbPolyline
  3
AutoCAD 2000
 90
        0
280
     0
281
     1
  0
CLASS
  1
HATCH
  2
AcDbHatch
  3
AutoCAD 2000
 90
        0
280
     0
281
     1
  0
CLASS
  1
XRECORD
  2
AcDbXrecord
  3
AutoCAD 2000
 90
        0
280
     0
281
     0
  0
CLASS
  1
LONG_TRANSACTION
  2
AcDbLongTransaction
  3
AutoCAD 2000
 90
        0
280
     0
281
     0
  0
CLASS
  1
LWPOLYLINE
  2
AcDbPolyline
  3
AutoCAD 2000
 90
        0
280
     0
281
     1
  0
CLASS
  1
HATCH
  2
AcDbHatch
  3
AutoCAD 2000
 90
        0
280
     0
281
     1
  0
CLASS
  1
XRECORD
  2
AcDbXrecord
  3
AutoCAD 2000
 90
        0
280
     0
281
     0
  0
CLASS
  1
LONG_TRANSACTION
  2
AcDbLongTransaction
  3
AutoCAD 2000
 90
        0
280
     0
281
     0
  0
CLASS
  1
LWPOLYLINE
  2
AcDbPolyline
  3
AutoCAD 2000
 90
        0
280
     0
281
     1
  0
CLASS
  1
HATCH
  2
AcDbHatch
  3
AutoCAD 2000
 90
        0
280
     0
281
     1
  0
CLASS
  1
XRECORD
  2
AcDbXrecord
  3
AutoCAD 2000
 90
        0
280
     0
281
     0
  0
CLASS
  1
LONG_TRANSACTION
  2
AcDbLongTransaction
  3
AutoCAD 2000
 90
        0
280
     0
281
     0
  0
CLASS
  1
LWPOLYLINE
  2
AcDbPolyline
  3
AutoCAD 2000
 90
        0
280
     0
281
     1
  0
CLASS
  1
HATCH
  2
AcDbHatch
  3
AutoCAD 2000
 90
        0
280
     0
281
     1
  0
CLASS
  1
XRECORD
  2
AcDbXrecord
  3
AutoCAD 2000
 90
        0
280
     0
281
     0
  0
CLASS
  1
LONG_TRANSACTION
  2
AcDbLongTransaction
  3
AutoCAD 2000
 90
        0
280
     0
281
     0
  0
CLASS
  1
LWPOLYLINE
  2
AcDbPolyline
  3
AutoCAD 2000
 90
        0
280
     0
281
     1
  0
CLASS
  1
HATCH
  2
AcDbHatch
  3
AutoCAD 2000
 90
        0
280
     0
281
     1
  0
CLASS
  1
XRECORD
  2
AcDbXrecord
  3
AutoCAD 2000
 90
        0
280
     0
281
     0
  0
CLASS
  1
LONG_TRANSACTION
  2
AcDbLongTransaction
  3
AutoCAD 2000
 90
        0
280
     0
281
     0
  0
CLASS
  1
LWPOLYLINE
  2
AcDbPolyline
  3
AutoCAD 2000
 90
        0
280
     0
281
     1
  0
CLASS
  1
HATCH
  2
AcDbHatch
  3
AutoCAD 2000
 90
        0
280
     0
281
     1
  0
CLASS
  1
XRECORD
  2
AcDbXrecord
  3
AutoCAD 2000
 90
        0
280
     0
281
     0
  0
CLASS
  1
LONG_TRANSACTION
  2
AcDbLongTransaction
  3
AutoCAD 2000
 90
        0
280
     0
281
     0
  0
CLASS
  1
LWPOLYLINE
  2
AcDbPolyline
  3
AutoCAD 2000
 90
        0
280
     0
281
     1
  0
CLASS
  1
HATCH
  2
AcDbHatch
  3
AutoCAD 2000
 90
        0
280
     0
281
     1
  0
CLASS
  1
XRECORD
  2
AcDbXrecord
  3
AutoCAD 2000
 90
        0
280
     0
281
     0
  0
CLASS
  1
LONG_TRANSACTION
  2
AcDbLongTransaction
  3
AutoCAD 2000
 90
        0
280
     0
281
     0
  0
CLASS
  1
LWPOLYLINE
  2
AcDbPolyline
  3
AutoCAD 2000
 90
        0
280
     0
281
     1
  0
CLASS
  1
HATCH
  2
AcDbHatch
  3
AutoCAD 2000
 90
        0
280
     0
281
     1
  0
CLASS
  1
XRECORD
  2
AcDbXrecord
  3
AutoCAD 2000
 90
        0
280
     0
281
     0
  0
CLASS
  1
LONG_TRANSACTION
  2
AcDbLongTransaction
  3
AutoCAD 2000
 90
        0
280
     0
281
     0
  0
CLASS
  1
LWPOLYLINE
  2
AcDbPolyline
  3
AutoCAD 2000
 90
        0
280
     0
281
     1
  0
CLASS
  1
HATCH
  2
AcDbHatch
  3
AutoCAD 2000
 90
        0
280
     0
281
     1
  0
CLASS
  1
XRECORD
  2
AcDbXrecord
  3
AutoCAD 2000
 90
        0
280
     0
281
     0
  0
ENDSEC
  0
SECTION
  2
TABLES
  0
TABLE
  2
VPORT
  5
92
330
0
100
AcDbSymbolTable
 70
     2
  0
VPORT
  5
5AF
330
92
100
AcDbSymbolTableRecord
100
AcDbViewportTableRecord
  2
*ACTIVE
 70
     0
 10
0.0
 20
0.0
 11
1.0
 21
1.0
 12
177.4111594455563
 22
256.0445916418036
 13
0.0
 23
0.0
 14
10.0
 24
10.0
 15
10.0
 25
10.0
 16
0.0
 26
0.0
 36
1.0
 17
0.0
 27
0.0
 37
0.0
 40
512.0735929382512
 41
1.162878787878787
 42
50.0
 43
0.0
 44
0.0
 50
0.0
 51
0.0
 71
     0
 72
 10000
 73
     1
 74
     3
 75
     0
 76
     0
 77
     0
 78
     1
  0
ENDTAB
  0
TABLE
  2
LTYPE
  5
8D
330
0
100
AcDbSymbolTable
 70
     3
  0
LTYPE
  5
8E
330
8D
100
AcDbSymbolTableRecord
100
AcDbLinetypeTableRecord
  2
BYBLOCK
 70
     0
  3

 72
    65
 73
     0
 40
0.0
  0
LTYPE
  5
8F
330
8D
100
AcDbSymbolTableRecord
100
AcDbLinetypeTableRecord
  2
BYLAYER
 70
     0
  3

 72
    65
 73
     0
 40
0.0
  0
LTYPE
  5
A
330
8D
100
AcDbSymbolTableRecord
100
AcDbLinetypeTableRecord
  2
CONTINUOUS
 70
     0
  3
Solid line
 72
    65
 73
     0
 40
0.0
  0
LTYPE
  5
A6
330
8D
100
AcDbSymbolTableRecord
100
AcDbLinetypeTableRecord
  2
CENTER
 70
     0
  3
Center ____ _ ____ _ ____ _ ____ _ ____ _ ____
 72
    65
 73
     4
 40
50.8
 49
31.75
 74
     0
 49
-6.349999999999997
 74
     0
 49
6.349999999999997
 74
     0
 49
-6.349999999999997
 74
     0
  0
LTYPE
  5
1E2
330
8D
100
AcDbSymbolTableRecord
100
AcDbLinetypeTableRecord
  2
HIDDEN
 70
     0
  3
Hidden __ __ __ __ __ __ __ __ __ __ __ __ __ _
 72
    65
 73
     2
 40
9.524999999999996
 49
6.349999999999997
 74
     0
 49
-3.174999999999998
 74
     0
  0
ENDTAB
  0
TABLE
  2
LAYER
  5
14
102
{ACAD_XDICTIONARY
360
15
102
}
330
0
100
AcDbSymbolTable
 70
     7
  0
LAYER
  5
6
330
14
100
AcDbSymbolTableRecord
100
AcDbLayerTableRecord
  2
0
 70
     0
 62
     7
  6
CONTINUOUS
  0
LAYER
  5
149
330
14
100
AcDbSymbolTableRecord
100
AcDbLayerTableRecord
  2
3
 70
     0
 62
     3
  6
CONTINUOUS
  0
LAYER
  5
238
330
14
100
AcDbSymbolTableRecord
100
AcDbLayerTableRecord
  2
1
 70
     0
 62
     1
  6
CENTER
  0
LAYER
  5
B3
330
14
100
AcDbSymbolTableRecord
100
AcDbLayerTableRecord
  2
DEFPOINTS
 70
     0
 62
     7
  6
CONTINUOUS
  0
LAYER
  5
FC
330
14
100
AcDbSymbolTableRecord
100
AcDbLayerTableRecord
  2
DIM
 70
     0
 62
     3
  6
CONTINUOUS
  0
LAYER
  5
A5
330
14
100
AcDbSymbolTableRecord
100
AcDbLayerTableRecord
  2
CEN
 70
     0
 62
     1
  6
CENTER
  0
LAYER
  5
1F8
330
14
100
AcDbSymbolTableRecord
100
AcDbLayerTableRecord
  2
2
 70
     0
 62
     2
  6
CONTINUOUS
  0
ENDTAB
  0
TABLE
  2
STYLE
  5
8A
330
0
100
AcDbSymbolTable
 70
     2
  0
STYLE
  5
8B
330
8A
100
AcDbSymbolTableRecord
100
AcDbTextStyleTableRecord
  2
STANDARD
 70
     0
 40
0.0
 41
1.0
 50
0.0
 71
     0
 42
5.777225951253058
  3
romans.shx
  4
whgtxt.shx
  0
STYLE
  5
240
330
8A
100
AcDbSymbolTableRecord
100
AcDbTextStyleTableRecord
  2
GHS
 70
     0
 40
0.0
 41
0.6
 50
0.0
 71
     0
 42
3.0
  3
ROMANS
  4
GHS
  0
ENDTAB
  0
TABLE
  2
VIEW
  5
90
330
0
100
AcDbSymbolTable
 70
     0
  0
ENDTAB
  0
TABLE
  2
UCS
  5
91
330
0
100
AcDbSymbolTable
 70
     0
  0
ENDTAB
  0
TABLE
  2
APPID
  5
94
330
0
100
AcDbSymbolTable
 70
     2
  0
APPID
  5
95
330
94
100
AcDbSymbolTableRecord
100
AcDbRegAppTableRecord
  2
ACAD
 70
     0
  0
APPID
  5
561
330
94
100
AcDbSymbolTableRecord
100
AcDbRegAppTableRecord
  2
CONTENTBLOCKICON
 70
     0
  0
ENDTAB
  0
TABLE
  2
DIMSTYLE
  5
96
330
0
100
AcDbSymbolTable
 70
     2
  0
DIMSTYLE
105
AA
102
{ACAD_REACTORS
330
BF
330
290
330
300
330
2A1
330
27B
330
247
330
130
330
258
330
155
330
164
330
2BB
330
2CC
330
30D
330
2DD
330
333
330
31A
330
348
330
357
330
379
330
A7
330
11F
330
215
330
DD
330
204
330
228
330
196
330
186
330
1D1
330
1C2
330
1B0
330
1E4
330
1A3
330
173
102
}
330
96
100
AcDbSymbolTableRecord
100
AcDbDimStyleTableRecord
  2
STANDARD
 70
     0
  3

  4

  5

  6

  7

 40
1.0
 41
2.5
 42
1.0
 43
10.0
 44
0.6
 45
0.0
 46
0.0
 47
0.0
 48
0.0
140
3.0
141
0.09
142
0.0
143
25.4
144
1.0
145
0.0
146
1.0
147
1.0
 71
     0
 72
     0
 73
     0
 74
     0
 75
     0
 76
     0
 77
     1
 78
     8
170
     0
171
     2
172
     1
173
     0
174
     1
175
     0
176
   123
177
   123
178
     3
270
     2
271
     2
272
     2
273
     2
274
     2
340
8B
275
     1
280
     0
281
     0
282
     0
283
     1
284
     0
285
     0
286
     0
287
     3
288
     1
  0
DIMSTYLE
105
9C
330
96
100
AcDbSymbolTableRecord
100
AcDbDimStyleTableRecord
  2
1_1_2
 70
     0
  3

  4

  5

  6

  7

 40
1.0
 41
3.0
 42
1.0
 43
10.0
 44
0.6
 45
0.0
 46
0.0
 47
0.0
 48
0.0
140
3.5
141
0.09
142
0.0
143
25.4
144
1.0
145
0.0
146
1.0
147
1.0
 71
     0
 72
     0
 73
     0
 74
     0
 75
     0
 76
     0
 77
     1
 78
     8
170
     0
171
     2
172
     1
173
     0
174
     1
175
     0
176
   123
177
   123
178
     3
270
     2
271
     2
272
     2
273
     2
274
     2
340
8B
275
     1
280
     0
281
     0
282
     0
283
     1
284
     0
285
     0
286
     0
287
     3
288
     1
  0
ENDTAB
  0
TABLE
  2
BLOCK_RECORD
  5
1
330
0
100
AcDbSymbolTable
 70
    66
  0
BLOCK_RECORD
  5
2
102
{ACAD_XDICTIONARY
360
3
102
}
330
1
100
AcDbSymbolTableRecord
100
AcDbBlockTableRecord
  2
*MODEL_SPACE
  0
BLOCK_RECORD
  5
E
102
{ACAD_XDICTIONARY
360
F
102
}
330
1
100
AcDbSymbolTableRecord
100
AcDbBlockTableRecord
  2
*PAPER_SPACE
  0
BLOCK_RECORD
  5
BB
330
1
100
AcDbSymbolTableRecord
100
AcDbBlockTableRecord
  2
5
1001
ACAD
1000
DesignCenter Data
1002
{
1070
     1
1070
     4
1002
}
1001
CONTENTBLOCKICON
1071
        0
1004
2800000020000000200000000100080000000000000400000000000000000000000000000000000000000000000080000080000000808000800000008000800080800000C0C0C000C0DCC000F0CAA6000020400000206000002080000020A0000020C0000020E00000400000004020000040400000406000004080000040A0
1004
000040C0000040E00000600000006020000060400000606000006080000060A0000060C0000060E00000800000008020000080400000806000008080000080A0000080C0000080E00000A0000000A0200000A0400000A0600000A0800000A0A00000A0C00000A0E00000C0000000C0200000C0400000C0600000C0800000C0
1004
A00000C0C00000C0E00000E0000000E0200000E0400000E0600000E0800000E0A00000E0C00000E0E00040000000400020004000400040006000400080004000A0004000C0004000E00040200000402020004020400040206000402080004020A0004020C0004020E000404000004040200040404000404060004040800040
1004
40A0004040C0004040E00040600000406020004060400040606000406080004060A0004060C0004060E00040800000408020004080400040806000408080004080A0004080C0004080E00040A0000040A0200040A0400040A0600040A0800040A0A00040A0C00040A0E00040C0000040C0200040C0400040C0600040C08000
1004
40C0A00040C0C00040C0E00040E0000040E0200040E0400040E0600040E0800040E0A00040E0C00040E0E00080000000800020008000400080006000800080008000A0008000C0008000E00080200000802020008020400080206000802080008020A0008020C0008020E00080400000804020008040400080406000804080
1004
008040A0008040C0008040E00080600000806020008060400080606000806080008060A0008060C0008060E00080800000808020008080400080806000808080008080A0008080C0008080E00080A0000080A0200080A0400080A0600080A0800080A0A00080A0C00080A0E00080C0000080C0200080C0400080C0600080C0
1004
800080C0A00080C0C00080C0E00080E0000080E0200080E0400080E0600080E0800080E0A00080E0C00080E0E000C0000000C0002000C0004000C0006000C0008000C000A000C000C000C000E000C0200000C0202000C0204000C0206000C0208000C020A000C020C000C020E000C0400000C0402000C0404000C0406000C0
1004
408000C040A000C040C000C040E000C0600000C0602000C0604000C0606000C0608000C060A000C060C000C060E000C0800000C0802000C0804000C0806000C0808000C080A000C080C000C080E000C0A00000C0A02000C0A04000C0A06000C0A08000C0A0A000C0A0C000C0A0E000C0C00000C0C02000C0C04000C0C06000
1004
C0C08000C0C0A000F0FBFF00A4A0A000808080000000FF0000FF000000FFFF00FF000000FF00FF00FFFF0000FFFFFF0000000000000000000000000000000000000000000000000000000000000000000000000000000000000000000000000000000000000000000000000000000000000000000000000000000000000000
1004
00000000000000000000000000000000000000000000F9000000000000000000000000000000F900000000000000000000000000FFF90000000000000000000000000000000000FFF9000000000000000000F3F3F9FF0000000000000000000000000000000000FFFF00000000000000000000F9FF00F90000000000000000
1004
00000000000000F900F9000000000000000000000000F30000000000000000000000000000000000000000000000000000000000000000F3F30000000000000000000000000000000000000000000000000000000000000000F30000000000000000000000000000000000000000000000000000000000000000F300000000
1004
00000000000000000000000000000000000000000000000000000000F30000000000000000000000000000000000000000000000000000000000000000F3F30000000000000000000000000000000000000000000000000000000000000000F300000000000000000000000000000000000000000000000000000000000000
1004
00F30000000000000000000000000000000000000000000000000000000000000000F30000000000000000000000000000000000000000000000000000000000000000F3F30000000000000000000000000000000000000000000000000000000000000000F300000000000000000000000000000000000000000000000000
1004
00000000000000F30000000000000000000000000000000000000000000000000000000000000000F30000000000000000000000000000000000000000000000000000000000000000F3F30000000000000000000000000000000000000000000000000000000000000000F3F900000000000000000000F9FF00F900000000
1004
0000000000000000000000F9F9FFF300000000000000000000FFFF00000000000000000000000000000000F9F9FF00F3000000000000000000FF00F90000000000000000000000000000F900FFF900FAFA000000000000000000000000000000000000000000000000000000000000FAFAFAF3000000000000000000000000
1004
0000000000000000000000000000000000FAFAFAFA0000000000000000000000000000000000000000000000000000000000FAFAFAF3000000000000000000000000000000000000000000000000000000000000FA000000000000000000000000000000000000000000000000000000000000000000000000000000000000
1004
0000000000000000000000000000000000000000000000000000000000000000000000000000000000000000000000000000000000000000
  0
BLOCK_RECORD
  5
C2
330
1
100
AcDbSymbolTableRecord
100
AcDbBlockTableRecord
  2
*D1
  0
BLOCK_RECORD
  5
291
330
1
100
AcDbSymbolTableRecord
100
AcDbBlockTableRecord
  2
*D2
  0
BLOCK_RECORD
  5
301
330
1
100
AcDbSymbolTableRecord
100
AcDbBlockTableRecord
  2
*D3
  0
BLOCK_RECORD
  5
156
330
1
100
AcDbSymbolTableRecord
100
AcDbBlockTableRecord
  2
*D4
  0
BLOCK_RECORD
  5
30E
330
1
100
AcDbSymbolTableRecord
100
AcDbBlockTableRecord
  2
*D5
  0
BLOCK_RECORD
  5
2DE
330
1
100
AcDbSymbolTableRecord
100
AcDbBlockTableRecord
  2
*D6
  0
BLOCK_RECORD
  5
349
330
1
100
AcDbSymbolTableRecord
100
AcDbBlockTableRecord
  2
*D7
  0
BLOCK_RECORD
  5
358
330
1
100
AcDbSymbolTableRecord
100
AcDbBlockTableRecord
  2
*D8
  0
BLOCK_RECORD
  5
2A4
330
1
100
AcDbSymbolTableRecord
100
AcDbBlockTableRecord
  2
*D9
  0
BLOCK_RECORD
  5
27E
330
1
100
AcDbSymbolTableRecord
100
AcDbBlockTableRecord
  2
*D10
  0
BLOCK_RECORD
  5
24A
330
1
100
AcDbSymbolTableRecord
100
AcDbBlockTableRecord
  2
*D11
  0
BLOCK_RECORD
  5
133
330
1
100
AcDbSymbolTableRecord
100
AcDbBlockTableRecord
  2
*D12
  0
BLOCK_RECORD
  5
25B
330
1
100
AcDbSymbolTableRecord
100
AcDbBlockTableRecord
  2
*D13
  0
BLOCK_RECORD
  5
167
330
1
100
AcDbSymbolTableRecord
100
AcDbBlockTableRecord
  2
*D14
  0
BLOCK_RECORD
  5
2BE
330
1
100
AcDbSymbolTableRecord
100
AcDbBlockTableRecord
  2
*D15
  0
BLOCK_RECORD
  5
2CF
330
1
100
AcDbSymbolTableRecord
100
AcDbBlockTableRecord
  2
*D16
  0
BLOCK_RECORD
  5
336
330
1
100
AcDbSymbolTableRecord
100
AcDbBlockTableRecord
  2
*D17
  0
BLOCK_RECORD
  5
31D
330
1
100
AcDbSymbolTableRecord
100
AcDbBlockTableRecord
  2
*D18
  0
BLOCK_RECORD
  5
37C
330
1
100
AcDbSymbolTableRecord
100
AcDbBlockTableRecord
  2
*D19
  0
BLOCK_RECORD
  5
216
330
1
100
AcDbSymbolTableRecord
100
AcDbBlockTableRecord
  2
*D20
  0
BLOCK_RECORD
  5
197
330
1
100
AcDbSymbolTableRecord
100
AcDbBlockTableRecord
  2
*D21
  0
BLOCK_RECORD
  5
187
330
1
100
AcDbSymbolTableRecord
100
AcDbBlockTableRecord
  2
*D22
  0
BLOCK_RECORD
  5
1A4
330
1
100
AcDbSymbolTableRecord
100
AcDbBlockTableRecord
  2
*D23
  0
BLOCK_RECORD
  5
AB
330
1
100
AcDbSymbolTableRecord
100
AcDbBlockTableRecord
  2
*D24
  0
BLOCK_RECORD
  5
122
330
1
100
AcDbSymbolTableRecord
100
AcDbBlockTableRecord
  2
*D25
  0
BLOCK_RECORD
  5
E0
330
1
100
AcDbSymbolTableRecord
100
AcDbBlockTableRecord
  2
*D26
  0
BLOCK_RECORD
  5
207
330
1
100
AcDbSymbolTableRecord
100
AcDbBlockTableRecord
  2
*D27
  0
BLOCK_RECORD
  5
22B
330
1
100
AcDbSymbolTableRecord
100
AcDbBlockTableRecord
  2
*D28
  0
BLOCK_RECORD
  5
1D4
330
1
100
AcDbSymbolTableRecord
100
AcDbBlockTableRecord
  2
*D29
  0
BLOCK_RECORD
  5
1C5
330
1
100
AcDbSymbolTableRecord
100
AcDbBlockTableRecord
  2
*D30
  0
BLOCK_RECORD
  5
1B3
330
1
100
AcDbSymbolTableRecord
100
AcDbBlockTableRecord
  2
*D31
  0
BLOCK_RECORD
  5
1E7
330
1
100
AcDbSymbolTableRecord
100
AcDbBlockTableRecord
  2
*D32
  0
BLOCK_RECORD
  5
176
330
1
100
AcDbSymbolTableRecord
100
AcDbBlockTableRecord
  2
*D33
  0
BLOCK_RECORD
  5
395
330
1
100
AcDbSymbolTableRecord
100
AcDbBlockTableRecord
  2
*D34
  0
BLOCK_RECORD
  5
3A1
330
1
100
AcDbSymbolTableRecord
100
AcDbBlockTableRecord
  2
*D35
  0
BLOCK_RECORD
  5
3AF
330
1
100
AcDbSymbolTableRecord
100
AcDbBlockTableRecord
  2
*D36
  0
BLOCK_RECORD
  5
3BD
330
1
100
AcDbSymbolTableRecord
100
AcDbBlockTableRecord
  2
*D37
  0
BLOCK_RECORD
  5
3C9
330
1
100
AcDbSymbolTableRecord
100
AcDbBlockTableRecord
  2
*D38
  0
BLOCK_RECORD
  5
3D5
330
1
100
AcDbSymbolTableRecord
100
AcDbBlockTableRecord
  2
*D39
  0
BLOCK_RECORD
  5
3E3
330
1
100
AcDbSymbolTableRecord
100
AcDbBlockTableRecord
  2
*D40
  0
BLOCK_RECORD
  5
3F1
330
1
100
AcDbSymbolTableRecord
100
AcDbBlockTableRecord
  2
*D41
  0
BLOCK_RECORD
  5
3FF
330
1
100
AcDbSymbolTableRecord
100
AcDbBlockTableRecord
  2
*D42
  0
BLOCK_RECORD
  5
40B
330
1
100
AcDbSymbolTableRecord
100
AcDbBlockTableRecord
  2
*D43
  0
BLOCK_RECORD
  5
417
330
1
100
AcDbSymbolTableRecord
100
AcDbBlockTableRecord
  2
*D44
  0
BLOCK_RECORD
  5
423
330
1
100
AcDbSymbolTableRecord
100
AcDbBlockTableRecord
  2
*D45
  0
BLOCK_RECORD
  5
42F
330
1
100
AcDbSymbolTableRecord
100
AcDbBlockTableRecord
  2
*D46
  0
BLOCK_RECORD
  5
43B
330
1
100
AcDbSymbolTableRecord
100
AcDbBlockTableRecord
  2
*D47
  0
BLOCK_RECORD
  5
447
330
1
100
AcDbSymbolTableRecord
100
AcDbBlockTableRecord
  2
*D48
  0
BLOCK_RECORD
  5
455
330
1
100
AcDbSymbolTableRecord
100
AcDbBlockTableRecord
  2
*D49
  0
BLOCK_RECORD
  5
461
330
1
100
AcDbSymbolTableRecord
100
AcDbBlockTableRecord
  2
*D50
  0
BLOCK_RECORD
  5
46D
330
1
100
AcDbSymbolTableRecord
100
AcDbBlockTableRecord
  2
*D51
  0
BLOCK_RECORD
  5
47B
330
1
100
AcDbSymbolTableRecord
100
AcDbBlockTableRecord
  2
*D52
  0
BLOCK_RECORD
  5
487
330
1
100
AcDbSymbolTableRecord
100
AcDbBlockTableRecord
  2
*D53
  0
BLOCK_RECORD
  5
493
330
1
100
AcDbSymbolTableRecord
100
AcDbBlockTableRecord
  2
*D54
  0
BLOCK_RECORD
  5
49F
330
1
100
AcDbSymbolTableRecord
100
AcDbBlockTableRecord
  2
*D55
  0
BLOCK_RECORD
  5
4AB
330
1
100
AcDbSymbolTableRecord
100
AcDbBlockTableRecord
  2
*D56
  0
BLOCK_RECORD
  5
4B9
330
1
100
AcDbSymbolTableRecord
100
AcDbBlockTableRecord
  2
*D57
  0
BLOCK_RECORD
  5
4C5
330
1
100
AcDbSymbolTableRecord
100
AcDbBlockTableRecord
  2
*D58
  0
BLOCK_RECORD
  5
4D3
330
1
100
AcDbSymbolTableRecord
100
AcDbBlockTableRecord
  2
*D59
  0
BLOCK_RECORD
  5
4DF
330
1
100
AcDbSymbolTableRecord
100
AcDbBlockTableRecord
  2
*D60
  0
BLOCK_RECORD
  5
4EB
330
1
100
AcDbSymbolTableRecord
100
AcDbBlockTableRecord
  2
*D61
  0
BLOCK_RECORD
  5
4F7
330
1
100
AcDbSymbolTableRecord
100
AcDbBlockTableRecord
  2
*D62
  0
BLOCK_RECORD
  5
503
330
1
100
AcDbSymbolTableRecord
100
AcDbBlockTableRecord
  2
*D63
  0
BLOCK_RECORD
  5
50F
330
1
100
AcDbSymbolTableRecord
100
AcDbBlockTableRecord
  2
*D64
  0
BLOCK_RECORD
  5
51D
330
1
100
AcDbSymbolTableRecord
100
AcDbBlockTableRecord
  2
*D65
  0
ENDTAB
  0
ENDSEC
  0
SECTION
  2
BLOCKS
  0
BLOCK
  5
5
330
2
100
AcDbEntity
  8
0
100
AcDbBlockBegin
  2
*MODEL_SPACE
 70
     0
 10
0.0
 20
0.0
 30
0.0
  3
*MODEL_SPACE
  1

  0
ENDBLK
  5
B
330
2
100
AcDbEntity
  8
0
100
AcDbBlockEnd
  0
BLOCK
  5
11
330
E
100
AcDbEntity
 67
     1
  8
0
100
AcDbBlockBegin
  2
*PAPER_SPACE
 70
     0
 10
0.0
 20
0.0
 30
0.0
  3
*PAPER_SPACE
  1

  0
ENDBLK
  5
12
330
E
100
AcDbEntity
 67
     1
  8
0
100
AcDbBlockEnd
  0
BLOCK
  5
D6
330
BB
100
AcDbEntity
  8
0
100
AcDbBlockBegin
  2
5
 70
     0
 10
0.0
 20
0.0
 30
0.0
  3
5
  1

  0
CIRCLE
  5
BC
330
BB
100
AcDbEntity
  8
0
100
AcDbCircle
 10
33.23401871576971
 20
33.2340187157647
 30
0.0
 40
2.75
  0
LINE
  5
BD
330
BB
100
AcDbEntity
  8
CEN
 48
0.6
100
AcDbLine
 10
29.87526150513349
 20
29.87526150512849
 30
0.0
 11
36.59277592640592
 21
36.59277592640092
 31
0.0
  0
ARC
  5
BE
102
{ACAD_REACTORS
330
C1
102
}
330
BB
100
AcDbEntity
  8
CEN
 48
0.6
100
AcDbCircle
 10
-0.0000000000009095
 20
0.0
 30
0.0
 40
47.0
100
AcDbArc
 50
35.54155537381702
 51
54.45844462620417
  0
DIMENSION
  5
BF
102
{ACAD_XDICTIONARY
360
C0
102
}
102
{ACAD_REACTORS
330
C1
102
}
330
BB
100
AcDbEntity
  8
0
100
AcDbDimension
  2
*D1
 10
-37.12703852731556
 20
-28.81983709515498
 30
0.0
 11
52.82902883363476
 21
41.00849583681338
 31
0.0
 12
-5558.635528985877
 22
2192.234809732951
 32
0.0
 70
   131
  1
<>%%P0.5
  3
STANDARD
100
AcDbDiametricDimension
 15
37.12703852731374
 25
28.81983709515407
 35
0.0
 40
0.0
  0
ARC
  5
CD
330
BB
100
AcDbEntity
  8
CEN
 48
0.6
100
AcDbCircle
 10
-0.0000000000009095
 20
0.0000000000004547
 30
0.0
 40
47.0
100
AcDbArc
 50
126.7642625682232
 51
143.2357374317767
  0
LINE
  5
CE
330
BB
100
AcDbEntity
  8
CEN
 48
0.6
100
AcDbLine
 10
-29.87526150512985
 20
29.87526150513439
 30
0.0
 11
-36.59277592640228
 21
36.59277592640683
 31
0.0
  0
CIRCLE
  5
CF
330
BB
100
AcDbEntity
  8
0
100
AcDbCircle
 10
-33.23401871576605
 20
33.23401871577107
 30
0.0
 40
2.75
  0
LINE
  5
D0
330
BB
100
AcDbEntity
  8
CEN
 48
0.6
100
AcDbLine
 10
-29.87526150513439
 20
-29.87526150512895
 30
0.0
 11
-36.59277592640683
 21
-36.59277592640135
 31
0.0
  0
CIRCLE
  5
D1
330
BB
100
AcDbEntity
  8
0
100
AcDbCircle
 10
-33.23401871577061
 20
-33.23401871576516
 30
0.0
 40
2.75
  0
ARC
  5
D2
330
BB
100
AcDbEntity
  8
CEN
 48
0.6
100
AcDbCircle
 10
0.0
 20
-0.0000000000004547
 30
0.0
 40
47.0
100
AcDbArc
 50
215.5415553738169
 51
234.4584446262041
  0
ARC
  5
D3
330
BB
100
AcDbEntity
  8
CEN
 48
0.6
100
AcDbCircle
 10
-0.000000000001819
 20
-0.0000000000004547
 30
0.0
 40
47.0
100
AcDbArc
 50
306.7642625682233
 51
323.2357374317766
  0
LINE
  5
D4
330
BB
100
AcDbEntity
  8
CEN
 48
0.6
100
AcDbLine
 10
29.87526150512712
 20
-29.87526150513439
 30
0.0
 11
36.59277592639954
 21
-36.59277592640683
 31
0.0
  0
CIRCLE
  5
D5
330
BB
100
AcDbEntity
  8
0
100
AcDbCircle
 10
33.23401871576243
 20
-33.23401871577107
 30
0.0
 40
2.75
  0
ENDBLK
  5
D7
330
BB
100
AcDbEntity
  8
0
100
AcDbBlockEnd
  0
BLOCK
  5
CB
330
C2
100
AcDbEntity
  8
0
100
AcDbBlockBegin
  2
*D1
 70
     1
 10
0.0
 20
0.0
 30
0.0
  3
*D1
  1

  0
LINE
  5
C3
330
C2
100
AcDbEntity
  8
0
 62
   123
100
AcDbLine
 10
5519.533647983703
 20
-2222.58761688636
 30
0.0
 11
5517.558805508848
 21
-2224.120586944613
 31
0.0
  0
LINE
  5
C4
330
C2
100
AcDbEntity
  8
0
 62
   123
100
AcDbLine
 10
5597.737409988048
 20
-2161.882002579545
 30
0.0
 11
5619.53319993107
 21
-2144.963036229563
 31
0.0
  0
LINE
  5
C5
330
C2
100
AcDbEntity
  8
0
 62
   123
100
AcDbLine
 10
5521.508490458562
 20
-2221.054646828107
 30
0.0
 11
5595.762567513191
 21
-2163.414972637796
 31
0.0
  0
SOLID
  5
C6
330
C2
100
AcDbEntity
  8
0
 62
   123
100
AcDbTrace
 10
5519.278152973996
 20
-2222.258476473883
 30
0.0
 11
5519.789142993413
 21
-2222.916757298836
 31
0.0
 12
5521.508490458562
 22
-2221.054646828107
 32
0.0
 13
5521.508490458562
 23
-2221.054646828107
 33
0.0
  0
SOLID
  5
C7
330
C2
100
AcDbEntity
  8
0
 62
   123
100
AcDbTrace
 10
5597.481914978339
 20
-2161.552862167069
 30
0.0
 11
5597.992904997757
 21
-2162.21114299202
 31
0.0
 12
5595.762567513191
 22
-2163.414972637796
 32
0.0
 13
5595.762567513191
 23
-2163.414972637796
 33
0.0
  0
MTEXT
  5
C8
330
C2
100
AcDbEntity
  8
0
 62
     3
100
AcDbMText
 10
5609.931587761259
 20
-2149.251471421281
 30
0.0
 40
3.0
 41
0.0
 71
     5
 72
     1
  1
\A1;\U+220594%%P0.5
 11
0.7899369899428739
 21
0.6131880233011666
 31
0.0
1001
ACAD
1000
MTEXTBEGIN
1070
    73
1070
     1
1070
    44
1040
1.0
1070
    74
1070
     0
1000
MTEXTEND
1000
MTEXTBEGIN
1070
    73
1070
     1
1070
    44
1040
1.0
1070
    74
1070
     0
1000
MTEXTEND
1000
MTEXTBEGIN
1070
    73
1070
     1
1070
    44
1040
1.0
1070
    74
1070
     0
1000
MTEXTEND
  0
POINT
  5
C9
330
C2
100
AcDbEntity
  8
DEFPOINTS
 62
     0
100
AcDbPoint
 10
5595.762567513191
 20
-2163.414972637796
 30
0.0
  0
POINT
  5
CA
330
C2
100
AcDbEntity
  8
DEFPOINTS
 62
     0
100
AcDbPoint
 10
5521.508490458562
 20
-2221.054646828107
 30
0.0
  0
ENDBLK
  5
CC
330
C2
100
AcDbEntity
  8
0
100
AcDbBlockEnd
  0
BLOCK
  5
29B
330
291
100
AcDbEntity
  8
0
100
AcDbBlockBegin
  2
*D2
 70
     1
 10
0.0
 20
0.0
 30
0.0
  3
*D2
  1

  0
LINE
  5
292
330
291
100
AcDbEntity
  8
0
 62
   123
100
AcDbLine
 10
-9927.401932210777
 20
-3219.177622669668
 30
0.0
 11
-9990.016314102344
 21
-3219.177622669668
 31
0.0
  0
LINE
  5
293
330
291
100
AcDbEntity
  8
0
 62
   123
100
AcDbLine
 10
-9927.401932210777
 20
-3253.177622669666
 30
0.0
 11
-9990.016314102344
 21
-3253.177622669666
 31
0.0
  0
LINE
  5
294
330
291
100
AcDbEntity
  8
0
 62
   123
100
AcDbLine
 10
-9989.416314102342
 20
-3221.677622669668
 30
0.0
 11
-9989.416314102342
 21
-3250.677622669668
 31
0.0
  0
SOLID
  5
295
330
291
100
AcDbEntity
  8
0
 62
   123
100
AcDbTrace
 10
-9989.832980769008
 20
-3221.677622669668
 30
0.0
 11
-9988.999647435676
 21
-3221.677622669668
 31
0.0
 12
-9989.416314102342
 22
-3219.177622669668
 32
0.0
 13
-9989.416314102342
 23
-3219.177622669668
 33
0.0
  0
SOLID
  5
296
330
291
100
AcDbEntity
  8
0
 62
   123
100
AcDbTrace
 10
-9989.832980769008
 20
-3250.677622669668
 30
0.0
 11
-9988.999647435676
 21
-3250.677622669668
 31
0.0
 12
-9989.416314102342
 22
-3253.177622669666
 32
0.0
 13
-9989.416314102342
 23
-3253.177622669666
 33
0.0
  0
MTEXT
  5
297
330
291
100
AcDbEntity
  8
0
 62
     3
100
AcDbMText
 10
-9991.916314102342
 20
-3236.177622669667
 30
0.0
 40
3.0
 41
0.0
 71
     5
 72
     1
  1
\A1;{\f??|b0|i0|c0|p49;%%c}34
 11
0.0000000000000001
 21
1.0
 31
0.0
1001
ACAD
1000
MTEXTBEGIN
1070
    73
1070
     1
1070
    44
1040
1.0
1070
    74
1070
     0
1000
MTEXTEND
1000
MTEXTBEGIN
1070
    73
1070
     1
1070
    44
1040
1.0
1070
    74
1070
     0
1000
MTEXTEND
1000
MTEXTBEGIN
1070
    73
1070
     1
1070
    44
1040
1.0
1070
    74
1070
     0
1000
MTEXTEND
  0
POINT
  5
298
330
291
100
AcDbEntity
  8
DEFPOINTS
 62
     0
100
AcDbPoint
 10
-9926.401932210779
 20
-3219.177622669668
 30
0.0
  0
POINT
  5
299
330
291
100
AcDbEntity
  8
DEFPOINTS
 62
     0
100
AcDbPoint
 10
-9926.401932210779
 20
-3253.177622669666
 30
0.0
  0
POINT
  5
29A
330
291
100
AcDbEntity
  8
DEFPOINTS
 62
     0
100
AcDbPoint
 10
-9989.416314102342
 20
-3253.177622669666
 30
0.0
  0
ENDBLK
  5
29C
330
291
100
AcDbEntity
  8
0
100
AcDbBlockEnd
  0
BLOCK
  5
30B
330
301
100
AcDbEntity
  8
0
100
AcDbBlockBegin
  2
*D3
 70
     1
 10
0.0
 20
0.0
 30
0.0
  3
*D3
  1

  0
LINE
  5
302
330
301
100
AcDbEntity
  8
0
 62
   123
100
AcDbLine
 10
-9955.901932210778
 20
-3242.177622669668
 30
0.0
 11
-9955.901932210778
 21
-3304.865303717959
 31
0.0
  0
LINE
  5
303
330
301
100
AcDbEntity
  8
0
 62
   123
100
AcDbLine
 10
-9923.901932210778
 20
-3291.677622669668
 30
0.0
 11
-9923.901932210778
 21
-3304.865303717959
 31
0.0
  0
LINE
  5
304
330
301
100
AcDbEntity
  8
0
 62
   123
100
AcDbLine
 10
-9953.40193221078
 20
-3304.265303717959
 30
0.0
 11
-9926.401932210779
 21
-3304.265303717959
 31
0.0
  0
SOLID
  5
305
330
301
100
AcDbEntity
  8
0
 62
   123
100
AcDbTrace
 10
-9953.40193221078
 20
-3303.848637051292
 30
0.0
 11
-9953.40193221078
 21
-3304.681970384626
 31
0.0
 12
-9955.901932210778
 22
-3304.265303717959
 32
0.0
 13
-9955.901932210778
 23
-3304.265303717959
 33
0.0
  0
SOLID
  5
306
330
301
100
AcDbEntity
  8
0
 62
   123
100
AcDbTrace
 10
-9926.401932210779
 20
-3303.848637051292
 30
0.0
 11
-9926.401932210779
 21
-3304.681970384626
 31
0.0
 12
-9923.901932210778
 22
-3304.265303717959
 32
0.0
 13
-9923.901932210778
 23
-3304.265303717959
 33
0.0
  0
MTEXT
  5
307
330
301
100
AcDbEntity
  8
0
 62
     3
100
AcDbMText
 10
-9939.901932210778
 20
-3301.765303717959
 30
0.0
 40
3.0
 41
0.0
 71
     5
 72
     1
  1
\A1;32
1001
ACAD
1000
MTEXTBEGIN
1070
    73
1070
     1
1070
    44
1040
1.0
1070
    74
1070
     0
1000
MTEXTEND
1000
MTEXTBEGIN
1070
    73
1070
     1
1070
    44
1040
1.0
1070
    74
1070
     0
1000
MTEXTEND
1000
MTEXTBEGIN
1070
    73
1070
     1
1070
    44
1040
1.0
1070
    74
1070
     0
1000
MTEXTEND
  0
POINT
  5
308
330
301
100
AcDbEntity
  8
DEFPOINTS
 62
     0
100
AcDbPoint
 10
-9955.901932210778
 20
-3241.177622669668
 30
0.0
  0
POINT
  5
309
330
301
100
AcDbEntity
  8
DEFPOINTS
 62
     0
100
AcDbPoint
 10
-9923.901932210778
 20
-3290.677622669666
 30
0.0
  0
POINT
  5
30A
330
301
100
AcDbEntity
  8
DEFPOINTS
 62
     0
100
AcDbPoint
 10
-9923.901932210778
 20
-3304.265303717959
 30
0.0
  0
ENDBLK
  5
30C
330
301
100
AcDbEntity
  8
0
100
AcDbBlockEnd
  0
BLOCK
  5
162
330
156
100
AcDbEntity
  8
0
100
AcDbBlockBegin
  2
*D4
 70
     1
 10
0.0
 20
0.0
 30
0.0
  3
*D4
  1

  0
LINE
  5
157
330
156
100
AcDbEntity
  8
0
 62
   123
100
AcDbLine
 10
-10107.25355621609
 20
-3359.339294921003
 30
0.0
 11
-10099.48450106062
 21
-3359.339294921003
 31
0.0
  0
LINE
  5
158
330
156
100
AcDbEntity
  8
0
 62
   123
100
AcDbLine
 10
-10107.25355621609
 20
-3355.339294921003
 30
0.0
 11
-10099.48450106062
 21
-3355.339294921003
 31
0.0
  0
LINE
  5
159
330
156
100
AcDbEntity
  8
0
 62
   123
100
AcDbLine
 10
-10100.08450106063
 20
-3361.839294921002
 30
0.0
 11
-10100.08450106063
 21
-3364.339294921003
 31
0.0
  0
LINE
  5
15A
330
156
100
AcDbEntity
  8
0
 62
   123
100
AcDbLine
 10
-10100.08450106063
 20
-3352.839294921003
 30
0.0
 11
-10100.08450106063
 21
-3333.775547412624
 31
0.0
  0
LINE
  5
15B
330
156
100
AcDbEntity
  8
0
 62
   123
100
AcDbLine
 10
-10100.08450106063
 20
-3359.339294921003
 30
0.0
 11
-10100.08450106063
 21
-3355.339294921003
 31
0.0
  0
SOLID
  5
15C
330
156
100
AcDbEntity
  8
0
 62
   123
100
AcDbTrace
 10
-10100.50116772729
 20
-3361.839294921002
 30
0.0
 11
-10099.66783439396
 21
-3361.839294921002
 31
0.0
 12
-10100.08450106063
 22
-3359.339294921003
 32
0.0
 13
-10100.08450106063
 23
-3359.339294921003
 33
0.0
  0
SOLID
  5
15D
330
156
100
AcDbEntity
  8
0
 62
   123
100
AcDbTrace
 10
-10100.50116772729
 20
-3352.839294921003
 30
0.0
 11
-10099.66783439396
 21
-3352.839294921003
 31
0.0
 12
-10100.08450106063
 22
-3355.339294921003
 32
0.0
 13
-10100.08450106063
 23
-3355.339294921003
 33
0.0
  0
MTEXT
  5
15E
330
156
100
AcDbEntity
  8
0
 62
     3
100
AcDbMText
 10
-10103.53450106063
 20
-3340.489833126912
 30
0.0
 40
3.0
 41
0.0
 71
     5
 72
     1
  1
\A1;\A1;4{\f??|b0|i0|c0|p49;\H0.7x;\S+0^ -0.03;}
 11
0.0000000000000001
 21
1.0
 31
0.0
1001
ACAD
1000
MTEXTBEGIN
1070
    73
1070
     1
1070
    44
1040
1.0
1070
    74
1070
     0
1000
MTEXTEND
1000
MTEXTBEGIN
1070
    73
1070
     1
1070
    44
1040
1.0
1070
    74
1070
     0
1000
MTEXTEND
1000
MTEXTBEGIN
1070
    73
1070
     1
1070
    44
1040
1.0
1070
    74
1070
     0
1000
MTEXTEND
  0
POINT
  5
15F
330
156
100
AcDbEntity
  8
DEFPOINTS
 62
     0
100
AcDbPoint
 10
-10108.25355621609
 20
-3359.339294921003
 30
0.0
  0
POINT
  5
160
330
156
100
AcDbEntity
  8
DEFPOINTS
 62
     0
100
AcDbPoint
 10
-10108.25355621609
 20
-3355.339294921003
 30
0.0
  0
POINT
  5
161
330
156
100
AcDbEntity
  8
DEFPOINTS
 62
     0
100
AcDbPoint
 10
-10100.08450106063
 20
-3355.339294921003
 30
0.0
  0
ENDBLK
  5
163
330
156
100
AcDbEntity
  8
0
100
AcDbBlockEnd
  0
BLOCK
  5
318
330
30E
100
AcDbEntity
  8
0
100
AcDbBlockBegin
  2
*D5
 70
     1
 10
0.0
 20
0.0
 30
0.0
  3
*D5
  1

  0
LINE
  5
30F
330
30E
100
AcDbEntity
  8
0
 62
   123
100
AcDbLine
 10
-9881.401932210778
 20
-3291.677622669668
 30
0.0
 11
-9881.401932210778
 21
-3304.865303717959
 31
0.0
  0
LINE
  5
310
330
30E
100
AcDbEntity
  8
0
 62
   123
100
AcDbLine
 10
-9923.901932210778
 20
-3291.677622669668
 30
0.0
 11
-9923.901932210778
 21
-3304.865303717959
 31
0.0
  0
LINE
  5
311
330
30E
100
AcDbEntity
  8
0
 62
   123
100
AcDbLine
 10
-9883.901932210781
 20
-3304.265303717959
 30
0.0
 11
-9921.40193221078
 21
-3304.265303717959
 31
0.0
  0
SOLID
  5
312
330
30E
100
AcDbEntity
  8
0
 62
   123
100
AcDbTrace
 10
-9883.901932210781
 20
-3303.848637051292
 30
0.0
 11
-9883.901932210781
 21
-3304.681970384626
 31
0.0
 12
-9881.401932210778
 22
-3304.265303717959
 32
0.0
 13
-9881.401932210778
 23
-3304.265303717959
 33
0.0
  0
SOLID
  5
313
330
30E
100
AcDbEntity
  8
0
 62
   123
100
AcDbTrace
 10
-9921.40193221078
 20
-3303.848637051292
 30
0.0
 11
-9921.40193221078
 21
-3304.681970384626
 31
0.0
 12
-9923.901932210778
 22
-3304.265303717959
 32
0.0
 13
-9923.901932210778
 23
-3304.265303717959
 33
0.0
  0
MTEXT
  5
314
330
30E
100
AcDbEntity
  8
0
 62
     3
100
AcDbMText
 10
-9902.65193221078
 20
-3301.765303717959
 30
0.0
 40
3.0
 41
0.0
 71
     5
 72
     1
  1
\A1;L
1001
ACAD
1000
MTEXTBEGIN
1070
    73
1070
     1
1070
    44
1040
1.0
1070
    74
1070
     0
1000
MTEXTEND
1000
MTEXTBEGIN
1070
    73
1070
     1
1070
    44
1040
1.0
1070
    74
1070
     0
1000
MTEXTEND
1000
MTEXTBEGIN
1070
    73
1070
     1
1070
    44
1040
1.0
1070
    74
1070
     0
1000
MTEXTEND
  0
POINT
  5
315
330
30E
100
AcDbEntity
  8
DEFPOINTS
 62
     0
100
AcDbPoint
 10
-9881.401932210778
 20
-3290.677622669666
 30
0.0
  0
POINT
  5
316
330
30E
100
AcDbEntity
  8
DEFPOINTS
 62
     0
100
AcDbPoint
 10
-9923.901932210778
 20
-3290.677622669666
 30
0.0
  0
POINT
  5
317
330
30E
100
AcDbEntity
  8
DEFPOINTS
 62
     0
100
AcDbPoint
 10
-9923.901932210778
 20
-3304.265303717959
 30
0.0
  0
ENDBLK
  5
319
330
30E
100
AcDbEntity
  8
0
100
AcDbBlockEnd
  0
BLOCK
  5
2EA
330
2DE
100
AcDbEntity
  8
0
100
AcDbBlockBegin
  2
*D6
 70
     1
 10
0.0
 20
0.0
 30
0.0
  3
*D6
  1

  0
LINE
  5
2DF
330
2DE
100
AcDbEntity
  8
0
 62
   123
100
AcDbLine
 10
-9923.901932210778
 20
-3210.677622669668
 30
0.0
 11
-9923.901932210778
 21
-3203.967694760763
 31
0.0
  0
LINE
  5
2E0
330
2DE
100
AcDbEntity
  8
0
 62
   123
100
AcDbLine
 10
-9926.901932210778
 20
-3218.677622669668
 30
0.0
 11
-9926.901932210778
 21
-3203.967694760763
 31
0.0
  0
LINE
  5
2E1
330
2DE
100
AcDbEntity
  8
0
 62
   123
100
AcDbLine
 10
-9921.40193221078
 20
-3204.567694760763
 30
0.0
 11
-9918.901932210779
 21
-3204.567694760763
 31
0.0
  0
LINE
  5
2E2
330
2DE
100
AcDbEntity
  8
0
 62
   123
100
AcDbLine
 10
-9929.40193221078
 20
-3204.567694760763
 30
0.0
 11
-9931.901932210777
 21
-3204.567694760763
 31
0.0
  0
LINE
  5
2E3
330
2DE
100
AcDbEntity
  8
0
 62
   123
100
AcDbLine
 10
-9923.901932210778
 20
-3204.567694760763
 30
0.0
 11
-9926.901932210778
 21
-3204.567694760763
 31
0.0
  0
SOLID
  5
2E4
330
2DE
100
AcDbEntity
  8
0
 62
   123
100
AcDbTrace
 10
-9921.40193221078
 20
-3204.151028094097
 30
0.0
 11
-9921.40193221078
 21
-3204.984361427429
 31
0.0
 12
-9923.901932210778
 22
-3204.567694760763
 32
0.0
 13
-9923.901932210778
 23
-3204.567694760763
 33
0.0
  0
SOLID
  5
2E5
330
2DE
100
AcDbEntity
  8
0
 62
   123
100
AcDbTrace
 10
-9929.40193221078
 20
-3204.151028094097
 30
0.0
 11
-9929.40193221078
 21
-3204.984361427429
 31
0.0
 12
-9926.901932210778
 22
-3204.567694760763
 32
0.0
 13
-9926.901932210778
 23
-3204.567694760763
 33
0.0
  0
MTEXT
  5
2E6
330
2DE
100
AcDbEntity
  8
0
 62
     3
100
AcDbMText
 10
-9925.401932210778
 20
-3202.067694760763
 30
0.0
 40
3.0
 41
0.0
 71
     5
 72
     1
  1
\A1;3
1001
ACAD
1000
MTEXTBEGIN
1070
    73
1070
     1
1070
    44
1040
1.0
1070
    74
1070
     0
1000
MTEXTEND
1000
MTEXTBEGIN
1070
    73
1070
     1
1070
    44
1040
1.0
1070
    74
1070
     0
1000
MTEXTEND
1000
MTEXTBEGIN
1070
    73
1070
     1
1070
    44
1040
1.0
1070
    74
1070
     0
1000
MTEXTEND
  0
POINT
  5
2E7
330
2DE
100
AcDbEntity
  8
DEFPOINTS
 62
     0
100
AcDbPoint
 10
-9923.901932210778
 20
-3211.677622669668
 30
0.0
  0
POINT
  5
2E8
330
2DE
100
AcDbEntity
  8
DEFPOINTS
 62
     0
100
AcDbPoint
 10
-9926.901932210778
 20
-3219.677622669666
 30
0.0
  0
POINT
  5
2E9
330
2DE
100
AcDbEntity
  8
DEFPOINTS
 62
     0
100
AcDbPoint
 10
-9926.901932210778
 20
-3204.567694760763
 30
0.0
  0
ENDBLK
  5
2EB
330
2DE
100
AcDbEntity
  8
0
100
AcDbBlockEnd
  0
BLOCK
  5
355
330
349
100
AcDbEntity
  8
0
100
AcDbBlockBegin
  2
*D7
 70
     1
 10
0.0
 20
0.0
 30
0.0
  3
*D7
  1

  0
LINE
  5
34A
330
349
100
AcDbEntity
  8
0
 62
   123
100
AcDbLine
 10
-9951.163245595921
 20
-3066.74827778631
 30
0.0
 11
-9951.163245595921
 21
-3054.085790061281
 31
0.0
  0
LINE
  5
34B
330
349
100
AcDbEntity
  8
0
 62
   123
100
AcDbLine
 10
-9949.16324559592
 20
-3063.248277786311
 30
0.0
 11
-9949.16324559592
 21
-3054.085790061281
 31
0.0
  0
LINE
  5
34C
330
349
100
AcDbEntity
  8
0
 62
   123
100
AcDbLine
 10
-9946.663245595921
 20
-3054.68579006128
 30
0.0
 11
-9944.163245595921
 21
-3054.68579006128
 31
0.0
  0
LINE
  5
34D
330
349
100
AcDbEntity
  8
0
 62
   123
100
AcDbLine
 10
-9953.663245595921
 20
-3054.68579006128
 30
0.0
 11
-9960.163245595921
 21
-3054.68579006128
 31
0.0
  0
LINE
  5
34E
330
349
100
AcDbEntity
  8
0
 62
   123
100
AcDbLine
 10
-9949.16324559592
 20
-3054.68579006128
 30
0.0
 11
-9951.163245595921
 21
-3054.68579006128
 31
0.0
  0
SOLID
  5
34F
330
349
100
AcDbEntity
  8
0
 62
   123
100
AcDbTrace
 10
-9946.663245595921
 20
-3054.269123394614
 30
0.0
 11
-9946.663245595921
 21
-3055.102456727947
 31
0.0
 12
-9949.16324559592
 22
-3054.68579006128
 32
0.0
 13
-9949.16324559592
 23
-3054.68579006128
 33
0.0
  0
SOLID
  5
350
330
349
100
AcDbEntity
  8
0
 62
   123
100
AcDbTrace
 10
-9953.663245595921
 20
-3054.269123394614
 30
0.0
 11
-9953.663245595921
 21
-3055.102456727947
 31
0.0
 12
-9951.163245595921
 22
-3054.68579006128
 32
0.0
 13
-9951.163245595921
 23
-3054.68579006128
 33
0.0
  0
MTEXT
  5
351
330
349
100
AcDbEntity
  8
0
 62
     3
100
AcDbMText
 10
-9958.163245595921
 20
-3052.18579006128
 30
0.0
 40
3.0
 41
0.0
 71
     5
 72
     1
  1
\A1;2
1001
ACAD
1000
MTEXTBEGIN
1070
    73
1070
     1
1070
    44
1040
1.0
1070
    74
1070
     0
1000
MTEXTEND
1000
MTEXTBEGIN
1070
    73
1070
     1
1070
    44
1040
1.0
1070
    74
1070
     0
1000
MTEXTEND
1000
MTEXTBEGIN
1070
    73
1070
     1
1070
    44
1040
1.0
1070
    74
1070
     0
1000
MTEXTEND
  0
POINT
  5
352
330
349
100
AcDbEntity
  8
DEFPOINTS
 62
     0
100
AcDbPoint
 10
-9951.163245595921
 20
-3067.74827778631
 30
0.0
  0
POINT
  5
353
330
349
100
AcDbEntity
  8
DEFPOINTS
 62
     0
100
AcDbPoint
 10
-9949.16324559592
 20
-3064.24827778631
 30
0.0
  0
POINT
  5
354
330
349
100
AcDbEntity
  8
DEFPOINTS
 62
     0
100
AcDbPoint
 10
-9949.16324559592
 20
-3054.68579006128
 30
0.0
  0
ENDBLK
  5
356
330
349
100
AcDbEntity
  8
0
100
AcDbBlockEnd
  0
BLOCK
  5
362
330
358
100
AcDbEntity
  8
0
100
AcDbBlockBegin
  2
*D8
 70
     1
 10
0.0
 20
0.0
 30
0.0
  3
*D8
  1

  0
LINE
  5
359
330
358
100
AcDbEntity
  8
0
 62
   123
100
AcDbLine
 10
-9962.663245595921
 20
-3100.14327778631
 30
0.0
 11
-9962.663245595921
 21
-3043.791786166369
 31
0.0
  0
LINE
  5
35A
330
358
100
AcDbEntity
  8
0
 62
   123
100
AcDbLine
 10
-9949.16324559592
 20
-3063.248277786311
 30
0.0
 11
-9949.16324559592
 21
-3043.791786166369
 31
0.0
  0
LINE
  5
35B
330
358
100
AcDbEntity
  8
0
 62
   123
100
AcDbLine
 10
-9960.163245595921
 20
-3044.391786166369
 30
0.0
 11
-9951.663245595923
 21
-3044.391786166369
 31
0.0
  0
SOLID
  5
35C
330
358
100
AcDbEntity
  8
0
 62
   123
100
AcDbTrace
 10
-9960.163245595921
 20
-3043.975119499703
 30
0.0
 11
-9960.163245595921
 21
-3044.808452833036
 31
0.0
 12
-9962.663245595921
 22
-3044.391786166369
 32
0.0
 13
-9962.663245595921
 23
-3044.391786166369
 33
0.0
  0
SOLID
  5
35D
330
358
100
AcDbEntity
  8
0
 62
   123
100
AcDbTrace
 10
-9951.663245595923
 20
-3043.975119499703
 30
0.0
 11
-9951.663245595923
 21
-3044.808452833036
 31
0.0
 12
-9949.16324559592
 22
-3044.391786166369
 32
0.0
 13
-9949.16324559592
 23
-3044.391786166369
 33
0.0
  0
MTEXT
  5
35E
330
358
100
AcDbEntity
  8
0
 62
     3
100
AcDbMText
 10
-9955.41324559592
 20
-3041.891786166369
 30
0.0
 40
3.0
 41
0.0
 71
     5
 72
     1
  1
\A1;13.5
1001
ACAD
1000
MTEXTBEGIN
1070
    73
1070
     1
1070
    44
1040
1.0
1070
    74
1070
     0
1000
MTEXTEND
1000
MTEXTBEGIN
1070
    73
1070
     1
1070
    44
1040
1.0
1070
    74
1070
     0
1000
MTEXTEND
1000
MTEXTBEGIN
1070
    73
1070
     1
1070
    44
1040
1.0
1070
    74
1070
     0
1000
MTEXTEND
  0
POINT
  5
35F
330
358
100
AcDbEntity
  8
DEFPOINTS
 62
     0
100
AcDbPoint
 10
-9962.663245595921
 20
-3101.14327778631
 30
0.0
  0
POINT
  5
360
330
358
100
AcDbEntity
  8
DEFPOINTS
 62
     0
100
AcDbPoint
 10
-9949.16324559592
 20
-3064.24827778631
 30
0.0
  0
POINT
  5
361
330
358
100
AcDbEntity
  8
DEFPOINTS
 62
     0
100
AcDbPoint
 10
-9949.16324559592
 20
-3044.391786166369
 30
0.0
  0
ENDBLK
  5
363
330
358
100
AcDbEntity
  8
0
100
AcDbBlockEnd
  0
BLOCK
  5
2AE
330
2A4
100
AcDbEntity
  8
0
100
AcDbBlockBegin
  2
*D9
 70
     1
 10
0.0
 20
0.0
 30
0.0
  3
*D9
  1

  0
LINE
  5
2A5
330
2A4
100
AcDbEntity
  8
0
 62
   123
100
AcDbLine
 10
-9930.90193221078
 20
-3230.177622669666
 30
0.0
 11
-9930.90193221078
 21
-3214.357334462764
 31
0.0
  0
LINE
  5
2A6
330
2A4
100
AcDbEntity
  8
0
 62
   123
100
AcDbLine
 10
-9955.901932210778
 20
-3230.177622669668
 30
0.0
 11
-9955.901932210778
 21
-3214.357334462764
 31
0.0
  0
LINE
  5
2A7
330
2A4
100
AcDbEntity
  8
0
 62
   123
100
AcDbLine
 10
-9933.401932210777
 20
-3214.957334462765
 30
0.0
 11
-9953.40193221078
 21
-3214.957334462765
 31
0.0
  0
SOLID
  5
2A8
330
2A4
100
AcDbEntity
  8
0
 62
   123
100
AcDbTrace
 10
-9933.401932210777
 20
-3214.540667796099
 30
0.0
 11
-9933.401932210777
 21
-3215.374001129431
 31
0.0
 12
-9930.90193221078
 22
-3214.957334462765
 32
0.0
 13
-9930.90193221078
 23
-3214.957334462765
 33
0.0
  0
SOLID
  5
2A9
330
2A4
100
AcDbEntity
  8
0
 62
   123
100
AcDbTrace
 10
-9953.40193221078
 20
-3214.540667796099
 30
0.0
 11
-9953.40193221078
 21
-3215.374001129431
 31
0.0
 12
-9955.901932210778
 22
-3214.957334462765
 32
0.0
 13
-9955.901932210778
 23
-3214.957334462765
 33
0.0
  0
MTEXT
  5
2AA
330
2A4
100
AcDbEntity
  8
0
 62
     3
100
AcDbMText
 10
-9943.091001543381
 20
-3212.457334462765
 30
0.0
 40
3.0
 41
0.0
 71
     5
 72
     1
  1
\A1;25
1001
ACAD
1000
MTEXTBEGIN
1070
    73
1070
     1
1070
    44
1040
1.0
1070
    74
1070
     0
1000
MTEXTEND
1000
MTEXTBEGIN
1070
    73
1070
     1
1070
    44
1040
1.0
1070
    74
1070
     0
1000
MTEXTEND
1000
MTEXTBEGIN
1070
    73
1070
     1
1070
    44
1040
1.0
1070
    74
1070
     0
1000
MTEXTEND
  0
POINT
  5
2AB
330
2A4
100
AcDbEntity
  8
DEFPOINTS
 62
     0
100
AcDbPoint
 10
-9930.90193221078
 20
-3231.177622669666
 30
0.0
  0
POINT
  5
2AC
330
2A4
100
AcDbEntity
  8
DEFPOINTS
 62
     0
100
AcDbPoint
 10
-9955.901932210778
 20
-3231.177622669668
 30
0.0
  0
POINT
  5
2AD
330
2A4
100
AcDbEntity
  8
DEFPOINTS
 62
     0
100
AcDbPoint
 10
-9955.901932210778
 20
-3214.957334462765
 30
0.0
  0
ENDBLK
  5
2AF
330
2A4
100
AcDbEntity
  8
0
100
AcDbBlockEnd
  0
BLOCK
  5
288
330
27E
100
AcDbEntity
  8
0
100
AcDbBlockBegin
  2
*D10
 70
     1
 10
0.0
 20
0.0
 30
0.0
  3
*D10
  1

  0
LINE
  5
27F
330
27E
100
AcDbEntity
  8
0
 62
   123
100
AcDbLine
 10
-10101.55505280327
 20
-3287.177622669668
 30
0.0
 11
-10101.55505280327
 21
-3312.754584009786
 31
0.0
  0
LINE
  5
280
330
27E
100
AcDbEntity
  8
0
 62
   123
100
AcDbLine
 10
-10021.55505280327
 20
-3287.177622669668
 30
0.0
 11
-10021.55505280327
 21
-3312.754584009786
 31
0.0
  0
LINE
  5
281
330
27E
100
AcDbEntity
  8
0
 62
   123
100
AcDbLine
 10
-10099.05505280326
 20
-3312.154584009787
 30
0.0
 11
-10024.05505280326
 21
-3312.154584009787
 31
0.0
  0
SOLID
  5
282
330
27E
100
AcDbEntity
  8
0
 62
   123
100
AcDbTrace
 10
-10099.05505280326
 20
-3311.737917343121
 30
0.0
 11
-10099.05505280326
 21
-3312.571250676454
 31
0.0
 12
-10101.55505280327
 22
-3312.154584009787
 32
0.0
 13
-10101.55505280327
 23
-3312.154584009787
 33
0.0
  0
SOLID
  5
283
330
27E
100
AcDbEntity
  8
0
 62
   123
100
AcDbTrace
 10
-10024.05505280326
 20
-3311.737917343121
 30
0.0
 11
-10024.05505280326
 21
-3312.571250676454
 31
0.0
 12
-10021.55505280327
 22
-3312.154584009787
 32
0.0
 13
-10021.55505280327
 23
-3312.154584009787
 33
0.0
  0
MTEXT
  5
284
330
27E
100
AcDbEntity
  8
0
 62
     3
100
AcDbMText
 10
-10057.73583503274
 20
-3309.654584009785
 30
0.0
 40
3.0
 41
0.0
 71
     5
 72
     1
  1
\A1;80
1001
ACAD
1000
MTEXTBEGIN
1070
    73
1070
     1
1070
    44
1040
1.0
1070
    74
1070
     0
1000
MTEXTEND
1000
MTEXTBEGIN
1070
    73
1070
     1
1070
    44
1040
1.0
1070
    74
1070
     0
1000
MTEXTEND
1000
MTEXTBEGIN
1070
    73
1070
     1
1070
    44
1040
1.0
1070
    74
1070
     0
1000
MTEXTEND
  0
POINT
  5
285
330
27E
100
AcDbEntity
  8
DEFPOINTS
 62
     0
100
AcDbPoint
 10
-10101.55505280327
 20
-3286.177622669667
 30
0.0
  0
POINT
  5
286
330
27E
100
AcDbEntity
  8
DEFPOINTS
 62
     0
100
AcDbPoint
 10
-10021.55505280327
 20
-3286.177622669667
 30
0.0
  0
POINT
  5
287
330
27E
100
AcDbEntity
  8
DEFPOINTS
 62
     0
100
AcDbPoint
 10
-10021.55505280327
 20
-3312.154584009787
 30
0.0
  0
ENDBLK
  5
289
330
27E
100
AcDbEntity
  8
0
100
AcDbBlockEnd
  0
BLOCK
  5
256
330
24A
100
AcDbEntity
  8
0
100
AcDbBlockBegin
  2
*D11
 70
     1
 10
0.0
 20
0.0
 30
0.0
  3
*D11
  1

  0
LINE
  5
24B
330
24A
100
AcDbEntity
  8
0
 62
   123
100
AcDbLine
 10
-10046.14952318882
 20
-3353.357014513043
 30
0.0
 11
-10046.14952318882
 21
-3344.998001968068
 31
0.0
  0
LINE
  5
24C
330
24A
100
AcDbEntity
  8
0
 62
   123
100
AcDbLine
 10
-10042.14952318883
 20
-3353.357014513043
 30
0.0
 11
-10042.14952318883
 21
-3344.998001968068
 31
0.0
  0
LINE
  5
24D
330
24A
100
AcDbEntity
  8
0
 62
   123
100
AcDbLine
 10
-10048.64952318883
 20
-3345.598001968068
 30
0.0
 11
-10051.14952318882
 21
-3345.598001968068
 31
0.0
  0
LINE
  5
24E
330
24A
100
AcDbEntity
  8
0
 62
   123
100
AcDbLine
 10
-10039.64952318882
 20
-3345.598001968068
 30
0.0
 11
-10037.14952318883
 21
-3345.598001968068
 31
0.0
  0
LINE
  5
24F
330
24A
100
AcDbEntity
  8
0
 62
   123
100
AcDbLine
 10
-10046.14952318882
 20
-3345.598001968068
 30
0.0
 11
-10042.14952318883
 21
-3345.598001968068
 31
0.0
  0
SOLID
  5
250
330
24A
100
AcDbEntity
  8
0
 62
   123
100
AcDbTrace
 10
-10048.64952318883
 20
-3345.181335301401
 30
0.0
 11
-10048.64952318883
 21
-3346.014668634735
 31
0.0
 12
-10046.14952318882
 22
-3345.598001968068
 32
0.0
 13
-10046.14952318882
 23
-3345.598001968068
 33
0.0
  0
SOLID
  5
251
330
24A
100
AcDbEntity
  8
0
 62
   123
100
AcDbTrace
 10
-10039.64952318882
 20
-3345.181335301401
 30
0.0
 11
-10039.64952318882
 21
-3346.014668634735
 31
0.0
 12
-10042.14952318883
 22
-3345.598001968068
 32
0.0
 13
-10042.14952318883
 23
-3345.598001968068
 33
0.0
  0
MTEXT
  5
252
330
24A
100
AcDbEntity
  8
0
 62
     3
100
AcDbMText
 10
-10044.14952318883
 20
-3342.148001968068
 30
0.0
 40
3.0
 41
0.0
 71
     5
 72
     1
  1
\A1;\A1;4{\f??|b0|i0|c0|p49;\H0.7x;\S+0.40^ -0;}
1001
ACAD
1000
MTEXTBEGIN
1070
    73
1070
     1
1070
    44
1040
1.0
1070
    74
1070
     0
1000
MTEXTEND
1000
MTEXTBEGIN
1070
    73
1070
     1
1070
    44
1040
1.0
1070
    74
1070
     0
1000
MTEXTEND
1000
MTEXTBEGIN
1070
    73
1070
     1
1070
    44
1040
1.0
1070
    74
1070
     0
1000
MTEXTEND
  0
POINT
  5
253
330
24A
100
AcDbEntity
  8
DEFPOINTS
 62
     0
100
AcDbPoint
 10
-10046.14952318882
 20
-3354.357014513043
 30
0.0
  0
POINT
  5
254
330
24A
100
AcDbEntity
  8
DEFPOINTS
 62
     0
100
AcDbPoint
 10
-10042.14952318883
 20
-3354.357014513043
 30
0.0
  0
POINT
  5
255
330
24A
100
AcDbEntity
  8
DEFPOINTS
 62
     0
100
AcDbPoint
 10
-10042.14952318883
 20
-3345.598001968068
 30
0.0
  0
ENDBLK
  5
257
330
24A
100
AcDbEntity
  8
0
100
AcDbBlockEnd
  0
BLOCK
  5
13F
330
133
100
AcDbEntity
  8
0
100
AcDbBlockBegin
  2
*D12
 70
     1
 10
0.0
 20
0.0
 30
0.0
  3
*D12
  1

  0
LINE
  5
134
330
133
100
AcDbEntity
  8
0
 62
   123
100
AcDbLine
 10
-10091.08290292938
 20
-3354.339294921003
 30
0.0
 11
-10091.08290292938
 21
-3346.06481926237
 31
0.0
  0
LINE
  5
135
330
133
100
AcDbEntity
  8
0
 62
   123
100
AcDbLine
 10
-10087.08290292938
 20
-3354.339294921003
 30
0.0
 11
-10087.08290292938
 21
-3346.06481926237
 31
0.0
  0
LINE
  5
136
330
133
100
AcDbEntity
  8
0
 62
   123
100
AcDbLine
 10
-10093.58290292938
 20
-3346.66481926237
 30
0.0
 11
-10096.08290292937
 21
-3346.66481926237
 31
0.0
  0
LINE
  5
137
330
133
100
AcDbEntity
  8
0
 62
   123
100
AcDbLine
 10
-10084.58290292937
 20
-3346.66481926237
 30
0.0
 11
-10082.08290292938
 21
-3346.66481926237
 31
0.0
  0
LINE
  5
138
330
133
100
AcDbEntity
  8
0
 62
   123
100
AcDbLine
 10
-10091.08290292938
 20
-3346.66481926237
 30
0.0
 11
-10087.08290292938
 21
-3346.66481926237
 31
0.0
  0
SOLID
  5
139
330
133
100
AcDbEntity
  8
0
 62
   123
100
AcDbTrace
 10
-10093.58290292938
 20
-3346.248152595704
 30
0.0
 11
-10093.58290292938
 21
-3347.081485929037
 31
0.0
 12
-10091.08290292938
 22
-3346.66481926237
 32
0.0
 13
-10091.08290292938
 23
-3346.66481926237
 33
0.0
  0
SOLID
  5
13A
330
133
100
AcDbEntity
  8
0
 62
   123
100
AcDbTrace
 10
-10084.58290292937
 20
-3346.248152595704
 30
0.0
 11
-10084.58290292937
 21
-3347.081485929037
 31
0.0
 12
-10087.08290292938
 22
-3346.66481926237
 32
0.0
 13
-10087.08290292938
 23
-3346.66481926237
 33
0.0
  0
MTEXT
  5
13B
330
133
100
AcDbEntity
  8
0
 62
     3
100
AcDbMText
 10
-10089.08290292938
 20
-3343.21481926237
 30
0.0
 40
3.0
 41
0.0
 71
     5
 72
     1
  1
\A1;\A1;4{\f??|b0|i0|c0|p49;\H0.7x;\S+0^ -0.03;}
1001
ACAD
1000
MTEXTBEGIN
1070
    73
1070
     1
1070
    44
1040
1.0
1070
    74
1070
     0
1000
MTEXTEND
1000
MTEXTBEGIN
1070
    73
1070
     1
1070
    44
1040
1.0
1070
    74
1070
     0
1000
MTEXTEND
1000
MTEXTBEGIN
1070
    73
1070
     1
1070
    44
1040
1.0
1070
    74
1070
     0
1000
MTEXTEND
  0
POINT
  5
13C
330
133
100
AcDbEntity
  8
DEFPOINTS
 62
     0
100
AcDbPoint
 10
-10091.08290292938
 20
-3355.339294921003
 30
0.0
  0
POINT
  5
13D
330
133
100
AcDbEntity
  8
DEFPOINTS
 62
     0
100
AcDbPoint
 10
-10087.08290292938
 20
-3355.339294921003
 30
0.0
  0
POINT
  5
13E
330
133
100
AcDbEntity
  8
DEFPOINTS
 62
     0
100
AcDbPoint
 10
-10087.08290292938
 20
-3346.66481926237
 30
0.0
  0
ENDBLK
  5
140
330
133
100
AcDbEntity
  8
0
100
AcDbBlockEnd
  0
BLOCK
  5
267
330
25B
100
AcDbEntity
  8
0
100
AcDbBlockBegin
  2
*D13
 70
     1
 10
0.0
 20
0.0
 30
0.0
  3
*D13
  1

  0
LINE
  5
25C
330
25B
100
AcDbEntity
  8
0
 62
   123
100
AcDbLine
 10
-10041.14952318883
 20
-3356.439590207999
 30
0.0
 11
-10026.05219069465
 21
-3356.439590207999
 31
0.0
  0
LINE
  5
25D
330
25B
100
AcDbEntity
  8
0
 62
   123
100
AcDbLine
 10
-10043.14952318883
 20
-3353.939590207998
 30
0.0
 11
-10026.05219069465
 21
-3353.939590207998
 31
0.0
  0
LINE
  5
25E
330
25B
100
AcDbEntity
  8
0
 62
   123
100
AcDbLine
 10
-10026.65219069464
 20
-3358.939590208
 30
0.0
 11
-10026.65219069464
 21
-3361.439590208
 31
0.0
  0
LINE
  5
25F
330
25B
100
AcDbEntity
  8
0
 62
   123
100
AcDbLine
 10
-10026.65219069464
 20
-3351.439590207998
 30
0.0
 11
-10026.65219069464
 21
-3330.025304493711
 31
0.0
  0
LINE
  5
260
330
25B
100
AcDbEntity
  8
0
 62
   123
100
AcDbLine
 10
-10026.65219069464
 20
-3356.439590207999
 30
0.0
 11
-10026.65219069464
 21
-3353.939590207998
 31
0.0
  0
SOLID
  5
261
330
25B
100
AcDbEntity
  8
0
 62
   123
100
AcDbTrace
 10
-10027.06885736132
 20
-3358.939590208
 30
0.0
 11
-10026.23552402797
 21
-3358.939590208
 31
0.0
 12
-10026.65219069464
 22
-3356.439590207999
 32
0.0
 13
-10026.65219069464
 23
-3356.439590207999
 33
0.0
  0
SOLID
  5
262
330
25B
100
AcDbEntity
  8
0
 62
   123
100
AcDbTrace
 10
-10027.06885736132
 20
-3351.439590207998
 30
0.0
 11
-10026.23552402797
 21
-3351.439590207998
 31
0.0
 12
-10026.65219069464
 22
-3353.939590207998
 32
0.0
 13
-10026.65219069464
 23
-3353.939590207998
 33
0.0
  0
MTEXT
  5
263
330
25B
100
AcDbEntity
  8
0
 62
     3
100
AcDbMText
 10
-10030.10219069464
 20
-3337.732447350855
 30
0.0
 40
3.0
 41
0.0
 71
     5
 72
     1
  1
\A1;\A1;2.5{\f??|b0|i0|c0|p49;\H0.7x;\S+0.1^ -0;\H1.429x; }
 11
0.0000000000000001
 21
1.0
 31
0.0
1001
ACAD
1000
MTEXTBEGIN
1070
    73
1070
     1
1070
    44
1040
1.0
1070
    74
1070
     0
1000
MTEXTEND
1000
MTEXTBEGIN
1070
    73
1070
     1
1070
    44
1040
1.0
1070
    74
1070
     0
1000
MTEXTEND
1000
MTEXTBEGIN
1070
    73
1070
     1
1070
    44
1040
1.0
1070
    74
1070
     0
1000
MTEXTEND
  0
POINT
  5
264
330
25B
100
AcDbEntity
  8
DEFPOINTS
 62
     0
100
AcDbPoint
 10
-10042.14952318883
 20
-3356.439590207999
 30
0.0
  0
POINT
  5
265
330
25B
100
AcDbEntity
  8
DEFPOINTS
 62
     0
100
AcDbPoint
 10
-10044.14952318883
 20
-3353.939590207998
 30
0.0
  0
POINT
  5
266
330
25B
100
AcDbEntity
  8
DEFPOINTS
 62
     0
100
AcDbPoint
 10
-10026.65219069464
 20
-3353.939590207998
 30
0.0
  0
ENDBLK
  5
268
330
25B
100
AcDbEntity
  8
0
100
AcDbBlockEnd
  0
BLOCK
  5
171
330
167
100
AcDbEntity
  8
0
100
AcDbBlockBegin
  2
*D14
 70
     1
 10
0.0
 20
0.0
 30
0.0
  3
*D14
  1

  0
LINE
  5
168
330
167
100
AcDbEntity
  8
0
 62
   123
100
AcDbLine
 10
-10133.25355621609
 20
-3356.339294921002
 30
0.0
 11
-10133.25355621609
 21
-3346.934100940528
 31
0.0
  0
LINE
  5
169
330
167
100
AcDbEntity
  8
0
 62
   123
100
AcDbLine
 10
-10108.25355621609
 20
-3354.339294921003
 30
0.0
 11
-10108.25355621609
 21
-3346.934100940528
 31
0.0
  0
LINE
  5
16A
330
167
100
AcDbEntity
  8
0
 62
   123
100
AcDbLine
 10
-10130.75355621606
 20
-3347.534100940526
 30
0.0
 11
-10110.75355621606
 21
-3347.534100940526
 31
0.0
  0
SOLID
  5
16B
330
167
100
AcDbEntity
  8
0
 62
   123
100
AcDbTrace
 10
-10130.75355621606
 20
-3347.11743427386
 30
0.0
 11
-10130.75355621606
 21
-3347.950767607194
 31
0.0
 12
-10133.25355621609
 22
-3347.534100940526
 32
0.0
 13
-10133.25355621609
 23
-3347.534100940526
 33
0.0
  0
SOLID
  5
16C
330
167
100
AcDbEntity
  8
0
 62
   123
100
AcDbTrace
 10
-10110.75355621606
 20
-3347.11743427386
 30
0.0
 11
-10110.75355621606
 21
-3347.950767607194
 31
0.0
 12
-10108.25355621609
 22
-3347.534100940526
 32
0.0
 13
-10108.25355621609
 23
-3347.534100940526
 33
0.0
  0
MTEXT
  5
16D
330
167
100
AcDbEntity
  8
0
 62
     3
100
AcDbMText
 10
-10120.75355621609
 20
-3345.034100940526
 30
0.0
 40
3.0
 41
0.0
 71
     5
 72
     1
  1
\A1;25{\f??|b0|i0|c0|p49;%%p0.2}
1001
ACAD
1000
MTEXTBEGIN
1070
    73
1070
     1
1070
    44
1040
1.0
1070
    74
1070
     0
1000
MTEXTEND
1000
MTEXTBEGIN
1070
    73
1070
     1
1070
    44
1040
1.0
1070
    74
1070
     0
1000
MTEXTEND
1000
MTEXTBEGIN
1070
    73
1070
     1
1070
    44
1040
1.0
1070
    74
1070
     0
1000
MTEXTEND
  0
POINT
  5
16E
330
167
100
AcDbEntity
  8
DEFPOINTS
 62
     0
100
AcDbPoint
 10
-10133.25355621609
 20
-3357.339294921003
 30
0.0
  0
POINT
  5
16F
330
167
100
AcDbEntity
  8
DEFPOINTS
 62
     0
100
AcDbPoint
 10
-10108.25355621609
 20
-3355.339294921003
 30
0.0
  0
POINT
  5
170
330
167
100
AcDbEntity
  8
DEFPOINTS
 62
     0
100
AcDbPoint
 10
-10108.25355621609
 20
-3347.534100940526
 30
0.0
  0
ENDBLK
  5
172
330
167
100
AcDbEntity
  8
0
100
AcDbBlockEnd
  0
BLOCK
  5
2CA
330
2BE
100
AcDbEntity
  8
0
100
AcDbBlockBegin
  2
*D15
 70
     1
 10
0.0
 20
0.0
 30
0.0
  3
*D15
  1

  0
LINE
  5
2BF
330
2BE
100
AcDbEntity
  8
0
 62
   123
100
AcDbLine
 10
-9956.901932210778
 20
-3241.177622669666
 30
0.0
 11
-9971.326595499752
 21
-3241.177622669666
 31
0.0
  0
LINE
  5
2C0
330
2BE
100
AcDbEntity
  8
0
 62
   123
100
AcDbLine
 10
-9956.901932210778
 20
-3231.177622669666
 30
0.0
 11
-9971.326595499752
 21
-3231.177622669666
 31
0.0
  0
LINE
  5
2C1
330
2BE
100
AcDbEntity
  8
0
 62
   123
100
AcDbLine
 10
-9970.726595499753
 20
-3243.677622669666
 30
0.0
 11
-9970.726595499753
 21
-3246.177622669668
 31
0.0
  0
LINE
  5
2C2
330
2BE
100
AcDbEntity
  8
0
 62
   123
100
AcDbLine
 10
-9970.726595499753
 20
-3228.677622669666
 30
0.0
 11
-9970.726595499753
 21
-3188.251117315351
 31
0.0
  0
LINE
  5
2C3
330
2BE
100
AcDbEntity
  8
0
 62
   123
100
AcDbLine
 10
-9970.726595499753
 20
-3241.177622669666
 30
0.0
 11
-9970.726595499753
 21
-3231.177622669666
 31
0.0
  0
SOLID
  5
2C4
330
2BE
100
AcDbEntity
  8
0
 62
   123
100
AcDbTrace
 10
-9971.143262166419
 20
-3243.677622669666
 30
0.0
 11
-9970.309928833088
 21
-3243.677622669666
 31
0.0
 12
-9970.726595499753
 22
-3241.177622669666
 32
0.0
 13
-9970.726595499753
 23
-3241.177622669666
 33
0.0
  0
SOLID
  5
2C5
330
2BE
100
AcDbEntity
  8
0
 62
   123
100
AcDbTrace
 10
-9971.143262166419
 20
-3228.677622669666
 30
0.0
 11
-9970.309928833088
 21
-3228.677622669666
 31
0.0
 12
-9970.726595499753
 22
-3231.177622669666
 32
0.0
 13
-9970.726595499753
 23
-3231.177622669666
 33
0.0
  0
MTEXT
  5
2C6
330
2BE
100
AcDbEntity
  8
0
 62
     3
100
AcDbMText
 10
-9974.676745499754
 20
-3203.066688743923
 30
0.0
 40
3.0
 41
0.0
 71
     5
 72
     1
  1
\A1;\A1;{\f??|b0|i0|c0|p49;%%C10\H0.7x;\S+0^ -0.015;\H1.429x;(h7)}
 11
0.0000000000000001
 21
1.0
 31
0.0
1001
ACAD
1000
MTEXTBEGIN
1070
    73
1070
     1
1070
    44
1040
1.0
1070
    74
1070
     0
1000
MTEXTEND
1000
MTEXTBEGIN
1070
    73
1070
     1
1070
    44
1040
1.0
1070
    74
1070
     0
1000
MTEXTEND
1000
MTEXTBEGIN
1070
    73
1070
     1
1070
    44
1040
1.0
1070
    74
1070
     0
1000
MTEXTEND
  0
POINT
  5
2C7
330
2BE
100
AcDbEntity
  8
DEFPOINTS
 62
     0
100
AcDbPoint
 10
-9955.901932210778
 20
-3241.177622669666
 30
0.0
  0
POINT
  5
2C8
330
2BE
100
AcDbEntity
  8
DEFPOINTS
 62
     0
100
AcDbPoint
 10
-9955.901932210778
 20
-3231.177622669666
 30
0.0
  0
POINT
  5
2C9
330
2BE
100
AcDbEntity
  8
DEFPOINTS
 62
     0
100
AcDbPoint
 10
-9970.726595499753
 20
-3231.177622669666
 30
0.0
  0
ENDBLK
  5
2CB
330
2BE
100
AcDbEntity
  8
0
100
AcDbBlockEnd
  0
BLOCK
  5
2D9
330
2CF
100
AcDbEntity
  8
0
100
AcDbBlockBegin
  2
*D16
 70
     1
 10
0.0
 20
0.0
 30
0.0
  3
*D16
  1

  0
LINE
  5
2D0
330
2CF
100
AcDbEntity
  8
0
 62
   123
100
AcDbLine
 10
-9960.800071012005
 20
-3236.177622669667
 30
0.0
 11
-9980.348478882277
 21
-3236.177622669667
 31
0.0
  0
LINE
  5
2D1
330
2CF
100
AcDbEntity
  8
0
 62
   123
100
AcDbLine
 10
-9968.50960534488
 20
-3251.177622669667
 30
0.0
 11
-9980.348478882277
 21
-3251.177622669667
 31
0.0
  0
LINE
  5
2D2
330
2CF
100
AcDbEntity
  8
0
 62
   123
100
AcDbLine
 10
-9979.748478882271
 20
-3238.677622669666
 30
0.0
 11
-9979.748478882271
 21
-3248.677622669667
 31
0.0
  0
SOLID
  5
2D3
330
2CF
100
AcDbEntity
  8
0
 62
   123
100
AcDbTrace
 10
-9980.165145548941
 20
-3238.677622669666
 30
0.0
 11
-9979.331812215605
 21
-3238.677622669666
 31
0.0
 12
-9979.748478882271
 22
-3236.177622669667
 32
0.0
 13
-9979.748478882271
 23
-3236.177622669667
 33
0.0
  0
SOLID
  5
2D4
330
2CF
100
AcDbEntity
  8
0
 62
   123
100
AcDbTrace
 10
-9980.165145548941
 20
-3248.677622669667
 30
0.0
 11
-9979.331812215605
 21
-3248.677622669667
 31
0.0
 12
-9979.748478882271
 22
-3251.177622669667
 32
0.0
 13
-9979.748478882271
 23
-3251.177622669667
 33
0.0
  0
MTEXT
  5
2D5
330
2CF
100
AcDbEntity
  8
0
 62
     3
100
AcDbMText
 10
-9982.248478882276
 20
-3243.677622669669
 30
0.0
 40
3.0
 41
0.0
 71
     5
 72
     1
  1
\A1;15
 11
0.0000000000000001
 21
1.0
 31
0.0
1001
ACAD
1000
MTEXTBEGIN
1070
    73
1070
     1
1070
    44
1040
1.0
1070
    74
1070
     0
1000
MTEXTEND
1000
MTEXTBEGIN
1070
    73
1070
     1
1070
    44
1040
1.0
1070
    74
1070
     0
1000
MTEXTEND
1000
MTEXTBEGIN
1070
    73
1070
     1
1070
    44
1040
1.0
1070
    74
1070
     0
1000
MTEXTEND
  0
POINT
  5
2D6
330
2CF
100
AcDbEntity
  8
DEFPOINTS
 62
     0
100
AcDbPoint
 10
-9959.800071012004
 20
-3236.177622669667
 30
0.0
  0
POINT
  5
2D7
330
2CF
100
AcDbEntity
  8
DEFPOINTS
 62
     0
100
AcDbPoint
 10
-9967.509605344879
 20
-3251.177622669667
 30
0.0
  0
POINT
  5
2D8
330
2CF
100
AcDbEntity
  8
DEFPOINTS
 62
     0
100
AcDbPoint
 10
-9979.748478882271
 20
-3251.177622669667
 30
0.0
  0
ENDBLK
  5
2DA
330
2CF
100
AcDbEntity
  8
0
100
AcDbBlockEnd
  0
BLOCK
  5
340
330
336
100
AcDbEntity
  8
0
100
AcDbBlockBegin
  2
*D17
 70
     1
 10
0.0
 20
0.0
 30
0.0
  3
*D17
  1

  0
LINE
  5
337
330
336
100
AcDbEntity
  8
0
 62
   123
100
AcDbLine
 10
-9949.16324559592
 20
-3063.248277786309
 30
0.0
 11
-9949.16324559592
 21
-3043.791786166369
 31
0.0
  0
LINE
  5
338
330
336
100
AcDbEntity
  8
0
 62
   123
100
AcDbLine
 10
-9917.163245595922
 20
-3063.248277786309
 30
0.0
 11
-9917.163245595922
 21
-3043.791786166369
 31
0.0
  0
LINE
  5
339
330
336
100
AcDbEntity
  8
0
 62
   123
100
AcDbLine
 10
-9946.663245595921
 20
-3044.391786166369
 30
0.0
 11
-9919.66324559592
 21
-3044.391786166369
 31
0.0
  0
SOLID
  5
33A
330
336
100
AcDbEntity
  8
0
 62
   123
100
AcDbTrace
 10
-9946.663245595921
 20
-3043.975119499703
 30
0.0
 11
-9946.663245595921
 21
-3044.808452833036
 31
0.0
 12
-9949.16324559592
 22
-3044.391786166369
 32
0.0
 13
-9949.16324559592
 23
-3044.391786166369
 33
0.0
  0
SOLID
  5
33B
330
336
100
AcDbEntity
  8
0
 62
   123
100
AcDbTrace
 10
-9919.66324559592
 20
-3043.975119499703
 30
0.0
 11
-9919.66324559592
 21
-3044.808452833036
 31
0.0
 12
-9917.163245595922
 22
-3044.391786166369
 32
0.0
 13
-9917.163245595922
 23
-3044.391786166369
 33
0.0
  0
MTEXT
  5
33C
330
336
100
AcDbEntity
  8
0
 62
     3
100
AcDbMText
 10
-9933.16324559592
 20
-3041.891786166369
 30
0.0
 40
3.0
 41
0.0
 71
     5
 72
     1
  1
\A1;32
1001
ACAD
1000
MTEXTBEGIN
1070
    73
1070
     1
1070
    44
1040
1.0
1070
    74
1070
     0
1000
MTEXTEND
1000
MTEXTBEGIN
1070
    73
1070
     1
1070
    44
1040
1.0
1070
    74
1070
     0
1000
MTEXTEND
1000
MTEXTBEGIN
1070
    73
1070
     1
1070
    44
1040
1.0
1070
    74
1070
     0
1000
MTEXTEND
  0
POINT
  5
33D
330
336
100
AcDbEntity
  8
DEFPOINTS
 62
     0
100
AcDbPoint
 10
-9949.16324559592
 20
-3064.24827778631
 30
0.0
  0
POINT
  5
33E
330
336
100
AcDbEntity
  8
DEFPOINTS
 62
     0
100
AcDbPoint
 10
-9917.163245595922
 20
-3064.24827778631
 30
0.0
  0
POINT
  5
33F
330
336
100
AcDbEntity
  8
DEFPOINTS
 62
     0
100
AcDbPoint
 10
-9917.163245595922
 20
-3044.391786166369
 30
0.0
  0
ENDBLK
  5
341
330
336
100
AcDbEntity
  8
0
100
AcDbBlockEnd
  0
BLOCK
  5
327
330
31D
100
AcDbEntity
  8
0
100
AcDbBlockBegin
  2
*D18
 70
     1
 10
0.0
 20
0.0
 30
0.0
  3
*D18
  1

  0
LINE
  5
31E
330
31D
100
AcDbEntity
  8
0
 62
   123
100
AcDbLine
 10
-10090.35619406728
 20
-3068.24827778631
 30
0.0
 11
-10090.35619406728
 21
-3049.173711136571
 31
0.0
  0
LINE
  5
31F
330
31D
100
AcDbEntity
  8
0
 62
   123
100
AcDbLine
 10
-10010.35619406728
 20
-3068.24827778631
 30
0.0
 11
-10010.35619406728
 21
-3049.173711136571
 31
0.0
  0
LINE
  5
320
330
31D
100
AcDbEntity
  8
0
 62
   123
100
AcDbLine
 10
-10087.85619406728
 20
-3049.773711136571
 30
0.0
 11
-10012.85619406728
 21
-3049.773711136571
 31
0.0
  0
SOLID
  5
321
330
31D
100
AcDbEntity
  8
0
 62
   123
100
AcDbTrace
 10
-10087.85619406728
 20
-3049.357044469904
 30
0.0
 11
-10087.85619406728
 21
-3050.190377803237
 31
0.0
 12
-10090.35619406728
 22
-3049.773711136571
 32
0.0
 13
-10090.35619406728
 23
-3049.773711136571
 33
0.0
  0
SOLID
  5
322
330
31D
100
AcDbEntity
  8
0
 62
   123
100
AcDbTrace
 10
-10012.85619406728
 20
-3049.357044469904
 30
0.0
 11
-10012.85619406728
 21
-3050.190377803237
 31
0.0
 12
-10010.35619406728
 22
-3049.773711136571
 32
0.0
 13
-10010.35619406728
 23
-3049.773711136571
 33
0.0
  0
MTEXT
  5
323
330
31D
100
AcDbEntity
  8
0
 62
     3
100
AcDbMText
 10
-10048.74747268263
 20
-3047.273711136571
 30
0.0
 40
3.0
 41
0.0
 71
     5
 72
     1
  1
\A1;80
1001
ACAD
1000
MTEXTBEGIN
1070
    73
1070
     1
1070
    44
1040
1.0
1070
    74
1070
     0
1000
MTEXTEND
1000
MTEXTBEGIN
1070
    73
1070
     1
1070
    44
1040
1.0
1070
    74
1070
     0
1000
MTEXTEND
1000
MTEXTBEGIN
1070
    73
1070
     1
1070
    44
1040
1.0
1070
    74
1070
     0
1000
MTEXTEND
  0
POINT
  5
324
330
31D
100
AcDbEntity
  8
DEFPOINTS
 62
     0
100
AcDbPoint
 10
-10090.35619406728
 20
-3069.248277786309
 30
0.0
  0
POINT
  5
325
330
31D
100
AcDbEntity
  8
DEFPOINTS
 62
     0
100
AcDbPoint
 10
-10010.35619406728
 20
-3069.248277786309
 30
0.0
  0
POINT
  5
326
330
31D
100
AcDbEntity
  8
DEFPOINTS
 62
     0
100
AcDbPoint
 10
-10010.35619406728
 20
-3049.773711136571
 30
0.0
  0
ENDBLK
  5
328
330
31D
100
AcDbEntity
  8
0
100
AcDbBlockEnd
  0
BLOCK
  5
386
330
37C
100
AcDbEntity
  8
0
100
AcDbBlockBegin
  2
*D19
 70
     1
 10
0.0
 20
0.0
 30
0.0
  3
*D19
  1

  0
LINE
  5
37D
330
37C
100
AcDbEntity
  8
0
 62
   123
100
AcDbLine
 10
-9952.163245595921
 20
-3140.74827778631
 30
0.0
 11
-9975.264342987301
 21
-3140.74827778631
 31
0.0
  0
LINE
  5
37E
330
37C
100
AcDbEntity
  8
0
 62
   123
100
AcDbLine
 10
-9952.163245595921
 20
-3067.74827778631
 30
0.0
 11
-9975.264342987301
 21
-3067.74827778631
 31
0.0
  0
LINE
  5
37F
330
37C
100
AcDbEntity
  8
0
 62
   123
100
AcDbLine
 10
-9974.664342987296
 20
-3138.24827778631
 30
0.0
 11
-9974.664342987296
 21
-3070.24827778631
 31
0.0
  0
SOLID
  5
380
330
37C
100
AcDbEntity
  8
0
 62
   123
100
AcDbTrace
 10
-9975.081009653962
 20
-3138.24827778631
 30
0.0
 11
-9974.247676320633
 21
-3138.24827778631
 31
0.0
 12
-9974.664342987296
 22
-3140.74827778631
 32
0.0
 13
-9974.664342987296
 23
-3140.74827778631
 33
0.0
  0
SOLID
  5
381
330
37C
100
AcDbEntity
  8
0
 62
   123
100
AcDbTrace
 10
-9975.081009653962
 20
-3070.24827778631
 30
0.0
 11
-9974.247676320633
 21
-3070.24827778631
 31
0.0
 12
-9974.664342987296
 22
-3067.74827778631
 32
0.0
 13
-9974.664342987296
 23
-3067.74827778631
 33
0.0
  0
MTEXT
  5
382
330
37C
100
AcDbEntity
  8
0
 62
     3
100
AcDbMText
 10
-9978.614492987297
 20
-3104.24827778631
 30
0.0
 40
3.0
 41
0.0
 71
     5
 72
     1
  1
\A1;\A1;{\f??|b0|i0|c0|p49;%%C}73{\f??|b0|i0|c0|p49;\H0.7x;\S+0^ -0.030;\H1.429x;(h7)}
 11
0.0000000000000001
 21
1.0
 31
0.0
1001
ACAD
1000
MTEXTBEGIN
1070
    73
1070
     1
1070
    44
1040
1.0
1070
    74
1070
     0
1000
MTEXTEND
1000
MTEXTBEGIN
1070
    73
1070
     1
1070
    44
1040
1.0
1070
    74
1070
     0
1000
MTEXTEND
1000
MTEXTBEGIN
1070
    73
1070
     1
1070
    44
1040
1.0
1070
    74
1070
     0
1000
MTEXTEND
  0
POINT
  5
383
330
37C
100
AcDbEntity
  8
DEFPOINTS
 62
     0
100
AcDbPoint
 10
-9951.163245595921
 20
-3140.74827778631
 30
0.0
  0
POINT
  5
384
330
37C
100
AcDbEntity
  8
DEFPOINTS
 62
     0
100
AcDbPoint
 10
-9951.163245595921
 20
-3067.74827778631
 30
0.0
  0
POINT
  5
385
330
37C
100
AcDbEntity
  8
DEFPOINTS
 62
     0
100
AcDbPoint
 10
-9974.664342987296
 20
-3067.74827778631
 30
0.0
  0
ENDBLK
  5
387
330
37C
100
AcDbEntity
  8
0
100
AcDbBlockEnd
  0
BLOCK
  5
220
330
216
100
AcDbEntity
  8
0
100
AcDbBlockBegin
  2
*D20
 70
     1
 10
0.0
 20
0.0
 30
0.0
  3
*D20
  1

  0
LINE
  5
217
330
216
100
AcDbEntity
  8
0
 62
   123
100
AcDbLine
 10
-9949.193351946234
 20
-3437.635902589347
 30
0.0
 11
-9949.193351946234
 21
-3413.65583593128
 31
0.0
  0
LINE
  5
218
330
216
100
AcDbEntity
  8
0
 62
   123
100
AcDbLine
 10
-9819.193351946232
 20
-3439.665902589347
 30
0.0
 11
-9819.193351946232
 21
-3413.65583593128
 31
0.0
  0
LINE
  5
219
330
216
100
AcDbEntity
  8
0
 62
   123
100
AcDbLine
 10
-9946.693351946231
 20
-3414.25583593128
 30
0.0
 11
-9821.693351946231
 21
-3414.25583593128
 31
0.0
  0
SOLID
  5
21A
330
216
100
AcDbEntity
  8
0
 62
   123
100
AcDbTrace
 10
-9946.693351946231
 20
-3413.839169264614
 30
0.0
 11
-9946.693351946231
 21
-3414.672502597947
 31
0.0
 12
-9949.193351946234
 22
-3414.25583593128
 32
0.0
 13
-9949.193351946234
 23
-3414.25583593128
 33
0.0
  0
SOLID
  5
21B
330
216
100
AcDbEntity
  8
0
 62
   123
100
AcDbTrace
 10
-9821.693351946231
 20
-3413.839169264614
 30
0.0
 11
-9821.693351946231
 21
-3414.672502597947
 31
0.0
 12
-9819.193351946232
 22
-3414.25583593128
 32
0.0
 13
-9819.193351946232
 23
-3414.25583593128
 33
0.0
  0
MTEXT
  5
21C
330
216
100
AcDbEntity
  8
0
 62
     3
100
AcDbMText
 10
-9884.193351946231
 20
-3411.755835931279
 30
0.0
 40
3.0
 41
0.0
 71
     5
 72
     1
  1
\A1;130
1001
ACAD
1000
MTEXTBEGIN
1070
    73
1070
     1
1070
    44
1040
1.0
1070
    74
1070
     0
1000
MTEXTEND
1000
MTEXTBEGIN
1070
    73
1070
     1
1070
    44
1040
1.0
1070
    74
1070
     0
1000
MTEXTEND
1000
MTEXTBEGIN
1070
    73
1070
     1
1070
    44
1040
1.0
1070
    74
1070
     0
1000
MTEXTEND
  0
POINT
  5
21D
330
216
100
AcDbEntity
  8
DEFPOINTS
 62
     0
100
AcDbPoint
 10
-9949.193351946234
 20
-3438.635902589345
 30
0.0
  0
POINT
  5
21E
330
216
100
AcDbEntity
  8
DEFPOINTS
 62
     0
100
AcDbPoint
 10
-9819.193351946232
 20
-3440.665902589345
 30
0.0
  0
POINT
  5
21F
330
216
100
AcDbEntity
  8
DEFPOINTS
 62
     0
100
AcDbPoint
 10
-9819.193351946232
 20
-3414.25583593128
 30
0.0
  0
ENDBLK
  5
221
330
216
100
AcDbEntity
  8
0
100
AcDbBlockEnd
  0
BLOCK
  5
1A1
330
197
100
AcDbEntity
  8
0
100
AcDbBlockBegin
  2
*D21
 70
     1
 10
0.0
 20
0.0
 30
0.0
  3
*D21
  1

  0
LINE
  5
198
330
197
100
AcDbEntity
  8
0
 62
   123
100
AcDbLine
 10
-9989.193351946234
 20
-3438.135902589347
 30
0.0
 11
-9989.193351946234
 21
-3413.65583593128
 31
0.0
  0
LINE
  5
199
330
197
100
AcDbEntity
  8
0
 62
   123
100
AcDbLine
 10
-9949.193351946234
 20
-3437.635902589347
 30
0.0
 11
-9949.193351946234
 21
-3413.65583593128
 31
0.0
  0
LINE
  5
19A
330
197
100
AcDbEntity
  8
0
 62
   123
100
AcDbLine
 10
-9986.693351946236
 20
-3414.25583593128
 30
0.0
 11
-9951.693351946232
 21
-3414.25583593128
 31
0.0
  0
SOLID
  5
19B
330
197
100
AcDbEntity
  8
0
 62
   123
100
AcDbTrace
 10
-9986.693351946236
 20
-3413.839169264614
 30
0.0
 11
-9986.693351946236
 21
-3414.672502597947
 31
0.0
 12
-9989.193351946234
 22
-3414.25583593128
 32
0.0
 13
-9989.193351946234
 23
-3414.25583593128
 33
0.0
  0
SOLID
  5
19C
330
197
100
AcDbEntity
  8
0
 62
   123
100
AcDbTrace
 10
-9951.693351946232
 20
-3413.839169264614
 30
0.0
 11
-9951.693351946232
 21
-3414.672502597947
 31
0.0
 12
-9949.193351946234
 22
-3414.25583593128
 32
0.0
 13
-9949.193351946234
 23
-3414.25583593128
 33
0.0
  0
MTEXT
  5
19D
330
197
100
AcDbEntity
  8
0
 62
     3
100
AcDbMText
 10
-9969.193351946231
 20
-3411.755835931279
 30
0.0
 40
3.0
 41
0.0
 71
     5
 72
     1
  1
\A1;{\f??|b0|i0|c0|p49;L}
1001
ACAD
1000
MTEXTBEGIN
1070
    73
1070
     1
1070
    44
1040
1.0
1070
    74
1070
     0
1000
MTEXTEND
1000
MTEXTBEGIN
1070
    73
1070
     1
1070
    44
1040
1.0
1070
    74
1070
     0
1000
MTEXTEND
1000
MTEXTBEGIN
1070
    73
1070
     1
1070
    44
1040
1.0
1070
    74
1070
     0
1000
MTEXTEND
  0
POINT
  5
19E
330
197
100
AcDbEntity
  8
DEFPOINTS
 62
     0
100
AcDbPoint
 10
-9989.193351946234
 20
-3439.135902589347
 30
0.0
  0
POINT
  5
19F
330
197
100
AcDbEntity
  8
DEFPOINTS
 62
     0
100
AcDbPoint
 10
-9949.193351946234
 20
-3438.635902589345
 30
0.0
  0
POINT
  5
1A0
330
197
100
AcDbEntity
  8
DEFPOINTS
 62
     0
100
AcDbPoint
 10
-9949.193351946234
 20
-3414.25583593128
 30
0.0
  0
ENDBLK
  5
1A2
330
197
100
AcDbEntity
  8
0
100
AcDbBlockEnd
  0
BLOCK
  5
193
330
187
100
AcDbEntity
  8
0
100
AcDbBlockBegin
  2
*D22
 70
     1
 10
0.0
 20
0.0
 30
0.0
  3
*D22
  1

  0
LINE
  5
188
330
187
100
AcDbEntity
  8
0
 62
   123
100
AcDbLine
 10
-9989.193351946234
 20
-3438.135902589347
 30
0.0
 11
-9989.193351946234
 21
-3425.67977420723
 31
0.0
  0
LINE
  5
189
330
187
100
AcDbEntity
  8
0
 62
   123
100
AcDbLine
 10
-9992.193351946234
 20
-3446.135902589347
 30
0.0
 11
-9992.193351946234
 21
-3425.67977420723
 31
0.0
  0
LINE
  5
18A
330
187
100
AcDbEntity
  8
0
 62
   123
100
AcDbLine
 10
-9986.693351946236
 20
-3426.27977420723
 30
0.0
 11
-9984.193351946231
 21
-3426.27977420723
 31
0.0
  0
LINE
  5
18B
330
187
100
AcDbEntity
  8
0
 62
   123
100
AcDbLine
 10
-9994.693351946231
 20
-3426.27977420723
 30
0.0
 11
-10005.17251861289
 21
-3426.27977420723
 31
0.0
  0
LINE
  5
18C
330
187
100
AcDbEntity
  8
0
 62
   123
100
AcDbLine
 10
-9989.193351946234
 20
-3426.27977420723
 30
0.0
 11
-9992.193351946234
 21
-3426.27977420723
 31
0.0
  0
SOLID
  5
18D
330
187
100
AcDbEntity
  8
0
 62
   123
100
AcDbTrace
 10
-9986.693351946236
 20
-3425.863107540564
 30
0.0
 11
-9986.693351946236
 21
-3426.696440873897
 31
0.0
 12
-9989.193351946234
 22
-3426.27977420723
 32
0.0
 13
-9989.193351946234
 23
-3426.27977420723
 33
0.0
  0
SOLID
  5
18E
330
187
100
AcDbEntity
  8
0
 62
   123
100
AcDbTrace
 10
-9994.693351946231
 20
-3425.863107540564
 30
0.0
 11
-9994.693351946231
 21
-3426.696440873897
 31
0.0
 12
-9992.193351946234
 22
-3426.27977420723
 32
0.0
 13
-9992.193351946234
 23
-3426.27977420723
 33
0.0
  0
MTEXT
  5
18F
330
187
100
AcDbEntity
  8
0
 62
     3
100
AcDbMText
 10
-10003.17251861289
 20
-3423.779774207231
 30
0.0
 40
3.0
 41
0.0
 71
     5
 72
     1
  1
\A1;3
1001
ACAD
1000
MTEXTBEGIN
1070
    73
1070
     1
1070
    44
1040
1.0
1070
    74
1070
     0
1000
MTEXTEND
1000
MTEXTBEGIN
1070
    73
1070
     1
1070
    44
1040
1.0
1070
    74
1070
     0
1000
MTEXTEND
1000
MTEXTBEGIN
1070
    73
1070
     1
1070
    44
1040
1.0
1070
    74
1070
     0
1000
MTEXTEND
  0
POINT
  5
190
330
187
100
AcDbEntity
  8
DEFPOINTS
 62
     0
100
AcDbPoint
 10
-9989.193351946234
 20
-3439.135902589347
 30
0.0
  0
POINT
  5
191
330
187
100
AcDbEntity
  8
DEFPOINTS
 62
     0
100
AcDbPoint
 10
-9992.193351946234
 20
-3447.135902589347
 30
0.0
  0
POINT
  5
192
330
187
100
AcDbEntity
  8
DEFPOINTS
 62
     0
100
AcDbPoint
 10
-9992.193351946234
 20
-3426.27977420723
 30
0.0
  0
ENDBLK
  5
194
330
187
100
AcDbEntity
  8
0
100
AcDbBlockEnd
  0
BLOCK
  5
1AE
330
1A4
100
AcDbEntity
  8
0
100
AcDbBlockBegin
  2
*D23
 70
     1
 10
0.0
 20
0.0
 30
0.0
  3
*D23
  1

  0
LINE
  5
1A5
330
1A4
100
AcDbEntity
  8
0
 62
   123
100
AcDbLine
 10
-9992.693351946231
 20
-3446.635902589347
 30
0.0
 11
-10052.31156692646
 21
-3446.635902589347
 31
0.0
  0
LINE
  5
1A6
330
1A4
100
AcDbEntity
  8
0
 62
   123
100
AcDbLine
 10
-9992.693351946231
 20
-3480.635902589347
 30
0.0
 11
-10052.31156692646
 21
-3480.635902589347
 31
0.0
  0
LINE
  5
1A7
330
1A4
100
AcDbEntity
  8
0
 62
   123
100
AcDbLine
 10
-10051.71156692646
 20
-3449.135902589347
 30
0.0
 11
-10051.71156692646
 21
-3478.135902589347
 31
0.0
  0
SOLID
  5
1A8
330
1A4
100
AcDbEntity
  8
0
 62
   123
100
AcDbTrace
 10
-10052.12823359312
 20
-3449.135902589347
 30
0.0
 11
-10051.29490025979
 21
-3449.135902589347
 31
0.0
 12
-10051.71156692646
 22
-3446.635902589347
 32
0.0
 13
-10051.71156692646
 23
-3446.635902589347
 33
0.0
  0
SOLID
  5
1A9
330
1A4
100
AcDbEntity
  8
0
 62
   123
100
AcDbTrace
 10
-10052.12823359312
 20
-3478.135902589347
 30
0.0
 11
-10051.29490025979
 21
-3478.135902589347
 31
0.0
 12
-10051.71156692646
 22
-3480.635902589347
 32
0.0
 13
-10051.71156692646
 23
-3480.635902589347
 33
0.0
  0
MTEXT
  5
1AA
330
1A4
100
AcDbEntity
  8
0
 62
     3
100
AcDbMText
 10
-10054.21156692646
 20
-3463.635902589347
 30
0.0
 40
3.0
 41
0.0
 71
     5
 72
     1
  1
\A1;{\f??|b0|i0|c0|p49;%%c}34
 11
0.0000000000000001
 21
1.0
 31
0.0
1001
ACAD
1000
MTEXTBEGIN
1070
    73
1070
     1
1070
    44
1040
1.0
1070
    74
1070
     0
1000
MTEXTEND
1000
MTEXTBEGIN
1070
    73
1070
     1
1070
    44
1040
1.0
1070
    74
1070
     0
1000
MTEXTEND
1000
MTEXTBEGIN
1070
    73
1070
     1
1070
    44
1040
1.0
1070
    74
1070
     0
1000
MTEXTEND
  0
POINT
  5
1AB
330
1A4
100
AcDbEntity
  8
DEFPOINTS
 62
     0
100
AcDbPoint
 10
-9991.693351946231
 20
-3446.635902589347
 30
0.0
  0
POINT
  5
1AC
330
1A4
100
AcDbEntity
  8
DEFPOINTS
 62
     0
100
AcDbPoint
 10
-9991.693351946231
 20
-3480.635902589347
 30
0.0
  0
POINT
  5
1AD
330
1A4
100
AcDbEntity
  8
DEFPOINTS
 62
     0
100
AcDbPoint
 10
-10051.71156692646
 20
-3480.635902589347
 30
0.0
  0
ENDBLK
  5
1AF
330
1A4
100
AcDbEntity
  8
0
100
AcDbBlockEnd
  0
BLOCK
  5
B8
330
AB
100
AcDbEntity
  8
0
100
AcDbBlockBegin
  2
*D24
 70
     1
 10
0.0
 20
0.0
 30
0.0
  3
*D24
  1

  0
LINE
  5
AC
330
AB
100
AcDbEntity
  8
0
 62
   123
100
AcDbLine
 10
-10110.5401696154
 20
-3526.808025797743
 30
0.0
 11
-10110.5401696154
 21
-3539.937487153828
 31
0.0
  0
LINE
  5
AD
330
AB
100
AcDbEntity
  8
0
 62
   123
100
AcDbLine
 10
-10093.5889436881
 20
-3519.559782121858
 30
0.0
 11
-10087.08106882485
 21
-3535.271181878982
 31
0.0
  0
ARC
  5
AE
330
AB
100
AcDbEntity
  8
0
 62
   123
100
AcDbCircle
 10
-10110.5401696154
 20
-3478.635902589344
 30
0.0
 40
60.70158456448371
100
AcDbArc
 50
272.3598984319504
 51
290.1401015680446
  0
SOLID
  5
AF
330
AB
100
AcDbEntity
  8
0
 62
   123
100
AcDbTrace
 10
-10108.03211951132
 20
-3539.702584108888
 30
0.0
 11
-10108.04927996395
 21
-3538.86942748297
 31
0.0
 12
-10110.5401696154
 22
-3539.337487153828
 32
0.0
 13
-10110.5401696154
 23
-3539.337487153828
 33
0.0
  0
SOLID
  5
B0
330
AB
100
AcDbEntity
  8
0
 62
   123
100
AcDbTrace
 10
-10089.79107953237
 20
-3535.237645611029
 30
0.0
 11
-10089.48809848602
 21
-3536.013948986005
 31
0.0
 12
-10087.31067888427
 22
-3534.716854159475
 32
0.0
 13
-10087.31067888427
 23
-3534.716854159475
 33
0.0
  0
MTEXT
  5
B1
330
AB
100
AcDbEntity
  8
0
 62
     3
100
AcDbMText
 10
-10097.49487373607
 20
-3535.063451584212
 30
0.0
 40
3.0
 41
0.0
 71
     5
 72
     1
  1
\A1;22°30'
 11
0.9743020129588353
 21
0.2252456160380519
 31
0.0
1001
ACAD
1000
MTEXTBEGIN
1070
    73
1070
     1
1070
    44
1040
1.0
1070
    74
1070
     0
1000
MTEXTEND
1000
MTEXTBEGIN
1070
    73
1070
     1
1070
    44
1040
1.0
1070
    74
1070
     0
1000
MTEXTEND
1000
MTEXTBEGIN
1070
    73
1070
     1
1070
    44
1040
1.0
1070
    74
1070
     0
1000
MTEXTEND
  0
POINT
  5
B2
330
AB
100
AcDbEntity
  8
DEFPOINTS
 62
     0
100
AcDbPoint
 10
-10102.61702292048
 20
-3538.818176683049
 30
0.0
  0
POINT
  5
B4
330
AB
100
AcDbEntity
  8
DEFPOINTS
 62
     0
100
AcDbPoint
 10
-10110.5401696154
 20
-3525.808025797743
 30
0.0
  0
POINT
  5
B5
330
AB
100
AcDbEntity
  8
DEFPOINTS
 62
     0
100
AcDbPoint
 10
-10093.97162712047
 20
-3518.635902589347
 30
0.0
  0
POINT
  5
B6
330
AB
100
AcDbEntity
  8
DEFPOINTS
 62
     0
100
AcDbPoint
 10
-10110.5401696154
 20
-3478.635902589347
 30
0.0
  0
POINT
  5
B7
330
AB
100
AcDbEntity
  8
DEFPOINTS
 62
     0
100
AcDbPoint
 10
-10110.5401696154
 20
-3431.463779380949
 30
0.0
  0
ENDBLK
  5
B9
330
AB
100
AcDbEntity
  8
0
100
AcDbBlockEnd
  0
BLOCK
  5
12C
330
122
100
AcDbEntity
  8
0
100
AcDbBlockBegin
  2
*D25
 70
     1
 10
0.0
 20
0.0
 30
0.0
  3
*D25
  1

  0
LINE
  5
123
330
122
100
AcDbEntity
  8
0
 62
   123
100
AcDbLine
 10
-10150.5401696154
 20
-3442.635902589346
 30
0.0
 11
-10150.5401696154
 21
-3423.307812941529
 31
0.0
  0
LINE
  5
124
330
122
100
AcDbEntity
  8
0
 62
   123
100
AcDbLine
 10
-10070.5401696154
 20
-3442.635902589346
 30
0.0
 11
-10070.5401696154
 21
-3423.307812941529
 31
0.0
  0
LINE
  5
125
330
122
100
AcDbEntity
  8
0
 62
   123
100
AcDbLine
 10
-10148.04016961539
 20
-3423.907812941529
 30
0.0
 11
-10073.0401696154
 21
-3423.907812941529
 31
0.0
  0
SOLID
  5
126
330
122
100
AcDbEntity
  8
0
 62
   123
100
AcDbTrace
 10
-10148.04016961539
 20
-3423.491146274862
 30
0.0
 11
-10148.04016961539
 21
-3424.324479608196
 31
0.0
 12
-10150.5401696154
 22
-3423.907812941529
 32
0.0
 13
-10150.5401696154
 23
-3423.907812941529
 33
0.0
  0
SOLID
  5
127
330
122
100
AcDbEntity
  8
0
 62
   123
100
AcDbTrace
 10
-10073.0401696154
 20
-3423.491146274862
 30
0.0
 11
-10073.0401696154
 21
-3424.324479608196
 31
0.0
 12
-10070.5401696154
 22
-3423.907812941529
 32
0.0
 13
-10070.5401696154
 23
-3423.907812941529
 33
0.0
  0
MTEXT
  5
128
330
122
100
AcDbEntity
  8
0
 62
     3
100
AcDbMText
 10
-10108.47603922246
 20
-3421.407812941529
 30
0.0
 40
3.0
 41
0.0
 71
     5
 72
     1
  1
\A1;80
1001
ACAD
1000
MTEXTBEGIN
1070
    73
1070
     1
1070
    44
1040
1.0
1070
    74
1070
     0
1000
MTEXTEND
1000
MTEXTBEGIN
1070
    73
1070
     1
1070
    44
1040
1.0
1070
    74
1070
     0
1000
MTEXTEND
1000
MTEXTBEGIN
1070
    73
1070
     1
1070
    44
1040
1.0
1070
    74
1070
     0
1000
MTEXTEND
  0
POINT
  5
129
330
122
100
AcDbEntity
  8
DEFPOINTS
 62
     0
100
AcDbPoint
 10
-10150.5401696154
 20
-3443.635902589347
 30
0.0
  0
POINT
  5
12A
330
122
100
AcDbEntity
  8
DEFPOINTS
 62
     0
100
AcDbPoint
 10
-10070.5401696154
 20
-3443.635902589347
 30
0.0
  0
POINT
  5
12B
330
122
100
AcDbEntity
  8
DEFPOINTS
 62
     0
100
AcDbPoint
 10
-10070.5401696154
 20
-3423.907812941529
 30
0.0
  0
ENDBLK
  5
12D
330
122
100
AcDbEntity
  8
0
100
AcDbBlockEnd
  0
BLOCK
  5
EA
330
E0
100
AcDbEntity
  8
0
100
AcDbBlockBegin
  2
*D26
 70
     1
 10
0.0
 20
0.0
 30
0.0
  3
*D26
  1

  0
LINE
  5
E1
330
E0
100
AcDbEntity
  8
0
 62
   123
100
AcDbLine
 10
-9819.693012541321
 20
-3439.133994917112
 30
0.0
 11
-9785.506139558153
 21
-3439.133994917112
 31
0.0
  0
LINE
  5
E2
330
E0
100
AcDbEntity
  8
0
 62
   123
100
AcDbLine
 10
-9819.693012541321
 20
-3518.137810261583
 30
0.0
 11
-9785.506139558153
 21
-3518.137810261583
 31
0.0
  0
LINE
  5
E3
330
E0
100
AcDbEntity
  8
0
 62
   123
100
AcDbLine
 10
-9786.106139558151
 20
-3441.633994917111
 30
0.0
 11
-9786.106139558151
 21
-3515.637810261583
 31
0.0
  0
SOLID
  5
E4
330
E0
100
AcDbEntity
  8
0
 62
   123
100
AcDbTrace
 10
-9786.522806224821
 20
-3441.633994917111
 30
0.0
 11
-9785.689472891485
 21
-3441.633994917111
 31
0.0
 12
-9786.106139558151
 22
-3439.133994917112
 32
0.0
 13
-9786.106139558151
 23
-3439.133994917112
 33
0.0
  0
SOLID
  5
E5
330
E0
100
AcDbEntity
  8
0
 62
   123
100
AcDbTrace
 10
-9786.522806224821
 20
-3515.637810261583
 30
0.0
 11
-9785.689472891485
 21
-3515.637810261583
 31
0.0
 12
-9786.106139558151
 22
-3518.137810261583
 32
0.0
 13
-9786.106139558151
 23
-3518.137810261583
 33
0.0
  0
MTEXT
  5
E6
330
E0
100
AcDbEntity
  8
0
 62
     3
100
AcDbMText
 10
-9788.606139558151
 20
-3478.244117526157
 30
0.0
 40
3.0
 41
0.0
 71
     5
 72
     1
  1
\A1;%%C79
 11
0.0000000000000001
 21
1.0
 31
0.0
1001
ACAD
1000
MTEXTBEGIN
1070
    73
1070
     1
1070
    44
1040
1.0
1070
    74
1070
     0
1000
MTEXTEND
1000
MTEXTBEGIN
1070
    73
1070
     1
1070
    44
1040
1.0
1070
    74
1070
     0
1000
MTEXTEND
1000
MTEXTBEGIN
1070
    73
1070
     1
1070
    44
1040
1.0
1070
    74
1070
     0
1000
MTEXTEND
  0
POINT
  5
E7
330
E0
100
AcDbEntity
  8
DEFPOINTS
 62
     0
100
AcDbPoint
 10
-9820.693012541321
 20
-3439.133994917112
 30
0.0
  0
POINT
  5
E8
330
E0
100
AcDbEntity
  8
DEFPOINTS
 62
     0
100
AcDbPoint
 10
-9820.693012541321
 20
-3518.137810261583
 30
0.0
  0
POINT
  5
E9
330
E0
100
AcDbEntity
  8
DEFPOINTS
 62
     0
100
AcDbPoint
 10
-9786.106139558151
 20
-3518.137810261583
 30
0.0
  0
ENDBLK
  5
EB
330
E0
100
AcDbEntity
  8
0
100
AcDbBlockEnd
  0
BLOCK
  5
211
330
207
100
AcDbEntity
  8
0
100
AcDbBlockBegin
  2
*D27
 70
     1
 10
0.0
 20
0.0
 30
0.0
  3
*D27
  1

  0
LINE
  5
208
330
207
100
AcDbEntity
  8
0
 62
   123
100
AcDbLine
 10
-9949.193351946234
 20
-3433.427569256013
 30
0.0
 11
-9949.193351946234
 21
-3425.827569256015
 31
0.0
  0
LINE
  5
209
330
207
100
AcDbEntity
  8
0
 62
   123
100
AcDbLine
 10
-9942.193351946231
 20
-3439.037165247816
 30
0.0
 11
-9942.193351946231
 21
-3425.827569256015
 31
0.0
  0
LINE
  5
20A
330
207
100
AcDbEntity
  8
0
 62
   123
100
AcDbLine
 10
-9946.693351946231
 20
-3426.427569256015
 30
0.0
 11
-9944.693351946234
 21
-3426.427569256015
 31
0.0
  0
SOLID
  5
20B
330
207
100
AcDbEntity
  8
0
 62
   123
100
AcDbTrace
 10
-9946.693351946231
 20
-3426.010902589347
 30
0.0
 11
-9946.693351946231
 21
-3426.844235922681
 31
0.0
 12
-9949.193351946234
 22
-3426.427569256015
 32
0.0
 13
-9949.193351946234
 23
-3426.427569256015
 33
0.0
  0
SOLID
  5
20C
330
207
100
AcDbEntity
  8
0
 62
   123
100
AcDbTrace
 10
-9944.693351946234
 20
-3426.010902589347
 30
0.0
 11
-9944.693351946234
 21
-3426.844235922681
 31
0.0
 12
-9942.193351946231
 22
-3426.427569256015
 32
0.0
 13
-9942.193351946231
 23
-3426.427569256015
 33
0.0
  0
MTEXT
  5
20D
330
207
100
AcDbEntity
  8
0
 62
     3
100
AcDbMText
 10
-9945.443351946231
 20
-3423.927569256015
 30
0.0
 40
3.0
 41
0.0
 71
     5
 72
     1
  1
\A1;7
1001
ACAD
1000
MTEXTBEGIN
1070
    73
1070
     1
1070
    44
1040
1.0
1070
    74
1070
     0
1000
MTEXTEND
1000
MTEXTBEGIN
1070
    73
1070
     1
1070
    44
1040
1.0
1070
    74
1070
     0
1000
MTEXTEND
1000
MTEXTBEGIN
1070
    73
1070
     1
1070
    44
1040
1.0
1070
    74
1070
     0
1000
MTEXTEND
  0
POINT
  5
20E
330
207
100
AcDbEntity
  8
DEFPOINTS
 62
     0
100
AcDbPoint
 10
-9949.193351946234
 20
-3434.427569256015
 30
0.0
  0
POINT
  5
20F
330
207
100
AcDbEntity
  8
DEFPOINTS
 62
     0
100
AcDbPoint
 10
-9942.193351946231
 20
-3440.037165247819
 30
0.0
  0
POINT
  5
210
330
207
100
AcDbEntity
  8
DEFPOINTS
 62
     0
100
AcDbPoint
 10
-9942.193351946231
 20
-3426.427569256015
 30
0.0
  0
ENDBLK
  5
212
330
207
100
AcDbEntity
  8
0
100
AcDbBlockEnd
  0
BLOCK
  5
235
330
22B
100
AcDbEntity
  8
0
100
AcDbBlockBegin
  2
*D28
 70
     1
 10
0.0
 20
0.0
 30
0.0
  3
*D28
  1

  0
LINE
  5
22C
330
22B
100
AcDbEntity
  8
0
 62
   123
100
AcDbLine
 10
-9809.193351946234
 20
-3455.135902589347
 30
0.0
 11
-9796.581828157806
 21
-3455.135902589347
 31
0.0
  0
LINE
  5
22D
330
22B
100
AcDbEntity
  8
0
 62
   123
100
AcDbLine
 10
-9809.193351946234
 20
-3502.135902589347
 30
0.0
 11
-9796.581828157806
 21
-3502.135902589347
 31
0.0
  0
LINE
  5
22E
330
22B
100
AcDbEntity
  8
0
 62
   123
100
AcDbLine
 10
-9797.181828157807
 20
-3457.635902589347
 30
0.0
 11
-9797.181828157807
 21
-3499.635902589346
 31
0.0
  0
SOLID
  5
22F
330
22B
100
AcDbEntity
  8
0
 62
   123
100
AcDbTrace
 10
-9797.598494824471
 20
-3457.635902589347
 30
0.0
 11
-9796.765161491144
 21
-3457.635902589347
 31
0.0
 12
-9797.181828157807
 22
-3455.135902589347
 32
0.0
 13
-9797.181828157807
 23
-3455.135902589347
 33
0.0
  0
SOLID
  5
230
330
22B
100
AcDbEntity
  8
0
 62
   123
100
AcDbTrace
 10
-9797.598494824471
 20
-3499.635902589346
 30
0.0
 11
-9796.765161491144
 21
-3499.635902589346
 31
0.0
 12
-9797.181828157807
 22
-3502.135902589347
 32
0.0
 13
-9797.181828157807
 23
-3502.135902589347
 33
0.0
  0
MTEXT
  5
231
330
22B
100
AcDbEntity
  8
0
 62
     3
100
AcDbMText
 10
-9799.681828157808
 20
-3478.676009816265
 30
0.0
 40
3.0
 41
0.0
 71
     5
 72
     1
  1
\A1;%%c47
 11
0.0000000000000001
 21
1.0
 31
0.0
1001
ACAD
1000
MTEXTBEGIN
1070
    73
1070
     1
1070
    44
1040
1.0
1070
    74
1070
     0
1000
MTEXTEND
1000
MTEXTBEGIN
1070
    73
1070
     1
1070
    44
1040
1.0
1070
    74
1070
     0
1000
MTEXTEND
1000
MTEXTBEGIN
1070
    73
1070
     1
1070
    44
1040
1.0
1070
    74
1070
     0
1000
MTEXTEND
  0
POINT
  5
232
330
22B
100
AcDbEntity
  8
DEFPOINTS
 62
     0
100
AcDbPoint
 10
-9810.193351946232
 20
-3455.135902589347
 30
0.0
  0
POINT
  5
233
330
22B
100
AcDbEntity
  8
DEFPOINTS
 62
     0
100
AcDbPoint
 10
-9810.193351946232
 20
-3502.135902589347
 30
0.0
  0
POINT
  5
234
330
22B
100
AcDbEntity
  8
DEFPOINTS
 62
     0
100
AcDbPoint
 10
-9797.181828157807
 20
-3502.135902589347
 30
0.0
  0
ENDBLK
  5
236
330
22B
100
AcDbEntity
  8
0
100
AcDbBlockEnd
  0
BLOCK
  5
1DE
330
1D4
100
AcDbEntity
  8
0
100
AcDbBlockBegin
  2
*D29
 70
     1
 10
0.0
 20
0.0
 30
0.0
  3
*D29
  1

  0
LINE
  5
1D5
330
1D4
100
AcDbEntity
  8
0
 62
   123
100
AcDbLine
 10
-10021.19335194622
 20
-3457.635902589347
 30
0.0
 11
-10021.19335194622
 21
-3413.658353850217
 31
0.0
  0
LINE
  5
1D6
330
1D4
100
AcDbEntity
  8
0
 62
   123
100
AcDbLine
 10
-9989.193351946234
 20
-3438.135902589347
 30
0.0
 11
-9989.193351946234
 21
-3413.658353850217
 31
0.0
  0
LINE
  5
1D7
330
1D4
100
AcDbEntity
  8
0
 62
   123
100
AcDbLine
 10
-10018.69335194623
 20
-3414.258353850216
 30
0.0
 11
-9991.693351946231
 21
-3414.258353850216
 31
0.0
  0
SOLID
  5
1D8
330
1D4
100
AcDbEntity
  8
0
 62
   123
100
AcDbTrace
 10
-10018.69335194623
 20
-3413.841687183549
 30
0.0
 11
-10018.69335194623
 21
-3414.675020516883
 31
0.0
 12
-10021.19335194622
 22
-3414.258353850216
 32
0.0
 13
-10021.19335194622
 23
-3414.258353850216
 33
0.0
  0
SOLID
  5
1D9
330
1D4
100
AcDbEntity
  8
0
 62
   123
100
AcDbTrace
 10
-9991.693351946231
 20
-3413.841687183549
 30
0.0
 11
-9991.693351946231
 21
-3414.675020516883
 31
0.0
 12
-9989.193351946234
 22
-3414.258353850216
 32
0.0
 13
-9989.193351946234
 23
-3414.258353850216
 33
0.0
  0
MTEXT
  5
1DA
330
1D4
100
AcDbEntity
  8
0
 62
     3
100
AcDbMText
 10
-10004.87212001635
 20
-3411.758353850216
 30
0.0
 40
3.0
 41
0.0
 71
     5
 72
     1
  1
\A1;32
1001
ACAD
1000
MTEXTBEGIN
1070
    73
1070
     1
1070
    44
1040
1.0
1070
    74
1070
     0
1000
MTEXTEND
1000
MTEXTBEGIN
1070
    73
1070
     1
1070
    44
1040
1.0
1070
    74
1070
     0
1000
MTEXTEND
1000
MTEXTBEGIN
1070
    73
1070
     1
1070
    44
1040
1.0
1070
    74
1070
     0
1000
MTEXTEND
  0
POINT
  5
1DB
330
1D4
100
AcDbEntity
  8
DEFPOINTS
 62
     0
100
AcDbPoint
 10
-10021.19335194622
 20
-3458.635902589347
 30
0.0
  0
POINT
  5
1DC
330
1D4
100
AcDbEntity
  8
DEFPOINTS
 62
     0
100
AcDbPoint
 10
-9989.193351946234
 20
-3439.135902589347
 30
0.0
  0
POINT
  5
1DD
330
1D4
100
AcDbEntity
  8
DEFPOINTS
 62
     0
100
AcDbPoint
 10
-9989.193351946234
 20
-3414.258353850216
 30
0.0
  0
ENDBLK
  5
1DF
330
1D4
100
AcDbEntity
  8
0
100
AcDbBlockEnd
  0
BLOCK
  5
1CF
330
1C5
100
AcDbEntity
  8
0
100
AcDbBlockBegin
  2
*D30
 70
     1
 10
0.0
 20
0.0
 30
0.0
  3
*D30
  1

  0
LINE
  5
1C6
330
1C5
100
AcDbEntity
  8
0
 62
   123
100
AcDbLine
 10
-9996.193351946232
 20
-3457.635902589347
 30
0.0
 11
-9996.193351946232
 21
-3441.815614382444
 31
0.0
  0
LINE
  5
1C7
330
1C5
100
AcDbEntity
  8
0
 62
   123
100
AcDbLine
 10
-10021.19335194622
 20
-3457.635902589347
 30
0.0
 11
-10021.19335194622
 21
-3441.815614382444
 31
0.0
  0
LINE
  5
1C8
330
1C5
100
AcDbEntity
  8
0
 62
   123
100
AcDbLine
 10
-9998.693351946231
 20
-3442.415614382444
 30
0.0
 11
-10018.69335194623
 21
-3442.415614382444
 31
0.0
  0
SOLID
  5
1C9
330
1C5
100
AcDbEntity
  8
0
 62
   123
100
AcDbTrace
 10
-9998.693351946231
 20
-3441.998947715777
 30
0.0
 11
-9998.693351946231
 21
-3442.83228104911
 31
0.0
 12
-9996.193351946232
 22
-3442.415614382444
 32
0.0
 13
-9996.193351946232
 23
-3442.415614382444
 33
0.0
  0
SOLID
  5
1CA
330
1C5
100
AcDbEntity
  8
0
 62
   123
100
AcDbTrace
 10
-10018.69335194623
 20
-3441.998947715777
 30
0.0
 11
-10018.69335194623
 21
-3442.83228104911
 31
0.0
 12
-10021.19335194622
 22
-3442.415614382444
 32
0.0
 13
-10021.19335194622
 23
-3442.415614382444
 33
0.0
  0
MTEXT
  5
1CB
330
1C5
100
AcDbEntity
  8
0
 62
     3
100
AcDbMText
 10
-10008.38242127882
 20
-3439.915614382444
 30
0.0
 40
3.0
 41
0.0
 71
     5
 72
     1
  1
\A1;25
1001
ACAD
1000
MTEXTBEGIN
1070
    73
1070
     1
1070
    44
1040
1.0
1070
    74
1070
     0
1000
MTEXTEND
1000
MTEXTBEGIN
1070
    73
1070
     1
1070
    44
1040
1.0
1070
    74
1070
     0
1000
MTEXTEND
1000
MTEXTBEGIN
1070
    73
1070
     1
1070
    44
1040
1.0
1070
    74
1070
     0
1000
MTEXTEND
  0
POINT
  5
1CC
330
1C5
100
AcDbEntity
  8
DEFPOINTS
 62
     0
100
AcDbPoint
 10
-9996.193351946232
 20
-3458.635902589347
 30
0.0
  0
POINT
  5
1CD
330
1C5
100
AcDbEntity
  8
DEFPOINTS
 62
     0
100
AcDbPoint
 10
-10021.19335194622
 20
-3458.635902589347
 30
0.0
  0
POINT
  5
1CE
330
1C5
100
AcDbEntity
  8
DEFPOINTS
 62
     0
100
AcDbPoint
 10
-10021.19335194622
 20
-3442.415614382444
 30
0.0
  0
ENDBLK
  5
1D0
330
1C5
100
AcDbEntity
  8
0
100
AcDbBlockEnd
  0
BLOCK
  5
1BF
330
1B3
100
AcDbEntity
  8
0
100
AcDbBlockBegin
  2
*D31
 70
     1
 10
0.0
 20
0.0
 30
0.0
  3
*D31
  1

  0
LINE
  5
1B4
330
1B3
100
AcDbEntity
  8
0
 62
   123
100
AcDbLine
 10
-10022.19335194622
 20
-3468.635902589347
 30
0.0
 11
-10036.61801523521
 21
-3468.635902589347
 31
0.0
  0
LINE
  5
1B5
330
1B3
100
AcDbEntity
  8
0
 62
   123
100
AcDbLine
 10
-10022.19335194622
 20
-3458.635902589347
 30
0.0
 11
-10036.61801523521
 21
-3458.635902589347
 31
0.0
  0
LINE
  5
1B6
330
1B3
100
AcDbEntity
  8
0
 62
   123
100
AcDbLine
 10
-10036.01801523521
 20
-3471.135902589347
 30
0.0
 11
-10036.01801523521
 21
-3473.635902589347
 31
0.0
  0
LINE
  5
1B7
330
1B3
100
AcDbEntity
  8
0
 62
   123
100
AcDbLine
 10
-10036.01801523521
 20
-3456.135902589347
 30
0.0
 11
-10036.01801523521
 21
-3409.751158920382
 31
0.0
  0
LINE
  5
1B8
330
1B3
100
AcDbEntity
  8
0
 62
   123
100
AcDbLine
 10
-10036.01801523521
 20
-3468.635902589347
 30
0.0
 11
-10036.01801523521
 21
-3458.635902589347
 31
0.0
  0
SOLID
  5
1B9
330
1B3
100
AcDbEntity
  8
0
 62
   123
100
AcDbTrace
 10
-10036.43468190187
 20
-3471.135902589347
 30
0.0
 11
-10035.60134856854
 21
-3471.135902589347
 31
0.0
 12
-10036.01801523521
 22
-3468.635902589347
 32
0.0
 13
-10036.01801523521
 23
-3468.635902589347
 33
0.0
  0
SOLID
  5
1BA
330
1B3
100
AcDbEntity
  8
0
 62
   123
100
AcDbTrace
 10
-10036.43468190187
 20
-3456.135902589347
 30
0.0
 11
-10035.60134856854
 21
-3456.135902589347
 31
0.0
 12
-10036.01801523521
 22
-3458.635902589347
 32
0.0
 13
-10036.01801523521
 23
-3458.635902589347
 33
0.0
  0
MTEXT
  5
1BB
330
1B3
100
AcDbEntity
  8
0
 62
     3
100
AcDbMText
 10
-10039.96816523521
 20
-3424.566730348955
 30
0.0
 40
3.0
 41
0.0
 71
     5
 72
     1
  1
\A1;\A1;{\f??|b0|i0|c0|p49;%%C10\H0.7x;\S+0^ -0.015;\H1.429x;(h7)}
 11
0.0000000000000001
 21
1.0
 31
0.0
1001
ACAD
1000
MTEXTBEGIN
1070
    73
1070
     1
1070
    44
1040
1.0
1070
    74
1070
     0
1000
MTEXTEND
1000
MTEXTBEGIN
1070
    73
1070
     1
1070
    44
1040
1.0
1070
    74
1070
     0
1000
MTEXTEND
1000
MTEXTBEGIN
1070
    73
1070
     1
1070
    44
1040
1.0
1070
    74
1070
     0
1000
MTEXTEND
  0
POINT
  5
1BC
330
1B3
100
AcDbEntity
  8
DEFPOINTS
 62
     0
100
AcDbPoint
 10
-10021.19335194622
 20
-3468.635902589347
 30
0.0
  0
POINT
  5
1BD
330
1B3
100
AcDbEntity
  8
DEFPOINTS
 62
     0
100
AcDbPoint
 10
-10021.19335194622
 20
-3458.635902589347
 30
0.0
  0
POINT
  5
1BE
330
1B3
100
AcDbEntity
  8
DEFPOINTS
 62
     0
100
AcDbPoint
 10
-10036.01801523521
 20
-3458.635902589347
 30
0.0
  0
ENDBLK
  5
1C0
330
1B3
100
AcDbEntity
  8
0
100
AcDbBlockEnd
  0
BLOCK
  5
1F1
330
1E7
100
AcDbEntity
  8
0
100
AcDbBlockBegin
  2
*D32
 70
     1
 10
0.0
 20
0.0
 30
0.0
  3
*D32
  1

  0
LINE
  5
1E8
330
1E7
100
AcDbEntity
  8
0
 62
   123
100
AcDbLine
 10
-10026.09149074745
 20
-3463.635902589347
 30
0.0
 11
-10042.49122916809
 21
-3463.635902589347
 31
0.0
  0
LINE
  5
1E9
330
1E7
100
AcDbEntity
  8
0
 62
   123
100
AcDbLine
 10
-10025.62992334337
 20
-3478.635902589347
 30
0.0
 11
-10042.49122916809
 21
-3478.635902589347
 31
0.0
  0
LINE
  5
1EA
330
1E7
100
AcDbEntity
  8
0
 62
   123
100
AcDbLine
 10
-10041.89122916805
 20
-3466.135902589347
 30
0.0
 11
-10041.89122916805
 21
-3476.135902589347
 31
0.0
  0
SOLID
  5
1EB
330
1E7
100
AcDbEntity
  8
0
 62
   123
100
AcDbTrace
 10
-10042.30789583475
 20
-3466.135902589347
 30
0.0
 11
-10041.47456250142
 21
-3466.135902589347
 31
0.0
 12
-10041.89122916805
 22
-3463.635902589347
 32
0.0
 13
-10041.89122916805
 23
-3463.635902589347
 33
0.0
  0
SOLID
  5
1EC
330
1E7
100
AcDbEntity
  8
0
 62
   123
100
AcDbTrace
 10
-10042.30789583475
 20
-3476.135902589347
 30
0.0
 11
-10041.47456250142
 21
-3476.135902589347
 31
0.0
 12
-10041.89122916805
 22
-3478.635902589347
 32
0.0
 13
-10041.89122916805
 23
-3478.635902589347
 33
0.0
  0
MTEXT
  5
1ED
330
1E7
100
AcDbEntity
  8
0
 62
     3
100
AcDbMText
 10
-10044.39122916809
 20
-3471.135902589347
 30
0.0
 40
3.0
 41
0.0
 71
     5
 72
     1
  1
\A1;15
 11
0.0000000000000001
 21
1.0
 31
0.0
1001
ACAD
1000
MTEXTBEGIN
1070
    73
1070
     1
1070
    44
1040
1.0
1070
    74
1070
     0
1000
MTEXTEND
1000
MTEXTBEGIN
1070
    73
1070
     1
1070
    44
1040
1.0
1070
    74
1070
     0
1000
MTEXTEND
1000
MTEXTBEGIN
1070
    73
1070
     1
1070
    44
1040
1.0
1070
    74
1070
     0
1000
MTEXTEND
  0
POINT
  5
1EE
330
1E7
100
AcDbEntity
  8
DEFPOINTS
 62
     0
100
AcDbPoint
 10
-10025.09149074745
 20
-3463.635902589347
 30
0.0
  0
POINT
  5
1EF
330
1E7
100
AcDbEntity
  8
DEFPOINTS
 62
     0
100
AcDbPoint
 10
-10024.62992334337
 20
-3478.635902589347
 30
0.0
  0
POINT
  5
1F0
330
1E7
100
AcDbEntity
  8
DEFPOINTS
 62
     0
100
AcDbPoint
 10
-10041.89122916805
 20
-3478.635902589347
 30
0.0
  0
ENDBLK
  5
1F2
330
1E7
100
AcDbEntity
  8
0
100
AcDbBlockEnd
  0
BLOCK
  5
180
330
176
100
AcDbEntity
  8
0
100
AcDbBlockBegin
  2
*D33
 70
     1
 10
0.0
 20
0.0
 30
0.0
  3
*D33
  1

  0
LINE
  5
177
330
176
100
AcDbEntity
  8
0
 62
   123
100
AcDbLine
 10
-9809.193351946234
 20
-3455.135902589347
 30
0.0
 11
-9809.193351946234
 21
-3413.65583593128
 31
0.0
  0
LINE
  5
178
330
176
100
AcDbEntity
  8
0
 62
   123
100
AcDbLine
 10
-9819.193351946232
 20
-3439.665902589347
 30
0.0
 11
-9819.193351946232
 21
-3413.65583593128
 31
0.0
  0
LINE
  5
179
330
176
100
AcDbEntity
  8
0
 62
   123
100
AcDbLine
 10
-9811.693351946232
 20
-3414.25583593128
 30
0.0
 11
-9816.693351946234
 21
-3414.25583593128
 31
0.0
  0
SOLID
  5
17A
330
176
100
AcDbEntity
  8
0
 62
   123
100
AcDbTrace
 10
-9811.693351946232
 20
-3413.839169264614
 30
0.0
 11
-9811.693351946232
 21
-3414.672502597947
 31
0.0
 12
-9809.193351946234
 22
-3414.25583593128
 32
0.0
 13
-9809.193351946234
 23
-3414.25583593128
 33
0.0
  0
SOLID
  5
17B
330
176
100
AcDbEntity
  8
0
 62
   123
100
AcDbTrace
 10
-9816.693351946234
 20
-3413.839169264614
 30
0.0
 11
-9816.693351946234
 21
-3414.672502597947
 31
0.0
 12
-9819.193351946232
 22
-3414.25583593128
 32
0.0
 13
-9819.193351946232
 23
-3414.25583593128
 33
0.0
  0
MTEXT
  5
17C
330
176
100
AcDbEntity
  8
0
 62
     3
100
AcDbMText
 10
-9814.193351946231
 20
-3411.755835931279
 30
0.0
 40
3.0
 41
0.0
 71
     5
 72
     1
  1
\A1;10
1001
ACAD
1000
MTEXTBEGIN
1070
    73
1070
     1
1070
    44
1040
1.0
1070
    74
1070
     0
1000
MTEXTEND
1000
MTEXTBEGIN
1070
    73
1070
     1
1070
    44
1040
1.0
1070
    74
1070
     0
1000
MTEXTEND
1000
MTEXTBEGIN
1070
    73
1070
     1
1070
    44
1040
1.0
1070
    74
1070
     0
1000
MTEXTEND
  0
POINT
  5
17D
330
176
100
AcDbEntity
  8
DEFPOINTS
 62
     0
100
AcDbPoint
 10
-9809.193351946234
 20
-3456.135902589347
 30
0.0
  0
POINT
  5
17E
330
176
100
AcDbEntity
  8
DEFPOINTS
 62
     0
100
AcDbPoint
 10
-9819.193351946232
 20
-3440.665902589345
 30
0.0
  0
POINT
  5
17F
330
176
100
AcDbEntity
  8
DEFPOINTS
 62
     0
100
AcDbPoint
 10
-9819.193351946232
 20
-3414.25583593128
 30
0.0
  0
ENDBLK
  5
181
330
176
100
AcDbEntity
  8
0
100
AcDbBlockEnd
  0
BLOCK
  5
39F
330
395
100
AcDbEntity
  8
0
100
AcDbBlockBegin
  2
*D34
 70
     1
 10
0.0
 20
0.0
 30
0.0
  3
*D34
  1

  0
LINE
  5
396
330
395
100
AcDbEntity
  8
0
 62
   123
100
AcDbLine
 10
327.7820963448903
 20
105.6314394555343
 30
0.0
 11
361.9689693280594
 21
105.6314394555342
 31
0.0
  0
LINE
  5
397
330
395
100
AcDbEntity
  8
0
 62
   123
100
AcDbLine
 10
327.7820963448903
 20
26.62762411106314
 30
0.0
 11
361.9689693280594
 21
26.62762411106312
 31
0.0
  0
LINE
  5
398
330
395
100
AcDbEntity
  8
0
 62
   123
100
AcDbLine
 10
361.3689693280594
 20
103.1314394555342
 30
0.0
 11
361.3689693280594
 21
29.12762411106312
 31
0.0
  0
SOLID
  5
399
330
395
100
AcDbEntity
  8
0
 62
   123
100
AcDbTrace
 10
360.9523026613925
 20
103.1314394555342
 30
0.0
 11
361.7856359947261
 21
103.1314394555342
 31
0.0
 12
361.3689693280594
 22
105.6314394555342
 32
0.0
 13
361.3689693280594
 23
105.6314394555342
 33
0.0
  0
SOLID
  5
39A
330
395
100
AcDbEntity
  8
0
 62
   123
100
AcDbTrace
 10
360.9523026613925
 20
29.12762411106312
 30
0.0
 11
361.7856359947261
 21
29.12762411106312
 31
0.0
 12
361.3689693280594
 22
26.62762411106312
 32
0.0
 13
361.3689693280594
 23
26.62762411106312
 33
0.0
  0
MTEXT
  5
39B
330
395
100
AcDbEntity
  8
0
 62
     3
100
AcDbMText
 10
358.8689693280593
 20
66.52131684648884
 30
0.0
 40
3.0
 41
0.0
 71
     5
 72
     1
  1
\A1;%%C79
 11
0.0000000000000001
 21
1.0
 31
0.0
1001
ACAD
1000
MTEXTBEGIN
1070
    73
1070
     1
1070
    44
1040
1.0
1070
    74
1070
     0
1000
MTEXTEND
1000
MTEXTBEGIN
1070
    73
1070
     1
1070
    44
1040
1.0
1070
    74
1070
     0
1000
MTEXTEND
1000
MTEXTBEGIN
1070
    73
1070
     1
1070
    44
1040
1.0
1070
    74
1070
     0
1000
MTEXTEND
  0
POINT
  5
39C
330
395
100
AcDbEntity
  8
DEFPOINTS
 62
     0
100
AcDbPoint
 10
326.7820963448903
 20
105.6314394555343
 30
0.0
  0
POINT
  5
39D
330
395
100
AcDbEntity
  8
DEFPOINTS
 62
     0
100
AcDbPoint
 10
326.7820963448903
 20
26.62762411106314
 30
0.0
  0
POINT
  5
39E
330
395
100
AcDbEntity
  8
DEFPOINTS
 62
     0
100
AcDbPoint
 10
361.3689693280594
 20
26.62762411106312
 30
0.0
  0
ENDBLK
  5
3A0
330
395
100
AcDbEntity
  8
0
100
AcDbBlockEnd
  0
BLOCK
  5
3AD
330
3A1
100
AcDbEntity
  8
0
100
AcDbBlockBegin
  2
*D35
 70
     1
 10
0.0
 20
0.0
 30
0.0
  3
*D35
  1

  0
LINE
  5
5D3
330
3A1
100
AcDbEntity
  8
0
 62
   123
100
AcDbLine
 10
36.93493927081
 20
17.95740857490318
 30
0.0
 11
36.93493927080997
 21
4.827947218818735
 31
0.0
  0
LINE
  5
5D4
330
3A1
100
AcDbEntity
  8
0
 62
   123
100
AcDbLine
 10
53.88616519809564
 20
25.20565225078785
 30
0.0
 11
60.39404006136031
 21
9.494252493664276
 31
0.0
  0
ARC
  5
5D5
330
3A1
100
AcDbEntity
  8
0
 62
   123
100
AcDbCircle
 10
36.93493927080999
 20
66.12953178329917
 30
0.0
 40
60.70158456448043
100
AcDbArc
 50
272.3598984319516
 51
290.1401015680444
  0
SOLID
  5
5D6
330
3A1
100
AcDbEntity
  8
0
 62
   123
100
AcDbTrace
 10
39.44298937487833
 20
5.062850263759084
 30
0.0
 11
39.42582892224534
 21
5.89600688967637
 31
0.0
 12
36.93493927080998
 22
5.427947218818736
 32
0.0
 13
36.93493927080998
 23
5.427947218818736
 33
0.0
  0
SOLID
  5
5D7
330
3A1
100
AcDbEntity
  8
0
 62
   123
100
AcDbTrace
 10
57.68402935384049
 20
9.52778876161661
 30
0.0
 11
57.98701040018792
 21
8.751485386640911
 31
0.0
 12
60.16443000194129
 22
10.04858021317106
 32
0.0
 13
60.16443000194129
 23
10.04858021317106
 33
0.0
  0
MTEXT
  5
5D8
330
3A1
100
AcDbEntity
  8
0
 62
     3
100
AcDbMText
 10
49.98023515012818
 20
9.701982788433973
 30
0.0
 40
3.0
 41
0.0
 71
     5
 72
     1
  1
\A1;22°30'
 11
0.9743020129588449
 21
0.2252456160380102
 31
0.0
  0
POINT
  5
5D9
330
3A1
100
AcDbEntity
  8
DEFPOINTS
 62
     0
100
AcDbPoint
 10
44.85808596573373
 20
5.947257689597059
 30
0.0
  0
POINT
  5
5DA
330
3A1
100
AcDbEntity
  8
DEFPOINTS
 62
     0
100
AcDbPoint
 10
36.93493927080999
 20
18.95740857490318
 30
0.0
  0
POINT
  5
5DB
330
3A1
100
AcDbEntity
  8
DEFPOINTS
 62
     0
100
AcDbPoint
 10
53.50348176573062
 20
26.12953178329917
 30
0.0
  0
POINT
  5
5DC
330
3A1
100
AcDbEntity
  8
DEFPOINTS
 62
     0
100
AcDbPoint
 10
36.93493927080999
 20
66.12953178329917
 30
0.0
  0
POINT
  5
5DD
330
3A1
100
AcDbEntity
  8
DEFPOINTS
 62
     0
100
AcDbPoint
 10
36.93493927080999
 20
113.3016549916964
 30
0.0
  0
ENDBLK
  5
3AE
330
3A1
100
AcDbEntity
  8
0
100
AcDbBlockEnd
  0
BLOCK
  5
3BB
330
3AF
100
AcDbEntity
  8
0
100
AcDbBlockBegin
  2
*D36
 70
     1
 10
0.0
 20
0.0
 30
0.0
  3
*D36
  1

  0
LINE
  5
3B0
330
3AF
100
AcDbEntity
  8
0
 62
   123
100
AcDbLine
 10
56.39220595683037
 20
190.4261394516433
 30
0.0
 11
56.39220595683037
 21
198.700615110276
 31
0.0
  0
LINE
  5
3B1
330
3AF
100
AcDbEntity
  8
0
 62
   123
100
AcDbLine
 10
60.39220595683037
 20
190.4261394516433
 30
0.0
 11
60.39220595683037
 21
198.700615110276
 31
0.0
  0
LINE
  5
3B2
330
3AF
100
AcDbEntity
  8
0
 62
   123
100
AcDbLine
 10
53.89220595683037
 20
198.1006151102759
 30
0.0
 11
51.39220595683037
 21
198.1006151102759
 31
0.0
  0
LINE
  5
3B3
330
3AF
100
AcDbEntity
  8
0
 62
   123
100
AcDbLine
 10
62.89220595683037
 20
198.1006151102759
 30
0.0
 11
65.39220595683037
 21
198.1006151102759
 31
0.0
  0
LINE
  5
3B4
330
3AF
100
AcDbEntity
  8
0
 62
   123
100
AcDbLine
 10
56.39220595683037
 20
198.1006151102759
 30
0.0
 11
60.39220595683037
 21
198.1006151102759
 31
0.0
  0
SOLID
  5
3B5
330
3AF
100
AcDbEntity
  8
0
 62
   123
100
AcDbTrace
 10
53.89220595683037
 20
198.5172817769426
 30
0.0
 11
53.89220595683037
 21
197.6839484436093
 31
0.0
 12
56.39220595683037
 22
198.1006151102759
 32
0.0
 13
56.39220595683037
 23
198.1006151102759
 33
0.0
  0
SOLID
  5
3B6
330
3AF
100
AcDbEntity
  8
0
 62
   123
100
AcDbTrace
 10
62.89220595683037
 20
198.5172817769426
 30
0.0
 11
62.89220595683037
 21
197.6839484436093
 31
0.0
 12
60.39220595683037
 22
198.1006151102759
 32
0.0
 13
60.39220595683037
 23
198.1006151102759
 33
0.0
  0
MTEXT
  5
3B7
330
3AF
100
AcDbEntity
  8
0
 62
     3
100
AcDbMText
 10
58.39220595683037
 20
201.5506151102758
 30
0.0
 40
3.0
 41
0.0
 71
     5
 72
     1
  1
\A1;\A1;4{\f??|b0|i0|c0|p49;\H0.7x;\S+0^ -0.03;}
1001
ACAD
1000
MTEXTBEGIN
1070
    73
1070
     1
1070
    44
1040
1.0
1070
    74
1070
     0
1000
MTEXTEND
1000
MTEXTBEGIN
1070
    73
1070
     1
1070
    44
1040
1.0
1070
    74
1070
     0
1000
MTEXTEND
1000
MTEXTBEGIN
1070
    73
1070
     1
1070
    44
1040
1.0
1070
    74
1070
     0
1000
MTEXTEND
  0
POINT
  5
3B8
330
3AF
100
AcDbEntity
  8
DEFPOINTS
 62
     0
100
AcDbPoint
 10
56.39220595683037
 20
189.4261394516433
 30
0.0
  0
POINT
  5
3B9
330
3AF
100
AcDbEntity
  8
DEFPOINTS
 62
     0
100
AcDbPoint
 10
60.39220595683037
 20
189.4261394516433
 30
0.0
  0
POINT
  5
3BA
330
3AF
100
AcDbEntity
  8
DEFPOINTS
 62
     0
100
AcDbPoint
 10
60.39220595683037
 20
198.1006151102759
 30
0.0
  0
ENDBLK
  5
3BC
330
3AF
100
AcDbEntity
  8
0
100
AcDbBlockEnd
  0
BLOCK
  5
3C7
330
3BD
100
AcDbEntity
  8
0
100
AcDbBlockBegin
  2
*D37
 70
     1
 10
0.0
 20
0.0
 30
0.0
  3
*D37
  1

  0
LINE
  5
3BE
330
3BD
100
AcDbEntity
  8
0
 62
   123
100
AcDbLine
 10
-3.065060729190006
 20
102.1295317832991
 30
0.0
 11
-3.065060729190006
 21
121.4576214311174
 31
0.0
  0
LINE
  5
3BF
330
3BD
100
AcDbEntity
  8
0
 62
   123
100
AcDbLine
 10
76.93493927080999
 20
102.1295317832991
 30
0.0
 11
76.93493927080999
 21
121.4576214311174
 31
0.0
  0
LINE
  5
3C0
330
3BD
100
AcDbEntity
  8
0
 62
   123
100
AcDbLine
 10
-0.5650607291900074
 20
120.8576214311174
 30
0.0
 11
74.43493927080999
 21
120.8576214311174
 31
0.0
  0
SOLID
  5
3C1
330
3BD
100
AcDbEntity
  8
0
 62
   123
100
AcDbTrace
 10
-0.5650607291900074
 20
121.274288097784
 30
0.0
 11
-0.5650607291900074
 21
120.4409547644507
 31
0.0
 12
-3.065060729190006
 22
120.8576214311174
 32
0.0
 13
-3.065060729190006
 23
120.8576214311174
 33
0.0
  0
SOLID
  5
3C2
330
3BD
100
AcDbEntity
  8
0
 62
   123
100
AcDbTrace
 10
74.43493927080999
 20
121.274288097784
 30
0.0
 11
74.43493927080999
 21
120.4409547644507
 31
0.0
 12
76.93493927080999
 22
120.8576214311174
 32
0.0
 13
76.93493927080999
 23
120.8576214311174
 33
0.0
  0
MTEXT
  5
3C3
330
3BD
100
AcDbEntity
  8
0
 62
     3
100
AcDbMText
 10
38.99906966375056
 20
123.3576214311173
 30
0.0
 40
3.0
 41
0.0
 71
     5
 72
     1
  1
\A1;80
1001
ACAD
1000
MTEXTBEGIN
1070
    73
1070
     1
1070
    44
1040
1.0
1070
    74
1070
     0
1000
MTEXTEND
1000
MTEXTBEGIN
1070
    73
1070
     1
1070
    44
1040
1.0
1070
    74
1070
     0
1000
MTEXTEND
1000
MTEXTBEGIN
1070
    73
1070
     1
1070
    44
1040
1.0
1070
    74
1070
     0
1000
MTEXTEND
  0
POINT
  5
3C4
330
3BD
100
AcDbEntity
  8
DEFPOINTS
 62
     0
100
AcDbPoint
 10
-3.065060729190006
 20
101.1295317832991
 30
0.0
  0
POINT
  5
3C5
330
3BD
100
AcDbEntity
  8
DEFPOINTS
 62
     0
100
AcDbPoint
 10
76.93493927080999
 20
101.1295317832991
 30
0.0
  0
POINT
  5
3C6
330
3BD
100
AcDbEntity
  8
DEFPOINTS
 62
     0
100
AcDbPoint
 10
76.93493927080999
 20
120.8576214311174
 30
0.0
  0
ENDBLK
  5
3C8
330
3BD
100
AcDbEntity
  8
0
100
AcDbBlockEnd
  0
BLOCK
  5
3D3
330
3C9
100
AcDbEntity
  8
0
100
AcDbBlockBegin
  2
*D38
 70
     1
 10
0.0
 20
0.0
 30
0.0
  3
*D38
  1

  0
LINE
  5
3CA
330
3C9
100
AcDbEntity
  8
0
 62
   123
100
AcDbLine
 10
14.22155267012021
 20
188.4261394516433
 30
0.0
 11
14.22155267012021
 21
197.8313334321196
 31
0.0
  0
LINE
  5
3CB
330
3C9
100
AcDbEntity
  8
0
 62
   123
100
AcDbLine
 10
39.22155267012021
 20
190.4261394516433
 30
0.0
 11
39.22155267012021
 21
197.8313334321196
 31
0.0
  0
LINE
  5
3CC
330
3C9
100
AcDbEntity
  8
0
 62
   123
100
AcDbLine
 10
16.72155267012021
 20
197.2313334321196
 30
0.0
 11
36.72155267012021
 21
197.2313334321196
 31
0.0
  0
SOLID
  5
3CD
330
3C9
100
AcDbEntity
  8
0
 62
   123
100
AcDbTrace
 10
16.72155267012021
 20
197.6480000987863
 30
0.0
 11
16.72155267012021
 21
196.8146667654529
 31
0.0
 12
14.22155267012021
 22
197.2313334321196
 32
0.0
 13
14.22155267012021
 23
197.2313334321196
 33
0.0
  0
SOLID
  5
3CE
330
3C9
100
AcDbEntity
  8
0
 62
   123
100
AcDbTrace
 10
36.72155267012021
 20
197.6480000987863
 30
0.0
 11
36.72155267012021
 21
196.8146667654529
 31
0.0
 12
39.22155267012021
 22
197.2313334321196
 32
0.0
 13
39.22155267012021
 23
197.2313334321196
 33
0.0
  0
MTEXT
  5
3CF
330
3C9
100
AcDbEntity
  8
0
 62
     3
100
AcDbMText
 10
26.72155267012021
 20
199.7313334321196
 30
0.0
 40
3.0
 41
0.0
 71
     5
 72
     1
  1
\A1;25{\f??|b0|i0|c0|p49;%%p0.2}
1001
ACAD
1000
MTEXTBEGIN
1070
    73
1070
     1
1070
    44
1040
1.0
1070
    74
1070
     0
1000
MTEXTEND
1000
MTEXTBEGIN
1070
    73
1070
     1
1070
    44
1040
1.0
1070
    74
1070
     0
1000
MTEXTEND
1000
MTEXTBEGIN
1070
    73
1070
     1
1070
    44
1040
1.0
1070
    74
1070
     0
1000
MTEXTEND
  0
POINT
  5
3D0
330
3C9
100
AcDbEntity
  8
DEFPOINTS
 62
     0
100
AcDbPoint
 10
14.22155267012021
 20
187.4261394516434
 30
0.0
  0
POINT
  5
3D1
330
3C9
100
AcDbEntity
  8
DEFPOINTS
 62
     0
100
AcDbPoint
 10
39.22155267012021
 20
189.4261394516433
 30
0.0
  0
POINT
  5
3D2
330
3C9
100
AcDbEntity
  8
DEFPOINTS
 62
     0
100
AcDbPoint
 10
39.22155267012021
 20
197.2313334321196
 30
0.0
  0
ENDBLK
  5
3D4
330
3C9
100
AcDbEntity
  8
0
100
AcDbBlockEnd
  0
BLOCK
  5
3E1
330
3D5
100
AcDbEntity
  8
0
100
AcDbBlockBegin
  2
*D39
 70
     1
 10
0.0
 20
0.0
 30
0.0
  3
*D39
  1

  0
LINE
  5
3D6
330
3D5
100
AcDbEntity
  8
0
 62
   123
100
AcDbLine
 10
40.22155267012021
 20
185.4261394516433
 30
0.0
 11
47.99060782558047
 21
185.4261394516433
 31
0.0
  0
LINE
  5
3D7
330
3D5
100
AcDbEntity
  8
0
 62
   123
100
AcDbLine
 10
40.22155267012021
 20
189.4261394516433
 30
0.0
 11
47.99060782558047
 21
189.4261394516433
 31
0.0
  0
LINE
  5
3D8
330
3D5
100
AcDbEntity
  8
0
 62
   123
100
AcDbLine
 10
47.39060782558047
 20
182.9261394516434
 30
0.0
 11
47.39060782558047
 21
180.4261394516434
 31
0.0
  0
LINE
  5
3D9
330
3D5
100
AcDbEntity
  8
0
 62
   123
100
AcDbLine
 10
47.39060782558047
 20
191.9261394516434
 30
0.0
 11
47.39060782558047
 21
210.9898869600196
 31
0.0
  0
LINE
  5
3DA
330
3D5
100
AcDbEntity
  8
0
 62
   123
100
AcDbLine
 10
47.39060782558047
 20
185.4261394516433
 30
0.0
 11
47.39060782558047
 21
189.4261394516433
 31
0.0
  0
SOLID
  5
3DB
330
3D5
100
AcDbEntity
  8
0
 62
   123
100
AcDbTrace
 10
46.97394115891381
 20
182.9261394516434
 30
0.0
 11
47.80727449224714
 21
182.9261394516434
 31
0.0
 12
47.39060782558047
 22
185.4261394516433
 32
0.0
 13
47.39060782558047
 23
185.4261394516433
 33
0.0
  0
SOLID
  5
3DC
330
3D5
100
AcDbEntity
  8
0
 62
   123
100
AcDbTrace
 10
46.97394115891381
 20
191.9261394516434
 30
0.0
 11
47.80727449224714
 21
191.9261394516434
 31
0.0
 12
47.39060782558047
 22
189.4261394516433
 32
0.0
 13
47.39060782558047
 23
189.4261394516433
 33
0.0
  0
MTEXT
  5
3DD
330
3D5
100
AcDbEntity
  8
0
 62
     3
100
AcDbMText
 10
43.94060782558041
 20
204.2756012457338
 30
0.0
 40
3.0
 41
0.0
 71
     5
 72
     1
  1
\A1;\A1;4{\f??|b0|i0|c0|p49;\H0.7x;\S+0^ -0.03;}
 11
0.0000000000000001
 21
1.0
 31
0.0
1001
ACAD
1000
MTEXTBEGIN
1070
    73
1070
     1
1070
    44
1040
1.0
1070
    74
1070
     0
1000
MTEXTEND
1000
MTEXTBEGIN
1070
    73
1070
     1
1070
    44
1040
1.0
1070
    74
1070
     0
1000
MTEXTEND
1000
MTEXTBEGIN
1070
    73
1070
     1
1070
    44
1040
1.0
1070
    74
1070
     0
1000
MTEXTEND
  0
POINT
  5
3DE
330
3D5
100
AcDbEntity
  8
DEFPOINTS
 62
     0
100
AcDbPoint
 10
39.22155267012021
 20
185.4261394516433
 30
0.0
  0
POINT
  5
3DF
330
3D5
100
AcDbEntity
  8
DEFPOINTS
 62
     0
100
AcDbPoint
 10
39.22155267012021
 20
189.4261394516433
 30
0.0
  0
POINT
  5
3E0
330
3D5
100
AcDbEntity
  8
DEFPOINTS
 62
     0
100
AcDbPoint
 10
47.39060782558047
 20
189.4261394516433
 30
0.0
  0
ENDBLK
  5
3E2
330
3D5
100
AcDbEntity
  8
0
100
AcDbBlockEnd
  0
BLOCK
  5
3EF
330
3E3
100
AcDbEntity
  8
0
100
AcDbBlockBegin
  2
*D40
 70
     1
 10
0.0
 20
0.0
 30
0.0
  3
*D40
  1

  0
LINE
  5
3E4
330
3E3
100
AcDbEntity
  8
0
 62
   123
100
AcDbLine
 10
106.3255856973809
 20
188.3258441646471
 30
0.0
 11
121.4229181915613
 21
188.3258441646471
 31
0.0
  0
LINE
  5
3E5
330
3E3
100
AcDbEntity
  8
0
 62
   123
100
AcDbLine
 10
104.3255856973809
 20
190.8258441646469
 30
0.0
 11
121.4229181915613
 21
190.8258441646469
 31
0.0
  0
LINE
  5
3E6
330
3E3
100
AcDbEntity
  8
0
 62
   123
100
AcDbLine
 10
120.8229181915612
 20
185.8258441646469
 30
0.0
 11
120.8229181915612
 21
183.3258441646471
 31
0.0
  0
LINE
  5
3E7
330
3E3
100
AcDbEntity
  8
0
 62
   123
100
AcDbLine
 10
120.8229181915612
 20
193.3258441646471
 30
0.0
 11
120.8229181915612
 21
214.7401298789339
 31
0.0
  0
LINE
  5
3E8
330
3E3
100
AcDbEntity
  8
0
 62
   123
100
AcDbLine
 10
120.8229181915612
 20
188.3258441646471
 30
0.0
 11
120.8229181915612
 21
190.8258441646469
 31
0.0
  0
SOLID
  5
3E9
330
3E3
100
AcDbEntity
  8
0
 62
   123
100
AcDbTrace
 10
120.4062515248945
 20
185.8258441646469
 30
0.0
 11
121.2395848582279
 21
185.8258441646469
 31
0.0
 12
120.8229181915612
 22
188.3258441646471
 32
0.0
 13
120.8229181915612
 23
188.3258441646471
 33
0.0
  0
SOLID
  5
3EA
330
3E3
100
AcDbEntity
  8
0
 62
   123
100
AcDbTrace
 10
120.4062515248945
 20
193.3258441646471
 30
0.0
 11
121.2395848582279
 21
193.3258441646471
 31
0.0
 12
120.8229181915612
 22
190.8258441646469
 32
0.0
 13
120.8229181915612
 23
190.8258441646469
 33
0.0
  0
MTEXT
  5
3EB
330
3E3
100
AcDbEntity
  8
0
 62
     3
100
AcDbMText
 10
117.372918191561
 20
207.032987021791
 30
0.0
 40
3.0
 41
0.0
 71
     5
 72
     1
  1
\A1;\A1;2.5{\f??|b0|i0|c0|p49;\H0.7x;\S+0.1^ -0;\H1.429x; }
 11
0.0000000000000001
 21
1.0
 31
0.0
1001
ACAD
1000
MTEXTBEGIN
1070
    73
1070
     1
1070
    44
1040
1.0
1070
    74
1070
     0
1000
MTEXTEND
1000
MTEXTBEGIN
1070
    73
1070
     1
1070
    44
1040
1.0
1070
    74
1070
     0
1000
MTEXTEND
1000
MTEXTBEGIN
1070
    73
1070
     1
1070
    44
1040
1.0
1070
    74
1070
     0
1000
MTEXTEND
  0
POINT
  5
3EC
330
3E3
100
AcDbEntity
  8
DEFPOINTS
 62
     0
100
AcDbPoint
 10
105.3255856973809
 20
188.3258441646471
 30
0.0
  0
POINT
  5
3ED
330
3E3
100
AcDbEntity
  8
DEFPOINTS
 62
     0
100
AcDbPoint
 10
103.3255856973809
 20
190.8258441646469
 30
0.0
  0
POINT
  5
3EE
330
3E3
100
AcDbEntity
  8
DEFPOINTS
 62
     0
100
AcDbPoint
 10
120.8229181915612
 20
190.8258441646469
 30
0.0
  0
ENDBLK
  5
3F0
330
3E3
100
AcDbEntity
  8
0
100
AcDbBlockEnd
  0
BLOCK
  5
3FD
330
3F1
100
AcDbEntity
  8
0
100
AcDbBlockBegin
  2
*D41
 70
     1
 10
0.0
 20
0.0
 30
0.0
  3
*D41
  1

  0
LINE
  5
3F2
330
3F1
100
AcDbEntity
  8
0
 62
   123
100
AcDbLine
 10
101.3255856973809
 20
191.4084198596028
 30
0.0
 11
101.3255856973809
 21
199.767432404578
 31
0.0
  0
LINE
  5
3F3
330
3F1
100
AcDbEntity
  8
0
 62
   123
100
AcDbLine
 10
105.3255856973809
 20
191.4084198596028
 30
0.0
 11
105.3255856973809
 21
199.767432404578
 31
0.0
  0
LINE
  5
3F4
330
3F1
100
AcDbEntity
  8
0
 62
   123
100
AcDbLine
 10
98.82558569738105
 20
199.1674324045779
 30
0.0
 11
96.32558569738105
 21
199.1674324045779
 31
0.0
  0
LINE
  5
3F5
330
3F1
100
AcDbEntity
  8
0
 62
   123
100
AcDbLine
 10
107.825585697381
 20
199.1674324045779
 30
0.0
 11
110.325585697381
 21
199.1674324045779
 31
0.0
  0
LINE
  5
3F6
330
3F1
100
AcDbEntity
  8
0
 62
   123
100
AcDbLine
 10
101.3255856973809
 20
199.1674324045779
 30
0.0
 11
105.3255856973809
 21
199.1674324045779
 31
0.0
  0
SOLID
  5
3F7
330
3F1
100
AcDbEntity
  8
0
 62
   123
100
AcDbTrace
 10
98.82558569738105
 20
199.5840990712444
 30
0.0
 11
98.82558569738105
 21
198.7507657379113
 31
0.0
 12
101.3255856973809
 22
199.1674324045779
 32
0.0
 13
101.3255856973809
 23
199.1674324045779
 33
0.0
  0
SOLID
  5
3F8
330
3F1
100
AcDbEntity
  8
0
 62
   123
100
AcDbTrace
 10
107.825585697381
 20
199.5840990712444
 30
0.0
 11
107.825585697381
 21
198.7507657379113
 31
0.0
 12
105.3255856973809
 22
199.1674324045779
 32
0.0
 13
105.3255856973809
 23
199.1674324045779
 33
0.0
  0
MTEXT
  5
3F9
330
3F1
100
AcDbEntity
  8
0
 62
     3
100
AcDbMText
 10
103.3255856973809
 20
202.6174324045778
 30
0.0
 40
3.0
 41
0.0
 71
     5
 72
     1
  1
\A1;\A1;4{\f??|b0|i0|c0|p49;\H0.7x;\S+0.40^ -0;}
1001
ACAD
1000
MTEXTBEGIN
1070
    73
1070
     1
1070
    44
1040
1.0
1070
    74
1070
     0
1000
MTEXTEND
1000
MTEXTBEGIN
1070
    73
1070
     1
1070
    44
1040
1.0
1070
    74
1070
     0
1000
MTEXTEND
1000
MTEXTBEGIN
1070
    73
1070
     1
1070
    44
1040
1.0
1070
    74
1070
     0
1000
MTEXTEND
  0
POINT
  5
3FA
330
3F1
100
AcDbEntity
  8
DEFPOINTS
 62
     0
100
AcDbPoint
 10
101.3255856973809
 20
190.4084198596028
 30
0.0
  0
POINT
  5
3FB
330
3F1
100
AcDbEntity
  8
DEFPOINTS
 62
     0
100
AcDbPoint
 10
105.3255856973809
 20
190.4084198596028
 30
0.0
  0
POINT
  5
3FC
330
3F1
100
AcDbEntity
  8
DEFPOINTS
 62
     0
100
AcDbPoint
 10
105.3255856973809
 20
199.1674324045779
 30
0.0
  0
ENDBLK
  5
3FE
330
3F1
100
AcDbEntity
  8
0
100
AcDbBlockEnd
  0
BLOCK
  5
409
330
3FF
100
AcDbEntity
  8
0
100
AcDbBlockBegin
  2
*D42
 70
     1
 10
0.0
 20
0.0
 30
0.0
  3
*D42
  1

  0
LINE
  5
400
330
3FF
100
AcDbEntity
  8
0
 62
   123
100
AcDbLine
 10
338.2817569399793
 20
89.62953178329916
 30
0.0
 11
350.8932807284033
 21
89.62953178329916
 31
0.0
  0
LINE
  5
401
330
3FF
100
AcDbEntity
  8
0
 62
   123
100
AcDbLine
 10
338.2817569399793
 20
42.62953178329917
 30
0.0
 11
350.8932807284033
 21
42.62953178329917
 31
0.0
  0
LINE
  5
402
330
3FF
100
AcDbEntity
  8
0
 62
   123
100
AcDbLine
 10
350.2932807284031
 20
87.12953178329916
 30
0.0
 11
350.2932807284031
 21
45.12953178329917
 31
0.0
  0
SOLID
  5
403
330
3FF
100
AcDbEntity
  8
0
 62
   123
100
AcDbTrace
 10
349.8766140617366
 20
87.12953178329916
 30
0.0
 11
350.7099473950698
 21
87.12953178329916
 31
0.0
 12
350.2932807284031
 22
89.62953178329916
 32
0.0
 13
350.2932807284031
 23
89.62953178329916
 33
0.0
  0
SOLID
  5
404
330
3FF
100
AcDbEntity
  8
0
 62
   123
100
AcDbTrace
 10
349.8766140617366
 20
45.12953178329917
 30
0.0
 11
350.7099473950698
 21
45.12953178329917
 31
0.0
 12
350.2932807284031
 22
42.62953178329917
 32
0.0
 13
350.2932807284031
 23
42.62953178329917
 33
0.0
  0
MTEXT
  5
405
330
3FF
100
AcDbEntity
  8
0
 62
     3
100
AcDbMText
 10
347.793280728403
 20
66.0894245563809
 30
0.0
 40
3.0
 41
0.0
 71
     5
 72
     1
  1
\A1;%%c47
 11
0.0000000000000001
 21
1.0
 31
0.0
1001
ACAD
1000
MTEXTBEGIN
1070
    73
1070
     1
1070
    44
1040
1.0
1070
    74
1070
     0
1000
MTEXTEND
1000
MTEXTBEGIN
1070
    73
1070
     1
1070
    44
1040
1.0
1070
    74
1070
     0
1000
MTEXTEND
1000
MTEXTBEGIN
1070
    73
1070
     1
1070
    44
1040
1.0
1070
    74
1070
     0
1000
MTEXTEND
  0
POINT
  5
406
330
3FF
100
AcDbEntity
  8
DEFPOINTS
 62
     0
100
AcDbPoint
 10
337.2817569399793
 20
89.62953178329916
 30
0.0
  0
POINT
  5
407
330
3FF
100
AcDbEntity
  8
DEFPOINTS
 62
     0
100
AcDbPoint
 10
337.2817569399793
 20
42.62953178329917
 30
0.0
  0
POINT
  5
408
330
3FF
100
AcDbEntity
  8
DEFPOINTS
 62
     0
100
AcDbPoint
 10
350.2932807284031
 20
42.62953178329917
 30
0.0
  0
ENDBLK
  5
40A
330
3FF
100
AcDbEntity
  8
0
100
AcDbBlockEnd
  0
BLOCK
  5
415
330
40B
100
AcDbEntity
  8
0
100
AcDbBlockBegin
  2
*D43
 70
     1
 10
0.0
 20
0.0
 30
0.0
  3
*D43
  1

  0
LINE
  5
40C
330
40B
100
AcDbEntity
  8
0
 62
   123
100
AcDbLine
 10
198.2817569399758
 20
107.1295317833004
 30
0.0
 11
198.2817569399758
 21
131.1095984413664
 31
0.0
  0
LINE
  5
40D
330
40B
100
AcDbEntity
  8
0
 62
   123
100
AcDbLine
 10
328.2817569399793
 20
105.0995317832994
 30
0.0
 11
328.2817569399793
 21
131.1095984413664
 31
0.0
  0
LINE
  5
40E
330
40B
100
AcDbEntity
  8
0
 62
   123
100
AcDbLine
 10
200.7817569399758
 20
130.5095984413665
 30
0.0
 11
325.7817569399793
 21
130.5095984413665
 31
0.0
  0
SOLID
  5
40F
330
40B
100
AcDbEntity
  8
0
 62
   123
100
AcDbTrace
 10
200.7817569399758
 20
130.926265108033
 30
0.0
 11
200.7817569399758
 21
130.0929317746998
 31
0.0
 12
198.2817569399758
 22
130.5095984413665
 32
0.0
 13
198.2817569399758
 23
130.5095984413665
 33
0.0
  0
SOLID
  5
410
330
40B
100
AcDbEntity
  8
0
 62
   123
100
AcDbTrace
 10
325.7817569399793
 20
130.926265108033
 30
0.0
 11
325.7817569399793
 21
130.0929317746998
 31
0.0
 12
328.2817569399793
 22
130.5095984413665
 32
0.0
 13
328.2817569399793
 23
130.5095984413665
 33
0.0
  0
MTEXT
  5
411
330
40B
100
AcDbEntity
  8
0
 62
     3
100
AcDbMText
 10
263.2817569399794
 20
133.0095984413665
 30
0.0
 40
3.0
 41
0.0
 71
     5
 72
     1
  1
\A1;130
1001
ACAD
1000
MTEXTBEGIN
1070
    73
1070
     1
1070
    44
1040
1.0
1070
    74
1070
     0
1000
MTEXTEND
1000
MTEXTBEGIN
1070
    73
1070
     1
1070
    44
1040
1.0
1070
    74
1070
     0
1000
MTEXTEND
1000
MTEXTBEGIN
1070
    73
1070
     1
1070
    44
1040
1.0
1070
    74
1070
     0
1000
MTEXTEND
  0
POINT
  5
412
330
40B
100
AcDbEntity
  8
DEFPOINTS
 62
     0
100
AcDbPoint
 10
198.2817569399758
 20
106.1295317833004
 30
0.0
  0
POINT
  5
413
330
40B
100
AcDbEntity
  8
DEFPOINTS
 62
     0
100
AcDbPoint
 10
328.2817569399793
 20
104.0995317832994
 30
0.0
  0
POINT
  5
414
330
40B
100
AcDbEntity
  8
DEFPOINTS
 62
     0
100
AcDbPoint
 10
328.2817569399793
 20
130.5095984413665
 30
0.0
  0
ENDBLK
  5
416
330
40B
100
AcDbEntity
  8
0
100
AcDbBlockEnd
  0
BLOCK
  5
421
330
417
100
AcDbEntity
  8
0
100
AcDbBlockBegin
  2
*D44
 70
     1
 10
0.0
 20
0.0
 30
0.0
  3
*D44
  1

  0
LINE
  5
418
330
417
100
AcDbEntity
  8
0
 62
   123
100
AcDbLine
 10
198.2817569399758
 20
111.3378651166312
 30
0.0
 11
198.2817569399758
 21
118.9378651166312
 31
0.0
  0
LINE
  5
419
330
417
100
AcDbEntity
  8
0
 62
   123
100
AcDbLine
 10
205.2817569399794
 20
105.7282691248269
 30
0.0
 11
205.2817569399794
 21
118.9378651166312
 31
0.0
  0
LINE
  5
41A
330
417
100
AcDbEntity
  8
0
 62
   123
100
AcDbLine
 10
200.7817569399758
 20
118.3378651166312
 30
0.0
 11
202.7817569399794
 21
118.3378651166312
 31
0.0
  0
SOLID
  5
41B
330
417
100
AcDbEntity
  8
0
 62
   123
100
AcDbTrace
 10
200.7817569399758
 20
118.7545317832979
 30
0.0
 11
200.7817569399758
 21
117.9211984499646
 31
0.0
 12
198.2817569399758
 22
118.3378651166312
 32
0.0
 13
198.2817569399758
 23
118.3378651166312
 33
0.0
  0
SOLID
  5
41C
330
417
100
AcDbEntity
  8
0
 62
   123
100
AcDbTrace
 10
202.7817569399794
 20
118.7545317832979
 30
0.0
 11
202.7817569399794
 21
117.9211984499646
 31
0.0
 12
205.2817569399794
 22
118.3378651166312
 32
0.0
 13
205.2817569399794
 23
118.3378651166312
 33
0.0
  0
MTEXT
  5
41D
330
417
100
AcDbEntity
  8
0
 62
     3
100
AcDbMText
 10
202.0317569399793
 20
120.8378651166313
 30
0.0
 40
3.0
 41
0.0
 71
     5
 72
     1
  1
\A1;7
1001
ACAD
1000
MTEXTBEGIN
1070
    73
1070
     1
1070
    44
1040
1.0
1070
    74
1070
     0
1000
MTEXTEND
1000
MTEXTBEGIN
1070
    73
1070
     1
1070
    44
1040
1.0
1070
    74
1070
     0
1000
MTEXTEND
1000
MTEXTBEGIN
1070
    73
1070
     1
1070
    44
1040
1.0
1070
    74
1070
     0
1000
MTEXTEND
  0
POINT
  5
41E
330
417
100
AcDbEntity
  8
DEFPOINTS
 62
     0
100
AcDbPoint
 10
198.2817569399758
 20
110.3378651166312
 30
0.0
  0
POINT
  5
41F
330
417
100
AcDbEntity
  8
DEFPOINTS
 62
     0
100
AcDbPoint
 10
205.2817569399794
 20
104.7282691248269
 30
0.0
  0
POINT
  5
420
330
417
100
AcDbEntity
  8
DEFPOINTS
 62
     0
100
AcDbPoint
 10
205.2817569399794
 20
118.3378651166312
 30
0.0
  0
ENDBLK
  5
422
330
417
100
AcDbEntity
  8
0
100
AcDbBlockEnd
  0
BLOCK
  5
42D
330
423
100
AcDbEntity
  8
0
100
AcDbBlockBegin
  2
*D45
 70
     1
 10
0.0
 20
0.0
 30
0.0
  3
*D45
  1

  0
LINE
  5
424
330
423
100
AcDbEntity
  8
0
 62
   123
100
AcDbLine
 10
121.3836181387595
 20
81.12953178329917
 30
0.0
 11
104.9838797181313
 21
81.12953178329917
 31
0.0
  0
LINE
  5
425
330
423
100
AcDbEntity
  8
0
 62
   123
100
AcDbLine
 10
121.8451855428392
 20
66.12953178329917
 30
0.0
 11
104.9838797181313
 21
66.12953178329917
 31
0.0
  0
LINE
  5
426
330
423
100
AcDbEntity
  8
0
 62
   123
100
AcDbLine
 10
105.5838797181313
 20
78.62953178329917
 30
0.0
 11
105.5838797181313
 21
68.62953178329917
 31
0.0
  0
SOLID
  5
427
330
423
100
AcDbEntity
  8
0
 62
   123
100
AcDbTrace
 10
105.1672130514647
 20
78.62953178329917
 30
0.0
 11
106.000546384798
 21
78.62953178329917
 31
0.0
 12
105.5838797181313
 22
81.12953178329917
 32
0.0
 13
105.5838797181313
 23
81.12953178329917
 33
0.0
  0
SOLID
  5
428
330
423
100
AcDbEntity
  8
0
 62
   123
100
AcDbTrace
 10
105.1672130514647
 20
68.62953178329917
 30
0.0
 11
106.000546384798
 21
68.62953178329917
 31
0.0
 12
105.5838797181313
 22
66.12953178329917
 32
0.0
 13
105.5838797181313
 23
66.12953178329917
 33
0.0
  0
MTEXT
  5
429
330
423
100
AcDbEntity
  8
0
 62
     3
100
AcDbMText
 10
103.0838797181313
 20
73.62953178329917
 30
0.0
 40
3.0
 41
0.0
 71
     5
 72
     1
  1
\A1;15
 11
0.0000000000000001
 21
1.0
 31
0.0
1001
ACAD
1000
MTEXTBEGIN
1070
    73
1070
     1
1070
    44
1040
1.0
1070
    74
1070
     0
1000
MTEXTEND
1000
MTEXTBEGIN
1070
    73
1070
     1
1070
    44
1040
1.0
1070
    74
1070
     0
1000
MTEXTEND
1000
MTEXTBEGIN
1070
    73
1070
     1
1070
    44
1040
1.0
1070
    74
1070
     0
1000
MTEXTEND
  0
POINT
  5
42A
330
423
100
AcDbEntity
  8
DEFPOINTS
 62
     0
100
AcDbPoint
 10
122.3836181387595
 20
81.12953178329917
 30
0.0
  0
POINT
  5
42B
330
423
100
AcDbEntity
  8
DEFPOINTS
 62
     0
100
AcDbPoint
 10
122.8451855428392
 20
66.12953178329917
 30
0.0
  0
POINT
  5
42C
330
423
100
AcDbEntity
  8
DEFPOINTS
 62
     0
100
AcDbPoint
 10
105.5838797181313
 20
66.12953178329917
 30
0.0
  0
ENDBLK
  5
42E
330
423
100
AcDbEntity
  8
0
100
AcDbBlockEnd
  0
BLOCK
  5
439
330
42F
100
AcDbEntity
  8
0
100
AcDbBlockBegin
  2
*D46
 70
     1
 10
0.0
 20
0.0
 30
0.0
  3
*D46
  1

  0
LINE
  5
430
330
42F
100
AcDbEntity
  8
0
 62
   123
100
AcDbLine
 10
126.2817569399812
 20
87.12953178329916
 30
0.0
 11
126.2817569399812
 21
131.1070805224297
 31
0.0
  0
LINE
  5
431
330
42F
100
AcDbEntity
  8
0
 62
   123
100
AcDbLine
 10
158.2817569399758
 20
106.6295317832991
 30
0.0
 11
158.2817569399758
 21
131.1070805224297
 31
0.0
  0
LINE
  5
432
330
42F
100
AcDbEntity
  8
0
 62
   123
100
AcDbLine
 10
128.7817569399812
 20
130.5070805224297
 30
0.0
 11
155.7817569399758
 21
130.5070805224297
 31
0.0
  0
SOLID
  5
433
330
42F
100
AcDbEntity
  8
0
 62
   123
100
AcDbTrace
 10
128.7817569399812
 20
130.9237471890964
 30
0.0
 11
128.7817569399812
 21
130.0904138557632
 31
0.0
 12
126.2817569399812
 22
130.5070805224297
 32
0.0
 13
126.2817569399812
 23
130.5070805224297
 33
0.0
  0
SOLID
  5
434
330
42F
100
AcDbEntity
  8
0
 62
   123
100
AcDbTrace
 10
155.7817569399758
 20
130.9237471890964
 30
0.0
 11
155.7817569399758
 21
130.0904138557632
 31
0.0
 12
158.2817569399758
 22
130.5070805224297
 32
0.0
 13
158.2817569399758
 23
130.5070805224297
 33
0.0
  0
MTEXT
  5
435
330
42F
100
AcDbEntity
  8
0
 62
     3
100
AcDbMText
 10
142.6029888698594
 20
133.0070805224299
 30
0.0
 40
3.0
 41
0.0
 71
     5
 72
     1
  1
\A1;32
1001
ACAD
1000
MTEXTBEGIN
1070
    73
1070
     1
1070
    44
1040
1.0
1070
    74
1070
     0
1000
MTEXTEND
1000
MTEXTBEGIN
1070
    73
1070
     1
1070
    44
1040
1.0
1070
    74
1070
     0
1000
MTEXTEND
1000
MTEXTBEGIN
1070
    73
1070
     1
1070
    44
1040
1.0
1070
    74
1070
     0
1000
MTEXTEND
  0
POINT
  5
436
330
42F
100
AcDbEntity
  8
DEFPOINTS
 62
     0
100
AcDbPoint
 10
126.2817569399812
 20
86.12953178329918
 30
0.0
  0
POINT
  5
437
330
42F
100
AcDbEntity
  8
DEFPOINTS
 62
     0
100
AcDbPoint
 10
158.2817569399758
 20
105.6295317832991
 30
0.0
  0
POINT
  5
438
330
42F
100
AcDbEntity
  8
DEFPOINTS
 62
     0
100
AcDbPoint
 10
158.2817569399758
 20
130.5070805224297
 30
0.0
  0
ENDBLK
  5
43A
330
42F
100
AcDbEntity
  8
0
100
AcDbBlockEnd
  0
BLOCK
  5
445
330
43B
100
AcDbEntity
  8
0
100
AcDbBlockBegin
  2
*D47
 70
     1
 10
0.0
 20
0.0
 30
0.0
  3
*D47
  1

  0
LINE
  5
43C
330
43B
100
AcDbEntity
  8
0
 62
   123
100
AcDbLine
 10
151.2817569399794
 20
87.12953178329916
 30
0.0
 11
151.2817569399794
 21
102.9498199902022
 31
0.0
  0
LINE
  5
43D
330
43B
100
AcDbEntity
  8
0
 62
   123
100
AcDbLine
 10
126.2817569399812
 20
87.12953178329916
 30
0.0
 11
126.2817569399812
 21
102.9498199902022
 31
0.0
  0
LINE
  5
43E
330
43B
100
AcDbEntity
  8
0
 62
   123
100
AcDbLine
 10
148.7817569399794
 20
102.3498199902021
 30
0.0
 11
128.7817569399812
 21
102.3498199902021
 31
0.0
  0
SOLID
  5
43F
330
43B
100
AcDbEntity
  8
0
 62
   123
100
AcDbTrace
 10
148.7817569399794
 20
102.7664866568689
 30
0.0
 11
148.7817569399794
 21
101.9331533235354
 31
0.0
 12
151.2817569399794
 22
102.3498199902021
 32
0.0
 13
151.2817569399794
 23
102.3498199902021
 33
0.0
  0
SOLID
  5
440
330
43B
100
AcDbEntity
  8
0
 62
   123
100
AcDbTrace
 10
128.7817569399812
 20
102.7664866568689
 30
0.0
 11
128.7817569399812
 21
101.9331533235354
 31
0.0
 12
126.2817569399812
 22
102.3498199902021
 32
0.0
 13
126.2817569399812
 23
102.3498199902021
 33
0.0
  0
MTEXT
  5
441
330
43B
100
AcDbEntity
  8
0
 62
     3
100
AcDbMText
 10
139.0926876073806
 20
104.8498199902021
 30
0.0
 40
3.0
 41
0.0
 71
     5
 72
     1
  1
\A1;25
1001
ACAD
1000
MTEXTBEGIN
1070
    73
1070
     1
1070
    44
1040
1.0
1070
    74
1070
     0
1000
MTEXTEND
1000
MTEXTBEGIN
1070
    73
1070
     1
1070
    44
1040
1.0
1070
    74
1070
     0
1000
MTEXTEND
1000
MTEXTBEGIN
1070
    73
1070
     1
1070
    44
1040
1.0
1070
    74
1070
     0
1000
MTEXTEND
  0
POINT
  5
442
330
43B
100
AcDbEntity
  8
DEFPOINTS
 62
     0
100
AcDbPoint
 10
151.2817569399794
 20
86.12953178329918
 30
0.0
  0
POINT
  5
443
330
43B
100
AcDbEntity
  8
DEFPOINTS
 62
     0
100
AcDbPoint
 10
126.2817569399812
 20
86.12953178329918
 30
0.0
  0
POINT
  5
444
330
43B
100
AcDbEntity
  8
DEFPOINTS
 62
     0
100
AcDbPoint
 10
126.2817569399812
 20
102.3498199902021
 30
0.0
  0
ENDBLK
  5
446
330
43B
100
AcDbEntity
  8
0
100
AcDbBlockEnd
  0
BLOCK
  5
453
330
447
100
AcDbEntity
  8
0
100
AcDbBlockBegin
  2
*D48
 70
     1
 10
0.0
 20
0.0
 30
0.0
  3
*D48
  1

  0
LINE
  5
448
330
447
100
AcDbEntity
  8
0
 62
   123
100
AcDbLine
 10
125.2817569399812
 20
76.12953178329917
 30
0.0
 11
110.8570936510008
 21
76.12953178329917
 31
0.0
  0
LINE
  5
449
330
447
100
AcDbEntity
  8
0
 62
   123
100
AcDbLine
 10
125.2817569399812
 20
86.12953178329918
 30
0.0
 11
110.8570936510008
 21
86.12953178329918
 31
0.0
  0
LINE
  5
44A
330
447
100
AcDbEntity
  8
0
 62
   123
100
AcDbLine
 10
111.4570936510008
 20
73.62953178329917
 30
0.0
 11
111.4570936510008
 21
71.12953178329917
 31
0.0
  0
LINE
  5
44B
330
447
100
AcDbEntity
  8
0
 62
   123
100
AcDbLine
 10
111.4570936510008
 20
88.62953178329918
 30
0.0
 11
111.4570936510008
 21
135.0142754522625
 31
0.0
  0
LINE
  5
44C
330
447
100
AcDbEntity
  8
0
 62
   123
100
AcDbLine
 10
111.4570936510008
 20
76.12953178329917
 30
0.0
 11
111.4570936510008
 21
86.12953178329918
 31
0.0
  0
SOLID
  5
44D
330
447
100
AcDbEntity
  8
0
 62
   123
100
AcDbTrace
 10
111.0404269843339
 20
73.62953178329917
 30
0.0
 11
111.8737603176675
 21
73.62953178329917
 31
0.0
 12
111.4570936510008
 22
76.12953178329917
 32
0.0
 13
111.4570936510008
 23
76.12953178329917
 33
0.0
  0
SOLID
  5
44E
330
447
100
AcDbEntity
  8
0
 62
   123
100
AcDbTrace
 10
111.0404269843339
 20
88.62953178329918
 30
0.0
 11
111.8737603176675
 21
88.62953178329918
 31
0.0
 12
111.4570936510008
 22
86.12953178329918
 32
0.0
 13
111.4570936510008
 23
86.12953178329918
 33
0.0
  0
MTEXT
  5
44F
330
447
100
AcDbEntity
  8
0
 62
     3
100
AcDbMText
 10
107.5069436510008
 20
120.1987040236913
 30
0.0
 40
3.0
 41
0.0
 71
     5
 72
     1
  1
\A1;\A1;{\f??|b0|i0|c0|p49;%%C10\H0.7x;\S+0^ -0.015;\H1.429x;(h7)}
 11
0.0000000000000001
 21
1.0
 31
0.0
1001
ACAD
1000
MTEXTBEGIN
1070
    73
1070
     1
1070
    44
1040
1.0
1070
    74
1070
     0
1000
MTEXTEND
1000
MTEXTBEGIN
1070
    73
1070
     1
1070
    44
1040
1.0
1070
    74
1070
     0
1000
MTEXTEND
1000
MTEXTBEGIN
1070
    73
1070
     1
1070
    44
1040
1.0
1070
    74
1070
     0
1000
MTEXTEND
  0
POINT
  5
450
330
447
100
AcDbEntity
  8
DEFPOINTS
 62
     0
100
AcDbPoint
 10
126.2817569399812
 20
76.12953178329917
 30
0.0
  0
POINT
  5
451
330
447
100
AcDbEntity
  8
DEFPOINTS
 62
     0
100
AcDbPoint
 10
126.2817569399812
 20
86.12953178329918
 30
0.0
  0
POINT
  5
452
330
447
100
AcDbEntity
  8
DEFPOINTS
 62
     0
100
AcDbPoint
 10
111.4570936510008
 20
86.12953178329918
 30
0.0
  0
ENDBLK
  5
454
330
447
100
AcDbEntity
  8
0
100
AcDbBlockEnd
  0
BLOCK
  5
45F
330
455
100
AcDbEntity
  8
0
100
AcDbBlockBegin
  2
*D49
 70
     1
 10
0.0
 20
0.0
 30
0.0
  3
*D49
  1

  0
LINE
  5
456
330
455
100
AcDbEntity
  8
0
 62
   123
100
AcDbLine
 10
154.7817569399794
 20
98.12953178329919
 30
0.0
 11
95.16354195975004
 21
98.12953178329919
 31
0.0
  0
LINE
  5
457
330
455
100
AcDbEntity
  8
0
 62
   123
100
AcDbLine
 10
154.7817569399794
 20
64.12953178329917
 30
0.0
 11
95.16354195975004
 21
64.12953178329918
 31
0.0
  0
LINE
  5
458
330
455
100
AcDbEntity
  8
0
 62
   123
100
AcDbLine
 10
95.76354195975
 20
95.62953178329918
 30
0.0
 11
95.76354195975
 21
66.62953178329918
 31
0.0
  0
SOLID
  5
459
330
455
100
AcDbEntity
  8
0
 62
   123
100
AcDbTrace
 10
95.3468752930833
 20
95.62953178329918
 30
0.0
 11
96.18020862641669
 21
95.62953178329918
 31
0.0
 12
95.76354195975005
 22
98.12953178329919
 32
0.0
 13
95.76354195975005
 23
98.12953178329919
 33
0.0
  0
SOLID
  5
45A
330
455
100
AcDbEntity
  8
0
 62
   123
100
AcDbTrace
 10
95.3468752930833
 20
66.62953178329918
 30
0.0
 11
96.18020862641669
 21
66.62953178329917
 31
0.0
 12
95.76354195975
 22
64.12953178329918
 32
0.0
 13
95.76354195975
 23
64.12953178329918
 33
0.0
  0
MTEXT
  5
45B
330
455
100
AcDbEntity
  8
0
 62
     3
100
AcDbMText
 10
93.26354195975
 20
81.12953178329917
 30
0.0
 40
3.0
 41
0.0
 71
     5
 72
     1
  1
\A1;{\f??|b0|i0|c0|p49;%%c}34
 11
0.0000000000000001
 21
1.0
 31
0.0
1001
ACAD
1000
MTEXTBEGIN
1070
    73
1070
     1
1070
    44
1040
1.0
1070
    74
1070
     0
1000
MTEXTEND
1000
MTEXTBEGIN
1070
    73
1070
     1
1070
    44
1040
1.0
1070
    74
1070
     0
1000
MTEXTEND
1000
MTEXTBEGIN
1070
    73
1070
     1
1070
    44
1040
1.0
1070
    74
1070
     0
1000
MTEXTEND
  0
POINT
  5
45C
330
455
100
AcDbEntity
  8
DEFPOINTS
 62
     0
100
AcDbPoint
 10
155.7817569399793
 20
98.12953178329919
 30
0.0
  0
POINT
  5
45D
330
455
100
AcDbEntity
  8
DEFPOINTS
 62
     0
100
AcDbPoint
 10
155.7817569399793
 20
64.12953178329917
 30
0.0
  0
POINT
  5
45E
330
455
100
AcDbEntity
  8
DEFPOINTS
 62
     0
100
AcDbPoint
 10
95.76354195975
 20
64.12953178329918
 30
0.0
  0
ENDBLK
  5
460
330
455
100
AcDbEntity
  8
0
100
AcDbBlockEnd
  0
BLOCK
  5
46B
330
461
100
AcDbEntity
  8
0
100
AcDbBlockBegin
  2
*D50
 70
     1
 10
0.0
 20
0.0
 30
0.0
  3
*D50
  1

  0
LINE
  5
462
330
461
100
AcDbEntity
  8
0
 62
   123
100
AcDbLine
 10
158.2817569399758
 20
106.6295317832991
 30
0.0
 11
158.2817569399758
 21
131.1095984413664
 31
0.0
  0
LINE
  5
463
330
461
100
AcDbEntity
  8
0
 62
   123
100
AcDbLine
 10
198.2817569399758
 20
107.1295317833004
 30
0.0
 11
198.2817569399758
 21
131.1095984413664
 31
0.0
  0
LINE
  5
464
330
461
100
AcDbEntity
  8
0
 62
   123
100
AcDbLine
 10
160.7817569399758
 20
130.5095984413665
 30
0.0
 11
195.7817569399758
 21
130.5095984413665
 31
0.0
  0
SOLID
  5
465
330
461
100
AcDbEntity
  8
0
 62
   123
100
AcDbTrace
 10
160.7817569399758
 20
130.926265108033
 30
0.0
 11
160.7817569399758
 21
130.0929317746998
 31
0.0
 12
158.2817569399758
 22
130.5095984413665
 32
0.0
 13
158.2817569399758
 23
130.5095984413665
 33
0.0
  0
SOLID
  5
466
330
461
100
AcDbEntity
  8
0
 62
   123
100
AcDbTrace
 10
195.7817569399758
 20
130.926265108033
 30
0.0
 11
195.7817569399758
 21
130.0929317746998
 31
0.0
 12
198.2817569399758
 22
130.5095984413665
 32
0.0
 13
198.2817569399758
 23
130.5095984413665
 33
0.0
  0
MTEXT
  5
467
330
461
100
AcDbEntity
  8
0
 62
     3
100
AcDbMText
 10
178.2817569399794
 20
133.0095984413665
 30
0.0
 40
3.0
 41
0.0
 71
     5
 72
     1
  1
\A1;{\f??|b0|i0|c0|p49;L}
1001
ACAD
1000
MTEXTBEGIN
1070
    73
1070
     1
1070
    44
1040
1.0
1070
    74
1070
     0
1000
MTEXTEND
1000
MTEXTBEGIN
1070
    73
1070
     1
1070
    44
1040
1.0
1070
    74
1070
     0
1000
MTEXTEND
1000
MTEXTBEGIN
1070
    73
1070
     1
1070
    44
1040
1.0
1070
    74
1070
     0
1000
MTEXTEND
  0
POINT
  5
468
330
461
100
AcDbEntity
  8
DEFPOINTS
 62
     0
100
AcDbPoint
 10
158.2817569399758
 20
105.6295317832991
 30
0.0
  0
POINT
  5
469
330
461
100
AcDbEntity
  8
DEFPOINTS
 62
     0
100
AcDbPoint
 10
198.2817569399758
 20
106.1295317833004
 30
0.0
  0
POINT
  5
46A
330
461
100
AcDbEntity
  8
DEFPOINTS
 62
     0
100
AcDbPoint
 10
198.2817569399758
 20
130.5095984413665
 30
0.0
  0
ENDBLK
  5
46C
330
461
100
AcDbEntity
  8
0
100
AcDbBlockEnd
  0
BLOCK
  5
479
330
46D
100
AcDbEntity
  8
0
100
AcDbBlockBegin
  2
*D51
 70
     1
 10
0.0
 20
0.0
 30
0.0
  3
*D51
  1

  0
LINE
  5
46E
330
46D
100
AcDbEntity
  8
0
 62
   123
100
AcDbLine
 10
158.2817569399758
 20
106.6295317832991
 30
0.0
 11
158.2817569399758
 21
119.0856601654159
 31
0.0
  0
LINE
  5
46F
330
46D
100
AcDbEntity
  8
0
 62
   123
100
AcDbLine
 10
155.2817569399758
 20
98.62953178329917
 30
0.0
 11
155.2817569399758
 21
119.0856601654159
 31
0.0
  0
LINE
  5
470
330
46D
100
AcDbEntity
  8
0
 62
   123
100
AcDbLine
 10
160.7817569399758
 20
118.4856601654159
 30
0.0
 11
163.2817569399758
 21
118.4856601654159
 31
0.0
  0
LINE
  5
471
330
46D
100
AcDbEntity
  8
0
 62
   123
100
AcDbLine
 10
152.7817569399758
 20
118.4856601654159
 30
0.0
 11
142.3025902733186
 21
118.4856601654159
 31
0.0
  0
LINE
  5
472
330
46D
100
AcDbEntity
  8
0
 62
   123
100
AcDbLine
 10
158.2817569399758
 20
118.4856601654159
 30
0.0
 11
155.2817569399758
 21
118.4856601654159
 31
0.0
  0
SOLID
  5
473
330
46D
100
AcDbEntity
  8
0
 62
   123
100
AcDbTrace
 10
160.7817569399758
 20
118.9023268320825
 30
0.0
 11
160.7817569399758
 21
118.0689934987491
 31
0.0
 12
158.2817569399758
 22
118.4856601654159
 32
0.0
 13
158.2817569399758
 23
118.4856601654159
 33
0.0
  0
SOLID
  5
474
330
46D
100
AcDbEntity
  8
0
 62
   123
100
AcDbTrace
 10
152.7817569399758
 20
118.9023268320825
 30
0.0
 11
152.7817569399758
 21
118.0689934987491
 31
0.0
 12
155.2817569399758
 22
118.4856601654159
 32
0.0
 13
155.2817569399758
 23
118.4856601654159
 33
0.0
  0
MTEXT
  5
475
330
46D
100
AcDbEntity
  8
0
 62
     3
100
AcDbMText
 10
144.3025902733188
 20
120.9856601654158
 30
0.0
 40
3.0
 41
0.0
 71
     5
 72
     1
  1
\A1;3
1001
ACAD
1000
MTEXTBEGIN
1070
    73
1070
     1
1070
    44
1040
1.0
1070
    74
1070
     0
1000
MTEXTEND
1000
MTEXTBEGIN
1070
    73
1070
     1
1070
    44
1040
1.0
1070
    74
1070
     0
1000
MTEXTEND
1000
MTEXTBEGIN
1070
    73
1070
     1
1070
    44
1040
1.0
1070
    74
1070
     0
1000
MTEXTEND
  0
POINT
  5
476
330
46D
100
AcDbEntity
  8
DEFPOINTS
 62
     0
100
AcDbPoint
 10
158.2817569399758
 20
105.6295317832991
 30
0.0
  0
POINT
  5
477
330
46D
100
AcDbEntity
  8
DEFPOINTS
 62
     0
100
AcDbPoint
 10
155.2817569399758
 20
97.62953178329915
 30
0.0
  0
POINT
  5
478
330
46D
100
AcDbEntity
  8
DEFPOINTS
 62
     0
100
AcDbPoint
 10
155.2817569399758
 20
118.4856601654159
 30
0.0
  0
ENDBLK
  5
47A
330
46D
100
AcDbEntity
  8
0
100
AcDbBlockEnd
  0
BLOCK
  5
485
330
47B
100
AcDbEntity
  8
0
100
AcDbBlockBegin
  2
*D52
 70
     1
 10
0.0
 20
0.0
 30
0.0
  3
*D52
  1

  0
LINE
  5
529
330
47B
100
AcDbEntity
  8
0
 62
   123
100
AcDbLine
 10
338.2817569399793
 20
89.62953178329916
 30
0.0
 11
338.2817569399793
 21
131.1095984413664
 31
0.0
  0
LINE
  5
52A
330
47B
100
AcDbEntity
  8
0
 62
   123
100
AcDbLine
 10
328.281756939983
 20
105.0995317832994
 30
0.0
 11
328.281756939983
 21
131.1095984413664
 31
0.0
  0
LINE
  5
52B
330
47B
100
AcDbEntity
  8
0
 62
   123
100
AcDbLine
 10
335.7817569399793
 20
130.5095984413665
 30
0.0
 11
330.7817569399828
 21
130.5095984413665
 31
0.0
  0
SOLID
  5
52C
330
47B
100
AcDbEntity
  8
0
 62
   123
100
AcDbTrace
 10
335.7817569399793
 20
130.926265108033
 30
0.0
 11
335.7817569399793
 21
130.0929317746998
 31
0.0
 12
338.2817569399793
 22
130.5095984413665
 32
0.0
 13
338.2817569399793
 23
130.5095984413665
 33
0.0
  0
SOLID
  5
52D
330
47B
100
AcDbEntity
  8
0
 62
   123
100
AcDbTrace
 10
330.7817569399828
 20
130.926265108033
 30
0.0
 11
330.7817569399828
 21
130.0929317746998
 31
0.0
 12
328.281756939983
 22
130.5095984413665
 32
0.0
 13
328.281756939983
 23
130.5095984413665
 33
0.0
  0
MTEXT
  5
52E
330
47B
100
AcDbEntity
  8
0
 62
     3
100
AcDbMText
 10
333.2817569399831
 20
133.0095984413665
 30
0.0
 40
3.0
 41
0.0
 71
     5
 72
     1
  1
\A1;10
1001
ACAD
1000
MTEXTBEGIN
1070
    73
1070
     1
1070
    44
1040
1.0
1070
    74
1070
     0
1000
MTEXTEND
1000
MTEXTBEGIN
1070
    73
1070
     1
1070
    44
1040
1.0
1070
    74
1070
     0
1000
MTEXTEND
1000
MTEXTBEGIN
1070
    73
1070
     1
1070
    44
1040
1.0
1070
    74
1070
     0
1000
MTEXTEND
  0
POINT
  5
52F
330
47B
100
AcDbEntity
  8
DEFPOINTS
 62
     0
100
AcDbPoint
 10
338.2817569399793
 20
88.62953178329918
 30
0.0
  0
POINT
  5
530
330
47B
100
AcDbEntity
  8
DEFPOINTS
 62
     0
100
AcDbPoint
 10
328.281756939983
 20
104.0995317832994
 30
0.0
  0
POINT
  5
531
330
47B
100
AcDbEntity
  8
DEFPOINTS
 62
     0
100
AcDbPoint
 10
328.281756939983
 20
130.5095984413665
 30
0.0
  0
ENDBLK
  5
486
330
47B
100
AcDbEntity
  8
0
100
AcDbBlockEnd
  0
BLOCK
  5
491
330
487
100
AcDbEntity
  8
0
100
AcDbBlockBegin
  2
*D53
 70
     1
 10
0.0
 20
0.0
 30
0.0
  3
*D53
  1

  0
LINE
  5
488
330
487
100
AcDbEntity
  8
0
 62
   123
100
AcDbLine
 10
45.92005608293947
 20
257.5878117029797
 30
0.0
 11
45.92005608293947
 21
232.0108503628593
 31
0.0
  0
LINE
  5
489
330
487
100
AcDbEntity
  8
0
 62
   123
100
AcDbLine
 10
125.9200560829394
 20
257.5878117029797
 30
0.0
 11
125.9200560829394
 21
232.0108503628593
 31
0.0
  0
LINE
  5
48A
330
487
100
AcDbEntity
  8
0
 62
   123
100
AcDbLine
 10
48.42005608293947
 20
232.6108503628593
 30
0.0
 11
123.4200560829394
 21
232.6108503628593
 31
0.0
  0
SOLID
  5
48B
330
487
100
AcDbEntity
  8
0
 62
   123
100
AcDbTrace
 10
48.42005608293947
 20
233.0275170295259
 30
0.0
 11
48.42005608293947
 21
232.1941836961925
 31
0.0
 12
45.92005608293947
 22
232.6108503628593
 32
0.0
 13
45.92005608293947
 23
232.6108503628593
 33
0.0
  0
SOLID
  5
48C
330
487
100
AcDbEntity
  8
0
 62
   123
100
AcDbTrace
 10
123.4200560829394
 20
233.0275170295259
 30
0.0
 11
123.4200560829394
 21
232.1941836961925
 31
0.0
 12
125.9200560829394
 22
232.6108503628593
 32
0.0
 13
125.9200560829394
 23
232.6108503628593
 33
0.0
  0
MTEXT
  5
48D
330
487
100
AcDbEntity
  8
0
 62
     3
100
AcDbMText
 10
89.73927385346907
 20
235.1108503628593
 30
0.0
 40
3.0
 41
0.0
 71
     5
 72
     1
  1
\A1;80
1001
ACAD
1000
MTEXTBEGIN
1070
    73
1070
     1
1070
    44
1040
1.0
1070
    74
1070
     0
1000
MTEXTEND
1000
MTEXTBEGIN
1070
    73
1070
     1
1070
    44
1040
1.0
1070
    74
1070
     0
1000
MTEXTEND
1000
MTEXTBEGIN
1070
    73
1070
     1
1070
    44
1040
1.0
1070
    74
1070
     0
1000
MTEXTEND
  0
POINT
  5
48E
330
487
100
AcDbEntity
  8
DEFPOINTS
 62
     0
100
AcDbPoint
 10
45.92005608293947
 20
258.5878117029797
 30
0.0
  0
POINT
  5
48F
330
487
100
AcDbEntity
  8
DEFPOINTS
 62
     0
100
AcDbPoint
 10
125.9200560829394
 20
258.5878117029797
 30
0.0
  0
POINT
  5
490
330
487
100
AcDbEntity
  8
DEFPOINTS
 62
     0
100
AcDbPoint
 10
125.9200560829394
 20
232.6108503628593
 30
0.0
  0
ENDBLK
  5
492
330
487
100
AcDbEntity
  8
0
100
AcDbBlockEnd
  0
BLOCK
  5
49D
330
493
100
AcDbEntity
  8
0
100
AcDbBlockBegin
  2
*D54
 70
     1
 10
0.0
 20
0.0
 30
0.0
  3
*D54
  1

  0
LINE
  5
494
330
493
100
AcDbEntity
  8
0
 62
   123
100
AcDbLine
 10
266.0731766754324
 20
253.0878117029796
 30
0.0
 11
266.0731766754324
 21
239.9001306546872
 31
0.0
  0
LINE
  5
495
330
493
100
AcDbEntity
  8
0
 62
   123
100
AcDbLine
 10
223.5731766754323
 20
253.0878117029796
 30
0.0
 11
223.5731766754323
 21
239.9001306546872
 31
0.0
  0
LINE
  5
496
330
493
100
AcDbEntity
  8
0
 62
   123
100
AcDbLine
 10
263.5731766754324
 20
240.5001306546874
 30
0.0
 11
226.0731766754322
 21
240.5001306546874
 31
0.0
  0
SOLID
  5
497
330
493
100
AcDbEntity
  8
0
 62
   123
100
AcDbTrace
 10
263.5731766754324
 20
240.916797321354
 30
0.0
 11
263.5731766754324
 21
240.0834639880207
 31
0.0
 12
266.0731766754324
 22
240.5001306546874
 32
0.0
 13
266.0731766754324
 23
240.5001306546874
 33
0.0
  0
SOLID
  5
498
330
493
100
AcDbEntity
  8
0
 62
   123
100
AcDbTrace
 10
226.0731766754322
 20
240.916797321354
 30
0.0
 11
226.0731766754322
 21
240.0834639880207
 31
0.0
 12
223.5731766754323
 22
240.5001306546874
 32
0.0
 13
223.5731766754323
 23
240.5001306546874
 33
0.0
  0
MTEXT
  5
499
330
493
100
AcDbEntity
  8
0
 62
     3
100
AcDbMText
 10
244.8231766754322
 20
243.0001306546873
 30
0.0
 40
3.0
 41
0.0
 71
     5
 72
     1
  1
\A1;L
1001
ACAD
1000
MTEXTBEGIN
1070
    73
1070
     1
1070
    44
1040
1.0
1070
    74
1070
     0
1000
MTEXTEND
1000
MTEXTBEGIN
1070
    73
1070
     1
1070
    44
1040
1.0
1070
    74
1070
     0
1000
MTEXTEND
1000
MTEXTBEGIN
1070
    73
1070
     1
1070
    44
1040
1.0
1070
    74
1070
     0
1000
MTEXTEND
  0
POINT
  5
49A
330
493
100
AcDbEntity
  8
DEFPOINTS
 62
     0
100
AcDbPoint
 10
266.0731766754324
 20
254.0878117029797
 30
0.0
  0
POINT
  5
49B
330
493
100
AcDbEntity
  8
DEFPOINTS
 62
     0
100
AcDbPoint
 10
223.5731766754323
 20
254.0878117029797
 30
0.0
  0
POINT
  5
49C
330
493
100
AcDbEntity
  8
DEFPOINTS
 62
     0
100
AcDbPoint
 10
223.5731766754323
 20
240.5001306546874
 30
0.0
  0
ENDBLK
  5
49E
330
493
100
AcDbEntity
  8
0
100
AcDbBlockEnd
  0
BLOCK
  5
4A9
330
49F
100
AcDbEntity
  8
0
100
AcDbBlockBegin
  2
*D55
 70
     1
 10
0.0
 20
0.0
 30
0.0
  3
*D55
  1

  0
LINE
  5
4A0
330
49F
100
AcDbEntity
  8
0
 62
   123
100
AcDbLine
 10
191.5731766754323
 20
302.5878117029783
 30
0.0
 11
191.5731766754323
 21
239.9001306546872
 31
0.0
  0
LINE
  5
4A1
330
49F
100
AcDbEntity
  8
0
 62
   123
100
AcDbLine
 10
223.5731766754323
 20
253.0878117029796
 30
0.0
 11
223.5731766754323
 21
239.9001306546872
 31
0.0
  0
LINE
  5
4A2
330
49F
100
AcDbEntity
  8
0
 62
   123
100
AcDbLine
 10
194.0731766754323
 20
240.5001306546874
 30
0.0
 11
221.0731766754324
 21
240.5001306546874
 31
0.0
  0
SOLID
  5
4A3
330
49F
100
AcDbEntity
  8
0
 62
   123
100
AcDbTrace
 10
194.0731766754323
 20
240.916797321354
 30
0.0
 11
194.0731766754323
 21
240.0834639880207
 31
0.0
 12
191.5731766754323
 22
240.5001306546874
 32
0.0
 13
191.5731766754323
 23
240.5001306546874
 33
0.0
  0
SOLID
  5
4A4
330
49F
100
AcDbEntity
  8
0
 62
   123
100
AcDbTrace
 10
221.0731766754324
 20
240.916797321354
 30
0.0
 11
221.0731766754324
 21
240.0834639880207
 31
0.0
 12
223.5731766754323
 22
240.5001306546874
 32
0.0
 13
223.5731766754323
 23
240.5001306546874
 33
0.0
  0
MTEXT
  5
4A5
330
49F
100
AcDbEntity
  8
0
 62
     3
100
AcDbMText
 10
207.5731766754322
 20
243.0001306546873
 30
0.0
 40
3.0
 41
0.0
 71
     5
 72
     1
  1
\A1;32
1001
ACAD
1000
MTEXTBEGIN
1070
    73
1070
     1
1070
    44
1040
1.0
1070
    74
1070
     0
1000
MTEXTEND
1000
MTEXTBEGIN
1070
    73
1070
     1
1070
    44
1040
1.0
1070
    74
1070
     0
1000
MTEXTEND
1000
MTEXTBEGIN
1070
    73
1070
     1
1070
    44
1040
1.0
1070
    74
1070
     0
1000
MTEXTEND
  0
POINT
  5
4A6
330
49F
100
AcDbEntity
  8
DEFPOINTS
 62
     0
100
AcDbPoint
 10
191.5731766754323
 20
303.5878117029783
 30
0.0
  0
POINT
  5
4A7
330
49F
100
AcDbEntity
  8
DEFPOINTS
 62
     0
100
AcDbPoint
 10
223.5731766754323
 20
254.0878117029797
 30
0.0
  0
POINT
  5
4A8
330
49F
100
AcDbEntity
  8
DEFPOINTS
 62
     0
100
AcDbPoint
 10
223.5731766754323
 20
240.5001306546874
 30
0.0
  0
ENDBLK
  5
4AA
330
49F
100
AcDbEntity
  8
0
100
AcDbBlockEnd
  0
BLOCK
  5
4B7
330
4AB
100
AcDbEntity
  8
0
100
AcDbBlockBegin
  2
*D56
 70
     1
 10
0.0
 20
0.0
 30
0.0
  3
*D56
  1

  0
LINE
  5
4AC
330
4AB
100
AcDbEntity
  8
0
 62
   123
100
AcDbLine
 10
223.5731766754323
 20
334.0878117029783
 30
0.0
 11
223.5731766754323
 21
340.7977396118831
 31
0.0
  0
LINE
  5
4AD
330
4AB
100
AcDbEntity
  8
0
 62
   123
100
AcDbLine
 10
220.5731766754325
 20
326.0878117029797
 30
0.0
 11
220.5731766754325
 21
340.7977396118831
 31
0.0
  0
LINE
  5
4AE
330
4AB
100
AcDbEntity
  8
0
 62
   123
100
AcDbLine
 10
226.0731766754322
 20
340.1977396118831
 30
0.0
 11
228.5731766754323
 21
340.1977396118831
 31
0.0
  0
LINE
  5
4AF
330
4AB
100
AcDbEntity
  8
0
 62
   123
100
AcDbLine
 10
218.0731766754323
 20
340.1977396118831
 30
0.0
 11
215.5731766754322
 21
340.1977396118831
 31
0.0
  0
LINE
  5
4B0
330
4AB
100
AcDbEntity
  8
0
 62
   123
100
AcDbLine
 10
223.5731766754323
 20
340.1977396118831
 30
0.0
 11
220.5731766754325
 21
340.1977396118831
 31
0.0
  0
SOLID
  5
4B1
330
4AB
100
AcDbEntity
  8
0
 62
   123
100
AcDbTrace
 10
226.0731766754322
 20
340.6144062785496
 30
0.0
 11
226.0731766754322
 21
339.7810729452163
 31
0.0
 12
223.5731766754323
 22
340.1977396118831
 32
0.0
 13
223.5731766754323
 23
340.1977396118831
 33
0.0
  0
SOLID
  5
4B2
330
4AB
100
AcDbEntity
  8
0
 62
   123
100
AcDbTrace
 10
218.0731766754323
 20
340.6144062785496
 30
0.0
 11
218.0731766754323
 21
339.7810729452163
 31
0.0
 12
220.5731766754325
 22
340.1977396118831
 32
0.0
 13
220.5731766754325
 23
340.1977396118831
 33
0.0
  0
MTEXT
  5
4B3
330
4AB
100
AcDbEntity
  8
0
 62
     3
100
AcDbMText
 10
222.0731766754322
 20
342.6977396118832
 30
0.0
 40
3.0
 41
0.0
 71
     5
 72
     1
  1
\A1;3
1001
ACAD
1000
MTEXTBEGIN
1070
    73
1070
     1
1070
    44
1040
1.0
1070
    74
1070
     0
1000
MTEXTEND
1000
MTEXTBEGIN
1070
    73
1070
     1
1070
    44
1040
1.0
1070
    74
1070
     0
1000
MTEXTEND
1000
MTEXTBEGIN
1070
    73
1070
     1
1070
    44
1040
1.0
1070
    74
1070
     0
1000
MTEXTEND
  0
POINT
  5
4B4
330
4AB
100
AcDbEntity
  8
DEFPOINTS
 62
     0
100
AcDbPoint
 10
223.5731766754323
 20
333.0878117029783
 30
0.0
  0
POINT
  5
4B5
330
4AB
100
AcDbEntity
  8
DEFPOINTS
 62
     0
100
AcDbPoint
 10
220.5731766754325
 20
325.0878117029797
 30
0.0
  0
POINT
  5
4B6
330
4AB
100
AcDbEntity
  8
DEFPOINTS
 62
     0
100
AcDbPoint
 10
220.5731766754325
 20
340.1977396118831
 30
0.0
  0
ENDBLK
  5
4B8
330
4AB
100
AcDbEntity
  8
0
100
AcDbBlockEnd
  0
BLOCK
  5
4C3
330
4B9
100
AcDbEntity
  8
0
100
AcDbBlockBegin
  2
*D57
 70
     1
 10
0.0
 20
0.0
 30
0.0
  3
*D57
  1

  0
LINE
  5
4BA
330
4B9
100
AcDbEntity
  8
0
 62
   123
100
AcDbLine
 10
186.6750378742053
 20
308.5878117029797
 30
0.0
 11
167.1266300039389
 21
308.5878117029797
 31
0.0
  0
LINE
  5
4BB
330
4B9
100
AcDbEntity
  8
0
 62
   123
100
AcDbLine
 10
178.9655035413306
 20
293.5878117029797
 30
0.0
 11
167.1266300039389
 21
293.5878117029797
 31
0.0
  0
LINE
  5
4BC
330
4B9
100
AcDbEntity
  8
0
 62
   123
100
AcDbLine
 10
167.7266300039391
 20
306.0878117029797
 30
0.0
 11
167.7266300039391
 21
296.0878117029796
 31
0.0
  0
SOLID
  5
4BD
330
4B9
100
AcDbEntity
  8
0
 62
   123
100
AcDbTrace
 10
167.3099633372724
 20
306.0878117029797
 30
0.0
 11
168.1432966706055
 21
306.0878117029797
 31
0.0
 12
167.7266300039391
 22
308.5878117029797
 32
0.0
 13
167.7266300039391
 23
308.5878117029797
 33
0.0
  0
SOLID
  5
4BE
330
4B9
100
AcDbEntity
  8
0
 62
   123
100
AcDbTrace
 10
167.3099633372724
 20
296.0878117029796
 30
0.0
 11
168.1432966706055
 21
296.0878117029796
 31
0.0
 12
167.7266300039391
 22
293.5878117029797
 32
0.0
 13
167.7266300039391
 23
293.5878117029797
 33
0.0
  0
MTEXT
  5
4BF
330
4B9
100
AcDbEntity
  8
0
 62
     3
100
AcDbMText
 10
165.2266300039391
 20
301.0878117029797
 30
0.0
 40
3.0
 41
0.0
 71
     5
 72
     1
  1
\A1;15
 11
0.0000000000000001
 21
1.0
 31
0.0
1001
ACAD
1000
MTEXTBEGIN
1070
    73
1070
     1
1070
    44
1040
1.0
1070
    74
1070
     0
1000
MTEXTEND
1000
MTEXTBEGIN
1070
    73
1070
     1
1070
    44
1040
1.0
1070
    74
1070
     0
1000
MTEXTEND
1000
MTEXTBEGIN
1070
    73
1070
     1
1070
    44
1040
1.0
1070
    74
1070
     0
1000
MTEXTEND
  0
POINT
  5
4C0
330
4B9
100
AcDbEntity
  8
DEFPOINTS
 62
     0
100
AcDbPoint
 10
187.6750378742053
 20
308.5878117029797
 30
0.0
  0
POINT
  5
4C1
330
4B9
100
AcDbEntity
  8
DEFPOINTS
 62
     0
100
AcDbPoint
 10
179.9655035413306
 20
293.5878117029797
 30
0.0
  0
POINT
  5
4C2
330
4B9
100
AcDbEntity
  8
DEFPOINTS
 62
     0
100
AcDbPoint
 10
167.7266300039391
 20
293.5878117029797
 30
0.0
  0
ENDBLK
  5
4C4
330
4B9
100
AcDbEntity
  8
0
100
AcDbBlockEnd
  0
BLOCK
  5
4D1
330
4C5
100
AcDbEntity
  8
0
100
AcDbBlockBegin
  2
*D58
 70
     1
 10
0.0
 20
0.0
 30
0.0
  3
*D58
  1

  0
LINE
  5
4C6
330
4C5
100
AcDbEntity
  8
0
 62
   123
100
AcDbLine
 10
190.5731766754323
 20
303.5878117029797
 30
0.0
 11
176.1485133864574
 21
303.5878117029797
 31
0.0
  0
LINE
  5
4C7
330
4C5
100
AcDbEntity
  8
0
 62
   123
100
AcDbLine
 10
190.5731766754323
 20
313.5878117029797
 30
0.0
 11
176.1485133864574
 21
313.5878117029797
 31
0.0
  0
LINE
  5
4C8
330
4C5
100
AcDbEntity
  8
0
 62
   123
100
AcDbLine
 10
176.7485133864574
 20
301.0878117029797
 30
0.0
 11
176.7485133864574
 21
298.5878117029796
 31
0.0
  0
LINE
  5
4C9
330
4C5
100
AcDbEntity
  8
0
 62
   123
100
AcDbLine
 10
176.7485133864574
 20
316.0878117029797
 30
0.0
 11
176.7485133864574
 21
356.5143170572937
 31
0.0
  0
LINE
  5
4CA
330
4C5
100
AcDbEntity
  8
0
 62
   123
100
AcDbLine
 10
176.7485133864574
 20
303.5878117029797
 30
0.0
 11
176.7485133864574
 21
313.5878117029797
 31
0.0
  0
SOLID
  5
4CB
330
4C5
100
AcDbEntity
  8
0
 62
   123
100
AcDbTrace
 10
176.3318467197908
 20
301.0878117029797
 30
0.0
 11
177.165180053124
 21
301.0878117029797
 31
0.0
 12
176.7485133864574
 22
303.5878117029797
 32
0.0
 13
176.7485133864574
 23
303.5878117029797
 33
0.0
  0
SOLID
  5
4CC
330
4C5
100
AcDbEntity
  8
0
 62
   123
100
AcDbTrace
 10
176.3318467197908
 20
316.0878117029797
 30
0.0
 11
177.165180053124
 21
316.0878117029797
 31
0.0
 12
176.7485133864574
 22
313.5878117029797
 32
0.0
 13
176.7485133864574
 23
313.5878117029797
 33
0.0
  0
MTEXT
  5
4CD
330
4C5
100
AcDbEntity
  8
0
 62
     3
100
AcDbMText
 10
172.7983633864574
 20
341.6987456287224
 30
0.0
 40
3.0
 41
0.0
 71
     5
 72
     1
  1
\A1;\A1;{\f??|b0|i0|c0|p49;%%C10\H0.7x;\S+0^ -0.015;\H1.429x;(h7)}
 11
0.0000000000000001
 21
1.0
 31
0.0
1001
ACAD
1000
MTEXTBEGIN
1070
    73
1070
     1
1070
    44
1040
1.0
1070
    74
1070
     0
1000
MTEXTEND
1000
MTEXTBEGIN
1070
    73
1070
     1
1070
    44
1040
1.0
1070
    74
1070
     0
1000
MTEXTEND
1000
MTEXTBEGIN
1070
    73
1070
     1
1070
    44
1040
1.0
1070
    74
1070
     0
1000
MTEXTEND
  0
POINT
  5
4CE
330
4C5
100
AcDbEntity
  8
DEFPOINTS
 62
     0
100
AcDbPoint
 10
191.5731766754323
 20
303.5878117029797
 30
0.0
  0
POINT
  5
4CF
330
4C5
100
AcDbEntity
  8
DEFPOINTS
 62
     0
100
AcDbPoint
 10
191.5731766754323
 20
313.5878117029797
 30
0.0
  0
POINT
  5
4D0
330
4C5
100
AcDbEntity
  8
DEFPOINTS
 62
     0
100
AcDbPoint
 10
176.7485133864574
 20
313.5878117029797
 30
0.0
  0
ENDBLK
  5
4D2
330
4C5
100
AcDbEntity
  8
0
100
AcDbBlockEnd
  0
BLOCK
  5
4DD
330
4D3
100
AcDbEntity
  8
0
100
AcDbBlockBegin
  2
*D59
 70
     1
 10
0.0
 20
0.0
 30
0.0
  3
*D59
  1

  0
LINE
  5
4D4
330
4D3
100
AcDbEntity
  8
0
 62
   123
100
AcDbLine
 10
216.5731766754305
 20
314.5878117029797
 30
0.0
 11
216.5731766754305
 21
330.4080999098815
 31
0.0
  0
LINE
  5
4D5
330
4D3
100
AcDbEntity
  8
0
 62
   123
100
AcDbLine
 10
191.5731766754323
 20
314.5878117029783
 30
0.0
 11
191.5731766754323
 21
330.4080999098815
 31
0.0
  0
LINE
  5
4D6
330
4D3
100
AcDbEntity
  8
0
 62
   123
100
AcDbLine
 10
214.0731766754305
 20
329.8080999098814
 30
0.0
 11
194.0731766754323
 21
329.8080999098814
 31
0.0
  0
SOLID
  5
4D7
330
4D3
100
AcDbEntity
  8
0
 62
   123
100
AcDbTrace
 10
214.0731766754305
 20
330.2247665765481
 30
0.0
 11
214.0731766754305
 21
329.3914332432148
 31
0.0
 12
216.5731766754305
 22
329.8080999098814
 32
0.0
 13
216.5731766754305
 23
329.8080999098814
 33
0.0
  0
SOLID
  5
4D8
330
4D3
100
AcDbEntity
  8
0
 62
   123
100
AcDbTrace
 10
194.0731766754323
 20
330.2247665765481
 30
0.0
 11
194.0731766754323
 21
329.3914332432148
 31
0.0
 12
191.5731766754323
 22
329.8080999098814
 32
0.0
 13
191.5731766754323
 23
329.8080999098814
 33
0.0
  0
MTEXT
  5
4D9
330
4D3
100
AcDbEntity
  8
0
 62
     3
100
AcDbMText
 10
204.3841073428302
 20
332.3080999098813
 30
0.0
 40
3.0
 41
0.0
 71
     5
 72
     1
  1
\A1;25
1001
ACAD
1000
MTEXTBEGIN
1070
    73
1070
     1
1070
    44
1040
1.0
1070
    74
1070
     0
1000
MTEXTEND
1000
MTEXTBEGIN
1070
    73
1070
     1
1070
    44
1040
1.0
1070
    74
1070
     0
1000
MTEXTEND
1000
MTEXTBEGIN
1070
    73
1070
     1
1070
    44
1040
1.0
1070
    74
1070
     0
1000
MTEXTEND
  0
POINT
  5
4DA
330
4D3
100
AcDbEntity
  8
DEFPOINTS
 62
     0
100
AcDbPoint
 10
216.5731766754305
 20
313.5878117029797
 30
0.0
  0
POINT
  5
4DB
330
4D3
100
AcDbEntity
  8
DEFPOINTS
 62
     0
100
AcDbPoint
 10
191.5731766754323
 20
313.5878117029783
 30
0.0
  0
POINT
  5
4DC
330
4D3
100
AcDbEntity
  8
DEFPOINTS
 62
     0
100
AcDbPoint
 10
191.5731766754323
 20
329.8080999098814
 30
0.0
  0
ENDBLK
  5
4DE
330
4D3
100
AcDbEntity
  8
0
100
AcDbBlockEnd
  0
BLOCK
  5
4E9
330
4DF
100
AcDbEntity
  8
0
100
AcDbBlockBegin
  2
*D60
 70
     1
 10
0.0
 20
0.0
 30
0.0
  3
*D60
  1

  0
LINE
  5
4E0
330
4DF
100
AcDbEntity
  8
0
 62
   123
100
AcDbLine
 10
220.0731766754306
 20
325.5878117029783
 30
0.0
 11
157.4587947838685
 21
325.5878117029783
 31
0.0
  0
LINE
  5
4E1
330
4DF
100
AcDbEntity
  8
0
 62
   123
100
AcDbLine
 10
220.0731766754306
 20
291.5878117029797
 30
0.0
 11
157.4587947838685
 21
291.5878117029797
 31
0.0
  0
LINE
  5
4E2
330
4DF
100
AcDbEntity
  8
0
 62
   123
100
AcDbLine
 10
158.0587947838685
 20
323.0878117029783
 30
0.0
 11
158.0587947838685
 21
294.0878117029797
 31
0.0
  0
SOLID
  5
4E3
330
4DF
100
AcDbEntity
  8
0
 62
   123
100
AcDbTrace
 10
157.6421281172019
 20
323.0878117029783
 30
0.0
 11
158.475461450535
 21
323.0878117029783
 31
0.0
 12
158.0587947838685
 22
325.5878117029783
 32
0.0
 13
158.0587947838685
 23
325.5878117029783
 33
0.0
  0
SOLID
  5
4E4
330
4DF
100
AcDbEntity
  8
0
 62
   123
100
AcDbTrace
 10
157.6421281172016
 20
294.0878117029797
 30
0.0
 11
158.4754614505349
 21
294.0878117029797
 31
0.0
 12
158.0587947838685
 22
291.5878117029797
 32
0.0
 13
158.0587947838685
 23
291.5878117029797
 33
0.0
  0
MTEXT
  5
4E5
330
4DF
100
AcDbEntity
  8
0
 62
     3
100
AcDbMText
 10
155.5587947838685
 20
308.5878117029797
 30
0.0
 40
3.0
 41
0.0
 71
     5
 72
     1
  1
\A1;{\f??|b0|i0|c0|p49;%%c}34
 11
0.0000000000000001
 21
1.0
 31
0.0
1001
ACAD
1000
MTEXTBEGIN
1070
    73
1070
     1
1070
    44
1040
1.0
1070
    74
1070
     0
1000
MTEXTEND
1000
MTEXTBEGIN
1070
    73
1070
     1
1070
    44
1040
1.0
1070
    74
1070
     0
1000
MTEXTEND
1000
MTEXTBEGIN
1070
    73
1070
     1
1070
    44
1040
1.0
1070
    74
1070
     0
1000
MTEXTEND
  0
POINT
  5
4E6
330
4DF
100
AcDbEntity
  8
DEFPOINTS
 62
     0
100
AcDbPoint
 10
221.0731766754306
 20
325.5878117029783
 30
0.0
  0
POINT
  5
4E7
330
4DF
100
AcDbEntity
  8
DEFPOINTS
 62
     0
100
AcDbPoint
 10
221.0731766754306
 20
291.5878117029797
 30
0.0
  0
POINT
  5
4E8
330
4DF
100
AcDbEntity
  8
DEFPOINTS
 62
     0
100
AcDbPoint
 10
158.0587947838685
 20
291.5878117029797
 30
0.0
  0
ENDBLK
  5
4EA
330
4DF
100
AcDbEntity
  8
0
100
AcDbBlockEnd
  0
BLOCK
  5
4F5
330
4EB
100
AcDbEntity
  8
0
100
AcDbBlockBegin
  2
*D61
 70
     1
 10
0.0
 20
0.0
 30
0.0
  3
*D61
  1

  0
LINE
  5
4EC
330
4EB
100
AcDbEntity
  8
0
 62
   123
100
AcDbLine
 10
57.11891481892962
 20
476.5171565863369
 30
0.0
 11
57.11891481892962
 21
495.5917232360754
 31
0.0
  0
LINE
  5
4ED
330
4EB
100
AcDbEntity
  8
0
 62
   123
100
AcDbLine
 10
137.1189148189295
 20
476.5171565863369
 30
0.0
 11
137.1189148189295
 21
495.5917232360754
 31
0.0
  0
LINE
  5
4EE
330
4EB
100
AcDbEntity
  8
0
 62
   123
100
AcDbLine
 10
59.61891481892962
 20
494.9917232360752
 30
0.0
 11
134.6189148189296
 21
494.9917232360752
 31
0.0
  0
SOLID
  5
4EF
330
4EB
100
AcDbEntity
  8
0
 62
   123
100
AcDbTrace
 10
59.61891481892962
 20
495.408389902742
 30
0.0
 11
59.61891481892962
 21
494.5750565694086
 31
0.0
 12
57.11891481892962
 22
494.9917232360752
 32
0.0
 13
57.11891481892962
 23
494.9917232360752
 33
0.0
  0
SOLID
  5
4F0
330
4EB
100
AcDbEntity
  8
0
 62
   123
100
AcDbTrace
 10
134.6189148189296
 20
495.408389902742
 30
0.0
 11
134.6189148189296
 21
494.5750565694086
 31
0.0
 12
137.1189148189295
 22
494.9917232360752
 32
0.0
 13
137.1189148189295
 23
494.9917232360752
 33
0.0
  0
MTEXT
  5
4F1
330
4EB
100
AcDbEntity
  8
0
 62
     3
100
AcDbMText
 10
98.72763620357
 20
497.4917232360753
 30
0.0
 40
3.0
 41
0.0
 71
     5
 72
     1
  1
\A1;80
1001
ACAD
1000
MTEXTBEGIN
1070
    73
1070
     1
1070
    44
1040
1.0
1070
    74
1070
     0
1000
MTEXTEND
1000
MTEXTBEGIN
1070
    73
1070
     1
1070
    44
1040
1.0
1070
    74
1070
     0
1000
MTEXTEND
1000
MTEXTBEGIN
1070
    73
1070
     1
1070
    44
1040
1.0
1070
    74
1070
     0
1000
MTEXTEND
  0
POINT
  5
4F2
330
4EB
100
AcDbEntity
  8
DEFPOINTS
 62
     0
100
AcDbPoint
 10
57.11891481892962
 20
475.517156586337
 30
0.0
  0
POINT
  5
4F3
330
4EB
100
AcDbEntity
  8
DEFPOINTS
 62
     0
100
AcDbPoint
 10
137.1189148189295
 20
475.517156586337
 30
0.0
  0
POINT
  5
4F4
330
4EB
100
AcDbEntity
  8
DEFPOINTS
 62
     0
100
AcDbPoint
 10
137.1189148189295
 20
494.9917232360752
 30
0.0
  0
ENDBLK
  5
4F6
330
4EB
100
AcDbEntity
  8
0
100
AcDbBlockEnd
  0
BLOCK
  5
501
330
4F7
100
AcDbEntity
  8
0
100
AcDbBlockBegin
  2
*D62
 70
     1
 10
0.0
 20
0.0
 30
0.0
  3
*D62
  1

  0
LINE
  5
4F8
330
4F7
100
AcDbEntity
  8
0
 62
   123
100
AcDbLine
 10
195.3118632902896
 20
404.0171565863357
 30
0.0
 11
172.2107658989138
 21
404.0171565863357
 31
0.0
  0
LINE
  5
4F9
330
4F7
100
AcDbEntity
  8
0
 62
   123
100
AcDbLine
 10
195.3118632902896
 20
477.0171565863356
 30
0.0
 11
172.2107658989139
 21
477.0171565863356
 31
0.0
  0
LINE
  5
4FA
330
4F7
100
AcDbEntity
  8
0
 62
   123
100
AcDbLine
 10
172.8107658989138
 20
406.5171565863356
 30
0.0
 11
172.8107658989139
 21
474.5171565863357
 31
0.0
  0
SOLID
  5
4FB
330
4F7
100
AcDbEntity
  8
0
 62
   123
100
AcDbTrace
 10
172.3940992322472
 20
406.5171565863356
 30
0.0
 11
173.2274325655804
 21
406.5171565863356
 31
0.0
 12
172.8107658989138
 22
404.0171565863357
 32
0.0
 13
172.8107658989138
 23
404.0171565863357
 33
0.0
  0
SOLID
  5
4FC
330
4F7
100
AcDbEntity
  8
0
 62
   123
100
AcDbTrace
 10
172.3940992322472
 20
474.5171565863357
 30
0.0
 11
173.2274325655804
 21
474.5171565863357
 31
0.0
 12
172.8107658989139
 22
477.0171565863356
 32
0.0
 13
172.8107658989139
 23
477.0171565863356
 33
0.0
  0
MTEXT
  5
4FD
330
4F7
100
AcDbEntity
  8
0
 62
     3
100
AcDbMText
 10
168.8606158989138
 20
440.5171565863356
 30
0.0
 40
3.0
 41
0.0
 71
     5
 72
     1
  1
\A1;\A1;{\f??|b0|i0|c0|p49;%%C}73{\f??|b0|i0|c0|p49;\H0.7x;\S+0^ -0.030;\H1.429x;(h7)}
 11
0.0000000000000001
 21
1.0
 31
0.0
1001
ACAD
1000
MTEXTBEGIN
1070
    73
1070
     1
1070
    44
1040
1.0
1070
    74
1070
     0
1000
MTEXTEND
1000
MTEXTBEGIN
1070
    73
1070
     1
1070
    44
1040
1.0
1070
    74
1070
     0
1000
MTEXTEND
1000
MTEXTBEGIN
1070
    73
1070
     1
1070
    44
1040
1.0
1070
    74
1070
     0
1000
MTEXTEND
  0
POINT
  5
4FE
330
4F7
100
AcDbEntity
  8
DEFPOINTS
 62
     0
100
AcDbPoint
 10
196.3118632902896
 20
404.0171565863357
 30
0.0
  0
POINT
  5
4FF
330
4F7
100
AcDbEntity
  8
DEFPOINTS
 62
     0
100
AcDbPoint
 10
196.3118632902896
 20
477.0171565863356
 30
0.0
  0
POINT
  5
500
330
4F7
100
AcDbEntity
  8
DEFPOINTS
 62
     0
100
AcDbPoint
 10
172.8107658989139
 20
477.0171565863356
 30
0.0
  0
ENDBLK
  5
502
330
4F7
100
AcDbEntity
  8
0
100
AcDbBlockEnd
  0
BLOCK
  5
50D
330
503
100
AcDbEntity
  8
0
100
AcDbBlockBegin
  2
*D63
 70
     1
 10
0.0
 20
0.0
 30
0.0
  3
*D63
  1

  0
LINE
  5
504
330
503
100
AcDbEntity
  8
0
 62
   123
100
AcDbLine
 10
184.8118632902894
 20
444.6221565863356
 30
0.0
 11
184.8118632902894
 21
500.9736482062767
 31
0.0
  0
LINE
  5
505
330
503
100
AcDbEntity
  8
0
 62
   123
100
AcDbLine
 10
198.3118632902897
 20
481.5171565863356
 30
0.0
 11
198.3118632902897
 21
500.9736482062767
 31
0.0
  0
LINE
  5
506
330
503
100
AcDbEntity
  8
0
 62
   123
100
AcDbLine
 10
187.3118632902897
 20
500.3736482062767
 30
0.0
 11
195.8118632902897
 21
500.3736482062767
 31
0.0
  0
SOLID
  5
507
330
503
100
AcDbEntity
  8
0
 62
   123
100
AcDbTrace
 10
187.3118632902897
 20
500.7903148729432
 30
0.0
 11
187.3118632902897
 21
499.9569815396101
 31
0.0
 12
184.8118632902894
 22
500.3736482062767
 32
0.0
 13
184.8118632902894
 23
500.3736482062767
 33
0.0
  0
SOLID
  5
508
330
503
100
AcDbEntity
  8
0
 62
   123
100
AcDbTrace
 10
195.8118632902897
 20
500.7903148729432
 30
0.0
 11
195.8118632902897
 21
499.9569815396101
 31
0.0
 12
198.3118632902897
 22
500.3736482062767
 32
0.0
 13
198.3118632902897
 23
500.3736482062767
 33
0.0
  0
MTEXT
  5
509
330
503
100
AcDbEntity
  8
0
 62
     3
100
AcDbMText
 10
192.0618632902897
 20
502.8736482062766
 30
0.0
 40
3.0
 41
0.0
 71
     5
 72
     1
  1
\A1;13.5
1001
ACAD
1000
MTEXTBEGIN
1070
    73
1070
     1
1070
    44
1040
1.0
1070
    74
1070
     0
1000
MTEXTEND
1000
MTEXTBEGIN
1070
    73
1070
     1
1070
    44
1040
1.0
1070
    74
1070
     0
1000
MTEXTEND
1000
MTEXTBEGIN
1070
    73
1070
     1
1070
    44
1040
1.0
1070
    74
1070
     0
1000
MTEXTEND
  0
POINT
  5
50A
330
503
100
AcDbEntity
  8
DEFPOINTS
 62
     0
100
AcDbPoint
 10
184.8118632902894
 20
443.6221565863355
 30
0.0
  0
POINT
  5
50B
330
503
100
AcDbEntity
  8
DEFPOINTS
 62
     0
100
AcDbPoint
 10
198.3118632902897
 20
480.5171565863355
 30
0.0
  0
POINT
  5
50C
330
503
100
AcDbEntity
  8
DEFPOINTS
 62
     0
100
AcDbPoint
 10
198.3118632902897
 20
500.3736482062767
 30
0.0
  0
ENDBLK
  5
50E
330
503
100
AcDbEntity
  8
0
100
AcDbBlockEnd
  0
BLOCK
  5
51B
330
50F
100
AcDbEntity
  8
0
100
AcDbBlockBegin
  2
*D64
 70
     1
 10
0.0
 20
0.0
 30
0.0
  3
*D64
  1

  0
LINE
  5
510
330
50F
100
AcDbEntity
  8
0
 62
   123
100
AcDbLine
 10
196.3118632902896
 20
478.0171565863356
 30
0.0
 11
196.3118632902896
 21
490.6796443113663
 31
0.0
  0
LINE
  5
511
330
50F
100
AcDbEntity
  8
0
 62
   123
100
AcDbLine
 10
198.3118632902897
 20
481.5171565863356
 30
0.0
 11
198.3118632902897
 21
490.6796443113663
 31
0.0
  0
LINE
  5
512
330
50F
100
AcDbEntity
  8
0
 62
   123
100
AcDbLine
 10
200.8118632902895
 20
490.0796443113663
 30
0.0
 11
203.3118632902897
 21
490.0796443113663
 31
0.0
  0
LINE
  5
513
330
50F
100
AcDbEntity
  8
0
 62
   123
100
AcDbLine
 10
193.8118632902897
 20
490.0796443113663
 30
0.0
 11
187.3118632902897
 21
490.0796443113663
 31
0.0
  0
LINE
  5
514
330
50F
100
AcDbEntity
  8
0
 62
   123
100
AcDbLine
 10
198.3118632902897
 20
490.0796443113663
 30
0.0
 11
196.3118632902896
 21
490.0796443113663
 31
0.0
  0
SOLID
  5
515
330
50F
100
AcDbEntity
  8
0
 62
   123
100
AcDbTrace
 10
200.8118632902895
 20
490.496310978033
 30
0.0
 11
200.8118632902895
 21
489.6629776446996
 31
0.0
 12
198.3118632902897
 22
490.0796443113663
 32
0.0
 13
198.3118632902897
 23
490.0796443113663
 33
0.0
  0
SOLID
  5
516
330
50F
100
AcDbEntity
  8
0
 62
   123
100
AcDbTrace
 10
193.8118632902897
 20
490.496310978033
 30
0.0
 11
193.8118632902897
 21
489.6629776446996
 31
0.0
 12
196.3118632902896
 22
490.0796443113663
 32
0.0
 13
196.3118632902896
 23
490.0796443113663
 33
0.0
  0
MTEXT
  5
517
330
50F
100
AcDbEntity
  8
0
 62
     3
100
AcDbMText
 10
189.3118632902897
 20
492.5796443113663
 30
0.0
 40
3.0
 41
0.0
 71
     5
 72
     1
  1
\A1;2
1001
ACAD
1000
MTEXTBEGIN
1070
    73
1070
     1
1070
    44
1040
1.0
1070
    74
1070
     0
1000
MTEXTEND
1000
MTEXTBEGIN
1070
    73
1070
     1
1070
    44
1040
1.0
1070
    74
1070
     0
1000
MTEXTEND
1000
MTEXTBEGIN
1070
    73
1070
     1
1070
    44
1040
1.0
1070
    74
1070
     0
1000
MTEXTEND
  0
POINT
  5
518
330
50F
100
AcDbEntity
  8
DEFPOINTS
 62
     0
100
AcDbPoint
 10
196.3118632902896
 20
477.0171565863356
 30
0.0
  0
POINT
  5
519
330
50F
100
AcDbEntity
  8
DEFPOINTS
 62
     0
100
AcDbPoint
 10
198.3118632902897
 20
480.5171565863355
 30
0.0
  0
POINT
  5
51A
330
50F
100
AcDbEntity
  8
DEFPOINTS
 62
     0
100
AcDbPoint
 10
198.3118632902897
 20
490.0796443113663
 30
0.0
  0
ENDBLK
  5
51C
330
50F
100
AcDbEntity
  8
0
100
AcDbBlockEnd
  0
BLOCK
  5
527
330
51D
100
AcDbEntity
  8
0
100
AcDbBlockBegin
  2
*D65
 70
     1
 10
0.0
 20
0.0
 30
0.0
  3
*D65
  1

  0
LINE
  5
51E
330
51D
100
AcDbEntity
  8
0
 62
   123
100
AcDbLine
 10
198.3118632902897
 20
481.5171565863356
 30
0.0
 11
198.3118632902897
 21
500.9736482062772
 31
0.0
  0
LINE
  5
51F
330
51D
100
AcDbEntity
  8
0
 62
   123
100
AcDbLine
 10
230.3118632902897
 20
481.5171565863356
 30
0.0
 11
230.3118632902897
 21
500.9736482062772
 31
0.0
  0
LINE
  5
520
330
51D
100
AcDbEntity
  8
0
 62
   123
100
AcDbLine
 10
200.8118632902895
 20
500.3736482062771
 30
0.0
 11
227.8118632902895
 21
500.3736482062771
 31
0.0
  0
SOLID
  5
521
330
51D
100
AcDbEntity
  8
0
 62
   123
100
AcDbTrace
 10
200.8118632902895
 20
500.7903148729439
 30
0.0
 11
200.8118632902895
 21
499.9569815396106
 31
0.0
 12
198.3118632902897
 22
500.3736482062771
 32
0.0
 13
198.3118632902897
 23
500.3736482062771
 33
0.0
  0
SOLID
  5
522
330
51D
100
AcDbEntity
  8
0
 62
   123
100
AcDbTrace
 10
227.8118632902895
 20
500.7903148729439
 30
0.0
 11
227.8118632902895
 21
499.9569815396106
 31
0.0
 12
230.3118632902897
 22
500.3736482062771
 32
0.0
 13
230.3118632902897
 23
500.3736482062771
 33
0.0
  0
MTEXT
  5
523
330
51D
100
AcDbEntity
  8
0
 62
     3
100
AcDbMText
 10
214.3118632902897
 20
502.8736482062773
 30
0.0
 40
3.0
 41
0.0
 71
     5
 72
     1
  1
\A1;32
1001
ACAD
1000
MTEXTBEGIN
1070
    73
1070
     1
1070
    44
1040
1.0
1070
    74
1070
     0
1000
MTEXTEND
1000
MTEXTBEGIN
1070
    73
1070
     1
1070
    44
1040
1.0
1070
    74
1070
     0
1000
MTEXTEND
1000
MTEXTBEGIN
1070
    73
1070
     1
1070
    44
1040
1.0
1070
    74
1070
     0
1000
MTEXTEND
  0
POINT
  5
524
330
51D
100
AcDbEntity
  8
DEFPOINTS
 62
     0
100
AcDbPoint
 10
198.3118632902897
 20
480.5171565863355
 30
0.0
  0
POINT
  5
525
330
51D
100
AcDbEntity
  8
DEFPOINTS
 62
     0
100
AcDbPoint
 10
230.3118632902897
 20
480.5171565863355
 30
0.0
  0
POINT
  5
526
330
51D
100
AcDbEntity
  8
DEFPOINTS
 62
     0
100
AcDbPoint
 10
230.3118632902897
 20
500.3736482062771
 30
0.0
  0
ENDBLK
  5
528
330
51D
100
AcDbEntity
  8
0
100
AcDbBlockEnd
  0
ENDSEC
  0
SECTION
  2
ENTITIES
  0
LINE
  5
9D
330
2
100
AcDbEntity
  8
0
100
AcDbLine
 10
331.2817569399793
 20
40.82953178329808
 30
0.0
 11
331.2817569399793
 21
41.62953178329916
 31
0.0
  0
LINE
  5
9E
330
2
100
AcDbEntity
  8
0
100
AcDbLine
 10
335.2817569399758
 20
40.82953178329808
 30
0.0
 11
335.2817569399758
 21
41.62953178329916
 31
0.0
  0
LINE
  5
9F
330
2
100
AcDbEntity
  8
0
100
AcDbLine
 10
333.2817569399793
 20
40.82953178329808
 30
0.0
 11
333.2817569399793
 21
41.62953178329916
 31
0.0
  0
CIRCLE
  5
A0
330
2
100
AcDbEntity
  8
0
 48
0.6
100
AcDbCircle
 10
36.93493927080089
 20
66.15301466367327
 30
0.0
 40
36.5
  0
LINE
  5
A1
330
2
100
AcDbEntity
  8
0
100
AcDbLine
 10
158.2817569399758
 20
105.6295317832991
 30
0.0
 11
158.2817569399758
 21
26.62953178329916
 31
0.0
  0
LINE
  5
A2
330
2
100
AcDbEntity
  8
0
 48
0.6
100
AcDbLine
 10
76.93493927080999
 20
101.1295317832991
 30
0.0
 11
76.93493927080999
 21
31.12953178329917
 31
0.0
  0
LINE
  5
A3
330
2
100
AcDbEntity
  8
0
 48
0.6
100
AcDbLine
 10
-3.065060729190006
 20
101.1295317832991
 30
0.0
 11
-3.065060729190006
 21
31.12953178329917
 31
0.0
  0
LINE
  5
A4
102
{ACAD_REACTORS
330
A9
102
}
330
2
100
AcDbEntity
  8
CEN
 48
0.6
100
AcDbLine
 10
36.93493927080999
 20
18.95740857490318
 30
0.0
 11
36.93493927080999
 21
113.3016549916969
 31
0.0
  0
DIMENSION
  5
A7
102
{ACAD_XDICTIONARY
360
A8
102
}
102
{ACAD_REACTORS
330
A9
102
}
330
2
100
AcDbEntity
  8
0
100
AcDbDimension
  2
*D35
 10
36.93493927080999
 20
113.3016549916964
 30
0.0
 11
50.60770508051978
 21
6.987855752334334
 31
0.0
 70
   162
  3
STANDARD
100
AcDb2LineAngularDimension
 13
53.50348176573061
 23
26.12953178329917
 33
0.0
 14
36.93493927080999
 24
66.12953178329917
 34
0.0
 15
36.93493927080999
 25
18.95740857490318
 35
0.0
 16
44.85808596573373
 26
5.947257689597059
 36
0.0
1001
ACAD
1000
DSTYLE
1002
{
1070
   271
1070
     1
1070
   179
1070
     1
1070
   271
1070
     0
1070
   271
1070
     1
1070
   271
1070
     1
1070
   271
1070
     1
1070
   271
1070
     1
1070
   271
1070
     1
1002
}
  0
INSERT
  5
BA
330
2
100
AcDbEntity
  8
0
100
AcDbBlockReference
  2
5
 10
36.90468754518951
 20
66.12953178330053
 30
0.0
  0
LINE
  5
D8
102
{ACAD_REACTORS
330
A9
102
}
330
2
100
AcDbEntity
  8
CEN
 48
0.6
100
AcDbLine
 10
53.50348176573061
 20
26.12953178329917
 30
0.0
 11
36.93493927080999
 21
66.12953178329917
 31
0.0
  0
LINE
  5
D9
102
{ACAD_REACTORS
330
175
102
}
330
2
100
AcDbEntity
  8
0
100
AcDbLine
 10
328.2817569399793
 20
104.0995317832994
 30
0.0
 11
328.2817569399793
 21
28.15953178329801
 31
0.0
  0
LINE
  5
DA
330
2
100
AcDbEntity
  8
0
100
AcDbLine
 10
276.2817569399794
 20
106.5295317832992
 30
0.0
 11
276.2817569399794
 21
25.72953178329953
 31
0.0
  0
LINE
  5
DB
330
2
100
AcDbEntity
  8
0
100
AcDbLine
 10
198.2817569399758
 20
106.1295317833004
 30
0.0
 11
198.2817569399758
 21
26.12953178329917
 31
0.0
  0
LINE
  5
DC
330
2
100
AcDbEntity
  8
0
100
AcDbLine
 10
204.3817569399779
 20
106.1295317833004
 30
0.0
 11
204.3817569399779
 21
26.12953178329917
 31
0.0
  0
DIMENSION
  5
DD
102
{ACAD_XDICTIONARY
360
DE
102
}
102
{ACAD_REACTORS
330
DF
102
}
330
2
100
AcDbEntity
  8
0
100
AcDbDimension
  2
*D34
 10
361.3689693280594
 20
26.62762411106312
 30
0.0
 11
361.3689693280594
 21
66.52131684648884
 31
0.0
 70
   160
  1
%%C<>
  3
STANDARD
100
AcDbAlignedDimension
 13
326.7820963448903
 23
105.6314394555343
 33
0.0
 14
326.7820963448903
 24
26.62762411106314
 34
0.0
 50
90.0
100
AcDbRotatedDimension
  0
LINE
  5
EC
330
2
100
AcDbEntity
  8
0
 48
0.6
100
AcDbLine
 10
1.934939270809991
 20
26.12953178329917
 30
0.0
 11
71.93493927080999
 21
26.12953178329917
 31
0.0
  0
ARC
  5
ED
330
2
100
AcDbEntity
  8
0
 48
0.6
100
AcDbCircle
 10
1.934939270809991
 20
31.12953178329917
 30
0.0
 40
5.0
100
AcDbArc
 50
180.0
 51
270.0
  0
LINE
  5
EE
330
2
100
AcDbEntity
  8
0
 48
0.6
100
AcDbLine
 10
56.38712723436945
 20
26.12953178329917
 30
0.0
 11
50.64607700785018
 21
26.12953178329917
 31
0.0
  0
ARC
  5
EF
330
2
100
AcDbEntity
  8
0
 48
0.6
100
AcDbCircle
 10
87.18004676533928
 20
40.44008443183929
 30
0.0
 40
39.15579199999999
100
AcDbArc
 50
201.4369589999595
 51
205.6205866778139
  0
LINE
  5
F0
330
2
100
AcDbEntity
  8
0
100
AcDbLine
 10
51.27456256683945
 20
23.24176874170916
 30
0.0
 11
57.76032230935925
 21
26.12953178329917
 31
0.0
  0
ARC
  5
F1
330
2
100
AcDbEntity
  8
0
 48
0.6
100
AcDbCircle
 10
87.94281838430107
 20
40.80116618161581
 30
0.0
 40
40.655792
100
AcDbArc
 50
205.5608116567376
 51
217.572365246424
  0
ARC
  5
F2
330
2
100
AcDbEntity
  8
0
 48
0.6
100
AcDbCircle
 10
88.3136134722099
 20
40.94480125318704
 30
0.0
 40
33.95579199999998
100
AcDbArc
 50
205.86871404083
 51
220.5962187217288
  0
LWPOLYLINE
  5
F3
330
2
100
AcDbEntity
  8
0
100
AcDbPolyline
 90
      548
 70
     0
 43
0.0
 10
55.71969485245062
 20
16.01077019852209
 10
55.72271026756972
 20
16.02534361330663
 10
55.7262587189016
 20
16.04200330197543
 10
55.72988613708003
 20
16.05855634744101
 10
55.73359226735011
 20
16.07500310557407
 10
55.7373768549696
 20
16.09134393225031
 10
55.74123964517093
 20
16.1075791833391
 10
55.74518038319002
 20
16.12370921471529
 10
55.74919881428105
 20
16.13973438225
 10
55.75329468368181
 20
16.15565504182086
 10
55.75746773663013
 20
16.17147154929442
 10
55.76171771838017
 20
16.18718426054738
 10
55.76604437416063
 20
16.20279353144997
 10
55.77044744922023
 20
16.21829971787928
 10
55.77492668881132
 20
16.23370317570334
 10
55.7794818381517
 20
16.24900426079739
 10
55.78411264251008
 20
16.26420332903535
 10
55.78881884710972
 20
16.27930073628703
 10
55.79360019720116
 20
16.2942968384259
 10
55.79845643803128
 20
16.30919199133177
 10
55.8033873148397
 20
16.32398655086626
 10
55.80839257286061
 20
16.3386808729083
 10
55.81347195734998
 20
16.35327531333359
 10
55.81862521354015
 20
16.36777022800834
 10
55.82385208666892
 20
16.38216597280915
 10
55.82915232200139
 20
16.39646290360815
 10
55.83452566476079
 20
16.41066137627831
 10
55.83997186019042
 20
16.42476174669218
 10
55.84549065353893
 20
16.43876437072322
 10
55.85108179005146
 20
16.45266960424533
 10
55.85674501496033
 20
16.46647780312741
 10
55.86248007351059
 20
16.48018932324748
 10
55.86828671096009
 20
16.49380452047353
 10
55.87416467253206
 20
16.50732375068172
 10
55.88011370346976
 20
16.52074736974418
 10
55.88613354902008
 20
16.53407573353251
 10
55.89222395444085
 20
16.547309197922
 10
55.89838466494986
 20
16.56044811878337
 10
55.90461542580124
 20
16.57349285198961
 10
55.91091598224011
 20
16.58644375341507
 10
55.91728607950972
 20
16.59930117893052
 10
55.92372546284059
 20
16.61206548441122
 10
55.93023387749052
 20
16.62473702572833
 10
55.93681106869007
 20
16.63731615875394
 10
55.94345678168065
 20
16.64980323936331
 10
55.95017076172006
 20
16.66219862342768
 10
55.95695275404068
 20
16.6745026668209
 10
55.96380250388211
 20
16.68671572541279
 10
55.9707197564894
 20
16.69883815508137
 10
55.97770425710951
 20
16.71087031169736
 10
55.98475575098017
 20
16.7228125511301
 10
55.99187398334106
 20
16.73466522925808
 10
55.99905869944088
 20
16.74642870194793
 10
56.0063096445192
 20
16.75810332507899
 10
56.01362656381934
 20
16.76968945451926
 10
56.02100920258997
 20
16.78118744614403
 10
56.02845730605984
 20
16.79259765582718
 10
56.03597061948129
 20
16.8039204394372
 10
56.04354888810121
 20
16.81515615285252
 10
56.05119185714102
 20
16.82630515194296
 10
56.05889927186945
 20
16.83736779258015
 10
56.06667087750974
 20
16.84834443063709
 10
56.07450641931972
 20
16.85923542199134
 10
56.08240564253174
 20
16.87004112250952
 10
56.09036829238175
 20
16.88076188806735
 10
56.09839411412941
 20
16.8913980745383
 10
56.10648285300158
 20
16.90195003779398
 10
56.11463425426155
 20
16.9124181337115
 10
56.12284806313073
 20
16.92280271815389
 10
56.13112402485057
 20
16.93310414700363
 10
56.13946188468069
 20
16.94332277612966
 10
56.14786138786076
 20
16.95345896140543
 10
56.15632227961942
 20
16.9635130587053
 10
56.16484430521087
 20
16.97348542389636
 10
56.17342720986925
 20
16.9833764128607
 10
56.18207073883969
 20
16.9931863814604
 10
56.19077463738175
 20
17.0029156855785
 10
56.19953865070964
 20
17.01256468108113
 10
56.20836252407935
 20
17.02213372384449
 10
56.21724600273957
 20
17.03162316973839
 10
56.22618883191901
 20
17.0410333746372
 10
56.2351907568809
 20
17.0503646944162
 10
56.24425152283947
 20
17.05961748494564
 10
56.25337087505979
 20
17.06879210209808
 10
56.26254855878142
 20
17.07788890174742
 10
56.2717843192404
 20
17.08690823976666
 10
56.28107790166904
 20
17.09585047202927
 10
56.29042905133065
 20
17.10471595440549
 10
56.29983751345935
 20
17.11350504276968
 10
56.30930303330206
 20
17.12221809299535
 10
56.31882535608927
 20
17.13085546095499
 10
56.32840422706976
 20
17.1394175025207
 10
56.33803939149038
 20
17.1479045735673
 10
56.34773059459075
 20
17.15631702996324
 10
56.35747758161051
 20
17.16465522758972
 10
56.36728009780018
 20
17.17291952230925
 10
56.37713788839029
 20
17.18111027000122
 10
56.38705069863135
 20
17.18922782653725
 10
56.39701827377028
 20
17.19727254779034
 10
56.40704035903945
 20
17.20524478963125
 10
56.41711669968026
 20
17.21314490793474
 10
56.42724704094144
 20
17.22097325857385
 10
56.43743112806987
 20
17.2287301974211
 10
56.44766870630157
 20
17.23641608034994
 10
56.45795952088157
 20
17.24403126323204
 10
56.46830331704041
 20
17.25157610194128
 10
56.47869984003953
 20
17.25905095234884
 10
56.48914883511134
 20
17.26645617032818
 10
56.49965004750082
 20
17.27379211175502
 10
56.5102032224513
 20
17.28105913249735
 10
56.52080810520057
 20
17.2882575884323
 10
56.53146444099002
 20
17.29538783543148
 10
56.54217197507023
 20
17.30245022936424
 10
56.55293045268082
 20
17.30944512610995
 10
56.56373961906139
 20
17.31637288153433
 10
56.57459921946065
 20
17.3232338515163
 10
56.58550899911095
 20
17.33002839192522
 10
56.59646870327015
 20
17.33675685863452
 10
56.6074780771596
 20
17.34341960751816
 10
56.61853686603897
 20
17.3500169944491
 10
56.62964481514062
 20
17.35654937529716
 10
56.64080166972054
 20
17.36301710594169
 10
56.6520071750001
 20
17.3694205422471
 10
56.66326107623899
 20
17.37576004009315
 10
56.67456311868043
 20
17.38203595534832
 10
56.68591304756046
 20
17.38824864388698
 10
56.69731060811864
 20
17.39439846158302
 10
56.70875554560189
 20
17.40048576430807
 10
56.72024760525165
 20
17.40651090793426
 10
56.73178653230934
 20
17.41247424833817
 10
56.74337207202007
 20
17.4183761413883
 10
56.75500396961979
 20
17.4242169429599
 10
56.76668197036088
 20
17.42999700892323
 10
56.7784058194811
 20
17.43571669515677
 10
56.79017526223105
 20
17.44137635752713
 10
56.80199004383212
 20
17.44697635190914
 10
56.81384990955121
 20
17.45251703417715
 10
56.82575460460975
 20
17.45799876020281
 10
56.83770387426012
 20
17.46342188585913
 10
56.849697463751
 20
17.46878676701816
 10
56.8617351183202
 20
17.47409375955658
 10
56.87381658320191
 20
17.47934321934008
 10
56.88594160365028
 20
17.48453550224849
 10
56.89810992490128
 20
17.48967096415207
 10
56.91032129220184
 20
17.4947499609234
 10
56.92257545078064
 20
17.49977284843406
 10
56.93487214590096
 20
17.50473998256028
 10
56.94721112280058
 20
17.5096517191705
 10
56.95959212671004
 20
17.51450841414225
 10
56.97201490287988
 20
17.51931042334445
 10
56.98447919655154
 20
17.52405810265235
 10
56.99698475296099
 20
17.52875180793942
 10
57.00953131736969
 20
17.53339189507414
 10
57.02211863500089
 20
17.53797871993492
 10
57.03474645109963
 20
17.54251263839205
 10
57.04741451092013
 20
17.54699400631625
 10
57.06012255969106
 20
17.55142317958416
 10
57.07287034267029
 20
17.55580051406695
 10
57.085657605081
 20
17.56012636563944
 10
57.09848409218102
 20
17.56440109016966
 10
57.11134954921
 20
17.5686250435333
 10
57.12425372140025
 20
17.57279858160518
 10
57.13719635401139
 20
17.57692206025602
 10
57.15017719228125
 20
17.5809958353575
 10
57.16319598142945
 20
17.58502026278438
 10
57.17625246673015
 20
17.5889956984106
 10
57.18934639341021
 20
17.59292249810505
 10
57.20247750672022
 20
17.5968010177462
 10
57.21564555189071
 20
17.60063161320113
 10
57.2288502741685
 20
17.60441464034419
 10
57.24209141880056
 20
17.60815045505341
 10
57.2553687310301
 20
17.61183941319312
 10
57.26868195608949
 20
17.61548187064227
 10
57.28203083923109
 20
17.61907818327427
 10
57.29541512570175
 20
17.62262870695711
 10
57.30883456073025
 20
17.62613379756749
 10
57.3222888895598
 20
17.62959381097562
 10
57.33577785745001
 20
17.63300910305813
 10
57.34930120962054
 20
17.63638002968217
 10
57.36285869133098
 20
17.63970694672571
 10
57.37645004781914
 20
17.64299021006126
 10
57.39007502433015
 20
17.64623017555823
 10
57.40373336609991
 20
17.6494271990923
 10
57.4174248183699
 20
17.65258163653607
 10
57.43114912639065
 20
17.65569384376157
 10
57.44490603540179
 20
17.65876417664046
 10
57.45869529064112
 20
17.66179299104851
 10
57.47251663736097
 20
17.66478064285502
 10
57.48636982079005
 20
17.667727487938
 10
57.50025458618075
 20
17.67063388216637
 10
57.51417067878174
 20
17.67350018141223
 10
57.52811784381083
 20
17.67632674155264
 10
57.5420958265404
 20
17.67911391845609
 10
57.55610437219003
 20
17.68186206799919
 10
57.57014322601936
 20
17.68457154604902
 10
57.58421213326073
 20
17.68724270848542
 10
57.59831083916107
 20
17.68987591117729
 10
57.61243908895085
 20
17.69247150999717
 10
57.62659662788974
 20
17.69502986082125
 10
57.64078320121007
 20
17.69755131951706
 10
57.65499855416056
 20
17.70003624196442
 10
57.66924243198082
 20
17.70248498402952
 10
57.68351457991048
 20
17.70489790158898
 10
57.6978147432019
 20
17.70727535051264
 10
57.71214266708009
 20
17.70961768667802
 10
57.72649809680114
 20
17.7119252659545
 10
57.74088077760096
 20
17.71419844421552
 10
57.75529045473013
 20
17.71643757733453
 10
57.76972687341913
 20
17.71864302118455
 10
57.78418977892943
 20
17.72081513163539
 10
57.79867891648971
 20
17.72295426456503
 10
57.81319403133057
 20
17.72506077584329
 10
57.82773486872065
 20
17.72713502134138
 10
57.84230117389054
 20
17.72917735693818
 10
57.85689269206886
 20
17.73118813850032
 10
57.8715091685317
 20
17.73316772190081
 10
57.88615034848043
 20
17.73511646301676
 10
57.90081597719108
 20
17.73703471771841
 10
57.91550579988871
 20
17.73892284188014
 10
57.9302195618311
 20
17.7407811913731
 10
57.94495700823972
 20
17.74261012206989
 10
57.95971788436871
 20
17.74440998984619
 10
57.97450193546136
 20
17.74618115057092
 10
57.98930890676093
 20
17.7479239601198
 10
58.00413854349972
 20
17.74963877436492
 10
58.01899059093011
 20
17.7513259491793
 10
58.03386479430082
 20
17.75298584043455
 10
58.04876089884055
 20
17.75461880400553
 10
58.06367864978892
 20
17.7562251957647
 10
58.07861779241102
 20
17.75780537158107
 10
58.09357807193009
 20
17.75935968733437
 10
58.1085592335894
 20
17.7608884988922
 10
58.12356102263946
 20
17.76239216212752
 10
58.13858318431084
 20
17.76387103291653
 10
58.15362546386133
 20
17.76532546713224
 10
58.16868760653051
 20
17.76675582064126
 10
58.18376935755077
 20
17.76816244932342
 10
58.198870462169
 20
17.76954570904718
 10
58.21399066563025
 20
17.77090595568823
 10
58.22912971318146
 20
17.77224354511826
 10
58.24428735005131
 20
17.77355883320705
 10
58.25946332149031
 20
17.77485217583353
 10
58.27465737275088
 20
17.77612392886703
 10
58.28986924905985
 20
17.77737444818194
 10
58.3050986956605
 20
17.77860408964807
 10
58.32034545781063
 20
17.77981320914112
 10
58.33560928072984
 20
17.78100216253323
 10
58.35088990968142
 20
17.78217130569782
 10
58.36618708990136
 20
17.78332099450653
 10
58.38150056663106
 20
17.78445158483009
 10
58.39683008511021
 20
17.7855634325474
 10
58.41217539058016
 20
17.78665689352829
 10
58.42753622828968
 20
17.78773232364255
 10
58.4429123434802
 20
17.78879007876685
 10
58.45830348138952
 20
17.78983051477234
 10
58.47370938726999
 20
17.79085398753339
 10
58.48912980635032
 20
17.79186085292212
 10
58.50456448389014
 20
17.79285146680968
 10
58.52001316511087
 20
17.79382618507225
 10
58.53547559526851
 20
17.79478536357828
 10
58.55095151960996
 20
17.79572935820396
 10
58.56644068336027
 20
17.79665852482321
 10
58.58194283176999
 20
17.79757321930627
 10
58.59745771010057
 20
17.79847379752618
 10
58.61298506356071
 20
17.79936061535817
 10
58.62852463742092
 20
17.80023402867027
 10
58.64407617690996
 20
17.80109439334045
 10
58.65963942728011
 20
17.80194206523856
 10
58.67521413376016
 20
17.8027774002371
 10
58.6908000416006
 20
17.8036007542123
 10
58.70639689603923
 20
17.80441248303441
 10
58.72200444231928
 20
17.80521294257869
 10
58.73762242570046
 20
17.80600248871269
 10
58.7532505914005
 20
17.80678147731305
 10
58.76888868468086
 20
17.80755026425322
 10
58.78453645075932
 20
17.80830920540438
 10
58.80019363491009
 20
17.8090586566409
 10
58.81585998235095
 20
17.80979897383395
 10
58.83153523833971
 20
17.81053051285923
 10
58.84721914811052
 20
17.81125362958528
 10
58.86291145691028
 20
17.8119686798891
 10
58.87861190998044
 20
17.81267601963918
 10
58.89432025256065
 20
17.81337600471351
 10
58.91003622989046
 20
17.81406899098101
 10
58.92575958722044
 20
17.8147553343151
 10
58.94149006979024
 20
17.81543539059248
 10
58.95722742283942
 20
17.81610951567927
 10
58.97297139161857
 20
17.8167780654553
 10
58.98872172135998
 20
17.81744139578813
 10
59.00447815731059
 20
17.8180998625521
 10
59.02024044471909
 20
17.81875382162206
 10
59.03600832881966
 20
17.81940362886826
 10
59.0517815548501
 20
17.82004964016503
 10
59.06755986807002
 20
17.82069221138407
 10
59.08334301370087
 20
17.82133169840017
 10
59.09913073700955
 20
17.82196845708357
 10
59.11492278321929
 20
17.82260284330914
 10
59.13071889756975
 20
17.82323521294893
 10
59.1465188253187
 20
17.82386592187729
 10
59.16232231171125
 20
17.82449532596547
 10
59.17812910196881
 20
17.82512378108729
 10
59.19393894135101
 20
17.82575164311128
 10
59.20975157509019
 20
17.82637926791721
 10
59.22556674844054
 20
17.82700701137536
 10
59.24138420663076
 20
17.82763522935645
 10
59.25720369490953
 20
17.82826427773398
 10
59.27302495853109
 20
17.82889451238179
 10
59.28884774271864
 20
17.82952628917337
 10
59.3046717927191
 20
17.83015996398217
 10
59.32049685379024
 20
17.83079589267799
 10
59.33632267116081
 20
17.83143443113748
 10
59.35214899007042
 20
17.8320759352282
 10
59.36797555576958
 20
17.83272076082721
 10
59.38380211349977
 20
17.83336926380842
 10
59.39962840850057
 20
17.83402180003941
 10
59.41545418600981
 20
17.83467872539812
 10
59.43127919128166
 20
17.83534039575532
 10
59.44710316955205
 20
17.83600716698082
 10
59.46292586606069
 20
17.83667939495535
 10
59.47874702605986
 20
17.83735743554551
 10
59.49456639478921
 20
17.8380416446248
 10
59.5103837174811
 20
17.83873237806799
 10
59.52619873938056
 20
17.83942999174541
 10
59.54201120573998
 20
17.84013484153319
 10
59.55782086180079
 20
17.84084728330299
 10
59.57362745280079
 20
17.84156767292506
 10
59.58943072396869
 20
17.84229636627606
 10
59.60523042058047
 20
17.84303371922578
 10
59.62102628785032
 20
17.84378008764952
 10
59.63681807103057
 20
17.84453582741798
 10
59.65260551535175
 20
17.84530129440509
 10
59.66838836608076
 20
17.84607684448564
 10
59.68416636844086
 20
17.84686283352812
 10
59.69993926768075
 20
17.84765961740822
 10
59.71570680905097
 20
17.84846755200032
 10
59.73146873778024
 20
17.84928699317287
 10
59.74722479910997
 20
17.85011829680342
 10
59.76297473830164
 20
17.85096181875997
 10
59.77871830056938
 20
17.85181791491777
 10
59.79445523118193
 20
17.85268694115346
 10
59.8101852753698
 20
17.85356925333371
 10
59.82590817837991
 20
17.85446520733239
 10
59.84162368544094
 20
17.85537515902569
 10
59.8573315418198
 20
17.85629946428525
 10
59.87303149273976
 20
17.85723847898405
 10
59.88872328345133
 20
17.85819255899331
 10
59.9044066591905
 20
17.859162060186
 10
59.92008136520053
 20
17.86014733843739
 10
59.93574714674103
 20
17.86114874961639
 10
59.95140374902986
 20
17.86216664960011
 10
59.96705091731929
 20
17.86320139425924
 10
59.98268839685988
 20
17.86425333946636
 10
59.99831593288945
 20
17.86532284109535
 10
60.01393327064032
 20
17.86641025501737
 10
60.0295401553685
 20
17.86751593710913
 10
60.04513633230999
 20
17.86864024323949
 10
60.06072154671165
 20
17.86978352928007
 10
60.07629554381129
 20
17.87094615110982
 10
60.09185806885034
 20
17.87212846459623
 10
60.10740886707026
 20
17.87333082561689
 10
60.12294768371976
 20
17.87455359003843
 10
60.13847426404026
 20
17.875797113737
 10
60.15398835326959
 20
17.87706175258563
 10
60.16948969666009
 20
17.87834786245957
 10
60.18497803944047
 20
17.87965579922593
 10
60.20045312687035
 20
17.8809859187645
 10
60.21591470416932
 20
17.88233857694148
 10
60.23136251660071
 20
17.88371412963215
 10
60.24679630940045
 20
17.88511293271221
 10
60.26221582780089
 20
17.88653534205104
 10
60.27762081705986
 20
17.88798171352209
 10
60.29301102240971
 20
17.88945240300017
 10
60.30838618911002
 20
17.89094776635556
 10
60.32374606236952
 20
17.89246815946126
 10
60.3390903874606
 20
17.89401393819253
 10
60.35441890961919
 20
17.8955854584201
 10
60.36973137407949
 20
17.89718307601833
 10
60.38502752609018
 20
17.89880714686021
 10
60.40030711090185
 20
17.90045802681697
 10
60.41556987373041
 20
17.90213607176019
 10
60.43081555985009
 20
17.90384163756653
 10
60.44604391448046
 20
17.90557508010532
 10
60.46125468288118
 20
17.90733675525234
 10
60.47644761028095
 20
17.90912701888055
 10
60.49162244193031
 20
17.91094622686114
 10
60.50677892306885
 20
17.91279473506529
 10
60.52191679893076
 20
17.91467289937054
 10
60.53703581478111
 20
17.91658107564308
 10
60.55213571584136
 20
17.91851961976226
 10
60.56721624736019
 20
17.92048888759745
 10
60.58227715458087
 20
17.92248923502302
 10
60.5973181827394
 20
17.92452101791104
 10
60.61233907710084
 20
17.92658459213589
 10
60.62733958288117
 20
17.92868031356738
 10
60.64231944534004
 20
17.93080853808032
 10
60.65727840970976
 20
17.93296962154818
 10
60.67221622123178
 20
17.93516391984347
 10
60.6871326251603
 20
17.93739178883696
 10
60.70202736673127
 20
17.93965358440344
 10
60.71690019118069
 20
17.94194966241684
 10
60.73175084376089
 20
17.94428037874602
 10
60.74657906970969
 20
17.94664608926905
 10
60.76138461427035
 20
17.94904714985432
 10
60.77616722268068
 20
17.9514839163794
 10
60.79092664018935
 20
17.95395674471046
 10
60.80566261203967
 20
17.95646599072414
 10
60.82037488348031
 20
17.95901201029528
 10
60.83506319974002
 20
17.96159515929321
 10
60.84972730606023
 20
17.96421579359594
 10
60.86436694770053
 20
17.9668742690701
 10
60.87898186988059
 20
17.96957094159052
 10
60.89357181785999
 20
17.97230616703062
 10
60.90813653688019
 20
17.97508030126437
 10
60.9226757721808
 20
17.97789370016334
 10
60.93718926900146
 20
17.98074671960103
 10
60.95167677258178
 20
17.98363971544721
 10
60.96613802817046
 20
17.9865730435813
 10
60.98057278101078
 20
17.98954705987034
 10
60.99498077634052
 20
17.99256212018826
 10
61.00936175941024
 20
17.99561858040942
 10
61.02371547545043
 20
17.99871679640682
 10
61.03804166972079
 20
18.00185712405118
 10
61.052340087439
 20
18.00503991921869
 10
61.06661047387024
 20
18.00826553777732
 10
61.08085257423955
 20
18.01153433560421
 10
61.09506613381018
 20
18.01484666857139
 10
61.10925089781085
 20
18.01820289255055
 10
61.12340661147936
 20
18.02160336341648
 10
61.1375330200699
 20
18.02504843703717
 10
61.15162986882022
 20
18.02853846929109
 10
61.16569690297001
 20
18.03207381605034
 10
61.17973386776974
 20
18.03565483318378
 10
61.19374050845181
 20
18.03928187656856
 10
61.20771657026125
 20
18.04295530207491
 10
61.22166179844136
 20
18.04667546557721
 10
61.23557593824078
 20
18.05044272294844
 10
61.24945873490105
 20
18.05425743006026
 10
61.26330993365082
 20
18.05811994278292
 10
61.27712927974972
 20
18.06203061699624
 10
61.29091651843008
 20
18.06598980856914
 10
61.30467139493885
 20
18.0699978733719
 10
61.31839365451924
 20
18.07405516728294
 10
61.33208304239997
 20
18.0781620461712
 10
61.34573930385156
 20
18.08231886590783
 10
61.35936218409006
 20
18.08652598237357
 10
61.37295142836956
 20
18.09078375143098
 10
61.38650678192971
 20
18.09509252896076
 10
61.40002799002104
 20
18.09945267083094
 10
61.41351479787954
 20
18.10386453291902
 10
61.42696695074119
 20
18.10832847109532
 10
61.44038419386014
 20
18.11284484123143
 10
61.4537662724706
 20
18.11741399920038
 10
61.46711293181033
 20
18.12203630087605
 10
61.4804239171408
 20
18.12671210213419
 10
61.49369897368888
 20
18.13144175884008
 10
61.50693784670147
 20
18.1362256268753
 10
61.52014028142001
 20
18.14106406210749
 10
61.53330602308961
 20
18.1459574204091
 10
61.54643481695166
 20
18.15090605765726
 10
61.55952640825126
 20
18.15591032972042
 10
61.57258054222076
 20
18.16097059247521
 10
61.58559696411976
 20
18.16608720179056
 10
61.59857541916972
 20
18.17126051354033
 10
61.61151565263207
 20
18.17649088359894
 10
61.62441740973008
 20
18.18177866784026
 10
61.63728043573065
 20
18.18712422213092
 10
61.65010447586064
 20
18.19252790235212
 10
61.66288927536152
 20
18.19799006437369
 10
61.67563457948017
 20
18.20351106406405
 10
61.68834013345986
 20
18.20909125730439
 10
61.70100568254021
 20
18.21473099995819
 10
61.71363097195899
 20
18.22043064790523
 10
61.72621574698132
 20
18.22619055701625
 10
61.73875975281951
 20
18.23201108316196
 10
61.75126273473143
 20
18.23789258221903
 10
61.76372443796026
 20
18.24383541005818
 10
61.77614460774019
 20
18.24983992255237
 10
61.78852298933088
 20
18.25590647557373
 10
61.80085932796099
 20
18.26203542499613
 10
61.81315336887019
 20
18.26822712669353
 10
61.82540485731077
 20
18.27448193653617
 10
61.83761353850968
 20
18.28080021039976
 10
61.84977915773014
 20
18.28718230415505
 10
61.86190146020999
 20
18.29362857367596
 10
61.87398019118155
 20
18.30013937483454
 10
61.88601509588989
 20
18.30671506350335
 10
61.89800591959103
 20
18.31335599555632
 10
61.9099524075009
 20
18.32006252686506
 10
61.92185430489008
 20
18.32683501330437
 10
61.93371135697998
 20
18.33367381074639
 10
61.94552330903025
 20
18.34057927506455
 10
61.95728990626958
 20
18.34755176212637
 10
61.96901089395033
 20
18.35459162781353
 10
61.9806860173012
 20
18.36169922799126
 10
61.99231502157999
 20
18.36887491853804
 10
62.00389765202999
 20
18.37611905532457
 10
62.0154336538817
 20
18.38343199422023
 10
62.02692277238019
 20
18.39081409110212
 10
62.03836475276876
 20
18.3982657018423
 10
62.04975934030153
 20
18.40578718231427
 10
62.06110628019995
 20
18.41337888838823
 10
62.07240531772004
 20
18.42104117594135
 10
62.08365619811047
 20
18.42877440084203
 10
62.09485866660179
 20
18.43657891896508
 10
62.10601246842998
 20
18.44445508618309
 10
62.11711734886012
 20
18.45240325836812
 10
62.12817305311911
 20
18.46042379139498
 10
62.1391793264611
 20
18.46851704113623
 10
62.15013591411114
 20
18.47668336346396
 10
62.16104256131075
 20
18.4849231142516
 10
62.1718990133304
 20
18.49323664937037
 10
62.18270501538063
 20
18.50162432469415
 10
62.19346031273015
 20
18.51008649609548
 10
62.20416465060043
 20
18.51862351944919
 10
62.21481777424013
 20
18.52723575062599
 10
62.22541942890164
 20
18.53592354549618
 10
62.23596935981913
 20
18.5446872599382
 10
62.24646731223039
 20
18.55352724982322
 10
62.25691303138956
 20
18.56244387102195
 10
62.26730626253993
 20
18.57143747941197
 10
62.2776467509102
 20
18.58050843085901
 10
62.28793424175091
 20
18.58965708124014
 10
62.29816848030168
 20
18.59888378642789
 10
62.30834921180029
 20
18.60818890229529
 10
62.31847618150094
 20
18.61757278471532
 10
62.32854913465235
 20
18.62703578955914
 10
62.33856781646863
 20
18.63657827270253
 10
62.34853197222037
 20
18.64620059001526
 10
62.35844134713079
 20
18.65590309737354
 10
62.36829568646135
 20
18.66568615064532
 10
62.37809473544075
 20
18.67555010570912
 10
62.38783823931044
 20
18.68549531843427
 10
62.3975259433191
 20
18.69552214469148
 10
62.40715759271006
 20
18.70563094036058
 10
62.41673293271924
 20
18.71582206130915
 10
62.42625170860081
 20
18.72609586341104
 10
62.4357136655799
 20
18.73645270253837
 10
62.44511854891062
 20
18.74689293456685
 10
62.45446610383078
 20
18.75741691536541
 10
62.46375607559094
 20
18.76802500080839
 10
62.47298820943067
 20
18.77871754677107
 10
62.48216225058058
 20
18.78949490912464
 10
62.49127794430203
 20
18.80035744374298
 10
62.50033503582017
 20
18.81130550649458
 10
62.50933327039092
 20
18.82233945325832
 10
62.51827239325212
 20
18.83345963990223
 10
62.52715214963973
 20
18.84466642230154
 10
62.53049660015131
 20
18.84894882090564
  0
LINE
  5
F4
330
2
100
AcDbEntity
  8
0
100
AcDbLine
 10
335.7817569399793
 20
40.82953178329808
 30
0.0
 11
335.781756939974
 21
24.78700900758576
 31
0.0
  0
LINE
  5
F5
330
2
100
AcDbEntity
  8
0
100
AcDbLine
 10
330.7817569399758
 20
40.82953178329808
 30
0.0
 11
330.7817569399758
 21
26.78700900758848
 31
0.0
  0
ARC
  5
F6
330
2
100
AcDbEntity
  8
0
100
AcDbCircle
 10
329.781756939974
 20
24.78700900758576
 30
0.0
 40
6.0
100
AcDbArc
 50
270.0
 51
0.0
  0
ARC
  5
F7
330
2
100
AcDbEntity
  8
0
100
AcDbCircle
 10
327.7817569399758
 20
26.78700900758848
 30
0.0
 40
3.0
100
AcDbArc
 50
270.0
 51
0.0
  0
LINE
  5
F8
330
2
100
AcDbEntity
  8
0
100
AcDbLine
 10
330.7817569399758
 20
40.82953178329808
 30
0.0
 11
335.7817569399793
 21
40.82953178329808
 31
0.0
  0
LINE
  5
F9
330
2
100
AcDbEntity
  8
0
100
AcDbLine
 10
328.2817569399793
 20
28.15953178329801
 30
0.0
 11
326.7820963448903
 21
26.62762411106314
 31
0.0
  0
LINE
  5
FA
330
2
100
AcDbEntity
  8
0
 62
   123
 48
0.6
100
AcDbLine
 10
198.7447942538581
 20
1.941716457583879
 30
0.0
 11
139.4906364265007
 21
1.941716457583879
 31
0.0
  0
TEXT
  5
FB
330
2
100
AcDbEntity
  8
DIM
100
AcDbText
 10
140.8606564774818
 20
3.941716457583877
 30
0.0
 40
3.5
  1
 LEAD WIRE 300mm
100
AcDbText
  0
LINE
  5
FD
330
2
100
AcDbEntity
  8
0
100
AcDbLine
 10
204.3817569399743
 20
26.12953178329917
 30
0.0
 11
158.7817569399794
 21
26.12953178329917
 31
0.0
  0
ARC
  5
FE
330
2
100
AcDbEntity
  8
0
100
AcDbCircle
 10
158.7817569399794
 20
26.62953178329916
 30
0.0
 40
0.5
100
AcDbArc
 50
180.0
 51
270.0
  0
ARC
  5
FF
330
2
100
AcDbEntity
  8
0
 48
0.6
100
AcDbCircle
 10
71.93493927080999
 20
31.12953178329917
 30
0.0
 40
5.0
100
AcDbArc
 50
270.0
 51
0.0
  0
LINE
  5
100
330
2
100
AcDbEntity
  8
0
100
AcDbLine
 10
205.2817569399794
 20
35.23079444177028
 30
0.0
 11
205.2817569399794
 21
27.53079444176909
 31
0.0
  0
LINE
  5
101
330
2
100
AcDbEntity
  8
0
100
AcDbLine
 10
198.2817569399758
 20
26.12953178329917
 30
0.0
 11
204.3817569399779
 21
26.12953178329917
 31
0.0
  0
LINE
  5
102
330
2
100
AcDbEntity
  8
0
100
AcDbLine
 10
214.7817569399758
 20
25.62953178329916
 30
0.0
 11
205.7817569399758
 21
25.62953178329916
 31
0.0
  0
ARC
  5
103
330
2
100
AcDbEntity
  8
0
100
AcDbCircle
 10
205.7817569399758
 20
26.12953178329917
 30
0.0
 40
0.5
100
AcDbArc
 50
180.0
 51
270.0
  0
LINE
  5
104
330
2
100
AcDbEntity
  8
0
100
AcDbLine
 10
205.2817569399794
 20
26.62953178329916
 30
0.0
 11
205.2817569399794
 21
26.12953178329917
 31
0.0
  0
LINE
  5
105
330
2
100
AcDbEntity
  8
0
100
AcDbLine
 10
204.3817569399779
 20
27.53079444176909
 30
0.0
 11
205.2817569399794
 21
27.53079444176909
 31
0.0
  0
ARC
  5
106
330
2
100
AcDbEntity
  8
0
100
AcDbCircle
 10
214.7817569399758
 20
26.12953178329917
 30
0.0
 40
0.5
100
AcDbArc
 50
270.0
 51
0.0
  0
LINE
  5
107
330
2
100
AcDbEntity
  8
0
100
AcDbLine
 10
215.2817569399794
 20
26.62953178329916
 30
0.0
 11
215.2817569399794
 21
26.12953178329917
 31
0.0
  0
ARC
  5
108
330
2
100
AcDbEntity
  8
0
 48
0.6
100
AcDbCircle
 10
246.5844789399779
 20
25.54088578329947
 30
0.0
 40
39.15579199999999
100
AcDbArc
 50
179.8702870000233
 51
183.6102158837779
  0
ARC
  5
109
330
2
100
AcDbEntity
  8
0
100
AcDbCircle
 10
211.0758056106441
 20
22.47924058384751
 30
0.0
 40
1.318158315128889
100
AcDbArc
 50
89.65642249345519
 51
172.1237927370686
  0
ARC
  5
10A
330
2
100
AcDbEntity
  8
0
 48
0.6
100
AcDbCircle
 10
246.8806848758704
 20
25.46549730744846
 30
0.0
 40
37.855792
100
AcDbArc
 50
179.8658330000312
 51
183.9724199931055
  0
ARC
  5
10B
330
2
100
AcDbEntity
  8
0
 48
0.6
100
AcDbCircle
 10
246.2919848867495
 20
25.62719689230516
 30
0.0
 40
35.255792
100
AcDbArc
 50
179.9962054631615
 51
182.9919319862273
  0
ARC
  5
10C
330
2
100
AcDbEntity
  8
0
 48
0.6
100
AcDbCircle
 10
246.5844789399779
 20
25.54088578329947
 30
0.0
 40
33.95579199999998
100
AcDbArc
 50
179.85042300002
 51
182.9607459492086
  0
LWPOLYLINE
  5
10D
330
2
100
AcDbEntity
  8
0
100
AcDbPolyline
 90
      467
 70
     0
 43
0.0
 10
212.9961137826583
 20
4.574816660218001
 10
212.9983120647309
 20
4.575891745999853
 10
213.0185563149777
 20
4.585693846640933
 10
213.0387757803589
 20
4.595385750511523
 10
213.0589705039791
 20
4.604967899828402
 10
213.0791405289499
 20
4.614440736795643
 10
213.0992858983871
 20
4.62380470363183
 10
213.1194066553987
 20
4.633060242541493
 10
213.1395028430968
 20
4.642207795740032
 10
213.1595745045913
 20
4.651247805437891
 10
213.1796216829996
 20
4.660180713844561
 10
213.199644421426
 20
4.66900696317321
 10
213.2196427629831
 20
4.677726995632442
 10
213.239616750782
 20
4.686341253437201
 10
213.2595664279385
 20
4.694850178796112
 10
213.2794918375592
 20
4.70325421392095
 10
213.2993930227555
 20
4.711553801023051
 10
213.3192700266415
 20
4.719749382313749
 10
213.3391228923236
 20
4.727841400003909
 10
213.3589516629188
 20
4.735830296302143
 10
213.3787563815392
 20
4.743716513426131
 10
213.398537091291
 20
4.751500493579952
 10
213.4182938352831
 20
4.759182678979469
 10
213.4380266566339
 20
4.766763511834653
 10
213.4577355984518
 20
4.774243434355013
 10
213.477420703847
 20
4.781622888755062
 10
213.4970820159348
 20
4.7889023172425
 10
213.5167195778219
 20
4.796082162030921
 10
213.5363334326182
 20
4.803162865329851
 10
213.5559236234391
 20
4.810144869352421
 10
213.5754901933949
 20
4.817028616309981
 10
213.595033185599
 20
4.82381454840975
 10
213.614552643156
 20
4.830503107867173
 10
213.6340486091838
 20
4.837094736891742
 10
213.6535211267916
 20
4.843589877693431
 10
213.67297023909
 20
4.849988972486751
 10
213.6923959891925
 20
4.856292463480773
 10
213.7117984202057
 20
4.862500792887264
 10
213.7311775752467
 20
4.868614402914372
 10
213.7505334974237
 20
4.874633735777081
 10
213.7698662298469
 20
4.880559233686711
 10
213.7891758156281
 20
4.886391338852773
 10
213.8084622978793
 20
4.892130493484783
 10
213.8277257197103
 20
4.897777139798622
 10
213.8469661242385
 20
4.903331720001971
 10
213.8661835545669
 20
4.908794676307079
 10
213.8853780538126
 20
4.914166450924821
 10
213.9045496650821
 20
4.919447486064711
 10
213.9236984314889
 20
4.924638223941713
 10
213.9428243961491
 20
4.929739106764881
 10
213.9619276021664
 20
4.934750576745551
 10
213.9810080926551
 20
4.93967307609506
 10
214.000065910727
 20
4.944507047024722
 10
214.0191010994902
 20
4.949252931744523
 10
214.0381137020638
 20
4.953911172466693
 10
214.0571037615489
 20
4.958482211402551
 10
214.0760713210664
 20
4.962966490762991
 10
214.0950164237189
 20
4.967364452759341
 10
214.1139391126241
 20
4.971676539602921
 10
214.1328394308919
 20
4.975903193504621
 10
214.1517174216303
 20
4.980044856676672
 10
214.1705731279532
 20
4.984101971327668
 10
214.1894065929724
 20
4.988074979671693
 10
214.2082178597982
 20
4.991964323919601
 10
214.2270069715439
 20
4.99577044628
 10
214.2457739713124
 20
4.999493788965589
 10
214.2645189022285
 20
5.003134794187703
 10
214.2832418073929
 20
5.006693904159471
 10
214.301942729923
 20
5.010171561087702
 10
214.3206217129252
 20
5.013568207186891
 10
214.339278799515
 20
5.016884284668832
 10
214.3579140328009
 20
5.020120235743031
 10
214.3765274558926
 20
5.023276502618103
 10
214.3951191119037
 20
5.026353527511274
 10
214.4136890439519
 20
5.029351752627523
 10
214.4322372951343
 20
5.032271620182712
 10
214.4507639085739
 20
5.035113572386821
 10
214.4692689273803
 20
5.037878051449811
 10
214.4877523946585
 20
5.040565499585284
 10
214.5062143535258
 20
5.043176359000943
 10
214.5246548470921
 20
5.045711071908551
 10
214.5430739184674
 20
5.048170080523103
 10
214.5614716107673
 20
5.050553827054103
 10
214.5798479670908
 20
5.052862753709693
 10
214.5982030305645
 20
5.055097302702561
 10
214.6165368442933
 20
5.057257916245872
 10
214.634849451383
 20
5.059345036548672
 10
214.6531408949547
 20
5.06135910582458
 10
214.671411218115
 20
5.063300566282633
 10
214.689660463972
 20
5.065169860135082
 10
214.7078886756433
 20
5.066967429591901
 10
214.726095896235
 20
5.06869371686304
 10
214.7442821688626
 20
5.070349164163933
 10
214.7624475366308
 20
5.071934213703624
 10
214.7805920426606
 20
5.073449307692551
 10
214.7987157300547
 20
5.074894888343861
 10
214.8168186419304
 20
5.07627139786569
 10
214.8349008213961
 20
5.077579278469841
 10
214.8529623115579
 20
5.078818972372172
 10
214.8710031555391
 20
5.07999092177675
 10
214.88902339644
 20
5.081095568902183
 10
214.9070230773748
 20
5.082133355952971
 10
214.9250022414606
 20
5.083104725143643
 10
214.9429609318038
 20
5.084010118684601
 10
214.9608991915126
 20
5.084849978785372
 10
214.978817063708
 20
5.085624747663191
 10
214.9967145914841
 20
5.086334867523471
 10
215.014591817972
 20
5.086980780577561
 10
215.0324487862715
 20
5.087562929040874
 10
215.0502855394941
 20
5.088081755118363
 10
215.0681021207535
 20
5.088537701027743
 10
215.0858985731673
 20
5.088931208976703
 10
215.1036749398361
 20
5.089262721177023
 10
215.1214312638738
 20
5.089532679839122
 10
215.1391675883976
 20
5.089741527173432
 10
215.1568839565122
 20
5.089889705394002
 10
215.1745804113275
 20
5.089977656711712
 10
215.1922569959668
 20
5.090005823335161
 10
215.209913753523
 20
5.089974647477499
 10
215.2275507271231
 20
5.089884571349612
 10
215.2451679598733
 20
5.089736037161911
 10
215.2627654948799
 20
5.089529487126183
 10
215.2803433752621
 20
5.08926536345467
 10
215.2979016441265
 20
5.088944108356881
 10
215.3154403445866
 20
5.088566164045061
 10
215.3329595197508
 20
5.088131972729169
 10
215.3504592127344
 20
5.08764197662191
 10
215.3679394666439
 20
5.08709661793187
 10
215.3854003245949
 20
5.086496338874491
 10
215.4028418296955
 20
5.085841581656551
 10
215.4202640250594
 20
5.085132788493921
 10
215.4376669537949
 20
5.084370401593839
 10
215.4550506590174
 20
5.083554863167652
 10
215.4724151838333
 20
5.082686615428033
 10
215.4897605713584
 20
5.081766100585861
 10
215.5070868647024
 20
5.080793760853853
 10
215.5243941069791
 20
5.07977003844058
 10
215.5416823412894
 20
5.078695375557852
 10
215.55895161076
 20
5.077570214419261
 10
215.5762019584896
 20
5.076394997231601
 10
215.593433427596
 20
5.075170166209831
 10
215.6106460611869
 20
5.073896163563912
 10
215.6278399023745
 20
5.072573431503821
 10
215.6450149942744
 20
5.071202412242713
 10
215.6621713799911
 20
5.06978354798963
 10
215.6793091026437
 20
5.068317280959091
 10
215.6964282053348
 20
5.066804053358792
 10
215.71352873118
 20
5.06524430740188
 10
215.7306107232913
 20
5.063638485298781
 10
215.7476742247769
 20
5.061987029261731
 10
215.7647192787506
 20
5.060290381501603
 10
215.7817459283258
 20
5.058548984227001
 10
215.7987542166109
 20
5.0567632796529
 10
215.8157441867195
 20
5.054933709987889
 10
215.8327158817544
 20
5.053060717444683
 10
215.8496693448384
 20
5.051144744233683
 10
215.866604619078
 20
5.049186232564862
 10
215.8835217475833
 20
5.047185624652741
 10
215.900420773464
 20
5.045143362707731
 10
215.9173017398396
 20
5.043059888937991
 10
215.9341646898108
 20
5.04093564555665
 10
215.9510096664932
 20
5.038771074775072
 10
215.9678367130025
 20
5.036566618802731
 10
215.9846458724429
 20
5.034322719853721
 10
216.0014371879304
 20
5.032039820138891
 10
216.0182107025745
 20
5.029718361867763
 10
216.0349664594876
 20
5.027358787251212
 10
216.0517045017757
 20
5.024961538502853
 10
216.0684248725579
 20
5.022527057830811
 10
216.085127614943
 20
5.020055787446891
 10
216.1018127720406
 20
5.017548169563783
 10
216.1184803869625
 20
5.015004646393721
 10
216.1351305028226
 20
5.012425660144853
 10
216.1517631627273
 20
5.009811653031701
 10
216.1683784097866
 20
5.007163067261951
 10
216.1849762871195
 20
5.004480345048762
 10
216.2015568378345
 20
5.001763928601632
 10
216.2181201050431
 20
4.999014260135082
 10
216.2346661318468
 20
4.99623178185817
 10
216.2511949613734
 20
4.993416935979952
 10
216.2677066367221
 20
4.990570164716752
 10
216.2842012010084
 20
4.987691910274921
 10
216.3006786973463
 20
4.984782614868954
 10
216.3171391688436
 20
4.981842720706993
 10
216.3335826586068
 20
4.978872670003561
 10
216.3500092097554
 20
4.975872904966362
 10
216.3664188653934
 20
4.972843867810811
 10
216.3828116686461
 20
4.969786000743683
 10
216.3991876626067
 20
4.966699745978582
 10
216.4155468903998
 20
4.963585545727762
 10
216.4318893951264
 20
4.960443842199822
 10
216.4482152199078
 20
4.957275077605632
 10
216.4645244078499
 20
4.954079694161062
 10
216.4808170020631
 20
4.950858134072912
 10
216.4970930456591
 20
4.947610839552963
 10
216.5133525817535
 20
4.944338252812079
 10
216.5295956534508
 20
4.941040816063891
 10
216.5458223038664
 20
4.937718971518791
 10
216.5620325761107
 20
4.934373161384943
 10
216.5782265132973
 20
4.931003827875943
 10
216.594404158536
 20
4.927611413204941
 10
216.6105655549333
 20
4.924196359579641
 10
216.6267107456084
 20
4.92075910921272
 10
216.6428397736678
 20
4.917300104314622
 10
216.6589526822197
 20
4.913819787098472
 10
216.6750495143868
 20
4.910318599773804
 10
216.6911303132699
 20
4.906796984551472
 10
216.7071951219794
 20
4.903255383643733
 10
216.7232439836396
 20
4.899694239262823
 10
216.7392769413424
 20
4.896113993616891
 10
216.7552940382163
 20
4.892515088918631
 10
216.7712953173638
 20
4.88889796737981
 10
216.7872808218969
 20
4.885263071211792
 10
216.8032505949311
 20
4.881610842625891
 10
216.8192046795709
 20
4.877941723830243
 10
216.8351431189338
 20
4.874256157039829
 10
216.8510659561278
 20
4.870554584463723
 10
216.866973234263
 20
4.86683744831367
 10
216.8828649964551
 20
4.863105190801491
 10
216.8987412858139
 20
4.85935825413759
 10
216.9146021454495
 20
4.855597080533751
 10
216.9304476184705
 20
4.851822112199951
 10
216.9462777479937
 20
4.848033791349792
 10
216.9620925771258
 20
4.844232560191873
 10
216.9778921489839
 20
4.840418860938884
 10
216.9936765066712
 20
4.83659313580079
 10
217.0094456933028
 20
4.832755826988491
 10
217.0251997519905
 20
4.828907376716013
 10
217.0409387258485
 20
4.825048227192443
 10
217.0566626579828
 20
4.821178820628631
 10
217.072371591507
 20
4.817299599237739
 10
217.0880655695353
 20
4.813411005228823
 10
217.1037446351736
 20
4.80951348081367
 10
217.119408831534
 20
4.805607468202714
 10
217.1350582017319
 20
4.801693409610891
 10
217.1506927888738
 20
4.797771747245015
 10
217.1663126360751
 20
4.79384292331684
 10
217.1819177864388
 20
4.789907380040001
 10
217.1975082830893
 20
4.785965559621731
 10
217.2130841691294
 20
4.782017904279712
 10
217.228645487671
 20
4.778064856218013
 10
217.2441922818259
 20
4.77410685765249
 10
217.2597245947079
 20
4.770144350792231
 10
217.275242469425
 20
4.766177777851281
 10
217.2907459490895
 20
4.762207581037332
 10
217.306235076813
 20
4.75823420256034
 10
217.3217098957073
 20
4.754258084637113
 10
217.3371704488824
 20
4.750279669473962
 10
217.3526167794505
 20
4.746299399282231
 10
217.3680489305231
 20
4.742317716278702
 10
217.3834669452106
 20
4.738335062668792
 10
217.3988708666227
 20
4.734351880664743
 10
217.4142607378751
 20
4.730368612477433
 10
217.4296366020759
 20
4.726385700321822
 10
217.4449985023373
 20
4.722403586404713
 10
217.4603464817708
 20
4.718422712938771
 10
217.4756805834848
 20
4.714443522135802
 10
217.4910008505946
 20
4.710466456206691
 10
217.5063073262105
 20
4.70649195736274
 10
217.5216000534426
 20
4.702520467814854
 10
217.5368790754008
 20
4.698552429774792
 10
217.5521444352023
 20
4.694588285450721
 10
217.5673961759519
 20
4.690628477057601
 10
217.5826343407631
 20
4.686673446806763
 10
217.5978589727463
 20
4.682723636905453
 10
217.6130701150166
 20
4.678779489569992
 10
217.6282678106788
 20
4.674841447007623
 10
217.6434521028521
 20
4.670909951430581
 10
217.6586230346426
 20
4.666985445050671
 10
217.6737806491626
 20
4.66306837007874
 10
217.6889249895237
 20
4.659159168725239
 10
217.704056098834
 20
4.655258283202841
 10
217.7191740202113
 20
4.651366155721512
 10
217.7342787967598
 20
4.647483228492602
 10
217.7493704715969
 20
4.643609943728793
 10
217.7644490878309
 20
4.639746743640952
 10
217.7795146885699
 20
4.635894070437704
 10
217.7945673169312
 20
4.63205236633263
 10
217.8096070160234
 20
4.62822207353571
 10
217.824633828958
 20
4.624403634257813
 10
217.839647798847
 20
4.620597490711641
 10
217.8546489687986
 20
4.616804085107613
 10
217.8696373819319
 20
4.613023859657513
 10
217.8846130813425
 20
4.609257256573583
 10
217.8995761101585
 20
4.605504718063971
 10
217.9145265114828
 20
4.601766686340901
 10
217.9294643284308
 20
4.598043603617552
 10
217.944389604111
 20
4.594335912101144
 10
217.9593023816313
 20
4.59064405400573
 10
217.9742027041073
 20
4.586968471543572
 10
217.9890906146509
 20
4.583309606924162
 10
218.0039661563703
 20
4.579667902358381
 10
218.0188293723811
 20
4.576043800058013
 10
218.0336803057915
 20
4.572437742233941
 10
218.0485189997114
 20
4.568850171097491
 10
218.0633454972547
 20
4.565281528861811
 10
218.0781598415349
 20
4.561732257732782
 10
218.0929620756566
 20
4.55820279992809
 10
218.1077522427337
 20
4.554693597654532
 10
218.1225303858834
 20
4.551205093125702
 10
218.1372965482066
 20
4.547737728550652
 10
218.1520507728243
 20
4.544291946139822
 10
218.166793102843
 20
4.540868188109981
 10
218.1815235813745
 20
4.537466896665652
 10
218.1962422515268
 20
4.534088514021791
 10
218.2109491564175
 20
4.530733482388821
 10
218.2256443391549
 20
4.527402243976721
 10
218.2403278428508
 20
4.524095241000901
 10
218.2549997106149
 20
4.520812915666793
 10
218.2696599855595
 20
4.517555710188903
 10
218.2843087107946
 20
4.514324066778103
 10
218.2989459294375
 20
4.511118427646183
 10
218.3135716845906
 20
4.507939234999469
 10
218.3281860193718
 20
4.50478693105657
 10
218.3427889768871
 20
4.501661958023811
 10
218.3573806002484
 20
4.498564758114813
 10
218.3719609325752
 20
4.495495773539512
 10
218.3865300169661
 20
4.492455446509722
 10
218.4010878965461
 20
4.489444219233569
 10
218.4156346144161
 20
4.486462533927863
 10
218.4301702136898
 20
4.483510832798453
 10
218.4446947374805
 20
4.480589558059871
 10
218.4592082288988
 20
4.477699151921623
 10
218.4737107310545
 20
4.474840056598222
 10
218.4882022870576
 20
4.472012714294184
 10
218.5026829400238
 20
4.46921756722673
 10
218.5171527330646
 20
4.466455057604941
 10
218.5316117092831
 20
4.4637256276406
 10
218.5460599118003
 20
4.461029719545023
 10
218.5604973837241
 20
4.458367775526822
 10
218.5749241681631
 20
4.455740237799601
 10
218.5893403082344
 20
4.453147548575141
 10
218.6037458470425
 20
4.450590150063423
 10
218.6181408276996
 20
4.44806848447484
 10
218.6325252933226
 20
4.445582994021661
 10
218.6468992870183
 20
4.443134120917021
 10
218.6612628518985
 20
4.440722307367251
 10
218.6756160310749
 20
4.438347995586862
 10
218.6899588676594
 20
4.436011627787653
 10
218.7042914047641
 20
4.433713646180021
 10
218.7186136854951
 20
4.431454492973952
 10
218.7329257529716
 20
4.429234610380771
 10
218.7472276502965
 20
4.427054440613631
 10
218.7615194205871
 20
4.424914425882032
 10
218.7758011069552
 20
4.422815008396861
 10
218.7900727525073
 20
4.420756630370813
 10
218.8043344003551
 20
4.418739734013853
 10
218.8185860936143
 20
4.416764761537763
 10
218.8328278753914
 20
4.414832155153874
 10
218.8470597888052
 20
4.412942357073061
 10
218.8612818769568
 20
4.411095809507113
 10
218.8754941829655
 20
4.409292954665091
 10
218.8896967499393
 20
4.407534234761041
 10
218.9038896209847
 20
4.405820092004493
 10
218.9180728392227
 20
4.40415096860675
 10
218.932246447758
 20
4.402527306778721
 10
218.9464104897112
 20
4.400949548733533
 10
218.9605650081746
 20
4.399418136679801
 10
218.9747100462779
 20
4.397933512831571
 10
218.9888456471224
 20
4.396496119397001
 10
219.0029718538268
 20
4.395106398588781
 10
219.0170887094943
 20
4.393764792617782
 10
219.0311962572421
 20
4.392471743695804
 10
219.0452945401783
 20
4.391227694031892
 10
219.059383601413
 20
4.390033085841932
 10
219.0734634840616
 20
4.388888361332702
 10
219.0875342312345
 20
4.387793962716893
 10
219.1015958860414
 20
4.386750332204031
 10
219.1156484915905
 20
4.385757912008611
 10
219.1296920910015
 20
4.384817144341071
 10
219.1437267273765
 20
4.383928471408632
 10
219.1577524438387
 20
4.383092335426731
 10
219.1717692834834
 20
4.382309178608061
 10
219.1857772894353
 20
4.381579443158043
 10
219.1997765047988
 20
4.380903571291642
 10
219.2137669726824
 20
4.380282005218811
 10
219.2277487362086
 20
4.379715187151811
 10
219.2417218384786
 20
4.379203559300151
 10
219.255686322608
 20
4.378747563876971
 10
219.2696422317065
 20
4.378347643092693
 10
219.283589608886
 20
4.378004239157741
 10
219.2975284972606
 20
4.377717794284821
 10
219.3114589399399
 20
4.377488750682513
 10
219.3253809800268
 20
4.377317550566711
 10
219.3392946606443
 20
4.37720463614283
 10
219.3532000249003
 20
4.377150449627662
 10
219.3670971159034
 20
4.377155433227523
 10
219.3809859767668
 20
4.377220029154671
 10
219.3948666506047
 20
4.377344679623601
 10
219.4087391805195
 20
4.377529826842931
 10
219.4226036096321
 20
4.377775913023072
 10
219.4364599810457
 20
4.378083380378082
 10
219.4503083378793
 20
4.378452671114749
 10
219.4641487232427
 20
4.378884227447602
 10
219.4779811802389
 20
4.379378491590212
 10
219.4918057519906
 20
4.379935905746661
 10
219.5056224815985
 20
4.380556912133722
 10
219.5194314121825
 20
4.381241952960921
 10
219.5332325868501
 20
4.381991470440931
 10
219.5470260487116
 20
4.382805906780101
 10
219.5608118408824
 20
4.383685704195671
 10
219.5745900064709
 20
4.384631304894412
 10
219.5883605885871
 20
4.385643151090842
 10
219.6021236303447
 20
4.386721684994031
 10
219.6158791748555
 20
4.387867348816201
 10
219.6296272652223
 20
4.389080584768693
 10
219.6433679445696
 20
4.390361835060103
 10
219.6571012560023
 20
4.391711541904952
 10
219.6708272426302
 20
4.393130147513661
 10
219.6845459475651
 20
4.39461809409482
 10
219.6982574139189
 20
4.396175823863872
 10
219.7119616848073
 20
4.39780377902804
 10
219.7256588033349
 20
4.399502401800472
 10
219.7393488126151
 20
4.401272134393871
 10
219.75303175576
 20
4.403113419015483
 10
219.7667076758833
 20
4.4050266978798
 10
219.7803766160894
 20
4.407012413195902
 10
219.7940386194939
 20
4.40907100717782
 10
219.8076937292106
 20
4.411202922035103
 10
219.8213419883475
 20
4.413408599975863
 10
219.8349834400149
 20
4.415688483216003
 10
219.8486181273263
 20
4.418043013963652
 10
219.8622460933953
 20
4.42047263443242
 10
219.8758673813288
 20
4.422977786832293
 10
219.8894820342345
 20
4.425558913375933
 10
219.9030900952336
 20
4.428216456271052
 10
219.9166916074361
 20
4.430950857729441
 10
219.9302866139413
 20
4.433762559967874
 10
219.9438751578753
 20
4.436652005190412
 10
219.9574572823374
 20
4.439619635611561
 10
219.9710330304466
 20
4.442665893442661
 10
219.9846024453134
 20
4.445791220895041
 10
219.9981655700455
 20
4.4489960601764
 10
220.0117224477569
 20
4.452280853504873
 10
220.0252731215594
 20
4.455646043084981
 10
220.0388176345629
 20
4.459092071131231
 10
220.0523560298796
 20
4.462619379853151
 10
220.0658883506156
 20
4.466228411463871
 10
220.0794146398901
 20
4.469919608173372
 10
220.0929349408113
 20
4.473693412192511
 10
220.1064492964877
 20
4.477550265732642
 10
220.1199577500344
 20
4.48149061100599
 10
220.1334603445601
 20
4.485514890222981
 10
220.1469571231779
 20
4.489623545594492
 10
220.1604481290022
 20
4.493817019332311
 10
220.173933405137
 20
4.498095753648668
 10
220.1874129946979
 20
4.502460190752169
 10
220.2008869407953
 20
4.506910772854612
 10
220.2143552865389
 20
4.511447942170031
 10
220.2278180750425
 20
4.516072140904782
 10
220.241275349416
 20
4.520783811274721
 10
220.2547271527716
 20
4.525583395489832
 10
220.2681735282229
 20
4.530471335758702
 10
220.2816145188741
 20
4.535448074294491
 10
220.2950501678412
 20
4.540514053308982
 10
220.3084805182339
 20
4.54566971501305
 10
220.3219056131664
 20
4.550915501617113
 10
220.3353254957516
 20
4.556251855332961
 10
220.348740209093
 20
4.561679218370101
 10
220.3621497963057
 20
4.567198032942601
 10
220.375554300507
 20
4.572808741259962
 10
220.3889537647945
 20
4.578511785533521
 10
220.4023482322944
 20
4.584307607975061
 10
220.4157377461112
 20
4.590196650793641
 10
220.4291223493499
 20
4.596179356203773
 10
220.4425020851345
 20
4.602256166413613
 10
220.4522551451234
 20
4.606756354509853
  0
ARC
  5
10E
330
2
100
AcDbEntity
  8
0
 48
0.6
100
AcDbCircle
 10
387.63885566994
 20
79.07878705566822
 30
0.0
 40
183.0230661741806
100
AcDbArc
 50
199.5494094201
 51
204.0102270106963
  0
ARC
  5
10F
330
2
100
AcDbEntity
  8
0
100
AcDbCircle
 10
215.4383109835179
 20
18.28700900758848
 30
0.0
 40
0.5
100
AcDbArc
 50
90.0
 51
177.9685271120391
  0
ARC
  5
110
330
2
100
AcDbEntity
  8
0
100
AcDbCircle
 10
207.0438882668713
 20
14.1800077394414
 30
0.0
 40
8.907313409310658
100
AcDbArc
 50
24.23072274293526
 51
94.90087069773977
  0
ARC
  5
111
330
2
100
AcDbEntity
  8
0
 48
0.6
100
AcDbCircle
 10
378.0929584448332
 20
75.0087601361287
 30
0.0
 40
179.4934776279465
100
AcDbArc
 50
196.824903485457
 51
203.1041609915146
  0
LINE
  5
112
330
2
100
AcDbEntity
  8
0
100
AcDbLine
 10
204.3817569399779
 20
35.23079444177028
 30
0.0
 11
205.2817569399794
 21
35.23079444177028
 31
0.0
  0
LINE
  5
113
330
2
100
AcDbEntity
  8
0
100
AcDbLine
 10
276.2817569399794
 20
26.62953178329916
 30
0.0
 11
204.3817569399743
 21
26.62953178329916
 31
0.0
  0
LEADER
  5
114
330
2
100
AcDbEntity
  8
0
100
AcDbLeader
  3
STANDARD
 74
     0
 40
13.0
 41
28.50892857142855
 76
     2
 10
207.8615446460353
 20
17.23653608797713
 30
0.0
 10
198.7447942538581
 20
1.941716457583879
 30
0.0
1001
ACAD
1000
DSTYLE
1002
{
1070
     5
1000

1070
   342
1005
0
1002
}
  0
LINE
  5
115
102
{ACAD_REACTORS
330
DF
102
}
330
2
100
AcDbEntity
  8
0
100
AcDbLine
 10
276.2817569399794
 20
25.72953178329953
 30
0.0
 11
326.7820963448903
 21
26.62762411106314
 31
0.0
  0
LINE
  5
116
330
2
100
AcDbEntity
  8
0
100
AcDbLine
 10
215.4383109835179
 20
18.78700900758848
 30
0.0
 11
329.781756939974
 21
18.78700900758713
 31
0.0
  0
LINE
  5
117
330
2
100
AcDbEntity
  8
0
100
AcDbLine
 10
211.0842502522118
 20
23.78700900758349
 30
0.0
 11
327.7817569399758
 21
23.78700900759257
 31
0.0
  0
LWPOLYLINE
  5
118
330
2
100
AcDbEntity
  8
0
100
AcDbPolyline
 90
        2
 70
     1
 43
1.5
 10
83.77256607446906
 20
217.9971830984468
 42
1.0
 10
85.27256607446906
 20
217.9971830984468
 42
1.0
  0
CIRCLE
  5
119
330
2
100
AcDbEntity
  8
0
100
AcDbCircle
 10
84.52256607446905
 20
217.9971830984468
 30
0.0
 40
1.5
  0
CIRCLE
  5
11A
330
2
100
AcDbEntity
  8
0
100
AcDbCircle
 10
19.99793884983955
 20
217.7818671824459
 30
0.0
 40
1.5
  0
LWPOLYLINE
  5
11B
330
2
100
AcDbEntity
  8
0
100
AcDbPolyline
 90
        2
 70
     1
 43
1.5
 10
19.24793884983955
 20
217.7818671824459
 42
1.0
 10
20.74793884983955
 20
217.7818671824459
 42
1.0
  0
MTEXT
  5
11C
330
2
100
AcDbEntity
  8
DIM
 62
     0
100
AcDbMText
 10
24.1887895703603
 20
220.3892674385355
 30
0.0
 40
4.589999999999998
 41
0.0
 71
     1
 72
     5
  1
{\f굴림|b0|i0|c129|p50;KEY\f??|b0|i0|c0|p49;                  \f굴림|b0|i0|c129|p50;KEY GROOVE }
1001
ACAD
1000
MTEXTBEGIN
1070
    73
1070
     1
1070
    44
1040
1.0
1070
    74
1070
     0
1000
MTEXTEND
1000
MTEXTBEGIN
1070
    73
1070
     1
1070
    44
1040
1.0
1070
    74
1070
     0
1000
MTEXTEND
1000
MTEXTBEGIN
1070
    73
1070
     1
1070
    44
1040
1.0
1070
    74
1070
     0
1000
MTEXTEND
  0
LINE
  5
11D
330
2
100
AcDbEntity
  8
CEN
 48
0.6
100
AcDbLine
 10
-7.142050454780472
 20
66.12953178329917
 30
0.0
 11
81.01192899641137
 21
66.12953178329917
 31
0.0
  0
LINE
  5
11E
330
2
100
AcDbEntity
  8
0
 48
0.6
100
AcDbLine
 10
1.934939270809991
 20
106.1295317833004
 30
0.0
 11
71.93493927080999
 21
106.1295317833004
 31
0.0
  0
DIMENSION
  5
11F
102
{ACAD_XDICTIONARY
360
120
102
}
102
{ACAD_REACTORS
330
121
102
}
330
2
100
AcDbEntity
  8
0
100
AcDbDimension
  2
*D37
 10
76.93493927080999
 20
120.8576214311174
 30
0.0
 11
38.99906966375056
 21
120.8576214311174
 31
0.0
 70
   160
  3
STANDARD
100
AcDbAlignedDimension
 13
-3.065060729190006
 23
101.1295317832991
 33
0.0
 14
76.93493927080999
 24
101.1295317832991
 34
0.0
100
AcDbRotatedDimension
  0
LEADER
  5
12E
330
2
100
AcDbEntity
  8
0
100
AcDbLeader
  3
STANDARD
 73
     0
 75
     1
 40
3.0
 41
26.65178571428571
 76
     3
 10
70.16895798657967
 20
102.113550499066
 30
0.0
 10
60.62238570050067
 20
128.9903099716624
 30
0.0
 10
58.12238570050067
 20
128.9903099716624
 30
0.0
340
12F
1001
ACAD
1000
DSTYLE
1002
{
1070
     5
1000

1070
   342
1005
0
1002
}
  0
MTEXT
  5
12F
102
{ACAD_REACTORS
330
12E
102
}
330
2
100
AcDbEntity
  8
0
 62
     3
100
AcDbMText
 10
57.12238570050067
 20
129.9903099716624
 30
0.0
 40
3.0
 41
0.0
 71
     9
 72
     1
  1
4-%%C5.5 hole
1001
ACAD
1000
MTEXTBEGIN
1070
    73
1070
     1
1070
    44
1040
1.0
1070
    74
1070
     0
1000
MTEXTEND
1000
MTEXTBEGIN
1070
    73
1070
     1
1070
    44
1040
1.0
1070
    74
1070
     0
1000
MTEXTEND
1000
MTEXTBEGIN
1070
    73
1070
     1
1070
    44
1040
1.0
1070
    74
1070
     0
1000
MTEXTEND
  0
DIMENSION
  5
130
102
{ACAD_XDICTIONARY
360
131
102
}
102
{ACAD_REACTORS
330
132
102
}
330
2
100
AcDbEntity
  8
0
100
AcDbDimension
  2
*D36
 10
60.39220595683037
 20
198.1006151102759
 30
0.0
 11
58.39220595683037
 21
201.5506151102758
 31
0.0
 70
    32
  1
\A1;<>{\f??|b0|i0|c0|p49;\H0.7x;\S+0^ -0.03;}
  3
STANDARD
100
AcDbAlignedDimension
 13
56.39220595683037
 23
189.4261394516433
 33
0.0
 14
60.39220595683037
 24
189.4261394516433
 34
0.0
100
AcDbRotatedDimension
  0
CIRCLE
  5
141
330
2
100
AcDbEntity
  8
0
 48
0.6
100
AcDbCircle
 10
36.93493927080089
 20
81.15301466367418
 30
0.0
 40
17.0
  0
LINE
  5
142
330
2
100
AcDbEntity
  8
CEN
 48
0.6
100
AcDbLine
 10
17.46933698326027
 20
81.15301466367418
 30
0.0
 11
56.3210347985314
 21
81.15301466367418
 31
0.0
  0
LINE
  5
143
330
2
100
AcDbEntity
  8
0
 62
     0
 48
0.6
100
AcDbLine
 10
38.93493927080088
 20
85.73559035862945
 30
0.0
 11
38.93493927080088
 21
83.65301466367325
 31
0.0
  0
LINE
  5
144
330
2
100
AcDbEntity
  8
0
 48
0.6
100
AcDbLine
 10
34.93493927080089
 20
83.65301466367325
 30
0.0
 11
38.93493927080088
 21
83.65301466367325
 31
0.0
  0
CIRCLE
  5
145
330
2
100
AcDbEntity
  8
0
 48
0.6
100
AcDbCircle
 10
36.93493927080089
 20
81.15301466367418
 30
0.0
 40
5.0
  0
LINE
  5
146
330
2
100
AcDbEntity
  8
0
 62
     0
 48
0.6
100
AcDbLine
 10
34.93493927080089
 20
85.73559035862945
 30
0.0
 11
34.93493927080089
 21
83.65301466367325
 31
0.0
  0
ARC
  5
147
102
{ACAD_REACTORS
330
121
102
}
330
2
100
AcDbEntity
  8
0
 48
0.6
100
AcDbCircle
 10
1.934939270809991
 20
101.1295317832991
 30
0.0
 40
5.0
100
AcDbArc
 50
90.0
 51
180.0
  0
LWPOLYLINE
  5
148
330
2
100
AcDbEntity
  8
3
100
AcDbPolyline
 90
        4
 70
     1
 43
0.0
 10
31.29217849599081
 20
122.1350709918642
 10
34.59217849598099
 20
122.1350709918642
 10
34.59217849598099
 20
125.6350709918642
 10
31.29217849599081
 20
125.6350709918642
  0
LINE
  5
14A
330
2
100
AcDbEntity
  8
0
  6
CENTER
 62
     1
 48
0.4
100
AcDbLine
 10
58.39220595683037
 20
191.4261394516433
 30
0.0
 11
58.39220595683037
 21
183.4261394516433
 31
0.0
  0
LINE
  5
14B
330
2
100
AcDbEntity
  8
0
  6
CENTER
 62
     1
 48
0.4
100
AcDbLine
 10
54.39220595683035
 20
187.4261394516434
 30
0.0
 11
62.39220595683036
 21
187.4261394516434
 31
0.0
  0
LINE
  5
14C
102
{ACAD_REACTORS
330
132
102
}
330
2
100
AcDbEntity
  8
0
100
AcDbLine
 10
60.39220595683037
 20
189.4261394516433
 30
0.0
 11
60.39220595683037
 21
185.4261394516433
 31
0.0
  0
LINE
  5
14D
102
{ACAD_REACTORS
330
132
102
}
330
2
100
AcDbEntity
  8
0
100
AcDbLine
 10
56.39220595683037
 20
189.4261394516433
 30
0.0
 11
56.39220595683037
 21
185.4261394516433
 31
0.0
  0
LINE
  5
14E
330
2
100
AcDbEntity
  8
0
 48
0.2
100
AcDbLine
 10
56.39220595683037
 20
185.4261394516433
 30
0.0
 11
60.39220595683037
 21
185.4261394516433
 31
0.0
  0
LINE
  5
14F
330
2
100
AcDbEntity
  8
0
 48
0.2
100
AcDbLine
 10
56.39220595683037
 20
189.4261394516433
 30
0.0
 11
60.39220595683037
 21
189.4261394516433
 31
0.0
  0
LINE
  5
150
330
2
100
AcDbEntity
  8
0
100
AcDbLine
 10
39.22155267012021
 20
189.4261394516433
 30
0.0
 11
39.22155267012021
 21
185.4261394516433
 31
0.0
  0
ARC
  5
151
102
{ACAD_REACTORS
330
166
102
}
330
2
100
AcDbEntity
  8
0
100
AcDbCircle
 10
16.22155267012021
 20
187.4261394516434
 30
0.0
 40
2.0
100
AcDbArc
 50
90.0
 51
270.0
  0
LINE
  5
152
330
2
100
AcDbEntity
  8
0
  6
CENTER
 62
     1
 48
0.4
100
AcDbLine
 10
8.534666353409193
 20
187.4261394516434
 30
0.0
 11
44.04041998244974
 21
187.4261394516434
 31
0.0
  0
LINE
  5
153
330
2
100
AcDbEntity
  8
0
 48
0.2
100
AcDbLine
 10
16.22155267012021
 20
185.4261394516433
 30
0.0
 11
39.22155267012021
 21
185.4261394516433
 31
0.0
  0
LINE
  5
154
102
{ACAD_REACTORS
330
166
102
}
330
2
100
AcDbEntity
  8
0
 48
0.2
100
AcDbLine
 10
16.22155267012021
 20
189.4261394516433
 30
0.0
 11
39.22155267012021
 21
189.4261394516433
 31
0.0
  0
DIMENSION
  5
155
330
2
100
AcDbEntity
  8
0
100
AcDbDimension
  2
*D39
 10
47.39060782558047
 20
189.4261394516433
 30
0.0
 11
47.39060782558042
 21
204.2756012457338
 31
0.0
 70
   160
  1
\A1;<>{\f??|b0|i0|c0|p49;\H0.7x;\S+0^ -0.03;}
  3
STANDARD
100
AcDbAlignedDimension
 13
39.22155267012021
 23
185.4261394516433
 33
0.0
 14
39.22155267012021
 24
189.4261394516433
 34
0.0
 50
90.0
100
AcDbRotatedDimension
  0
DIMENSION
  5
164
102
{ACAD_XDICTIONARY
360
165
102
}
102
{ACAD_REACTORS
330
166
102
}
330
2
100
AcDbEntity
  8
0
100
AcDbDimension
  2
*D38
 10
39.22155267012021
 20
197.2313334321196
 30
0.0
 11
26.72155267012021
 21
199.7313334321196
 31
0.0
 70
    32
  1
<>{\f??|b0|i0|c0|p49;%%p0.2}
  3
STANDARD
100
AcDbAlignedDimension
 13
14.22155267012021
 23
187.4261394516434
 33
0.0
 14
39.22155267012021
 24
189.4261394516433
 34
0.0
100
AcDbRotatedDimension
  0
DIMENSION
  5
173
102
{ACAD_XDICTIONARY
360
174
102
}
102
{ACAD_REACTORS
330
175
102
}
330
2
100
AcDbEntity
  8
0
100
AcDbDimension
  2
*D52
 10
328.281756939983
 20
130.5095984413665
 30
0.0
 11
333.2817569399831
 21
130.5095984413665
 31
0.0
 70
   160
  3
STANDARD
100
AcDbAlignedDimension
 13
338.2817569399793
 23
88.62953178329918
 33
0.0
 14
328.281756939983
 24
104.0995317832994
 34
0.0
100
AcDbRotatedDimension
  0
ARC
  5
182
102
{ACAD_REACTORS
330
22A
330
175
102
}
330
2
100
AcDbEntity
  8
0
 48
0.6
100
AcDbCircle
 10
337.2817569399793
 20
88.62953178329918
 30
0.0
 40
1.0
100
AcDbArc
 50
0.0
 51
90.0
  0
LINE
  5
183
330
2
100
AcDbEntity
  8
0
 48
0.6
100
AcDbLine
 10
337.2817569399793
 20
89.62953178329916
 30
0.0
 11
328.2817569399793
 21
89.62953178329916
 31
0.0
  0
LINE
  5
184
330
2
100
AcDbEntity
  8
0
100
AcDbLine
 10
326.7820963448903
 20
105.6314394555343
 30
0.0
 11
328.2817569399793
 21
104.0995317832994
 31
0.0
  0
LINE
  5
185
102
{ACAD_REACTORS
330
1E6
102
}
330
2
100
AcDbEntity
  8
CEN
 48
0.6
100
AcDbLine
 10
166.02970432268
 20
81.12953178329917
 30
0.0
 11
122.3836181387595
 21
81.12953178329917
 31
0.0
  0
DIMENSION
  5
186
330
2
100
AcDbEntity
  8
0
100
AcDbDimension
  2
*D51
 10
155.2817569399758
 20
118.4856601654159
 30
0.0
 11
144.3025902733188
 21
118.4856601654159
 31
0.0
 70
   160
  3
STANDARD
100
AcDbAlignedDimension
 13
158.2817569399758
 23
105.6295317832991
 33
0.0
 14
155.2817569399758
 24
97.62953178329915
 34
0.0
 50
180.0
100
AcDbRotatedDimension
  0
LINE
  5
195
330
2
100
AcDbEntity
  8
0
100
AcDbLine
 10
204.3817569399743
 20
106.1295317833004
 30
0.0
 11
158.7817569399794
 21
106.1295317833004
 31
0.0
  0
DIMENSION
  5
196
330
2
100
AcDbEntity
  8
0
100
AcDbDimension
  2
*D50
 10
198.2817569399758
 20
130.5095984413665
 30
0.0
 11
178.2817569399794
 21
130.5095984413665
 31
0.0
 70
   160
  1
{\f??|b0|i0|c0|p49;L}
  3
STANDARD
100
AcDbAlignedDimension
 13
158.2817569399758
 23
105.6295317832991
 33
0.0
 14
198.2817569399758
 24
106.1295317833004
 34
0.0
100
AcDbRotatedDimension
  0
DIMENSION
  5
1A3
330
2
100
AcDbEntity
  8
0
100
AcDbDimension
  2
*D49
 10
95.76354195975
 20
64.12953178329918
 30
0.0
 11
95.76354195975
 21
81.12953178329917
 31
0.0
 70
   160
  1
{\f??|b0|i0|c0|p49;%%c}<>
  3
STANDARD
100
AcDbAlignedDimension
 13
155.7817569399793
 23
98.12953178329919
 33
0.0
 14
155.7817569399793
 24
64.12953178329917
 34
0.0
 50
90.0
100
AcDbRotatedDimension
  0
DIMENSION
  5
1B0
102
{ACAD_XDICTIONARY
360
1B1
102
}
102
{ACAD_REACTORS
330
1B2
102
}
330
2
100
AcDbEntity
  8
0
100
AcDbDimension
  2
*D48
 10
111.4570936510008
 20
86.12953178329918
 30
0.0
 11
111.4570936510008
 21
120.1987040236913
 31
0.0
 70
   160
  1
\A1;{\f??|b0|i0|c0|p49;%%C10\H0.7x;\S+0^ -0.015;\H1.429x;(h7)}
  3
STANDARD
100
AcDbAlignedDimension
 13
126.2817569399812
 23
76.12953178329917
 33
0.0
 14
126.2817569399812
 24
86.12953178329918
 34
0.0
 50
90.0
100
AcDbRotatedDimension
  0
LINE
  5
1C1
330
2
100
AcDbEntity
  8
0
100
AcDbLine
 10
155.2817569399758
 20
97.62953178329915
 30
0.0
 11
155.2817569399758
 21
66.62953178329917
 31
0.0
  0
DIMENSION
  5
1C2
102
{ACAD_XDICTIONARY
360
1C3
102
}
102
{ACAD_REACTORS
330
1C4
102
}
330
2
100
AcDbEntity
  8
0
100
AcDbDimension
  2
*D47
 10
126.2817569399812
 20
102.3498199902021
 30
0.0
 11
139.0926876073806
 21
102.3498199902021
 31
0.0
 70
   160
  3
STANDARD
100
AcDbAlignedDimension
 13
151.2817569399794
 23
86.12953178329918
 33
0.0
 14
126.2817569399812
 24
86.12953178329918
 34
0.0
 50
180.0
100
AcDbRotatedDimension
  0
DIMENSION
  5
1D1
102
{ACAD_XDICTIONARY
360
1D2
102
}
102
{ACAD_REACTORS
330
1D3
102
}
330
2
100
AcDbEntity
  8
0
100
AcDbDimension
  2
*D46
 10
158.2817569399758
 20
130.5070805224297
 30
0.0
 11
142.6029888698594
 21
130.5070805224297
 31
0.0
 70
   160
  3
STANDARD
100
AcDbAlignedDimension
 13
126.2817569399812
 23
86.12953178329918
 33
0.0
 14
158.2817569399758
 24
105.6295317832991
 34
0.0
100
AcDbRotatedDimension
  0
LINE
  5
1E0
102
{ACAD_REACTORS
330
1E6
330
1C4
330
1B2
330
1D3
102
}
330
2
100
AcDbEntity
  8
CEN
  6
BYBLOCK
 62
     0
100
AcDbLine
 10
155.2817569399758
 20
86.12953178329918
 30
0.0
 11
126.2817569399812
 21
86.12953178329918
 31
0.0
  0
LINE
  5
1E1
102
{ACAD_REACTORS
330
1E6
102
}
330
2
100
AcDbEntity
  8
CEN
  6
HIDDEN
 62
     2
100
AcDbLine
 10
151.2817569399794
 20
83.62953178329917
 30
0.0
 11
126.2817569399812
 21
83.62953178329917
 31
0.0
  0
LINE
  5
1E3
102
{ACAD_REACTORS
330
1E6
102
}
330
2
100
AcDbEntity
  8
CEN
  6
BYBLOCK
 62
     0
100
AcDbLine
 10
155.2817569399758
 20
76.12953178329917
 30
0.0
 11
126.2817569399812
 21
76.12953178329917
 31
0.0
  0
DIMENSION
  5
1E4
102
{ACAD_XDICTIONARY
360
1E5
102
}
102
{ACAD_REACTORS
330
1E6
102
}
330
2
100
AcDbEntity
  8
0
100
AcDbDimension
  2
*D45
 10
105.5838797181313
 20
66.12953178329917
 30
0.0
 11
105.5838797181313
 21
73.62953178329917
 31
0.0
 70
   160
  3
STANDARD
100
AcDbAlignedDimension
 13
122.3836181387595
 23
81.12953178329917
 33
0.0
 14
122.8451855428392
 24
66.12953178329917
 34
0.0
 50
90.0
100
AcDbRotatedDimension
  0
LINE
  5
1F3
102
{ACAD_REACTORS
330
1B2
102
}
330
2
100
AcDbEntity
  8
0
100
AcDbLine
 10
126.2817569399812
 20
86.12953178329918
 30
0.0
 11
126.2817569399812
 21
76.12953178329917
 31
0.0
  0
ARC
  5
1F4
330
2
100
AcDbEntity
  8
0
100
AcDbCircle
 10
155.7817569399793
 20
64.62953178329917
 30
0.0
 40
0.5
100
AcDbArc
 50
180.0
 51
270.0
  0
LINE
  5
1F5
330
2
100
AcDbEntity
  8
0
100
AcDbLine
 10
155.7817569399793
 20
64.12953178329917
 30
0.0
 11
158.2817569399758
 21
64.12953178329917
 31
0.0
  0
LINE
  5
1F6
102
{ACAD_REACTORS
330
1C4
102
}
330
2
100
AcDbEntity
  8
0
  6
HIDDEN
 62
     2
100
AcDbLine
 10
151.2817569399794
 20
86.12953178329918
 30
0.0
 11
151.2817569399794
 21
83.62953178329917
 31
0.0
  0
ARC
  5
1F7
330
2
100
AcDbEntity
  8
2
 62
     7
100
AcDbCircle
 10
155.7817569399793
 20
64.62953178329917
 30
0.0
 40
0.4999999999999968
100
AcDbArc
 50
180.0
 51
270.0
  0
LINE
  5
1F9
330
2
100
AcDbEntity
  8
2
 62
     7
100
AcDbLine
 10
158.2817569399758
 20
64.12953178329917
 30
0.0
 11
155.7817569399793
 21
64.12953178329917
 31
0.0
  0
LINE
  5
1FA
330
2
100
AcDbEntity
  8
2
 62
     7
100
AcDbLine
 10
155.2817569399758
 20
64.62953178329917
 30
0.0
 11
155.2817569399758
 21
66.12953178329917
 31
0.0
  0
ARC
  5
1FB
330
2
100
AcDbEntity
  8
0
100
AcDbCircle
 10
155.7817569399793
 20
97.62953178329915
 30
0.0
 40
0.5
100
AcDbArc
 50
90.0
 51
180.0
  0
LINE
  5
1FC
330
2
100
AcDbEntity
  8
0
100
AcDbLine
 10
155.7817569399793
 20
98.12953178329919
 30
0.0
 11
158.2817569399758
 21
98.12953178329919
 31
0.0
  0
ARC
  5
1FD
330
2
100
AcDbEntity
  8
0
100
AcDbCircle
 10
158.7817569399794
 20
105.6295317832991
 30
0.0
 40
0.5
100
AcDbArc
 50
90.0
 51
180.0
  0
ARC
  5
1FE
102
{ACAD_REACTORS
330
121
102
}
330
2
100
AcDbEntity
  8
0
 48
0.6
100
AcDbCircle
 10
71.93493927080999
 20
101.1295317832991
 30
0.0
 40
5.0
100
AcDbArc
 50
0.0
 51
90.0
  0
LINE
  5
1FF
330
2
100
AcDbEntity
  8
0
100
AcDbLine
 10
198.2817569399758
 20
106.1295317833004
 30
0.0
 11
204.3817569399779
 21
106.1295317833004
 31
0.0
  0
LINE
  5
200
102
{ACAD_REACTORS
330
206
102
}
330
2
100
AcDbEntity
  8
0
100
AcDbLine
 10
204.3817569399779
 20
104.7282691248269
 30
0.0
 11
205.2817569399794
 21
104.7282691248269
 31
0.0
  0
LINE
  5
201
330
2
100
AcDbEntity
  8
0
100
AcDbLine
 10
204.3817569399779
 20
97.02826912482942
 30
0.0
 11
205.2817569399794
 21
97.02826912482942
 31
0.0
  0
LINE
  5
202
330
2
100
AcDbEntity
  8
0
100
AcDbLine
 10
205.2817569399794
 20
97.02826912482942
 30
0.0
 11
205.2817569399794
 21
104.7282691248269
 31
0.0
  0
LINE
  5
203
330
2
100
AcDbEntity
  8
0
100
AcDbLine
 10
276.2817569399794
 20
105.6295317832991
 30
0.0
 11
204.3817569399743
 21
105.6295317832991
 31
0.0
  0
DIMENSION
  5
204
102
{ACAD_XDICTIONARY
360
205
102
}
102
{ACAD_REACTORS
330
206
102
}
330
2
100
AcDbEntity
  8
0
100
AcDbDimension
  2
*D44
 10
205.2817569399794
 20
118.3378651166312
 30
0.0
 11
202.0317569399793
 21
118.3378651166312
 31
0.0
 70
   160
  3
STANDARD
100
AcDbAlignedDimension
 13
198.2817569399758
 23
110.3378651166312
 33
0.0
 14
205.2817569399794
 24
104.7282691248269
 34
0.0
100
AcDbRotatedDimension
  0
LINE
  5
213
330
2
100
AcDbEntity
  8
CEN
 48
0.6
100
AcDbLine
 10
343.3367937267285
 20
66.12953178329917
 30
0.0
 11
122.8451855428392
 21
66.12953178329917
 31
0.0
  0
LINE
  5
214
330
2
100
AcDbEntity
  8
0
100
AcDbLine
 10
276.2817569399794
 20
106.5295317832992
 30
0.0
 11
326.7820963448903
 21
105.6314394555343
 31
0.0
  0
DIMENSION
  5
215
330
2
100
AcDbEntity
  8
0
100
AcDbDimension
  2
*D43
 10
328.2817569399793
 20
130.5095984413665
 30
0.0
 11
263.2817569399794
 21
130.5095984413665
 31
0.0
 70
   160
  3
STANDARD
100
AcDbAlignedDimension
 13
198.2817569399758
 23
106.1295317833004
 33
0.0
 14
328.2817569399793
 24
104.0995317832994
 34
0.0
100
AcDbRotatedDimension
  0
ARC
  5
222
330
2
100
AcDbEntity
  8
0
100
AcDbCircle
 10
330.7817569399758
 20
42.62953178329917
 30
0.0
 40
1.0
100
AcDbArc
 50
180.0
 51
270.0
  0
ARC
  5
223
102
{ACAD_REACTORS
330
22A
102
}
330
2
100
AcDbEntity
  8
0
 48
0.6
100
AcDbCircle
 10
337.2817569399793
 20
43.62953178330053
 30
0.0
 40
1.0
100
AcDbArc
 50
270.0
 51
0.0
  0
ARC
  5
224
330
2
100
AcDbEntity
  8
0
100
AcDbCircle
 10
335.7817569399793
 20
42.62953178329917
 30
0.0
 40
1.0
100
AcDbArc
 50
270.0
 51
0.0
  0
LINE
  5
225
330
2
100
AcDbEntity
  8
0
100
AcDbLine
 10
330.7817569399758
 20
41.62953178329916
 30
0.0
 11
335.7817569399793
 21
41.62953178329916
 31
0.0
  0
LINE
  5
226
330
2
100
AcDbEntity
  8
0
 48
0.6
100
AcDbLine
 10
337.2817569399793
 20
42.62953178329917
 30
0.0
 11
328.2817569399793
 21
42.62953178329917
 31
0.0
  0
LINE
  5
227
330
2
100
AcDbEntity
  8
0
 48
0.6
100
AcDbLine
 10
338.2817569399758
 20
88.62953178329918
 30
0.0
 11
338.2817569399758
 21
43.62953178330053
 31
0.0
  0
DIMENSION
  5
228
102
{ACAD_XDICTIONARY
360
229
102
}
102
{ACAD_REACTORS
330
22A
102
}
330
2
100
AcDbEntity
  8
0
100
AcDbDimension
  2
*D42
 10
350.2932807284031
 20
42.62953178329917
 30
0.0
 11
350.2932807284031
 21
66.08942455638089
 31
0.0
 70
   160
  1
%%c<>
  3
STANDARD
100
AcDbAlignedDimension
 13
337.2817569399793
 23
89.62953178329916
 33
0.0
 14
337.2817569399793
 24
42.62953178329917
 34
0.0
 50
90.0
100
AcDbRotatedDimension
  0
LINE
  5
237
330
2
100
AcDbEntity
  8
1
  6
BYBLOCK
 62
     0
100
AcDbLine
 10
283.668319961398
 20
184.8436307791134
 30
0.0
 11
170.9145896973584
 21
184.8436307791134
 31
0.0
  0
LINE
  5
239
330
2
100
AcDbEntity
  8
1
  6
BYBLOCK
 62
     0
100
AcDbLine
 10
283.668319961398
 20
203.2036307791134
 30
0.0
 11
170.9145896973584
 21
203.2036307791134
 31
0.0
  0
LINE
  5
23A
330
2
100
AcDbEntity
  8
1
  6
BYBLOCK
 62
     0
100
AcDbLine
 10
283.668319961398
 20
212.3836307791132
 30
0.0
 11
170.9145896973584
 21
212.3836307791132
 31
0.0
  0
LINE
  5
23B
330
2
100
AcDbEntity
  8
1
  6
BYBLOCK
 62
     0
100
AcDbLine
 10
283.668319961398
 20
194.0236307791124
 30
0.0
 11
170.9145896973584
 21
194.0236307791124
 31
0.0
  0
LINE
  5
23C
330
2
100
AcDbEntity
  8
1
  6
BYBLOCK
 62
     0
100
AcDbLine
 10
170.1443231268276
 20
215.8412876943265
 30
0.0
 11
219.8097609390515
 21
215.8412876943265
 31
0.0
  0
LINE
  5
23D
330
2
100
AcDbEntity
  8
1
  6
BYBLOCK
 62
     0
100
AcDbLine
 10
170.1443231268276
 20
216.066287694324
 30
0.0
 11
219.8097609390515
 21
216.066287694324
 31
0.0
  0
LINE
  5
23E
330
2
100
AcDbEntity
  8
1
  6
BYBLOCK
 62
     0
100
AcDbLine
 10
170.1443231268276
 20
216.7953196553212
 30
0.0
 11
219.8097609390515
 21
216.7953196553212
 31
0.0
  0
TEXT
  5
23F
330
2
100
AcDbEntity
  8
1
  6
BYBLOCK
 62
     0
100
AcDbText
 10
204.4544221465893
 20
187.0107157362554
 30
0.0
 40
4.589999999999998
  1
42.5
 41
0.8
  7
GHS
100
AcDbText
  0
LINE
  5
241
330
2
100
AcDbEntity
  8
0
  6
CENTER
 62
     1
 48
0.4
100
AcDbLine
 10
103.3255856973809
 20
195.7976088078633
 30
0.0
 11
103.3255856973809
 21
175.168850585087
 31
0.0
  0
LINE
  5
242
330
2
100
AcDbEntity
  8
0
  6
CENTER
 62
     1
 48
0.4
100
AcDbLine
 10
94.71794638060964
 20
185.825844164646
 30
0.0
 11
111.6514409267601
 21
185.825844164646
 31
0.0
  0
CIRCLE
  5
243
102
{ACAD_REACTORS
330
25A
102
}
330
2
100
AcDbEntity
  8
0
100
AcDbCircle
 10
103.3255856973809
 20
185.825844164646
 30
0.0
 40
5.0
  0
LINE
  5
244
102
{ACAD_REACTORS
330
25A
102
}
330
2
100
AcDbEntity
  8
0
100
AcDbLine
 10
101.3255856973809
 20
188.3258441646471
 30
0.0
 11
105.3255856973809
 21
188.3258441646471
 31
0.0
  0
LINE
  5
245
102
{ACAD_REACTORS
330
249
102
}
330
2
100
AcDbEntity
  8
0
100
AcDbLine
 10
101.3255856973809
 20
188.3258441646471
 30
0.0
 11
101.3255856973809
 21
190.4084198596028
 31
0.0
  0
LINE
  5
246
102
{ACAD_REACTORS
330
249
102
}
330
2
100
AcDbEntity
  8
0
100
AcDbLine
 10
105.3255856973809
 20
188.3258441646471
 30
0.0
 11
105.3255856973809
 21
190.4084198596028
 31
0.0
  0
DIMENSION
  5
247
102
{ACAD_XDICTIONARY
360
248
102
}
102
{ACAD_REACTORS
330
249
102
}
330
2
100
AcDbEntity
  8
0
100
AcDbDimension
  2
*D41
 10
105.3255856973809
 20
199.1674324045779
 30
0.0
 11
103.3255856973809
 21
202.6174324045778
 31
0.0
 70
    32
  1
\A1;<>{\f??|b0|i0|c0|p49;\H0.7x;\S+0.40^ -0;}
  3
STANDARD
100
AcDbAlignedDimension
 13
101.3255856973809
 23
190.4084198596028
 33
0.0
 14
105.3255856973809
 24
190.4084198596028
 34
0.0
100
AcDbRotatedDimension
  0
DIMENSION
  5
258
102
{ACAD_XDICTIONARY
360
259
102
}
102
{ACAD_REACTORS
330
25A
102
}
330
2
100
AcDbEntity
  8
0
100
AcDbDimension
  2
*D40
 10
120.8229181915612
 20
190.8258441646469
 30
0.0
 11
120.8229181915612
 21
207.032987021791
 31
0.0
 70
   160
  1
\A1;<>{\f??|b0|i0|c0|p49;\H0.7x;\S+0.1^ -0;\H1.429x; }
  3
STANDARD
100
AcDbAlignedDimension
 13
105.3255856973809
 23
188.3258441646471
 33
0.0
 14
103.3255856973809
 24
190.8258441646469
 34
0.0
 50
90.0
100
AcDbRotatedDimension
  0
LINE
  5
269
330
2
100
AcDbEntity
  8
1
  6
BYBLOCK
 62
     0
100
AcDbLine
 10
170.9145896973584
 20
212.3836307791132
 30
0.0
 11
170.9145896973584
 21
184.8436307791134
 31
0.0
  0
LINE
  5
26A
330
2
100
AcDbEntity
  8
1
  6
BYBLOCK
 62
     0
100
AcDbLine
 10
194.7313728952865
 20
212.3836307791132
 30
0.0
 11
194.7313728952865
 21
184.8436307791134
 31
0.0
  0
TEXT
  5
26B
330
2
100
AcDbEntity
  8
1
  6
BYBLOCK
 62
     0
100
AcDbText
 10
206.3032229523031
 20
205.20424559214
 30
0.0
 40
4.589999999999998
  1
L
 41
0.8
  7
GHS
100
AcDbText
  0
TEXT
  5
26C
330
2
100
AcDbEntity
  8
1
  6
BYBLOCK
 62
     0
100
AcDbText
 10
204.4544221465893
 20
196.1907157362551
 30
0.0
 40
4.589999999999998
  1
32
 41
0.8
  7
GHS
100
AcDbText
  0
TEXT
  5
26D
330
2
100
AcDbEntity
  8
1
  6
BYBLOCK
 62
     0
100
AcDbText
 10
178.4757148577337
 20
205.3724435050853
 30
0.0
 40
4.589999999999998
  1
NO.
 41
0.8
  7
GHS
100
AcDbText
  0
TEXT
  5
26E
330
2
100
AcDbEntity
  8
1
  6
BYBLOCK
 62
     0
100
AcDbText
 10
179.4515857512305
 20
196.4997409445168
 30
0.0
 40
4.589999999999998
  1
01
 41
0.8
  7
GHS
100
AcDbText
  0
TEXT
  5
26F
330
2
100
AcDbEntity
  8
1
  6
BYBLOCK
 62
     0
100
AcDbText
 10
179.4515857512305
 20
187.3197409445165
 30
0.0
 40
4.589999999999998
  1
02
 41
0.8
  7
GHS
100
AcDbText
  0
TEXT
  5
270
330
2
100
AcDbEntity
  8
1
  6
BYBLOCK
 62
     0
100
AcDbText
 10
227.4362748182429
 20
205.5030958723818
 30
0.0
 40
4.589999999999998
  1
APPLICATION MODEL
 41
0.8
  7
GHS
100
AcDbText
  0
LINE
  5
271
330
2
100
AcDbEntity
  8
1
  6
BYBLOCK
 62
     0
100
AcDbLine
 10
224.4244068808784
 20
212.3836307791132
 30
0.0
 11
224.4244068808784
 21
184.8436307791134
 31
0.0
  0
TEXT
  5
272
330
2
100
AcDbEntity
  8
1
  6
BYBLOCK
 62
     0
100
AcDbText
 10
230.6537732114993
 20
196.6388672561192
 30
0.0
 40
4.589999999999998
  1
K8G3~18B(C)
 41
0.8
  7
GHS
100
AcDbText
  0
TEXT
  5
273
330
2
100
AcDbEntity
  8
1
  6
BYBLOCK
 62
     0
100
AcDbText
 10
231.0551261141099
 20
187.4588672561185
 30
0.0
 40
4.589999999999998
  1
K8G25~180B(C)
 41
0.8
  7
GHS
100
AcDbText
  0
LINE
  5
274
330
2
100
AcDbEntity
  8
1
  6
BYBLOCK
 62
     0
100
AcDbLine
 10
283.668319961398
 20
212.3836307791132
 30
0.0
 11
283.668319961398
 21
184.8436307791134
 31
0.0
  0
LINE
  5
275
330
2
100
AcDbEntity
  8
0
 48
0.6
100
AcDbLine
 10
50.92005608295039
 20
333.5878117029797
 30
0.0
 11
120.9200560829504
 21
333.5878117029797
 31
0.0
  0
LINE
  5
276
330
2
100
AcDbEntity
  8
0
 48
0.6
100
AcDbLine
 10
50.92005608295039
 20
253.5878117029797
 30
0.0
 11
120.9200560829504
 21
253.5878117029797
 31
0.0
  0
CIRCLE
  5
277
330
2
100
AcDbEntity
  8
0
 48
0.6
100
AcDbCircle
 10
85.9200560829395
 20
293.5878117029797
 30
0.0
 40
36.5
  0
INSERT
  5
278
330
2
100
AcDbEntity
  8
0
100
AcDbBlockReference
  2
5
 10
85.9200560829395
 20
293.5878117029797
 30
0.0
  0
LINE
  5
279
330
2
100
AcDbEntity
  8
CEN
 48
0.6
100
AcDbLine
 10
41.84306635735082
 20
293.5878117029797
 30
0.0
 11
129.997045808539
 21
293.5878117029797
 31
0.0
  0
LINE
  5
27A
330
2
100
AcDbEntity
  8
CEN
 48
0.6
100
AcDbLine
 10
41.84306635735082
 20
293.5878117029797
 30
0.0
 11
129.997045808539
 21
293.5878117029797
 31
0.0
  0
DIMENSION
  5
27B
102
{ACAD_XDICTIONARY
360
27C
102
}
102
{ACAD_REACTORS
330
27D
102
}
330
2
100
AcDbEntity
  8
0
100
AcDbDimension
  2
*D53
 10
125.9200560829394
 20
232.6108503628593
 30
0.0
 11
89.73927385346907
 21
232.6108503628593
 31
0.0
 70
   160
  3
STANDARD
100
AcDbAlignedDimension
 13
45.92005608293947
 23
258.5878117029797
 33
0.0
 14
125.9200560829394
 24
258.5878117029797
 34
0.0
100
AcDbRotatedDimension
  0
ARC
  5
28A
330
2
100
AcDbEntity
  8
0
 48
0.6
100
AcDbCircle
 10
50.92005608295039
 20
328.5878117029797
 30
0.0
 40
5.0
100
AcDbArc
 50
90.0
 51
180.0
  0
ARC
  5
28B
330
2
100
AcDbEntity
  8
0
 48
0.6
100
AcDbCircle
 10
50.92005608295039
 20
258.5878117029797
 30
0.0
 40
5.0
100
AcDbArc
 50
180.0
 51
270.0
  0
LINE
  5
28C
330
2
100
AcDbEntity
  8
0
 48
0.6
100
AcDbLine
 10
45.92005608293947
 20
328.5878117029797
 30
0.0
 11
45.92005608293947
 21
258.5878117029797
 31
0.0
  0
LEADER
  5
28D
330
2
100
AcDbEntity
  8
0
100
AcDbLeader
  3
STANDARD
 73
     0
 75
     1
 40
3.0
 41
26.65178571428571
 76
     3
 10
119.154074798711
 20
329.5718304187461
 30
0.0
 10
108.8743919535699
 20
349.785174010467
 30
0.0
 10
106.3743919535699
 20
349.785174010467
 30
0.0
340
28E
213
0.0
223
-0.416076846235228
233
0.0
1001
ACAD
1000
DSTYLE
1002
{
1070
     5
1000

1070
   342
1005
0
1002
}
  0
MTEXT
  5
28E
102
{ACAD_REACTORS
330
28D
102
}
330
2
100
AcDbEntity
  8
0
 62
     3
100
AcDbMText
 10
105.3743919535699
 20
351.2012508567021
 30
0.0
 40
3.0
 41
0.0
 71
     9
 72
     1
  1
4-%%c5.5 hole
1001
ACAD
1000
MTEXTBEGIN
1070
    73
1070
     1
1070
    44
1040
1.0
1070
    74
1070
     0
1000
MTEXTEND
1000
MTEXTBEGIN
1070
    73
1070
     1
1070
    44
1040
1.0
1070
    74
1070
     0
1000
MTEXTEND
1000
MTEXTBEGIN
1070
    73
1070
     1
1070
    44
1040
1.0
1070
    74
1070
     0
1000
MTEXTEND
  0
LINE
  5
28F
102
{ACAD_REACTORS
330
2CE
102
}
330
2
100
AcDbEntity
  8
CEN
 48
0.6
100
AcDbLine
 10
179.9655035413306
 20
293.5878117029797
 30
0.0
 11
279.2326460150543
 21
293.5878117029797
 31
0.0
  0
DIMENSION
  5
290
330
2
100
AcDbEntity
  8
0
100
AcDbDimension
  2
*D60
 10
158.0587947838685
 20
291.5878117029797
 30
0.0
 11
158.0587947838685
 21
308.5878117029797
 31
0.0
 70
   160
  1
{\f??|b0|i0|c0|p49;%%c}<>
  3
STANDARD
100
AcDbAlignedDimension
 13
221.0731766754306
 23
325.5878117029783
 33
0.0
 14
221.0731766754306
 24
291.5878117029797
 34
0.0
 50
90.0
100
AcDbRotatedDimension
  0
LINE
  5
29D
102
{ACAD_REACTORS
330
2CE
102
}
330
2
100
AcDbEntity
  8
CEN
  6
BYBLOCK
 62
     0
100
AcDbLine
 10
220.5731766754325
 20
303.5878117029797
 30
0.0
 11
191.5731766754323
 21
303.5878117029797
 31
0.0
  0
LINE
  5
29E
102
{ACAD_REACTORS
330
2CE
102
}
330
2
100
AcDbEntity
  8
CEN
 48
0.6
100
AcDbLine
 10
231.3211240581366
 20
308.5878117029797
 30
0.0
 11
187.6750378742053
 21
308.5878117029797
 31
0.0
  0
LINE
  5
29F
102
{ACAD_REACTORS
330
2CE
330
2A3
330
2BD
102
}
330
2
100
AcDbEntity
  8
CEN
  6
BYBLOCK
 62
     0
100
AcDbLine
 10
220.5731766754325
 20
313.5878117029797
 30
0.0
 11
191.5731766754323
 21
313.5878117029797
 31
0.0
  0
LINE
  5
2A0
102
{ACAD_REACTORS
330
2CE
102
}
330
2
100
AcDbEntity
  8
CEN
  6
HIDDEN
 62
     2
100
AcDbLine
 10
216.5731766754305
 20
311.0878117029796
 30
0.0
 11
191.5731766754323
 21
311.0878117029796
 31
0.0
  0
DIMENSION
  5
2A1
102
{ACAD_XDICTIONARY
360
2A2
102
}
102
{ACAD_REACTORS
330
2A3
102
}
330
2
100
AcDbEntity
  8
0
100
AcDbDimension
  2
*D59
 10
191.5731766754323
 20
329.8080999098814
 30
0.0
 11
204.3841073428302
 21
329.8080999098814
 31
0.0
 70
   160
  3
STANDARD
100
AcDbAlignedDimension
 13
216.5731766754305
 23
313.5878117029797
 33
0.0
 14
191.5731766754323
 24
313.5878117029783
 34
0.0
 50
180.0
100
AcDbRotatedDimension
  0
ARC
  5
2B0
330
2
100
AcDbEntity
  8
0
 48
0.6
100
AcDbCircle
 10
120.9200560829504
 20
328.5878117029797
 30
0.0
 40
5.0
100
AcDbArc
 50
0.0
 51
90.0
  0
ARC
  5
2B1
330
2
100
AcDbEntity
  8
0
 48
0.6
100
AcDbCircle
 10
120.9200560829504
 20
258.5878117029797
 30
0.0
 40
5.0
100
AcDbArc
 50
270.0
 51
0.0
  0
LINE
  5
2B2
330
2
100
AcDbEntity
  8
CEN
 48
0.6
100
AcDbLine
 10
66.4544537954007
 20
308.5878117029797
 30
0.0
 11
105.3061516106698
 21
308.5878117029797
 31
0.0
  0
LINE
  5
2B3
330
2
100
AcDbEntity
  8
0
 48
0.6
100
AcDbLine
 10
83.92005608293947
 20
311.0878117029796
 30
0.0
 11
87.9200560829504
 21
311.0878117029796
 31
0.0
  0
LINE
  5
2B4
102
{ACAD_REACTORS
330
27D
102
}
330
2
100
AcDbEntity
  8
0
 48
0.6
100
AcDbLine
 10
125.9200560829394
 20
328.5878117029797
 30
0.0
 11
125.9200560829394
 21
258.5878117029797
 31
0.0
  0
CIRCLE
  5
2B5
330
2
100
AcDbEntity
  8
0
 48
0.6
100
AcDbCircle
 10
85.9200560829395
 20
308.5878117029797
 30
0.0
 40
17.0
  0
CIRCLE
  5
2B6
330
2
100
AcDbEntity
  8
0
 48
0.6
100
AcDbCircle
 10
85.9200560829395
 20
308.5878117029797
 30
0.0
 40
5.0
  0
LINE
  5
2B7
330
2
100
AcDbEntity
  8
0
 62
     0
 48
0.6
100
AcDbLine
 10
83.92005608293947
 20
313.1703873979345
 30
0.0
 11
83.92005608293947
 21
311.0878117029796
 31
0.0
  0
LINE
  5
2B8
330
2
100
AcDbEntity
  8
0
 62
     0
 48
0.6
100
AcDbLine
 10
87.9200560829504
 20
313.1703873979345
 30
0.0
 11
87.9200560829504
 21
311.0878117029796
 31
0.0
  0
LINE
  5
2B9
330
2
100
AcDbEntity
  8
CEN
 48
0.6
100
AcDbLine
 10
85.9200560829395
 20
246.4156884945823
 30
0.0
 11
85.9200560829395
 21
340.7599349113759
 31
0.0
  0
LINE
  5
2BA
330
2
100
AcDbEntity
  8
CEN
 48
0.6
100
AcDbLine
 10
85.9200560829395
 20
246.4156884945823
 30
0.0
 11
85.9200560829395
 21
340.7599349113756
 31
0.0
  0
DIMENSION
  5
2BB
102
{ACAD_XDICTIONARY
360
2BC
102
}
102
{ACAD_REACTORS
330
2BD
102
}
330
2
100
AcDbEntity
  8
0
100
AcDbDimension
  2
*D58
 10
176.7485133864574
 20
313.5878117029797
 30
0.0
 11
176.7485133864574
 21
341.6987456287224
 31
0.0
 70
   160
  1
\A1;{\f??|b0|i0|c0|p49;%%C10\H0.7x;\S+0^ -0.015;\H1.429x;(h7)}
  3
STANDARD
100
AcDbAlignedDimension
 13
191.5731766754323
 23
303.5878117029797
 33
0.0
 14
191.5731766754323
 24
313.5878117029797
 34
0.0
 50
90.0
100
AcDbRotatedDimension
  0
DIMENSION
  5
2CC
102
{ACAD_XDICTIONARY
360
2CD
102
}
102
{ACAD_REACTORS
330
2CE
102
}
330
2
100
AcDbEntity
  8
0
100
AcDbDimension
  2
*D57
 10
167.7266300039391
 20
293.5878117029797
 30
0.0
 11
165.2266300039391
 21
301.0878117029797
 31
0.0
 70
    32
  3
STANDARD
100
AcDbAlignedDimension
 13
187.6750378742053
 23
308.5878117029797
 33
0.0
 14
179.9655035413306
 24
293.5878117029797
 34
0.0
 50
90.0
100
AcDbRotatedDimension
  0
LINE
  5
2DB
102
{ACAD_REACTORS
330
2BD
102
}
330
2
100
AcDbEntity
  8
0
100
AcDbLine
 10
191.5731766754323
 20
313.5878117029797
 30
0.0
 11
191.5731766754323
 21
303.5878117029797
 31
0.0
  0
ARC
  5
2DC
330
2
100
AcDbEntity
  8
0
100
AcDbCircle
 10
221.0731766754306
 20
292.0878117029797
 30
0.0
 40
0.5
100
AcDbArc
 50
180.0
 51
270.0
  0
DIMENSION
  5
2DD
330
2
100
AcDbEntity
  8
0
100
AcDbDimension
  2
*D56
 10
220.5731766754325
 20
340.1977396118831
 30
0.0
 11
222.0731766754322
 21
340.1977396118831
 31
0.0
 70
   160
  3
STANDARD
100
AcDbAlignedDimension
 13
223.5731766754323
 23
333.0878117029783
 33
0.0
 14
220.5731766754325
 24
325.0878117029797
 34
0.0
 50
180.0
100
AcDbRotatedDimension
  0
ARC
  5
2EC
330
2
100
AcDbEntity
  8
0
100
AcDbCircle
 10
221.0731766754306
 20
325.0878117029797
 30
0.0
 40
0.5
100
AcDbArc
 50
90.0
 51
180.0
  0
LINE
  5
2ED
102
{ACAD_REACTORS
330
2A3
102
}
330
2
100
AcDbEntity
  8
0
  6
HIDDEN
 62
     2
100
AcDbLine
 10
216.5731766754305
 20
313.5878117029797
 30
0.0
 11
216.5731766754305
 21
311.0878117029796
 31
0.0
  0
LINE
  5
2EE
330
2
100
AcDbEntity
  8
0
100
AcDbLine
 10
266.0731766754324
 20
333.0878117029797
 30
0.0
 11
266.0731766754324
 21
254.0878117029797
 31
0.0
  0
LINE
  5
2EF
330
2
100
AcDbEntity
  8
0
100
AcDbLine
 10
266.0731766754324
 20
254.0878117029797
 30
0.0
 11
265.0731766754306
 21
254.0878117029797
 31
0.0
  0
LINE
  5
2F0
330
2
100
AcDbEntity
  8
0
100
AcDbLine
 10
265.0731766754306
 20
254.0878117029797
 30
0.0
 11
265.0731766754306
 21
253.5878117029797
 31
0.0
  0
LINE
  5
2F1
330
2
100
AcDbEntity
  8
0
100
AcDbLine
 10
266.0731766754324
 20
333.0878117029797
 30
0.0
 11
265.0731766754306
 21
333.0878117029797
 31
0.0
  0
LINE
  5
2F2
330
2
100
AcDbEntity
  8
0
100
AcDbLine
 10
265.0731766754306
 20
333.5878117029797
 30
0.0
 11
265.0731766754306
 21
333.0878117029797
 31
0.0
  0
LINE
  5
2F3
330
2
100
AcDbEntity
  8
0
100
AcDbLine
 10
223.5731766754323
 20
333.0878117029797
 30
0.0
 11
223.5731766754323
 21
254.0878117029797
 31
0.0
  0
LINE
  5
2F4
330
2
100
AcDbEntity
  8
0
100
AcDbLine
 10
220.5731766754325
 20
325.0878117029797
 30
0.0
 11
220.5731766754325
 21
294.0878117029797
 31
0.0
  0
ARC
  5
2F5
330
2
100
AcDbEntity
  8
0
100
AcDbCircle
 10
224.0731766754306
 20
254.0878117029797
 30
0.0
 40
0.5
100
AcDbArc
 50
180.0
 51
270.0
  0
LINE
  5
2F6
330
2
100
AcDbEntity
  8
0
100
AcDbLine
 10
221.0731766754306
 20
291.5878117029797
 30
0.0
 11
223.5731766754323
 21
291.5878117029797
 31
0.0
  0
ARC
  5
2F7
330
2
100
AcDbEntity
  8
0
100
AcDbCircle
 10
224.0731766754306
 20
333.0878117029797
 30
0.0
 40
0.5
100
AcDbArc
 50
90.0
 51
180.0
  0
LINE
  5
2F8
330
2
100
AcDbEntity
  8
0
100
AcDbLine
 10
221.0731766754306
 20
325.5878117029797
 30
0.0
 11
223.5731766754323
 21
325.5878117029797
 31
0.0
  0
LINE
  5
2F9
330
2
100
AcDbEntity
  8
0
100
AcDbLine
 10
265.0731766754306
 20
253.5878117029797
 30
0.0
 11
224.0731766754306
 21
253.5878117029797
 31
0.0
  0
LINE
  5
2FA
330
2
100
AcDbEntity
  8
0
100
AcDbLine
 10
265.0731766754306
 20
333.5878117029797
 30
0.0
 11
224.0731766754306
 21
333.5878117029797
 31
0.0
  0
ARC
  5
2FB
330
2
100
AcDbEntity
  8
2
 62
     7
100
AcDbCircle
 10
221.0731766754306
 20
292.0878117029797
 30
0.0
 40
0.4999999999999968
100
AcDbArc
 50
180.0
 51
270.0
  0
LINE
  5
2FC
330
2
100
AcDbEntity
  8
2
 62
     7
100
AcDbLine
 10
220.5731766754325
 20
292.0878117029797
 30
0.0
 11
220.5731766754325
 21
293.5878117029797
 31
0.0
  0
LINE
  5
2FD
330
2
100
AcDbEntity
  8
2
 62
     7
100
AcDbLine
 10
223.5731766754323
 20
291.5878117029797
 30
0.0
 11
221.0731766754306
 21
291.5878117029797
 31
0.0
  0
TEXT
  5
2FE
330
2
100
AcDbEntity
  8
1
 62
     0
100
AcDbText
 10
170.8063136210385
 20
217.8910695660824
 30
0.0
 40
4.589999999999998
  1
DIMENSION TABLE
 41
0.8
  7
GHS
100
AcDbText
  0
LWPOLYLINE
  5
2FF
330
2
100
AcDbEntity
  8
3
100
AcDbPolyline
 90
        4
 70
     1
 43
0.0
 10
82.69451497645059
 20
233.3021814814201
 10
85.99451497645167
 20
233.3021814814201
 10
85.99451497645167
 20
236.8021814814214
 10
82.69451497645059
 20
236.8021814814214
  0
DIMENSION
  5
300
330
2
100
AcDbEntity
  8
0
100
AcDbDimension
  2
*D55
 10
223.5731766754323
 20
240.5001306546874
 30
0.0
 11
207.5731766754322
 21
243.0001306546873
 31
0.0
 70
    32
  3
STANDARD
100
AcDbAlignedDimension
 13
191.5731766754323
 23
303.5878117029783
 33
0.0
 14
223.5731766754323
 24
254.0878117029797
 34
0.0
 50
180.0
100
AcDbRotatedDimension
  0
DIMENSION
  5
30D
330
2
100
AcDbEntity
  8
0
100
AcDbDimension
  2
*D54
 10
223.5731766754323
 20
240.5001306546874
 30
0.0
 11
244.8231766754322
 21
243.0001306546873
 31
0.0
 70
    32
  1
L
  3
STANDARD
100
AcDbAlignedDimension
 13
266.0731766754324
 23
254.0878117029797
 33
0.0
 14
223.5731766754323
 24
254.0878117029797
 34
0.0
 50
180.0
100
AcDbRotatedDimension
  0
DIMENSION
  5
31A
102
{ACAD_XDICTIONARY
360
31B
102
}
102
{ACAD_REACTORS
330
31C
102
}
330
2
100
AcDbEntity
  8
0
100
AcDbDimension
  2
*D61
 10
137.1189148189295
 20
494.9917232360752
 30
0.0
 11
98.72763620357
 21
494.9917232360752
 31
0.0
 70
   160
  3
STANDARD
100
AcDbAlignedDimension
 13
57.11891481892962
 23
475.517156586337
 33
0.0
 14
137.1189148189295
 24
475.517156586337
 34
0.0
100
AcDbRotatedDimension
  0
LINE
  5
329
330
2
100
AcDbEntity
  8
0
 48
0.6
100
AcDbLine
 10
62.11891481892962
 20
480.5171565863355
 30
0.0
 11
132.1189148189295
 21
480.5171565863355
 31
0.0
  0
LINE
  5
32A
330
2
100
AcDbEntity
  8
CEN
 48
0.6
100
AcDbLine
 10
53.04192509333006
 20
440.5171565863356
 30
0.0
 11
141.195904544531
 21
440.5171565863356
 31
0.0
  0
LINE
  5
32B
330
2
100
AcDbEntity
  8
0
 48
0.6
100
AcDbLine
 10
62.11891481892962
 20
400.5171565863355
 30
0.0
 11
132.1189148189295
 21
400.5171565863355
 31
0.0
  0
INSERT
  5
32C
330
2
100
AcDbEntity
  8
0
100
AcDbBlockReference
  2
5
 10
97.11891481892964
 20
440.5171565863368
 30
0.0
  0
CIRCLE
  5
32D
330
2
100
AcDbEntity
  8
0
 48
0.6
100
AcDbCircle
 10
97.11891481892964
 20
440.5171565863356
 30
0.0
 40
37.00000000000005
  0
ARC
  5
32E
102
{ACAD_REACTORS
330
31C
102
}
330
2
100
AcDbEntity
  8
0
 48
0.6
100
AcDbCircle
 10
62.11891481892962
 20
475.517156586337
 30
0.0
 40
5.0
100
AcDbArc
 50
90.0
 51
180.0
  0
ARC
  5
32F
330
2
100
AcDbEntity
  8
0
 48
0.6
100
AcDbCircle
 10
62.11891481892962
 20
405.517156586337
 30
0.0
 40
5.0
100
AcDbArc
 50
180.0
 51
270.0
  0
LINE
  5
330
330
2
100
AcDbEntity
  8
0
 48
0.6
100
AcDbLine
 10
57.11891481892962
 20
475.517156586337
 30
0.0
 11
57.11891481892962
 21
405.517156586337
 31
0.0
  0
LEADER
  5
331
330
2
100
AcDbEntity
  8
0
100
AcDbLeader
  3
STANDARD
 73
     0
 75
     1
 40
3.0
 41
26.65178571428571
 76
     3
 10
130.587003988119
 20
476.5011753021026
 30
0.0
 10
120.3073211429799
 20
505.7084351389006
 30
0.0
 10
117.80732114298
 20
505.7084351389006
 30
0.0
340
332
213
0.0
223
-0.416076846235228
233
0.0
1001
ACAD
1000
DSTYLE
1002
{
1070
     5
1000

1070
   342
1005
0
1002
}
  0
MTEXT
  5
332
102
{ACAD_REACTORS
330
331
102
}
330
2
100
AcDbEntity
  8
0
 62
     3
100
AcDbMText
 10
116.80732114298
 20
507.1245119851361
 30
0.0
 40
3.0
 41
0.0
 71
     9
 72
     1
  1
4-%%c5.5 hole
1001
ACAD
1000
MTEXTBEGIN
1070
    73
1070
     1
1070
    44
1040
1.0
1070
    74
1070
     0
1000
MTEXTEND
1000
MTEXTBEGIN
1070
    73
1070
     1
1070
    44
1040
1.0
1070
    74
1070
     0
1000
MTEXTEND
1000
MTEXTBEGIN
1070
    73
1070
     1
1070
    44
1040
1.0
1070
    74
1070
     0
1000
MTEXTEND
  0
DIMENSION
  5
333
102
{ACAD_XDICTIONARY
360
334
102
}
102
{ACAD_REACTORS
330
335
102
}
330
2
100
AcDbEntity
  8
0
100
AcDbDimension
  2
*D65
 10
230.3118632902897
 20
500.3736482062771
 30
0.0
 11
214.3118632902897
 21
500.3736482062771
 31
0.0
 70
   160
  3
STANDARD
100
AcDbAlignedDimension
 13
198.3118632902897
 23
480.5171565863355
 33
0.0
 14
230.3118632902897
 24
480.5171565863355
 34
0.0
100
AcDbRotatedDimension
  0
LINE
  5
342
102
{ACAD_REACTORS
330
335
102
}
330
2
100
AcDbEntity
  8
0
100
AcDbLine
 10
198.3118632902897
 20
480.5171565863355
 30
0.0
 11
230.3118632902897
 21
480.5171565863355
 31
0.0
  0
LINE
  5
343
330
2
100
AcDbEntity
  8
CEN
 48
0.6
100
AcDbLine
 10
239.4250964346664
 20
440.5171565863356
 30
0.0
 11
180.6680694896567
 21
440.5171565863356
 31
0.0
  0
ARC
  5
344
102
{ACAD_REACTORS
330
31C
102
}
330
2
100
AcDbEntity
  8
0
 48
0.6
100
AcDbCircle
 10
132.1189148189295
 20
475.517156586337
 30
0.0
 40
5.0
100
AcDbArc
 50
0.0
 51
90.0
  0
CIRCLE
  5
345
330
2
100
AcDbEntity
  8
0
 48
0.6
100
AcDbCircle
 10
97.11891481892964
 20
440.5171565863356
 30
0.0
 40
3.604999999999998
  0
CIRCLE
  5
346
330
2
100
AcDbEntity
  8
0
 48
0.6
100
AcDbCircle
 10
97.11891481892964
 20
440.5171565863356
 30
0.0
 40
2.46089887076698
  0
LWPOLYLINE
  5
347
330
2
100
AcDbEntity
  8
3
100
AcDbPolyline
 90
        4
 70
     1
 43
0.0
 10
91.81969090598068
 20
495.8051604528908
 10
95.11969090598176
 20
495.8051604528908
 10
95.11969090598176
 20
499.3051604528908
 10
91.81969090598068
 20
499.3051604528908
  0
DIMENSION
  5
348
330
2
100
AcDbEntity
  8
0
100
AcDbDimension
  2
*D64
 10
198.3118632902897
 20
490.0796443113663
 30
0.0
 11
189.3118632902897
 21
490.0796443113663
 31
0.0
 70
   160
  3
STANDARD
100
AcDbAlignedDimension
 13
196.3118632902896
 23
477.0171565863356
 33
0.0
 14
198.3118632902897
 24
480.5171565863355
 34
0.0
100
AcDbRotatedDimension
  0
DIMENSION
  5
357
330
2
100
AcDbEntity
  8
0
100
AcDbDimension
  2
*D63
 10
198.3118632902897
 20
500.3736482062767
 30
0.0
 11
192.0618632902897
 21
500.3736482062767
 31
0.0
 70
   160
  3
STANDARD
100
AcDbAlignedDimension
 13
184.8118632902894
 23
443.6221565863355
 33
0.0
 14
198.3118632902897
 24
480.5171565863355
 34
0.0
100
AcDbRotatedDimension
  0
LINE
  5
364
330
2
100
AcDbEntity
  8
0
100
AcDbLine
 10
198.3118632902897
 20
477.0171565863356
 30
0.0
 11
196.3118632902896
 21
477.0171565863356
 31
0.0
  0
ARC
  5
365
330
2
100
AcDbEntity
  8
0
100
AcDbCircle
 10
191.3550502011256
 20
470.0383874753561
 30
0.0
 40
26.81626566475105
100
AcDbArc
 50
269.9077265708258
 51
280.65200973929
  0
ARC
  5
366
330
2
100
AcDbEntity
  8
0
100
AcDbCircle
 10
191.3550502011201
 20
410.9959256972861
 30
0.0
 40
26.81626566478071
100
AcDbArc
 50
79.34799026071575
 51
90.09227342916824
  0
LINE
  5
367
330
2
100
AcDbEntity
  8
0
100
AcDbLine
 10
185.3118632902896
 20
444.1221565863356
 30
0.0
 11
196.3118632902896
 21
444.1221565863356
 31
0.0
  0
LINE
  5
368
330
2
100
AcDbEntity
  8
0
100
AcDbLine
 10
185.3118632902896
 20
436.9121565863355
 30
0.0
 11
196.3118632902896
 21
436.9121565863355
 31
0.0
  0
LINE
  5
369
330
2
100
AcDbEntity
  8
0
100
AcDbLine
 10
185.3118632902896
 20
444.1221565863356
 30
0.0
 11
184.8118632902894
 21
443.6221565863355
 31
0.0
  0
LINE
  5
36A
330
2
100
AcDbEntity
  8
0
100
AcDbLine
 10
184.8118632902894
 20
443.2221565863359
 30
0.0
 11
191.3118632902913
 21
443.2221565863359
 31
0.0
  0
LINE
  5
36B
330
2
100
AcDbEntity
  8
0
100
AcDbLine
 10
184.8118632902894
 20
437.4121565863352
 30
0.0
 11
185.3118632902896
 21
436.9121565863351
 31
0.0
  0
LINE
  5
36C
330
2
100
AcDbEntity
  8
0
100
AcDbLine
 10
184.8118632902894
 20
437.8121565863357
 30
0.0
 11
191.3118632902913
 21
437.8121565863357
 31
0.0
  0
LINE
  5
36D
330
2
100
AcDbEntity
  8
2
100
AcDbLine
 10
191.3118632902913
 20
441.2824560479576
 30
0.0
 11
185.3118632902896
 21
438.1546047832001
 31
0.0
  0
LINE
  5
36E
330
2
100
AcDbEntity
  8
2
100
AcDbLine
 10
191.3118632902913
 20
443.2221565863359
 30
0.0
 11
191.3118632902913
 21
437.8121565863357
 31
0.0
  0
LINE
  5
36F
330
2
100
AcDbEntity
  8
0
100
AcDbLine
 10
184.8118632902894
 20
443.6221565863355
 30
0.0
 11
184.8118632902894
 21
437.4121565863352
 31
0.0
  0
LINE
  5
370
330
2
100
AcDbEntity
  8
2
100
AcDbLine
 10
185.3118632902896
 20
444.1221565863356
 30
0.0
 11
185.3118632902896
 21
436.9121565863351
 31
0.0
  0
LINE
  5
371
330
2
100
AcDbEntity
  8
2
100
AcDbLine
 10
190.8657603005103
 20
443.2221565863359
 30
0.0
 11
185.3118632902896
 21
440.4164306441733
 31
0.0
  0
LINE
  5
372
330
2
100
AcDbEntity
  8
2
100
AcDbLine
 10
191.3118632902913
 20
442.4371565863356
 30
0.0
 11
185.3118632902896
 21
439.2617301057931
 31
0.0
  0
LINE
  5
373
330
2
100
AcDbEntity
  8
0
100
AcDbLine
 10
198.3118632902897
 20
400.5171565863352
 30
0.0
 11
230.3118632902897
 21
400.5171565863352
 31
0.0
  0
ARC
  5
374
330
2
100
AcDbEntity
  8
0
 48
0.6
100
AcDbCircle
 10
132.1189148189295
 20
405.517156586337
 30
0.0
 40
5.0
100
AcDbArc
 50
270.0
 51
0.0
  0
LINE
  5
375
330
2
100
AcDbEntity
  8
0
 48
0.6
100
AcDbLine
 10
116.5711027824889
 20
400.5171565863355
 30
0.0
 11
110.8300525559607
 21
400.5171565863355
 31
0.0
  0
LINE
  5
376
330
2
100
AcDbEntity
  8
0
100
AcDbLine
 10
198.3118632902897
 20
404.0171565863357
 30
0.0
 11
196.3118632902896
 21
404.0171565863357
 31
0.0
  0
LINE
  5
377
330
2
100
AcDbEntity
  8
CEN
 48
0.6
100
AcDbLine
 10
97.11891481892964
 20
393.3450333779392
 30
0.0
 11
97.11891481892964
 21
487.6892797947329
 31
0.0
  0
LINE
  5
378
330
2
100
AcDbEntity
  8
0
 48
0.6
100
AcDbLine
 10
137.1189148189295
 20
475.517156586337
 30
0.0
 11
137.1189148189295
 21
405.517156586337
 31
0.0
  0
DIMENSION
  5
379
102
{ACAD_XDICTIONARY
360
37A
102
}
102
{ACAD_REACTORS
330
37B
102
}
330
2
100
AcDbEntity
  8
0
100
AcDbDimension
  2
*D62
 10
172.8107658989139
 20
477.0171565863356
 30
0.0
 11
172.8107658989138
 21
440.5171565863356
 31
0.0
 70
   160
  1
\A1;{\f??|b0|i0|c0|p49;%%C}<>{\f??|b0|i0|c0|p49;\H0.7x;\S+0^ -0.030;\H1.429x;(h7)}
  3
STANDARD
100
AcDbAlignedDimension
 13
196.3118632902896
 23
404.0171565863357
 33
0.0
 14
196.3118632902896
 24
477.0171565863356
 34
0.0
 50
90.0
100
AcDbRotatedDimension
  0
LINE
  5
388
330
2
100
AcDbEntity
  8
0
100
AcDbLine
 10
198.3118632902897
 20
480.5171565863355
 30
0.0
 11
198.3118632902897
 21
400.5171565863352
 31
0.0
  0
LINE
  5
389
102
{ACAD_REACTORS
330
37B
102
}
330
2
100
AcDbEntity
  8
0
100
AcDbLine
 10
196.3118632902896
 20
477.0171565863356
 30
0.0
 11
196.3118632902896
 21
404.0171565863357
 31
0.0
  0
LINE
  5
38A
330
2
100
AcDbEntity
  8
0
100
AcDbLine
 10
230.3118632902897
 20
480.5171565863355
 30
0.0
 11
230.3118632902897
 21
400.5171565863352
 31
0.0
  0
ENDSEC
  0
SECTION
  2
OBJECTS
  0
DICTIONARY
  5
9
330
0
100
AcDbDictionary
  3
ACAD_GROUP
350
98
  3
ACAD_LAYOUT
350
D
  3
ACAD_MLINESTYLE
350
99
  3
ACAD_PLOTSETTINGS
350
9A
  3
ACAD_PLOTSTYLENAME
350
8
  3
ACDBHEADERROUNDTRIPXREC
350
5B0
  3
ACDBVARIABLEDICTIONARY
350
38B
  0
DICTIONARY
  5
15
330
14
100
AcDbDictionary
280
     1
  3
ACAD_LAYERFILTERS
360
16
  3
ACAD_LAYERSTATES
360
89
  0
DICTIONARY
  5
3
330
2
100
AcDbDictionary
280
     1
  3
ACAD_LAYOUTSELFREF
360
5D1
  0
DICTIONARY
  5
F
330
E
100
AcDbDictionary
280
     1
  3
ACAD_LAYOUTSELFREF
360
5D2
  0
DICTIONARY
  5
C0
330
BF
100
AcDbDictionary
280
     1
  3
ACAD_DIMASSOC
360
C1
  0
DICTIONARY
  5
A8
330
A7
100
AcDbDictionary
280
     1
  3
ACAD_DIMASSOC
360
A9
  0
DICTIONARY
  5
DE
330
DD
100
AcDbDictionary
280
     1
  3
ACAD_DIMASSOC
360
DF
  0
DICTIONARY
  5
120
330
11F
100
AcDbDictionary
280
     1
  3
ACAD_DIMASSOC
360
121
  0
DICTIONARY
  5
131
330
130
100
AcDbDictionary
280
     1
  3
ACAD_DIMASSOC
360
132
  0
DICTIONARY
  5
165
330
164
100
AcDbDictionary
280
     1
  3
ACAD_DIMASSOC
360
166
  0
DICTIONARY
  5
174
330
173
100
AcDbDictionary
280
     1
  3
ACAD_DIMASSOC
360
175
  0
DICTIONARY
  5
1B1
330
1B0
100
AcDbDictionary
280
     1
  3
ACAD_DIMASSOC
360
1B2
  0
DICTIONARY
  5
1C3
330
1C2
100
AcDbDictionary
280
     1
  3
ACAD_DIMASSOC
360
1C4
  0
DICTIONARY
  5
1D2
330
1D1
100
AcDbDictionary
280
     1
  3
ACAD_DIMASSOC
360
1D3
  0
DICTIONARY
  5
1E5
330
1E4
100
AcDbDictionary
280
     1
  3
ACAD_DIMASSOC
360
1E6
  0
DICTIONARY
  5
205
330
204
100
AcDbDictionary
280
     1
  3
ACAD_DIMASSOC
360
206
  0
DICTIONARY
  5
229
330
228
100
AcDbDictionary
280
     1
  3
ACAD_DIMASSOC
360
22A
  0
DICTIONARY
  5
248
330
247
100
AcDbDictionary
280
     1
  3
ACAD_DIMASSOC
360
249
  0
DICTIONARY
  5
259
330
258
100
AcDbDictionary
280
     1
  3
ACAD_DIMASSOC
360
25A
  0
DICTIONARY
  5
27C
330
27B
100
AcDbDictionary
280
     1
  3
ACAD_DIMASSOC
360
27D
  0
DICTIONARY
  5
2A2
330
2A1
100
AcDbDictionary
280
     1
  3
ACAD_DIMASSOC
360
2A3
  0
DICTIONARY
  5
2BC
330
2BB
100
AcDbDictionary
280
     1
  3
ACAD_DIMASSOC
360
2BD
  0
DICTIONARY
  5
2CD
330
2CC
100
AcDbDictionary
280
     1
  3
ACAD_DIMASSOC
360
2CE
  0
DICTIONARY
  5
31B
330
31A
100
AcDbDictionary
280
     1
  3
ACAD_DIMASSOC
360
31C
  0
DICTIONARY
  5
334
330
333
100
AcDbDictionary
280
     1
  3
ACAD_DIMASSOC
360
335
  0
DICTIONARY
  5
37A
330
379
100
AcDbDictionary
280
     1
  3
ACAD_DIMASSOC
360
37B
  0
DICTIONARY
  5
98
102
{ACAD_REACTORS
330
9
102
}
330
9
100
AcDbDictionary
  0
DICTIONARY
  5
D
102
{ACAD_REACTORS
330
9
102
}
330
9
100
AcDbDictionary
  0
DICTIONARY
  5
99
102
{ACAD_REACTORS
330
9
102
}
330
9
100
AcDbDictionary
  3
STANDARD
350
9B
  0
DICTIONARY
  5
9A
102
{ACAD_REACTORS
330
9
102
}
330
9
100
AcDbDictionary
  0
ACDBDICTIONARYWDFLT
  5
8
102
{ACAD_REACTORS
330
9
102
}
330
9
100
AcDbDictionary
281
     1
  3
Normal
350
7
100
AcDbDictionaryWithDefault
340
7
  0
DICTIONARY
  5
5B0
102
{ACAD_REACTORS
330
9
102
}
330
9
100
AcDbDictionary
  3
CEPSNTYPE
350
5BA
  3
DIMSTYLEDATA
350
5BE
  3
FINGERPRINTGUID
350
5BB
  3
HYPERLINKBASE
350
5B3
  3
INSUNITS
350
5B9
  3
LAYOUTDICT
350
5B5
  3
LWETCUNION
350
5B8
  3
PLOTSETDICT
350
5B6
  3
PLOTSTYLNAMDICT
350
5B7
  3
PSVPSCALE
350
5BD
  3
PUCSBASE
350
5C1
  3
PUCSORGBACK
350
5C7
  3
PUCSORGBOTTOM
350
5C3
  3
PUCSORGFRONT
350
5C6
  3
PUCSORGLEFT
350
5C4
  3
PUCSORGRIGHT
350
5C5
  3
PUCSORGTOP
350
5C2
  3
PUCSORTHOREF
350
5BF
  3
PUCSORTHOVIEW
350
5C0
  3
STYLESHEET
350
5B4
  3
TSTACKALIGN
350
5B1
  3
TSTACKSIZE
350
5B2
  3
UCSBASE
350
5CA
  3
UCSORGBACK
350
5D0
  3
UCSORGBOTTOM
350
5CC
  3
UCSORGFRONT
350
5CF
  3
UCSORGLEFT
350
5CD
  3
UCSORGRIGHT
350
5CE
  3
UCSORGTOP
350
5CB
  3
UCSORTHOREF
350
5C8
  3
UCSORTHOVIEW
350
5C9
  3
VERSIONGUID
350
5BC
  0
DICTIONARY
  5
38B
102
{ACAD_REACTORS
330
9
102
}
330
9
100
AcDbDictionary
  3
DIMASSOC
350
38D
  3
HIDETEXT
350
38C
  0
DICTIONARY
  5
16
102
{ACAD_REACTORS
330
15
102
}
330
15
100
AcDbDictionary
280
     1
  3
$LAYERS
360
17
  3
-_UND_0
360
18
  3
-PEGC
360
19
  3
101
360
1A
  3
102
360
1B
  3
1DUC
360
1C
  3
1EQ
360
1D
  3
1TUB
360
1E
  3
2
360
1F
  3
2000
360
20
  3
50
360
21
  3
58J
360
22
  3
65
360
23
  3
AA
360
24
  3
ACABADOS
360
25
  3
AGUA_Y_DREN
360
26
  3
AIRE
360
27
  3
ALLE_AUS
360
28
  3
ALLES_MIT_S
360
29
  3
AMARILLO
360
2A
  3
APAGADOS
360
2B
  3
ARR
360
2C
  3
BA
360
2D
  3
BACKS
360
2E
  3
BASE
360
2F
  3
BLOQ_INUTIL
360
30
  3
CADKON
360
31
  3
CARPINTERIA
360
32
  3
CERRADOS
360
33
  3
COL
360
34
  3
COLOR
360
35
  3
COLOR_250
360
36
  3
COLORES
360
37
  3
CONGELADOS
360
38
  3
CONJUNTO
360
39
  3
D1
360
3A
  3
DA_
360
3B
  3
DET-
360
3C
  3
DOR-H
360
3D
  3
EJES
360
3E
  3
ELECTRICO
360
3F
  3
F1
360
40
  3
FROZEN
360
41
  3
GRID
360
42
  3
GRIDTXT
360
43
  3
HATCH
360
44
  3
HCAD
360
45
  3
INSTALACIONES
360
46
  3
JIZNI
360
47
  3
KCK
360
48
  3
KKK
360
49
  3
LAY
360
4A
  3
LAYER-0
360
4E
  3
LAYER-1
360
4F
  3
LAYER_1_UND_0
360
4B
  3
LAYER_2_UND_0
360
4C
  3
LAYER_9_UND_0_SCHRAFFUR
360
4D
  3
LOCK
360
50
  3
LOCKED
360
51
  3
LOTES
360
52
  3
LUNAR
360
53
  3
LUNAR2
360
54
  3
M
360
55
  3
MIS_LAYERS
360
56
  3
MRKCK
360
57
  3
NECADKON
360
58
  3
NI_LH
360
59
  3
NI_RH
360
5A
  3
NUM
360
5B
  3
OFF
360
5C
  3
ON
360
5D
  3
PBASE
360
5E
  3
PEGC
360
5F
  3
PEGCT
360
60
  3
PFRAME
360
61
  3
PGRID
360
62
  3
PGRIDT
360
63
  3
PLAFONES
360
64
  3
PLANTAS
360
65
  3
PLOT
360
66
  3
PRENDIDAS
360
67
  3
PRENDIDOS
360
68
  3
PRINT
360
69
  3
PT
360
6A
  3
PTH
360
6B
  3
PVGRID
360
6C
  3
RED_DE_AGUA_POTABLE
360
6D
  3
RED_DE_ENERGIA_ELECTRICA
360
6E
  3
SEVERNI
360
6F
  3
SHIN
360
70
  3
SHOW_ALL_LAYER
360
71
  3
SIN
360
72
  3
STORAGE-CART
360
73
  3
T
360
74
  3
TEXTOS
360
75
  3
TEXTURAS
360
76
  3
TUBERIAS
360
77
  3
UNFRZ
360
78
  3
V\U+0160ECHNY_NEPOU\U+017D\U+00CDVAN\U+00C9
360
79
  3
VA
360
7A
  3
VENTILACI\U+00D3N
360
7B
  3
VYHODNI
360
7C
  3
YO
360
7D
  3
ZAPADNI
360
7E
  3
사용
360
7F
  3
신규
360
80
  3
실박스
360
81
  3
우리토목
360
82
  3
주차
360
83
  3
지상정밀
360
84
  3
쩜선
360
85
  3
플로터_작업층
360
86
  3
현재_작업층
360
87
  3
현재_잠금
360
88
  0
DICTIONARY
  5
89
102
{ACAD_REACTORS
330
15
102
}
330
15
100
AcDbDictionary
  0
XRECORD
  5
5D1
102
{ACAD_REACTORS
330
3
102
}
330
3
100
AcDbXrecord
340
2
  0
XRECORD
  5
5D2
102
{ACAD_REACTORS
330
F
102
}
330
F
100
AcDbXrecord
340
E
  0
DIMASSOC
  5
C1
102
{ACAD_REACTORS
330
C0
102
}
330
C0
100
AcDbDimAssoc
330
BF
 90
        2
 70
     0
 71
     0
  1
AcDbOsnapPointRef
 72
     3
331
BE
 73
     2
 91
        0
 40
0.0
 10
-0.0000000000009095
 20
0.0
 30
0.0
 75
     0
  0
DIMASSOC
  5
A9
102
{ACAD_REACTORS
330
A8
102
}
330
A8
100
AcDbDimAssoc
330
A7
 90
       15
 70
     0
 71
     0
  1
AcDbOsnapPointRef
 72
    13
331
D8
 73
     2
 91
        0
 40
0.0
 10
53.50348176573061
 20
26.12953178329917
 30
0.0
 75
     0
  1
AcDbOsnapPointRef
 72
     1
331
D8
 73
     2
 91
        0
 40
1.0
 10
36.93493927080999
 20
66.12953178329917
 30
0.0
 75
     0
  1
AcDbOsnapPointRef
 72
    13
331
A4
 73
     2
 91
        0
 40
0.0
 10
36.93493927080999
 20
18.95740857490318
 30
0.0
 75
     0
  1
AcDbOsnapPointRef
 72
     1
331
A4
 73
     2
 91
        0
 40
1.0
 10
36.93493927080999
 20
113.3016549916969
 30
0.0
 75
     0
  0
DIMASSOC
  5
DF
102
{ACAD_REACTORS
330
DE
102
}
330
DE
100
AcDbDimAssoc
330
DD
 90
        2
 70
     0
 71
     0
  1
AcDbOsnapPointRef
 72
     1
331
115
 73
     2
 91
        0
 40
0.9999999999999998
 10
326.7820963448903
 20
26.62762411106314
 30
0.0
 75
     0
  0
DIMASSOC
  5
121
102
{ACAD_REACTORS
330
120
102
}
330
120
100
AcDbDimAssoc
330
11F
 90
        3
 70
     0
 71
     0
  1
AcDbOsnapPointRef
 72
     1
331
147
 73
     2
 91
        0
 40
3.141592653589792
 10
-3.065060729190006
 20
101.1295317832991
 30
0.0
 75
     0
  1
AcDbOsnapPointRef
 72
    13
331
1FE
 73
     2
 91
        0
 40
0.0
 10
76.93493927080999
 20
101.1295317832991
 30
0.0
 75
     0
  0
DIMASSOC
  5
132
102
{ACAD_REACTORS
330
131
102
}
330
131
100
AcDbDimAssoc
330
130
 90
        3
 70
     0
 71
     0
  1
AcDbOsnapPointRef
 72
    13
331
14D
 73
     2
 91
        0
 40
0.0
 10
56.39220595683037
 20
189.4261394516433
 30
0.0
 75
     0
  1
AcDbOsnapPointRef
 72
    13
331
14C
 73
     2
 91
        0
 40
0.0
 10
60.39220595683037
 20
189.4261394516433
 30
0.0
 75
     0
  0
DIMASSOC
  5
166
102
{ACAD_REACTORS
330
165
102
}
330
165
100
AcDbDimAssoc
330
164
 90
        3
 70
     0
 71
     0
  1
AcDbOsnapPointRef
 72
     2
331
151
 73
     2
 91
        0
 40
3.141592653589792
 10
14.22155267012021
 20
187.4261394516434
 30
0.0
 75
     0
  1
AcDbOsnapPointRef
 72
     1
331
154
 73
     2
 91
        0
 40
1.0
 10
39.22155267012021
 20
189.4261394516433
 30
0.0
 75
     0
  0
DIMASSOC
  5
175
102
{ACAD_REACTORS
330
174
102
}
330
174
100
AcDbDimAssoc
330
173
 90
        3
 70
     0
 71
     0
  1
AcDbOsnapPointRef
 72
    13
331
182
 73
     2
 91
        0
 40
0.0
 10
338.2817569399793
 20
88.62953178329918
 30
0.0
 75
     0
  1
AcDbOsnapPointRef
 72
    13
331
D9
 73
     2
 91
        0
 40
0.0
 10
328.2817569399793
 20
104.0995317832994
 30
0.0
 75
     0
  0
DIMASSOC
  5
1B2
102
{ACAD_REACTORS
330
1B1
102
}
330
1B1
100
AcDbDimAssoc
330
1B0
 90
        3
 70
     0
 71
     0
  1
AcDbOsnapPointRef
 72
     1
331
1F3
 73
     2
 91
        0
 40
1.0
 10
126.2817569399812
 20
76.12953178329917
 30
0.0
 75
     0
  1
AcDbOsnapPointRef
 72
     6
331
1F3
 73
     2
 91
        0
 40
0.0000000000000114
 10
126.2817569399812
 20
86.12953178329918
 30
0.0
332
1E0
 74
     2
 92
        0
 75
     0
  0
DIMASSOC
  5
1C4
102
{ACAD_REACTORS
330
1C3
102
}
330
1C3
100
AcDbDimAssoc
330
1C2
 90
        3
 70
     0
 71
     0
  1
AcDbOsnapPointRef
 72
    13
331
1F6
 73
     2
 91
        0
 40
0.0
 10
151.2817569399794
 20
86.12953178329918
 30
0.0
 75
     0
  1
AcDbOsnapPointRef
 72
     1
331
1E0
 73
     2
 91
        0
 40
1.0
 10
126.2817569399812
 20
86.12953178329918
 30
0.0
 75
     0
  0
DIMASSOC
  5
1D3
102
{ACAD_REACTORS
330
1D2
102
}
330
1D2
100
AcDbDimAssoc
330
1D1
 90
        1
 70
     0
 71
     0
  1
AcDbOsnapPointRef
 72
     1
331
1E0
 73
     2
 91
        0
 40
1.0
 10
126.2817569399812
 20
86.12953178329918
 30
0.0
 75
     0
  0
DIMASSOC
  5
1E6
102
{ACAD_REACTORS
330
1E5
102
}
330
1E5
100
AcDbDimAssoc
330
1E4
 90
        1
 70
     0
 71
     0
  1
AcDbOsnapPointRef
 72
     1
331
185
 73
     2
 91
        0
 40
1.0
 10
122.3836181387595
 20
81.12953178329917
 30
0.0
 75
     0
  0
DIMASSOC
  5
206
102
{ACAD_REACTORS
330
205
102
}
330
205
100
AcDbDimAssoc
330
204
 90
        2
 70
     0
 71
     0
  1
AcDbOsnapPointRef
 72
     1
331
200
 73
     2
 91
        0
 40
1.0
 10
205.2817569399794
 20
104.7282691248269
 30
0.0
 75
     0
  0
DIMASSOC
  5
22A
102
{ACAD_REACTORS
330
229
102
}
330
229
100
AcDbDimAssoc
330
228
 90
        3
 70
     0
 71
     0
  1
AcDbOsnapPointRef
 72
     1
331
182
 73
     2
 91
        0
 40
1.570796326794896
 10
337.2817569399793
 20
89.62953178329916
 30
0.0
 75
     0
  1
AcDbOsnapPointRef
 72
    13
331
223
 73
     2
 91
        0
 40
4.712388980384688
 10
337.2817569399793
 20
42.62953178330053
 30
0.0
 75
     0
  0
DIMASSOC
  5
249
102
{ACAD_REACTORS
330
248
102
}
330
248
100
AcDbDimAssoc
330
247
 90
        3
 70
     0
 71
     0
  1
AcDbOsnapPointRef
 72
     1
331
245
 73
     2
 91
        0
 40
1.0
 10
101.3255856973809
 20
190.4084198596028
 30
0.0
 75
     0
  1
AcDbOsnapPointRef
 72
     1
331
246
 73
     2
 91
        0
 40
1.0
 10
105.3255856973809
 20
190.4084198596028
 30
0.0
 75
     0
  0
DIMASSOC
  5
25A
102
{ACAD_REACTORS
330
259
102
}
330
259
100
AcDbDimAssoc
330
258
 90
        3
 70
     0
 71
     0
  1
AcDbOsnapPointRef
 72
     1
331
244
 73
     2
 91
        0
 40
1.0
 10
105.3255856973809
 20
188.3258441646471
 30
0.0
 75
     0
  1
AcDbOsnapPointRef
 72
     5
331
243
 73
     2
 91
        0
 40
1.570796326794896
 10
103.3255856973809
 20
190.825844164646
 30
0.0
 75
     0
  0
DIMASSOC
  5
27D
102
{ACAD_REACTORS
330
27C
102
}
330
27C
100
AcDbDimAssoc
330
27B
 90
        2
 70
     0
 71
     0
  1
AcDbOsnapPointRef
 72
     1
331
2B4
 73
     2
 91
        0
 40
1.0
 10
125.9200560829394
 20
258.5878117029797
 30
0.0
 75
     0
  0
DIMASSOC
  5
2A3
102
{ACAD_REACTORS
330
2A2
102
}
330
2A2
100
AcDbDimAssoc
330
2A1
 90
        3
 70
     0
 71
     0
  1
AcDbOsnapPointRef
 72
    13
331
2ED
 73
     2
 91
        0
 40
0.0
 10
216.5731766754305
 20
313.5878117029797
 30
0.0
 75
     0
  1
AcDbOsnapPointRef
 72
     1
331
29F
 73
     2
 91
        0
 40
1.0
 10
191.5731766754323
 20
313.5878117029797
 30
0.0
 75
     0
  0
DIMASSOC
  5
2BD
102
{ACAD_REACTORS
330
2BC
102
}
330
2BC
100
AcDbDimAssoc
330
2BB
 90
        3
 70
     0
 71
     0
  1
AcDbOsnapPointRef
 72
     1
331
2DB
 73
     2
 91
        0
 40
1.0
 10
191.5731766754323
 20
303.5878117029797
 30
0.0
 75
     0
  1
AcDbOsnapPointRef
 72
     6
331
2DB
 73
     2
 91
        0
 40
0.0000000000000114
 10
191.5731766754323
 20
313.5878117029797
 30
0.0
332
29F
 74
     2
 92
        0
 75
     0
  0
DIMASSOC
  5
2CE
102
{ACAD_REACTORS
330
2CD
102
}
330
2CD
100
AcDbDimAssoc
330
2CC
 90
        3
 70
     0
 71
     0
  1
AcDbOsnapPointRef
 72
     1
331
29E
 73
     2
 91
        0
 40
1.0
 10
187.6750378742053
 20
308.5878117029797
 30
0.0
 75
     0
  1
AcDbOsnapPointRef
 72
    13
331
28F
 73
     2
 91
        0
 40
0.0
 10
179.9655035413306
 20
293.5878117029797
 30
0.0
 75
     0
  0
DIMASSOC
  5
31C
102
{ACAD_REACTORS
330
31B
102
}
330
31B
100
AcDbDimAssoc
330
31A
 90
        3
 70
     0
 71
     0
  1
AcDbOsnapPointRef
 72
     1
331
32E
 73
     2
 91
        0
 40
3.141592653589792
 10
57.11891481892962
 20
475.517156586337
 30
0.0
 75
     0
  1
AcDbOsnapPointRef
 72
    13
331
344
 73
     2
 91
        0
 40
0.0
 10
137.1189148189295
 20
475.517156586337
 30
0.0
 75
     0
  0
DIMASSOC
  5
335
102
{ACAD_REACTORS
330
334
102
}
330
334
100
AcDbDimAssoc
330
333
 90
        3
 70
     0
 71
     0
  1
AcDbOsnapPointRef
 72
    13
331
342
 73
     2
 91
        0
 40
0.0
 10
198.3118632902897
 20
480.5171565863355
 30
0.0
 75
     0
  1
AcDbOsnapPointRef
 72
     1
331
342
 73
     2
 91
        0
 40
1.0
 10
230.3118632902897
 20
480.5171565863355
 30
0.0
 75
     0
  0
DIMASSOC
  5
37B
102
{ACAD_REACTORS
330
37A
102
}
330
37A
100
AcDbDimAssoc
330
379
 90
        3
 70
     0
 71
     0
  1
AcDbOsnapPointRef
 72
     1
331
389
 73
     2
 91
        0
 40
1.0
 10
196.3118632902896
 20
404.0171565863357
 30
0.0
 75
     0
  1
AcDbOsnapPointRef
 72
    13
331
389
 73
     2
 91
        0
 40
0.0
 10
196.3118632902896
 20
477.0171565863356
 30
0.0
 75
     0
  0
MLINESTYLE
  5
9B
102
{ACAD_REACTORS
330
99
102
}
330
99
100
AcDbMlineStyle
  2
STANDARD
 70
     0
  3

 62
   256
 51
90.0
 52
90.0
 71
     2
 49
0.5
 62
   256
  6
BYLAYER
 49
-0.5
 62
   256
  6
BYLAYER
  0
ACDBPLACEHOLDER
  5
7
102
{ACAD_REACTORS
330
8
102
}
330
8
100
AcDbPlaceHolder
280
     0
  0
XRECORD
  5
5BA
102
{ACAD_REACTORS
330
5B0
102
}
330
5B0
100
AcDbXrecord
 90
        0
  0
XRECORD
  5
5BE
102
{ACAD_REACTORS
330
5B0
102
}
330
5B0
100
AcDbXrecord
1000
DSTYLE
1002
{
1070
    79
 70
     2
1070
   179
 70
     1
1002
}
  0
XRECORD
  5
5BB
102
{ACAD_REACTORS
330
5B0
102
}
330
5B0
100
AcDbXrecord
  1
{FDEAD578-A652-11D2-9A35-0060089B3A3F}
  0
XRECORD
  5
5B3
102
{ACAD_REACTORS
330
5B0
102
}
330
5B0
100
AcDbXrecord
  1

  0
XRECORD
  5
5B9
102
{ACAD_REACTORS
330
5B0
102
}
330
5B0
100
AcDbXrecord
 90
        4
  0
XRECORD
  5
5B5
102
{ACAD_REACTORS
330
5B0
102
}
330
5B0
100
AcDbXrecord
340
D
  0
XRECORD
  5
5B8
102
{ACAD_REACTORS
330
5B0
102
}
330
5B0
100
AcDbXrecord
 90
    10781
  0
XRECORD
  5
5B6
102
{ACAD_REACTORS
330
5B0
102
}
330
5B0
100
AcDbXrecord
340
9A
  0
XRECORD
  5
5B7
102
{ACAD_REACTORS
330
5B0
102
}
330
5B0
100
AcDbXrecord
340
8
  0
XRECORD
  5
5BD
102
{ACAD_REACTORS
330
5B0
102
}
330
5B0
100
AcDbXrecord
 40
0.0
  0
XRECORD
  5
5C1
102
{ACAD_REACTORS
330
5B0
102
}
330
5B0
100
AcDbXrecord
340
0
  0
XRECORD
  5
5C7
102
{ACAD_REACTORS
330
5B0
102
}
330
5B0
100
AcDbXrecord
 10
0.0
 20
0.0
 30
0.0
  0
XRECORD
  5
5C3
102
{ACAD_REACTORS
330
5B0
102
}
330
5B0
100
AcDbXrecord
 10
0.0
 20
0.0
 30
0.0
  0
XRECORD
  5
5C6
102
{ACAD_REACTORS
330
5B0
102
}
330
5B0
100
AcDbXrecord
 10
0.0
 20
0.0
 30
0.0
  0
XRECORD
  5
5C4
102
{ACAD_REACTORS
330
5B0
102
}
330
5B0
100
AcDbXrecord
 10
0.0
 20
0.0
 30
0.0
  0
XRECORD
  5
5C5
102
{ACAD_REACTORS
330
5B0
102
}
330
5B0
100
AcDbXrecord
 10
0.0
 20
0.0
 30
0.0
  0
XRECORD
  5
5C2
102
{ACAD_REACTORS
330
5B0
102
}
330
5B0
100
AcDbXrecord
 10
0.0
 20
0.0
 30
0.0
  0
XRECORD
  5
5BF
102
{ACAD_REACTORS
330
5B0
102
}
330
5B0
100
AcDbXrecord
340
0
  0
XRECORD
  5
5C0
102
{ACAD_REACTORS
330
5B0
102
}
330
5B0
100
AcDbXrecord
 70
     0
  0
XRECORD
  5
5B4
102
{ACAD_REACTORS
330
5B0
102
}
330
5B0
100
AcDbXrecord
  1

  0
XRECORD
  5
5B1
102
{ACAD_REACTORS
330
5B0
102
}
330
5B0
100
AcDbXrecord
 90
        1
  0
XRECORD
  5
5B2
102
{ACAD_REACTORS
330
5B0
102
}
330
5B0
100
AcDbXrecord
 90
       70
  0
XRECORD
  5
5CA
102
{ACAD_REACTORS
330
5B0
102
}
330
5B0
100
AcDbXrecord
340
0
  0
XRECORD
  5
5D0
102
{ACAD_REACTORS
330
5B0
102
}
330
5B0
100
AcDbXrecord
 10
0.0
 20
0.0
 30
0.0
  0
XRECORD
  5
5CC
102
{ACAD_REACTORS
330
5B0
102
}
330
5B0
100
AcDbXrecord
 10
0.0
 20
0.0
 30
0.0
  0
XRECORD
  5
5CF
102
{ACAD_REACTORS
330
5B0
102
}
330
5B0
100
AcDbXrecord
 10
0.0
 20
0.0
 30
0.0
  0
XRECORD
  5
5CD
102
{ACAD_REACTORS
330
5B0
102
}
330
5B0
100
AcDbXrecord
 10
0.0
 20
0.0
 30
0.0
  0
XRECORD
  5
5CE
102
{ACAD_REACTORS
330
5B0
102
}
330
5B0
100
AcDbXrecord
 10
0.0
 20
0.0
 30
0.0
  0
XRECORD
  5
5CB
102
{ACAD_REACTORS
330
5B0
102
}
330
5B0
100
AcDbXrecord
 10
0.0
 20
0.0
 30
0.0
  0
XRECORD
  5
5C8
102
{ACAD_REACTORS
330
5B0
102
}
330
5B0
100
AcDbXrecord
340
0
  0
XRECORD
  5
5C9
102
{ACAD_REACTORS
330
5B0
102
}
330
5B0
100
AcDbXrecord
 70
     0
  0
XRECORD
  5
5BC
102
{ACAD_REACTORS
330
5B0
102
}
330
5B0
100
AcDbXrecord
  1
{E68DE289-2B51-4A11-A4F8-6B3619CB88BA}
  0
DICTIONARYVAR
  5
38D
102
{ACAD_REACTORS
330
38B
102
}
330
38B
100
DictionaryVariables
280
     0
  1
2
  0
DICTIONARYVAR
  5
38C
102
{ACAD_REACTORS
330
38B
102
}
330
38B
100
DictionaryVariables
280
     0
  1
1
  0
XRECORD
  5
17
102
{ACAD_REACTORS
330
16
102
}
330
16
100
AcDbXrecord
  1
$layers
  1
*
  1
*
  1
*
 70
     0
  1
*
  1
*
  0
XRECORD
  5
18
102
{ACAD_REACTORS
330
16
102
}
330
16
100
AcDbXrecord
  1
- und 0
  1
-*,0
  1
*
  1
*
 70
     0
  1
*
  1
*
  0
XRECORD
  5
19
102
{ACAD_REACTORS
330
16
102
}
330
16
100
AcDbXrecord
  1
-pegc
  1
*-pegc
  1
*
  1
*
 70
     0
  1
*
  1
*
  0
XRECORD
  5
1A
102
{ACAD_REACTORS
330
16
102
}
330
16
100
AcDbXrecord
  1
101
  1
*101
  1
*
  1
*
 70
   256
  1
*
  1
*
  0
XRECORD
  5
1B
102
{ACAD_REACTORS
330
16
102
}
330
16
100
AcDbXrecord
  1
102
  1
102*
  1
*
  1
*
 70
     0
  1
*
  1
*
  0
XRECORD
  5
1C
102
{ACAD_REACTORS
330
16
102
}
330
16
100
AcDbXrecord
  1
1duc
  1
*1duc*
  1
*
  1
*
 70
     0
  1
*
  1
*
  0
XRECORD
  5
1D
102
{ACAD_REACTORS
330
16
102
}
330
16
100
AcDbXrecord
  1
1eq
  1
*1eq*
  1
*
  1
*
 70
     0
  1
*
  1
*
  0
XRECORD
  5
1E
102
{ACAD_REACTORS
330
16
102
}
330
16
100
AcDbXrecord
  1
1tub
  1
*1t*
  1
*
  1
*
 70
     0
  1
*
  1
*
  0
XRECORD
  5
1F
102
{ACAD_REACTORS
330
16
102
}
330
16
100
AcDbXrecord
  1
2
  1
*
  1
2
  1
*
 70
     0
  1
*
  1
*
  0
XRECORD
  5
20
102
{ACAD_REACTORS
330
16
102
}
330
16
100
AcDbXrecord
  1
2000
  1
2000*
  1
*
  1
*
 70
     0
  1
*
  1
*
  0
XRECORD
  5
21
102
{ACAD_REACTORS
330
16
102
}
330
16
100
AcDbXrecord
  1
50
  1
*-50
  1
*
  1
*
 70
     0
  1
*
  1
*
  0
XRECORD
  5
22
102
{ACAD_REACTORS
330
16
102
}
330
16
100
AcDbXrecord
  1
58J
  1
*58*
  1
*
  1
*
 70
     0
  1
*
  1
*
  0
XRECORD
  5
23
102
{ACAD_REACTORS
330
16
102
}
330
16
100
AcDbXrecord
  1
65
  1
*65
  1
*
  1
*
 70
     0
  1
*
  1
*
  0
XRECORD
  5
24
102
{ACAD_REACTORS
330
16
102
}
330
16
100
AcDbXrecord
  1
aa
  1
aa*
  1
*
  1
*
 70
     0
  1
*
  1
*
  0
XRECORD
  5
25
102
{ACAD_REACTORS
330
16
102
}
330
16
100
AcDbXrecord
  1
acabados
  1
a-*
  1
*
  1
*
 70
     5
  1
*
  1
*
  0
XRECORD
  5
26
102
{ACAD_REACTORS
330
16
102
}
330
16
100
AcDbXrecord
  1
AGUA Y DREN
  1
A-DS-*
  1
*
  1
*
 70
     0
  1
*
  1
*
  0
XRECORD
  5
27
102
{ACAD_REACTORS
330
16
102
}
330
16
100
AcDbXrecord
  1
Aire
  1
*
  1
*
  1
*
 70
     0
  1
*
  1
*
  0
XRECORD
  5
28
102
{ACAD_REACTORS
330
16
102
}
330
16
100
AcDbXrecord
  1
alle aus
  1
99999999999
  1
*
  1
*
 70
     0
  1
*
  1
*
  0
XRECORD
  5
29
102
{ACAD_REACTORS
330
16
102
}
330
16
100
AcDbXrecord
  1
Alles mit S
  1
s*
  1
*
  1
*
 70
     0
  1
*
  1
*
  0
XRECORD
  5
2A
102
{ACAD_REACTORS
330
16
102
}
330
16
100
AcDbXrecord
  1
amarillo
  1
*
  1
yellow
  1
*
 70
     0
  1
*
  1
*
  0
XRECORD
  5
2B
102
{ACAD_REACTORS
330
16
102
}
330
16
100
AcDbXrecord
  1
APAGADOS
  1
*
  1
*
  1
*
 70
     4
  1
*
  1
*
  0
XRECORD
  5
2C
102
{ACAD_REACTORS
330
16
102
}
330
16
100
AcDbXrecord
  1
ARR
  1
ARR*
  1
*
  1
*
 70
     0
  1
*
  1
*
  0
XRECORD
  5
2D
102
{ACAD_REACTORS
330
16
102
}
330
16
100
AcDbXrecord
  1
ba
  1
*
  1
*
  1
*
 70
     0
  1
*
  1
*
  0
XRECORD
  5
2E
102
{ACAD_REACTORS
330
16
102
}
330
16
100
AcDbXrecord
  1
BACKS
  1
*-H
  1
*
  1
*
 70
     0
  1
*
  1
*
  0
XRECORD
  5
2F
102
{ACAD_REACTORS
330
16
102
}
330
16
100
AcDbXrecord
  1
BASE
  1
*-PBASE
  1
*
  1
*
 70
     0
  1
*
  1
*
  0
XRECORD
  5
30
102
{ACAD_REACTORS
330
16
102
}
330
16
100
AcDbXrecord
  1
BLOQ_INUTIL
  1
*
  1
*
  1
*
 70
     0
  1
*
  1
*
  0
XRECORD
  5
31
102
{ACAD_REACTORS
330
16
102
}
330
16
100
AcDbXrecord
  1
CADKON
  1
?[KAHBSM]?????[23M],?[KAHBSM]?????[23M][1456A-DGHILN-SU-Z]
  1
*
  1
*
 70
     0
  1
*
  1
*
  0
XRECORD
  5
32
102
{ACAD_REACTORS
330
16
102
}
330
16
100
AcDbXrecord
  1
carpinteria
  1
carp*
  1
*
  1
*
 70
     0
  1
*
  1
*
  0
XRECORD
  5
33
102
{ACAD_REACTORS
330
16
102
}
330
16
100
AcDbXrecord
  1
cerrados
  1
*
  1
*
  1
*
 70
   256
  1
*
  1
*
  0
XRECORD
  5
34
102
{ACAD_REACTORS
330
16
102
}
330
16
100
AcDbXrecord
  1
COL
  1
*
  1
*
  1
*
 70
     1
  1
*
  1
*
  0
XRECORD
  5
35
102
{ACAD_REACTORS
330
16
102
}
330
16
100
AcDbXrecord
  1
COLOR
  1
*
  1
253
  1
*
 70
     0
  1
*
  1
*
  0
XRECORD
  5
36
102
{ACAD_REACTORS
330
16
102
}
330
16
100
AcDbXrecord
  1
color 250
  1
*
  1
250
  1
*
 70
     0
  1
*
  1
*
  0
XRECORD
  5
37
102
{ACAD_REACTORS
330
16
102
}
330
16
100
AcDbXrecord
  1
COLORES
  1
*
  1
6
  1
*
 70
     0
  1
*
  1
*
  0
XRECORD
  5
38
102
{ACAD_REACTORS
330
16
102
}
330
16
100
AcDbXrecord
  1
Congelados
  1
*
  1
*
  1
*
 70
     4
  1
*
  1
*
  0
XRECORD
  5
39
102
{ACAD_REACTORS
330
16
102
}
330
16
100
AcDbXrecord
  1
CONJUNTO
  1
CON-*
  1
*
  1
*
 70
     0
  1
*
  1
*
  0
XRECORD
  5
3A
102
{ACAD_REACTORS
330
16
102
}
330
16
100
AcDbXrecord
  1
d1
  1
achurados
  1
*
  1
*
 70
     0
  1
*
  1
*
  0
XRECORD
  5
3B
102
{ACAD_REACTORS
330
16
102
}
330
16
100
AcDbXrecord
  1
DA_
  1
DA*
  1
*
  1
*
 70
     0
  1
*
  1
*
  0
XRECORD
  5
3C
102
{ACAD_REACTORS
330
16
102
}
330
16
100
AcDbXrecord
  1
DET-
  1
*
  1
*
  1
*
 70
     0
  1
*
  1
*
  0
XRECORD
  5
3D
102
{ACAD_REACTORS
330
16
102
}
330
16
100
AcDbXrecord
  1
DOR-H
  1
*
  1
7
  1
*
 70
     0
  1
*
  1
*
  0
XRECORD
  5
3E
102
{ACAD_REACTORS
330
16
102
}
330
16
100
AcDbXrecord
  1
ejes
  1
eje*
  1
*
  1
*
 70
     0
  1
*
  1
*
  0
XRECORD
  5
3F
102
{ACAD_REACTORS
330
16
102
}
330
16
100
AcDbXrecord
  1
ELECTRICO
  1
ELEC-*
  1
*
  1
*
 70
     0
  1
*
  1
*
  0
XRECORD
  5
40
102
{ACAD_REACTORS
330
16
102
}
330
16
100
AcDbXrecord
  1
F1
  1
Halaxref*
  1
*
  1
*
 70
     0
  1
*
  1
*
  0
XRECORD
  5
41
102
{ACAD_REACTORS
330
16
102
}
330
16
100
AcDbXrecord
  1
frozen
  1
*
  1
*
  1
*
 70
     4
  1
*
  1
*
  0
XRECORD
  5
42
102
{ACAD_REACTORS
330
16
102
}
330
16
100
AcDbXrecord
  1
grid
  1
*-PGRID
  1
*
  1
*
 70
     1
  1
*
  1
*
  0
XRECORD
  5
43
102
{ACAD_REACTORS
330
16
102
}
330
16
100
AcDbXrecord
  1
GRIDTXT
  1
*-PGRIDT
  1
*
  1
*
 70
     0
  1
*
  1
*
  0
XRECORD
  5
44
102
{ACAD_REACTORS
330
16
102
}
330
16
100
AcDbXrecord
  1
HATCH
  1
HAT*
  1
*
  1
*
 70
     0
  1
*
  1
*
  0
XRECORD
  5
45
102
{ACAD_REACTORS
330
16
102
}
330
16
100
AcDbXrecord
  1
HCAD
  1
1HCAD-*
  1
*
  1
*
 70
    13
  1
*
  1
*
  0
XRECORD
  5
46
102
{ACAD_REACTORS
330
16
102
}
330
16
100
AcDbXrecord
  1
INSTALACIONES
  1
I-*
  1
*
  1
*
 70
     0
  1
*
  1
*
  0
XRECORD
  5
47
102
{ACAD_REACTORS
330
16
102
}
330
16
100
AcDbXrecord
  1
JIZNI
  1
*-J
  1
*
  1
*
 70
     0
  1
*
  1
*
  0
XRECORD
  5
48
102
{ACAD_REACTORS
330
16
102
}
330
16
100
AcDbXrecord
  1
kck
  1
*
  1
*
  1
*
 70
     0
  1
*
  1
*
  0
XRECORD
  5
49
102
{ACAD_REACTORS
330
16
102
}
330
16
100
AcDbXrecord
  1
kkk
  1
k
  1
*
  1
*
 70
     0
  1
*
  1
*
  0
XRECORD
  5
4A
102
{ACAD_REACTORS
330
16
102
}
330
16
100
AcDbXrecord
  1
lay
  1
??-*
  1
*
  1
*
 70
     0
  1
*
  1
*
  0
XRECORD
  5
4E
102
{ACAD_REACTORS
330
16
102
}
330
16
100
AcDbXrecord
  1
Layer-0
  1
0*
  1
*
  1
*
 70
     0
  1
*
  1
*
  0
XRECORD
  5
4F
102
{ACAD_REACTORS
330
16
102
}
330
16
100
AcDbXrecord
  1
Layer-1
  1
1*
  1
*
  1
*
 70
     0
  1
*
  1
*
  0
XRECORD
  5
4B
102
{ACAD_REACTORS
330
16
102
}
330
16
100
AcDbXrecord
  1
Layer 1 und 0
  1
1*,0
  1
*
  1
*
 70
     0
  1
*
  1
*
  0
XRECORD
  5
4C
102
{ACAD_REACTORS
330
16
102
}
330
16
100
AcDbXrecord
  1
Layer 2 und 0
  1
2*,0
  1
*
  1
*
 70
     0
  1
*
  1
*
  0
XRECORD
  5
4D
102
{ACAD_REACTORS
330
16
102
}
330
16
100
AcDbXrecord
  1
Layer 9 und 0 Schraffur
  1
9*,0
  1
*
  1
*
 70
     0
  1
*
  1
*
  0
XRECORD
  5
50
102
{ACAD_REACTORS
330
16
102
}
330
16
100
AcDbXrecord
  1
LOCK
  1
*
  1
*
  1
*
 70
   256
  1
*
  1
*
  0
XRECORD
  5
51
102
{ACAD_REACTORS
330
16
102
}
330
16
100
AcDbXrecord
  1
locked
  1
*
  1
*
  1
*
 70
   256
  1
*
  1
*
  0
XRECORD
  5
52
102
{ACAD_REACTORS
330
16
102
}
330
16
100
AcDbXrecord
  1
Lotes
  1
*
  1
*
  1
*
 70
     1
  1
*
  1
*
  0
XRECORD
  5
53
102
{ACAD_REACTORS
330
16
102
}
330
16
100
AcDbXrecord
  1
LUNAR
  1
*
  1
*
  1
*
 70
    48
  1
*
  1
*
  0
XRECORD
  5
54
102
{ACAD_REACTORS
330
16
102
}
330
16
100
AcDbXrecord
  1
LUNAR2
  1
*
  1
*
  1
*
 70
    12
  1
*
  1
*
  0
XRECORD
  5
55
102
{ACAD_REACTORS
330
16
102
}
330
16
100
AcDbXrecord
  1
M
  1
M*
  1
*
  1
*
 70
     0
  1
*
  1
*
  0
XRECORD
  5
56
102
{ACAD_REACTORS
330
16
102
}
330
16
100
AcDbXrecord
  1
mis_layers
  1
mis_*
  1
*
  1
*
 70
     0
  1
*
  1
*
  0
XRECORD
  5
57
102
{ACAD_REACTORS
330
16
102
}
330
16
100
AcDbXrecord
  1
MRKCK
  1
*
  1
*
  1
*
 70
     0
  1
*
  1
*
  0
XRECORD
  5
58
102
{ACAD_REACTORS
330
16
102
}
330
16
100
AcDbXrecord
  1
NECADKON
  1
~*?[KAHBSM]?????[23M]*
  1
*
  1
*
 70
     0
  1
*
  1
*
  0
XRECORD
  5
59
102
{ACAD_REACTORS
330
16
102
}
330
16
100
AcDbXrecord
  1
NI_LH
  1
NI_LH*
  1
*
  1
*
 70
     0
  1
*
  1
*
  0
XRECORD
  5
5A
102
{ACAD_REACTORS
330
16
102
}
330
16
100
AcDbXrecord
  1
NI_RH
  1
NI_RH*
  1
*
  1
*
 70
     0
  1
*
  1
*
  0
XRECORD
  5
5B
102
{ACAD_REACTORS
330
16
102
}
330
16
100
AcDbXrecord
  1
NUM
  1
NUM*
  1
*
  1
*
 70
     0
  1
*
  1
*
  0
XRECORD
  5
5C
102
{ACAD_REACTORS
330
16
102
}
330
16
100
AcDbXrecord
  1
off
  1
*
  1
*
  1
*
 70
     3
  1
*
  1
*
  0
XRECORD
  5
5D
102
{ACAD_REACTORS
330
16
102
}
330
16
100
AcDbXrecord
  1
on
  1
*
  1
*
  1
*
 70
     0
  1
*
  1
*
  0
XRECORD
  5
5E
102
{ACAD_REACTORS
330
16
102
}
330
16
100
AcDbXrecord
  1
PBASE
  1
*PBASE
  1
*
  1
*
 70
     0
  1
*
  1
*
  0
XRECORD
  5
5F
102
{ACAD_REACTORS
330
16
102
}
330
16
100
AcDbXrecord
  1
PEGC
  1
*PEGC
  1
*
  1
*
 70
     0
  1
*
  1
*
  0
XRECORD
  5
60
102
{ACAD_REACTORS
330
16
102
}
330
16
100
AcDbXrecord
  1
PEGCT
  1
*PEGCT
  1
*
  1
*
 70
     0
  1
*
  1
*
  0
XRECORD
  5
61
102
{ACAD_REACTORS
330
16
102
}
330
16
100
AcDbXrecord
  1
PFRAME
  1
PFRAME*
  1
*
  1
*
 70
     0
  1
*
  1
*
  0
XRECORD
  5
62
102
{ACAD_REACTORS
330
16
102
}
330
16
100
AcDbXrecord
  1
PGRID
  1
*PGRID
  1
*
  1
*
 70
     0
  1
*
  1
*
  0
XRECORD
  5
63
102
{ACAD_REACTORS
330
16
102
}
330
16
100
AcDbXrecord
  1
PGRIDT
  1
*PGRIDT
  1
*
  1
*
 70
     0
  1
*
  1
*
  0
XRECORD
  5
64
102
{ACAD_REACTORS
330
16
102
}
330
16
100
AcDbXrecord
  1
PLAFONES
  1
0-*
  1
*
  1
*
 70
     0
  1
*
  1
*
  0
XRECORD
  5
65
102
{ACAD_REACTORS
330
16
102
}
330
16
100
AcDbXrecord
  1
PLANTAS
  1
P-*
  1
*
  1
*
 70
     0
  1
*
  1
*
  0
XRECORD
  5
66
102
{ACAD_REACTORS
330
16
102
}
330
16
100
AcDbXrecord
  1
Plot
  1
*
  1
*
  1
*
 70
  1024
  1
*
  1
*
  0
XRECORD
  5
67
102
{ACAD_REACTORS
330
16
102
}
330
16
100
AcDbXrecord
  1
PRENDIDAS
  1
*
  1
*
  1
*
 70
    13
  1
*
  1
*
  0
XRECORD
  5
68
102
{ACAD_REACTORS
330
16
102
}
330
16
100
AcDbXrecord
  1
PRENDIDOS
  1
*
  1
*
  1
*
 70
    12
  1
*
  1
*
  0
XRECORD
  5
69
102
{ACAD_REACTORS
330
16
102
}
330
16
100
AcDbXrecord
  1
print
  1
*
  1
7
  1
*
 70
  1280
  1
*
  1
*
  0
XRECORD
  5
6A
102
{ACAD_REACTORS
330
16
102
}
330
16
100
AcDbXrecord
  1
PT
  1
PT-*
  1
*
  1
*
 70
     0
  1
*
  1
*
  0
XRECORD
  5
6B
102
{ACAD_REACTORS
330
16
102
}
330
16
100
AcDbXrecord
  1
PTH
  1
PTH*
  1
*
  1
*
 70
     0
  1
*
  1
*
  0
XRECORD
  5
6C
102
{ACAD_REACTORS
330
16
102
}
330
16
100
AcDbXrecord
  1
PVGRID
  1
*PVGRID
  1
*
  1
*
 70
     0
  1
*
  1
*
  0
XRECORD
  5
6D
102
{ACAD_REACTORS
330
16
102
}
330
16
100
AcDbXrecord
  1
Red de Agua Potable
  1
Red de Agua Potable
  1
*
  1
*
 70
     1
  1
*
  1
*
  0
XRECORD
  5
6E
102
{ACAD_REACTORS
330
16
102
}
330
16
100
AcDbXrecord
  1
Red de Energia Electrica
  1
Lotes
  1
*
  1
*
 70
     1
  1
*
  1
*
  0
XRECORD
  5
6F
102
{ACAD_REACTORS
330
16
102
}
330
16
100
AcDbXrecord
  1
SEVERNI
  1
*-S
  1
*
  1
*
 70
     0
  1
*
  1
*
  0
XRECORD
  5
70
102
{ACAD_REACTORS
330
16
102
}
330
16
100
AcDbXrecord
  1
shin
  1
일*
  1
*
  1
*
 70
     0
  1
*
  1
*
  0
XRECORD
  5
71
102
{ACAD_REACTORS
330
16
102
}
330
16
100
AcDbXrecord
  1
SHOW ALL LAYER
  1
*
  1
*
  1
*
 70
     0
  1
*
  1
*
  0
XRECORD
  5
72
102
{ACAD_REACTORS
330
16
102
}
330
16
100
AcDbXrecord
  1
sin
  1
sin
  1
*
  1
*
 70
     0
  1
*
  1
*
  0
XRECORD
  5
73
102
{ACAD_REACTORS
330
16
102
}
330
16
100
AcDbXrecord
  1
STORAGE-CART
  1
STORAGE-CART*
  1
*
  1
*
 70
     0
  1
*
  1
*
  0
XRECORD
  5
74
102
{ACAD_REACTORS
330
16
102
}
330
16
100
AcDbXrecord
  1
T
  1
T*
  1
*
  1
*
 70
     0
  1
*
  1
*
  0
XRECORD
  5
75
102
{ACAD_REACTORS
330
16
102
}
330
16
100
AcDbXrecord
  1
TEXTOS
  1
TXT*
  1
*
  1
*
 70
     0
  1
*
  1
*
  0
XRECORD
  5
76
102
{ACAD_REACTORS
330
16
102
}
330
16
100
AcDbXrecord
  1
TEXTURAS
  1
*TEXTURAS
  1
*
  1
*
 70
     0
  1
*
  1
*
  0
XRECORD
  5
77
102
{ACAD_REACTORS
330
16
102
}
330
16
100
AcDbXrecord
  1
TUBERIAS
  1
T*
  1
*
  1
*
 70
     0
  1
*
  1
*
  0
XRECORD
  5
78
102
{ACAD_REACTORS
330
16
102
}
330
16
100
AcDbXrecord
  1
UNFRZ
  1
*
  1
*
  1
*
 70
    12
  1
*
  1
*
  0
XRECORD
  5
79
102
{ACAD_REACTORS
330
16
102
}
330
16
100
AcDbXrecord
  1
v\U+0161echny nepou\U+017E\U+00EDvan\U+00E9
  1
*
  1
*
  1
*
 70
     0
  1
*
  1
*
  0
XRECORD
  5
7A
102
{ACAD_REACTORS
330
16
102
}
330
16
100
AcDbXrecord
  1
VA
  1
VA*
  1
*
  1
*
 70
     0
  1
*
  1
*
  0
XRECORD
  5
7B
102
{ACAD_REACTORS
330
16
102
}
330
16
100
AcDbXrecord
  1
Ventilaci\U+00F3n
  1
*
  1
*
  1
*
 70
     0
  1
*
  1
*
  0
XRECORD
  5
7C
102
{ACAD_REACTORS
330
16
102
}
330
16
100
AcDbXrecord
  1
VYHODNI
  1
*-V
  1
*
  1
*
 70
     0
  1
*
  1
*
  0
XRECORD
  5
7D
102
{ACAD_REACTORS
330
16
102
}
330
16
100
AcDbXrecord
  1
Yo
  1
Muros
  1
*
  1
*
 70
     0
  1
*
  1
*
  0
XRECORD
  5
7E
102
{ACAD_REACTORS
330
16
102
}
330
16
100
AcDbXrecord
  1
ZAPADNI
  1
*-Z
  1
*
  1
*
 70
     0
  1
*
  1
*
  0
XRECORD
  5
7F
102
{ACAD_REACTORS
330
16
102
}
330
16
100
AcDbXrecord
  1
사용
  1
*
  1
*
  1
*
 70
   256
  1
*
  1
*
  0
XRECORD
  5
80
102
{ACAD_REACTORS
330
16
102
}
330
16
100
AcDbXrecord
  1
신규
  1
신규
  1
*
  1
*
 70
     0
  1
*
  1
*
  0
XRECORD
  5
81
102
{ACAD_REACTORS
330
16
102
}
330
16
100
AcDbXrecord
  1
실박스
  1
BLO,SYM,SYM1,SYM2
  1
*
  1
*
 70
     0
  1
*
  1
*
  0
XRECORD
  5
82
102
{ACAD_REACTORS
330
16
102
}
330
16
100
AcDbXrecord
  1
우리토목
  1
w-*
  1
*
  1
*
 70
     0
  1
*
  1
*
  0
XRECORD
  5
83
102
{ACAD_REACTORS
330
16
102
}
330
16
100
AcDbXrecord
  1
주차
  1
car*
  1
*
  1
*
 70
     0
  1
*
  1
*
  0
XRECORD
  5
84
102
{ACAD_REACTORS
330
16
102
}
330
16
100
AcDbXrecord
  1
지상정밀
  1
*
  1
*
  1
*
 70
     0
  1
*
  1
*
  0
XRECORD
  5
85
102
{ACAD_REACTORS
330
16
102
}
330
16
100
AcDbXrecord
  1
쩜선
  1
*
  1
*
  1
*
 70
     0
  1
*
  1
*
  0
XRECORD
  5
86
102
{ACAD_REACTORS
330
16
102
}
330
16
100
AcDbXrecord
  1
플로터 작업층
  1
*
  1
*
  1
*
 70
  1025
  1
*
  1
*
  0
XRECORD
  5
87
102
{ACAD_REACTORS
330
16
102
}
330
16
100
AcDbXrecord
  1
현재 작업층
  1
*
  1
*
  1
*
 70
     1
  1
*
  1
*
  0
XRECORD
  5
88
102
{ACAD_REACTORS
330
16
102
}
330
16
100
AcDbXrecord
  1
현재 잠금
  1
*
  1
*
  1
*
 70
   257
  1
*
  1
*
  0
ENDSEC
  0
EOF
