  0
SECTION
  2
HEADER
  9
$ACADVER
  1
AC1014
  9
$ACADMAINTVER
 70
     9
  9
$DWGCODEPAGE
  3
ANSI_949
  9
$INSBASE
 10
0.0
 20
0.0
 30
0.0
  9
$EXTMIN
 10
-16.87759692543613
 20
10.17951274066376
 30
-0.0000000000112498
  9
$EXTMAX
 10
334.1817823355996
 20
475.4767902056633
 30
0.0000000000002956
  9
$LIMMIN
 10
0.0
 20
0.0
  9
$LIMMAX
 10
420.0
 20
297.0
  9
$ORTHOMODE
 70
     0
  9
$REGENMODE
 70
     1
  9
$FILLMODE
 70
     1
  9
$QTEXTMODE
 70
     0
  9
$MIRRTEXT
 70
     0
  9
$DRAGMODE
 70
     2
  9
$LTSCALE
 40
0.2
  9
$OSMODE
 70
  3071
  9
$ATTMODE
 70
     1
  9
$TEXTSIZE
 40
5.777225951253058
  9
$TRACEWID
 40
1.0
  9
$TEXTSTYLE
  7
STANDARD
  9
$CLAYER
  8
0
  9
$CELTYPE
  6
BYLAYER
  9
$CECOLOR
 62
   256
  9
$CELTSCALE
 40
1.0
  9
$DELOBJ
 70
     1
  9
$DISPSILH
 70
     0
  9
$DIMSCALE
 40
1.0
  9
$DIMASZ
 40
3.0
  9
$DIMEXO
 40
1.0
  9
$DIMDLI
 40
10.0
  9
$DIMRND
 40
0.0
  9
$DIMDLE
 40
0.0
  9
$DIMEXE
 40
0.6
  9
$DIMTP
 40
0.0
  9
$DIMTM
 40
0.0
  9
$DIMTXT
 40
3.5
  9
$DIMCEN
 40
0.09
  9
$DIMTSZ
 40
0.0
  9
$DIMTOL
 70
     0
  9
$DIMLIM
 70
     0
  9
$DIMTIH
 70
     0
  9
$DIMTOH
 70
     0
  9
$DIMSE1
 70
     0
  9
$DIMSE2
 70
     0
  9
$DIMTAD
 70
     1
  9
$DIMZIN
 70
     8
  9
$DIMBLK
  1

  9
$DIMASO
 70
     1
  9
$DIMSHO
 70
     1
  9
$DIMPOST
  1

  9
$DIMAPOST
  1

  9
$DIMALT
 70
     0
  9
$DIMALTD
 70
     2
  9
$DIMALTF
 40
25.4
  9
$DIMLFAC
 40
1.0
  9
$DIMTOFL
 70
     1
  9
$DIMTVP
 40
0.0
  9
$DIMTIX
 70
     1
  9
$DIMSOXD
 70
     0
  9
$DIMSAH
 70
     0
  9
$DIMBLK1
  1

  9
$DIMBLK2
  1

  9
$DIMSTYLE
  2
1_1_2
  9
$DIMCLRD
 70
   123
  9
$DIMCLRE
 70
   123
  9
$DIMCLRT
 70
     3
  9
$DIMTFAC
 40
1.0
  9
$DIMGAP
 40
1.0
  9
$DIMJUST
 70
     0
  9
$DIMSD1
 70
     0
  9
$DIMSD2
 70
     0
  9
$DIMTOLJ
 70
     1
  9
$DIMTZIN
 70
     0
  9
$DIMALTZ
 70
     0
  9
$DIMALTTZ
 70
     0
  9
$DIMFIT
 70
     3
  9
$DIMUPT
 70
     1
  9
$DIMUNIT
 70
     2
  9
$DIMDEC
 70
     2
  9
$DIMTDEC
 70
     2
  9
$DIMALTU
 70
     2
  9
$DIMALTTD
 70
     2
  9
$DIMTXSTY
  7
STANDARD
  9
$DIMAUNIT
 70
     1
  9
$LUNITS
 70
     2
  9
$LUPREC
 70
     4
  9
$SKETCHINC
 40
1.0
  9
$FILLETRAD
 40
0.5
  9
$AUNITS
 70
     0
  9
$AUPREC
 70
     0
  9
$MENU
  1
.
  9
$ELEVATION
 40
0.0
  9
$PELEVATION
 40
0.0
  9
$THICKNESS
 40
0.0
  9
$LIMCHECK
 70
     0
  9
$BLIPMODE
 70
     0
  9
$CHAMFERA
 40
1.0
  9
$CHAMFERB
 40
1.0
  9
$CHAMFERC
 40
20.0
  9
$CHAMFERD
 40
0.0
  9
$SKPOLY
 70
     0
  9
$TDCREATE
 40
2452839.586179271
  9
$TDUPDATE
 40
2453385.421425775
  9
$TDINDWG
 40
11.1168083681
  9
$TDUSRTIMER
 40
11.1168080093
  9
$USRTIMER
 70
     1
  9
$ANGBASE
 50
0.0
  9
$ANGDIR
 70
     0
  9
$PDMODE
 70
     0
  9
$PDSIZE
 40
0.0
  9
$PLINEWID
 40
0.0
  9
$COORDS
 70
     1
  9
$SPLFRAME
 70
     0
  9
$SPLINETYPE
 70
     6
  9
$SPLINESEGS
 70
   800
  9
$ATTDIA
 70
     0
  9
$ATTREQ
 70
     1
  9
$HANDLING
 70
 22529
  9
$HANDSEED
  5
5F4
  9
$SURFTAB1
 70
     6
  9
$SURFTAB2
 70
     6
  9
$SURFTYPE
 70
     6
  9
$SURFU
 70
     6
  9
$SURFV
 70
     6
  9
$UCSNAME
  2

  9
$UCSORG
 10
0.0
 20
0.0
 30
0.0
  9
$UCSXDIR
 10
1.0
 20
0.0
 30
0.0
  9
$UCSYDIR
 10
0.0
 20
1.0
 30
0.0
  9
$PUCSNAME
  2

  9
$PUCSORG
 10
0.0
 20
0.0
 30
0.0
  9
$PUCSXDIR
 10
1.0
 20
0.0
 30
0.0
  9
$PUCSYDIR
 10
0.0
 20
1.0
 30
0.0
  9
$USERI1
 70
     0
  9
$USERI2
 70
     0
  9
$USERI3
 70
     0
  9
$USERI4
 70
     0
  9
$USERI5
 70
     0
  9
$USERR1
 40
0.0
  9
$USERR2
 40
0.0
  9
$USERR3
 40
0.0
  9
$USERR4
 40
0.0
  9
$USERR5
 40
0.0
  9
$WORLDVIEW
 70
     1
  9
$SHADEDGE
 70
     3
  9
$SHADEDIF
 70
    70
  9
$TILEMODE
 70
     1
  9
$MAXACTVP
 70
    48
  9
$PINSBASE
 10
0.0
 20
0.0
 30
0.0
  9
$PLIMCHECK
 70
     0
  9
$PEXTMIN
 10
0.0
 20
0.0
 30
0.0
  9
$PEXTMAX
 10
0.0
 20
0.0
 30
0.0
  9
$PLIMMIN
 10
0.0
 20
0.0
  9
$PLIMMAX
 10
12.0
 20
9.0
  9
$UNITMODE
 70
     0
  9
$VISRETAIN
 70
     1
  9
$PLINEGEN
 70
     0
  9
$PSLTSCALE
 70
     1
  9
$TREEDEPTH
 70
  3020
  9
$PICKSTYLE
 70
     1
  9
$CMLSTYLE
  2
STANDARD
  9
$CMLJUST
 70
     0
  9
$CMLSCALE
 40
20.0
  9
$PROXYGRAPHICS
 70
     1
  9
$MEASUREMENT
 70
     1
  0
ENDSEC
  0
SECTION
  2
CLASSES
  0
CLASS
  1
ACDBDICTIONARYWDFLT
  2
AcDbDictionaryWithDefault
  3
AutoCAD 2000
 90
        0
280
     0
281
     0
  0
CLASS
  1
ACDBPLACEHOLDER
  2
AcDbPlaceHolder
  3
AutoCAD 2000
 90
        0
280
     0
281
     0
  0
CLASS
  1
LAYOUT
  2
AcDbLayout
  3
AutoCAD 2000
 90
        0
280
     0
281
     0
  0
CLASS
  1
DICTIONARYVAR
  2
AcDbDictionaryVar
  3
AutoCAD 2000
 90
        0
280
     0
281
     0
  0
CLASS
  1
DIMASSOC
  2
AcDbDimAssoc
  3
"AcDbDimAssoc|Product Desc:     AcDim ARX App For Dimension|Company:          Autodesk, Inc.|WEB Address:      www.autodesk.com"
 90
        0
280
     0
281
     0
  0
CLASS
  1
LONG_TRANSACTION
  2
AcDbLongTransaction
  3
AutoCAD 2000
 90
        0
280
     0
281
     0
  0
CLASS
  1
LWPOLYLINE
  2
AcDbPolyline
  3
AutoCAD 2000
 90
        0
280
     0
281
     1
  0
CLASS
  1
HATCH
  2
AcDbHatch
  3
AutoCAD 2000
 90
        0
280
     0
281
     1
  0
CLASS
  1
XRECORD
  2
AcDbXrecord
  3
AutoCAD 2000
 90
        0
280
     0
281
     0
  0
CLASS
  1
LONG_TRANSACTION
  2
AcDbLongTransaction
  3
AutoCAD 2000
 90
        0
280
     0
281
     0
  0
CLASS
  1
LWPOLYLINE
  2
AcDbPolyline
  3
AutoCAD 2000
 90
        0
280
     0
281
     1
  0
CLASS
  1
HATCH
  2
AcDbHatch
  3
AutoCAD 2000
 90
        0
280
     0
281
     1
  0
CLASS
  1
XRECORD
  2
AcDbXrecord
  3
AutoCAD 2000
 90
        0
280
     0
281
     0
  0
CLASS
  1
LONG_TRANSACTION
  2
AcDbLongTransaction
  3
AutoCAD 2000
 90
        0
280
     0
281
     0
  0
CLASS
  1
LWPOLYLINE
  2
AcDbPolyline
  3
AutoCAD 2000
 90
        0
280
     0
281
     1
  0
CLASS
  1
HATCH
  2
AcDbHatch
  3
AutoCAD 2000
 90
        0
280
     0
281
     1
  0
CLASS
  1
XRECORD
  2
AcDbXrecord
  3
AutoCAD 2000
 90
        0
280
     0
281
     0
  0
CLASS
  1
LONG_TRANSACTION
  2
AcDbLongTransaction
  3
AutoCAD 2000
 90
        0
280
     0
281
     0
  0
CLASS
  1
LWPOLYLINE
  2
AcDbPolyline
  3
AutoCAD 2000
 90
        0
280
     0
281
     1
  0
CLASS
  1
HATCH
  2
AcDbHatch
  3
AutoCAD 2000
 90
        0
280
     0
281
     1
  0
CLASS
  1
XRECORD
  2
AcDbXrecord
  3
AutoCAD 2000
 90
        0
280
     0
281
     0
  0
CLASS
  1
LONG_TRANSACTION
  2
AcDbLongTransaction
  3
AutoCAD 2000
 90
        0
280
     0
281
     0
  0
CLASS
  1
LWPOLYLINE
  2
AcDbPolyline
  3
AutoCAD 2000
 90
        0
280
     0
281
     1
  0
CLASS
  1
HATCH
  2
AcDbHatch
  3
AutoCAD 2000
 90
        0
280
     0
281
     1
  0
CLASS
  1
XRECORD
  2
AcDbXrecord
  3
AutoCAD 2000
 90
        0
280
     0
281
     0
  0
CLASS
  1
LONG_TRANSACTION
  2
AcDbLongTransaction
  3
AutoCAD 2000
 90
        0
280
     0
281
     0
  0
CLASS
  1
LWPOLYLINE
  2
AcDbPolyline
  3
AutoCAD 2000
 90
        0
280
     0
281
     1
  0
CLASS
  1
HATCH
  2
AcDbHatch
  3
AutoCAD 2000
 90
        0
280
     0
281
     1
  0
CLASS
  1
XRECORD
  2
AcDbXrecord
  3
AutoCAD 2000
 90
        0
280
     0
281
     0
  0
CLASS
  1
LONG_TRANSACTION
  2
AcDbLongTransaction
  3
AutoCAD 2000
 90
        0
280
     0
281
     0
  0
CLASS
  1
LWPOLYLINE
  2
AcDbPolyline
  3
AutoCAD 2000
 90
        0
280
     0
281
     1
  0
CLASS
  1
HATCH
  2
AcDbHatch
  3
AutoCAD 2000
 90
        0
280
     0
281
     1
  0
CLASS
  1
XRECORD
  2
AcDbXrecord
  3
AutoCAD 2000
 90
        0
280
     0
281
     0
  0
CLASS
  1
LONG_TRANSACTION
  2
AcDbLongTransaction
  3
AutoCAD 2000
 90
        0
280
     0
281
     0
  0
CLASS
  1
LWPOLYLINE
  2
AcDbPolyline
  3
AutoCAD 2000
 90
        0
280
     0
281
     1
  0
CLASS
  1
HATCH
  2
AcDbHatch
  3
AutoCAD 2000
 90
        0
280
     0
281
     1
  0
CLASS
  1
XRECORD
  2
AcDbXrecord
  3
AutoCAD 2000
 90
        0
280
     0
281
     0
  0
CLASS
  1
LONG_TRANSACTION
  2
AcDbLongTransaction
  3
AutoCAD 2000
 90
        0
280
     0
281
     0
  0
CLASS
  1
LWPOLYLINE
  2
AcDbPolyline
  3
AutoCAD 2000
 90
        0
280
     0
281
     1
  0
CLASS
  1
HATCH
  2
AcDbHatch
  3
AutoCAD 2000
 90
        0
280
     0
281
     1
  0
CLASS
  1
XRECORD
  2
AcDbXrecord
  3
AutoCAD 2000
 90
        0
280
     0
281
     0
  0
CLASS
  1
LONG_TRANSACTION
  2
AcDbLongTransaction
  3
AutoCAD 2000
 90
        0
280
     0
281
     0
  0
CLASS
  1
LWPOLYLINE
  2
AcDbPolyline
  3
AutoCAD 2000
 90
        0
280
     0
281
     1
  0
CLASS
  1
HATCH
  2
AcDbHatch
  3
AutoCAD 2000
 90
        0
280
     0
281
     1
  0
CLASS
  1
XRECORD
  2
AcDbXrecord
  3
AutoCAD 2000
 90
        0
280
     0
281
     0
  0
CLASS
  1
LONG_TRANSACTION
  2
AcDbLongTransaction
  3
AutoCAD 2000
 90
        0
280
     0
281
     0
  0
CLASS
  1
LWPOLYLINE
  2
AcDbPolyline
  3
AutoCAD 2000
 90
        0
280
     0
281
     1
  0
CLASS
  1
HATCH
  2
AcDbHatch
  3
AutoCAD 2000
 90
        0
280
     0
281
     1
  0
CLASS
  1
XRECORD
  2
AcDbXrecord
  3
AutoCAD 2000
 90
        0
280
     0
281
     0
  0
CLASS
  1
LONG_TRANSACTION
  2
AcDbLongTransaction
  3
AutoCAD 2000
 90
        0
280
     0
281
     0
  0
CLASS
  1
LWPOLYLINE
  2
AcDbPolyline
  3
AutoCAD 2000
 90
        0
280
     0
281
     1
  0
CLASS
  1
HATCH
  2
AcDbHatch
  3
AutoCAD 2000
 90
        0
280
     0
281
     1
  0
CLASS
  1
XRECORD
  2
AcDbXrecord
  3
AutoCAD 2000
 90
        0
280
     0
281
     0
  0
CLASS
  1
LONG_TRANSACTION
  2
AcDbLongTransaction
  3
AutoCAD 2000
 90
        0
280
     0
281
     0
  0
CLASS
  1
LWPOLYLINE
  2
AcDbPolyline
  3
AutoCAD 2000
 90
        0
280
     0
281
     1
  0
CLASS
  1
HATCH
  2
AcDbHatch
  3
AutoCAD 2000
 90
        0
280
     0
281
     1
  0
CLASS
  1
XRECORD
  2
AcDbXrecord
  3
AutoCAD 2000
 90
        0
280
     0
281
     0
  0
CLASS
  1
LONG_TRANSACTION
  2
AcDbLongTransaction
  3
AutoCAD 2000
 90
        0
280
     0
281
     0
  0
CLASS
  1
LWPOLYLINE
  2
AcDbPolyline
  3
AutoCAD 2000
 90
        0
280
     0
281
     1
  0
CLASS
  1
HATCH
  2
AcDbHatch
  3
AutoCAD 2000
 90
        0
280
     0
281
     1
  0
CLASS
  1
XRECORD
  2
AcDbXrecord
  3
AutoCAD 2000
 90
        0
280
     0
281
     0
  0
CLASS
  1
LONG_TRANSACTION
  2
AcDbLongTransaction
  3
AutoCAD 2000
 90
        0
280
     0
281
     0
  0
CLASS
  1
LWPOLYLINE
  2
AcDbPolyline
  3
AutoCAD 2000
 90
        0
280
     0
281
     1
  0
CLASS
  1
HATCH
  2
AcDbHatch
  3
AutoCAD 2000
 90
        0
280
     0
281
     1
  0
CLASS
  1
XRECORD
  2
AcDbXrecord
  3
AutoCAD 2000
 90
        0
280
     0
281
     0
  0
CLASS
  1
LONG_TRANSACTION
  2
AcDbLongTransaction
  3
AutoCAD 2000
 90
        0
280
     0
281
     0
  0
CLASS
  1
LWPOLYLINE
  2
AcDbPolyline
  3
AutoCAD 2000
 90
        0
280
     0
281
     1
  0
CLASS
  1
HATCH
  2
AcDbHatch
  3
AutoCAD 2000
 90
        0
280
     0
281
     1
  0
CLASS
  1
XRECORD
  2
AcDbXrecord
  3
AutoCAD 2000
 90
        0
280
     0
281
     0
  0
CLASS
  1
LONG_TRANSACTION
  2
AcDbLongTransaction
  3
AutoCAD 2000
 90
        0
280
     0
281
     0
  0
CLASS
  1
LWPOLYLINE
  2
AcDbPolyline
  3
AutoCAD 2000
 90
        0
280
     0
281
     1
  0
CLASS
  1
HATCH
  2
AcDbHatch
  3
AutoCAD 2000
 90
        0
280
     0
281
     1
  0
CLASS
  1
XRECORD
  2
AcDbXrecord
  3
AutoCAD 2000
 90
        0
280
     0
281
     0
  0
CLASS
  1
LONG_TRANSACTION
  2
AcDbLongTransaction
  3
AutoCAD 2000
 90
        0
280
     0
281
     0
  0
CLASS
  1
LWPOLYLINE
  2
AcDbPolyline
  3
AutoCAD 2000
 90
        0
280
     0
281
     1
  0
CLASS
  1
HATCH
  2
AcDbHatch
  3
AutoCAD 2000
 90
        0
280
     0
281
     1
  0
CLASS
  1
XRECORD
  2
AcDbXrecord
  3
AutoCAD 2000
 90
        0
280
     0
281
     0
  0
CLASS
  1
LONG_TRANSACTION
  2
AcDbLongTransaction
  3
AutoCAD 2000
 90
        0
280
     0
281
     0
  0
CLASS
  1
LWPOLYLINE
  2
AcDbPolyline
  3
AutoCAD 2000
 90
        0
280
     0
281
     1
  0
CLASS
  1
HATCH
  2
AcDbHatch
  3
AutoCAD 2000
 90
        0
280
     0
281
     1
  0
CLASS
  1
XRECORD
  2
AcDbXrecord
  3
AutoCAD 2000
 90
        0
280
     0
281
     0
  0
CLASS
  1
LONG_TRANSACTION
  2
AcDbLongTransaction
  3
AutoCAD 2000
 90
        0
280
     0
281
     0
  0
CLASS
  1
LWPOLYLINE
  2
AcDbPolyline
  3
AutoCAD 2000
 90
        0
280
     0
281
     1
  0
CLASS
  1
HATCH
  2
AcDbHatch
  3
AutoCAD 2000
 90
        0
280
     0
281
     1
  0
CLASS
  1
XRECORD
  2
AcDbXrecord
  3
AutoCAD 2000
 90
        0
280
     0
281
     0
  0
CLASS
  1
LONG_TRANSACTION
  2
AcDbLongTransaction
  3
AutoCAD 2000
 90
        0
280
     0
281
     0
  0
CLASS
  1
LWPOLYLINE
  2
AcDbPolyline
  3
AutoCAD 2000
 90
        0
280
     0
281
     1
  0
CLASS
  1
HATCH
  2
AcDbHatch
  3
AutoCAD 2000
 90
        0
280
     0
281
     1
  0
CLASS
  1
XRECORD
  2
AcDbXrecord
  3
AutoCAD 2000
 90
        0
280
     0
281
     0
  0
CLASS
  1
LONG_TRANSACTION
  2
AcDbLongTransaction
  3
AutoCAD 2000
 90
        0
280
     0
281
     0
  0
CLASS
  1
LWPOLYLINE
  2
AcDbPolyline
  3
AutoCAD 2000
 90
        0
280
     0
281
     1
  0
CLASS
  1
HATCH
  2
AcDbHatch
  3
AutoCAD 2000
 90
        0
280
     0
281
     1
  0
CLASS
  1
XRECORD
  2
AcDbXrecord
  3
AutoCAD 2000
 90
        0
280
     0
281
     0
  0
CLASS
  1
LONG_TRANSACTION
  2
AcDbLongTransaction
  3
AutoCAD 2000
 90
        0
280
     0
281
     0
  0
CLASS
  1
LWPOLYLINE
  2
AcDbPolyline
  3
AutoCAD 2000
 90
        0
280
     0
281
     1
  0
CLASS
  1
HATCH
  2
AcDbHatch
  3
AutoCAD 2000
 90
        0
280
     0
281
     1
  0
CLASS
  1
XRECORD
  2
AcDbXrecord
  3
AutoCAD 2000
 90
        0
280
     0
281
     0
  0
CLASS
  1
LONG_TRANSACTION
  2
AcDbLongTransaction
  3
AutoCAD 2000
 90
        0
280
     0
281
     0
  0
CLASS
  1
LWPOLYLINE
  2
AcDbPolyline
  3
AutoCAD 2000
 90
        0
280
     0
281
     1
  0
CLASS
  1
HATCH
  2
AcDbHatch
  3
AutoCAD 2000
 90
        0
280
     0
281
     1
  0
CLASS
  1
XRECORD
  2
AcDbXrecord
  3
AutoCAD 2000
 90
        0
280
     0
281
     0
  0
CLASS
  1
LONG_TRANSACTION
  2
AcDbLongTransaction
  3
AutoCAD 2000
 90
        0
280
     0
281
     0
  0
CLASS
  1
LWPOLYLINE
  2
AcDbPolyline
  3
AutoCAD 2000
 90
        0
280
     0
281
     1
  0
CLASS
  1
HATCH
  2
AcDbHatch
  3
AutoCAD 2000
 90
        0
280
     0
281
     1
  0
CLASS
  1
XRECORD
  2
AcDbXrecord
  3
AutoCAD 2000
 90
        0
280
     0
281
     0
  0
CLASS
  1
LONG_TRANSACTION
  2
AcDbLongTransaction
  3
AutoCAD 2000
 90
        0
280
     0
281
     0
  0
CLASS
  1
LWPOLYLINE
  2
AcDbPolyline
  3
AutoCAD 2000
 90
        0
280
     0
281
     1
  0
CLASS
  1
HATCH
  2
AcDbHatch
  3
AutoCAD 2000
 90
        0
280
     0
281
     1
  0
CLASS
  1
XRECORD
  2
AcDbXrecord
  3
AutoCAD 2000
 90
        0
280
     0
281
     0
  0
CLASS
  1
LONG_TRANSACTION
  2
AcDbLongTransaction
  3
AutoCAD 2000
 90
        0
280
     0
281
     0
  0
CLASS
  1
LWPOLYLINE
  2
AcDbPolyline
  3
AutoCAD 2000
 90
        0
280
     0
281
     1
  0
CLASS
  1
HATCH
  2
AcDbHatch
  3
AutoCAD 2000
 90
        0
280
     0
281
     1
  0
CLASS
  1
XRECORD
  2
AcDbXrecord
  3
AutoCAD 2000
 90
        0
280
     0
281
     0
  0
CLASS
  1
LONG_TRANSACTION
  2
AcDbLongTransaction
  3
AutoCAD 2000
 90
        0
280
     0
281
     0
  0
CLASS
  1
LWPOLYLINE
  2
AcDbPolyline
  3
AutoCAD 2000
 90
        0
280
     0
281
     1
  0
CLASS
  1
HATCH
  2
AcDbHatch
  3
AutoCAD 2000
 90
        0
280
     0
281
     1
  0
CLASS
  1
XRECORD
  2
AcDbXrecord
  3
AutoCAD 2000
 90
        0
280
     0
281
     0
  0
CLASS
  1
LONG_TRANSACTION
  2
AcDbLongTransaction
  3
AutoCAD 2000
 90
        0
280
     0
281
     0
  0
CLASS
  1
LWPOLYLINE
  2
AcDbPolyline
  3
AutoCAD 2000
 90
        0
280
     0
281
     1
  0
CLASS
  1
HATCH
  2
AcDbHatch
  3
AutoCAD 2000
 90
        0
280
     0
281
     1
  0
CLASS
  1
XRECORD
  2
AcDbXrecord
  3
AutoCAD 2000
 90
        0
280
     0
281
     0
  0
CLASS
  1
LONG_TRANSACTION
  2
AcDbLongTransaction
  3
AutoCAD 2000
 90
        0
280
     0
281
     0
  0
CLASS
  1
LWPOLYLINE
  2
AcDbPolyline
  3
AutoCAD 2000
 90
        0
280
     0
281
     1
  0
CLASS
  1
HATCH
  2
AcDbHatch
  3
AutoCAD 2000
 90
        0
280
     0
281
     1
  0
CLASS
  1
XRECORD
  2
AcDbXrecord
  3
AutoCAD 2000
 90
        0
280
     0
281
     0
  0
CLASS
  1
LONG_TRANSACTION
  2
AcDbLongTransaction
  3
AutoCAD 2000
 90
        0
280
     0
281
     0
  0
CLASS
  1
LWPOLYLINE
  2
AcDbPolyline
  3
AutoCAD 2000
 90
        0
280
     0
281
     1
  0
CLASS
  1
HATCH
  2
AcDbHatch
  3
AutoCAD 2000
 90
        0
280
     0
281
     1
  0
CLASS
  1
XRECORD
  2
AcDbXrecord
  3
AutoCAD 2000
 90
        0
280
     0
281
     0
  0
CLASS
  1
LONG_TRANSACTION
  2
AcDbLongTransaction
  3
AutoCAD 2000
 90
        0
280
     0
281
     0
  0
CLASS
  1
LWPOLYLINE
  2
AcDbPolyline
  3
AutoCAD 2000
 90
        0
280
     0
281
     1
  0
CLASS
  1
HATCH
  2
AcDbHatch
  3
AutoCAD 2000
 90
        0
280
     0
281
     1
  0
CLASS
  1
XRECORD
  2
AcDbXrecord
  3
AutoCAD 2000
 90
        0
280
     0
281
     0
  0
CLASS
  1
LONG_TRANSACTION
  2
AcDbLongTransaction
  3
AutoCAD 2000
 90
        0
280
     0
281
     0
  0
CLASS
  1
LWPOLYLINE
  2
AcDbPolyline
  3
AutoCAD 2000
 90
        0
280
     0
281
     1
  0
CLASS
  1
HATCH
  2
AcDbHatch
  3
AutoCAD 2000
 90
        0
280
     0
281
     1
  0
CLASS
  1
XRECORD
  2
AcDbXrecord
  3
AutoCAD 2000
 90
        0
280
     0
281
     0
  0
CLASS
  1
LONG_TRANSACTION
  2
AcDbLongTransaction
  3
AutoCAD 2000
 90
        0
280
     0
281
     0
  0
CLASS
  1
LWPOLYLINE
  2
AcDbPolyline
  3
AutoCAD 2000
 90
        0
280
     0
281
     1
  0
CLASS
  1
HATCH
  2
AcDbHatch
  3
AutoCAD 2000
 90
        0
280
     0
281
     1
  0
CLASS
  1
XRECORD
  2
AcDbXrecord
  3
AutoCAD 2000
 90
        0
280
     0
281
     0
  0
CLASS
  1
LONG_TRANSACTION
  2
AcDbLongTransaction
  3
AutoCAD 2000
 90
        0
280
     0
281
     0
  0
CLASS
  1
LWPOLYLINE
  2
AcDbPolyline
  3
AutoCAD 2000
 90
        0
280
     0
281
     1
  0
CLASS
  1
HATCH
  2
AcDbHatch
  3
AutoCAD 2000
 90
        0
280
     0
281
     1
  0
CLASS
  1
XRECORD
  2
AcDbXrecord
  3
AutoCAD 2000
 90
        0
280
     0
281
     0
  0
CLASS
  1
LONG_TRANSACTION
  2
AcDbLongTransaction
  3
AutoCAD 2000
 90
        0
280
     0
281
     0
  0
CLASS
  1
LWPOLYLINE
  2
AcDbPolyline
  3
AutoCAD 2000
 90
        0
280
     0
281
     1
  0
CLASS
  1
HATCH
  2
AcDbHatch
  3
AutoCAD 2000
 90
        0
280
     0
281
     1
  0
CLASS
  1
XRECORD
  2
AcDbXrecord
  3
AutoCAD 2000
 90
        0
280
     0
281
     0
  0
CLASS
  1
LONG_TRANSACTION
  2
AcDbLongTransaction
  3
AutoCAD 2000
 90
        0
280
     0
281
     0
  0
CLASS
  1
LWPOLYLINE
  2
AcDbPolyline
  3
AutoCAD 2000
 90
        0
280
     0
281
     1
  0
CLASS
  1
HATCH
  2
AcDbHatch
  3
AutoCAD 2000
 90
        0
280
     0
281
     1
  0
CLASS
  1
XRECORD
  2
AcDbXrecord
  3
AutoCAD 2000
 90
        0
280
     0
281
     0
  0
CLASS
  1
LONG_TRANSACTION
  2
AcDbLongTransaction
  3
AutoCAD 2000
 90
        0
280
     0
281
     0
  0
CLASS
  1
LWPOLYLINE
  2
AcDbPolyline
  3
AutoCAD 2000
 90
        0
280
     0
281
     1
  0
CLASS
  1
HATCH
  2
AcDbHatch
  3
AutoCAD 2000
 90
        0
280
     0
281
     1
  0
CLASS
  1
XRECORD
  2
AcDbXrecord
  3
AutoCAD 2000
 90
        0
280
     0
281
     0
  0
CLASS
  1
LONG_TRANSACTION
  2
AcDbLongTransaction
  3
AutoCAD 2000
 90
        0
280
     0
281
     0
  0
CLASS
  1
LWPOLYLINE
  2
AcDbPolyline
  3
AutoCAD 2000
 90
        0
280
     0
281
     1
  0
CLASS
  1
HATCH
  2
AcDbHatch
  3
AutoCAD 2000
 90
        0
280
     0
281
     1
  0
CLASS
  1
XRECORD
  2
AcDbXrecord
  3
AutoCAD 2000
 90
        0
280
     0
281
     0
  0
CLASS
  1
LONG_TRANSACTION
  2
AcDbLongTransaction
  3
AutoCAD 2000
 90
        0
280
     0
281
     0
  0
CLASS
  1
LWPOLYLINE
  2
AcDbPolyline
  3
AutoCAD 2000
 90
        0
280
     0
281
     1
  0
CLASS
  1
HATCH
  2
AcDbHatch
  3
AutoCAD 2000
 90
        0
280
     0
281
     1
  0
CLASS
  1
XRECORD
  2
AcDbXrecord
  3
AutoCAD 2000
 90
        0
280
     0
281
     0
  0
CLASS
  1
LONG_TRANSACTION
  2
AcDbLongTransaction
  3
AutoCAD 2000
 90
        0
280
     0
281
     0
  0
CLASS
  1
LWPOLYLINE
  2
AcDbPolyline
  3
AutoCAD 2000
 90
        0
280
     0
281
     1
  0
CLASS
  1
HATCH
  2
AcDbHatch
  3
AutoCAD 2000
 90
        0
280
     0
281
     1
  0
CLASS
  1
XRECORD
  2
AcDbXrecord
  3
AutoCAD 2000
 90
        0
280
     0
281
     0
  0
CLASS
  1
LONG_TRANSACTION
  2
AcDbLongTransaction
  3
AutoCAD 2000
 90
        0
280
     0
281
     0
  0
CLASS
  1
LWPOLYLINE
  2
AcDbPolyline
  3
AutoCAD 2000
 90
        0
280
     0
281
     1
  0
CLASS
  1
HATCH
  2
AcDbHatch
  3
AutoCAD 2000
 90
        0
280
     0
281
     1
  0
CLASS
  1
XRECORD
  2
AcDbXrecord
  3
AutoCAD 2000
 90
        0
280
     0
281
     0
  0
CLASS
  1
LONG_TRANSACTION
  2
AcDbLongTransaction
  3
AutoCAD 2000
 90
        0
280
     0
281
     0
  0
CLASS
  1
LWPOLYLINE
  2
AcDbPolyline
  3
AutoCAD 2000
 90
        0
280
     0
281
     1
  0
CLASS
  1
HATCH
  2
AcDbHatch
  3
AutoCAD 2000
 90
        0
280
     0
281
     1
  0
CLASS
  1
XRECORD
  2
AcDbXrecord
  3
AutoCAD 2000
 90
        0
280
     0
281
     0
  0
CLASS
  1
LONG_TRANSACTION
  2
AcDbLongTransaction
  3
AutoCAD 2000
 90
        0
280
     0
281
     0
  0
CLASS
  1
LWPOLYLINE
  2
AcDbPolyline
  3
AutoCAD 2000
 90
        0
280
     0
281
     1
  0
CLASS
  1
HATCH
  2
AcDbHatch
  3
AutoCAD 2000
 90
        0
280
     0
281
     1
  0
CLASS
  1
XRECORD
  2
AcDbXrecord
  3
AutoCAD 2000
 90
        0
280
     0
281
     0
  0
CLASS
  1
LONG_TRANSACTION
  2
AcDbLongTransaction
  3
AutoCAD 2000
 90
        0
280
     0
281
     0
  0
CLASS
  1
LWPOLYLINE
  2
AcDbPolyline
  3
AutoCAD 2000
 90
        0
280
     0
281
     1
  0
CLASS
  1
HATCH
  2
AcDbHatch
  3
AutoCAD 2000
 90
        0
280
     0
281
     1
  0
CLASS
  1
XRECORD
  2
AcDbXrecord
  3
AutoCAD 2000
 90
        0
280
     0
281
     0
  0
CLASS
  1
LONG_TRANSACTION
  2
AcDbLongTransaction
  3
AutoCAD 2000
 90
        0
280
     0
281
     0
  0
CLASS
  1
LWPOLYLINE
  2
AcDbPolyline
  3
AutoCAD 2000
 90
        0
280
     0
281
     1
  0
CLASS
  1
HATCH
  2
AcDbHatch
  3
AutoCAD 2000
 90
        0
280
     0
281
     1
  0
CLASS
  1
XRECORD
  2
AcDbXrecord
  3
AutoCAD 2000
 90
        0
280
     0
281
     0
  0
CLASS
  1
LONG_TRANSACTION
  2
AcDbLongTransaction
  3
AutoCAD 2000
 90
        0
280
     0
281
     0
  0
CLASS
  1
LWPOLYLINE
  2
AcDbPolyline
  3
AutoCAD 2000
 90
        0
280
     0
281
     1
  0
CLASS
  1
HATCH
  2
AcDbHatch
  3
AutoCAD 2000
 90
        0
280
     0
281
     1
  0
CLASS
  1
XRECORD
  2
AcDbXrecord
  3
AutoCAD 2000
 90
        0
280
     0
281
     0
  0
CLASS
  1
LONG_TRANSACTION
  2
AcDbLongTransaction
  3
AutoCAD 2000
 90
        0
280
     0
281
     0
  0
CLASS
  1
LWPOLYLINE
  2
AcDbPolyline
  3
AutoCAD 2000
 90
        0
280
     0
281
     1
  0
CLASS
  1
HATCH
  2
AcDbHatch
  3
AutoCAD 2000
 90
        0
280
     0
281
     1
  0
CLASS
  1
XRECORD
  2
AcDbXrecord
  3
AutoCAD 2000
 90
        0
280
     0
281
     0
  0
CLASS
  1
LONG_TRANSACTION
  2
AcDbLongTransaction
  3
AutoCAD 2000
 90
        0
280
     0
281
     0
  0
CLASS
  1
LWPOLYLINE
  2
AcDbPolyline
  3
AutoCAD 2000
 90
        0
280
     0
281
     1
  0
CLASS
  1
HATCH
  2
AcDbHatch
  3
AutoCAD 2000
 90
        0
280
     0
281
     1
  0
CLASS
  1
XRECORD
  2
AcDbXrecord
  3
AutoCAD 2000
 90
        0
280
     0
281
     0
  0
CLASS
  1
LONG_TRANSACTION
  2
AcDbLongTransaction
  3
AutoCAD 2000
 90
        0
280
     0
281
     0
  0
CLASS
  1
LWPOLYLINE
  2
AcDbPolyline
  3
AutoCAD 2000
 90
        0
280
     0
281
     1
  0
CLASS
  1
HATCH
  2
AcDbHatch
  3
AutoCAD 2000
 90
        0
280
     0
281
     1
  0
CLASS
  1
XRECORD
  2
AcDbXrecord
  3
AutoCAD 2000
 90
        0
280
     0
281
     0
  0
CLASS
  1
LONG_TRANSACTION
  2
AcDbLongTransaction
  3
AutoCAD 2000
 90
        0
280
     0
281
     0
  0
CLASS
  1
LWPOLYLINE
  2
AcDbPolyline
  3
AutoCAD 2000
 90
        0
280
     0
281
     1
  0
CLASS
  1
HATCH
  2
AcDbHatch
  3
AutoCAD 2000
 90
        0
280
     0
281
     1
  0
CLASS
  1
XRECORD
  2
AcDbXrecord
  3
AutoCAD 2000
 90
        0
280
     0
281
     0
  0
CLASS
  1
LONG_TRANSACTION
  2
AcDbLongTransaction
  3
AutoCAD 2000
 90
        0
280
     0
281
     0
  0
CLASS
  1
LWPOLYLINE
  2
AcDbPolyline
  3
AutoCAD 2000
 90
        0
280
     0
281
     1
  0
CLASS
  1
HATCH
  2
AcDbHatch
  3
AutoCAD 2000
 90
        0
280
     0
281
     1
  0
CLASS
  1
XRECORD
  2
AcDbXrecord
  3
AutoCAD 2000
 90
        0
280
     0
281
     0
  0
CLASS
  1
LONG_TRANSACTION
  2
AcDbLongTransaction
  3
AutoCAD 2000
 90
        0
280
     0
281
     0
  0
CLASS
  1
LWPOLYLINE
  2
AcDbPolyline
  3
AutoCAD 2000
 90
        0
280
     0
281
     1
  0
CLASS
  1
HATCH
  2
AcDbHatch
  3
AutoCAD 2000
 90
        0
280
     0
281
     1
  0
CLASS
  1
XRECORD
  2
AcDbXrecord
  3
AutoCAD 2000
 90
        0
280
     0
281
     0
  0
CLASS
  1
LONG_TRANSACTION
  2
AcDbLongTransaction
  3
AutoCAD 2000
 90
        0
280
     0
281
     0
  0
CLASS
  1
LWPOLYLINE
  2
AcDbPolyline
  3
AutoCAD 2000
 90
        0
280
     0
281
     1
  0
CLASS
  1
HATCH
  2
AcDbHatch
  3
AutoCAD 2000
 90
        0
280
     0
281
     1
  0
CLASS
  1
XRECORD
  2
AcDbXrecord
  3
AutoCAD 2000
 90
        0
280
     0
281
     0
  0
CLASS
  1
LONG_TRANSACTION
  2
AcDbLongTransaction
  3
AutoCAD 2000
 90
        0
280
     0
281
     0
  0
CLASS
  1
LWPOLYLINE
  2
AcDbPolyline
  3
AutoCAD 2000
 90
        0
280
     0
281
     1
  0
CLASS
  1
HATCH
  2
AcDbHatch
  3
AutoCAD 2000
 90
        0
280
     0
281
     1
  0
CLASS
  1
XRECORD
  2
AcDbXrecord
  3
AutoCAD 2000
 90
        0
280
     0
281
     0
  0
CLASS
  1
LONG_TRANSACTION
  2
AcDbLongTransaction
  3
AutoCAD 2000
 90
        0
280
     0
281
     0
  0
CLASS
  1
LWPOLYLINE
  2
AcDbPolyline
  3
AutoCAD 2000
 90
        0
280
     0
281
     1
  0
CLASS
  1
HATCH
  2
AcDbHatch
  3
AutoCAD 2000
 90
        0
280
     0
281
     1
  0
CLASS
  1
XRECORD
  2
AcDbXrecord
  3
AutoCAD 2000
 90
        0
280
     0
281
     0
  0
CLASS
  1
LONG_TRANSACTION
  2
AcDbLongTransaction
  3
AutoCAD 2000
 90
        0
280
     0
281
     0
  0
CLASS
  1
LWPOLYLINE
  2
AcDbPolyline
  3
AutoCAD 2000
 90
        0
280
     0
281
     1
  0
CLASS
  1
HATCH
  2
AcDbHatch
  3
AutoCAD 2000
 90
        0
280
     0
281
     1
  0
CLASS
  1
XRECORD
  2
AcDbXrecord
  3
AutoCAD 2000
 90
        0
280
     0
281
     0
  0
CLASS
  1
LONG_TRANSACTION
  2
AcDbLongTransaction
  3
AutoCAD 2000
 90
        0
280
     0
281
     0
  0
CLASS
  1
LWPOLYLINE
  2
AcDbPolyline
  3
AutoCAD 2000
 90
        0
280
     0
281
     1
  0
CLASS
  1
HATCH
  2
AcDbHatch
  3
AutoCAD 2000
 90
        0
280
     0
281
     1
  0
CLASS
  1
XRECORD
  2
AcDbXrecord
  3
AutoCAD 2000
 90
        0
280
     0
281
     0
  0
CLASS
  1
LONG_TRANSACTION
  2
AcDbLongTransaction
  3
AutoCAD 2000
 90
        0
280
     0
281
     0
  0
CLASS
  1
LWPOLYLINE
  2
AcDbPolyline
  3
AutoCAD 2000
 90
        0
280
     0
281
     1
  0
CLASS
  1
HATCH
  2
AcDbHatch
  3
AutoCAD 2000
 90
        0
280
     0
281
     1
  0
CLASS
  1
XRECORD
  2
AcDbXrecord
  3
AutoCAD 2000
 90
        0
280
     0
281
     0
  0
CLASS
  1
LONG_TRANSACTION
  2
AcDbLongTransaction
  3
AutoCAD 2000
 90
        0
280
     0
281
     0
  0
CLASS
  1
LWPOLYLINE
  2
AcDbPolyline
  3
AutoCAD 2000
 90
        0
280
     0
281
     1
  0
CLASS
  1
HATCH
  2
AcDbHatch
  3
AutoCAD 2000
 90
        0
280
     0
281
     1
  0
CLASS
  1
XRECORD
  2
AcDbXrecord
  3
AutoCAD 2000
 90
        0
280
     0
281
     0
  0
CLASS
  1
LONG_TRANSACTION
  2
AcDbLongTransaction
  3
AutoCAD 2000
 90
        0
280
     0
281
     0
  0
CLASS
  1
LWPOLYLINE
  2
AcDbPolyline
  3
AutoCAD 2000
 90
        0
280
     0
281
     1
  0
CLASS
  1
HATCH
  2
AcDbHatch
  3
AutoCAD 2000
 90
        0
280
     0
281
     1
  0
CLASS
  1
XRECORD
  2
AcDbXrecord
  3
AutoCAD 2000
 90
        0
280
     0
281
     0
  0
CLASS
  1
LONG_TRANSACTION
  2
AcDbLongTransaction
  3
AutoCAD 2000
 90
        0
280
     0
281
     0
  0
CLASS
  1
LWPOLYLINE
  2
AcDbPolyline
  3
AutoCAD 2000
 90
        0
280
     0
281
     1
  0
CLASS
  1
HATCH
  2
AcDbHatch
  3
AutoCAD 2000
 90
        0
280
     0
281
     1
  0
CLASS
  1
XRECORD
  2
AcDbXrecord
  3
AutoCAD 2000
 90
        0
280
     0
281
     0
  0
CLASS
  1
LONG_TRANSACTION
  2
AcDbLongTransaction
  3
AutoCAD 2000
 90
        0
280
     0
281
     0
  0
CLASS
  1
LWPOLYLINE
  2
AcDbPolyline
  3
AutoCAD 2000
 90
        0
280
     0
281
     1
  0
CLASS
  1
HATCH
  2
AcDbHatch
  3
AutoCAD 2000
 90
        0
280
     0
281
     1
  0
CLASS
  1
XRECORD
  2
AcDbXrecord
  3
AutoCAD 2000
 90
        0
280
     0
281
     0
  0
CLASS
  1
LONG_TRANSACTION
  2
AcDbLongTransaction
  3
AutoCAD 2000
 90
        0
280
     0
281
     0
  0
CLASS
  1
LWPOLYLINE
  2
AcDbPolyline
  3
AutoCAD 2000
 90
        0
280
     0
281
     1
  0
CLASS
  1
HATCH
  2
AcDbHatch
  3
AutoCAD 2000
 90
        0
280
     0
281
     1
  0
CLASS
  1
XRECORD
  2
AcDbXrecord
  3
AutoCAD 2000
 90
        0
280
     0
281
     0
  0
CLASS
  1
LONG_TRANSACTION
  2
AcDbLongTransaction
  3
AutoCAD 2000
 90
        0
280
     0
281
     0
  0
CLASS
  1
LWPOLYLINE
  2
AcDbPolyline
  3
AutoCAD 2000
 90
        0
280
     0
281
     1
  0
CLASS
  1
HATCH
  2
AcDbHatch
  3
AutoCAD 2000
 90
        0
280
     0
281
     1
  0
CLASS
  1
XRECORD
  2
AcDbXrecord
  3
AutoCAD 2000
 90
        0
280
     0
281
     0
  0
CLASS
  1
LONG_TRANSACTION
  2
AcDbLongTransaction
  3
AutoCAD 2000
 90
        0
280
     0
281
     0
  0
CLASS
  1
LWPOLYLINE
  2
AcDbPolyline
  3
AutoCAD 2000
 90
        0
280
     0
281
     1
  0
CLASS
  1
HATCH
  2
AcDbHatch
  3
AutoCAD 2000
 90
        0
280
     0
281
     1
  0
CLASS
  1
XRECORD
  2
AcDbXrecord
  3
AutoCAD 2000
 90
        0
280
     0
281
     0
  0
CLASS
  1
LONG_TRANSACTION
  2
AcDbLongTransaction
  3
AutoCAD 2000
 90
        0
280
     0
281
     0
  0
CLASS
  1
LWPOLYLINE
  2
AcDbPolyline
  3
AutoCAD 2000
 90
        0
280
     0
281
     1
  0
CLASS
  1
HATCH
  2
AcDbHatch
  3
AutoCAD 2000
 90
        0
280
     0
281
     1
  0
CLASS
  1
XRECORD
  2
AcDbXrecord
  3
AutoCAD 2000
 90
        0
280
     0
281
     0
  0
CLASS
  1
LONG_TRANSACTION
  2
AcDbLongTransaction
  3
AutoCAD 2000
 90
        0
280
     0
281
     0
  0
CLASS
  1
LWPOLYLINE
  2
AcDbPolyline
  3
AutoCAD 2000
 90
        0
280
     0
281
     1
  0
CLASS
  1
HATCH
  2
AcDbHatch
  3
AutoCAD 2000
 90
        0
280
     0
281
     1
  0
CLASS
  1
XRECORD
  2
AcDbXrecord
  3
AutoCAD 2000
 90
        0
280
     0
281
     0
  0
CLASS
  1
LONG_TRANSACTION
  2
AcDbLongTransaction
  3
AutoCAD 2000
 90
        0
280
     0
281
     0
  0
CLASS
  1
LWPOLYLINE
  2
AcDbPolyline
  3
AutoCAD 2000
 90
        0
280
     0
281
     1
  0
CLASS
  1
HATCH
  2
AcDbHatch
  3
AutoCAD 2000
 90
        0
280
     0
281
     1
  0
CLASS
  1
XRECORD
  2
AcDbXrecord
  3
AutoCAD 2000
 90
        0
280
     0
281
     0
  0
CLASS
  1
LONG_TRANSACTION
  2
AcDbLongTransaction
  3
AutoCAD 2000
 90
        0
280
     0
281
     0
  0
CLASS
  1
LWPOLYLINE
  2
AcDbPolyline
  3
AutoCAD 2000
 90
        0
280
     0
281
     1
  0
CLASS
  1
HATCH
  2
AcDbHatch
  3
AutoCAD 2000
 90
        0
280
     0
281
     1
  0
CLASS
  1
XRECORD
  2
AcDbXrecord
  3
AutoCAD 2000
 90
        0
280
     0
281
     0
  0
CLASS
  1
LONG_TRANSACTION
  2
AcDbLongTransaction
  3
AutoCAD 2000
 90
        0
280
     0
281
     0
  0
CLASS
  1
LWPOLYLINE
  2
AcDbPolyline
  3
AutoCAD 2000
 90
        0
280
     0
281
     1
  0
CLASS
  1
HATCH
  2
AcDbHatch
  3
AutoCAD 2000
 90
        0
280
     0
281
     1
  0
CLASS
  1
XRECORD
  2
AcDbXrecord
  3
AutoCAD 2000
 90
        0
280
     0
281
     0
  0
CLASS
  1
LONG_TRANSACTION
  2
AcDbLongTransaction
  3
AutoCAD 2000
 90
        0
280
     0
281
     0
  0
CLASS
  1
LWPOLYLINE
  2
AcDbPolyline
  3
AutoCAD 2000
 90
        0
280
     0
281
     1
  0
CLASS
  1
HATCH
  2
AcDbHatch
  3
AutoCAD 2000
 90
        0
280
     0
281
     1
  0
CLASS
  1
XRECORD
  2
AcDbXrecord
  3
AutoCAD 2000
 90
        0
280
     0
281
     0
  0
CLASS
  1
LONG_TRANSACTION
  2
AcDbLongTransaction
  3
AutoCAD 2000
 90
        0
280
     0
281
     0
  0
CLASS
  1
LWPOLYLINE
  2
AcDbPolyline
  3
AutoCAD 2000
 90
        0
280
     0
281
     1
  0
CLASS
  1
HATCH
  2
AcDbHatch
  3
AutoCAD 2000
 90
        0
280
     0
281
     1
  0
CLASS
  1
XRECORD
  2
AcDbXrecord
  3
AutoCAD 2000
 90
        0
280
     0
281
     0
  0
CLASS
  1
LONG_TRANSACTION
  2
AcDbLongTransaction
  3
AutoCAD 2000
 90
        0
280
     0
281
     0
  0
CLASS
  1
LWPOLYLINE
  2
AcDbPolyline
  3
AutoCAD 2000
 90
        0
280
     0
281
     1
  0
CLASS
  1
HATCH
  2
AcDbHatch
  3
AutoCAD 2000
 90
        0
280
     0
281
     1
  0
CLASS
  1
XRECORD
  2
AcDbXrecord
  3
AutoCAD 2000
 90
        0
280
     0
281
     0
  0
CLASS
  1
LONG_TRANSACTION
  2
AcDbLongTransaction
  3
AutoCAD 2000
 90
        0
280
     0
281
     0
  0
CLASS
  1
LWPOLYLINE
  2
AcDbPolyline
  3
AutoCAD 2000
 90
        0
280
     0
281
     1
  0
CLASS
  1
HATCH
  2
AcDbHatch
  3
AutoCAD 2000
 90
        0
280
     0
281
     1
  0
CLASS
  1
XRECORD
  2
AcDbXrecord
  3
AutoCAD 2000
 90
        0
280
     0
281
     0
  0
CLASS
  1
LONG_TRANSACTION
  2
AcDbLongTransaction
  3
AutoCAD 2000
 90
        0
280
     0
281
     0
  0
CLASS
  1
LWPOLYLINE
  2
AcDbPolyline
  3
AutoCAD 2000
 90
        0
280
     0
281
     1
  0
CLASS
  1
HATCH
  2
AcDbHatch
  3
AutoCAD 2000
 90
        0
280
     0
281
     1
  0
CLASS
  1
XRECORD
  2
AcDbXrecord
  3
AutoCAD 2000
 90
        0
280
     0
281
     0
  0
CLASS
  1
LONG_TRANSACTION
  2
AcDbLongTransaction
  3
AutoCAD 2000
 90
        0
280
     0
281
     0
  0
CLASS
  1
LWPOLYLINE
  2
AcDbPolyline
  3
AutoCAD 2000
 90
        0
280
     0
281
     1
  0
CLASS
  1
HATCH
  2
AcDbHatch
  3
AutoCAD 2000
 90
        0
280
     0
281
     1
  0
CLASS
  1
XRECORD
  2
AcDbXrecord
  3
AutoCAD 2000
 90
        0
280
     0
281
     0
  0
CLASS
  1
LONG_TRANSACTION
  2
AcDbLongTransaction
  3
AutoCAD 2000
 90
        0
280
     0
281
     0
  0
CLASS
  1
LWPOLYLINE
  2
AcDbPolyline
  3
AutoCAD 2000
 90
        0
280
     0
281
     1
  0
CLASS
  1
HATCH
  2
AcDbHatch
  3
AutoCAD 2000
 90
        0
280
     0
281
     1
  0
CLASS
  1
XRECORD
  2
AcDbXrecord
  3
AutoCAD 2000
 90
        0
280
     0
281
     0
  0
CLASS
  1
LONG_TRANSACTION
  2
AcDbLongTransaction
  3
AutoCAD 2000
 90
        0
280
     0
281
     0
  0
CLASS
  1
LWPOLYLINE
  2
AcDbPolyline
  3
AutoCAD 2000
 90
        0
280
     0
281
     1
  0
CLASS
  1
HATCH
  2
AcDbHatch
  3
AutoCAD 2000
 90
        0
280
     0
281
     1
  0
CLASS
  1
XRECORD
  2
AcDbXrecord
  3
AutoCAD 2000
 90
        0
280
     0
281
     0
  0
CLASS
  1
LONG_TRANSACTION
  2
AcDbLongTransaction
  3
AutoCAD 2000
 90
        0
280
     0
281
     0
  0
CLASS
  1
LWPOLYLINE
  2
AcDbPolyline
  3
AutoCAD 2000
 90
        0
280
     0
281
     1
  0
CLASS
  1
HATCH
  2
AcDbHatch
  3
AutoCAD 2000
 90
        0
280
     0
281
     1
  0
CLASS
  1
XRECORD
  2
AcDbXrecord
  3
AutoCAD 2000
 90
        0
280
     0
281
     0
  0
CLASS
  1
LONG_TRANSACTION
  2
AcDbLongTransaction
  3
AutoCAD 2000
 90
        0
280
     0
281
     0
  0
CLASS
  1
LWPOLYLINE
  2
AcDbPolyline
  3
AutoCAD 2000
 90
        0
280
     0
281
     1
  0
CLASS
  1
HATCH
  2
AcDbHatch
  3
AutoCAD 2000
 90
        0
280
     0
281
     1
  0
CLASS
  1
XRECORD
  2
AcDbXrecord
  3
AutoCAD 2000
 90
        0
280
     0
281
     0
  0
CLASS
  1
LONG_TRANSACTION
  2
AcDbLongTransaction
  3
AutoCAD 2000
 90
        0
280
     0
281
     0
  0
CLASS
  1
LWPOLYLINE
  2
AcDbPolyline
  3
AutoCAD 2000
 90
        0
280
     0
281
     1
  0
CLASS
  1
HATCH
  2
AcDbHatch
  3
AutoCAD 2000
 90
        0
280
     0
281
     1
  0
CLASS
  1
XRECORD
  2
AcDbXrecord
  3
AutoCAD 2000
 90
        0
280
     0
281
     0
  0
CLASS
  1
LONG_TRANSACTION
  2
AcDbLongTransaction
  3
AutoCAD 2000
 90
        0
280
     0
281
     0
  0
CLASS
  1
LWPOLYLINE
  2
AcDbPolyline
  3
AutoCAD 2000
 90
        0
280
     0
281
     1
  0
CLASS
  1
HATCH
  2
AcDbHatch
  3
AutoCAD 2000
 90
        0
280
     0
281
     1
  0
CLASS
  1
XRECORD
  2
AcDbXrecord
  3
AutoCAD 2000
 90
        0
280
     0
281
     0
  0
CLASS
  1
LONG_TRANSACTION
  2
AcDbLongTransaction
  3
AutoCAD 2000
 90
        0
280
     0
281
     0
  0
CLASS
  1
LWPOLYLINE
  2
AcDbPolyline
  3
AutoCAD 2000
 90
        0
280
     0
281
     1
  0
CLASS
  1
HATCH
  2
AcDbHatch
  3
AutoCAD 2000
 90
        0
280
     0
281
     1
  0
CLASS
  1
XRECORD
  2
AcDbXrecord
  3
AutoCAD 2000
 90
        0
280
     0
281
     0
  0
CLASS
  1
LONG_TRANSACTION
  2
AcDbLongTransaction
  3
AutoCAD 2000
 90
        0
280
     0
281
     0
  0
CLASS
  1
LWPOLYLINE
  2
AcDbPolyline
  3
AutoCAD 2000
 90
        0
280
     0
281
     1
  0
CLASS
  1
HATCH
  2
AcDbHatch
  3
AutoCAD 2000
 90
        0
280
     0
281
     1
  0
CLASS
  1
XRECORD
  2
AcDbXrecord
  3
AutoCAD 2000
 90
        0
280
     0
281
     0
  0
CLASS
  1
LONG_TRANSACTION
  2
AcDbLongTransaction
  3
AutoCAD 2000
 90
        0
280
     0
281
     0
  0
CLASS
  1
LWPOLYLINE
  2
AcDbPolyline
  3
AutoCAD 2000
 90
        0
280
     0
281
     1
  0
CLASS
  1
HATCH
  2
AcDbHatch
  3
AutoCAD 2000
 90
        0
280
     0
281
     1
  0
CLASS
  1
XRECORD
  2
AcDbXrecord
  3
AutoCAD 2000
 90
        0
280
     0
281
     0
  0
CLASS
  1
LONG_TRANSACTION
  2
AcDbLongTransaction
  3
AutoCAD 2000
 90
        0
280
     0
281
     0
  0
CLASS
  1
LWPOLYLINE
  2
AcDbPolyline
  3
AutoCAD 2000
 90
        0
280
     0
281
     1
  0
CLASS
  1
HATCH
  2
AcDbHatch
  3
AutoCAD 2000
 90
        0
280
     0
281
     1
  0
CLASS
  1
XRECORD
  2
AcDbXrecord
  3
AutoCAD 2000
 90
        0
280
     0
281
     0
  0
CLASS
  1
LONG_TRANSACTION
  2
AcDbLongTransaction
  3
AutoCAD 2000
 90
        0
280
     0
281
     0
  0
CLASS
  1
LWPOLYLINE
  2
AcDbPolyline
  3
AutoCAD 2000
 90
        0
280
     0
281
     1
  0
CLASS
  1
HATCH
  2
AcDbHatch
  3
AutoCAD 2000
 90
        0
280
     0
281
     1
  0
CLASS
  1
XRECORD
  2
AcDbXrecord
  3
AutoCAD 2000
 90
        0
280
     0
281
     0
  0
CLASS
  1
LONG_TRANSACTION
  2
AcDbLongTransaction
  3
AutoCAD 2000
 90
        0
280
     0
281
     0
  0
CLASS
  1
LWPOLYLINE
  2
AcDbPolyline
  3
AutoCAD 2000
 90
        0
280
     0
281
     1
  0
CLASS
  1
HATCH
  2
AcDbHatch
  3
AutoCAD 2000
 90
        0
280
     0
281
     1
  0
CLASS
  1
XRECORD
  2
AcDbXrecord
  3
AutoCAD 2000
 90
        0
280
     0
281
     0
  0
CLASS
  1
LONG_TRANSACTION
  2
AcDbLongTransaction
  3
AutoCAD 2000
 90
        0
280
     0
281
     0
  0
CLASS
  1
LWPOLYLINE
  2
AcDbPolyline
  3
AutoCAD 2000
 90
        0
280
     0
281
     1
  0
CLASS
  1
HATCH
  2
AcDbHatch
  3
AutoCAD 2000
 90
        0
280
     0
281
     1
  0
CLASS
  1
XRECORD
  2
AcDbXrecord
  3
AutoCAD 2000
 90
        0
280
     0
281
     0
  0
CLASS
  1
LONG_TRANSACTION
  2
AcDbLongTransaction
  3
AutoCAD 2000
 90
        0
280
     0
281
     0
  0
CLASS
  1
LWPOLYLINE
  2
AcDbPolyline
  3
AutoCAD 2000
 90
        0
280
     0
281
     1
  0
CLASS
  1
HATCH
  2
AcDbHatch
  3
AutoCAD 2000
 90
        0
280
     0
281
     1
  0
CLASS
  1
XRECORD
  2
AcDbXrecord
  3
AutoCAD 2000
 90
        0
280
     0
281
     0
  0
CLASS
  1
LONG_TRANSACTION
  2
AcDbLongTransaction
  3
AutoCAD 2000
 90
        0
280
     0
281
     0
  0
CLASS
  1
LWPOLYLINE
  2
AcDbPolyline
  3
AutoCAD 2000
 90
        0
280
     0
281
     1
  0
CLASS
  1
HATCH
  2
AcDbHatch
  3
AutoCAD 2000
 90
        0
280
     0
281
     1
  0
CLASS
  1
XRECORD
  2
AcDbXrecord
  3
AutoCAD 2000
 90
        0
280
     0
281
     0
  0
CLASS
  1
LONG_TRANSACTION
  2
AcDbLongTransaction
  3
AutoCAD 2000
 90
        0
280
     0
281
     0
  0
CLASS
  1
LWPOLYLINE
  2
AcDbPolyline
  3
AutoCAD 2000
 90
        0
280
     0
281
     1
  0
CLASS
  1
HATCH
  2
AcDbHatch
  3
AutoCAD 2000
 90
        0
280
     0
281
     1
  0
CLASS
  1
XRECORD
  2
AcDbXrecord
  3
AutoCAD 2000
 90
        0
280
     0
281
     0
  0
CLASS
  1
LONG_TRANSACTION
  2
AcDbLongTransaction
  3
AutoCAD 2000
 90
        0
280
     0
281
     0
  0
CLASS
  1
LWPOLYLINE
  2
AcDbPolyline
  3
AutoCAD 2000
 90
        0
280
     0
281
     1
  0
CLASS
  1
HATCH
  2
AcDbHatch
  3
AutoCAD 2000
 90
        0
280
     0
281
     1
  0
CLASS
  1
XRECORD
  2
AcDbXrecord
  3
AutoCAD 2000
 90
        0
280
     0
281
     0
  0
CLASS
  1
LONG_TRANSACTION
  2
AcDbLongTransaction
  3
AutoCAD 2000
 90
        0
280
     0
281
     0
  0
CLASS
  1
LWPOLYLINE
  2
AcDbPolyline
  3
AutoCAD 2000
 90
        0
280
     0
281
     1
  0
CLASS
  1
HATCH
  2
AcDbHatch
  3
AutoCAD 2000
 90
        0
280
     0
281
     1
  0
CLASS
  1
XRECORD
  2
AcDbXrecord
  3
AutoCAD 2000
 90
        0
280
     0
281
     0
  0
CLASS
  1
LONG_TRANSACTION
  2
AcDbLongTransaction
  3
AutoCAD 2000
 90
        0
280
     0
281
     0
  0
CLASS
  1
LWPOLYLINE
  2
AcDbPolyline
  3
AutoCAD 2000
 90
        0
280
     0
281
     1
  0
CLASS
  1
HATCH
  2
AcDbHatch
  3
AutoCAD 2000
 90
        0
280
     0
281
     1
  0
CLASS
  1
XRECORD
  2
AcDbXrecord
  3
AutoCAD 2000
 90
        0
280
     0
281
     0
  0
CLASS
  1
LONG_TRANSACTION
  2
AcDbLongTransaction
  3
AutoCAD 2000
 90
        0
280
     0
281
     0
  0
CLASS
  1
LWPOLYLINE
  2
AcDbPolyline
  3
AutoCAD 2000
 90
        0
280
     0
281
     1
  0
CLASS
  1
HATCH
  2
AcDbHatch
  3
AutoCAD 2000
 90
        0
280
     0
281
     1
  0
CLASS
  1
XRECORD
  2
AcDbXrecord
  3
AutoCAD 2000
 90
        0
280
     0
281
     0
  0
CLASS
  1
LONG_TRANSACTION
  2
AcDbLongTransaction
  3
AutoCAD 2000
 90
        0
280
     0
281
     0
  0
CLASS
  1
LWPOLYLINE
  2
AcDbPolyline
  3
AutoCAD 2000
 90
        0
280
     0
281
     1
  0
CLASS
  1
HATCH
  2
AcDbHatch
  3
AutoCAD 2000
 90
        0
280
     0
281
     1
  0
CLASS
  1
XRECORD
  2
AcDbXrecord
  3
AutoCAD 2000
 90
        0
280
     0
281
     0
  0
CLASS
  1
LONG_TRANSACTION
  2
AcDbLongTransaction
  3
AutoCAD 2000
 90
        0
280
     0
281
     0
  0
CLASS
  1
LWPOLYLINE
  2
AcDbPolyline
  3
AutoCAD 2000
 90
        0
280
     0
281
     1
  0
CLASS
  1
HATCH
  2
AcDbHatch
  3
AutoCAD 2000
 90
        0
280
     0
281
     1
  0
CLASS
  1
XRECORD
  2
AcDbXrecord
  3
AutoCAD 2000
 90
        0
280
     0
281
     0
  0
CLASS
  1
LONG_TRANSACTION
  2
AcDbLongTransaction
  3
AutoCAD 2000
 90
        0
280
     0
281
     0
  0
CLASS
  1
LWPOLYLINE
  2
AcDbPolyline
  3
AutoCAD 2000
 90
        0
280
     0
281
     1
  0
CLASS
  1
HATCH
  2
AcDbHatch
  3
AutoCAD 2000
 90
        0
280
     0
281
     1
  0
CLASS
  1
XRECORD
  2
AcDbXrecord
  3
AutoCAD 2000
 90
        0
280
     0
281
     0
  0
CLASS
  1
LONG_TRANSACTION
  2
AcDbLongTransaction
  3
AutoCAD 2000
 90
        0
280
     0
281
     0
  0
CLASS
  1
LWPOLYLINE
  2
AcDbPolyline
  3
AutoCAD 2000
 90
        0
280
     0
281
     1
  0
CLASS
  1
HATCH
  2
AcDbHatch
  3
AutoCAD 2000
 90
        0
280
     0
281
     1
  0
CLASS
  1
XRECORD
  2
AcDbXrecord
  3
AutoCAD 2000
 90
        0
280
     0
281
     0
  0
CLASS
  1
LONG_TRANSACTION
  2
AcDbLongTransaction
  3
AutoCAD 2000
 90
        0
280
     0
281
     0
  0
CLASS
  1
LWPOLYLINE
  2
AcDbPolyline
  3
AutoCAD 2000
 90
        0
280
     0
281
     1
  0
CLASS
  1
HATCH
  2
AcDbHatch
  3
AutoCAD 2000
 90
        0
280
     0
281
     1
  0
CLASS
  1
XRECORD
  2
AcDbXrecord
  3
AutoCAD 2000
 90
        0
280
     0
281
     0
  0
ENDSEC
  0
SECTION
  2
TABLES
  0
TABLE
  2
VPORT
  5
92
330
0
100
AcDbSymbolTable
 70
     2
  0
VPORT
  5
5C4
330
92
100
AcDbSymbolTableRecord
100
AcDbViewportTableRecord
  2
*ACTIVE
 70
     0
 10
0.0
 20
0.0
 11
1.0
 21
1.0
 12
158.6520927050818
 22
242.8281514731635
 13
0.0
 23
0.0
 14
10.0
 24
10.0
 15
10.0
 25
10.0
 16
0.0
 26
0.0
 36
1.0
 17
0.0
 27
0.0
 37
0.0
 40
468.8178117207246
 41
1.162878787878787
 42
50.0
 43
0.0
 44
0.0
 50
0.0
 51
0.0
 71
     0
 72
 10000
 73
     1
 74
     3
 75
     0
 76
     0
 77
     0
 78
     1
  0
ENDTAB
  0
TABLE
  2
LTYPE
  5
8D
330
0
100
AcDbSymbolTable
 70
     3
  0
LTYPE
  5
8E
330
8D
100
AcDbSymbolTableRecord
100
AcDbLinetypeTableRecord
  2
BYBLOCK
 70
     0
  3

 72
    65
 73
     0
 40
0.0
  0
LTYPE
  5
8F
330
8D
100
AcDbSymbolTableRecord
100
AcDbLinetypeTableRecord
  2
BYLAYER
 70
     0
  3

 72
    65
 73
     0
 40
0.0
  0
LTYPE
  5
A
330
8D
100
AcDbSymbolTableRecord
100
AcDbLinetypeTableRecord
  2
CONTINUOUS
 70
     0
  3
Solid line
 72
    65
 73
     0
 40
0.0
  0
LTYPE
  5
9F
330
8D
100
AcDbSymbolTableRecord
100
AcDbLinetypeTableRecord
  2
CENTER
 70
     0
  3
Center ____ _ ____ _ ____ _ ____ _ ____ _ ____
 72
    65
 73
     4
 40
50.8
 49
31.75
 74
     0
 49
-6.349999999999997
 74
     0
 49
6.349999999999997
 74
     0
 49
-6.349999999999997
 74
     0
  0
LTYPE
  5
172
330
8D
100
AcDbSymbolTableRecord
100
AcDbLinetypeTableRecord
  2
HIDDEN
 70
     0
  3
Hidden __ __ __ __ __ __ __ __ __ __ __ __ __ _
 72
    65
 73
     2
 40
9.524999999999996
 49
6.349999999999997
 74
     0
 49
-3.174999999999998
 74
     0
  0
ENDTAB
  0
TABLE
  2
LAYER
  5
14
102
{ACAD_XDICTIONARY
360
15
102
}
330
0
100
AcDbSymbolTable
 70
     7
  0
LAYER
  5
6
330
14
100
AcDbSymbolTableRecord
100
AcDbLayerTableRecord
  2
0
 70
     0
 62
     7
  6
CONTINUOUS
  0
LAYER
  5
FB
330
14
100
AcDbSymbolTableRecord
100
AcDbLayerTableRecord
  2
3
 70
     0
 62
     3
  6
CONTINUOUS
  0
LAYER
  5
2AD
330
14
100
AcDbSymbolTableRecord
100
AcDbLayerTableRecord
  2
1
 70
     0
 62
     1
  6
CENTER
  0
LAYER
  5
AC
330
14
100
AcDbSymbolTableRecord
100
AcDbLayerTableRecord
  2
DEFPOINTS
 70
     0
 62
     7
  6
CONTINUOUS
  0
LAYER
  5
1A4
330
14
100
AcDbSymbolTableRecord
100
AcDbLayerTableRecord
  2
DIM
 70
     0
 62
     3
  6
CONTINUOUS
  0
LAYER
  5
C2
330
14
100
AcDbSymbolTableRecord
100
AcDbLayerTableRecord
  2
CEN
 70
     0
 62
     1
  6
CENTER
  0
LAYER
  5
1CC
330
14
100
AcDbSymbolTableRecord
100
AcDbLayerTableRecord
  2
2
 70
     0
 62
     2
  6
CONTINUOUS
  0
ENDTAB
  0
TABLE
  2
STYLE
  5
8A
330
0
100
AcDbSymbolTable
 70
     2
  0
STYLE
  5
8B
330
8A
100
AcDbSymbolTableRecord
100
AcDbTextStyleTableRecord
  2
STANDARD
 70
     0
 40
0.0
 41
1.0
 50
0.0
 71
     0
 42
5.777225951253058
  3
romans.shx
  4
whgtxt.shx
  0
STYLE
  5
2AE
330
8A
100
AcDbSymbolTableRecord
100
AcDbTextStyleTableRecord
  2
GHS
 70
     0
 40
0.0
 41
0.6
 50
0.0
 71
     0
 42
3.0
  3
ROMANS
  4
GHS
  0
ENDTAB
  0
TABLE
  2
VIEW
  5
90
330
0
100
AcDbSymbolTable
 70
     0
  0
ENDTAB
  0
TABLE
  2
UCS
  5
91
330
0
100
AcDbSymbolTable
 70
     0
  0
ENDTAB
  0
TABLE
  2
APPID
  5
94
330
0
100
AcDbSymbolTable
 70
     2
  0
APPID
  5
95
330
94
100
AcDbSymbolTableRecord
100
AcDbRegAppTableRecord
  2
ACAD
 70
     0
  0
APPID
  5
56B
330
94
100
AcDbSymbolTableRecord
100
AcDbRegAppTableRecord
  2
CONTENTBLOCKICON
 70
     0
  0
ENDTAB
  0
TABLE
  2
DIMSTYLE
  5
96
330
0
100
AcDbSymbolTable
 70
     2
  0
DIMSTYLE
105
A1
102
{ACAD_REACTORS
330
B3
330
308
330
2D7
330
228
330
2EE
330
A0
330
336
330
241
330
25A
330
274
330
210
330
28A
330
322
330
34C
330
36C
330
29F
330
2B2
330
381
330
2C3
330
D0
330
E8
330
13F
330
11E
330
1FD
330
1D2
330
1B3
330
181
330
174
330
160
330
151
330
190
330
1A5
330
10D
102
}
330
96
100
AcDbSymbolTableRecord
100
AcDbDimStyleTableRecord
  2
STANDARD
 70
     0
  3

  4

  5

  6

  7

 40
1.0
 41
2.5
 42
1.0
 43
10.0
 44
0.6
 45
0.0
 46
0.0
 47
0.0
 48
0.0
140
3.0
141
0.09
142
0.0
143
25.4
144
1.0
145
0.0
146
1.0
147
1.0
 71
     0
 72
     0
 73
     0
 74
     0
 75
     0
 76
     0
 77
     1
 78
     8
170
     0
171
     2
172
     1
173
     0
174
     1
175
     0
176
   123
177
   123
178
     3
270
     2
271
     2
272
     2
273
     2
274
     2
340
8B
275
     1
280
     0
281
     0
282
     0
283
     1
284
     0
285
     0
286
     0
287
     3
288
     1
  0
DIMSTYLE
105
9C
330
96
100
AcDbSymbolTableRecord
100
AcDbDimStyleTableRecord
  2
1_1_2
 70
     0
  3

  4

  5

  6

  7

 40
1.0
 41
3.0
 42
1.0
 43
10.0
 44
0.6
 45
0.0
 46
0.0
 47
0.0
 48
0.0
140
3.5
141
0.09
142
0.0
143
25.4
144
1.0
145
0.0
146
1.0
147
1.0
 71
     0
 72
     0
 73
     0
 74
     0
 75
     0
 76
     0
 77
     1
 78
     8
170
     0
171
     2
172
     1
173
     0
174
     1
175
     0
176
   123
177
   123
178
     3
270
     2
271
     2
272
     2
273
     2
274
     2
340
8B
275
     1
280
     0
281
     0
282
     0
283
     1
284
     0
285
     0
286
     0
287
     3
288
     1
  0
ENDTAB
  0
TABLE
  2
BLOCK_RECORD
  5
1
330
0
100
AcDbSymbolTable
 70
    66
  0
BLOCK_RECORD
  5
2
102
{ACAD_XDICTIONARY
360
3
102
}
330
1
100
AcDbSymbolTableRecord
100
AcDbBlockTableRecord
  2
*MODEL_SPACE
  0
BLOCK_RECORD
  5
E
102
{ACAD_XDICTIONARY
360
F
102
}
330
1
100
AcDbSymbolTableRecord
100
AcDbBlockTableRecord
  2
*PAPER_SPACE
  0
BLOCK_RECORD
  5
B6
330
1
100
AcDbSymbolTableRecord
100
AcDbBlockTableRecord
  2
*D0
  0
BLOCK_RECORD
  5
B2
330
1
100
AcDbSymbolTableRecord
100
AcDbBlockTableRecord
  2
3
1001
ACAD
1000
DesignCenter Data
1002
{
1070
     1
1070
     4
1002
}
1001
CONTENTBLOCKICON
1071
        0
1004
2800000020000000200000000100080000000000000400000000000000000000000000000000000000000000000080000080000000808000800000008000800080800000C0C0C000C0DCC000F0CAA6000020400000206000002080000020A0000020C0000020E00000400000004020000040400000406000004080000040A0
1004
000040C0000040E00000600000006020000060400000606000006080000060A0000060C0000060E00000800000008020000080400000806000008080000080A0000080C0000080E00000A0000000A0200000A0400000A0600000A0800000A0A00000A0C00000A0E00000C0000000C0200000C0400000C0600000C0800000C0
1004
A00000C0C00000C0E00000E0000000E0200000E0400000E0600000E0800000E0A00000E0C00000E0E00040000000400020004000400040006000400080004000A0004000C0004000E00040200000402020004020400040206000402080004020A0004020C0004020E000404000004040200040404000404060004040800040
1004
40A0004040C0004040E00040600000406020004060400040606000406080004060A0004060C0004060E00040800000408020004080400040806000408080004080A0004080C0004080E00040A0000040A0200040A0400040A0600040A0800040A0A00040A0C00040A0E00040C0000040C0200040C0400040C0600040C08000
1004
40C0A00040C0C00040C0E00040E0000040E0200040E0400040E0600040E0800040E0A00040E0C00040E0E00080000000800020008000400080006000800080008000A0008000C0008000E00080200000802020008020400080206000802080008020A0008020C0008020E00080400000804020008040400080406000804080
1004
008040A0008040C0008040E00080600000806020008060400080606000806080008060A0008060C0008060E00080800000808020008080400080806000808080008080A0008080C0008080E00080A0000080A0200080A0400080A0600080A0800080A0A00080A0C00080A0E00080C0000080C0200080C0400080C0600080C0
1004
800080C0A00080C0C00080C0E00080E0000080E0200080E0400080E0600080E0800080E0A00080E0C00080E0E000C0000000C0002000C0004000C0006000C0008000C000A000C000C000C000E000C0200000C0202000C0204000C0206000C0208000C020A000C020C000C020E000C0400000C0402000C0404000C0406000C0
1004
408000C040A000C040C000C040E000C0600000C0602000C0604000C0606000C0608000C060A000C060C000C060E000C0800000C0802000C0804000C0806000C0808000C080A000C080C000C080E000C0A00000C0A02000C0A04000C0A06000C0A08000C0A0A000C0A0C000C0A0E000C0C00000C0C02000C0C04000C0C06000
1004
C0C08000C0C0A000F0FBFF00A4A0A000808080000000FF0000FF000000FFFF00FF000000FF00FF00FFFF0000FFFFFF0000000000000000000000000000000000000000000000000000000000000000000000000000000000000000000000000000000000000000000000000000000000000000000000000000000000000000
1004
00000000000000000000000000000000000000000000000000000000000000000000000000000000000000000000000000000000F90000F90000000000000000000000000000F9FFF9000000000000000000F300FFF9FF00000000000000000000000000000000F9FF00000000000000000000F3FFFFF90000000000000000
1004
00000000000000F9FFF900000000000000000000F900F30000000000000000000000000000000000000000000000000000000000000000F3F30000000000000000000000000000000000000000000000000000000000000000F30000000000000000000000000000000000000000000000000000000000000000F300000000
1004
00000000000000000000000000000000000000000000000000000000F30000000000000000000000000000000000000000000000000000000000000000F3F30000000000000000000000000000000000000000000000000000000000000000F300000000000000000000000000000000000000000000000000000000000000
1004
00F30000000000000000000000000000000000000000000000000000000000000000F30000000000000000000000000000000000000000000000000000000000000000F3F30000000000000000000000000000000000000000000000000000000000000000F300000000000000000000000000000000000000000000000000
1004
00000000000000F30000000000000000000000000000000000000000000000000000000000000000F30000000000000000000000000000000000000000000000000000000000000000F3F30000000000000000000000000000000000000000000000000000000000000000F300F900000000000000000000F900F900000000
1004
0000000000000000000000F9FFF9F300000000000000000000FFF9FF00000000000000000000000000000000FFFF00FA000000000000000000F9FFF9000000000000000000000000000000F9FFF9FAFAFA00000000000000000000000000000000000000000000000000F900000000FAFAFAF3000000000000000000000000
1004
0000000000000000000000000000000000FAFAFAFA0000000000000000000000000000000000000000000000000000000000FAFAFAF300000000000000000000000000000000000000000000000000000000000000000000000000000000000000000000000000000000000000000000000000000000000000000000000000
1004
0000000000000000000000000000000000000000000000000000000000000000000000000000000000000000000000000000000000000000
  0
BLOCK_RECORD
  5
A2
330
1
100
AcDbSymbolTableRecord
100
AcDbBlockTableRecord
  2
*D2
  0
BLOCK_RECORD
  5
34D
330
1
100
AcDbSymbolTableRecord
100
AcDbBlockTableRecord
  2
*D3
  0
BLOCK_RECORD
  5
2A0
330
1
100
AcDbSymbolTableRecord
100
AcDbBlockTableRecord
  2
*D4
  0
BLOCK_RECORD
  5
2B3
330
1
100
AcDbSymbolTableRecord
100
AcDbBlockTableRecord
  2
*D5
  0
BLOCK_RECORD
  5
30B
330
1
100
AcDbSymbolTableRecord
100
AcDbBlockTableRecord
  2
*D6
  0
BLOCK_RECORD
  5
2DA
330
1
100
AcDbSymbolTableRecord
100
AcDbBlockTableRecord
  2
*D7
  0
BLOCK_RECORD
  5
22B
330
1
100
AcDbSymbolTableRecord
100
AcDbBlockTableRecord
  2
*D8
  0
BLOCK_RECORD
  5
2F1
330
1
100
AcDbSymbolTableRecord
100
AcDbBlockTableRecord
  2
*D9
  0
BLOCK_RECORD
  5
339
330
1
100
AcDbSymbolTableRecord
100
AcDbBlockTableRecord
  2
*D10
  0
BLOCK_RECORD
  5
244
330
1
100
AcDbSymbolTableRecord
100
AcDbBlockTableRecord
  2
*D11
  0
BLOCK_RECORD
  5
25D
330
1
100
AcDbSymbolTableRecord
100
AcDbBlockTableRecord
  2
*D12
  0
BLOCK_RECORD
  5
277
330
1
100
AcDbSymbolTableRecord
100
AcDbBlockTableRecord
  2
*D13
  0
BLOCK_RECORD
  5
213
330
1
100
AcDbSymbolTableRecord
100
AcDbBlockTableRecord
  2
*D14
  0
BLOCK_RECORD
  5
28D
330
1
100
AcDbSymbolTableRecord
100
AcDbBlockTableRecord
  2
*D15
  0
BLOCK_RECORD
  5
325
330
1
100
AcDbSymbolTableRecord
100
AcDbBlockTableRecord
  2
*D16
  0
BLOCK_RECORD
  5
36F
330
1
100
AcDbSymbolTableRecord
100
AcDbBlockTableRecord
  2
*D17
  0
BLOCK_RECORD
  5
384
330
1
100
AcDbSymbolTableRecord
100
AcDbBlockTableRecord
  2
*D18
  0
BLOCK_RECORD
  5
2C6
330
1
100
AcDbSymbolTableRecord
100
AcDbBlockTableRecord
  2
*D19
  0
BLOCK_RECORD
  5
1FE
330
1
100
AcDbSymbolTableRecord
100
AcDbBlockTableRecord
  2
*D20
  0
BLOCK_RECORD
  5
175
330
1
100
AcDbSymbolTableRecord
100
AcDbBlockTableRecord
  2
*D21
  0
BLOCK_RECORD
  5
1A6
330
1
100
AcDbSymbolTableRecord
100
AcDbBlockTableRecord
  2
*D22
  0
BLOCK_RECORD
  5
D3
330
1
100
AcDbSymbolTableRecord
100
AcDbBlockTableRecord
  2
*D23
  0
BLOCK_RECORD
  5
EB
330
1
100
AcDbSymbolTableRecord
100
AcDbBlockTableRecord
  2
*D24
  0
BLOCK_RECORD
  5
142
330
1
100
AcDbSymbolTableRecord
100
AcDbBlockTableRecord
  2
*D25
  0
BLOCK_RECORD
  5
121
330
1
100
AcDbSymbolTableRecord
100
AcDbBlockTableRecord
  2
*D26
  0
BLOCK_RECORD
  5
1D5
330
1
100
AcDbSymbolTableRecord
100
AcDbBlockTableRecord
  2
*D27
  0
BLOCK_RECORD
  5
1B6
330
1
100
AcDbSymbolTableRecord
100
AcDbBlockTableRecord
  2
*D28
  0
BLOCK_RECORD
  5
184
330
1
100
AcDbSymbolTableRecord
100
AcDbBlockTableRecord
  2
*D29
  0
BLOCK_RECORD
  5
163
330
1
100
AcDbSymbolTableRecord
100
AcDbBlockTableRecord
  2
*D30
  0
BLOCK_RECORD
  5
154
330
1
100
AcDbSymbolTableRecord
100
AcDbBlockTableRecord
  2
*D31
  0
BLOCK_RECORD
  5
193
330
1
100
AcDbSymbolTableRecord
100
AcDbBlockTableRecord
  2
*D32
  0
BLOCK_RECORD
  5
110
330
1
100
AcDbSymbolTableRecord
100
AcDbBlockTableRecord
  2
*D33
  0
BLOCK_RECORD
  5
3A1
330
1
100
AcDbSymbolTableRecord
100
AcDbBlockTableRecord
  2
*D34
  0
BLOCK_RECORD
  5
3AF
330
1
100
AcDbSymbolTableRecord
100
AcDbBlockTableRecord
  2
*D35
  0
BLOCK_RECORD
  5
3BB
330
1
100
AcDbSymbolTableRecord
100
AcDbBlockTableRecord
  2
*D36
  0
BLOCK_RECORD
  5
3C9
330
1
100
AcDbSymbolTableRecord
100
AcDbBlockTableRecord
  2
*D37
  0
BLOCK_RECORD
  5
3D5
330
1
100
AcDbSymbolTableRecord
100
AcDbBlockTableRecord
  2
*D38
  0
BLOCK_RECORD
  5
3E1
330
1
100
AcDbSymbolTableRecord
100
AcDbBlockTableRecord
  2
*D39
  0
BLOCK_RECORD
  5
3EF
330
1
100
AcDbSymbolTableRecord
100
AcDbBlockTableRecord
  2
*D40
  0
BLOCK_RECORD
  5
3FB
330
1
100
AcDbSymbolTableRecord
100
AcDbBlockTableRecord
  2
*D41
  0
BLOCK_RECORD
  5
409
330
1
100
AcDbSymbolTableRecord
100
AcDbBlockTableRecord
  2
*D42
  0
BLOCK_RECORD
  5
415
330
1
100
AcDbSymbolTableRecord
100
AcDbBlockTableRecord
  2
*D43
  0
BLOCK_RECORD
  5
421
330
1
100
AcDbSymbolTableRecord
100
AcDbBlockTableRecord
  2
*D44
  0
BLOCK_RECORD
  5
42D
330
1
100
AcDbSymbolTableRecord
100
AcDbBlockTableRecord
  2
*D45
  0
BLOCK_RECORD
  5
439
330
1
100
AcDbSymbolTableRecord
100
AcDbBlockTableRecord
  2
*D46
  0
BLOCK_RECORD
  5
445
330
1
100
AcDbSymbolTableRecord
100
AcDbBlockTableRecord
  2
*D47
  0
BLOCK_RECORD
  5
451
330
1
100
AcDbSymbolTableRecord
100
AcDbBlockTableRecord
  2
*D48
  0
BLOCK_RECORD
  5
45D
330
1
100
AcDbSymbolTableRecord
100
AcDbBlockTableRecord
  2
*D49
  0
BLOCK_RECORD
  5
469
330
1
100
AcDbSymbolTableRecord
100
AcDbBlockTableRecord
  2
*D50
  0
BLOCK_RECORD
  5
475
330
1
100
AcDbSymbolTableRecord
100
AcDbBlockTableRecord
  2
*D51
  0
BLOCK_RECORD
  5
483
330
1
100
AcDbSymbolTableRecord
100
AcDbBlockTableRecord
  2
*D52
  0
BLOCK_RECORD
  5
491
330
1
100
AcDbSymbolTableRecord
100
AcDbBlockTableRecord
  2
*D53
  0
BLOCK_RECORD
  5
49F
330
1
100
AcDbSymbolTableRecord
100
AcDbBlockTableRecord
  2
*D54
  0
BLOCK_RECORD
  5
4AB
330
1
100
AcDbSymbolTableRecord
100
AcDbBlockTableRecord
  2
*D55
  0
BLOCK_RECORD
  5
4B7
330
1
100
AcDbSymbolTableRecord
100
AcDbBlockTableRecord
  2
*D56
  0
BLOCK_RECORD
  5
4C3
330
1
100
AcDbSymbolTableRecord
100
AcDbBlockTableRecord
  2
*D57
  0
BLOCK_RECORD
  5
4CF
330
1
100
AcDbSymbolTableRecord
100
AcDbBlockTableRecord
  2
*D58
  0
BLOCK_RECORD
  5
4DD
330
1
100
AcDbSymbolTableRecord
100
AcDbBlockTableRecord
  2
*D59
  0
BLOCK_RECORD
  5
4EB
330
1
100
AcDbSymbolTableRecord
100
AcDbBlockTableRecord
  2
*D60
  0
BLOCK_RECORD
  5
4F7
330
1
100
AcDbSymbolTableRecord
100
AcDbBlockTableRecord
  2
*D61
  0
BLOCK_RECORD
  5
503
330
1
100
AcDbSymbolTableRecord
100
AcDbBlockTableRecord
  2
*D62
  0
BLOCK_RECORD
  5
50F
330
1
100
AcDbSymbolTableRecord
100
AcDbBlockTableRecord
  2
*D63
  0
BLOCK_RECORD
  5
51D
330
1
100
AcDbSymbolTableRecord
100
AcDbBlockTableRecord
  2
*D64
  0
BLOCK_RECORD
  5
529
330
1
100
AcDbSymbolTableRecord
100
AcDbBlockTableRecord
  2
*D65
  0
ENDTAB
  0
ENDSEC
  0
SECTION
  2
BLOCKS
  0
BLOCK
  5
5
330
2
100
AcDbEntity
  8
0
100
AcDbBlockBegin
  2
*MODEL_SPACE
 70
     0
 10
0.0
 20
0.0
 30
0.0
  3
*MODEL_SPACE
  1

  0
ENDBLK
  5
B
330
2
100
AcDbEntity
  8
0
100
AcDbBlockEnd
  0
BLOCK
  5
11
330
E
100
AcDbEntity
 67
     1
  8
0
100
AcDbBlockBegin
  2
*PAPER_SPACE
 70
     0
 10
0.0
 20
0.0
 30
0.0
  3
*PAPER_SPACE
  1

  0
ENDBLK
  5
12
330
E
100
AcDbEntity
 67
     1
  8
0
100
AcDbBlockEnd
  0
BLOCK
  5
BF
330
B6
100
AcDbEntity
  8
0
100
AcDbBlockBegin
  2
*D0
 70
     1
 10
0.0
 20
0.0
 30
0.0
  3
*D0
  1

  0
LINE
  5
B7
330
B6
100
AcDbEntity
  8
0
 62
   123
100
AcDbLine
 10
15629.80488223125
 20
-1733.340049768652
 30
0.0
 11
15627.80633318254
 21
-1734.841982423581
 31
0.0
  0
LINE
  5
B8
330
B6
100
AcDbEntity
  8
0
 62
   123
100
AcDbLine
 10
15699.35438912599
 20
-1681.072793377123
 30
0.0
 11
15717.68393897264
 21
-1667.297925313345
 31
0.0
  0
LINE
  5
B9
330
B6
100
AcDbEntity
  8
0
 62
   123
100
AcDbLine
 10
15631.80343127995
 20
-1731.838117113723
 30
0.0
 11
15697.35584007729
 21
-1682.574726032052
 31
0.0
  0
SOLID
  5
BA
330
B6
100
AcDbEntity
  8
0
 62
   123
100
AcDbTrace
 10
15629.55456012208
 20
-1733.006958260537
 30
0.0
 11
15630.0552043404
 21
-1733.673141276769
 31
0.0
 12
15631.80343127995
 22
-1731.838117113723
 32
0.0
 13
15631.80343127995
 23
-1731.838117113723
 33
0.0
  0
SOLID
  5
BB
330
B6
100
AcDbEntity
  8
0
 62
   123
100
AcDbTrace
 10
15699.10406701684
 20
-1680.739701869008
 30
0.0
 11
15699.60471123515
 21
-1681.40588488524
 31
0.0
 12
15697.35584007729
 22
-1682.574726032052
 32
0.0
 13
15697.35584007729
 23
-1682.574726032052
 33
0.0
  0
MTEXT
  5
BC
330
B6
100
AcDbEntity
  8
0
 62
     3
100
AcDbMText
 10
15708.01650591874
 20
-1671.435843969068
 30
0.0
 40
3.0
 41
0.0
 71
     5
 72
     1
  1
\A1;\U+220582%%P0.5
 11
0.7994196194798298
 21
0.6007730619715935
 31
0.0
1001
ACAD
1000
MTEXTBEGIN
1070
    73
1070
     1
1070
    44
1040
1.0
1070
    74
1070
     0
1000
MTEXTEND
1000
MTEXTBEGIN
1070
    73
1070
     1
1070
    44
1040
1.0
1070
    74
1070
     0
1000
MTEXTEND
1000
MTEXTBEGIN
1070
    73
1070
     1
1070
    44
1040
1.0
1070
    74
1070
     0
1000
MTEXTEND
  0
POINT
  5
BD
330
B6
100
AcDbEntity
  8
DEFPOINTS
 62
     0
100
AcDbPoint
 10
15697.35584007729
 20
-1682.574726032052
 30
0.0
  0
POINT
  5
BE
330
B6
100
AcDbEntity
  8
DEFPOINTS
 62
     0
100
AcDbPoint
 10
15631.80343127995
 20
-1731.838117113723
 30
0.0
  0
ENDBLK
  5
C0
330
B6
100
AcDbEntity
  8
0
100
AcDbBlockEnd
  0
BLOCK
  5
CE
330
B2
100
AcDbEntity
  8
0
100
AcDbBlockBegin
  2
3
 70
     0
 10
0.0
 20
0.0
 30
0.0
  3
3
  1

  0
DIMENSION
  5
B3
102
{ACAD_XDICTIONARY
360
B4
102
}
102
{ACAD_REACTORS
330
B5
102
}
330
B2
100
AcDbEntity
  8
0
100
AcDbDimension
  2
*D0
 10
-32.77620439867496
 20
-24.63169554083719
 30
0.0
 11
44.93880289504522
 21
33.772028555117
 31
0.0
 12
-15664.57963567861
 22
1707.206421572886
 32
0.0
 70
   131
  1
<>%%P0.5
  3
STANDARD
100
AcDbDiametricDimension
 15
32.77620439867132
 25
24.63169554083401
 35
0.0
 40
0.0
  0
ARC
  5
C1
102
{ACAD_REACTORS
330
B5
102
}
330
B2
100
AcDbEntity
  8
CEN
 48
0.6
100
AcDbCircle
 10
-0.000000000003638
 20
0.0000000000020464
 30
0.0
 40
41.0
100
AcDbArc
 50
34.15351134749203
 51
55.84648865250797
  0
LINE
  5
C3
330
B2
100
AcDbEntity
  8
CEN
 48
0.6
100
AcDbLine
 10
25.63262081800167
 20
25.63262081802145
 30
0.0
 11
32.35013523927227
 21
32.35013523929547
 31
0.0
  0
CIRCLE
  5
C4
330
B2
100
AcDbEntity
  8
0
100
AcDbCircle
 10
28.99137802863515
 20
28.99137802865948
 30
0.0
 40
2.75
  0
CIRCLE
  5
C5
330
B2
100
AcDbEntity
  8
0
100
AcDbCircle
 10
-28.99137802866608
 20
28.99137802864379
 30
0.0
 40
2.75
  0
LINE
  5
C6
330
B2
100
AcDbEntity
  8
CEN
 48
0.6
100
AcDbLine
 10
-25.63262081802895
 20
25.63262081801099
 30
0.0
 11
-32.35013523930319
 21
32.35013523928158
 31
0.0
  0
ARC
  5
C7
330
B2
100
AcDbEntity
  8
CEN
 48
0.6
100
AcDbCircle
 10
-0.0000000000090949
 20
0.0000000000047748
 30
0.0
 40
41.0
100
AcDbArc
 50
128.358356428657
 51
141.641643571353
  0
ARC
  5
C8
330
B2
100
AcDbEntity
  8
CEN
 48
0.6
100
AcDbCircle
 10
-0.0000000000127329
 20
-0.0000000000009095
 30
0.0
 40
41.0
100
AcDbArc
 50
214.1535113474918
 51
235.8464886525078
  0
CIRCLE
  5
C9
330
B2
100
AcDbEntity
  8
0
100
AcDbCircle
 10
-28.99137802865151
 20
-28.99137802865833
 30
0.0
 40
2.75
  0
LINE
  5
CA
330
B2
100
AcDbEntity
  8
CEN
 48
0.6
100
AcDbLine
 10
-25.63262081801804
 20
-25.63262081802031
 30
0.0
 11
-32.35013523928865
 21
-32.35013523929433
 31
0.0
  0
CIRCLE
  5
CB
330
B2
100
AcDbEntity
  8
0
100
AcDbCircle
 10
28.99137802865151
 20
-28.99137802864446
 30
0.0
 40
2.75
  0
LINE
  5
CC
330
B2
100
AcDbEntity
  8
CEN
 48
0.6
100
AcDbLine
 10
25.63262081801257
 20
-25.63262081801052
 30
0.0
 11
32.35013523928683
 21
-32.35013523928113
 31
0.0
  0
ARC
  5
CD
330
B2
100
AcDbEntity
  8
CEN
 48
0.6
100
AcDbCircle
 10
-0.000000000005457
 20
-0.0000000000056843
 30
0.0
 40
41.0
100
AcDbArc
 50
308.3583564286568
 51
321.6416435713528
  0
ENDBLK
  5
CF
330
B2
100
AcDbEntity
  8
0
100
AcDbBlockEnd
  0
BLOCK
  5
AF
330
A2
100
AcDbEntity
  8
0
100
AcDbBlockBegin
  2
*D2
 70
     1
 10
0.0
 20
0.0
 30
0.0
  3
*D2
  1

  0
LINE
  5
A3
330
A2
100
AcDbEntity
  8
0
 62
   123
100
AcDbLine
 10
-10085.01780321929
 20
-2620.698399123392
 30
0.0
 11
-10077.24874806382
 21
-2620.698399123392
 31
0.0
  0
LINE
  5
A4
330
A2
100
AcDbEntity
  8
0
 62
   123
100
AcDbLine
 10
-10085.01780321929
 20
-2616.698399123393
 30
0.0
 11
-10077.24874806382
 21
-2616.698399123393
 31
0.0
  0
LINE
  5
A5
330
A2
100
AcDbEntity
  8
0
 62
   123
100
AcDbLine
 10
-10077.84874806382
 20
-2623.198399123394
 30
0.0
 11
-10077.84874806382
 21
-2625.698399123393
 31
0.0
  0
LINE
  5
A6
330
A2
100
AcDbEntity
  8
0
 62
   123
100
AcDbLine
 10
-10077.84874806382
 20
-2614.198399123393
 30
0.0
 11
-10077.84874806382
 21
-2595.134651615015
 31
0.0
  0
LINE
  5
A7
330
A2
100
AcDbEntity
  8
0
 62
   123
100
AcDbLine
 10
-10077.84874806382
 20
-2620.698399123392
 30
0.0
 11
-10077.84874806382
 21
-2616.698399123393
 31
0.0
  0
SOLID
  5
A8
330
A2
100
AcDbEntity
  8
0
 62
   123
100
AcDbTrace
 10
-10078.26541473049
 20
-2623.198399123394
 30
0.0
 11
-10077.43208139715
 21
-2623.198399123394
 31
0.0
 12
-10077.84874806382
 22
-2620.698399123392
 32
0.0
 13
-10077.84874806382
 23
-2620.698399123392
 33
0.0
  0
SOLID
  5
A9
330
A2
100
AcDbEntity
  8
0
 62
   123
100
AcDbTrace
 10
-10078.26541473049
 20
-2614.198399123393
 30
0.0
 11
-10077.43208139715
 21
-2614.198399123393
 31
0.0
 12
-10077.84874806382
 22
-2616.698399123393
 32
0.0
 13
-10077.84874806382
 23
-2616.698399123393
 33
0.0
  0
MTEXT
  5
AA
330
A2
100
AcDbEntity
  8
0
 62
     3
100
AcDbMText
 10
-10081.29874806382
 20
-2601.848937329303
 30
0.0
 40
3.0
 41
0.0
 71
     5
 72
     1
  1
\A1;\A1;4{\f??|b0|i0|c0|p49;\H0.7x;\S+0^ -0.03;}
 11
0.0000000000000001
 21
1.0
 31
0.0
1001
ACAD
1000
MTEXTBEGIN
1070
    73
1070
     1
1070
    44
1040
1.0
1070
    74
1070
     0
1000
MTEXTEND
1000
MTEXTBEGIN
1070
    73
1070
     1
1070
    44
1040
1.0
1070
    74
1070
     0
1000
MTEXTEND
1000
MTEXTBEGIN
1070
    73
1070
     1
1070
    44
1040
1.0
1070
    74
1070
     0
1000
MTEXTEND
  0
POINT
  5
AB
330
A2
100
AcDbEntity
  8
DEFPOINTS
 62
     0
100
AcDbPoint
 10
-10086.01780321929
 20
-2620.698399123392
 30
0.0
  0
POINT
  5
AD
330
A2
100
AcDbEntity
  8
DEFPOINTS
 62
     0
100
AcDbPoint
 10
-10086.01780321929
 20
-2616.698399123393
 30
0.0
  0
POINT
  5
AE
330
A2
100
AcDbEntity
  8
DEFPOINTS
 62
     0
100
AcDbPoint
 10
-10077.84874806382
 20
-2616.698399123393
 30
0.0
  0
ENDBLK
  5
B0
330
A2
100
AcDbEntity
  8
0
100
AcDbBlockEnd
  0
BLOCK
  5
357
330
34D
100
AcDbEntity
  8
0
100
AcDbBlockBegin
  2
*D3
 70
     1
 10
0.0
 20
0.0
 30
0.0
  3
*D3
  1

  0
LINE
  5
34E
330
34D
100
AcDbEntity
  8
0
 62
   123
100
AcDbLine
 10
-9973.071238093481
 20
-2384.608545652062
 30
0.0
 11
-9973.071238093481
 21
-2333.26096782763
 31
0.0
  0
LINE
  5
34F
330
34D
100
AcDbEntity
  8
0
 62
   123
100
AcDbLine
 10
-9960.071238093478
 20
-2352.448045652062
 30
0.0
 11
-9960.071238093478
 21
-2333.26096782763
 31
0.0
  0
LINE
  5
350
330
34D
100
AcDbEntity
  8
0
 62
   123
100
AcDbLine
 10
-9970.571238093478
 20
-2333.86096782763
 30
0.0
 11
-9962.571238093481
 21
-2333.86096782763
 31
0.0
  0
SOLID
  5
351
330
34D
100
AcDbEntity
  8
0
 62
   123
100
AcDbTrace
 10
-9970.571238093478
 20
-2333.444301160963
 30
0.0
 11
-9970.571238093478
 21
-2334.277634494295
 31
0.0
 12
-9973.071238093481
 22
-2333.86096782763
 32
0.0
 13
-9973.071238093481
 23
-2333.86096782763
 33
0.0
  0
SOLID
  5
352
330
34D
100
AcDbEntity
  8
0
 62
   123
100
AcDbTrace
 10
-9962.571238093481
 20
-2333.444301160963
 30
0.0
 11
-9962.571238093481
 21
-2334.277634494295
 31
0.0
 12
-9960.071238093478
 22
-2333.86096782763
 32
0.0
 13
-9960.071238093478
 23
-2333.86096782763
 33
0.0
  0
MTEXT
  5
353
330
34D
100
AcDbEntity
  8
0
 62
     3
100
AcDbMText
 10
-9966.57123809348
 20
-2331.360967827629
 30
0.0
 40
3.0
 41
0.0
 71
     5
 72
     1
  1
\A1;13
1001
ACAD
1000
MTEXTBEGIN
1070
    73
1070
     1
1070
    44
1040
1.0
1070
    74
1070
     0
1000
MTEXTEND
1000
MTEXTBEGIN
1070
    73
1070
     1
1070
    44
1040
1.0
1070
    74
1070
     0
1000
MTEXTEND
1000
MTEXTBEGIN
1070
    73
1070
     1
1070
    44
1040
1.0
1070
    74
1070
     0
1000
MTEXTEND
  0
POINT
  5
354
330
34D
100
AcDbEntity
  8
DEFPOINTS
 62
     0
100
AcDbPoint
 10
-9973.071238093481
 20
-2385.608545652063
 30
0.0
  0
POINT
  5
355
330
34D
100
AcDbEntity
  8
DEFPOINTS
 62
     0
100
AcDbPoint
 10
-9960.071238093478
 20
-2353.448045652061
 30
0.0
  0
POINT
  5
356
330
34D
100
AcDbEntity
  8
DEFPOINTS
 62
     0
100
AcDbPoint
 10
-9960.071238093478
 20
-2333.86096782763
 30
0.0
  0
ENDBLK
  5
358
330
34D
100
AcDbEntity
  8
0
100
AcDbBlockEnd
  0
BLOCK
  5
2AA
330
2A0
100
AcDbEntity
  8
0
100
AcDbBlockBegin
  2
*D4
 70
     1
 10
0.0
 20
0.0
 30
0.0
  3
*D4
  1

  0
LINE
  5
2A1
330
2A0
100
AcDbEntity
  8
0
 62
   123
100
AcDbLine
 10
-9927.591252963756
 20
-2483.963479663792
 30
0.0
 11
-9988.857298886209
 21
-2483.963479663792
 31
0.0
  0
LINE
  5
2A2
330
2A0
100
AcDbEntity
  8
0
 62
   123
100
AcDbLine
 10
-9940.45097120906
 20
-2513.963479663792
 30
0.0
 11
-9988.857298886209
 21
-2513.963479663792
 31
0.0
  0
LINE
  5
2A3
330
2A0
100
AcDbEntity
  8
0
 62
   123
100
AcDbLine
 10
-9988.257298886209
 20
-2486.463479663791
 30
0.0
 11
-9988.257298886209
 21
-2511.463479663792
 31
0.0
  0
SOLID
  5
2A4
330
2A0
100
AcDbEntity
  8
0
 62
   123
100
AcDbTrace
 10
-9988.673965552877
 20
-2486.463479663791
 30
0.0
 11
-9987.840632219544
 21
-2486.463479663791
 31
0.0
 12
-9988.257298886209
 22
-2483.963479663792
 32
0.0
 13
-9988.257298886209
 23
-2483.963479663792
 33
0.0
  0
SOLID
  5
2A5
330
2A0
100
AcDbEntity
  8
0
 62
   123
100
AcDbTrace
 10
-9988.673965552877
 20
-2511.463479663792
 30
0.0
 11
-9987.840632219544
 21
-2511.463479663792
 31
0.0
 12
-9988.257298886209
 22
-2513.963479663792
 32
0.0
 13
-9988.257298886209
 23
-2513.963479663792
 33
0.0
  0
MTEXT
  5
2A6
330
2A0
100
AcDbEntity
  8
0
 62
     3
100
AcDbMText
 10
-9990.757298886208
 20
-2499.213479663792
 30
0.0
 40
3.0
 41
0.0
 71
     5
 72
     1
  1
\A1;{\f??|b0|i0|c0|p49;%%c}30
 11
0.0000000000000001
 21
1.0
 31
0.0
1001
ACAD
1000
MTEXTBEGIN
1070
    73
1070
     1
1070
    44
1040
1.0
1070
    74
1070
     0
1000
MTEXTEND
1000
MTEXTBEGIN
1070
    73
1070
     1
1070
    44
1040
1.0
1070
    74
1070
     0
1000
MTEXTEND
1000
MTEXTBEGIN
1070
    73
1070
     1
1070
    44
1040
1.0
1070
    74
1070
     0
1000
MTEXTEND
  0
POINT
  5
2A7
330
2A0
100
AcDbEntity
  8
DEFPOINTS
 62
     0
100
AcDbPoint
 10
-9926.59125296376
 20
-2483.963479663792
 30
0.0
  0
POINT
  5
2A8
330
2A0
100
AcDbEntity
  8
DEFPOINTS
 62
     0
100
AcDbPoint
 10
-9939.450971209058
 20
-2513.963479663792
 30
0.0
  0
POINT
  5
2A9
330
2A0
100
AcDbEntity
  8
DEFPOINTS
 62
     0
100
AcDbPoint
 10
-9988.257298886209
 20
-2513.963479663792
 30
0.0
  0
ENDBLK
  5
2AB
330
2A0
100
AcDbEntity
  8
0
100
AcDbBlockEnd
  0
BLOCK
  5
2BD
330
2B3
100
AcDbEntity
  8
0
100
AcDbBlockBegin
  2
*D5
 70
     1
 10
0.0
 20
0.0
 30
0.0
  3
*D5
  1

  0
LINE
  5
2B4
330
2B3
100
AcDbEntity
  8
0
 62
   123
100
AcDbLine
 10
-9956.091252963759
 20
-2504.963479663792
 30
0.0
 11
-9956.091252963759
 21
-2562.859494045417
 31
0.0
  0
LINE
  5
2B5
330
2B3
100
AcDbEntity
  8
0
 62
   123
100
AcDbLine
 10
-9924.091252963755
 20
-2544.963479663792
 30
0.0
 11
-9924.091252963755
 21
-2562.859494045417
 31
0.0
  0
LINE
  5
2B6
330
2B3
100
AcDbEntity
  8
0
 62
   123
100
AcDbLine
 10
-9953.591252963756
 20
-2562.259494045417
 30
0.0
 11
-9926.59125296376
 21
-2562.259494045417
 31
0.0
  0
SOLID
  5
2B7
330
2B3
100
AcDbEntity
  8
0
 62
   123
100
AcDbTrace
 10
-9953.591252963756
 20
-2561.84282737875
 30
0.0
 11
-9953.591252963756
 21
-2562.676160712084
 31
0.0
 12
-9956.091252963759
 22
-2562.259494045417
 32
0.0
 13
-9956.091252963759
 23
-2562.259494045417
 33
0.0
  0
SOLID
  5
2B8
330
2B3
100
AcDbEntity
  8
0
 62
   123
100
AcDbTrace
 10
-9926.59125296376
 20
-2561.84282737875
 30
0.0
 11
-9926.59125296376
 21
-2562.676160712084
 31
0.0
 12
-9924.091252963755
 22
-2562.259494045417
 32
0.0
 13
-9924.091252963755
 23
-2562.259494045417
 33
0.0
  0
MTEXT
  5
2B9
330
2B3
100
AcDbEntity
  8
0
 62
     3
100
AcDbMText
 10
-9940.09125296376
 20
-2559.759494045418
 30
0.0
 40
3.0
 41
0.0
 71
     5
 72
     1
  1
\A1;32
1001
ACAD
1000
MTEXTBEGIN
1070
    73
1070
     1
1070
    44
1040
1.0
1070
    74
1070
     0
1000
MTEXTEND
1000
MTEXTBEGIN
1070
    73
1070
     1
1070
    44
1040
1.0
1070
    74
1070
     0
1000
MTEXTEND
1000
MTEXTBEGIN
1070
    73
1070
     1
1070
    44
1040
1.0
1070
    74
1070
     0
1000
MTEXTEND
  0
POINT
  5
2BA
330
2B3
100
AcDbEntity
  8
DEFPOINTS
 62
     0
100
AcDbPoint
 10
-9956.091252963759
 20
-2503.963479663791
 30
0.0
  0
POINT
  5
2BB
330
2B3
100
AcDbEntity
  8
DEFPOINTS
 62
     0
100
AcDbPoint
 10
-9924.091252963755
 20
-2543.963479663792
 30
0.0
  0
POINT
  5
2BC
330
2B3
100
AcDbEntity
  8
DEFPOINTS
 62
     0
100
AcDbPoint
 10
-9924.091252963755
 20
-2562.259494045417
 30
0.0
  0
ENDBLK
  5
2BE
330
2B3
100
AcDbEntity
  8
0
100
AcDbBlockEnd
  0
BLOCK
  5
317
330
30B
100
AcDbEntity
  8
0
100
AcDbBlockBegin
  2
*D6
 70
     1
 10
0.0
 20
0.0
 30
0.0
  3
*D6
  1

  0
LINE
  5
30C
330
30B
100
AcDbEntity
  8
0
 62
   123
100
AcDbLine
 10
-10018.91377019203
 20
-2617.798694410391
 30
0.0
 11
-10003.81643769785
 21
-2617.798694410391
 31
0.0
  0
LINE
  5
30D
330
30B
100
AcDbEntity
  8
0
 62
   123
100
AcDbLine
 10
-10020.91377019203
 20
-2615.298694410389
 30
0.0
 11
-10003.81643769785
 21
-2615.298694410389
 31
0.0
  0
LINE
  5
30E
330
30B
100
AcDbEntity
  8
0
 62
   123
100
AcDbLine
 10
-10004.41643769784
 20
-2620.298694410389
 30
0.0
 11
-10004.41643769784
 21
-2622.79869441039
 31
0.0
  0
LINE
  5
30F
330
30B
100
AcDbEntity
  8
0
 62
   123
100
AcDbLine
 10
-10004.41643769784
 20
-2612.798694410389
 30
0.0
 11
-10004.41643769784
 21
-2591.384408696102
 31
0.0
  0
LINE
  5
310
330
30B
100
AcDbEntity
  8
0
 62
   123
100
AcDbLine
 10
-10004.41643769784
 20
-2617.798694410391
 30
0.0
 11
-10004.41643769784
 21
-2615.298694410389
 31
0.0
  0
SOLID
  5
311
330
30B
100
AcDbEntity
  8
0
 62
   123
100
AcDbTrace
 10
-10004.83310436451
 20
-2620.298694410389
 30
0.0
 11
-10003.99977103118
 21
-2620.298694410389
 31
0.0
 12
-10004.41643769784
 22
-2617.798694410391
 32
0.0
 13
-10004.41643769784
 23
-2617.798694410391
 33
0.0
  0
SOLID
  5
312
330
30B
100
AcDbEntity
  8
0
 62
   123
100
AcDbTrace
 10
-10004.83310436451
 20
-2612.798694410389
 30
0.0
 11
-10003.99977103118
 21
-2612.798694410389
 31
0.0
 12
-10004.41643769784
 22
-2615.298694410389
 32
0.0
 13
-10004.41643769784
 23
-2615.298694410389
 33
0.0
  0
MTEXT
  5
313
330
30B
100
AcDbEntity
  8
0
 62
     3
100
AcDbMText
 10
-10007.86643769784
 20
-2599.091551553247
 30
0.0
 40
3.0
 41
0.0
 71
     5
 72
     1
  1
\A1;\A1;2.5{\f??|b0|i0|c0|p49;\H0.7x;\S+0.1^ -0;\H1.429x; }
 11
0.0000000000000001
 21
1.0
 31
0.0
1001
ACAD
1000
MTEXTBEGIN
1070
    73
1070
     1
1070
    44
1040
1.0
1070
    74
1070
     0
1000
MTEXTEND
1000
MTEXTBEGIN
1070
    73
1070
     1
1070
    44
1040
1.0
1070
    74
1070
     0
1000
MTEXTEND
1000
MTEXTBEGIN
1070
    73
1070
     1
1070
    44
1040
1.0
1070
    74
1070
     0
1000
MTEXTEND
  0
POINT
  5
314
330
30B
100
AcDbEntity
  8
DEFPOINTS
 62
     0
100
AcDbPoint
 10
-10019.91377019203
 20
-2617.798694410391
 30
0.0
  0
POINT
  5
315
330
30B
100
AcDbEntity
  8
DEFPOINTS
 62
     0
100
AcDbPoint
 10
-10021.91377019203
 20
-2615.298694410389
 30
0.0
  0
POINT
  5
316
330
30B
100
AcDbEntity
  8
DEFPOINTS
 62
     0
100
AcDbPoint
 10
-10004.41643769784
 20
-2615.298694410389
 30
0.0
  0
ENDBLK
  5
318
330
30B
100
AcDbEntity
  8
0
100
AcDbBlockEnd
  0
BLOCK
  5
2E6
330
2DA
100
AcDbEntity
  8
0
100
AcDbBlockBegin
  2
*D7
 70
     1
 10
0.0
 20
0.0
 30
0.0
  3
*D7
  1

  0
LINE
  5
2DB
330
2DA
100
AcDbEntity
  8
0
 62
   123
100
AcDbLine
 10
-10068.84714993257
 20
-2615.698399123393
 30
0.0
 11
-10068.84714993257
 21
-2607.423923464761
 31
0.0
  0
LINE
  5
2DC
330
2DA
100
AcDbEntity
  8
0
 62
   123
100
AcDbLine
 10
-10064.84714993257
 20
-2615.698399123393
 30
0.0
 11
-10064.84714993257
 21
-2607.423923464761
 31
0.0
  0
LINE
  5
2DD
330
2DA
100
AcDbEntity
  8
0
 62
   123
100
AcDbLine
 10
-10071.34714993257
 20
-2608.023923464761
 30
0.0
 11
-10073.84714993257
 21
-2608.023923464761
 31
0.0
  0
LINE
  5
2DE
330
2DA
100
AcDbEntity
  8
0
 62
   123
100
AcDbLine
 10
-10062.34714993258
 20
-2608.023923464761
 30
0.0
 11
-10059.84714993257
 21
-2608.023923464761
 31
0.0
  0
LINE
  5
2DF
330
2DA
100
AcDbEntity
  8
0
 62
   123
100
AcDbLine
 10
-10068.84714993257
 20
-2608.023923464761
 30
0.0
 11
-10064.84714993257
 21
-2608.023923464761
 31
0.0
  0
SOLID
  5
2E0
330
2DA
100
AcDbEntity
  8
0
 62
   123
100
AcDbTrace
 10
-10071.34714993257
 20
-2607.607256798095
 30
0.0
 11
-10071.34714993257
 21
-2608.440590131428
 31
0.0
 12
-10068.84714993257
 22
-2608.023923464761
 32
0.0
 13
-10068.84714993257
 23
-2608.023923464761
 33
0.0
  0
SOLID
  5
2E1
330
2DA
100
AcDbEntity
  8
0
 62
   123
100
AcDbTrace
 10
-10062.34714993258
 20
-2607.607256798095
 30
0.0
 11
-10062.34714993258
 21
-2608.440590131428
 31
0.0
 12
-10064.84714993257
 22
-2608.023923464761
 32
0.0
 13
-10064.84714993257
 23
-2608.023923464761
 33
0.0
  0
MTEXT
  5
2E2
330
2DA
100
AcDbEntity
  8
0
 62
     3
100
AcDbMText
 10
-10066.84714993257
 20
-2604.573923464761
 30
0.0
 40
3.0
 41
0.0
 71
     5
 72
     1
  1
\A1;\A1;4{\f??|b0|i0|c0|p49;\H0.7x;\S+0^ -0.03;}
1001
ACAD
1000
MTEXTBEGIN
1070
    73
1070
     1
1070
    44
1040
1.0
1070
    74
1070
     0
1000
MTEXTEND
1000
MTEXTBEGIN
1070
    73
1070
     1
1070
    44
1040
1.0
1070
    74
1070
     0
1000
MTEXTEND
1000
MTEXTBEGIN
1070
    73
1070
     1
1070
    44
1040
1.0
1070
    74
1070
     0
1000
MTEXTEND
  0
POINT
  5
2E3
330
2DA
100
AcDbEntity
  8
DEFPOINTS
 62
     0
100
AcDbPoint
 10
-10068.84714993257
 20
-2616.698399123393
 30
0.0
  0
POINT
  5
2E4
330
2DA
100
AcDbEntity
  8
DEFPOINTS
 62
     0
100
AcDbPoint
 10
-10064.84714993257
 20
-2616.698399123393
 30
0.0
  0
POINT
  5
2E5
330
2DA
100
AcDbEntity
  8
DEFPOINTS
 62
     0
100
AcDbPoint
 10
-10064.84714993257
 20
-2608.023923464761
 30
0.0
  0
ENDBLK
  5
2E7
330
2DA
100
AcDbEntity
  8
0
100
AcDbBlockEnd
  0
BLOCK
  5
235
330
22B
100
AcDbEntity
  8
0
100
AcDbBlockBegin
  2
*D8
 70
     1
 10
0.0
 20
0.0
 30
0.0
  3
*D8
  1

  0
LINE
  5
22C
330
22B
100
AcDbEntity
  8
0
 62
   123
100
AcDbLine
 10
-10111.01780321929
 20
-2617.698399123394
 30
0.0
 11
-10111.01780321929
 21
-2608.293205142917
 31
0.0
  0
LINE
  5
22D
330
22B
100
AcDbEntity
  8
0
 62
   123
100
AcDbLine
 10
-10086.01780321929
 20
-2615.698399123393
 30
0.0
 11
-10086.01780321929
 21
-2608.293205142917
 31
0.0
  0
LINE
  5
22E
330
22B
100
AcDbEntity
  8
0
 62
   123
100
AcDbLine
 10
-10108.51780321929
 20
-2608.893205142918
 30
0.0
 11
-10088.51780321929
 21
-2608.893205142918
 31
0.0
  0
SOLID
  5
22F
330
22B
100
AcDbEntity
  8
0
 62
   123
100
AcDbTrace
 10
-10108.51780321929
 20
-2608.476538476252
 30
0.0
 11
-10108.51780321929
 21
-2609.309871809585
 31
0.0
 12
-10111.01780321929
 22
-2608.893205142918
 32
0.0
 13
-10111.01780321929
 23
-2608.893205142918
 33
0.0
  0
SOLID
  5
230
330
22B
100
AcDbEntity
  8
0
 62
   123
100
AcDbTrace
 10
-10088.51780321929
 20
-2608.476538476252
 30
0.0
 11
-10088.51780321929
 21
-2609.309871809585
 31
0.0
 12
-10086.01780321929
 22
-2608.893205142918
 32
0.0
 13
-10086.01780321929
 23
-2608.893205142918
 33
0.0
  0
MTEXT
  5
231
330
22B
100
AcDbEntity
  8
0
 62
     3
100
AcDbMText
 10
-10098.51780321929
 20
-2606.393205142918
 30
0.0
 40
3.0
 41
0.0
 71
     5
 72
     1
  1
\A1;25{\f??|b0|i0|c0|p49;%%p0.2}
1001
ACAD
1000
MTEXTBEGIN
1070
    73
1070
     1
1070
    44
1040
1.0
1070
    74
1070
     0
1000
MTEXTEND
1000
MTEXTBEGIN
1070
    73
1070
     1
1070
    44
1040
1.0
1070
    74
1070
     0
1000
MTEXTEND
1000
MTEXTBEGIN
1070
    73
1070
     1
1070
    44
1040
1.0
1070
    74
1070
     0
1000
MTEXTEND
  0
POINT
  5
232
330
22B
100
AcDbEntity
  8
DEFPOINTS
 62
     0
100
AcDbPoint
 10
-10111.01780321929
 20
-2618.698399123394
 30
0.0
  0
POINT
  5
233
330
22B
100
AcDbEntity
  8
DEFPOINTS
 62
     0
100
AcDbPoint
 10
-10086.01780321929
 20
-2616.698399123393
 30
0.0
  0
POINT
  5
234
330
22B
100
AcDbEntity
  8
DEFPOINTS
 62
     0
100
AcDbPoint
 10
-10086.01780321929
 20
-2608.893205142918
 30
0.0
  0
ENDBLK
  5
236
330
22B
100
AcDbEntity
  8
0
100
AcDbBlockEnd
  0
BLOCK
  5
2FD
330
2F1
100
AcDbEntity
  8
0
100
AcDbBlockBegin
  2
*D9
 70
     1
 10
0.0
 20
0.0
 30
0.0
  3
*D9
  1

  0
LINE
  5
2F2
330
2F1
100
AcDbEntity
  8
0
 62
   123
100
AcDbLine
 10
-10023.91377019203
 20
-2614.716118715433
 30
0.0
 11
-10023.91377019203
 21
-2606.357106170459
 31
0.0
  0
LINE
  5
2F3
330
2F1
100
AcDbEntity
  8
0
 62
   123
100
AcDbLine
 10
-10019.91377019203
 20
-2614.716118715433
 30
0.0
 11
-10019.91377019203
 21
-2606.357106170459
 31
0.0
  0
LINE
  5
2F4
330
2F1
100
AcDbEntity
  8
0
 62
   123
100
AcDbLine
 10
-10026.41377019203
 20
-2606.957106170459
 30
0.0
 11
-10028.91377019202
 21
-2606.957106170459
 31
0.0
  0
LINE
  5
2F5
330
2F1
100
AcDbEntity
  8
0
 62
   123
100
AcDbLine
 10
-10017.41377019202
 20
-2606.957106170459
 30
0.0
 11
-10014.91377019203
 21
-2606.957106170459
 31
0.0
  0
LINE
  5
2F6
330
2F1
100
AcDbEntity
  8
0
 62
   123
100
AcDbLine
 10
-10023.91377019203
 20
-2606.957106170459
 30
0.0
 11
-10019.91377019203
 21
-2606.957106170459
 31
0.0
  0
SOLID
  5
2F7
330
2F1
100
AcDbEntity
  8
0
 62
   123
100
AcDbTrace
 10
-10026.41377019203
 20
-2606.540439503792
 30
0.0
 11
-10026.41377019203
 21
-2607.373772837124
 31
0.0
 12
-10023.91377019203
 22
-2606.957106170459
 32
0.0
 13
-10023.91377019203
 23
-2606.957106170459
 33
0.0
  0
SOLID
  5
2F8
330
2F1
100
AcDbEntity
  8
0
 62
   123
100
AcDbTrace
 10
-10017.41377019202
 20
-2606.540439503792
 30
0.0
 11
-10017.41377019202
 21
-2607.373772837124
 31
0.0
 12
-10019.91377019203
 22
-2606.957106170459
 32
0.0
 13
-10019.91377019203
 23
-2606.957106170459
 33
0.0
  0
MTEXT
  5
2F9
330
2F1
100
AcDbEntity
  8
0
 62
     3
100
AcDbMText
 10
-10021.91377019203
 20
-2603.507106170459
 30
0.0
 40
3.0
 41
0.0
 71
     5
 72
     1
  1
\A1;\A1;4{\f??|b0|i0|c0|p49;\H0.7x;\S+0.40^ -0;}
1001
ACAD
1000
MTEXTBEGIN
1070
    73
1070
     1
1070
    44
1040
1.0
1070
    74
1070
     0
1000
MTEXTEND
1000
MTEXTBEGIN
1070
    73
1070
     1
1070
    44
1040
1.0
1070
    74
1070
     0
1000
MTEXTEND
1000
MTEXTBEGIN
1070
    73
1070
     1
1070
    44
1040
1.0
1070
    74
1070
     0
1000
MTEXTEND
  0
POINT
  5
2FA
330
2F1
100
AcDbEntity
  8
DEFPOINTS
 62
     0
100
AcDbPoint
 10
-10023.91377019203
 20
-2615.716118715434
 30
0.0
  0
POINT
  5
2FB
330
2F1
100
AcDbEntity
  8
DEFPOINTS
 62
     0
100
AcDbPoint
 10
-10019.91377019203
 20
-2615.716118715434
 30
0.0
  0
POINT
  5
2FC
330
2F1
100
AcDbEntity
  8
DEFPOINTS
 62
     0
100
AcDbPoint
 10
-10019.91377019203
 20
-2606.957106170459
 30
0.0
  0
ENDBLK
  5
2FE
330
2F1
100
AcDbEntity
  8
0
100
AcDbBlockEnd
  0
BLOCK
  5
343
330
339
100
AcDbEntity
  8
0
100
AcDbBlockBegin
  2
*D10
 70
     1
 10
0.0
 20
0.0
 30
0.0
  3
*D10
  1

  0
LINE
  5
33A
330
339
100
AcDbEntity
  8
0
 62
   123
100
AcDbLine
 10
-9963.071238093478
 20
-2356.448045652062
 30
0.0
 11
-9985.269062970493
 21
-2356.448045652062
 31
0.0
  0
LINE
  5
33B
330
339
100
AcDbEntity
  8
0
 62
   123
100
AcDbLine
 10
-9963.071238093478
 20
-2420.448045652062
 30
0.0
 11
-9985.269062970493
 21
-2420.448045652062
 31
0.0
  0
LINE
  5
33C
330
339
100
AcDbEntity
  8
0
 62
   123
100
AcDbLine
 10
-9984.669062970489
 20
-2358.948045652061
 30
0.0
 11
-9984.669062970489
 21
-2417.948045652063
 31
0.0
  0
SOLID
  5
33D
330
339
100
AcDbEntity
  8
0
 62
   123
100
AcDbTrace
 10
-9985.085729637155
 20
-2358.948045652061
 30
0.0
 11
-9984.252396303824
 21
-2358.948045652061
 31
0.0
 12
-9984.669062970489
 22
-2356.448045652062
 32
0.0
 13
-9984.669062970489
 23
-2356.448045652062
 33
0.0
  0
SOLID
  5
33E
330
339
100
AcDbEntity
  8
0
 62
   123
100
AcDbTrace
 10
-9985.085729637155
 20
-2417.948045652063
 30
0.0
 11
-9984.252396303824
 21
-2417.948045652063
 31
0.0
 12
-9984.669062970489
 22
-2420.448045652062
 32
0.0
 13
-9984.669062970489
 23
-2420.448045652062
 33
0.0
  0
MTEXT
  5
33F
330
339
100
AcDbEntity
  8
0
 62
     3
100
AcDbMText
 10
-9988.61921297049
 20
-2391.085186744362
 30
0.0
 40
3.0
 41
0.0
 71
     5
 72
     1
  1
\A1;\A1;%%C{\f??|b0|i0|c0|p49;64\H0.7x;\S+0^ -0.030;\H1.429x;(h7)} 
 11
0.0000000000000001
 21
1.0
 31
0.0
1001
ACAD
1000
MTEXTBEGIN
1070
    73
1070
     1
1070
    44
1040
1.0
1070
    74
1070
     0
1000
MTEXTEND
1000
MTEXTBEGIN
1070
    73
1070
     1
1070
    44
1040
1.0
1070
    74
1070
     0
1000
MTEXTEND
1000
MTEXTBEGIN
1070
    73
1070
     1
1070
    44
1040
1.0
1070
    74
1070
     0
1000
MTEXTEND
  0
POINT
  5
340
330
339
100
AcDbEntity
  8
DEFPOINTS
 62
     0
100
AcDbPoint
 10
-9962.07123809348
 20
-2356.448045652062
 30
0.0
  0
POINT
  5
341
330
339
100
AcDbEntity
  8
DEFPOINTS
 62
     0
100
AcDbPoint
 10
-9962.07123809348
 20
-2420.448045652062
 30
0.0
  0
POINT
  5
342
330
339
100
AcDbEntity
  8
DEFPOINTS
 62
     0
100
AcDbPoint
 10
-9984.669062970489
 20
-2420.448045652062
 30
0.0
  0
ENDBLK
  5
344
330
339
100
AcDbEntity
  8
0
100
AcDbBlockEnd
  0
BLOCK
  5
24E
330
244
100
AcDbEntity
  8
0
100
AcDbBlockBegin
  2
*D11
 70
     1
 10
0.0
 20
0.0
 30
0.0
  3
*D11
  1

  0
LINE
  5
245
330
244
100
AcDbEntity
  8
0
 62
   123
100
AcDbLine
 10
-9882.091252963755
 20
-2549.963479663793
 30
0.0
 11
-9882.091252963755
 21
-2562.859494045418
 31
0.0
  0
LINE
  5
246
330
244
100
AcDbEntity
  8
0
 62
   123
100
AcDbLine
 10
-9924.091252963755
 20
-2549.963479663793
 30
0.0
 11
-9924.091252963755
 21
-2562.859494045418
 31
0.0
  0
LINE
  5
247
330
244
100
AcDbEntity
  8
0
 62
   123
100
AcDbLine
 10
-9884.591252963758
 20
-2562.259494045418
 30
0.0
 11
-9921.591252963755
 21
-2562.259494045418
 31
0.0
  0
SOLID
  5
248
330
244
100
AcDbEntity
  8
0
 62
   123
100
AcDbTrace
 10
-9884.591252963758
 20
-2561.842827378752
 30
0.0
 11
-9884.591252963758
 21
-2562.676160712085
 31
0.0
 12
-9882.091252963755
 22
-2562.259494045418
 32
0.0
 13
-9882.091252963755
 23
-2562.259494045418
 33
0.0
  0
SOLID
  5
249
330
244
100
AcDbEntity
  8
0
 62
   123
100
AcDbTrace
 10
-9921.591252963755
 20
-2561.842827378752
 30
0.0
 11
-9921.591252963755
 21
-2562.676160712085
 31
0.0
 12
-9924.091252963755
 22
-2562.259494045418
 32
0.0
 13
-9924.091252963755
 23
-2562.259494045418
 33
0.0
  0
MTEXT
  5
24A
330
244
100
AcDbEntity
  8
0
 62
     3
100
AcDbMText
 10
-9903.09125296376
 20
-2559.759494045418
 30
0.0
 40
3.0
 41
0.0
 71
     5
 72
     1
  1
\A1;L
1001
ACAD
1000
MTEXTBEGIN
1070
    73
1070
     1
1070
    44
1040
1.0
1070
    74
1070
     0
1000
MTEXTEND
1000
MTEXTBEGIN
1070
    73
1070
     1
1070
    44
1040
1.0
1070
    74
1070
     0
1000
MTEXTEND
1000
MTEXTBEGIN
1070
    73
1070
     1
1070
    44
1040
1.0
1070
    74
1070
     0
1000
MTEXTEND
  0
POINT
  5
24B
330
244
100
AcDbEntity
  8
DEFPOINTS
 62
     0
100
AcDbPoint
 10
-9882.091252963755
 20
-2548.963479663793
 30
0.0
  0
POINT
  5
24C
330
244
100
AcDbEntity
  8
DEFPOINTS
 62
     0
100
AcDbPoint
 10
-9924.091252963755
 20
-2548.963479663793
 30
0.0
  0
POINT
  5
24D
330
244
100
AcDbEntity
  8
DEFPOINTS
 62
     0
100
AcDbPoint
 10
-9924.091252963755
 20
-2562.259494045418
 30
0.0
  0
ENDBLK
  5
24F
330
244
100
AcDbEntity
  8
0
100
AcDbBlockEnd
  0
BLOCK
  5
269
330
25D
100
AcDbEntity
  8
0
100
AcDbBlockBegin
  2
*D12
 70
     1
 10
0.0
 20
0.0
 30
0.0
  3
*D12
  1

  0
LINE
  5
25E
330
25D
100
AcDbEntity
  8
0
 62
   123
100
AcDbLine
 10
-9924.091252963755
 20
-2477.963479663793
 30
0.0
 11
-9924.091252963755
 21
-2469.181340960583
 31
0.0
  0
LINE
  5
25F
330
25D
100
AcDbEntity
  8
0
 62
   123
100
AcDbLine
 10
-9927.091252963755
 20
-2483.463479663793
 30
0.0
 11
-9927.091252963755
 21
-2469.181340960583
 31
0.0
  0
LINE
  5
260
330
25D
100
AcDbEntity
  8
0
 62
   123
100
AcDbLine
 10
-9921.591252963755
 20
-2469.781340960583
 30
0.0
 11
-9919.09125296376
 21
-2469.781340960583
 31
0.0
  0
LINE
  5
261
330
25D
100
AcDbEntity
  8
0
 62
   123
100
AcDbLine
 10
-9929.59125296376
 20
-2469.781340960583
 30
0.0
 11
-9932.091252963759
 21
-2469.781340960583
 31
0.0
  0
LINE
  5
262
330
25D
100
AcDbEntity
  8
0
 62
   123
100
AcDbLine
 10
-9924.091252963755
 20
-2469.781340960583
 30
0.0
 11
-9927.091252963755
 21
-2469.781340960583
 31
0.0
  0
SOLID
  5
263
330
25D
100
AcDbEntity
  8
0
 62
   123
100
AcDbTrace
 10
-9921.591252963755
 20
-2469.364674293915
 30
0.0
 11
-9921.591252963755
 21
-2470.198007627249
 31
0.0
 12
-9924.091252963755
 22
-2469.781340960583
 32
0.0
 13
-9924.091252963755
 23
-2469.781340960583
 33
0.0
  0
SOLID
  5
264
330
25D
100
AcDbEntity
  8
0
 62
   123
100
AcDbTrace
 10
-9929.59125296376
 20
-2469.364674293915
 30
0.0
 11
-9929.59125296376
 21
-2470.198007627249
 31
0.0
 12
-9927.091252963755
 22
-2469.781340960583
 32
0.0
 13
-9927.091252963755
 23
-2469.781340960583
 33
0.0
  0
MTEXT
  5
265
330
25D
100
AcDbEntity
  8
0
 62
     3
100
AcDbMText
 10
-9925.591252963755
 20
-2467.281340960583
 30
0.0
 40
3.0
 41
0.0
 71
     5
 72
     1
  1
\A1;3
1001
ACAD
1000
MTEXTBEGIN
1070
    73
1070
     1
1070
    44
1040
1.0
1070
    74
1070
     0
1000
MTEXTEND
1000
MTEXTBEGIN
1070
    73
1070
     1
1070
    44
1040
1.0
1070
    74
1070
     0
1000
MTEXTEND
1000
MTEXTBEGIN
1070
    73
1070
     1
1070
    44
1040
1.0
1070
    74
1070
     0
1000
MTEXTEND
  0
POINT
  5
266
330
25D
100
AcDbEntity
  8
DEFPOINTS
 62
     0
100
AcDbPoint
 10
-9924.091252963755
 20
-2478.963479663793
 30
0.0
  0
POINT
  5
267
330
25D
100
AcDbEntity
  8
DEFPOINTS
 62
     0
100
AcDbPoint
 10
-9927.091252963755
 20
-2484.463479663792
 30
0.0
  0
POINT
  5
268
330
25D
100
AcDbEntity
  8
DEFPOINTS
 62
     0
100
AcDbPoint
 10
-9927.091252963755
 20
-2469.781340960583
 30
0.0
  0
ENDBLK
  5
26A
330
25D
100
AcDbEntity
  8
0
100
AcDbBlockEnd
  0
BLOCK
  5
283
330
277
100
AcDbEntity
  8
0
100
AcDbBlockBegin
  2
*D13
 70
     1
 10
0.0
 20
0.0
 30
0.0
  3
*D13
  1

  0
LINE
  5
278
330
277
100
AcDbEntity
  8
0
 62
   123
100
AcDbLine
 10
-9957.091252963756
 20
-2503.963479663793
 30
0.0
 11
-9971.515916252736
 21
-2503.963479663793
 31
0.0
  0
LINE
  5
279
330
277
100
AcDbEntity
  8
0
 62
   123
100
AcDbLine
 10
-9957.091252963756
 20
-2493.963479663793
 30
0.0
 11
-9971.515916252736
 21
-2493.963479663793
 31
0.0
  0
LINE
  5
27A
330
277
100
AcDbEntity
  8
0
 62
   123
100
AcDbLine
 10
-9970.915916252735
 20
-2506.463479663793
 30
0.0
 11
-9970.915916252735
 21
-2508.963479663793
 31
0.0
  0
LINE
  5
27B
330
277
100
AcDbEntity
  8
0
 62
   123
100
AcDbLine
 10
-9970.915916252735
 20
-2491.463479663793
 30
0.0
 11
-9970.915916252735
 21
-2453.15870102619
 31
0.0
  0
LINE
  5
27C
330
277
100
AcDbEntity
  8
0
 62
   123
100
AcDbLine
 10
-9970.915916252735
 20
-2503.963479663793
 30
0.0
 11
-9970.915916252735
 21
-2493.963479663793
 31
0.0
  0
SOLID
  5
27D
330
277
100
AcDbEntity
  8
0
 62
   123
100
AcDbTrace
 10
-9971.332582919401
 20
-2506.463479663793
 30
0.0
 11
-9970.499249586069
 21
-2506.463479663793
 31
0.0
 12
-9970.915916252735
 22
-2503.963479663793
 32
0.0
 13
-9970.915916252735
 23
-2503.963479663793
 33
0.0
  0
SOLID
  5
27E
330
277
100
AcDbEntity
  8
0
 62
   123
100
AcDbTrace
 10
-9971.332582919401
 20
-2491.463479663793
 30
0.0
 11
-9970.499249586069
 21
-2491.463479663793
 31
0.0
 12
-9970.915916252735
 22
-2493.963479663793
 32
0.0
 13
-9970.915916252735
 23
-2493.963479663793
 33
0.0
  0
MTEXT
  5
27F
330
277
100
AcDbEntity
  8
0
 62
     3
100
AcDbMText
 10
-9974.866066252737
 20
-2467.974272454762
 30
0.0
 40
3.0
 41
0.0
 71
     5
 72
     1
  1
\A1;\A1;{\f??|b0|i0|c0|p49;%%C10\H0.7x;\S+0^ -0.015;\H1.429x;(h7)}
 11
0.0000000000000001
 21
1.0
 31
0.0
1001
ACAD
1000
MTEXTBEGIN
1070
    73
1070
     1
1070
    44
1040
1.0
1070
    74
1070
     0
1000
MTEXTEND
1000
MTEXTBEGIN
1070
    73
1070
     1
1070
    44
1040
1.0
1070
    74
1070
     0
1000
MTEXTEND
1000
MTEXTBEGIN
1070
    73
1070
     1
1070
    44
1040
1.0
1070
    74
1070
     0
1000
MTEXTEND
  0
POINT
  5
280
330
277
100
AcDbEntity
  8
DEFPOINTS
 62
     0
100
AcDbPoint
 10
-9956.091252963759
 20
-2503.963479663793
 30
0.0
  0
POINT
  5
281
330
277
100
AcDbEntity
  8
DEFPOINTS
 62
     0
100
AcDbPoint
 10
-9956.091252963759
 20
-2493.963479663793
 30
0.0
  0
POINT
  5
282
330
277
100
AcDbEntity
  8
DEFPOINTS
 62
     0
100
AcDbPoint
 10
-9970.915916252735
 20
-2493.963479663793
 30
0.0
  0
ENDBLK
  5
284
330
277
100
AcDbEntity
  8
0
100
AcDbBlockEnd
  0
BLOCK
  5
21D
330
213
100
AcDbEntity
  8
0
100
AcDbBlockBegin
  2
*D14
 70
     1
 10
0.0
 20
0.0
 30
0.0
  3
*D14
  1

  0
LINE
  5
214
330
213
100
AcDbEntity
  8
0
 62
   123
100
AcDbLine
 10
-10095.8806672281
 20
-2541.576467873114
 30
0.0
 11
-10095.8806672281
 21
-2564.025469864334
 31
0.0
  0
LINE
  5
215
330
213
100
AcDbEntity
  8
0
 62
   123
100
AcDbLine
 10
-10025.88066722811
 20
-2541.576467873114
 30
0.0
 11
-10025.88066722811
 21
-2564.025469864334
 31
0.0
  0
LINE
  5
216
330
213
100
AcDbEntity
  8
0
 62
   123
100
AcDbLine
 10
-10093.38066722811
 20
-2563.425469864336
 30
0.0
 11
-10028.3806672281
 21
-2563.425469864336
 31
0.0
  0
SOLID
  5
217
330
213
100
AcDbEntity
  8
0
 62
   123
100
AcDbTrace
 10
-10093.38066722811
 20
-2563.008803197669
 30
0.0
 11
-10093.38066722811
 21
-2563.842136531002
 31
0.0
 12
-10095.8806672281
 22
-2563.425469864336
 32
0.0
 13
-10095.8806672281
 23
-2563.425469864336
 33
0.0
  0
SOLID
  5
218
330
213
100
AcDbEntity
  8
0
 62
   123
100
AcDbTrace
 10
-10028.3806672281
 20
-2563.008803197669
 30
0.0
 11
-10028.3806672281
 21
-2563.842136531002
 31
0.0
 12
-10025.88066722811
 22
-2563.425469864336
 32
0.0
 13
-10025.88066722811
 23
-2563.425469864336
 33
0.0
  0
MTEXT
  5
219
330
213
100
AcDbEntity
  8
0
 62
     3
100
AcDbMText
 10
-10057.5388516789
 20
-2560.925469864336
 30
0.0
 40
3.0
 41
0.0
 71
     5
 72
     1
  1
\A1;70
1001
ACAD
1000
MTEXTBEGIN
1070
    73
1070
     1
1070
    44
1040
1.0
1070
    74
1070
     0
1000
MTEXTEND
1000
MTEXTBEGIN
1070
    73
1070
     1
1070
    44
1040
1.0
1070
    74
1070
     0
1000
MTEXTEND
1000
MTEXTBEGIN
1070
    73
1070
     1
1070
    44
1040
1.0
1070
    74
1070
     0
1000
MTEXTEND
  0
POINT
  5
21A
330
213
100
AcDbEntity
  8
DEFPOINTS
 62
     0
100
AcDbPoint
 10
-10095.8806672281
 20
-2540.576467873114
 30
0.0
  0
POINT
  5
21B
330
213
100
AcDbEntity
  8
DEFPOINTS
 62
     0
100
AcDbPoint
 10
-10025.88066722811
 20
-2540.576467873114
 30
0.0
  0
POINT
  5
21C
330
213
100
AcDbEntity
  8
DEFPOINTS
 62
     0
100
AcDbPoint
 10
-10025.88066722811
 20
-2563.425469864336
 30
0.0
  0
ENDBLK
  5
21E
330
213
100
AcDbEntity
  8
0
100
AcDbBlockEnd
  0
BLOCK
  5
297
330
28D
100
AcDbEntity
  8
0
100
AcDbBlockBegin
  2
*D15
 70
     1
 10
0.0
 20
0.0
 30
0.0
  3
*D15
  1

  0
LINE
  5
28E
330
28D
100
AcDbEntity
  8
0
 62
   123
100
AcDbLine
 10
-9960.989391764986
 20
-2498.963479663792
 30
0.0
 11
-9979.963499066174
 21
-2498.963479663792
 31
0.0
  0
LINE
  5
28F
330
28D
100
AcDbEntity
  8
0
 62
   123
100
AcDbLine
 10
-9940.45097120906
 20
-2513.963479663793
 30
0.0
 11
-9979.963499066174
 21
-2513.963479663793
 31
0.0
  0
LINE
  5
290
330
28D
100
AcDbEntity
  8
0
 62
   123
100
AcDbLine
 10
-9979.363499066174
 20
-2501.463479663792
 30
0.0
 11
-9979.363499066174
 21
-2511.463479663793
 31
0.0
  0
SOLID
  5
291
330
28D
100
AcDbEntity
  8
0
 62
   123
100
AcDbTrace
 10
-9979.78016573284
 20
-2501.463479663792
 30
0.0
 11
-9978.946832399508
 21
-2501.463479663792
 31
0.0
 12
-9979.363499066174
 22
-2498.963479663792
 32
0.0
 13
-9979.363499066174
 23
-2498.963479663792
 33
0.0
  0
SOLID
  5
292
330
28D
100
AcDbEntity
  8
0
 62
   123
100
AcDbTrace
 10
-9979.78016573284
 20
-2511.463479663793
 30
0.0
 11
-9978.946832399508
 21
-2511.463479663793
 31
0.0
 12
-9979.363499066174
 22
-2513.963479663793
 32
0.0
 13
-9979.363499066174
 23
-2513.963479663793
 33
0.0
  0
MTEXT
  5
293
330
28D
100
AcDbEntity
  8
0
 62
     3
100
AcDbMText
 10
-9981.863499066172
 20
-2506.463479663795
 30
0.0
 40
3.0
 41
0.0
 71
     5
 72
     1
  1
\A1;15
 11
0.0000000000000001
 21
1.0
 31
0.0
1001
ACAD
1000
MTEXTBEGIN
1070
    73
1070
     1
1070
    44
1040
1.0
1070
    74
1070
     0
1000
MTEXTEND
1000
MTEXTBEGIN
1070
    73
1070
     1
1070
    44
1040
1.0
1070
    74
1070
     0
1000
MTEXTEND
1000
MTEXTBEGIN
1070
    73
1070
     1
1070
    44
1040
1.0
1070
    74
1070
     0
1000
MTEXTEND
  0
POINT
  5
294
330
28D
100
AcDbEntity
  8
DEFPOINTS
 62
     0
100
AcDbPoint
 10
-9959.989391764986
 20
-2498.963479663792
 30
0.0
  0
POINT
  5
295
330
28D
100
AcDbEntity
  8
DEFPOINTS
 62
     0
100
AcDbPoint
 10
-9939.450971209058
 20
-2513.963479663793
 30
0.0
  0
POINT
  5
296
330
28D
100
AcDbEntity
  8
DEFPOINTS
 62
     0
100
AcDbPoint
 10
-9979.363499066174
 20
-2513.963479663793
 30
0.0
  0
ENDBLK
  5
298
330
28D
100
AcDbEntity
  8
0
100
AcDbBlockEnd
  0
BLOCK
  5
32F
330
325
100
AcDbEntity
  8
0
100
AcDbBlockBegin
  2
*D16
 70
     1
 10
0.0
 20
0.0
 30
0.0
  3
*D16
  1

  0
LINE
  5
326
330
325
100
AcDbEntity
  8
0
 62
   123
100
AcDbLine
 10
-10086.63260009569
 20
-2357.448045652061
 30
0.0
 11
-10086.63260009569
 21
-2340.280250526156
 31
0.0
  0
LINE
  5
327
330
325
100
AcDbEntity
  8
0
 62
   123
100
AcDbLine
 10
-10016.63260009572
 20
-2357.448045652061
 30
0.0
 11
-10016.63260009572
 21
-2340.280250526156
 31
0.0
  0
LINE
  5
328
330
325
100
AcDbEntity
  8
0
 62
   123
100
AcDbLine
 10
-10084.13260009572
 20
-2340.880250526156
 30
0.0
 11
-10019.13260009569
 21
-2340.880250526156
 31
0.0
  0
SOLID
  5
329
330
325
100
AcDbEntity
  8
0
 62
   123
100
AcDbTrace
 10
-10084.13260009572
 20
-2340.463583859489
 30
0.0
 11
-10084.13260009572
 21
-2341.296917192823
 31
0.0
 12
-10086.63260009569
 22
-2340.880250526156
 32
0.0
 13
-10086.63260009569
 23
-2340.880250526156
 33
0.0
  0
SOLID
  5
32A
330
325
100
AcDbEntity
  8
0
 62
   123
100
AcDbTrace
 10
-10019.13260009569
 20
-2340.463583859489
 30
0.0
 11
-10019.13260009569
 21
-2341.296917192823
 31
0.0
 12
-10016.63260009572
 22
-2340.880250526156
 32
0.0
 13
-10016.63260009572
 23
-2340.880250526156
 33
0.0
  0
MTEXT
  5
32B
330
325
100
AcDbEntity
  8
0
 62
     3
100
AcDbMText
 10
-10051.63260009572
 20
-2338.380250526156
 30
0.0
 40
3.0
 41
0.0
 71
     5
 72
     1
  1
\A1;70
1001
ACAD
1000
MTEXTBEGIN
1070
    73
1070
     1
1070
    44
1040
1.0
1070
    74
1070
     0
1000
MTEXTEND
1000
MTEXTBEGIN
1070
    73
1070
     1
1070
    44
1040
1.0
1070
    74
1070
     0
1000
MTEXTEND
1000
MTEXTBEGIN
1070
    73
1070
     1
1070
    44
1040
1.0
1070
    74
1070
     0
1000
MTEXTEND
  0
POINT
  5
32C
330
325
100
AcDbEntity
  8
DEFPOINTS
 62
     0
100
AcDbPoint
 10
-10086.63260009569
 20
-2358.448045652062
 30
0.0
  0
POINT
  5
32D
330
325
100
AcDbEntity
  8
DEFPOINTS
 62
     0
100
AcDbPoint
 10
-10016.63260009572
 20
-2358.448045652062
 30
0.0
  0
POINT
  5
32E
330
325
100
AcDbEntity
  8
DEFPOINTS
 62
     0
100
AcDbPoint
 10
-10016.63260009572
 20
-2340.880250526156
 30
0.0
  0
ENDBLK
  5
330
330
325
100
AcDbEntity
  8
0
100
AcDbBlockEnd
  0
BLOCK
  5
37B
330
36F
100
AcDbEntity
  8
0
100
AcDbBlockBegin
  2
*D17
 70
     1
 10
0.0
 20
0.0
 30
0.0
  3
*D17
  1

  0
LINE
  5
370
330
36F
100
AcDbEntity
  8
0
 62
   123
100
AcDbLine
 10
-9962.07123809348
 20
-2355.448045652063
 30
0.0
 11
-9962.07123809348
 21
-2343.387176505585
 31
0.0
  0
LINE
  5
371
330
36F
100
AcDbEntity
  8
0
 62
   123
100
AcDbLine
 10
-9960.071238093478
 20
-2352.448045652062
 30
0.0
 11
-9960.071238093478
 21
-2343.387176505585
 31
0.0
  0
LINE
  5
372
330
36F
100
AcDbEntity
  8
0
 62
   123
100
AcDbLine
 10
-9957.571238093478
 20
-2343.987176505585
 30
0.0
 11
-9955.071238093481
 21
-2343.987176505585
 31
0.0
  0
LINE
  5
373
330
36F
100
AcDbEntity
  8
0
 62
   123
100
AcDbLine
 10
-9964.571238093478
 20
-2343.987176505585
 30
0.0
 11
-9971.071238093481
 21
-2343.987176505585
 31
0.0
  0
LINE
  5
374
330
36F
100
AcDbEntity
  8
0
 62
   123
100
AcDbLine
 10
-9960.071238093478
 20
-2343.987176505585
 30
0.0
 11
-9962.07123809348
 21
-2343.987176505585
 31
0.0
  0
SOLID
  5
375
330
36F
100
AcDbEntity
  8
0
 62
   123
100
AcDbTrace
 10
-9957.571238093478
 20
-2343.570509838918
 30
0.0
 11
-9957.571238093478
 21
-2344.403843172252
 31
0.0
 12
-9960.071238093478
 22
-2343.987176505585
 32
0.0
 13
-9960.071238093478
 23
-2343.987176505585
 33
0.0
  0
SOLID
  5
376
330
36F
100
AcDbEntity
  8
0
 62
   123
100
AcDbTrace
 10
-9964.571238093478
 20
-2343.570509838918
 30
0.0
 11
-9964.571238093478
 21
-2344.403843172252
 31
0.0
 12
-9962.07123809348
 22
-2343.987176505585
 32
0.0
 13
-9962.07123809348
 23
-2343.987176505585
 33
0.0
  0
MTEXT
  5
377
330
36F
100
AcDbEntity
  8
0
 62
     3
100
AcDbMText
 10
-9969.071238093478
 20
-2341.487176505585
 30
0.0
 40
3.0
 41
0.0
 71
     5
 72
     1
  1
\A1;2
1001
ACAD
1000
MTEXTBEGIN
1070
    73
1070
     1
1070
    44
1040
1.0
1070
    74
1070
     0
1000
MTEXTEND
1000
MTEXTBEGIN
1070
    73
1070
     1
1070
    44
1040
1.0
1070
    74
1070
     0
1000
MTEXTEND
1000
MTEXTBEGIN
1070
    73
1070
     1
1070
    44
1040
1.0
1070
    74
1070
     0
1000
MTEXTEND
  0
POINT
  5
378
330
36F
100
AcDbEntity
  8
DEFPOINTS
 62
     0
100
AcDbPoint
 10
-9962.07123809348
 20
-2356.448045652062
 30
0.0
  0
POINT
  5
379
330
36F
100
AcDbEntity
  8
DEFPOINTS
 62
     0
100
AcDbPoint
 10
-9960.071238093478
 20
-2353.448045652063
 30
0.0
  0
POINT
  5
37A
330
36F
100
AcDbEntity
  8
DEFPOINTS
 62
     0
100
AcDbPoint
 10
-9960.071238093478
 20
-2343.987176505585
 30
0.0
  0
ENDBLK
  5
37C
330
36F
100
AcDbEntity
  8
0
100
AcDbBlockEnd
  0
BLOCK
  5
38E
330
384
100
AcDbEntity
  8
0
100
AcDbBlockBegin
  2
*D18
 70
     1
 10
0.0
 20
0.0
 30
0.0
  3
*D18
  1

  0
LINE
  5
385
330
384
100
AcDbEntity
  8
0
 62
   123
100
AcDbLine
 10
-9960.071238093478
 20
-2352.448045652062
 30
0.0
 11
-9960.071238093478
 21
-2333.26096782763
 31
0.0
  0
LINE
  5
386
330
384
100
AcDbEntity
  8
0
 62
   123
100
AcDbLine
 10
-9930.07123809348
 20
-2352.448045652062
 30
0.0
 11
-9930.07123809348
 21
-2333.26096782763
 31
0.0
  0
LINE
  5
387
330
384
100
AcDbEntity
  8
0
 62
   123
100
AcDbLine
 10
-9957.571238093478
 20
-2333.86096782763
 30
0.0
 11
-9932.57123809348
 21
-2333.86096782763
 31
0.0
  0
SOLID
  5
388
330
384
100
AcDbEntity
  8
0
 62
   123
100
AcDbTrace
 10
-9957.571238093478
 20
-2333.444301160963
 30
0.0
 11
-9957.571238093478
 21
-2334.277634494295
 31
0.0
 12
-9960.071238093478
 22
-2333.86096782763
 32
0.0
 13
-9960.071238093478
 23
-2333.86096782763
 33
0.0
  0
SOLID
  5
389
330
384
100
AcDbEntity
  8
0
 62
   123
100
AcDbTrace
 10
-9932.57123809348
 20
-2333.444301160963
 30
0.0
 11
-9932.57123809348
 21
-2334.277634494295
 31
0.0
 12
-9930.07123809348
 22
-2333.86096782763
 32
0.0
 13
-9930.07123809348
 23
-2333.86096782763
 33
0.0
  0
MTEXT
  5
38A
330
384
100
AcDbEntity
  8
0
 62
     3
100
AcDbMText
 10
-9945.071238093481
 20
-2331.360967827629
 30
0.0
 40
3.0
 41
0.0
 71
     5
 72
     1
  1
\A1;30
1001
ACAD
1000
MTEXTBEGIN
1070
    73
1070
     1
1070
    44
1040
1.0
1070
    74
1070
     0
1000
MTEXTEND
1000
MTEXTBEGIN
1070
    73
1070
     1
1070
    44
1040
1.0
1070
    74
1070
     0
1000
MTEXTEND
1000
MTEXTBEGIN
1070
    73
1070
     1
1070
    44
1040
1.0
1070
    74
1070
     0
1000
MTEXTEND
  0
POINT
  5
38B
330
384
100
AcDbEntity
  8
DEFPOINTS
 62
     0
100
AcDbPoint
 10
-9960.071238093478
 20
-2353.448045652061
 30
0.0
  0
POINT
  5
38C
330
384
100
AcDbEntity
  8
DEFPOINTS
 62
     0
100
AcDbPoint
 10
-9930.07123809348
 20
-2353.448045652061
 30
0.0
  0
POINT
  5
38D
330
384
100
AcDbEntity
  8
DEFPOINTS
 62
     0
100
AcDbPoint
 10
-9930.07123809348
 20
-2333.86096782763
 30
0.0
  0
ENDBLK
  5
38F
330
384
100
AcDbEntity
  8
0
100
AcDbBlockEnd
  0
BLOCK
  5
2D0
330
2C6
100
AcDbEntity
  8
0
100
AcDbBlockBegin
  2
*D19
 70
     1
 10
0.0
 20
0.0
 30
0.0
  3
*D19
  1

  0
LINE
  5
2C7
330
2C6
100
AcDbEntity
  8
0
 62
   123
100
AcDbLine
 10
-9931.09125296376
 20
-2492.963479663792
 30
0.0
 11
-9931.09125296376
 21
-2477.143191456889
 31
0.0
  0
LINE
  5
2C8
330
2C6
100
AcDbEntity
  8
0
 62
   123
100
AcDbLine
 10
-9956.091252963759
 20
-2492.963479663792
 30
0.0
 11
-9956.091252963759
 21
-2477.143191456889
 31
0.0
  0
LINE
  5
2C9
330
2C6
100
AcDbEntity
  8
0
 62
   123
100
AcDbLine
 10
-9933.591252963759
 20
-2477.74319145689
 30
0.0
 11
-9953.591252963756
 21
-2477.74319145689
 31
0.0
  0
SOLID
  5
2CA
330
2C6
100
AcDbEntity
  8
0
 62
   123
100
AcDbTrace
 10
-9933.591252963759
 20
-2477.326524790223
 30
0.0
 11
-9933.591252963759
 21
-2478.159858123555
 31
0.0
 12
-9931.09125296376
 22
-2477.74319145689
 32
0.0
 13
-9931.09125296376
 23
-2477.74319145689
 33
0.0
  0
SOLID
  5
2CB
330
2C6
100
AcDbEntity
  8
0
 62
   123
100
AcDbTrace
 10
-9953.591252963756
 20
-2477.326524790223
 30
0.0
 11
-9953.591252963756
 21
-2478.159858123555
 31
0.0
 12
-9956.091252963759
 22
-2477.74319145689
 32
0.0
 13
-9956.091252963759
 23
-2477.74319145689
 33
0.0
  0
MTEXT
  5
2CC
330
2C6
100
AcDbEntity
  8
0
 62
     3
100
AcDbMText
 10
-9943.280322296363
 20
-2475.24319145689
 30
0.0
 40
3.0
 41
0.0
 71
     5
 72
     1
  1
\A1;25
1001
ACAD
1000
MTEXTBEGIN
1070
    73
1070
     1
1070
    44
1040
1.0
1070
    74
1070
     0
1000
MTEXTEND
1000
MTEXTBEGIN
1070
    73
1070
     1
1070
    44
1040
1.0
1070
    74
1070
     0
1000
MTEXTEND
1000
MTEXTBEGIN
1070
    73
1070
     1
1070
    44
1040
1.0
1070
    74
1070
     0
1000
MTEXTEND
  0
POINT
  5
2CD
330
2C6
100
AcDbEntity
  8
DEFPOINTS
 62
     0
100
AcDbPoint
 10
-9931.09125296376
 20
-2493.963479663792
 30
0.0
  0
POINT
  5
2CE
330
2C6
100
AcDbEntity
  8
DEFPOINTS
 62
     0
100
AcDbPoint
 10
-9956.091252963759
 20
-2493.963479663792
 30
0.0
  0
POINT
  5
2CF
330
2C6
100
AcDbEntity
  8
DEFPOINTS
 62
     0
100
AcDbPoint
 10
-9956.091252963759
 20
-2477.74319145689
 30
0.0
  0
ENDBLK
  5
2D1
330
2C6
100
AcDbEntity
  8
0
100
AcDbBlockEnd
  0
BLOCK
  5
208
330
1FE
100
AcDbEntity
  8
0
100
AcDbBlockBegin
  2
*D20
 70
     1
 10
0.0
 20
0.0
 30
0.0
  3
*D20
  1

  0
LINE
  5
1FF
330
1FE
100
AcDbEntity
  8
0
 62
   123
100
AcDbLine
 10
-9973.351968975817
 20
-2683.421734099503
 30
0.0
 11
-9973.351968975817
 21
-2672.39887598968
 31
0.0
  0
LINE
  5
200
330
1FE
100
AcDbEntity
  8
0
 62
   123
100
AcDbLine
 10
-9855.351968975817
 20
-2696.457033037438
 30
0.0
 11
-9855.351968975817
 21
-2672.39887598968
 31
0.0
  0
LINE
  5
201
330
1FE
100
AcDbEntity
  8
0
 62
   123
100
AcDbLine
 10
-9970.851968975816
 20
-2672.99887598968
 30
0.0
 11
-9857.851968975817
 21
-2672.99887598968
 31
0.0
  0
SOLID
  5
202
330
1FE
100
AcDbEntity
  8
0
 62
   123
100
AcDbTrace
 10
-9970.851968975816
 20
-2672.582209323014
 30
0.0
 11
-9970.851968975816
 21
-2673.415542656347
 31
0.0
 12
-9973.351968975817
 22
-2672.99887598968
 32
0.0
 13
-9973.351968975817
 23
-2672.99887598968
 33
0.0
  0
SOLID
  5
203
330
1FE
100
AcDbEntity
  8
0
 62
   123
100
AcDbTrace
 10
-9857.851968975817
 20
-2672.582209323014
 30
0.0
 11
-9857.851968975817
 21
-2673.415542656347
 31
0.0
 12
-9855.351968975817
 22
-2672.99887598968
 32
0.0
 13
-9855.351968975817
 23
-2672.99887598968
 33
0.0
  0
MTEXT
  5
204
330
1FE
100
AcDbEntity
  8
0
 62
     3
100
AcDbMText
 10
-9914.351968975816
 20
-2670.498875989681
 30
0.0
 40
3.0
 41
0.0
 71
     5
 72
     1
  1
\A1;118
1001
ACAD
1000
MTEXTBEGIN
1070
    73
1070
     1
1070
    44
1040
1.0
1070
    74
1070
     0
1000
MTEXTEND
1000
MTEXTBEGIN
1070
    73
1070
     1
1070
    44
1040
1.0
1070
    74
1070
     0
1000
MTEXTEND
1000
MTEXTBEGIN
1070
    73
1070
     1
1070
    44
1040
1.0
1070
    74
1070
     0
1000
MTEXTEND
  0
POINT
  5
205
330
1FE
100
AcDbEntity
  8
DEFPOINTS
 62
     0
100
AcDbPoint
 10
-9973.351968975817
 20
-2684.421734099503
 30
0.0
  0
POINT
  5
206
330
1FE
100
AcDbEntity
  8
DEFPOINTS
 62
     0
100
AcDbPoint
 10
-9855.351968975817
 20
-2697.457033037438
 30
0.0
  0
POINT
  5
207
330
1FE
100
AcDbEntity
  8
DEFPOINTS
 62
     0
100
AcDbPoint
 10
-9855.351968975817
 20
-2672.99887598968
 30
0.0
  0
ENDBLK
  5
209
330
1FE
100
AcDbEntity
  8
0
100
AcDbBlockEnd
  0
BLOCK
  5
17F
330
175
100
AcDbEntity
  8
0
100
AcDbBlockBegin
  2
*D21
 70
     1
 10
0.0
 20
0.0
 30
0.0
  3
*D21
  1

  0
LINE
  5
176
330
175
100
AcDbEntity
  8
0
 62
   123
100
AcDbLine
 10
-10016.85196897579
 20
-2700.427033037437
 30
0.0
 11
-10078.07449195607
 21
-2700.427033037437
 31
0.0
  0
LINE
  5
177
330
175
100
AcDbEntity
  8
0
 62
   123
100
AcDbLine
 10
-10049.81163663668
 20
-2730.427033037437
 30
0.0
 11
-10078.07449195607
 21
-2730.427033037437
 31
0.0
  0
LINE
  5
178
330
175
100
AcDbEntity
  8
0
 62
   123
100
AcDbLine
 10
-10077.47449195607
 20
-2702.927033037437
 30
0.0
 11
-10077.47449195607
 21
-2727.927033037436
 31
0.0
  0
SOLID
  5
179
330
175
100
AcDbEntity
  8
0
 62
   123
100
AcDbTrace
 10
-10077.89115862274
 20
-2702.927033037437
 30
0.0
 11
-10077.05782528939
 21
-2702.927033037437
 31
0.0
 12
-10077.47449195607
 22
-2700.427033037437
 32
0.0
 13
-10077.47449195607
 23
-2700.427033037437
 33
0.0
  0
SOLID
  5
17A
330
175
100
AcDbEntity
  8
0
 62
   123
100
AcDbTrace
 10
-10077.89115862274
 20
-2727.927033037436
 30
0.0
 11
-10077.05782528939
 21
-2727.927033037436
 31
0.0
 12
-10077.47449195607
 22
-2730.427033037437
 32
0.0
 13
-10077.47449195607
 23
-2730.427033037437
 33
0.0
  0
MTEXT
  5
17B
330
175
100
AcDbEntity
  8
0
 62
     3
100
AcDbMText
 10
-10079.97449195608
 20
-2715.677033037437
 30
0.0
 40
3.0
 41
0.0
 71
     5
 72
     1
  1
\A1;{\f??|b0|i0|c0|p49;%%c}30
 11
0.0000000000000001
 21
1.0
 31
0.0
1001
ACAD
1000
MTEXTBEGIN
1070
    73
1070
     1
1070
    44
1040
1.0
1070
    74
1070
     0
1000
MTEXTEND
1000
MTEXTBEGIN
1070
    73
1070
     1
1070
    44
1040
1.0
1070
    74
1070
     0
1000
MTEXTEND
1000
MTEXTBEGIN
1070
    73
1070
     1
1070
    44
1040
1.0
1070
    74
1070
     0
1000
MTEXTEND
  0
POINT
  5
17C
330
175
100
AcDbEntity
  8
DEFPOINTS
 62
     0
100
AcDbPoint
 10
-10015.85196897579
 20
-2700.427033037437
 30
0.0
  0
POINT
  5
17D
330
175
100
AcDbEntity
  8
DEFPOINTS
 62
     0
100
AcDbPoint
 10
-10048.81163663668
 20
-2730.427033037437
 30
0.0
  0
POINT
  5
17E
330
175
100
AcDbEntity
  8
DEFPOINTS
 62
     0
100
AcDbPoint
 10
-10077.47449195607
 20
-2730.427033037437
 30
0.0
  0
ENDBLK
  5
180
330
175
100
AcDbEntity
  8
0
100
AcDbBlockEnd
  0
BLOCK
  5
1B0
330
1A6
100
AcDbEntity
  8
0
100
AcDbBlockBegin
  2
*D22
 70
     1
 10
0.0
 20
0.0
 30
0.0
  3
*D22
  1

  0
LINE
  5
1A7
330
1A6
100
AcDbEntity
  8
0
 62
   123
100
AcDbLine
 10
-10013.3519689758
 20
-2694.927033037437
 30
0.0
 11
-10013.3519689758
 21
-2672.39887598968
 31
0.0
  0
LINE
  5
1A8
330
1A6
100
AcDbEntity
  8
0
 62
   123
100
AcDbLine
 10
-9973.351968975817
 20
-2694.427033037438
 30
0.0
 11
-9973.351968975817
 21
-2672.39887598968
 31
0.0
  0
LINE
  5
1A9
330
1A6
100
AcDbEntity
  8
0
 62
   123
100
AcDbLine
 10
-10010.8519689758
 20
-2672.99887598968
 30
0.0
 11
-9975.851968975817
 21
-2672.99887598968
 31
0.0
  0
SOLID
  5
1AA
330
1A6
100
AcDbEntity
  8
0
 62
   123
100
AcDbTrace
 10
-10010.8519689758
 20
-2672.582209323014
 30
0.0
 11
-10010.8519689758
 21
-2673.415542656347
 31
0.0
 12
-10013.3519689758
 22
-2672.99887598968
 32
0.0
 13
-10013.3519689758
 23
-2672.99887598968
 33
0.0
  0
SOLID
  5
1AB
330
1A6
100
AcDbEntity
  8
0
 62
   123
100
AcDbTrace
 10
-9975.851968975817
 20
-2672.582209323014
 30
0.0
 11
-9975.851968975817
 21
-2673.415542656347
 31
0.0
 12
-9973.351968975817
 22
-2672.99887598968
 32
0.0
 13
-9973.351968975817
 23
-2672.99887598968
 33
0.0
  0
MTEXT
  5
1AC
330
1A6
100
AcDbEntity
  8
0
 62
     3
100
AcDbMText
 10
-9993.351968975815
 20
-2670.498875989681
 30
0.0
 40
3.0
 41
0.0
 71
     5
 72
     1
  1
\A1;{\f??|b0|i0|c0|p49;L}
1001
ACAD
1000
MTEXTBEGIN
1070
    73
1070
     1
1070
    44
1040
1.0
1070
    74
1070
     0
1000
MTEXTEND
1000
MTEXTBEGIN
1070
    73
1070
     1
1070
    44
1040
1.0
1070
    74
1070
     0
1000
MTEXTEND
1000
MTEXTBEGIN
1070
    73
1070
     1
1070
    44
1040
1.0
1070
    74
1070
     0
1000
MTEXTEND
  0
POINT
  5
1AD
330
1A6
100
AcDbEntity
  8
DEFPOINTS
 62
     0
100
AcDbPoint
 10
-10013.3519689758
 20
-2695.927033037436
 30
0.0
  0
POINT
  5
1AE
330
1A6
100
AcDbEntity
  8
DEFPOINTS
 62
     0
100
AcDbPoint
 10
-9973.351968975817
 20
-2695.427033037438
 30
0.0
  0
POINT
  5
1AF
330
1A6
100
AcDbEntity
  8
DEFPOINTS
 62
     0
100
AcDbPoint
 10
-9973.351968975817
 20
-2672.99887598968
 30
0.0
  0
ENDBLK
  5
1B1
330
1A6
100
AcDbEntity
  8
0
100
AcDbBlockEnd
  0
BLOCK
  5
DF
330
D3
100
AcDbEntity
  8
0
100
AcDbBlockBegin
  2
*D23
 70
     1
 10
0.0
 20
0.0
 30
0.0
  3
*D23
  1

  0
LINE
  5
D4
330
D3
100
AcDbEntity
  8
0
 62
   123
100
AcDbLine
 10
-10130.74782552272
 20
-2773.474746041637
 30
0.0
 11
-10130.74782552272
 21
-2790.693732424692
 31
0.0
  0
LINE
  5
D5
330
D3
100
AcDbEntity
  8
0
 62
   123
100
AcDbLine
 10
-10112.11010208347
 20
-2775.422477736237
 30
0.0
 11
-10107.68475814389
 21
-2786.106203093333
 31
0.0
  0
ARC
  5
D6
330
D3
100
AcDbEntity
  8
0
 62
   123
100
AcDbCircle
 10
-10130.74782552272
 20
-2730.427033037432
 30
0.0
 40
59.66669938726013
100
AcDbArc
 50
272.4008354753685
 51
290.0991645246293
  0
SOLID
  5
D7
330
D3
100
AcDbEntity
  8
0
 62
   123
100
AcDbTrace
 10
-10128.2396451503
 20
-2790.457933372888
 30
0.0
 11
-10128.25710324131
 21
-2789.624782930587
 31
0.0
 12
-10130.74782552272
 22
-2790.093732424693
 32
0.0
 13
-10130.74782552272
 23
-2790.093732424693
 33
0.0
  0
SOLID
  5
D8
330
D3
100
AcDbEntity
  8
0
 62
   123
100
AcDbTrace
 10
-10110.39495474228
 20
-2786.071780686159
 30
0.0
 11
-10110.09225104428
 21
-2786.848192249481
 31
0.0
 12
-10107.91436820331
 22
-2785.551875373827
 32
0.0
 13
-10107.91436820331
 23
-2785.551875373827
 33
0.0
  0
MTEXT
  5
D9
330
D3
100
AcDbEntity
  8
0
 62
     3
100
AcDbMText
 10
-10119.65089582266
 20
-2786.215065959863
 30
0.0
 40
3.0
 41
0.0
 71
     5
 72
     1
  1
\A1;22°30'
 11
0.9807852804032339
 21
0.1950903220161111
 31
0.0
1001
ACAD
1000
MTEXTBEGIN
1070
    73
1070
     1
1070
    44
1040
1.0
1070
    74
1070
     0
1000
MTEXTEND
1000
MTEXTBEGIN
1070
    73
1070
     1
1070
    44
1040
1.0
1070
    74
1070
     0
1000
MTEXTEND
1000
MTEXTBEGIN
1070
    73
1070
     1
1070
    44
1040
1.0
1070
    74
1070
     0
1000
MTEXTEND
  0
POINT
  5
DA
330
D3
100
AcDbEntity
  8
DEFPOINTS
 62
     0
100
AcDbPoint
 10
-10122.95975844935
 20
-2789.583275540067
 30
0.0
  0
POINT
  5
DB
330
D3
100
AcDbEntity
  8
DEFPOINTS
 62
     0
100
AcDbPoint
 10
-10130.74782552272
 20
-2772.474746041635
 30
0.0
  0
POINT
  5
DC
330
D3
100
AcDbEntity
  8
DEFPOINTS
 62
     0
100
AcDbPoint
 10
-10130.74782552272
 20
-2730.427033037432
 30
0.0
  0
POINT
  5
DD
330
D3
100
AcDbEntity
  8
DEFPOINTS
 62
     0
100
AcDbPoint
 10
-10112.49278551582
 20
-2774.498598203726
 30
0.0
  0
POINT
  5
DE
330
D3
100
AcDbEntity
  8
DEFPOINTS
 62
     0
100
AcDbPoint
 10
-10130.74782552272
 20
-2688.379320033237
 30
0.0
  0
ENDBLK
  5
E0
330
D3
100
AcDbEntity
  8
0
100
AcDbBlockEnd
  0
BLOCK
  5
F5
330
EB
100
AcDbEntity
  8
0
100
AcDbBlockBegin
  2
*D24
 70
     1
 10
0.0
 20
0.0
 30
0.0
  3
*D24
  1

  0
LINE
  5
EC
330
EB
100
AcDbEntity
  8
0
 62
   123
100
AcDbLine
 10
-10165.74782552271
 20
-2699.427033037433
 30
0.0
 11
-10165.74782552271
 21
-2682.259237911527
 31
0.0
  0
LINE
  5
ED
330
EB
100
AcDbEntity
  8
0
 62
   123
100
AcDbLine
 10
-10095.74782552272
 20
-2699.427033037433
 30
0.0
 11
-10095.74782552272
 21
-2682.259237911527
 31
0.0
  0
LINE
  5
EE
330
EB
100
AcDbEntity
  8
0
 62
   123
100
AcDbLine
 10
-10163.24782552272
 20
-2682.859237911527
 30
0.0
 11
-10098.24782552271
 21
-2682.859237911527
 31
0.0
  0
SOLID
  5
EF
330
EB
100
AcDbEntity
  8
0
 62
   123
100
AcDbTrace
 10
-10163.24782552272
 20
-2682.44257124486
 30
0.0
 11
-10163.24782552272
 21
-2683.275904578193
 31
0.0
 12
-10165.74782552271
 22
-2682.859237911527
 32
0.0
 13
-10165.74782552271
 23
-2682.859237911527
 33
0.0
  0
SOLID
  5
F0
330
EB
100
AcDbEntity
  8
0
 62
   123
100
AcDbTrace
 10
-10098.24782552271
 20
-2682.44257124486
 30
0.0
 11
-10098.24782552271
 21
-2683.275904578193
 31
0.0
 12
-10095.74782552272
 22
-2682.859237911527
 32
0.0
 13
-10095.74782552272
 23
-2682.859237911527
 33
0.0
  0
MTEXT
  5
F1
330
EB
100
AcDbEntity
  8
0
 62
     3
100
AcDbMText
 10
-10130.74782552272
 20
-2680.359237911527
 30
0.0
 40
3.0
 41
0.0
 71
     5
 72
     1
  1
\A1;70
1001
ACAD
1000
MTEXTBEGIN
1070
    73
1070
     1
1070
    44
1040
1.0
1070
    74
1070
     0
1000
MTEXTEND
1000
MTEXTBEGIN
1070
    73
1070
     1
1070
    44
1040
1.0
1070
    74
1070
     0
1000
MTEXTEND
1000
MTEXTBEGIN
1070
    73
1070
     1
1070
    44
1040
1.0
1070
    74
1070
     0
1000
MTEXTEND
  0
POINT
  5
F2
330
EB
100
AcDbEntity
  8
DEFPOINTS
 62
     0
100
AcDbPoint
 10
-10165.74782552271
 20
-2700.427033037433
 30
0.0
  0
POINT
  5
F3
330
EB
100
AcDbEntity
  8
DEFPOINTS
 62
     0
100
AcDbPoint
 10
-10095.74782552272
 20
-2700.427033037433
 30
0.0
  0
POINT
  5
F4
330
EB
100
AcDbEntity
  8
DEFPOINTS
 62
     0
100
AcDbPoint
 10
-10095.74782552272
 20
-2682.859237911527
 30
0.0
  0
ENDBLK
  5
F6
330
EB
100
AcDbEntity
  8
0
100
AcDbBlockEnd
  0
BLOCK
  5
14C
330
142
100
AcDbEntity
  8
0
100
AcDbBlockBegin
  2
*D25
 70
     1
 10
0.0
 20
0.0
 30
0.0
  3
*D25
  1

  0
LINE
  5
143
330
142
100
AcDbEntity
  8
0
 62
   123
100
AcDbLine
 10
-9855.851629570899
 20
-2695.925125365203
 30
0.0
 11
-9821.786766207592
 21
-2695.925125365203
 31
0.0
  0
LINE
  5
144
330
142
100
AcDbEntity
  8
0
 62
   123
100
AcDbLine
 10
-9855.851629570899
 20
-2764.928940709674
 30
0.0
 11
-9821.786766207592
 21
-2764.928940709674
 31
0.0
  0
LINE
  5
145
330
142
100
AcDbEntity
  8
0
 62
   123
100
AcDbLine
 10
-9822.386766207593
 20
-2698.425125365202
 30
0.0
 11
-9822.386766207593
 21
-2762.428940709674
 31
0.0
  0
SOLID
  5
146
330
142
100
AcDbEntity
  8
0
 62
   123
100
AcDbTrace
 10
-9822.803432874257
 20
-2698.425125365202
 30
0.0
 11
-9821.970099540925
 21
-2698.425125365202
 31
0.0
 12
-9822.386766207593
 22
-2695.925125365203
 32
0.0
 13
-9822.386766207593
 23
-2695.925125365203
 33
0.0
  0
SOLID
  5
147
330
142
100
AcDbEntity
  8
0
 62
   123
100
AcDbTrace
 10
-9822.803432874257
 20
-2762.428940709674
 30
0.0
 11
-9821.970099540925
 21
-2762.428940709674
 31
0.0
 12
-9822.386766207593
 22
-2764.928940709674
 32
0.0
 13
-9822.386766207593
 23
-2764.928940709674
 33
0.0
  0
MTEXT
  5
148
330
142
100
AcDbEntity
  8
0
 62
     3
100
AcDbMText
 10
-9824.88676620759
 20
-2732.01065566594
 30
0.0
 40
3.0
 41
0.0
 71
     5
 72
     1
  1
\A1;%%C69
 11
0.0000000000000001
 21
1.0
 31
0.0
1001
ACAD
1000
MTEXTBEGIN
1070
    73
1070
     1
1070
    44
1040
1.0
1070
    74
1070
     0
1000
MTEXTEND
1000
MTEXTBEGIN
1070
    73
1070
     1
1070
    44
1040
1.0
1070
    74
1070
     0
1000
MTEXTEND
1000
MTEXTBEGIN
1070
    73
1070
     1
1070
    44
1040
1.0
1070
    74
1070
     0
1000
MTEXTEND
  0
POINT
  5
149
330
142
100
AcDbEntity
  8
DEFPOINTS
 62
     0
100
AcDbPoint
 10
-9856.851629570902
 20
-2695.925125365203
 30
0.0
  0
POINT
  5
14A
330
142
100
AcDbEntity
  8
DEFPOINTS
 62
     0
100
AcDbPoint
 10
-9856.851629570902
 20
-2764.928940709674
 30
0.0
  0
POINT
  5
14B
330
142
100
AcDbEntity
  8
DEFPOINTS
 62
     0
100
AcDbPoint
 10
-9822.386766207593
 20
-2764.928940709674
 30
0.0
  0
ENDBLK
  5
14D
330
142
100
AcDbEntity
  8
0
100
AcDbBlockEnd
  0
BLOCK
  5
12B
330
121
100
AcDbEntity
  8
0
100
AcDbBlockBegin
  2
*D26
 70
     1
 10
0.0
 20
0.0
 30
0.0
  3
*D26
  1

  0
LINE
  5
122
330
121
100
AcDbEntity
  8
0
 62
   123
100
AcDbLine
 10
-9845.351968975819
 20
-2706.927033037437
 30
0.0
 11
-9830.670475450114
 21
-2706.927033037437
 31
0.0
  0
LINE
  5
123
330
121
100
AcDbEntity
  8
0
 62
   123
100
AcDbLine
 10
-9845.351968975819
 20
-2753.927033037437
 30
0.0
 11
-9830.670475450114
 21
-2753.927033037437
 31
0.0
  0
LINE
  5
124
330
121
100
AcDbEntity
  8
0
 62
   123
100
AcDbLine
 10
-9831.270475450114
 20
-2709.427033037437
 30
0.0
 11
-9831.270475450114
 21
-2751.427033037437
 31
0.0
  0
SOLID
  5
125
330
121
100
AcDbEntity
  8
0
 62
   123
100
AcDbTrace
 10
-9831.687142116781
 20
-2709.427033037437
 30
0.0
 11
-9830.853808783448
 21
-2709.427033037437
 31
0.0
 12
-9831.270475450114
 22
-2706.927033037437
 32
0.0
 13
-9831.270475450114
 23
-2706.927033037437
 33
0.0
  0
SOLID
  5
126
330
121
100
AcDbEntity
  8
0
 62
   123
100
AcDbTrace
 10
-9831.687142116781
 20
-2751.427033037437
 30
0.0
 11
-9830.853808783448
 21
-2751.427033037437
 31
0.0
 12
-9831.270475450114
 22
-2753.927033037437
 32
0.0
 13
-9831.270475450114
 23
-2753.927033037437
 33
0.0
  0
MTEXT
  5
127
330
121
100
AcDbEntity
  8
0
 62
     3
100
AcDbMText
 10
-9833.770475450116
 20
-2732.720783037438
 30
0.0
 40
3.0
 41
0.0
 71
     5
 72
     1
  1
\A1;%%C47
 11
0.0000000000000001
 21
1.0
 31
0.0
1001
ACAD
1000
MTEXTBEGIN
1070
    73
1070
     1
1070
    44
1040
1.0
1070
    74
1070
     0
1000
MTEXTEND
1000
MTEXTBEGIN
1070
    73
1070
     1
1070
    44
1040
1.0
1070
    74
1070
     0
1000
MTEXTEND
1000
MTEXTBEGIN
1070
    73
1070
     1
1070
    44
1040
1.0
1070
    74
1070
     0
1000
MTEXTEND
  0
POINT
  5
128
330
121
100
AcDbEntity
  8
DEFPOINTS
 62
     0
100
AcDbPoint
 10
-9846.351968975818
 20
-2706.927033037437
 30
0.0
  0
POINT
  5
129
330
121
100
AcDbEntity
  8
DEFPOINTS
 62
     0
100
AcDbPoint
 10
-9846.351968975818
 20
-2753.927033037437
 30
0.0
  0
POINT
  5
12A
330
121
100
AcDbEntity
  8
DEFPOINTS
 62
     0
100
AcDbPoint
 10
-9831.270475450114
 20
-2753.927033037437
 30
0.0
  0
ENDBLK
  5
12C
330
121
100
AcDbEntity
  8
0
100
AcDbBlockEnd
  0
BLOCK
  5
1DF
330
1D5
100
AcDbEntity
  8
0
100
AcDbBlockBegin
  2
*D27
 70
     1
 10
0.0
 20
0.0
 30
0.0
  3
*D27
  1

  0
LINE
  5
1D6
330
1D5
100
AcDbEntity
  8
0
 62
   123
100
AcDbLine
 10
-9973.351968975817
 20
-2694.427033037436
 30
0.0
 11
-9973.351968975817
 21
-2683.821734099502
 31
0.0
  0
LINE
  5
1D7
330
1D5
100
AcDbEntity
  8
0
 62
   123
100
AcDbLine
 10
-9966.351968975816
 20
-2695.828295695909
 30
0.0
 11
-9966.351968975816
 21
-2683.821734099502
 31
0.0
  0
LINE
  5
1D8
330
1D5
100
AcDbEntity
  8
0
 62
   123
100
AcDbLine
 10
-9970.851968975816
 20
-2684.421734099503
 30
0.0
 11
-9968.851968975817
 21
-2684.421734099503
 31
0.0
  0
SOLID
  5
1D9
330
1D5
100
AcDbEntity
  8
0
 62
   123
100
AcDbTrace
 10
-9970.851968975816
 20
-2684.005067432836
 30
0.0
 11
-9970.851968975816
 21
-2684.838400766169
 31
0.0
 12
-9973.351968975817
 22
-2684.421734099503
 32
0.0
 13
-9973.351968975817
 23
-2684.421734099503
 33
0.0
  0
SOLID
  5
1DA
330
1D5
100
AcDbEntity
  8
0
 62
   123
100
AcDbTrace
 10
-9968.851968975817
 20
-2684.005067432836
 30
0.0
 11
-9968.851968975817
 21
-2684.838400766169
 31
0.0
 12
-9966.351968975816
 22
-2684.421734099503
 32
0.0
 13
-9966.351968975816
 23
-2684.421734099503
 33
0.0
  0
MTEXT
  5
1DB
330
1D5
100
AcDbEntity
  8
0
 62
     3
100
AcDbMText
 10
-9969.851968975817
 20
-2681.921734099502
 30
0.0
 40
3.0
 41
0.0
 71
     5
 72
     1
  1
\A1;7
1001
ACAD
1000
MTEXTBEGIN
1070
    73
1070
     1
1070
    44
1040
1.0
1070
    74
1070
     0
1000
MTEXTEND
1000
MTEXTBEGIN
1070
    73
1070
     1
1070
    44
1040
1.0
1070
    74
1070
     0
1000
MTEXTEND
1000
MTEXTBEGIN
1070
    73
1070
     1
1070
    44
1040
1.0
1070
    74
1070
     0
1000
MTEXTEND
  0
POINT
  5
1DC
330
1D5
100
AcDbEntity
  8
DEFPOINTS
 62
     0
100
AcDbPoint
 10
-9973.351968975817
 20
-2695.427033037437
 30
0.0
  0
POINT
  5
1DD
330
1D5
100
AcDbEntity
  8
DEFPOINTS
 62
     0
100
AcDbPoint
 10
-9966.351968975816
 20
-2696.828295695909
 30
0.0
  0
POINT
  5
1DE
330
1D5
100
AcDbEntity
  8
DEFPOINTS
 62
     0
100
AcDbPoint
 10
-9966.351968975816
 20
-2684.421734099503
 30
0.0
  0
ENDBLK
  5
1E0
330
1D5
100
AcDbEntity
  8
0
100
AcDbBlockEnd
  0
BLOCK
  5
1C2
330
1B6
100
AcDbEntity
  8
0
100
AcDbBlockBegin
  2
*D28
 70
     1
 10
0.0
 20
0.0
 30
0.0
  3
*D28
  1

  0
LINE
  5
1B7
330
1B6
100
AcDbEntity
  8
0
 62
   123
100
AcDbLine
 10
-10013.3519689758
 20
-2694.927033037437
 30
0.0
 11
-10013.3519689758
 21
-2683.906255127764
 31
0.0
  0
LINE
  5
1B8
330
1B6
100
AcDbEntity
  8
0
 62
   123
100
AcDbLine
 10
-10016.3519689758
 20
-2699.927033037437
 30
0.0
 11
-10016.3519689758
 21
-2683.906255127764
 31
0.0
  0
LINE
  5
1B9
330
1B6
100
AcDbEntity
  8
0
 62
   123
100
AcDbLine
 10
-10010.8519689758
 20
-2684.506255127764
 30
0.0
 11
-10008.35196897579
 21
-2684.506255127764
 31
0.0
  0
LINE
  5
1BA
330
1B6
100
AcDbEntity
  8
0
 62
   123
100
AcDbLine
 10
-10018.85196897579
 20
-2684.506255127764
 30
0.0
 11
-10025.35196897579
 21
-2684.506255127764
 31
0.0
  0
LINE
  5
1BB
330
1B6
100
AcDbEntity
  8
0
 62
   123
100
AcDbLine
 10
-10013.3519689758
 20
-2684.506255127764
 30
0.0
 11
-10016.3519689758
 21
-2684.506255127764
 31
0.0
  0
SOLID
  5
1BC
330
1B6
100
AcDbEntity
  8
0
 62
   123
100
AcDbTrace
 10
-10010.8519689758
 20
-2684.089588461097
 30
0.0
 11
-10010.8519689758
 21
-2684.922921794431
 31
0.0
 12
-10013.3519689758
 22
-2684.506255127764
 32
0.0
 13
-10013.3519689758
 23
-2684.506255127764
 33
0.0
  0
SOLID
  5
1BD
330
1B6
100
AcDbEntity
  8
0
 62
   123
100
AcDbTrace
 10
-10018.85196897579
 20
-2684.089588461097
 30
0.0
 11
-10018.85196897579
 21
-2684.922921794431
 31
0.0
 12
-10016.3519689758
 22
-2684.506255127764
 32
0.0
 13
-10016.3519689758
 23
-2684.506255127764
 33
0.0
  0
MTEXT
  5
1BE
330
1B6
100
AcDbEntity
  8
0
 62
     3
100
AcDbMText
 10
-10023.35196897579
 20
-2682.006255127763
 30
0.0
 40
3.0
 41
0.0
 71
     5
 72
     1
  1
\A1;3
1001
ACAD
1000
MTEXTBEGIN
1070
    73
1070
     1
1070
    44
1040
1.0
1070
    74
1070
     0
1000
MTEXTEND
1000
MTEXTBEGIN
1070
    73
1070
     1
1070
    44
1040
1.0
1070
    74
1070
     0
1000
MTEXTEND
1000
MTEXTBEGIN
1070
    73
1070
     1
1070
    44
1040
1.0
1070
    74
1070
     0
1000
MTEXTEND
  0
POINT
  5
1BF
330
1B6
100
AcDbEntity
  8
DEFPOINTS
 62
     0
100
AcDbPoint
 10
-10013.3519689758
 20
-2695.927033037436
 30
0.0
  0
POINT
  5
1C0
330
1B6
100
AcDbEntity
  8
DEFPOINTS
 62
     0
100
AcDbPoint
 10
-10016.3519689758
 20
-2700.927033037437
 30
0.0
  0
POINT
  5
1C1
330
1B6
100
AcDbEntity
  8
DEFPOINTS
 62
     0
100
AcDbPoint
 10
-10016.3519689758
 20
-2684.506255127764
 30
0.0
  0
ENDBLK
  5
1C3
330
1B6
100
AcDbEntity
  8
0
100
AcDbBlockEnd
  0
BLOCK
  5
18E
330
184
100
AcDbEntity
  8
0
100
AcDbBlockBegin
  2
*D29
 70
     1
 10
0.0
 20
0.0
 30
0.0
  3
*D29
  1

  0
LINE
  5
185
330
184
100
AcDbEntity
  8
0
 62
   123
100
AcDbLine
 10
-10050.25010777704
 20
-2715.427033037437
 30
0.0
 11
-10069.64145546354
 21
-2715.427033037437
 31
0.0
  0
LINE
  5
186
330
184
100
AcDbEntity
  8
0
 62
   123
100
AcDbLine
 10
-10016.85196897579
 20
-2730.427033037437
 30
0.0
 11
-10069.64145546354
 21
-2730.427033037437
 31
0.0
  0
LINE
  5
187
330
184
100
AcDbEntity
  8
0
 62
   123
100
AcDbLine
 10
-10069.04145546354
 20
-2717.927033037437
 30
0.0
 11
-10069.04145546354
 21
-2727.927033037436
 31
0.0
  0
SOLID
  5
188
330
184
100
AcDbEntity
  8
0
 62
   123
100
AcDbTrace
 10
-10069.45812213019
 20
-2717.927033037437
 30
0.0
 11
-10068.62478879685
 21
-2717.927033037437
 31
0.0
 12
-10069.04145546354
 22
-2715.427033037437
 32
0.0
 13
-10069.04145546354
 23
-2715.427033037437
 33
0.0
  0
SOLID
  5
189
330
184
100
AcDbEntity
  8
0
 62
   123
100
AcDbTrace
 10
-10069.45812213019
 20
-2727.927033037436
 30
0.0
 11
-10068.62478879685
 21
-2727.927033037436
 31
0.0
 12
-10069.04145546354
 22
-2730.427033037437
 32
0.0
 13
-10069.04145546354
 23
-2730.427033037437
 33
0.0
  0
MTEXT
  5
18A
330
184
100
AcDbEntity
  8
0
 62
     3
100
AcDbMText
 10
-10071.54145546354
 20
-2722.927033037439
 30
0.0
 40
3.0
 41
0.0
 71
     5
 72
     1
  1
\A1;15
 11
0.0000000000000001
 21
1.0
 31
0.0
1001
ACAD
1000
MTEXTBEGIN
1070
    73
1070
     1
1070
    44
1040
1.0
1070
    74
1070
     0
1000
MTEXTEND
1000
MTEXTBEGIN
1070
    73
1070
     1
1070
    44
1040
1.0
1070
    74
1070
     0
1000
MTEXTEND
1000
MTEXTBEGIN
1070
    73
1070
     1
1070
    44
1040
1.0
1070
    74
1070
     0
1000
MTEXTEND
  0
POINT
  5
18B
330
184
100
AcDbEntity
  8
DEFPOINTS
 62
     0
100
AcDbPoint
 10
-10049.25010777704
 20
-2715.427033037437
 30
0.0
  0
POINT
  5
18C
330
184
100
AcDbEntity
  8
DEFPOINTS
 62
     0
100
AcDbPoint
 10
-10015.85196897579
 20
-2730.427033037437
 30
0.0
  0
POINT
  5
18D
330
184
100
AcDbEntity
  8
DEFPOINTS
 62
     0
100
AcDbPoint
 10
-10069.04145546354
 20
-2730.427033037437
 30
0.0
  0
ENDBLK
  5
18F
330
184
100
AcDbEntity
  8
0
100
AcDbBlockEnd
  0
BLOCK
  5
16D
330
163
100
AcDbEntity
  8
0
100
AcDbBlockBegin
  2
*D30
 70
     1
 10
0.0
 20
0.0
 30
0.0
  3
*D30
  1

  0
LINE
  5
164
330
163
100
AcDbEntity
  8
0
 62
   123
100
AcDbLine
 10
-10020.3519689758
 20
-2709.427033037435
 30
0.0
 11
-10020.3519689758
 21
-2693.606744830534
 31
0.0
  0
LINE
  5
165
330
163
100
AcDbEntity
  8
0
 62
   123
100
AcDbLine
 10
-10045.35196897579
 20
-2709.427033037437
 30
0.0
 11
-10045.35196897579
 21
-2693.606744830534
 31
0.0
  0
LINE
  5
166
330
163
100
AcDbEntity
  8
0
 62
   123
100
AcDbLine
 10
-10022.8519689758
 20
-2694.206744830534
 30
0.0
 11
-10042.85196897581
 21
-2694.206744830534
 31
0.0
  0
SOLID
  5
167
330
163
100
AcDbEntity
  8
0
 62
   123
100
AcDbTrace
 10
-10022.8519689758
 20
-2693.790078163868
 30
0.0
 11
-10022.8519689758
 21
-2694.6234114972
 31
0.0
 12
-10020.3519689758
 22
-2694.206744830534
 32
0.0
 13
-10020.3519689758
 23
-2694.206744830534
 33
0.0
  0
SOLID
  5
168
330
163
100
AcDbEntity
  8
0
 62
   123
100
AcDbTrace
 10
-10042.85196897581
 20
-2693.790078163868
 30
0.0
 11
-10042.85196897581
 21
-2694.6234114972
 31
0.0
 12
-10045.35196897579
 22
-2694.206744830534
 32
0.0
 13
-10045.35196897579
 23
-2694.206744830534
 33
0.0
  0
MTEXT
  5
169
330
163
100
AcDbEntity
  8
0
 62
     3
100
AcDbMText
 10
-10032.5410383084
 20
-2691.706744830534
 30
0.0
 40
3.0
 41
0.0
 71
     5
 72
     1
  1
\A1;25
1001
ACAD
1000
MTEXTBEGIN
1070
    73
1070
     1
1070
    44
1040
1.0
1070
    74
1070
     0
1000
MTEXTEND
1000
MTEXTBEGIN
1070
    73
1070
     1
1070
    44
1040
1.0
1070
    74
1070
     0
1000
MTEXTEND
1000
MTEXTBEGIN
1070
    73
1070
     1
1070
    44
1040
1.0
1070
    74
1070
     0
1000
MTEXTEND
  0
POINT
  5
16A
330
163
100
AcDbEntity
  8
DEFPOINTS
 62
     0
100
AcDbPoint
 10
-10020.3519689758
 20
-2710.427033037436
 30
0.0
  0
POINT
  5
16B
330
163
100
AcDbEntity
  8
DEFPOINTS
 62
     0
100
AcDbPoint
 10
-10045.35196897579
 20
-2710.427033037436
 30
0.0
  0
POINT
  5
16C
330
163
100
AcDbEntity
  8
DEFPOINTS
 62
     0
100
AcDbPoint
 10
-10045.35196897579
 20
-2694.206744830534
 30
0.0
  0
ENDBLK
  5
16E
330
163
100
AcDbEntity
  8
0
100
AcDbBlockEnd
  0
BLOCK
  5
15E
330
154
100
AcDbEntity
  8
0
100
AcDbBlockBegin
  2
*D31
 70
     1
 10
0.0
 20
0.0
 30
0.0
  3
*D31
  1

  0
LINE
  5
155
330
154
100
AcDbEntity
  8
0
 62
   123
100
AcDbLine
 10
-10045.35196897579
 20
-2709.427033037437
 30
0.0
 11
-10045.35196897579
 21
-2672.39887598968
 31
0.0
  0
LINE
  5
156
330
154
100
AcDbEntity
  8
0
 62
   123
100
AcDbLine
 10
-10013.3519689758
 20
-2694.927033037437
 30
0.0
 11
-10013.3519689758
 21
-2672.39887598968
 31
0.0
  0
LINE
  5
157
330
154
100
AcDbEntity
  8
0
 62
   123
100
AcDbLine
 10
-10042.85196897581
 20
-2672.99887598968
 30
0.0
 11
-10015.85196897579
 21
-2672.99887598968
 31
0.0
  0
SOLID
  5
158
330
154
100
AcDbEntity
  8
0
 62
   123
100
AcDbTrace
 10
-10042.85196897581
 20
-2672.582209323014
 30
0.0
 11
-10042.85196897581
 21
-2673.415542656347
 31
0.0
 12
-10045.35196897579
 22
-2672.99887598968
 32
0.0
 13
-10045.35196897579
 23
-2672.99887598968
 33
0.0
  0
SOLID
  5
159
330
154
100
AcDbEntity
  8
0
 62
   123
100
AcDbTrace
 10
-10015.85196897579
 20
-2672.582209323014
 30
0.0
 11
-10015.85196897579
 21
-2673.415542656347
 31
0.0
 12
-10013.3519689758
 22
-2672.99887598968
 32
0.0
 13
-10013.3519689758
 23
-2672.99887598968
 33
0.0
  0
MTEXT
  5
15A
330
154
100
AcDbEntity
  8
0
 62
     3
100
AcDbMText
 10
-10029.35196897579
 20
-2670.498875989681
 30
0.0
 40
3.0
 41
0.0
 71
     5
 72
     1
  1
\A1;32
1001
ACAD
1000
MTEXTBEGIN
1070
    73
1070
     1
1070
    44
1040
1.0
1070
    74
1070
     0
1000
MTEXTEND
1000
MTEXTBEGIN
1070
    73
1070
     1
1070
    44
1040
1.0
1070
    74
1070
     0
1000
MTEXTEND
1000
MTEXTBEGIN
1070
    73
1070
     1
1070
    44
1040
1.0
1070
    74
1070
     0
1000
MTEXTEND
  0
POINT
  5
15B
330
154
100
AcDbEntity
  8
DEFPOINTS
 62
     0
100
AcDbPoint
 10
-10045.35196897579
 20
-2710.427033037436
 30
0.0
  0
POINT
  5
15C
330
154
100
AcDbEntity
  8
DEFPOINTS
 62
     0
100
AcDbPoint
 10
-10013.3519689758
 20
-2695.927033037436
 30
0.0
  0
POINT
  5
15D
330
154
100
AcDbEntity
  8
DEFPOINTS
 62
     0
100
AcDbPoint
 10
-10013.3519689758
 20
-2672.99887598968
 30
0.0
  0
ENDBLK
  5
15F
330
154
100
AcDbEntity
  8
0
100
AcDbBlockEnd
  0
BLOCK
  5
19F
330
193
100
AcDbEntity
  8
0
100
AcDbBlockBegin
  2
*D32
 70
     1
 10
0.0
 20
0.0
 30
0.0
  3
*D32
  1

  0
LINE
  5
194
330
193
100
AcDbEntity
  8
0
 62
   123
100
AcDbLine
 10
-10046.35196897579
 20
-2720.427033037437
 30
0.0
 11
-10060.77663226478
 21
-2720.427033037437
 31
0.0
  0
LINE
  5
195
330
193
100
AcDbEntity
  8
0
 62
   123
100
AcDbLine
 10
-10046.35196897579
 20
-2710.427033037436
 30
0.0
 11
-10060.77663226478
 21
-2710.427033037436
 31
0.0
  0
LINE
  5
196
330
193
100
AcDbEntity
  8
0
 62
   123
100
AcDbLine
 10
-10060.17663226479
 20
-2722.927033037437
 30
0.0
 11
-10060.17663226479
 21
-2725.427033037437
 31
0.0
  0
LINE
  5
197
330
193
100
AcDbEntity
  8
0
 62
   123
100
AcDbLine
 10
-10060.17663226479
 20
-2707.927033037437
 30
0.0
 11
-10060.17663226479
 21
-2663.511023297542
 31
0.0
  0
LINE
  5
198
330
193
100
AcDbEntity
  8
0
 62
   123
100
AcDbLine
 10
-10060.17663226479
 20
-2720.427033037437
 30
0.0
 11
-10060.17663226479
 21
-2710.427033037436
 31
0.0
  0
SOLID
  5
199
330
193
100
AcDbEntity
  8
0
 62
   123
100
AcDbTrace
 10
-10060.59329893145
 20
-2722.927033037437
 30
0.0
 11
-10059.75996559812
 21
-2722.927033037437
 31
0.0
 12
-10060.17663226479
 22
-2720.427033037437
 32
0.0
 13
-10060.17663226479
 23
-2720.427033037437
 33
0.0
  0
SOLID
  5
19A
330
193
100
AcDbEntity
  8
0
 62
   123
100
AcDbTrace
 10
-10060.59329893145
 20
-2707.927033037437
 30
0.0
 11
-10059.75996559812
 21
-2707.927033037437
 31
0.0
 12
-10060.17663226479
 22
-2710.427033037436
 32
0.0
 13
-10060.17663226479
 23
-2710.427033037436
 33
0.0
  0
MTEXT
  5
19B
330
193
100
AcDbEntity
  8
0
 62
     3
100
AcDbMText
 10
-10064.12678226479
 20
-2678.326594726116
 30
0.0
 40
3.0
 41
0.0
 71
     5
 72
     1
  1
\A1;\A1;{\f??|b0|i0|c0|p49;%%C10\H0.7x;\S+0^ -0.015;\H1.429x;(h7)}
 11
0.0000000000000001
 21
1.0
 31
0.0
1001
ACAD
1000
MTEXTBEGIN
1070
    73
1070
     1
1070
    44
1040
1.0
1070
    74
1070
     0
1000
MTEXTEND
1000
MTEXTBEGIN
1070
    73
1070
     1
1070
    44
1040
1.0
1070
    74
1070
     0
1000
MTEXTEND
1000
MTEXTBEGIN
1070
    73
1070
     1
1070
    44
1040
1.0
1070
    74
1070
     0
1000
MTEXTEND
  0
POINT
  5
19C
330
193
100
AcDbEntity
  8
DEFPOINTS
 62
     0
100
AcDbPoint
 10
-10045.35196897579
 20
-2720.427033037437
 30
0.0
  0
POINT
  5
19D
330
193
100
AcDbEntity
  8
DEFPOINTS
 62
     0
100
AcDbPoint
 10
-10045.35196897579
 20
-2710.427033037436
 30
0.0
  0
POINT
  5
19E
330
193
100
AcDbEntity
  8
DEFPOINTS
 62
     0
100
AcDbPoint
 10
-10060.17663226479
 20
-2710.427033037436
 30
0.0
  0
ENDBLK
  5
1A0
330
193
100
AcDbEntity
  8
0
100
AcDbBlockEnd
  0
BLOCK
  5
11A
330
110
100
AcDbEntity
  8
0
100
AcDbBlockBegin
  2
*D33
 70
     1
 10
0.0
 20
0.0
 30
0.0
  3
*D33
  1

  0
LINE
  5
111
330
110
100
AcDbEntity
  8
0
 62
   123
100
AcDbLine
 10
-9845.351968975819
 20
-2706.927033037437
 30
0.0
 11
-9845.351968975819
 21
-2672.39887598968
 31
0.0
  0
LINE
  5
112
330
110
100
AcDbEntity
  8
0
 62
   123
100
AcDbLine
 10
-9855.351968975817
 20
-2696.457033037438
 30
0.0
 11
-9855.351968975817
 21
-2672.39887598968
 31
0.0
  0
LINE
  5
113
330
110
100
AcDbEntity
  8
0
 62
   123
100
AcDbLine
 10
-9847.851968975817
 20
-2672.99887598968
 30
0.0
 11
-9852.851968975816
 21
-2672.99887598968
 31
0.0
  0
SOLID
  5
114
330
110
100
AcDbEntity
  8
0
 62
   123
100
AcDbTrace
 10
-9847.851968975817
 20
-2672.582209323014
 30
0.0
 11
-9847.851968975817
 21
-2673.415542656347
 31
0.0
 12
-9845.351968975819
 22
-2672.99887598968
 32
0.0
 13
-9845.351968975819
 23
-2672.99887598968
 33
0.0
  0
SOLID
  5
115
330
110
100
AcDbEntity
  8
0
 62
   123
100
AcDbTrace
 10
-9852.851968975816
 20
-2672.582209323014
 30
0.0
 11
-9852.851968975816
 21
-2673.415542656347
 31
0.0
 12
-9855.351968975817
 22
-2672.99887598968
 32
0.0
 13
-9855.351968975817
 23
-2672.99887598968
 33
0.0
  0
MTEXT
  5
116
330
110
100
AcDbEntity
  8
0
 62
     3
100
AcDbMText
 10
-9850.351968975818
 20
-2670.498875989681
 30
0.0
 40
3.0
 41
0.0
 71
     5
 72
     1
  1
\A1;10
1001
ACAD
1000
MTEXTBEGIN
1070
    73
1070
     1
1070
    44
1040
1.0
1070
    74
1070
     0
1000
MTEXTEND
1000
MTEXTBEGIN
1070
    73
1070
     1
1070
    44
1040
1.0
1070
    74
1070
     0
1000
MTEXTEND
1000
MTEXTBEGIN
1070
    73
1070
     1
1070
    44
1040
1.0
1070
    74
1070
     0
1000
MTEXTEND
  0
POINT
  5
117
330
110
100
AcDbEntity
  8
DEFPOINTS
 62
     0
100
AcDbPoint
 10
-9845.351968975819
 20
-2707.927033037437
 30
0.0
  0
POINT
  5
118
330
110
100
AcDbEntity
  8
DEFPOINTS
 62
     0
100
AcDbPoint
 10
-9855.351968975817
 20
-2697.457033037438
 30
0.0
  0
POINT
  5
119
330
110
100
AcDbEntity
  8
DEFPOINTS
 62
     0
100
AcDbPoint
 10
-9855.351968975817
 20
-2672.99887598968
 30
0.0
  0
ENDBLK
  5
11B
330
110
100
AcDbEntity
  8
0
100
AcDbBlockEnd
  0
BLOCK
  5
3AD
330
3A1
100
AcDbEntity
  8
0
100
AcDbBlockBegin
  2
*D34
 70
     1
 10
0.0
 20
0.0
 30
0.0
  3
*D34
  1

  0
LINE
  5
3A2
330
3A1
100
AcDbEntity
  8
0
 62
   123
100
AcDbLine
 10
70.94824507602789
 20
180.2367751984647
 30
0.0
 11
78.71730023148995
 21
180.2367751984647
 31
0.0
  0
LINE
  5
3A3
330
3A1
100
AcDbEntity
  8
0
 62
   123
100
AcDbLine
 10
70.94824507602789
 20
184.2367751984648
 30
0.0
 11
78.71730023148995
 21
184.2367751984648
 31
0.0
  0
LINE
  5
3A4
330
3A1
100
AcDbEntity
  8
0
 62
   123
100
AcDbLine
 10
78.11730023148995
 20
177.7367751984645
 30
0.0
 11
78.11730023148995
 21
175.2367751984647
 31
0.0
  0
LINE
  5
3A5
330
3A1
100
AcDbEntity
  8
0
 62
   123
100
AcDbLine
 10
78.11730023148995
 20
186.7367751984645
 30
0.0
 11
78.11730023148995
 21
205.8005227068405
 31
0.0
  0
LINE
  5
3A6
330
3A1
100
AcDbEntity
  8
0
 62
   123
100
AcDbLine
 10
78.11730023148995
 20
180.2367751984647
 30
0.0
 11
78.11730023148995
 21
184.2367751984648
 31
0.0
  0
SOLID
  5
3A7
330
3A1
100
AcDbEntity
  8
0
 62
   123
100
AcDbTrace
 10
77.70063356482329
 20
177.7367751984645
 30
0.0
 11
78.53396689815665
 21
177.7367751984645
 31
0.0
 12
78.11730023148995
 22
180.2367751984647
 32
0.0
 13
78.11730023148995
 23
180.2367751984647
 33
0.0
  0
SOLID
  5
3A8
330
3A1
100
AcDbEntity
  8
0
 62
   123
100
AcDbTrace
 10
77.70063356482329
 20
186.7367751984645
 30
0.0
 11
78.53396689815665
 21
186.7367751984645
 31
0.0
 12
78.11730023148995
 22
184.2367751984648
 32
0.0
 13
78.11730023148995
 23
184.2367751984648
 33
0.0
  0
MTEXT
  5
3A9
330
3A1
100
AcDbEntity
  8
0
 62
     3
100
AcDbMText
 10
74.66730023148993
 20
199.0862369925548
 30
0.0
 40
3.0
 41
0.0
 71
     5
 72
     1
  1
\A1;\A1;4{\f??|b0|i0|c0|p49;\H0.7x;\S+0^ -0.03;}
 11
0.0000000000000001
 21
1.0
 31
0.0
1001
ACAD
1000
MTEXTBEGIN
1070
    73
1070
     1
1070
    44
1040
1.0
1070
    74
1070
     0
1000
MTEXTEND
1000
MTEXTBEGIN
1070
    73
1070
     1
1070
    44
1040
1.0
1070
    74
1070
     0
1000
MTEXTEND
1000
MTEXTBEGIN
1070
    73
1070
     1
1070
    44
1040
1.0
1070
    74
1070
     0
1000
MTEXTEND
  0
POINT
  5
3AA
330
3A1
100
AcDbEntity
  8
DEFPOINTS
 62
     0
100
AcDbPoint
 10
69.94824507602789
 20
180.2367751984647
 30
0.0
  0
POINT
  5
3AB
330
3A1
100
AcDbEntity
  8
DEFPOINTS
 62
     0
100
AcDbPoint
 10
69.94824507602789
 20
184.2367751984648
 30
0.0
  0
POINT
  5
3AC
330
3A1
100
AcDbEntity
  8
DEFPOINTS
 62
     0
100
AcDbPoint
 10
78.11730023148995
 20
184.2367751984648
 30
0.0
  0
ENDBLK
  5
3AE
330
3A1
100
AcDbEntity
  8
0
100
AcDbBlockEnd
  0
BLOCK
  5
3B9
330
3AF
100
AcDbEntity
  8
0
100
AcDbBlockBegin
  2
*D35
 70
     1
 10
0.0
 20
0.0
 30
0.0
  3
*D35
  1

  0
LINE
  5
3B0
330
3AF
100
AcDbEntity
  8
0
 62
   123
100
AcDbLine
 10
-9.781777227401107
 20
101.5081412844247
 30
0.0
 11
-9.781777227401104
 21
118.6759364103305
 31
0.0
  0
LINE
  5
3B1
330
3AF
100
AcDbEntity
  8
0
 62
   123
100
AcDbLine
 10
60.21822277259889
 20
101.5081412844247
 30
0.0
 11
60.21822277259889
 21
118.6759364103305
 31
0.0
  0
LINE
  5
3B2
330
3AF
100
AcDbEntity
  8
0
 62
   123
100
AcDbLine
 10
-7.281777227401105
 20
118.0759364103304
 30
0.0
 11
57.71822277259889
 21
118.0759364103304
 31
0.0
  0
SOLID
  5
3B3
330
3AF
100
AcDbEntity
  8
0
 62
   123
100
AcDbTrace
 10
-7.281777227401105
 20
118.4926030769972
 30
0.0
 11
-7.281777227401105
 21
117.6592697436637
 31
0.0
 12
-9.781777227401104
 22
118.0759364103304
 32
0.0
 13
-9.781777227401104
 23
118.0759364103304
 33
0.0
  0
SOLID
  5
3B4
330
3AF
100
AcDbEntity
  8
0
 62
   123
100
AcDbTrace
 10
57.71822277259889
 20
118.4926030769972
 30
0.0
 11
57.71822277259889
 21
117.6592697436637
 31
0.0
 12
60.21822277259889
 22
118.0759364103304
 32
0.0
 13
60.21822277259889
 23
118.0759364103304
 33
0.0
  0
MTEXT
  5
3B5
330
3AF
100
AcDbEntity
  8
0
 62
     3
100
AcDbMText
 10
25.21822277259889
 20
120.5759364103305
 30
0.0
 40
3.0
 41
0.0
 71
     5
 72
     1
  1
\A1;70
1001
ACAD
1000
MTEXTBEGIN
1070
    73
1070
     1
1070
    44
1040
1.0
1070
    74
1070
     0
1000
MTEXTEND
1000
MTEXTBEGIN
1070
    73
1070
     1
1070
    44
1040
1.0
1070
    74
1070
     0
1000
MTEXTEND
1000
MTEXTBEGIN
1070
    73
1070
     1
1070
    44
1040
1.0
1070
    74
1070
     0
1000
MTEXTEND
  0
POINT
  5
3B6
330
3AF
100
AcDbEntity
  8
DEFPOINTS
 62
     0
100
AcDbPoint
 10
-9.781777227401107
 20
100.5081412844247
 30
0.0
  0
POINT
  5
3B7
330
3AF
100
AcDbEntity
  8
DEFPOINTS
 62
     0
100
AcDbPoint
 10
60.21822277259889
 20
100.5081412844247
 30
0.0
  0
POINT
  5
3B8
330
3AF
100
AcDbEntity
  8
DEFPOINTS
 62
     0
100
AcDbPoint
 10
60.21822277259889
 20
118.0759364103304
 30
0.0
  0
ENDBLK
  5
3BA
330
3AF
100
AcDbEntity
  8
0
100
AcDbBlockEnd
  0
BLOCK
  5
3C7
330
3BB
100
AcDbEntity
  8
0
100
AcDbBlockBegin
  2
*D36
 70
     1
 10
0.0
 20
0.0
 30
0.0
  3
*D36
  1

  0
LINE
  5
5E9
330
3BB
100
AcDbEntity
  8
0
 62
   123
100
AcDbLine
 10
25.21822277259889
 20
27.46042828022063
 30
0.0
 11
25.21822277259888
 21
10.24144189716495
 31
0.0
  0
LINE
  5
5EA
330
3BB
100
AcDbEntity
  8
0
 62
   123
100
AcDbLine
 10
43.85594621185435
 20
25.51269658562032
 30
0.0
 11
48.28129015143264
 21
14.82897122852573
 31
0.0
  0
ARC
  5
5EB
330
3BB
100
AcDbEntity
  8
0
 62
   123
100
AcDbCircle
 10
25.21822277259889
 20
70.50814128442564
 30
0.0
 40
59.66669938726067
100
AcDbArc
 50
272.4008354753682
 51
290.0991645246336
  0
SOLID
  5
5EC
330
3BB
100
AcDbEntity
  8
0
 62
   123
100
AcDbTrace
 10
27.72640314498935
 20
10.47724094896973
 30
0.0
 11
27.70894505400453
 21
11.31039139126908
 31
0.0
 12
25.21822277259888
 22
10.84144189716495
 32
0.0
 13
25.21822277259888
 23
10.84144189716495
 33
0.0
  0
SOLID
  5
5ED
330
3BB
100
AcDbEntity
  8
0
 62
   123
100
AcDbTrace
 10
45.57109355304346
 20
14.86339363570022
 30
0.0
 11
45.8737972510415
 21
14.08698207237652
 31
0.0
 12
48.05168009201358
 22
15.38329894803249
 32
0.0
 13
48.05168009201358
 23
15.38329894803249
 33
0.0
  0
MTEXT
  5
5EE
330
3BB
100
AcDbEntity
  8
0
 62
     3
100
AcDbMText
 10
36.31515247265506
 20
14.72010836199365
 30
0.0
 40
3.0
 41
0.0
 71
     5
 72
     1
  1
\A1;22°30'
 11
0.9807852804032272
 21
0.1950903220161442
 31
0.0
  0
POINT
  5
5EF
330
3BB
100
AcDbEntity
  8
DEFPOINTS
 62
     0
100
AcDbPoint
 10
33.00628984595713
 20
11.35189878179023
 30
0.0
  0
POINT
  5
5F0
330
3BB
100
AcDbEntity
  8
DEFPOINTS
 62
     0
100
AcDbPoint
 10
25.21822277259889
 20
28.46042828022063
 30
0.0
  0
POINT
  5
5F1
330
3BB
100
AcDbEntity
  8
DEFPOINTS
 62
     0
100
AcDbPoint
 10
25.21822277259889
 20
70.50814128442564
 30
0.0
  0
POINT
  5
5F2
330
3BB
100
AcDbEntity
  8
DEFPOINTS
 62
     0
100
AcDbPoint
 10
43.47326277948924
 20
26.43657611813159
 30
0.0
  0
POINT
  5
5F3
330
3BB
100
AcDbEntity
  8
DEFPOINTS
 62
     0
100
AcDbPoint
 10
25.21822277259889
 20
112.5558542886205
 30
0.0
  0
ENDBLK
  5
3C8
330
3BB
100
AcDbEntity
  8
0
100
AcDbBlockEnd
  0
BLOCK
  5
3D3
330
3C9
100
AcDbEntity
  8
0
100
AcDbBlockBegin
  2
*D37
 70
     1
 10
0.0
 20
0.0
 30
0.0
  3
*D37
  1

  0
LINE
  5
3CA
330
3C9
100
AcDbEntity
  8
0
 62
   123
100
AcDbLine
 10
182.6140793195025
 20
117.5134402223547
 30
0.0
 11
182.6140793195025
 21
128.5362983321775
 31
0.0
  0
LINE
  5
3CB
330
3C9
100
AcDbEntity
  8
0
 62
   123
100
AcDbLine
 10
300.6140793195026
 20
104.4781412844195
 30
0.0
 11
300.6140793195026
 21
128.5362983321775
 31
0.0
  0
LINE
  5
3CC
330
3C9
100
AcDbEntity
  8
0
 62
   123
100
AcDbLine
 10
185.1140793195025
 20
127.9362983321775
 30
0.0
 11
298.1140793195026
 21
127.9362983321775
 31
0.0
  0
SOLID
  5
3CD
330
3C9
100
AcDbEntity
  8
0
 62
   123
100
AcDbTrace
 10
185.1140793195025
 20
128.3529649988442
 30
0.0
 11
185.1140793195025
 21
127.5196316655107
 31
0.0
 12
182.6140793195025
 22
127.9362983321775
 32
0.0
 13
182.6140793195025
 23
127.9362983321775
 33
0.0
  0
SOLID
  5
3CE
330
3C9
100
AcDbEntity
  8
0
 62
   123
100
AcDbTrace
 10
298.1140793195026
 20
128.3529649988442
 30
0.0
 11
298.1140793195026
 21
127.5196316655107
 31
0.0
 12
300.6140793195026
 22
127.9362983321775
 32
0.0
 13
300.6140793195026
 23
127.9362983321775
 33
0.0
  0
MTEXT
  5
3CF
330
3C9
100
AcDbEntity
  8
0
 62
     3
100
AcDbMText
 10
241.6140793195026
 20
130.4362983321775
 30
0.0
 40
3.0
 41
0.0
 71
     5
 72
     1
  1
\A1;118
1001
ACAD
1000
MTEXTBEGIN
1070
    73
1070
     1
1070
    44
1040
1.0
1070
    74
1070
     0
1000
MTEXTEND
1000
MTEXTBEGIN
1070
    73
1070
     1
1070
    44
1040
1.0
1070
    74
1070
     0
1000
MTEXTEND
1000
MTEXTBEGIN
1070
    73
1070
     1
1070
    44
1040
1.0
1070
    74
1070
     0
1000
MTEXTEND
  0
POINT
  5
3D0
330
3C9
100
AcDbEntity
  8
DEFPOINTS
 62
     0
100
AcDbPoint
 10
182.6140793195025
 20
116.5134402223547
 30
0.0
  0
POINT
  5
3D1
330
3C9
100
AcDbEntity
  8
DEFPOINTS
 62
     0
100
AcDbPoint
 10
300.6140793195026
 20
103.4781412844195
 30
0.0
  0
POINT
  5
3D2
330
3C9
100
AcDbEntity
  8
DEFPOINTS
 62
     0
100
AcDbPoint
 10
300.6140793195026
 20
127.9362983321775
 30
0.0
  0
ENDBLK
  5
3D4
330
3C9
100
AcDbEntity
  8
0
100
AcDbBlockEnd
  0
BLOCK
  5
3DF
330
3D5
100
AcDbEntity
  8
0
100
AcDbBlockBegin
  2
*D38
 70
     1
 10
0.0
 20
0.0
 30
0.0
  3
*D38
  1

  0
LINE
  5
3D6
330
3D5
100
AcDbEntity
  8
0
 62
   123
100
AcDbLine
 10
182.6140793195025
 20
106.5081412844204
 30
0.0
 11
182.6140793195025
 21
117.1134402223547
 31
0.0
  0
LINE
  5
3D7
330
3D5
100
AcDbEntity
  8
0
 62
   123
100
AcDbLine
 10
189.6140793195026
 20
105.1068786259484
 30
0.0
 11
189.6140793195026
 21
117.1134402223547
 31
0.0
  0
LINE
  5
3D8
330
3D5
100
AcDbEntity
  8
0
 62
   123
100
AcDbLine
 10
185.1140793195025
 20
116.5134402223547
 30
0.0
 11
187.1140793195024
 21
116.5134402223547
 31
0.0
  0
SOLID
  5
3D9
330
3D5
100
AcDbEntity
  8
0
 62
   123
100
AcDbTrace
 10
185.1140793195025
 20
116.9301068890214
 30
0.0
 11
185.1140793195025
 21
116.096773555688
 31
0.0
 12
182.6140793195025
 22
116.5134402223547
 32
0.0
 13
182.6140793195025
 23
116.5134402223547
 33
0.0
  0
SOLID
  5
3DA
330
3D5
100
AcDbEntity
  8
0
 62
   123
100
AcDbTrace
 10
187.1140793195024
 20
116.9301068890214
 30
0.0
 11
187.1140793195024
 21
116.096773555688
 31
0.0
 12
189.6140793195026
 22
116.5134402223547
 32
0.0
 13
189.6140793195026
 23
116.5134402223547
 33
0.0
  0
MTEXT
  5
3DB
330
3D5
100
AcDbEntity
  8
0
 62
     3
100
AcDbMText
 10
186.1140793195024
 20
119.0134402223547
 30
0.0
 40
3.0
 41
0.0
 71
     5
 72
     1
  1
\A1;7
1001
ACAD
1000
MTEXTBEGIN
1070
    73
1070
     1
1070
    44
1040
1.0
1070
    74
1070
     0
1000
MTEXTEND
1000
MTEXTBEGIN
1070
    73
1070
     1
1070
    44
1040
1.0
1070
    74
1070
     0
1000
MTEXTEND
1000
MTEXTBEGIN
1070
    73
1070
     1
1070
    44
1040
1.0
1070
    74
1070
     0
1000
MTEXTEND
  0
POINT
  5
3DC
330
3D5
100
AcDbEntity
  8
DEFPOINTS
 62
     0
100
AcDbPoint
 10
182.6140793195025
 20
105.5081412844204
 30
0.0
  0
POINT
  5
3DD
330
3D5
100
AcDbEntity
  8
DEFPOINTS
 62
     0
100
AcDbPoint
 10
189.6140793195026
 20
104.1068786259484
 30
0.0
  0
POINT
  5
3DE
330
3D5
100
AcDbEntity
  8
DEFPOINTS
 62
     0
100
AcDbPoint
 10
189.6140793195026
 20
116.5134402223547
 30
0.0
  0
ENDBLK
  5
3E0
330
3D5
100
AcDbEntity
  8
0
100
AcDbBlockEnd
  0
BLOCK
  5
3ED
330
3E1
100
AcDbEntity
  8
0
100
AcDbBlockBegin
  2
*D39
 70
     1
 10
0.0
 20
0.0
 30
0.0
  3
*D39
  1

  0
LINE
  5
3E2
330
3E1
100
AcDbEntity
  8
0
 62
   123
100
AcDbLine
 10
142.6140793195098
 20
106.0081412844205
 30
0.0
 11
142.6140793195098
 21
117.0289191940937
 31
0.0
  0
LINE
  5
3E3
330
3E1
100
AcDbEntity
  8
0
 62
   123
100
AcDbLine
 10
139.6140793195099
 20
101.0081412844205
 30
0.0
 11
139.6140793195099
 21
117.0289191940937
 31
0.0
  0
LINE
  5
3E4
330
3E1
100
AcDbEntity
  8
0
 62
   123
100
AcDbLine
 10
145.1140793195099
 20
116.4289191940937
 30
0.0
 11
147.6140793195098
 21
116.4289191940937
 31
0.0
  0
LINE
  5
3E5
330
3E1
100
AcDbEntity
  8
0
 62
   123
100
AcDbLine
 10
137.1140793195097
 20
116.4289191940937
 30
0.0
 11
130.6140793195099
 21
116.4289191940937
 31
0.0
  0
LINE
  5
3E6
330
3E1
100
AcDbEntity
  8
0
 62
   123
100
AcDbLine
 10
142.6140793195098
 20
116.4289191940937
 30
0.0
 11
139.6140793195099
 21
116.4289191940937
 31
0.0
  0
SOLID
  5
3E7
330
3E1
100
AcDbEntity
  8
0
 62
   123
100
AcDbTrace
 10
145.1140793195099
 20
116.8455858607605
 30
0.0
 11
145.1140793195099
 21
116.0122525274271
 31
0.0
 12
142.6140793195098
 22
116.4289191940937
 32
0.0
 13
142.6140793195098
 23
116.4289191940937
 33
0.0
  0
SOLID
  5
3E8
330
3E1
100
AcDbEntity
  8
0
 62
   123
100
AcDbTrace
 10
137.1140793195097
 20
116.8455858607605
 30
0.0
 11
137.1140793195097
 21
116.0122525274271
 31
0.0
 12
139.6140793195099
 22
116.4289191940937
 32
0.0
 13
139.6140793195099
 23
116.4289191940937
 33
0.0
  0
MTEXT
  5
3E9
330
3E1
100
AcDbEntity
  8
0
 62
     3
100
AcDbMText
 10
132.6140793195099
 20
118.9289191940938
 30
0.0
 40
3.0
 41
0.0
 71
     5
 72
     1
  1
\A1;3
1001
ACAD
1000
MTEXTBEGIN
1070
    73
1070
     1
1070
    44
1040
1.0
1070
    74
1070
     0
1000
MTEXTEND
1000
MTEXTBEGIN
1070
    73
1070
     1
1070
    44
1040
1.0
1070
    74
1070
     0
1000
MTEXTEND
1000
MTEXTBEGIN
1070
    73
1070
     1
1070
    44
1040
1.0
1070
    74
1070
     0
1000
MTEXTEND
  0
POINT
  5
3EA
330
3E1
100
AcDbEntity
  8
DEFPOINTS
 62
     0
100
AcDbPoint
 10
142.6140793195098
 20
105.0081412844205
 30
0.0
  0
POINT
  5
3EB
330
3E1
100
AcDbEntity
  8
DEFPOINTS
 62
     0
100
AcDbPoint
 10
139.6140793195099
 20
100.0081412844205
 30
0.0
  0
POINT
  5
3EC
330
3E1
100
AcDbEntity
  8
DEFPOINTS
 62
     0
100
AcDbPoint
 10
139.6140793195099
 20
116.4289191940937
 30
0.0
  0
ENDBLK
  5
3EE
330
3E1
100
AcDbEntity
  8
0
100
AcDbBlockEnd
  0
BLOCK
  5
3F9
330
3EF
100
AcDbEntity
  8
0
100
AcDbBlockBegin
  2
*D40
 70
     1
 10
0.0
 20
0.0
 30
0.0
  3
*D40
  1

  0
LINE
  5
3F0
330
3EF
100
AcDbEntity
  8
0
 62
   123
100
AcDbLine
 10
142.6140793195098
 20
106.0081412844205
 30
0.0
 11
142.6140793195098
 21
128.5362983321775
 31
0.0
  0
LINE
  5
3F1
330
3EF
100
AcDbEntity
  8
0
 62
   123
100
AcDbLine
 10
182.6140793195025
 20
106.5081412844194
 30
0.0
 11
182.6140793195025
 21
128.5362983321775
 31
0.0
  0
LINE
  5
3F2
330
3EF
100
AcDbEntity
  8
0
 62
   123
100
AcDbLine
 10
145.1140793195099
 20
127.9362983321775
 30
0.0
 11
180.1140793195026
 21
127.9362983321775
 31
0.0
  0
SOLID
  5
3F3
330
3EF
100
AcDbEntity
  8
0
 62
   123
100
AcDbTrace
 10
145.1140793195099
 20
128.3529649988442
 30
0.0
 11
145.1140793195099
 21
127.5196316655107
 31
0.0
 12
142.6140793195098
 22
127.9362983321775
 32
0.0
 13
142.6140793195098
 23
127.9362983321775
 33
0.0
  0
SOLID
  5
3F4
330
3EF
100
AcDbEntity
  8
0
 62
   123
100
AcDbTrace
 10
180.1140793195026
 20
128.3529649988442
 30
0.0
 11
180.1140793195026
 21
127.5196316655107
 31
0.0
 12
182.6140793195025
 22
127.9362983321775
 32
0.0
 13
182.6140793195025
 23
127.9362983321775
 33
0.0
  0
MTEXT
  5
3F5
330
3EF
100
AcDbEntity
  8
0
 62
     3
100
AcDbMText
 10
162.6140793195027
 20
130.4362983321775
 30
0.0
 40
3.0
 41
0.0
 71
     5
 72
     1
  1
\A1;{\f??|b0|i0|c0|p49;L}
1001
ACAD
1000
MTEXTBEGIN
1070
    73
1070
     1
1070
    44
1040
1.0
1070
    74
1070
     0
1000
MTEXTEND
1000
MTEXTBEGIN
1070
    73
1070
     1
1070
    44
1040
1.0
1070
    74
1070
     0
1000
MTEXTEND
1000
MTEXTBEGIN
1070
    73
1070
     1
1070
    44
1040
1.0
1070
    74
1070
     0
1000
MTEXTEND
  0
POINT
  5
3F6
330
3EF
100
AcDbEntity
  8
DEFPOINTS
 62
     0
100
AcDbPoint
 10
142.6140793195098
 20
105.0081412844205
 30
0.0
  0
POINT
  5
3F7
330
3EF
100
AcDbEntity
  8
DEFPOINTS
 62
     0
100
AcDbPoint
 10
182.6140793195025
 20
105.5081412844194
 30
0.0
  0
POINT
  5
3F8
330
3EF
100
AcDbEntity
  8
DEFPOINTS
 62
     0
100
AcDbPoint
 10
182.6140793195025
 20
127.9362983321775
 30
0.0
  0
ENDBLK
  5
3FA
330
3EF
100
AcDbEntity
  8
0
100
AcDbBlockEnd
  0
BLOCK
  5
407
330
3FB
100
AcDbEntity
  8
0
100
AcDbBlockBegin
  2
*D41
 70
     1
 10
0.0
 20
0.0
 30
0.0
  3
*D41
  1

  0
LINE
  5
3FC
330
3FB
100
AcDbEntity
  8
0
 62
   123
100
AcDbLine
 10
109.6140793195099
 20
80.50814128442061
 30
0.0
 11
95.18941603052772
 21
80.50814128442061
 31
0.0
  0
LINE
  5
3FD
330
3FB
100
AcDbEntity
  8
0
 62
   123
100
AcDbLine
 10
109.6140793195099
 20
90.50814128442059
 30
0.0
 11
95.18941603052772
 21
90.50814128442064
 31
0.0
  0
LINE
  5
3FE
330
3FB
100
AcDbEntity
  8
0
 62
   123
100
AcDbLine
 10
95.78941603052772
 20
78.00814128442062
 30
0.0
 11
95.78941603052772
 21
75.50814128442062
 31
0.0
  0
LINE
  5
3FF
330
3FB
100
AcDbEntity
  8
0
 62
   123
100
AcDbLine
 10
95.78941603052772
 20
93.00814128442064
 30
0.0
 11
95.78941603052772
 21
137.4241510243128
 31
0.0
  0
LINE
  5
400
330
3FB
100
AcDbEntity
  8
0
 62
   123
100
AcDbLine
 10
95.78941603052772
 20
80.50814128442061
 30
0.0
 11
95.78941603052772
 21
90.50814128442064
 31
0.0
  0
SOLID
  5
401
330
3FB
100
AcDbEntity
  8
0
 62
   123
100
AcDbTrace
 10
95.37274936386104
 20
78.00814128442062
 30
0.0
 11
96.2060826971944
 21
78.00814128442062
 31
0.0
 12
95.78941603052772
 22
80.50814128442061
 32
0.0
 13
95.78941603052772
 23
80.50814128442061
 33
0.0
  0
SOLID
  5
402
330
3FB
100
AcDbEntity
  8
0
 62
   123
100
AcDbTrace
 10
95.37274936386104
 20
93.00814128442064
 30
0.0
 11
96.2060826971944
 21
93.00814128442059
 31
0.0
 12
95.78941603052772
 22
90.50814128442064
 32
0.0
 13
95.78941603052772
 23
90.50814128442064
 33
0.0
  0
MTEXT
  5
403
330
3FB
100
AcDbEntity
  8
0
 62
     3
100
AcDbMText
 10
91.83926603052773
 20
122.6085795957414
 30
0.0
 40
3.0
 41
0.0
 71
     5
 72
     1
  1
\A1;\A1;{\f??|b0|i0|c0|p49;%%C10\H0.7x;\S+0^ -0.015;\H1.429x;(h7)}
 11
0.0000000000000001
 21
1.0
 31
0.0
1001
ACAD
1000
MTEXTBEGIN
1070
    73
1070
     1
1070
    44
1040
1.0
1070
    74
1070
     0
1000
MTEXTEND
1000
MTEXTBEGIN
1070
    73
1070
     1
1070
    44
1040
1.0
1070
    74
1070
     0
1000
MTEXTEND
1000
MTEXTBEGIN
1070
    73
1070
     1
1070
    44
1040
1.0
1070
    74
1070
     0
1000
MTEXTEND
  0
POINT
  5
404
330
3FB
100
AcDbEntity
  8
DEFPOINTS
 62
     0
100
AcDbPoint
 10
110.6140793195099
 20
80.50814128442061
 30
0.0
  0
POINT
  5
405
330
3FB
100
AcDbEntity
  8
DEFPOINTS
 62
     0
100
AcDbPoint
 10
110.6140793195099
 20
90.50814128442059
 30
0.0
  0
POINT
  5
406
330
3FB
100
AcDbEntity
  8
DEFPOINTS
 62
     0
100
AcDbPoint
 10
95.78941603052772
 20
90.50814128442064
 30
0.0
  0
ENDBLK
  5
408
330
3FB
100
AcDbEntity
  8
0
100
AcDbBlockEnd
  0
BLOCK
  5
413
330
409
100
AcDbEntity
  8
0
100
AcDbBlockBegin
  2
*D42
 70
     1
 10
0.0
 20
0.0
 30
0.0
  3
*D42
  1

  0
LINE
  5
40A
330
409
100
AcDbEntity
  8
0
 62
   123
100
AcDbLine
 10
105.7159405182773
 20
85.50814128442061
 30
0.0
 11
86.32459283177777
 21
85.50814128442061
 31
0.0
  0
LINE
  5
40B
330
409
100
AcDbEntity
  8
0
 62
   123
100
AcDbLine
 10
139.1140793195097
 20
70.50814128442062
 30
0.0
 11
86.32459283177777
 21
70.50814128442062
 31
0.0
  0
LINE
  5
40C
330
409
100
AcDbEntity
  8
0
 62
   123
100
AcDbLine
 10
86.92459283177774
 20
83.00814128442061
 30
0.0
 11
86.92459283177774
 21
73.00814128442062
 31
0.0
  0
SOLID
  5
40D
330
409
100
AcDbEntity
  8
0
 62
   123
100
AcDbTrace
 10
86.50792616511109
 20
83.00814128442061
 30
0.0
 11
87.34125949844445
 21
83.00814128442061
 31
0.0
 12
86.92459283177774
 22
85.50814128442061
 32
0.0
 13
86.92459283177774
 23
85.50814128442061
 33
0.0
  0
SOLID
  5
40E
330
409
100
AcDbEntity
  8
0
 62
   123
100
AcDbTrace
 10
86.50792616511109
 20
73.00814128442062
 30
0.0
 11
87.34125949844445
 21
73.00814128442062
 31
0.0
 12
86.92459283177774
 22
70.50814128442062
 32
0.0
 13
86.92459283177774
 23
70.50814128442062
 33
0.0
  0
MTEXT
  5
40F
330
409
100
AcDbEntity
  8
0
 62
     3
100
AcDbMText
 10
84.42459283177775
 20
78.00814128442064
 30
0.0
 40
3.0
 41
0.0
 71
     5
 72
     1
  1
\A1;15
 11
0.0000000000000001
 21
1.0
 31
0.0
1001
ACAD
1000
MTEXTBEGIN
1070
    73
1070
     1
1070
    44
1040
1.0
1070
    74
1070
     0
1000
MTEXTEND
1000
MTEXTBEGIN
1070
    73
1070
     1
1070
    44
1040
1.0
1070
    74
1070
     0
1000
MTEXTEND
1000
MTEXTBEGIN
1070
    73
1070
     1
1070
    44
1040
1.0
1070
    74
1070
     0
1000
MTEXTEND
  0
POINT
  5
410
330
409
100
AcDbEntity
  8
DEFPOINTS
 62
     0
100
AcDbPoint
 10
106.7159405182773
 20
85.50814128442061
 30
0.0
  0
POINT
  5
411
330
409
100
AcDbEntity
  8
DEFPOINTS
 62
     0
100
AcDbPoint
 10
140.1140793195097
 20
70.50814128442062
 30
0.0
  0
POINT
  5
412
330
409
100
AcDbEntity
  8
DEFPOINTS
 62
     0
100
AcDbPoint
 10
86.92459283177774
 20
70.50814128442062
 30
0.0
  0
ENDBLK
  5
414
330
409
100
AcDbEntity
  8
0
100
AcDbBlockEnd
  0
BLOCK
  5
41F
330
415
100
AcDbEntity
  8
0
100
AcDbBlockBegin
  2
*D43
 70
     1
 10
0.0
 20
0.0
 30
0.0
  3
*D43
  1

  0
LINE
  5
416
330
415
100
AcDbEntity
  8
0
 62
   123
100
AcDbLine
 10
139.1140793195097
 20
100.5081412844205
 30
0.0
 11
77.89155633923876
 21
100.5081412844205
 31
0.0
  0
LINE
  5
417
330
415
100
AcDbEntity
  8
0
 62
   123
100
AcDbLine
 10
106.1544116586392
 20
70.50814128442062
 30
0.0
 11
77.89155633923876
 21
70.50814128442062
 31
0.0
  0
LINE
  5
418
330
415
100
AcDbEntity
  8
0
 62
   123
100
AcDbLine
 10
78.49155633923877
 20
98.00814128442064
 30
0.0
 11
78.49155633923875
 21
73.00814128442062
 31
0.0
  0
SOLID
  5
419
330
415
100
AcDbEntity
  8
0
 62
   123
100
AcDbTrace
 10
78.0748896725721
 20
98.00814128442064
 30
0.0
 11
78.90822300590544
 21
98.00814128442064
 31
0.0
 12
78.49155633923877
 22
100.5081412844205
 32
0.0
 13
78.49155633923877
 23
100.5081412844205
 33
0.0
  0
SOLID
  5
41A
330
415
100
AcDbEntity
  8
0
 62
   123
100
AcDbTrace
 10
78.07488967257208
 20
73.00814128442062
 30
0.0
 11
78.90822300590541
 21
73.00814128442062
 31
0.0
 12
78.49155633923875
 22
70.50814128442062
 32
0.0
 13
78.49155633923875
 23
70.50814128442062
 33
0.0
  0
MTEXT
  5
41B
330
415
100
AcDbEntity
  8
0
 62
     3
100
AcDbMText
 10
75.99155633923874
 20
85.25814128442062
 30
0.0
 40
3.0
 41
0.0
 71
     5
 72
     1
  1
\A1;{\f??|b0|i0|c0|p49;%%c}30
 11
0.0000000000000001
 21
1.0
 31
0.0
1001
ACAD
1000
MTEXTBEGIN
1070
    73
1070
     1
1070
    44
1040
1.0
1070
    74
1070
     0
1000
MTEXTEND
1000
MTEXTBEGIN
1070
    73
1070
     1
1070
    44
1040
1.0
1070
    74
1070
     0
1000
MTEXTEND
1000
MTEXTBEGIN
1070
    73
1070
     1
1070
    44
1040
1.0
1070
    74
1070
     0
1000
MTEXTEND
  0
POINT
  5
41C
330
415
100
AcDbEntity
  8
DEFPOINTS
 62
     0
100
AcDbPoint
 10
140.1140793195097
 20
100.5081412844205
 30
0.0
  0
POINT
  5
41D
330
415
100
AcDbEntity
  8
DEFPOINTS
 62
     0
100
AcDbPoint
 10
107.1544116586392
 20
70.50814128442062
 30
0.0
  0
POINT
  5
41E
330
415
100
AcDbEntity
  8
DEFPOINTS
 62
     0
100
AcDbPoint
 10
78.49155633923875
 20
70.50814128442062
 30
0.0
  0
ENDBLK
  5
420
330
415
100
AcDbEntity
  8
0
100
AcDbBlockEnd
  0
BLOCK
  5
42B
330
421
100
AcDbEntity
  8
0
100
AcDbBlockBegin
  2
*D44
 70
     1
 10
0.0
 20
0.0
 30
0.0
  3
*D44
  1

  0
LINE
  5
422
330
421
100
AcDbEntity
  8
0
 62
   123
100
AcDbLine
 10
135.6140793195099
 20
91.50814128442153
 30
0.0
 11
135.6140793195099
 21
107.3284294913233
 31
0.0
  0
LINE
  5
423
330
421
100
AcDbEntity
  8
0
 62
   123
100
AcDbLine
 10
110.6140793195099
 20
91.50814128442153
 30
0.0
 11
110.6140793195099
 21
107.3284294913233
 31
0.0
  0
LINE
  5
424
330
421
100
AcDbEntity
  8
0
 62
   123
100
AcDbLine
 10
133.1140793195097
 20
106.7284294913233
 30
0.0
 11
113.1140793195099
 21
106.7284294913233
 31
0.0
  0
SOLID
  5
425
330
421
100
AcDbEntity
  8
0
 62
   123
100
AcDbTrace
 10
133.1140793195097
 20
107.1450961579899
 30
0.0
 11
133.1140793195097
 21
106.3117628246567
 31
0.0
 12
135.6140793195099
 22
106.7284294913233
 32
0.0
 13
135.6140793195099
 23
106.7284294913233
 33
0.0
  0
SOLID
  5
426
330
421
100
AcDbEntity
  8
0
 62
   123
100
AcDbTrace
 10
113.1140793195099
 20
107.1450961579899
 30
0.0
 11
113.1140793195099
 21
106.3117628246567
 31
0.0
 12
110.6140793195099
 22
106.7284294913233
 32
0.0
 13
110.6140793195099
 23
106.7284294913233
 33
0.0
  0
MTEXT
  5
427
330
421
100
AcDbEntity
  8
0
 62
     3
100
AcDbMText
 10
123.4250099869095
 20
109.2284294913232
 30
0.0
 40
3.0
 41
0.0
 71
     5
 72
     1
  1
\A1;25
1001
ACAD
1000
MTEXTBEGIN
1070
    73
1070
     1
1070
    44
1040
1.0
1070
    74
1070
     0
1000
MTEXTEND
1000
MTEXTBEGIN
1070
    73
1070
     1
1070
    44
1040
1.0
1070
    74
1070
     0
1000
MTEXTEND
1000
MTEXTBEGIN
1070
    73
1070
     1
1070
    44
1040
1.0
1070
    74
1070
     0
1000
MTEXTEND
  0
POINT
  5
428
330
421
100
AcDbEntity
  8
DEFPOINTS
 62
     0
100
AcDbPoint
 10
135.6140793195099
 20
90.50814128442153
 30
0.0
  0
POINT
  5
429
330
421
100
AcDbEntity
  8
DEFPOINTS
 62
     0
100
AcDbPoint
 10
110.6140793195099
 20
90.50814128442153
 30
0.0
  0
POINT
  5
42A
330
421
100
AcDbEntity
  8
DEFPOINTS
 62
     0
100
AcDbPoint
 10
110.6140793195099
 20
106.7284294913233
 30
0.0
  0
ENDBLK
  5
42C
330
421
100
AcDbEntity
  8
0
100
AcDbBlockEnd
  0
BLOCK
  5
437
330
42D
100
AcDbEntity
  8
0
100
AcDbBlockBegin
  2
*D45
 70
     1
 10
0.0
 20
0.0
 30
0.0
  3
*D45
  1

  0
LINE
  5
42E
330
42D
100
AcDbEntity
  8
0
 62
   123
100
AcDbLine
 10
110.6140793195099
 20
91.50814128442062
 30
0.0
 11
110.6140793195099
 21
128.5362983321775
 31
0.0
  0
LINE
  5
42F
330
42D
100
AcDbEntity
  8
0
 62
   123
100
AcDbLine
 10
142.6140793195098
 20
106.0081412844205
 30
0.0
 11
142.6140793195098
 21
128.5362983321775
 31
0.0
  0
LINE
  5
430
330
42D
100
AcDbEntity
  8
0
 62
   123
100
AcDbLine
 10
113.1140793195099
 20
127.9362983321775
 30
0.0
 11
140.1140793195097
 21
127.9362983321775
 31
0.0
  0
SOLID
  5
431
330
42D
100
AcDbEntity
  8
0
 62
   123
100
AcDbTrace
 10
113.1140793195099
 20
128.3529649988442
 30
0.0
 11
113.1140793195099
 21
127.5196316655107
 31
0.0
 12
110.6140793195099
 22
127.9362983321775
 32
0.0
 13
110.6140793195099
 23
127.9362983321775
 33
0.0
  0
SOLID
  5
432
330
42D
100
AcDbEntity
  8
0
 62
   123
100
AcDbTrace
 10
140.1140793195097
 20
128.3529649988442
 30
0.0
 11
140.1140793195097
 21
127.5196316655107
 31
0.0
 12
142.6140793195098
 22
127.9362983321775
 32
0.0
 13
142.6140793195098
 23
127.9362983321775
 33
0.0
  0
MTEXT
  5
433
330
42D
100
AcDbEntity
  8
0
 62
     3
100
AcDbMText
 10
126.6140793195099
 20
130.4362983321775
 30
0.0
 40
3.0
 41
0.0
 71
     5
 72
     1
  1
\A1;32
1001
ACAD
1000
MTEXTBEGIN
1070
    73
1070
     1
1070
    44
1040
1.0
1070
    74
1070
     0
1000
MTEXTEND
1000
MTEXTBEGIN
1070
    73
1070
     1
1070
    44
1040
1.0
1070
    74
1070
     0
1000
MTEXTEND
1000
MTEXTBEGIN
1070
    73
1070
     1
1070
    44
1040
1.0
1070
    74
1070
     0
1000
MTEXTEND
  0
POINT
  5
434
330
42D
100
AcDbEntity
  8
DEFPOINTS
 62
     0
100
AcDbPoint
 10
110.6140793195099
 20
90.50814128442059
 30
0.0
  0
POINT
  5
435
330
42D
100
AcDbEntity
  8
DEFPOINTS
 62
     0
100
AcDbPoint
 10
142.6140793195098
 20
105.0081412844205
 30
0.0
  0
POINT
  5
436
330
42D
100
AcDbEntity
  8
DEFPOINTS
 62
     0
100
AcDbPoint
 10
142.6140793195098
 20
127.9362983321775
 30
0.0
  0
ENDBLK
  5
438
330
42D
100
AcDbEntity
  8
0
100
AcDbBlockEnd
  0
BLOCK
  5
443
330
439
100
AcDbEntity
  8
0
100
AcDbBlockBegin
  2
*D46
 70
     1
 10
0.0
 20
0.0
 30
0.0
  3
*D46
  1

  0
LINE
  5
43A
330
439
100
AcDbEntity
  8
0
 62
   123
100
AcDbLine
 10
300.1144187244172
 20
105.0100489566548
 30
0.0
 11
334.1792820877268
 21
105.0100489566548
 31
0.0
  0
LINE
  5
43B
330
439
100
AcDbEntity
  8
0
 62
   123
100
AcDbLine
 10
300.1144187244172
 20
36.00623361218367
 30
0.0
 11
334.1792820877268
 21
36.00623361218367
 31
0.0
  0
LINE
  5
43C
330
439
100
AcDbEntity
  8
0
 62
   123
100
AcDbLine
 10
333.5792820877268
 20
102.5100489566548
 30
0.0
 11
333.5792820877268
 21
38.50623361218367
 31
0.0
  0
SOLID
  5
43D
330
439
100
AcDbEntity
  8
0
 62
   123
100
AcDbTrace
 10
333.1626154210601
 20
102.5100489566548
 30
0.0
 11
333.9959487543935
 21
102.5100489566548
 31
0.0
 12
333.5792820877268
 22
105.0100489566548
 32
0.0
 13
333.5792820877268
 23
105.0100489566548
 33
0.0
  0
SOLID
  5
43E
330
439
100
AcDbEntity
  8
0
 62
   123
100
AcDbTrace
 10
333.1626154210601
 20
38.50623361218367
 30
0.0
 11
333.9959487543935
 21
38.50623361218367
 31
0.0
 12
333.5792820877268
 22
36.00623361218367
 32
0.0
 13
333.5792820877268
 23
36.00623361218367
 33
0.0
  0
MTEXT
  5
43F
330
439
100
AcDbEntity
  8
0
 62
     3
100
AcDbMText
 10
331.0792820877268
 20
68.92451865591785
 30
0.0
 40
3.0
 41
0.0
 71
     5
 72
     1
  1
\A1;%%C69
 11
0.0000000000000001
 21
1.0
 31
0.0
1001
ACAD
1000
MTEXTBEGIN
1070
    73
1070
     1
1070
    44
1040
1.0
1070
    74
1070
     0
1000
MTEXTEND
1000
MTEXTBEGIN
1070
    73
1070
     1
1070
    44
1040
1.0
1070
    74
1070
     0
1000
MTEXTEND
1000
MTEXTBEGIN
1070
    73
1070
     1
1070
    44
1040
1.0
1070
    74
1070
     0
1000
MTEXTEND
  0
POINT
  5
440
330
439
100
AcDbEntity
  8
DEFPOINTS
 62
     0
100
AcDbPoint
 10
299.1144187244172
 20
105.0100489566548
 30
0.0
  0
POINT
  5
441
330
439
100
AcDbEntity
  8
DEFPOINTS
 62
     0
100
AcDbPoint
 10
299.1144187244172
 20
36.00623361218367
 30
0.0
  0
POINT
  5
442
330
439
100
AcDbEntity
  8
DEFPOINTS
 62
     0
100
AcDbPoint
 10
333.5792820877268
 20
36.00623361218367
 30
0.0
  0
ENDBLK
  5
444
330
439
100
AcDbEntity
  8
0
100
AcDbBlockEnd
  0
BLOCK
  5
44F
330
445
100
AcDbEntity
  8
0
100
AcDbBlockBegin
  2
*D47
 70
     1
 10
0.0
 20
0.0
 30
0.0
  3
*D47
  1

  0
LINE
  5
446
330
445
100
AcDbEntity
  8
0
 62
   123
100
AcDbLine
 10
310.6140793195009
 20
94.00814128442062
 30
0.0
 11
325.2955728452048
 21
94.00814128442062
 31
0.0
  0
LINE
  5
447
330
445
100
AcDbEntity
  8
0
 62
   123
100
AcDbLine
 10
310.6140793195009
 20
47.0081412844206
 30
0.0
 11
325.2955728452048
 21
47.0081412844206
 31
0.0
  0
LINE
  5
448
330
445
100
AcDbEntity
  8
0
 62
   123
100
AcDbLine
 10
324.6955728452048
 20
91.50814128442062
 30
0.0
 11
324.6955728452048
 21
49.5081412844206
 31
0.0
  0
SOLID
  5
449
330
445
100
AcDbEntity
  8
0
 62
   123
100
AcDbTrace
 10
324.2789061785381
 20
91.50814128442062
 30
0.0
 11
325.1122395118715
 21
91.50814128442062
 31
0.0
 12
324.6955728452048
 22
94.00814128442062
 32
0.0
 13
324.6955728452048
 23
94.00814128442062
 33
0.0
  0
SOLID
  5
44A
330
445
100
AcDbEntity
  8
0
 62
   123
100
AcDbTrace
 10
324.2789061785381
 20
49.5081412844206
 30
0.0
 11
325.1122395118715
 21
49.5081412844206
 31
0.0
 12
324.6955728452048
 22
47.0081412844206
 32
0.0
 13
324.6955728452048
 23
47.0081412844206
 33
0.0
  0
MTEXT
  5
44B
330
445
100
AcDbEntity
  8
0
 62
     3
100
AcDbMText
 10
322.1955728452048
 20
68.21439128441943
 30
0.0
 40
3.0
 41
0.0
 71
     5
 72
     1
  1
\A1;%%C47
 11
0.0000000000000001
 21
1.0
 31
0.0
1001
ACAD
1000
MTEXTBEGIN
1070
    73
1070
     1
1070
    44
1040
1.0
1070
    74
1070
     0
1000
MTEXTEND
1000
MTEXTBEGIN
1070
    73
1070
     1
1070
    44
1040
1.0
1070
    74
1070
     0
1000
MTEXTEND
1000
MTEXTBEGIN
1070
    73
1070
     1
1070
    44
1040
1.0
1070
    74
1070
     0
1000
MTEXTEND
  0
POINT
  5
44C
330
445
100
AcDbEntity
  8
DEFPOINTS
 62
     0
100
AcDbPoint
 10
309.6140793195008
 20
94.00814128442062
 30
0.0
  0
POINT
  5
44D
330
445
100
AcDbEntity
  8
DEFPOINTS
 62
     0
100
AcDbPoint
 10
309.6140793195008
 20
47.0081412844206
 30
0.0
  0
POINT
  5
44E
330
445
100
AcDbEntity
  8
DEFPOINTS
 62
     0
100
AcDbPoint
 10
324.6955728452048
 20
47.0081412844206
 30
0.0
  0
ENDBLK
  5
450
330
445
100
AcDbEntity
  8
0
100
AcDbBlockEnd
  0
BLOCK
  5
45B
330
451
100
AcDbEntity
  8
0
100
AcDbBlockBegin
  2
*D48
 70
     1
 10
0.0
 20
0.0
 30
0.0
  3
*D48
  1

  0
LINE
  5
452
330
451
100
AcDbEntity
  8
0
 62
   123
100
AcDbLine
 10
310.614079319499
 20
94.00814128442062
 30
0.0
 11
310.614079319499
 21
128.5362983321775
 31
0.0
  0
LINE
  5
453
330
451
100
AcDbEntity
  8
0
 62
   123
100
AcDbLine
 10
300.6140793195026
 20
104.4781412844195
 30
0.0
 11
300.6140793195026
 21
128.5362983321775
 31
0.0
  0
LINE
  5
454
330
451
100
AcDbEntity
  8
0
 62
   123
100
AcDbLine
 10
308.114079319499
 20
127.9362983321775
 30
0.0
 11
303.1140793195026
 21
127.9362983321775
 31
0.0
  0
SOLID
  5
455
330
451
100
AcDbEntity
  8
0
 62
   123
100
AcDbTrace
 10
308.114079319499
 20
128.3529649988442
 30
0.0
 11
308.114079319499
 21
127.5196316655107
 31
0.0
 12
310.614079319499
 22
127.9362983321775
 32
0.0
 13
310.614079319499
 23
127.9362983321775
 33
0.0
  0
SOLID
  5
456
330
451
100
AcDbEntity
  8
0
 62
   123
100
AcDbTrace
 10
303.1140793195026
 20
128.3529649988442
 30
0.0
 11
303.1140793195026
 21
127.5196316655107
 31
0.0
 12
300.6140793195026
 22
127.9362983321775
 32
0.0
 13
300.6140793195026
 23
127.9362983321775
 33
0.0
  0
MTEXT
  5
457
330
451
100
AcDbEntity
  8
0
 62
     3
100
AcDbMText
 10
305.6140793195008
 20
130.4362983321775
 30
0.0
 40
3.0
 41
0.0
 71
     5
 72
     1
  1
\A1;10
1001
ACAD
1000
MTEXTBEGIN
1070
    73
1070
     1
1070
    44
1040
1.0
1070
    74
1070
     0
1000
MTEXTEND
1000
MTEXTBEGIN
1070
    73
1070
     1
1070
    44
1040
1.0
1070
    74
1070
     0
1000
MTEXTEND
1000
MTEXTBEGIN
1070
    73
1070
     1
1070
    44
1040
1.0
1070
    74
1070
     0
1000
MTEXTEND
  0
POINT
  5
458
330
451
100
AcDbEntity
  8
DEFPOINTS
 62
     0
100
AcDbPoint
 10
310.614079319499
 20
93.00814128442059
 30
0.0
  0
POINT
  5
459
330
451
100
AcDbEntity
  8
DEFPOINTS
 62
     0
100
AcDbPoint
 10
300.6140793195026
 20
103.4781412844195
 30
0.0
  0
POINT
  5
45A
330
451
100
AcDbEntity
  8
DEFPOINTS
 62
     0
100
AcDbPoint
 10
300.6140793195026
 20
127.9362983321775
 30
0.0
  0
ENDBLK
  5
45C
330
451
100
AcDbEntity
  8
0
100
AcDbBlockEnd
  0
BLOCK
  5
467
330
45D
100
AcDbEntity
  8
0
100
AcDbBlockBegin
  2
*D49
 70
     1
 10
0.0
 20
0.0
 30
0.0
  3
*D49
  1

  0
LINE
  5
45E
330
45D
100
AcDbEntity
  8
0
 62
   123
100
AcDbLine
 10
60.08538106720878
 20
259.3587064487437
 30
0.0
 11
60.08538106720878
 21
236.9097044575218
 31
0.0
  0
LINE
  5
45F
330
45D
100
AcDbEntity
  8
0
 62
   123
100
AcDbLine
 10
130.0853810672087
 20
259.3587064487437
 30
0.0
 11
130.0853810672087
 21
236.9097044575218
 31
0.0
  0
LINE
  5
460
330
45D
100
AcDbEntity
  8
0
 62
   123
100
AcDbLine
 10
62.58538106720878
 20
237.5097044575218
 30
0.0
 11
127.5853810672088
 21
237.5097044575218
 31
0.0
  0
SOLID
  5
461
330
45D
100
AcDbEntity
  8
0
 62
   123
100
AcDbTrace
 10
62.58538106720878
 20
237.9263711241884
 30
0.0
 11
62.58538106720878
 21
237.0930377908551
 31
0.0
 12
60.08538106720878
 22
237.5097044575218
 32
0.0
 13
60.08538106720878
 23
237.5097044575218
 33
0.0
  0
SOLID
  5
462
330
45D
100
AcDbEntity
  8
0
 62
   123
100
AcDbTrace
 10
127.5853810672088
 20
237.9263711241884
 30
0.0
 11
127.5853810672088
 21
237.0930377908551
 31
0.0
 12
130.0853810672087
 22
237.5097044575218
 32
0.0
 13
130.0853810672087
 23
237.5097044575218
 33
0.0
  0
MTEXT
  5
463
330
45D
100
AcDbEntity
  8
0
 62
     3
100
AcDbMText
 10
98.42719661641787
 20
240.0097044575218
 30
0.0
 40
3.0
 41
0.0
 71
     5
 72
     1
  1
\A1;70
1001
ACAD
1000
MTEXTBEGIN
1070
    73
1070
     1
1070
    44
1040
1.0
1070
    74
1070
     0
1000
MTEXTEND
1000
MTEXTBEGIN
1070
    73
1070
     1
1070
    44
1040
1.0
1070
    74
1070
     0
1000
MTEXTEND
1000
MTEXTBEGIN
1070
    73
1070
     1
1070
    44
1040
1.0
1070
    74
1070
     0
1000
MTEXTEND
  0
POINT
  5
464
330
45D
100
AcDbEntity
  8
DEFPOINTS
 62
     0
100
AcDbPoint
 10
60.08538106720878
 20
260.3587064487437
 30
0.0
  0
POINT
  5
465
330
45D
100
AcDbEntity
  8
DEFPOINTS
 62
     0
100
AcDbPoint
 10
130.0853810672087
 20
260.3587064487437
 30
0.0
  0
POINT
  5
466
330
45D
100
AcDbEntity
  8
DEFPOINTS
 62
     0
100
AcDbPoint
 10
130.0853810672087
 20
237.5097044575218
 30
0.0
  0
ENDBLK
  5
468
330
45D
100
AcDbEntity
  8
0
100
AcDbBlockEnd
  0
BLOCK
  5
473
330
469
100
AcDbEntity
  8
0
100
AcDbBlockBegin
  2
*D50
 70
     1
 10
0.0
 20
0.0
 30
0.0
  3
*D50
  1

  0
LINE
  5
46A
330
469
100
AcDbEntity
  8
0
 62
   123
100
AcDbLine
 10
44.94824507602788
 20
183.2367751984638
 30
0.0
 11
44.94824507602788
 21
192.6419691789393
 31
0.0
  0
LINE
  5
46B
330
469
100
AcDbEntity
  8
0
 62
   123
100
AcDbLine
 10
69.94824507602789
 20
185.2367751984647
 30
0.0
 11
69.94824507602789
 21
192.6419691789393
 31
0.0
  0
LINE
  5
46C
330
469
100
AcDbEntity
  8
0
 62
   123
100
AcDbLine
 10
47.44824507602788
 20
192.0419691789393
 30
0.0
 11
67.44824507602789
 21
192.0419691789393
 31
0.0
  0
SOLID
  5
46D
330
469
100
AcDbEntity
  8
0
 62
   123
100
AcDbTrace
 10
47.44824507602788
 20
192.4586358456059
 30
0.0
 11
47.44824507602788
 21
191.6253025122726
 31
0.0
 12
44.94824507602788
 22
192.0419691789393
 32
0.0
 13
44.94824507602788
 23
192.0419691789393
 33
0.0
  0
SOLID
  5
46E
330
469
100
AcDbEntity
  8
0
 62
   123
100
AcDbTrace
 10
67.44824507602789
 20
192.4586358456059
 30
0.0
 11
67.44824507602789
 21
191.6253025122726
 31
0.0
 12
69.94824507602789
 22
192.0419691789393
 32
0.0
 13
69.94824507602789
 23
192.0419691789393
 33
0.0
  0
MTEXT
  5
46F
330
469
100
AcDbEntity
  8
0
 62
     3
100
AcDbMText
 10
57.44824507602789
 20
194.5419691789393
 30
0.0
 40
3.0
 41
0.0
 71
     5
 72
     1
  1
\A1;25{\f??|b0|i0|c0|p49;%%p0.2}
1001
ACAD
1000
MTEXTBEGIN
1070
    73
1070
     1
1070
    44
1040
1.0
1070
    74
1070
     0
1000
MTEXTEND
1000
MTEXTBEGIN
1070
    73
1070
     1
1070
    44
1040
1.0
1070
    74
1070
     0
1000
MTEXTEND
1000
MTEXTBEGIN
1070
    73
1070
     1
1070
    44
1040
1.0
1070
    74
1070
     0
1000
MTEXTEND
  0
POINT
  5
470
330
469
100
AcDbEntity
  8
DEFPOINTS
 62
     0
100
AcDbPoint
 10
44.94824507602788
 20
182.2367751984638
 30
0.0
  0
POINT
  5
471
330
469
100
AcDbEntity
  8
DEFPOINTS
 62
     0
100
AcDbPoint
 10
69.94824507602789
 20
184.2367751984648
 30
0.0
  0
POINT
  5
472
330
469
100
AcDbEntity
  8
DEFPOINTS
 62
     0
100
AcDbPoint
 10
69.94824507602789
 20
192.0419691789393
 30
0.0
  0
ENDBLK
  5
474
330
469
100
AcDbEntity
  8
0
100
AcDbBlockEnd
  0
BLOCK
  5
481
330
475
100
AcDbEntity
  8
0
100
AcDbBlockBegin
  2
*D51
 70
     1
 10
0.0
 20
0.0
 30
0.0
  3
*D51
  1

  0
LINE
  5
476
330
475
100
AcDbEntity
  8
0
 62
   123
100
AcDbLine
 10
137.0522781032887
 20
183.1364799114666
 30
0.0
 11
152.1496105974689
 21
183.1364799114666
 31
0.0
  0
LINE
  5
477
330
475
100
AcDbEntity
  8
0
 62
   123
100
AcDbLine
 10
135.0522781032887
 20
185.6364799114681
 30
0.0
 11
152.1496105974689
 21
185.6364799114681
 31
0.0
  0
LINE
  5
478
330
475
100
AcDbEntity
  8
0
 62
   123
100
AcDbLine
 10
151.5496105974689
 20
180.6364799114666
 30
0.0
 11
151.5496105974689
 21
178.1364799114666
 31
0.0
  0
LINE
  5
479
330
475
100
AcDbEntity
  8
0
 62
   123
100
AcDbLine
 10
151.5496105974689
 20
188.1364799114678
 30
0.0
 11
151.5496105974689
 21
209.5507656257534
 31
0.0
  0
LINE
  5
47A
330
475
100
AcDbEntity
  8
0
 62
   123
100
AcDbLine
 10
151.5496105974689
 20
183.1364799114666
 30
0.0
 11
151.5496105974689
 21
185.6364799114681
 31
0.0
  0
SOLID
  5
47B
330
475
100
AcDbEntity
  8
0
 62
   123
100
AcDbTrace
 10
151.132943930802
 20
180.6364799114666
 30
0.0
 11
151.9662772641354
 21
180.6364799114666
 31
0.0
 12
151.5496105974689
 22
183.1364799114666
 32
0.0
 13
151.5496105974689
 23
183.1364799114666
 33
0.0
  0
SOLID
  5
47C
330
475
100
AcDbEntity
  8
0
 62
   123
100
AcDbTrace
 10
151.132943930802
 20
188.1364799114678
 30
0.0
 11
151.9662772641354
 21
188.1364799114678
 31
0.0
 12
151.5496105974689
 22
185.6364799114681
 32
0.0
 13
151.5496105974689
 23
185.6364799114681
 33
0.0
  0
MTEXT
  5
47D
330
475
100
AcDbEntity
  8
0
 62
     3
100
AcDbMText
 10
148.0996105974689
 20
201.8436227686104
 30
0.0
 40
3.0
 41
0.0
 71
     5
 72
     1
  1
\A1;\A1;2.5{\f??|b0|i0|c0|p49;\H0.7x;\S+0.1^ -0;\H1.429x; }
 11
0.0000000000000001
 21
1.0
 31
0.0
1001
ACAD
1000
MTEXTBEGIN
1070
    73
1070
     1
1070
    44
1040
1.0
1070
    74
1070
     0
1000
MTEXTEND
1000
MTEXTBEGIN
1070
    73
1070
     1
1070
    44
1040
1.0
1070
    74
1070
     0
1000
MTEXTEND
1000
MTEXTBEGIN
1070
    73
1070
     1
1070
    44
1040
1.0
1070
    74
1070
     0
1000
MTEXTEND
  0
POINT
  5
47E
330
475
100
AcDbEntity
  8
DEFPOINTS
 62
     0
100
AcDbPoint
 10
136.0522781032887
 20
183.1364799114666
 30
0.0
  0
POINT
  5
47F
330
475
100
AcDbEntity
  8
DEFPOINTS
 62
     0
100
AcDbPoint
 10
134.0522781032887
 20
185.6364799114681
 30
0.0
  0
POINT
  5
480
330
475
100
AcDbEntity
  8
DEFPOINTS
 62
     0
100
AcDbPoint
 10
151.5496105974689
 20
185.6364799114681
 30
0.0
  0
ENDBLK
  5
482
330
475
100
AcDbEntity
  8
0
100
AcDbBlockEnd
  0
BLOCK
  5
48F
330
483
100
AcDbEntity
  8
0
100
AcDbBlockBegin
  2
*D52
 70
     1
 10
0.0
 20
0.0
 30
0.0
  3
*D52
  1

  0
LINE
  5
484
330
483
100
AcDbEntity
  8
0
 62
   123
100
AcDbLine
 10
132.0522781032887
 20
186.2190556064238
 30
0.0
 11
132.0522781032887
 21
194.5780681513983
 31
0.0
  0
LINE
  5
485
330
483
100
AcDbEntity
  8
0
 62
   123
100
AcDbLine
 10
136.0522781032887
 20
186.2190556064238
 30
0.0
 11
136.0522781032887
 21
194.5780681513983
 31
0.0
  0
LINE
  5
486
330
483
100
AcDbEntity
  8
0
 62
   123
100
AcDbLine
 10
129.5522781032887
 20
193.9780681513983
 30
0.0
 11
127.0522781032886
 21
193.9780681513983
 31
0.0
  0
LINE
  5
487
330
483
100
AcDbEntity
  8
0
 62
   123
100
AcDbLine
 10
138.5522781032884
 20
193.9780681513983
 30
0.0
 11
141.0522781032887
 21
193.9780681513983
 31
0.0
  0
LINE
  5
488
330
483
100
AcDbEntity
  8
0
 62
   123
100
AcDbLine
 10
132.0522781032887
 20
193.9780681513983
 30
0.0
 11
136.0522781032887
 21
193.9780681513983
 31
0.0
  0
SOLID
  5
489
330
483
100
AcDbEntity
  8
0
 62
   123
100
AcDbTrace
 10
129.5522781032887
 20
194.3947348180651
 30
0.0
 11
129.5522781032887
 21
193.5614014847318
 31
0.0
 12
132.0522781032887
 22
193.9780681513983
 32
0.0
 13
132.0522781032887
 23
193.9780681513983
 33
0.0
  0
SOLID
  5
48A
330
483
100
AcDbEntity
  8
0
 62
   123
100
AcDbTrace
 10
138.5522781032884
 20
194.3947348180651
 30
0.0
 11
138.5522781032884
 21
193.5614014847318
 31
0.0
 12
136.0522781032887
 22
193.9780681513983
 32
0.0
 13
136.0522781032887
 23
193.9780681513983
 33
0.0
  0
MTEXT
  5
48B
330
483
100
AcDbEntity
  8
0
 62
     3
100
AcDbMText
 10
134.0522781032887
 20
197.4280681513983
 30
0.0
 40
3.0
 41
0.0
 71
     5
 72
     1
  1
\A1;\A1;4{\f??|b0|i0|c0|p49;\H0.7x;\S+0.40^ -0;}
1001
ACAD
1000
MTEXTBEGIN
1070
    73
1070
     1
1070
    44
1040
1.0
1070
    74
1070
     0
1000
MTEXTEND
1000
MTEXTBEGIN
1070
    73
1070
     1
1070
    44
1040
1.0
1070
    74
1070
     0
1000
MTEXTEND
1000
MTEXTBEGIN
1070
    73
1070
     1
1070
    44
1040
1.0
1070
    74
1070
     0
1000
MTEXTEND
  0
POINT
  5
48C
330
483
100
AcDbEntity
  8
DEFPOINTS
 62
     0
100
AcDbPoint
 10
132.0522781032887
 20
185.2190556064238
 30
0.0
  0
POINT
  5
48D
330
483
100
AcDbEntity
  8
DEFPOINTS
 62
     0
100
AcDbPoint
 10
136.0522781032887
 20
185.2190556064238
 30
0.0
  0
POINT
  5
48E
330
483
100
AcDbEntity
  8
DEFPOINTS
 62
     0
100
AcDbPoint
 10
136.0522781032887
 20
193.9780681513983
 30
0.0
  0
ENDBLK
  5
490
330
483
100
AcDbEntity
  8
0
100
AcDbBlockEnd
  0
BLOCK
  5
49D
330
491
100
AcDbEntity
  8
0
100
AcDbBlockBegin
  2
*D53
 70
     1
 10
0.0
 20
0.0
 30
0.0
  3
*D53
  1

  0
LINE
  5
492
330
491
100
AcDbEntity
  8
0
 62
   123
100
AcDbLine
 10
87.11889836273988
 20
185.2367751984647
 30
0.0
 11
87.11889836273988
 21
193.5112508570963
 31
0.0
  0
LINE
  5
493
330
491
100
AcDbEntity
  8
0
 62
   123
100
AcDbLine
 10
91.11889836273986
 20
185.2367751984647
 30
0.0
 11
91.11889836273986
 21
193.5112508570963
 31
0.0
  0
LINE
  5
494
330
491
100
AcDbEntity
  8
0
 62
   123
100
AcDbLine
 10
84.61889836273986
 20
192.9112508570965
 30
0.0
 11
82.11889836273986
 21
192.9112508570965
 31
0.0
  0
LINE
  5
495
330
491
100
AcDbEntity
  8
0
 62
   123
100
AcDbLine
 10
93.61889836273986
 20
192.9112508570965
 30
0.0
 11
96.11889836273988
 21
192.9112508570965
 31
0.0
  0
LINE
  5
496
330
491
100
AcDbEntity
  8
0
 62
   123
100
AcDbLine
 10
87.11889836273988
 20
192.9112508570965
 30
0.0
 11
91.11889836273986
 21
192.9112508570965
 31
0.0
  0
SOLID
  5
497
330
491
100
AcDbEntity
  8
0
 62
   123
100
AcDbTrace
 10
84.61889836273986
 20
193.3279175237632
 30
0.0
 11
84.61889836273986
 21
192.4945841904298
 31
0.0
 12
87.11889836273988
 22
192.9112508570965
 32
0.0
 13
87.11889836273988
 23
192.9112508570965
 33
0.0
  0
SOLID
  5
498
330
491
100
AcDbEntity
  8
0
 62
   123
100
AcDbTrace
 10
93.61889836273986
 20
193.3279175237632
 30
0.0
 11
93.61889836273986
 21
192.4945841904298
 31
0.0
 12
91.11889836273986
 22
192.9112508570965
 32
0.0
 13
91.11889836273986
 23
192.9112508570965
 33
0.0
  0
MTEXT
  5
499
330
491
100
AcDbEntity
  8
0
 62
     3
100
AcDbMText
 10
89.11889836273985
 20
196.3612508570964
 30
0.0
 40
3.0
 41
0.0
 71
     5
 72
     1
  1
\A1;\A1;4{\f??|b0|i0|c0|p49;\H0.7x;\S+0^ -0.03;}
1001
ACAD
1000
MTEXTBEGIN
1070
    73
1070
     1
1070
    44
1040
1.0
1070
    74
1070
     0
1000
MTEXTEND
1000
MTEXTBEGIN
1070
    73
1070
     1
1070
    44
1040
1.0
1070
    74
1070
     0
1000
MTEXTEND
1000
MTEXTBEGIN
1070
    73
1070
     1
1070
    44
1040
1.0
1070
    74
1070
     0
1000
MTEXTEND
  0
POINT
  5
49A
330
491
100
AcDbEntity
  8
DEFPOINTS
 62
     0
100
AcDbPoint
 10
87.11889836273988
 20
184.2367751984648
 30
0.0
  0
POINT
  5
49B
330
491
100
AcDbEntity
  8
DEFPOINTS
 62
     0
100
AcDbPoint
 10
91.11889836273986
 20
184.2367751984648
 30
0.0
  0
POINT
  5
49C
330
491
100
AcDbEntity
  8
DEFPOINTS
 62
     0
100
AcDbPoint
 10
91.11889836273986
 20
192.9112508570965
 30
0.0
  0
ENDBLK
  5
49E
330
491
100
AcDbEntity
  8
0
100
AcDbBlockEnd
  0
BLOCK
  5
4A9
330
49F
100
AcDbEntity
  8
0
100
AcDbBlockBegin
  2
*D54
 70
     1
 10
0.0
 20
0.0
 30
0.0
  3
*D54
  1

  0
LINE
  5
4A0
330
49F
100
AcDbEntity
  8
0
 62
   123
100
AcDbLine
 10
224.8747953315596
 20
307.9716946580656
 30
0.0
 11
224.8747953315596
 21
323.7919828649675
 31
0.0
  0
LINE
  5
4A1
330
49F
100
AcDbEntity
  8
0
 62
   123
100
AcDbLine
 10
199.8747953315596
 20
307.9716946580656
 30
0.0
 11
199.8747953315596
 21
323.7919828649675
 31
0.0
  0
LINE
  5
4A2
330
49F
100
AcDbEntity
  8
0
 62
   123
100
AcDbLine
 10
222.3747953315596
 20
323.1919828649675
 30
0.0
 11
202.3747953315594
 21
323.1919828649675
 31
0.0
  0
SOLID
  5
4A3
330
49F
100
AcDbEntity
  8
0
 62
   123
100
AcDbTrace
 10
222.3747953315596
 20
323.6086495316341
 30
0.0
 11
222.3747953315596
 21
322.7753161983008
 31
0.0
 12
224.8747953315596
 22
323.1919828649675
 32
0.0
 13
224.8747953315596
 23
323.1919828649675
 33
0.0
  0
SOLID
  5
4A4
330
49F
100
AcDbEntity
  8
0
 62
   123
100
AcDbTrace
 10
202.3747953315594
 20
323.6086495316341
 30
0.0
 11
202.3747953315594
 21
322.7753161983008
 31
0.0
 12
199.8747953315596
 22
323.1919828649675
 32
0.0
 13
199.8747953315596
 23
323.1919828649675
 33
0.0
  0
MTEXT
  5
4A5
330
49F
100
AcDbEntity
  8
0
 62
     3
100
AcDbMText
 10
212.6857259989554
 20
325.6919828649673
 30
0.0
 40
3.0
 41
0.0
 71
     5
 72
     1
  1
\A1;25
1001
ACAD
1000
MTEXTBEGIN
1070
    73
1070
     1
1070
    44
1040
1.0
1070
    74
1070
     0
1000
MTEXTEND
1000
MTEXTBEGIN
1070
    73
1070
     1
1070
    44
1040
1.0
1070
    74
1070
     0
1000
MTEXTEND
1000
MTEXTBEGIN
1070
    73
1070
     1
1070
    44
1040
1.0
1070
    74
1070
     0
1000
MTEXTEND
  0
POINT
  5
4A6
330
49F
100
AcDbEntity
  8
DEFPOINTS
 62
     0
100
AcDbPoint
 10
224.8747953315596
 20
306.9716946580656
 30
0.0
  0
POINT
  5
4A7
330
49F
100
AcDbEntity
  8
DEFPOINTS
 62
     0
100
AcDbPoint
 10
199.8747953315596
 20
306.9716946580656
 30
0.0
  0
POINT
  5
4A8
330
49F
100
AcDbEntity
  8
DEFPOINTS
 62
     0
100
AcDbPoint
 10
199.8747953315596
 20
323.1919828649675
 30
0.0
  0
ENDBLK
  5
4AA
330
49F
100
AcDbEntity
  8
0
100
AcDbBlockEnd
  0
BLOCK
  5
4B5
330
4AB
100
AcDbEntity
  8
0
100
AcDbBlockBegin
  2
*D55
 70
     1
 10
0.0
 20
0.0
 30
0.0
  3
*D55
  1

  0
LINE
  5
4AC
330
4AB
100
AcDbEntity
  8
0
 62
   123
100
AcDbLine
 10
199.8747953315596
 20
295.9716946580656
 30
0.0
 11
199.8747953315596
 21
238.0756802764405
 31
0.0
  0
LINE
  5
4AD
330
4AB
100
AcDbEntity
  8
0
 62
   123
100
AcDbLine
 10
231.8747953315631
 20
255.9716946580656
 30
0.0
 11
231.8747953315631
 21
238.0756802764405
 31
0.0
  0
LINE
  5
4AE
330
4AB
100
AcDbEntity
  8
0
 62
   123
100
AcDbLine
 10
202.3747953315594
 20
238.6756802764407
 30
0.0
 11
229.3747953315631
 21
238.6756802764407
 31
0.0
  0
SOLID
  5
4AF
330
4AB
100
AcDbEntity
  8
0
 62
   123
100
AcDbTrace
 10
202.3747953315594
 20
239.0923469431073
 30
0.0
 11
202.3747953315594
 21
238.2590136097741
 31
0.0
 12
199.8747953315596
 22
238.6756802764407
 32
0.0
 13
199.8747953315596
 23
238.6756802764407
 33
0.0
  0
SOLID
  5
4B0
330
4AB
100
AcDbEntity
  8
0
 62
   123
100
AcDbTrace
 10
229.3747953315631
 20
239.0923469431073
 30
0.0
 11
229.3747953315631
 21
238.2590136097741
 31
0.0
 12
231.8747953315631
 22
238.6756802764407
 32
0.0
 13
231.8747953315631
 23
238.6756802764407
 33
0.0
  0
MTEXT
  5
4B1
330
4AB
100
AcDbEntity
  8
0
 62
     3
100
AcDbMText
 10
215.8747953315613
 20
241.1756802764405
 30
0.0
 40
3.0
 41
0.0
 71
     5
 72
     1
  1
\A1;32
1001
ACAD
1000
MTEXTBEGIN
1070
    73
1070
     1
1070
    44
1040
1.0
1070
    74
1070
     0
1000
MTEXTEND
1000
MTEXTBEGIN
1070
    73
1070
     1
1070
    44
1040
1.0
1070
    74
1070
     0
1000
MTEXTEND
1000
MTEXTBEGIN
1070
    73
1070
     1
1070
    44
1040
1.0
1070
    74
1070
     0
1000
MTEXTEND
  0
POINT
  5
4B2
330
4AB
100
AcDbEntity
  8
DEFPOINTS
 62
     0
100
AcDbPoint
 10
199.8747953315596
 20
296.9716946580656
 30
0.0
  0
POINT
  5
4B3
330
4AB
100
AcDbEntity
  8
DEFPOINTS
 62
     0
100
AcDbPoint
 10
231.8747953315631
 20
256.9716946580654
 30
0.0
  0
POINT
  5
4B4
330
4AB
100
AcDbEntity
  8
DEFPOINTS
 62
     0
100
AcDbPoint
 10
231.8747953315631
 20
238.6756802764407
 30
0.0
  0
ENDBLK
  5
4B6
330
4AB
100
AcDbEntity
  8
0
100
AcDbBlockEnd
  0
BLOCK
  5
4C1
330
4B7
100
AcDbEntity
  8
0
100
AcDbBlockBegin
  2
*D56
 70
     1
 10
0.0
 20
0.0
 30
0.0
  3
*D56
  1

  0
LINE
  5
4B8
330
4B7
100
AcDbEntity
  8
0
 62
   123
100
AcDbLine
 10
228.3747953315596
 20
316.9716946580656
 30
0.0
 11
167.10874940911
 21
316.9716946580656
 31
0.0
  0
LINE
  5
4B9
330
4B7
100
AcDbEntity
  8
0
 62
   123
100
AcDbLine
 10
215.5150770862601
 20
286.9716946580656
 30
0.0
 11
167.10874940911
 21
286.9716946580656
 31
0.0
  0
LINE
  5
4BA
330
4B7
100
AcDbEntity
  8
0
 62
   123
100
AcDbLine
 10
167.7087494091102
 20
314.4716946580656
 30
0.0
 11
167.7087494091102
 21
289.4716946580656
 31
0.0
  0
SOLID
  5
4BB
330
4B7
100
AcDbEntity
  8
0
 62
   123
100
AcDbTrace
 10
167.2920827424435
 20
314.4716946580656
 30
0.0
 11
168.1254160757768
 21
314.4716946580656
 31
0.0
 12
167.7087494091102
 22
316.9716946580656
 32
0.0
 13
167.7087494091102
 23
316.9716946580656
 33
0.0
  0
SOLID
  5
4BC
330
4B7
100
AcDbEntity
  8
0
 62
   123
100
AcDbTrace
 10
167.2920827424435
 20
289.4716946580656
 30
0.0
 11
168.1254160757768
 21
289.4716946580656
 31
0.0
 12
167.7087494091102
 22
286.9716946580656
 32
0.0
 13
167.7087494091102
 23
286.9716946580656
 33
0.0
  0
MTEXT
  5
4BD
330
4B7
100
AcDbEntity
  8
0
 62
     3
100
AcDbMText
 10
165.20874940911
 20
301.7216946580656
 30
0.0
 40
3.0
 41
0.0
 71
     5
 72
     1
  1
\A1;{\f??|b0|i0|c0|p49;%%c}30
 11
0.0000000000000001
 21
1.0
 31
0.0
1001
ACAD
1000
MTEXTBEGIN
1070
    73
1070
     1
1070
    44
1040
1.0
1070
    74
1070
     0
1000
MTEXTEND
1000
MTEXTBEGIN
1070
    73
1070
     1
1070
    44
1040
1.0
1070
    74
1070
     0
1000
MTEXTEND
1000
MTEXTBEGIN
1070
    73
1070
     1
1070
    44
1040
1.0
1070
    74
1070
     0
1000
MTEXTEND
  0
POINT
  5
4BE
330
4B7
100
AcDbEntity
  8
DEFPOINTS
 62
     0
100
AcDbPoint
 10
229.3747953315594
 20
316.9716946580656
 30
0.0
  0
POINT
  5
4BF
330
4B7
100
AcDbEntity
  8
DEFPOINTS
 62
     0
100
AcDbPoint
 10
216.51507708626
 20
286.9716946580656
 30
0.0
  0
POINT
  5
4C0
330
4B7
100
AcDbEntity
  8
DEFPOINTS
 62
     0
100
AcDbPoint
 10
167.7087494091102
 20
286.9716946580656
 30
0.0
  0
ENDBLK
  5
4C2
330
4B7
100
AcDbEntity
  8
0
100
AcDbBlockEnd
  0
BLOCK
  5
4CD
330
4C3
100
AcDbEntity
  8
0
100
AcDbBlockBegin
  2
*D57
 70
     1
 10
0.0
 20
0.0
 30
0.0
  3
*D57
  1

  0
LINE
  5
4C4
330
4C3
100
AcDbEntity
  8
0
 62
   123
100
AcDbLine
 10
194.9766565303324
 20
301.9716946580656
 30
0.0
 11
176.0025492291446
 21
301.9716946580656
 31
0.0
  0
LINE
  5
4C5
330
4C3
100
AcDbEntity
  8
0
 62
   123
100
AcDbLine
 10
215.5150770862601
 20
286.9716946580646
 30
0.0
 11
176.0025492291446
 21
286.9716946580646
 31
0.0
  0
LINE
  5
4C6
330
4C3
100
AcDbEntity
  8
0
 62
   123
100
AcDbLine
 10
176.6025492291445
 20
299.4716946580656
 30
0.0
 11
176.6025492291445
 21
289.4716946580647
 31
0.0
  0
SOLID
  5
4C7
330
4C3
100
AcDbEntity
  8
0
 62
   123
100
AcDbTrace
 10
176.1858825624779
 20
299.4716946580656
 30
0.0
 11
177.0192158958113
 21
299.4716946580656
 31
0.0
 12
176.6025492291445
 22
301.9716946580656
 32
0.0
 13
176.6025492291445
 23
301.9716946580656
 33
0.0
  0
SOLID
  5
4C8
330
4C3
100
AcDbEntity
  8
0
 62
   123
100
AcDbTrace
 10
176.1858825624779
 20
289.4716946580647
 30
0.0
 11
177.0192158958113
 21
289.4716946580647
 31
0.0
 12
176.6025492291445
 22
286.9716946580646
 32
0.0
 13
176.6025492291445
 23
286.9716946580646
 33
0.0
  0
MTEXT
  5
4C9
330
4C3
100
AcDbEntity
  8
0
 62
     3
100
AcDbMText
 10
174.1025492291445
 20
294.4716946580651
 30
0.0
 40
3.0
 41
0.0
 71
     5
 72
     1
  1
\A1;15
 11
0.0000000000000001
 21
1.0
 31
0.0
1001
ACAD
1000
MTEXTBEGIN
1070
    73
1070
     1
1070
    44
1040
1.0
1070
    74
1070
     0
1000
MTEXTEND
1000
MTEXTBEGIN
1070
    73
1070
     1
1070
    44
1040
1.0
1070
    74
1070
     0
1000
MTEXTEND
1000
MTEXTBEGIN
1070
    73
1070
     1
1070
    44
1040
1.0
1070
    74
1070
     0
1000
MTEXTEND
  0
POINT
  5
4CA
330
4C3
100
AcDbEntity
  8
DEFPOINTS
 62
     0
100
AcDbPoint
 10
195.9766565303324
 20
301.9716946580656
 30
0.0
  0
POINT
  5
4CB
330
4C3
100
AcDbEntity
  8
DEFPOINTS
 62
     0
100
AcDbPoint
 10
216.51507708626
 20
286.9716946580646
 30
0.0
  0
POINT
  5
4CC
330
4C3
100
AcDbEntity
  8
DEFPOINTS
 62
     0
100
AcDbPoint
 10
176.6025492291445
 20
286.9716946580646
 30
0.0
  0
ENDBLK
  5
4CE
330
4C3
100
AcDbEntity
  8
0
100
AcDbBlockEnd
  0
BLOCK
  5
4DB
330
4CF
100
AcDbEntity
  8
0
100
AcDbBlockBegin
  2
*D58
 70
     1
 10
0.0
 20
0.0
 30
0.0
  3
*D58
  1

  0
LINE
  5
4D0
330
4CF
100
AcDbEntity
  8
0
 62
   123
100
AcDbLine
 10
198.8747953315596
 20
296.9716946580646
 30
0.0
 11
184.4501320425828
 21
296.9716946580646
 31
0.0
  0
LINE
  5
4D1
330
4CF
100
AcDbEntity
  8
0
 62
   123
100
AcDbLine
 10
198.8747953315596
 20
306.9716946580646
 30
0.0
 11
184.4501320425828
 21
306.9716946580646
 31
0.0
  0
LINE
  5
4D2
330
4CF
100
AcDbEntity
  8
0
 62
   123
100
AcDbLine
 10
185.0501320425828
 20
294.4716946580646
 30
0.0
 11
185.0501320425828
 21
291.9716946580646
 31
0.0
  0
LINE
  5
4D3
330
4CF
100
AcDbEntity
  8
0
 62
   123
100
AcDbLine
 10
185.0501320425828
 20
309.4716946580646
 30
0.0
 11
185.0501320425829
 21
347.7764732956662
 31
0.0
  0
LINE
  5
4D4
330
4CF
100
AcDbEntity
  8
0
 62
   123
100
AcDbLine
 10
185.0501320425828
 20
296.9716946580646
 30
0.0
 11
185.0501320425828
 21
306.9716946580646
 31
0.0
  0
SOLID
  5
4D5
330
4CF
100
AcDbEntity
  8
0
 62
   123
100
AcDbTrace
 10
184.6334653759161
 20
294.4716946580646
 30
0.0
 11
185.4667987092495
 21
294.4716946580646
 31
0.0
 12
185.0501320425828
 22
296.9716946580646
 32
0.0
 13
185.0501320425828
 23
296.9716946580646
 33
0.0
  0
SOLID
  5
4D6
330
4CF
100
AcDbEntity
  8
0
 62
   123
100
AcDbTrace
 10
184.6334653759161
 20
309.4716946580646
 30
0.0
 11
185.4667987092495
 21
309.4716946580646
 31
0.0
 12
185.0501320425828
 22
306.9716946580646
 32
0.0
 13
185.0501320425828
 23
306.9716946580646
 33
0.0
  0
MTEXT
  5
4D7
330
4CF
100
AcDbEntity
  8
0
 62
     3
100
AcDbMText
 10
181.0999820425828
 20
332.9609018670946
 30
0.0
 40
3.0
 41
0.0
 71
     5
 72
     1
  1
\A1;\A1;{\f??|b0|i0|c0|p49;%%C10\H0.7x;\S+0^ -0.015;\H1.429x;(h7)}
 11
0.0000000000000001
 21
1.0
 31
0.0
1001
ACAD
1000
MTEXTBEGIN
1070
    73
1070
     1
1070
    44
1040
1.0
1070
    74
1070
     0
1000
MTEXTEND
1000
MTEXTBEGIN
1070
    73
1070
     1
1070
    44
1040
1.0
1070
    74
1070
     0
1000
MTEXTEND
1000
MTEXTBEGIN
1070
    73
1070
     1
1070
    44
1040
1.0
1070
    74
1070
     0
1000
MTEXTEND
  0
POINT
  5
4D8
330
4CF
100
AcDbEntity
  8
DEFPOINTS
 62
     0
100
AcDbPoint
 10
199.8747953315596
 20
296.9716946580646
 30
0.0
  0
POINT
  5
4D9
330
4CF
100
AcDbEntity
  8
DEFPOINTS
 62
     0
100
AcDbPoint
 10
199.8747953315596
 20
306.9716946580646
 30
0.0
  0
POINT
  5
4DA
330
4CF
100
AcDbEntity
  8
DEFPOINTS
 62
     0
100
AcDbPoint
 10
185.0501320425828
 20
306.9716946580646
 30
0.0
  0
ENDBLK
  5
4DC
330
4CF
100
AcDbEntity
  8
0
100
AcDbBlockEnd
  0
BLOCK
  5
4E9
330
4DD
100
AcDbEntity
  8
0
100
AcDbBlockBegin
  2
*D59
 70
     1
 10
0.0
 20
0.0
 30
0.0
  3
*D59
  1

  0
LINE
  5
4DE
330
4DD
100
AcDbEntity
  8
0
 62
   123
100
AcDbLine
 10
231.8747953315631
 20
322.9716946580647
 30
0.0
 11
231.8747953315631
 21
331.7538333612748
 31
0.0
  0
LINE
  5
4DF
330
4DD
100
AcDbEntity
  8
0
 62
   123
100
AcDbLine
 10
228.8747953315631
 20
317.4716946580656
 30
0.0
 11
228.8747953315631
 21
331.7538333612748
 31
0.0
  0
LINE
  5
4E0
330
4DD
100
AcDbEntity
  8
0
 62
   123
100
AcDbLine
 10
234.3747953315633
 20
331.1538333612748
 30
0.0
 11
236.8747953315633
 21
331.1538333612748
 31
0.0
  0
LINE
  5
4E1
330
4DD
100
AcDbEntity
  8
0
 62
   123
100
AcDbLine
 10
226.3747953315633
 20
331.1538333612748
 30
0.0
 11
223.8747953315633
 21
331.1538333612748
 31
0.0
  0
LINE
  5
4E2
330
4DD
100
AcDbEntity
  8
0
 62
   123
100
AcDbLine
 10
231.8747953315631
 20
331.1538333612748
 30
0.0
 11
228.8747953315631
 21
331.1538333612748
 31
0.0
  0
SOLID
  5
4E3
330
4DD
100
AcDbEntity
  8
0
 62
   123
100
AcDbTrace
 10
234.3747953315633
 20
331.5705000279415
 30
0.0
 11
234.3747953315633
 21
330.7371666946081
 31
0.0
 12
231.8747953315631
 22
331.1538333612748
 32
0.0
 13
231.8747953315631
 23
331.1538333612748
 33
0.0
  0
SOLID
  5
4E4
330
4DD
100
AcDbEntity
  8
0
 62
   123
100
AcDbTrace
 10
226.3747953315633
 20
331.5705000279415
 30
0.0
 11
226.3747953315633
 21
330.7371666946081
 31
0.0
 12
228.8747953315631
 22
331.1538333612748
 32
0.0
 13
228.8747953315631
 23
331.1538333612748
 33
0.0
  0
MTEXT
  5
4E5
330
4DD
100
AcDbEntity
  8
0
 62
     3
100
AcDbMText
 10
230.3747953315633
 20
333.6538333612748
 30
0.0
 40
3.0
 41
0.0
 71
     5
 72
     1
  1
\A1;3
1001
ACAD
1000
MTEXTBEGIN
1070
    73
1070
     1
1070
    44
1040
1.0
1070
    74
1070
     0
1000
MTEXTEND
1000
MTEXTBEGIN
1070
    73
1070
     1
1070
    44
1040
1.0
1070
    74
1070
     0
1000
MTEXTEND
1000
MTEXTBEGIN
1070
    73
1070
     1
1070
    44
1040
1.0
1070
    74
1070
     0
1000
MTEXTEND
  0
POINT
  5
4E6
330
4DD
100
AcDbEntity
  8
DEFPOINTS
 62
     0
100
AcDbPoint
 10
231.8747953315631
 20
321.9716946580646
 30
0.0
  0
POINT
  5
4E7
330
4DD
100
AcDbEntity
  8
DEFPOINTS
 62
     0
100
AcDbPoint
 10
228.8747953315631
 20
316.4716946580656
 30
0.0
  0
POINT
  5
4E8
330
4DD
100
AcDbEntity
  8
DEFPOINTS
 62
     0
100
AcDbPoint
 10
228.8747953315631
 20
331.1538333612748
 30
0.0
  0
ENDBLK
  5
4EA
330
4DD
100
AcDbEntity
  8
0
100
AcDbBlockEnd
  0
BLOCK
  5
4F5
330
4EB
100
AcDbEntity
  8
0
100
AcDbBlockBegin
  2
*D60
 70
     1
 10
0.0
 20
0.0
 30
0.0
  3
*D60
  1

  0
LINE
  5
4EC
330
4EB
100
AcDbEntity
  8
0
 62
   123
100
AcDbLine
 10
273.8747953315633
 20
250.9716946580645
 30
0.0
 11
273.8747953315633
 21
238.0756802764393
 31
0.0
  0
LINE
  5
4ED
330
4EB
100
AcDbEntity
  8
0
 62
   123
100
AcDbLine
 10
231.8747953315631
 20
250.9716946580645
 30
0.0
 11
231.8747953315631
 21
238.0756802764393
 31
0.0
  0
LINE
  5
4EE
330
4EB
100
AcDbEntity
  8
0
 62
   123
100
AcDbLine
 10
271.3747953315631
 20
238.6756802764393
 30
0.0
 11
234.3747953315633
 21
238.6756802764393
 31
0.0
  0
SOLID
  5
4EF
330
4EB
100
AcDbEntity
  8
0
 62
   123
100
AcDbTrace
 10
271.3747953315631
 20
239.092346943106
 30
0.0
 11
271.3747953315631
 21
238.2590136097725
 31
0.0
 12
273.8747953315633
 22
238.6756802764393
 32
0.0
 13
273.8747953315633
 23
238.6756802764393
 33
0.0
  0
SOLID
  5
4F0
330
4EB
100
AcDbEntity
  8
0
 62
   123
100
AcDbTrace
 10
234.3747953315633
 20
239.092346943106
 30
0.0
 11
234.3747953315633
 21
238.2590136097725
 31
0.0
 12
231.8747953315631
 22
238.6756802764393
 32
0.0
 13
231.8747953315631
 23
238.6756802764393
 33
0.0
  0
MTEXT
  5
4F1
330
4EB
100
AcDbEntity
  8
0
 62
     3
100
AcDbMText
 10
252.8747953315633
 20
241.1756802764393
 30
0.0
 40
3.0
 41
0.0
 71
     5
 72
     1
  1
\A1;L
1001
ACAD
1000
MTEXTBEGIN
1070
    73
1070
     1
1070
    44
1040
1.0
1070
    74
1070
     0
1000
MTEXTEND
1000
MTEXTBEGIN
1070
    73
1070
     1
1070
    44
1040
1.0
1070
    74
1070
     0
1000
MTEXTEND
1000
MTEXTBEGIN
1070
    73
1070
     1
1070
    44
1040
1.0
1070
    74
1070
     0
1000
MTEXTEND
  0
POINT
  5
4F2
330
4EB
100
AcDbEntity
  8
DEFPOINTS
 62
     0
100
AcDbPoint
 10
273.8747953315633
 20
251.9716946580647
 30
0.0
  0
POINT
  5
4F3
330
4EB
100
AcDbEntity
  8
DEFPOINTS
 62
     0
100
AcDbPoint
 10
231.8747953315631
 20
251.9716946580647
 30
0.0
  0
POINT
  5
4F4
330
4EB
100
AcDbEntity
  8
DEFPOINTS
 62
     0
100
AcDbPoint
 10
231.8747953315631
 20
238.6756802764393
 30
0.0
  0
ENDBLK
  5
4F6
330
4EB
100
AcDbEntity
  8
0
100
AcDbBlockEnd
  0
BLOCK
  5
501
330
4F7
100
AcDbEntity
  8
0
100
AcDbBlockBegin
  2
*D61
 70
     1
 10
0.0
 20
0.0
 30
0.0
  3
*D61
  1

  0
LINE
  5
53E
330
4F7
100
AcDbEntity
  8
0
 62
   123
100
AcDbLine
 10
69.33344819959893
 20
443.4871286697958
 30
0.0
 11
69.33344819959893
 21
460.6549237957016
 31
0.0
  0
LINE
  5
53F
330
4F7
100
AcDbEntity
  8
0
 62
   123
100
AcDbLine
 10
139.3334481995879
 20
443.4871286697958
 30
0.0
 11
139.3334481995879
 21
460.6549237957016
 31
0.0
  0
LINE
  5
540
330
4F7
100
AcDbEntity
  8
0
 62
   123
100
AcDbLine
 10
71.83344819959895
 20
460.0549237957015
 30
0.0
 11
136.833448199588
 21
460.0549237957015
 31
0.0
  0
SOLID
  5
541
330
4F7
100
AcDbEntity
  8
0
 62
   123
100
AcDbTrace
 10
71.83344819959895
 20
460.4715904623683
 30
0.0
 11
71.83344819959895
 21
459.6382571290347
 31
0.0
 12
69.33344819959893
 22
460.0549237957015
 32
0.0
 13
69.33344819959893
 23
460.0549237957015
 33
0.0
  0
SOLID
  5
542
330
4F7
100
AcDbEntity
  8
0
 62
   123
100
AcDbTrace
 10
136.833448199588
 20
460.4715904623683
 30
0.0
 11
136.833448199588
 21
459.6382571290347
 31
0.0
 12
139.3334481995879
 22
460.0549237957015
 32
0.0
 13
139.3334481995879
 23
460.0549237957015
 33
0.0
  0
MTEXT
  5
543
330
4F7
100
AcDbEntity
  8
0
 62
     3
100
AcDbMText
 10
104.3334481995878
 20
462.5549237957016
 30
0.0
 40
3.0
 41
0.0
 71
     5
 72
     1
  1
\A1;70
1001
ACAD
1000
MTEXTBEGIN
1070
    73
1070
     1
1070
    44
1040
1.0
1070
    74
1070
     0
1000
MTEXTEND
1000
MTEXTBEGIN
1070
    73
1070
     1
1070
    44
1040
1.0
1070
    74
1070
     0
1000
MTEXTEND
1000
MTEXTBEGIN
1070
    73
1070
     1
1070
    44
1040
1.0
1070
    74
1070
     0
1000
MTEXTEND
  0
POINT
  5
544
330
4F7
100
AcDbEntity
  8
DEFPOINTS
 62
     0
100
AcDbPoint
 10
69.33344819959893
 20
442.4871286697957
 30
0.0
  0
POINT
  5
545
330
4F7
100
AcDbEntity
  8
DEFPOINTS
 62
     0
100
AcDbPoint
 10
139.3334481995879
 20
442.4871286697957
 30
0.0
  0
POINT
  5
546
330
4F7
100
AcDbEntity
  8
DEFPOINTS
 62
     0
100
AcDbPoint
 10
139.3334481995879
 20
460.0549237957015
 30
0.0
  0
ENDBLK
  5
502
330
4F7
100
AcDbEntity
  8
0
100
AcDbBlockEnd
  0
BLOCK
  5
50D
330
503
100
AcDbEntity
  8
0
100
AcDbBlockBegin
  2
*D62
 70
     1
 10
0.0
 20
0.0
 30
0.0
  3
*D62
  1

  0
LINE
  5
504
330
503
100
AcDbEntity
  8
0
 62
   123
100
AcDbLine
 10
195.8948102018401
 20
448.4871286697956
 30
0.0
 11
195.8948102018401
 21
467.6742064942279
 31
0.0
  0
LINE
  5
505
330
503
100
AcDbEntity
  8
0
 62
   123
100
AcDbLine
 10
225.8948102018385
 20
448.4871286697956
 30
0.0
 11
225.8948102018385
 21
467.6742064942279
 31
0.0
  0
LINE
  5
506
330
503
100
AcDbEntity
  8
0
 62
   123
100
AcDbLine
 10
198.3948102018403
 20
467.0742064942278
 30
0.0
 11
223.3948102018384
 21
467.0742064942278
 31
0.0
  0
SOLID
  5
507
330
503
100
AcDbEntity
  8
0
 62
   123
100
AcDbTrace
 10
198.3948102018403
 20
467.4908731608944
 30
0.0
 11
198.3948102018403
 21
466.657539827561
 31
0.0
 12
195.8948102018401
 22
467.0742064942278
 32
0.0
 13
195.8948102018401
 23
467.0742064942278
 33
0.0
  0
SOLID
  5
508
330
503
100
AcDbEntity
  8
0
 62
   123
100
AcDbTrace
 10
223.3948102018384
 20
467.4908731608944
 30
0.0
 11
223.3948102018384
 21
466.657539827561
 31
0.0
 12
225.8948102018385
 22
467.0742064942278
 32
0.0
 13
225.8948102018385
 23
467.0742064942278
 33
0.0
  0
MTEXT
  5
509
330
503
100
AcDbEntity
  8
0
 62
     3
100
AcDbMText
 10
210.8948102018384
 20
469.5742064942278
 30
0.0
 40
3.0
 41
0.0
 71
     5
 72
     1
  1
\A1;30
1001
ACAD
1000
MTEXTBEGIN
1070
    73
1070
     1
1070
    44
1040
1.0
1070
    74
1070
     0
1000
MTEXTEND
1000
MTEXTBEGIN
1070
    73
1070
     1
1070
    44
1040
1.0
1070
    74
1070
     0
1000
MTEXTEND
1000
MTEXTBEGIN
1070
    73
1070
     1
1070
    44
1040
1.0
1070
    74
1070
     0
1000
MTEXTEND
  0
POINT
  5
50A
330
503
100
AcDbEntity
  8
DEFPOINTS
 62
     0
100
AcDbPoint
 10
195.8948102018401
 20
447.4871286697958
 30
0.0
  0
POINT
  5
50B
330
503
100
AcDbEntity
  8
DEFPOINTS
 62
     0
100
AcDbPoint
 10
225.8948102018385
 20
447.4871286697958
 30
0.0
  0
POINT
  5
50C
330
503
100
AcDbEntity
  8
DEFPOINTS
 62
     0
100
AcDbPoint
 10
225.8948102018385
 20
467.0742064942278
 30
0.0
  0
ENDBLK
  5
50E
330
503
100
AcDbEntity
  8
0
100
AcDbBlockEnd
  0
BLOCK
  5
51B
330
50F
100
AcDbEntity
  8
0
100
AcDbBlockBegin
  2
*D63
 70
     1
 10
0.0
 20
0.0
 30
0.0
  3
*D63
  1

  0
LINE
  5
510
330
50F
100
AcDbEntity
  8
0
 62
   123
100
AcDbLine
 10
193.8948102018384
 20
445.4871286697948
 30
0.0
 11
193.8948102018384
 21
457.5479978162726
 31
0.0
  0
LINE
  5
511
330
50F
100
AcDbEntity
  8
0
 62
   123
100
AcDbLine
 10
195.8948102018401
 20
448.4871286697948
 30
0.0
 11
195.8948102018401
 21
457.5479978162726
 31
0.0
  0
LINE
  5
512
330
50F
100
AcDbEntity
  8
0
 62
   123
100
AcDbLine
 10
198.3948102018403
 20
456.9479978162727
 30
0.0
 11
200.8948102018403
 21
456.9479978162727
 31
0.0
  0
LINE
  5
513
330
50F
100
AcDbEntity
  8
0
 62
   123
100
AcDbLine
 10
191.3948102018384
 20
456.9479978162727
 30
0.0
 11
184.8948102018384
 21
456.9479978162727
 31
0.0
  0
LINE
  5
514
330
50F
100
AcDbEntity
  8
0
 62
   123
100
AcDbLine
 10
195.8948102018401
 20
456.9479978162727
 30
0.0
 11
193.8948102018384
 21
456.9479978162727
 31
0.0
  0
SOLID
  5
515
330
50F
100
AcDbEntity
  8
0
 62
   123
100
AcDbTrace
 10
198.3948102018403
 20
457.3646644829393
 30
0.0
 11
198.3948102018403
 21
456.5313311496058
 31
0.0
 12
195.8948102018401
 22
456.9479978162727
 32
0.0
 13
195.8948102018401
 23
456.9479978162727
 33
0.0
  0
SOLID
  5
516
330
50F
100
AcDbEntity
  8
0
 62
   123
100
AcDbTrace
 10
191.3948102018384
 20
457.3646644829393
 30
0.0
 11
191.3948102018384
 21
456.5313311496058
 31
0.0
 12
193.8948102018384
 22
456.9479978162727
 32
0.0
 13
193.8948102018384
 23
456.9479978162727
 33
0.0
  0
MTEXT
  5
517
330
50F
100
AcDbEntity
  8
0
 62
     3
100
AcDbMText
 10
186.8948102018384
 20
459.4479978162726
 30
0.0
 40
3.0
 41
0.0
 71
     5
 72
     1
  1
\A1;2
1001
ACAD
1000
MTEXTBEGIN
1070
    73
1070
     1
1070
    44
1040
1.0
1070
    74
1070
     0
1000
MTEXTEND
1000
MTEXTBEGIN
1070
    73
1070
     1
1070
    44
1040
1.0
1070
    74
1070
     0
1000
MTEXTEND
1000
MTEXTBEGIN
1070
    73
1070
     1
1070
    44
1040
1.0
1070
    74
1070
     0
1000
MTEXTEND
  0
POINT
  5
518
330
50F
100
AcDbEntity
  8
DEFPOINTS
 62
     0
100
AcDbPoint
 10
193.8948102018384
 20
444.4871286697948
 30
0.0
  0
POINT
  5
519
330
50F
100
AcDbEntity
  8
DEFPOINTS
 62
     0
100
AcDbPoint
 10
195.8948102018401
 20
447.4871286697948
 30
0.0
  0
POINT
  5
51A
330
50F
100
AcDbEntity
  8
DEFPOINTS
 62
     0
100
AcDbPoint
 10
195.8948102018401
 20
456.9479978162727
 30
0.0
  0
ENDBLK
  5
51C
330
50F
100
AcDbEntity
  8
0
100
AcDbBlockEnd
  0
BLOCK
  5
527
330
51D
100
AcDbEntity
  8
0
100
AcDbBlockBegin
  2
*D64
 70
     1
 10
0.0
 20
0.0
 30
0.0
  3
*D64
  1

  0
LINE
  5
51E
330
51D
100
AcDbEntity
  8
0
 62
   123
100
AcDbLine
 10
182.8948102018384
 20
416.3266286697943
 30
0.0
 11
182.8948102018384
 21
467.6742064942279
 31
0.0
  0
LINE
  5
51F
330
51D
100
AcDbEntity
  8
0
 62
   123
100
AcDbLine
 10
195.8948102018401
 20
448.4871286697956
 30
0.0
 11
195.8948102018401
 21
467.6742064942279
 31
0.0
  0
LINE
  5
520
330
51D
100
AcDbEntity
  8
0
 62
   123
100
AcDbLine
 10
185.3948102018384
 20
467.0742064942278
 30
0.0
 11
193.3948102018403
 21
467.0742064942278
 31
0.0
  0
SOLID
  5
521
330
51D
100
AcDbEntity
  8
0
 62
   123
100
AcDbTrace
 10
185.3948102018384
 20
467.4908731608944
 30
0.0
 11
185.3948102018384
 21
466.657539827561
 31
0.0
 12
182.8948102018384
 22
467.0742064942278
 32
0.0
 13
182.8948102018384
 23
467.0742064942278
 33
0.0
  0
SOLID
  5
522
330
51D
100
AcDbEntity
  8
0
 62
   123
100
AcDbTrace
 10
193.3948102018403
 20
467.4908731608944
 30
0.0
 11
193.3948102018403
 21
466.657539827561
 31
0.0
 12
195.8948102018401
 22
467.0742064942278
 32
0.0
 13
195.8948102018401
 23
467.0742064942278
 33
0.0
  0
MTEXT
  5
523
330
51D
100
AcDbEntity
  8
0
 62
     3
100
AcDbMText
 10
189.3948102018384
 20
469.5742064942278
 30
0.0
 40
3.0
 41
0.0
 71
     5
 72
     1
  1
\A1;13
1001
ACAD
1000
MTEXTBEGIN
1070
    73
1070
     1
1070
    44
1040
1.0
1070
    74
1070
     0
1000
MTEXTEND
1000
MTEXTBEGIN
1070
    73
1070
     1
1070
    44
1040
1.0
1070
    74
1070
     0
1000
MTEXTEND
1000
MTEXTBEGIN
1070
    73
1070
     1
1070
    44
1040
1.0
1070
    74
1070
     0
1000
MTEXTEND
  0
POINT
  5
524
330
51D
100
AcDbEntity
  8
DEFPOINTS
 62
     0
100
AcDbPoint
 10
182.8948102018384
 20
415.3266286697943
 30
0.0
  0
POINT
  5
525
330
51D
100
AcDbEntity
  8
DEFPOINTS
 62
     0
100
AcDbPoint
 10
195.8948102018401
 20
447.4871286697958
 30
0.0
  0
POINT
  5
526
330
51D
100
AcDbEntity
  8
DEFPOINTS
 62
     0
100
AcDbPoint
 10
195.8948102018401
 20
467.0742064942278
 30
0.0
  0
ENDBLK
  5
528
330
51D
100
AcDbEntity
  8
0
100
AcDbBlockEnd
  0
BLOCK
  5
533
330
529
100
AcDbEntity
  8
0
100
AcDbBlockBegin
  2
*D65
 70
     1
 10
0.0
 20
0.0
 30
0.0
  3
*D65
  1

  0
LINE
  5
535
330
529
100
AcDbEntity
  8
0
 62
   123
100
AcDbLine
 10
192.8948102018384
 20
444.4871286697956
 30
0.0
 11
170.6969853248305
 21
444.4871286697956
 31
0.0
  0
LINE
  5
536
330
529
100
AcDbEntity
  8
0
 62
   123
100
AcDbLine
 10
192.8948102018384
 20
380.4871286697957
 30
0.0
 11
170.6969853248305
 21
380.4871286697957
 31
0.0
  0
LINE
  5
537
330
529
100
AcDbEntity
  8
0
 62
   123
100
AcDbLine
 10
171.2969853248305
 20
441.9871286697957
 30
0.0
 11
171.2969853248305
 21
382.9871286697957
 31
0.0
  0
SOLID
  5
538
330
529
100
AcDbEntity
  8
0
 62
   123
100
AcDbTrace
 10
170.8803186581639
 20
441.9871286697957
 30
0.0
 11
171.7136519914971
 21
441.9871286697957
 31
0.0
 12
171.2969853248305
 22
444.4871286697956
 32
0.0
 13
171.2969853248305
 23
444.4871286697956
 33
0.0
  0
SOLID
  5
539
330
529
100
AcDbEntity
  8
0
 62
   123
100
AcDbTrace
 10
170.8803186581639
 20
382.9871286697957
 30
0.0
 11
171.7136519914971
 21
382.9871286697957
 31
0.0
 12
171.2969853248305
 22
380.4871286697957
 32
0.0
 13
171.2969853248305
 23
380.4871286697957
 33
0.0
  0
MTEXT
  5
53A
330
529
100
AcDbEntity
  8
0
 62
     3
100
AcDbMText
 10
167.3468353248305
 20
409.8499875774947
 30
0.0
 40
3.0
 41
0.0
 71
     5
 72
     1
  1
\A1;\A1;%%C{\f??|b0|i0|c0|p49;64\H0.7x;\S+0^ -0.030;\H1.429x;(h7)} 
 11
0.0000000000000001
 21
1.0
 31
0.0
1001
ACAD
1000
MTEXTBEGIN
1070
    73
1070
     1
1070
    44
1040
1.0
1070
    74
1070
     0
1000
MTEXTEND
1000
MTEXTBEGIN
1070
    73
1070
     1
1070
    44
1040
1.0
1070
    74
1070
     0
1000
MTEXTEND
1000
MTEXTBEGIN
1070
    73
1070
     1
1070
    44
1040
1.0
1070
    74
1070
     0
1000
MTEXTEND
  0
POINT
  5
53B
330
529
100
AcDbEntity
  8
DEFPOINTS
 62
     0
100
AcDbPoint
 10
193.8948102018384
 20
444.4871286697956
 30
0.0
  0
POINT
  5
53C
330
529
100
AcDbEntity
  8
DEFPOINTS
 62
     0
100
AcDbPoint
 10
193.8948102018384
 20
380.4871286697957
 30
0.0
  0
POINT
  5
53D
330
529
100
AcDbEntity
  8
DEFPOINTS
 62
     0
100
AcDbPoint
 10
171.2969853248305
 20
380.4871286697957
 30
0.0
  0
ENDBLK
  5
534
330
529
100
AcDbEntity
  8
0
100
AcDbBlockEnd
  0
ENDSEC
  0
SECTION
  2
ENTITIES
  0
CIRCLE
  5
9D
102
{ACAD_REACTORS
330
30A
102
}
330
2
100
AcDbEntity
  8
0
100
AcDbCircle
 10
134.0522781032887
 20
180.636479911468
 30
0.0
 40
5.0
  0
LINE
  5
9E
330
2
100
AcDbEntity
  8
0
  6
CENTER
 62
     1
 48
0.4
100
AcDbLine
 10
134.0522781032887
 20
190.6082445546834
 30
0.0
 11
134.0522781032887
 21
169.9794863319075
 31
0.0
  0
DIMENSION
  5
A0
330
2
100
AcDbEntity
  8
0
100
AcDbDimension
  2
*D34
 10
78.11730023148995
 20
184.2367751984648
 30
0.0
 11
78.11730023148993
 21
199.0862369925548
 31
0.0
 70
   160
  1
\A1;<>{\f??|b0|i0|c0|p49;\H0.7x;\S+0^ -0.03;}
  3
STANDARD
100
AcDbAlignedDimension
 13
69.94824507602789
 23
180.2367751984647
 33
0.0
 14
69.94824507602789
 24
184.2367751984648
 34
0.0
 50
90.0
100
AcDbRotatedDimension
  0
INSERT
  5
B1
330
2
100
AcDbEntity
  8
0
100
AcDbBlockReference
  2
3
 10
25.21822277262799
 20
70.50814128442062
 30
0.0
  0
DIMENSION
  5
D0
102
{ACAD_XDICTIONARY
360
D1
102
}
102
{ACAD_REACTORS
330
D2
102
}
330
2
100
AcDbEntity
  8
0
100
AcDbDimension
  2
*D36
 10
25.21822277259889
 20
112.5558542886204
 30
0.0
 11
36.31515247265506
 21
14.72010836199365
 31
0.0
 70
    34
  3
STANDARD
100
AcDb2LineAngularDimension
 13
25.21822277259889
 23
70.50814128442562
 33
0.0
 14
43.47326277948923
 24
26.43657611813159
 34
0.0
 15
25.21822277259889
 25
28.46042828022063
 35
0.0
 16
33.00628984595713
 26
11.35189878179023
 36
0.0
1001
ACAD
1000
DSTYLE
1002
{
1070
   271
1070
     1
1070
   179
1070
     1
1070
   271
1070
     0
1070
   271
1070
     1
1070
   271
1070
     1
1070
   271
1070
     1
1070
   271
1070
     1
1070
   271
1070
     1
1002
}
  0
CIRCLE
  5
E1
330
2
100
AcDbEntity
  8
0
100
AcDbCircle
 10
25.21822277262799
 20
70.50814128443382
 30
0.0
 40
32.0
  0
CIRCLE
  5
E2
330
2
100
AcDbEntity
  8
0
100
AcDbCircle
 10
25.21822277262799
 20
85.5081412844297
 30
0.0
 40
15.0
  0
LINE
  5
E3
330
2
100
AcDbEntity
  8
0
 62
     0
100
AcDbLine
 10
23.21822277262798
 20
90.09071697938587
 30
0.0
 11
23.21822277262798
 21
88.0081412844297
 31
0.0
  0
LINE
  5
E4
330
2
100
AcDbEntity
  8
0
100
AcDbLine
 10
23.21822277262798
 20
88.0081412844297
 30
0.0
 11
27.21822277262798
 21
88.0081412844297
 31
0.0
  0
CIRCLE
  5
E5
330
2
100
AcDbEntity
  8
0
100
AcDbCircle
 10
25.21822277262799
 20
85.5081412844297
 30
0.0
 40
5.0
  0
LINE
  5
E6
330
2
100
AcDbEntity
  8
CEN
 48
0.6
100
AcDbLine
 10
5.214527412339521
 20
85.5081412844297
 30
0.0
 11
45.22191813291828
 21
85.5081412844297
 31
0.0
  0
LINE
  5
E7
330
2
100
AcDbEntity
  8
0
 62
     0
100
AcDbLine
 10
27.21822277262798
 20
90.09071697938587
 30
0.0
 11
27.21822277262798
 21
88.0081412844297
 31
0.0
  0
DIMENSION
  5
E8
102
{ACAD_XDICTIONARY
360
E9
102
}
102
{ACAD_REACTORS
330
EA
102
}
330
2
100
AcDbEntity
  8
0
100
AcDbDimension
  2
*D35
 10
60.21822277259889
 20
118.0759364103304
 30
0.0
 11
25.21822277259889
 21
118.0759364103304
 31
0.0
 70
   160
  3
STANDARD
100
AcDbAlignedDimension
 13
-9.781777227401107
 23
100.5081412844247
 33
0.0
 14
60.21822277259889
 24
100.5081412844247
 34
0.0
100
AcDbRotatedDimension
  0
LINE
  5
F7
330
2
100
AcDbEntity
  8
0
 48
0.6
100
AcDbLine
 10
-4.781777227401106
 20
105.5081412844256
 30
0.0
 11
55.21822277259889
 21
105.5081412844256
 31
0.0
  0
ARC
  5
F8
102
{ACAD_REACTORS
330
EA
102
}
330
2
100
AcDbEntity
  8
0
 48
0.6
100
AcDbCircle
 10
-4.781777227401106
 20
100.5081412844247
 30
0.0
 40
5.0
100
AcDbArc
 50
90.0
 51
180.0
  0
ARC
  5
F9
102
{ACAD_REACTORS
330
EA
102
}
330
2
100
AcDbEntity
  8
0
 48
0.6
100
AcDbCircle
 10
55.21822277259889
 20
100.5081412844247
 30
0.0
 40
5.0
100
AcDbArc
 50
0.0
 51
90.0
  0
LWPOLYLINE
  5
FA
330
2
100
AcDbEntity
  8
3
100
AcDbPolyline
 90
        4
 70
     1
 43
0.0
 10
18.26995935967715
 20
118.7536765306717
 10
21.56995935967825
 20
118.7536765306717
 10
21.56995935967825
 20
122.2536765306717
 10
18.26995935967715
 20
122.2536765306717
  0
MTEXT
  5
FC
102
{ACAD_REACTORS
330
10C
102
}
330
2
100
AcDbEntity
  8
0
 62
     3
100
AcDbMText
 10
45.75257140091889
 20
128.1351641864298
 30
0.0
 40
3.0
 41
0.0
 71
     9
 72
     1
  1
4-%%c4.5 hole
1001
ACAD
1000
MTEXTBEGIN
1070
    73
1070
     1
1070
    44
1040
1.0
1070
    74
1070
     0
1000
MTEXTEND
1000
MTEXTBEGIN
1070
    73
1070
     1
1070
    44
1040
1.0
1070
    74
1070
     0
1000
MTEXTEND
1000
MTEXTBEGIN
1070
    73
1070
     1
1070
    44
1040
1.0
1070
    74
1070
     0
1000
MTEXTEND
  0
ARC
  5
FD
330
2
100
AcDbEntity
  8
0
 48
0.6
100
AcDbCircle
 10
5.900001446108942
 20
21.91944266758582
 30
0.0
 40
39.15579199999999
100
AcDbArc
 50
16.65391050761257
 51
20.30648800596492
  0
LINE
  5
FE
330
2
100
AcDbEntity
  8
0
100
AcDbLine
 10
38.32260778579803
 20
30.8744676873448
 30
0.0
 11
44.81473913133959
 21
33.76506766407556
 31
0.0
  0
ARC
  5
FF
330
2
100
AcDbEntity
  8
0
 48
0.6
100
AcDbCircle
 10
73.23229199631895
 20
49.81869393296529
 30
0.0
 40
39.15579199999999
100
AcDbArc
 50
201.4369589999631
 51
208.5517089163135
  0
ARC
  5
100
330
2
100
AcDbEntity
  8
0
 48
0.6
100
AcDbCircle
 10
139.460817030378
 20
89.63441575881871
 30
0.0
 40
116.9686661741607
100
AcDbArc
 50
210.1560153536115
 51
216.2412691602773
  0
ARC
  5
101
330
2
100
AcDbEntity
  8
0
 48
0.6
100
AcDbCircle
 10
127.4023618143091
 20
82.40804808882058
 30
0.0
 40
95.84808274048763
100
AcDbArc
 50
210.4975034246499
 51
218.0575295674634
  0
LWPOLYLINE
  5
102
330
2
100
AcDbEntity
  8
0
100
AcDbPolyline
 90
      548
 70
     0
 43
0.0
 10
45.12152897254964
 20
20.48408969085221
 10
45.12454438766871
 20
20.49866310563673
 10
45.12809283899696
 20
20.51532279430557
 10
45.13172025717722
 20
20.53187583977251
 10
45.13542638746002
 20
20.54832259790419
 10
45.13921097506863
 20
20.56466342458179
 10
45.14307376526811
 20
20.58089867566967
 10
45.14701450328902
 20
20.59702870704541
 10
45.15103293438914
 20
20.61305387458287
 10
45.15512880377719
 20
20.62897453415144
 10
45.15930185674004
 20
20.64479104162592
 10
45.16355183847736
 20
20.66050375287749
 10
45.16787849425965
 20
20.67611302378145
 10
45.17228156931923
 20
20.69161921020985
 10
45.17676080890851
 20
20.70702266803436
 10
45.18131595824889
 20
20.72232375312978
 10
45.18594676260909
 20
20.73752282136684
 10
45.19065296720873
 20
20.75262022861807
 10
45.19543431729835
 20
20.76761633075966
 10
45.20029055812665
 20
20.78251148366188
 10
45.2052214349387
 20
20.79730604319684
 10
45.21022669295962
 20
20.81200036524069
 10
45.21530607744899
 20
20.82659480566417
 10
45.22045933363915
 20
20.84108972033799
 10
45.22568620677883
 20
20.85548546513928
 10
45.23098644209857
 20
20.86978239593827
 10
45.23635978485979
 20
20.88398086860888
 10
45.24180598028943
 20
20.89808123902276
 10
45.24732477363977
 20
20.9120838630547
 10
45.25291591014684
 20
20.92598909657545
 10
45.25857913505933
 20
20.93979729545889
 10
45.26431419360959
 20
20.9535088155776
 10
45.2701208310591
 20
20.96712401280501
 10
45.27599879262743
 20
20.98064324301367
 10
45.28194782356877
 20
20.99406686207565
 10
45.28796766911908
 20
21.00739522586354
 10
45.29405807453804
 20
21.02062869025258
 10
45.30021878504885
 20
21.03376761111485
 10
45.30644954590934
 20
21.04681234432155
 10
45.31275010233911
 20
21.05976324574567
 10
45.31912019960873
 20
21.07262067126203
 10
45.3255595829396
 20
21.08538497674179
 10
45.33206799758954
 20
21.09805651805891
 10
45.33864518878909
 20
21.11063565108542
 10
45.34529090177783
 20
21.12312273169345
 10
45.35200488181907
 20
21.13551811575824
 10
45.35878687413968
 20
21.14782215915238
 10
45.36563662397748
 20
21.16003521774564
 10
45.37255387659024
 20
21.17215764741239
 10
45.37953837721032
 20
21.18418980402883
 10
45.38658987107735
 20
21.1961320434616
 10
45.39370810343824
 20
21.20798472158867
 10
45.40089281953806
 20
21.21974819427941
 10
45.40814376462003
 20
21.23142281740955
 10
45.41546068392745
 20
21.24300894685166
 10
45.42284332268899
 20
21.25450693847688
 10
45.43029142615885
 20
21.26591714815867
 10
45.43780473957849
 20
21.2772399317696
 10
45.4453830081984
 20
21.28847564518264
 10
45.45302597723821
 20
21.29962464427353
 10
45.46073339196846
 20
21.31068728491072
 10
45.46850499760874
 20
21.32166392296948
 10
45.47634053941874
 20
21.33255491432146
 10
45.48423976262891
 20
21.34336061483963
 10
45.49220241248986
 20
21.35408138039883
 10
45.50022823422842
 20
21.36471756686842
 10
45.50831697310968
 20
21.37526953012546
 10
45.51646837435874
 20
21.38573762604028
 10
45.52468218322792
 20
21.39612221048535
 10
45.53295814494958
 20
21.40642363933557
 10
45.54129600478882
 20
21.4166422684616
 10
45.54969550795974
 20
21.42677845373737
 10
45.55815639971842
 20
21.43683255103542
 10
45.56667842530806
 20
21.4468049162283
 10
45.57526132996827
 20
21.45669590519081
 10
45.58390485894778
 20
21.46650587379235
 10
45.59260875747713
 20
21.47623517790862
 10
45.60137277080865
 20
21.48588417341169
 10
45.61019664417836
 20
21.4954532161746
 10
45.61908012283857
 20
21.50494266206896
 10
45.62802295202709
 20
21.51435286697005
 10
45.6370248769781
 20
21.52368418674768
 10
45.64608564294029
 20
21.53293697727576
 10
45.65520499515877
 20
21.54211159442819
 10
45.66438267887861
 20
21.5512083940789
 10
45.67361843933759
 20
21.5602277320986
 10
45.68291202176806
 20
21.56916996436075
 10
45.69226317143875
 20
21.57803544673561
 10
45.70167163356018
 20
21.58682453510164
 10
45.71113715339925
 20
21.59553758532728
 10
45.72065947618829
 20
21.60417495328601
 10
45.73023834717786
 20
21.61273699485263
 10
45.73987351159849
 20
21.62122406589742
 10
45.74956471469884
 20
21.62963652229564
 10
45.75931170171862
 20
21.63797471991983
 10
45.76911421789737
 20
21.64623901463982
 10
45.77897200848928
 20
21.6544297623318
 10
45.78888481872854
 20
21.66254731886737
 10
45.79885239386931
 20
21.67059204012048
 10
45.80887447914029
 20
21.67856428196136
 10
45.81895081977743
 20
21.68646440026577
 10
45.82908116103864
 20
21.69429275090532
 10
45.83926524816887
 20
21.70204968975395
 10
45.84950282639693
 20
21.70973557268053
 10
45.85979364097693
 20
21.71735075556262
 10
45.87013743713939
 20
21.72489559427139
 10
45.88053396013854
 20
21.73237044467986
 10
45.89098295520853
 20
21.73977566266103
 10
45.90148416759802
 20
21.7471116040856
 10
45.91203734254849
 20
21.75437862482886
 10
45.92264222529775
 20
21.7615770807638
 10
45.93329856108903
 20
21.7687073277616
 10
45.94400609516923
 20
21.77576972169572
 10
45.95476457278889
 20
21.78276461844097
 10
45.96557373915857
 20
21.7896923738658
 10
45.97643333955966
 20
21.79655334384686
 10
45.98734311921908
 20
21.8033478842558
 10
45.99830282336916
 20
21.81007635096603
 10
46.0093121972586
 20
21.81673909985101
 10
46.02037098613982
 20
21.82333648677968
 10
46.03147893523964
 20
21.82986886762955
 10
46.04263578981771
 20
21.83633659827227
 10
46.05384129509912
 20
21.84274003457721
 10
46.06509519633982
 20
21.84907953242326
 10
46.07639723877763
 20
21.85535544767981
 10
46.08774716765947
 20
21.86156813621801
 10
46.09914472821947
 20
21.8677179539145
 10
46.11058966569908
 20
21.87380525663957
 10
46.122081725347
 20
21.87983040026754
 10
46.13362065241017
 20
21.88579374066967
 10
46.14520619211908
 20
21.89169563372023
 10
46.15683808971879
 20
21.89753643529092
 10
46.16851609045989
 20
21.90331650125653
 10
46.18023993957831
 20
21.90903618748689
 10
46.19200938232824
 20
21.91469584985771
 10
46.20382416392748
 20
21.92029584424062
 10
46.2156840296484
 20
21.92583652650772
 10
46.22758872470877
 20
21.93131825253384
 10
46.23953799435912
 20
21.93674137818925
 10
46.25153158384819
 20
21.94210625935102
 10
46.2635692384192
 20
21.9474132518876
 10
46.2756507032991
 20
21.95266271167246
 10
46.28777572374928
 20
21.95785499458043
 10
46.29994404499846
 20
21.96299045648355
 10
46.31215541229903
 20
21.96806945325351
 10
46.32440957087783
 20
21.97309234076465
 10
46.33670626600904
 20
21.97805947489039
 10
46.34904524289778
 20
21.98297121150244
 10
46.36142624680906
 20
21.98782790647373
 10
46.37384902297888
 20
21.99262991567639
 10
46.38631331664874
 20
21.9973775949843
 10
46.39881887305818
 20
22.00207130026956
 10
46.4113654374687
 20
22.00671138740563
 10
46.42395275509806
 20
22.0112982122655
 10
46.43658057119864
 20
22.01583213072353
 10
46.44924863101731
 20
22.02031349864819
 10
46.46195667978827
 20
22.02474267191428
 10
46.47470446276929
 20
22.0291200063998
 10
46.48749172517817
 20
22.03344585796958
 10
46.50031821227821
 20
22.03772058249978
 10
46.51318366930899
 20
22.04194453586478
 10
46.52608784150834
 20
22.04611807393575
 10
46.53903047410858
 20
22.0502415525866
 10
46.55201131237845
 20
22.05431532768897
 10
46.56503010153936
 20
22.05833975511449
 10
46.57808658683824
 20
22.06231519074072
 10
46.59118051350924
 20
22.0662419904379
 10
46.60431162681923
 20
22.07012051007676
 10
46.61747967198788
 20
22.07395110553125
 10
46.63068439426933
 20
22.07773413267659
 10
46.64392553889775
 20
22.08146994738354
 10
46.65720285112729
 20
22.08515890552462
 10
46.67051607618851
 20
22.08880136297465
 10
46.68386495932828
 20
22.09239767560438
 10
46.69724924579894
 20
22.09594819928724
 10
46.71066868082744
 20
22.09945328989714
 10
46.7241230096588
 20
22.10291330330664
 10
46.73761197754902
 20
22.10632859538873
 10
46.75113532971772
 20
22.10969952201276
 10
46.76469281143909
 20
22.11302643905673
 10
46.77828416791816
 20
22.11630970239184
 10
46.79190914442735
 20
22.11954966788835
 10
46.80556748619892
 20
22.1227466914238
 10
46.81925893846893
 20
22.12590112886709
 10
46.83298324648967
 20
22.1290133360917
 10
46.84674015549717
 20
22.13208366897061
 10
46.8605294107474
 20
22.13511248337863
 10
46.87435075745996
 20
22.13810013518787
 10
46.88820394088907
 20
22.14104698026948
 10
46.90208870628885
 20
22.14395337449695
 10
46.91600479887893
 20
22.14681967374463
 10
46.92995196391893
 20
22.14964623388277
 10
46.94392994663939
 20
22.15243341078756
 10
46.95793849228903
 20
22.15518156032976
 10
46.97197734611836
 20
22.15789103838051
 10
46.98604625335974
 20
22.16056220081554
 10
47.00014495925825
 20
22.16319540350878
 10
47.01427320904804
 20
22.16579100232864
 10
47.02843074798875
 20
22.16834935315137
 10
47.04261732130908
 20
22.1708708118499
 10
47.05683267425956
 20
22.17335573429453
 10
47.07107655207801
 20
22.17580447635964
 10
47.08534870000948
 20
22.17821739391955
 10
47.09964886329907
 20
22.18059484284594
 10
47.11397678717728
 20
22.1829371790086
 10
47.12833221689834
 20
22.18524475828462
 10
47.14271489769814
 20
22.18751793654655
 10
47.15712457482732
 20
22.18975706966465
 10
47.17156099352723
 20
22.19196251351468
 10
47.18602389902843
 20
22.19413462396642
 10
47.20051303658874
 20
22.1962737568965
 10
47.21502815143867
 20
22.19838026817342
 10
47.22956898881784
 20
22.20045451367332
 10
47.24413529398954
 20
22.2024968492683
 10
47.25872681216968
 20
22.20450763083044
 10
47.27334328862707
 20
22.20648721423185
 10
47.28798446857763
 20
22.20843595534779
 10
47.30265009728827
 20
22.21035421004989
 10
47.31733991998953
 20
22.21224233421071
 10
47.33205368192829
 20
22.21410068370323
 10
47.34679112833871
 20
22.21592961440046
 10
47.36155200446956
 20
22.21772948217676
 10
47.37633605555856
 20
22.21950064290148
 10
47.39114302685993
 20
22.22124345245081
 10
47.40597266359872
 20
22.22295826669596
 10
47.4208247110273
 20
22.22464544150989
 10
47.43569891439801
 20
22.22630533276651
 10
47.45059501893956
 20
22.22793829633565
 10
47.46551276989885
 20
22.2295446880953
 10
47.48045191251003
 20
22.23112486391392
 10
47.49541219202728
 20
22.2326791796645
 10
47.51039335368839
 20
22.23420799122276
 10
47.52539514272757
 20
22.23571165445946
 10
47.54041730440984
 20
22.23719052524892
 10
47.55545958395851
 20
22.23864495946281
 10
47.5705217266277
 20
22.24007531297273
 10
47.58560347764796
 20
22.24148194165445
 10
47.60070458226801
 20
22.24286520137729
 10
47.61582478572745
 20
22.24422544801791
 10
47.63096383327684
 20
22.24556303744839
 10
47.64612147014849
 20
22.2468783255399
 10
47.66129744158932
 20
22.24817166816547
 10
47.67649149284807
 20
22.24944342119987
 10
47.69170336915886
 20
22.25069394051252
 10
47.70693281575949
 20
22.25192358197864
 10
47.72217957790963
 20
22.25313270147171
 10
47.73744340082703
 20
22.25432165486471
 10
47.75272402977861
 20
22.2554907980293
 10
47.76802120999855
 20
22.25664048683666
 10
47.78333468672824
 20
22.25777107716294
 10
47.7986642052092
 20
22.25888292487887
 10
47.81400951068826
 20
22.25997638585841
 10
47.82937034838869
 20
22.26105181597267
 10
47.84474646357739
 20
22.26210957109788
 10
47.86013760149763
 20
22.26315000710474
 10
47.875543507369
 20
22.26417347986353
 10
47.8909639264475
 20
22.26518034525223
 10
47.90639860398914
 20
22.26617095914162
 10
47.92184728520807
 20
22.26714567740282
 10
47.93730971536933
 20
22.26810485591022
 10
47.95278563970895
 20
22.26904885053682
 10
47.96827480345927
 20
22.26997801715378
 10
47.98377695187808
 20
22.27089271163776
 10
47.99929183019775
 20
22.27179328985676
 10
48.01481918365972
 20
22.27268010768875
 10
48.03035875751811
 20
22.27355352100174
 10
48.04591029701986
 20
22.27441388567148
 10
48.06147354737731
 20
22.27526155756867
 10
48.07704825384824
 20
22.27609689256996
 10
48.09263416169779
 20
22.27692024654288
 10
48.10823101613824
 20
22.27773197536453
 10
48.12383856242741
 20
22.27853243490881
 10
48.13945654579764
 20
22.27932198104326
 10
48.15508471149769
 20
22.28010096964406
 10
48.17072280477805
 20
22.2808697565847
 10
48.18637057086014
 20
22.28162869773631
 10
48.20202775500909
 20
22.28237814897237
 10
48.21769410244815
 20
22.28311846616769
 10
48.23336935843872
 20
22.28385000519073
 10
48.24905326820953
 20
22.28457312191812
 10
48.2647455770093
 20
22.28528817221968
 10
48.28044603007764
 20
22.28599551197157
 10
48.29615437265784
 20
22.28669549704545
 10
48.31187034998947
 20
22.2873884833125
 10
48.32759370731764
 20
22.28807482664751
 10
48.34332418988925
 20
22.2887548829226
 10
48.35906154294753
 20
22.28942900801166
 10
48.37480551171939
 20
22.29009755778541
 10
48.39055584145899
 20
22.29076088811871
 10
48.4063122774096
 20
22.2914193548836
 10
48.4220745648181
 20
22.29207331395355
 10
48.43784244891867
 20
22.29272312119837
 10
48.45361567496002
 20
22.29336913249472
 10
48.46939398816903
 20
22.29401170371511
 10
48.48517713380896
 20
22.29465119073072
 10
48.50096485710857
 20
22.29528794941552
 10
48.5167569033183
 20
22.29592233564198
 10
48.53255301766876
 20
22.29655470528177
 10
48.54835294541953
 20
22.29718541420969
 10
48.56415643180843
 20
22.29781481829694
 10
48.57996322206965
 20
22.29844327341787
 10
48.5957730614482
 20
22.29907113544322
 10
48.6115856951892
 20
22.29969876024914
 10
48.62740086853954
 20
22.3003265037064
 10
48.64321832672795
 20
22.30095472168659
 10
48.65903781501039
 20
22.30158377006682
 10
48.67485907862828
 20
22.30221400471464
 10
48.69068186281947
 20
22.30284578150529
 10
48.70650591281809
 20
22.30347945631454
 10
48.72233097388924
 20
22.30411538500902
 10
48.73815679125982
 20
22.30475392346761
 10
48.75398311016761
 20
22.30539542755967
 10
48.7698096758686
 20
22.30604025315778
 10
48.78563623359879
 20
22.30668875613853
 10
48.80146252859777
 20
22.30734129237041
 10
48.81728830610882
 20
22.3079982177287
 10
48.83311331137884
 20
22.30865988808545
 10
48.84893728964925
 20
22.30932665931367
 10
48.86475998615972
 20
22.30999888728683
 10
48.88058114615887
 20
22.31067692787565
 10
48.89640051488822
 20
22.31136113695582
 10
48.91221783757828
 20
22.31205187039904
 10
48.92803285948867
 20
22.31274948407871
 10
48.94384532583899
 20
22.31345433386468
 10
48.95965498189799
 20
22.31416677563446
 10
48.975461572898
 20
22.31488716525654
 10
48.99126484406952
 20
22.31561585860708
 10
49.00706454067767
 20
22.3163532115568
 10
49.02286040794752
 20
22.31709957997964
 10
49.03865219112777
 20
22.31785531974947
 10
49.05443963545986
 20
22.31862078673792
 10
49.07022248617796
 20
22.31939633681667
 10
49.08600048853805
 20
22.3201823258596
 10
49.10177338777794
 20
22.32097910974107
 10
49.11754092914815
 20
22.32178704433089
 10
49.13330285787925
 20
22.32260648550391
 10
49.14905891920898
 20
22.32343778913354
 10
49.16480885839883
 20
22.32428131109054
 10
49.18055242066839
 20
22.32513740725062
 10
49.19628935127729
 20
22.3260064334836
 10
49.21201939546882
 20
22.32688874566429
 10
49.22774229847711
 20
22.32778469966479
 10
49.24345780554721
 20
22.32869465135853
 10
49.25916566191881
 20
22.32961895661764
 10
49.27486561283878
 20
22.33055797131419
 10
49.29055740354852
 20
22.3315120513248
 10
49.30624077928769
 20
22.33248155251656
 10
49.32191548530862
 20
22.33346683076752
 10
49.33758126683824
 20
22.33446824194742
 10
49.35323786912885
 20
22.33548614193068
 10
49.3688850374183
 20
22.33652088658981
 10
49.38452251695889
 20
22.33757283179738
 10
49.40015005299028
 20
22.33864233342547
 10
49.41576739073934
 20
22.33972974734978
 10
49.43137427546935
 20
22.34083542943926
 10
49.446970452409
 20
22.34195973557052
 10
49.46255566680886
 20
22.34310302161337
 10
49.47812966390847
 20
22.34426564344083
 10
49.49369218894753
 20
22.34544795692682
 10
49.50924298716927
 20
22.34665031794655
 10
49.52478180381877
 20
22.34787308236855
 10
49.54030838413927
 20
22.34911660606802
 10
49.5558224733686
 20
22.35038124491664
 10
49.5713238167591
 20
22.35166735478969
 10
49.58681215953948
 20
22.35297529155741
 10
49.60228724696936
 20
22.35430541109463
 10
49.61774882426833
 20
22.3556580692716
 10
49.6331966366979
 20
22.35703362196454
 10
49.64863042949764
 20
22.35843242504234
 10
49.66404994789809
 20
22.35985483438162
 10
49.67945493715888
 20
22.36130120585221
 10
49.69484514251053
 20
22.36277189533073
 10
49.71022030920903
 20
22.36426725868568
 10
49.72558018246854
 20
22.36578765179273
 10
49.74092450755961
 20
22.36733343052445
 10
49.7562530297182
 20
22.36890495075294
 10
49.77156549417849
 20
22.3705025683489
 10
49.7868616461892
 20
22.37212663918989
 10
49.80214123099904
 20
22.37377751914664
 10
49.81740399382761
 20
22.37545556409259
 10
49.8326496799491
 20
22.37716112989664
 10
49.84787803457765
 20
22.37889457243726
 10
49.86308880297838
 20
22.38065624758474
 10
49.87828173037815
 20
22.38244651121067
 10
49.8934565620275
 20
22.38426571919171
 10
49.90861304316968
 20
22.38611422739541
 10
49.92375091902793
 20
22.38799239169974
 10
49.93886993487831
 20
22.38990056797455
 10
49.95396983593855
 20
22.39183911209147
 10
49.9690503674592
 20
22.39380837992894
 10
49.98411127467807
 20
22.39580872735405
 10
49.9991523028475
 20
22.39784051024389
 10
50.01417319719802
 20
22.39990408446737
 10
50.02917370297836
 20
22.40199980589885
 10
50.04415356543905
 20
22.40412803041271
 10
50.05911252980877
 20
22.4062891138783
 10
50.07405034132896
 20
22.40848341217361
 10
50.08896674525932
 20
22.410711281168
 10
50.10386148682663
 20
22.41297307673537
 10
50.11873431127789
 20
22.41526915474651
 10
50.13358496385809
 20
22.41759987107889
 10
50.1484131898087
 20
22.41996558159962
 10
50.16321873436936
 20
22.42236664218671
 10
50.17800134277786
 20
22.42480340870952
 10
50.19276076029019
 20
22.42727623704057
 10
50.20749673214776
 20
22.42978548305563
 10
50.22220900357751
 20
22.43233150262722
 10
50.23689731983903
 20
22.4349146516256
 10
50.25156142615924
 20
22.43753528592696
 10
50.26620106779773
 20
22.44019376140067
 10
50.28081598997778
 20
22.44289043392063
 10
50.295405937959
 20
22.44562565936075
 10
50.30997065697738
 20
22.44839979359585
 10
50.324509892278
 20
22.45121319249346
 10
50.33902338909864
 20
22.4540662119316
 10
50.35351089267897
 20
22.45695920778007
 10
50.36797214826947
 20
22.45989253591277
 10
50.38240690110979
 20
22.46286655220046
 10
50.39681489643953
 20
22.46588161252066
 10
50.41119587950925
 20
22.46893807274091
 10
50.42554959554763
 20
22.47203628873739
 10
50.43987578980885
 20
22.47517661638357
 10
50.45417420753985
 20
22.47835941154926
 10
50.46844459396925
 20
22.48158503010836
 10
50.48268669434765
 20
22.48485382793569
 10
50.49690025390919
 20
22.48816616090242
 10
50.51108501790803
 20
22.49152238488068
 10
50.52524073157838
 20
22.49492285574569
 10
50.53936714016891
 20
22.49836792937002
 10
50.55346398891924
 20
22.50185796162259
 10
50.56753102306903
 20
22.50539330838046
 10
50.58156798786876
 20
22.50897432551482
 10
50.595574628549
 20
22.51260136890003
 10
50.60955069035846
 20
22.51627479440594
 10
50.62349591853855
 20
22.51999495790732
 10
50.63741005833799
 20
22.52376221527855
 10
50.65129285499825
 20
22.52757692239037
 10
50.66514405374801
 20
22.53143943511577
 10
50.67896339984873
 20
22.53535010932773
 10
50.69275063852728
 20
22.53930930089926
 10
50.70650551503968
 20
22.54331736570475
 10
50.72022777461825
 20
22.54737465961351
 10
50.7339171625099
 20
22.55148153850267
 10
50.74757342394696
 20
22.55563835823932
 10
50.76119630418907
 20
22.5598454747037
 10
50.77478554846857
 20
22.56410324376247
 10
50.7883409020269
 20
22.56841202129226
 10
50.80186211011824
 20
22.57277216316379
 10
50.81534891797853
 20
22.57718402524914
 10
50.82880107083838
 20
22.58164796342544
 10
50.84221831395915
 20
22.58616433356154
 10
50.8556003925678
 20
22.59073349153049
 10
50.86894705191844
 20
22.59535579320663
 10
50.88225803723799
 20
22.60003159446432
 10
50.8955330937897
 20
22.60476125117292
 10
50.90877196679866
 20
22.60954511920544
 10
50.92197440151903
 20
22.61438355443761
 10
50.93514014318862
 20
22.61927691274149
 10
50.94826893705977
 20
22.62422554998875
 10
50.96136052834847
 20
22.62922982205191
 10
50.97441466231793
 20
22.63429008480577
 10
50.98743108421877
 20
22.63940669411976
 10
51.00040953926872
 20
22.64458000587046
 10
51.01334977272745
 20
22.64981037593043
 10
51.02625152983819
 20
22.65509816017082
 10
51.03911455582784
 20
22.66044371446378
 10
51.05193859595964
 20
22.66584739468498
 10
51.0647233954587
 20
22.67130955670381
 10
51.07746869957736
 20
22.6768305563969
 10
51.09017425355887
 20
22.68241074963451
 10
51.10283980263921
 20
22.68805049228829
 10
51.11546509205982
 20
22.6937501402358
 10
51.1280498670785
 20
22.69951004934682
 10
51.14059387291852
 20
22.70533057549346
 10
51.15309685483953
 20
22.71121207455053
 10
51.16555855805927
 20
22.71715490238875
 10
51.17797872783921
 20
22.72315941488249
 10
51.19035710942807
 20
22.72922596790431
 10
51.20269344805818
 20
22.735354917329
 10
51.2149874889692
 20
22.74154661902366
 10
51.22723897740979
 20
22.74780142886857
 10
51.23944765861049
 20
22.75411970273034
 10
51.25161327782915
 20
22.76050179648609
 10
51.263735580309
 20
22.76694806600699
 10
51.27581431127874
 20
22.77345886716601
 10
51.2878492159889
 20
22.78003455583348
 10
51.29984003968822
 20
22.7866754878878
 10
51.31178652759809
 20
22.79338201919653
 10
51.32368842498909
 20
22.80015450563678
 10
51.33554547707717
 20
22.80699330307652
 10
51.34735742912926
 20
22.81389876739467
 10
51.35912402636859
 20
22.82087125445832
 10
51.37084501404753
 20
22.82791112014364
 10
51.38252013740928
 20
22.83501872032275
 10
51.394149141679
 20
22.84219441086951
 10
51.40573177212719
 20
22.84943854765332
 10
51.41726777397889
 20
22.85675148655081
 10
51.42875689247738
 20
22.86413358343361
 10
51.44019887286777
 20
22.8715851941738
 10
51.45159346039871
 20
22.87910667464573
 10
51.46294040029713
 20
22.88669838072063
 10
51.47423943781904
 20
22.89436066827192
 10
51.48549031820948
 20
22.90209389317215
 10
51.49669278669716
 20
22.90989841129567
 10
51.50784658853807
 20
22.91777457851366
 10
51.51895146895913
 20
22.92572275070142
 10
51.53000717321811
 20
22.93374328372828
 10
51.54101344655828
 20
22.94183653346816
 10
51.55197003419742
 20
22.95000285579452
 10
51.56287668140794
 20
22.95824260658173
 10
51.57373313342759
 20
22.96655614170139
 10
51.58453913547782
 20
22.97494381702471
 10
51.59529443282917
 20
22.98340598842742
 10
51.60599877069761
 20
22.9919430117793
 10
51.61665189433914
 20
23.00055524295566
 10
51.62725354900794
 20
23.00924303782858
 10
51.63780347991814
 20
23.01800675227104
 10
51.64830143233849
 20
23.02684674215469
 10
51.65874715148857
 20
23.0357633633548
 10
51.66914038263894
 20
23.04475697174301
 10
51.67948087100922
 20
23.05382792319051
 10
51.6897683618481
 20
23.06297657357072
 10
51.70000260039707
 20
23.07220327875893
 10
51.71018333189749
 20
23.08150839462677
 10
51.72031030159814
 20
23.09089227704544
 10
51.73038325474771
 20
23.10035528189199
 10
51.74040193656947
 20
23.10989776503401
 10
51.75036609231757
 20
23.1195200823463
 10
51.7602754672389
 20
23.12922258970365
 10
51.77012980655854
 20
23.13900564297636
 10
51.77992885553795
 20
23.1488695980397
 10
51.78967235940945
 20
23.15881481076439
 10
51.79936006341995
 20
23.16884163702343
 10
51.80899171280906
 20
23.17895043269071
 10
51.81856705281825
 20
23.18914155364062
 10
51.82808582868893
 20
23.19941535574205
 10
51.83754778567709
 20
23.20977219486985
 10
51.84695266900963
 20
23.22021242689742
 10
51.85630022392796
 20
23.23073640769553
 10
51.86559019568814
 20
23.24134449314168
 10
51.87482232952788
 20
23.25203703910392
 10
51.88399637067778
 20
23.26281440145657
 10
51.89311206439743
 20
23.2736769360731
 10
51.90216915591918
 20
23.28462499882562
 10
51.91116739048993
 20
23.29565894558891
 10
51.92010651334749
 20
23.30677913223234
 10
51.92898626973875
 20
23.31798591463166
 10
51.9323307202485
 20
23.32226831323759
  0
LINE
  5
103
330
2
100
AcDbEntity
  8
0
 48
0.6
100
AcDbLine
 10
-4.781777227401106
 20
35.50814128442471
 30
0.0
 11
55.21822277259889
 21
35.50814128442471
 31
0.0
  0
LINE
  5
104
330
2
100
AcDbEntity
  8
CEN
  6
CENTER
 48
0.6
100
AcDbLine
 10
-16.87702693086065
 20
70.50814128442062
 30
0.0
 11
67.31347247606027
 21
70.50814128442062
 31
0.0
  0
ARC
  5
105
330
2
100
AcDbEntity
  8
0
 48
0.6
100
AcDbCircle
 10
-4.781777227401106
 20
40.5081412844247
 30
0.0
 40
5.0
100
AcDbArc
 50
180.0
 51
270.0
  0
LINE
  5
106
102
{ACAD_REACTORS
330
D2
102
}
330
2
100
AcDbEntity
  8
CEN
  6
CENTER
 62
     1
 48
0.6
100
AcDbLine
 10
25.21822277259889
 20
70.50814128442562
 30
0.0
 11
43.47326277948923
 21
26.43657611813068
 31
0.0
  0
ARC
  5
107
330
2
100
AcDbEntity
  8
0
 48
0.6
100
AcDbCircle
 10
55.21822277259889
 20
40.5081412844247
 30
0.0
 40
5.0
100
AcDbArc
 50
270.0
 51
0.0
  0
LINE
  5
108
330
2
100
AcDbEntity
  8
0
 48
0.6
100
AcDbLine
 10
42.59770287987703
 20
35.50814128442471
 30
0.0
 11
36.85665265334864
 21
35.50814128442471
 31
0.0
  0
LINE
  5
109
102
{ACAD_REACTORS
330
D2
102
}
330
2
100
AcDbEntity
  8
CEN
  6
CENTER
 48
0.6
100
AcDbLine
 10
25.21822277259889
 20
28.46042828022063
 30
0.0
 11
25.21822277259889
 21
112.5558542886204
 31
0.0
  0
LINE
  5
10A
330
2
100
AcDbEntity
  8
0
 48
0.6
100
AcDbLine
 10
-9.781777227401107
 20
100.5081412844247
 30
0.0
 11
-9.781777227401107
 21
40.5081412844247
 31
0.0
  0
LINE
  5
10B
330
2
100
AcDbEntity
  8
0
 48
0.6
100
AcDbLine
 10
60.21822277259889
 20
100.5081412844247
 30
0.0
 11
60.21822277259889
 21
40.5081412844247
 31
0.0
  0
LEADER
  5
10C
330
2
100
AcDbEntity
  8
0
100
AcDbLeader
  3
STANDARD
 73
     0
 75
     1
 40
3.0
 41
26.65178571428571
 76
     3
 10
54.25388855963865
 20
101.7053106659868
 30
0.0
 10
49.2525714009189
 20
127.1351641864298
 30
0.0
 10
46.75257140091889
 20
127.1351641864298
 30
0.0
340
FC
1001
ACAD
1000
DSTYLE
1002
{
1070
     5
1000

1070
   342
1005
0
1002
}
  0
DIMENSION
  5
10D
102
{ACAD_XDICTIONARY
360
10E
102
}
102
{ACAD_REACTORS
330
10F
102
}
330
2
100
AcDbEntity
  8
0
100
AcDbDimension
  2
*D48
 10
300.6140793195026
 20
127.9362983321775
 30
0.0
 11
305.6140793195008
 21
127.9362983321775
 31
0.0
 70
   160
  3
STANDARD
100
AcDbAlignedDimension
 13
310.614079319499
 23
93.00814128442059
 33
0.0
 14
300.6140793195026
 24
103.4781412844195
 34
0.0
100
AcDbRotatedDimension
  0
LINE
  5
11C
330
2
100
AcDbEntity
  8
0
100
AcDbLine
 10
299.1144187244172
 20
105.0100489566548
 30
0.0
 11
300.6140793195026
 21
103.4781412844195
 31
0.0
  0
LINE
  5
11D
102
{ACAD_REACTORS
330
141
102
}
330
2
100
AcDbEntity
  8
0
100
AcDbLine
 10
255.614079319499
 20
105.7581412844205
 30
0.0
 11
299.1144187244172
 21
105.0100489566548
 31
0.0
  0
DIMENSION
  5
11E
102
{ACAD_XDICTIONARY
360
11F
102
}
102
{ACAD_REACTORS
330
120
102
}
330
2
100
AcDbEntity
  8
0
100
AcDbDimension
  2
*D47
 10
324.6955728452048
 20
47.0081412844206
 30
0.0
 11
324.6955728452048
 21
68.21439128441943
 31
0.0
 70
   160
  1
%%C<>
  3
STANDARD
100
AcDbAlignedDimension
 13
309.6140793195008
 23
94.00814128442062
 33
0.0
 14
309.6140793195008
 24
47.0081412844206
 34
0.0
 50
90.0
100
AcDbRotatedDimension
  0
LINE
  5
12D
330
2
100
AcDbEntity
  8
0
100
AcDbLine
 10
300.6140793195026
 20
94.00814128442062
 30
0.0
 11
309.6140793195008
 21
94.00814128442062
 31
0.0
  0
ARC
  5
12E
330
2
100
AcDbEntity
  8
0
100
AcDbCircle
 10
309.6140793195008
 20
93.00814128442059
 30
0.0
 40
1.0
100
AcDbArc
 50
0.0
 51
90.0
  0
ARC
  5
12F
330
2
100
AcDbEntity
  8
0
100
AcDbCircle
 10
302.114079319499
 20
34.16561850870766
 30
0.0
 40
6.0
100
AcDbArc
 50
270.0
 51
0.0
  0
LINE
  5
130
102
{ACAD_REACTORS
330
10F
102
}
330
2
100
AcDbEntity
  8
0
100
AcDbLine
 10
310.614079319499
 20
93.00814128442059
 30
0.0
 11
310.614079319499
 21
48.00814128442062
 31
0.0
  0
ARC
  5
131
330
2
100
AcDbEntity
  8
0
100
AcDbCircle
 10
300.114079319499
 20
36.16561850870947
 30
0.0
 40
3.0
100
AcDbArc
 50
270.0
 51
0.0
  0
LINE
  5
132
330
2
100
AcDbEntity
  8
0
100
AcDbLine
 10
303.114079319499
 20
45.20814128442043
 30
0.0
 11
303.114079319499
 21
36.16561850870947
 31
0.0
  0
LINE
  5
133
330
2
100
AcDbEntity
  8
0
100
AcDbLine
 10
308.1140793195026
 20
45.20814128442043
 30
0.0
 11
308.114079319499
 21
34.16561850870766
 31
0.0
  0
LINE
  5
134
102
{ACAD_REACTORS
330
120
102
}
330
2
100
AcDbEntity
  8
0
100
AcDbLine
 10
300.6140793195026
 20
47.0081412844206
 30
0.0
 11
309.6140793195008
 21
47.0081412844206
 31
0.0
  0
ARC
  5
135
330
2
100
AcDbEntity
  8
0
100
AcDbCircle
 10
309.6140793195008
 20
48.00814128442062
 30
0.0
 40
1.0
100
AcDbArc
 50
270.0
 51
0.0
  0
LINE
  5
136
102
{ACAD_REACTORS
330
120
102
}
330
2
100
AcDbEntity
  8
0
100
AcDbLine
 10
303.114079319499
 20
46.0081412844197
 30
0.0
 11
308.1140793195026
 21
46.0081412844197
 31
0.0
  0
ARC
  5
137
330
2
100
AcDbEntity
  8
0
100
AcDbCircle
 10
303.114079319499
 20
47.0081412844206
 30
0.0
 40
1.0
100
AcDbArc
 50
180.0
 51
270.0
  0
ARC
  5
138
330
2
100
AcDbEntity
  8
0
100
AcDbCircle
 10
308.1140793195026
 20
47.0081412844206
 30
0.0
 40
1.0
100
AcDbArc
 50
270.0
 51
0.0
  0
LINE
  5
139
330
2
100
AcDbEntity
  8
0
100
AcDbLine
 10
305.6140793195008
 20
45.20814128442043
 30
0.0
 11
305.6140793195008
 21
46.0081412844197
 31
0.0
  0
LINE
  5
13A
330
2
100
AcDbEntity
  8
0
100
AcDbLine
 10
303.6140793195026
 20
45.20814128442043
 30
0.0
 11
303.6140793195026
 21
46.0081412844197
 31
0.0
  0
LINE
  5
13B
330
2
100
AcDbEntity
  8
0
100
AcDbLine
 10
307.614079319499
 20
45.20814128442043
 30
0.0
 11
307.614079319499
 21
46.0081412844197
 31
0.0
  0
LINE
  5
13C
102
{ACAD_REACTORS
330
120
102
}
330
2
100
AcDbEntity
  8
0
100
AcDbLine
 10
303.114079319499
 20
45.20814128442043
 30
0.0
 11
308.1140793195026
 21
45.20814128442043
 31
0.0
  0
LINE
  5
13D
330
2
100
AcDbEntity
  8
0
100
AcDbLine
 10
300.6140793195026
 20
37.53814128441991
 30
0.0
 11
299.1144187244135
 21
36.00623361218367
 31
0.0
  0
LINE
  5
13E
102
{ACAD_REACTORS
330
141
102
}
330
2
100
AcDbEntity
  8
0
100
AcDbLine
 10
255.614079319499
 20
35.2581412844206
 30
0.0
 11
299.1144187244135
 21
36.00623361218367
 31
0.0
  0
DIMENSION
  5
13F
102
{ACAD_XDICTIONARY
360
140
102
}
102
{ACAD_REACTORS
330
141
102
}
330
2
100
AcDbEntity
  8
0
100
AcDbDimension
  2
*D46
 10
333.5792820877268
 20
36.00623361218367
 30
0.0
 11
333.5792820877268
 21
68.92451865591785
 31
0.0
 70
   160
  1
%%C<>
  3
STANDARD
100
AcDbAlignedDimension
 13
299.1144187244172
 23
105.0100489566548
 33
0.0
 14
299.1144187244172
 24
36.00623361218367
 34
0.0
 50
90.0
100
AcDbRotatedDimension
  0
LINE
  5
14E
330
2
100
AcDbEntity
  8
0
100
AcDbLine
 10
255.6140793195026
 20
36.00814128442062
 30
0.0
 11
255.6140793195026
 21
105.0081412844205
 31
0.0
  0
LINE
  5
14F
330
2
100
AcDbEntity
  8
0
100
AcDbLine
 10
255.6140793195026
 20
105.7581412844205
 30
0.0
 11
255.6140793195026
 21
35.2581412844206
 31
0.0
  0
LINE
  5
150
102
{ACAD_REACTORS
330
10F
102
}
330
2
100
AcDbEntity
  8
0
100
AcDbLine
 10
300.6140793195026
 20
103.4781412844195
 30
0.0
 11
300.6140793195026
 21
37.53814128441991
 31
0.0
  0
DIMENSION
  5
151
102
{ACAD_XDICTIONARY
360
152
102
}
102
{ACAD_REACTORS
330
153
102
}
330
2
100
AcDbEntity
  8
0
100
AcDbDimension
  2
*D45
 10
142.6140793195098
 20
127.9362983321775
 30
0.0
 11
126.6140793195099
 21
127.9362983321775
 31
0.0
 70
   160
  3
STANDARD
100
AcDbAlignedDimension
 13
110.6140793195099
 23
90.50814128442059
 33
0.0
 14
142.6140793195098
 24
105.0081412844205
 34
0.0
100
AcDbRotatedDimension
  0
DIMENSION
  5
160
102
{ACAD_XDICTIONARY
360
161
102
}
102
{ACAD_REACTORS
330
162
102
}
330
2
100
AcDbEntity
  8
0
100
AcDbDimension
  2
*D44
 10
110.6140793195099
 20
106.7284294913233
 30
0.0
 11
123.4250099869095
 21
106.7284294913233
 31
0.0
 70
   160
  3
STANDARD
100
AcDbAlignedDimension
 13
135.6140793195099
 23
90.50814128442153
 33
0.0
 14
110.6140793195099
 24
90.50814128442153
 34
0.0
 50
180.0
100
AcDbRotatedDimension
  0
LINE
  5
16F
102
{ACAD_REACTORS
330
183
102
}
330
2
100
AcDbEntity
  8
CEN
  6
BYBLOCK
 62
     0
100
AcDbLine
 10
139.6140793195099
 20
80.50814128442061
 30
0.0
 11
110.6140793195099
 21
80.50814128442061
 31
0.0
  0
LINE
  5
170
102
{ACAD_REACTORS
330
183
330
162
330
192
330
153
102
}
330
2
100
AcDbEntity
  8
CEN
  6
BYBLOCK
 62
     0
100
AcDbLine
 10
139.6140793195099
 20
90.50814128442059
 30
0.0
 11
110.6140793195099
 21
90.50814128442059
 31
0.0
  0
LINE
  5
171
102
{ACAD_REACTORS
330
183
102
}
330
2
100
AcDbEntity
  8
CEN
  6
HIDDEN
 62
     2
100
AcDbLine
 10
135.6140793195099
 20
88.00814128442061
 30
0.0
 11
110.6140793195099
 21
88.00814128442061
 31
0.0
  0
LINE
  5
173
102
{ACAD_REACTORS
330
183
102
}
330
2
100
AcDbEntity
  8
CEN
 48
0.6
100
AcDbLine
 10
154.1898265111685
 20
85.50814128442061
 30
0.0
 11
106.7159405182773
 21
85.50814128442061
 31
0.0
  0
DIMENSION
  5
174
330
2
100
AcDbEntity
  8
0
100
AcDbDimension
  2
*D43
 10
78.49155633923875
 20
70.50814128442062
 30
0.0
 11
78.49155633923874
 21
85.25814128442062
 31
0.0
 70
   160
  1
{\f??|b0|i0|c0|p49;%%c}<>
  3
STANDARD
100
AcDbAlignedDimension
 13
140.1140793195097
 23
100.5081412844205
 33
0.0
 14
107.1544116586392
 24
70.50814128442062
 34
0.0
 50
90.0
100
AcDbRotatedDimension
  0
DIMENSION
  5
181
102
{ACAD_XDICTIONARY
360
182
102
}
102
{ACAD_REACTORS
330
183
102
}
330
2
100
AcDbEntity
  8
0
100
AcDbDimension
  2
*D42
 10
86.92459283177774
 20
70.50814128442062
 30
0.0
 11
84.42459283177775
 21
78.00814128442064
 31
0.0
 70
    32
  3
STANDARD
100
AcDbAlignedDimension
 13
106.7159405182773
 23
85.50814128442061
 33
0.0
 14
140.1140793195097
 24
70.50814128442062
 34
0.0
 50
90.0
100
AcDbRotatedDimension
  0
DIMENSION
  5
190
102
{ACAD_XDICTIONARY
360
191
102
}
102
{ACAD_REACTORS
330
192
102
}
330
2
100
AcDbEntity
  8
0
100
AcDbDimension
  2
*D41
 10
95.78941603052772
 20
90.50814128442064
 30
0.0
 11
95.78941603052772
 21
122.6085795957414
 31
0.0
 70
   160
  1
\A1;{\f??|b0|i0|c0|p49;%%C10\H0.7x;\S+0^ -0.015;\H1.429x;(h7)}
  3
STANDARD
100
AcDbAlignedDimension
 13
110.6140793195099
 23
80.50814128442061
 33
0.0
 14
110.6140793195099
 24
90.50814128442059
 34
0.0
 50
90.0
100
AcDbRotatedDimension
  0
LINE
  5
1A1
102
{ACAD_REACTORS
330
192
102
}
330
2
100
AcDbEntity
  8
0
100
AcDbLine
 10
110.6140793195099
 20
90.50814128442059
 30
0.0
 11
110.6140793195099
 21
80.50814128442061
 31
0.0
  0
LINE
  5
1A2
330
2
100
AcDbEntity
  8
0
 62
   123
 48
0.6
100
AcDbLine
 10
183.0894370405767
 20
11.32630209481158
 30
0.0
 11
123.8352792132191
 21
11.32630209481158
 31
0.0
  0
TEXT
  5
1A3
330
2
100
AcDbEntity
  8
DIM
100
AcDbText
 10
125.2052992642091
 20
13.32630209481158
 30
0.0
 40
3.5
  1
 LEAD WIRE 300mm
100
AcDbText
  0
DIMENSION
  5
1A5
330
2
100
AcDbEntity
  8
0
100
AcDbDimension
  2
*D40
 10
182.6140793195025
 20
127.9362983321775
 30
0.0
 11
162.6140793195027
 21
127.9362983321775
 31
0.0
 70
   160
  1
{\f??|b0|i0|c0|p49;L}
  3
STANDARD
100
AcDbAlignedDimension
 13
142.6140793195098
 23
105.0081412844205
 33
0.0
 14
182.6140793195025
 24
105.5081412844194
 34
0.0
100
AcDbRotatedDimension
  0
LINE
  5
1B2
330
2
100
AcDbEntity
  8
0
100
AcDbLine
 10
143.1140793195099
 20
105.5081412844204
 30
0.0
 11
188.7140793195048
 21
105.5081412844204
 31
0.0
  0
DIMENSION
  5
1B3
102
{ACAD_XDICTIONARY
360
1B4
102
}
102
{ACAD_REACTORS
330
1B5
102
}
330
2
100
AcDbEntity
  8
0
100
AcDbDimension
  2
*D39
 10
139.6140793195099
 20
116.4289191940937
 30
0.0
 11
132.6140793195099
 21
116.4289191940937
 31
0.0
 70
   160
  3
STANDARD
100
AcDbAlignedDimension
 13
142.6140793195098
 23
105.0081412844205
 33
0.0
 14
139.6140793195099
 24
100.0081412844205
 34
0.0
 50
180.0
100
AcDbRotatedDimension
  0
LINE
  5
1C4
102
{ACAD_REACTORS
330
1B5
102
}
330
2
100
AcDbEntity
  8
0
100
AcDbLine
 10
139.6140793195099
 20
100.0081412844205
 30
0.0
 11
139.6140793195099
 21
71.00814128442062
 31
0.0
  0
ARC
  5
1C5
330
2
100
AcDbEntity
  8
0
100
AcDbCircle
 10
140.1140793195097
 20
71.00814128442062
 30
0.0
 40
0.5
100
AcDbArc
 50
180.0
 51
270.0
  0
LINE
  5
1C6
330
2
100
AcDbEntity
  8
0
100
AcDbLine
 10
140.1140793195097
 20
70.50814128442062
 30
0.0
 11
142.6140793195098
 21
70.50814128442062
 31
0.0
  0
ARC
  5
1C7
330
2
100
AcDbEntity
  8
0
100
AcDbCircle
 10
140.1140793195097
 20
100.0081412844205
 30
0.0
 40
0.5
100
AcDbArc
 50
90.0
 51
180.0
  0
LINE
  5
1C8
330
2
100
AcDbEntity
  8
0
100
AcDbLine
 10
140.1140793195097
 20
100.5081412844205
 30
0.0
 11
142.6140793195098
 21
100.5081412844205
 31
0.0
  0
LINE
  5
1C9
102
{ACAD_REACTORS
330
162
102
}
330
2
100
AcDbEntity
  8
0
  6
HIDDEN
 62
     2
100
AcDbLine
 10
135.6140793195099
 20
90.50814128442153
 30
0.0
 11
135.6140793195099
 21
88.00814128442061
 31
0.0
  0
ARC
  5
1CA
330
2
100
AcDbEntity
  8
0
100
AcDbCircle
 10
143.1140793195099
 20
105.0081412844205
 30
0.0
 40
0.5
100
AcDbArc
 50
90.0
 51
180.0
  0
ARC
  5
1CB
330
2
100
AcDbEntity
  8
2
 62
     7
100
AcDbCircle
 10
140.1140793195097
 20
71.00814128442062
 30
0.0
 40
0.4999999999999968
100
AcDbArc
 50
180.0
 51
270.0
  0
LINE
  5
1CD
330
2
100
AcDbEntity
  8
2
 62
     7
100
AcDbLine
 10
142.6140793195098
 20
70.50814128442062
 30
0.0
 11
140.1140793195097
 21
70.50814128442062
 31
0.0
  0
LINE
  5
1CE
330
2
100
AcDbEntity
  8
2
 62
     7
100
AcDbLine
 10
139.6140793195099
 20
71.00814128442062
 30
0.0
 11
139.6140793195099
 21
72.50814128442062
 31
0.0
  0
LINE
  5
1CF
102
{ACAD_REACTORS
330
1B5
330
153
102
}
330
2
100
AcDbEntity
  8
0
100
AcDbLine
 10
142.6140793195098
 20
105.0081412844205
 30
0.0
 11
142.6140793195098
 21
36.00814128442062
 31
0.0
  0
ARC
  5
1D0
330
2
100
AcDbEntity
  8
0
100
AcDbCircle
 10
143.1140793195099
 20
36.00814128442062
 30
0.0
 40
0.5
100
AcDbArc
 50
180.0
 51
270.0
  0
LINE
  5
1D1
330
2
100
AcDbEntity
  8
0
 62
     0
100
AcDbLine
 10
188.7140793195048
 20
35.50814128442061
 30
0.0
 11
143.1140793195099
 21
35.50814128442061
 31
0.0
  0
DIMENSION
  5
1D2
102
{ACAD_XDICTIONARY
360
1D3
102
}
102
{ACAD_REACTORS
330
1D4
102
}
330
2
100
AcDbEntity
  8
0
100
AcDbDimension
  2
*D38
 10
189.6140793195026
 20
116.5134402223547
 30
0.0
 11
186.1140793195024
 21
116.5134402223547
 31
0.0
 70
   160
  3
STANDARD
100
AcDbAlignedDimension
 13
182.6140793195025
 23
105.5081412844204
 33
0.0
 14
189.6140793195026
 24
104.1068786259484
 34
0.0
100
AcDbRotatedDimension
  0
LINE
  5
1E1
330
2
100
AcDbEntity
  8
0
100
AcDbLine
 10
182.6140793195025
 20
105.5081412844204
 30
0.0
 11
188.7140793195029
 21
105.5081412844204
 31
0.0
  0
LINE
  5
1E2
102
{ACAD_REACTORS
330
1D4
102
}
330
2
100
AcDbEntity
  8
0
100
AcDbLine
 10
188.7140793195029
 20
104.1068786259484
 30
0.0
 11
189.6140793195026
 21
104.1068786259484
 31
0.0
  0
ARC
  5
1E3
330
2
100
AcDbEntity
  8
0
100
AcDbCircle
 10
191.3762106463925
 20
23.55861724056239
 30
0.0
 40
8.907313409310658
100
AcDbArc
 50
24.23072274293794
 51
94.90087069775272
  0
ARC
  5
1E4
330
2
100
AcDbEntity
  8
0
 48
0.6
100
AcDbCircle
 10
337.7056835451254
 20
79.96297521898205
 30
0.0
 40
154.5789838329826
100
AcDbArc
 50
197.9072980654496
 51
204.6738304706523
  0
ARC
  5
1E5
330
2
100
AcDbEntity
  8
0
100
AcDbCircle
 10
199.7706333630429
 20
27.66561850870948
 30
0.0
 40
0.5
100
AcDbArc
 50
90.0
 51
177.9685271120391
  0
LWPOLYLINE
  5
1E6
330
2
100
AcDbEntity
  8
0
100
AcDbPolyline
 90
      467
 70
     0
 43
0.0
 10
197.2399246007994
 20
15.43365779634075
 10
197.2421228828719
 20
15.43473288212305
 10
197.2623671331225
 20
15.44453498276413
 10
197.2825865984981
 20
15.45422688663608
 10
197.30278132212
 20
15.4638090359516
 10
197.3229513470928
 20
15.47328187292202
 10
197.343096716528
 20
15.48264583975502
 10
197.3632174735398
 20
15.49190137866605
 10
197.3833136612397
 20
15.50104893186323
 10
197.4033853227341
 20
15.51008894156153
 10
197.4234325011406
 20
15.51902184996867
 10
197.4434552395672
 20
15.52784809929778
 10
197.463453581124
 20
15.536568131757
 10
197.4834275689248
 20
15.54518238956084
 10
197.5033772460795
 20
15.55369131491976
 10
197.5233026557001
 20
15.56209535004506
 10
197.5432038408966
 20
15.5703949371458
 10
197.5630808447808
 20
15.57859051843649
 10
197.5829337104681
 20
15.58668253612711
 10
197.6027624810617
 20
15.59467143242579
 10
197.6225671996803
 20
15.60255764954842
 10
197.6423479094322
 20
15.6103416297036
 10
197.6621046534259
 20
15.61802381510402
 10
197.6818374747766
 20
15.62560464795785
 10
197.7015464165928
 20
15.63308457048048
 10
197.7212315219916
 20
15.64046402487872
 10
197.7408928340723
 20
15.64774345336706
 10
197.7605303959611
 20
15.65492329815458
 10
197.7801442507574
 20
15.66200400145396
 10
197.7997344415802
 20
15.66898600547698
 10
197.8193010115378
 20
15.67586975243363
 10
197.83884400374
 20
15.68265568453385
 10
197.8583634612991
 20
15.68934424399081
 10
197.8778594273248
 20
15.69593587301493
 10
197.8973319449328
 20
15.70243101381661
 10
197.9167810572328
 20
15.70883010860995
 10
197.9362068073337
 20
15.71513359960486
 10
197.9556092383485
 20
15.72134192900954
 10
197.9749883933895
 20
15.72745553903892
 10
197.9943443155647
 20
15.73347487190073
 10
198.013677047988
 20
15.73940036981126
 10
198.0329866337691
 20
15.74523247497688
 10
198.0522731160203
 20
15.75097162960889
 10
198.071536537855
 20
15.75661827592318
 10
198.0907769423815
 20
15.76217285612471
 10
198.1099943727099
 20
15.76763581243072
 10
198.1291888719538
 20
15.77300758704802
 10
198.1483604832251
 20
15.77828862218882
 10
198.1675092496302
 20
15.78347936006582
 10
198.1866352142883
 20
15.78858024288899
 10
198.2057384203094
 20
15.79359171286966
 10
198.2248189107981
 20
15.79851421221871
 10
198.2438767288681
 20
15.80334818314929
 10
198.2629119176331
 20
15.80809406786908
 10
198.2819245202048
 20
15.81275230859078
 10
198.3009145796936
 20
15.8173233475271
 10
198.3198821392091
 20
15.8218076268871
 10
198.33882724186
 20
15.82620558888254
 10
198.3577499307651
 20
15.83051767572793
 10
198.3766502490329
 20
15.83474432962872
 10
198.3955282397731
 20
15.83888599280077
 10
198.4143839460925
 20
15.84294310745223
 10
198.4332174111117
 20
15.84691611579579
 10
198.4520286779373
 20
15.8508054600437
 10
198.4708177896849
 20
15.85461158240273
 10
198.4895847894571
 20
15.85833492509015
 10
198.5083297203713
 20
15.86197593031134
 10
198.5270526255376
 20
15.86553504028267
 10
198.5457535480621
 20
15.86901269721089
 10
198.5644325310644
 20
15.87240934331099
 10
198.5830896176561
 20
15.87572542079293
 10
198.6017248509419
 20
15.87896137186623
 10
198.6203382740354
 20
15.88211763874175
 10
198.6389299300484
 20
15.88519466363356
 10
198.657499862093
 20
15.88819288875208
 10
198.6760481132809
 20
15.89111275630636
 10
198.6945747267168
 20
15.89395470851092
 10
198.713079745525
 20
15.89671918757482
 10
198.7315632128033
 20
15.89940663570892
 10
198.7500251716687
 20
15.90201749512458
 10
198.768465665233
 20
15.90455220803493
 10
198.7868847366083
 20
15.90701121664721
 10
198.8052824289065
 20
15.90939496317728
 10
198.8236587852338
 20
15.91170388983378
 10
198.8420138487058
 20
15.91393843882576
 10
198.8603476624325
 20
15.91609905236952
 10
198.8786602695258
 20
15.91818617267324
 10
198.8969517130976
 20
15.92020024194777
 10
198.9152220362561
 20
15.92214170240582
 10
198.9334712821132
 20
15.92401099625782
 10
198.9516994937844
 20
15.92580856571508
 10
198.9699067143759
 20
15.9275348529885
 10
198.9880929870018
 20
15.92919030028894
 10
199.0062583547736
 20
15.93077534982682
 10
199.0244028608016
 20
15.93229044381666
 10
199.0425265481976
 20
15.93373602446706
 10
199.0606294600714
 20
15.93511253398934
 10
199.0787116395335
 20
15.93642041459394
 10
199.0967731297008
 20
15.93766010849582
 10
199.11481397368
 20
15.93883205790086
 10
199.1328342145811
 20
15.93993670502583
 10
199.1508338955195
 20
15.94097449207617
 10
199.1688130596016
 20
15.94194586126683
 10
199.1867717499449
 20
15.94285125480777
 10
199.2047100096556
 20
15.94369111491038
 10
199.2226278818455
 20
15.94446588378547
 10
199.2405254096288
 20
15.94517600364713
 10
199.2584026361132
 20
15.94582191670212
 10
199.2762596044125
 20
15.94640406516407
 10
199.2940963576388
 20
15.94692289124291
 10
199.3119129389001
 20
15.94737883715184
 10
199.3297093913083
 20
15.94777234510081
 10
199.3474857579771
 20
15.94810385730021
 10
199.3652420820166
 20
15.94837381596277
 10
199.3829784065368
 20
15.94858266329798
 10
199.4006947746514
 20
15.94873084151992
 10
199.4183912294688
 20
15.94881879283581
 10
199.436067814106
 20
15.9488469594579
 10
199.4537245716659
 20
15.9488157836007
 10
199.471361545266
 20
15.94872570747281
 10
199.4889787780125
 20
15.948577173286
 10
199.5065763130245
 20
15.94837062324983
 10
199.524154193405
 20
15.94810649957922
 10
199.5417124622712
 20
15.94778524448099
 10
199.5592511627278
 20
15.94740730016825
 10
199.5767703378936
 20
15.94697310885281
 10
199.5942700308773
 20
15.9464831127451
 10
199.611750284785
 20
15.94593775405598
 10
199.6292111427378
 20
15.94533747499768
 10
199.6466526478364
 20
15.94468271778293
 10
199.6640748432005
 20
15.94397392461757
 10
199.6814777719395
 20
15.94321153771748
 10
199.6988614771603
 20
15.94239599929174
 10
199.7162260019763
 20
15.94152775155168
 10
199.733571389503
 20
15.94060723670997
 10
199.7508976828452
 20
15.93963489697794
 10
199.7682049251183
 20
15.93861117456514
 10
199.7854931594324
 20
15.93753651168196
 10
199.8027624289011
 20
15.93641135054155
 10
199.8200127766289
 20
15.93523613335616
 10
199.837244245737
 20
15.93401130233348
 10
199.854456879328
 20
15.93273729968665
 10
199.8716507205158
 20
15.93141456762793
 10
199.8888258124174
 20
15.93004354836591
 10
199.9059821981321
 20
15.92862468411601
 10
199.9231199207846
 20
15.92715841708274
 10
199.9402390234776
 20
15.92564518948381
 10
199.957339549321
 20
15.9240854435269
 10
199.9744215414343
 20
15.92247962142288
 10
199.9914850429199
 20
15.92082816538582
 10
200.0085300968953
 20
15.91913151762615
 10
200.0255567464686
 20
15.91739012035064
 10
200.0425650347518
 20
15.91560441577609
 10
200.0595550048606
 20
15.91377484611153
 10
200.076526699899
 20
15.91190185356786
 10
200.0934801629814
 20
15.90998588035686
 10
200.1104154372209
 20
15.90802736868987
 10
200.1273325657261
 20
15.9060267607773
 10
200.1442315916087
 20
15.90398449883229
 10
200.1611125579805
 20
15.90190102506209
 10
200.1779755079536
 20
15.89977678168076
 10
200.1948204846343
 20
15.89761221089872
 10
200.2116475311435
 20
15.89540775492866
 10
200.228456690584
 20
15.89316385597828
 10
200.2452480060732
 20
15.89088095626299
 10
200.2620215207175
 20
15.88855949799141
 10
200.2787772776286
 20
15.88619992337487
 10
200.2955153199204
 20
15.88380267462603
 10
200.3122356907028
 20
15.88136819395401
 10
200.3289384330841
 20
15.878896923571
 10
200.3456235901834
 20
15.87638930568743
 10
200.3622912051036
 20
15.87384578251691
 10
200.3789413209636
 20
15.87126679626851
 10
200.3955739808701
 20
15.86865278915535
 10
200.4121892279313
 20
15.86600420338469
 10
200.4287871052624
 20
15.86332148117286
 10
200.4453676559774
 20
15.86060506472483
 10
200.4619309231824
 20
15.85785539625873
 10
200.4784769499897
 20
15.85507291798045
 10
200.4950057795126
 20
15.8522580721036
 10
200.5115174548668
 20
15.84941130084086
 10
200.5280120191514
 20
15.84653304639857
 10
200.5444895154873
 20
15.84362375099258
 10
200.5609499869827
 20
15.84068385683064
 10
200.5773934767479
 20
15.83771380612722
 10
200.5938200278964
 20
15.83471404109138
 10
200.6102296835383
 20
15.831685003934
 10
200.6266224867871
 20
15.82862713686777
 10
200.6429984807476
 20
15.82554088210314
 10
200.6593577085409
 20
15.82242668185096
 10
200.6757002132711
 20
15.81928497832347
 10
200.6920260380488
 20
15.81611621372973
 10
200.7083352259928
 20
15.81292083028426
 10
200.7246278202059
 20
15.80969927019565
 10
200.7409038638002
 20
15.80645197567616
 10
200.7571633998927
 20
15.80317938893574
 10
200.7734064715937
 20
15.79988195218799
 10
200.7896331220075
 20
15.79656010764199
 10
200.8058433942536
 20
15.79321429750903
 10
200.8220373314364
 20
15.78984496400003
 10
200.838214976677
 20
15.78645254932905
 10
200.8543763730744
 20
15.78303749570419
 10
200.8705215637495
 20
15.77960024533636
 10
200.8866505918089
 20
15.77614124043917
 10
200.9027635003644
 20
15.77266092322167
 10
200.9188603325278
 20
15.7691597358979
 10
200.9349411314091
 20
15.76563812067466
 10
200.9510059401221
 20
15.76209651976784
 10
200.967054801777
 20
15.75853537538602
 10
200.9830877594853
 20
15.75495512973962
 10
200.999104856361
 20
15.75135622504318
 10
201.0151061355049
 20
15.74773910350301
 10
201.0310916400398
 20
15.7441042073359
 10
201.0470614130722
 20
15.74045197874954
 10
201.0630154977119
 20
15.73678285995252
 10
201.0789539370766
 20
15.73309729316394
 10
201.0948767742706
 20
15.72939572058826
 10
201.1107840524059
 20
15.72567858443687
 10
201.1266758145978
 20
15.72194632692468
 10
201.1425521039567
 20
15.71819939026215
 10
201.1584129635889
 20
15.71443821665786
 10
201.1742584366133
 20
15.7106632483236
 10
201.1900885661365
 20
15.70687492747389
 10
201.2059033952704
 20
15.70307369631552
 10
201.221702967125
 20
15.69925999706252
 10
201.2374873248122
 20
15.69543427192399
 10
201.2532565114438
 20
15.69159696311305
 10
201.2690105701353
 20
15.68774851283967
 10
201.2847495439913
 20
15.68388936331563
 10
201.3004734761238
 20
15.68001995675182
 10
201.3161824096481
 20
15.67614073536138
 10
201.3318763876781
 20
15.67225214135293
 10
201.3475554533129
 20
15.66835461693733
 10
201.3632196496732
 20
15.66444860432727
 10
201.3788690198711
 20
15.66053454573409
 10
201.3945036070149
 20
15.65661288336775
 10
201.4101234542125
 20
15.65268405944003
 10
201.4257286045798
 20
15.64874851616365
 10
201.4413191012284
 20
15.64480669574628
 10
201.4568949872685
 20
15.6408590404029
 10
201.4724563058138
 20
15.63690599234302
 10
201.4880030999687
 20
15.63294799377568
 10
201.503535412849
 20
15.62898548691816
 10
201.5190532875644
 20
15.62501891397356
 10
201.5345567672325
 20
15.62104871715962
 10
201.5500458949559
 20
15.61707533868353
 10
201.5655207138483
 20
15.61309922076076
 10
201.5809812670254
 20
15.60912080559762
 10
201.5964275975934
 20
15.60514053540678
 10
201.6118597486624
 20
15.60115885240281
 10
201.6272777633516
 20
15.59717619879199
 10
201.6426816847655
 20
15.59319301678839
 10
201.658071556018
 20
15.58920974860199
 10
201.673447420217
 20
15.58522683644547
 10
201.6888093204765
 20
15.58124472252881
 10
201.7041572999119
 20
15.57726384906379
 10
201.7194914016294
 20
15.57328465825946
 10
201.7348116687375
 20
15.56930759233078
 10
201.7501181443534
 20
15.56533309348593
 10
201.7654108715855
 20
15.56136160393759
 10
201.7806898935435
 20
15.55739356589799
 10
201.7959552533415
 20
15.55342942157482
 10
201.811206994093
 20
15.54946961318216
 10
201.8264451589061
 20
15.54551458292996
 10
201.8416697908892
 20
15.54156477303
 10
201.8568809331577
 20
15.53762062569364
 10
201.8720786288216
 20
15.53368258313216
 10
201.8872629209949
 20
15.52975108755378
 10
201.9024338527855
 20
15.52582658117385
 10
201.9175914673055
 20
15.52190950620285
 10
201.9327358076646
 20
15.51800030484889
 10
201.947866916977
 20
15.51409941932694
 10
201.9629848383505
 20
15.51020729184607
 10
201.9780896149026
 20
15.50632436461715
 10
201.9931812897397
 20
15.50245107985244
 10
202.0082599059736
 20
15.49858787976415
 10
202.0233255067128
 20
15.49473520656134
 10
202.0383781350723
 20
15.49089350245673
 10
202.0534178341663
 20
15.48706320965981
 10
202.0684446471009
 20
15.48324477038192
 10
202.0834586169879
 20
15.47943862683801
 10
202.0984597869414
 20
15.47564522123217
 10
202.1134482000693
 20
15.47186499578389
 10
202.1284238994853
 20
15.46809839269814
 10
202.1433869283014
 20
15.46434585418671
 10
202.1583373296239
 20
15.46060782246501
 10
202.1732751465719
 20
15.45688473974075
 10
202.188200422252
 20
15.45317704822479
 10
202.203113199774
 20
15.44948519012984
 10
202.2180135222483
 20
15.44580960766676
 10
202.2329014327937
 20
15.44215074304781
 10
202.2477769745132
 20
15.43850903848293
 10
202.2626401905258
 20
15.43488493618212
 10
202.2774911239307
 20
15.43127887835805
 10
202.2923298178525
 20
15.42769130722205
 10
202.3071563153974
 20
15.42412266498501
 10
202.3219706596723
 20
15.42057339385642
 10
202.336772893796
 20
15.41704393605175
 10
202.3515630608766
 20
15.41353473377909
 10
202.3663412040245
 20
15.4100462292489
 10
202.3811073663495
 20
15.40657886467385
 10
202.3958615909673
 20
15.40313308226392
 10
202.410603920984
 20
15.39970932423317
 10
202.4253343995173
 20
15.39630803278884
 10
202.4400530696715
 20
15.39292965014498
 10
202.4547599745586
 20
15.38957461851293
 10
202.4694551572959
 20
15.38624338010083
 10
202.4841386609918
 20
15.38293637712501
 10
202.4988105287561
 20
15.3796540517909
 10
202.5134708037024
 20
15.37639684631255
 10
202.5281195289375
 20
15.3731652029031
 10
202.5427567475766
 20
15.36995956376846
 10
202.5573825027334
 20
15.36678037112402
 10
202.5719968375109
 20
15.36362806718113
 10
202.586599795028
 20
15.36050309414746
 10
202.601191418393
 20
15.35740589423846
 10
202.6157717507161
 20
15.35433690966271
 10
202.6303408351108
 20
15.35129658263292
 10
202.6448987146891
 20
15.34828535535813
 10
202.6594454325572
 20
15.34530367005106
 10
202.6739810318308
 20
15.34235196892302
 10
202.6885055556235
 20
15.33943069418307
 10
202.703019047038
 20
15.33654028804481
 10
202.7175215491938
 20
15.33368119272051
 10
202.7320131052005
 20
15.33085385041783
 10
202.7464937581648
 20
15.32805870335175
 10
202.7609635512058
 20
15.32529619372905
 10
202.7754225274279
 20
15.32256676376379
 10
202.7898707299431
 20
15.31987085566866
 10
202.8043082018633
 20
15.31720891165184
 10
202.8187349863041
 20
15.3145813739237
 10
202.8331511263771
 20
15.31198868469878
 10
202.8475566651854
 20
15.30943128618661
 10
202.8619516458406
 20
15.30690962059895
 10
202.8763361114656
 20
15.30442413014576
 10
202.8907101051594
 20
15.30197525704022
 10
202.9050736700413
 20
15.2995634434909
 10
202.919426849216
 20
15.29718913171097
 10
202.9337696858005
 20
15.29485276391084
 10
202.9481022229033
 20
15.29255478230367
 10
202.9624245036361
 20
15.29029562909714
 10
202.9767365711108
 20
15.28807574650624
 10
202.9910384684358
 20
15.28589557673773
 10
203.0053302387281
 20
15.28375556200477
 10
203.0196119250961
 20
15.28165614452006
 10
203.0338835706447
 20
15.27959776649492
 10
203.0481452184961
 20
15.2775808701375
 10
203.0623969117573
 20
15.27560589766187
 10
203.0766386935324
 20
15.27367329127707
 10
203.0908706069443
 20
15.27178349319626
 10
203.1050926950996
 20
15.2699369456294
 10
203.1193050011046
 20
15.26813409078874
 10
203.1335075680821
 20
15.26637537088469
 10
203.1477004391295
 20
15.26466122812768
 10
203.1618836573693
 20
15.26299210473131
 10
203.1760572659008
 20
15.2613684429019
 10
203.1902213078523
 20
15.25979068485809
 10
203.2043758263192
 20
15.25825927280344
 10
203.2185208644209
 20
15.25677464895613
 10
203.2326564652652
 20
15.25533725551974
 10
203.2467826719698
 20
15.25394753471152
 10
203.2608995276373
 20
15.25260592874189
 10
203.2750070753849
 20
15.251312879819
 10
203.2891053583175
 20
15.250068830156
 10
203.3031944195577
 20
15.24887422196513
 10
203.3172743022046
 20
15.2477294974568
 10
203.3313450493737
 20
15.24663509884055
 10
203.3454067041806
 20
15.24559146832813
 10
203.3594593097336
 20
15.24459904813181
 10
203.3735029091426
 20
15.24365828046472
 10
203.3875375455195
 20
15.24276960753273
 10
203.4015632619798
 20
15.24193347155039
 10
203.4155801016225
 20
15.24115031473125
 10
203.4295881075744
 20
15.24042057928169
 10
203.443587322938
 20
15.23974470741483
 10
203.4575777908271
 20
15.23912314134292
 10
203.471559554348
 20
15.23855632327501
 10
203.4855326566215
 20
15.2380446954238
 10
203.4994971407509
 20
15.23758870000107
 10
203.5134530498494
 20
15.23718877921679
 10
203.527400427029
 20
15.23684537528184
 10
203.5413393153998
 20
15.23655893040847
 10
203.5552697580791
 20
15.23632988680753
 10
203.5691917981698
 20
15.23615868669081
 10
203.5831054787871
 20
15.23604577226693
 10
203.5970108430414
 20
15.23599158575086
 10
203.6109079340444
 20
15.23599656935072
 10
203.6247967949079
 20
15.23606116527876
 10
203.6386774687457
 20
15.23618581574815
 10
203.6525499986605
 20
15.23637096296658
 10
203.6664144277733
 20
15.23661704914899
 10
203.6802707991941
 20
15.23692451650174
 10
203.6941191560203
 20
15.23729380723886
 10
203.7079595413838
 20
15.23772536357216
 10
203.7217919983798
 20
15.2382196277125
 10
203.7356165701279
 20
15.23877704187122
 10
203.7494332997434
 20
15.23939804825783
 10
203.7632422303253
 20
15.24008308908365
 10
203.7770434049929
 20
15.24083260656413
 10
203.7908368668563
 20
15.24164704290375
 10
203.8046226590254
 20
15.24252684031885
 10
203.8184008246103
 20
15.24347244101942
 10
203.8321714067283
 20
15.24448428721403
 10
203.8459344484857
 20
15.24556282111768
 10
203.859689992993
 20
15.24670848493984
 10
203.8734380833651
 20
15.24792172089189
 10
203.8871787627125
 20
15.24920297118375
 10
203.9009120741415
 20
15.25055267802905
 10
203.9146380607694
 20
15.25197128363684
 10
203.9283567657043
 20
15.25345923021893
 10
203.94206823206
 20
15.25501695998797
 10
203.9557725029484
 20
15.25664491515123
 10
203.9694696214741
 20
15.25834353792502
 10
203.983159630758
 20
15.26011327051661
 10
203.9968425739011
 20
15.26195455514003
 10
204.0105184940224
 20
15.26386783400299
 10
204.0241874342286
 20
15.26585354931955
 10
204.0378494376367
 20
15.26791214330148
 10
204.0515045473533
 20
15.27004405815874
 10
204.0651528064886
 20
15.27224973609997
 10
204.0787942581577
 20
15.2745296193401
 10
204.0924289454691
 20
15.27688415008775
 10
204.1060569115364
 20
15.27931377055699
 10
204.1196781994699
 20
15.28181892295685
 10
204.1332928523774
 20
15.28440004949959
 10
204.1469009133765
 20
15.28705759239425
 10
204.1605024255753
 20
15.28979199385582
 10
204.1740974320858
 20
15.29260369609107
 10
204.1876859760126
 20
15.29549314131361
 10
204.2012681004821
 20
15.29846077173611
 10
204.2148438485896
 20
15.30150702956676
 10
204.2284132634526
 20
15.30463235701823
 10
204.2419763881885
 20
15.30783719630096
 10
204.255533265898
 20
15.31112198962807
 10
204.2690839397005
 20
15.31448717920863
 10
204.2826284527058
 20
15.31793320725489
 10
204.2961668480188
 20
15.32146051597543
 10
204.3096991687566
 20
15.32506954758751
 10
204.3232254580328
 20
15.32876074429702
 10
204.3367457589524
 20
15.33253454831571
 10
204.3502601146286
 20
15.33639140185584
 10
204.3637685681773
 20
15.34033174712964
 10
204.3772711627048
 20
15.34435602634617
 10
204.3907679413209
 20
15.34846468171768
 10
204.404258947145
 20
15.35265815545687
 10
204.4177442232761
 20
15.35693688977185
 10
204.4312238128371
 20
15.36130132687581
 10
204.4446977589363
 20
15.36575190897961
 10
204.4581661046799
 20
15.37028907829368
 10
204.4716288931835
 20
15.37491327702888
 10
204.4850861675571
 20
15.37962494739883
 10
204.4985379709128
 20
15.38442453161301
 10
204.511984346362
 20
15.38931247188189
 10
204.5254253370135
 20
15.39428921041905
 10
204.5388609859823
 20
15.39935518943263
 10
204.552291336377
 20
15.40451085113669
 10
204.565716431311
 20
15.40975663774076
 10
204.5791363138928
 20
15.4150929914566
 10
204.5925510272339
 20
15.42052035449374
 10
204.6059606144485
 20
15.42603916906716
 10
204.6193651186444
 20
15.43164987738497
 10
204.6327645829391
 20
15.43735292165808
 10
204.6461590504371
 20
15.44314874409871
 10
204.6595485642487
 20
15.4490377869182
 10
204.6729331674928
 20
15.45502049232742
 10
204.6863129032757
 20
15.46109730253817
 10
204.6960659632663
 20
15.46559749063487
  0
ARC
  5
1E7
330
2
100
AcDbEntity
  8
0
 48
0.6
100
AcDbCircle
 10
338.101324339365
 20
81.50406882982744
 30
0.0
 40
148.8557780511426
100
AcDbArc
 50
201.389981374806
 51
206.3363995000653
  0
LINE
  5
1E8
330
2
100
AcDbEntity
  8
0
100
AcDbLine
 10
182.6140793195025
 20
35.50814128442061
 30
0.0
 11
188.7140793195029
 21
35.50814128442061
 31
0.0
  0
ARC
  5
1E9
330
2
100
AcDbEntity
  8
0
 48
0.6
100
AcDbCircle
 10
230.916801319503
 20
34.91949528442046
 30
0.0
 40
33.95579199999998
100
AcDbArc
 50
179.85042300002
 51
182.9607459492086
  0
ARC
  5
1EA
330
2
100
AcDbEntity
  8
0
 48
0.6
100
AcDbCircle
 10
230.6243072662744
 20
35.0058063934257
 30
0.0
 40
35.255792
100
AcDbArc
 50
179.9962054631615
 51
182.9919319862273
  0
ARC
  5
1EB
330
2
100
AcDbEntity
  8
0
 48
0.6
100
AcDbCircle
 10
231.2130072553934
 20
34.84410680856945
 30
0.0
 40
37.855792
100
AcDbArc
 50
179.8658330000312
 51
183.9724199931055
  0
ARC
  5
1EC
330
2
100
AcDbEntity
  8
0
 48
0.6
100
AcDbCircle
 10
230.916801319503
 20
34.91949528442046
 30
0.0
 40
39.15579199999999
100
AcDbArc
 50
179.8702870000233
 51
183.6102158837779
  0
ARC
  5
1ED
330
2
100
AcDbEntity
  8
0
100
AcDbCircle
 10
195.2086682653625
 20
31.84748389314973
 30
0.0
 40
1.318158315128889
100
AcDbArc
 50
89.6564224934487
 51
169.1029148372918
  0
LINE
  5
1EE
330
2
100
AcDbEntity
  8
0
100
AcDbLine
 10
188.7140793195029
 20
44.60940394289035
 30
0.0
 11
189.6140793195026
 21
44.60940394289035
 31
0.0
  0
ARC
  5
1EF
330
2
100
AcDbEntity
  8
0
100
AcDbCircle
 10
199.1140793195025
 20
35.50814128442061
 30
0.0
 40
0.5
100
AcDbArc
 50
270.0
 51
0.0
  0
LINE
  5
1F0
330
2
100
AcDbEntity
  8
0
100
AcDbLine
 10
199.6140793195024
 20
36.00814128442062
 30
0.0
 11
199.6140793195024
 21
35.50814128442061
 31
0.0
  0
ARC
  5
1F1
330
2
100
AcDbEntity
  8
0
100
AcDbCircle
 10
190.1140793195025
 20
35.50814128442061
 30
0.0
 40
0.5
100
AcDbArc
 50
180.0
 51
270.0
  0
LINE
  5
1F2
330
2
100
AcDbEntity
  8
0
100
AcDbLine
 10
189.6140793195026
 20
36.00814128442062
 30
0.0
 11
189.6140793195026
 21
35.50814128442061
 31
0.0
  0
LINE
  5
1F3
330
2
100
AcDbEntity
  8
0
100
AcDbLine
 10
188.7140793195029
 20
36.90940394289055
 30
0.0
 11
189.6140793195026
 21
36.90940394289055
 31
0.0
  0
LINE
  5
1F4
330
2
100
AcDbEntity
  8
0
100
AcDbLine
 10
199.1140793195025
 20
35.00814128442061
 30
0.0
 11
190.1140793195025
 21
35.00814128442061
 31
0.0
  0
LINE
  5
1F5
330
2
100
AcDbEntity
  8
0
100
AcDbLine
 10
189.6140793195026
 20
44.60940394289035
 30
0.0
 11
189.6140793195026
 21
36.90940394289055
 31
0.0
  0
LINE
  5
1F6
330
2
100
AcDbEntity
  8
0
100
AcDbLine
 10
188.7140793195029
 20
96.40687862594996
 30
0.0
 11
189.6140793195026
 21
96.40687862594996
 31
0.0
  0
LINE
  5
1F7
330
2
100
AcDbEntity
  8
0
100
AcDbLine
 10
189.6140793195026
 20
96.40687862594996
 30
0.0
 11
189.6140793195026
 21
104.1068786259484
 31
0.0
  0
LINE
  5
1F8
330
2
100
AcDbEntity
  8
0
100
AcDbLine
 10
188.7140793195029
 20
105.5081412844204
 30
0.0
 11
188.7140793195029
 21
35.50814128442061
 31
0.0
  0
LINE
  5
1F9
330
2
100
AcDbEntity
  8
0
100
AcDbLine
 10
182.6140793195025
 20
105.5081412844204
 30
0.0
 11
182.6140793195025
 21
35.50814128442061
 31
0.0
  0
LEADER
  5
1FA
330
2
100
AcDbEntity
  8
0
100
AcDbLeader
  3
STANDARD
 74
     0
 40
13.0
 41
28.50892857142855
 76
     2
 10
192.2061874327555
 20
26.62112172520528
 30
0.0
 10
183.0894370405767
 20
11.32630209481158
 30
0.0
1001
ACAD
1000
DSTYLE
1002
{
1070
     5
1000

1070
   342
1005
0
1002
}
  0
LINE
  5
1FB
330
2
100
AcDbEntity
  8
CEN
  6
CENTER
 48
0.6
100
AcDbLine
 10
104.3181905390392
 20
70.50814128442062
 30
0.0
 11
316.6711759402441
 21
70.50814128442062
 31
0.0
  0
LINE
  5
1FC
330
2
100
AcDbEntity
  8
0
100
AcDbLine
 10
255.6140793195026
 20
105.0081412844205
 30
0.0
 11
188.7140793195029
 21
105.0081412844205
 31
0.0
  0
DIMENSION
  5
1FD
330
2
100
AcDbEntity
  8
0
100
AcDbDimension
  2
*D37
 10
300.6140793195026
 20
127.9362983321775
 30
0.0
 11
241.6140793195026
 21
127.9362983321775
 31
0.0
 70
   160
  3
STANDARD
100
AcDbAlignedDimension
 13
182.6140793195025
 23
116.5134402223547
 33
0.0
 14
300.6140793195026
 24
103.4781412844195
 34
0.0
100
AcDbRotatedDimension
  0
LINE
  5
20A
330
2
100
AcDbEntity
  8
0
100
AcDbLine
 10
255.6140793195026
 20
36.00814128442062
 30
0.0
 11
188.7140793195029
 21
36.00814128442062
 31
0.0
  0
LINE
  5
20B
330
2
100
AcDbEntity
  8
0
100
AcDbLine
 10
199.7706333630429
 20
28.16561850870948
 30
0.0
 11
302.114079319499
 21
28.16561850870766
 31
0.0
  0
LINE
  5
20C
330
2
100
AcDbEntity
  8
0
100
AcDbLine
 10
195.2165726317343
 20
33.16561850870948
 30
0.0
 11
300.114079319499
 21
33.16561850870948
 31
0.0
  0
MTEXT
  5
20D
330
2
100
AcDbEntity
  8
DIM
 62
     0
100
AcDbMText
 10
54.91548197626798
 20
215.1999031853554
 30
0.0
 40
4.589999999999998
 41
0.0
 71
     1
 72
     5
  1
{\f굴림|b0|i0|c129|p50;KEY\f??|b0|i0|c0|p49;                  \f굴림|b0|i0|c129|p50;KEY GROOVE }
1001
ACAD
1000
MTEXTBEGIN
1070
    73
1070
     1
1070
    44
1040
1.0
1070
    74
1070
     0
1000
MTEXTEND
1000
MTEXTBEGIN
1070
    73
1070
     1
1070
    44
1040
1.0
1070
    74
1070
     0
1000
MTEXTEND
1000
MTEXTBEGIN
1070
    73
1070
     1
1070
    44
1040
1.0
1070
    74
1070
     0
1000
MTEXTEND
  0
INSERT
  5
20E
330
2
100
AcDbEntity
  8
0
100
AcDbBlockReference
  2
3
 10
95.08538106721792
 20
290.3587064487483
 30
0.0
  0
CIRCLE
  5
20F
330
2
100
AcDbEntity
  8
0
100
AcDbCircle
 10
95.0853810672088
 20
290.3587064487446
 30
0.0
 40
32.0
  0
DIMENSION
  5
210
102
{ACAD_XDICTIONARY
360
211
102
}
102
{ACAD_REACTORS
330
212
102
}
330
2
100
AcDbEntity
  8
0
100
AcDbDimension
  2
*D49
 10
130.0853810672087
 20
237.5097044575218
 30
0.0
 11
98.42719661641787
 21
237.5097044575218
 31
0.0
 70
   160
  3
STANDARD
100
AcDbAlignedDimension
 13
60.08538106720878
 23
260.3587064487437
 33
0.0
 14
130.0853810672087
 24
260.3587064487437
 34
0.0
100
AcDbRotatedDimension
  0
LINE
  5
21F
330
2
100
AcDbEntity
  8
CEN
 48
0.6
100
AcDbLine
 10
52.84763502527858
 20
290.3587064487446
 30
0.0
 11
137.3231271091389
 21
290.3587064487446
 31
0.0
  0
LINE
  5
220
330
2
100
AcDbEntity
  8
0
100
AcDbLine
 10
65.0853810672088
 20
255.3587064487436
 30
0.0
 11
125.0853810672088
 21
255.3587064487436
 31
0.0
  0
LINE
  5
221
330
2
100
AcDbEntity
  8
0
100
AcDbLine
 10
65.0853810672088
 20
325.3587064487437
 30
0.0
 11
125.0853810672088
 21
325.3587064487437
 31
0.0
  0
LINE
  5
222
330
2
100
AcDbEntity
  8
0
  6
CENTER
 62
     1
 48
0.4
100
AcDbLine
 10
39.26135875931868
 20
182.2367751984638
 30
0.0
 11
74.76711238835924
 21
182.2367751984638
 31
0.0
  0
LINE
  5
223
102
{ACAD_REACTORS
330
212
102
}
330
2
100
AcDbEntity
  8
0
100
AcDbLine
 10
60.08538106720878
 20
320.3587064487436
 30
0.0
 11
60.08538106720878
 21
260.3587064487437
 31
0.0
  0
LWPOLYLINE
  5
224
330
2
100
AcDbEntity
  8
0
100
AcDbPolyline
 90
        2
 70
     1
 43
1.5
 10
49.97463125574904
 20
212.5925029292665
 42
1.0
 10
51.47463125574905
 20
212.5925029292665
 42
1.0
  0
CIRCLE
  5
225
330
2
100
AcDbEntity
  8
0
100
AcDbCircle
 10
50.72463125574905
 20
212.5925029292665
 30
0.0
 40
1.5
  0
ARC
  5
226
330
2
100
AcDbEntity
  8
0
100
AcDbCircle
 10
65.0853810672088
 20
260.3587064487437
 30
0.0
 40
5.0
100
AcDbArc
 50
180.0
 51
270.0
  0
ARC
  5
227
330
2
100
AcDbEntity
  8
0
100
AcDbCircle
 10
65.0853810672088
 20
320.3587064487436
 30
0.0
 40
5.0
100
AcDbArc
 50
90.0
 51
180.0
  0
DIMENSION
  5
228
102
{ACAD_XDICTIONARY
360
229
102
}
102
{ACAD_REACTORS
330
22A
102
}
330
2
100
AcDbEntity
  8
0
100
AcDbDimension
  2
*D50
 10
69.94824507602789
 20
192.0419691789393
 30
0.0
 11
57.44824507602789
 21
194.5419691789393
 31
0.0
 70
    32
  1
<>{\f??|b0|i0|c0|p49;%%p0.2}
  3
STANDARD
100
AcDbAlignedDimension
 13
44.94824507602788
 23
182.2367751984638
 33
0.0
 14
69.94824507602789
 24
184.2367751984648
 34
0.0
100
AcDbRotatedDimension
  0
LINE
  5
237
102
{ACAD_REACTORS
330
22A
102
}
330
2
100
AcDbEntity
  8
0
 48
0.2
100
AcDbLine
 10
46.94824507602787
 20
184.2367751984648
 30
0.0
 11
69.94824507602789
 21
184.2367751984648
 31
0.0
  0
LINE
  5
238
330
2
100
AcDbEntity
  8
0
 48
0.2
100
AcDbLine
 10
46.94824507602787
 20
180.2367751984647
 30
0.0
 11
69.94824507602789
 21
180.2367751984647
 31
0.0
  0
ARC
  5
239
102
{ACAD_REACTORS
330
22A
102
}
330
2
100
AcDbEntity
  8
0
100
AcDbCircle
 10
46.94824507602787
 20
182.2367751984638
 30
0.0
 40
2.0
100
AcDbArc
 50
90.0
 51
270.0
  0
LINE
  5
23A
330
2
100
AcDbEntity
  8
0
100
AcDbLine
 10
69.94824507602789
 20
184.2367751984648
 30
0.0
 11
69.94824507602789
 21
180.2367751984647
 31
0.0
  0
LEADER
  5
23B
330
2
100
AcDbEntity
  8
0
100
AcDbLeader
  3
STANDARD
 73
     0
 75
     1
 40
3.0
 41
26.65178571428571
 76
     3
 10
123.9478414284894
 20
321.9711668100183
 30
0.0
 10
118.0397169378393
 20
341.1322138998206
 30
0.0
 10
115.5397169378393
 20
341.1322138998206
 30
0.0
340
23C
1001
ACAD
1000
DSTYLE
1002
{
1070
     5
1000

1070
   342
1005
0
1002
}
  0
MTEXT
  5
23C
102
{ACAD_REACTORS
330
23B
102
}
330
2
100
AcDbEntity
  8
0
 62
     3
100
AcDbMText
 10
114.5397169378393
 20
342.1322138998206
 30
0.0
 40
3.0
 41
0.0
 71
     9
 72
     1
  1
4-%%c5.5 hole
1001
ACAD
1000
MTEXTBEGIN
1070
    73
1070
     1
1070
    44
1040
1.0
1070
    74
1070
     0
1000
MTEXTEND
1000
MTEXTBEGIN
1070
    73
1070
     1
1070
    44
1040
1.0
1070
    74
1070
     0
1000
MTEXTEND
1000
MTEXTBEGIN
1070
    73
1070
     1
1070
    44
1040
1.0
1070
    74
1070
     0
1000
MTEXTEND
  0
ARC
  5
23D
330
2
100
AcDbEntity
  8
2
 62
     7
100
AcDbCircle
 10
229.3747953315594
 20
287.4716946580656
 30
0.0
 40
0.4999999999999968
100
AcDbArc
 50
180.0
 51
270.0
  0
LINE
  5
23E
330
2
100
AcDbEntity
  8
2
 62
     7
100
AcDbLine
 10
228.8747953315631
 20
287.4716946580656
 30
0.0
 11
228.8747953315631
 21
288.9716946580656
 31
0.0
  0
LINE
  5
23F
330
2
100
AcDbEntity
  8
2
 62
     7
100
AcDbLine
 10
231.8747953315631
 20
286.9716946580646
 30
0.0
 11
229.3747953315594
 21
286.9716946580646
 31
0.0
  0
LINE
  5
240
330
2
100
AcDbEntity
  8
0
100
AcDbLine
 10
272.8747953315596
 20
322.4716946580646
 30
0.0
 11
232.3747953315594
 21
322.4716946580646
 31
0.0
  0
DIMENSION
  5
241
102
{ACAD_XDICTIONARY
360
242
102
}
102
{ACAD_REACTORS
330
243
102
}
330
2
100
AcDbEntity
  8
0
100
AcDbDimension
  2
*D60
 10
231.8747953315631
 20
238.6756802764393
 30
0.0
 11
252.8747953315633
 21
241.1756802764393
 31
0.0
 70
    32
  1
L
  3
STANDARD
100
AcDbAlignedDimension
 13
273.8747953315633
 23
251.9716946580647
 33
0.0
 14
231.8747953315631
 24
251.9716946580647
 34
0.0
 50
180.0
100
AcDbRotatedDimension
  0
LINE
  5
250
330
2
100
AcDbEntity
  8
0
100
AcDbLine
 10
272.8747953315596
 20
251.4716946580656
 30
0.0
 11
232.3747953315594
 21
251.4716946580656
 31
0.0
  0
LINE
  5
251
102
{ACAD_REACTORS
330
25C
102
}
330
2
100
AcDbEntity
  8
0
100
AcDbLine
 10
228.8747953315631
 20
316.4716946580656
 30
0.0
 11
228.8747953315631
 21
287.4716946580656
 31
0.0
  0
LINE
  5
252
102
{ACAD_REACTORS
330
243
330
25C
102
}
330
2
100
AcDbEntity
  8
0
100
AcDbLine
 10
231.8747953315631
 20
321.9716946580646
 30
0.0
 11
231.8747953315631
 21
251.9716946580647
 31
0.0
  0
ARC
  5
253
330
2
100
AcDbEntity
  8
0
100
AcDbCircle
 10
229.3747953315594
 20
287.4716946580656
 30
0.0
 40
0.5
100
AcDbArc
 50
180.0
 51
270.0
  0
ARC
  5
254
330
2
100
AcDbEntity
  8
0
100
AcDbCircle
 10
232.3747953315594
 20
251.9716946580647
 30
0.0
 40
0.5
100
AcDbArc
 50
180.0
 51
270.0
  0
LINE
  5
255
330
2
100
AcDbEntity
  8
0
100
AcDbLine
 10
229.3747953315594
 20
286.9716946580646
 30
0.0
 11
231.8747953315631
 21
286.9716946580646
 31
0.0
  0
ARC
  5
256
330
2
100
AcDbEntity
  8
0
100
AcDbCircle
 10
232.3747953315594
 20
321.9716946580646
 30
0.0
 40
0.5
100
AcDbArc
 50
90.0
 51
180.0
  0
LINE
  5
257
102
{ACAD_REACTORS
330
243
330
2C5
102
}
330
2
100
AcDbEntity
  8
0
  6
HIDDEN
 62
     2
100
AcDbLine
 10
224.8747953315596
 20
306.9716946580656
 30
0.0
 11
224.8747953315596
 21
304.4716946580646
 31
0.0
  0
ARC
  5
258
330
2
100
AcDbEntity
  8
0
100
AcDbCircle
 10
229.3747953315594
 20
316.4716946580656
 30
0.0
 40
0.5
100
AcDbArc
 50
90.0
 51
180.0
  0
LINE
  5
259
330
2
100
AcDbEntity
  8
0
100
AcDbLine
 10
229.3747953315594
 20
316.9716946580646
 30
0.0
 11
231.8747953315631
 21
316.9716946580646
 31
0.0
  0
DIMENSION
  5
25A
102
{ACAD_XDICTIONARY
360
25B
102
}
102
{ACAD_REACTORS
330
25C
102
}
330
2
100
AcDbEntity
  8
0
100
AcDbDimension
  2
*D59
 10
228.8747953315631
 20
331.1538333612748
 30
0.0
 11
230.3747953315633
 21
331.1538333612748
 31
0.0
 70
   160
  3
STANDARD
100
AcDbAlignedDimension
 13
231.8747953315631
 23
321.9716946580646
 33
0.0
 14
228.8747953315631
 24
316.4716946580656
 34
0.0
 50
180.0
100
AcDbRotatedDimension
  0
LINE
  5
26B
102
{ACAD_REACTORS
330
243
102
}
330
2
100
AcDbEntity
  8
0
100
AcDbLine
 10
273.8747953315633
 20
321.9716946580646
 30
0.0
 11
273.8747953315633
 21
251.9716946580647
 31
0.0
  0
LINE
  5
26C
330
2
100
AcDbEntity
  8
0
100
AcDbLine
 10
273.8747953315633
 20
251.9716946580647
 30
0.0
 11
272.8747953315596
 21
251.9716946580647
 31
0.0
  0
LINE
  5
26D
330
2
100
AcDbEntity
  8
0
100
AcDbLine
 10
272.8747953315596
 20
251.9716946580647
 30
0.0
 11
272.8747953315596
 21
251.4716946580656
 31
0.0
  0
LINE
  5
26E
330
2
100
AcDbEntity
  8
0
100
AcDbLine
 10
273.8747953315633
 20
321.9716946580646
 30
0.0
 11
272.8747953315596
 21
321.9716946580646
 31
0.0
  0
LINE
  5
26F
330
2
100
AcDbEntity
  8
0
100
AcDbLine
 10
272.8747953315596
 20
322.4716946580646
 30
0.0
 11
272.8747953315596
 21
321.9716946580646
 31
0.0
  0
CIRCLE
  5
270
330
2
100
AcDbEntity
  8
0
100
AcDbCircle
 10
95.0853810672088
 20
305.3587064487436
 30
0.0
 40
5.0
  0
LINE
  5
271
330
2
100
AcDbEntity
  8
0
  6
CENTER
 62
     1
 48
0.6
100
AcDbLine
 10
95.0853810672088
 20
330.4603515535195
 30
0.0
 11
95.0853810672088
 21
250.2570613439683
 31
0.0
  0
CIRCLE
  5
272
330
2
100
AcDbEntity
  8
0
100
AcDbCircle
 10
95.0853810672088
 20
305.3587064487436
 30
0.0
 40
15.0
  0
LINE
  5
273
102
{ACAD_REACTORS
330
243
330
276
102
}
330
2
100
AcDbEntity
  8
0
100
AcDbLine
 10
199.8747953315596
 20
306.9716946580646
 30
0.0
 11
199.8747953315596
 21
296.9716946580646
 31
0.0
  0
DIMENSION
  5
274
102
{ACAD_XDICTIONARY
360
275
102
}
102
{ACAD_REACTORS
330
276
102
}
330
2
100
AcDbEntity
  8
0
100
AcDbDimension
  2
*D58
 10
185.0501320425828
 20
306.9716946580646
 30
0.0
 11
185.0501320425828
 21
332.9609018670946
 31
0.0
 70
   160
  1
\A1;{\f??|b0|i0|c0|p49;%%C10\H0.7x;\S+0^ -0.015;\H1.429x;(h7)}
  3
STANDARD
100
AcDbAlignedDimension
 13
199.8747953315596
 23
296.9716946580646
 33
0.0
 14
199.8747953315596
 24
306.9716946580646
 34
0.0
 50
90.0
100
AcDbRotatedDimension
  0
LINE
  5
285
102
{ACAD_REACTORS
330
212
102
}
330
2
100
AcDbEntity
  8
0
100
AcDbLine
 10
130.0853810672087
 20
320.3587064487436
 30
0.0
 11
130.0853810672087
 21
260.3587064487437
 31
0.0
  0
ARC
  5
286
330
2
100
AcDbEntity
  8
0
100
AcDbCircle
 10
125.0853810672088
 20
260.3587064487437
 30
0.0
 40
5.0
100
AcDbArc
 50
270.0
 51
0.0
  0
CIRCLE
  5
287
330
2
100
AcDbEntity
  8
0
100
AcDbCircle
 10
115.2492584803785
 20
212.8078188452676
 30
0.0
 40
1.5
  0
LWPOLYLINE
  5
288
330
2
100
AcDbEntity
  8
0
100
AcDbPolyline
 90
        2
 70
     1
 43
1.5
 10
114.4992584803784
 20
212.8078188452676
 42
1.0
 10
115.9992584803785
 20
212.8078188452676
 42
1.0
  0
LWPOLYLINE
  5
289
330
2
100
AcDbEntity
  8
3
100
AcDbPolyline
 90
        4
 70
     1
 43
0.0
 10
91.69294425904807
 20
238.3465664361906
 10
94.99294425904736
 20
238.3465664361906
 10
94.99294425904736
 20
241.8465664361906
 10
91.69294425904807
 20
241.8465664361906
  0
DIMENSION
  5
28A
102
{ACAD_XDICTIONARY
360
28B
102
}
102
{ACAD_REACTORS
330
28C
102
}
330
2
100
AcDbEntity
  8
0
100
AcDbDimension
  2
*D57
 10
176.6025492291445
 20
286.9716946580646
 30
0.0
 11
174.1025492291445
 21
294.4716946580651
 31
0.0
 70
    32
  3
STANDARD
100
AcDbAlignedDimension
 13
195.9766565303324
 23
301.9716946580656
 33
0.0
 14
216.51507708626
 24
286.9716946580646
 34
0.0
 50
90.0
100
AcDbRotatedDimension
  0
ARC
  5
299
330
2
100
AcDbEntity
  8
0
100
AcDbCircle
 10
125.0853810672088
 20
320.3587064487436
 30
0.0
 40
5.0
100
AcDbArc
 50
0.0
 51
90.0
  0
LINE
  5
29A
330
2
100
AcDbEntity
  8
0
 62
     0
100
AcDbLine
 10
93.08538106720879
 20
309.8898353228924
 30
0.0
 11
93.08538106720879
 21
307.8587064487436
 31
0.0
  0
LINE
  5
29B
330
2
100
AcDbEntity
  8
0
 62
     0
100
AcDbLine
 10
97.08538106721789
 20
309.8898353228924
 30
0.0
 11
97.08538106721789
 21
307.8587064487436
 31
0.0
  0
LINE
  5
29C
330
2
100
AcDbEntity
  8
0
100
AcDbLine
 10
93.08538106720879
 20
307.8587064487436
 30
0.0
 11
97.0853810672088
 21
307.8587064487436
 31
0.0
  0
LINE
  5
29D
330
2
100
AcDbEntity
  8
CEN
 48
0.6
100
AcDbLine
 10
85.94463563983845
 20
305.3587064487436
 30
0.0
 11
103.8507839891972
 21
305.3587064487436
 31
0.0
  0
LINE
  5
29E
102
{ACAD_REACTORS
330
28C
102
}
330
2
100
AcDbEntity
  8
CEN
 48
0.6
100
AcDbLine
 10
216.51507708626
 20
286.9716946580646
 30
0.0
 11
285.0342646711778
 21
286.9716946580646
 31
0.0
  0
DIMENSION
  5
29F
330
2
100
AcDbEntity
  8
0
100
AcDbDimension
  2
*D56
 10
167.7087494091102
 20
286.9716946580656
 30
0.0
 11
167.7087494091099
 21
301.7216946580656
 31
0.0
 70
   160
  1
{\f??|b0|i0|c0|p49;%%c}<>
  3
STANDARD
100
AcDbAlignedDimension
 13
229.3747953315594
 23
316.9716946580656
 33
0.0
 14
216.51507708626
 24
286.9716946580656
 34
0.0
 50
90.0
100
AcDbRotatedDimension
  0
TEXT
  5
2AC
330
2
100
AcDbEntity
  8
1
 62
     0
100
AcDbText
 10
196.0282346721123
 20
212.9843400421675
 30
0.0
 40
4.589999999999998
  1
DIMENSION TABLE
 41
0.8
  7
GHS
100
AcDbText
  0
LINE
  5
2AF
330
2
100
AcDbEntity
  8
1
  6
BYBLOCK
 62
     0
100
AcDbLine
 10
195.3662441778997
 20
210.9345581704114
 30
0.0
 11
245.0316819901217
 21
210.9345581704114
 31
0.0
  0
LINE
  5
2B0
330
2
100
AcDbEntity
  8
1
  6
BYBLOCK
 62
     0
100
AcDbLine
 10
195.3662441778997
 20
211.1595581704095
 30
0.0
 11
245.0316819901217
 21
211.1595581704095
 31
0.0
  0
LINE
  5
2B1
330
2
100
AcDbEntity
  8
1
  6
BYBLOCK
 62
     0
100
AcDbLine
 10
195.3662441778997
 20
211.8885901314065
 30
0.0
 11
245.0316819901217
 21
211.8885901314065
 31
0.0
  0
DIMENSION
  5
2B2
330
2
100
AcDbEntity
  8
0
100
AcDbDimension
  2
*D55
 10
231.8747953315631
 20
238.6756802764407
 30
0.0
 11
215.8747953315613
 21
241.1756802764405
 31
0.0
 70
    32
  3
STANDARD
100
AcDbAlignedDimension
 13
199.8747953315596
 23
296.9716946580656
 33
0.0
 14
231.8747953315631
 24
256.9716946580654
 34
0.0
 50
180.0
100
AcDbRotatedDimension
  0
LINE
  5
2BF
102
{ACAD_REACTORS
330
28C
102
}
330
2
100
AcDbEntity
  8
CEN
 48
0.6
100
AcDbLine
 10
243.4505425232218
 20
301.9716946580656
 30
0.0
 11
195.9766565303324
 21
301.9716946580656
 31
0.0
  0
LINE
  5
2C0
102
{ACAD_REACTORS
330
28C
102
}
330
2
100
AcDbEntity
  8
CEN
  6
BYBLOCK
 62
     0
100
AcDbLine
 10
228.8747953315631
 20
296.9716946580646
 30
0.0
 11
199.8747953315596
 21
296.9716946580646
 31
0.0
  0
LINE
  5
2C1
102
{ACAD_REACTORS
330
28C
102
}
330
2
100
AcDbEntity
  8
CEN
  6
HIDDEN
 62
     2
100
AcDbLine
 10
224.8747953315596
 20
304.4716946580646
 30
0.0
 11
199.8747953315596
 21
304.4716946580646
 31
0.0
  0
LINE
  5
2C2
102
{ACAD_REACTORS
330
28C
330
2C5
330
276
102
}
330
2
100
AcDbEntity
  8
CEN
  6
BYBLOCK
 62
     0
100
AcDbLine
 10
228.8747953315631
 20
306.9716946580646
 30
0.0
 11
199.8747953315596
 21
306.9716946580646
 31
0.0
  0
DIMENSION
  5
2C3
102
{ACAD_XDICTIONARY
360
2C4
102
}
102
{ACAD_REACTORS
330
2C5
102
}
330
2
100
AcDbEntity
  8
0
100
AcDbDimension
  2
*D54
 10
199.8747953315596
 20
323.1919828649675
 30
0.0
 11
212.6857259989554
 21
323.1919828649675
 31
0.0
 70
   160
  3
STANDARD
100
AcDbAlignedDimension
 13
224.8747953315596
 23
306.9716946580656
 33
0.0
 14
199.8747953315596
 24
306.9716946580656
 34
0.0
 50
180.0
100
AcDbRotatedDimension
  0
LINE
  5
2D2
330
2
100
AcDbEntity
  8
1
  6
BYBLOCK
 62
     0
100
AcDbLine
 10
308.8902410124701
 20
207.4769012551985
 30
0.0
 11
196.1365107484305
 21
207.4769012551985
 31
0.0
  0
TEXT
  5
2D3
330
2
100
AcDbEntity
  8
1
  6
BYBLOCK
 62
     0
100
AcDbText
 10
229.6763431976649
 20
182.1039862123407
 30
0.0
 40
4.589999999999998
  1
42
 41
0.8
  7
GHS
100
AcDbText
  0
TEXT
  5
2D4
330
2
100
AcDbEntity
  8
1
  6
BYBLOCK
 62
     0
100
AcDbText
 10
229.6763431976649
 20
191.2839862123405
 30
0.0
 40
4.589999999999998
  1
32
 41
0.8
  7
GHS
100
AcDbText
  0
TEXT
  5
2D5
330
2
100
AcDbEntity
  8
1
  6
BYBLOCK
 62
     0
100
AcDbText
 10
258.1489627776899
 20
191.7321377322043
 30
0.0
 40
4.589999999999998
  1
K7G3~18B(C)
 41
0.8
  7
GHS
100
AcDbText
  0
LINE
  5
2D6
330
2
100
AcDbEntity
  8
0
  6
CENTER
 62
     1
 48
0.4
100
AcDbLine
 10
125.4446387865191
 20
180.636479911468
 30
0.0
 11
142.3781333326678
 21
180.636479911468
 31
0.0
  0
DIMENSION
  5
2D7
102
{ACAD_XDICTIONARY
360
2D8
102
}
102
{ACAD_REACTORS
330
2D9
102
}
330
2
100
AcDbEntity
  8
0
100
AcDbDimension
  2
*D53
 10
91.11889836273986
 20
192.9112508570965
 30
0.0
 11
89.11889836273985
 21
196.3612508570964
 31
0.0
 70
    32
  1
\A1;<>{\f??|b0|i0|c0|p49;\H0.7x;\S+0^ -0.03;}
  3
STANDARD
100
AcDbAlignedDimension
 13
87.11889836273988
 23
184.2367751984648
 33
0.0
 14
91.11889836273986
 24
184.2367751984648
 34
0.0
100
AcDbRotatedDimension
  0
LINE
  5
2E8
330
2
100
AcDbEntity
  8
0
 48
0.2
100
AcDbLine
 10
87.11889836273988
 20
184.2367751984648
 30
0.0
 11
91.11889836273986
 21
184.2367751984648
 31
0.0
  0
LINE
  5
2E9
330
2
100
AcDbEntity
  8
0
 48
0.2
100
AcDbLine
 10
87.11889836273988
 20
180.2367751984647
 30
0.0
 11
91.11889836273986
 21
180.2367751984647
 31
0.0
  0
LINE
  5
2EA
102
{ACAD_REACTORS
330
2D9
102
}
330
2
100
AcDbEntity
  8
0
100
AcDbLine
 10
87.11889836273988
 20
184.2367751984648
 30
0.0
 11
87.11889836273988
 21
180.2367751984647
 31
0.0
  0
LINE
  5
2EB
102
{ACAD_REACTORS
330
2D9
102
}
330
2
100
AcDbEntity
  8
0
100
AcDbLine
 10
91.11889836273986
 20
184.2367751984648
 30
0.0
 11
91.11889836273986
 21
180.2367751984647
 31
0.0
  0
LINE
  5
2EC
330
2
100
AcDbEntity
  8
0
  6
CENTER
 62
     1
 48
0.4
100
AcDbLine
 10
85.11889836273985
 20
182.2367751984638
 30
0.0
 11
93.11889836273985
 21
182.2367751984638
 31
0.0
  0
LINE
  5
2ED
330
2
100
AcDbEntity
  8
0
  6
CENTER
 62
     1
 48
0.4
100
AcDbLine
 10
89.11889836273985
 20
186.2367751984638
 30
0.0
 11
89.11889836273985
 21
178.2367751984645
 31
0.0
  0
DIMENSION
  5
2EE
102
{ACAD_XDICTIONARY
360
2EF
102
}
102
{ACAD_REACTORS
330
2F0
102
}
330
2
100
AcDbEntity
  8
0
100
AcDbDimension
  2
*D52
 10
136.0522781032887
 20
193.9780681513983
 30
0.0
 11
134.0522781032887
 21
197.4280681513983
 31
0.0
 70
    32
  1
\A1;<>{\f??|b0|i0|c0|p49;\H0.7x;\S+0.40^ -0;}
  3
STANDARD
100
AcDbAlignedDimension
 13
132.0522781032887
 23
185.2190556064238
 33
0.0
 14
136.0522781032887
 24
185.2190556064238
 34
0.0
100
AcDbRotatedDimension
  0
LINE
  5
2FF
102
{ACAD_REACTORS
330
2F0
102
}
330
2
100
AcDbEntity
  8
0
100
AcDbLine
 10
136.0522781032887
 20
183.1364799114666
 30
0.0
 11
136.0522781032887
 21
185.2190556064238
 31
0.0
  0
LINE
  5
300
102
{ACAD_REACTORS
330
2F0
102
}
330
2
100
AcDbEntity
  8
0
100
AcDbLine
 10
132.0522781032887
 20
183.1364799114666
 30
0.0
 11
132.0522781032887
 21
185.2190556064238
 31
0.0
  0
LINE
  5
301
102
{ACAD_REACTORS
330
30A
102
}
330
2
100
AcDbEntity
  8
0
100
AcDbLine
 10
132.0522781032887
 20
183.1364799114666
 30
0.0
 11
136.0522781032887
 21
183.1364799114666
 31
0.0
  0
TEXT
  5
302
330
2
100
AcDbEntity
  8
1
  6
BYBLOCK
 62
     0
100
AcDbText
 10
204.501888432951
 20
191.6329486364966
 30
0.0
 40
4.589999999999998
  1
01
 41
0.8
  7
GHS
100
AcDbText
  0
TEXT
  5
303
330
2
100
AcDbEntity
  8
1
  6
BYBLOCK
 62
     0
100
AcDbText
 10
204.501888432951
 20
182.4529486364958
 30
0.0
 40
4.589999999999998
  1
02
 41
0.8
  7
GHS
100
AcDbText
  0
LINE
  5
304
330
2
100
AcDbEntity
  8
1
  6
BYBLOCK
 62
     0
100
AcDbLine
 10
308.8902410124701
 20
179.9369012551974
 30
0.0
 11
196.1365107484305
 21
179.9369012551974
 31
0.0
  0
LINE
  5
305
330
2
100
AcDbEntity
  8
1
  6
BYBLOCK
 62
     0
100
AcDbLine
 10
308.8902410124701
 20
198.2969012551988
 30
0.0
 11
196.1365107484305
 21
198.2969012551988
 31
0.0
  0
LINE
  5
306
330
2
100
AcDbEntity
  8
1
  6
BYBLOCK
 62
     0
100
AcDbLine
 10
308.8902410124701
 20
189.1169012551985
 30
0.0
 11
196.1365107484305
 21
189.1169012551985
 31
0.0
  0
TEXT
  5
307
330
2
100
AcDbEntity
  8
1
  6
BYBLOCK
 62
     0
100
AcDbText
 10
256.2770471651802
 20
182.5521377322038
 30
0.0
 40
4.589999999999998
  1
K7G25~180B(C)
 41
0.8
  7
GHS
100
AcDbText
  0
DIMENSION
  5
308
102
{ACAD_XDICTIONARY
360
309
102
}
102
{ACAD_REACTORS
330
30A
102
}
330
2
100
AcDbEntity
  8
0
100
AcDbDimension
  2
*D51
 10
151.5496105974689
 20
185.6364799114681
 30
0.0
 11
151.5496105974689
 21
201.8436227686104
 31
0.0
 70
   160
  1
\A1;<>{\f??|b0|i0|c0|p49;\H0.7x;\S+0.1^ -0;\H1.429x; }
  3
STANDARD
100
AcDbAlignedDimension
 13
136.0522781032887
 23
183.1364799114666
 33
0.0
 14
134.0522781032887
 24
185.6364799114681
 34
0.0
 50
90.0
100
AcDbRotatedDimension
  0
TEXT
  5
319
330
2
100
AcDbEntity
  8
1
  6
BYBLOCK
 62
     0
100
AcDbText
 10
252.4325198219866
 20
200.3111846473125
 30
0.0
 40
4.589999999999998
  1
APPLICATION MODEL
 41
0.8
  7
GHS
100
AcDbText
  0
TEXT
  5
31A
330
2
100
AcDbEntity
  8
1
  6
BYBLOCK
 62
     0
100
AcDbText
 10
231.5251440033735
 20
200.2975160682258
 30
0.0
 40
4.589999999999998
  1
L
 41
0.8
  7
GHS
100
AcDbText
  0
LINE
  5
31B
330
2
100
AcDbEntity
  8
1
  6
BYBLOCK
 62
     0
100
AcDbLine
 10
249.6463279319468
 20
207.4769012551985
 30
0.0
 11
249.6463279319468
 21
179.9369012551974
 31
0.0
  0
TEXT
  5
31C
330
2
100
AcDbEntity
  8
1
  6
BYBLOCK
 62
     0
100
AcDbText
 10
203.6976359088057
 20
200.4657139811697
 30
0.0
 40
4.589999999999998
  1
NO.
 41
0.8
  7
GHS
100
AcDbText
  0
LINE
  5
31D
330
2
100
AcDbEntity
  8
1
  6
BYBLOCK
 62
     0
100
AcDbLine
 10
196.1365107484305
 20
207.4769012551985
 30
0.0
 11
196.1365107484305
 21
179.9369012551974
 31
0.0
  0
LINE
  5
31E
330
2
100
AcDbEntity
  8
1
  6
BYBLOCK
 62
     0
100
AcDbLine
 10
219.953293946355
 20
207.4769012551985
 30
0.0
 11
219.953293946355
 21
179.9369012551974
 31
0.0
  0
LINE
  5
31F
330
2
100
AcDbEntity
  8
1
  6
BYBLOCK
 62
     0
100
AcDbLine
 10
308.8902410124701
 20
207.4769012551985
 30
0.0
 11
308.8902410124701
 21
179.9369012551974
 31
0.0
  0
INSERT
  5
320
330
2
100
AcDbEntity
  8
0
100
AcDbBlockReference
  2
3
 10
104.3334481996097
 20
412.4871286697993
 30
0.0
  0
LINE
  5
321
330
2
100
AcDbEntity
  8
CEN
 48
0.6
100
AcDbLine
 10
64.7358134797596
 20
412.4871286697948
 30
0.0
 11
143.9310829194473
 21
412.4871286697948
 31
0.0
  0
DIMENSION
  5
322
102
{ACAD_XDICTIONARY
360
323
102
}
102
{ACAD_REACTORS
330
324
102
}
330
2
100
AcDbEntity
  8
0
100
AcDbDimension
  2
*D61
 10
139.3334481995879
 20
460.0549237957015
 30
0.0
 11
104.3334481995878
 21
460.0549237957015
 31
0.0
 70
   160
  3
STANDARD
100
AcDbAlignedDimension
 13
69.33344819959893
 23
442.4871286697957
 33
0.0
 14
139.3334481995879
 24
442.4871286697957
 34
0.0
100
AcDbRotatedDimension
  0
ARC
  5
331
102
{ACAD_REACTORS
330
324
102
}
330
2
100
AcDbEntity
  8
0
 48
0.6
100
AcDbCircle
 10
74.33344819959895
 20
442.4871286697957
 30
0.0
 40
5.0
100
AcDbArc
 50
90.0
 51
180.0
  0
ARC
  5
332
330
2
100
AcDbEntity
  8
0
 48
0.6
100
AcDbCircle
 10
74.33344819959895
 20
382.4871286697957
 30
0.0
 40
5.0
100
AcDbArc
 50
180.0
 51
270.0
  0
LINE
  5
333
330
2
100
AcDbEntity
  8
0
 48
0.6
100
AcDbLine
 10
69.33344819960985
 20
442.4871286697957
 30
0.0
 11
69.33344819960985
 21
382.4871286697957
 31
0.0
  0
LEADER
  5
334
330
2
100
AcDbEntity
  8
0
100
AcDbLeader
  3
STANDARD
 73
     0
 75
     1
 40
3.0
 41
26.65178571428571
 76
     3
 10
133.3691139866477
 20
444.1842980513587
 30
0.0
 10
125.6994488811777
 20
471.4706810044954
 30
0.0
 10
123.1994488811777
 20
471.4706810044954
 30
0.0
340
335
1001
ACAD
1000
DSTYLE
1002
{
1070
     5
1000

1070
   342
1005
0
1002
}
  0
MTEXT
  5
335
102
{ACAD_REACTORS
330
334
102
}
330
2
100
AcDbEntity
  8
0
 62
     3
100
AcDbMText
 10
122.1994488811777
 20
472.4706810044954
 30
0.0
 40
3.0
 41
0.0
 71
     9
 72
     1
  1
4-%%c5.5 hole
1001
ACAD
1000
MTEXTBEGIN
1070
    73
1070
     1
1070
    44
1040
1.0
1070
    74
1070
     0
1000
MTEXTEND
1000
MTEXTBEGIN
1070
    73
1070
     1
1070
    44
1040
1.0
1070
    74
1070
     0
1000
MTEXTEND
1000
MTEXTBEGIN
1070
    73
1070
     1
1070
    44
1040
1.0
1070
    74
1070
     0
1000
MTEXTEND
  0
DIMENSION
  5
336
102
{ACAD_XDICTIONARY
360
337
102
}
102
{ACAD_REACTORS
330
338
102
}
330
2
100
AcDbEntity
  8
0
100
AcDbDimension
  2
*D65
 10
171.2969853248305
 20
380.4871286697957
 30
0.0
 11
171.2969853248305
 21
409.8499875774947
 31
0.0
 70
   160
  1
\A1;%%C{\f??|b0|i0|c0|p49;64\H0.7x;\S+0^ -0.030;\H1.429x;(h7)} 
  3
STANDARD
100
AcDbAlignedDimension
 13
193.8948102018384
 23
444.4871286697956
 33
0.0
 14
193.8948102018384
 24
380.4871286697957
 34
0.0
 50
90.0
100
AcDbRotatedDimension
  0
CIRCLE
  5
345
330
2
100
AcDbEntity
  8
0
 48
0.6
100
AcDbCircle
 10
104.3334481995989
 20
412.4871286697948
 30
0.0
 40
32.00000000000005
  0
LINE
  5
346
330
2
100
AcDbEntity
  8
0
 48
0.6
100
AcDbLine
 10
74.33344819959895
 20
447.4871286697948
 30
0.0
 11
134.3334481995989
 21
447.4871286697958
 31
0.0
  0
CIRCLE
  5
347
330
2
100
AcDbEntity
  8
0
 48
0.6
100
AcDbCircle
 10
104.3334481995989
 20
412.4871286697948
 30
0.0
 40
3.000000000000055
  0
CIRCLE
  5
348
330
2
100
AcDbEntity
  8
0
 48
0.6
100
AcDbCircle
 10
104.3334481995989
 20
412.4871286697948
 30
0.0
 40
2.000000000000053
  0
LWPOLYLINE
  5
349
330
2
100
AcDbEntity
  8
3
100
AcDbPolyline
 90
        4
 70
     1
 43
0.0
 10
96.11767860666805
 20
462.3845999306317
 10
99.41767860666914
 20
462.3845999306317
 10
99.41767860666914
 20
465.8845999306318
 10
96.11767860666805
 20
465.8845999306318
  0
LINE
  5
34A
330
2
100
AcDbEntity
  8
0
 48
0.6
100
AcDbLine
 10
139.3334481995987
 20
442.4871286697957
 30
0.0
 11
139.3334481995987
 21
382.4871286697957
 31
0.0
  0
LINE
  5
34B
102
{ACAD_REACTORS
330
338
330
36E
102
}
330
2
100
AcDbEntity
  8
0
100
AcDbLine
 10
193.8948102018384
 20
444.4871286697948
 30
0.0
 11
193.8948102018384
 21
380.4871286697948
 31
0.0
  0
DIMENSION
  5
34C
330
2
100
AcDbEntity
  8
0
100
AcDbDimension
  2
*D64
 10
195.8948102018401
 20
467.0742064942278
 30
0.0
 11
189.3948102018384
 21
467.0742064942278
 31
0.0
 70
   160
  1
<>
  3
STANDARD
100
AcDbAlignedDimension
 13
182.8948102018384
 23
415.3266286697943
 33
0.0
 14
195.8948102018401
 24
447.4871286697958
 34
0.0
100
AcDbRotatedDimension
  0
LINE
  5
359
330
2
100
AcDbEntity
  8
0
100
AcDbLine
 10
183.3948102018384
 20
415.8371286697954
 30
0.0
 11
193.8948102018384
 21
415.8371286697954
 31
0.0
  0
LINE
  5
35A
330
2
100
AcDbEntity
  8
CEN
 48
0.6
100
AcDbLine
 10
181.3948102018384
 20
415.3266286697943
 30
0.0
 11
196.89481020184
 21
415.3266286697943
 31
0.0
  0
LINE
  5
35B
330
2
100
AcDbEntity
  8
0
100
AcDbLine
 10
183.3948102018384
 20
409.1371286697953
 30
0.0
 11
193.8948102018384
 21
409.1371286697953
 31
0.0
  0
LINE
  5
35C
330
2
100
AcDbEntity
  8
CEN
 48
0.6
100
AcDbLine
 10
181.3948102018384
 20
409.6476286697948
 30
0.0
 11
196.89481020184
 21
409.6476286697948
 31
0.0
  0
ARC
  5
35D
330
2
100
AcDbEntity
  8
0
100
AcDbCircle
 10
188.4349379363866
 20
445.1196104394898
 30
0.0
 40
30.21776684021192
100
AcDbArc
 50
272.7691355264801
 51
280.4096135785584
  0
ARC
  5
35E
330
2
100
AcDbEntity
  8
0
100
AcDbCircle
 10
188.4349379363866
 20
379.8546469000975
 30
0.0
 40
30.21776684021463
100
AcDbArc
 50
79.59038642144166
 51
87.23086447351985
  0
LINE
  5
35F
330
2
100
AcDbEntity
  8
0
100
AcDbLine
 10
182.8948102018384
 20
414.9371286697955
 30
0.0
 11
189.8948102018403
 21
414.9371286697955
 31
0.0
  0
LINE
  5
360
330
2
100
AcDbEntity
  8
0
100
AcDbLine
 10
182.8948102018384
 20
410.0371286697955
 30
0.0
 11
189.8948102018403
 21
410.0371286697955
 31
0.0
  0
LINE
  5
361
330
2
100
AcDbEntity
  8
2
100
AcDbLine
 10
189.8948102018403
 20
413.2524281314166
 30
0.0
 11
183.72706271746
 21
410.0371286697955
 31
0.0
  0
LINE
  5
362
330
2
100
AcDbEntity
  8
2
100
AcDbLine
 10
188.9439381195698
 20
414.9371286697955
 30
0.0
 11
183.8948102018403
 21
412.3864027276316
 31
0.0
  0
LINE
  5
363
330
2
100
AcDbEntity
  8
2
100
AcDbLine
 10
189.8948102018403
 20
414.4071286697943
 30
0.0
 11
183.8948102018403
 21
411.2317021892526
 31
0.0
  0
LINE
  5
364
330
2
100
AcDbEntity
  8
0
100
AcDbLine
 10
183.3948102018384
 20
415.8371286697954
 30
0.0
 11
182.8948102018384
 21
415.3371286697955
 31
0.0
  0
LINE
  5
365
330
2
100
AcDbEntity
  8
0
100
AcDbLine
 10
182.8948102018384
 20
409.6371286697952
 30
0.0
 11
183.3948102018384
 21
409.1371286697953
 31
0.0
  0
LINE
  5
366
330
2
100
AcDbEntity
  8
0
100
AcDbLine
 10
182.8948102018384
 20
415.3371286697955
 30
0.0
 11
182.8948102018384
 21
409.6476286697948
 31
0.0
  0
LINE
  5
367
330
2
100
AcDbEntity
  8
2
100
AcDbLine
 10
183.3948102018384
 20
415.8371286697954
 30
0.0
 11
183.3948102018384
 21
409.1371286697953
 31
0.0
  0
LINE
  5
368
330
2
100
AcDbEntity
  8
2
100
AcDbLine
 10
189.8948102018403
 20
414.9371286697955
 30
0.0
 11
189.8948102018403
 21
410.0371286697955
 31
0.0
  0
LINE
  5
369
330
2
100
AcDbEntity
  8
0
100
AcDbLine
 10
195.8948102018401
 20
380.4871286697948
 30
0.0
 11
193.8948102018384
 21
380.4871286697948
 31
0.0
  0
LINE
  5
36A
330
2
100
AcDbEntity
  8
0
100
AcDbLine
 10
195.8948102018401
 20
415.3071286697954
 30
0.0
 11
195.8948102018401
 21
409.6671286697946
 31
0.0
  0
LINE
  5
36B
330
2
100
AcDbEntity
  8
0
100
AcDbLine
 10
195.8948102018401
 20
415.3071286697954
 30
0.0
 11
195.8948102018401
 21
409.6671286697946
 31
0.0
  0
DIMENSION
  5
36C
102
{ACAD_XDICTIONARY
360
36D
102
}
102
{ACAD_REACTORS
330
36E
102
}
330
2
100
AcDbEntity
  8
0
100
AcDbDimension
  2
*D63
 10
195.8948102018401
 20
456.9479978162727
 30
0.0
 11
186.8948102018384
 21
456.9479978162727
 31
0.0
 70
   160
  3
STANDARD
100
AcDbAlignedDimension
 13
193.8948102018384
 23
444.4871286697948
 33
0.0
 14
195.8948102018401
 24
447.4871286697948
 34
0.0
100
AcDbRotatedDimension
  0
ARC
  5
37D
102
{ACAD_REACTORS
330
324
102
}
330
2
100
AcDbEntity
  8
0
 48
0.6
100
AcDbCircle
 10
134.3334481995989
 20
442.4871286697957
 30
0.0
 40
5.0
100
AcDbArc
 50
0.0
 51
90.0
  0
LINE
  5
37E
330
2
100
AcDbEntity
  8
0
100
AcDbLine
 10
195.8948102018401
 20
444.4871286697948
 30
0.0
 11
193.8948102018384
 21
444.4871286697948
 31
0.0
  0
LINE
  5
37F
330
2
100
AcDbEntity
  8
CEN
 48
0.6
100
AcDbLine
 10
235.0080433462188
 20
412.4871286697948
 30
0.0
 11
176.2510164012054
 21
412.4871286697948
 31
0.0
  0
LINE
  5
380
102
{ACAD_REACTORS
330
36E
330
383
102
}
330
2
100
AcDbEntity
  8
0
100
AcDbLine
 10
195.8948102018401
 20
447.4871286697958
 30
0.0
 11
225.8948102018385
 21
447.4871286697958
 31
0.0
  0
DIMENSION
  5
381
102
{ACAD_XDICTIONARY
360
382
102
}
102
{ACAD_REACTORS
330
383
102
}
330
2
100
AcDbEntity
  8
0
100
AcDbDimension
  2
*D62
 10
225.8948102018385
 20
467.0742064942278
 30
0.0
 11
210.8948102018384
 21
467.0742064942278
 31
0.0
 70
   160
  3
STANDARD
100
AcDbAlignedDimension
 13
195.8948102018401
 23
447.4871286697958
 33
0.0
 14
225.8948102018385
 24
447.4871286697958
 34
0.0
100
AcDbRotatedDimension
  0
LINE
  5
390
330
2
100
AcDbEntity
  8
0
 48
0.6
100
AcDbLine
 10
74.33344819959895
 20
377.4871286697957
 30
0.0
 11
134.3334481995989
 21
377.4871286697957
 31
0.0
  0
LINE
  5
391
330
2
100
AcDbEntity
  8
0
 48
0.6
100
AcDbLine
 10
121.712928306877
 20
377.4871286697957
 30
0.0
 11
115.9718780803487
 21
377.4871286697957
 31
0.0
  0
LINE
  5
392
330
2
100
AcDbEntity
  8
0
100
AcDbLine
 10
195.8948102018401
 20
377.4871286697948
 30
0.0
 11
225.8948102018385
 21
377.4871286697948
 31
0.0
  0
LINE
  5
393
330
2
100
AcDbEntity
  8
0
100
AcDbLine
 10
225.8948102018385
 20
447.4871286697958
 30
0.0
 11
225.8948102018385
 21
377.4871286697948
 31
0.0
  0
LINE
  5
394
330
2
100
AcDbEntity
  8
CEN
 48
0.6
100
AcDbLine
 10
104.3334481995989
 20
371.2658221109653
 30
0.0
 11
104.3334481995989
 21
453.7084352286247
 31
0.0
  0
LINE
  5
395
330
2
100
AcDbEntity
  8
0
100
AcDbLine
 10
195.8948102018401
 20
447.4871286697958
 30
0.0
 11
195.8948102018401
 21
377.4871286697948
 31
0.0
  0
ARC
  5
396
330
2
100
AcDbEntity
  8
0
 48
0.6
100
AcDbCircle
 10
134.3334481995989
 20
382.4871286697957
 30
0.0
 40
5.0
100
AcDbArc
 50
270.0
 51
0.0
  0
ENDSEC
  0
SECTION
  2
OBJECTS
  0
DICTIONARY
  5
9
330
0
100
AcDbDictionary
  3
ACAD_GROUP
350
98
  3
ACAD_LAYOUT
350
D
  3
ACAD_MLINESTYLE
350
99
  3
ACAD_PLOTSETTINGS
350
9A
  3
ACAD_PLOTSTYLENAME
350
8
  3
ACDBHEADERROUNDTRIPXREC
350
5C5
  3
ACDBVARIABLEDICTIONARY
350
397
  0
DICTIONARY
  5
15
330
14
100
AcDbDictionary
280
     1
  3
ACAD_LAYERFILTERS
360
16
  3
ACAD_LAYERSTATES
360
89
  0
DICTIONARY
  5
3
330
2
100
AcDbDictionary
280
     1
  3
ACAD_LAYOUTSELFREF
360
5E6
  0
DICTIONARY
  5
F
330
E
100
AcDbDictionary
280
     1
  3
ACAD_LAYOUTSELFREF
360
5E7
  0
DICTIONARY
  5
B4
330
B3
100
AcDbDictionary
280
     1
  3
ACAD_DIMASSOC
360
B5
  0
DICTIONARY
  5
D1
330
D0
100
AcDbDictionary
280
     1
  3
ACAD_DIMASSOC
360
D2
  0
DICTIONARY
  5
E9
330
E8
100
AcDbDictionary
280
     1
  3
ACAD_DIMASSOC
360
EA
  0
DICTIONARY
  5
10E
330
10D
100
AcDbDictionary
280
     1
  3
ACAD_DIMASSOC
360
10F
  0
DICTIONARY
  5
11F
330
11E
100
AcDbDictionary
280
     1
  3
ACAD_DIMASSOC
360
120
  0
DICTIONARY
  5
140
330
13F
100
AcDbDictionary
280
     1
  3
ACAD_DIMASSOC
360
141
  0
DICTIONARY
  5
152
330
151
100
AcDbDictionary
280
     1
  3
ACAD_DIMASSOC
360
153
  0
DICTIONARY
  5
161
330
160
100
AcDbDictionary
280
     1
  3
ACAD_DIMASSOC
360
162
  0
DICTIONARY
  5
182
330
181
100
AcDbDictionary
280
     1
  3
ACAD_DIMASSOC
360
183
  0
DICTIONARY
  5
191
330
190
100
AcDbDictionary
280
     1
  3
ACAD_DIMASSOC
360
192
  0
DICTIONARY
  5
1B4
330
1B3
100
AcDbDictionary
280
     1
  3
ACAD_DIMASSOC
360
1B5
  0
DICTIONARY
  5
1D3
330
1D2
100
AcDbDictionary
280
     1
  3
ACAD_DIMASSOC
360
1D4
  0
DICTIONARY
  5
211
330
210
100
AcDbDictionary
280
     1
  3
ACAD_DIMASSOC
360
212
  0
DICTIONARY
  5
229
330
228
100
AcDbDictionary
280
     1
  3
ACAD_DIMASSOC
360
22A
  0
DICTIONARY
  5
242
330
241
100
AcDbDictionary
280
     1
  3
ACAD_DIMASSOC
360
243
  0
DICTIONARY
  5
25B
330
25A
100
AcDbDictionary
280
     1
  3
ACAD_DIMASSOC
360
25C
  0
DICTIONARY
  5
275
330
274
100
AcDbDictionary
280
     1
  3
ACAD_DIMASSOC
360
276
  0
DICTIONARY
  5
28B
330
28A
100
AcDbDictionary
280
     1
  3
ACAD_DIMASSOC
360
28C
  0
DICTIONARY
  5
2C4
330
2C3
100
AcDbDictionary
280
     1
  3
ACAD_DIMASSOC
360
2C5
  0
DICTIONARY
  5
2D8
330
2D7
100
AcDbDictionary
280
     1
  3
ACAD_DIMASSOC
360
2D9
  0
DICTIONARY
  5
2EF
330
2EE
100
AcDbDictionary
280
     1
  3
ACAD_DIMASSOC
360
2F0
  0
DICTIONARY
  5
309
330
308
100
AcDbDictionary
280
     1
  3
ACAD_DIMASSOC
360
30A
  0
DICTIONARY
  5
323
330
322
100
AcDbDictionary
280
     1
  3
ACAD_DIMASSOC
360
324
  0
DICTIONARY
  5
337
330
336
100
AcDbDictionary
280
     1
  3
ACAD_DIMASSOC
360
338
  0
DICTIONARY
  5
36D
330
36C
100
AcDbDictionary
280
     1
  3
ACAD_DIMASSOC
360
36E
  0
DICTIONARY
  5
382
330
381
100
AcDbDictionary
280
     1
  3
ACAD_DIMASSOC
360
383
  0
DICTIONARY
  5
98
102
{ACAD_REACTORS
330
9
102
}
330
9
100
AcDbDictionary
  0
DICTIONARY
  5
D
102
{ACAD_REACTORS
330
9
102
}
330
9
100
AcDbDictionary
  0
DICTIONARY
  5
99
102
{ACAD_REACTORS
330
9
102
}
330
9
100
AcDbDictionary
  3
STANDARD
350
9B
  0
DICTIONARY
  5
9A
102
{ACAD_REACTORS
330
9
102
}
330
9
100
AcDbDictionary
  0
ACDBDICTIONARYWDFLT
  5
8
102
{ACAD_REACTORS
330
9
102
}
330
9
100
AcDbDictionary
281
     1
  3
Normal
350
7
100
AcDbDictionaryWithDefault
340
7
  0
DICTIONARY
  5
5C5
102
{ACAD_REACTORS
330
9
102
}
330
9
100
AcDbDictionary
  3
CEPSNTYPE
350
5CF
  3
DIMSTYLEDATA
350
5D3
  3
FINGERPRINTGUID
350
5D0
  3
HYPERLINKBASE
350
5C8
  3
INSUNITS
350
5CE
  3
LAYOUTDICT
350
5CA
  3
LWETCUNION
350
5CD
  3
PLOTSETDICT
350
5CB
  3
PLOTSTYLNAMDICT
350
5CC
  3
PSVPSCALE
350
5D2
  3
PUCSBASE
350
5D6
  3
PUCSORGBACK
350
5DC
  3
PUCSORGBOTTOM
350
5D8
  3
PUCSORGFRONT
350
5DB
  3
PUCSORGLEFT
350
5D9
  3
PUCSORGRIGHT
350
5DA
  3
PUCSORGTOP
350
5D7
  3
PUCSORTHOREF
350
5D4
  3
PUCSORTHOVIEW
350
5D5
  3
STYLESHEET
350
5C9
  3
TSTACKALIGN
350
5C6
  3
TSTACKSIZE
350
5C7
  3
UCSBASE
350
5DF
  3
UCSORGBACK
350
5E5
  3
UCSORGBOTTOM
350
5E1
  3
UCSORGFRONT
350
5E4
  3
UCSORGLEFT
350
5E2
  3
UCSORGRIGHT
350
5E3
  3
UCSORGTOP
350
5E0
  3
UCSORTHOREF
350
5DD
  3
UCSORTHOVIEW
350
5DE
  3
VERSIONGUID
350
5D1
  0
DICTIONARY
  5
397
102
{ACAD_REACTORS
330
9
102
}
330
9
100
AcDbDictionary
  3
DIMASSOC
350
399
  3
HIDETEXT
350
398
  0
DICTIONARY
  5
16
102
{ACAD_REACTORS
330
15
102
}
330
15
100
AcDbDictionary
280
     1
  3
$LAYERS
360
17
  3
-_UND_0
360
18
  3
-PEGC
360
19
  3
101
360
1A
  3
102
360
1B
  3
1DUC
360
1C
  3
1EQ
360
1D
  3
1TUB
360
1E
  3
2
360
1F
  3
2000
360
20
  3
50
360
21
  3
58J
360
22
  3
65
360
23
  3
AA
360
24
  3
ACABADOS
360
25
  3
AGUA_Y_DREN
360
26
  3
AIRE
360
27
  3
ALLE_AUS
360
28
  3
ALLES_MIT_S
360
29
  3
AMARILLO
360
2A
  3
APAGADOS
360
2B
  3
ARR
360
2C
  3
BA
360
2D
  3
BACKS
360
2E
  3
BASE
360
2F
  3
BLOQ_INUTIL
360
30
  3
CADKON
360
31
  3
CARPINTERIA
360
32
  3
CERRADOS
360
33
  3
COL
360
34
  3
COLOR
360
35
  3
COLOR_250
360
36
  3
COLORES
360
37
  3
CONGELADOS
360
38
  3
CONJUNTO
360
39
  3
D1
360
3A
  3
DA_
360
3B
  3
DET-
360
3C
  3
DOR-H
360
3D
  3
EJES
360
3E
  3
ELECTRICO
360
3F
  3
F1
360
40
  3
FROZEN
360
41
  3
GRID
360
42
  3
GRIDTXT
360
43
  3
HATCH
360
44
  3
HCAD
360
45
  3
INSTALACIONES
360
46
  3
JIZNI
360
47
  3
KCK
360
48
  3
KKK
360
49
  3
LAY
360
4A
  3
LAYER-0
360
4E
  3
LAYER-1
360
4F
  3
LAYER_1_UND_0
360
4B
  3
LAYER_2_UND_0
360
4C
  3
LAYER_9_UND_0_SCHRAFFUR
360
4D
  3
LOCK
360
50
  3
LOCKED
360
51
  3
LOTES
360
52
  3
LUNAR
360
53
  3
LUNAR2
360
54
  3
M
360
55
  3
MIS_LAYERS
360
56
  3
MRKCK
360
57
  3
NECADKON
360
58
  3
NI_LH
360
59
  3
NI_RH
360
5A
  3
NUM
360
5B
  3
OFF
360
5C
  3
ON
360
5D
  3
PBASE
360
5E
  3
PEGC
360
5F
  3
PEGCT
360
60
  3
PFRAME
360
61
  3
PGRID
360
62
  3
PGRIDT
360
63
  3
PLAFONES
360
64
  3
PLANTAS
360
65
  3
PLOT
360
66
  3
PRENDIDAS
360
67
  3
PRENDIDOS
360
68
  3
PRINT
360
69
  3
PT
360
6A
  3
PTH
360
6B
  3
PVGRID
360
6C
  3
RED_DE_AGUA_POTABLE
360
6D
  3
RED_DE_ENERGIA_ELECTRICA
360
6E
  3
SEVERNI
360
6F
  3
SHIN
360
70
  3
SHOW_ALL_LAYER
360
71
  3
SIN
360
72
  3
STORAGE-CART
360
73
  3
T
360
74
  3
TEXTOS
360
75
  3
TEXTURAS
360
76
  3
TUBERIAS
360
77
  3
UNFRZ
360
78
  3
V\U+0160ECHNY_NEPOU\U+017D\U+00CDVAN\U+00C9
360
79
  3
VA
360
7A
  3
VENTILACI\U+00D3N
360
7B
  3
VYHODNI
360
7C
  3
YO
360
7D
  3
ZAPADNI
360
7E
  3
사용
360
7F
  3
신규
360
80
  3
실박스
360
81
  3
우리토목
360
82
  3
주차
360
83
  3
지상정밀
360
84
  3
쩜선
360
85
  3
플로터_작업층
360
86
  3
현재_작업층
360
87
  3
현재_잠금
360
88
  0
DICTIONARY
  5
89
102
{ACAD_REACTORS
330
15
102
}
330
15
100
AcDbDictionary
  0
XRECORD
  5
5E6
102
{ACAD_REACTORS
330
3
102
}
330
3
100
AcDbXrecord
340
2
  0
XRECORD
  5
5E7
102
{ACAD_REACTORS
330
F
102
}
330
F
100
AcDbXrecord
340
E
  0
DIMASSOC
  5
B5
102
{ACAD_REACTORS
330
B4
102
}
330
B4
100
AcDbDimAssoc
330
B3
 90
        2
 70
     0
 71
     0
  1
AcDbOsnapPointRef
 72
     3
331
C1
 73
     2
 91
        0
 40
0.0
 10
-0.000000000003638
 20
0.0000000000020464
 30
0.0
 75
     0
  0
DIMASSOC
  5
D2
102
{ACAD_REACTORS
330
D1
102
}
330
D1
100
AcDbDimAssoc
330
D0
 90
       15
 70
     0
 71
     0
  1
AcDbOsnapPointRef
 72
    13
331
106
 73
     2
 91
        0
 40
0.0
 10
25.21822277259889
 20
70.50814128442562
 30
0.0
 75
     0
  1
AcDbOsnapPointRef
 72
     1
331
106
 73
     2
 91
        0
 40
1.0
 10
43.47326277948923
 20
26.43657611813068
 30
0.0
 75
     0
  1
AcDbOsnapPointRef
 72
    13
331
109
 73
     2
 91
        0
 40
0.0
 10
25.21822277259889
 20
28.46042828022063
 30
0.0
 75
     0
  1
AcDbOsnapPointRef
 72
     1
331
109
 73
     2
 91
        0
 40
1.0
 10
25.21822277259889
 20
112.5558542886204
 30
0.0
 75
     0
  0
DIMASSOC
  5
EA
102
{ACAD_REACTORS
330
E9
102
}
330
E9
100
AcDbDimAssoc
330
E8
 90
        3
 70
     0
 71
     0
  1
AcDbOsnapPointRef
 72
     1
331
F8
 73
     2
 91
        0
 40
3.141592653589792
 10
-9.781777227401107
 20
100.5081412844247
 30
0.0
 75
     0
  1
AcDbOsnapPointRef
 72
    13
331
F9
 73
     2
 91
        0
 40
0.0
 10
60.21822277259889
 20
100.5081412844247
 30
0.0
 75
     0
  0
DIMASSOC
  5
10F
102
{ACAD_REACTORS
330
10E
102
}
330
10E
100
AcDbDimAssoc
330
10D
 90
        3
 70
     0
 71
     0
  1
AcDbOsnapPointRef
 72
    13
331
130
 73
     2
 91
        0
 40
0.0
 10
310.614079319499
 20
93.00814128442059
 30
0.0
 75
     0
  1
AcDbOsnapPointRef
 72
    13
331
150
 73
     2
 91
        0
 40
0.0
 10
300.6140793195026
 20
103.4781412844195
 30
0.0
 75
     0
  0
DIMASSOC
  5
120
102
{ACAD_REACTORS
330
11F
102
}
330
11F
100
AcDbDimAssoc
330
11E
 90
        2
 70
     0
 71
     0
  1
AcDbOsnapPointRef
 72
     1
331
134
 73
     2
 91
        0
 40
1.0
 10
309.6140793195008
 20
47.0081412844206
 30
0.0
 75
     0
  0
DIMASSOC
  5
141
102
{ACAD_REACTORS
330
140
102
}
330
140
100
AcDbDimAssoc
330
13F
 90
        3
 70
     0
 71
     0
  1
AcDbOsnapPointRef
 72
     1
331
11D
 73
     2
 91
        0
 40
0.9999999999999998
 10
299.1144187244172
 20
105.0100489566548
 30
0.0
 75
     0
  1
AcDbOsnapPointRef
 72
     1
331
13E
 73
     2
 91
        0
 40
0.9999999999999998
 10
299.1144187244135
 20
36.00623361218367
 30
0.0
 75
     0
  0
DIMASSOC
  5
153
102
{ACAD_REACTORS
330
152
102
}
330
152
100
AcDbDimAssoc
330
151
 90
        3
 70
     0
 71
     0
  1
AcDbOsnapPointRef
 72
     1
331
170
 73
     2
 91
        0
 40
1.0
 10
110.6140793195099
 20
90.50814128442059
 30
0.0
 75
     0
  1
AcDbOsnapPointRef
 72
    13
331
1CF
 73
     2
 91
        0
 40
0.0
 10
142.6140793195098
 20
105.0081412844205
 30
0.0
 75
     0
  0
DIMASSOC
  5
162
102
{ACAD_REACTORS
330
161
102
}
330
161
100
AcDbDimAssoc
330
160
 90
        3
 70
     0
 71
     0
  1
AcDbOsnapPointRef
 72
    13
331
1C9
 73
     2
 91
        0
 40
0.0
 10
135.6140793195099
 20
90.50814128442153
 30
0.0
 75
     0
  1
AcDbOsnapPointRef
 72
     1
331
170
 73
     2
 91
        0
 40
1.0
 10
110.6140793195099
 20
90.50814128442059
 30
0.0
 75
     0
  0
DIMASSOC
  5
183
102
{ACAD_REACTORS
330
182
102
}
330
182
100
AcDbDimAssoc
330
181
 90
        1
 70
     0
 71
     0
  1
AcDbOsnapPointRef
 72
     1
331
173
 73
     2
 91
        0
 40
1.0
 10
106.7159405182773
 20
85.50814128442061
 30
0.0
 75
     0
  0
DIMASSOC
  5
192
102
{ACAD_REACTORS
330
191
102
}
330
191
100
AcDbDimAssoc
330
190
 90
        3
 70
     0
 71
     0
  1
AcDbOsnapPointRef
 72
     1
331
1A1
 73
     2
 91
        0
 40
1.0
 10
110.6140793195099
 20
80.50814128442061
 30
0.0
 75
     0
  1
AcDbOsnapPointRef
 72
     6
331
1A1
 73
     2
 91
        0
 40
0.0000000000000114
 10
110.6140793195099
 20
90.50814128442059
 30
0.0
332
170
 74
     2
 92
        0
 75
     0
  0
DIMASSOC
  5
1B5
102
{ACAD_REACTORS
330
1B4
102
}
330
1B4
100
AcDbDimAssoc
330
1B3
 90
        3
 70
     0
 71
     0
  1
AcDbOsnapPointRef
 72
    13
331
1CF
 73
     2
 91
        0
 40
0.0
 10
142.6140793195098
 20
105.0081412844205
 30
0.0
 75
     0
  1
AcDbOsnapPointRef
 72
    13
331
1C4
 73
     2
 91
        0
 40
0.0
 10
139.6140793195099
 20
100.0081412844205
 30
0.0
 75
     0
  0
DIMASSOC
  5
1D4
102
{ACAD_REACTORS
330
1D3
102
}
330
1D3
100
AcDbDimAssoc
330
1D2
 90
        2
 70
     0
 71
     0
  1
AcDbOsnapPointRef
 72
     1
331
1E2
 73
     2
 91
        0
 40
1.0
 10
189.6140793195026
 20
104.1068786259484
 30
0.0
 75
     0
  0
DIMASSOC
  5
212
102
{ACAD_REACTORS
330
211
102
}
330
211
100
AcDbDimAssoc
330
210
 90
        3
 70
     0
 71
     0
  1
AcDbOsnapPointRef
 72
     1
331
223
 73
     2
 91
        0
 40
1.0
 10
60.08538106720878
 20
260.3587064487437
 30
0.0
 75
     0
  1
AcDbOsnapPointRef
 72
     1
331
285
 73
     2
 91
        0
 40
1.0
 10
130.0853810672087
 20
260.3587064487437
 30
0.0
 75
     0
  0
DIMASSOC
  5
22A
102
{ACAD_REACTORS
330
229
102
}
330
229
100
AcDbDimAssoc
330
228
 90
        3
 70
     0
 71
     0
  1
AcDbOsnapPointRef
 72
     2
331
239
 73
     2
 91
        0
 40
3.141592653589792
 10
44.94824507602788
 20
182.2367751984638
 30
0.0
 75
     0
  1
AcDbOsnapPointRef
 72
     1
331
237
 73
     2
 91
        0
 40
1.0
 10
69.94824507602789
 20
184.2367751984648
 30
0.0
 75
     0
  0
DIMASSOC
  5
243
102
{ACAD_REACTORS
330
242
102
}
330
242
100
AcDbDimAssoc
330
241
 90
        3
 70
     0
 71
     0
  1
AcDbOsnapPointRef
 72
     1
331
26B
 73
     2
 91
        0
 40
1.0
 10
273.8747953315633
 20
251.9716946580647
 30
0.0
 75
     0
  1
AcDbOsnapPointRef
 72
     1
331
252
 73
     2
 91
        0
 40
1.0
 10
231.8747953315631
 20
251.9716946580647
 30
0.0
 75
     0
  0
DIMASSOC
  5
25C
102
{ACAD_REACTORS
330
25B
102
}
330
25B
100
AcDbDimAssoc
330
25A
 90
        3
 70
     0
 71
     0
  1
AcDbOsnapPointRef
 72
    13
331
252
 73
     2
 91
        0
 40
0.0
 10
231.8747953315631
 20
321.9716946580646
 30
0.0
 75
     0
  1
AcDbOsnapPointRef
 72
    13
331
251
 73
     2
 91
        0
 40
0.0
 10
228.8747953315631
 20
316.4716946580656
 30
0.0
 75
     0
  0
DIMASSOC
  5
276
102
{ACAD_REACTORS
330
275
102
}
330
275
100
AcDbDimAssoc
330
274
 90
        3
 70
     0
 71
     0
  1
AcDbOsnapPointRef
 72
     1
331
273
 73
     2
 91
        0
 40
1.0
 10
199.8747953315596
 20
296.9716946580646
 30
0.0
 75
     0
  1
AcDbOsnapPointRef
 72
     6
331
273
 73
     2
 91
        0
 40
0.0000000000000114
 10
199.8747953315596
 20
306.9716946580646
 30
0.0
332
2C2
 74
     2
 92
        0
 75
     0
  0
DIMASSOC
  5
28C
102
{ACAD_REACTORS
330
28B
102
}
330
28B
100
AcDbDimAssoc
330
28A
 90
        3
 70
     0
 71
     0
  1
AcDbOsnapPointRef
 72
     1
331
2BF
 73
     2
 91
        0
 40
1.0
 10
195.9766565303324
 20
301.9716946580656
 30
0.0
 75
     0
  1
AcDbOsnapPointRef
 72
    13
331
29E
 73
     2
 91
        0
 40
0.0
 10
216.51507708626
 20
286.9716946580646
 30
0.0
 75
     0
  0
DIMASSOC
  5
2C5
102
{ACAD_REACTORS
330
2C4
102
}
330
2C4
100
AcDbDimAssoc
330
2C3
 90
        3
 70
     0
 71
     0
  1
AcDbOsnapPointRef
 72
    13
331
257
 73
     2
 91
        0
 40
0.0
 10
224.8747953315596
 20
306.9716946580656
 30
0.0
 75
     0
  1
AcDbOsnapPointRef
 72
     1
331
2C2
 73
     2
 91
        0
 40
1.0
 10
199.8747953315596
 20
306.9716946580646
 30
0.0
 75
     0
  0
DIMASSOC
  5
2D9
102
{ACAD_REACTORS
330
2D8
102
}
330
2D8
100
AcDbDimAssoc
330
2D7
 90
        3
 70
     0
 71
     0
  1
AcDbOsnapPointRef
 72
    13
331
2EA
 73
     2
 91
        0
 40
0.0
 10
87.11889836273988
 20
184.2367751984648
 30
0.0
 75
     0
  1
AcDbOsnapPointRef
 72
    13
331
2EB
 73
     2
 91
        0
 40
0.0
 10
91.11889836273986
 20
184.2367751984648
 30
0.0
 75
     0
  0
DIMASSOC
  5
2F0
102
{ACAD_REACTORS
330
2EF
102
}
330
2EF
100
AcDbDimAssoc
330
2EE
 90
        3
 70
     0
 71
     0
  1
AcDbOsnapPointRef
 72
     1
331
300
 73
     2
 91
        0
 40
1.0
 10
132.0522781032887
 20
185.2190556064238
 30
0.0
 75
     0
  1
AcDbOsnapPointRef
 72
     1
331
2FF
 73
     2
 91
        0
 40
1.0
 10
136.0522781032887
 20
185.2190556064238
 30
0.0
 75
     0
  0
DIMASSOC
  5
30A
102
{ACAD_REACTORS
330
309
102
}
330
309
100
AcDbDimAssoc
330
308
 90
        3
 70
     0
 71
     0
  1
AcDbOsnapPointRef
 72
     1
331
301
 73
     2
 91
        0
 40
1.0
 10
136.0522781032887
 20
183.1364799114666
 30
0.0
 75
     0
  1
AcDbOsnapPointRef
 72
     5
331
9D
 73
     2
 91
        0
 40
1.570796326794896
 10
134.0522781032887
 20
185.6364799114681
 30
0.0
 75
     0
  0
DIMASSOC
  5
324
102
{ACAD_REACTORS
330
323
102
}
330
323
100
AcDbDimAssoc
330
322
 90
        3
 70
     0
 71
     0
  1
AcDbOsnapPointRef
 72
     1
331
331
 73
     2
 91
        0
 40
3.141592653589792
 10
69.33344819959893
 20
442.4871286697957
 30
0.0
 75
     0
  1
AcDbOsnapPointRef
 72
    13
331
37D
 73
     2
 91
        0
 40
0.0
 10
139.3334481995987
 20
442.4871286697957
 30
0.0
 75
     0
  0
DIMASSOC
  5
338
102
{ACAD_REACTORS
330
337
102
}
330
337
100
AcDbDimAssoc
330
336
 90
        1
 70
     0
 71
     0
  1
AcDbOsnapPointRef
 72
    13
331
34B
 73
     2
 91
        0
 40
0.0
 10
193.8948102018384
 20
444.4871286697948
 30
0.0
 75
     0
  0
DIMASSOC
  5
36E
102
{ACAD_REACTORS
330
36D
102
}
330
36D
100
AcDbDimAssoc
330
36C
 90
        3
 70
     0
 71
     0
  1
AcDbOsnapPointRef
 72
    13
331
34B
 73
     2
 91
        0
 40
0.0
 10
193.8948102018384
 20
444.4871286697948
 30
0.0
 75
     0
  1
AcDbOsnapPointRef
 72
    13
331
380
 73
     2
 91
        0
 40
0.0
 10
195.8948102018401
 20
447.4871286697958
 30
0.0
 75
     0
  0
DIMASSOC
  5
383
102
{ACAD_REACTORS
330
382
102
}
330
382
100
AcDbDimAssoc
330
381
 90
        3
 70
     0
 71
     0
  1
AcDbOsnapPointRef
 72
    13
331
380
 73
     2
 91
        0
 40
0.0
 10
195.8948102018401
 20
447.4871286697958
 30
0.0
 75
     0
  1
AcDbOsnapPointRef
 72
     1
331
380
 73
     2
 91
        0
 40
1.0
 10
225.8948102018385
 20
447.4871286697958
 30
0.0
 75
     0
  0
MLINESTYLE
  5
9B
102
{ACAD_REACTORS
330
99
102
}
330
99
100
AcDbMlineStyle
  2
STANDARD
 70
     0
  3

 62
   256
 51
90.0
 52
90.0
 71
     2
 49
0.5
 62
   256
  6
BYLAYER
 49
-0.5
 62
   256
  6
BYLAYER
  0
ACDBPLACEHOLDER
  5
7
102
{ACAD_REACTORS
330
8
102
}
330
8
100
AcDbPlaceHolder
280
     0
  0
XRECORD
  5
5CF
102
{ACAD_REACTORS
330
5C5
102
}
330
5C5
100
AcDbXrecord
 90
        0
  0
XRECORD
  5
5D3
102
{ACAD_REACTORS
330
5C5
102
}
330
5C5
100
AcDbXrecord
1000
DSTYLE
1002
{
1070
    79
 70
     2
1070
   179
 70
     1
1002
}
  0
XRECORD
  5
5D0
102
{ACAD_REACTORS
330
5C5
102
}
330
5C5
100
AcDbXrecord
  1
{FDEAD578-A652-11D2-9A35-0060089B3A3F}
  0
XRECORD
  5
5C8
102
{ACAD_REACTORS
330
5C5
102
}
330
5C5
100
AcDbXrecord
  1

  0
XRECORD
  5
5CE
102
{ACAD_REACTORS
330
5C5
102
}
330
5C5
100
AcDbXrecord
 90
        4
  0
XRECORD
  5
5CA
102
{ACAD_REACTORS
330
5C5
102
}
330
5C5
100
AcDbXrecord
340
D
  0
XRECORD
  5
5CD
102
{ACAD_REACTORS
330
5C5
102
}
330
5C5
100
AcDbXrecord
 90
    10781
  0
XRECORD
  5
5CB
102
{ACAD_REACTORS
330
5C5
102
}
330
5C5
100
AcDbXrecord
340
9A
  0
XRECORD
  5
5CC
102
{ACAD_REACTORS
330
5C5
102
}
330
5C5
100
AcDbXrecord
340
8
  0
XRECORD
  5
5D2
102
{ACAD_REACTORS
330
5C5
102
}
330
5C5
100
AcDbXrecord
 40
0.0
  0
XRECORD
  5
5D6
102
{ACAD_REACTORS
330
5C5
102
}
330
5C5
100
AcDbXrecord
340
0
  0
XRECORD
  5
5DC
102
{ACAD_REACTORS
330
5C5
102
}
330
5C5
100
AcDbXrecord
 10
0.0
 20
0.0
 30
0.0
  0
XRECORD
  5
5D8
102
{ACAD_REACTORS
330
5C5
102
}
330
5C5
100
AcDbXrecord
 10
0.0
 20
0.0
 30
0.0
  0
XRECORD
  5
5DB
102
{ACAD_REACTORS
330
5C5
102
}
330
5C5
100
AcDbXrecord
 10
0.0
 20
0.0
 30
0.0
  0
XRECORD
  5
5D9
102
{ACAD_REACTORS
330
5C5
102
}
330
5C5
100
AcDbXrecord
 10
0.0
 20
0.0
 30
0.0
  0
XRECORD
  5
5DA
102
{ACAD_REACTORS
330
5C5
102
}
330
5C5
100
AcDbXrecord
 10
0.0
 20
0.0
 30
0.0
  0
XRECORD
  5
5D7
102
{ACAD_REACTORS
330
5C5
102
}
330
5C5
100
AcDbXrecord
 10
0.0
 20
0.0
 30
0.0
  0
XRECORD
  5
5D4
102
{ACAD_REACTORS
330
5C5
102
}
330
5C5
100
AcDbXrecord
340
0
  0
XRECORD
  5
5D5
102
{ACAD_REACTORS
330
5C5
102
}
330
5C5
100
AcDbXrecord
 70
     0
  0
XRECORD
  5
5C9
102
{ACAD_REACTORS
330
5C5
102
}
330
5C5
100
AcDbXrecord
  1

  0
XRECORD
  5
5C6
102
{ACAD_REACTORS
330
5C5
102
}
330
5C5
100
AcDbXrecord
 90
        1
  0
XRECORD
  5
5C7
102
{ACAD_REACTORS
330
5C5
102
}
330
5C5
100
AcDbXrecord
 90
       70
  0
XRECORD
  5
5DF
102
{ACAD_REACTORS
330
5C5
102
}
330
5C5
100
AcDbXrecord
340
0
  0
XRECORD
  5
5E5
102
{ACAD_REACTORS
330
5C5
102
}
330
5C5
100
AcDbXrecord
 10
0.0
 20
0.0
 30
0.0
  0
XRECORD
  5
5E1
102
{ACAD_REACTORS
330
5C5
102
}
330
5C5
100
AcDbXrecord
 10
0.0
 20
0.0
 30
0.0
  0
XRECORD
  5
5E4
102
{ACAD_REACTORS
330
5C5
102
}
330
5C5
100
AcDbXrecord
 10
0.0
 20
0.0
 30
0.0
  0
XRECORD
  5
5E2
102
{ACAD_REACTORS
330
5C5
102
}
330
5C5
100
AcDbXrecord
 10
0.0
 20
0.0
 30
0.0
  0
XRECORD
  5
5E3
102
{ACAD_REACTORS
330
5C5
102
}
330
5C5
100
AcDbXrecord
 10
0.0
 20
0.0
 30
0.0
  0
XRECORD
  5
5E0
102
{ACAD_REACTORS
330
5C5
102
}
330
5C5
100
AcDbXrecord
 10
0.0
 20
0.0
 30
0.0
  0
XRECORD
  5
5DD
102
{ACAD_REACTORS
330
5C5
102
}
330
5C5
100
AcDbXrecord
340
0
  0
XRECORD
  5
5DE
102
{ACAD_REACTORS
330
5C5
102
}
330
5C5
100
AcDbXrecord
 70
     0
  0
XRECORD
  5
5D1
102
{ACAD_REACTORS
330
5C5
102
}
330
5C5
100
AcDbXrecord
  1
{0AC02272-B59B-4880-9EC2-092EE991162C}
  0
DICTIONARYVAR
  5
399
102
{ACAD_REACTORS
330
397
102
}
330
397
100
DictionaryVariables
280
     0
  1
2
  0
DICTIONARYVAR
  5
398
102
{ACAD_REACTORS
330
397
102
}
330
397
100
DictionaryVariables
280
     0
  1
1
  0
XRECORD
  5
17
102
{ACAD_REACTORS
330
16
102
}
330
16
100
AcDbXrecord
  1
$layers
  1
*
  1
*
  1
*
 70
     0
  1
*
  1
*
  0
XRECORD
  5
18
102
{ACAD_REACTORS
330
16
102
}
330
16
100
AcDbXrecord
  1
- und 0
  1
-*,0
  1
*
  1
*
 70
     0
  1
*
  1
*
  0
XRECORD
  5
19
102
{ACAD_REACTORS
330
16
102
}
330
16
100
AcDbXrecord
  1
-pegc
  1
*-pegc
  1
*
  1
*
 70
     0
  1
*
  1
*
  0
XRECORD
  5
1A
102
{ACAD_REACTORS
330
16
102
}
330
16
100
AcDbXrecord
  1
101
  1
*101
  1
*
  1
*
 70
   256
  1
*
  1
*
  0
XRECORD
  5
1B
102
{ACAD_REACTORS
330
16
102
}
330
16
100
AcDbXrecord
  1
102
  1
102*
  1
*
  1
*
 70
     0
  1
*
  1
*
  0
XRECORD
  5
1C
102
{ACAD_REACTORS
330
16
102
}
330
16
100
AcDbXrecord
  1
1duc
  1
*1duc*
  1
*
  1
*
 70
     0
  1
*
  1
*
  0
XRECORD
  5
1D
102
{ACAD_REACTORS
330
16
102
}
330
16
100
AcDbXrecord
  1
1eq
  1
*1eq*
  1
*
  1
*
 70
     0
  1
*
  1
*
  0
XRECORD
  5
1E
102
{ACAD_REACTORS
330
16
102
}
330
16
100
AcDbXrecord
  1
1tub
  1
*1t*
  1
*
  1
*
 70
     0
  1
*
  1
*
  0
XRECORD
  5
1F
102
{ACAD_REACTORS
330
16
102
}
330
16
100
AcDbXrecord
  1
2
  1
*
  1
2
  1
*
 70
     0
  1
*
  1
*
  0
XRECORD
  5
20
102
{ACAD_REACTORS
330
16
102
}
330
16
100
AcDbXrecord
  1
2000
  1
2000*
  1
*
  1
*
 70
     0
  1
*
  1
*
  0
XRECORD
  5
21
102
{ACAD_REACTORS
330
16
102
}
330
16
100
AcDbXrecord
  1
50
  1
*-50
  1
*
  1
*
 70
     0
  1
*
  1
*
  0
XRECORD
  5
22
102
{ACAD_REACTORS
330
16
102
}
330
16
100
AcDbXrecord
  1
58J
  1
*58*
  1
*
  1
*
 70
     0
  1
*
  1
*
  0
XRECORD
  5
23
102
{ACAD_REACTORS
330
16
102
}
330
16
100
AcDbXrecord
  1
65
  1
*65
  1
*
  1
*
 70
     0
  1
*
  1
*
  0
XRECORD
  5
24
102
{ACAD_REACTORS
330
16
102
}
330
16
100
AcDbXrecord
  1
aa
  1
aa*
  1
*
  1
*
 70
     0
  1
*
  1
*
  0
XRECORD
  5
25
102
{ACAD_REACTORS
330
16
102
}
330
16
100
AcDbXrecord
  1
acabados
  1
a-*
  1
*
  1
*
 70
     5
  1
*
  1
*
  0
XRECORD
  5
26
102
{ACAD_REACTORS
330
16
102
}
330
16
100
AcDbXrecord
  1
AGUA Y DREN
  1
A-DS-*
  1
*
  1
*
 70
     0
  1
*
  1
*
  0
XRECORD
  5
27
102
{ACAD_REACTORS
330
16
102
}
330
16
100
AcDbXrecord
  1
Aire
  1
*
  1
*
  1
*
 70
     0
  1
*
  1
*
  0
XRECORD
  5
28
102
{ACAD_REACTORS
330
16
102
}
330
16
100
AcDbXrecord
  1
alle aus
  1
99999999999
  1
*
  1
*
 70
     0
  1
*
  1
*
  0
XRECORD
  5
29
102
{ACAD_REACTORS
330
16
102
}
330
16
100
AcDbXrecord
  1
Alles mit S
  1
s*
  1
*
  1
*
 70
     0
  1
*
  1
*
  0
XRECORD
  5
2A
102
{ACAD_REACTORS
330
16
102
}
330
16
100
AcDbXrecord
  1
amarillo
  1
*
  1
yellow
  1
*
 70
     0
  1
*
  1
*
  0
XRECORD
  5
2B
102
{ACAD_REACTORS
330
16
102
}
330
16
100
AcDbXrecord
  1
APAGADOS
  1
*
  1
*
  1
*
 70
     4
  1
*
  1
*
  0
XRECORD
  5
2C
102
{ACAD_REACTORS
330
16
102
}
330
16
100
AcDbXrecord
  1
ARR
  1
ARR*
  1
*
  1
*
 70
     0
  1
*
  1
*
  0
XRECORD
  5
2D
102
{ACAD_REACTORS
330
16
102
}
330
16
100
AcDbXrecord
  1
ba
  1
*
  1
*
  1
*
 70
     0
  1
*
  1
*
  0
XRECORD
  5
2E
102
{ACAD_REACTORS
330
16
102
}
330
16
100
AcDbXrecord
  1
BACKS
  1
*-H
  1
*
  1
*
 70
     0
  1
*
  1
*
  0
XRECORD
  5
2F
102
{ACAD_REACTORS
330
16
102
}
330
16
100
AcDbXrecord
  1
BASE
  1
*-PBASE
  1
*
  1
*
 70
     0
  1
*
  1
*
  0
XRECORD
  5
30
102
{ACAD_REACTORS
330
16
102
}
330
16
100
AcDbXrecord
  1
BLOQ_INUTIL
  1
*
  1
*
  1
*
 70
     0
  1
*
  1
*
  0
XRECORD
  5
31
102
{ACAD_REACTORS
330
16
102
}
330
16
100
AcDbXrecord
  1
CADKON
  1
?[KAHBSM]?????[23M],?[KAHBSM]?????[23M][1456A-DGHILN-SU-Z]
  1
*
  1
*
 70
     0
  1
*
  1
*
  0
XRECORD
  5
32
102
{ACAD_REACTORS
330
16
102
}
330
16
100
AcDbXrecord
  1
carpinteria
  1
carp*
  1
*
  1
*
 70
     0
  1
*
  1
*
  0
XRECORD
  5
33
102
{ACAD_REACTORS
330
16
102
}
330
16
100
AcDbXrecord
  1
cerrados
  1
*
  1
*
  1
*
 70
   256
  1
*
  1
*
  0
XRECORD
  5
34
102
{ACAD_REACTORS
330
16
102
}
330
16
100
AcDbXrecord
  1
COL
  1
*
  1
*
  1
*
 70
     1
  1
*
  1
*
  0
XRECORD
  5
35
102
{ACAD_REACTORS
330
16
102
}
330
16
100
AcDbXrecord
  1
COLOR
  1
*
  1
253
  1
*
 70
     0
  1
*
  1
*
  0
XRECORD
  5
36
102
{ACAD_REACTORS
330
16
102
}
330
16
100
AcDbXrecord
  1
color 250
  1
*
  1
250
  1
*
 70
     0
  1
*
  1
*
  0
XRECORD
  5
37
102
{ACAD_REACTORS
330
16
102
}
330
16
100
AcDbXrecord
  1
COLORES
  1
*
  1
6
  1
*
 70
     0
  1
*
  1
*
  0
XRECORD
  5
38
102
{ACAD_REACTORS
330
16
102
}
330
16
100
AcDbXrecord
  1
Congelados
  1
*
  1
*
  1
*
 70
     4
  1
*
  1
*
  0
XRECORD
  5
39
102
{ACAD_REACTORS
330
16
102
}
330
16
100
AcDbXrecord
  1
CONJUNTO
  1
CON-*
  1
*
  1
*
 70
     0
  1
*
  1
*
  0
XRECORD
  5
3A
102
{ACAD_REACTORS
330
16
102
}
330
16
100
AcDbXrecord
  1
d1
  1
achurados
  1
*
  1
*
 70
     0
  1
*
  1
*
  0
XRECORD
  5
3B
102
{ACAD_REACTORS
330
16
102
}
330
16
100
AcDbXrecord
  1
DA_
  1
DA*
  1
*
  1
*
 70
     0
  1
*
  1
*
  0
XRECORD
  5
3C
102
{ACAD_REACTORS
330
16
102
}
330
16
100
AcDbXrecord
  1
DET-
  1
*
  1
*
  1
*
 70
     0
  1
*
  1
*
  0
XRECORD
  5
3D
102
{ACAD_REACTORS
330
16
102
}
330
16
100
AcDbXrecord
  1
DOR-H
  1
*
  1
7
  1
*
 70
     0
  1
*
  1
*
  0
XRECORD
  5
3E
102
{ACAD_REACTORS
330
16
102
}
330
16
100
AcDbXrecord
  1
ejes
  1
eje*
  1
*
  1
*
 70
     0
  1
*
  1
*
  0
XRECORD
  5
3F
102
{ACAD_REACTORS
330
16
102
}
330
16
100
AcDbXrecord
  1
ELECTRICO
  1
ELEC-*
  1
*
  1
*
 70
     0
  1
*
  1
*
  0
XRECORD
  5
40
102
{ACAD_REACTORS
330
16
102
}
330
16
100
AcDbXrecord
  1
F1
  1
Halaxref*
  1
*
  1
*
 70
     0
  1
*
  1
*
  0
XRECORD
  5
41
102
{ACAD_REACTORS
330
16
102
}
330
16
100
AcDbXrecord
  1
frozen
  1
*
  1
*
  1
*
 70
     4
  1
*
  1
*
  0
XRECORD
  5
42
102
{ACAD_REACTORS
330
16
102
}
330
16
100
AcDbXrecord
  1
grid
  1
*-PGRID
  1
*
  1
*
 70
     1
  1
*
  1
*
  0
XRECORD
  5
43
102
{ACAD_REACTORS
330
16
102
}
330
16
100
AcDbXrecord
  1
GRIDTXT
  1
*-PGRIDT
  1
*
  1
*
 70
     0
  1
*
  1
*
  0
XRECORD
  5
44
102
{ACAD_REACTORS
330
16
102
}
330
16
100
AcDbXrecord
  1
HATCH
  1
HAT*
  1
*
  1
*
 70
     0
  1
*
  1
*
  0
XRECORD
  5
45
102
{ACAD_REACTORS
330
16
102
}
330
16
100
AcDbXrecord
  1
HCAD
  1
1HCAD-*
  1
*
  1
*
 70
    13
  1
*
  1
*
  0
XRECORD
  5
46
102
{ACAD_REACTORS
330
16
102
}
330
16
100
AcDbXrecord
  1
INSTALACIONES
  1
I-*
  1
*
  1
*
 70
     0
  1
*
  1
*
  0
XRECORD
  5
47
102
{ACAD_REACTORS
330
16
102
}
330
16
100
AcDbXrecord
  1
JIZNI
  1
*-J
  1
*
  1
*
 70
     0
  1
*
  1
*
  0
XRECORD
  5
48
102
{ACAD_REACTORS
330
16
102
}
330
16
100
AcDbXrecord
  1
kck
  1
*
  1
*
  1
*
 70
     0
  1
*
  1
*
  0
XRECORD
  5
49
102
{ACAD_REACTORS
330
16
102
}
330
16
100
AcDbXrecord
  1
kkk
  1
k
  1
*
  1
*
 70
     0
  1
*
  1
*
  0
XRECORD
  5
4A
102
{ACAD_REACTORS
330
16
102
}
330
16
100
AcDbXrecord
  1
lay
  1
??-*
  1
*
  1
*
 70
     0
  1
*
  1
*
  0
XRECORD
  5
4E
102
{ACAD_REACTORS
330
16
102
}
330
16
100
AcDbXrecord
  1
Layer-0
  1
0*
  1
*
  1
*
 70
     0
  1
*
  1
*
  0
XRECORD
  5
4F
102
{ACAD_REACTORS
330
16
102
}
330
16
100
AcDbXrecord
  1
Layer-1
  1
1*
  1
*
  1
*
 70
     0
  1
*
  1
*
  0
XRECORD
  5
4B
102
{ACAD_REACTORS
330
16
102
}
330
16
100
AcDbXrecord
  1
Layer 1 und 0
  1
1*,0
  1
*
  1
*
 70
     0
  1
*
  1
*
  0
XRECORD
  5
4C
102
{ACAD_REACTORS
330
16
102
}
330
16
100
AcDbXrecord
  1
Layer 2 und 0
  1
2*,0
  1
*
  1
*
 70
     0
  1
*
  1
*
  0
XRECORD
  5
4D
102
{ACAD_REACTORS
330
16
102
}
330
16
100
AcDbXrecord
  1
Layer 9 und 0 Schraffur
  1
9*,0
  1
*
  1
*
 70
     0
  1
*
  1
*
  0
XRECORD
  5
50
102
{ACAD_REACTORS
330
16
102
}
330
16
100
AcDbXrecord
  1
LOCK
  1
*
  1
*
  1
*
 70
   256
  1
*
  1
*
  0
XRECORD
  5
51
102
{ACAD_REACTORS
330
16
102
}
330
16
100
AcDbXrecord
  1
locked
  1
*
  1
*
  1
*
 70
   256
  1
*
  1
*
  0
XRECORD
  5
52
102
{ACAD_REACTORS
330
16
102
}
330
16
100
AcDbXrecord
  1
Lotes
  1
*
  1
*
  1
*
 70
     1
  1
*
  1
*
  0
XRECORD
  5
53
102
{ACAD_REACTORS
330
16
102
}
330
16
100
AcDbXrecord
  1
LUNAR
  1
*
  1
*
  1
*
 70
    48
  1
*
  1
*
  0
XRECORD
  5
54
102
{ACAD_REACTORS
330
16
102
}
330
16
100
AcDbXrecord
  1
LUNAR2
  1
*
  1
*
  1
*
 70
    12
  1
*
  1
*
  0
XRECORD
  5
55
102
{ACAD_REACTORS
330
16
102
}
330
16
100
AcDbXrecord
  1
M
  1
M*
  1
*
  1
*
 70
     0
  1
*
  1
*
  0
XRECORD
  5
56
102
{ACAD_REACTORS
330
16
102
}
330
16
100
AcDbXrecord
  1
mis_layers
  1
mis_*
  1
*
  1
*
 70
     0
  1
*
  1
*
  0
XRECORD
  5
57
102
{ACAD_REACTORS
330
16
102
}
330
16
100
AcDbXrecord
  1
MRKCK
  1
*
  1
*
  1
*
 70
     0
  1
*
  1
*
  0
XRECORD
  5
58
102
{ACAD_REACTORS
330
16
102
}
330
16
100
AcDbXrecord
  1
NECADKON
  1
~*?[KAHBSM]?????[23M]*
  1
*
  1
*
 70
     0
  1
*
  1
*
  0
XRECORD
  5
59
102
{ACAD_REACTORS
330
16
102
}
330
16
100
AcDbXrecord
  1
NI_LH
  1
NI_LH*
  1
*
  1
*
 70
     0
  1
*
  1
*
  0
XRECORD
  5
5A
102
{ACAD_REACTORS
330
16
102
}
330
16
100
AcDbXrecord
  1
NI_RH
  1
NI_RH*
  1
*
  1
*
 70
     0
  1
*
  1
*
  0
XRECORD
  5
5B
102
{ACAD_REACTORS
330
16
102
}
330
16
100
AcDbXrecord
  1
NUM
  1
NUM*
  1
*
  1
*
 70
     0
  1
*
  1
*
  0
XRECORD
  5
5C
102
{ACAD_REACTORS
330
16
102
}
330
16
100
AcDbXrecord
  1
off
  1
*
  1
*
  1
*
 70
     3
  1
*
  1
*
  0
XRECORD
  5
5D
102
{ACAD_REACTORS
330
16
102
}
330
16
100
AcDbXrecord
  1
on
  1
*
  1
*
  1
*
 70
     0
  1
*
  1
*
  0
XRECORD
  5
5E
102
{ACAD_REACTORS
330
16
102
}
330
16
100
AcDbXrecord
  1
PBASE
  1
*PBASE
  1
*
  1
*
 70
     0
  1
*
  1
*
  0
XRECORD
  5
5F
102
{ACAD_REACTORS
330
16
102
}
330
16
100
AcDbXrecord
  1
PEGC
  1
*PEGC
  1
*
  1
*
 70
     0
  1
*
  1
*
  0
XRECORD
  5
60
102
{ACAD_REACTORS
330
16
102
}
330
16
100
AcDbXrecord
  1
PEGCT
  1
*PEGCT
  1
*
  1
*
 70
     0
  1
*
  1
*
  0
XRECORD
  5
61
102
{ACAD_REACTORS
330
16
102
}
330
16
100
AcDbXrecord
  1
PFRAME
  1
PFRAME*
  1
*
  1
*
 70
     0
  1
*
  1
*
  0
XRECORD
  5
62
102
{ACAD_REACTORS
330
16
102
}
330
16
100
AcDbXrecord
  1
PGRID
  1
*PGRID
  1
*
  1
*
 70
     0
  1
*
  1
*
  0
XRECORD
  5
63
102
{ACAD_REACTORS
330
16
102
}
330
16
100
AcDbXrecord
  1
PGRIDT
  1
*PGRIDT
  1
*
  1
*
 70
     0
  1
*
  1
*
  0
XRECORD
  5
64
102
{ACAD_REACTORS
330
16
102
}
330
16
100
AcDbXrecord
  1
PLAFONES
  1
0-*
  1
*
  1
*
 70
     0
  1
*
  1
*
  0
XRECORD
  5
65
102
{ACAD_REACTORS
330
16
102
}
330
16
100
AcDbXrecord
  1
PLANTAS
  1
P-*
  1
*
  1
*
 70
     0
  1
*
  1
*
  0
XRECORD
  5
66
102
{ACAD_REACTORS
330
16
102
}
330
16
100
AcDbXrecord
  1
Plot
  1
*
  1
*
  1
*
 70
  1024
  1
*
  1
*
  0
XRECORD
  5
67
102
{ACAD_REACTORS
330
16
102
}
330
16
100
AcDbXrecord
  1
PRENDIDAS
  1
*
  1
*
  1
*
 70
    13
  1
*
  1
*
  0
XRECORD
  5
68
102
{ACAD_REACTORS
330
16
102
}
330
16
100
AcDbXrecord
  1
PRENDIDOS
  1
*
  1
*
  1
*
 70
    12
  1
*
  1
*
  0
XRECORD
  5
69
102
{ACAD_REACTORS
330
16
102
}
330
16
100
AcDbXrecord
  1
print
  1
*
  1
7
  1
*
 70
  1280
  1
*
  1
*
  0
XRECORD
  5
6A
102
{ACAD_REACTORS
330
16
102
}
330
16
100
AcDbXrecord
  1
PT
  1
PT-*
  1
*
  1
*
 70
     0
  1
*
  1
*
  0
XRECORD
  5
6B
102
{ACAD_REACTORS
330
16
102
}
330
16
100
AcDbXrecord
  1
PTH
  1
PTH*
  1
*
  1
*
 70
     0
  1
*
  1
*
  0
XRECORD
  5
6C
102
{ACAD_REACTORS
330
16
102
}
330
16
100
AcDbXrecord
  1
PVGRID
  1
*PVGRID
  1
*
  1
*
 70
     0
  1
*
  1
*
  0
XRECORD
  5
6D
102
{ACAD_REACTORS
330
16
102
}
330
16
100
AcDbXrecord
  1
Red de Agua Potable
  1
Red de Agua Potable
  1
*
  1
*
 70
     1
  1
*
  1
*
  0
XRECORD
  5
6E
102
{ACAD_REACTORS
330
16
102
}
330
16
100
AcDbXrecord
  1
Red de Energia Electrica
  1
Lotes
  1
*
  1
*
 70
     1
  1
*
  1
*
  0
XRECORD
  5
6F
102
{ACAD_REACTORS
330
16
102
}
330
16
100
AcDbXrecord
  1
SEVERNI
  1
*-S
  1
*
  1
*
 70
     0
  1
*
  1
*
  0
XRECORD
  5
70
102
{ACAD_REACTORS
330
16
102
}
330
16
100
AcDbXrecord
  1
shin
  1
일*
  1
*
  1
*
 70
     0
  1
*
  1
*
  0
XRECORD
  5
71
102
{ACAD_REACTORS
330
16
102
}
330
16
100
AcDbXrecord
  1
SHOW ALL LAYER
  1
*
  1
*
  1
*
 70
     0
  1
*
  1
*
  0
XRECORD
  5
72
102
{ACAD_REACTORS
330
16
102
}
330
16
100
AcDbXrecord
  1
sin
  1
sin
  1
*
  1
*
 70
     0
  1
*
  1
*
  0
XRECORD
  5
73
102
{ACAD_REACTORS
330
16
102
}
330
16
100
AcDbXrecord
  1
STORAGE-CART
  1
STORAGE-CART*
  1
*
  1
*
 70
     0
  1
*
  1
*
  0
XRECORD
  5
74
102
{ACAD_REACTORS
330
16
102
}
330
16
100
AcDbXrecord
  1
T
  1
T*
  1
*
  1
*
 70
     0
  1
*
  1
*
  0
XRECORD
  5
75
102
{ACAD_REACTORS
330
16
102
}
330
16
100
AcDbXrecord
  1
TEXTOS
  1
TXT*
  1
*
  1
*
 70
     0
  1
*
  1
*
  0
XRECORD
  5
76
102
{ACAD_REACTORS
330
16
102
}
330
16
100
AcDbXrecord
  1
TEXTURAS
  1
*TEXTURAS
  1
*
  1
*
 70
     0
  1
*
  1
*
  0
XRECORD
  5
77
102
{ACAD_REACTORS
330
16
102
}
330
16
100
AcDbXrecord
  1
TUBERIAS
  1
T*
  1
*
  1
*
 70
     0
  1
*
  1
*
  0
XRECORD
  5
78
102
{ACAD_REACTORS
330
16
102
}
330
16
100
AcDbXrecord
  1
UNFRZ
  1
*
  1
*
  1
*
 70
    12
  1
*
  1
*
  0
XRECORD
  5
79
102
{ACAD_REACTORS
330
16
102
}
330
16
100
AcDbXrecord
  1
v\U+0161echny nepou\U+017E\U+00EDvan\U+00E9
  1
*
  1
*
  1
*
 70
     0
  1
*
  1
*
  0
XRECORD
  5
7A
102
{ACAD_REACTORS
330
16
102
}
330
16
100
AcDbXrecord
  1
VA
  1
VA*
  1
*
  1
*
 70
     0
  1
*
  1
*
  0
XRECORD
  5
7B
102
{ACAD_REACTORS
330
16
102
}
330
16
100
AcDbXrecord
  1
Ventilaci\U+00F3n
  1
*
  1
*
  1
*
 70
     0
  1
*
  1
*
  0
XRECORD
  5
7C
102
{ACAD_REACTORS
330
16
102
}
330
16
100
AcDbXrecord
  1
VYHODNI
  1
*-V
  1
*
  1
*
 70
     0
  1
*
  1
*
  0
XRECORD
  5
7D
102
{ACAD_REACTORS
330
16
102
}
330
16
100
AcDbXrecord
  1
Yo
  1
Muros
  1
*
  1
*
 70
     0
  1
*
  1
*
  0
XRECORD
  5
7E
102
{ACAD_REACTORS
330
16
102
}
330
16
100
AcDbXrecord
  1
ZAPADNI
  1
*-Z
  1
*
  1
*
 70
     0
  1
*
  1
*
  0
XRECORD
  5
7F
102
{ACAD_REACTORS
330
16
102
}
330
16
100
AcDbXrecord
  1
사용
  1
*
  1
*
  1
*
 70
   256
  1
*
  1
*
  0
XRECORD
  5
80
102
{ACAD_REACTORS
330
16
102
}
330
16
100
AcDbXrecord
  1
신규
  1
신규
  1
*
  1
*
 70
     0
  1
*
  1
*
  0
XRECORD
  5
81
102
{ACAD_REACTORS
330
16
102
}
330
16
100
AcDbXrecord
  1
실박스
  1
BLO,SYM,SYM1,SYM2
  1
*
  1
*
 70
     0
  1
*
  1
*
  0
XRECORD
  5
82
102
{ACAD_REACTORS
330
16
102
}
330
16
100
AcDbXrecord
  1
우리토목
  1
w-*
  1
*
  1
*
 70
     0
  1
*
  1
*
  0
XRECORD
  5
83
102
{ACAD_REACTORS
330
16
102
}
330
16
100
AcDbXrecord
  1
주차
  1
car*
  1
*
  1
*
 70
     0
  1
*
  1
*
  0
XRECORD
  5
84
102
{ACAD_REACTORS
330
16
102
}
330
16
100
AcDbXrecord
  1
지상정밀
  1
*
  1
*
  1
*
 70
     0
  1
*
  1
*
  0
XRECORD
  5
85
102
{ACAD_REACTORS
330
16
102
}
330
16
100
AcDbXrecord
  1
쩜선
  1
*
  1
*
  1
*
 70
     0
  1
*
  1
*
  0
XRECORD
  5
86
102
{ACAD_REACTORS
330
16
102
}
330
16
100
AcDbXrecord
  1
플로터 작업층
  1
*
  1
*
  1
*
 70
  1025
  1
*
  1
*
  0
XRECORD
  5
87
102
{ACAD_REACTORS
330
16
102
}
330
16
100
AcDbXrecord
  1
현재 작업층
  1
*
  1
*
  1
*
 70
     1
  1
*
  1
*
  0
XRECORD
  5
88
102
{ACAD_REACTORS
330
16
102
}
330
16
100
AcDbXrecord
  1
현재 잠금
  1
*
  1
*
  1
*
 70
   257
  1
*
  1
*
  0
ENDSEC
  0
EOF
