  0
SECTION
  2
HEADER
  9
$ACADVER
  1
AC1014
  9
$ACADMAINTVER
 70
     9
  9
$DWGCODEPAGE
  3
ANSI_949
  9
$INSBASE
 10
0.0
 20
0.0
 30
0.0
  9
$EXTMIN
 10
-12.36131387120451
 20
9.198495095116413
 30
-0.0000000000112498
  9
$EXTMAX
 10
338.604872849344
 20
402.4064875618821
 30
0.0000000000002956
  9
$LIMMIN
 10
0.0
 20
0.0
  9
$LIMMAX
 10
420.0
 20
297.0
  9
$ORTHOMODE
 70
     0
  9
$REGENMODE
 70
     1
  9
$FILLMODE
 70
     1
  9
$QTEXTMODE
 70
     0
  9
$MIRRTEXT
 70
     0
  9
$DRAGMODE
 70
     2
  9
$LTSCALE
 40
0.2
  9
$OSMODE
 70
  3071
  9
$ATTMODE
 70
     1
  9
$TEXTSIZE
 40
5.777225951253058
  9
$TRACEWID
 40
1.0
  9
$TEXTSTYLE
  7
STANDARD
  9
$CLAYER
  8
0
  9
$CELTYPE
  6
BYLAYER
  9
$CECOLOR
 62
   256
  9
$CELTSCALE
 40
1.0
  9
$DELOBJ
 70
     1
  9
$DISPSILH
 70
     0
  9
$DIMSCALE
 40
1.0
  9
$DIMASZ
 40
3.0
  9
$DIMEXO
 40
1.0
  9
$DIMDLI
 40
10.0
  9
$DIMRND
 40
0.0
  9
$DIMDLE
 40
0.0
  9
$DIMEXE
 40
0.6
  9
$DIMTP
 40
0.0
  9
$DIMTM
 40
0.0
  9
$DIMTXT
 40
3.5
  9
$DIMCEN
 40
0.09
  9
$DIMTSZ
 40
0.0
  9
$DIMTOL
 70
     0
  9
$DIMLIM
 70
     0
  9
$DIMTIH
 70
     0
  9
$DIMTOH
 70
     0
  9
$DIMSE1
 70
     0
  9
$DIMSE2
 70
     0
  9
$DIMTAD
 70
     1
  9
$DIMZIN
 70
     8
  9
$DIMBLK
  1

  9
$DIMASO
 70
     1
  9
$DIMSHO
 70
     1
  9
$DIMPOST
  1

  9
$DIMAPOST
  1

  9
$DIMALT
 70
     0
  9
$DIMALTD
 70
     2
  9
$DIMALTF
 40
25.4
  9
$DIMLFAC
 40
1.0
  9
$DIMTOFL
 70
     1
  9
$DIMTVP
 40
0.0
  9
$DIMTIX
 70
     1
  9
$DIMSOXD
 70
     0
  9
$DIMSAH
 70
     0
  9
$DIMBLK1
  1

  9
$DIMBLK2
  1

  9
$DIMSTYLE
  2
1_1_2
  9
$DIMCLRD
 70
   123
  9
$DIMCLRE
 70
   123
  9
$DIMCLRT
 70
     3
  9
$DIMTFAC
 40
1.0
  9
$DIMGAP
 40
1.0
  9
$DIMJUST
 70
     0
  9
$DIMSD1
 70
     0
  9
$DIMSD2
 70
     0
  9
$DIMTOLJ
 70
     1
  9
$DIMTZIN
 70
     0
  9
$DIMALTZ
 70
     0
  9
$DIMALTTZ
 70
     0
  9
$DIMFIT
 70
     3
  9
$DIMUPT
 70
     1
  9
$DIMUNIT
 70
     2
  9
$DIMDEC
 70
     2
  9
$DIMTDEC
 70
     2
  9
$DIMALTU
 70
     2
  9
$DIMALTTD
 70
     2
  9
$DIMTXSTY
  7
STANDARD
  9
$DIMAUNIT
 70
     1
  9
$LUNITS
 70
     2
  9
$LUPREC
 70
     4
  9
$SKETCHINC
 40
1.0
  9
$FILLETRAD
 40
0.5
  9
$AUNITS
 70
     0
  9
$AUPREC
 70
     0
  9
$MENU
  1
.
  9
$ELEVATION
 40
0.0
  9
$PELEVATION
 40
0.0
  9
$THICKNESS
 40
0.0
  9
$LIMCHECK
 70
     0
  9
$BLIPMODE
 70
     0
  9
$CHAMFERA
 40
1.0
  9
$CHAMFERB
 40
1.0
  9
$CHAMFERC
 40
20.0
  9
$CHAMFERD
 40
0.0
  9
$SKPOLY
 70
     0
  9
$TDCREATE
 40
2452839.586179271
  9
$TDUPDATE
 40
2453385.420859004
  9
$TDINDWG
 40
11.1157095602
  9
$TDUSRTIMER
 40
11.1157090162
  9
$USRTIMER
 70
     1
  9
$ANGBASE
 50
0.0
  9
$ANGDIR
 70
     0
  9
$PDMODE
 70
     0
  9
$PDSIZE
 40
0.0
  9
$PLINEWID
 40
0.0
  9
$COORDS
 70
     1
  9
$SPLFRAME
 70
     0
  9
$SPLINETYPE
 70
     6
  9
$SPLINESEGS
 70
   800
  9
$ATTDIA
 70
     0
  9
$ATTREQ
 70
     1
  9
$HANDLING
 70
 22529
  9
$HANDSEED
  5
5B7
  9
$SURFTAB1
 70
     6
  9
$SURFTAB2
 70
     6
  9
$SURFTYPE
 70
     6
  9
$SURFU
 70
     6
  9
$SURFV
 70
     6
  9
$UCSNAME
  2

  9
$UCSORG
 10
0.0
 20
0.0
 30
0.0
  9
$UCSXDIR
 10
1.0
 20
0.0
 30
0.0
  9
$UCSYDIR
 10
0.0
 20
1.0
 30
0.0
  9
$PUCSNAME
  2

  9
$PUCSORG
 10
0.0
 20
0.0
 30
0.0
  9
$PUCSXDIR
 10
1.0
 20
0.0
 30
0.0
  9
$PUCSYDIR
 10
0.0
 20
1.0
 30
0.0
  9
$USERI1
 70
     0
  9
$USERI2
 70
     0
  9
$USERI3
 70
     0
  9
$USERI4
 70
     0
  9
$USERI5
 70
     0
  9
$USERR1
 40
0.0
  9
$USERR2
 40
0.0
  9
$USERR3
 40
0.0
  9
$USERR4
 40
0.0
  9
$USERR5
 40
0.0
  9
$WORLDVIEW
 70
     1
  9
$SHADEDGE
 70
     3
  9
$SHADEDIF
 70
    70
  9
$TILEMODE
 70
     1
  9
$MAXACTVP
 70
    48
  9
$PINSBASE
 10
0.0
 20
0.0
 30
0.0
  9
$PLIMCHECK
 70
     0
  9
$PEXTMIN
 10
0.0
 20
0.0
 30
0.0
  9
$PEXTMAX
 10
0.0
 20
0.0
 30
0.0
  9
$PLIMMIN
 10
0.0
 20
0.0
  9
$PLIMMAX
 10
12.0
 20
9.0
  9
$UNITMODE
 70
     0
  9
$VISRETAIN
 70
     1
  9
$PLINEGEN
 70
     0
  9
$PSLTSCALE
 70
     1
  9
$TREEDEPTH
 70
  3020
  9
$PICKSTYLE
 70
     1
  9
$CMLSTYLE
  2
STANDARD
  9
$CMLJUST
 70
     0
  9
$CMLSCALE
 40
20.0
  9
$PROXYGRAPHICS
 70
     1
  9
$MEASUREMENT
 70
     1
  0
ENDSEC
  0
SECTION
  2
CLASSES
  0
CLASS
  1
ACDBDICTIONARYWDFLT
  2
AcDbDictionaryWithDefault
  3
AutoCAD 2000
 90
        0
280
     0
281
     0
  0
CLASS
  1
ACDBPLACEHOLDER
  2
AcDbPlaceHolder
  3
AutoCAD 2000
 90
        0
280
     0
281
     0
  0
CLASS
  1
LAYOUT
  2
AcDbLayout
  3
AutoCAD 2000
 90
        0
280
     0
281
     0
  0
CLASS
  1
DICTIONARYVAR
  2
AcDbDictionaryVar
  3
AutoCAD 2000
 90
        0
280
     0
281
     0
  0
CLASS
  1
DIMASSOC
  2
AcDbDimAssoc
  3
"AcDbDimAssoc|Product Desc:     AcDim ARX App For Dimension|Company:          Autodesk, Inc.|WEB Address:      www.autodesk.com"
 90
        0
280
     0
281
     0
  0
CLASS
  1
LONG_TRANSACTION
  2
AcDbLongTransaction
  3
AutoCAD 2000
 90
        0
280
     0
281
     0
  0
CLASS
  1
LWPOLYLINE
  2
AcDbPolyline
  3
AutoCAD 2000
 90
        0
280
     0
281
     1
  0
CLASS
  1
HATCH
  2
AcDbHatch
  3
AutoCAD 2000
 90
        0
280
     0
281
     1
  0
CLASS
  1
XRECORD
  2
AcDbXrecord
  3
AutoCAD 2000
 90
        0
280
     0
281
     0
  0
CLASS
  1
LONG_TRANSACTION
  2
AcDbLongTransaction
  3
AutoCAD 2000
 90
        0
280
     0
281
     0
  0
CLASS
  1
LWPOLYLINE
  2
AcDbPolyline
  3
AutoCAD 2000
 90
        0
280
     0
281
     1
  0
CLASS
  1
HATCH
  2
AcDbHatch
  3
AutoCAD 2000
 90
        0
280
     0
281
     1
  0
CLASS
  1
XRECORD
  2
AcDbXrecord
  3
AutoCAD 2000
 90
        0
280
     0
281
     0
  0
CLASS
  1
LONG_TRANSACTION
  2
AcDbLongTransaction
  3
AutoCAD 2000
 90
        0
280
     0
281
     0
  0
CLASS
  1
LWPOLYLINE
  2
AcDbPolyline
  3
AutoCAD 2000
 90
        0
280
     0
281
     1
  0
CLASS
  1
HATCH
  2
AcDbHatch
  3
AutoCAD 2000
 90
        0
280
     0
281
     1
  0
CLASS
  1
XRECORD
  2
AcDbXrecord
  3
AutoCAD 2000
 90
        0
280
     0
281
     0
  0
CLASS
  1
LONG_TRANSACTION
  2
AcDbLongTransaction
  3
AutoCAD 2000
 90
        0
280
     0
281
     0
  0
CLASS
  1
LWPOLYLINE
  2
AcDbPolyline
  3
AutoCAD 2000
 90
        0
280
     0
281
     1
  0
CLASS
  1
HATCH
  2
AcDbHatch
  3
AutoCAD 2000
 90
        0
280
     0
281
     1
  0
CLASS
  1
XRECORD
  2
AcDbXrecord
  3
AutoCAD 2000
 90
        0
280
     0
281
     0
  0
CLASS
  1
LONG_TRANSACTION
  2
AcDbLongTransaction
  3
AutoCAD 2000
 90
        0
280
     0
281
     0
  0
CLASS
  1
LWPOLYLINE
  2
AcDbPolyline
  3
AutoCAD 2000
 90
        0
280
     0
281
     1
  0
CLASS
  1
HATCH
  2
AcDbHatch
  3
AutoCAD 2000
 90
        0
280
     0
281
     1
  0
CLASS
  1
XRECORD
  2
AcDbXrecord
  3
AutoCAD 2000
 90
        0
280
     0
281
     0
  0
CLASS
  1
LONG_TRANSACTION
  2
AcDbLongTransaction
  3
AutoCAD 2000
 90
        0
280
     0
281
     0
  0
CLASS
  1
LWPOLYLINE
  2
AcDbPolyline
  3
AutoCAD 2000
 90
        0
280
     0
281
     1
  0
CLASS
  1
HATCH
  2
AcDbHatch
  3
AutoCAD 2000
 90
        0
280
     0
281
     1
  0
CLASS
  1
XRECORD
  2
AcDbXrecord
  3
AutoCAD 2000
 90
        0
280
     0
281
     0
  0
CLASS
  1
LONG_TRANSACTION
  2
AcDbLongTransaction
  3
AutoCAD 2000
 90
        0
280
     0
281
     0
  0
CLASS
  1
LWPOLYLINE
  2
AcDbPolyline
  3
AutoCAD 2000
 90
        0
280
     0
281
     1
  0
CLASS
  1
HATCH
  2
AcDbHatch
  3
AutoCAD 2000
 90
        0
280
     0
281
     1
  0
CLASS
  1
XRECORD
  2
AcDbXrecord
  3
AutoCAD 2000
 90
        0
280
     0
281
     0
  0
CLASS
  1
LONG_TRANSACTION
  2
AcDbLongTransaction
  3
AutoCAD 2000
 90
        0
280
     0
281
     0
  0
CLASS
  1
LWPOLYLINE
  2
AcDbPolyline
  3
AutoCAD 2000
 90
        0
280
     0
281
     1
  0
CLASS
  1
HATCH
  2
AcDbHatch
  3
AutoCAD 2000
 90
        0
280
     0
281
     1
  0
CLASS
  1
XRECORD
  2
AcDbXrecord
  3
AutoCAD 2000
 90
        0
280
     0
281
     0
  0
CLASS
  1
LONG_TRANSACTION
  2
AcDbLongTransaction
  3
AutoCAD 2000
 90
        0
280
     0
281
     0
  0
CLASS
  1
LWPOLYLINE
  2
AcDbPolyline
  3
AutoCAD 2000
 90
        0
280
     0
281
     1
  0
CLASS
  1
HATCH
  2
AcDbHatch
  3
AutoCAD 2000
 90
        0
280
     0
281
     1
  0
CLASS
  1
XRECORD
  2
AcDbXrecord
  3
AutoCAD 2000
 90
        0
280
     0
281
     0
  0
CLASS
  1
LONG_TRANSACTION
  2
AcDbLongTransaction
  3
AutoCAD 2000
 90
        0
280
     0
281
     0
  0
CLASS
  1
LWPOLYLINE
  2
AcDbPolyline
  3
AutoCAD 2000
 90
        0
280
     0
281
     1
  0
CLASS
  1
HATCH
  2
AcDbHatch
  3
AutoCAD 2000
 90
        0
280
     0
281
     1
  0
CLASS
  1
XRECORD
  2
AcDbXrecord
  3
AutoCAD 2000
 90
        0
280
     0
281
     0
  0
CLASS
  1
LONG_TRANSACTION
  2
AcDbLongTransaction
  3
AutoCAD 2000
 90
        0
280
     0
281
     0
  0
CLASS
  1
LWPOLYLINE
  2
AcDbPolyline
  3
AutoCAD 2000
 90
        0
280
     0
281
     1
  0
CLASS
  1
HATCH
  2
AcDbHatch
  3
AutoCAD 2000
 90
        0
280
     0
281
     1
  0
CLASS
  1
XRECORD
  2
AcDbXrecord
  3
AutoCAD 2000
 90
        0
280
     0
281
     0
  0
CLASS
  1
LONG_TRANSACTION
  2
AcDbLongTransaction
  3
AutoCAD 2000
 90
        0
280
     0
281
     0
  0
CLASS
  1
LWPOLYLINE
  2
AcDbPolyline
  3
AutoCAD 2000
 90
        0
280
     0
281
     1
  0
CLASS
  1
HATCH
  2
AcDbHatch
  3
AutoCAD 2000
 90
        0
280
     0
281
     1
  0
CLASS
  1
XRECORD
  2
AcDbXrecord
  3
AutoCAD 2000
 90
        0
280
     0
281
     0
  0
CLASS
  1
LONG_TRANSACTION
  2
AcDbLongTransaction
  3
AutoCAD 2000
 90
        0
280
     0
281
     0
  0
CLASS
  1
LWPOLYLINE
  2
AcDbPolyline
  3
AutoCAD 2000
 90
        0
280
     0
281
     1
  0
CLASS
  1
HATCH
  2
AcDbHatch
  3
AutoCAD 2000
 90
        0
280
     0
281
     1
  0
CLASS
  1
XRECORD
  2
AcDbXrecord
  3
AutoCAD 2000
 90
        0
280
     0
281
     0
  0
CLASS
  1
LONG_TRANSACTION
  2
AcDbLongTransaction
  3
AutoCAD 2000
 90
        0
280
     0
281
     0
  0
CLASS
  1
LWPOLYLINE
  2
AcDbPolyline
  3
AutoCAD 2000
 90
        0
280
     0
281
     1
  0
CLASS
  1
HATCH
  2
AcDbHatch
  3
AutoCAD 2000
 90
        0
280
     0
281
     1
  0
CLASS
  1
XRECORD
  2
AcDbXrecord
  3
AutoCAD 2000
 90
        0
280
     0
281
     0
  0
CLASS
  1
LONG_TRANSACTION
  2
AcDbLongTransaction
  3
AutoCAD 2000
 90
        0
280
     0
281
     0
  0
CLASS
  1
LWPOLYLINE
  2
AcDbPolyline
  3
AutoCAD 2000
 90
        0
280
     0
281
     1
  0
CLASS
  1
HATCH
  2
AcDbHatch
  3
AutoCAD 2000
 90
        0
280
     0
281
     1
  0
CLASS
  1
XRECORD
  2
AcDbXrecord
  3
AutoCAD 2000
 90
        0
280
     0
281
     0
  0
CLASS
  1
LONG_TRANSACTION
  2
AcDbLongTransaction
  3
AutoCAD 2000
 90
        0
280
     0
281
     0
  0
CLASS
  1
LWPOLYLINE
  2
AcDbPolyline
  3
AutoCAD 2000
 90
        0
280
     0
281
     1
  0
CLASS
  1
HATCH
  2
AcDbHatch
  3
AutoCAD 2000
 90
        0
280
     0
281
     1
  0
CLASS
  1
XRECORD
  2
AcDbXrecord
  3
AutoCAD 2000
 90
        0
280
     0
281
     0
  0
CLASS
  1
LONG_TRANSACTION
  2
AcDbLongTransaction
  3
AutoCAD 2000
 90
        0
280
     0
281
     0
  0
CLASS
  1
LWPOLYLINE
  2
AcDbPolyline
  3
AutoCAD 2000
 90
        0
280
     0
281
     1
  0
CLASS
  1
HATCH
  2
AcDbHatch
  3
AutoCAD 2000
 90
        0
280
     0
281
     1
  0
CLASS
  1
XRECORD
  2
AcDbXrecord
  3
AutoCAD 2000
 90
        0
280
     0
281
     0
  0
CLASS
  1
LONG_TRANSACTION
  2
AcDbLongTransaction
  3
AutoCAD 2000
 90
        0
280
     0
281
     0
  0
CLASS
  1
LWPOLYLINE
  2
AcDbPolyline
  3
AutoCAD 2000
 90
        0
280
     0
281
     1
  0
CLASS
  1
HATCH
  2
AcDbHatch
  3
AutoCAD 2000
 90
        0
280
     0
281
     1
  0
CLASS
  1
XRECORD
  2
AcDbXrecord
  3
AutoCAD 2000
 90
        0
280
     0
281
     0
  0
CLASS
  1
LONG_TRANSACTION
  2
AcDbLongTransaction
  3
AutoCAD 2000
 90
        0
280
     0
281
     0
  0
CLASS
  1
LWPOLYLINE
  2
AcDbPolyline
  3
AutoCAD 2000
 90
        0
280
     0
281
     1
  0
CLASS
  1
HATCH
  2
AcDbHatch
  3
AutoCAD 2000
 90
        0
280
     0
281
     1
  0
CLASS
  1
XRECORD
  2
AcDbXrecord
  3
AutoCAD 2000
 90
        0
280
     0
281
     0
  0
CLASS
  1
LONG_TRANSACTION
  2
AcDbLongTransaction
  3
AutoCAD 2000
 90
        0
280
     0
281
     0
  0
CLASS
  1
LWPOLYLINE
  2
AcDbPolyline
  3
AutoCAD 2000
 90
        0
280
     0
281
     1
  0
CLASS
  1
HATCH
  2
AcDbHatch
  3
AutoCAD 2000
 90
        0
280
     0
281
     1
  0
CLASS
  1
XRECORD
  2
AcDbXrecord
  3
AutoCAD 2000
 90
        0
280
     0
281
     0
  0
CLASS
  1
LONG_TRANSACTION
  2
AcDbLongTransaction
  3
AutoCAD 2000
 90
        0
280
     0
281
     0
  0
CLASS
  1
LWPOLYLINE
  2
AcDbPolyline
  3
AutoCAD 2000
 90
        0
280
     0
281
     1
  0
CLASS
  1
HATCH
  2
AcDbHatch
  3
AutoCAD 2000
 90
        0
280
     0
281
     1
  0
CLASS
  1
XRECORD
  2
AcDbXrecord
  3
AutoCAD 2000
 90
        0
280
     0
281
     0
  0
CLASS
  1
LONG_TRANSACTION
  2
AcDbLongTransaction
  3
AutoCAD 2000
 90
        0
280
     0
281
     0
  0
CLASS
  1
LWPOLYLINE
  2
AcDbPolyline
  3
AutoCAD 2000
 90
        0
280
     0
281
     1
  0
CLASS
  1
HATCH
  2
AcDbHatch
  3
AutoCAD 2000
 90
        0
280
     0
281
     1
  0
CLASS
  1
XRECORD
  2
AcDbXrecord
  3
AutoCAD 2000
 90
        0
280
     0
281
     0
  0
CLASS
  1
LONG_TRANSACTION
  2
AcDbLongTransaction
  3
AutoCAD 2000
 90
        0
280
     0
281
     0
  0
CLASS
  1
LWPOLYLINE
  2
AcDbPolyline
  3
AutoCAD 2000
 90
        0
280
     0
281
     1
  0
CLASS
  1
HATCH
  2
AcDbHatch
  3
AutoCAD 2000
 90
        0
280
     0
281
     1
  0
CLASS
  1
XRECORD
  2
AcDbXrecord
  3
AutoCAD 2000
 90
        0
280
     0
281
     0
  0
CLASS
  1
LONG_TRANSACTION
  2
AcDbLongTransaction
  3
AutoCAD 2000
 90
        0
280
     0
281
     0
  0
CLASS
  1
LWPOLYLINE
  2
AcDbPolyline
  3
AutoCAD 2000
 90
        0
280
     0
281
     1
  0
CLASS
  1
HATCH
  2
AcDbHatch
  3
AutoCAD 2000
 90
        0
280
     0
281
     1
  0
CLASS
  1
XRECORD
  2
AcDbXrecord
  3
AutoCAD 2000
 90
        0
280
     0
281
     0
  0
CLASS
  1
LONG_TRANSACTION
  2
AcDbLongTransaction
  3
AutoCAD 2000
 90
        0
280
     0
281
     0
  0
CLASS
  1
LWPOLYLINE
  2
AcDbPolyline
  3
AutoCAD 2000
 90
        0
280
     0
281
     1
  0
CLASS
  1
HATCH
  2
AcDbHatch
  3
AutoCAD 2000
 90
        0
280
     0
281
     1
  0
CLASS
  1
XRECORD
  2
AcDbXrecord
  3
AutoCAD 2000
 90
        0
280
     0
281
     0
  0
CLASS
  1
LONG_TRANSACTION
  2
AcDbLongTransaction
  3
AutoCAD 2000
 90
        0
280
     0
281
     0
  0
CLASS
  1
LWPOLYLINE
  2
AcDbPolyline
  3
AutoCAD 2000
 90
        0
280
     0
281
     1
  0
CLASS
  1
HATCH
  2
AcDbHatch
  3
AutoCAD 2000
 90
        0
280
     0
281
     1
  0
CLASS
  1
XRECORD
  2
AcDbXrecord
  3
AutoCAD 2000
 90
        0
280
     0
281
     0
  0
CLASS
  1
LONG_TRANSACTION
  2
AcDbLongTransaction
  3
AutoCAD 2000
 90
        0
280
     0
281
     0
  0
CLASS
  1
LWPOLYLINE
  2
AcDbPolyline
  3
AutoCAD 2000
 90
        0
280
     0
281
     1
  0
CLASS
  1
HATCH
  2
AcDbHatch
  3
AutoCAD 2000
 90
        0
280
     0
281
     1
  0
CLASS
  1
XRECORD
  2
AcDbXrecord
  3
AutoCAD 2000
 90
        0
280
     0
281
     0
  0
CLASS
  1
LONG_TRANSACTION
  2
AcDbLongTransaction
  3
AutoCAD 2000
 90
        0
280
     0
281
     0
  0
CLASS
  1
LWPOLYLINE
  2
AcDbPolyline
  3
AutoCAD 2000
 90
        0
280
     0
281
     1
  0
CLASS
  1
HATCH
  2
AcDbHatch
  3
AutoCAD 2000
 90
        0
280
     0
281
     1
  0
CLASS
  1
XRECORD
  2
AcDbXrecord
  3
AutoCAD 2000
 90
        0
280
     0
281
     0
  0
CLASS
  1
LONG_TRANSACTION
  2
AcDbLongTransaction
  3
AutoCAD 2000
 90
        0
280
     0
281
     0
  0
CLASS
  1
LWPOLYLINE
  2
AcDbPolyline
  3
AutoCAD 2000
 90
        0
280
     0
281
     1
  0
CLASS
  1
HATCH
  2
AcDbHatch
  3
AutoCAD 2000
 90
        0
280
     0
281
     1
  0
CLASS
  1
XRECORD
  2
AcDbXrecord
  3
AutoCAD 2000
 90
        0
280
     0
281
     0
  0
CLASS
  1
LONG_TRANSACTION
  2
AcDbLongTransaction
  3
AutoCAD 2000
 90
        0
280
     0
281
     0
  0
CLASS
  1
LWPOLYLINE
  2
AcDbPolyline
  3
AutoCAD 2000
 90
        0
280
     0
281
     1
  0
CLASS
  1
HATCH
  2
AcDbHatch
  3
AutoCAD 2000
 90
        0
280
     0
281
     1
  0
CLASS
  1
XRECORD
  2
AcDbXrecord
  3
AutoCAD 2000
 90
        0
280
     0
281
     0
  0
CLASS
  1
LONG_TRANSACTION
  2
AcDbLongTransaction
  3
AutoCAD 2000
 90
        0
280
     0
281
     0
  0
CLASS
  1
LWPOLYLINE
  2
AcDbPolyline
  3
AutoCAD 2000
 90
        0
280
     0
281
     1
  0
CLASS
  1
HATCH
  2
AcDbHatch
  3
AutoCAD 2000
 90
        0
280
     0
281
     1
  0
CLASS
  1
XRECORD
  2
AcDbXrecord
  3
AutoCAD 2000
 90
        0
280
     0
281
     0
  0
CLASS
  1
LONG_TRANSACTION
  2
AcDbLongTransaction
  3
AutoCAD 2000
 90
        0
280
     0
281
     0
  0
CLASS
  1
LWPOLYLINE
  2
AcDbPolyline
  3
AutoCAD 2000
 90
        0
280
     0
281
     1
  0
CLASS
  1
HATCH
  2
AcDbHatch
  3
AutoCAD 2000
 90
        0
280
     0
281
     1
  0
CLASS
  1
XRECORD
  2
AcDbXrecord
  3
AutoCAD 2000
 90
        0
280
     0
281
     0
  0
CLASS
  1
LONG_TRANSACTION
  2
AcDbLongTransaction
  3
AutoCAD 2000
 90
        0
280
     0
281
     0
  0
CLASS
  1
LWPOLYLINE
  2
AcDbPolyline
  3
AutoCAD 2000
 90
        0
280
     0
281
     1
  0
CLASS
  1
HATCH
  2
AcDbHatch
  3
AutoCAD 2000
 90
        0
280
     0
281
     1
  0
CLASS
  1
XRECORD
  2
AcDbXrecord
  3
AutoCAD 2000
 90
        0
280
     0
281
     0
  0
CLASS
  1
LONG_TRANSACTION
  2
AcDbLongTransaction
  3
AutoCAD 2000
 90
        0
280
     0
281
     0
  0
CLASS
  1
LWPOLYLINE
  2
AcDbPolyline
  3
AutoCAD 2000
 90
        0
280
     0
281
     1
  0
CLASS
  1
HATCH
  2
AcDbHatch
  3
AutoCAD 2000
 90
        0
280
     0
281
     1
  0
CLASS
  1
XRECORD
  2
AcDbXrecord
  3
AutoCAD 2000
 90
        0
280
     0
281
     0
  0
CLASS
  1
LONG_TRANSACTION
  2
AcDbLongTransaction
  3
AutoCAD 2000
 90
        0
280
     0
281
     0
  0
CLASS
  1
LWPOLYLINE
  2
AcDbPolyline
  3
AutoCAD 2000
 90
        0
280
     0
281
     1
  0
CLASS
  1
HATCH
  2
AcDbHatch
  3
AutoCAD 2000
 90
        0
280
     0
281
     1
  0
CLASS
  1
XRECORD
  2
AcDbXrecord
  3
AutoCAD 2000
 90
        0
280
     0
281
     0
  0
CLASS
  1
LONG_TRANSACTION
  2
AcDbLongTransaction
  3
AutoCAD 2000
 90
        0
280
     0
281
     0
  0
CLASS
  1
LWPOLYLINE
  2
AcDbPolyline
  3
AutoCAD 2000
 90
        0
280
     0
281
     1
  0
CLASS
  1
HATCH
  2
AcDbHatch
  3
AutoCAD 2000
 90
        0
280
     0
281
     1
  0
CLASS
  1
XRECORD
  2
AcDbXrecord
  3
AutoCAD 2000
 90
        0
280
     0
281
     0
  0
CLASS
  1
LONG_TRANSACTION
  2
AcDbLongTransaction
  3
AutoCAD 2000
 90
        0
280
     0
281
     0
  0
CLASS
  1
LWPOLYLINE
  2
AcDbPolyline
  3
AutoCAD 2000
 90
        0
280
     0
281
     1
  0
CLASS
  1
HATCH
  2
AcDbHatch
  3
AutoCAD 2000
 90
        0
280
     0
281
     1
  0
CLASS
  1
XRECORD
  2
AcDbXrecord
  3
AutoCAD 2000
 90
        0
280
     0
281
     0
  0
CLASS
  1
LONG_TRANSACTION
  2
AcDbLongTransaction
  3
AutoCAD 2000
 90
        0
280
     0
281
     0
  0
CLASS
  1
LWPOLYLINE
  2
AcDbPolyline
  3
AutoCAD 2000
 90
        0
280
     0
281
     1
  0
CLASS
  1
HATCH
  2
AcDbHatch
  3
AutoCAD 2000
 90
        0
280
     0
281
     1
  0
CLASS
  1
XRECORD
  2
AcDbXrecord
  3
AutoCAD 2000
 90
        0
280
     0
281
     0
  0
CLASS
  1
LONG_TRANSACTION
  2
AcDbLongTransaction
  3
AutoCAD 2000
 90
        0
280
     0
281
     0
  0
CLASS
  1
LWPOLYLINE
  2
AcDbPolyline
  3
AutoCAD 2000
 90
        0
280
     0
281
     1
  0
CLASS
  1
HATCH
  2
AcDbHatch
  3
AutoCAD 2000
 90
        0
280
     0
281
     1
  0
CLASS
  1
XRECORD
  2
AcDbXrecord
  3
AutoCAD 2000
 90
        0
280
     0
281
     0
  0
CLASS
  1
LONG_TRANSACTION
  2
AcDbLongTransaction
  3
AutoCAD 2000
 90
        0
280
     0
281
     0
  0
CLASS
  1
LWPOLYLINE
  2
AcDbPolyline
  3
AutoCAD 2000
 90
        0
280
     0
281
     1
  0
CLASS
  1
HATCH
  2
AcDbHatch
  3
AutoCAD 2000
 90
        0
280
     0
281
     1
  0
CLASS
  1
XRECORD
  2
AcDbXrecord
  3
AutoCAD 2000
 90
        0
280
     0
281
     0
  0
CLASS
  1
LONG_TRANSACTION
  2
AcDbLongTransaction
  3
AutoCAD 2000
 90
        0
280
     0
281
     0
  0
CLASS
  1
LWPOLYLINE
  2
AcDbPolyline
  3
AutoCAD 2000
 90
        0
280
     0
281
     1
  0
CLASS
  1
HATCH
  2
AcDbHatch
  3
AutoCAD 2000
 90
        0
280
     0
281
     1
  0
CLASS
  1
XRECORD
  2
AcDbXrecord
  3
AutoCAD 2000
 90
        0
280
     0
281
     0
  0
CLASS
  1
LONG_TRANSACTION
  2
AcDbLongTransaction
  3
AutoCAD 2000
 90
        0
280
     0
281
     0
  0
CLASS
  1
LWPOLYLINE
  2
AcDbPolyline
  3
AutoCAD 2000
 90
        0
280
     0
281
     1
  0
CLASS
  1
HATCH
  2
AcDbHatch
  3
AutoCAD 2000
 90
        0
280
     0
281
     1
  0
CLASS
  1
XRECORD
  2
AcDbXrecord
  3
AutoCAD 2000
 90
        0
280
     0
281
     0
  0
CLASS
  1
LONG_TRANSACTION
  2
AcDbLongTransaction
  3
AutoCAD 2000
 90
        0
280
     0
281
     0
  0
CLASS
  1
LWPOLYLINE
  2
AcDbPolyline
  3
AutoCAD 2000
 90
        0
280
     0
281
     1
  0
CLASS
  1
HATCH
  2
AcDbHatch
  3
AutoCAD 2000
 90
        0
280
     0
281
     1
  0
CLASS
  1
XRECORD
  2
AcDbXrecord
  3
AutoCAD 2000
 90
        0
280
     0
281
     0
  0
CLASS
  1
LONG_TRANSACTION
  2
AcDbLongTransaction
  3
AutoCAD 2000
 90
        0
280
     0
281
     0
  0
CLASS
  1
LWPOLYLINE
  2
AcDbPolyline
  3
AutoCAD 2000
 90
        0
280
     0
281
     1
  0
CLASS
  1
HATCH
  2
AcDbHatch
  3
AutoCAD 2000
 90
        0
280
     0
281
     1
  0
CLASS
  1
XRECORD
  2
AcDbXrecord
  3
AutoCAD 2000
 90
        0
280
     0
281
     0
  0
CLASS
  1
LONG_TRANSACTION
  2
AcDbLongTransaction
  3
AutoCAD 2000
 90
        0
280
     0
281
     0
  0
CLASS
  1
LWPOLYLINE
  2
AcDbPolyline
  3
AutoCAD 2000
 90
        0
280
     0
281
     1
  0
CLASS
  1
HATCH
  2
AcDbHatch
  3
AutoCAD 2000
 90
        0
280
     0
281
     1
  0
CLASS
  1
XRECORD
  2
AcDbXrecord
  3
AutoCAD 2000
 90
        0
280
     0
281
     0
  0
CLASS
  1
LONG_TRANSACTION
  2
AcDbLongTransaction
  3
AutoCAD 2000
 90
        0
280
     0
281
     0
  0
CLASS
  1
LWPOLYLINE
  2
AcDbPolyline
  3
AutoCAD 2000
 90
        0
280
     0
281
     1
  0
CLASS
  1
HATCH
  2
AcDbHatch
  3
AutoCAD 2000
 90
        0
280
     0
281
     1
  0
CLASS
  1
XRECORD
  2
AcDbXrecord
  3
AutoCAD 2000
 90
        0
280
     0
281
     0
  0
CLASS
  1
LONG_TRANSACTION
  2
AcDbLongTransaction
  3
AutoCAD 2000
 90
        0
280
     0
281
     0
  0
CLASS
  1
LWPOLYLINE
  2
AcDbPolyline
  3
AutoCAD 2000
 90
        0
280
     0
281
     1
  0
CLASS
  1
HATCH
  2
AcDbHatch
  3
AutoCAD 2000
 90
        0
280
     0
281
     1
  0
CLASS
  1
XRECORD
  2
AcDbXrecord
  3
AutoCAD 2000
 90
        0
280
     0
281
     0
  0
CLASS
  1
LONG_TRANSACTION
  2
AcDbLongTransaction
  3
AutoCAD 2000
 90
        0
280
     0
281
     0
  0
CLASS
  1
LWPOLYLINE
  2
AcDbPolyline
  3
AutoCAD 2000
 90
        0
280
     0
281
     1
  0
CLASS
  1
HATCH
  2
AcDbHatch
  3
AutoCAD 2000
 90
        0
280
     0
281
     1
  0
CLASS
  1
XRECORD
  2
AcDbXrecord
  3
AutoCAD 2000
 90
        0
280
     0
281
     0
  0
CLASS
  1
LONG_TRANSACTION
  2
AcDbLongTransaction
  3
AutoCAD 2000
 90
        0
280
     0
281
     0
  0
CLASS
  1
LWPOLYLINE
  2
AcDbPolyline
  3
AutoCAD 2000
 90
        0
280
     0
281
     1
  0
CLASS
  1
HATCH
  2
AcDbHatch
  3
AutoCAD 2000
 90
        0
280
     0
281
     1
  0
CLASS
  1
XRECORD
  2
AcDbXrecord
  3
AutoCAD 2000
 90
        0
280
     0
281
     0
  0
CLASS
  1
LONG_TRANSACTION
  2
AcDbLongTransaction
  3
AutoCAD 2000
 90
        0
280
     0
281
     0
  0
CLASS
  1
LWPOLYLINE
  2
AcDbPolyline
  3
AutoCAD 2000
 90
        0
280
     0
281
     1
  0
CLASS
  1
HATCH
  2
AcDbHatch
  3
AutoCAD 2000
 90
        0
280
     0
281
     1
  0
CLASS
  1
XRECORD
  2
AcDbXrecord
  3
AutoCAD 2000
 90
        0
280
     0
281
     0
  0
CLASS
  1
LONG_TRANSACTION
  2
AcDbLongTransaction
  3
AutoCAD 2000
 90
        0
280
     0
281
     0
  0
CLASS
  1
LWPOLYLINE
  2
AcDbPolyline
  3
AutoCAD 2000
 90
        0
280
     0
281
     1
  0
CLASS
  1
HATCH
  2
AcDbHatch
  3
AutoCAD 2000
 90
        0
280
     0
281
     1
  0
CLASS
  1
XRECORD
  2
AcDbXrecord
  3
AutoCAD 2000
 90
        0
280
     0
281
     0
  0
CLASS
  1
LONG_TRANSACTION
  2
AcDbLongTransaction
  3
AutoCAD 2000
 90
        0
280
     0
281
     0
  0
CLASS
  1
LWPOLYLINE
  2
AcDbPolyline
  3
AutoCAD 2000
 90
        0
280
     0
281
     1
  0
CLASS
  1
HATCH
  2
AcDbHatch
  3
AutoCAD 2000
 90
        0
280
     0
281
     1
  0
CLASS
  1
XRECORD
  2
AcDbXrecord
  3
AutoCAD 2000
 90
        0
280
     0
281
     0
  0
CLASS
  1
LONG_TRANSACTION
  2
AcDbLongTransaction
  3
AutoCAD 2000
 90
        0
280
     0
281
     0
  0
CLASS
  1
LWPOLYLINE
  2
AcDbPolyline
  3
AutoCAD 2000
 90
        0
280
     0
281
     1
  0
CLASS
  1
HATCH
  2
AcDbHatch
  3
AutoCAD 2000
 90
        0
280
     0
281
     1
  0
CLASS
  1
XRECORD
  2
AcDbXrecord
  3
AutoCAD 2000
 90
        0
280
     0
281
     0
  0
CLASS
  1
LONG_TRANSACTION
  2
AcDbLongTransaction
  3
AutoCAD 2000
 90
        0
280
     0
281
     0
  0
CLASS
  1
LWPOLYLINE
  2
AcDbPolyline
  3
AutoCAD 2000
 90
        0
280
     0
281
     1
  0
CLASS
  1
HATCH
  2
AcDbHatch
  3
AutoCAD 2000
 90
        0
280
     0
281
     1
  0
CLASS
  1
XRECORD
  2
AcDbXrecord
  3
AutoCAD 2000
 90
        0
280
     0
281
     0
  0
CLASS
  1
LONG_TRANSACTION
  2
AcDbLongTransaction
  3
AutoCAD 2000
 90
        0
280
     0
281
     0
  0
CLASS
  1
LWPOLYLINE
  2
AcDbPolyline
  3
AutoCAD 2000
 90
        0
280
     0
281
     1
  0
CLASS
  1
HATCH
  2
AcDbHatch
  3
AutoCAD 2000
 90
        0
280
     0
281
     1
  0
CLASS
  1
XRECORD
  2
AcDbXrecord
  3
AutoCAD 2000
 90
        0
280
     0
281
     0
  0
CLASS
  1
LONG_TRANSACTION
  2
AcDbLongTransaction
  3
AutoCAD 2000
 90
        0
280
     0
281
     0
  0
CLASS
  1
LWPOLYLINE
  2
AcDbPolyline
  3
AutoCAD 2000
 90
        0
280
     0
281
     1
  0
CLASS
  1
HATCH
  2
AcDbHatch
  3
AutoCAD 2000
 90
        0
280
     0
281
     1
  0
CLASS
  1
XRECORD
  2
AcDbXrecord
  3
AutoCAD 2000
 90
        0
280
     0
281
     0
  0
CLASS
  1
LONG_TRANSACTION
  2
AcDbLongTransaction
  3
AutoCAD 2000
 90
        0
280
     0
281
     0
  0
CLASS
  1
LWPOLYLINE
  2
AcDbPolyline
  3
AutoCAD 2000
 90
        0
280
     0
281
     1
  0
CLASS
  1
HATCH
  2
AcDbHatch
  3
AutoCAD 2000
 90
        0
280
     0
281
     1
  0
CLASS
  1
XRECORD
  2
AcDbXrecord
  3
AutoCAD 2000
 90
        0
280
     0
281
     0
  0
CLASS
  1
LONG_TRANSACTION
  2
AcDbLongTransaction
  3
AutoCAD 2000
 90
        0
280
     0
281
     0
  0
CLASS
  1
LWPOLYLINE
  2
AcDbPolyline
  3
AutoCAD 2000
 90
        0
280
     0
281
     1
  0
CLASS
  1
HATCH
  2
AcDbHatch
  3
AutoCAD 2000
 90
        0
280
     0
281
     1
  0
CLASS
  1
XRECORD
  2
AcDbXrecord
  3
AutoCAD 2000
 90
        0
280
     0
281
     0
  0
CLASS
  1
LONG_TRANSACTION
  2
AcDbLongTransaction
  3
AutoCAD 2000
 90
        0
280
     0
281
     0
  0
CLASS
  1
LWPOLYLINE
  2
AcDbPolyline
  3
AutoCAD 2000
 90
        0
280
     0
281
     1
  0
CLASS
  1
HATCH
  2
AcDbHatch
  3
AutoCAD 2000
 90
        0
280
     0
281
     1
  0
CLASS
  1
XRECORD
  2
AcDbXrecord
  3
AutoCAD 2000
 90
        0
280
     0
281
     0
  0
CLASS
  1
LONG_TRANSACTION
  2
AcDbLongTransaction
  3
AutoCAD 2000
 90
        0
280
     0
281
     0
  0
CLASS
  1
LWPOLYLINE
  2
AcDbPolyline
  3
AutoCAD 2000
 90
        0
280
     0
281
     1
  0
CLASS
  1
HATCH
  2
AcDbHatch
  3
AutoCAD 2000
 90
        0
280
     0
281
     1
  0
CLASS
  1
XRECORD
  2
AcDbXrecord
  3
AutoCAD 2000
 90
        0
280
     0
281
     0
  0
CLASS
  1
LONG_TRANSACTION
  2
AcDbLongTransaction
  3
AutoCAD 2000
 90
        0
280
     0
281
     0
  0
CLASS
  1
LWPOLYLINE
  2
AcDbPolyline
  3
AutoCAD 2000
 90
        0
280
     0
281
     1
  0
CLASS
  1
HATCH
  2
AcDbHatch
  3
AutoCAD 2000
 90
        0
280
     0
281
     1
  0
CLASS
  1
XRECORD
  2
AcDbXrecord
  3
AutoCAD 2000
 90
        0
280
     0
281
     0
  0
CLASS
  1
LONG_TRANSACTION
  2
AcDbLongTransaction
  3
AutoCAD 2000
 90
        0
280
     0
281
     0
  0
CLASS
  1
LWPOLYLINE
  2
AcDbPolyline
  3
AutoCAD 2000
 90
        0
280
     0
281
     1
  0
CLASS
  1
HATCH
  2
AcDbHatch
  3
AutoCAD 2000
 90
        0
280
     0
281
     1
  0
CLASS
  1
XRECORD
  2
AcDbXrecord
  3
AutoCAD 2000
 90
        0
280
     0
281
     0
  0
CLASS
  1
LONG_TRANSACTION
  2
AcDbLongTransaction
  3
AutoCAD 2000
 90
        0
280
     0
281
     0
  0
CLASS
  1
LWPOLYLINE
  2
AcDbPolyline
  3
AutoCAD 2000
 90
        0
280
     0
281
     1
  0
CLASS
  1
HATCH
  2
AcDbHatch
  3
AutoCAD 2000
 90
        0
280
     0
281
     1
  0
CLASS
  1
XRECORD
  2
AcDbXrecord
  3
AutoCAD 2000
 90
        0
280
     0
281
     0
  0
CLASS
  1
LONG_TRANSACTION
  2
AcDbLongTransaction
  3
AutoCAD 2000
 90
        0
280
     0
281
     0
  0
CLASS
  1
LWPOLYLINE
  2
AcDbPolyline
  3
AutoCAD 2000
 90
        0
280
     0
281
     1
  0
CLASS
  1
HATCH
  2
AcDbHatch
  3
AutoCAD 2000
 90
        0
280
     0
281
     1
  0
CLASS
  1
XRECORD
  2
AcDbXrecord
  3
AutoCAD 2000
 90
        0
280
     0
281
     0
  0
CLASS
  1
LONG_TRANSACTION
  2
AcDbLongTransaction
  3
AutoCAD 2000
 90
        0
280
     0
281
     0
  0
CLASS
  1
LWPOLYLINE
  2
AcDbPolyline
  3
AutoCAD 2000
 90
        0
280
     0
281
     1
  0
CLASS
  1
HATCH
  2
AcDbHatch
  3
AutoCAD 2000
 90
        0
280
     0
281
     1
  0
CLASS
  1
XRECORD
  2
AcDbXrecord
  3
AutoCAD 2000
 90
        0
280
     0
281
     0
  0
CLASS
  1
LONG_TRANSACTION
  2
AcDbLongTransaction
  3
AutoCAD 2000
 90
        0
280
     0
281
     0
  0
CLASS
  1
LWPOLYLINE
  2
AcDbPolyline
  3
AutoCAD 2000
 90
        0
280
     0
281
     1
  0
CLASS
  1
HATCH
  2
AcDbHatch
  3
AutoCAD 2000
 90
        0
280
     0
281
     1
  0
CLASS
  1
XRECORD
  2
AcDbXrecord
  3
AutoCAD 2000
 90
        0
280
     0
281
     0
  0
CLASS
  1
LONG_TRANSACTION
  2
AcDbLongTransaction
  3
AutoCAD 2000
 90
        0
280
     0
281
     0
  0
CLASS
  1
LWPOLYLINE
  2
AcDbPolyline
  3
AutoCAD 2000
 90
        0
280
     0
281
     1
  0
CLASS
  1
HATCH
  2
AcDbHatch
  3
AutoCAD 2000
 90
        0
280
     0
281
     1
  0
CLASS
  1
XRECORD
  2
AcDbXrecord
  3
AutoCAD 2000
 90
        0
280
     0
281
     0
  0
CLASS
  1
LONG_TRANSACTION
  2
AcDbLongTransaction
  3
AutoCAD 2000
 90
        0
280
     0
281
     0
  0
CLASS
  1
LWPOLYLINE
  2
AcDbPolyline
  3
AutoCAD 2000
 90
        0
280
     0
281
     1
  0
CLASS
  1
HATCH
  2
AcDbHatch
  3
AutoCAD 2000
 90
        0
280
     0
281
     1
  0
CLASS
  1
XRECORD
  2
AcDbXrecord
  3
AutoCAD 2000
 90
        0
280
     0
281
     0
  0
CLASS
  1
LONG_TRANSACTION
  2
AcDbLongTransaction
  3
AutoCAD 2000
 90
        0
280
     0
281
     0
  0
CLASS
  1
LWPOLYLINE
  2
AcDbPolyline
  3
AutoCAD 2000
 90
        0
280
     0
281
     1
  0
CLASS
  1
HATCH
  2
AcDbHatch
  3
AutoCAD 2000
 90
        0
280
     0
281
     1
  0
CLASS
  1
XRECORD
  2
AcDbXrecord
  3
AutoCAD 2000
 90
        0
280
     0
281
     0
  0
CLASS
  1
LONG_TRANSACTION
  2
AcDbLongTransaction
  3
AutoCAD 2000
 90
        0
280
     0
281
     0
  0
CLASS
  1
LWPOLYLINE
  2
AcDbPolyline
  3
AutoCAD 2000
 90
        0
280
     0
281
     1
  0
CLASS
  1
HATCH
  2
AcDbHatch
  3
AutoCAD 2000
 90
        0
280
     0
281
     1
  0
CLASS
  1
XRECORD
  2
AcDbXrecord
  3
AutoCAD 2000
 90
        0
280
     0
281
     0
  0
CLASS
  1
LONG_TRANSACTION
  2
AcDbLongTransaction
  3
AutoCAD 2000
 90
        0
280
     0
281
     0
  0
CLASS
  1
LWPOLYLINE
  2
AcDbPolyline
  3
AutoCAD 2000
 90
        0
280
     0
281
     1
  0
CLASS
  1
HATCH
  2
AcDbHatch
  3
AutoCAD 2000
 90
        0
280
     0
281
     1
  0
CLASS
  1
XRECORD
  2
AcDbXrecord
  3
AutoCAD 2000
 90
        0
280
     0
281
     0
  0
CLASS
  1
LONG_TRANSACTION
  2
AcDbLongTransaction
  3
AutoCAD 2000
 90
        0
280
     0
281
     0
  0
CLASS
  1
LWPOLYLINE
  2
AcDbPolyline
  3
AutoCAD 2000
 90
        0
280
     0
281
     1
  0
CLASS
  1
HATCH
  2
AcDbHatch
  3
AutoCAD 2000
 90
        0
280
     0
281
     1
  0
CLASS
  1
XRECORD
  2
AcDbXrecord
  3
AutoCAD 2000
 90
        0
280
     0
281
     0
  0
CLASS
  1
LONG_TRANSACTION
  2
AcDbLongTransaction
  3
AutoCAD 2000
 90
        0
280
     0
281
     0
  0
CLASS
  1
LWPOLYLINE
  2
AcDbPolyline
  3
AutoCAD 2000
 90
        0
280
     0
281
     1
  0
CLASS
  1
HATCH
  2
AcDbHatch
  3
AutoCAD 2000
 90
        0
280
     0
281
     1
  0
CLASS
  1
XRECORD
  2
AcDbXrecord
  3
AutoCAD 2000
 90
        0
280
     0
281
     0
  0
CLASS
  1
LONG_TRANSACTION
  2
AcDbLongTransaction
  3
AutoCAD 2000
 90
        0
280
     0
281
     0
  0
CLASS
  1
LWPOLYLINE
  2
AcDbPolyline
  3
AutoCAD 2000
 90
        0
280
     0
281
     1
  0
CLASS
  1
HATCH
  2
AcDbHatch
  3
AutoCAD 2000
 90
        0
280
     0
281
     1
  0
CLASS
  1
XRECORD
  2
AcDbXrecord
  3
AutoCAD 2000
 90
        0
280
     0
281
     0
  0
CLASS
  1
LONG_TRANSACTION
  2
AcDbLongTransaction
  3
AutoCAD 2000
 90
        0
280
     0
281
     0
  0
CLASS
  1
LWPOLYLINE
  2
AcDbPolyline
  3
AutoCAD 2000
 90
        0
280
     0
281
     1
  0
CLASS
  1
HATCH
  2
AcDbHatch
  3
AutoCAD 2000
 90
        0
280
     0
281
     1
  0
CLASS
  1
XRECORD
  2
AcDbXrecord
  3
AutoCAD 2000
 90
        0
280
     0
281
     0
  0
CLASS
  1
LONG_TRANSACTION
  2
AcDbLongTransaction
  3
AutoCAD 2000
 90
        0
280
     0
281
     0
  0
CLASS
  1
LWPOLYLINE
  2
AcDbPolyline
  3
AutoCAD 2000
 90
        0
280
     0
281
     1
  0
CLASS
  1
HATCH
  2
AcDbHatch
  3
AutoCAD 2000
 90
        0
280
     0
281
     1
  0
CLASS
  1
XRECORD
  2
AcDbXrecord
  3
AutoCAD 2000
 90
        0
280
     0
281
     0
  0
CLASS
  1
LONG_TRANSACTION
  2
AcDbLongTransaction
  3
AutoCAD 2000
 90
        0
280
     0
281
     0
  0
CLASS
  1
LWPOLYLINE
  2
AcDbPolyline
  3
AutoCAD 2000
 90
        0
280
     0
281
     1
  0
CLASS
  1
HATCH
  2
AcDbHatch
  3
AutoCAD 2000
 90
        0
280
     0
281
     1
  0
CLASS
  1
XRECORD
  2
AcDbXrecord
  3
AutoCAD 2000
 90
        0
280
     0
281
     0
  0
CLASS
  1
LONG_TRANSACTION
  2
AcDbLongTransaction
  3
AutoCAD 2000
 90
        0
280
     0
281
     0
  0
CLASS
  1
LWPOLYLINE
  2
AcDbPolyline
  3
AutoCAD 2000
 90
        0
280
     0
281
     1
  0
CLASS
  1
HATCH
  2
AcDbHatch
  3
AutoCAD 2000
 90
        0
280
     0
281
     1
  0
CLASS
  1
XRECORD
  2
AcDbXrecord
  3
AutoCAD 2000
 90
        0
280
     0
281
     0
  0
CLASS
  1
LONG_TRANSACTION
  2
AcDbLongTransaction
  3
AutoCAD 2000
 90
        0
280
     0
281
     0
  0
CLASS
  1
LWPOLYLINE
  2
AcDbPolyline
  3
AutoCAD 2000
 90
        0
280
     0
281
     1
  0
CLASS
  1
HATCH
  2
AcDbHatch
  3
AutoCAD 2000
 90
        0
280
     0
281
     1
  0
CLASS
  1
XRECORD
  2
AcDbXrecord
  3
AutoCAD 2000
 90
        0
280
     0
281
     0
  0
CLASS
  1
LONG_TRANSACTION
  2
AcDbLongTransaction
  3
AutoCAD 2000
 90
        0
280
     0
281
     0
  0
CLASS
  1
LWPOLYLINE
  2
AcDbPolyline
  3
AutoCAD 2000
 90
        0
280
     0
281
     1
  0
CLASS
  1
HATCH
  2
AcDbHatch
  3
AutoCAD 2000
 90
        0
280
     0
281
     1
  0
CLASS
  1
XRECORD
  2
AcDbXrecord
  3
AutoCAD 2000
 90
        0
280
     0
281
     0
  0
CLASS
  1
LONG_TRANSACTION
  2
AcDbLongTransaction
  3
AutoCAD 2000
 90
        0
280
     0
281
     0
  0
CLASS
  1
LWPOLYLINE
  2
AcDbPolyline
  3
AutoCAD 2000
 90
        0
280
     0
281
     1
  0
CLASS
  1
HATCH
  2
AcDbHatch
  3
AutoCAD 2000
 90
        0
280
     0
281
     1
  0
CLASS
  1
XRECORD
  2
AcDbXrecord
  3
AutoCAD 2000
 90
        0
280
     0
281
     0
  0
CLASS
  1
LONG_TRANSACTION
  2
AcDbLongTransaction
  3
AutoCAD 2000
 90
        0
280
     0
281
     0
  0
CLASS
  1
LWPOLYLINE
  2
AcDbPolyline
  3
AutoCAD 2000
 90
        0
280
     0
281
     1
  0
CLASS
  1
HATCH
  2
AcDbHatch
  3
AutoCAD 2000
 90
        0
280
     0
281
     1
  0
CLASS
  1
XRECORD
  2
AcDbXrecord
  3
AutoCAD 2000
 90
        0
280
     0
281
     0
  0
CLASS
  1
LONG_TRANSACTION
  2
AcDbLongTransaction
  3
AutoCAD 2000
 90
        0
280
     0
281
     0
  0
CLASS
  1
LWPOLYLINE
  2
AcDbPolyline
  3
AutoCAD 2000
 90
        0
280
     0
281
     1
  0
CLASS
  1
HATCH
  2
AcDbHatch
  3
AutoCAD 2000
 90
        0
280
     0
281
     1
  0
CLASS
  1
XRECORD
  2
AcDbXrecord
  3
AutoCAD 2000
 90
        0
280
     0
281
     0
  0
CLASS
  1
LONG_TRANSACTION
  2
AcDbLongTransaction
  3
AutoCAD 2000
 90
        0
280
     0
281
     0
  0
CLASS
  1
LWPOLYLINE
  2
AcDbPolyline
  3
AutoCAD 2000
 90
        0
280
     0
281
     1
  0
CLASS
  1
HATCH
  2
AcDbHatch
  3
AutoCAD 2000
 90
        0
280
     0
281
     1
  0
CLASS
  1
XRECORD
  2
AcDbXrecord
  3
AutoCAD 2000
 90
        0
280
     0
281
     0
  0
CLASS
  1
LONG_TRANSACTION
  2
AcDbLongTransaction
  3
AutoCAD 2000
 90
        0
280
     0
281
     0
  0
CLASS
  1
LWPOLYLINE
  2
AcDbPolyline
  3
AutoCAD 2000
 90
        0
280
     0
281
     1
  0
CLASS
  1
HATCH
  2
AcDbHatch
  3
AutoCAD 2000
 90
        0
280
     0
281
     1
  0
CLASS
  1
XRECORD
  2
AcDbXrecord
  3
AutoCAD 2000
 90
        0
280
     0
281
     0
  0
CLASS
  1
LONG_TRANSACTION
  2
AcDbLongTransaction
  3
AutoCAD 2000
 90
        0
280
     0
281
     0
  0
CLASS
  1
LWPOLYLINE
  2
AcDbPolyline
  3
AutoCAD 2000
 90
        0
280
     0
281
     1
  0
CLASS
  1
HATCH
  2
AcDbHatch
  3
AutoCAD 2000
 90
        0
280
     0
281
     1
  0
CLASS
  1
XRECORD
  2
AcDbXrecord
  3
AutoCAD 2000
 90
        0
280
     0
281
     0
  0
CLASS
  1
LONG_TRANSACTION
  2
AcDbLongTransaction
  3
AutoCAD 2000
 90
        0
280
     0
281
     0
  0
CLASS
  1
LWPOLYLINE
  2
AcDbPolyline
  3
AutoCAD 2000
 90
        0
280
     0
281
     1
  0
CLASS
  1
HATCH
  2
AcDbHatch
  3
AutoCAD 2000
 90
        0
280
     0
281
     1
  0
CLASS
  1
XRECORD
  2
AcDbXrecord
  3
AutoCAD 2000
 90
        0
280
     0
281
     0
  0
CLASS
  1
LONG_TRANSACTION
  2
AcDbLongTransaction
  3
AutoCAD 2000
 90
        0
280
     0
281
     0
  0
CLASS
  1
LWPOLYLINE
  2
AcDbPolyline
  3
AutoCAD 2000
 90
        0
280
     0
281
     1
  0
CLASS
  1
HATCH
  2
AcDbHatch
  3
AutoCAD 2000
 90
        0
280
     0
281
     1
  0
CLASS
  1
XRECORD
  2
AcDbXrecord
  3
AutoCAD 2000
 90
        0
280
     0
281
     0
  0
CLASS
  1
LONG_TRANSACTION
  2
AcDbLongTransaction
  3
AutoCAD 2000
 90
        0
280
     0
281
     0
  0
CLASS
  1
LWPOLYLINE
  2
AcDbPolyline
  3
AutoCAD 2000
 90
        0
280
     0
281
     1
  0
CLASS
  1
HATCH
  2
AcDbHatch
  3
AutoCAD 2000
 90
        0
280
     0
281
     1
  0
CLASS
  1
XRECORD
  2
AcDbXrecord
  3
AutoCAD 2000
 90
        0
280
     0
281
     0
  0
CLASS
  1
LONG_TRANSACTION
  2
AcDbLongTransaction
  3
AutoCAD 2000
 90
        0
280
     0
281
     0
  0
CLASS
  1
LWPOLYLINE
  2
AcDbPolyline
  3
AutoCAD 2000
 90
        0
280
     0
281
     1
  0
CLASS
  1
HATCH
  2
AcDbHatch
  3
AutoCAD 2000
 90
        0
280
     0
281
     1
  0
CLASS
  1
XRECORD
  2
AcDbXrecord
  3
AutoCAD 2000
 90
        0
280
     0
281
     0
  0
CLASS
  1
LONG_TRANSACTION
  2
AcDbLongTransaction
  3
AutoCAD 2000
 90
        0
280
     0
281
     0
  0
CLASS
  1
LWPOLYLINE
  2
AcDbPolyline
  3
AutoCAD 2000
 90
        0
280
     0
281
     1
  0
CLASS
  1
HATCH
  2
AcDbHatch
  3
AutoCAD 2000
 90
        0
280
     0
281
     1
  0
CLASS
  1
XRECORD
  2
AcDbXrecord
  3
AutoCAD 2000
 90
        0
280
     0
281
     0
  0
CLASS
  1
LONG_TRANSACTION
  2
AcDbLongTransaction
  3
AutoCAD 2000
 90
        0
280
     0
281
     0
  0
CLASS
  1
LWPOLYLINE
  2
AcDbPolyline
  3
AutoCAD 2000
 90
        0
280
     0
281
     1
  0
CLASS
  1
HATCH
  2
AcDbHatch
  3
AutoCAD 2000
 90
        0
280
     0
281
     1
  0
CLASS
  1
XRECORD
  2
AcDbXrecord
  3
AutoCAD 2000
 90
        0
280
     0
281
     0
  0
CLASS
  1
LONG_TRANSACTION
  2
AcDbLongTransaction
  3
AutoCAD 2000
 90
        0
280
     0
281
     0
  0
CLASS
  1
LWPOLYLINE
  2
AcDbPolyline
  3
AutoCAD 2000
 90
        0
280
     0
281
     1
  0
CLASS
  1
HATCH
  2
AcDbHatch
  3
AutoCAD 2000
 90
        0
280
     0
281
     1
  0
CLASS
  1
XRECORD
  2
AcDbXrecord
  3
AutoCAD 2000
 90
        0
280
     0
281
     0
  0
CLASS
  1
LONG_TRANSACTION
  2
AcDbLongTransaction
  3
AutoCAD 2000
 90
        0
280
     0
281
     0
  0
CLASS
  1
LWPOLYLINE
  2
AcDbPolyline
  3
AutoCAD 2000
 90
        0
280
     0
281
     1
  0
CLASS
  1
HATCH
  2
AcDbHatch
  3
AutoCAD 2000
 90
        0
280
     0
281
     1
  0
CLASS
  1
XRECORD
  2
AcDbXrecord
  3
AutoCAD 2000
 90
        0
280
     0
281
     0
  0
CLASS
  1
LONG_TRANSACTION
  2
AcDbLongTransaction
  3
AutoCAD 2000
 90
        0
280
     0
281
     0
  0
CLASS
  1
LWPOLYLINE
  2
AcDbPolyline
  3
AutoCAD 2000
 90
        0
280
     0
281
     1
  0
CLASS
  1
HATCH
  2
AcDbHatch
  3
AutoCAD 2000
 90
        0
280
     0
281
     1
  0
CLASS
  1
XRECORD
  2
AcDbXrecord
  3
AutoCAD 2000
 90
        0
280
     0
281
     0
  0
CLASS
  1
LONG_TRANSACTION
  2
AcDbLongTransaction
  3
AutoCAD 2000
 90
        0
280
     0
281
     0
  0
CLASS
  1
LWPOLYLINE
  2
AcDbPolyline
  3
AutoCAD 2000
 90
        0
280
     0
281
     1
  0
CLASS
  1
HATCH
  2
AcDbHatch
  3
AutoCAD 2000
 90
        0
280
     0
281
     1
  0
CLASS
  1
XRECORD
  2
AcDbXrecord
  3
AutoCAD 2000
 90
        0
280
     0
281
     0
  0
CLASS
  1
LONG_TRANSACTION
  2
AcDbLongTransaction
  3
AutoCAD 2000
 90
        0
280
     0
281
     0
  0
CLASS
  1
LWPOLYLINE
  2
AcDbPolyline
  3
AutoCAD 2000
 90
        0
280
     0
281
     1
  0
CLASS
  1
HATCH
  2
AcDbHatch
  3
AutoCAD 2000
 90
        0
280
     0
281
     1
  0
CLASS
  1
XRECORD
  2
AcDbXrecord
  3
AutoCAD 2000
 90
        0
280
     0
281
     0
  0
CLASS
  1
LONG_TRANSACTION
  2
AcDbLongTransaction
  3
AutoCAD 2000
 90
        0
280
     0
281
     0
  0
CLASS
  1
LWPOLYLINE
  2
AcDbPolyline
  3
AutoCAD 2000
 90
        0
280
     0
281
     1
  0
CLASS
  1
HATCH
  2
AcDbHatch
  3
AutoCAD 2000
 90
        0
280
     0
281
     1
  0
CLASS
  1
XRECORD
  2
AcDbXrecord
  3
AutoCAD 2000
 90
        0
280
     0
281
     0
  0
CLASS
  1
LONG_TRANSACTION
  2
AcDbLongTransaction
  3
AutoCAD 2000
 90
        0
280
     0
281
     0
  0
CLASS
  1
LWPOLYLINE
  2
AcDbPolyline
  3
AutoCAD 2000
 90
        0
280
     0
281
     1
  0
CLASS
  1
HATCH
  2
AcDbHatch
  3
AutoCAD 2000
 90
        0
280
     0
281
     1
  0
CLASS
  1
XRECORD
  2
AcDbXrecord
  3
AutoCAD 2000
 90
        0
280
     0
281
     0
  0
CLASS
  1
LONG_TRANSACTION
  2
AcDbLongTransaction
  3
AutoCAD 2000
 90
        0
280
     0
281
     0
  0
CLASS
  1
LWPOLYLINE
  2
AcDbPolyline
  3
AutoCAD 2000
 90
        0
280
     0
281
     1
  0
CLASS
  1
HATCH
  2
AcDbHatch
  3
AutoCAD 2000
 90
        0
280
     0
281
     1
  0
CLASS
  1
XRECORD
  2
AcDbXrecord
  3
AutoCAD 2000
 90
        0
280
     0
281
     0
  0
CLASS
  1
LONG_TRANSACTION
  2
AcDbLongTransaction
  3
AutoCAD 2000
 90
        0
280
     0
281
     0
  0
CLASS
  1
LWPOLYLINE
  2
AcDbPolyline
  3
AutoCAD 2000
 90
        0
280
     0
281
     1
  0
CLASS
  1
HATCH
  2
AcDbHatch
  3
AutoCAD 2000
 90
        0
280
     0
281
     1
  0
CLASS
  1
XRECORD
  2
AcDbXrecord
  3
AutoCAD 2000
 90
        0
280
     0
281
     0
  0
CLASS
  1
LONG_TRANSACTION
  2
AcDbLongTransaction
  3
AutoCAD 2000
 90
        0
280
     0
281
     0
  0
CLASS
  1
LWPOLYLINE
  2
AcDbPolyline
  3
AutoCAD 2000
 90
        0
280
     0
281
     1
  0
CLASS
  1
HATCH
  2
AcDbHatch
  3
AutoCAD 2000
 90
        0
280
     0
281
     1
  0
CLASS
  1
XRECORD
  2
AcDbXrecord
  3
AutoCAD 2000
 90
        0
280
     0
281
     0
  0
ENDSEC
  0
SECTION
  2
TABLES
  0
TABLE
  2
VPORT
  5
92
330
0
100
AcDbSymbolTable
 70
     2
  0
VPORT
  5
588
330
92
100
AcDbSymbolTableRecord
100
AcDbViewportTableRecord
  2
*ACTIVE
 70
     0
 10
0.0
 20
0.0
 11
1.0
 21
1.0
 12
163.1217794890697
 22
205.8024913284993
 13
0.0
 23
0.0
 14
10.0
 24
10.0
 15
10.0
 25
10.0
 16
0.0
 26
0.0
 36
1.0
 17
0.0
 27
0.0
 37
0.0
 40
396.1830844652532
 41
1.162878787878787
 42
50.0
 43
0.0
 44
0.0
 50
0.0
 51
0.0
 71
     0
 72
 10000
 73
     1
 74
     3
 75
     0
 76
     0
 77
     0
 78
     1
  0
ENDTAB
  0
TABLE
  2
LTYPE
  5
8D
330
0
100
AcDbSymbolTable
 70
     2
  0
LTYPE
  5
8E
330
8D
100
AcDbSymbolTableRecord
100
AcDbLinetypeTableRecord
  2
BYBLOCK
 70
     0
  3

 72
    65
 73
     0
 40
0.0
  0
LTYPE
  5
8F
330
8D
100
AcDbSymbolTableRecord
100
AcDbLinetypeTableRecord
  2
BYLAYER
 70
     0
  3

 72
    65
 73
     0
 40
0.0
  0
LTYPE
  5
A
330
8D
100
AcDbSymbolTableRecord
100
AcDbLinetypeTableRecord
  2
CONTINUOUS
 70
     0
  3
Solid line
 72
    65
 73
     0
 40
0.0
  0
LTYPE
  5
CD
330
8D
100
AcDbSymbolTableRecord
100
AcDbLinetypeTableRecord
  2
CENTER
 70
     0
  3
Center ____ _ ____ _ ____ _ ____ _ ____ _ ____
 72
    65
 73
     4
 40
50.8
 49
31.75
 74
     0
 49
-6.349999999999997
 74
     0
 49
6.349999999999997
 74
     0
 49
-6.349999999999997
 74
     0
  0
ENDTAB
  0
TABLE
  2
LAYER
  5
14
102
{ACAD_XDICTIONARY
360
15
102
}
330
0
100
AcDbSymbolTable
 70
     7
  0
LAYER
  5
6
330
14
100
AcDbSymbolTableRecord
100
AcDbLayerTableRecord
  2
0
 70
     0
 62
     7
  6
CONTINUOUS
  0
LAYER
  5
118
330
14
100
AcDbSymbolTableRecord
100
AcDbLayerTableRecord
  2
3
 70
     0
 62
     3
  6
CONTINUOUS
  0
LAYER
  5
241
330
14
100
AcDbSymbolTableRecord
100
AcDbLayerTableRecord
  2
1
 70
     0
 62
     1
  6
CENTER
  0
LAYER
  5
AF
330
14
100
AcDbSymbolTableRecord
100
AcDbLayerTableRecord
  2
DEFPOINTS
 70
     0
 62
     7
  6
CONTINUOUS
  0
LAYER
  5
BB
330
14
100
AcDbSymbolTableRecord
100
AcDbLayerTableRecord
  2
DIM
 70
     0
 62
     3
  6
CONTINUOUS
  0
LAYER
  5
CC
330
14
100
AcDbSymbolTableRecord
100
AcDbLayerTableRecord
  2
CEN
 70
     0
 62
     1
  6
CENTER
  0
LAYER
  5
1EF
330
14
100
AcDbSymbolTableRecord
100
AcDbLayerTableRecord
  2
2
 70
     0
 62
     2
  6
CONTINUOUS
  0
ENDTAB
  0
TABLE
  2
STYLE
  5
8A
330
0
100
AcDbSymbolTable
 70
     2
  0
STYLE
  5
8B
330
8A
100
AcDbSymbolTableRecord
100
AcDbTextStyleTableRecord
  2
STANDARD
 70
     0
 40
0.0
 41
1.0
 50
0.0
 71
     0
 42
5.777225951253058
  3
romans.shx
  4
whgtxt.shx
  0
STYLE
  5
245
330
8A
100
AcDbSymbolTableRecord
100
AcDbTextStyleTableRecord
  2
GHS
 70
     0
 40
0.0
 41
0.6
 50
0.0
 71
     0
 42
3.0
  3
ROMANS
  4
GHS
  0
ENDTAB
  0
TABLE
  2
VIEW
  5
90
330
0
100
AcDbSymbolTable
 70
     0
  0
ENDTAB
  0
TABLE
  2
UCS
  5
91
330
0
100
AcDbSymbolTable
 70
     0
  0
ENDTAB
  0
TABLE
  2
APPID
  5
94
330
0
100
AcDbSymbolTable
 70
     1
  0
APPID
  5
95
330
94
100
AcDbSymbolTableRecord
100
AcDbRegAppTableRecord
  2
ACAD
 70
     0
  0
ENDTAB
  0
TABLE
  2
DIMSTYLE
  5
96
330
0
100
AcDbSymbolTable
 70
     2
  0
DIMSTYLE
105
A3
102
{ACAD_REACTORS
330
BC
330
357
330
E6
330
D5
330
28D
330
29C
330
2AD
330
2CE
330
2DD
330
26D
330
25B
330
32F
330
31C
330
368
330
346
330
14F
330
231
330
222
330
16F
330
1A5
330
102
330
207
330
194
330
F3
330
1F6
330
160
330
1B7
330
17F
330
A4
330
119
330
141
102
}
330
96
100
AcDbSymbolTableRecord
100
AcDbDimStyleTableRecord
  2
STANDARD
 70
     0
  3

  4

  5

  6

  7

 40
1.0
 41
2.5
 42
1.0
 43
10.0
 44
0.6
 45
0.0
 46
0.0
 47
0.0
 48
0.0
140
3.0
141
0.09
142
0.0
143
25.4
144
1.0
145
0.0
146
1.0
147
1.0
 71
     0
 72
     0
 73
     0
 74
     0
 75
     0
 76
     0
 77
     1
 78
     8
170
     0
171
     2
172
     1
173
     0
174
     1
175
     0
176
   123
177
   123
178
     3
270
     2
271
     2
272
     2
273
     2
274
     2
340
8B
275
     1
280
     0
281
     0
282
     0
283
     1
284
     0
285
     0
286
     0
287
     3
288
     1
  0
DIMSTYLE
105
9C
330
96
100
AcDbSymbolTableRecord
100
AcDbDimStyleTableRecord
  2
1_1_2
 70
     0
  3

  4

  5

  6

  7

 40
1.0
 41
3.0
 42
1.0
 43
10.0
 44
0.6
 45
0.0
 46
0.0
 47
0.0
 48
0.0
140
3.5
141
0.09
142
0.0
143
25.4
144
1.0
145
0.0
146
1.0
147
1.0
 71
     0
 72
     0
 73
     0
 74
     0
 75
     0
 76
     0
 77
     1
 78
     8
170
     0
171
     2
172
     1
173
     0
174
     1
175
     0
176
   123
177
   123
178
     3
270
     2
271
     2
272
     2
273
     2
274
     2
340
8B
275
     1
280
     0
281
     0
282
     0
283
     1
284
     0
285
     0
286
     0
287
     3
288
     1
  0
ENDTAB
  0
TABLE
  2
BLOCK_RECORD
  5
1
330
0
100
AcDbSymbolTable
 70
    62
  0
BLOCK_RECORD
  5
2
102
{ACAD_XDICTIONARY
360
3
102
}
330
1
100
AcDbSymbolTableRecord
100
AcDbBlockTableRecord
  2
*MODEL_SPACE
  0
BLOCK_RECORD
  5
E
102
{ACAD_XDICTIONARY
360
F
102
}
330
1
100
AcDbSymbolTableRecord
100
AcDbBlockTableRecord
  2
*PAPER_SPACE
  0
BLOCK_RECORD
  5
E7
330
1
100
AcDbSymbolTableRecord
100
AcDbBlockTableRecord
  2
*D0
  0
BLOCK_RECORD
  5
2AE
330
1
100
AcDbSymbolTableRecord
100
AcDbBlockTableRecord
  2
*D1
  0
BLOCK_RECORD
  5
25C
330
1
100
AcDbSymbolTableRecord
100
AcDbBlockTableRecord
  2
*D2
  0
BLOCK_RECORD
  5
BF
330
1
100
AcDbSymbolTableRecord
100
AcDbBlockTableRecord
  2
*D3
  0
BLOCK_RECORD
  5
35A
330
1
100
AcDbSymbolTableRecord
100
AcDbBlockTableRecord
  2
*D4
  0
BLOCK_RECORD
  5
D8
330
1
100
AcDbSymbolTableRecord
100
AcDbBlockTableRecord
  2
*D5
  0
BLOCK_RECORD
  5
290
330
1
100
AcDbSymbolTableRecord
100
AcDbBlockTableRecord
  2
*D6
  0
BLOCK_RECORD
  5
29F
330
1
100
AcDbSymbolTableRecord
100
AcDbBlockTableRecord
  2
*D7
  0
BLOCK_RECORD
  5
2D1
330
1
100
AcDbSymbolTableRecord
100
AcDbBlockTableRecord
  2
*D8
  0
BLOCK_RECORD
  5
2E0
330
1
100
AcDbSymbolTableRecord
100
AcDbBlockTableRecord
  2
*D9
  0
BLOCK_RECORD
  5
270
330
1
100
AcDbSymbolTableRecord
100
AcDbBlockTableRecord
  2
*D10
  0
BLOCK_RECORD
  5
332
330
1
100
AcDbSymbolTableRecord
100
AcDbBlockTableRecord
  2
*D11
  0
BLOCK_RECORD
  5
31F
330
1
100
AcDbSymbolTableRecord
100
AcDbBlockTableRecord
  2
*D12
  0
BLOCK_RECORD
  5
36B
330
1
100
AcDbSymbolTableRecord
100
AcDbBlockTableRecord
  2
*D13
  0
BLOCK_RECORD
  5
349
330
1
100
AcDbSymbolTableRecord
100
AcDbBlockTableRecord
  2
*D14
  0
BLOCK_RECORD
  5
150
330
1
100
AcDbSymbolTableRecord
100
AcDbBlockTableRecord
  2
*D15
  0
BLOCK_RECORD
  5
103
330
1
100
AcDbSymbolTableRecord
100
AcDbBlockTableRecord
  2
*D16
  0
BLOCK_RECORD
  5
1B8
330
1
100
AcDbSymbolTableRecord
100
AcDbBlockTableRecord
  2
*D17
  0
BLOCK_RECORD
  5
234
330
1
100
AcDbSymbolTableRecord
100
AcDbBlockTableRecord
  2
*D18
  0
BLOCK_RECORD
  5
225
330
1
100
AcDbSymbolTableRecord
100
AcDbBlockTableRecord
  2
*D19
  0
BLOCK_RECORD
  5
172
330
1
100
AcDbSymbolTableRecord
100
AcDbBlockTableRecord
  2
*D20
  0
BLOCK_RECORD
  5
1A8
330
1
100
AcDbSymbolTableRecord
100
AcDbBlockTableRecord
  2
*D21
  0
BLOCK_RECORD
  5
20A
330
1
100
AcDbSymbolTableRecord
100
AcDbBlockTableRecord
  2
*D22
  0
BLOCK_RECORD
  5
197
330
1
100
AcDbSymbolTableRecord
100
AcDbBlockTableRecord
  2
*D23
  0
BLOCK_RECORD
  5
F6
330
1
100
AcDbSymbolTableRecord
100
AcDbBlockTableRecord
  2
*D24
  0
BLOCK_RECORD
  5
1F9
330
1
100
AcDbSymbolTableRecord
100
AcDbBlockTableRecord
  2
*D25
  0
BLOCK_RECORD
  5
163
330
1
100
AcDbSymbolTableRecord
100
AcDbBlockTableRecord
  2
*D26
  0
BLOCK_RECORD
  5
182
330
1
100
AcDbSymbolTableRecord
100
AcDbBlockTableRecord
  2
*D27
  0
BLOCK_RECORD
  5
A7
330
1
100
AcDbSymbolTableRecord
100
AcDbBlockTableRecord
  2
*D28
  0
BLOCK_RECORD
  5
11C
330
1
100
AcDbSymbolTableRecord
100
AcDbBlockTableRecord
  2
*D29
  0
BLOCK_RECORD
  5
144
330
1
100
AcDbSymbolTableRecord
100
AcDbBlockTableRecord
  2
*D30
  0
BLOCK_RECORD
  5
380
330
1
100
AcDbSymbolTableRecord
100
AcDbBlockTableRecord
  2
*D31
  0
BLOCK_RECORD
  5
38E
330
1
100
AcDbSymbolTableRecord
100
AcDbBlockTableRecord
  2
*D32
  0
BLOCK_RECORD
  5
39A
330
1
100
AcDbSymbolTableRecord
100
AcDbBlockTableRecord
  2
*D33
  0
BLOCK_RECORD
  5
3A6
330
1
100
AcDbSymbolTableRecord
100
AcDbBlockTableRecord
  2
*D34
  0
BLOCK_RECORD
  5
3B1
330
1
100
AcDbSymbolTableRecord
100
AcDbBlockTableRecord
  2
*D35
  0
BLOCK_RECORD
  5
3BD
330
1
100
AcDbSymbolTableRecord
100
AcDbBlockTableRecord
  2
*D36
  0
BLOCK_RECORD
  5
3C9
330
1
100
AcDbSymbolTableRecord
100
AcDbBlockTableRecord
  2
*D37
  0
BLOCK_RECORD
  5
3D4
330
1
100
AcDbSymbolTableRecord
100
AcDbBlockTableRecord
  2
*D38
  0
BLOCK_RECORD
  5
3E0
330
1
100
AcDbSymbolTableRecord
100
AcDbBlockTableRecord
  2
*D39
  0
BLOCK_RECORD
  5
3EC
330
1
100
AcDbSymbolTableRecord
100
AcDbBlockTableRecord
  2
*D40
  0
BLOCK_RECORD
  5
3F8
330
1
100
AcDbSymbolTableRecord
100
AcDbBlockTableRecord
  2
*D41
  0
BLOCK_RECORD
  5
406
330
1
100
AcDbSymbolTableRecord
100
AcDbBlockTableRecord
  2
*D42
  0
BLOCK_RECORD
  5
414
330
1
100
AcDbSymbolTableRecord
100
AcDbBlockTableRecord
  2
*D43
  0
BLOCK_RECORD
  5
420
330
1
100
AcDbSymbolTableRecord
100
AcDbBlockTableRecord
  2
*D44
  0
BLOCK_RECORD
  5
42E
330
1
100
AcDbSymbolTableRecord
100
AcDbBlockTableRecord
  2
*D45
  0
BLOCK_RECORD
  5
43A
330
1
100
AcDbSymbolTableRecord
100
AcDbBlockTableRecord
  2
*D46
  0
BLOCK_RECORD
  5
446
330
1
100
AcDbSymbolTableRecord
100
AcDbBlockTableRecord
  2
*D47
  0
BLOCK_RECORD
  5
452
330
1
100
AcDbSymbolTableRecord
100
AcDbBlockTableRecord
  2
*D48
  0
BLOCK_RECORD
  5
45E
330
1
100
AcDbSymbolTableRecord
100
AcDbBlockTableRecord
  2
*D49
  0
BLOCK_RECORD
  5
46A
330
1
100
AcDbSymbolTableRecord
100
AcDbBlockTableRecord
  2
*D50
  0
BLOCK_RECORD
  5
476
330
1
100
AcDbSymbolTableRecord
100
AcDbBlockTableRecord
  2
*D51
  0
BLOCK_RECORD
  5
481
330
1
100
AcDbSymbolTableRecord
100
AcDbBlockTableRecord
  2
*D52
  0
BLOCK_RECORD
  5
48D
330
1
100
AcDbSymbolTableRecord
100
AcDbBlockTableRecord
  2
*D53
  0
BLOCK_RECORD
  5
499
330
1
100
AcDbSymbolTableRecord
100
AcDbBlockTableRecord
  2
*D54
  0
BLOCK_RECORD
  5
4A7
330
1
100
AcDbSymbolTableRecord
100
AcDbBlockTableRecord
  2
*D55
  0
BLOCK_RECORD
  5
4B3
330
1
100
AcDbSymbolTableRecord
100
AcDbBlockTableRecord
  2
*D56
  0
BLOCK_RECORD
  5
4BF
330
1
100
AcDbSymbolTableRecord
100
AcDbBlockTableRecord
  2
*D57
  0
BLOCK_RECORD
  5
4CD
330
1
100
AcDbSymbolTableRecord
100
AcDbBlockTableRecord
  2
*D58
  0
BLOCK_RECORD
  5
4D9
330
1
100
AcDbSymbolTableRecord
100
AcDbBlockTableRecord
  2
*D59
  0
BLOCK_RECORD
  5
4E5
330
1
100
AcDbSymbolTableRecord
100
AcDbBlockTableRecord
  2
*D60
  0
BLOCK_RECORD
  5
4F1
330
1
100
AcDbSymbolTableRecord
100
AcDbBlockTableRecord
  2
*D61
  0
ENDTAB
  0
ENDSEC
  0
SECTION
  2
BLOCKS
  0
BLOCK
  5
5
330
2
100
AcDbEntity
  8
0
100
AcDbBlockBegin
  2
*MODEL_SPACE
 70
     0
 10
0.0
 20
0.0
 30
0.0
  3
*MODEL_SPACE
  1

  0
ENDBLK
  5
B
330
2
100
AcDbEntity
  8
0
100
AcDbBlockEnd
  0
BLOCK
  5
11
330
E
100
AcDbEntity
 67
     1
  8
0
100
AcDbBlockBegin
  2
*PAPER_SPACE
 70
     0
 10
0.0
 20
0.0
 30
0.0
  3
*PAPER_SPACE
  1

  0
ENDBLK
  5
12
330
E
100
AcDbEntity
 67
     1
  8
0
100
AcDbBlockEnd
  0
BLOCK
  5
F1
330
E7
100
AcDbEntity
  8
0
100
AcDbBlockBegin
  2
*D0
 70
     1
 10
0.0
 20
0.0
 30
0.0
  3
*D0
  1

  0
LINE
  5
E8
330
E7
100
AcDbEntity
  8
DIM
 62
   123
100
AcDbLine
 10
-9980.871634003309
 20
-1762.990758569787
 30
0.0
 11
-9980.871634003309
 21
-1715.829581966636
 31
0.0
  0
LINE
  5
E9
330
E7
100
AcDbEntity
  8
DIM
 62
   123
100
AcDbLine
 10
-9968.37092456621
 20
-1735.310758569787
 30
0.0
 11
-9968.37092456621
 21
-1715.829581966636
 31
0.0
  0
LINE
  5
EA
330
E7
100
AcDbEntity
  8
DIM
 62
   123
100
AcDbLine
 10
-9978.371634003309
 20
-1716.429581966636
 30
0.0
 11
-9970.870924566213
 21
-1716.429581966636
 31
0.0
  0
SOLID
  5
EB
330
E7
100
AcDbEntity
  8
DIM
 62
   123
100
AcDbTrace
 10
-9978.371634003309
 20
-1716.012915299969
 30
0.0
 11
-9978.371634003309
 21
-1716.8462486333
 31
0.0
 12
-9980.871634003309
 22
-1716.429581966636
 32
0.0
 13
-9980.871634003309
 23
-1716.429581966636
 33
0.0
  0
SOLID
  5
EC
330
E7
100
AcDbEntity
  8
DIM
 62
   123
100
AcDbTrace
 10
-9970.870924566213
 20
-1716.012915299969
 30
0.0
 11
-9970.870924566213
 21
-1716.8462486333
 31
0.0
 12
-9968.37092456621
 22
-1716.429581966636
 32
0.0
 13
-9968.37092456621
 23
-1716.429581966636
 33
0.0
  0
MTEXT
  5
ED
330
E7
100
AcDbEntity
  8
DIM
 62
     3
100
AcDbMText
 10
-9975.566638764554
 20
-1713.929581966636
 30
0.0
 40
3.0
 41
0.0
 71
     5
 72
     1
  1
\A1;12.5
1001
ACAD
1000
MTEXTBEGIN
1070
    73
1070
     1
1070
    44
1040
1.0
1070
    74
1070
     0
1000
MTEXTEND
1000
MTEXTBEGIN
1070
    73
1070
     1
1070
    44
1040
1.0
1070
    74
1070
     0
1000
MTEXTEND
1000
MTEXTBEGIN
1070
    73
1070
     1
1070
    44
1040
1.0
1070
    74
1070
     0
1000
MTEXTEND
  0
POINT
  5
EE
330
E7
100
AcDbEntity
  8
DEFPOINTS
 62
     0
100
AcDbPoint
 10
-9980.871634003309
 20
-1763.990758569787
 30
0.0
  0
POINT
  5
EF
330
E7
100
AcDbEntity
  8
DEFPOINTS
 62
     0
100
AcDbPoint
 10
-9968.37092456621
 20
-1736.310758569787
 30
0.0
  0
POINT
  5
F0
330
E7
100
AcDbEntity
  8
DEFPOINTS
 62
     0
100
AcDbPoint
 10
-9968.37092456621
 20
-1716.429581966636
 30
0.0
  0
ENDBLK
  5
F2
330
E7
100
AcDbEntity
  8
0
100
AcDbBlockEnd
  0
BLOCK
  5
2B8
330
2AE
100
AcDbEntity
  8
0
100
AcDbBlockBegin
  2
*D1
 70
     1
 10
0.0
 20
0.0
 30
0.0
  3
*D1
  1

  0
LINE
  5
2AF
330
2AE
100
AcDbEntity
  8
0
 62
   123
100
AcDbLine
 10
-9939.083880785585
 20
-1845.09346237913
 30
0.0
 11
-9998.494603523456
 21
-1845.09346237913
 31
0.0
  0
LINE
  5
2B0
330
2AE
100
AcDbEntity
  8
0
 62
   123
100
AcDbLine
 10
-9939.083880785585
 20
-1869.093462379131
 30
0.0
 11
-9998.494603523456
 21
-1869.093462379131
 31
0.0
  0
LINE
  5
2B1
330
2AE
100
AcDbEntity
  8
0
 62
   123
100
AcDbLine
 10
-9997.894603523457
 20
-1847.593462379131
 30
0.0
 11
-9997.894603523457
 21
-1866.59346237913
 31
0.0
  0
SOLID
  5
2B2
330
2AE
100
AcDbEntity
  8
0
 62
   123
100
AcDbTrace
 10
-9998.311270190125
 20
-1847.593462379131
 30
0.0
 11
-9997.477936856789
 21
-1847.593462379131
 31
0.0
 12
-9997.894603523457
 22
-1845.09346237913
 32
0.0
 13
-9997.894603523457
 23
-1845.09346237913
 33
0.0
  0
SOLID
  5
2B3
330
2AE
100
AcDbEntity
  8
0
 62
   123
100
AcDbTrace
 10
-9998.311270190125
 20
-1866.59346237913
 30
0.0
 11
-9997.477936856789
 21
-1866.59346237913
 31
0.0
 12
-9997.894603523457
 22
-1869.093462379131
 32
0.0
 13
-9997.894603523457
 23
-1869.093462379131
 33
0.0
  0
MTEXT
  5
2B4
330
2AE
100
AcDbEntity
  8
0
 62
     3
100
AcDbMText
 10
-10000.39460352345
 20
-1857.093462379132
 30
0.0
 40
3.0
 41
0.0
 71
     5
 72
     1
  1
\A1;%%c24
 11
0.0000000000000001
 21
1.0
 31
0.0
1001
ACAD
1000
MTEXTBEGIN
1070
    73
1070
     1
1070
    44
1040
1.0
1070
    74
1070
     0
1000
MTEXTEND
1000
MTEXTBEGIN
1070
    73
1070
     1
1070
    44
1040
1.0
1070
    74
1070
     0
1000
MTEXTEND
1000
MTEXTBEGIN
1070
    73
1070
     1
1070
    44
1040
1.0
1070
    74
1070
     0
1000
MTEXTEND
  0
POINT
  5
2B5
330
2AE
100
AcDbEntity
  8
DEFPOINTS
 62
     0
100
AcDbPoint
 10
-9938.083880785583
 20
-1845.09346237913
 30
0.0
  0
POINT
  5
2B6
330
2AE
100
AcDbEntity
  8
DEFPOINTS
 62
     0
100
AcDbPoint
 10
-9938.083880785583
 20
-1869.093462379131
 30
0.0
  0
POINT
  5
2B7
330
2AE
100
AcDbEntity
  8
DEFPOINTS
 62
     0
100
AcDbPoint
 10
-9997.894603523457
 20
-1869.093462379131
 30
0.0
  0
ENDBLK
  5
2B9
330
2AE
100
AcDbEntity
  8
0
100
AcDbBlockEnd
  0
BLOCK
  5
265
330
25C
100
AcDbEntity
  8
0
100
AcDbBlockBegin
  2
*D2
 70
     1
 10
0.0
 20
0.0
 30
0.0
  3
*D2
  1

  0
LINE
  5
25D
330
25C
100
AcDbEntity
  8
2
 62
   123
100
AcDbLine
 10
-10095.63530890726
 20
-1884.997551287155
 30
0.0
 11
-10097.83196657074
 21
-1886.191157214357
 31
0.0
  0
LINE
  5
25E
330
25C
100
AcDbEntity
  8
2
 62
   123
100
AcDbLine
 10
-10029.7355790027
 20
-1849.189373471111
 30
0.0
 11
-10004.0934128126
 21
-1835.256095628346
 31
0.0
  0
LINE
  5
25F
330
25C
100
AcDbEntity
  8
2
 62
   123
100
AcDbLine
 10
-10093.43865124378
 20
-1883.803945359953
 30
0.0
 11
-10031.93223666619
 21
-1850.382979398312
 31
0.0
  0
SOLID
  5
260
330
25C
100
AcDbEntity
  8
2
 62
   123
100
AcDbTrace
 10
-10095.83424322844
 20
-1884.631441676574
 30
0.0
 11
-10095.43637458605
 21
-1885.363660897735
 31
0.0
 12
-10093.43865124378
 22
-1883.803945359953
 32
0.0
 13
-10093.43865124378
 23
-1883.803945359953
 33
0.0
  0
SOLID
  5
261
330
25C
100
AcDbEntity
  8
2
 62
   123
100
AcDbTrace
 10
-10029.9345133239
 20
-1848.823263860531
 30
0.0
 11
-10029.5366446815
 21
-1849.555483081691
 31
0.0
 12
-10031.93223666619
 22
-1850.382979398312
 32
0.0
 13
-10031.93223666619
 23
-1850.382979398312
 33
0.0
  0
MTEXT
  5
262
330
25C
100
AcDbEntity
  8
2
 62
     3
100
AcDbMText
 10
-10014.26193433633
 20
-1837.93617075314
 30
0.0
 40
3.0
 41
0.0
 71
     5
 72
     1
  1
\A1;\U+220570%%P0.5
 11
0.8786630653941955
 21
0.4774423708805866
 31
0.0
1001
ACAD
1000
MTEXTBEGIN
1070
    73
1070
     1
1070
    44
1040
1.0
1070
    74
1070
     0
1000
MTEXTEND
1000
MTEXTBEGIN
1070
    73
1070
     1
1070
    44
1040
1.0
1070
    74
1070
     0
1000
MTEXTEND
1000
MTEXTBEGIN
1070
    73
1070
     1
1070
    44
1040
1.0
1070
    74
1070
     0
1000
MTEXTEND
  0
POINT
  5
263
330
25C
100
AcDbEntity
  8
DEFPOINTS
 62
     0
100
AcDbPoint
 10
-10031.93223666619
 20
-1850.382979398312
 30
0.0
  0
POINT
  5
264
330
25C
100
AcDbEntity
  8
DEFPOINTS
 62
     0
100
AcDbPoint
 10
-10093.43865124378
 20
-1883.803945359953
 30
0.0
  0
ENDBLK
  5
266
330
25C
100
AcDbEntity
  8
0
100
AcDbBlockEnd
  0
BLOCK
  5
C8
330
BF
100
AcDbEntity
  8
0
100
AcDbBlockBegin
  2
*D3
 70
     1
 10
0.0
 20
0.0
 30
0.0
  3
*D3
  1

  0
LINE
  5
C0
330
BF
100
AcDbEntity
  8
0
 62
   123
100
AcDbLine
 10
-10086.39028332125
 20
-1784.978448183073
 30
0.0
 11
-10088.55850570067
 21
-1786.222960823959
 31
0.0
  0
LINE
  5
C1
330
BF
100
AcDbEntity
  8
0
 62
   123
100
AcDbLine
 10
-10021.34361193822
 20
-1747.643068956506
 30
0.0
 11
-9999.723337354744
 21
-1735.233500051679
 31
0.0
  0
LINE
  5
C2
330
BF
100
AcDbEntity
  8
0
 62
   123
100
AcDbLine
 10
-10084.2220609418
 20
-1783.733935542189
 30
0.0
 11
-10023.51183431765
 21
-1748.88758159739
 31
0.0
  0
SOLID
  5
C3
330
BF
100
AcDbEntity
  8
0
 62
   123
100
AcDbTrace
 10
-10086.59770209473
 20
-1784.617077786502
 30
0.0
 11
-10086.18286454777
 21
-1785.339818579646
 31
0.0
 12
-10084.2220609418
 22
-1783.733935542189
 32
0.0
 13
-10084.2220609418
 23
-1783.733935542189
 33
0.0
  0
SOLID
  5
C4
330
BF
100
AcDbEntity
  8
0
 62
   123
100
AcDbTrace
 10
-10021.55103071171
 20
-1747.281698559933
 30
0.0
 11
-10021.13619316475
 21
-1748.004439353077
 31
0.0
 12
-10023.51183431765
 22
-1748.88758159739
 32
0.0
 13
-10023.51183431765
 23
-1748.88758159739
 33
0.0
  0
MTEXT
  5
C5
330
BF
100
AcDbEntity
  8
0
 62
     3
100
AcDbMText
 10
-10009.82658714588
 20
-1738.150000747861
 30
0.0
 40
3.0
 41
0.0
 71
     5
 72
     1
  1
\A1;\U+220570%%p0.5
 11
0.8672889517734152
 21
0.4978050563541624
 31
0.0
1001
ACAD
1000
MTEXTBEGIN
1070
    73
1070
     1
1070
    44
1040
1.0
1070
    74
1070
     0
1000
MTEXTEND
1000
MTEXTBEGIN
1070
    73
1070
     1
1070
    44
1040
1.0
1070
    74
1070
     0
1000
MTEXTEND
1000
MTEXTBEGIN
1070
    73
1070
     1
1070
    44
1040
1.0
1070
    74
1070
     0
1000
MTEXTEND
  0
POINT
  5
C6
330
BF
100
AcDbEntity
  8
DEFPOINTS
 62
     0
100
AcDbPoint
 10
-10023.51183431765
 20
-1748.88758159739
 30
0.0
  0
POINT
  5
C7
330
BF
100
AcDbEntity
  8
DEFPOINTS
 62
     0
100
AcDbPoint
 10
-10084.2220609418
 20
-1783.733935542189
 30
0.0
  0
ENDBLK
  5
C9
330
BF
100
AcDbEntity
  8
0
100
AcDbBlockEnd
  0
BLOCK
  5
364
330
35A
100
AcDbEntity
  8
0
100
AcDbBlockBegin
  2
*D4
 70
     1
 10
0.0
 20
0.0
 30
0.0
  3
*D4
  1

  0
LINE
  5
35B
330
35A
100
AcDbEntity
  8
DIM
 62
   123
100
AcDbLine
 10
-10083.86694762973
 20
-1739.310758569787
 30
0.0
 11
-10083.86694762973
 21
-1722.059660775482
 31
0.0
  0
LINE
  5
35C
330
35A
100
AcDbEntity
  8
DIM
 62
   123
100
AcDbLine
 10
-10023.86694762973
 20
-1740.310758569787
 30
0.0
 11
-10023.86694762973
 21
-1722.059660775482
 31
0.0
  0
LINE
  5
35D
330
35A
100
AcDbEntity
  8
DIM
 62
   123
100
AcDbLine
 10
-10081.36694762973
 20
-1722.659660775481
 30
0.0
 11
-10026.36694762973
 21
-1722.659660775481
 31
0.0
  0
SOLID
  5
35E
330
35A
100
AcDbEntity
  8
DIM
 62
   123
100
AcDbTrace
 10
-10081.36694762973
 20
-1722.242994108815
 30
0.0
 11
-10081.36694762973
 21
-1723.076327442149
 31
0.0
 12
-10083.86694762973
 22
-1722.659660775481
 32
0.0
 13
-10083.86694762973
 23
-1722.659660775481
 33
0.0
  0
SOLID
  5
35F
330
35A
100
AcDbEntity
  8
DIM
 62
   123
100
AcDbTrace
 10
-10026.36694762973
 20
-1722.242994108815
 30
0.0
 11
-10026.36694762973
 21
-1723.076327442149
 31
0.0
 12
-10023.86694762973
 22
-1722.659660775481
 32
0.0
 13
-10023.86694762973
 23
-1722.659660775481
 33
0.0
  0
MTEXT
  5
360
330
35A
100
AcDbEntity
  8
DIM
 62
     3
100
AcDbMText
 10
-10054.19768638939
 20
-1720.159660775482
 30
0.0
 40
3.0
 41
0.0
 71
     5
 72
     1
  1
\A1;60
1001
ACAD
1000
MTEXTBEGIN
1070
    73
1070
     1
1070
    44
1040
1.0
1070
    74
1070
     0
1000
MTEXTEND
1000
MTEXTBEGIN
1070
    73
1070
     1
1070
    44
1040
1.0
1070
    74
1070
     0
1000
MTEXTEND
1000
MTEXTBEGIN
1070
    73
1070
     1
1070
    44
1040
1.0
1070
    74
1070
     0
1000
MTEXTEND
  0
POINT
  5
361
330
35A
100
AcDbEntity
  8
DEFPOINTS
 62
     0
100
AcDbPoint
 10
-10083.86694762973
 20
-1740.310758569787
 30
0.0
  0
POINT
  5
362
330
35A
100
AcDbEntity
  8
DEFPOINTS
 62
     0
100
AcDbPoint
 10
-10023.86694762973
 20
-1741.310758569786
 30
0.0
  0
POINT
  5
363
330
35A
100
AcDbEntity
  8
DEFPOINTS
 62
     0
100
AcDbPoint
 10
-10023.86694762973
 20
-1722.659660775481
 30
0.0
  0
ENDBLK
  5
365
330
35A
100
AcDbEntity
  8
0
100
AcDbBlockEnd
  0
BLOCK
  5
E2
330
D8
100
AcDbEntity
  8
0
100
AcDbBlockBegin
  2
*D5
 70
     1
 10
0.0
 20
0.0
 30
0.0
  3
*D5
  1

  0
LINE
  5
D9
330
D8
100
AcDbEntity
  8
DIM
 62
   123
100
AcDbLine
 10
-9971.37092456621
 20
-1739.310758569787
 30
0.0
 11
-9990.538256540453
 21
-1739.310758569787
 31
0.0
  0
LINE
  5
DA
330
D8
100
AcDbEntity
  8
DIM
 62
   123
100
AcDbLine
 10
-9971.37092456621
 20
-1793.310758569786
 30
0.0
 11
-9990.538256540453
 21
-1793.310758569786
 31
0.0
  0
LINE
  5
DB
330
D8
100
AcDbEntity
  8
DIM
 62
   123
100
AcDbLine
 10
-9989.938256540453
 20
-1741.810758569786
 30
0.0
 11
-9989.938256540453
 21
-1790.810758569786
 31
0.0
  0
SOLID
  5
DC
330
D8
100
AcDbEntity
  8
DIM
 62
   123
100
AcDbTrace
 10
-9990.354923207121
 20
-1741.810758569786
 30
0.0
 11
-9989.521589873788
 21
-1741.810758569786
 31
0.0
 12
-9989.938256540453
 22
-1739.310758569787
 32
0.0
 13
-9989.938256540453
 23
-1739.310758569787
 33
0.0
  0
SOLID
  5
DD
330
D8
100
AcDbEntity
  8
DIM
 62
   123
100
AcDbTrace
 10
-9990.354923207121
 20
-1790.810758569786
 30
0.0
 11
-9989.521589873788
 21
-1790.810758569786
 31
0.0
 12
-9989.938256540453
 22
-1793.310758569786
 32
0.0
 13
-9989.938256540453
 23
-1793.310758569786
 33
0.0
  0
MTEXT
  5
DE
330
D8
100
AcDbEntity
  8
DIM
 62
     3
100
AcDbMText
 10
-9993.888406540451
 20
-1766.310758569787
 30
0.0
 40
3.0
 41
0.0
 71
     5
 72
     1
  1
\A1;\A1;%%C54{\f??|b0|i0|c0|p49;\H0.7x;\S+0^ -0.03;\H1.429x;(h7)} 
 11
0.0000000000000001
 21
1.0
 31
0.0
1001
ACAD
1000
MTEXTBEGIN
1070
    73
1070
     1
1070
    44
1040
1.0
1070
    74
1070
     0
1000
MTEXTEND
1000
MTEXTBEGIN
1070
    73
1070
     1
1070
    44
1040
1.0
1070
    74
1070
     0
1000
MTEXTEND
1000
MTEXTBEGIN
1070
    73
1070
     1
1070
    44
1040
1.0
1070
    74
1070
     0
1000
MTEXTEND
  0
POINT
  5
DF
330
D8
100
AcDbEntity
  8
DEFPOINTS
 62
     0
100
AcDbPoint
 10
-9970.370924566212
 20
-1739.310758569787
 30
0.0
  0
POINT
  5
E0
330
D8
100
AcDbEntity
  8
DEFPOINTS
 62
     0
100
AcDbPoint
 10
-9970.370924566212
 20
-1793.310758569786
 30
0.0
  0
POINT
  5
E1
330
D8
100
AcDbEntity
  8
DEFPOINTS
 62
     0
100
AcDbPoint
 10
-9989.938256540453
 20
-1793.310758569786
 30
0.0
  0
ENDBLK
  5
E3
330
D8
100
AcDbEntity
  8
0
100
AcDbBlockEnd
  0
BLOCK
  5
29A
330
290
100
AcDbEntity
  8
0
100
AcDbBlockBegin
  2
*D6
 70
     1
 10
0.0
 20
0.0
 30
0.0
  3
*D6
  1

  0
LINE
  5
291
330
290
100
AcDbEntity
  8
0
 62
   123
100
AcDbLine
 10
-9972.482019586813
 20
-1857.093462379131
 30
0.0
 11
-9990.446325485942
 21
-1857.093462379131
 31
0.0
  0
LINE
  5
292
330
290
100
AcDbEntity
  8
0
 62
   123
100
AcDbLine
 10
-9980.191553919688
 20
-1867.09346237913
 30
0.0
 11
-9990.446325485942
 21
-1867.09346237913
 31
0.0
  0
LINE
  5
293
330
290
100
AcDbEntity
  8
0
 62
   123
100
AcDbLine
 10
-9989.846325485938
 20
-1859.59346237913
 30
0.0
 11
-9989.846325485938
 21
-1864.59346237913
 31
0.0
  0
SOLID
  5
294
330
290
100
AcDbEntity
  8
0
 62
   123
100
AcDbTrace
 10
-9990.262992152604
 20
-1859.59346237913
 30
0.0
 11
-9989.429658819272
 21
-1859.59346237913
 31
0.0
 12
-9989.846325485938
 22
-1857.093462379131
 32
0.0
 13
-9989.846325485938
 23
-1857.093462379131
 33
0.0
  0
SOLID
  5
295
330
290
100
AcDbEntity
  8
0
 62
   123
100
AcDbTrace
 10
-9990.262992152604
 20
-1864.59346237913
 30
0.0
 11
-9989.429658819272
 21
-1864.59346237913
 31
0.0
 12
-9989.846325485938
 22
-1867.09346237913
 32
0.0
 13
-9989.846325485938
 23
-1867.09346237913
 33
0.0
  0
MTEXT
  5
296
330
290
100
AcDbEntity
  8
0
 62
     3
100
AcDbMText
 10
-9992.346325485939
 20
-1862.093462379132
 30
0.0
 40
3.0
 41
0.0
 71
     5
 72
     1
  1
\A1;10
 11
0.0000000000000001
 21
1.0
 31
0.0
1001
ACAD
1000
MTEXTBEGIN
1070
    73
1070
     1
1070
    44
1040
1.0
1070
    74
1070
     0
1000
MTEXTEND
1000
MTEXTBEGIN
1070
    73
1070
     1
1070
    44
1040
1.0
1070
    74
1070
     0
1000
MTEXTEND
1000
MTEXTBEGIN
1070
    73
1070
     1
1070
    44
1040
1.0
1070
    74
1070
     0
1000
MTEXTEND
  0
POINT
  5
297
330
290
100
AcDbEntity
  8
DEFPOINTS
 62
     0
100
AcDbPoint
 10
-9971.482019586813
 20
-1857.093462379131
 30
0.0
  0
POINT
  5
298
330
290
100
AcDbEntity
  8
DEFPOINTS
 62
     0
100
AcDbPoint
 10
-9979.191553919683
 20
-1867.09346237913
 30
0.0
  0
POINT
  5
299
330
290
100
AcDbEntity
  8
DEFPOINTS
 62
     0
100
AcDbPoint
 10
-9989.846325485938
 20
-1867.09346237913
 30
0.0
  0
ENDBLK
  5
29B
330
290
100
AcDbEntity
  8
0
100
AcDbBlockEnd
  0
BLOCK
  5
2AB
330
29F
100
AcDbEntity
  8
0
100
AcDbBlockBegin
  2
*D7
 70
     1
 10
0.0
 20
0.0
 30
0.0
  3
*D7
  1

  0
LINE
  5
2A0
330
29F
100
AcDbEntity
  8
0
 62
   123
100
AcDbLine
 10
-9968.583880785583
 20
-1854.093462379131
 30
0.0
 11
-9981.056683295159
 21
-1854.093462379131
 31
0.0
  0
LINE
  5
2A1
330
29F
100
AcDbEntity
  8
0
 62
   123
100
AcDbLine
 10
-9968.583880785583
 20
-1861.09346237913
 30
0.0
 11
-9981.056683295159
 21
-1861.09346237913
 31
0.0
  0
LINE
  5
2A2
330
29F
100
AcDbEntity
  8
0
 62
   123
100
AcDbLine
 10
-9980.456683295161
 20
-1863.593462379131
 30
0.0
 11
-9980.456683295161
 21
-1866.093462379129
 31
0.0
  0
LINE
  5
2A3
330
29F
100
AcDbEntity
  8
0
 62
   123
100
AcDbLine
 10
-9980.456683295161
 20
-1851.593462379129
 30
0.0
 11
-9980.456683295161
 21
-1839.093462379129
 31
0.0
  0
LINE
  5
2A4
330
29F
100
AcDbEntity
  8
0
 62
   123
100
AcDbLine
 10
-9980.456683295161
 20
-1861.09346237913
 30
0.0
 11
-9980.456683295161
 21
-1854.093462379131
 31
0.0
  0
SOLID
  5
2A5
330
29F
100
AcDbEntity
  8
0
 62
   123
100
AcDbTrace
 10
-9980.873349961827
 20
-1863.593462379131
 30
0.0
 11
-9980.040016628494
 21
-1863.593462379131
 31
0.0
 12
-9980.456683295161
 22
-1861.09346237913
 32
0.0
 13
-9980.456683295161
 23
-1861.09346237913
 33
0.0
  0
SOLID
  5
2A6
330
29F
100
AcDbEntity
  8
0
 62
   123
100
AcDbTrace
 10
-9980.873349961827
 20
-1851.593462379129
 30
0.0
 11
-9980.040016628494
 21
-1851.593462379129
 31
0.0
 12
-9980.456683295161
 22
-1854.093462379131
 32
0.0
 13
-9980.456683295161
 23
-1854.093462379131
 33
0.0
  0
MTEXT
  5
2A7
330
29F
100
AcDbEntity
  8
0
 62
     3
100
AcDbMText
 10
-9982.956683295164
 20
-1841.093462379131
 30
0.0
 40
3.0
 41
0.0
 71
     5
 72
     1
  1
\A1;7
 11
0.0000000000000001
 21
1.0
 31
0.0
1001
ACAD
1000
MTEXTBEGIN
1070
    73
1070
     1
1070
    44
1040
1.0
1070
    74
1070
     0
1000
MTEXTEND
1000
MTEXTBEGIN
1070
    73
1070
     1
1070
    44
1040
1.0
1070
    74
1070
     0
1000
MTEXTEND
1000
MTEXTBEGIN
1070
    73
1070
     1
1070
    44
1040
1.0
1070
    74
1070
     0
1000
MTEXTEND
  0
POINT
  5
2A8
330
29F
100
AcDbEntity
  8
DEFPOINTS
 62
     0
100
AcDbPoint
 10
-9967.583880785584
 20
-1854.093462379131
 30
0.0
  0
POINT
  5
2A9
330
29F
100
AcDbEntity
  8
DEFPOINTS
 62
     0
100
AcDbPoint
 10
-9967.583880785584
 20
-1861.09346237913
 30
0.0
  0
POINT
  5
2AA
330
29F
100
AcDbEntity
  8
DEFPOINTS
 62
     0
100
AcDbPoint
 10
-9980.456683295161
 20
-1861.09346237913
 30
0.0
  0
ENDBLK
  5
2AC
330
29F
100
AcDbEntity
  8
0
100
AcDbBlockEnd
  0
BLOCK
  5
2DB
330
2D1
100
AcDbEntity
  8
0
100
AcDbBlockBegin
  2
*D8
 70
     1
 10
0.0
 20
0.0
 30
0.0
  3
*D8
  1

  0
LINE
  5
2D2
330
2D1
100
AcDbEntity
  8
0
 62
   123
100
AcDbLine
 10
-9967.583880785584
 20
-1853.093462379131
 30
0.0
 11
-9967.583880785584
 21
-1839.465625452069
 31
0.0
  0
LINE
  5
2D3
330
2D1
100
AcDbEntity
  8
0
 62
   123
100
AcDbLine
 10
-9955.583880785583
 20
-1852.09346237913
 30
0.0
 11
-9955.583880785583
 21
-1839.465625452069
 31
0.0
  0
LINE
  5
2D4
330
2D1
100
AcDbEntity
  8
0
 62
   123
100
AcDbLine
 10
-9965.083880785584
 20
-1840.065625452069
 30
0.0
 11
-9958.083880785585
 21
-1840.065625452069
 31
0.0
  0
SOLID
  5
2D5
330
2D1
100
AcDbEntity
  8
0
 62
   123
100
AcDbTrace
 10
-9965.083880785584
 20
-1839.648958785402
 30
0.0
 11
-9965.083880785584
 21
-1840.482292118735
 31
0.0
 12
-9967.583880785584
 22
-1840.065625452069
 32
0.0
 13
-9967.583880785584
 23
-1840.065625452069
 33
0.0
  0
SOLID
  5
2D6
330
2D1
100
AcDbEntity
  8
0
 62
   123
100
AcDbTrace
 10
-9958.083880785585
 20
-1839.648958785402
 30
0.0
 11
-9958.083880785585
 21
-1840.482292118735
 31
0.0
 12
-9955.583880785583
 22
-1840.065625452069
 32
0.0
 13
-9955.583880785583
 23
-1840.065625452069
 33
0.0
  0
MTEXT
  5
2D7
330
2D1
100
AcDbEntity
  8
0
 62
     3
100
AcDbMText
 10
-9961.583880785584
 20
-1837.565625452069
 30
0.0
 40
3.0
 41
0.0
 71
     5
 72
     1
  1
\A1;12
1001
ACAD
1000
MTEXTBEGIN
1070
    73
1070
     1
1070
    44
1040
1.0
1070
    74
1070
     0
1000
MTEXTEND
1000
MTEXTBEGIN
1070
    73
1070
     1
1070
    44
1040
1.0
1070
    74
1070
     0
1000
MTEXTEND
1000
MTEXTBEGIN
1070
    73
1070
     1
1070
    44
1040
1.0
1070
    74
1070
     0
1000
MTEXTEND
  0
POINT
  5
2D8
330
2D1
100
AcDbEntity
  8
DEFPOINTS
 62
     0
100
AcDbPoint
 10
-9967.583880785584
 20
-1854.093462379131
 30
0.0
  0
POINT
  5
2D9
330
2D1
100
AcDbEntity
  8
DEFPOINTS
 62
     0
100
AcDbPoint
 10
-9955.583880785583
 20
-1853.093462379131
 30
0.0
  0
POINT
  5
2DA
330
2D1
100
AcDbEntity
  8
DEFPOINTS
 62
     0
100
AcDbPoint
 10
-9955.583880785583
 20
-1840.065625452069
 30
0.0
  0
ENDBLK
  5
2DC
330
2D1
100
AcDbEntity
  8
0
100
AcDbBlockEnd
  0
BLOCK
  5
2EC
330
2E0
100
AcDbEntity
  8
0
100
AcDbBlockBegin
  2
*D9
 70
     1
 10
0.0
 20
0.0
 30
0.0
  3
*D9
  1

  0
LINE
  5
2E1
330
2E0
100
AcDbEntity
  8
0
 62
   123
100
AcDbLine
 10
-9952.083880785584
 20
-1861.09346237913
 30
0.0
 11
-9947.490155445519
 21
-1861.09346237913
 31
0.0
  0
LINE
  5
2E2
330
2E0
100
AcDbEntity
  8
0
 62
   123
100
AcDbLine
 10
-9954.583880785584
 20
-1853.093462379131
 30
0.0
 11
-9947.490155445519
 21
-1853.093462379131
 31
0.0
  0
LINE
  5
2E3
330
2E0
100
AcDbEntity
  8
0
 62
   123
100
AcDbLine
 10
-9948.09015544552
 20
-1863.593462379131
 30
0.0
 11
-9948.09015544552
 21
-1866.093462379129
 31
0.0
  0
LINE
  5
2E4
330
2E0
100
AcDbEntity
  8
0
 62
   123
100
AcDbLine
 10
-9948.09015544552
 20
-1850.59346237913
 30
0.0
 11
-9948.09015544552
 21
-1810.723459155672
 31
0.0
  0
LINE
  5
2E5
330
2E0
100
AcDbEntity
  8
0
 62
   123
100
AcDbLine
 10
-9948.09015544552
 20
-1861.09346237913
 30
0.0
 11
-9948.09015544552
 21
-1853.093462379131
 31
0.0
  0
SOLID
  5
2E6
330
2E0
100
AcDbEntity
  8
0
 62
   123
100
AcDbTrace
 10
-9948.506822112186
 20
-1863.593462379131
 30
0.0
 11
-9947.673488778853
 21
-1863.593462379131
 31
0.0
 12
-9948.09015544552
 22
-1861.09346237913
 32
0.0
 13
-9948.09015544552
 23
-1861.09346237913
 33
0.0
  0
SOLID
  5
2E7
330
2E0
100
AcDbEntity
  8
0
 62
   123
100
AcDbTrace
 10
-9948.506822112186
 20
-1850.59346237913
 30
0.0
 11
-9947.673488778853
 21
-1850.59346237913
 31
0.0
 12
-9948.09015544552
 22
-1853.093462379131
 32
0.0
 13
-9948.09015544552
 23
-1853.093462379131
 33
0.0
  0
MTEXT
  5
2E8
330
2E0
100
AcDbEntity
  8
0
 62
     3
100
AcDbMText
 10
-9952.040305445521
 20
-1824.396173441386
 30
0.0
 40
3.0
 41
0.0
 71
     5
 72
     1
  1
\A1;\A1;{\f??|b0|i0|c0|p49;%%C8\H0.7x;\S+0^ -0.015;\H1.429x;(h7)}
 11
0.0000000000000001
 21
1.0
 31
0.0
1001
ACAD
1000
MTEXTBEGIN
1070
    73
1070
     1
1070
    44
1040
1.0
1070
    74
1070
     0
1000
MTEXTEND
1000
MTEXTBEGIN
1070
    73
1070
     1
1070
    44
1040
1.0
1070
    74
1070
     0
1000
MTEXTEND
1000
MTEXTBEGIN
1070
    73
1070
     1
1070
    44
1040
1.0
1070
    74
1070
     0
1000
MTEXTEND
  0
POINT
  5
2E9
330
2E0
100
AcDbEntity
  8
DEFPOINTS
 62
     0
100
AcDbPoint
 10
-9953.083880785584
 20
-1861.09346237913
 30
0.0
  0
POINT
  5
2EA
330
2E0
100
AcDbEntity
  8
DEFPOINTS
 62
     0
100
AcDbPoint
 10
-9955.583880785583
 20
-1853.093462379131
 30
0.0
  0
POINT
  5
2EB
330
2E0
100
AcDbEntity
  8
DEFPOINTS
 62
     0
100
AcDbPoint
 10
-9948.09015544552
 20
-1853.093462379131
 30
0.0
  0
ENDBLK
  5
2ED
330
2E0
100
AcDbEntity
  8
0
100
AcDbBlockEnd
  0
BLOCK
  5
27A
330
270
100
AcDbEntity
  8
0
100
AcDbBlockBegin
  2
*D10
 70
     1
 10
0.0
 20
0.0
 30
0.0
  3
*D10
  1

  0
LINE
  5
271
330
270
100
AcDbEntity
  8
0
 62
   123
100
AcDbLine
 10
-10092.68544395497
 20
-1893.09346237913
 30
0.0
 11
-10092.68544395497
 21
-1910.721783299515
 31
0.0
  0
LINE
  5
272
330
270
100
AcDbEntity
  8
0
 62
   123
100
AcDbLine
 10
-10032.68544395497
 20
-1893.09346237913
 30
0.0
 11
-10032.68544395497
 21
-1910.721783299515
 31
0.0
  0
LINE
  5
273
330
270
100
AcDbEntity
  8
0
 62
   123
100
AcDbLine
 10
-10090.18544395497
 20
-1910.121783299515
 30
0.0
 11
-10035.18544395497
 21
-1910.121783299515
 31
0.0
  0
SOLID
  5
274
330
270
100
AcDbEntity
  8
0
 62
   123
100
AcDbTrace
 10
-10090.18544395497
 20
-1909.705116632848
 30
0.0
 11
-10090.18544395497
 21
-1910.538449966182
 31
0.0
 12
-10092.68544395497
 22
-1910.121783299515
 32
0.0
 13
-10092.68544395497
 23
-1910.121783299515
 33
0.0
  0
SOLID
  5
275
330
270
100
AcDbEntity
  8
0
 62
   123
100
AcDbTrace
 10
-10035.18544395497
 20
-1909.705116632848
 30
0.0
 11
-10035.18544395497
 21
-1910.538449966182
 31
0.0
 12
-10032.68544395497
 22
-1910.121783299515
 32
0.0
 13
-10032.68544395497
 23
-1910.121783299515
 33
0.0
  0
MTEXT
  5
276
330
270
100
AcDbEntity
  8
0
 62
     3
100
AcDbMText
 10
-10060.6406975261
 20
-1907.621783299515
 30
0.0
 40
3.0
 41
0.0
 71
     5
 72
     1
  1
\A1;60
1001
ACAD
1000
MTEXTBEGIN
1070
    73
1070
     1
1070
    44
1040
1.0
1070
    74
1070
     0
1000
MTEXTEND
1000
MTEXTBEGIN
1070
    73
1070
     1
1070
    44
1040
1.0
1070
    74
1070
     0
1000
MTEXTEND
1000
MTEXTBEGIN
1070
    73
1070
     1
1070
    44
1040
1.0
1070
    74
1070
     0
1000
MTEXTEND
  0
POINT
  5
277
330
270
100
AcDbEntity
  8
DEFPOINTS
 62
     0
100
AcDbPoint
 10
-10092.68544395497
 20
-1892.09346237913
 30
0.0
  0
POINT
  5
278
330
270
100
AcDbEntity
  8
DEFPOINTS
 62
     0
100
AcDbPoint
 10
-10032.68544395497
 20
-1892.09346237913
 30
0.0
  0
POINT
  5
279
330
270
100
AcDbEntity
  8
DEFPOINTS
 62
     0
100
AcDbPoint
 10
-10032.68544395497
 20
-1910.121783299515
 30
0.0
  0
ENDBLK
  5
27B
330
270
100
AcDbEntity
  8
0
100
AcDbBlockEnd
  0
BLOCK
  5
33C
330
332
100
AcDbEntity
  8
0
100
AcDbBlockBegin
  2
*D11
 70
     1
 10
0.0
 20
0.0
 30
0.0
  3
*D11
  1

  0
LINE
  5
333
330
332
100
AcDbEntity
  8
0
 62
   123
100
AcDbLine
 10
-9967.583880785584
 20
-1862.093462379131
 30
0.0
 11
-9967.583880785584
 21
-1910.489476760755
 31
0.0
  0
LINE
  5
334
330
332
100
AcDbEntity
  8
0
 62
   123
100
AcDbLine
 10
-9935.583880785584
 20
-1897.593462379131
 30
0.0
 11
-9935.583880785584
 21
-1910.489476760755
 31
0.0
  0
LINE
  5
335
330
332
100
AcDbEntity
  8
0
 62
   123
100
AcDbLine
 10
-9965.083880785584
 20
-1909.889476760756
 30
0.0
 11
-9938.083880785583
 21
-1909.889476760756
 31
0.0
  0
SOLID
  5
336
330
332
100
AcDbEntity
  8
0
 62
   123
100
AcDbTrace
 10
-9965.083880785584
 20
-1909.472810094089
 30
0.0
 11
-9965.083880785584
 21
-1910.306143427423
 31
0.0
 12
-9967.583880785584
 22
-1909.889476760756
 32
0.0
 13
-9967.583880785584
 23
-1909.889476760756
 33
0.0
  0
SOLID
  5
337
330
332
100
AcDbEntity
  8
0
 62
   123
100
AcDbTrace
 10
-9938.083880785583
 20
-1909.472810094089
 30
0.0
 11
-9938.083880785583
 21
-1910.306143427423
 31
0.0
 12
-9935.583880785584
 22
-1909.889476760756
 32
0.0
 13
-9935.583880785584
 23
-1909.889476760756
 33
0.0
  0
MTEXT
  5
338
330
332
100
AcDbEntity
  8
0
 62
     3
100
AcDbMText
 10
-9951.583880785584
 20
-1907.389476760755
 30
0.0
 40
3.0
 41
0.0
 71
     5
 72
     1
  1
\A1;32
1001
ACAD
1000
MTEXTBEGIN
1070
    73
1070
     1
1070
    44
1040
1.0
1070
    74
1070
     0
1000
MTEXTEND
1000
MTEXTBEGIN
1070
    73
1070
     1
1070
    44
1040
1.0
1070
    74
1070
     0
1000
MTEXTEND
1000
MTEXTBEGIN
1070
    73
1070
     1
1070
    44
1040
1.0
1070
    74
1070
     0
1000
MTEXTEND
  0
POINT
  5
339
330
332
100
AcDbEntity
  8
DEFPOINTS
 62
     0
100
AcDbPoint
 10
-9967.583880785584
 20
-1861.09346237913
 30
0.0
  0
POINT
  5
33A
330
332
100
AcDbEntity
  8
DEFPOINTS
 62
     0
100
AcDbPoint
 10
-9935.583880785584
 20
-1896.593462379129
 30
0.0
  0
POINT
  5
33B
330
332
100
AcDbEntity
  8
DEFPOINTS
 62
     0
100
AcDbPoint
 10
-9935.583880785584
 20
-1909.889476760756
 30
0.0
  0
ENDBLK
  5
33D
330
332
100
AcDbEntity
  8
0
100
AcDbBlockEnd
  0
BLOCK
  5
329
330
31F
100
AcDbEntity
  8
0
100
AcDbBlockBegin
  2
*D12
 70
     1
 10
0.0
 20
0.0
 30
0.0
  3
*D12
  1

  0
LINE
  5
320
330
31F
100
AcDbEntity
  8
0
 62
   123
100
AcDbLine
 10
-9895.583880785585
 20
-1897.593462379131
 30
0.0
 11
-9895.583880785585
 21
-1910.489476760755
 31
0.0
  0
LINE
  5
321
330
31F
100
AcDbEntity
  8
0
 62
   123
100
AcDbLine
 10
-9935.583880785584
 20
-1897.593462379131
 30
0.0
 11
-9935.583880785584
 21
-1910.489476760755
 31
0.0
  0
LINE
  5
322
330
31F
100
AcDbEntity
  8
0
 62
   123
100
AcDbLine
 10
-9898.083880785584
 20
-1909.889476760756
 30
0.0
 11
-9933.083880785584
 21
-1909.889476760756
 31
0.0
  0
SOLID
  5
323
330
31F
100
AcDbEntity
  8
0
 62
   123
100
AcDbTrace
 10
-9898.083880785584
 20
-1909.472810094089
 30
0.0
 11
-9898.083880785584
 21
-1910.306143427423
 31
0.0
 12
-9895.583880785585
 22
-1909.889476760756
 32
0.0
 13
-9895.583880785585
 23
-1909.889476760756
 33
0.0
  0
SOLID
  5
324
330
31F
100
AcDbEntity
  8
0
 62
   123
100
AcDbTrace
 10
-9933.083880785584
 20
-1909.472810094089
 30
0.0
 11
-9933.083880785584
 21
-1910.306143427423
 31
0.0
 12
-9935.583880785584
 22
-1909.889476760756
 32
0.0
 13
-9935.583880785584
 23
-1909.889476760756
 33
0.0
  0
MTEXT
  5
325
330
31F
100
AcDbEntity
  8
0
 62
     3
100
AcDbMText
 10
-9915.583880785584
 20
-1907.389476760755
 30
0.0
 40
3.0
 41
0.0
 71
     5
 72
     1
  1
\A1;L
1001
ACAD
1000
MTEXTBEGIN
1070
    73
1070
     1
1070
    44
1040
1.0
1070
    74
1070
     0
1000
MTEXTEND
1000
MTEXTBEGIN
1070
    73
1070
     1
1070
    44
1040
1.0
1070
    74
1070
     0
1000
MTEXTEND
1000
MTEXTBEGIN
1070
    73
1070
     1
1070
    44
1040
1.0
1070
    74
1070
     0
1000
MTEXTEND
  0
POINT
  5
326
330
31F
100
AcDbEntity
  8
DEFPOINTS
 62
     0
100
AcDbPoint
 10
-9895.583880785585
 20
-1896.593462379129
 30
0.0
  0
POINT
  5
327
330
31F
100
AcDbEntity
  8
DEFPOINTS
 62
     0
100
AcDbPoint
 10
-9935.583880785584
 20
-1896.593462379129
 30
0.0
  0
POINT
  5
328
330
31F
100
AcDbEntity
  8
DEFPOINTS
 62
     0
100
AcDbPoint
 10
-9935.583880785584
 20
-1909.889476760756
 30
0.0
  0
ENDBLK
  5
32A
330
31F
100
AcDbEntity
  8
0
100
AcDbBlockEnd
  0
BLOCK
  5
375
330
36B
100
AcDbEntity
  8
0
100
AcDbBlockBegin
  2
*D13
 70
     1
 10
0.0
 20
0.0
 30
0.0
  3
*D13
  1

  0
LINE
  5
36C
330
36B
100
AcDbEntity
  8
DIM
 62
   123
100
AcDbLine
 10
-9968.37092456621
 20
-1735.310758569787
 30
0.0
 11
-9968.37092456621
 21
-1715.829581966636
 31
0.0
  0
LINE
  5
36D
330
36B
100
AcDbEntity
  8
DIM
 62
   123
100
AcDbLine
 10
-9942.370924566212
 20
-1735.310758569787
 30
0.0
 11
-9942.370924566212
 21
-1715.829581966636
 31
0.0
  0
LINE
  5
36E
330
36B
100
AcDbEntity
  8
DIM
 62
   123
100
AcDbLine
 10
-9965.87092456621
 20
-1716.429581966636
 30
0.0
 11
-9944.87092456621
 21
-1716.429581966636
 31
0.0
  0
SOLID
  5
36F
330
36B
100
AcDbEntity
  8
DIM
 62
   123
100
AcDbTrace
 10
-9965.87092456621
 20
-1716.012915299969
 30
0.0
 11
-9965.87092456621
 21
-1716.8462486333
 31
0.0
 12
-9968.37092456621
 22
-1716.429581966636
 32
0.0
 13
-9968.37092456621
 23
-1716.429581966636
 33
0.0
  0
SOLID
  5
370
330
36B
100
AcDbEntity
  8
DIM
 62
   123
100
AcDbTrace
 10
-9944.87092456621
 20
-1716.012915299969
 30
0.0
 11
-9944.87092456621
 21
-1716.8462486333
 31
0.0
 12
-9942.370924566212
 22
-1716.429581966636
 32
0.0
 13
-9942.370924566212
 23
-1716.429581966636
 33
0.0
  0
MTEXT
  5
371
330
36B
100
AcDbEntity
  8
DIM
 62
     3
100
AcDbMText
 10
-9956.316638764556
 20
-1713.929581966636
 30
0.0
 40
3.0
 41
0.0
 71
     5
 72
     1
  1
\A1;26
1001
ACAD
1000
MTEXTBEGIN
1070
    73
1070
     1
1070
    44
1040
1.0
1070
    74
1070
     0
1000
MTEXTEND
1000
MTEXTBEGIN
1070
    73
1070
     1
1070
    44
1040
1.0
1070
    74
1070
     0
1000
MTEXTEND
1000
MTEXTBEGIN
1070
    73
1070
     1
1070
    44
1040
1.0
1070
    74
1070
     0
1000
MTEXTEND
  0
POINT
  5
372
330
36B
100
AcDbEntity
  8
DEFPOINTS
 62
     0
100
AcDbPoint
 10
-9968.37092456621
 20
-1736.310758569787
 30
0.0
  0
POINT
  5
373
330
36B
100
AcDbEntity
  8
DEFPOINTS
 62
     0
100
AcDbPoint
 10
-9942.370924566212
 20
-1736.310758569787
 30
0.0
  0
POINT
  5
374
330
36B
100
AcDbEntity
  8
DEFPOINTS
 62
     0
100
AcDbPoint
 10
-9942.370924566212
 20
-1716.429581966636
 30
0.0
  0
ENDBLK
  5
376
330
36B
100
AcDbEntity
  8
0
100
AcDbBlockEnd
  0
BLOCK
  5
355
330
349
100
AcDbEntity
  8
0
100
AcDbBlockBegin
  2
*D14
 70
     1
 10
0.0
 20
0.0
 30
0.0
  3
*D14
  1

  0
LINE
  5
34A
330
349
100
AcDbEntity
  8
DIM
 62
   123
100
AcDbLine
 10
-9970.370924566212
 20
-1738.310758569786
 30
0.0
 11
-9970.370924566212
 21
-1726.502425236453
 31
0.0
  0
LINE
  5
34B
330
349
100
AcDbEntity
  8
DIM
 62
   123
100
AcDbLine
 10
-9968.37092456621
 20
-1735.310758569784
 30
0.0
 11
-9968.37092456621
 21
-1726.502425236453
 31
0.0
  0
LINE
  5
34C
330
349
100
AcDbEntity
  8
DIM
 62
   123
100
AcDbLine
 10
-9965.87092456621
 20
-1727.102425236453
 30
0.0
 11
-9963.370924566213
 21
-1727.102425236453
 31
0.0
  0
LINE
  5
34D
330
349
100
AcDbEntity
  8
DIM
 62
   123
100
AcDbLine
 10
-9972.87092456621
 20
-1727.102425236453
 30
0.0
 11
-9979.370924566213
 21
-1727.102425236453
 31
0.0
  0
LINE
  5
34E
330
349
100
AcDbEntity
  8
DIM
 62
   123
100
AcDbLine
 10
-9968.37092456621
 20
-1727.102425236453
 30
0.0
 11
-9970.370924566212
 21
-1727.102425236453
 31
0.0
  0
SOLID
  5
34F
330
349
100
AcDbEntity
  8
DIM
 62
   123
100
AcDbTrace
 10
-9965.87092456621
 20
-1726.685758569787
 30
0.0
 11
-9965.87092456621
 21
-1727.519091903118
 31
0.0
 12
-9968.37092456621
 22
-1727.102425236453
 32
0.0
 13
-9968.37092456621
 23
-1727.102425236453
 33
0.0
  0
SOLID
  5
350
330
349
100
AcDbEntity
  8
DIM
 62
   123
100
AcDbTrace
 10
-9972.87092456621
 20
-1726.685758569787
 30
0.0
 11
-9972.87092456621
 21
-1727.519091903118
 31
0.0
 12
-9970.370924566212
 22
-1727.102425236453
 32
0.0
 13
-9970.370924566212
 23
-1727.102425236453
 33
0.0
  0
MTEXT
  5
351
330
349
100
AcDbEntity
  8
DIM
 62
     3
100
AcDbMText
 10
-9977.37092456621
 20
-1724.602425236454
 30
0.0
 40
3.0
 41
0.0
 71
     5
 72
     1
  1
\A1;2
1001
ACAD
1000
MTEXTBEGIN
1070
    73
1070
     1
1070
    44
1040
1.0
1070
    74
1070
     0
1000
MTEXTEND
1000
MTEXTBEGIN
1070
    73
1070
     1
1070
    44
1040
1.0
1070
    74
1070
     0
1000
MTEXTEND
1000
MTEXTBEGIN
1070
    73
1070
     1
1070
    44
1040
1.0
1070
    74
1070
     0
1000
MTEXTEND
  0
POINT
  5
352
330
349
100
AcDbEntity
  8
DEFPOINTS
 62
     0
100
AcDbPoint
 10
-9970.370924566212
 20
-1739.310758569787
 30
0.0
  0
POINT
  5
353
330
349
100
AcDbEntity
  8
DEFPOINTS
 62
     0
100
AcDbPoint
 10
-9968.37092456621
 20
-1736.310758569787
 30
0.0
  0
POINT
  5
354
330
349
100
AcDbEntity
  8
DEFPOINTS
 62
     0
100
AcDbPoint
 10
-9968.37092456621
 20
-1727.102425236453
 30
0.0
  0
ENDBLK
  5
356
330
349
100
AcDbEntity
  8
0
100
AcDbBlockEnd
  0
BLOCK
  5
15A
330
150
100
AcDbEntity
  8
0
100
AcDbBlockBegin
  2
*D15
 70
     1
 10
0.0
 20
0.0
 30
0.0
  3
*D15
  1

  0
LINE
  5
151
330
150
100
AcDbEntity
  8
0
 62
   123
100
AcDbLine
 10
-9866.190757019349
 20
-2020.145849418133
 30
0.0
 11
-9866.190757019349
 21
-1993.512672454165
 31
0.0
  0
LINE
  5
152
330
150
100
AcDbEntity
  8
0
 62
   123
100
AcDbLine
 10
-9856.190757019353
 20
-2025.895849418132
 30
0.0
 11
-9856.190757019353
 21
-1993.512672454165
 31
0.0
  0
LINE
  5
153
330
150
100
AcDbEntity
  8
0
 62
   123
100
AcDbLine
 10
-9863.690757019348
 20
-1994.112672454165
 30
0.0
 11
-9858.690757019349
 21
-1994.112672454165
 31
0.0
  0
SOLID
  5
154
330
150
100
AcDbEntity
  8
0
 62
   123
100
AcDbTrace
 10
-9863.690757019348
 20
-1993.696005787498
 30
0.0
 11
-9863.690757019348
 21
-1994.529339120832
 31
0.0
 12
-9866.190757019349
 22
-1994.112672454165
 32
0.0
 13
-9866.190757019349
 23
-1994.112672454165
 33
0.0
  0
SOLID
  5
155
330
150
100
AcDbEntity
  8
0
 62
   123
100
AcDbTrace
 10
-9858.690757019349
 20
-1993.696005787498
 30
0.0
 11
-9858.690757019349
 21
-1994.529339120832
 31
0.0
 12
-9856.190757019353
 22
-1994.112672454165
 32
0.0
 13
-9856.190757019353
 23
-1994.112672454165
 33
0.0
  0
MTEXT
  5
156
330
150
100
AcDbEntity
  8
0
 62
     3
100
AcDbMText
 10
-9861.19075701935
 20
-1991.612672454165
 30
0.0
 40
3.0
 41
0.0
 71
     5
 72
     1
  1
\A1;10
1001
ACAD
1000
MTEXTBEGIN
1070
    73
1070
     1
1070
    44
1040
1.0
1070
    74
1070
     0
1000
MTEXTEND
1000
MTEXTBEGIN
1070
    73
1070
     1
1070
    44
1040
1.0
1070
    74
1070
     0
1000
MTEXTEND
1000
MTEXTBEGIN
1070
    73
1070
     1
1070
    44
1040
1.0
1070
    74
1070
     0
1000
MTEXTEND
  0
POINT
  5
157
330
150
100
AcDbEntity
  8
DEFPOINTS
 62
     0
100
AcDbPoint
 10
-9866.190757019349
 20
-2021.145849418134
 30
0.0
  0
POINT
  5
158
330
150
100
AcDbEntity
  8
DEFPOINTS
 62
     0
100
AcDbPoint
 10
-9856.190757019353
 20
-2026.895849418133
 30
0.0
  0
POINT
  5
159
330
150
100
AcDbEntity
  8
DEFPOINTS
 62
     0
100
AcDbPoint
 10
-9856.190757019353
 20
-1994.112672454165
 30
0.0
  0
ENDBLK
  5
15B
330
150
100
AcDbEntity
  8
0
100
AcDbBlockEnd
  0
BLOCK
  5
10D
330
103
100
AcDbEntity
  8
0
100
AcDbBlockBegin
  2
*D16
 70
     1
 10
0.0
 20
0.0
 30
0.0
  3
*D16
  1

  0
LINE
  5
104
330
103
100
AcDbEntity
  8
DIM
 62
   123
100
AcDbLine
 10
-10022.69075701934
 20
-2027.395849418133
 30
0.0
 11
-10094.97206030032
 21
-2027.395849418133
 31
0.0
  0
LINE
  5
105
330
103
100
AcDbEntity
  8
DIM
 62
   123
100
AcDbLine
 10
-10022.69075701934
 20
-2051.395849418133
 30
0.0
 11
-10094.97206030032
 21
-2051.395849418133
 31
0.0
  0
LINE
  5
106
330
103
100
AcDbEntity
  8
DIM
 62
   123
100
AcDbLine
 10
-10094.37206030032
 20
-2029.895849418133
 30
0.0
 11
-10094.37206030032
 21
-2048.895849418133
 31
0.0
  0
SOLID
  5
107
330
103
100
AcDbEntity
  8
DIM
 62
   123
100
AcDbTrace
 10
-10094.78872696699
 20
-2029.895849418133
 30
0.0
 11
-10093.95539363366
 21
-2029.895849418133
 31
0.0
 12
-10094.37206030032
 22
-2027.395849418133
 32
0.0
 13
-10094.37206030032
 23
-2027.395849418133
 33
0.0
  0
SOLID
  5
108
330
103
100
AcDbEntity
  8
DIM
 62
   123
100
AcDbTrace
 10
-10094.78872696699
 20
-2048.895849418133
 30
0.0
 11
-10093.95539363366
 21
-2048.895849418133
 31
0.0
 12
-10094.37206030032
 22
-2051.395849418133
 32
0.0
 13
-10094.37206030032
 23
-2051.395849418133
 33
0.0
  0
MTEXT
  5
109
330
103
100
AcDbEntity
  8
DIM
 62
     3
100
AcDbMText
 10
-10096.87206030032
 20
-2039.395849418136
 30
0.0
 40
3.0
 41
0.0
 71
     5
 72
     1
  1
\A1;%%c24
 11
0.0000000000000001
 21
1.0
 31
0.0
1001
ACAD
1000
MTEXTBEGIN
1070
    73
1070
     1
1070
    44
1040
1.0
1070
    74
1070
     0
1000
MTEXTEND
1000
MTEXTBEGIN
1070
    73
1070
     1
1070
    44
1040
1.0
1070
    74
1070
     0
1000
MTEXTEND
1000
MTEXTBEGIN
1070
    73
1070
     1
1070
    44
1040
1.0
1070
    74
1070
     0
1000
MTEXTEND
  0
POINT
  5
10A
330
103
100
AcDbEntity
  8
DEFPOINTS
 62
     0
100
AcDbPoint
 10
-10021.69075701934
 20
-2027.395849418133
 30
0.0
  0
POINT
  5
10B
330
103
100
AcDbEntity
  8
DEFPOINTS
 62
     0
100
AcDbPoint
 10
-10021.69075701934
 20
-2051.395849418133
 30
0.0
  0
POINT
  5
10C
330
103
100
AcDbEntity
  8
DEFPOINTS
 62
     0
100
AcDbPoint
 10
-10094.37206030032
 20
-2051.395849418133
 30
0.0
  0
ENDBLK
  5
10E
330
103
100
AcDbEntity
  8
0
100
AcDbBlockEnd
  0
BLOCK
  5
1C2
330
1B8
100
AcDbEntity
  8
0
100
AcDbBlockBegin
  2
*D17
 70
     1
 10
0.0
 20
0.0
 30
0.0
  3
*D17
  1

  0
LINE
  5
1B9
330
1B8
100
AcDbEntity
  8
0
 62
   123
100
AcDbLine
 10
-9979.190757019349
 20
-1993.112672454165
 30
0.0
 11
-9979.190757019349
 21
-1993.512672454165
 31
0.0
  0
LINE
  5
1BA
330
1B8
100
AcDbEntity
  8
0
 62
   123
100
AcDbLine
 10
-9866.190757019349
 20
-2019.925849418132
 30
0.0
 11
-9866.190757019349
 21
-1993.512672454165
 31
0.0
  0
LINE
  5
1BB
330
1B8
100
AcDbEntity
  8
0
 62
   123
100
AcDbLine
 10
-9976.690757019349
 20
-1994.112672454165
 30
0.0
 11
-9868.690757019352
 21
-1994.112672454165
 31
0.0
  0
SOLID
  5
1BC
330
1B8
100
AcDbEntity
  8
0
 62
   123
100
AcDbTrace
 10
-9976.690757019349
 20
-1993.696005787498
 30
0.0
 11
-9976.690757019349
 21
-1994.529339120832
 31
0.0
 12
-9979.190757019349
 22
-1994.112672454165
 32
0.0
 13
-9979.190757019349
 23
-1994.112672454165
 33
0.0
  0
SOLID
  5
1BD
330
1B8
100
AcDbEntity
  8
0
 62
   123
100
AcDbTrace
 10
-9868.690757019352
 20
-1993.696005787498
 30
0.0
 11
-9868.690757019352
 21
-1994.529339120832
 31
0.0
 12
-9866.190757019349
 22
-1994.112672454165
 32
0.0
 13
-9866.190757019349
 23
-1994.112672454165
 33
0.0
  0
MTEXT
  5
1BE
330
1B8
100
AcDbEntity
  8
0
 62
     3
100
AcDbMText
 10
-9922.690757019349
 20
-1991.612672454165
 30
0.0
 40
3.0
 41
0.0
 71
     5
 72
     1
  1
\A1;113
1001
ACAD
1000
MTEXTBEGIN
1070
    73
1070
     1
1070
    44
1040
1.0
1070
    74
1070
     0
1000
MTEXTEND
1000
MTEXTBEGIN
1070
    73
1070
     1
1070
    44
1040
1.0
1070
    74
1070
     0
1000
MTEXTEND
1000
MTEXTBEGIN
1070
    73
1070
     1
1070
    44
1040
1.0
1070
    74
1070
     0
1000
MTEXTEND
  0
POINT
  5
1BF
330
1B8
100
AcDbEntity
  8
DEFPOINTS
 62
     0
100
AcDbPoint
 10
-9979.190757019349
 20
-1994.112672454165
 30
0.0
  0
POINT
  5
1C0
330
1B8
100
AcDbEntity
  8
DEFPOINTS
 62
     0
100
AcDbPoint
 10
-9866.190757019349
 20
-2020.925849418133
 30
0.0
  0
POINT
  5
1C1
330
1B8
100
AcDbEntity
  8
DEFPOINTS
 62
     0
100
AcDbPoint
 10
-9866.190757019349
 20
-1994.112672454165
 30
0.0
  0
ENDBLK
  5
1C3
330
1B8
100
AcDbEntity
  8
0
100
AcDbBlockEnd
  0
BLOCK
  5
23E
330
234
100
AcDbEntity
  8
0
100
AcDbBlockBegin
  2
*D18
 70
     1
 10
0.0
 20
0.0
 30
0.0
  3
*D18
  1

  0
LINE
  5
235
330
234
100
AcDbEntity
  8
0
 62
   123
100
AcDbLine
 10
-9866.690417614433
 20
-2019.393941745897
 30
0.0
 11
-9831.672791804042
 21
-2019.393941745897
 31
0.0
  0
LINE
  5
236
330
234
100
AcDbEntity
  8
0
 62
   123
100
AcDbLine
 10
-9866.690417614433
 20
-2079.397757090368
 30
0.0
 11
-9831.672791804042
 21
-2079.397757090368
 31
0.0
  0
LINE
  5
237
330
234
100
AcDbEntity
  8
0
 62
   123
100
AcDbLine
 10
-9832.272791804042
 20
-2021.893941745898
 30
0.0
 11
-9832.272791804042
 21
-2076.897757090369
 31
0.0
  0
SOLID
  5
238
330
234
100
AcDbEntity
  8
0
 62
   123
100
AcDbTrace
 10
-9832.689458470708
 20
-2021.893941745898
 30
0.0
 11
-9831.856125137377
 21
-2021.893941745898
 31
0.0
 12
-9832.272791804042
 22
-2019.393941745897
 32
0.0
 13
-9832.272791804042
 23
-2019.393941745897
 33
0.0
  0
SOLID
  5
239
330
234
100
AcDbEntity
  8
0
 62
   123
100
AcDbTrace
 10
-9832.689458470708
 20
-2076.897757090369
 30
0.0
 11
-9831.856125137377
 21
-2076.897757090369
 31
0.0
 12
-9832.272791804042
 22
-2079.397757090368
 32
0.0
 13
-9832.272791804042
 23
-2079.397757090368
 33
0.0
  0
MTEXT
  5
23A
330
234
100
AcDbEntity
  8
0
 62
     3
100
AcDbMText
 10
-9834.772791804041
 20
-2049.452158500215
 30
0.0
 40
3.0
 41
0.0
 71
     5
 72
     1
  1
\A1;%%C60
 11
0.0000000000000001
 21
1.0
 31
0.0
1001
ACAD
1000
MTEXTBEGIN
1070
    73
1070
     1
1070
    44
1040
1.0
1070
    74
1070
     0
1000
MTEXTEND
1000
MTEXTBEGIN
1070
    73
1070
     1
1070
    44
1040
1.0
1070
    74
1070
     0
1000
MTEXTEND
1000
MTEXTBEGIN
1070
    73
1070
     1
1070
    44
1040
1.0
1070
    74
1070
     0
1000
MTEXTEND
  0
POINT
  5
23B
330
234
100
AcDbEntity
  8
DEFPOINTS
 62
     0
100
AcDbPoint
 10
-9867.690417614433
 20
-2019.393941745897
 30
0.0
  0
POINT
  5
23C
330
234
100
AcDbEntity
  8
DEFPOINTS
 62
     0
100
AcDbPoint
 10
-9867.690417614433
 20
-2079.397757090368
 30
0.0
  0
POINT
  5
23D
330
234
100
AcDbEntity
  8
DEFPOINTS
 62
     0
100
AcDbPoint
 10
-9832.272791804042
 20
-2079.397757090368
 30
0.0
  0
ENDBLK
  5
23F
330
234
100
AcDbEntity
  8
0
100
AcDbBlockEnd
  0
BLOCK
  5
22F
330
225
100
AcDbEntity
  8
0
100
AcDbBlockBegin
  2
*D19
 70
     1
 10
0.0
 20
0.0
 30
0.0
  3
*D19
  1

  0
LINE
  5
226
330
225
100
AcDbEntity
  8
0
 62
   123
100
AcDbLine
 10
-9856.190757019353
 20
-2025.895849418132
 30
0.0
 11
-9841.509263493644
 21
-2025.895849418132
 31
0.0
  0
LINE
  5
227
330
225
100
AcDbEntity
  8
0
 62
   123
100
AcDbLine
 10
-9856.190757019353
 20
-2072.895849418133
 30
0.0
 11
-9841.509263493644
 21
-2072.895849418133
 31
0.0
  0
LINE
  5
228
330
225
100
AcDbEntity
  8
0
 62
   123
100
AcDbLine
 10
-9842.109263493643
 20
-2028.395849418132
 30
0.0
 11
-9842.109263493643
 21
-2070.395849418134
 31
0.0
  0
SOLID
  5
229
330
225
100
AcDbEntity
  8
0
 62
   123
100
AcDbTrace
 10
-9842.525930160308
 20
-2028.395849418132
 30
0.0
 11
-9841.692596826977
 21
-2028.395849418132
 31
0.0
 12
-9842.109263493643
 22
-2025.895849418132
 32
0.0
 13
-9842.109263493643
 23
-2025.895849418132
 33
0.0
  0
SOLID
  5
22A
330
225
100
AcDbEntity
  8
0
 62
   123
100
AcDbTrace
 10
-9842.525930160308
 20
-2070.395849418134
 30
0.0
 11
-9841.692596826977
 21
-2070.395849418134
 31
0.0
 12
-9842.109263493643
 22
-2072.895849418133
 32
0.0
 13
-9842.109263493643
 23
-2072.895849418133
 33
0.0
  0
MTEXT
  5
22B
330
225
100
AcDbEntity
  8
0
 62
     3
100
AcDbMText
 10
-9844.609263493644
 20
-2051.689599418133
 30
0.0
 40
3.0
 41
0.0
 71
     5
 72
     1
  1
\A1;%%C47
 11
0.0000000000000001
 21
1.0
 31
0.0
1001
ACAD
1000
MTEXTBEGIN
1070
    73
1070
     1
1070
    44
1040
1.0
1070
    74
1070
     0
1000
MTEXTEND
1000
MTEXTBEGIN
1070
    73
1070
     1
1070
    44
1040
1.0
1070
    74
1070
     0
1000
MTEXTEND
1000
MTEXTBEGIN
1070
    73
1070
     1
1070
    44
1040
1.0
1070
    74
1070
     0
1000
MTEXTEND
  0
POINT
  5
22C
330
225
100
AcDbEntity
  8
DEFPOINTS
 62
     0
100
AcDbPoint
 10
-9857.190757019349
 20
-2025.895849418132
 30
0.0
  0
POINT
  5
22D
330
225
100
AcDbEntity
  8
DEFPOINTS
 62
     0
100
AcDbPoint
 10
-9857.190757019349
 20
-2072.895849418133
 30
0.0
  0
POINT
  5
22E
330
225
100
AcDbEntity
  8
DEFPOINTS
 62
     0
100
AcDbPoint
 10
-9842.109263493643
 20
-2072.895849418133
 30
0.0
  0
ENDBLK
  5
230
330
225
100
AcDbEntity
  8
0
100
AcDbBlockEnd
  0
BLOCK
  5
17C
330
172
100
AcDbEntity
  8
0
100
AcDbBlockBegin
  2
*D20
 70
     1
 10
0.0
 20
0.0
 30
0.0
  3
*D20
  1

  0
LINE
  5
173
330
172
100
AcDbEntity
  8
0
 62
   123
100
AcDbLine
 10
-10051.19075701934
 20
-2035.395849418133
 30
0.0
 11
-10051.19075701934
 21
-1993.512672454165
 31
0.0
  0
LINE
  5
174
330
172
100
AcDbEntity
  8
0
 62
   123
100
AcDbLine
 10
-10019.19075701934
 20
-2018.895849418134
 30
0.0
 11
-10019.19075701934
 21
-1993.512672454165
 31
0.0
  0
LINE
  5
175
330
172
100
AcDbEntity
  8
0
 62
   123
100
AcDbLine
 10
-10048.69075701934
 20
-1994.112672454165
 30
0.0
 11
-10021.69075701934
 21
-1994.112672454165
 31
0.0
  0
SOLID
  5
176
330
172
100
AcDbEntity
  8
0
 62
   123
100
AcDbTrace
 10
-10048.69075701934
 20
-1993.696005787498
 30
0.0
 11
-10048.69075701934
 21
-1994.529339120832
 31
0.0
 12
-10051.19075701934
 22
-1994.112672454165
 32
0.0
 13
-10051.19075701934
 23
-1994.112672454165
 33
0.0
  0
SOLID
  5
177
330
172
100
AcDbEntity
  8
0
 62
   123
100
AcDbTrace
 10
-10021.69075701934
 20
-1993.696005787498
 30
0.0
 11
-10021.69075701934
 21
-1994.529339120832
 31
0.0
 12
-10019.19075701934
 22
-1994.112672454165
 32
0.0
 13
-10019.19075701934
 23
-1994.112672454165
 33
0.0
  0
MTEXT
  5
178
330
172
100
AcDbEntity
  8
0
 62
     3
100
AcDbMText
 10
-10035.19075701935
 20
-1991.612672454165
 30
0.0
 40
3.0
 41
0.0
 71
     5
 72
     1
  1
\A1;32
1001
ACAD
1000
MTEXTBEGIN
1070
    73
1070
     1
1070
    44
1040
1.0
1070
    74
1070
     0
1000
MTEXTEND
1000
MTEXTBEGIN
1070
    73
1070
     1
1070
    44
1040
1.0
1070
    74
1070
     0
1000
MTEXTEND
1000
MTEXTBEGIN
1070
    73
1070
     1
1070
    44
1040
1.0
1070
    74
1070
     0
1000
MTEXTEND
  0
POINT
  5
179
330
172
100
AcDbEntity
  8
DEFPOINTS
 62
     0
100
AcDbPoint
 10
-10051.19075701934
 20
-2036.395849418134
 30
0.0
  0
POINT
  5
17A
330
172
100
AcDbEntity
  8
DEFPOINTS
 62
     0
100
AcDbPoint
 10
-10019.19075701934
 20
-2019.895849418133
 30
0.0
  0
POINT
  5
17B
330
172
100
AcDbEntity
  8
DEFPOINTS
 62
     0
100
AcDbPoint
 10
-10019.19075701934
 20
-1994.112672454165
 30
0.0
  0
ENDBLK
  5
17D
330
172
100
AcDbEntity
  8
0
100
AcDbBlockEnd
  0
BLOCK
  5
1B4
330
1A8
100
AcDbEntity
  8
0
100
AcDbBlockBegin
  2
*D21
 70
     1
 10
0.0
 20
0.0
 30
0.0
  3
*D21
  1

  0
LINE
  5
1A9
330
1A8
100
AcDbEntity
  8
0
 62
   123
100
AcDbLine
 10
-10022.19075701934
 20
-2026.895849418133
 30
0.0
 11
-10022.19075701934
 21
-2006.793350504927
 31
0.0
  0
LINE
  5
1AA
330
1A8
100
AcDbEntity
  8
0
 62
   123
100
AcDbLine
 10
-10019.19075701934
 20
-2018.895849418134
 30
0.0
 11
-10019.19075701934
 21
-2006.793350504927
 31
0.0
  0
LINE
  5
1AB
330
1A8
100
AcDbEntity
  8
0
 62
   123
100
AcDbLine
 10
-10024.69075701934
 20
-2007.393350504926
 30
0.0
 11
-10027.19075701934
 21
-2007.393350504926
 31
0.0
  0
LINE
  5
1AC
330
1A8
100
AcDbEntity
  8
0
 62
   123
100
AcDbLine
 10
-10016.69075701934
 20
-2007.393350504926
 30
0.0
 11
-10014.19075701934
 21
-2007.393350504926
 31
0.0
  0
LINE
  5
1AD
330
1A8
100
AcDbEntity
  8
0
 62
   123
100
AcDbLine
 10
-10022.19075701934
 20
-2007.393350504926
 30
0.0
 11
-10019.19075701934
 21
-2007.393350504926
 31
0.0
  0
SOLID
  5
1AE
330
1A8
100
AcDbEntity
  8
0
 62
   123
100
AcDbTrace
 10
-10024.69075701934
 20
-2006.97668383826
 30
0.0
 11
-10024.69075701934
 21
-2007.810017171594
 31
0.0
 12
-10022.19075701934
 22
-2007.393350504926
 32
0.0
 13
-10022.19075701934
 23
-2007.393350504926
 33
0.0
  0
SOLID
  5
1AF
330
1A8
100
AcDbEntity
  8
0
 62
   123
100
AcDbTrace
 10
-10016.69075701934
 20
-2006.97668383826
 30
0.0
 11
-10016.69075701934
 21
-2007.810017171594
 31
0.0
 12
-10019.19075701934
 22
-2007.393350504926
 32
0.0
 13
-10019.19075701934
 23
-2007.393350504926
 33
0.0
  0
MTEXT
  5
1B0
330
1A8
100
AcDbEntity
  8
0
 62
     3
100
AcDbMText
 10
-10020.69075701934
 20
-2004.893350504926
 30
0.0
 40
3.0
 41
0.0
 71
     5
 72
     1
  1
\A1;3
1001
ACAD
1000
MTEXTBEGIN
1070
    73
1070
     1
1070
    44
1040
1.0
1070
    74
1070
     0
1000
MTEXTEND
1000
MTEXTBEGIN
1070
    73
1070
     1
1070
    44
1040
1.0
1070
    74
1070
     0
1000
MTEXTEND
1000
MTEXTBEGIN
1070
    73
1070
     1
1070
    44
1040
1.0
1070
    74
1070
     0
1000
MTEXTEND
  0
POINT
  5
1B1
330
1A8
100
AcDbEntity
  8
DEFPOINTS
 62
     0
100
AcDbPoint
 10
-10022.19075701934
 20
-2027.895849418134
 30
0.0
  0
POINT
  5
1B2
330
1A8
100
AcDbEntity
  8
DEFPOINTS
 62
     0
100
AcDbPoint
 10
-10019.19075701934
 20
-2019.895849418133
 30
0.0
  0
POINT
  5
1B3
330
1A8
100
AcDbEntity
  8
DEFPOINTS
 62
     0
100
AcDbPoint
 10
-10019.19075701934
 20
-2007.393350504926
 30
0.0
  0
ENDBLK
  5
1B5
330
1A8
100
AcDbEntity
  8
0
100
AcDbBlockEnd
  0
BLOCK
  5
216
330
20A
100
AcDbEntity
  8
0
100
AcDbBlockBegin
  2
*D22
 70
     1
 10
0.0
 20
0.0
 30
0.0
  3
*D22
  1

  0
LINE
  5
20B
330
20A
100
AcDbEntity
  8
0
 62
   123
100
AcDbLine
 10
-10052.19075701934
 20
-2036.395849418134
 30
0.0
 11
-10064.66355952892
 21
-2036.395849418134
 31
0.0
  0
LINE
  5
20C
330
20A
100
AcDbEntity
  8
0
 62
   123
100
AcDbLine
 10
-10052.19075701934
 20
-2043.395849418133
 30
0.0
 11
-10064.66355952892
 21
-2043.395849418133
 31
0.0
  0
LINE
  5
20D
330
20A
100
AcDbEntity
  8
0
 62
   123
100
AcDbLine
 10
-10064.06355952892
 20
-2045.895849418132
 30
0.0
 11
-10064.06355952892
 21
-2048.395849418132
 31
0.0
  0
LINE
  5
20E
330
20A
100
AcDbEntity
  8
0
 62
   123
100
AcDbLine
 10
-10064.06355952892
 20
-2033.895849418132
 30
0.0
 11
-10064.06355952892
 21
-2019.095849418131
 31
0.0
  0
LINE
  5
20F
330
20A
100
AcDbEntity
  8
0
 62
   123
100
AcDbLine
 10
-10064.06355952892
 20
-2043.395849418133
 30
0.0
 11
-10064.06355952892
 21
-2036.395849418134
 31
0.0
  0
SOLID
  5
210
330
20A
100
AcDbEntity
  8
0
 62
   123
100
AcDbTrace
 10
-10064.48022619558
 20
-2045.895849418132
 30
0.0
 11
-10063.64689286225
 21
-2045.895849418132
 31
0.0
 12
-10064.06355952892
 22
-2043.395849418133
 32
0.0
 13
-10064.06355952892
 23
-2043.395849418133
 33
0.0
  0
SOLID
  5
211
330
20A
100
AcDbEntity
  8
0
 62
   123
100
AcDbTrace
 10
-10064.48022619558
 20
-2033.895849418132
 30
0.0
 11
-10063.64689286225
 21
-2033.895849418132
 31
0.0
 12
-10064.06355952892
 22
-2036.395849418134
 32
0.0
 13
-10064.06355952892
 23
-2036.395849418134
 33
0.0
  0
MTEXT
  5
212
330
20A
100
AcDbEntity
  8
0
 62
     3
100
AcDbMText
 10
-10066.56355952892
 20
-2021.095849418133
 30
0.0
 40
3.0
 41
0.0
 71
     5
 72
     1
  1
\A1;7
 11
0.0000000000000001
 21
1.0
 31
0.0
1001
ACAD
1000
MTEXTBEGIN
1070
    73
1070
     1
1070
    44
1040
1.0
1070
    74
1070
     0
1000
MTEXTEND
1000
MTEXTBEGIN
1070
    73
1070
     1
1070
    44
1040
1.0
1070
    74
1070
     0
1000
MTEXTEND
1000
MTEXTBEGIN
1070
    73
1070
     1
1070
    44
1040
1.0
1070
    74
1070
     0
1000
MTEXTEND
  0
POINT
  5
213
330
20A
100
AcDbEntity
  8
DEFPOINTS
 62
     0
100
AcDbPoint
 10
-10051.19075701934
 20
-2036.395849418134
 30
0.0
  0
POINT
  5
214
330
20A
100
AcDbEntity
  8
DEFPOINTS
 62
     0
100
AcDbPoint
 10
-10051.19075701934
 20
-2043.395849418133
 30
0.0
  0
POINT
  5
215
330
20A
100
AcDbEntity
  8
DEFPOINTS
 62
     0
100
AcDbPoint
 10
-10064.06355952892
 20
-2043.395849418133
 30
0.0
  0
ENDBLK
  5
217
330
20A
100
AcDbEntity
  8
0
100
AcDbBlockEnd
  0
BLOCK
  5
1A1
330
197
100
AcDbEntity
  8
0
100
AcDbBlockBegin
  2
*D23
 70
     1
 10
0.0
 20
0.0
 30
0.0
  3
*D23
  1

  0
LINE
  5
198
330
197
100
AcDbEntity
  8
0
 62
   123
100
AcDbLine
 10
-10051.19075701934
 20
-2035.395849418133
 30
0.0
 11
-10051.19075701934
 21
-2021.76801249107
 31
0.0
  0
LINE
  5
199
330
197
100
AcDbEntity
  8
0
 62
   123
100
AcDbLine
 10
-10039.19075701934
 20
-2034.395849418134
 30
0.0
 11
-10039.19075701934
 21
-2021.76801249107
 31
0.0
  0
LINE
  5
19A
330
197
100
AcDbEntity
  8
0
 62
   123
100
AcDbLine
 10
-10048.69075701934
 20
-2022.368012491071
 30
0.0
 11
-10041.69075701934
 21
-2022.368012491071
 31
0.0
  0
SOLID
  5
19B
330
197
100
AcDbEntity
  8
0
 62
   123
100
AcDbTrace
 10
-10048.69075701934
 20
-2021.951345824404
 30
0.0
 11
-10048.69075701934
 21
-2022.784679157737
 31
0.0
 12
-10051.19075701934
 22
-2022.368012491071
 32
0.0
 13
-10051.19075701934
 23
-2022.368012491071
 33
0.0
  0
SOLID
  5
19C
330
197
100
AcDbEntity
  8
0
 62
   123
100
AcDbTrace
 10
-10041.69075701934
 20
-2021.951345824404
 30
0.0
 11
-10041.69075701934
 21
-2022.784679157737
 31
0.0
 12
-10039.19075701934
 22
-2022.368012491071
 32
0.0
 13
-10039.19075701934
 23
-2022.368012491071
 33
0.0
  0
MTEXT
  5
19D
330
197
100
AcDbEntity
  8
0
 62
     3
100
AcDbMText
 10
-10045.19075701934
 20
-2019.86801249107
 30
0.0
 40
3.0
 41
0.0
 71
     5
 72
     1
  1
\A1;12
1001
ACAD
1000
MTEXTBEGIN
1070
    73
1070
     1
1070
    44
1040
1.0
1070
    74
1070
     0
1000
MTEXTEND
1000
MTEXTBEGIN
1070
    73
1070
     1
1070
    44
1040
1.0
1070
    74
1070
     0
1000
MTEXTEND
1000
MTEXTBEGIN
1070
    73
1070
     1
1070
    44
1040
1.0
1070
    74
1070
     0
1000
MTEXTEND
  0
POINT
  5
19E
330
197
100
AcDbEntity
  8
DEFPOINTS
 62
     0
100
AcDbPoint
 10
-10051.19075701934
 20
-2036.395849418134
 30
0.0
  0
POINT
  5
19F
330
197
100
AcDbEntity
  8
DEFPOINTS
 62
     0
100
AcDbPoint
 10
-10039.19075701934
 20
-2035.395849418133
 30
0.0
  0
POINT
  5
1A0
330
197
100
AcDbEntity
  8
DEFPOINTS
 62
     0
100
AcDbPoint
 10
-10039.19075701934
 20
-2022.368012491071
 30
0.0
  0
ENDBLK
  5
1A2
330
197
100
AcDbEntity
  8
0
100
AcDbBlockEnd
  0
BLOCK
  5
100
330
F6
100
AcDbEntity
  8
0
100
AcDbBlockBegin
  2
*D24
 70
     1
 10
0.0
 20
0.0
 30
0.0
  3
*D24
  1

  0
LINE
  5
F7
330
F6
100
AcDbEntity
  8
DIM
 62
   123
100
AcDbLine
 10
-10056.08889582057
 20
-2039.395849418133
 30
0.0
 11
-10083.09193859648
 21
-2039.395849418133
 31
0.0
  0
LINE
  5
F8
330
F6
100
AcDbEntity
  8
DIM
 62
   123
100
AcDbLine
 10
-10035.72589322164
 20
-2049.395849418134
 30
0.0
 11
-10083.09193859648
 21
-2049.395849418134
 31
0.0
  0
LINE
  5
F9
330
F6
100
AcDbEntity
  8
DIM
 62
   123
100
AcDbLine
 10
-10082.49193859648
 20
-2041.895849418132
 30
0.0
 11
-10082.49193859648
 21
-2046.895849418134
 31
0.0
  0
SOLID
  5
FA
330
F6
100
AcDbEntity
  8
DIM
 62
   123
100
AcDbTrace
 10
-10082.90860526315
 20
-2041.895849418132
 30
0.0
 11
-10082.07527192982
 21
-2041.895849418132
 31
0.0
 12
-10082.49193859648
 22
-2039.395849418133
 32
0.0
 13
-10082.49193859648
 23
-2039.395849418133
 33
0.0
  0
SOLID
  5
FB
330
F6
100
AcDbEntity
  8
DIM
 62
   123
100
AcDbTrace
 10
-10082.90860526315
 20
-2046.895849418134
 30
0.0
 11
-10082.07527192982
 21
-2046.895849418134
 31
0.0
 12
-10082.49193859648
 22
-2049.395849418134
 32
0.0
 13
-10082.49193859648
 23
-2049.395849418134
 33
0.0
  0
MTEXT
  5
FC
330
F6
100
AcDbEntity
  8
DIM
 62
     3
100
AcDbMText
 10
-10084.99193859648
 20
-2044.395849418135
 30
0.0
 40
3.0
 41
0.0
 71
     5
 72
     1
  1
\A1;10
 11
0.0000000000000001
 21
1.0
 31
0.0
1001
ACAD
1000
MTEXTBEGIN
1070
    73
1070
     1
1070
    44
1040
1.0
1070
    74
1070
     0
1000
MTEXTEND
1000
MTEXTBEGIN
1070
    73
1070
     1
1070
    44
1040
1.0
1070
    74
1070
     0
1000
MTEXTEND
1000
MTEXTBEGIN
1070
    73
1070
     1
1070
    44
1040
1.0
1070
    74
1070
     0
1000
MTEXTEND
  0
POINT
  5
FD
330
F6
100
AcDbEntity
  8
DEFPOINTS
 62
     0
100
AcDbPoint
 10
-10055.08889582057
 20
-2039.395849418133
 30
0.0
  0
POINT
  5
FE
330
F6
100
AcDbEntity
  8
DEFPOINTS
 62
     0
100
AcDbPoint
 10
-10034.72589322164
 20
-2049.395849418134
 30
0.0
  0
POINT
  5
FF
330
F6
100
AcDbEntity
  8
DEFPOINTS
 62
     0
100
AcDbPoint
 10
-10082.49193859648
 20
-2049.395849418134
 30
0.0
  0
ENDBLK
  5
101
330
F6
100
AcDbEntity
  8
0
100
AcDbBlockEnd
  0
BLOCK
  5
205
330
1F9
100
AcDbEntity
  8
0
100
AcDbBlockBegin
  2
*D25
 70
     1
 10
0.0
 20
0.0
 30
0.0
  3
*D25
  1

  0
LINE
  5
1FA
330
1F9
100
AcDbEntity
  8
DIM
 62
   123
100
AcDbLine
 10
-10052.19075701934
 20
-2043.395849418133
 30
0.0
 11
-10073.26017937413
 21
-2043.395849418133
 31
0.0
  0
LINE
  5
1FB
330
1F9
100
AcDbEntity
  8
DIM
 62
   123
100
AcDbLine
 10
-10040.19075701934
 20
-2035.395849418133
 30
0.0
 11
-10073.26017937413
 21
-2035.395849418133
 31
0.0
  0
LINE
  5
1FC
330
1F9
100
AcDbEntity
  8
DIM
 62
   123
100
AcDbLine
 10
-10072.66017937413
 20
-2045.895849418132
 30
0.0
 11
-10072.66017937413
 21
-2048.395849418132
 31
0.0
  0
LINE
  5
1FD
330
1F9
100
AcDbEntity
  8
DIM
 62
   123
100
AcDbLine
 10
-10072.66017937413
 20
-2032.895849418133
 30
0.0
 11
-10072.66017937413
 21
-1997.882515490179
 31
0.0
  0
LINE
  5
1FE
330
1F9
100
AcDbEntity
  8
DIM
 62
   123
100
AcDbLine
 10
-10072.66017937413
 20
-2043.395849418133
 30
0.0
 11
-10072.66017937413
 21
-2035.395849418133
 31
0.0
  0
SOLID
  5
1FF
330
1F9
100
AcDbEntity
  8
DIM
 62
   123
100
AcDbTrace
 10
-10073.07684604079
 20
-2045.895849418132
 30
0.0
 11
-10072.24351270746
 21
-2045.895849418132
 31
0.0
 12
-10072.66017937413
 22
-2043.395849418133
 32
0.0
 13
-10072.66017937413
 23
-2043.395849418133
 33
0.0
  0
SOLID
  5
200
330
1F9
100
AcDbEntity
  8
DIM
 62
   123
100
AcDbTrace
 10
-10073.07684604079
 20
-2032.895849418133
 30
0.0
 11
-10072.24351270746
 21
-2032.895849418133
 31
0.0
 12
-10072.66017937413
 22
-2035.395849418133
 32
0.0
 13
-10072.66017937413
 23
-2035.395849418133
 33
0.0
  0
MTEXT
  5
201
330
1F9
100
AcDbEntity
  8
DIM
 62
     3
100
AcDbMText
 10
-10076.61032937412
 20
-2011.555229775895
 30
0.0
 40
3.0
 41
0.0
 71
     5
 72
     1
  1
\A1;\A1;{\f??|b0|i0|c0|p49;%%C8\H0.7x;\S+0^ -0.015;\H1.429x;(h7)}
 11
0.0000000000000001
 21
1.0
 31
0.0
1001
ACAD
1000
MTEXTBEGIN
1070
    73
1070
     1
1070
    44
1040
1.0
1070
    74
1070
     0
1000
MTEXTEND
1000
MTEXTBEGIN
1070
    73
1070
     1
1070
    44
1040
1.0
1070
    74
1070
     0
1000
MTEXTEND
1000
MTEXTBEGIN
1070
    73
1070
     1
1070
    44
1040
1.0
1070
    74
1070
     0
1000
MTEXTEND
  0
POINT
  5
202
330
1F9
100
AcDbEntity
  8
DEFPOINTS
 62
     0
100
AcDbPoint
 10
-10051.19075701934
 20
-2043.395849418133
 30
0.0
  0
POINT
  5
203
330
1F9
100
AcDbEntity
  8
DEFPOINTS
 62
     0
100
AcDbPoint
 10
-10039.19075701934
 20
-2035.395849418133
 30
0.0
  0
POINT
  5
204
330
1F9
100
AcDbEntity
  8
DEFPOINTS
 62
     0
100
AcDbPoint
 10
-10072.66017937413
 20
-2035.395849418133
 30
0.0
  0
ENDBLK
  5
206
330
1F9
100
AcDbEntity
  8
0
100
AcDbBlockEnd
  0
BLOCK
  5
16D
330
163
100
AcDbEntity
  8
0
100
AcDbBlockBegin
  2
*D26
 70
     1
 10
0.0
 20
0.0
 30
0.0
  3
*D26
  1

  0
LINE
  5
164
330
163
100
AcDbEntity
  8
0
 62
   123
100
AcDbLine
 10
-10019.19075701934
 20
-2018.895849418134
 30
0.0
 11
-10019.19075701934
 21
-1993.512672454165
 31
0.0
  0
LINE
  5
165
330
163
100
AcDbEntity
  8
0
 62
   123
100
AcDbLine
 10
-9979.190757019349
 20
-2018.395849418132
 30
0.0
 11
-9979.190757019349
 21
-1993.512672454165
 31
0.0
  0
LINE
  5
166
330
163
100
AcDbEntity
  8
0
 62
   123
100
AcDbLine
 10
-10016.69075701934
 20
-1994.112672454165
 30
0.0
 11
-9981.69075701935
 21
-1994.112672454165
 31
0.0
  0
SOLID
  5
167
330
163
100
AcDbEntity
  8
0
 62
   123
100
AcDbTrace
 10
-10016.69075701934
 20
-1993.696005787498
 30
0.0
 11
-10016.69075701934
 21
-1994.529339120832
 31
0.0
 12
-10019.19075701934
 22
-1994.112672454165
 32
0.0
 13
-10019.19075701934
 23
-1994.112672454165
 33
0.0
  0
SOLID
  5
168
330
163
100
AcDbEntity
  8
0
 62
   123
100
AcDbTrace
 10
-9981.69075701935
 20
-1993.696005787498
 30
0.0
 11
-9981.69075701935
 21
-1994.529339120832
 31
0.0
 12
-9979.190757019349
 22
-1994.112672454165
 32
0.0
 13
-9979.190757019349
 23
-1994.112672454165
 33
0.0
  0
MTEXT
  5
169
330
163
100
AcDbEntity
  8
0
 62
     3
100
AcDbMText
 10
-9999.190757019349
 20
-1991.612672454165
 30
0.0
 40
3.0
 41
0.0
 71
     5
 72
     1
  1
\A1;L
1001
ACAD
1000
MTEXTBEGIN
1070
    73
1070
     1
1070
    44
1040
1.0
1070
    74
1070
     0
1000
MTEXTEND
1000
MTEXTBEGIN
1070
    73
1070
     1
1070
    44
1040
1.0
1070
    74
1070
     0
1000
MTEXTEND
1000
MTEXTBEGIN
1070
    73
1070
     1
1070
    44
1040
1.0
1070
    74
1070
     0
1000
MTEXTEND
  0
POINT
  5
16A
330
163
100
AcDbEntity
  8
DEFPOINTS
 62
     0
100
AcDbPoint
 10
-10019.19075701934
 20
-2019.895849418133
 30
0.0
  0
POINT
  5
16B
330
163
100
AcDbEntity
  8
DEFPOINTS
 62
     0
100
AcDbPoint
 10
-9979.190757019349
 20
-2019.395849418132
 30
0.0
  0
POINT
  5
16C
330
163
100
AcDbEntity
  8
DEFPOINTS
 62
     0
100
AcDbPoint
 10
-9979.190757019349
 20
-1994.112672454165
 30
0.0
  0
ENDBLK
  5
16E
330
163
100
AcDbEntity
  8
0
100
AcDbBlockEnd
  0
BLOCK
  5
18C
330
182
100
AcDbEntity
  8
0
100
AcDbBlockBegin
  2
*D27
 70
     1
 10
0.0
 20
0.0
 30
0.0
  3
*D27
  1

  0
LINE
  5
183
330
182
100
AcDbEntity
  8
0
 62
   123
100
AcDbLine
 10
-9979.190757019349
 20
-2018.395849418132
 30
0.0
 11
-9979.190757019349
 21
-2005.205455461041
 31
0.0
  0
LINE
  5
184
330
182
100
AcDbEntity
  8
0
 62
   123
100
AcDbLine
 10
-9972.190757019349
 20
-2019.797112076604
 30
0.0
 11
-9972.190757019349
 21
-2005.205455461041
 31
0.0
  0
LINE
  5
185
330
182
100
AcDbEntity
  8
0
 62
   123
100
AcDbLine
 10
-9976.690757019349
 20
-2005.805455461041
 30
0.0
 11
-9974.690757019349
 21
-2005.805455461041
 31
0.0
  0
SOLID
  5
186
330
182
100
AcDbEntity
  8
0
 62
   123
100
AcDbTrace
 10
-9976.690757019349
 20
-2005.388788794375
 30
0.0
 11
-9976.690757019349
 21
-2006.222122127708
 31
0.0
 12
-9979.190757019349
 22
-2005.805455461041
 32
0.0
 13
-9979.190757019349
 23
-2005.805455461041
 33
0.0
  0
SOLID
  5
187
330
182
100
AcDbEntity
  8
0
 62
   123
100
AcDbTrace
 10
-9974.690757019349
 20
-2005.388788794375
 30
0.0
 11
-9974.690757019349
 21
-2006.222122127708
 31
0.0
 12
-9972.190757019349
 22
-2005.805455461041
 32
0.0
 13
-9972.190757019349
 23
-2005.805455461041
 33
0.0
  0
MTEXT
  5
188
330
182
100
AcDbEntity
  8
0
 62
     3
100
AcDbMText
 10
-9975.69075701935
 20
-2003.30545546104
 30
0.0
 40
3.0
 41
0.0
 71
     5
 72
     1
  1
\A1;7
1001
ACAD
1000
MTEXTBEGIN
1070
    73
1070
     1
1070
    44
1040
1.0
1070
    74
1070
     0
1000
MTEXTEND
1000
MTEXTBEGIN
1070
    73
1070
     1
1070
    44
1040
1.0
1070
    74
1070
     0
1000
MTEXTEND
1000
MTEXTBEGIN
1070
    73
1070
     1
1070
    44
1040
1.0
1070
    74
1070
     0
1000
MTEXTEND
  0
POINT
  5
189
330
182
100
AcDbEntity
  8
DEFPOINTS
 62
     0
100
AcDbPoint
 10
-9979.190757019349
 20
-2019.395849418132
 30
0.0
  0
POINT
  5
18A
330
182
100
AcDbEntity
  8
DEFPOINTS
 62
     0
100
AcDbPoint
 10
-9972.190757019349
 20
-2020.797112076603
 30
0.0
  0
POINT
  5
18B
330
182
100
AcDbEntity
  8
DEFPOINTS
 62
     0
100
AcDbPoint
 10
-9972.190757019349
 20
-2005.805455461041
 30
0.0
  0
ENDBLK
  5
18D
330
182
100
AcDbEntity
  8
0
100
AcDbBlockEnd
  0
BLOCK
  5
B4
330
A7
100
AcDbEntity
  8
0
100
AcDbBlockBegin
  2
*D28
 70
     1
 10
0.0
 20
0.0
 30
0.0
  3
*D28
  1

  0
LINE
  5
A8
330
A7
100
AcDbEntity
  8
0
 62
   123
100
AcDbLine
 10
-10147.60300004742
 20
-2085.395849418135
 30
0.0
 11
-10147.60300004742
 21
-2101.914708258476
 31
0.0
  0
LINE
  5
A9
330
A7
100
AcDbEntity
  8
0
 62
   123
100
AcDbLine
 10
-10133.92690799689
 20
-2082.412856326774
 30
0.0
 11
-10127.50490288251
 21
-2097.916948171575
 31
0.0
  0
ARC
  5
AA
330
A7
100
AcDbEntity
  8
0
 62
   123
100
AcDbCircle
 10
-10147.60300004742
 20
-2049.395849418125
 30
0.0
 40
51.91885884035082
100
AcDbArc
 50
272.7591764118506
 51
289.7408235881476
  0
SOLID
  5
AB
330
A7
100
AcDbEntity
  8
0
 62
   123
100
AcDbTrace
 10
-10145.09369304232
 20
-2101.671064071279
 30
0.0
 11
-10145.11375640062
 21
-2100.837972295963
 31
0.0
 12
-10147.60300004742
 22
-2101.314708258476
 32
0.0
 13
-10147.60300004742
 23
-2101.314708258476
 33
0.0
  0
SOLID
  5
AC
330
A7
100
AcDbEntity
  8
0
 62
   123
100
AcDbTrace
 10
-10130.21671315311
 20
-2097.874766156642
 30
0.0
 11
-10129.91643885913
 21
-2098.652120511373
 31
0.0
 12
-10127.73451294193
 22
-2097.362620452068
 32
0.0
 13
-10127.73451294193
 23
-2097.362620452068
 33
0.0
  0
MTEXT
  5
AD
330
A7
100
AcDbEntity
  8
0
 62
     3
100
AcDbMText
 10
-10138.0175990546
 20
-2097.584914377237
 30
0.0
 40
3.0
 41
0.0
 71
     5
 72
     1
  1
\A1;22°30'
 11
0.9807852804032323
 21
0.1950903220161189
 31
0.0
1001
ACAD
1000
MTEXTBEGIN
1070
    73
1070
     1
1070
    44
1040
1.0
1070
    74
1070
     0
1000
MTEXTEND
1000
MTEXTBEGIN
1070
    73
1070
     1
1070
    44
1040
1.0
1070
    74
1070
     0
1000
MTEXTEND
1000
MTEXTBEGIN
1070
    73
1070
     1
1070
    44
1040
1.0
1070
    74
1070
     0
1000
MTEXTEND
  0
POINT
  5
AE
330
A7
100
AcDbEntity
  8
DEFPOINTS
 62
     0
100
AcDbPoint
 10
-10140.82622909857
 20
-2100.870535223783
 30
0.0
  0
POINT
  5
B0
330
A7
100
AcDbEntity
  8
DEFPOINTS
 62
     0
100
AcDbPoint
 10
-10147.60300004742
 20
-2084.395849418135
 30
0.0
  0
POINT
  5
B1
330
A7
100
AcDbEntity
  8
DEFPOINTS
 62
     0
100
AcDbPoint
 10
-10147.60300004742
 20
-2049.395849418132
 30
0.0
  0
POINT
  5
B2
330
A7
100
AcDbEntity
  8
DEFPOINTS
 62
     0
100
AcDbPoint
 10
-10134.30959142927
 20
-2081.488976794263
 30
0.0
  0
POINT
  5
B3
330
A7
100
AcDbEntity
  8
DEFPOINTS
 62
     0
100
AcDbPoint
 10
-10147.60300004742
 20
-2014.395849418133
 30
0.0
  0
ENDBLK
  5
B5
330
A7
100
AcDbEntity
  8
0
100
AcDbBlockEnd
  0
BLOCK
  5
126
330
11C
100
AcDbEntity
  8
0
100
AcDbBlockBegin
  2
*D29
 70
     1
 10
0.0
 20
0.0
 30
0.0
  3
*D29
  1

  0
LINE
  5
11D
330
11C
100
AcDbEntity
  8
0
 62
   123
100
AcDbLine
 10
-10177.60300004743
 20
-2023.395849418132
 30
0.0
 11
-10177.60300004743
 21
-2005.144751623828
 31
0.0
  0
LINE
  5
11E
330
11C
100
AcDbEntity
  8
0
 62
   123
100
AcDbLine
 10
-10117.60300004743
 20
-2023.395849418132
 30
0.0
 11
-10117.60300004743
 21
-2005.144751623828
 31
0.0
  0
LINE
  5
11F
330
11C
100
AcDbEntity
  8
0
 62
   123
100
AcDbLine
 10
-10175.10300004742
 20
-2005.744751623828
 30
0.0
 11
-10120.10300004742
 21
-2005.744751623828
 31
0.0
  0
SOLID
  5
120
330
11C
100
AcDbEntity
  8
0
 62
   123
100
AcDbTrace
 10
-10175.10300004742
 20
-2005.328084957161
 30
0.0
 11
-10175.10300004742
 21
-2006.161418290495
 31
0.0
 12
-10177.60300004743
 22
-2005.744751623828
 32
0.0
 13
-10177.60300004743
 23
-2005.744751623828
 33
0.0
  0
SOLID
  5
121
330
11C
100
AcDbEntity
  8
0
 62
   123
100
AcDbTrace
 10
-10120.10300004742
 20
-2005.328084957161
 30
0.0
 11
-10120.10300004742
 21
-2006.161418290495
 31
0.0
 12
-10117.60300004743
 22
-2005.744751623828
 32
0.0
 13
-10117.60300004743
 23
-2005.744751623828
 33
0.0
  0
MTEXT
  5
122
330
11C
100
AcDbEntity
  8
0
 62
     3
100
AcDbMText
 10
-10147.93373880709
 20
-2003.244751623828
 30
0.0
 40
3.0
 41
0.0
 71
     5
 72
     1
  1
\A1;60
1001
ACAD
1000
MTEXTBEGIN
1070
    73
1070
     1
1070
    44
1040
1.0
1070
    74
1070
     0
1000
MTEXTEND
1000
MTEXTBEGIN
1070
    73
1070
     1
1070
    44
1040
1.0
1070
    74
1070
     0
1000
MTEXTEND
1000
MTEXTBEGIN
1070
    73
1070
     1
1070
    44
1040
1.0
1070
    74
1070
     0
1000
MTEXTEND
  0
POINT
  5
123
330
11C
100
AcDbEntity
  8
DEFPOINTS
 62
     0
100
AcDbPoint
 10
-10177.60300004743
 20
-2024.395849418131
 30
0.0
  0
POINT
  5
124
330
11C
100
AcDbEntity
  8
DEFPOINTS
 62
     0
100
AcDbPoint
 10
-10117.60300004743
 20
-2024.395849418131
 30
0.0
  0
POINT
  5
125
330
11C
100
AcDbEntity
  8
DEFPOINTS
 62
     0
100
AcDbPoint
 10
-10117.60300004743
 20
-2005.744751623828
 30
0.0
  0
ENDBLK
  5
127
330
11C
100
AcDbEntity
  8
0
100
AcDbBlockEnd
  0
BLOCK
  5
14D
330
144
100
AcDbEntity
  8
0
100
AcDbBlockBegin
  2
*D30
 70
     1
 10
0.0
 20
0.0
 30
0.0
  3
*D30
  1

  0
LINE
  5
145
330
144
100
AcDbEntity
  8
0
 62
   123
100
AcDbLine
 10
-10179.07722126144
 20
-2069.782693189774
 30
0.0
 11
-10181.17550267574
 21
-2071.141816107883
 31
0.0
  0
LINE
  5
146
330
144
100
AcDbEntity
  8
0
 62
   123
100
AcDbLine
 10
-10116.12877883339
 20
-2029.009005646489
 30
0.0
 11
-10094.75708584497
 21
-2015.165887396564
 31
0.0
  0
LINE
  5
147
330
144
100
AcDbEntity
  8
0
 62
   123
100
AcDbLine
 10
-10176.9789398472
 20
-2068.423570271664
 30
0.0
 11
-10118.22706024765
 21
-2030.368128564596
 31
0.0
  0
SOLID
  5
148
330
144
100
AcDbEntity
  8
0
 62
   123
100
AcDbTrace
 10
-10179.30374174782
 20
-2069.432979620728
 30
0.0
 11
-10178.85070077512
 21
-2070.132406758819
 31
0.0
 12
-10176.9789398472
 22
-2068.423570271664
 32
0.0
 13
-10176.9789398472
 23
-2068.423570271664
 33
0.0
  0
SOLID
  5
149
330
144
100
AcDbEntity
  8
0
 62
   123
100
AcDbTrace
 10
-10116.35529931974
 20
-2028.659292077442
 30
0.0
 11
-10115.90225834704
 21
-2029.358719215534
 31
0.0
 12
-10118.22706024765
 22
-2030.368128564596
 32
0.0
 13
-10118.22706024765
 23
-2030.368128564596
 33
0.0
  0
MTEXT
  5
14A
330
144
100
AcDbEntity
  8
0
 62
     3
100
AcDbMText
 10
-10104.6891871128
 20
-2018.620593904855
 30
0.0
 40
3.0
 41
0.0
 71
     5
 72
     1
  1
\A1;\U+220570%%p0.5
 11
0.8393125657078602
 21
0.5436491672438109
 31
0.0
1001
ACAD
1000
MTEXTBEGIN
1070
    73
1070
     1
1070
    44
1040
1.0
1070
    74
1070
     0
1000
MTEXTEND
1000
MTEXTBEGIN
1070
    73
1070
     1
1070
    44
1040
1.0
1070
    74
1070
     0
1000
MTEXTEND
1000
MTEXTBEGIN
1070
    73
1070
     1
1070
    44
1040
1.0
1070
    74
1070
     0
1000
MTEXTEND
  0
POINT
  5
14B
330
144
100
AcDbEntity
  8
DEFPOINTS
 62
     0
100
AcDbPoint
 10
-10118.22706024765
 20
-2030.368128564596
 30
0.0
  0
POINT
  5
14C
330
144
100
AcDbEntity
  8
DEFPOINTS
 62
     0
100
AcDbPoint
 10
-10176.9789398472
 20
-2068.423570271664
 30
0.0
  0
ENDBLK
  5
14E
330
144
100
AcDbEntity
  8
0
100
AcDbBlockEnd
  0
BLOCK
  5
38C
330
380
100
AcDbEntity
  8
0
100
AcDbBlockBegin
  2
*D31
 70
     1
 10
0.0
 20
0.0
 30
0.0
  3
*D31
  1

  0
LINE
  5
5AC
330
380
100
AcDbEntity
  8
0
 62
   123
100
AcDbLine
 10
22.66011029299806
 20
27.3838464081723
 30
0.0
 11
22.66011029299805
 21
10.86498756783047
 31
0.0
  0
LINE
  5
5AD
330
380
100
AcDbEntity
  8
0
 62
   123
100
AcDbLine
 10
36.33620234352255
 20
30.36683949953164
 30
0.0
 11
42.75820745791677
 21
14.86274765473057
 31
0.0
  0
ARC
  5
5AE
330
380
100
AcDbEntity
  8
0
 62
   123
100
AcDbCircle
 10
22.66011029299807
 20
63.3838464081732
 30
0.0
 40
51.91885884034273
100
AcDbArc
 50
272.7591764118524
 51
289.740823588146
  0
SOLID
  5
5AF
330
380
100
AcDbEntity
  8
0
 62
   123
100
AcDbTrace
 10
25.16941729808788
 20
11.10863175502785
 30
0.0
 11
25.1493539398028
 21
11.94172353034361
 31
0.0
 12
22.66011029299805
 22
11.46498756783047
 32
0.0
 13
22.66011029299805
 23
11.46498756783047
 33
0.0
  0
SOLID
  5
5B0
330
380
100
AcDbEntity
  8
0
 62
   123
100
AcDbTrace
 10
40.04639718731467
 20
14.90492966966314
 30
0.0
 11
40.34667148129457
 21
14.1275753149321
 31
0.0
 12
42.52859739849774
 22
15.41707537423735
 32
0.0
 13
42.52859739849774
 23
15.41707537423735
 33
0.0
  0
MTEXT
  5
5B1
330
380
100
AcDbEntity
  8
0
 62
     3
100
AcDbMText
 10
32.24551128582486
 20
15.19478144906936
 30
0.0
 40
3.0
 41
0.0
 71
     5
 72
     1
  1
\A1;22°30'
 11
0.9807852804032329
 21
0.1950903220161154
 31
0.0
  0
POINT
  5
5B2
330
380
100
AcDbEntity
  8
DEFPOINTS
 62
     0
100
AcDbPoint
 10
29.43688124183789
 20
11.90916060252311
 30
0.0
  0
POINT
  5
5B3
330
380
100
AcDbEntity
  8
DEFPOINTS
 62
     0
100
AcDbPoint
 10
22.66011029299807
 20
28.3838464081723
 30
0.0
  0
POINT
  5
5B4
330
380
100
AcDbEntity
  8
DEFPOINTS
 62
     0
100
AcDbPoint
 10
22.66011029299807
 20
63.3838464081732
 30
0.0
  0
POINT
  5
5B5
330
380
100
AcDbEntity
  8
DEFPOINTS
 62
     0
100
AcDbPoint
 10
35.95351891115749
 20
31.29071903204294
 30
0.0
  0
POINT
  5
5B6
330
380
100
AcDbEntity
  8
DEFPOINTS
 62
     0
100
AcDbPoint
 10
22.66011029299807
 20
98.38384640817231
 30
0.0
  0
ENDBLK
  5
38D
330
380
100
AcDbEntity
  8
0
100
AcDbBlockEnd
  0
BLOCK
  5
398
330
38E
100
AcDbEntity
  8
0
100
AcDbBlockBegin
  2
*D32
 70
     1
 10
0.0
 20
0.0
 30
0.0
  3
*D32
  1

  0
LINE
  5
38F
330
38E
100
AcDbEntity
  8
DIM
 62
   123
100
AcDbLine
 10
189.3914763371194
 20
349.788937256519
 30
0.0
 11
189.3914763371194
 21
396.9501138596701
 31
0.0
  0
LINE
  5
390
330
38E
100
AcDbEntity
  8
DIM
 62
   123
100
AcDbLine
 10
201.8921857742169
 20
377.4689372565191
 30
0.0
 11
201.8921857742169
 21
396.9501138596701
 31
0.0
  0
LINE
  5
391
330
38E
100
AcDbEntity
  8
DIM
 62
   123
100
AcDbLine
 10
191.8914763371193
 20
396.35011385967
 30
0.0
 11
199.3921857742169
 21
396.35011385967
 31
0.0
  0
SOLID
  5
392
330
38E
100
AcDbEntity
  8
DIM
 62
   123
100
AcDbTrace
 10
191.8914763371193
 20
396.7667805263366
 30
0.0
 11
191.8914763371193
 21
395.9334471930031
 31
0.0
 12
189.3914763371194
 22
396.35011385967
 32
0.0
 13
189.3914763371194
 23
396.35011385967
 33
0.0
  0
SOLID
  5
393
330
38E
100
AcDbEntity
  8
DIM
 62
   123
100
AcDbTrace
 10
199.3921857742169
 20
396.7667805263366
 30
0.0
 11
199.3921857742169
 21
395.9334471930031
 31
0.0
 12
201.8921857742169
 22
396.35011385967
 32
0.0
 13
201.8921857742169
 23
396.35011385967
 33
0.0
  0
MTEXT
  5
394
330
38E
100
AcDbEntity
  8
DIM
 62
     3
100
AcDbMText
 10
194.6964715758731
 20
398.85011385967
 30
0.0
 40
3.0
 41
0.0
 71
     5
 72
     1
  1
\A1;12.5
1001
ACAD
1000
MTEXTBEGIN
1070
    73
1070
     1
1070
    44
1040
1.0
1070
    74
1070
     0
1000
MTEXTEND
1000
MTEXTBEGIN
1070
    73
1070
     1
1070
    44
1040
1.0
1070
    74
1070
     0
1000
MTEXTEND
1000
MTEXTBEGIN
1070
    73
1070
     1
1070
    44
1040
1.0
1070
    74
1070
     0
1000
MTEXTEND
  0
POINT
  5
395
330
38E
100
AcDbEntity
  8
DEFPOINTS
 62
     0
100
AcDbPoint
 10
189.3914763371194
 20
348.7889372565191
 30
0.0
  0
POINT
  5
396
330
38E
100
AcDbEntity
  8
DEFPOINTS
 62
     0
100
AcDbPoint
 10
201.8921857742169
 20
376.468937256519
 30
0.0
  0
POINT
  5
397
330
38E
100
AcDbEntity
  8
DEFPOINTS
 62
     0
100
AcDbPoint
 10
201.8921857742169
 20
396.35011385967
 30
0.0
  0
ENDBLK
  5
399
330
38E
100
AcDbEntity
  8
0
100
AcDbBlockEnd
  0
BLOCK
  5
3A4
330
39A
100
AcDbEntity
  8
0
100
AcDbBlockBegin
  2
*D33
 70
     1
 10
0.0
 20
0.0
 30
0.0
  3
*D33
  1

  0
LINE
  5
39B
330
39A
100
AcDbEntity
  8
DIM
 62
   123
100
AcDbLine
 10
198.892185774215
 20
373.4689372565191
 30
0.0
 11
179.7248537999753
 21
373.4689372565191
 31
0.0
  0
LINE
  5
39C
330
39A
100
AcDbEntity
  8
DIM
 62
   123
100
AcDbLine
 10
198.892185774215
 20
319.4689372565192
 30
0.0
 11
179.7248537999752
 21
319.4689372565192
 31
0.0
  0
LINE
  5
39D
330
39A
100
AcDbEntity
  8
DIM
 62
   123
100
AcDbLine
 10
180.3248537999753
 20
370.9689372565191
 30
0.0
 11
180.3248537999753
 21
321.9689372565192
 31
0.0
  0
SOLID
  5
39E
330
39A
100
AcDbEntity
  8
DIM
 62
   123
100
AcDbTrace
 10
179.9081871333086
 20
370.9689372565191
 30
0.0
 11
180.7415204666419
 21
370.9689372565191
 31
0.0
 12
180.3248537999753
 22
373.4689372565191
 32
0.0
 13
180.3248537999753
 23
373.4689372565191
 33
0.0
  0
SOLID
  5
39F
330
39A
100
AcDbEntity
  8
DIM
 62
   123
100
AcDbTrace
 10
179.9081871333086
 20
321.9689372565192
 30
0.0
 11
180.7415204666419
 21
321.9689372565192
 31
0.0
 12
180.3248537999752
 22
319.4689372565192
 32
0.0
 13
180.3248537999752
 23
319.4689372565192
 33
0.0
  0
MTEXT
  5
3A0
330
39A
100
AcDbEntity
  8
DIM
 62
     3
100
AcDbMText
 10
176.3747037999752
 20
346.4689372565191
 30
0.0
 40
3.0
 41
0.0
 71
     5
 72
     1
  1
\A1;\A1;%%C54{\f??|b0|i0|c0|p49;\H0.7x;\S+0^ -0.03;\H1.429x;(h7)} 
 11
0.0000000000000001
 21
1.0
 31
0.0
1001
ACAD
1000
MTEXTBEGIN
1070
    73
1070
     1
1070
    44
1040
1.0
1070
    74
1070
     0
1000
MTEXTEND
1000
MTEXTBEGIN
1070
    73
1070
     1
1070
    44
1040
1.0
1070
    74
1070
     0
1000
MTEXTEND
1000
MTEXTBEGIN
1070
    73
1070
     1
1070
    44
1040
1.0
1070
    74
1070
     0
1000
MTEXTEND
  0
POINT
  5
3A1
330
39A
100
AcDbEntity
  8
DEFPOINTS
 62
     0
100
AcDbPoint
 10
199.892185774215
 20
373.4689372565191
 30
0.0
  0
POINT
  5
3A2
330
39A
100
AcDbEntity
  8
DEFPOINTS
 62
     0
100
AcDbPoint
 10
199.892185774215
 20
319.4689372565192
 30
0.0
  0
POINT
  5
3A3
330
39A
100
AcDbEntity
  8
DEFPOINTS
 62
     0
100
AcDbPoint
 10
180.3248537999752
 20
319.4689372565192
 30
0.0
  0
ENDBLK
  5
3A5
330
39A
100
AcDbEntity
  8
0
100
AcDbBlockEnd
  0
BLOCK
  5
3AF
330
3A6
100
AcDbEntity
  8
0
100
AcDbBlockBegin
  2
*D34
 70
     1
 10
0.0
 20
0.0
 30
0.0
  3
*D34
  1

  0
LINE
  5
507
330
3A6
100
AcDbEntity
  8
0
 62
   123
100
AcDbLine
 10
83.87282701918435
 20
327.8012476432286
 30
0.0
 11
81.70460463975095
 21
326.5567350023431
 31
0.0
  0
LINE
  5
508
330
3A6
100
AcDbEntity
  8
0
 62
   123
100
AcDbLine
 10
148.9194984021976
 20
365.1366268698033
 30
0.0
 11
170.5397729856815
 21
377.5461957746291
 31
0.0
  0
LINE
  5
509
330
3A6
100
AcDbEntity
  8
0
 62
   123
100
AcDbLine
 10
86.04104939861775
 20
329.0457602841143
 30
0.0
 11
146.751276022764
 21
363.8921142289178
 31
0.0
  0
SOLID
  5
50A
330
3A6
100
AcDbEntity
  8
0
 62
   123
100
AcDbTrace
 10
83.66540824570341
 20
328.162618039801
 30
0.0
 11
84.08024579266529
 21
327.4398772466565
 31
0.0
 12
86.04104939861775
 22
329.0457602841143
 32
0.0
 13
86.04104939861775
 23
329.0457602841143
 33
0.0
  0
SOLID
  5
50B
330
3A6
100
AcDbEntity
  8
0
 62
   123
100
AcDbTrace
 10
148.7120796287165
 20
365.4979972663758
 30
0.0
 11
149.1269171756784
 21
364.7752564732312
 31
0.0
 12
146.751276022764
 22
363.8921142289178
 32
0.0
 13
146.751276022764
 23
363.8921142289178
 33
0.0
  0
MTEXT
  5
50C
330
3A6
100
AcDbEntity
  8
0
 62
     3
100
AcDbMText
 10
160.4365231945395
 20
374.6296950784441
 30
0.0
 40
3.0
 41
0.0
 71
     5
 72
     1
  1
\A1;\U+220570%%p0.5
 11
0.8672889517733663
 21
0.4978050563542479
 31
0.0
1001
ACAD
1000
MTEXTBEGIN
1070
    73
1070
     1
1070
    44
1040
1.0
1070
    74
1070
     0
1000
MTEXTEND
1000
MTEXTBEGIN
1070
    73
1070
     1
1070
    44
1040
1.0
1070
    74
1070
     0
1000
MTEXTEND
1000
MTEXTBEGIN
1070
    73
1070
     1
1070
    44
1040
1.0
1070
    74
1070
     0
1000
MTEXTEND
  0
POINT
  5
50D
330
3A6
100
AcDbEntity
  8
DEFPOINTS
 62
     0
100
AcDbPoint
 10
146.751276022764
 20
363.8921142289178
 30
0.0
  0
POINT
  5
50E
330
3A6
100
AcDbEntity
  8
DEFPOINTS
 62
     0
100
AcDbPoint
 10
86.04104939861775
 20
329.0457602841143
 30
0.0
  0
ENDBLK
  5
3B0
330
3A6
100
AcDbEntity
  8
0
100
AcDbBlockEnd
  0
BLOCK
  5
3BB
330
3B1
100
AcDbEntity
  8
0
100
AcDbBlockBegin
  2
*D35
 70
     1
 10
0.0
 20
0.0
 30
0.0
  3
*D35
  1

  0
LINE
  5
3B2
330
3B1
100
AcDbEntity
  8
DIM
 62
   123
100
AcDbLine
 10
147.5723533210855
 20
85.38384640817232
 30
0.0
 11
75.29105004010708
 21
85.38384640817232
 31
0.0
  0
LINE
  5
3B3
330
3B1
100
AcDbEntity
  8
DIM
 62
   123
100
AcDbLine
 10
147.5723533210855
 20
61.38384640817229
 30
0.0
 11
75.29105004010708
 21
61.38384640817233
 31
0.0
  0
LINE
  5
3B4
330
3B1
100
AcDbEntity
  8
DIM
 62
   123
100
AcDbLine
 10
75.89105004010708
 20
82.88384640817232
 30
0.0
 11
75.89105004010708
 21
63.88384640817233
 31
0.0
  0
SOLID
  5
3B5
330
3B1
100
AcDbEntity
  8
DIM
 62
   123
100
AcDbTrace
 10
75.4743833734404
 20
82.88384640817232
 30
0.0
 11
76.30771670677375
 21
82.88384640817232
 31
0.0
 12
75.89105004010708
 22
85.38384640817232
 32
0.0
 13
75.89105004010708
 23
85.38384640817232
 33
0.0
  0
SOLID
  5
3B6
330
3B1
100
AcDbEntity
  8
DIM
 62
   123
100
AcDbTrace
 10
75.4743833734404
 20
63.88384640817233
 30
0.0
 11
76.30771670677375
 21
63.88384640817233
 31
0.0
 12
75.89105004010708
 22
61.38384640817233
 32
0.0
 13
75.89105004010708
 23
61.38384640817233
 33
0.0
  0
MTEXT
  5
3B7
330
3B1
100
AcDbEntity
  8
DIM
 62
     3
100
AcDbMText
 10
73.39105004010706
 20
73.38384640817233
 30
0.0
 40
3.0
 41
0.0
 71
     5
 72
     1
  1
\A1;%%c24
 11
0.0000000000000001
 21
1.0
 31
0.0
1001
ACAD
1000
MTEXTBEGIN
1070
    73
1070
     1
1070
    44
1040
1.0
1070
    74
1070
     0
1000
MTEXTEND
1000
MTEXTBEGIN
1070
    73
1070
     1
1070
    44
1040
1.0
1070
    74
1070
     0
1000
MTEXTEND
1000
MTEXTBEGIN
1070
    73
1070
     1
1070
    44
1040
1.0
1070
    74
1070
     0
1000
MTEXTEND
  0
POINT
  5
3B8
330
3B1
100
AcDbEntity
  8
DEFPOINTS
 62
     0
100
AcDbPoint
 10
148.5723533210855
 20
85.38384640817232
 30
0.0
  0
POINT
  5
3B9
330
3B1
100
AcDbEntity
  8
DEFPOINTS
 62
     0
100
AcDbPoint
 10
148.5723533210855
 20
61.38384640817229
 30
0.0
  0
POINT
  5
3BA
330
3B1
100
AcDbEntity
  8
DEFPOINTS
 62
     0
100
AcDbPoint
 10
75.89105004010708
 20
61.38384640817233
 30
0.0
  0
ENDBLK
  5
3BC
330
3B1
100
AcDbEntity
  8
0
100
AcDbBlockEnd
  0
BLOCK
  5
3C7
330
3BD
100
AcDbEntity
  8
0
100
AcDbBlockBegin
  2
*D36
 70
     1
 10
0.0
 20
0.0
 30
0.0
  3
*D36
  1

  0
LINE
  5
3BE
330
3BD
100
AcDbEntity
  8
DIM
 62
   123
100
AcDbLine
 10
114.1742145198566
 20
73.38384640817229
 30
0.0
 11
87.17117174394699
 21
73.38384640817231
 31
0.0
  0
LINE
  5
3BF
330
3BD
100
AcDbEntity
  8
DIM
 62
   123
100
AcDbLine
 10
134.5372171187864
 20
63.38384640817229
 30
0.0
 11
87.17117174394699
 21
63.38384640817231
 31
0.0
  0
LINE
  5
3C0
330
3BD
100
AcDbEntity
  8
DIM
 62
   123
100
AcDbLine
 10
87.771171743947
 20
70.88384640817231
 30
0.0
 11
87.771171743947
 21
65.88384640817231
 31
0.0
  0
SOLID
  5
3C1
330
3BD
100
AcDbEntity
  8
DIM
 62
   123
100
AcDbTrace
 10
87.3545050772803
 20
70.88384640817231
 30
0.0
 11
88.18783841061366
 21
70.88384640817231
 31
0.0
 12
87.771171743947
 22
73.38384640817231
 32
0.0
 13
87.771171743947
 23
73.38384640817231
 33
0.0
  0
SOLID
  5
3C2
330
3BD
100
AcDbEntity
  8
DIM
 62
   123
100
AcDbTrace
 10
87.3545050772803
 20
65.88384640817231
 30
0.0
 11
88.18783841061366
 21
65.88384640817231
 31
0.0
 12
87.771171743947
 22
63.38384640817231
 32
0.0
 13
87.771171743947
 23
63.38384640817231
 33
0.0
  0
MTEXT
  5
3C3
330
3BD
100
AcDbEntity
  8
DIM
 62
     3
100
AcDbMText
 10
85.27117174394698
 20
68.38384640817117
 30
0.0
 40
3.0
 41
0.0
 71
     5
 72
     1
  1
\A1;10
 11
0.0000000000000001
 21
1.0
 31
0.0
1001
ACAD
1000
MTEXTBEGIN
1070
    73
1070
     1
1070
    44
1040
1.0
1070
    74
1070
     0
1000
MTEXTEND
1000
MTEXTBEGIN
1070
    73
1070
     1
1070
    44
1040
1.0
1070
    74
1070
     0
1000
MTEXTEND
1000
MTEXTBEGIN
1070
    73
1070
     1
1070
    44
1040
1.0
1070
    74
1070
     0
1000
MTEXTEND
  0
POINT
  5
3C4
330
3BD
100
AcDbEntity
  8
DEFPOINTS
 62
     0
100
AcDbPoint
 10
115.1742145198566
 20
73.38384640817229
 30
0.0
  0
POINT
  5
3C5
330
3BD
100
AcDbEntity
  8
DEFPOINTS
 62
     0
100
AcDbPoint
 10
135.5372171187864
 20
63.38384640817229
 30
0.0
  0
POINT
  5
3C6
330
3BD
100
AcDbEntity
  8
DEFPOINTS
 62
     0
100
AcDbPoint
 10
87.771171743947
 20
63.38384640817231
 30
0.0
  0
ENDBLK
  5
3C8
330
3BD
100
AcDbEntity
  8
0
100
AcDbBlockEnd
  0
BLOCK
  5
3D2
330
3C9
100
AcDbEntity
  8
0
100
AcDbBlockBegin
  2
*D37
 70
     1
 10
0.0
 20
0.0
 30
0.0
  3
*D37
  1

  0
LINE
  5
4FF
330
3C9
100
AcDbEntity
  8
0
 62
   123
100
AcDbLine
 10
-8.814110921045648
 20
42.99700263653075
 30
0.0
 11
-10.91239233531527
 21
41.63787971842121
 31
0.0
  0
LINE
  5
500
330
3C9
100
AcDbEntity
  8
0
 62
   123
100
AcDbLine
 10
54.1343315070427
 20
83.7706901798163
 30
0.0
 11
75.50602449545547
 21
97.61380842974041
 31
0.0
  0
LINE
  5
501
330
3C9
100
AcDbEntity
  8
0
 62
   123
100
AcDbLine
 10
-6.715829506776005
 20
44.35612555464028
 30
0.0
 11
52.03605009277307
 21
82.41156726170673
 31
0.0
  0
SOLID
  5
502
330
3C9
100
AcDbEntity
  8
0
 62
   123
100
AcDbTrace
 10
-9.040631407397237
 20
43.34671620557569
 30
0.0
 11
-8.58759043469406
 21
42.64728906748581
 31
0.0
 12
-6.715829506776005
 22
44.35612555464028
 32
0.0
 13
-6.715829506776005
 23
44.35612555464028
 33
0.0
  0
SOLID
  5
503
330
3C9
100
AcDbEntity
  8
0
 62
   123
100
AcDbTrace
 10
53.90781102069112
 20
84.12040374886119
 30
0.0
 11
54.3608519933943
 21
83.42097661077133
 31
0.0
 12
52.03605009277307
 22
82.41156726170673
 32
0.0
 13
52.03605009277307
 23
82.41156726170673
 33
0.0
  0
MTEXT
  5
504
330
3C9
100
AcDbEntity
  8
0
 62
     3
100
AcDbMText
 10
65.57392322761571
 20
94.15910192144821
 30
0.0
 40
3.0
 41
0.0
 71
     5
 72
     1
  1
\A1;\U+220570%%p0.5
 11
0.8393125657078572
 21
0.5436491672438154
 31
0.0
1001
ACAD
1000
MTEXTBEGIN
1070
    73
1070
     1
1070
    44
1040
1.0
1070
    74
1070
     0
1000
MTEXTEND
1000
MTEXTBEGIN
1070
    73
1070
     1
1070
    44
1040
1.0
1070
    74
1070
     0
1000
MTEXTEND
1000
MTEXTBEGIN
1070
    73
1070
     1
1070
    44
1040
1.0
1070
    74
1070
     0
1000
MTEXTEND
  0
POINT
  5
505
330
3C9
100
AcDbEntity
  8
DEFPOINTS
 62
     0
100
AcDbPoint
 10
52.03605009277307
 20
82.41156726170673
 30
0.0
  0
POINT
  5
506
330
3C9
100
AcDbEntity
  8
DEFPOINTS
 62
     0
100
AcDbPoint
 10
-6.715829506776005
 20
44.35612555464028
 30
0.0
  0
ENDBLK
  5
3D3
330
3C9
100
AcDbEntity
  8
0
100
AcDbBlockEnd
  0
BLOCK
  5
3DE
330
3D4
100
AcDbEntity
  8
0
100
AcDbBlockBegin
  2
*D38
 70
     1
 10
0.0
 20
0.0
 30
0.0
  3
*D38
  1

  0
LINE
  5
3D5
330
3D4
100
AcDbEntity
  8
0
 62
   123
100
AcDbLine
 10
-7.339889707001929
 20
89.3838464081732
 30
0.0
 11
-7.339889707001929
 21
107.634944202478
 31
0.0
  0
LINE
  5
3D6
330
3D4
100
AcDbEntity
  8
0
 62
   123
100
AcDbLine
 10
52.66011029299806
 20
89.3838464081732
 30
0.0
 11
52.66011029299806
 21
107.634944202478
 31
0.0
  0
LINE
  5
3D7
330
3D4
100
AcDbEntity
  8
0
 62
   123
100
AcDbLine
 10
-4.839889707001927
 20
107.034944202478
 30
0.0
 11
50.16011029299806
 21
107.034944202478
 31
0.0
  0
SOLID
  5
3D8
330
3D4
100
AcDbEntity
  8
0
 62
   123
100
AcDbTrace
 10
-4.839889707001927
 20
107.4516108691445
 30
0.0
 11
-4.839889707001927
 21
106.6182775358114
 31
0.0
 12
-7.339889707001929
 22
107.034944202478
 32
0.0
 13
-7.339889707001929
 23
107.034944202478
 33
0.0
  0
SOLID
  5
3D9
330
3D4
100
AcDbEntity
  8
0
 62
   123
100
AcDbTrace
 10
50.16011029299806
 20
107.4516108691445
 30
0.0
 11
50.16011029299806
 21
106.6182775358114
 31
0.0
 12
52.66011029299806
 22
107.034944202478
 32
0.0
 13
52.66011029299806
 23
107.034944202478
 33
0.0
  0
MTEXT
  5
3DA
330
3D4
100
AcDbEntity
  8
0
 62
     3
100
AcDbMText
 10
22.32937153333659
 20
109.534944202478
 30
0.0
 40
3.0
 41
0.0
 71
     5
 72
     1
  1
\A1;60
1001
ACAD
1000
MTEXTBEGIN
1070
    73
1070
     1
1070
    44
1040
1.0
1070
    74
1070
     0
1000
MTEXTEND
1000
MTEXTBEGIN
1070
    73
1070
     1
1070
    44
1040
1.0
1070
    74
1070
     0
1000
MTEXTEND
1000
MTEXTBEGIN
1070
    73
1070
     1
1070
    44
1040
1.0
1070
    74
1070
     0
1000
MTEXTEND
  0
POINT
  5
3DB
330
3D4
100
AcDbEntity
  8
DEFPOINTS
 62
     0
100
AcDbPoint
 10
-7.339889707001929
 20
88.38384640817322
 30
0.0
  0
POINT
  5
3DC
330
3D4
100
AcDbEntity
  8
DEFPOINTS
 62
     0
100
AcDbPoint
 10
52.66011029299806
 20
88.38384640817322
 30
0.0
  0
POINT
  5
3DD
330
3D4
100
AcDbEntity
  8
DEFPOINTS
 62
     0
100
AcDbPoint
 10
52.66011029299806
 20
107.034944202478
 30
0.0
  0
ENDBLK
  5
3DF
330
3D4
100
AcDbEntity
  8
0
100
AcDbBlockEnd
  0
BLOCK
  5
3EA
330
3E0
100
AcDbEntity
  8
0
100
AcDbBlockBegin
  2
*D39
 70
     1
 10
0.0
 20
0.0
 30
0.0
  3
*D39
  1

  0
LINE
  5
3E1
330
3E0
100
AcDbEntity
  8
0
 62
   123
100
AcDbLine
 10
303.5726927259946
 20
93.38575408040924
 30
0.0
 11
338.5903185363853
 21
93.38575408040924
 31
0.0
  0
LINE
  5
3E2
330
3E0
100
AcDbEntity
  8
0
 62
   123
100
AcDbLine
 10
303.5726927259946
 20
33.38193873593809
 30
0.0
 11
338.5903185363853
 21
33.38193873593807
 31
0.0
  0
LINE
  5
3E3
330
3E0
100
AcDbEntity
  8
0
 62
   123
100
AcDbLine
 10
337.9903185363853
 20
90.88575408040924
 30
0.0
 11
337.9903185363853
 21
35.88193873593807
 31
0.0
  0
SOLID
  5
3E4
330
3E0
100
AcDbEntity
  8
0
 62
   123
100
AcDbTrace
 10
337.5736518697188
 20
90.88575408040924
 30
0.0
 11
338.4069852030521
 21
90.88575408040924
 31
0.0
 12
337.9903185363853
 22
93.38575408040924
 32
0.0
 13
337.9903185363853
 23
93.38575408040924
 33
0.0
  0
SOLID
  5
3E5
330
3E0
100
AcDbEntity
  8
0
 62
   123
100
AcDbTrace
 10
337.5736518697188
 20
35.88193873593807
 30
0.0
 11
338.4069852030521
 21
35.88193873593807
 31
0.0
 12
337.9903185363853
 22
33.38193873593807
 32
0.0
 13
337.9903185363853
 23
33.38193873593807
 33
0.0
  0
MTEXT
  5
3E6
330
3E0
100
AcDbEntity
  8
0
 62
     3
100
AcDbMText
 10
335.4903185363853
 20
63.32753732609081
 30
0.0
 40
3.0
 41
0.0
 71
     5
 72
     1
  1
\A1;%%C60
 11
0.0000000000000001
 21
1.0
 31
0.0
1001
ACAD
1000
MTEXTBEGIN
1070
    73
1070
     1
1070
    44
1040
1.0
1070
    74
1070
     0
1000
MTEXTEND
1000
MTEXTBEGIN
1070
    73
1070
     1
1070
    44
1040
1.0
1070
    74
1070
     0
1000
MTEXTEND
1000
MTEXTBEGIN
1070
    73
1070
     1
1070
    44
1040
1.0
1070
    74
1070
     0
1000
MTEXTEND
  0
POINT
  5
3E7
330
3E0
100
AcDbEntity
  8
DEFPOINTS
 62
     0
100
AcDbPoint
 10
302.5726927259948
 20
93.38575408040924
 30
0.0
  0
POINT
  5
3E8
330
3E0
100
AcDbEntity
  8
DEFPOINTS
 62
     0
100
AcDbPoint
 10
302.5726927259948
 20
33.38193873593809
 30
0.0
  0
POINT
  5
3E9
330
3E0
100
AcDbEntity
  8
DEFPOINTS
 62
     0
100
AcDbPoint
 10
337.9903185363853
 20
33.38193873593807
 30
0.0
  0
ENDBLK
  5
3EB
330
3E0
100
AcDbEntity
  8
0
100
AcDbBlockEnd
  0
BLOCK
  5
3F6
330
3EC
100
AcDbEntity
  8
0
100
AcDbBlockBegin
  2
*D40
 70
     1
 10
0.0
 20
0.0
 30
0.0
  3
*D40
  1

  0
LINE
  5
3ED
330
3EC
100
AcDbEntity
  8
0
 62
   123
100
AcDbLine
 10
314.0723533210783
 20
86.88384640817414
 30
0.0
 11
328.7538468467843
 21
86.88384640817414
 31
0.0
  0
LINE
  5
3EE
330
3EC
100
AcDbEntity
  8
0
 62
   123
100
AcDbLine
 10
314.0723533210783
 20
39.88384640817228
 30
0.0
 11
328.7538468467843
 21
39.88384640817228
 31
0.0
  0
LINE
  5
3EF
330
3EC
100
AcDbEntity
  8
0
 62
   123
100
AcDbLine
 10
328.1538468467843
 20
84.38384640817412
 30
0.0
 11
328.1538468467843
 21
42.38384640817229
 31
0.0
  0
SOLID
  5
3F0
330
3EC
100
AcDbEntity
  8
0
 62
   123
100
AcDbTrace
 10
327.7371801801176
 20
84.38384640817412
 30
0.0
 11
328.5705135134508
 21
84.38384640817412
 31
0.0
 12
328.1538468467843
 22
86.88384640817414
 32
0.0
 13
328.1538468467843
 23
86.88384640817414
 33
0.0
  0
SOLID
  5
3F1
330
3EC
100
AcDbEntity
  8
0
 62
   123
100
AcDbTrace
 10
327.7371801801176
 20
42.38384640817229
 30
0.0
 11
328.5705135134508
 21
42.38384640817229
 31
0.0
 12
328.1538468467843
 22
39.88384640817228
 32
0.0
 13
328.1538468467843
 23
39.88384640817228
 33
0.0
  0
MTEXT
  5
3F2
330
3EC
100
AcDbEntity
  8
0
 62
     3
100
AcDbMText
 10
325.6538468467843
 20
61.09009640817339
 30
0.0
 40
3.0
 41
0.0
 71
     5
 72
     1
  1
\A1;%%C47
 11
0.0000000000000001
 21
1.0
 31
0.0
1001
ACAD
1000
MTEXTBEGIN
1070
    73
1070
     1
1070
    44
1040
1.0
1070
    74
1070
     0
1000
MTEXTEND
1000
MTEXTBEGIN
1070
    73
1070
     1
1070
    44
1040
1.0
1070
    74
1070
     0
1000
MTEXTEND
1000
MTEXTBEGIN
1070
    73
1070
     1
1070
    44
1040
1.0
1070
    74
1070
     0
1000
MTEXTEND
  0
POINT
  5
3F3
330
3EC
100
AcDbEntity
  8
DEFPOINTS
 62
     0
100
AcDbPoint
 10
313.0723533210785
 20
86.88384640817414
 30
0.0
  0
POINT
  5
3F4
330
3EC
100
AcDbEntity
  8
DEFPOINTS
 62
     0
100
AcDbPoint
 10
313.0723533210785
 20
39.88384640817228
 30
0.0
  0
POINT
  5
3F5
330
3EC
100
AcDbEntity
  8
DEFPOINTS
 62
     0
100
AcDbPoint
 10
328.1538468467843
 20
39.88384640817228
 30
0.0
  0
ENDBLK
  5
3F7
330
3EC
100
AcDbEntity
  8
0
100
AcDbBlockEnd
  0
BLOCK
  5
404
330
3F8
100
AcDbEntity
  8
0
100
AcDbBlockBegin
  2
*D41
 70
     1
 10
0.0
 20
0.0
 30
0.0
  3
*D41
  1

  0
LINE
  5
3F9
330
3F8
100
AcDbEntity
  8
0
 62
   123
100
AcDbLine
 10
118.0723533210855
 20
76.38384640817228
 30
0.0
 11
105.5995508115068
 21
76.38384640817228
 31
0.0
  0
LINE
  5
3FA
330
3F8
100
AcDbEntity
  8
0
 62
   123
100
AcDbLine
 10
118.0723533210855
 20
69.38384640817229
 30
0.0
 11
105.5995508115068
 21
69.38384640817229
 31
0.0
  0
LINE
  5
3FB
330
3F8
100
AcDbEntity
  8
0
 62
   123
100
AcDbLine
 10
106.1995508115068
 20
66.88384640817229
 30
0.0
 11
106.1995508115068
 21
64.38384640817229
 31
0.0
  0
LINE
  5
3FC
330
3F8
100
AcDbEntity
  8
0
 62
   123
100
AcDbLine
 10
106.1995508115068
 20
78.88384640817228
 30
0.0
 11
106.1995508115068
 21
93.68384640817314
 31
0.0
  0
LINE
  5
3FD
330
3F8
100
AcDbEntity
  8
0
 62
   123
100
AcDbLine
 10
106.1995508115068
 20
69.38384640817229
 30
0.0
 11
106.1995508115068
 21
76.38384640817228
 31
0.0
  0
SOLID
  5
3FE
330
3F8
100
AcDbEntity
  8
0
 62
   123
100
AcDbTrace
 10
105.7828841448402
 20
66.88384640817229
 30
0.0
 11
106.6162174781736
 21
66.88384640817229
 31
0.0
 12
106.1995508115068
 22
69.38384640817229
 32
0.0
 13
106.1995508115068
 23
69.38384640817229
 33
0.0
  0
SOLID
  5
3FF
330
3F8
100
AcDbEntity
  8
0
 62
   123
100
AcDbTrace
 10
105.7828841448402
 20
78.88384640817228
 30
0.0
 11
106.6162174781736
 21
78.88384640817228
 31
0.0
 12
106.1995508115068
 22
76.38384640817228
 32
0.0
 13
106.1995508115068
 23
76.38384640817228
 33
0.0
  0
MTEXT
  5
400
330
3F8
100
AcDbEntity
  8
0
 62
     3
100
AcDbMText
 10
103.6995508115069
 20
91.68384640817317
 30
0.0
 40
3.0
 41
0.0
 71
     5
 72
     1
  1
\A1;7
 11
0.0000000000000001
 21
1.0
 31
0.0
1001
ACAD
1000
MTEXTBEGIN
1070
    73
1070
     1
1070
    44
1040
1.0
1070
    74
1070
     0
1000
MTEXTEND
1000
MTEXTBEGIN
1070
    73
1070
     1
1070
    44
1040
1.0
1070
    74
1070
     0
1000
MTEXTEND
1000
MTEXTBEGIN
1070
    73
1070
     1
1070
    44
1040
1.0
1070
    74
1070
     0
1000
MTEXTEND
  0
POINT
  5
401
330
3F8
100
AcDbEntity
  8
DEFPOINTS
 62
     0
100
AcDbPoint
 10
119.0723533210855
 20
76.38384640817228
 30
0.0
  0
POINT
  5
402
330
3F8
100
AcDbEntity
  8
DEFPOINTS
 62
     0
100
AcDbPoint
 10
119.0723533210855
 20
69.38384640817229
 30
0.0
  0
POINT
  5
403
330
3F8
100
AcDbEntity
  8
DEFPOINTS
 62
     0
100
AcDbPoint
 10
106.1995508115068
 20
69.38384640817229
 30
0.0
  0
ENDBLK
  5
405
330
3F8
100
AcDbEntity
  8
0
100
AcDbBlockEnd
  0
BLOCK
  5
412
330
406
100
AcDbEntity
  8
0
100
AcDbBlockBegin
  2
*D42
 70
     1
 10
0.0
 20
0.0
 30
0.0
  3
*D42
  1

  0
LINE
  5
407
330
406
100
AcDbEntity
  8
DIM
 62
   123
100
AcDbLine
 10
118.0723533210855
 20
69.38384640817229
 30
0.0
 11
97.00293096629723
 21
69.38384640817229
 31
0.0
  0
LINE
  5
408
330
406
100
AcDbEntity
  8
DIM
 62
   123
100
AcDbLine
 10
130.0723533210857
 20
77.38384640817229
 30
0.0
 11
97.00293096629723
 21
77.38384640817229
 31
0.0
  0
LINE
  5
409
330
406
100
AcDbEntity
  8
DIM
 62
   123
100
AcDbLine
 10
97.60293096629723
 20
66.88384640817229
 30
0.0
 11
97.60293096629723
 21
64.38384640817229
 31
0.0
  0
LINE
  5
40A
330
406
100
AcDbEntity
  8
DIM
 62
   123
100
AcDbLine
 10
97.60293096629723
 20
79.88384640817229
 30
0.0
 11
97.60293096629723
 21
114.8971803361253
 31
0.0
  0
LINE
  5
40B
330
406
100
AcDbEntity
  8
DIM
 62
   123
100
AcDbLine
 10
97.60293096629723
 20
69.38384640817229
 30
0.0
 11
97.60293096629723
 21
77.38384640817229
 31
0.0
  0
SOLID
  5
40C
330
406
100
AcDbEntity
  8
DIM
 62
   123
100
AcDbTrace
 10
97.18626429963057
 20
66.88384640817229
 30
0.0
 11
98.01959763296387
 21
66.88384640817229
 31
0.0
 12
97.60293096629723
 22
69.38384640817229
 32
0.0
 13
97.60293096629723
 23
69.38384640817229
 33
0.0
  0
SOLID
  5
40D
330
406
100
AcDbEntity
  8
DIM
 62
   123
100
AcDbTrace
 10
97.18626429963057
 20
79.88384640817229
 30
0.0
 11
98.01959763296387
 21
79.88384640817229
 31
0.0
 12
97.60293096629723
 22
77.38384640817229
 32
0.0
 13
97.60293096629723
 23
77.38384640817229
 33
0.0
  0
MTEXT
  5
40E
330
406
100
AcDbEntity
  8
DIM
 62
     3
100
AcDbMText
 10
93.65278096629721
 20
101.2244660504109
 30
0.0
 40
3.0
 41
0.0
 71
     5
 72
     1
  1
\A1;\A1;{\f??|b0|i0|c0|p49;%%C8\H0.7x;\S+0^ -0.015;\H1.429x;(h7)}
 11
0.0000000000000001
 21
1.0
 31
0.0
1001
ACAD
1000
MTEXTBEGIN
1070
    73
1070
     1
1070
    44
1040
1.0
1070
    74
1070
     0
1000
MTEXTEND
1000
MTEXTBEGIN
1070
    73
1070
     1
1070
    44
1040
1.0
1070
    74
1070
     0
1000
MTEXTEND
1000
MTEXTBEGIN
1070
    73
1070
     1
1070
    44
1040
1.0
1070
    74
1070
     0
1000
MTEXTEND
  0
POINT
  5
40F
330
406
100
AcDbEntity
  8
DEFPOINTS
 62
     0
100
AcDbPoint
 10
119.0723533210855
 20
69.38384640817229
 30
0.0
  0
POINT
  5
410
330
406
100
AcDbEntity
  8
DEFPOINTS
 62
     0
100
AcDbPoint
 10
131.0723533210857
 20
77.38384640817229
 30
0.0
  0
POINT
  5
411
330
406
100
AcDbEntity
  8
DEFPOINTS
 62
     0
100
AcDbPoint
 10
97.60293096629723
 20
77.38384640817229
 30
0.0
  0
ENDBLK
  5
413
330
406
100
AcDbEntity
  8
0
100
AcDbBlockEnd
  0
BLOCK
  5
41E
330
414
100
AcDbEntity
  8
0
100
AcDbBlockBegin
  2
*D43
 70
     1
 10
0.0
 20
0.0
 30
0.0
  3
*D43
  1

  0
LINE
  5
415
330
414
100
AcDbEntity
  8
0
 62
   123
100
AcDbLine
 10
191.0723533210784
 20
119.6670233721411
 30
0.0
 11
191.0723533210784
 21
119.2670233721411
 31
0.0
  0
LINE
  5
416
330
414
100
AcDbEntity
  8
0
 62
   123
100
AcDbLine
 10
304.0723533210783
 20
92.85384640817325
 30
0.0
 11
304.0723533210783
 21
119.2670233721411
 31
0.0
  0
LINE
  5
417
330
414
100
AcDbEntity
  8
0
 62
   123
100
AcDbLine
 10
193.5723533210784
 20
118.6670233721411
 30
0.0
 11
301.5723533210783
 21
118.6670233721411
 31
0.0
  0
SOLID
  5
418
330
414
100
AcDbEntity
  8
0
 62
   123
100
AcDbTrace
 10
193.5723533210784
 20
119.0836900388076
 30
0.0
 11
193.5723533210784
 21
118.2503567054744
 31
0.0
 12
191.0723533210784
 22
118.6670233721411
 32
0.0
 13
191.0723533210784
 23
118.6670233721411
 33
0.0
  0
SOLID
  5
419
330
414
100
AcDbEntity
  8
0
 62
   123
100
AcDbTrace
 10
301.5723533210783
 20
119.0836900388076
 30
0.0
 11
301.5723533210783
 21
118.2503567054744
 31
0.0
 12
304.0723533210783
 22
118.6670233721411
 32
0.0
 13
304.0723533210783
 23
118.6670233721411
 33
0.0
  0
MTEXT
  5
41A
330
414
100
AcDbEntity
  8
0
 62
     3
100
AcDbMText
 10
247.5723533210784
 20
121.167023372141
 30
0.0
 40
3.0
 41
0.0
 71
     5
 72
     1
  1
\A1;113
1001
ACAD
1000
MTEXTBEGIN
1070
    73
1070
     1
1070
    44
1040
1.0
1070
    74
1070
     0
1000
MTEXTEND
1000
MTEXTBEGIN
1070
    73
1070
     1
1070
    44
1040
1.0
1070
    74
1070
     0
1000
MTEXTEND
1000
MTEXTBEGIN
1070
    73
1070
     1
1070
    44
1040
1.0
1070
    74
1070
     0
1000
MTEXTEND
  0
POINT
  5
41B
330
414
100
AcDbEntity
  8
DEFPOINTS
 62
     0
100
AcDbPoint
 10
191.0723533210784
 20
118.6670233721411
 30
0.0
  0
POINT
  5
41C
330
414
100
AcDbEntity
  8
DEFPOINTS
 62
     0
100
AcDbPoint
 10
304.0723533210783
 20
91.85384640817323
 30
0.0
  0
POINT
  5
41D
330
414
100
AcDbEntity
  8
DEFPOINTS
 62
     0
100
AcDbPoint
 10
304.0723533210783
 20
118.6670233721411
 30
0.0
  0
ENDBLK
  5
41F
330
414
100
AcDbEntity
  8
0
100
AcDbBlockEnd
  0
BLOCK
  5
42C
330
420
100
AcDbEntity
  8
0
100
AcDbBlockBegin
  2
*D44
 70
     1
 10
0.0
 20
0.0
 30
0.0
  3
*D44
  1

  0
LINE
  5
421
330
420
100
AcDbEntity
  8
0
 62
   123
100
AcDbLine
 10
148.0723533210855
 20
85.88384640817229
 30
0.0
 11
148.0723533210855
 21
105.9863453213789
 31
0.0
  0
LINE
  5
422
330
420
100
AcDbEntity
  8
0
 62
   123
100
AcDbLine
 10
151.0723533210855
 20
93.8838464081723
 30
0.0
 11
151.0723533210855
 21
105.9863453213789
 31
0.0
  0
LINE
  5
423
330
420
100
AcDbEntity
  8
0
 62
   123
100
AcDbLine
 10
145.5723533210855
 20
105.386345321379
 30
0.0
 11
143.0723533210855
 21
105.386345321379
 31
0.0
  0
LINE
  5
424
330
420
100
AcDbEntity
  8
0
 62
   123
100
AcDbLine
 10
153.5723533210855
 20
105.386345321379
 30
0.0
 11
156.0723533210856
 21
105.386345321379
 31
0.0
  0
LINE
  5
425
330
420
100
AcDbEntity
  8
0
 62
   123
100
AcDbLine
 10
148.0723533210855
 20
105.386345321379
 30
0.0
 11
151.0723533210855
 21
105.386345321379
 31
0.0
  0
SOLID
  5
426
330
420
100
AcDbEntity
  8
0
 62
   123
100
AcDbTrace
 10
145.5723533210855
 20
105.8030119880457
 30
0.0
 11
145.5723533210855
 21
104.9696786547124
 31
0.0
 12
148.0723533210855
 22
105.386345321379
 32
0.0
 13
148.0723533210855
 23
105.386345321379
 33
0.0
  0
SOLID
  5
427
330
420
100
AcDbEntity
  8
0
 62
   123
100
AcDbTrace
 10
153.5723533210855
 20
105.8030119880457
 30
0.0
 11
153.5723533210855
 21
104.9696786547124
 31
0.0
 12
151.0723533210855
 22
105.386345321379
 32
0.0
 13
151.0723533210855
 23
105.386345321379
 33
0.0
  0
MTEXT
  5
428
330
420
100
AcDbEntity
  8
0
 62
     3
100
AcDbMText
 10
149.5723533210855
 20
107.8863453213791
 30
0.0
 40
3.0
 41
0.0
 71
     5
 72
     1
  1
\A1;3
1001
ACAD
1000
MTEXTBEGIN
1070
    73
1070
     1
1070
    44
1040
1.0
1070
    74
1070
     0
1000
MTEXTEND
1000
MTEXTBEGIN
1070
    73
1070
     1
1070
    44
1040
1.0
1070
    74
1070
     0
1000
MTEXTEND
1000
MTEXTBEGIN
1070
    73
1070
     1
1070
    44
1040
1.0
1070
    74
1070
     0
1000
MTEXTEND
  0
POINT
  5
429
330
420
100
AcDbEntity
  8
DEFPOINTS
 62
     0
100
AcDbPoint
 10
148.0723533210855
 20
84.88384640817228
 30
0.0
  0
POINT
  5
42A
330
420
100
AcDbEntity
  8
DEFPOINTS
 62
     0
100
AcDbPoint
 10
151.0723533210855
 20
92.88384640817232
 30
0.0
  0
POINT
  5
42B
330
420
100
AcDbEntity
  8
DEFPOINTS
 62
     0
100
AcDbPoint
 10
151.0723533210855
 20
105.386345321379
 30
0.0
  0
ENDBLK
  5
42D
330
420
100
AcDbEntity
  8
0
100
AcDbBlockEnd
  0
BLOCK
  5
438
330
42E
100
AcDbEntity
  8
0
100
AcDbBlockBegin
  2
*D45
 70
     1
 10
0.0
 20
0.0
 30
0.0
  3
*D45
  1

  0
LINE
  5
42F
330
42E
100
AcDbEntity
  8
0
 62
   123
100
AcDbLine
 10
119.0723533210855
 20
77.38384640817229
 30
0.0
 11
119.0723533210855
 21
91.01168333523522
 31
0.0
  0
LINE
  5
430
330
42E
100
AcDbEntity
  8
0
 62
   123
100
AcDbLine
 10
131.0723533210857
 20
78.38384640817229
 30
0.0
 11
131.0723533210857
 21
91.01168333523522
 31
0.0
  0
LINE
  5
431
330
42E
100
AcDbEntity
  8
0
 62
   123
100
AcDbLine
 10
121.5723533210857
 20
90.41168333523524
 30
0.0
 11
128.5723533210855
 21
90.41168333523524
 31
0.0
  0
SOLID
  5
432
330
42E
100
AcDbEntity
  8
0
 62
   123
100
AcDbTrace
 10
121.5723533210857
 20
90.82835000190192
 30
0.0
 11
121.5723533210857
 21
89.99501666856856
 31
0.0
 12
119.0723533210855
 22
90.41168333523524
 32
0.0
 13
119.0723533210855
 23
90.41168333523524
 33
0.0
  0
SOLID
  5
433
330
42E
100
AcDbEntity
  8
0
 62
   123
100
AcDbTrace
 10
128.5723533210855
 20
90.82835000190192
 30
0.0
 11
128.5723533210855
 21
89.99501666856856
 31
0.0
 12
131.0723533210857
 22
90.41168333523524
 32
0.0
 13
131.0723533210857
 23
90.41168333523524
 33
0.0
  0
MTEXT
  5
434
330
42E
100
AcDbEntity
  8
0
 62
     3
100
AcDbMText
 10
125.0723533210857
 20
92.91168333523524
 30
0.0
 40
3.0
 41
0.0
 71
     5
 72
     1
  1
\A1;12
1001
ACAD
1000
MTEXTBEGIN
1070
    73
1070
     1
1070
    44
1040
1.0
1070
    74
1070
     0
1000
MTEXTEND
1000
MTEXTBEGIN
1070
    73
1070
     1
1070
    44
1040
1.0
1070
    74
1070
     0
1000
MTEXTEND
1000
MTEXTBEGIN
1070
    73
1070
     1
1070
    44
1040
1.0
1070
    74
1070
     0
1000
MTEXTEND
  0
POINT
  5
435
330
42E
100
AcDbEntity
  8
DEFPOINTS
 62
     0
100
AcDbPoint
 10
119.0723533210855
 20
76.38384640817228
 30
0.0
  0
POINT
  5
436
330
42E
100
AcDbEntity
  8
DEFPOINTS
 62
     0
100
AcDbPoint
 10
131.0723533210857
 20
77.38384640817229
 30
0.0
  0
POINT
  5
437
330
42E
100
AcDbEntity
  8
DEFPOINTS
 62
     0
100
AcDbPoint
 10
131.0723533210857
 20
90.41168333523524
 30
0.0
  0
ENDBLK
  5
439
330
42E
100
AcDbEntity
  8
0
100
AcDbBlockEnd
  0
BLOCK
  5
444
330
43A
100
AcDbEntity
  8
0
100
AcDbBlockBegin
  2
*D46
 70
     1
 10
0.0
 20
0.0
 30
0.0
  3
*D46
  1

  0
LINE
  5
43B
330
43A
100
AcDbEntity
  8
0
 62
   123
100
AcDbLine
 10
191.0723533210784
 20
94.38384640817414
 30
0.0
 11
191.0723533210784
 21
107.5742403652651
 31
0.0
  0
LINE
  5
43C
330
43A
100
AcDbEntity
  8
0
 62
   123
100
AcDbLine
 10
198.0723533210784
 20
92.98258374970215
 30
0.0
 11
198.0723533210784
 21
107.5742403652651
 31
0.0
  0
LINE
  5
43D
330
43A
100
AcDbEntity
  8
0
 62
   123
100
AcDbLine
 10
193.5723533210784
 20
106.9742403652651
 30
0.0
 11
195.5723533210784
 21
106.9742403652651
 31
0.0
  0
SOLID
  5
43E
330
43A
100
AcDbEntity
  8
0
 62
   123
100
AcDbTrace
 10
193.5723533210784
 20
107.3909070319318
 30
0.0
 11
193.5723533210784
 21
106.5575736985982
 31
0.0
 12
191.0723533210784
 22
106.9742403652651
 32
0.0
 13
191.0723533210784
 23
106.9742403652651
 33
0.0
  0
SOLID
  5
43F
330
43A
100
AcDbEntity
  8
0
 62
   123
100
AcDbTrace
 10
195.5723533210784
 20
107.3909070319318
 30
0.0
 11
195.5723533210784
 21
106.5575736985982
 31
0.0
 12
198.0723533210784
 22
106.9742403652651
 32
0.0
 13
198.0723533210784
 23
106.9742403652651
 33
0.0
  0
MTEXT
  5
440
330
43A
100
AcDbEntity
  8
0
 62
     3
100
AcDbMText
 10
194.5723533210784
 20
109.474240365265
 30
0.0
 40
3.0
 41
0.0
 71
     5
 72
     1
  1
\A1;7
1001
ACAD
1000
MTEXTBEGIN
1070
    73
1070
     1
1070
    44
1040
1.0
1070
    74
1070
     0
1000
MTEXTEND
1000
MTEXTBEGIN
1070
    73
1070
     1
1070
    44
1040
1.0
1070
    74
1070
     0
1000
MTEXTEND
1000
MTEXTBEGIN
1070
    73
1070
     1
1070
    44
1040
1.0
1070
    74
1070
     0
1000
MTEXTEND
  0
POINT
  5
441
330
43A
100
AcDbEntity
  8
DEFPOINTS
 62
     0
100
AcDbPoint
 10
191.0723533210784
 20
93.38384640817414
 30
0.0
  0
POINT
  5
442
330
43A
100
AcDbEntity
  8
DEFPOINTS
 62
     0
100
AcDbPoint
 10
198.0723533210784
 20
91.98258374970214
 30
0.0
  0
POINT
  5
443
330
43A
100
AcDbEntity
  8
DEFPOINTS
 62
     0
100
AcDbPoint
 10
198.0723533210784
 20
106.9742403652651
 30
0.0
  0
ENDBLK
  5
445
330
43A
100
AcDbEntity
  8
0
100
AcDbBlockEnd
  0
BLOCK
  5
450
330
446
100
AcDbEntity
  8
0
100
AcDbBlockBegin
  2
*D47
 70
     1
 10
0.0
 20
0.0
 30
0.0
  3
*D47
  1

  0
LINE
  5
447
330
446
100
AcDbEntity
  8
0
 62
   123
100
AcDbLine
 10
119.0723533210855
 20
77.38384640817229
 30
0.0
 11
119.0723533210855
 21
119.2670233721411
 31
0.0
  0
LINE
  5
448
330
446
100
AcDbEntity
  8
0
 62
   123
100
AcDbLine
 10
151.0723533210855
 20
93.8838464081723
 30
0.0
 11
151.0723533210855
 21
119.2670233721411
 31
0.0
  0
LINE
  5
449
330
446
100
AcDbEntity
  8
0
 62
   123
100
AcDbLine
 10
121.5723533210857
 20
118.6670233721411
 30
0.0
 11
148.5723533210855
 21
118.6670233721411
 31
0.0
  0
SOLID
  5
44A
330
446
100
AcDbEntity
  8
0
 62
   123
100
AcDbTrace
 10
121.5723533210857
 20
119.0836900388076
 30
0.0
 11
121.5723533210857
 21
118.2503567054744
 31
0.0
 12
119.0723533210855
 22
118.6670233721411
 32
0.0
 13
119.0723533210855
 23
118.6670233721411
 33
0.0
  0
SOLID
  5
44B
330
446
100
AcDbEntity
  8
0
 62
   123
100
AcDbTrace
 10
148.5723533210855
 20
119.0836900388076
 30
0.0
 11
148.5723533210855
 21
118.2503567054744
 31
0.0
 12
151.0723533210855
 22
118.6670233721411
 32
0.0
 13
151.0723533210855
 23
118.6670233721411
 33
0.0
  0
MTEXT
  5
44C
330
446
100
AcDbEntity
  8
0
 62
     3
100
AcDbMText
 10
135.0723533210766
 20
121.167023372141
 30
0.0
 40
3.0
 41
0.0
 71
     5
 72
     1
  1
\A1;32
1001
ACAD
1000
MTEXTBEGIN
1070
    73
1070
     1
1070
    44
1040
1.0
1070
    74
1070
     0
1000
MTEXTEND
1000
MTEXTBEGIN
1070
    73
1070
     1
1070
    44
1040
1.0
1070
    74
1070
     0
1000
MTEXTEND
1000
MTEXTBEGIN
1070
    73
1070
     1
1070
    44
1040
1.0
1070
    74
1070
     0
1000
MTEXTEND
  0
POINT
  5
44D
330
446
100
AcDbEntity
  8
DEFPOINTS
 62
     0
100
AcDbPoint
 10
119.0723533210855
 20
76.38384640817228
 30
0.0
  0
POINT
  5
44E
330
446
100
AcDbEntity
  8
DEFPOINTS
 62
     0
100
AcDbPoint
 10
151.0723533210855
 20
92.88384640817232
 30
0.0
  0
POINT
  5
44F
330
446
100
AcDbEntity
  8
DEFPOINTS
 62
     0
100
AcDbPoint
 10
151.0723533210855
 20
118.6670233721411
 30
0.0
  0
ENDBLK
  5
451
330
446
100
AcDbEntity
  8
0
100
AcDbBlockEnd
  0
BLOCK
  5
45C
330
452
100
AcDbEntity
  8
0
100
AcDbBlockBegin
  2
*D48
 70
     1
 10
0.0
 20
0.0
 30
0.0
  3
*D48
  1

  0
LINE
  5
453
330
452
100
AcDbEntity
  8
0
 62
   123
100
AcDbLine
 10
151.0723533210855
 20
93.8838464081723
 30
0.0
 11
151.0723533210855
 21
119.2670233721411
 31
0.0
  0
LINE
  5
454
330
452
100
AcDbEntity
  8
0
 62
   123
100
AcDbLine
 10
191.0723533210784
 20
94.38384640817414
 30
0.0
 11
191.0723533210784
 21
119.2670233721411
 31
0.0
  0
LINE
  5
455
330
452
100
AcDbEntity
  8
0
 62
   123
100
AcDbLine
 10
153.5723533210855
 20
118.6670233721411
 30
0.0
 11
188.5723533210784
 21
118.6670233721411
 31
0.0
  0
SOLID
  5
456
330
452
100
AcDbEntity
  8
0
 62
   123
100
AcDbTrace
 10
153.5723533210855
 20
119.0836900388076
 30
0.0
 11
153.5723533210855
 21
118.2503567054744
 31
0.0
 12
151.0723533210855
 22
118.6670233721411
 32
0.0
 13
151.0723533210855
 23
118.6670233721411
 33
0.0
  0
SOLID
  5
457
330
452
100
AcDbEntity
  8
0
 62
   123
100
AcDbTrace
 10
188.5723533210784
 20
119.0836900388076
 30
0.0
 11
188.5723533210784
 21
118.2503567054744
 31
0.0
 12
191.0723533210784
 22
118.6670233721411
 32
0.0
 13
191.0723533210784
 23
118.6670233721411
 33
0.0
  0
MTEXT
  5
458
330
452
100
AcDbEntity
  8
0
 62
     3
100
AcDbMText
 10
171.0723533210784
 20
121.167023372141
 30
0.0
 40
3.0
 41
0.0
 71
     5
 72
     1
  1
\A1;L
1001
ACAD
1000
MTEXTBEGIN
1070
    73
1070
     1
1070
    44
1040
1.0
1070
    74
1070
     0
1000
MTEXTEND
1000
MTEXTBEGIN
1070
    73
1070
     1
1070
    44
1040
1.0
1070
    74
1070
     0
1000
MTEXTEND
1000
MTEXTBEGIN
1070
    73
1070
     1
1070
    44
1040
1.0
1070
    74
1070
     0
1000
MTEXTEND
  0
POINT
  5
459
330
452
100
AcDbEntity
  8
DEFPOINTS
 62
     0
100
AcDbPoint
 10
151.0723533210855
 20
92.88384640817232
 30
0.0
  0
POINT
  5
45A
330
452
100
AcDbEntity
  8
DEFPOINTS
 62
     0
100
AcDbPoint
 10
191.0723533210784
 20
93.38384640817414
 30
0.0
  0
POINT
  5
45B
330
452
100
AcDbEntity
  8
DEFPOINTS
 62
     0
100
AcDbPoint
 10
191.0723533210784
 20
118.6670233721411
 30
0.0
  0
ENDBLK
  5
45D
330
452
100
AcDbEntity
  8
0
100
AcDbBlockEnd
  0
BLOCK
  5
468
330
45E
100
AcDbEntity
  8
0
100
AcDbBlockBegin
  2
*D49
 70
     1
 10
0.0
 20
0.0
 30
0.0
  3
*D49
  1

  0
LINE
  5
45F
330
45E
100
AcDbEntity
  8
0
 62
   123
100
AcDbLine
 10
304.0723533210783
 20
92.6338464081723
 30
0.0
 11
304.0723533210783
 21
119.2670233721411
 31
0.0
  0
LINE
  5
460
330
45E
100
AcDbEntity
  8
0
 62
   123
100
AcDbLine
 10
314.0723533210783
 20
86.88384640817231
 30
0.0
 11
314.0723533210783
 21
119.2670233721411
 31
0.0
  0
LINE
  5
461
330
45E
100
AcDbEntity
  8
0
 62
   123
100
AcDbLine
 10
306.5723533210785
 20
118.6670233721411
 30
0.0
 11
311.5723533210783
 21
118.6670233721411
 31
0.0
  0
SOLID
  5
462
330
45E
100
AcDbEntity
  8
0
 62
   123
100
AcDbTrace
 10
306.5723533210785
 20
119.0836900388076
 30
0.0
 11
306.5723533210785
 21
118.2503567054744
 31
0.0
 12
304.0723533210783
 22
118.6670233721411
 32
0.0
 13
304.0723533210783
 23
118.6670233721411
 33
0.0
  0
SOLID
  5
463
330
45E
100
AcDbEntity
  8
0
 62
   123
100
AcDbTrace
 10
311.5723533210783
 20
119.0836900388076
 30
0.0
 11
311.5723533210783
 21
118.2503567054744
 31
0.0
 12
314.0723533210783
 22
118.6670233721411
 32
0.0
 13
314.0723533210783
 23
118.6670233721411
 33
0.0
  0
MTEXT
  5
464
330
45E
100
AcDbEntity
  8
0
 62
     3
100
AcDbMText
 10
309.0723533210783
 20
121.167023372141
 30
0.0
 40
3.0
 41
0.0
 71
     5
 72
     1
  1
\A1;10
1001
ACAD
1000
MTEXTBEGIN
1070
    73
1070
     1
1070
    44
1040
1.0
1070
    74
1070
     0
1000
MTEXTEND
1000
MTEXTBEGIN
1070
    73
1070
     1
1070
    44
1040
1.0
1070
    74
1070
     0
1000
MTEXTEND
1000
MTEXTBEGIN
1070
    73
1070
     1
1070
    44
1040
1.0
1070
    74
1070
     0
1000
MTEXTEND
  0
POINT
  5
465
330
45E
100
AcDbEntity
  8
DEFPOINTS
 62
     0
100
AcDbPoint
 10
304.0723533210783
 20
91.63384640817232
 30
0.0
  0
POINT
  5
466
330
45E
100
AcDbEntity
  8
DEFPOINTS
 62
     0
100
AcDbPoint
 10
314.0723533210783
 20
85.88384640817229
 30
0.0
  0
POINT
  5
467
330
45E
100
AcDbEntity
  8
DEFPOINTS
 62
     0
100
AcDbPoint
 10
314.0723533210783
 20
118.6670233721411
 30
0.0
  0
ENDBLK
  5
469
330
45E
100
AcDbEntity
  8
0
100
AcDbBlockEnd
  0
BLOCK
  5
474
330
46A
100
AcDbEntity
  8
0
100
AcDbBlockBegin
  2
*D50
 70
     1
 10
0.0
 20
0.0
 30
0.0
  3
*D50
  1

  0
LINE
  5
46B
330
46A
100
AcDbEntity
  8
0
 62
   123
100
AcDbLine
 10
77.57766638544855
 20
219.6862334471761
 30
0.0
 11
77.57766638544855
 21
202.0579125267909
 31
0.0
  0
LINE
  5
46C
330
46A
100
AcDbEntity
  8
0
 62
   123
100
AcDbLine
 10
137.5776663854483
 20
219.6862334471761
 30
0.0
 11
137.5776663854483
 21
202.0579125267909
 31
0.0
  0
LINE
  5
46D
330
46A
100
AcDbEntity
  8
0
 62
   123
100
AcDbLine
 10
80.07766638544856
 20
202.657912526791
 30
0.0
 11
135.0776663854484
 21
202.657912526791
 31
0.0
  0
SOLID
  5
46E
330
46A
100
AcDbEntity
  8
0
 62
   123
100
AcDbTrace
 10
80.07766638544856
 20
203.0745791934577
 30
0.0
 11
80.07766638544856
 21
202.2412458601244
 31
0.0
 12
77.57766638544855
 22
202.657912526791
 32
0.0
 13
77.57766638544855
 23
202.657912526791
 33
0.0
  0
SOLID
  5
46F
330
46A
100
AcDbEntity
  8
0
 62
   123
100
AcDbTrace
 10
135.0776663854484
 20
203.0745791934577
 30
0.0
 11
135.0776663854484
 21
202.2412458601244
 31
0.0
 12
137.5776663854483
 22
202.657912526791
 32
0.0
 13
137.5776663854483
 23
202.657912526791
 33
0.0
  0
MTEXT
  5
470
330
46A
100
AcDbEntity
  8
0
 62
     3
100
AcDbMText
 10
109.6224128142984
 20
205.157912526791
 30
0.0
 40
3.0
 41
0.0
 71
     5
 72
     1
  1
\A1;60
1001
ACAD
1000
MTEXTBEGIN
1070
    73
1070
     1
1070
    44
1040
1.0
1070
    74
1070
     0
1000
MTEXTEND
1000
MTEXTBEGIN
1070
    73
1070
     1
1070
    44
1040
1.0
1070
    74
1070
     0
1000
MTEXTEND
1000
MTEXTBEGIN
1070
    73
1070
     1
1070
    44
1040
1.0
1070
    74
1070
     0
1000
MTEXTEND
  0
POINT
  5
471
330
46A
100
AcDbEntity
  8
DEFPOINTS
 62
     0
100
AcDbPoint
 10
77.57766638544855
 20
220.6862334471761
 30
0.0
  0
POINT
  5
472
330
46A
100
AcDbEntity
  8
DEFPOINTS
 62
     0
100
AcDbPoint
 10
137.5776663854483
 20
220.6862334471761
 30
0.0
  0
POINT
  5
473
330
46A
100
AcDbEntity
  8
DEFPOINTS
 62
     0
100
AcDbPoint
 10
137.5776663854483
 20
202.657912526791
 30
0.0
  0
ENDBLK
  5
475
330
46A
100
AcDbEntity
  8
0
100
AcDbBlockEnd
  0
BLOCK
  5
47F
330
476
100
AcDbEntity
  8
0
100
AcDbBlockBegin
  2
*D51
 70
     1
 10
0.0
 20
0.0
 30
0.0
  3
*D51
  1

  0
LINE
  5
477
330
476
100
AcDbEntity
  8
2
 62
   123
100
AcDbLine
 10
74.62780143316111
 20
227.7821445391535
 30
0.0
 11
72.43114376967558
 21
226.5885386119524
 31
0.0
  0
LINE
  5
478
330
476
100
AcDbEntity
  8
2
 62
   123
100
AcDbLine
 10
140.5275313377232
 20
263.5903223551931
 30
0.0
 11
166.1696975278239
 21
277.52360019796
 31
0.0
  0
LINE
  5
479
330
476
100
AcDbEntity
  8
2
 62
   123
100
AcDbLine
 10
76.82445909664664
 20
228.9757504663551
 30
0.0
 11
138.3308736742377
 21
262.3967164279918
 31
0.0
  0
SOLID
  5
47A
330
476
100
AcDbEntity
  8
2
 62
   123
100
AcDbTrace
 10
74.42886711196088
 20
228.1482541497346
 30
0.0
 11
74.82673575436134
 21
227.4160349285728
 31
0.0
 12
76.82445909664664
 22
228.9757504663551
 32
0.0
 13
76.82445909664664
 23
228.9757504663551
 33
0.0
  0
SOLID
  5
47B
330
476
100
AcDbEntity
  8
2
 62
   123
100
AcDbTrace
 10
140.328597016523
 20
263.9564319657742
 30
0.0
 11
140.7264656589233
 21
263.2242127446123
 31
0.0
 12
138.3308736742377
 22
262.3967164279918
 32
0.0
 13
138.3308736742377
 23
262.3967164279918
 33
0.0
  0
MTEXT
  5
47C
330
476
100
AcDbEntity
  8
2
 62
     3
100
AcDbMText
 10
156.0011760040959
 20
274.8435250731657
 30
0.0
 40
3.0
 41
0.0
 71
     5
 72
     1
  1
\A1;\U+220570%%P0.5
 11
0.8786630653942133
 21
0.4774423708805539
 31
0.0
1001
ACAD
1000
MTEXTBEGIN
1070
    73
1070
     1
1070
    44
1040
1.0
1070
    74
1070
     0
1000
MTEXTEND
1000
MTEXTBEGIN
1070
    73
1070
     1
1070
    44
1040
1.0
1070
    74
1070
     0
1000
MTEXTEND
1000
MTEXTBEGIN
1070
    73
1070
     1
1070
    44
1040
1.0
1070
    74
1070
     0
1000
MTEXTEND
  0
POINT
  5
47D
330
476
100
AcDbEntity
  8
DEFPOINTS
 62
     0
100
AcDbPoint
 10
138.3308736742377
 20
262.3967164279918
 30
0.0
  0
POINT
  5
47E
330
476
100
AcDbEntity
  8
DEFPOINTS
 62
     0
100
AcDbPoint
 10
76.82445909664664
 20
228.9757504663551
 30
0.0
  0
ENDBLK
  5
480
330
476
100
AcDbEntity
  8
0
100
AcDbBlockEnd
  0
BLOCK
  5
48B
330
481
100
AcDbEntity
  8
0
100
AcDbBlockBegin
  2
*D52
 70
     1
 10
0.0
 20
0.0
 30
0.0
  3
*D52
  1

  0
LINE
  5
482
330
481
100
AcDbEntity
  8
0
 62
   123
100
AcDbLine
 10
202.6792295548438
 20
250.6862334471761
 30
0.0
 11
202.6792295548438
 21
202.29021906555
 31
0.0
  0
LINE
  5
483
330
481
100
AcDbEntity
  8
0
 62
   123
100
AcDbLine
 10
234.6792295548439
 20
215.1862334471761
 30
0.0
 11
234.6792295548439
 21
202.29021906555
 31
0.0
  0
LINE
  5
484
330
481
100
AcDbEntity
  8
0
 62
   123
100
AcDbLine
 10
205.1792295548439
 20
202.89021906555
 30
0.0
 11
232.1792295548439
 21
202.89021906555
 31
0.0
  0
SOLID
  5
485
330
481
100
AcDbEntity
  8
0
 62
   123
100
AcDbTrace
 10
205.1792295548439
 20
203.3068857322168
 30
0.0
 11
205.1792295548439
 21
202.4735523988834
 31
0.0
 12
202.6792295548438
 22
202.89021906555
 32
0.0
 13
202.6792295548438
 23
202.89021906555
 33
0.0
  0
SOLID
  5
486
330
481
100
AcDbEntity
  8
0
 62
   123
100
AcDbTrace
 10
232.1792295548439
 20
203.3068857322168
 30
0.0
 11
232.1792295548439
 21
202.4735523988834
 31
0.0
 12
234.6792295548439
 22
202.89021906555
 32
0.0
 13
234.6792295548439
 23
202.89021906555
 33
0.0
  0
MTEXT
  5
487
330
481
100
AcDbEntity
  8
0
 62
     3
100
AcDbMText
 10
218.6792295548439
 20
205.39021906555
 30
0.0
 40
3.0
 41
0.0
 71
     5
 72
     1
  1
\A1;32
1001
ACAD
1000
MTEXTBEGIN
1070
    73
1070
     1
1070
    44
1040
1.0
1070
    74
1070
     0
1000
MTEXTEND
1000
MTEXTBEGIN
1070
    73
1070
     1
1070
    44
1040
1.0
1070
    74
1070
     0
1000
MTEXTEND
1000
MTEXTBEGIN
1070
    73
1070
     1
1070
    44
1040
1.0
1070
    74
1070
     0
1000
MTEXTEND
  0
POINT
  5
488
330
481
100
AcDbEntity
  8
DEFPOINTS
 62
     0
100
AcDbPoint
 10
202.6792295548438
 20
251.6862334471761
 30
0.0
  0
POINT
  5
489
330
481
100
AcDbEntity
  8
DEFPOINTS
 62
     0
100
AcDbPoint
 10
234.6792295548439
 20
216.1862334471761
 30
0.0
  0
POINT
  5
48A
330
481
100
AcDbEntity
  8
DEFPOINTS
 62
     0
100
AcDbPoint
 10
234.6792295548439
 20
202.89021906555
 30
0.0
  0
ENDBLK
  5
48C
330
481
100
AcDbEntity
  8
0
100
AcDbBlockEnd
  0
BLOCK
  5
497
330
48D
100
AcDbEntity
  8
0
100
AcDbBlockBegin
  2
*D53
 70
     1
 10
0.0
 20
0.0
 30
0.0
  3
*D53
  1

  0
LINE
  5
48E
330
48D
100
AcDbEntity
  8
0
 62
   123
100
AcDbLine
 10
274.6792295548439
 20
215.1862334471761
 30
0.0
 11
274.6792295548439
 21
202.29021906555
 31
0.0
  0
LINE
  5
48F
330
48D
100
AcDbEntity
  8
0
 62
   123
100
AcDbLine
 10
234.6792295548439
 20
215.1862334471761
 30
0.0
 11
234.6792295548439
 21
202.29021906555
 31
0.0
  0
LINE
  5
490
330
48D
100
AcDbEntity
  8
0
 62
   123
100
AcDbLine
 10
272.1792295548439
 20
202.89021906555
 30
0.0
 11
237.1792295548439
 21
202.89021906555
 31
0.0
  0
SOLID
  5
491
330
48D
100
AcDbEntity
  8
0
 62
   123
100
AcDbTrace
 10
272.1792295548439
 20
203.3068857322168
 30
0.0
 11
272.1792295548439
 21
202.4735523988834
 31
0.0
 12
274.6792295548439
 22
202.89021906555
 32
0.0
 13
274.6792295548439
 23
202.89021906555
 33
0.0
  0
SOLID
  5
492
330
48D
100
AcDbEntity
  8
0
 62
   123
100
AcDbTrace
 10
237.1792295548439
 20
203.3068857322168
 30
0.0
 11
237.1792295548439
 21
202.4735523988834
 31
0.0
 12
234.6792295548439
 22
202.89021906555
 32
0.0
 13
234.6792295548439
 23
202.89021906555
 33
0.0
  0
MTEXT
  5
493
330
48D
100
AcDbEntity
  8
0
 62
     3
100
AcDbMText
 10
254.6792295548439
 20
205.39021906555
 30
0.0
 40
3.0
 41
0.0
 71
     5
 72
     1
  1
\A1;L
1001
ACAD
1000
MTEXTBEGIN
1070
    73
1070
     1
1070
    44
1040
1.0
1070
    74
1070
     0
1000
MTEXTEND
1000
MTEXTBEGIN
1070
    73
1070
     1
1070
    44
1040
1.0
1070
    74
1070
     0
1000
MTEXTEND
1000
MTEXTBEGIN
1070
    73
1070
     1
1070
    44
1040
1.0
1070
    74
1070
     0
1000
MTEXTEND
  0
POINT
  5
494
330
48D
100
AcDbEntity
  8
DEFPOINTS
 62
     0
100
AcDbPoint
 10
274.6792295548439
 20
216.1862334471761
 30
0.0
  0
POINT
  5
495
330
48D
100
AcDbEntity
  8
DEFPOINTS
 62
     0
100
AcDbPoint
 10
234.6792295548439
 20
216.1862334471761
 30
0.0
  0
POINT
  5
496
330
48D
100
AcDbEntity
  8
DEFPOINTS
 62
     0
100
AcDbPoint
 10
234.6792295548439
 20
202.89021906555
 30
0.0
  0
ENDBLK
  5
498
330
48D
100
AcDbEntity
  8
0
100
AcDbBlockEnd
  0
BLOCK
  5
4A5
330
499
100
AcDbEntity
  8
0
100
AcDbBlockBegin
  2
*D54
 70
     1
 10
0.0
 20
0.0
 30
0.0
  3
*D54
  1

  0
LINE
  5
49A
330
499
100
AcDbEntity
  8
0
 62
   123
100
AcDbLine
 10
218.1792295548439
 20
251.6862334471761
 30
0.0
 11
222.7729548949079
 21
251.6862334471761
 31
0.0
  0
LINE
  5
49B
330
499
100
AcDbEntity
  8
0
 62
   123
100
AcDbLine
 10
215.6792295548439
 20
259.686233447175
 30
0.0
 11
222.7729548949079
 21
259.686233447175
 31
0.0
  0
LINE
  5
49C
330
499
100
AcDbEntity
  8
0
 62
   123
100
AcDbLine
 10
222.1729548949079
 20
249.1862334471761
 30
0.0
 11
222.1729548949079
 21
246.6862334471761
 31
0.0
  0
LINE
  5
49D
330
499
100
AcDbEntity
  8
0
 62
   123
100
AcDbLine
 10
222.1729548949079
 20
262.1862334471752
 30
0.0
 11
222.1729548949079
 21
302.0562366706315
 31
0.0
  0
LINE
  5
49E
330
499
100
AcDbEntity
  8
0
 62
   123
100
AcDbLine
 10
222.1729548949079
 20
251.6862334471761
 30
0.0
 11
222.1729548949079
 21
259.686233447175
 31
0.0
  0
SOLID
  5
49F
330
499
100
AcDbEntity
  8
0
 62
   123
100
AcDbTrace
 10
221.7562882282412
 20
249.1862334471761
 30
0.0
 11
222.5896215615745
 21
249.1862334471761
 31
0.0
 12
222.1729548949079
 22
251.6862334471761
 32
0.0
 13
222.1729548949079
 23
251.6862334471761
 33
0.0
  0
SOLID
  5
4A0
330
499
100
AcDbEntity
  8
0
 62
   123
100
AcDbTrace
 10
221.7562882282412
 20
262.1862334471752
 30
0.0
 11
222.5896215615745
 21
262.1862334471752
 31
0.0
 12
222.1729548949079
 22
259.686233447175
 32
0.0
 13
222.1729548949079
 23
259.686233447175
 33
0.0
  0
MTEXT
  5
4A1
330
499
100
AcDbEntity
  8
0
 62
     3
100
AcDbMText
 10
218.2228048949077
 20
288.3835223849171
 30
0.0
 40
3.0
 41
0.0
 71
     5
 72
     1
  1
\A1;\A1;{\f??|b0|i0|c0|p49;%%C8\H0.7x;\S+0^ -0.015;\H1.429x;(h7)}
 11
0.0000000000000001
 21
1.0
 31
0.0
1001
ACAD
1000
MTEXTBEGIN
1070
    73
1070
     1
1070
    44
1040
1.0
1070
    74
1070
     0
1000
MTEXTEND
1000
MTEXTBEGIN
1070
    73
1070
     1
1070
    44
1040
1.0
1070
    74
1070
     0
1000
MTEXTEND
1000
MTEXTBEGIN
1070
    73
1070
     1
1070
    44
1040
1.0
1070
    74
1070
     0
1000
MTEXTEND
  0
POINT
  5
4A2
330
499
100
AcDbEntity
  8
DEFPOINTS
 62
     0
100
AcDbPoint
 10
217.1792295548439
 20
251.6862334471761
 30
0.0
  0
POINT
  5
4A3
330
499
100
AcDbEntity
  8
DEFPOINTS
 62
     0
100
AcDbPoint
 10
214.6792295548439
 20
259.686233447175
 30
0.0
  0
POINT
  5
4A4
330
499
100
AcDbEntity
  8
DEFPOINTS
 62
     0
100
AcDbPoint
 10
222.1729548949079
 20
259.686233447175
 30
0.0
  0
ENDBLK
  5
4A6
330
499
100
AcDbEntity
  8
0
100
AcDbBlockEnd
  0
BLOCK
  5
4B1
330
4A7
100
AcDbEntity
  8
0
100
AcDbBlockBegin
  2
*D55
 70
     1
 10
0.0
 20
0.0
 30
0.0
  3
*D55
  1

  0
LINE
  5
4A8
330
4A7
100
AcDbEntity
  8
0
 62
   123
100
AcDbLine
 10
202.6792295548438
 20
259.686233447175
 30
0.0
 11
202.6792295548438
 21
273.3140703742368
 31
0.0
  0
LINE
  5
4A9
330
4A7
100
AcDbEntity
  8
0
 62
   123
100
AcDbLine
 10
214.6792295548439
 20
260.6862334471752
 30
0.0
 11
214.6792295548439
 21
273.3140703742368
 31
0.0
  0
LINE
  5
4AA
330
4A7
100
AcDbEntity
  8
0
 62
   123
100
AcDbLine
 10
205.1792295548439
 20
272.714070374237
 30
0.0
 11
212.1792295548439
 21
272.714070374237
 31
0.0
  0
SOLID
  5
4AB
330
4A7
100
AcDbEntity
  8
0
 62
   123
100
AcDbTrace
 10
205.1792295548439
 20
273.1307370409035
 30
0.0
 11
205.1792295548439
 21
272.2974037075703
 31
0.0
 12
202.6792295548438
 22
272.714070374237
 32
0.0
 13
202.6792295548438
 23
272.714070374237
 33
0.0
  0
SOLID
  5
4AC
330
4A7
100
AcDbEntity
  8
0
 62
   123
100
AcDbTrace
 10
212.1792295548439
 20
273.1307370409035
 30
0.0
 11
212.1792295548439
 21
272.2974037075703
 31
0.0
 12
214.6792295548439
 22
272.714070374237
 32
0.0
 13
214.6792295548439
 23
272.714070374237
 33
0.0
  0
MTEXT
  5
4AD
330
4A7
100
AcDbEntity
  8
0
 62
     3
100
AcDbMText
 10
208.6792295548439
 20
275.2140703742369
 30
0.0
 40
3.0
 41
0.0
 71
     5
 72
     1
  1
\A1;12
1001
ACAD
1000
MTEXTBEGIN
1070
    73
1070
     1
1070
    44
1040
1.0
1070
    74
1070
     0
1000
MTEXTEND
1000
MTEXTBEGIN
1070
    73
1070
     1
1070
    44
1040
1.0
1070
    74
1070
     0
1000
MTEXTEND
1000
MTEXTBEGIN
1070
    73
1070
     1
1070
    44
1040
1.0
1070
    74
1070
     0
1000
MTEXTEND
  0
POINT
  5
4AE
330
4A7
100
AcDbEntity
  8
DEFPOINTS
 62
     0
100
AcDbPoint
 10
202.6792295548438
 20
258.6862334471752
 30
0.0
  0
POINT
  5
4AF
330
4A7
100
AcDbEntity
  8
DEFPOINTS
 62
     0
100
AcDbPoint
 10
214.6792295548439
 20
259.686233447175
 30
0.0
  0
POINT
  5
4B0
330
4A7
100
AcDbEntity
  8
DEFPOINTS
 62
     0
100
AcDbPoint
 10
214.6792295548439
 20
272.714070374237
 30
0.0
  0
ENDBLK
  5
4B2
330
4A7
100
AcDbEntity
  8
0
100
AcDbBlockEnd
  0
BLOCK
  5
4BD
330
4B3
100
AcDbEntity
  8
0
100
AcDbBlockBegin
  2
*D56
 70
     1
 10
0.0
 20
0.0
 30
0.0
  3
*D56
  1

  0
LINE
  5
4B4
330
4B3
100
AcDbEntity
  8
0
 62
   123
100
AcDbLine
 10
231.1792295548439
 20
267.6862334471761
 30
0.0
 11
171.7685068169707
 21
267.6862334471761
 31
0.0
  0
LINE
  5
4B5
330
4B3
100
AcDbEntity
  8
0
 62
   123
100
AcDbLine
 10
231.1792295548439
 20
243.6862334471751
 30
0.0
 11
171.7685068169707
 21
243.6862334471753
 31
0.0
  0
LINE
  5
4B6
330
4B3
100
AcDbEntity
  8
0
 62
   123
100
AcDbLine
 10
172.3685068169706
 20
265.1862334471761
 30
0.0
 11
172.3685068169706
 21
246.1862334471751
 31
0.0
  0
SOLID
  5
4B7
330
4B3
100
AcDbEntity
  8
0
 62
   123
100
AcDbTrace
 10
171.9518401503039
 20
265.1862334471761
 30
0.0
 11
172.7851734836373
 21
265.1862334471761
 31
0.0
 12
172.3685068169706
 22
267.6862334471761
 32
0.0
 13
172.3685068169706
 23
267.6862334471761
 33
0.0
  0
SOLID
  5
4B8
330
4B3
100
AcDbEntity
  8
0
 62
   123
100
AcDbTrace
 10
171.9518401503039
 20
246.1862334471751
 30
0.0
 11
172.7851734836373
 21
246.1862334471751
 31
0.0
 12
172.3685068169706
 22
243.6862334471753
 32
0.0
 13
172.3685068169706
 23
243.6862334471753
 33
0.0
  0
MTEXT
  5
4B9
330
4B3
100
AcDbEntity
  8
0
 62
     3
100
AcDbMText
 10
169.8685068169706
 20
255.6862334471755
 30
0.0
 40
3.0
 41
0.0
 71
     5
 72
     1
  1
\A1;%%c24
 11
0.0000000000000001
 21
1.0
 31
0.0
1001
ACAD
1000
MTEXTBEGIN
1070
    73
1070
     1
1070
    44
1040
1.0
1070
    74
1070
     0
1000
MTEXTEND
1000
MTEXTBEGIN
1070
    73
1070
     1
1070
    44
1040
1.0
1070
    74
1070
     0
1000
MTEXTEND
1000
MTEXTBEGIN
1070
    73
1070
     1
1070
    44
1040
1.0
1070
    74
1070
     0
1000
MTEXTEND
  0
POINT
  5
4BA
330
4B3
100
AcDbEntity
  8
DEFPOINTS
 62
     0
100
AcDbPoint
 10
232.1792295548439
 20
267.6862334471761
 30
0.0
  0
POINT
  5
4BB
330
4B3
100
AcDbEntity
  8
DEFPOINTS
 62
     0
100
AcDbPoint
 10
232.1792295548439
 20
243.6862334471751
 30
0.0
  0
POINT
  5
4BC
330
4B3
100
AcDbEntity
  8
DEFPOINTS
 62
     0
100
AcDbPoint
 10
172.3685068169706
 20
243.6862334471753
 30
0.0
  0
ENDBLK
  5
4BE
330
4B3
100
AcDbEntity
  8
0
100
AcDbBlockEnd
  0
BLOCK
  5
4CB
330
4BF
100
AcDbEntity
  8
0
100
AcDbBlockBegin
  2
*D57
 70
     1
 10
0.0
 20
0.0
 30
0.0
  3
*D57
  1

  0
LINE
  5
4C0
330
4BF
100
AcDbEntity
  8
0
 62
   123
100
AcDbLine
 10
201.6792295548439
 20
258.6862334471752
 30
0.0
 11
189.2064270452669
 21
258.6862334471752
 31
0.0
  0
LINE
  5
4C1
330
4BF
100
AcDbEntity
  8
0
 62
   123
100
AcDbLine
 10
201.6792295548439
 20
251.6862334471761
 30
0.0
 11
189.2064270452669
 21
251.6862334471761
 31
0.0
  0
LINE
  5
4C2
330
4BF
100
AcDbEntity
  8
0
 62
   123
100
AcDbLine
 10
189.8064270452669
 20
249.1862334471761
 30
0.0
 11
189.8064270452669
 21
246.6862334471761
 31
0.0
  0
LINE
  5
4C3
330
4BF
100
AcDbEntity
  8
0
 62
   123
100
AcDbLine
 10
189.8064270452669
 20
261.1862334471751
 30
0.0
 11
189.8064270452669
 21
273.6862334471751
 31
0.0
  0
LINE
  5
4C4
330
4BF
100
AcDbEntity
  8
0
 62
   123
100
AcDbLine
 10
189.8064270452669
 20
251.6862334471761
 30
0.0
 11
189.8064270452669
 21
258.6862334471752
 31
0.0
  0
SOLID
  5
4C5
330
4BF
100
AcDbEntity
  8
0
 62
   123
100
AcDbTrace
 10
189.3897603786
 20
249.1862334471761
 30
0.0
 11
190.2230937119336
 21
249.1862334471761
 31
0.0
 12
189.8064270452669
 22
251.6862334471761
 32
0.0
 13
189.8064270452669
 23
251.6862334471761
 33
0.0
  0
SOLID
  5
4C6
330
4BF
100
AcDbEntity
  8
0
 62
   123
100
AcDbTrace
 10
189.3897603786
 20
261.1862334471751
 30
0.0
 11
190.2230937119336
 21
261.1862334471751
 31
0.0
 12
189.8064270452669
 22
258.6862334471752
 32
0.0
 13
189.8064270452669
 23
258.6862334471752
 33
0.0
  0
MTEXT
  5
4C7
330
4BF
100
AcDbEntity
  8
0
 62
     3
100
AcDbMText
 10
187.3064270452669
 20
271.6862334471751
 30
0.0
 40
3.0
 41
0.0
 71
     5
 72
     1
  1
\A1;7
 11
0.0000000000000001
 21
1.0
 31
0.0
1001
ACAD
1000
MTEXTBEGIN
1070
    73
1070
     1
1070
    44
1040
1.0
1070
    74
1070
     0
1000
MTEXTEND
1000
MTEXTBEGIN
1070
    73
1070
     1
1070
    44
1040
1.0
1070
    74
1070
     0
1000
MTEXTEND
1000
MTEXTBEGIN
1070
    73
1070
     1
1070
    44
1040
1.0
1070
    74
1070
     0
1000
MTEXTEND
  0
POINT
  5
4C8
330
4BF
100
AcDbEntity
  8
DEFPOINTS
 62
     0
100
AcDbPoint
 10
202.6792295548438
 20
258.6862334471752
 30
0.0
  0
POINT
  5
4C9
330
4BF
100
AcDbEntity
  8
DEFPOINTS
 62
     0
100
AcDbPoint
 10
202.6792295548438
 20
251.6862334471761
 30
0.0
  0
POINT
  5
4CA
330
4BF
100
AcDbEntity
  8
DEFPOINTS
 62
     0
100
AcDbPoint
 10
189.8064270452669
 20
251.6862334471761
 30
0.0
  0
ENDBLK
  5
4CC
330
4BF
100
AcDbEntity
  8
0
100
AcDbBlockEnd
  0
BLOCK
  5
4D7
330
4CD
100
AcDbEntity
  8
0
100
AcDbBlockBegin
  2
*D58
 70
     1
 10
0.0
 20
0.0
 30
0.0
  3
*D58
  1

  0
LINE
  5
4CE
330
4CD
100
AcDbEntity
  8
0
 62
   123
100
AcDbLine
 10
197.7810907536149
 20
255.6862334471751
 30
0.0
 11
179.8167848544894
 21
255.6862334471751
 31
0.0
  0
LINE
  5
4CF
330
4CD
100
AcDbEntity
  8
0
 62
   123
100
AcDbLine
 10
190.0715564207439
 20
245.6862334471761
 30
0.0
 11
179.8167848544894
 21
245.6862334471761
 31
0.0
  0
LINE
  5
4D0
330
4CD
100
AcDbEntity
  8
0
 62
   123
100
AcDbLine
 10
180.4167848544893
 20
253.1862334471751
 30
0.0
 11
180.4167848544893
 21
248.186233447176
 31
0.0
  0
SOLID
  5
4D1
330
4CD
100
AcDbEntity
  8
0
 62
   123
100
AcDbTrace
 10
180.0001181878226
 20
253.1862334471751
 30
0.0
 11
180.833451521156
 21
253.1862334471751
 31
0.0
 12
180.4167848544893
 22
255.6862334471751
 32
0.0
 13
180.4167848544893
 23
255.6862334471751
 33
0.0
  0
SOLID
  5
4D2
330
4CD
100
AcDbEntity
  8
0
 62
   123
100
AcDbTrace
 10
180.0001181878226
 20
248.186233447176
 30
0.0
 11
180.833451521156
 21
248.186233447176
 31
0.0
 12
180.4167848544893
 22
245.6862334471761
 32
0.0
 13
180.4167848544893
 23
245.6862334471761
 33
0.0
  0
MTEXT
  5
4D3
330
4CD
100
AcDbEntity
  8
0
 62
     3
100
AcDbMText
 10
177.9167848544893
 20
250.6862334471755
 30
0.0
 40
3.0
 41
0.0
 71
     5
 72
     1
  1
\A1;10
 11
0.0000000000000001
 21
1.0
 31
0.0
1001
ACAD
1000
MTEXTBEGIN
1070
    73
1070
     1
1070
    44
1040
1.0
1070
    74
1070
     0
1000
MTEXTEND
1000
MTEXTBEGIN
1070
    73
1070
     1
1070
    44
1040
1.0
1070
    74
1070
     0
1000
MTEXTEND
1000
MTEXTBEGIN
1070
    73
1070
     1
1070
    44
1040
1.0
1070
    74
1070
     0
1000
MTEXTEND
  0
POINT
  5
4D4
330
4CD
100
AcDbEntity
  8
DEFPOINTS
 62
     0
100
AcDbPoint
 10
198.7810907536149
 20
255.6862334471751
 30
0.0
  0
POINT
  5
4D5
330
4CD
100
AcDbEntity
  8
DEFPOINTS
 62
     0
100
AcDbPoint
 10
191.0715564207439
 20
245.6862334471761
 30
0.0
  0
POINT
  5
4D6
330
4CD
100
AcDbEntity
  8
DEFPOINTS
 62
     0
100
AcDbPoint
 10
180.4167848544893
 20
245.6862334471761
 30
0.0
  0
ENDBLK
  5
4D8
330
4CD
100
AcDbEntity
  8
0
100
AcDbBlockEnd
  0
BLOCK
  5
4E3
330
4D9
100
AcDbEntity
  8
0
100
AcDbBlockBegin
  2
*D59
 70
     1
 10
0.0
 20
0.0
 30
0.0
  3
*D59
  1

  0
LINE
  5
4DA
330
4D9
100
AcDbEntity
  8
DIM
 62
   123
100
AcDbLine
 10
201.8921857742169
 20
377.4689372565191
 30
0.0
 11
201.8921857742169
 21
396.9501138596701
 31
0.0
  0
LINE
  5
4DB
330
4D9
100
AcDbEntity
  8
DIM
 62
   123
100
AcDbLine
 10
227.8921857742151
 20
377.4689372565191
 30
0.0
 11
227.8921857742151
 21
396.9501138596701
 31
0.0
  0
LINE
  5
4DC
330
4D9
100
AcDbEntity
  8
DIM
 62
   123
100
AcDbLine
 10
204.3921857742169
 20
396.35011385967
 30
0.0
 11
225.3921857742152
 21
396.35011385967
 31
0.0
  0
SOLID
  5
4DD
330
4D9
100
AcDbEntity
  8
DIM
 62
   123
100
AcDbTrace
 10
204.3921857742169
 20
396.7667805263366
 30
0.0
 11
204.3921857742169
 21
395.9334471930031
 31
0.0
 12
201.8921857742169
 22
396.35011385967
 32
0.0
 13
201.8921857742169
 23
396.35011385967
 33
0.0
  0
SOLID
  5
4DE
330
4D9
100
AcDbEntity
  8
DIM
 62
   123
100
AcDbTrace
 10
225.3921857742152
 20
396.7667805263366
 30
0.0
 11
225.3921857742152
 21
395.9334471930031
 31
0.0
 12
227.8921857742151
 22
396.35011385967
 32
0.0
 13
227.8921857742151
 23
396.35011385967
 33
0.0
  0
MTEXT
  5
4DF
330
4D9
100
AcDbEntity
  8
DIM
 62
     3
100
AcDbMText
 10
213.9464715758713
 20
398.85011385967
 30
0.0
 40
3.0
 41
0.0
 71
     5
 72
     1
  1
\A1;26
1001
ACAD
1000
MTEXTBEGIN
1070
    73
1070
     1
1070
    44
1040
1.0
1070
    74
1070
     0
1000
MTEXTEND
1000
MTEXTBEGIN
1070
    73
1070
     1
1070
    44
1040
1.0
1070
    74
1070
     0
1000
MTEXTEND
1000
MTEXTBEGIN
1070
    73
1070
     1
1070
    44
1040
1.0
1070
    74
1070
     0
1000
MTEXTEND
  0
POINT
  5
4E0
330
4D9
100
AcDbEntity
  8
DEFPOINTS
 62
     0
100
AcDbPoint
 10
201.8921857742169
 20
376.468937256519
 30
0.0
  0
POINT
  5
4E1
330
4D9
100
AcDbEntity
  8
DEFPOINTS
 62
     0
100
AcDbPoint
 10
227.8921857742151
 20
376.468937256519
 30
0.0
  0
POINT
  5
4E2
330
4D9
100
AcDbEntity
  8
DEFPOINTS
 62
     0
100
AcDbPoint
 10
227.8921857742151
 20
396.35011385967
 30
0.0
  0
ENDBLK
  5
4E4
330
4D9
100
AcDbEntity
  8
0
100
AcDbBlockEnd
  0
BLOCK
  5
4EF
330
4E5
100
AcDbEntity
  8
0
100
AcDbBlockBegin
  2
*D60
 70
     1
 10
0.0
 20
0.0
 30
0.0
  3
*D60
  1

  0
LINE
  5
4E6
330
4E5
100
AcDbEntity
  8
DIM
 62
   123
100
AcDbLine
 10
86.39616271069645
 20
373.4689372565191
 30
0.0
 11
86.39616271069645
 21
390.7200350508242
 31
0.0
  0
LINE
  5
4E7
330
4E5
100
AcDbEntity
  8
DIM
 62
   123
100
AcDbLine
 10
146.3961627106964
 20
372.468937256519
 30
0.0
 11
146.3961627106964
 21
390.7200350508242
 31
0.0
  0
LINE
  5
4E8
330
4E5
100
AcDbEntity
  8
DIM
 62
   123
100
AcDbLine
 10
88.89616271069645
 20
390.1200350508243
 30
0.0
 11
143.8961627106964
 21
390.1200350508243
 31
0.0
  0
SOLID
  5
4E9
330
4E5
100
AcDbEntity
  8
DIM
 62
   123
100
AcDbTrace
 10
88.89616271069645
 20
390.536701717491
 30
0.0
 11
88.89616271069645
 21
389.7033683841576
 31
0.0
 12
86.39616271069645
 22
390.1200350508243
 32
0.0
 13
86.39616271069645
 23
390.1200350508243
 33
0.0
  0
SOLID
  5
4EA
330
4E5
100
AcDbEntity
  8
DIM
 62
   123
100
AcDbTrace
 10
143.8961627106964
 20
390.536701717491
 30
0.0
 11
143.8961627106964
 21
389.7033683841576
 31
0.0
 12
146.3961627106964
 22
390.1200350508243
 32
0.0
 13
146.3961627106964
 23
390.1200350508243
 33
0.0
  0
MTEXT
  5
4EB
330
4E5
100
AcDbEntity
  8
DIM
 62
     3
100
AcDbMText
 10
116.0654239510367
 20
392.6200350508242
 30
0.0
 40
3.0
 41
0.0
 71
     5
 72
     1
  1
\A1;60
1001
ACAD
1000
MTEXTBEGIN
1070
    73
1070
     1
1070
    44
1040
1.0
1070
    74
1070
     0
1000
MTEXTEND
1000
MTEXTBEGIN
1070
    73
1070
     1
1070
    44
1040
1.0
1070
    74
1070
     0
1000
MTEXTEND
1000
MTEXTBEGIN
1070
    73
1070
     1
1070
    44
1040
1.0
1070
    74
1070
     0
1000
MTEXTEND
  0
POINT
  5
4EC
330
4E5
100
AcDbEntity
  8
DEFPOINTS
 62
     0
100
AcDbPoint
 10
86.39616271069645
 20
372.468937256519
 30
0.0
  0
POINT
  5
4ED
330
4E5
100
AcDbEntity
  8
DEFPOINTS
 62
     0
100
AcDbPoint
 10
146.3961627106964
 20
371.4689372565191
 30
0.0
  0
POINT
  5
4EE
330
4E5
100
AcDbEntity
  8
DEFPOINTS
 62
     0
100
AcDbPoint
 10
146.3961627106964
 20
390.1200350508243
 30
0.0
  0
ENDBLK
  5
4F0
330
4E5
100
AcDbEntity
  8
0
100
AcDbBlockEnd
  0
BLOCK
  5
4FD
330
4F1
100
AcDbEntity
  8
0
100
AcDbBlockBegin
  2
*D61
 70
     1
 10
0.0
 20
0.0
 30
0.0
  3
*D61
  1

  0
LINE
  5
4F2
330
4F1
100
AcDbEntity
  8
DIM
 62
   123
100
AcDbLine
 10
199.892185774215
 20
374.468937256519
 30
0.0
 11
199.892185774215
 21
386.2772705898531
 31
0.0
  0
LINE
  5
4F3
330
4F1
100
AcDbEntity
  8
DIM
 62
   123
100
AcDbLine
 10
201.8921857742169
 20
377.4689372565191
 30
0.0
 11
201.8921857742169
 21
386.2772705898531
 31
0.0
  0
LINE
  5
4F4
330
4F1
100
AcDbEntity
  8
DIM
 62
   123
100
AcDbLine
 10
204.3921857742169
 20
385.6772705898531
 30
0.0
 11
206.8921857742169
 21
385.6772705898531
 31
0.0
  0
LINE
  5
4F5
330
4F1
100
AcDbEntity
  8
DIM
 62
   123
100
AcDbLine
 10
197.392185774215
 20
385.6772705898531
 30
0.0
 11
190.8921857742152
 21
385.6772705898531
 31
0.0
  0
LINE
  5
4F6
330
4F1
100
AcDbEntity
  8
DIM
 62
   123
100
AcDbLine
 10
201.8921857742169
 20
385.6772705898531
 30
0.0
 11
199.892185774215
 21
385.6772705898531
 31
0.0
  0
SOLID
  5
4F7
330
4F1
100
AcDbEntity
  8
DIM
 62
   123
100
AcDbTrace
 10
204.3921857742169
 20
386.0939372565198
 30
0.0
 11
204.3921857742169
 21
385.2606039231863
 31
0.0
 12
201.8921857742169
 22
385.6772705898531
 32
0.0
 13
201.8921857742169
 23
385.6772705898531
 33
0.0
  0
SOLID
  5
4F8
330
4F1
100
AcDbEntity
  8
DIM
 62
   123
100
AcDbTrace
 10
197.392185774215
 20
386.0939372565198
 30
0.0
 11
197.392185774215
 21
385.2606039231863
 31
0.0
 12
199.892185774215
 22
385.6772705898531
 32
0.0
 13
199.892185774215
 23
385.6772705898531
 33
0.0
  0
MTEXT
  5
4F9
330
4F1
100
AcDbEntity
  8
DIM
 62
     3
100
AcDbMText
 10
192.8921857742152
 20
388.1772705898531
 30
0.0
 40
3.0
 41
0.0
 71
     5
 72
     1
  1
\A1;2
1001
ACAD
1000
MTEXTBEGIN
1070
    73
1070
     1
1070
    44
1040
1.0
1070
    74
1070
     0
1000
MTEXTEND
1000
MTEXTBEGIN
1070
    73
1070
     1
1070
    44
1040
1.0
1070
    74
1070
     0
1000
MTEXTEND
1000
MTEXTBEGIN
1070
    73
1070
     1
1070
    44
1040
1.0
1070
    74
1070
     0
1000
MTEXTEND
  0
POINT
  5
4FA
330
4F1
100
AcDbEntity
  8
DEFPOINTS
 62
     0
100
AcDbPoint
 10
199.892185774215
 20
373.4689372565191
 30
0.0
  0
POINT
  5
4FB
330
4F1
100
AcDbEntity
  8
DEFPOINTS
 62
     0
100
AcDbPoint
 10
201.8921857742169
 20
376.468937256519
 30
0.0
  0
POINT
  5
4FC
330
4F1
100
AcDbEntity
  8
DEFPOINTS
 62
     0
100
AcDbPoint
 10
201.8921857742169
 20
385.6772705898531
 30
0.0
  0
ENDBLK
  5
4FE
330
4F1
100
AcDbEntity
  8
0
100
AcDbBlockEnd
  0
ENDSEC
  0
SECTION
  2
ENTITIES
  0
ARC
  5
9D
330
2
100
AcDbEntity
  8
0
 48
0.6
100
AcDbCircle
 10
68.70303504449657
 20
47.69439905671332
 30
0.0
 40
39.15579199999999
100
AcDbArc
 50
201.436958999997
 51
235.2486590000054
  0
ARC
  5
9E
330
2
100
AcDbEntity
  8
0
 48
0.6
100
AcDbCircle
 10
68.70303504449657
 20
47.69439905671332
 30
0.0
 40
36.555792
100
AcDbArc
 50
203.0460947298101
 51
236.3176429999981
  0
ARC
  5
9F
330
2
100
AcDbEntity
  8
0
 48
0.6
100
AcDbCircle
 10
68.70303504449657
 20
47.69439905671332
 30
0.0
 40
35.255792
100
AcDbArc
 50
236.3564240000014
 51
242.0987460000029
  0
ARC
  5
A0
330
2
100
AcDbEntity
  8
0
 48
0.6
100
AcDbCircle
 10
47.8024140445068
 20
16.91169605671211
 30
0.0
 40
0.7499080000000001
100
AcDbArc
 50
85.16289500000455
 51
205.3344229999991
  0
ARC
  5
A1
330
2
100
AcDbEntity
  8
0
 48
0.6
100
AcDbCircle
 10
52.23145804450723
 20
15.78745805671178
 30
0.0
 40
0.7499080000000001
100
AcDbArc
 50
92.01298199999559
 51
212.184510000001
  0
LEADER
  5
A2
330
2
100
AcDbEntity
  8
0
100
AcDbLeader
  3
STANDARD
 74
     0
 40
13.0
 41
28.50892857142855
 76
     2
 10
200.6644614343313
 20
24.49682684896834
 30
0.0
 10
191.5477110421559
 20
9.20200721857509
 30
0.0
1001
ACAD
1000
DSTYLE
1002
{
1070
     5
1000

1070
   342
1005
0
1002
}
  0
DIMENSION
  5
A4
102
{ACAD_XDICTIONARY
360
A5
102
}
102
{ACAD_REACTORS
330
A6
102
}
330
2
100
AcDbEntity
  8
0
 48
0.6
100
AcDbDimension
  2
*D31
 10
22.66011029299807
 20
98.38384640817231
 30
0.0
 11
32.24551128582486
 21
15.19478144906936
 31
0.0
 70
    34
  1
<>
  3
STANDARD
100
AcDb2LineAngularDimension
 13
22.66011029299807
 23
63.3838464081732
 33
0.0
 14
35.95351891115749
 24
31.29071903204294
 34
0.0
 15
22.66011029299807
 25
28.3838464081723
 35
0.0
 16
29.43688124183789
 26
11.90916060252311
 36
0.0
1001
ACAD
1000
DSTYLE
1002
{
1070
   271
1070
     1
1070
   179
1070
     1
1070
   271
1070
     0
1070
   271
1070
     1
1070
   271
1070
     1
1070
   271
1070
     1
1070
   271
1070
     1
1070
   271
1070
     1
1002
}
  0
ARC
  5
B6
330
2
100
AcDbEntity
  8
0
 48
0.6
100
AcDbCircle
 10
50.96210704450641
 20
14.98858505671205
 30
0.0
 40
0.7499080000000001
100
AcDbArc
 50
272.0129819999954
 51
32.18451000000101
  0
ARC
  5
B7
330
2
100
AcDbEntity
  8
0
 48
0.6
100
AcDbCircle
 10
46.44684104450607
 20
16.26992305671318
 30
0.0
 40
0.7499080000000001
100
AcDbArc
 50
265.1628950000044
 51
25.33442299999946
  0
ARC
  5
B8
330
2
100
AcDbEntity
  8
0
 48
0.6
100
AcDbCircle
 10
68.70303504449657
 20
47.69439905671332
 30
0.0
 40
37.855792
100
AcDbArc
 50
235.2486590000054
 51
242.0987460000029
  0
LINE
  5
B9
330
2
100
AcDbEntity
  8
0
 62
   123
 48
0.6
100
AcDbLine
 10
191.5477110421559
 20
9.20200721857509
 30
0.0
 11
132.2935532147857
 21
9.20200721857509
 31
0.0
  0
TEXT
  5
BA
330
2
100
AcDbEntity
  8
DIM
100
AcDbText
 10
133.6635732657777
 20
11.20200721857508
 30
0.0
 40
3.5
  1
 LEAD WIRE 300mm
100
AcDbText
  0
DIMENSION
  5
BC
102
{ACAD_XDICTIONARY
360
BD
102
}
102
{ACAD_REACTORS
330
BE
102
}
330
2
100
AcDbEntity
  8
0
100
AcDbDimension
  2
*D34
 10
86.04104939861775
 20
329.0457602841143
 30
0.0
 11
161.6810358354251
 21
372.4614726990107
 31
0.0
 70
   163
  1
<>%%p0.5
  3
STANDARD
100
AcDbDiametricDimension
 15
146.751276022764
 25
363.8921142289178
 35
0.0
 40
0.0
  0
LINE
  5
CA
102
{ACAD_REACTORS
330
348
102
}
330
2
100
AcDbEntity
  8
0
100
AcDbLine
 10
227.8921857742151
 20
376.468937256519
 30
0.0
 11
227.8921857742151
 21
316.4689372565192
 31
0.0
  0
ARC
  5
CB
102
{ACAD_REACTORS
330
BE
102
}
330
2
100
AcDbEntity
  8
CEN
 48
0.6
100
AcDbCircle
 10
116.3961627106964
 20
346.4689372565191
 30
0.0
 40
35.0
100
AcDbArc
 50
21.71935007261406
 51
51.18655059757116
  0
LINE
  5
CE
330
2
100
AcDbEntity
  8
CEN
 48
0.6
100
AcDbLine
 10
116.3961627106964
 20
311.4689372565192
 30
0.0
 11
116.3961627106964
 21
381.4689372565191
 31
0.0
  0
CIRCLE
  5
CF
330
2
100
AcDbEntity
  8
0
100
AcDbCircle
 10
116.3961627106964
 20
346.4689372565191
 30
0.0
 40
27.00000000000005
  0
LINE
  5
D0
330
2
100
AcDbEntity
  8
CEN
 48
0.6
100
AcDbLine
 10
138.1396962321776
 20
368.2124707780062
 30
0.0
 11
144.150103872269
 21
374.2228784180919
 31
0.0
  0
LINE
  5
D1
330
2
100
AcDbEntity
  8
CEN
 48
0.6
100
AcDbLine
 10
94.65262918920601
 20
368.2124707780062
 30
0.0
 11
88.6422215491275
 21
374.2228784180919
 31
0.0
  0
ARC
  5
D2
330
2
100
AcDbEntity
  8
CEN
 48
0.6
100
AcDbCircle
 10
116.3961627106964
 20
346.4689372565191
 30
0.0
 40
35.0
100
AcDbArc
 50
124.6885525890122
 51
145.106569353258
  0
LINE
  5
D3
102
{ACAD_REACTORS
330
D7
330
348
102
}
330
2
100
AcDbEntity
  8
0
100
AcDbLine
 10
199.892185774215
 20
373.4689372565191
 30
0.0
 11
199.892185774215
 21
319.4689372565192
 31
0.0
  0
LINE
  5
D4
102
{ACAD_REACTORS
330
348
102
}
330
2
100
AcDbEntity
  8
0
100
AcDbLine
 10
201.8921857742169
 20
376.468937256519
 30
0.0
 11
201.8921857742169
 21
316.4689372565192
 31
0.0
  0
DIMENSION
  5
D5
102
{ACAD_XDICTIONARY
360
D6
102
}
102
{ACAD_REACTORS
330
D7
102
}
330
2
100
AcDbEntity
  8
DIM
100
AcDbDimension
  2
*D33
 10
180.3248537999752
 20
319.4689372565192
 30
0.0
 11
180.3248537999752
 21
346.4689372565191
 31
0.0
 70
   160
  1
\A1;%%C<>{\f??|b0|i0|c0|p49;\H0.7x;\S+0^ -0.03;\H1.429x;(h7)} 
  3
STANDARD
100
AcDbAlignedDimension
 13
199.892185774215
 23
373.4689372565191
 33
0.0
 14
199.892185774215
 24
319.4689372565192
 34
0.0
 50
90.0
100
AcDbRotatedDimension
  0
LINE
  5
E4
102
{ACAD_REACTORS
330
359
102
}
330
2
100
AcDbEntity
  8
0
100
AcDbLine
 10
146.3961627106964
 20
371.4689372565191
 30
0.0
 11
146.3961627106964
 21
321.4689372565192
 31
0.0
  0
LINE
  5
E5
330
2
100
AcDbEntity
  8
0
100
AcDbLine
 10
86.39616271069645
 20
371.4689372565191
 30
0.0
 11
86.39616271069645
 21
321.4689372565192
 31
0.0
  0
DIMENSION
  5
E6
330
2
100
AcDbEntity
  8
DIM
100
AcDbDimension
  2
*D32
 10
201.8921857742169
 20
396.35011385967
 30
0.0
 11
194.6964715758731
 21
396.35011385967
 31
0.0
 70
   160
  3
STANDARD
100
AcDbAlignedDimension
 13
189.3914763371194
 23
348.7889372565191
 33
0.0
 14
201.8921857742169
 24
376.468937256519
 34
0.0
100
AcDbRotatedDimension
  0
DIMENSION
  5
F3
102
{ACAD_XDICTIONARY
360
F4
102
}
102
{ACAD_REACTORS
330
F5
102
}
330
2
100
AcDbEntity
  8
DIM
100
AcDbDimension
  2
*D36
 10
87.771171743947
 20
63.38384640817231
 30
0.0
 11
87.771171743947
 21
68.38384640817117
 31
0.0
 70
   160
  3
STANDARD
100
AcDbAlignedDimension
 13
115.1742145198566
 23
73.38384640817229
 33
0.0
 14
135.5372171187864
 24
63.38384640817229
 34
0.0
 50
90.0
100
AcDbRotatedDimension
  0
DIMENSION
  5
102
330
2
100
AcDbEntity
  8
DIM
100
AcDbDimension
  2
*D35
 10
75.89105004010708
 20
61.38384640817233
 30
0.0
 11
73.39105004010706
 21
73.38384640817233
 31
0.0
 70
    32
  1
%%c<>
  3
STANDARD
100
AcDbAlignedDimension
 13
148.5723533210855
 23
85.38384640817232
 33
0.0
 14
148.5723533210855
 24
61.38384640817229
 34
0.0
 50
90.0
100
AcDbRotatedDimension
  0
ARC
  5
10F
330
2
100
AcDbEntity
  8
0
 48
0.6
100
AcDbCircle
 10
47.66011029299806
 20
88.38384640817322
 30
0.0
 40
5.0
100
AcDbArc
 50
0.0
 51
90.0
  0
ARC
  5
110
102
{ACAD_REACTORS
330
143
102
}
330
2
100
AcDbEntity
  8
CEN
 48
0.6
100
AcDbCircle
 10
22.66011029299807
 20
63.3838464081732
 30
0.0
 40
35.0
100
AcDbArc
 50
21.71935007261406
 51
51.18655059757116
  0
LINE
  5
111
330
2
100
AcDbEntity
  8
CEN
 48
0.6
100
AcDbLine
 10
44.40364381448671
 20
85.12737992965913
 30
0.0
 11
50.41405145456884
 21
91.13778756974511
 31
0.0
  0
CIRCLE
  5
112
330
2
100
AcDbEntity
  8
0
 48
0.6
100
AcDbCircle
 10
47.40884763452775
 20
88.13258374970201
 30
0.0
 40
2.25
  0
LINE
  5
113
330
2
100
AcDbEntity
  8
CEN
 48
0.6
100
AcDbLine
 10
0.9165767715057882
 20
85.12737992965913
 30
0.0
 11
-5.093830868572695
 21
91.13778756974511
 31
0.0
  0
CIRCLE
  5
114
330
2
100
AcDbEntity
  8
0
 48
0.6
100
AcDbCircle
 10
-2.088627048533453
 20
88.13258374970201
 30
0.0
 40
2.25
  0
ARC
  5
115
330
2
100
AcDbEntity
  8
0
 48
0.6
100
AcDbCircle
 10
-2.33988970700193
 20
88.38384640817322
 30
0.0
 40
5.0
100
AcDbArc
 50
90.0
 51
180.0
  0
ARC
  5
116
330
2
100
AcDbEntity
  8
CEN
 48
0.6
100
AcDbCircle
 10
22.66011029299807
 20
63.3838464081732
 30
0.0
 40
35.0
100
AcDbArc
 50
128.038373849838
 51
141.9616261501575
  0
LWPOLYLINE
  5
117
330
2
100
AcDbEntity
  8
3
 48
0.6
100
AcDbPolyline
 90
        4
 70
     1
 43
0.0
 10
15.71184688007632
 20
107.775030567801
 10
19.01184688007742
 20
107.775030567801
 10
19.01184688007742
 20
111.2750305678021
 10
15.71184688007632
 20
111.2750305678021
  0
DIMENSION
  5
119
102
{ACAD_XDICTIONARY
360
11A
102
}
102
{ACAD_REACTORS
330
11B
102
}
330
2
100
AcDbEntity
  8
0
 48
0.6
100
AcDbDimension
  2
*D38
 10
52.66011029299806
 20
107.034944202478
 30
0.0
 11
22.32937153333659
 21
107.034944202478
 31
0.0
 70
   160
  1
60
  3
STANDARD
100
AcDbAlignedDimension
 13
-7.339889707001929
 23
88.38384640817322
 33
0.0
 14
52.66011029299806
 24
88.38384640817322
 34
0.0
100
AcDbRotatedDimension
  0
LINE
  5
128
330
2
100
AcDbEntity
  8
0
 48
0.6
100
AcDbLine
 10
-2.33988970700193
 20
93.38384640817322
 30
0.0
 11
47.66011029299806
 21
93.38384640817322
 31
0.0
  0
LINE
  5
129
330
2
100
AcDbEntity
  8
0
100
AcDbLine
 10
19.30600832674826
 20
76.38384640817708
 30
0.0
 11
26.01421225924787
 21
76.38384640817708
 31
0.0
  0
MTEXT
  5
12A
102
{ACAD_REACTORS
330
12B
102
}
330
2
100
AcDbEntity
  8
0
 62
     3
100
AcDbMText
 10
38.98598878747725
 20
116.313805621046
 30
0.0
 40
3.0
 41
0.0
 71
     9
 72
     1
  1
4-%%c4.5 hole
1001
ACAD
1000
MTEXTBEGIN
1070
    73
1070
     1
1070
    44
1040
1.0
1070
    74
1070
     0
1000
MTEXTEND
1000
MTEXTBEGIN
1070
    73
1070
     1
1070
    44
1040
1.0
1070
    74
1070
     0
1000
MTEXTEND
1000
MTEXTBEGIN
1070
    73
1070
     1
1070
    44
1040
1.0
1070
    74
1070
     0
1000
MTEXTEND
  0
LEADER
  5
12B
330
2
100
AcDbEntity
  8
0
100
AcDbLeader
  3
STANDARD
 73
     0
 75
     1
 40
3.0
 41
26.65178571428571
 76
     3
 10
47.48730594620792
 20
89.88395210060298
 30
0.0
 10
42.48598878747723
 20
115.313805621046
 30
0.0
 10
39.98598878747724
 20
115.313805621046
 30
0.0
340
12A
1001
ACAD
1000
DSTYLE
1002
{
1070
     5
1000

1070
   342
1005
0
1002
}
  0
ARC
  5
12C
330
2
100
AcDbEntity
  8
0
 48
0.6
100
AcDbCircle
 10
68.70303504449657
 20
47.69439905671332
 30
0.0
 40
33.95579199999998
100
AcDbArc
 50
204.9259499999998
 51
236.3981230000006
  0
ARC
  5
12D
330
2
100
AcDbEntity
  8
0
 48
0.6
100
AcDbCircle
 10
48.49285804450665
 20
18.02265105671222
 30
0.0
 40
0.7499080000000001
100
AcDbArc
 50
265.1628950000044
 51
25.33442299999946
  0
ARC
  5
12E
330
2
100
AcDbEntity
  8
0
 48
0.6
100
AcDbCircle
 10
49.84843004450702
 20
18.66442305671307
 30
0.0
 40
0.7499080000000001
100
AcDbArc
 50
85.16289500000455
 51
205.3344229999991
  0
LINE
  5
12F
330
2
100
AcDbEntity
  8
CEN
 48
0.6
100
AcDbLine
 10
44.40364381448671
 20
41.64031288668591
 30
0.0
 11
50.41405145456884
 21
35.62990524660015
 31
0.0
  0
ARC
  5
130
330
2
100
AcDbEntity
  8
CEN
 48
0.6
100
AcDbCircle
 10
22.66011029299807
 20
63.3838464081732
 30
0.0
 40
35.0
100
AcDbArc
 50
308.0383738498413
 51
321.9616261501601
  0
ARC
  5
131
330
2
100
AcDbEntity
  8
0
 48
0.6
100
AcDbCircle
 10
47.66011029299806
 20
38.38384640817321
 30
0.0
 40
5.0
100
AcDbArc
 50
270.0
 51
0.0
  0
CIRCLE
  5
132
330
2
100
AcDbEntity
  8
0
 48
0.6
100
AcDbCircle
 10
47.40884763452775
 20
38.63510906664304
 30
0.0
 40
2.25
  0
ARC
  5
133
330
2
100
AcDbEntity
  8
0
 48
0.6
100
AcDbCircle
 10
-2.33988970700193
 20
38.38384640817321
 30
0.0
 40
5.0
100
AcDbArc
 50
180.0
 51
270.0
  0
LINE
  5
134
330
2
100
AcDbEntity
  8
CEN
 48
0.6
100
AcDbLine
 10
0.9165767715057882
 20
41.64031288668591
 30
0.0
 11
-5.093830868572695
 21
35.62990524660015
 31
0.0
  0
CIRCLE
  5
135
330
2
100
AcDbEntity
  8
0
 48
0.6
100
AcDbCircle
 10
-2.088627048533453
 20
38.63510906664304
 30
0.0
 40
2.25
  0
ARC
  5
136
330
2
100
AcDbEntity
  8
CEN
 48
0.6
100
AcDbCircle
 10
22.66011029299807
 20
63.3838464081732
 30
0.0
 40
35.0
100
AcDbArc
 50
199.5241366191914
 51
231.1865505975711
  0
LINE
  5
137
330
2
100
AcDbEntity
  8
0
 48
0.6
100
AcDbLine
 10
-2.33988970700193
 20
33.38384640817321
 30
0.0
 11
47.66011029299806
 21
33.38384640817321
 31
0.0
  0
LINE
  5
138
330
2
100
AcDbEntity
  8
CEN
 48
0.6
100
AcDbLine
 10
-12.33988970700192
 20
63.38384640817229
 30
0.0
 11
57.66011029299806
 21
63.38384640817229
 31
0.0
  0
LINE
  5
139
102
{ACAD_REACTORS
330
A6
102
}
330
2
100
AcDbEntity
  8
0
  6
CENTER
 62
     1
 48
0.6
100
AcDbLine
 10
22.66011029299807
 20
63.3838464081732
 30
0.0
 11
35.95351891115749
 21
31.29071903204385
 31
0.0
  0
LINE
  5
13A
330
2
100
AcDbEntity
  8
CEN
  6
CENTER
 48
0.6
100
AcDbLine
 10
35.68173657275656
 20
73.38384640817706
 30
0.0
 11
9.638484013235935
 21
73.38384640817706
 31
0.0
  0
CIRCLE
  5
13B
330
2
100
AcDbEntity
  8
0
100
AcDbCircle
 10
22.66011029299807
 20
73.38384640817706
 30
0.0
 40
12.0
  0
LINE
  5
13C
102
{ACAD_REACTORS
330
11B
102
}
330
2
100
AcDbEntity
  8
0
 48
0.6
100
AcDbLine
 10
52.66011029299806
 20
88.38384640817322
 30
0.0
 11
52.66011029299806
 21
38.38384640817321
 31
0.0
  0
LINE
  5
13D
102
{ACAD_REACTORS
330
11B
102
}
330
2
100
AcDbEntity
  8
0
 48
0.6
100
AcDbLine
 10
-7.339889707001929
 20
88.38384640817322
 30
0.0
 11
-7.339889707001929
 21
38.38384640817321
 31
0.0
  0
LINE
  5
13E
102
{ACAD_REACTORS
330
A6
102
}
330
2
100
AcDbEntity
  8
CEN
 48
0.6
100
AcDbLine
 10
22.66011029299807
 20
28.3838464081723
 30
0.0
 11
22.66011029299807
 21
98.38384640817231
 31
0.0
  0
CIRCLE
  5
13F
330
2
100
AcDbEntity
  8
0
100
AcDbCircle
 10
22.66011029299807
 20
63.38384640818183
 30
0.0
 40
27.0
  0
CIRCLE
  5
140
330
2
100
AcDbEntity
  8
0
100
AcDbCircle
 10
22.66011029299807
 20
73.38384640817706
 30
0.0
 40
4.5
  0
DIMENSION
  5
141
102
{ACAD_XDICTIONARY
360
142
102
}
102
{ACAD_REACTORS
330
143
102
}
330
2
100
AcDbEntity
  8
0
 48
0.6
100
AcDbDimension
  2
*D37
 10
-6.715829506776005
 20
44.35612555464028
 30
0.0
 11
66.93304614572524
 21
92.06082050717858
 31
0.0
 70
   163
  1
<>%%p0.5
  3
STANDARD
100
AcDbDiametricDimension
 15
52.03605009277307
 25
82.41156726170673
 35
0.0
 40
0.0
  0
DIMENSION
  5
14F
330
2
100
AcDbEntity
  8
0
100
AcDbDimension
  2
*D49
 10
314.0723533210783
 20
118.6670233721411
 30
0.0
 11
309.0723533210783
 21
118.6670233721411
 31
0.0
 70
   160
  3
STANDARD
100
AcDbAlignedDimension
 13
304.0723533210783
 23
91.63384640817232
 33
0.0
 14
314.0723533210783
 24
85.88384640817229
 34
0.0
100
AcDbRotatedDimension
  0
LINE
  5
15C
102
{ACAD_REACTORS
330
233
102
}
330
2
100
AcDbEntity
  8
0
100
AcDbLine
 10
259.0723533210784
 20
94.13384640817232
 30
0.0
 11
302.5726927259948
 21
93.38575408040924
 31
0.0
  0
ARC
  5
15D
330
2
100
AcDbEntity
  8
0
100
AcDbCircle
 10
313.0723533210785
 20
85.88384640817229
 30
0.0
 40
1.0
100
AcDbArc
 50
0.0
 51
90.0
  0
LINE
  5
15E
330
2
100
AcDbEntity
  8
0
100
AcDbLine
 10
304.0723533210783
 20
86.88384640817231
 30
0.0
 11
313.0723533210785
 21
86.88384640817231
 31
0.0
  0
LINE
  5
15F
330
2
100
AcDbEntity
  8
0
100
AcDbLine
 10
302.5726927259948
 20
93.38575408040924
 30
0.0
 11
304.0723533210783
 21
91.85384640817323
 31
0.0
  0
DIMENSION
  5
160
102
{ACAD_XDICTIONARY
360
161
102
}
102
{ACAD_REACTORS
330
162
102
}
330
2
100
AcDbEntity
  8
0
100
AcDbDimension
  2
*D48
 10
191.0723533210784
 20
118.6670233721411
 30
0.0
 11
171.0723533210784
 21
118.6670233721411
 31
0.0
 70
   160
  1
L
  3
STANDARD
100
AcDbAlignedDimension
 13
151.0723533210855
 23
92.88384640817232
 33
0.0
 14
191.0723533210784
 24
93.38384640817414
 34
0.0
100
AcDbRotatedDimension
  0
DIMENSION
  5
16F
102
{ACAD_XDICTIONARY
360
170
102
}
102
{ACAD_REACTORS
330
171
102
}
330
2
100
AcDbEntity
  8
0
100
AcDbDimension
  2
*D47
 10
151.0723533210855
 20
118.6670233721411
 30
0.0
 11
135.0723533210766
 21
118.6670233721411
 31
0.0
 70
   160
  3
STANDARD
100
AcDbAlignedDimension
 13
119.0723533210855
 23
76.38384640817228
 33
0.0
 14
151.0723533210855
 24
92.88384640817232
 34
0.0
100
AcDbRotatedDimension
  0
LINE
  5
17E
330
2
100
AcDbEntity
  8
0
 48
0.6
100
AcDbLine
 10
151.5723533210855
 20
93.38384640817229
 30
0.0
 11
197.1723533210786
 21
93.38384640817414
 31
0.0
  0
DIMENSION
  5
17F
102
{ACAD_XDICTIONARY
360
180
102
}
102
{ACAD_REACTORS
330
181
102
}
330
2
100
AcDbEntity
  8
0
 48
0.6
100
AcDbDimension
  2
*D46
 10
198.0723533210784
 20
106.9742403652651
 30
0.0
 11
194.5723533210784
 21
106.9742403652651
 31
0.0
 70
   160
  3
STANDARD
100
AcDbAlignedDimension
 13
191.0723533210784
 23
93.38384640817414
 33
0.0
 14
198.0723533210784
 24
91.98258374970214
 34
0.0
100
AcDbRotatedDimension
  0
ARC
  5
18E
330
2
100
AcDbEntity
  8
0
100
AcDbCircle
 10
148.5723533210855
 20
84.88384640817228
 30
0.0
 40
0.5
100
AcDbArc
 50
90.0
 51
180.0
  0
ARC
  5
18F
330
2
100
AcDbEntity
  8
0
100
AcDbCircle
 10
151.5723533210855
 20
92.88384640817232
 30
0.0
 40
0.5
100
AcDbArc
 50
90.0
 51
180.0
  0
LINE
  5
190
330
2
100
AcDbEntity
  8
0
100
AcDbLine
 10
148.5723533210855
 20
85.38384640817232
 30
0.0
 11
151.0723533210855
 21
85.38384640817232
 31
0.0
  0
LINE
  5
191
102
{ACAD_REACTORS
330
181
102
}
330
2
100
AcDbEntity
  8
0
 48
0.6
100
AcDbLine
 10
197.1723533210786
 20
91.98258374970214
 30
0.0
 11
198.0723533210784
 21
91.98258374970214
 31
0.0
  0
LINE
  5
192
330
2
100
AcDbEntity
  8
0
 48
0.6
100
AcDbLine
 10
197.1723533210786
 20
84.28258374970118
 30
0.0
 11
198.0723533210784
 21
84.28258374970118
 31
0.0
  0
LINE
  5
193
330
2
100
AcDbEntity
  8
0
 48
0.6
100
AcDbLine
 10
198.0723533210784
 20
84.28258374970118
 30
0.0
 11
198.0723533210784
 21
91.98258374970214
 31
0.0
  0
DIMENSION
  5
194
102
{ACAD_XDICTIONARY
360
195
102
}
102
{ACAD_REACTORS
330
196
102
}
330
2
100
AcDbEntity
  8
0
100
AcDbDimension
  2
*D45
 10
131.0723533210857
 20
90.41168333523524
 30
0.0
 11
125.0723533210857
 21
92.91168333523524
 31
0.0
 70
    32
  3
STANDARD
100
AcDbAlignedDimension
 13
119.0723533210855
 23
76.38384640817228
 33
0.0
 14
131.0723533210857
 24
77.38384640817229
 34
0.0
 50
180.0
100
AcDbRotatedDimension
  0
LINE
  5
1A3
102
{ACAD_REACTORS
330
196
102
}
330
2
100
AcDbEntity
  8
0
100
AcDbLine
 10
131.0723533210857
 20
77.38384640817229
 30
0.0
 11
131.0723533210857
 21
76.38384640817228
 31
0.0
  0
LINE
  5
1A4
102
{ACAD_REACTORS
330
196
102
}
330
2
100
AcDbEntity
  8
0
100
AcDbLine
 10
131.0723533210857
 20
76.38384640817228
 30
0.0
 11
119.0723533210855
 21
76.38384640817228
 31
0.0
  0
DIMENSION
  5
1A5
102
{ACAD_XDICTIONARY
360
1A6
102
}
102
{ACAD_REACTORS
330
1A7
102
}
330
2
100
AcDbEntity
  8
0
100
AcDbDimension
  2
*D44
 10
151.0723533210855
 20
105.386345321379
 30
0.0
 11
149.5723533210855
 21
105.386345321379
 31
0.0
 70
   160
  3
STANDARD
100
AcDbAlignedDimension
 13
148.0723533210855
 23
84.88384640817228
 33
0.0
 14
151.0723533210855
 24
92.88384640817232
 34
0.0
100
AcDbRotatedDimension
  0
LINE
  5
1B6
102
{ACAD_REACTORS
330
1F8
102
}
330
2
100
AcDbEntity
  8
0
100
AcDbLine
 10
148.0723533210855
 20
77.38384640817229
 30
0.0
 11
131.0723533210857
 21
77.38384640817229
 31
0.0
  0
DIMENSION
  5
1B7
330
2
100
AcDbEntity
  8
0
 48
0.6
100
AcDbDimension
  2
*D43
 10
304.0723533210783
 20
118.6670233721411
 30
0.0
 11
247.5723533210784
 21
118.6670233721411
 31
0.0
 70
   160
  1
<>
  3
STANDARD
100
AcDbAlignedDimension
 13
191.0723533210784
 23
118.6670233721411
 33
0.0
 14
304.0723533210783
 24
91.85384640817323
 34
0.0
100
AcDbRotatedDimension
  0
LINE
  5
1C4
330
2
100
AcDbEntity
  8
0
 48
0.6
100
AcDbLine
 10
259.0723533210784
 20
92.88384640817232
 30
0.0
 11
197.1723533210786
 21
92.88384640817232
 31
0.0
  0
LINE
  5
1C5
102
{ACAD_REACTORS
330
233
102
}
330
2
100
AcDbEntity
  8
0
100
AcDbLine
 10
259.0723533210784
 20
32.6338464081723
 30
0.0
 11
302.5726927259948
 21
33.38193873593809
 31
0.0
  0
ARC
  5
1C6
330
2
100
AcDbEntity
  8
0
100
AcDbCircle
 10
305.5723533210783
 20
32.04132363246117
 30
0.0
 40
6.0
100
AcDbArc
 50
270.0
 51
0.0
  0
ARC
  5
1C7
330
2
100
AcDbEntity
  8
0
100
AcDbCircle
 10
303.5723533210783
 20
34.04132363246117
 30
0.0
 40
3.0
100
AcDbArc
 50
270.0
 51
0.0
  0
LINE
  5
1C8
330
2
100
AcDbEntity
  8
0
100
AcDbLine
 10
311.5723533210783
 20
38.08384640817303
 30
0.0
 11
311.5723533210783
 21
32.04132363246117
 31
0.0
  0
LINE
  5
1C9
330
2
100
AcDbEntity
  8
0
100
AcDbLine
 10
306.5723533210785
 20
38.08384640817303
 30
0.0
 11
306.5723533210785
 21
34.04132363246117
 31
0.0
  0
LINE
  5
1CA
102
{ACAD_REACTORS
330
224
102
}
330
2
100
AcDbEntity
  8
0
100
AcDbLine
 10
306.5723533210785
 20
38.08384640817303
 30
0.0
 11
311.5723533210783
 21
38.08384640817303
 31
0.0
  0
LINE
  5
1CB
330
2
100
AcDbEntity
  8
0
100
AcDbLine
 10
311.0723533210783
 20
38.08384640817303
 30
0.0
 11
311.0723533210783
 21
38.88384640817228
 31
0.0
  0
LINE
  5
1CC
330
2
100
AcDbEntity
  8
0
100
AcDbLine
 10
307.0723533210783
 20
38.08384640817303
 30
0.0
 11
307.0723533210783
 21
38.88384640817228
 31
0.0
  0
LINE
  5
1CD
330
2
100
AcDbEntity
  8
0
100
AcDbLine
 10
309.0723533210783
 20
38.08384640817303
 30
0.0
 11
309.0723533210783
 21
38.88384640817228
 31
0.0
  0
ARC
  5
1CE
330
2
100
AcDbEntity
  8
0
100
AcDbCircle
 10
311.5723533210783
 20
39.88384640817228
 30
0.0
 40
1.0
100
AcDbArc
 50
270.0
 51
0.0
  0
ARC
  5
1CF
330
2
100
AcDbEntity
  8
0
100
AcDbCircle
 10
306.5723533210785
 20
39.88384640817228
 30
0.0
 40
1.0
100
AcDbArc
 50
180.0
 51
270.0
  0
LINE
  5
1D0
102
{ACAD_REACTORS
330
224
102
}
330
2
100
AcDbEntity
  8
0
100
AcDbLine
 10
306.5723533210785
 20
38.88384640817228
 30
0.0
 11
311.5723533210783
 21
38.88384640817228
 31
0.0
  0
ARC
  5
1D1
330
2
100
AcDbEntity
  8
0
100
AcDbCircle
 10
313.0723533210785
 20
40.88384640817229
 30
0.0
 40
1.0
100
AcDbArc
 50
270.0
 51
0.0
  0
LINE
  5
1D2
102
{ACAD_REACTORS
330
224
102
}
330
2
100
AcDbEntity
  8
0
100
AcDbLine
 10
304.0723533210783
 20
39.88384640817228
 30
0.0
 11
313.0723533210785
 21
39.88384640817228
 31
0.0
  0
LINE
  5
1D3
330
2
100
AcDbEntity
  8
0
100
AcDbLine
 10
304.0723533210783
 20
34.9138464081734
 30
0.0
 11
302.5726927259948
 21
33.38193873593809
 31
0.0
  0
LINE
  5
1D4
330
2
100
AcDbEntity
  8
CEN
100
AcDbLine
 10
258.7872304852026
 20
63.38384640817229
 30
0.0
 11
319.3527923793553
 21
63.38384640817229
 31
0.0
  0
LINE
  5
1D5
102
{ACAD_REACTORS
330
F5
102
}
330
2
100
AcDbEntity
  8
CEN
 48
0.6
100
AcDbLine
 10
158.9308110244473
 20
73.38384640817229
 30
0.0
 11
115.1742145198566
 21
73.38384640817229
 31
0.0
  0
LINE
  5
1D6
330
2
100
AcDbEntity
  8
0
 48
0.6
100
AcDbLine
 10
151.5723533210855
 20
33.3838464081723
 30
0.0
 11
197.1723533210786
 21
33.3838464081723
 31
0.0
  0
ARC
  5
1D7
330
2
100
AcDbEntity
  8
0
100
AcDbCircle
 10
151.5723533210855
 20
33.8838464081723
 30
0.0
 40
0.5
100
AcDbArc
 50
180.0
 51
270.0
  0
ARC
  5
1D8
330
2
100
AcDbEntity
  8
0
100
AcDbCircle
 10
148.5723533210855
 20
61.88384640817229
 30
0.0
 40
0.5
100
AcDbArc
 50
180.0
 51
270.0
  0
LINE
  5
1D9
330
2
100
AcDbEntity
  8
0
100
AcDbLine
 10
148.5723533210855
 20
61.38384640817229
 30
0.0
 11
151.0723533210855
 21
61.38384640817229
 31
0.0
  0
LINE
  5
1DA
330
2
100
AcDbEntity
  8
0
 48
0.6
100
AcDbLine
 10
151.0723533210855
 20
66.38384640819436
 30
0.0
 11
151.0723533210855
 21
60.38384640815229
 31
0.0
  0
LWPOLYLINE
  5
1DB
330
2
100
AcDbEntity
  8
0
100
AcDbPolyline
 90
      467
 70
     0
 43
0.0
 10
205.3016490816911
 20
11.023073669955
 10
205.3038473637673
 20
11.0241487557373
 10
205.324091614016
 20
11.03395085637929
 10
205.3443110793935
 20
11.04364276024989
 10
205.3645058030137
 20
11.05322490956404
 10
205.3846758279882
 20
11.062697746534
 10
205.4048211974216
 20
11.07206171336793
 10
205.4249419544333
 20
11.0813172522803
 10
205.4450381421315
 20
11.09046480547793
 10
205.4651098036278
 20
11.09950481517625
 10
205.485156982036
 20
11.10843772358338
 10
205.505179720459
 20
11.11726397291022
 10
205.5251780620159
 20
11.12598400537079
 10
205.5451520498166
 20
11.1345982631751
 10
205.5651017269713
 20
11.14310718853402
 10
205.5850271365919
 20
11.15151122365932
 10
205.604928321792
 20
11.15981081076006
 10
205.6248053256761
 20
11.16800639205119
 10
205.64465819136
 20
11.17609840974
 10
205.664486961957
 20
11.18408730604004
 10
205.6842916805721
 20
11.19197352316223
 10
205.7040723903241
 20
11.19975750331785
 10
205.7238291343159
 20
11.20743968871827
 10
205.7435619556684
 20
11.21502052157209
 10
205.7632708974864
 20
11.22250044409337
 10
205.7829560028798
 20
11.22987989849297
 10
205.8026173149678
 20
11.23715932697904
 10
205.8222548768511
 20
11.24433917176884
 10
205.8418687316494
 20
11.25141987506822
 10
205.861458922472
 20
11.25840187909124
 10
205.8810254924295
 20
11.26528562604699
 10
205.9005684846319
 20
11.27207155814584
 10
205.9200879421926
 20
11.2787601176028
 10
205.9395839082203
 20
11.28535174663011
 10
205.9590564258264
 20
11.29184688743225
 10
205.9785055381248
 20
11.29824598222511
 10
205.9979312882254
 20
11.30454947321914
 10
206.0173337192404
 20
11.31075780262243
 10
206.0367128742813
 20
11.31687141265228
 10
206.0560687964601
 20
11.32289074551499
 10
206.0754015288797
 20
11.3288162434228
 10
206.0947111146592
 20
11.33464834858886
 10
206.113997596912
 20
11.34038750322313
 10
206.1332610187486
 20
11.34603414953516
 10
206.1525014232714
 20
11.35158872973943
 10
206.1717188535999
 20
11.35705168604316
 10
206.1909133528474
 20
11.36242346066318
 10
206.2100849641149
 20
11.36770449580307
 10
206.2292337305255
 20
11.37289523368008
 10
206.2483596951836
 20
11.37799611650325
 10
206.2674629011994
 20
11.38300758648437
 10
206.2865433916899
 20
11.38793008583298
 10
206.3056012097599
 20
11.39276405676082
 10
206.3246363985266
 20
11.39750994148288
 10
206.3436490010948
 20
11.40216818220414
 10
206.3626390605834
 20
11.40673922114137
 10
206.3816066200991
 20
11.41122350050091
 10
206.4005517227536
 20
11.41562146249723
 10
206.4194744116569
 20
11.41993354934083
 10
206.4383747299229
 20
11.42416020324207
 10
206.4572527206631
 20
11.42830186641502
 10
206.4761084269878
 20
11.43235898106602
 10
206.4949418920054
 20
11.43633198940914
 10
206.5137531588309
 20
11.44022133365614
 10
206.532542270575
 20
11.44402745601609
 10
206.5513092703489
 20
11.44775079870395
 10
206.5700542012613
 20
11.45139180392606
 10
206.5887771064276
 20
11.45495091389693
 10
206.6074780289576
 20
11.45842857082606
 10
206.6261570119599
 20
11.46182521692524
 10
206.644814098548
 20
11.46514129440492
 10
206.6634493318336
 20
11.46837724547911
 10
206.682062754929
 20
11.471533512356
 10
206.700654410942
 20
11.47461053724827
 10
206.7192243429848
 20
11.47760876236588
 10
206.7377725941708
 20
11.48052862992106
 10
206.7562992076121
 20
11.48337058212517
 10
206.7748042264151
 20
11.48613506118816
 10
206.793287693695
 20
11.48882250932091
 10
206.8117496525586
 20
11.49143336873929
 10
206.8301901461266
 20
11.49396808164736
 10
206.8486092175038
 20
11.496427090261
 10
206.8670069098001
 20
11.49881083679199
 10
206.8853832661273
 20
11.50111976344576
 10
206.9037383295994
 20
11.50335431244001
 10
206.9220721433278
 20
11.50551492598423
 10
206.9403847504193
 20
11.50760204628703
 10
206.9586761939929
 20
11.50961611556339
 10
206.9769465171479
 20
11.51155757602008
 10
206.9951957630068
 20
11.51342686987209
 10
207.013423974678
 20
11.5152244393298
 10
207.0316311952714
 20
11.51695072660094
 10
207.0498174678954
 20
11.51860617390229
 10
207.067982835669
 20
11.52019122344243
 10
207.086127341697
 20
11.52170631743136
 10
207.1042510290912
 20
11.52315189808132
 10
207.1223539409634
 20
11.52452840760225
 10
207.1404361204271
 20
11.52583628820819
 10
207.1584976105962
 20
11.5270759821078
 10
207.1765384545719
 20
11.5282479315151
 10
207.1945586954746
 20
11.52935257863827
 10
207.2125583764113
 20
11.53039036568997
 10
207.230537540497
 20
11.53136173488199
 10
207.2484962308347
 20
11.53226712842114
 10
207.2664344905492
 20
11.53310698852509
 10
207.2843523627391
 20
11.53388175740017
 10
207.3022498905224
 20
11.53459187725909
 10
207.3201271170067
 20
11.53523779031591
 10
207.3379840853025
 20
11.53581993877832
 10
207.3558208385305
 20
11.53633876485718
 10
207.3736374197955
 20
11.53679471076564
 10
207.3914338722019
 20
11.53718821871507
 10
207.4092102388708
 20
11.53751973091402
 10
207.4269665629103
 20
11.53778968957613
 10
207.4447028874323
 20
11.53799853691225
 10
207.4624192555433
 20
11.5381467151319
 10
207.4801157103641
 20
11.53823466645007
 10
207.497792294996
 20
11.53826283307306
 10
207.5154490525595
 20
11.53823165721495
 10
207.5330860261595
 20
11.53814158108706
 10
207.5507032589078
 20
11.53799304690027
 10
207.5683007939199
 20
11.537786496865
 10
207.5858786742969
 20
11.53752237319303
 10
207.603436943163
 20
11.53720111809479
 10
207.6209756436232
 20
11.53682317378206
 10
207.6384948187873
 20
11.53638898246706
 10
207.6559945117691
 20
11.53589898635891
 10
207.6734747656785
 20
11.53535362767025
 10
207.6909356236313
 20
11.5347533486124
 10
207.7083771287319
 20
11.53409859139491
 10
207.7257993240959
 20
11.53338979823183
 10
207.7432022528312
 20
11.53262741132992
 10
207.7605859580521
 20
11.53181187290601
 10
207.7779504828717
 20
11.53094362516593
 10
207.7952958703967
 20
11.53002311032377
 10
207.8126221637389
 20
11.52905077059221
 10
207.829929406012
 20
11.52802704817893
 10
207.8472176403277
 20
11.52695238529576
 10
207.8644869097947
 20
11.52582722415582
 10
207.8817372575243
 20
11.52465200696996
 10
207.8989687266306
 20
11.52342717594818
 10
207.9161813602199
 20
11.52215317330226
 10
207.9333752014111
 20
11.52083044124218
 10
207.9505502933074
 20
11.51945942198107
 10
207.9677066790276
 20
11.51804055772799
 10
207.9848444016746
 20
11.51657429069699
 10
208.0019635043675
 20
11.51506106309716
 10
208.019064030211
 20
11.51350131714025
 10
208.0361460223242
 20
11.51189549503714
 10
208.0532095238134
 20
11.51024403899918
 10
208.0702545777889
 20
11.50854739123814
 10
208.0872812273605
 20
11.50680599396491
 10
208.1042895156473
 20
11.50502028938989
 10
208.1212794857504
 20
11.50319071972625
 10
208.1382511807909
 20
11.50131772718214
 10
208.1552046438768
 20
11.49940175397113
 10
208.1721399181128
 20
11.49744324230413
 10
208.1890570466178
 20
11.4954426343911
 10
208.2059560724986
 20
11.49340037244608
 10
208.2228370388724
 20
11.49131689867589
 10
208.2396999888437
 20
11.4891926552932
 10
208.2565449655298
 20
11.48702808451297
 10
208.2733720120352
 20
11.48482362854108
 10
208.2901811714795
 20
11.48257972959209
 10
208.3069724869687
 20
11.48029682987725
 10
208.3237460016092
 20
11.4779753716043
 10
208.340501758524
 20
11.47561579698912
 10
208.357239800814
 20
11.4732185482403
 10
208.3739601715964
 20
11.47078406756691
 10
208.3906629139796
 20
11.46831279718526
 10
208.407348071077
 20
11.46580517930214
 10
208.4240156860008
 20
11.46326165613116
 10
208.4406658018555
 20
11.46068266988276
 10
208.4572984617619
 20
11.45806866276823
 10
208.473913708823
 20
11.45542007699895
 10
208.4905115861559
 20
11.45273735478711
 10
208.5070921368691
 20
11.45002093833998
 10
208.523655404076
 20
11.447271269873
 10
208.5402014308833
 20
11.44448879159606
 10
208.5567302604079
 20
11.44167394571831
 10
208.5732419357604
 20
11.43882717445513
 10
208.5897365000449
 20
11.435948920011
 10
208.6062139963773
 20
11.43303962460594
 10
208.6226744678746
 20
11.4300997304449
 10
208.6391179576398
 20
11.42712967974101
 10
208.6555445087864
 20
11.42412991470517
 10
208.671954164432
 20
11.42110087754826
 10
208.6883469676808
 20
11.41804301048203
 10
208.7047229616431
 20
11.41495675571694
 10
208.7210821894363
 20
11.41184255546566
 10
208.7374246941611
 20
11.40870085193817
 10
208.7537505189424
 20
11.40553208734399
 10
208.7700597068791
 20
11.40233670389805
 10
208.7863523010959
 20
11.39911514381127
 10
208.8026283446955
 20
11.39586784928997
 10
208.8188878807863
 20
11.39259526255
 10
208.8351309524855
 20
11.38929782580225
 10
208.8513576028994
 20
11.38597598125623
 10
208.867567875149
 20
11.38263017112331
 10
208.883761812332
 20
11.37926083761384
 10
208.8999394575669
 20
11.37586842294104
 10
208.9161008539698
 20
11.37245336931799
 10
208.9322460446414
 20
11.36901611894926
 10
208.9483750727025
 20
11.36555711405299
 10
208.9644879812561
 20
11.36207679683639
 10
208.9805848134195
 20
11.35857560950989
 10
208.9966656123046
 20
11.35505399428892
 10
209.0127304210195
 20
11.35151239338209
 10
209.0287792826724
 20
11.34795124899936
 10
209.0448122403808
 20
11.3443710033548
 10
209.0608293372473
 20
11.34077209865699
 10
209.0768306164004
 20
11.33715497711727
 10
209.0928161209316
 20
11.33352008095015
 10
209.1087858939657
 20
11.32986785236242
 10
209.1247399786074
 20
11.32619873356816
 10
209.1406784179684
 20
11.32251316677593
 10
209.1566012551623
 20
11.31881159420116
 10
209.1725085333012
 20
11.31509445805203
 10
209.1884002954914
 20
11.31136220053984
 10
209.2042765848521
 20
11.3076152638764
 10
209.2201374444843
 20
11.3038540902721
 10
209.235982917507
 20
11.30007912193786
 10
209.2518130470301
 20
11.29629080108633
 10
209.2676278761604
 20
11.29248956992976
 10
209.2834274480186
 20
11.28867587067498
 10
209.2992118057058
 20
11.28485014553916
 10
209.3149809923391
 20
11.28101283672731
 10
209.3307350510271
 20
11.27716438645393
 10
209.3464740248868
 20
11.27330523692989
 10
209.3621979570193
 20
11.26943583036607
 10
209.3779068905436
 20
11.26555660897609
 10
209.393600868568
 20
11.26166801496718
 10
209.4092799342083
 20
11.25777049055022
 10
209.4249441305685
 20
11.25386447794108
 10
209.440593500763
 20
11.24995041934925
 10
209.4562280879066
 20
11.246028756982
 10
209.4718479351062
 20
11.24209993305474
 10
209.4874530854753
 20
11.23816438977609
 10
209.5030435821239
 20
11.23422256936008
 10
209.5186194681641
 20
11.2302749140158
 10
209.5341807867038
 20
11.22632186595728
 10
209.5497275808606
 20
11.22236386739132
 10
209.5652598937426
 20
11.21840136053014
 10
209.5807777684598
 20
11.21443478758782
 10
209.5962812481278
 20
11.21046459077295
 10
209.6117703758495
 20
11.20649121229825
 10
209.6272451947438
 20
11.20251509437502
 10
209.642705747919
 20
11.19853667921095
 10
209.6581520784833
 20
11.19455640902196
 10
209.6735842295577
 20
11.19057472601524
 10
209.6890022442433
 20
11.18659207240624
 10
209.7044061656591
 20
11.18260889040309
 10
209.7197960369115
 20
11.17862562221625
 10
209.7351719011106
 20
11.17464271005973
 10
209.750533801372
 20
11.17066059614216
 10
209.7658817808055
 20
11.16667972267713
 10
209.7812158825194
 20
11.16270053187508
 10
209.796536149631
 20
11.15872346594505
 10
209.8118426252435
 20
11.1547489671011
 10
209.8271353524755
 20
11.15077747755184
 10
209.8424143744372
 20
11.14680943951088
 10
209.8576797342352
 20
11.14284529518908
 10
209.8729314749866
 20
11.13888548679596
 10
209.8881696397961
 20
11.13493045654421
 10
209.9033942717845
 20
11.13098064664427
 10
209.9186054140495
 20
11.12703649930788
 10
209.9338031097153
 20
11.12309845674599
 10
209.9489874018904
 20
11.11916696116802
 10
209.9641583336755
 20
11.11524245478812
 10
209.9793159481955
 20
11.11132537981528
 10
209.9944602885583
 20
11.10741617846314
 10
210.0095913978723
 20
11.10351529294119
 10
210.0247093192441
 20
11.09962316545988
 10
210.0398140957945
 20
11.09574023823097
 10
210.0549057706297
 20
11.09186695346715
 10
210.0699843868636
 20
11.08800375337795
 10
210.0850499876081
 20
11.08415108017424
 10
210.1001026159678
 20
11.080309376071
 10
210.1151423150599
 20
11.07647908327407
 10
210.1301691279963
 20
11.07266064399617
 10
210.1451830978798
 20
11.06885450045
 10
210.1601842678369
 20
11.06506109484598
 10
210.1751726809629
 20
11.06128086939586
 10
210.1901483803808
 20
11.05751426631193
 10
210.2051114091968
 20
11.05376172780186
 10
210.2200618105193
 20
11.05002369607882
 10
210.2349996274655
 20
11.046300613355
 10
210.2499249031438
 20
11.04259292183906
 10
210.2648376806659
 20
11.03890106374409
 10
210.2797380031419
 20
11.03522548128239
 10
210.2946259136837
 20
11.03156661666206
 10
210.3095014554067
 20
11.02792491209537
 10
210.3243646714158
 20
11.02430080979592
 10
210.339215604826
 20
11.02069475197229
 10
210.3540542987461
 20
11.01710718083632
 10
210.3688807962929
 20
11.01353853860018
 10
210.3836951405659
 20
11.00998926747114
 10
210.3984973746913
 20
11.006459809666
 10
210.4132875417703
 20
11.00295060739288
 10
210.428065684918
 20
10.99946210286134
 10
210.4428318472449
 20
10.99599473828629
 10
210.457586071859
 20
10.99254895587818
 10
210.4723284018776
 20
10.98912519784515
 10
210.487058880409
 20
10.98572390640309
 10
210.5017775505634
 20
10.98234552376014
 10
210.5164844554541
 20
10.97899049212718
 10
210.5311796381915
 20
10.97565925371509
 10
210.5458631418873
 20
10.9723522507379
 10
210.5605350096515
 20
10.96906992540289
 10
210.575195284596
 20
10.9658127199259
 10
210.5898440098294
 20
10.96258107651509
 10
210.6044812284666
 20
10.95937543738318
 10
210.6191069836234
 20
10.95619624473783
 10
210.6337213184045
 20
10.95304394079493
 10
210.6483242759199
 20
10.94991896776216
 10
210.6629158992848
 20
10.9468217678518
 10
210.6774962316098
 20
10.94375278327515
 10
210.6920653160044
 20
10.94071245624718
 10
210.706623195579
 20
10.93770122897102
 10
210.7211699134508
 20
10.93471954366487
 10
210.7357055127244
 20
10.93176784253726
 10
210.7502300365134
 20
10.92884656779687
 10
210.7647435279317
 20
10.92595616165907
 10
210.7792460300891
 20
10.92309706633477
 10
210.7937375860959
 20
10.92026972403209
 10
210.8082182390603
 20
10.91747457696373
 10
210.8226880320975
 20
10.91471206734284
 10
210.8371470083197
 20
10.91198263737805
 10
210.851595210835
 20
10.90928672928293
 10
210.8660326827588
 20
10.90662478526609
 10
210.8804594671995
 20
10.90399724753795
 10
210.8948756072671
 20
10.90140455831305
 10
210.9092811460754
 20
10.89884715979996
 10
210.9236761267359
 20
10.89632549421319
 10
210.9380605923556
 20
10.89384000376002
 10
210.9524345860513
 20
10.8913911306531
 10
210.9667981509331
 20
10.88897931710515
 10
210.9811513301095
 20
10.88660500532521
 10
210.995494166696
 20
10.884268637526
 10
211.009826703795
 20
10.88197065591611
 10
211.0241489845297
 20
10.87971150271095
 10
211.0384610520045
 20
10.87749162011914
 10
211.0527629493311
 20
10.87531145035016
 10
211.0670547196199
 20
10.87317143561993
 10
211.081336405988
 20
10.87107201813523
 10
211.09560805154
 20
10.86901364010917
 10
211.109869699388
 20
10.86699674374995
 10
211.124121392649
 20
10.86502177127611
 10
211.1383631744278
 20
10.86308916489131
 10
211.1525950878379
 20
10.86119936681007
 10
211.1668171759896
 20
10.8593528192441
 10
211.181029482
 20
10.85754996440208
 10
211.1952320489721
 20
10.85579124449894
 10
211.209424920023
 20
10.85407710174103
 10
211.2236081382593
 20
10.85240797834284
 10
211.2377817467963
 20
10.85078431651709
 10
211.2519457887441
 20
10.84920655847009
 10
211.266100307211
 20
10.84767514641815
 10
211.2802453453162
 20
10.84619052256811
 10
211.2943809461607
 20
10.8447531291349
 10
211.3085071528616
 20
10.84336340832577
 10
211.3226240085289
 20
10.84202180235386
 10
211.3367315562767
 20
10.84072875343324
 10
211.3508298392129
 20
10.8394847037698
 10
211.3649189004475
 20
10.83829009557983
 10
211.3789987830982
 20
10.83714537106924
 10
211.3930695302673
 20
10.83605097245298
 10
211.4071311850761
 20
10.83500734194194
 10
211.4211837906271
 20
10.83401492174698
 10
211.4352273900362
 20
10.83307415407896
 10
211.4492620264149
 20
10.832185481147
 10
211.4632877428678
 20
10.83134934516601
 10
211.477304582518
 20
10.83056618834415
 10
211.491312588468
 20
10.82983645289414
 10
211.5053118038298
 20
10.82916058102818
 10
211.5193022717189
 20
10.8285390149549
 10
211.5332840352434
 20
10.8279721968879
 10
211.5472571375116
 20
10.82746056903806
 10
211.5612216216407
 20
10.82700457361488
 10
211.5751775307447
 20
10.82660465283105
 10
211.5891249079244
 20
10.8262612488961
 10
211.6030637962952
 20
10.82597480402317
 10
211.616994238971
 20
10.82574576042086
 10
211.6309162790651
 20
10.82557456030324
 10
211.6448299596789
 20
10.82546164588119
 10
211.6587353239369
 20
10.82540745936511
 10
211.6726324149398
 20
10.82541244296589
 10
211.6865212758033
 20
10.82547703889303
 10
211.7004019496357
 20
10.82560168936196
 10
211.7142744795558
 20
10.82578683658083
 10
211.7281389086669
 20
10.82603292276097
 10
211.741995280084
 20
10.82634039011599
 10
211.7558436369157
 20
10.82670968085311
 10
211.7696840222738
 20
10.82714123718597
 10
211.7835164792754
 20
10.82763550132721
 10
211.7973410510233
 20
10.82819291548501
 10
211.8111577806351
 20
10.82881392187208
 10
211.824966711217
 20
10.82949896269929
 10
211.8387678858884
 20
10.8302484801761
 10
211.8525613477499
 20
10.83106291651801
 10
211.8663471399208
 20
10.83194271393312
 10
211.8801253055056
 20
10.83288831463323
 10
211.8938958876217
 20
10.83390016082921
 10
211.9076589293794
 20
10.8349786947324
 10
211.9214144738866
 20
10.83612435855409
 10
211.935162564257
 20
10.83733759450614
 10
211.9489032436044
 20
10.838618844798
 10
211.9626365550351
 20
10.83996855164331
 10
211.976362541663
 20
10.84138715724882
 10
211.9900812465997
 20
10.84287510383318
 10
212.0037927129555
 20
10.84443283360223
 10
212.0174969838402
 20
10.84606078876593
 10
212.0311941023678
 20
10.84775941153929
 10
212.0448841116516
 20
10.84952914412997
 10
212.0585670547946
 20
10.85137042875429
 10
212.072242974916
 20
10.85328370761816
 10
212.085911915124
 20
10.85526942293427
 10
212.0995739185321
 20
10.85732801691618
 10
212.1132290282452
 20
10.85945993177118
 10
212.1268772873839
 20
10.86166560971423
 10
212.1405187390494
 20
10.86394549295391
 10
212.1541534263645
 20
10.86630002370202
 10
212.16778139243
 20
10.86872964417078
 10
212.1814026803599
 20
10.8712347965711
 10
212.1950173332729
 20
10.87381592311202
 10
212.208625394272
 20
10.87647346600805
 10
212.2222269064671
 20
10.87920786746826
 10
212.2358219129759
 20
10.88201956970623
 10
212.2494104569081
 20
10.88490901492831
 10
212.262992581372
 20
10.88787664535038
 10
212.2765683294796
 20
10.8909229031792
 10
212.2901377443481
 20
10.89404823063294
 10
212.3037008690801
 20
10.89725306991522
 10
212.3172577467915
 20
10.90053786324005
 10
212.3308084205923
 20
10.90390305282289
 10
212.3443529335975
 20
10.90734908086732
 10
212.3578913289124
 20
10.91087638959105
 10
212.3714236496519
 20
10.91448542119996
 10
212.3849499389246
 20
10.91817661791127
 10
212.3984702398459
 20
10.92195042192996
 10
212.4119845955241
 20
10.92580727547008
 10
212.4254930490691
 20
10.92974762074435
 10
212.4389956435964
 20
10.93377189995998
 10
212.4524924222162
 20
10.93788055533331
 10
212.4659834280349
 20
10.94207402907111
 10
212.4794687041716
 20
10.94635276338703
 10
212.4929482937325
 20
10.95071720049007
 10
212.5064222398281
 20
10.95516778259207
 10
212.5198905855716
 20
10.95970495190794
 10
212.5333533740771
 20
10.96432915064314
 10
212.5468106484508
 20
10.96904082101308
 10
212.5602624518026
 20
10.97384040522727
 10
212.5737088272556
 20
10.97872834549616
 10
212.5871498179089
 20
10.98370508403285
 10
212.6005854668759
 20
10.98877106304689
 10
212.6140158172705
 20
10.99392672475095
 10
212.6274409122046
 20
10.99917251135501
 10
212.6408607947865
 20
11.00450886507086
 10
212.6542755081275
 20
11.009936228108
 10
212.6676850953439
 20
11.01545504268097
 10
212.6810895995399
 20
11.02106575099695
 10
212.6944890638308
 20
11.02676879527006
 10
212.7078835313271
 20
11.03256461771298
 10
212.721273045144
 20
11.03845366053199
 10
212.7346576483864
 20
11.04443636594214
 10
212.7480373841676
 20
11.05051317615198
 10
212.75779044416
 20
11.05501336424821
  0
ARC
  5
1DC
330
2
100
AcDbEntity
  8
0
100
AcDbCircle
 10
199.8344846479721
 20
21.43432236431635
 30
0.0
 40
8.907313409310658
100
AcDbArc
 50
24.23072274293794
 51
94.90087069775272
  0
ARC
  5
1DD
330
2
100
AcDbEntity
  8
0
100
AcDbCircle
 10
208.2289073646188
 20
25.54132363246297
 30
0.0
 40
0.5
100
AcDbArc
 50
90.0
 51
177.9685271120391
  0
ARC
  5
1DE
330
2
100
AcDbEntity
  8
0
100
AcDbCircle
 10
203.66694226694
 20
29.72318901690414
 30
0.0
 40
1.318158315128889
100
AcDbArc
 50
89.6564224934487
 51
169.1029148372918
  0
ARC
  5
1DF
330
2
100
AcDbEntity
  8
0
 48
0.6
100
AcDbCircle
 10
397.9708098249061
 20
82.24647388589456
 30
0.0
 40
198.424007114411
100
AcDbArc
 50
196.741383223964
 51
201.0255674856278
  0
ARC
  5
1E0
330
2
100
AcDbEntity
  8
0
 48
0.6
100
AcDbCircle
 10
383.4078744800023
 20
79.18855241638792
 30
0.0
 40
190.704902974107
100
AcDbArc
 50
194.8511941132887
 51
200.9430343447444
  0
LINE
  5
1E1
330
2
100
AcDbEntity
  8
0
 48
0.6
100
AcDbLine
 10
207.5723533210784
 20
32.8838464081723
 30
0.0
 11
198.5723533210784
 21
32.8838464081723
 31
0.0
  0
ARC
  5
1E2
330
2
100
AcDbEntity
  8
0
 48
0.6
100
AcDbCircle
 10
239.6712812569731
 20
32.71981193232341
 30
0.0
 40
37.855792
100
AcDbArc
 50
179.8658330000312
 51
183.9724199931055
  0
LINE
  5
1E3
330
2
100
AcDbEntity
  8
0
 48
0.6
100
AcDbLine
 10
198.0723533210784
 20
42.48510906664296
 30
0.0
 11
198.0723533210784
 21
34.78510906664403
 31
0.0
  0
LINE
  5
1E4
330
2
100
AcDbEntity
  8
0
 48
0.6
100
AcDbLine
 10
197.1723533210786
 20
34.78510906664403
 30
0.0
 11
198.0723533210784
 21
34.78510906664403
 31
0.0
  0
ARC
  5
1E5
330
2
100
AcDbEntity
  8
0
 48
0.6
100
AcDbCircle
 10
198.5723533210784
 20
33.3838464081723
 30
0.0
 40
0.5
100
AcDbArc
 50
180.0
 51
270.0
  0
LINE
  5
1E6
330
2
100
AcDbEntity
  8
0
 48
0.6
100
AcDbLine
 10
198.0723533210784
 20
33.8838464081723
 30
0.0
 11
198.0723533210784
 21
33.3838464081723
 31
0.0
  0
LINE
  5
1E7
330
2
100
AcDbEntity
  8
0
 48
0.6
100
AcDbLine
 10
197.1723533210786
 20
42.48510906664296
 30
0.0
 11
198.0723533210784
 21
42.48510906664296
 31
0.0
  0
ARC
  5
1E8
330
2
100
AcDbEntity
  8
0
 48
0.6
100
AcDbCircle
 10
239.0825812678558
 20
32.8815115171792
 30
0.0
 40
35.255792
100
AcDbArc
 50
179.9962054631615
 51
182.9919319862273
  0
ARC
  5
1E9
330
2
100
AcDbEntity
  8
0
 48
0.6
100
AcDbCircle
 10
207.5723533210784
 20
33.3838464081723
 30
0.0
 40
0.5
100
AcDbArc
 50
270.0
 51
0.0
  0
LINE
  5
1EA
330
2
100
AcDbEntity
  8
0
 48
0.6
100
AcDbLine
 10
208.0723533210784
 20
33.8838464081723
 30
0.0
 11
208.0723533210784
 21
33.3838464081723
 31
0.0
  0
ARC
  5
1EB
330
2
100
AcDbEntity
  8
0
 48
0.6
100
AcDbCircle
 10
239.3750753210788
 20
32.79520040817397
 30
0.0
 40
39.15579199999999
100
AcDbArc
 50
179.8702870000233
 51
183.6102158837779
  0
ARC
  5
1EC
330
2
100
AcDbEntity
  8
0
 48
0.6
100
AcDbCircle
 10
239.3750753210788
 20
32.79520040817397
 30
0.0
 40
33.95579199999998
100
AcDbArc
 50
179.85042300002
 51
182.9607459492086
  0
LINE
  5
1ED
330
2
100
AcDbEntity
  8
0
100
AcDbLine
 10
148.0723533210855
 20
69.38384640817229
 30
0.0
 11
119.0723533210855
 21
69.38384640817229
 31
0.0
  0
LINE
  5
1EE
330
2
100
AcDbEntity
  8
2
 62
     7
100
AcDbLine
 10
151.0723533210855
 20
61.38384640817229
 30
0.0
 11
148.5723533210855
 21
61.38384640817229
 31
0.0
  0
ARC
  5
1F0
330
2
100
AcDbEntity
  8
2
 62
     7
100
AcDbCircle
 10
148.5723533210855
 20
61.88384640817229
 30
0.0
 40
0.4999999999999968
100
AcDbArc
 50
180.0
 51
270.0
  0
LINE
  5
1F1
330
2
100
AcDbEntity
  8
2
 62
     7
100
AcDbLine
 10
148.0723533210855
 20
61.88384640817229
 30
0.0
 11
148.0723533210855
 21
63.38384640817229
 31
0.0
  0
LINE
  5
1F2
330
2
100
AcDbEntity
  8
0
100
AcDbLine
 10
208.2289073646188
 20
26.04132363246298
 30
0.0
 11
305.5723533210783
 21
26.04132363246117
 31
0.0
  0
LINE
  5
1F3
330
2
100
AcDbEntity
  8
0
100
AcDbLine
 10
203.6748466333154
 20
31.04132363246117
 30
0.0
 11
303.5723533210783
 21
31.04132363246117
 31
0.0
  0
LINE
  5
1F4
330
2
100
AcDbEntity
  8
0
 48
0.6
100
AcDbLine
 10
259.0723533210784
 20
33.8838464081723
 30
0.0
 11
197.1723533210786
 21
33.8838464081723
 31
0.0
  0
LINE
  5
1F5
330
2
100
AcDbEntity
  8
CEN
 48
0.6
100
AcDbLine
 10
269.5596583717305
 20
63.38384640817229
 30
0.0
 11
135.5372171187864
 21
63.38384640817229
 31
0.0
  0
DIMENSION
  5
1F6
102
{ACAD_XDICTIONARY
360
1F7
102
}
102
{ACAD_REACTORS
330
1F8
102
}
330
2
100
AcDbEntity
  8
DIM
100
AcDbDimension
  2
*D42
 10
97.60293096629723
 20
77.38384640817229
 30
0.0
 11
97.60293096629721
 21
101.2244660504109
 31
0.0
 70
   160
  1
\A1;{\f??|b0|i0|c0|p49;%%C8\H0.7x;\S+0^ -0.015;\H1.429x;(h7)}
  3
STANDARD
100
AcDbAlignedDimension
 13
119.0723533210855
 23
69.38384640817229
 33
0.0
 14
131.0723533210857
 24
77.38384640817229
 34
0.0
 50
90.0
100
AcDbRotatedDimension
  0
DIMENSION
  5
207
102
{ACAD_XDICTIONARY
360
208
102
}
102
{ACAD_REACTORS
330
209
102
}
330
2
100
AcDbEntity
  8
0
100
AcDbDimension
  2
*D41
 10
106.1995508115068
 20
69.38384640817229
 30
0.0
 11
106.1995508115068
 21
91.68384640817317
 31
0.0
 70
   160
  3
STANDARD
100
AcDbAlignedDimension
 13
119.0723533210855
 23
76.38384640817228
 33
0.0
 14
119.0723533210855
 24
69.38384640817229
 34
0.0
 50
90.0
100
AcDbRotatedDimension
  0
LINE
  5
218
102
{ACAD_REACTORS
330
162
102
}
330
2
100
AcDbEntity
  8
0
 48
0.6
100
AcDbLine
 10
151.0723533210855
 20
92.88384640817232
 30
0.0
 11
151.0723533210855
 21
33.8838464081723
 31
0.0
  0
LINE
  5
219
102
{ACAD_REACTORS
330
162
102
}
330
2
100
AcDbEntity
  8
0
 48
0.6
100
AcDbLine
 10
191.0723533210784
 20
93.38384640817414
 30
0.0
 11
191.0723533210784
 21
33.3838464081723
 31
0.0
  0
LINE
  5
21A
330
2
100
AcDbEntity
  8
0
100
AcDbLine
 10
151.0723533210855
 20
61.38384640817229
 30
0.0
 11
151.0723533210855
 21
92.88384640817232
 31
0.0
  0
LINE
  5
21B
102
{ACAD_REACTORS
330
1A7
102
}
330
2
100
AcDbEntity
  8
0
100
AcDbLine
 10
148.0723533210855
 20
84.88384640817228
 30
0.0
 11
148.0723533210855
 21
61.88384640817229
 31
0.0
  0
LINE
  5
21C
330
2
100
AcDbEntity
  8
0
100
AcDbLine
 10
314.0723533210783
 20
85.88384640817229
 30
0.0
 11
314.0723533210766
 21
40.88384640817229
 31
0.0
  0
LINE
  5
21D
330
2
100
AcDbEntity
  8
0
 48
0.6
100
AcDbLine
 10
259.072353321082
 20
94.13384640817232
 30
0.0
 11
259.0723533210784
 21
32.6338464081723
 31
0.0
  0
LINE
  5
21E
330
2
100
AcDbEntity
  8
0
100
AcDbLine
 10
304.0723533210783
 20
91.85384640817323
 30
0.0
 11
304.0723533210783
 21
34.9138464081734
 31
0.0
  0
LINE
  5
21F
330
2
100
AcDbEntity
  8
0
 48
0.6
100
AcDbLine
 10
197.1723533210786
 20
93.38384640817414
 30
0.0
 11
197.1723533210786
 21
33.3838464081723
 31
0.0
  0
LINE
  5
220
330
2
100
AcDbEntity
  8
0
 48
0.6
100
AcDbLine
 10
259.0723533210784
 20
33.8838464081723
 30
0.0
 11
259.0723533210784
 21
92.88384640817232
 31
0.0
  0
LINE
  5
221
102
{ACAD_REACTORS
330
209
330
171
102
}
330
2
100
AcDbEntity
  8
0
100
AcDbLine
 10
119.0723533210855
 20
76.38384640817228
 30
0.0
 11
119.0723533210855
 21
69.38384640817229
 31
0.0
  0
DIMENSION
  5
222
102
{ACAD_XDICTIONARY
360
223
102
}
102
{ACAD_REACTORS
330
224
102
}
330
2
100
AcDbEntity
  8
0
100
AcDbDimension
  2
*D40
 10
328.1538468467843
 20
39.88384640817228
 30
0.0
 11
328.1538468467843
 21
61.09009640817339
 31
0.0
 70
   160
  1
%%C<>
  3
STANDARD
100
AcDbAlignedDimension
 13
313.0723533210785
 23
86.88384640817414
 33
0.0
 14
313.0723533210785
 24
39.88384640817228
 34
0.0
 50
90.0
100
AcDbRotatedDimension
  0
DIMENSION
  5
231
102
{ACAD_XDICTIONARY
360
232
102
}
102
{ACAD_REACTORS
330
233
102
}
330
2
100
AcDbEntity
  8
0
100
AcDbDimension
  2
*D39
 10
337.9903185363853
 20
33.38193873593807
 30
0.0
 11
337.9903185363853
 21
63.32753732609081
 31
0.0
 70
   160
  1
%%C<>
  3
STANDARD
100
AcDbAlignedDimension
 13
302.5726927259948
 23
93.38575408040924
 33
0.0
 14
302.5726927259948
 24
33.38193873593809
 34
0.0
 50
90.0
100
AcDbRotatedDimension
  0
LINE
  5
240
330
2
100
AcDbEntity
  8
1
  6
BYBLOCK
 62
     0
100
AcDbLine
 10
235.5367282081788
 20
177.1007003433338
 30
0.0
 11
235.5367282081788
 21
149.5607003433329
 31
0.0
  0
TEXT
  5
242
330
2
100
AcDbEntity
  8
1
  6
BYBLOCK
 62
     0
100
AcDbText
 10
173.3201048256159
 20
161.5044202604303
 30
0.0
 40
4.589999999999998
  1
K6G3~18B(C)
100
AcDbText
  0
TEXT
  5
243
330
2
100
AcDbEntity
  8
1
  6
BYBLOCK
 62
     0
100
AcDbText
 10
173.9334671946508
 20
152.1759368203388
 30
0.0
 40
4.589999999999998
  1
K6G25~180B(C)
100
AcDbText
  0
TEXT
  5
244
330
2
100
AcDbEntity
  8
1
  6
BYBLOCK
 62
     0
100
AcDbText
 10
173.1692012725833
 20
169.999386511214
 30
0.0
 40
4.589999999999998
  1
APPLICATION MODEL
 41
0.8
  7
GHS
100
AcDbText
  0
LINE
  5
246
330
2
100
AcDbEntity
  8
1
  6
BYBLOCK
 62
     0
100
AcDbLine
 10
167.3782221063684
 20
177.1007003433338
 30
0.0
 11
167.3782221063684
 21
149.5607003433329
 31
0.0
  0
LINE
  5
247
330
2
100
AcDbEntity
  8
1
  6
BYBLOCK
 62
     0
100
AcDbLine
 10
137.6851881207785
 20
177.1007003433338
 30
0.0
 11
137.6851881207785
 21
149.5607003433329
 31
0.0
  0
LINE
  5
248
330
2
100
AcDbEntity
  8
1
  6
BYBLOCK
 62
     0
100
AcDbLine
 10
113.8684049228485
 20
177.1007003433338
 30
0.0
 11
113.8684049228485
 21
149.5607003433329
 31
0.0
  0
TEXT
  5
249
330
2
100
AcDbEntity
  8
1
  6
BYBLOCK
 62
     0
100
AcDbText
 10
149.2570381777985
 20
169.9213151563579
 30
0.0
 40
4.589999999999998
  1
L
 41
0.8
  7
GHS
100
AcDbText
  0
TEXT
  5
24A
330
2
100
AcDbEntity
  8
1
  6
BYBLOCK
 62
     0
100
AcDbText
 10
147.4082373720866
 20
151.727785300475
 30
0.0
 40
4.589999999999998
  1
40
100
AcDbText
  0
TEXT
  5
24B
330
2
100
AcDbEntity
  8
1
  6
BYBLOCK
 62
     0
100
AcDbText
 10
147.4082373720866
 20
160.907785300475
 30
0.0
 40
4.589999999999998
  1
30
100
AcDbText
  0
LINE
  5
24C
330
2
100
AcDbEntity
  8
1
  6
BYBLOCK
 62
     0
100
AcDbLine
 10
113.0981383523176
 20
180.5583572585459
 30
0.0
 11
162.763576164536
 21
180.5583572585459
 31
0.0
  0
LINE
  5
24D
330
2
100
AcDbEntity
  8
1
  6
BYBLOCK
 62
     0
100
AcDbLine
 10
113.0981383523176
 20
180.7833572585439
 30
0.0
 11
162.763576164536
 21
180.7833572585439
 31
0.0
  0
LINE
  5
24E
330
2
100
AcDbEntity
  8
1
  6
BYBLOCK
 62
     0
100
AcDbLine
 10
113.0981383523176
 20
181.5123892195408
 30
0.0
 11
162.763576164536
 21
181.5123892195408
 31
0.0
  0
TEXT
  5
24F
330
2
100
AcDbEntity
  8
1
 62
     0
100
AcDbText
 10
113.7601288465375
 20
182.608139130302
 30
0.0
 40
4.589999999999998
  1
DIMENSION TABLE
 41
0.8
  7
GHS
100
AcDbText
  0
TEXT
  5
250
330
2
100
AcDbEntity
  8
1
  6
BYBLOCK
 62
     0
100
AcDbText
 10
121.429530083227
 20
170.089513069302
 30
0.0
 40
4.589999999999998
  1
NO.
 41
0.8
  7
GHS
100
AcDbText
  0
TEXT
  5
251
330
2
100
AcDbEntity
  8
1
  6
BYBLOCK
 62
     0
100
AcDbText
 10
121.8876785347855
 20
161.162365269377
 30
0.0
 40
4.589999999999998
  1
01
 41
0.8
  7
GHS
100
AcDbText
  0
TEXT
  5
252
330
2
100
AcDbEntity
  8
1
  6
BYBLOCK
 62
     0
100
AcDbText
 10
121.8876785347855
 20
151.982365269378
 30
0.0
 40
4.589999999999998
  1
02
 41
0.8
  7
GHS
100
AcDbText
  0
LINE
  5
253
330
2
100
AcDbEntity
  8
1
  6
BYBLOCK
 62
     0
100
AcDbLine
 10
235.5367282081788
 20
149.5607003433329
 30
0.0
 11
113.8684049228485
 21
149.5607003433329
 31
0.0
  0
LINE
  5
254
330
2
100
AcDbEntity
  8
1
  6
BYBLOCK
 62
     0
100
AcDbLine
 10
235.5367282081788
 20
177.1007003433338
 30
0.0
 11
113.8684049228485
 21
177.1007003433338
 31
0.0
  0
LINE
  5
255
330
2
100
AcDbEntity
  8
1
  6
BYBLOCK
 62
     0
100
AcDbLine
 10
235.5367282081788
 20
167.920700343333
 30
0.0
 11
113.8684049228485
 21
167.920700343333
 31
0.0
  0
LINE
  5
256
330
2
100
AcDbEntity
  8
1
  6
BYBLOCK
 62
     0
100
AcDbLine
 10
235.5367282081788
 20
158.740700343333
 30
0.0
 11
113.8684049228485
 21
158.740700343333
 31
0.0
  0
LINE
  5
257
330
2
100
AcDbEntity
  8
CEN
 48
0.6
100
AcDbLine
 10
72.51790296283616
 20
245.686233447177
 30
0.0
 11
142.637429808068
 21
245.686233447177
 31
0.0
  0
LINE
  5
258
330
2
100
AcDbEntity
  8
0
100
AcDbLine
 10
82.57766638544856
 20
275.6862334471751
 30
0.0
 11
132.5776663854483
 21
275.6862334471751
 31
0.0
  0
LINE
  5
259
330
2
100
AcDbEntity
  8
0
  6
CENTER
 62
     1
 48
0.4
100
AcDbLine
 10
84.37540244238698
 20
259.082066780508
 30
0.0
 11
90.94276175442793
 21
255.2904001138413
 31
0.0
  0
CIRCLE
  5
25A
330
2
100
AcDbEntity
  8
0
100
AcDbCircle
 10
87.65908209840745
 20
257.1862334471751
 30
0.0
 40
3.0
  0
DIMENSION
  5
25B
330
2
100
AcDbEntity
  8
2
100
AcDbDimension
  2
*D51
 10
76.82445909664664
 20
228.9757504663551
 30
0.0
 11
157.1947819312972
 21
272.6468674096801
 31
0.0
 70
   163
  1
<>%%P0.5
  3
STANDARD
100
AcDbDiametricDimension
 15
138.3308736742377
 25
262.3967164279918
 35
0.0
 40
0.0
  0
CIRCLE
  5
267
330
2
100
AcDbEntity
  8
CEN
 48
0.6
100
AcDbCircle
 10
107.5776663854485
 20
245.6862334471761
 30
0.0
 40
23.0
  0
CIRCLE
  5
268
330
2
100
AcDbEntity
  8
0
100
AcDbCircle
 10
107.5776663854485
 20
245.686233447177
 30
0.0
 40
27.0
  0
ARC
  5
269
330
2
100
AcDbEntity
  8
CEN
 48
0.6
100
AcDbCircle
 10
116.3961627106964
 20
346.4689372565191
 30
0.0
 40
35.0
100
AcDbArc
 50
199.5241366191914
 51
231.1865505975711
  0
ARC
  5
26A
330
2
100
AcDbEntity
  8
0
100
AcDbCircle
 10
91.39616271069643
 20
321.4689372565192
 30
0.0
 40
5.0
100
AcDbArc
 50
180.0
 51
270.0
  0
LINE
  5
26B
330
2
100
AcDbEntity
  8
CEN
 48
0.6
100
AcDbLine
 10
81.39616271069645
 20
346.4689372565191
 30
0.0
 11
151.3961627106964
 21
346.4689372565191
 31
0.0
  0
LINE
  5
26C
330
2
100
AcDbEntity
  8
0
 48
0.6
100
AcDbLine
 10
82.57766638544856
 20
215.6862334471761
 30
0.0
 11
132.5776663854483
 21
215.6862334471761
 31
0.0
  0
DIMENSION
  5
26D
102
{ACAD_XDICTIONARY
360
26E
102
}
102
{ACAD_REACTORS
330
26F
102
}
330
2
100
AcDbEntity
  8
0
 48
0.6
100
AcDbDimension
  2
*D50
 10
137.5776663854483
 20
202.657912526791
 30
0.0
 11
109.6224128142984
 21
202.657912526791
 31
0.0
 70
   160
  3
STANDARD
100
AcDbAlignedDimension
 13
77.57766638544855
 23
220.6862334471761
 33
0.0
 14
137.5776663854483
 24
220.6862334471761
 34
0.0
100
AcDbRotatedDimension
  0
ARC
  5
27C
330
2
100
AcDbEntity
  8
CEN
 48
0.6
100
AcDbCircle
 10
107.5776663853867
 20
245.6862334471299
 30
0.0
 40
34.99999999992732
100
AcDbArc
 50
205.5917490017661
 51
231.9616261501888
  0
CIRCLE
  5
27D
330
2
100
AcDbEntity
  8
0
 48
0.6
100
AcDbCircle
 10
82.82892904391884
 20
270.4349707887041
 30
0.0
 40
2.25
  0
ARC
  5
27E
330
2
100
AcDbEntity
  8
0
 48
0.6
100
AcDbCircle
 10
82.57766638544856
 20
270.6862334471761
 30
0.0
 40
5.0
100
AcDbArc
 50
90.0
 51
180.0
  0
LINE
  5
27F
330
2
100
AcDbEntity
  8
CEN
 48
0.6
100
AcDbLine
 10
85.12702608277686
 20
268.136873749848
 30
0.0
 11
80.53083200506808
 21
272.7330678275609
 31
0.0
  0
LINE
  5
280
330
2
100
AcDbEntity
  8
CEN
 48
0.6
100
AcDbLine
 10
85.12702608277686
 20
272.7330678275609
 30
0.0
 11
80.53083200506808
 21
268.136873749848
 31
0.0
  0
CIRCLE
  5
281
330
2
100
AcDbEntity
  8
0
 48
0.6
100
AcDbCircle
 10
82.82892904391884
 20
220.937496105646
 30
0.0
 40
2.25
  0
LINE
  5
282
330
2
100
AcDbEntity
  8
CEN
 48
0.6
100
AcDbLine
 10
85.12702608277686
 20
223.2355931445022
 30
0.0
 11
80.53083200506808
 21
218.63939906679
 31
0.0
  0
LINE
  5
283
330
2
100
AcDbEntity
  8
0
100
AcDbLine
 10
77.57766638544855
 20
270.6862334471761
 30
0.0
 11
77.57766638544855
 21
220.6862334471761
 31
0.0
  0
ARC
  5
284
102
{ACAD_REACTORS
330
26F
102
}
330
2
100
AcDbEntity
  8
0
 48
0.6
100
AcDbCircle
 10
82.57766638544856
 20
220.6862334471761
 30
0.0
 40
5.0
100
AcDbArc
 50
180.0
 51
270.0
  0
LEADER
  5
285
330
2
100
AcDbEntity
  8
0
100
AcDbLeader
  3
STANDARD
 73
     0
 74
     0
 75
     1
 40
3.200000000000001
 41
28.42857142857143
 76
     3
 10
132.447872473198
 20
272.8780898638131
 30
0.0
 10
142.1930948473363
 20
285.5697219690361
 30
0.0
 10
144.6930948473363
 20
285.5697219690361
 30
0.0
340
286
1001
ACAD
1000
DSTYLE
1002
{
1070
     5
1000

1070
    77
1070
     1
1070
   147
1040
1.0
1070
   342
1005
0
1002
}
  0
MTEXT
  5
286
102
{ACAD_REACTORS
330
285
102
}
330
2
100
AcDbEntity
  8
0
 62
     3
100
AcDbMText
 10
145.6930948473363
 20
286.5697219690361
 30
0.0
 40
3.2
 41
0.0
 71
     7
 72
     1
  1
4-%%C4.5 hole
1001
ACAD
1000
MTEXTBEGIN
1070
    73
1070
     1
1070
    44
1040
1.0
1070
    74
1070
     0
1000
MTEXTEND
1000
MTEXTBEGIN
1070
    73
1070
     1
1070
    44
1040
1.0
1070
    74
1070
     0
1000
MTEXTEND
1000
MTEXTBEGIN
1070
    73
1070
     1
1070
    44
1040
1.0
1070
    74
1070
     0
1000
MTEXTEND
  0
LINE
  5
287
330
2
100
AcDbEntity
  8
0
100
AcDbLine
 10
274.6792295548439
 20
275.186233447176
 30
0.0
 11
273.6792295548439
 21
275.186233447176
 31
0.0
  0
LINE
  5
288
330
2
100
AcDbEntity
  8
0
100
AcDbLine
 10
273.6792295548439
 20
275.6862334471751
 30
0.0
 11
273.6792295548439
 21
275.186233447176
 31
0.0
  0
LINE
  5
289
330
2
100
AcDbEntity
  8
0
100
AcDbLine
 10
273.6792295548439
 20
275.6862334471751
 30
0.0
 11
235.1792295548439
 21
275.6862334471751
 31
0.0
  0
LINE
  5
28A
330
2
100
AcDbEntity
  8
2
 62
     7
100
AcDbLine
 10
234.6792295548439
 20
243.6862334471751
 30
0.0
 11
232.1792295548439
 21
243.6862334471751
 31
0.0
  0
ARC
  5
28B
330
2
100
AcDbEntity
  8
2
 62
     7
100
AcDbCircle
 10
232.1792295548439
 20
244.186233447176
 30
0.0
 40
0.4999999999999968
100
AcDbArc
 50
180.0
 51
270.0
  0
LINE
  5
28C
330
2
100
AcDbEntity
  8
2
 62
     7
100
AcDbLine
 10
231.6792295548439
 20
244.186233447176
 30
0.0
 11
231.6792295548439
 21
245.6862334471761
 31
0.0
  0
DIMENSION
  5
28D
102
{ACAD_XDICTIONARY
360
28E
102
}
102
{ACAD_REACTORS
330
28F
102
}
330
2
100
AcDbEntity
  8
0
100
AcDbDimension
  2
*D58
 10
180.4167848544893
 20
245.6862334471761
 30
0.0
 11
177.9167848544893
 21
250.6862334471755
 31
0.0
 70
    32
  3
STANDARD
100
AcDbAlignedDimension
 13
198.7810907536149
 23
255.6862334471751
 33
0.0
 14
191.0715564207439
 24
245.6862334471761
 34
0.0
 50
90.0
100
AcDbRotatedDimension
  0
DIMENSION
  5
29C
102
{ACAD_XDICTIONARY
360
29D
102
}
102
{ACAD_REACTORS
330
29E
102
}
330
2
100
AcDbEntity
  8
0
100
AcDbDimension
  2
*D57
 10
189.8064270452669
 20
251.6862334471761
 30
0.0
 11
189.8064270452669
 21
271.6862334471751
 31
0.0
 70
   160
  3
STANDARD
100
AcDbAlignedDimension
 13
202.6792295548438
 23
258.6862334471752
 33
0.0
 14
202.6792295548438
 24
251.6862334471761
 34
0.0
 50
90.0
100
AcDbRotatedDimension
  0
DIMENSION
  5
2AD
330
2
100
AcDbEntity
  8
0
100
AcDbDimension
  2
*D56
 10
172.3685068169706
 20
243.6862334471753
 30
0.0
 11
169.8685068169706
 21
255.6862334471755
 31
0.0
 70
    32
  1
%%c<>
  3
STANDARD
100
AcDbAlignedDimension
 13
232.1792295548439
 23
267.6862334471761
 33
0.0
 14
232.1792295548439
 24
243.6862334471751
 34
0.0
 50
90.0
100
AcDbRotatedDimension
  0
CIRCLE
  5
2BA
330
2
100
AcDbEntity
  8
0
100
AcDbCircle
 10
107.5776663854485
 20
255.6862334471751
 30
0.0
 40
12.0
  0
LINE
  5
2BB
330
2
100
AcDbEntity
  8
0
100
AcDbLine
 10
231.6792295548439
 20
267.186233447176
 30
0.0
 11
231.6792295548439
 21
244.186233447176
 31
0.0
  0
ARC
  5
2BC
330
2
100
AcDbEntity
  8
0
100
AcDbCircle
 10
232.1792295548439
 20
244.186233447176
 30
0.0
 40
0.5
100
AcDbArc
 50
180.0
 51
270.0
  0
ARC
  5
2BD
330
2
100
AcDbEntity
  8
CEN
 48
0.6
100
AcDbCircle
 10
107.5776663854376
 20
245.6862334471761
 30
0.0
 40
35.00000000000606
100
AcDbArc
 50
25.70831822988844
 51
51.96162615014948
  0
CIRCLE
  5
2BE
330
2
100
AcDbEntity
  8
0
 48
0.6
100
AcDbCircle
 10
132.3264037269782
 20
270.4349707887041
 30
0.0
 40
2.25
  0
CIRCLE
  5
2BF
330
2
100
AcDbEntity
  8
0
100
AcDbCircle
 10
107.5776663854485
 20
255.6862334471751
 30
0.0
 40
4.5
  0
CIRCLE
  5
2C0
330
2
100
AcDbEntity
  8
0
100
AcDbCircle
 10
87.65908209840745
 20
257.1862334471751
 30
0.0
 40
1.75
  0
CIRCLE
  5
2C1
330
2
100
AcDbEntity
  8
0
 48
0.6
100
AcDbCircle
 10
127.4962506724969
 20
257.1862334471751
 30
0.0
 40
1.75
  0
ARC
  5
2C2
330
2
100
AcDbEntity
  8
0
 48
0.6
100
AcDbCircle
 10
132.5776663854483
 20
270.6862334471761
 30
0.0
 40
5.0
100
AcDbArc
 50
0.0
 51
90.0
  0
LINE
  5
2C3
330
2
100
AcDbEntity
  8
0
  6
CENTER
 62
     1
 48
0.6
100
AcDbLine
 10
120.3868113431181
 20
255.6862334471751
 30
0.0
 11
94.34355878359749
 21
255.6862334471751
 31
0.0
  0
LINE
  5
2C4
330
2
100
AcDbEntity
  8
0
  6
CENTER
 62
     1
 48
0.6
100
AcDbLine
 10
130.7799303285064
 20
259.082066780508
 30
0.0
 11
124.2125710164764
 21
255.2904001138413
 31
0.0
  0
LINE
  5
2C5
330
2
100
AcDbEntity
  8
CEN
 48
0.6
100
AcDbLine
 10
130.0283066881184
 20
268.136873749848
 30
0.0
 11
134.624500765836
 21
272.7330678275609
 31
0.0
  0
CIRCLE
  5
2C6
330
2
100
AcDbEntity
  8
0
 48
0.6
100
AcDbCircle
 10
127.4962506724969
 20
257.1862334471751
 30
0.0
 40
3.0
  0
LINE
  5
2C7
330
2
100
AcDbEntity
  8
0
100
AcDbLine
 10
104.2235644191987
 20
258.6862334471752
 30
0.0
 11
110.9317683516983
 21
258.6862334471752
 31
0.0
  0
ARC
  5
2C8
330
2
100
AcDbEntity
  8
0
100
AcDbCircle
 10
232.1792295548439
 20
267.186233447176
 30
0.0
 40
0.5
100
AcDbArc
 50
90.0
 51
180.0
  0
LINE
  5
2C9
102
{ACAD_REACTORS
330
2DF
102
}
330
2
100
AcDbEntity
  8
0
100
AcDbLine
 10
231.6792295548439
 20
259.686233447175
 30
0.0
 11
214.6792295548439
 21
259.686233447175
 31
0.0
  0
LINE
  5
2CA
102
{ACAD_REACTORS
330
31E
330
2D0
102
}
330
2
100
AcDbEntity
  8
0
100
AcDbLine
 10
214.6792295548439
 20
259.686233447175
 30
0.0
 11
214.6792295548439
 21
258.6862334471752
 31
0.0
  0
LINE
  5
2CB
102
{ACAD_REACTORS
330
31E
330
29E
330
331
102
}
330
2
100
AcDbEntity
  8
0
100
AcDbLine
 10
202.6792295548438
 20
258.6862334471752
 30
0.0
 11
202.6792295548438
 21
251.6862334471761
 31
0.0
  0
LINE
  5
2CC
102
{ACAD_REACTORS
330
2DF
102
}
330
2
100
AcDbEntity
  8
0
100
AcDbLine
 10
231.6792295548439
 20
251.6862334471761
 30
0.0
 11
202.6792295548438
 21
251.6862334471761
 31
0.0
  0
LINE
  5
2CD
102
{ACAD_REACTORS
330
2D0
102
}
330
2
100
AcDbEntity
  8
0
100
AcDbLine
 10
214.6792295548439
 20
258.6862334471752
 30
0.0
 11
202.6792295548438
 21
258.6862334471752
 31
0.0
  0
DIMENSION
  5
2CE
102
{ACAD_XDICTIONARY
360
2CF
102
}
102
{ACAD_REACTORS
330
2D0
102
}
330
2
100
AcDbEntity
  8
0
100
AcDbDimension
  2
*D55
 10
214.6792295548439
 20
272.714070374237
 30
0.0
 11
208.6792295548439
 21
275.2140703742369
 31
0.0
 70
    32
  3
STANDARD
100
AcDbAlignedDimension
 13
202.6792295548438
 23
258.6862334471752
 33
0.0
 14
214.6792295548439
 24
259.686233447175
 34
0.0
 50
180.0
100
AcDbRotatedDimension
  0
DIMENSION
  5
2DD
102
{ACAD_XDICTIONARY
360
2DE
102
}
102
{ACAD_REACTORS
330
2DF
102
}
330
2
100
AcDbEntity
  8
0
100
AcDbDimension
  2
*D54
 10
222.1729548949079
 20
259.686233447175
 30
0.0
 11
222.1729548949078
 21
288.3835223849171
 31
0.0
 70
   160
  1
\A1;{\f??|b0|i0|c0|p49;%%C8\H0.7x;\S+0^ -0.015;\H1.429x;(h7)}
  3
STANDARD
100
AcDbAlignedDimension
 13
217.1792295548439
 23
251.6862334471761
 33
0.0
 14
214.6792295548439
 24
259.686233447175
 34
0.0
 50
90.0
100
AcDbRotatedDimension
  0
CIRCLE
  5
2EE
330
2
100
AcDbEntity
  8
0
 48
0.6
100
AcDbCircle
 10
107.5776663854485
 20
222.6862334471761
 30
0.0
 40
1.75
  0
CIRCLE
  5
2EF
330
2
100
AcDbEntity
  8
0
 48
0.6
100
AcDbCircle
 10
132.3264037269782
 20
220.937496105646
 30
0.0
 40
2.25
  0
LINE
  5
2F0
330
2
100
AcDbEntity
  8
CEN
 48
0.6
100
AcDbLine
 10
130.0283066881184
 20
223.2355931445022
 30
0.0
 11
134.624500765836
 21
218.63939906679
 31
0.0
  0
ARC
  5
2F1
330
2
100
AcDbEntity
  8
CEN
 48
0.6
100
AcDbCircle
 10
107.5776663854485
 20
245.6862334471761
 30
0.0
 40
35.0
100
AcDbArc
 50
308.0383738498391
 51
321.9616261501568
  0
CIRCLE
  5
2F2
330
2
100
AcDbEntity
  8
0
 48
0.6
100
AcDbCircle
 10
107.5776663854485
 20
222.6862334471761
 30
0.0
 40
3.0
  0
LINE
  5
2F3
102
{ACAD_REACTORS
330
26F
102
}
330
2
100
AcDbEntity
  8
0
100
AcDbLine
 10
137.5776663854483
 20
270.6862334471761
 30
0.0
 11
137.5776663854483
 21
220.6862334471761
 31
0.0
  0
LINE
  5
2F4
330
2
100
AcDbEntity
  8
0
100
AcDbLine
 10
232.1792295548439
 20
243.6862334471751
 30
0.0
 11
234.6792295548439
 21
243.6862334471751
 31
0.0
  0
LINE
  5
2F5
330
2
100
AcDbEntity
  8
0
100
AcDbLine
 10
232.1792295548439
 20
267.6862334471761
 30
0.0
 11
234.6792295548439
 21
267.6862334471761
 31
0.0
  0
ARC
  5
2F6
330
2
100
AcDbEntity
  8
CEN
 48
0.6
100
AcDbCircle
 10
116.3961627106964
 20
346.4689372565191
 30
0.0
 40
35.0
100
AcDbArc
 50
304.6885525890122
 51
322.9113558998458
  0
LINE
  5
2F7
330
2
100
AcDbEntity
  8
CEN
 48
0.6
100
AcDbLine
 10
138.1396962321776
 20
324.7254037350318
 30
0.0
 11
144.150103872269
 21
318.714996094947
 31
0.0
  0
CIRCLE
  5
2F8
330
2
100
AcDbEntity
  8
0
100
AcDbCircle
 10
141.1449000522279
 20
321.720199914989
 30
0.0
 40
2.25
  0
ARC
  5
2F9
330
2
100
AcDbEntity
  8
0
100
AcDbCircle
 10
141.3961627106964
 20
321.4689372565192
 30
0.0
 40
5.0
100
AcDbArc
 50
270.0
 51
0.0
  0
CIRCLE
  5
2FA
330
2
100
AcDbEntity
  8
0
100
AcDbCircle
 10
116.3961627106964
 20
346.4689372565191
 30
0.0
 40
3.000000000000055
  0
CIRCLE
  5
2FB
330
2
100
AcDbEntity
  8
0
100
AcDbCircle
 10
116.3961627106964
 20
346.4689372565191
 30
0.0
 40
2.000000000000053
  0
LINE
  5
2FC
330
2
100
AcDbEntity
  8
CEN
 48
0.6
100
AcDbLine
 10
94.65262918920601
 20
324.7254037350318
 30
0.0
 11
88.6422215491275
 21
318.714996094947
 31
0.0
  0
CIRCLE
  5
2FD
330
2
100
AcDbEntity
  8
0
100
AcDbCircle
 10
91.64742536916676
 20
321.720199914989
 30
0.0
 40
2.25
  0
LINE
  5
2FE
330
2
100
AcDbEntity
  8
0
100
AcDbLine
 10
91.39616271069643
 20
316.4689372565192
 30
0.0
 11
141.3961627106964
 21
316.4689372565192
 31
0.0
  0
ARC
  5
2FF
330
2
100
AcDbEntity
  8
0
100
AcDbCircle
 10
194.4323135087634
 20
378.5714190262142
 30
0.0
 40
30.21776684021192
100
AcDbArc
 50
272.7691355265055
 51
280.40961357857
  0
ARC
  5
300
330
2
100
AcDbEntity
  8
0
100
AcDbCircle
 10
194.4323135087634
 20
314.3664554868211
 30
0.0
 40
30.21776684021463
100
AcDbArc
 50
79.59038642143004
 51
87.23086447349437
  0
LINE
  5
301
330
2
100
AcDbEntity
  8
0
100
AcDbLine
 10
189.8914763371212
 20
349.2889372565191
 30
0.0
 11
199.892185774215
 21
349.2889372565191
 31
0.0
  0
LINE
  5
302
330
2
100
AcDbEntity
  8
CEN
 48
0.6
100
AcDbLine
 10
187.392185774215
 20
348.778437256519
 30
0.0
 11
202.8921857742169
 21
348.778437256519
 31
0.0
  0
LINE
  5
303
330
2
100
AcDbEntity
  8
0
100
AcDbLine
 10
189.8914763371212
 20
343.6489372565198
 30
0.0
 11
199.892185774215
 21
343.6489372565198
 31
0.0
  0
LINE
  5
304
330
2
100
AcDbEntity
  8
CEN
 48
0.6
100
AcDbLine
 10
187.392185774215
 20
344.1594372565198
 30
0.0
 11
202.8921857742169
 21
344.1594372565198
 31
0.0
  0
LINE
  5
305
330
2
100
AcDbEntity
  8
2
100
AcDbLine
 10
195.8921857742169
 20
348.388937256519
 30
0.0
 11
195.8921857742169
 21
344.548937256519
 31
0.0
  0
LINE
  5
306
330
2
100
AcDbEntity
  8
0
100
AcDbLine
 10
189.8914763371212
 20
349.2889372565191
 30
0.0
 11
189.3914763371194
 21
348.7889372565191
 31
0.0
  0
LINE
  5
307
330
2
100
AcDbEntity
  8
0
100
AcDbLine
 10
189.3914763371194
 20
344.1489372565198
 30
0.0
 11
189.8914763371212
 21
343.6489372565198
 31
0.0
  0
LINE
  5
308
330
2
100
AcDbEntity
  8
0
100
AcDbLine
 10
189.3914763371194
 20
348.7889372565191
 30
0.0
 11
189.3914763371194
 21
344.1489372565198
 31
0.0
  0
LINE
  5
309
330
2
100
AcDbEntity
  8
2
100
AcDbLine
 10
189.8914763371212
 20
349.2889372565191
 30
0.0
 11
189.8914763371212
 21
343.6489372565198
 31
0.0
  0
LINE
  5
30A
330
2
100
AcDbEntity
  8
0
100
AcDbLine
 10
189.3914763371194
 20
348.388937256519
 30
0.0
 11
195.8921857742169
 21
348.388937256519
 31
0.0
  0
LINE
  5
30B
330
2
100
AcDbEntity
  8
0
100
AcDbLine
 10
189.3914763371194
 20
344.548937256519
 30
0.0
 11
195.8921857742169
 21
344.548937256519
 31
0.0
  0
LINE
  5
30C
330
2
100
AcDbEntity
  8
2
100
AcDbLine
 10
193.892185774215
 20
348.388937256519
 30
0.0
 11
189.392185774215
 21
346.1156205715851
 31
0.0
  0
LINE
  5
30D
330
2
100
AcDbEntity
  8
2
100
AcDbLine
 10
195.8921857742169
 20
348.388937256519
 30
0.0
 11
189.392185774215
 21
344.948891902597
 31
0.0
  0
LINE
  5
30E
330
2
100
AcDbEntity
  8
2
100
AcDbLine
 10
195.8921857742169
 20
347.234236718139
 30
0.0
 11
190.7411106731523
 21
344.548937256519
 31
0.0
  0
LINE
  5
30F
330
2
100
AcDbEntity
  8
0
100
AcDbLine
 10
201.8921857742169
 20
349.2889372565191
 30
0.0
 11
201.8921857742169
 21
343.6489372565198
 31
0.0
  0
LINE
  5
310
330
2
100
AcDbEntity
  8
0
100
AcDbLine
 10
201.8921857742169
 20
349.2889372565191
 30
0.0
 11
201.8921857742169
 21
343.6489372565198
 31
0.0
  0
LINE
  5
311
330
2
100
AcDbEntity
  8
0
100
AcDbLine
 10
201.8921857742169
 20
319.4689372565192
 30
0.0
 11
199.892185774215
 21
319.4689372565192
 31
0.0
  0
LINE
  5
312
330
2
100
AcDbEntity
  8
0
100
AcDbLine
 10
201.8921857742169
 20
316.4689372565192
 30
0.0
 11
227.8921857742151
 21
316.4689372565192
 31
0.0
  0
LINE
  5
313
330
2
100
AcDbEntity
  8
CEN
 48
0.6
100
AcDbLine
 10
231.4680604250261
 20
346.4689372565191
 30
0.0
 11
181.4277781562614
 21
346.4689372565191
 31
0.0
  0
ARC
  5
314
330
2
100
AcDbEntity
  8
0
100
AcDbCircle
 10
235.1792295548439
 20
275.186233447176
 30
0.0
 40
0.5
100
AcDbArc
 50
90.0
 51
180.0
  0
LINE
  5
315
102
{ACAD_REACTORS
330
28F
102
}
330
2
100
AcDbEntity
  8
CEN
 48
0.6
100
AcDbLine
 10
191.0715564207439
 20
245.6862334471761
 30
0.0
 11
287.8386988944585
 21
245.6862334471761
 31
0.0
  0
LINE
  5
316
102
{ACAD_REACTORS
330
28F
102
}
330
2
100
AcDbEntity
  8
CEN
 48
0.6
100
AcDbLine
 10
242.5376872581999
 20
255.6862334471751
 30
0.0
 11
198.7810907536149
 21
255.6862334471751
 31
0.0
  0
LINE
  5
317
330
2
100
AcDbEntity
  8
0
100
AcDbLine
 10
274.6792295548439
 20
216.1862334471761
 30
0.0
 11
273.6792295548439
 21
216.1862334471761
 31
0.0
  0
LINE
  5
318
330
2
100
AcDbEntity
  8
0
100
AcDbLine
 10
273.6792295548439
 20
216.1862334471761
 30
0.0
 11
273.6792295548439
 21
215.6862334471761
 31
0.0
  0
LINE
  5
319
330
2
100
AcDbEntity
  8
0
100
AcDbLine
 10
273.6792295548439
 20
215.6862334471761
 30
0.0
 11
235.1792295548439
 21
215.6862334471761
 31
0.0
  0
LWPOLYLINE
  5
31A
330
2
100
AcDbEntity
  8
3
100
AcDbPolyline
 90
        4
 70
     1
 43
0.0
 10
103.0380108236075
 20
203.4013195965959
 10
106.3380108236067
 20
203.4013195965959
 10
106.3380108236067
 20
206.9013195965959
 10
103.0380108236075
 20
206.9013195965959
  0
ARC
  5
31B
330
2
100
AcDbEntity
  8
0
100
AcDbCircle
 10
235.1792295548439
 20
216.1862334471761
 30
0.0
 40
0.5
100
AcDbArc
 50
180.0
 51
270.0
  0
DIMENSION
  5
31C
102
{ACAD_XDICTIONARY
360
31D
102
}
102
{ACAD_REACTORS
330
31E
102
}
330
2
100
AcDbEntity
  8
0
100
AcDbDimension
  2
*D53
 10
234.6792295548439
 20
202.89021906555
 30
0.0
 11
254.6792295548439
 21
205.39021906555
 31
0.0
 70
    32
  1
L
  3
STANDARD
100
AcDbAlignedDimension
 13
274.6792295548439
 23
216.1862334471761
 33
0.0
 14
234.6792295548439
 24
216.1862334471761
 34
0.0
 50
180.0
100
AcDbRotatedDimension
  0
LINE
  5
32B
102
{ACAD_REACTORS
330
31E
102
}
330
2
100
AcDbEntity
  8
0
100
AcDbLine
 10
274.6792295548439
 20
275.186233447176
 30
0.0
 11
274.6792295548439
 21
216.1862334471761
 31
0.0
  0
LINE
  5
32C
102
{ACAD_REACTORS
330
31E
330
331
102
}
330
2
100
AcDbEntity
  8
0
100
AcDbLine
 10
234.6792295548439
 20
275.186233447176
 30
0.0
 11
234.6792295548439
 21
216.1862334471761
 31
0.0
  0
ARC
  5
32D
330
2
100
AcDbEntity
  8
0
 48
0.6
100
AcDbCircle
 10
132.5776663854483
 20
220.6862334471761
 30
0.0
 40
5.0
100
AcDbArc
 50
270.0
 51
0.0
  0
LINE
  5
32E
330
2
100
AcDbEntity
  8
0
  6
CENTER
 62
     1
 48
0.4
100
AcDbLine
 10
107.5776663854485
 20
279.7767910223289
 30
0.0
 11
107.5776663854485
 21
211.595675872026
 31
0.0
  0
DIMENSION
  5
32F
102
{ACAD_XDICTIONARY
360
330
102
}
102
{ACAD_REACTORS
330
331
102
}
330
2
100
AcDbEntity
  8
0
100
AcDbDimension
  2
*D52
 10
234.6792295548439
 20
202.89021906555
 30
0.0
 11
218.6792295548439
 21
205.39021906555
 31
0.0
 70
    32
  3
STANDARD
100
AcDbAlignedDimension
 13
202.6792295548438
 23
251.6862334471761
 33
0.0
 14
234.6792295548439
 24
216.1862334471761
 34
0.0
 50
180.0
100
AcDbRotatedDimension
  0
ARC
  5
33E
330
2
100
AcDbEntity
  8
0
100
AcDbCircle
 10
91.39616271069643
 20
371.4689372565191
 30
0.0
 40
5.0
100
AcDbArc
 50
90.0
 51
180.0
  0
MTEXT
  5
33F
102
{ACAD_REACTORS
330
366
102
}
330
2
100
AcDbEntity
  8
0
 62
     3
100
AcDbMText
 10
132.6435828934972
 20
399.3975281184912
 30
0.0
 40
3.0
 41
0.0
 71
     9
 72
     1
  1
4-%%c4.5 hole
1001
ACAD
1000
MTEXTBEGIN
1070
    73
1070
     1
1070
    44
1040
1.0
1070
    74
1070
     0
1000
MTEXTEND
1000
MTEXTBEGIN
1070
    73
1070
     1
1070
    44
1040
1.0
1070
    74
1070
     0
1000
MTEXTEND
1000
MTEXTBEGIN
1070
    73
1070
     1
1070
    44
1040
1.0
1070
    74
1070
     0
1000
MTEXTEND
  0
CIRCLE
  5
340
330
2
100
AcDbEntity
  8
0
100
AcDbCircle
 10
141.1449000522279
 20
371.2176745980487
 30
0.0
 40
2.25
  0
ARC
  5
341
330
2
100
AcDbEntity
  8
0
100
AcDbCircle
 10
141.3961627106964
 20
371.4689372565191
 30
0.0
 40
5.0
100
AcDbArc
 50
0.0
 51
90.0
  0
CIRCLE
  5
342
330
2
100
AcDbEntity
  8
0
100
AcDbCircle
 10
91.64742536916676
 20
371.2176745980487
 30
0.0
 40
2.25
  0
LINE
  5
343
330
2
100
AcDbEntity
  8
0
100
AcDbLine
 10
91.39616271069643
 20
376.468937256519
 30
0.0
 11
141.3961627106964
 21
376.468937256519
 31
0.0
  0
LINE
  5
344
330
2
100
AcDbEntity
  8
0
100
AcDbLine
 10
201.8921857742169
 20
373.4689372565191
 30
0.0
 11
199.892185774215
 21
373.4689372565191
 31
0.0
  0
LINE
  5
345
102
{ACAD_REACTORS
330
36A
102
}
330
2
100
AcDbEntity
  8
0
100
AcDbLine
 10
201.8921857742169
 20
376.468937256519
 30
0.0
 11
227.8921857742151
 21
376.468937256519
 31
0.0
  0
DIMENSION
  5
346
102
{ACAD_XDICTIONARY
360
347
102
}
102
{ACAD_REACTORS
330
348
102
}
330
2
100
AcDbEntity
  8
DIM
100
AcDbDimension
  2
*D61
 10
201.8921857742169
 20
385.6772705898531
 30
0.0
 11
192.8921857742152
 21
385.6772705898531
 31
0.0
 70
   160
  3
STANDARD
100
AcDbAlignedDimension
 13
199.892185774215
 23
373.4689372565191
 33
0.0
 14
201.8921857742169
 24
376.468937256519
 34
0.0
100
AcDbRotatedDimension
  0
DIMENSION
  5
357
102
{ACAD_XDICTIONARY
360
358
102
}
102
{ACAD_REACTORS
330
359
102
}
330
2
100
AcDbEntity
  8
DIM
100
AcDbDimension
  2
*D60
 10
146.3961627106964
 20
390.1200350508243
 30
0.0
 11
116.0654239510367
 21
390.1200350508243
 31
0.0
 70
   160
  1
60
  3
STANDARD
100
AcDbAlignedDimension
 13
86.39616271069645
 23
372.468937256519
 33
0.0
 14
146.3961627106964
 24
371.4689372565191
 34
0.0
100
AcDbRotatedDimension
  0
LEADER
  5
366
330
2
100
AcDbEntity
  8
0
100
AcDbLeader
  3
STANDARD
 73
     0
 75
     1
 40
3.0
 41
26.65178571428571
 76
     3
 10
141.0469837262569
 20
373.4655430090349
 30
0.0
 10
136.1435828934972
 20
398.3975281184912
 30
0.0
 10
133.6435828934972
 20
398.3975281184912
 30
0.0
340
33F
1001
ACAD
1000
DSTYLE
1002
{
1070
     5
1000

1070
    77
1070
     1
1070
   147
1040
1.0
1070
   342
1005
0
1002
}
  0
LWPOLYLINE
  5
367
330
2
100
AcDbEntity
  8
3
100
AcDbPolyline
 90
        4
 70
     1
 43
0.0
 10
109.4478992977764
 20
390.860121416148
 10
112.7478992977774
 20
390.860121416148
 10
112.7478992977774
 20
394.3601214161481
 10
109.4478992977764
 20
394.3601214161481
  0
DIMENSION
  5
368
102
{ACAD_XDICTIONARY
360
369
102
}
102
{ACAD_REACTORS
330
36A
102
}
330
2
100
AcDbEntity
  8
DIM
100
AcDbDimension
  2
*D59
 10
227.8921857742151
 20
396.35011385967
 30
0.0
 11
213.9464715758713
 21
396.35011385967
 31
0.0
 70
   160
  3
STANDARD
100
AcDbAlignedDimension
 13
201.8921857742169
 23
376.468937256519
 33
0.0
 14
227.8921857742151
 24
376.468937256519
 34
0.0
100
AcDbRotatedDimension
  0
ENDSEC
  0
SECTION
  2
OBJECTS
  0
DICTIONARY
  5
9
330
0
100
AcDbDictionary
  3
ACAD_GROUP
350
98
  3
ACAD_LAYOUT
350
D
  3
ACAD_MLINESTYLE
350
99
  3
ACAD_PLOTSETTINGS
350
9A
  3
ACAD_PLOTSTYLENAME
350
8
  3
ACDBHEADERROUNDTRIPXREC
350
589
  3
ACDBVARIABLEDICTIONARY
350
377
  0
DICTIONARY
  5
15
330
14
100
AcDbDictionary
280
     1
  3
ACAD_LAYERFILTERS
360
16
  3
ACAD_LAYERSTATES
360
89
  0
DICTIONARY
  5
3
330
2
100
AcDbDictionary
280
     1
  3
ACAD_LAYOUTSELFREF
360
5AA
  0
DICTIONARY
  5
F
330
E
100
AcDbDictionary
280
     1
  3
ACAD_LAYOUTSELFREF
360
5AB
  0
DICTIONARY
  5
A5
330
A4
100
AcDbDictionary
280
     1
  3
ACAD_DIMASSOC
360
A6
  0
DICTIONARY
  5
BD
330
BC
100
AcDbDictionary
280
     1
  3
ACAD_DIMASSOC
360
BE
  0
DICTIONARY
  5
D6
330
D5
100
AcDbDictionary
280
     1
  3
ACAD_DIMASSOC
360
D7
  0
DICTIONARY
  5
F4
330
F3
100
AcDbDictionary
280
     1
  3
ACAD_DIMASSOC
360
F5
  0
DICTIONARY
  5
11A
330
119
100
AcDbDictionary
280
     1
  3
ACAD_DIMASSOC
360
11B
  0
DICTIONARY
  5
142
330
141
100
AcDbDictionary
280
     1
  3
ACAD_DIMASSOC
360
143
  0
DICTIONARY
  5
161
330
160
100
AcDbDictionary
280
     1
  3
ACAD_DIMASSOC
360
162
  0
DICTIONARY
  5
170
330
16F
100
AcDbDictionary
280
     1
  3
ACAD_DIMASSOC
360
171
  0
DICTIONARY
  5
180
330
17F
100
AcDbDictionary
280
     1
  3
ACAD_DIMASSOC
360
181
  0
DICTIONARY
  5
195
330
194
100
AcDbDictionary
280
     1
  3
ACAD_DIMASSOC
360
196
  0
DICTIONARY
  5
1A6
330
1A5
100
AcDbDictionary
280
     1
  3
ACAD_DIMASSOC
360
1A7
  0
DICTIONARY
  5
1F7
330
1F6
100
AcDbDictionary
280
     1
  3
ACAD_DIMASSOC
360
1F8
  0
DICTIONARY
  5
208
330
207
100
AcDbDictionary
280
     1
  3
ACAD_DIMASSOC
360
209
  0
DICTIONARY
  5
223
330
222
100
AcDbDictionary
280
     1
  3
ACAD_DIMASSOC
360
224
  0
DICTIONARY
  5
232
330
231
100
AcDbDictionary
280
     1
  3
ACAD_DIMASSOC
360
233
  0
DICTIONARY
  5
26E
330
26D
100
AcDbDictionary
280
     1
  3
ACAD_DIMASSOC
360
26F
  0
DICTIONARY
  5
28E
330
28D
100
AcDbDictionary
280
     1
  3
ACAD_DIMASSOC
360
28F
  0
DICTIONARY
  5
29D
330
29C
100
AcDbDictionary
280
     1
  3
ACAD_DIMASSOC
360
29E
  0
DICTIONARY
  5
2CF
330
2CE
100
AcDbDictionary
280
     1
  3
ACAD_DIMASSOC
360
2D0
  0
DICTIONARY
  5
2DE
330
2DD
100
AcDbDictionary
280
     1
  3
ACAD_DIMASSOC
360
2DF
  0
DICTIONARY
  5
31D
330
31C
100
AcDbDictionary
280
     1
  3
ACAD_DIMASSOC
360
31E
  0
DICTIONARY
  5
330
330
32F
100
AcDbDictionary
280
     1
  3
ACAD_DIMASSOC
360
331
  0
DICTIONARY
  5
347
330
346
100
AcDbDictionary
280
     1
  3
ACAD_DIMASSOC
360
348
  0
DICTIONARY
  5
358
330
357
100
AcDbDictionary
280
     1
  3
ACAD_DIMASSOC
360
359
  0
DICTIONARY
  5
369
330
368
100
AcDbDictionary
280
     1
  3
ACAD_DIMASSOC
360
36A
  0
DICTIONARY
  5
98
102
{ACAD_REACTORS
330
9
102
}
330
9
100
AcDbDictionary
  0
DICTIONARY
  5
D
102
{ACAD_REACTORS
330
9
102
}
330
9
100
AcDbDictionary
  0
DICTIONARY
  5
99
102
{ACAD_REACTORS
330
9
102
}
330
9
100
AcDbDictionary
  3
STANDARD
350
9B
  0
DICTIONARY
  5
9A
102
{ACAD_REACTORS
330
9
102
}
330
9
100
AcDbDictionary
  0
ACDBDICTIONARYWDFLT
  5
8
102
{ACAD_REACTORS
330
9
102
}
330
9
100
AcDbDictionary
281
     1
  3
Normal
350
7
100
AcDbDictionaryWithDefault
340
7
  0
DICTIONARY
  5
589
102
{ACAD_REACTORS
330
9
102
}
330
9
100
AcDbDictionary
  3
CEPSNTYPE
350
593
  3
DIMSTYLEDATA
350
597
  3
FINGERPRINTGUID
350
594
  3
HYPERLINKBASE
350
58C
  3
INSUNITS
350
592
  3
LAYOUTDICT
350
58E
  3
LWETCUNION
350
591
  3
PLOTSETDICT
350
58F
  3
PLOTSTYLNAMDICT
350
590
  3
PSVPSCALE
350
596
  3
PUCSBASE
350
59A
  3
PUCSORGBACK
350
5A0
  3
PUCSORGBOTTOM
350
59C
  3
PUCSORGFRONT
350
59F
  3
PUCSORGLEFT
350
59D
  3
PUCSORGRIGHT
350
59E
  3
PUCSORGTOP
350
59B
  3
PUCSORTHOREF
350
598
  3
PUCSORTHOVIEW
350
599
  3
STYLESHEET
350
58D
  3
TSTACKALIGN
350
58A
  3
TSTACKSIZE
350
58B
  3
UCSBASE
350
5A3
  3
UCSORGBACK
350
5A9
  3
UCSORGBOTTOM
350
5A5
  3
UCSORGFRONT
350
5A8
  3
UCSORGLEFT
350
5A6
  3
UCSORGRIGHT
350
5A7
  3
UCSORGTOP
350
5A4
  3
UCSORTHOREF
350
5A1
  3
UCSORTHOVIEW
350
5A2
  3
VERSIONGUID
350
595
  0
DICTIONARY
  5
377
102
{ACAD_REACTORS
330
9
102
}
330
9
100
AcDbDictionary
  3
DIMASSOC
350
379
  3
HIDETEXT
350
378
  0
DICTIONARY
  5
16
102
{ACAD_REACTORS
330
15
102
}
330
15
100
AcDbDictionary
280
     1
  3
$LAYERS
360
17
  3
-_UND_0
360
18
  3
-PEGC
360
19
  3
101
360
1A
  3
102
360
1B
  3
1DUC
360
1C
  3
1EQ
360
1D
  3
1TUB
360
1E
  3
2
360
1F
  3
2000
360
20
  3
50
360
21
  3
58J
360
22
  3
65
360
23
  3
AA
360
24
  3
ACABADOS
360
25
  3
AGUA_Y_DREN
360
26
  3
AIRE
360
27
  3
ALLE_AUS
360
28
  3
ALLES_MIT_S
360
29
  3
AMARILLO
360
2A
  3
APAGADOS
360
2B
  3
ARR
360
2C
  3
BA
360
2D
  3
BACKS
360
2E
  3
BASE
360
2F
  3
BLOQ_INUTIL
360
30
  3
CADKON
360
31
  3
CARPINTERIA
360
32
  3
CERRADOS
360
33
  3
COL
360
34
  3
COLOR
360
35
  3
COLOR_250
360
36
  3
COLORES
360
37
  3
CONGELADOS
360
38
  3
CONJUNTO
360
39
  3
D1
360
3A
  3
DA_
360
3B
  3
DET-
360
3C
  3
DOR-H
360
3D
  3
EJES
360
3E
  3
ELECTRICO
360
3F
  3
F1
360
40
  3
FROZEN
360
41
  3
GRID
360
42
  3
GRIDTXT
360
43
  3
HATCH
360
44
  3
HCAD
360
45
  3
INSTALACIONES
360
46
  3
JIZNI
360
47
  3
KCK
360
48
  3
KKK
360
49
  3
LAY
360
4A
  3
LAYER-0
360
4E
  3
LAYER-1
360
4F
  3
LAYER_1_UND_0
360
4B
  3
LAYER_2_UND_0
360
4C
  3
LAYER_9_UND_0_SCHRAFFUR
360
4D
  3
LOCK
360
50
  3
LOCKED
360
51
  3
LOTES
360
52
  3
LUNAR
360
53
  3
LUNAR2
360
54
  3
M
360
55
  3
MIS_LAYERS
360
56
  3
MRKCK
360
57
  3
NECADKON
360
58
  3
NI_LH
360
59
  3
NI_RH
360
5A
  3
NUM
360
5B
  3
OFF
360
5C
  3
ON
360
5D
  3
PBASE
360
5E
  3
PEGC
360
5F
  3
PEGCT
360
60
  3
PFRAME
360
61
  3
PGRID
360
62
  3
PGRIDT
360
63
  3
PLAFONES
360
64
  3
PLANTAS
360
65
  3
PLOT
360
66
  3
PRENDIDAS
360
67
  3
PRENDIDOS
360
68
  3
PRINT
360
69
  3
PT
360
6A
  3
PTH
360
6B
  3
PVGRID
360
6C
  3
RED_DE_AGUA_POTABLE
360
6D
  3
RED_DE_ENERGIA_ELECTRICA
360
6E
  3
SEVERNI
360
6F
  3
SHIN
360
70
  3
SHOW_ALL_LAYER
360
71
  3
SIN
360
72
  3
STORAGE-CART
360
73
  3
T
360
74
  3
TEXTOS
360
75
  3
TEXTURAS
360
76
  3
TUBERIAS
360
77
  3
UNFRZ
360
78
  3
V\U+0160ECHNY_NEPOU\U+017D\U+00CDVAN\U+00C9
360
79
  3
VA
360
7A
  3
VENTILACI\U+00D3N
360
7B
  3
VYHODNI
360
7C
  3
YO
360
7D
  3
ZAPADNI
360
7E
  3
사용
360
7F
  3
신규
360
80
  3
실박스
360
81
  3
우리토목
360
82
  3
주차
360
83
  3
지상정밀
360
84
  3
쩜선
360
85
  3
플로터_작업층
360
86
  3
현재_작업층
360
87
  3
현재_잠금
360
88
  0
DICTIONARY
  5
89
102
{ACAD_REACTORS
330
15
102
}
330
15
100
AcDbDictionary
  0
XRECORD
  5
5AA
102
{ACAD_REACTORS
330
3
102
}
330
3
100
AcDbXrecord
340
2
  0
XRECORD
  5
5AB
102
{ACAD_REACTORS
330
F
102
}
330
F
100
AcDbXrecord
340
E
  0
DIMASSOC
  5
A6
102
{ACAD_REACTORS
330
A5
102
}
330
A5
100
AcDbDimAssoc
330
A4
 90
       15
 70
     0
 71
     0
  1
AcDbOsnapPointRef
 72
    13
331
139
 73
     2
 91
        0
 40
0.0
 10
22.66011029299807
 20
63.3838464081732
 30
0.0
 75
     0
  1
AcDbOsnapPointRef
 72
     1
331
139
 73
     2
 91
        0
 40
1.0
 10
35.95351891115749
 20
31.29071903204385
 30
0.0
 75
     0
  1
AcDbOsnapPointRef
 72
    13
331
13E
 73
     2
 91
        0
 40
0.0
 10
22.66011029299807
 20
28.3838464081723
 30
0.0
 75
     0
  1
AcDbOsnapPointRef
 72
     1
331
13E
 73
     2
 91
        0
 40
1.0
 10
22.66011029299807
 20
98.38384640817231
 30
0.0
 75
     0
  0
DIMASSOC
  5
BE
102
{ACAD_REACTORS
330
BD
102
}
330
BD
100
AcDbDimAssoc
330
BC
 90
        2
 70
     0
 71
     0
  1
AcDbOsnapPointRef
 72
     3
331
CB
 73
     2
 91
        0
 40
0.0
 10
116.3961627106964
 20
346.4689372565191
 30
0.0
 75
     0
  0
DIMASSOC
  5
D7
102
{ACAD_REACTORS
330
D6
102
}
330
D6
100
AcDbDimAssoc
330
D5
 90
        3
 70
     0
 71
     0
  1
AcDbOsnapPointRef
 72
    13
331
D3
 73
     2
 91
        0
 40
0.0
 10
199.892185774215
 20
373.4689372565191
 30
0.0
 75
     0
  1
AcDbOsnapPointRef
 72
     1
331
D3
 73
     2
 91
        0
 40
1.0
 10
199.892185774215
 20
319.4689372565192
 30
0.0
 75
     0
  0
DIMASSOC
  5
F5
102
{ACAD_REACTORS
330
F4
102
}
330
F4
100
AcDbDimAssoc
330
F3
 90
        1
 70
     0
 71
     0
  1
AcDbOsnapPointRef
 72
     1
331
1D5
 73
     2
 91
        0
 40
1.0
 10
115.1742145198566
 20
73.38384640817229
 30
0.0
 75
     0
  0
DIMASSOC
  5
11B
102
{ACAD_REACTORS
330
11A
102
}
330
11A
100
AcDbDimAssoc
330
119
 90
        3
 70
     0
 71
     0
  1
AcDbOsnapPointRef
 72
    13
331
13D
 73
     2
 91
        0
 40
0.0
 10
-7.339889707001929
 20
88.38384640817322
 30
0.0
 75
     0
  1
AcDbOsnapPointRef
 72
    13
331
13C
 73
     2
 91
        0
 40
0.0
 10
52.66011029299806
 20
88.38384640817322
 30
0.0
 75
     0
  0
DIMASSOC
  5
143
102
{ACAD_REACTORS
330
142
102
}
330
142
100
AcDbDimAssoc
330
141
 90
        2
 70
     0
 71
     0
  1
AcDbOsnapPointRef
 72
     3
331
110
 73
     2
 91
        0
 40
0.0
 10
22.66011029299807
 20
63.3838464081732
 30
0.0
 75
     0
  0
DIMASSOC
  5
162
102
{ACAD_REACTORS
330
161
102
}
330
161
100
AcDbDimAssoc
330
160
 90
        3
 70
     0
 71
     0
  1
AcDbOsnapPointRef
 72
    13
331
218
 73
     2
 91
        0
 40
0.0
 10
151.0723533210855
 20
92.88384640817232
 30
0.0
 75
     0
  1
AcDbOsnapPointRef
 72
    13
331
219
 73
     2
 91
        0
 40
0.0
 10
191.0723533210784
 20
93.38384640817414
 30
0.0
 75
     0
  0
DIMASSOC
  5
171
102
{ACAD_REACTORS
330
170
102
}
330
170
100
AcDbDimAssoc
330
16F
 90
        1
 70
     0
 71
     0
  1
AcDbOsnapPointRef
 72
    13
331
221
 73
     2
 91
        0
 40
0.0
 10
119.0723533210855
 20
76.38384640817228
 30
0.0
 75
     0
  0
DIMASSOC
  5
181
102
{ACAD_REACTORS
330
180
102
}
330
180
100
AcDbDimAssoc
330
17F
 90
        2
 70
     0
 71
     0
  1
AcDbOsnapPointRef
 72
     1
331
191
 73
     2
 91
        0
 40
1.0
 10
198.0723533210784
 20
91.98258374970214
 30
0.0
 75
     0
  0
DIMASSOC
  5
196
102
{ACAD_REACTORS
330
195
102
}
330
195
100
AcDbDimAssoc
330
194
 90
        3
 70
     0
 71
     0
  1
AcDbOsnapPointRef
 72
     1
331
1A4
 73
     2
 91
        0
 40
1.0
 10
119.0723533210855
 20
76.38384640817228
 30
0.0
 75
     0
  1
AcDbOsnapPointRef
 72
    13
331
1A3
 73
     2
 91
        0
 40
0.0
 10
131.0723533210857
 20
77.38384640817229
 30
0.0
 75
     0
  0
DIMASSOC
  5
1A7
102
{ACAD_REACTORS
330
1A6
102
}
330
1A6
100
AcDbDimAssoc
330
1A5
 90
        1
 70
     0
 71
     0
  1
AcDbOsnapPointRef
 72
    13
331
21B
 73
     2
 91
        0
 40
0.0
 10
148.0723533210855
 20
84.88384640817228
 30
0.0
 75
     0
  0
DIMASSOC
  5
1F8
102
{ACAD_REACTORS
330
1F7
102
}
330
1F7
100
AcDbDimAssoc
330
1F6
 90
        2
 70
     0
 71
     0
  1
AcDbOsnapPointRef
 72
     1
331
1B6
 73
     2
 91
        0
 40
1.0
 10
131.0723533210857
 20
77.38384640817229
 30
0.0
 75
     0
  0
DIMASSOC
  5
209
102
{ACAD_REACTORS
330
208
102
}
330
208
100
AcDbDimAssoc
330
207
 90
        3
 70
     0
 71
     0
  1
AcDbOsnapPointRef
 72
    13
331
221
 73
     2
 91
        0
 40
0.0
 10
119.0723533210855
 20
76.38384640817228
 30
0.0
 75
     0
  1
AcDbOsnapPointRef
 72
     1
331
221
 73
     2
 91
        0
 40
1.0
 10
119.0723533210855
 20
69.38384640817229
 30
0.0
 75
     0
  0
DIMASSOC
  5
224
102
{ACAD_REACTORS
330
223
102
}
330
223
100
AcDbDimAssoc
330
222
 90
        2
 70
     0
 71
     0
  1
AcDbOsnapPointRef
 72
     1
331
1D2
 73
     2
 91
        0
 40
1.0
 10
313.0723533210785
 20
39.88384640817228
 30
0.0
 75
     0
  0
DIMASSOC
  5
233
102
{ACAD_REACTORS
330
232
102
}
330
232
100
AcDbDimAssoc
330
231
 90
        3
 70
     0
 71
     0
  1
AcDbOsnapPointRef
 72
     1
331
15C
 73
     2
 91
        0
 40
1.0
 10
302.5726927259948
 20
93.38575408040924
 30
0.0
 75
     0
  1
AcDbOsnapPointRef
 72
     1
331
1C5
 73
     2
 91
        0
 40
1.0
 10
302.5726927259948
 20
33.38193873593809
 30
0.0
 75
     0
  0
DIMASSOC
  5
26F
102
{ACAD_REACTORS
330
26E
102
}
330
26E
100
AcDbDimAssoc
330
26D
 90
        3
 70
     0
 71
     0
  1
AcDbOsnapPointRef
 72
    13
331
284
 73
     2
 91
        0
 40
3.141592653589792
 10
77.57766638544855
 20
220.6862334471761
 30
0.0
 75
     0
  1
AcDbOsnapPointRef
 72
     1
331
2F3
 73
     2
 91
        0
 40
1.0
 10
137.5776663854483
 20
220.6862334471761
 30
0.0
 75
     0
  0
DIMASSOC
  5
28F
102
{ACAD_REACTORS
330
28E
102
}
330
28E
100
AcDbDimAssoc
330
28D
 90
        3
 70
     0
 71
     0
  1
AcDbOsnapPointRef
 72
     1
331
316
 73
     2
 91
        0
 40
1.0
 10
198.7810907536149
 20
255.6862334471751
 30
0.0
 75
     0
  1
AcDbOsnapPointRef
 72
    13
331
315
 73
     2
 91
        0
 40
0.0
 10
191.0715564207439
 20
245.6862334471761
 30
0.0
 75
     0
  0
DIMASSOC
  5
29E
102
{ACAD_REACTORS
330
29D
102
}
330
29D
100
AcDbDimAssoc
330
29C
 90
        3
 70
     0
 71
     0
  1
AcDbOsnapPointRef
 72
    13
331
2CB
 73
     2
 91
        0
 40
0.0
 10
202.6792295548438
 20
258.6862334471752
 30
0.0
 75
     0
  1
AcDbOsnapPointRef
 72
     1
331
2CB
 73
     2
 91
        0
 40
1.0
 10
202.6792295548438
 20
251.6862334471761
 30
0.0
 75
     0
  0
DIMASSOC
  5
2D0
102
{ACAD_REACTORS
330
2CF
102
}
330
2CF
100
AcDbDimAssoc
330
2CE
 90
        3
 70
     0
 71
     0
  1
AcDbOsnapPointRef
 72
     1
331
2CD
 73
     2
 91
        0
 40
1.0
 10
202.6792295548438
 20
258.6862334471752
 30
0.0
 75
     0
  1
AcDbOsnapPointRef
 72
    13
331
2CA
 73
     2
 91
        0
 40
0.0
 10
214.6792295548439
 20
259.686233447175
 30
0.0
 75
     0
  0
DIMASSOC
  5
2DF
102
{ACAD_REACTORS
330
2DE
102
}
330
2DE
100
AcDbDimAssoc
330
2DD
 90
        3
 70
     0
 71
     0
  1
AcDbOsnapPointRef
 72
     2
331
2CC
 73
     2
 91
        0
 40
0.5
 10
217.1792295548439
 20
251.6862334471761
 30
0.0
 75
     0
  1
AcDbOsnapPointRef
 72
     1
331
2C9
 73
     2
 91
        0
 40
1.0
 10
214.6792295548439
 20
259.686233447175
 30
0.0
 75
     0
  0
DIMASSOC
  5
31E
102
{ACAD_REACTORS
330
31D
102
}
330
31D
100
AcDbDimAssoc
330
31C
 90
        3
 70
     0
 71
     0
  1
AcDbOsnapPointRef
 72
     1
331
32B
 73
     2
 91
        0
 40
1.0
 10
274.6792295548439
 20
216.1862334471761
 30
0.0
 75
     0
  1
AcDbOsnapPointRef
 72
     1
331
32C
 73
     2
 91
        0
 40
1.0
 10
234.6792295548439
 20
216.1862334471761
 30
0.0
 75
     0
  0
DIMASSOC
  5
331
102
{ACAD_REACTORS
330
330
102
}
330
330
100
AcDbDimAssoc
330
32F
 90
        3
 70
     0
 71
     0
  1
AcDbOsnapPointRef
 72
     1
331
2CB
 73
     2
 91
        0
 40
1.0
 10
202.6792295548438
 20
251.6862334471761
 30
0.0
 75
     0
  1
AcDbOsnapPointRef
 72
     1
331
32C
 73
     2
 91
        0
 40
1.0
 10
234.6792295548439
 20
216.1862334471761
 30
0.0
 75
     0
  0
DIMASSOC
  5
348
102
{ACAD_REACTORS
330
347
102
}
330
347
100
AcDbDimAssoc
330
346
 90
        3
 70
     0
 71
     0
  1
AcDbOsnapPointRef
 72
    13
331
D3
 73
     2
 91
        0
 40
0.0
 10
199.892185774215
 20
373.4689372565191
 30
0.0
 75
     0
  1
AcDbOsnapPointRef
 72
    13
331
D4
 73
     2
 91
        0
 40
0.0
 10
201.8921857742169
 20
376.468937256519
 30
0.0
 75
     0
  0
DIMASSOC
  5
359
102
{ACAD_REACTORS
330
358
102
}
330
358
100
AcDbDimAssoc
330
357
 90
        2
 70
     0
 71
     0
  1
AcDbOsnapPointRef
 72
    13
331
E4
 73
     2
 91
        0
 40
0.0
 10
146.3961627106964
 20
371.4689372565191
 30
0.0
 75
     0
  0
DIMASSOC
  5
36A
102
{ACAD_REACTORS
330
369
102
}
330
369
100
AcDbDimAssoc
330
368
 90
        3
 70
     0
 71
     0
  1
AcDbOsnapPointRef
 72
    13
331
345
 73
     2
 91
        0
 40
0.0
 10
201.8921857742169
 20
376.468937256519
 30
0.0
 75
     0
  1
AcDbOsnapPointRef
 72
     1
331
345
 73
     2
 91
        0
 40
1.0
 10
227.8921857742151
 20
376.468937256519
 30
0.0
 75
     0
  0
MLINESTYLE
  5
9B
102
{ACAD_REACTORS
330
99
102
}
330
99
100
AcDbMlineStyle
  2
STANDARD
 70
     0
  3

 62
   256
 51
90.0
 52
90.0
 71
     2
 49
0.5
 62
   256
  6
BYLAYER
 49
-0.5
 62
   256
  6
BYLAYER
  0
ACDBPLACEHOLDER
  5
7
102
{ACAD_REACTORS
330
8
102
}
330
8
100
AcDbPlaceHolder
280
     0
  0
XRECORD
  5
593
102
{ACAD_REACTORS
330
589
102
}
330
589
100
AcDbXrecord
 90
        0
  0
XRECORD
  5
597
102
{ACAD_REACTORS
330
589
102
}
330
589
100
AcDbXrecord
1000
DSTYLE
1002
{
1070
    79
 70
     2
1070
   179
 70
     1
1002
}
  0
XRECORD
  5
594
102
{ACAD_REACTORS
330
589
102
}
330
589
100
AcDbXrecord
  1
{FDEAD578-A652-11D2-9A35-0060089B3A3F}
  0
XRECORD
  5
58C
102
{ACAD_REACTORS
330
589
102
}
330
589
100
AcDbXrecord
  1

  0
XRECORD
  5
592
102
{ACAD_REACTORS
330
589
102
}
330
589
100
AcDbXrecord
 90
        4
  0
XRECORD
  5
58E
102
{ACAD_REACTORS
330
589
102
}
330
589
100
AcDbXrecord
340
D
  0
XRECORD
  5
591
102
{ACAD_REACTORS
330
589
102
}
330
589
100
AcDbXrecord
 90
    10781
  0
XRECORD
  5
58F
102
{ACAD_REACTORS
330
589
102
}
330
589
100
AcDbXrecord
340
9A
  0
XRECORD
  5
590
102
{ACAD_REACTORS
330
589
102
}
330
589
100
AcDbXrecord
340
8
  0
XRECORD
  5
596
102
{ACAD_REACTORS
330
589
102
}
330
589
100
AcDbXrecord
 40
0.0
  0
XRECORD
  5
59A
102
{ACAD_REACTORS
330
589
102
}
330
589
100
AcDbXrecord
340
0
  0
XRECORD
  5
5A0
102
{ACAD_REACTORS
330
589
102
}
330
589
100
AcDbXrecord
 10
0.0
 20
0.0
 30
0.0
  0
XRECORD
  5
59C
102
{ACAD_REACTORS
330
589
102
}
330
589
100
AcDbXrecord
 10
0.0
 20
0.0
 30
0.0
  0
XRECORD
  5
59F
102
{ACAD_REACTORS
330
589
102
}
330
589
100
AcDbXrecord
 10
0.0
 20
0.0
 30
0.0
  0
XRECORD
  5
59D
102
{ACAD_REACTORS
330
589
102
}
330
589
100
AcDbXrecord
 10
0.0
 20
0.0
 30
0.0
  0
XRECORD
  5
59E
102
{ACAD_REACTORS
330
589
102
}
330
589
100
AcDbXrecord
 10
0.0
 20
0.0
 30
0.0
  0
XRECORD
  5
59B
102
{ACAD_REACTORS
330
589
102
}
330
589
100
AcDbXrecord
 10
0.0
 20
0.0
 30
0.0
  0
XRECORD
  5
598
102
{ACAD_REACTORS
330
589
102
}
330
589
100
AcDbXrecord
340
0
  0
XRECORD
  5
599
102
{ACAD_REACTORS
330
589
102
}
330
589
100
AcDbXrecord
 70
     0
  0
XRECORD
  5
58D
102
{ACAD_REACTORS
330
589
102
}
330
589
100
AcDbXrecord
  1

  0
XRECORD
  5
58A
102
{ACAD_REACTORS
330
589
102
}
330
589
100
AcDbXrecord
 90
        1
  0
XRECORD
  5
58B
102
{ACAD_REACTORS
330
589
102
}
330
589
100
AcDbXrecord
 90
       70
  0
XRECORD
  5
5A3
102
{ACAD_REACTORS
330
589
102
}
330
589
100
AcDbXrecord
340
0
  0
XRECORD
  5
5A9
102
{ACAD_REACTORS
330
589
102
}
330
589
100
AcDbXrecord
 10
0.0
 20
0.0
 30
0.0
  0
XRECORD
  5
5A5
102
{ACAD_REACTORS
330
589
102
}
330
589
100
AcDbXrecord
 10
0.0
 20
0.0
 30
0.0
  0
XRECORD
  5
5A8
102
{ACAD_REACTORS
330
589
102
}
330
589
100
AcDbXrecord
 10
0.0
 20
0.0
 30
0.0
  0
XRECORD
  5
5A6
102
{ACAD_REACTORS
330
589
102
}
330
589
100
AcDbXrecord
 10
0.0
 20
0.0
 30
0.0
  0
XRECORD
  5
5A7
102
{ACAD_REACTORS
330
589
102
}
330
589
100
AcDbXrecord
 10
0.0
 20
0.0
 30
0.0
  0
XRECORD
  5
5A4
102
{ACAD_REACTORS
330
589
102
}
330
589
100
AcDbXrecord
 10
0.0
 20
0.0
 30
0.0
  0
XRECORD
  5
5A1
102
{ACAD_REACTORS
330
589
102
}
330
589
100
AcDbXrecord
340
0
  0
XRECORD
  5
5A2
102
{ACAD_REACTORS
330
589
102
}
330
589
100
AcDbXrecord
 70
     0
  0
XRECORD
  5
595
102
{ACAD_REACTORS
330
589
102
}
330
589
100
AcDbXrecord
  1
{4D5AFB38-6D20-47FE-91BA-2780D9610DD2}
  0
DICTIONARYVAR
  5
379
102
{ACAD_REACTORS
330
377
102
}
330
377
100
DictionaryVariables
280
     0
  1
2
  0
DICTIONARYVAR
  5
378
102
{ACAD_REACTORS
330
377
102
}
330
377
100
DictionaryVariables
280
     0
  1
1
  0
XRECORD
  5
17
102
{ACAD_REACTORS
330
16
102
}
330
16
100
AcDbXrecord
  1
$layers
  1
*
  1
*
  1
*
 70
     0
  1
*
  1
*
  0
XRECORD
  5
18
102
{ACAD_REACTORS
330
16
102
}
330
16
100
AcDbXrecord
  1
- und 0
  1
-*,0
  1
*
  1
*
 70
     0
  1
*
  1
*
  0
XRECORD
  5
19
102
{ACAD_REACTORS
330
16
102
}
330
16
100
AcDbXrecord
  1
-pegc
  1
*-pegc
  1
*
  1
*
 70
     0
  1
*
  1
*
  0
XRECORD
  5
1A
102
{ACAD_REACTORS
330
16
102
}
330
16
100
AcDbXrecord
  1
101
  1
*101
  1
*
  1
*
 70
   256
  1
*
  1
*
  0
XRECORD
  5
1B
102
{ACAD_REACTORS
330
16
102
}
330
16
100
AcDbXrecord
  1
102
  1
102*
  1
*
  1
*
 70
     0
  1
*
  1
*
  0
XRECORD
  5
1C
102
{ACAD_REACTORS
330
16
102
}
330
16
100
AcDbXrecord
  1
1duc
  1
*1duc*
  1
*
  1
*
 70
     0
  1
*
  1
*
  0
XRECORD
  5
1D
102
{ACAD_REACTORS
330
16
102
}
330
16
100
AcDbXrecord
  1
1eq
  1
*1eq*
  1
*
  1
*
 70
     0
  1
*
  1
*
  0
XRECORD
  5
1E
102
{ACAD_REACTORS
330
16
102
}
330
16
100
AcDbXrecord
  1
1tub
  1
*1t*
  1
*
  1
*
 70
     0
  1
*
  1
*
  0
XRECORD
  5
1F
102
{ACAD_REACTORS
330
16
102
}
330
16
100
AcDbXrecord
  1
2
  1
*
  1
2
  1
*
 70
     0
  1
*
  1
*
  0
XRECORD
  5
20
102
{ACAD_REACTORS
330
16
102
}
330
16
100
AcDbXrecord
  1
2000
  1
2000*
  1
*
  1
*
 70
     0
  1
*
  1
*
  0
XRECORD
  5
21
102
{ACAD_REACTORS
330
16
102
}
330
16
100
AcDbXrecord
  1
50
  1
*-50
  1
*
  1
*
 70
     0
  1
*
  1
*
  0
XRECORD
  5
22
102
{ACAD_REACTORS
330
16
102
}
330
16
100
AcDbXrecord
  1
58J
  1
*58*
  1
*
  1
*
 70
     0
  1
*
  1
*
  0
XRECORD
  5
23
102
{ACAD_REACTORS
330
16
102
}
330
16
100
AcDbXrecord
  1
65
  1
*65
  1
*
  1
*
 70
     0
  1
*
  1
*
  0
XRECORD
  5
24
102
{ACAD_REACTORS
330
16
102
}
330
16
100
AcDbXrecord
  1
aa
  1
aa*
  1
*
  1
*
 70
     0
  1
*
  1
*
  0
XRECORD
  5
25
102
{ACAD_REACTORS
330
16
102
}
330
16
100
AcDbXrecord
  1
acabados
  1
a-*
  1
*
  1
*
 70
     5
  1
*
  1
*
  0
XRECORD
  5
26
102
{ACAD_REACTORS
330
16
102
}
330
16
100
AcDbXrecord
  1
AGUA Y DREN
  1
A-DS-*
  1
*
  1
*
 70
     0
  1
*
  1
*
  0
XRECORD
  5
27
102
{ACAD_REACTORS
330
16
102
}
330
16
100
AcDbXrecord
  1
Aire
  1
*
  1
*
  1
*
 70
     0
  1
*
  1
*
  0
XRECORD
  5
28
102
{ACAD_REACTORS
330
16
102
}
330
16
100
AcDbXrecord
  1
alle aus
  1
99999999999
  1
*
  1
*
 70
     0
  1
*
  1
*
  0
XRECORD
  5
29
102
{ACAD_REACTORS
330
16
102
}
330
16
100
AcDbXrecord
  1
Alles mit S
  1
s*
  1
*
  1
*
 70
     0
  1
*
  1
*
  0
XRECORD
  5
2A
102
{ACAD_REACTORS
330
16
102
}
330
16
100
AcDbXrecord
  1
amarillo
  1
*
  1
yellow
  1
*
 70
     0
  1
*
  1
*
  0
XRECORD
  5
2B
102
{ACAD_REACTORS
330
16
102
}
330
16
100
AcDbXrecord
  1
APAGADOS
  1
*
  1
*
  1
*
 70
     4
  1
*
  1
*
  0
XRECORD
  5
2C
102
{ACAD_REACTORS
330
16
102
}
330
16
100
AcDbXrecord
  1
ARR
  1
ARR*
  1
*
  1
*
 70
     0
  1
*
  1
*
  0
XRECORD
  5
2D
102
{ACAD_REACTORS
330
16
102
}
330
16
100
AcDbXrecord
  1
ba
  1
*
  1
*
  1
*
 70
     0
  1
*
  1
*
  0
XRECORD
  5
2E
102
{ACAD_REACTORS
330
16
102
}
330
16
100
AcDbXrecord
  1
BACKS
  1
*-H
  1
*
  1
*
 70
     0
  1
*
  1
*
  0
XRECORD
  5
2F
102
{ACAD_REACTORS
330
16
102
}
330
16
100
AcDbXrecord
  1
BASE
  1
*-PBASE
  1
*
  1
*
 70
     0
  1
*
  1
*
  0
XRECORD
  5
30
102
{ACAD_REACTORS
330
16
102
}
330
16
100
AcDbXrecord
  1
BLOQ_INUTIL
  1
*
  1
*
  1
*
 70
     0
  1
*
  1
*
  0
XRECORD
  5
31
102
{ACAD_REACTORS
330
16
102
}
330
16
100
AcDbXrecord
  1
CADKON
  1
?[KAHBSM]?????[23M],?[KAHBSM]?????[23M][1456A-DGHILN-SU-Z]
  1
*
  1
*
 70
     0
  1
*
  1
*
  0
XRECORD
  5
32
102
{ACAD_REACTORS
330
16
102
}
330
16
100
AcDbXrecord
  1
carpinteria
  1
carp*
  1
*
  1
*
 70
     0
  1
*
  1
*
  0
XRECORD
  5
33
102
{ACAD_REACTORS
330
16
102
}
330
16
100
AcDbXrecord
  1
cerrados
  1
*
  1
*
  1
*
 70
   256
  1
*
  1
*
  0
XRECORD
  5
34
102
{ACAD_REACTORS
330
16
102
}
330
16
100
AcDbXrecord
  1
COL
  1
*
  1
*
  1
*
 70
     1
  1
*
  1
*
  0
XRECORD
  5
35
102
{ACAD_REACTORS
330
16
102
}
330
16
100
AcDbXrecord
  1
COLOR
  1
*
  1
253
  1
*
 70
     0
  1
*
  1
*
  0
XRECORD
  5
36
102
{ACAD_REACTORS
330
16
102
}
330
16
100
AcDbXrecord
  1
color 250
  1
*
  1
250
  1
*
 70
     0
  1
*
  1
*
  0
XRECORD
  5
37
102
{ACAD_REACTORS
330
16
102
}
330
16
100
AcDbXrecord
  1
COLORES
  1
*
  1
6
  1
*
 70
     0
  1
*
  1
*
  0
XRECORD
  5
38
102
{ACAD_REACTORS
330
16
102
}
330
16
100
AcDbXrecord
  1
Congelados
  1
*
  1
*
  1
*
 70
     4
  1
*
  1
*
  0
XRECORD
  5
39
102
{ACAD_REACTORS
330
16
102
}
330
16
100
AcDbXrecord
  1
CONJUNTO
  1
CON-*
  1
*
  1
*
 70
     0
  1
*
  1
*
  0
XRECORD
  5
3A
102
{ACAD_REACTORS
330
16
102
}
330
16
100
AcDbXrecord
  1
d1
  1
achurados
  1
*
  1
*
 70
     0
  1
*
  1
*
  0
XRECORD
  5
3B
102
{ACAD_REACTORS
330
16
102
}
330
16
100
AcDbXrecord
  1
DA_
  1
DA*
  1
*
  1
*
 70
     0
  1
*
  1
*
  0
XRECORD
  5
3C
102
{ACAD_REACTORS
330
16
102
}
330
16
100
AcDbXrecord
  1
DET-
  1
*
  1
*
  1
*
 70
     0
  1
*
  1
*
  0
XRECORD
  5
3D
102
{ACAD_REACTORS
330
16
102
}
330
16
100
AcDbXrecord
  1
DOR-H
  1
*
  1
7
  1
*
 70
     0
  1
*
  1
*
  0
XRECORD
  5
3E
102
{ACAD_REACTORS
330
16
102
}
330
16
100
AcDbXrecord
  1
ejes
  1
eje*
  1
*
  1
*
 70
     0
  1
*
  1
*
  0
XRECORD
  5
3F
102
{ACAD_REACTORS
330
16
102
}
330
16
100
AcDbXrecord
  1
ELECTRICO
  1
ELEC-*
  1
*
  1
*
 70
     0
  1
*
  1
*
  0
XRECORD
  5
40
102
{ACAD_REACTORS
330
16
102
}
330
16
100
AcDbXrecord
  1
F1
  1
Halaxref*
  1
*
  1
*
 70
     0
  1
*
  1
*
  0
XRECORD
  5
41
102
{ACAD_REACTORS
330
16
102
}
330
16
100
AcDbXrecord
  1
frozen
  1
*
  1
*
  1
*
 70
     4
  1
*
  1
*
  0
XRECORD
  5
42
102
{ACAD_REACTORS
330
16
102
}
330
16
100
AcDbXrecord
  1
grid
  1
*-PGRID
  1
*
  1
*
 70
     1
  1
*
  1
*
  0
XRECORD
  5
43
102
{ACAD_REACTORS
330
16
102
}
330
16
100
AcDbXrecord
  1
GRIDTXT
  1
*-PGRIDT
  1
*
  1
*
 70
     0
  1
*
  1
*
  0
XRECORD
  5
44
102
{ACAD_REACTORS
330
16
102
}
330
16
100
AcDbXrecord
  1
HATCH
  1
HAT*
  1
*
  1
*
 70
     0
  1
*
  1
*
  0
XRECORD
  5
45
102
{ACAD_REACTORS
330
16
102
}
330
16
100
AcDbXrecord
  1
HCAD
  1
1HCAD-*
  1
*
  1
*
 70
    13
  1
*
  1
*
  0
XRECORD
  5
46
102
{ACAD_REACTORS
330
16
102
}
330
16
100
AcDbXrecord
  1
INSTALACIONES
  1
I-*
  1
*
  1
*
 70
     0
  1
*
  1
*
  0
XRECORD
  5
47
102
{ACAD_REACTORS
330
16
102
}
330
16
100
AcDbXrecord
  1
JIZNI
  1
*-J
  1
*
  1
*
 70
     0
  1
*
  1
*
  0
XRECORD
  5
48
102
{ACAD_REACTORS
330
16
102
}
330
16
100
AcDbXrecord
  1
kck
  1
*
  1
*
  1
*
 70
     0
  1
*
  1
*
  0
XRECORD
  5
49
102
{ACAD_REACTORS
330
16
102
}
330
16
100
AcDbXrecord
  1
kkk
  1
k
  1
*
  1
*
 70
     0
  1
*
  1
*
  0
XRECORD
  5
4A
102
{ACAD_REACTORS
330
16
102
}
330
16
100
AcDbXrecord
  1
lay
  1
??-*
  1
*
  1
*
 70
     0
  1
*
  1
*
  0
XRECORD
  5
4E
102
{ACAD_REACTORS
330
16
102
}
330
16
100
AcDbXrecord
  1
Layer-0
  1
0*
  1
*
  1
*
 70
     0
  1
*
  1
*
  0
XRECORD
  5
4F
102
{ACAD_REACTORS
330
16
102
}
330
16
100
AcDbXrecord
  1
Layer-1
  1
1*
  1
*
  1
*
 70
     0
  1
*
  1
*
  0
XRECORD
  5
4B
102
{ACAD_REACTORS
330
16
102
}
330
16
100
AcDbXrecord
  1
Layer 1 und 0
  1
1*,0
  1
*
  1
*
 70
     0
  1
*
  1
*
  0
XRECORD
  5
4C
102
{ACAD_REACTORS
330
16
102
}
330
16
100
AcDbXrecord
  1
Layer 2 und 0
  1
2*,0
  1
*
  1
*
 70
     0
  1
*
  1
*
  0
XRECORD
  5
4D
102
{ACAD_REACTORS
330
16
102
}
330
16
100
AcDbXrecord
  1
Layer 9 und 0 Schraffur
  1
9*,0
  1
*
  1
*
 70
     0
  1
*
  1
*
  0
XRECORD
  5
50
102
{ACAD_REACTORS
330
16
102
}
330
16
100
AcDbXrecord
  1
LOCK
  1
*
  1
*
  1
*
 70
   256
  1
*
  1
*
  0
XRECORD
  5
51
102
{ACAD_REACTORS
330
16
102
}
330
16
100
AcDbXrecord
  1
locked
  1
*
  1
*
  1
*
 70
   256
  1
*
  1
*
  0
XRECORD
  5
52
102
{ACAD_REACTORS
330
16
102
}
330
16
100
AcDbXrecord
  1
Lotes
  1
*
  1
*
  1
*
 70
     1
  1
*
  1
*
  0
XRECORD
  5
53
102
{ACAD_REACTORS
330
16
102
}
330
16
100
AcDbXrecord
  1
LUNAR
  1
*
  1
*
  1
*
 70
    48
  1
*
  1
*
  0
XRECORD
  5
54
102
{ACAD_REACTORS
330
16
102
}
330
16
100
AcDbXrecord
  1
LUNAR2
  1
*
  1
*
  1
*
 70
    12
  1
*
  1
*
  0
XRECORD
  5
55
102
{ACAD_REACTORS
330
16
102
}
330
16
100
AcDbXrecord
  1
M
  1
M*
  1
*
  1
*
 70
     0
  1
*
  1
*
  0
XRECORD
  5
56
102
{ACAD_REACTORS
330
16
102
}
330
16
100
AcDbXrecord
  1
mis_layers
  1
mis_*
  1
*
  1
*
 70
     0
  1
*
  1
*
  0
XRECORD
  5
57
102
{ACAD_REACTORS
330
16
102
}
330
16
100
AcDbXrecord
  1
MRKCK
  1
*
  1
*
  1
*
 70
     0
  1
*
  1
*
  0
XRECORD
  5
58
102
{ACAD_REACTORS
330
16
102
}
330
16
100
AcDbXrecord
  1
NECADKON
  1
~*?[KAHBSM]?????[23M]*
  1
*
  1
*
 70
     0
  1
*
  1
*
  0
XRECORD
  5
59
102
{ACAD_REACTORS
330
16
102
}
330
16
100
AcDbXrecord
  1
NI_LH
  1
NI_LH*
  1
*
  1
*
 70
     0
  1
*
  1
*
  0
XRECORD
  5
5A
102
{ACAD_REACTORS
330
16
102
}
330
16
100
AcDbXrecord
  1
NI_RH
  1
NI_RH*
  1
*
  1
*
 70
     0
  1
*
  1
*
  0
XRECORD
  5
5B
102
{ACAD_REACTORS
330
16
102
}
330
16
100
AcDbXrecord
  1
NUM
  1
NUM*
  1
*
  1
*
 70
     0
  1
*
  1
*
  0
XRECORD
  5
5C
102
{ACAD_REACTORS
330
16
102
}
330
16
100
AcDbXrecord
  1
off
  1
*
  1
*
  1
*
 70
     3
  1
*
  1
*
  0
XRECORD
  5
5D
102
{ACAD_REACTORS
330
16
102
}
330
16
100
AcDbXrecord
  1
on
  1
*
  1
*
  1
*
 70
     0
  1
*
  1
*
  0
XRECORD
  5
5E
102
{ACAD_REACTORS
330
16
102
}
330
16
100
AcDbXrecord
  1
PBASE
  1
*PBASE
  1
*
  1
*
 70
     0
  1
*
  1
*
  0
XRECORD
  5
5F
102
{ACAD_REACTORS
330
16
102
}
330
16
100
AcDbXrecord
  1
PEGC
  1
*PEGC
  1
*
  1
*
 70
     0
  1
*
  1
*
  0
XRECORD
  5
60
102
{ACAD_REACTORS
330
16
102
}
330
16
100
AcDbXrecord
  1
PEGCT
  1
*PEGCT
  1
*
  1
*
 70
     0
  1
*
  1
*
  0
XRECORD
  5
61
102
{ACAD_REACTORS
330
16
102
}
330
16
100
AcDbXrecord
  1
PFRAME
  1
PFRAME*
  1
*
  1
*
 70
     0
  1
*
  1
*
  0
XRECORD
  5
62
102
{ACAD_REACTORS
330
16
102
}
330
16
100
AcDbXrecord
  1
PGRID
  1
*PGRID
  1
*
  1
*
 70
     0
  1
*
  1
*
  0
XRECORD
  5
63
102
{ACAD_REACTORS
330
16
102
}
330
16
100
AcDbXrecord
  1
PGRIDT
  1
*PGRIDT
  1
*
  1
*
 70
     0
  1
*
  1
*
  0
XRECORD
  5
64
102
{ACAD_REACTORS
330
16
102
}
330
16
100
AcDbXrecord
  1
PLAFONES
  1
0-*
  1
*
  1
*
 70
     0
  1
*
  1
*
  0
XRECORD
  5
65
102
{ACAD_REACTORS
330
16
102
}
330
16
100
AcDbXrecord
  1
PLANTAS
  1
P-*
  1
*
  1
*
 70
     0
  1
*
  1
*
  0
XRECORD
  5
66
102
{ACAD_REACTORS
330
16
102
}
330
16
100
AcDbXrecord
  1
Plot
  1
*
  1
*
  1
*
 70
  1024
  1
*
  1
*
  0
XRECORD
  5
67
102
{ACAD_REACTORS
330
16
102
}
330
16
100
AcDbXrecord
  1
PRENDIDAS
  1
*
  1
*
  1
*
 70
    13
  1
*
  1
*
  0
XRECORD
  5
68
102
{ACAD_REACTORS
330
16
102
}
330
16
100
AcDbXrecord
  1
PRENDIDOS
  1
*
  1
*
  1
*
 70
    12
  1
*
  1
*
  0
XRECORD
  5
69
102
{ACAD_REACTORS
330
16
102
}
330
16
100
AcDbXrecord
  1
print
  1
*
  1
7
  1
*
 70
  1280
  1
*
  1
*
  0
XRECORD
  5
6A
102
{ACAD_REACTORS
330
16
102
}
330
16
100
AcDbXrecord
  1
PT
  1
PT-*
  1
*
  1
*
 70
     0
  1
*
  1
*
  0
XRECORD
  5
6B
102
{ACAD_REACTORS
330
16
102
}
330
16
100
AcDbXrecord
  1
PTH
  1
PTH*
  1
*
  1
*
 70
     0
  1
*
  1
*
  0
XRECORD
  5
6C
102
{ACAD_REACTORS
330
16
102
}
330
16
100
AcDbXrecord
  1
PVGRID
  1
*PVGRID
  1
*
  1
*
 70
     0
  1
*
  1
*
  0
XRECORD
  5
6D
102
{ACAD_REACTORS
330
16
102
}
330
16
100
AcDbXrecord
  1
Red de Agua Potable
  1
Red de Agua Potable
  1
*
  1
*
 70
     1
  1
*
  1
*
  0
XRECORD
  5
6E
102
{ACAD_REACTORS
330
16
102
}
330
16
100
AcDbXrecord
  1
Red de Energia Electrica
  1
Lotes
  1
*
  1
*
 70
     1
  1
*
  1
*
  0
XRECORD
  5
6F
102
{ACAD_REACTORS
330
16
102
}
330
16
100
AcDbXrecord
  1
SEVERNI
  1
*-S
  1
*
  1
*
 70
     0
  1
*
  1
*
  0
XRECORD
  5
70
102
{ACAD_REACTORS
330
16
102
}
330
16
100
AcDbXrecord
  1
shin
  1
일*
  1
*
  1
*
 70
     0
  1
*
  1
*
  0
XRECORD
  5
71
102
{ACAD_REACTORS
330
16
102
}
330
16
100
AcDbXrecord
  1
SHOW ALL LAYER
  1
*
  1
*
  1
*
 70
     0
  1
*
  1
*
  0
XRECORD
  5
72
102
{ACAD_REACTORS
330
16
102
}
330
16
100
AcDbXrecord
  1
sin
  1
sin
  1
*
  1
*
 70
     0
  1
*
  1
*
  0
XRECORD
  5
73
102
{ACAD_REACTORS
330
16
102
}
330
16
100
AcDbXrecord
  1
STORAGE-CART
  1
STORAGE-CART*
  1
*
  1
*
 70
     0
  1
*
  1
*
  0
XRECORD
  5
74
102
{ACAD_REACTORS
330
16
102
}
330
16
100
AcDbXrecord
  1
T
  1
T*
  1
*
  1
*
 70
     0
  1
*
  1
*
  0
XRECORD
  5
75
102
{ACAD_REACTORS
330
16
102
}
330
16
100
AcDbXrecord
  1
TEXTOS
  1
TXT*
  1
*
  1
*
 70
     0
  1
*
  1
*
  0
XRECORD
  5
76
102
{ACAD_REACTORS
330
16
102
}
330
16
100
AcDbXrecord
  1
TEXTURAS
  1
*TEXTURAS
  1
*
  1
*
 70
     0
  1
*
  1
*
  0
XRECORD
  5
77
102
{ACAD_REACTORS
330
16
102
}
330
16
100
AcDbXrecord
  1
TUBERIAS
  1
T*
  1
*
  1
*
 70
     0
  1
*
  1
*
  0
XRECORD
  5
78
102
{ACAD_REACTORS
330
16
102
}
330
16
100
AcDbXrecord
  1
UNFRZ
  1
*
  1
*
  1
*
 70
    12
  1
*
  1
*
  0
XRECORD
  5
79
102
{ACAD_REACTORS
330
16
102
}
330
16
100
AcDbXrecord
  1
v\U+0161echny nepou\U+017E\U+00EDvan\U+00E9
  1
*
  1
*
  1
*
 70
     0
  1
*
  1
*
  0
XRECORD
  5
7A
102
{ACAD_REACTORS
330
16
102
}
330
16
100
AcDbXrecord
  1
VA
  1
VA*
  1
*
  1
*
 70
     0
  1
*
  1
*
  0
XRECORD
  5
7B
102
{ACAD_REACTORS
330
16
102
}
330
16
100
AcDbXrecord
  1
Ventilaci\U+00F3n
  1
*
  1
*
  1
*
 70
     0
  1
*
  1
*
  0
XRECORD
  5
7C
102
{ACAD_REACTORS
330
16
102
}
330
16
100
AcDbXrecord
  1
VYHODNI
  1
*-V
  1
*
  1
*
 70
     0
  1
*
  1
*
  0
XRECORD
  5
7D
102
{ACAD_REACTORS
330
16
102
}
330
16
100
AcDbXrecord
  1
Yo
  1
Muros
  1
*
  1
*
 70
     0
  1
*
  1
*
  0
XRECORD
  5
7E
102
{ACAD_REACTORS
330
16
102
}
330
16
100
AcDbXrecord
  1
ZAPADNI
  1
*-Z
  1
*
  1
*
 70
     0
  1
*
  1
*
  0
XRECORD
  5
7F
102
{ACAD_REACTORS
330
16
102
}
330
16
100
AcDbXrecord
  1
사용
  1
*
  1
*
  1
*
 70
   256
  1
*
  1
*
  0
XRECORD
  5
80
102
{ACAD_REACTORS
330
16
102
}
330
16
100
AcDbXrecord
  1
신규
  1
신규
  1
*
  1
*
 70
     0
  1
*
  1
*
  0
XRECORD
  5
81
102
{ACAD_REACTORS
330
16
102
}
330
16
100
AcDbXrecord
  1
실박스
  1
BLO,SYM,SYM1,SYM2
  1
*
  1
*
 70
     0
  1
*
  1
*
  0
XRECORD
  5
82
102
{ACAD_REACTORS
330
16
102
}
330
16
100
AcDbXrecord
  1
우리토목
  1
w-*
  1
*
  1
*
 70
     0
  1
*
  1
*
  0
XRECORD
  5
83
102
{ACAD_REACTORS
330
16
102
}
330
16
100
AcDbXrecord
  1
주차
  1
car*
  1
*
  1
*
 70
     0
  1
*
  1
*
  0
XRECORD
  5
84
102
{ACAD_REACTORS
330
16
102
}
330
16
100
AcDbXrecord
  1
지상정밀
  1
*
  1
*
  1
*
 70
     0
  1
*
  1
*
  0
XRECORD
  5
85
102
{ACAD_REACTORS
330
16
102
}
330
16
100
AcDbXrecord
  1
쩜선
  1
*
  1
*
  1
*
 70
     0
  1
*
  1
*
  0
XRECORD
  5
86
102
{ACAD_REACTORS
330
16
102
}
330
16
100
AcDbXrecord
  1
플로터 작업층
  1
*
  1
*
  1
*
 70
  1025
  1
*
  1
*
  0
XRECORD
  5
87
102
{ACAD_REACTORS
330
16
102
}
330
16
100
AcDbXrecord
  1
현재 작업층
  1
*
  1
*
  1
*
 70
     1
  1
*
  1
*
  0
XRECORD
  5
88
102
{ACAD_REACTORS
330
16
102
}
330
16
100
AcDbXrecord
  1
현재 잠금
  1
*
  1
*
  1
*
 70
   257
  1
*
  1
*
  0
ENDSEC
  0
EOF
