  0
SECTION
  2
HEADER
  9
$ACADVER
  1
AC1012
  9
$DWGCODEPAGE
  3
ksc5601
  9
$INSBASE
 10
21455.51119102957
 20
-3808.811745319028
 30
0.0
  9
$EXTMIN
 10
-7.840779000961333
 20
-45.53895360144269
 30
-0.0000000000000156
  9
$EXTMAX
 10
349.3678809346313
 20
485.4699427356244
 30
0.0000000000000056
  9
$LIMMIN
 10
0.0
 20
0.0
  9
$LIMMAX
 10
420.0
 20
297.0
  9
$ORTHOMODE
 70
     0
  9
$REGENMODE
 70
     1
  9
$FILLMODE
 70
     1
  9
$QTEXTMODE
 70
     0
  9
$MIRRTEXT
 70
     0
  9
$DRAGMODE
 70
     2
  9
$LTSCALE
 40
0.2
  9
$OSMODE
 70
   567
  9
$ATTMODE
 70
     1
  9
$TEXTSIZE
 40
5.777225951253058
  9
$TRACEWID
 40
1.0
  9
$TEXTSTYLE
  7
STANDARD
  9
$CLAYER
  8
0
  9
$CELTYPE
  6
BYLAYER
  9
$CECOLOR
 62
   256
  9
$CELTSCALE
 40
1.0
  9
$DELOBJ
 70
     1
  9
$DISPSILH
 70
     0
  9
$DIMSCALE
 40
1.0
  9
$DIMASZ
 40
3.0
  9
$DIMEXO
 40
1.0
  9
$DIMDLI
 40
10.0
  9
$DIMRND
 40
0.0
  9
$DIMDLE
 40
0.0
  9
$DIMEXE
 40
0.6
  9
$DIMTP
 40
0.0
  9
$DIMTM
 40
0.0
  9
$DIMTXT
 40
3.5
  9
$DIMCEN
 40
0.09
  9
$DIMTSZ
 40
0.0
  9
$DIMTOL
 70
     0
  9
$DIMLIM
 70
     0
  9
$DIMTIH
 70
     0
  9
$DIMTOH
 70
     0
  9
$DIMSE1
 70
     0
  9
$DIMSE2
 70
     0
  9
$DIMTAD
 70
     1
  9
$DIMZIN
 70
     8
  9
$DIMBLK
  1

  9
$DIMASO
 70
     1
  9
$DIMSHO
 70
     1
  9
$DIMPOST
  1

  9
$DIMAPOST
  1

  9
$DIMALT
 70
     0
  9
$DIMALTD
 70
     2
  9
$DIMALTF
 40
25.4
  9
$DIMLFAC
 40
1.0
  9
$DIMTOFL
 70
     1
  9
$DIMTVP
 40
0.0
  9
$DIMTIX
 70
     1
  9
$DIMSOXD
 70
     0
  9
$DIMSAH
 70
     0
  9
$DIMBLK1
  1

  9
$DIMBLK2
  1

  9
$DIMSTYLE
  2
1_1_2
  9
$DIMCLRD
 70
   123
  9
$DIMCLRE
 70
   123
  9
$DIMCLRT
 70
     3
  9
$DIMTFAC
 40
1.0
  9
$DIMGAP
 40
1.0
  9
$DIMJUST
 70
     0
  9
$DIMSD1
 70
     0
  9
$DIMSD2
 70
     0
  9
$DIMTOLJ
 70
     1
  9
$DIMTZIN
 70
     0
  9
$DIMALTZ
 70
     0
  9
$DIMALTTZ
 70
     0
  9
$DIMFIT
 70
     3
  9
$DIMUPT
 70
     1
  9
$DIMUNIT
 70
     2
  9
$DIMDEC
 70
     2
  9
$DIMTDEC
 70
     2
  9
$DIMALTU
 70
     2
  9
$DIMALTTD
 70
     2
  9
$DIMTXSTY
  7
STANDARD
  9
$DIMAUNIT
 70
     1
  9
$LUNITS
 70
     2
  9
$LUPREC
 70
     4
  9
$SKETCHINC
 40
1.0
  9
$FILLETRAD
 40
0.5
  9
$AUNITS
 70
     0
  9
$AUPREC
 70
     0
  9
$MENU
  1
.
  9
$ELEVATION
 40
0.0
  9
$PELEVATION
 40
0.0
  9
$THICKNESS
 40
0.0
  9
$LIMCHECK
 70
     0
  9
$BLIPMODE
 70
     1
  9
$CHAMFERA
 40
1.0
  9
$CHAMFERB
 40
1.0
  9
$CHAMFERC
 40
20.0
  9
$CHAMFERD
 40
0.0
  9
$SKPOLY
 70
     0
  9
$TDCREATE
 40
2452839.586179271
  9
$TDUPDATE
 40
2453376.709013113
  9
$TDINDWG
 40
11.1210117708
  9
$TDUSRTIMER
 40
11.1210115856
  9
$USRTIMER
 70
     1
  9
$ANGBASE
 50
0.0
  9
$ANGDIR
 70
     0
  9
$PDMODE
 70
     0
  9
$PDSIZE
 40
0.0
  9
$PLINEWID
 40
0.0
  9
$COORDS
 70
     2
  9
$SPLFRAME
 70
     0
  9
$SPLINETYPE
 70
     6
  9
$SPLINESEGS
 70
   800
  9
$ATTDIA
 70
     0
  9
$ATTREQ
 70
     1
  9
$HANDLING
 70
 22529
  9
$HANDSEED
  5
5AB
  9
$SURFTAB1
 70
     6
  9
$SURFTAB2
 70
     6
  9
$SURFTYPE
 70
     6
  9
$SURFU
 70
     6
  9
$SURFV
 70
     6
  9
$UCSNAME
  2

  9
$UCSORG
 10
0.0
 20
0.0
 30
0.0
  9
$UCSXDIR
 10
1.0
 20
0.0
 30
0.0
  9
$UCSYDIR
 10
0.0
 20
1.0
 30
0.0
  9
$PUCSNAME
  2

  9
$PUCSORG
 10
0.0
 20
0.0
 30
0.0
  9
$PUCSXDIR
 10
1.0
 20
0.0
 30
0.0
  9
$PUCSYDIR
 10
0.0
 20
1.0
 30
0.0
  9
$USERI1
 70
     0
  9
$USERI2
 70
     0
  9
$USERI3
 70
     0
  9
$USERI4
 70
     0
  9
$USERI5
 70
     0
  9
$USERR1
 40
0.0
  9
$USERR2
 40
0.0
  9
$USERR3
 40
0.0
  9
$USERR4
 40
0.0
  9
$USERR5
 40
0.0
  9
$WORLDVIEW
 70
     1
  9
$SHADEDGE
 70
     3
  9
$SHADEDIF
 70
    70
  9
$TILEMODE
 70
     1
  9
$MAXACTVP
 70
    48
  9
$PINSBASE
 10
0.0
 20
0.0
 30
0.0
  9
$PLIMCHECK
 70
     0
  9
$PEXTMIN
 10
0.0
 20
0.0
 30
0.0
  9
$PEXTMAX
 10
0.0
 20
0.0
 30
0.0
  9
$PLIMMIN
 10
0.0
 20
0.0
  9
$PLIMMAX
 10
12.0
 20
9.0
  9
$UNITMODE
 70
     0
  9
$VISRETAIN
 70
     1
  9
$PLINEGEN
 70
     0
  9
$PSLTSCALE
 70
     1
  9
$TREEDEPTH
 70
  3020
  9
$PICKSTYLE
 70
     0
  9
$CMLSTYLE
  2
STANDARD
  9
$CMLJUST
 70
     0
  9
$CMLSCALE
 40
20.0
  9
$SAVEIMAGES
 70
     1
  0
ENDSEC
  0
SECTION
  2
CLASSES
  0
CLASS
  1
ACDBDICTIONARYWDFLT
  2
AcDbDictionaryWithDefault
  3
AutoCAD 2000
 90
    32768
280
     0
281
     0
  0
CLASS
  1
ACDBPLACEHOLDER
  2
AcDbPlaceHolder
  3
AutoCAD 2000
 90
    32768
280
     0
281
     0
  0
CLASS
  1
LAYOUT
  2
AcDbLayout
  3
AutoCAD 2000
 90
    32768
280
     0
281
     0
  0
CLASS
  1
DICTIONARYVAR
  2
AcDbDictionaryVar
  3
AutoCAD 2000
 90
    32768
280
     0
281
     0
  0
CLASS
  1
DIMASSOC
  2
AcDbDimAssoc
  3
"AcDbDimAssoc|Product Desc:     AcDim ARX App For Dimension|Company:          Autodesk, Inc.|WEB Address:      www.autodesk.com"
 90
    32768
280
     0
281
     0
  0
CLASS
  1
LONG_TRANSACTION
  2
AcDbLongTransaction
  3
AutoCAD 2000
 90
    32768
280
     0
281
     0
  0
CLASS
  1
LWPOLYLINE
  2
AcDbPolyline
  3
AutoCAD 2000
 90
    32768
280
     0
281
     1
  0
CLASS
  1
HATCH
  2
AcDbHatch
  3
AutoCAD 2000
 90
    32768
280
     0
281
     1
  0
CLASS
  1
XRECORD
  2
AcDbXrecord
  3
AutoCAD 2000
 90
    32768
280
     0
281
     0
  0
CLASS
  1
LONG_TRANSACTION
  2
AcDbLongTransaction
  3
AutoCAD 2000
 90
    32768
280
     0
281
     0
  0
CLASS
  1
LWPOLYLINE
  2
AcDbPolyline
  3
AutoCAD 2000
 90
    32768
280
     0
281
     1
  0
CLASS
  1
HATCH
  2
AcDbHatch
  3
AutoCAD 2000
 90
    32768
280
     0
281
     1
  0
CLASS
  1
XRECORD
  2
AcDbXrecord
  3
AutoCAD 2000
 90
    32768
280
     0
281
     0
  0
CLASS
  1
LONG_TRANSACTION
  2
AcDbLongTransaction
  3
AutoCAD 2000
 90
    32768
280
     0
281
     0
  0
CLASS
  1
LWPOLYLINE
  2
AcDbPolyline
  3
AutoCAD 2000
 90
    32768
280
     0
281
     1
  0
CLASS
  1
HATCH
  2
AcDbHatch
  3
AutoCAD 2000
 90
    32768
280
     0
281
     1
  0
CLASS
  1
XRECORD
  2
AcDbXrecord
  3
AutoCAD 2000
 90
    32768
280
     0
281
     0
  0
CLASS
  1
LONG_TRANSACTION
  2
AcDbLongTransaction
  3
AutoCAD 2000
 90
    32768
280
     0
281
     0
  0
CLASS
  1
LWPOLYLINE
  2
AcDbPolyline
  3
AutoCAD 2000
 90
    32768
280
     0
281
     1
  0
CLASS
  1
HATCH
  2
AcDbHatch
  3
AutoCAD 2000
 90
    32768
280
     0
281
     1
  0
CLASS
  1
XRECORD
  2
AcDbXrecord
  3
AutoCAD 2000
 90
    32768
280
     0
281
     0
  0
CLASS
  1
LONG_TRANSACTION
  2
AcDbLongTransaction
  3
AutoCAD 2000
 90
    32768
280
     0
281
     0
  0
CLASS
  1
LWPOLYLINE
  2
AcDbPolyline
  3
AutoCAD 2000
 90
    32768
280
     0
281
     1
  0
CLASS
  1
HATCH
  2
AcDbHatch
  3
AutoCAD 2000
 90
    32768
280
     0
281
     1
  0
CLASS
  1
XRECORD
  2
AcDbXrecord
  3
AutoCAD 2000
 90
    32768
280
     0
281
     0
  0
CLASS
  1
LONG_TRANSACTION
  2
AcDbLongTransaction
  3
AutoCAD 2000
 90
    32768
280
     0
281
     0
  0
CLASS
  1
LWPOLYLINE
  2
AcDbPolyline
  3
AutoCAD 2000
 90
    32768
280
     0
281
     1
  0
CLASS
  1
HATCH
  2
AcDbHatch
  3
AutoCAD 2000
 90
    32768
280
     0
281
     1
  0
CLASS
  1
XRECORD
  2
AcDbXrecord
  3
AutoCAD 2000
 90
    32768
280
     0
281
     0
  0
CLASS
  1
LONG_TRANSACTION
  2
AcDbLongTransaction
  3
AutoCAD 2000
 90
    32768
280
     0
281
     0
  0
CLASS
  1
LWPOLYLINE
  2
AcDbPolyline
  3
AutoCAD 2000
 90
    32768
280
     0
281
     1
  0
CLASS
  1
HATCH
  2
AcDbHatch
  3
AutoCAD 2000
 90
    32768
280
     0
281
     1
  0
CLASS
  1
XRECORD
  2
AcDbXrecord
  3
AutoCAD 2000
 90
    32768
280
     0
281
     0
  0
CLASS
  1
LONG_TRANSACTION
  2
AcDbLongTransaction
  3
AutoCAD 2000
 90
    32768
280
     0
281
     0
  0
CLASS
  1
LWPOLYLINE
  2
AcDbPolyline
  3
AutoCAD 2000
 90
    32768
280
     0
281
     1
  0
CLASS
  1
HATCH
  2
AcDbHatch
  3
AutoCAD 2000
 90
    32768
280
     0
281
     1
  0
CLASS
  1
XRECORD
  2
AcDbXrecord
  3
AutoCAD 2000
 90
    32768
280
     0
281
     0
  0
CLASS
  1
LONG_TRANSACTION
  2
AcDbLongTransaction
  3
AutoCAD 2000
 90
    32768
280
     0
281
     0
  0
CLASS
  1
LWPOLYLINE
  2
AcDbPolyline
  3
AutoCAD 2000
 90
    32768
280
     0
281
     1
  0
CLASS
  1
HATCH
  2
AcDbHatch
  3
AutoCAD 2000
 90
    32768
280
     0
281
     1
  0
CLASS
  1
XRECORD
  2
AcDbXrecord
  3
AutoCAD 2000
 90
    32768
280
     0
281
     0
  0
CLASS
  1
LONG_TRANSACTION
  2
AcDbLongTransaction
  3
AutoCAD 2000
 90
    32768
280
     0
281
     0
  0
CLASS
  1
LWPOLYLINE
  2
AcDbPolyline
  3
AutoCAD 2000
 90
    32768
280
     0
281
     1
  0
CLASS
  1
HATCH
  2
AcDbHatch
  3
AutoCAD 2000
 90
    32768
280
     0
281
     1
  0
CLASS
  1
XRECORD
  2
AcDbXrecord
  3
AutoCAD 2000
 90
    32768
280
     0
281
     0
  0
CLASS
  1
LONG_TRANSACTION
  2
AcDbLongTransaction
  3
AutoCAD 2000
 90
    32768
280
     0
281
     0
  0
CLASS
  1
LWPOLYLINE
  2
AcDbPolyline
  3
AutoCAD 2000
 90
    32768
280
     0
281
     1
  0
CLASS
  1
HATCH
  2
AcDbHatch
  3
AutoCAD 2000
 90
    32768
280
     0
281
     1
  0
CLASS
  1
XRECORD
  2
AcDbXrecord
  3
AutoCAD 2000
 90
    32768
280
     0
281
     0
  0
CLASS
  1
LONG_TRANSACTION
  2
AcDbLongTransaction
  3
AutoCAD 2000
 90
    32768
280
     0
281
     0
  0
CLASS
  1
LWPOLYLINE
  2
AcDbPolyline
  3
AutoCAD 2000
 90
    32768
280
     0
281
     1
  0
CLASS
  1
HATCH
  2
AcDbHatch
  3
AutoCAD 2000
 90
    32768
280
     0
281
     1
  0
CLASS
  1
XRECORD
  2
AcDbXrecord
  3
AutoCAD 2000
 90
    32768
280
     0
281
     0
  0
CLASS
  1
LONG_TRANSACTION
  2
AcDbLongTransaction
  3
AutoCAD 2000
 90
    32768
280
     0
281
     0
  0
CLASS
  1
LWPOLYLINE
  2
AcDbPolyline
  3
AutoCAD 2000
 90
    32768
280
     0
281
     1
  0
CLASS
  1
HATCH
  2
AcDbHatch
  3
AutoCAD 2000
 90
    32768
280
     0
281
     1
  0
CLASS
  1
XRECORD
  2
AcDbXrecord
  3
AutoCAD 2000
 90
    32768
280
     0
281
     0
  0
CLASS
  1
LONG_TRANSACTION
  2
AcDbLongTransaction
  3
AutoCAD 2000
 90
    32768
280
     0
281
     0
  0
CLASS
  1
LWPOLYLINE
  2
AcDbPolyline
  3
AutoCAD 2000
 90
    32768
280
     0
281
     1
  0
CLASS
  1
HATCH
  2
AcDbHatch
  3
AutoCAD 2000
 90
    32768
280
     0
281
     1
  0
CLASS
  1
XRECORD
  2
AcDbXrecord
  3
AutoCAD 2000
 90
    32768
280
     0
281
     0
  0
CLASS
  1
LONG_TRANSACTION
  2
AcDbLongTransaction
  3
AutoCAD 2000
 90
    32768
280
     0
281
     0
  0
CLASS
  1
LWPOLYLINE
  2
AcDbPolyline
  3
AutoCAD 2000
 90
    32768
280
     0
281
     1
  0
CLASS
  1
HATCH
  2
AcDbHatch
  3
AutoCAD 2000
 90
    32768
280
     0
281
     1
  0
CLASS
  1
XRECORD
  2
AcDbXrecord
  3
AutoCAD 2000
 90
    32768
280
     0
281
     0
  0
CLASS
  1
LONG_TRANSACTION
  2
AcDbLongTransaction
  3
AutoCAD 2000
 90
    32768
280
     0
281
     0
  0
CLASS
  1
LWPOLYLINE
  2
AcDbPolyline
  3
AutoCAD 2000
 90
    32768
280
     0
281
     1
  0
CLASS
  1
HATCH
  2
AcDbHatch
  3
AutoCAD 2000
 90
    32768
280
     0
281
     1
  0
CLASS
  1
XRECORD
  2
AcDbXrecord
  3
AutoCAD 2000
 90
    32768
280
     0
281
     0
  0
CLASS
  1
LONG_TRANSACTION
  2
AcDbLongTransaction
  3
AutoCAD 2000
 90
    32768
280
     0
281
     0
  0
CLASS
  1
LWPOLYLINE
  2
AcDbPolyline
  3
AutoCAD 2000
 90
    32768
280
     0
281
     1
  0
CLASS
  1
HATCH
  2
AcDbHatch
  3
AutoCAD 2000
 90
    32768
280
     0
281
     1
  0
CLASS
  1
XRECORD
  2
AcDbXrecord
  3
AutoCAD 2000
 90
    32768
280
     0
281
     0
  0
CLASS
  1
LONG_TRANSACTION
  2
AcDbLongTransaction
  3
AutoCAD 2000
 90
    32768
280
     0
281
     0
  0
CLASS
  1
LWPOLYLINE
  2
AcDbPolyline
  3
AutoCAD 2000
 90
    32768
280
     0
281
     1
  0
CLASS
  1
HATCH
  2
AcDbHatch
  3
AutoCAD 2000
 90
    32768
280
     0
281
     1
  0
CLASS
  1
XRECORD
  2
AcDbXrecord
  3
AutoCAD 2000
 90
    32768
280
     0
281
     0
  0
CLASS
  1
LONG_TRANSACTION
  2
AcDbLongTransaction
  3
AutoCAD 2000
 90
    32768
280
     0
281
     0
  0
CLASS
  1
LWPOLYLINE
  2
AcDbPolyline
  3
AutoCAD 2000
 90
    32768
280
     0
281
     1
  0
CLASS
  1
HATCH
  2
AcDbHatch
  3
AutoCAD 2000
 90
    32768
280
     0
281
     1
  0
CLASS
  1
XRECORD
  2
AcDbXrecord
  3
AutoCAD 2000
 90
    32768
280
     0
281
     0
  0
CLASS
  1
LONG_TRANSACTION
  2
AcDbLongTransaction
  3
AutoCAD 2000
 90
    32768
280
     0
281
     0
  0
CLASS
  1
LWPOLYLINE
  2
AcDbPolyline
  3
AutoCAD 2000
 90
    32768
280
     0
281
     1
  0
CLASS
  1
HATCH
  2
AcDbHatch
  3
AutoCAD 2000
 90
    32768
280
     0
281
     1
  0
CLASS
  1
XRECORD
  2
AcDbXrecord
  3
AutoCAD 2000
 90
    32768
280
     0
281
     0
  0
CLASS
  1
LONG_TRANSACTION
  2
AcDbLongTransaction
  3
AutoCAD 2000
 90
    32768
280
     0
281
     0
  0
CLASS
  1
LWPOLYLINE
  2
AcDbPolyline
  3
AutoCAD 2000
 90
    32768
280
     0
281
     1
  0
CLASS
  1
HATCH
  2
AcDbHatch
  3
AutoCAD 2000
 90
    32768
280
     0
281
     1
  0
CLASS
  1
XRECORD
  2
AcDbXrecord
  3
AutoCAD 2000
 90
    32768
280
     0
281
     0
  0
CLASS
  1
LONG_TRANSACTION
  2
AcDbLongTransaction
  3
AutoCAD 2000
 90
    32768
280
     0
281
     0
  0
CLASS
  1
LWPOLYLINE
  2
AcDbPolyline
  3
AutoCAD 2000
 90
    32768
280
     0
281
     1
  0
CLASS
  1
HATCH
  2
AcDbHatch
  3
AutoCAD 2000
 90
    32768
280
     0
281
     1
  0
CLASS
  1
XRECORD
  2
AcDbXrecord
  3
AutoCAD 2000
 90
    32768
280
     0
281
     0
  0
CLASS
  1
LONG_TRANSACTION
  2
AcDbLongTransaction
  3
AutoCAD 2000
 90
    32768
280
     0
281
     0
  0
CLASS
  1
LWPOLYLINE
  2
AcDbPolyline
  3
AutoCAD 2000
 90
    32768
280
     0
281
     1
  0
CLASS
  1
HATCH
  2
AcDbHatch
  3
AutoCAD 2000
 90
    32768
280
     0
281
     1
  0
CLASS
  1
XRECORD
  2
AcDbXrecord
  3
AutoCAD 2000
 90
    32768
280
     0
281
     0
  0
CLASS
  1
LONG_TRANSACTION
  2
AcDbLongTransaction
  3
AutoCAD 2000
 90
    32768
280
     0
281
     0
  0
CLASS
  1
LWPOLYLINE
  2
AcDbPolyline
  3
AutoCAD 2000
 90
    32768
280
     0
281
     1
  0
CLASS
  1
HATCH
  2
AcDbHatch
  3
AutoCAD 2000
 90
    32768
280
     0
281
     1
  0
CLASS
  1
XRECORD
  2
AcDbXrecord
  3
AutoCAD 2000
 90
    32768
280
     0
281
     0
  0
CLASS
  1
LONG_TRANSACTION
  2
AcDbLongTransaction
  3
AutoCAD 2000
 90
    32768
280
     0
281
     0
  0
CLASS
  1
LWPOLYLINE
  2
AcDbPolyline
  3
AutoCAD 2000
 90
    32768
280
     0
281
     1
  0
CLASS
  1
HATCH
  2
AcDbHatch
  3
AutoCAD 2000
 90
    32768
280
     0
281
     1
  0
CLASS
  1
XRECORD
  2
AcDbXrecord
  3
AutoCAD 2000
 90
    32768
280
     0
281
     0
  0
CLASS
  1
LONG_TRANSACTION
  2
AcDbLongTransaction
  3
AutoCAD 2000
 90
    32768
280
     0
281
     0
  0
CLASS
  1
LWPOLYLINE
  2
AcDbPolyline
  3
AutoCAD 2000
 90
    32768
280
     0
281
     1
  0
CLASS
  1
HATCH
  2
AcDbHatch
  3
AutoCAD 2000
 90
    32768
280
     0
281
     1
  0
CLASS
  1
XRECORD
  2
AcDbXrecord
  3
AutoCAD 2000
 90
    32768
280
     0
281
     0
  0
CLASS
  1
LONG_TRANSACTION
  2
AcDbLongTransaction
  3
AutoCAD 2000
 90
    32768
280
     0
281
     0
  0
CLASS
  1
LWPOLYLINE
  2
AcDbPolyline
  3
AutoCAD 2000
 90
    32768
280
     0
281
     1
  0
CLASS
  1
HATCH
  2
AcDbHatch
  3
AutoCAD 2000
 90
    32768
280
     0
281
     1
  0
CLASS
  1
XRECORD
  2
AcDbXrecord
  3
AutoCAD 2000
 90
    32768
280
     0
281
     0
  0
CLASS
  1
LONG_TRANSACTION
  2
AcDbLongTransaction
  3
AutoCAD 2000
 90
    32768
280
     0
281
     0
  0
CLASS
  1
LWPOLYLINE
  2
AcDbPolyline
  3
AutoCAD 2000
 90
    32768
280
     0
281
     1
  0
CLASS
  1
HATCH
  2
AcDbHatch
  3
AutoCAD 2000
 90
    32768
280
     0
281
     1
  0
CLASS
  1
XRECORD
  2
AcDbXrecord
  3
AutoCAD 2000
 90
    32768
280
     0
281
     0
  0
CLASS
  1
LONG_TRANSACTION
  2
AcDbLongTransaction
  3
AutoCAD 2000
 90
    32768
280
     0
281
     0
  0
CLASS
  1
LWPOLYLINE
  2
AcDbPolyline
  3
AutoCAD 2000
 90
    32768
280
     0
281
     1
  0
CLASS
  1
HATCH
  2
AcDbHatch
  3
AutoCAD 2000
 90
    32768
280
     0
281
     1
  0
CLASS
  1
XRECORD
  2
AcDbXrecord
  3
AutoCAD 2000
 90
    32768
280
     0
281
     0
  0
CLASS
  1
LONG_TRANSACTION
  2
AcDbLongTransaction
  3
AutoCAD 2000
 90
    32768
280
     0
281
     0
  0
CLASS
  1
LWPOLYLINE
  2
AcDbPolyline
  3
AutoCAD 2000
 90
    32768
280
     0
281
     1
  0
CLASS
  1
HATCH
  2
AcDbHatch
  3
AutoCAD 2000
 90
    32768
280
     0
281
     1
  0
CLASS
  1
XRECORD
  2
AcDbXrecord
  3
AutoCAD 2000
 90
    32768
280
     0
281
     0
  0
CLASS
  1
LONG_TRANSACTION
  2
AcDbLongTransaction
  3
AutoCAD 2000
 90
    32768
280
     0
281
     0
  0
CLASS
  1
LWPOLYLINE
  2
AcDbPolyline
  3
AutoCAD 2000
 90
    32768
280
     0
281
     1
  0
CLASS
  1
HATCH
  2
AcDbHatch
  3
AutoCAD 2000
 90
    32768
280
     0
281
     1
  0
CLASS
  1
XRECORD
  2
AcDbXrecord
  3
AutoCAD 2000
 90
    32768
280
     0
281
     0
  0
CLASS
  1
LONG_TRANSACTION
  2
AcDbLongTransaction
  3
AutoCAD 2000
 90
    32768
280
     0
281
     0
  0
CLASS
  1
LWPOLYLINE
  2
AcDbPolyline
  3
AutoCAD 2000
 90
    32768
280
     0
281
     1
  0
CLASS
  1
HATCH
  2
AcDbHatch
  3
AutoCAD 2000
 90
    32768
280
     0
281
     1
  0
CLASS
  1
XRECORD
  2
AcDbXrecord
  3
AutoCAD 2000
 90
    32768
280
     0
281
     0
  0
CLASS
  1
LONG_TRANSACTION
  2
AcDbLongTransaction
  3
AutoCAD 2000
 90
    32768
280
     0
281
     0
  0
CLASS
  1
LWPOLYLINE
  2
AcDbPolyline
  3
AutoCAD 2000
 90
    32768
280
     0
281
     1
  0
CLASS
  1
HATCH
  2
AcDbHatch
  3
AutoCAD 2000
 90
    32768
280
     0
281
     1
  0
CLASS
  1
XRECORD
  2
AcDbXrecord
  3
AutoCAD 2000
 90
    32768
280
     0
281
     0
  0
CLASS
  1
LONG_TRANSACTION
  2
AcDbLongTransaction
  3
AutoCAD 2000
 90
    32768
280
     0
281
     0
  0
CLASS
  1
LWPOLYLINE
  2
AcDbPolyline
  3
AutoCAD 2000
 90
    32768
280
     0
281
     1
  0
CLASS
  1
HATCH
  2
AcDbHatch
  3
AutoCAD 2000
 90
    32768
280
     0
281
     1
  0
CLASS
  1
XRECORD
  2
AcDbXrecord
  3
AutoCAD 2000
 90
    32768
280
     0
281
     0
  0
CLASS
  1
LONG_TRANSACTION
  2
AcDbLongTransaction
  3
AutoCAD 2000
 90
    32768
280
     0
281
     0
  0
CLASS
  1
LWPOLYLINE
  2
AcDbPolyline
  3
AutoCAD 2000
 90
    32768
280
     0
281
     1
  0
CLASS
  1
HATCH
  2
AcDbHatch
  3
AutoCAD 2000
 90
    32768
280
     0
281
     1
  0
CLASS
  1
XRECORD
  2
AcDbXrecord
  3
AutoCAD 2000
 90
    32768
280
     0
281
     0
  0
CLASS
  1
LONG_TRANSACTION
  2
AcDbLongTransaction
  3
AutoCAD 2000
 90
    32768
280
     0
281
     0
  0
CLASS
  1
LWPOLYLINE
  2
AcDbPolyline
  3
AutoCAD 2000
 90
    32768
280
     0
281
     1
  0
CLASS
  1
HATCH
  2
AcDbHatch
  3
AutoCAD 2000
 90
    32768
280
     0
281
     1
  0
CLASS
  1
XRECORD
  2
AcDbXrecord
  3
AutoCAD 2000
 90
    32768
280
     0
281
     0
  0
CLASS
  1
LONG_TRANSACTION
  2
AcDbLongTransaction
  3
AutoCAD 2000
 90
    32768
280
     0
281
     0
  0
CLASS
  1
LWPOLYLINE
  2
AcDbPolyline
  3
AutoCAD 2000
 90
    32768
280
     0
281
     1
  0
CLASS
  1
HATCH
  2
AcDbHatch
  3
AutoCAD 2000
 90
    32768
280
     0
281
     1
  0
CLASS
  1
XRECORD
  2
AcDbXrecord
  3
AutoCAD 2000
 90
    32768
280
     0
281
     0
  0
CLASS
  1
LONG_TRANSACTION
  2
AcDbLongTransaction
  3
AutoCAD 2000
 90
    32768
280
     0
281
     0
  0
CLASS
  1
LWPOLYLINE
  2
AcDbPolyline
  3
AutoCAD 2000
 90
    32768
280
     0
281
     1
  0
CLASS
  1
HATCH
  2
AcDbHatch
  3
AutoCAD 2000
 90
    32768
280
     0
281
     1
  0
CLASS
  1
XRECORD
  2
AcDbXrecord
  3
AutoCAD 2000
 90
    32768
280
     0
281
     0
  0
CLASS
  1
LONG_TRANSACTION
  2
AcDbLongTransaction
  3
AutoCAD 2000
 90
    32768
280
     0
281
     0
  0
CLASS
  1
LWPOLYLINE
  2
AcDbPolyline
  3
AutoCAD 2000
 90
    32768
280
     0
281
     1
  0
CLASS
  1
HATCH
  2
AcDbHatch
  3
AutoCAD 2000
 90
    32768
280
     0
281
     1
  0
CLASS
  1
XRECORD
  2
AcDbXrecord
  3
AutoCAD 2000
 90
    32768
280
     0
281
     0
  0
CLASS
  1
LONG_TRANSACTION
  2
AcDbLongTransaction
  3
AutoCAD 2000
 90
    32768
280
     0
281
     0
  0
CLASS
  1
LWPOLYLINE
  2
AcDbPolyline
  3
AutoCAD 2000
 90
    32768
280
     0
281
     1
  0
CLASS
  1
HATCH
  2
AcDbHatch
  3
AutoCAD 2000
 90
    32768
280
     0
281
     1
  0
CLASS
  1
XRECORD
  2
AcDbXrecord
  3
AutoCAD 2000
 90
    32768
280
     0
281
     0
  0
CLASS
  1
LONG_TRANSACTION
  2
AcDbLongTransaction
  3
AutoCAD 2000
 90
    32768
280
     0
281
     0
  0
CLASS
  1
LWPOLYLINE
  2
AcDbPolyline
  3
AutoCAD 2000
 90
    32768
280
     0
281
     1
  0
CLASS
  1
HATCH
  2
AcDbHatch
  3
AutoCAD 2000
 90
    32768
280
     0
281
     1
  0
CLASS
  1
XRECORD
  2
AcDbXrecord
  3
AutoCAD 2000
 90
    32768
280
     0
281
     0
  0
CLASS
  1
LONG_TRANSACTION
  2
AcDbLongTransaction
  3
AutoCAD 2000
 90
    32768
280
     0
281
     0
  0
CLASS
  1
LWPOLYLINE
  2
AcDbPolyline
  3
AutoCAD 2000
 90
    32768
280
     0
281
     1
  0
CLASS
  1
HATCH
  2
AcDbHatch
  3
AutoCAD 2000
 90
    32768
280
     0
281
     1
  0
CLASS
  1
XRECORD
  2
AcDbXrecord
  3
AutoCAD 2000
 90
    32768
280
     0
281
     0
  0
CLASS
  1
LONG_TRANSACTION
  2
AcDbLongTransaction
  3
AutoCAD 2000
 90
    32768
280
     0
281
     0
  0
CLASS
  1
LWPOLYLINE
  2
AcDbPolyline
  3
AutoCAD 2000
 90
    32768
280
     0
281
     1
  0
CLASS
  1
HATCH
  2
AcDbHatch
  3
AutoCAD 2000
 90
    32768
280
     0
281
     1
  0
CLASS
  1
XRECORD
  2
AcDbXrecord
  3
AutoCAD 2000
 90
    32768
280
     0
281
     0
  0
CLASS
  1
LONG_TRANSACTION
  2
AcDbLongTransaction
  3
AutoCAD 2000
 90
    32768
280
     0
281
     0
  0
CLASS
  1
LWPOLYLINE
  2
AcDbPolyline
  3
AutoCAD 2000
 90
    32768
280
     0
281
     1
  0
CLASS
  1
HATCH
  2
AcDbHatch
  3
AutoCAD 2000
 90
    32768
280
     0
281
     1
  0
CLASS
  1
XRECORD
  2
AcDbXrecord
  3
AutoCAD 2000
 90
    32768
280
     0
281
     0
  0
CLASS
  1
LONG_TRANSACTION
  2
AcDbLongTransaction
  3
AutoCAD 2000
 90
    32768
280
     0
281
     0
  0
CLASS
  1
LWPOLYLINE
  2
AcDbPolyline
  3
AutoCAD 2000
 90
    32768
280
     0
281
     1
  0
CLASS
  1
HATCH
  2
AcDbHatch
  3
AutoCAD 2000
 90
    32768
280
     0
281
     1
  0
CLASS
  1
XRECORD
  2
AcDbXrecord
  3
AutoCAD 2000
 90
    32768
280
     0
281
     0
  0
CLASS
  1
LONG_TRANSACTION
  2
AcDbLongTransaction
  3
AutoCAD 2000
 90
    32768
280
     0
281
     0
  0
CLASS
  1
LWPOLYLINE
  2
AcDbPolyline
  3
AutoCAD 2000
 90
    32768
280
     0
281
     1
  0
CLASS
  1
HATCH
  2
AcDbHatch
  3
AutoCAD 2000
 90
    32768
280
     0
281
     1
  0
CLASS
  1
XRECORD
  2
AcDbXrecord
  3
AutoCAD 2000
 90
    32768
280
     0
281
     0
  0
CLASS
  1
LONG_TRANSACTION
  2
AcDbLongTransaction
  3
AutoCAD 2000
 90
    32768
280
     0
281
     0
  0
CLASS
  1
LWPOLYLINE
  2
AcDbPolyline
  3
AutoCAD 2000
 90
    32768
280
     0
281
     1
  0
CLASS
  1
HATCH
  2
AcDbHatch
  3
AutoCAD 2000
 90
    32768
280
     0
281
     1
  0
CLASS
  1
XRECORD
  2
AcDbXrecord
  3
AutoCAD 2000
 90
    32768
280
     0
281
     0
  0
CLASS
  1
LONG_TRANSACTION
  2
AcDbLongTransaction
  3
AutoCAD 2000
 90
    32768
280
     0
281
     0
  0
CLASS
  1
LWPOLYLINE
  2
AcDbPolyline
  3
AutoCAD 2000
 90
    32768
280
     0
281
     1
  0
CLASS
  1
HATCH
  2
AcDbHatch
  3
AutoCAD 2000
 90
    32768
280
     0
281
     1
  0
CLASS
  1
XRECORD
  2
AcDbXrecord
  3
AutoCAD 2000
 90
    32768
280
     0
281
     0
  0
CLASS
  1
LONG_TRANSACTION
  2
AcDbLongTransaction
  3
AutoCAD 2000
 90
    32768
280
     0
281
     0
  0
CLASS
  1
LWPOLYLINE
  2
AcDbPolyline
  3
AutoCAD 2000
 90
    32768
280
     0
281
     1
  0
CLASS
  1
HATCH
  2
AcDbHatch
  3
AutoCAD 2000
 90
    32768
280
     0
281
     1
  0
CLASS
  1
XRECORD
  2
AcDbXrecord
  3
AutoCAD 2000
 90
    32768
280
     0
281
     0
  0
CLASS
  1
LONG_TRANSACTION
  2
AcDbLongTransaction
  3
AutoCAD 2000
 90
    32768
280
     0
281
     0
  0
CLASS
  1
LWPOLYLINE
  2
AcDbPolyline
  3
AutoCAD 2000
 90
    32768
280
     0
281
     1
  0
CLASS
  1
HATCH
  2
AcDbHatch
  3
AutoCAD 2000
 90
    32768
280
     0
281
     1
  0
CLASS
  1
XRECORD
  2
AcDbXrecord
  3
AutoCAD 2000
 90
    32768
280
     0
281
     0
  0
CLASS
  1
LONG_TRANSACTION
  2
AcDbLongTransaction
  3
AutoCAD 2000
 90
    32768
280
     0
281
     0
  0
CLASS
  1
LWPOLYLINE
  2
AcDbPolyline
  3
AutoCAD 2000
 90
    32768
280
     0
281
     1
  0
CLASS
  1
HATCH
  2
AcDbHatch
  3
AutoCAD 2000
 90
    32768
280
     0
281
     1
  0
CLASS
  1
XRECORD
  2
AcDbXrecord
  3
AutoCAD 2000
 90
    32768
280
     0
281
     0
  0
CLASS
  1
LONG_TRANSACTION
  2
AcDbLongTransaction
  3
AutoCAD 2000
 90
    32768
280
     0
281
     0
  0
CLASS
  1
LWPOLYLINE
  2
AcDbPolyline
  3
AutoCAD 2000
 90
    32768
280
     0
281
     1
  0
CLASS
  1
HATCH
  2
AcDbHatch
  3
AutoCAD 2000
 90
    32768
280
     0
281
     1
  0
CLASS
  1
XRECORD
  2
AcDbXrecord
  3
AutoCAD 2000
 90
    32768
280
     0
281
     0
  0
CLASS
  1
LONG_TRANSACTION
  2
AcDbLongTransaction
  3
AutoCAD 2000
 90
    32768
280
     0
281
     0
  0
CLASS
  1
LWPOLYLINE
  2
AcDbPolyline
  3
AutoCAD 2000
 90
    32768
280
     0
281
     1
  0
CLASS
  1
HATCH
  2
AcDbHatch
  3
AutoCAD 2000
 90
    32768
280
     0
281
     1
  0
CLASS
  1
XRECORD
  2
AcDbXrecord
  3
AutoCAD 2000
 90
    32768
280
     0
281
     0
  0
CLASS
  1
LONG_TRANSACTION
  2
AcDbLongTransaction
  3
AutoCAD 2000
 90
    32768
280
     0
281
     0
  0
CLASS
  1
LWPOLYLINE
  2
AcDbPolyline
  3
AutoCAD 2000
 90
    32768
280
     0
281
     1
  0
CLASS
  1
HATCH
  2
AcDbHatch
  3
AutoCAD 2000
 90
    32768
280
     0
281
     1
  0
CLASS
  1
XRECORD
  2
AcDbXrecord
  3
AutoCAD 2000
 90
    32768
280
     0
281
     0
  0
CLASS
  1
LONG_TRANSACTION
  2
AcDbLongTransaction
  3
AutoCAD 2000
 90
    32768
280
     0
281
     0
  0
CLASS
  1
LWPOLYLINE
  2
AcDbPolyline
  3
AutoCAD 2000
 90
    32768
280
     0
281
     1
  0
CLASS
  1
HATCH
  2
AcDbHatch
  3
AutoCAD 2000
 90
    32768
280
     0
281
     1
  0
CLASS
  1
XRECORD
  2
AcDbXrecord
  3
AutoCAD 2000
 90
    32768
280
     0
281
     0
  0
CLASS
  1
LONG_TRANSACTION
  2
AcDbLongTransaction
  3
AutoCAD 2000
 90
    32768
280
     0
281
     0
  0
CLASS
  1
LWPOLYLINE
  2
AcDbPolyline
  3
AutoCAD 2000
 90
    32768
280
     0
281
     1
  0
CLASS
  1
HATCH
  2
AcDbHatch
  3
AutoCAD 2000
 90
    32768
280
     0
281
     1
  0
CLASS
  1
XRECORD
  2
AcDbXrecord
  3
AutoCAD 2000
 90
    32768
280
     0
281
     0
  0
CLASS
  1
LONG_TRANSACTION
  2
AcDbLongTransaction
  3
AutoCAD 2000
 90
    32768
280
     0
281
     0
  0
CLASS
  1
LWPOLYLINE
  2
AcDbPolyline
  3
AutoCAD 2000
 90
    32768
280
     0
281
     1
  0
CLASS
  1
HATCH
  2
AcDbHatch
  3
AutoCAD 2000
 90
    32768
280
     0
281
     1
  0
CLASS
  1
XRECORD
  2
AcDbXrecord
  3
AutoCAD 2000
 90
    32768
280
     0
281
     0
  0
CLASS
  1
LONG_TRANSACTION
  2
AcDbLongTransaction
  3
AutoCAD 2000
 90
    32768
280
     0
281
     0
  0
CLASS
  1
LWPOLYLINE
  2
AcDbPolyline
  3
AutoCAD 2000
 90
    32768
280
     0
281
     1
  0
CLASS
  1
HATCH
  2
AcDbHatch
  3
AutoCAD 2000
 90
    32768
280
     0
281
     1
  0
CLASS
  1
XRECORD
  2
AcDbXrecord
  3
AutoCAD 2000
 90
    32768
280
     0
281
     0
  0
CLASS
  1
LONG_TRANSACTION
  2
AcDbLongTransaction
  3
AutoCAD 2000
 90
    32768
280
     0
281
     0
  0
CLASS
  1
LWPOLYLINE
  2
AcDbPolyline
  3
AutoCAD 2000
 90
    32768
280
     0
281
     1
  0
CLASS
  1
HATCH
  2
AcDbHatch
  3
AutoCAD 2000
 90
    32768
280
     0
281
     1
  0
CLASS
  1
XRECORD
  2
AcDbXrecord
  3
AutoCAD 2000
 90
    32768
280
     0
281
     0
  0
CLASS
  1
LONG_TRANSACTION
  2
AcDbLongTransaction
  3
AutoCAD 2000
 90
    32768
280
     0
281
     0
  0
CLASS
  1
LWPOLYLINE
  2
AcDbPolyline
  3
AutoCAD 2000
 90
    32768
280
     0
281
     1
  0
CLASS
  1
HATCH
  2
AcDbHatch
  3
AutoCAD 2000
 90
    32768
280
     0
281
     1
  0
CLASS
  1
XRECORD
  2
AcDbXrecord
  3
AutoCAD 2000
 90
    32768
280
     0
281
     0
  0
CLASS
  1
LONG_TRANSACTION
  2
AcDbLongTransaction
  3
AutoCAD 2000
 90
    32768
280
     0
281
     0
  0
CLASS
  1
LWPOLYLINE
  2
AcDbPolyline
  3
AutoCAD 2000
 90
    32768
280
     0
281
     1
  0
CLASS
  1
HATCH
  2
AcDbHatch
  3
AutoCAD 2000
 90
    32768
280
     0
281
     1
  0
CLASS
  1
XRECORD
  2
AcDbXrecord
  3
AutoCAD 2000
 90
    32768
280
     0
281
     0
  0
CLASS
  1
LONG_TRANSACTION
  2
AcDbLongTransaction
  3
AutoCAD 2000
 90
    32768
280
     0
281
     0
  0
CLASS
  1
LWPOLYLINE
  2
AcDbPolyline
  3
AutoCAD 2000
 90
    32768
280
     0
281
     1
  0
CLASS
  1
HATCH
  2
AcDbHatch
  3
AutoCAD 2000
 90
    32768
280
     0
281
     1
  0
CLASS
  1
XRECORD
  2
AcDbXrecord
  3
AutoCAD 2000
 90
    32768
280
     0
281
     0
  0
CLASS
  1
LONG_TRANSACTION
  2
AcDbLongTransaction
  3
AutoCAD 2000
 90
    32768
280
     0
281
     0
  0
CLASS
  1
LWPOLYLINE
  2
AcDbPolyline
  3
AutoCAD 2000
 90
    32768
280
     0
281
     1
  0
CLASS
  1
HATCH
  2
AcDbHatch
  3
AutoCAD 2000
 90
    32768
280
     0
281
     1
  0
CLASS
  1
XRECORD
  2
AcDbXrecord
  3
AutoCAD 2000
 90
    32768
280
     0
281
     0
  0
CLASS
  1
LONG_TRANSACTION
  2
AcDbLongTransaction
  3
AutoCAD 2000
 90
    32768
280
     0
281
     0
  0
CLASS
  1
LWPOLYLINE
  2
AcDbPolyline
  3
AutoCAD 2000
 90
    32768
280
     0
281
     1
  0
CLASS
  1
HATCH
  2
AcDbHatch
  3
AutoCAD 2000
 90
    32768
280
     0
281
     1
  0
CLASS
  1
XRECORD
  2
AcDbXrecord
  3
AutoCAD 2000
 90
    32768
280
     0
281
     0
  0
CLASS
  1
LONG_TRANSACTION
  2
AcDbLongTransaction
  3
AutoCAD 2000
 90
    32768
280
     0
281
     0
  0
CLASS
  1
LWPOLYLINE
  2
AcDbPolyline
  3
AutoCAD 2000
 90
    32768
280
     0
281
     1
  0
CLASS
  1
HATCH
  2
AcDbHatch
  3
AutoCAD 2000
 90
    32768
280
     0
281
     1
  0
CLASS
  1
XRECORD
  2
AcDbXrecord
  3
AutoCAD 2000
 90
    32768
280
     0
281
     0
  0
CLASS
  1
LONG_TRANSACTION
  2
AcDbLongTransaction
  3
AutoCAD 2000
 90
    32768
280
     0
281
     0
  0
CLASS
  1
LWPOLYLINE
  2
AcDbPolyline
  3
AutoCAD 2000
 90
    32768
280
     0
281
     1
  0
CLASS
  1
HATCH
  2
AcDbHatch
  3
AutoCAD 2000
 90
    32768
280
     0
281
     1
  0
CLASS
  1
XRECORD
  2
AcDbXrecord
  3
AutoCAD 2000
 90
    32768
280
     0
281
     0
  0
CLASS
  1
LONG_TRANSACTION
  2
AcDbLongTransaction
  3
AutoCAD 2000
 90
    32768
280
     0
281
     0
  0
CLASS
  1
LWPOLYLINE
  2
AcDbPolyline
  3
AutoCAD 2000
 90
    32768
280
     0
281
     1
  0
CLASS
  1
HATCH
  2
AcDbHatch
  3
AutoCAD 2000
 90
    32768
280
     0
281
     1
  0
CLASS
  1
XRECORD
  2
AcDbXrecord
  3
AutoCAD 2000
 90
    32768
280
     0
281
     0
  0
CLASS
  1
LONG_TRANSACTION
  2
AcDbLongTransaction
  3
AutoCAD 2000
 90
    32768
280
     0
281
     0
  0
CLASS
  1
LWPOLYLINE
  2
AcDbPolyline
  3
AutoCAD 2000
 90
    32768
280
     0
281
     1
  0
CLASS
  1
HATCH
  2
AcDbHatch
  3
AutoCAD 2000
 90
    32768
280
     0
281
     1
  0
CLASS
  1
XRECORD
  2
AcDbXrecord
  3
AutoCAD 2000
 90
    32768
280
     0
281
     0
  0
CLASS
  1
LONG_TRANSACTION
  2
AcDbLongTransaction
  3
AutoCAD 2000
 90
    32768
280
     0
281
     0
  0
CLASS
  1
LWPOLYLINE
  2
AcDbPolyline
  3
AutoCAD 2000
 90
    32768
280
     0
281
     1
  0
CLASS
  1
HATCH
  2
AcDbHatch
  3
AutoCAD 2000
 90
    32768
280
     0
281
     1
  0
CLASS
  1
XRECORD
  2
AcDbXrecord
  3
AutoCAD 2000
 90
    32768
280
     0
281
     0
  0
CLASS
  1
LONG_TRANSACTION
  2
AcDbLongTransaction
  3
AutoCAD 2000
 90
    32768
280
     0
281
     0
  0
CLASS
  1
LWPOLYLINE
  2
AcDbPolyline
  3
AutoCAD 2000
 90
    32768
280
     0
281
     1
  0
CLASS
  1
HATCH
  2
AcDbHatch
  3
AutoCAD 2000
 90
    32768
280
     0
281
     1
  0
CLASS
  1
XRECORD
  2
AcDbXrecord
  3
AutoCAD 2000
 90
    32768
280
     0
281
     0
  0
CLASS
  1
LONG_TRANSACTION
  2
AcDbLongTransaction
  3
AutoCAD 2000
 90
    32768
280
     0
281
     0
  0
CLASS
  1
LWPOLYLINE
  2
AcDbPolyline
  3
AutoCAD 2000
 90
    32768
280
     0
281
     1
  0
CLASS
  1
HATCH
  2
AcDbHatch
  3
AutoCAD 2000
 90
    32768
280
     0
281
     1
  0
CLASS
  1
XRECORD
  2
AcDbXrecord
  3
AutoCAD 2000
 90
    32768
280
     0
281
     0
  0
CLASS
  1
LONG_TRANSACTION
  2
AcDbLongTransaction
  3
AutoCAD 2000
 90
    32768
280
     0
281
     0
  0
CLASS
  1
LWPOLYLINE
  2
AcDbPolyline
  3
AutoCAD 2000
 90
    32768
280
     0
281
     1
  0
CLASS
  1
HATCH
  2
AcDbHatch
  3
AutoCAD 2000
 90
    32768
280
     0
281
     1
  0
CLASS
  1
XRECORD
  2
AcDbXrecord
  3
AutoCAD 2000
 90
    32768
280
     0
281
     0
  0
CLASS
  1
LONG_TRANSACTION
  2
AcDbLongTransaction
  3
AutoCAD 2000
 90
    32768
280
     0
281
     0
  0
CLASS
  1
LWPOLYLINE
  2
AcDbPolyline
  3
AutoCAD 2000
 90
    32768
280
     0
281
     1
  0
CLASS
  1
HATCH
  2
AcDbHatch
  3
AutoCAD 2000
 90
    32768
280
     0
281
     1
  0
CLASS
  1
XRECORD
  2
AcDbXrecord
  3
AutoCAD 2000
 90
    32768
280
     0
281
     0
  0
CLASS
  1
LONG_TRANSACTION
  2
AcDbLongTransaction
  3
AutoCAD 2000
 90
    32768
280
     0
281
     0
  0
CLASS
  1
LWPOLYLINE
  2
AcDbPolyline
  3
AutoCAD 2000
 90
    32768
280
     0
281
     1
  0
CLASS
  1
HATCH
  2
AcDbHatch
  3
AutoCAD 2000
 90
    32768
280
     0
281
     1
  0
CLASS
  1
XRECORD
  2
AcDbXrecord
  3
AutoCAD 2000
 90
    32768
280
     0
281
     0
  0
CLASS
  1
LONG_TRANSACTION
  2
AcDbLongTransaction
  3
AutoCAD 2000
 90
    32768
280
     0
281
     0
  0
CLASS
  1
LWPOLYLINE
  2
AcDbPolyline
  3
AutoCAD 2000
 90
    32768
280
     0
281
     1
  0
CLASS
  1
HATCH
  2
AcDbHatch
  3
AutoCAD 2000
 90
    32768
280
     0
281
     1
  0
CLASS
  1
XRECORD
  2
AcDbXrecord
  3
AutoCAD 2000
 90
    32768
280
     0
281
     0
  0
CLASS
  1
LONG_TRANSACTION
  2
AcDbLongTransaction
  3
AutoCAD 2000
 90
    32768
280
     0
281
     0
  0
CLASS
  1
LWPOLYLINE
  2
AcDbPolyline
  3
AutoCAD 2000
 90
    32768
280
     0
281
     1
  0
CLASS
  1
HATCH
  2
AcDbHatch
  3
AutoCAD 2000
 90
    32768
280
     0
281
     1
  0
CLASS
  1
XRECORD
  2
AcDbXrecord
  3
AutoCAD 2000
 90
    32768
280
     0
281
     0
  0
CLASS
  1
LONG_TRANSACTION
  2
AcDbLongTransaction
  3
AutoCAD 2000
 90
    32768
280
     0
281
     0
  0
CLASS
  1
LWPOLYLINE
  2
AcDbPolyline
  3
AutoCAD 2000
 90
    32768
280
     0
281
     1
  0
CLASS
  1
HATCH
  2
AcDbHatch
  3
AutoCAD 2000
 90
    32768
280
     0
281
     1
  0
CLASS
  1
XRECORD
  2
AcDbXrecord
  3
AutoCAD 2000
 90
    32768
280
     0
281
     0
  0
CLASS
  1
LONG_TRANSACTION
  2
AcDbLongTransaction
  3
AutoCAD 2000
 90
    32768
280
     0
281
     0
  0
CLASS
  1
LWPOLYLINE
  2
AcDbPolyline
  3
AutoCAD 2000
 90
    32768
280
     0
281
     1
  0
CLASS
  1
HATCH
  2
AcDbHatch
  3
AutoCAD 2000
 90
    32768
280
     0
281
     1
  0
CLASS
  1
XRECORD
  2
AcDbXrecord
  3
AutoCAD 2000
 90
    32768
280
     0
281
     0
  0
CLASS
  1
LONG_TRANSACTION
  2
AcDbLongTransaction
  3
AutoCAD 2000
 90
    32768
280
     0
281
     0
  0
CLASS
  1
LWPOLYLINE
  2
AcDbPolyline
  3
AutoCAD 2000
 90
    32768
280
     0
281
     1
  0
CLASS
  1
HATCH
  2
AcDbHatch
  3
AutoCAD 2000
 90
    32768
280
     0
281
     1
  0
CLASS
  1
XRECORD
  2
AcDbXrecord
  3
AutoCAD 2000
 90
    32768
280
     0
281
     0
  0
CLASS
  1
LONG_TRANSACTION
  2
AcDbLongTransaction
  3
AutoCAD 2000
 90
    32768
280
     0
281
     0
  0
CLASS
  1
LWPOLYLINE
  2
AcDbPolyline
  3
AutoCAD 2000
 90
    32768
280
     0
281
     1
  0
CLASS
  1
HATCH
  2
AcDbHatch
  3
AutoCAD 2000
 90
    32768
280
     0
281
     1
  0
CLASS
  1
XRECORD
  2
AcDbXrecord
  3
AutoCAD 2000
 90
    32768
280
     0
281
     0
  0
CLASS
  1
LONG_TRANSACTION
  2
AcDbLongTransaction
  3
AutoCAD 2000
 90
    32768
280
     0
281
     0
  0
CLASS
  1
LWPOLYLINE
  2
AcDbPolyline
  3
AutoCAD 2000
 90
    32768
280
     0
281
     1
  0
CLASS
  1
HATCH
  2
AcDbHatch
  3
AutoCAD 2000
 90
    32768
280
     0
281
     1
  0
CLASS
  1
XRECORD
  2
AcDbXrecord
  3
AutoCAD 2000
 90
    32768
280
     0
281
     0
  0
CLASS
  1
LONG_TRANSACTION
  2
AcDbLongTransaction
  3
AutoCAD 2000
 90
    32768
280
     0
281
     0
  0
CLASS
  1
LWPOLYLINE
  2
AcDbPolyline
  3
AutoCAD 2000
 90
    32768
280
     0
281
     1
  0
CLASS
  1
HATCH
  2
AcDbHatch
  3
AutoCAD 2000
 90
    32768
280
     0
281
     1
  0
CLASS
  1
XRECORD
  2
AcDbXrecord
  3
AutoCAD 2000
 90
    32768
280
     0
281
     0
  0
CLASS
  1
LONG_TRANSACTION
  2
AcDbLongTransaction
  3
AutoCAD 2000
 90
    32768
280
     0
281
     0
  0
CLASS
  1
LWPOLYLINE
  2
AcDbPolyline
  3
AutoCAD 2000
 90
    32768
280
     0
281
     1
  0
CLASS
  1
HATCH
  2
AcDbHatch
  3
AutoCAD 2000
 90
    32768
280
     0
281
     1
  0
CLASS
  1
XRECORD
  2
AcDbXrecord
  3
AutoCAD 2000
 90
    32768
280
     0
281
     0
  0
CLASS
  1
LONG_TRANSACTION
  2
AcDbLongTransaction
  3
AutoCAD 2000
 90
    32768
280
     0
281
     0
  0
CLASS
  1
LWPOLYLINE
  2
AcDbPolyline
  3
AutoCAD 2000
 90
    32768
280
     0
281
     1
  0
CLASS
  1
HATCH
  2
AcDbHatch
  3
AutoCAD 2000
 90
    32768
280
     0
281
     1
  0
CLASS
  1
XRECORD
  2
AcDbXrecord
  3
AutoCAD 2000
 90
    32768
280
     0
281
     0
  0
CLASS
  1
LONG_TRANSACTION
  2
AcDbLongTransaction
  3
AutoCAD 2000
 90
    32768
280
     0
281
     0
  0
CLASS
  1
LWPOLYLINE
  2
AcDbPolyline
  3
AutoCAD 2000
 90
    32768
280
     0
281
     1
  0
CLASS
  1
HATCH
  2
AcDbHatch
  3
AutoCAD 2000
 90
    32768
280
     0
281
     1
  0
CLASS
  1
XRECORD
  2
AcDbXrecord
  3
AutoCAD 2000
 90
    32768
280
     0
281
     0
  0
CLASS
  1
LONG_TRANSACTION
  2
AcDbLongTransaction
  3
AutoCAD 2000
 90
    32768
280
     0
281
     0
  0
CLASS
  1
LWPOLYLINE
  2
AcDbPolyline
  3
AutoCAD 2000
 90
    32768
280
     0
281
     1
  0
CLASS
  1
HATCH
  2
AcDbHatch
  3
AutoCAD 2000
 90
    32768
280
     0
281
     1
  0
CLASS
  1
XRECORD
  2
AcDbXrecord
  3
AutoCAD 2000
 90
    32768
280
     0
281
     0
  0
CLASS
  1
LONG_TRANSACTION
  2
AcDbLongTransaction
  3
AutoCAD 2000
 90
    32768
280
     0
281
     0
  0
CLASS
  1
LWPOLYLINE
  2
AcDbPolyline
  3
AutoCAD 2000
 90
    32768
280
     0
281
     1
  0
CLASS
  1
HATCH
  2
AcDbHatch
  3
AutoCAD 2000
 90
    32768
280
     0
281
     1
  0
CLASS
  1
XRECORD
  2
AcDbXrecord
  3
AutoCAD 2000
 90
    32768
280
     0
281
     0
  0
CLASS
  1
LONG_TRANSACTION
  2
AcDbLongTransaction
  3
AutoCAD 2000
 90
    32768
280
     0
281
     0
  0
CLASS
  1
LWPOLYLINE
  2
AcDbPolyline
  3
AutoCAD 2000
 90
    32768
280
     0
281
     1
  0
CLASS
  1
HATCH
  2
AcDbHatch
  3
AutoCAD 2000
 90
    32768
280
     0
281
     1
  0
CLASS
  1
XRECORD
  2
AcDbXrecord
  3
AutoCAD 2000
 90
    32768
280
     0
281
     0
  0
CLASS
  1
LONG_TRANSACTION
  2
AcDbLongTransaction
  3
AutoCAD 2000
 90
    32768
280
     0
281
     0
  0
CLASS
  1
LWPOLYLINE
  2
AcDbPolyline
  3
AutoCAD 2000
 90
    32768
280
     0
281
     1
  0
CLASS
  1
HATCH
  2
AcDbHatch
  3
AutoCAD 2000
 90
    32768
280
     0
281
     1
  0
CLASS
  1
XRECORD
  2
AcDbXrecord
  3
AutoCAD 2000
 90
    32768
280
     0
281
     0
  0
CLASS
  1
LONG_TRANSACTION
  2
AcDbLongTransaction
  3
AutoCAD 2000
 90
    32768
280
     0
281
     0
  0
CLASS
  1
LWPOLYLINE
  2
AcDbPolyline
  3
AutoCAD 2000
 90
    32768
280
     0
281
     1
  0
CLASS
  1
HATCH
  2
AcDbHatch
  3
AutoCAD 2000
 90
    32768
280
     0
281
     1
  0
CLASS
  1
XRECORD
  2
AcDbXrecord
  3
AutoCAD 2000
 90
    32768
280
     0
281
     0
  0
CLASS
  1
LONG_TRANSACTION
  2
AcDbLongTransaction
  3
AutoCAD 2000
 90
    32768
280
     0
281
     0
  0
CLASS
  1
LWPOLYLINE
  2
AcDbPolyline
  3
AutoCAD 2000
 90
    32768
280
     0
281
     1
  0
CLASS
  1
HATCH
  2
AcDbHatch
  3
AutoCAD 2000
 90
    32768
280
     0
281
     1
  0
CLASS
  1
XRECORD
  2
AcDbXrecord
  3
AutoCAD 2000
 90
    32768
280
     0
281
     0
  0
CLASS
  1
LONG_TRANSACTION
  2
AcDbLongTransaction
  3
AutoCAD 2000
 90
    32768
280
     0
281
     0
  0
CLASS
  1
LWPOLYLINE
  2
AcDbPolyline
  3
AutoCAD 2000
 90
    32768
280
     0
281
     1
  0
CLASS
  1
HATCH
  2
AcDbHatch
  3
AutoCAD 2000
 90
    32768
280
     0
281
     1
  0
CLASS
  1
XRECORD
  2
AcDbXrecord
  3
AutoCAD 2000
 90
    32768
280
     0
281
     0
  0
CLASS
  1
LONG_TRANSACTION
  2
AcDbLongTransaction
  3
AutoCAD 2000
 90
    32768
280
     0
281
     0
  0
CLASS
  1
LWPOLYLINE
  2
AcDbPolyline
  3
AutoCAD 2000
 90
    32768
280
     0
281
     1
  0
CLASS
  1
HATCH
  2
AcDbHatch
  3
AutoCAD 2000
 90
    32768
280
     0
281
     1
  0
CLASS
  1
XRECORD
  2
AcDbXrecord
  3
AutoCAD 2000
 90
    32768
280
     0
281
     0
  0
CLASS
  1
LONG_TRANSACTION
  2
AcDbLongTransaction
  3
AutoCAD 2000
 90
    32768
280
     0
281
     0
  0
CLASS
  1
LWPOLYLINE
  2
AcDbPolyline
  3
AutoCAD 2000
 90
    32768
280
     0
281
     1
  0
CLASS
  1
HATCH
  2
AcDbHatch
  3
AutoCAD 2000
 90
    32768
280
     0
281
     1
  0
CLASS
  1
XRECORD
  2
AcDbXrecord
  3
AutoCAD 2000
 90
    32768
280
     0
281
     0
  0
CLASS
  1
LONG_TRANSACTION
  2
AcDbLongTransaction
  3
AutoCAD 2000
 90
    32768
280
     0
281
     0
  0
CLASS
  1
LWPOLYLINE
  2
AcDbPolyline
  3
AutoCAD 2000
 90
    32768
280
     0
281
     1
  0
CLASS
  1
HATCH
  2
AcDbHatch
  3
AutoCAD 2000
 90
    32768
280
     0
281
     1
  0
CLASS
  1
XRECORD
  2
AcDbXrecord
  3
AutoCAD 2000
 90
    32768
280
     0
281
     0
  0
CLASS
  1
LONG_TRANSACTION
  2
AcDbLongTransaction
  3
AutoCAD 2000
 90
    32768
280
     0
281
     0
  0
CLASS
  1
LWPOLYLINE
  2
AcDbPolyline
  3
AutoCAD 2000
 90
    32768
280
     0
281
     1
  0
CLASS
  1
HATCH
  2
AcDbHatch
  3
AutoCAD 2000
 90
    32768
280
     0
281
     1
  0
CLASS
  1
XRECORD
  2
AcDbXrecord
  3
AutoCAD 2000
 90
    32768
280
     0
281
     0
  0
CLASS
  1
LONG_TRANSACTION
  2
AcDbLongTransaction
  3
AutoCAD 2000
 90
    32768
280
     0
281
     0
  0
CLASS
  1
LWPOLYLINE
  2
AcDbPolyline
  3
AutoCAD 2000
 90
    32768
280
     0
281
     1
  0
CLASS
  1
HATCH
  2
AcDbHatch
  3
AutoCAD 2000
 90
    32768
280
     0
281
     1
  0
CLASS
  1
XRECORD
  2
AcDbXrecord
  3
AutoCAD 2000
 90
    32768
280
     0
281
     0
  0
CLASS
  1
LONG_TRANSACTION
  2
AcDbLongTransaction
  3
AutoCAD 2000
 90
    32768
280
     0
281
     0
  0
CLASS
  1
LWPOLYLINE
  2
AcDbPolyline
  3
AutoCAD 2000
 90
    32768
280
     0
281
     1
  0
CLASS
  1
HATCH
  2
AcDbHatch
  3
AutoCAD 2000
 90
    32768
280
     0
281
     1
  0
CLASS
  1
XRECORD
  2
AcDbXrecord
  3
AutoCAD 2000
 90
    32768
280
     0
281
     0
  0
CLASS
  1
LONG_TRANSACTION
  2
AcDbLongTransaction
  3
AutoCAD 2000
 90
    32768
280
     0
281
     0
  0
CLASS
  1
LWPOLYLINE
  2
AcDbPolyline
  3
AutoCAD 2000
 90
    32768
280
     0
281
     1
  0
CLASS
  1
HATCH
  2
AcDbHatch
  3
AutoCAD 2000
 90
    32768
280
     0
281
     1
  0
CLASS
  1
XRECORD
  2
AcDbXrecord
  3
AutoCAD 2000
 90
    32768
280
     0
281
     0
  0
CLASS
  1
LONG_TRANSACTION
  2
AcDbLongTransaction
  3
AutoCAD 2000
 90
    32768
280
     0
281
     0
  0
CLASS
  1
LWPOLYLINE
  2
AcDbPolyline
  3
AutoCAD 2000
 90
    32768
280
     0
281
     1
  0
CLASS
  1
HATCH
  2
AcDbHatch
  3
AutoCAD 2000
 90
    32768
280
     0
281
     1
  0
CLASS
  1
XRECORD
  2
AcDbXrecord
  3
AutoCAD 2000
 90
    32768
280
     0
281
     0
  0
ENDSEC
  0
SECTION
  2
TABLES
  0
TABLE
  2
VPORT
  5
90
330
0
100
AcDbSymbolTable
 70
     2
  0
VPORT
  5
588
330
90
100
AcDbSymbolTableRecord
100
AcDbViewportTableRecord
  2
*ACTIVE
 70
     0
 10
0.0
 20
0.0
 11
1.0
 21
1.0
 12
206.0796104995193
 22
219.9654945670908
 13
0.0
 23
0.0
 14
10.0
 24
10.0
 15
10.0
 25
10.0
 16
0.0
 26
0.0
 36
1.0
 17
0.0
 27
0.0
 37
0.0
 40
535.0367767138338
 41
1.549367088607595
 42
50.0
 43
0.0
 44
0.0
 50
0.0
 51
0.0
 71
     0
 72
 10000
 73
     1
 74
     3
 75
     0
 76
     0
 77
     0
 78
     1
  0
ENDTAB
  0
TABLE
  2
LTYPE
  5
8B
330
0
100
AcDbSymbolTable
 70
     4
  0
LTYPE
  5
8C
330
8B
100
AcDbSymbolTableRecord
100
AcDbLinetypeTableRecord
  2
BYBLOCK
 70
     0
  3

 72
    65
 73
     0
 40
0.0
  0
LTYPE
  5
8D
330
8B
100
AcDbSymbolTableRecord
100
AcDbLinetypeTableRecord
  2
BYLAYER
 70
     0
  3

 72
    65
 73
     0
 40
0.0
  0
LTYPE
  5
9
330
8B
100
AcDbSymbolTableRecord
100
AcDbLinetypeTableRecord
  2
CONTINUOUS
 70
     0
  3
Solid line
 72
    65
 73
     0
 40
0.0
  0
LTYPE
  5
C3
330
8B
100
AcDbSymbolTableRecord
100
AcDbLinetypeTableRecord
  2
CENTER
 70
     0
  3
Center ____ _ ____ _ ____ _ ____ _ ____ _ ____
 72
    65
 73
     4
 40
50.8
 49
31.75
 74
     0
 49
-6.349999999999997
 74
     0
 49
6.349999999999997
 74
     0
 49
-6.349999999999997
 74
     0
  0
LTYPE
  5
C2
330
8B
100
AcDbSymbolTableRecord
100
AcDbLinetypeTableRecord
  2
CENTERX2
 70
     0
  3
Center (2x) ________  __  ________  __  _____
 72
    65
 73
     4
 40
101.6
 49
63.5
 74
     0
 49
-12.7
 74
     0
 49
12.7
 74
     0
 49
-12.7
 74
     0
  0
LTYPE
  5
178
330
8B
100
AcDbSymbolTableRecord
100
AcDbLinetypeTableRecord
  2
HIDDEN
 70
     0
  3
Hidden __ __ __ __ __ __ __ __ __ __ __ __ __ _
 72
    65
 73
     2
 40
9.524999999999996
 49
6.349999999999997
 74
     0
 49
-3.174999999999998
 74
     0
  0
ENDTAB
  0
TABLE
  2
LAYER
  5
12
102
{ACAD_XDICTIONARY
360
13
102
}
330
0
100
AcDbSymbolTable
 70
     8
  0
LAYER
  5
5
330
12
100
AcDbSymbolTableRecord
100
AcDbLayerTableRecord
  2
0
 70
     0
 62
     7
  6
CONTINUOUS
  0
LAYER
  5
1CB
330
12
100
AcDbSymbolTableRecord
100
AcDbLayerTableRecord
  2
3
 70
     0
 62
     3
  6
CONTINUOUS
  0
LAYER
  5
24D
330
12
100
AcDbSymbolTableRecord
100
AcDbLayerTableRecord
  2
1
 70
     0
 62
     1
  6
CENTER
  0
LAYER
  5
B8
330
12
100
AcDbSymbolTableRecord
100
AcDbLayerTableRecord
  2
DEFPOINTS
 70
     0
 62
     7
  6
CONTINUOUS
  0
LAYER
  5
A1
330
12
100
AcDbSymbolTableRecord
100
AcDbLayerTableRecord
  2
DIM
 70
     0
 62
     3
  6
CONTINUOUS
  0
LAYER
  5
C1
330
12
100
AcDbSymbolTableRecord
100
AcDbLayerTableRecord
  2
CL
 70
     0
 62
     1
  6
CENTERX2
  0
LAYER
  5
177
330
12
100
AcDbSymbolTableRecord
100
AcDbLayerTableRecord
  2
CEN
 70
     0
 62
     1
  6
CENTER
  0
LAYER
  5
9D
330
12
100
AcDbSymbolTableRecord
100
AcDbLayerTableRecord
  2
2
 70
     0
 62
     2
  6
CONTINUOUS
  0
ENDTAB
  0
TABLE
  2
STYLE
  5
88
330
0
100
AcDbSymbolTable
 70
     2
  0
STYLE
  5
89
330
88
100
AcDbSymbolTableRecord
100
AcDbTextStyleTableRecord
  2
STANDARD
 70
     0
 40
0.0
 41
1.0
 50
0.0
 71
     0
 42
5.777225951253058
  3
romans.shx
  4
whgtxt.shx
  0
STYLE
  5
24E
330
88
100
AcDbSymbolTableRecord
100
AcDbTextStyleTableRecord
  2
GHS
 70
     0
 40
0.0
 41
0.6
 50
0.0
 71
     0
 42
3.0
  3
ROMANS
  4
GHS
  0
ENDTAB
  0
TABLE
  2
VIEW
  5
8E
330
0
100
AcDbSymbolTable
 70
     0
  0
ENDTAB
  0
TABLE
  2
UCS
  5
8F
330
0
100
AcDbSymbolTable
 70
     0
  0
ENDTAB
  0
TABLE
  2
APPID
  5
92
330
0
100
AcDbSymbolTable
 70
     1
  0
APPID
  5
93
330
92
100
AcDbSymbolTableRecord
100
AcDbRegAppTableRecord
  2
ACAD
 70
     0
  0
ENDTAB
  0
TABLE
  2
DIMSTYLE
  5
94
330
0
100
AcDbSymbolTable
 70
     2
  0
DIMSTYLE
105
A3
102
{ACAD_REACTORS
330
2AE
330
2E6
330
2F3
330
302
330
23F
330
C7
330
313
330
320
330
330
330
286
330
26B
330
347
330
358
330
D6
330
278
330
1DB
330
1EC
330
1FD
330
22B
330
21A
330
367
330
E5
330
F2
330
186
330
13B
330
FF
330
10E
330
148
330
1A8
330
12E
330
11F
330
374
330
AD
102
}
330
94
100
AcDbSymbolTableRecord
100
AcDbDimStyleTableRecord
  2
STANDARD
 70
     0
  3

  4

  5

  6

  7

 40
1.0
 41
2.5
 42
1.0
 43
10.0
 44
0.6
 45
0.0
 46
0.0
 47
0.0
 48
0.0
140
3.0
141
0.09
142
0.0
143
25.4
144
1.0
145
0.0
146
1.0
147
1.0
 71
     0
 72
     0
 73
     0
 74
     0
 75
     0
 76
     0
 77
     1
 78
     8
170
     0
171
     2
172
     1
173
     0
174
     1
175
     0
176
   123
177
   123
178
     3
270
     2
271
     2
272
     2
273
     2
274
     2
340
89
275
     1
280
     0
281
     0
282
     0
283
     1
284
     0
285
     0
286
     0
287
     3
288
     1
  0
DIMSTYLE
105
95
330
94
100
AcDbSymbolTableRecord
100
AcDbDimStyleTableRecord
  2
1_1_2
 70
     0
  3

  4

  5

  6

  7

 40
1.0
 41
3.0
 42
1.0
 43
10.0
 44
0.6
 45
0.0
 46
0.0
 47
0.0
 48
0.0
140
3.5
141
0.09
142
0.0
143
25.4
144
1.0
145
0.0
146
1.0
147
1.0
 71
     0
 72
     0
 73
     0
 74
     0
 75
     0
 76
     0
 77
     1
 78
     8
170
     0
171
     2
172
     1
173
     0
174
     1
175
     0
176
   123
177
   123
178
     3
270
     2
271
     2
272
     2
273
     2
274
     2
340
89
275
     1
280
     0
281
     0
282
     0
283
     1
284
     0
285
     0
286
     0
287
     3
288
     1
  0
ENDTAB
  0
TABLE
  2
BLOCK_RECORD
  5
1
330
0
100
AcDbSymbolTable
 70
    33
  0
BLOCK_RECORD
  5
2
102
{ACAD_XDICTIONARY
360
3
102
}
330
1
100
AcDbSymbolTableRecord
100
AcDbBlockTableRecord
  2
*MODEL_SPACE
  0
BLOCK_RECORD
  5
D
102
{ACAD_XDICTIONARY
360
E
102
}
330
1
100
AcDbSymbolTableRecord
100
AcDbBlockTableRecord
  2
*PAPER_SPACE
  0
BLOCK_RECORD
  5
399
330
1
100
AcDbSymbolTableRecord
100
AcDbBlockTableRecord
  2
*D0
  0
BLOCK_RECORD
  5
3A4
330
1
100
AcDbSymbolTableRecord
100
AcDbBlockTableRecord
  2
*D1
  0
BLOCK_RECORD
  5
3B0
330
1
100
AcDbSymbolTableRecord
100
AcDbBlockTableRecord
  2
*D2
  0
BLOCK_RECORD
  5
3BB
330
1
100
AcDbSymbolTableRecord
100
AcDbBlockTableRecord
  2
*D3
  0
BLOCK_RECORD
  5
3C7
330
1
100
AcDbSymbolTableRecord
100
AcDbBlockTableRecord
  2
*D4
  0
BLOCK_RECORD
  5
3D3
330
1
100
AcDbSymbolTableRecord
100
AcDbBlockTableRecord
  2
*D5
  0
BLOCK_RECORD
  5
3DF
330
1
100
AcDbSymbolTableRecord
100
AcDbBlockTableRecord
  2
*D6
  0
BLOCK_RECORD
  5
3ED
330
1
100
AcDbSymbolTableRecord
100
AcDbBlockTableRecord
  2
*D7
  0
BLOCK_RECORD
  5
3FB
330
1
100
AcDbSymbolTableRecord
100
AcDbBlockTableRecord
  2
*D8
  0
BLOCK_RECORD
  5
407
330
1
100
AcDbSymbolTableRecord
100
AcDbBlockTableRecord
  2
*D9
  0
BLOCK_RECORD
  5
413
330
1
100
AcDbSymbolTableRecord
100
AcDbBlockTableRecord
  2
*D10
  0
BLOCK_RECORD
  5
41F
330
1
100
AcDbSymbolTableRecord
100
AcDbBlockTableRecord
  2
*D11
  0
BLOCK_RECORD
  5
42B
330
1
100
AcDbSymbolTableRecord
100
AcDbBlockTableRecord
  2
*D12
  0
BLOCK_RECORD
  5
437
330
1
100
AcDbSymbolTableRecord
100
AcDbBlockTableRecord
  2
*D13
  0
BLOCK_RECORD
  5
445
330
1
100
AcDbSymbolTableRecord
100
AcDbBlockTableRecord
  2
*D14
  0
BLOCK_RECORD
  5
451
330
1
100
AcDbSymbolTableRecord
100
AcDbBlockTableRecord
  2
*D15
  0
BLOCK_RECORD
  5
45F
330
1
100
AcDbSymbolTableRecord
100
AcDbBlockTableRecord
  2
*D16
  0
BLOCK_RECORD
  5
46B
330
1
100
AcDbSymbolTableRecord
100
AcDbBlockTableRecord
  2
*D17
  0
BLOCK_RECORD
  5
479
330
1
100
AcDbSymbolTableRecord
100
AcDbBlockTableRecord
  2
*D18
  0
BLOCK_RECORD
  5
487
330
1
100
AcDbSymbolTableRecord
100
AcDbBlockTableRecord
  2
*D19
  0
BLOCK_RECORD
  5
495
330
1
100
AcDbSymbolTableRecord
100
AcDbBlockTableRecord
  2
*D20
  0
BLOCK_RECORD
  5
4A1
330
1
100
AcDbSymbolTableRecord
100
AcDbBlockTableRecord
  2
*D21
  0
BLOCK_RECORD
  5
4AD
330
1
100
AcDbSymbolTableRecord
100
AcDbBlockTableRecord
  2
*D22
  0
BLOCK_RECORD
  5
4B8
330
1
100
AcDbSymbolTableRecord
100
AcDbBlockTableRecord
  2
*D23
  0
BLOCK_RECORD
  5
4C4
330
1
100
AcDbSymbolTableRecord
100
AcDbBlockTableRecord
  2
*D24
  0
BLOCK_RECORD
  5
4D0
330
1
100
AcDbSymbolTableRecord
100
AcDbBlockTableRecord
  2
*D25
  0
BLOCK_RECORD
  5
4DC
330
1
100
AcDbSymbolTableRecord
100
AcDbBlockTableRecord
  2
*D26
  0
BLOCK_RECORD
  5
4EA
330
1
100
AcDbSymbolTableRecord
100
AcDbBlockTableRecord
  2
*D27
  0
BLOCK_RECORD
  5
4F6
330
1
100
AcDbSymbolTableRecord
100
AcDbBlockTableRecord
  2
*D28
  0
BLOCK_RECORD
  5
504
330
1
100
AcDbSymbolTableRecord
100
AcDbBlockTableRecord
  2
*D29
  0
BLOCK_RECORD
  5
510
330
1
100
AcDbSymbolTableRecord
100
AcDbBlockTableRecord
  2
*D30
  0
BLOCK_RECORD
  5
51C
330
1
100
AcDbSymbolTableRecord
100
AcDbBlockTableRecord
  2
*D31
  0
BLOCK_RECORD
  5
528
330
1
100
AcDbSymbolTableRecord
100
AcDbBlockTableRecord
  2
*D32
  0
ENDTAB
  0
ENDSEC
  0
SECTION
  2
BLOCKS
  0
BLOCK
  5
4
330
2
100
AcDbEntity
  8
0
100
AcDbBlockBegin
  2
*MODEL_SPACE
 70
     0
 10
0.0
 20
0.0
 30
0.0
  3
*MODEL_SPACE
  1

  0
ENDBLK
  5
A
330
2
100
AcDbEntity
  8
0
100
AcDbBlockEnd
  0
BLOCK
  5
F
330
D
100
AcDbEntity
 67
     1
  8
0
100
AcDbBlockBegin
  2
*PAPER_SPACE
 70
     0
 10
0.0
 20
0.0
 30
0.0
  3
*PAPER_SPACE
  1

  0
ENDBLK
  5
10
330
D
100
AcDbEntity
 67
     1
  8
0
100
AcDbBlockEnd
  0
BLOCK
  5
3A2
330
399
100
AcDbEntity
  8
0
100
AcDbBlockBegin
  2
*D0
 70
     1
 10
0.0
 20
0.0
 30
0.0
  3
*D0
  1

  0
LINE
  5
551
330
399
100
AcDbEntity
  8
0
 62
   123
100
AcDbLine
 10
40.129855855193
 20
234.5433079055576
 30
0.0
 11
38.1928496121456
 21
232.9627995017853
 31
0.0
  0
LINE
  5
552
330
399
100
AcDbEntity
  8
0
 62
   123
100
AcDbLine
 10
124.5833280520712
 20
303.4534743100478
 30
0.0
 11
147.5995521535824
 21
322.2336593229358
 31
0.0
  0
LINE
  5
553
330
399
100
AcDbEntity
  8
0
 62
   123
100
AcDbLine
 10
42.06686209824039
 20
236.1238163093303
 30
0.0
 11
122.6463218090237
 21
301.8729659062753
 31
0.0
  0
SOLID
  5
554
330
399
100
AcDbEntity
  8
0
 62
   123
100
AcDbTrace
 10
39.86643778789758
 20
234.8661422793989
 30
0.0
 11
40.39327392248839
 21
234.2204735317165
 31
0.0
 12
42.06686209824039
 22
236.1238163093303
 32
0.0
 13
42.06686209824039
 23
236.1238163093303
 33
0.0
  0
SOLID
  5
555
330
399
100
AcDbEntity
  8
0
 62
   123
100
AcDbTrace
 10
124.3199099847758
 20
303.7763086838891
 30
0.0
 11
124.8467461193665
 21
303.1306399362066
 31
0.0
 12
122.6463218090237
 22
301.8729659062753
 32
0.0
 13
122.6463218090237
 23
301.8729659062753
 33
0.0
  0
MTEXT
  5
556
330
399
100
AcDbEntity
  8
0
 62
     3
100
AcDbMText
 10
136.9981289607607
 20
316.8100121426999
 30
0.0
 40
3.0
 41
0.0
 71
     5
 72
     1
  1
\A1;\U+2205104%%P0.5
 11
0.7748024972189555
 21
0.6322033615089931
 31
0.0
1001
ACAD
1000
MTEXTBEGIN
1070
    73
1070
     1
1070
    44
1040
1.0
1070
    74
1070
     0
1000
MTEXTEND
1000
MTEXTBEGIN
1070
    73
1070
     1
1070
    44
1040
1.0
1070
    74
1070
     0
1000
MTEXTEND
  0
POINT
  5
557
330
399
100
AcDbEntity
  8
DEFPOINTS
 62
     0
100
AcDbPoint
 10
122.6463218090237
 20
301.8729659062753
 30
0.0
  0
POINT
  5
558
330
399
100
AcDbEntity
  8
DEFPOINTS
 62
     0
100
AcDbPoint
 10
42.06686209824039
 20
236.1238163093303
 30
0.0
  0
ENDBLK
  5
3A3
330
399
100
AcDbEntity
  8
0
100
AcDbBlockEnd
  0
BLOCK
  5
3AE
330
3A4
100
AcDbEntity
  8
0
100
AcDbBlockBegin
  2
*D1
 70
     1
 10
0.0
 20
0.0
 30
0.0
  3
*D1
  1

  0
LINE
  5
3A5
330
3A4
100
AcDbEntity
  8
0
 62
   123
100
AcDbLine
 10
198.4207416115785
 20
278.0192834254634
 30
0.0
 11
198.4207416115785
 21
207.4137302138454
 31
0.0
  0
LINE
  5
3A6
330
3A4
100
AcDbEntity
  8
0
 62
   123
100
AcDbLine
 10
230.4207416115786
 20
223.5192834254635
 30
0.0
 11
230.4207416115786
 21
207.4137302138454
 31
0.0
  0
LINE
  5
3A7
330
3A4
100
AcDbEntity
  8
0
 62
   123
100
AcDbLine
 10
200.9207416115786
 20
208.0137302138454
 30
0.0
 11
227.9207416115786
 21
208.0137302138454
 31
0.0
  0
SOLID
  5
3A8
330
3A4
100
AcDbEntity
  8
0
 62
   123
100
AcDbTrace
 10
200.9207416115786
 20
208.430396880512
 30
0.0
 11
200.9207416115786
 21
207.5970635471787
 31
0.0
 12
198.4207416115785
 22
208.0137302138454
 32
0.0
 13
198.4207416115785
 23
208.0137302138454
 33
0.0
  0
SOLID
  5
3A9
330
3A4
100
AcDbEntity
  8
0
 62
   123
100
AcDbTrace
 10
227.9207416115786
 20
208.430396880512
 30
0.0
 11
227.9207416115786
 21
207.5970635471787
 31
0.0
 12
230.4207416115786
 22
208.0137302138454
 32
0.0
 13
230.4207416115786
 23
208.0137302138454
 33
0.0
  0
MTEXT
  5
3AA
330
3A4
100
AcDbEntity
  8
0
 62
     3
100
AcDbMText
 10
214.4207416115786
 20
210.5137302138454
 30
0.0
 40
3.0
 41
0.0
 71
     5
 72
     1
  1
\A1;32
1001
ACAD
1000
MTEXTBEGIN
1070
    73
1070
     1
1070
    44
1040
1.0
1070
    74
1070
     0
1000
MTEXTEND
1000
MTEXTBEGIN
1070
    73
1070
     1
1070
    44
1040
1.0
1070
    74
1070
     0
1000
MTEXTEND
  0
POINT
  5
3AB
330
3A4
100
AcDbEntity
  8
DEFPOINTS
 62
     0
100
AcDbPoint
 10
198.4207416115785
 20
279.0192834254634
 30
0.0
  0
POINT
  5
3AC
330
3A4
100
AcDbEntity
  8
DEFPOINTS
 62
     0
100
AcDbPoint
 10
230.4207416115786
 20
224.5192834254635
 30
0.0
  0
POINT
  5
3AD
330
3A4
100
AcDbEntity
  8
DEFPOINTS
 62
     0
100
AcDbPoint
 10
230.4207416115786
 20
208.0137302138454
 30
0.0
  0
ENDBLK
  5
3AF
330
3A4
100
AcDbEntity
  8
0
100
AcDbBlockEnd
  0
BLOCK
  5
3B9
330
3B0
100
AcDbEntity
  8
0
100
AcDbBlockBegin
  2
*D2
 70
     1
 10
0.0
 20
0.0
 30
0.0
  3
*D2
  1

  0
LINE
  5
549
330
3B0
100
AcDbEntity
  8
0
 62
   123
100
AcDbLine
 10
2.773263901547349
 20
5.544916797757895
 30
0.0
 11
0.8362576585000532
 21
3.964408393985298
 31
0.0
  0
LINE
  5
54A
330
3B0
100
AcDbEntity
  8
0
 62
   123
100
AcDbLine
 10
87.22673609841704
 20
74.45508320224927
 30
0.0
 11
110.2429601999339
 21
93.23526821514423
 31
0.0
  0
LINE
  5
54B
330
3B0
100
AcDbEntity
  8
0
 62
   123
100
AcDbLine
 10
4.710270144594644
 20
7.12542520153049
 30
0.0
 11
85.28972985536972
 21
72.8745747984767
 31
0.0
  0
SOLID
  5
54C
330
3B0
100
AcDbEntity
  8
0
 62
   123
100
AcDbTrace
 10
2.509845834251916
 20
5.867751171599111
 30
0.0
 11
3.036681968842781
 21
5.222082423916678
 31
0.0
 12
4.710270144594644
 22
7.12542520153049
 32
0.0
 13
4.710270144594644
 23
7.12542520153049
 33
0.0
  0
SOLID
  5
54D
330
3B0
100
AcDbEntity
  8
0
 62
   123
100
AcDbTrace
 10
86.96331803112157
 20
74.77791757609051
 30
0.0
 11
87.49015416571245
 21
74.13224882840808
 31
0.0
 12
85.28972985536972
 22
72.8745747984767
 32
0.0
 13
85.28972985536972
 23
72.8745747984767
 33
0.0
  0
MTEXT
  5
54E
330
3B0
100
AcDbEntity
  8
0
 62
     3
100
AcDbMText
 10
99.64153700711245
 20
87.81162103490776
 30
0.0
 40
3.0
 41
0.0
 71
     5
 72
     1
  1
\A1;\U+2205104%%P0.5
 11
0.7748024972189184
 21
0.6322033615090385
 31
0.0
1001
ACAD
1000
MTEXTBEGIN
1070
    73
1070
     1
1070
    44
1040
1.0
1070
    74
1070
     0
1000
MTEXTEND
1000
MTEXTBEGIN
1070
    73
1070
     1
1070
    44
1040
1.0
1070
    74
1070
     0
1000
MTEXTEND
  0
POINT
  5
54F
330
3B0
100
AcDbEntity
  8
DEFPOINTS
 62
     0
100
AcDbPoint
 10
85.28972985536972
 20
72.8745747984767
 30
0.0
  0
POINT
  5
550
330
3B0
100
AcDbEntity
  8
DEFPOINTS
 62
     0
100
AcDbPoint
 10
4.710270144594644
 20
7.12542520153049
 30
0.0
  0
ENDBLK
  5
3BA
330
3B0
100
AcDbEntity
  8
0
100
AcDbBlockEnd
  0
BLOCK
  5
3C5
330
3BB
100
AcDbEntity
  8
0
100
AcDbBlockBegin
  2
*D3
 70
     1
 10
0.0
 20
0.0
 30
0.0
  3
*D3
  1

  0
LINE
  5
3BC
330
3BB
100
AcDbEntity
  8
0
 62
   123
100
AcDbLine
 10
0.0000000000000001
 20
80.95670167938669
 30
0.0
 11
0.0000000000000011
 21
98.07852234528818
 31
0.0
  0
LINE
  5
3BD
330
3BB
100
AcDbEntity
  8
0
 62
   123
100
AcDbLine
 10
90.0
 20
80.95670167938669
 30
0.0
 11
90.0
 21
98.07852234528818
 31
0.0
  0
LINE
  5
3BE
330
3BB
100
AcDbEntity
  8
0
 62
   123
100
AcDbLine
 10
2.5
 20
97.47852234528821
 30
0.0
 11
87.5
 21
97.47852234528821
 31
0.0
  0
SOLID
  5
3BF
330
3BB
100
AcDbEntity
  8
0
 62
   123
100
AcDbTrace
 10
2.5
 20
97.89518901195485
 30
0.0
 11
2.5
 21
97.06185567862153
 31
0.0
 12
0.0000000000000011
 22
97.47852234528821
 32
0.0
 13
0.0000000000000011
 23
97.47852234528821
 33
0.0
  0
SOLID
  5
3C0
330
3BB
100
AcDbEntity
  8
0
 62
   123
100
AcDbTrace
 10
87.5
 20
97.89518901195485
 30
0.0
 11
87.5
 21
97.06185567862153
 31
0.0
 12
90.0
 22
97.47852234528821
 32
0.0
 13
90.0
 23
97.47852234528821
 33
0.0
  0
MTEXT
  5
3C1
330
3BB
100
AcDbEntity
  8
0
 62
     3
100
AcDbMText
 10
45.0
 20
99.97852234528821
 30
0.0
 40
3.0
 41
0.0
 71
     5
 72
     1
  1
\A1;90
1001
ACAD
1000
MTEXTBEGIN
1070
    73
1070
     1
1070
    44
1040
1.0
1070
    74
1070
     0
1000
MTEXTEND
1000
MTEXTBEGIN
1070
    73
1070
     1
1070
    44
1040
1.0
1070
    74
1070
     0
1000
MTEXTEND
  0
POINT
  5
3C2
330
3BB
100
AcDbEntity
  8
DEFPOINTS
 62
     0
100
AcDbPoint
 10
0.0
 20
79.95670167938669
 30
0.0
  0
POINT
  5
3C3
330
3BB
100
AcDbEntity
  8
DEFPOINTS
 62
     0
100
AcDbPoint
 10
90.0
 20
79.95670167938669
 30
0.0
  0
POINT
  5
3C4
330
3BB
100
AcDbEntity
  8
DEFPOINTS
 62
     0
100
AcDbPoint
 10
90.0
 20
97.47852234528821
 30
0.0
  0
ENDBLK
  5
3C6
330
3BB
100
AcDbEntity
  8
0
100
AcDbBlockEnd
  0
BLOCK
  5
3D1
330
3C7
100
AcDbEntity
  8
0
100
AcDbBlockBegin
  2
*D4
 70
     1
 10
0.0
 20
0.0
 30
0.0
  3
*D4
  1

  0
LINE
  5
3C8
330
3C7
100
AcDbEntity
  8
0
 62
   123
100
AcDbLine
 10
226.3899867331637
 20
101.120892317583
 30
0.0
 11
226.3899867331637
 21
112.0436624217328
 31
0.0
  0
LINE
  5
3C9
330
3C7
100
AcDbEntity
  8
0
 62
   123
100
AcDbLine
 10
331.3899867331638
 20
83.02089231758328
 30
0.0
 11
331.3899867331638
 21
112.0436624217328
 31
0.0
  0
LINE
  5
3CA
330
3C7
100
AcDbEntity
  8
0
 62
   123
100
AcDbLine
 10
228.8899867331637
 20
111.4436624217327
 30
0.0
 11
328.8899867331638
 21
111.4436624217327
 31
0.0
  0
SOLID
  5
3CB
330
3C7
100
AcDbEntity
  8
0
 62
   123
100
AcDbTrace
 10
228.8899867331637
 20
111.8603290883994
 30
0.0
 11
228.8899867331637
 21
111.026995755066
 31
0.0
 12
226.3899867331637
 22
111.4436624217327
 32
0.0
 13
226.3899867331637
 23
111.4436624217327
 33
0.0
  0
SOLID
  5
3CC
330
3C7
100
AcDbEntity
  8
0
 62
   123
100
AcDbTrace
 10
328.8899867331638
 20
111.8603290883994
 30
0.0
 11
328.8899867331638
 21
111.026995755066
 31
0.0
 12
331.3899867331638
 22
111.4436624217327
 32
0.0
 13
331.3899867331638
 23
111.4436624217327
 33
0.0
  0
MTEXT
  5
3CD
330
3C7
100
AcDbEntity
  8
0
 62
     3
100
AcDbMText
 10
278.8899867331638
 20
113.9436624217327
 30
0.0
 40
3.0
 41
0.0
 71
     5
 72
     1
  1
\A1;105
1001
ACAD
1000
MTEXTBEGIN
1070
    73
1070
     1
1070
    44
1040
1.0
1070
    74
1070
     0
1000
MTEXTEND
1000
MTEXTBEGIN
1070
    73
1070
     1
1070
    44
1040
1.0
1070
    74
1070
     0
1000
MTEXTEND
  0
POINT
  5
3CE
330
3C7
100
AcDbEntity
  8
DEFPOINTS
 62
     0
100
AcDbPoint
 10
226.3899867331637
 20
100.120892317583
 30
0.0
  0
POINT
  5
3CF
330
3C7
100
AcDbEntity
  8
DEFPOINTS
 62
     0
100
AcDbPoint
 10
331.3899867331638
 20
82.02089231758327
 30
0.0
  0
POINT
  5
3D0
330
3C7
100
AcDbEntity
  8
DEFPOINTS
 62
     0
100
AcDbPoint
 10
331.3899867331638
 20
111.4436624217327
 30
0.0
  0
ENDBLK
  5
3D2
330
3C7
100
AcDbEntity
  8
0
100
AcDbBlockEnd
  0
BLOCK
  5
3DD
330
3D3
100
AcDbEntity
  8
0
100
AcDbBlockBegin
  2
*D5
 70
     1
 10
0.0
 20
0.0
 30
0.0
  3
*D5
  1

  0
LINE
  5
3D4
330
3D3
100
AcDbEntity
  8
0
 62
   123
100
AcDbLine
 10
226.3899867331637
 20
86.02089231758327
 30
0.0
 11
226.3899867331637
 21
99.63227736965846
 31
0.0
  0
LINE
  5
3D5
330
3D3
100
AcDbEntity
  8
0
 62
   123
100
AcDbLine
 10
233.8899867331638
 20
84.61962965911196
 30
0.0
 11
233.8899867331638
 21
99.63227736965846
 31
0.0
  0
LINE
  5
3D6
330
3D3
100
AcDbEntity
  8
0
 62
   123
100
AcDbLine
 10
228.8899867331637
 20
99.03227736965844
 30
0.0
 11
231.3899867331638
 21
99.03227736965844
 31
0.0
  0
SOLID
  5
3D7
330
3D3
100
AcDbEntity
  8
0
 62
   123
100
AcDbTrace
 10
228.8899867331637
 20
99.44894403632513
 30
0.0
 11
228.8899867331637
 21
98.61561070299179
 31
0.0
 12
226.3899867331637
 22
99.03227736965844
 32
0.0
 13
226.3899867331637
 23
99.03227736965844
 33
0.0
  0
SOLID
  5
3D8
330
3D3
100
AcDbEntity
  8
0
 62
   123
100
AcDbTrace
 10
231.3899867331638
 20
99.44894403632513
 30
0.0
 11
231.3899867331638
 21
98.61561070299179
 31
0.0
 12
233.8899867331638
 22
99.03227736965844
 32
0.0
 13
233.8899867331638
 23
99.03227736965844
 33
0.0
  0
MTEXT
  5
3D9
330
3D3
100
AcDbEntity
  8
0
 62
     3
100
AcDbMText
 10
230.1399867331638
 20
101.5322773696584
 30
0.0
 40
3.0
 41
0.0
 71
     5
 72
     1
  1
\A1;7.5
1001
ACAD
1000
MTEXTBEGIN
1070
    73
1070
     1
1070
    44
1040
1.0
1070
    74
1070
     0
1000
MTEXTEND
1000
MTEXTBEGIN
1070
    73
1070
     1
1070
    44
1040
1.0
1070
    74
1070
     0
1000
MTEXTEND
  0
POINT
  5
3DA
330
3D3
100
AcDbEntity
  8
DEFPOINTS
 62
     0
100
AcDbPoint
 10
226.3899867331637
 20
85.02089231758326
 30
0.0
  0
POINT
  5
3DB
330
3D3
100
AcDbEntity
  8
DEFPOINTS
 62
     0
100
AcDbPoint
 10
233.8899867331638
 20
83.619629659112
 30
0.0
  0
POINT
  5
3DC
330
3D3
100
AcDbEntity
  8
DEFPOINTS
 62
     0
100
AcDbPoint
 10
233.8899867331638
 20
99.03227736965844
 30
0.0
  0
ENDBLK
  5
3DE
330
3D3
100
AcDbEntity
  8
0
100
AcDbBlockEnd
  0
BLOCK
  5
3EB
330
3DF
100
AcDbEntity
  8
0
100
AcDbBlockBegin
  2
*D6
 70
     1
 10
0.0
 20
0.0
 30
0.0
  3
*D6
  1

  0
LINE
  5
53E
330
3DF
100
AcDbEntity
  8
0
 62
   123
100
AcDbLine
 10
151.3899867331638
 20
52.02089231758328
 30
0.0
 11
137.2216259024884
 21
52.02089231758328
 31
0.0
  0
LINE
  5
53F
330
3DF
100
AcDbEntity
  8
0
 62
   123
100
AcDbLine
 10
151.3899867331638
 20
64.02089231758329
 30
0.0
 11
137.2216259024884
 21
64.02089231758329
 31
0.0
  0
LINE
  5
540
330
3DF
100
AcDbEntity
  8
0
 62
   123
100
AcDbLine
 10
137.8216259024883
 20
49.52089231758328
 30
0.0
 11
137.8216259024883
 21
47.02089231758328
 31
0.0
  0
LINE
  5
541
330
3DF
100
AcDbEntity
  8
0
 62
   123
100
AcDbLine
 10
137.8216259024883
 20
66.52089231758329
 30
0.0
 11
137.8216259024883
 21
106.7538973519491
 31
0.0
  0
LINE
  5
542
330
3DF
100
AcDbEntity
  8
0
 62
   123
100
AcDbLine
 10
137.8216259024883
 20
52.02089231758328
 30
0.0
 11
137.8216259024883
 21
64.02089231758329
 31
0.0
  0
SOLID
  5
543
330
3DF
100
AcDbEntity
  8
0
 62
   123
100
AcDbTrace
 10
137.4049592358216
 20
49.52089231758328
 30
0.0
 11
138.2382925691551
 21
49.52089231758328
 31
0.0
 12
137.8216259024883
 22
52.02089231758328
 32
0.0
 13
137.8216259024883
 23
52.02089231758328
 33
0.0
  0
SOLID
  5
544
330
3DF
100
AcDbEntity
  8
0
 62
   123
100
AcDbTrace
 10
137.4049592358217
 20
66.52089231758329
 30
0.0
 11
138.2382925691551
 21
66.52089231758329
 31
0.0
 12
137.8216259024883
 22
64.02089231758329
 32
0.0
 13
137.8216259024883
 23
64.02089231758329
 33
0.0
  0
MTEXT
  5
545
330
3DF
100
AcDbEntity
  8
0
 62
     3
100
AcDbMText
 10
133.8714759024884
 20
91.93832592337775
 30
0.0
 40
3.0
 41
0.0
 71
     5
 72
     1
  1
\A1;\A1;{\F;%%C12\H0.7x;\S+0^ -0.018;\H1.429x;(h7)}
 11
0.0000000000000001
 21
1.0
 31
0.0
1001
ACAD
1000
MTEXTBEGIN
1070
    73
1070
     1
1070
    44
1040
1.0
1070
    74
1070
     0
1000
MTEXTEND
1000
MTEXTBEGIN
1070
    73
1070
     1
1070
    44
1040
1.0
1070
    74
1070
     0
1000
MTEXTEND
  0
POINT
  5
546
330
3DF
100
AcDbEntity
  8
DEFPOINTS
 62
     0
100
AcDbPoint
 10
152.3899867331638
 20
52.02089231758328
 30
0.0
  0
POINT
  5
547
330
3DF
100
AcDbEntity
  8
DEFPOINTS
 62
     0
100
AcDbPoint
 10
152.3899867331638
 20
64.02089231758329
 30
0.0
  0
POINT
  5
548
330
3DF
100
AcDbEntity
  8
DEFPOINTS
 62
     0
100
AcDbPoint
 10
137.8216259024883
 20
64.02089231758329
 30
0.0
  0
ENDBLK
  5
3EC
330
3DF
100
AcDbEntity
  8
0
100
AcDbBlockEnd
  0
BLOCK
  5
3F9
330
3ED
100
AcDbEntity
  8
0
100
AcDbBlockBegin
  2
*D7
 70
     1
 10
0.0
 20
0.0
 30
0.0
  3
*D7
  1

  0
LINE
  5
3EE
330
3ED
100
AcDbEntity
  8
0
 62
   123
100
AcDbLine
 10
184.3899867331638
 20
86.02089231758327
 30
0.0
 11
184.3899867331638
 21
99.63227736965846
 31
0.0
  0
LINE
  5
3EF
330
3ED
100
AcDbEntity
  8
0
 62
   123
100
AcDbLine
 10
181.3899867331637
 20
76.16733892698994
 30
0.0
 11
181.3899867331637
 21
99.63227736965846
 31
0.0
  0
LINE
  5
3F0
330
3ED
100
AcDbEntity
  8
0
 62
   123
100
AcDbLine
 10
186.8899867331638
 20
99.03227736965844
 30
0.0
 11
189.3899867331638
 21
99.03227736965844
 31
0.0
  0
LINE
  5
3F1
330
3ED
100
AcDbEntity
  8
0
 62
   123
100
AcDbLine
 10
178.8899867331638
 20
99.03227736965844
 30
0.0
 11
176.3899867331637
 21
99.03227736965844
 31
0.0
  0
LINE
  5
3F2
330
3ED
100
AcDbEntity
  8
0
 62
   123
100
AcDbLine
 10
184.3899867331638
 20
99.03227736965844
 30
0.0
 11
181.3899867331637
 21
99.03227736965844
 31
0.0
  0
SOLID
  5
3F3
330
3ED
100
AcDbEntity
  8
0
 62
   123
100
AcDbTrace
 10
186.8899867331638
 20
99.44894403632513
 30
0.0
 11
186.8899867331638
 21
98.61561070299179
 31
0.0
 12
184.3899867331638
 22
99.03227736965844
 32
0.0
 13
184.3899867331638
 23
99.03227736965844
 33
0.0
  0
SOLID
  5
3F4
330
3ED
100
AcDbEntity
  8
0
 62
   123
100
AcDbTrace
 10
178.8899867331638
 20
99.44894403632513
 30
0.0
 11
178.8899867331638
 21
98.61561070299179
 31
0.0
 12
181.3899867331637
 22
99.03227736965844
 32
0.0
 13
181.3899867331637
 23
99.03227736965844
 33
0.0
  0
MTEXT
  5
3F5
330
3ED
100
AcDbEntity
  8
0
 62
     3
100
AcDbMText
 10
182.8899867331637
 20
101.5322773696584
 30
0.0
 40
3.0
 41
0.0
 71
     5
 72
     1
  1
\A1;3
1001
ACAD
1000
MTEXTBEGIN
1070
    73
1070
     1
1070
    44
1040
1.0
1070
    74
1070
     0
1000
MTEXTEND
1000
MTEXTBEGIN
1070
    73
1070
     1
1070
    44
1040
1.0
1070
    74
1070
     0
1000
MTEXTEND
  0
POINT
  5
3F6
330
3ED
100
AcDbEntity
  8
DEFPOINTS
 62
     0
100
AcDbPoint
 10
184.3899867331638
 20
85.02089231758326
 30
0.0
  0
POINT
  5
3F7
330
3ED
100
AcDbEntity
  8
DEFPOINTS
 62
     0
100
AcDbPoint
 10
181.3899867331637
 20
75.16733892698994
 30
0.0
  0
POINT
  5
3F8
330
3ED
100
AcDbEntity
  8
DEFPOINTS
 62
     0
100
AcDbPoint
 10
181.3899867331637
 20
99.03227736965844
 30
0.0
  0
ENDBLK
  5
3FA
330
3ED
100
AcDbEntity
  8
0
100
AcDbBlockEnd
  0
BLOCK
  5
405
330
3FB
100
AcDbEntity
  8
0
100
AcDbBlockBegin
  2
*D8
 70
     1
 10
0.0
 20
0.0
 30
0.0
  3
*D8
  1

  0
LINE
  5
3FC
330
3FB
100
AcDbEntity
  8
0
 62
   123
100
AcDbLine
 10
152.3899867331638
 20
65.02089231758327
 30
0.0
 11
152.3899867331638
 21
112.0436624217328
 31
0.0
  0
LINE
  5
3FD
330
3FB
100
AcDbEntity
  8
0
 62
   123
100
AcDbLine
 10
184.3899867331638
 20
86.62585627203634
 30
0.0
 11
184.3899867331638
 21
112.0436624217328
 31
0.0
  0
LINE
  5
3FE
330
3FB
100
AcDbEntity
  8
0
 62
   123
100
AcDbLine
 10
154.8899867331638
 20
111.4436624217327
 30
0.0
 11
181.8899867331637
 21
111.4436624217327
 31
0.0
  0
SOLID
  5
3FF
330
3FB
100
AcDbEntity
  8
0
 62
   123
100
AcDbTrace
 10
154.8899867331638
 20
111.8603290883994
 30
0.0
 11
154.8899867331638
 21
111.026995755066
 31
0.0
 12
152.3899867331638
 22
111.4436624217327
 32
0.0
 13
152.3899867331638
 23
111.4436624217327
 33
0.0
  0
SOLID
  5
400
330
3FB
100
AcDbEntity
  8
0
 62
   123
100
AcDbTrace
 10
181.8899867331637
 20
111.8603290883994
 30
0.0
 11
181.8899867331637
 21
111.026995755066
 31
0.0
 12
184.3899867331638
 22
111.4436624217327
 32
0.0
 13
184.3899867331638
 23
111.4436624217327
 33
0.0
  0
MTEXT
  5
401
330
3FB
100
AcDbEntity
  8
0
 62
     3
100
AcDbMText
 10
168.3899867331638
 20
113.9436624217327
 30
0.0
 40
3.0
 41
0.0
 71
     5
 72
     1
  1
\A1;32
1001
ACAD
1000
MTEXTBEGIN
1070
    73
1070
     1
1070
    44
1040
1.0
1070
    74
1070
     0
1000
MTEXTEND
1000
MTEXTBEGIN
1070
    73
1070
     1
1070
    44
1040
1.0
1070
    74
1070
     0
1000
MTEXTEND
  0
POINT
  5
402
330
3FB
100
AcDbEntity
  8
DEFPOINTS
 62
     0
100
AcDbPoint
 10
152.3899867331638
 20
64.02089231758329
 30
0.0
  0
POINT
  5
403
330
3FB
100
AcDbEntity
  8
DEFPOINTS
 62
     0
100
AcDbPoint
 10
184.3899867331638
 20
85.62585627203635
 30
0.0
  0
POINT
  5
404
330
3FB
100
AcDbEntity
  8
DEFPOINTS
 62
     0
100
AcDbPoint
 10
184.3899867331638
 20
111.4436624217327
 30
0.0
  0
ENDBLK
  5
406
330
3FB
100
AcDbEntity
  8
0
100
AcDbBlockEnd
  0
BLOCK
  5
411
330
407
100
AcDbEntity
  8
0
100
AcDbBlockBegin
  2
*D9
 70
     1
 10
0.0
 20
0.0
 30
0.0
  3
*D9
  1

  0
LINE
  5
408
330
407
100
AcDbEntity
  8
0
 62
   123
100
AcDbLine
 10
226.3899867331637
 20
86.02089231758327
 30
0.0
 11
226.3899867331637
 21
112.0436624217328
 31
0.0
  0
LINE
  5
409
330
407
100
AcDbEntity
  8
0
 62
   123
100
AcDbLine
 10
184.3899867331638
 20
86.02089231758327
 30
0.0
 11
184.3899867331638
 21
112.0436624217328
 31
0.0
  0
LINE
  5
40A
330
407
100
AcDbEntity
  8
0
 62
   123
100
AcDbLine
 10
223.8899867331638
 20
111.4436624217327
 30
0.0
 11
186.8899867331638
 21
111.4436624217327
 31
0.0
  0
SOLID
  5
40B
330
407
100
AcDbEntity
  8
0
 62
   123
100
AcDbTrace
 10
223.8899867331638
 20
111.8603290883994
 30
0.0
 11
223.8899867331638
 21
111.026995755066
 31
0.0
 12
226.3899867331637
 22
111.4436624217327
 32
0.0
 13
226.3899867331637
 23
111.4436624217327
 33
0.0
  0
SOLID
  5
40C
330
407
100
AcDbEntity
  8
0
 62
   123
100
AcDbTrace
 10
186.8899867331638
 20
111.8603290883994
 30
0.0
 11
186.8899867331638
 21
111.026995755066
 31
0.0
 12
184.3899867331638
 22
111.4436624217327
 32
0.0
 13
184.3899867331638
 23
111.4436624217327
 33
0.0
  0
MTEXT
  5
40D
330
407
100
AcDbEntity
  8
0
 62
     3
100
AcDbMText
 10
204.3899867331638
 20
113.9436624217327
 30
0.0
 40
3.0
 41
0.0
 71
     5
 72
     1
  1
\A1;L
1001
ACAD
1000
MTEXTBEGIN
1070
    73
1070
     1
1070
    44
1040
1.0
1070
    74
1070
     0
1000
MTEXTEND
1000
MTEXTBEGIN
1070
    73
1070
     1
1070
    44
1040
1.0
1070
    74
1070
     0
1000
MTEXTEND
  0
POINT
  5
40E
330
407
100
AcDbEntity
  8
DEFPOINTS
 62
     0
100
AcDbPoint
 10
226.3899867331637
 20
85.02089231758326
 30
0.0
  0
POINT
  5
40F
330
407
100
AcDbEntity
  8
DEFPOINTS
 62
     0
100
AcDbPoint
 10
184.3899867331638
 20
85.02089231758326
 30
0.0
  0
POINT
  5
410
330
407
100
AcDbEntity
  8
DEFPOINTS
 62
     0
100
AcDbPoint
 10
184.3899867331638
 20
111.4436624217327
 30
0.0
  0
ENDBLK
  5
412
330
407
100
AcDbEntity
  8
0
100
AcDbBlockEnd
  0
BLOCK
  5
41D
330
413
100
AcDbEntity
  8
0
100
AcDbBlockBegin
  2
*D10
 70
     1
 10
0.0
 20
0.0
 30
0.0
  3
*D10
  1

  0
LINE
  5
414
330
413
100
AcDbEntity
  8
0
 62
   123
100
AcDbLine
 10
177.3899867331637
 20
65.02089231758327
 30
0.0
 11
177.3899867331637
 21
81.49671218013834
 31
0.0
  0
LINE
  5
415
330
413
100
AcDbEntity
  8
0
 62
   123
100
AcDbLine
 10
152.3899867331638
 20
64.02089231758329
 30
0.0
 11
152.3899867331638
 21
81.49671218013834
 31
0.0
  0
LINE
  5
416
330
413
100
AcDbEntity
  8
0
 62
   123
100
AcDbLine
 10
174.8899867331638
 20
80.89671218013839
 30
0.0
 11
154.8899867331638
 21
80.89671218013839
 31
0.0
  0
SOLID
  5
417
330
413
100
AcDbEntity
  8
0
 62
   123
100
AcDbTrace
 10
174.8899867331638
 20
81.31337884680503
 30
0.0
 11
174.8899867331638
 21
80.48004551347169
 31
0.0
 12
177.3899867331637
 22
80.89671218013839
 32
0.0
 13
177.3899867331637
 23
80.89671218013839
 33
0.0
  0
SOLID
  5
418
330
413
100
AcDbEntity
  8
0
 62
   123
100
AcDbTrace
 10
154.8899867331638
 20
81.31337884680503
 30
0.0
 11
154.8899867331638
 21
80.48004551347169
 31
0.0
 12
152.3899867331638
 22
80.89671218013839
 32
0.0
 13
152.3899867331638
 23
80.89671218013839
 33
0.0
  0
MTEXT
  5
419
330
413
100
AcDbEntity
  8
0
 62
     3
100
AcDbMText
 10
164.8899867331638
 20
83.39671218013839
 30
0.0
 40
3.0
 41
0.0
 71
     5
 72
     1
  1
\A1;25
1001
ACAD
1000
MTEXTBEGIN
1070
    73
1070
     1
1070
    44
1040
1.0
1070
    74
1070
     0
1000
MTEXTEND
1000
MTEXTBEGIN
1070
    73
1070
     1
1070
    44
1040
1.0
1070
    74
1070
     0
1000
MTEXTEND
  0
POINT
  5
41A
330
413
100
AcDbEntity
  8
DEFPOINTS
 62
     0
100
AcDbPoint
 10
177.3899867331637
 20
64.02089231758329
 30
0.0
  0
POINT
  5
41B
330
413
100
AcDbEntity
  8
DEFPOINTS
 62
     0
100
AcDbPoint
 10
152.3899867331638
 20
63.02089231758327
 30
0.0
  0
POINT
  5
41C
330
413
100
AcDbEntity
  8
DEFPOINTS
 62
     0
100
AcDbPoint
 10
152.3899867331638
 20
80.89671218013839
 30
0.0
  0
ENDBLK
  5
41E
330
413
100
AcDbEntity
  8
0
100
AcDbBlockEnd
  0
BLOCK
  5
429
330
41F
100
AcDbEntity
  8
0
100
AcDbBlockBegin
  2
*D11
 70
     1
 10
0.0
 20
0.0
 30
0.0
  3
*D11
  1

  0
LINE
  5
420
330
41F
100
AcDbEntity
  8
0
 62
   123
100
AcDbLine
 10
180.8899867331637
 20
76.02089231758189
 30
0.0
 11
114.7711794720475
 21
76.02089231758192
 31
0.0
  0
LINE
  5
421
330
41F
100
AcDbEntity
  8
0
 62
   123
100
AcDbLine
 10
139.7823135990655
 20
40.0208923175819
 30
0.0
 11
114.7711794720475
 21
40.0208923175819
 31
0.0
  0
LINE
  5
422
330
41F
100
AcDbEntity
  8
0
 62
   123
100
AcDbLine
 10
115.3711794720475
 20
73.52089231758192
 30
0.0
 11
115.3711794720475
 21
42.5208923175819
 31
0.0
  0
SOLID
  5
423
330
41F
100
AcDbEntity
  8
0
 62
   123
100
AcDbTrace
 10
114.9545128053808
 20
73.52089231758192
 30
0.0
 11
115.7878461387142
 21
73.52089231758192
 31
0.0
 12
115.3711794720475
 22
76.02089231758192
 32
0.0
 13
115.3711794720475
 23
76.02089231758192
 33
0.0
  0
SOLID
  5
424
330
41F
100
AcDbEntity
  8
0
 62
   123
100
AcDbTrace
 10
114.9545128053808
 20
42.5208923175819
 30
0.0
 11
115.7878461387142
 21
42.5208923175819
 31
0.0
 12
115.3711794720475
 22
40.0208923175819
 32
0.0
 13
115.3711794720475
 23
40.0208923175819
 33
0.0
  0
MTEXT
  5
425
330
41F
100
AcDbEntity
  8
0
 62
     3
100
AcDbMText
 10
112.8711794720475
 20
57.77089231758328
 30
0.0
 40
3.0
 41
0.0
 71
     5
 72
     1
  1
\A1;{\F;%%C}36
 11
0.0000000000000001
 21
1.0
 31
0.0
1001
ACAD
1000
MTEXTBEGIN
1070
    73
1070
     1
1070
    44
1040
1.0
1070
    74
1070
     0
1000
MTEXTEND
1000
MTEXTBEGIN
1070
    73
1070
     1
1070
    44
1040
1.0
1070
    74
1070
     0
1000
MTEXTEND
  0
POINT
  5
426
330
41F
100
AcDbEntity
  8
DEFPOINTS
 62
     0
100
AcDbPoint
 10
181.8899867331637
 20
76.02089231758189
 30
0.0
  0
POINT
  5
427
330
41F
100
AcDbEntity
  8
DEFPOINTS
 62
     0
100
AcDbPoint
 10
140.7823135990655
 20
40.0208923175819
 30
0.0
  0
POINT
  5
428
330
41F
100
AcDbEntity
  8
DEFPOINTS
 62
     0
100
AcDbPoint
 10
115.3711794720475
 20
40.0208923175819
 30
0.0
  0
ENDBLK
  5
42A
330
41F
100
AcDbEntity
  8
0
100
AcDbBlockEnd
  0
BLOCK
  5
435
330
42B
100
AcDbEntity
  8
0
100
AcDbBlockBegin
  2
*D12
 70
     1
 10
0.0
 20
0.0
 30
0.0
  3
*D12
  1

  0
LINE
  5
42C
330
42B
100
AcDbEntity
  8
0
 62
   123
100
AcDbLine
 10
147.4918479319384
 20
58.0208923175819
 30
0.0
 11
125.6767465355572
 21
58.0208923175819
 31
0.0
  0
LINE
  5
42D
330
42B
100
AcDbEntity
  8
0
 62
   123
100
AcDbLine
 10
139.7823135990655
 20
40.0208923175819
 30
0.0
 11
125.6767465355572
 21
40.0208923175819
 31
0.0
  0
LINE
  5
42E
330
42B
100
AcDbEntity
  8
0
 62
   123
100
AcDbLine
 10
126.2767465355572
 20
55.5208923175819
 30
0.0
 11
126.2767465355572
 21
42.5208923175819
 31
0.0
  0
SOLID
  5
42F
330
42B
100
AcDbEntity
  8
0
 62
   123
100
AcDbTrace
 10
125.8600798688906
 20
55.5208923175819
 30
0.0
 11
126.693413202224
 21
55.5208923175819
 31
0.0
 12
126.2767465355572
 22
58.0208923175819
 32
0.0
 13
126.2767465355572
 23
58.0208923175819
 33
0.0
  0
SOLID
  5
430
330
42B
100
AcDbEntity
  8
0
 62
   123
100
AcDbTrace
 10
125.8600798688906
 20
42.5208923175819
 30
0.0
 11
126.693413202224
 21
42.5208923175819
 31
0.0
 12
126.2767465355572
 22
40.0208923175819
 32
0.0
 13
126.2767465355572
 23
40.0208923175819
 33
0.0
  0
MTEXT
  5
431
330
42B
100
AcDbEntity
  8
0
 62
     3
100
AcDbMText
 10
123.7767465355573
 20
49.02089231758193
 30
0.0
 40
3.0
 41
0.0
 71
     5
 72
     1
  1
\A1;18
 11
0.0000000000000001
 21
1.0
 31
0.0
1001
ACAD
1000
MTEXTBEGIN
1070
    73
1070
     1
1070
    44
1040
1.0
1070
    74
1070
     0
1000
MTEXTEND
1000
MTEXTBEGIN
1070
    73
1070
     1
1070
    44
1040
1.0
1070
    74
1070
     0
1000
MTEXTEND
  0
POINT
  5
432
330
42B
100
AcDbEntity
  8
DEFPOINTS
 62
     0
100
AcDbPoint
 10
148.4918479319385
 20
58.0208923175819
 30
0.0
  0
POINT
  5
433
330
42B
100
AcDbEntity
  8
DEFPOINTS
 62
     0
100
AcDbPoint
 10
140.7823135990655
 20
40.0208923175819
 30
0.0
  0
POINT
  5
434
330
42B
100
AcDbEntity
  8
DEFPOINTS
 62
     0
100
AcDbPoint
 10
126.2767465355572
 20
40.0208923175819
 30
0.0
  0
ENDBLK
  5
436
330
42B
100
AcDbEntity
  8
0
100
AcDbBlockEnd
  0
BLOCK
  5
443
330
437
100
AcDbEntity
  8
0
100
AcDbBlockBegin
  2
*D13
 70
     1
 10
0.0
 20
0.0
 30
0.0
  3
*D13
  1

  0
LINE
  5
58B
330
437
100
AcDbEntity
  8
0
 62
   123
100
AcDbLine
 10
45.00000623843472
 20
-13.1485150803497
 30
0.0
 11
45.00008756858689
 21
-26.18546356350167
 31
0.0
  0
LINE
  5
58C
330
437
100
AcDbEntity
  8
0
 62
   123
100
AcDbLine
 10
64.01721606207887
 20
-5.924415903367933
 30
0.0
 11
70.32220800570735
 21
-21.14959267414425
 31
0.0
  0
ARC
  5
58D
330
437
100
AcDbEntity
  8
0
 62
   123
100
AcDbCircle
 10
44.99967468245475
 20
39.998787780172
 30
0.0
 40
65.58425134496154
100
AcDbArc
 50
272.184542198678
 51
290.3110522648388
  0
SOLID
  5
58E
330
437
100
AcDbEntity
  8
0
 62
   123
100
AcDbTrace
 10
47.50757344641653
 20
-25.95439026658273
 30
0.0
 11
47.49168537060712
 21
-25.12120840558747
 31
0.0
 12
45.00008382552605
 22
-25.58546356351334
 32
0.0
 13
45.00008382552605
 23
-25.58546356351334
 33
0.0
  0
SOLID
  5
58F
330
437
100
AcDbEntity
  8
0
 62
   123
100
AcDbTrace
 10
67.61300127197497
 20
-21.11963400130802
 30
0.0
 11
67.91710784218796
 21
-21.89549715831299
 31
0.0
 12
70.0926440280964
 22
-20.59524586917155
 32
0.0
 13
70.0926440280964
 23
-20.59524586917155
 33
0.0
  0
MTEXT
  5
590
330
437
100
AcDbEntity
  8
0
 62
     3
100
AcDbMText
 10
57.30442287475871
 20
-21.8737904728657
 30
0.0
 40
3.0
 41
0.0
 71
     5
 72
     1
  1
\A1;22°
 11
0.9807927800347812
 21
0.1950526150341114
 31
0.0
  0
POINT
  5
591
330
437
100
AcDbEntity
  8
DEFPOINTS
 62
     0
100
AcDbPoint
 10
53.55860592397654
 20
-25.02458279135399
 30
0.0
  0
POINT
  5
592
330
437
100
AcDbEntity
  8
DEFPOINTS
 62
     0
100
AcDbPoint
 10
45.0
 20
-12.14851508036916
 30
0.0
  0
POINT
  5
593
330
437
100
AcDbEntity
  8
DEFPOINTS
 62
     0
100
AcDbPoint
 10
44.99938162982653
 20
39.99949543818456
 30
0.0
  0
POINT
  5
594
330
437
100
AcDbEntity
  8
DEFPOINTS
 62
     0
100
AcDbPoint
 10
63.6346094327273
 20
-5.000504561746764
 30
0.0
  0
POINT
  5
595
330
437
100
AcDbEntity
  8
DEFPOINTS
 62
     0
100
AcDbPoint
 10
44.99938162982653
 20
86.97413350729039
 30
0.0
  0
ENDBLK
  5
444
330
437
100
AcDbEntity
  8
0
100
AcDbBlockEnd
  0
BLOCK
  5
44F
330
445
100
AcDbEntity
  8
0
100
AcDbBlockBegin
  2
*D14
 70
     1
 10
0.0
 20
0.0
 30
0.0
  3
*D14
  1

  0
LINE
  5
446
330
445
100
AcDbEntity
  8
0
 62
   123
100
AcDbLine
 10
325.3899867331638
 20
84.52089231758462
 30
0.0
 11
349.3550634958496
 21
84.52089231758462
 31
0.0
  0
LINE
  5
447
330
445
100
AcDbEntity
  8
0
 62
   123
100
AcDbLine
 10
325.3899867331638
 20
-4.479107682416723
 30
0.0
 11
349.3550634958496
 21
-4.479107682416731
 31
0.0
  0
LINE
  5
448
330
445
100
AcDbEntity
  8
0
 62
   123
100
AcDbLine
 10
348.7550634958497
 20
82.02089231758462
 30
0.0
 11
348.7550634958497
 21
-1.979107682416731
 31
0.0
  0
SOLID
  5
449
330
445
100
AcDbEntity
  8
0
 62
   123
100
AcDbTrace
 10
348.3383968291829
 20
82.02089231758462
 30
0.0
 11
349.1717301625163
 21
82.02089231758462
 31
0.0
 12
348.7550634958497
 22
84.52089231758462
 32
0.0
 13
348.7550634958497
 23
84.52089231758462
 33
0.0
  0
SOLID
  5
44A
330
445
100
AcDbEntity
  8
0
 62
   123
100
AcDbTrace
 10
348.3383968291829
 20
-1.97910768241673
 30
0.0
 11
349.1717301625163
 21
-1.979107682416731
 31
0.0
 12
348.7550634958497
 22
-4.479107682416731
 32
0.0
 13
348.7550634958497
 23
-4.479107682416731
 33
0.0
  0
MTEXT
  5
44B
330
445
100
AcDbEntity
  8
0
 62
     3
100
AcDbMText
 10
346.2550634958497
 20
40.52089231758509
 30
0.0
 40
3.0
 41
0.0
 71
     5
 72
     1
  1
\A1;%%C89
 11
0.0000000000000001
 21
1.0
 31
0.0
1001
ACAD
1000
MTEXTBEGIN
1070
    73
1070
     1
1070
    44
1040
1.0
1070
    74
1070
     0
1000
MTEXTEND
1000
MTEXTBEGIN
1070
    73
1070
     1
1070
    44
1040
1.0
1070
    74
1070
     0
1000
MTEXTEND
  0
POINT
  5
44C
330
445
100
AcDbEntity
  8
DEFPOINTS
 62
     0
100
AcDbPoint
 10
324.3899867331638
 20
84.52089231758462
 30
0.0
  0
POINT
  5
44D
330
445
100
AcDbEntity
  8
DEFPOINTS
 62
     0
100
AcDbPoint
 10
324.3899867331638
 20
-4.479107682416723
 30
0.0
  0
POINT
  5
44E
330
445
100
AcDbEntity
  8
DEFPOINTS
 62
     0
100
AcDbPoint
 10
348.7550634958497
 20
-4.479107682416731
 30
0.0
  0
ENDBLK
  5
450
330
445
100
AcDbEntity
  8
0
100
AcDbBlockEnd
  0
BLOCK
  5
45D
330
451
100
AcDbEntity
  8
0
100
AcDbBlockBegin
  2
*D15
 70
     1
 10
0.0
 20
0.0
 30
0.0
  3
*D15
  1

  0
LINE
  5
452
330
451
100
AcDbEntity
  8
0
 62
   123
100
AcDbLine
 10
42.66873094801849
 20
157.0901887227255
 30
0.0
 11
50.43778610347875
 21
157.0901887227255
 31
0.0
  0
LINE
  5
453
330
451
100
AcDbEntity
  8
0
 62
   123
100
AcDbLine
 10
42.66873094801849
 20
161.0901887227255
 30
0.0
 11
50.43778610347875
 21
161.0901887227255
 31
0.0
  0
LINE
  5
454
330
451
100
AcDbEntity
  8
0
 62
   123
100
AcDbLine
 10
49.83778610347875
 20
154.5901887227255
 30
0.0
 11
49.83778610347875
 21
152.0901887227255
 31
0.0
  0
LINE
  5
455
330
451
100
AcDbEntity
  8
0
 62
   123
100
AcDbLine
 10
49.83778610347875
 20
163.5901887227255
 30
0.0
 11
49.83778610347875
 21
182.6539362311016
 31
0.0
  0
LINE
  5
456
330
451
100
AcDbEntity
  8
0
 62
   123
100
AcDbLine
 10
49.83778610347875
 20
157.0901887227255
 30
0.0
 11
49.83778610347875
 21
161.0901887227255
 31
0.0
  0
SOLID
  5
457
330
451
100
AcDbEntity
  8
0
 62
   123
100
AcDbTrace
 10
49.42111943681208
 20
154.5901887227255
 30
0.0
 11
50.2544527701454
 21
154.5901887227255
 31
0.0
 12
49.83778610347875
 22
157.0901887227255
 32
0.0
 13
49.83778610347875
 23
157.0901887227255
 33
0.0
  0
SOLID
  5
458
330
451
100
AcDbEntity
  8
0
 62
   123
100
AcDbTrace
 10
49.42111943681208
 20
163.5901887227255
 30
0.0
 11
50.2544527701454
 21
163.5901887227255
 31
0.0
 12
49.83778610347875
 22
161.0901887227255
 32
0.0
 13
49.83778610347875
 23
161.0901887227255
 33
0.0
  0
MTEXT
  5
459
330
451
100
AcDbEntity
  8
0
 62
     3
100
AcDbMText
 10
46.38778610347872
 20
175.9396505168159
 30
0.0
 40
3.0
 41
0.0
 71
     5
 72
     1
  1
\A1;\A1;4{\F;\H0.7x;\S+0^ -0.03;}
 11
0.0000000000000001
 21
1.0
 31
0.0
1001
ACAD
1000
MTEXTBEGIN
1070
    73
1070
     1
1070
    44
1040
1.0
1070
    74
1070
     0
1000
MTEXTEND
1000
MTEXTBEGIN
1070
    73
1070
     1
1070
    44
1040
1.0
1070
    74
1070
     0
1000
MTEXTEND
  0
POINT
  5
45A
330
451
100
AcDbEntity
  8
DEFPOINTS
 62
     0
100
AcDbPoint
 10
41.66873094801849
 20
157.0901887227255
 30
0.0
  0
POINT
  5
45B
330
451
100
AcDbEntity
  8
DEFPOINTS
 62
     0
100
AcDbPoint
 10
41.66873094801849
 20
161.0901887227255
 30
0.0
  0
POINT
  5
45C
330
451
100
AcDbEntity
  8
DEFPOINTS
 62
     0
100
AcDbPoint
 10
49.83778610347875
 20
161.0901887227255
 30
0.0
  0
ENDBLK
  5
45E
330
451
100
AcDbEntity
  8
0
100
AcDbBlockEnd
  0
BLOCK
  5
469
330
45F
100
AcDbEntity
  8
0
100
AcDbBlockBegin
  2
*D16
 70
     1
 10
0.0
 20
0.0
 30
0.0
  3
*D16
  1

  0
LINE
  5
460
330
45F
100
AcDbEntity
  8
0
 62
   123
100
AcDbLine
 10
16.66873094801849
 20
160.0901887227255
 30
0.0
 11
16.66873094801849
 21
169.4953827032014
 31
0.0
  0
LINE
  5
461
330
45F
100
AcDbEntity
  8
0
 62
   123
100
AcDbLine
 10
41.66873094801849
 20
162.0901887227255
 30
0.0
 11
41.66873094801849
 21
169.4953827032014
 31
0.0
  0
LINE
  5
462
330
45F
100
AcDbEntity
  8
0
 62
   123
100
AcDbLine
 10
19.16873094801848
 20
168.8953827032014
 30
0.0
 11
39.16873094801849
 21
168.8953827032014
 31
0.0
  0
SOLID
  5
463
330
45F
100
AcDbEntity
  8
0
 62
   123
100
AcDbTrace
 10
19.16873094801848
 20
169.312049369868
 30
0.0
 11
19.16873094801848
 21
168.4787160365346
 31
0.0
 12
16.66873094801849
 22
168.8953827032014
 32
0.0
 13
16.66873094801849
 23
168.8953827032014
 33
0.0
  0
SOLID
  5
464
330
45F
100
AcDbEntity
  8
0
 62
   123
100
AcDbTrace
 10
39.16873094801849
 20
169.312049369868
 30
0.0
 11
39.16873094801849
 21
168.4787160365346
 31
0.0
 12
41.66873094801849
 22
168.8953827032014
 32
0.0
 13
41.66873094801849
 23
168.8953827032014
 33
0.0
  0
MTEXT
  5
465
330
45F
100
AcDbEntity
  8
0
 62
     3
100
AcDbMText
 10
29.16873094801848
 20
171.3953827032014
 30
0.0
 40
3.0
 41
0.0
 71
     5
 72
     1
  1
\A1;25{\F;%%p0.2}
1001
ACAD
1000
MTEXTBEGIN
1070
    73
1070
     1
1070
    44
1040
1.0
1070
    74
1070
     0
1000
MTEXTEND
1000
MTEXTBEGIN
1070
    73
1070
     1
1070
    44
1040
1.0
1070
    74
1070
     0
1000
MTEXTEND
  0
POINT
  5
466
330
45F
100
AcDbEntity
  8
DEFPOINTS
 62
     0
100
AcDbPoint
 10
16.66873094801849
 20
159.0901887227255
 30
0.0
  0
POINT
  5
467
330
45F
100
AcDbEntity
  8
DEFPOINTS
 62
     0
100
AcDbPoint
 10
41.66873094801849
 20
161.0901887227255
 30
0.0
  0
POINT
  5
468
330
45F
100
AcDbEntity
  8
DEFPOINTS
 62
     0
100
AcDbPoint
 10
41.66873094801849
 20
168.8953827032014
 30
0.0
  0
ENDBLK
  5
46A
330
45F
100
AcDbEntity
  8
0
100
AcDbBlockEnd
  0
BLOCK
  5
477
330
46B
100
AcDbEntity
  8
0
100
AcDbBlockBegin
  2
*D17
 70
     1
 10
0.0
 20
0.0
 30
0.0
  3
*D17
  1

  0
LINE
  5
46C
330
46B
100
AcDbEntity
  8
0
 62
   123
100
AcDbLine
 10
108.772763975281
 20
159.9898934357288
 30
0.0
 11
123.8700964694559
 21
159.9898934357288
 31
0.0
  0
LINE
  5
46D
330
46B
100
AcDbEntity
  8
0
 62
   123
100
AcDbLine
 10
106.772763975281
 20
162.4898934357288
 30
0.0
 11
123.8700964694559
 21
162.4898934357288
 31
0.0
  0
LINE
  5
46E
330
46B
100
AcDbEntity
  8
0
 62
   123
100
AcDbLine
 10
123.2700964694559
 20
157.4898934357288
 30
0.0
 11
123.2700964694559
 21
154.9898934357288
 31
0.0
  0
LINE
  5
46F
330
46B
100
AcDbEntity
  8
0
 62
   123
100
AcDbLine
 10
123.2700964694559
 20
164.9898934357288
 30
0.0
 11
123.2700964694559
 21
186.4041791500151
 31
0.0
  0
LINE
  5
470
330
46B
100
AcDbEntity
  8
0
 62
   123
100
AcDbLine
 10
123.2700964694559
 20
159.9898934357288
 30
0.0
 11
123.2700964694559
 21
162.4898934357288
 31
0.0
  0
SOLID
  5
471
330
46B
100
AcDbEntity
  8
0
 62
   123
100
AcDbTrace
 10
122.8534298027892
 20
157.4898934357288
 30
0.0
 11
123.6867631361225
 21
157.4898934357288
 31
0.0
 12
123.2700964694559
 22
159.9898934357288
 32
0.0
 13
123.2700964694559
 23
159.9898934357288
 33
0.0
  0
SOLID
  5
472
330
46B
100
AcDbEntity
  8
0
 62
   123
100
AcDbTrace
 10
122.8534298027892
 20
164.9898934357288
 30
0.0
 11
123.6867631361225
 21
164.9898934357288
 31
0.0
 12
123.2700964694559
 22
162.4898934357288
 32
0.0
 13
123.2700964694559
 23
162.4898934357288
 33
0.0
  0
MTEXT
  5
473
330
46B
100
AcDbEntity
  8
0
 62
     3
100
AcDbMText
 10
119.8200964694557
 20
178.6970362928723
 30
0.0
 40
3.0
 41
0.0
 71
     5
 72
     1
  1
\A1;\A1;2.5{\F;\H0.7x;\S+0.1^ -0;\H1.429x; }
 11
0.0000000000000001
 21
1.0
 31
0.0
1001
ACAD
1000
MTEXTBEGIN
1070
    73
1070
     1
1070
    44
1040
1.0
1070
    74
1070
     0
1000
MTEXTEND
1000
MTEXTBEGIN
1070
    73
1070
     1
1070
    44
1040
1.0
1070
    74
1070
     0
1000
MTEXTEND
  0
POINT
  5
474
330
46B
100
AcDbEntity
  8
DEFPOINTS
 62
     0
100
AcDbPoint
 10
107.772763975281
 20
159.9898934357288
 30
0.0
  0
POINT
  5
475
330
46B
100
AcDbEntity
  8
DEFPOINTS
 62
     0
100
AcDbPoint
 10
105.772763975281
 20
162.4898934357288
 30
0.0
  0
POINT
  5
476
330
46B
100
AcDbEntity
  8
DEFPOINTS
 62
     0
100
AcDbPoint
 10
123.2700964694559
 20
162.4898934357288
 30
0.0
  0
ENDBLK
  5
478
330
46B
100
AcDbEntity
  8
0
100
AcDbBlockEnd
  0
BLOCK
  5
485
330
479
100
AcDbEntity
  8
0
100
AcDbBlockBegin
  2
*D18
 70
     1
 10
0.0
 20
0.0
 30
0.0
  3
*D18
  1

  0
LINE
  5
47A
330
479
100
AcDbEntity
  8
0
 62
   123
100
AcDbLine
 10
58.83938423472864
 20
162.0901887227255
 30
0.0
 11
58.83938423472864
 21
170.3646643813577
 31
0.0
  0
LINE
  5
47B
330
479
100
AcDbEntity
  8
0
 62
   123
100
AcDbLine
 10
62.83938423472864
 20
162.0901887227255
 30
0.0
 11
62.83938423472864
 21
170.3646643813577
 31
0.0
  0
LINE
  5
47C
330
479
100
AcDbEntity
  8
0
 62
   123
100
AcDbLine
 10
56.33938423472864
 20
169.7646643813576
 30
0.0
 11
53.83938423472864
 21
169.7646643813576
 31
0.0
  0
LINE
  5
47D
330
479
100
AcDbEntity
  8
0
 62
   123
100
AcDbLine
 10
65.33938423472864
 20
169.7646643813576
 30
0.0
 11
67.83938423472864
 21
169.7646643813576
 31
0.0
  0
LINE
  5
47E
330
479
100
AcDbEntity
  8
0
 62
   123
100
AcDbLine
 10
58.83938423472864
 20
169.7646643813576
 30
0.0
 11
62.83938423472864
 21
169.7646643813576
 31
0.0
  0
SOLID
  5
47F
330
479
100
AcDbEntity
  8
0
 62
   123
100
AcDbTrace
 10
56.33938423472864
 20
170.1813310480244
 30
0.0
 11
56.33938423472864
 21
169.347997714691
 31
0.0
 12
58.83938423472864
 22
169.7646643813576
 32
0.0
 13
58.83938423472864
 23
169.7646643813576
 33
0.0
  0
SOLID
  5
480
330
479
100
AcDbEntity
  8
0
 62
   123
100
AcDbTrace
 10
65.33938423472864
 20
170.1813310480244
 30
0.0
 11
65.33938423472864
 21
169.347997714691
 31
0.0
 12
62.83938423472864
 22
169.7646643813576
 32
0.0
 13
62.83938423472864
 23
169.7646643813576
 33
0.0
  0
MTEXT
  5
481
330
479
100
AcDbEntity
  8
0
 62
     3
100
AcDbMText
 10
60.83938423472864
 20
173.2146643813576
 30
0.0
 40
3.0
 41
0.0
 71
     5
 72
     1
  1
\A1;\A1;4{\F;\H0.7x;\S+0^ -0.03;}
1001
ACAD
1000
MTEXTBEGIN
1070
    73
1070
     1
1070
    44
1040
1.0
1070
    74
1070
     0
1000
MTEXTEND
1000
MTEXTBEGIN
1070
    73
1070
     1
1070
    44
1040
1.0
1070
    74
1070
     0
1000
MTEXTEND
  0
POINT
  5
482
330
479
100
AcDbEntity
  8
DEFPOINTS
 62
     0
100
AcDbPoint
 10
58.83938423472864
 20
161.0901887227255
 30
0.0
  0
POINT
  5
483
330
479
100
AcDbEntity
  8
DEFPOINTS
 62
     0
100
AcDbPoint
 10
62.83938423472864
 20
161.0901887227255
 30
0.0
  0
POINT
  5
484
330
479
100
AcDbEntity
  8
DEFPOINTS
 62
     0
100
AcDbPoint
 10
62.83938423472864
 20
169.7646643813576
 30
0.0
  0
ENDBLK
  5
486
330
479
100
AcDbEntity
  8
0
100
AcDbBlockEnd
  0
BLOCK
  5
493
330
487
100
AcDbEntity
  8
0
100
AcDbBlockBegin
  2
*D19
 70
     1
 10
0.0
 20
0.0
 30
0.0
  3
*D19
  1

  0
LINE
  5
488
330
487
100
AcDbEntity
  8
0
 62
   123
100
AcDbLine
 10
103.772763975281
 20
163.072469130685
 30
0.0
 11
103.772763975281
 21
171.4314816756601
 31
0.0
  0
LINE
  5
489
330
487
100
AcDbEntity
  8
0
 62
   123
100
AcDbLine
 10
107.772763975281
 20
163.072469130685
 30
0.0
 11
107.772763975281
 21
171.4314816756601
 31
0.0
  0
LINE
  5
48A
330
487
100
AcDbEntity
  8
0
 62
   123
100
AcDbLine
 10
101.272763975281
 20
170.83148167566
 30
0.0
 11
98.77276397528113
 21
170.83148167566
 31
0.0
  0
LINE
  5
48B
330
487
100
AcDbEntity
  8
0
 62
   123
100
AcDbLine
 10
110.272763975281
 20
170.83148167566
 30
0.0
 11
112.772763975281
 21
170.83148167566
 31
0.0
  0
LINE
  5
48C
330
487
100
AcDbEntity
  8
0
 62
   123
100
AcDbLine
 10
103.772763975281
 20
170.83148167566
 30
0.0
 11
107.772763975281
 21
170.83148167566
 31
0.0
  0
SOLID
  5
48D
330
487
100
AcDbEntity
  8
0
 62
   123
100
AcDbTrace
 10
101.272763975281
 20
171.2481483423268
 30
0.0
 11
101.272763975281
 21
170.4148150089934
 31
0.0
 12
103.772763975281
 22
170.83148167566
 32
0.0
 13
103.772763975281
 23
170.83148167566
 33
0.0
  0
SOLID
  5
48E
330
487
100
AcDbEntity
  8
0
 62
   123
100
AcDbTrace
 10
110.272763975281
 20
171.2481483423268
 30
0.0
 11
110.272763975281
 21
170.4148150089934
 31
0.0
 12
107.772763975281
 22
170.83148167566
 32
0.0
 13
107.772763975281
 23
170.83148167566
 33
0.0
  0
MTEXT
  5
48F
330
487
100
AcDbEntity
  8
0
 62
     3
100
AcDbMText
 10
105.772763975281
 20
174.2814816756601
 30
0.0
 40
3.0
 41
0.0
 71
     5
 72
     1
  1
\A1;\A1;4{\F;\H0.7x;\S+0.40^ -0;}
1001
ACAD
1000
MTEXTBEGIN
1070
    73
1070
     1
1070
    44
1040
1.0
1070
    74
1070
     0
1000
MTEXTEND
1000
MTEXTBEGIN
1070
    73
1070
     1
1070
    44
1040
1.0
1070
    74
1070
     0
1000
MTEXTEND
  0
POINT
  5
490
330
487
100
AcDbEntity
  8
DEFPOINTS
 62
     0
100
AcDbPoint
 10
103.772763975281
 20
162.072469130685
 30
0.0
  0
POINT
  5
491
330
487
100
AcDbEntity
  8
DEFPOINTS
 62
     0
100
AcDbPoint
 10
107.772763975281
 20
162.072469130685
 30
0.0
  0
POINT
  5
492
330
487
100
AcDbEntity
  8
DEFPOINTS
 62
     0
100
AcDbPoint
 10
107.772763975281
 20
170.83148167566
 30
0.0
  0
ENDBLK
  5
494
330
487
100
AcDbEntity
  8
0
100
AcDbBlockEnd
  0
BLOCK
  5
49F
330
495
100
AcDbEntity
  8
0
100
AcDbBlockBegin
  2
*D20
 70
     1
 10
0.0
 20
0.0
 30
0.0
  3
*D20
  1

  0
LINE
  5
496
330
495
100
AcDbEntity
  8
0
 62
   123
100
AcDbLine
 10
272.4207416115786
 20
223.5192834254635
 30
0.0
 11
272.4207416115786
 21
207.4137302138454
 31
0.0
  0
LINE
  5
497
330
495
100
AcDbEntity
  8
0
 62
   123
100
AcDbLine
 10
230.4207416115786
 20
223.5192834254635
 30
0.0
 11
230.4207416115786
 21
207.4137302138454
 31
0.0
  0
LINE
  5
498
330
495
100
AcDbEntity
  8
0
 62
   123
100
AcDbLine
 10
269.9207416115786
 20
208.0137302138454
 30
0.0
 11
232.9207416115786
 21
208.0137302138454
 31
0.0
  0
SOLID
  5
499
330
495
100
AcDbEntity
  8
0
 62
   123
100
AcDbTrace
 10
269.9207416115786
 20
208.430396880512
 30
0.0
 11
269.9207416115786
 21
207.5970635471787
 31
0.0
 12
272.4207416115786
 22
208.0137302138454
 32
0.0
 13
272.4207416115786
 23
208.0137302138454
 33
0.0
  0
SOLID
  5
49A
330
495
100
AcDbEntity
  8
0
 62
   123
100
AcDbTrace
 10
232.9207416115786
 20
208.430396880512
 30
0.0
 11
232.9207416115786
 21
207.5970635471787
 31
0.0
 12
230.4207416115786
 22
208.0137302138454
 32
0.0
 13
230.4207416115786
 23
208.0137302138454
 33
0.0
  0
MTEXT
  5
49B
330
495
100
AcDbEntity
  8
0
 62
     3
100
AcDbMText
 10
251.4207416115787
 20
210.5137302138454
 30
0.0
 40
3.0
 41
0.0
 71
     5
 72
     1
  1
\A1;L
1001
ACAD
1000
MTEXTBEGIN
1070
    73
1070
     1
1070
    44
1040
1.0
1070
    74
1070
     0
1000
MTEXTEND
1000
MTEXTBEGIN
1070
    73
1070
     1
1070
    44
1040
1.0
1070
    74
1070
     0
1000
MTEXTEND
  0
POINT
  5
49C
330
495
100
AcDbEntity
  8
DEFPOINTS
 62
     0
100
AcDbPoint
 10
272.4207416115786
 20
224.5192834254635
 30
0.0
  0
POINT
  5
49D
330
495
100
AcDbEntity
  8
DEFPOINTS
 62
     0
100
AcDbPoint
 10
230.4207416115786
 20
224.5192834254635
 30
0.0
  0
POINT
  5
49E
330
495
100
AcDbEntity
  8
DEFPOINTS
 62
     0
100
AcDbPoint
 10
230.4207416115786
 20
208.0137302138454
 30
0.0
  0
ENDBLK
  5
4A0
330
495
100
AcDbEntity
  8
0
100
AcDbBlockEnd
  0
BLOCK
  5
4AB
330
4A1
100
AcDbEntity
  8
0
100
AcDbBlockBegin
  2
*D21
 70
     1
 10
0.0
 20
0.0
 30
0.0
  3
*D21
  1

  0
LINE
  5
4A2
330
4A1
100
AcDbEntity
  8
0
 62
   123
100
AcDbLine
 10
215.4659094238085
 20
451.4900114671839
 30
0.0
 11
190.3495410811578
 21
451.4900114671839
 31
0.0
  0
LINE
  5
4A3
330
4A1
100
AcDbEntity
  8
0
 62
   123
100
AcDbLine
 10
215.4659094238085
 20
368.4900114671841
 30
0.0
 11
190.3495410811578
 21
368.4900114671841
 31
0.0
  0
LINE
  5
4A4
330
4A1
100
AcDbEntity
  8
0
 62
   123
100
AcDbLine
 10
190.9495410811578
 20
448.9900114671841
 30
0.0
 11
190.9495410811578
 21
370.9900114671841
 31
0.0
  0
SOLID
  5
4A5
330
4A1
100
AcDbEntity
  8
0
 62
   123
100
AcDbTrace
 10
190.5328744144912
 20
448.9900114671841
 30
0.0
 11
191.3662077478245
 21
448.9900114671841
 31
0.0
 12
190.9495410811578
 22
451.4900114671839
 32
0.0
 13
190.9495410811578
 23
451.4900114671839
 33
0.0
  0
SOLID
  5
4A6
330
4A1
100
AcDbEntity
  8
0
 62
   123
100
AcDbTrace
 10
190.5328744144912
 20
370.9900114671841
 30
0.0
 11
191.3662077478245
 21
370.9900114671841
 31
0.0
 12
190.9495410811578
 22
368.4900114671841
 32
0.0
 13
190.9495410811578
 23
368.4900114671841
 33
0.0
  0
MTEXT
  5
4A7
330
4A1
100
AcDbEntity
  8
0
 62
     3
100
AcDbMText
 10
186.9993910811576
 20
409.2486032863611
 30
0.0
 40
3.0
 41
0.0
 71
     5
 72
     1
  1
\A1;\A1;{\F;%%c}83{\F;\H0.7x;\S+0^ -0.035;\H1.429x;(h7)}
 11
0.0000000000000001
 21
1.0
 31
0.0
1001
ACAD
1000
MTEXTBEGIN
1070
    73
1070
     1
1070
    44
1040
1.0
1070
    74
1070
     0
1000
MTEXTEND
1000
MTEXTBEGIN
1070
    73
1070
     1
1070
    44
1040
1.0
1070
    74
1070
     0
1000
MTEXTEND
  0
POINT
  5
4A8
330
4A1
100
AcDbEntity
  8
DEFPOINTS
 62
     0
100
AcDbPoint
 10
216.4659094238086
 20
451.4900114671839
 30
0.0
  0
POINT
  5
4A9
330
4A1
100
AcDbEntity
  8
DEFPOINTS
 62
     0
100
AcDbPoint
 10
216.4659094238086
 20
368.4900114671841
 30
0.0
  0
POINT
  5
4AA
330
4A1
100
AcDbEntity
  8
DEFPOINTS
 62
     0
100
AcDbPoint
 10
190.9495410811578
 20
368.4900114671841
 30
0.0
  0
ENDBLK
  5
4AC
330
4A1
100
AcDbEntity
  8
0
100
AcDbBlockEnd
  0
BLOCK
  5
4B6
330
4AD
100
AcDbEntity
  8
0
100
AcDbBlockBegin
  2
*D22
 70
     1
 10
0.0
 20
0.0
 30
0.0
  3
*D22
  1

  0
LINE
  5
536
330
4AD
100
AcDbEntity
  8
0
 62
   123
100
AcDbLine
 10
56.69066865418861
 20
375.5349282650344
 30
0.0
 11
54.75366241114091
 21
373.9544198612623
 31
0.0
  0
LINE
  5
537
330
4AD
100
AcDbEntity
  8
0
 62
   123
100
AcDbLine
 10
141.1441408510581
 20
444.4450946694892
 30
0.0
 11
164.1603649525988
 21
463.2252796823936
 31
0.0
  0
LINE
  5
538
330
4AD
100
AcDbEntity
  8
0
 62
   123
100
AcDbLine
 10
58.62767489723632
 20
377.1154366688066
 30
0.0
 11
139.2071346080104
 21
442.8645862657171
 31
0.0
  0
SOLID
  5
539
330
4AD
100
AcDbEntity
  8
0
 62
   123
100
AcDbTrace
 10
56.42725058689328
 20
375.8577626388758
 30
0.0
 11
56.95408672148396
 21
375.2120938911931
 31
0.0
 12
58.62767489723632
 22
377.1154366688066
 32
0.0
 13
58.62767489723632
 23
377.1154366688066
 33
0.0
  0
SOLID
  5
53A
330
4AD
100
AcDbEntity
  8
0
 62
   123
100
AcDbTrace
 10
140.8807227837626
 20
444.7679290433305
 30
0.0
 11
141.4075589183534
 21
444.1222602956479
 31
0.0
 12
139.2071346080104
 22
442.8645862657171
 32
0.0
 13
139.2071346080104
 23
442.8645862657171
 33
0.0
  0
MTEXT
  5
53B
330
4AD
100
AcDbEntity
  8
0
 62
     3
100
AcDbMText
 10
153.5589417597759
 20
457.8016325021598
 30
0.0
 40
3.0
 41
0.0
 71
     5
 72
     1
  1
\A1;\U+2205104%%P0.5
 11
0.7748024972190823
 21
0.6322033615088376
 31
0.0
1001
ACAD
1000
MTEXTBEGIN
1070
    73
1070
     1
1070
    44
1040
1.0
1070
    74
1070
     0
1000
MTEXTEND
1000
MTEXTBEGIN
1070
    73
1070
     1
1070
    44
1040
1.0
1070
    74
1070
     0
1000
MTEXTEND
  0
POINT
  5
53C
330
4AD
100
AcDbEntity
  8
DEFPOINTS
 62
     0
100
AcDbPoint
 10
139.2071346080104
 20
442.8645862657171
 30
0.0
  0
POINT
  5
53D
330
4AD
100
AcDbEntity
  8
DEFPOINTS
 62
     0
100
AcDbPoint
 10
58.62767489723632
 20
377.1154366688066
 30
0.0
  0
ENDBLK
  5
4B7
330
4AD
100
AcDbEntity
  8
0
100
AcDbBlockEnd
  0
BLOCK
  5
4C2
330
4B8
100
AcDbEntity
  8
0
100
AcDbBlockBegin
  2
*D23
 70
     1
 10
0.0
 20
0.0
 30
0.0
  3
*D23
  1

  0
LINE
  5
4B9
330
4B8
100
AcDbEntity
  8
0
 62
   123
100
AcDbLine
 10
200.4659094238085
 20
413.9900114671839
 30
0.0
 11
200.4659094238085
 21
477.6412922540071
 31
0.0
  0
LINE
  5
4BA
330
4B8
100
AcDbEntity
  8
0
 62
   123
100
AcDbLine
 10
218.4659094238086
 20
455.9900114671839
 30
0.0
 11
218.4659094238086
 21
477.6412922540071
 31
0.0
  0
LINE
  5
4BB
330
4B8
100
AcDbEntity
  8
0
 62
   123
100
AcDbLine
 10
202.9659094238085
 20
477.0412922540072
 30
0.0
 11
215.9659094238086
 21
477.0412922540072
 31
0.0
  0
SOLID
  5
4BC
330
4B8
100
AcDbEntity
  8
0
 62
   123
100
AcDbTrace
 10
202.9659094238085
 20
477.4579589206738
 30
0.0
 11
202.9659094238085
 21
476.6246255873404
 31
0.0
 12
200.4659094238085
 22
477.0412922540072
 32
0.0
 13
200.4659094238085
 23
477.0412922540072
 33
0.0
  0
SOLID
  5
4BD
330
4B8
100
AcDbEntity
  8
0
 62
   123
100
AcDbTrace
 10
215.9659094238086
 20
477.4579589206738
 30
0.0
 11
215.9659094238086
 21
476.6246255873404
 31
0.0
 12
218.4659094238086
 22
477.0412922540072
 32
0.0
 13
218.4659094238086
 23
477.0412922540072
 33
0.0
  0
MTEXT
  5
4BE
330
4B8
100
AcDbEntity
  8
0
 62
     3
100
AcDbMText
 10
209.4659094238085
 20
479.5412922540072
 30
0.0
 40
3.0
 41
0.0
 71
     5
 72
     1
  1
\A1;18
1001
ACAD
1000
MTEXTBEGIN
1070
    73
1070
     1
1070
    44
1040
1.0
1070
    74
1070
     0
1000
MTEXTEND
1000
MTEXTBEGIN
1070
    73
1070
     1
1070
    44
1040
1.0
1070
    74
1070
     0
1000
MTEXTEND
  0
POINT
  5
4BF
330
4B8
100
AcDbEntity
  8
DEFPOINTS
 62
     0
100
AcDbPoint
 10
200.4659094238085
 20
412.9900114671841
 30
0.0
  0
POINT
  5
4C0
330
4B8
100
AcDbEntity
  8
DEFPOINTS
 62
     0
100
AcDbPoint
 10
218.4659094238086
 20
454.990011467184
 30
0.0
  0
POINT
  5
4C1
330
4B8
100
AcDbEntity
  8
DEFPOINTS
 62
     0
100
AcDbPoint
 10
218.4659094238086
 20
477.0412922540072
 30
0.0
  0
ENDBLK
  5
4C3
330
4B8
100
AcDbEntity
  8
0
100
AcDbBlockEnd
  0
BLOCK
  5
4CE
330
4C4
100
AcDbEntity
  8
0
100
AcDbBlockBegin
  2
*D24
 70
     1
 10
0.0
 20
0.0
 30
0.0
  3
*D24
  1

  0
LINE
  5
4C5
330
4C4
100
AcDbEntity
  8
0
 62
   123
100
AcDbLine
 10
226.9207416115786
 20
305.0192834254634
 30
0.0
 11
158.8019343504696
 21
305.0192834254634
 31
0.0
  0
LINE
  5
4C6
330
4C4
100
AcDbEntity
  8
0
 62
   123
100
AcDbLine
 10
185.8130684774804
 20
269.0192834254634
 30
0.0
 11
158.8019343504696
 21
269.0192834254634
 31
0.0
  0
LINE
  5
4C7
330
4C4
100
AcDbEntity
  8
0
 62
   123
100
AcDbLine
 10
159.4019343504695
 20
302.5192834254634
 30
0.0
 11
159.4019343504695
 21
271.5192834254634
 31
0.0
  0
SOLID
  5
4C8
330
4C4
100
AcDbEntity
  8
0
 62
   123
100
AcDbTrace
 10
158.985267683803
 20
302.5192834254634
 30
0.0
 11
159.8186010171362
 21
302.5192834254634
 31
0.0
 12
159.4019343504695
 22
305.0192834254634
 32
0.0
 13
159.4019343504695
 23
305.0192834254634
 33
0.0
  0
SOLID
  5
4C9
330
4C4
100
AcDbEntity
  8
0
 62
   123
100
AcDbTrace
 10
158.985267683803
 20
271.5192834254634
 30
0.0
 11
159.8186010171362
 21
271.5192834254634
 31
0.0
 12
159.4019343504695
 22
269.0192834254634
 32
0.0
 13
159.4019343504695
 23
269.0192834254634
 33
0.0
  0
MTEXT
  5
4CA
330
4C4
100
AcDbEntity
  8
0
 62
     3
100
AcDbMText
 10
156.9019343504695
 20
286.769283425464
 30
0.0
 40
3.0
 41
0.0
 71
     5
 72
     1
  1
\A1;{\F;%%C}36
 11
0.0000000000000001
 21
1.0
 31
0.0
1001
ACAD
1000
MTEXTBEGIN
1070
    73
1070
     1
1070
    44
1040
1.0
1070
    74
1070
     0
1000
MTEXTEND
1000
MTEXTBEGIN
1070
    73
1070
     1
1070
    44
1040
1.0
1070
    74
1070
     0
1000
MTEXTEND
  0
POINT
  5
4CB
330
4C4
100
AcDbEntity
  8
DEFPOINTS
 62
     0
100
AcDbPoint
 10
227.9207416115786
 20
305.0192834254634
 30
0.0
  0
POINT
  5
4CC
330
4C4
100
AcDbEntity
  8
DEFPOINTS
 62
     0
100
AcDbPoint
 10
186.8130684774804
 20
269.0192834254634
 30
0.0
  0
POINT
  5
4CD
330
4C4
100
AcDbEntity
  8
DEFPOINTS
 62
     0
100
AcDbPoint
 10
159.4019343504695
 20
269.0192834254634
 30
0.0
  0
ENDBLK
  5
4CF
330
4C4
100
AcDbEntity
  8
0
100
AcDbBlockEnd
  0
BLOCK
  5
4DA
330
4D0
100
AcDbEntity
  8
0
100
AcDbBlockBegin
  2
*D25
 70
     1
 10
0.0
 20
0.0
 30
0.0
  3
*D25
  1

  0
LINE
  5
4D1
330
4D0
100
AcDbEntity
  8
0
 62
   123
100
AcDbLine
 10
37.35659195363768
 20
309.9550927872683
 30
0.0
 11
37.35659195363768
 21
327.0769134531693
 31
0.0
  0
LINE
  5
4D2
330
4D0
100
AcDbEntity
  8
0
 62
   123
100
AcDbLine
 10
127.3565919536375
 20
309.9550927872683
 30
0.0
 11
127.3565919536375
 21
327.0769134531693
 31
0.0
  0
LINE
  5
4D3
330
4D0
100
AcDbEntity
  8
0
 62
   123
100
AcDbLine
 10
39.85659195363768
 20
326.4769134531693
 30
0.0
 11
124.8565919536376
 21
326.4769134531693
 31
0.0
  0
SOLID
  5
4D4
330
4D0
100
AcDbEntity
  8
0
 62
   123
100
AcDbTrace
 10
39.85659195363768
 20
326.893580119836
 30
0.0
 11
39.85659195363768
 21
326.0602467865026
 31
0.0
 12
37.35659195363768
 22
326.4769134531693
 32
0.0
 13
37.35659195363768
 23
326.4769134531693
 33
0.0
  0
SOLID
  5
4D5
330
4D0
100
AcDbEntity
  8
0
 62
   123
100
AcDbTrace
 10
124.8565919536376
 20
326.893580119836
 30
0.0
 11
124.8565919536376
 21
326.0602467865026
 31
0.0
 12
127.3565919536375
 22
326.4769134531693
 32
0.0
 13
127.3565919536375
 23
326.4769134531693
 33
0.0
  0
MTEXT
  5
4D6
330
4D0
100
AcDbEntity
  8
0
 62
     3
100
AcDbMText
 10
82.35659195363769
 20
328.9769134531693
 30
0.0
 40
3.0
 41
0.0
 71
     5
 72
     1
  1
\A1;90
1001
ACAD
1000
MTEXTBEGIN
1070
    73
1070
     1
1070
    44
1040
1.0
1070
    74
1070
     0
1000
MTEXTEND
1000
MTEXTBEGIN
1070
    73
1070
     1
1070
    44
1040
1.0
1070
    74
1070
     0
1000
MTEXTEND
  0
POINT
  5
4D7
330
4D0
100
AcDbEntity
  8
DEFPOINTS
 62
     0
100
AcDbPoint
 10
37.35659195363768
 20
308.9550927872683
 30
0.0
  0
POINT
  5
4D8
330
4D0
100
AcDbEntity
  8
DEFPOINTS
 62
     0
100
AcDbPoint
 10
127.3565919536375
 20
308.9550927872683
 30
0.0
  0
POINT
  5
4D9
330
4D0
100
AcDbEntity
  8
DEFPOINTS
 62
     0
100
AcDbPoint
 10
127.3565919536375
 20
326.4769134531693
 30
0.0
  0
ENDBLK
  5
4DB
330
4D0
100
AcDbEntity
  8
0
100
AcDbBlockEnd
  0
BLOCK
  5
4E8
330
4DC
100
AcDbEntity
  8
0
100
AcDbBlockBegin
  2
*D26
 70
     1
 10
0.0
 20
0.0
 30
0.0
  3
*D26
  1

  0
LINE
  5
4DD
330
4DC
100
AcDbEntity
  8
0
 62
   123
100
AcDbLine
 10
230.4207416115786
 20
314.5192834254634
 30
0.0
 11
230.4207416115786
 21
322.1385968492433
 31
0.0
  0
LINE
  5
4DE
330
4DC
100
AcDbEntity
  8
0
 62
   123
100
AcDbLine
 10
227.4207416115786
 20
305.1657300348701
 30
0.0
 11
227.4207416115786
 21
322.1385968492433
 31
0.0
  0
LINE
  5
4DF
330
4DC
100
AcDbEntity
  8
0
 62
   123
100
AcDbLine
 10
232.9207416115786
 20
321.5385968492432
 30
0.0
 11
235.4207416115786
 21
321.5385968492432
 31
0.0
  0
LINE
  5
4E0
330
4DC
100
AcDbEntity
  8
0
 62
   123
100
AcDbLine
 10
224.9207416115786
 20
321.5385968492432
 30
0.0
 11
222.4207416115786
 21
321.5385968492432
 31
0.0
  0
LINE
  5
4E1
330
4DC
100
AcDbEntity
  8
0
 62
   123
100
AcDbLine
 10
230.4207416115786
 20
321.5385968492432
 30
0.0
 11
227.4207416115786
 21
321.5385968492432
 31
0.0
  0
SOLID
  5
4E2
330
4DC
100
AcDbEntity
  8
0
 62
   123
100
AcDbTrace
 10
232.9207416115786
 20
321.9552635159099
 30
0.0
 11
232.9207416115786
 21
321.1219301825764
 31
0.0
 12
230.4207416115786
 22
321.5385968492432
 32
0.0
 13
230.4207416115786
 23
321.5385968492432
 33
0.0
  0
SOLID
  5
4E3
330
4DC
100
AcDbEntity
  8
0
 62
   123
100
AcDbTrace
 10
224.9207416115786
 20
321.9552635159099
 30
0.0
 11
224.9207416115786
 21
321.1219301825764
 31
0.0
 12
227.4207416115786
 22
321.5385968492432
 32
0.0
 13
227.4207416115786
 23
321.5385968492432
 33
0.0
  0
MTEXT
  5
4E4
330
4DC
100
AcDbEntity
  8
0
 62
     3
100
AcDbMText
 10
228.9207416115786
 20
324.0385968492432
 30
0.0
 40
3.0
 41
0.0
 71
     5
 72
     1
  1
\A1;3
1001
ACAD
1000
MTEXTBEGIN
1070
    73
1070
     1
1070
    44
1040
1.0
1070
    74
1070
     0
1000
MTEXTEND
1000
MTEXTBEGIN
1070
    73
1070
     1
1070
    44
1040
1.0
1070
    74
1070
     0
1000
MTEXTEND
  0
POINT
  5
4E5
330
4DC
100
AcDbEntity
  8
DEFPOINTS
 62
     0
100
AcDbPoint
 10
230.4207416115786
 20
313.5192834254634
 30
0.0
  0
POINT
  5
4E6
330
4DC
100
AcDbEntity
  8
DEFPOINTS
 62
     0
100
AcDbPoint
 10
227.4207416115786
 20
304.1657300348702
 30
0.0
  0
POINT
  5
4E7
330
4DC
100
AcDbEntity
  8
DEFPOINTS
 62
     0
100
AcDbPoint
 10
227.4207416115786
 20
321.5385968492432
 30
0.0
  0
ENDBLK
  5
4E9
330
4DC
100
AcDbEntity
  8
0
100
AcDbBlockEnd
  0
BLOCK
  5
4F4
330
4EA
100
AcDbEntity
  8
0
100
AcDbBlockBegin
  2
*D27
 70
     1
 10
0.0
 20
0.0
 30
0.0
  3
*D27
  1

  0
LINE
  5
4EB
330
4EA
100
AcDbEntity
  8
0
 62
   123
100
AcDbLine
 10
223.4207416115786
 20
294.0192834254634
 30
0.0
 11
223.4207416115786
 21
310.4951032880203
 31
0.0
  0
LINE
  5
4EC
330
4EA
100
AcDbEntity
  8
0
 62
   123
100
AcDbLine
 10
198.4207416115785
 20
293.019283425464
 30
0.0
 11
198.4207416115785
 21
310.4951032880203
 31
0.0
  0
LINE
  5
4ED
330
4EA
100
AcDbEntity
  8
0
 62
   123
100
AcDbLine
 10
220.9207416115786
 20
309.8951032880203
 30
0.0
 11
200.9207416115786
 21
309.8951032880203
 31
0.0
  0
SOLID
  5
4EE
330
4EA
100
AcDbEntity
  8
0
 62
   123
100
AcDbTrace
 10
220.9207416115786
 20
310.3117699546871
 30
0.0
 11
220.9207416115786
 21
309.4784366213537
 31
0.0
 12
223.4207416115786
 22
309.8951032880203
 32
0.0
 13
223.4207416115786
 23
309.8951032880203
 33
0.0
  0
SOLID
  5
4EF
330
4EA
100
AcDbEntity
  8
0
 62
   123
100
AcDbTrace
 10
200.9207416115786
 20
310.3117699546871
 30
0.0
 11
200.9207416115786
 21
309.4784366213537
 31
0.0
 12
198.4207416115785
 22
309.8951032880203
 32
0.0
 13
198.4207416115785
 23
309.8951032880203
 33
0.0
  0
MTEXT
  5
4F0
330
4EA
100
AcDbEntity
  8
0
 62
     3
100
AcDbMText
 10
210.9207416115786
 20
312.3951032880203
 30
0.0
 40
3.0
 41
0.0
 71
     5
 72
     1
  1
\A1;25
1001
ACAD
1000
MTEXTBEGIN
1070
    73
1070
     1
1070
    44
1040
1.0
1070
    74
1070
     0
1000
MTEXTEND
1000
MTEXTBEGIN
1070
    73
1070
     1
1070
    44
1040
1.0
1070
    74
1070
     0
1000
MTEXTEND
  0
POINT
  5
4F1
330
4EA
100
AcDbEntity
  8
DEFPOINTS
 62
     0
100
AcDbPoint
 10
223.4207416115786
 20
293.0192834254634
 30
0.0
  0
POINT
  5
4F2
330
4EA
100
AcDbEntity
  8
DEFPOINTS
 62
     0
100
AcDbPoint
 10
198.4207416115785
 20
292.0192834254638
 30
0.0
  0
POINT
  5
4F3
330
4EA
100
AcDbEntity
  8
DEFPOINTS
 62
     0
100
AcDbPoint
 10
198.4207416115785
 20
309.8951032880203
 30
0.0
  0
ENDBLK
  5
4F5
330
4EA
100
AcDbEntity
  8
0
100
AcDbBlockEnd
  0
BLOCK
  5
502
330
4F6
100
AcDbEntity
  8
0
100
AcDbBlockBegin
  2
*D28
 70
     1
 10
0.0
 20
0.0
 30
0.0
  3
*D28
  1

  0
LINE
  5
4F7
330
4F6
100
AcDbEntity
  8
0
 62
   123
100
AcDbLine
 10
197.4207416115786
 20
281.0192834254639
 30
0.0
 11
183.2523807809069
 21
281.0192834254639
 31
0.0
  0
LINE
  5
4F8
330
4F6
100
AcDbEntity
  8
0
 62
   123
100
AcDbLine
 10
197.4207416115786
 20
293.0192834254634
 30
0.0
 11
183.2523807809069
 21
293.0192834254634
 31
0.0
  0
LINE
  5
4F9
330
4F6
100
AcDbEntity
  8
0
 62
   123
100
AcDbLine
 10
183.8523807809069
 20
278.5192834254639
 30
0.0
 11
183.8523807809069
 21
276.019283425464
 31
0.0
  0
LINE
  5
4FA
330
4F6
100
AcDbEntity
  8
0
 62
   123
100
AcDbLine
 10
183.8523807809069
 20
295.5192834254635
 30
0.0
 11
183.8523807809069
 21
336.0279387627288
 31
0.0
  0
LINE
  5
4FB
330
4F6
100
AcDbEntity
  8
0
 62
   123
100
AcDbLine
 10
183.8523807809069
 20
281.0192834254639
 30
0.0
 11
183.8523807809069
 21
293.0192834254634
 31
0.0
  0
SOLID
  5
4FC
330
4F6
100
AcDbEntity
  8
0
 62
   123
100
AcDbTrace
 10
183.4357141142403
 20
278.5192834254639
 30
0.0
 11
184.2690474475736
 21
278.5192834254639
 31
0.0
 12
183.8523807809069
 22
281.0192834254639
 32
0.0
 13
183.8523807809069
 23
281.0192834254639
 33
0.0
  0
SOLID
  5
4FD
330
4F6
100
AcDbEntity
  8
0
 62
   123
100
AcDbTrace
 10
183.4357141142403
 20
295.5192834254635
 30
0.0
 11
184.2690474475736
 21
295.5192834254635
 31
0.0
 12
183.8523807809069
 22
293.0192834254634
 32
0.0
 13
183.8523807809069
 23
293.0192834254634
 33
0.0
  0
MTEXT
  5
4FE
330
4F6
100
AcDbEntity
  8
0
 62
     3
100
AcDbMText
 10
179.9022307809068
 20
321.2123673341575
 30
0.0
 40
3.0
 41
0.0
 71
     5
 72
     1
  1
\A1;\A1;{\F;%%C12\H0.7x;\S+0^ -0.018;\H1.429x;(h7)}
 11
0.0000000000000001
 21
1.0
 31
0.0
1001
ACAD
1000
MTEXTBEGIN
1070
    73
1070
     1
1070
    44
1040
1.0
1070
    74
1070
     0
1000
MTEXTEND
1000
MTEXTBEGIN
1070
    73
1070
     1
1070
    44
1040
1.0
1070
    74
1070
     0
1000
MTEXTEND
  0
POINT
  5
4FF
330
4F6
100
AcDbEntity
  8
DEFPOINTS
 62
     0
100
AcDbPoint
 10
198.4207416115785
 20
281.0192834254639
 30
0.0
  0
POINT
  5
500
330
4F6
100
AcDbEntity
  8
DEFPOINTS
 62
     0
100
AcDbPoint
 10
198.4207416115785
 20
293.0192834254634
 30
0.0
  0
POINT
  5
501
330
4F6
100
AcDbEntity
  8
DEFPOINTS
 62
     0
100
AcDbPoint
 10
183.8523807809069
 20
293.0192834254634
 30
0.0
  0
ENDBLK
  5
503
330
4F6
100
AcDbEntity
  8
0
100
AcDbBlockEnd
  0
BLOCK
  5
50E
330
504
100
AcDbEntity
  8
0
100
AcDbBlockBegin
  2
*D29
 70
     1
 10
0.0
 20
0.0
 30
0.0
  3
*D29
  1

  0
LINE
  5
505
330
504
100
AcDbEntity
  8
0
 62
   123
100
AcDbLine
 10
193.5226028103496
 20
287.0192834254634
 30
0.0
 11
171.7075014139649
 21
287.0192834254634
 31
0.0
  0
LINE
  5
506
330
504
100
AcDbEntity
  8
0
 62
   123
100
AcDbLine
 10
185.8130684774804
 20
269.0192834254634
 30
0.0
 11
171.7075014139649
 21
269.0192834254634
 31
0.0
  0
LINE
  5
507
330
504
100
AcDbEntity
  8
0
 62
   123
100
AcDbLine
 10
172.3075014139649
 20
284.5192834254634
 30
0.0
 11
172.3075014139649
 21
271.5192834254634
 31
0.0
  0
SOLID
  5
508
330
504
100
AcDbEntity
  8
0
 62
   123
100
AcDbTrace
 10
171.8908347472982
 20
284.5192834254634
 30
0.0
 11
172.7241680806314
 21
284.5192834254634
 31
0.0
 12
172.3075014139649
 22
287.0192834254634
 32
0.0
 13
172.3075014139649
 23
287.0192834254634
 33
0.0
  0
SOLID
  5
509
330
504
100
AcDbEntity
  8
0
 62
   123
100
AcDbTrace
 10
171.8908347472982
 20
271.5192834254634
 30
0.0
 11
172.7241680806314
 21
271.5192834254634
 31
0.0
 12
172.3075014139649
 22
269.0192834254634
 32
0.0
 13
172.3075014139649
 23
269.0192834254634
 33
0.0
  0
MTEXT
  5
50A
330
504
100
AcDbEntity
  8
0
 62
     3
100
AcDbMText
 10
169.8075014139648
 20
278.0192834254636
 30
0.0
 40
3.0
 41
0.0
 71
     5
 72
     1
  1
\A1;18
 11
0.0000000000000001
 21
1.0
 31
0.0
1001
ACAD
1000
MTEXTBEGIN
1070
    73
1070
     1
1070
    44
1040
1.0
1070
    74
1070
     0
1000
MTEXTEND
1000
MTEXTBEGIN
1070
    73
1070
     1
1070
    44
1040
1.0
1070
    74
1070
     0
1000
MTEXTEND
  0
POINT
  5
50B
330
504
100
AcDbEntity
  8
DEFPOINTS
 62
     0
100
AcDbPoint
 10
194.5226028103497
 20
287.0192834254634
 30
0.0
  0
POINT
  5
50C
330
504
100
AcDbEntity
  8
DEFPOINTS
 62
     0
100
AcDbPoint
 10
186.8130684774804
 20
269.0192834254634
 30
0.0
  0
POINT
  5
50D
330
504
100
AcDbEntity
  8
DEFPOINTS
 62
     0
100
AcDbPoint
 10
172.3075014139649
 20
269.0192834254634
 30
0.0
  0
ENDBLK
  5
50F
330
504
100
AcDbEntity
  8
0
100
AcDbBlockEnd
  0
BLOCK
  5
51A
330
510
100
AcDbEntity
  8
0
100
AcDbBlockBegin
  2
*D30
 70
     1
 10
0.0
 20
0.0
 30
0.0
  3
*D30
  1

  0
LINE
  5
511
330
510
100
AcDbEntity
  8
0
 62
   123
100
AcDbLine
 10
53.9174047526176
 20
450.9472177083871
 30
0.0
 11
53.9174047526176
 21
468.9156552676414
 31
0.0
  0
LINE
  5
512
330
510
100
AcDbEntity
  8
0
 62
   123
100
AcDbLine
 10
143.9174047526174
 20
450.9472177083871
 30
0.0
 11
143.9174047526174
 21
468.9156552676414
 31
0.0
  0
LINE
  5
513
330
510
100
AcDbEntity
  8
0
 62
   123
100
AcDbLine
 10
56.4174047526176
 20
468.3156552676414
 30
0.0
 11
141.4174047526175
 21
468.3156552676414
 31
0.0
  0
SOLID
  5
514
330
510
100
AcDbEntity
  8
0
 62
   123
100
AcDbTrace
 10
56.4174047526176
 20
468.7323219343081
 30
0.0
 11
56.4174047526176
 21
467.8989886009746
 31
0.0
 12
53.9174047526176
 22
468.3156552676414
 32
0.0
 13
53.9174047526176
 23
468.3156552676414
 33
0.0
  0
SOLID
  5
515
330
510
100
AcDbEntity
  8
0
 62
   123
100
AcDbTrace
 10
141.4174047526175
 20
468.7323219343081
 30
0.0
 11
141.4174047526175
 21
467.8989886009746
 31
0.0
 12
143.9174047526174
 22
468.3156552676414
 32
0.0
 13
143.9174047526174
 23
468.3156552676414
 33
0.0
  0
MTEXT
  5
516
330
510
100
AcDbEntity
  8
0
 62
     3
100
AcDbMText
 10
98.91740475261759
 20
470.8156552676413
 30
0.0
 40
3.0
 41
0.0
 71
     5
 72
     1
  1
\A1;90
1001
ACAD
1000
MTEXTBEGIN
1070
    73
1070
     1
1070
    44
1040
1.0
1070
    74
1070
     0
1000
MTEXTEND
1000
MTEXTBEGIN
1070
    73
1070
     1
1070
    44
1040
1.0
1070
    74
1070
     0
1000
MTEXTEND
  0
POINT
  5
517
330
510
100
AcDbEntity
  8
DEFPOINTS
 62
     0
100
AcDbPoint
 10
53.9174047526176
 20
449.9472177083871
 30
0.0
  0
POINT
  5
518
330
510
100
AcDbEntity
  8
DEFPOINTS
 62
     0
100
AcDbPoint
 10
143.9174047526174
 20
449.9472177083871
 30
0.0
  0
POINT
  5
519
330
510
100
AcDbEntity
  8
DEFPOINTS
 62
     0
100
AcDbPoint
 10
143.9174047526174
 20
468.3156552676414
 30
0.0
  0
ENDBLK
  5
51B
330
510
100
AcDbEntity
  8
0
100
AcDbBlockEnd
  0
BLOCK
  5
526
330
51C
100
AcDbEntity
  8
0
100
AcDbBlockBegin
  2
*D31
 70
     1
 10
0.0
 20
0.0
 30
0.0
  3
*D31
  1

  0
LINE
  5
51D
330
51C
100
AcDbEntity
  8
0
 62
   123
100
AcDbLine
 10
218.4659094238086
 20
455.9900114671839
 30
0.0
 11
218.4659094238086
 21
477.6412922540071
 31
0.0
  0
LINE
  5
51E
330
51C
100
AcDbEntity
  8
0
 62
   123
100
AcDbLine
 10
255.4659094237976
 20
455.9900114671839
 30
0.0
 11
255.4659094237976
 21
477.6412922540071
 31
0.0
  0
LINE
  5
51F
330
51C
100
AcDbEntity
  8
0
 62
   123
100
AcDbLine
 10
220.9659094238086
 20
477.0412922540072
 30
0.0
 11
252.9659094237977
 21
477.0412922540072
 31
0.0
  0
SOLID
  5
520
330
51C
100
AcDbEntity
  8
0
 62
   123
100
AcDbTrace
 10
220.9659094238086
 20
477.4579589206738
 30
0.0
 11
220.9659094238086
 21
476.6246255873404
 31
0.0
 12
218.4659094238086
 22
477.0412922540072
 32
0.0
 13
218.4659094238086
 23
477.0412922540072
 33
0.0
  0
SOLID
  5
521
330
51C
100
AcDbEntity
  8
0
 62
   123
100
AcDbTrace
 10
252.9659094237977
 20
477.4579589206738
 30
0.0
 11
252.9659094237977
 21
476.6246255873404
 31
0.0
 12
255.4659094237976
 22
477.0412922540072
 32
0.0
 13
255.4659094237976
 23
477.0412922540072
 33
0.0
  0
MTEXT
  5
522
330
51C
100
AcDbEntity
  8
0
 62
     3
100
AcDbMText
 10
236.9659094238086
 20
479.5412922540072
 30
0.0
 40
3.0
 41
0.0
 71
     5
 72
     1
  1
\A1;37
1001
ACAD
1000
MTEXTBEGIN
1070
    73
1070
     1
1070
    44
1040
1.0
1070
    74
1070
     0
1000
MTEXTEND
1000
MTEXTBEGIN
1070
    73
1070
     1
1070
    44
1040
1.0
1070
    74
1070
     0
1000
MTEXTEND
  0
POINT
  5
523
330
51C
100
AcDbEntity
  8
DEFPOINTS
 62
     0
100
AcDbPoint
 10
218.4659094238086
 20
454.990011467184
 30
0.0
  0
POINT
  5
524
330
51C
100
AcDbEntity
  8
DEFPOINTS
 62
     0
100
AcDbPoint
 10
255.4659094237976
 20
454.990011467184
 30
0.0
  0
POINT
  5
525
330
51C
100
AcDbEntity
  8
DEFPOINTS
 62
     0
100
AcDbPoint
 10
255.4659094237976
 20
477.0412922540072
 30
0.0
  0
ENDBLK
  5
527
330
51C
100
AcDbEntity
  8
0
100
AcDbBlockEnd
  0
BLOCK
  5
534
330
528
100
AcDbEntity
  8
0
100
AcDbBlockBegin
  2
*D32
 70
     1
 10
0.0
 20
0.0
 30
0.0
  3
*D32
  1

  0
LINE
  5
529
330
528
100
AcDbEntity
  8
0
 62
   123
100
AcDbLine
 10
216.4659094238086
 20
452.4900114671841
 30
0.0
 11
216.4659094238086
 21
467.4156518605965
 31
0.0
  0
LINE
  5
52A
330
528
100
AcDbEntity
  8
0
 62
   123
100
AcDbLine
 10
218.4659094238086
 20
455.9900114671839
 30
0.0
 11
218.4659094238086
 21
467.4156518605965
 31
0.0
  0
LINE
  5
52B
330
528
100
AcDbEntity
  8
0
 62
   123
100
AcDbLine
 10
213.9659094238086
 20
466.8156518605965
 30
0.0
 11
211.4659094238085
 21
466.8156518605965
 31
0.0
  0
LINE
  5
52C
330
528
100
AcDbEntity
  8
0
 62
   123
100
AcDbLine
 10
220.9659094238086
 20
466.8156518605965
 30
0.0
 11
229.4659094238086
 21
466.8156518605965
 31
0.0
  0
LINE
  5
52D
330
528
100
AcDbEntity
  8
0
 62
   123
100
AcDbLine
 10
216.4659094238086
 20
466.8156518605965
 30
0.0
 11
218.4659094238086
 21
466.8156518605965
 31
0.0
  0
SOLID
  5
52E
330
528
100
AcDbEntity
  8
0
 62
   123
100
AcDbTrace
 10
213.9659094238086
 20
467.2323185272632
 30
0.0
 11
213.9659094238086
 21
466.3989851939298
 31
0.0
 12
216.4659094238086
 22
466.8156518605965
 32
0.0
 13
216.4659094238086
 23
466.8156518605965
 33
0.0
  0
SOLID
  5
52F
330
528
100
AcDbEntity
  8
0
 62
   123
100
AcDbTrace
 10
220.9659094238086
 20
467.2323185272632
 30
0.0
 11
220.9659094238086
 21
466.3989851939298
 31
0.0
 12
218.4659094238086
 22
466.8156518605965
 32
0.0
 13
218.4659094238086
 23
466.8156518605965
 33
0.0
  0
MTEXT
  5
530
330
528
100
AcDbEntity
  8
0
 62
     3
100
AcDbMText
 10
227.4659094238085
 20
469.3156518605964
 30
0.0
 40
3.0
 41
0.0
 71
     5
 72
     1
  1
\A1;2
1001
ACAD
1000
MTEXTBEGIN
1070
    73
1070
     1
1070
    44
1040
1.0
1070
    74
1070
     0
1000
MTEXTEND
1000
MTEXTBEGIN
1070
    73
1070
     1
1070
    44
1040
1.0
1070
    74
1070
     0
1000
MTEXTEND
  0
POINT
  5
531
330
528
100
AcDbEntity
  8
DEFPOINTS
 62
     0
100
AcDbPoint
 10
216.4659094238086
 20
451.4900114671839
 30
0.0
  0
POINT
  5
532
330
528
100
AcDbEntity
  8
DEFPOINTS
 62
     0
100
AcDbPoint
 10
218.4659094238086
 20
454.990011467184
 30
0.0
  0
POINT
  5
533
330
528
100
AcDbEntity
  8
DEFPOINTS
 62
     0
100
AcDbPoint
 10
218.4659094238086
 20
466.8156518605965
 30
0.0
  0
ENDBLK
  5
535
330
528
100
AcDbEntity
  8
0
100
AcDbBlockEnd
  0
ENDSEC
  0
SECTION
  2
ENTITIES
  0
MTEXT
  5
9B
330
2
100
AcDbEntity
  8
0
 62
     3
100
AcDbMText
 10
107.3661824154805
 20
339.1054451723248
 30
0.0
 40
3.0
 41
0.0
 71
     9
 72
     1
  1
4-%%C6.5 hole
1001
ACAD
1000
MTEXTBEGIN
1070
    73
1070
     1
1070
    44
1040
1.0
1070
    74
1070
     0
1000
MTEXTEND
1000
MTEXTBEGIN
1070
    73
1070
     1
1070
    44
1040
1.0
1070
    74
1070
     0
1000
MTEXTEND
  0
LINE
  5
9C
330
2
100
AcDbEntity
  8
2
 62
     7
100
AcDbLine
 10
227.4207416115786
 20
269.519283425464
 30
0.0
 11
227.4207416115786
 21
271.0192834254639
 31
0.0
  0
LINE
  5
9E
330
2
100
AcDbEntity
  8
2
 62
     7
100
AcDbLine
 10
230.4207416115786
 20
269.0192834254634
 30
0.0
 11
227.9207416115786
 21
269.0192834254634
 31
0.0
  0
ARC
  5
9F
330
2
100
AcDbEntity
  8
2
 62
     7
100
AcDbCircle
 10
227.9207416115786
 20
269.519283425464
 30
0.0
 40
0.4999999999999968
100
AcDbArc
 50
180.0
 51
270.0
  0
MTEXT
  5
A0
330
2
100
AcDbEntity
  8
DIM
 62
     0
100
AcDbMText
 10
26.63596784825859
 20
192.0533167096173
 30
0.0
 40
4.589999999999998
 41
0.0
 71
     1
 72
     1
  1
{\FGulim.ttf;KEY\F;                  \FGulim.ttf;KEY GROOVE }
1001
ACAD
1000
MTEXTBEGIN
1070
    73
1070
     1
1070
    44
1040
1.0
1070
    74
1070
     0
1000
MTEXTEND
1000
MTEXTBEGIN
1070
    73
1070
     1
1070
    44
1040
1.0
1070
    74
1070
     0
1000
MTEXTEND
  0
LEADER
  5
A2
330
2
100
AcDbEntity
  8
0
100
AcDbLeader
  3
STANDARD
 73
     0
 75
     1
 40
3.0
 41
26.65178571428571
 76
     3
 10
119.1508364887375
 20
308.8626080421541
 30
0.0
 10
110.8661824154804
 20
338.1054451723248
 30
0.0
 10
108.3661824154805
 20
338.1054451723248
 30
0.0
340
9B
1001
ACAD
1000
DSTYLE
1002
{
1070
     5
1000

1070
   342
1005
0
1002
}
1000
LEANOF
1010
0.0
1020
0.0
1030
0.0
1000
LEANOF
1010
0.0
1020
0.0
1030
0.0
  0
MTEXT
  5
A4
330
2
100
AcDbEntity
  8
0
 62
     3
100
AcDbMText
 10
124.9216150061074
 20
482.4382167725643
 30
0.0
 40
3.0
 41
0.0
 71
     9
 72
     1
  1
4-%%C6.5 hole
1001
ACAD
1000
MTEXTBEGIN
1070
    73
1070
     1
1070
    44
1040
1.0
1070
    74
1070
     0
1000
MTEXTEND
1000
MTEXTBEGIN
1070
    73
1070
     1
1070
    44
1040
1.0
1070
    74
1070
     0
1000
MTEXTEND
  0
LEADER
  5
A5
330
2
100
AcDbEntity
  8
0
100
AcDbLeader
  3
STANDARD
 73
     0
 75
     1
 40
3.0
 41
26.65178571428571
 76
     3
 10
135.7115979490481
 20
449.9091859199893
 30
0.0
 10
128.4216150061074
 20
481.4382167725644
 30
0.0
 10
125.9216150061074
 20
481.4382167725644
 30
0.0
340
A4
1001
ACAD
1000
DSTYLE
1002
{
1070
     5
1000

1070
   342
1005
0
1002
}
1000
LEANOF
1010
0.0
1020
0.0
1030
0.0
1000
LEANOF
1010
0.0
1020
0.0
1030
0.0
  0
MTEXT
  5
A6
330
2
100
AcDbEntity
  8
DIM
100
AcDbMText
 10
283.7904103497785
 20
-36.29438611217711
 30
0.0
 40
3.5
 41
0.0
 71
     5
 72
     1
  1
MOTOR LEAD WIRE 300mm
1001
ACAD
1000
MTEXTBEGIN
1070
    73
1070
     1
1070
    44
1040
1.0
1070
    74
1070
     0
1000
MTEXTEND
1000
MTEXTBEGIN
1070
    73
1070
     1
1070
    44
1040
1.0
1070
    74
1070
     0
1000
MTEXTEND
  0
MTEXT
  5
A7
330
2
100
AcDbEntity
  8
DIM
100
AcDbMText
 10
278.1745869875048
 20
-43.18939892562911
 30
0.0
 40
3.5
 41
0.0
 71
     5
 72
     1
  1
UL Style 3271, AWG20
1001
ACAD
1000
MTEXTBEGIN
1070
    73
1070
     1
1070
    44
1040
1.0
1070
    74
1070
     0
1000
MTEXTEND
1000
MTEXTBEGIN
1070
    73
1070
     1
1070
    44
1040
1.0
1070
    74
1070
     0
1000
MTEXTEND
  0
LEADER
  5
A8
330
2
100
AcDbEntity
  8
0
100
AcDbLeader
  3
STANDARD
 76
     2
 10
241.0272510662653
 20
-19.71999100807305
 30
0.0
 10
245.6636849824062
 20
-39.20226160157744
 30
0.0
1001
ACAD
1000
DSTYLE
1002
{
1070
     5
1000

1070
   342
1005
0
1002
}
1000
LEANOF
1010
0.0
1020
0.0
1030
0.0
1000
LEANOF
1010
0.0
1020
0.0
1030
0.0
  0
MTEXT
  5
A9
330
2
100
AcDbEntity
  8
0
 62
     3
100
AcDbMText
 10
70.00959046183197
 20
110.107054064444
 30
0.0
 40
3.0
 41
0.0
 71
     9
 72
     1
  1
4-%%C6.5 hole
1001
ACAD
1000
MTEXTBEGIN
1070
    73
1070
     1
1070
    44
1040
1.0
1070
    74
1070
     0
1000
MTEXTEND
1000
MTEXTBEGIN
1070
    73
1070
     1
1070
    44
1040
1.0
1070
    74
1070
     0
1000
MTEXTEND
  0
ARC
  5
AA
330
2
100
AcDbEntity
  8
2
 62
     7
100
AcDbCircle
 10
181.8899867331637
 20
40.5208923175819
 30
0.0
 40
0.4999999999999968
100
AcDbArc
 50
180.0
 51
270.0
  0
LINE
  5
AB
330
2
100
AcDbEntity
  8
2
 62
     7
100
AcDbLine
 10
184.3899867331638
 20
40.0208923175819
 30
0.0
 11
181.8899867331637
 21
40.0208923175819
 31
0.0
  0
LINE
  5
AC
330
2
100
AcDbEntity
  8
2
 62
     7
100
AcDbLine
 10
181.3899867331637
 20
40.5208923175819
 30
0.0
 11
181.3899867331637
 21
42.0208923175819
 31
0.0
  0
DIMENSION
  5
AD
102
{ACAD_XDICTIONARY
360
AE
102
}
102
{ACAD_REACTORS
330
AF
102
}
330
2
100
AcDbEntity
  8
0
100
AcDbDimension
  2
*D13
 10
44.99938162982653
 20
86.97413350729039
 30
0.0
 11
57.30442287475871
 21
-21.8737904728657
 31
0.0
 70
    34
  3
STANDARD
100
AcDb2LineAngularDimension
 13
44.99938162982653
 23
39.99949543818456
 33
0.0
 14
63.6346094327273
 24
-5.000504561746764
 34
0.0
 15
45.0
 25
-12.14851508036916
 35
0.0
 16
53.55860592397654
 26
-25.02458279135399
 36
0.0
1001
ACAD
1000
DSTYLE
1002
{
1070
   271
1070
     0
1070
   271
1070
     1
1070
   271
1070
     1
1002
}
  0
LEADER
  5
BF
330
2
100
AcDbEntity
  8
0
100
AcDbLeader
  3
STANDARD
 73
     0
 75
     1
 40
3.0
 41
26.65178571428571
 76
     3
 10
81.79424453508909
 20
79.86421693427473
 30
0.0
 10
73.50959046183198
 20
109.107054064444
 30
0.0
 10
71.00959046183198
 20
109.107054064444
 30
0.0
340
A9
1001
ACAD
1000
DSTYLE
1002
{
1070
     5
1000

1070
   342
1005
0
1002
}
1000
LEANOF
1010
0.0
1020
0.0
1030
0.0
1000
LEANOF
1010
0.0
1020
0.0
1030
0.0
  0
LINE
  5
C0
330
2
100
AcDbEntity
  8
CL
  6
CENTER
 48
0.6
100
AcDbLine
 10
82.35659195363769
 20
216.849876027511
 30
0.0
 11
82.35659195363769
 21
321.1469061881152
 31
0.0
  0
LINE
  5
C4
330
2
100
AcDbEntity
  8
0
100
AcDbLine
 10
127.2811276394568
 20
308.9978865461353
 30
0.0
 11
127.2811276394568
 21
228.9978865461353
 31
0.0
  0
LINE
  5
C5
330
2
100
AcDbEntity
  8
0
100
AcDbLine
 10
230.4207416115786
 20
313.5192834254634
 30
0.0
 11
230.4207416115786
 21
224.5192834254635
 31
0.0
  0
LINE
  5
C6
330
2
100
AcDbEntity
  8
0
100
AcDbLine
 10
272.4207416115786
 20
313.5192834254634
 30
0.0
 11
272.4207416115786
 21
224.5192834254635
 31
0.0
  0
DIMENSION
  5
C7
330
2
100
AcDbEntity
  8
0
100
AcDbDimension
  2
*D1
 10
230.4207416115786
 20
208.0137302138454
 30
0.0
 11
214.4207416115786
 21
210.5137302138454
 31
0.0
 70
    32
  3
STANDARD
100
AcDbAlignedDimension
 13
198.4207416115785
 23
279.0192834254634
 33
0.0
 14
230.4207416115786
 24
224.5192834254635
 34
0.0
 50
180.0
100
AcDbRotatedDimension
  0
LINE
  5
D4
330
2
100
AcDbEntity
  8
0
100
AcDbLine
 10
37.28112763945683
 20
308.9978865461353
 30
0.0
 11
37.28112763945683
 21
228.9978865461353
 31
0.0
  0
CIRCLE
  5
D5
330
2
100
AcDbEntity
  8
0
 48
0.6
100
AcDbCircle
 10
82.35659195364858
 20
268.9983911078134
 30
0.0
 40
41.5
  0
DIMENSION
  5
D6
102
{ACAD_XDICTIONARY
360
D7
102
}
102
{ACAD_REACTORS
330
D8
102
}
330
2
100
AcDbEntity
  8
0
100
AcDbDimension
  2
*D0
 10
42.06686209824039
 20
236.1238163093303
 30
0.0
 11
138.5786373645331
 21
314.8730058996524
 31
0.0
 70
   163
  1
<>%%P0.5
  3
STANDARD
100
AcDbDiametricDimension
 15
122.6463218090237
 25
301.8729659062753
 35
0.0
 40
0.0
  0
LINE
  5
E4
330
2
100
AcDbEntity
  8
CL
  6
CENTER
 48
0.6
100
AcDbLine
 10
45.0
 20
-12.14851508036916
 30
0.0
 11
45.0
 21
92.1485150802332
 31
0.0
  0
DIMENSION
  5
E5
330
2
100
AcDbEntity
  8
0
100
AcDbDimension
  2
*D9
 10
184.3899867331638
 20
111.4436624217327
 30
0.0
 11
204.3899867331638
 21
111.4436624217327
 31
0.0
 70
   160
  1
L
  3
STANDARD
100
AcDbAlignedDimension
 13
226.3899867331637
 23
85.02089231758326
 33
0.0
 14
184.3899867331638
 24
85.02089231758326
 34
0.0
 50
180.0
100
AcDbRotatedDimension
  0
DIMENSION
  5
F2
330
2
100
AcDbEntity
  8
0
100
AcDbDimension
  2
*D8
 10
184.3899867331638
 20
111.4436624217327
 30
0.0
 11
168.3899867331638
 21
111.4436624217327
 31
0.0
 70
   160
  3
STANDARD
100
AcDbAlignedDimension
 13
152.3899867331638
 23
64.02089231758329
 33
0.0
 14
184.3899867331638
 24
85.62585627203635
 34
0.0
 50
180.0
100
AcDbRotatedDimension
  0
DIMENSION
  5
FF
330
2
100
AcDbEntity
  8
0
100
AcDbDimension
  2
*D7
 10
181.3899867331637
 20
99.03227736965844
 30
0.0
 11
182.8899867331637
 21
99.03227736965844
 31
0.0
 70
   160
  3
STANDARD
100
AcDbAlignedDimension
 13
184.3899867331638
 23
85.02089231758326
 33
0.0
 14
181.3899867331637
 24
75.16733892698994
 34
0.0
 50
180.0
100
AcDbRotatedDimension
  0
DIMENSION
  5
10E
102
{ACAD_XDICTIONARY
360
10F
102
}
102
{ACAD_REACTORS
330
110
102
}
330
2
100
AcDbEntity
  8
0
100
AcDbDimension
  2
*D6
 10
137.8216259024883
 20
64.02089231758329
 30
0.0
 11
137.8216259024883
 21
91.93832592337775
 31
0.0
 70
   160
  1
\A1;{\f??|b0|i0|c0|p49;%%C12\H0.7x;\S+0^ -0.018;\H1.429x;(h7)}
  3
STANDARD
100
AcDbAlignedDimension
 13
152.3899867331638
 23
52.02089231758328
 33
0.0
 14
152.3899867331638
 24
64.02089231758329
 34
0.0
 50
90.0
100
AcDbRotatedDimension
  0
DIMENSION
  5
11F
102
{ACAD_XDICTIONARY
360
120
102
}
102
{ACAD_REACTORS
330
121
102
}
330
2
100
AcDbEntity
  8
0
100
AcDbDimension
  2
*D5
 10
233.8899867331638
 20
99.03227736965844
 30
0.0
 11
230.1399867331638
 21
99.03227736965844
 31
0.0
 70
   160
  3
STANDARD
100
AcDbAlignedDimension
 13
226.3899867331637
 23
85.02089231758326
 33
0.0
 14
233.8899867331638
 24
83.619629659112
 34
0.0
100
AcDbRotatedDimension
  0
DIMENSION
  5
12E
330
2
100
AcDbEntity
  8
0
100
AcDbDimension
  2
*D4
 10
331.3899867331638
 20
111.4436624217327
 30
0.0
 11
278.8899867331638
 21
111.4436624217327
 31
0.0
 70
   160
  3
STANDARD
100
AcDbAlignedDimension
 13
226.3899867331637
 23
100.120892317583
 33
0.0
 14
331.3899867331638
 24
82.02089231758327
 34
0.0
100
AcDbRotatedDimension
  0
DIMENSION
  5
13B
330
2
100
AcDbEntity
  8
0
100
AcDbDimension
  2
*D11
 10
115.3711794720475
 20
40.0208923175819
 30
0.0
 11
115.3711794720475
 21
57.77089231758328
 31
0.0
 70
   160
  1
{\f??|b0|i0|c0|p49;%%C}<>
  3
STANDARD
100
AcDbAlignedDimension
 13
181.8899867331637
 23
76.02089231758189
 33
0.0
 14
140.7823135990655
 24
40.0208923175819
 34
0.0
 50
90.0
100
AcDbRotatedDimension
  0
DIMENSION
  5
148
102
{ACAD_XDICTIONARY
360
149
102
}
102
{ACAD_REACTORS
330
14A
102
}
330
2
100
AcDbEntity
  8
0
100
AcDbDimension
  2
*D12
 10
126.2767465355572
 20
40.0208923175819
 30
0.0
 11
123.7767465355573
 21
49.02089231758193
 31
0.0
 70
    32
  3
STANDARD
100
AcDbAlignedDimension
 13
148.4918479319385
 23
58.0208923175819
 33
0.0
 14
140.7823135990655
 24
40.0208923175819
 34
0.0
 50
90.0
100
AcDbRotatedDimension
  0
ARC
  5
157
330
2
100
AcDbEntity
  8
0
100
AcDbCircle
 10
79.55691712979024
 20
-23.39526135145843
 30
0.0
 40
0.7499080000000001
100
AcDbArc
 50
272.0129819999954
 51
32.18451000000101
  0
LINE
  5
158
330
2
100
AcDbEntity
  8
CL
  6
CENTER
 48
0.6
100
AcDbLine
 10
24.72443457838744
 20
57.99949543818456
 30
0.0
 11
65.2755654216089
 21
57.99949543818456
 31
0.0
  0
LINE
  5
159
330
2
100
AcDbEntity
  8
0
100
AcDbLine
 10
90.0
 20
80.00000000000227
 30
0.0
 11
90.0
 21
0.0000000000022737
 31
0.0
  0
CIRCLE
  5
15A
330
2
100
AcDbEntity
  8
0
100
AcDbCircle
 10
81.7695526216994
 20
3.230447378301049
 30
0.0
 40
3.25
  0
LINE
  5
15B
330
2
100
AcDbEntity
  8
CL
  6
CENTER
100
AcDbLine
 10
85.48186322292895
 20
-0.4818632229289507
 30
0.0
 11
78.05724202046622
 21
6.942757979531505
 31
0.0
  0
ARC
  5
15C
330
2
100
AcDbEntity
  8
CL
  6
CENTER
100
AcDbCircle
 10
45.0
 20
40.00000000000135
 30
0.0
 40
52.0
100
AcDbArc
 50
309.2128702778046
 51
320.7871297221982
  0
ARC
  5
15D
330
2
100
AcDbEntity
  8
0
100
AcDbCircle
 10
85.0
 20
0.0000000000022737
 30
0.0
 40
5.0
100
AcDbArc
 50
270.0
 51
0.0
  0
ARC
  5
15E
330
2
100
AcDbEntity
  8
0
100
AcDbCircle
 10
85.0
 20
80.00000000000227
 30
0.0
 40
5.0
100
AcDbArc
 50
0.0000000000006488
 51
90.0000000000003
  0
ARC
  5
15F
102
{ACAD_REACTORS
330
376
102
}
330
2
100
AcDbEntity
  8
CL
  6
CENTER
100
AcDbCircle
 10
45.00000000001454
 20
40.00000000003001
 30
0.0
 40
51.99999999996308
100
AcDbArc
 50
36.36425856586086
 51
50.78712972219959
  0
LINE
  5
160
330
2
100
AcDbEntity
  8
CL
  6
CENTER
100
AcDbLine
 10
85.48186322292895
 20
80.4818632229294
 30
0.0
 11
78.05724202046622
 21
73.05724202047213
 31
0.0
  0
CIRCLE
  5
161
330
2
100
AcDbEntity
  8
0
100
AcDbCircle
 10
81.7695526216994
 20
76.7695526217026
 30
0.0
 40
3.25
  0
LINE
  5
162
330
2
100
AcDbEntity
  8
0
 48
0.6
100
AcDbLine
 10
42.86522623269775
 20
61.49798158317661
 30
0.0
 11
46.86522623269775
 21
61.49798158317661
 31
0.0
  0
LINE
  5
163
330
2
100
AcDbEntity
  8
0
 48
0.6
100
AcDbLine
 10
46.86522623269775
 20
63.70220804718428
 30
0.0
 11
46.86522623269775
 21
61.49798158317661
 31
0.0
  0
CIRCLE
  5
164
330
2
100
AcDbEntity
  8
0
 48
0.6
100
AcDbCircle
 10
45.0
 20
57.99949543818456
 30
0.0
 40
6.0
  0
LINE
  5
165
330
2
100
AcDbEntity
  8
0
 48
0.6
100
AcDbLine
 10
42.86522623269775
 20
63.60687815764004
 30
0.0
 11
42.86522623269775
 21
61.49798158317661
 31
0.0
  0
CIRCLE
  5
166
330
2
100
AcDbEntity
  8
0
 48
0.6
100
AcDbCircle
 10
45.0
 20
57.99949543818456
 30
0.0
 40
18.0
  0
LINE
  5
167
102
{ACAD_REACTORS
330
AF
102
}
330
2
100
AcDbEntity
  8
0
  6
CENTER
 62
     1
100
AcDbLine
 10
44.99938162982653
 20
39.99949543818456
 30
0.0
 11
63.6346094327273
 21
-5.000504561746764
 31
0.0
  0
ARC
  5
168
330
2
100
AcDbEntity
  8
0
100
AcDbCircle
 10
97.29784512978952
 20
9.310552648541943
 30
0.0
 40
36.555792
100
AcDbArc
 50
227.7470409999976
 51
236.3176429999981
  0
ARC
  5
169
330
2
100
AcDbEntity
  8
0
100
AcDbCircle
 10
72.00366812978973
 20
-17.97708935145873
 30
0.0
 40
0.7499080000000001
100
AcDbArc
 50
257.6612769999992
 51
17.83280500000109
  0
ARC
  5
16A
330
2
100
AcDbEntity
  8
0
100
AcDbCircle
 10
73.43142412979069
 20
-17.51778535145831
 30
0.0
 40
0.7499080000000001
100
AcDbArc
 50
77.66127699999917
 51
197.8328050000009
  0
ARC
  5
16B
330
2
100
AcDbEntity
  8
0
100
AcDbCircle
 10
78.44324012978905
 20
-19.71942335145786
 30
0.0
 40
0.7499080000000001
100
AcDbArc
 50
85.16289500000455
 51
205.3344229999992
  0
ARC
  5
16C
330
2
100
AcDbEntity
  8
0
100
AcDbCircle
 10
80.82626812977833
 20
-22.59638835145869
 30
0.0
 40
0.7499080000000001
100
AcDbArc
 50
92.01298199999559
 51
212.184510000001
  0
ARC
  5
16D
330
2
100
AcDbEntity
  8
0
100
AcDbCircle
 10
97.29784512978952
 20
9.310552648541943
 30
0.0
 40
35.255792
100
AcDbArc
 50
236.3564240000014
 51
242.0987460000029
  0
ARC
  5
16E
330
2
100
AcDbEntity
  8
0
100
AcDbCircle
 10
77.08766812978865
 20
-20.36119535145871
 30
0.0
 40
0.7499080000000001
100
AcDbArc
 50
265.1628950000044
 51
25.33442299999946
  0
ARC
  5
16F
330
2
100
AcDbEntity
  8
0
100
AcDbCircle
 10
97.29784512978952
 20
9.310552648541943
 30
0.0
 40
37.855792
100
AcDbArc
 50
235.2486590000054
 51
242.0987460000029
  0
ARC
  5
170
330
2
100
AcDbEntity
  8
0
100
AcDbCircle
 10
75.04165112978808
 20
-22.11392335145773
 30
0.0
 40
0.7499080000000001
100
AcDbArc
 50
265.1628950000044
 51
25.33442299999946
  0
ARC
  5
171
330
2
100
AcDbEntity
  8
0
100
AcDbCircle
 10
76.39722412978881
 20
-21.47215035145837
 30
0.0
 40
0.7499080000000001
100
AcDbArc
 50
85.16289500000455
 51
205.3344229999992
  0
ARC
  5
172
330
2
100
AcDbEntity
  8
0
 48
0.6
100
AcDbCircle
 10
97.29784512978952
 20
9.310552648541943
 30
0.0
 40
35.255792
100
AcDbArc
 50
203.9479409999999
 51
227.7470409999976
  0
ARC
  5
173
330
2
100
AcDbEntity
  8
0
100
AcDbCircle
 10
97.29784512978952
 20
9.310552648541943
 30
0.0
 40
33.95579199999998
100
AcDbArc
 50
204.9259499999998
 51
236.3981230000006
  0
ARC
  5
174
330
2
100
AcDbEntity
  8
0
100
AcDbCircle
 10
97.29784512978952
 20
9.310552648541943
 30
0.0
 40
37.855792
100
AcDbArc
 50
202.2115912309426
 51
227.7470409999976
  0
ARC
  5
175
330
2
100
AcDbEntity
  8
0
100
AcDbCircle
 10
97.29784512978952
 20
9.310552648541943
 30
0.0
 40
39.15579199999999
100
AcDbArc
 50
201.436958999997
 51
235.2486590000054
  0
LINE
  5
176
102
{ACAD_REACTORS
330
14A
102
}
330
2
100
AcDbEntity
  8
CEN
  6
HIDDEN
 62
     2
100
AcDbLine
 10
177.3899867331637
 20
61.5208923175819
 30
0.0
 11
152.3899867331638
 21
61.5208923175819
 31
0.0
  0
LINE
  5
179
102
{ACAD_REACTORS
330
14A
102
}
330
2
100
AcDbEntity
  8
CEN
  6
BYBLOCK
 62
     0
100
AcDbLine
 10
181.3899867331637
 20
64.02089231758189
 30
0.0
 11
152.3899867331638
 21
64.02089231758189
 31
0.0
  0
LINE
  5
17A
102
{ACAD_REACTORS
330
14A
330
110
102
}
330
2
100
AcDbEntity
  8
CEN
  6
BYBLOCK
 62
     0
100
AcDbLine
 10
181.3899867331637
 20
52.0208923175819
 30
0.0
 11
152.3899867331638
 21
52.0208923175819
 31
0.0
  0
LINE
  5
17B
102
{ACAD_REACTORS
330
14A
102
}
330
2
100
AcDbEntity
  8
CEN
 48
0.6
100
AcDbLine
 10
195.0353887381861
 20
58.0208923175819
 30
0.0
 11
148.4918479319385
 21
58.0208923175819
 31
0.0
  0
LINE
  5
17C
330
2
100
AcDbEntity
  8
0
100
AcDbLine
 10
152.3899867331638
 20
64.02089231758189
 30
0.0
 11
152.3899867331638
 21
52.0208923175819
 31
0.0
  0
LINE
  5
17D
330
2
100
AcDbEntity
  8
0
100
AcDbLine
 10
184.3899867331638
 20
85.02089231758189
 30
0.0
 11
184.3899867331638
 21
-4.979107682418089
 31
0.0
  0
ARC
  5
17E
330
2
100
AcDbEntity
  8
0
100
AcDbCircle
 10
184.8899867331637
 20
-4.979107682418089
 30
0.0
 40
0.5
100
AcDbArc
 50
180.0
 51
270.0
  0
LINE
  5
17F
330
2
100
AcDbEntity
  8
0
100
AcDbLine
 10
181.3899867331637
 20
75.52089231758145
 30
0.0
 11
181.3899867331637
 21
40.5208923175819
 31
0.0
  0
LINE
  5
180
330
2
100
AcDbEntity
  8
0
100
AcDbLine
 10
181.8899867331637
 20
40.0208923175819
 30
0.0
 11
184.3899867331638
 21
40.0208923175819
 31
0.0
  0
ARC
  5
181
330
2
100
AcDbEntity
  8
0
100
AcDbCircle
 10
181.8899867331637
 20
40.5208923175819
 30
0.0
 40
0.5
100
AcDbArc
 50
180.0
 51
270.0
  0
LINE
  5
182
330
2
100
AcDbEntity
  8
0
  6
HIDDEN
 62
     2
100
AcDbLine
 10
177.3899867331637
 20
64.02089231758189
 30
0.0
 11
177.3899867331637
 21
61.5208923175819
 31
0.0
  0
LINE
  5
183
330
2
100
AcDbEntity
  8
0
100
AcDbLine
 10
181.8899867331637
 20
76.02089231758189
 30
0.0
 11
184.3899867331638
 21
76.02089231758189
 31
0.0
  0
ARC
  5
184
330
2
100
AcDbEntity
  8
0
100
AcDbCircle
 10
184.8899867331637
 20
85.02089231758189
 30
0.0
 40
0.5
100
AcDbArc
 50
90.0
 51
180.0
  0
ARC
  5
185
330
2
100
AcDbEntity
  8
0
100
AcDbCircle
 10
181.8899867331637
 20
75.52089231758145
 30
0.0
 40
0.5
100
AcDbArc
 50
90.0
 51
180.0
  0
DIMENSION
  5
186
330
2
100
AcDbEntity
  8
0
100
AcDbDimension
  2
*D10
 10
152.3899867331638
 20
80.89671218013839
 30
0.0
 11
164.8899867331638
 21
80.89671218013839
 31
0.0
 70
   160
  3
STANDARD
100
AcDbAlignedDimension
 13
177.3899867331637
 23
64.02089231758329
 33
0.0
 14
152.3899867331638
 24
63.02089231758327
 34
0.0
 50
180.0
100
AcDbRotatedDimension
  0
ARC
  5
193
330
2
100
AcDbEntity
  8
0
100
AcDbCircle
 10
274.6927087331641
 20
-5.567753682417786
 30
0.0
 40
37.855792
100
AcDbArc
 50
212.7486590000019
 51
219.5987459999965
  0
ARC
  5
194
330
2
100
AcDbEntity
  8
0
100
AcDbCircle
 10
274.6927087331641
 20
-5.567753682417786
 30
0.0
 40
35.255792
100
AcDbArc
 50
213.8564239999993
 51
219.5987459999965
  0
LINE
  5
195
330
2
100
AcDbEntity
  8
0
 62
   123
100
AcDbLine
 10
245.6636849824062
 20
-39.20226160157744
 30
0.0
 11
318.8313229278573
 21
-39.20226160157744
 31
0.0
  0
ARC
  5
196
330
2
100
AcDbEntity
  8
0
100
AcDbCircle
 10
247.2646977331641
 20
-28.74252368241559
 30
0.0
 40
0.7499080000000001
100
AcDbArc
 50
69.51298200000024
 51
189.6845099999992
  0
ARC
  5
197
330
2
100
AcDbEntity
  8
0
100
AcDbCircle
 10
245.7862557331644
 20
-28.99482668241671
 30
0.0
 40
0.7499080000000001
100
AcDbArc
 50
249.5129820000002
 51
9.684509999999278
  0
LINE
  5
198
330
2
100
AcDbEntity
  8
0
100
AcDbLine
 10
243.3899867331637
 20
-4.479107682418089
 30
0.0
 11
243.3899867331637
 21
-4.979107682418089
 31
0.0
  0
ARC
  5
199
330
2
100
AcDbEntity
  8
0
100
AcDbCircle
 10
246.1640347331667
 20
-25.17260868241555
 30
0.0
 40
0.7499080000000001
100
AcDbArc
 50
62.66289500000094
 51
182.8344229999968
  0
ARC
  5
19A
330
2
100
AcDbEntity
  8
0
100
AcDbCircle
 10
244.666052733166
 20
-25.24677468241816
 30
0.0
 40
0.7499080000000001
100
AcDbArc
 50
242.6628950000009
 51
2.834422999996808
  0
ARC
  5
19B
330
2
100
AcDbEntity
  8
0
100
AcDbCircle
 10
240.8814077331661
 20
-21.09858568241543
 30
0.0
 40
0.7499080000000001
100
AcDbArc
 50
235.1612770000011
 51
355.3328050000017
  0
ARC
  5
19C
330
2
100
AcDbEntity
  8
0
100
AcDbCircle
 10
242.3762507331665
 20
-21.22062268241687
 30
0.0
 40
0.7499080000000001
100
AcDbArc
 50
55.16127700000104
 51
175.3328050000016
  0
ARC
  5
19D
330
2
100
AcDbEntity
  8
0
100
AcDbCircle
 10
243.6030217331644
 20
-26.00894168241666
 30
0.0
 40
0.7499080000000001
100
AcDbArc
 50
62.66289500000094
 51
182.8344229999968
  0
ARC
  5
19E
330
2
100
AcDbEntity
  8
0
100
AcDbCircle
 10
274.6927087331641
 20
-5.567753682417786
 30
0.0
 40
36.555792
100
AcDbArc
 50
205.2470409999969
 51
213.8176429999978
  0
ARC
  5
19F
330
2
100
AcDbEntity
  8
0
100
AcDbCircle
 10
242.8899867331637
 20
-4.979107682418089
 30
0.0
 40
0.5
100
AcDbArc
 50
270.0
 51
0.0
  0
ARC
  5
1A0
330
2
100
AcDbEntity
  8
0
100
AcDbCircle
 10
242.1050407331639
 20
-26.08310768241699
 30
0.0
 40
0.7499080000000001
100
AcDbArc
 50
242.6628950000009
 51
2.834422999996808
  0
LINE
  5
1A1
330
2
100
AcDbEntity
  8
0
100
AcDbLine
 10
331.3899867331638
 20
82.02089231758192
 30
0.0
 11
331.3899867331638
 21
-1.979107682418089
 31
0.0
  0
LINE
  5
1A2
330
2
100
AcDbEntity
  8
0
100
AcDbLine
 10
330.3899867331638
 20
83.0208923175819
 30
0.0
 11
330.3899867331638
 21
-2.979107682418089
 31
0.0
  0
LINE
  5
1A3
102
{ACAD_REACTORS
330
1AA
102
}
330
2
100
AcDbEntity
  8
0
100
AcDbLine
 10
324.3899867331638
 20
-4.479107682418089
 30
0.0
 11
324.3899867331638
 21
84.52089231758462
 31
0.0
  0
LINE
  5
1A4
330
2
100
AcDbEntity
  8
0
100
AcDbLine
 10
330.3899867331638
 20
-2.979107682418089
 30
0.0
 11
324.3899867331638
 21
-2.979107682418089
 31
0.0
  0
LINE
  5
1A5
330
2
100
AcDbEntity
  8
0
100
AcDbLine
 10
331.3899867331638
 20
-1.979107682418089
 30
0.0
 11
330.3899867331638
 21
-2.979107682418089
 31
0.0
  0
LINE
  5
1A6
330
2
100
AcDbEntity
  8
0
100
AcDbLine
 10
330.3899867331638
 20
83.0208923175819
 30
0.0
 11
324.3899867331638
 21
83.0208923175819
 31
0.0
  0
LINE
  5
1A7
330
2
100
AcDbEntity
  8
0
100
AcDbLine
 10
331.3899867331638
 20
82.02089231758192
 30
0.0
 11
330.3899867331638
 21
83.0208923175819
 31
0.0
  0
DIMENSION
  5
1A8
102
{ACAD_XDICTIONARY
360
1A9
102
}
102
{ACAD_REACTORS
330
1AA
102
}
330
2
100
AcDbEntity
  8
0
100
AcDbDimension
  2
*D14
 10
348.7550634958497
 20
-4.479107682416731
 30
0.0
 11
348.7550634958497
 21
40.52089231758509
 31
0.0
 70
   160
  1
%%C<>
  3
STANDARD
100
AcDbAlignedDimension
 13
324.3899867331638
 23
84.52089231758462
 33
0.0
 14
324.3899867331638
 24
-4.479107682416723
 34
0.0
 50
90.0
100
AcDbRotatedDimension
  0
LINE
  5
1B7
330
2
100
AcDbEntity
  8
0
100
AcDbLine
 10
232.9899867331659
 20
-5.479107682418089
 30
0.0
 11
184.8899867331637
 21
-5.479107682418089
 31
0.0
  0
LINE
  5
1B8
330
2
100
AcDbEntity
  8
0
100
AcDbLine
 10
232.9899867331659
 20
85.52089231758463
 30
0.0
 11
184.8899867331637
 21
85.5208923175819
 31
0.0
  0
LINE
  5
1B9
330
2
100
AcDbEntity
  8
0
100
AcDbLine
 10
232.9899867331659
 20
85.52089231758463
 30
0.0
 11
232.9899867331659
 21
-5.479107682418089
 31
0.0
  0
LINE
  5
1BA
330
2
100
AcDbEntity
  8
0
100
AcDbLine
 10
233.8899867331638
 20
4.122154976052569
 30
0.0
 11
233.8899867331638
 21
-3.577845023945883
 31
0.0
  0
ARC
  5
1BB
330
2
100
AcDbEntity
  8
0
100
AcDbCircle
 10
233.8899867331638
 20
-4.979107682418089
 30
0.0
 40
0.5
100
AcDbArc
 50
180.0
 51
270.0
  0
LINE
  5
1BC
330
2
100
AcDbEntity
  8
0
100
AcDbLine
 10
232.9899867331659
 20
-3.577845023945883
 30
0.0
 11
233.8899867331638
 21
-3.577845023945883
 31
0.0
  0
LINE
  5
1BD
330
2
100
AcDbEntity
  8
0
100
AcDbLine
 10
233.3899867331637
 20
-4.479107682418089
 30
0.0
 11
233.3899867331637
 21
-4.979107682418089
 31
0.0
  0
LINE
  5
1BE
330
2
100
AcDbEntity
  8
0
100
AcDbLine
 10
232.9899867331659
 20
4.122154976052569
 30
0.0
 11
233.8899867331638
 21
4.122154976052569
 31
0.0
  0
LINE
  5
1BF
330
2
100
AcDbEntity
  8
0
100
AcDbLine
 10
232.9899867331659
 20
83.619629659112
 30
0.0
 11
233.8899867331638
 21
83.619629659112
 31
0.0
  0
LINE
  5
1C0
330
2
100
AcDbEntity
  8
0
100
AcDbLine
 10
232.9899867331659
 20
75.91962965911216
 30
0.0
 11
233.8899867331638
 21
75.91962965911216
 31
0.0
  0
LINE
  5
1C1
102
{ACAD_REACTORS
330
121
102
}
330
2
100
AcDbEntity
  8
0
100
AcDbLine
 10
233.8899867331638
 20
75.91962965911216
 30
0.0
 11
233.8899867331638
 21
83.619629659112
 31
0.0
  0
ARC
  5
1C2
330
2
100
AcDbEntity
  8
0
100
AcDbCircle
 10
274.6927087331641
 20
-5.567753682417786
 30
0.0
 40
39.15579199999999
100
AcDbArc
 50
179.8702869999971
 51
212.7486590000019
  0
LINE
  5
1C3
102
{ACAD_REACTORS
330
14A
102
}
330
2
100
AcDbEntity
  8
CEN
 48
0.6
100
AcDbLine
 10
140.7823135990655
 20
40.0208923175819
 30
0.0
 11
336.8546185274789
 21
40.0208923175819
 31
0.0
  0
LINE
  5
1C4
330
2
100
AcDbEntity
  8
0
100
AcDbLine
 10
324.3899867331638
 20
84.52089231758462
 30
0.0
 11
232.9899867331659
 21
84.52089231758462
 31
0.0
  0
LINE
  5
1C5
330
2
100
AcDbEntity
  8
0
100
AcDbLine
 10
324.3899867331638
 20
-4.479107682418089
 30
0.0
 11
232.9899867331659
 21
-4.479107682418089
 31
0.0
  0
LINE
  5
1C6
330
2
100
AcDbEntity
  8
0
100
AcDbLine
 10
242.8899867331637
 20
-5.479107682418089
 30
0.0
 11
233.8899867331638
 21
-5.479107682418089
 31
0.0
  0
ARC
  5
1C7
330
2
100
AcDbEntity
  8
0
100
AcDbCircle
 10
274.6927087331641
 20
-5.567753682417786
 30
0.0
 40
35.255792
100
AcDbArc
 50
179.8559380000023
 51
205.2470409999969
  0
ARC
  5
1C8
330
2
100
AcDbEntity
  8
0
100
AcDbCircle
 10
274.6927087331641
 20
-5.567753682417786
 30
0.0
 40
37.855792
100
AcDbArc
 50
179.8658329999985
 51
205.2470409999969
  0
ARC
  5
1C9
330
2
100
AcDbEntity
  8
0
100
AcDbCircle
 10
274.6927087331641
 20
-5.567753682417786
 30
0.0
 40
33.95579199999998
100
AcDbArc
 50
179.8504230000004
 51
213.8981229999992
  0
POLYLINE
  5
1CA
330
2
100
AcDbEntity
  8
3
100
AcDb2dPolyline
 66
     1
 10
0.0
 20
0.0
 30
0.0
 70
     1
  0
VERTEX
  5
596
330
1CA
100
AcDbEntity
  8
3
100
AcDbVertex
100
AcDb2dVertex
 10
37.86216820958725
 20
98.33701769665552
 30
0.0
  0
VERTEX
  5
597
330
1CA
100
AcDbEntity
  8
3
100
AcDbVertex
100
AcDb2dVertex
 10
41.16216820959015
 20
98.33701769665552
 30
0.0
  0
VERTEX
  5
598
330
1CA
100
AcDbEntity
  8
3
100
AcDbVertex
100
AcDb2dVertex
 10
41.16216820959015
 20
101.8370176966554
 30
0.0
  0
VERTEX
  5
599
330
1CA
100
AcDbEntity
  8
3
100
AcDbVertex
100
AcDb2dVertex
 10
37.86216820958725
 20
101.8370176966554
 30
0.0
  0
SEQEND
  5
59A
330
1CA
100
AcDbEntity
  8
3
  0
ARC
  5
1CC
330
2
100
AcDbEntity
  8
0
100
AcDbCircle
 10
122.2811276394568
 20
228.9978865461353
 30
0.0
 40
5.0
100
AcDbArc
 50
270.0
 51
0.0
  0
ARC
  5
1CD
330
2
100
AcDbEntity
  8
CL
  6
CENTER
100
AcDbCircle
 10
82.35659195363769
 20
268.9983911078043
 30
0.0
 40
52.0
100
AcDbArc
 50
309.2128702778046
 51
320.7871297221982
  0
LINE
  5
1CE
330
2
100
AcDbEntity
  8
CL
  6
CENTER
100
AcDbLine
 10
122.8384551765665
 20
228.5165278848729
 30
0.0
 11
115.4138339741183
 21
235.941149087332
 31
0.0
  0
CIRCLE
  5
1CF
330
2
100
AcDbEntity
  8
0
100
AcDbCircle
 10
119.126144575348
 20
232.2288384861043
 30
0.0
 40
3.25
  0
LINE
  5
1D0
330
2
100
AcDbEntity
  8
0
  6
CENTER
 62
     1
 48
0.4
100
AcDbLine
 10
60.83938423472864
 20
163.0901887227255
 30
0.0
 11
60.83938423472864
 21
155.0901887227255
 31
0.0
  0
LINE
  5
1D1
330
2
100
AcDbEntity
  8
0
  6
CENTER
 62
     1
 48
0.4
100
AcDbLine
 10
56.83938423472864
 20
159.0901887227255
 30
0.0
 11
64.83938423472864
 21
159.0901887227255
 31
0.0
  0
POLYLINE
  5
1D2
330
2
100
AcDbEntity
  8
0
100
AcDb2dPolyline
 66
     1
 10
0.0
 20
0.0
 30
0.0
 70
     1
 40
1.5
 41
1.5
  0
VERTEX
  5
59B
330
1D2
100
AcDbEntity
  8
0
100
AcDbVertex
100
AcDb2dVertex
 10
86.2197443523655
 20
189.6612323695289
 30
0.0
 42
1.0
  0
VERTEX
  5
59C
330
1D2
100
AcDbEntity
  8
0
100
AcDbVertex
100
AcDb2dVertex
 10
87.7197443523655
 20
189.6612323695289
 30
0.0
 42
1.0
  0
SEQEND
  5
59D
330
1D2
100
AcDbEntity
  8
0
  0
LINE
  5
1D3
330
2
100
AcDbEntity
  8
0
  6
CENTER
 62
     1
 48
0.4
100
AcDbLine
 10
97.16512465850613
 20
157.4898934357283
 30
0.0
 11
114.0986192046584
 21
157.4898934357283
 31
0.0
  0
LINE
  5
1D4
102
{ACAD_REACTORS
330
1EE
102
}
330
2
100
AcDbEntity
  8
0
100
AcDbLine
 10
62.83938423472864
 20
161.0901887227255
 30
0.0
 11
62.83938423472864
 21
157.0901887227255
 31
0.0
  0
LINE
  5
1D5
102
{ACAD_REACTORS
330
1EE
102
}
330
2
100
AcDbEntity
  8
0
100
AcDbLine
 10
58.83938423472864
 20
161.0901887227255
 30
0.0
 11
58.83938423472864
 21
157.0901887227255
 31
0.0
  0
LINE
  5
1D6
330
2
100
AcDbEntity
  8
0
 48
0.2
100
AcDbLine
 10
58.83938423472864
 20
157.0901887227255
 30
0.0
 11
62.83938423472864
 21
157.0901887227255
 31
0.0
  0
LINE
  5
1D7
330
2
100
AcDbEntity
  8
0
 48
0.2
100
AcDbLine
 10
58.83938423472864
 20
161.0901887227255
 30
0.0
 11
62.83938423472864
 21
161.0901887227255
 31
0.0
  0
LINE
  5
1D8
102
{ACAD_REACTORS
330
1FF
102
}
330
2
100
AcDbEntity
  8
0
100
AcDbLine
 10
103.772763975281
 20
159.9898934357288
 30
0.0
 11
107.772763975281
 21
159.9898934357288
 31
0.0
  0
LINE
  5
1D9
102
{ACAD_REACTORS
330
1DD
102
}
330
2
100
AcDbEntity
  8
0
100
AcDbLine
 10
103.772763975281
 20
159.9898934357288
 30
0.0
 11
103.772763975281
 21
162.072469130685
 31
0.0
  0
LINE
  5
1DA
102
{ACAD_REACTORS
330
1DD
102
}
330
2
100
AcDbEntity
  8
0
100
AcDbLine
 10
107.772763975281
 20
159.9898934357288
 30
0.0
 11
107.772763975281
 21
162.072469130685
 31
0.0
  0
DIMENSION
  5
1DB
102
{ACAD_XDICTIONARY
360
1DC
102
}
102
{ACAD_REACTORS
330
1DD
102
}
330
2
100
AcDbEntity
  8
0
100
AcDbDimension
  2
*D19
 10
107.772763975281
 20
170.83148167566
 30
0.0
 11
105.772763975281
 21
174.2814816756601
 31
0.0
 70
    32
  1
\A1;<>{\f??|b0|i0|c0|p49;\H0.7x;\S+0.40^ -0;}
  3
STANDARD
100
AcDbAlignedDimension
 13
103.772763975281
 23
162.072469130685
 33
0.0
 14
107.772763975281
 24
162.072469130685
 34
0.0
100
AcDbRotatedDimension
  0
DIMENSION
  5
1EC
102
{ACAD_XDICTIONARY
360
1ED
102
}
102
{ACAD_REACTORS
330
1EE
102
}
330
2
100
AcDbEntity
  8
0
100
AcDbDimension
  2
*D18
 10
62.83938423472864
 20
169.7646643813576
 30
0.0
 11
60.83938423472864
 21
173.2146643813576
 31
0.0
 70
    32
  1
\A1;<>{\f??|b0|i0|c0|p49;\H0.7x;\S+0^ -0.03;}
  3
STANDARD
100
AcDbAlignedDimension
 13
58.83938423472864
 23
161.0901887227255
 33
0.0
 14
62.83938423472864
 24
161.0901887227255
 34
0.0
100
AcDbRotatedDimension
  0
DIMENSION
  5
1FD
102
{ACAD_XDICTIONARY
360
1FE
102
}
102
{ACAD_REACTORS
330
1FF
102
}
330
2
100
AcDbEntity
  8
0
100
AcDbDimension
  2
*D17
 10
123.2700964694559
 20
162.4898934357288
 30
0.0
 11
123.2700964694559
 21
178.6970362928723
 31
0.0
 70
   160
  1
\A1;<>{\f??|b0|i0|c0|p49;\H0.7x;\S+0.1^ -0;\H1.429x; }
  3
STANDARD
100
AcDbAlignedDimension
 13
107.772763975281
 23
159.9898934357288
 33
0.0
 14
105.772763975281
 24
162.4898934357288
 34
0.0
 50
90.0
100
AcDbRotatedDimension
  0
CIRCLE
  5
20E
330
2
100
AcDbEntity
  8
0
100
AcDbCircle
 10
86.96974435236553
 20
189.6612323695289
 30
0.0
 40
1.5
  0
LINE
  5
20F
330
2
100
AcDbEntity
  8
0
  6
CENTER
 62
     1
 48
0.4
100
AcDbLine
 10
105.772763975281
 20
167.4616580789455
 30
0.0
 11
105.772763975281
 21
146.8328998561691
 31
0.0
  0
CIRCLE
  5
210
102
{ACAD_REACTORS
330
1FF
102
}
330
2
100
AcDbEntity
  8
0
100
AcDbCircle
 10
105.772763975281
 20
157.4898934357283
 30
0.0
 40
5.0
  0
ARC
  5
211
330
2
100
AcDbEntity
  8
0
100
AcDbCircle
 10
42.28112763945683
 20
228.9978865461353
 30
0.0
 40
5.0
100
AcDbArc
 50
180.0
 51
270.0
  0
LINE
  5
212
330
2
100
AcDbEntity
  8
CL
  6
CENTER
100
AcDbLine
 10
41.87472873071601
 20
228.5165278848729
 30
0.0
 11
49.29934993316418
 21
235.941149087332
 31
0.0
  0
CIRCLE
  5
213
330
2
100
AcDbEntity
  8
0
100
AcDbCircle
 10
45.58703933194556
 20
232.2288384861029
 30
0.0
 40
3.25
  0
ARC
  5
214
330
2
100
AcDbEntity
  8
CL
  6
CENTER
100
AcDbCircle
 10
82.35659195363769
 20
268.9983911078043
 30
0.0
 40
52.0
100
AcDbArc
 50
217.5220799114929
 51
230.7871297221982
  0
LINE
  5
215
330
2
100
AcDbEntity
  8
0
  6
CENTER
 62
     1
 48
0.4
100
AcDbLine
 10
10.98184463130746
 20
159.0901887227255
 30
0.0
 11
46.48759826034802
 21
159.0901887227255
 31
0.0
  0
LINE
  5
216
330
2
100
AcDbEntity
  8
0
100
AcDbLine
 10
41.66873094801849
 20
161.0901887227255
 30
0.0
 11
41.66873094801849
 21
157.0901887227255
 31
0.0
  0
ARC
  5
217
102
{ACAD_REACTORS
330
21C
102
}
330
2
100
AcDbEntity
  8
0
100
AcDbCircle
 10
18.66873094801849
 20
159.0901887227255
 30
0.0
 40
2.0
100
AcDbArc
 50
90.0
 51
270.0
  0
LINE
  5
218
330
2
100
AcDbEntity
  8
0
 48
0.2
100
AcDbLine
 10
18.66873094801849
 20
157.0901887227255
 30
0.0
 11
41.66873094801849
 21
157.0901887227255
 31
0.0
  0
LINE
  5
219
102
{ACAD_REACTORS
330
21C
102
}
330
2
100
AcDbEntity
  8
0
 48
0.2
100
AcDbLine
 10
18.66873094801849
 20
161.0901887227255
 30
0.0
 11
41.66873094801849
 21
161.0901887227255
 31
0.0
  0
DIMENSION
  5
21A
102
{ACAD_XDICTIONARY
360
21B
102
}
102
{ACAD_REACTORS
330
21C
102
}
330
2
100
AcDbEntity
  8
0
100
AcDbDimension
  2
*D16
 10
41.66873094801849
 20
168.8953827032014
 30
0.0
 11
29.16873094801848
 21
171.3953827032014
 31
0.0
 70
    32
  1
<>{\f??|b0|i0|c0|p49;%%p0.2}
  3
STANDARD
100
AcDbAlignedDimension
 13
16.66873094801849
 23
159.0901887227255
 33
0.0
 14
41.66873094801849
 24
161.0901887227255
 34
0.0
100
AcDbRotatedDimension
  0
CIRCLE
  5
229
330
2
100
AcDbEntity
  8
0
100
AcDbCircle
 10
22.44511712773963
 20
189.4459164535278
 30
0.0
 40
1.5
  0
POLYLINE
  5
22A
330
2
100
AcDbEntity
  8
0
100
AcDb2dPolyline
 66
     1
 10
0.0
 20
0.0
 30
0.0
 70
     1
 40
1.5
 41
1.5
  0
VERTEX
  5
59E
330
22A
100
AcDbEntity
  8
0
100
AcDbVertex
100
AcDb2dVertex
 10
21.69511712773965
 20
189.4459164535278
 30
0.0
 42
1.0
  0
VERTEX
  5
59F
330
22A
100
AcDbEntity
  8
0
100
AcDbVertex
100
AcDb2dVertex
 10
23.19511712773965
 20
189.4459164535278
 30
0.0
 42
1.0
  0
SEQEND
  5
5A0
330
22A
100
AcDbEntity
  8
0
  0
DIMENSION
  5
22B
330
2
100
AcDbEntity
  8
0
100
AcDbDimension
  2
*D15
 10
49.83778610347875
 20
161.0901887227255
 30
0.0
 11
49.83778610347872
 21
175.9396505168159
 31
0.0
 70
   160
  1
\A1;<>{\f??|b0|i0|c0|p49;\H0.7x;\S+0^ -0.03;}
  3
STANDARD
100
AcDbAlignedDimension
 13
41.66873094801849
 23
157.0901887227255
 33
0.0
 14
41.66873094801849
 24
161.0901887227255
 34
0.0
 50
90.0
100
AcDbRotatedDimension
  0
LINE
  5
23A
330
2
100
AcDbEntity
  8
0
100
AcDbLine
 10
42.28112763945683
 20
223.9978865461353
 30
0.0
 11
122.2811276394568
 21
223.9978865461353
 31
0.0
  0
LINE
  5
23B
330
2
100
AcDbEntity
  8
0
100
AcDbLine
 10
271.4207416115786
 20
224.0192834254639
 30
0.0
 11
230.9207416115786
 21
224.0192834254639
 31
0.0
  0
LINE
  5
23C
330
2
100
AcDbEntity
  8
0
100
AcDbLine
 10
271.4207416115786
 20
224.5192834254635
 30
0.0
 11
271.4207416115786
 21
224.0192834254639
 31
0.0
  0
LINE
  5
23D
330
2
100
AcDbEntity
  8
0
100
AcDbLine
 10
272.4207416115786
 20
224.5192834254635
 30
0.0
 11
271.4207416115786
 21
224.5192834254635
 31
0.0
  0
ARC
  5
23E
330
2
100
AcDbEntity
  8
0
100
AcDbCircle
 10
230.9207416115786
 20
224.5192834254635
 30
0.0
 40
0.5
100
AcDbArc
 50
180.0
 51
270.0
  0
DIMENSION
  5
23F
330
2
100
AcDbEntity
  8
0
100
AcDbDimension
  2
*D20
 10
230.4207416115786
 20
208.0137302138454
 30
0.0
 11
251.4207416115787
 21
210.5137302138454
 31
0.0
 70
    32
  1
L
  3
STANDARD
100
AcDbAlignedDimension
 13
272.4207416115786
 23
224.5192834254635
 33
0.0
 14
230.4207416115786
 24
224.5192834254635
 34
0.0
 50
180.0
100
AcDbRotatedDimension
  0
TEXT
  5
24C
330
2
100
AcDbEntity
  8
1
  6
BYBLOCK
 62
     0
100
AcDbText
 10
238.8057933650379
 20
176.4096804316745
 30
0.0
 40
4.589999999999998
  1
APPLICATION MODEL
 41
0.8
  7
GHS
100
AcDbText
  0
LINE
  5
24F
330
2
100
AcDbEntity
  8
1
  6
BYBLOCK
 62
     0
100
AcDbLine
 10
295.4247599226582
 20
183.7974072732113
 30
0.0
 11
182.6710296586169
 21
183.7974072732113
 31
0.0
  0
LINE
  5
250
330
2
100
AcDbEntity
  8
1
  6
BYBLOCK
 62
     0
100
AcDbLine
 10
295.4247599226582
 20
174.6174072732114
 30
0.0
 11
182.6710296586169
 21
174.6174072732114
 31
0.0
  0
LINE
  5
251
330
2
100
AcDbEntity
  8
1
  6
BYBLOCK
 62
     0
100
AcDbLine
 10
295.4247599226582
 20
165.4374072732101
 30
0.0
 11
182.6710296586169
 21
165.4374072732101
 31
0.0
  0
LINE
  5
252
330
2
100
AcDbEntity
  8
1
  6
BYBLOCK
 62
     0
100
AcDbLine
 10
295.4247599226582
 20
156.25740727321
 30
0.0
 11
182.6710296586169
 21
156.25740727321
 31
0.0
  0
TEXT
  5
253
330
2
100
AcDbEntity
  8
1
  6
BYBLOCK
 62
     0
100
AcDbText
 10
191.1102833586483
 20
158.3689966571004
 30
0.0
 40
4.589999999999998
  1
02
 41
0.8
  7
GHS
100
AcDbText
  0
TEXT
  5
254
330
2
100
AcDbEntity
  8
1
  6
BYBLOCK
 62
     0
100
AcDbText
 10
191.1102833586483
 20
167.5489966571011
 30
0.0
 40
4.589999999999998
  1
01
 41
0.8
  7
GHS
100
AcDbText
  0
TEXT
  5
255
330
2
100
AcDbEntity
  8
1
  6
BYBLOCK
 62
     0
100
AcDbText
 10
190.2321548189866
 20
176.7862199991823
 30
0.0
 40
4.589999999999998
  1
NO.
 41
0.8
  7
GHS
100
AcDbText
  0
TEXT
  5
256
330
2
100
AcDbEntity
  8
1
  6
BYBLOCK
 62
     0
100
AcDbText
 10
242.9190762525977
 20
167.6157858882693
 30
0.0
 40
4.589999999999998
  1
K9G3~18B(C)
 41
0.8
  7
GHS
100
AcDbText
  0
TEXT
  5
257
330
2
100
AcDbEntity
  8
1
  6
BYBLOCK
 62
     0
100
AcDbText
 10
216.2108621078477
 20
167.6044922303521
 30
0.0
 40
4.589999999999998
  1
42
 41
0.8
  7
GHS
100
AcDbText
  0
LINE
  5
258
330
2
100
AcDbEntity
  8
1
  6
BYBLOCK
 62
     0
100
AcDbLine
 10
181.9007630880878
 20
188.2090961494176
 30
0.0
 11
231.5662009003061
 21
188.2090961494176
 31
0.0
  0
LINE
  5
259
330
2
100
AcDbEntity
  8
1
  6
BYBLOCK
 62
     0
100
AcDbLine
 10
181.9007630880878
 20
187.4800641884211
 30
0.0
 11
231.5662009003061
 21
187.4800641884211
 31
0.0
  0
LINE
  5
25A
330
2
100
AcDbEntity
  8
1
  6
BYBLOCK
 62
     0
100
AcDbLine
 10
181.9007630880878
 20
187.2550641884231
 30
0.0
 11
231.5662009003061
 21
187.2550641884231
 31
0.0
  0
TEXT
  5
25B
330
2
100
AcDbEntity
  8
1
 62
     0
100
AcDbText
 10
182.5627535823004
 20
189.3048460601788
 30
0.0
 40
4.589999999999998
  1
DIMENSION TABLE
 41
0.8
  7
GHS
100
AcDbText
  0
TEXT
  5
25C
330
2
100
AcDbEntity
  8
1
  6
BYBLOCK
 62
     0
100
AcDbText
 10
218.059662913558
 20
176.6180220862364
 30
0.0
 40
4.589999999999998
  1
L
 41
0.8
  7
GHS
100
AcDbText
  0
TEXT
  5
25D
330
2
100
AcDbEntity
  8
1
  6
BYBLOCK
 62
     0
100
AcDbText
 10
242.8115660753683
 20
158.8726437502164
 30
0.0
 40
4.589999999999998
  1
K9G25~180B(C)
 41
0.8
  7
GHS
100
AcDbText
  0
TEXT
  5
25E
330
2
100
AcDbEntity
  8
1
  6
BYBLOCK
 62
     0
100
AcDbText
 10
216.2108621078477
 20
158.4244922303523
 30
0.0
 40
4.589999999999998
  1
60
 41
0.8
  7
GHS
100
AcDbText
  0
LINE
  5
25F
330
2
100
AcDbEntity
  8
1
  6
BYBLOCK
 62
     0
100
AcDbLine
 10
236.1808468421368
 20
183.7974072732113
 30
0.0
 11
236.1808468421368
 21
156.25740727321
 31
0.0
  0
LINE
  5
260
330
2
100
AcDbEntity
  8
1
  6
BYBLOCK
 62
     0
100
AcDbLine
 10
206.4878128565469
 20
183.7974072732113
 30
0.0
 11
206.4878128565469
 21
156.25740727321
 31
0.0
  0
LINE
  5
261
330
2
100
AcDbEntity
  8
1
  6
BYBLOCK
 62
     0
100
AcDbLine
 10
182.6710296586169
 20
183.7974072732113
 30
0.0
 11
182.6710296586169
 21
156.25740727321
 31
0.0
  0
LINE
  5
262
330
2
100
AcDbEntity
  8
1
  6
BYBLOCK
 62
     0
100
AcDbLine
 10
295.4247599226582
 20
183.7974072732113
 30
0.0
 11
295.4247599226582
 21
156.25740727321
 31
0.0
  0
CIRCLE
  5
263
330
2
100
AcDbEntity
  8
0
100
AcDbCircle
 10
98.91740475261759
 20
409.9900114671839
 30
0.0
 40
42.00000000000005
  0
LINE
  5
264
330
2
100
AcDbEntity
  8
CEN
100
AcDbLine
 10
98.91740475261759
 20
358.4167093330733
 30
0.0
 11
98.91740475261759
 21
461.5633136014492
 31
0.0
  0
LINE
  5
265
102
{ACAD_REACTORS
330
288
330
349
102
}
330
2
100
AcDbEntity
  8
0
100
AcDbLine
 10
216.4659094238086
 20
451.4900114671839
 30
0.0
 11
216.4659094238086
 21
368.4900114671841
 31
0.0
  0
LINE
  5
266
102
{ACAD_REACTORS
330
349
102
}
330
2
100
AcDbEntity
  8
0
100
AcDbLine
 10
218.4659094238086
 20
454.990011467184
 30
0.0
 11
218.4659094238086
 21
364.9900114671841
 31
0.0
  0
LINE
  5
267
102
{ACAD_REACTORS
330
35A
102
}
330
2
100
AcDbEntity
  8
0
100
AcDbLine
 10
255.4659094237976
 20
454.990011467184
 30
0.0
 11
255.4659094237976
 21
364.9900114671841
 31
0.0
  0
LINE
  5
268
330
2
100
AcDbEntity
  8
0
100
AcDbLine
 10
53.9174047526176
 20
449.9900114672532
 30
0.0
 11
53.9174047526176
 21
369.9900114672531
 31
0.0
  0
LINE
  5
269
330
2
100
AcDbEntity
  8
0
100
AcDbLine
 10
143.9174047526174
 20
449.9900114672532
 30
0.0
 11
143.9174047526174
 21
369.9900114672531
 31
0.0
  0
ARC
  5
26A
102
{ACAD_REACTORS
330
27A
102
}
330
2
100
AcDbEntity
  8
CL
  6
CENTER
100
AcDbCircle
 10
98.91740475264668
 20
409.9900114672808
 30
0.0
 40
51.99999999996308
100
AcDbArc
 50
36.36425856586086
 51
50.78712972219959
  0
DIMENSION
  5
26B
330
2
100
AcDbEntity
  8
0
100
AcDbDimension
  2
*D23
 10
218.4659094238086
 20
477.0412922540072
 30
0.0
 11
209.4659094238085
 21
477.0412922540072
 31
0.0
 70
   160
  3
STANDARD
100
AcDbAlignedDimension
 13
200.4659094238085
 23
412.9900114671841
 33
0.0
 14
218.4659094238086
 24
454.990011467184
 34
0.0
100
AcDbRotatedDimension
  0
DIMENSION
  5
278
102
{ACAD_XDICTIONARY
360
279
102
}
102
{ACAD_REACTORS
330
27A
102
}
330
2
100
AcDbEntity
  8
0
100
AcDbDimension
  2
*D22
 10
58.62767489723632
 20
377.1154366688066
 30
0.0
 11
155.1394501635479
 21
455.8646262591121
 31
0.0
 70
   163
  1
<>%%P0.5
  3
STANDARD
100
AcDbDiametricDimension
 15
139.2071346080104
 25
442.8645862657171
 35
0.0
 40
0.0
  0
DIMENSION
  5
286
102
{ACAD_XDICTIONARY
360
287
102
}
102
{ACAD_REACTORS
330
288
102
}
330
2
100
AcDbEntity
  8
0
100
AcDbDimension
  2
*D21
 10
190.9495410811578
 20
368.4900114671841
 30
0.0
 11
190.9495410811578
 21
409.2486032863611
 31
0.0
 70
   160
  1
\A1;{\f??|b0|i0|c0|p49;%%c}<>{\f??|b0|i0|c0|p49;\H0.7x;\S+0^ -0.035;\H1.429x;(h7)}
  3
STANDARD
100
AcDbAlignedDimension
 13
216.4659094238086
 23
451.4900114671839
 33
0.0
 14
216.4659094238086
 24
368.4900114671841
 34
0.0
 50
90.0
100
AcDbRotatedDimension
  0
LINE
  5
295
330
2
100
AcDbEntity
  8
0
100
AcDbLine
 10
58.9174047526176
 20
364.9900114672531
 30
0.0
 11
138.9174047526175
 21
364.9900114672531
 31
0.0
  0
LINE
  5
296
330
2
100
AcDbEntity
  8
CEN
100
AcDbLine
 10
49.66412853821747
 20
409.9900114671839
 30
0.0
 11
148.170680967014
 21
409.9900114671839
 31
0.0
  0
LINE
  5
297
330
2
100
AcDbEntity
  8
CEN
 48
0.6
100
AcDbLine
 10
29.5372917646564
 20
268.9983911078134
 30
0.0
 11
135.1758921426298
 21
268.9983911078134
 31
0.0
  0
ARC
  5
298
330
2
100
AcDbEntity
  8
CL
  6
CENTER
100
AcDbCircle
 10
98.91740475261759
 20
409.9900114672513
 30
0.0
 40
52.0
100
AcDbArc
 50
217.5220799114929
 51
230.7871297221982
  0
CIRCLE
  5
299
330
2
100
AcDbEntity
  8
0
100
AcDbCircle
 10
62.14785213092909
 20
373.2204588455515
 30
0.0
 40
3.25
  0
LINE
  5
29A
330
2
100
AcDbEntity
  8
CL
  6
CENTER
100
AcDbLine
 10
58.43554152969954
 20
369.508148244322
 30
0.0
 11
65.86016273214773
 21
376.9327694467802
 31
0.0
  0
ARC
  5
29B
330
2
100
AcDbEntity
  8
0
100
AcDbCircle
 10
58.9174047526176
 20
369.9900114672531
 30
0.0
 40
5.0
100
AcDbArc
 50
180.0
 51
270.0
  0
CIRCLE
  5
29C
330
2
100
AcDbEntity
  8
0
100
AcDbCircle
 10
98.91740475261759
 20
409.9900114671839
 30
0.0
 40
3.198036349121024
  0
CIRCLE
  5
29D
330
2
100
AcDbEntity
  8
0
100
AcDbCircle
 10
98.91740475261759
 20
409.9900114671839
 30
0.0
 40
4.235
  0
CIRCLE
  5
29E
330
2
100
AcDbEntity
  8
0
 48
0.6
100
AcDbCircle
 10
82.35659195363769
 20
286.9983911078134
 30
0.0
 40
18.0
  0
CIRCLE
  5
29F
330
2
100
AcDbEntity
  8
0
 48
0.6
100
AcDbCircle
 10
82.35659195363769
 20
286.9983911078134
 30
0.0
 40
6.0
  0
LINE
  5
2A0
330
2
100
AcDbEntity
  8
0
 48
0.6
100
AcDbLine
 10
80.22181818634997
 20
290.4968772528053
 30
0.0
 11
84.22181818634998
 21
290.4968772528053
 31
0.0
  0
LINE
  5
2A1
330
2
100
AcDbEntity
  8
0
 48
0.6
100
AcDbLine
 10
80.22181818634997
 20
292.6057738272693
 30
0.0
 11
80.22181818634997
 21
290.4968772528053
 31
0.0
  0
LINE
  5
2A2
330
2
100
AcDbEntity
  8
0
 48
0.6
100
AcDbLine
 10
84.22181818634998
 20
292.7011037168131
 30
0.0
 11
84.22181818634998
 21
290.4968772528053
 31
0.0
  0
POLYLINE
  5
2A3
330
2
100
AcDbEntity
  8
3
100
AcDb2dPolyline
 66
     1
 10
0.0
 20
0.0
 30
0.0
 70
     1
  0
VERTEX
  5
5A1
330
2A3
100
AcDbEntity
  8
3
100
AcDbVertex
100
AcDb2dVertex
 10
75.21876016323949
 20
327.3354088045361
 30
0.0
  0
VERTEX
  5
5A2
330
2A3
100
AcDbEntity
  8
3
100
AcDbVertex
100
AcDb2dVertex
 10
78.51876016323877
 20
327.3354088045361
 30
0.0
  0
VERTEX
  5
5A3
330
2A3
100
AcDbEntity
  8
3
100
AcDbVertex
100
AcDb2dVertex
 10
78.51876016323877
 20
330.8354088045361
 30
0.0
  0
VERTEX
  5
5A4
330
2A3
100
AcDbEntity
  8
3
100
AcDbVertex
100
AcDb2dVertex
 10
75.21876016323949
 20
330.8354088045361
 30
0.0
  0
SEQEND
  5
5A5
330
2A3
100
AcDbEntity
  8
3
  0
ARC
  5
2A4
330
2
100
AcDbEntity
  8
0
100
AcDbCircle
 10
122.2811276394568
 20
308.9978865461353
 30
0.0
 40
5.0
100
AcDbArc
 50
0.0000000000006488
 51
90.0000000000003
  0
CIRCLE
  5
2A5
330
2
100
AcDbEntity
  8
0
100
AcDbCircle
 10
119.126144575337
 20
305.767943729505
 30
0.0
 40
3.25
  0
LINE
  5
2A6
330
2
100
AcDbEntity
  8
CL
  6
CENTER
100
AcDbLine
 10
122.8384551765665
 20
309.4802543307319
 30
0.0
 11
115.4138339741074
 21
302.0556331282758
 31
0.0
  0
ARC
  5
2A7
102
{ACAD_REACTORS
330
D8
102
}
330
2
100
AcDbEntity
  8
CL
  6
CENTER
100
AcDbCircle
 10
82.35659195366681
 20
268.998391107831
 30
0.0
 40
51.99999999996308
100
AcDbArc
 50
36.36425856586086
 51
50.78712972219959
  0
LINE
  5
2A8
330
2
100
AcDbEntity
  8
CEN
 48
0.6
100
AcDbLine
 10
61.35659195363768
 20
286.9983911078134
 30
0.0
 11
103.3565919536375
 21
286.9983911078134
 31
0.0
  0
ARC
  5
2A9
330
2
100
AcDbEntity
  8
0
100
AcDbCircle
 10
42.28112763945683
 20
308.9978865461353
 30
0.0
 40
5.0
100
AcDbArc
 50
90.00000000000033
 51
180.0
  0
ARC
  5
2AA
330
2
100
AcDbEntity
  8
CL
  6
CENTER
100
AcDbCircle
 10
82.35659195363769
 20
268.9983911078043
 30
0.0
 40
52.0
100
AcDbArc
 50
129.2128702778049
 51
140.7871297221982
  0
LINE
  5
2AB
330
2
100
AcDbEntity
  8
CL
  6
CENTER
100
AcDbLine
 10
41.87472873071601
 20
309.4802543307319
 30
0.0
 11
49.29934993316418
 21
302.0556331282737
 31
0.0
  0
CIRCLE
  5
2AC
330
2
100
AcDbEntity
  8
0
100
AcDbCircle
 10
45.58703933193828
 20
305.7679437295031
 30
0.0
 40
3.25
  0
LINE
  5
2AD
330
2
100
AcDbEntity
  8
0
100
AcDbLine
 10
42.28112763945683
 20
313.9978865461352
 30
0.0
 11
122.2811276394568
 21
313.9978865461352
 31
0.0
  0
DIMENSION
  5
2AE
330
2
100
AcDbEntity
  8
0
100
AcDbDimension
  2
*D25
 10
127.3565919536375
 20
326.4769134531693
 30
0.0
 11
82.35659195363769
 21
326.4769134531693
 31
0.0
 70
   160
  3
STANDARD
100
AcDbAlignedDimension
 13
37.35659195363768
 23
308.9550927872683
 33
0.0
 14
127.3565919536375
 24
308.9550927872683
 34
0.0
100
AcDbRotatedDimension
  0
CIRCLE
  5
2BB
330
2
100
AcDbEntity
  8
0
100
AcDbCircle
 10
135.6869573743314
 20
373.220458845552
 30
0.0
 40
3.25
  0
LINE
  5
2BC
330
2
100
AcDbEntity
  8
CL
  6
CENTER
100
AcDbLine
 10
139.39926797555
 20
369.508148244322
 30
0.0
 11
131.9746467730982
 21
376.932769446781
 31
0.0
  0
ARC
  5
2BD
330
2
100
AcDbEntity
  8
CL
  6
CENTER
100
AcDbCircle
 10
98.91740475261759
 20
409.9900114672513
 30
0.0
 40
52.0
100
AcDbArc
 50
309.2128702778046
 51
320.7871297221982
  0
LINE
  5
2BE
330
2
100
AcDbEntity
  8
0
100
AcDbLine
 10
218.4659094238086
 20
364.9900114671841
 30
0.0
 11
255.4659094237976
 21
364.9900114671841
 31
0.0
  0
LINE
  5
2BF
330
2
100
AcDbEntity
  8
0
100
AcDbLine
 10
218.4659094238086
 20
368.4900114671841
 30
0.0
 11
216.4659094238086
 21
368.4900114671841
 31
0.0
  0
ARC
  5
2C0
330
2
100
AcDbEntity
  8
0
100
AcDbCircle
 10
138.9174047526175
 20
369.9900114672531
 30
0.0
 40
5.0
100
AcDbArc
 50
270.0
 51
0.0
  0
LINE
  5
2C1
330
2
100
AcDbEntity
  8
CEN
100
AcDbLine
 10
268.5308682796458
 20
409.9900114671839
 30
0.0
 11
194.3214369833986
 21
409.9900114671839
 31
0.0
  0
LINE
  5
2C2
330
2
100
AcDbEntity
  8
0
100
AcDbLine
 10
201.4659094238086
 20
405.755011467184
 30
0.0
 11
216.4659094238086
 21
405.755011467184
 31
0.0
  0
LINE
  5
2C3
330
2
100
AcDbEntity
  8
0
100
AcDbLine
 10
201.4659094238086
 20
414.2250114671851
 30
0.0
 11
216.4659094238086
 21
414.2250114671851
 31
0.0
  0
ARC
  5
2C4
330
2
100
AcDbEntity
  8
0
100
AcDbCircle
 10
211.5090963346374
 20
440.1412423562046
 30
0.0
 40
26.81626566475105
100
AcDbArc
 50
269.9077265708258
 51
280.65200973929
  0
ARC
  5
2C5
330
2
100
AcDbEntity
  8
0
100
AcDbCircle
 10
211.5090963346374
 20
379.838780578133
 30
0.0
 40
26.81626566478071
100
AcDbArc
 50
79.34799026071575
 51
90.09227342916824
  0
LINE
  5
2C6
330
2
100
AcDbEntity
  8
0
100
AcDbLine
 10
205.4659094238085
 20
405.755011467184
 30
0.0
 11
216.4659094238086
 21
405.755011467184
 31
0.0
  0
LINE
  5
2C7
330
2
100
AcDbEntity
  8
0
100
AcDbLine
 10
205.4659094238085
 20
414.2250114671851
 30
0.0
 11
216.4659094238086
 21
414.2250114671851
 31
0.0
  0
LINE
  5
2C8
330
2
100
AcDbEntity
  8
CEN
100
AcDbLine
 10
198.5470976121141
 20
413.7145114671851
 30
0.0
 11
219.4659094238085
 21
413.7145114671851
 31
0.0
  0
LINE
  5
2C9
330
2
100
AcDbEntity
  8
CEN
100
AcDbLine
 10
198.5470976121141
 20
406.2655114671834
 30
0.0
 11
219.4659094238085
 21
406.2655114671834
 31
0.0
  0
LINE
  5
2CA
330
2
100
AcDbEntity
  8
2
100
AcDbLine
 10
201.4659094238086
 20
414.2250114671851
 30
0.0
 11
201.4659094238086
 21
405.755011467184
 31
0.0
  0
LINE
  5
2CB
330
2
100
AcDbEntity
  8
0
100
AcDbLine
 10
200.4659094238085
 20
406.7550114671835
 30
0.0
 11
201.4659094238086
 21
405.755011467184
 31
0.0
  0
LINE
  5
2CC
330
2
100
AcDbEntity
  8
0
100
AcDbLine
 10
200.4659094238085
 20
413.2250114671851
 30
0.0
 11
201.4659094238086
 21
414.2250114671851
 31
0.0
  0
LINE
  5
2CD
330
2
100
AcDbEntity
  8
2
100
AcDbLine
 10
211.4659094238085
 20
412.610100844195
 30
0.0
 11
201.4659094238086
 21
407.3177233766241
 31
0.0
  0
LINE
  5
2CE
330
2
100
AcDbEntity
  8
0
100
AcDbLine
 10
200.4659094238085
 20
413.2250114671851
 30
0.0
 11
200.4659094238085
 21
406.7550114671835
 31
0.0
  0
LINE
  5
2CF
330
2
100
AcDbEntity
  8
2
100
AcDbLine
 10
211.4659094238085
 20
413.0900114671836
 30
0.0
 11
211.4659094238085
 21
406.8900114671841
 31
0.0
  0
LINE
  5
2D0
330
2
100
AcDbEntity
  8
2
100
AcDbLine
 10
211.4659094238085
 20
411.4449113515338
 30
0.0
 11
202.2776850251903
 21
406.6550114671835
 31
0.0
  0
LINE
  5
2D1
330
2
100
AcDbEntity
  8
0
100
AcDbLine
 10
200.5659094238071
 20
406.6550114671835
 30
0.0
 11
211.4659094238085
 21
406.6550114671835
 31
0.0
  0
LINE
  5
2D2
330
2
100
AcDbEntity
  8
2
100
AcDbLine
 10
210.9440571563973
 20
413.3250114671831
 30
0.0
 11
201.4659094238086
 21
408.5368267154581
 31
0.0
  0
LINE
  5
2D3
330
2
100
AcDbEntity
  8
0
100
AcDbLine
 10
200.5659094238071
 20
413.3250114671831
 30
0.0
 11
211.4659094238085
 21
413.3250114671831
 31
0.0
  0
LINE
  5
2D4
330
2
100
AcDbEntity
  8
0
100
AcDbLine
 10
218.4659094238086
 20
412.8100114671842
 30
0.0
 11
218.4659094238086
 21
407.1700114671838
 31
0.0
  0
LINE
  5
2D5
330
2
100
AcDbEntity
  8
0
100
AcDbLine
 10
218.4659094238086
 20
412.8100114671842
 30
0.0
 11
218.4659094238086
 21
407.1700114671838
 31
0.0
  0
LINE
  5
2D6
330
2
100
AcDbEntity
  8
0
100
AcDbLine
 10
227.4207416115786
 20
304.5192834254638
 30
0.0
 11
227.4207416115786
 21
269.519283425464
 31
0.0
  0
LINE
  5
2D7
102
{ACAD_REACTORS
330
2F5
102
}
330
2
100
AcDbEntity
  8
CEN
 48
0.6
100
AcDbLine
 10
186.8130684774804
 20
269.0192834254634
 30
0.0
 11
283.5802109511968
 21
269.0192834254634
 31
0.0
  0
ARC
  5
2D8
330
2
100
AcDbEntity
  8
0
100
AcDbCircle
 10
227.9207416115786
 20
269.519283425464
 30
0.0
 40
0.5
100
AcDbArc
 50
180.0
 51
270.0
  0
LINE
  5
2D9
330
2
100
AcDbEntity
  8
0
100
AcDbLine
 10
227.9207416115786
 20
269.0192834254634
 30
0.0
 11
230.4207416115786
 21
269.0192834254634
 31
0.0
  0
LINE
  5
2DA
330
2
100
AcDbEntity
  8
0
100
AcDbLine
 10
271.4207416115786
 20
314.0192834254634
 30
0.0
 11
230.9207416115786
 21
314.0192834254634
 31
0.0
  0
LINE
  5
2DB
330
2
100
AcDbEntity
  8
0
100
AcDbLine
 10
271.4207416115786
 20
314.0192834254634
 30
0.0
 11
271.4207416115786
 21
313.5192834254634
 31
0.0
  0
LINE
  5
2DC
330
2
100
AcDbEntity
  8
0
100
AcDbLine
 10
272.4207416115786
 20
313.5192834254634
 30
0.0
 11
271.4207416115786
 21
313.5192834254634
 31
0.0
  0
LINE
  5
2DD
102
{ACAD_REACTORS
330
2F5
102
}
330
2
100
AcDbEntity
  8
CEN
  6
HIDDEN
 62
     2
100
AcDbLine
 10
223.4207416115786
 20
290.519283425464
 30
0.0
 11
198.4207416115785
 21
290.519283425464
 31
0.0
  0
LINE
  5
2DE
102
{ACAD_REACTORS
330
2F5
102
}
330
2
100
AcDbEntity
  8
CEN
 48
0.6
100
AcDbLine
 10
241.0661436166083
 20
287.0192834254634
 30
0.0
 11
194.5226028103497
 21
287.0192834254634
 31
0.0
  0
LINE
  5
2DF
102
{ACAD_REACTORS
330
2F5
102
}
330
2
100
AcDbEntity
  8
CEN
  6
BYBLOCK
 62
     0
100
AcDbLine
 10
227.4207416115786
 20
293.0192834254634
 30
0.0
 11
198.4207416115785
 21
293.0192834254634
 31
0.0
  0
LINE
  5
2E0
102
{ACAD_REACTORS
330
2F5
330
304
102
}
330
2
100
AcDbEntity
  8
CEN
  6
BYBLOCK
 62
     0
100
AcDbLine
 10
227.4207416115786
 20
281.0192834254639
 30
0.0
 11
198.4207416115785
 21
281.0192834254639
 31
0.0
  0
LINE
  5
2E1
330
2
100
AcDbEntity
  8
0
  6
HIDDEN
 62
     2
100
AcDbLine
 10
223.4207416115786
 20
293.0192834254634
 30
0.0
 11
223.4207416115786
 21
290.519283425464
 31
0.0
  0
ARC
  5
2E2
330
2
100
AcDbEntity
  8
0
100
AcDbCircle
 10
227.9207416115786
 20
304.5192834254638
 30
0.0
 40
0.5
100
AcDbArc
 50
90.0
 51
180.0
  0
ARC
  5
2E3
330
2
100
AcDbEntity
  8
0
100
AcDbCircle
 10
230.9207416115786
 20
313.5192834254634
 30
0.0
 40
0.5
100
AcDbArc
 50
90.0
 51
180.0
  0
LINE
  5
2E4
330
2
100
AcDbEntity
  8
0
100
AcDbLine
 10
227.9207416115786
 20
305.0192834254634
 30
0.0
 11
230.4207416115786
 21
305.0192834254634
 31
0.0
  0
LINE
  5
2E5
330
2
100
AcDbEntity
  8
0
100
AcDbLine
 10
198.4207416115785
 20
293.0192834254634
 30
0.0
 11
198.4207416115785
 21
281.0192834254639
 31
0.0
  0
DIMENSION
  5
2E6
330
2
100
AcDbEntity
  8
0
100
AcDbDimension
  2
*D24
 10
159.4019343504695
 20
269.0192834254634
 30
0.0
 11
159.4019343504695
 21
286.769283425464
 31
0.0
 70
   160
  1
{\f??|b0|i0|c0|p49;%%C}<>
  3
STANDARD
100
AcDbAlignedDimension
 13
227.9207416115786
 23
305.0192834254634
 33
0.0
 14
186.8130684774804
 24
269.0192834254634
 34
0.0
 50
90.0
100
AcDbRotatedDimension
  0
DIMENSION
  5
2F3
102
{ACAD_XDICTIONARY
360
2F4
102
}
102
{ACAD_REACTORS
330
2F5
102
}
330
2
100
AcDbEntity
  8
0
100
AcDbDimension
  2
*D29
 10
172.3075014139649
 20
269.0192834254634
 30
0.0
 11
169.8075014139648
 21
278.0192834254636
 31
0.0
 70
    32
  3
STANDARD
100
AcDbAlignedDimension
 13
194.5226028103497
 23
287.0192834254634
 33
0.0
 14
186.8130684774804
 24
269.0192834254634
 34
0.0
 50
90.0
100
AcDbRotatedDimension
  0
DIMENSION
  5
302
102
{ACAD_XDICTIONARY
360
303
102
}
102
{ACAD_REACTORS
330
304
102
}
330
2
100
AcDbEntity
  8
0
100
AcDbDimension
  2
*D28
 10
183.8523807809069
 20
293.0192834254634
 30
0.0
 11
183.8523807809069
 21
321.2123673341575
 31
0.0
 70
   160
  1
\A1;{\f??|b0|i0|c0|p49;%%C12\H0.7x;\S+0^ -0.018;\H1.429x;(h7)}
  3
STANDARD
100
AcDbAlignedDimension
 13
198.4207416115785
 23
281.0192834254639
 33
0.0
 14
198.4207416115785
 24
293.0192834254634
 34
0.0
 50
90.0
100
AcDbRotatedDimension
  0
DIMENSION
  5
313
330
2
100
AcDbEntity
  8
0
100
AcDbDimension
  2
*D27
 10
198.4207416115785
 20
309.8951032880203
 30
0.0
 11
210.9207416115786
 21
309.8951032880203
 31
0.0
 70
   160
  3
STANDARD
100
AcDbAlignedDimension
 13
223.4207416115786
 23
293.0192834254634
 33
0.0
 14
198.4207416115785
 24
292.0192834254638
 34
0.0
 50
180.0
100
AcDbRotatedDimension
  0
DIMENSION
  5
320
330
2
100
AcDbEntity
  8
0
100
AcDbDimension
  2
*D26
 10
227.4207416115786
 20
321.5385968492432
 30
0.0
 11
228.9207416115786
 21
321.5385968492432
 31
0.0
 70
   160
  3
STANDARD
100
AcDbAlignedDimension
 13
230.4207416115786
 23
313.5192834254634
 33
0.0
 14
227.4207416115786
 24
304.1657300348702
 34
0.0
 50
180.0
100
AcDbRotatedDimension
  0
LINE
  5
32F
330
2
100
AcDbEntity
  8
0
100
AcDbLine
 10
58.9174047526176
 20
454.9900114672531
 30
0.0
 11
138.9174047526175
 21
454.9900114672531
 31
0.0
  0
DIMENSION
  5
330
330
2
100
AcDbEntity
  8
0
100
AcDbDimension
  2
*D30
 10
143.9174047526174
 20
468.3156552676414
 30
0.0
 11
98.91740475261759
 21
468.3156552676414
 31
0.0
 70
   160
  3
STANDARD
100
AcDbAlignedDimension
 13
53.9174047526176
 23
449.9472177083871
 33
0.0
 14
143.9174047526174
 24
449.9472177083871
 34
0.0
100
AcDbRotatedDimension
  0
POLYLINE
  5
33D
330
2
100
AcDbEntity
  8
3
100
AcDb2dPolyline
 66
     1
 10
0.0
 20
0.0
 30
0.0
 70
     1
  0
VERTEX
  5
5A6
330
33D
100
AcDbEntity
  8
3
100
AcDbVertex
100
AcDb2dVertex
 10
91.82732067516916
 20
468.9577715588452
 30
0.0
  0
VERTEX
  5
5A7
330
33D
100
AcDbEntity
  8
3
100
AcDbVertex
100
AcDb2dVertex
 10
95.12732067516843
 20
468.9577715588452
 30
0.0
  0
VERTEX
  5
5A8
330
33D
100
AcDbEntity
  8
3
100
AcDbVertex
100
AcDb2dVertex
 10
95.12732067516843
 20
472.4577715588451
 30
0.0
  0
VERTEX
  5
5A9
330
33D
100
AcDbEntity
  8
3
100
AcDbVertex
100
AcDb2dVertex
 10
91.82732067516916
 20
472.4577715588451
 30
0.0
  0
SEQEND
  5
5AA
330
33D
100
AcDbEntity
  8
3
  0
CIRCLE
  5
33E
330
2
100
AcDbEntity
  8
0
100
AcDbCircle
 10
62.14785213091818
 20
446.7595640889534
 30
0.0
 40
3.25
  0
LINE
  5
33F
330
2
100
AcDbEntity
  8
CL
  6
CENTER
100
AcDbLine
 10
58.43554152969954
 20
450.4718746901835
 30
0.0
 11
65.86016273214773
 21
443.0472534877231
 31
0.0
  0
ARC
  5
340
330
2
100
AcDbEntity
  8
CL
  6
CENTER
100
AcDbCircle
 10
98.91740475261759
 20
409.9900114672531
 30
0.0
 40
52.0
100
AcDbArc
 50
129.2128702778049
 51
140.7871297221982
  0
ARC
  5
341
330
2
100
AcDbEntity
  8
0
100
AcDbCircle
 10
58.9174047526176
 20
449.9900114672532
 30
0.0
 40
5.0
100
AcDbArc
 50
90.00000000000033
 51
180.0
  0
LINE
  5
342
102
{ACAD_REACTORS
330
35A
102
}
330
2
100
AcDbEntity
  8
0
100
AcDbLine
 10
218.4659094238086
 20
454.990011467184
 30
0.0
 11
255.4659094237976
 21
454.990011467184
 31
0.0
  0
LINE
  5
343
330
2
100
AcDbEntity
  8
0
100
AcDbLine
 10
218.4659094238086
 20
451.4900114671839
 30
0.0
 11
216.4659094238086
 21
451.4900114671839
 31
0.0
  0
ARC
  5
344
330
2
100
AcDbEntity
  8
0
100
AcDbCircle
 10
138.9174047526175
 20
449.9900114672532
 30
0.0
 40
5.0
100
AcDbArc
 50
0.0000000000006488
 51
90.0000000000003
  0
LINE
  5
345
330
2
100
AcDbEntity
  8
CL
  6
CENTER
100
AcDbLine
 10
139.39926797555
 20
450.4718746901835
 30
0.0
 11
131.9746467730874
 21
443.0472534877231
 31
0.0
  0
CIRCLE
  5
346
330
2
100
AcDbEntity
  8
0
100
AcDbCircle
 10
135.6869573743169
 20
446.7595640889534
 30
0.0
 40
3.25
  0
DIMENSION
  5
347
102
{ACAD_XDICTIONARY
360
348
102
}
102
{ACAD_REACTORS
330
349
102
}
330
2
100
AcDbEntity
  8
0
100
AcDbDimension
  2
*D32
 10
218.4659094238086
 20
466.8156518605965
 30
0.0
 11
227.4659094238085
 21
466.8156518605965
 31
0.0
 70
   160
  3
STANDARD
100
AcDbAlignedDimension
 13
216.4659094238086
 23
451.4900114671839
 33
0.0
 14
218.4659094238086
 24
454.990011467184
 34
0.0
100
AcDbRotatedDimension
  0
DIMENSION
  5
358
102
{ACAD_XDICTIONARY
360
359
102
}
102
{ACAD_REACTORS
330
35A
102
}
330
2
100
AcDbEntity
  8
0
100
AcDbDimension
  2
*D31
 10
255.4659094237976
 20
477.0412922540072
 30
0.0
 11
236.9659094238086
 21
477.0412922540072
 31
0.0
 70
   160
  3
STANDARD
100
AcDbAlignedDimension
 13
218.4659094238086
 23
454.990011467184
 33
0.0
 14
255.4659094237976
 24
454.990011467184
 34
0.0
100
AcDbRotatedDimension
  0
DIMENSION
  5
367
330
2
100
AcDbEntity
  8
0
100
AcDbDimension
  2
*D3
 10
90.0
 20
97.47852234528821
 30
0.0
 11
45.0
 21
97.47852234528821
 31
0.0
 70
   160
  3
STANDARD
100
AcDbAlignedDimension
 13
0.0
 23
79.95670167938669
 33
0.0
 14
90.0
 24
79.95670167938669
 34
0.0
100
AcDbRotatedDimension
  0
DIMENSION
  5
374
102
{ACAD_XDICTIONARY
360
375
102
}
102
{ACAD_REACTORS
330
376
102
}
330
2
100
AcDbEntity
  8
0
100
AcDbDimension
  2
*D2
 10
4.710270144594644
 20
7.12542520153049
 30
0.0
 11
101.2220454108849
 21
85.87461479186044
 31
0.0
 70
   163
  1
<>%%P0.5
  3
STANDARD
100
AcDbDiametricDimension
 15
85.28972985536972
 25
72.8745747984767
 35
0.0
 40
0.0
  0
CIRCLE
  5
382
330
2
100
AcDbEntity
  8
0
 48
0.6
100
AcDbCircle
 10
44.99938162972831
 20
39.99949543818456
 30
0.0
 40
41.5
  0
LINE
  5
383
330
2
100
AcDbEntity
  8
CEN
 48
0.6
100
AcDbLine
 10
-7.819300188981287
 20
39.99949543818456
 30
0.0
 11
97.81930018897767
 21
39.99949543818456
 31
0.0
  0
LINE
  5
384
330
2
100
AcDbEntity
  8
0
100
AcDbLine
 10
5.0
 20
85.0
 30
0.0
 11
85.0
 21
85.00000000000227
 31
0.0
  0
CIRCLE
  5
385
330
2
100
AcDbEntity
  8
0
100
AcDbCircle
 10
8.230447378296956
 20
76.76955262169986
 30
0.0
 40
3.25
  0
LINE
  5
386
330
2
100
AcDbEntity
  8
CL
  6
CENTER
100
AcDbLine
 10
4.51813677706741
 20
80.4818632229294
 30
0.0
 11
11.94275797953014
 21
73.05724202047122
 31
0.0
  0
ARC
  5
387
330
2
100
AcDbEntity
  8
CL
  6
CENTER
100
AcDbCircle
 10
45.0
 20
40.00000000000135
 30
0.0
 40
52.0
100
AcDbArc
 50
129.2128702778049
 51
140.7871297221982
  0
ARC
  5
388
330
2
100
AcDbEntity
  8
0
100
AcDbCircle
 10
5.0
 20
80.00000000000136
 30
0.0
 40
5.0
100
AcDbArc
 50
90.00000000000033
 51
180.0
  0
LINE
  5
389
330
2
100
AcDbEntity
  8
0
100
AcDbLine
 10
0.0
 20
80.00000000000136
 30
0.0
 11
0.0
 21
0.0
 31
0.0
  0
LINE
  5
38A
330
2
100
AcDbEntity
  8
0
100
AcDbLine
 10
5.0
 20
-5.0
 30
0.0
 11
85.0
 21
-4.999999999996816
 31
0.0
  0
ARC
  5
38B
330
2
100
AcDbEntity
  8
CL
  6
CENTER
100
AcDbCircle
 10
45.0
 20
40.00000000000135
 30
0.0
 40
52.0
100
AcDbArc
 50
217.5220799114929
 51
230.7871297221982
  0
CIRCLE
  5
38C
330
2
100
AcDbEntity
  8
0
100
AcDbCircle
 10
8.230447378296956
 20
3.230447378299231
 30
0.0
 40
3.25
  0
LINE
  5
38D
330
2
100
AcDbEntity
  8
CL
  6
CENTER
100
AcDbLine
 10
4.51813677706741
 20
-0.4818632229289507
 30
0.0
 11
11.94275797953014
 21
6.942757979529233
 31
0.0
  0
ARC
  5
38E
330
2
100
AcDbEntity
  8
0
100
AcDbCircle
 10
5.0
 20
0.0
 30
0.0
 40
5.0
100
AcDbArc
 50
180.0
 51
270.0
  0
ENDSEC
  0
SECTION
  2
OBJECTS
  0
DICTIONARY
  5
8
330
0
100
AcDbDictionary
  3
ACAD_GROUP
350
97
  3
ACAD_LAYOUT
350
C
  3
ACAD_MLINESTYLE
350
98
  3
ACAD_PLOTSETTINGS
350
99
1001
ACAD
1000
TREAT_AS_HARD
1070
     0
1000
TREAT_AS_HARD
1070
     0
  0
DICTIONARY
  5
13
330
12
100
AcDbDictionary
  3
ACAD_LAYERFILTERS
350
14
  3
ACAD_LAYERSTATES
350
87
1001
ACAD
1000
TREAT_AS_HARD
1070
     1
1000
TREAT_AS_HARD
1070
     0
  0
DICTIONARY
  5
3
330
2
100
AcDbDictionary
  3
ACAD_LAYOUTSELFREF
350
589
1001
ACAD
1000
TREAT_AS_HARD
1070
     1
1000
TREAT_AS_HARD
1070
     0
  0
DICTIONARY
  5
E
330
D
100
AcDbDictionary
  3
ACAD_LAYOUTSELFREF
350
58A
1001
ACAD
1000
TREAT_AS_HARD
1070
     1
1000
TREAT_AS_HARD
1070
     0
  0
DICTIONARY
  5
AE
330
AD
100
AcDbDictionary
  3
ACAD_DIMASSOC
350
AF
1001
ACAD
1000
TREAT_AS_HARD
1070
     1
1000
TREAT_AS_HARD
1070
     0
  0
DICTIONARY
  5
D7
330
D6
100
AcDbDictionary
  3
ACAD_DIMASSOC
350
D8
1001
ACAD
1000
TREAT_AS_HARD
1070
     1
1000
TREAT_AS_HARD
1070
     0
  0
DICTIONARY
  5
10F
330
10E
100
AcDbDictionary
  3
ACAD_DIMASSOC
350
110
1001
ACAD
1000
TREAT_AS_HARD
1070
     1
1000
TREAT_AS_HARD
1070
     0
  0
DICTIONARY
  5
120
330
11F
100
AcDbDictionary
  3
ACAD_DIMASSOC
350
121
1001
ACAD
1000
TREAT_AS_HARD
1070
     1
1000
TREAT_AS_HARD
1070
     0
  0
DICTIONARY
  5
149
330
148
100
AcDbDictionary
  3
ACAD_DIMASSOC
350
14A
1001
ACAD
1000
TREAT_AS_HARD
1070
     1
1000
TREAT_AS_HARD
1070
     0
  0
DICTIONARY
  5
1A9
330
1A8
100
AcDbDictionary
  3
ACAD_DIMASSOC
350
1AA
1001
ACAD
1000
TREAT_AS_HARD
1070
     1
1000
TREAT_AS_HARD
1070
     0
  0
DICTIONARY
  5
1DC
330
1DB
100
AcDbDictionary
  3
ACAD_DIMASSOC
350
1DD
1001
ACAD
1000
TREAT_AS_HARD
1070
     1
1000
TREAT_AS_HARD
1070
     0
  0
DICTIONARY
  5
1ED
330
1EC
100
AcDbDictionary
  3
ACAD_DIMASSOC
350
1EE
1001
ACAD
1000
TREAT_AS_HARD
1070
     1
1000
TREAT_AS_HARD
1070
     0
  0
DICTIONARY
  5
1FE
330
1FD
100
AcDbDictionary
  3
ACAD_DIMASSOC
350
1FF
1001
ACAD
1000
TREAT_AS_HARD
1070
     1
1000
TREAT_AS_HARD
1070
     0
  0
DICTIONARY
  5
21B
330
21A
100
AcDbDictionary
  3
ACAD_DIMASSOC
350
21C
1001
ACAD
1000
TREAT_AS_HARD
1070
     1
1000
TREAT_AS_HARD
1070
     0
  0
DICTIONARY
  5
279
330
278
100
AcDbDictionary
  3
ACAD_DIMASSOC
350
27A
1001
ACAD
1000
TREAT_AS_HARD
1070
     1
1000
TREAT_AS_HARD
1070
     0
  0
DICTIONARY
  5
287
330
286
100
AcDbDictionary
  3
ACAD_DIMASSOC
350
288
1001
ACAD
1000
TREAT_AS_HARD
1070
     1
1000
TREAT_AS_HARD
1070
     0
  0
DICTIONARY
  5
2F4
330
2F3
100
AcDbDictionary
  3
ACAD_DIMASSOC
350
2F5
1001
ACAD
1000
TREAT_AS_HARD
1070
     1
1000
TREAT_AS_HARD
1070
     0
  0
DICTIONARY
  5
303
330
302
100
AcDbDictionary
  3
ACAD_DIMASSOC
350
304
1001
ACAD
1000
TREAT_AS_HARD
1070
     1
1000
TREAT_AS_HARD
1070
     0
  0
DICTIONARY
  5
348
330
347
100
AcDbDictionary
  3
ACAD_DIMASSOC
350
349
1001
ACAD
1000
TREAT_AS_HARD
1070
     1
1000
TREAT_AS_HARD
1070
     0
  0
DICTIONARY
  5
359
330
358
100
AcDbDictionary
  3
ACAD_DIMASSOC
350
35A
1001
ACAD
1000
TREAT_AS_HARD
1070
     1
1000
TREAT_AS_HARD
1070
     0
  0
DICTIONARY
  5
375
330
374
100
AcDbDictionary
  3
ACAD_DIMASSOC
350
376
1001
ACAD
1000
TREAT_AS_HARD
1070
     1
1000
TREAT_AS_HARD
1070
     0
  0
DICTIONARY
  5
97
102
{ACAD_REACTORS
330
8
102
}
330
8
100
AcDbDictionary
1001
ACAD
1000
TREAT_AS_HARD
1070
     0
1000
TREAT_AS_HARD
1070
     0
  0
DICTIONARY
  5
C
102
{ACAD_REACTORS
330
8
102
}
330
8
100
AcDbDictionary
1001
ACAD
1000
TREAT_AS_HARD
1070
     0
1000
TREAT_AS_HARD
1070
     0
  0
DICTIONARY
  5
98
102
{ACAD_REACTORS
330
8
102
}
330
8
100
AcDbDictionary
  3
STANDARD
350
9A
1001
ACAD
1000
TREAT_AS_HARD
1070
     0
1000
TREAT_AS_HARD
1070
     0
  0
DICTIONARY
  5
99
102
{ACAD_REACTORS
330
8
102
}
330
8
100
AcDbDictionary
1001
ACAD
1000
TREAT_AS_HARD
1070
     0
1000
TREAT_AS_HARD
1070
     0
  0
DICTIONARY
  5
14
102
{ACAD_REACTORS
330
13
102
}
330
13
100
AcDbDictionary
  3
$LAYERS
350
15
  3
-_UND_0
350
16
  3
-PEGC
350
17
  3
101
350
18
  3
102
350
19
  3
1DUC
350
1A
  3
1EQ
350
1B
  3
1TUB
350
1C
  3
2
350
1D
  3
2000
350
1E
  3
50
350
1F
  3
58J
350
20
  3
65
350
21
  3
AA
350
22
  3
ACABADOS
350
23
  3
AGUA_Y_DREN
350
24
  3
AIRE
350
25
  3
ALLE_AUS
350
26
  3
ALLES_MIT_S
350
27
  3
AMARILLO
350
28
  3
APAGADOS
350
29
  3
ARR
350
2A
  3
BA
350
2B
  3
BACKS
350
2C
  3
BASE
350
2D
  3
BLOQ_INUTIL
350
2E
  3
CADKON
350
2F
  3
CARPINTERIA
350
30
  3
CERRADOS
350
31
  3
COL
350
32
  3
COLOR
350
33
  3
COLOR_250
350
34
  3
COLORES
350
35
  3
CONGELADOS
350
36
  3
CONJUNTO
350
37
  3
D1
350
38
  3
DA_
350
39
  3
DET-
350
3A
  3
DOR-H
350
3B
  3
EJES
350
3C
  3
ELECTRICO
350
3D
  3
F1
350
3E
  3
FROZEN
350
3F
  3
GRID
350
40
  3
GRIDTXT
350
41
  3
HATCH
350
42
  3
HCAD
350
43
  3
INSTALACIONES
350
44
  3
JIZNI
350
45
  3
KCK
350
46
  3
KKK
350
47
  3
LAY
350
48
  3
LAYER-0
350
4C
  3
LAYER-1
350
4D
  3
LAYER_1_UND_0
350
49
  3
LAYER_2_UND_0
350
4A
  3
LAYER_9_UND_0_SCHRAFFUR
350
4B
  3
LOCK
350
4E
  3
LOCKED
350
4F
  3
LOTES
350
50
  3
LUNAR
350
51
  3
LUNAR2
350
52
  3
M
350
53
  3
MIS_LAYERS
350
54
  3
MRKCK
350
55
  3
NECADKON
350
56
  3
NI_LH
350
57
  3
NI_RH
350
58
  3
NUM
350
59
  3
OFF
350
5A
  3
ON
350
5B
  3
PBASE
350
5C
  3
PEGC
350
5D
  3
PEGCT
350
5E
  3
PFRAME
350
5F
  3
PGRID
350
60
  3
PGRIDT
350
61
  3
PLAFONES
350
62
  3
PLANTAS
350
63
  3
PLOT
350
64
  3
PRENDIDAS
350
65
  3
PRENDIDOS
350
66
  3
PRINT
350
67
  3
PT
350
68
  3
PTH
350
69
  3
PVGRID
350
6A
  3
RED_DE_AGUA_POTABLE
350
6B
  3
RED_DE_ENERGIA_ELECTRICA
350
6C
  3
SEVERNI
350
6D
  3
SHIN
350
6E
  3
SHOW_ALL_LAYER
350
6F
  3
SIN
350
70
  3
STORAGE-CART
350
71
  3
T
350
72
  3
TEXTOS
350
73
  3
TEXTURAS
350
74
  3
TUBERIAS
350
75
  3
UNFRZ
350
76
  3
V\U+0160ECHNY_NEPOU\U+017D\U+00CDVAN\U+00C9
350
77
  3
VA
350
78
  3
VENTILACI\U+00D3N
350
79
  3
VYHODNI
350
7A
  3
YO
350
7B
  3
ZAPADNI
350
7C
  3
사용
350
7D
  3
신규
350
7E
  3
실박스
350
7F
  3
우리토목
350
80
  3
주차
350
81
  3
지상정밀
350
82
  3
쩜선
350
83
  3
플로터_작업층
350
84
  3
현재_작업층
350
85
  3
현재_잠금
350
86
1001
ACAD
1000
TREAT_AS_HARD
1070
     1
1000
TREAT_AS_HARD
1070
     0
  0
DICTIONARY
  5
87
102
{ACAD_REACTORS
330
13
102
}
330
13
100
AcDbDictionary
1001
ACAD
1000
TREAT_AS_HARD
1070
     0
1000
TREAT_AS_HARD
1070
     0
  0
XRECORD
  5
589
102
{ACAD_REACTORS
330
3
102
}
330
3
100
AcDbXrecord
340
2
  0
XRECORD
  5
58A
102
{ACAD_REACTORS
330
E
102
}
330
E
100
AcDbXrecord
340
D
  0
DIMASSOC
  5
AF
102
{ACAD_REACTORS
330
AE
102
}
330
AE
100
AcDbDimAssoc
330
AD
 90
        3
 70
     0
 71
     0
  1
AcDbOsnapPointRef
 72
    13
331
167
 73
     2
 91
        0
 40
0.0
 10
44.99938162982653
 20
39.99949543818456
 30
0.0
 75
     0
  1
AcDbOsnapPointRef
 72
     1
331
167
 73
     2
 91
        0
 40
1.0
 10
63.6346094327273
 20
-5.000504561746764
 30
0.0
 75
     0
  0
DIMASSOC
  5
D8
102
{ACAD_REACTORS
330
D7
102
}
330
D7
100
AcDbDimAssoc
330
D6
 90
        2
 70
     0
 71
     0
  1
AcDbOsnapPointRef
 72
     3
331
2A7
 73
     2
 91
        0
 40
0.0
 10
82.35659195366681
 20
268.998391107831
 30
0.0
 75
     0
  0
DIMASSOC
  5
110
102
{ACAD_REACTORS
330
10F
102
}
330
10F
100
AcDbDimAssoc
330
10E
 90
        1
 70
     0
 71
     0
  1
AcDbOsnapPointRef
 72
     1
331
17A
 73
     2
 91
        0
 40
1.0
 10
152.3899867331638
 20
52.0208923175819
 30
0.0
 75
     0
  0
DIMASSOC
  5
121
102
{ACAD_REACTORS
330
120
102
}
330
120
100
AcDbDimAssoc
330
11F
 90
        2
 70
     0
 71
     0
  1
AcDbOsnapPointRef
 72
     1
331
1C1
 73
     2
 91
        0
 40
1.0
 10
233.8899867331638
 20
83.619629659112
 30
0.0
 75
     0
  0
DIMASSOC
  5
14A
102
{ACAD_REACTORS
330
149
102
}
330
149
100
AcDbDimAssoc
330
148
 90
        3
 70
     0
 71
     0
  1
AcDbOsnapPointRef
 72
     1
331
17B
 73
     2
 91
        0
 40
1.0
 10
148.4918479319385
 20
58.0208923175819
 30
0.0
 75
     0
  1
AcDbOsnapPointRef
 72
    13
331
1C3
 73
     2
 91
        0
 40
0.0
 10
140.7823135990655
 20
40.0208923175819
 30
0.0
 75
     0
  0
DIMASSOC
  5
1AA
102
{ACAD_REACTORS
330
1A9
102
}
330
1A9
100
AcDbDimAssoc
330
1A8
 90
        1
 70
     0
 71
     0
  1
AcDbOsnapPointRef
 72
     1
331
1A3
 73
     2
 91
        0
 40
1.0
 10
324.3899867331638
 20
84.52089231758462
 30
0.0
 75
     0
  0
DIMASSOC
  5
1DD
102
{ACAD_REACTORS
330
1DC
102
}
330
1DC
100
AcDbDimAssoc
330
1DB
 90
        3
 70
     0
 71
     0
  1
AcDbOsnapPointRef
 72
     1
331
1D9
 73
     2
 91
        0
 40
1.0
 10
103.772763975281
 20
162.072469130685
 30
0.0
 75
     0
  1
AcDbOsnapPointRef
 72
     1
331
1DA
 73
     2
 91
        0
 40
1.0
 10
107.772763975281
 20
162.072469130685
 30
0.0
 75
     0
  0
DIMASSOC
  5
1EE
102
{ACAD_REACTORS
330
1ED
102
}
330
1ED
100
AcDbDimAssoc
330
1EC
 90
        3
 70
     0
 71
     0
  1
AcDbOsnapPointRef
 72
    13
331
1D5
 73
     2
 91
        0
 40
0.0
 10
58.83938423472864
 20
161.0901887227255
 30
0.0
 75
     0
  1
AcDbOsnapPointRef
 72
    13
331
1D4
 73
     2
 91
        0
 40
0.0
 10
62.83938423472864
 20
161.0901887227255
 30
0.0
 75
     0
  0
DIMASSOC
  5
1FF
102
{ACAD_REACTORS
330
1FE
102
}
330
1FE
100
AcDbDimAssoc
330
1FD
 90
        3
 70
     0
 71
     0
  1
AcDbOsnapPointRef
 72
     1
331
1D8
 73
     2
 91
        0
 40
1.0
 10
107.772763975281
 20
159.9898934357288
 30
0.0
 75
     0
  1
AcDbOsnapPointRef
 72
     5
331
210
 73
     2
 91
        0
 40
1.570796326794896
 10
105.772763975281
 20
162.4898934357283
 30
0.0
 75
     0
  0
DIMASSOC
  5
21C
102
{ACAD_REACTORS
330
21B
102
}
330
21B
100
AcDbDimAssoc
330
21A
 90
        3
 70
     0
 71
     0
  1
AcDbOsnapPointRef
 72
     2
331
217
 73
     2
 91
        0
 40
3.141592653589792
 10
16.66873094801849
 20
159.0901887227255
 30
0.0
 75
     0
  1
AcDbOsnapPointRef
 72
     1
331
219
 73
     2
 91
        0
 40
1.0
 10
41.66873094801849
 20
161.0901887227255
 30
0.0
 75
     0
  0
DIMASSOC
  5
27A
102
{ACAD_REACTORS
330
279
102
}
330
279
100
AcDbDimAssoc
330
278
 90
        2
 70
     0
 71
     0
  1
AcDbOsnapPointRef
 72
     3
331
26A
 73
     2
 91
        0
 40
0.0
 10
98.91740475264668
 20
409.9900114672808
 30
0.0
 75
     0
  0
DIMASSOC
  5
288
102
{ACAD_REACTORS
330
287
102
}
330
287
100
AcDbDimAssoc
330
286
 90
        3
 70
     0
 71
     0
  1
AcDbOsnapPointRef
 72
    13
331
265
 73
     2
 91
        0
 40
0.0
 10
216.4659094238086
 20
451.4900114671839
 30
0.0
 75
     0
  1
AcDbOsnapPointRef
 72
     1
331
265
 73
     2
 91
        0
 40
1.0
 10
216.4659094238086
 20
368.4900114671841
 30
0.0
 75
     0
  0
DIMASSOC
  5
2F5
102
{ACAD_REACTORS
330
2F4
102
}
330
2F4
100
AcDbDimAssoc
330
2F3
 90
        3
 70
     0
 71
     0
  1
AcDbOsnapPointRef
 72
     1
331
2DE
 73
     2
 91
        0
 40
1.0
 10
194.5226028103497
 20
287.0192834254634
 30
0.0
 75
     0
  1
AcDbOsnapPointRef
 72
    13
331
2D7
 73
     2
 91
        0
 40
0.0
 10
186.8130684774804
 20
269.0192834254634
 30
0.0
 75
     0
  0
DIMASSOC
  5
304
102
{ACAD_REACTORS
330
303
102
}
330
303
100
AcDbDimAssoc
330
302
 90
        1
 70
     0
 71
     0
  1
AcDbOsnapPointRef
 72
     1
331
2E0
 73
     2
 91
        0
 40
1.0
 10
198.4207416115785
 20
281.0192834254639
 30
0.0
 75
     0
  0
DIMASSOC
  5
349
102
{ACAD_REACTORS
330
348
102
}
330
348
100
AcDbDimAssoc
330
347
 90
        3
 70
     0
 71
     0
  1
AcDbOsnapPointRef
 72
    13
331
265
 73
     2
 91
        0
 40
0.0
 10
216.4659094238086
 20
451.4900114671839
 30
0.0
 75
     0
  1
AcDbOsnapPointRef
 72
    13
331
266
 73
     2
 91
        0
 40
0.0
 10
218.4659094238086
 20
454.990011467184
 30
0.0
 75
     0
  0
DIMASSOC
  5
35A
102
{ACAD_REACTORS
330
359
102
}
330
359
100
AcDbDimAssoc
330
358
 90
        3
 70
     0
 71
     0
  1
AcDbOsnapPointRef
 72
    13
331
342
 73
     2
 91
        0
 40
0.0
 10
218.4659094238086
 20
454.990011467184
 30
0.0
 75
     0
  1
AcDbOsnapPointRef
 72
    13
331
267
 73
     2
 91
        0
 40
0.0
 10
255.4659094237976
 20
454.990011467184
 30
0.0
 75
     0
  0
DIMASSOC
  5
376
102
{ACAD_REACTORS
330
375
102
}
330
375
100
AcDbDimAssoc
330
374
 90
        2
 70
     0
 71
     0
  1
AcDbOsnapPointRef
 72
     3
331
15F
 73
     2
 91
        0
 40
0.0
 10
45.00000000001454
 20
40.00000000003001
 30
0.0
 75
     0
  0
MLINESTYLE
  5
9A
102
{ACAD_REACTORS
330
98
102
}
330
98
100
AcDbMlineStyle
  2
STANDARD
 70
     0
  3

 62
   256
 51
90.0
 52
90.0
 71
     2
 49
0.5
 62
   256
  6
BYLAYER
 49
-0.5
 62
   256
  6
BYLAYER
  0
XRECORD
  5
15
102
{ACAD_REACTORS
330
14
102
}
330
14
100
AcDbXrecord
  1
$layers
  1
*
  1
*
  1
*
 70
     0
  1
*
  1
*
  0
XRECORD
  5
16
102
{ACAD_REACTORS
330
14
102
}
330
14
100
AcDbXrecord
  1
- und 0
  1
-*,0
  1
*
  1
*
 70
     0
  1
*
  1
*
  0
XRECORD
  5
17
102
{ACAD_REACTORS
330
14
102
}
330
14
100
AcDbXrecord
  1
-pegc
  1
*-pegc
  1
*
  1
*
 70
     0
  1
*
  1
*
  0
XRECORD
  5
18
102
{ACAD_REACTORS
330
14
102
}
330
14
100
AcDbXrecord
  1
101
  1
*101
  1
*
  1
*
 70
   256
  1
*
  1
*
  0
XRECORD
  5
19
102
{ACAD_REACTORS
330
14
102
}
330
14
100
AcDbXrecord
  1
102
  1
102*
  1
*
  1
*
 70
     0
  1
*
  1
*
  0
XRECORD
  5
1A
102
{ACAD_REACTORS
330
14
102
}
330
14
100
AcDbXrecord
  1
1duc
  1
*1duc*
  1
*
  1
*
 70
     0
  1
*
  1
*
  0
XRECORD
  5
1B
102
{ACAD_REACTORS
330
14
102
}
330
14
100
AcDbXrecord
  1
1eq
  1
*1eq*
  1
*
  1
*
 70
     0
  1
*
  1
*
  0
XRECORD
  5
1C
102
{ACAD_REACTORS
330
14
102
}
330
14
100
AcDbXrecord
  1
1tub
  1
*1t*
  1
*
  1
*
 70
     0
  1
*
  1
*
  0
XRECORD
  5
1D
102
{ACAD_REACTORS
330
14
102
}
330
14
100
AcDbXrecord
  1
2
  1
*
  1
2
  1
*
 70
     0
  1
*
  1
*
  0
XRECORD
  5
1E
102
{ACAD_REACTORS
330
14
102
}
330
14
100
AcDbXrecord
  1
2000
  1
2000*
  1
*
  1
*
 70
     0
  1
*
  1
*
  0
XRECORD
  5
1F
102
{ACAD_REACTORS
330
14
102
}
330
14
100
AcDbXrecord
  1
50
  1
*-50
  1
*
  1
*
 70
     0
  1
*
  1
*
  0
XRECORD
  5
20
102
{ACAD_REACTORS
330
14
102
}
330
14
100
AcDbXrecord
  1
58J
  1
*58*
  1
*
  1
*
 70
     0
  1
*
  1
*
  0
XRECORD
  5
21
102
{ACAD_REACTORS
330
14
102
}
330
14
100
AcDbXrecord
  1
65
  1
*65
  1
*
  1
*
 70
     0
  1
*
  1
*
  0
XRECORD
  5
22
102
{ACAD_REACTORS
330
14
102
}
330
14
100
AcDbXrecord
  1
aa
  1
aa*
  1
*
  1
*
 70
     0
  1
*
  1
*
  0
XRECORD
  5
23
102
{ACAD_REACTORS
330
14
102
}
330
14
100
AcDbXrecord
  1
acabados
  1
a-*
  1
*
  1
*
 70
     5
  1
*
  1
*
  0
XRECORD
  5
24
102
{ACAD_REACTORS
330
14
102
}
330
14
100
AcDbXrecord
  1
AGUA Y DREN
  1
A-DS-*
  1
*
  1
*
 70
     0
  1
*
  1
*
  0
XRECORD
  5
25
102
{ACAD_REACTORS
330
14
102
}
330
14
100
AcDbXrecord
  1
Aire
  1
*
  1
*
  1
*
 70
     0
  1
*
  1
*
  0
XRECORD
  5
26
102
{ACAD_REACTORS
330
14
102
}
330
14
100
AcDbXrecord
  1
alle aus
  1
99999999999
  1
*
  1
*
 70
     0
  1
*
  1
*
  0
XRECORD
  5
27
102
{ACAD_REACTORS
330
14
102
}
330
14
100
AcDbXrecord
  1
Alles mit S
  1
s*
  1
*
  1
*
 70
     0
  1
*
  1
*
  0
XRECORD
  5
28
102
{ACAD_REACTORS
330
14
102
}
330
14
100
AcDbXrecord
  1
amarillo
  1
*
  1
yellow
  1
*
 70
     0
  1
*
  1
*
  0
XRECORD
  5
29
102
{ACAD_REACTORS
330
14
102
}
330
14
100
AcDbXrecord
  1
APAGADOS
  1
*
  1
*
  1
*
 70
     4
  1
*
  1
*
  0
XRECORD
  5
2A
102
{ACAD_REACTORS
330
14
102
}
330
14
100
AcDbXrecord
  1
ARR
  1
ARR*
  1
*
  1
*
 70
     0
  1
*
  1
*
  0
XRECORD
  5
2B
102
{ACAD_REACTORS
330
14
102
}
330
14
100
AcDbXrecord
  1
ba
  1
*
  1
*
  1
*
 70
     0
  1
*
  1
*
  0
XRECORD
  5
2C
102
{ACAD_REACTORS
330
14
102
}
330
14
100
AcDbXrecord
  1
BACKS
  1
*-H
  1
*
  1
*
 70
     0
  1
*
  1
*
  0
XRECORD
  5
2D
102
{ACAD_REACTORS
330
14
102
}
330
14
100
AcDbXrecord
  1
BASE
  1
*-PBASE
  1
*
  1
*
 70
     0
  1
*
  1
*
  0
XRECORD
  5
2E
102
{ACAD_REACTORS
330
14
102
}
330
14
100
AcDbXrecord
  1
BLOQ_INUTIL
  1
*
  1
*
  1
*
 70
     0
  1
*
  1
*
  0
XRECORD
  5
2F
102
{ACAD_REACTORS
330
14
102
}
330
14
100
AcDbXrecord
  1
CADKON
  1
?[KAHBSM]?????[23M],?[KAHBSM]?????[23M][1456A-DGHILN-SU-Z]
  1
*
  1
*
 70
     0
  1
*
  1
*
  0
XRECORD
  5
30
102
{ACAD_REACTORS
330
14
102
}
330
14
100
AcDbXrecord
  1
carpinteria
  1
carp*
  1
*
  1
*
 70
     0
  1
*
  1
*
  0
XRECORD
  5
31
102
{ACAD_REACTORS
330
14
102
}
330
14
100
AcDbXrecord
  1
cerrados
  1
*
  1
*
  1
*
 70
   256
  1
*
  1
*
  0
XRECORD
  5
32
102
{ACAD_REACTORS
330
14
102
}
330
14
100
AcDbXrecord
  1
COL
  1
*
  1
*
  1
*
 70
     1
  1
*
  1
*
  0
XRECORD
  5
33
102
{ACAD_REACTORS
330
14
102
}
330
14
100
AcDbXrecord
  1
COLOR
  1
*
  1
253
  1
*
 70
     0
  1
*
  1
*
  0
XRECORD
  5
34
102
{ACAD_REACTORS
330
14
102
}
330
14
100
AcDbXrecord
  1
color 250
  1
*
  1
250
  1
*
 70
     0
  1
*
  1
*
  0
XRECORD
  5
35
102
{ACAD_REACTORS
330
14
102
}
330
14
100
AcDbXrecord
  1
COLORES
  1
*
  1
6
  1
*
 70
     0
  1
*
  1
*
  0
XRECORD
  5
36
102
{ACAD_REACTORS
330
14
102
}
330
14
100
AcDbXrecord
  1
Congelados
  1
*
  1
*
  1
*
 70
     4
  1
*
  1
*
  0
XRECORD
  5
37
102
{ACAD_REACTORS
330
14
102
}
330
14
100
AcDbXrecord
  1
CONJUNTO
  1
CON-*
  1
*
  1
*
 70
     0
  1
*
  1
*
  0
XRECORD
  5
38
102
{ACAD_REACTORS
330
14
102
}
330
14
100
AcDbXrecord
  1
d1
  1
achurados
  1
*
  1
*
 70
     0
  1
*
  1
*
  0
XRECORD
  5
39
102
{ACAD_REACTORS
330
14
102
}
330
14
100
AcDbXrecord
  1
DA_
  1
DA*
  1
*
  1
*
 70
     0
  1
*
  1
*
  0
XRECORD
  5
3A
102
{ACAD_REACTORS
330
14
102
}
330
14
100
AcDbXrecord
  1
DET-
  1
*
  1
*
  1
*
 70
     0
  1
*
  1
*
  0
XRECORD
  5
3B
102
{ACAD_REACTORS
330
14
102
}
330
14
100
AcDbXrecord
  1
DOR-H
  1
*
  1
7
  1
*
 70
     0
  1
*
  1
*
  0
XRECORD
  5
3C
102
{ACAD_REACTORS
330
14
102
}
330
14
100
AcDbXrecord
  1
ejes
  1
eje*
  1
*
  1
*
 70
     0
  1
*
  1
*
  0
XRECORD
  5
3D
102
{ACAD_REACTORS
330
14
102
}
330
14
100
AcDbXrecord
  1
ELECTRICO
  1
ELEC-*
  1
*
  1
*
 70
     0
  1
*
  1
*
  0
XRECORD
  5
3E
102
{ACAD_REACTORS
330
14
102
}
330
14
100
AcDbXrecord
  1
F1
  1
Halaxref*
  1
*
  1
*
 70
     0
  1
*
  1
*
  0
XRECORD
  5
3F
102
{ACAD_REACTORS
330
14
102
}
330
14
100
AcDbXrecord
  1
frozen
  1
*
  1
*
  1
*
 70
     4
  1
*
  1
*
  0
XRECORD
  5
40
102
{ACAD_REACTORS
330
14
102
}
330
14
100
AcDbXrecord
  1
grid
  1
*-PGRID
  1
*
  1
*
 70
     1
  1
*
  1
*
  0
XRECORD
  5
41
102
{ACAD_REACTORS
330
14
102
}
330
14
100
AcDbXrecord
  1
GRIDTXT
  1
*-PGRIDT
  1
*
  1
*
 70
     0
  1
*
  1
*
  0
XRECORD
  5
42
102
{ACAD_REACTORS
330
14
102
}
330
14
100
AcDbXrecord
  1
HATCH
  1
HAT*
  1
*
  1
*
 70
     0
  1
*
  1
*
  0
XRECORD
  5
43
102
{ACAD_REACTORS
330
14
102
}
330
14
100
AcDbXrecord
  1
HCAD
  1
1HCAD-*
  1
*
  1
*
 70
    13
  1
*
  1
*
  0
XRECORD
  5
44
102
{ACAD_REACTORS
330
14
102
}
330
14
100
AcDbXrecord
  1
INSTALACIONES
  1
I-*
  1
*
  1
*
 70
     0
  1
*
  1
*
  0
XRECORD
  5
45
102
{ACAD_REACTORS
330
14
102
}
330
14
100
AcDbXrecord
  1
JIZNI
  1
*-J
  1
*
  1
*
 70
     0
  1
*
  1
*
  0
XRECORD
  5
46
102
{ACAD_REACTORS
330
14
102
}
330
14
100
AcDbXrecord
  1
kck
  1
*
  1
*
  1
*
 70
     0
  1
*
  1
*
  0
XRECORD
  5
47
102
{ACAD_REACTORS
330
14
102
}
330
14
100
AcDbXrecord
  1
kkk
  1
k
  1
*
  1
*
 70
     0
  1
*
  1
*
  0
XRECORD
  5
48
102
{ACAD_REACTORS
330
14
102
}
330
14
100
AcDbXrecord
  1
lay
  1
??-*
  1
*
  1
*
 70
     0
  1
*
  1
*
  0
XRECORD
  5
4C
102
{ACAD_REACTORS
330
14
102
}
330
14
100
AcDbXrecord
  1
Layer-0
  1
0*
  1
*
  1
*
 70
     0
  1
*
  1
*
  0
XRECORD
  5
4D
102
{ACAD_REACTORS
330
14
102
}
330
14
100
AcDbXrecord
  1
Layer-1
  1
1*
  1
*
  1
*
 70
     0
  1
*
  1
*
  0
XRECORD
  5
49
102
{ACAD_REACTORS
330
14
102
}
330
14
100
AcDbXrecord
  1
Layer 1 und 0
  1
1*,0
  1
*
  1
*
 70
     0
  1
*
  1
*
  0
XRECORD
  5
4A
102
{ACAD_REACTORS
330
14
102
}
330
14
100
AcDbXrecord
  1
Layer 2 und 0
  1
2*,0
  1
*
  1
*
 70
     0
  1
*
  1
*
  0
XRECORD
  5
4B
102
{ACAD_REACTORS
330
14
102
}
330
14
100
AcDbXrecord
  1
Layer 9 und 0 Schraffur
  1
9*,0
  1
*
  1
*
 70
     0
  1
*
  1
*
  0
XRECORD
  5
4E
102
{ACAD_REACTORS
330
14
102
}
330
14
100
AcDbXrecord
  1
LOCK
  1
*
  1
*
  1
*
 70
   256
  1
*
  1
*
  0
XRECORD
  5
4F
102
{ACAD_REACTORS
330
14
102
}
330
14
100
AcDbXrecord
  1
locked
  1
*
  1
*
  1
*
 70
   256
  1
*
  1
*
  0
XRECORD
  5
50
102
{ACAD_REACTORS
330
14
102
}
330
14
100
AcDbXrecord
  1
Lotes
  1
*
  1
*
  1
*
 70
     1
  1
*
  1
*
  0
XRECORD
  5
51
102
{ACAD_REACTORS
330
14
102
}
330
14
100
AcDbXrecord
  1
LUNAR
  1
*
  1
*
  1
*
 70
    48
  1
*
  1
*
  0
XRECORD
  5
52
102
{ACAD_REACTORS
330
14
102
}
330
14
100
AcDbXrecord
  1
LUNAR2
  1
*
  1
*
  1
*
 70
    12
  1
*
  1
*
  0
XRECORD
  5
53
102
{ACAD_REACTORS
330
14
102
}
330
14
100
AcDbXrecord
  1
M
  1
M*
  1
*
  1
*
 70
     0
  1
*
  1
*
  0
XRECORD
  5
54
102
{ACAD_REACTORS
330
14
102
}
330
14
100
AcDbXrecord
  1
mis_layers
  1
mis_*
  1
*
  1
*
 70
     0
  1
*
  1
*
  0
XRECORD
  5
55
102
{ACAD_REACTORS
330
14
102
}
330
14
100
AcDbXrecord
  1
MRKCK
  1
*
  1
*
  1
*
 70
     0
  1
*
  1
*
  0
XRECORD
  5
56
102
{ACAD_REACTORS
330
14
102
}
330
14
100
AcDbXrecord
  1
NECADKON
  1
~*?[KAHBSM]?????[23M]*
  1
*
  1
*
 70
     0
  1
*
  1
*
  0
XRECORD
  5
57
102
{ACAD_REACTORS
330
14
102
}
330
14
100
AcDbXrecord
  1
NI_LH
  1
NI_LH*
  1
*
  1
*
 70
     0
  1
*
  1
*
  0
XRECORD
  5
58
102
{ACAD_REACTORS
330
14
102
}
330
14
100
AcDbXrecord
  1
NI_RH
  1
NI_RH*
  1
*
  1
*
 70
     0
  1
*
  1
*
  0
XRECORD
  5
59
102
{ACAD_REACTORS
330
14
102
}
330
14
100
AcDbXrecord
  1
NUM
  1
NUM*
  1
*
  1
*
 70
     0
  1
*
  1
*
  0
XRECORD
  5
5A
102
{ACAD_REACTORS
330
14
102
}
330
14
100
AcDbXrecord
  1
off
  1
*
  1
*
  1
*
 70
     3
  1
*
  1
*
  0
XRECORD
  5
5B
102
{ACAD_REACTORS
330
14
102
}
330
14
100
AcDbXrecord
  1
on
  1
*
  1
*
  1
*
 70
     0
  1
*
  1
*
  0
XRECORD
  5
5C
102
{ACAD_REACTORS
330
14
102
}
330
14
100
AcDbXrecord
  1
PBASE
  1
*PBASE
  1
*
  1
*
 70
     0
  1
*
  1
*
  0
XRECORD
  5
5D
102
{ACAD_REACTORS
330
14
102
}
330
14
100
AcDbXrecord
  1
PEGC
  1
*PEGC
  1
*
  1
*
 70
     0
  1
*
  1
*
  0
XRECORD
  5
5E
102
{ACAD_REACTORS
330
14
102
}
330
14
100
AcDbXrecord
  1
PEGCT
  1
*PEGCT
  1
*
  1
*
 70
     0
  1
*
  1
*
  0
XRECORD
  5
5F
102
{ACAD_REACTORS
330
14
102
}
330
14
100
AcDbXrecord
  1
PFRAME
  1
PFRAME*
  1
*
  1
*
 70
     0
  1
*
  1
*
  0
XRECORD
  5
60
102
{ACAD_REACTORS
330
14
102
}
330
14
100
AcDbXrecord
  1
PGRID
  1
*PGRID
  1
*
  1
*
 70
     0
  1
*
  1
*
  0
XRECORD
  5
61
102
{ACAD_REACTORS
330
14
102
}
330
14
100
AcDbXrecord
  1
PGRIDT
  1
*PGRIDT
  1
*
  1
*
 70
     0
  1
*
  1
*
  0
XRECORD
  5
62
102
{ACAD_REACTORS
330
14
102
}
330
14
100
AcDbXrecord
  1
PLAFONES
  1
0-*
  1
*
  1
*
 70
     0
  1
*
  1
*
  0
XRECORD
  5
63
102
{ACAD_REACTORS
330
14
102
}
330
14
100
AcDbXrecord
  1
PLANTAS
  1
P-*
  1
*
  1
*
 70
     0
  1
*
  1
*
  0
XRECORD
  5
64
102
{ACAD_REACTORS
330
14
102
}
330
14
100
AcDbXrecord
  1
Plot
  1
*
  1
*
  1
*
 70
  1024
  1
*
  1
*
  0
XRECORD
  5
65
102
{ACAD_REACTORS
330
14
102
}
330
14
100
AcDbXrecord
  1
PRENDIDAS
  1
*
  1
*
  1
*
 70
    13
  1
*
  1
*
  0
XRECORD
  5
66
102
{ACAD_REACTORS
330
14
102
}
330
14
100
AcDbXrecord
  1
PRENDIDOS
  1
*
  1
*
  1
*
 70
    12
  1
*
  1
*
  0
XRECORD
  5
67
102
{ACAD_REACTORS
330
14
102
}
330
14
100
AcDbXrecord
  1
print
  1
*
  1
7
  1
*
 70
  1280
  1
*
  1
*
  0
XRECORD
  5
68
102
{ACAD_REACTORS
330
14
102
}
330
14
100
AcDbXrecord
  1
PT
  1
PT-*
  1
*
  1
*
 70
     0
  1
*
  1
*
  0
XRECORD
  5
69
102
{ACAD_REACTORS
330
14
102
}
330
14
100
AcDbXrecord
  1
PTH
  1
PTH*
  1
*
  1
*
 70
     0
  1
*
  1
*
  0
XRECORD
  5
6A
102
{ACAD_REACTORS
330
14
102
}
330
14
100
AcDbXrecord
  1
PVGRID
  1
*PVGRID
  1
*
  1
*
 70
     0
  1
*
  1
*
  0
XRECORD
  5
6B
102
{ACAD_REACTORS
330
14
102
}
330
14
100
AcDbXrecord
  1
Red de Agua Potable
  1
Red de Agua Potable
  1
*
  1
*
 70
     1
  1
*
  1
*
  0
XRECORD
  5
6C
102
{ACAD_REACTORS
330
14
102
}
330
14
100
AcDbXrecord
  1
Red de Energia Electrica
  1
Lotes
  1
*
  1
*
 70
     1
  1
*
  1
*
  0
XRECORD
  5
6D
102
{ACAD_REACTORS
330
14
102
}
330
14
100
AcDbXrecord
  1
SEVERNI
  1
*-S
  1
*
  1
*
 70
     0
  1
*
  1
*
  0
XRECORD
  5
6E
102
{ACAD_REACTORS
330
14
102
}
330
14
100
AcDbXrecord
  1
shin
  1
일*
  1
*
  1
*
 70
     0
  1
*
  1
*
  0
XRECORD
  5
6F
102
{ACAD_REACTORS
330
14
102
}
330
14
100
AcDbXrecord
  1
SHOW ALL LAYER
  1
*
  1
*
  1
*
 70
     0
  1
*
  1
*
  0
XRECORD
  5
70
102
{ACAD_REACTORS
330
14
102
}
330
14
100
AcDbXrecord
  1
sin
  1
sin
  1
*
  1
*
 70
     0
  1
*
  1
*
  0
XRECORD
  5
71
102
{ACAD_REACTORS
330
14
102
}
330
14
100
AcDbXrecord
  1
STORAGE-CART
  1
STORAGE-CART*
  1
*
  1
*
 70
     0
  1
*
  1
*
  0
XRECORD
  5
72
102
{ACAD_REACTORS
330
14
102
}
330
14
100
AcDbXrecord
  1
T
  1
T*
  1
*
  1
*
 70
     0
  1
*
  1
*
  0
XRECORD
  5
73
102
{ACAD_REACTORS
330
14
102
}
330
14
100
AcDbXrecord
  1
TEXTOS
  1
TXT*
  1
*
  1
*
 70
     0
  1
*
  1
*
  0
XRECORD
  5
74
102
{ACAD_REACTORS
330
14
102
}
330
14
100
AcDbXrecord
  1
TEXTURAS
  1
*TEXTURAS
  1
*
  1
*
 70
     0
  1
*
  1
*
  0
XRECORD
  5
75
102
{ACAD_REACTORS
330
14
102
}
330
14
100
AcDbXrecord
  1
TUBERIAS
  1
T*
  1
*
  1
*
 70
     0
  1
*
  1
*
  0
XRECORD
  5
76
102
{ACAD_REACTORS
330
14
102
}
330
14
100
AcDbXrecord
  1
UNFRZ
  1
*
  1
*
  1
*
 70
    12
  1
*
  1
*
  0
XRECORD
  5
77
102
{ACAD_REACTORS
330
14
102
}
330
14
100
AcDbXrecord
  1
v\U+0161echny nepou\U+017E\U+00EDvan\U+00E9
  1
*
  1
*
  1
*
 70
     0
  1
*
  1
*
  0
XRECORD
  5
78
102
{ACAD_REACTORS
330
14
102
}
330
14
100
AcDbXrecord
  1
VA
  1
VA*
  1
*
  1
*
 70
     0
  1
*
  1
*
  0
XRECORD
  5
79
102
{ACAD_REACTORS
330
14
102
}
330
14
100
AcDbXrecord
  1
Ventilaci\U+00F3n
  1
*
  1
*
  1
*
 70
     0
  1
*
  1
*
  0
XRECORD
  5
7A
102
{ACAD_REACTORS
330
14
102
}
330
14
100
AcDbXrecord
  1
VYHODNI
  1
*-V
  1
*
  1
*
 70
     0
  1
*
  1
*
  0
XRECORD
  5
7B
102
{ACAD_REACTORS
330
14
102
}
330
14
100
AcDbXrecord
  1
Yo
  1
Muros
  1
*
  1
*
 70
     0
  1
*
  1
*
  0
XRECORD
  5
7C
102
{ACAD_REACTORS
330
14
102
}
330
14
100
AcDbXrecord
  1
ZAPADNI
  1
*-Z
  1
*
  1
*
 70
     0
  1
*
  1
*
  0
XRECORD
  5
7D
102
{ACAD_REACTORS
330
14
102
}
330
14
100
AcDbXrecord
  1
사용
  1
*
  1
*
  1
*
 70
   256
  1
*
  1
*
  0
XRECORD
  5
7E
102
{ACAD_REACTORS
330
14
102
}
330
14
100
AcDbXrecord
  1
신규
  1
신규
  1
*
  1
*
 70
     0
  1
*
  1
*
  0
XRECORD
  5
7F
102
{ACAD_REACTORS
330
14
102
}
330
14
100
AcDbXrecord
  1
실박스
  1
BLO,SYM,SYM1,SYM2
  1
*
  1
*
 70
     0
  1
*
  1
*
  0
XRECORD
  5
80
102
{ACAD_REACTORS
330
14
102
}
330
14
100
AcDbXrecord
  1
우리토목
  1
w-*
  1
*
  1
*
 70
     0
  1
*
  1
*
  0
XRECORD
  5
81
102
{ACAD_REACTORS
330
14
102
}
330
14
100
AcDbXrecord
  1
주차
  1
car*
  1
*
  1
*
 70
     0
  1
*
  1
*
  0
XRECORD
  5
82
102
{ACAD_REACTORS
330
14
102
}
330
14
100
AcDbXrecord
  1
지상정밀
  1
*
  1
*
  1
*
 70
     0
  1
*
  1
*
  0
XRECORD
  5
83
102
{ACAD_REACTORS
330
14
102
}
330
14
100
AcDbXrecord
  1
쩜선
  1
*
  1
*
  1
*
 70
     0
  1
*
  1
*
  0
XRECORD
  5
84
102
{ACAD_REACTORS
330
14
102
}
330
14
100
AcDbXrecord
  1
플로터 작업층
  1
*
  1
*
  1
*
 70
  1025
  1
*
  1
*
  0
XRECORD
  5
85
102
{ACAD_REACTORS
330
14
102
}
330
14
100
AcDbXrecord
  1
현재 작업층
  1
*
  1
*
  1
*
 70
     1
  1
*
  1
*
  0
XRECORD
  5
86
102
{ACAD_REACTORS
330
14
102
}
330
14
100
AcDbXrecord
  1
현재 잠금
  1
*
  1
*
  1
*
 70
   257
  1
*
  1
*
  0
ENDSEC
  0
EOF
