  0
SECTION
  2
HEADER
  9
$ACADVER
  1
AC1012
  9
$DWGCODEPAGE
  3
ksc5601
  9
$INSBASE
 10
21428.9215151746
 20
-3039.935037411544
 30
0.0
  9
$EXTMIN
 10
4.747449904447421
 20
-14.10615376425994
 30
-0.0000000000119164
  9
$EXTMAX
 10
333.3994476533553
 20
486.9906298977658
 30
0.0000000000664171
  9
$LIMMIN
 10
0.0
 20
0.0
  9
$LIMMAX
 10
420.0
 20
297.0
  9
$ORTHOMODE
 70
     0
  9
$REGENMODE
 70
     1
  9
$FILLMODE
 70
     1
  9
$QTEXTMODE
 70
     0
  9
$MIRRTEXT
 70
     0
  9
$DRAGMODE
 70
     2
  9
$LTSCALE
 40
0.2
  9
$OSMODE
 70
   567
  9
$ATTMODE
 70
     1
  9
$TEXTSIZE
 40
5.777225951253058
  9
$TRACEWID
 40
1.0
  9
$TEXTSTYLE
  7
STANDARD
  9
$CLAYER
  8
0
  9
$CELTYPE
  6
BYLAYER
  9
$CECOLOR
 62
   256
  9
$CELTSCALE
 40
1.0
  9
$DELOBJ
 70
     1
  9
$DISPSILH
 70
     0
  9
$DIMSCALE
 40
1.0
  9
$DIMASZ
 40
3.0
  9
$DIMEXO
 40
1.0
  9
$DIMDLI
 40
10.0
  9
$DIMRND
 40
0.0
  9
$DIMDLE
 40
0.0
  9
$DIMEXE
 40
0.6
  9
$DIMTP
 40
0.0
  9
$DIMTM
 40
0.0
  9
$DIMTXT
 40
3.5
  9
$DIMCEN
 40
0.09
  9
$DIMTSZ
 40
0.0
  9
$DIMTOL
 70
     0
  9
$DIMLIM
 70
     0
  9
$DIMTIH
 70
     0
  9
$DIMTOH
 70
     0
  9
$DIMSE1
 70
     0
  9
$DIMSE2
 70
     0
  9
$DIMTAD
 70
     1
  9
$DIMZIN
 70
     8
  9
$DIMBLK
  1

  9
$DIMASO
 70
     1
  9
$DIMSHO
 70
     1
  9
$DIMPOST
  1

  9
$DIMAPOST
  1

  9
$DIMALT
 70
     0
  9
$DIMALTD
 70
     2
  9
$DIMALTF
 40
25.4
  9
$DIMLFAC
 40
1.0
  9
$DIMTOFL
 70
     1
  9
$DIMTVP
 40
0.0
  9
$DIMTIX
 70
     1
  9
$DIMSOXD
 70
     0
  9
$DIMSAH
 70
     0
  9
$DIMBLK1
  1

  9
$DIMBLK2
  1

  9
$DIMSTYLE
  2
1_1_2
  9
$DIMCLRD
 70
   123
  9
$DIMCLRE
 70
   123
  9
$DIMCLRT
 70
     3
  9
$DIMTFAC
 40
1.0
  9
$DIMGAP
 40
1.0
  9
$DIMJUST
 70
     0
  9
$DIMSD1
 70
     0
  9
$DIMSD2
 70
     0
  9
$DIMTOLJ
 70
     1
  9
$DIMTZIN
 70
     0
  9
$DIMALTZ
 70
     0
  9
$DIMALTTZ
 70
     0
  9
$DIMFIT
 70
     0
  9
$DIMUPT
 70
     1
  9
$DIMUNIT
 70
     2
  9
$DIMDEC
 70
     2
  9
$DIMTDEC
 70
     2
  9
$DIMALTU
 70
     2
  9
$DIMALTTD
 70
     2
  9
$DIMTXSTY
  7
STANDARD
  9
$DIMAUNIT
 70
     1
  9
$LUNITS
 70
     2
  9
$LUPREC
 70
     4
  9
$SKETCHINC
 40
1.0
  9
$FILLETRAD
 40
0.5
  9
$AUNITS
 70
     0
  9
$AUPREC
 70
     0
  9
$MENU
  1
.
  9
$ELEVATION
 40
0.0
  9
$PELEVATION
 40
0.0
  9
$THICKNESS
 40
0.0
  9
$LIMCHECK
 70
     0
  9
$BLIPMODE
 70
     1
  9
$CHAMFERA
 40
1.0
  9
$CHAMFERB
 40
1.0
  9
$CHAMFERC
 40
20.0
  9
$CHAMFERD
 40
0.0
  9
$SKPOLY
 70
     0
  9
$TDCREATE
 40
2452839.586179271
  9
$TDUPDATE
 40
2453376.707191111
  9
$TDINDWG
 40
11.1201923495
  9
$TDUSRTIMER
 40
11.1201921644
  9
$USRTIMER
 70
     1
  9
$ANGBASE
 50
0.0
  9
$ANGDIR
 70
     0
  9
$PDMODE
 70
     0
  9
$PDSIZE
 40
0.0
  9
$PLINEWID
 40
0.0
  9
$COORDS
 70
     2
  9
$SPLFRAME
 70
     0
  9
$SPLINETYPE
 70
     6
  9
$SPLINESEGS
 70
   800
  9
$ATTDIA
 70
     0
  9
$ATTREQ
 70
     1
  9
$HANDLING
 70
 22529
  9
$HANDSEED
  5
50D
  9
$SURFTAB1
 70
     6
  9
$SURFTAB2
 70
     6
  9
$SURFTYPE
 70
     6
  9
$SURFU
 70
     6
  9
$SURFV
 70
     6
  9
$UCSNAME
  2

  9
$UCSORG
 10
0.0
 20
0.0
 30
0.0
  9
$UCSXDIR
 10
1.0
 20
0.0
 30
0.0
  9
$UCSYDIR
 10
0.0
 20
1.0
 30
0.0
  9
$PUCSNAME
  2

  9
$PUCSORG
 10
0.0
 20
0.0
 30
0.0
  9
$PUCSXDIR
 10
1.0
 20
0.0
 30
0.0
  9
$PUCSYDIR
 10
0.0
 20
1.0
 30
0.0
  9
$USERI1
 70
     0
  9
$USERI2
 70
     0
  9
$USERI3
 70
     0
  9
$USERI4
 70
     0
  9
$USERI5
 70
     0
  9
$USERR1
 40
0.0
  9
$USERR2
 40
0.0
  9
$USERR3
 40
0.0
  9
$USERR4
 40
0.0
  9
$USERR5
 40
0.0
  9
$WORLDVIEW
 70
     1
  9
$SHADEDGE
 70
     3
  9
$SHADEDIF
 70
    70
  9
$TILEMODE
 70
     1
  9
$MAXACTVP
 70
    48
  9
$PINSBASE
 10
0.0
 20
0.0
 30
0.0
  9
$PLIMCHECK
 70
     0
  9
$PEXTMIN
 10
0.0
 20
0.0
 30
0.0
  9
$PEXTMAX
 10
0.0
 20
0.0
 30
0.0
  9
$PLIMMIN
 10
0.0
 20
0.0
  9
$PLIMMAX
 10
12.0
 20
9.0
  9
$UNITMODE
 70
     0
  9
$VISRETAIN
 70
     1
  9
$PLINEGEN
 70
     0
  9
$PSLTSCALE
 70
     1
  9
$TREEDEPTH
 70
  3020
  9
$PICKSTYLE
 70
     0
  9
$CMLSTYLE
  2
STANDARD
  9
$CMLJUST
 70
     0
  9
$CMLSCALE
 40
20.0
  9
$SAVEIMAGES
 70
     1
  0
ENDSEC
  0
SECTION
  2
CLASSES
  0
CLASS
  1
ACDBDICTIONARYWDFLT
  2
AcDbDictionaryWithDefault
  3
AutoCAD 2000
 90
    32768
280
     0
281
     0
  0
CLASS
  1
ACDBPLACEHOLDER
  2
AcDbPlaceHolder
  3
AutoCAD 2000
 90
    32768
280
     0
281
     0
  0
CLASS
  1
LAYOUT
  2
AcDbLayout
  3
AutoCAD 2000
 90
    32768
280
     0
281
     0
  0
CLASS
  1
DICTIONARYVAR
  2
AcDbDictionaryVar
  3
AutoCAD 2000
 90
    32768
280
     0
281
     0
  0
CLASS
  1
DIMASSOC
  2
AcDbDimAssoc
  3
"AcDbDimAssoc|Product Desc:     AcDim ARX App For Dimension|Company:          Autodesk, Inc.|WEB Address:      www.autodesk.com"
 90
    32768
280
     0
281
     0
  0
CLASS
  1
LONG_TRANSACTION
  2
AcDbLongTransaction
  3
AutoCAD 2000
 90
    32768
280
     0
281
     0
  0
CLASS
  1
LWPOLYLINE
  2
AcDbPolyline
  3
AutoCAD 2000
 90
    32768
280
     0
281
     1
  0
CLASS
  1
HATCH
  2
AcDbHatch
  3
AutoCAD 2000
 90
    32768
280
     0
281
     1
  0
CLASS
  1
XRECORD
  2
AcDbXrecord
  3
AutoCAD 2000
 90
    32768
280
     0
281
     0
  0
CLASS
  1
LONG_TRANSACTION
  2
AcDbLongTransaction
  3
AutoCAD 2000
 90
    32768
280
     0
281
     0
  0
CLASS
  1
LWPOLYLINE
  2
AcDbPolyline
  3
AutoCAD 2000
 90
    32768
280
     0
281
     1
  0
CLASS
  1
HATCH
  2
AcDbHatch
  3
AutoCAD 2000
 90
    32768
280
     0
281
     1
  0
CLASS
  1
XRECORD
  2
AcDbXrecord
  3
AutoCAD 2000
 90
    32768
280
     0
281
     0
  0
CLASS
  1
LONG_TRANSACTION
  2
AcDbLongTransaction
  3
AutoCAD 2000
 90
    32768
280
     0
281
     0
  0
CLASS
  1
LWPOLYLINE
  2
AcDbPolyline
  3
AutoCAD 2000
 90
    32768
280
     0
281
     1
  0
CLASS
  1
HATCH
  2
AcDbHatch
  3
AutoCAD 2000
 90
    32768
280
     0
281
     1
  0
CLASS
  1
XRECORD
  2
AcDbXrecord
  3
AutoCAD 2000
 90
    32768
280
     0
281
     0
  0
CLASS
  1
LONG_TRANSACTION
  2
AcDbLongTransaction
  3
AutoCAD 2000
 90
    32768
280
     0
281
     0
  0
CLASS
  1
LWPOLYLINE
  2
AcDbPolyline
  3
AutoCAD 2000
 90
    32768
280
     0
281
     1
  0
CLASS
  1
HATCH
  2
AcDbHatch
  3
AutoCAD 2000
 90
    32768
280
     0
281
     1
  0
CLASS
  1
XRECORD
  2
AcDbXrecord
  3
AutoCAD 2000
 90
    32768
280
     0
281
     0
  0
CLASS
  1
LONG_TRANSACTION
  2
AcDbLongTransaction
  3
AutoCAD 2000
 90
    32768
280
     0
281
     0
  0
CLASS
  1
LWPOLYLINE
  2
AcDbPolyline
  3
AutoCAD 2000
 90
    32768
280
     0
281
     1
  0
CLASS
  1
HATCH
  2
AcDbHatch
  3
AutoCAD 2000
 90
    32768
280
     0
281
     1
  0
CLASS
  1
XRECORD
  2
AcDbXrecord
  3
AutoCAD 2000
 90
    32768
280
     0
281
     0
  0
CLASS
  1
LONG_TRANSACTION
  2
AcDbLongTransaction
  3
AutoCAD 2000
 90
    32768
280
     0
281
     0
  0
CLASS
  1
LWPOLYLINE
  2
AcDbPolyline
  3
AutoCAD 2000
 90
    32768
280
     0
281
     1
  0
CLASS
  1
HATCH
  2
AcDbHatch
  3
AutoCAD 2000
 90
    32768
280
     0
281
     1
  0
CLASS
  1
XRECORD
  2
AcDbXrecord
  3
AutoCAD 2000
 90
    32768
280
     0
281
     0
  0
CLASS
  1
LONG_TRANSACTION
  2
AcDbLongTransaction
  3
AutoCAD 2000
 90
    32768
280
     0
281
     0
  0
CLASS
  1
LWPOLYLINE
  2
AcDbPolyline
  3
AutoCAD 2000
 90
    32768
280
     0
281
     1
  0
CLASS
  1
HATCH
  2
AcDbHatch
  3
AutoCAD 2000
 90
    32768
280
     0
281
     1
  0
CLASS
  1
XRECORD
  2
AcDbXrecord
  3
AutoCAD 2000
 90
    32768
280
     0
281
     0
  0
CLASS
  1
LONG_TRANSACTION
  2
AcDbLongTransaction
  3
AutoCAD 2000
 90
    32768
280
     0
281
     0
  0
CLASS
  1
LWPOLYLINE
  2
AcDbPolyline
  3
AutoCAD 2000
 90
    32768
280
     0
281
     1
  0
CLASS
  1
HATCH
  2
AcDbHatch
  3
AutoCAD 2000
 90
    32768
280
     0
281
     1
  0
CLASS
  1
XRECORD
  2
AcDbXrecord
  3
AutoCAD 2000
 90
    32768
280
     0
281
     0
  0
CLASS
  1
LONG_TRANSACTION
  2
AcDbLongTransaction
  3
AutoCAD 2000
 90
    32768
280
     0
281
     0
  0
CLASS
  1
LWPOLYLINE
  2
AcDbPolyline
  3
AutoCAD 2000
 90
    32768
280
     0
281
     1
  0
CLASS
  1
HATCH
  2
AcDbHatch
  3
AutoCAD 2000
 90
    32768
280
     0
281
     1
  0
CLASS
  1
XRECORD
  2
AcDbXrecord
  3
AutoCAD 2000
 90
    32768
280
     0
281
     0
  0
CLASS
  1
LONG_TRANSACTION
  2
AcDbLongTransaction
  3
AutoCAD 2000
 90
    32768
280
     0
281
     0
  0
CLASS
  1
LWPOLYLINE
  2
AcDbPolyline
  3
AutoCAD 2000
 90
    32768
280
     0
281
     1
  0
CLASS
  1
HATCH
  2
AcDbHatch
  3
AutoCAD 2000
 90
    32768
280
     0
281
     1
  0
CLASS
  1
XRECORD
  2
AcDbXrecord
  3
AutoCAD 2000
 90
    32768
280
     0
281
     0
  0
CLASS
  1
LONG_TRANSACTION
  2
AcDbLongTransaction
  3
AutoCAD 2000
 90
    32768
280
     0
281
     0
  0
CLASS
  1
LWPOLYLINE
  2
AcDbPolyline
  3
AutoCAD 2000
 90
    32768
280
     0
281
     1
  0
CLASS
  1
HATCH
  2
AcDbHatch
  3
AutoCAD 2000
 90
    32768
280
     0
281
     1
  0
CLASS
  1
XRECORD
  2
AcDbXrecord
  3
AutoCAD 2000
 90
    32768
280
     0
281
     0
  0
CLASS
  1
LONG_TRANSACTION
  2
AcDbLongTransaction
  3
AutoCAD 2000
 90
    32768
280
     0
281
     0
  0
CLASS
  1
LWPOLYLINE
  2
AcDbPolyline
  3
AutoCAD 2000
 90
    32768
280
     0
281
     1
  0
CLASS
  1
HATCH
  2
AcDbHatch
  3
AutoCAD 2000
 90
    32768
280
     0
281
     1
  0
CLASS
  1
XRECORD
  2
AcDbXrecord
  3
AutoCAD 2000
 90
    32768
280
     0
281
     0
  0
CLASS
  1
LONG_TRANSACTION
  2
AcDbLongTransaction
  3
AutoCAD 2000
 90
    32768
280
     0
281
     0
  0
CLASS
  1
LWPOLYLINE
  2
AcDbPolyline
  3
AutoCAD 2000
 90
    32768
280
     0
281
     1
  0
CLASS
  1
HATCH
  2
AcDbHatch
  3
AutoCAD 2000
 90
    32768
280
     0
281
     1
  0
CLASS
  1
XRECORD
  2
AcDbXrecord
  3
AutoCAD 2000
 90
    32768
280
     0
281
     0
  0
CLASS
  1
LONG_TRANSACTION
  2
AcDbLongTransaction
  3
AutoCAD 2000
 90
    32768
280
     0
281
     0
  0
CLASS
  1
LWPOLYLINE
  2
AcDbPolyline
  3
AutoCAD 2000
 90
    32768
280
     0
281
     1
  0
CLASS
  1
HATCH
  2
AcDbHatch
  3
AutoCAD 2000
 90
    32768
280
     0
281
     1
  0
CLASS
  1
XRECORD
  2
AcDbXrecord
  3
AutoCAD 2000
 90
    32768
280
     0
281
     0
  0
CLASS
  1
LONG_TRANSACTION
  2
AcDbLongTransaction
  3
AutoCAD 2000
 90
    32768
280
     0
281
     0
  0
CLASS
  1
LWPOLYLINE
  2
AcDbPolyline
  3
AutoCAD 2000
 90
    32768
280
     0
281
     1
  0
CLASS
  1
HATCH
  2
AcDbHatch
  3
AutoCAD 2000
 90
    32768
280
     0
281
     1
  0
CLASS
  1
XRECORD
  2
AcDbXrecord
  3
AutoCAD 2000
 90
    32768
280
     0
281
     0
  0
CLASS
  1
LONG_TRANSACTION
  2
AcDbLongTransaction
  3
AutoCAD 2000
 90
    32768
280
     0
281
     0
  0
CLASS
  1
LWPOLYLINE
  2
AcDbPolyline
  3
AutoCAD 2000
 90
    32768
280
     0
281
     1
  0
CLASS
  1
HATCH
  2
AcDbHatch
  3
AutoCAD 2000
 90
    32768
280
     0
281
     1
  0
CLASS
  1
XRECORD
  2
AcDbXrecord
  3
AutoCAD 2000
 90
    32768
280
     0
281
     0
  0
CLASS
  1
LONG_TRANSACTION
  2
AcDbLongTransaction
  3
AutoCAD 2000
 90
    32768
280
     0
281
     0
  0
CLASS
  1
LWPOLYLINE
  2
AcDbPolyline
  3
AutoCAD 2000
 90
    32768
280
     0
281
     1
  0
CLASS
  1
HATCH
  2
AcDbHatch
  3
AutoCAD 2000
 90
    32768
280
     0
281
     1
  0
CLASS
  1
XRECORD
  2
AcDbXrecord
  3
AutoCAD 2000
 90
    32768
280
     0
281
     0
  0
CLASS
  1
LONG_TRANSACTION
  2
AcDbLongTransaction
  3
AutoCAD 2000
 90
    32768
280
     0
281
     0
  0
CLASS
  1
LWPOLYLINE
  2
AcDbPolyline
  3
AutoCAD 2000
 90
    32768
280
     0
281
     1
  0
CLASS
  1
HATCH
  2
AcDbHatch
  3
AutoCAD 2000
 90
    32768
280
     0
281
     1
  0
CLASS
  1
XRECORD
  2
AcDbXrecord
  3
AutoCAD 2000
 90
    32768
280
     0
281
     0
  0
CLASS
  1
LONG_TRANSACTION
  2
AcDbLongTransaction
  3
AutoCAD 2000
 90
    32768
280
     0
281
     0
  0
CLASS
  1
LWPOLYLINE
  2
AcDbPolyline
  3
AutoCAD 2000
 90
    32768
280
     0
281
     1
  0
CLASS
  1
HATCH
  2
AcDbHatch
  3
AutoCAD 2000
 90
    32768
280
     0
281
     1
  0
CLASS
  1
XRECORD
  2
AcDbXrecord
  3
AutoCAD 2000
 90
    32768
280
     0
281
     0
  0
CLASS
  1
LONG_TRANSACTION
  2
AcDbLongTransaction
  3
AutoCAD 2000
 90
    32768
280
     0
281
     0
  0
CLASS
  1
LWPOLYLINE
  2
AcDbPolyline
  3
AutoCAD 2000
 90
    32768
280
     0
281
     1
  0
CLASS
  1
HATCH
  2
AcDbHatch
  3
AutoCAD 2000
 90
    32768
280
     0
281
     1
  0
CLASS
  1
XRECORD
  2
AcDbXrecord
  3
AutoCAD 2000
 90
    32768
280
     0
281
     0
  0
CLASS
  1
LONG_TRANSACTION
  2
AcDbLongTransaction
  3
AutoCAD 2000
 90
    32768
280
     0
281
     0
  0
CLASS
  1
LWPOLYLINE
  2
AcDbPolyline
  3
AutoCAD 2000
 90
    32768
280
     0
281
     1
  0
CLASS
  1
HATCH
  2
AcDbHatch
  3
AutoCAD 2000
 90
    32768
280
     0
281
     1
  0
CLASS
  1
XRECORD
  2
AcDbXrecord
  3
AutoCAD 2000
 90
    32768
280
     0
281
     0
  0
CLASS
  1
LONG_TRANSACTION
  2
AcDbLongTransaction
  3
AutoCAD 2000
 90
    32768
280
     0
281
     0
  0
CLASS
  1
LWPOLYLINE
  2
AcDbPolyline
  3
AutoCAD 2000
 90
    32768
280
     0
281
     1
  0
CLASS
  1
HATCH
  2
AcDbHatch
  3
AutoCAD 2000
 90
    32768
280
     0
281
     1
  0
CLASS
  1
XRECORD
  2
AcDbXrecord
  3
AutoCAD 2000
 90
    32768
280
     0
281
     0
  0
CLASS
  1
LONG_TRANSACTION
  2
AcDbLongTransaction
  3
AutoCAD 2000
 90
    32768
280
     0
281
     0
  0
CLASS
  1
LWPOLYLINE
  2
AcDbPolyline
  3
AutoCAD 2000
 90
    32768
280
     0
281
     1
  0
CLASS
  1
HATCH
  2
AcDbHatch
  3
AutoCAD 2000
 90
    32768
280
     0
281
     1
  0
CLASS
  1
XRECORD
  2
AcDbXrecord
  3
AutoCAD 2000
 90
    32768
280
     0
281
     0
  0
CLASS
  1
LONG_TRANSACTION
  2
AcDbLongTransaction
  3
AutoCAD 2000
 90
    32768
280
     0
281
     0
  0
CLASS
  1
LWPOLYLINE
  2
AcDbPolyline
  3
AutoCAD 2000
 90
    32768
280
     0
281
     1
  0
CLASS
  1
HATCH
  2
AcDbHatch
  3
AutoCAD 2000
 90
    32768
280
     0
281
     1
  0
CLASS
  1
XRECORD
  2
AcDbXrecord
  3
AutoCAD 2000
 90
    32768
280
     0
281
     0
  0
CLASS
  1
LONG_TRANSACTION
  2
AcDbLongTransaction
  3
AutoCAD 2000
 90
    32768
280
     0
281
     0
  0
CLASS
  1
LWPOLYLINE
  2
AcDbPolyline
  3
AutoCAD 2000
 90
    32768
280
     0
281
     1
  0
CLASS
  1
HATCH
  2
AcDbHatch
  3
AutoCAD 2000
 90
    32768
280
     0
281
     1
  0
CLASS
  1
XRECORD
  2
AcDbXrecord
  3
AutoCAD 2000
 90
    32768
280
     0
281
     0
  0
CLASS
  1
LONG_TRANSACTION
  2
AcDbLongTransaction
  3
AutoCAD 2000
 90
    32768
280
     0
281
     0
  0
CLASS
  1
LWPOLYLINE
  2
AcDbPolyline
  3
AutoCAD 2000
 90
    32768
280
     0
281
     1
  0
CLASS
  1
HATCH
  2
AcDbHatch
  3
AutoCAD 2000
 90
    32768
280
     0
281
     1
  0
CLASS
  1
XRECORD
  2
AcDbXrecord
  3
AutoCAD 2000
 90
    32768
280
     0
281
     0
  0
CLASS
  1
LONG_TRANSACTION
  2
AcDbLongTransaction
  3
AutoCAD 2000
 90
    32768
280
     0
281
     0
  0
CLASS
  1
LWPOLYLINE
  2
AcDbPolyline
  3
AutoCAD 2000
 90
    32768
280
     0
281
     1
  0
CLASS
  1
HATCH
  2
AcDbHatch
  3
AutoCAD 2000
 90
    32768
280
     0
281
     1
  0
CLASS
  1
XRECORD
  2
AcDbXrecord
  3
AutoCAD 2000
 90
    32768
280
     0
281
     0
  0
CLASS
  1
LONG_TRANSACTION
  2
AcDbLongTransaction
  3
AutoCAD 2000
 90
    32768
280
     0
281
     0
  0
CLASS
  1
LWPOLYLINE
  2
AcDbPolyline
  3
AutoCAD 2000
 90
    32768
280
     0
281
     1
  0
CLASS
  1
HATCH
  2
AcDbHatch
  3
AutoCAD 2000
 90
    32768
280
     0
281
     1
  0
CLASS
  1
XRECORD
  2
AcDbXrecord
  3
AutoCAD 2000
 90
    32768
280
     0
281
     0
  0
CLASS
  1
LONG_TRANSACTION
  2
AcDbLongTransaction
  3
AutoCAD 2000
 90
    32768
280
     0
281
     0
  0
CLASS
  1
LWPOLYLINE
  2
AcDbPolyline
  3
AutoCAD 2000
 90
    32768
280
     0
281
     1
  0
CLASS
  1
HATCH
  2
AcDbHatch
  3
AutoCAD 2000
 90
    32768
280
     0
281
     1
  0
CLASS
  1
XRECORD
  2
AcDbXrecord
  3
AutoCAD 2000
 90
    32768
280
     0
281
     0
  0
CLASS
  1
LONG_TRANSACTION
  2
AcDbLongTransaction
  3
AutoCAD 2000
 90
    32768
280
     0
281
     0
  0
CLASS
  1
LWPOLYLINE
  2
AcDbPolyline
  3
AutoCAD 2000
 90
    32768
280
     0
281
     1
  0
CLASS
  1
HATCH
  2
AcDbHatch
  3
AutoCAD 2000
 90
    32768
280
     0
281
     1
  0
CLASS
  1
XRECORD
  2
AcDbXrecord
  3
AutoCAD 2000
 90
    32768
280
     0
281
     0
  0
CLASS
  1
LONG_TRANSACTION
  2
AcDbLongTransaction
  3
AutoCAD 2000
 90
    32768
280
     0
281
     0
  0
CLASS
  1
LWPOLYLINE
  2
AcDbPolyline
  3
AutoCAD 2000
 90
    32768
280
     0
281
     1
  0
CLASS
  1
HATCH
  2
AcDbHatch
  3
AutoCAD 2000
 90
    32768
280
     0
281
     1
  0
CLASS
  1
XRECORD
  2
AcDbXrecord
  3
AutoCAD 2000
 90
    32768
280
     0
281
     0
  0
CLASS
  1
LONG_TRANSACTION
  2
AcDbLongTransaction
  3
AutoCAD 2000
 90
    32768
280
     0
281
     0
  0
CLASS
  1
LWPOLYLINE
  2
AcDbPolyline
  3
AutoCAD 2000
 90
    32768
280
     0
281
     1
  0
CLASS
  1
HATCH
  2
AcDbHatch
  3
AutoCAD 2000
 90
    32768
280
     0
281
     1
  0
CLASS
  1
XRECORD
  2
AcDbXrecord
  3
AutoCAD 2000
 90
    32768
280
     0
281
     0
  0
CLASS
  1
LONG_TRANSACTION
  2
AcDbLongTransaction
  3
AutoCAD 2000
 90
    32768
280
     0
281
     0
  0
CLASS
  1
LWPOLYLINE
  2
AcDbPolyline
  3
AutoCAD 2000
 90
    32768
280
     0
281
     1
  0
CLASS
  1
HATCH
  2
AcDbHatch
  3
AutoCAD 2000
 90
    32768
280
     0
281
     1
  0
CLASS
  1
XRECORD
  2
AcDbXrecord
  3
AutoCAD 2000
 90
    32768
280
     0
281
     0
  0
CLASS
  1
LONG_TRANSACTION
  2
AcDbLongTransaction
  3
AutoCAD 2000
 90
    32768
280
     0
281
     0
  0
CLASS
  1
LWPOLYLINE
  2
AcDbPolyline
  3
AutoCAD 2000
 90
    32768
280
     0
281
     1
  0
CLASS
  1
HATCH
  2
AcDbHatch
  3
AutoCAD 2000
 90
    32768
280
     0
281
     1
  0
CLASS
  1
XRECORD
  2
AcDbXrecord
  3
AutoCAD 2000
 90
    32768
280
     0
281
     0
  0
CLASS
  1
LONG_TRANSACTION
  2
AcDbLongTransaction
  3
AutoCAD 2000
 90
    32768
280
     0
281
     0
  0
CLASS
  1
LWPOLYLINE
  2
AcDbPolyline
  3
AutoCAD 2000
 90
    32768
280
     0
281
     1
  0
CLASS
  1
HATCH
  2
AcDbHatch
  3
AutoCAD 2000
 90
    32768
280
     0
281
     1
  0
CLASS
  1
XRECORD
  2
AcDbXrecord
  3
AutoCAD 2000
 90
    32768
280
     0
281
     0
  0
CLASS
  1
LONG_TRANSACTION
  2
AcDbLongTransaction
  3
AutoCAD 2000
 90
    32768
280
     0
281
     0
  0
CLASS
  1
LWPOLYLINE
  2
AcDbPolyline
  3
AutoCAD 2000
 90
    32768
280
     0
281
     1
  0
CLASS
  1
HATCH
  2
AcDbHatch
  3
AutoCAD 2000
 90
    32768
280
     0
281
     1
  0
CLASS
  1
XRECORD
  2
AcDbXrecord
  3
AutoCAD 2000
 90
    32768
280
     0
281
     0
  0
CLASS
  1
LONG_TRANSACTION
  2
AcDbLongTransaction
  3
AutoCAD 2000
 90
    32768
280
     0
281
     0
  0
CLASS
  1
LWPOLYLINE
  2
AcDbPolyline
  3
AutoCAD 2000
 90
    32768
280
     0
281
     1
  0
CLASS
  1
HATCH
  2
AcDbHatch
  3
AutoCAD 2000
 90
    32768
280
     0
281
     1
  0
CLASS
  1
XRECORD
  2
AcDbXrecord
  3
AutoCAD 2000
 90
    32768
280
     0
281
     0
  0
CLASS
  1
LONG_TRANSACTION
  2
AcDbLongTransaction
  3
AutoCAD 2000
 90
    32768
280
     0
281
     0
  0
CLASS
  1
LWPOLYLINE
  2
AcDbPolyline
  3
AutoCAD 2000
 90
    32768
280
     0
281
     1
  0
CLASS
  1
HATCH
  2
AcDbHatch
  3
AutoCAD 2000
 90
    32768
280
     0
281
     1
  0
CLASS
  1
XRECORD
  2
AcDbXrecord
  3
AutoCAD 2000
 90
    32768
280
     0
281
     0
  0
CLASS
  1
LONG_TRANSACTION
  2
AcDbLongTransaction
  3
AutoCAD 2000
 90
    32768
280
     0
281
     0
  0
CLASS
  1
LWPOLYLINE
  2
AcDbPolyline
  3
AutoCAD 2000
 90
    32768
280
     0
281
     1
  0
CLASS
  1
HATCH
  2
AcDbHatch
  3
AutoCAD 2000
 90
    32768
280
     0
281
     1
  0
CLASS
  1
XRECORD
  2
AcDbXrecord
  3
AutoCAD 2000
 90
    32768
280
     0
281
     0
  0
CLASS
  1
LONG_TRANSACTION
  2
AcDbLongTransaction
  3
AutoCAD 2000
 90
    32768
280
     0
281
     0
  0
CLASS
  1
LWPOLYLINE
  2
AcDbPolyline
  3
AutoCAD 2000
 90
    32768
280
     0
281
     1
  0
CLASS
  1
HATCH
  2
AcDbHatch
  3
AutoCAD 2000
 90
    32768
280
     0
281
     1
  0
CLASS
  1
XRECORD
  2
AcDbXrecord
  3
AutoCAD 2000
 90
    32768
280
     0
281
     0
  0
CLASS
  1
LONG_TRANSACTION
  2
AcDbLongTransaction
  3
AutoCAD 2000
 90
    32768
280
     0
281
     0
  0
CLASS
  1
LWPOLYLINE
  2
AcDbPolyline
  3
AutoCAD 2000
 90
    32768
280
     0
281
     1
  0
CLASS
  1
HATCH
  2
AcDbHatch
  3
AutoCAD 2000
 90
    32768
280
     0
281
     1
  0
CLASS
  1
XRECORD
  2
AcDbXrecord
  3
AutoCAD 2000
 90
    32768
280
     0
281
     0
  0
CLASS
  1
LONG_TRANSACTION
  2
AcDbLongTransaction
  3
AutoCAD 2000
 90
    32768
280
     0
281
     0
  0
CLASS
  1
LWPOLYLINE
  2
AcDbPolyline
  3
AutoCAD 2000
 90
    32768
280
     0
281
     1
  0
CLASS
  1
HATCH
  2
AcDbHatch
  3
AutoCAD 2000
 90
    32768
280
     0
281
     1
  0
CLASS
  1
XRECORD
  2
AcDbXrecord
  3
AutoCAD 2000
 90
    32768
280
     0
281
     0
  0
CLASS
  1
LONG_TRANSACTION
  2
AcDbLongTransaction
  3
AutoCAD 2000
 90
    32768
280
     0
281
     0
  0
CLASS
  1
LWPOLYLINE
  2
AcDbPolyline
  3
AutoCAD 2000
 90
    32768
280
     0
281
     1
  0
CLASS
  1
HATCH
  2
AcDbHatch
  3
AutoCAD 2000
 90
    32768
280
     0
281
     1
  0
CLASS
  1
XRECORD
  2
AcDbXrecord
  3
AutoCAD 2000
 90
    32768
280
     0
281
     0
  0
CLASS
  1
LONG_TRANSACTION
  2
AcDbLongTransaction
  3
AutoCAD 2000
 90
    32768
280
     0
281
     0
  0
CLASS
  1
LWPOLYLINE
  2
AcDbPolyline
  3
AutoCAD 2000
 90
    32768
280
     0
281
     1
  0
CLASS
  1
HATCH
  2
AcDbHatch
  3
AutoCAD 2000
 90
    32768
280
     0
281
     1
  0
CLASS
  1
XRECORD
  2
AcDbXrecord
  3
AutoCAD 2000
 90
    32768
280
     0
281
     0
  0
CLASS
  1
LONG_TRANSACTION
  2
AcDbLongTransaction
  3
AutoCAD 2000
 90
    32768
280
     0
281
     0
  0
CLASS
  1
LWPOLYLINE
  2
AcDbPolyline
  3
AutoCAD 2000
 90
    32768
280
     0
281
     1
  0
CLASS
  1
HATCH
  2
AcDbHatch
  3
AutoCAD 2000
 90
    32768
280
     0
281
     1
  0
CLASS
  1
XRECORD
  2
AcDbXrecord
  3
AutoCAD 2000
 90
    32768
280
     0
281
     0
  0
CLASS
  1
LONG_TRANSACTION
  2
AcDbLongTransaction
  3
AutoCAD 2000
 90
    32768
280
     0
281
     0
  0
CLASS
  1
LWPOLYLINE
  2
AcDbPolyline
  3
AutoCAD 2000
 90
    32768
280
     0
281
     1
  0
CLASS
  1
HATCH
  2
AcDbHatch
  3
AutoCAD 2000
 90
    32768
280
     0
281
     1
  0
CLASS
  1
XRECORD
  2
AcDbXrecord
  3
AutoCAD 2000
 90
    32768
280
     0
281
     0
  0
CLASS
  1
LONG_TRANSACTION
  2
AcDbLongTransaction
  3
AutoCAD 2000
 90
    32768
280
     0
281
     0
  0
CLASS
  1
LWPOLYLINE
  2
AcDbPolyline
  3
AutoCAD 2000
 90
    32768
280
     0
281
     1
  0
CLASS
  1
HATCH
  2
AcDbHatch
  3
AutoCAD 2000
 90
    32768
280
     0
281
     1
  0
CLASS
  1
XRECORD
  2
AcDbXrecord
  3
AutoCAD 2000
 90
    32768
280
     0
281
     0
  0
CLASS
  1
LONG_TRANSACTION
  2
AcDbLongTransaction
  3
AutoCAD 2000
 90
    32768
280
     0
281
     0
  0
CLASS
  1
LWPOLYLINE
  2
AcDbPolyline
  3
AutoCAD 2000
 90
    32768
280
     0
281
     1
  0
CLASS
  1
HATCH
  2
AcDbHatch
  3
AutoCAD 2000
 90
    32768
280
     0
281
     1
  0
CLASS
  1
XRECORD
  2
AcDbXrecord
  3
AutoCAD 2000
 90
    32768
280
     0
281
     0
  0
CLASS
  1
LONG_TRANSACTION
  2
AcDbLongTransaction
  3
AutoCAD 2000
 90
    32768
280
     0
281
     0
  0
CLASS
  1
LWPOLYLINE
  2
AcDbPolyline
  3
AutoCAD 2000
 90
    32768
280
     0
281
     1
  0
CLASS
  1
HATCH
  2
AcDbHatch
  3
AutoCAD 2000
 90
    32768
280
     0
281
     1
  0
CLASS
  1
XRECORD
  2
AcDbXrecord
  3
AutoCAD 2000
 90
    32768
280
     0
281
     0
  0
CLASS
  1
LONG_TRANSACTION
  2
AcDbLongTransaction
  3
AutoCAD 2000
 90
    32768
280
     0
281
     0
  0
CLASS
  1
LWPOLYLINE
  2
AcDbPolyline
  3
AutoCAD 2000
 90
    32768
280
     0
281
     1
  0
CLASS
  1
HATCH
  2
AcDbHatch
  3
AutoCAD 2000
 90
    32768
280
     0
281
     1
  0
CLASS
  1
XRECORD
  2
AcDbXrecord
  3
AutoCAD 2000
 90
    32768
280
     0
281
     0
  0
CLASS
  1
LONG_TRANSACTION
  2
AcDbLongTransaction
  3
AutoCAD 2000
 90
    32768
280
     0
281
     0
  0
CLASS
  1
LWPOLYLINE
  2
AcDbPolyline
  3
AutoCAD 2000
 90
    32768
280
     0
281
     1
  0
CLASS
  1
HATCH
  2
AcDbHatch
  3
AutoCAD 2000
 90
    32768
280
     0
281
     1
  0
CLASS
  1
XRECORD
  2
AcDbXrecord
  3
AutoCAD 2000
 90
    32768
280
     0
281
     0
  0
CLASS
  1
LONG_TRANSACTION
  2
AcDbLongTransaction
  3
AutoCAD 2000
 90
    32768
280
     0
281
     0
  0
CLASS
  1
LWPOLYLINE
  2
AcDbPolyline
  3
AutoCAD 2000
 90
    32768
280
     0
281
     1
  0
CLASS
  1
HATCH
  2
AcDbHatch
  3
AutoCAD 2000
 90
    32768
280
     0
281
     1
  0
CLASS
  1
XRECORD
  2
AcDbXrecord
  3
AutoCAD 2000
 90
    32768
280
     0
281
     0
  0
CLASS
  1
LONG_TRANSACTION
  2
AcDbLongTransaction
  3
AutoCAD 2000
 90
    32768
280
     0
281
     0
  0
CLASS
  1
LWPOLYLINE
  2
AcDbPolyline
  3
AutoCAD 2000
 90
    32768
280
     0
281
     1
  0
CLASS
  1
HATCH
  2
AcDbHatch
  3
AutoCAD 2000
 90
    32768
280
     0
281
     1
  0
CLASS
  1
XRECORD
  2
AcDbXrecord
  3
AutoCAD 2000
 90
    32768
280
     0
281
     0
  0
CLASS
  1
LONG_TRANSACTION
  2
AcDbLongTransaction
  3
AutoCAD 2000
 90
    32768
280
     0
281
     0
  0
CLASS
  1
LWPOLYLINE
  2
AcDbPolyline
  3
AutoCAD 2000
 90
    32768
280
     0
281
     1
  0
CLASS
  1
HATCH
  2
AcDbHatch
  3
AutoCAD 2000
 90
    32768
280
     0
281
     1
  0
CLASS
  1
XRECORD
  2
AcDbXrecord
  3
AutoCAD 2000
 90
    32768
280
     0
281
     0
  0
CLASS
  1
LONG_TRANSACTION
  2
AcDbLongTransaction
  3
AutoCAD 2000
 90
    32768
280
     0
281
     0
  0
CLASS
  1
LWPOLYLINE
  2
AcDbPolyline
  3
AutoCAD 2000
 90
    32768
280
     0
281
     1
  0
CLASS
  1
HATCH
  2
AcDbHatch
  3
AutoCAD 2000
 90
    32768
280
     0
281
     1
  0
CLASS
  1
XRECORD
  2
AcDbXrecord
  3
AutoCAD 2000
 90
    32768
280
     0
281
     0
  0
CLASS
  1
LONG_TRANSACTION
  2
AcDbLongTransaction
  3
AutoCAD 2000
 90
    32768
280
     0
281
     0
  0
CLASS
  1
LWPOLYLINE
  2
AcDbPolyline
  3
AutoCAD 2000
 90
    32768
280
     0
281
     1
  0
CLASS
  1
HATCH
  2
AcDbHatch
  3
AutoCAD 2000
 90
    32768
280
     0
281
     1
  0
CLASS
  1
XRECORD
  2
AcDbXrecord
  3
AutoCAD 2000
 90
    32768
280
     0
281
     0
  0
CLASS
  1
LONG_TRANSACTION
  2
AcDbLongTransaction
  3
AutoCAD 2000
 90
    32768
280
     0
281
     0
  0
CLASS
  1
LWPOLYLINE
  2
AcDbPolyline
  3
AutoCAD 2000
 90
    32768
280
     0
281
     1
  0
CLASS
  1
HATCH
  2
AcDbHatch
  3
AutoCAD 2000
 90
    32768
280
     0
281
     1
  0
CLASS
  1
XRECORD
  2
AcDbXrecord
  3
AutoCAD 2000
 90
    32768
280
     0
281
     0
  0
CLASS
  1
LONG_TRANSACTION
  2
AcDbLongTransaction
  3
AutoCAD 2000
 90
    32768
280
     0
281
     0
  0
CLASS
  1
LWPOLYLINE
  2
AcDbPolyline
  3
AutoCAD 2000
 90
    32768
280
     0
281
     1
  0
CLASS
  1
HATCH
  2
AcDbHatch
  3
AutoCAD 2000
 90
    32768
280
     0
281
     1
  0
CLASS
  1
XRECORD
  2
AcDbXrecord
  3
AutoCAD 2000
 90
    32768
280
     0
281
     0
  0
CLASS
  1
LONG_TRANSACTION
  2
AcDbLongTransaction
  3
AutoCAD 2000
 90
    32768
280
     0
281
     0
  0
CLASS
  1
LWPOLYLINE
  2
AcDbPolyline
  3
AutoCAD 2000
 90
    32768
280
     0
281
     1
  0
CLASS
  1
HATCH
  2
AcDbHatch
  3
AutoCAD 2000
 90
    32768
280
     0
281
     1
  0
CLASS
  1
XRECORD
  2
AcDbXrecord
  3
AutoCAD 2000
 90
    32768
280
     0
281
     0
  0
CLASS
  1
LONG_TRANSACTION
  2
AcDbLongTransaction
  3
AutoCAD 2000
 90
    32768
280
     0
281
     0
  0
CLASS
  1
LWPOLYLINE
  2
AcDbPolyline
  3
AutoCAD 2000
 90
    32768
280
     0
281
     1
  0
CLASS
  1
HATCH
  2
AcDbHatch
  3
AutoCAD 2000
 90
    32768
280
     0
281
     1
  0
CLASS
  1
XRECORD
  2
AcDbXrecord
  3
AutoCAD 2000
 90
    32768
280
     0
281
     0
  0
CLASS
  1
LONG_TRANSACTION
  2
AcDbLongTransaction
  3
AutoCAD 2000
 90
    32768
280
     0
281
     0
  0
CLASS
  1
LWPOLYLINE
  2
AcDbPolyline
  3
AutoCAD 2000
 90
    32768
280
     0
281
     1
  0
CLASS
  1
HATCH
  2
AcDbHatch
  3
AutoCAD 2000
 90
    32768
280
     0
281
     1
  0
CLASS
  1
XRECORD
  2
AcDbXrecord
  3
AutoCAD 2000
 90
    32768
280
     0
281
     0
  0
CLASS
  1
LONG_TRANSACTION
  2
AcDbLongTransaction
  3
AutoCAD 2000
 90
    32768
280
     0
281
     0
  0
CLASS
  1
LWPOLYLINE
  2
AcDbPolyline
  3
AutoCAD 2000
 90
    32768
280
     0
281
     1
  0
CLASS
  1
HATCH
  2
AcDbHatch
  3
AutoCAD 2000
 90
    32768
280
     0
281
     1
  0
CLASS
  1
XRECORD
  2
AcDbXrecord
  3
AutoCAD 2000
 90
    32768
280
     0
281
     0
  0
CLASS
  1
LONG_TRANSACTION
  2
AcDbLongTransaction
  3
AutoCAD 2000
 90
    32768
280
     0
281
     0
  0
CLASS
  1
LWPOLYLINE
  2
AcDbPolyline
  3
AutoCAD 2000
 90
    32768
280
     0
281
     1
  0
CLASS
  1
HATCH
  2
AcDbHatch
  3
AutoCAD 2000
 90
    32768
280
     0
281
     1
  0
CLASS
  1
XRECORD
  2
AcDbXrecord
  3
AutoCAD 2000
 90
    32768
280
     0
281
     0
  0
CLASS
  1
LONG_TRANSACTION
  2
AcDbLongTransaction
  3
AutoCAD 2000
 90
    32768
280
     0
281
     0
  0
CLASS
  1
LWPOLYLINE
  2
AcDbPolyline
  3
AutoCAD 2000
 90
    32768
280
     0
281
     1
  0
CLASS
  1
HATCH
  2
AcDbHatch
  3
AutoCAD 2000
 90
    32768
280
     0
281
     1
  0
CLASS
  1
XRECORD
  2
AcDbXrecord
  3
AutoCAD 2000
 90
    32768
280
     0
281
     0
  0
CLASS
  1
LONG_TRANSACTION
  2
AcDbLongTransaction
  3
AutoCAD 2000
 90
    32768
280
     0
281
     0
  0
CLASS
  1
LWPOLYLINE
  2
AcDbPolyline
  3
AutoCAD 2000
 90
    32768
280
     0
281
     1
  0
CLASS
  1
HATCH
  2
AcDbHatch
  3
AutoCAD 2000
 90
    32768
280
     0
281
     1
  0
CLASS
  1
XRECORD
  2
AcDbXrecord
  3
AutoCAD 2000
 90
    32768
280
     0
281
     0
  0
CLASS
  1
LONG_TRANSACTION
  2
AcDbLongTransaction
  3
AutoCAD 2000
 90
    32768
280
     0
281
     0
  0
CLASS
  1
LWPOLYLINE
  2
AcDbPolyline
  3
AutoCAD 2000
 90
    32768
280
     0
281
     1
  0
CLASS
  1
HATCH
  2
AcDbHatch
  3
AutoCAD 2000
 90
    32768
280
     0
281
     1
  0
CLASS
  1
XRECORD
  2
AcDbXrecord
  3
AutoCAD 2000
 90
    32768
280
     0
281
     0
  0
CLASS
  1
LONG_TRANSACTION
  2
AcDbLongTransaction
  3
AutoCAD 2000
 90
    32768
280
     0
281
     0
  0
CLASS
  1
LWPOLYLINE
  2
AcDbPolyline
  3
AutoCAD 2000
 90
    32768
280
     0
281
     1
  0
CLASS
  1
HATCH
  2
AcDbHatch
  3
AutoCAD 2000
 90
    32768
280
     0
281
     1
  0
CLASS
  1
XRECORD
  2
AcDbXrecord
  3
AutoCAD 2000
 90
    32768
280
     0
281
     0
  0
CLASS
  1
LONG_TRANSACTION
  2
AcDbLongTransaction
  3
AutoCAD 2000
 90
    32768
280
     0
281
     0
  0
CLASS
  1
LWPOLYLINE
  2
AcDbPolyline
  3
AutoCAD 2000
 90
    32768
280
     0
281
     1
  0
CLASS
  1
HATCH
  2
AcDbHatch
  3
AutoCAD 2000
 90
    32768
280
     0
281
     1
  0
CLASS
  1
XRECORD
  2
AcDbXrecord
  3
AutoCAD 2000
 90
    32768
280
     0
281
     0
  0
CLASS
  1
LONG_TRANSACTION
  2
AcDbLongTransaction
  3
AutoCAD 2000
 90
    32768
280
     0
281
     0
  0
CLASS
  1
LWPOLYLINE
  2
AcDbPolyline
  3
AutoCAD 2000
 90
    32768
280
     0
281
     1
  0
CLASS
  1
HATCH
  2
AcDbHatch
  3
AutoCAD 2000
 90
    32768
280
     0
281
     1
  0
CLASS
  1
XRECORD
  2
AcDbXrecord
  3
AutoCAD 2000
 90
    32768
280
     0
281
     0
  0
CLASS
  1
LONG_TRANSACTION
  2
AcDbLongTransaction
  3
AutoCAD 2000
 90
    32768
280
     0
281
     0
  0
CLASS
  1
LWPOLYLINE
  2
AcDbPolyline
  3
AutoCAD 2000
 90
    32768
280
     0
281
     1
  0
CLASS
  1
HATCH
  2
AcDbHatch
  3
AutoCAD 2000
 90
    32768
280
     0
281
     1
  0
CLASS
  1
XRECORD
  2
AcDbXrecord
  3
AutoCAD 2000
 90
    32768
280
     0
281
     0
  0
CLASS
  1
LONG_TRANSACTION
  2
AcDbLongTransaction
  3
AutoCAD 2000
 90
    32768
280
     0
281
     0
  0
CLASS
  1
LWPOLYLINE
  2
AcDbPolyline
  3
AutoCAD 2000
 90
    32768
280
     0
281
     1
  0
CLASS
  1
HATCH
  2
AcDbHatch
  3
AutoCAD 2000
 90
    32768
280
     0
281
     1
  0
CLASS
  1
XRECORD
  2
AcDbXrecord
  3
AutoCAD 2000
 90
    32768
280
     0
281
     0
  0
CLASS
  1
LONG_TRANSACTION
  2
AcDbLongTransaction
  3
AutoCAD 2000
 90
    32768
280
     0
281
     0
  0
CLASS
  1
LWPOLYLINE
  2
AcDbPolyline
  3
AutoCAD 2000
 90
    32768
280
     0
281
     1
  0
CLASS
  1
HATCH
  2
AcDbHatch
  3
AutoCAD 2000
 90
    32768
280
     0
281
     1
  0
CLASS
  1
XRECORD
  2
AcDbXrecord
  3
AutoCAD 2000
 90
    32768
280
     0
281
     0
  0
CLASS
  1
LONG_TRANSACTION
  2
AcDbLongTransaction
  3
AutoCAD 2000
 90
    32768
280
     0
281
     0
  0
CLASS
  1
LWPOLYLINE
  2
AcDbPolyline
  3
AutoCAD 2000
 90
    32768
280
     0
281
     1
  0
CLASS
  1
HATCH
  2
AcDbHatch
  3
AutoCAD 2000
 90
    32768
280
     0
281
     1
  0
CLASS
  1
XRECORD
  2
AcDbXrecord
  3
AutoCAD 2000
 90
    32768
280
     0
281
     0
  0
CLASS
  1
LONG_TRANSACTION
  2
AcDbLongTransaction
  3
AutoCAD 2000
 90
    32768
280
     0
281
     0
  0
CLASS
  1
LWPOLYLINE
  2
AcDbPolyline
  3
AutoCAD 2000
 90
    32768
280
     0
281
     1
  0
CLASS
  1
HATCH
  2
AcDbHatch
  3
AutoCAD 2000
 90
    32768
280
     0
281
     1
  0
CLASS
  1
XRECORD
  2
AcDbXrecord
  3
AutoCAD 2000
 90
    32768
280
     0
281
     0
  0
CLASS
  1
LONG_TRANSACTION
  2
AcDbLongTransaction
  3
AutoCAD 2000
 90
    32768
280
     0
281
     0
  0
CLASS
  1
LWPOLYLINE
  2
AcDbPolyline
  3
AutoCAD 2000
 90
    32768
280
     0
281
     1
  0
CLASS
  1
HATCH
  2
AcDbHatch
  3
AutoCAD 2000
 90
    32768
280
     0
281
     1
  0
CLASS
  1
XRECORD
  2
AcDbXrecord
  3
AutoCAD 2000
 90
    32768
280
     0
281
     0
  0
CLASS
  1
LONG_TRANSACTION
  2
AcDbLongTransaction
  3
AutoCAD 2000
 90
    32768
280
     0
281
     0
  0
CLASS
  1
LWPOLYLINE
  2
AcDbPolyline
  3
AutoCAD 2000
 90
    32768
280
     0
281
     1
  0
CLASS
  1
HATCH
  2
AcDbHatch
  3
AutoCAD 2000
 90
    32768
280
     0
281
     1
  0
CLASS
  1
XRECORD
  2
AcDbXrecord
  3
AutoCAD 2000
 90
    32768
280
     0
281
     0
  0
CLASS
  1
LONG_TRANSACTION
  2
AcDbLongTransaction
  3
AutoCAD 2000
 90
    32768
280
     0
281
     0
  0
CLASS
  1
LWPOLYLINE
  2
AcDbPolyline
  3
AutoCAD 2000
 90
    32768
280
     0
281
     1
  0
CLASS
  1
HATCH
  2
AcDbHatch
  3
AutoCAD 2000
 90
    32768
280
     0
281
     1
  0
CLASS
  1
XRECORD
  2
AcDbXrecord
  3
AutoCAD 2000
 90
    32768
280
     0
281
     0
  0
CLASS
  1
LONG_TRANSACTION
  2
AcDbLongTransaction
  3
AutoCAD 2000
 90
    32768
280
     0
281
     0
  0
CLASS
  1
LWPOLYLINE
  2
AcDbPolyline
  3
AutoCAD 2000
 90
    32768
280
     0
281
     1
  0
CLASS
  1
HATCH
  2
AcDbHatch
  3
AutoCAD 2000
 90
    32768
280
     0
281
     1
  0
CLASS
  1
XRECORD
  2
AcDbXrecord
  3
AutoCAD 2000
 90
    32768
280
     0
281
     0
  0
CLASS
  1
LONG_TRANSACTION
  2
AcDbLongTransaction
  3
AutoCAD 2000
 90
    32768
280
     0
281
     0
  0
CLASS
  1
LWPOLYLINE
  2
AcDbPolyline
  3
AutoCAD 2000
 90
    32768
280
     0
281
     1
  0
CLASS
  1
HATCH
  2
AcDbHatch
  3
AutoCAD 2000
 90
    32768
280
     0
281
     1
  0
CLASS
  1
XRECORD
  2
AcDbXrecord
  3
AutoCAD 2000
 90
    32768
280
     0
281
     0
  0
CLASS
  1
LONG_TRANSACTION
  2
AcDbLongTransaction
  3
AutoCAD 2000
 90
    32768
280
     0
281
     0
  0
CLASS
  1
LWPOLYLINE
  2
AcDbPolyline
  3
AutoCAD 2000
 90
    32768
280
     0
281
     1
  0
CLASS
  1
HATCH
  2
AcDbHatch
  3
AutoCAD 2000
 90
    32768
280
     0
281
     1
  0
CLASS
  1
XRECORD
  2
AcDbXrecord
  3
AutoCAD 2000
 90
    32768
280
     0
281
     0
  0
CLASS
  1
LONG_TRANSACTION
  2
AcDbLongTransaction
  3
AutoCAD 2000
 90
    32768
280
     0
281
     0
  0
CLASS
  1
LWPOLYLINE
  2
AcDbPolyline
  3
AutoCAD 2000
 90
    32768
280
     0
281
     1
  0
CLASS
  1
HATCH
  2
AcDbHatch
  3
AutoCAD 2000
 90
    32768
280
     0
281
     1
  0
CLASS
  1
XRECORD
  2
AcDbXrecord
  3
AutoCAD 2000
 90
    32768
280
     0
281
     0
  0
CLASS
  1
LONG_TRANSACTION
  2
AcDbLongTransaction
  3
AutoCAD 2000
 90
    32768
280
     0
281
     0
  0
CLASS
  1
LWPOLYLINE
  2
AcDbPolyline
  3
AutoCAD 2000
 90
    32768
280
     0
281
     1
  0
CLASS
  1
HATCH
  2
AcDbHatch
  3
AutoCAD 2000
 90
    32768
280
     0
281
     1
  0
CLASS
  1
XRECORD
  2
AcDbXrecord
  3
AutoCAD 2000
 90
    32768
280
     0
281
     0
  0
CLASS
  1
LONG_TRANSACTION
  2
AcDbLongTransaction
  3
AutoCAD 2000
 90
    32768
280
     0
281
     0
  0
CLASS
  1
LWPOLYLINE
  2
AcDbPolyline
  3
AutoCAD 2000
 90
    32768
280
     0
281
     1
  0
CLASS
  1
HATCH
  2
AcDbHatch
  3
AutoCAD 2000
 90
    32768
280
     0
281
     1
  0
CLASS
  1
XRECORD
  2
AcDbXrecord
  3
AutoCAD 2000
 90
    32768
280
     0
281
     0
  0
CLASS
  1
LONG_TRANSACTION
  2
AcDbLongTransaction
  3
AutoCAD 2000
 90
    32768
280
     0
281
     0
  0
CLASS
  1
LWPOLYLINE
  2
AcDbPolyline
  3
AutoCAD 2000
 90
    32768
280
     0
281
     1
  0
CLASS
  1
HATCH
  2
AcDbHatch
  3
AutoCAD 2000
 90
    32768
280
     0
281
     1
  0
CLASS
  1
XRECORD
  2
AcDbXrecord
  3
AutoCAD 2000
 90
    32768
280
     0
281
     0
  0
CLASS
  1
LONG_TRANSACTION
  2
AcDbLongTransaction
  3
AutoCAD 2000
 90
    32768
280
     0
281
     0
  0
CLASS
  1
LWPOLYLINE
  2
AcDbPolyline
  3
AutoCAD 2000
 90
    32768
280
     0
281
     1
  0
CLASS
  1
HATCH
  2
AcDbHatch
  3
AutoCAD 2000
 90
    32768
280
     0
281
     1
  0
CLASS
  1
XRECORD
  2
AcDbXrecord
  3
AutoCAD 2000
 90
    32768
280
     0
281
     0
  0
CLASS
  1
LONG_TRANSACTION
  2
AcDbLongTransaction
  3
AutoCAD 2000
 90
    32768
280
     0
281
     0
  0
CLASS
  1
LWPOLYLINE
  2
AcDbPolyline
  3
AutoCAD 2000
 90
    32768
280
     0
281
     1
  0
CLASS
  1
HATCH
  2
AcDbHatch
  3
AutoCAD 2000
 90
    32768
280
     0
281
     1
  0
CLASS
  1
XRECORD
  2
AcDbXrecord
  3
AutoCAD 2000
 90
    32768
280
     0
281
     0
  0
CLASS
  1
LONG_TRANSACTION
  2
AcDbLongTransaction
  3
AutoCAD 2000
 90
    32768
280
     0
281
     0
  0
CLASS
  1
LWPOLYLINE
  2
AcDbPolyline
  3
AutoCAD 2000
 90
    32768
280
     0
281
     1
  0
CLASS
  1
HATCH
  2
AcDbHatch
  3
AutoCAD 2000
 90
    32768
280
     0
281
     1
  0
CLASS
  1
XRECORD
  2
AcDbXrecord
  3
AutoCAD 2000
 90
    32768
280
     0
281
     0
  0
CLASS
  1
LONG_TRANSACTION
  2
AcDbLongTransaction
  3
AutoCAD 2000
 90
    32768
280
     0
281
     0
  0
CLASS
  1
LWPOLYLINE
  2
AcDbPolyline
  3
AutoCAD 2000
 90
    32768
280
     0
281
     1
  0
CLASS
  1
HATCH
  2
AcDbHatch
  3
AutoCAD 2000
 90
    32768
280
     0
281
     1
  0
CLASS
  1
XRECORD
  2
AcDbXrecord
  3
AutoCAD 2000
 90
    32768
280
     0
281
     0
  0
CLASS
  1
LONG_TRANSACTION
  2
AcDbLongTransaction
  3
AutoCAD 2000
 90
    32768
280
     0
281
     0
  0
CLASS
  1
LWPOLYLINE
  2
AcDbPolyline
  3
AutoCAD 2000
 90
    32768
280
     0
281
     1
  0
CLASS
  1
HATCH
  2
AcDbHatch
  3
AutoCAD 2000
 90
    32768
280
     0
281
     1
  0
CLASS
  1
XRECORD
  2
AcDbXrecord
  3
AutoCAD 2000
 90
    32768
280
     0
281
     0
  0
CLASS
  1
LONG_TRANSACTION
  2
AcDbLongTransaction
  3
AutoCAD 2000
 90
    32768
280
     0
281
     0
  0
CLASS
  1
LWPOLYLINE
  2
AcDbPolyline
  3
AutoCAD 2000
 90
    32768
280
     0
281
     1
  0
CLASS
  1
HATCH
  2
AcDbHatch
  3
AutoCAD 2000
 90
    32768
280
     0
281
     1
  0
CLASS
  1
XRECORD
  2
AcDbXrecord
  3
AutoCAD 2000
 90
    32768
280
     0
281
     0
  0
CLASS
  1
LONG_TRANSACTION
  2
AcDbLongTransaction
  3
AutoCAD 2000
 90
    32768
280
     0
281
     0
  0
CLASS
  1
LWPOLYLINE
  2
AcDbPolyline
  3
AutoCAD 2000
 90
    32768
280
     0
281
     1
  0
CLASS
  1
HATCH
  2
AcDbHatch
  3
AutoCAD 2000
 90
    32768
280
     0
281
     1
  0
CLASS
  1
XRECORD
  2
AcDbXrecord
  3
AutoCAD 2000
 90
    32768
280
     0
281
     0
  0
CLASS
  1
LONG_TRANSACTION
  2
AcDbLongTransaction
  3
AutoCAD 2000
 90
    32768
280
     0
281
     0
  0
CLASS
  1
LWPOLYLINE
  2
AcDbPolyline
  3
AutoCAD 2000
 90
    32768
280
     0
281
     1
  0
CLASS
  1
HATCH
  2
AcDbHatch
  3
AutoCAD 2000
 90
    32768
280
     0
281
     1
  0
CLASS
  1
XRECORD
  2
AcDbXrecord
  3
AutoCAD 2000
 90
    32768
280
     0
281
     0
  0
CLASS
  1
LONG_TRANSACTION
  2
AcDbLongTransaction
  3
AutoCAD 2000
 90
    32768
280
     0
281
     0
  0
CLASS
  1
LWPOLYLINE
  2
AcDbPolyline
  3
AutoCAD 2000
 90
    32768
280
     0
281
     1
  0
CLASS
  1
HATCH
  2
AcDbHatch
  3
AutoCAD 2000
 90
    32768
280
     0
281
     1
  0
CLASS
  1
XRECORD
  2
AcDbXrecord
  3
AutoCAD 2000
 90
    32768
280
     0
281
     0
  0
CLASS
  1
LONG_TRANSACTION
  2
AcDbLongTransaction
  3
AutoCAD 2000
 90
    32768
280
     0
281
     0
  0
CLASS
  1
LWPOLYLINE
  2
AcDbPolyline
  3
AutoCAD 2000
 90
    32768
280
     0
281
     1
  0
CLASS
  1
HATCH
  2
AcDbHatch
  3
AutoCAD 2000
 90
    32768
280
     0
281
     1
  0
CLASS
  1
XRECORD
  2
AcDbXrecord
  3
AutoCAD 2000
 90
    32768
280
     0
281
     0
  0
CLASS
  1
LONG_TRANSACTION
  2
AcDbLongTransaction
  3
AutoCAD 2000
 90
    32768
280
     0
281
     0
  0
CLASS
  1
LWPOLYLINE
  2
AcDbPolyline
  3
AutoCAD 2000
 90
    32768
280
     0
281
     1
  0
CLASS
  1
HATCH
  2
AcDbHatch
  3
AutoCAD 2000
 90
    32768
280
     0
281
     1
  0
CLASS
  1
XRECORD
  2
AcDbXrecord
  3
AutoCAD 2000
 90
    32768
280
     0
281
     0
  0
CLASS
  1
LONG_TRANSACTION
  2
AcDbLongTransaction
  3
AutoCAD 2000
 90
    32768
280
     0
281
     0
  0
CLASS
  1
LWPOLYLINE
  2
AcDbPolyline
  3
AutoCAD 2000
 90
    32768
280
     0
281
     1
  0
CLASS
  1
HATCH
  2
AcDbHatch
  3
AutoCAD 2000
 90
    32768
280
     0
281
     1
  0
CLASS
  1
XRECORD
  2
AcDbXrecord
  3
AutoCAD 2000
 90
    32768
280
     0
281
     0
  0
CLASS
  1
LONG_TRANSACTION
  2
AcDbLongTransaction
  3
AutoCAD 2000
 90
    32768
280
     0
281
     0
  0
CLASS
  1
LWPOLYLINE
  2
AcDbPolyline
  3
AutoCAD 2000
 90
    32768
280
     0
281
     1
  0
CLASS
  1
HATCH
  2
AcDbHatch
  3
AutoCAD 2000
 90
    32768
280
     0
281
     1
  0
CLASS
  1
XRECORD
  2
AcDbXrecord
  3
AutoCAD 2000
 90
    32768
280
     0
281
     0
  0
CLASS
  1
LONG_TRANSACTION
  2
AcDbLongTransaction
  3
AutoCAD 2000
 90
    32768
280
     0
281
     0
  0
CLASS
  1
LWPOLYLINE
  2
AcDbPolyline
  3
AutoCAD 2000
 90
    32768
280
     0
281
     1
  0
CLASS
  1
HATCH
  2
AcDbHatch
  3
AutoCAD 2000
 90
    32768
280
     0
281
     1
  0
CLASS
  1
XRECORD
  2
AcDbXrecord
  3
AutoCAD 2000
 90
    32768
280
     0
281
     0
  0
CLASS
  1
LONG_TRANSACTION
  2
AcDbLongTransaction
  3
AutoCAD 2000
 90
    32768
280
     0
281
     0
  0
CLASS
  1
LWPOLYLINE
  2
AcDbPolyline
  3
AutoCAD 2000
 90
    32768
280
     0
281
     1
  0
CLASS
  1
HATCH
  2
AcDbHatch
  3
AutoCAD 2000
 90
    32768
280
     0
281
     1
  0
CLASS
  1
XRECORD
  2
AcDbXrecord
  3
AutoCAD 2000
 90
    32768
280
     0
281
     0
  0
ENDSEC
  0
SECTION
  2
TABLES
  0
TABLE
  2
VPORT
  5
90
330
0
100
AcDbSymbolTable
 70
     2
  0
VPORT
  5
4E9
330
90
100
AcDbSymbolTableRecord
100
AcDbViewportTableRecord
  2
*ACTIVE
 70
     0
 10
0.0
 20
0.0
 11
1.0
 21
1.0
 12
210.0
 22
236.4422380667528
 13
0.0
 23
0.0
 14
10.0
 24
10.0
 15
10.0
 25
10.0
 16
0.0
 26
0.0
 36
1.0
 17
0.0
 27
0.0
 37
0.0
 40
504.8977706430271
 41
1.549367088607595
 42
50.0
 43
0.0
 44
0.0
 50
0.0
 51
0.0
 71
     0
 72
 10000
 73
     1
 74
     3
 75
     0
 76
     0
 77
     0
 78
     1
  0
ENDTAB
  0
TABLE
  2
LTYPE
  5
8B
330
0
100
AcDbSymbolTable
 70
     3
  0
LTYPE
  5
8C
330
8B
100
AcDbSymbolTableRecord
100
AcDbLinetypeTableRecord
  2
BYBLOCK
 70
     0
  3

 72
    65
 73
     0
 40
0.0
  0
LTYPE
  5
8D
330
8B
100
AcDbSymbolTableRecord
100
AcDbLinetypeTableRecord
  2
BYLAYER
 70
     0
  3

 72
    65
 73
     0
 40
0.0
  0
LTYPE
  5
9
330
8B
100
AcDbSymbolTableRecord
100
AcDbLinetypeTableRecord
  2
CONTINUOUS
 70
     0
  3
Solid line
 72
    65
 73
     0
 40
0.0
  0
LTYPE
  5
EF
330
8B
100
AcDbSymbolTableRecord
100
AcDbLinetypeTableRecord
  2
CENTER
 70
     0
  3
Center ____ _ ____ _ ____ _ ____ _ ____ _ ____
 72
    65
 73
     4
 40
50.8
 49
31.75
 74
     0
 49
-6.349999999999998
 74
     0
 49
6.349999999999998
 74
     0
 49
-6.349999999999998
 74
     0
  0
LTYPE
  5
16C
330
8B
100
AcDbSymbolTableRecord
100
AcDbLinetypeTableRecord
  2
HIDDEN
 70
     0
  3
Hidden __ __ __ __ __ __ __ __ __ __ __ __ __ _
 72
    65
 73
     2
 40
9.524999999999996
 49
6.349999999999998
 74
     0
 49
-3.174999999999998
 74
     0
  0
ENDTAB
  0
TABLE
  2
LAYER
  5
12
102
{ACAD_XDICTIONARY
360
13
102
}
330
0
100
AcDbSymbolTable
 70
     7
  0
LAYER
  5
5
330
12
100
AcDbSymbolTableRecord
100
AcDbLayerTableRecord
  2
0
 70
     0
 62
     7
  6
CONTINUOUS
  0
LAYER
  5
1E4
330
12
100
AcDbSymbolTableRecord
100
AcDbLayerTableRecord
  2
3
 70
     0
 62
     3
  6
CONTINUOUS
  0
LAYER
  5
231
330
12
100
AcDbSymbolTableRecord
100
AcDbLayerTableRecord
  2
1
 70
     0
 62
     1
  6
CENTER
  0
LAYER
  5
B4
330
12
100
AcDbSymbolTableRecord
100
AcDbLayerTableRecord
  2
DEFPOINTS
 70
     0
 62
     7
  6
CONTINUOUS
  0
LAYER
  5
A5
330
12
100
AcDbSymbolTableRecord
100
AcDbLayerTableRecord
  2
DIM
 70
     0
 62
     3
  6
CONTINUOUS
  0
LAYER
  5
EE
330
12
100
AcDbSymbolTableRecord
100
AcDbLayerTableRecord
  2
CEN
 70
     0
 62
     1
  6
CENTER
  0
LAYER
  5
A0
330
12
100
AcDbSymbolTableRecord
100
AcDbLayerTableRecord
  2
2
 70
     0
 62
     2
  6
CONTINUOUS
  0
ENDTAB
  0
TABLE
  2
STYLE
  5
88
330
0
100
AcDbSymbolTable
 70
     2
  0
STYLE
  5
89
330
88
100
AcDbSymbolTableRecord
100
AcDbTextStyleTableRecord
  2
STANDARD
 70
     0
 40
0.0
 41
1.0
 50
0.0
 71
     0
 42
5.777225951253058
  3
romans.shx
  4
whgtxt.shx
  0
STYLE
  5
232
330
88
100
AcDbSymbolTableRecord
100
AcDbTextStyleTableRecord
  2
GHS
 70
     0
 40
0.0
 41
0.6
 50
0.0
 71
     0
 42
3.0
  3
ROMANS
  4
GHS
  0
ENDTAB
  0
TABLE
  2
VIEW
  5
8E
330
0
100
AcDbSymbolTable
 70
     0
  0
ENDTAB
  0
TABLE
  2
UCS
  5
8F
330
0
100
AcDbSymbolTable
 70
     0
  0
ENDTAB
  0
TABLE
  2
APPID
  5
92
330
0
100
AcDbSymbolTable
 70
     2
  0
APPID
  5
93
330
92
100
AcDbSymbolTableRecord
100
AcDbRegAppTableRecord
  2
ACAD
 70
     0
  0
APPID
  5
4F7
330
92
100
AcDbSymbolTableRecord
100
AcDbRegAppTableRecord
  2
CONTENTBLOCKICON
 70
     0
  0
ENDTAB
  0
TABLE
  2
DIMSTYLE
  5
94
330
0
100
AcDbSymbolTable
 70
     2
  0
DIMSTYLE
105
9D
102
{ACAD_REACTORS
330
FE
330
C2
330
2E4
330
2D0
330
2F5
330
D3
330
E0
330
2BC
330
2A9
330
11B
330
25E
330
24B
330
14C
330
32D
330
33A
330
1E8
330
16E
330
15B
330
221
330
20B
330
1F7
330
26D
330
30D
330
282
330
349
330
A9
330
17F
330
193
330
1A3
330
1B4
330
1C5
102
}
330
94
100
AcDbSymbolTableRecord
100
AcDbDimStyleTableRecord
  2
STANDARD
 70
     0
  3

  4

  5

  6

  7

 40
1.0
 41
2.5
 42
1.0
 43
10.0
 44
0.6
 45
0.0
 46
0.0
 47
0.0
 48
0.0
140
3.0
141
0.09
142
0.0
143
25.4
144
1.0
145
0.0
146
1.0
147
1.0
 71
     0
 72
     0
 73
     0
 74
     0
 75
     0
 76
     0
 77
     1
 78
     8
170
     0
171
     2
172
     1
173
     0
174
     1
175
     0
176
   123
177
   123
178
     3
270
     2
271
     2
272
     2
273
     2
274
     2
340
89
275
     1
280
     0
281
     0
282
     0
283
     1
284
     0
285
     0
286
     0
287
     0
288
     1
  0
DIMSTYLE
105
95
330
94
100
AcDbSymbolTableRecord
100
AcDbDimStyleTableRecord
  2
1_1_2
 70
     0
  3

  4

  5

  6

  7

 40
1.0
 41
3.0
 42
1.0
 43
10.0
 44
0.6
 45
0.0
 46
0.0
 47
0.0
 48
0.0
140
3.5
141
0.09
142
0.0
143
25.4
144
1.0
145
0.0
146
1.0
147
1.0
 71
     0
 72
     0
 73
     0
 74
     0
 75
     0
 76
     0
 77
     1
 78
     8
170
     0
171
     2
172
     1
173
     0
174
     1
175
     0
176
   123
177
   123
178
     3
270
     2
271
     2
272
     2
273
     2
274
     2
340
89
275
     1
280
     0
281
     0
282
     0
283
     1
284
     0
285
     0
286
     0
287
     0
288
     1
  0
ENDTAB
  0
TABLE
  2
BLOCK_RECORD
  5
1
330
0
100
AcDbSymbolTable
 70
    62
  0
BLOCK_RECORD
  5
2
102
{ACAD_XDICTIONARY
360
3
102
}
330
1
100
AcDbSymbolTableRecord
100
AcDbBlockTableRecord
  2
*MODEL_SPACE
  0
BLOCK_RECORD
  5
D
102
{ACAD_XDICTIONARY
360
E
102
}
330
1
100
AcDbSymbolTableRecord
100
AcDbBlockTableRecord
  2
*PAPER_SPACE
  0
BLOCK_RECORD
  5
FA
330
1
100
AcDbSymbolTableRecord
100
AcDbBlockTableRecord
  2
5
1001
ACAD
1000
DesignCenter Data
1002
{
1070
     1
1070
     4
1002
}
1001
CONTENTBLOCKICON
1071
        0
1004
2800000020000000200000000100080000000000000400000000000000000000000000000000000000000000000080000080000000808000800000008000800080800000C0C0C000C0DCC000F0CAA6000020400000206000002080000020A0000020C0000020E00000400000004020000040400000406000004080000040A0
1004
000040C0000040E00000600000006020000060400000606000006080000060A0000060C0000060E00000800000008020000080400000806000008080000080A0000080C0000080E00000A0000000A0200000A0400000A0600000A0800000A0A00000A0C00000A0E00000C0000000C0200000C0400000C0600000C0800000C0
1004
A00000C0C00000C0E00000E0000000E0200000E0400000E0600000E0800000E0A00000E0C00000E0E00040000000400020004000400040006000400080004000A0004000C0004000E00040200000402020004020400040206000402080004020A0004020C0004020E000404000004040200040404000404060004040800040
1004
40A0004040C0004040E00040600000406020004060400040606000406080004060A0004060C0004060E00040800000408020004080400040806000408080004080A0004080C0004080E00040A0000040A0200040A0400040A0600040A0800040A0A00040A0C00040A0E00040C0000040C0200040C0400040C0600040C08000
1004
40C0A00040C0C00040C0E00040E0000040E0200040E0400040E0600040E0800040E0A00040E0C00040E0E00080000000800020008000400080006000800080008000A0008000C0008000E00080200000802020008020400080206000802080008020A0008020C0008020E00080400000804020008040400080406000804080
1004
008040A0008040C0008040E00080600000806020008060400080606000806080008060A0008060C0008060E00080800000808020008080400080806000808080008080A0008080C0008080E00080A0000080A0200080A0400080A0600080A0800080A0A00080A0C00080A0E00080C0000080C0200080C0400080C0600080C0
1004
800080C0A00080C0C00080C0E00080E0000080E0200080E0400080E0600080E0800080E0A00080E0C00080E0E000C0000000C0002000C0004000C0006000C0008000C000A000C000C000C000E000C0200000C0202000C0204000C0206000C0208000C020A000C020C000C020E000C0400000C0402000C0404000C0406000C0
1004
408000C040A000C040C000C040E000C0600000C0602000C0604000C0606000C0608000C060A000C060C000C060E000C0800000C0802000C0804000C0806000C0808000C080A000C080C000C080E000C0A00000C0A02000C0A04000C0A06000C0A08000C0A0A000C0A0C000C0A0E000C0C00000C0C02000C0C04000C0C06000
1004
C0C08000C0C0A000F0FBFF00A4A0A000808080000000FF0000FF000000FFFF00FF000000FF00FF00FFFF0000FFFFFF0000000000000000000000000000000000000000000000000000000000000000000000000000000000000000000000000000000000000000000000000000000000000000000000000000000000000000
1004
00000000000000000000000000000000000000000000F9000000000000000000000000000000F900000000000000000000000000FFF90000000000000000000000000000000000FFF9000000000000000000F3F3F9FF0000000000000000000000000000000000FFFF00000000000000000000F9FF00F90000000000000000
1004
00000000000000F900F9000000000000000000000000F30000000000000000000000000000000000000000000000000000000000000000F3F30000000000000000000000000000000000000000000000000000000000000000F30000000000000000000000000000000000000000000000000000000000000000F300000000
1004
00000000000000000000000000000000000000000000000000000000F30000000000000000000000000000000000000000000000000000000000000000F3F30000000000000000000000000000000000000000000000000000000000000000F300000000000000000000000000000000000000000000000000000000000000
1004
00F30000000000000000000000000000000000000000000000000000000000000000F30000000000000000000000000000000000000000000000000000000000000000F3F30000000000000000000000000000000000000000000000000000000000000000F300000000000000000000000000000000000000000000000000
1004
00000000000000F30000000000000000000000000000000000000000000000000000000000000000F30000000000000000000000000000000000000000000000000000000000000000F3F30000000000000000000000000000000000000000000000000000000000000000F3F900000000000000000000F9FF00F900000000
1004
0000000000000000000000F9F9FFF300000000000000000000FFFF00000000000000000000000000000000F9F9FF00F3000000000000000000FF00F90000000000000000000000000000F900FFF900FAFA000000000000000000000000000000000000000000000000000000000000FAFAFAF3000000000000000000000000
1004
0000000000000000000000000000000000FAFAFAFA0000000000000000000000000000000000000000000000000000000000FAFAFAF3000000000000000000000000000000000000000000000000000000000000FA000000000000000000000000000000000000000000000000000000000000000000000000000000000000
1004
0000000000000000000000000000000000000000000000000000000000000000000000000000000000000000000000000000000000000000
  0
BLOCK_RECORD
  5
101
330
1
100
AcDbSymbolTableRecord
100
AcDbBlockTableRecord
  2
*D1
  0
BLOCK_RECORD
  5
2F6
330
1
100
AcDbSymbolTableRecord
100
AcDbBlockTableRecord
  2
*D2
  0
BLOCK_RECORD
  5
D4
330
1
100
AcDbSymbolTableRecord
100
AcDbBlockTableRecord
  2
*D3
  0
BLOCK_RECORD
  5
E1
330
1
100
AcDbSymbolTableRecord
100
AcDbBlockTableRecord
  2
*D4
  0
BLOCK_RECORD
  5
2BD
330
1
100
AcDbSymbolTableRecord
100
AcDbBlockTableRecord
  2
*D5
  0
BLOCK_RECORD
  5
24C
330
1
100
AcDbSymbolTableRecord
100
AcDbBlockTableRecord
  2
*D6
  0
BLOCK_RECORD
  5
32E
330
1
100
AcDbSymbolTableRecord
100
AcDbBlockTableRecord
  2
*D7
  0
BLOCK_RECORD
  5
1E9
330
1
100
AcDbSymbolTableRecord
100
AcDbBlockTableRecord
  2
*D8
  0
BLOCK_RECORD
  5
16F
330
1
100
AcDbSymbolTableRecord
100
AcDbBlockTableRecord
  2
*D9
  0
BLOCK_RECORD
  5
222
330
1
100
AcDbSymbolTableRecord
100
AcDbBlockTableRecord
  2
*D10
  0
BLOCK_RECORD
  5
26E
330
1
100
AcDbSymbolTableRecord
100
AcDbBlockTableRecord
  2
*D11
  0
BLOCK_RECORD
  5
34A
330
1
100
AcDbSymbolTableRecord
100
AcDbBlockTableRecord
  2
*D12
  0
BLOCK_RECORD
  5
194
330
1
100
AcDbSymbolTableRecord
100
AcDbBlockTableRecord
  2
*D13
  0
BLOCK_RECORD
  5
C5
330
1
100
AcDbSymbolTableRecord
100
AcDbBlockTableRecord
  2
*D14
  0
BLOCK_RECORD
  5
2E7
330
1
100
AcDbSymbolTableRecord
100
AcDbBlockTableRecord
  2
*D15
  0
BLOCK_RECORD
  5
2D3
330
1
100
AcDbSymbolTableRecord
100
AcDbBlockTableRecord
  2
*D16
  0
BLOCK_RECORD
  5
2AC
330
1
100
AcDbSymbolTableRecord
100
AcDbBlockTableRecord
  2
*D17
  0
BLOCK_RECORD
  5
11E
330
1
100
AcDbSymbolTableRecord
100
AcDbBlockTableRecord
  2
*D18
  0
BLOCK_RECORD
  5
261
330
1
100
AcDbSymbolTableRecord
100
AcDbBlockTableRecord
  2
*D19
  0
BLOCK_RECORD
  5
14F
330
1
100
AcDbSymbolTableRecord
100
AcDbBlockTableRecord
  2
*D20
  0
BLOCK_RECORD
  5
33D
330
1
100
AcDbSymbolTableRecord
100
AcDbBlockTableRecord
  2
*D21
  0
BLOCK_RECORD
  5
15E
330
1
100
AcDbSymbolTableRecord
100
AcDbBlockTableRecord
  2
*D22
  0
BLOCK_RECORD
  5
20E
330
1
100
AcDbSymbolTableRecord
100
AcDbBlockTableRecord
  2
*D23
  0
BLOCK_RECORD
  5
1FA
330
1
100
AcDbSymbolTableRecord
100
AcDbBlockTableRecord
  2
*D24
  0
BLOCK_RECORD
  5
310
330
1
100
AcDbSymbolTableRecord
100
AcDbBlockTableRecord
  2
*D25
  0
BLOCK_RECORD
  5
285
330
1
100
AcDbSymbolTableRecord
100
AcDbBlockTableRecord
  2
*D26
  0
BLOCK_RECORD
  5
AC
330
1
100
AcDbSymbolTableRecord
100
AcDbBlockTableRecord
  2
*D27
  0
BLOCK_RECORD
  5
182
330
1
100
AcDbSymbolTableRecord
100
AcDbBlockTableRecord
  2
*D28
  0
BLOCK_RECORD
  5
1A6
330
1
100
AcDbSymbolTableRecord
100
AcDbBlockTableRecord
  2
*D29
  0
BLOCK_RECORD
  5
1B7
330
1
100
AcDbSymbolTableRecord
100
AcDbBlockTableRecord
  2
*D30
  0
BLOCK_RECORD
  5
1C8
330
1
100
AcDbSymbolTableRecord
100
AcDbBlockTableRecord
  2
*D31
  0
BLOCK_RECORD
  5
362
330
1
100
AcDbSymbolTableRecord
100
AcDbBlockTableRecord
  2
*D32
  0
BLOCK_RECORD
  5
36E
330
1
100
AcDbSymbolTableRecord
100
AcDbBlockTableRecord
  2
*D33
  0
BLOCK_RECORD
  5
37A
330
1
100
AcDbSymbolTableRecord
100
AcDbBlockTableRecord
  2
*D34
  0
BLOCK_RECORD
  5
386
330
1
100
AcDbSymbolTableRecord
100
AcDbBlockTableRecord
  2
*D35
  0
BLOCK_RECORD
  5
394
330
1
100
AcDbSymbolTableRecord
100
AcDbBlockTableRecord
  2
*D36
  0
BLOCK_RECORD
  5
3A0
330
1
100
AcDbSymbolTableRecord
100
AcDbBlockTableRecord
  2
*D37
  0
BLOCK_RECORD
  5
3AE
330
1
100
AcDbSymbolTableRecord
100
AcDbBlockTableRecord
  2
*D38
  0
BLOCK_RECORD
  5
3BC
330
1
100
AcDbSymbolTableRecord
100
AcDbBlockTableRecord
  2
*D39
  0
BLOCK_RECORD
  5
3C8
330
1
100
AcDbSymbolTableRecord
100
AcDbBlockTableRecord
  2
*D40
  0
BLOCK_RECORD
  5
3D4
330
1
100
AcDbSymbolTableRecord
100
AcDbBlockTableRecord
  2
*D41
  0
BLOCK_RECORD
  5
3E2
330
1
100
AcDbSymbolTableRecord
100
AcDbBlockTableRecord
  2
*D42
  0
BLOCK_RECORD
  5
3F0
330
1
100
AcDbSymbolTableRecord
100
AcDbBlockTableRecord
  2
*D43
  0
BLOCK_RECORD
  5
3FE
330
1
100
AcDbSymbolTableRecord
100
AcDbBlockTableRecord
  2
*D44
  0
BLOCK_RECORD
  5
40C
330
1
100
AcDbSymbolTableRecord
100
AcDbBlockTableRecord
  2
*D45
  0
BLOCK_RECORD
  5
418
330
1
100
AcDbSymbolTableRecord
100
AcDbBlockTableRecord
  2
*D46
  0
BLOCK_RECORD
  5
424
330
1
100
AcDbSymbolTableRecord
100
AcDbBlockTableRecord
  2
*D47
  0
BLOCK_RECORD
  5
430
330
1
100
AcDbSymbolTableRecord
100
AcDbBlockTableRecord
  2
*D48
  0
BLOCK_RECORD
  5
43C
330
1
100
AcDbSymbolTableRecord
100
AcDbBlockTableRecord
  2
*D49
  0
BLOCK_RECORD
  5
448
330
1
100
AcDbSymbolTableRecord
100
AcDbBlockTableRecord
  2
*D50
  0
BLOCK_RECORD
  5
454
330
1
100
AcDbSymbolTableRecord
100
AcDbBlockTableRecord
  2
*D51
  0
BLOCK_RECORD
  5
460
330
1
100
AcDbSymbolTableRecord
100
AcDbBlockTableRecord
  2
*D52
  0
BLOCK_RECORD
  5
46C
330
1
100
AcDbSymbolTableRecord
100
AcDbBlockTableRecord
  2
*D53
  0
BLOCK_RECORD
  5
478
330
1
100
AcDbSymbolTableRecord
100
AcDbBlockTableRecord
  2
*D54
  0
BLOCK_RECORD
  5
486
330
1
100
AcDbSymbolTableRecord
100
AcDbBlockTableRecord
  2
*D55
  0
BLOCK_RECORD
  5
492
330
1
100
AcDbSymbolTableRecord
100
AcDbBlockTableRecord
  2
*D56
  0
BLOCK_RECORD
  5
4A0
330
1
100
AcDbSymbolTableRecord
100
AcDbBlockTableRecord
  2
*D57
  0
BLOCK_RECORD
  5
4AC
330
1
100
AcDbSymbolTableRecord
100
AcDbBlockTableRecord
  2
*D58
  0
BLOCK_RECORD
  5
4B8
330
1
100
AcDbSymbolTableRecord
100
AcDbBlockTableRecord
  2
*D59
  0
BLOCK_RECORD
  5
4C4
330
1
100
AcDbSymbolTableRecord
100
AcDbBlockTableRecord
  2
*D60
  0
BLOCK_RECORD
  5
4D2
330
1
100
AcDbSymbolTableRecord
100
AcDbBlockTableRecord
  2
*D61
  0
ENDTAB
  0
ENDSEC
  0
SECTION
  2
BLOCKS
  0
BLOCK
  5
4
330
2
100
AcDbEntity
  8
0
100
AcDbBlockBegin
  2
*MODEL_SPACE
 70
     0
 10
0.0
 20
0.0
 30
0.0
  3
*MODEL_SPACE
  1

  0
ENDBLK
  5
A
330
2
100
AcDbEntity
  8
0
100
AcDbBlockEnd
  0
BLOCK
  5
F
330
D
100
AcDbEntity
 67
     1
  8
0
100
AcDbBlockBegin
  2
*PAPER_SPACE
 70
     0
 10
0.0
 20
0.0
 30
0.0
  3
*PAPER_SPACE
  1

  0
ENDBLK
  5
10
330
D
100
AcDbEntity
 67
     1
  8
0
100
AcDbBlockEnd
  0
BLOCK
  5
115
330
FA
100
AcDbEntity
  8
0
100
AcDbBlockBegin
  2
5
 70
     0
 10
0.0
 20
0.0
 30
0.0
  3
5
  1

  0
CIRCLE
  5
FB
330
FA
100
AcDbEntity
  8
0
100
AcDbCircle
 10
33.23401871576971
 20
33.2340187157647
 30
0.0
 40
2.75
  0
LINE
  5
FC
330
FA
100
AcDbEntity
  8
CEN
 48
0.6
100
AcDbLine
 10
29.87526150513349
 20
29.87526150512849
 30
0.0
 11
36.59277592640592
 21
36.59277592640092
 31
0.0
  0
ARC
  5
FD
102
{ACAD_REACTORS
330
100
102
}
330
FA
100
AcDbEntity
  8
CEN
 48
0.6
100
AcDbCircle
 10
-0.0000000000009095
 20
0.0
 30
0.0
 40
47.0
100
AcDbArc
 50
35.54155537381702
 51
54.45844462620417
  0
DIMENSION
  5
FE
102
{ACAD_XDICTIONARY
360
FF
102
}
102
{ACAD_REACTORS
330
100
102
}
330
FA
100
AcDbEntity
  8
0
100
AcDbDimension
  2
*D1
 10
-37.12703852731556
 20
-28.81983709515498
 30
0.0
 11
52.82902883363476
 21
41.00849583681338
 31
0.0
 12
-5558.635528985877
 22
2192.234809732951
 32
0.0
 70
   131
  1
<>%%P0.5
  3
STANDARD
100
AcDbDiametricDimension
 15
37.12703852731374
 25
28.81983709515407
 35
0.0
 40
0.0
  0
ARC
  5
10C
330
FA
100
AcDbEntity
  8
CEN
 48
0.6
100
AcDbCircle
 10
-0.0000000000009095
 20
0.0000000000004547
 30
0.0
 40
47.0
100
AcDbArc
 50
126.7642625682232
 51
143.2357374317767
  0
LINE
  5
10D
330
FA
100
AcDbEntity
  8
CEN
 48
0.6
100
AcDbLine
 10
-29.87526150512985
 20
29.87526150513439
 30
0.0
 11
-36.59277592640228
 21
36.59277592640683
 31
0.0
  0
CIRCLE
  5
10E
330
FA
100
AcDbEntity
  8
0
100
AcDbCircle
 10
-33.23401871576605
 20
33.23401871577107
 30
0.0
 40
2.75
  0
LINE
  5
10F
330
FA
100
AcDbEntity
  8
CEN
 48
0.6
100
AcDbLine
 10
-29.87526150513439
 20
-29.87526150512895
 30
0.0
 11
-36.59277592640683
 21
-36.59277592640136
 31
0.0
  0
CIRCLE
  5
110
330
FA
100
AcDbEntity
  8
0
100
AcDbCircle
 10
-33.23401871577061
 20
-33.23401871576516
 30
0.0
 40
2.75
  0
ARC
  5
111
330
FA
100
AcDbEntity
  8
CEN
 48
0.6
100
AcDbCircle
 10
0.0
 20
-0.0000000000004547
 30
0.0
 40
47.0
100
AcDbArc
 50
215.5415553738169
 51
234.4584446262041
  0
ARC
  5
112
330
FA
100
AcDbEntity
  8
CEN
 48
0.6
100
AcDbCircle
 10
-0.000000000001819
 20
-0.0000000000004547
 30
0.0
 40
47.0
100
AcDbArc
 50
306.7642625682233
 51
323.2357374317766
  0
LINE
  5
113
330
FA
100
AcDbEntity
  8
CEN
 48
0.6
100
AcDbLine
 10
29.87526150512712
 20
-29.87526150513439
 30
0.0
 11
36.59277592639954
 21
-36.59277592640683
 31
0.0
  0
CIRCLE
  5
114
330
FA
100
AcDbEntity
  8
0
100
AcDbCircle
 10
33.23401871576243
 20
-33.23401871577107
 30
0.0
 40
2.75
  0
ENDBLK
  5
116
330
FA
100
AcDbEntity
  8
0
100
AcDbBlockEnd
  0
BLOCK
  5
10A
330
101
100
AcDbEntity
  8
0
100
AcDbBlockBegin
  2
*D1
 70
     1
 10
0.0
 20
0.0
 30
0.0
  3
*D1
  1

  0
LINE
  5
102
330
101
100
AcDbEntity
  8
0
 62
   123
100
AcDbLine
 10
5519.533647983703
 20
-2222.58761688636
 30
0.0
 11
5517.558805508848
 21
-2224.120586944613
 31
0.0
  0
LINE
  5
103
330
101
100
AcDbEntity
  8
0
 62
   123
100
AcDbLine
 10
5597.737409988048
 20
-2161.882002579545
 30
0.0
 11
5619.53319993107
 21
-2144.963036229563
 31
0.0
  0
LINE
  5
104
330
101
100
AcDbEntity
  8
0
 62
   123
100
AcDbLine
 10
5521.508490458562
 20
-2221.054646828107
 30
0.0
 11
5595.762567513191
 21
-2163.414972637797
 31
0.0
  0
SOLID
  5
105
330
101
100
AcDbEntity
  8
0
 62
   123
100
AcDbTrace
 10
5519.278152973996
 20
-2222.258476473883
 30
0.0
 11
5519.789142993413
 21
-2222.916757298836
 31
0.0
 12
5521.508490458562
 22
-2221.054646828107
 32
0.0
 13
5521.508490458562
 23
-2221.054646828107
 33
0.0
  0
SOLID
  5
106
330
101
100
AcDbEntity
  8
0
 62
   123
100
AcDbTrace
 10
5597.481914978339
 20
-2161.552862167069
 30
0.0
 11
5597.992904997757
 21
-2162.21114299202
 31
0.0
 12
5595.762567513191
 22
-2163.414972637797
 32
0.0
 13
5595.762567513191
 23
-2163.414972637797
 33
0.0
  0
MTEXT
  5
107
330
101
100
AcDbEntity
  8
0
 62
     3
100
AcDbMText
 10
5609.931587761259
 20
-2149.251471421281
 30
0.0
 40
3.0
 41
0.0
 71
     5
 72
     1
  1
\A1;\U+220594%%P0.5
 11
0.7899369899428739
 21
0.6131880233011666
 31
0.0
1001
ACAD
1000
MTEXTBEGIN
1070
    73
1070
     1
1070
    44
1040
1.0
1070
    74
1070
     0
1000
MTEXTEND
  0
POINT
  5
108
330
101
100
AcDbEntity
  8
DEFPOINTS
 62
     0
100
AcDbPoint
 10
5595.762567513191
 20
-2163.414972637797
 30
0.0
  0
POINT
  5
109
330
101
100
AcDbEntity
  8
DEFPOINTS
 62
     0
100
AcDbPoint
 10
5521.508490458562
 20
-2221.054646828107
 30
0.0
  0
ENDBLK
  5
10B
330
101
100
AcDbEntity
  8
0
100
AcDbBlockEnd
  0
BLOCK
  5
300
330
2F6
100
AcDbEntity
  8
0
100
AcDbBlockBegin
  2
*D2
 70
     1
 10
0.0
 20
0.0
 30
0.0
  3
*D2
  1

  0
LINE
  5
2F7
330
2F6
100
AcDbEntity
  8
0
 62
   123
100
AcDbLine
 10
21662.34273231926
 20
-2728.750754953697
 30
0.0
 11
21599.72835042771
 21
-2728.750754953697
 31
0.0
  0
LINE
  5
2F8
330
2F6
100
AcDbEntity
  8
0
 62
   123
100
AcDbLine
 10
21662.34273231926
 20
-2762.750754953696
 30
0.0
 11
21599.72835042771
 21
-2762.750754953696
 31
0.0
  0
LINE
  5
2F9
330
2F6
100
AcDbEntity
  8
0
 62
   123
100
AcDbLine
 10
21600.32835042771
 20
-2731.250754953697
 30
0.0
 11
21600.32835042771
 21
-2760.250754953696
 31
0.0
  0
SOLID
  5
2FA
330
2F6
100
AcDbEntity
  8
0
 62
   123
100
AcDbTrace
 10
21599.91168376104
 20
-2731.250754953697
 30
0.0
 11
21600.74501709436
 21
-2731.250754953697
 31
0.0
 12
21600.32835042771
 22
-2728.750754953697
 32
0.0
 13
21600.32835042771
 23
-2728.750754953697
 33
0.0
  0
SOLID
  5
2FB
330
2F6
100
AcDbEntity
  8
0
 62
   123
100
AcDbTrace
 10
21599.91168376104
 20
-2760.250754953696
 30
0.0
 11
21600.74501709436
 21
-2760.250754953696
 31
0.0
 12
21600.32835042771
 22
-2762.750754953696
 32
0.0
 13
21600.32835042771
 23
-2762.750754953696
 33
0.0
  0
MTEXT
  5
2FC
330
2F6
100
AcDbEntity
  8
0
 62
     3
100
AcDbMText
 10
21597.82835042771
 20
-2745.750754953697
 30
0.0
 40
3.0
 41
0.0
 71
     5
 72
     1
  1
\A1;{\F;%%c}34
 11
0.0000000000000001
 21
1.0
 31
0.0
1001
ACAD
1000
MTEXTBEGIN
1070
    73
1070
     1
1070
    44
1040
1.0
1070
    74
1070
     0
1000
MTEXTEND
  0
POINT
  5
2FD
330
2F6
100
AcDbEntity
  8
DEFPOINTS
 62
     0
100
AcDbPoint
 10
21663.34273231926
 20
-2728.750754953697
 30
0.0
  0
POINT
  5
2FE
330
2F6
100
AcDbEntity
  8
DEFPOINTS
 62
     0
100
AcDbPoint
 10
21663.34273231926
 20
-2762.750754953696
 30
0.0
  0
POINT
  5
2FF
330
2F6
100
AcDbEntity
  8
DEFPOINTS
 62
     0
100
AcDbPoint
 10
21600.32835042771
 20
-2762.750754953696
 30
0.0
  0
ENDBLK
  5
301
330
2F6
100
AcDbEntity
  8
0
100
AcDbBlockEnd
  0
BLOCK
  5
DE
330
D4
100
AcDbEntity
  8
0
100
AcDbBlockBegin
  2
*D3
 70
     1
 10
0.0
 20
0.0
 30
0.0
  3
*D3
  1

  0
LINE
  5
D5
330
D4
100
AcDbEntity
  8
0
 62
   123
100
AcDbLine
 10
21633.84273231926
 20
-2751.750754953697
 30
0.0
 11
21633.84273231926
 21
-2814.438436001988
 31
0.0
  0
LINE
  5
D6
330
D4
100
AcDbEntity
  8
0
 62
   123
100
AcDbLine
 10
21665.84273231926
 20
-2801.250754953696
 30
0.0
 11
21665.84273231926
 21
-2814.438436001988
 31
0.0
  0
LINE
  5
D7
330
D4
100
AcDbEntity
  8
0
 62
   123
100
AcDbLine
 10
21636.34273231926
 20
-2813.838436001987
 30
0.0
 11
21663.34273231926
 21
-2813.838436001987
 31
0.0
  0
SOLID
  5
D8
330
D4
100
AcDbEntity
  8
0
 62
   123
100
AcDbTrace
 10
21636.34273231926
 20
-2813.421769335322
 30
0.0
 11
21636.34273231926
 21
-2814.255102668655
 31
0.0
 12
21633.84273231926
 22
-2813.838436001987
 32
0.0
 13
21633.84273231926
 23
-2813.838436001987
 33
0.0
  0
SOLID
  5
D9
330
D4
100
AcDbEntity
  8
0
 62
   123
100
AcDbTrace
 10
21663.34273231926
 20
-2813.421769335322
 30
0.0
 11
21663.34273231926
 21
-2814.255102668655
 31
0.0
 12
21665.84273231926
 22
-2813.838436001987
 32
0.0
 13
21665.84273231926
 23
-2813.838436001987
 33
0.0
  0
MTEXT
  5
DA
330
D4
100
AcDbEntity
  8
0
 62
     3
100
AcDbMText
 10
21649.84273231926
 20
-2811.338436001987
 30
0.0
 40
3.0
 41
0.0
 71
     5
 72
     1
  1
\A1;32
1001
ACAD
1000
MTEXTBEGIN
1070
    73
1070
     1
1070
    44
1040
1.0
1070
    74
1070
     0
1000
MTEXTEND
  0
POINT
  5
DB
330
D4
100
AcDbEntity
  8
DEFPOINTS
 62
     0
100
AcDbPoint
 10
21633.84273231926
 20
-2750.750754953696
 30
0.0
  0
POINT
  5
DC
330
D4
100
AcDbEntity
  8
DEFPOINTS
 62
     0
100
AcDbPoint
 10
21665.84273231926
 20
-2800.250754953697
 30
0.0
  0
POINT
  5
DD
330
D4
100
AcDbEntity
  8
DEFPOINTS
 62
     0
100
AcDbPoint
 10
21665.84273231926
 20
-2813.838436001987
 30
0.0
  0
ENDBLK
  5
DF
330
D4
100
AcDbEntity
  8
0
100
AcDbBlockEnd
  0
BLOCK
  5
EB
330
E1
100
AcDbEntity
  8
0
100
AcDbBlockBegin
  2
*D4
 70
     1
 10
0.0
 20
0.0
 30
0.0
  3
*D4
  1

  0
LINE
  5
E2
330
E1
100
AcDbEntity
  8
0
 62
   123
100
AcDbLine
 10
21708.34273231926
 20
-2801.250754953696
 30
0.0
 11
21708.34273231926
 21
-2814.438436001988
 31
0.0
  0
LINE
  5
E3
330
E1
100
AcDbEntity
  8
0
 62
   123
100
AcDbLine
 10
21665.84273231926
 20
-2801.250754953696
 30
0.0
 11
21665.84273231926
 21
-2814.438436001988
 31
0.0
  0
LINE
  5
E4
330
E1
100
AcDbEntity
  8
0
 62
   123
100
AcDbLine
 10
21705.84273231926
 20
-2813.838436001987
 30
0.0
 11
21668.34273231926
 21
-2813.838436001987
 31
0.0
  0
SOLID
  5
E5
330
E1
100
AcDbEntity
  8
0
 62
   123
100
AcDbTrace
 10
21705.84273231926
 20
-2813.421769335322
 30
0.0
 11
21705.84273231926
 21
-2814.255102668655
 31
0.0
 12
21708.34273231926
 22
-2813.838436001987
 32
0.0
 13
21708.34273231926
 23
-2813.838436001987
 33
0.0
  0
SOLID
  5
E6
330
E1
100
AcDbEntity
  8
0
 62
   123
100
AcDbTrace
 10
21668.34273231926
 20
-2813.421769335322
 30
0.0
 11
21668.34273231926
 21
-2814.255102668655
 31
0.0
 12
21665.84273231926
 22
-2813.838436001987
 32
0.0
 13
21665.84273231926
 23
-2813.838436001987
 33
0.0
  0
MTEXT
  5
E7
330
E1
100
AcDbEntity
  8
0
 62
     3
100
AcDbMText
 10
21687.09273231926
 20
-2811.338436001987
 30
0.0
 40
3.0
 41
0.0
 71
     5
 72
     1
  1
\A1;L
1001
ACAD
1000
MTEXTBEGIN
1070
    73
1070
     1
1070
    44
1040
1.0
1070
    74
1070
     0
1000
MTEXTEND
  0
POINT
  5
E8
330
E1
100
AcDbEntity
  8
DEFPOINTS
 62
     0
100
AcDbPoint
 10
21708.34273231926
 20
-2800.250754953697
 30
0.0
  0
POINT
  5
E9
330
E1
100
AcDbEntity
  8
DEFPOINTS
 62
     0
100
AcDbPoint
 10
21665.84273231926
 20
-2800.250754953697
 30
0.0
  0
POINT
  5
EA
330
E1
100
AcDbEntity
  8
DEFPOINTS
 62
     0
100
AcDbPoint
 10
21665.84273231926
 20
-2813.838436001987
 30
0.0
  0
ENDBLK
  5
EC
330
E1
100
AcDbEntity
  8
0
100
AcDbBlockEnd
  0
BLOCK
  5
2C9
330
2BD
100
AcDbEntity
  8
0
100
AcDbBlockBegin
  2
*D5
 70
     1
 10
0.0
 20
0.0
 30
0.0
  3
*D5
  1

  0
LINE
  5
2BE
330
2BD
100
AcDbEntity
  8
0
 62
   123
100
AcDbLine
 10
21665.84273231926
 20
-2720.250754953696
 30
0.0
 11
21665.84273231926
 21
-2713.540827044792
 31
0.0
  0
LINE
  5
2BF
330
2BD
100
AcDbEntity
  8
0
 62
   123
100
AcDbLine
 10
21662.84273231926
 20
-2728.250754953696
 30
0.0
 11
21662.84273231926
 21
-2713.540827044792
 31
0.0
  0
LINE
  5
2C0
330
2BD
100
AcDbEntity
  8
0
 62
   123
100
AcDbLine
 10
21668.34273231926
 20
-2714.140827044792
 30
0.0
 11
21670.84273231926
 21
-2714.140827044792
 31
0.0
  0
LINE
  5
2C1
330
2BD
100
AcDbEntity
  8
0
 62
   123
100
AcDbLine
 10
21660.34273231926
 20
-2714.140827044792
 30
0.0
 11
21657.84273231926
 21
-2714.140827044792
 31
0.0
  0
LINE
  5
2C2
330
2BD
100
AcDbEntity
  8
0
 62
   123
100
AcDbLine
 10
21665.84273231926
 20
-2714.140827044792
 30
0.0
 11
21662.84273231926
 21
-2714.140827044792
 31
0.0
  0
SOLID
  5
2C3
330
2BD
100
AcDbEntity
  8
0
 62
   123
100
AcDbTrace
 10
21668.34273231926
 20
-2713.724160378125
 30
0.0
 11
21668.34273231926
 21
-2714.557493711458
 31
0.0
 12
21665.84273231926
 22
-2714.140827044792
 32
0.0
 13
21665.84273231926
 23
-2714.140827044792
 33
0.0
  0
SOLID
  5
2C4
330
2BD
100
AcDbEntity
  8
0
 62
   123
100
AcDbTrace
 10
21660.34273231926
 20
-2713.724160378125
 30
0.0
 11
21660.34273231926
 21
-2714.557493711458
 31
0.0
 12
21662.84273231926
 22
-2714.140827044792
 32
0.0
 13
21662.84273231926
 23
-2714.140827044792
 33
0.0
  0
MTEXT
  5
2C5
330
2BD
100
AcDbEntity
  8
0
 62
     3
100
AcDbMText
 10
21664.34273231926
 20
-2711.640827044792
 30
0.0
 40
3.0
 41
0.0
 71
     5
 72
     1
  1
\A1;3
1001
ACAD
1000
MTEXTBEGIN
1070
    73
1070
     1
1070
    44
1040
1.0
1070
    74
1070
     0
1000
MTEXTEND
  0
POINT
  5
2C6
330
2BD
100
AcDbEntity
  8
DEFPOINTS
 62
     0
100
AcDbPoint
 10
21665.84273231926
 20
-2721.250754953697
 30
0.0
  0
POINT
  5
2C7
330
2BD
100
AcDbEntity
  8
DEFPOINTS
 62
     0
100
AcDbPoint
 10
21662.84273231926
 20
-2729.250754953696
 30
0.0
  0
POINT
  5
2C8
330
2BD
100
AcDbEntity
  8
DEFPOINTS
 62
     0
100
AcDbPoint
 10
21662.84273231926
 20
-2714.140827044792
 30
0.0
  0
ENDBLK
  5
2CA
330
2BD
100
AcDbEntity
  8
0
100
AcDbBlockEnd
  0
BLOCK
  5
256
330
24C
100
AcDbEntity
  8
0
100
AcDbBlockBegin
  2
*D6
 70
     1
 10
0.0
 20
0.0
 30
0.0
  3
*D6
  1

  0
LINE
  5
24D
330
24C
100
AcDbEntity
  8
0
 62
   123
100
AcDbLine
 10
21623.70807970429
 20
-2923.130634460088
 30
0.0
 11
21623.70807970429
 21
-2895.639504439791
 31
0.0
  0
LINE
  5
24E
330
24C
100
AcDbEntity
  8
0
 62
   123
100
AcDbLine
 10
21666.2080797043
 20
-2923.130634460088
 30
0.0
 11
21666.2080797043
 21
-2895.639504439791
 31
0.0
  0
LINE
  5
24F
330
24C
100
AcDbEntity
  8
0
 62
   123
100
AcDbLine
 10
21626.2080797043
 20
-2896.239504439791
 30
0.0
 11
21663.70807970429
 21
-2896.239504439791
 31
0.0
  0
SOLID
  5
250
330
24C
100
AcDbEntity
  8
0
 62
   123
100
AcDbTrace
 10
21626.2080797043
 20
-2895.822837773124
 30
0.0
 11
21626.2080797043
 21
-2896.656171106458
 31
0.0
 12
21623.70807970429
 22
-2896.239504439791
 32
0.0
 13
21623.70807970429
 23
-2896.239504439791
 33
0.0
  0
SOLID
  5
251
330
24C
100
AcDbEntity
  8
0
 62
   123
100
AcDbTrace
 10
21663.70807970429
 20
-2895.822837773124
 30
0.0
 11
21663.70807970429
 21
-2896.656171106458
 31
0.0
 12
21666.2080797043
 22
-2896.239504439791
 32
0.0
 13
21666.2080797043
 23
-2896.239504439791
 33
0.0
  0
MTEXT
  5
252
330
24C
100
AcDbEntity
  8
0
 62
     3
100
AcDbMText
 10
21643.7080797043
 20
-2893.739504439791
 30
0.0
 40
3.0
 41
0.0
 71
     5
 72
     1
  1
\A1;{\F;L}
1001
ACAD
1000
MTEXTBEGIN
1070
    73
1070
     1
1070
    44
1040
1.0
1070
    74
1070
     0
1000
MTEXTEND
  0
POINT
  5
253
330
24C
100
AcDbEntity
  8
DEFPOINTS
 62
     0
100
AcDbPoint
 10
21623.70807970429
 20
-2924.130634460089
 30
0.0
  0
POINT
  5
254
330
24C
100
AcDbEntity
  8
DEFPOINTS
 62
     0
100
AcDbPoint
 10
21666.2080797043
 20
-2924.130634460089
 30
0.0
  0
POINT
  5
255
330
24C
100
AcDbEntity
  8
DEFPOINTS
 62
     0
100
AcDbPoint
 10
21666.2080797043
 20
-2896.239504439791
 30
0.0
  0
ENDBLK
  5
257
330
24C
100
AcDbEntity
  8
0
100
AcDbBlockEnd
  0
BLOCK
  5
338
330
32E
100
AcDbEntity
  8
0
100
AcDbBlockBegin
  2
*D7
 70
     1
 10
0.0
 20
0.0
 30
0.0
  3
*D7
  1

  0
LINE
  5
32F
330
32E
100
AcDbEntity
  8
0
 62
   123
100
AcDbLine
 10
21627.08141893413
 20
-2609.71641007034
 30
0.0
 11
21627.08141893413
 21
-2553.364918450399
 31
0.0
  0
LINE
  5
330
330
32E
100
AcDbEntity
  8
0
 62
   123
100
AcDbLine
 10
21640.58141893413
 20
-2572.821410070339
 30
0.0
 11
21640.58141893413
 21
-2553.364918450399
 31
0.0
  0
LINE
  5
331
330
32E
100
AcDbEntity
  8
0
 62
   123
100
AcDbLine
 10
21629.58141893413
 20
-2553.964918450398
 30
0.0
 11
21638.08141893413
 21
-2553.964918450398
 31
0.0
  0
SOLID
  5
332
330
32E
100
AcDbEntity
  8
0
 62
   123
100
AcDbTrace
 10
21629.58141893413
 20
-2553.548251783732
 30
0.0
 11
21629.58141893413
 21
-2554.381585117065
 31
0.0
 12
21627.08141893413
 22
-2553.964918450398
 32
0.0
 13
21627.08141893413
 23
-2553.964918450398
 33
0.0
  0
SOLID
  5
333
330
32E
100
AcDbEntity
  8
0
 62
   123
100
AcDbTrace
 10
21638.08141893413
 20
-2553.548251783732
 30
0.0
 11
21638.08141893413
 21
-2554.381585117065
 31
0.0
 12
21640.58141893413
 22
-2553.964918450398
 32
0.0
 13
21640.58141893413
 23
-2553.964918450398
 33
0.0
  0
MTEXT
  5
334
330
32E
100
AcDbEntity
  8
0
 62
     3
100
AcDbMText
 10
21634.33141893413
 20
-2551.464918450399
 30
0.0
 40
3.0
 41
0.0
 71
     5
 72
     1
  1
\A1;13.5
1001
ACAD
1000
MTEXTBEGIN
1070
    73
1070
     1
1070
    44
1040
1.0
1070
    74
1070
     0
1000
MTEXTEND
  0
POINT
  5
335
330
32E
100
AcDbEntity
  8
DEFPOINTS
 62
     0
100
AcDbPoint
 10
21627.08141893413
 20
-2610.71641007034
 30
0.0
  0
POINT
  5
336
330
32E
100
AcDbEntity
  8
DEFPOINTS
 62
     0
100
AcDbPoint
 10
21640.58141893413
 20
-2573.821410070339
 30
0.0
  0
POINT
  5
337
330
32E
100
AcDbEntity
  8
DEFPOINTS
 62
     0
100
AcDbPoint
 10
21640.58141893413
 20
-2553.964918450398
 30
0.0
  0
ENDBLK
  5
339
330
32E
100
AcDbEntity
  8
0
100
AcDbBlockEnd
  0
BLOCK
  5
1F3
330
1E9
100
AcDbEntity
  8
0
100
AcDbBlockBegin
  2
*D8
 70
     1
 10
0.0
 20
0.0
 30
0.0
  3
*D8
  1

  0
LINE
  5
1EA
330
1E9
100
AcDbEntity
  8
0
 62
   123
100
AcDbLine
 10
21445.99887772968
 20
-2927.630634460088
 30
0.0
 11
21445.99887772968
 21
-2909.515216755739
 31
0.0
  0
LINE
  5
1EB
330
1E9
100
AcDbEntity
  8
0
 62
   123
100
AcDbLine
 10
21525.99887772968
 20
-2927.630634460088
 30
0.0
 11
21525.99887772968
 21
-2909.515216755739
 31
0.0
  0
LINE
  5
1EC
330
1E9
100
AcDbEntity
  8
0
 62
   123
100
AcDbLine
 10
21448.49887772969
 20
-2910.115216755738
 30
0.0
 11
21523.49887772968
 21
-2910.115216755738
 31
0.0
  0
SOLID
  5
1ED
330
1E9
100
AcDbEntity
  8
0
 62
   123
100
AcDbTrace
 10
21448.49887772969
 20
-2909.698550089072
 30
0.0
 11
21448.49887772969
 21
-2910.531883422405
 31
0.0
 12
21445.99887772968
 22
-2910.115216755738
 32
0.0
 13
21445.99887772968
 23
-2910.115216755738
 33
0.0
  0
SOLID
  5
1EE
330
1E9
100
AcDbEntity
  8
0
 62
   123
100
AcDbTrace
 10
21523.49887772968
 20
-2909.698550089072
 30
0.0
 11
21523.49887772968
 21
-2910.531883422405
 31
0.0
 12
21525.99887772968
 22
-2910.115216755738
 32
0.0
 13
21525.99887772968
 23
-2910.115216755738
 33
0.0
  0
MTEXT
  5
1EF
330
1E9
100
AcDbEntity
  8
0
 62
     3
100
AcDbMText
 10
21489.81809550022
 20
-2907.615216755738
 30
0.0
 40
3.0
 41
0.0
 71
     5
 72
     1
  1
\A1;80
1001
ACAD
1000
MTEXTBEGIN
1070
    73
1070
     1
1070
    44
1040
1.0
1070
    74
1070
     0
1000
MTEXTEND
  0
POINT
  5
1F0
330
1E9
100
AcDbEntity
  8
DEFPOINTS
 62
     0
100
AcDbPoint
 10
21445.99887772968
 20
-2928.630634460088
 30
0.0
  0
POINT
  5
1F1
330
1E9
100
AcDbEntity
  8
DEFPOINTS
 62
     0
100
AcDbPoint
 10
21525.99887772968
 20
-2928.630634460088
 30
0.0
  0
POINT
  5
1F2
330
1E9
100
AcDbEntity
  8
DEFPOINTS
 62
     0
100
AcDbPoint
 10
21525.99887772968
 20
-2910.115216755738
 30
0.0
  0
ENDBLK
  5
1F4
330
1E9
100
AcDbEntity
  8
0
100
AcDbBlockEnd
  0
BLOCK
  5
179
330
16F
100
AcDbEntity
  8
0
100
AcDbBlockBegin
  2
*D9
 70
     1
 10
0.0
 20
0.0
 30
0.0
  3
*D9
  1

  0
LINE
  5
170
330
16F
100
AcDbEntity
  8
0
 62
   123
100
AcDbLine
 10
21620.20807970429
 20
-2931.630634460089
 30
0.0
 11
21557.59369781274
 21
-2931.630634460089
 31
0.0
  0
LINE
  5
171
330
16F
100
AcDbEntity
  8
0
 62
   123
100
AcDbLine
 10
21620.20807970429
 20
-2965.630634460088
 30
0.0
 11
21557.59369781274
 21
-2965.630634460088
 31
0.0
  0
LINE
  5
172
330
16F
100
AcDbEntity
  8
0
 62
   123
100
AcDbLine
 10
21558.19369781273
 20
-2934.130634460089
 30
0.0
 11
21558.19369781273
 21
-2963.130634460089
 31
0.0
  0
SOLID
  5
173
330
16F
100
AcDbEntity
  8
0
 62
   123
100
AcDbTrace
 10
21557.77703114607
 20
-2934.130634460089
 30
0.0
 11
21558.6103644794
 21
-2934.130634460089
 31
0.0
 12
21558.19369781273
 22
-2931.630634460089
 32
0.0
 13
21558.19369781273
 23
-2931.630634460089
 33
0.0
  0
SOLID
  5
174
330
16F
100
AcDbEntity
  8
0
 62
   123
100
AcDbTrace
 10
21557.77703114607
 20
-2963.130634460089
 30
0.0
 11
21558.6103644794
 21
-2963.130634460089
 31
0.0
 12
21558.19369781273
 22
-2965.630634460088
 32
0.0
 13
21558.19369781273
 23
-2965.630634460088
 33
0.0
  0
MTEXT
  5
175
330
16F
100
AcDbEntity
  8
0
 62
     3
100
AcDbMText
 10
21555.69369781273
 20
-2948.630634460088
 30
0.0
 40
3.0
 41
0.0
 71
     5
 72
     1
  1
\A1;{\F;%%c}34
 11
0.0000000000000001
 21
1.0
 31
0.0
1001
ACAD
1000
MTEXTBEGIN
1070
    73
1070
     1
1070
    44
1040
1.0
1070
    74
1070
     0
1000
MTEXTEND
  0
POINT
  5
176
330
16F
100
AcDbEntity
  8
DEFPOINTS
 62
     0
100
AcDbPoint
 10
21621.20807970429
 20
-2931.630634460089
 30
0.0
  0
POINT
  5
177
330
16F
100
AcDbEntity
  8
DEFPOINTS
 62
     0
100
AcDbPoint
 10
21621.20807970429
 20
-2965.630634460088
 30
0.0
  0
POINT
  5
178
330
16F
100
AcDbEntity
  8
DEFPOINTS
 62
     0
100
AcDbPoint
 10
21558.19369781273
 20
-2965.630634460088
 30
0.0
  0
ENDBLK
  5
17A
330
16F
100
AcDbEntity
  8
0
100
AcDbBlockEnd
  0
BLOCK
  5
22E
330
222
100
AcDbEntity
  8
0
100
AcDbBlockBegin
  2
*D10
 70
     1
 10
0.0
 20
0.0
 30
0.0
  3
*D10
  1

  0
LINE
  5
223
330
222
100
AcDbEntity
  8
0
 62
   123
100
AcDbLine
 10
21623.70807970429
 20
-2923.130634460088
 30
0.0
 11
21623.70807970429
 21
-2910.13984318929
 31
0.0
  0
LINE
  5
224
330
222
100
AcDbEntity
  8
0
 62
   123
100
AcDbLine
 10
21620.7080797043
 20
-2931.130634460089
 30
0.0
 11
21620.7080797043
 21
-2910.13984318929
 31
0.0
  0
LINE
  5
225
330
222
100
AcDbEntity
  8
0
 62
   123
100
AcDbLine
 10
21626.2080797043
 20
-2910.73984318929
 30
0.0
 11
21628.70807970429
 21
-2910.73984318929
 31
0.0
  0
LINE
  5
226
330
222
100
AcDbEntity
  8
0
 62
   123
100
AcDbLine
 10
21618.20807970429
 20
-2910.73984318929
 30
0.0
 11
21615.70807970429
 21
-2910.73984318929
 31
0.0
  0
LINE
  5
227
330
222
100
AcDbEntity
  8
0
 62
   123
100
AcDbLine
 10
21623.70807970429
 20
-2910.73984318929
 30
0.0
 11
21620.7080797043
 21
-2910.73984318929
 31
0.0
  0
SOLID
  5
228
330
222
100
AcDbEntity
  8
0
 62
   123
100
AcDbTrace
 10
21626.2080797043
 20
-2910.323176522624
 30
0.0
 11
21626.2080797043
 21
-2911.156509855958
 31
0.0
 12
21623.70807970429
 22
-2910.73984318929
 32
0.0
 13
21623.70807970429
 23
-2910.73984318929
 33
0.0
  0
SOLID
  5
229
330
222
100
AcDbEntity
  8
0
 62
   123
100
AcDbTrace
 10
21618.20807970429
 20
-2910.323176522624
 30
0.0
 11
21618.20807970429
 21
-2911.156509855958
 31
0.0
 12
21620.7080797043
 22
-2910.73984318929
 32
0.0
 13
21620.7080797043
 23
-2910.73984318929
 33
0.0
  0
MTEXT
  5
22A
330
222
100
AcDbEntity
  8
0
 62
     3
100
AcDbMText
 10
21622.20807970429
 20
-2908.23984318929
 30
0.0
 40
3.0
 41
0.0
 71
     5
 72
     1
  1
\A1;3
1001
ACAD
1000
MTEXTBEGIN
1070
    73
1070
     1
1070
    44
1040
1.0
1070
    74
1070
     0
1000
MTEXTEND
  0
POINT
  5
22B
330
222
100
AcDbEntity
  8
DEFPOINTS
 62
     0
100
AcDbPoint
 10
21623.70807970429
 20
-2924.130634460089
 30
0.0
  0
POINT
  5
22C
330
222
100
AcDbEntity
  8
DEFPOINTS
 62
     0
100
AcDbPoint
 10
21620.7080797043
 20
-2932.130634460088
 30
0.0
  0
POINT
  5
22D
330
222
100
AcDbEntity
  8
DEFPOINTS
 62
     0
100
AcDbPoint
 10
21620.7080797043
 20
-2910.73984318929
 30
0.0
  0
ENDBLK
  5
22F
330
222
100
AcDbEntity
  8
0
100
AcDbBlockEnd
  0
BLOCK
  5
278
330
26E
100
AcDbEntity
  8
0
100
AcDbBlockBegin
  2
*D11
 70
     1
 10
0.0
 20
0.0
 30
0.0
  3
*D11
  1

  0
LINE
  5
26F
330
26E
100
AcDbEntity
  8
0
 62
   123
100
AcDbLine
 10
21666.2080797043
 20
-2923.130634460088
 30
0.0
 11
21666.2080797043
 21
-2895.639504439791
 31
0.0
  0
LINE
  5
270
330
26E
100
AcDbEntity
  8
0
 62
   123
100
AcDbLine
 10
21751.20807970429
 20
-2925.630634460089
 30
0.0
 11
21751.20807970429
 21
-2895.639504439791
 31
0.0
  0
LINE
  5
271
330
26E
100
AcDbEntity
  8
0
 62
   123
100
AcDbLine
 10
21668.70807970429
 20
-2896.239504439791
 30
0.0
 11
21748.70807970429
 21
-2896.239504439791
 31
0.0
  0
SOLID
  5
272
330
26E
100
AcDbEntity
  8
0
 62
   123
100
AcDbTrace
 10
21668.70807970429
 20
-2895.822837773124
 30
0.0
 11
21668.70807970429
 21
-2896.656171106458
 31
0.0
 12
21666.2080797043
 22
-2896.239504439791
 32
0.0
 13
21666.2080797043
 23
-2896.239504439791
 33
0.0
  0
SOLID
  5
273
330
26E
100
AcDbEntity
  8
0
 62
   123
100
AcDbTrace
 10
21748.70807970429
 20
-2895.822837773124
 30
0.0
 11
21748.70807970429
 21
-2896.656171106458
 31
0.0
 12
21751.20807970429
 22
-2896.239504439791
 32
0.0
 13
21751.20807970429
 23
-2896.239504439791
 33
0.0
  0
MTEXT
  5
274
330
26E
100
AcDbEntity
  8
0
 62
     3
100
AcDbMText
 10
21708.70807970429
 20
-2893.739504439791
 30
0.0
 40
3.0
 41
0.0
 71
     5
 72
     1
  1
\A1;85
1001
ACAD
1000
MTEXTBEGIN
1070
    73
1070
     1
1070
    44
1040
1.0
1070
    74
1070
     0
1000
MTEXTEND
  0
POINT
  5
275
330
26E
100
AcDbEntity
  8
DEFPOINTS
 62
     0
100
AcDbPoint
 10
21666.2080797043
 20
-2924.130634460087
 30
0.0
  0
POINT
  5
276
330
26E
100
AcDbEntity
  8
DEFPOINTS
 62
     0
100
AcDbPoint
 10
21751.20807970429
 20
-2926.630634460089
 30
0.0
  0
POINT
  5
277
330
26E
100
AcDbEntity
  8
DEFPOINTS
 62
     0
100
AcDbPoint
 10
21751.20807970429
 20
-2896.239504439791
 30
0.0
  0
ENDBLK
  5
279
330
26E
100
AcDbEntity
  8
0
100
AcDbBlockEnd
  0
BLOCK
  5
356
330
34A
100
AcDbEntity
  8
0
100
AcDbBlockBegin
  2
*D12
 70
     1
 10
0.0
 20
0.0
 30
0.0
  3
*D12
  1

  0
LINE
  5
34B
330
34A
100
AcDbEntity
  8
0
 62
   123
100
AcDbLine
 10
21638.58141893413
 20
-2576.32141007034
 30
0.0
 11
21638.58141893413
 21
-2563.658922345309
 31
0.0
  0
LINE
  5
34C
330
34A
100
AcDbEntity
  8
0
 62
   123
100
AcDbLine
 10
21640.58141893413
 20
-2572.821410070339
 30
0.0
 11
21640.58141893413
 21
-2563.658922345309
 31
0.0
  0
LINE
  5
34D
330
34A
100
AcDbEntity
  8
0
 62
   123
100
AcDbLine
 10
21643.08141893413
 20
-2564.25892234531
 30
0.0
 11
21645.58141893413
 21
-2564.25892234531
 31
0.0
  0
LINE
  5
34E
330
34A
100
AcDbEntity
  8
0
 62
   123
100
AcDbLine
 10
21636.08141893413
 20
-2564.25892234531
 30
0.0
 11
21629.58141893413
 21
-2564.25892234531
 31
0.0
  0
LINE
  5
34F
330
34A
100
AcDbEntity
  8
0
 62
   123
100
AcDbLine
 10
21640.58141893413
 20
-2564.25892234531
 30
0.0
 11
21638.58141893413
 21
-2564.25892234531
 31
0.0
  0
SOLID
  5
350
330
34A
100
AcDbEntity
  8
0
 62
   123
100
AcDbTrace
 10
21643.08141893413
 20
-2563.842255678642
 30
0.0
 11
21643.08141893413
 21
-2564.675589011976
 31
0.0
 12
21640.58141893413
 22
-2564.25892234531
 32
0.0
 13
21640.58141893413
 23
-2564.25892234531
 33
0.0
  0
SOLID
  5
351
330
34A
100
AcDbEntity
  8
0
 62
   123
100
AcDbTrace
 10
21636.08141893413
 20
-2563.842255678642
 30
0.0
 11
21636.08141893413
 21
-2564.675589011976
 31
0.0
 12
21638.58141893413
 22
-2564.25892234531
 32
0.0
 13
21638.58141893413
 23
-2564.25892234531
 33
0.0
  0
MTEXT
  5
352
330
34A
100
AcDbEntity
  8
0
 62
     3
100
AcDbMText
 10
21631.58141893413
 20
-2561.75892234531
 30
0.0
 40
3.0
 41
0.0
 71
     5
 72
     1
  1
\A1;2
1001
ACAD
1000
MTEXTBEGIN
1070
    73
1070
     1
1070
    44
1040
1.0
1070
    74
1070
     0
1000
MTEXTEND
  0
POINT
  5
353
330
34A
100
AcDbEntity
  8
DEFPOINTS
 62
     0
100
AcDbPoint
 10
21638.58141893413
 20
-2577.321410070339
 30
0.0
  0
POINT
  5
354
330
34A
100
AcDbEntity
  8
DEFPOINTS
 62
     0
100
AcDbPoint
 10
21640.58141893413
 20
-2573.821410070339
 30
0.0
  0
POINT
  5
355
330
34A
100
AcDbEntity
  8
DEFPOINTS
 62
     0
100
AcDbPoint
 10
21640.58141893413
 20
-2564.25892234531
 30
0.0
  0
ENDBLK
  5
357
330
34A
100
AcDbEntity
  8
0
100
AcDbBlockEnd
  0
BLOCK
  5
1A0
330
194
100
AcDbEntity
  8
0
100
AcDbBlockBegin
  2
*D13
 70
     1
 10
0.0
 20
0.0
 30
0.0
  3
*D13
  1

  0
LINE
  5
195
330
194
100
AcDbEntity
  8
0
 62
   123
100
AcDbLine
 10
21482.49110831395
 20
-2868.912427205032
 30
0.0
 11
21490.26016346942
 21
-2868.912427205032
 31
0.0
  0
LINE
  5
196
330
194
100
AcDbEntity
  8
0
 62
   123
100
AcDbLine
 10
21482.49110831395
 20
-2864.912427205032
 30
0.0
 11
21490.26016346942
 21
-2864.912427205032
 31
0.0
  0
LINE
  5
197
330
194
100
AcDbEntity
  8
0
 62
   123
100
AcDbLine
 10
21489.66016346942
 20
-2871.412427205031
 30
0.0
 11
21489.66016346942
 21
-2873.912427205032
 31
0.0
  0
LINE
  5
198
330
194
100
AcDbEntity
  8
0
 62
   123
100
AcDbLine
 10
21489.66016346942
 20
-2862.412427205031
 30
0.0
 11
21489.66016346942
 21
-2843.348679696659
 31
0.0
  0
LINE
  5
199
330
194
100
AcDbEntity
  8
0
 62
   123
100
AcDbLine
 10
21489.66016346942
 20
-2868.912427205032
 30
0.0
 11
21489.66016346942
 21
-2864.912427205032
 31
0.0
  0
SOLID
  5
19A
330
194
100
AcDbEntity
  8
0
 62
   123
100
AcDbTrace
 10
21489.24349680275
 20
-2871.412427205031
 30
0.0
 11
21490.07683013608
 21
-2871.412427205031
 31
0.0
 12
21489.66016346942
 22
-2868.912427205032
 32
0.0
 13
21489.66016346942
 23
-2868.912427205032
 33
0.0
  0
SOLID
  5
19B
330
194
100
AcDbEntity
  8
0
 62
   123
100
AcDbTrace
 10
21489.24349680275
 20
-2862.412427205031
 30
0.0
 11
21490.07683013608
 21
-2862.412427205031
 31
0.0
 12
21489.66016346942
 22
-2864.912427205032
 32
0.0
 13
21489.66016346942
 23
-2864.912427205032
 33
0.0
  0
MTEXT
  5
19C
330
194
100
AcDbEntity
  8
0
 62
     3
100
AcDbMText
 10
21486.21016346941
 20
-2850.062965410941
 30
0.0
 40
3.0
 41
0.0
 71
     5
 72
     1
  1
\A1;\A1;4{\F;\H0.7x;\S+0^ -0.03;}
 11
0.0000000000000001
 21
1.0
 31
0.0
1001
ACAD
1000
MTEXTBEGIN
1070
    73
1070
     1
1070
    44
1040
1.0
1070
    74
1070
     0
1000
MTEXTEND
  0
POINT
  5
19D
330
194
100
AcDbEntity
  8
DEFPOINTS
 62
     0
100
AcDbPoint
 10
21481.49110831394
 20
-2868.912427205032
 30
0.0
  0
POINT
  5
19E
330
194
100
AcDbEntity
  8
DEFPOINTS
 62
     0
100
AcDbPoint
 10
21481.49110831394
 20
-2864.912427205032
 30
0.0
  0
POINT
  5
19F
330
194
100
AcDbEntity
  8
DEFPOINTS
 62
     0
100
AcDbPoint
 10
21489.66016346942
 20
-2864.912427205032
 30
0.0
  0
ENDBLK
  5
1A1
330
194
100
AcDbEntity
  8
0
100
AcDbBlockEnd
  0
BLOCK
  5
CF
330
C5
100
AcDbEntity
  8
0
100
AcDbBlockBegin
  2
*D14
 70
     1
 10
0.0
 20
0.0
 30
0.0
  3
*D14
  1

  0
LINE
  5
C6
330
C5
100
AcDbEntity
  8
0
 62
   123
100
AcDbLine
 10
21488.18961172678
 20
-2796.750754953697
 30
0.0
 11
21488.18961172678
 21
-2822.327716293816
 31
0.0
  0
LINE
  5
C7
330
C5
100
AcDbEntity
  8
0
 62
   123
100
AcDbLine
 10
21568.18961172678
 20
-2796.750754953697
 30
0.0
 11
21568.18961172678
 21
-2822.327716293816
 31
0.0
  0
LINE
  5
C8
330
C5
100
AcDbEntity
  8
0
 62
   123
100
AcDbLine
 10
21490.68961172678
 20
-2821.727716293816
 30
0.0
 11
21565.68961172678
 21
-2821.727716293816
 31
0.0
  0
SOLID
  5
C9
330
C5
100
AcDbEntity
  8
0
 62
   123
100
AcDbTrace
 10
21490.68961172678
 20
-2821.31104962715
 30
0.0
 11
21490.68961172678
 21
-2822.144382960482
 31
0.0
 12
21488.18961172678
 22
-2821.727716293816
 32
0.0
 13
21488.18961172678
 23
-2821.727716293816
 33
0.0
  0
SOLID
  5
CA
330
C5
100
AcDbEntity
  8
0
 62
   123
100
AcDbTrace
 10
21565.68961172678
 20
-2821.31104962715
 30
0.0
 11
21565.68961172678
 21
-2822.144382960482
 31
0.0
 12
21568.18961172678
 22
-2821.727716293816
 32
0.0
 13
21568.18961172678
 23
-2821.727716293816
 33
0.0
  0
MTEXT
  5
CB
330
C5
100
AcDbEntity
  8
0
 62
     3
100
AcDbMText
 10
21532.0088294973
 20
-2819.227716293815
 30
0.0
 40
3.0
 41
0.0
 71
     5
 72
     1
  1
\A1;80
1001
ACAD
1000
MTEXTBEGIN
1070
    73
1070
     1
1070
    44
1040
1.0
1070
    74
1070
     0
1000
MTEXTEND
  0
POINT
  5
CC
330
C5
100
AcDbEntity
  8
DEFPOINTS
 62
     0
100
AcDbPoint
 10
21488.18961172678
 20
-2795.750754953696
 30
0.0
  0
POINT
  5
CD
330
C5
100
AcDbEntity
  8
DEFPOINTS
 62
     0
100
AcDbPoint
 10
21568.18961172678
 20
-2795.750754953696
 30
0.0
  0
POINT
  5
CE
330
C5
100
AcDbEntity
  8
DEFPOINTS
 62
     0
100
AcDbPoint
 10
21568.18961172678
 20
-2821.727716293816
 30
0.0
  0
ENDBLK
  5
D0
330
C5
100
AcDbEntity
  8
0
100
AcDbBlockEnd
  0
BLOCK
  5
2F3
330
2E7
100
AcDbEntity
  8
0
100
AcDbBlockBegin
  2
*D15
 70
     1
 10
0.0
 20
0.0
 30
0.0
  3
*D15
  1

  0
LINE
  5
2E8
330
2E7
100
AcDbEntity
  8
0
 62
   123
100
AcDbLine
 10
21632.84273231926
 20
-2750.750754953696
 30
0.0
 11
21618.4180690303
 21
-2750.750754953696
 31
0.0
  0
LINE
  5
2E9
330
2E7
100
AcDbEntity
  8
0
 62
   123
100
AcDbLine
 10
21632.84273231926
 20
-2740.750754953697
 30
0.0
 11
21618.4180690303
 21
-2740.750754953697
 31
0.0
  0
LINE
  5
2EA
330
2E7
100
AcDbEntity
  8
0
 62
   123
100
AcDbLine
 10
21619.0180690303
 20
-2753.250754953697
 30
0.0
 11
21619.0180690303
 21
-2755.750754953696
 31
0.0
  0
LINE
  5
2EB
330
2E7
100
AcDbEntity
  8
0
 62
   123
100
AcDbLine
 10
21619.0180690303
 20
-2738.250754953696
 30
0.0
 11
21619.0180690303
 21
-2697.824249599386
 31
0.0
  0
LINE
  5
2EC
330
2E7
100
AcDbEntity
  8
0
 62
   123
100
AcDbLine
 10
21619.0180690303
 20
-2750.750754953696
 30
0.0
 11
21619.0180690303
 21
-2740.750754953697
 31
0.0
  0
SOLID
  5
2ED
330
2E7
100
AcDbEntity
  8
0
 62
   123
100
AcDbTrace
 10
21618.60140236363
 20
-2753.250754953697
 30
0.0
 11
21619.43473569695
 21
-2753.250754953697
 31
0.0
 12
21619.0180690303
 22
-2750.750754953696
 32
0.0
 13
21619.0180690303
 23
-2750.750754953696
 33
0.0
  0
SOLID
  5
2EE
330
2E7
100
AcDbEntity
  8
0
 62
   123
100
AcDbTrace
 10
21618.60140236363
 20
-2738.250754953696
 30
0.0
 11
21619.43473569695
 21
-2738.250754953696
 31
0.0
 12
21619.0180690303
 22
-2740.750754953697
 32
0.0
 13
21619.0180690303
 23
-2740.750754953697
 33
0.0
  0
MTEXT
  5
2EF
330
2E7
100
AcDbEntity
  8
0
 62
     3
100
AcDbMText
 10
21615.06791903029
 20
-2712.639821027954
 30
0.0
 40
3.0
 41
0.0
 71
     5
 72
     1
  1
\A1;\A1;{\F;%%C10\H0.7x;\S+0^ -0.015;\H1.429x;(h7)}
 11
0.0000000000000001
 21
1.0
 31
0.0
1001
ACAD
1000
MTEXTBEGIN
1070
    73
1070
     1
1070
    44
1040
1.0
1070
    74
1070
     0
1000
MTEXTEND
  0
POINT
  5
2F0
330
2E7
100
AcDbEntity
  8
DEFPOINTS
 62
     0
100
AcDbPoint
 10
21633.84273231926
 20
-2750.750754953696
 30
0.0
  0
POINT
  5
2F1
330
2E7
100
AcDbEntity
  8
DEFPOINTS
 62
     0
100
AcDbPoint
 10
21633.84273231926
 20
-2740.750754953697
 30
0.0
  0
POINT
  5
2F2
330
2E7
100
AcDbEntity
  8
DEFPOINTS
 62
     0
100
AcDbPoint
 10
21619.0180690303
 20
-2740.750754953697
 30
0.0
  0
ENDBLK
  5
2F4
330
2E7
100
AcDbEntity
  8
0
100
AcDbBlockEnd
  0
BLOCK
  5
2DD
330
2D3
100
AcDbEntity
  8
0
100
AcDbBlockBegin
  2
*D16
 70
     1
 10
0.0
 20
0.0
 30
0.0
  3
*D16
  1

  0
LINE
  5
2D4
330
2D3
100
AcDbEntity
  8
0
 62
   123
100
AcDbLine
 10
21628.94459351805
 20
-2745.750754953697
 30
0.0
 11
21609.39618564778
 21
-2745.750754953697
 31
0.0
  0
LINE
  5
2D5
330
2D3
100
AcDbEntity
  8
0
 62
   123
100
AcDbLine
 10
21621.23505918517
 20
-2760.750754953697
 30
0.0
 11
21609.39618564778
 21
-2760.750754953697
 31
0.0
  0
LINE
  5
2D6
330
2D3
100
AcDbEntity
  8
0
 62
   123
100
AcDbLine
 10
21609.99618564777
 20
-2748.250754953696
 30
0.0
 11
21609.99618564777
 21
-2758.250754953696
 31
0.0
  0
SOLID
  5
2D7
330
2D3
100
AcDbEntity
  8
0
 62
   123
100
AcDbTrace
 10
21609.5795189811
 20
-2748.250754953696
 30
0.0
 11
21610.41285231444
 21
-2748.250754953696
 31
0.0
 12
21609.99618564777
 22
-2745.750754953697
 32
0.0
 13
21609.99618564777
 23
-2745.750754953697
 33
0.0
  0
SOLID
  5
2D8
330
2D3
100
AcDbEntity
  8
0
 62
   123
100
AcDbTrace
 10
21609.5795189811
 20
-2758.250754953696
 30
0.0
 11
21610.41285231444
 21
-2758.250754953696
 31
0.0
 12
21609.99618564777
 22
-2760.750754953697
 32
0.0
 13
21609.99618564777
 23
-2760.750754953697
 33
0.0
  0
MTEXT
  5
2D9
330
2D3
100
AcDbEntity
  8
0
 62
     3
100
AcDbMText
 10
21607.49618564778
 20
-2753.250754953693
 30
0.0
 40
3.0
 41
0.0
 71
     5
 72
     1
  1
\A1;15
 11
0.0000000000000001
 21
1.0
 31
0.0
1001
ACAD
1000
MTEXTBEGIN
1070
    73
1070
     1
1070
    44
1040
1.0
1070
    74
1070
     0
1000
MTEXTEND
  0
POINT
  5
2DA
330
2D3
100
AcDbEntity
  8
DEFPOINTS
 62
     0
100
AcDbPoint
 10
21629.94459351804
 20
-2745.750754953697
 30
0.0
  0
POINT
  5
2DB
330
2D3
100
AcDbEntity
  8
DEFPOINTS
 62
     0
100
AcDbPoint
 10
21622.23505918516
 20
-2760.750754953697
 30
0.0
  0
POINT
  5
2DC
330
2D3
100
AcDbEntity
  8
DEFPOINTS
 62
     0
100
AcDbPoint
 10
21609.99618564777
 20
-2760.750754953697
 30
0.0
  0
ENDBLK
  5
2DE
330
2D3
100
AcDbEntity
  8
0
100
AcDbBlockEnd
  0
BLOCK
  5
2B6
330
2AC
100
AcDbEntity
  8
0
100
AcDbBlockBegin
  2
*D17
 70
     1
 10
0.0
 20
0.0
 30
0.0
  3
*D17
  1

  0
LINE
  5
2AD
330
2AC
100
AcDbEntity
  8
0
 62
   123
100
AcDbLine
 10
21658.84273231926
 20
-2739.750754953695
 30
0.0
 11
21658.84273231926
 21
-2723.930466746795
 31
0.0
  0
LINE
  5
2AE
330
2AC
100
AcDbEntity
  8
0
 62
   123
100
AcDbLine
 10
21633.84273231926
 20
-2739.750754953698
 30
0.0
 11
21633.84273231926
 21
-2723.930466746795
 31
0.0
  0
LINE
  5
2AF
330
2AC
100
AcDbEntity
  8
0
 62
   123
100
AcDbLine
 10
21656.34273231926
 20
-2724.530466746795
 30
0.0
 11
21636.34273231926
 21
-2724.530466746795
 31
0.0
  0
SOLID
  5
2B0
330
2AC
100
AcDbEntity
  8
0
 62
   123
100
AcDbTrace
 10
21656.34273231926
 20
-2724.113800080127
 30
0.0
 11
21656.34273231926
 21
-2724.947133413461
 31
0.0
 12
21658.84273231926
 22
-2724.530466746795
 32
0.0
 13
21658.84273231926
 23
-2724.530466746795
 33
0.0
  0
SOLID
  5
2B1
330
2AC
100
AcDbEntity
  8
0
 62
   123
100
AcDbTrace
 10
21636.34273231926
 20
-2724.113800080127
 30
0.0
 11
21636.34273231926
 21
-2724.947133413461
 31
0.0
 12
21633.84273231926
 22
-2724.530466746795
 32
0.0
 13
21633.84273231926
 23
-2724.530466746795
 33
0.0
  0
MTEXT
  5
2B2
330
2AC
100
AcDbEntity
  8
0
 62
     3
100
AcDbMText
 10
21646.65366298667
 20
-2722.030466746795
 30
0.0
 40
3.0
 41
0.0
 71
     5
 72
     1
  1
\A1;25
1001
ACAD
1000
MTEXTBEGIN
1070
    73
1070
     1
1070
    44
1040
1.0
1070
    74
1070
     0
1000
MTEXTEND
  0
POINT
  5
2B3
330
2AC
100
AcDbEntity
  8
DEFPOINTS
 62
     0
100
AcDbPoint
 10
21658.84273231926
 20
-2740.750754953697
 30
0.0
  0
POINT
  5
2B4
330
2AC
100
AcDbEntity
  8
DEFPOINTS
 62
     0
100
AcDbPoint
 10
21633.84273231926
 20
-2740.750754953698
 30
0.0
  0
POINT
  5
2B5
330
2AC
100
AcDbEntity
  8
DEFPOINTS
 62
     0
100
AcDbPoint
 10
21633.84273231926
 20
-2724.530466746795
 30
0.0
  0
ENDBLK
  5
2B7
330
2AC
100
AcDbEntity
  8
0
100
AcDbBlockEnd
  0
BLOCK
  5
128
330
11E
100
AcDbEntity
  8
0
100
AcDbBlockBegin
  2
*D18
 70
     1
 10
0.0
 20
0.0
 30
0.0
  3
*D18
  1

  0
LINE
  5
11F
330
11E
100
AcDbEntity
  8
0
 62
   123
100
AcDbLine
 10
21745.20807970429
 20
-2924.130634460089
 30
0.0
 11
21769.12863767944
 21
-2924.130634460089
 31
0.0
  0
LINE
  5
120
330
11E
100
AcDbEntity
  8
0
 62
   123
100
AcDbLine
 10
21745.20807970429
 20
-3003.130634460088
 30
0.0
 11
21769.12863767944
 21
-3003.130634460088
 31
0.0
  0
LINE
  5
121
330
11E
100
AcDbEntity
  8
0
 62
   123
100
AcDbLine
 10
21768.52863767944
 20
-2926.630634460089
 30
0.0
 11
21768.52863767944
 21
-3000.630634460089
 31
0.0
  0
SOLID
  5
122
330
11E
100
AcDbEntity
  8
0
 62
   123
100
AcDbTrace
 10
21768.11197101276
 20
-2926.630634460089
 30
0.0
 11
21768.9453043461
 21
-2926.630634460089
 31
0.0
 12
21768.52863767944
 22
-2924.130634460089
 32
0.0
 13
21768.52863767944
 23
-2924.130634460089
 33
0.0
  0
SOLID
  5
123
330
11E
100
AcDbEntity
  8
0
 62
   123
100
AcDbTrace
 10
21768.11197101276
 20
-3000.630634460089
 30
0.0
 11
21768.9453043461
 21
-3000.630634460089
 31
0.0
 12
21768.52863767944
 22
-3003.130634460088
 32
0.0
 13
21768.52863767944
 23
-3003.130634460088
 33
0.0
  0
MTEXT
  5
124
330
11E
100
AcDbEntity
  8
0
 62
     3
100
AcDbMText
 10
21766.02863767944
 20
-2963.630634460089
 30
0.0
 40
3.0
 41
0.0
 71
     5
 72
     1
  1
\A1;%%C79
 11
0.0000000000000001
 21
1.0
 31
0.0
1001
ACAD
1000
MTEXTBEGIN
1070
    73
1070
     1
1070
    44
1040
1.0
1070
    74
1070
     0
1000
MTEXTEND
  0
POINT
  5
125
330
11E
100
AcDbEntity
  8
DEFPOINTS
 62
     0
100
AcDbPoint
 10
21744.2080797043
 20
-2924.130634460089
 30
0.0
  0
POINT
  5
126
330
11E
100
AcDbEntity
  8
DEFPOINTS
 62
     0
100
AcDbPoint
 10
21744.2080797043
 20
-3003.130634460088
 30
0.0
  0
POINT
  5
127
330
11E
100
AcDbEntity
  8
DEFPOINTS
 62
     0
100
AcDbPoint
 10
21768.52863767944
 20
-3003.130634460088
 30
0.0
  0
ENDBLK
  5
129
330
11E
100
AcDbEntity
  8
0
100
AcDbBlockEnd
  0
BLOCK
  5
26B
330
261
100
AcDbEntity
  8
0
100
AcDbBlockBegin
  2
*D19
 70
     1
 10
0.0
 20
0.0
 30
0.0
  3
*D19
  1

  0
LINE
  5
262
330
261
100
AcDbEntity
  8
0
 62
   123
100
AcDbLine
 10
21666.2080797043
 20
-2923.130634460088
 30
0.0
 11
21666.2080797043
 21
-2908.205120777313
 31
0.0
  0
LINE
  5
263
330
261
100
AcDbEntity
  8
0
 62
   123
100
AcDbLine
 10
21673.20807970429
 20
-2924.03189711856
 30
0.0
 11
21673.20807970429
 21
-2908.205120777313
 31
0.0
  0
LINE
  5
264
330
261
100
AcDbEntity
  8
0
 62
   123
100
AcDbLine
 10
21668.70807970429
 20
-2908.805120777313
 30
0.0
 11
21670.70807970429
 21
-2908.805120777313
 31
0.0
  0
SOLID
  5
265
330
261
100
AcDbEntity
  8
0
 62
   123
100
AcDbTrace
 10
21668.70807970429
 20
-2908.388454110646
 30
0.0
 11
21668.70807970429
 21
-2909.221787443978
 31
0.0
 12
21666.2080797043
 22
-2908.805120777313
 32
0.0
 13
21666.2080797043
 23
-2908.805120777313
 33
0.0
  0
SOLID
  5
266
330
261
100
AcDbEntity
  8
0
 62
   123
100
AcDbTrace
 10
21670.70807970429
 20
-2908.388454110646
 30
0.0
 11
21670.70807970429
 21
-2909.221787443978
 31
0.0
 12
21673.20807970429
 22
-2908.805120777313
 32
0.0
 13
21673.20807970429
 23
-2908.805120777313
 33
0.0
  0
MTEXT
  5
267
330
261
100
AcDbEntity
  8
0
 62
     3
100
AcDbMText
 10
21669.70807970429
 20
-2906.305120777313
 30
0.0
 40
3.0
 41
0.0
 71
     5
 72
     1
  1
\A1;7
1001
ACAD
1000
MTEXTBEGIN
1070
    73
1070
     1
1070
    44
1040
1.0
1070
    74
1070
     0
1000
MTEXTEND
  0
POINT
  5
268
330
261
100
AcDbEntity
  8
DEFPOINTS
 62
     0
100
AcDbPoint
 10
21666.2080797043
 20
-2924.130634460089
 30
0.0
  0
POINT
  5
269
330
261
100
AcDbEntity
  8
DEFPOINTS
 62
     0
100
AcDbPoint
 10
21673.20807970429
 20
-2925.031897118559
 30
0.0
  0
POINT
  5
26A
330
261
100
AcDbEntity
  8
DEFPOINTS
 62
     0
100
AcDbPoint
 10
21673.20807970429
 20
-2908.805120777313
 30
0.0
  0
ENDBLK
  5
26C
330
261
100
AcDbEntity
  8
0
100
AcDbBlockEnd
  0
BLOCK
  5
159
330
14F
100
AcDbEntity
  8
0
100
AcDbBlockBegin
  2
*D20
 70
     1
 10
0.0
 20
0.0
 30
0.0
  3
*D20
  1

  0
LINE
  5
150
330
14F
100
AcDbEntity
  8
0
 62
   123
100
AcDbLine
 10
21591.70807970429
 20
-2942.630634460089
 30
0.0
 11
21591.70807970429
 21
-2895.642022358726
 31
0.0
  0
LINE
  5
151
330
14F
100
AcDbEntity
  8
0
 62
   123
100
AcDbLine
 10
21623.70807970429
 20
-2923.130634460088
 30
0.0
 11
21623.70807970429
 21
-2895.642022358726
 31
0.0
  0
LINE
  5
152
330
14F
100
AcDbEntity
  8
0
 62
   123
100
AcDbLine
 10
21594.2080797043
 20
-2896.242022358727
 30
0.0
 11
21621.20807970429
 21
-2896.242022358727
 31
0.0
  0
SOLID
  5
153
330
14F
100
AcDbEntity
  8
0
 62
   123
100
AcDbTrace
 10
21594.2080797043
 20
-2895.825355692061
 30
0.0
 11
21594.2080797043
 21
-2896.658689025393
 31
0.0
 12
21591.70807970429
 22
-2896.242022358727
 32
0.0
 13
21591.70807970429
 23
-2896.242022358727
 33
0.0
  0
SOLID
  5
154
330
14F
100
AcDbEntity
  8
0
 62
   123
100
AcDbTrace
 10
21621.20807970429
 20
-2895.825355692061
 30
0.0
 11
21621.20807970429
 21
-2896.658689025393
 31
0.0
 12
21623.70807970429
 22
-2896.242022358727
 32
0.0
 13
21623.70807970429
 23
-2896.242022358727
 33
0.0
  0
MTEXT
  5
155
330
14F
100
AcDbEntity
  8
0
 62
     3
100
AcDbMText
 10
21608.02931163419
 20
-2893.742022358727
 30
0.0
 40
3.0
 41
0.0
 71
     5
 72
     1
  1
\A1;32
1001
ACAD
1000
MTEXTBEGIN
1070
    73
1070
     1
1070
    44
1040
1.0
1070
    74
1070
     0
1000
MTEXTEND
  0
POINT
  5
156
330
14F
100
AcDbEntity
  8
DEFPOINTS
 62
     0
100
AcDbPoint
 10
21591.70807970429
 20
-2943.630634460089
 30
0.0
  0
POINT
  5
157
330
14F
100
AcDbEntity
  8
DEFPOINTS
 62
     0
100
AcDbPoint
 10
21623.70807970429
 20
-2924.130634460089
 30
0.0
  0
POINT
  5
158
330
14F
100
AcDbEntity
  8
DEFPOINTS
 62
     0
100
AcDbPoint
 10
21623.70807970429
 20
-2896.242022358727
 30
0.0
  0
ENDBLK
  5
15A
330
14F
100
AcDbEntity
  8
0
100
AcDbBlockEnd
  0
BLOCK
  5
347
330
33D
100
AcDbEntity
  8
0
100
AcDbBlockBegin
  2
*D21
 70
     1
 10
0.0
 20
0.0
 30
0.0
  3
*D21
  1

  0
LINE
  5
33E
330
33D
100
AcDbEntity
  8
0
 62
   123
100
AcDbLine
 10
21640.58141893413
 20
-2572.821410070339
 30
0.0
 11
21640.58141893413
 21
-2553.364918450399
 31
0.0
  0
LINE
  5
33F
330
33D
100
AcDbEntity
  8
0
 62
   123
100
AcDbLine
 10
21672.58141893413
 20
-2572.821410070339
 30
0.0
 11
21672.58141893413
 21
-2553.364918450399
 31
0.0
  0
LINE
  5
340
330
33D
100
AcDbEntity
  8
0
 62
   123
100
AcDbLine
 10
21643.08141893413
 20
-2553.964918450398
 30
0.0
 11
21670.08141893413
 21
-2553.964918450398
 31
0.0
  0
SOLID
  5
341
330
33D
100
AcDbEntity
  8
0
 62
   123
100
AcDbTrace
 10
21643.08141893413
 20
-2553.548251783732
 30
0.0
 11
21643.08141893413
 21
-2554.381585117065
 31
0.0
 12
21640.58141893413
 22
-2553.964918450398
 32
0.0
 13
21640.58141893413
 23
-2553.964918450398
 33
0.0
  0
SOLID
  5
342
330
33D
100
AcDbEntity
  8
0
 62
   123
100
AcDbTrace
 10
21670.08141893413
 20
-2553.548251783732
 30
0.0
 11
21670.08141893413
 21
-2554.381585117065
 31
0.0
 12
21672.58141893413
 22
-2553.964918450398
 32
0.0
 13
21672.58141893413
 23
-2553.964918450398
 33
0.0
  0
MTEXT
  5
343
330
33D
100
AcDbEntity
  8
0
 62
     3
100
AcDbMText
 10
21656.58141893413
 20
-2551.464918450399
 30
0.0
 40
3.0
 41
0.0
 71
     5
 72
     1
  1
\A1;32
1001
ACAD
1000
MTEXTBEGIN
1070
    73
1070
     1
1070
    44
1040
1.0
1070
    74
1070
     0
1000
MTEXTEND
  0
POINT
  5
344
330
33D
100
AcDbEntity
  8
DEFPOINTS
 62
     0
100
AcDbPoint
 10
21640.58141893413
 20
-2573.821410070339
 30
0.0
  0
POINT
  5
345
330
33D
100
AcDbEntity
  8
DEFPOINTS
 62
     0
100
AcDbPoint
 10
21672.58141893413
 20
-2573.821410070339
 30
0.0
  0
POINT
  5
346
330
33D
100
AcDbEntity
  8
DEFPOINTS
 62
     0
100
AcDbPoint
 10
21672.58141893413
 20
-2553.964918450398
 30
0.0
  0
ENDBLK
  5
348
330
33D
100
AcDbEntity
  8
0
100
AcDbBlockEnd
  0
BLOCK
  5
168
330
15E
100
AcDbEntity
  8
0
100
AcDbBlockBegin
  2
*D22
 70
     1
 10
0.0
 20
0.0
 30
0.0
  3
*D22
  1

  0
LINE
  5
15F
330
15E
100
AcDbEntity
  8
0
 62
   123
100
AcDbLine
 10
21616.7080797043
 20
-2942.630634460088
 30
0.0
 11
21616.7080797043
 21
-2926.810346253186
 31
0.0
  0
LINE
  5
160
330
15E
100
AcDbEntity
  8
0
 62
   123
100
AcDbLine
 10
21591.70807970429
 20
-2942.630634460089
 30
0.0
 11
21591.70807970429
 21
-2926.810346253186
 31
0.0
  0
LINE
  5
161
330
15E
100
AcDbEntity
  8
0
 62
   123
100
AcDbLine
 10
21614.20807970429
 20
-2927.410346253186
 30
0.0
 11
21594.2080797043
 21
-2927.410346253186
 31
0.0
  0
SOLID
  5
162
330
15E
100
AcDbEntity
  8
0
 62
   123
100
AcDbTrace
 10
21614.20807970429
 20
-2926.993679586519
 30
0.0
 11
21614.20807970429
 21
-2927.827012919852
 31
0.0
 12
21616.7080797043
 22
-2927.410346253186
 32
0.0
 13
21616.7080797043
 23
-2927.410346253186
 33
0.0
  0
SOLID
  5
163
330
15E
100
AcDbEntity
  8
0
 62
   123
100
AcDbTrace
 10
21594.2080797043
 20
-2926.993679586519
 30
0.0
 11
21594.2080797043
 21
-2927.827012919852
 31
0.0
 12
21591.70807970429
 22
-2927.410346253186
 32
0.0
 13
21591.70807970429
 23
-2927.410346253186
 33
0.0
  0
MTEXT
  5
164
330
15E
100
AcDbEntity
  8
0
 62
     3
100
AcDbMText
 10
21604.51901037168
 20
-2924.910346253186
 30
0.0
 40
3.0
 41
0.0
 71
     5
 72
     1
  1
\A1;25
1001
ACAD
1000
MTEXTBEGIN
1070
    73
1070
     1
1070
    44
1040
1.0
1070
    74
1070
     0
1000
MTEXTEND
  0
POINT
  5
165
330
15E
100
AcDbEntity
  8
DEFPOINTS
 62
     0
100
AcDbPoint
 10
21616.7080797043
 20
-2943.630634460088
 30
0.0
  0
POINT
  5
166
330
15E
100
AcDbEntity
  8
DEFPOINTS
 62
     0
100
AcDbPoint
 10
21591.70807970429
 20
-2943.630634460089
 30
0.0
  0
POINT
  5
167
330
15E
100
AcDbEntity
  8
DEFPOINTS
 62
     0
100
AcDbPoint
 10
21591.70807970429
 20
-2927.410346253186
 30
0.0
  0
ENDBLK
  5
169
330
15E
100
AcDbEntity
  8
0
100
AcDbBlockEnd
  0
BLOCK
  5
21A
330
20E
100
AcDbEntity
  8
0
100
AcDbBlockBegin
  2
*D23
 70
     1
 10
0.0
 20
0.0
 30
0.0
  3
*D23
  1

  0
LINE
  5
20F
330
20E
100
AcDbEntity
  8
0
 62
   123
100
AcDbLine
 10
21590.70807970429
 20
-2953.630634460088
 30
0.0
 11
21576.28341641532
 21
-2953.630634460088
 31
0.0
  0
LINE
  5
210
330
20E
100
AcDbEntity
  8
0
 62
   123
100
AcDbLine
 10
21590.70807970429
 20
-2943.630634460089
 30
0.0
 11
21576.28341641532
 21
-2943.630634460089
 31
0.0
  0
LINE
  5
211
330
20E
100
AcDbEntity
  8
0
 62
   123
100
AcDbLine
 10
21576.88341641532
 20
-2956.130634460089
 30
0.0
 11
21576.88341641532
 21
-2958.630634460089
 31
0.0
  0
LINE
  5
212
330
20E
100
AcDbEntity
  8
0
 62
   123
100
AcDbLine
 10
21576.88341641532
 20
-2941.130634460089
 30
0.0
 11
21576.88341641532
 21
-2901.011905609988
 31
0.0
  0
LINE
  5
213
330
20E
100
AcDbEntity
  8
0
 62
   123
100
AcDbLine
 10
21576.88341641532
 20
-2953.630634460088
 30
0.0
 11
21576.88341641532
 21
-2943.630634460089
 31
0.0
  0
SOLID
  5
214
330
20E
100
AcDbEntity
  8
0
 62
   123
100
AcDbTrace
 10
21576.46674974865
 20
-2956.130634460089
 30
0.0
 11
21577.30008308199
 21
-2956.130634460089
 31
0.0
 12
21576.88341641532
 22
-2953.630634460088
 32
0.0
 13
21576.88341641532
 23
-2953.630634460088
 33
0.0
  0
SOLID
  5
215
330
20E
100
AcDbEntity
  8
0
 62
   123
100
AcDbTrace
 10
21576.46674974865
 20
-2941.130634460089
 30
0.0
 11
21577.30008308199
 21
-2941.130634460089
 31
0.0
 12
21576.88341641532
 22
-2943.630634460089
 32
0.0
 13
21576.88341641532
 23
-2943.630634460089
 33
0.0
  0
MTEXT
  5
216
330
20E
100
AcDbEntity
  8
0
 62
     3
100
AcDbMText
 10
21572.93326641532
 20
-2915.827477038556
 30
0.0
 40
3.0
 41
0.0
 71
     5
 72
     1
  1
\A1;\A1;{\F;%%C10\H0.7x;\S+0^ -0.015;\H1.429x;(h7)}
 11
0.0000000000000001
 21
1.0
 31
0.0
1001
ACAD
1000
MTEXTBEGIN
1070
    73
1070
     1
1070
    44
1040
1.0
1070
    74
1070
     0
1000
MTEXTEND
  0
POINT
  5
217
330
20E
100
AcDbEntity
  8
DEFPOINTS
 62
     0
100
AcDbPoint
 10
21591.70807970429
 20
-2953.630634460088
 30
0.0
  0
POINT
  5
218
330
20E
100
AcDbEntity
  8
DEFPOINTS
 62
     0
100
AcDbPoint
 10
21591.70807970429
 20
-2943.630634460089
 30
0.0
  0
POINT
  5
219
330
20E
100
AcDbEntity
  8
DEFPOINTS
 62
     0
100
AcDbPoint
 10
21576.88341641532
 20
-2943.630634460089
 30
0.0
  0
ENDBLK
  5
21B
330
20E
100
AcDbEntity
  8
0
100
AcDbBlockEnd
  0
BLOCK
  5
204
330
1FA
100
AcDbEntity
  8
0
100
AcDbBlockBegin
  2
*D24
 70
     1
 10
0.0
 20
0.0
 30
0.0
  3
*D24
  1

  0
LINE
  5
1FB
330
1FA
100
AcDbEntity
  8
0
 62
   123
100
AcDbLine
 10
21586.80994090306
 20
-2948.630634460089
 30
0.0
 11
21566.77823234595
 21
-2948.630634460089
 31
0.0
  0
LINE
  5
1FC
330
1FA
100
AcDbEntity
  8
0
 62
   123
100
AcDbLine
 10
21587.65088875851
 20
-2963.630634460089
 30
0.0
 11
21566.77823234595
 21
-2963.630634460089
 31
0.0
  0
LINE
  5
1FD
330
1FA
100
AcDbEntity
  8
0
 62
   123
100
AcDbLine
 10
21567.37823234596
 20
-2951.130634460088
 30
0.0
 11
21567.37823234596
 21
-2961.130634460089
 31
0.0
  0
SOLID
  5
1FE
330
1FA
100
AcDbEntity
  8
0
 62
   123
100
AcDbTrace
 10
21566.96156567929
 20
-2951.130634460088
 30
0.0
 11
21567.79489901263
 21
-2951.130634460088
 31
0.0
 12
21567.37823234596
 22
-2948.630634460089
 32
0.0
 13
21567.37823234596
 23
-2948.630634460089
 33
0.0
  0
SOLID
  5
1FF
330
1FA
100
AcDbEntity
  8
0
 62
   123
100
AcDbTrace
 10
21566.96156567929
 20
-2961.130634460089
 30
0.0
 11
21567.79489901263
 21
-2961.130634460089
 31
0.0
 12
21567.37823234596
 22
-2963.630634460089
 32
0.0
 13
21567.37823234596
 23
-2963.630634460089
 33
0.0
  0
MTEXT
  5
200
330
1FA
100
AcDbEntity
  8
0
 62
     3
100
AcDbMText
 10
21564.87823234596
 20
-2956.130634460089
 30
0.0
 40
3.0
 41
0.0
 71
     5
 72
     1
  1
\A1;15
 11
0.0000000000000001
 21
1.0
 31
0.0
1001
ACAD
1000
MTEXTBEGIN
1070
    73
1070
     1
1070
    44
1040
1.0
1070
    74
1070
     0
1000
MTEXTEND
  0
POINT
  5
201
330
1FA
100
AcDbEntity
  8
DEFPOINTS
 62
     0
100
AcDbPoint
 10
21587.80994090307
 20
-2948.630634460089
 30
0.0
  0
POINT
  5
202
330
1FA
100
AcDbEntity
  8
DEFPOINTS
 62
     0
100
AcDbPoint
 10
21588.65088875852
 20
-2963.630634460089
 30
0.0
  0
POINT
  5
203
330
1FA
100
AcDbEntity
  8
DEFPOINTS
 62
     0
100
AcDbPoint
 10
21567.37823234596
 20
-2963.630634460089
 30
0.0
  0
ENDBLK
  5
205
330
1FA
100
AcDbEntity
  8
0
100
AcDbBlockEnd
  0
BLOCK
  5
31A
330
310
100
AcDbEntity
  8
0
100
AcDbBlockBegin
  2
*D25
 70
     1
 10
0.0
 20
0.0
 30
0.0
  3
*D25
  1

  0
LINE
  5
311
330
310
100
AcDbEntity
  8
0
 62
   123
100
AcDbLine
 10
21499.38847046275
 20
-2577.821410070339
 30
0.0
 11
21499.38847046275
 21
-2558.7468434206
 31
0.0
  0
LINE
  5
312
330
310
100
AcDbEntity
  8
0
 62
   123
100
AcDbLine
 10
21579.38847046275
 20
-2577.821410070339
 30
0.0
 11
21579.38847046275
 21
-2558.7468434206
 31
0.0
  0
LINE
  5
313
330
310
100
AcDbEntity
  8
0
 62
   123
100
AcDbLine
 10
21501.88847046276
 20
-2559.3468434206
 30
0.0
 11
21576.88847046276
 21
-2559.3468434206
 31
0.0
  0
SOLID
  5
314
330
310
100
AcDbEntity
  8
0
 62
   123
100
AcDbTrace
 10
21501.88847046276
 20
-2558.930176753933
 30
0.0
 11
21501.88847046276
 21
-2559.763510087265
 31
0.0
 12
21499.38847046275
 22
-2559.3468434206
 32
0.0
 13
21499.38847046275
 23
-2559.3468434206
 33
0.0
  0
SOLID
  5
315
330
310
100
AcDbEntity
  8
0
 62
   123
100
AcDbTrace
 10
21576.88847046276
 20
-2558.930176753933
 30
0.0
 11
21576.88847046276
 21
-2559.763510087265
 31
0.0
 12
21579.38847046275
 22
-2559.3468434206
 32
0.0
 13
21579.38847046275
 23
-2559.3468434206
 33
0.0
  0
MTEXT
  5
316
330
310
100
AcDbEntity
  8
0
 62
     3
100
AcDbMText
 10
21540.9971918474
 20
-2556.8468434206
 30
0.0
 40
3.0
 41
0.0
 71
     5
 72
     1
  1
\A1;80
1001
ACAD
1000
MTEXTBEGIN
1070
    73
1070
     1
1070
    44
1040
1.0
1070
    74
1070
     0
1000
MTEXTEND
  0
POINT
  5
317
330
310
100
AcDbEntity
  8
DEFPOINTS
 62
     0
100
AcDbPoint
 10
21499.38847046275
 20
-2578.821410070339
 30
0.0
  0
POINT
  5
318
330
310
100
AcDbEntity
  8
DEFPOINTS
 62
     0
100
AcDbPoint
 10
21579.38847046275
 20
-2578.821410070339
 30
0.0
  0
POINT
  5
319
330
310
100
AcDbEntity
  8
DEFPOINTS
 62
     0
100
AcDbPoint
 10
21579.38847046275
 20
-2559.3468434206
 30
0.0
  0
ENDBLK
  5
31B
330
310
100
AcDbEntity
  8
0
100
AcDbBlockEnd
  0
BLOCK
  5
28F
330
285
100
AcDbEntity
  8
0
100
AcDbBlockBegin
  2
*D26
 70
     1
 10
0.0
 20
0.0
 30
0.0
  3
*D26
  1

  0
LINE
  5
286
330
285
100
AcDbEntity
  8
0
 62
   123
100
AcDbLine
 10
21637.58141893413
 20
-2650.32141007034
 30
0.0
 11
21614.48032154274
 21
-2650.32141007034
 31
0.0
  0
LINE
  5
287
330
285
100
AcDbEntity
  8
0
 62
   123
100
AcDbLine
 10
21637.58141893413
 20
-2577.321410070339
 30
0.0
 11
21614.48032154274
 21
-2577.321410070339
 31
0.0
  0
LINE
  5
288
330
285
100
AcDbEntity
  8
0
 62
   123
100
AcDbLine
 10
21615.08032154274
 20
-2647.82141007034
 30
0.0
 11
21615.08032154274
 21
-2579.82141007034
 31
0.0
  0
SOLID
  5
289
330
285
100
AcDbEntity
  8
0
 62
   123
100
AcDbTrace
 10
21614.66365487608
 20
-2647.82141007034
 30
0.0
 11
21615.49698820941
 21
-2647.82141007034
 31
0.0
 12
21615.08032154274
 22
-2650.32141007034
 32
0.0
 13
21615.08032154274
 23
-2650.32141007034
 33
0.0
  0
SOLID
  5
28A
330
285
100
AcDbEntity
  8
0
 62
   123
100
AcDbTrace
 10
21614.66365487608
 20
-2579.82141007034
 30
0.0
 11
21615.49698820941
 21
-2579.82141007034
 31
0.0
 12
21615.08032154274
 22
-2577.321410070339
 32
0.0
 13
21615.08032154274
 23
-2577.321410070339
 33
0.0
  0
MTEXT
  5
28B
330
285
100
AcDbEntity
  8
0
 62
     3
100
AcDbMText
 10
21611.13017154275
 20
-2613.82141007034
 30
0.0
 40
3.0
 41
0.0
 71
     5
 72
     1
  1
\A1;\A1;{\F;%%C}73{\F;\H0.7x;\S+0^ -0.030;\H1.429x;(h7)}
 11
0.0000000000000001
 21
1.0
 31
0.0
1001
ACAD
1000
MTEXTBEGIN
1070
    73
1070
     1
1070
    44
1040
1.0
1070
    74
1070
     0
1000
MTEXTEND
  0
POINT
  5
28C
330
285
100
AcDbEntity
  8
DEFPOINTS
 62
     0
100
AcDbPoint
 10
21638.58141893413
 20
-2650.32141007034
 30
0.0
  0
POINT
  5
28D
330
285
100
AcDbEntity
  8
DEFPOINTS
 62
     0
100
AcDbPoint
 10
21638.58141893413
 20
-2577.321410070339
 30
0.0
  0
POINT
  5
28E
330
285
100
AcDbEntity
  8
DEFPOINTS
 62
     0
100
AcDbPoint
 10
21615.08032154274
 20
-2577.321410070339
 30
0.0
  0
ENDBLK
  5
290
330
285
100
AcDbEntity
  8
0
100
AcDbBlockEnd
  0
BLOCK
  5
B9
330
AC
100
AcDbEntity
  8
0
100
AcDbBlockBegin
  2
*D27
 70
     1
 10
0.0
 20
0.0
 30
0.0
  3
*D27
  1

  0
LINE
  5
AD
330
AC
100
AcDbEntity
  8
0
 62
   123
100
AcDbLine
 10
21485.99887772967
 20
-3011.802757668506
 30
0.0
 11
21485.99887772967
 21
-3018.278728630878
 31
0.0
  0
LINE
  5
AE
330
AC
100
AcDbEntity
  8
0
 62
   123
100
AcDbLine
 10
21502.95010365697
 20
-3004.554513992621
 30
0.0
 11
21506.91179797915
 21
-3014.118890155231
 31
0.0
  0
ARC
  5
AF
330
AC
100
AcDbEntity
  8
0
 62
   123
100
AcDbCircle
 10
21485.99887772967
 20
-2963.6306344601
 30
0.0
 40
54.04809417077764
100
AcDbArc
 50
272.650458327154
 51
289.8495416728442
  0
SOLID
  5
B0
330
AC
100
AcDbEntity
  8
0
 62
   123
100
AcDbTrace
 10
21488.50784551494
 20
-3018.03746497358
 30
0.0
 11
21488.48857255662
 21
-3017.204354538209
 31
0.0
 12
21485.99887772967
 22
-3017.678728630878
 32
0.0
 13
21485.99887772967
 23
-3017.678728630878
 33
0.0
  0
SOLID
  5
B1
330
AC
100
AcDbEntity
  8
0
 62
   123
100
AcDbTrace
 10
21504.20047472092
 20
-3014.079062882672
 30
0.0
 11
21504.50148639013
 21
-3014.856132004076
 31
0.0
 12
21506.68218791974
 22
-3013.564562435725
 32
0.0
 13
21506.68218791974
 23
-3013.564562435725
 33
0.0
  0
MTEXT
  5
B2
330
AC
100
AcDbEntity
  8
0
 62
     3
100
AcDbMText
 10
21497.08578577691
 20
-3013.679730969756
 30
0.0
 40
3.0
 41
0.0
 71
     5
 72
     1
  1
\A1;22°30'
 11
0.976331895278205
 21
0.2162776693569365
 31
0.0
1001
ACAD
1000
MTEXTBEGIN
1070
    73
1070
     1
1070
    44
1040
1.0
1070
    74
1070
     0
1000
MTEXTEND
  0
POINT
  5
B3
330
AC
100
AcDbEntity
  8
DEFPOINTS
 62
     0
100
AcDbPoint
 10
21493.05356965853
 20
-3017.216339692766
 30
0.0
  0
POINT
  5
B5
330
AC
100
AcDbEntity
  8
DEFPOINTS
 62
     0
100
AcDbPoint
 10
21485.99887772967
 20
-3010.802757668507
 30
0.0
  0
POINT
  5
B6
330
AC
100
AcDbEntity
  8
DEFPOINTS
 62
     0
100
AcDbPoint
 10
21502.5674202246
 20
-3003.63063446011
 30
0.0
  0
POINT
  5
B7
330
AC
100
AcDbEntity
  8
DEFPOINTS
 62
     0
100
AcDbPoint
 10
21485.99887772967
 20
-2963.630634460111
 30
0.0
  0
POINT
  5
B8
330
AC
100
AcDbEntity
  8
DEFPOINTS
 62
     0
100
AcDbPoint
 10
21485.99887772967
 20
-2916.458511251713
 30
0.0
  0
ENDBLK
  5
BA
330
AC
100
AcDbEntity
  8
0
100
AcDbBlockEnd
  0
BLOCK
  5
18C
330
182
100
AcDbEntity
  8
0
100
AcDbBlockBegin
  2
*D28
 70
     1
 10
0.0
 20
0.0
 30
0.0
  3
*D28
  1

  0
LINE
  5
183
330
182
100
AcDbEntity
  8
0
 62
   123
100
AcDbLine
 10
21456.49110831394
 20
-2865.912427205032
 30
0.0
 11
21456.49110831394
 21
-2856.507233224556
 31
0.0
  0
LINE
  5
184
330
182
100
AcDbEntity
  8
0
 62
   123
100
AcDbLine
 10
21481.49110831394
 20
-2863.912427205031
 30
0.0
 11
21481.49110831394
 21
-2856.507233224556
 31
0.0
  0
LINE
  5
185
330
182
100
AcDbEntity
  8
0
 62
   123
100
AcDbLine
 10
21458.99110831395
 20
-2857.107233224557
 30
0.0
 11
21478.99110831394
 21
-2857.107233224557
 31
0.0
  0
SOLID
  5
186
330
182
100
AcDbEntity
  8
0
 62
   123
100
AcDbTrace
 10
21458.99110831395
 20
-2856.69056655789
 30
0.0
 11
21458.99110831395
 21
-2857.523899891223
 31
0.0
 12
21456.49110831394
 22
-2857.107233224557
 32
0.0
 13
21456.49110831394
 23
-2857.107233224557
 33
0.0
  0
SOLID
  5
187
330
182
100
AcDbEntity
  8
0
 62
   123
100
AcDbTrace
 10
21478.99110831394
 20
-2856.69056655789
 30
0.0
 11
21478.99110831394
 21
-2857.523899891223
 31
0.0
 12
21481.49110831394
 22
-2857.107233224557
 32
0.0
 13
21481.49110831394
 23
-2857.107233224557
 33
0.0
  0
MTEXT
  5
188
330
182
100
AcDbEntity
  8
0
 62
     3
100
AcDbMText
 10
21468.99110831395
 20
-2854.607233224557
 30
0.0
 40
3.0
 41
0.0
 71
     5
 72
     1
  1
\A1;25{\F;%%p0.2}
1001
ACAD
1000
MTEXTBEGIN
1070
    73
1070
     1
1070
    44
1040
1.0
1070
    74
1070
     0
1000
MTEXTEND
  0
POINT
  5
189
330
182
100
AcDbEntity
  8
DEFPOINTS
 62
     0
100
AcDbPoint
 10
21456.49110831394
 20
-2866.912427205031
 30
0.0
  0
POINT
  5
18A
330
182
100
AcDbEntity
  8
DEFPOINTS
 62
     0
100
AcDbPoint
 10
21481.49110831394
 20
-2864.912427205032
 30
0.0
  0
POINT
  5
18B
330
182
100
AcDbEntity
  8
DEFPOINTS
 62
     0
100
AcDbPoint
 10
21481.49110831394
 20
-2857.107233224557
 30
0.0
  0
ENDBLK
  5
18D
330
182
100
AcDbEntity
  8
0
100
AcDbBlockEnd
  0
BLOCK
  5
1B2
330
1A6
100
AcDbEntity
  8
0
100
AcDbBlockBegin
  2
*D29
 70
     1
 10
0.0
 20
0.0
 30
0.0
  3
*D29
  1

  0
LINE
  5
1A7
330
1A6
100
AcDbEntity
  8
0
 62
   123
100
AcDbLine
 10
21548.5951413412
 20
-2866.012722492028
 30
0.0
 11
21563.69247383539
 21
-2866.012722492028
 31
0.0
  0
LINE
  5
1A8
330
1A6
100
AcDbEntity
  8
0
 62
   123
100
AcDbLine
 10
21546.5951413412
 20
-2863.512722492028
 30
0.0
 11
21563.69247383539
 21
-2863.512722492028
 31
0.0
  0
LINE
  5
1A9
330
1A6
100
AcDbEntity
  8
0
 62
   123
100
AcDbLine
 10
21563.09247383539
 20
-2868.512722492029
 30
0.0
 11
21563.09247383539
 21
-2871.012722492029
 31
0.0
  0
LINE
  5
1AA
330
1A6
100
AcDbEntity
  8
0
 62
   123
100
AcDbLine
 10
21563.09247383539
 20
-2861.012722492029
 30
0.0
 11
21563.09247383539
 21
-2839.598436777746
 31
0.0
  0
LINE
  5
1AB
330
1A6
100
AcDbEntity
  8
0
 62
   123
100
AcDbLine
 10
21563.09247383539
 20
-2866.012722492028
 30
0.0
 11
21563.09247383539
 21
-2863.512722492028
 31
0.0
  0
SOLID
  5
1AC
330
1A6
100
AcDbEntity
  8
0
 62
   123
100
AcDbTrace
 10
21562.67580716872
 20
-2868.512722492029
 30
0.0
 11
21563.50914050206
 21
-2868.512722492029
 31
0.0
 12
21563.09247383539
 22
-2866.012722492028
 32
0.0
 13
21563.09247383539
 23
-2866.012722492028
 33
0.0
  0
SOLID
  5
1AD
330
1A6
100
AcDbEntity
  8
0
 62
   123
100
AcDbTrace
 10
21562.67580716872
 20
-2861.012722492029
 30
0.0
 11
21563.50914050206
 21
-2861.012722492029
 31
0.0
 12
21563.09247383539
 22
-2863.512722492028
 32
0.0
 13
21563.09247383539
 23
-2863.512722492028
 33
0.0
  0
MTEXT
  5
1AE
330
1A6
100
AcDbEntity
  8
0
 62
     3
100
AcDbMText
 10
21559.64247383538
 20
-2847.305579634885
 30
0.0
 40
3.0
 41
0.0
 71
     5
 72
     1
  1
\A1;\A1;2.5{\F;\H0.7x;\S+0.1^ -0;\H1.429x; }
 11
0.0000000000000001
 21
1.0
 31
0.0
1001
ACAD
1000
MTEXTBEGIN
1070
    73
1070
     1
1070
    44
1040
1.0
1070
    74
1070
     0
1000
MTEXTEND
  0
POINT
  5
1AF
330
1A6
100
AcDbEntity
  8
DEFPOINTS
 62
     0
100
AcDbPoint
 10
21547.5951413412
 20
-2866.012722492028
 30
0.0
  0
POINT
  5
1B0
330
1A6
100
AcDbEntity
  8
DEFPOINTS
 62
     0
100
AcDbPoint
 10
21545.5951413412
 20
-2863.512722492028
 30
0.0
  0
POINT
  5
1B1
330
1A6
100
AcDbEntity
  8
DEFPOINTS
 62
     0
100
AcDbPoint
 10
21563.09247383539
 20
-2863.512722492028
 30
0.0
  0
ENDBLK
  5
1B3
330
1A6
100
AcDbEntity
  8
0
100
AcDbBlockEnd
  0
BLOCK
  5
1C3
330
1B7
100
AcDbEntity
  8
0
100
AcDbBlockBegin
  2
*D30
 70
     1
 10
0.0
 20
0.0
 30
0.0
  3
*D30
  1

  0
LINE
  5
1B8
330
1B7
100
AcDbEntity
  8
0
 62
   123
100
AcDbLine
 10
21498.66176160067
 20
-2863.912427205031
 30
0.0
 11
21498.66176160067
 21
-2855.6379515464
 31
0.0
  0
LINE
  5
1B9
330
1B7
100
AcDbEntity
  8
0
 62
   123
100
AcDbLine
 10
21502.66176160067
 20
-2863.912427205031
 30
0.0
 11
21502.66176160067
 21
-2855.6379515464
 31
0.0
  0
LINE
  5
1BA
330
1B7
100
AcDbEntity
  8
0
 62
   123
100
AcDbLine
 10
21496.16176160066
 20
-2856.2379515464
 30
0.0
 11
21493.66176160067
 21
-2856.2379515464
 31
0.0
  0
LINE
  5
1BB
330
1B7
100
AcDbEntity
  8
0
 62
   123
100
AcDbLine
 10
21505.16176160067
 20
-2856.2379515464
 30
0.0
 11
21507.66176160066
 21
-2856.2379515464
 31
0.0
  0
LINE
  5
1BC
330
1B7
100
AcDbEntity
  8
0
 62
   123
100
AcDbLine
 10
21498.66176160067
 20
-2856.2379515464
 30
0.0
 11
21502.66176160067
 21
-2856.2379515464
 31
0.0
  0
SOLID
  5
1BD
330
1B7
100
AcDbEntity
  8
0
 62
   123
100
AcDbTrace
 10
21496.16176160066
 20
-2855.821284879733
 30
0.0
 11
21496.16176160066
 21
-2856.654618213066
 31
0.0
 12
21498.66176160067
 22
-2856.2379515464
 32
0.0
 13
21498.66176160067
 23
-2856.2379515464
 33
0.0
  0
SOLID
  5
1BE
330
1B7
100
AcDbEntity
  8
0
 62
   123
100
AcDbTrace
 10
21505.16176160067
 20
-2855.821284879733
 30
0.0
 11
21505.16176160067
 21
-2856.654618213066
 31
0.0
 12
21502.66176160067
 22
-2856.2379515464
 32
0.0
 13
21502.66176160067
 23
-2856.2379515464
 33
0.0
  0
MTEXT
  5
1BF
330
1B7
100
AcDbEntity
  8
0
 62
     3
100
AcDbMText
 10
21500.66176160067
 20
-2852.7879515464
 30
0.0
 40
3.0
 41
0.0
 71
     5
 72
     1
  1
\A1;\A1;4{\F;\H0.7x;\S+0^ -0.03;}
1001
ACAD
1000
MTEXTBEGIN
1070
    73
1070
     1
1070
    44
1040
1.0
1070
    74
1070
     0
1000
MTEXTEND
  0
POINT
  5
1C0
330
1B7
100
AcDbEntity
  8
DEFPOINTS
 62
     0
100
AcDbPoint
 10
21498.66176160067
 20
-2864.912427205032
 30
0.0
  0
POINT
  5
1C1
330
1B7
100
AcDbEntity
  8
DEFPOINTS
 62
     0
100
AcDbPoint
 10
21502.66176160067
 20
-2864.912427205032
 30
0.0
  0
POINT
  5
1C2
330
1B7
100
AcDbEntity
  8
DEFPOINTS
 62
     0
100
AcDbPoint
 10
21502.66176160067
 20
-2856.2379515464
 30
0.0
  0
ENDBLK
  5
1C4
330
1B7
100
AcDbEntity
  8
0
100
AcDbBlockEnd
  0
BLOCK
  5
1D4
330
1C8
100
AcDbEntity
  8
0
100
AcDbBlockBegin
  2
*D31
 70
     1
 10
0.0
 20
0.0
 30
0.0
  3
*D31
  1

  0
LINE
  5
1C9
330
1C8
100
AcDbEntity
  8
0
 62
   123
100
AcDbLine
 10
21543.5951413412
 20
-2862.930146797072
 30
0.0
 11
21543.5951413412
 21
-2854.571134252097
 31
0.0
  0
LINE
  5
1CA
330
1C8
100
AcDbEntity
  8
0
 62
   123
100
AcDbLine
 10
21547.5951413412
 20
-2862.930146797072
 30
0.0
 11
21547.5951413412
 21
-2854.571134252097
 31
0.0
  0
LINE
  5
1CB
330
1C8
100
AcDbEntity
  8
0
 62
   123
100
AcDbLine
 10
21541.0951413412
 20
-2855.171134252097
 30
0.0
 11
21538.5951413412
 21
-2855.171134252097
 31
0.0
  0
LINE
  5
1CC
330
1C8
100
AcDbEntity
  8
0
 62
   123
100
AcDbLine
 10
21550.0951413412
 20
-2855.171134252097
 30
0.0
 11
21552.5951413412
 21
-2855.171134252097
 31
0.0
  0
LINE
  5
1CD
330
1C8
100
AcDbEntity
  8
0
 62
   123
100
AcDbLine
 10
21543.5951413412
 20
-2855.171134252097
 30
0.0
 11
21547.5951413412
 21
-2855.171134252097
 31
0.0
  0
SOLID
  5
1CE
330
1C8
100
AcDbEntity
  8
0
 62
   123
100
AcDbTrace
 10
21541.0951413412
 20
-2854.754467585431
 30
0.0
 11
21541.0951413412
 21
-2855.587800918764
 31
0.0
 12
21543.5951413412
 22
-2855.171134252097
 32
0.0
 13
21543.5951413412
 23
-2855.171134252097
 33
0.0
  0
SOLID
  5
1CF
330
1C8
100
AcDbEntity
  8
0
 62
   123
100
AcDbTrace
 10
21550.0951413412
 20
-2854.754467585431
 30
0.0
 11
21550.0951413412
 21
-2855.587800918764
 31
0.0
 12
21547.5951413412
 22
-2855.171134252097
 32
0.0
 13
21547.5951413412
 23
-2855.171134252097
 33
0.0
  0
MTEXT
  5
1D0
330
1C8
100
AcDbEntity
  8
0
 62
     3
100
AcDbMText
 10
21545.5951413412
 20
-2851.721134252097
 30
0.0
 40
3.0
 41
0.0
 71
     5
 72
     1
  1
\A1;\A1;4{\F;\H0.7x;\S+0.40^ -0;}
1001
ACAD
1000
MTEXTBEGIN
1070
    73
1070
     1
1070
    44
1040
1.0
1070
    74
1070
     0
1000
MTEXTEND
  0
POINT
  5
1D1
330
1C8
100
AcDbEntity
  8
DEFPOINTS
 62
     0
100
AcDbPoint
 10
21543.5951413412
 20
-2863.930146797073
 30
0.0
  0
POINT
  5
1D2
330
1C8
100
AcDbEntity
  8
DEFPOINTS
 62
     0
100
AcDbPoint
 10
21547.5951413412
 20
-2863.930146797073
 30
0.0
  0
POINT
  5
1D3
330
1C8
100
AcDbEntity
  8
DEFPOINTS
 62
     0
100
AcDbPoint
 10
21547.5951413412
 20
-2855.171134252097
 30
0.0
  0
ENDBLK
  5
1D5
330
1C8
100
AcDbEntity
  8
0
100
AcDbBlockEnd
  0
BLOCK
  5
36C
330
362
100
AcDbEntity
  8
0
100
AcDbBlockBegin
  2
*D32
 70
     1
 10
0.0
 20
0.0
 30
0.0
  3
*D32
  1

  0
LINE
  5
363
330
362
100
AcDbEntity
  8
0
 62
   123
100
AcDbLine
 10
197.1410598765578
 20
279.2966617700804
 30
0.0
 11
197.1410598765578
 21
216.6089807217894
 31
0.0
  0
LINE
  5
364
330
362
100
AcDbEntity
  8
0
 62
   123
100
AcDbLine
 10
229.1410598765578
 20
229.7966617700804
 30
0.0
 11
229.1410598765578
 21
216.6089807217894
 31
0.0
  0
LINE
  5
365
330
362
100
AcDbEntity
  8
0
 62
   123
100
AcDbLine
 10
199.6410598765578
 20
217.2089807217894
 30
0.0
 11
226.6410598765578
 21
217.2089807217894
 31
0.0
  0
SOLID
  5
366
330
362
100
AcDbEntity
  8
0
 62
   123
100
AcDbTrace
 10
199.6410598765578
 20
217.625647388456
 30
0.0
 11
199.6410598765578
 21
216.7923140551227
 31
0.0
 12
197.1410598765578
 22
217.2089807217894
 32
0.0
 13
197.1410598765578
 23
217.2089807217894
 33
0.0
  0
SOLID
  5
367
330
362
100
AcDbEntity
  8
0
 62
   123
100
AcDbTrace
 10
226.6410598765578
 20
217.625647388456
 30
0.0
 11
226.6410598765578
 21
216.7923140551227
 31
0.0
 12
229.1410598765578
 22
217.2089807217894
 32
0.0
 13
229.1410598765578
 23
217.2089807217894
 33
0.0
  0
MTEXT
  5
368
330
362
100
AcDbEntity
  8
0
 62
     3
100
AcDbMText
 10
213.1410598765578
 20
219.7089807217894
 30
0.0
 40
3.0
 41
0.0
 71
     5
 72
     1
  1
\A1;32
1001
ACAD
1000
MTEXTBEGIN
1070
    73
1070
     1
1070
    44
1040
1.0
1070
    74
1070
     0
1000
MTEXTEND
  0
POINT
  5
369
330
362
100
AcDbEntity
  8
DEFPOINTS
 62
     0
100
AcDbPoint
 10
197.1410598765578
 20
280.2966617700803
 30
0.0
  0
POINT
  5
36A
330
362
100
AcDbEntity
  8
DEFPOINTS
 62
     0
100
AcDbPoint
 10
229.1410598765578
 20
230.7966617700803
 30
0.0
  0
POINT
  5
36B
330
362
100
AcDbEntity
  8
DEFPOINTS
 62
     0
100
AcDbPoint
 10
229.1410598765578
 20
217.2089807217894
 30
0.0
  0
ENDBLK
  5
36D
330
362
100
AcDbEntity
  8
0
100
AcDbBlockEnd
  0
BLOCK
  5
378
330
36E
100
AcDbEntity
  8
0
100
AcDbBlockBegin
  2
*D33
 70
     1
 10
0.0
 20
0.0
 30
0.0
  3
*D33
  1

  0
LINE
  5
36F
330
36E
100
AcDbEntity
  8
0
 62
   123
100
AcDbLine
 10
51.48793928407394
 20
234.2966617700803
 30
0.0
 11
51.48793928407394
 21
208.7197004299613
 31
0.0
  0
LINE
  5
370
330
36E
100
AcDbEntity
  8
0
 62
   123
100
AcDbLine
 10
131.4879392840739
 20
234.2966617700803
 30
0.0
 11
131.4879392840739
 21
208.7197004299613
 31
0.0
  0
LINE
  5
371
330
36E
100
AcDbEntity
  8
0
 62
   123
100
AcDbLine
 10
53.98793928407394
 20
209.3197004299613
 30
0.0
 11
128.9879392840739
 21
209.3197004299613
 31
0.0
  0
SOLID
  5
372
330
36E
100
AcDbEntity
  8
0
 62
   123
100
AcDbTrace
 10
53.98793928407394
 20
209.736367096628
 30
0.0
 11
53.98793928407394
 21
208.9030337632947
 31
0.0
 12
51.48793928407394
 22
209.3197004299613
 32
0.0
 13
51.48793928407394
 23
209.3197004299613
 33
0.0
  0
SOLID
  5
373
330
36E
100
AcDbEntity
  8
0
 62
   123
100
AcDbTrace
 10
128.9879392840739
 20
209.736367096628
 30
0.0
 11
128.9879392840739
 21
208.9030337632947
 31
0.0
 12
131.4879392840739
 22
209.3197004299613
 32
0.0
 13
131.4879392840739
 23
209.3197004299613
 33
0.0
  0
MTEXT
  5
374
330
36E
100
AcDbEntity
  8
0
 62
     3
100
AcDbMText
 10
95.30715705459078
 20
211.8197004299613
 30
0.0
 40
3.0
 41
0.0
 71
     5
 72
     1
  1
\A1;80
1001
ACAD
1000
MTEXTBEGIN
1070
    73
1070
     1
1070
    44
1040
1.0
1070
    74
1070
     0
1000
MTEXTEND
  0
POINT
  5
375
330
36E
100
AcDbEntity
  8
DEFPOINTS
 62
     0
100
AcDbPoint
 10
51.48793928407394
 20
235.2966617700804
 30
0.0
  0
POINT
  5
376
330
36E
100
AcDbEntity
  8
DEFPOINTS
 62
     0
100
AcDbPoint
 10
131.4879392840739
 20
235.2966617700804
 30
0.0
  0
POINT
  5
377
330
36E
100
AcDbEntity
  8
DEFPOINTS
 62
     0
100
AcDbPoint
 10
131.4879392840739
 20
209.3197004299613
 30
0.0
  0
ENDBLK
  5
379
330
36E
100
AcDbEntity
  8
0
100
AcDbBlockEnd
  0
BLOCK
  5
384
330
37A
100
AcDbEntity
  8
0
100
AcDbBlockBegin
  2
*D34
 70
     1
 10
0.0
 20
0.0
 30
0.0
  3
*D34
  1

  0
LINE
  5
37B
330
37A
100
AcDbEntity
  8
0
 62
   123
100
AcDbLine
 10
308.5064072615896
 20
106.9167822636882
 30
0.0
 11
332.4269652367307
 21
106.9167822636882
 31
0.0
  0
LINE
  5
37C
330
37A
100
AcDbEntity
  8
0
 62
   123
100
AcDbLine
 10
308.5064072615896
 20
27.91678226368822
 30
0.0
 11
332.4269652367307
 21
27.91678226368821
 31
0.0
  0
LINE
  5
37D
330
37A
100
AcDbEntity
  8
0
 62
   123
100
AcDbLine
 10
331.8269652367307
 20
104.4167822636882
 30
0.0
 11
331.8269652367307
 21
30.41678226368821
 31
0.0
  0
SOLID
  5
37E
330
37A
100
AcDbEntity
  8
0
 62
   123
100
AcDbTrace
 10
331.410298570064
 20
104.4167822636882
 30
0.0
 11
332.2436319033974
 21
104.4167822636882
 31
0.0
 12
331.8269652367307
 22
106.9167822636882
 32
0.0
 13
331.8269652367307
 23
106.9167822636882
 33
0.0
  0
SOLID
  5
37F
330
37A
100
AcDbEntity
  8
0
 62
   123
100
AcDbTrace
 10
331.410298570064
 20
30.41678226368821
 30
0.0
 11
332.2436319033974
 21
30.41678226368821
 31
0.0
 12
331.8269652367307
 22
27.91678226368821
 32
0.0
 13
331.8269652367307
 23
27.91678226368821
 33
0.0
  0
MTEXT
  5
380
330
37A
100
AcDbEntity
  8
0
 62
     3
100
AcDbMText
 10
329.3269652367307
 20
67.41678226368822
 30
0.0
 40
3.0
 41
0.0
 71
     5
 72
     1
  1
\A1;%%C79
 11
0.0000000000000001
 21
1.0
 31
0.0
1001
ACAD
1000
MTEXTBEGIN
1070
    73
1070
     1
1070
    44
1040
1.0
1070
    74
1070
     0
1000
MTEXTEND
  0
POINT
  5
381
330
37A
100
AcDbEntity
  8
DEFPOINTS
 62
     0
100
AcDbPoint
 10
307.5064072615896
 20
106.9167822636882
 30
0.0
  0
POINT
  5
382
330
37A
100
AcDbEntity
  8
DEFPOINTS
 62
     0
100
AcDbPoint
 10
307.5064072615896
 20
27.91678226368822
 30
0.0
  0
POINT
  5
383
330
37A
100
AcDbEntity
  8
DEFPOINTS
 62
     0
100
AcDbPoint
 10
331.8269652367307
 20
27.91678226368821
 30
0.0
  0
ENDBLK
  5
385
330
37A
100
AcDbEntity
  8
0
100
AcDbBlockEnd
  0
BLOCK
  5
392
330
386
100
AcDbEntity
  8
0
100
AcDbBlockBegin
  2
*D35
 70
     1
 10
0.0
 20
0.0
 30
0.0
  3
*D35
  1

  0
LINE
  5
4EC
330
386
100
AcDbEntity
  8
0
 62
   123
100
AcDbLine
 10
49.29720528695908
 20
19.24465905526995
 30
0.0
 11
49.29720528695906
 21
12.76868809289679
 31
0.0
  0
LINE
  5
4ED
330
386
100
AcDbEntity
  8
0
 62
   123
100
AcDbLine
 10
66.24843121425751
 20
26.492902731156
 30
0.0
 11
70.2101255364489
 21
16.92852656854462
 31
0.0
  0
ARC
  5
4EE
330
386
100
AcDbEntity
  8
0
 62
   123
100
AcDbCircle
 10
49.29720528695908
 20
67.41678226369227
 30
0.0
 40
54.04809417079547
100
AcDbArc
 50
272.6504583271549
 51
289.849541672844
  0
SOLID
  5
4EF
330
386
100
AcDbEntity
  8
0
 62
   123
100
AcDbTrace
 10
51.80617307223192
 20
13.00995175019628
 30
0.0
 11
51.78690011390382
 21
13.84306218556588
 31
0.0
 12
49.29720528695906
 22
13.36868809289679
 32
0.0
 13
49.29720528695906
 23
13.36868809289679
 33
0.0
  0
SOLID
  5
4F0
330
386
100
AcDbEntity
  8
0
 62
   123
100
AcDbTrace
 10
67.49880227820867
 20
16.96835384110519
 30
0.0
 11
67.79981394742479
 21
16.19128471970082
 31
0.0
 12
69.98051547702985
 22
17.4828542880514
 32
0.0
 13
69.98051547702985
 23
17.4828542880514
 33
0.0
  0
MTEXT
  5
4F1
330
386
100
AcDbEntity
  8
0
 62
     3
100
AcDbMText
 10
60.38411333420086
 20
17.36768575402106
 30
0.0
 40
3.0
 41
0.0
 71
     5
 72
     1
  1
\A1;22°30'
 11
0.9763318952781768
 21
0.216277669357063
 31
0.0
  0
POINT
  5
4F2
330
386
100
AcDbEntity
  8
DEFPOINTS
 62
     0
100
AcDbPoint
 10
56.35189721582347
 20
13.83107703100926
 30
0.0
  0
POINT
  5
4F3
330
386
100
AcDbEntity
  8
DEFPOINTS
 62
     0
100
AcDbPoint
 10
49.29720528695907
 20
20.24465905526995
 30
0.0
  0
POINT
  5
4F4
330
386
100
AcDbEntity
  8
DEFPOINTS
 62
     0
100
AcDbPoint
 10
65.86574778189242
 20
27.4167822636673
 30
0.0
  0
POINT
  5
4F5
330
386
100
AcDbEntity
  8
DEFPOINTS
 62
     0
100
AcDbPoint
 10
49.29720528696997
 20
67.41678226366594
 30
0.0
  0
POINT
  5
4F6
330
386
100
AcDbEntity
  8
DEFPOINTS
 62
     0
100
AcDbPoint
 10
49.29720528695907
 20
114.5889054720637
 30
0.0
  0
ENDBLK
  5
393
330
386
100
AcDbEntity
  8
0
100
AcDbBlockEnd
  0
BLOCK
  5
39E
330
394
100
AcDbEntity
  8
0
100
AcDbBlockBegin
  2
*D36
 70
     1
 10
0.0
 20
0.0
 30
0.0
  3
*D36
  1

  0
LINE
  5
395
330
394
100
AcDbEntity
  8
0
 62
   123
100
AcDbLine
 10
187.0064072615896
 20
107.9167822636882
 30
0.0
 11
187.0064072615896
 21
135.4079122839858
 31
0.0
  0
LINE
  5
396
330
394
100
AcDbEntity
  8
0
 62
   123
100
AcDbLine
 10
229.5064072615896
 20
107.9167822636882
 30
0.0
 11
229.5064072615896
 21
135.4079122839858
 31
0.0
  0
LINE
  5
397
330
394
100
AcDbEntity
  8
0
 62
   123
100
AcDbLine
 10
189.5064072615896
 20
134.8079122839858
 30
0.0
 11
227.0064072615896
 21
134.8079122839858
 31
0.0
  0
SOLID
  5
398
330
394
100
AcDbEntity
  8
0
 62
   123
100
AcDbTrace
 10
189.5064072615896
 20
135.2245789506524
 30
0.0
 11
189.5064072615896
 21
134.3912456173191
 31
0.0
 12
187.0064072615896
 22
134.8079122839858
 32
0.0
 13
187.0064072615896
 23
134.8079122839858
 33
0.0
  0
SOLID
  5
399
330
394
100
AcDbEntity
  8
0
 62
   123
100
AcDbTrace
 10
227.0064072615896
 20
135.2245789506524
 30
0.0
 11
227.0064072615896
 21
134.3912456173191
 31
0.0
 12
229.5064072615896
 22
134.8079122839858
 32
0.0
 13
229.5064072615896
 23
134.8079122839858
 33
0.0
  0
MTEXT
  5
39A
330
394
100
AcDbEntity
  8
0
 62
     3
100
AcDbMText
 10
207.0064072615896
 20
137.3079122839858
 30
0.0
 40
3.0
 41
0.0
 71
     5
 72
     1
  1
\A1;{\F;L}
1001
ACAD
1000
MTEXTBEGIN
1070
    73
1070
     1
1070
    44
1040
1.0
1070
    74
1070
     0
1000
MTEXTEND
  0
POINT
  5
39B
330
394
100
AcDbEntity
  8
DEFPOINTS
 62
     0
100
AcDbPoint
 10
187.0064072615896
 20
106.9167822636882
 30
0.0
  0
POINT
  5
39C
330
394
100
AcDbEntity
  8
DEFPOINTS
 62
     0
100
AcDbPoint
 10
229.5064072615896
 20
106.9167822636882
 30
0.0
  0
POINT
  5
39D
330
394
100
AcDbEntity
  8
DEFPOINTS
 62
     0
100
AcDbPoint
 10
229.5064072615896
 20
134.8079122839858
 30
0.0
  0
ENDBLK
  5
39F
330
394
100
AcDbEntity
  8
0
100
AcDbBlockEnd
  0
BLOCK
  5
3AC
330
3A0
100
AcDbEntity
  8
0
100
AcDbBlockBegin
  2
*D37
 70
     1
 10
0.0
 20
0.0
 30
0.0
  3
*D37
  1

  0
LINE
  5
3A1
330
3A0
100
AcDbEntity
  8
0
 62
   123
100
AcDbLine
 10
187.0064072615896
 20
107.9167822636882
 30
0.0
 11
187.0064072615896
 21
120.9075735344864
 31
0.0
  0
LINE
  5
3A2
330
3A0
100
AcDbEntity
  8
0
 62
   123
100
AcDbLine
 10
184.0064072615896
 20
99.91678226368913
 30
0.0
 11
184.0064072615896
 21
120.9075735344864
 31
0.0
  0
LINE
  5
3A3
330
3A0
100
AcDbEntity
  8
0
 62
   123
100
AcDbLine
 10
189.5064072615896
 20
120.3075735344864
 30
0.0
 11
192.0064072615896
 21
120.3075735344864
 31
0.0
  0
LINE
  5
3A4
330
3A0
100
AcDbEntity
  8
0
 62
   123
100
AcDbLine
 10
181.5064072615896
 20
120.3075735344864
 30
0.0
 11
179.0064072615896
 21
120.3075735344864
 31
0.0
  0
LINE
  5
3A5
330
3A0
100
AcDbEntity
  8
0
 62
   123
100
AcDbLine
 10
187.0064072615896
 20
120.3075735344864
 30
0.0
 11
184.0064072615896
 21
120.3075735344864
 31
0.0
  0
SOLID
  5
3A6
330
3A0
100
AcDbEntity
  8
0
 62
   123
100
AcDbTrace
 10
189.5064072615896
 20
120.7242402011531
 30
0.0
 11
189.5064072615896
 21
119.8909068678197
 31
0.0
 12
187.0064072615896
 22
120.3075735344864
 32
0.0
 13
187.0064072615896
 23
120.3075735344864
 33
0.0
  0
SOLID
  5
3A7
330
3A0
100
AcDbEntity
  8
0
 62
   123
100
AcDbTrace
 10
181.5064072615896
 20
120.7242402011531
 30
0.0
 11
181.5064072615896
 21
119.8909068678197
 31
0.0
 12
184.0064072615896
 22
120.3075735344864
 32
0.0
 13
184.0064072615896
 23
120.3075735344864
 33
0.0
  0
MTEXT
  5
3A8
330
3A0
100
AcDbEntity
  8
0
 62
     3
100
AcDbMText
 10
185.5064072615896
 20
122.8075735344864
 30
0.0
 40
3.0
 41
0.0
 71
     5
 72
     1
  1
\A1;3
1001
ACAD
1000
MTEXTBEGIN
1070
    73
1070
     1
1070
    44
1040
1.0
1070
    74
1070
     0
1000
MTEXTEND
  0
POINT
  5
3A9
330
3A0
100
AcDbEntity
  8
DEFPOINTS
 62
     0
100
AcDbPoint
 10
187.0064072615896
 20
106.9167822636882
 30
0.0
  0
POINT
  5
3AA
330
3A0
100
AcDbEntity
  8
DEFPOINTS
 62
     0
100
AcDbPoint
 10
184.0064072615896
 20
98.91678226368913
 30
0.0
  0
POINT
  5
3AB
330
3A0
100
AcDbEntity
  8
DEFPOINTS
 62
     0
100
AcDbPoint
 10
184.0064072615896
 20
120.3075735344864
 30
0.0
  0
ENDBLK
  5
3AD
330
3A0
100
AcDbEntity
  8
0
100
AcDbBlockEnd
  0
BLOCK
  5
3BA
330
3AE
100
AcDbEntity
  8
0
100
AcDbBlockBegin
  2
*D38
 70
     1
 10
0.0
 20
0.0
 30
0.0
  3
*D38
  1

  0
LINE
  5
3AF
330
3AE
100
AcDbEntity
  8
0
 62
   123
100
AcDbLine
 10
154.0064072615896
 20
77.41678226368913
 30
0.0
 11
139.581743972611
 21
77.41678226368913
 31
0.0
  0
LINE
  5
3B0
330
3AE
100
AcDbEntity
  8
0
 62
   123
100
AcDbLine
 10
154.0064072615896
 20
87.41678226368822
 30
0.0
 11
139.581743972611
 21
87.41678226368822
 31
0.0
  0
LINE
  5
3B1
330
3AE
100
AcDbEntity
  8
0
 62
   123
100
AcDbLine
 10
140.181743972611
 20
74.91678226368913
 30
0.0
 11
140.181743972611
 21
72.41678226368913
 31
0.0
  0
LINE
  5
3B2
330
3AE
100
AcDbEntity
  8
0
 62
   123
100
AcDbLine
 10
140.181743972611
 20
89.91678226368822
 30
0.0
 11
140.181743972611
 21
130.0355111137925
 31
0.0
  0
LINE
  5
3B3
330
3AE
100
AcDbEntity
  8
0
 62
   123
100
AcDbLine
 10
140.181743972611
 20
77.41678226368913
 30
0.0
 11
140.181743972611
 21
87.41678226368822
 31
0.0
  0
SOLID
  5
3B4
330
3AE
100
AcDbEntity
  8
0
 62
   123
100
AcDbTrace
 10
139.7650773059443
 20
74.91678226368913
 30
0.0
 11
140.5984106392776
 21
74.91678226368913
 31
0.0
 12
140.181743972611
 22
77.41678226368913
 32
0.0
 13
140.181743972611
 23
77.41678226368913
 33
0.0
  0
SOLID
  5
3B5
330
3AE
100
AcDbEntity
  8
0
 62
   123
100
AcDbTrace
 10
139.7650773059443
 20
89.91678226368822
 30
0.0
 11
140.5984106392776
 21
89.91678226368822
 31
0.0
 12
140.181743972611
 22
87.41678226368822
 32
0.0
 13
140.181743972611
 23
87.41678226368822
 33
0.0
  0
MTEXT
  5
3B6
330
3AE
100
AcDbEntity
  8
0
 62
     3
100
AcDbMText
 10
136.2315939726109
 20
115.2199396852211
 30
0.0
 40
3.0
 41
0.0
 71
     5
 72
     1
  1
\A1;\A1;{\F;%%C10\H0.7x;\S+0^ -0.015;\H1.429x;(h7)}
 11
0.0000000000000001
 21
1.0
 31
0.0
1001
ACAD
1000
MTEXTBEGIN
1070
    73
1070
     1
1070
    44
1040
1.0
1070
    74
1070
     0
1000
MTEXTEND
  0
POINT
  5
3B7
330
3AE
100
AcDbEntity
  8
DEFPOINTS
 62
     0
100
AcDbPoint
 10
155.0064072615896
 20
77.41678226368913
 30
0.0
  0
POINT
  5
3B8
330
3AE
100
AcDbEntity
  8
DEFPOINTS
 62
     0
100
AcDbPoint
 10
155.0064072615896
 20
87.41678226368822
 30
0.0
  0
POINT
  5
3B9
330
3AE
100
AcDbEntity
  8
DEFPOINTS
 62
     0
100
AcDbPoint
 10
140.181743972611
 20
87.41678226368822
 30
0.0
  0
ENDBLK
  5
3BB
330
3AE
100
AcDbEntity
  8
0
100
AcDbBlockEnd
  0
BLOCK
  5
3C6
330
3BC
100
AcDbEntity
  8
0
100
AcDbBlockBegin
  2
*D39
 70
     1
 10
0.0
 20
0.0
 30
0.0
  3
*D39
  1

  0
LINE
  5
3BD
330
3BC
100
AcDbEntity
  8
0
 62
   123
100
AcDbLine
 10
150.1082684603607
 20
82.41678226368822
 30
0.0
 11
130.0765599032515
 21
82.41678226368822
 31
0.0
  0
LINE
  5
3BE
330
3BC
100
AcDbEntity
  8
0
 62
   123
100
AcDbLine
 10
150.9492163158101
 20
67.41678226368822
 30
0.0
 11
130.0765599032515
 21
67.41678226368822
 31
0.0
  0
LINE
  5
3BF
330
3BC
100
AcDbEntity
  8
0
 62
   123
100
AcDbLine
 10
130.6765599032515
 20
79.91678226368822
 30
0.0
 11
130.6765599032515
 21
69.91678226368822
 31
0.0
  0
SOLID
  5
3C0
330
3BC
100
AcDbEntity
  8
0
 62
   123
100
AcDbTrace
 10
130.2598932365848
 20
79.91678226368822
 30
0.0
 11
131.0932265699181
 21
79.91678226368822
 31
0.0
 12
130.6765599032515
 22
82.41678226368822
 32
0.0
 13
130.6765599032515
 23
82.41678226368822
 33
0.0
  0
SOLID
  5
3C1
330
3BC
100
AcDbEntity
  8
0
 62
   123
100
AcDbTrace
 10
130.2598932365848
 20
69.91678226368822
 30
0.0
 11
131.0932265699181
 21
69.91678226368822
 31
0.0
 12
130.6765599032515
 22
67.41678226368822
 32
0.0
 13
130.6765599032515
 23
67.41678226368822
 33
0.0
  0
MTEXT
  5
3C2
330
3BC
100
AcDbEntity
  8
0
 62
     3
100
AcDbMText
 10
128.1765599032514
 20
74.91678226368822
 30
0.0
 40
3.0
 41
0.0
 71
     5
 72
     1
  1
\A1;15
 11
0.0000000000000001
 21
1.0
 31
0.0
1001
ACAD
1000
MTEXTBEGIN
1070
    73
1070
     1
1070
    44
1040
1.0
1070
    74
1070
     0
1000
MTEXTEND
  0
POINT
  5
3C3
330
3BC
100
AcDbEntity
  8
DEFPOINTS
 62
     0
100
AcDbPoint
 10
151.1082684603607
 20
82.41678226368822
 30
0.0
  0
POINT
  5
3C4
330
3BC
100
AcDbEntity
  8
DEFPOINTS
 62
     0
100
AcDbPoint
 10
151.9492163158101
 20
67.41678226368822
 30
0.0
  0
POINT
  5
3C5
330
3BC
100
AcDbEntity
  8
DEFPOINTS
 62
     0
100
AcDbPoint
 10
130.6765599032515
 20
67.41678226368822
 30
0.0
  0
ENDBLK
  5
3C7
330
3BC
100
AcDbEntity
  8
0
100
AcDbBlockEnd
  0
BLOCK
  5
3D2
330
3C8
100
AcDbEntity
  8
0
100
AcDbBlockBegin
  2
*D40
 70
     1
 10
0.0
 20
0.0
 30
0.0
  3
*D40
  1

  0
LINE
  5
3C9
330
3C8
100
AcDbEntity
  8
0
 62
   123
100
AcDbLine
 10
9.297205286980897
 20
103.4167822636891
 30
0.0
 11
9.297205286980899
 21
121.5321999680391
 31
0.0
  0
LINE
  5
3CA
330
3C8
100
AcDbEntity
  8
0
 62
   123
100
AcDbLine
 10
89.29720528698089
 20
103.4167822636891
 30
0.0
 11
89.29720528698089
 21
121.5321999680391
 31
0.0
  0
LINE
  5
3CB
330
3C8
100
AcDbEntity
  8
0
 62
   123
100
AcDbLine
 10
11.7972052869809
 20
120.9321999680391
 30
0.0
 11
86.79720528698089
 21
120.9321999680391
 31
0.0
  0
SOLID
  5
3CC
330
3C8
100
AcDbEntity
  8
0
 62
   123
100
AcDbTrace
 10
11.7972052869809
 20
121.3488666347058
 30
0.0
 11
11.7972052869809
 21
120.5155333013725
 31
0.0
 12
9.297205286980899
 22
120.9321999680391
 32
0.0
 13
9.297205286980899
 23
120.9321999680391
 33
0.0
  0
SOLID
  5
3CD
330
3C8
100
AcDbEntity
  8
0
 62
   123
100
AcDbTrace
 10
86.79720528698089
 20
121.3488666347058
 30
0.0
 11
86.79720528698089
 21
120.5155333013725
 31
0.0
 12
89.29720528698089
 22
120.9321999680391
 32
0.0
 13
89.29720528698089
 23
120.9321999680391
 33
0.0
  0
MTEXT
  5
3CE
330
3C8
100
AcDbEntity
  8
0
 62
     3
100
AcDbMText
 10
53.11642305751229
 20
123.4321999680391
 30
0.0
 40
3.0
 41
0.0
 71
     5
 72
     1
  1
\A1;80
1001
ACAD
1000
MTEXTBEGIN
1070
    73
1070
     1
1070
    44
1040
1.0
1070
    74
1070
     0
1000
MTEXTEND
  0
POINT
  5
3CF
330
3C8
100
AcDbEntity
  8
DEFPOINTS
 62
     0
100
AcDbPoint
 10
9.297205286980897
 20
102.4167822636891
 30
0.0
  0
POINT
  5
3D0
330
3C8
100
AcDbEntity
  8
DEFPOINTS
 62
     0
100
AcDbPoint
 10
89.29720528698089
 20
102.4167822636891
 30
0.0
  0
POINT
  5
3D1
330
3C8
100
AcDbEntity
  8
DEFPOINTS
 62
     0
100
AcDbPoint
 10
89.29720528698089
 20
120.9321999680391
 30
0.0
  0
ENDBLK
  5
3D3
330
3C8
100
AcDbEntity
  8
0
100
AcDbBlockEnd
  0
BLOCK
  5
3E0
330
3D4
100
AcDbEntity
  8
0
100
AcDbBlockBegin
  2
*D41
 70
     1
 10
0.0
 20
0.0
 30
0.0
  3
*D41
  1

  0
LINE
  5
3D5
330
3D4
100
AcDbEntity
  8
0
 62
   123
100
AcDbLine
 10
106.8934688984991
 20
168.1172699267044
 30
0.0
 11
106.8934688984991
 21
176.47628247168
 31
0.0
  0
LINE
  5
3D6
330
3D4
100
AcDbEntity
  8
0
 62
   123
100
AcDbLine
 10
110.8934688984991
 20
168.1172699267044
 30
0.0
 11
110.8934688984991
 21
176.47628247168
 31
0.0
  0
LINE
  5
3D7
330
3D4
100
AcDbEntity
  8
0
 62
   123
100
AcDbLine
 10
104.3934688984991
 20
175.87628247168
 30
0.0
 11
101.8934688984991
 21
175.87628247168
 31
0.0
  0
LINE
  5
3D8
330
3D4
100
AcDbEntity
  8
0
 62
   123
100
AcDbLine
 10
113.3934688984991
 20
175.87628247168
 30
0.0
 11
115.8934688984991
 21
175.87628247168
 31
0.0
  0
LINE
  5
3D9
330
3D4
100
AcDbEntity
  8
0
 62
   123
100
AcDbLine
 10
106.8934688984991
 20
175.87628247168
 30
0.0
 11
110.8934688984991
 21
175.87628247168
 31
0.0
  0
SOLID
  5
3DA
330
3D4
100
AcDbEntity
  8
0
 62
   123
100
AcDbTrace
 10
104.3934688984991
 20
176.2929491383466
 30
0.0
 11
104.3934688984991
 21
175.4596158050133
 31
0.0
 12
106.8934688984991
 22
175.87628247168
 32
0.0
 13
106.8934688984991
 23
175.87628247168
 33
0.0
  0
SOLID
  5
3DB
330
3D4
100
AcDbEntity
  8
0
 62
   123
100
AcDbTrace
 10
113.3934688984991
 20
176.2929491383466
 30
0.0
 11
113.3934688984991
 21
175.4596158050133
 31
0.0
 12
110.8934688984991
 22
175.87628247168
 32
0.0
 13
110.8934688984991
 23
175.87628247168
 33
0.0
  0
MTEXT
  5
3DC
330
3D4
100
AcDbEntity
  8
0
 62
     3
100
AcDbMText
 10
108.8934688984991
 20
179.32628247168
 30
0.0
 40
3.0
 41
0.0
 71
     5
 72
     1
  1
\A1;\A1;4{\F;\H0.7x;\S+0.40^ -0;}
1001
ACAD
1000
MTEXTBEGIN
1070
    73
1070
     1
1070
    44
1040
1.0
1070
    74
1070
     0
1000
MTEXTEND
  0
POINT
  5
3DD
330
3D4
100
AcDbEntity
  8
DEFPOINTS
 62
     0
100
AcDbPoint
 10
106.8934688984991
 20
167.1172699267044
 30
0.0
  0
POINT
  5
3DE
330
3D4
100
AcDbEntity
  8
DEFPOINTS
 62
     0
100
AcDbPoint
 10
110.8934688984991
 20
167.1172699267044
 30
0.0
  0
POINT
  5
3DF
330
3D4
100
AcDbEntity
  8
DEFPOINTS
 62
     0
100
AcDbPoint
 10
110.8934688984991
 20
175.87628247168
 30
0.0
  0
ENDBLK
  5
3E1
330
3D4
100
AcDbEntity
  8
0
100
AcDbBlockEnd
  0
BLOCK
  5
3EE
330
3E2
100
AcDbEntity
  8
0
100
AcDbBlockBegin
  2
*D42
 70
     1
 10
0.0
 20
0.0
 30
0.0
  3
*D42
  1

  0
LINE
  5
3E3
330
3E2
100
AcDbEntity
  8
0
 62
   123
100
AcDbLine
 10
61.96008915796119
 20
167.1349895187454
 30
0.0
 11
61.96008915796119
 21
175.4094651773772
 31
0.0
  0
LINE
  5
3E4
330
3E2
100
AcDbEntity
  8
0
 62
   123
100
AcDbLine
 10
65.96008915796119
 20
167.1349895187454
 30
0.0
 11
65.96008915796119
 21
175.4094651773772
 31
0.0
  0
LINE
  5
3E5
330
3E2
100
AcDbEntity
  8
0
 62
   123
100
AcDbLine
 10
59.46008915796119
 20
174.8094651773772
 30
0.0
 11
56.96008915796119
 21
174.8094651773772
 31
0.0
  0
LINE
  5
3E6
330
3E2
100
AcDbEntity
  8
0
 62
   123
100
AcDbLine
 10
68.46008915796119
 20
174.8094651773772
 30
0.0
 11
70.96008915796119
 21
174.8094651773772
 31
0.0
  0
LINE
  5
3E7
330
3E2
100
AcDbEntity
  8
0
 62
   123
100
AcDbLine
 10
61.96008915796119
 20
174.8094651773772
 30
0.0
 11
65.96008915796119
 21
174.8094651773772
 31
0.0
  0
SOLID
  5
3E8
330
3E2
100
AcDbEntity
  8
0
 62
   123
100
AcDbTrace
 10
59.46008915796119
 20
175.2261318440438
 30
0.0
 11
59.46008915796119
 21
174.3927985107105
 31
0.0
 12
61.96008915796119
 22
174.8094651773772
 32
0.0
 13
61.96008915796119
 23
174.8094651773772
 33
0.0
  0
SOLID
  5
3E9
330
3E2
100
AcDbEntity
  8
0
 62
   123
100
AcDbTrace
 10
68.46008915796119
 20
175.2261318440438
 30
0.0
 11
68.46008915796119
 21
174.3927985107105
 31
0.0
 12
65.96008915796119
 22
174.8094651773772
 32
0.0
 13
65.96008915796119
 23
174.8094651773772
 33
0.0
  0
MTEXT
  5
3EA
330
3E2
100
AcDbEntity
  8
0
 62
     3
100
AcDbMText
 10
63.96008915796119
 20
178.2594651773772
 30
0.0
 40
3.0
 41
0.0
 71
     5
 72
     1
  1
\A1;\A1;4{\F;\H0.7x;\S+0^ -0.03;}
1001
ACAD
1000
MTEXTBEGIN
1070
    73
1070
     1
1070
    44
1040
1.0
1070
    74
1070
     0
1000
MTEXTEND
  0
POINT
  5
3EB
330
3E2
100
AcDbEntity
  8
DEFPOINTS
 62
     0
100
AcDbPoint
 10
61.96008915796119
 20
166.1349895187454
 30
0.0
  0
POINT
  5
3EC
330
3E2
100
AcDbEntity
  8
DEFPOINTS
 62
     0
100
AcDbPoint
 10
65.96008915796119
 20
166.1349895187454
 30
0.0
  0
POINT
  5
3ED
330
3E2
100
AcDbEntity
  8
DEFPOINTS
 62
     0
100
AcDbPoint
 10
65.96008915796119
 20
174.8094651773772
 30
0.0
  0
ENDBLK
  5
3EF
330
3E2
100
AcDbEntity
  8
0
100
AcDbBlockEnd
  0
BLOCK
  5
3FC
330
3F0
100
AcDbEntity
  8
0
100
AcDbBlockBegin
  2
*D43
 70
     1
 10
0.0
 20
0.0
 30
0.0
  3
*D43
  1

  0
LINE
  5
3F1
330
3F0
100
AcDbEntity
  8
0
 62
   123
100
AcDbLine
 10
111.8934688984991
 20
165.0346942317487
 30
0.0
 11
126.9908013926812
 21
165.0346942317487
 31
0.0
  0
LINE
  5
3F2
330
3F0
100
AcDbEntity
  8
0
 62
   123
100
AcDbLine
 10
109.8934688984991
 20
167.5346942317487
 30
0.0
 11
126.9908013926812
 21
167.5346942317487
 31
0.0
  0
LINE
  5
3F3
330
3F0
100
AcDbEntity
  8
0
 62
   123
100
AcDbLine
 10
126.3908013926811
 20
162.5346942317487
 30
0.0
 11
126.3908013926811
 21
160.0346942317487
 31
0.0
  0
LINE
  5
3F4
330
3F0
100
AcDbEntity
  8
0
 62
   123
100
AcDbLine
 10
126.3908013926811
 20
170.0346942317487
 30
0.0
 11
126.3908013926811
 21
191.4489799460346
 31
0.0
  0
LINE
  5
3F5
330
3F0
100
AcDbEntity
  8
0
 62
   123
100
AcDbLine
 10
126.3908013926811
 20
165.0346942317487
 30
0.0
 11
126.3908013926811
 21
167.5346942317487
 31
0.0
  0
SOLID
  5
3F6
330
3F0
100
AcDbEntity
  8
0
 62
   123
100
AcDbTrace
 10
125.9741347260145
 20
162.5346942317487
 30
0.0
 11
126.8074680593478
 21
162.5346942317487
 31
0.0
 12
126.3908013926811
 22
165.0346942317487
 32
0.0
 13
126.3908013926811
 23
165.0346942317487
 33
0.0
  0
SOLID
  5
3F7
330
3F0
100
AcDbEntity
  8
0
 62
   123
100
AcDbTrace
 10
125.9741347260145
 20
170.0346942317487
 30
0.0
 11
126.8074680593478
 21
170.0346942317487
 31
0.0
 12
126.3908013926811
 22
167.5346942317487
 32
0.0
 13
126.3908013926811
 23
167.5346942317487
 33
0.0
  0
MTEXT
  5
3F8
330
3F0
100
AcDbEntity
  8
0
 62
     3
100
AcDbMText
 10
122.9408013926811
 20
183.7418370888917
 30
0.0
 40
3.0
 41
0.0
 71
     5
 72
     1
  1
\A1;\A1;2.5{\F;\H0.7x;\S+0.1^ -0;\H1.429x; }
 11
0.0000000000000001
 21
1.0
 31
0.0
1001
ACAD
1000
MTEXTBEGIN
1070
    73
1070
     1
1070
    44
1040
1.0
1070
    74
1070
     0
1000
MTEXTEND
  0
POINT
  5
3F9
330
3F0
100
AcDbEntity
  8
DEFPOINTS
 62
     0
100
AcDbPoint
 10
110.8934688984991
 20
165.0346942317487
 30
0.0
  0
POINT
  5
3FA
330
3F0
100
AcDbEntity
  8
DEFPOINTS
 62
     0
100
AcDbPoint
 10
108.8934688984991
 20
167.5346942317487
 30
0.0
  0
POINT
  5
3FB
330
3F0
100
AcDbEntity
  8
DEFPOINTS
 62
     0
100
AcDbPoint
 10
126.3908013926811
 20
167.5346942317487
 30
0.0
  0
ENDBLK
  5
3FD
330
3F0
100
AcDbEntity
  8
0
100
AcDbBlockEnd
  0
BLOCK
  5
40A
330
3FE
100
AcDbEntity
  8
0
100
AcDbBlockBegin
  2
*D44
 70
     1
 10
0.0
 20
0.0
 30
0.0
  3
*D44
  1

  0
LINE
  5
3FF
330
3FE
100
AcDbEntity
  8
0
 62
   123
100
AcDbLine
 10
45.78943587124013
 20
162.1349895187454
 30
0.0
 11
53.55849102671129
 21
162.1349895187454
 31
0.0
  0
LINE
  5
400
330
3FE
100
AcDbEntity
  8
0
 62
   123
100
AcDbLine
 10
45.78943587124013
 20
166.1349895187454
 30
0.0
 11
53.55849102671129
 21
166.1349895187454
 31
0.0
  0
LINE
  5
401
330
3FE
100
AcDbEntity
  8
0
 62
   123
100
AcDbLine
 10
52.95849102671129
 20
159.6349895187454
 30
0.0
 11
52.95849102671129
 21
157.1349895187454
 31
0.0
  0
LINE
  5
402
330
3FE
100
AcDbEntity
  8
0
 62
   123
100
AcDbLine
 10
52.95849102671129
 20
168.6349895187454
 30
0.0
 11
52.9584910267113
 21
187.6987370271216
 31
0.0
  0
LINE
  5
403
330
3FE
100
AcDbEntity
  8
0
 62
   123
100
AcDbLine
 10
52.95849102671129
 20
162.1349895187454
 30
0.0
 11
52.95849102671129
 21
166.1349895187454
 31
0.0
  0
SOLID
  5
404
330
3FE
100
AcDbEntity
  8
0
 62
   123
100
AcDbTrace
 10
52.54182436004462
 20
159.6349895187454
 30
0.0
 11
53.37515769337795
 21
159.6349895187454
 31
0.0
 12
52.95849102671129
 22
162.1349895187454
 32
0.0
 13
52.95849102671129
 23
162.1349895187454
 33
0.0
  0
SOLID
  5
405
330
3FE
100
AcDbEntity
  8
0
 62
   123
100
AcDbTrace
 10
52.54182436004462
 20
168.6349895187454
 30
0.0
 11
53.37515769337795
 21
168.6349895187454
 31
0.0
 12
52.95849102671129
 22
166.1349895187454
 32
0.0
 13
52.95849102671129
 23
166.1349895187454
 33
0.0
  0
MTEXT
  5
406
330
3FE
100
AcDbEntity
  8
0
 62
     3
100
AcDbMText
 10
49.50849102671127
 20
180.9844513128359
 30
0.0
 40
3.0
 41
0.0
 71
     5
 72
     1
  1
\A1;\A1;4{\F;\H0.7x;\S+0^ -0.03;}
 11
0.0000000000000001
 21
1.0
 31
0.0
1001
ACAD
1000
MTEXTBEGIN
1070
    73
1070
     1
1070
    44
1040
1.0
1070
    74
1070
     0
1000
MTEXTEND
  0
POINT
  5
407
330
3FE
100
AcDbEntity
  8
DEFPOINTS
 62
     0
100
AcDbPoint
 10
44.78943587124013
 20
162.1349895187454
 30
0.0
  0
POINT
  5
408
330
3FE
100
AcDbEntity
  8
DEFPOINTS
 62
     0
100
AcDbPoint
 10
44.78943587124013
 20
166.1349895187454
 30
0.0
  0
POINT
  5
409
330
3FE
100
AcDbEntity
  8
DEFPOINTS
 62
     0
100
AcDbPoint
 10
52.95849102671129
 20
166.1349895187454
 30
0.0
  0
ENDBLK
  5
40B
330
3FE
100
AcDbEntity
  8
0
100
AcDbBlockEnd
  0
BLOCK
  5
416
330
40C
100
AcDbEntity
  8
0
100
AcDbBlockBegin
  2
*D45
 70
     1
 10
0.0
 20
0.0
 30
0.0
  3
*D45
  1

  0
LINE
  5
40D
330
40C
100
AcDbEntity
  8
0
 62
   123
100
AcDbLine
 10
19.78943587124012
 20
165.1349895187454
 30
0.0
 11
19.78943587124012
 21
174.5401834992204
 31
0.0
  0
LINE
  5
40E
330
40C
100
AcDbEntity
  8
0
 62
   123
100
AcDbLine
 10
44.78943587124013
 20
167.1349895187454
 30
0.0
 11
44.78943587124013
 21
174.5401834992204
 31
0.0
  0
LINE
  5
40F
330
40C
100
AcDbEntity
  8
0
 62
   123
100
AcDbLine
 10
22.28943587124013
 20
173.9401834992204
 30
0.0
 11
42.28943587124013
 21
173.9401834992204
 31
0.0
  0
SOLID
  5
410
330
40C
100
AcDbEntity
  8
0
 62
   123
100
AcDbTrace
 10
22.28943587124013
 20
174.356850165887
 30
0.0
 11
22.28943587124013
 21
173.5235168325537
 31
0.0
 12
19.78943587124012
 22
173.9401834992204
 32
0.0
 13
19.78943587124012
 23
173.9401834992204
 33
0.0
  0
SOLID
  5
411
330
40C
100
AcDbEntity
  8
0
 62
   123
100
AcDbTrace
 10
42.28943587124013
 20
174.356850165887
 30
0.0
 11
42.28943587124013
 21
173.5235168325537
 31
0.0
 12
44.78943587124013
 22
173.9401834992204
 32
0.0
 13
44.78943587124013
 23
173.9401834992204
 33
0.0
  0
MTEXT
  5
412
330
40C
100
AcDbEntity
  8
0
 62
     3
100
AcDbMText
 10
32.28943587124013
 20
176.4401834992204
 30
0.0
 40
3.0
 41
0.0
 71
     5
 72
     1
  1
\A1;25{\F;%%p0.2}
1001
ACAD
1000
MTEXTBEGIN
1070
    73
1070
     1
1070
    44
1040
1.0
1070
    74
1070
     0
1000
MTEXTEND
  0
POINT
  5
413
330
40C
100
AcDbEntity
  8
DEFPOINTS
 62
     0
100
AcDbPoint
 10
19.78943587124012
 20
164.1349895187454
 30
0.0
  0
POINT
  5
414
330
40C
100
AcDbEntity
  8
DEFPOINTS
 62
     0
100
AcDbPoint
 10
44.78943587124013
 20
166.1349895187454
 30
0.0
  0
POINT
  5
415
330
40C
100
AcDbEntity
  8
DEFPOINTS
 62
     0
100
AcDbPoint
 10
44.78943587124013
 20
173.9401834992204
 30
0.0
  0
ENDBLK
  5
417
330
40C
100
AcDbEntity
  8
0
100
AcDbBlockEnd
  0
BLOCK
  5
422
330
418
100
AcDbEntity
  8
0
100
AcDbBlockBegin
  2
*D46
 70
     1
 10
0.0
 20
0.0
 30
0.0
  3
*D46
  1

  0
LINE
  5
419
330
418
100
AcDbEntity
  8
0
 62
   123
100
AcDbLine
 10
183.5064072615896
 20
99.41678226368821
 30
0.0
 11
120.892025370022
 21
99.41678226368823
 31
0.0
  0
LINE
  5
41A
330
418
100
AcDbEntity
  8
0
 62
   123
100
AcDbLine
 10
183.5064072615896
 20
65.41678226368913
 30
0.0
 11
120.892025370022
 21
65.41678226368914
 31
0.0
  0
LINE
  5
41B
330
418
100
AcDbEntity
  8
0
 62
   123
100
AcDbLine
 10
121.492025370022
 20
96.91678226368823
 30
0.0
 11
121.492025370022
 21
67.91678226368914
 31
0.0
  0
SOLID
  5
41C
330
418
100
AcDbEntity
  8
0
 62
   123
100
AcDbTrace
 10
121.0753587033553
 20
96.91678226368823
 30
0.0
 11
121.9086920366887
 21
96.91678226368823
 31
0.0
 12
121.492025370022
 22
99.41678226368823
 32
0.0
 13
121.492025370022
 23
99.41678226368823
 33
0.0
  0
SOLID
  5
41D
330
418
100
AcDbEntity
  8
0
 62
   123
100
AcDbTrace
 10
121.0753587033553
 20
67.91678226368914
 30
0.0
 11
121.9086920366887
 21
67.91678226368914
 31
0.0
 12
121.492025370022
 22
65.41678226368914
 32
0.0
 13
121.492025370022
 23
65.41678226368914
 33
0.0
  0
MTEXT
  5
41E
330
418
100
AcDbEntity
  8
0
 62
     3
100
AcDbMText
 10
118.992025370022
 20
82.41678226368913
 30
0.0
 40
3.0
 41
0.0
 71
     5
 72
     1
  1
\A1;{\F;%%c}34
 11
0.0000000000000001
 21
1.0
 31
0.0
1001
ACAD
1000
MTEXTBEGIN
1070
    73
1070
     1
1070
    44
1040
1.0
1070
    74
1070
     0
1000
MTEXTEND
  0
POINT
  5
41F
330
418
100
AcDbEntity
  8
DEFPOINTS
 62
     0
100
AcDbPoint
 10
184.5064072615896
 20
99.41678226368821
 30
0.0
  0
POINT
  5
420
330
418
100
AcDbEntity
  8
DEFPOINTS
 62
     0
100
AcDbPoint
 10
184.5064072615896
 20
65.41678226368913
 30
0.0
  0
POINT
  5
421
330
418
100
AcDbEntity
  8
DEFPOINTS
 62
     0
100
AcDbPoint
 10
121.492025370022
 20
65.41678226368914
 30
0.0
  0
ENDBLK
  5
423
330
418
100
AcDbEntity
  8
0
100
AcDbBlockEnd
  0
BLOCK
  5
42E
330
424
100
AcDbEntity
  8
0
100
AcDbBlockBegin
  2
*D47
 70
     1
 10
0.0
 20
0.0
 30
0.0
  3
*D47
  1

  0
LINE
  5
425
330
424
100
AcDbEntity
  8
0
 62
   123
100
AcDbLine
 10
180.0064072615896
 20
88.41678226368912
 30
0.0
 11
180.0064072615896
 21
104.2370704705909
 31
0.0
  0
LINE
  5
426
330
424
100
AcDbEntity
  8
0
 62
   123
100
AcDbLine
 10
155.0064072615896
 20
88.41678226368822
 30
0.0
 11
155.0064072615896
 21
104.2370704705909
 31
0.0
  0
LINE
  5
427
330
424
100
AcDbEntity
  8
0
 62
   123
100
AcDbLine
 10
177.5064072615896
 20
103.6370704705909
 30
0.0
 11
157.5064072615896
 21
103.6370704705909
 31
0.0
  0
SOLID
  5
428
330
424
100
AcDbEntity
  8
0
 62
   123
100
AcDbTrace
 10
177.5064072615896
 20
104.0537371372576
 30
0.0
 11
177.5064072615896
 21
103.2204038039242
 31
0.0
 12
180.0064072615896
 22
103.6370704705909
 32
0.0
 13
180.0064072615896
 23
103.6370704705909
 33
0.0
  0
SOLID
  5
429
330
424
100
AcDbEntity
  8
0
 62
   123
100
AcDbTrace
 10
157.5064072615896
 20
104.0537371372576
 30
0.0
 11
157.5064072615896
 21
103.2204038039242
 31
0.0
 12
155.0064072615896
 22
103.6370704705909
 32
0.0
 13
155.0064072615896
 23
103.6370704705909
 33
0.0
  0
MTEXT
  5
42A
330
424
100
AcDbEntity
  8
0
 62
     3
100
AcDbMText
 10
167.8173379289801
 20
106.1370704705909
 30
0.0
 40
3.0
 41
0.0
 71
     5
 72
     1
  1
\A1;25
1001
ACAD
1000
MTEXTBEGIN
1070
    73
1070
     1
1070
    44
1040
1.0
1070
    74
1070
     0
1000
MTEXTEND
  0
POINT
  5
42B
330
424
100
AcDbEntity
  8
DEFPOINTS
 62
     0
100
AcDbPoint
 10
180.0064072615896
 20
87.41678226368913
 30
0.0
  0
POINT
  5
42C
330
424
100
AcDbEntity
  8
DEFPOINTS
 62
     0
100
AcDbPoint
 10
155.0064072615896
 20
87.41678226368822
 30
0.0
  0
POINT
  5
42D
330
424
100
AcDbEntity
  8
DEFPOINTS
 62
     0
100
AcDbPoint
 10
155.0064072615896
 20
103.6370704705909
 30
0.0
  0
ENDBLK
  5
42F
330
424
100
AcDbEntity
  8
0
100
AcDbBlockEnd
  0
BLOCK
  5
43A
330
430
100
AcDbEntity
  8
0
100
AcDbBlockBegin
  2
*D48
 70
     1
 10
0.0
 20
0.0
 30
0.0
  3
*D48
  1

  0
LINE
  5
431
330
430
100
AcDbEntity
  8
0
 62
   123
100
AcDbLine
 10
155.0064072615896
 20
88.41678226368822
 30
0.0
 11
155.0064072615896
 21
135.4053943650502
 31
0.0
  0
LINE
  5
432
330
430
100
AcDbEntity
  8
0
 62
   123
100
AcDbLine
 10
187.0064072615896
 20
107.9167822636882
 30
0.0
 11
187.0064072615896
 21
135.4053943650502
 31
0.0
  0
LINE
  5
433
330
430
100
AcDbEntity
  8
0
 62
   123
100
AcDbLine
 10
157.5064072615896
 20
134.8053943650502
 30
0.0
 11
184.5064072615896
 21
134.8053943650502
 31
0.0
  0
SOLID
  5
434
330
430
100
AcDbEntity
  8
0
 62
   123
100
AcDbTrace
 10
157.5064072615896
 20
135.2220610317169
 30
0.0
 11
157.5064072615896
 21
134.3887276983835
 31
0.0
 12
155.0064072615896
 22
134.8053943650502
 32
0.0
 13
155.0064072615896
 23
134.8053943650502
 33
0.0
  0
SOLID
  5
435
330
430
100
AcDbEntity
  8
0
 62
   123
100
AcDbTrace
 10
184.5064072615896
 20
135.2220610317169
 30
0.0
 11
184.5064072615896
 21
134.3887276983835
 31
0.0
 12
187.0064072615896
 22
134.8053943650502
 32
0.0
 13
187.0064072615896
 23
134.8053943650502
 33
0.0
  0
MTEXT
  5
436
330
430
100
AcDbEntity
  8
0
 62
     3
100
AcDbMText
 10
171.3276391914805
 20
137.3053943650502
 30
0.0
 40
3.0
 41
0.0
 71
     5
 72
     1
  1
\A1;32
1001
ACAD
1000
MTEXTBEGIN
1070
    73
1070
     1
1070
    44
1040
1.0
1070
    74
1070
     0
1000
MTEXTEND
  0
POINT
  5
437
330
430
100
AcDbEntity
  8
DEFPOINTS
 62
     0
100
AcDbPoint
 10
155.0064072615896
 20
87.41678226368822
 30
0.0
  0
POINT
  5
438
330
430
100
AcDbEntity
  8
DEFPOINTS
 62
     0
100
AcDbPoint
 10
187.0064072615896
 20
106.9167822636882
 30
0.0
  0
POINT
  5
439
330
430
100
AcDbEntity
  8
DEFPOINTS
 62
     0
100
AcDbPoint
 10
187.0064072615896
 20
134.8053943650502
 30
0.0
  0
ENDBLK
  5
43B
330
430
100
AcDbEntity
  8
0
100
AcDbBlockEnd
  0
BLOCK
  5
446
330
43C
100
AcDbEntity
  8
0
100
AcDbBlockBegin
  2
*D49
 70
     1
 10
0.0
 20
0.0
 30
0.0
  3
*D49
  1

  0
LINE
  5
43D
330
43C
100
AcDbEntity
  8
0
 62
   123
100
AcDbLine
 10
229.5064072615896
 20
107.9167822636891
 30
0.0
 11
229.5064072615896
 21
135.4079122839858
 31
0.0
  0
LINE
  5
43E
330
43C
100
AcDbEntity
  8
0
 62
   123
100
AcDbLine
 10
314.5064072615896
 20
105.4167822636882
 30
0.0
 11
314.5064072615896
 21
135.4079122839858
 31
0.0
  0
LINE
  5
43F
330
43C
100
AcDbEntity
  8
0
 62
   123
100
AcDbLine
 10
232.0064072615896
 20
134.8079122839858
 30
0.0
 11
312.0064072615896
 21
134.8079122839858
 31
0.0
  0
SOLID
  5
440
330
43C
100
AcDbEntity
  8
0
 62
   123
100
AcDbTrace
 10
232.0064072615896
 20
135.2245789506524
 30
0.0
 11
232.0064072615896
 21
134.3912456173191
 31
0.0
 12
229.5064072615896
 22
134.8079122839858
 32
0.0
 13
229.5064072615896
 23
134.8079122839858
 33
0.0
  0
SOLID
  5
441
330
43C
100
AcDbEntity
  8
0
 62
   123
100
AcDbTrace
 10
312.0064072615896
 20
135.2245789506524
 30
0.0
 11
312.0064072615896
 21
134.3912456173191
 31
0.0
 12
314.5064072615896
 22
134.8079122839858
 32
0.0
 13
314.5064072615896
 23
134.8079122839858
 33
0.0
  0
MTEXT
  5
442
330
43C
100
AcDbEntity
  8
0
 62
     3
100
AcDbMText
 10
272.0064072615896
 20
137.3079122839858
 30
0.0
 40
3.0
 41
0.0
 71
     5
 72
     1
  1
\A1;85
1001
ACAD
1000
MTEXTBEGIN
1070
    73
1070
     1
1070
    44
1040
1.0
1070
    74
1070
     0
1000
MTEXTEND
  0
POINT
  5
443
330
43C
100
AcDbEntity
  8
DEFPOINTS
 62
     0
100
AcDbPoint
 10
229.5064072615896
 20
106.9167822636891
 30
0.0
  0
POINT
  5
444
330
43C
100
AcDbEntity
  8
DEFPOINTS
 62
     0
100
AcDbPoint
 10
314.5064072615896
 20
104.4167822636882
 30
0.0
  0
POINT
  5
445
330
43C
100
AcDbEntity
  8
DEFPOINTS
 62
     0
100
AcDbPoint
 10
314.5064072615896
 20
134.8079122839858
 30
0.0
  0
ENDBLK
  5
447
330
43C
100
AcDbEntity
  8
0
100
AcDbBlockEnd
  0
BLOCK
  5
452
330
448
100
AcDbEntity
  8
0
100
AcDbBlockBegin
  2
*D50
 70
     1
 10
0.0
 20
0.0
 30
0.0
  3
*D50
  1

  0
LINE
  5
449
330
448
100
AcDbEntity
  8
0
 62
   123
100
AcDbLine
 10
229.5064072615896
 20
107.9167822636882
 30
0.0
 11
229.5064072615896
 21
122.8422959464638
 31
0.0
  0
LINE
  5
44A
330
448
100
AcDbEntity
  8
0
 62
   123
100
AcDbLine
 10
236.5064072615896
 20
107.0155196052182
 30
0.0
 11
236.5064072615896
 21
122.8422959464638
 31
0.0
  0
LINE
  5
44B
330
448
100
AcDbEntity
  8
0
 62
   123
100
AcDbLine
 10
232.0064072615896
 20
122.2422959464638
 30
0.0
 11
234.0064072615896
 21
122.2422959464638
 31
0.0
  0
SOLID
  5
44C
330
448
100
AcDbEntity
  8
0
 62
   123
100
AcDbTrace
 10
232.0064072615896
 20
122.6589626131305
 30
0.0
 11
232.0064072615896
 21
121.8256292797971
 31
0.0
 12
229.5064072615896
 22
122.2422959464638
 32
0.0
 13
229.5064072615896
 23
122.2422959464638
 33
0.0
  0
SOLID
  5
44D
330
448
100
AcDbEntity
  8
0
 62
   123
100
AcDbTrace
 10
234.0064072615896
 20
122.6589626131305
 30
0.0
 11
234.0064072615896
 21
121.8256292797971
 31
0.0
 12
236.5064072615896
 22
122.2422959464638
 32
0.0
 13
236.5064072615896
 23
122.2422959464638
 33
0.0
  0
MTEXT
  5
44E
330
448
100
AcDbEntity
  8
0
 62
     3
100
AcDbMText
 10
233.0064072615896
 20
124.7422959464638
 30
0.0
 40
3.0
 41
0.0
 71
     5
 72
     1
  1
\A1;7
1001
ACAD
1000
MTEXTBEGIN
1070
    73
1070
     1
1070
    44
1040
1.0
1070
    74
1070
     0
1000
MTEXTEND
  0
POINT
  5
44F
330
448
100
AcDbEntity
  8
DEFPOINTS
 62
     0
100
AcDbPoint
 10
229.5064072615896
 20
106.9167822636882
 30
0.0
  0
POINT
  5
450
330
448
100
AcDbEntity
  8
DEFPOINTS
 62
     0
100
AcDbPoint
 10
236.5064072615896
 20
106.0155196052182
 30
0.0
  0
POINT
  5
451
330
448
100
AcDbEntity
  8
DEFPOINTS
 62
     0
100
AcDbPoint
 10
236.5064072615896
 20
122.2422959464638
 30
0.0
  0
ENDBLK
  5
453
330
448
100
AcDbEntity
  8
0
100
AcDbBlockEnd
  0
BLOCK
  5
45E
330
454
100
AcDbEntity
  8
0
100
AcDbBlockBegin
  2
*D51
 70
     1
 10
0.0
 20
0.0
 30
0.0
  3
*D51
  1

  0
LINE
  5
455
330
454
100
AcDbEntity
  8
0
 62
   123
100
AcDbLine
 10
271.6410598765578
 20
229.7966617700804
 30
0.0
 11
271.6410598765578
 21
216.6089807217894
 31
0.0
  0
LINE
  5
456
330
454
100
AcDbEntity
  8
0
 62
   123
100
AcDbLine
 10
229.1410598765578
 20
229.7966617700804
 30
0.0
 11
229.1410598765578
 21
216.6089807217894
 31
0.0
  0
LINE
  5
457
330
454
100
AcDbEntity
  8
0
 62
   123
100
AcDbLine
 10
269.1410598765578
 20
217.2089807217894
 30
0.0
 11
231.6410598765578
 21
217.2089807217894
 31
0.0
  0
SOLID
  5
458
330
454
100
AcDbEntity
  8
0
 62
   123
100
AcDbTrace
 10
269.1410598765578
 20
217.625647388456
 30
0.0
 11
269.1410598765578
 21
216.7923140551227
 31
0.0
 12
271.6410598765578
 22
217.2089807217894
 32
0.0
 13
271.6410598765578
 23
217.2089807217894
 33
0.0
  0
SOLID
  5
459
330
454
100
AcDbEntity
  8
0
 62
   123
100
AcDbTrace
 10
231.6410598765578
 20
217.625647388456
 30
0.0
 11
231.6410598765578
 21
216.7923140551227
 31
0.0
 12
229.1410598765578
 22
217.2089807217894
 32
0.0
 13
229.1410598765578
 23
217.2089807217894
 33
0.0
  0
MTEXT
  5
45A
330
454
100
AcDbEntity
  8
0
 62
     3
100
AcDbMText
 10
250.3910598765578
 20
219.7089807217894
 30
0.0
 40
3.0
 41
0.0
 71
     5
 72
     1
  1
\A1;L
1001
ACAD
1000
MTEXTBEGIN
1070
    73
1070
     1
1070
    44
1040
1.0
1070
    74
1070
     0
1000
MTEXTEND
  0
POINT
  5
45B
330
454
100
AcDbEntity
  8
DEFPOINTS
 62
     0
100
AcDbPoint
 10
271.6410598765578
 20
230.7966617700803
 30
0.0
  0
POINT
  5
45C
330
454
100
AcDbEntity
  8
DEFPOINTS
 62
     0
100
AcDbPoint
 10
229.1410598765578
 20
230.7966617700803
 30
0.0
  0
POINT
  5
45D
330
454
100
AcDbEntity
  8
DEFPOINTS
 62
     0
100
AcDbPoint
 10
229.1410598765578
 20
217.2089807217894
 30
0.0
  0
ENDBLK
  5
45F
330
454
100
AcDbEntity
  8
0
100
AcDbBlockEnd
  0
BLOCK
  5
46A
330
460
100
AcDbEntity
  8
0
100
AcDbBlockBegin
  2
*D52
 70
     1
 10
0.0
 20
0.0
 30
0.0
  3
*D52
  1

  0
LINE
  5
461
330
460
100
AcDbEntity
  8
0
 62
   123
100
AcDbLine
 10
200.8797464914241
 20
380.7260066534372
 30
0.0
 11
177.7786491000392
 21
380.7260066534372
 31
0.0
  0
LINE
  5
462
330
460
100
AcDbEntity
  8
0
 62
   123
100
AcDbLine
 10
200.8797464914241
 20
453.7260066534381
 30
0.0
 11
177.7786491000392
 21
453.7260066534381
 31
0.0
  0
LINE
  5
463
330
460
100
AcDbEntity
  8
0
 62
   123
100
AcDbLine
 10
178.3786491000392
 20
383.2260066534372
 30
0.0
 11
178.3786491000392
 21
451.2260066534381
 31
0.0
  0
SOLID
  5
464
330
460
100
AcDbEntity
  8
0
 62
   123
100
AcDbTrace
 10
177.9619824333725
 20
383.2260066534372
 30
0.0
 11
178.7953157667059
 21
383.2260066534372
 31
0.0
 12
178.3786491000392
 22
380.7260066534372
 32
0.0
 13
178.3786491000392
 23
380.7260066534372
 33
0.0
  0
SOLID
  5
465
330
460
100
AcDbEntity
  8
0
 62
   123
100
AcDbTrace
 10
177.9619824333726
 20
451.2260066534381
 30
0.0
 11
178.7953157667059
 21
451.2260066534381
 31
0.0
 12
178.3786491000392
 22
453.7260066534381
 32
0.0
 13
178.3786491000392
 23
453.7260066534381
 33
0.0
  0
MTEXT
  5
466
330
460
100
AcDbEntity
  8
0
 62
     3
100
AcDbMText
 10
174.4284991000391
 20
417.2260066534372
 30
0.0
 40
3.0
 41
0.0
 71
     5
 72
     1
  1
\A1;\A1;{\F;%%C}73{\F;\H0.7x;\S+0^ -0.030;\H1.429x;(h7)}
 11
0.0000000000000001
 21
1.0
 31
0.0
1001
ACAD
1000
MTEXTBEGIN
1070
    73
1070
     1
1070
    44
1040
1.0
1070
    74
1070
     0
1000
MTEXTEND
  0
POINT
  5
467
330
460
100
AcDbEntity
  8
DEFPOINTS
 62
     0
100
AcDbPoint
 10
201.8797464914241
 20
380.7260066534372
 30
0.0
  0
POINT
  5
468
330
460
100
AcDbEntity
  8
DEFPOINTS
 62
     0
100
AcDbPoint
 10
201.8797464914241
 20
453.7260066534381
 30
0.0
  0
POINT
  5
469
330
460
100
AcDbEntity
  8
DEFPOINTS
 62
     0
100
AcDbPoint
 10
178.3786491000392
 20
453.7260066534381
 30
0.0
  0
ENDBLK
  5
46B
330
460
100
AcDbEntity
  8
0
100
AcDbBlockEnd
  0
BLOCK
  5
476
330
46C
100
AcDbEntity
  8
0
100
AcDbBlockBegin
  2
*D53
 70
     1
 10
0.0
 20
0.0
 30
0.0
  3
*D53
  1

  0
LINE
  5
46D
330
46C
100
AcDbEntity
  8
0
 62
   123
100
AcDbLine
 10
225.6410598765578
 20
302.2966617700804
 30
0.0
 11
163.0266779850011
 21
302.2966617700804
 31
0.0
  0
LINE
  5
46E
330
46C
100
AcDbEntity
  8
0
 62
   123
100
AcDbLine
 10
225.6410598765578
 20
268.2966617700803
 30
0.0
 11
163.0266779850011
 21
268.2966617700803
 31
0.0
  0
LINE
  5
46F
330
46C
100
AcDbEntity
  8
0
 62
   123
100
AcDbLine
 10
163.6266779850011
 20
299.7966617700804
 30
0.0
 11
163.6266779850011
 21
270.7966617700804
 31
0.0
  0
SOLID
  5
470
330
46C
100
AcDbEntity
  8
0
 62
   123
100
AcDbTrace
 10
163.2100113183345
 20
299.7966617700804
 30
0.0
 11
164.0433446516678
 21
299.7966617700804
 31
0.0
 12
163.6266779850011
 22
302.2966617700804
 32
0.0
 13
163.6266779850011
 23
302.2966617700804
 33
0.0
  0
SOLID
  5
471
330
46C
100
AcDbEntity
  8
0
 62
   123
100
AcDbTrace
 10
163.2100113183345
 20
270.7966617700804
 30
0.0
 11
164.0433446516678
 21
270.7966617700804
 31
0.0
 12
163.6266779850011
 22
268.2966617700803
 32
0.0
 13
163.6266779850011
 23
268.2966617700803
 33
0.0
  0
MTEXT
  5
472
330
46C
100
AcDbEntity
  8
0
 62
     3
100
AcDbMText
 10
161.1266779850011
 20
285.2966617700804
 30
0.0
 40
3.0
 41
0.0
 71
     5
 72
     1
  1
\A1;{\F;%%c}34
 11
0.0000000000000001
 21
1.0
 31
0.0
1001
ACAD
1000
MTEXTBEGIN
1070
    73
1070
     1
1070
    44
1040
1.0
1070
    74
1070
     0
1000
MTEXTEND
  0
POINT
  5
473
330
46C
100
AcDbEntity
  8
DEFPOINTS
 62
     0
100
AcDbPoint
 10
226.6410598765578
 20
302.2966617700804
 30
0.0
  0
POINT
  5
474
330
46C
100
AcDbEntity
  8
DEFPOINTS
 62
     0
100
AcDbPoint
 10
226.6410598765578
 20
268.2966617700803
 30
0.0
  0
POINT
  5
475
330
46C
100
AcDbEntity
  8
DEFPOINTS
 62
     0
100
AcDbPoint
 10
163.6266779850011
 20
268.2966617700803
 30
0.0
  0
ENDBLK
  5
477
330
46C
100
AcDbEntity
  8
0
100
AcDbBlockEnd
  0
BLOCK
  5
484
330
478
100
AcDbEntity
  8
0
100
AcDbBlockBegin
  2
*D54
 70
     1
 10
0.0
 20
0.0
 30
0.0
  3
*D54
  1

  0
LINE
  5
479
330
478
100
AcDbEntity
  8
0
 62
   123
100
AcDbLine
 10
196.1410598765578
 20
280.2966617700808
 30
0.0
 11
181.7163965875901
 21
280.2966617700808
 31
0.0
  0
LINE
  5
47A
330
478
100
AcDbEntity
  8
0
 62
   123
100
AcDbLine
 10
196.1410598765578
 20
290.2966617700803
 30
0.0
 11
181.7163965875901
 21
290.2966617700803
 31
0.0
  0
LINE
  5
47B
330
478
100
AcDbEntity
  8
0
 62
   123
100
AcDbLine
 10
182.3163965875901
 20
277.7966617700808
 30
0.0
 11
182.3163965875901
 21
275.2966617700808
 31
0.0
  0
LINE
  5
47C
330
478
100
AcDbEntity
  8
0
 62
   123
100
AcDbLine
 10
182.3163965875901
 20
292.7966617700803
 30
0.0
 11
182.3163965875902
 21
333.2231671243945
 31
0.0
  0
LINE
  5
47D
330
478
100
AcDbEntity
  8
0
 62
   123
100
AcDbLine
 10
182.3163965875901
 20
280.2966617700808
 30
0.0
 11
182.3163965875901
 21
290.2966617700803
 31
0.0
  0
SOLID
  5
47E
330
478
100
AcDbEntity
  8
0
 62
   123
100
AcDbTrace
 10
181.8997299209235
 20
277.7966617700808
 30
0.0
 11
182.7330632542568
 21
277.7966617700808
 31
0.0
 12
182.3163965875901
 22
280.2966617700808
 32
0.0
 13
182.3163965875901
 23
280.2966617700808
 33
0.0
  0
SOLID
  5
47F
330
478
100
AcDbEntity
  8
0
 62
   123
100
AcDbTrace
 10
181.8997299209235
 20
292.7966617700803
 30
0.0
 11
182.7330632542568
 21
292.7966617700803
 31
0.0
 12
182.3163965875901
 22
290.2966617700803
 32
0.0
 13
182.3163965875901
 23
290.2966617700803
 33
0.0
  0
MTEXT
  5
480
330
478
100
AcDbEntity
  8
0
 62
     3
100
AcDbMText
 10
178.3662465875901
 20
318.4075956958231
 30
0.0
 40
3.0
 41
0.0
 71
     5
 72
     1
  1
\A1;\A1;{\F;%%C10\H0.7x;\S+0^ -0.015;\H1.429x;(h7)}
 11
0.0000000000000001
 21
1.0
 31
0.0
1001
ACAD
1000
MTEXTBEGIN
1070
    73
1070
     1
1070
    44
1040
1.0
1070
    74
1070
     0
1000
MTEXTEND
  0
POINT
  5
481
330
478
100
AcDbEntity
  8
DEFPOINTS
 62
     0
100
AcDbPoint
 10
197.1410598765578
 20
280.2966617700808
 30
0.0
  0
POINT
  5
482
330
478
100
AcDbEntity
  8
DEFPOINTS
 62
     0
100
AcDbPoint
 10
197.1410598765578
 20
290.2966617700803
 30
0.0
  0
POINT
  5
483
330
478
100
AcDbEntity
  8
DEFPOINTS
 62
     0
100
AcDbPoint
 10
182.3163965875901
 20
290.2966617700803
 30
0.0
  0
ENDBLK
  5
485
330
478
100
AcDbEntity
  8
0
100
AcDbBlockEnd
  0
BLOCK
  5
490
330
486
100
AcDbEntity
  8
0
100
AcDbBlockBegin
  2
*D55
 70
     1
 10
0.0
 20
0.0
 30
0.0
  3
*D55
  1

  0
LINE
  5
487
330
486
100
AcDbEntity
  8
0
 62
   123
100
AcDbLine
 10
192.2429210753325
 20
285.2966617700804
 30
0.0
 11
172.694513205059
 21
285.2966617700804
 31
0.0
  0
LINE
  5
488
330
486
100
AcDbEntity
  8
0
 62
   123
100
AcDbLine
 10
184.5333867424596
 20
270.2966617700803
 30
0.0
 11
172.694513205059
 21
270.2966617700803
 31
0.0
  0
LINE
  5
489
330
486
100
AcDbEntity
  8
0
 62
   123
100
AcDbLine
 10
173.294513205059
 20
282.7966617700803
 30
0.0
 11
173.294513205059
 21
272.7966617700804
 31
0.0
  0
SOLID
  5
48A
330
486
100
AcDbEntity
  8
0
 62
   123
100
AcDbTrace
 10
172.8778465383923
 20
282.7966617700803
 30
0.0
 11
173.7111798717257
 21
282.7966617700803
 31
0.0
 12
173.294513205059
 22
285.2966617700804
 32
0.0
 13
173.294513205059
 23
285.2966617700804
 33
0.0
  0
SOLID
  5
48B
330
486
100
AcDbEntity
  8
0
 62
   123
100
AcDbTrace
 10
172.8778465383923
 20
272.7966617700804
 30
0.0
 11
173.7111798717257
 21
272.7966617700804
 31
0.0
 12
173.294513205059
 22
270.2966617700803
 32
0.0
 13
173.294513205059
 23
270.2966617700803
 33
0.0
  0
MTEXT
  5
48C
330
486
100
AcDbEntity
  8
0
 62
     3
100
AcDbMText
 10
170.794513205059
 20
277.7966617700804
 30
0.0
 40
3.0
 41
0.0
 71
     5
 72
     1
  1
\A1;15
 11
0.0000000000000001
 21
1.0
 31
0.0
1001
ACAD
1000
MTEXTBEGIN
1070
    73
1070
     1
1070
    44
1040
1.0
1070
    74
1070
     0
1000
MTEXTEND
  0
POINT
  5
48D
330
486
100
AcDbEntity
  8
DEFPOINTS
 62
     0
100
AcDbPoint
 10
193.2429210753325
 20
285.2966617700804
 30
0.0
  0
POINT
  5
48E
330
486
100
AcDbEntity
  8
DEFPOINTS
 62
     0
100
AcDbPoint
 10
185.5333867424596
 20
270.2966617700803
 30
0.0
  0
POINT
  5
48F
330
486
100
AcDbEntity
  8
DEFPOINTS
 62
     0
100
AcDbPoint
 10
173.294513205059
 20
270.2966617700803
 30
0.0
  0
ENDBLK
  5
491
330
486
100
AcDbEntity
  8
0
100
AcDbBlockEnd
  0
BLOCK
  5
49E
330
492
100
AcDbEntity
  8
0
100
AcDbBlockBegin
  2
*D56
 70
     1
 10
0.0
 20
0.0
 30
0.0
  3
*D56
  1

  0
LINE
  5
493
330
492
100
AcDbEntity
  8
0
 62
   123
100
AcDbLine
 10
229.1410598765578
 20
310.7966617700804
 30
0.0
 11
229.1410598765578
 21
317.5065896789853
 31
0.0
  0
LINE
  5
494
330
492
100
AcDbEntity
  8
0
 62
   123
100
AcDbLine
 10
226.1410598765578
 20
302.7966617700803
 30
0.0
 11
226.1410598765578
 21
317.5065896789853
 31
0.0
  0
LINE
  5
495
330
492
100
AcDbEntity
  8
0
 62
   123
100
AcDbLine
 10
231.6410598765578
 20
316.9065896789852
 30
0.0
 11
234.1410598765578
 21
316.9065896789852
 31
0.0
  0
LINE
  5
496
330
492
100
AcDbEntity
  8
0
 62
   123
100
AcDbLine
 10
223.6410598765578
 20
316.9065896789852
 30
0.0
 11
221.1410598765578
 21
316.9065896789852
 31
0.0
  0
LINE
  5
497
330
492
100
AcDbEntity
  8
0
 62
   123
100
AcDbLine
 10
229.1410598765578
 20
316.9065896789852
 30
0.0
 11
226.1410598765578
 21
316.9065896789852
 31
0.0
  0
SOLID
  5
498
330
492
100
AcDbEntity
  8
0
 62
   123
100
AcDbTrace
 10
231.6410598765578
 20
317.3232563456519
 30
0.0
 11
231.6410598765578
 21
316.4899230123185
 31
0.0
 12
229.1410598765578
 22
316.9065896789852
 32
0.0
 13
229.1410598765578
 23
316.9065896789852
 33
0.0
  0
SOLID
  5
499
330
492
100
AcDbEntity
  8
0
 62
   123
100
AcDbTrace
 10
223.6410598765578
 20
317.3232563456519
 30
0.0
 11
223.6410598765578
 21
316.4899230123185
 31
0.0
 12
226.1410598765578
 22
316.9065896789852
 32
0.0
 13
226.1410598765578
 23
316.9065896789852
 33
0.0
  0
MTEXT
  5
49A
330
492
100
AcDbEntity
  8
0
 62
     3
100
AcDbMText
 10
227.6410598765578
 20
319.4065896789852
 30
0.0
 40
3.0
 41
0.0
 71
     5
 72
     1
  1
\A1;3
1001
ACAD
1000
MTEXTBEGIN
1070
    73
1070
     1
1070
    44
1040
1.0
1070
    74
1070
     0
1000
MTEXTEND
  0
POINT
  5
49B
330
492
100
AcDbEntity
  8
DEFPOINTS
 62
     0
100
AcDbPoint
 10
229.1410598765578
 20
309.7966617700803
 30
0.0
  0
POINT
  5
49C
330
492
100
AcDbEntity
  8
DEFPOINTS
 62
     0
100
AcDbPoint
 10
226.1410598765578
 20
301.7966617700803
 30
0.0
  0
POINT
  5
49D
330
492
100
AcDbEntity
  8
DEFPOINTS
 62
     0
100
AcDbPoint
 10
226.1410598765578
 20
316.9065896789852
 30
0.0
  0
ENDBLK
  5
49F
330
492
100
AcDbEntity
  8
0
100
AcDbBlockEnd
  0
BLOCK
  5
4AA
330
4A0
100
AcDbEntity
  8
0
100
AcDbBlockBegin
  2
*D57
 70
     1
 10
0.0
 20
0.0
 30
0.0
  3
*D57
  1

  0
LINE
  5
4A1
330
4A0
100
AcDbEntity
  8
0
 62
   123
100
AcDbLine
 10
222.1410598765578
 20
291.2966617700803
 30
0.0
 11
222.1410598765578
 21
307.1169499769822
 31
0.0
  0
LINE
  5
4A2
330
4A0
100
AcDbEntity
  8
0
 62
   123
100
AcDbLine
 10
197.1410598765578
 20
291.296661770079
 30
0.0
 11
197.1410598765578
 21
307.1169499769822
 31
0.0
  0
LINE
  5
4A3
330
4A0
100
AcDbEntity
  8
0
 62
   123
100
AcDbLine
 10
219.6410598765578
 20
306.5169499769822
 30
0.0
 11
199.6410598765578
 21
306.5169499769822
 31
0.0
  0
SOLID
  5
4A4
330
4A0
100
AcDbEntity
  8
0
 62
   123
100
AcDbTrace
 10
219.6410598765578
 20
306.9336166436489
 30
0.0
 11
219.6410598765578
 21
306.1002833103155
 31
0.0
 12
222.1410598765578
 22
306.5169499769822
 32
0.0
 13
222.1410598765578
 23
306.5169499769822
 33
0.0
  0
SOLID
  5
4A5
330
4A0
100
AcDbEntity
  8
0
 62
   123
100
AcDbTrace
 10
199.6410598765578
 20
306.9336166436489
 30
0.0
 11
199.6410598765578
 21
306.1002833103155
 31
0.0
 12
197.1410598765578
 22
306.5169499769822
 32
0.0
 13
197.1410598765578
 23
306.5169499769822
 33
0.0
  0
MTEXT
  5
4A6
330
4A0
100
AcDbEntity
  8
0
 62
     3
100
AcDbMText
 10
209.9519905439628
 20
309.0169499769822
 30
0.0
 40
3.0
 41
0.0
 71
     5
 72
     1
  1
\A1;25
1001
ACAD
1000
MTEXTBEGIN
1070
    73
1070
     1
1070
    44
1040
1.0
1070
    74
1070
     0
1000
MTEXTEND
  0
POINT
  5
4A7
330
4A0
100
AcDbEntity
  8
DEFPOINTS
 62
     0
100
AcDbPoint
 10
222.1410598765578
 20
290.2966617700803
 30
0.0
  0
POINT
  5
4A8
330
4A0
100
AcDbEntity
  8
DEFPOINTS
 62
     0
100
AcDbPoint
 10
197.1410598765578
 20
290.296661770079
 30
0.0
  0
POINT
  5
4A9
330
4A0
100
AcDbEntity
  8
DEFPOINTS
 62
     0
100
AcDbPoint
 10
197.1410598765578
 20
306.5169499769822
 30
0.0
  0
ENDBLK
  5
4AB
330
4A0
100
AcDbEntity
  8
0
100
AcDbBlockEnd
  0
BLOCK
  5
4B6
330
4AC
100
AcDbEntity
  8
0
100
AcDbBlockBegin
  2
*D58
 70
     1
 10
0.0
 20
0.0
 30
0.0
  3
*D58
  1

  0
LINE
  5
4AD
330
4AC
100
AcDbEntity
  8
0
 62
   123
100
AcDbLine
 10
190.3797464914241
 20
421.3310066534372
 30
0.0
 11
190.3797464914241
 21
477.6824982733784
 31
0.0
  0
LINE
  5
4AE
330
4AC
100
AcDbEntity
  8
0
 62
   123
100
AcDbLine
 10
203.8797464914241
 20
458.2260066534381
 30
0.0
 11
203.8797464914241
 21
477.6824982733784
 31
0.0
  0
LINE
  5
4AF
330
4AC
100
AcDbEntity
  8
0
 62
   123
100
AcDbLine
 10
192.8797464914241
 20
477.0824982733784
 30
0.0
 11
201.3797464914241
 21
477.0824982733784
 31
0.0
  0
SOLID
  5
4B0
330
4AC
100
AcDbEntity
  8
0
 62
   123
100
AcDbTrace
 10
192.8797464914241
 20
477.499164940045
 30
0.0
 11
192.8797464914241
 21
476.6658316067116
 31
0.0
 12
190.3797464914241
 22
477.0824982733784
 32
0.0
 13
190.3797464914241
 23
477.0824982733784
 33
0.0
  0
SOLID
  5
4B1
330
4AC
100
AcDbEntity
  8
0
 62
   123
100
AcDbTrace
 10
201.3797464914241
 20
477.499164940045
 30
0.0
 11
201.3797464914241
 21
476.6658316067116
 31
0.0
 12
203.8797464914241
 22
477.0824982733784
 32
0.0
 13
203.8797464914241
 23
477.0824982733784
 33
0.0
  0
MTEXT
  5
4B2
330
4AC
100
AcDbEntity
  8
0
 62
     3
100
AcDbMText
 10
197.6297464914241
 20
479.5824982733783
 30
0.0
 40
3.0
 41
0.0
 71
     5
 72
     1
  1
\A1;13.5
1001
ACAD
1000
MTEXTBEGIN
1070
    73
1070
     1
1070
    44
1040
1.0
1070
    74
1070
     0
1000
MTEXTEND
  0
POINT
  5
4B3
330
4AC
100
AcDbEntity
  8
DEFPOINTS
 62
     0
100
AcDbPoint
 10
190.3797464914241
 20
420.3310066534372
 30
0.0
  0
POINT
  5
4B4
330
4AC
100
AcDbEntity
  8
DEFPOINTS
 62
     0
100
AcDbPoint
 10
203.8797464914241
 20
457.2260066534381
 30
0.0
  0
POINT
  5
4B5
330
4AC
100
AcDbEntity
  8
DEFPOINTS
 62
     0
100
AcDbPoint
 10
203.8797464914241
 20
477.0824982733784
 30
0.0
  0
ENDBLK
  5
4B7
330
4AC
100
AcDbEntity
  8
0
100
AcDbBlockEnd
  0
BLOCK
  5
4C2
330
4B8
100
AcDbEntity
  8
0
100
AcDbBlockBegin
  2
*D59
 70
     1
 10
0.0
 20
0.0
 30
0.0
  3
*D59
  1

  0
LINE
  5
4B9
330
4B8
100
AcDbEntity
  8
0
 62
   123
100
AcDbLine
 10
62.68679802005135
 20
453.2260066534381
 30
0.0
 11
62.68679802005135
 21
472.300573303177
 31
0.0
  0
LINE
  5
4BA
330
4B8
100
AcDbEntity
  8
0
 62
   123
100
AcDbLine
 10
142.6867980200513
 20
453.2260066534381
 30
0.0
 11
142.6867980200513
 21
472.300573303177
 31
0.0
  0
LINE
  5
4BB
330
4B8
100
AcDbEntity
  8
0
 62
   123
100
AcDbLine
 10
65.18679802005135
 20
471.7005733031769
 30
0.0
 11
140.1867980200513
 21
471.7005733031769
 31
0.0
  0
SOLID
  5
4BC
330
4B8
100
AcDbEntity
  8
0
 62
   123
100
AcDbTrace
 10
65.18679802005135
 20
472.1172399698436
 30
0.0
 11
65.18679802005135
 21
471.2839066365102
 31
0.0
 12
62.68679802005135
 22
471.7005733031769
 32
0.0
 13
62.68679802005135
 23
471.7005733031769
 33
0.0
  0
SOLID
  5
4BD
330
4B8
100
AcDbEntity
  8
0
 62
   123
100
AcDbTrace
 10
140.1867980200513
 20
472.1172399698436
 30
0.0
 11
140.1867980200513
 21
471.2839066365102
 31
0.0
 12
142.6867980200513
 22
471.7005733031769
 32
0.0
 13
142.6867980200513
 23
471.7005733031769
 33
0.0
  0
MTEXT
  5
4BE
330
4B8
100
AcDbEntity
  8
0
 62
     3
100
AcDbMText
 10
104.2955194046917
 20
474.2005733031769
 30
0.0
 40
3.0
 41
0.0
 71
     5
 72
     1
  1
\A1;80
1001
ACAD
1000
MTEXTBEGIN
1070
    73
1070
     1
1070
    44
1040
1.0
1070
    74
1070
     0
1000
MTEXTEND
  0
POINT
  5
4BF
330
4B8
100
AcDbEntity
  8
DEFPOINTS
 62
     0
100
AcDbPoint
 10
62.68679802005135
 20
452.2260066534381
 30
0.0
  0
POINT
  5
4C0
330
4B8
100
AcDbEntity
  8
DEFPOINTS
 62
     0
100
AcDbPoint
 10
142.6867980200513
 20
452.2260066534381
 30
0.0
  0
POINT
  5
4C1
330
4B8
100
AcDbEntity
  8
DEFPOINTS
 62
     0
100
AcDbPoint
 10
142.6867980200513
 20
471.7005733031769
 30
0.0
  0
ENDBLK
  5
4C3
330
4B8
100
AcDbEntity
  8
0
100
AcDbBlockEnd
  0
BLOCK
  5
4D0
330
4C4
100
AcDbEntity
  8
0
100
AcDbBlockBegin
  2
*D60
 70
     1
 10
0.0
 20
0.0
 30
0.0
  3
*D60
  1

  0
LINE
  5
4C5
330
4C4
100
AcDbEntity
  8
0
 62
   123
100
AcDbLine
 10
201.8797464914241
 20
454.7260066534382
 30
0.0
 11
201.8797464914241
 21
467.388494378467
 31
0.0
  0
LINE
  5
4C6
330
4C4
100
AcDbEntity
  8
0
 62
   123
100
AcDbLine
 10
203.8797464914241
 20
458.2260066534381
 30
0.0
 11
203.8797464914241
 21
467.388494378467
 31
0.0
  0
LINE
  5
4C7
330
4C4
100
AcDbEntity
  8
0
 62
   123
100
AcDbLine
 10
206.3797464914241
 20
466.7884943784669
 30
0.0
 11
208.8797464914241
 21
466.7884943784669
 31
0.0
  0
LINE
  5
4C8
330
4C4
100
AcDbEntity
  8
0
 62
   123
100
AcDbLine
 10
199.3797464914241
 20
466.7884943784669
 30
0.0
 11
192.8797464914241
 21
466.7884943784669
 31
0.0
  0
LINE
  5
4C9
330
4C4
100
AcDbEntity
  8
0
 62
   123
100
AcDbLine
 10
203.8797464914241
 20
466.7884943784669
 30
0.0
 11
201.8797464914241
 21
466.7884943784669
 31
0.0
  0
SOLID
  5
4CA
330
4C4
100
AcDbEntity
  8
0
 62
   123
100
AcDbTrace
 10
206.3797464914241
 20
467.2051610451337
 30
0.0
 11
206.3797464914241
 21
466.3718277118003
 31
0.0
 12
203.8797464914241
 22
466.7884943784669
 32
0.0
 13
203.8797464914241
 23
466.7884943784669
 33
0.0
  0
SOLID
  5
4CB
330
4C4
100
AcDbEntity
  8
0
 62
   123
100
AcDbTrace
 10
199.3797464914241
 20
467.2051610451337
 30
0.0
 11
199.3797464914241
 21
466.3718277118003
 31
0.0
 12
201.8797464914241
 22
466.7884943784669
 32
0.0
 13
201.8797464914241
 23
466.7884943784669
 33
0.0
  0
MTEXT
  5
4CC
330
4C4
100
AcDbEntity
  8
0
 62
     3
100
AcDbMText
 10
194.8797464914241
 20
469.288494378467
 30
0.0
 40
3.0
 41
0.0
 71
     5
 72
     1
  1
\A1;2
1001
ACAD
1000
MTEXTBEGIN
1070
    73
1070
     1
1070
    44
1040
1.0
1070
    74
1070
     0
1000
MTEXTEND
  0
POINT
  5
4CD
330
4C4
100
AcDbEntity
  8
DEFPOINTS
 62
     0
100
AcDbPoint
 10
201.8797464914241
 20
453.7260066534381
 30
0.0
  0
POINT
  5
4CE
330
4C4
100
AcDbEntity
  8
DEFPOINTS
 62
     0
100
AcDbPoint
 10
203.8797464914241
 20
457.2260066534381
 30
0.0
  0
POINT
  5
4CF
330
4C4
100
AcDbEntity
  8
DEFPOINTS
 62
     0
100
AcDbPoint
 10
203.8797464914241
 20
466.7884943784669
 30
0.0
  0
ENDBLK
  5
4D1
330
4C4
100
AcDbEntity
  8
0
100
AcDbBlockEnd
  0
BLOCK
  5
4DC
330
4D2
100
AcDbEntity
  8
0
100
AcDbBlockBegin
  2
*D61
 70
     1
 10
0.0
 20
0.0
 30
0.0
  3
*D61
  1

  0
LINE
  5
4D3
330
4D2
100
AcDbEntity
  8
0
 62
   123
100
AcDbLine
 10
203.8797464914241
 20
458.2260066534381
 30
0.0
 11
203.8797464914241
 21
477.6824982733793
 31
0.0
  0
LINE
  5
4D4
330
4D2
100
AcDbEntity
  8
0
 62
   123
100
AcDbLine
 10
235.8797464914241
 20
458.2260066534381
 30
0.0
 11
235.8797464914241
 21
477.6824982733793
 31
0.0
  0
LINE
  5
4D5
330
4D2
100
AcDbEntity
  8
0
 62
   123
100
AcDbLine
 10
206.3797464914241
 20
477.0824982733793
 30
0.0
 11
233.3797464914241
 21
477.0824982733793
 31
0.0
  0
SOLID
  5
4D6
330
4D2
100
AcDbEntity
  8
0
 62
   123
100
AcDbTrace
 10
206.3797464914241
 20
477.499164940046
 30
0.0
 11
206.3797464914241
 21
476.6658316067126
 31
0.0
 12
203.8797464914241
 22
477.0824982733793
 32
0.0
 13
203.8797464914241
 23
477.0824982733793
 33
0.0
  0
SOLID
  5
4D7
330
4D2
100
AcDbEntity
  8
0
 62
   123
100
AcDbTrace
 10
233.3797464914241
 20
477.499164940046
 30
0.0
 11
233.3797464914241
 21
476.6658316067126
 31
0.0
 12
235.8797464914241
 22
477.0824982733793
 32
0.0
 13
235.8797464914241
 23
477.0824982733793
 33
0.0
  0
MTEXT
  5
4D8
330
4D2
100
AcDbEntity
  8
0
 62
     3
100
AcDbMText
 10
219.8797464914241
 20
479.5824982733793
 30
0.0
 40
3.0
 41
0.0
 71
     5
 72
     1
  1
\A1;32
1001
ACAD
1000
MTEXTBEGIN
1070
    73
1070
     1
1070
    44
1040
1.0
1070
    74
1070
     0
1000
MTEXTEND
  0
POINT
  5
4D9
330
4D2
100
AcDbEntity
  8
DEFPOINTS
 62
     0
100
AcDbPoint
 10
203.8797464914241
 20
457.2260066534381
 30
0.0
  0
POINT
  5
4DA
330
4D2
100
AcDbEntity
  8
DEFPOINTS
 62
     0
100
AcDbPoint
 10
235.8797464914241
 20
457.2260066534381
 30
0.0
  0
POINT
  5
4DB
330
4D2
100
AcDbEntity
  8
DEFPOINTS
 62
     0
100
AcDbPoint
 10
235.8797464914241
 20
477.0824982733793
 30
0.0
  0
ENDBLK
  5
4DD
330
4D2
100
AcDbEntity
  8
0
100
AcDbBlockEnd
  0
ENDSEC
  0
SECTION
  2
ENTITIES
  0
MTEXT
  5
9B
330
2
100
AcDbEntity
  8
0
 62
     3
100
AcDbMText
 10
122.375204344109
 20
483.833362052238
 30
0.0
 40
3.0
 41
0.0
 71
     9
 72
     1
  1
4-%%c5.5 hole
1001
ACAD
1000
MTEXTBEGIN
1070
    73
1070
     1
1070
    44
1040
1.0
1070
    74
1070
     0
1000
MTEXTEND
  0
LEADER
  5
9C
330
2
100
AcDbEntity
  8
0
100
AcDbLeader
  3
STANDARD
 73
     0
 75
     1
 40
3.0
 41
26.65178571428571
 76
     3
 10
136.1548871892409
 20
453.2100253692033
 30
0.0
 10
125.875204344109
 20
482.4172852060028
 30
0.0
 10
123.375204344109
 20
482.4172852060028
 30
0.0
340
9B
213
0.0
223
-0.416076846235228
233
0.0
1001
ACAD
1000
DSTYLE
1002
{
1070
     5
1000

1070
   342
1005
0
1002
}
1000
LEANOF
1010
0.0
1020
-0.416076846235228
1030
0.0
  0
MTEXT
  5
9E
330
2
100
AcDbEntity
  8
0
 62
     3
100
AcDbMText
 10
110.9422751547026
 20
327.9101009238029
 30
0.0
 40
3.0
 41
0.0
 71
     9
 72
     1
  1
4-%%c5.5 hole
1001
ACAD
1000
MTEXTBEGIN
1070
    73
1070
     1
1070
    44
1040
1.0
1070
    74
1070
     0
1000
MTEXTEND
  0
LINE
  5
9F
330
2
100
AcDbEntity
  8
2
 62
     7
100
AcDbLine
 10
229.1410598765578
 20
268.2966617700808
 30
0.0
 11
226.6410598765578
 21
268.2966617700808
 31
0.0
  0
LINE
  5
A1
330
2
100
AcDbEntity
  8
2
 62
     7
100
AcDbLine
 10
226.1410598765578
 20
268.7966617700804
 30
0.0
 11
226.1410598765578
 21
270.2966617700803
 31
0.0
  0
ARC
  5
A2
330
2
100
AcDbEntity
  8
2
 62
     7
100
AcDbCircle
 10
226.6410598765578
 20
268.7966617700804
 30
0.0
 40
0.4999999999999967
100
AcDbArc
 50
180.0
 51
270.0
  0
LEADER
  5
A3
330
2
100
AcDbEntity
  8
0
100
AcDbLeader
  3
STANDARD
 73
     0
 75
     1
 40
3.0
 41
26.65178571428571
 76
     3
 10
124.7219579998418
 20
306.2806804858482
 30
0.0
 10
114.4422751547026
 20
326.4940240775676
 30
0.0
 10
111.9422751547026
 20
326.4940240775676
 30
0.0
340
9E
213
0.0
223
-0.416076846235228
233
0.0
1001
ACAD
1000
DSTYLE
1002
{
1070
     5
1000

1070
   342
1005
0
1002
}
1000
LEANOF
1010
0.0
1020
-0.416076846235228
1030
0.0
  0
MTEXT
  5
A4
330
2
100
AcDbEntity
  8
DIM
100
AcDbMText
 10
282.0086614150022
 20
-11.44272799353802
 30
0.0
 40
3.5
 41
0.0
 71
     5
 72
     1
  1
UL Style 3271 , AWG20
1001
ACAD
1000
MTEXTBEGIN
1070
    73
1070
     1
1070
    44
1040
1.0
1070
    74
1070
     0
1000
MTEXTEND
  0
MTEXT
  5
A6
330
2
100
AcDbEntity
  8
DIM
100
AcDbMText
 10
286.27235100705
 20
-3.248576743426838
 30
0.0
 40
3.5
 41
0.0
 71
     5
 72
     1
  1
MOTOR LEAD WIRE 300mm
1001
ACAD
1000
MTEXTBEGIN
1070
    73
1070
     1
1070
    44
1040
1.0
1070
    74
1070
     0
1000
MTEXTEND
  0
LEADER
  5
A7
330
2
100
AcDbEntity
  8
0
100
AcDbLeader
  3
STANDARD
 76
     2
 10
244.1436715946911
 20
12.67589893803324
 30
0.0
 10
248.780105510832
 20
-6.806371655472958
 30
0.0
1001
ACAD
1000
DSTYLE
1002
{
1070
     5
1000

1070
   342
1005
0
1002
}
1000
LEANOF
1010
0.0
1020
0.0
1030
0.0
  0
MTEXT
  5
A8
330
2
100
AcDbEntity
  8
0
 62
     3
100
AcDbMText
 10
68.98561161104225
 20
134.0241376624894
 30
0.0
 40
3.0
 41
0.0
 71
     9
 72
     1
  1
4-%%c5.5 hole
1001
ACAD
1000
MTEXTBEGIN
1070
    73
1070
     1
1070
    44
1040
1.0
1070
    74
1070
     0
1000
MTEXTEND
  0
DIMENSION
  5
A9
102
{ACAD_XDICTIONARY
360
AA
102
}
102
{ACAD_REACTORS
330
AB
102
}
330
2
100
AcDbEntity
  8
0
100
AcDbDimension
  2
*D35
 10
49.29720528695907
 20
114.5889054720637
 30
0.0
 11
60.98660112740981
 21
14.64790404574614
 31
0.0
 70
   162
  3
STANDARD
100
AcDb2LineAngularDimension
 13
65.86574778189242
 23
27.4167822636673
 33
0.0
 14
49.29720528696998
 24
67.41678226366594
 34
0.0
 15
49.29720528695907
 25
20.24465905526994
 35
0.0
 16
56.35189721582347
 26
13.83107703100926
 36
0.0
1001
ACAD
1000
DSTYLE
1002
{
1070
   271
1070
     1
1070
   271
1070
     1
1002
}
  0
LINE
  5
BB
330
2
100
AcDbEntity
  8
2
 62
     7
100
AcDbLine
 10
184.0064072615896
 20
65.91678226368822
 30
0.0
 11
184.0064072615896
 21
67.41678226368822
 31
0.0
  0
LINE
  5
BC
330
2
100
AcDbEntity
  8
2
 62
     7
100
AcDbLine
 10
187.0064072615896
 20
65.41678226368913
 30
0.0
 11
184.5064072615896
 21
65.41678226368913
 31
0.0
  0
ARC
  5
BD
330
2
100
AcDbEntity
  8
2
 62
     7
100
AcDbCircle
 10
184.5064072615896
 20
65.91678226368822
 30
0.0
 40
0.4999999999999967
100
AcDbArc
 50
180.0
 51
270.0
  0
LEADER
  5
BE
330
2
100
AcDbEntity
  8
0
100
AcDbLeader
  3
STANDARD
 73
     0
 75
     1
 40
3.0
 41
26.65178571428571
 76
     3
 10
82.76529445617416
 20
103.4008009794552
 30
0.0
 10
72.48561161104226
 20
132.6080608162542
 30
0.0
 10
69.98561161104226
 20
132.6080608162542
 30
0.0
340
A8
213
0.0
223
-0.416076846235228
233
0.0
1001
ACAD
1000
DSTYLE
1002
{
1070
     5
1000

1070
   342
1005
0
1002
}
1000
LEANOF
1010
0.0
1020
-0.416076846235228
1030
0.0
  0
MTEXT
  5
BF
330
2
100
AcDbEntity
  8
DIM
 62
     0
100
AcDbMText
 10
29.75667277148022
 20
197.0981175056376
 30
0.0
 40
4.589999999999998
 41
0.0
 71
     1
 72
     1
  1
{\FGulim.ttf;KEY\F;                  \FGulim.ttf;KEY GROOVE }
1001
ACAD
1000
MTEXTBEGIN
1070
    73
1070
     1
1070
    44
1040
1.0
1070
    74
1070
     0
1000
MTEXTEND
  0
ARC
  5
C0
330
2
100
AcDbEntity
  8
0
 48
0.6
100
AcDbCircle
 10
56.48793928407394
 20
235.2966617700808
 30
0.0
 40
5.0
100
AcDbArc
 50
180.0
 51
270.0
  0
ARC
  5
C1
330
2
100
AcDbEntity
  8
0
 48
0.6
100
AcDbCircle
 10
126.4879392840739
 20
235.2966617700808
 30
0.0
 40
5.0
100
AcDbArc
 50
270.0
 51
0.0
  0
DIMENSION
  5
C2
102
{ACAD_XDICTIONARY
360
C3
102
}
102
{ACAD_REACTORS
330
C4
102
}
330
2
100
AcDbEntity
  8
0
100
AcDbDimension
  2
*D33
 10
131.4879392840739
 20
209.3197004299613
 30
0.0
 11
95.30715705459078
 21
209.3197004299613
 31
0.0
 70
   160
  3
STANDARD
100
AcDbAlignedDimension
 13
51.48793928407394
 23
235.2966617700804
 33
0.0
 14
131.4879392840739
 24
235.2966617700804
 34
0.0
100
AcDbRotatedDimension
  0
LINE
  5
D1
330
2
100
AcDbEntity
  8
0
100
AcDbLine
 10
270.6410598765578
 20
230.7966617700803
 30
0.0
 11
270.6410598765578
 21
230.2966617700808
 31
0.0
  0
ARC
  5
D2
330
2
100
AcDbEntity
  8
0
100
AcDbCircle
 10
229.6410598765578
 20
230.7966617700803
 30
0.0
 40
0.5
100
AcDbArc
 50
180.0
 51
270.0
  0
DIMENSION
  5
D3
330
2
100
AcDbEntity
  8
0
100
AcDbDimension
  2
*D32
 10
229.1410598765578
 20
217.2089807217894
 30
0.0
 11
213.1410598765578
 21
219.7089807217894
 31
0.0
 70
    32
  3
STANDARD
100
AcDbAlignedDimension
 13
197.1410598765578
 23
280.2966617700803
 33
0.0
 14
229.1410598765578
 24
230.7966617700803
 34
0.0
 50
180.0
100
AcDbRotatedDimension
  0
DIMENSION
  5
E0
330
2
100
AcDbEntity
  8
0
100
AcDbDimension
  2
*D51
 10
229.1410598765578
 20
217.2089807217894
 30
0.0
 11
250.3910598765578
 21
219.7089807217894
 31
0.0
 70
    32
  1
L
  3
STANDARD
100
AcDbAlignedDimension
 13
271.6410598765578
 23
230.7966617700803
 33
0.0
 14
229.1410598765578
 24
230.7966617700803
 34
0.0
 50
180.0
100
AcDbRotatedDimension
  0
LINE
  5
ED
330
2
100
AcDbEntity
  8
CEN
 48
0.6
100
AcDbLine
 10
91.48793928407394
 20
223.1245385616844
 30
0.0
 11
91.48793928407394
 21
317.4687849784782
 31
0.0
  0
LINE
  5
F0
330
2
100
AcDbEntity
  8
CEN
 48
0.6
100
AcDbLine
 10
91.48793928407394
 20
223.1245385616844
 30
0.0
 11
91.48793928407394
 21
317.4687849784772
 31
0.0
  0
LINE
  5
F1
102
{ACAD_REACTORS
330
260
102
}
330
2
100
AcDbEntity
  8
0
100
AcDbLine
 10
229.5064072615896
 20
106.9167822636882
 30
0.0
 11
229.5064072615896
 21
27.91678226368913
 31
0.0
  0
LINE
  5
F2
330
2
100
AcDbEntity
  8
0
100
AcDbLine
 10
229.5064072615896
 20
107.4167822636882
 30
0.0
 11
229.5064072615896
 21
27.41678226368822
 31
0.0
  0
LINE
  5
F3
102
{ACAD_REACTORS
330
AB
102
}
330
2
100
AcDbEntity
  8
CEN
 48
0.6
100
AcDbLine
 10
65.86574778189242
 20
27.4167822636673
 30
0.0
 11
49.29720528696998
 21
67.41678226366594
 31
0.0
  0
CIRCLE
  5
F4
330
2
100
AcDbEntity
  8
0
 48
0.6
100
AcDbCircle
 10
49.2972052869809
 20
67.41678226368822
 30
0.0
 40
36.5
  0
LINE
  5
F5
330
2
100
AcDbEntity
  8
0
 48
0.6
100
AcDbLine
 10
9.297205286980897
 20
102.4167822636891
 30
0.0
 11
9.297205286980897
 21
32.41678226368822
 31
0.0
  0
LINE
  5
F6
330
2
100
AcDbEntity
  8
0
 48
0.6
100
AcDbLine
 10
89.29720528698089
 20
102.4167822636891
 30
0.0
 11
89.29720528698089
 21
32.41678226368822
 31
0.0
  0
LINE
  5
F7
330
2
100
AcDbEntity
  8
CEN
 48
0.6
100
AcDbLine
 10
49.29720528699181
 20
20.24465905529223
 30
0.0
 11
49.29720528699181
 21
114.5889054720851
 31
0.0
  0
LINE
  5
F8
330
2
100
AcDbEntity
  8
CEN
 48
0.6
100
AcDbLine
 10
49.2972052869809
 20
20.24465905529223
 30
0.0
 11
49.2972052869809
 21
114.5889054720851
 31
0.0
  0
INSERT
  5
F9
330
2
100
AcDbEntity
  8
0
100
AcDbBlockReference
  2
5
 10
49.29720528699181
 20
67.41678226368822
 30
0.0
  0
LINE
  5
117
330
2
100
AcDbEntity
  8
0
100
AcDbLine
 10
187.0064072615896
 20
106.9167822636882
 30
0.0
 11
187.0064072615896
 21
27.91678226368913
 31
0.0
  0
LINE
  5
118
330
2
100
AcDbEntity
  8
0
100
AcDbLine
 10
314.5064072615896
 20
104.4167822636882
 30
0.0
 11
314.5064072615896
 21
30.41678226368822
 31
0.0
  0
LINE
  5
119
330
2
100
AcDbEntity
  8
0
100
AcDbLine
 10
313.5064072615896
 20
105.4167822636882
 30
0.0
 11
313.5064072615896
 21
29.41678226368912
 31
0.0
  0
LINE
  5
11A
102
{ACAD_REACTORS
330
11D
102
}
330
2
100
AcDbEntity
  8
0
100
AcDbLine
 10
307.5064072615896
 20
27.91678226368913
 30
0.0
 11
307.5064072615896
 21
106.9167822636882
 31
0.0
  0
DIMENSION
  5
11B
102
{ACAD_XDICTIONARY
360
11C
102
}
102
{ACAD_REACTORS
330
11D
102
}
330
2
100
AcDbEntity
  8
0
100
AcDbDimension
  2
*D34
 10
331.8269652367307
 20
27.91678226368821
 30
0.0
 11
331.8269652367307
 21
67.41678226368822
 31
0.0
 70
   160
  1
%%C<>
  3
STANDARD
100
AcDbAlignedDimension
 13
307.5064072615896
 23
106.9167822636882
 33
0.0
 14
307.5064072615896
 24
27.91678226368822
 34
0.0
 50
90.0
100
AcDbRotatedDimension
  0
LINE
  5
12A
330
2
100
AcDbEntity
  8
0
100
AcDbLine
 10
235.6064072615918
 20
107.4167822636882
 30
0.0
 11
235.6064072615918
 21
27.41678226368822
 31
0.0
  0
LINE
  5
12B
330
2
100
AcDbEntity
  8
0
 48
0.6
100
AcDbLine
 10
14.29720528698089
 20
27.41678226368822
 30
0.0
 11
84.29720528698089
 21
27.41678226368822
 31
0.0
  0
ARC
  5
12C
330
2
100
AcDbEntity
  8
0
 48
0.6
100
AcDbCircle
 10
14.29720528698089
 20
32.41678226368822
 30
0.0
 40
5.0
100
AcDbArc
 50
180.0
 51
270.0
  0
ARC
  5
12D
330
2
100
AcDbEntity
  8
0
 48
0.6
100
AcDbCircle
 10
84.29720528698089
 20
32.41678226368822
 30
0.0
 40
5.0
100
AcDbArc
 50
270.0
 51
0.0
  0
ARC
  5
12E
330
2
100
AcDbEntity
  8
0
100
AcDbCircle
 10
187.5064072615896
 20
27.91678226368913
 30
0.0
 40
0.5
100
AcDbArc
 50
180.0
 51
270.0
  0
LINE
  5
12F
102
{ACAD_REACTORS
330
11D
102
}
330
2
100
AcDbEntity
  8
0
100
AcDbLine
 10
307.5064072615896
 20
27.91678226368913
 30
0.0
 11
235.6064072615918
 21
27.91678226368913
 31
0.0
  0
LINE
  5
130
330
2
100
AcDbEntity
  8
0
 62
   123
100
AcDbLine
 10
248.780105510832
 20
-6.806371655472958
 30
0.0
 11
321.3658558261995
 21
-6.806371655472958
 31
0.0
  0
LINE
  5
131
330
2
100
AcDbEntity
  8
0
100
AcDbLine
 10
236.5064072615896
 20
36.51804492215887
 30
0.0
 11
236.5064072615896
 21
28.81804492215906
 31
0.0
  0
LINE
  5
132
330
2
100
AcDbEntity
  8
0
100
AcDbLine
 10
246.5064072615896
 20
27.91678226368913
 30
0.0
 11
246.5064072615896
 21
27.41678226368822
 31
0.0
  0
ARC
  5
133
330
2
100
AcDbEntity
  8
0
100
AcDbCircle
 10
246.0064072615896
 20
27.41678226368822
 30
0.0
 40
0.5
100
AcDbArc
 50
270.0
 51
0.0
  0
LINE
  5
134
330
2
100
AcDbEntity
  8
0
100
AcDbLine
 10
235.6064072615918
 20
28.81804492215906
 30
0.0
 11
236.5064072615896
 21
28.81804492215906
 31
0.0
  0
LINE
  5
135
330
2
100
AcDbEntity
  8
0
100
AcDbLine
 10
236.5064072615896
 20
27.91678226368913
 30
0.0
 11
236.5064072615896
 21
27.41678226368822
 31
0.0
  0
ARC
  5
136
330
2
100
AcDbEntity
  8
0
100
AcDbCircle
 10
237.0064072615896
 20
27.41678226368822
 30
0.0
 40
0.5
100
AcDbArc
 50
180.0
 51
270.0
  0
LINE
  5
137
330
2
100
AcDbEntity
  8
0
100
AcDbLine
 10
246.0064072615896
 20
26.91678226368821
 30
0.0
 11
237.0064072615896
 21
26.91678226368821
 31
0.0
  0
ARC
  5
138
330
2
100
AcDbEntity
  8
0
100
AcDbCircle
 10
243.997828261592
 20
11.29730426368905
 30
0.0
 40
0.7499080000000001
100
AcDbArc
 50
235.1612770000011
 51
355.3328050000017
  0
ARC
  5
139
330
2
100
AcDbEntity
  8
0
100
AcDbCircle
 10
245.4926712615924
 20
11.17526726368942
 30
0.0
 40
0.7499080000000001
100
AcDbArc
 50
55.16127700000105
 51
175.3328050000016
  0
ARC
  5
13A
330
2
100
AcDbEntity
  8
0
100
AcDbCircle
 10
277.8091292615899
 20
26.82813626368806
 30
0.0
 40
35.255792
100
AcDbArc
 50
179.8559380000023
 51
205.2470409999969
  0
ARC
  5
13B
330
2
100
AcDbEntity
  8
0
100
AcDbCircle
 10
277.8091292615899
 20
26.82813626368806
 30
0.0
 40
37.855792
100
AcDbArc
 50
179.8658329999985
 51
205.2470409999969
  0
ARC
  5
13C
330
2
100
AcDbEntity
  8
0
100
AcDbCircle
 10
277.8091292615899
 20
26.82813626368806
 30
0.0
 40
37.855792
100
AcDbArc
 50
212.7486590000019
 51
219.5987459999966
  0
ARC
  5
13D
330
2
100
AcDbEntity
  8
0
100
AcDbCircle
 10
277.8091292615899
 20
26.82813626368806
 30
0.0
 40
35.255792
100
AcDbArc
 50
213.8564239999994
 51
219.5987459999966
  0
ARC
  5
13E
330
2
100
AcDbEntity
  8
0
100
AcDbCircle
 10
250.38111826159
 20
3.653366263689349
 30
0.0
 40
0.7499080000000001
100
AcDbArc
 50
69.51298200000024
 51
189.6845099999992
  0
ARC
  5
13F
330
2
100
AcDbEntity
  8
0
100
AcDbCircle
 10
248.9026762615903
 20
3.401063263688229
 30
0.0
 40
0.7499080000000001
100
AcDbArc
 50
249.5129820000002
 51
9.684509999999278
  0
ARC
  5
140
330
2
100
AcDbEntity
  8
0
100
AcDbCircle
 10
249.2804552615925
 20
7.223281263689386
 30
0.0
 40
0.7499080000000001
100
AcDbArc
 50
62.66289500000094
 51
182.8344229999968
  0
ARC
  5
141
330
2
100
AcDbEntity
  8
0
100
AcDbCircle
 10
247.7824732615918
 20
7.149115263688145
 30
0.0
 40
0.7499080000000001
100
AcDbArc
 50
242.6628950000009
 51
2.834422999996808
  0
ARC
  5
142
330
2
100
AcDbEntity
  8
0
100
AcDbCircle
 10
245.2214612615898
 20
6.312782263689314
 30
0.0
 40
0.7499080000000001
100
AcDbArc
 50
242.6628950000009
 51
2.834422999996808
  0
ARC
  5
143
330
2
100
AcDbEntity
  8
0
100
AcDbCircle
 10
246.7194422615903
 20
6.386948263687827
 30
0.0
 40
0.7499080000000001
100
AcDbArc
 50
62.66289500000094
 51
182.8344229999968
  0
ARC
  5
144
330
2
100
AcDbEntity
  8
0
100
AcDbCircle
 10
277.8091292615899
 20
26.82813626368806
 30
0.0
 40
33.95579199999999
100
AcDbArc
 50
179.8504230000004
 51
213.8981229999992
  0
ARC
  5
145
330
2
100
AcDbEntity
  8
0
100
AcDbCircle
 10
277.8091292615899
 20
26.82813626368806
 30
0.0
 40
39.15579199999999
100
AcDbArc
 50
179.8702869999971
 51
212.7486590000019
  0
ARC
  5
146
330
2
100
AcDbEntity
  8
0
100
AcDbCircle
 10
277.8091292615899
 20
26.82813626368806
 30
0.0
 40
36.555792
100
AcDbArc
 50
205.2470409999969
 51
213.8176429999978
  0
LINE
  5
147
330
2
100
AcDbEntity
  8
0
100
AcDbLine
 10
235.6064072615918
 20
36.51804492215887
 30
0.0
 11
236.5064072615896
 21
36.51804492215887
 31
0.0
  0
LINE
  5
148
330
2
100
AcDbEntity
  8
0
100
AcDbLine
 10
314.5064072615896
 20
30.41678226368822
 30
0.0
 11
313.5064072615896
 21
29.41678226368912
 31
0.0
  0
LINE
  5
149
330
2
100
AcDbEntity
  8
0
100
AcDbLine
 10
313.5064072615896
 20
29.41678226368912
 30
0.0
 11
307.5064072615896
 21
29.41678226368912
 31
0.0
  0
LINE
  5
14A
330
2
100
AcDbEntity
  8
0
100
AcDbLine
 10
235.6064072615918
 20
27.41678226368822
 30
0.0
 11
187.5064072615896
 21
27.41678226368822
 31
0.0
  0
LINE
  5
14B
102
{ACAD_REACTORS
330
1F9
330
15D
330
20D
330
14E
102
}
330
2
100
AcDbEntity
  8
CEN
  6
BYBLOCK
 62
     0
100
AcDbLine
 10
184.0064072615896
 20
87.41678226368822
 30
0.0
 11
155.0064072615896
 21
87.41678226368822
 31
0.0
  0
DIMENSION
  5
14C
102
{ACAD_XDICTIONARY
360
14D
102
}
102
{ACAD_REACTORS
330
14E
102
}
330
2
100
AcDbEntity
  8
0
100
AcDbDimension
  2
*D48
 10
187.0064072615896
 20
134.8053943650502
 30
0.0
 11
171.3276391914805
 21
134.8053943650502
 31
0.0
 70
   160
  3
STANDARD
100
AcDbAlignedDimension
 13
155.0064072615896
 23
87.41678226368822
 33
0.0
 14
187.0064072615896
 24
106.9167822636882
 34
0.0
100
AcDbRotatedDimension
  0
DIMENSION
  5
15B
102
{ACAD_XDICTIONARY
360
15C
102
}
102
{ACAD_REACTORS
330
15D
102
}
330
2
100
AcDbEntity
  8
0
100
AcDbDimension
  2
*D47
 10
155.0064072615896
 20
103.6370704705909
 30
0.0
 11
167.8173379289801
 21
103.6370704705909
 31
0.0
 70
   160
  3
STANDARD
100
AcDbAlignedDimension
 13
180.0064072615896
 23
87.41678226368913
 33
0.0
 14
155.0064072615896
 24
87.41678226368822
 34
0.0
 50
180.0
100
AcDbRotatedDimension
  0
LINE
  5
16A
102
{ACAD_REACTORS
330
1F9
102
}
330
2
100
AcDbEntity
  8
CEN
 48
0.6
100
AcDbLine
 10
194.7543546443012
 20
82.41678226368822
 30
0.0
 11
151.1082684603607
 21
82.41678226368822
 31
0.0
  0
LINE
  5
16B
102
{ACAD_REACTORS
330
1F9
102
}
330
2
100
AcDbEntity
  8
CEN
  6
HIDDEN
 62
     2
100
AcDbLine
 10
180.0064072615896
 20
84.91678226368822
 30
0.0
 11
155.0064072615896
 21
84.91678226368822
 31
0.0
  0
LINE
  5
16D
102
{ACAD_REACTORS
330
1F9
102
}
330
2
100
AcDbEntity
  8
CEN
  6
BYBLOCK
 62
     0
100
AcDbLine
 10
184.0064072615896
 20
77.41678226368913
 30
0.0
 11
155.0064072615896
 21
77.41678226368913
 31
0.0
  0
DIMENSION
  5
16E
330
2
100
AcDbEntity
  8
0
100
AcDbDimension
  2
*D46
 10
121.492025370022
 20
65.41678226368914
 30
0.0
 11
121.492025370022
 21
82.41678226368913
 31
0.0
 70
   160
  1
{\f??|b0|i0|c0|p49;%%c}<>
  3
STANDARD
100
AcDbAlignedDimension
 13
184.5064072615896
 23
99.41678226368821
 33
0.0
 14
184.5064072615896
 24
65.41678226368913
 34
0.0
 50
90.0
100
AcDbRotatedDimension
  0
LINE
  5
17B
330
2
100
AcDbEntity
  8
CEN
 48
0.6
100
AcDbLine
 10
151.9492163158101
 20
67.41678226368822
 30
0.0
 11
322.0684082362531
 21
67.41678226368822
 31
0.0
  0
LINE
  5
17C
330
2
100
AcDbEntity
  8
CEN
 48
0.6
100
AcDbLine
 10
5.220215561392251
 20
67.41678226368913
 30
0.0
 11
93.37419501258045
 21
67.41678226368913
 31
0.0
  0
POLYLINE
  5
17D
330
2
100
AcDbEntity
  8
0
100
AcDb2dPolyline
 66
     1
 10
0.0
 20
0.0
 30
0.0
 70
     1
 40
1.5
 41
1.5
  0
VERTEX
  5
4F8
330
17D
100
AcDbEntity
  8
0
100
AcDbVertex
100
AcDb2dVertex
 10
24.81582205096128
 20
194.4907172495481
 30
0.0
 42
1.0
  0
VERTEX
  5
4F9
330
17D
100
AcDbEntity
  8
0
100
AcDbVertex
100
AcDb2dVertex
 10
26.31582205096128
 20
194.4907172495481
 30
0.0
 42
1.0
  0
SEQEND
  5
4FA
330
17D
100
AcDbEntity
  8
0
  0
CIRCLE
  5
17E
330
2
100
AcDbEntity
  8
0
100
AcDbCircle
 10
25.56582205096129
 20
194.4907172495481
 30
0.0
 40
1.5
  0
DIMENSION
  5
17F
102
{ACAD_XDICTIONARY
360
180
102
}
102
{ACAD_REACTORS
330
181
102
}
330
2
100
AcDbEntity
  8
0
100
AcDbDimension
  2
*D45
 10
44.78943587124013
 20
173.9401834992204
 30
0.0
 11
32.28943587124013
 21
176.4401834992204
 31
0.0
 70
    32
  1
<>{\f??|b0|i0|c0|p49;%%p0.2}
  3
STANDARD
100
AcDbAlignedDimension
 13
19.78943587124012
 23
164.1349895187454
 33
0.0
 14
44.78943587124013
 24
166.1349895187454
 34
0.0
100
AcDbRotatedDimension
  0
LINE
  5
18E
102
{ACAD_REACTORS
330
181
102
}
330
2
100
AcDbEntity
  8
0
 48
0.2
100
AcDbLine
 10
21.78943587124013
 20
166.1349895187454
 30
0.0
 11
44.78943587124013
 21
166.1349895187454
 31
0.0
  0
LINE
  5
18F
330
2
100
AcDbEntity
  8
0
 48
0.2
100
AcDbLine
 10
21.78943587124013
 20
162.1349895187454
 30
0.0
 11
44.78943587124013
 21
162.1349895187454
 31
0.0
  0
ARC
  5
190
102
{ACAD_REACTORS
330
181
102
}
330
2
100
AcDbEntity
  8
0
100
AcDbCircle
 10
21.78943587124013
 20
164.1349895187454
 30
0.0
 40
2.0
100
AcDbArc
 50
90.0
 51
270.0
  0
LINE
  5
191
330
2
100
AcDbEntity
  8
0
100
AcDbLine
 10
44.78943587124013
 20
166.1349895187454
 30
0.0
 11
44.78943587124013
 21
162.1349895187454
 31
0.0
  0
LINE
  5
192
330
2
100
AcDbEntity
  8
0
  6
CENTER
 62
     1
 48
0.4
100
AcDbLine
 10
14.10254955453274
 20
164.1349895187454
 30
0.0
 11
49.60830318358421
 21
164.1349895187454
 31
0.0
  0
DIMENSION
  5
193
330
2
100
AcDbEntity
  8
0
100
AcDbDimension
  2
*D44
 10
52.95849102671129
 20
166.1349895187454
 30
0.0
 11
52.95849102671127
 21
180.9844513128359
 31
0.0
 70
   160
  1
\A1;<>{\f??|b0|i0|c0|p49;\H0.7x;\S+0^ -0.03;}
  3
STANDARD
100
AcDbAlignedDimension
 13
44.78943587124013
 23
162.1349895187454
 33
0.0
 14
44.78943587124013
 24
166.1349895187454
 34
0.0
 50
90.0
100
AcDbRotatedDimension
  0
CIRCLE
  5
1A2
330
2
100
AcDbEntity
  8
0
100
AcDbCircle
 10
90.09044927559079
 20
194.7060331655484
 30
0.0
 40
1.5
  0
DIMENSION
  5
1A3
102
{ACAD_XDICTIONARY
360
1A4
102
}
102
{ACAD_REACTORS
330
1A5
102
}
330
2
100
AcDbEntity
  8
0
100
AcDbDimension
  2
*D43
 10
126.3908013926811
 20
167.5346942317487
 30
0.0
 11
126.3908013926811
 21
183.7418370888917
 31
0.0
 70
   160
  1
\A1;<>{\f??|b0|i0|c0|p49;\H0.7x;\S+0.1^ -0;\H1.429x; }
  3
STANDARD
100
AcDbAlignedDimension
 13
110.8934688984991
 23
165.0346942317487
 33
0.0
 14
108.8934688984991
 24
167.5346942317487
 34
0.0
 50
90.0
100
AcDbRotatedDimension
  0
DIMENSION
  5
1B4
102
{ACAD_XDICTIONARY
360
1B5
102
}
102
{ACAD_REACTORS
330
1B6
102
}
330
2
100
AcDbEntity
  8
0
100
AcDbDimension
  2
*D42
 10
65.96008915796119
 20
174.8094651773772
 30
0.0
 11
63.96008915796119
 21
178.2594651773772
 31
0.0
 70
    32
  1
\A1;<>{\f??|b0|i0|c0|p49;\H0.7x;\S+0^ -0.03;}
  3
STANDARD
100
AcDbAlignedDimension
 13
61.96008915796119
 23
166.1349895187454
 33
0.0
 14
65.96008915796119
 24
166.1349895187454
 34
0.0
100
AcDbRotatedDimension
  0
DIMENSION
  5
1C5
102
{ACAD_XDICTIONARY
360
1C6
102
}
102
{ACAD_REACTORS
330
1C7
102
}
330
2
100
AcDbEntity
  8
0
100
AcDbDimension
  2
*D41
 10
110.8934688984991
 20
175.87628247168
 30
0.0
 11
108.8934688984991
 21
179.32628247168
 31
0.0
 70
    32
  1
\A1;<>{\f??|b0|i0|c0|p49;\H0.7x;\S+0.40^ -0;}
  3
STANDARD
100
AcDbAlignedDimension
 13
106.8934688984991
 23
167.1172699267044
 33
0.0
 14
110.8934688984991
 24
167.1172699267044
 34
0.0
100
AcDbRotatedDimension
  0
LINE
  5
1D6
102
{ACAD_REACTORS
330
1C7
102
}
330
2
100
AcDbEntity
  8
0
100
AcDbLine
 10
110.8934688984991
 20
165.0346942317487
 30
0.0
 11
110.8934688984991
 21
167.1172699267044
 31
0.0
  0
LINE
  5
1D7
102
{ACAD_REACTORS
330
1C7
102
}
330
2
100
AcDbEntity
  8
0
100
AcDbLine
 10
106.8934688984991
 20
165.0346942317487
 30
0.0
 11
106.8934688984991
 21
167.1172699267044
 31
0.0
  0
LINE
  5
1D8
102
{ACAD_REACTORS
330
1A5
102
}
330
2
100
AcDbEntity
  8
0
100
AcDbLine
 10
106.8934688984991
 20
165.0346942317487
 30
0.0
 11
110.8934688984991
 21
165.0346942317487
 31
0.0
  0
LINE
  5
1D9
330
2
100
AcDbEntity
  8
0
 48
0.2
100
AcDbLine
 10
61.96008915796119
 20
166.1349895187454
 30
0.0
 11
65.96008915796119
 21
166.1349895187454
 31
0.0
  0
LINE
  5
1DA
330
2
100
AcDbEntity
  8
0
 48
0.2
100
AcDbLine
 10
61.96008915796119
 20
162.1349895187454
 30
0.0
 11
65.96008915796119
 21
162.1349895187454
 31
0.0
  0
LINE
  5
1DB
102
{ACAD_REACTORS
330
1B6
102
}
330
2
100
AcDbEntity
  8
0
100
AcDbLine
 10
61.96008915796119
 20
166.1349895187454
 30
0.0
 11
61.96008915796119
 21
162.1349895187454
 31
0.0
  0
LINE
  5
1DC
102
{ACAD_REACTORS
330
1B6
102
}
330
2
100
AcDbEntity
  8
0
100
AcDbLine
 10
65.96008915796119
 20
166.1349895187454
 30
0.0
 11
65.96008915796119
 21
162.1349895187454
 31
0.0
  0
CIRCLE
  5
1DD
102
{ACAD_REACTORS
330
1A5
102
}
330
2
100
AcDbEntity
  8
0
100
AcDbCircle
 10
108.8934688984991
 20
162.5346942317482
 30
0.0
 40
5.0
  0
LINE
  5
1DE
330
2
100
AcDbEntity
  8
0
  6
CENTER
 62
     1
 48
0.4
100
AcDbLine
 10
100.2858295817313
 20
162.5346942317482
 30
0.0
 11
117.2193241278837
 21
162.5346942317482
 31
0.0
  0
POLYLINE
  5
1DF
330
2
100
AcDbEntity
  8
0
100
AcDb2dPolyline
 66
     1
 10
0.0
 20
0.0
 30
0.0
 70
     1
 40
1.5
 41
1.5
  0
VERTEX
  5
4FB
330
1DF
100
AcDbEntity
  8
0
100
AcDbVertex
100
AcDb2dVertex
 10
89.3404492755908
 20
194.7060331655484
 30
0.0
 42
1.0
  0
VERTEX
  5
4FC
330
1DF
100
AcDbEntity
  8
0
100
AcDbVertex
100
AcDb2dVertex
 10
90.8404492755908
 20
194.7060331655484
 30
0.0
 42
1.0
  0
SEQEND
  5
4FD
330
1DF
100
AcDbEntity
  8
0
  0
LINE
  5
1E0
330
2
100
AcDbEntity
  8
0
  6
CENTER
 62
     1
 48
0.4
100
AcDbLine
 10
59.96008915796119
 20
164.1349895187454
 30
0.0
 11
67.96008915796119
 21
164.1349895187454
 31
0.0
  0
LINE
  5
1E1
330
2
100
AcDbEntity
  8
0
  6
CENTER
 62
     1
 48
0.4
100
AcDbLine
 10
63.96008915796119
 20
168.1349895187454
 30
0.0
 11
63.96008915796119
 21
160.1349895187454
 31
0.0
  0
LINE
  5
1E2
330
2
100
AcDbEntity
  8
0
  6
CENTER
 62
     1
 48
0.4
100
AcDbLine
 10
108.8934688984991
 20
172.5064588749646
 30
0.0
 11
108.8934688984991
 21
151.8777006521891
 31
0.0
  0
POLYLINE
  5
1E3
330
2
100
AcDbEntity
  8
3
100
AcDb2dPolyline
 66
     1
 10
0.0
 20
0.0
 30
0.0
 70
     1
  0
VERTEX
  5
4FE
330
1E3
100
AcDbEntity
  8
3
100
AcDbVertex
100
AcDb2dVertex
 10
46.90192429304079
 20
121.611221253021
 30
0.0
  0
VERTEX
  5
4FF
330
1E3
100
AcDbEntity
  8
3
100
AcDbVertex
100
AcDb2dVertex
 10
50.20192429304007
 20
121.611221253021
 30
0.0
  0
VERTEX
  5
500
330
1E3
100
AcDbEntity
  8
3
100
AcDbVertex
100
AcDb2dVertex
 10
50.20192429304007
 20
125.111221253021
 30
0.0
  0
VERTEX
  5
501
330
1E3
100
AcDbEntity
  8
3
100
AcDbVertex
100
AcDb2dVertex
 10
46.90192429304079
 20
125.111221253021
 30
0.0
  0
SEQEND
  5
502
330
1E3
100
AcDbEntity
  8
3
  0
LINE
  5
1E5
330
2
100
AcDbEntity
  8
0
 48
0.6
100
AcDbLine
 10
14.29720528698089
 20
107.4167822636882
 30
0.0
 11
84.29720528698089
 21
107.4167822636882
 31
0.0
  0
ARC
  5
1E6
330
2
100
AcDbEntity
  8
0
 48
0.6
100
AcDbCircle
 10
14.29720528698089
 20
102.4167822636891
 30
0.0
 40
5.0
100
AcDbArc
 50
90.0
 51
180.0
  0
ARC
  5
1E7
330
2
100
AcDbEntity
  8
0
 48
0.6
100
AcDbCircle
 10
84.29720528698089
 20
102.4167822636891
 30
0.0
 40
5.0
100
AcDbArc
 50
0.0
 51
90.0
  0
DIMENSION
  5
1E8
330
2
100
AcDbEntity
  8
0
100
AcDbDimension
  2
*D40
 10
89.29720528698089
 20
120.9321999680391
 30
0.0
 11
53.11642305751229
 21
120.9321999680391
 31
0.0
 70
   160
  3
STANDARD
100
AcDbAlignedDimension
 13
9.297205286980897
 23
102.4167822636891
 33
0.0
 14
89.29720528698089
 24
102.4167822636891
 34
0.0
100
AcDbRotatedDimension
  0
LINE
  5
1F5
330
2
100
AcDbEntity
  8
CEN
 48
0.6
100
AcDbLine
 10
29.83160299944211
 20
82.41678226368822
 30
0.0
 11
68.6833008147114
 21
82.41678226368822
 31
0.0
  0
LINE
  5
1F6
330
2
100
AcDbEntity
  8
0
 48
0.6
100
AcDbLine
 10
47.2972052869809
 20
84.91678226368822
 30
0.0
 11
51.2972052869809
 21
84.91678226368822
 31
0.0
  0
DIMENSION
  5
1F7
102
{ACAD_XDICTIONARY
360
1F8
102
}
102
{ACAD_REACTORS
330
1F9
102
}
330
2
100
AcDbEntity
  8
0
100
AcDbDimension
  2
*D39
 10
130.6765599032515
 20
67.41678226368822
 30
0.0
 11
130.6765599032514
 21
74.91678226368822
 31
0.0
 70
   160
  3
STANDARD
100
AcDbAlignedDimension
 13
151.1082684603607
 23
82.41678226368822
 33
0.0
 14
151.9492163158101
 24
67.41678226368822
 34
0.0
 50
90.0
100
AcDbRotatedDimension
  0
CIRCLE
  5
206
330
2
100
AcDbEntity
  8
0
 48
0.6
100
AcDbCircle
 10
49.2972052869809
 20
82.41678226368822
 30
0.0
 40
17.0
  0
LINE
  5
207
330
2
100
AcDbEntity
  8
0
 62
     0
 48
0.6
100
AcDbLine
 10
51.2972052869809
 20
86.99935795864394
 30
0.0
 11
51.2972052869809
 21
84.91678226368822
 31
0.0
  0
LINE
  5
208
330
2
100
AcDbEntity
  8
0
 62
     0
 48
0.6
100
AcDbLine
 10
47.2972052869809
 20
86.99935795864394
 30
0.0
 11
47.2972052869809
 21
84.91678226368822
 31
0.0
  0
CIRCLE
  5
209
330
2
100
AcDbEntity
  8
0
 48
0.6
100
AcDbCircle
 10
49.2972052869809
 20
82.41678226368822
 30
0.0
 40
5.0
  0
LINE
  5
20A
102
{ACAD_REACTORS
330
20D
102
}
330
2
100
AcDbEntity
  8
0
100
AcDbLine
 10
155.0064072615896
 20
87.41678226368822
 30
0.0
 11
155.0064072615896
 21
77.41678226368913
 31
0.0
  0
DIMENSION
  5
20B
102
{ACAD_XDICTIONARY
360
20C
102
}
102
{ACAD_REACTORS
330
20D
102
}
330
2
100
AcDbEntity
  8
0
100
AcDbDimension
  2
*D38
 10
140.181743972611
 20
87.41678226368822
 30
0.0
 11
140.181743972611
 21
115.2199396852211
 31
0.0
 70
   160
  1
\A1;{\f??|b0|i0|c0|p49;%%C10\H0.7x;\S+0^ -0.015;\H1.429x;(h7)}
  3
STANDARD
100
AcDbAlignedDimension
 13
155.0064072615896
 23
77.41678226368913
 33
0.0
 14
155.0064072615896
 24
87.41678226368822
 34
0.0
 50
90.0
100
AcDbRotatedDimension
  0
LINE
  5
21C
330
2
100
AcDbEntity
  8
0
 48
0.6
100
AcDbLine
 10
56.48793928407394
 20
230.2966617700808
 30
0.0
 11
126.4879392840739
 21
230.2966617700808
 31
0.0
  0
POLYLINE
  5
21D
330
2
100
AcDbEntity
  8
3
100
AcDb2dPolyline
 66
     1
 10
0.0
 20
0.0
 30
0.0
 70
     1
  0
VERTEX
  5
503
330
21D
100
AcDbEntity
  8
3
100
AcDbVertex
100
AcDb2dVertex
 10
88.26239817757231
 20
210.0110315485221
 30
0.0
  0
VERTEX
  5
504
330
21D
100
AcDbEntity
  8
3
100
AcDbVertex
100
AcDb2dVertex
 10
91.56239817757159
 20
210.0110315485221
 30
0.0
  0
VERTEX
  5
505
330
21D
100
AcDbEntity
  8
3
100
AcDbVertex
100
AcDb2dVertex
 10
91.56239817757159
 20
213.5110315485221
 30
0.0
  0
VERTEX
  5
506
330
21D
100
AcDbEntity
  8
3
100
AcDbVertex
100
AcDb2dVertex
 10
88.26239817757231
 20
213.5110315485221
 30
0.0
  0
SEQEND
  5
507
330
21D
100
AcDbEntity
  8
3
  0
ARC
  5
21E
330
2
100
AcDbEntity
  8
0
100
AcDbCircle
 10
187.5064072615896
 20
106.9167822636882
 30
0.0
 40
0.5
100
AcDbArc
 50
90.0
 51
180.0
  0
ARC
  5
21F
330
2
100
AcDbEntity
  8
0
100
AcDbCircle
 10
184.5064072615896
 20
98.91678226368913
 30
0.0
 40
0.5
100
AcDbArc
 50
90.0
 51
180.0
  0
LINE
  5
220
330
2
100
AcDbEntity
  8
0
100
AcDbLine
 10
184.5064072615896
 20
99.41678226368821
 30
0.0
 11
187.0064072615896
 21
99.41678226368821
 31
0.0
  0
DIMENSION
  5
221
330
2
100
AcDbEntity
  8
0
100
AcDbDimension
  2
*D37
 10
184.0064072615896
 20
120.3075735344864
 30
0.0
 11
185.5064072615896
 21
120.3075735344864
 31
0.0
 70
   160
  3
STANDARD
100
AcDbAlignedDimension
 13
187.0064072615896
 23
106.9167822636882
 33
0.0
 14
184.0064072615896
 24
98.91678226368913
 34
0.0
 50
180.0
100
AcDbRotatedDimension
  0
TEXT
  5
230
330
2
100
AcDbEntity
  8
1
  6
BYBLOCK
 62
     0
100
AcDbText
 10
233.0041580193719
 20
182.2119459394834
 30
0.0
 40
4.589999999999998
  1
APPLICATION MODEL
 41
0.8
  7
GHS
100
AcDbText
  0
TEXT
  5
233
330
2
100
AcDbEntity
  8
1
  6
BYBLOCK
 62
     0
100
AcDbText
 10
236.6230093152407
 20
164.1677173232196
 30
0.0
 40
4.589999999999998
  1
K8G25~180B(C)
 41
0.8
  7
GHS
100
AcDbText
  0
TEXT
  5
234
330
2
100
AcDbEntity
  8
1
  6
BYBLOCK
 62
     0
100
AcDbText
 10
236.2216564126319
 20
173.3477173232199
 30
0.0
 40
4.589999999999998
  1
K8G3~18B(C)
 41
0.8
  7
GHS
100
AcDbText
  0
LINE
  5
235
330
2
100
AcDbEntity
  8
1
  6
BYBLOCK
 62
     0
100
AcDbLine
 10
289.2362031625234
 20
170.7324808462149
 30
0.0
 11
176.4824728984931
 21
170.7324808462149
 31
0.0
  0
LINE
  5
236
330
2
100
AcDbEntity
  8
1
  6
BYBLOCK
 62
     0
100
AcDbLine
 10
289.2362031625234
 20
189.092480846215
 30
0.0
 11
176.4824728984931
 21
189.092480846215
 31
0.0
  0
LINE
  5
237
330
2
100
AcDbEntity
  8
1
  6
BYBLOCK
 62
     0
100
AcDbLine
 10
289.2362031625234
 20
179.9124808462147
 30
0.0
 11
176.4824728984931
 21
179.9124808462147
 31
0.0
  0
LINE
  5
238
330
2
100
AcDbEntity
  8
1
  6
BYBLOCK
 62
     0
100
AcDbLine
 10
289.2362031625234
 20
161.5524808462141
 30
0.0
 11
176.4824728984931
 21
161.5524808462141
 31
0.0
  0
TEXT
  5
239
330
2
100
AcDbEntity
  8
1
  6
BYBLOCK
 62
     0
100
AcDbText
 10
185.0194689523596
 20
164.0285910116181
 30
0.0
 40
4.589999999999998
  1
02
 41
0.8
  7
GHS
100
AcDbText
  0
TEXT
  5
23A
330
2
100
AcDbEntity
  8
1
  6
BYBLOCK
 62
     0
100
AcDbText
 10
185.0194689523596
 20
173.2085910116184
 30
0.0
 40
4.589999999999998
  1
01
 41
0.8
  7
GHS
100
AcDbText
  0
TEXT
  5
23B
330
2
100
AcDbEntity
  8
1
  6
BYBLOCK
 62
     0
100
AcDbText
 10
184.0435980588626
 20
182.081293572186
 30
0.0
 40
4.589999999999998
  1
NO.
 41
0.8
  7
GHS
100
AcDbText
  0
TEXT
  5
23C
330
2
100
AcDbEntity
  8
1
  6
BYBLOCK
 62
     0
100
AcDbText
 10
210.0223053477238
 20
172.8995658033559
 30
0.0
 40
4.589999999999998
  1
32
 41
0.8
  7
GHS
100
AcDbText
  0
TEXT
  5
23D
330
2
100
AcDbEntity
  8
1
  6
BYBLOCK
 62
     0
100
AcDbText
 10
210.0223053477238
 20
163.719565803356
 30
0.0
 40
4.589999999999998
  1
42.5
 41
0.8
  7
GHS
100
AcDbText
  0
LINE
  5
23E
330
2
100
AcDbEntity
  8
1
  6
BYBLOCK
 62
     0
100
AcDbLine
 10
175.7122063279493
 20
193.5041697224232
 30
0.0
 11
225.3776441401823
 21
193.5041697224232
 31
0.0
  0
LINE
  5
23F
330
2
100
AcDbEntity
  8
1
  6
BYBLOCK
 62
     0
100
AcDbLine
 10
175.7122063279493
 20
192.7751377614258
 30
0.0
 11
225.3776441401823
 21
192.7751377614258
 31
0.0
  0
LINE
  5
240
330
2
100
AcDbEntity
  8
1
  6
BYBLOCK
 62
     0
100
AcDbLine
 10
175.7122063279493
 20
192.5501377614273
 30
0.0
 11
225.3776441401823
 21
192.5501377614273
 31
0.0
  0
TEXT
  5
241
330
2
100
AcDbEntity
  8
1
 62
     0
100
AcDbText
 10
176.3741968221729
 20
194.5999196331831
 30
0.0
 40
4.589999999999998
  1
DIMENSION TABLE
 41
0.8
  7
GHS
100
AcDbText
  0
TEXT
  5
242
330
2
100
AcDbEntity
  8
1
  6
BYBLOCK
 62
     0
100
AcDbText
 10
211.8711061534304
 20
181.9130956592421
 30
0.0
 40
4.589999999999998
  1
L
 41
0.8
  7
GHS
100
AcDbText
  0
LINE
  5
243
330
2
100
AcDbEntity
  8
1
  6
BYBLOCK
 62
     0
100
AcDbLine
 10
229.9922900820019
 20
189.092480846215
 30
0.0
 11
229.9922900820019
 21
161.5524808462141
 31
0.0
  0
LINE
  5
244
330
2
100
AcDbEntity
  8
1
  6
BYBLOCK
 62
     0
100
AcDbLine
 10
200.2992560964084
 20
189.092480846215
 30
0.0
 11
200.2992560964084
 21
161.5524808462141
 31
0.0
  0
LINE
  5
245
330
2
100
AcDbEntity
  8
1
  6
BYBLOCK
 62
     0
100
AcDbLine
 10
176.4824728984931
 20
189.092480846215
 30
0.0
 11
176.4824728984931
 21
161.5524808462141
 31
0.0
  0
LINE
  5
246
330
2
100
AcDbEntity
  8
1
  6
BYBLOCK
 62
     0
100
AcDbLine
 10
289.2362031625234
 20
189.092480846215
 30
0.0
 11
289.2362031625234
 21
161.5524808462141
 31
0.0
  0
ARC
  5
247
330
2
100
AcDbEntity
  8
0
100
AcDbCircle
 10
184.5064072615896
 20
65.91678226368822
 30
0.0
 40
0.5
100
AcDbArc
 50
180.0
 51
270.0
  0
LINE
  5
248
330
2
100
AcDbEntity
  8
0
100
AcDbLine
 10
184.5064072615896
 20
65.41678226368913
 30
0.0
 11
187.0064072615896
 21
65.41678226368913
 31
0.0
  0
LINE
  5
249
102
{ACAD_REACTORS
330
15D
102
}
330
2
100
AcDbEntity
  8
0
  6
HIDDEN
 62
     2
100
AcDbLine
 10
180.0064072615896
 20
87.41678226368913
 30
0.0
 11
180.0064072615896
 21
84.91678226368822
 31
0.0
  0
LINE
  5
24A
330
2
100
AcDbEntity
  8
0
100
AcDbLine
 10
184.0064072615896
 20
98.91678226368913
 30
0.0
 11
184.0064072615896
 21
67.91678226368822
 31
0.0
  0
DIMENSION
  5
24B
330
2
100
AcDbEntity
  8
0
100
AcDbDimension
  2
*D36
 10
229.5064072615896
 20
134.8079122839858
 30
0.0
 11
207.0064072615896
 21
134.8079122839858
 31
0.0
 70
   160
  1
{\f??|b0|i0|c0|p49;L}
  3
STANDARD
100
AcDbAlignedDimension
 13
187.0064072615896
 23
106.9167822636882
 33
0.0
 14
229.5064072615896
 24
106.9167822636882
 34
0.0
100
AcDbRotatedDimension
  0
LINE
  5
258
330
2
100
AcDbEntity
  8
0
100
AcDbLine
 10
307.5064072615896
 20
106.9167822636882
 30
0.0
 11
235.6064072615918
 21
106.9167822636882
 31
0.0
  0
LINE
  5
259
102
{ACAD_REACTORS
330
260
102
}
330
2
100
AcDbEntity
  8
0
100
AcDbLine
 10
236.5064072615896
 20
98.31551960521801
 30
0.0
 11
236.5064072615896
 21
106.0155196052182
 31
0.0
  0
LINE
  5
25A
330
2
100
AcDbEntity
  8
0
100
AcDbLine
 10
235.6064072615918
 20
98.31551960521801
 30
0.0
 11
236.5064072615896
 21
98.31551960521801
 31
0.0
  0
LINE
  5
25B
330
2
100
AcDbEntity
  8
0
100
AcDbLine
 10
235.6064072615918
 20
106.0155196052182
 30
0.0
 11
236.5064072615896
 21
106.0155196052182
 31
0.0
  0
LINE
  5
25C
330
2
100
AcDbEntity
  8
0
100
AcDbLine
 10
314.5064072615896
 20
104.4167822636882
 30
0.0
 11
313.5064072615896
 21
105.4167822636882
 31
0.0
  0
LINE
  5
25D
330
2
100
AcDbEntity
  8
0
100
AcDbLine
 10
313.5064072615896
 20
105.4167822636882
 30
0.0
 11
307.5064072615896
 21
105.4167822636882
 31
0.0
  0
DIMENSION
  5
25E
102
{ACAD_XDICTIONARY
360
25F
102
}
102
{ACAD_REACTORS
330
260
102
}
330
2
100
AcDbEntity
  8
0
100
AcDbDimension
  2
*D50
 10
236.5064072615896
 20
122.2422959464638
 30
0.0
 11
233.0064072615896
 21
122.2422959464638
 31
0.0
 70
   160
  3
STANDARD
100
AcDbAlignedDimension
 13
229.5064072615896
 23
106.9167822636882
 33
0.0
 14
236.5064072615896
 24
106.0155196052182
 34
0.0
100
AcDbRotatedDimension
  0
DIMENSION
  5
26D
330
2
100
AcDbEntity
  8
0
100
AcDbDimension
  2
*D49
 10
314.5064072615896
 20
134.8079122839858
 30
0.0
 11
272.0064072615896
 21
134.8079122839858
 31
0.0
 70
   160
  3
STANDARD
100
AcDbAlignedDimension
 13
229.5064072615896
 23
106.9167822636891
 33
0.0
 14
314.5064072615896
 24
104.4167822636882
 34
0.0
100
AcDbRotatedDimension
  0
LINE
  5
27A
330
2
100
AcDbEntity
  8
0
100
AcDbLine
 10
235.6064072615918
 20
107.4167822636882
 30
0.0
 11
187.5064072615896
 21
107.4167822636882
 31
0.0
  0
LINE
  5
27B
330
2
100
AcDbEntity
  8
0
100
AcDbLine
 10
270.6410598765578
 20
230.2966617700808
 30
0.0
 11
229.6410598765578
 21
230.2966617700808
 31
0.0
  0
CIRCLE
  5
27C
330
2
100
AcDbEntity
  8
0
 48
0.6
100
AcDbCircle
 10
102.6867980200513
 20
417.2260066534372
 30
0.0
 40
37.00000000000005
  0
LINE
  5
27D
330
2
100
AcDbEntity
  8
0
 48
0.6
100
AcDbLine
 10
62.68679802005135
 20
452.2260066534381
 30
0.0
 11
62.68679802005135
 21
382.2260066534381
 31
0.0
  0
LINE
  5
27E
330
2
100
AcDbEntity
  8
0
 48
0.6
100
AcDbLine
 10
142.6867980200513
 20
452.2260066534381
 30
0.0
 11
142.6867980200513
 21
382.2260066534381
 31
0.0
  0
LINE
  5
27F
102
{ACAD_REACTORS
330
284
102
}
330
2
100
AcDbEntity
  8
0
100
AcDbLine
 10
201.8797464914241
 20
453.7260066534381
 30
0.0
 11
201.8797464914241
 21
380.7260066534372
 31
0.0
  0
LINE
  5
280
330
2
100
AcDbEntity
  8
0
100
AcDbLine
 10
203.8797464914241
 20
457.2260066534381
 30
0.0
 11
203.8797464914241
 21
377.2260066534363
 31
0.0
  0
LINE
  5
281
330
2
100
AcDbEntity
  8
0
100
AcDbLine
 10
235.8797464914241
 20
457.2260066534381
 30
0.0
 11
235.8797464914241
 21
377.2260066534363
 31
0.0
  0
DIMENSION
  5
282
102
{ACAD_XDICTIONARY
360
283
102
}
102
{ACAD_REACTORS
330
284
102
}
330
2
100
AcDbEntity
  8
0
100
AcDbDimension
  2
*D52
 10
178.3786491000392
 20
453.7260066534381
 30
0.0
 11
178.3786491000391
 21
417.2260066534372
 31
0.0
 70
   160
  1
\A1;{\f??|b0|i0|c0|p49;%%C}<>{\f??|b0|i0|c0|p49;\H0.7x;\S+0^ -0.030;\H1.429x;(h7)}
  3
STANDARD
100
AcDbAlignedDimension
 13
201.8797464914241
 23
380.7260066534372
 33
0.0
 14
201.8797464914241
 24
453.7260066534381
 34
0.0
 50
90.0
100
AcDbRotatedDimension
  0
LINE
  5
291
330
2
100
AcDbEntity
  8
CEN
 48
0.6
100
AcDbLine
 10
102.6867980200513
 20
370.0538834450403
 30
0.0
 11
102.6867980200513
 21
464.398129861835
 31
0.0
  0
INSERT
  5
292
330
2
100
AcDbEntity
  8
0
100
AcDbBlockReference
  2
5
 10
102.6867980200513
 20
417.2260066534382
 30
0.0
  0
LINE
  5
293
330
2
100
AcDbEntity
  8
0
 48
0.6
100
AcDbLine
 10
56.48793928407394
 20
310.2966617700813
 30
0.0
 11
126.4879392840739
 21
310.2966617700813
 31
0.0
  0
ARC
  5
294
330
2
100
AcDbEntity
  8
0
 48
0.6
100
AcDbCircle
 10
56.48793928407394
 20
305.2966617700803
 30
0.0
 40
5.0
100
AcDbArc
 50
90.0
 51
180.0
  0
ARC
  5
295
330
2
100
AcDbEntity
  8
0
 48
0.6
100
AcDbCircle
 10
126.4879392840739
 20
305.2966617700803
 30
0.0
 40
5.0
100
AcDbArc
 50
0.0
 51
90.0
  0
LINE
  5
296
330
2
100
AcDbEntity
  8
CEN
 48
0.6
100
AcDbLine
 10
72.02233699652424
 20
285.2966617700804
 30
0.0
 11
110.8740348117899
 21
285.2966617700804
 31
0.0
  0
LINE
  5
297
330
2
100
AcDbEntity
  8
0
 48
0.6
100
AcDbLine
 10
89.48793928407395
 20
287.7966617700804
 30
0.0
 11
93.48793928407394
 21
287.7966617700804
 31
0.0
  0
LINE
  5
298
102
{ACAD_REACTORS
330
C4
102
}
330
2
100
AcDbEntity
  8
0
 48
0.6
100
AcDbLine
 10
131.4879392840739
 20
305.2966617700803
 30
0.0
 11
131.4879392840739
 21
235.2966617700808
 31
0.0
  0
LINE
  5
299
330
2
100
AcDbEntity
  8
0
 48
0.6
100
AcDbLine
 10
51.48793928407394
 20
305.2966617700803
 30
0.0
 11
51.48793928407394
 21
235.2966617700808
 31
0.0
  0
CIRCLE
  5
29A
330
2
100
AcDbEntity
  8
0
 48
0.6
100
AcDbCircle
 10
91.48793928407394
 20
285.2966617700804
 30
0.0
 40
17.0
  0
CIRCLE
  5
29B
330
2
100
AcDbEntity
  8
0
 48
0.6
100
AcDbCircle
 10
91.48793928407394
 20
285.2966617700804
 30
0.0
 40
5.0
  0
LINE
  5
29C
330
2
100
AcDbEntity
  8
0
 62
     0
 48
0.6
100
AcDbLine
 10
89.48793928407395
 20
289.8792374650361
 30
0.0
 11
89.48793928407395
 21
287.7966617700804
 31
0.0
  0
LINE
  5
29D
330
2
100
AcDbEntity
  8
0
 62
     0
 48
0.6
100
AcDbLine
 10
93.48793928407394
 20
289.8792374650361
 30
0.0
 11
93.48793928407394
 21
287.7966617700804
 31
0.0
  0
CIRCLE
  5
29E
330
2
100
AcDbEntity
  8
0
 48
0.6
100
AcDbCircle
 10
91.48793928407394
 20
270.2966617700803
 30
0.0
 40
36.5
  0
INSERT
  5
29F
330
2
100
AcDbEntity
  8
0
100
AcDbBlockReference
  2
5
 10
91.48793928407394
 20
270.2966617700803
 30
0.0
  0
LINE
  5
2A0
330
2
100
AcDbEntity
  8
CEN
 48
0.6
100
AcDbLine
 10
47.41094955847438
 20
270.2966617700803
 30
0.0
 11
135.5649290096735
 21
270.2966617700803
 31
0.0
  0
LINE
  5
2A1
330
2
100
AcDbEntity
  8
CEN
 48
0.6
100
AcDbLine
 10
47.41094955847438
 20
270.2966617700803
 30
0.0
 11
135.5649290096735
 21
270.2966617700803
 31
0.0
  0
LINE
  5
2A2
330
2
100
AcDbEntity
  8
0
 48
0.6
100
AcDbLine
 10
67.68679802005135
 20
377.2260066534381
 30
0.0
 11
137.6867980200513
 21
377.2260066534381
 31
0.0
  0
ARC
  5
2A3
330
2
100
AcDbEntity
  8
0
 48
0.6
100
AcDbCircle
 10
67.68679802005135
 20
382.2260066534381
 30
0.0
 40
5.0
100
AcDbArc
 50
180.0
 51
270.0
  0
LINE
  5
2A4
330
2
100
AcDbEntity
  8
0
 48
0.6
100
AcDbLine
 10
122.1389859836235
 20
377.2260066534381
 30
0.0
 11
116.3979357570897
 21
377.2260066534381
 31
0.0
  0
ARC
  5
2A5
330
2
100
AcDbEntity
  8
0
 48
0.6
100
AcDbCircle
 10
137.6867980200513
 20
382.2260066534381
 30
0.0
 40
5.0
100
AcDbArc
 50
270.0
 51
0.0
  0
LINE
  5
2A6
330
2
100
AcDbEntity
  8
0
100
AcDbLine
 10
226.6410598765578
 20
302.2966617700804
 30
0.0
 11
229.1410598765578
 21
302.2966617700804
 31
0.0
  0
LINE
  5
2A7
102
{ACAD_REACTORS
330
2D2
330
2AB
330
2E6
102
}
330
2
100
AcDbEntity
  8
CEN
  6
BYBLOCK
 62
     0
100
AcDbLine
 10
226.1410598765578
 20
290.2966617700803
 30
0.0
 11
197.1410598765578
 21
290.2966617700803
 31
0.0
  0
ARC
  5
2A8
330
2
100
AcDbEntity
  8
0
100
AcDbCircle
 10
226.6410598765578
 20
301.7966617700813
 30
0.0
 40
0.5
100
AcDbArc
 50
90.0
 51
180.0
  0
DIMENSION
  5
2A9
102
{ACAD_XDICTIONARY
360
2AA
102
}
102
{ACAD_REACTORS
330
2AB
102
}
330
2
100
AcDbEntity
  8
0
100
AcDbDimension
  2
*D57
 10
197.1410598765578
 20
306.5169499769822
 30
0.0
 11
209.9519905439628
 21
306.5169499769822
 31
0.0
 70
   160
  3
STANDARD
100
AcDbAlignedDimension
 13
222.1410598765578
 23
290.2966617700803
 33
0.0
 14
197.1410598765578
 24
290.296661770079
 34
0.0
 50
180.0
100
AcDbRotatedDimension
  0
LINE
  5
2B8
330
2
100
AcDbEntity
  8
0
100
AcDbLine
 10
270.6410598765578
 20
310.2966617700813
 30
0.0
 11
270.6410598765578
 21
309.7966617700803
 31
0.0
  0
LINE
  5
2B9
330
2
100
AcDbEntity
  8
0
100
AcDbLine
 10
271.6410598765578
 20
309.7966617700803
 30
0.0
 11
270.6410598765578
 21
309.7966617700803
 31
0.0
  0
LINE
  5
2BA
330
2
100
AcDbEntity
  8
0
100
AcDbLine
 10
270.6410598765578
 20
310.2966617700813
 30
0.0
 11
229.6410598765578
 21
310.2966617700813
 31
0.0
  0
ARC
  5
2BB
330
2
100
AcDbEntity
  8
0
100
AcDbCircle
 10
229.6410598765578
 20
309.7966617700803
 30
0.0
 40
0.5
100
AcDbArc
 50
90.0
 51
180.0
  0
DIMENSION
  5
2BC
330
2
100
AcDbEntity
  8
0
100
AcDbDimension
  2
*D56
 10
226.1410598765578
 20
316.9065896789852
 30
0.0
 11
227.6410598765578
 21
316.9065896789852
 31
0.0
 70
   160
  3
STANDARD
100
AcDbAlignedDimension
 13
229.1410598765578
 23
309.7966617700803
 33
0.0
 14
226.1410598765578
 24
301.7966617700803
 34
0.0
 50
180.0
100
AcDbRotatedDimension
  0
LINE
  5
2CB
330
2
100
AcDbEntity
  8
0
100
AcDbLine
 10
226.6410598765578
 20
268.2966617700808
 30
0.0
 11
229.1410598765578
 21
268.2966617700808
 31
0.0
  0
LINE
  5
2CC
102
{ACAD_REACTORS
330
2D2
102
}
330
2
100
AcDbEntity
  8
CEN
 48
0.6
100
AcDbLine
 10
236.8890072592585
 20
285.2966617700804
 30
0.0
 11
193.2429210753325
 21
285.2966617700804
 31
0.0
  0
ARC
  5
2CD
330
2
100
AcDbEntity
  8
0
100
AcDbCircle
 10
226.6410598765578
 20
268.7966617700804
 30
0.0
 40
0.5
100
AcDbArc
 50
180.0
 51
270.0
  0
LINE
  5
2CE
102
{ACAD_REACTORS
330
2D2
102
}
330
2
100
AcDbEntity
  8
CEN
  6
HIDDEN
 62
     2
100
AcDbLine
 10
222.1410598765578
 20
287.7966617700804
 30
0.0
 11
197.1410598765578
 21
287.7966617700804
 31
0.0
  0
LINE
  5
2CF
102
{ACAD_REACTORS
330
2D2
102
}
330
2
100
AcDbEntity
  8
CEN
  6
BYBLOCK
 62
     0
100
AcDbLine
 10
226.1410598765578
 20
280.2966617700808
 30
0.0
 11
197.1410598765578
 21
280.2966617700808
 31
0.0
  0
DIMENSION
  5
2D0
102
{ACAD_XDICTIONARY
360
2D1
102
}
102
{ACAD_REACTORS
330
2D2
102
}
330
2
100
AcDbEntity
  8
0
100
AcDbDimension
  2
*D55
 10
173.294513205059
 20
270.2966617700803
 30
0.0
 11
170.794513205059
 21
277.7966617700804
 31
0.0
 70
    32
  3
STANDARD
100
AcDbAlignedDimension
 13
193.2429210753325
 23
285.2966617700804
 33
0.0
 14
185.5333867424596
 24
270.2966617700803
 34
0.0
 50
90.0
100
AcDbRotatedDimension
  0
LINE
  5
2DF
102
{ACAD_REACTORS
330
2D2
102
}
330
2
100
AcDbEntity
  8
CEN
 48
0.6
100
AcDbLine
 10
185.5333867424596
 20
270.2966617700803
 30
0.0
 11
284.8005292161833
 21
270.2966617700803
 31
0.0
  0
LINE
  5
2E0
330
2
100
AcDbEntity
  8
0
100
AcDbLine
 10
271.6410598765578
 20
230.7966617700803
 30
0.0
 11
270.6410598765578
 21
230.7966617700803
 31
0.0
  0
LINE
  5
2E1
330
2
100
AcDbEntity
  8
0
100
AcDbLine
 10
226.1410598765578
 20
301.7966617700813
 30
0.0
 11
226.1410598765578
 21
270.7966617700808
 31
0.0
  0
LINE
  5
2E2
102
{ACAD_REACTORS
330
2AB
102
}
330
2
100
AcDbEntity
  8
0
  6
HIDDEN
 62
     2
100
AcDbLine
 10
222.1410598765578
 20
290.2966617700803
 30
0.0
 11
222.1410598765578
 21
287.7966617700804
 31
0.0
  0
LINE
  5
2E3
102
{ACAD_REACTORS
330
2E6
102
}
330
2
100
AcDbEntity
  8
0
100
AcDbLine
 10
197.1410598765578
 20
290.2966617700803
 30
0.0
 11
197.1410598765578
 21
280.2966617700808
 31
0.0
  0
DIMENSION
  5
2E4
102
{ACAD_XDICTIONARY
360
2E5
102
}
102
{ACAD_REACTORS
330
2E6
102
}
330
2
100
AcDbEntity
  8
0
100
AcDbDimension
  2
*D54
 10
182.3163965875901
 20
290.2966617700803
 30
0.0
 11
182.3163965875901
 21
318.4075956958231
 31
0.0
 70
   160
  1
\A1;{\f??|b0|i0|c0|p49;%%C10\H0.7x;\S+0^ -0.015;\H1.429x;(h7)}
  3
STANDARD
100
AcDbAlignedDimension
 13
197.1410598765578
 23
280.2966617700808
 33
0.0
 14
197.1410598765578
 24
290.2966617700803
 34
0.0
 50
90.0
100
AcDbRotatedDimension
  0
DIMENSION
  5
2F5
330
2
100
AcDbEntity
  8
0
100
AcDbDimension
  2
*D53
 10
163.6266779850011
 20
268.2966617700803
 30
0.0
 11
163.6266779850011
 21
285.2966617700804
 31
0.0
 70
   160
  1
{\f??|b0|i0|c0|p49;%%c}<>
  3
STANDARD
100
AcDbAlignedDimension
 13
226.6410598765578
 23
302.2966617700804
 33
0.0
 14
226.6410598765578
 24
268.2966617700803
 34
0.0
 50
90.0
100
AcDbRotatedDimension
  0
LINE
  5
302
330
2
100
AcDbEntity
  8
0
100
AcDbLine
 10
229.1410598765578
 20
309.7966617700803
 30
0.0
 11
229.1410598765578
 21
230.7966617700803
 31
0.0
  0
LINE
  5
303
330
2
100
AcDbEntity
  8
0
100
AcDbLine
 10
271.6410598765578
 20
309.7966617700803
 30
0.0
 11
271.6410598765578
 21
230.7966617700803
 31
0.0
  0
LINE
  5
304
330
2
100
AcDbEntity
  8
0
100
AcDbLine
 10
203.8797464914241
 20
377.2260066534363
 30
0.0
 11
235.8797464914241
 21
377.2260066534363
 31
0.0
  0
LINE
  5
305
330
2
100
AcDbEntity
  8
0
100
AcDbLine
 10
203.8797464914241
 20
380.7260066534372
 30
0.0
 11
201.8797464914241
 21
380.7260066534372
 31
0.0
  0
POLYLINE
  5
306
330
2
100
AcDbEntity
  8
3
100
AcDb2dPolyline
 66
     1
 10
0.0
 20
0.0
 30
0.0
 70
     1
  0
VERTEX
  5
508
330
306
100
AcDbEntity
  8
3
100
AcDbVertex
100
AcDb2dVertex
 10
97.38757410710968
 20
472.5140105199934
 30
0.0
  0
VERTEX
  5
509
330
306
100
AcDbEntity
  8
3
100
AcDbVertex
100
AcDb2dVertex
 10
100.6875741071125
 20
472.5140105199934
 30
0.0
  0
VERTEX
  5
50A
330
306
100
AcDbEntity
  8
3
100
AcDbVertex
100
AcDb2dVertex
 10
100.6875741071125
 20
476.0140105199934
 30
0.0
  0
VERTEX
  5
50B
330
306
100
AcDbEntity
  8
3
100
AcDbVertex
100
AcDb2dVertex
 10
97.38757410710968
 20
476.0140105199934
 30
0.0
  0
SEQEND
  5
50C
330
306
100
AcDbEntity
  8
3
  0
LINE
  5
307
330
2
100
AcDbEntity
  8
CEN
 48
0.6
100
AcDbLine
 10
58.60980829445907
 20
417.2260066534372
 30
0.0
 11
146.7637877456509
 21
417.2260066534372
 31
0.0
  0
LINE
  5
308
330
2
100
AcDbEntity
  8
0
 48
0.6
100
AcDbLine
 10
67.68679802005135
 20
457.2260066534372
 30
0.0
 11
137.6867980200513
 21
457.2260066534381
 31
0.0
  0
ARC
  5
309
102
{ACAD_REACTORS
330
30F
102
}
330
2
100
AcDbEntity
  8
0
 48
0.6
100
AcDbCircle
 10
67.68679802005135
 20
452.2260066534381
 30
0.0
 40
5.0
100
AcDbArc
 50
90.0
 51
180.0
  0
CIRCLE
  5
30A
330
2
100
AcDbEntity
  8
0
 48
0.6
100
AcDbCircle
 10
102.6867980200513
 20
417.2260066534372
 30
0.0
 40
2.460898870766981
  0
CIRCLE
  5
30B
330
2
100
AcDbEntity
  8
0
 48
0.6
100
AcDbCircle
 10
102.6867980200513
 20
417.2260066534372
 30
0.0
 40
3.604999999999998
  0
ARC
  5
30C
102
{ACAD_REACTORS
330
30F
102
}
330
2
100
AcDbEntity
  8
0
 48
0.6
100
AcDbCircle
 10
137.6867980200513
 20
452.2260066534381
 30
0.0
 40
5.0
100
AcDbArc
 50
0.0
 51
90.0
  0
DIMENSION
  5
30D
102
{ACAD_XDICTIONARY
360
30E
102
}
102
{ACAD_REACTORS
330
30F
102
}
330
2
100
AcDbEntity
  8
0
100
AcDbDimension
  2
*D59
 10
142.6867980200513
 20
471.7005733031769
 30
0.0
 11
104.2955194046917
 21
471.7005733031769
 31
0.0
 70
   160
  3
STANDARD
100
AcDbAlignedDimension
 13
62.68679802005135
 23
452.2260066534381
 33
0.0
 14
142.6867980200513
 24
452.2260066534381
 34
0.0
100
AcDbRotatedDimension
  0
LINE
  5
31C
330
2
100
AcDbEntity
  8
CEN
 48
0.6
100
AcDbLine
 10
244.992979635801
 20
417.2260066534372
 30
0.0
 11
186.2359526907821
 21
417.2260066534372
 31
0.0
  0
LINE
  5
31D
102
{ACAD_REACTORS
330
33C
102
}
330
2
100
AcDbEntity
  8
0
100
AcDbLine
 10
203.8797464914241
 20
457.2260066534381
 30
0.0
 11
235.8797464914241
 21
457.2260066534381
 31
0.0
  0
LINE
  5
31E
330
2
100
AcDbEntity
  8
2
100
AcDbLine
 10
196.8797464914241
 20
419.1460066534382
 30
0.0
 11
190.8797464914241
 21
415.9705801728941
 31
0.0
  0
LINE
  5
31F
330
2
100
AcDbEntity
  8
2
100
AcDbLine
 10
196.4336435016411
 20
419.9310066534371
 30
0.0
 11
190.8797464914241
 21
417.1252807112741
 31
0.0
  0
LINE
  5
320
330
2
100
AcDbEntity
  8
2
100
AcDbLine
 10
190.8797464914241
 20
420.8310066534381
 30
0.0
 11
190.8797464914241
 21
413.6210066534372
 31
0.0
  0
LINE
  5
321
330
2
100
AcDbEntity
  8
0
100
AcDbLine
 10
190.3797464914241
 20
420.3310066534381
 30
0.0
 11
190.3797464914241
 21
414.1210066534372
 31
0.0
  0
LINE
  5
322
330
2
100
AcDbEntity
  8
2
100
AcDbLine
 10
196.8797464914241
 20
419.9310066534371
 30
0.0
 11
196.8797464914241
 21
414.5210066534373
 31
0.0
  0
LINE
  5
323
330
2
100
AcDbEntity
  8
2
100
AcDbLine
 10
196.8797464914241
 20
417.9913061150591
 30
0.0
 11
190.8797464914241
 21
414.8634548503018
 31
0.0
  0
LINE
  5
324
330
2
100
AcDbEntity
  8
0
100
AcDbLine
 10
190.3797464914241
 20
414.5210066534373
 30
0.0
 11
196.8797464914241
 21
414.5210066534373
 31
0.0
  0
LINE
  5
325
330
2
100
AcDbEntity
  8
0
100
AcDbLine
 10
190.3797464914241
 20
414.1210066534372
 30
0.0
 11
190.8797464914241
 21
413.6210066534372
 31
0.0
  0
LINE
  5
326
330
2
100
AcDbEntity
  8
0
100
AcDbLine
 10
190.3797464914241
 20
419.9310066534371
 30
0.0
 11
196.8797464914241
 21
419.9310066534371
 31
0.0
  0
LINE
  5
327
330
2
100
AcDbEntity
  8
0
100
AcDbLine
 10
190.8797464914241
 20
420.8310066534381
 30
0.0
 11
190.3797464914241
 21
420.3310066534381
 31
0.0
  0
LINE
  5
328
330
2
100
AcDbEntity
  8
0
100
AcDbLine
 10
190.8797464914241
 20
413.6210066534381
 30
0.0
 11
201.8797464914241
 21
413.6210066534381
 31
0.0
  0
LINE
  5
329
330
2
100
AcDbEntity
  8
0
100
AcDbLine
 10
190.8797464914241
 20
420.8310066534381
 30
0.0
 11
201.8797464914241
 21
420.8310066534381
 31
0.0
  0
ARC
  5
32A
330
2
100
AcDbEntity
  8
0
100
AcDbCircle
 10
196.9229334022493
 20
387.7047757643881
 30
0.0
 40
26.81626566478071
100
AcDbArc
 50
79.34799026071575
 51
90.09227342916824
  0
ARC
  5
32B
330
2
100
AcDbEntity
  8
0
100
AcDbCircle
 10
196.9229334022493
 20
446.7472375424581
 30
0.0
 40
26.81626566475105
100
AcDbArc
 50
269.9077265708258
 51
280.6520097392901
  0
LINE
  5
32C
330
2
100
AcDbEntity
  8
0
100
AcDbLine
 10
203.8797464914241
 20
453.7260066534381
 30
0.0
 11
201.8797464914241
 21
453.7260066534381
 31
0.0
  0
DIMENSION
  5
32D
330
2
100
AcDbEntity
  8
0
100
AcDbDimension
  2
*D58
 10
203.8797464914241
 20
477.0824982733784
 30
0.0
 11
197.6297464914241
 21
477.0824982733784
 31
0.0
 70
   160
  3
STANDARD
100
AcDbAlignedDimension
 13
190.3797464914241
 23
420.3310066534372
 33
0.0
 14
203.8797464914241
 24
457.2260066534381
 34
0.0
100
AcDbRotatedDimension
  0
DIMENSION
  5
33A
102
{ACAD_XDICTIONARY
360
33B
102
}
102
{ACAD_REACTORS
330
33C
102
}
330
2
100
AcDbEntity
  8
0
100
AcDbDimension
  2
*D61
 10
235.8797464914241
 20
477.0824982733793
 30
0.0
 11
219.8797464914241
 21
477.0824982733793
 31
0.0
 70
   160
  3
STANDARD
100
AcDbAlignedDimension
 13
203.8797464914241
 23
457.2260066534381
 33
0.0
 14
235.8797464914241
 24
457.2260066534381
 34
0.0
100
AcDbRotatedDimension
  0
DIMENSION
  5
349
330
2
100
AcDbEntity
  8
0
100
AcDbDimension
  2
*D60
 10
203.8797464914241
 20
466.7884943784669
 30
0.0
 11
194.8797464914241
 21
466.7884943784669
 31
0.0
 70
   160
  3
STANDARD
100
AcDbAlignedDimension
 13
201.8797464914241
 23
453.7260066534381
 33
0.0
 14
203.8797464914241
 24
457.2260066534381
 34
0.0
100
AcDbRotatedDimension
  0
ENDSEC
  0
SECTION
  2
OBJECTS
  0
DICTIONARY
  5
8
330
0
100
AcDbDictionary
  3
ACAD_GROUP
350
97
  3
ACAD_LAYOUT
350
C
  3
ACAD_MLINESTYLE
350
98
  3
ACAD_PLOTSETTINGS
350
99
1001
ACAD
1000
TREAT_AS_HARD
1070
     0
  0
DICTIONARY
  5
13
330
12
100
AcDbDictionary
  3
ACAD_LAYERFILTERS
350
14
  3
ACAD_LAYERSTATES
350
87
1001
ACAD
1000
TREAT_AS_HARD
1070
     1
  0
DICTIONARY
  5
3
330
2
100
AcDbDictionary
  3
ACAD_LAYOUTSELFREF
350
4EA
1001
ACAD
1000
TREAT_AS_HARD
1070
     1
  0
DICTIONARY
  5
E
330
D
100
AcDbDictionary
  3
ACAD_LAYOUTSELFREF
350
4EB
1001
ACAD
1000
TREAT_AS_HARD
1070
     1
  0
DICTIONARY
  5
FF
330
FE
100
AcDbDictionary
  3
ACAD_DIMASSOC
350
100
1001
ACAD
1000
TREAT_AS_HARD
1070
     1
  0
DICTIONARY
  5
AA
330
A9
100
AcDbDictionary
  3
ACAD_DIMASSOC
350
AB
1001
ACAD
1000
TREAT_AS_HARD
1070
     1
  0
DICTIONARY
  5
C3
330
C2
100
AcDbDictionary
  3
ACAD_DIMASSOC
350
C4
1001
ACAD
1000
TREAT_AS_HARD
1070
     1
  0
DICTIONARY
  5
11C
330
11B
100
AcDbDictionary
  3
ACAD_DIMASSOC
350
11D
1001
ACAD
1000
TREAT_AS_HARD
1070
     1
  0
DICTIONARY
  5
14D
330
14C
100
AcDbDictionary
  3
ACAD_DIMASSOC
350
14E
1001
ACAD
1000
TREAT_AS_HARD
1070
     1
  0
DICTIONARY
  5
15C
330
15B
100
AcDbDictionary
  3
ACAD_DIMASSOC
350
15D
1001
ACAD
1000
TREAT_AS_HARD
1070
     1
  0
DICTIONARY
  5
180
330
17F
100
AcDbDictionary
  3
ACAD_DIMASSOC
350
181
1001
ACAD
1000
TREAT_AS_HARD
1070
     1
  0
DICTIONARY
  5
1A4
330
1A3
100
AcDbDictionary
  3
ACAD_DIMASSOC
350
1A5
1001
ACAD
1000
TREAT_AS_HARD
1070
     1
  0
DICTIONARY
  5
1B5
330
1B4
100
AcDbDictionary
  3
ACAD_DIMASSOC
350
1B6
1001
ACAD
1000
TREAT_AS_HARD
1070
     1
  0
DICTIONARY
  5
1C6
330
1C5
100
AcDbDictionary
  3
ACAD_DIMASSOC
350
1C7
1001
ACAD
1000
TREAT_AS_HARD
1070
     1
  0
DICTIONARY
  5
1F8
330
1F7
100
AcDbDictionary
  3
ACAD_DIMASSOC
350
1F9
1001
ACAD
1000
TREAT_AS_HARD
1070
     1
  0
DICTIONARY
  5
20C
330
20B
100
AcDbDictionary
  3
ACAD_DIMASSOC
350
20D
1001
ACAD
1000
TREAT_AS_HARD
1070
     1
  0
DICTIONARY
  5
25F
330
25E
100
AcDbDictionary
  3
ACAD_DIMASSOC
350
260
1001
ACAD
1000
TREAT_AS_HARD
1070
     1
  0
DICTIONARY
  5
283
330
282
100
AcDbDictionary
  3
ACAD_DIMASSOC
350
284
1001
ACAD
1000
TREAT_AS_HARD
1070
     1
  0
DICTIONARY
  5
2AA
330
2A9
100
AcDbDictionary
  3
ACAD_DIMASSOC
350
2AB
1001
ACAD
1000
TREAT_AS_HARD
1070
     1
  0
DICTIONARY
  5
2D1
330
2D0
100
AcDbDictionary
  3
ACAD_DIMASSOC
350
2D2
1001
ACAD
1000
TREAT_AS_HARD
1070
     1
  0
DICTIONARY
  5
2E5
330
2E4
100
AcDbDictionary
  3
ACAD_DIMASSOC
350
2E6
1001
ACAD
1000
TREAT_AS_HARD
1070
     1
  0
DICTIONARY
  5
30E
330
30D
100
AcDbDictionary
  3
ACAD_DIMASSOC
350
30F
1001
ACAD
1000
TREAT_AS_HARD
1070
     1
  0
DICTIONARY
  5
33B
330
33A
100
AcDbDictionary
  3
ACAD_DIMASSOC
350
33C
1001
ACAD
1000
TREAT_AS_HARD
1070
     1
  0
DICTIONARY
  5
97
102
{ACAD_REACTORS
330
8
102
}
330
8
100
AcDbDictionary
1001
ACAD
1000
TREAT_AS_HARD
1070
     0
  0
DICTIONARY
  5
C
102
{ACAD_REACTORS
330
8
102
}
330
8
100
AcDbDictionary
1001
ACAD
1000
TREAT_AS_HARD
1070
     0
  0
DICTIONARY
  5
98
102
{ACAD_REACTORS
330
8
102
}
330
8
100
AcDbDictionary
  3
STANDARD
350
9A
1001
ACAD
1000
TREAT_AS_HARD
1070
     0
  0
DICTIONARY
  5
99
102
{ACAD_REACTORS
330
8
102
}
330
8
100
AcDbDictionary
1001
ACAD
1000
TREAT_AS_HARD
1070
     0
  0
DICTIONARY
  5
14
102
{ACAD_REACTORS
330
13
102
}
330
13
100
AcDbDictionary
  3
$LAYERS
350
15
  3
-_UND_0
350
16
  3
-PEGC
350
17
  3
101
350
18
  3
102
350
19
  3
1DUC
350
1A
  3
1EQ
350
1B
  3
1TUB
350
1C
  3
2
350
1D
  3
2000
350
1E
  3
50
350
1F
  3
58J
350
20
  3
65
350
21
  3
AA
350
22
  3
ACABADOS
350
23
  3
AGUA_Y_DREN
350
24
  3
AIRE
350
25
  3
ALLE_AUS
350
26
  3
ALLES_MIT_S
350
27
  3
AMARILLO
350
28
  3
APAGADOS
350
29
  3
ARR
350
2A
  3
BA
350
2B
  3
BACKS
350
2C
  3
BASE
350
2D
  3
BLOQ_INUTIL
350
2E
  3
CADKON
350
2F
  3
CARPINTERIA
350
30
  3
CERRADOS
350
31
  3
COL
350
32
  3
COLOR
350
33
  3
COLOR_250
350
34
  3
COLORES
350
35
  3
CONGELADOS
350
36
  3
CONJUNTO
350
37
  3
D1
350
38
  3
DA_
350
39
  3
DET-
350
3A
  3
DOR-H
350
3B
  3
EJES
350
3C
  3
ELECTRICO
350
3D
  3
F1
350
3E
  3
FROZEN
350
3F
  3
GRID
350
40
  3
GRIDTXT
350
41
  3
HATCH
350
42
  3
HCAD
350
43
  3
INSTALACIONES
350
44
  3
JIZNI
350
45
  3
KCK
350
46
  3
KKK
350
47
  3
LAY
350
48
  3
LAYER-0
350
4C
  3
LAYER-1
350
4D
  3
LAYER_1_UND_0
350
49
  3
LAYER_2_UND_0
350
4A
  3
LAYER_9_UND_0_SCHRAFFUR
350
4B
  3
LOCK
350
4E
  3
LOCKED
350
4F
  3
LOTES
350
50
  3
LUNAR
350
51
  3
LUNAR2
350
52
  3
M
350
53
  3
MIS_LAYERS
350
54
  3
MRKCK
350
55
  3
NECADKON
350
56
  3
NI_LH
350
57
  3
NI_RH
350
58
  3
NUM
350
59
  3
OFF
350
5A
  3
ON
350
5B
  3
PBASE
350
5C
  3
PEGC
350
5D
  3
PEGCT
350
5E
  3
PFRAME
350
5F
  3
PGRID
350
60
  3
PGRIDT
350
61
  3
PLAFONES
350
62
  3
PLANTAS
350
63
  3
PLOT
350
64
  3
PRENDIDAS
350
65
  3
PRENDIDOS
350
66
  3
PRINT
350
67
  3
PT
350
68
  3
PTH
350
69
  3
PVGRID
350
6A
  3
RED_DE_AGUA_POTABLE
350
6B
  3
RED_DE_ENERGIA_ELECTRICA
350
6C
  3
SEVERNI
350
6D
  3
SHIN
350
6E
  3
SHOW_ALL_LAYER
350
6F
  3
SIN
350
70
  3
STORAGE-CART
350
71
  3
T
350
72
  3
TEXTOS
350
73
  3
TEXTURAS
350
74
  3
TUBERIAS
350
75
  3
UNFRZ
350
76
  3
V\U+0160ECHNY_NEPOU\U+017D\U+00CDVAN\U+00C9
350
77
  3
VA
350
78
  3
VENTILACI\U+00D3N
350
79
  3
VYHODNI
350
7A
  3
YO
350
7B
  3
ZAPADNI
350
7C
  3
사용
350
7D
  3
신규
350
7E
  3
실박스
350
7F
  3
우리토목
350
80
  3
주차
350
81
  3
지상정밀
350
82
  3
쩜선
350
83
  3
플로터_작업층
350
84
  3
현재_작업층
350
85
  3
현재_잠금
350
86
1001
ACAD
1000
TREAT_AS_HARD
1070
     1
  0
DICTIONARY
  5
87
102
{ACAD_REACTORS
330
13
102
}
330
13
100
AcDbDictionary
1001
ACAD
1000
TREAT_AS_HARD
1070
     0
  0
XRECORD
  5
4EA
102
{ACAD_REACTORS
330
3
102
}
330
3
100
AcDbXrecord
340
2
  0
XRECORD
  5
4EB
102
{ACAD_REACTORS
330
E
102
}
330
E
100
AcDbXrecord
340
D
  0
DIMASSOC
  5
100
102
{ACAD_REACTORS
330
FF
102
}
330
FF
100
AcDbDimAssoc
330
FE
 90
        2
 70
     0
 71
     0
  1
AcDbOsnapPointRef
 72
     3
331
FD
 73
     2
 91
        0
 40
0.0
 10
-0.0000000000009095
 20
0.0
 30
0.0
 75
     0
  0
DIMASSOC
  5
AB
102
{ACAD_REACTORS
330
AA
102
}
330
AA
100
AcDbDimAssoc
330
A9
 90
        3
 70
     0
 71
     0
  1
AcDbOsnapPointRef
 72
    13
331
F3
 73
     2
 91
        0
 40
0.0
 10
65.86574778189242
 20
27.4167822636673
 30
0.0
 75
     0
  1
AcDbOsnapPointRef
 72
     1
331
F3
 73
     2
 91
        0
 40
1.0
 10
49.29720528696998
 20
67.41678226366594
 30
0.0
 75
     0
  0
DIMASSOC
  5
C4
102
{ACAD_REACTORS
330
C3
102
}
330
C3
100
AcDbDimAssoc
330
C2
 90
        2
 70
     0
 71
     0
  1
AcDbOsnapPointRef
 72
     1
331
298
 73
     2
 91
        0
 40
1.0
 10
131.4879392840739
 20
235.2966617700808
 30
0.0
 75
     0
  0
DIMASSOC
  5
11D
102
{ACAD_REACTORS
330
11C
102
}
330
11C
100
AcDbDimAssoc
330
11B
 90
        3
 70
     0
 71
     0
  1
AcDbOsnapPointRef
 72
     1
331
11A
 73
     2
 91
        0
 40
1.0
 10
307.5064072615896
 20
106.9167822636882
 30
0.0
 75
     0
  1
AcDbOsnapPointRef
 72
    13
331
12F
 73
     2
 91
        0
 40
0.0
 10
307.5064072615896
 20
27.91678226368913
 30
0.0
 75
     0
  0
DIMASSOC
  5
14E
102
{ACAD_REACTORS
330
14D
102
}
330
14D
100
AcDbDimAssoc
330
14C
 90
        1
 70
     0
 71
     0
  1
AcDbOsnapPointRef
 72
     1
331
14B
 73
     2
 91
        0
 40
1.0
 10
155.0064072615896
 20
87.41678226368822
 30
0.0
 75
     0
  0
DIMASSOC
  5
15D
102
{ACAD_REACTORS
330
15C
102
}
330
15C
100
AcDbDimAssoc
330
15B
 90
        3
 70
     0
 71
     0
  1
AcDbOsnapPointRef
 72
    13
331
249
 73
     2
 91
        0
 40
0.0
 10
180.0064072615896
 20
87.41678226368913
 30
0.0
 75
     0
  1
AcDbOsnapPointRef
 72
     1
331
14B
 73
     2
 91
        0
 40
1.0
 10
155.0064072615896
 20
87.41678226368822
 30
0.0
 75
     0
  0
DIMASSOC
  5
181
102
{ACAD_REACTORS
330
180
102
}
330
180
100
AcDbDimAssoc
330
17F
 90
        3
 70
     0
 71
     0
  1
AcDbOsnapPointRef
 72
     2
331
190
 73
     2
 91
        0
 40
3.141592653589792
 10
19.78943587124012
 20
164.1349895187454
 30
0.0
 75
     0
  1
AcDbOsnapPointRef
 72
     1
331
18E
 73
     2
 91
        0
 40
1.0
 10
44.78943587124013
 20
166.1349895187454
 30
0.0
 75
     0
  0
DIMASSOC
  5
1A5
102
{ACAD_REACTORS
330
1A4
102
}
330
1A4
100
AcDbDimAssoc
330
1A3
 90
        3
 70
     0
 71
     0
  1
AcDbOsnapPointRef
 72
     1
331
1D8
 73
     2
 91
        0
 40
1.0
 10
110.8934688984991
 20
165.0346942317487
 30
0.0
 75
     0
  1
AcDbOsnapPointRef
 72
     5
331
1DD
 73
     2
 91
        0
 40
1.570796326794896
 10
108.8934688984991
 20
167.5346942317482
 30
0.0
 75
     0
  0
DIMASSOC
  5
1B6
102
{ACAD_REACTORS
330
1B5
102
}
330
1B5
100
AcDbDimAssoc
330
1B4
 90
        3
 70
     0
 71
     0
  1
AcDbOsnapPointRef
 72
    13
331
1DB
 73
     2
 91
        0
 40
0.0
 10
61.96008915796119
 20
166.1349895187454
 30
0.0
 75
     0
  1
AcDbOsnapPointRef
 72
    13
331
1DC
 73
     2
 91
        0
 40
0.0
 10
65.96008915796119
 20
166.1349895187454
 30
0.0
 75
     0
  0
DIMASSOC
  5
1C7
102
{ACAD_REACTORS
330
1C6
102
}
330
1C6
100
AcDbDimAssoc
330
1C5
 90
        3
 70
     0
 71
     0
  1
AcDbOsnapPointRef
 72
     1
331
1D7
 73
     2
 91
        0
 40
1.0
 10
106.8934688984991
 20
167.1172699267044
 30
0.0
 75
     0
  1
AcDbOsnapPointRef
 72
     1
331
1D6
 73
     2
 91
        0
 40
1.0
 10
110.8934688984991
 20
167.1172699267044
 30
0.0
 75
     0
  0
DIMASSOC
  5
1F9
102
{ACAD_REACTORS
330
1F8
102
}
330
1F8
100
AcDbDimAssoc
330
1F7
 90
        1
 70
     0
 71
     0
  1
AcDbOsnapPointRef
 72
     1
331
16A
 73
     2
 91
        0
 40
1.0
 10
151.1082684603607
 20
82.41678226368822
 30
0.0
 75
     0
  0
DIMASSOC
  5
20D
102
{ACAD_REACTORS
330
20C
102
}
330
20C
100
AcDbDimAssoc
330
20B
 90
        3
 70
     0
 71
     0
  1
AcDbOsnapPointRef
 72
     1
331
20A
 73
     2
 91
        0
 40
1.0
 10
155.0064072615896
 20
77.41678226368913
 30
0.0
 75
     0
  1
AcDbOsnapPointRef
 72
     6
331
20A
 73
     2
 91
        0
 40
0.0000000000000114
 10
155.0064072615896
 20
87.41678226368822
 30
0.0
332
14B
 74
     2
 92
        0
 75
     0
  0
DIMASSOC
  5
260
102
{ACAD_REACTORS
330
25F
102
}
330
25F
100
AcDbDimAssoc
330
25E
 90
        3
 70
     0
 71
     0
  1
AcDbOsnapPointRef
 72
    13
331
F1
 73
     2
 91
        0
 40
0.0
 10
229.5064072615896
 20
106.9167822636882
 30
0.0
 75
     0
  1
AcDbOsnapPointRef
 72
     1
331
259
 73
     2
 91
        0
 40
1.0
 10
236.5064072615896
 20
106.0155196052182
 30
0.0
 75
     0
  0
DIMASSOC
  5
284
102
{ACAD_REACTORS
330
283
102
}
330
283
100
AcDbDimAssoc
330
282
 90
        3
 70
     0
 71
     0
  1
AcDbOsnapPointRef
 72
     1
331
27F
 73
     2
 91
        0
 40
1.0
 10
201.8797464914241
 20
380.7260066534372
 30
0.0
 75
     0
  1
AcDbOsnapPointRef
 72
    13
331
27F
 73
     2
 91
        0
 40
0.0
 10
201.8797464914241
 20
453.7260066534381
 30
0.0
 75
     0
  0
DIMASSOC
  5
2AB
102
{ACAD_REACTORS
330
2AA
102
}
330
2AA
100
AcDbDimAssoc
330
2A9
 90
        3
 70
     0
 71
     0
  1
AcDbOsnapPointRef
 72
    13
331
2E2
 73
     2
 91
        0
 40
0.0
 10
222.1410598765578
 20
290.2966617700803
 30
0.0
 75
     0
  1
AcDbOsnapPointRef
 72
     1
331
2A7
 73
     2
 91
        0
 40
1.0
 10
197.1410598765578
 20
290.2966617700803
 30
0.0
 75
     0
  0
DIMASSOC
  5
2D2
102
{ACAD_REACTORS
330
2D1
102
}
330
2D1
100
AcDbDimAssoc
330
2D0
 90
        3
 70
     0
 71
     0
  1
AcDbOsnapPointRef
 72
     1
331
2CC
 73
     2
 91
        0
 40
1.0
 10
193.2429210753325
 20
285.2966617700804
 30
0.0
 75
     0
  1
AcDbOsnapPointRef
 72
    13
331
2DF
 73
     2
 91
        0
 40
0.0
 10
185.5333867424596
 20
270.2966617700803
 30
0.0
 75
     0
  0
DIMASSOC
  5
2E6
102
{ACAD_REACTORS
330
2E5
102
}
330
2E5
100
AcDbDimAssoc
330
2E4
 90
        3
 70
     0
 71
     0
  1
AcDbOsnapPointRef
 72
     1
331
2E3
 73
     2
 91
        0
 40
1.0
 10
197.1410598765578
 20
280.2966617700808
 30
0.0
 75
     0
  1
AcDbOsnapPointRef
 72
     6
331
2E3
 73
     2
 91
        0
 40
0.0000000000000114
 10
197.1410598765578
 20
290.2966617700803
 30
0.0
332
2A7
 74
     2
 92
        0
 75
     0
  0
DIMASSOC
  5
30F
102
{ACAD_REACTORS
330
30E
102
}
330
30E
100
AcDbDimAssoc
330
30D
 90
        3
 70
     0
 71
     0
  1
AcDbOsnapPointRef
 72
     1
331
309
 73
     2
 91
        0
 40
3.141592653589792
 10
62.68679802005135
 20
452.2260066534381
 30
0.0
 75
     0
  1
AcDbOsnapPointRef
 72
    13
331
30C
 73
     2
 91
        0
 40
0.0
 10
142.6867980200513
 20
452.2260066534381
 30
0.0
 75
     0
  0
DIMASSOC
  5
33C
102
{ACAD_REACTORS
330
33B
102
}
330
33B
100
AcDbDimAssoc
330
33A
 90
        3
 70
     0
 71
     0
  1
AcDbOsnapPointRef
 72
    13
331
31D
 73
     2
 91
        0
 40
0.0
 10
203.8797464914241
 20
457.2260066534381
 30
0.0
 75
     0
  1
AcDbOsnapPointRef
 72
     1
331
31D
 73
     2
 91
        0
 40
1.0
 10
235.8797464914241
 20
457.2260066534381
 30
0.0
 75
     0
  0
MLINESTYLE
  5
9A
102
{ACAD_REACTORS
330
98
102
}
330
98
100
AcDbMlineStyle
  2
STANDARD
 70
     0
  3

 62
   256
 51
90.0
 52
90.0
 71
     2
 49
0.5
 62
   256
  6
BYLAYER
 49
-0.5
 62
   256
  6
BYLAYER
  0
XRECORD
  5
15
102
{ACAD_REACTORS
330
14
102
}
330
14
100
AcDbXrecord
  1
$layers
  1
*
  1
*
  1
*
 70
     0
  1
*
  1
*
  0
XRECORD
  5
16
102
{ACAD_REACTORS
330
14
102
}
330
14
100
AcDbXrecord
  1
- und 0
  1
-*,0
  1
*
  1
*
 70
     0
  1
*
  1
*
  0
XRECORD
  5
17
102
{ACAD_REACTORS
330
14
102
}
330
14
100
AcDbXrecord
  1
-pegc
  1
*-pegc
  1
*
  1
*
 70
     0
  1
*
  1
*
  0
XRECORD
  5
18
102
{ACAD_REACTORS
330
14
102
}
330
14
100
AcDbXrecord
  1
101
  1
*101
  1
*
  1
*
 70
   256
  1
*
  1
*
  0
XRECORD
  5
19
102
{ACAD_REACTORS
330
14
102
}
330
14
100
AcDbXrecord
  1
102
  1
102*
  1
*
  1
*
 70
     0
  1
*
  1
*
  0
XRECORD
  5
1A
102
{ACAD_REACTORS
330
14
102
}
330
14
100
AcDbXrecord
  1
1duc
  1
*1duc*
  1
*
  1
*
 70
     0
  1
*
  1
*
  0
XRECORD
  5
1B
102
{ACAD_REACTORS
330
14
102
}
330
14
100
AcDbXrecord
  1
1eq
  1
*1eq*
  1
*
  1
*
 70
     0
  1
*
  1
*
  0
XRECORD
  5
1C
102
{ACAD_REACTORS
330
14
102
}
330
14
100
AcDbXrecord
  1
1tub
  1
*1t*
  1
*
  1
*
 70
     0
  1
*
  1
*
  0
XRECORD
  5
1D
102
{ACAD_REACTORS
330
14
102
}
330
14
100
AcDbXrecord
  1
2
  1
*
  1
2
  1
*
 70
     0
  1
*
  1
*
  0
XRECORD
  5
1E
102
{ACAD_REACTORS
330
14
102
}
330
14
100
AcDbXrecord
  1
2000
  1
2000*
  1
*
  1
*
 70
     0
  1
*
  1
*
  0
XRECORD
  5
1F
102
{ACAD_REACTORS
330
14
102
}
330
14
100
AcDbXrecord
  1
50
  1
*-50
  1
*
  1
*
 70
     0
  1
*
  1
*
  0
XRECORD
  5
20
102
{ACAD_REACTORS
330
14
102
}
330
14
100
AcDbXrecord
  1
58J
  1
*58*
  1
*
  1
*
 70
     0
  1
*
  1
*
  0
XRECORD
  5
21
102
{ACAD_REACTORS
330
14
102
}
330
14
100
AcDbXrecord
  1
65
  1
*65
  1
*
  1
*
 70
     0
  1
*
  1
*
  0
XRECORD
  5
22
102
{ACAD_REACTORS
330
14
102
}
330
14
100
AcDbXrecord
  1
aa
  1
aa*
  1
*
  1
*
 70
     0
  1
*
  1
*
  0
XRECORD
  5
23
102
{ACAD_REACTORS
330
14
102
}
330
14
100
AcDbXrecord
  1
acabados
  1
a-*
  1
*
  1
*
 70
     5
  1
*
  1
*
  0
XRECORD
  5
24
102
{ACAD_REACTORS
330
14
102
}
330
14
100
AcDbXrecord
  1
AGUA Y DREN
  1
A-DS-*
  1
*
  1
*
 70
     0
  1
*
  1
*
  0
XRECORD
  5
25
102
{ACAD_REACTORS
330
14
102
}
330
14
100
AcDbXrecord
  1
Aire
  1
*
  1
*
  1
*
 70
     0
  1
*
  1
*
  0
XRECORD
  5
26
102
{ACAD_REACTORS
330
14
102
}
330
14
100
AcDbXrecord
  1
alle aus
  1
99999999999
  1
*
  1
*
 70
     0
  1
*
  1
*
  0
XRECORD
  5
27
102
{ACAD_REACTORS
330
14
102
}
330
14
100
AcDbXrecord
  1
Alles mit S
  1
s*
  1
*
  1
*
 70
     0
  1
*
  1
*
  0
XRECORD
  5
28
102
{ACAD_REACTORS
330
14
102
}
330
14
100
AcDbXrecord
  1
amarillo
  1
*
  1
yellow
  1
*
 70
     0
  1
*
  1
*
  0
XRECORD
  5
29
102
{ACAD_REACTORS
330
14
102
}
330
14
100
AcDbXrecord
  1
APAGADOS
  1
*
  1
*
  1
*
 70
     4
  1
*
  1
*
  0
XRECORD
  5
2A
102
{ACAD_REACTORS
330
14
102
}
330
14
100
AcDbXrecord
  1
ARR
  1
ARR*
  1
*
  1
*
 70
     0
  1
*
  1
*
  0
XRECORD
  5
2B
102
{ACAD_REACTORS
330
14
102
}
330
14
100
AcDbXrecord
  1
ba
  1
*
  1
*
  1
*
 70
     0
  1
*
  1
*
  0
XRECORD
  5
2C
102
{ACAD_REACTORS
330
14
102
}
330
14
100
AcDbXrecord
  1
BACKS
  1
*-H
  1
*
  1
*
 70
     0
  1
*
  1
*
  0
XRECORD
  5
2D
102
{ACAD_REACTORS
330
14
102
}
330
14
100
AcDbXrecord
  1
BASE
  1
*-PBASE
  1
*
  1
*
 70
     0
  1
*
  1
*
  0
XRECORD
  5
2E
102
{ACAD_REACTORS
330
14
102
}
330
14
100
AcDbXrecord
  1
BLOQ_INUTIL
  1
*
  1
*
  1
*
 70
     0
  1
*
  1
*
  0
XRECORD
  5
2F
102
{ACAD_REACTORS
330
14
102
}
330
14
100
AcDbXrecord
  1
CADKON
  1
?[KAHBSM]?????[23M],?[KAHBSM]?????[23M][1456A-DGHILN-SU-Z]
  1
*
  1
*
 70
     0
  1
*
  1
*
  0
XRECORD
  5
30
102
{ACAD_REACTORS
330
14
102
}
330
14
100
AcDbXrecord
  1
carpinteria
  1
carp*
  1
*
  1
*
 70
     0
  1
*
  1
*
  0
XRECORD
  5
31
102
{ACAD_REACTORS
330
14
102
}
330
14
100
AcDbXrecord
  1
cerrados
  1
*
  1
*
  1
*
 70
   256
  1
*
  1
*
  0
XRECORD
  5
32
102
{ACAD_REACTORS
330
14
102
}
330
14
100
AcDbXrecord
  1
COL
  1
*
  1
*
  1
*
 70
     1
  1
*
  1
*
  0
XRECORD
  5
33
102
{ACAD_REACTORS
330
14
102
}
330
14
100
AcDbXrecord
  1
COLOR
  1
*
  1
253
  1
*
 70
     0
  1
*
  1
*
  0
XRECORD
  5
34
102
{ACAD_REACTORS
330
14
102
}
330
14
100
AcDbXrecord
  1
color 250
  1
*
  1
250
  1
*
 70
     0
  1
*
  1
*
  0
XRECORD
  5
35
102
{ACAD_REACTORS
330
14
102
}
330
14
100
AcDbXrecord
  1
COLORES
  1
*
  1
6
  1
*
 70
     0
  1
*
  1
*
  0
XRECORD
  5
36
102
{ACAD_REACTORS
330
14
102
}
330
14
100
AcDbXrecord
  1
Congelados
  1
*
  1
*
  1
*
 70
     4
  1
*
  1
*
  0
XRECORD
  5
37
102
{ACAD_REACTORS
330
14
102
}
330
14
100
AcDbXrecord
  1
CONJUNTO
  1
CON-*
  1
*
  1
*
 70
     0
  1
*
  1
*
  0
XRECORD
  5
38
102
{ACAD_REACTORS
330
14
102
}
330
14
100
AcDbXrecord
  1
d1
  1
achurados
  1
*
  1
*
 70
     0
  1
*
  1
*
  0
XRECORD
  5
39
102
{ACAD_REACTORS
330
14
102
}
330
14
100
AcDbXrecord
  1
DA_
  1
DA*
  1
*
  1
*
 70
     0
  1
*
  1
*
  0
XRECORD
  5
3A
102
{ACAD_REACTORS
330
14
102
}
330
14
100
AcDbXrecord
  1
DET-
  1
*
  1
*
  1
*
 70
     0
  1
*
  1
*
  0
XRECORD
  5
3B
102
{ACAD_REACTORS
330
14
102
}
330
14
100
AcDbXrecord
  1
DOR-H
  1
*
  1
7
  1
*
 70
     0
  1
*
  1
*
  0
XRECORD
  5
3C
102
{ACAD_REACTORS
330
14
102
}
330
14
100
AcDbXrecord
  1
ejes
  1
eje*
  1
*
  1
*
 70
     0
  1
*
  1
*
  0
XRECORD
  5
3D
102
{ACAD_REACTORS
330
14
102
}
330
14
100
AcDbXrecord
  1
ELECTRICO
  1
ELEC-*
  1
*
  1
*
 70
     0
  1
*
  1
*
  0
XRECORD
  5
3E
102
{ACAD_REACTORS
330
14
102
}
330
14
100
AcDbXrecord
  1
F1
  1
Halaxref*
  1
*
  1
*
 70
     0
  1
*
  1
*
  0
XRECORD
  5
3F
102
{ACAD_REACTORS
330
14
102
}
330
14
100
AcDbXrecord
  1
frozen
  1
*
  1
*
  1
*
 70
     4
  1
*
  1
*
  0
XRECORD
  5
40
102
{ACAD_REACTORS
330
14
102
}
330
14
100
AcDbXrecord
  1
grid
  1
*-PGRID
  1
*
  1
*
 70
     1
  1
*
  1
*
  0
XRECORD
  5
41
102
{ACAD_REACTORS
330
14
102
}
330
14
100
AcDbXrecord
  1
GRIDTXT
  1
*-PGRIDT
  1
*
  1
*
 70
     0
  1
*
  1
*
  0
XRECORD
  5
42
102
{ACAD_REACTORS
330
14
102
}
330
14
100
AcDbXrecord
  1
HATCH
  1
HAT*
  1
*
  1
*
 70
     0
  1
*
  1
*
  0
XRECORD
  5
43
102
{ACAD_REACTORS
330
14
102
}
330
14
100
AcDbXrecord
  1
HCAD
  1
1HCAD-*
  1
*
  1
*
 70
    13
  1
*
  1
*
  0
XRECORD
  5
44
102
{ACAD_REACTORS
330
14
102
}
330
14
100
AcDbXrecord
  1
INSTALACIONES
  1
I-*
  1
*
  1
*
 70
     0
  1
*
  1
*
  0
XRECORD
  5
45
102
{ACAD_REACTORS
330
14
102
}
330
14
100
AcDbXrecord
  1
JIZNI
  1
*-J
  1
*
  1
*
 70
     0
  1
*
  1
*
  0
XRECORD
  5
46
102
{ACAD_REACTORS
330
14
102
}
330
14
100
AcDbXrecord
  1
kck
  1
*
  1
*
  1
*
 70
     0
  1
*
  1
*
  0
XRECORD
  5
47
102
{ACAD_REACTORS
330
14
102
}
330
14
100
AcDbXrecord
  1
kkk
  1
k
  1
*
  1
*
 70
     0
  1
*
  1
*
  0
XRECORD
  5
48
102
{ACAD_REACTORS
330
14
102
}
330
14
100
AcDbXrecord
  1
lay
  1
??-*
  1
*
  1
*
 70
     0
  1
*
  1
*
  0
XRECORD
  5
4C
102
{ACAD_REACTORS
330
14
102
}
330
14
100
AcDbXrecord
  1
Layer-0
  1
0*
  1
*
  1
*
 70
     0
  1
*
  1
*
  0
XRECORD
  5
4D
102
{ACAD_REACTORS
330
14
102
}
330
14
100
AcDbXrecord
  1
Layer-1
  1
1*
  1
*
  1
*
 70
     0
  1
*
  1
*
  0
XRECORD
  5
49
102
{ACAD_REACTORS
330
14
102
}
330
14
100
AcDbXrecord
  1
Layer 1 und 0
  1
1*,0
  1
*
  1
*
 70
     0
  1
*
  1
*
  0
XRECORD
  5
4A
102
{ACAD_REACTORS
330
14
102
}
330
14
100
AcDbXrecord
  1
Layer 2 und 0
  1
2*,0
  1
*
  1
*
 70
     0
  1
*
  1
*
  0
XRECORD
  5
4B
102
{ACAD_REACTORS
330
14
102
}
330
14
100
AcDbXrecord
  1
Layer 9 und 0 Schraffur
  1
9*,0
  1
*
  1
*
 70
     0
  1
*
  1
*
  0
XRECORD
  5
4E
102
{ACAD_REACTORS
330
14
102
}
330
14
100
AcDbXrecord
  1
LOCK
  1
*
  1
*
  1
*
 70
   256
  1
*
  1
*
  0
XRECORD
  5
4F
102
{ACAD_REACTORS
330
14
102
}
330
14
100
AcDbXrecord
  1
locked
  1
*
  1
*
  1
*
 70
   256
  1
*
  1
*
  0
XRECORD
  5
50
102
{ACAD_REACTORS
330
14
102
}
330
14
100
AcDbXrecord
  1
Lotes
  1
*
  1
*
  1
*
 70
     1
  1
*
  1
*
  0
XRECORD
  5
51
102
{ACAD_REACTORS
330
14
102
}
330
14
100
AcDbXrecord
  1
LUNAR
  1
*
  1
*
  1
*
 70
    48
  1
*
  1
*
  0
XRECORD
  5
52
102
{ACAD_REACTORS
330
14
102
}
330
14
100
AcDbXrecord
  1
LUNAR2
  1
*
  1
*
  1
*
 70
    12
  1
*
  1
*
  0
XRECORD
  5
53
102
{ACAD_REACTORS
330
14
102
}
330
14
100
AcDbXrecord
  1
M
  1
M*
  1
*
  1
*
 70
     0
  1
*
  1
*
  0
XRECORD
  5
54
102
{ACAD_REACTORS
330
14
102
}
330
14
100
AcDbXrecord
  1
mis_layers
  1
mis_*
  1
*
  1
*
 70
     0
  1
*
  1
*
  0
XRECORD
  5
55
102
{ACAD_REACTORS
330
14
102
}
330
14
100
AcDbXrecord
  1
MRKCK
  1
*
  1
*
  1
*
 70
     0
  1
*
  1
*
  0
XRECORD
  5
56
102
{ACAD_REACTORS
330
14
102
}
330
14
100
AcDbXrecord
  1
NECADKON
  1
~*?[KAHBSM]?????[23M]*
  1
*
  1
*
 70
     0
  1
*
  1
*
  0
XRECORD
  5
57
102
{ACAD_REACTORS
330
14
102
}
330
14
100
AcDbXrecord
  1
NI_LH
  1
NI_LH*
  1
*
  1
*
 70
     0
  1
*
  1
*
  0
XRECORD
  5
58
102
{ACAD_REACTORS
330
14
102
}
330
14
100
AcDbXrecord
  1
NI_RH
  1
NI_RH*
  1
*
  1
*
 70
     0
  1
*
  1
*
  0
XRECORD
  5
59
102
{ACAD_REACTORS
330
14
102
}
330
14
100
AcDbXrecord
  1
NUM
  1
NUM*
  1
*
  1
*
 70
     0
  1
*
  1
*
  0
XRECORD
  5
5A
102
{ACAD_REACTORS
330
14
102
}
330
14
100
AcDbXrecord
  1
off
  1
*
  1
*
  1
*
 70
     3
  1
*
  1
*
  0
XRECORD
  5
5B
102
{ACAD_REACTORS
330
14
102
}
330
14
100
AcDbXrecord
  1
on
  1
*
  1
*
  1
*
 70
     0
  1
*
  1
*
  0
XRECORD
  5
5C
102
{ACAD_REACTORS
330
14
102
}
330
14
100
AcDbXrecord
  1
PBASE
  1
*PBASE
  1
*
  1
*
 70
     0
  1
*
  1
*
  0
XRECORD
  5
5D
102
{ACAD_REACTORS
330
14
102
}
330
14
100
AcDbXrecord
  1
PEGC
  1
*PEGC
  1
*
  1
*
 70
     0
  1
*
  1
*
  0
XRECORD
  5
5E
102
{ACAD_REACTORS
330
14
102
}
330
14
100
AcDbXrecord
  1
PEGCT
  1
*PEGCT
  1
*
  1
*
 70
     0
  1
*
  1
*
  0
XRECORD
  5
5F
102
{ACAD_REACTORS
330
14
102
}
330
14
100
AcDbXrecord
  1
PFRAME
  1
PFRAME*
  1
*
  1
*
 70
     0
  1
*
  1
*
  0
XRECORD
  5
60
102
{ACAD_REACTORS
330
14
102
}
330
14
100
AcDbXrecord
  1
PGRID
  1
*PGRID
  1
*
  1
*
 70
     0
  1
*
  1
*
  0
XRECORD
  5
61
102
{ACAD_REACTORS
330
14
102
}
330
14
100
AcDbXrecord
  1
PGRIDT
  1
*PGRIDT
  1
*
  1
*
 70
     0
  1
*
  1
*
  0
XRECORD
  5
62
102
{ACAD_REACTORS
330
14
102
}
330
14
100
AcDbXrecord
  1
PLAFONES
  1
0-*
  1
*
  1
*
 70
     0
  1
*
  1
*
  0
XRECORD
  5
63
102
{ACAD_REACTORS
330
14
102
}
330
14
100
AcDbXrecord
  1
PLANTAS
  1
P-*
  1
*
  1
*
 70
     0
  1
*
  1
*
  0
XRECORD
  5
64
102
{ACAD_REACTORS
330
14
102
}
330
14
100
AcDbXrecord
  1
Plot
  1
*
  1
*
  1
*
 70
  1024
  1
*
  1
*
  0
XRECORD
  5
65
102
{ACAD_REACTORS
330
14
102
}
330
14
100
AcDbXrecord
  1
PRENDIDAS
  1
*
  1
*
  1
*
 70
    13
  1
*
  1
*
  0
XRECORD
  5
66
102
{ACAD_REACTORS
330
14
102
}
330
14
100
AcDbXrecord
  1
PRENDIDOS
  1
*
  1
*
  1
*
 70
    12
  1
*
  1
*
  0
XRECORD
  5
67
102
{ACAD_REACTORS
330
14
102
}
330
14
100
AcDbXrecord
  1
print
  1
*
  1
7
  1
*
 70
  1280
  1
*
  1
*
  0
XRECORD
  5
68
102
{ACAD_REACTORS
330
14
102
}
330
14
100
AcDbXrecord
  1
PT
  1
PT-*
  1
*
  1
*
 70
     0
  1
*
  1
*
  0
XRECORD
  5
69
102
{ACAD_REACTORS
330
14
102
}
330
14
100
AcDbXrecord
  1
PTH
  1
PTH*
  1
*
  1
*
 70
     0
  1
*
  1
*
  0
XRECORD
  5
6A
102
{ACAD_REACTORS
330
14
102
}
330
14
100
AcDbXrecord
  1
PVGRID
  1
*PVGRID
  1
*
  1
*
 70
     0
  1
*
  1
*
  0
XRECORD
  5
6B
102
{ACAD_REACTORS
330
14
102
}
330
14
100
AcDbXrecord
  1
Red de Agua Potable
  1
Red de Agua Potable
  1
*
  1
*
 70
     1
  1
*
  1
*
  0
XRECORD
  5
6C
102
{ACAD_REACTORS
330
14
102
}
330
14
100
AcDbXrecord
  1
Red de Energia Electrica
  1
Lotes
  1
*
  1
*
 70
     1
  1
*
  1
*
  0
XRECORD
  5
6D
102
{ACAD_REACTORS
330
14
102
}
330
14
100
AcDbXrecord
  1
SEVERNI
  1
*-S
  1
*
  1
*
 70
     0
  1
*
  1
*
  0
XRECORD
  5
6E
102
{ACAD_REACTORS
330
14
102
}
330
14
100
AcDbXrecord
  1
shin
  1
일*
  1
*
  1
*
 70
     0
  1
*
  1
*
  0
XRECORD
  5
6F
102
{ACAD_REACTORS
330
14
102
}
330
14
100
AcDbXrecord
  1
SHOW ALL LAYER
  1
*
  1
*
  1
*
 70
     0
  1
*
  1
*
  0
XRECORD
  5
70
102
{ACAD_REACTORS
330
14
102
}
330
14
100
AcDbXrecord
  1
sin
  1
sin
  1
*
  1
*
 70
     0
  1
*
  1
*
  0
XRECORD
  5
71
102
{ACAD_REACTORS
330
14
102
}
330
14
100
AcDbXrecord
  1
STORAGE-CART
  1
STORAGE-CART*
  1
*
  1
*
 70
     0
  1
*
  1
*
  0
XRECORD
  5
72
102
{ACAD_REACTORS
330
14
102
}
330
14
100
AcDbXrecord
  1
T
  1
T*
  1
*
  1
*
 70
     0
  1
*
  1
*
  0
XRECORD
  5
73
102
{ACAD_REACTORS
330
14
102
}
330
14
100
AcDbXrecord
  1
TEXTOS
  1
TXT*
  1
*
  1
*
 70
     0
  1
*
  1
*
  0
XRECORD
  5
74
102
{ACAD_REACTORS
330
14
102
}
330
14
100
AcDbXrecord
  1
TEXTURAS
  1
*TEXTURAS
  1
*
  1
*
 70
     0
  1
*
  1
*
  0
XRECORD
  5
75
102
{ACAD_REACTORS
330
14
102
}
330
14
100
AcDbXrecord
  1
TUBERIAS
  1
T*
  1
*
  1
*
 70
     0
  1
*
  1
*
  0
XRECORD
  5
76
102
{ACAD_REACTORS
330
14
102
}
330
14
100
AcDbXrecord
  1
UNFRZ
  1
*
  1
*
  1
*
 70
    12
  1
*
  1
*
  0
XRECORD
  5
77
102
{ACAD_REACTORS
330
14
102
}
330
14
100
AcDbXrecord
  1
v\U+0161echny nepou\U+017E\U+00EDvan\U+00E9
  1
*
  1
*
  1
*
 70
     0
  1
*
  1
*
  0
XRECORD
  5
78
102
{ACAD_REACTORS
330
14
102
}
330
14
100
AcDbXrecord
  1
VA
  1
VA*
  1
*
  1
*
 70
     0
  1
*
  1
*
  0
XRECORD
  5
79
102
{ACAD_REACTORS
330
14
102
}
330
14
100
AcDbXrecord
  1
Ventilaci\U+00F3n
  1
*
  1
*
  1
*
 70
     0
  1
*
  1
*
  0
XRECORD
  5
7A
102
{ACAD_REACTORS
330
14
102
}
330
14
100
AcDbXrecord
  1
VYHODNI
  1
*-V
  1
*
  1
*
 70
     0
  1
*
  1
*
  0
XRECORD
  5
7B
102
{ACAD_REACTORS
330
14
102
}
330
14
100
AcDbXrecord
  1
Yo
  1
Muros
  1
*
  1
*
 70
     0
  1
*
  1
*
  0
XRECORD
  5
7C
102
{ACAD_REACTORS
330
14
102
}
330
14
100
AcDbXrecord
  1
ZAPADNI
  1
*-Z
  1
*
  1
*
 70
     0
  1
*
  1
*
  0
XRECORD
  5
7D
102
{ACAD_REACTORS
330
14
102
}
330
14
100
AcDbXrecord
  1
사용
  1
*
  1
*
  1
*
 70
   256
  1
*
  1
*
  0
XRECORD
  5
7E
102
{ACAD_REACTORS
330
14
102
}
330
14
100
AcDbXrecord
  1
신규
  1
신규
  1
*
  1
*
 70
     0
  1
*
  1
*
  0
XRECORD
  5
7F
102
{ACAD_REACTORS
330
14
102
}
330
14
100
AcDbXrecord
  1
실박스
  1
BLO,SYM,SYM1,SYM2
  1
*
  1
*
 70
     0
  1
*
  1
*
  0
XRECORD
  5
80
102
{ACAD_REACTORS
330
14
102
}
330
14
100
AcDbXrecord
  1
우리토목
  1
w-*
  1
*
  1
*
 70
     0
  1
*
  1
*
  0
XRECORD
  5
81
102
{ACAD_REACTORS
330
14
102
}
330
14
100
AcDbXrecord
  1
주차
  1
car*
  1
*
  1
*
 70
     0
  1
*
  1
*
  0
XRECORD
  5
82
102
{ACAD_REACTORS
330
14
102
}
330
14
100
AcDbXrecord
  1
지상정밀
  1
*
  1
*
  1
*
 70
     0
  1
*
  1
*
  0
XRECORD
  5
83
102
{ACAD_REACTORS
330
14
102
}
330
14
100
AcDbXrecord
  1
쩜선
  1
*
  1
*
  1
*
 70
     0
  1
*
  1
*
  0
XRECORD
  5
84
102
{ACAD_REACTORS
330
14
102
}
330
14
100
AcDbXrecord
  1
플로터 작업층
  1
*
  1
*
  1
*
 70
  1025
  1
*
  1
*
  0
XRECORD
  5
85
102
{ACAD_REACTORS
330
14
102
}
330
14
100
AcDbXrecord
  1
현재 작업층
  1
*
  1
*
  1
*
 70
     1
  1
*
  1
*
  0
XRECORD
  5
86
102
{ACAD_REACTORS
330
14
102
}
330
14
100
AcDbXrecord
  1
현재 잠금
  1
*
  1
*
  1
*
 70
   257
  1
*
  1
*
  0
ENDSEC
  0
EOF
