  0
SECTION
  2
HEADER
  9
$ACADVER
  1
AC1012
  9
$DWGCODEPAGE
  3
ksc5601
  9
$INSBASE
 10
0.0
 20
0.0
 30
0.0
  9
$EXTMIN
 10
-7.89301303110551
 20
-22.35466066385924
 30
-0.0000000000119164
  9
$EXTMAX
 10
303.0623366080108
 20
447.8102221246772
 30
0.0000000000664171
  9
$LIMMIN
 10
0.0
 20
0.0
  9
$LIMMAX
 10
420.0
 20
297.0
  9
$ORTHOMODE
 70
     0
  9
$REGENMODE
 70
     1
  9
$FILLMODE
 70
     1
  9
$QTEXTMODE
 70
     0
  9
$MIRRTEXT
 70
     0
  9
$DRAGMODE
 70
     2
  9
$LTSCALE
 40
0.2
  9
$OSMODE
 70
   567
  9
$ATTMODE
 70
     1
  9
$TEXTSIZE
 40
5.777225951253058
  9
$TRACEWID
 40
1.0
  9
$TEXTSTYLE
  7
STANDARD
  9
$CLAYER
  8
0
  9
$CELTYPE
  6
BYLAYER
  9
$CECOLOR
 62
   256
  9
$CELTSCALE
 40
1.0
  9
$DELOBJ
 70
     1
  9
$DISPSILH
 70
     0
  9
$DIMSCALE
 40
1.0
  9
$DIMASZ
 40
3.0
  9
$DIMEXO
 40
1.0
  9
$DIMDLI
 40
10.0
  9
$DIMRND
 40
0.0
  9
$DIMDLE
 40
0.0
  9
$DIMEXE
 40
0.6
  9
$DIMTP
 40
0.0
  9
$DIMTM
 40
0.0
  9
$DIMTXT
 40
3.5
  9
$DIMCEN
 40
0.09
  9
$DIMTSZ
 40
0.0
  9
$DIMTOL
 70
     0
  9
$DIMLIM
 70
     0
  9
$DIMTIH
 70
     0
  9
$DIMTOH
 70
     0
  9
$DIMSE1
 70
     0
  9
$DIMSE2
 70
     0
  9
$DIMTAD
 70
     1
  9
$DIMZIN
 70
     8
  9
$DIMBLK
  1

  9
$DIMASO
 70
     1
  9
$DIMSHO
 70
     1
  9
$DIMPOST
  1

  9
$DIMAPOST
  1

  9
$DIMALT
 70
     0
  9
$DIMALTD
 70
     2
  9
$DIMALTF
 40
25.4
  9
$DIMLFAC
 40
1.0
  9
$DIMTOFL
 70
     1
  9
$DIMTVP
 40
0.0
  9
$DIMTIX
 70
     1
  9
$DIMSOXD
 70
     0
  9
$DIMSAH
 70
     0
  9
$DIMBLK1
  1

  9
$DIMBLK2
  1

  9
$DIMSTYLE
  2
1_1_2
  9
$DIMCLRD
 70
   123
  9
$DIMCLRE
 70
   123
  9
$DIMCLRT
 70
     3
  9
$DIMTFAC
 40
1.0
  9
$DIMGAP
 40
1.0
  9
$DIMJUST
 70
     0
  9
$DIMSD1
 70
     0
  9
$DIMSD2
 70
     0
  9
$DIMTOLJ
 70
     1
  9
$DIMTZIN
 70
     0
  9
$DIMALTZ
 70
     0
  9
$DIMALTTZ
 70
     0
  9
$DIMFIT
 70
     0
  9
$DIMUPT
 70
     1
  9
$DIMUNIT
 70
     2
  9
$DIMDEC
 70
     2
  9
$DIMTDEC
 70
     2
  9
$DIMALTU
 70
     2
  9
$DIMALTTD
 70
     2
  9
$DIMTXSTY
  7
STANDARD
  9
$DIMAUNIT
 70
     1
  9
$LUNITS
 70
     2
  9
$LUPREC
 70
     4
  9
$SKETCHINC
 40
1.0
  9
$FILLETRAD
 40
0.5
  9
$AUNITS
 70
     0
  9
$AUPREC
 70
     0
  9
$MENU
  1
.
  9
$ELEVATION
 40
0.0
  9
$PELEVATION
 40
0.0
  9
$THICKNESS
 40
0.0
  9
$LIMCHECK
 70
     0
  9
$BLIPMODE
 70
     1
  9
$CHAMFERA
 40
1.0
  9
$CHAMFERB
 40
1.0
  9
$CHAMFERC
 40
20.0
  9
$CHAMFERD
 40
0.0
  9
$SKPOLY
 70
     0
  9
$TDCREATE
 40
2452839.586179271
  9
$TDUPDATE
 40
2453376.706862870
  9
$TDINDWG
 40
11.1196160069
  9
$TDUSRTIMER
 40
11.1196158218
  9
$USRTIMER
 70
     1
  9
$ANGBASE
 50
0.0
  9
$ANGDIR
 70
     0
  9
$PDMODE
 70
     0
  9
$PDSIZE
 40
0.0
  9
$PLINEWID
 40
0.0
  9
$COORDS
 70
     2
  9
$SPLFRAME
 70
     0
  9
$SPLINETYPE
 70
     6
  9
$SPLINESEGS
 70
   800
  9
$ATTDIA
 70
     0
  9
$ATTREQ
 70
     1
  9
$HANDLING
 70
 22529
  9
$HANDSEED
  5
521
  9
$SURFTAB1
 70
     6
  9
$SURFTAB2
 70
     6
  9
$SURFTYPE
 70
     6
  9
$SURFU
 70
     6
  9
$SURFV
 70
     6
  9
$UCSNAME
  2

  9
$UCSORG
 10
0.0
 20
0.0
 30
0.0
  9
$UCSXDIR
 10
1.0
 20
0.0
 30
0.0
  9
$UCSYDIR
 10
0.0
 20
1.0
 30
0.0
  9
$PUCSNAME
  2

  9
$PUCSORG
 10
0.0
 20
0.0
 30
0.0
  9
$PUCSXDIR
 10
1.0
 20
0.0
 30
0.0
  9
$PUCSYDIR
 10
0.0
 20
1.0
 30
0.0
  9
$USERI1
 70
     0
  9
$USERI2
 70
     0
  9
$USERI3
 70
     0
  9
$USERI4
 70
     0
  9
$USERI5
 70
     0
  9
$USERR1
 40
0.0
  9
$USERR2
 40
0.0
  9
$USERR3
 40
0.0
  9
$USERR4
 40
0.0
  9
$USERR5
 40
0.0
  9
$WORLDVIEW
 70
     1
  9
$SHADEDGE
 70
     3
  9
$SHADEDIF
 70
    70
  9
$TILEMODE
 70
     1
  9
$MAXACTVP
 70
    48
  9
$PINSBASE
 10
0.0
 20
0.0
 30
0.0
  9
$PLIMCHECK
 70
     0
  9
$PEXTMIN
 10
0.0
 20
0.0
 30
0.0
  9
$PEXTMAX
 10
0.0
 20
0.0
 30
0.0
  9
$PLIMMIN
 10
0.0
 20
0.0
  9
$PLIMMAX
 10
12.0
 20
9.0
  9
$UNITMODE
 70
     0
  9
$VISRETAIN
 70
     1
  9
$PLINEGEN
 70
     0
  9
$PSLTSCALE
 70
     1
  9
$TREEDEPTH
 70
  3020
  9
$PICKSTYLE
 70
     0
  9
$CMLSTYLE
  2
STANDARD
  9
$CMLJUST
 70
     0
  9
$CMLSCALE
 40
20.0
  9
$SAVEIMAGES
 70
     1
  0
ENDSEC
  0
SECTION
  2
CLASSES
  0
CLASS
  1
ACDBDICTIONARYWDFLT
  2
AcDbDictionaryWithDefault
  3
AutoCAD 2000
 90
    32768
280
     0
281
     0
  0
CLASS
  1
ACDBPLACEHOLDER
  2
AcDbPlaceHolder
  3
AutoCAD 2000
 90
    32768
280
     0
281
     0
  0
CLASS
  1
LAYOUT
  2
AcDbLayout
  3
AutoCAD 2000
 90
    32768
280
     0
281
     0
  0
CLASS
  1
DICTIONARYVAR
  2
AcDbDictionaryVar
  3
AutoCAD 2000
 90
    32768
280
     0
281
     0
  0
CLASS
  1
DIMASSOC
  2
AcDbDimAssoc
  3
"AcDbDimAssoc|Product Desc:     AcDim ARX App For Dimension|Company:          Autodesk, Inc.|WEB Address:      www.autodesk.com"
 90
    32768
280
     0
281
     0
  0
CLASS
  1
LONG_TRANSACTION
  2
AcDbLongTransaction
  3
AutoCAD 2000
 90
    32768
280
     0
281
     0
  0
CLASS
  1
LWPOLYLINE
  2
AcDbPolyline
  3
AutoCAD 2000
 90
    32768
280
     0
281
     1
  0
CLASS
  1
HATCH
  2
AcDbHatch
  3
AutoCAD 2000
 90
    32768
280
     0
281
     1
  0
CLASS
  1
XRECORD
  2
AcDbXrecord
  3
AutoCAD 2000
 90
    32768
280
     0
281
     0
  0
CLASS
  1
LONG_TRANSACTION
  2
AcDbLongTransaction
  3
AutoCAD 2000
 90
    32768
280
     0
281
     0
  0
CLASS
  1
LWPOLYLINE
  2
AcDbPolyline
  3
AutoCAD 2000
 90
    32768
280
     0
281
     1
  0
CLASS
  1
HATCH
  2
AcDbHatch
  3
AutoCAD 2000
 90
    32768
280
     0
281
     1
  0
CLASS
  1
XRECORD
  2
AcDbXrecord
  3
AutoCAD 2000
 90
    32768
280
     0
281
     0
  0
CLASS
  1
LONG_TRANSACTION
  2
AcDbLongTransaction
  3
AutoCAD 2000
 90
    32768
280
     0
281
     0
  0
CLASS
  1
LWPOLYLINE
  2
AcDbPolyline
  3
AutoCAD 2000
 90
    32768
280
     0
281
     1
  0
CLASS
  1
HATCH
  2
AcDbHatch
  3
AutoCAD 2000
 90
    32768
280
     0
281
     1
  0
CLASS
  1
XRECORD
  2
AcDbXrecord
  3
AutoCAD 2000
 90
    32768
280
     0
281
     0
  0
CLASS
  1
LONG_TRANSACTION
  2
AcDbLongTransaction
  3
AutoCAD 2000
 90
    32768
280
     0
281
     0
  0
CLASS
  1
LWPOLYLINE
  2
AcDbPolyline
  3
AutoCAD 2000
 90
    32768
280
     0
281
     1
  0
CLASS
  1
HATCH
  2
AcDbHatch
  3
AutoCAD 2000
 90
    32768
280
     0
281
     1
  0
CLASS
  1
XRECORD
  2
AcDbXrecord
  3
AutoCAD 2000
 90
    32768
280
     0
281
     0
  0
CLASS
  1
LONG_TRANSACTION
  2
AcDbLongTransaction
  3
AutoCAD 2000
 90
    32768
280
     0
281
     0
  0
CLASS
  1
LWPOLYLINE
  2
AcDbPolyline
  3
AutoCAD 2000
 90
    32768
280
     0
281
     1
  0
CLASS
  1
HATCH
  2
AcDbHatch
  3
AutoCAD 2000
 90
    32768
280
     0
281
     1
  0
CLASS
  1
XRECORD
  2
AcDbXrecord
  3
AutoCAD 2000
 90
    32768
280
     0
281
     0
  0
CLASS
  1
LONG_TRANSACTION
  2
AcDbLongTransaction
  3
AutoCAD 2000
 90
    32768
280
     0
281
     0
  0
CLASS
  1
LWPOLYLINE
  2
AcDbPolyline
  3
AutoCAD 2000
 90
    32768
280
     0
281
     1
  0
CLASS
  1
HATCH
  2
AcDbHatch
  3
AutoCAD 2000
 90
    32768
280
     0
281
     1
  0
CLASS
  1
XRECORD
  2
AcDbXrecord
  3
AutoCAD 2000
 90
    32768
280
     0
281
     0
  0
CLASS
  1
LONG_TRANSACTION
  2
AcDbLongTransaction
  3
AutoCAD 2000
 90
    32768
280
     0
281
     0
  0
CLASS
  1
LWPOLYLINE
  2
AcDbPolyline
  3
AutoCAD 2000
 90
    32768
280
     0
281
     1
  0
CLASS
  1
HATCH
  2
AcDbHatch
  3
AutoCAD 2000
 90
    32768
280
     0
281
     1
  0
CLASS
  1
XRECORD
  2
AcDbXrecord
  3
AutoCAD 2000
 90
    32768
280
     0
281
     0
  0
CLASS
  1
LONG_TRANSACTION
  2
AcDbLongTransaction
  3
AutoCAD 2000
 90
    32768
280
     0
281
     0
  0
CLASS
  1
LWPOLYLINE
  2
AcDbPolyline
  3
AutoCAD 2000
 90
    32768
280
     0
281
     1
  0
CLASS
  1
HATCH
  2
AcDbHatch
  3
AutoCAD 2000
 90
    32768
280
     0
281
     1
  0
CLASS
  1
XRECORD
  2
AcDbXrecord
  3
AutoCAD 2000
 90
    32768
280
     0
281
     0
  0
CLASS
  1
LONG_TRANSACTION
  2
AcDbLongTransaction
  3
AutoCAD 2000
 90
    32768
280
     0
281
     0
  0
CLASS
  1
LWPOLYLINE
  2
AcDbPolyline
  3
AutoCAD 2000
 90
    32768
280
     0
281
     1
  0
CLASS
  1
HATCH
  2
AcDbHatch
  3
AutoCAD 2000
 90
    32768
280
     0
281
     1
  0
CLASS
  1
XRECORD
  2
AcDbXrecord
  3
AutoCAD 2000
 90
    32768
280
     0
281
     0
  0
CLASS
  1
LONG_TRANSACTION
  2
AcDbLongTransaction
  3
AutoCAD 2000
 90
    32768
280
     0
281
     0
  0
CLASS
  1
LWPOLYLINE
  2
AcDbPolyline
  3
AutoCAD 2000
 90
    32768
280
     0
281
     1
  0
CLASS
  1
HATCH
  2
AcDbHatch
  3
AutoCAD 2000
 90
    32768
280
     0
281
     1
  0
CLASS
  1
XRECORD
  2
AcDbXrecord
  3
AutoCAD 2000
 90
    32768
280
     0
281
     0
  0
CLASS
  1
LONG_TRANSACTION
  2
AcDbLongTransaction
  3
AutoCAD 2000
 90
    32768
280
     0
281
     0
  0
CLASS
  1
LWPOLYLINE
  2
AcDbPolyline
  3
AutoCAD 2000
 90
    32768
280
     0
281
     1
  0
CLASS
  1
HATCH
  2
AcDbHatch
  3
AutoCAD 2000
 90
    32768
280
     0
281
     1
  0
CLASS
  1
XRECORD
  2
AcDbXrecord
  3
AutoCAD 2000
 90
    32768
280
     0
281
     0
  0
CLASS
  1
LONG_TRANSACTION
  2
AcDbLongTransaction
  3
AutoCAD 2000
 90
    32768
280
     0
281
     0
  0
CLASS
  1
LWPOLYLINE
  2
AcDbPolyline
  3
AutoCAD 2000
 90
    32768
280
     0
281
     1
  0
CLASS
  1
HATCH
  2
AcDbHatch
  3
AutoCAD 2000
 90
    32768
280
     0
281
     1
  0
CLASS
  1
XRECORD
  2
AcDbXrecord
  3
AutoCAD 2000
 90
    32768
280
     0
281
     0
  0
CLASS
  1
LONG_TRANSACTION
  2
AcDbLongTransaction
  3
AutoCAD 2000
 90
    32768
280
     0
281
     0
  0
CLASS
  1
LWPOLYLINE
  2
AcDbPolyline
  3
AutoCAD 2000
 90
    32768
280
     0
281
     1
  0
CLASS
  1
HATCH
  2
AcDbHatch
  3
AutoCAD 2000
 90
    32768
280
     0
281
     1
  0
CLASS
  1
XRECORD
  2
AcDbXrecord
  3
AutoCAD 2000
 90
    32768
280
     0
281
     0
  0
CLASS
  1
LONG_TRANSACTION
  2
AcDbLongTransaction
  3
AutoCAD 2000
 90
    32768
280
     0
281
     0
  0
CLASS
  1
LWPOLYLINE
  2
AcDbPolyline
  3
AutoCAD 2000
 90
    32768
280
     0
281
     1
  0
CLASS
  1
HATCH
  2
AcDbHatch
  3
AutoCAD 2000
 90
    32768
280
     0
281
     1
  0
CLASS
  1
XRECORD
  2
AcDbXrecord
  3
AutoCAD 2000
 90
    32768
280
     0
281
     0
  0
CLASS
  1
LONG_TRANSACTION
  2
AcDbLongTransaction
  3
AutoCAD 2000
 90
    32768
280
     0
281
     0
  0
CLASS
  1
LWPOLYLINE
  2
AcDbPolyline
  3
AutoCAD 2000
 90
    32768
280
     0
281
     1
  0
CLASS
  1
HATCH
  2
AcDbHatch
  3
AutoCAD 2000
 90
    32768
280
     0
281
     1
  0
CLASS
  1
XRECORD
  2
AcDbXrecord
  3
AutoCAD 2000
 90
    32768
280
     0
281
     0
  0
CLASS
  1
LONG_TRANSACTION
  2
AcDbLongTransaction
  3
AutoCAD 2000
 90
    32768
280
     0
281
     0
  0
CLASS
  1
LWPOLYLINE
  2
AcDbPolyline
  3
AutoCAD 2000
 90
    32768
280
     0
281
     1
  0
CLASS
  1
HATCH
  2
AcDbHatch
  3
AutoCAD 2000
 90
    32768
280
     0
281
     1
  0
CLASS
  1
XRECORD
  2
AcDbXrecord
  3
AutoCAD 2000
 90
    32768
280
     0
281
     0
  0
CLASS
  1
LONG_TRANSACTION
  2
AcDbLongTransaction
  3
AutoCAD 2000
 90
    32768
280
     0
281
     0
  0
CLASS
  1
LWPOLYLINE
  2
AcDbPolyline
  3
AutoCAD 2000
 90
    32768
280
     0
281
     1
  0
CLASS
  1
HATCH
  2
AcDbHatch
  3
AutoCAD 2000
 90
    32768
280
     0
281
     1
  0
CLASS
  1
XRECORD
  2
AcDbXrecord
  3
AutoCAD 2000
 90
    32768
280
     0
281
     0
  0
CLASS
  1
LONG_TRANSACTION
  2
AcDbLongTransaction
  3
AutoCAD 2000
 90
    32768
280
     0
281
     0
  0
CLASS
  1
LWPOLYLINE
  2
AcDbPolyline
  3
AutoCAD 2000
 90
    32768
280
     0
281
     1
  0
CLASS
  1
HATCH
  2
AcDbHatch
  3
AutoCAD 2000
 90
    32768
280
     0
281
     1
  0
CLASS
  1
XRECORD
  2
AcDbXrecord
  3
AutoCAD 2000
 90
    32768
280
     0
281
     0
  0
CLASS
  1
LONG_TRANSACTION
  2
AcDbLongTransaction
  3
AutoCAD 2000
 90
    32768
280
     0
281
     0
  0
CLASS
  1
LWPOLYLINE
  2
AcDbPolyline
  3
AutoCAD 2000
 90
    32768
280
     0
281
     1
  0
CLASS
  1
HATCH
  2
AcDbHatch
  3
AutoCAD 2000
 90
    32768
280
     0
281
     1
  0
CLASS
  1
XRECORD
  2
AcDbXrecord
  3
AutoCAD 2000
 90
    32768
280
     0
281
     0
  0
CLASS
  1
LONG_TRANSACTION
  2
AcDbLongTransaction
  3
AutoCAD 2000
 90
    32768
280
     0
281
     0
  0
CLASS
  1
LWPOLYLINE
  2
AcDbPolyline
  3
AutoCAD 2000
 90
    32768
280
     0
281
     1
  0
CLASS
  1
HATCH
  2
AcDbHatch
  3
AutoCAD 2000
 90
    32768
280
     0
281
     1
  0
CLASS
  1
XRECORD
  2
AcDbXrecord
  3
AutoCAD 2000
 90
    32768
280
     0
281
     0
  0
CLASS
  1
LONG_TRANSACTION
  2
AcDbLongTransaction
  3
AutoCAD 2000
 90
    32768
280
     0
281
     0
  0
CLASS
  1
LWPOLYLINE
  2
AcDbPolyline
  3
AutoCAD 2000
 90
    32768
280
     0
281
     1
  0
CLASS
  1
HATCH
  2
AcDbHatch
  3
AutoCAD 2000
 90
    32768
280
     0
281
     1
  0
CLASS
  1
XRECORD
  2
AcDbXrecord
  3
AutoCAD 2000
 90
    32768
280
     0
281
     0
  0
CLASS
  1
LONG_TRANSACTION
  2
AcDbLongTransaction
  3
AutoCAD 2000
 90
    32768
280
     0
281
     0
  0
CLASS
  1
LWPOLYLINE
  2
AcDbPolyline
  3
AutoCAD 2000
 90
    32768
280
     0
281
     1
  0
CLASS
  1
HATCH
  2
AcDbHatch
  3
AutoCAD 2000
 90
    32768
280
     0
281
     1
  0
CLASS
  1
XRECORD
  2
AcDbXrecord
  3
AutoCAD 2000
 90
    32768
280
     0
281
     0
  0
CLASS
  1
LONG_TRANSACTION
  2
AcDbLongTransaction
  3
AutoCAD 2000
 90
    32768
280
     0
281
     0
  0
CLASS
  1
LWPOLYLINE
  2
AcDbPolyline
  3
AutoCAD 2000
 90
    32768
280
     0
281
     1
  0
CLASS
  1
HATCH
  2
AcDbHatch
  3
AutoCAD 2000
 90
    32768
280
     0
281
     1
  0
CLASS
  1
XRECORD
  2
AcDbXrecord
  3
AutoCAD 2000
 90
    32768
280
     0
281
     0
  0
CLASS
  1
LONG_TRANSACTION
  2
AcDbLongTransaction
  3
AutoCAD 2000
 90
    32768
280
     0
281
     0
  0
CLASS
  1
LWPOLYLINE
  2
AcDbPolyline
  3
AutoCAD 2000
 90
    32768
280
     0
281
     1
  0
CLASS
  1
HATCH
  2
AcDbHatch
  3
AutoCAD 2000
 90
    32768
280
     0
281
     1
  0
CLASS
  1
XRECORD
  2
AcDbXrecord
  3
AutoCAD 2000
 90
    32768
280
     0
281
     0
  0
CLASS
  1
LONG_TRANSACTION
  2
AcDbLongTransaction
  3
AutoCAD 2000
 90
    32768
280
     0
281
     0
  0
CLASS
  1
LWPOLYLINE
  2
AcDbPolyline
  3
AutoCAD 2000
 90
    32768
280
     0
281
     1
  0
CLASS
  1
HATCH
  2
AcDbHatch
  3
AutoCAD 2000
 90
    32768
280
     0
281
     1
  0
CLASS
  1
XRECORD
  2
AcDbXrecord
  3
AutoCAD 2000
 90
    32768
280
     0
281
     0
  0
CLASS
  1
LONG_TRANSACTION
  2
AcDbLongTransaction
  3
AutoCAD 2000
 90
    32768
280
     0
281
     0
  0
CLASS
  1
LWPOLYLINE
  2
AcDbPolyline
  3
AutoCAD 2000
 90
    32768
280
     0
281
     1
  0
CLASS
  1
HATCH
  2
AcDbHatch
  3
AutoCAD 2000
 90
    32768
280
     0
281
     1
  0
CLASS
  1
XRECORD
  2
AcDbXrecord
  3
AutoCAD 2000
 90
    32768
280
     0
281
     0
  0
CLASS
  1
LONG_TRANSACTION
  2
AcDbLongTransaction
  3
AutoCAD 2000
 90
    32768
280
     0
281
     0
  0
CLASS
  1
LWPOLYLINE
  2
AcDbPolyline
  3
AutoCAD 2000
 90
    32768
280
     0
281
     1
  0
CLASS
  1
HATCH
  2
AcDbHatch
  3
AutoCAD 2000
 90
    32768
280
     0
281
     1
  0
CLASS
  1
XRECORD
  2
AcDbXrecord
  3
AutoCAD 2000
 90
    32768
280
     0
281
     0
  0
CLASS
  1
LONG_TRANSACTION
  2
AcDbLongTransaction
  3
AutoCAD 2000
 90
    32768
280
     0
281
     0
  0
CLASS
  1
LWPOLYLINE
  2
AcDbPolyline
  3
AutoCAD 2000
 90
    32768
280
     0
281
     1
  0
CLASS
  1
HATCH
  2
AcDbHatch
  3
AutoCAD 2000
 90
    32768
280
     0
281
     1
  0
CLASS
  1
XRECORD
  2
AcDbXrecord
  3
AutoCAD 2000
 90
    32768
280
     0
281
     0
  0
CLASS
  1
LONG_TRANSACTION
  2
AcDbLongTransaction
  3
AutoCAD 2000
 90
    32768
280
     0
281
     0
  0
CLASS
  1
LWPOLYLINE
  2
AcDbPolyline
  3
AutoCAD 2000
 90
    32768
280
     0
281
     1
  0
CLASS
  1
HATCH
  2
AcDbHatch
  3
AutoCAD 2000
 90
    32768
280
     0
281
     1
  0
CLASS
  1
XRECORD
  2
AcDbXrecord
  3
AutoCAD 2000
 90
    32768
280
     0
281
     0
  0
CLASS
  1
LONG_TRANSACTION
  2
AcDbLongTransaction
  3
AutoCAD 2000
 90
    32768
280
     0
281
     0
  0
CLASS
  1
LWPOLYLINE
  2
AcDbPolyline
  3
AutoCAD 2000
 90
    32768
280
     0
281
     1
  0
CLASS
  1
HATCH
  2
AcDbHatch
  3
AutoCAD 2000
 90
    32768
280
     0
281
     1
  0
CLASS
  1
XRECORD
  2
AcDbXrecord
  3
AutoCAD 2000
 90
    32768
280
     0
281
     0
  0
CLASS
  1
LONG_TRANSACTION
  2
AcDbLongTransaction
  3
AutoCAD 2000
 90
    32768
280
     0
281
     0
  0
CLASS
  1
LWPOLYLINE
  2
AcDbPolyline
  3
AutoCAD 2000
 90
    32768
280
     0
281
     1
  0
CLASS
  1
HATCH
  2
AcDbHatch
  3
AutoCAD 2000
 90
    32768
280
     0
281
     1
  0
CLASS
  1
XRECORD
  2
AcDbXrecord
  3
AutoCAD 2000
 90
    32768
280
     0
281
     0
  0
CLASS
  1
LONG_TRANSACTION
  2
AcDbLongTransaction
  3
AutoCAD 2000
 90
    32768
280
     0
281
     0
  0
CLASS
  1
LWPOLYLINE
  2
AcDbPolyline
  3
AutoCAD 2000
 90
    32768
280
     0
281
     1
  0
CLASS
  1
HATCH
  2
AcDbHatch
  3
AutoCAD 2000
 90
    32768
280
     0
281
     1
  0
CLASS
  1
XRECORD
  2
AcDbXrecord
  3
AutoCAD 2000
 90
    32768
280
     0
281
     0
  0
CLASS
  1
LONG_TRANSACTION
  2
AcDbLongTransaction
  3
AutoCAD 2000
 90
    32768
280
     0
281
     0
  0
CLASS
  1
LWPOLYLINE
  2
AcDbPolyline
  3
AutoCAD 2000
 90
    32768
280
     0
281
     1
  0
CLASS
  1
HATCH
  2
AcDbHatch
  3
AutoCAD 2000
 90
    32768
280
     0
281
     1
  0
CLASS
  1
XRECORD
  2
AcDbXrecord
  3
AutoCAD 2000
 90
    32768
280
     0
281
     0
  0
CLASS
  1
LONG_TRANSACTION
  2
AcDbLongTransaction
  3
AutoCAD 2000
 90
    32768
280
     0
281
     0
  0
CLASS
  1
LWPOLYLINE
  2
AcDbPolyline
  3
AutoCAD 2000
 90
    32768
280
     0
281
     1
  0
CLASS
  1
HATCH
  2
AcDbHatch
  3
AutoCAD 2000
 90
    32768
280
     0
281
     1
  0
CLASS
  1
XRECORD
  2
AcDbXrecord
  3
AutoCAD 2000
 90
    32768
280
     0
281
     0
  0
CLASS
  1
LONG_TRANSACTION
  2
AcDbLongTransaction
  3
AutoCAD 2000
 90
    32768
280
     0
281
     0
  0
CLASS
  1
LWPOLYLINE
  2
AcDbPolyline
  3
AutoCAD 2000
 90
    32768
280
     0
281
     1
  0
CLASS
  1
HATCH
  2
AcDbHatch
  3
AutoCAD 2000
 90
    32768
280
     0
281
     1
  0
CLASS
  1
XRECORD
  2
AcDbXrecord
  3
AutoCAD 2000
 90
    32768
280
     0
281
     0
  0
CLASS
  1
LONG_TRANSACTION
  2
AcDbLongTransaction
  3
AutoCAD 2000
 90
    32768
280
     0
281
     0
  0
CLASS
  1
LWPOLYLINE
  2
AcDbPolyline
  3
AutoCAD 2000
 90
    32768
280
     0
281
     1
  0
CLASS
  1
HATCH
  2
AcDbHatch
  3
AutoCAD 2000
 90
    32768
280
     0
281
     1
  0
CLASS
  1
XRECORD
  2
AcDbXrecord
  3
AutoCAD 2000
 90
    32768
280
     0
281
     0
  0
CLASS
  1
LONG_TRANSACTION
  2
AcDbLongTransaction
  3
AutoCAD 2000
 90
    32768
280
     0
281
     0
  0
CLASS
  1
LWPOLYLINE
  2
AcDbPolyline
  3
AutoCAD 2000
 90
    32768
280
     0
281
     1
  0
CLASS
  1
HATCH
  2
AcDbHatch
  3
AutoCAD 2000
 90
    32768
280
     0
281
     1
  0
CLASS
  1
XRECORD
  2
AcDbXrecord
  3
AutoCAD 2000
 90
    32768
280
     0
281
     0
  0
CLASS
  1
LONG_TRANSACTION
  2
AcDbLongTransaction
  3
AutoCAD 2000
 90
    32768
280
     0
281
     0
  0
CLASS
  1
LWPOLYLINE
  2
AcDbPolyline
  3
AutoCAD 2000
 90
    32768
280
     0
281
     1
  0
CLASS
  1
HATCH
  2
AcDbHatch
  3
AutoCAD 2000
 90
    32768
280
     0
281
     1
  0
CLASS
  1
XRECORD
  2
AcDbXrecord
  3
AutoCAD 2000
 90
    32768
280
     0
281
     0
  0
CLASS
  1
LONG_TRANSACTION
  2
AcDbLongTransaction
  3
AutoCAD 2000
 90
    32768
280
     0
281
     0
  0
CLASS
  1
LWPOLYLINE
  2
AcDbPolyline
  3
AutoCAD 2000
 90
    32768
280
     0
281
     1
  0
CLASS
  1
HATCH
  2
AcDbHatch
  3
AutoCAD 2000
 90
    32768
280
     0
281
     1
  0
CLASS
  1
XRECORD
  2
AcDbXrecord
  3
AutoCAD 2000
 90
    32768
280
     0
281
     0
  0
CLASS
  1
LONG_TRANSACTION
  2
AcDbLongTransaction
  3
AutoCAD 2000
 90
    32768
280
     0
281
     0
  0
CLASS
  1
LWPOLYLINE
  2
AcDbPolyline
  3
AutoCAD 2000
 90
    32768
280
     0
281
     1
  0
CLASS
  1
HATCH
  2
AcDbHatch
  3
AutoCAD 2000
 90
    32768
280
     0
281
     1
  0
CLASS
  1
XRECORD
  2
AcDbXrecord
  3
AutoCAD 2000
 90
    32768
280
     0
281
     0
  0
CLASS
  1
LONG_TRANSACTION
  2
AcDbLongTransaction
  3
AutoCAD 2000
 90
    32768
280
     0
281
     0
  0
CLASS
  1
LWPOLYLINE
  2
AcDbPolyline
  3
AutoCAD 2000
 90
    32768
280
     0
281
     1
  0
CLASS
  1
HATCH
  2
AcDbHatch
  3
AutoCAD 2000
 90
    32768
280
     0
281
     1
  0
CLASS
  1
XRECORD
  2
AcDbXrecord
  3
AutoCAD 2000
 90
    32768
280
     0
281
     0
  0
CLASS
  1
LONG_TRANSACTION
  2
AcDbLongTransaction
  3
AutoCAD 2000
 90
    32768
280
     0
281
     0
  0
CLASS
  1
LWPOLYLINE
  2
AcDbPolyline
  3
AutoCAD 2000
 90
    32768
280
     0
281
     1
  0
CLASS
  1
HATCH
  2
AcDbHatch
  3
AutoCAD 2000
 90
    32768
280
     0
281
     1
  0
CLASS
  1
XRECORD
  2
AcDbXrecord
  3
AutoCAD 2000
 90
    32768
280
     0
281
     0
  0
CLASS
  1
LONG_TRANSACTION
  2
AcDbLongTransaction
  3
AutoCAD 2000
 90
    32768
280
     0
281
     0
  0
CLASS
  1
LWPOLYLINE
  2
AcDbPolyline
  3
AutoCAD 2000
 90
    32768
280
     0
281
     1
  0
CLASS
  1
HATCH
  2
AcDbHatch
  3
AutoCAD 2000
 90
    32768
280
     0
281
     1
  0
CLASS
  1
XRECORD
  2
AcDbXrecord
  3
AutoCAD 2000
 90
    32768
280
     0
281
     0
  0
CLASS
  1
LONG_TRANSACTION
  2
AcDbLongTransaction
  3
AutoCAD 2000
 90
    32768
280
     0
281
     0
  0
CLASS
  1
LWPOLYLINE
  2
AcDbPolyline
  3
AutoCAD 2000
 90
    32768
280
     0
281
     1
  0
CLASS
  1
HATCH
  2
AcDbHatch
  3
AutoCAD 2000
 90
    32768
280
     0
281
     1
  0
CLASS
  1
XRECORD
  2
AcDbXrecord
  3
AutoCAD 2000
 90
    32768
280
     0
281
     0
  0
CLASS
  1
LONG_TRANSACTION
  2
AcDbLongTransaction
  3
AutoCAD 2000
 90
    32768
280
     0
281
     0
  0
CLASS
  1
LWPOLYLINE
  2
AcDbPolyline
  3
AutoCAD 2000
 90
    32768
280
     0
281
     1
  0
CLASS
  1
HATCH
  2
AcDbHatch
  3
AutoCAD 2000
 90
    32768
280
     0
281
     1
  0
CLASS
  1
XRECORD
  2
AcDbXrecord
  3
AutoCAD 2000
 90
    32768
280
     0
281
     0
  0
CLASS
  1
LONG_TRANSACTION
  2
AcDbLongTransaction
  3
AutoCAD 2000
 90
    32768
280
     0
281
     0
  0
CLASS
  1
LWPOLYLINE
  2
AcDbPolyline
  3
AutoCAD 2000
 90
    32768
280
     0
281
     1
  0
CLASS
  1
HATCH
  2
AcDbHatch
  3
AutoCAD 2000
 90
    32768
280
     0
281
     1
  0
CLASS
  1
XRECORD
  2
AcDbXrecord
  3
AutoCAD 2000
 90
    32768
280
     0
281
     0
  0
CLASS
  1
LONG_TRANSACTION
  2
AcDbLongTransaction
  3
AutoCAD 2000
 90
    32768
280
     0
281
     0
  0
CLASS
  1
LWPOLYLINE
  2
AcDbPolyline
  3
AutoCAD 2000
 90
    32768
280
     0
281
     1
  0
CLASS
  1
HATCH
  2
AcDbHatch
  3
AutoCAD 2000
 90
    32768
280
     0
281
     1
  0
CLASS
  1
XRECORD
  2
AcDbXrecord
  3
AutoCAD 2000
 90
    32768
280
     0
281
     0
  0
CLASS
  1
LONG_TRANSACTION
  2
AcDbLongTransaction
  3
AutoCAD 2000
 90
    32768
280
     0
281
     0
  0
CLASS
  1
LWPOLYLINE
  2
AcDbPolyline
  3
AutoCAD 2000
 90
    32768
280
     0
281
     1
  0
CLASS
  1
HATCH
  2
AcDbHatch
  3
AutoCAD 2000
 90
    32768
280
     0
281
     1
  0
CLASS
  1
XRECORD
  2
AcDbXrecord
  3
AutoCAD 2000
 90
    32768
280
     0
281
     0
  0
CLASS
  1
LONG_TRANSACTION
  2
AcDbLongTransaction
  3
AutoCAD 2000
 90
    32768
280
     0
281
     0
  0
CLASS
  1
LWPOLYLINE
  2
AcDbPolyline
  3
AutoCAD 2000
 90
    32768
280
     0
281
     1
  0
CLASS
  1
HATCH
  2
AcDbHatch
  3
AutoCAD 2000
 90
    32768
280
     0
281
     1
  0
CLASS
  1
XRECORD
  2
AcDbXrecord
  3
AutoCAD 2000
 90
    32768
280
     0
281
     0
  0
CLASS
  1
LONG_TRANSACTION
  2
AcDbLongTransaction
  3
AutoCAD 2000
 90
    32768
280
     0
281
     0
  0
CLASS
  1
LWPOLYLINE
  2
AcDbPolyline
  3
AutoCAD 2000
 90
    32768
280
     0
281
     1
  0
CLASS
  1
HATCH
  2
AcDbHatch
  3
AutoCAD 2000
 90
    32768
280
     0
281
     1
  0
CLASS
  1
XRECORD
  2
AcDbXrecord
  3
AutoCAD 2000
 90
    32768
280
     0
281
     0
  0
CLASS
  1
LONG_TRANSACTION
  2
AcDbLongTransaction
  3
AutoCAD 2000
 90
    32768
280
     0
281
     0
  0
CLASS
  1
LWPOLYLINE
  2
AcDbPolyline
  3
AutoCAD 2000
 90
    32768
280
     0
281
     1
  0
CLASS
  1
HATCH
  2
AcDbHatch
  3
AutoCAD 2000
 90
    32768
280
     0
281
     1
  0
CLASS
  1
XRECORD
  2
AcDbXrecord
  3
AutoCAD 2000
 90
    32768
280
     0
281
     0
  0
CLASS
  1
LONG_TRANSACTION
  2
AcDbLongTransaction
  3
AutoCAD 2000
 90
    32768
280
     0
281
     0
  0
CLASS
  1
LWPOLYLINE
  2
AcDbPolyline
  3
AutoCAD 2000
 90
    32768
280
     0
281
     1
  0
CLASS
  1
HATCH
  2
AcDbHatch
  3
AutoCAD 2000
 90
    32768
280
     0
281
     1
  0
CLASS
  1
XRECORD
  2
AcDbXrecord
  3
AutoCAD 2000
 90
    32768
280
     0
281
     0
  0
CLASS
  1
LONG_TRANSACTION
  2
AcDbLongTransaction
  3
AutoCAD 2000
 90
    32768
280
     0
281
     0
  0
CLASS
  1
LWPOLYLINE
  2
AcDbPolyline
  3
AutoCAD 2000
 90
    32768
280
     0
281
     1
  0
CLASS
  1
HATCH
  2
AcDbHatch
  3
AutoCAD 2000
 90
    32768
280
     0
281
     1
  0
CLASS
  1
XRECORD
  2
AcDbXrecord
  3
AutoCAD 2000
 90
    32768
280
     0
281
     0
  0
CLASS
  1
LONG_TRANSACTION
  2
AcDbLongTransaction
  3
AutoCAD 2000
 90
    32768
280
     0
281
     0
  0
CLASS
  1
LWPOLYLINE
  2
AcDbPolyline
  3
AutoCAD 2000
 90
    32768
280
     0
281
     1
  0
CLASS
  1
HATCH
  2
AcDbHatch
  3
AutoCAD 2000
 90
    32768
280
     0
281
     1
  0
CLASS
  1
XRECORD
  2
AcDbXrecord
  3
AutoCAD 2000
 90
    32768
280
     0
281
     0
  0
CLASS
  1
LONG_TRANSACTION
  2
AcDbLongTransaction
  3
AutoCAD 2000
 90
    32768
280
     0
281
     0
  0
CLASS
  1
LWPOLYLINE
  2
AcDbPolyline
  3
AutoCAD 2000
 90
    32768
280
     0
281
     1
  0
CLASS
  1
HATCH
  2
AcDbHatch
  3
AutoCAD 2000
 90
    32768
280
     0
281
     1
  0
CLASS
  1
XRECORD
  2
AcDbXrecord
  3
AutoCAD 2000
 90
    32768
280
     0
281
     0
  0
CLASS
  1
LONG_TRANSACTION
  2
AcDbLongTransaction
  3
AutoCAD 2000
 90
    32768
280
     0
281
     0
  0
CLASS
  1
LWPOLYLINE
  2
AcDbPolyline
  3
AutoCAD 2000
 90
    32768
280
     0
281
     1
  0
CLASS
  1
HATCH
  2
AcDbHatch
  3
AutoCAD 2000
 90
    32768
280
     0
281
     1
  0
CLASS
  1
XRECORD
  2
AcDbXrecord
  3
AutoCAD 2000
 90
    32768
280
     0
281
     0
  0
CLASS
  1
LONG_TRANSACTION
  2
AcDbLongTransaction
  3
AutoCAD 2000
 90
    32768
280
     0
281
     0
  0
CLASS
  1
LWPOLYLINE
  2
AcDbPolyline
  3
AutoCAD 2000
 90
    32768
280
     0
281
     1
  0
CLASS
  1
HATCH
  2
AcDbHatch
  3
AutoCAD 2000
 90
    32768
280
     0
281
     1
  0
CLASS
  1
XRECORD
  2
AcDbXrecord
  3
AutoCAD 2000
 90
    32768
280
     0
281
     0
  0
CLASS
  1
LONG_TRANSACTION
  2
AcDbLongTransaction
  3
AutoCAD 2000
 90
    32768
280
     0
281
     0
  0
CLASS
  1
LWPOLYLINE
  2
AcDbPolyline
  3
AutoCAD 2000
 90
    32768
280
     0
281
     1
  0
CLASS
  1
HATCH
  2
AcDbHatch
  3
AutoCAD 2000
 90
    32768
280
     0
281
     1
  0
CLASS
  1
XRECORD
  2
AcDbXrecord
  3
AutoCAD 2000
 90
    32768
280
     0
281
     0
  0
CLASS
  1
LONG_TRANSACTION
  2
AcDbLongTransaction
  3
AutoCAD 2000
 90
    32768
280
     0
281
     0
  0
CLASS
  1
LWPOLYLINE
  2
AcDbPolyline
  3
AutoCAD 2000
 90
    32768
280
     0
281
     1
  0
CLASS
  1
HATCH
  2
AcDbHatch
  3
AutoCAD 2000
 90
    32768
280
     0
281
     1
  0
CLASS
  1
XRECORD
  2
AcDbXrecord
  3
AutoCAD 2000
 90
    32768
280
     0
281
     0
  0
CLASS
  1
LONG_TRANSACTION
  2
AcDbLongTransaction
  3
AutoCAD 2000
 90
    32768
280
     0
281
     0
  0
CLASS
  1
LWPOLYLINE
  2
AcDbPolyline
  3
AutoCAD 2000
 90
    32768
280
     0
281
     1
  0
CLASS
  1
HATCH
  2
AcDbHatch
  3
AutoCAD 2000
 90
    32768
280
     0
281
     1
  0
CLASS
  1
XRECORD
  2
AcDbXrecord
  3
AutoCAD 2000
 90
    32768
280
     0
281
     0
  0
CLASS
  1
LONG_TRANSACTION
  2
AcDbLongTransaction
  3
AutoCAD 2000
 90
    32768
280
     0
281
     0
  0
CLASS
  1
LWPOLYLINE
  2
AcDbPolyline
  3
AutoCAD 2000
 90
    32768
280
     0
281
     1
  0
CLASS
  1
HATCH
  2
AcDbHatch
  3
AutoCAD 2000
 90
    32768
280
     0
281
     1
  0
CLASS
  1
XRECORD
  2
AcDbXrecord
  3
AutoCAD 2000
 90
    32768
280
     0
281
     0
  0
CLASS
  1
LONG_TRANSACTION
  2
AcDbLongTransaction
  3
AutoCAD 2000
 90
    32768
280
     0
281
     0
  0
CLASS
  1
LWPOLYLINE
  2
AcDbPolyline
  3
AutoCAD 2000
 90
    32768
280
     0
281
     1
  0
CLASS
  1
HATCH
  2
AcDbHatch
  3
AutoCAD 2000
 90
    32768
280
     0
281
     1
  0
CLASS
  1
XRECORD
  2
AcDbXrecord
  3
AutoCAD 2000
 90
    32768
280
     0
281
     0
  0
CLASS
  1
LONG_TRANSACTION
  2
AcDbLongTransaction
  3
AutoCAD 2000
 90
    32768
280
     0
281
     0
  0
CLASS
  1
LWPOLYLINE
  2
AcDbPolyline
  3
AutoCAD 2000
 90
    32768
280
     0
281
     1
  0
CLASS
  1
HATCH
  2
AcDbHatch
  3
AutoCAD 2000
 90
    32768
280
     0
281
     1
  0
CLASS
  1
XRECORD
  2
AcDbXrecord
  3
AutoCAD 2000
 90
    32768
280
     0
281
     0
  0
CLASS
  1
LONG_TRANSACTION
  2
AcDbLongTransaction
  3
AutoCAD 2000
 90
    32768
280
     0
281
     0
  0
CLASS
  1
LWPOLYLINE
  2
AcDbPolyline
  3
AutoCAD 2000
 90
    32768
280
     0
281
     1
  0
CLASS
  1
HATCH
  2
AcDbHatch
  3
AutoCAD 2000
 90
    32768
280
     0
281
     1
  0
CLASS
  1
XRECORD
  2
AcDbXrecord
  3
AutoCAD 2000
 90
    32768
280
     0
281
     0
  0
CLASS
  1
LONG_TRANSACTION
  2
AcDbLongTransaction
  3
AutoCAD 2000
 90
    32768
280
     0
281
     0
  0
CLASS
  1
LWPOLYLINE
  2
AcDbPolyline
  3
AutoCAD 2000
 90
    32768
280
     0
281
     1
  0
CLASS
  1
HATCH
  2
AcDbHatch
  3
AutoCAD 2000
 90
    32768
280
     0
281
     1
  0
CLASS
  1
XRECORD
  2
AcDbXrecord
  3
AutoCAD 2000
 90
    32768
280
     0
281
     0
  0
CLASS
  1
LONG_TRANSACTION
  2
AcDbLongTransaction
  3
AutoCAD 2000
 90
    32768
280
     0
281
     0
  0
CLASS
  1
LWPOLYLINE
  2
AcDbPolyline
  3
AutoCAD 2000
 90
    32768
280
     0
281
     1
  0
CLASS
  1
HATCH
  2
AcDbHatch
  3
AutoCAD 2000
 90
    32768
280
     0
281
     1
  0
CLASS
  1
XRECORD
  2
AcDbXrecord
  3
AutoCAD 2000
 90
    32768
280
     0
281
     0
  0
CLASS
  1
LONG_TRANSACTION
  2
AcDbLongTransaction
  3
AutoCAD 2000
 90
    32768
280
     0
281
     0
  0
CLASS
  1
LWPOLYLINE
  2
AcDbPolyline
  3
AutoCAD 2000
 90
    32768
280
     0
281
     1
  0
CLASS
  1
HATCH
  2
AcDbHatch
  3
AutoCAD 2000
 90
    32768
280
     0
281
     1
  0
CLASS
  1
XRECORD
  2
AcDbXrecord
  3
AutoCAD 2000
 90
    32768
280
     0
281
     0
  0
CLASS
  1
LONG_TRANSACTION
  2
AcDbLongTransaction
  3
AutoCAD 2000
 90
    32768
280
     0
281
     0
  0
CLASS
  1
LWPOLYLINE
  2
AcDbPolyline
  3
AutoCAD 2000
 90
    32768
280
     0
281
     1
  0
CLASS
  1
HATCH
  2
AcDbHatch
  3
AutoCAD 2000
 90
    32768
280
     0
281
     1
  0
CLASS
  1
XRECORD
  2
AcDbXrecord
  3
AutoCAD 2000
 90
    32768
280
     0
281
     0
  0
CLASS
  1
LONG_TRANSACTION
  2
AcDbLongTransaction
  3
AutoCAD 2000
 90
    32768
280
     0
281
     0
  0
CLASS
  1
LWPOLYLINE
  2
AcDbPolyline
  3
AutoCAD 2000
 90
    32768
280
     0
281
     1
  0
CLASS
  1
HATCH
  2
AcDbHatch
  3
AutoCAD 2000
 90
    32768
280
     0
281
     1
  0
CLASS
  1
XRECORD
  2
AcDbXrecord
  3
AutoCAD 2000
 90
    32768
280
     0
281
     0
  0
CLASS
  1
LONG_TRANSACTION
  2
AcDbLongTransaction
  3
AutoCAD 2000
 90
    32768
280
     0
281
     0
  0
CLASS
  1
LWPOLYLINE
  2
AcDbPolyline
  3
AutoCAD 2000
 90
    32768
280
     0
281
     1
  0
CLASS
  1
HATCH
  2
AcDbHatch
  3
AutoCAD 2000
 90
    32768
280
     0
281
     1
  0
CLASS
  1
XRECORD
  2
AcDbXrecord
  3
AutoCAD 2000
 90
    32768
280
     0
281
     0
  0
CLASS
  1
LONG_TRANSACTION
  2
AcDbLongTransaction
  3
AutoCAD 2000
 90
    32768
280
     0
281
     0
  0
CLASS
  1
LWPOLYLINE
  2
AcDbPolyline
  3
AutoCAD 2000
 90
    32768
280
     0
281
     1
  0
CLASS
  1
HATCH
  2
AcDbHatch
  3
AutoCAD 2000
 90
    32768
280
     0
281
     1
  0
CLASS
  1
XRECORD
  2
AcDbXrecord
  3
AutoCAD 2000
 90
    32768
280
     0
281
     0
  0
CLASS
  1
LONG_TRANSACTION
  2
AcDbLongTransaction
  3
AutoCAD 2000
 90
    32768
280
     0
281
     0
  0
CLASS
  1
LWPOLYLINE
  2
AcDbPolyline
  3
AutoCAD 2000
 90
    32768
280
     0
281
     1
  0
CLASS
  1
HATCH
  2
AcDbHatch
  3
AutoCAD 2000
 90
    32768
280
     0
281
     1
  0
CLASS
  1
XRECORD
  2
AcDbXrecord
  3
AutoCAD 2000
 90
    32768
280
     0
281
     0
  0
CLASS
  1
LONG_TRANSACTION
  2
AcDbLongTransaction
  3
AutoCAD 2000
 90
    32768
280
     0
281
     0
  0
CLASS
  1
LWPOLYLINE
  2
AcDbPolyline
  3
AutoCAD 2000
 90
    32768
280
     0
281
     1
  0
CLASS
  1
HATCH
  2
AcDbHatch
  3
AutoCAD 2000
 90
    32768
280
     0
281
     1
  0
CLASS
  1
XRECORD
  2
AcDbXrecord
  3
AutoCAD 2000
 90
    32768
280
     0
281
     0
  0
CLASS
  1
LONG_TRANSACTION
  2
AcDbLongTransaction
  3
AutoCAD 2000
 90
    32768
280
     0
281
     0
  0
CLASS
  1
LWPOLYLINE
  2
AcDbPolyline
  3
AutoCAD 2000
 90
    32768
280
     0
281
     1
  0
CLASS
  1
HATCH
  2
AcDbHatch
  3
AutoCAD 2000
 90
    32768
280
     0
281
     1
  0
CLASS
  1
XRECORD
  2
AcDbXrecord
  3
AutoCAD 2000
 90
    32768
280
     0
281
     0
  0
CLASS
  1
LONG_TRANSACTION
  2
AcDbLongTransaction
  3
AutoCAD 2000
 90
    32768
280
     0
281
     0
  0
CLASS
  1
LWPOLYLINE
  2
AcDbPolyline
  3
AutoCAD 2000
 90
    32768
280
     0
281
     1
  0
CLASS
  1
HATCH
  2
AcDbHatch
  3
AutoCAD 2000
 90
    32768
280
     0
281
     1
  0
CLASS
  1
XRECORD
  2
AcDbXrecord
  3
AutoCAD 2000
 90
    32768
280
     0
281
     0
  0
CLASS
  1
LONG_TRANSACTION
  2
AcDbLongTransaction
  3
AutoCAD 2000
 90
    32768
280
     0
281
     0
  0
CLASS
  1
LWPOLYLINE
  2
AcDbPolyline
  3
AutoCAD 2000
 90
    32768
280
     0
281
     1
  0
CLASS
  1
HATCH
  2
AcDbHatch
  3
AutoCAD 2000
 90
    32768
280
     0
281
     1
  0
CLASS
  1
XRECORD
  2
AcDbXrecord
  3
AutoCAD 2000
 90
    32768
280
     0
281
     0
  0
CLASS
  1
LONG_TRANSACTION
  2
AcDbLongTransaction
  3
AutoCAD 2000
 90
    32768
280
     0
281
     0
  0
CLASS
  1
LWPOLYLINE
  2
AcDbPolyline
  3
AutoCAD 2000
 90
    32768
280
     0
281
     1
  0
CLASS
  1
HATCH
  2
AcDbHatch
  3
AutoCAD 2000
 90
    32768
280
     0
281
     1
  0
CLASS
  1
XRECORD
  2
AcDbXrecord
  3
AutoCAD 2000
 90
    32768
280
     0
281
     0
  0
CLASS
  1
LONG_TRANSACTION
  2
AcDbLongTransaction
  3
AutoCAD 2000
 90
    32768
280
     0
281
     0
  0
CLASS
  1
LWPOLYLINE
  2
AcDbPolyline
  3
AutoCAD 2000
 90
    32768
280
     0
281
     1
  0
CLASS
  1
HATCH
  2
AcDbHatch
  3
AutoCAD 2000
 90
    32768
280
     0
281
     1
  0
CLASS
  1
XRECORD
  2
AcDbXrecord
  3
AutoCAD 2000
 90
    32768
280
     0
281
     0
  0
CLASS
  1
LONG_TRANSACTION
  2
AcDbLongTransaction
  3
AutoCAD 2000
 90
    32768
280
     0
281
     0
  0
CLASS
  1
LWPOLYLINE
  2
AcDbPolyline
  3
AutoCAD 2000
 90
    32768
280
     0
281
     1
  0
CLASS
  1
HATCH
  2
AcDbHatch
  3
AutoCAD 2000
 90
    32768
280
     0
281
     1
  0
CLASS
  1
XRECORD
  2
AcDbXrecord
  3
AutoCAD 2000
 90
    32768
280
     0
281
     0
  0
CLASS
  1
LONG_TRANSACTION
  2
AcDbLongTransaction
  3
AutoCAD 2000
 90
    32768
280
     0
281
     0
  0
CLASS
  1
LWPOLYLINE
  2
AcDbPolyline
  3
AutoCAD 2000
 90
    32768
280
     0
281
     1
  0
CLASS
  1
HATCH
  2
AcDbHatch
  3
AutoCAD 2000
 90
    32768
280
     0
281
     1
  0
CLASS
  1
XRECORD
  2
AcDbXrecord
  3
AutoCAD 2000
 90
    32768
280
     0
281
     0
  0
CLASS
  1
LONG_TRANSACTION
  2
AcDbLongTransaction
  3
AutoCAD 2000
 90
    32768
280
     0
281
     0
  0
CLASS
  1
LWPOLYLINE
  2
AcDbPolyline
  3
AutoCAD 2000
 90
    32768
280
     0
281
     1
  0
CLASS
  1
HATCH
  2
AcDbHatch
  3
AutoCAD 2000
 90
    32768
280
     0
281
     1
  0
CLASS
  1
XRECORD
  2
AcDbXrecord
  3
AutoCAD 2000
 90
    32768
280
     0
281
     0
  0
CLASS
  1
LONG_TRANSACTION
  2
AcDbLongTransaction
  3
AutoCAD 2000
 90
    32768
280
     0
281
     0
  0
CLASS
  1
LWPOLYLINE
  2
AcDbPolyline
  3
AutoCAD 2000
 90
    32768
280
     0
281
     1
  0
CLASS
  1
HATCH
  2
AcDbHatch
  3
AutoCAD 2000
 90
    32768
280
     0
281
     1
  0
CLASS
  1
XRECORD
  2
AcDbXrecord
  3
AutoCAD 2000
 90
    32768
280
     0
281
     0
  0
CLASS
  1
LONG_TRANSACTION
  2
AcDbLongTransaction
  3
AutoCAD 2000
 90
    32768
280
     0
281
     0
  0
CLASS
  1
LWPOLYLINE
  2
AcDbPolyline
  3
AutoCAD 2000
 90
    32768
280
     0
281
     1
  0
CLASS
  1
HATCH
  2
AcDbHatch
  3
AutoCAD 2000
 90
    32768
280
     0
281
     1
  0
CLASS
  1
XRECORD
  2
AcDbXrecord
  3
AutoCAD 2000
 90
    32768
280
     0
281
     0
  0
CLASS
  1
LONG_TRANSACTION
  2
AcDbLongTransaction
  3
AutoCAD 2000
 90
    32768
280
     0
281
     0
  0
CLASS
  1
LWPOLYLINE
  2
AcDbPolyline
  3
AutoCAD 2000
 90
    32768
280
     0
281
     1
  0
CLASS
  1
HATCH
  2
AcDbHatch
  3
AutoCAD 2000
 90
    32768
280
     0
281
     1
  0
CLASS
  1
XRECORD
  2
AcDbXrecord
  3
AutoCAD 2000
 90
    32768
280
     0
281
     0
  0
CLASS
  1
LONG_TRANSACTION
  2
AcDbLongTransaction
  3
AutoCAD 2000
 90
    32768
280
     0
281
     0
  0
CLASS
  1
LWPOLYLINE
  2
AcDbPolyline
  3
AutoCAD 2000
 90
    32768
280
     0
281
     1
  0
CLASS
  1
HATCH
  2
AcDbHatch
  3
AutoCAD 2000
 90
    32768
280
     0
281
     1
  0
CLASS
  1
XRECORD
  2
AcDbXrecord
  3
AutoCAD 2000
 90
    32768
280
     0
281
     0
  0
CLASS
  1
LONG_TRANSACTION
  2
AcDbLongTransaction
  3
AutoCAD 2000
 90
    32768
280
     0
281
     0
  0
CLASS
  1
LWPOLYLINE
  2
AcDbPolyline
  3
AutoCAD 2000
 90
    32768
280
     0
281
     1
  0
CLASS
  1
HATCH
  2
AcDbHatch
  3
AutoCAD 2000
 90
    32768
280
     0
281
     1
  0
CLASS
  1
XRECORD
  2
AcDbXrecord
  3
AutoCAD 2000
 90
    32768
280
     0
281
     0
  0
CLASS
  1
LONG_TRANSACTION
  2
AcDbLongTransaction
  3
AutoCAD 2000
 90
    32768
280
     0
281
     0
  0
CLASS
  1
LWPOLYLINE
  2
AcDbPolyline
  3
AutoCAD 2000
 90
    32768
280
     0
281
     1
  0
CLASS
  1
HATCH
  2
AcDbHatch
  3
AutoCAD 2000
 90
    32768
280
     0
281
     1
  0
CLASS
  1
XRECORD
  2
AcDbXrecord
  3
AutoCAD 2000
 90
    32768
280
     0
281
     0
  0
CLASS
  1
LONG_TRANSACTION
  2
AcDbLongTransaction
  3
AutoCAD 2000
 90
    32768
280
     0
281
     0
  0
CLASS
  1
LWPOLYLINE
  2
AcDbPolyline
  3
AutoCAD 2000
 90
    32768
280
     0
281
     1
  0
CLASS
  1
HATCH
  2
AcDbHatch
  3
AutoCAD 2000
 90
    32768
280
     0
281
     1
  0
CLASS
  1
XRECORD
  2
AcDbXrecord
  3
AutoCAD 2000
 90
    32768
280
     0
281
     0
  0
CLASS
  1
LONG_TRANSACTION
  2
AcDbLongTransaction
  3
AutoCAD 2000
 90
    32768
280
     0
281
     0
  0
CLASS
  1
LWPOLYLINE
  2
AcDbPolyline
  3
AutoCAD 2000
 90
    32768
280
     0
281
     1
  0
CLASS
  1
HATCH
  2
AcDbHatch
  3
AutoCAD 2000
 90
    32768
280
     0
281
     1
  0
CLASS
  1
XRECORD
  2
AcDbXrecord
  3
AutoCAD 2000
 90
    32768
280
     0
281
     0
  0
CLASS
  1
LONG_TRANSACTION
  2
AcDbLongTransaction
  3
AutoCAD 2000
 90
    32768
280
     0
281
     0
  0
CLASS
  1
LWPOLYLINE
  2
AcDbPolyline
  3
AutoCAD 2000
 90
    32768
280
     0
281
     1
  0
CLASS
  1
HATCH
  2
AcDbHatch
  3
AutoCAD 2000
 90
    32768
280
     0
281
     1
  0
CLASS
  1
XRECORD
  2
AcDbXrecord
  3
AutoCAD 2000
 90
    32768
280
     0
281
     0
  0
CLASS
  1
LONG_TRANSACTION
  2
AcDbLongTransaction
  3
AutoCAD 2000
 90
    32768
280
     0
281
     0
  0
CLASS
  1
LWPOLYLINE
  2
AcDbPolyline
  3
AutoCAD 2000
 90
    32768
280
     0
281
     1
  0
CLASS
  1
HATCH
  2
AcDbHatch
  3
AutoCAD 2000
 90
    32768
280
     0
281
     1
  0
CLASS
  1
XRECORD
  2
AcDbXrecord
  3
AutoCAD 2000
 90
    32768
280
     0
281
     0
  0
CLASS
  1
LONG_TRANSACTION
  2
AcDbLongTransaction
  3
AutoCAD 2000
 90
    32768
280
     0
281
     0
  0
CLASS
  1
LWPOLYLINE
  2
AcDbPolyline
  3
AutoCAD 2000
 90
    32768
280
     0
281
     1
  0
CLASS
  1
HATCH
  2
AcDbHatch
  3
AutoCAD 2000
 90
    32768
280
     0
281
     1
  0
CLASS
  1
XRECORD
  2
AcDbXrecord
  3
AutoCAD 2000
 90
    32768
280
     0
281
     0
  0
CLASS
  1
LONG_TRANSACTION
  2
AcDbLongTransaction
  3
AutoCAD 2000
 90
    32768
280
     0
281
     0
  0
CLASS
  1
LWPOLYLINE
  2
AcDbPolyline
  3
AutoCAD 2000
 90
    32768
280
     0
281
     1
  0
CLASS
  1
HATCH
  2
AcDbHatch
  3
AutoCAD 2000
 90
    32768
280
     0
281
     1
  0
CLASS
  1
XRECORD
  2
AcDbXrecord
  3
AutoCAD 2000
 90
    32768
280
     0
281
     0
  0
CLASS
  1
LONG_TRANSACTION
  2
AcDbLongTransaction
  3
AutoCAD 2000
 90
    32768
280
     0
281
     0
  0
CLASS
  1
LWPOLYLINE
  2
AcDbPolyline
  3
AutoCAD 2000
 90
    32768
280
     0
281
     1
  0
CLASS
  1
HATCH
  2
AcDbHatch
  3
AutoCAD 2000
 90
    32768
280
     0
281
     1
  0
CLASS
  1
XRECORD
  2
AcDbXrecord
  3
AutoCAD 2000
 90
    32768
280
     0
281
     0
  0
CLASS
  1
LONG_TRANSACTION
  2
AcDbLongTransaction
  3
AutoCAD 2000
 90
    32768
280
     0
281
     0
  0
CLASS
  1
LWPOLYLINE
  2
AcDbPolyline
  3
AutoCAD 2000
 90
    32768
280
     0
281
     1
  0
CLASS
  1
HATCH
  2
AcDbHatch
  3
AutoCAD 2000
 90
    32768
280
     0
281
     1
  0
CLASS
  1
XRECORD
  2
AcDbXrecord
  3
AutoCAD 2000
 90
    32768
280
     0
281
     0
  0
CLASS
  1
LONG_TRANSACTION
  2
AcDbLongTransaction
  3
AutoCAD 2000
 90
    32768
280
     0
281
     0
  0
CLASS
  1
LWPOLYLINE
  2
AcDbPolyline
  3
AutoCAD 2000
 90
    32768
280
     0
281
     1
  0
CLASS
  1
HATCH
  2
AcDbHatch
  3
AutoCAD 2000
 90
    32768
280
     0
281
     1
  0
CLASS
  1
XRECORD
  2
AcDbXrecord
  3
AutoCAD 2000
 90
    32768
280
     0
281
     0
  0
CLASS
  1
LONG_TRANSACTION
  2
AcDbLongTransaction
  3
AutoCAD 2000
 90
    32768
280
     0
281
     0
  0
CLASS
  1
LWPOLYLINE
  2
AcDbPolyline
  3
AutoCAD 2000
 90
    32768
280
     0
281
     1
  0
CLASS
  1
HATCH
  2
AcDbHatch
  3
AutoCAD 2000
 90
    32768
280
     0
281
     1
  0
CLASS
  1
XRECORD
  2
AcDbXrecord
  3
AutoCAD 2000
 90
    32768
280
     0
281
     0
  0
CLASS
  1
LONG_TRANSACTION
  2
AcDbLongTransaction
  3
AutoCAD 2000
 90
    32768
280
     0
281
     0
  0
CLASS
  1
LWPOLYLINE
  2
AcDbPolyline
  3
AutoCAD 2000
 90
    32768
280
     0
281
     1
  0
CLASS
  1
HATCH
  2
AcDbHatch
  3
AutoCAD 2000
 90
    32768
280
     0
281
     1
  0
CLASS
  1
XRECORD
  2
AcDbXrecord
  3
AutoCAD 2000
 90
    32768
280
     0
281
     0
  0
CLASS
  1
LONG_TRANSACTION
  2
AcDbLongTransaction
  3
AutoCAD 2000
 90
    32768
280
     0
281
     0
  0
CLASS
  1
LWPOLYLINE
  2
AcDbPolyline
  3
AutoCAD 2000
 90
    32768
280
     0
281
     1
  0
CLASS
  1
HATCH
  2
AcDbHatch
  3
AutoCAD 2000
 90
    32768
280
     0
281
     1
  0
CLASS
  1
XRECORD
  2
AcDbXrecord
  3
AutoCAD 2000
 90
    32768
280
     0
281
     0
  0
ENDSEC
  0
SECTION
  2
TABLES
  0
TABLE
  2
VPORT
  5
90
330
0
100
AcDbSymbolTable
 70
     2
  0
VPORT
  5
4FD
330
90
100
AcDbSymbolTableRecord
100
AcDbViewportTableRecord
  2
*ACTIVE
 70
     0
 10
0.0
 20
0.0
 11
1.0
 21
1.0
 12
147.5846617884526
 22
212.727780730409
 13
0.0
 23
0.0
 14
10.0
 24
10.0
 15
10.0
 25
10.0
 16
0.0
 26
0.0
 36
1.0
 17
0.0
 27
0.0
 37
0.0
 40
473.7312409386391
 41
1.549367088607595
 42
50.0
 43
0.0
 44
0.0
 50
0.0
 51
0.0
 71
     0
 72
 10000
 73
     1
 74
     3
 75
     0
 76
     0
 77
     0
 78
     1
  0
ENDTAB
  0
TABLE
  2
LTYPE
  5
8B
330
0
100
AcDbSymbolTable
 70
     3
  0
LTYPE
  5
8C
330
8B
100
AcDbSymbolTableRecord
100
AcDbLinetypeTableRecord
  2
BYBLOCK
 70
     0
  3

 72
    65
 73
     0
 40
0.0
  0
LTYPE
  5
8D
330
8B
100
AcDbSymbolTableRecord
100
AcDbLinetypeTableRecord
  2
BYLAYER
 70
     0
  3

 72
    65
 73
     0
 40
0.0
  0
LTYPE
  5
9
330
8B
100
AcDbSymbolTableRecord
100
AcDbLinetypeTableRecord
  2
CONTINUOUS
 70
     0
  3
Solid line
 72
    65
 73
     0
 40
0.0
  0
LTYPE
  5
C1
330
8B
100
AcDbSymbolTableRecord
100
AcDbLinetypeTableRecord
  2
CENTER
 70
     0
  3
Center ____ _ ____ _ ____ _ ____ _ ____ _ ____
 72
    65
 73
     4
 40
50.8
 49
31.75
 74
     0
 49
-6.349999999999998
 74
     0
 49
6.349999999999998
 74
     0
 49
-6.349999999999998
 74
     0
  0
LTYPE
  5
1D5
330
8B
100
AcDbSymbolTableRecord
100
AcDbLinetypeTableRecord
  2
HIDDEN
 70
     0
  3
Hidden __ __ __ __ __ __ __ __ __ __ __ __ __ _
 72
    65
 73
     2
 40
9.524999999999996
 49
6.349999999999998
 74
     0
 49
-3.174999999999998
 74
     0
  0
ENDTAB
  0
TABLE
  2
LAYER
  5
12
102
{ACAD_XDICTIONARY
360
13
102
}
330
0
100
AcDbSymbolTable
 70
     7
  0
LAYER
  5
5
330
12
100
AcDbSymbolTableRecord
100
AcDbLayerTableRecord
  2
0
 70
     0
 62
     7
  6
CONTINUOUS
  0
LAYER
  5
222
330
12
100
AcDbSymbolTableRecord
100
AcDbLayerTableRecord
  2
3
 70
     0
 62
     3
  6
CONTINUOUS
  0
LAYER
  5
28C
330
12
100
AcDbSymbolTableRecord
100
AcDbLayerTableRecord
  2
1
 70
     0
 62
     1
  6
CENTER
  0
LAYER
  5
B5
330
12
100
AcDbSymbolTableRecord
100
AcDbLayerTableRecord
  2
DEFPOINTS
 70
     0
 62
     7
  6
CONTINUOUS
  0
LAYER
  5
A5
330
12
100
AcDbSymbolTableRecord
100
AcDbLayerTableRecord
  2
DIM
 70
     0
 62
     3
  6
CONTINUOUS
  0
LAYER
  5
D9
330
12
100
AcDbSymbolTableRecord
100
AcDbLayerTableRecord
  2
CEN
 70
     0
 62
     1
  6
CENTER
  0
LAYER
  5
9F
330
12
100
AcDbSymbolTableRecord
100
AcDbLayerTableRecord
  2
2
 70
     0
 62
     2
  6
CONTINUOUS
  0
ENDTAB
  0
TABLE
  2
STYLE
  5
88
330
0
100
AcDbSymbolTable
 70
     2
  0
STYLE
  5
89
330
88
100
AcDbSymbolTableRecord
100
AcDbTextStyleTableRecord
  2
STANDARD
 70
     0
 40
0.0
 41
1.0
 50
0.0
 71
     0
 42
5.777225951253058
  3
romans.shx
  4
whgtxt.shx
  0
STYLE
  5
28E
330
88
100
AcDbSymbolTableRecord
100
AcDbTextStyleTableRecord
  2
GHS
 70
     0
 40
0.0
 41
0.6
 50
0.0
 71
     0
 42
3.0
  3
ROMANS
  4
GHS
  0
ENDTAB
  0
TABLE
  2
VIEW
  5
8E
330
0
100
AcDbSymbolTable
 70
     0
  0
ENDTAB
  0
TABLE
  2
UCS
  5
8F
330
0
100
AcDbSymbolTable
 70
     0
  0
ENDTAB
  0
TABLE
  2
APPID
  5
92
330
0
100
AcDbSymbolTable
 70
     2
  0
APPID
  5
93
330
92
100
AcDbSymbolTableRecord
100
AcDbRegAppTableRecord
  2
ACAD
 70
     0
  0
APPID
  5
50B
330
92
100
AcDbSymbolTableRecord
100
AcDbRegAppTableRecord
  2
CONTENTBLOCKICON
 70
     0
  0
ENDTAB
  0
TABLE
  2
DIMSTYLE
  5
94
330
0
100
AcDbSymbolTable
 70
     2
  0
DIMSTYLE
105
9D
102
{ACAD_REACTORS
330
CA
330
211
330
2B8
330
2A8
330
34B
330
E8
330
F7
330
104
330
35C
330
2CD
330
307
330
316
330
323
330
334
330
263
330
23E
330
252
330
224
330
274
330
124
330
AA
330
1DF
330
117
330
171
330
160
330
151
330
140
330
1FB
330
1EC
330
131
330
1C1
102
}
330
94
100
AcDbSymbolTableRecord
100
AcDbDimStyleTableRecord
  2
STANDARD
 70
     0
  3

  4

  5

  6

  7

 40
1.0
 41
2.5
 42
1.0
 43
10.0
 44
0.6
 45
0.0
 46
0.0
 47
0.0
 48
0.0
140
3.0
141
0.09
142
0.0
143
25.4
144
1.0
145
0.0
146
1.0
147
1.0
 71
     0
 72
     0
 73
     0
 74
     0
 75
     0
 76
     0
 77
     1
 78
     8
170
     0
171
     2
172
     1
173
     0
174
     1
175
     0
176
   123
177
   123
178
     3
270
     2
271
     2
272
     2
273
     2
274
     2
340
89
275
     1
280
     0
281
     0
282
     0
283
     1
284
     0
285
     0
286
     0
287
     0
288
     1
  0
DIMSTYLE
105
95
330
94
100
AcDbSymbolTableRecord
100
AcDbDimStyleTableRecord
  2
1_1_2
 70
     0
  3

  4

  5

  6

  7

 40
1.0
 41
3.0
 42
1.0
 43
10.0
 44
0.6
 45
0.0
 46
0.0
 47
0.0
 48
0.0
140
3.5
141
0.09
142
0.0
143
25.4
144
1.0
145
0.0
146
1.0
147
1.0
 71
     0
 72
     0
 73
     0
 74
     0
 75
     0
 76
     0
 77
     1
 78
     8
170
     0
171
     2
172
     1
173
     0
174
     1
175
     0
176
   123
177
   123
178
     3
270
     2
271
     2
272
     2
273
     2
274
     2
340
89
275
     1
280
     0
281
     0
282
     0
283
     1
284
     0
285
     0
286
     0
287
     0
288
     1
  0
ENDTAB
  0
TABLE
  2
BLOCK_RECORD
  5
1
330
0
100
AcDbSymbolTable
 70
    62
  0
BLOCK_RECORD
  5
2
102
{ACAD_XDICTIONARY
360
3
102
}
330
1
100
AcDbSymbolTableRecord
100
AcDbBlockTableRecord
  2
*MODEL_SPACE
  0
BLOCK_RECORD
  5
D
102
{ACAD_XDICTIONARY
360
E
102
}
330
1
100
AcDbSymbolTableRecord
100
AcDbBlockTableRecord
  2
*PAPER_SPACE
  0
BLOCK_RECORD
  5
CD
330
1
100
AcDbSymbolTableRecord
100
AcDbBlockTableRecord
  2
*D0
  0
BLOCK_RECORD
  5
C9
330
1
100
AcDbSymbolTableRecord
100
AcDbBlockTableRecord
  2
3
1001
ACAD
1000
DesignCenter Data
1002
{
1070
     1
1070
     4
1002
}
1001
CONTENTBLOCKICON
1071
        0
1004
2800000020000000200000000100080000000000000400000000000000000000000000000000000000000000000080000080000000808000800000008000800080800000C0C0C000C0DCC000F0CAA6000020400000206000002080000020A0000020C0000020E00000400000004020000040400000406000004080000040A0
1004
000040C0000040E00000600000006020000060400000606000006080000060A0000060C0000060E00000800000008020000080400000806000008080000080A0000080C0000080E00000A0000000A0200000A0400000A0600000A0800000A0A00000A0C00000A0E00000C0000000C0200000C0400000C0600000C0800000C0
1004
A00000C0C00000C0E00000E0000000E0200000E0400000E0600000E0800000E0A00000E0C00000E0E00040000000400020004000400040006000400080004000A0004000C0004000E00040200000402020004020400040206000402080004020A0004020C0004020E000404000004040200040404000404060004040800040
1004
40A0004040C0004040E00040600000406020004060400040606000406080004060A0004060C0004060E00040800000408020004080400040806000408080004080A0004080C0004080E00040A0000040A0200040A0400040A0600040A0800040A0A00040A0C00040A0E00040C0000040C0200040C0400040C0600040C08000
1004
40C0A00040C0C00040C0E00040E0000040E0200040E0400040E0600040E0800040E0A00040E0C00040E0E00080000000800020008000400080006000800080008000A0008000C0008000E00080200000802020008020400080206000802080008020A0008020C0008020E00080400000804020008040400080406000804080
1004
008040A0008040C0008040E00080600000806020008060400080606000806080008060A0008060C0008060E00080800000808020008080400080806000808080008080A0008080C0008080E00080A0000080A0200080A0400080A0600080A0800080A0A00080A0C00080A0E00080C0000080C0200080C0400080C0600080C0
1004
800080C0A00080C0C00080C0E00080E0000080E0200080E0400080E0600080E0800080E0A00080E0C00080E0E000C0000000C0002000C0004000C0006000C0008000C000A000C000C000C000E000C0200000C0202000C0204000C0206000C0208000C020A000C020C000C020E000C0400000C0402000C0404000C0406000C0
1004
408000C040A000C040C000C040E000C0600000C0602000C0604000C0606000C0608000C060A000C060C000C060E000C0800000C0802000C0804000C0806000C0808000C080A000C080C000C080E000C0A00000C0A02000C0A04000C0A06000C0A08000C0A0A000C0A0C000C0A0E000C0C00000C0C02000C0C04000C0C06000
1004
C0C08000C0C0A000F0FBFF00A4A0A000808080000000FF0000FF000000FFFF00FF000000FF00FF00FFFF0000FFFFFF0000000000000000000000000000000000000000000000000000000000000000000000000000000000000000000000000000000000000000000000000000000000000000000000000000000000000000
1004
00000000000000000000000000000000000000000000000000000000000000000000000000000000000000000000000000000000F90000F90000000000000000000000000000F9FFF9000000000000000000F300FFF9FF00000000000000000000000000000000F9FF00000000000000000000F3FFFFF90000000000000000
1004
00000000000000F9FFF900000000000000000000F900F30000000000000000000000000000000000000000000000000000000000000000F3F30000000000000000000000000000000000000000000000000000000000000000F30000000000000000000000000000000000000000000000000000000000000000F300000000
1004
00000000000000000000000000000000000000000000000000000000F30000000000000000000000000000000000000000000000000000000000000000F3F30000000000000000000000000000000000000000000000000000000000000000F300000000000000000000000000000000000000000000000000000000000000
1004
00F30000000000000000000000000000000000000000000000000000000000000000F30000000000000000000000000000000000000000000000000000000000000000F3F30000000000000000000000000000000000000000000000000000000000000000F300000000000000000000000000000000000000000000000000
1004
00000000000000F30000000000000000000000000000000000000000000000000000000000000000F30000000000000000000000000000000000000000000000000000000000000000F3F30000000000000000000000000000000000000000000000000000000000000000F300F900000000000000000000F900F900000000
1004
0000000000000000000000F9FFF9F300000000000000000000FFF9FF00000000000000000000000000000000FFFF00FA000000000000000000F9FFF9000000000000000000000000000000F9FFF9FAFAFA00000000000000000000000000000000000000000000000000F900000000FAFAFAF3000000000000000000000000
1004
0000000000000000000000000000000000FAFAFAFA0000000000000000000000000000000000000000000000000000000000FAFAFAF300000000000000000000000000000000000000000000000000000000000000000000000000000000000000000000000000000000000000000000000000000000000000000000000000
1004
0000000000000000000000000000000000000000000000000000000000000000000000000000000000000000000000000000000000000000
  0
BLOCK_RECORD
  5
2A9
330
1
100
AcDbSymbolTableRecord
100
AcDbBlockTableRecord
  2
*D2
  0
BLOCK_RECORD
  5
F8
330
1
100
AcDbSymbolTableRecord
100
AcDbBlockTableRecord
  2
*D3
  0
BLOCK_RECORD
  5
317
330
1
100
AcDbSymbolTableRecord
100
AcDbBlockTableRecord
  2
*D4
  0
BLOCK_RECORD
  5
214
330
1
100
AcDbSymbolTableRecord
100
AcDbBlockTableRecord
  2
*D5
  0
BLOCK_RECORD
  5
2BB
330
1
100
AcDbSymbolTableRecord
100
AcDbBlockTableRecord
  2
*D6
  0
BLOCK_RECORD
  5
34E
330
1
100
AcDbSymbolTableRecord
100
AcDbBlockTableRecord
  2
*D7
  0
BLOCK_RECORD
  5
EB
330
1
100
AcDbSymbolTableRecord
100
AcDbBlockTableRecord
  2
*D8
  0
BLOCK_RECORD
  5
107
330
1
100
AcDbSymbolTableRecord
100
AcDbBlockTableRecord
  2
*D9
  0
BLOCK_RECORD
  5
35F
330
1
100
AcDbSymbolTableRecord
100
AcDbBlockTableRecord
  2
*D10
  0
BLOCK_RECORD
  5
2D0
330
1
100
AcDbSymbolTableRecord
100
AcDbBlockTableRecord
  2
*D11
  0
BLOCK_RECORD
  5
30A
330
1
100
AcDbSymbolTableRecord
100
AcDbBlockTableRecord
  2
*D12
  0
BLOCK_RECORD
  5
326
330
1
100
AcDbSymbolTableRecord
100
AcDbBlockTableRecord
  2
*D13
  0
BLOCK_RECORD
  5
337
330
1
100
AcDbSymbolTableRecord
100
AcDbBlockTableRecord
  2
*D14
  0
BLOCK_RECORD
  5
253
330
1
100
AcDbSymbolTableRecord
100
AcDbBlockTableRecord
  2
*D15
  0
BLOCK_RECORD
  5
266
330
1
100
AcDbSymbolTableRecord
100
AcDbBlockTableRecord
  2
*D16
  0
BLOCK_RECORD
  5
241
330
1
100
AcDbSymbolTableRecord
100
AcDbBlockTableRecord
  2
*D17
  0
BLOCK_RECORD
  5
227
330
1
100
AcDbSymbolTableRecord
100
AcDbBlockTableRecord
  2
*D18
  0
BLOCK_RECORD
  5
277
330
1
100
AcDbSymbolTableRecord
100
AcDbBlockTableRecord
  2
*D19
  0
BLOCK_RECORD
  5
125
330
1
100
AcDbSymbolTableRecord
100
AcDbBlockTableRecord
  2
*D20
  0
BLOCK_RECORD
  5
1E0
330
1
100
AcDbSymbolTableRecord
100
AcDbBlockTableRecord
  2
*D21
  0
BLOCK_RECORD
  5
118
330
1
100
AcDbSymbolTableRecord
100
AcDbBlockTableRecord
  2
*D22
  0
BLOCK_RECORD
  5
1C4
330
1
100
AcDbSymbolTableRecord
100
AcDbBlockTableRecord
  2
*D23
  0
BLOCK_RECORD
  5
134
330
1
100
AcDbSymbolTableRecord
100
AcDbBlockTableRecord
  2
*D24
  0
BLOCK_RECORD
  5
174
330
1
100
AcDbSymbolTableRecord
100
AcDbBlockTableRecord
  2
*D25
  0
BLOCK_RECORD
  5
154
330
1
100
AcDbSymbolTableRecord
100
AcDbBlockTableRecord
  2
*D26
  0
BLOCK_RECORD
  5
1EF
330
1
100
AcDbSymbolTableRecord
100
AcDbBlockTableRecord
  2
*D27
  0
BLOCK_RECORD
  5
1FE
330
1
100
AcDbSymbolTableRecord
100
AcDbBlockTableRecord
  2
*D28
  0
BLOCK_RECORD
  5
163
330
1
100
AcDbSymbolTableRecord
100
AcDbBlockTableRecord
  2
*D29
  0
BLOCK_RECORD
  5
143
330
1
100
AcDbSymbolTableRecord
100
AcDbBlockTableRecord
  2
*D30
  0
BLOCK_RECORD
  5
AD
330
1
100
AcDbSymbolTableRecord
100
AcDbBlockTableRecord
  2
*D31
  0
BLOCK_RECORD
  5
378
330
1
100
AcDbSymbolTableRecord
100
AcDbBlockTableRecord
  2
*D32
  0
BLOCK_RECORD
  5
386
330
1
100
AcDbSymbolTableRecord
100
AcDbBlockTableRecord
  2
*D33
  0
BLOCK_RECORD
  5
392
330
1
100
AcDbSymbolTableRecord
100
AcDbBlockTableRecord
  2
*D34
  0
BLOCK_RECORD
  5
39E
330
1
100
AcDbSymbolTableRecord
100
AcDbBlockTableRecord
  2
*D35
  0
BLOCK_RECORD
  5
3AA
330
1
100
AcDbSymbolTableRecord
100
AcDbBlockTableRecord
  2
*D36
  0
BLOCK_RECORD
  5
3B8
330
1
100
AcDbSymbolTableRecord
100
AcDbBlockTableRecord
  2
*D37
  0
BLOCK_RECORD
  5
3C4
330
1
100
AcDbSymbolTableRecord
100
AcDbBlockTableRecord
  2
*D38
  0
BLOCK_RECORD
  5
3D2
330
1
100
AcDbSymbolTableRecord
100
AcDbBlockTableRecord
  2
*D39
  0
BLOCK_RECORD
  5
3DE
330
1
100
AcDbSymbolTableRecord
100
AcDbBlockTableRecord
  2
*D40
  0
BLOCK_RECORD
  5
3EA
330
1
100
AcDbSymbolTableRecord
100
AcDbBlockTableRecord
  2
*D41
  0
BLOCK_RECORD
  5
3F6
330
1
100
AcDbSymbolTableRecord
100
AcDbBlockTableRecord
  2
*D42
  0
BLOCK_RECORD
  5
404
330
1
100
AcDbSymbolTableRecord
100
AcDbBlockTableRecord
  2
*D43
  0
BLOCK_RECORD
  5
410
330
1
100
AcDbSymbolTableRecord
100
AcDbBlockTableRecord
  2
*D44
  0
BLOCK_RECORD
  5
41C
330
1
100
AcDbSymbolTableRecord
100
AcDbBlockTableRecord
  2
*D45
  0
BLOCK_RECORD
  5
428
330
1
100
AcDbSymbolTableRecord
100
AcDbBlockTableRecord
  2
*D46
  0
BLOCK_RECORD
  5
434
330
1
100
AcDbSymbolTableRecord
100
AcDbBlockTableRecord
  2
*D47
  0
BLOCK_RECORD
  5
442
330
1
100
AcDbSymbolTableRecord
100
AcDbBlockTableRecord
  2
*D48
  0
BLOCK_RECORD
  5
450
330
1
100
AcDbSymbolTableRecord
100
AcDbBlockTableRecord
  2
*D49
  0
BLOCK_RECORD
  5
45E
330
1
100
AcDbSymbolTableRecord
100
AcDbBlockTableRecord
  2
*D50
  0
BLOCK_RECORD
  5
46A
330
1
100
AcDbSymbolTableRecord
100
AcDbBlockTableRecord
  2
*D51
  0
BLOCK_RECORD
  5
478
330
1
100
AcDbSymbolTableRecord
100
AcDbBlockTableRecord
  2
*D52
  0
BLOCK_RECORD
  5
484
330
1
100
AcDbSymbolTableRecord
100
AcDbBlockTableRecord
  2
*D53
  0
BLOCK_RECORD
  5
490
330
1
100
AcDbSymbolTableRecord
100
AcDbBlockTableRecord
  2
*D54
  0
BLOCK_RECORD
  5
49C
330
1
100
AcDbSymbolTableRecord
100
AcDbBlockTableRecord
  2
*D55
  0
BLOCK_RECORD
  5
4A8
330
1
100
AcDbSymbolTableRecord
100
AcDbBlockTableRecord
  2
*D56
  0
BLOCK_RECORD
  5
4B4
330
1
100
AcDbSymbolTableRecord
100
AcDbBlockTableRecord
  2
*D57
  0
BLOCK_RECORD
  5
4C2
330
1
100
AcDbSymbolTableRecord
100
AcDbBlockTableRecord
  2
*D58
  0
BLOCK_RECORD
  5
4CE
330
1
100
AcDbSymbolTableRecord
100
AcDbBlockTableRecord
  2
*D59
  0
BLOCK_RECORD
  5
4DC
330
1
100
AcDbSymbolTableRecord
100
AcDbBlockTableRecord
  2
*D60
  0
BLOCK_RECORD
  5
4E8
330
1
100
AcDbSymbolTableRecord
100
AcDbBlockTableRecord
  2
*D61
  0
ENDTAB
  0
ENDSEC
  0
SECTION
  2
BLOCKS
  0
BLOCK
  5
4
330
2
100
AcDbEntity
  8
0
100
AcDbBlockBegin
  2
*MODEL_SPACE
 70
     0
 10
0.0
 20
0.0
 30
0.0
  3
*MODEL_SPACE
  1

  0
ENDBLK
  5
A
330
2
100
AcDbEntity
  8
0
100
AcDbBlockEnd
  0
BLOCK
  5
F
330
D
100
AcDbEntity
 67
     1
  8
0
100
AcDbBlockBegin
  2
*PAPER_SPACE
 70
     0
 10
0.0
 20
0.0
 30
0.0
  3
*PAPER_SPACE
  1

  0
ENDBLK
  5
10
330
D
100
AcDbEntity
 67
     1
  8
0
100
AcDbBlockEnd
  0
BLOCK
  5
D6
330
CD
100
AcDbEntity
  8
0
100
AcDbBlockBegin
  2
*D0
 70
     1
 10
0.0
 20
0.0
 30
0.0
  3
*D0
  1

  0
LINE
  5
CE
330
CD
100
AcDbEntity
  8
0
 62
   123
100
AcDbLine
 10
15629.80488223125
 20
-1733.340049768652
 30
0.0
 11
15627.80633318254
 21
-1734.841982423581
 31
0.0
  0
LINE
  5
CF
330
CD
100
AcDbEntity
  8
0
 62
   123
100
AcDbLine
 10
15699.35438912599
 20
-1681.072793377123
 30
0.0
 11
15717.68393897264
 21
-1667.297925313345
 31
0.0
  0
LINE
  5
D0
330
CD
100
AcDbEntity
  8
0
 62
   123
100
AcDbLine
 10
15631.80343127995
 20
-1731.838117113723
 30
0.0
 11
15697.35584007729
 21
-1682.574726032052
 31
0.0
  0
SOLID
  5
D1
330
CD
100
AcDbEntity
  8
0
 62
   123
100
AcDbTrace
 10
15629.55456012208
 20
-1733.006958260537
 30
0.0
 11
15630.0552043404
 21
-1733.673141276769
 31
0.0
 12
15631.80343127995
 22
-1731.838117113723
 32
0.0
 13
15631.80343127995
 23
-1731.838117113723
 33
0.0
  0
SOLID
  5
D2
330
CD
100
AcDbEntity
  8
0
 62
   123
100
AcDbTrace
 10
15699.10406701684
 20
-1680.739701869008
 30
0.0
 11
15699.60471123515
 21
-1681.40588488524
 31
0.0
 12
15697.35584007729
 22
-1682.574726032052
 32
0.0
 13
15697.35584007729
 23
-1682.574726032052
 33
0.0
  0
MTEXT
  5
D3
330
CD
100
AcDbEntity
  8
0
 62
     3
100
AcDbMText
 10
15708.01650591874
 20
-1671.435843969068
 30
0.0
 40
3.0
 41
0.0
 71
     5
 72
     1
  1
\A1;\U+220582%%P0.5
 11
0.7994196194798298
 21
0.6007730619715935
 31
0.0
1001
ACAD
1000
MTEXTBEGIN
1070
    73
1070
     1
1070
    44
1040
1.0
1070
    74
1070
     0
1000
MTEXTEND
  0
POINT
  5
D4
330
CD
100
AcDbEntity
  8
DEFPOINTS
 62
     0
100
AcDbPoint
 10
15697.35584007729
 20
-1682.574726032052
 30
0.0
  0
POINT
  5
D5
330
CD
100
AcDbEntity
  8
DEFPOINTS
 62
     0
100
AcDbPoint
 10
15631.80343127995
 20
-1731.838117113723
 30
0.0
  0
ENDBLK
  5
D7
330
CD
100
AcDbEntity
  8
0
100
AcDbBlockEnd
  0
BLOCK
  5
E5
330
C9
100
AcDbEntity
  8
0
100
AcDbBlockBegin
  2
3
 70
     0
 10
0.0
 20
0.0
 30
0.0
  3
3
  1

  0
DIMENSION
  5
CA
102
{ACAD_XDICTIONARY
360
CB
102
}
102
{ACAD_REACTORS
330
CC
102
}
330
C9
100
AcDbEntity
  8
0
100
AcDbDimension
  2
*D0
 10
-32.77620439867496
 20
-24.63169554083719
 30
0.0
 11
44.93880289504522
 21
33.772028555117
 31
0.0
 12
-15664.57963567861
 22
1707.206421572886
 32
0.0
 70
   131
  1
<>%%P0.5
  3
STANDARD
100
AcDbDiametricDimension
 15
32.77620439867132
 25
24.63169554083401
 35
0.0
 40
0.0
  0
ARC
  5
D8
102
{ACAD_REACTORS
330
CC
102
}
330
C9
100
AcDbEntity
  8
CEN
 48
0.6
100
AcDbCircle
 10
-0.000000000003638
 20
0.0000000000020464
 30
0.0
 40
41.0
100
AcDbArc
 50
34.15351134749203
 51
55.84648865250797
  0
LINE
  5
DA
330
C9
100
AcDbEntity
  8
CEN
 48
0.6
100
AcDbLine
 10
25.63262081800167
 20
25.63262081802145
 30
0.0
 11
32.35013523927227
 21
32.35013523929547
 31
0.0
  0
CIRCLE
  5
DB
330
C9
100
AcDbEntity
  8
0
100
AcDbCircle
 10
28.99137802863515
 20
28.99137802865948
 30
0.0
 40
2.75
  0
CIRCLE
  5
DC
330
C9
100
AcDbEntity
  8
0
100
AcDbCircle
 10
-28.99137802866608
 20
28.99137802864379
 30
0.0
 40
2.75
  0
LINE
  5
DD
330
C9
100
AcDbEntity
  8
CEN
 48
0.6
100
AcDbLine
 10
-25.63262081802895
 20
25.63262081801099
 30
0.0
 11
-32.35013523930319
 21
32.35013523928158
 31
0.0
  0
ARC
  5
DE
330
C9
100
AcDbEntity
  8
CEN
 48
0.6
100
AcDbCircle
 10
-0.0000000000090949
 20
0.0000000000047748
 30
0.0
 40
41.0
100
AcDbArc
 50
128.358356428657
 51
141.641643571353
  0
ARC
  5
DF
330
C9
100
AcDbEntity
  8
CEN
 48
0.6
100
AcDbCircle
 10
-0.0000000000127329
 20
-0.0000000000009095
 30
0.0
 40
41.0
100
AcDbArc
 50
214.1535113474919
 51
235.8464886525078
  0
CIRCLE
  5
E0
330
C9
100
AcDbEntity
  8
0
100
AcDbCircle
 10
-28.99137802865151
 20
-28.99137802865833
 30
0.0
 40
2.75
  0
LINE
  5
E1
330
C9
100
AcDbEntity
  8
CEN
 48
0.6
100
AcDbLine
 10
-25.63262081801804
 20
-25.63262081802031
 30
0.0
 11
-32.35013523928865
 21
-32.35013523929433
 31
0.0
  0
CIRCLE
  5
E2
330
C9
100
AcDbEntity
  8
0
100
AcDbCircle
 10
28.99137802865151
 20
-28.99137802864446
 30
0.0
 40
2.75
  0
LINE
  5
E3
330
C9
100
AcDbEntity
  8
CEN
 48
0.6
100
AcDbLine
 10
25.63262081801257
 20
-25.63262081801052
 30
0.0
 11
32.35013523928683
 21
-32.35013523928113
 31
0.0
  0
ARC
  5
E4
330
C9
100
AcDbEntity
  8
CEN
 48
0.6
100
AcDbCircle
 10
-0.000000000005457
 20
-0.0000000000056843
 30
0.0
 40
41.0
100
AcDbArc
 50
308.3583564286569
 51
321.6416435713529
  0
ENDBLK
  5
E6
330
C9
100
AcDbEntity
  8
0
100
AcDbBlockEnd
  0
BLOCK
  5
2B3
330
2A9
100
AcDbEntity
  8
0
100
AcDbBlockBegin
  2
*D2
 70
     1
 10
0.0
 20
0.0
 30
0.0
  3
*D2
  1

  0
LINE
  5
2AA
330
2A9
100
AcDbEntity
  8
0
 62
   123
100
AcDbLine
 10
21670.15305455457
 20
-2099.785971983759
 30
0.0
 11
21670.15305455457
 21
-2157.681986365384
 31
0.0
  0
LINE
  5
2AB
330
2A9
100
AcDbEntity
  8
0
 62
   123
100
AcDbLine
 10
21702.15305455457
 20
-2139.785971983758
 30
0.0
 11
21702.15305455457
 21
-2157.681986365384
 31
0.0
  0
LINE
  5
2AC
330
2A9
100
AcDbEntity
  8
0
 62
   123
100
AcDbLine
 10
21672.65305455456
 20
-2157.081986365383
 30
0.0
 11
21699.65305455456
 21
-2157.081986365383
 31
0.0
  0
SOLID
  5
2AD
330
2A9
100
AcDbEntity
  8
0
 62
   123
100
AcDbTrace
 10
21672.65305455456
 20
-2156.665319698718
 30
0.0
 11
21672.65305455456
 21
-2157.498653032051
 31
0.0
 12
21670.15305455457
 22
-2157.081986365383
 32
0.0
 13
21670.15305455457
 23
-2157.081986365383
 33
0.0
  0
SOLID
  5
2AE
330
2A9
100
AcDbEntity
  8
0
 62
   123
100
AcDbTrace
 10
21699.65305455456
 20
-2156.665319698718
 30
0.0
 11
21699.65305455456
 21
-2157.498653032051
 31
0.0
 12
21702.15305455457
 22
-2157.081986365383
 32
0.0
 13
21702.15305455457
 23
-2157.081986365383
 33
0.0
  0
MTEXT
  5
2AF
330
2A9
100
AcDbEntity
  8
0
 62
     3
100
AcDbMText
 10
21686.15305455455
 20
-2154.581986365383
 30
0.0
 40
3.0
 41
0.0
 71
     5
 72
     1
  1
\A1;32
1001
ACAD
1000
MTEXTBEGIN
1070
    73
1070
     1
1070
    44
1040
1.0
1070
    74
1070
     0
1000
MTEXTEND
  0
POINT
  5
2B0
330
2A9
100
AcDbEntity
  8
DEFPOINTS
 62
     0
100
AcDbPoint
 10
21670.15305455457
 20
-2098.785971983758
 30
0.0
  0
POINT
  5
2B1
330
2A9
100
AcDbEntity
  8
DEFPOINTS
 62
     0
100
AcDbPoint
 10
21702.15305455457
 20
-2138.785971983759
 30
0.0
  0
POINT
  5
2B2
330
2A9
100
AcDbEntity
  8
DEFPOINTS
 62
     0
100
AcDbPoint
 10
21702.15305455457
 20
-2157.081986365383
 30
0.0
  0
ENDBLK
  5
2B4
330
2A9
100
AcDbEntity
  8
0
100
AcDbBlockEnd
  0
BLOCK
  5
102
330
F8
100
AcDbEntity
  8
0
100
AcDbBlockBegin
  2
*D3
 70
     1
 10
0.0
 20
0.0
 30
0.0
  3
*D3
  1

  0
LINE
  5
F9
330
F8
100
AcDbEntity
  8
0
 62
   123
100
AcDbLine
 10
21698.65305455457
 20
-2078.785971983758
 30
0.0
 11
21637.3870086321
 21
-2078.785971983758
 31
0.0
  0
LINE
  5
FA
330
F8
100
AcDbEntity
  8
0
 62
   123
100
AcDbLine
 10
21685.79333630926
 20
-2108.785971983758
 30
0.0
 11
21637.3870086321
 21
-2108.785971983758
 31
0.0
  0
LINE
  5
FB
330
F8
100
AcDbEntity
  8
0
 62
   123
100
AcDbLine
 10
21637.9870086321
 20
-2081.285971983759
 30
0.0
 11
21637.9870086321
 21
-2106.285971983758
 31
0.0
  0
SOLID
  5
FC
330
F8
100
AcDbEntity
  8
0
 62
   123
100
AcDbTrace
 10
21637.57034196545
 20
-2081.285971983759
 30
0.0
 11
21638.40367529878
 21
-2081.285971983759
 31
0.0
 12
21637.9870086321
 22
-2078.785971983758
 32
0.0
 13
21637.9870086321
 23
-2078.785971983758
 33
0.0
  0
SOLID
  5
FD
330
F8
100
AcDbEntity
  8
0
 62
   123
100
AcDbTrace
 10
21637.57034196545
 20
-2106.285971983758
 30
0.0
 11
21638.40367529878
 21
-2106.285971983758
 31
0.0
 12
21637.9870086321
 22
-2108.785971983758
 32
0.0
 13
21637.9870086321
 23
-2108.785971983758
 33
0.0
  0
MTEXT
  5
FE
330
F8
100
AcDbEntity
  8
0
 62
     3
100
AcDbMText
 10
21635.48700863211
 20
-2094.035971983758
 30
0.0
 40
3.0
 41
0.0
 71
     5
 72
     1
  1
\A1;{\F;%%c}30
 11
0.0000000000000001
 21
1.0
 31
0.0
1001
ACAD
1000
MTEXTBEGIN
1070
    73
1070
     1
1070
    44
1040
1.0
1070
    74
1070
     0
1000
MTEXTEND
  0
POINT
  5
FF
330
F8
100
AcDbEntity
  8
DEFPOINTS
 62
     0
100
AcDbPoint
 10
21699.65305455456
 20
-2078.785971983758
 30
0.0
  0
POINT
  5
100
330
F8
100
AcDbEntity
  8
DEFPOINTS
 62
     0
100
AcDbPoint
 10
21686.79333630926
 20
-2108.785971983758
 30
0.0
  0
POINT
  5
101
330
F8
100
AcDbEntity
  8
DEFPOINTS
 62
     0
100
AcDbPoint
 10
21637.9870086321
 20
-2108.785971983758
 30
0.0
  0
ENDBLK
  5
103
330
F8
100
AcDbEntity
  8
0
100
AcDbBlockEnd
  0
BLOCK
  5
321
330
317
100
AcDbEntity
  8
0
100
AcDbBlockBegin
  2
*D4
 70
     1
 10
0.0
 20
0.0
 30
0.0
  3
*D4
  1

  0
LINE
  5
318
330
317
100
AcDbEntity
  8
0
 62
   123
100
AcDbLine
 10
21653.17306942484
 20
-1979.431037972029
 30
0.0
 11
21653.17306942484
 21
-1928.083460147597
 31
0.0
  0
LINE
  5
319
330
317
100
AcDbEntity
  8
0
 62
   123
100
AcDbLine
 10
21666.17306942483
 20
-1947.270537972029
 30
0.0
 11
21666.17306942483
 21
-1928.083460147597
 31
0.0
  0
LINE
  5
31A
330
317
100
AcDbEntity
  8
0
 62
   123
100
AcDbLine
 10
21655.67306942485
 20
-1928.683460147597
 30
0.0
 11
21663.67306942484
 21
-1928.683460147597
 31
0.0
  0
SOLID
  5
31B
330
317
100
AcDbEntity
  8
0
 62
   123
100
AcDbTrace
 10
21655.67306942485
 20
-1928.26679348093
 30
0.0
 11
21655.67306942485
 21
-1929.100126814264
 31
0.0
 12
21653.17306942484
 22
-1928.683460147597
 32
0.0
 13
21653.17306942484
 23
-1928.683460147597
 33
0.0
  0
SOLID
  5
31C
330
317
100
AcDbEntity
  8
0
 62
   123
100
AcDbTrace
 10
21663.67306942484
 20
-1928.26679348093
 30
0.0
 11
21663.67306942484
 21
-1929.100126814264
 31
0.0
 12
21666.17306942483
 22
-1928.683460147597
 32
0.0
 13
21666.17306942483
 23
-1928.683460147597
 33
0.0
  0
MTEXT
  5
31D
330
317
100
AcDbEntity
  8
0
 62
     3
100
AcDbMText
 10
21659.67306942484
 20
-1926.183460147597
 30
0.0
 40
3.0
 41
0.0
 71
     5
 72
     1
  1
\A1;13
1001
ACAD
1000
MTEXTBEGIN
1070
    73
1070
     1
1070
    44
1040
1.0
1070
    74
1070
     0
1000
MTEXTEND
  0
POINT
  5
31E
330
317
100
AcDbEntity
  8
DEFPOINTS
 62
     0
100
AcDbPoint
 10
21653.17306942484
 20
-1980.431037972029
 30
0.0
  0
POINT
  5
31F
330
317
100
AcDbEntity
  8
DEFPOINTS
 62
     0
100
AcDbPoint
 10
21666.17306942483
 20
-1948.270537972029
 30
0.0
  0
POINT
  5
320
330
317
100
AcDbEntity
  8
DEFPOINTS
 62
     0
100
AcDbPoint
 10
21666.17306942483
 20
-1928.683460147597
 30
0.0
  0
ENDBLK
  5
322
330
317
100
AcDbEntity
  8
0
100
AcDbBlockEnd
  0
BLOCK
  5
21E
330
214
100
AcDbEntity
  8
0
100
AcDbBlockBegin
  2
*D5
 70
     1
 10
0.0
 20
0.0
 30
0.0
  3
*D5
  1

  0
LINE
  5
215
330
214
100
AcDbEntity
  8
0
 62
   123
100
AcDbLine
 10
21530.3636402902
 20
-2136.39896019308
 30
0.0
 11
21530.3636402902
 21
-2158.847962184302
 31
0.0
  0
LINE
  5
216
330
214
100
AcDbEntity
  8
0
 62
   123
100
AcDbLine
 10
21600.3636402902
 20
-2136.39896019308
 30
0.0
 11
21600.3636402902
 21
-2158.847962184302
 31
0.0
  0
LINE
  5
217
330
214
100
AcDbEntity
  8
0
 62
   123
100
AcDbLine
 10
21532.8636402902
 20
-2158.247962184302
 30
0.0
 11
21597.86364029021
 21
-2158.247962184302
 31
0.0
  0
SOLID
  5
218
330
214
100
AcDbEntity
  8
0
 62
   123
100
AcDbTrace
 10
21532.8636402902
 20
-2157.831295517636
 30
0.0
 11
21532.8636402902
 21
-2158.664628850968
 31
0.0
 12
21530.3636402902
 22
-2158.247962184302
 32
0.0
 13
21530.3636402902
 23
-2158.247962184302
 33
0.0
  0
SOLID
  5
219
330
214
100
AcDbEntity
  8
0
 62
   123
100
AcDbTrace
 10
21597.86364029021
 20
-2157.831295517636
 30
0.0
 11
21597.86364029021
 21
-2158.664628850968
 31
0.0
 12
21600.3636402902
 22
-2158.247962184302
 32
0.0
 13
21600.3636402902
 23
-2158.247962184302
 33
0.0
  0
MTEXT
  5
21A
330
214
100
AcDbEntity
  8
0
 62
     3
100
AcDbMText
 10
21568.70545583942
 20
-2155.747962184302
 30
0.0
 40
3.0
 41
0.0
 71
     5
 72
     1
  1
\A1;70
1001
ACAD
1000
MTEXTBEGIN
1070
    73
1070
     1
1070
    44
1040
1.0
1070
    74
1070
     0
1000
MTEXTEND
  0
POINT
  5
21B
330
214
100
AcDbEntity
  8
DEFPOINTS
 62
     0
100
AcDbPoint
 10
21530.3636402902
 20
-2135.39896019308
 30
0.0
  0
POINT
  5
21C
330
214
100
AcDbEntity
  8
DEFPOINTS
 62
     0
100
AcDbPoint
 10
21600.3636402902
 20
-2135.39896019308
 30
0.0
  0
POINT
  5
21D
330
214
100
AcDbEntity
  8
DEFPOINTS
 62
     0
100
AcDbPoint
 10
21600.3636402902
 20
-2158.247962184302
 30
0.0
  0
ENDBLK
  5
21F
330
214
100
AcDbEntity
  8
0
100
AcDbBlockEnd
  0
BLOCK
  5
2C5
330
2BB
100
AcDbEntity
  8
0
100
AcDbBlockBegin
  2
*D6
 70
     1
 10
0.0
 20
0.0
 30
0.0
  3
*D6
  1

  0
LINE
  5
2BC
330
2BB
100
AcDbEntity
  8
0
 62
   123
100
AcDbLine
 10
21744.15305455457
 20
-2144.785971983758
 30
0.0
 11
21744.15305455457
 21
-2157.681986365385
 31
0.0
  0
LINE
  5
2BD
330
2BB
100
AcDbEntity
  8
0
 62
   123
100
AcDbLine
 10
21702.15305455457
 20
-2144.785971983758
 30
0.0
 11
21702.15305455457
 21
-2157.681986365385
 31
0.0
  0
LINE
  5
2BE
330
2BB
100
AcDbEntity
  8
0
 62
   123
100
AcDbLine
 10
21741.65305455456
 20
-2157.081986365385
 30
0.0
 11
21704.65305455457
 21
-2157.081986365385
 31
0.0
  0
SOLID
  5
2BF
330
2BB
100
AcDbEntity
  8
0
 62
   123
100
AcDbTrace
 10
21741.65305455456
 20
-2156.665319698718
 30
0.0
 11
21741.65305455456
 21
-2157.498653032051
 31
0.0
 12
21744.15305455457
 22
-2157.081986365385
 32
0.0
 13
21744.15305455457
 23
-2157.081986365385
 33
0.0
  0
SOLID
  5
2C0
330
2BB
100
AcDbEntity
  8
0
 62
   123
100
AcDbTrace
 10
21704.65305455457
 20
-2156.665319698718
 30
0.0
 11
21704.65305455457
 21
-2157.498653032051
 31
0.0
 12
21702.15305455457
 22
-2157.081986365385
 32
0.0
 13
21702.15305455457
 23
-2157.081986365385
 33
0.0
  0
MTEXT
  5
2C1
330
2BB
100
AcDbEntity
  8
0
 62
     3
100
AcDbMText
 10
21723.15305455457
 20
-2154.581986365385
 30
0.0
 40
3.0
 41
0.0
 71
     5
 72
     1
  1
\A1;L
1001
ACAD
1000
MTEXTBEGIN
1070
    73
1070
     1
1070
    44
1040
1.0
1070
    74
1070
     0
1000
MTEXTEND
  0
POINT
  5
2C2
330
2BB
100
AcDbEntity
  8
DEFPOINTS
 62
     0
100
AcDbPoint
 10
21744.15305455457
 20
-2143.785971983759
 30
0.0
  0
POINT
  5
2C3
330
2BB
100
AcDbEntity
  8
DEFPOINTS
 62
     0
100
AcDbPoint
 10
21702.15305455457
 20
-2143.785971983759
 30
0.0
  0
POINT
  5
2C4
330
2BB
100
AcDbEntity
  8
DEFPOINTS
 62
     0
100
AcDbPoint
 10
21702.15305455457
 20
-2157.081986365385
 30
0.0
  0
ENDBLK
  5
2C6
330
2BB
100
AcDbEntity
  8
0
100
AcDbBlockEnd
  0
BLOCK
  5
35A
330
34E
100
AcDbEntity
  8
0
100
AcDbBlockBegin
  2
*D7
 70
     1
 10
0.0
 20
0.0
 30
0.0
  3
*D7
  1

  0
LINE
  5
34F
330
34E
100
AcDbEntity
  8
0
 62
   123
100
AcDbLine
 10
21702.15305455457
 20
-2072.785971983758
 30
0.0
 11
21702.15305455457
 21
-2064.003833280549
 31
0.0
  0
LINE
  5
350
330
34E
100
AcDbEntity
  8
0
 62
   123
100
AcDbLine
 10
21699.15305455456
 20
-2078.285971983758
 30
0.0
 11
21699.15305455456
 21
-2064.003833280549
 31
0.0
  0
LINE
  5
351
330
34E
100
AcDbEntity
  8
0
 62
   123
100
AcDbLine
 10
21704.65305455457
 20
-2064.603833280549
 30
0.0
 11
21707.15305455456
 21
-2064.603833280549
 31
0.0
  0
LINE
  5
352
330
34E
100
AcDbEntity
  8
0
 62
   123
100
AcDbLine
 10
21696.65305455457
 20
-2064.603833280549
 30
0.0
 11
21694.15305455456
 21
-2064.603833280549
 31
0.0
  0
LINE
  5
353
330
34E
100
AcDbEntity
  8
0
 62
   123
100
AcDbLine
 10
21702.15305455457
 20
-2064.603833280549
 30
0.0
 11
21699.15305455456
 21
-2064.603833280549
 31
0.0
  0
SOLID
  5
354
330
34E
100
AcDbEntity
  8
0
 62
   123
100
AcDbTrace
 10
21704.65305455457
 20
-2064.187166613883
 30
0.0
 11
21704.65305455457
 21
-2065.020499947216
 31
0.0
 12
21702.15305455457
 22
-2064.603833280549
 32
0.0
 13
21702.15305455457
 23
-2064.603833280549
 33
0.0
  0
SOLID
  5
355
330
34E
100
AcDbEntity
  8
0
 62
   123
100
AcDbTrace
 10
21696.65305455457
 20
-2064.187166613883
 30
0.0
 11
21696.65305455457
 21
-2065.020499947216
 31
0.0
 12
21699.15305455456
 22
-2064.603833280549
 32
0.0
 13
21699.15305455456
 23
-2064.603833280549
 33
0.0
  0
MTEXT
  5
356
330
34E
100
AcDbEntity
  8
0
 62
     3
100
AcDbMText
 10
21700.65305455457
 20
-2062.103833280549
 30
0.0
 40
3.0
 41
0.0
 71
     5
 72
     1
  1
\A1;3
1001
ACAD
1000
MTEXTBEGIN
1070
    73
1070
     1
1070
    44
1040
1.0
1070
    74
1070
     0
1000
MTEXTEND
  0
POINT
  5
357
330
34E
100
AcDbEntity
  8
DEFPOINTS
 62
     0
100
AcDbPoint
 10
21702.15305455457
 20
-2073.785971983758
 30
0.0
  0
POINT
  5
358
330
34E
100
AcDbEntity
  8
DEFPOINTS
 62
     0
100
AcDbPoint
 10
21699.15305455456
 20
-2079.285971983759
 30
0.0
  0
POINT
  5
359
330
34E
100
AcDbEntity
  8
DEFPOINTS
 62
     0
100
AcDbPoint
 10
21699.15305455456
 20
-2064.603833280549
 30
0.0
  0
ENDBLK
  5
35B
330
34E
100
AcDbEntity
  8
0
100
AcDbBlockEnd
  0
BLOCK
  5
F5
330
EB
100
AcDbEntity
  8
0
100
AcDbBlockBegin
  2
*D8
 70
     1
 10
0.0
 20
0.0
 30
0.0
  3
*D8
  1

  0
LINE
  5
EC
330
EB
100
AcDbEntity
  8
0
 62
   123
100
AcDbLine
 10
21665.25491575334
 20
-2093.785971983759
 30
0.0
 11
21646.28080845214
 21
-2093.785971983759
 31
0.0
  0
LINE
  5
ED
330
EB
100
AcDbEntity
  8
0
 62
   123
100
AcDbLine
 10
21685.79333630926
 20
-2108.785971983758
 30
0.0
 11
21646.28080845214
 21
-2108.785971983758
 31
0.0
  0
LINE
  5
EE
330
EB
100
AcDbEntity
  8
0
 62
   123
100
AcDbLine
 10
21646.88080845215
 20
-2096.28597198376
 30
0.0
 11
21646.88080845215
 21
-2106.285971983758
 31
0.0
  0
SOLID
  5
EF
330
EB
100
AcDbEntity
  8
0
 62
   123
100
AcDbTrace
 10
21646.46414178548
 20
-2096.28597198376
 30
0.0
 11
21647.29747511882
 21
-2096.28597198376
 31
0.0
 12
21646.88080845215
 22
-2093.785971983759
 32
0.0
 13
21646.88080845215
 23
-2093.785971983759
 33
0.0
  0
SOLID
  5
F0
330
EB
100
AcDbEntity
  8
0
 62
   123
100
AcDbTrace
 10
21646.46414178548
 20
-2106.285971983758
 30
0.0
 11
21647.29747511882
 21
-2106.285971983758
 31
0.0
 12
21646.88080845215
 22
-2108.785971983758
 32
0.0
 13
21646.88080845215
 23
-2108.785971983758
 33
0.0
  0
MTEXT
  5
F1
330
EB
100
AcDbEntity
  8
0
 62
     3
100
AcDbMText
 10
21644.38080845215
 20
-2101.285971983754
 30
0.0
 40
3.0
 41
0.0
 71
     5
 72
     1
  1
\A1;15
 11
0.0000000000000001
 21
1.0
 31
0.0
1001
ACAD
1000
MTEXTBEGIN
1070
    73
1070
     1
1070
    44
1040
1.0
1070
    74
1070
     0
1000
MTEXTEND
  0
POINT
  5
F2
330
EB
100
AcDbEntity
  8
DEFPOINTS
 62
     0
100
AcDbPoint
 10
21666.25491575334
 20
-2093.785971983759
 30
0.0
  0
POINT
  5
F3
330
EB
100
AcDbEntity
  8
DEFPOINTS
 62
     0
100
AcDbPoint
 10
21686.79333630926
 20
-2108.785971983758
 30
0.0
  0
POINT
  5
F4
330
EB
100
AcDbEntity
  8
DEFPOINTS
 62
     0
100
AcDbPoint
 10
21646.88080845215
 20
-2108.785971983758
 30
0.0
  0
ENDBLK
  5
F6
330
EB
100
AcDbEntity
  8
0
100
AcDbBlockEnd
  0
BLOCK
  5
113
330
107
100
AcDbEntity
  8
0
100
AcDbBlockBegin
  2
*D9
 70
     1
 10
0.0
 20
0.0
 30
0.0
  3
*D9
  1

  0
LINE
  5
108
330
107
100
AcDbEntity
  8
0
 62
   123
100
AcDbLine
 10
21669.15305455456
 20
-2098.78597198376
 30
0.0
 11
21654.72839126559
 21
-2098.78597198376
 31
0.0
  0
LINE
  5
109
330
107
100
AcDbEntity
  8
0
 62
   123
100
AcDbLine
 10
21669.15305455456
 20
-2088.785971983758
 30
0.0
 11
21654.72839126559
 21
-2088.785971983758
 31
0.0
  0
LINE
  5
10A
330
107
100
AcDbEntity
  8
0
 62
   123
100
AcDbLine
 10
21655.32839126559
 20
-2101.285971983759
 30
0.0
 11
21655.32839126559
 21
-2103.785971983759
 31
0.0
  0
LINE
  5
10B
330
107
100
AcDbEntity
  8
0
 62
   123
100
AcDbLine
 10
21655.32839126559
 20
-2086.285971983758
 30
0.0
 11
21655.32839126559
 21
-2047.98119334616
 31
0.0
  0
LINE
  5
10C
330
107
100
AcDbEntity
  8
0
 62
   123
100
AcDbLine
 10
21655.32839126559
 20
-2098.78597198376
 30
0.0
 11
21655.32839126559
 21
-2088.785971983758
 31
0.0
  0
SOLID
  5
10D
330
107
100
AcDbEntity
  8
0
 62
   123
100
AcDbTrace
 10
21654.91172459891
 20
-2101.285971983759
 30
0.0
 11
21655.74505793224
 21
-2101.285971983759
 31
0.0
 12
21655.32839126559
 22
-2098.78597198376
 32
0.0
 13
21655.32839126559
 23
-2098.78597198376
 33
0.0
  0
SOLID
  5
10E
330
107
100
AcDbEntity
  8
0
 62
   123
100
AcDbTrace
 10
21654.91172459891
 20
-2086.285971983758
 30
0.0
 11
21655.74505793224
 21
-2086.285971983758
 31
0.0
 12
21655.32839126559
 22
-2088.785971983758
 32
0.0
 13
21655.32839126559
 23
-2088.785971983758
 33
0.0
  0
MTEXT
  5
10F
330
107
100
AcDbEntity
  8
0
 62
     3
100
AcDbMText
 10
21651.37824126559
 20
-2062.79676477473
 30
0.0
 40
3.0
 41
0.0
 71
     5
 72
     1
  1
\A1;\A1;{\F;%%C10\H0.7x;\S+0^ -0.015;\H1.429x;(h7)}
 11
0.0000000000000001
 21
1.0
 31
0.0
1001
ACAD
1000
MTEXTBEGIN
1070
    73
1070
     1
1070
    44
1040
1.0
1070
    74
1070
     0
1000
MTEXTEND
  0
POINT
  5
110
330
107
100
AcDbEntity
  8
DEFPOINTS
 62
     0
100
AcDbPoint
 10
21670.15305455457
 20
-2098.78597198376
 30
0.0
  0
POINT
  5
111
330
107
100
AcDbEntity
  8
DEFPOINTS
 62
     0
100
AcDbPoint
 10
21670.15305455457
 20
-2088.785971983758
 30
0.0
  0
POINT
  5
112
330
107
100
AcDbEntity
  8
DEFPOINTS
 62
     0
100
AcDbPoint
 10
21655.32839126559
 20
-2088.785971983758
 30
0.0
  0
ENDBLK
  5
114
330
107
100
AcDbEntity
  8
0
100
AcDbBlockEnd
  0
BLOCK
  5
369
330
35F
100
AcDbEntity
  8
0
100
AcDbBlockBegin
  2
*D10
 70
     1
 10
0.0
 20
0.0
 30
0.0
  3
*D10
  1

  0
LINE
  5
360
330
35F
100
AcDbEntity
  8
0
 62
   123
100
AcDbLine
 10
21695.15305455457
 20
-2087.785971983759
 30
0.0
 11
21695.15305455457
 21
-2071.965683776857
 31
0.0
  0
LINE
  5
361
330
35F
100
AcDbEntity
  8
0
 62
   123
100
AcDbLine
 10
21670.15305455457
 20
-2087.785971983759
 30
0.0
 11
21670.15305455457
 21
-2071.965683776857
 31
0.0
  0
LINE
  5
362
330
35F
100
AcDbEntity
  8
0
 62
   123
100
AcDbLine
 10
21692.65305455457
 20
-2072.565683776857
 30
0.0
 11
21672.65305455456
 21
-2072.565683776857
 31
0.0
  0
SOLID
  5
363
330
35F
100
AcDbEntity
  8
0
 62
   123
100
AcDbTrace
 10
21692.65305455457
 20
-2072.14901711019
 30
0.0
 11
21692.65305455457
 21
-2072.982350443523
 31
0.0
 12
21695.15305455457
 22
-2072.565683776857
 32
0.0
 13
21695.15305455457
 23
-2072.565683776857
 33
0.0
  0
SOLID
  5
364
330
35F
100
AcDbEntity
  8
0
 62
   123
100
AcDbTrace
 10
21672.65305455456
 20
-2072.14901711019
 30
0.0
 11
21672.65305455456
 21
-2072.982350443523
 31
0.0
 12
21670.15305455457
 22
-2072.565683776857
 32
0.0
 13
21670.15305455457
 23
-2072.565683776857
 33
0.0
  0
MTEXT
  5
365
330
35F
100
AcDbEntity
  8
0
 62
     3
100
AcDbMText
 10
21682.96398522195
 20
-2070.065683776856
 30
0.0
 40
3.0
 41
0.0
 71
     5
 72
     1
  1
\A1;25
1001
ACAD
1000
MTEXTBEGIN
1070
    73
1070
     1
1070
    44
1040
1.0
1070
    74
1070
     0
1000
MTEXTEND
  0
POINT
  5
366
330
35F
100
AcDbEntity
  8
DEFPOINTS
 62
     0
100
AcDbPoint
 10
21695.15305455457
 20
-2088.785971983758
 30
0.0
  0
POINT
  5
367
330
35F
100
AcDbEntity
  8
DEFPOINTS
 62
     0
100
AcDbPoint
 10
21670.15305455457
 20
-2088.785971983758
 30
0.0
  0
POINT
  5
368
330
35F
100
AcDbEntity
  8
DEFPOINTS
 62
     0
100
AcDbPoint
 10
21670.15305455457
 20
-2072.565683776857
 30
0.0
  0
ENDBLK
  5
36A
330
35F
100
AcDbEntity
  8
0
100
AcDbBlockEnd
  0
BLOCK
  5
2DA
330
2D0
100
AcDbEntity
  8
0
100
AcDbBlockBegin
  2
*D11
 70
     1
 10
0.0
 20
0.0
 30
0.0
  3
*D11
  1

  0
LINE
  5
2D1
330
2D0
100
AcDbEntity
  8
0
 62
   123
100
AcDbLine
 10
21539.6117074226
 20
-1952.270537972029
 30
0.0
 11
21539.6117074226
 21
-1935.102742846122
 31
0.0
  0
LINE
  5
2D2
330
2D0
100
AcDbEntity
  8
0
 62
   123
100
AcDbLine
 10
21609.61170742259
 20
-1952.270537972029
 30
0.0
 11
21609.61170742259
 21
-1935.102742846122
 31
0.0
  0
LINE
  5
2D3
330
2D0
100
AcDbEntity
  8
0
 62
   123
100
AcDbLine
 10
21542.11170742259
 20
-1935.702742846123
 30
0.0
 11
21607.11170742259
 21
-1935.702742846123
 31
0.0
  0
SOLID
  5
2D4
330
2D0
100
AcDbEntity
  8
0
 62
   123
100
AcDbTrace
 10
21542.11170742259
 20
-1935.286076179456
 30
0.0
 11
21542.11170742259
 21
-1936.119409512788
 31
0.0
 12
21539.6117074226
 22
-1935.702742846123
 32
0.0
 13
21539.6117074226
 23
-1935.702742846123
 33
0.0
  0
SOLID
  5
2D5
330
2D0
100
AcDbEntity
  8
0
 62
   123
100
AcDbTrace
 10
21607.11170742259
 20
-1935.286076179456
 30
0.0
 11
21607.11170742259
 21
-1936.119409512788
 31
0.0
 12
21609.61170742259
 22
-1935.702742846123
 32
0.0
 13
21609.61170742259
 23
-1935.702742846123
 33
0.0
  0
MTEXT
  5
2D6
330
2D0
100
AcDbEntity
  8
0
 62
     3
100
AcDbMText
 10
21574.61170742259
 20
-1933.202742846123
 30
0.0
 40
3.0
 41
0.0
 71
     5
 72
     1
  1
\A1;70
1001
ACAD
1000
MTEXTBEGIN
1070
    73
1070
     1
1070
    44
1040
1.0
1070
    74
1070
     0
1000
MTEXTEND
  0
POINT
  5
2D7
330
2D0
100
AcDbEntity
  8
DEFPOINTS
 62
     0
100
AcDbPoint
 10
21539.6117074226
 20
-1953.270537972029
 30
0.0
  0
POINT
  5
2D8
330
2D0
100
AcDbEntity
  8
DEFPOINTS
 62
     0
100
AcDbPoint
 10
21609.61170742259
 20
-1953.270537972029
 30
0.0
  0
POINT
  5
2D9
330
2D0
100
AcDbEntity
  8
DEFPOINTS
 62
     0
100
AcDbPoint
 10
21609.61170742259
 20
-1935.702742846123
 30
0.0
  0
ENDBLK
  5
2DB
330
2D0
100
AcDbEntity
  8
0
100
AcDbBlockEnd
  0
BLOCK
  5
314
330
30A
100
AcDbEntity
  8
0
100
AcDbBlockBegin
  2
*D12
 70
     1
 10
0.0
 20
0.0
 30
0.0
  3
*D12
  1

  0
LINE
  5
30B
330
30A
100
AcDbEntity
  8
0
 62
   123
100
AcDbLine
 10
21663.17306942485
 20
-1951.270537972029
 30
0.0
 11
21640.97524454783
 21
-1951.270537972029
 31
0.0
  0
LINE
  5
30C
330
30A
100
AcDbEntity
  8
0
 62
   123
100
AcDbLine
 10
21663.17306942485
 20
-2015.270537972029
 30
0.0
 11
21640.97524454783
 21
-2015.270537972029
 31
0.0
  0
LINE
  5
30D
330
30A
100
AcDbEntity
  8
0
 62
   123
100
AcDbLine
 10
21641.57524454783
 20
-1953.770537972029
 30
0.0
 11
21641.57524454783
 21
-2012.770537972029
 31
0.0
  0
SOLID
  5
30E
330
30A
100
AcDbEntity
  8
0
 62
   123
100
AcDbTrace
 10
21641.15857788116
 20
-1953.770537972029
 30
0.0
 11
21641.9919112145
 21
-1953.770537972029
 31
0.0
 12
21641.57524454783
 22
-1951.270537972029
 32
0.0
 13
21641.57524454783
 23
-1951.270537972029
 33
0.0
  0
SOLID
  5
30F
330
30A
100
AcDbEntity
  8
0
 62
   123
100
AcDbTrace
 10
21641.15857788116
 20
-2012.770537972029
 30
0.0
 11
21641.9919112145
 21
-2012.770537972029
 31
0.0
 12
21641.57524454783
 22
-2015.270537972029
 32
0.0
 13
21641.57524454783
 23
-2015.270537972029
 33
0.0
  0
MTEXT
  5
310
330
30A
100
AcDbEntity
  8
0
 62
     3
100
AcDbMText
 10
21637.62509454783
 20
-1985.907679064328
 30
0.0
 40
3.0
 41
0.0
 71
     5
 72
     1
  1
\A1;\A1;%%C{\F;64\H0.7x;\S+0^ -0.030;\H1.429x;(h7)} 
 11
0.0000000000000001
 21
1.0
 31
0.0
1001
ACAD
1000
MTEXTBEGIN
1070
    73
1070
     1
1070
    44
1040
1.0
1070
    74
1070
     0
1000
MTEXTEND
  0
POINT
  5
311
330
30A
100
AcDbEntity
  8
DEFPOINTS
 62
     0
100
AcDbPoint
 10
21664.17306942483
 20
-1951.270537972029
 30
0.0
  0
POINT
  5
312
330
30A
100
AcDbEntity
  8
DEFPOINTS
 62
     0
100
AcDbPoint
 10
21664.17306942483
 20
-2015.270537972029
 30
0.0
  0
POINT
  5
313
330
30A
100
AcDbEntity
  8
DEFPOINTS
 62
     0
100
AcDbPoint
 10
21641.57524454783
 20
-2015.270537972029
 30
0.0
  0
ENDBLK
  5
315
330
30A
100
AcDbEntity
  8
0
100
AcDbBlockEnd
  0
BLOCK
  5
332
330
326
100
AcDbEntity
  8
0
100
AcDbBlockBegin
  2
*D13
 70
     1
 10
0.0
 20
0.0
 30
0.0
  3
*D13
  1

  0
LINE
  5
327
330
326
100
AcDbEntity
  8
0
 62
   123
100
AcDbLine
 10
21664.17306942483
 20
-1950.27053797203
 30
0.0
 11
21664.17306942483
 21
-1938.209668825552
 31
0.0
  0
LINE
  5
328
330
326
100
AcDbEntity
  8
0
 62
   123
100
AcDbLine
 10
21666.17306942483
 20
-1947.270537972029
 30
0.0
 11
21666.17306942483
 21
-1938.209668825552
 31
0.0
  0
LINE
  5
329
330
326
100
AcDbEntity
  8
0
 62
   123
100
AcDbLine
 10
21668.67306942484
 20
-1938.809668825552
 30
0.0
 11
21671.17306942484
 21
-1938.809668825552
 31
0.0
  0
LINE
  5
32A
330
326
100
AcDbEntity
  8
0
 62
   123
100
AcDbLine
 10
21661.67306942484
 20
-1938.809668825552
 30
0.0
 11
21655.17306942484
 21
-1938.809668825552
 31
0.0
  0
LINE
  5
32B
330
326
100
AcDbEntity
  8
0
 62
   123
100
AcDbLine
 10
21666.17306942483
 20
-1938.809668825552
 30
0.0
 11
21664.17306942483
 21
-1938.809668825552
 31
0.0
  0
SOLID
  5
32C
330
326
100
AcDbEntity
  8
0
 62
   123
100
AcDbTrace
 10
21668.67306942484
 20
-1938.393002158885
 30
0.0
 11
21668.67306942484
 21
-1939.226335492217
 31
0.0
 12
21666.17306942483
 22
-1938.809668825552
 32
0.0
 13
21666.17306942483
 23
-1938.809668825552
 33
0.0
  0
SOLID
  5
32D
330
326
100
AcDbEntity
  8
0
 62
   123
100
AcDbTrace
 10
21661.67306942484
 20
-1938.393002158885
 30
0.0
 11
21661.67306942484
 21
-1939.226335492217
 31
0.0
 12
21664.17306942483
 22
-1938.809668825552
 32
0.0
 13
21664.17306942483
 23
-1938.809668825552
 33
0.0
  0
MTEXT
  5
32E
330
326
100
AcDbEntity
  8
0
 62
     3
100
AcDbMText
 10
21657.17306942484
 20
-1936.309668825552
 30
0.0
 40
3.0
 41
0.0
 71
     5
 72
     1
  1
\A1;2
1001
ACAD
1000
MTEXTBEGIN
1070
    73
1070
     1
1070
    44
1040
1.0
1070
    74
1070
     0
1000
MTEXTEND
  0
POINT
  5
32F
330
326
100
AcDbEntity
  8
DEFPOINTS
 62
     0
100
AcDbPoint
 10
21664.17306942483
 20
-1951.27053797203
 30
0.0
  0
POINT
  5
330
330
326
100
AcDbEntity
  8
DEFPOINTS
 62
     0
100
AcDbPoint
 10
21666.17306942483
 20
-1948.270537972029
 30
0.0
  0
POINT
  5
331
330
326
100
AcDbEntity
  8
DEFPOINTS
 62
     0
100
AcDbPoint
 10
21666.17306942483
 20
-1938.809668825552
 30
0.0
  0
ENDBLK
  5
333
330
326
100
AcDbEntity
  8
0
100
AcDbBlockEnd
  0
BLOCK
  5
341
330
337
100
AcDbEntity
  8
0
100
AcDbBlockBegin
  2
*D14
 70
     1
 10
0.0
 20
0.0
 30
0.0
  3
*D14
  1

  0
LINE
  5
338
330
337
100
AcDbEntity
  8
0
 62
   123
100
AcDbLine
 10
21666.17306942483
 20
-1947.270537972029
 30
0.0
 11
21666.17306942483
 21
-1928.083460147597
 31
0.0
  0
LINE
  5
339
330
337
100
AcDbEntity
  8
0
 62
   123
100
AcDbLine
 10
21696.17306942484
 20
-1947.270537972029
 30
0.0
 11
21696.17306942484
 21
-1928.083460147597
 31
0.0
  0
LINE
  5
33A
330
337
100
AcDbEntity
  8
0
 62
   123
100
AcDbLine
 10
21668.67306942484
 20
-1928.683460147597
 30
0.0
 11
21693.67306942485
 21
-1928.683460147597
 31
0.0
  0
SOLID
  5
33B
330
337
100
AcDbEntity
  8
0
 62
   123
100
AcDbTrace
 10
21668.67306942484
 20
-1928.26679348093
 30
0.0
 11
21668.67306942484
 21
-1929.100126814264
 31
0.0
 12
21666.17306942483
 22
-1928.683460147597
 32
0.0
 13
21666.17306942483
 23
-1928.683460147597
 33
0.0
  0
SOLID
  5
33C
330
337
100
AcDbEntity
  8
0
 62
   123
100
AcDbTrace
 10
21693.67306942485
 20
-1928.26679348093
 30
0.0
 11
21693.67306942485
 21
-1929.100126814264
 31
0.0
 12
21696.17306942484
 22
-1928.683460147597
 32
0.0
 13
21696.17306942484
 23
-1928.683460147597
 33
0.0
  0
MTEXT
  5
33D
330
337
100
AcDbEntity
  8
0
 62
     3
100
AcDbMText
 10
21681.17306942483
 20
-1926.183460147597
 30
0.0
 40
3.0
 41
0.0
 71
     5
 72
     1
  1
\A1;30
1001
ACAD
1000
MTEXTBEGIN
1070
    73
1070
     1
1070
    44
1040
1.0
1070
    74
1070
     0
1000
MTEXTEND
  0
POINT
  5
33E
330
337
100
AcDbEntity
  8
DEFPOINTS
 62
     0
100
AcDbPoint
 10
21666.17306942483
 20
-1948.270537972029
 30
0.0
  0
POINT
  5
33F
330
337
100
AcDbEntity
  8
DEFPOINTS
 62
     0
100
AcDbPoint
 10
21696.17306942484
 20
-1948.270537972029
 30
0.0
  0
POINT
  5
340
330
337
100
AcDbEntity
  8
DEFPOINTS
 62
     0
100
AcDbPoint
 10
21696.17306942484
 20
-1928.683460147597
 30
0.0
  0
ENDBLK
  5
342
330
337
100
AcDbEntity
  8
0
100
AcDbBlockEnd
  0
BLOCK
  5
25F
330
253
100
AcDbEntity
  8
0
100
AcDbBlockBegin
  2
*D15
 70
     1
 10
0.0
 20
0.0
 30
0.0
  3
*D15
  1

  0
LINE
  5
254
330
253
100
AcDbEntity
  8
0
 62
   123
100
AcDbLine
 10
21541.22650429902
 20
-2215.520891443361
 30
0.0
 11
21548.99555945449
 21
-2215.520891443361
 31
0.0
  0
LINE
  5
255
330
253
100
AcDbEntity
  8
0
 62
   123
100
AcDbLine
 10
21541.22650429902
 20
-2211.52089144336
 30
0.0
 11
21548.99555945449
 21
-2211.52089144336
 31
0.0
  0
LINE
  5
256
330
253
100
AcDbEntity
  8
0
 62
   123
100
AcDbLine
 10
21548.39555945449
 20
-2218.02089144336
 30
0.0
 11
21548.39555945449
 21
-2220.52089144336
 31
0.0
  0
LINE
  5
257
330
253
100
AcDbEntity
  8
0
 62
   123
100
AcDbLine
 10
21548.39555945449
 20
-2209.02089144336
 30
0.0
 11
21548.39555945449
 21
-2189.957143934988
 31
0.0
  0
LINE
  5
258
330
253
100
AcDbEntity
  8
0
 62
   123
100
AcDbLine
 10
21548.39555945449
 20
-2215.520891443361
 30
0.0
 11
21548.39555945449
 21
-2211.52089144336
 31
0.0
  0
SOLID
  5
259
330
253
100
AcDbEntity
  8
0
 62
   123
100
AcDbTrace
 10
21547.97889278782
 20
-2218.02089144336
 30
0.0
 11
21548.81222612116
 21
-2218.02089144336
 31
0.0
 12
21548.39555945449
 22
-2215.520891443361
 32
0.0
 13
21548.39555945449
 23
-2215.520891443361
 33
0.0
  0
SOLID
  5
25A
330
253
100
AcDbEntity
  8
0
 62
   123
100
AcDbTrace
 10
21547.97889278782
 20
-2209.02089144336
 30
0.0
 11
21548.81222612116
 21
-2209.02089144336
 31
0.0
 12
21548.39555945449
 22
-2211.52089144336
 32
0.0
 13
21548.39555945449
 23
-2211.52089144336
 33
0.0
  0
MTEXT
  5
25B
330
253
100
AcDbEntity
  8
0
 62
     3
100
AcDbMText
 10
21544.94555945448
 20
-2196.67142964927
 30
0.0
 40
3.0
 41
0.0
 71
     5
 72
     1
  1
\A1;\A1;4{\F;\H0.7x;\S+0^ -0.03;}
 11
0.0000000000000001
 21
1.0
 31
0.0
1001
ACAD
1000
MTEXTBEGIN
1070
    73
1070
     1
1070
    44
1040
1.0
1070
    74
1070
     0
1000
MTEXTEND
  0
POINT
  5
25C
330
253
100
AcDbEntity
  8
DEFPOINTS
 62
     0
100
AcDbPoint
 10
21540.22650429903
 20
-2215.520891443361
 30
0.0
  0
POINT
  5
25D
330
253
100
AcDbEntity
  8
DEFPOINTS
 62
     0
100
AcDbPoint
 10
21540.22650429903
 20
-2211.52089144336
 30
0.0
  0
POINT
  5
25E
330
253
100
AcDbEntity
  8
DEFPOINTS
 62
     0
100
AcDbPoint
 10
21548.39555945449
 20
-2211.52089144336
 30
0.0
  0
ENDBLK
  5
260
330
253
100
AcDbEntity
  8
0
100
AcDbBlockEnd
  0
BLOCK
  5
272
330
266
100
AcDbEntity
  8
0
100
AcDbBlockBegin
  2
*D16
 70
     1
 10
0.0
 20
0.0
 30
0.0
  3
*D16
  1

  0
LINE
  5
267
330
266
100
AcDbEntity
  8
0
 62
   123
100
AcDbLine
 10
21607.33053732629
 20
-2212.621186730356
 30
0.0
 11
21622.42786982047
 21
-2212.621186730356
 31
0.0
  0
LINE
  5
268
330
266
100
AcDbEntity
  8
0
 62
   123
100
AcDbLine
 10
21605.33053732629
 20
-2210.121186730356
 30
0.0
 11
21622.42786982047
 21
-2210.121186730356
 31
0.0
  0
LINE
  5
269
330
266
100
AcDbEntity
  8
0
 62
   123
100
AcDbLine
 10
21621.82786982047
 20
-2215.121186730356
 30
0.0
 11
21621.82786982047
 21
-2217.621186730356
 31
0.0
  0
LINE
  5
26A
330
266
100
AcDbEntity
  8
0
 62
   123
100
AcDbLine
 10
21621.82786982047
 20
-2207.621186730357
 30
0.0
 11
21621.82786982047
 21
-2186.206901016074
 31
0.0
  0
LINE
  5
26B
330
266
100
AcDbEntity
  8
0
 62
   123
100
AcDbLine
 10
21621.82786982047
 20
-2212.621186730356
 30
0.0
 11
21621.82786982047
 21
-2210.121186730356
 31
0.0
  0
SOLID
  5
26C
330
266
100
AcDbEntity
  8
0
 62
   123
100
AcDbTrace
 10
21621.41120315379
 20
-2215.121186730356
 30
0.0
 11
21622.24453648713
 21
-2215.121186730356
 31
0.0
 12
21621.82786982047
 22
-2212.621186730356
 32
0.0
 13
21621.82786982047
 23
-2212.621186730356
 33
0.0
  0
SOLID
  5
26D
330
266
100
AcDbEntity
  8
0
 62
   123
100
AcDbTrace
 10
21621.41120315379
 20
-2207.621186730357
 30
0.0
 11
21622.24453648713
 21
-2207.621186730357
 31
0.0
 12
21621.82786982047
 22
-2210.121186730356
 32
0.0
 13
21621.82786982047
 23
-2210.121186730356
 33
0.0
  0
MTEXT
  5
26E
330
266
100
AcDbEntity
  8
0
 62
     3
100
AcDbMText
 10
21618.37786982045
 20
-2193.914043873212
 30
0.0
 40
3.0
 41
0.0
 71
     5
 72
     1
  1
\A1;\A1;2.5{\F;\H0.7x;\S+0.1^ -0;\H1.429x; }
 11
0.0000000000000001
 21
1.0
 31
0.0
1001
ACAD
1000
MTEXTBEGIN
1070
    73
1070
     1
1070
    44
1040
1.0
1070
    74
1070
     0
1000
MTEXTEND
  0
POINT
  5
26F
330
266
100
AcDbEntity
  8
DEFPOINTS
 62
     0
100
AcDbPoint
 10
21606.33053732628
 20
-2212.621186730356
 30
0.0
  0
POINT
  5
270
330
266
100
AcDbEntity
  8
DEFPOINTS
 62
     0
100
AcDbPoint
 10
21604.33053732628
 20
-2210.121186730356
 30
0.0
  0
POINT
  5
271
330
266
100
AcDbEntity
  8
DEFPOINTS
 62
     0
100
AcDbPoint
 10
21621.82786982047
 20
-2210.121186730356
 30
0.0
  0
ENDBLK
  5
273
330
266
100
AcDbEntity
  8
0
100
AcDbBlockEnd
  0
BLOCK
  5
24B
330
241
100
AcDbEntity
  8
0
100
AcDbBlockBegin
  2
*D17
 70
     1
 10
0.0
 20
0.0
 30
0.0
  3
*D17
  1

  0
LINE
  5
242
330
241
100
AcDbEntity
  8
0
 62
   123
100
AcDbLine
 10
21515.22650429903
 20
-2212.52089144336
 30
0.0
 11
21515.22650429903
 21
-2203.115697462885
 31
0.0
  0
LINE
  5
243
330
241
100
AcDbEntity
  8
0
 62
   123
100
AcDbLine
 10
21540.22650429903
 20
-2210.52089144336
 30
0.0
 11
21540.22650429903
 21
-2203.115697462885
 31
0.0
  0
LINE
  5
244
330
241
100
AcDbEntity
  8
0
 62
   123
100
AcDbLine
 10
21517.72650429903
 20
-2203.715697462885
 30
0.0
 11
21537.72650429901
 21
-2203.715697462885
 31
0.0
  0
SOLID
  5
245
330
241
100
AcDbEntity
  8
0
 62
   123
100
AcDbTrace
 10
21517.72650429903
 20
-2203.299030796218
 30
0.0
 11
21517.72650429903
 21
-2204.132364129551
 31
0.0
 12
21515.22650429903
 22
-2203.715697462885
 32
0.0
 13
21515.22650429903
 23
-2203.715697462885
 33
0.0
  0
SOLID
  5
246
330
241
100
AcDbEntity
  8
0
 62
   123
100
AcDbTrace
 10
21537.72650429901
 20
-2203.299030796218
 30
0.0
 11
21537.72650429901
 21
-2204.132364129551
 31
0.0
 12
21540.22650429903
 22
-2203.715697462885
 32
0.0
 13
21540.22650429903
 23
-2203.715697462885
 33
0.0
  0
MTEXT
  5
247
330
241
100
AcDbEntity
  8
0
 62
     3
100
AcDbMText
 10
21527.72650429902
 20
-2201.215697462885
 30
0.0
 40
3.0
 41
0.0
 71
     5
 72
     1
  1
\A1;25{\F;%%p0.2}
1001
ACAD
1000
MTEXTBEGIN
1070
    73
1070
     1
1070
    44
1040
1.0
1070
    74
1070
     0
1000
MTEXTEND
  0
POINT
  5
248
330
241
100
AcDbEntity
  8
DEFPOINTS
 62
     0
100
AcDbPoint
 10
21515.22650429903
 20
-2213.52089144336
 30
0.0
  0
POINT
  5
249
330
241
100
AcDbEntity
  8
DEFPOINTS
 62
     0
100
AcDbPoint
 10
21540.22650429903
 20
-2211.52089144336
 30
0.0
  0
POINT
  5
24A
330
241
100
AcDbEntity
  8
DEFPOINTS
 62
     0
100
AcDbPoint
 10
21540.22650429903
 20
-2203.715697462885
 30
0.0
  0
ENDBLK
  5
24C
330
241
100
AcDbEntity
  8
0
100
AcDbBlockEnd
  0
BLOCK
  5
233
330
227
100
AcDbEntity
  8
0
100
AcDbBlockBegin
  2
*D18
 70
     1
 10
0.0
 20
0.0
 30
0.0
  3
*D18
  1

  0
LINE
  5
228
330
227
100
AcDbEntity
  8
0
 62
   123
100
AcDbLine
 10
21557.39715758574
 20
-2210.52089144336
 30
0.0
 11
21557.39715758574
 21
-2202.246415784728
 31
0.0
  0
LINE
  5
229
330
227
100
AcDbEntity
  8
0
 62
   123
100
AcDbLine
 10
21561.39715758574
 20
-2210.52089144336
 30
0.0
 11
21561.39715758574
 21
-2202.246415784728
 31
0.0
  0
LINE
  5
22A
330
227
100
AcDbEntity
  8
0
 62
   123
100
AcDbLine
 10
21554.89715758573
 20
-2202.846415784728
 30
0.0
 11
21552.39715758574
 21
-2202.846415784728
 31
0.0
  0
LINE
  5
22B
330
227
100
AcDbEntity
  8
0
 62
   123
100
AcDbLine
 10
21563.89715758574
 20
-2202.846415784728
 30
0.0
 11
21566.39715758573
 21
-2202.846415784728
 31
0.0
  0
LINE
  5
22C
330
227
100
AcDbEntity
  8
0
 62
   123
100
AcDbLine
 10
21557.39715758574
 20
-2202.846415784728
 30
0.0
 11
21561.39715758574
 21
-2202.846415784728
 31
0.0
  0
SOLID
  5
22D
330
227
100
AcDbEntity
  8
0
 62
   123
100
AcDbTrace
 10
21554.89715758573
 20
-2202.429749118061
 30
0.0
 11
21554.89715758573
 21
-2203.263082451394
 31
0.0
 12
21557.39715758574
 22
-2202.846415784728
 32
0.0
 13
21557.39715758574
 23
-2202.846415784728
 33
0.0
  0
SOLID
  5
22E
330
227
100
AcDbEntity
  8
0
 62
   123
100
AcDbTrace
 10
21563.89715758574
 20
-2202.429749118061
 30
0.0
 11
21563.89715758574
 21
-2203.263082451394
 31
0.0
 12
21561.39715758574
 22
-2202.846415784728
 32
0.0
 13
21561.39715758574
 23
-2202.846415784728
 33
0.0
  0
MTEXT
  5
22F
330
227
100
AcDbEntity
  8
0
 62
     3
100
AcDbMText
 10
21559.39715758574
 20
-2199.396415784728
 30
0.0
 40
3.0
 41
0.0
 71
     5
 72
     1
  1
\A1;\A1;4{\F;\H0.7x;\S+0^ -0.03;}
1001
ACAD
1000
MTEXTBEGIN
1070
    73
1070
     1
1070
    44
1040
1.0
1070
    74
1070
     0
1000
MTEXTEND
  0
POINT
  5
230
330
227
100
AcDbEntity
  8
DEFPOINTS
 62
     0
100
AcDbPoint
 10
21557.39715758574
 20
-2211.52089144336
 30
0.0
  0
POINT
  5
231
330
227
100
AcDbEntity
  8
DEFPOINTS
 62
     0
100
AcDbPoint
 10
21561.39715758574
 20
-2211.52089144336
 30
0.0
  0
POINT
  5
232
330
227
100
AcDbEntity
  8
DEFPOINTS
 62
     0
100
AcDbPoint
 10
21561.39715758574
 20
-2202.846415784728
 30
0.0
  0
ENDBLK
  5
234
330
227
100
AcDbEntity
  8
0
100
AcDbBlockEnd
  0
BLOCK
  5
283
330
277
100
AcDbEntity
  8
0
100
AcDbBlockBegin
  2
*D19
 70
     1
 10
0.0
 20
0.0
 30
0.0
  3
*D19
  1

  0
LINE
  5
278
330
277
100
AcDbEntity
  8
0
 62
   123
100
AcDbLine
 10
21602.33053732628
 20
-2209.538611035401
 30
0.0
 11
21602.33053732628
 21
-2201.179598490426
 31
0.0
  0
LINE
  5
279
330
277
100
AcDbEntity
  8
0
 62
   123
100
AcDbLine
 10
21606.33053732628
 20
-2209.538611035401
 30
0.0
 11
21606.33053732628
 21
-2201.179598490426
 31
0.0
  0
LINE
  5
27A
330
277
100
AcDbEntity
  8
0
 62
   123
100
AcDbLine
 10
21599.83053732628
 20
-2201.779598490426
 30
0.0
 11
21597.33053732629
 21
-2201.779598490426
 31
0.0
  0
LINE
  5
27B
330
277
100
AcDbEntity
  8
0
 62
   123
100
AcDbLine
 10
21608.83053732629
 20
-2201.779598490426
 30
0.0
 11
21611.33053732628
 21
-2201.779598490426
 31
0.0
  0
LINE
  5
27C
330
277
100
AcDbEntity
  8
0
 62
   123
100
AcDbLine
 10
21602.33053732628
 20
-2201.779598490426
 30
0.0
 11
21606.33053732628
 21
-2201.779598490426
 31
0.0
  0
SOLID
  5
27D
330
277
100
AcDbEntity
  8
0
 62
   123
100
AcDbTrace
 10
21599.83053732628
 20
-2201.362931823759
 30
0.0
 11
21599.83053732628
 21
-2202.196265157092
 31
0.0
 12
21602.33053732628
 22
-2201.779598490426
 32
0.0
 13
21602.33053732628
 23
-2201.779598490426
 33
0.0
  0
SOLID
  5
27E
330
277
100
AcDbEntity
  8
0
 62
   123
100
AcDbTrace
 10
21608.83053732629
 20
-2201.362931823759
 30
0.0
 11
21608.83053732629
 21
-2202.196265157092
 31
0.0
 12
21606.33053732628
 22
-2201.779598490426
 32
0.0
 13
21606.33053732628
 23
-2201.779598490426
 33
0.0
  0
MTEXT
  5
27F
330
277
100
AcDbEntity
  8
0
 62
     3
100
AcDbMText
 10
21604.33053732628
 20
-2198.329598490426
 30
0.0
 40
3.0
 41
0.0
 71
     5
 72
     1
  1
\A1;\A1;4{\F;\H0.7x;\S+0.40^ -0;}
1001
ACAD
1000
MTEXTBEGIN
1070
    73
1070
     1
1070
    44
1040
1.0
1070
    74
1070
     0
1000
MTEXTEND
  0
POINT
  5
280
330
277
100
AcDbEntity
  8
DEFPOINTS
 62
     0
100
AcDbPoint
 10
21602.33053732628
 20
-2210.538611035401
 30
0.0
  0
POINT
  5
281
330
277
100
AcDbEntity
  8
DEFPOINTS
 62
     0
100
AcDbPoint
 10
21606.33053732628
 20
-2210.538611035401
 30
0.0
  0
POINT
  5
282
330
277
100
AcDbEntity
  8
DEFPOINTS
 62
     0
100
AcDbPoint
 10
21606.33053732628
 20
-2201.779598490426
 30
0.0
  0
ENDBLK
  5
284
330
277
100
AcDbEntity
  8
0
100
AcDbBlockEnd
  0
BLOCK
  5
12F
330
125
100
AcDbEntity
  8
0
100
AcDbBlockBegin
  2
*D20
 70
     1
 10
0.0
 20
0.0
 30
0.0
  3
*D20
  1

  0
LINE
  5
126
330
125
100
AcDbEntity
  8
0
 62
   123
100
AcDbLine
 10
21704.20930132813
 20
-2278.476172817158
 30
0.0
 11
21704.20930132813
 21
-2250.246524870342
 31
0.0
  0
LINE
  5
127
330
125
100
AcDbEntity
  8
0
 62
   123
100
AcDbLine
 10
21784.20930132813
 20
-2280.976172817158
 30
0.0
 11
21784.20930132813
 21
-2250.246524870342
 31
0.0
  0
LINE
  5
128
330
125
100
AcDbEntity
  8
0
 62
   123
100
AcDbLine
 10
21706.70930132813
 20
-2250.846524870341
 30
0.0
 11
21781.70930132813
 21
-2250.846524870341
 31
0.0
  0
SOLID
  5
129
330
125
100
AcDbEntity
  8
0
 62
   123
100
AcDbTrace
 10
21706.70930132813
 20
-2250.429858203675
 30
0.0
 11
21706.70930132813
 21
-2251.263191537007
 31
0.0
 12
21704.20930132813
 22
-2250.846524870341
 32
0.0
 13
21704.20930132813
 23
-2250.846524870341
 33
0.0
  0
SOLID
  5
12A
330
125
100
AcDbEntity
  8
0
 62
   123
100
AcDbTrace
 10
21781.70930132813
 20
-2250.429858203675
 30
0.0
 11
21781.70930132813
 21
-2251.263191537007
 31
0.0
 12
21784.20930132813
 22
-2250.846524870341
 32
0.0
 13
21784.20930132813
 23
-2250.846524870341
 33
0.0
  0
MTEXT
  5
12B
330
125
100
AcDbEntity
  8
0
 62
     3
100
AcDbMText
 10
21744.20930132813
 20
-2248.346524870342
 30
0.0
 40
3.0
 41
0.0
 71
     5
 72
     1
  1
\A1;80
1001
ACAD
1000
MTEXTBEGIN
1070
    73
1070
     1
1070
    44
1040
1.0
1070
    74
1070
     0
1000
MTEXTEND
  0
POINT
  5
12C
330
125
100
AcDbEntity
  8
DEFPOINTS
 62
     0
100
AcDbPoint
 10
21704.20930132813
 20
-2279.476172817158
 30
0.0
  0
POINT
  5
12D
330
125
100
AcDbEntity
  8
DEFPOINTS
 62
     0
100
AcDbPoint
 10
21784.20930132813
 20
-2281.976172817158
 30
0.0
  0
POINT
  5
12E
330
125
100
AcDbEntity
  8
DEFPOINTS
 62
     0
100
AcDbPoint
 10
21784.20930132813
 20
-2250.846524870341
 30
0.0
  0
ENDBLK
  5
130
330
125
100
AcDbEntity
  8
0
100
AcDbBlockEnd
  0
BLOCK
  5
1EA
330
1E0
100
AcDbEntity
  8
0
100
AcDbBlockBegin
  2
*D21
 70
     1
 10
0.0
 20
0.0
 30
0.0
  3
*D21
  1

  0
LINE
  5
1E1
330
1E0
100
AcDbEntity
  8
0
 62
   123
100
AcDbLine
 10
21658.95930132812
 20
-2283.976172817158
 30
0.0
 11
21597.44325540568
 21
-2283.976172817158
 31
0.0
  0
LINE
  5
1E2
330
1E0
100
AcDbEntity
  8
0
 62
   123
100
AcDbLine
 10
21645.84958308283
 20
-2313.976172817157
 30
0.0
 11
21597.44325540568
 21
-2313.976172817157
 31
0.0
  0
LINE
  5
1E3
330
1E0
100
AcDbEntity
  8
0
 62
   123
100
AcDbLine
 10
21598.04325540568
 20
-2286.476172817157
 30
0.0
 11
21598.04325540568
 21
-2311.476172817158
 31
0.0
  0
SOLID
  5
1E4
330
1E0
100
AcDbEntity
  8
0
 62
   123
100
AcDbTrace
 10
21597.626588739
 20
-2286.476172817157
 30
0.0
 11
21598.45992207235
 21
-2286.476172817157
 31
0.0
 12
21598.04325540568
 22
-2283.976172817158
 32
0.0
 13
21598.04325540568
 23
-2283.976172817158
 33
0.0
  0
SOLID
  5
1E5
330
1E0
100
AcDbEntity
  8
0
 62
   123
100
AcDbTrace
 10
21597.626588739
 20
-2311.476172817158
 30
0.0
 11
21598.45992207235
 21
-2311.476172817158
 31
0.0
 12
21598.04325540568
 22
-2313.976172817157
 32
0.0
 13
21598.04325540568
 23
-2313.976172817157
 33
0.0
  0
MTEXT
  5
1E6
330
1E0
100
AcDbEntity
  8
0
 62
     3
100
AcDbMText
 10
21595.54325540568
 20
-2299.226172817158
 30
0.0
 40
3.0
 41
0.0
 71
     5
 72
     1
  1
\A1;{\F;%%c}30
 11
0.0000000000000001
 21
1.0
 31
0.0
1001
ACAD
1000
MTEXTBEGIN
1070
    73
1070
     1
1070
    44
1040
1.0
1070
    74
1070
     0
1000
MTEXTEND
  0
POINT
  5
1E7
330
1E0
100
AcDbEntity
  8
DEFPOINTS
 62
     0
100
AcDbPoint
 10
21659.95930132813
 20
-2283.976172817158
 30
0.0
  0
POINT
  5
1E8
330
1E0
100
AcDbEntity
  8
DEFPOINTS
 62
     0
100
AcDbPoint
 10
21646.84958308282
 20
-2313.976172817157
 30
0.0
  0
POINT
  5
1E9
330
1E0
100
AcDbEntity
  8
DEFPOINTS
 62
     0
100
AcDbPoint
 10
21598.04325540568
 20
-2313.976172817157
 30
0.0
  0
ENDBLK
  5
1EB
330
1E0
100
AcDbEntity
  8
0
100
AcDbBlockEnd
  0
BLOCK
  5
122
330
118
100
AcDbEntity
  8
0
100
AcDbBlockBegin
  2
*D22
 70
     1
 10
0.0
 20
0.0
 30
0.0
  3
*D22
  1

  0
LINE
  5
119
330
118
100
AcDbEntity
  8
0
 62
   123
100
AcDbLine
 10
21498.56889878809
 20
-2282.976172817158
 30
0.0
 11
21498.56889878809
 21
-2266.047973364677
 31
0.0
  0
LINE
  5
11A
330
118
100
AcDbEntity
  8
0
 62
   123
100
AcDbLine
 10
21568.56889878809
 20
-2282.976172817158
 30
0.0
 11
21568.56889878809
 21
-2266.047973364677
 31
0.0
  0
LINE
  5
11B
330
118
100
AcDbEntity
  8
0
 62
   123
100
AcDbLine
 10
21501.06889878808
 20
-2266.647973364677
 30
0.0
 11
21566.06889878808
 21
-2266.647973364677
 31
0.0
  0
SOLID
  5
11C
330
118
100
AcDbEntity
  8
0
 62
   123
100
AcDbTrace
 10
21501.06889878808
 20
-2266.231306698011
 30
0.0
 11
21501.06889878808
 21
-2267.064640031344
 31
0.0
 12
21498.56889878809
 22
-2266.647973364677
 32
0.0
 13
21498.56889878809
 23
-2266.647973364677
 33
0.0
  0
SOLID
  5
11D
330
118
100
AcDbEntity
  8
0
 62
   123
100
AcDbTrace
 10
21566.06889878808
 20
-2266.231306698011
 30
0.0
 11
21566.06889878808
 21
-2267.064640031344
 31
0.0
 12
21568.56889878809
 22
-2266.647973364677
 32
0.0
 13
21568.56889878809
 23
-2266.647973364677
 33
0.0
  0
MTEXT
  5
11E
330
118
100
AcDbEntity
  8
0
 62
     3
100
AcDbMText
 10
21535.82297581289
 20
-2264.147973364677
 30
0.0
 40
3.0
 41
0.0
 71
     5
 72
     1
  1
\A1;70
1001
ACAD
1000
MTEXTBEGIN
1070
    73
1070
     1
1070
    44
1040
1.0
1070
    74
1070
     0
1000
MTEXTEND
  0
POINT
  5
11F
330
118
100
AcDbEntity
  8
DEFPOINTS
 62
     0
100
AcDbPoint
 10
21498.56889878809
 20
-2283.976172817158
 30
0.0
  0
POINT
  5
120
330
118
100
AcDbEntity
  8
DEFPOINTS
 62
     0
100
AcDbPoint
 10
21568.56889878809
 20
-2283.976172817158
 30
0.0
  0
POINT
  5
121
330
118
100
AcDbEntity
  8
DEFPOINTS
 62
     0
100
AcDbPoint
 10
21568.56889878809
 20
-2266.647973364677
 30
0.0
  0
ENDBLK
  5
123
330
118
100
AcDbEntity
  8
0
100
AcDbBlockEnd
  0
BLOCK
  5
1CE
330
1C4
100
AcDbEntity
  8
0
100
AcDbBlockBegin
  2
*D23
 70
     1
 10
0.0
 20
0.0
 30
0.0
  3
*D23
  1

  0
LINE
  5
1C5
330
1C4
100
AcDbEntity
  8
0
 62
   123
100
AcDbLine
 10
21778.20930132813
 20
-2279.476172817157
 30
0.0
 11
21799.64119850771
 21
-2279.476172817157
 31
0.0
  0
LINE
  5
1C6
330
1C4
100
AcDbEntity
  8
0
 62
   123
100
AcDbLine
 10
21778.20930132813
 20
-2348.476172817158
 30
0.0
 11
21799.64119850771
 21
-2348.476172817158
 31
0.0
  0
LINE
  5
1C7
330
1C4
100
AcDbEntity
  8
0
 62
   123
100
AcDbLine
 10
21799.04119850771
 20
-2281.976172817157
 30
0.0
 11
21799.04119850771
 21
-2345.976172817157
 31
0.0
  0
SOLID
  5
1C8
330
1C4
100
AcDbEntity
  8
0
 62
   123
100
AcDbTrace
 10
21798.62453184103
 20
-2281.976172817157
 30
0.0
 11
21799.45786517436
 21
-2281.976172817157
 31
0.0
 12
21799.04119850771
 22
-2279.476172817157
 32
0.0
 13
21799.04119850771
 23
-2279.476172817157
 33
0.0
  0
SOLID
  5
1C9
330
1C4
100
AcDbEntity
  8
0
 62
   123
100
AcDbTrace
 10
21798.62453184103
 20
-2345.976172817157
 30
0.0
 11
21799.45786517436
 21
-2345.976172817157
 31
0.0
 12
21799.04119850771
 22
-2348.476172817158
 32
0.0
 13
21799.04119850771
 23
-2348.476172817158
 33
0.0
  0
MTEXT
  5
1CA
330
1C4
100
AcDbEntity
  8
0
 62
     3
100
AcDbMText
 10
21796.54119850771
 20
-2314.476172817157
 30
0.0
 40
3.0
 41
0.0
 71
     5
 72
     1
  1
\A1;%%C69
 11
0.0000000000000001
 21
1.0
 31
0.0
1001
ACAD
1000
MTEXTBEGIN
1070
    73
1070
     1
1070
    44
1040
1.0
1070
    74
1070
     0
1000
MTEXTEND
  0
POINT
  5
1CB
330
1C4
100
AcDbEntity
  8
DEFPOINTS
 62
     0
100
AcDbPoint
 10
21777.20930132813
 20
-2279.476172817157
 30
0.0
  0
POINT
  5
1CC
330
1C4
100
AcDbEntity
  8
DEFPOINTS
 62
     0
100
AcDbPoint
 10
21777.20930132813
 20
-2348.476172817158
 30
0.0
  0
POINT
  5
1CD
330
1C4
100
AcDbEntity
  8
DEFPOINTS
 62
     0
100
AcDbPoint
 10
21799.04119850771
 20
-2348.476172817158
 30
0.0
  0
ENDBLK
  5
1CF
330
1C4
100
AcDbEntity
  8
0
100
AcDbBlockEnd
  0
BLOCK
  5
13E
330
134
100
AcDbEntity
  8
0
100
AcDbBlockBegin
  2
*D24
 70
     1
 10
0.0
 20
0.0
 30
0.0
  3
*D24
  1

  0
LINE
  5
135
330
134
100
AcDbEntity
  8
0
 62
   123
100
AcDbLine
 10
21704.20930132813
 20
-2277.976172817158
 30
0.0
 11
21704.20930132813
 21
-2261.112084262697
 31
0.0
  0
LINE
  5
136
330
134
100
AcDbEntity
  8
0
 62
   123
100
AcDbLine
 10
21711.20930132813
 20
-2279.377435475628
 30
0.0
 11
21711.20930132813
 21
-2261.112084262697
 31
0.0
  0
LINE
  5
137
330
134
100
AcDbEntity
  8
0
 62
   123
100
AcDbLine
 10
21706.70930132813
 20
-2261.712084262697
 30
0.0
 11
21708.70930132813
 21
-2261.712084262697
 31
0.0
  0
SOLID
  5
138
330
134
100
AcDbEntity
  8
0
 62
   123
100
AcDbTrace
 10
21706.70930132813
 20
-2261.29541759603
 30
0.0
 11
21706.70930132813
 21
-2262.128750929363
 31
0.0
 12
21704.20930132813
 22
-2261.712084262697
 32
0.0
 13
21704.20930132813
 23
-2261.712084262697
 33
0.0
  0
SOLID
  5
139
330
134
100
AcDbEntity
  8
0
 62
   123
100
AcDbTrace
 10
21708.70930132813
 20
-2261.29541759603
 30
0.0
 11
21708.70930132813
 21
-2262.128750929363
 31
0.0
 12
21711.20930132813
 22
-2261.712084262697
 32
0.0
 13
21711.20930132813
 23
-2261.712084262697
 33
0.0
  0
MTEXT
  5
13A
330
134
100
AcDbEntity
  8
0
 62
     3
100
AcDbMText
 10
21707.70930132813
 20
-2259.212084262697
 30
0.0
 40
3.0
 41
0.0
 71
     5
 72
     1
  1
\A1;7
1001
ACAD
1000
MTEXTBEGIN
1070
    73
1070
     1
1070
    44
1040
1.0
1070
    74
1070
     0
1000
MTEXTEND
  0
POINT
  5
13B
330
134
100
AcDbEntity
  8
DEFPOINTS
 62
     0
100
AcDbPoint
 10
21704.20930132813
 20
-2278.976172817158
 30
0.0
  0
POINT
  5
13C
330
134
100
AcDbEntity
  8
DEFPOINTS
 62
     0
100
AcDbPoint
 10
21711.20930132813
 20
-2280.377435475628
 30
0.0
  0
POINT
  5
13D
330
134
100
AcDbEntity
  8
DEFPOINTS
 62
     0
100
AcDbPoint
 10
21711.20930132813
 20
-2261.712084262697
 30
0.0
  0
ENDBLK
  5
13F
330
134
100
AcDbEntity
  8
0
100
AcDbBlockEnd
  0
BLOCK
  5
17E
330
174
100
AcDbEntity
  8
0
100
AcDbBlockBegin
  2
*D25
 70
     1
 10
0.0
 20
0.0
 30
0.0
  3
*D25
  1

  0
LINE
  5
175
330
174
100
AcDbEntity
  8
0
 62
   123
100
AcDbLine
 10
21662.20930132813
 20
-2278.476172817158
 30
0.0
 11
21662.20930132813
 21
-2250.246524870341
 31
0.0
  0
LINE
  5
176
330
174
100
AcDbEntity
  8
0
 62
   123
100
AcDbLine
 10
21704.20930132813
 20
-2278.476172817158
 30
0.0
 11
21704.20930132813
 21
-2250.246524870341
 31
0.0
  0
LINE
  5
177
330
174
100
AcDbEntity
  8
0
 62
   123
100
AcDbLine
 10
21664.70930132813
 20
-2250.846524870341
 30
0.0
 11
21701.70930132813
 21
-2250.846524870341
 31
0.0
  0
SOLID
  5
178
330
174
100
AcDbEntity
  8
0
 62
   123
100
AcDbTrace
 10
21664.70930132813
 20
-2250.429858203675
 30
0.0
 11
21664.70930132813
 21
-2251.263191537007
 31
0.0
 12
21662.20930132813
 22
-2250.846524870341
 32
0.0
 13
21662.20930132813
 23
-2250.846524870341
 33
0.0
  0
SOLID
  5
179
330
174
100
AcDbEntity
  8
0
 62
   123
100
AcDbTrace
 10
21701.70930132813
 20
-2250.429858203675
 30
0.0
 11
21701.70930132813
 21
-2251.263191537007
 31
0.0
 12
21704.20930132813
 22
-2250.846524870341
 32
0.0
 13
21704.20930132813
 23
-2250.846524870341
 33
0.0
  0
MTEXT
  5
17A
330
174
100
AcDbEntity
  8
0
 62
     3
100
AcDbMText
 10
21682.20930132813
 20
-2248.346524870341
 30
0.0
 40
3.0
 41
0.0
 71
     5
 72
     1
  1
\A1;{\F;L}
1001
ACAD
1000
MTEXTBEGIN
1070
    73
1070
     1
1070
    44
1040
1.0
1070
    74
1070
     0
1000
MTEXTEND
  0
POINT
  5
17B
330
174
100
AcDbEntity
  8
DEFPOINTS
 62
     0
100
AcDbPoint
 10
21662.20930132813
 20
-2279.476172817158
 30
0.0
  0
POINT
  5
17C
330
174
100
AcDbEntity
  8
DEFPOINTS
 62
     0
100
AcDbPoint
 10
21704.20930132813
 20
-2279.476172817158
 30
0.0
  0
POINT
  5
17D
330
174
100
AcDbEntity
  8
DEFPOINTS
 62
     0
100
AcDbPoint
 10
21704.20930132813
 20
-2250.846524870341
 30
0.0
  0
ENDBLK
  5
17F
330
174
100
AcDbEntity
  8
0
100
AcDbBlockEnd
  0
BLOCK
  5
15E
330
154
100
AcDbEntity
  8
0
100
AcDbBlockBegin
  2
*D26
 70
     1
 10
0.0
 20
0.0
 30
0.0
  3
*D26
  1

  0
LINE
  5
155
330
154
100
AcDbEntity
  8
0
 62
   123
100
AcDbLine
 10
21630.20930132812
 20
-2292.976172817158
 30
0.0
 11
21630.20930132812
 21
-2250.246524870341
 31
0.0
  0
LINE
  5
156
330
154
100
AcDbEntity
  8
0
 62
   123
100
AcDbLine
 10
21662.20930132813
 20
-2278.476172817158
 30
0.0
 11
21662.20930132813
 21
-2250.246524870341
 31
0.0
  0
LINE
  5
157
330
154
100
AcDbEntity
  8
0
 62
   123
100
AcDbLine
 10
21632.70930132813
 20
-2250.846524870341
 30
0.0
 11
21659.70930132813
 21
-2250.846524870341
 31
0.0
  0
SOLID
  5
158
330
154
100
AcDbEntity
  8
0
 62
   123
100
AcDbTrace
 10
21632.70930132813
 20
-2250.429858203675
 30
0.0
 11
21632.70930132813
 21
-2251.263191537007
 31
0.0
 12
21630.20930132812
 22
-2250.846524870341
 32
0.0
 13
21630.20930132812
 23
-2250.846524870341
 33
0.0
  0
SOLID
  5
159
330
154
100
AcDbEntity
  8
0
 62
   123
100
AcDbTrace
 10
21659.70930132813
 20
-2250.429858203675
 30
0.0
 11
21659.70930132813
 21
-2251.263191537007
 31
0.0
 12
21662.20930132813
 22
-2250.846524870341
 32
0.0
 13
21662.20930132813
 23
-2250.846524870341
 33
0.0
  0
MTEXT
  5
15A
330
154
100
AcDbEntity
  8
0
 62
     3
100
AcDbMText
 10
21646.20930132813
 20
-2248.346524870341
 30
0.0
 40
3.0
 41
0.0
 71
     5
 72
     1
  1
\A1;32
1001
ACAD
1000
MTEXTBEGIN
1070
    73
1070
     1
1070
    44
1040
1.0
1070
    74
1070
     0
1000
MTEXTEND
  0
POINT
  5
15B
330
154
100
AcDbEntity
  8
DEFPOINTS
 62
     0
100
AcDbPoint
 10
21630.20930132812
 20
-2293.976172817158
 30
0.0
  0
POINT
  5
15C
330
154
100
AcDbEntity
  8
DEFPOINTS
 62
     0
100
AcDbPoint
 10
21662.20930132813
 20
-2279.476172817158
 30
0.0
  0
POINT
  5
15D
330
154
100
AcDbEntity
  8
DEFPOINTS
 62
     0
100
AcDbPoint
 10
21662.20930132813
 20
-2250.846524870341
 30
0.0
  0
ENDBLK
  5
15F
330
154
100
AcDbEntity
  8
0
100
AcDbBlockEnd
  0
BLOCK
  5
1F9
330
1EF
100
AcDbEntity
  8
0
100
AcDbBlockBegin
  2
*D27
 70
     1
 10
0.0
 20
0.0
 30
0.0
  3
*D27
  1

  0
LINE
  5
1F0
330
1EF
100
AcDbEntity
  8
0
 62
   123
100
AcDbLine
 10
21625.3111625269
 20
-2298.976172817158
 30
0.0
 11
21606.33705522571
 21
-2298.976172817158
 31
0.0
  0
LINE
  5
1F1
330
1EF
100
AcDbEntity
  8
0
 62
   123
100
AcDbLine
 10
21645.84958308283
 20
-2313.976172817157
 30
0.0
 11
21606.33705522571
 21
-2313.976172817157
 31
0.0
  0
LINE
  5
1F2
330
1EF
100
AcDbEntity
  8
0
 62
   123
100
AcDbLine
 10
21606.93705522571
 20
-2301.476172817157
 30
0.0
 11
21606.93705522571
 21
-2311.476172817158
 31
0.0
  0
SOLID
  5
1F3
330
1EF
100
AcDbEntity
  8
0
 62
   123
100
AcDbTrace
 10
21606.52038855904
 20
-2301.476172817157
 30
0.0
 11
21607.35372189238
 21
-2301.476172817157
 31
0.0
 12
21606.93705522571
 22
-2298.976172817158
 32
0.0
 13
21606.93705522571
 23
-2298.976172817158
 33
0.0
  0
SOLID
  5
1F4
330
1EF
100
AcDbEntity
  8
0
 62
   123
100
AcDbTrace
 10
21606.52038855904
 20
-2311.476172817158
 30
0.0
 11
21607.35372189238
 21
-2311.476172817158
 31
0.0
 12
21606.93705522571
 22
-2313.976172817157
 32
0.0
 13
21606.93705522571
 23
-2313.976172817157
 33
0.0
  0
MTEXT
  5
1F5
330
1EF
100
AcDbEntity
  8
0
 62
     3
100
AcDbMText
 10
21604.4370552257
 20
-2306.476172817153
 30
0.0
 40
3.0
 41
0.0
 71
     5
 72
     1
  1
\A1;15
 11
0.0000000000000001
 21
1.0
 31
0.0
1001
ACAD
1000
MTEXTBEGIN
1070
    73
1070
     1
1070
    44
1040
1.0
1070
    74
1070
     0
1000
MTEXTEND
  0
POINT
  5
1F6
330
1EF
100
AcDbEntity
  8
DEFPOINTS
 62
     0
100
AcDbPoint
 10
21626.3111625269
 20
-2298.976172817158
 30
0.0
  0
POINT
  5
1F7
330
1EF
100
AcDbEntity
  8
DEFPOINTS
 62
     0
100
AcDbPoint
 10
21646.84958308282
 20
-2313.976172817157
 30
0.0
  0
POINT
  5
1F8
330
1EF
100
AcDbEntity
  8
DEFPOINTS
 62
     0
100
AcDbPoint
 10
21606.93705522571
 20
-2313.976172817157
 30
0.0
  0
ENDBLK
  5
1FA
330
1EF
100
AcDbEntity
  8
0
100
AcDbBlockEnd
  0
BLOCK
  5
208
330
1FE
100
AcDbEntity
  8
0
100
AcDbBlockBegin
  2
*D28
 70
     1
 10
0.0
 20
0.0
 30
0.0
  3
*D28
  1

  0
LINE
  5
1FF
330
1FE
100
AcDbEntity
  8
0
 62
   123
100
AcDbLine
 10
21655.20930132813
 20
-2292.976172817158
 30
0.0
 11
21655.20930132813
 21
-2277.155884610257
 31
0.0
  0
LINE
  5
200
330
1FE
100
AcDbEntity
  8
0
 62
   123
100
AcDbLine
 10
21630.20930132812
 20
-2292.976172817158
 30
0.0
 11
21630.20930132812
 21
-2277.155884610257
 31
0.0
  0
LINE
  5
201
330
1FE
100
AcDbEntity
  8
0
 62
   123
100
AcDbLine
 10
21652.70930132813
 20
-2277.755884610256
 30
0.0
 11
21632.70930132813
 21
-2277.755884610256
 31
0.0
  0
SOLID
  5
202
330
1FE
100
AcDbEntity
  8
0
 62
   123
100
AcDbTrace
 10
21652.70930132813
 20
-2277.339217943589
 30
0.0
 11
21652.70930132813
 21
-2278.172551276923
 31
0.0
 12
21655.20930132813
 22
-2277.755884610256
 32
0.0
 13
21655.20930132813
 23
-2277.755884610256
 33
0.0
  0
SOLID
  5
203
330
1FE
100
AcDbEntity
  8
0
 62
   123
100
AcDbTrace
 10
21632.70930132813
 20
-2277.339217943589
 30
0.0
 11
21632.70930132813
 21
-2278.172551276923
 31
0.0
 12
21630.20930132812
 22
-2277.755884610256
 32
0.0
 13
21630.20930132812
 23
-2277.755884610256
 33
0.0
  0
MTEXT
  5
204
330
1FE
100
AcDbEntity
  8
0
 62
     3
100
AcDbMText
 10
21643.02023199551
 20
-2275.255884610256
 30
0.0
 40
3.0
 41
0.0
 71
     5
 72
     1
  1
\A1;25
1001
ACAD
1000
MTEXTBEGIN
1070
    73
1070
     1
1070
    44
1040
1.0
1070
    74
1070
     0
1000
MTEXTEND
  0
POINT
  5
205
330
1FE
100
AcDbEntity
  8
DEFPOINTS
 62
     0
100
AcDbPoint
 10
21655.20930132813
 20
-2293.976172817158
 30
0.0
  0
POINT
  5
206
330
1FE
100
AcDbEntity
  8
DEFPOINTS
 62
     0
100
AcDbPoint
 10
21630.20930132812
 20
-2293.976172817159
 30
0.0
  0
POINT
  5
207
330
1FE
100
AcDbEntity
  8
DEFPOINTS
 62
     0
100
AcDbPoint
 10
21630.20930132812
 20
-2277.755884610256
 30
0.0
  0
ENDBLK
  5
209
330
1FE
100
AcDbEntity
  8
0
100
AcDbBlockEnd
  0
BLOCK
  5
16F
330
163
100
AcDbEntity
  8
0
100
AcDbBlockBegin
  2
*D29
 70
     1
 10
0.0
 20
0.0
 30
0.0
  3
*D29
  1

  0
LINE
  5
164
330
163
100
AcDbEntity
  8
0
 62
   123
100
AcDbLine
 10
21662.20930132813
 20
-2278.476172817158
 30
0.0
 11
21662.20930132813
 21
-2261.770430062909
 31
0.0
  0
LINE
  5
165
330
163
100
AcDbEntity
  8
0
 62
   123
100
AcDbLine
 10
21659.20930132813
 20
-2283.476172817157
 30
0.0
 11
21659.20930132813
 21
-2261.770430062909
 31
0.0
  0
LINE
  5
166
330
163
100
AcDbEntity
  8
0
 62
   123
100
AcDbLine
 10
21664.70930132813
 20
-2262.370430062909
 30
0.0
 11
21667.20930132813
 21
-2262.370430062909
 31
0.0
  0
LINE
  5
167
330
163
100
AcDbEntity
  8
0
 62
   123
100
AcDbLine
 10
21656.70930132812
 20
-2262.370430062909
 30
0.0
 11
21654.20930132813
 21
-2262.370430062909
 31
0.0
  0
LINE
  5
168
330
163
100
AcDbEntity
  8
0
 62
   123
100
AcDbLine
 10
21662.20930132813
 20
-2262.370430062909
 30
0.0
 11
21659.20930132813
 21
-2262.370430062909
 31
0.0
  0
SOLID
  5
169
330
163
100
AcDbEntity
  8
0
 62
   123
100
AcDbTrace
 10
21664.70930132813
 20
-2261.953763396243
 30
0.0
 11
21664.70930132813
 21
-2262.787096729576
 31
0.0
 12
21662.20930132813
 22
-2262.370430062909
 32
0.0
 13
21662.20930132813
 23
-2262.370430062909
 33
0.0
  0
SOLID
  5
16A
330
163
100
AcDbEntity
  8
0
 62
   123
100
AcDbTrace
 10
21656.70930132812
 20
-2261.953763396243
 30
0.0
 11
21656.70930132812
 21
-2262.787096729576
 31
0.0
 12
21659.20930132813
 22
-2262.370430062909
 32
0.0
 13
21659.20930132813
 23
-2262.370430062909
 33
0.0
  0
MTEXT
  5
16B
330
163
100
AcDbEntity
  8
0
 62
     3
100
AcDbMText
 10
21660.70930132812
 20
-2259.870430062908
 30
0.0
 40
3.0
 41
0.0
 71
     5
 72
     1
  1
\A1;3
1001
ACAD
1000
MTEXTBEGIN
1070
    73
1070
     1
1070
    44
1040
1.0
1070
    74
1070
     0
1000
MTEXTEND
  0
POINT
  5
16C
330
163
100
AcDbEntity
  8
DEFPOINTS
 62
     0
100
AcDbPoint
 10
21662.20930132813
 20
-2279.476172817158
 30
0.0
  0
POINT
  5
16D
330
163
100
AcDbEntity
  8
DEFPOINTS
 62
     0
100
AcDbPoint
 10
21659.20930132813
 20
-2284.476172817158
 30
0.0
  0
POINT
  5
16E
330
163
100
AcDbEntity
  8
DEFPOINTS
 62
     0
100
AcDbPoint
 10
21659.20930132813
 20
-2262.370430062909
 30
0.0
  0
ENDBLK
  5
170
330
163
100
AcDbEntity
  8
0
100
AcDbBlockEnd
  0
BLOCK
  5
14F
330
143
100
AcDbEntity
  8
0
100
AcDbBlockBegin
  2
*D30
 70
     1
 10
0.0
 20
0.0
 30
0.0
  3
*D30
  1

  0
LINE
  5
144
330
143
100
AcDbEntity
  8
0
 62
   123
100
AcDbLine
 10
21629.20930132813
 20
-2303.976172817157
 30
0.0
 11
21614.78463803915
 21
-2303.976172817157
 31
0.0
  0
LINE
  5
145
330
143
100
AcDbEntity
  8
0
 62
   123
100
AcDbLine
 10
21629.20930132813
 20
-2293.976172817158
 30
0.0
 11
21614.78463803915
 21
-2293.976172817158
 31
0.0
  0
LINE
  5
146
330
143
100
AcDbEntity
  8
0
 62
   123
100
AcDbLine
 10
21615.38463803915
 20
-2306.476172817157
 30
0.0
 11
21615.38463803915
 21
-2308.976172817158
 31
0.0
  0
LINE
  5
147
330
143
100
AcDbEntity
  8
0
 62
   123
100
AcDbLine
 10
21615.38463803915
 20
-2291.476172817158
 30
0.0
 11
21615.38463803915
 21
-2253.148130303992
 31
0.0
  0
LINE
  5
148
330
143
100
AcDbEntity
  8
0
 62
   123
100
AcDbLine
 10
21615.38463803915
 20
-2303.976172817157
 30
0.0
 11
21615.38463803915
 21
-2293.976172817158
 31
0.0
  0
SOLID
  5
149
330
143
100
AcDbEntity
  8
0
 62
   123
100
AcDbTrace
 10
21614.96797137248
 20
-2306.476172817157
 30
0.0
 11
21615.80130470582
 21
-2306.476172817157
 31
0.0
 12
21615.38463803915
 22
-2303.976172817157
 32
0.0
 13
21615.38463803915
 23
-2303.976172817157
 33
0.0
  0
SOLID
  5
14A
330
143
100
AcDbEntity
  8
0
 62
   123
100
AcDbTrace
 10
21614.96797137248
 20
-2291.476172817158
 30
0.0
 11
21615.80130470582
 21
-2291.476172817158
 31
0.0
 12
21615.38463803915
 22
-2293.976172817158
 32
0.0
 13
21615.38463803915
 23
-2293.976172817158
 33
0.0
  0
MTEXT
  5
14B
330
143
100
AcDbEntity
  8
0
 62
     3
100
AcDbMText
 10
21611.43448803915
 20
-2267.96370173256
 30
0.0
 40
3.0
 41
0.0
 71
     5
 72
     1
  1
\A1;\A1;{\F;%%C10\H0.7x;\S+0^ -0.015;\H1.429x;(h7)}
 11
0.0000000000000001
 21
1.0
 31
0.0
1001
ACAD
1000
MTEXTBEGIN
1070
    73
1070
     1
1070
    44
1040
1.0
1070
    74
1070
     0
1000
MTEXTEND
  0
POINT
  5
14C
330
143
100
AcDbEntity
  8
DEFPOINTS
 62
     0
100
AcDbPoint
 10
21630.20930132812
 20
-2303.976172817157
 30
0.0
  0
POINT
  5
14D
330
143
100
AcDbEntity
  8
DEFPOINTS
 62
     0
100
AcDbPoint
 10
21630.20930132812
 20
-2293.976172817158
 30
0.0
  0
POINT
  5
14E
330
143
100
AcDbEntity
  8
DEFPOINTS
 62
     0
100
AcDbPoint
 10
21615.38463803915
 20
-2293.976172817158
 30
0.0
  0
ENDBLK
  5
150
330
143
100
AcDbEntity
  8
0
100
AcDbBlockEnd
  0
BLOCK
  5
BA
330
AD
100
AcDbEntity
  8
0
100
AcDbBlockBegin
  2
*D31
 70
     1
 10
0.0
 20
0.0
 30
0.0
  3
*D31
  1

  0
LINE
  5
AE
330
AD
100
AcDbEntity
  8
0
 62
   123
100
AcDbLine
 10
21533.56889878808
 20
-2355.077817921932
 30
0.0
 11
21533.56889878808
 21
-2370.935469831379
 31
0.0
  0
LINE
  5
AF
330
AD
100
AcDbEntity
  8
0
 62
   123
100
AcDbLine
 10
21548.4490569035
 20
-2349.900052349664
 30
0.0
 11
21555.36627807459
 21
-2366.599701514827
 31
0.0
  0
ARC
  5
B0
330
AD
100
AcDbEntity
  8
0
 62
   123
100
AcDbCircle
 10
21533.56889878808
 20
-2313.976172817143
 30
0.0
 40
56.35929701423585
100
AcDbArc
 50
272.5417491442618
 51
289.9582508557426
  0
SOLID
  5
B1
330
AD
100
AcDbEntity
  8
0
 62
   123
100
AcDbTrace
 10
21536.07752512324
 20
-2370.696586186196
 30
0.0
 11
21536.0590425175
 21
-2369.863457842105
 31
0.0
 12
21533.56889878808
 22
-2370.335469831379
 32
0.0
 13
21533.56889878808
 23
-2370.335469831379
 33
0.0
  0
SOLID
  5
B2
330
AD
100
AcDbEntity
  8
0
 62
   123
100
AcDbTrace
 10
21552.6554440224
 20
-2366.56222832878
 30
0.0
 11
21552.95719273556
 21
-2367.339011540847
 31
0.0
 12
21555.13666801518
 22
-2366.045373795319
 32
0.0
 13
21555.13666801518
 23
-2366.045373795319
 33
0.0
  0
MTEXT
  5
B3
330
AD
100
AcDbEntity
  8
0
 62
     3
100
AcDbMText
 10
21544.02058629416
 20
-2366.520354175742
 30
0.0
 40
3.0
 41
0.0
 71
     5
 72
     1
  1
\A1;22°30'
 11
0.9807852804032279
 21
0.1950903220161407
 31
0.0
1001
ACAD
1000
MTEXTBEGIN
1070
    73
1070
     1
1070
    44
1040
1.0
1070
    74
1070
     0
1000
MTEXTEND
  0
POINT
  5
B4
330
AD
100
AcDbEntity
  8
DEFPOINTS
 62
     0
100
AcDbPoint
 10
21540.92526322355
 20
-2369.853308232547
 30
0.0
  0
POINT
  5
B6
330
AD
100
AcDbEntity
  8
DEFPOINTS
 62
     0
100
AcDbPoint
 10
21533.56889878808
 20
-2354.077817921932
 30
0.0
  0
POINT
  5
B7
330
AD
100
AcDbEntity
  8
DEFPOINTS
 62
     0
100
AcDbPoint
 10
21533.56889878808
 20
-2313.976172817154
 30
0.0
  0
POINT
  5
B8
330
AD
100
AcDbEntity
  8
DEFPOINTS
 62
     0
100
AcDbPoint
 10
21548.06637347114
 20
-2348.976172817152
 30
0.0
  0
POINT
  5
B9
330
AD
100
AcDbEntity
  8
DEFPOINTS
 62
     0
100
AcDbPoint
 10
21533.56889878808
 20
-2271.928459812957
 30
0.0
  0
ENDBLK
  5
BB
330
AD
100
AcDbEntity
  8
0
100
AcDbBlockEnd
  0
BLOCK
  5
384
330
378
100
AcDbEntity
  8
0
100
AcDbBlockBegin
  2
*D32
 70
     1
 10
0.0
 20
0.0
 30
0.0
  3
*D32
  1

  0
LINE
  5
379
330
378
100
AcDbEntity
  8
0
 62
   123
100
AcDbLine
 10
172.4732187302288
 20
269.1861318944988
 30
0.0
 11
158.0485554412502
 21
269.1861318944988
 31
0.0
  0
LINE
  5
37A
330
378
100
AcDbEntity
  8
0
 62
   123
100
AcDbLine
 10
172.4732187302288
 20
279.1861318945002
 30
0.0
 11
158.0485554412502
 21
279.1861318945002
 31
0.0
  0
LINE
  5
37B
330
378
100
AcDbEntity
  8
0
 62
   123
100
AcDbLine
 10
158.6485554412502
 20
266.6861318944989
 30
0.0
 11
158.6485554412502
 21
264.1861318944989
 31
0.0
  0
LINE
  5
37C
330
378
100
AcDbEntity
  8
0
 62
   123
100
AcDbLine
 10
158.6485554412502
 20
281.6861318945002
 30
0.0
 11
158.6485554412502
 21
319.9909105321003
 31
0.0
  0
LINE
  5
37D
330
378
100
AcDbEntity
  8
0
 62
   123
100
AcDbLine
 10
158.6485554412502
 20
269.1861318944988
 30
0.0
 11
158.6485554412502
 21
279.1861318945002
 31
0.0
  0
SOLID
  5
37E
330
378
100
AcDbEntity
  8
0
 62
   123
100
AcDbTrace
 10
158.2318887745835
 20
266.6861318944989
 30
0.0
 11
159.0652221079168
 21
266.6861318944989
 31
0.0
 12
158.6485554412502
 22
269.1861318944988
 32
0.0
 13
158.6485554412502
 23
269.1861318944988
 33
0.0
  0
SOLID
  5
37F
330
378
100
AcDbEntity
  8
0
 62
   123
100
AcDbTrace
 10
158.2318887745835
 20
281.6861318945002
 30
0.0
 11
159.0652221079168
 21
281.6861318945002
 31
0.0
 12
158.6485554412502
 22
279.1861318945002
 32
0.0
 13
158.6485554412502
 23
279.1861318945002
 33
0.0
  0
MTEXT
  5
380
330
378
100
AcDbEntity
  8
0
 62
     3
100
AcDbMText
 10
154.6984054412502
 20
305.175339103529
 30
0.0
 40
3.0
 41
0.0
 71
     5
 72
     1
  1
\A1;\A1;{\F;%%C10\H0.7x;\S+0^ -0.015;\H1.429x;(h7)}
 11
0.0000000000000001
 21
1.0
 31
0.0
1001
ACAD
1000
MTEXTBEGIN
1070
    73
1070
     1
1070
    44
1040
1.0
1070
    74
1070
     0
1000
MTEXTEND
  0
POINT
  5
381
330
378
100
AcDbEntity
  8
DEFPOINTS
 62
     0
100
AcDbPoint
 10
173.4732187302288
 20
269.1861318944988
 30
0.0
  0
POINT
  5
382
330
378
100
AcDbEntity
  8
DEFPOINTS
 62
     0
100
AcDbPoint
 10
173.4732187302288
 20
279.1861318945002
 30
0.0
  0
POINT
  5
383
330
378
100
AcDbEntity
  8
DEFPOINTS
 62
     0
100
AcDbPoint
 10
158.6485554412502
 20
279.1861318945002
 30
0.0
  0
ENDBLK
  5
385
330
378
100
AcDbEntity
  8
0
100
AcDbBlockEnd
  0
BLOCK
  5
390
330
386
100
AcDbEntity
  8
0
100
AcDbBlockBegin
  2
*D33
 70
     1
 10
0.0
 20
0.0
 30
0.0
  3
*D33
  1

  0
LINE
  5
387
330
386
100
AcDbEntity
  8
0
 62
   123
100
AcDbLine
 10
201.9732187302215
 20
289.1861318945002
 30
0.0
 11
140.7071728077703
 21
289.1861318945002
 31
0.0
  0
LINE
  5
388
330
386
100
AcDbEntity
  8
0
 62
   123
100
AcDbLine
 10
189.1135004849202
 20
259.1861318945002
 30
0.0
 11
140.7071728077703
 21
259.1861318945002
 31
0.0
  0
LINE
  5
389
330
386
100
AcDbEntity
  8
0
 62
   123
100
AcDbLine
 10
141.3071728077702
 20
286.6861318945002
 30
0.0
 11
141.3071728077702
 21
261.6861318945002
 31
0.0
  0
SOLID
  5
38A
330
386
100
AcDbEntity
  8
0
 62
   123
100
AcDbTrace
 10
140.8905061411036
 20
286.6861318945002
 30
0.0
 11
141.7238394744369
 21
286.6861318945002
 31
0.0
 12
141.3071728077702
 22
289.1861318945002
 32
0.0
 13
141.3071728077702
 23
289.1861318945002
 33
0.0
  0
SOLID
  5
38B
330
386
100
AcDbEntity
  8
0
 62
   123
100
AcDbTrace
 10
140.8905061411036
 20
261.6861318945002
 30
0.0
 11
141.7238394744369
 21
261.6861318945002
 31
0.0
 12
141.3071728077702
 22
259.1861318945002
 32
0.0
 13
141.3071728077702
 23
259.1861318945002
 33
0.0
  0
MTEXT
  5
38C
330
386
100
AcDbEntity
  8
0
 62
     3
100
AcDbMText
 10
138.8071728077702
 20
273.9361318945002
 30
0.0
 40
3.0
 41
0.0
 71
     5
 72
     1
  1
\A1;{\F;%%c}30
 11
0.0000000000000001
 21
1.0
 31
0.0
1001
ACAD
1000
MTEXTBEGIN
1070
    73
1070
     1
1070
    44
1040
1.0
1070
    74
1070
     0
1000
MTEXTEND
  0
POINT
  5
38D
330
386
100
AcDbEntity
  8
DEFPOINTS
 62
     0
100
AcDbPoint
 10
202.9732187302215
 20
289.1861318945002
 30
0.0
  0
POINT
  5
38E
330
386
100
AcDbEntity
  8
DEFPOINTS
 62
     0
100
AcDbPoint
 10
190.1135004849202
 20
259.1861318945002
 30
0.0
  0
POINT
  5
38F
330
386
100
AcDbEntity
  8
DEFPOINTS
 62
     0
100
AcDbPoint
 10
141.3071728077702
 20
259.1861318945002
 30
0.0
  0
ENDBLK
  5
391
330
386
100
AcDbEntity
  8
0
100
AcDbBlockEnd
  0
BLOCK
  5
39C
330
392
100
AcDbEntity
  8
0
100
AcDbBlockBegin
  2
*D34
 70
     1
 10
0.0
 20
0.0
 30
0.0
  3
*D34
  1

  0
LINE
  5
393
330
392
100
AcDbEntity
  8
0
 62
   123
100
AcDbLine
 10
168.5750799289999
 20
274.1861318945002
 30
0.0
 11
149.600972627812
 21
274.1861318945002
 31
0.0
  0
LINE
  5
394
330
392
100
AcDbEntity
  8
0
 62
   123
100
AcDbLine
 10
189.1135004849202
 20
259.1861318945002
 30
0.0
 11
149.600972627812
 21
259.1861318945002
 31
0.0
  0
LINE
  5
395
330
392
100
AcDbEntity
  8
0
 62
   123
100
AcDbLine
 10
150.200972627812
 20
271.6861318945002
 30
0.0
 11
150.200972627812
 21
261.6861318945002
 31
0.0
  0
SOLID
  5
396
330
392
100
AcDbEntity
  8
0
 62
   123
100
AcDbTrace
 10
149.7843059611453
 20
271.6861318945002
 30
0.0
 11
150.6176392944786
 21
271.6861318945002
 31
0.0
 12
150.200972627812
 22
274.1861318945002
 32
0.0
 13
150.200972627812
 23
274.1861318945002
 33
0.0
  0
SOLID
  5
397
330
392
100
AcDbEntity
  8
0
 62
   123
100
AcDbTrace
 10
149.7843059611453
 20
261.6861318945002
 30
0.0
 11
150.6176392944786
 21
261.6861318945002
 31
0.0
 12
150.200972627812
 22
259.1861318945002
 32
0.0
 13
150.200972627812
 23
259.1861318945002
 33
0.0
  0
MTEXT
  5
398
330
392
100
AcDbEntity
  8
0
 62
     3
100
AcDbMText
 10
147.7009726278119
 20
266.6861318945003
 30
0.0
 40
3.0
 41
0.0
 71
     5
 72
     1
  1
\A1;15
 11
0.0000000000000001
 21
1.0
 31
0.0
1001
ACAD
1000
MTEXTBEGIN
1070
    73
1070
     1
1070
    44
1040
1.0
1070
    74
1070
     0
1000
MTEXTEND
  0
POINT
  5
399
330
392
100
AcDbEntity
  8
DEFPOINTS
 62
     0
100
AcDbPoint
 10
169.5750799289999
 20
274.1861318945002
 30
0.0
  0
POINT
  5
39A
330
392
100
AcDbEntity
  8
DEFPOINTS
 62
     0
100
AcDbPoint
 10
190.1135004849202
 20
259.1861318945002
 30
0.0
  0
POINT
  5
39B
330
392
100
AcDbEntity
  8
DEFPOINTS
 62
     0
100
AcDbPoint
 10
150.200972627812
 20
259.1861318945002
 30
0.0
  0
ENDBLK
  5
39D
330
392
100
AcDbEntity
  8
0
100
AcDbBlockEnd
  0
BLOCK
  5
3A8
330
39E
100
AcDbEntity
  8
0
100
AcDbBlockBegin
  2
*D35
 70
     1
 10
0.0
 20
0.0
 30
0.0
  3
*D35
  1

  0
LINE
  5
39F
330
39E
100
AcDbEntity
  8
0
 62
   123
100
AcDbLine
 10
165.5294655037941
 20
89.49593106110114
 30
0.0
 11
165.5294655037941
 21
117.725579007918
 31
0.0
  0
LINE
  5
3A0
330
39E
100
AcDbEntity
  8
0
 62
   123
100
AcDbLine
 10
207.5294655037942
 20
89.49593106110114
 30
0.0
 11
207.5294655037942
 21
117.725579007918
 31
0.0
  0
LINE
  5
3A1
330
39E
100
AcDbEntity
  8
0
 62
   123
100
AcDbLine
 10
168.0294655037942
 20
117.125579007918
 30
0.0
 11
205.0294655037942
 21
117.125579007918
 31
0.0
  0
SOLID
  5
3A2
330
39E
100
AcDbEntity
  8
0
 62
   123
100
AcDbTrace
 10
168.0294655037942
 20
117.5422456745847
 30
0.0
 11
168.0294655037942
 21
116.7089123412514
 31
0.0
 12
165.5294655037941
 22
117.125579007918
 32
0.0
 13
165.5294655037941
 23
117.125579007918
 33
0.0
  0
SOLID
  5
3A3
330
39E
100
AcDbEntity
  8
0
 62
   123
100
AcDbTrace
 10
205.0294655037942
 20
117.5422456745847
 30
0.0
 11
205.0294655037942
 21
116.7089123412514
 31
0.0
 12
207.5294655037942
 22
117.125579007918
 32
0.0
 13
207.5294655037942
 23
117.125579007918
 33
0.0
  0
MTEXT
  5
3A4
330
39E
100
AcDbEntity
  8
0
 62
     3
100
AcDbMText
 10
185.5294655037942
 20
119.625579007918
 30
0.0
 40
3.0
 41
0.0
 71
     5
 72
     1
  1
\A1;{\F;L}
1001
ACAD
1000
MTEXTBEGIN
1070
    73
1070
     1
1070
    44
1040
1.0
1070
    74
1070
     0
1000
MTEXTEND
  0
POINT
  5
3A5
330
39E
100
AcDbEntity
  8
DEFPOINTS
 62
     0
100
AcDbPoint
 10
165.5294655037941
 20
88.49593106110114
 30
0.0
  0
POINT
  5
3A6
330
39E
100
AcDbEntity
  8
DEFPOINTS
 62
     0
100
AcDbPoint
 10
207.5294655037942
 20
88.49593106110114
 30
0.0
  0
POINT
  5
3A7
330
39E
100
AcDbEntity
  8
DEFPOINTS
 62
     0
100
AcDbPoint
 10
207.5294655037942
 20
117.125579007918
 30
0.0
  0
ENDBLK
  5
3A9
330
39E
100
AcDbEntity
  8
0
100
AcDbBlockEnd
  0
BLOCK
  5
3B6
330
3AA
100
AcDbEntity
  8
0
100
AcDbBlockBegin
  2
*D36
 70
     1
 10
0.0
 20
0.0
 30
0.0
  3
*D36
  1

  0
LINE
  5
3AB
330
3AA
100
AcDbEntity
  8
0
 62
   123
100
AcDbLine
 10
165.5294655037941
 20
89.49593106110114
 30
0.0
 11
165.5294655037941
 21
106.2016738153502
 31
0.0
  0
LINE
  5
3AC
330
3AA
100
AcDbEntity
  8
0
 62
   123
100
AcDbLine
 10
162.5294655037942
 20
84.49593106110114
 30
0.0
 11
162.5294655037942
 21
106.2016738153502
 31
0.0
  0
LINE
  5
3AD
330
3AA
100
AcDbEntity
  8
0
 62
   123
100
AcDbLine
 10
168.0294655037942
 20
105.6016738153503
 30
0.0
 11
170.5294655037941
 21
105.6016738153503
 31
0.0
  0
LINE
  5
3AE
330
3AA
100
AcDbEntity
  8
0
 62
   123
100
AcDbLine
 10
160.0294655037941
 20
105.6016738153503
 30
0.0
 11
157.5294655037942
 21
105.6016738153503
 31
0.0
  0
LINE
  5
3AF
330
3AA
100
AcDbEntity
  8
0
 62
   123
100
AcDbLine
 10
165.5294655037941
 20
105.6016738153503
 30
0.0
 11
162.5294655037942
 21
105.6016738153503
 31
0.0
  0
SOLID
  5
3B0
330
3AA
100
AcDbEntity
  8
0
 62
   123
100
AcDbTrace
 10
168.0294655037942
 20
106.0183404820169
 30
0.0
 11
168.0294655037942
 21
105.1850071486836
 31
0.0
 12
165.5294655037941
 22
105.6016738153503
 32
0.0
 13
165.5294655037941
 23
105.6016738153503
 33
0.0
  0
SOLID
  5
3B1
330
3AA
100
AcDbEntity
  8
0
 62
   123
100
AcDbTrace
 10
160.0294655037941
 20
106.0183404820169
 30
0.0
 11
160.0294655037941
 21
105.1850071486836
 31
0.0
 12
162.5294655037942
 22
105.6016738153503
 32
0.0
 13
162.5294655037942
 23
105.6016738153503
 33
0.0
  0
MTEXT
  5
3B2
330
3AA
100
AcDbEntity
  8
0
 62
     3
100
AcDbMText
 10
164.0294655037942
 20
108.1016738153502
 30
0.0
 40
3.0
 41
0.0
 71
     5
 72
     1
  1
\A1;3
1001
ACAD
1000
MTEXTBEGIN
1070
    73
1070
     1
1070
    44
1040
1.0
1070
    74
1070
     0
1000
MTEXTEND
  0
POINT
  5
3B3
330
3AA
100
AcDbEntity
  8
DEFPOINTS
 62
     0
100
AcDbPoint
 10
165.5294655037941
 20
88.49593106110114
 30
0.0
  0
POINT
  5
3B4
330
3AA
100
AcDbEntity
  8
DEFPOINTS
 62
     0
100
AcDbPoint
 10
162.5294655037942
 20
83.49593106110114
 30
0.0
  0
POINT
  5
3B5
330
3AA
100
AcDbEntity
  8
DEFPOINTS
 62
     0
100
AcDbPoint
 10
162.5294655037942
 20
105.6016738153503
 30
0.0
  0
ENDBLK
  5
3B7
330
3AA
100
AcDbEntity
  8
0
100
AcDbBlockEnd
  0
BLOCK
  5
3C2
330
3B8
100
AcDbEntity
  8
0
100
AcDbBlockBegin
  2
*D37
 70
     1
 10
0.0
 20
0.0
 30
0.0
  3
*D37
  1

  0
LINE
  5
3B9
330
3B8
100
AcDbEntity
  8
0
 62
   123
100
AcDbLine
 10
133.5294655037796
 20
74.99593106110115
 30
0.0
 11
133.5294655037796
 21
117.725579007918
 31
0.0
  0
LINE
  5
3BA
330
3B8
100
AcDbEntity
  8
0
 62
   123
100
AcDbLine
 10
165.5294655037941
 20
89.49593106110114
 30
0.0
 11
165.5294655037941
 21
117.725579007918
 31
0.0
  0
LINE
  5
3BB
330
3B8
100
AcDbEntity
  8
0
 62
   123
100
AcDbLine
 10
136.0294655037796
 20
117.125579007918
 30
0.0
 11
163.0294655037942
 21
117.125579007918
 31
0.0
  0
SOLID
  5
3BC
330
3B8
100
AcDbEntity
  8
0
 62
   123
100
AcDbTrace
 10
136.0294655037796
 20
117.5422456745847
 30
0.0
 11
136.0294655037796
 21
116.7089123412514
 31
0.0
 12
133.5294655037796
 22
117.125579007918
 32
0.0
 13
133.5294655037796
 23
117.125579007918
 33
0.0
  0
SOLID
  5
3BD
330
3B8
100
AcDbEntity
  8
0
 62
   123
100
AcDbTrace
 10
163.0294655037942
 20
117.5422456745847
 30
0.0
 11
163.0294655037942
 21
116.7089123412514
 31
0.0
 12
165.5294655037941
 22
117.125579007918
 32
0.0
 13
165.5294655037941
 23
117.125579007918
 33
0.0
  0
MTEXT
  5
3BE
330
3B8
100
AcDbEntity
  8
0
 62
     3
100
AcDbMText
 10
149.5294655037942
 20
119.625579007918
 30
0.0
 40
3.0
 41
0.0
 71
     5
 72
     1
  1
\A1;32
1001
ACAD
1000
MTEXTBEGIN
1070
    73
1070
     1
1070
    44
1040
1.0
1070
    74
1070
     0
1000
MTEXTEND
  0
POINT
  5
3BF
330
3B8
100
AcDbEntity
  8
DEFPOINTS
 62
     0
100
AcDbPoint
 10
133.5294655037796
 20
73.99593106110114
 30
0.0
  0
POINT
  5
3C0
330
3B8
100
AcDbEntity
  8
DEFPOINTS
 62
     0
100
AcDbPoint
 10
165.5294655037941
 20
88.49593106110114
 30
0.0
  0
POINT
  5
3C1
330
3B8
100
AcDbEntity
  8
DEFPOINTS
 62
     0
100
AcDbPoint
 10
165.5294655037941
 20
117.125579007918
 30
0.0
  0
ENDBLK
  5
3C3
330
3B8
100
AcDbEntity
  8
0
100
AcDbBlockEnd
  0
BLOCK
  5
3D0
330
3C4
100
AcDbEntity
  8
0
100
AcDbBlockBegin
  2
*D38
 70
     1
 10
0.0
 20
0.0
 30
0.0
  3
*D38
  1

  0
LINE
  5
3C5
330
3C4
100
AcDbEntity
  8
0
 62
   123
100
AcDbLine
 10
132.5294655037796
 20
63.99593106110206
 30
0.0
 11
118.1048022148119
 21
63.99593106110206
 31
0.0
  0
LINE
  5
3C6
330
3C4
100
AcDbEntity
  8
0
 62
   123
100
AcDbLine
 10
132.5294655037796
 20
73.99593106110114
 30
0.0
 11
118.1048022148119
 21
73.99593106110114
 31
0.0
  0
LINE
  5
3C7
330
3C4
100
AcDbEntity
  8
0
 62
   123
100
AcDbLine
 10
118.7048022148119
 20
61.49593106110206
 30
0.0
 11
118.7048022148119
 21
58.99593106110206
 31
0.0
  0
LINE
  5
3C8
330
3C4
100
AcDbEntity
  8
0
 62
   123
100
AcDbLine
 10
118.7048022148119
 20
76.49593106110114
 30
0.0
 11
118.7048022148119
 21
114.8239735742696
 31
0.0
  0
LINE
  5
3C9
330
3C4
100
AcDbEntity
  8
0
 62
   123
100
AcDbLine
 10
118.7048022148119
 20
63.99593106110206
 30
0.0
 11
118.7048022148119
 21
73.99593106110114
 31
0.0
  0
SOLID
  5
3CA
330
3C4
100
AcDbEntity
  8
0
 62
   123
100
AcDbTrace
 10
118.2881355481452
 20
61.49593106110206
 30
0.0
 11
119.1214688814786
 21
61.49593106110206
 31
0.0
 12
118.7048022148119
 22
63.99593106110206
 32
0.0
 13
118.7048022148119
 23
63.99593106110206
 33
0.0
  0
SOLID
  5
3CB
330
3C4
100
AcDbEntity
  8
0
 62
   123
100
AcDbTrace
 10
118.2881355481452
 20
76.49593106110114
 30
0.0
 11
119.1214688814786
 21
76.49593106110114
 31
0.0
 12
118.7048022148119
 22
73.99593106110114
 32
0.0
 13
118.7048022148119
 23
73.99593106110114
 33
0.0
  0
MTEXT
  5
3CC
330
3C4
100
AcDbEntity
  8
0
 62
     3
100
AcDbMText
 10
114.7546522148119
 20
100.0084021456982
 30
0.0
 40
3.0
 41
0.0
 71
     5
 72
     1
  1
\A1;\A1;{\F;%%C10\H0.7x;\S+0^ -0.015;\H1.429x;(h7)}
 11
0.0000000000000001
 21
1.0
 31
0.0
1001
ACAD
1000
MTEXTBEGIN
1070
    73
1070
     1
1070
    44
1040
1.0
1070
    74
1070
     0
1000
MTEXTEND
  0
POINT
  5
3CD
330
3C4
100
AcDbEntity
  8
DEFPOINTS
 62
     0
100
AcDbPoint
 10
133.5294655037796
 20
63.99593106110206
 30
0.0
  0
POINT
  5
3CE
330
3C4
100
AcDbEntity
  8
DEFPOINTS
 62
     0
100
AcDbPoint
 10
133.5294655037796
 20
73.99593106110114
 30
0.0
  0
POINT
  5
3CF
330
3C4
100
AcDbEntity
  8
DEFPOINTS
 62
     0
100
AcDbPoint
 10
118.7048022148119
 20
73.99593106110114
 30
0.0
  0
ENDBLK
  5
3D1
330
3C4
100
AcDbEntity
  8
0
100
AcDbBlockEnd
  0
BLOCK
  5
3DC
330
3D2
100
AcDbEntity
  8
0
100
AcDbBlockBegin
  2
*D39
 70
     1
 10
0.0
 20
0.0
 30
0.0
  3
*D39
  1

  0
LINE
  5
3D3
330
3D2
100
AcDbEntity
  8
0
 62
   123
100
AcDbLine
 10
207.5294655037942
 20
89.99593106110115
 30
0.0
 11
207.5294655037942
 21
106.8600196155617
 31
0.0
  0
LINE
  5
3D4
330
3D2
100
AcDbEntity
  8
0
 62
   123
100
AcDbLine
 10
214.5294655037941
 20
88.5946684026303
 30
0.0
 11
214.5294655037941
 21
106.8600196155617
 31
0.0
  0
LINE
  5
3D5
330
3D2
100
AcDbEntity
  8
0
 62
   123
100
AcDbLine
 10
210.0294655037941
 20
106.2600196155617
 30
0.0
 11
212.0294655037942
 21
106.2600196155617
 31
0.0
  0
SOLID
  5
3D6
330
3D2
100
AcDbEntity
  8
0
 62
   123
100
AcDbTrace
 10
210.0294655037941
 20
106.6766862822284
 30
0.0
 11
210.0294655037941
 21
105.843352948895
 31
0.0
 12
207.5294655037942
 22
106.2600196155617
 32
0.0
 13
207.5294655037942
 23
106.2600196155617
 33
0.0
  0
SOLID
  5
3D7
330
3D2
100
AcDbEntity
  8
0
 62
   123
100
AcDbTrace
 10
212.0294655037942
 20
106.6766862822284
 30
0.0
 11
212.0294655037942
 21
105.843352948895
 31
0.0
 12
214.5294655037941
 22
106.2600196155617
 32
0.0
 13
214.5294655037941
 23
106.2600196155617
 33
0.0
  0
MTEXT
  5
3D8
330
3D2
100
AcDbEntity
  8
0
 62
     3
100
AcDbMText
 10
211.0294655037942
 20
108.7600196155617
 30
0.0
 40
3.0
 41
0.0
 71
     5
 72
     1
  1
\A1;7
1001
ACAD
1000
MTEXTBEGIN
1070
    73
1070
     1
1070
    44
1040
1.0
1070
    74
1070
     0
1000
MTEXTEND
  0
POINT
  5
3D9
330
3D2
100
AcDbEntity
  8
DEFPOINTS
 62
     0
100
AcDbPoint
 10
207.5294655037942
 20
88.99593106110115
 30
0.0
  0
POINT
  5
3DA
330
3D2
100
AcDbEntity
  8
DEFPOINTS
 62
     0
100
AcDbPoint
 10
214.5294655037941
 20
87.5946684026303
 30
0.0
  0
POINT
  5
3DB
330
3D2
100
AcDbEntity
  8
DEFPOINTS
 62
     0
100
AcDbPoint
 10
214.5294655037941
 20
106.2600196155617
 30
0.0
  0
ENDBLK
  5
3DD
330
3D2
100
AcDbEntity
  8
0
100
AcDbBlockEnd
  0
BLOCK
  5
3E8
330
3DE
100
AcDbEntity
  8
0
100
AcDbBlockBegin
  2
*D40
 70
     1
 10
0.0
 20
0.0
 30
0.0
  3
*D40
  1

  0
LINE
  5
3DF
330
3DE
100
AcDbEntity
  8
0
 62
   123
100
AcDbLine
 10
207.5294655037942
 20
89.49593106110114
 30
0.0
 11
207.5294655037942
 21
117.725579007918
 31
0.0
  0
LINE
  5
3E0
330
3DE
100
AcDbEntity
  8
0
 62
   123
100
AcDbLine
 10
287.5294655037941
 20
86.99593106110114
 30
0.0
 11
287.5294655037941
 21
117.725579007918
 31
0.0
  0
LINE
  5
3E1
330
3DE
100
AcDbEntity
  8
0
 62
   123
100
AcDbLine
 10
210.0294655037941
 20
117.125579007918
 30
0.0
 11
285.0294655037941
 21
117.125579007918
 31
0.0
  0
SOLID
  5
3E2
330
3DE
100
AcDbEntity
  8
0
 62
   123
100
AcDbTrace
 10
210.0294655037941
 20
117.5422456745847
 30
0.0
 11
210.0294655037941
 21
116.7089123412514
 31
0.0
 12
207.5294655037942
 22
117.125579007918
 32
0.0
 13
207.5294655037942
 23
117.125579007918
 33
0.0
  0
SOLID
  5
3E3
330
3DE
100
AcDbEntity
  8
0
 62
   123
100
AcDbTrace
 10
285.0294655037941
 20
117.5422456745847
 30
0.0
 11
285.0294655037941
 21
116.7089123412514
 31
0.0
 12
287.5294655037941
 22
117.125579007918
 32
0.0
 13
287.5294655037941
 23
117.125579007918
 33
0.0
  0
MTEXT
  5
3E4
330
3DE
100
AcDbEntity
  8
0
 62
     3
100
AcDbMText
 10
247.5294655037941
 20
119.625579007918
 30
0.0
 40
3.0
 41
0.0
 71
     5
 72
     1
  1
\A1;80
1001
ACAD
1000
MTEXTBEGIN
1070
    73
1070
     1
1070
    44
1040
1.0
1070
    74
1070
     0
1000
MTEXTEND
  0
POINT
  5
3E5
330
3DE
100
AcDbEntity
  8
DEFPOINTS
 62
     0
100
AcDbPoint
 10
207.5294655037942
 20
88.49593106110114
 30
0.0
  0
POINT
  5
3E6
330
3DE
100
AcDbEntity
  8
DEFPOINTS
 62
     0
100
AcDbPoint
 10
287.5294655037941
 20
85.99593106110114
 30
0.0
  0
POINT
  5
3E7
330
3DE
100
AcDbEntity
  8
DEFPOINTS
 62
     0
100
AcDbPoint
 10
287.5294655037941
 20
117.125579007918
 30
0.0
  0
ENDBLK
  5
3E9
330
3DE
100
AcDbEntity
  8
0
100
AcDbBlockEnd
  0
BLOCK
  5
3F4
330
3EA
100
AcDbEntity
  8
0
100
AcDbBlockBegin
  2
*D41
 70
     1
 10
0.0
 20
0.0
 30
0.0
  3
*D41
  1

  0
LINE
  5
3EB
330
3EA
100
AcDbEntity
  8
0
 62
   123
100
AcDbLine
 10
1.889062963749893
 20
84.99593106110115
 30
0.0
 11
1.889062963749894
 21
101.924130513582
 31
0.0
  0
LINE
  5
3EC
330
3EA
100
AcDbEntity
  8
0
 62
   123
100
AcDbLine
 10
71.88906296374989
 20
84.99593106110115
 30
0.0
 11
71.88906296374989
 21
101.924130513582
 31
0.0
  0
LINE
  5
3ED
330
3EA
100
AcDbEntity
  8
0
 62
   123
100
AcDbLine
 10
4.389062963749894
 20
101.324130513582
 30
0.0
 11
69.38906296374989
 21
101.324130513582
 31
0.0
  0
SOLID
  5
3EE
330
3EA
100
AcDbEntity
  8
0
 62
   123
100
AcDbTrace
 10
4.389062963749894
 20
101.7407971802487
 30
0.0
 11
4.389062963749894
 21
100.9074638469154
 31
0.0
 12
1.889062963749894
 22
101.324130513582
 32
0.0
 13
1.889062963749894
 23
101.324130513582
 33
0.0
  0
SOLID
  5
3EF
330
3EA
100
AcDbEntity
  8
0
 62
   123
100
AcDbTrace
 10
69.38906296374989
 20
101.7407971802487
 30
0.0
 11
69.38906296374989
 21
100.9074638469154
 31
0.0
 12
71.88906296374989
 22
101.324130513582
 32
0.0
 13
71.88906296374989
 23
101.324130513582
 33
0.0
  0
MTEXT
  5
3F0
330
3EA
100
AcDbEntity
  8
0
 62
     3
100
AcDbMText
 10
39.14313998855141
 20
103.824130513582
 30
0.0
 40
3.0
 41
0.0
 71
     5
 72
     1
  1
\A1;70
1001
ACAD
1000
MTEXTBEGIN
1070
    73
1070
     1
1070
    44
1040
1.0
1070
    74
1070
     0
1000
MTEXTEND
  0
POINT
  5
3F1
330
3EA
100
AcDbEntity
  8
DEFPOINTS
 62
     0
100
AcDbPoint
 10
1.889062963749893
 20
83.99593106110115
 30
0.0
  0
POINT
  5
3F2
330
3EA
100
AcDbEntity
  8
DEFPOINTS
 62
     0
100
AcDbPoint
 10
71.88906296374989
 20
83.99593106110115
 30
0.0
  0
POINT
  5
3F3
330
3EA
100
AcDbEntity
  8
DEFPOINTS
 62
     0
100
AcDbPoint
 10
71.88906296374989
 20
101.324130513582
 30
0.0
  0
ENDBLK
  5
3F5
330
3EA
100
AcDbEntity
  8
0
100
AcDbBlockEnd
  0
BLOCK
  5
402
330
3F6
100
AcDbEntity
  8
0
100
AcDbBlockBegin
  2
*D42
 70
     1
 10
0.0
 20
0.0
 30
0.0
  3
*D42
  1

  0
LINE
  5
500
330
3F6
100
AcDbEntity
  8
0
 62
   123
100
AcDbLine
 10
36.88906296374998
 20
12.89428595632625
 30
0.0
 11
36.88906296375139
 21
-2.963365953120107
 31
0.0
  0
LINE
  5
501
330
3F6
100
AcDbEntity
  8
0
 62
   123
100
AcDbLine
 10
51.76922107917441
 20
18.07205152859395
 30
0.0
 11
58.6864422502574
 21
1.37240236343243
 31
0.0
  0
ARC
  5
502
330
3F6
100
AcDbEntity
  8
0
 62
   123
100
AcDbCircle
 10
36.88906296374634
 20
53.99593106111381
 30
0.0
 40
56.35929701423392
100
AcDbArc
 50
272.5417491442621
 51
289.9582508557445
  0
SOLID
  5
503
330
3F6
100
AcDbEntity
  8
0
 62
   123
100
AcDbTrace
 10
39.39768929889872
 20
-2.724482307936862
 30
0.0
 11
39.37920669315564
 21
-1.891353963844916
 31
0.0
 12
36.88906296375134
 22
-2.363365953120108
 32
0.0
 13
36.88906296375134
 23
-2.363365953120108
 33
0.0
  0
SOLID
  5
504
330
3F6
100
AcDbEntity
  8
0
 62
   123
100
AcDbTrace
 10
55.97560819805712
 20
1.40987554947935
 30
0.0
 11
56.27735691122146
 21
0.6330923374130038
 31
0.0
 12
58.45683219083833
 22
1.926730082939196
 32
0.0
 13
58.45683219083833
 23
1.926730082939196
 33
0.0
  0
MTEXT
  5
505
330
3F6
100
AcDbEntity
  8
0
 62
     3
100
AcDbMText
 10
47.34075046981396
 20
1.451749702517619
 30
0.0
 40
3.0
 41
0.0
 71
     5
 72
     1
  1
\A1;22°30'
 11
0.980785280403219
 21
0.1950903220161851
 31
0.0
  0
POINT
  5
506
330
3F6
100
AcDbEntity
  8
DEFPOINTS
 62
     0
100
AcDbPoint
 10
44.24542739921702
 20
-1.881204354288245
 30
0.0
  0
POINT
  5
507
330
3F6
100
AcDbEntity
  8
DEFPOINTS
 62
     0
100
AcDbPoint
 10
36.8890629637499
 20
13.89428595632625
 30
0.0
  0
POINT
  5
508
330
3F6
100
AcDbEntity
  8
DEFPOINTS
 62
     0
100
AcDbPoint
 10
36.88906296374989
 20
53.99593106110524
 30
0.0
  0
POINT
  5
509
330
3F6
100
AcDbEntity
  8
DEFPOINTS
 62
     0
100
AcDbPoint
 10
51.3865376468093
 20
18.99593106110524
 30
0.0
  0
POINT
  5
50A
330
3F6
100
AcDbEntity
  8
DEFPOINTS
 62
     0
100
AcDbPoint
 10
36.88906296374261
 20
96.04364406530201
 30
0.0
  0
ENDBLK
  5
403
330
3F6
100
AcDbEntity
  8
0
100
AcDbBlockEnd
  0
BLOCK
  5
40E
330
404
100
AcDbEntity
  8
0
100
AcDbBlockBegin
  2
*D43
 70
     1
 10
0.0
 20
0.0
 30
0.0
  3
*D43
  1

  0
LINE
  5
405
330
404
100
AcDbEntity
  8
0
 62
   123
100
AcDbLine
 10
128.6313267025616
 20
68.99593106110114
 30
0.0
 11
109.65721940137
 21
68.99593106110114
 31
0.0
  0
LINE
  5
406
330
404
100
AcDbEntity
  8
0
 62
   123
100
AcDbLine
 10
149.1697472584819
 20
53.99593106110206
 30
0.0
 11
109.65721940137
 21
53.99593106110207
 31
0.0
  0
LINE
  5
407
330
404
100
AcDbEntity
  8
0
 62
   123
100
AcDbLine
 10
110.25721940137
 20
66.49593106110114
 30
0.0
 11
110.25721940137
 21
56.49593106110207
 31
0.0
  0
SOLID
  5
408
330
404
100
AcDbEntity
  8
0
 62
   123
100
AcDbTrace
 10
109.8405527347034
 20
66.49593106110114
 30
0.0
 11
110.6738860680367
 21
66.49593106110114
 31
0.0
 12
110.25721940137
 22
68.99593106110114
 32
0.0
 13
110.25721940137
 23
68.99593106110114
 33
0.0
  0
SOLID
  5
409
330
404
100
AcDbEntity
  8
0
 62
   123
100
AcDbTrace
 10
109.8405527347034
 20
56.49593106110207
 30
0.0
 11
110.6738860680367
 21
56.49593106110207
 31
0.0
 12
110.25721940137
 22
53.99593106110207
 32
0.0
 13
110.25721940137
 23
53.99593106110207
 33
0.0
  0
MTEXT
  5
40A
330
404
100
AcDbEntity
  8
0
 62
     3
100
AcDbMText
 10
107.75721940137
 20
61.49593106110162
 30
0.0
 40
3.0
 41
0.0
 71
     5
 72
     1
  1
\A1;15
 11
0.0000000000000001
 21
1.0
 31
0.0
1001
ACAD
1000
MTEXTBEGIN
1070
    73
1070
     1
1070
    44
1040
1.0
1070
    74
1070
     0
1000
MTEXTEND
  0
POINT
  5
40B
330
404
100
AcDbEntity
  8
DEFPOINTS
 62
     0
100
AcDbPoint
 10
129.6313267025616
 20
68.99593106110114
 30
0.0
  0
POINT
  5
40C
330
404
100
AcDbEntity
  8
DEFPOINTS
 62
     0
100
AcDbPoint
 10
150.1697472584819
 20
53.99593106110206
 30
0.0
  0
POINT
  5
40D
330
404
100
AcDbEntity
  8
DEFPOINTS
 62
     0
100
AcDbPoint
 10
110.25721940137
 20
53.99593106110207
 30
0.0
  0
ENDBLK
  5
40F
330
404
100
AcDbEntity
  8
0
100
AcDbBlockEnd
  0
BLOCK
  5
41A
330
410
100
AcDbEntity
  8
0
100
AcDbBlockBegin
  2
*D44
 70
     1
 10
0.0
 20
0.0
 30
0.0
  3
*D44
  1

  0
LINE
  5
411
330
410
100
AcDbEntity
  8
0
 62
   123
100
AcDbLine
 10
162.2794655037941
 20
83.99593106110115
 30
0.0
 11
100.7634195813429
 21
83.99593106110115
 31
0.0
  0
LINE
  5
412
330
410
100
AcDbEntity
  8
0
 62
   123
100
AcDbLine
 10
149.1697472584819
 20
53.99593106110114
 30
0.0
 11
100.7634195813429
 21
53.99593106110116
 31
0.0
  0
LINE
  5
413
330
410
100
AcDbEntity
  8
0
 62
   123
100
AcDbLine
 10
101.3634195813429
 20
81.49593106110115
 30
0.0
 11
101.3634195813429
 21
56.49593106110116
 31
0.0
  0
SOLID
  5
414
330
410
100
AcDbEntity
  8
0
 62
   123
100
AcDbTrace
 10
100.9467529146762
 20
81.49593106110115
 30
0.0
 11
101.7800862480095
 21
81.49593106110115
 31
0.0
 12
101.3634195813429
 22
83.99593106110115
 32
0.0
 13
101.3634195813429
 23
83.99593106110115
 33
0.0
  0
SOLID
  5
415
330
410
100
AcDbEntity
  8
0
 62
   123
100
AcDbTrace
 10
100.9467529146762
 20
56.49593106110116
 30
0.0
 11
101.7800862480095
 21
56.49593106110116
 31
0.0
 12
101.3634195813429
 22
53.99593106110116
 32
0.0
 13
101.3634195813429
 23
53.99593106110116
 33
0.0
  0
MTEXT
  5
416
330
410
100
AcDbEntity
  8
0
 62
     3
100
AcDbMText
 10
98.86341958134289
 20
68.74593106110115
 30
0.0
 40
3.0
 41
0.0
 71
     5
 72
     1
  1
\A1;{\F;%%c}30
 11
0.0000000000000001
 21
1.0
 31
0.0
1001
ACAD
1000
MTEXTBEGIN
1070
    73
1070
     1
1070
    44
1040
1.0
1070
    74
1070
     0
1000
MTEXTEND
  0
POINT
  5
417
330
410
100
AcDbEntity
  8
DEFPOINTS
 62
     0
100
AcDbPoint
 10
163.2794655037941
 20
83.99593106110115
 30
0.0
  0
POINT
  5
418
330
410
100
AcDbEntity
  8
DEFPOINTS
 62
     0
100
AcDbPoint
 10
150.1697472584819
 20
53.99593106110114
 30
0.0
  0
POINT
  5
419
330
410
100
AcDbEntity
  8
DEFPOINTS
 62
     0
100
AcDbPoint
 10
101.3634195813429
 20
53.99593106110116
 30
0.0
  0
ENDBLK
  5
41B
330
410
100
AcDbEntity
  8
0
100
AcDbBlockEnd
  0
BLOCK
  5
426
330
41C
100
AcDbEntity
  8
0
100
AcDbBlockBegin
  2
*D45
 70
     1
 10
0.0
 20
0.0
 30
0.0
  3
*D45
  1

  0
LINE
  5
41D
330
41C
100
AcDbEntity
  8
0
 62
   123
100
AcDbLine
 10
158.5294655037942
 20
74.99593106110115
 30
0.0
 11
158.5294655037942
 21
90.81621926800298
 31
0.0
  0
LINE
  5
41E
330
41C
100
AcDbEntity
  8
0
 62
   123
100
AcDbLine
 10
133.5294655037796
 20
74.99593106109978
 30
0.0
 11
133.5294655037796
 21
90.81621926800298
 31
0.0
  0
LINE
  5
41F
330
41C
100
AcDbEntity
  8
0
 62
   123
100
AcDbLine
 10
156.0294655037941
 20
90.21621926800298
 30
0.0
 11
136.0294655037796
 21
90.21621926800298
 31
0.0
  0
SOLID
  5
420
330
41C
100
AcDbEntity
  8
0
 62
   123
100
AcDbTrace
 10
156.0294655037941
 20
90.63288593466966
 30
0.0
 11
156.0294655037941
 21
89.79955260133632
 31
0.0
 12
158.5294655037942
 22
90.21621926800298
 32
0.0
 13
158.5294655037942
 23
90.21621926800298
 33
0.0
  0
SOLID
  5
421
330
41C
100
AcDbEntity
  8
0
 62
   123
100
AcDbTrace
 10
136.0294655037796
 20
90.63288593466966
 30
0.0
 11
136.0294655037796
 21
89.79955260133632
 31
0.0
 12
133.5294655037796
 22
90.21621926800298
 32
0.0
 13
133.5294655037796
 23
90.21621926800298
 33
0.0
  0
MTEXT
  5
422
330
41C
100
AcDbEntity
  8
0
 62
     3
100
AcDbMText
 10
146.3403961711774
 20
92.71621926800298
 30
0.0
 40
3.0
 41
0.0
 71
     5
 72
     1
  1
\A1;25
1001
ACAD
1000
MTEXTBEGIN
1070
    73
1070
     1
1070
    44
1040
1.0
1070
    74
1070
     0
1000
MTEXTEND
  0
POINT
  5
423
330
41C
100
AcDbEntity
  8
DEFPOINTS
 62
     0
100
AcDbPoint
 10
158.5294655037942
 20
73.99593106110114
 30
0.0
  0
POINT
  5
424
330
41C
100
AcDbEntity
  8
DEFPOINTS
 62
     0
100
AcDbPoint
 10
133.5294655037796
 20
73.99593106109978
 30
0.0
  0
POINT
  5
425
330
41C
100
AcDbEntity
  8
DEFPOINTS
 62
     0
100
AcDbPoint
 10
133.5294655037796
 20
90.21621926800298
 30
0.0
  0
ENDBLK
  5
427
330
41C
100
AcDbEntity
  8
0
100
AcDbBlockEnd
  0
BLOCK
  5
432
330
428
100
AcDbEntity
  8
0
100
AcDbBlockBegin
  2
*D46
 70
     1
 10
0.0
 20
0.0
 30
0.0
  3
*D46
  1

  0
LINE
  5
429
330
428
100
AcDbEntity
  8
0
 62
   123
100
AcDbLine
 10
281.5294655037941
 20
88.49593106110205
 30
0.0
 11
302.9613626833721
 21
88.49593106110203
 31
0.0
  0
LINE
  5
42A
330
428
100
AcDbEntity
  8
0
 62
   123
100
AcDbLine
 10
281.5294655037941
 20
19.49593106110114
 30
0.0
 11
302.9613626833721
 21
19.49593106110114
 31
0.0
  0
LINE
  5
42B
330
428
100
AcDbEntity
  8
0
 62
   123
100
AcDbLine
 10
302.3613626833721
 20
85.99593106110203
 30
0.0
 11
302.3613626833721
 21
21.99593106110114
 31
0.0
  0
SOLID
  5
42C
330
428
100
AcDbEntity
  8
0
 62
   123
100
AcDbTrace
 10
301.9446960167054
 20
85.99593106110203
 30
0.0
 11
302.7780293500388
 21
85.99593106110203
 31
0.0
 12
302.3613626833721
 22
88.49593106110203
 32
0.0
 13
302.3613626833721
 23
88.49593106110203
 33
0.0
  0
SOLID
  5
42D
330
428
100
AcDbEntity
  8
0
 62
   123
100
AcDbTrace
 10
301.9446960167054
 20
21.99593106110114
 30
0.0
 11
302.7780293500388
 21
21.99593106110114
 31
0.0
 12
302.3613626833721
 22
19.49593106110114
 32
0.0
 13
302.3613626833721
 23
19.49593106110114
 33
0.0
  0
MTEXT
  5
42E
330
428
100
AcDbEntity
  8
0
 62
     3
100
AcDbMText
 10
299.8613626833721
 20
53.49593106110205
 30
0.0
 40
3.0
 41
0.0
 71
     5
 72
     1
  1
\A1;%%C69
 11
0.0000000000000001
 21
1.0
 31
0.0
1001
ACAD
1000
MTEXTBEGIN
1070
    73
1070
     1
1070
    44
1040
1.0
1070
    74
1070
     0
1000
MTEXTEND
  0
POINT
  5
42F
330
428
100
AcDbEntity
  8
DEFPOINTS
 62
     0
100
AcDbPoint
 10
280.5294655037942
 20
88.49593106110205
 30
0.0
  0
POINT
  5
430
330
428
100
AcDbEntity
  8
DEFPOINTS
 62
     0
100
AcDbPoint
 10
280.5294655037942
 20
19.49593106110114
 30
0.0
  0
POINT
  5
431
330
428
100
AcDbEntity
  8
DEFPOINTS
 62
     0
100
AcDbPoint
 10
302.3613626833721
 20
19.49593106110114
 30
0.0
  0
ENDBLK
  5
433
330
428
100
AcDbEntity
  8
0
100
AcDbBlockEnd
  0
BLOCK
  5
440
330
434
100
AcDbEntity
  8
0
100
AcDbBlockBegin
  2
*D47
 70
     1
 10
0.0
 20
0.0
 30
0.0
  3
*D47
  1

  0
LINE
  5
435
330
434
100
AcDbEntity
  8
0
 62
   123
100
AcDbLine
 10
105.6507015019415
 20
158.4334928428579
 30
0.0
 11
105.6507015019415
 21
166.792505387833
 31
0.0
  0
LINE
  5
436
330
434
100
AcDbEntity
  8
0
 62
   123
100
AcDbLine
 10
109.6507015019415
 20
158.4334928428579
 30
0.0
 11
109.6507015019415
 21
166.792505387833
 31
0.0
  0
LINE
  5
437
330
434
100
AcDbEntity
  8
0
 62
   123
100
AcDbLine
 10
103.1507015019415
 20
166.192505387833
 30
0.0
 11
100.6507015019415
 21
166.192505387833
 31
0.0
  0
LINE
  5
438
330
434
100
AcDbEntity
  8
0
 62
   123
100
AcDbLine
 10
112.1507015019415
 20
166.192505387833
 30
0.0
 11
114.6507015019415
 21
166.192505387833
 31
0.0
  0
LINE
  5
439
330
434
100
AcDbEntity
  8
0
 62
   123
100
AcDbLine
 10
105.6507015019415
 20
166.192505387833
 30
0.0
 11
109.6507015019415
 21
166.192505387833
 31
0.0
  0
SOLID
  5
43A
330
434
100
AcDbEntity
  8
0
 62
   123
100
AcDbTrace
 10
103.1507015019415
 20
166.6091720544997
 30
0.0
 11
103.1507015019415
 21
165.7758387211664
 31
0.0
 12
105.6507015019415
 22
166.192505387833
 32
0.0
 13
105.6507015019415
 23
166.192505387833
 33
0.0
  0
SOLID
  5
43B
330
434
100
AcDbEntity
  8
0
 62
   123
100
AcDbTrace
 10
112.1507015019415
 20
166.6091720544997
 30
0.0
 11
112.1507015019415
 21
165.7758387211664
 31
0.0
 12
109.6507015019415
 22
166.192505387833
 32
0.0
 13
109.6507015019415
 23
166.192505387833
 33
0.0
  0
MTEXT
  5
43C
330
434
100
AcDbEntity
  8
0
 62
     3
100
AcDbMText
 10
107.6507015019415
 20
169.642505387833
 30
0.0
 40
3.0
 41
0.0
 71
     5
 72
     1
  1
\A1;\A1;4{\F;\H0.7x;\S+0.40^ -0;}
1001
ACAD
1000
MTEXTBEGIN
1070
    73
1070
     1
1070
    44
1040
1.0
1070
    74
1070
     0
1000
MTEXTEND
  0
POINT
  5
43D
330
434
100
AcDbEntity
  8
DEFPOINTS
 62
     0
100
AcDbPoint
 10
105.6507015019415
 20
157.4334928428579
 30
0.0
  0
POINT
  5
43E
330
434
100
AcDbEntity
  8
DEFPOINTS
 62
     0
100
AcDbPoint
 10
109.6507015019415
 20
157.4334928428579
 30
0.0
  0
POINT
  5
43F
330
434
100
AcDbEntity
  8
DEFPOINTS
 62
     0
100
AcDbPoint
 10
109.6507015019415
 20
166.192505387833
 30
0.0
  0
ENDBLK
  5
441
330
434
100
AcDbEntity
  8
0
100
AcDbBlockEnd
  0
BLOCK
  5
44E
330
442
100
AcDbEntity
  8
0
100
AcDbBlockBegin
  2
*D48
 70
     1
 10
0.0
 20
0.0
 30
0.0
  3
*D48
  1

  0
LINE
  5
443
330
442
100
AcDbEntity
  8
0
 62
   123
100
AcDbLine
 10
110.6507015019415
 20
155.3509171479022
 30
0.0
 11
125.7480339961308
 21
155.3509171479022
 31
0.0
  0
LINE
  5
444
330
442
100
AcDbEntity
  8
0
 62
   123
100
AcDbLine
 10
108.6507015019415
 20
157.8509171479022
 30
0.0
 11
125.7480339961308
 21
157.8509171479022
 31
0.0
  0
LINE
  5
445
330
442
100
AcDbEntity
  8
0
 62
   123
100
AcDbLine
 10
125.1480339961308
 20
152.8509171479022
 30
0.0
 11
125.1480339961308
 21
150.3509171479022
 31
0.0
  0
LINE
  5
446
330
442
100
AcDbEntity
  8
0
 62
   123
100
AcDbLine
 10
125.1480339961308
 20
160.3509171479022
 30
0.0
 11
125.1480339961308
 21
181.7652028621889
 31
0.0
  0
LINE
  5
447
330
442
100
AcDbEntity
  8
0
 62
   123
100
AcDbLine
 10
125.1480339961308
 20
155.3509171479022
 30
0.0
 11
125.1480339961308
 21
157.8509171479022
 31
0.0
  0
SOLID
  5
448
330
442
100
AcDbEntity
  8
0
 62
   123
100
AcDbTrace
 10
124.7313673294641
 20
152.8509171479022
 30
0.0
 11
125.5647006627975
 21
152.8509171479022
 31
0.0
 12
125.1480339961308
 22
155.3509171479022
 32
0.0
 13
125.1480339961308
 23
155.3509171479022
 33
0.0
  0
SOLID
  5
449
330
442
100
AcDbEntity
  8
0
 62
   123
100
AcDbTrace
 10
124.7313673294641
 20
160.3509171479022
 30
0.0
 11
125.5647006627975
 21
160.3509171479022
 31
0.0
 12
125.1480339961308
 22
157.8509171479022
 32
0.0
 13
125.1480339961308
 23
157.8509171479022
 33
0.0
  0
MTEXT
  5
44A
330
442
100
AcDbEntity
  8
0
 62
     3
100
AcDbMText
 10
121.6980339961308
 20
174.0580600050461
 30
0.0
 40
3.0
 41
0.0
 71
     5
 72
     1
  1
\A1;\A1;2.5{\F;\H0.7x;\S+0.1^ -0;\H1.429x; }
 11
0.0000000000000001
 21
1.0
 31
0.0
1001
ACAD
1000
MTEXTBEGIN
1070
    73
1070
     1
1070
    44
1040
1.0
1070
    74
1070
     0
1000
MTEXTEND
  0
POINT
  5
44B
330
442
100
AcDbEntity
  8
DEFPOINTS
 62
     0
100
AcDbPoint
 10
109.6507015019415
 20
155.3509171479022
 30
0.0
  0
POINT
  5
44C
330
442
100
AcDbEntity
  8
DEFPOINTS
 62
     0
100
AcDbPoint
 10
107.6507015019415
 20
157.8509171479022
 30
0.0
  0
POINT
  5
44D
330
442
100
AcDbEntity
  8
DEFPOINTS
 62
     0
100
AcDbPoint
 10
125.1480339961308
 20
157.8509171479022
 30
0.0
  0
ENDBLK
  5
44F
330
442
100
AcDbEntity
  8
0
100
AcDbBlockEnd
  0
BLOCK
  5
45C
330
450
100
AcDbEntity
  8
0
100
AcDbBlockBegin
  2
*D49
 70
     1
 10
0.0
 20
0.0
 30
0.0
  3
*D49
  1

  0
LINE
  5
451
330
450
100
AcDbEntity
  8
0
 62
   123
100
AcDbLine
 10
44.54666847468979
 20
152.451212434898
 30
0.0
 11
52.31572363015005
 21
152.451212434898
 31
0.0
  0
LINE
  5
452
330
450
100
AcDbEntity
  8
0
 62
   123
100
AcDbLine
 10
44.54666847468979
 20
156.4512124348989
 30
0.0
 11
52.31572363015005
 21
156.4512124348989
 31
0.0
  0
LINE
  5
453
330
450
100
AcDbEntity
  8
0
 62
   123
100
AcDbLine
 10
51.71572363015005
 20
149.951212434898
 30
0.0
 11
51.71572363015005
 21
147.451212434898
 31
0.0
  0
LINE
  5
454
330
450
100
AcDbEntity
  8
0
 62
   123
100
AcDbLine
 10
51.71572363015005
 20
158.9512124348989
 30
0.0
 11
51.71572363015005
 21
178.0149599432746
 31
0.0
  0
LINE
  5
455
330
450
100
AcDbEntity
  8
0
 62
   123
100
AcDbLine
 10
51.71572363015005
 20
152.451212434898
 30
0.0
 11
51.71572363015005
 21
156.4512124348989
 31
0.0
  0
SOLID
  5
456
330
450
100
AcDbEntity
  8
0
 62
   123
100
AcDbTrace
 10
51.29905696348338
 20
149.951212434898
 30
0.0
 11
52.13239029681671
 21
149.951212434898
 31
0.0
 12
51.71572363015005
 22
152.451212434898
 32
0.0
 13
51.71572363015005
 23
152.451212434898
 33
0.0
  0
SOLID
  5
457
330
450
100
AcDbEntity
  8
0
 62
   123
100
AcDbTrace
 10
51.29905696348338
 20
158.9512124348989
 30
0.0
 11
52.13239029681671
 21
158.9512124348989
 31
0.0
 12
51.71572363015005
 22
156.4512124348989
 32
0.0
 13
51.71572363015005
 23
156.4512124348989
 33
0.0
  0
MTEXT
  5
458
330
450
100
AcDbEntity
  8
0
 62
     3
100
AcDbMText
 10
48.26572363015002
 20
171.300674228989
 30
0.0
 40
3.0
 41
0.0
 71
     5
 72
     1
  1
\A1;\A1;4{\F;\H0.7x;\S+0^ -0.03;}
 11
0.0000000000000001
 21
1.0
 31
0.0
1001
ACAD
1000
MTEXTBEGIN
1070
    73
1070
     1
1070
    44
1040
1.0
1070
    74
1070
     0
1000
MTEXTEND
  0
POINT
  5
459
330
450
100
AcDbEntity
  8
DEFPOINTS
 62
     0
100
AcDbPoint
 10
43.54666847468979
 20
152.451212434898
 30
0.0
  0
POINT
  5
45A
330
450
100
AcDbEntity
  8
DEFPOINTS
 62
     0
100
AcDbPoint
 10
43.54666847468979
 20
156.4512124348989
 30
0.0
  0
POINT
  5
45B
330
450
100
AcDbEntity
  8
DEFPOINTS
 62
     0
100
AcDbPoint
 10
51.71572363015005
 20
156.4512124348989
 30
0.0
  0
ENDBLK
  5
45D
330
450
100
AcDbEntity
  8
0
100
AcDbBlockEnd
  0
BLOCK
  5
468
330
45E
100
AcDbEntity
  8
0
100
AcDbBlockBegin
  2
*D50
 70
     1
 10
0.0
 20
0.0
 30
0.0
  3
*D50
  1

  0
LINE
  5
45F
330
45E
100
AcDbEntity
  8
0
 62
   123
100
AcDbLine
 10
18.54666847468979
 20
155.4512124348989
 30
0.0
 11
18.54666847468979
 21
164.8564064153739
 31
0.0
  0
LINE
  5
460
330
45E
100
AcDbEntity
  8
0
 62
   123
100
AcDbLine
 10
43.54666847468979
 20
157.4512124348989
 30
0.0
 11
43.54666847468979
 21
164.8564064153739
 31
0.0
  0
LINE
  5
461
330
45E
100
AcDbEntity
  8
0
 62
   123
100
AcDbLine
 10
21.04666847468979
 20
164.2564064153739
 30
0.0
 11
41.04666847468979
 21
164.2564064153739
 31
0.0
  0
SOLID
  5
462
330
45E
100
AcDbEntity
  8
0
 62
   123
100
AcDbTrace
 10
21.04666847468979
 20
164.6730730820405
 30
0.0
 11
21.04666847468979
 21
163.8397397487072
 31
0.0
 12
18.54666847468979
 22
164.2564064153739
 32
0.0
 13
18.54666847468979
 23
164.2564064153739
 33
0.0
  0
SOLID
  5
463
330
45E
100
AcDbEntity
  8
0
 62
   123
100
AcDbTrace
 10
41.04666847468979
 20
164.6730730820405
 30
0.0
 11
41.04666847468979
 21
163.8397397487072
 31
0.0
 12
43.54666847468979
 22
164.2564064153739
 32
0.0
 13
43.54666847468979
 23
164.2564064153739
 33
0.0
  0
MTEXT
  5
464
330
45E
100
AcDbEntity
  8
0
 62
     3
100
AcDbMText
 10
31.04666847468979
 20
166.7564064153739
 30
0.0
 40
3.0
 41
0.0
 71
     5
 72
     1
  1
\A1;25{\F;%%p0.2}
1001
ACAD
1000
MTEXTBEGIN
1070
    73
1070
     1
1070
    44
1040
1.0
1070
    74
1070
     0
1000
MTEXTEND
  0
POINT
  5
465
330
45E
100
AcDbEntity
  8
DEFPOINTS
 62
     0
100
AcDbPoint
 10
18.54666847468979
 20
154.4512124348989
 30
0.0
  0
POINT
  5
466
330
45E
100
AcDbEntity
  8
DEFPOINTS
 62
     0
100
AcDbPoint
 10
43.54666847468979
 20
156.4512124348989
 30
0.0
  0
POINT
  5
467
330
45E
100
AcDbEntity
  8
DEFPOINTS
 62
     0
100
AcDbPoint
 10
43.54666847468979
 20
164.2564064153739
 30
0.0
  0
ENDBLK
  5
469
330
45E
100
AcDbEntity
  8
0
100
AcDbBlockEnd
  0
BLOCK
  5
476
330
46A
100
AcDbEntity
  8
0
100
AcDbBlockBegin
  2
*D51
 70
     1
 10
0.0
 20
0.0
 30
0.0
  3
*D51
  1

  0
LINE
  5
46B
330
46A
100
AcDbEntity
  8
0
 62
   123
100
AcDbLine
 10
60.71732176139994
 20
157.4512124348989
 30
0.0
 11
60.71732176139994
 21
165.7256880935311
 31
0.0
  0
LINE
  5
46C
330
46A
100
AcDbEntity
  8
0
 62
   123
100
AcDbLine
 10
64.71732176139994
 20
157.4512124348989
 30
0.0
 11
64.71732176139994
 21
165.7256880935311
 31
0.0
  0
LINE
  5
46D
330
46A
100
AcDbEntity
  8
0
 62
   123
100
AcDbLine
 10
58.21732176139994
 20
165.1256880935311
 30
0.0
 11
55.71732176139994
 21
165.1256880935311
 31
0.0
  0
LINE
  5
46E
330
46A
100
AcDbEntity
  8
0
 62
   123
100
AcDbLine
 10
67.21732176139994
 20
165.1256880935311
 30
0.0
 11
69.71732176139994
 21
165.1256880935311
 31
0.0
  0
LINE
  5
46F
330
46A
100
AcDbEntity
  8
0
 62
   123
100
AcDbLine
 10
60.71732176139994
 20
165.1256880935311
 30
0.0
 11
64.71732176139994
 21
165.1256880935311
 31
0.0
  0
SOLID
  5
470
330
46A
100
AcDbEntity
  8
0
 62
   123
100
AcDbTrace
 10
58.21732176139994
 20
165.5423547601978
 30
0.0
 11
58.21732176139994
 21
164.7090214268644
 31
0.0
 12
60.71732176139994
 22
165.1256880935311
 32
0.0
 13
60.71732176139994
 23
165.1256880935311
 33
0.0
  0
SOLID
  5
471
330
46A
100
AcDbEntity
  8
0
 62
   123
100
AcDbTrace
 10
67.21732176139994
 20
165.5423547601978
 30
0.0
 11
67.21732176139994
 21
164.7090214268644
 31
0.0
 12
64.71732176139994
 22
165.1256880935311
 32
0.0
 13
64.71732176139994
 23
165.1256880935311
 33
0.0
  0
MTEXT
  5
472
330
46A
100
AcDbEntity
  8
0
 62
     3
100
AcDbMText
 10
62.71732176139995
 20
168.5756880935311
 30
0.0
 40
3.0
 41
0.0
 71
     5
 72
     1
  1
\A1;\A1;4{\F;\H0.7x;\S+0^ -0.03;}
1001
ACAD
1000
MTEXTBEGIN
1070
    73
1070
     1
1070
    44
1040
1.0
1070
    74
1070
     0
1000
MTEXTEND
  0
POINT
  5
473
330
46A
100
AcDbEntity
  8
DEFPOINTS
 62
     0
100
AcDbPoint
 10
60.71732176139994
 20
156.4512124348989
 30
0.0
  0
POINT
  5
474
330
46A
100
AcDbEntity
  8
DEFPOINTS
 62
     0
100
AcDbPoint
 10
64.71732176139994
 20
156.4512124348989
 30
0.0
  0
POINT
  5
475
330
46A
100
AcDbEntity
  8
DEFPOINTS
 62
     0
100
AcDbPoint
 10
64.71732176139994
 20
165.1256880935311
 30
0.0
  0
ENDBLK
  5
477
330
46A
100
AcDbEntity
  8
0
100
AcDbBlockEnd
  0
BLOCK
  5
482
330
478
100
AcDbEntity
  8
0
100
AcDbBlockBegin
  2
*D52
 70
     1
 10
0.0
 20
0.0
 30
0.0
  3
*D52
  1

  0
LINE
  5
479
330
478
100
AcDbEntity
  8
0
 62
   123
100
AcDbLine
 10
33.68380446586888
 20
231.5731436851788
 30
0.0
 11
33.68380446586888
 21
209.1241416939568
 31
0.0
  0
LINE
  5
47A
330
478
100
AcDbEntity
  8
0
 62
   123
100
AcDbLine
 10
103.6838044658688
 20
231.5731436851788
 30
0.0
 11
103.6838044658688
 21
209.1241416939568
 31
0.0
  0
LINE
  5
47B
330
478
100
AcDbEntity
  8
0
 62
   123
100
AcDbLine
 10
36.18380446586888
 20
209.7241416939569
 30
0.0
 11
101.1838044658688
 21
209.7241416939569
 31
0.0
  0
SOLID
  5
47C
330
478
100
AcDbEntity
  8
0
 62
   123
100
AcDbTrace
 10
36.18380446586888
 20
210.1408083606235
 30
0.0
 11
36.18380446586888
 21
209.3074750272902
 31
0.0
 12
33.68380446586888
 22
209.7241416939569
 32
0.0
 13
33.68380446586888
 23
209.7241416939569
 33
0.0
  0
SOLID
  5
47D
330
478
100
AcDbEntity
  8
0
 62
   123
100
AcDbTrace
 10
101.1838044658688
 20
210.1408083606235
 30
0.0
 11
101.1838044658688
 21
209.3074750272902
 31
0.0
 12
103.6838044658688
 22
209.7241416939569
 32
0.0
 13
103.6838044658688
 23
209.7241416939569
 33
0.0
  0
MTEXT
  5
47E
330
478
100
AcDbEntity
  8
0
 62
     3
100
AcDbMText
 10
72.02562001507977
 20
212.2241416939568
 30
0.0
 40
3.0
 41
0.0
 71
     5
 72
     1
  1
\A1;70
1001
ACAD
1000
MTEXTBEGIN
1070
    73
1070
     1
1070
    44
1040
1.0
1070
    74
1070
     0
1000
MTEXTEND
  0
POINT
  5
47F
330
478
100
AcDbEntity
  8
DEFPOINTS
 62
     0
100
AcDbPoint
 10
33.68380446586888
 20
232.5731436851788
 30
0.0
  0
POINT
  5
480
330
478
100
AcDbEntity
  8
DEFPOINTS
 62
     0
100
AcDbPoint
 10
103.6838044658688
 20
232.5731436851788
 30
0.0
  0
POINT
  5
481
330
478
100
AcDbEntity
  8
DEFPOINTS
 62
     0
100
AcDbPoint
 10
103.6838044658688
 20
209.7241416939569
 30
0.0
  0
ENDBLK
  5
483
330
478
100
AcDbEntity
  8
0
100
AcDbBlockEnd
  0
BLOCK
  5
48E
330
484
100
AcDbEntity
  8
0
100
AcDbBlockBegin
  2
*D53
 70
     1
 10
0.0
 20
0.0
 30
0.0
  3
*D53
  1

  0
LINE
  5
485
330
484
100
AcDbEntity
  8
0
 62
   123
100
AcDbLine
 10
247.4732187302288
 20
223.1861318945002
 30
0.0
 11
247.4732187302288
 21
210.290117512874
 31
0.0
  0
LINE
  5
486
330
484
100
AcDbEntity
  8
0
 62
   123
100
AcDbLine
 10
205.4732187302288
 20
223.1861318945002
 30
0.0
 11
205.4732187302288
 21
210.290117512874
 31
0.0
  0
LINE
  5
487
330
484
100
AcDbEntity
  8
0
 62
   123
100
AcDbLine
 10
244.9732187302288
 20
210.8901175128739
 30
0.0
 11
207.9732187302288
 21
210.8901175128739
 31
0.0
  0
SOLID
  5
488
330
484
100
AcDbEntity
  8
0
 62
   123
100
AcDbTrace
 10
244.9732187302288
 20
211.3067841795406
 30
0.0
 11
244.9732187302288
 21
210.4734508462073
 31
0.0
 12
247.4732187302288
 22
210.8901175128739
 32
0.0
 13
247.4732187302288
 23
210.8901175128739
 33
0.0
  0
SOLID
  5
489
330
484
100
AcDbEntity
  8
0
 62
   123
100
AcDbTrace
 10
207.9732187302288
 20
211.3067841795406
 30
0.0
 11
207.9732187302288
 21
210.4734508462073
 31
0.0
 12
205.4732187302288
 22
210.8901175128739
 32
0.0
 13
205.4732187302288
 23
210.8901175128739
 33
0.0
  0
MTEXT
  5
48A
330
484
100
AcDbEntity
  8
0
 62
     3
100
AcDbMText
 10
226.4732187302288
 20
213.3901175128739
 30
0.0
 40
3.0
 41
0.0
 71
     5
 72
     1
  1
\A1;L
1001
ACAD
1000
MTEXTBEGIN
1070
    73
1070
     1
1070
    44
1040
1.0
1070
    74
1070
     0
1000
MTEXTEND
  0
POINT
  5
48B
330
484
100
AcDbEntity
  8
DEFPOINTS
 62
     0
100
AcDbPoint
 10
247.4732187302288
 20
224.1861318945002
 30
0.0
  0
POINT
  5
48C
330
484
100
AcDbEntity
  8
DEFPOINTS
 62
     0
100
AcDbPoint
 10
205.4732187302288
 20
224.1861318945002
 30
0.0
  0
POINT
  5
48D
330
484
100
AcDbEntity
  8
DEFPOINTS
 62
     0
100
AcDbPoint
 10
205.4732187302288
 20
210.8901175128739
 30
0.0
  0
ENDBLK
  5
48F
330
484
100
AcDbEntity
  8
0
100
AcDbBlockEnd
  0
BLOCK
  5
49A
330
490
100
AcDbEntity
  8
0
100
AcDbBlockBegin
  2
*D54
 70
     1
 10
0.0
 20
0.0
 30
0.0
  3
*D54
  1

  0
LINE
  5
491
330
490
100
AcDbEntity
  8
0
 62
   123
100
AcDbLine
 10
173.4732187302288
 20
268.1861318945002
 30
0.0
 11
173.4732187302288
 21
210.2901175128753
 31
0.0
  0
LINE
  5
492
330
490
100
AcDbEntity
  8
0
 62
   123
100
AcDbLine
 10
205.4732187302288
 20
228.1861318945002
 30
0.0
 11
205.4732187302288
 21
210.2901175128753
 31
0.0
  0
LINE
  5
493
330
490
100
AcDbEntity
  8
0
 62
   123
100
AcDbLine
 10
175.9732187302288
 20
210.8901175128753
 30
0.0
 11
202.9732187302288
 21
210.8901175128753
 31
0.0
  0
SOLID
  5
494
330
490
100
AcDbEntity
  8
0
 62
   123
100
AcDbTrace
 10
175.9732187302288
 20
211.306784179542
 30
0.0
 11
175.9732187302288
 21
210.4734508462086
 31
0.0
 12
173.4732187302288
 22
210.8901175128753
 32
0.0
 13
173.4732187302288
 23
210.8901175128753
 33
0.0
  0
SOLID
  5
495
330
490
100
AcDbEntity
  8
0
 62
   123
100
AcDbTrace
 10
202.9732187302288
 20
211.306784179542
 30
0.0
 11
202.9732187302288
 21
210.4734508462086
 31
0.0
 12
205.4732187302288
 22
210.8901175128753
 32
0.0
 13
205.4732187302288
 23
210.8901175128753
 33
0.0
  0
MTEXT
  5
496
330
490
100
AcDbEntity
  8
0
 62
     3
100
AcDbMText
 10
189.4732187302288
 20
213.3901175128753
 30
0.0
 40
3.0
 41
0.0
 71
     5
 72
     1
  1
\A1;32
1001
ACAD
1000
MTEXTBEGIN
1070
    73
1070
     1
1070
    44
1040
1.0
1070
    74
1070
     0
1000
MTEXTEND
  0
POINT
  5
497
330
490
100
AcDbEntity
  8
DEFPOINTS
 62
     0
100
AcDbPoint
 10
173.4732187302288
 20
269.1861318945002
 30
0.0
  0
POINT
  5
498
330
490
100
AcDbEntity
  8
DEFPOINTS
 62
     0
100
AcDbPoint
 10
205.4732187302288
 20
229.1861318945002
 30
0.0
  0
POINT
  5
499
330
490
100
AcDbEntity
  8
DEFPOINTS
 62
     0
100
AcDbPoint
 10
205.4732187302288
 20
210.8901175128753
 30
0.0
  0
ENDBLK
  5
49B
330
490
100
AcDbEntity
  8
0
100
AcDbBlockEnd
  0
BLOCK
  5
4A6
330
49C
100
AcDbEntity
  8
0
100
AcDbBlockBegin
  2
*D55
 70
     1
 10
0.0
 20
0.0
 30
0.0
  3
*D55
  1

  0
LINE
  5
49D
330
49C
100
AcDbEntity
  8
0
 62
   123
100
AcDbLine
 10
42.93187159825902
 20
415.7015659062299
 30
0.0
 11
42.93187159825902
 21
432.869361032136
 31
0.0
  0
LINE
  5
49E
330
49C
100
AcDbEntity
  8
0
 62
   123
100
AcDbLine
 10
112.931871598259
 20
415.7015659062299
 30
0.0
 11
112.931871598259
 21
432.869361032136
 31
0.0
  0
LINE
  5
49F
330
49C
100
AcDbEntity
  8
0
 62
   123
100
AcDbLine
 10
45.43187159825902
 20
432.2693610321359
 30
0.0
 11
110.431871598259
 21
432.2693610321359
 31
0.0
  0
SOLID
  5
4A0
330
49C
100
AcDbEntity
  8
0
 62
   123
100
AcDbTrace
 10
45.43187159825902
 20
432.6860276988027
 30
0.0
 11
45.43187159825902
 21
431.8526943654693
 31
0.0
 12
42.93187159825902
 22
432.2693610321359
 32
0.0
 13
42.93187159825902
 23
432.2693610321359
 33
0.0
  0
SOLID
  5
4A1
330
49C
100
AcDbEntity
  8
0
 62
   123
100
AcDbTrace
 10
110.431871598259
 20
432.6860276988027
 30
0.0
 11
110.431871598259
 21
431.8526943654693
 31
0.0
 12
112.931871598259
 22
432.2693610321359
 32
0.0
 13
112.931871598259
 23
432.2693610321359
 33
0.0
  0
MTEXT
  5
4A2
330
49C
100
AcDbEntity
  8
0
 62
     3
100
AcDbMText
 10
77.93187159825902
 20
434.769361032136
 30
0.0
 40
3.0
 41
0.0
 71
     5
 72
     1
  1
\A1;70
1001
ACAD
1000
MTEXTBEGIN
1070
    73
1070
     1
1070
    44
1040
1.0
1070
    74
1070
     0
1000
MTEXTEND
  0
POINT
  5
4A3
330
49C
100
AcDbEntity
  8
DEFPOINTS
 62
     0
100
AcDbPoint
 10
42.93187159825902
 20
414.7015659062299
 30
0.0
  0
POINT
  5
4A4
330
49C
100
AcDbEntity
  8
DEFPOINTS
 62
     0
100
AcDbPoint
 10
112.931871598259
 20
414.7015659062299
 30
0.0
  0
POINT
  5
4A5
330
49C
100
AcDbEntity
  8
DEFPOINTS
 62
     0
100
AcDbPoint
 10
112.931871598259
 20
432.2693610321359
 30
0.0
  0
ENDBLK
  5
4A7
330
49C
100
AcDbEntity
  8
0
100
AcDbBlockEnd
  0
BLOCK
  5
4B2
330
4A8
100
AcDbEntity
  8
0
100
AcDbBlockBegin
  2
*D56
 70
     1
 10
0.0
 20
0.0
 30
0.0
  3
*D56
  1

  0
LINE
  5
4A9
330
4A8
100
AcDbEntity
  8
0
 62
   123
100
AcDbLine
 10
198.4732187302288
 20
280.1861318945011
 30
0.0
 11
198.4732187302288
 21
296.006420101402
 31
0.0
  0
LINE
  5
4AA
330
4A8
100
AcDbEntity
  8
0
 62
   123
100
AcDbLine
 10
173.4732187302288
 20
280.1861318945002
 30
0.0
 11
173.4732187302288
 21
296.006420101402
 31
0.0
  0
LINE
  5
4AB
330
4A8
100
AcDbEntity
  8
0
 62
   123
100
AcDbLine
 10
195.9732187302288
 20
295.406420101402
 30
0.0
 11
175.9732187302288
 21
295.406420101402
 31
0.0
  0
SOLID
  5
4AC
330
4A8
100
AcDbEntity
  8
0
 62
   123
100
AcDbTrace
 10
195.9732187302288
 20
295.8230867680687
 30
0.0
 11
195.9732187302288
 21
294.9897534347353
 31
0.0
 12
198.4732187302288
 22
295.406420101402
 32
0.0
 13
198.4732187302288
 23
295.406420101402
 33
0.0
  0
SOLID
  5
4AD
330
4A8
100
AcDbEntity
  8
0
 62
   123
100
AcDbTrace
 10
175.9732187302288
 20
295.8230867680687
 30
0.0
 11
175.9732187302288
 21
294.9897534347353
 31
0.0
 12
173.4732187302288
 22
295.406420101402
 32
0.0
 13
173.4732187302288
 23
295.406420101402
 33
0.0
  0
MTEXT
  5
4AE
330
4A8
100
AcDbEntity
  8
0
 62
     3
100
AcDbMText
 10
186.2841493976193
 20
297.9064201014021
 30
0.0
 40
3.0
 41
0.0
 71
     5
 72
     1
  1
\A1;25
1001
ACAD
1000
MTEXTBEGIN
1070
    73
1070
     1
1070
    44
1040
1.0
1070
    74
1070
     0
1000
MTEXTEND
  0
POINT
  5
4AF
330
4A8
100
AcDbEntity
  8
DEFPOINTS
 62
     0
100
AcDbPoint
 10
198.4732187302288
 20
279.1861318945011
 30
0.0
  0
POINT
  5
4B0
330
4A8
100
AcDbEntity
  8
DEFPOINTS
 62
     0
100
AcDbPoint
 10
173.4732187302288
 20
279.1861318945002
 30
0.0
  0
POINT
  5
4B1
330
4A8
100
AcDbEntity
  8
DEFPOINTS
 62
     0
100
AcDbPoint
 10
173.4732187302288
 20
295.406420101402
 30
0.0
  0
ENDBLK
  5
4B3
330
4A8
100
AcDbEntity
  8
0
100
AcDbBlockEnd
  0
BLOCK
  5
4C0
330
4B4
100
AcDbEntity
  8
0
100
AcDbBlockBegin
  2
*D57
 70
     1
 10
0.0
 20
0.0
 30
0.0
  3
*D57
  1

  0
LINE
  5
4B5
330
4B4
100
AcDbEntity
  8
0
 62
   123
100
AcDbLine
 10
205.4732187302288
 20
295.1861318945002
 30
0.0
 11
205.4732187302288
 21
303.9682705977098
 31
0.0
  0
LINE
  5
4B6
330
4B4
100
AcDbEntity
  8
0
 62
   123
100
AcDbLine
 10
202.4732187302215
 20
289.6861318945002
 30
0.0
 11
202.4732187302215
 21
303.9682705977098
 31
0.0
  0
LINE
  5
4B7
330
4B4
100
AcDbEntity
  8
0
 62
   123
100
AcDbLine
 10
207.9732187302288
 20
303.3682705977098
 30
0.0
 11
210.4732187302288
 21
303.3682705977098
 31
0.0
  0
LINE
  5
4B8
330
4B4
100
AcDbEntity
  8
0
 62
   123
100
AcDbLine
 10
199.9732187302215
 20
303.3682705977098
 30
0.0
 11
197.4732187302215
 21
303.3682705977098
 31
0.0
  0
LINE
  5
4B9
330
4B4
100
AcDbEntity
  8
0
 62
   123
100
AcDbLine
 10
205.4732187302288
 20
303.3682705977098
 30
0.0
 11
202.4732187302215
 21
303.3682705977098
 31
0.0
  0
SOLID
  5
4BA
330
4B4
100
AcDbEntity
  8
0
 62
   123
100
AcDbTrace
 10
207.9732187302288
 20
303.7849372643765
 30
0.0
 11
207.9732187302288
 21
302.9516039310431
 31
0.0
 12
205.4732187302288
 22
303.3682705977098
 32
0.0
 13
205.4732187302288
 23
303.3682705977098
 33
0.0
  0
SOLID
  5
4BB
330
4B4
100
AcDbEntity
  8
0
 62
   123
100
AcDbTrace
 10
199.9732187302215
 20
303.7849372643765
 30
0.0
 11
199.9732187302215
 21
302.9516039310431
 31
0.0
 12
202.4732187302215
 22
303.3682705977098
 32
0.0
 13
202.4732187302215
 23
303.3682705977098
 33
0.0
  0
MTEXT
  5
4BC
330
4B4
100
AcDbEntity
  8
0
 62
     3
100
AcDbMText
 10
203.9732187302251
 20
305.8682705977098
 30
0.0
 40
3.0
 41
0.0
 71
     5
 72
     1
  1
\A1;3
1001
ACAD
1000
MTEXTBEGIN
1070
    73
1070
     1
1070
    44
1040
1.0
1070
    74
1070
     0
1000
MTEXTEND
  0
POINT
  5
4BD
330
4B4
100
AcDbEntity
  8
DEFPOINTS
 62
     0
100
AcDbPoint
 10
205.4732187302288
 20
294.1861318945002
 30
0.0
  0
POINT
  5
4BE
330
4B4
100
AcDbEntity
  8
DEFPOINTS
 62
     0
100
AcDbPoint
 10
202.4732187302215
 20
288.6861318945002
 30
0.0
  0
POINT
  5
4BF
330
4B4
100
AcDbEntity
  8
DEFPOINTS
 62
     0
100
AcDbPoint
 10
202.4732187302215
 20
303.3682705977098
 30
0.0
  0
ENDBLK
  5
4C1
330
4B4
100
AcDbEntity
  8
0
100
AcDbBlockEnd
  0
BLOCK
  5
4CC
330
4C2
100
AcDbEntity
  8
0
100
AcDbBlockBegin
  2
*D58
 70
     1
 10
0.0
 20
0.0
 30
0.0
  3
*D58
  1

  0
LINE
  5
4C3
330
4C2
100
AcDbEntity
  8
0
 62
   123
100
AcDbLine
 10
169.4932336005003
 20
420.7015659062299
 30
0.0
 11
169.4932336005003
 21
439.888643730662
 31
0.0
  0
LINE
  5
4C4
330
4C2
100
AcDbEntity
  8
0
 62
   123
100
AcDbLine
 10
199.4932336005003
 20
420.7015659062299
 30
0.0
 11
199.4932336005003
 21
439.888643730662
 31
0.0
  0
LINE
  5
4C5
330
4C2
100
AcDbEntity
  8
0
 62
   123
100
AcDbLine
 10
171.9932336005003
 20
439.288643730662
 30
0.0
 11
196.9932336005003
 21
439.288643730662
 31
0.0
  0
SOLID
  5
4C6
330
4C2
100
AcDbEntity
  8
0
 62
   123
100
AcDbTrace
 10
171.9932336005003
 20
439.7053103973286
 30
0.0
 11
171.9932336005003
 21
438.8719770639952
 31
0.0
 12
169.4932336005003
 22
439.288643730662
 32
0.0
 13
169.4932336005003
 23
439.288643730662
 33
0.0
  0
SOLID
  5
4C7
330
4C2
100
AcDbEntity
  8
0
 62
   123
100
AcDbTrace
 10
196.9932336005003
 20
439.7053103973286
 30
0.0
 11
196.9932336005003
 21
438.8719770639952
 31
0.0
 12
199.4932336005003
 22
439.288643730662
 32
0.0
 13
199.4932336005003
 23
439.288643730662
 33
0.0
  0
MTEXT
  5
4C8
330
4C2
100
AcDbEntity
  8
0
 62
     3
100
AcDbMText
 10
184.4932336005003
 20
441.7886437306619
 30
0.0
 40
3.0
 41
0.0
 71
     5
 72
     1
  1
\A1;30
1001
ACAD
1000
MTEXTBEGIN
1070
    73
1070
     1
1070
    44
1040
1.0
1070
    74
1070
     0
1000
MTEXTEND
  0
POINT
  5
4C9
330
4C2
100
AcDbEntity
  8
DEFPOINTS
 62
     0
100
AcDbPoint
 10
169.4932336005003
 20
419.7015659062299
 30
0.0
  0
POINT
  5
4CA
330
4C2
100
AcDbEntity
  8
DEFPOINTS
 62
     0
100
AcDbPoint
 10
199.4932336005003
 20
419.7015659062299
 30
0.0
  0
POINT
  5
4CB
330
4C2
100
AcDbEntity
  8
DEFPOINTS
 62
     0
100
AcDbPoint
 10
199.4932336005003
 20
439.288643730662
 30
0.0
  0
ENDBLK
  5
4CD
330
4C2
100
AcDbEntity
  8
0
100
AcDbBlockEnd
  0
BLOCK
  5
4DA
330
4CE
100
AcDbEntity
  8
0
100
AcDbBlockBegin
  2
*D59
 70
     1
 10
0.0
 20
0.0
 30
0.0
  3
*D59
  1

  0
LINE
  5
4CF
330
4CE
100
AcDbEntity
  8
0
 62
   123
100
AcDbLine
 10
167.4932336005003
 20
417.7015659062289
 30
0.0
 11
167.4932336005003
 21
429.762435052707
 31
0.0
  0
LINE
  5
4D0
330
4CE
100
AcDbEntity
  8
0
 62
   123
100
AcDbLine
 10
169.4932336005003
 20
420.7015659062299
 30
0.0
 11
169.4932336005003
 21
429.762435052707
 31
0.0
  0
LINE
  5
4D1
330
4CE
100
AcDbEntity
  8
0
 62
   123
100
AcDbLine
 10
171.9932336005003
 20
429.162435052707
 30
0.0
 11
174.4932336005003
 21
429.162435052707
 31
0.0
  0
LINE
  5
4D2
330
4CE
100
AcDbEntity
  8
0
 62
   123
100
AcDbLine
 10
164.9932336005003
 20
429.162435052707
 30
0.0
 11
158.4932336005003
 21
429.162435052707
 31
0.0
  0
LINE
  5
4D3
330
4CE
100
AcDbEntity
  8
0
 62
   123
100
AcDbLine
 10
169.4932336005003
 20
429.162435052707
 30
0.0
 11
167.4932336005003
 21
429.162435052707
 31
0.0
  0
SOLID
  5
4D4
330
4CE
100
AcDbEntity
  8
0
 62
   123
100
AcDbTrace
 10
171.9932336005003
 20
429.5791017193736
 30
0.0
 11
171.9932336005003
 21
428.7457683860402
 31
0.0
 12
169.4932336005003
 22
429.162435052707
 32
0.0
 13
169.4932336005003
 23
429.162435052707
 33
0.0
  0
SOLID
  5
4D5
330
4CE
100
AcDbEntity
  8
0
 62
   123
100
AcDbTrace
 10
164.9932336005003
 20
429.5791017193736
 30
0.0
 11
164.9932336005003
 21
428.7457683860402
 31
0.0
 12
167.4932336005003
 22
429.162435052707
 32
0.0
 13
167.4932336005003
 23
429.162435052707
 33
0.0
  0
MTEXT
  5
4D6
330
4CE
100
AcDbEntity
  8
0
 62
     3
100
AcDbMText
 10
160.4932336005003
 20
431.662435052707
 30
0.0
 40
3.0
 41
0.0
 71
     5
 72
     1
  1
\A1;2
1001
ACAD
1000
MTEXTBEGIN
1070
    73
1070
     1
1070
    44
1040
1.0
1070
    74
1070
     0
1000
MTEXTEND
  0
POINT
  5
4D7
330
4CE
100
AcDbEntity
  8
DEFPOINTS
 62
     0
100
AcDbPoint
 10
167.4932336005003
 20
416.701565906229
 30
0.0
  0
POINT
  5
4D8
330
4CE
100
AcDbEntity
  8
DEFPOINTS
 62
     0
100
AcDbPoint
 10
169.4932336005003
 20
419.7015659062299
 30
0.0
  0
POINT
  5
4D9
330
4CE
100
AcDbEntity
  8
DEFPOINTS
 62
     0
100
AcDbPoint
 10
169.4932336005003
 20
429.162435052707
 30
0.0
  0
ENDBLK
  5
4DB
330
4CE
100
AcDbEntity
  8
0
100
AcDbBlockEnd
  0
BLOCK
  5
4E6
330
4DC
100
AcDbEntity
  8
0
100
AcDbBlockBegin
  2
*D60
 70
     1
 10
0.0
 20
0.0
 30
0.0
  3
*D60
  1

  0
LINE
  5
4DD
330
4DC
100
AcDbEntity
  8
0
 62
   123
100
AcDbLine
 10
156.4932336005004
 20
388.5410659062299
 30
0.0
 11
156.4932336005004
 21
439.888643730662
 31
0.0
  0
LINE
  5
4DE
330
4DC
100
AcDbEntity
  8
0
 62
   123
100
AcDbLine
 10
169.4932336005003
 20
420.7015659062299
 30
0.0
 11
169.4932336005003
 21
439.888643730662
 31
0.0
  0
LINE
  5
4DF
330
4DC
100
AcDbEntity
  8
0
 62
   123
100
AcDbLine
 10
158.9932336005003
 20
439.288643730662
 30
0.0
 11
166.9932336005004
 21
439.288643730662
 31
0.0
  0
SOLID
  5
4E0
330
4DC
100
AcDbEntity
  8
0
 62
   123
100
AcDbTrace
 10
158.9932336005003
 20
439.7053103973286
 30
0.0
 11
158.9932336005003
 21
438.8719770639952
 31
0.0
 12
156.4932336005004
 22
439.288643730662
 32
0.0
 13
156.4932336005004
 23
439.288643730662
 33
0.0
  0
SOLID
  5
4E1
330
4DC
100
AcDbEntity
  8
0
 62
   123
100
AcDbTrace
 10
166.9932336005004
 20
439.7053103973286
 30
0.0
 11
166.9932336005004
 21
438.8719770639952
 31
0.0
 12
169.4932336005003
 22
439.288643730662
 32
0.0
 13
169.4932336005003
 23
439.288643730662
 33
0.0
  0
MTEXT
  5
4E2
330
4DC
100
AcDbEntity
  8
0
 62
     3
100
AcDbMText
 10
162.9932336005003
 20
441.7886437306619
 30
0.0
 40
3.0
 41
0.0
 71
     5
 72
     1
  1
\A1;13
1001
ACAD
1000
MTEXTBEGIN
1070
    73
1070
     1
1070
    44
1040
1.0
1070
    74
1070
     0
1000
MTEXTEND
  0
POINT
  5
4E3
330
4DC
100
AcDbEntity
  8
DEFPOINTS
 62
     0
100
AcDbPoint
 10
156.4932336005004
 20
387.5410659062299
 30
0.0
  0
POINT
  5
4E4
330
4DC
100
AcDbEntity
  8
DEFPOINTS
 62
     0
100
AcDbPoint
 10
169.4932336005003
 20
419.7015659062299
 30
0.0
  0
POINT
  5
4E5
330
4DC
100
AcDbEntity
  8
DEFPOINTS
 62
     0
100
AcDbPoint
 10
169.4932336005003
 20
439.288643730662
 30
0.0
  0
ENDBLK
  5
4E7
330
4DC
100
AcDbEntity
  8
0
100
AcDbBlockEnd
  0
BLOCK
  5
4F2
330
4E8
100
AcDbEntity
  8
0
100
AcDbBlockBegin
  2
*D61
 70
     1
 10
0.0
 20
0.0
 30
0.0
  3
*D61
  1

  0
LINE
  5
4F4
330
4E8
100
AcDbEntity
  8
0
 62
   123
100
AcDbLine
 10
166.4932336005003
 20
416.7015659062299
 30
0.0
 11
144.2954087234925
 21
416.7015659062299
 31
0.0
  0
LINE
  5
4F5
330
4E8
100
AcDbEntity
  8
0
 62
   123
100
AcDbLine
 10
166.4932336005003
 20
352.7015659062299
 30
0.0
 11
144.2954087234925
 21
352.7015659062299
 31
0.0
  0
LINE
  5
4F6
330
4E8
100
AcDbEntity
  8
0
 62
   123
100
AcDbLine
 10
144.8954087234924
 20
414.2015659062299
 30
0.0
 11
144.8954087234924
 21
355.2015659062299
 31
0.0
  0
SOLID
  5
4F7
330
4E8
100
AcDbEntity
  8
0
 62
   123
100
AcDbTrace
 10
144.4787420568258
 20
414.2015659062299
 30
0.0
 11
145.3120753901591
 21
414.2015659062299
 31
0.0
 12
144.8954087234924
 22
416.7015659062299
 32
0.0
 13
144.8954087234924
 23
416.7015659062299
 33
0.0
  0
SOLID
  5
4F8
330
4E8
100
AcDbEntity
  8
0
 62
   123
100
AcDbTrace
 10
144.4787420568258
 20
355.2015659062299
 30
0.0
 11
145.3120753901591
 21
355.2015659062299
 31
0.0
 12
144.8954087234924
 22
352.7015659062299
 32
0.0
 13
144.8954087234924
 23
352.7015659062299
 33
0.0
  0
MTEXT
  5
4F9
330
4E8
100
AcDbEntity
  8
0
 62
     3
100
AcDbMText
 10
140.9452587234924
 20
382.0644248139301
 30
0.0
 40
3.0
 41
0.0
 71
     5
 72
     1
  1
\A1;\A1;%%C{\F;64\H0.7x;\S+0^ -0.030;\H1.429x;(h7)} 
 11
0.0000000000000001
 21
1.0
 31
0.0
1001
ACAD
1000
MTEXTBEGIN
1070
    73
1070
     1
1070
    44
1040
1.0
1070
    74
1070
     0
1000
MTEXTEND
  0
POINT
  5
4FA
330
4E8
100
AcDbEntity
  8
DEFPOINTS
 62
     0
100
AcDbPoint
 10
167.4932336005003
 20
416.7015659062299
 30
0.0
  0
POINT
  5
4FB
330
4E8
100
AcDbEntity
  8
DEFPOINTS
 62
     0
100
AcDbPoint
 10
167.4932336005003
 20
352.7015659062299
 30
0.0
  0
POINT
  5
4FC
330
4E8
100
AcDbEntity
  8
DEFPOINTS
 62
     0
100
AcDbPoint
 10
144.8954087234924
 20
352.7015659062299
 30
0.0
  0
ENDBLK
  5
4F3
330
4E8
100
AcDbEntity
  8
0
100
AcDbBlockEnd
  0
ENDSEC
  0
SECTION
  2
ENTITIES
  0
LEADER
  5
9B
330
2
100
AcDbEntity
  8
0
100
AcDbLeader
  3
STANDARD
 73
     0
 75
     1
 40
3.0
 41
26.65178571428571
 76
     3
 10
97.54626482714229
 20
294.1856040464531
 30
0.0
 10
91.63814033650124
 20
313.3466511362562
 30
0.0
 10
89.13814033650124
 20
313.3466511362562
 30
0.0
340
9C
1001
ACAD
1000
DSTYLE
1002
{
1070
     5
1000

1070
   342
1005
0
1002
}
1000
LEANOF
1010
0.0
1020
0.0
1030
0.0
  0
MTEXT
  5
9C
330
2
100
AcDbEntity
  8
0
 62
     3
100
AcDbMText
 10
88.13814033650123
 20
314.3466511362562
 30
0.0
 40
3.0
 41
0.0
 71
     9
 72
     1
  1
4-%%c5.5 hole
1001
ACAD
1000
MTEXTBEGIN
1070
    73
1070
     1
1070
    44
1040
1.0
1070
    74
1070
     0
1000
MTEXTEND
  0
LINE
  5
9E
330
2
100
AcDbEntity
  8
2
 62
     7
100
AcDbLine
 10
205.4732187302288
 20
259.1861318945002
 30
0.0
 11
202.9732187302215
 21
259.1861318945002
 31
0.0
  0
LINE
  5
A0
330
2
100
AcDbEntity
  8
2
 62
     7
100
AcDbLine
 10
202.4732187302215
 20
259.6861318945002
 30
0.0
 11
202.4732187302215
 21
261.1861318945002
 31
0.0
  0
ARC
  5
A1
330
2
100
AcDbEntity
  8
2
 62
     7
100
AcDbCircle
 10
202.9732187302215
 20
259.6861318945002
 30
0.0
 40
0.4999999999999967
100
AcDbArc
 50
180.0
 51
270.0
  0
LEADER
  5
A2
330
2
100
AcDbEntity
  8
0
100
AcDbLeader
  3
STANDARD
 73
     0
 75
     1
 40
3.0
 41
26.65178571428571
 76
     3
 10
106.9675373853097
 20
416.398735287793
 30
0.0
 10
99.29787227984343
 20
443.6851182409299
 30
0.0
 10
96.79787227984343
 20
443.6851182409299
 30
0.0
340
A3
1001
ACAD
1000
DSTYLE
1002
{
1070
     5
1000

1070
   342
1005
0
1002
}
1000
LEANOF
1010
0.0
1020
0.0
1030
0.0
  0
MTEXT
  5
A3
330
2
100
AcDbEntity
  8
0
 62
     3
100
AcDbMText
 10
95.79787227984343
 20
444.68511824093
 30
0.0
 40
3.0
 41
0.0
 71
     9
 72
     1
  1
4-%%c5.5 hole
1001
ACAD
1000
MTEXTBEGIN
1070
    73
1070
     1
1070
    44
1040
1.0
1070
    74
1070
     0
1000
MTEXTEND
  0
MTEXT
  5
A4
330
2
100
AcDbEntity
  8
DIM
 62
     0
100
AcDbMText
 10
28.51390537492625
 20
187.4143404217898
 30
0.0
 40
4.589999999999998
 41
0.0
 71
     1
 72
     1
  1
{\FGulim.ttf;KEY\F;                  \FGulim.ttf;KEY GROOVE }
1001
ACAD
1000
MTEXTBEGIN
1070
    73
1070
     1
1070
    44
1040
1.0
1070
    74
1070
     0
1000
MTEXTEND
  0
ARC
  5
A6
330
2
100
AcDbEntity
  8
2
 62
     7
100
AcDbCircle
 10
163.0294655037942
 20
54.49593106110114
 30
0.0
 40
0.4999999999999967
100
AcDbArc
 50
180.0
 51
270.0
  0
LINE
  5
A7
330
2
100
AcDbEntity
  8
2
 62
     7
100
AcDbLine
 10
165.5294655037941
 20
53.99593106110206
 30
0.0
 11
163.0294655037942
 21
53.99593106110206
 31
0.0
  0
LINE
  5
A8
330
2
100
AcDbEntity
  8
2
 62
     7
100
AcDbLine
 10
162.5294655037942
 20
54.49593106110114
 30
0.0
 11
162.5294655037942
 21
55.99593106110205
 31
0.0
  0
MTEXT
  5
A9
330
2
100
AcDbEntity
  8
0
 62
     3
100
AcDbMText
 10
56.34339883438951
 20
111.6731120503559
 30
0.0
 40
3.0
 41
0.0
 71
     9
 72
     1
  1
4-%%c5.5 hole
1001
ACAD
1000
MTEXTBEGIN
1070
    73
1070
     1
1070
    44
1040
1.0
1070
    74
1070
     0
1000
MTEXTEND
  0
DIMENSION
  5
AA
102
{ACAD_XDICTIONARY
360
AB
102
}
102
{ACAD_REACTORS
330
AC
102
}
330
2
100
AcDbEntity
  8
0
100
AcDbDimension
  2
*D42
 10
36.88906296374261
 20
96.04364406530203
 30
0.0
 11
47.34075046981395
 21
1.45174970251762
 31
0.0
 70
    34
  3
STANDARD
100
AcDb2LineAngularDimension
 13
36.88906296374989
 23
53.99593106110524
 33
0.0
 14
51.3865376468093
 24
18.99593106110524
 34
0.0
 15
36.88906296374989
 25
13.89428595632625
 35
0.0
 16
44.24542739921702
 26
-1.881204354288245
 36
0.0
1001
ACAD
1000
DSTYLE
1002
{
1070
   271
1070
     1
1070
   271
1070
     1
1002
}
  0
LEADER
  5
BC
330
2
100
AcDbEntity
  8
0
100
AcDbLeader
  3
STANDARD
 73
     0
 75
     1
 40
3.0
 41
26.65178571428571
 76
     3
 10
65.75152332502693
 20
85.60839142237501
 30
0.0
 10
59.84339883438952
 20
110.6731120503559
 30
0.0
 10
57.34339883438952
 20
110.6731120503559
 30
0.0
340
A9
1001
ACAD
1000
DSTYLE
1002
{
1070
     5
1000

1070
   342
1005
0
1002
}
1000
LEANOF
1010
0.0
1020
0.0
1030
0.0
  0
MTEXT
  5
BD
330
2
100
AcDbEntity
  8
DIM
100
AcDbMText
 10
262.7593465082427
 20
-12.02443100918071
 30
0.0
 40
3.5
 41
0.0
 71
     5
 72
     1
  1
MOTOR LEAD WIRE 300mm
1001
ACAD
1000
MTEXTBEGIN
1070
    73
1070
     1
1070
    44
1040
1.0
1070
    74
1070
     0
1000
MTEXTEND
  0
MTEXT
  5
BE
330
2
100
AcDbEntity
  8
DIM
100
AcDbMText
 10
258.6732905607423
 20
-19.65062134609797
 30
0.0
 40
3.5
 41
0.0
 71
     5
 72
     1
  1
UL Style 3271 , AWG20
1001
ACAD
1000
MTEXTBEGIN
1070
    73
1070
     1
1070
    44
1040
1.0
1070
    74
1070
     0
1000
MTEXTEND
  0
LEADER
  5
BF
330
2
100
AcDbEntity
  8
0
100
AcDbLeader
  3
STANDARD
 76
     2
 10
222.166729836892
 20
4.255047735446169
 30
0.0
 10
226.8031637530184
 20
-15.22722285806003
 30
0.0
1001
ACAD
1000
DSTYLE
1002
{
1070
     5
1000

1070
   342
1005
0
1002
}
1000
LEANOF
1010
0.0
1020
0.0
1030
0.0
  0
LINE
  5
C0
330
2
100
AcDbEntity
  8
0
  6
CENTER
 62
     1
 48
0.6
100
AcDbLine
 10
68.68380446586889
 20
302.6747887899541
 30
0.0
 11
68.68380446586889
 21
222.471498580403
 31
0.0
  0
LINE
  5
C2
102
{ACAD_REACTORS
330
213
102
}
330
2
100
AcDbEntity
  8
0
100
AcDbLine
 10
33.68380446586888
 20
292.5731436851788
 30
0.0
 11
33.68380446586888
 21
232.5731436851788
 31
0.0
  0
LINE
  5
C3
102
{ACAD_REACTORS
330
213
102
}
330
2
100
AcDbEntity
  8
0
100
AcDbLine
 10
103.6838044658688
 20
292.5731436851788
 30
0.0
 11
103.6838044658688
 21
232.5731436851788
 31
0.0
  0
CIRCLE
  5
C4
330
2
100
AcDbEntity
  8
0
100
AcDbCircle
 10
68.68380446586889
 20
277.5731436851788
 30
0.0
 40
15.0
  0
LINE
  5
C5
102
{ACAD_REACTORS
330
2BA
330
34D
102
}
330
2
100
AcDbEntity
  8
0
100
AcDbLine
 10
205.4732187302288
 20
294.1861318945002
 30
0.0
 11
205.4732187302288
 21
224.1861318945002
 31
0.0
  0
LINE
  5
C6
102
{ACAD_REACTORS
330
34D
102
}
330
2
100
AcDbEntity
  8
0
100
AcDbLine
 10
202.4732187302215
 20
288.6861318945002
 30
0.0
 11
202.4732187302215
 21
259.6861318945002
 31
0.0
  0
LINE
  5
C7
102
{ACAD_REACTORS
330
2BA
330
106
102
}
330
2
100
AcDbEntity
  8
0
100
AcDbLine
 10
173.4732187302288
 20
279.1861318945002
 30
0.0
 11
173.4732187302288
 21
269.1861318944988
 31
0.0
  0
INSERT
  5
C8
330
2
100
AcDbEntity
  8
0
100
AcDbBlockReference
  2
3
 10
68.6838044658798
 20
262.5731436851833
 30
0.0
  0
CIRCLE
  5
E7
330
2
100
AcDbEntity
  8
0
100
AcDbCircle
 10
68.68380446586889
 20
262.5731436851779
 30
0.0
 40
32.0
  0
DIMENSION
  5
E8
102
{ACAD_XDICTIONARY
360
E9
102
}
102
{ACAD_REACTORS
330
EA
102
}
330
2
100
AcDbEntity
  8
0
100
AcDbDimension
  2
*D34
 10
150.200972627812
 20
259.1861318945002
 30
0.0
 11
147.7009726278119
 21
266.6861318945003
 31
0.0
 70
    32
  3
STANDARD
100
AcDbAlignedDimension
 13
169.5750799289999
 23
274.1861318945002
 33
0.0
 14
190.1135004849202
 24
259.1861318945002
 34
0.0
 50
90.0
100
AcDbRotatedDimension
  0
DIMENSION
  5
F7
330
2
100
AcDbEntity
  8
0
100
AcDbDimension
  2
*D33
 10
141.3071728077702
 20
259.1861318945002
 30
0.0
 11
141.3071728077702
 21
273.9361318945002
 31
0.0
 70
   160
  1
{\f??|b0|i0|c0|p49;%%c}<>
  3
STANDARD
100
AcDbAlignedDimension
 13
202.9732187302215
 23
289.1861318945002
 33
0.0
 14
190.1135004849202
 24
259.1861318945002
 34
0.0
 50
90.0
100
AcDbRotatedDimension
  0
DIMENSION
  5
104
102
{ACAD_XDICTIONARY
360
105
102
}
102
{ACAD_REACTORS
330
106
102
}
330
2
100
AcDbEntity
  8
0
100
AcDbDimension
  2
*D32
 10
158.6485554412502
 20
279.1861318945002
 30
0.0
 11
158.6485554412502
 21
305.175339103529
 31
0.0
 70
   160
  1
\A1;{\f??|b0|i0|c0|p49;%%C10\H0.7x;\S+0^ -0.015;\H1.429x;(h7)}
  3
STANDARD
100
AcDbAlignedDimension
 13
173.4732187302288
 23
269.1861318944988
 33
0.0
 14
173.4732187302288
 24
279.1861318945002
 34
0.0
 50
90.0
100
AcDbRotatedDimension
  0
LINE
  5
115
102
{ACAD_REACTORS
330
2BA
102
}
330
2
100
AcDbEntity
  8
0
100
AcDbLine
 10
247.4732187302288
 20
294.1861318945002
 30
0.0
 11
247.4732187302288
 21
224.1861318945002
 31
0.0
  0
INSERT
  5
116
330
2
100
AcDbEntity
  8
0
100
AcDbBlockReference
  2
3
 10
36.88906296374989
 20
53.99593106111024
 30
0.0
  0
DIMENSION
  5
117
330
2
100
AcDbEntity
  8
0
100
AcDbDimension
  2
*D41
 10
71.88906296374989
 20
101.324130513582
 30
0.0
 11
39.14313998855141
 21
101.324130513582
 31
0.0
 70
   160
  3
STANDARD
100
AcDbAlignedDimension
 13
1.889062963749893
 23
83.99593106110115
 33
0.0
 14
71.88906296374989
 24
83.99593106110115
 34
0.0
100
AcDbRotatedDimension
  0
DIMENSION
  5
124
330
2
100
AcDbEntity
  8
0
100
AcDbDimension
  2
*D40
 10
287.5294655037941
 20
117.125579007918
 30
0.0
 11
247.5294655037941
 21
117.125579007918
 31
0.0
 70
   160
  3
STANDARD
100
AcDbAlignedDimension
 13
207.5294655037942
 23
88.49593106110114
 33
0.0
 14
287.5294655037941
 24
85.99593106110114
 34
0.0
100
AcDbRotatedDimension
  0
DIMENSION
  5
131
102
{ACAD_XDICTIONARY
360
132
102
}
102
{ACAD_REACTORS
330
133
102
}
330
2
100
AcDbEntity
  8
0
100
AcDbDimension
  2
*D39
 10
214.5294655037941
 20
106.2600196155617
 30
0.0
 11
211.0294655037942
 21
106.2600196155617
 31
0.0
 70
   160
  3
STANDARD
100
AcDbAlignedDimension
 13
207.5294655037942
 23
88.99593106110115
 33
0.0
 14
214.5294655037941
 24
87.5946684026303
 34
0.0
100
AcDbRotatedDimension
  0
DIMENSION
  5
140
102
{ACAD_XDICTIONARY
360
141
102
}
102
{ACAD_REACTORS
330
142
102
}
330
2
100
AcDbEntity
  8
0
100
AcDbDimension
  2
*D38
 10
118.7048022148119
 20
73.99593106110114
 30
0.0
 11
118.7048022148119
 21
100.0084021456982
 31
0.0
 70
   160
  1
\A1;{\f??|b0|i0|c0|p49;%%C10\H0.7x;\S+0^ -0.015;\H1.429x;(h7)}
  3
STANDARD
100
AcDbAlignedDimension
 13
133.5294655037796
 23
63.99593106110206
 33
0.0
 14
133.5294655037796
 24
73.99593106110114
 34
0.0
 50
90.0
100
AcDbRotatedDimension
  0
DIMENSION
  5
151
102
{ACAD_XDICTIONARY
360
152
102
}
102
{ACAD_REACTORS
330
153
102
}
330
2
100
AcDbEntity
  8
0
100
AcDbDimension
  2
*D37
 10
165.5294655037941
 20
117.125579007918
 30
0.0
 11
149.5294655037942
 21
117.125579007918
 31
0.0
 70
   160
  3
STANDARD
100
AcDbAlignedDimension
 13
133.5294655037796
 23
73.99593106110114
 33
0.0
 14
165.5294655037941
 24
88.49593106110114
 34
0.0
100
AcDbRotatedDimension
  0
DIMENSION
  5
160
102
{ACAD_XDICTIONARY
360
161
102
}
102
{ACAD_REACTORS
330
162
102
}
330
2
100
AcDbEntity
  8
0
100
AcDbDimension
  2
*D36
 10
162.5294655037942
 20
105.6016738153503
 30
0.0
 11
164.0294655037942
 21
105.6016738153503
 31
0.0
 70
   160
  3
STANDARD
100
AcDbAlignedDimension
 13
165.5294655037941
 23
88.49593106110114
 33
0.0
 14
162.5294655037942
 24
83.49593106110114
 34
0.0
 50
180.0
100
AcDbRotatedDimension
  0
DIMENSION
  5
171
102
{ACAD_XDICTIONARY
360
172
102
}
102
{ACAD_REACTORS
330
173
102
}
330
2
100
AcDbEntity
  8
0
100
AcDbDimension
  2
*D35
 10
207.5294655037942
 20
117.125579007918
 30
0.0
 11
185.5294655037942
 21
117.125579007918
 31
0.0
 70
   160
  1
{\f??|b0|i0|c0|p49;L}
  3
STANDARD
100
AcDbAlignedDimension
 13
165.5294655037941
 23
88.49593106110114
 33
0.0
 14
207.5294655037942
 24
88.49593106110114
 34
0.0
100
AcDbRotatedDimension
  0
CIRCLE
  5
180
330
2
100
AcDbEntity
  8
0
100
AcDbCircle
 10
36.88906296374989
 20
53.99593106110206
 30
0.0
 40
32.0
  0
CIRCLE
  5
181
330
2
100
AcDbEntity
  8
0
100
AcDbCircle
 10
36.88906296374989
 20
68.99593106110114
 30
0.0
 40
15.0
  0
LINE
  5
182
330
2
100
AcDbEntity
  8
0
100
AcDbLine
 10
1.889062963749893
 20
83.99593106110115
 30
0.0
 11
1.889062963749893
 21
23.99593106110205
 31
0.0
  0
LINE
  5
183
330
2
100
AcDbEntity
  8
0
100
AcDbLine
 10
71.88906296374989
 20
83.99593106110115
 30
0.0
 11
71.88906296374989
 21
23.99593106110205
 31
0.0
  0
LINE
  5
184
330
2
100
AcDbEntity
  8
0
  6
CENTER
 62
     1
 48
0.6
100
AcDbLine
 10
36.88906296374989
 20
94.09757616587739
 30
0.0
 11
36.88906296374989
 21
13.89428595632625
 31
0.0
  0
CIRCLE
  5
185
330
2
100
AcDbEntity
  8
0
100
AcDbCircle
 10
36.88906296374989
 20
68.99593106110114
 30
0.0
 40
5.0
  0
LINE
  5
186
330
2
100
AcDbEntity
  8
CEN
 48
0.6
100
AcDbLine
 10
27.74831753637772
 20
68.99593106110114
 30
0.0
 11
45.65446588574923
 21
68.99593106110114
 31
0.0
  0
LINE
  5
187
330
2
100
AcDbEntity
  8
0
100
AcDbLine
 10
34.88906296374989
 20
71.49593106110114
 30
0.0
 11
38.88906296374989
 21
71.49593106110114
 31
0.0
  0
LINE
  5
188
330
2
100
AcDbEntity
  8
0
100
AcDbLine
 10
6.889062963749893
 20
18.99593106110205
 30
0.0
 11
66.88906296374989
 21
18.99593106110205
 31
0.0
  0
LINE
  5
189
330
2
100
AcDbEntity
  8
CEN
 48
0.6
100
AcDbLine
 10
-6.433404112940479
 20
53.99593106110206
 30
0.0
 11
80.21153004045117
 21
53.99593106110206
 31
0.0
  0
ARC
  5
18A
330
2
100
AcDbEntity
  8
0
100
AcDbCircle
 10
6.889062963749893
 20
23.99593106110205
 30
0.0
 40
5.0
100
AcDbArc
 50
180.0
 51
270.0
  0
LINE
  5
18B
330
2
100
AcDbEntity
  8
0
 62
     0
100
AcDbLine
 10
34.88906296374989
 20
73.52705993525024
 30
0.0
 11
34.88906296374989
 21
71.49593106110114
 31
0.0
  0
ARC
  5
18C
330
2
100
AcDbEntity
  8
0
100
AcDbCircle
 10
66.88906296374989
 20
23.99593106110205
 30
0.0
 40
5.0
100
AcDbArc
 50
270.0
 51
0.0
  0
LINE
  5
18D
330
2
100
AcDbEntity
  8
0
 62
     0
100
AcDbLine
 10
38.88906296374989
 20
73.52705993525024
 30
0.0
 11
38.88906296374989
 21
71.49593106110114
 31
0.0
  0
ARC
  5
18E
330
2
100
AcDbEntity
  8
0
 48
0.6
100
AcDbCircle
 10
85.06146260199967
 20
33.30648370964536
 30
0.0
 40
33.95579199999999
100
AcDbArc
 50
204.9259499999998
 51
236.3981230000006
  0
ARC
  5
18F
330
2
100
AcDbEntity
  8
0
100
AcDbCircle
 10
85.06146260199967
 20
33.30648370964536
 30
0.0
 40
39.15579199999999
100
AcDbArc
 50
201.4369589999971
 51
235.2486590000054
  0
ARC
  5
190
330
2
100
AcDbEntity
  8
0
100
AcDbCircle
 10
85.06146260199967
 20
33.30648370964536
 30
0.0
 40
35.255792
100
AcDbArc
 50
236.3564240000014
 51
242.0987460000029
  0
ARC
  5
191
330
2
100
AcDbEntity
  8
0
100
AcDbCircle
 10
66.20685760199922
 20
4.276507709645102
 30
0.0
 40
0.7499080000000001
100
AcDbArc
 50
85.16289500000455
 51
205.3344229999993
  0
ARC
  5
192
330
2
100
AcDbEntity
  8
0
100
AcDbCircle
 10
85.06146260199967
 20
33.30648370964536
 30
0.0
 40
37.855792
100
AcDbArc
 50
235.2486590000054
 51
242.0987460000029
  0
ARC
  5
193
330
2
100
AcDbEntity
  8
0
100
AcDbCircle
 10
64.85128560200246
 20
3.634735709645156
 30
0.0
 40
0.7499080000000001
100
AcDbArc
 50
265.1628950000044
 51
25.33442299999946
  0
ARC
  5
194
330
2
100
AcDbEntity
  8
0
100
AcDbCircle
 10
64.16084160199898
 20
2.523780709645052
 30
0.0
 40
0.7499080000000001
100
AcDbArc
 50
85.16289500000455
 51
205.3344229999993
  0
ARC
  5
195
330
2
100
AcDbEntity
  8
0
100
AcDbCircle
 10
62.80526860199097
 20
1.882007709643858
 30
0.0
 40
0.7499080000000001
100
AcDbArc
 50
265.1628950000044
 51
25.33442299999946
  0
ARC
  5
196
330
2
100
AcDbEntity
  8
0
100
AcDbCircle
 10
85.06146260199967
 20
33.30648370964536
 30
0.0
 40
36.555792
100
AcDbArc
 50
203.0460947298108
 51
236.3176429999981
  0
ARC
  5
197
330
2
100
AcDbEntity
  8
0
100
AcDbCircle
 10
68.58988560199214
 20
1.399542709646084
 30
0.0
 40
0.7499080000000001
100
AcDbArc
 50
92.01298199999559
 51
212.184510000001
  0
ARC
  5
198
330
2
100
AcDbEntity
  8
0
100
AcDbCircle
 10
67.32053460198949
 20
0.6006697096458993
 30
0.0
 40
0.7499080000000001
100
AcDbArc
 50
272.0129819999954
 51
32.18451000000101
  0
LINE
  5
199
102
{ACAD_REACTORS
330
AC
102
}
330
2
100
AcDbEntity
  8
CEN
  6
CENTER
 62
     1
 48
0.6
100
AcDbLine
 10
36.88906296374989
 20
53.99593106110524
 30
0.0
 11
51.3865376468093
 21
18.99593106110524
 31
0.0
  0
LINE
  5
19A
330
2
100
AcDbEntity
  8
0
100
AcDbLine
 10
6.889062963749893
 20
88.99593106110115
 30
0.0
 11
66.88906296374989
 21
88.99593106110115
 31
0.0
  0
ARC
  5
19B
330
2
100
AcDbEntity
  8
0
100
AcDbCircle
 10
6.889062963749893
 20
83.99593106110115
 30
0.0
 40
5.0
100
AcDbArc
 50
90.0
 51
180.0
  0
ARC
  5
19C
330
2
100
AcDbEntity
  8
0
100
AcDbCircle
 10
66.88906296374989
 20
83.99593106110115
 30
0.0
 40
5.0
100
AcDbArc
 50
0.0
 51
90.0
  0
ARC
  5
19D
330
2
100
AcDbEntity
  8
0
100
AcDbCircle
 10
224.7425005037912
 20
-2.033902938898791
 30
0.0
 40
0.7499080000000001
100
AcDbArc
 50
62.66289500000094
 51
182.8344229999968
  0
ARC
  5
19E
330
2
100
AcDbEntity
  8
0
100
AcDbCircle
 10
223.2445195037944
 20
-2.108068938898668
 30
0.0
 40
0.7499080000000001
100
AcDbArc
 50
242.6628950000009
 51
2.834422999996808
  0
ARC
  5
19F
330
2
100
AcDbEntity
  8
0
100
AcDbCircle
 10
225.8055315037927
 20
-1.271735938898927
 30
0.0
 40
0.7499080000000001
100
AcDbArc
 50
242.6628950000009
 51
2.834422999996808
  0
ARC
  5
1A0
330
2
100
AcDbEntity
  8
0
100
AcDbCircle
 10
227.3035135037789
 20
-1.197569938897686
 30
0.0
 40
0.7499080000000001
100
AcDbArc
 50
62.66289500000094
 51
182.8344229999968
  0
ARC
  5
1A1
330
2
100
AcDbEntity
  8
0
100
AcDbCircle
 10
223.5157295037788
 20
2.754416061101892
 30
0.0
 40
0.7499080000000001
100
AcDbArc
 50
55.16127700000105
 51
175.3328050000016
  0
ARC
  5
1A2
330
2
100
AcDbEntity
  8
0
100
AcDbCircle
 10
222.0208865037784
 20
2.876453061101074
 30
0.0
 40
0.7499080000000001
100
AcDbArc
 50
235.1612770000011
 51
355.3328050000017
  0
ARC
  5
1A3
330
2
100
AcDbEntity
  8
0
100
AcDbCircle
 10
255.8321875037763
 20
18.40728506110099
 30
0.0
 40
36.555792
100
AcDbArc
 50
205.2470409999969
 51
213.8176429999978
  0
ARC
  5
1A4
330
2
100
AcDbEntity
  8
0
100
AcDbCircle
 10
226.9257345037913
 20
-5.019787938900208
 30
0.0
 40
0.7499080000000001
100
AcDbArc
 50
249.5129820000002
 51
9.684509999999278
  0
ARC
  5
1A5
330
2
100
AcDbEntity
  8
0
100
AcDbCircle
 10
228.4041765037946
 20
-4.767484938897723
 30
0.0
 40
0.7499080000000001
100
AcDbArc
 50
69.51298200000024
 51
189.6845099999992
  0
ARC
  5
1A6
330
2
100
AcDbEntity
  8
0
100
AcDbCircle
 10
255.8321875037763
 20
18.40728506110099
 30
0.0
 40
35.255792
100
AcDbArc
 50
213.8564239999994
 51
219.5987459999966
  0
ARC
  5
1A7
330
2
100
AcDbEntity
  8
0
100
AcDbCircle
 10
255.8321875037763
 20
18.40728506110099
 30
0.0
 40
37.855792
100
AcDbArc
 50
212.7486590000019
 51
219.5987459999966
  0
LINE
  5
1A8
330
2
100
AcDbEntity
  8
0
 62
   123
100
AcDbLine
 10
226.8031637530184
 20
-15.22722285806003
 30
0.0
 11
298.4194845126294
 21
-15.22722285806003
 31
0.0
  0
LINE
  5
1A9
330
2
100
AcDbEntity
  8
0
100
AcDbLine
 10
287.5294655037941
 20
85.99593106109978
 30
0.0
 11
287.5294655037941
 21
21.99593106110205
 31
0.0
  0
LINE
  5
1AA
330
2
100
AcDbEntity
  8
0
100
AcDbLine
 10
286.5294655037942
 20
86.99593106110114
 30
0.0
 11
286.5294655037942
 21
20.99593106110114
 31
0.0
  0
LINE
  5
1AB
102
{ACAD_REACTORS
330
1C3
102
}
330
2
100
AcDbEntity
  8
0
100
AcDbLine
 10
280.5294655037942
 20
19.49593106110114
 30
0.0
 11
280.5294655037942
 21
88.49593106110205
 31
0.0
  0
LINE
  5
1AC
102
{ACAD_REACTORS
330
133
102
}
330
2
100
AcDbEntity
  8
0
100
AcDbLine
 10
214.5294655037941
 20
79.89466840263094
 30
0.0
 11
214.5294655037941
 21
87.5946684026303
 31
0.0
  0
LINE
  5
1AD
330
2
100
AcDbEntity
  8
0
100
AcDbLine
 10
224.0294655037942
 20
18.49593106110114
 30
0.0
 11
215.0294655037942
 21
18.49593106110114
 31
0.0
  0
ARC
  5
1AE
330
2
100
AcDbEntity
  8
0
100
AcDbCircle
 10
255.8321875037763
 20
18.40728506110099
 30
0.0
 40
37.855792
100
AcDbArc
 50
179.8658329999985
 51
205.2470409999969
  0
ARC
  5
1AF
330
2
100
AcDbEntity
  8
0
100
AcDbCircle
 10
255.8321875037763
 20
18.40728506110099
 30
0.0
 40
39.15579199999999
100
AcDbArc
 50
179.8702869999971
 51
212.7486590000019
  0
LINE
  5
1B0
330
2
100
AcDbEntity
  8
0
100
AcDbLine
 10
213.6294655037927
 20
28.0971937195718
 30
0.0
 11
214.5294655037941
 21
28.0971937195718
 31
0.0
  0
ARC
  5
1B1
330
2
100
AcDbEntity
  8
0
100
AcDbCircle
 10
215.0294655037942
 20
18.99593106110205
 30
0.0
 40
0.5
100
AcDbArc
 50
180.0
 51
270.0
  0
LINE
  5
1B2
330
2
100
AcDbEntity
  8
0
100
AcDbLine
 10
214.5294655037941
 20
19.49593106110114
 30
0.0
 11
214.5294655037941
 21
18.99593106110205
 31
0.0
  0
LINE
  5
1B3
330
2
100
AcDbEntity
  8
0
100
AcDbLine
 10
213.6294655037927
 20
20.39719371957108
 30
0.0
 11
214.5294655037941
 21
20.39719371957108
 31
0.0
  0
LINE
  5
1B4
330
2
100
AcDbEntity
  8
0
100
AcDbLine
 10
214.5294655037941
 20
28.0971937195718
 30
0.0
 11
214.5294655037941
 21
20.39719371957108
 31
0.0
  0
ARC
  5
1B5
330
2
100
AcDbEntity
  8
0
100
AcDbCircle
 10
224.0294655037942
 20
18.99593106110205
 30
0.0
 40
0.5
100
AcDbArc
 50
270.0
 51
0.0
  0
LINE
  5
1B6
330
2
100
AcDbEntity
  8
0
100
AcDbLine
 10
224.5294655037942
 20
19.49593106110114
 30
0.0
 11
224.5294655037942
 21
18.99593106110205
 31
0.0
  0
ARC
  5
1B7
330
2
100
AcDbEntity
  8
0
100
AcDbCircle
 10
255.8321875037763
 20
18.40728506110099
 30
0.0
 40
35.255792
100
AcDbArc
 50
179.8559380000023
 51
205.2470409999969
  0
ARC
  5
1B8
330
2
100
AcDbEntity
  8
0
100
AcDbCircle
 10
255.8321875037763
 20
18.40728506110099
 30
0.0
 40
33.95579199999999
100
AcDbArc
 50
179.8504230000004
 51
213.8981229999992
  0
LINE
  5
1B9
330
2
100
AcDbEntity
  8
0
100
AcDbLine
 10
286.5294655037942
 20
20.99593106110114
 30
0.0
 11
280.5294655037942
 21
20.99593106110114
 31
0.0
  0
LINE
  5
1BA
330
2
100
AcDbEntity
  8
0
100
AcDbLine
 10
287.5294655037941
 20
21.99593106110205
 30
0.0
 11
286.5294655037942
 21
20.99593106110114
 31
0.0
  0
LINE
  5
1BB
330
2
100
AcDbEntity
  8
0
100
AcDbLine
 10
213.6294655037927
 20
79.89466840263094
 30
0.0
 11
214.5294655037941
 21
79.89466840263094
 31
0.0
  0
LINE
  5
1BC
330
2
100
AcDbEntity
  8
0
100
AcDbLine
 10
213.6294655037927
 20
19.49593106110114
 30
0.0
 11
280.5294655037942
 21
19.49593106110114
 31
0.0
  0
LINE
  5
1BD
330
2
100
AcDbEntity
  8
0
100
AcDbLine
 10
280.5294655037942
 20
88.49593106110205
 30
0.0
 11
213.6294655037927
 21
88.49593106110114
 31
0.0
  0
LINE
  5
1BE
330
2
100
AcDbEntity
  8
0
100
AcDbLine
 10
213.6294655037927
 20
87.5946684026303
 30
0.0
 11
214.5294655037941
 21
87.5946684026303
 31
0.0
  0
LINE
  5
1BF
330
2
100
AcDbEntity
  8
0
100
AcDbLine
 10
286.5294655037942
 20
86.99593106110114
 30
0.0
 11
280.5294655037942
 21
86.99593106110114
 31
0.0
  0
LINE
  5
1C0
330
2
100
AcDbEntity
  8
0
100
AcDbLine
 10
287.5294655037941
 20
85.99593106110114
 30
0.0
 11
286.5294655037942
 21
86.99593106110114
 31
0.0
  0
DIMENSION
  5
1C1
102
{ACAD_XDICTIONARY
360
1C2
102
}
102
{ACAD_REACTORS
330
1C3
102
}
330
2
100
AcDbEntity
  8
0
100
AcDbDimension
  2
*D46
 10
302.3613626833721
 20
19.49593106110114
 30
0.0
 11
302.3613626833721
 21
53.49593106110205
 31
0.0
 70
   160
  1
%%C<>
  3
STANDARD
100
AcDbAlignedDimension
 13
280.5294655037942
 23
88.49593106110205
 33
0.0
 14
280.5294655037942
 24
19.49593106110114
 34
0.0
 50
90.0
100
AcDbRotatedDimension
  0
LINE
  5
1D0
102
{ACAD_REACTORS
330
173
102
}
330
2
100
AcDbEntity
  8
0
100
AcDbLine
 10
207.5294655037942
 20
88.49593106110114
 30
0.0
 11
207.5294655037942
 21
19.49593106110114
 31
0.0
  0
LINE
  5
1D1
330
2
100
AcDbEntity
  8
0
100
AcDbLine
 10
213.6294655037927
 20
88.99593106110115
 30
0.0
 11
213.6294655037927
 21
18.99593106110205
 31
0.0
  0
LINE
  5
1D2
102
{ACAD_REACTORS
330
133
102
}
330
2
100
AcDbEntity
  8
0
100
AcDbLine
 10
207.5294655037942
 20
88.99593106110115
 30
0.0
 11
207.5294655037942
 21
18.99593106110205
 31
0.0
  0
ARC
  5
1D3
330
2
100
AcDbEntity
  8
0
100
AcDbCircle
 10
163.0294655037942
 20
83.49593106110114
 30
0.0
 40
0.5
100
AcDbArc
 50
90.0
 51
180.0
  0
LINE
  5
1D4
102
{ACAD_REACTORS
330
1EE
102
}
330
2
100
AcDbEntity
  8
CEN
  6
HIDDEN
 62
     2
100
AcDbLine
 10
158.5294655037942
 20
71.49593106110114
 30
0.0
 11
133.5294655037796
 21
71.49593106110114
 31
0.0
  0
LINE
  5
1D6
102
{ACAD_REACTORS
330
1EE
330
1FD
330
142
330
153
102
}
330
2
100
AcDbEntity
  8
CEN
  6
BYBLOCK
 62
     0
100
AcDbLine
 10
162.5294655037942
 20
73.99593106110114
 30
0.0
 11
133.5294655037796
 21
73.99593106110114
 31
0.0
  0
LINE
  5
1D7
102
{ACAD_REACTORS
330
1EE
102
}
330
2
100
AcDbEntity
  8
CEN
  6
BYBLOCK
 62
     0
100
AcDbLine
 10
162.5294655037942
 20
63.99593106110206
 30
0.0
 11
133.5294655037796
 21
63.99593106110206
 31
0.0
  0
LINE
  5
1D8
102
{ACAD_REACTORS
330
1EE
102
}
330
2
100
AcDbEntity
  8
CEN
 48
0.6
100
AcDbLine
 10
177.1052126954491
 20
68.99593106110114
 30
0.0
 11
129.6313267025616
 21
68.99593106110114
 31
0.0
  0
LINE
  5
1D9
102
{ACAD_REACTORS
330
1FD
102
}
330
2
100
AcDbEntity
  8
0
  6
HIDDEN
 62
     2
100
AcDbLine
 10
158.5294655037942
 20
73.99593106110114
 30
0.0
 11
158.5294655037942
 21
71.49593106110114
 31
0.0
  0
LINE
  5
1DA
330
2
100
AcDbEntity
  8
0
100
AcDbLine
 10
163.0294655037942
 20
53.99593106110206
 30
0.0
 11
165.5294655037941
 21
53.99593106110206
 31
0.0
  0
ARC
  5
1DB
330
2
100
AcDbEntity
  8
0
100
AcDbCircle
 10
163.0294655037942
 20
54.49593106110114
 30
0.0
 40
0.5
100
AcDbArc
 50
180.0
 51
270.0
  0
LINE
  5
1DC
102
{ACAD_REACTORS
330
162
102
}
330
2
100
AcDbEntity
  8
0
100
AcDbLine
 10
162.5294655037942
 20
83.49593106110114
 30
0.0
 11
162.5294655037942
 21
54.49593106110114
 31
0.0
  0
LINE
  5
1DD
102
{ACAD_REACTORS
330
142
102
}
330
2
100
AcDbEntity
  8
0
100
AcDbLine
 10
133.5294655037796
 20
73.99593106110114
 30
0.0
 11
133.5294655037796
 21
63.99593106110206
 31
0.0
  0
LINE
  5
1DE
330
2
100
AcDbEntity
  8
0
100
AcDbLine
 10
163.0294655037942
 20
83.99593106110115
 30
0.0
 11
165.5294655037941
 21
83.99593106110115
 31
0.0
  0
DIMENSION
  5
1DF
330
2
100
AcDbEntity
  8
0
100
AcDbDimension
  2
*D44
 10
101.3634195813429
 20
53.99593106110116
 30
0.0
 11
101.3634195813428
 21
68.74593106110115
 31
0.0
 70
   160
  1
{\f??|b0|i0|c0|p49;%%c}<>
  3
STANDARD
100
AcDbAlignedDimension
 13
163.2794655037941
 23
83.99593106110115
 33
0.0
 14
150.1697472584819
 24
53.99593106110114
 34
0.0
 50
90.0
100
AcDbRotatedDimension
  0
DIMENSION
  5
1EC
102
{ACAD_XDICTIONARY
360
1ED
102
}
102
{ACAD_REACTORS
330
1EE
102
}
330
2
100
AcDbEntity
  8
0
100
AcDbDimension
  2
*D43
 10
110.25721940137
 20
53.99593106110207
 30
0.0
 11
107.75721940137
 21
61.49593106110162
 31
0.0
 70
    32
  3
STANDARD
100
AcDbAlignedDimension
 13
129.6313267025616
 23
68.99593106110114
 33
0.0
 14
150.1697472584819
 24
53.99593106110206
 34
0.0
 50
90.0
100
AcDbRotatedDimension
  0
DIMENSION
  5
1FB
102
{ACAD_XDICTIONARY
360
1FC
102
}
102
{ACAD_REACTORS
330
1FD
102
}
330
2
100
AcDbEntity
  8
0
100
AcDbDimension
  2
*D45
 10
133.5294655037796
 20
90.21621926800298
 30
0.0
 11
146.3403961711774
 21
90.21621926800298
 31
0.0
 70
   160
  3
STANDARD
100
AcDbAlignedDimension
 13
158.5294655037942
 23
73.99593106110114
 33
0.0
 14
133.5294655037796
 24
73.99593106109978
 34
0.0
 50
180.0
100
AcDbRotatedDimension
  0
ARC
  5
20A
330
2
100
AcDbEntity
  8
0
100
AcDbCircle
 10
166.0294655037796
 20
88.49593106110114
 30
0.0
 40
0.5
100
AcDbArc
 50
90.0
 51
180.0
  0
LINE
  5
20B
102
{ACAD_REACTORS
330
162
330
173
330
153
102
}
330
2
100
AcDbEntity
  8
0
100
AcDbLine
 10
165.5294655037941
 20
88.49593106110114
 30
0.0
 11
165.5294655037941
 21
19.49593106110114
 31
0.0
  0
ARC
  5
20C
330
2
100
AcDbEntity
  8
0
100
AcDbCircle
 10
166.0294655037796
 20
19.49593106110114
 30
0.0
 40
0.5
100
AcDbArc
 50
180.0
 51
270.0
  0
LINE
  5
20D
102
{ACAD_REACTORS
330
1EE
102
}
330
2
100
AcDbEntity
  8
CEN
 48
0.6
100
AcDbLine
 10
150.1697472584819
 20
53.99593106110206
 30
0.0
 11
292.8103098523497
 21
53.99593106110206
 31
0.0
  0
LINE
  5
20E
330
2
100
AcDbEntity
  8
0
100
AcDbLine
 10
166.0294655037796
 20
88.99593106110115
 30
0.0
 11
213.6294655037927
 21
88.99593106110115
 31
0.0
  0
LINE
  5
20F
330
2
100
AcDbEntity
  8
0
100
AcDbLine
 10
213.6294655037927
 20
18.99593106110205
 30
0.0
 11
166.0294655037796
 21
18.99593106110205
 31
0.0
  0
LINE
  5
210
330
2
100
AcDbEntity
  8
0
100
AcDbLine
 10
38.68380446586888
 20
227.5731436851788
 30
0.0
 11
98.6838044658689
 21
227.5731436851788
 31
0.0
  0
DIMENSION
  5
211
102
{ACAD_XDICTIONARY
360
212
102
}
102
{ACAD_REACTORS
330
213
102
}
330
2
100
AcDbEntity
  8
0
100
AcDbDimension
  2
*D52
 10
103.6838044658688
 20
209.7241416939569
 30
0.0
 11
72.02562001507977
 21
209.7241416939569
 31
0.0
 70
   160
  3
STANDARD
100
AcDbAlignedDimension
 13
33.68380446586888
 23
232.5731436851788
 33
0.0
 14
103.6838044658688
 24
232.5731436851788
 34
0.0
100
AcDbRotatedDimension
  0
LINE
  5
220
330
2
100
AcDbEntity
  8
CEN
 48
0.6
100
AcDbLine
 10
26.4460584239423
 20
262.5731436851779
 30
0.0
 11
110.9215505078027
 21
262.5731436851779
 31
0.0
  0
POLYLINE
  5
221
330
2
100
AcDbEntity
  8
3
100
AcDb2dPolyline
 66
     1
 10
0.0
 20
0.0
 30
0.0
 70
     1
  0
VERTEX
  5
50C
330
221
100
AcDbEntity
  8
3
100
AcDbVertex
100
AcDb2dVertex
 10
32.19487657562785
 20
102.0972321185372
 30
0.0
  0
VERTEX
  5
50D
330
221
100
AcDbEntity
  8
3
100
AcDbVertex
100
AcDb2dVertex
 10
35.49487657561985
 20
102.0972321185372
 30
0.0
  0
VERTEX
  5
50E
330
221
100
AcDbEntity
  8
3
100
AcDbVertex
100
AcDb2dVertex
 10
35.49487657561985
 20
105.5972321185372
 30
0.0
  0
VERTEX
  5
50F
330
221
100
AcDbEntity
  8
3
100
AcDbVertex
100
AcDb2dVertex
 10
32.19487657562785
 20
105.5972321185372
 30
0.0
  0
SEQEND
  5
510
330
221
100
AcDbEntity
  8
3
  0
CIRCLE
  5
223
330
2
100
AcDbEntity
  8
0
100
AcDbCircle
 10
88.84768187904047
 20
185.0222560817019
 30
0.0
 40
1.5
  0
DIMENSION
  5
224
102
{ACAD_XDICTIONARY
360
225
102
}
102
{ACAD_REACTORS
330
226
102
}
330
2
100
AcDbEntity
  8
0
100
AcDbDimension
  2
*D51
 10
64.71732176139994
 20
165.1256880935311
 30
0.0
 11
62.71732176139995
 21
168.5756880935311
 31
0.0
 70
    32
  1
\A1;<>{\f??|b0|i0|c0|p49;\H0.7x;\S+0^ -0.03;}
  3
STANDARD
100
AcDbAlignedDimension
 13
60.71732176139994
 23
156.4512124348989
 33
0.0
 14
64.71732176139994
 24
156.4512124348989
 34
0.0
100
AcDbRotatedDimension
  0
LINE
  5
235
330
2
100
AcDbEntity
  8
0
 48
0.2
100
AcDbLine
 10
60.71732176139994
 20
156.4512124348989
 30
0.0
 11
64.71732176139994
 21
156.4512124348989
 31
0.0
  0
LINE
  5
236
330
2
100
AcDbEntity
  8
0
 48
0.2
100
AcDbLine
 10
60.71732176139994
 20
152.451212434898
 30
0.0
 11
64.71732176139994
 21
152.451212434898
 31
0.0
  0
LINE
  5
237
102
{ACAD_REACTORS
330
226
102
}
330
2
100
AcDbEntity
  8
0
100
AcDbLine
 10
60.71732176139994
 20
156.4512124348989
 30
0.0
 11
60.71732176139994
 21
152.451212434898
 31
0.0
  0
LINE
  5
238
102
{ACAD_REACTORS
330
226
102
}
330
2
100
AcDbEntity
  8
0
100
AcDbLine
 10
64.71732176139994
 20
156.4512124348989
 30
0.0
 11
64.71732176139994
 21
152.451212434898
 31
0.0
  0
POLYLINE
  5
239
330
2
100
AcDbEntity
  8
0
100
AcDb2dPolyline
 66
     1
 10
0.0
 20
0.0
 30
0.0
 70
     1
 40
1.5
 41
1.5
  0
VERTEX
  5
511
330
239
100
AcDbEntity
  8
0
100
AcDbVertex
100
AcDb2dVertex
 10
88.09768187902955
 20
185.0222560817019
 30
0.0
 42
1.0
  0
VERTEX
  5
512
330
239
100
AcDbEntity
  8
0
100
AcDbVertex
100
AcDb2dVertex
 10
89.59768187904046
 20
185.0222560817019
 30
0.0
 42
1.0
  0
SEQEND
  5
513
330
239
100
AcDbEntity
  8
0
  0
LINE
  5
23A
330
2
100
AcDbEntity
  8
0
  6
CENTER
 62
     1
 48
0.4
100
AcDbLine
 10
58.71732176139994
 20
154.4512124348989
 30
0.0
 11
66.71732176139994
 21
154.4512124348989
 31
0.0
  0
LINE
  5
23B
330
2
100
AcDbEntity
  8
0
  6
CENTER
 62
     1
 48
0.4
100
AcDbLine
 10
62.71732176139995
 20
158.4512124348989
 30
0.0
 11
62.71732176139995
 21
150.4512124348989
 31
0.0
  0
POLYLINE
  5
23C
330
2
100
AcDbEntity
  8
0
100
AcDb2dPolyline
 66
     1
 10
0.0
 20
0.0
 30
0.0
 70
     1
 40
1.5
 41
1.5
  0
VERTEX
  5
514
330
23C
100
AcDbEntity
  8
0
100
AcDbVertex
100
AcDb2dVertex
 10
23.57305465440004
 20
184.8069401657021
 30
0.0
 42
1.0
  0
VERTEX
  5
515
330
23C
100
AcDbEntity
  8
0
100
AcDbVertex
100
AcDb2dVertex
 10
25.07305465440003
 20
184.8069401657021
 30
0.0
 42
1.0
  0
SEQEND
  5
516
330
23C
100
AcDbEntity
  8
0
  0
CIRCLE
  5
23D
330
2
100
AcDbEntity
  8
0
100
AcDbCircle
 10
24.32305465440004
 20
184.8069401657021
 30
0.0
 40
1.5
  0
DIMENSION
  5
23E
102
{ACAD_XDICTIONARY
360
23F
102
}
102
{ACAD_REACTORS
330
240
102
}
330
2
100
AcDbEntity
  8
0
100
AcDbDimension
  2
*D50
 10
43.54666847468979
 20
164.2564064153739
 30
0.0
 11
31.04666847468979
 21
166.7564064153739
 31
0.0
 70
    32
  1
<>{\f??|b0|i0|c0|p49;%%p0.2}
  3
STANDARD
100
AcDbAlignedDimension
 13
18.54666847468979
 23
154.4512124348989
 33
0.0
 14
43.54666847468979
 24
156.4512124348989
 34
0.0
100
AcDbRotatedDimension
  0
LINE
  5
24D
102
{ACAD_REACTORS
330
240
102
}
330
2
100
AcDbEntity
  8
0
 48
0.2
100
AcDbLine
 10
20.54666847468979
 20
156.4512124348989
 30
0.0
 11
43.54666847468979
 21
156.4512124348989
 31
0.0
  0
LINE
  5
24E
330
2
100
AcDbEntity
  8
0
 48
0.2
100
AcDbLine
 10
20.54666847468979
 20
152.451212434898
 30
0.0
 11
43.54666847468979
 21
152.451212434898
 31
0.0
  0
ARC
  5
24F
102
{ACAD_REACTORS
330
240
102
}
330
2
100
AcDbEntity
  8
0
100
AcDbCircle
 10
20.54666847468979
 20
154.4512124348989
 30
0.0
 40
2.0
100
AcDbArc
 50
90.0
 51
270.0
  0
LINE
  5
250
330
2
100
AcDbEntity
  8
0
100
AcDbLine
 10
43.54666847468979
 20
156.4512124348989
 30
0.0
 11
43.54666847468979
 21
152.451212434898
 31
0.0
  0
LINE
  5
251
330
2
100
AcDbEntity
  8
0
  6
CENTER
 62
     1
 48
0.4
100
AcDbLine
 10
12.85978215797877
 20
154.4512124348989
 30
0.0
 11
48.36553578701932
 21
154.4512124348989
 31
0.0
  0
DIMENSION
  5
252
330
2
100
AcDbEntity
  8
0
100
AcDbDimension
  2
*D49
 10
51.71572363015005
 20
156.4512124348989
 30
0.0
 11
51.71572363015002
 21
171.300674228989
 31
0.0
 70
   160
  1
\A1;<>{\f??|b0|i0|c0|p49;\H0.7x;\S+0^ -0.03;}
  3
STANDARD
100
AcDbAlignedDimension
 13
43.54666847468979
 23
152.451212434898
 33
0.0
 14
43.54666847468979
 24
156.4512124348989
 34
0.0
 50
90.0
100
AcDbRotatedDimension
  0
ARC
  5
261
330
2
100
AcDbEntity
  8
0
100
AcDbCircle
 10
38.68380446586888
 20
232.5731436851788
 30
0.0
 40
5.0
100
AcDbArc
 50
180.0
 51
270.0
  0
POLYLINE
  5
262
330
2
100
AcDbEntity
  8
3
100
AcDb2dPolyline
 66
     1
 10
0.0
 20
0.0
 30
0.0
 70
     1
  0
VERTEX
  5
517
330
262
100
AcDbEntity
  8
3
100
AcDbVertex
100
AcDb2dVertex
 10
65.29136765771181
 20
210.5610036726252
 30
0.0
  0
VERTEX
  5
518
330
262
100
AcDbEntity
  8
3
100
AcDbVertex
100
AcDb2dVertex
 10
68.59136765771109
 20
210.5610036726252
 30
0.0
  0
VERTEX
  5
519
330
262
100
AcDbEntity
  8
3
100
AcDbVertex
100
AcDb2dVertex
 10
68.59136765771109
 20
214.0610036726252
 30
0.0
  0
VERTEX
  5
51A
330
262
100
AcDbEntity
  8
3
100
AcDbVertex
100
AcDb2dVertex
 10
65.29136765771181
 20
214.0610036726252
 30
0.0
  0
SEQEND
  5
51B
330
262
100
AcDbEntity
  8
3
  0
DIMENSION
  5
263
102
{ACAD_XDICTIONARY
360
264
102
}
102
{ACAD_REACTORS
330
265
102
}
330
2
100
AcDbEntity
  8
0
100
AcDbDimension
  2
*D48
 10
125.1480339961308
 20
157.8509171479022
 30
0.0
 11
125.1480339961308
 21
174.0580600050461
 31
0.0
 70
   160
  1
\A1;<>{\f??|b0|i0|c0|p49;\H0.7x;\S+0.1^ -0;\H1.429x; }
  3
STANDARD
100
AcDbAlignedDimension
 13
109.6507015019415
 23
155.3509171479022
 33
0.0
 14
107.6507015019415
 24
157.8509171479022
 34
0.0
 50
90.0
100
AcDbRotatedDimension
  0
DIMENSION
  5
274
102
{ACAD_XDICTIONARY
360
275
102
}
102
{ACAD_REACTORS
330
276
102
}
330
2
100
AcDbEntity
  8
0
100
AcDbDimension
  2
*D47
 10
109.6507015019415
 20
166.192505387833
 30
0.0
 11
107.6507015019415
 21
169.642505387833
 31
0.0
 70
    32
  1
\A1;<>{\f??|b0|i0|c0|p49;\H0.7x;\S+0.40^ -0;}
  3
STANDARD
100
AcDbAlignedDimension
 13
105.6507015019415
 23
157.4334928428579
 33
0.0
 14
109.6507015019415
 24
157.4334928428579
 34
0.0
100
AcDbRotatedDimension
  0
LINE
  5
285
102
{ACAD_REACTORS
330
276
102
}
330
2
100
AcDbEntity
  8
0
100
AcDbLine
 10
109.6507015019415
 20
155.3509171479022
 30
0.0
 11
109.6507015019415
 21
157.4334928428579
 31
0.0
  0
LINE
  5
286
102
{ACAD_REACTORS
330
276
102
}
330
2
100
AcDbEntity
  8
0
100
AcDbLine
 10
105.6507015019415
 20
155.3509171479022
 30
0.0
 11
105.6507015019415
 21
157.4334928428579
 31
0.0
  0
LINE
  5
287
102
{ACAD_REACTORS
330
265
102
}
330
2
100
AcDbEntity
  8
0
100
AcDbLine
 10
105.6507015019415
 20
155.3509171479022
 30
0.0
 11
109.6507015019415
 21
155.3509171479022
 31
0.0
  0
CIRCLE
  5
288
102
{ACAD_REACTORS
330
265
102
}
330
2
100
AcDbEntity
  8
0
100
AcDbCircle
 10
107.6507015019415
 20
152.8509171479022
 30
0.0
 40
5.0
  0
LINE
  5
289
330
2
100
AcDbEntity
  8
0
  6
CENTER
 62
     1
 48
0.4
100
AcDbLine
 10
99.04306218517014
 20
152.8509171479022
 30
0.0
 11
115.9765567313188
 21
152.8509171479022
 31
0.0
  0
LINE
  5
28A
330
2
100
AcDbEntity
  8
0
  6
CENTER
 62
     1
 48
0.4
100
AcDbLine
 10
107.6507015019415
 20
162.822681791119
 30
0.0
 11
107.6507015019415
 21
142.1939235683421
 31
0.0
  0
LINE
  5
28B
330
2
100
AcDbEntity
  8
1
  6
BYBLOCK
 62
     0
100
AcDbLine
 10
282.4886644111429
 20
179.6913384916338
 30
0.0
 11
282.4886644111429
 21
152.1513384916329
 31
0.0
  0
TEXT
  5
28D
330
2
100
AcDbEntity
  8
1
 62
     0
100
AcDbText
 10
169.6266580707706
 20
185.198777278601
 30
0.0
 40
4.589999999999998
  1
DIMENSION TABLE
 41
0.8
  7
GHS
100
AcDbText
  0
LINE
  5
28F
330
2
100
AcDbEntity
  8
1
  6
BYBLOCK
 62
     0
100
AcDbLine
 10
168.9646675765688
 20
183.1489954068461
 30
0.0
 11
218.6301053887909
 21
183.1489954068461
 31
0.0
  0
LINE
  5
290
330
2
100
AcDbEntity
  8
1
  6
BYBLOCK
 62
     0
100
AcDbLine
 10
168.9646675765688
 20
183.3739954068441
 30
0.0
 11
218.6301053887909
 21
183.3739954068441
 31
0.0
  0
LINE
  5
291
330
2
100
AcDbEntity
  8
1
  6
BYBLOCK
 62
     0
100
AcDbLine
 10
168.9646675765688
 20
184.1030273678411
 30
0.0
 11
218.6301053887909
 21
184.1030273678411
 31
0.0
  0
TEXT
  5
292
330
2
100
AcDbEntity
  8
1
  6
BYBLOCK
 62
     0
100
AcDbText
 10
178.1003118316111
 20
154.66738587293
 30
0.0
 40
4.589999999999998
  1
02
 41
0.8
  7
GHS
100
AcDbText
  0
TEXT
  5
293
330
2
100
AcDbEntity
  8
1
  6
BYBLOCK
 62
     0
100
AcDbText
 10
177.2960593074713
 20
172.6801512176052
 30
0.0
 40
4.589999999999998
  1
NO.
 41
0.8
  7
GHS
100
AcDbText
  0
TEXT
  5
294
330
2
100
AcDbEntity
  8
1
  6
BYBLOCK
 62
     0
100
AcDbText
 10
178.1003118316111
 20
163.8473858729312
 30
0.0
 40
4.589999999999998
  1
01
 41
0.8
  7
GHS
100
AcDbText
  0
LINE
  5
295
330
2
100
AcDbEntity
  8
1
  6
BYBLOCK
 62
     0
100
AcDbLine
 10
169.7349341470908
 20
179.6913384916338
 30
0.0
 11
169.7349341470908
 21
152.1513384916329
 31
0.0
  0
LINE
  5
296
330
2
100
AcDbEntity
  8
1
  6
BYBLOCK
 62
     0
100
AcDbLine
 10
193.5517173450207
 20
179.6913384916338
 30
0.0
 11
193.5517173450207
 21
152.1513384916329
 31
0.0
  0
LINE
  5
297
330
2
100
AcDbEntity
  8
1
  6
BYBLOCK
 62
     0
100
AcDbLine
 10
223.2447513306106
 20
179.6913384916338
 30
0.0
 11
223.2447513306106
 21
152.1513384916329
 31
0.0
  0
TEXT
  5
298
330
2
100
AcDbEntity
  8
1
  6
BYBLOCK
 62
     0
100
AcDbText
 10
205.1235674020426
 20
172.5119533046599
 30
0.0
 40
4.589999999999998
  1
L
 41
0.8
  7
GHS
100
AcDbText
  0
TEXT
  5
299
330
2
100
AcDbEntity
  8
1
  6
BYBLOCK
 62
     0
100
AcDbText
 10
203.2747665963288
 20
154.3184234487753
 30
0.0
 40
4.589999999999998
  1
42
 41
0.8
  7
GHS
100
AcDbText
  0
TEXT
  5
29A
330
2
100
AcDbEntity
  8
1
  6
BYBLOCK
 62
     0
100
AcDbText
 10
203.2747665963288
 20
163.4984234487751
 30
0.0
 40
4.589999999999998
  1
32
 41
0.8
  7
GHS
100
AcDbText
  0
LINE
  5
29B
330
2
100
AcDbEntity
  8
1
  6
BYBLOCK
 62
     0
100
AcDbLine
 10
282.4886644111429
 20
179.6913384916338
 30
0.0
 11
169.7349341470908
 21
179.6913384916338
 31
0.0
  0
LINE
  5
29C
330
2
100
AcDbEntity
  8
1
  6
BYBLOCK
 62
     0
100
AcDbLine
 10
282.4886644111429
 20
152.1513384916329
 30
0.0
 11
169.7349341470908
 21
152.1513384916329
 31
0.0
  0
LINE
  5
29D
330
2
100
AcDbEntity
  8
1
  6
BYBLOCK
 62
     0
100
AcDbLine
 10
282.4886644111429
 20
170.511338491633
 30
0.0
 11
169.7349341470908
 21
170.511338491633
 31
0.0
  0
LINE
  5
29E
330
2
100
AcDbEntity
  8
1
  6
BYBLOCK
 62
     0
100
AcDbLine
 10
282.4886644111429
 20
161.3313384916332
 30
0.0
 11
169.7349341470908
 21
161.3313384916332
 31
0.0
  0
TEXT
  5
29F
330
2
100
AcDbEntity
  8
1
  6
BYBLOCK
 62
     0
100
AcDbText
 10
229.8754705638421
 20
154.7665749686388
 30
0.0
 40
4.589999999999998
  1
K7G25~180B(C)
 41
0.8
  7
GHS
100
AcDbText
  0
TEXT
  5
2A0
330
2
100
AcDbEntity
  8
1
  6
BYBLOCK
 62
     0
100
AcDbText
 10
231.7473861763501
 20
163.9465749686392
 30
0.0
 40
4.589999999999998
  1
K7G3~18B(C)
 41
0.8
  7
GHS
100
AcDbText
  0
TEXT
  5
2A1
330
2
100
AcDbEntity
  8
1
  6
BYBLOCK
 62
     0
100
AcDbText
 10
226.0309432206522
 20
172.525621883748
 30
0.0
 40
4.589999999999998
  1
APPLICATION MODEL
 41
0.8
  7
GHS
100
AcDbText
  0
ARC
  5
2A2
330
2
100
AcDbEntity
  8
0
100
AcDbCircle
 10
98.6838044658689
 20
232.5731436851788
 30
0.0
 40
5.0
100
AcDbArc
 50
270.0
 51
0.0
  0
LINE
  5
2A3
330
2
100
AcDbEntity
  8
0
100
AcDbLine
 10
202.9732187302215
 20
259.1861318945002
 30
0.0
 11
205.4732187302288
 21
259.1861318945002
 31
0.0
  0
LINE
  5
2A4
102
{ACAD_REACTORS
330
EA
102
}
330
2
100
AcDbEntity
  8
CEN
 48
0.6
100
AcDbLine
 10
190.1135004849202
 20
259.1861318945002
 30
0.0
 11
258.6326880698434
 21
259.1861318945002
 31
0.0
  0
ARC
  5
2A5
330
2
100
AcDbEntity
  8
0
100
AcDbCircle
 10
205.9732187302288
 20
224.1861318945002
 30
0.0
 40
0.5
100
AcDbArc
 50
180.0
 51
270.0
  0
ARC
  5
2A6
330
2
100
AcDbEntity
  8
0
100
AcDbCircle
 10
202.9732187302215
 20
259.6861318945002
 30
0.0
 40
0.5
100
AcDbArc
 50
180.0
 51
270.0
  0
LINE
  5
2A7
102
{ACAD_REACTORS
330
EA
102
}
330
2
100
AcDbEntity
  8
CEN
  6
BYBLOCK
 62
     0
100
AcDbLine
 10
202.4732187302215
 20
269.1861318944988
 30
0.0
 11
173.4732187302288
 21
269.1861318944988
 31
0.0
  0
DIMENSION
  5
2A8
330
2
100
AcDbEntity
  8
0
100
AcDbDimension
  2
*D54
 10
205.4732187302288
 20
210.8901175128753
 30
0.0
 11
189.4732187302288
 21
213.3901175128753
 31
0.0
 70
    32
  3
STANDARD
100
AcDbAlignedDimension
 13
173.4732187302288
 23
269.1861318945002
 33
0.0
 14
205.4732187302288
 24
229.1861318945002
 34
0.0
 50
180.0
100
AcDbRotatedDimension
  0
LINE
  5
2B5
330
2
100
AcDbEntity
  8
0
100
AcDbLine
 10
246.4732187302215
 20
223.6861318945002
 30
0.0
 11
205.9732187302288
 21
223.6861318945002
 31
0.0
  0
LINE
  5
2B6
330
2
100
AcDbEntity
  8
0
100
AcDbLine
 10
246.4732187302215
 20
224.1861318945002
 30
0.0
 11
246.4732187302215
 21
223.6861318945002
 31
0.0
  0
LINE
  5
2B7
330
2
100
AcDbEntity
  8
0
100
AcDbLine
 10
247.4732187302288
 20
224.1861318945002
 30
0.0
 11
246.4732187302215
 21
224.1861318945002
 31
0.0
  0
DIMENSION
  5
2B8
102
{ACAD_XDICTIONARY
360
2B9
102
}
102
{ACAD_REACTORS
330
2BA
102
}
330
2
100
AcDbEntity
  8
0
100
AcDbDimension
  2
*D53
 10
205.4732187302288
 20
210.8901175128739
 30
0.0
 11
226.4732187302288
 21
213.3901175128739
 31
0.0
 70
    32
  1
L
  3
STANDARD
100
AcDbAlignedDimension
 13
247.4732187302288
 23
224.1861318945002
 33
0.0
 14
205.4732187302288
 24
224.1861318945002
 34
0.0
 50
180.0
100
AcDbRotatedDimension
  0
CIRCLE
  5
2C7
330
2
100
AcDbEntity
  8
0
 48
0.6
100
AcDbCircle
 10
77.93187159825902
 20
384.701565906229
 30
0.0
 40
32.00000000000005
  0
LINE
  5
2C8
330
2
100
AcDbEntity
  8
0
 48
0.6
100
AcDbLine
 10
47.93187159825902
 20
419.701565906229
 30
0.0
 11
107.931871598259
 21
419.7015659062299
 31
0.0
  0
LINE
  5
2C9
330
2
100
AcDbEntity
  8
CEN
 48
0.6
100
AcDbLine
 10
38.33423687841786
 20
384.701565906229
 30
0.0
 11
117.529506318111
 21
384.701565906229
 31
0.0
  0
LINE
  5
2CA
330
2
100
AcDbEntity
  8
0
 48
0.6
100
AcDbLine
 10
47.93187159825902
 20
349.7015659062299
 30
0.0
 11
107.931871598259
 21
349.7015659062299
 31
0.0
  0
LINE
  5
2CB
330
2
100
AcDbEntity
  8
0
 48
0.6
100
AcDbLine
 10
95.31135170552806
 20
349.7015659062299
 30
0.0
 11
89.57030147900878
 21
349.7015659062299
 31
0.0
  0
INSERT
  5
2CC
330
2
100
AcDbEntity
  8
0
100
AcDbBlockReference
  2
3
 10
77.93187159825902
 20
384.701565906234
 30
0.0
  0
DIMENSION
  5
2CD
102
{ACAD_XDICTIONARY
360
2CE
102
}
102
{ACAD_REACTORS
330
2CF
102
}
330
2
100
AcDbEntity
  8
0
100
AcDbDimension
  2
*D55
 10
112.931871598259
 20
432.2693610321359
 30
0.0
 11
77.93187159825902
 21
432.2693610321359
 31
0.0
 70
   160
  3
STANDARD
100
AcDbAlignedDimension
 13
42.93187159825902
 23
414.7015659062299
 33
0.0
 14
112.931871598259
 24
414.7015659062299
 34
0.0
100
AcDbRotatedDimension
  0
LINE
  5
2DC
330
2
100
AcDbEntity
  8
0
100
AcDbLine
 10
38.68380446586888
 20
297.5731436851779
 30
0.0
 11
98.6838044658689
 21
297.5731436851779
 31
0.0
  0
POLYLINE
  5
2DD
330
2
100
AcDbEntity
  8
3
100
AcDb2dPolyline
 66
     1
 10
0.0
 20
0.0
 30
0.0
 70
     1
  0
VERTEX
  5
51C
330
2DD
100
AcDbEntity
  8
3
100
AcDbVertex
100
AcDb2dVertex
 10
69.71610200532814
 20
434.5990371670661
 30
0.0
  0
VERTEX
  5
51D
330
2DD
100
AcDbEntity
  8
3
100
AcDbVertex
100
AcDb2dVertex
 10
73.01610200532741
 20
434.5990371670661
 30
0.0
  0
VERTEX
  5
51E
330
2DD
100
AcDbEntity
  8
3
100
AcDbVertex
100
AcDb2dVertex
 10
73.01610200532741
 20
438.0990371670661
 30
0.0
  0
VERTEX
  5
51F
330
2DD
100
AcDbEntity
  8
3
100
AcDbVertex
100
AcDb2dVertex
 10
69.71610200532814
 20
438.0990371670661
 30
0.0
  0
SEQEND
  5
520
330
2DD
100
AcDbEntity
  8
3
  0
LINE
  5
2DE
330
2
100
AcDbEntity
  8
0
 48
0.6
100
AcDbLine
 10
42.93187159825902
 20
414.7015659062299
 30
0.0
 11
42.93187159825902
 21
354.7015659062299
 31
0.0
  0
ARC
  5
2DF
330
2
100
AcDbEntity
  8
0
 48
0.6
100
AcDbCircle
 10
47.93187159825902
 20
354.7015659062299
 30
0.0
 40
5.0
100
AcDbArc
 50
180.0
 51
270.0
  0
ARC
  5
2E0
102
{ACAD_REACTORS
330
2CF
102
}
330
2
100
AcDbEntity
  8
0
 48
0.6
100
AcDbCircle
 10
47.93187159825902
 20
414.7015659062299
 30
0.0
 40
5.0
100
AcDbArc
 50
90.0
 51
180.0
  0
LINE
  5
2E1
330
2
100
AcDbEntity
  8
CEN
 48
0.6
100
AcDbLine
 10
77.93187159825902
 20
343.4802593474
 30
0.0
 11
77.93187159825902
 21
425.922872465059
 31
0.0
  0
CIRCLE
  5
2E2
330
2
100
AcDbEntity
  8
0
 48
0.6
100
AcDbCircle
 10
77.93187159825902
 20
384.701565906229
 30
0.0
 40
2.000000000000055
  0
CIRCLE
  5
2E3
330
2
100
AcDbEntity
  8
0
 48
0.6
100
AcDbCircle
 10
77.93187159825902
 20
384.701565906229
 30
0.0
 40
3.000000000000055
  0
CIRCLE
  5
2E4
330
2
100
AcDbEntity
  8
0
100
AcDbCircle
 10
68.68380446586889
 20
277.5731436851788
 30
0.0
 40
5.0
  0
ARC
  5
2E5
330
2
100
AcDbEntity
  8
0
100
AcDbCircle
 10
38.68380446586888
 20
292.5731436851788
 30
0.0
 40
5.0
100
AcDbArc
 50
90.0
 51
180.0
  0
LINE
  5
2E6
330
2
100
AcDbEntity
  8
0
 62
     0
100
AcDbLine
 10
66.68380446586889
 20
282.104272559327
 30
0.0
 11
66.68380446586889
 21
280.0731436851778
 31
0.0
  0
LINE
  5
2E7
330
2
100
AcDbEntity
  8
0
 62
     0
100
AcDbLine
 10
70.68380446586889
 20
282.104272559327
 30
0.0
 11
70.68380446586889
 21
280.0731436851778
 31
0.0
  0
LINE
  5
2E8
330
2
100
AcDbEntity
  8
0
100
AcDbLine
 10
66.68380446586889
 20
280.0731436851778
 30
0.0
 11
70.68380446586889
 21
280.0731436851778
 31
0.0
  0
LINE
  5
2E9
330
2
100
AcDbEntity
  8
CEN
 48
0.6
100
AcDbLine
 10
59.54305903849308
 20
277.5731436851788
 30
0.0
 11
77.44920738786095
 21
277.5731436851788
 31
0.0
  0
LINE
  5
2EA
330
2
100
AcDbEntity
  8
0
100
AcDbLine
 10
156.9932336005113
 20
388.05156590623
 30
0.0
 11
167.4932336005003
 21
388.05156590623
 31
0.0
  0
LINE
  5
2EB
330
2
100
AcDbEntity
  8
CEN
 48
0.6
100
AcDbLine
 10
154.9932336005003
 20
387.541065906229
 30
0.0
 11
170.4932336005003
 21
387.541065906229
 31
0.0
  0
LINE
  5
2EC
330
2
100
AcDbEntity
  8
0
100
AcDbLine
 10
156.9932336005113
 20
381.35156590623
 30
0.0
 11
167.4932336005003
 21
381.35156590623
 31
0.0
  0
LINE
  5
2ED
330
2
100
AcDbEntity
  8
CEN
 48
0.6
100
AcDbLine
 10
154.9932336005003
 20
381.8620659062289
 30
0.0
 11
170.4932336005003
 21
381.8620659062289
 31
0.0
  0
ARC
  5
2EE
330
2
100
AcDbEntity
  8
0
100
AcDbCircle
 10
162.0333613350485
 20
417.3340476759242
 30
0.0
 40
30.21776684021192
100
AcDbArc
 50
272.7691355265055
 51
280.40961357857
  0
ARC
  5
2EF
330
2
100
AcDbEntity
  8
0
100
AcDbCircle
 10
162.0333613350485
 20
352.0690841365321
 30
0.0
 40
30.21776684021463
100
AcDbArc
 50
79.59038642143004
 51
87.23086447349437
  0
LINE
  5
2F0
330
2
100
AcDbEntity
  8
CEN
 48
0.6
100
AcDbLine
 10
208.6064667448809
 20
384.701565906229
 30
0.0
 11
149.8494397998692
 21
384.701565906229
 31
0.0
  0
LINE
  5
2F1
330
2
100
AcDbEntity
  8
0
 48
0.6
100
AcDbLine
 10
112.931871598259
 20
414.7015659062299
 30
0.0
 11
112.931871598259
 21
354.7015659062299
 31
0.0
  0
ARC
  5
2F2
330
2
100
AcDbEntity
  8
0
 48
0.6
100
AcDbCircle
 10
107.931871598259
 20
354.7015659062299
 30
0.0
 40
5.0
100
AcDbArc
 50
270.0
 51
0.0
  0
ARC
  5
2F3
102
{ACAD_REACTORS
330
2CF
102
}
330
2
100
AcDbEntity
  8
0
 48
0.6
100
AcDbCircle
 10
107.931871598259
 20
414.7015659062299
 30
0.0
 40
5.0
100
AcDbArc
 50
0.0
 51
90.0
  0
LINE
  5
2F4
330
2
100
AcDbEntity
  8
0
100
AcDbLine
 10
156.4932336005004
 20
387.1515659062299
 30
0.0
 11
163.4932336005003
 21
387.1515659062299
 31
0.0
  0
LINE
  5
2F5
330
2
100
AcDbEntity
  8
0
100
AcDbLine
 10
156.4932336005004
 20
382.2515659062298
 30
0.0
 11
163.4932336005003
 21
382.2515659062298
 31
0.0
  0
LINE
  5
2F6
330
2
100
AcDbEntity
  8
2
100
AcDbLine
 10
163.4932336005003
 20
385.4668653678511
 30
0.0
 11
157.3254861161294
 21
382.2515659062298
 31
0.0
  0
LINE
  5
2F7
330
2
100
AcDbEntity
  8
2
100
AcDbLine
 10
162.5423615182298
 20
387.1515659062299
 30
0.0
 11
157.4932336005003
 21
384.6008399640659
 31
0.0
  0
LINE
  5
2F8
330
2
100
AcDbEntity
  8
2
100
AcDbLine
 10
163.4932336005003
 20
386.6215659062291
 30
0.0
 11
157.4932336005003
 21
383.446139425687
 31
0.0
  0
LINE
  5
2F9
330
2
100
AcDbEntity
  8
0
100
AcDbLine
 10
156.9932336005113
 20
388.05156590623
 30
0.0
 11
156.4932336005004
 21
387.55156590623
 31
0.0
  0
LINE
  5
2FA
330
2
100
AcDbEntity
  8
0
100
AcDbLine
 10
156.4932336005004
 20
381.8515659062299
 30
0.0
 11
156.9932336005113
 21
381.35156590623
 31
0.0
  0
LINE
  5
2FB
330
2
100
AcDbEntity
  8
0
100
AcDbLine
 10
156.4932336005004
 20
387.55156590623
 30
0.0
 11
156.4932336005004
 21
381.8620659062289
 31
0.0
  0
LINE
  5
2FC
330
2
100
AcDbEntity
  8
2
100
AcDbLine
 10
156.9932336005113
 20
388.05156590623
 30
0.0
 11
156.9932336005113
 21
381.35156590623
 31
0.0
  0
LINE
  5
2FD
330
2
100
AcDbEntity
  8
2
100
AcDbLine
 10
163.4932336005003
 20
387.1515659062299
 30
0.0
 11
163.4932336005003
 21
382.2515659062298
 31
0.0
  0
LINE
  5
2FE
102
{ACAD_REACTORS
330
309
330
325
102
}
330
2
100
AcDbEntity
  8
0
100
AcDbLine
 10
167.4932336005003
 20
416.701565906229
 30
0.0
 11
167.4932336005003
 21
352.701565906229
 31
0.0
  0
LINE
  5
2FF
330
2
100
AcDbEntity
  8
0
100
AcDbLine
 10
169.4932336005003
 20
419.7015659062299
 30
0.0
 11
169.4932336005003
 21
349.701565906229
 31
0.0
  0
LINE
  5
300
330
2
100
AcDbEntity
  8
0
100
AcDbLine
 10
169.4932336005003
 20
352.701565906229
 30
0.0
 11
167.4932336005003
 21
352.701565906229
 31
0.0
  0
LINE
  5
301
330
2
100
AcDbEntity
  8
0
100
AcDbLine
 10
169.4932336005003
 20
387.5215659062298
 30
0.0
 11
169.4932336005003
 21
381.8815659062299
 31
0.0
  0
LINE
  5
302
330
2
100
AcDbEntity
  8
0
100
AcDbLine
 10
169.4932336005003
 20
387.5215659062298
 30
0.0
 11
169.4932336005003
 21
381.8815659062299
 31
0.0
  0
LINE
  5
303
330
2
100
AcDbEntity
  8
0
100
AcDbLine
 10
169.4932336005003
 20
416.701565906229
 30
0.0
 11
167.4932336005003
 21
416.701565906229
 31
0.0
  0
LINE
  5
304
330
2
100
AcDbEntity
  8
0
100
AcDbLine
 10
199.4932336005003
 20
419.7015659062299
 30
0.0
 11
199.4932336005003
 21
349.701565906229
 31
0.0
  0
LINE
  5
305
102
{ACAD_REACTORS
330
325
330
336
102
}
330
2
100
AcDbEntity
  8
0
100
AcDbLine
 10
169.4932336005003
 20
419.7015659062299
 30
0.0
 11
199.4932336005003
 21
419.7015659062299
 31
0.0
  0
LINE
  5
306
330
2
100
AcDbEntity
  8
0
100
AcDbLine
 10
169.4932336005003
 20
349.701565906229
 30
0.0
 11
199.4932336005003
 21
349.701565906229
 31
0.0
  0
DIMENSION
  5
307
102
{ACAD_XDICTIONARY
360
308
102
}
102
{ACAD_REACTORS
330
309
102
}
330
2
100
AcDbEntity
  8
0
100
AcDbDimension
  2
*D61
 10
144.8954087234924
 20
352.7015659062299
 30
0.0
 11
144.8954087234924
 21
382.0644248139301
 31
0.0
 70
   160
  1
\A1;%%C{\f??|b0|i0|c0|p49;64\H0.7x;\S+0^ -0.030;\H1.429x;(h7)} 
  3
STANDARD
100
AcDbAlignedDimension
 13
167.4932336005003
 23
416.7015659062299
 33
0.0
 14
167.4932336005003
 24
352.7015659062299
 34
0.0
 50
90.0
100
AcDbRotatedDimension
  0
DIMENSION
  5
316
330
2
100
AcDbEntity
  8
0
100
AcDbDimension
  2
*D60
 10
169.4932336005003
 20
439.288643730662
 30
0.0
 11
162.9932336005003
 21
439.288643730662
 31
0.0
 70
   160
  1
<>
  3
STANDARD
100
AcDbAlignedDimension
 13
156.4932336005004
 23
387.5410659062299
 33
0.0
 14
169.4932336005003
 24
419.7015659062299
 34
0.0
100
AcDbRotatedDimension
  0
DIMENSION
  5
323
102
{ACAD_XDICTIONARY
360
324
102
}
102
{ACAD_REACTORS
330
325
102
}
330
2
100
AcDbEntity
  8
0
100
AcDbDimension
  2
*D59
 10
169.4932336005003
 20
429.162435052707
 30
0.0
 11
160.4932336005003
 21
429.162435052707
 31
0.0
 70
   160
  3
STANDARD
100
AcDbAlignedDimension
 13
167.4932336005003
 23
416.701565906229
 33
0.0
 14
169.4932336005003
 24
419.7015659062299
 34
0.0
100
AcDbRotatedDimension
  0
DIMENSION
  5
334
102
{ACAD_XDICTIONARY
360
335
102
}
102
{ACAD_REACTORS
330
336
102
}
330
2
100
AcDbEntity
  8
0
100
AcDbDimension
  2
*D58
 10
199.4932336005003
 20
439.288643730662
 30
0.0
 11
184.4932336005003
 21
439.288643730662
 31
0.0
 70
   160
  3
STANDARD
100
AcDbAlignedDimension
 13
169.4932336005003
 23
419.7015659062299
 33
0.0
 14
199.4932336005003
 24
419.7015659062299
 34
0.0
100
AcDbRotatedDimension
  0
ARC
  5
343
330
2
100
AcDbEntity
  8
0
100
AcDbCircle
 10
98.6838044658689
 20
292.5731436851788
 30
0.0
 40
5.0
100
AcDbArc
 50
0.0
 51
90.0
  0
LINE
  5
344
330
2
100
AcDbEntity
  8
0
100
AcDbLine
 10
202.9732187302215
 20
289.1861318944989
 30
0.0
 11
205.4732187302288
 21
289.1861318944989
 31
0.0
  0
LINE
  5
345
102
{ACAD_REACTORS
330
EA
102
}
330
2
100
AcDbEntity
  8
CEN
 48
0.6
100
AcDbLine
 10
217.048965921891
 20
274.1861318945002
 30
0.0
 11
169.5750799289999
 21
274.1861318945002
 31
0.0
  0
ARC
  5
346
330
2
100
AcDbEntity
  8
0
100
AcDbCircle
 10
205.9732187302288
 20
294.1861318945002
 30
0.0
 40
0.5
100
AcDbArc
 50
90.0
 51
180.0
  0
ARC
  5
347
330
2
100
AcDbEntity
  8
0
100
AcDbCircle
 10
202.9732187302215
 20
288.6861318945002
 30
0.0
 40
0.5
100
AcDbArc
 50
90.0
 51
180.0
  0
LINE
  5
348
102
{ACAD_REACTORS
330
EA
330
35E
330
106
102
}
330
2
100
AcDbEntity
  8
CEN
  6
BYBLOCK
 62
     0
100
AcDbLine
 10
202.4732187302215
 20
279.1861318945002
 30
0.0
 11
173.4732187302288
 21
279.1861318945002
 31
0.0
  0
LINE
  5
349
102
{ACAD_REACTORS
330
EA
102
}
330
2
100
AcDbEntity
  8
CEN
  6
HIDDEN
 62
     2
100
AcDbLine
 10
198.4732187302288
 20
276.6861318945002
 30
0.0
 11
173.4732187302288
 21
276.6861318945002
 31
0.0
  0
LINE
  5
34A
102
{ACAD_REACTORS
330
2BA
330
35E
102
}
330
2
100
AcDbEntity
  8
0
  6
HIDDEN
 62
     2
100
AcDbLine
 10
198.4732187302288
 20
279.1861318945011
 30
0.0
 11
198.4732187302288
 21
276.6861318945002
 31
0.0
  0
DIMENSION
  5
34B
102
{ACAD_XDICTIONARY
360
34C
102
}
102
{ACAD_REACTORS
330
34D
102
}
330
2
100
AcDbEntity
  8
0
100
AcDbDimension
  2
*D57
 10
202.4732187302215
 20
303.3682705977098
 30
0.0
 11
203.9732187302251
 21
303.3682705977098
 31
0.0
 70
   160
  3
STANDARD
100
AcDbAlignedDimension
 13
205.4732187302288
 23
294.1861318945002
 33
0.0
 14
202.4732187302215
 24
288.6861318945002
 34
0.0
 50
180.0
100
AcDbRotatedDimension
  0
DIMENSION
  5
35C
102
{ACAD_XDICTIONARY
360
35D
102
}
102
{ACAD_REACTORS
330
35E
102
}
330
2
100
AcDbEntity
  8
0
100
AcDbDimension
  2
*D56
 10
173.4732187302288
 20
295.406420101402
 30
0.0
 11
186.2841493976193
 21
295.406420101402
 31
0.0
 70
   160
  3
STANDARD
100
AcDbAlignedDimension
 13
198.4732187302288
 23
279.1861318945011
 33
0.0
 14
173.4732187302288
 24
279.1861318945002
 34
0.0
 50
180.0
100
AcDbRotatedDimension
  0
LINE
  5
36B
330
2
100
AcDbEntity
  8
0
100
AcDbLine
 10
246.4732187302215
 20
294.6861318945002
 30
0.0
 11
205.9732187302288
 21
294.6861318945002
 31
0.0
  0
LINE
  5
36C
330
2
100
AcDbEntity
  8
0
100
AcDbLine
 10
246.4732187302215
 20
294.6861318945002
 30
0.0
 11
246.4732187302215
 21
294.1861318945002
 31
0.0
  0
LINE
  5
36D
330
2
100
AcDbEntity
  8
0
100
AcDbLine
 10
247.4732187302288
 20
294.1861318945002
 30
0.0
 11
246.4732187302215
 21
294.1861318945002
 31
0.0
  0
ENDSEC
  0
SECTION
  2
OBJECTS
  0
DICTIONARY
  5
8
330
0
100
AcDbDictionary
  3
ACAD_GROUP
350
97
  3
ACAD_LAYOUT
350
C
  3
ACAD_MLINESTYLE
350
98
  3
ACAD_PLOTSETTINGS
350
99
1001
ACAD
1000
TREAT_AS_HARD
1070
     0
  0
DICTIONARY
  5
13
330
12
100
AcDbDictionary
  3
ACAD_LAYERFILTERS
350
14
  3
ACAD_LAYERSTATES
350
87
1001
ACAD
1000
TREAT_AS_HARD
1070
     1
  0
DICTIONARY
  5
3
330
2
100
AcDbDictionary
  3
ACAD_LAYOUTSELFREF
350
4FE
1001
ACAD
1000
TREAT_AS_HARD
1070
     1
  0
DICTIONARY
  5
E
330
D
100
AcDbDictionary
  3
ACAD_LAYOUTSELFREF
350
4FF
1001
ACAD
1000
TREAT_AS_HARD
1070
     1
  0
DICTIONARY
  5
CB
330
CA
100
AcDbDictionary
  3
ACAD_DIMASSOC
350
CC
1001
ACAD
1000
TREAT_AS_HARD
1070
     1
  0
DICTIONARY
  5
AB
330
AA
100
AcDbDictionary
  3
ACAD_DIMASSOC
350
AC
1001
ACAD
1000
TREAT_AS_HARD
1070
     1
  0
DICTIONARY
  5
E9
330
E8
100
AcDbDictionary
  3
ACAD_DIMASSOC
350
EA
1001
ACAD
1000
TREAT_AS_HARD
1070
     1
  0
DICTIONARY
  5
105
330
104
100
AcDbDictionary
  3
ACAD_DIMASSOC
350
106
1001
ACAD
1000
TREAT_AS_HARD
1070
     1
  0
DICTIONARY
  5
132
330
131
100
AcDbDictionary
  3
ACAD_DIMASSOC
350
133
1001
ACAD
1000
TREAT_AS_HARD
1070
     1
  0
DICTIONARY
  5
141
330
140
100
AcDbDictionary
  3
ACAD_DIMASSOC
350
142
1001
ACAD
1000
TREAT_AS_HARD
1070
     1
  0
DICTIONARY
  5
152
330
151
100
AcDbDictionary
  3
ACAD_DIMASSOC
350
153
1001
ACAD
1000
TREAT_AS_HARD
1070
     1
  0
DICTIONARY
  5
161
330
160
100
AcDbDictionary
  3
ACAD_DIMASSOC
350
162
1001
ACAD
1000
TREAT_AS_HARD
1070
     1
  0
DICTIONARY
  5
172
330
171
100
AcDbDictionary
  3
ACAD_DIMASSOC
350
173
1001
ACAD
1000
TREAT_AS_HARD
1070
     1
  0
DICTIONARY
  5
1C2
330
1C1
100
AcDbDictionary
  3
ACAD_DIMASSOC
350
1C3
1001
ACAD
1000
TREAT_AS_HARD
1070
     1
  0
DICTIONARY
  5
1ED
330
1EC
100
AcDbDictionary
  3
ACAD_DIMASSOC
350
1EE
1001
ACAD
1000
TREAT_AS_HARD
1070
     1
  0
DICTIONARY
  5
1FC
330
1FB
100
AcDbDictionary
  3
ACAD_DIMASSOC
350
1FD
1001
ACAD
1000
TREAT_AS_HARD
1070
     1
  0
DICTIONARY
  5
212
330
211
100
AcDbDictionary
  3
ACAD_DIMASSOC
350
213
1001
ACAD
1000
TREAT_AS_HARD
1070
     1
  0
DICTIONARY
  5
225
330
224
100
AcDbDictionary
  3
ACAD_DIMASSOC
350
226
1001
ACAD
1000
TREAT_AS_HARD
1070
     1
  0
DICTIONARY
  5
23F
330
23E
100
AcDbDictionary
  3
ACAD_DIMASSOC
350
240
1001
ACAD
1000
TREAT_AS_HARD
1070
     1
  0
DICTIONARY
  5
264
330
263
100
AcDbDictionary
  3
ACAD_DIMASSOC
350
265
1001
ACAD
1000
TREAT_AS_HARD
1070
     1
  0
DICTIONARY
  5
275
330
274
100
AcDbDictionary
  3
ACAD_DIMASSOC
350
276
1001
ACAD
1000
TREAT_AS_HARD
1070
     1
  0
DICTIONARY
  5
2B9
330
2B8
100
AcDbDictionary
  3
ACAD_DIMASSOC
350
2BA
1001
ACAD
1000
TREAT_AS_HARD
1070
     1
  0
DICTIONARY
  5
2CE
330
2CD
100
AcDbDictionary
  3
ACAD_DIMASSOC
350
2CF
1001
ACAD
1000
TREAT_AS_HARD
1070
     1
  0
DICTIONARY
  5
308
330
307
100
AcDbDictionary
  3
ACAD_DIMASSOC
350
309
1001
ACAD
1000
TREAT_AS_HARD
1070
     1
  0
DICTIONARY
  5
324
330
323
100
AcDbDictionary
  3
ACAD_DIMASSOC
350
325
1001
ACAD
1000
TREAT_AS_HARD
1070
     1
  0
DICTIONARY
  5
335
330
334
100
AcDbDictionary
  3
ACAD_DIMASSOC
350
336
1001
ACAD
1000
TREAT_AS_HARD
1070
     1
  0
DICTIONARY
  5
34C
330
34B
100
AcDbDictionary
  3
ACAD_DIMASSOC
350
34D
1001
ACAD
1000
TREAT_AS_HARD
1070
     1
  0
DICTIONARY
  5
35D
330
35C
100
AcDbDictionary
  3
ACAD_DIMASSOC
350
35E
1001
ACAD
1000
TREAT_AS_HARD
1070
     1
  0
DICTIONARY
  5
97
102
{ACAD_REACTORS
330
8
102
}
330
8
100
AcDbDictionary
1001
ACAD
1000
TREAT_AS_HARD
1070
     0
  0
DICTIONARY
  5
C
102
{ACAD_REACTORS
330
8
102
}
330
8
100
AcDbDictionary
1001
ACAD
1000
TREAT_AS_HARD
1070
     0
  0
DICTIONARY
  5
98
102
{ACAD_REACTORS
330
8
102
}
330
8
100
AcDbDictionary
  3
STANDARD
350
9A
1001
ACAD
1000
TREAT_AS_HARD
1070
     0
  0
DICTIONARY
  5
99
102
{ACAD_REACTORS
330
8
102
}
330
8
100
AcDbDictionary
1001
ACAD
1000
TREAT_AS_HARD
1070
     0
  0
DICTIONARY
  5
14
102
{ACAD_REACTORS
330
13
102
}
330
13
100
AcDbDictionary
  3
$LAYERS
350
15
  3
-_UND_0
350
16
  3
-PEGC
350
17
  3
101
350
18
  3
102
350
19
  3
1DUC
350
1A
  3
1EQ
350
1B
  3
1TUB
350
1C
  3
2
350
1D
  3
2000
350
1E
  3
50
350
1F
  3
58J
350
20
  3
65
350
21
  3
AA
350
22
  3
ACABADOS
350
23
  3
AGUA_Y_DREN
350
24
  3
AIRE
350
25
  3
ALLE_AUS
350
26
  3
ALLES_MIT_S
350
27
  3
AMARILLO
350
28
  3
APAGADOS
350
29
  3
ARR
350
2A
  3
BA
350
2B
  3
BACKS
350
2C
  3
BASE
350
2D
  3
BLOQ_INUTIL
350
2E
  3
CADKON
350
2F
  3
CARPINTERIA
350
30
  3
CERRADOS
350
31
  3
COL
350
32
  3
COLOR
350
33
  3
COLOR_250
350
34
  3
COLORES
350
35
  3
CONGELADOS
350
36
  3
CONJUNTO
350
37
  3
D1
350
38
  3
DA_
350
39
  3
DET-
350
3A
  3
DOR-H
350
3B
  3
EJES
350
3C
  3
ELECTRICO
350
3D
  3
F1
350
3E
  3
FROZEN
350
3F
  3
GRID
350
40
  3
GRIDTXT
350
41
  3
HATCH
350
42
  3
HCAD
350
43
  3
INSTALACIONES
350
44
  3
JIZNI
350
45
  3
KCK
350
46
  3
KKK
350
47
  3
LAY
350
48
  3
LAYER-0
350
4C
  3
LAYER-1
350
4D
  3
LAYER_1_UND_0
350
49
  3
LAYER_2_UND_0
350
4A
  3
LAYER_9_UND_0_SCHRAFFUR
350
4B
  3
LOCK
350
4E
  3
LOCKED
350
4F
  3
LOTES
350
50
  3
LUNAR
350
51
  3
LUNAR2
350
52
  3
M
350
53
  3
MIS_LAYERS
350
54
  3
MRKCK
350
55
  3
NECADKON
350
56
  3
NI_LH
350
57
  3
NI_RH
350
58
  3
NUM
350
59
  3
OFF
350
5A
  3
ON
350
5B
  3
PBASE
350
5C
  3
PEGC
350
5D
  3
PEGCT
350
5E
  3
PFRAME
350
5F
  3
PGRID
350
60
  3
PGRIDT
350
61
  3
PLAFONES
350
62
  3
PLANTAS
350
63
  3
PLOT
350
64
  3
PRENDIDAS
350
65
  3
PRENDIDOS
350
66
  3
PRINT
350
67
  3
PT
350
68
  3
PTH
350
69
  3
PVGRID
350
6A
  3
RED_DE_AGUA_POTABLE
350
6B
  3
RED_DE_ENERGIA_ELECTRICA
350
6C
  3
SEVERNI
350
6D
  3
SHIN
350
6E
  3
SHOW_ALL_LAYER
350
6F
  3
SIN
350
70
  3
STORAGE-CART
350
71
  3
T
350
72
  3
TEXTOS
350
73
  3
TEXTURAS
350
74
  3
TUBERIAS
350
75
  3
UNFRZ
350
76
  3
V\U+0160ECHNY_NEPOU\U+017D\U+00CDVAN\U+00C9
350
77
  3
VA
350
78
  3
VENTILACI\U+00D3N
350
79
  3
VYHODNI
350
7A
  3
YO
350
7B
  3
ZAPADNI
350
7C
  3
사용
350
7D
  3
신규
350
7E
  3
실박스
350
7F
  3
우리토목
350
80
  3
주차
350
81
  3
지상정밀
350
82
  3
쩜선
350
83
  3
플로터_작업층
350
84
  3
현재_작업층
350
85
  3
현재_잠금
350
86
1001
ACAD
1000
TREAT_AS_HARD
1070
     1
  0
DICTIONARY
  5
87
102
{ACAD_REACTORS
330
13
102
}
330
13
100
AcDbDictionary
1001
ACAD
1000
TREAT_AS_HARD
1070
     0
  0
XRECORD
  5
4FE
102
{ACAD_REACTORS
330
3
102
}
330
3
100
AcDbXrecord
340
2
  0
XRECORD
  5
4FF
102
{ACAD_REACTORS
330
E
102
}
330
E
100
AcDbXrecord
340
D
  0
DIMASSOC
  5
CC
102
{ACAD_REACTORS
330
CB
102
}
330
CB
100
AcDbDimAssoc
330
CA
 90
        2
 70
     0
 71
     0
  1
AcDbOsnapPointRef
 72
     3
331
D8
 73
     2
 91
        0
 40
0.0
 10
-0.000000000003638
 20
0.0000000000020464
 30
0.0
 75
     0
  0
DIMASSOC
  5
AC
102
{ACAD_REACTORS
330
AB
102
}
330
AB
100
AcDbDimAssoc
330
AA
 90
        3
 70
     0
 71
     0
  1
AcDbOsnapPointRef
 72
    13
331
199
 73
     2
 91
        0
 40
0.0
 10
36.88906296374989
 20
53.99593106110524
 30
0.0
 75
     0
  1
AcDbOsnapPointRef
 72
     1
331
199
 73
     2
 91
        0
 40
1.0
 10
51.3865376468093
 20
18.99593106110524
 30
0.0
 75
     0
  0
DIMASSOC
  5
EA
102
{ACAD_REACTORS
330
E9
102
}
330
E9
100
AcDbDimAssoc
330
E8
 90
        3
 70
     0
 71
     0
  1
AcDbOsnapPointRef
 72
     1
331
345
 73
     2
 91
        0
 40
1.0
 10
169.5750799289999
 20
274.1861318945002
 30
0.0
 75
     0
  1
AcDbOsnapPointRef
 72
    13
331
2A4
 73
     2
 91
        0
 40
0.0
 10
190.1135004849202
 20
259.1861318945002
 30
0.0
 75
     0
  0
DIMASSOC
  5
106
102
{ACAD_REACTORS
330
105
102
}
330
105
100
AcDbDimAssoc
330
104
 90
        3
 70
     0
 71
     0
  1
AcDbOsnapPointRef
 72
     1
331
C7
 73
     2
 91
        0
 40
1.0
 10
173.4732187302288
 20
269.1861318944988
 30
0.0
 75
     0
  1
AcDbOsnapPointRef
 72
     6
331
C7
 73
     2
 91
        0
 40
0.0000000000000114
 10
173.4732187302288
 20
279.1861318945002
 30
0.0
332
348
 74
     2
 92
        0
 75
     0
  0
DIMASSOC
  5
133
102
{ACAD_REACTORS
330
132
102
}
330
132
100
AcDbDimAssoc
330
131
 90
        3
 70
     0
 71
     0
  1
AcDbOsnapPointRef
 72
    13
331
1D2
 73
     2
 91
        0
 40
0.0
 10
207.5294655037942
 20
88.99593106110115
 30
0.0
 75
     0
  1
AcDbOsnapPointRef
 72
     1
331
1AC
 73
     2
 91
        0
 40
1.0
 10
214.5294655037941
 20
87.5946684026303
 30
0.0
 75
     0
  0
DIMASSOC
  5
142
102
{ACAD_REACTORS
330
141
102
}
330
141
100
AcDbDimAssoc
330
140
 90
        3
 70
     0
 71
     0
  1
AcDbOsnapPointRef
 72
     1
331
1DD
 73
     2
 91
        0
 40
1.0
 10
133.5294655037796
 20
63.99593106110206
 30
0.0
 75
     0
  1
AcDbOsnapPointRef
 72
     6
331
1DD
 73
     2
 91
        0
 40
0.0000000000000114
 10
133.5294655037796
 20
73.99593106110114
 30
0.0
332
1D6
 74
     2
 92
        0
 75
     0
  0
DIMASSOC
  5
153
102
{ACAD_REACTORS
330
152
102
}
330
152
100
AcDbDimAssoc
330
151
 90
        3
 70
     0
 71
     0
  1
AcDbOsnapPointRef
 72
     1
331
1D6
 73
     2
 91
        0
 40
1.0
 10
133.5294655037796
 20
73.99593106110114
 30
0.0
 75
     0
  1
AcDbOsnapPointRef
 72
    13
331
20B
 73
     2
 91
        0
 40
0.0
 10
165.5294655037941
 20
88.49593106110114
 30
0.0
 75
     0
  0
DIMASSOC
  5
162
102
{ACAD_REACTORS
330
161
102
}
330
161
100
AcDbDimAssoc
330
160
 90
        3
 70
     0
 71
     0
  1
AcDbOsnapPointRef
 72
    13
331
20B
 73
     2
 91
        0
 40
0.0
 10
165.5294655037941
 20
88.49593106110114
 30
0.0
 75
     0
  1
AcDbOsnapPointRef
 72
    13
331
1DC
 73
     2
 91
        0
 40
0.0
 10
162.5294655037942
 20
83.49593106110114
 30
0.0
 75
     0
  0
DIMASSOC
  5
173
102
{ACAD_REACTORS
330
172
102
}
330
172
100
AcDbDimAssoc
330
171
 90
        3
 70
     0
 71
     0
  1
AcDbOsnapPointRef
 72
    13
331
20B
 73
     2
 91
        0
 40
0.0
 10
165.5294655037941
 20
88.49593106110114
 30
0.0
 75
     0
  1
AcDbOsnapPointRef
 72
    13
331
1D0
 73
     2
 91
        0
 40
0.0
 10
207.5294655037942
 20
88.49593106110114
 30
0.0
 75
     0
  0
DIMASSOC
  5
1C3
102
{ACAD_REACTORS
330
1C2
102
}
330
1C2
100
AcDbDimAssoc
330
1C1
 90
        1
 70
     0
 71
     0
  1
AcDbOsnapPointRef
 72
     1
331
1AB
 73
     2
 91
        0
 40
1.0
 10
280.5294655037942
 20
88.49593106110205
 30
0.0
 75
     0
  0
DIMASSOC
  5
1EE
102
{ACAD_REACTORS
330
1ED
102
}
330
1ED
100
AcDbDimAssoc
330
1EC
 90
        3
 70
     0
 71
     0
  1
AcDbOsnapPointRef
 72
     1
331
1D8
 73
     2
 91
        0
 40
1.0
 10
129.6313267025616
 20
68.99593106110114
 30
0.0
 75
     0
  1
AcDbOsnapPointRef
 72
    13
331
20D
 73
     2
 91
        0
 40
0.0
 10
150.1697472584819
 20
53.99593106110206
 30
0.0
 75
     0
  0
DIMASSOC
  5
1FD
102
{ACAD_REACTORS
330
1FC
102
}
330
1FC
100
AcDbDimAssoc
330
1FB
 90
        3
 70
     0
 71
     0
  1
AcDbOsnapPointRef
 72
    13
331
1D9
 73
     2
 91
        0
 40
0.0
 10
158.5294655037942
 20
73.99593106110114
 30
0.0
 75
     0
  1
AcDbOsnapPointRef
 72
     1
331
1D6
 73
     2
 91
        0
 40
1.0
 10
133.5294655037796
 20
73.99593106110114
 30
0.0
 75
     0
  0
DIMASSOC
  5
213
102
{ACAD_REACTORS
330
212
102
}
330
212
100
AcDbDimAssoc
330
211
 90
        3
 70
     0
 71
     0
  1
AcDbOsnapPointRef
 72
     1
331
C2
 73
     2
 91
        0
 40
1.0
 10
33.68380446586888
 20
232.5731436851788
 30
0.0
 75
     0
  1
AcDbOsnapPointRef
 72
     1
331
C3
 73
     2
 91
        0
 40
1.0
 10
103.6838044658688
 20
232.5731436851788
 30
0.0
 75
     0
  0
DIMASSOC
  5
226
102
{ACAD_REACTORS
330
225
102
}
330
225
100
AcDbDimAssoc
330
224
 90
        3
 70
     0
 71
     0
  1
AcDbOsnapPointRef
 72
    13
331
237
 73
     2
 91
        0
 40
0.0
 10
60.71732176139994
 20
156.4512124348989
 30
0.0
 75
     0
  1
AcDbOsnapPointRef
 72
    13
331
238
 73
     2
 91
        0
 40
0.0
 10
64.71732176139994
 20
156.4512124348989
 30
0.0
 75
     0
  0
DIMASSOC
  5
240
102
{ACAD_REACTORS
330
23F
102
}
330
23F
100
AcDbDimAssoc
330
23E
 90
        3
 70
     0
 71
     0
  1
AcDbOsnapPointRef
 72
     2
331
24F
 73
     2
 91
        0
 40
3.141592653589792
 10
18.54666847468979
 20
154.4512124348989
 30
0.0
 75
     0
  1
AcDbOsnapPointRef
 72
     1
331
24D
 73
     2
 91
        0
 40
1.0
 10
43.54666847468979
 20
156.4512124348989
 30
0.0
 75
     0
  0
DIMASSOC
  5
265
102
{ACAD_REACTORS
330
264
102
}
330
264
100
AcDbDimAssoc
330
263
 90
        3
 70
     0
 71
     0
  1
AcDbOsnapPointRef
 72
     1
331
287
 73
     2
 91
        0
 40
1.0
 10
109.6507015019415
 20
155.3509171479022
 30
0.0
 75
     0
  1
AcDbOsnapPointRef
 72
     5
331
288
 73
     2
 91
        0
 40
1.570796326794896
 10
107.6507015019415
 20
157.8509171479022
 30
0.0
 75
     0
  0
DIMASSOC
  5
276
102
{ACAD_REACTORS
330
275
102
}
330
275
100
AcDbDimAssoc
330
274
 90
        3
 70
     0
 71
     0
  1
AcDbOsnapPointRef
 72
     1
331
286
 73
     2
 91
        0
 40
1.0
 10
105.6507015019415
 20
157.4334928428579
 30
0.0
 75
     0
  1
AcDbOsnapPointRef
 72
     1
331
285
 73
     2
 91
        0
 40
1.0
 10
109.6507015019415
 20
157.4334928428579
 30
0.0
 75
     0
  0
DIMASSOC
  5
2BA
102
{ACAD_REACTORS
330
2B9
102
}
330
2B9
100
AcDbDimAssoc
330
2B8
 90
        3
 70
     0
 71
     0
  1
AcDbOsnapPointRef
 72
     1
331
115
 73
     2
 91
        0
 40
1.0
 10
247.4732187302288
 20
224.1861318945002
 30
0.0
 75
     0
  1
AcDbOsnapPointRef
 72
     1
331
C5
 73
     2
 91
        0
 40
1.0
 10
205.4732187302288
 20
224.1861318945002
 30
0.0
 75
     0
  0
DIMASSOC
  5
2CF
102
{ACAD_REACTORS
330
2CE
102
}
330
2CE
100
AcDbDimAssoc
330
2CD
 90
        3
 70
     0
 71
     0
  1
AcDbOsnapPointRef
 72
     1
331
2E0
 73
     2
 91
        0
 40
3.141592653589792
 10
42.93187159825902
 20
414.7015659062299
 30
0.0
 75
     0
  1
AcDbOsnapPointRef
 72
    13
331
2F3
 73
     2
 91
        0
 40
0.0
 10
112.931871598259
 20
414.7015659062299
 30
0.0
 75
     0
  0
DIMASSOC
  5
309
102
{ACAD_REACTORS
330
308
102
}
330
308
100
AcDbDimAssoc
330
307
 90
        1
 70
     0
 71
     0
  1
AcDbOsnapPointRef
 72
    13
331
2FE
 73
     2
 91
        0
 40
0.0
 10
167.4932336005003
 20
416.701565906229
 30
0.0
 75
     0
  0
DIMASSOC
  5
325
102
{ACAD_REACTORS
330
324
102
}
330
324
100
AcDbDimAssoc
330
323
 90
        3
 70
     0
 71
     0
  1
AcDbOsnapPointRef
 72
    13
331
2FE
 73
     2
 91
        0
 40
0.0
 10
167.4932336005003
 20
416.701565906229
 30
0.0
 75
     0
  1
AcDbOsnapPointRef
 72
    13
331
305
 73
     2
 91
        0
 40
0.0
 10
169.4932336005003
 20
419.7015659062299
 30
0.0
 75
     0
  0
DIMASSOC
  5
336
102
{ACAD_REACTORS
330
335
102
}
330
335
100
AcDbDimAssoc
330
334
 90
        3
 70
     0
 71
     0
  1
AcDbOsnapPointRef
 72
    13
331
305
 73
     2
 91
        0
 40
0.0
 10
169.4932336005003
 20
419.7015659062299
 30
0.0
 75
     0
  1
AcDbOsnapPointRef
 72
     1
331
305
 73
     2
 91
        0
 40
1.0
 10
199.4932336005003
 20
419.7015659062299
 30
0.0
 75
     0
  0
DIMASSOC
  5
34D
102
{ACAD_REACTORS
330
34C
102
}
330
34C
100
AcDbDimAssoc
330
34B
 90
        3
 70
     0
 71
     0
  1
AcDbOsnapPointRef
 72
    13
331
C5
 73
     2
 91
        0
 40
0.0
 10
205.4732187302288
 20
294.1861318945002
 30
0.0
 75
     0
  1
AcDbOsnapPointRef
 72
    13
331
C6
 73
     2
 91
        0
 40
0.0
 10
202.4732187302215
 20
288.6861318945002
 30
0.0
 75
     0
  0
DIMASSOC
  5
35E
102
{ACAD_REACTORS
330
35D
102
}
330
35D
100
AcDbDimAssoc
330
35C
 90
        3
 70
     0
 71
     0
  1
AcDbOsnapPointRef
 72
    13
331
34A
 73
     2
 91
        0
 40
0.0
 10
198.4732187302288
 20
279.1861318945011
 30
0.0
 75
     0
  1
AcDbOsnapPointRef
 72
     1
331
348
 73
     2
 91
        0
 40
1.0
 10
173.4732187302288
 20
279.1861318945002
 30
0.0
 75
     0
  0
MLINESTYLE
  5
9A
102
{ACAD_REACTORS
330
98
102
}
330
98
100
AcDbMlineStyle
  2
STANDARD
 70
     0
  3

 62
   256
 51
90.0
 52
90.0
 71
     2
 49
0.5
 62
   256
  6
BYLAYER
 49
-0.5
 62
   256
  6
BYLAYER
  0
XRECORD
  5
15
102
{ACAD_REACTORS
330
14
102
}
330
14
100
AcDbXrecord
  1
$layers
  1
*
  1
*
  1
*
 70
     0
  1
*
  1
*
  0
XRECORD
  5
16
102
{ACAD_REACTORS
330
14
102
}
330
14
100
AcDbXrecord
  1
- und 0
  1
-*,0
  1
*
  1
*
 70
     0
  1
*
  1
*
  0
XRECORD
  5
17
102
{ACAD_REACTORS
330
14
102
}
330
14
100
AcDbXrecord
  1
-pegc
  1
*-pegc
  1
*
  1
*
 70
     0
  1
*
  1
*
  0
XRECORD
  5
18
102
{ACAD_REACTORS
330
14
102
}
330
14
100
AcDbXrecord
  1
101
  1
*101
  1
*
  1
*
 70
   256
  1
*
  1
*
  0
XRECORD
  5
19
102
{ACAD_REACTORS
330
14
102
}
330
14
100
AcDbXrecord
  1
102
  1
102*
  1
*
  1
*
 70
     0
  1
*
  1
*
  0
XRECORD
  5
1A
102
{ACAD_REACTORS
330
14
102
}
330
14
100
AcDbXrecord
  1
1duc
  1
*1duc*
  1
*
  1
*
 70
     0
  1
*
  1
*
  0
XRECORD
  5
1B
102
{ACAD_REACTORS
330
14
102
}
330
14
100
AcDbXrecord
  1
1eq
  1
*1eq*
  1
*
  1
*
 70
     0
  1
*
  1
*
  0
XRECORD
  5
1C
102
{ACAD_REACTORS
330
14
102
}
330
14
100
AcDbXrecord
  1
1tub
  1
*1t*
  1
*
  1
*
 70
     0
  1
*
  1
*
  0
XRECORD
  5
1D
102
{ACAD_REACTORS
330
14
102
}
330
14
100
AcDbXrecord
  1
2
  1
*
  1
2
  1
*
 70
     0
  1
*
  1
*
  0
XRECORD
  5
1E
102
{ACAD_REACTORS
330
14
102
}
330
14
100
AcDbXrecord
  1
2000
  1
2000*
  1
*
  1
*
 70
     0
  1
*
  1
*
  0
XRECORD
  5
1F
102
{ACAD_REACTORS
330
14
102
}
330
14
100
AcDbXrecord
  1
50
  1
*-50
  1
*
  1
*
 70
     0
  1
*
  1
*
  0
XRECORD
  5
20
102
{ACAD_REACTORS
330
14
102
}
330
14
100
AcDbXrecord
  1
58J
  1
*58*
  1
*
  1
*
 70
     0
  1
*
  1
*
  0
XRECORD
  5
21
102
{ACAD_REACTORS
330
14
102
}
330
14
100
AcDbXrecord
  1
65
  1
*65
  1
*
  1
*
 70
     0
  1
*
  1
*
  0
XRECORD
  5
22
102
{ACAD_REACTORS
330
14
102
}
330
14
100
AcDbXrecord
  1
aa
  1
aa*
  1
*
  1
*
 70
     0
  1
*
  1
*
  0
XRECORD
  5
23
102
{ACAD_REACTORS
330
14
102
}
330
14
100
AcDbXrecord
  1
acabados
  1
a-*
  1
*
  1
*
 70
     5
  1
*
  1
*
  0
XRECORD
  5
24
102
{ACAD_REACTORS
330
14
102
}
330
14
100
AcDbXrecord
  1
AGUA Y DREN
  1
A-DS-*
  1
*
  1
*
 70
     0
  1
*
  1
*
  0
XRECORD
  5
25
102
{ACAD_REACTORS
330
14
102
}
330
14
100
AcDbXrecord
  1
Aire
  1
*
  1
*
  1
*
 70
     0
  1
*
  1
*
  0
XRECORD
  5
26
102
{ACAD_REACTORS
330
14
102
}
330
14
100
AcDbXrecord
  1
alle aus
  1
99999999999
  1
*
  1
*
 70
     0
  1
*
  1
*
  0
XRECORD
  5
27
102
{ACAD_REACTORS
330
14
102
}
330
14
100
AcDbXrecord
  1
Alles mit S
  1
s*
  1
*
  1
*
 70
     0
  1
*
  1
*
  0
XRECORD
  5
28
102
{ACAD_REACTORS
330
14
102
}
330
14
100
AcDbXrecord
  1
amarillo
  1
*
  1
yellow
  1
*
 70
     0
  1
*
  1
*
  0
XRECORD
  5
29
102
{ACAD_REACTORS
330
14
102
}
330
14
100
AcDbXrecord
  1
APAGADOS
  1
*
  1
*
  1
*
 70
     4
  1
*
  1
*
  0
XRECORD
  5
2A
102
{ACAD_REACTORS
330
14
102
}
330
14
100
AcDbXrecord
  1
ARR
  1
ARR*
  1
*
  1
*
 70
     0
  1
*
  1
*
  0
XRECORD
  5
2B
102
{ACAD_REACTORS
330
14
102
}
330
14
100
AcDbXrecord
  1
ba
  1
*
  1
*
  1
*
 70
     0
  1
*
  1
*
  0
XRECORD
  5
2C
102
{ACAD_REACTORS
330
14
102
}
330
14
100
AcDbXrecord
  1
BACKS
  1
*-H
  1
*
  1
*
 70
     0
  1
*
  1
*
  0
XRECORD
  5
2D
102
{ACAD_REACTORS
330
14
102
}
330
14
100
AcDbXrecord
  1
BASE
  1
*-PBASE
  1
*
  1
*
 70
     0
  1
*
  1
*
  0
XRECORD
  5
2E
102
{ACAD_REACTORS
330
14
102
}
330
14
100
AcDbXrecord
  1
BLOQ_INUTIL
  1
*
  1
*
  1
*
 70
     0
  1
*
  1
*
  0
XRECORD
  5
2F
102
{ACAD_REACTORS
330
14
102
}
330
14
100
AcDbXrecord
  1
CADKON
  1
?[KAHBSM]?????[23M],?[KAHBSM]?????[23M][1456A-DGHILN-SU-Z]
  1
*
  1
*
 70
     0
  1
*
  1
*
  0
XRECORD
  5
30
102
{ACAD_REACTORS
330
14
102
}
330
14
100
AcDbXrecord
  1
carpinteria
  1
carp*
  1
*
  1
*
 70
     0
  1
*
  1
*
  0
XRECORD
  5
31
102
{ACAD_REACTORS
330
14
102
}
330
14
100
AcDbXrecord
  1
cerrados
  1
*
  1
*
  1
*
 70
   256
  1
*
  1
*
  0
XRECORD
  5
32
102
{ACAD_REACTORS
330
14
102
}
330
14
100
AcDbXrecord
  1
COL
  1
*
  1
*
  1
*
 70
     1
  1
*
  1
*
  0
XRECORD
  5
33
102
{ACAD_REACTORS
330
14
102
}
330
14
100
AcDbXrecord
  1
COLOR
  1
*
  1
253
  1
*
 70
     0
  1
*
  1
*
  0
XRECORD
  5
34
102
{ACAD_REACTORS
330
14
102
}
330
14
100
AcDbXrecord
  1
color 250
  1
*
  1
250
  1
*
 70
     0
  1
*
  1
*
  0
XRECORD
  5
35
102
{ACAD_REACTORS
330
14
102
}
330
14
100
AcDbXrecord
  1
COLORES
  1
*
  1
6
  1
*
 70
     0
  1
*
  1
*
  0
XRECORD
  5
36
102
{ACAD_REACTORS
330
14
102
}
330
14
100
AcDbXrecord
  1
Congelados
  1
*
  1
*
  1
*
 70
     4
  1
*
  1
*
  0
XRECORD
  5
37
102
{ACAD_REACTORS
330
14
102
}
330
14
100
AcDbXrecord
  1
CONJUNTO
  1
CON-*
  1
*
  1
*
 70
     0
  1
*
  1
*
  0
XRECORD
  5
38
102
{ACAD_REACTORS
330
14
102
}
330
14
100
AcDbXrecord
  1
d1
  1
achurados
  1
*
  1
*
 70
     0
  1
*
  1
*
  0
XRECORD
  5
39
102
{ACAD_REACTORS
330
14
102
}
330
14
100
AcDbXrecord
  1
DA_
  1
DA*
  1
*
  1
*
 70
     0
  1
*
  1
*
  0
XRECORD
  5
3A
102
{ACAD_REACTORS
330
14
102
}
330
14
100
AcDbXrecord
  1
DET-
  1
*
  1
*
  1
*
 70
     0
  1
*
  1
*
  0
XRECORD
  5
3B
102
{ACAD_REACTORS
330
14
102
}
330
14
100
AcDbXrecord
  1
DOR-H
  1
*
  1
7
  1
*
 70
     0
  1
*
  1
*
  0
XRECORD
  5
3C
102
{ACAD_REACTORS
330
14
102
}
330
14
100
AcDbXrecord
  1
ejes
  1
eje*
  1
*
  1
*
 70
     0
  1
*
  1
*
  0
XRECORD
  5
3D
102
{ACAD_REACTORS
330
14
102
}
330
14
100
AcDbXrecord
  1
ELECTRICO
  1
ELEC-*
  1
*
  1
*
 70
     0
  1
*
  1
*
  0
XRECORD
  5
3E
102
{ACAD_REACTORS
330
14
102
}
330
14
100
AcDbXrecord
  1
F1
  1
Halaxref*
  1
*
  1
*
 70
     0
  1
*
  1
*
  0
XRECORD
  5
3F
102
{ACAD_REACTORS
330
14
102
}
330
14
100
AcDbXrecord
  1
frozen
  1
*
  1
*
  1
*
 70
     4
  1
*
  1
*
  0
XRECORD
  5
40
102
{ACAD_REACTORS
330
14
102
}
330
14
100
AcDbXrecord
  1
grid
  1
*-PGRID
  1
*
  1
*
 70
     1
  1
*
  1
*
  0
XRECORD
  5
41
102
{ACAD_REACTORS
330
14
102
}
330
14
100
AcDbXrecord
  1
GRIDTXT
  1
*-PGRIDT
  1
*
  1
*
 70
     0
  1
*
  1
*
  0
XRECORD
  5
42
102
{ACAD_REACTORS
330
14
102
}
330
14
100
AcDbXrecord
  1
HATCH
  1
HAT*
  1
*
  1
*
 70
     0
  1
*
  1
*
  0
XRECORD
  5
43
102
{ACAD_REACTORS
330
14
102
}
330
14
100
AcDbXrecord
  1
HCAD
  1
1HCAD-*
  1
*
  1
*
 70
    13
  1
*
  1
*
  0
XRECORD
  5
44
102
{ACAD_REACTORS
330
14
102
}
330
14
100
AcDbXrecord
  1
INSTALACIONES
  1
I-*
  1
*
  1
*
 70
     0
  1
*
  1
*
  0
XRECORD
  5
45
102
{ACAD_REACTORS
330
14
102
}
330
14
100
AcDbXrecord
  1
JIZNI
  1
*-J
  1
*
  1
*
 70
     0
  1
*
  1
*
  0
XRECORD
  5
46
102
{ACAD_REACTORS
330
14
102
}
330
14
100
AcDbXrecord
  1
kck
  1
*
  1
*
  1
*
 70
     0
  1
*
  1
*
  0
XRECORD
  5
47
102
{ACAD_REACTORS
330
14
102
}
330
14
100
AcDbXrecord
  1
kkk
  1
k
  1
*
  1
*
 70
     0
  1
*
  1
*
  0
XRECORD
  5
48
102
{ACAD_REACTORS
330
14
102
}
330
14
100
AcDbXrecord
  1
lay
  1
??-*
  1
*
  1
*
 70
     0
  1
*
  1
*
  0
XRECORD
  5
4C
102
{ACAD_REACTORS
330
14
102
}
330
14
100
AcDbXrecord
  1
Layer-0
  1
0*
  1
*
  1
*
 70
     0
  1
*
  1
*
  0
XRECORD
  5
4D
102
{ACAD_REACTORS
330
14
102
}
330
14
100
AcDbXrecord
  1
Layer-1
  1
1*
  1
*
  1
*
 70
     0
  1
*
  1
*
  0
XRECORD
  5
49
102
{ACAD_REACTORS
330
14
102
}
330
14
100
AcDbXrecord
  1
Layer 1 und 0
  1
1*,0
  1
*
  1
*
 70
     0
  1
*
  1
*
  0
XRECORD
  5
4A
102
{ACAD_REACTORS
330
14
102
}
330
14
100
AcDbXrecord
  1
Layer 2 und 0
  1
2*,0
  1
*
  1
*
 70
     0
  1
*
  1
*
  0
XRECORD
  5
4B
102
{ACAD_REACTORS
330
14
102
}
330
14
100
AcDbXrecord
  1
Layer 9 und 0 Schraffur
  1
9*,0
  1
*
  1
*
 70
     0
  1
*
  1
*
  0
XRECORD
  5
4E
102
{ACAD_REACTORS
330
14
102
}
330
14
100
AcDbXrecord
  1
LOCK
  1
*
  1
*
  1
*
 70
   256
  1
*
  1
*
  0
XRECORD
  5
4F
102
{ACAD_REACTORS
330
14
102
}
330
14
100
AcDbXrecord
  1
locked
  1
*
  1
*
  1
*
 70
   256
  1
*
  1
*
  0
XRECORD
  5
50
102
{ACAD_REACTORS
330
14
102
}
330
14
100
AcDbXrecord
  1
Lotes
  1
*
  1
*
  1
*
 70
     1
  1
*
  1
*
  0
XRECORD
  5
51
102
{ACAD_REACTORS
330
14
102
}
330
14
100
AcDbXrecord
  1
LUNAR
  1
*
  1
*
  1
*
 70
    48
  1
*
  1
*
  0
XRECORD
  5
52
102
{ACAD_REACTORS
330
14
102
}
330
14
100
AcDbXrecord
  1
LUNAR2
  1
*
  1
*
  1
*
 70
    12
  1
*
  1
*
  0
XRECORD
  5
53
102
{ACAD_REACTORS
330
14
102
}
330
14
100
AcDbXrecord
  1
M
  1
M*
  1
*
  1
*
 70
     0
  1
*
  1
*
  0
XRECORD
  5
54
102
{ACAD_REACTORS
330
14
102
}
330
14
100
AcDbXrecord
  1
mis_layers
  1
mis_*
  1
*
  1
*
 70
     0
  1
*
  1
*
  0
XRECORD
  5
55
102
{ACAD_REACTORS
330
14
102
}
330
14
100
AcDbXrecord
  1
MRKCK
  1
*
  1
*
  1
*
 70
     0
  1
*
  1
*
  0
XRECORD
  5
56
102
{ACAD_REACTORS
330
14
102
}
330
14
100
AcDbXrecord
  1
NECADKON
  1
~*?[KAHBSM]?????[23M]*
  1
*
  1
*
 70
     0
  1
*
  1
*
  0
XRECORD
  5
57
102
{ACAD_REACTORS
330
14
102
}
330
14
100
AcDbXrecord
  1
NI_LH
  1
NI_LH*
  1
*
  1
*
 70
     0
  1
*
  1
*
  0
XRECORD
  5
58
102
{ACAD_REACTORS
330
14
102
}
330
14
100
AcDbXrecord
  1
NI_RH
  1
NI_RH*
  1
*
  1
*
 70
     0
  1
*
  1
*
  0
XRECORD
  5
59
102
{ACAD_REACTORS
330
14
102
}
330
14
100
AcDbXrecord
  1
NUM
  1
NUM*
  1
*
  1
*
 70
     0
  1
*
  1
*
  0
XRECORD
  5
5A
102
{ACAD_REACTORS
330
14
102
}
330
14
100
AcDbXrecord
  1
off
  1
*
  1
*
  1
*
 70
     3
  1
*
  1
*
  0
XRECORD
  5
5B
102
{ACAD_REACTORS
330
14
102
}
330
14
100
AcDbXrecord
  1
on
  1
*
  1
*
  1
*
 70
     0
  1
*
  1
*
  0
XRECORD
  5
5C
102
{ACAD_REACTORS
330
14
102
}
330
14
100
AcDbXrecord
  1
PBASE
  1
*PBASE
  1
*
  1
*
 70
     0
  1
*
  1
*
  0
XRECORD
  5
5D
102
{ACAD_REACTORS
330
14
102
}
330
14
100
AcDbXrecord
  1
PEGC
  1
*PEGC
  1
*
  1
*
 70
     0
  1
*
  1
*
  0
XRECORD
  5
5E
102
{ACAD_REACTORS
330
14
102
}
330
14
100
AcDbXrecord
  1
PEGCT
  1
*PEGCT
  1
*
  1
*
 70
     0
  1
*
  1
*
  0
XRECORD
  5
5F
102
{ACAD_REACTORS
330
14
102
}
330
14
100
AcDbXrecord
  1
PFRAME
  1
PFRAME*
  1
*
  1
*
 70
     0
  1
*
  1
*
  0
XRECORD
  5
60
102
{ACAD_REACTORS
330
14
102
}
330
14
100
AcDbXrecord
  1
PGRID
  1
*PGRID
  1
*
  1
*
 70
     0
  1
*
  1
*
  0
XRECORD
  5
61
102
{ACAD_REACTORS
330
14
102
}
330
14
100
AcDbXrecord
  1
PGRIDT
  1
*PGRIDT
  1
*
  1
*
 70
     0
  1
*
  1
*
  0
XRECORD
  5
62
102
{ACAD_REACTORS
330
14
102
}
330
14
100
AcDbXrecord
  1
PLAFONES
  1
0-*
  1
*
  1
*
 70
     0
  1
*
  1
*
  0
XRECORD
  5
63
102
{ACAD_REACTORS
330
14
102
}
330
14
100
AcDbXrecord
  1
PLANTAS
  1
P-*
  1
*
  1
*
 70
     0
  1
*
  1
*
  0
XRECORD
  5
64
102
{ACAD_REACTORS
330
14
102
}
330
14
100
AcDbXrecord
  1
Plot
  1
*
  1
*
  1
*
 70
  1024
  1
*
  1
*
  0
XRECORD
  5
65
102
{ACAD_REACTORS
330
14
102
}
330
14
100
AcDbXrecord
  1
PRENDIDAS
  1
*
  1
*
  1
*
 70
    13
  1
*
  1
*
  0
XRECORD
  5
66
102
{ACAD_REACTORS
330
14
102
}
330
14
100
AcDbXrecord
  1
PRENDIDOS
  1
*
  1
*
  1
*
 70
    12
  1
*
  1
*
  0
XRECORD
  5
67
102
{ACAD_REACTORS
330
14
102
}
330
14
100
AcDbXrecord
  1
print
  1
*
  1
7
  1
*
 70
  1280
  1
*
  1
*
  0
XRECORD
  5
68
102
{ACAD_REACTORS
330
14
102
}
330
14
100
AcDbXrecord
  1
PT
  1
PT-*
  1
*
  1
*
 70
     0
  1
*
  1
*
  0
XRECORD
  5
69
102
{ACAD_REACTORS
330
14
102
}
330
14
100
AcDbXrecord
  1
PTH
  1
PTH*
  1
*
  1
*
 70
     0
  1
*
  1
*
  0
XRECORD
  5
6A
102
{ACAD_REACTORS
330
14
102
}
330
14
100
AcDbXrecord
  1
PVGRID
  1
*PVGRID
  1
*
  1
*
 70
     0
  1
*
  1
*
  0
XRECORD
  5
6B
102
{ACAD_REACTORS
330
14
102
}
330
14
100
AcDbXrecord
  1
Red de Agua Potable
  1
Red de Agua Potable
  1
*
  1
*
 70
     1
  1
*
  1
*
  0
XRECORD
  5
6C
102
{ACAD_REACTORS
330
14
102
}
330
14
100
AcDbXrecord
  1
Red de Energia Electrica
  1
Lotes
  1
*
  1
*
 70
     1
  1
*
  1
*
  0
XRECORD
  5
6D
102
{ACAD_REACTORS
330
14
102
}
330
14
100
AcDbXrecord
  1
SEVERNI
  1
*-S
  1
*
  1
*
 70
     0
  1
*
  1
*
  0
XRECORD
  5
6E
102
{ACAD_REACTORS
330
14
102
}
330
14
100
AcDbXrecord
  1
shin
  1
일*
  1
*
  1
*
 70
     0
  1
*
  1
*
  0
XRECORD
  5
6F
102
{ACAD_REACTORS
330
14
102
}
330
14
100
AcDbXrecord
  1
SHOW ALL LAYER
  1
*
  1
*
  1
*
 70
     0
  1
*
  1
*
  0
XRECORD
  5
70
102
{ACAD_REACTORS
330
14
102
}
330
14
100
AcDbXrecord
  1
sin
  1
sin
  1
*
  1
*
 70
     0
  1
*
  1
*
  0
XRECORD
  5
71
102
{ACAD_REACTORS
330
14
102
}
330
14
100
AcDbXrecord
  1
STORAGE-CART
  1
STORAGE-CART*
  1
*
  1
*
 70
     0
  1
*
  1
*
  0
XRECORD
  5
72
102
{ACAD_REACTORS
330
14
102
}
330
14
100
AcDbXrecord
  1
T
  1
T*
  1
*
  1
*
 70
     0
  1
*
  1
*
  0
XRECORD
  5
73
102
{ACAD_REACTORS
330
14
102
}
330
14
100
AcDbXrecord
  1
TEXTOS
  1
TXT*
  1
*
  1
*
 70
     0
  1
*
  1
*
  0
XRECORD
  5
74
102
{ACAD_REACTORS
330
14
102
}
330
14
100
AcDbXrecord
  1
TEXTURAS
  1
*TEXTURAS
  1
*
  1
*
 70
     0
  1
*
  1
*
  0
XRECORD
  5
75
102
{ACAD_REACTORS
330
14
102
}
330
14
100
AcDbXrecord
  1
TUBERIAS
  1
T*
  1
*
  1
*
 70
     0
  1
*
  1
*
  0
XRECORD
  5
76
102
{ACAD_REACTORS
330
14
102
}
330
14
100
AcDbXrecord
  1
UNFRZ
  1
*
  1
*
  1
*
 70
    12
  1
*
  1
*
  0
XRECORD
  5
77
102
{ACAD_REACTORS
330
14
102
}
330
14
100
AcDbXrecord
  1
v\U+0161echny nepou\U+017E\U+00EDvan\U+00E9
  1
*
  1
*
  1
*
 70
     0
  1
*
  1
*
  0
XRECORD
  5
78
102
{ACAD_REACTORS
330
14
102
}
330
14
100
AcDbXrecord
  1
VA
  1
VA*
  1
*
  1
*
 70
     0
  1
*
  1
*
  0
XRECORD
  5
79
102
{ACAD_REACTORS
330
14
102
}
330
14
100
AcDbXrecord
  1
Ventilaci\U+00F3n
  1
*
  1
*
  1
*
 70
     0
  1
*
  1
*
  0
XRECORD
  5
7A
102
{ACAD_REACTORS
330
14
102
}
330
14
100
AcDbXrecord
  1
VYHODNI
  1
*-V
  1
*
  1
*
 70
     0
  1
*
  1
*
  0
XRECORD
  5
7B
102
{ACAD_REACTORS
330
14
102
}
330
14
100
AcDbXrecord
  1
Yo
  1
Muros
  1
*
  1
*
 70
     0
  1
*
  1
*
  0
XRECORD
  5
7C
102
{ACAD_REACTORS
330
14
102
}
330
14
100
AcDbXrecord
  1
ZAPADNI
  1
*-Z
  1
*
  1
*
 70
     0
  1
*
  1
*
  0
XRECORD
  5
7D
102
{ACAD_REACTORS
330
14
102
}
330
14
100
AcDbXrecord
  1
사용
  1
*
  1
*
  1
*
 70
   256
  1
*
  1
*
  0
XRECORD
  5
7E
102
{ACAD_REACTORS
330
14
102
}
330
14
100
AcDbXrecord
  1
신규
  1
신규
  1
*
  1
*
 70
     0
  1
*
  1
*
  0
XRECORD
  5
7F
102
{ACAD_REACTORS
330
14
102
}
330
14
100
AcDbXrecord
  1
실박스
  1
BLO,SYM,SYM1,SYM2
  1
*
  1
*
 70
     0
  1
*
  1
*
  0
XRECORD
  5
80
102
{ACAD_REACTORS
330
14
102
}
330
14
100
AcDbXrecord
  1
우리토목
  1
w-*
  1
*
  1
*
 70
     0
  1
*
  1
*
  0
XRECORD
  5
81
102
{ACAD_REACTORS
330
14
102
}
330
14
100
AcDbXrecord
  1
주차
  1
car*
  1
*
  1
*
 70
     0
  1
*
  1
*
  0
XRECORD
  5
82
102
{ACAD_REACTORS
330
14
102
}
330
14
100
AcDbXrecord
  1
지상정밀
  1
*
  1
*
  1
*
 70
     0
  1
*
  1
*
  0
XRECORD
  5
83
102
{ACAD_REACTORS
330
14
102
}
330
14
100
AcDbXrecord
  1
쩜선
  1
*
  1
*
  1
*
 70
     0
  1
*
  1
*
  0
XRECORD
  5
84
102
{ACAD_REACTORS
330
14
102
}
330
14
100
AcDbXrecord
  1
플로터 작업층
  1
*
  1
*
  1
*
 70
  1025
  1
*
  1
*
  0
XRECORD
  5
85
102
{ACAD_REACTORS
330
14
102
}
330
14
100
AcDbXrecord
  1
현재 작업층
  1
*
  1
*
  1
*
 70
     1
  1
*
  1
*
  0
XRECORD
  5
86
102
{ACAD_REACTORS
330
14
102
}
330
14
100
AcDbXrecord
  1
현재 잠금
  1
*
  1
*
  1
*
 70
   257
  1
*
  1
*
  0
ENDSEC
  0
EOF
