  0
SECTION
  2
HEADER
  9
$ACADVER
  1
AC1012
  9
$DWGCODEPAGE
  3
ksc5601
  9
$INSBASE
 10
21416.65172752938
 20
-1626.293598466406
 30
0.0
  9
$EXTMIN
 10
-2.836827856881427
 20
-3.795520139763539
 30
-0.0000000000119164
  9
$EXTMAX
 10
313.1747069564589
 20
387.3211715276302
 30
0.0000000000664171
  9
$LIMMIN
 10
0.0
 20
0.0
  9
$LIMMAX
 10
420.0
 20
297.0
  9
$ORTHOMODE
 70
     0
  9
$REGENMODE
 70
     1
  9
$FILLMODE
 70
     1
  9
$QTEXTMODE
 70
     0
  9
$MIRRTEXT
 70
     0
  9
$DRAGMODE
 70
     2
  9
$LTSCALE
 40
0.2
  9
$OSMODE
 70
   567
  9
$ATTMODE
 70
     1
  9
$TEXTSIZE
 40
5.777225951253058
  9
$TRACEWID
 40
1.0
  9
$TEXTSTYLE
  7
STANDARD
  9
$CLAYER
  8
0
  9
$CELTYPE
  6
BYLAYER
  9
$CECOLOR
 62
   256
  9
$CELTSCALE
 40
1.0
  9
$DELOBJ
 70
     1
  9
$DISPSILH
 70
     0
  9
$DIMSCALE
 40
1.0
  9
$DIMASZ
 40
3.0
  9
$DIMEXO
 40
1.0
  9
$DIMDLI
 40
10.0
  9
$DIMRND
 40
0.0
  9
$DIMDLE
 40
0.0
  9
$DIMEXE
 40
0.6
  9
$DIMTP
 40
0.0
  9
$DIMTM
 40
0.0
  9
$DIMTXT
 40
3.5
  9
$DIMCEN
 40
0.09
  9
$DIMTSZ
 40
0.0
  9
$DIMTOL
 70
     0
  9
$DIMLIM
 70
     0
  9
$DIMTIH
 70
     0
  9
$DIMTOH
 70
     0
  9
$DIMSE1
 70
     0
  9
$DIMSE2
 70
     0
  9
$DIMTAD
 70
     1
  9
$DIMZIN
 70
     8
  9
$DIMBLK
  1

  9
$DIMASO
 70
     1
  9
$DIMSHO
 70
     1
  9
$DIMPOST
  1

  9
$DIMAPOST
  1

  9
$DIMALT
 70
     0
  9
$DIMALTD
 70
     2
  9
$DIMALTF
 40
25.4
  9
$DIMLFAC
 40
1.0
  9
$DIMTOFL
 70
     1
  9
$DIMTVP
 40
0.0
  9
$DIMTIX
 70
     1
  9
$DIMSOXD
 70
     0
  9
$DIMSAH
 70
     0
  9
$DIMBLK1
  1

  9
$DIMBLK2
  1

  9
$DIMSTYLE
  2
1_1_2
  9
$DIMCLRD
 70
   123
  9
$DIMCLRE
 70
   123
  9
$DIMCLRT
 70
     3
  9
$DIMTFAC
 40
1.0
  9
$DIMGAP
 40
1.0
  9
$DIMJUST
 70
     0
  9
$DIMSD1
 70
     0
  9
$DIMSD2
 70
     0
  9
$DIMTOLJ
 70
     1
  9
$DIMTZIN
 70
     0
  9
$DIMALTZ
 70
     0
  9
$DIMALTTZ
 70
     0
  9
$DIMFIT
 70
     0
  9
$DIMUPT
 70
     1
  9
$DIMUNIT
 70
     2
  9
$DIMDEC
 70
     2
  9
$DIMTDEC
 70
     2
  9
$DIMALTU
 70
     2
  9
$DIMALTTD
 70
     2
  9
$DIMTXSTY
  7
STANDARD
  9
$DIMAUNIT
 70
     1
  9
$LUNITS
 70
     2
  9
$LUPREC
 70
     4
  9
$SKETCHINC
 40
1.0
  9
$FILLETRAD
 40
0.5
  9
$AUNITS
 70
     0
  9
$AUPREC
 70
     0
  9
$MENU
  1
.
  9
$ELEVATION
 40
0.0
  9
$PELEVATION
 40
0.0
  9
$THICKNESS
 40
0.0
  9
$LIMCHECK
 70
     0
  9
$BLIPMODE
 70
     1
  9
$CHAMFERA
 40
1.0
  9
$CHAMFERB
 40
1.0
  9
$CHAMFERC
 40
20.0
  9
$CHAMFERD
 40
0.0
  9
$SKPOLY
 70
     0
  9
$TDCREATE
 40
2452839.586179271
  9
$TDUPDATE
 40
2453376.706473692
  9
$TDINDWG
 40
11.1191996991
  9
$TDUSRTIMER
 40
11.1191995255
  9
$USRTIMER
 70
     1
  9
$ANGBASE
 50
0.0
  9
$ANGDIR
 70
     0
  9
$PDMODE
 70
     0
  9
$PDSIZE
 40
0.0
  9
$PLINEWID
 40
0.0
  9
$COORDS
 70
     2
  9
$SPLFRAME
 70
     0
  9
$SPLINETYPE
 70
     6
  9
$SPLINESEGS
 70
   800
  9
$ATTDIA
 70
     0
  9
$ATTREQ
 70
     1
  9
$HANDLING
 70
 22529
  9
$HANDSEED
  5
4A1
  9
$SURFTAB1
 70
     6
  9
$SURFTAB2
 70
     6
  9
$SURFTYPE
 70
     6
  9
$SURFU
 70
     6
  9
$SURFV
 70
     6
  9
$UCSNAME
  2

  9
$UCSORG
 10
0.0
 20
0.0
 30
0.0
  9
$UCSXDIR
 10
1.0
 20
0.0
 30
0.0
  9
$UCSYDIR
 10
0.0
 20
1.0
 30
0.0
  9
$PUCSNAME
  2

  9
$PUCSORG
 10
0.0
 20
0.0
 30
0.0
  9
$PUCSXDIR
 10
1.0
 20
0.0
 30
0.0
  9
$PUCSYDIR
 10
0.0
 20
1.0
 30
0.0
  9
$USERI1
 70
     0
  9
$USERI2
 70
     0
  9
$USERI3
 70
     0
  9
$USERI4
 70
     0
  9
$USERI5
 70
     0
  9
$USERR1
 40
0.0
  9
$USERR2
 40
0.0
  9
$USERR3
 40
0.0
  9
$USERR4
 40
0.0
  9
$USERR5
 40
0.0
  9
$WORLDVIEW
 70
     1
  9
$SHADEDGE
 70
     3
  9
$SHADEDIF
 70
    70
  9
$TILEMODE
 70
     1
  9
$MAXACTVP
 70
    48
  9
$PINSBASE
 10
0.0
 20
0.0
 30
0.0
  9
$PLIMCHECK
 70
     0
  9
$PEXTMIN
 10
0.0
 20
0.0
 30
0.0
  9
$PEXTMAX
 10
0.0
 20
0.0
 30
0.0
  9
$PLIMMIN
 10
0.0
 20
0.0
  9
$PLIMMAX
 10
12.0
 20
9.0
  9
$UNITMODE
 70
     0
  9
$VISRETAIN
 70
     1
  9
$PLINEGEN
 70
     0
  9
$PSLTSCALE
 70
     1
  9
$TREEDEPTH
 70
  3020
  9
$PICKSTYLE
 70
     0
  9
$CMLSTYLE
  2
STANDARD
  9
$CMLJUST
 70
     0
  9
$CMLSCALE
 40
20.0
  9
$SAVEIMAGES
 70
     1
  0
ENDSEC
  0
SECTION
  2
CLASSES
  0
CLASS
  1
ACDBDICTIONARYWDFLT
  2
AcDbDictionaryWithDefault
  3
AutoCAD 2000
 90
    32768
280
     0
281
     0
  0
CLASS
  1
ACDBPLACEHOLDER
  2
AcDbPlaceHolder
  3
AutoCAD 2000
 90
    32768
280
     0
281
     0
  0
CLASS
  1
LAYOUT
  2
AcDbLayout
  3
AutoCAD 2000
 90
    32768
280
     0
281
     0
  0
CLASS
  1
DICTIONARYVAR
  2
AcDbDictionaryVar
  3
AutoCAD 2000
 90
    32768
280
     0
281
     0
  0
CLASS
  1
DIMASSOC
  2
AcDbDimAssoc
  3
"AcDbDimAssoc|Product Desc:     AcDim ARX App For Dimension|Company:          Autodesk, Inc.|WEB Address:      www.autodesk.com"
 90
    32768
280
     0
281
     0
  0
CLASS
  1
LONG_TRANSACTION
  2
AcDbLongTransaction
  3
AutoCAD 2000
 90
    32768
280
     0
281
     0
  0
CLASS
  1
LWPOLYLINE
  2
AcDbPolyline
  3
AutoCAD 2000
 90
    32768
280
     0
281
     1
  0
CLASS
  1
HATCH
  2
AcDbHatch
  3
AutoCAD 2000
 90
    32768
280
     0
281
     1
  0
CLASS
  1
XRECORD
  2
AcDbXrecord
  3
AutoCAD 2000
 90
    32768
280
     0
281
     0
  0
CLASS
  1
LONG_TRANSACTION
  2
AcDbLongTransaction
  3
AutoCAD 2000
 90
    32768
280
     0
281
     0
  0
CLASS
  1
LWPOLYLINE
  2
AcDbPolyline
  3
AutoCAD 2000
 90
    32768
280
     0
281
     1
  0
CLASS
  1
HATCH
  2
AcDbHatch
  3
AutoCAD 2000
 90
    32768
280
     0
281
     1
  0
CLASS
  1
XRECORD
  2
AcDbXrecord
  3
AutoCAD 2000
 90
    32768
280
     0
281
     0
  0
CLASS
  1
LONG_TRANSACTION
  2
AcDbLongTransaction
  3
AutoCAD 2000
 90
    32768
280
     0
281
     0
  0
CLASS
  1
LWPOLYLINE
  2
AcDbPolyline
  3
AutoCAD 2000
 90
    32768
280
     0
281
     1
  0
CLASS
  1
HATCH
  2
AcDbHatch
  3
AutoCAD 2000
 90
    32768
280
     0
281
     1
  0
CLASS
  1
XRECORD
  2
AcDbXrecord
  3
AutoCAD 2000
 90
    32768
280
     0
281
     0
  0
CLASS
  1
LONG_TRANSACTION
  2
AcDbLongTransaction
  3
AutoCAD 2000
 90
    32768
280
     0
281
     0
  0
CLASS
  1
LWPOLYLINE
  2
AcDbPolyline
  3
AutoCAD 2000
 90
    32768
280
     0
281
     1
  0
CLASS
  1
HATCH
  2
AcDbHatch
  3
AutoCAD 2000
 90
    32768
280
     0
281
     1
  0
CLASS
  1
XRECORD
  2
AcDbXrecord
  3
AutoCAD 2000
 90
    32768
280
     0
281
     0
  0
CLASS
  1
LONG_TRANSACTION
  2
AcDbLongTransaction
  3
AutoCAD 2000
 90
    32768
280
     0
281
     0
  0
CLASS
  1
LWPOLYLINE
  2
AcDbPolyline
  3
AutoCAD 2000
 90
    32768
280
     0
281
     1
  0
CLASS
  1
HATCH
  2
AcDbHatch
  3
AutoCAD 2000
 90
    32768
280
     0
281
     1
  0
CLASS
  1
XRECORD
  2
AcDbXrecord
  3
AutoCAD 2000
 90
    32768
280
     0
281
     0
  0
CLASS
  1
LONG_TRANSACTION
  2
AcDbLongTransaction
  3
AutoCAD 2000
 90
    32768
280
     0
281
     0
  0
CLASS
  1
LWPOLYLINE
  2
AcDbPolyline
  3
AutoCAD 2000
 90
    32768
280
     0
281
     1
  0
CLASS
  1
HATCH
  2
AcDbHatch
  3
AutoCAD 2000
 90
    32768
280
     0
281
     1
  0
CLASS
  1
XRECORD
  2
AcDbXrecord
  3
AutoCAD 2000
 90
    32768
280
     0
281
     0
  0
CLASS
  1
LONG_TRANSACTION
  2
AcDbLongTransaction
  3
AutoCAD 2000
 90
    32768
280
     0
281
     0
  0
CLASS
  1
LWPOLYLINE
  2
AcDbPolyline
  3
AutoCAD 2000
 90
    32768
280
     0
281
     1
  0
CLASS
  1
HATCH
  2
AcDbHatch
  3
AutoCAD 2000
 90
    32768
280
     0
281
     1
  0
CLASS
  1
XRECORD
  2
AcDbXrecord
  3
AutoCAD 2000
 90
    32768
280
     0
281
     0
  0
CLASS
  1
LONG_TRANSACTION
  2
AcDbLongTransaction
  3
AutoCAD 2000
 90
    32768
280
     0
281
     0
  0
CLASS
  1
LWPOLYLINE
  2
AcDbPolyline
  3
AutoCAD 2000
 90
    32768
280
     0
281
     1
  0
CLASS
  1
HATCH
  2
AcDbHatch
  3
AutoCAD 2000
 90
    32768
280
     0
281
     1
  0
CLASS
  1
XRECORD
  2
AcDbXrecord
  3
AutoCAD 2000
 90
    32768
280
     0
281
     0
  0
CLASS
  1
LONG_TRANSACTION
  2
AcDbLongTransaction
  3
AutoCAD 2000
 90
    32768
280
     0
281
     0
  0
CLASS
  1
LWPOLYLINE
  2
AcDbPolyline
  3
AutoCAD 2000
 90
    32768
280
     0
281
     1
  0
CLASS
  1
HATCH
  2
AcDbHatch
  3
AutoCAD 2000
 90
    32768
280
     0
281
     1
  0
CLASS
  1
XRECORD
  2
AcDbXrecord
  3
AutoCAD 2000
 90
    32768
280
     0
281
     0
  0
CLASS
  1
LONG_TRANSACTION
  2
AcDbLongTransaction
  3
AutoCAD 2000
 90
    32768
280
     0
281
     0
  0
CLASS
  1
LWPOLYLINE
  2
AcDbPolyline
  3
AutoCAD 2000
 90
    32768
280
     0
281
     1
  0
CLASS
  1
HATCH
  2
AcDbHatch
  3
AutoCAD 2000
 90
    32768
280
     0
281
     1
  0
CLASS
  1
XRECORD
  2
AcDbXrecord
  3
AutoCAD 2000
 90
    32768
280
     0
281
     0
  0
CLASS
  1
LONG_TRANSACTION
  2
AcDbLongTransaction
  3
AutoCAD 2000
 90
    32768
280
     0
281
     0
  0
CLASS
  1
LWPOLYLINE
  2
AcDbPolyline
  3
AutoCAD 2000
 90
    32768
280
     0
281
     1
  0
CLASS
  1
HATCH
  2
AcDbHatch
  3
AutoCAD 2000
 90
    32768
280
     0
281
     1
  0
CLASS
  1
XRECORD
  2
AcDbXrecord
  3
AutoCAD 2000
 90
    32768
280
     0
281
     0
  0
CLASS
  1
LONG_TRANSACTION
  2
AcDbLongTransaction
  3
AutoCAD 2000
 90
    32768
280
     0
281
     0
  0
CLASS
  1
LWPOLYLINE
  2
AcDbPolyline
  3
AutoCAD 2000
 90
    32768
280
     0
281
     1
  0
CLASS
  1
HATCH
  2
AcDbHatch
  3
AutoCAD 2000
 90
    32768
280
     0
281
     1
  0
CLASS
  1
XRECORD
  2
AcDbXrecord
  3
AutoCAD 2000
 90
    32768
280
     0
281
     0
  0
CLASS
  1
LONG_TRANSACTION
  2
AcDbLongTransaction
  3
AutoCAD 2000
 90
    32768
280
     0
281
     0
  0
CLASS
  1
LWPOLYLINE
  2
AcDbPolyline
  3
AutoCAD 2000
 90
    32768
280
     0
281
     1
  0
CLASS
  1
HATCH
  2
AcDbHatch
  3
AutoCAD 2000
 90
    32768
280
     0
281
     1
  0
CLASS
  1
XRECORD
  2
AcDbXrecord
  3
AutoCAD 2000
 90
    32768
280
     0
281
     0
  0
CLASS
  1
LONG_TRANSACTION
  2
AcDbLongTransaction
  3
AutoCAD 2000
 90
    32768
280
     0
281
     0
  0
CLASS
  1
LWPOLYLINE
  2
AcDbPolyline
  3
AutoCAD 2000
 90
    32768
280
     0
281
     1
  0
CLASS
  1
HATCH
  2
AcDbHatch
  3
AutoCAD 2000
 90
    32768
280
     0
281
     1
  0
CLASS
  1
XRECORD
  2
AcDbXrecord
  3
AutoCAD 2000
 90
    32768
280
     0
281
     0
  0
CLASS
  1
LONG_TRANSACTION
  2
AcDbLongTransaction
  3
AutoCAD 2000
 90
    32768
280
     0
281
     0
  0
CLASS
  1
LWPOLYLINE
  2
AcDbPolyline
  3
AutoCAD 2000
 90
    32768
280
     0
281
     1
  0
CLASS
  1
HATCH
  2
AcDbHatch
  3
AutoCAD 2000
 90
    32768
280
     0
281
     1
  0
CLASS
  1
XRECORD
  2
AcDbXrecord
  3
AutoCAD 2000
 90
    32768
280
     0
281
     0
  0
CLASS
  1
LONG_TRANSACTION
  2
AcDbLongTransaction
  3
AutoCAD 2000
 90
    32768
280
     0
281
     0
  0
CLASS
  1
LWPOLYLINE
  2
AcDbPolyline
  3
AutoCAD 2000
 90
    32768
280
     0
281
     1
  0
CLASS
  1
HATCH
  2
AcDbHatch
  3
AutoCAD 2000
 90
    32768
280
     0
281
     1
  0
CLASS
  1
XRECORD
  2
AcDbXrecord
  3
AutoCAD 2000
 90
    32768
280
     0
281
     0
  0
CLASS
  1
LONG_TRANSACTION
  2
AcDbLongTransaction
  3
AutoCAD 2000
 90
    32768
280
     0
281
     0
  0
CLASS
  1
LWPOLYLINE
  2
AcDbPolyline
  3
AutoCAD 2000
 90
    32768
280
     0
281
     1
  0
CLASS
  1
HATCH
  2
AcDbHatch
  3
AutoCAD 2000
 90
    32768
280
     0
281
     1
  0
CLASS
  1
XRECORD
  2
AcDbXrecord
  3
AutoCAD 2000
 90
    32768
280
     0
281
     0
  0
CLASS
  1
LONG_TRANSACTION
  2
AcDbLongTransaction
  3
AutoCAD 2000
 90
    32768
280
     0
281
     0
  0
CLASS
  1
LWPOLYLINE
  2
AcDbPolyline
  3
AutoCAD 2000
 90
    32768
280
     0
281
     1
  0
CLASS
  1
HATCH
  2
AcDbHatch
  3
AutoCAD 2000
 90
    32768
280
     0
281
     1
  0
CLASS
  1
XRECORD
  2
AcDbXrecord
  3
AutoCAD 2000
 90
    32768
280
     0
281
     0
  0
CLASS
  1
LONG_TRANSACTION
  2
AcDbLongTransaction
  3
AutoCAD 2000
 90
    32768
280
     0
281
     0
  0
CLASS
  1
LWPOLYLINE
  2
AcDbPolyline
  3
AutoCAD 2000
 90
    32768
280
     0
281
     1
  0
CLASS
  1
HATCH
  2
AcDbHatch
  3
AutoCAD 2000
 90
    32768
280
     0
281
     1
  0
CLASS
  1
XRECORD
  2
AcDbXrecord
  3
AutoCAD 2000
 90
    32768
280
     0
281
     0
  0
CLASS
  1
LONG_TRANSACTION
  2
AcDbLongTransaction
  3
AutoCAD 2000
 90
    32768
280
     0
281
     0
  0
CLASS
  1
LWPOLYLINE
  2
AcDbPolyline
  3
AutoCAD 2000
 90
    32768
280
     0
281
     1
  0
CLASS
  1
HATCH
  2
AcDbHatch
  3
AutoCAD 2000
 90
    32768
280
     0
281
     1
  0
CLASS
  1
XRECORD
  2
AcDbXrecord
  3
AutoCAD 2000
 90
    32768
280
     0
281
     0
  0
CLASS
  1
LONG_TRANSACTION
  2
AcDbLongTransaction
  3
AutoCAD 2000
 90
    32768
280
     0
281
     0
  0
CLASS
  1
LWPOLYLINE
  2
AcDbPolyline
  3
AutoCAD 2000
 90
    32768
280
     0
281
     1
  0
CLASS
  1
HATCH
  2
AcDbHatch
  3
AutoCAD 2000
 90
    32768
280
     0
281
     1
  0
CLASS
  1
XRECORD
  2
AcDbXrecord
  3
AutoCAD 2000
 90
    32768
280
     0
281
     0
  0
CLASS
  1
LONG_TRANSACTION
  2
AcDbLongTransaction
  3
AutoCAD 2000
 90
    32768
280
     0
281
     0
  0
CLASS
  1
LWPOLYLINE
  2
AcDbPolyline
  3
AutoCAD 2000
 90
    32768
280
     0
281
     1
  0
CLASS
  1
HATCH
  2
AcDbHatch
  3
AutoCAD 2000
 90
    32768
280
     0
281
     1
  0
CLASS
  1
XRECORD
  2
AcDbXrecord
  3
AutoCAD 2000
 90
    32768
280
     0
281
     0
  0
CLASS
  1
LONG_TRANSACTION
  2
AcDbLongTransaction
  3
AutoCAD 2000
 90
    32768
280
     0
281
     0
  0
CLASS
  1
LWPOLYLINE
  2
AcDbPolyline
  3
AutoCAD 2000
 90
    32768
280
     0
281
     1
  0
CLASS
  1
HATCH
  2
AcDbHatch
  3
AutoCAD 2000
 90
    32768
280
     0
281
     1
  0
CLASS
  1
XRECORD
  2
AcDbXrecord
  3
AutoCAD 2000
 90
    32768
280
     0
281
     0
  0
CLASS
  1
LONG_TRANSACTION
  2
AcDbLongTransaction
  3
AutoCAD 2000
 90
    32768
280
     0
281
     0
  0
CLASS
  1
LWPOLYLINE
  2
AcDbPolyline
  3
AutoCAD 2000
 90
    32768
280
     0
281
     1
  0
CLASS
  1
HATCH
  2
AcDbHatch
  3
AutoCAD 2000
 90
    32768
280
     0
281
     1
  0
CLASS
  1
XRECORD
  2
AcDbXrecord
  3
AutoCAD 2000
 90
    32768
280
     0
281
     0
  0
CLASS
  1
LONG_TRANSACTION
  2
AcDbLongTransaction
  3
AutoCAD 2000
 90
    32768
280
     0
281
     0
  0
CLASS
  1
LWPOLYLINE
  2
AcDbPolyline
  3
AutoCAD 2000
 90
    32768
280
     0
281
     1
  0
CLASS
  1
HATCH
  2
AcDbHatch
  3
AutoCAD 2000
 90
    32768
280
     0
281
     1
  0
CLASS
  1
XRECORD
  2
AcDbXrecord
  3
AutoCAD 2000
 90
    32768
280
     0
281
     0
  0
CLASS
  1
LONG_TRANSACTION
  2
AcDbLongTransaction
  3
AutoCAD 2000
 90
    32768
280
     0
281
     0
  0
CLASS
  1
LWPOLYLINE
  2
AcDbPolyline
  3
AutoCAD 2000
 90
    32768
280
     0
281
     1
  0
CLASS
  1
HATCH
  2
AcDbHatch
  3
AutoCAD 2000
 90
    32768
280
     0
281
     1
  0
CLASS
  1
XRECORD
  2
AcDbXrecord
  3
AutoCAD 2000
 90
    32768
280
     0
281
     0
  0
CLASS
  1
LONG_TRANSACTION
  2
AcDbLongTransaction
  3
AutoCAD 2000
 90
    32768
280
     0
281
     0
  0
CLASS
  1
LWPOLYLINE
  2
AcDbPolyline
  3
AutoCAD 2000
 90
    32768
280
     0
281
     1
  0
CLASS
  1
HATCH
  2
AcDbHatch
  3
AutoCAD 2000
 90
    32768
280
     0
281
     1
  0
CLASS
  1
XRECORD
  2
AcDbXrecord
  3
AutoCAD 2000
 90
    32768
280
     0
281
     0
  0
CLASS
  1
LONG_TRANSACTION
  2
AcDbLongTransaction
  3
AutoCAD 2000
 90
    32768
280
     0
281
     0
  0
CLASS
  1
LWPOLYLINE
  2
AcDbPolyline
  3
AutoCAD 2000
 90
    32768
280
     0
281
     1
  0
CLASS
  1
HATCH
  2
AcDbHatch
  3
AutoCAD 2000
 90
    32768
280
     0
281
     1
  0
CLASS
  1
XRECORD
  2
AcDbXrecord
  3
AutoCAD 2000
 90
    32768
280
     0
281
     0
  0
CLASS
  1
LONG_TRANSACTION
  2
AcDbLongTransaction
  3
AutoCAD 2000
 90
    32768
280
     0
281
     0
  0
CLASS
  1
LWPOLYLINE
  2
AcDbPolyline
  3
AutoCAD 2000
 90
    32768
280
     0
281
     1
  0
CLASS
  1
HATCH
  2
AcDbHatch
  3
AutoCAD 2000
 90
    32768
280
     0
281
     1
  0
CLASS
  1
XRECORD
  2
AcDbXrecord
  3
AutoCAD 2000
 90
    32768
280
     0
281
     0
  0
CLASS
  1
LONG_TRANSACTION
  2
AcDbLongTransaction
  3
AutoCAD 2000
 90
    32768
280
     0
281
     0
  0
CLASS
  1
LWPOLYLINE
  2
AcDbPolyline
  3
AutoCAD 2000
 90
    32768
280
     0
281
     1
  0
CLASS
  1
HATCH
  2
AcDbHatch
  3
AutoCAD 2000
 90
    32768
280
     0
281
     1
  0
CLASS
  1
XRECORD
  2
AcDbXrecord
  3
AutoCAD 2000
 90
    32768
280
     0
281
     0
  0
CLASS
  1
LONG_TRANSACTION
  2
AcDbLongTransaction
  3
AutoCAD 2000
 90
    32768
280
     0
281
     0
  0
CLASS
  1
LWPOLYLINE
  2
AcDbPolyline
  3
AutoCAD 2000
 90
    32768
280
     0
281
     1
  0
CLASS
  1
HATCH
  2
AcDbHatch
  3
AutoCAD 2000
 90
    32768
280
     0
281
     1
  0
CLASS
  1
XRECORD
  2
AcDbXrecord
  3
AutoCAD 2000
 90
    32768
280
     0
281
     0
  0
CLASS
  1
LONG_TRANSACTION
  2
AcDbLongTransaction
  3
AutoCAD 2000
 90
    32768
280
     0
281
     0
  0
CLASS
  1
LWPOLYLINE
  2
AcDbPolyline
  3
AutoCAD 2000
 90
    32768
280
     0
281
     1
  0
CLASS
  1
HATCH
  2
AcDbHatch
  3
AutoCAD 2000
 90
    32768
280
     0
281
     1
  0
CLASS
  1
XRECORD
  2
AcDbXrecord
  3
AutoCAD 2000
 90
    32768
280
     0
281
     0
  0
CLASS
  1
LONG_TRANSACTION
  2
AcDbLongTransaction
  3
AutoCAD 2000
 90
    32768
280
     0
281
     0
  0
CLASS
  1
LWPOLYLINE
  2
AcDbPolyline
  3
AutoCAD 2000
 90
    32768
280
     0
281
     1
  0
CLASS
  1
HATCH
  2
AcDbHatch
  3
AutoCAD 2000
 90
    32768
280
     0
281
     1
  0
CLASS
  1
XRECORD
  2
AcDbXrecord
  3
AutoCAD 2000
 90
    32768
280
     0
281
     0
  0
CLASS
  1
LONG_TRANSACTION
  2
AcDbLongTransaction
  3
AutoCAD 2000
 90
    32768
280
     0
281
     0
  0
CLASS
  1
LWPOLYLINE
  2
AcDbPolyline
  3
AutoCAD 2000
 90
    32768
280
     0
281
     1
  0
CLASS
  1
HATCH
  2
AcDbHatch
  3
AutoCAD 2000
 90
    32768
280
     0
281
     1
  0
CLASS
  1
XRECORD
  2
AcDbXrecord
  3
AutoCAD 2000
 90
    32768
280
     0
281
     0
  0
CLASS
  1
LONG_TRANSACTION
  2
AcDbLongTransaction
  3
AutoCAD 2000
 90
    32768
280
     0
281
     0
  0
CLASS
  1
LWPOLYLINE
  2
AcDbPolyline
  3
AutoCAD 2000
 90
    32768
280
     0
281
     1
  0
CLASS
  1
HATCH
  2
AcDbHatch
  3
AutoCAD 2000
 90
    32768
280
     0
281
     1
  0
CLASS
  1
XRECORD
  2
AcDbXrecord
  3
AutoCAD 2000
 90
    32768
280
     0
281
     0
  0
CLASS
  1
LONG_TRANSACTION
  2
AcDbLongTransaction
  3
AutoCAD 2000
 90
    32768
280
     0
281
     0
  0
CLASS
  1
LWPOLYLINE
  2
AcDbPolyline
  3
AutoCAD 2000
 90
    32768
280
     0
281
     1
  0
CLASS
  1
HATCH
  2
AcDbHatch
  3
AutoCAD 2000
 90
    32768
280
     0
281
     1
  0
CLASS
  1
XRECORD
  2
AcDbXrecord
  3
AutoCAD 2000
 90
    32768
280
     0
281
     0
  0
CLASS
  1
LONG_TRANSACTION
  2
AcDbLongTransaction
  3
AutoCAD 2000
 90
    32768
280
     0
281
     0
  0
CLASS
  1
LWPOLYLINE
  2
AcDbPolyline
  3
AutoCAD 2000
 90
    32768
280
     0
281
     1
  0
CLASS
  1
HATCH
  2
AcDbHatch
  3
AutoCAD 2000
 90
    32768
280
     0
281
     1
  0
CLASS
  1
XRECORD
  2
AcDbXrecord
  3
AutoCAD 2000
 90
    32768
280
     0
281
     0
  0
CLASS
  1
LONG_TRANSACTION
  2
AcDbLongTransaction
  3
AutoCAD 2000
 90
    32768
280
     0
281
     0
  0
CLASS
  1
LWPOLYLINE
  2
AcDbPolyline
  3
AutoCAD 2000
 90
    32768
280
     0
281
     1
  0
CLASS
  1
HATCH
  2
AcDbHatch
  3
AutoCAD 2000
 90
    32768
280
     0
281
     1
  0
CLASS
  1
XRECORD
  2
AcDbXrecord
  3
AutoCAD 2000
 90
    32768
280
     0
281
     0
  0
CLASS
  1
LONG_TRANSACTION
  2
AcDbLongTransaction
  3
AutoCAD 2000
 90
    32768
280
     0
281
     0
  0
CLASS
  1
LWPOLYLINE
  2
AcDbPolyline
  3
AutoCAD 2000
 90
    32768
280
     0
281
     1
  0
CLASS
  1
HATCH
  2
AcDbHatch
  3
AutoCAD 2000
 90
    32768
280
     0
281
     1
  0
CLASS
  1
XRECORD
  2
AcDbXrecord
  3
AutoCAD 2000
 90
    32768
280
     0
281
     0
  0
CLASS
  1
LONG_TRANSACTION
  2
AcDbLongTransaction
  3
AutoCAD 2000
 90
    32768
280
     0
281
     0
  0
CLASS
  1
LWPOLYLINE
  2
AcDbPolyline
  3
AutoCAD 2000
 90
    32768
280
     0
281
     1
  0
CLASS
  1
HATCH
  2
AcDbHatch
  3
AutoCAD 2000
 90
    32768
280
     0
281
     1
  0
CLASS
  1
XRECORD
  2
AcDbXrecord
  3
AutoCAD 2000
 90
    32768
280
     0
281
     0
  0
CLASS
  1
LONG_TRANSACTION
  2
AcDbLongTransaction
  3
AutoCAD 2000
 90
    32768
280
     0
281
     0
  0
CLASS
  1
LWPOLYLINE
  2
AcDbPolyline
  3
AutoCAD 2000
 90
    32768
280
     0
281
     1
  0
CLASS
  1
HATCH
  2
AcDbHatch
  3
AutoCAD 2000
 90
    32768
280
     0
281
     1
  0
CLASS
  1
XRECORD
  2
AcDbXrecord
  3
AutoCAD 2000
 90
    32768
280
     0
281
     0
  0
CLASS
  1
LONG_TRANSACTION
  2
AcDbLongTransaction
  3
AutoCAD 2000
 90
    32768
280
     0
281
     0
  0
CLASS
  1
LWPOLYLINE
  2
AcDbPolyline
  3
AutoCAD 2000
 90
    32768
280
     0
281
     1
  0
CLASS
  1
HATCH
  2
AcDbHatch
  3
AutoCAD 2000
 90
    32768
280
     0
281
     1
  0
CLASS
  1
XRECORD
  2
AcDbXrecord
  3
AutoCAD 2000
 90
    32768
280
     0
281
     0
  0
CLASS
  1
LONG_TRANSACTION
  2
AcDbLongTransaction
  3
AutoCAD 2000
 90
    32768
280
     0
281
     0
  0
CLASS
  1
LWPOLYLINE
  2
AcDbPolyline
  3
AutoCAD 2000
 90
    32768
280
     0
281
     1
  0
CLASS
  1
HATCH
  2
AcDbHatch
  3
AutoCAD 2000
 90
    32768
280
     0
281
     1
  0
CLASS
  1
XRECORD
  2
AcDbXrecord
  3
AutoCAD 2000
 90
    32768
280
     0
281
     0
  0
CLASS
  1
LONG_TRANSACTION
  2
AcDbLongTransaction
  3
AutoCAD 2000
 90
    32768
280
     0
281
     0
  0
CLASS
  1
LWPOLYLINE
  2
AcDbPolyline
  3
AutoCAD 2000
 90
    32768
280
     0
281
     1
  0
CLASS
  1
HATCH
  2
AcDbHatch
  3
AutoCAD 2000
 90
    32768
280
     0
281
     1
  0
CLASS
  1
XRECORD
  2
AcDbXrecord
  3
AutoCAD 2000
 90
    32768
280
     0
281
     0
  0
CLASS
  1
LONG_TRANSACTION
  2
AcDbLongTransaction
  3
AutoCAD 2000
 90
    32768
280
     0
281
     0
  0
CLASS
  1
LWPOLYLINE
  2
AcDbPolyline
  3
AutoCAD 2000
 90
    32768
280
     0
281
     1
  0
CLASS
  1
HATCH
  2
AcDbHatch
  3
AutoCAD 2000
 90
    32768
280
     0
281
     1
  0
CLASS
  1
XRECORD
  2
AcDbXrecord
  3
AutoCAD 2000
 90
    32768
280
     0
281
     0
  0
CLASS
  1
LONG_TRANSACTION
  2
AcDbLongTransaction
  3
AutoCAD 2000
 90
    32768
280
     0
281
     0
  0
CLASS
  1
LWPOLYLINE
  2
AcDbPolyline
  3
AutoCAD 2000
 90
    32768
280
     0
281
     1
  0
CLASS
  1
HATCH
  2
AcDbHatch
  3
AutoCAD 2000
 90
    32768
280
     0
281
     1
  0
CLASS
  1
XRECORD
  2
AcDbXrecord
  3
AutoCAD 2000
 90
    32768
280
     0
281
     0
  0
CLASS
  1
LONG_TRANSACTION
  2
AcDbLongTransaction
  3
AutoCAD 2000
 90
    32768
280
     0
281
     0
  0
CLASS
  1
LWPOLYLINE
  2
AcDbPolyline
  3
AutoCAD 2000
 90
    32768
280
     0
281
     1
  0
CLASS
  1
HATCH
  2
AcDbHatch
  3
AutoCAD 2000
 90
    32768
280
     0
281
     1
  0
CLASS
  1
XRECORD
  2
AcDbXrecord
  3
AutoCAD 2000
 90
    32768
280
     0
281
     0
  0
CLASS
  1
LONG_TRANSACTION
  2
AcDbLongTransaction
  3
AutoCAD 2000
 90
    32768
280
     0
281
     0
  0
CLASS
  1
LWPOLYLINE
  2
AcDbPolyline
  3
AutoCAD 2000
 90
    32768
280
     0
281
     1
  0
CLASS
  1
HATCH
  2
AcDbHatch
  3
AutoCAD 2000
 90
    32768
280
     0
281
     1
  0
CLASS
  1
XRECORD
  2
AcDbXrecord
  3
AutoCAD 2000
 90
    32768
280
     0
281
     0
  0
CLASS
  1
LONG_TRANSACTION
  2
AcDbLongTransaction
  3
AutoCAD 2000
 90
    32768
280
     0
281
     0
  0
CLASS
  1
LWPOLYLINE
  2
AcDbPolyline
  3
AutoCAD 2000
 90
    32768
280
     0
281
     1
  0
CLASS
  1
HATCH
  2
AcDbHatch
  3
AutoCAD 2000
 90
    32768
280
     0
281
     1
  0
CLASS
  1
XRECORD
  2
AcDbXrecord
  3
AutoCAD 2000
 90
    32768
280
     0
281
     0
  0
CLASS
  1
LONG_TRANSACTION
  2
AcDbLongTransaction
  3
AutoCAD 2000
 90
    32768
280
     0
281
     0
  0
CLASS
  1
LWPOLYLINE
  2
AcDbPolyline
  3
AutoCAD 2000
 90
    32768
280
     0
281
     1
  0
CLASS
  1
HATCH
  2
AcDbHatch
  3
AutoCAD 2000
 90
    32768
280
     0
281
     1
  0
CLASS
  1
XRECORD
  2
AcDbXrecord
  3
AutoCAD 2000
 90
    32768
280
     0
281
     0
  0
CLASS
  1
LONG_TRANSACTION
  2
AcDbLongTransaction
  3
AutoCAD 2000
 90
    32768
280
     0
281
     0
  0
CLASS
  1
LWPOLYLINE
  2
AcDbPolyline
  3
AutoCAD 2000
 90
    32768
280
     0
281
     1
  0
CLASS
  1
HATCH
  2
AcDbHatch
  3
AutoCAD 2000
 90
    32768
280
     0
281
     1
  0
CLASS
  1
XRECORD
  2
AcDbXrecord
  3
AutoCAD 2000
 90
    32768
280
     0
281
     0
  0
CLASS
  1
LONG_TRANSACTION
  2
AcDbLongTransaction
  3
AutoCAD 2000
 90
    32768
280
     0
281
     0
  0
CLASS
  1
LWPOLYLINE
  2
AcDbPolyline
  3
AutoCAD 2000
 90
    32768
280
     0
281
     1
  0
CLASS
  1
HATCH
  2
AcDbHatch
  3
AutoCAD 2000
 90
    32768
280
     0
281
     1
  0
CLASS
  1
XRECORD
  2
AcDbXrecord
  3
AutoCAD 2000
 90
    32768
280
     0
281
     0
  0
CLASS
  1
LONG_TRANSACTION
  2
AcDbLongTransaction
  3
AutoCAD 2000
 90
    32768
280
     0
281
     0
  0
CLASS
  1
LWPOLYLINE
  2
AcDbPolyline
  3
AutoCAD 2000
 90
    32768
280
     0
281
     1
  0
CLASS
  1
HATCH
  2
AcDbHatch
  3
AutoCAD 2000
 90
    32768
280
     0
281
     1
  0
CLASS
  1
XRECORD
  2
AcDbXrecord
  3
AutoCAD 2000
 90
    32768
280
     0
281
     0
  0
CLASS
  1
LONG_TRANSACTION
  2
AcDbLongTransaction
  3
AutoCAD 2000
 90
    32768
280
     0
281
     0
  0
CLASS
  1
LWPOLYLINE
  2
AcDbPolyline
  3
AutoCAD 2000
 90
    32768
280
     0
281
     1
  0
CLASS
  1
HATCH
  2
AcDbHatch
  3
AutoCAD 2000
 90
    32768
280
     0
281
     1
  0
CLASS
  1
XRECORD
  2
AcDbXrecord
  3
AutoCAD 2000
 90
    32768
280
     0
281
     0
  0
CLASS
  1
LONG_TRANSACTION
  2
AcDbLongTransaction
  3
AutoCAD 2000
 90
    32768
280
     0
281
     0
  0
CLASS
  1
LWPOLYLINE
  2
AcDbPolyline
  3
AutoCAD 2000
 90
    32768
280
     0
281
     1
  0
CLASS
  1
HATCH
  2
AcDbHatch
  3
AutoCAD 2000
 90
    32768
280
     0
281
     1
  0
CLASS
  1
XRECORD
  2
AcDbXrecord
  3
AutoCAD 2000
 90
    32768
280
     0
281
     0
  0
CLASS
  1
LONG_TRANSACTION
  2
AcDbLongTransaction
  3
AutoCAD 2000
 90
    32768
280
     0
281
     0
  0
CLASS
  1
LWPOLYLINE
  2
AcDbPolyline
  3
AutoCAD 2000
 90
    32768
280
     0
281
     1
  0
CLASS
  1
HATCH
  2
AcDbHatch
  3
AutoCAD 2000
 90
    32768
280
     0
281
     1
  0
CLASS
  1
XRECORD
  2
AcDbXrecord
  3
AutoCAD 2000
 90
    32768
280
     0
281
     0
  0
CLASS
  1
LONG_TRANSACTION
  2
AcDbLongTransaction
  3
AutoCAD 2000
 90
    32768
280
     0
281
     0
  0
CLASS
  1
LWPOLYLINE
  2
AcDbPolyline
  3
AutoCAD 2000
 90
    32768
280
     0
281
     1
  0
CLASS
  1
HATCH
  2
AcDbHatch
  3
AutoCAD 2000
 90
    32768
280
     0
281
     1
  0
CLASS
  1
XRECORD
  2
AcDbXrecord
  3
AutoCAD 2000
 90
    32768
280
     0
281
     0
  0
CLASS
  1
LONG_TRANSACTION
  2
AcDbLongTransaction
  3
AutoCAD 2000
 90
    32768
280
     0
281
     0
  0
CLASS
  1
LWPOLYLINE
  2
AcDbPolyline
  3
AutoCAD 2000
 90
    32768
280
     0
281
     1
  0
CLASS
  1
HATCH
  2
AcDbHatch
  3
AutoCAD 2000
 90
    32768
280
     0
281
     1
  0
CLASS
  1
XRECORD
  2
AcDbXrecord
  3
AutoCAD 2000
 90
    32768
280
     0
281
     0
  0
CLASS
  1
LONG_TRANSACTION
  2
AcDbLongTransaction
  3
AutoCAD 2000
 90
    32768
280
     0
281
     0
  0
CLASS
  1
LWPOLYLINE
  2
AcDbPolyline
  3
AutoCAD 2000
 90
    32768
280
     0
281
     1
  0
CLASS
  1
HATCH
  2
AcDbHatch
  3
AutoCAD 2000
 90
    32768
280
     0
281
     1
  0
CLASS
  1
XRECORD
  2
AcDbXrecord
  3
AutoCAD 2000
 90
    32768
280
     0
281
     0
  0
CLASS
  1
LONG_TRANSACTION
  2
AcDbLongTransaction
  3
AutoCAD 2000
 90
    32768
280
     0
281
     0
  0
CLASS
  1
LWPOLYLINE
  2
AcDbPolyline
  3
AutoCAD 2000
 90
    32768
280
     0
281
     1
  0
CLASS
  1
HATCH
  2
AcDbHatch
  3
AutoCAD 2000
 90
    32768
280
     0
281
     1
  0
CLASS
  1
XRECORD
  2
AcDbXrecord
  3
AutoCAD 2000
 90
    32768
280
     0
281
     0
  0
CLASS
  1
LONG_TRANSACTION
  2
AcDbLongTransaction
  3
AutoCAD 2000
 90
    32768
280
     0
281
     0
  0
CLASS
  1
LWPOLYLINE
  2
AcDbPolyline
  3
AutoCAD 2000
 90
    32768
280
     0
281
     1
  0
CLASS
  1
HATCH
  2
AcDbHatch
  3
AutoCAD 2000
 90
    32768
280
     0
281
     1
  0
CLASS
  1
XRECORD
  2
AcDbXrecord
  3
AutoCAD 2000
 90
    32768
280
     0
281
     0
  0
CLASS
  1
LONG_TRANSACTION
  2
AcDbLongTransaction
  3
AutoCAD 2000
 90
    32768
280
     0
281
     0
  0
CLASS
  1
LWPOLYLINE
  2
AcDbPolyline
  3
AutoCAD 2000
 90
    32768
280
     0
281
     1
  0
CLASS
  1
HATCH
  2
AcDbHatch
  3
AutoCAD 2000
 90
    32768
280
     0
281
     1
  0
CLASS
  1
XRECORD
  2
AcDbXrecord
  3
AutoCAD 2000
 90
    32768
280
     0
281
     0
  0
CLASS
  1
LONG_TRANSACTION
  2
AcDbLongTransaction
  3
AutoCAD 2000
 90
    32768
280
     0
281
     0
  0
CLASS
  1
LWPOLYLINE
  2
AcDbPolyline
  3
AutoCAD 2000
 90
    32768
280
     0
281
     1
  0
CLASS
  1
HATCH
  2
AcDbHatch
  3
AutoCAD 2000
 90
    32768
280
     0
281
     1
  0
CLASS
  1
XRECORD
  2
AcDbXrecord
  3
AutoCAD 2000
 90
    32768
280
     0
281
     0
  0
CLASS
  1
LONG_TRANSACTION
  2
AcDbLongTransaction
  3
AutoCAD 2000
 90
    32768
280
     0
281
     0
  0
CLASS
  1
LWPOLYLINE
  2
AcDbPolyline
  3
AutoCAD 2000
 90
    32768
280
     0
281
     1
  0
CLASS
  1
HATCH
  2
AcDbHatch
  3
AutoCAD 2000
 90
    32768
280
     0
281
     1
  0
CLASS
  1
XRECORD
  2
AcDbXrecord
  3
AutoCAD 2000
 90
    32768
280
     0
281
     0
  0
CLASS
  1
LONG_TRANSACTION
  2
AcDbLongTransaction
  3
AutoCAD 2000
 90
    32768
280
     0
281
     0
  0
CLASS
  1
LWPOLYLINE
  2
AcDbPolyline
  3
AutoCAD 2000
 90
    32768
280
     0
281
     1
  0
CLASS
  1
HATCH
  2
AcDbHatch
  3
AutoCAD 2000
 90
    32768
280
     0
281
     1
  0
CLASS
  1
XRECORD
  2
AcDbXrecord
  3
AutoCAD 2000
 90
    32768
280
     0
281
     0
  0
CLASS
  1
LONG_TRANSACTION
  2
AcDbLongTransaction
  3
AutoCAD 2000
 90
    32768
280
     0
281
     0
  0
CLASS
  1
LWPOLYLINE
  2
AcDbPolyline
  3
AutoCAD 2000
 90
    32768
280
     0
281
     1
  0
CLASS
  1
HATCH
  2
AcDbHatch
  3
AutoCAD 2000
 90
    32768
280
     0
281
     1
  0
CLASS
  1
XRECORD
  2
AcDbXrecord
  3
AutoCAD 2000
 90
    32768
280
     0
281
     0
  0
CLASS
  1
LONG_TRANSACTION
  2
AcDbLongTransaction
  3
AutoCAD 2000
 90
    32768
280
     0
281
     0
  0
CLASS
  1
LWPOLYLINE
  2
AcDbPolyline
  3
AutoCAD 2000
 90
    32768
280
     0
281
     1
  0
CLASS
  1
HATCH
  2
AcDbHatch
  3
AutoCAD 2000
 90
    32768
280
     0
281
     1
  0
CLASS
  1
XRECORD
  2
AcDbXrecord
  3
AutoCAD 2000
 90
    32768
280
     0
281
     0
  0
CLASS
  1
LONG_TRANSACTION
  2
AcDbLongTransaction
  3
AutoCAD 2000
 90
    32768
280
     0
281
     0
  0
CLASS
  1
LWPOLYLINE
  2
AcDbPolyline
  3
AutoCAD 2000
 90
    32768
280
     0
281
     1
  0
CLASS
  1
HATCH
  2
AcDbHatch
  3
AutoCAD 2000
 90
    32768
280
     0
281
     1
  0
CLASS
  1
XRECORD
  2
AcDbXrecord
  3
AutoCAD 2000
 90
    32768
280
     0
281
     0
  0
CLASS
  1
LONG_TRANSACTION
  2
AcDbLongTransaction
  3
AutoCAD 2000
 90
    32768
280
     0
281
     0
  0
CLASS
  1
LWPOLYLINE
  2
AcDbPolyline
  3
AutoCAD 2000
 90
    32768
280
     0
281
     1
  0
CLASS
  1
HATCH
  2
AcDbHatch
  3
AutoCAD 2000
 90
    32768
280
     0
281
     1
  0
CLASS
  1
XRECORD
  2
AcDbXrecord
  3
AutoCAD 2000
 90
    32768
280
     0
281
     0
  0
CLASS
  1
LONG_TRANSACTION
  2
AcDbLongTransaction
  3
AutoCAD 2000
 90
    32768
280
     0
281
     0
  0
CLASS
  1
LWPOLYLINE
  2
AcDbPolyline
  3
AutoCAD 2000
 90
    32768
280
     0
281
     1
  0
CLASS
  1
HATCH
  2
AcDbHatch
  3
AutoCAD 2000
 90
    32768
280
     0
281
     1
  0
CLASS
  1
XRECORD
  2
AcDbXrecord
  3
AutoCAD 2000
 90
    32768
280
     0
281
     0
  0
CLASS
  1
LONG_TRANSACTION
  2
AcDbLongTransaction
  3
AutoCAD 2000
 90
    32768
280
     0
281
     0
  0
CLASS
  1
LWPOLYLINE
  2
AcDbPolyline
  3
AutoCAD 2000
 90
    32768
280
     0
281
     1
  0
CLASS
  1
HATCH
  2
AcDbHatch
  3
AutoCAD 2000
 90
    32768
280
     0
281
     1
  0
CLASS
  1
XRECORD
  2
AcDbXrecord
  3
AutoCAD 2000
 90
    32768
280
     0
281
     0
  0
CLASS
  1
LONG_TRANSACTION
  2
AcDbLongTransaction
  3
AutoCAD 2000
 90
    32768
280
     0
281
     0
  0
CLASS
  1
LWPOLYLINE
  2
AcDbPolyline
  3
AutoCAD 2000
 90
    32768
280
     0
281
     1
  0
CLASS
  1
HATCH
  2
AcDbHatch
  3
AutoCAD 2000
 90
    32768
280
     0
281
     1
  0
CLASS
  1
XRECORD
  2
AcDbXrecord
  3
AutoCAD 2000
 90
    32768
280
     0
281
     0
  0
CLASS
  1
LONG_TRANSACTION
  2
AcDbLongTransaction
  3
AutoCAD 2000
 90
    32768
280
     0
281
     0
  0
CLASS
  1
LWPOLYLINE
  2
AcDbPolyline
  3
AutoCAD 2000
 90
    32768
280
     0
281
     1
  0
CLASS
  1
HATCH
  2
AcDbHatch
  3
AutoCAD 2000
 90
    32768
280
     0
281
     1
  0
CLASS
  1
XRECORD
  2
AcDbXrecord
  3
AutoCAD 2000
 90
    32768
280
     0
281
     0
  0
CLASS
  1
LONG_TRANSACTION
  2
AcDbLongTransaction
  3
AutoCAD 2000
 90
    32768
280
     0
281
     0
  0
CLASS
  1
LWPOLYLINE
  2
AcDbPolyline
  3
AutoCAD 2000
 90
    32768
280
     0
281
     1
  0
CLASS
  1
HATCH
  2
AcDbHatch
  3
AutoCAD 2000
 90
    32768
280
     0
281
     1
  0
CLASS
  1
XRECORD
  2
AcDbXrecord
  3
AutoCAD 2000
 90
    32768
280
     0
281
     0
  0
CLASS
  1
LONG_TRANSACTION
  2
AcDbLongTransaction
  3
AutoCAD 2000
 90
    32768
280
     0
281
     0
  0
CLASS
  1
LWPOLYLINE
  2
AcDbPolyline
  3
AutoCAD 2000
 90
    32768
280
     0
281
     1
  0
CLASS
  1
HATCH
  2
AcDbHatch
  3
AutoCAD 2000
 90
    32768
280
     0
281
     1
  0
CLASS
  1
XRECORD
  2
AcDbXrecord
  3
AutoCAD 2000
 90
    32768
280
     0
281
     0
  0
CLASS
  1
LONG_TRANSACTION
  2
AcDbLongTransaction
  3
AutoCAD 2000
 90
    32768
280
     0
281
     0
  0
CLASS
  1
LWPOLYLINE
  2
AcDbPolyline
  3
AutoCAD 2000
 90
    32768
280
     0
281
     1
  0
CLASS
  1
HATCH
  2
AcDbHatch
  3
AutoCAD 2000
 90
    32768
280
     0
281
     1
  0
CLASS
  1
XRECORD
  2
AcDbXrecord
  3
AutoCAD 2000
 90
    32768
280
     0
281
     0
  0
CLASS
  1
LONG_TRANSACTION
  2
AcDbLongTransaction
  3
AutoCAD 2000
 90
    32768
280
     0
281
     0
  0
CLASS
  1
LWPOLYLINE
  2
AcDbPolyline
  3
AutoCAD 2000
 90
    32768
280
     0
281
     1
  0
CLASS
  1
HATCH
  2
AcDbHatch
  3
AutoCAD 2000
 90
    32768
280
     0
281
     1
  0
CLASS
  1
XRECORD
  2
AcDbXrecord
  3
AutoCAD 2000
 90
    32768
280
     0
281
     0
  0
CLASS
  1
LONG_TRANSACTION
  2
AcDbLongTransaction
  3
AutoCAD 2000
 90
    32768
280
     0
281
     0
  0
CLASS
  1
LWPOLYLINE
  2
AcDbPolyline
  3
AutoCAD 2000
 90
    32768
280
     0
281
     1
  0
CLASS
  1
HATCH
  2
AcDbHatch
  3
AutoCAD 2000
 90
    32768
280
     0
281
     1
  0
CLASS
  1
XRECORD
  2
AcDbXrecord
  3
AutoCAD 2000
 90
    32768
280
     0
281
     0
  0
CLASS
  1
LONG_TRANSACTION
  2
AcDbLongTransaction
  3
AutoCAD 2000
 90
    32768
280
     0
281
     0
  0
CLASS
  1
LWPOLYLINE
  2
AcDbPolyline
  3
AutoCAD 2000
 90
    32768
280
     0
281
     1
  0
CLASS
  1
HATCH
  2
AcDbHatch
  3
AutoCAD 2000
 90
    32768
280
     0
281
     1
  0
CLASS
  1
XRECORD
  2
AcDbXrecord
  3
AutoCAD 2000
 90
    32768
280
     0
281
     0
  0
CLASS
  1
LONG_TRANSACTION
  2
AcDbLongTransaction
  3
AutoCAD 2000
 90
    32768
280
     0
281
     0
  0
CLASS
  1
LWPOLYLINE
  2
AcDbPolyline
  3
AutoCAD 2000
 90
    32768
280
     0
281
     1
  0
CLASS
  1
HATCH
  2
AcDbHatch
  3
AutoCAD 2000
 90
    32768
280
     0
281
     1
  0
CLASS
  1
XRECORD
  2
AcDbXrecord
  3
AutoCAD 2000
 90
    32768
280
     0
281
     0
  0
CLASS
  1
LONG_TRANSACTION
  2
AcDbLongTransaction
  3
AutoCAD 2000
 90
    32768
280
     0
281
     0
  0
CLASS
  1
LWPOLYLINE
  2
AcDbPolyline
  3
AutoCAD 2000
 90
    32768
280
     0
281
     1
  0
CLASS
  1
HATCH
  2
AcDbHatch
  3
AutoCAD 2000
 90
    32768
280
     0
281
     1
  0
CLASS
  1
XRECORD
  2
AcDbXrecord
  3
AutoCAD 2000
 90
    32768
280
     0
281
     0
  0
CLASS
  1
LONG_TRANSACTION
  2
AcDbLongTransaction
  3
AutoCAD 2000
 90
    32768
280
     0
281
     0
  0
CLASS
  1
LWPOLYLINE
  2
AcDbPolyline
  3
AutoCAD 2000
 90
    32768
280
     0
281
     1
  0
CLASS
  1
HATCH
  2
AcDbHatch
  3
AutoCAD 2000
 90
    32768
280
     0
281
     1
  0
CLASS
  1
XRECORD
  2
AcDbXrecord
  3
AutoCAD 2000
 90
    32768
280
     0
281
     0
  0
CLASS
  1
LONG_TRANSACTION
  2
AcDbLongTransaction
  3
AutoCAD 2000
 90
    32768
280
     0
281
     0
  0
CLASS
  1
LWPOLYLINE
  2
AcDbPolyline
  3
AutoCAD 2000
 90
    32768
280
     0
281
     1
  0
CLASS
  1
HATCH
  2
AcDbHatch
  3
AutoCAD 2000
 90
    32768
280
     0
281
     1
  0
CLASS
  1
XRECORD
  2
AcDbXrecord
  3
AutoCAD 2000
 90
    32768
280
     0
281
     0
  0
CLASS
  1
LONG_TRANSACTION
  2
AcDbLongTransaction
  3
AutoCAD 2000
 90
    32768
280
     0
281
     0
  0
CLASS
  1
LWPOLYLINE
  2
AcDbPolyline
  3
AutoCAD 2000
 90
    32768
280
     0
281
     1
  0
CLASS
  1
HATCH
  2
AcDbHatch
  3
AutoCAD 2000
 90
    32768
280
     0
281
     1
  0
CLASS
  1
XRECORD
  2
AcDbXrecord
  3
AutoCAD 2000
 90
    32768
280
     0
281
     0
  0
CLASS
  1
LONG_TRANSACTION
  2
AcDbLongTransaction
  3
AutoCAD 2000
 90
    32768
280
     0
281
     0
  0
CLASS
  1
LWPOLYLINE
  2
AcDbPolyline
  3
AutoCAD 2000
 90
    32768
280
     0
281
     1
  0
CLASS
  1
HATCH
  2
AcDbHatch
  3
AutoCAD 2000
 90
    32768
280
     0
281
     1
  0
CLASS
  1
XRECORD
  2
AcDbXrecord
  3
AutoCAD 2000
 90
    32768
280
     0
281
     0
  0
CLASS
  1
LONG_TRANSACTION
  2
AcDbLongTransaction
  3
AutoCAD 2000
 90
    32768
280
     0
281
     0
  0
CLASS
  1
LWPOLYLINE
  2
AcDbPolyline
  3
AutoCAD 2000
 90
    32768
280
     0
281
     1
  0
CLASS
  1
HATCH
  2
AcDbHatch
  3
AutoCAD 2000
 90
    32768
280
     0
281
     1
  0
CLASS
  1
XRECORD
  2
AcDbXrecord
  3
AutoCAD 2000
 90
    32768
280
     0
281
     0
  0
CLASS
  1
LONG_TRANSACTION
  2
AcDbLongTransaction
  3
AutoCAD 2000
 90
    32768
280
     0
281
     0
  0
CLASS
  1
LWPOLYLINE
  2
AcDbPolyline
  3
AutoCAD 2000
 90
    32768
280
     0
281
     1
  0
CLASS
  1
HATCH
  2
AcDbHatch
  3
AutoCAD 2000
 90
    32768
280
     0
281
     1
  0
CLASS
  1
XRECORD
  2
AcDbXrecord
  3
AutoCAD 2000
 90
    32768
280
     0
281
     0
  0
CLASS
  1
LONG_TRANSACTION
  2
AcDbLongTransaction
  3
AutoCAD 2000
 90
    32768
280
     0
281
     0
  0
CLASS
  1
LWPOLYLINE
  2
AcDbPolyline
  3
AutoCAD 2000
 90
    32768
280
     0
281
     1
  0
CLASS
  1
HATCH
  2
AcDbHatch
  3
AutoCAD 2000
 90
    32768
280
     0
281
     1
  0
CLASS
  1
XRECORD
  2
AcDbXrecord
  3
AutoCAD 2000
 90
    32768
280
     0
281
     0
  0
CLASS
  1
LONG_TRANSACTION
  2
AcDbLongTransaction
  3
AutoCAD 2000
 90
    32768
280
     0
281
     0
  0
CLASS
  1
LWPOLYLINE
  2
AcDbPolyline
  3
AutoCAD 2000
 90
    32768
280
     0
281
     1
  0
CLASS
  1
HATCH
  2
AcDbHatch
  3
AutoCAD 2000
 90
    32768
280
     0
281
     1
  0
CLASS
  1
XRECORD
  2
AcDbXrecord
  3
AutoCAD 2000
 90
    32768
280
     0
281
     0
  0
CLASS
  1
LONG_TRANSACTION
  2
AcDbLongTransaction
  3
AutoCAD 2000
 90
    32768
280
     0
281
     0
  0
CLASS
  1
LWPOLYLINE
  2
AcDbPolyline
  3
AutoCAD 2000
 90
    32768
280
     0
281
     1
  0
CLASS
  1
HATCH
  2
AcDbHatch
  3
AutoCAD 2000
 90
    32768
280
     0
281
     1
  0
CLASS
  1
XRECORD
  2
AcDbXrecord
  3
AutoCAD 2000
 90
    32768
280
     0
281
     0
  0
CLASS
  1
LONG_TRANSACTION
  2
AcDbLongTransaction
  3
AutoCAD 2000
 90
    32768
280
     0
281
     0
  0
CLASS
  1
LWPOLYLINE
  2
AcDbPolyline
  3
AutoCAD 2000
 90
    32768
280
     0
281
     1
  0
CLASS
  1
HATCH
  2
AcDbHatch
  3
AutoCAD 2000
 90
    32768
280
     0
281
     1
  0
CLASS
  1
XRECORD
  2
AcDbXrecord
  3
AutoCAD 2000
 90
    32768
280
     0
281
     0
  0
CLASS
  1
LONG_TRANSACTION
  2
AcDbLongTransaction
  3
AutoCAD 2000
 90
    32768
280
     0
281
     0
  0
CLASS
  1
LWPOLYLINE
  2
AcDbPolyline
  3
AutoCAD 2000
 90
    32768
280
     0
281
     1
  0
CLASS
  1
HATCH
  2
AcDbHatch
  3
AutoCAD 2000
 90
    32768
280
     0
281
     1
  0
CLASS
  1
XRECORD
  2
AcDbXrecord
  3
AutoCAD 2000
 90
    32768
280
     0
281
     0
  0
CLASS
  1
LONG_TRANSACTION
  2
AcDbLongTransaction
  3
AutoCAD 2000
 90
    32768
280
     0
281
     0
  0
CLASS
  1
LWPOLYLINE
  2
AcDbPolyline
  3
AutoCAD 2000
 90
    32768
280
     0
281
     1
  0
CLASS
  1
HATCH
  2
AcDbHatch
  3
AutoCAD 2000
 90
    32768
280
     0
281
     1
  0
CLASS
  1
XRECORD
  2
AcDbXrecord
  3
AutoCAD 2000
 90
    32768
280
     0
281
     0
  0
CLASS
  1
LONG_TRANSACTION
  2
AcDbLongTransaction
  3
AutoCAD 2000
 90
    32768
280
     0
281
     0
  0
CLASS
  1
LWPOLYLINE
  2
AcDbPolyline
  3
AutoCAD 2000
 90
    32768
280
     0
281
     1
  0
CLASS
  1
HATCH
  2
AcDbHatch
  3
AutoCAD 2000
 90
    32768
280
     0
281
     1
  0
CLASS
  1
XRECORD
  2
AcDbXrecord
  3
AutoCAD 2000
 90
    32768
280
     0
281
     0
  0
CLASS
  1
LONG_TRANSACTION
  2
AcDbLongTransaction
  3
AutoCAD 2000
 90
    32768
280
     0
281
     0
  0
CLASS
  1
LWPOLYLINE
  2
AcDbPolyline
  3
AutoCAD 2000
 90
    32768
280
     0
281
     1
  0
CLASS
  1
HATCH
  2
AcDbHatch
  3
AutoCAD 2000
 90
    32768
280
     0
281
     1
  0
CLASS
  1
XRECORD
  2
AcDbXrecord
  3
AutoCAD 2000
 90
    32768
280
     0
281
     0
  0
CLASS
  1
LONG_TRANSACTION
  2
AcDbLongTransaction
  3
AutoCAD 2000
 90
    32768
280
     0
281
     0
  0
CLASS
  1
LWPOLYLINE
  2
AcDbPolyline
  3
AutoCAD 2000
 90
    32768
280
     0
281
     1
  0
CLASS
  1
HATCH
  2
AcDbHatch
  3
AutoCAD 2000
 90
    32768
280
     0
281
     1
  0
CLASS
  1
XRECORD
  2
AcDbXrecord
  3
AutoCAD 2000
 90
    32768
280
     0
281
     0
  0
CLASS
  1
LONG_TRANSACTION
  2
AcDbLongTransaction
  3
AutoCAD 2000
 90
    32768
280
     0
281
     0
  0
CLASS
  1
LWPOLYLINE
  2
AcDbPolyline
  3
AutoCAD 2000
 90
    32768
280
     0
281
     1
  0
CLASS
  1
HATCH
  2
AcDbHatch
  3
AutoCAD 2000
 90
    32768
280
     0
281
     1
  0
CLASS
  1
XRECORD
  2
AcDbXrecord
  3
AutoCAD 2000
 90
    32768
280
     0
281
     0
  0
CLASS
  1
LONG_TRANSACTION
  2
AcDbLongTransaction
  3
AutoCAD 2000
 90
    32768
280
     0
281
     0
  0
CLASS
  1
LWPOLYLINE
  2
AcDbPolyline
  3
AutoCAD 2000
 90
    32768
280
     0
281
     1
  0
CLASS
  1
HATCH
  2
AcDbHatch
  3
AutoCAD 2000
 90
    32768
280
     0
281
     1
  0
CLASS
  1
XRECORD
  2
AcDbXrecord
  3
AutoCAD 2000
 90
    32768
280
     0
281
     0
  0
CLASS
  1
LONG_TRANSACTION
  2
AcDbLongTransaction
  3
AutoCAD 2000
 90
    32768
280
     0
281
     0
  0
CLASS
  1
LWPOLYLINE
  2
AcDbPolyline
  3
AutoCAD 2000
 90
    32768
280
     0
281
     1
  0
CLASS
  1
HATCH
  2
AcDbHatch
  3
AutoCAD 2000
 90
    32768
280
     0
281
     1
  0
CLASS
  1
XRECORD
  2
AcDbXrecord
  3
AutoCAD 2000
 90
    32768
280
     0
281
     0
  0
ENDSEC
  0
SECTION
  2
TABLES
  0
TABLE
  2
VPORT
  5
90
330
0
100
AcDbSymbolTable
 70
     2
  0
VPORT
  5
48F
330
90
100
AcDbSymbolTableRecord
100
AcDbViewportTableRecord
  2
*ACTIVE
 70
     0
 10
0.0
 20
0.0
 11
1.0
 21
1.0
 12
208.5815860715592
 22
191.7628256939333
 13
0.0
 23
0.0
 14
10.0
 24
10.0
 15
10.0
 25
10.0
 16
0.0
 26
0.0
 36
1.0
 17
0.0
 27
0.0
 37
0.0
 40
394.0834428051995
 41
1.549367088607595
 42
50.0
 43
0.0
 44
0.0
 50
0.0
 51
0.0
 71
     0
 72
 10000
 73
     1
 74
     3
 75
     0
 76
     0
 77
     0
 78
     1
  0
ENDTAB
  0
TABLE
  2
LTYPE
  5
8B
330
0
100
AcDbSymbolTable
 70
     2
  0
LTYPE
  5
8C
330
8B
100
AcDbSymbolTableRecord
100
AcDbLinetypeTableRecord
  2
BYBLOCK
 70
     0
  3

 72
    65
 73
     0
 40
0.0
  0
LTYPE
  5
8D
330
8B
100
AcDbSymbolTableRecord
100
AcDbLinetypeTableRecord
  2
BYLAYER
 70
     0
  3

 72
    65
 73
     0
 40
0.0
  0
LTYPE
  5
9
330
8B
100
AcDbSymbolTableRecord
100
AcDbLinetypeTableRecord
  2
CONTINUOUS
 70
     0
  3
Solid line
 72
    65
 73
     0
 40
0.0
  0
LTYPE
  5
AF
330
8B
100
AcDbSymbolTableRecord
100
AcDbLinetypeTableRecord
  2
CENTER
 70
     0
  3
Center ____ _ ____ _ ____ _ ____ _ ____ _ ____
 72
    65
 73
     4
 40
50.8
 49
31.75
 74
     0
 49
-6.349999999999998
 74
     0
 49
6.349999999999998
 74
     0
 49
-6.349999999999998
 74
     0
  0
ENDTAB
  0
TABLE
  2
LAYER
  5
12
102
{ACAD_XDICTIONARY
360
13
102
}
330
0
100
AcDbSymbolTable
 70
     7
  0
LAYER
  5
5
330
12
100
AcDbSymbolTableRecord
100
AcDbLayerTableRecord
  2
0
 70
     0
 62
     7
  6
CONTINUOUS
  0
LAYER
  5
102
330
12
100
AcDbSymbolTableRecord
100
AcDbLayerTableRecord
  2
3
 70
     0
 62
     3
  6
CONTINUOUS
  0
LAYER
  5
142
330
12
100
AcDbSymbolTableRecord
100
AcDbLayerTableRecord
  2
1
 70
     0
 62
     1
  6
CENTER
  0
LAYER
  5
BF
330
12
100
AcDbSymbolTableRecord
100
AcDbLayerTableRecord
  2
DEFPOINTS
 70
     0
 62
     7
  6
CONTINUOUS
  0
LAYER
  5
AA
330
12
100
AcDbSymbolTableRecord
100
AcDbLayerTableRecord
  2
DIM
 70
     0
 62
     3
  6
CONTINUOUS
  0
LAYER
  5
AE
330
12
100
AcDbSymbolTableRecord
100
AcDbLayerTableRecord
  2
CEN
 70
     0
 62
     1
  6
CENTER
  0
LAYER
  5
A0
330
12
100
AcDbSymbolTableRecord
100
AcDbLayerTableRecord
  2
2
 70
     0
 62
     2
  6
CONTINUOUS
  0
ENDTAB
  0
TABLE
  2
STYLE
  5
88
330
0
100
AcDbSymbolTable
 70
     2
  0
STYLE
  5
89
330
88
100
AcDbSymbolTableRecord
100
AcDbTextStyleTableRecord
  2
STANDARD
 70
     0
 40
0.0
 41
1.0
 50
0.0
 71
     0
 42
5.777225951253058
  3
romans.shx
  4
whgtxt.shx
  0
STYLE
  5
144
330
88
100
AcDbSymbolTableRecord
100
AcDbTextStyleTableRecord
  2
GHS
 70
     0
 40
0.0
 41
0.6
 50
0.0
 71
     0
 42
3.0
  3
ROMANS
  4
GHS
  0
ENDTAB
  0
TABLE
  2
VIEW
  5
8E
330
0
100
AcDbSymbolTable
 70
     0
  0
ENDTAB
  0
TABLE
  2
UCS
  5
8F
330
0
100
AcDbSymbolTable
 70
     0
  0
ENDTAB
  0
TABLE
  2
APPID
  5
92
330
0
100
AcDbSymbolTable
 70
     1
  0
APPID
  5
93
330
92
100
AcDbSymbolTableRecord
100
AcDbRegAppTableRecord
  2
ACAD
 70
     0
  0
ENDTAB
  0
TABLE
  2
DIMSTYLE
  5
94
330
0
100
AcDbSymbolTable
 70
     2
  0
DIMSTYLE
105
9D
102
{ACAD_REACTORS
330
2D6
330
2A2
330
2FD
330
2EE
330
30A
330
23A
330
C6
330
1D1
330
26D
330
227
330
27E
330
214
330
B4
330
290
330
24A
330
F4
330
149
330
155
330
164
330
1EA
330
1A7
330
184
330
195
330
1F7
330
D3
330
121
330
130
330
204
102
}
330
94
100
AcDbSymbolTableRecord
100
AcDbDimStyleTableRecord
  2
STANDARD
 70
     0
  3

  4

  5

  6

  7

 40
1.0
 41
2.5
 42
1.0
 43
10.0
 44
0.6
 45
0.0
 46
0.0
 47
0.0
 48
0.0
140
3.0
141
0.09
142
0.0
143
25.4
144
1.0
145
0.0
146
1.0
147
1.0
 71
     0
 72
     0
 73
     0
 74
     0
 75
     0
 76
     0
 77
     1
 78
     8
170
     0
171
     2
172
     1
173
     0
174
     1
175
     0
176
   123
177
   123
178
     3
270
     2
271
     2
272
     2
273
     2
274
     2
340
89
275
     1
280
     0
281
     0
282
     0
283
     1
284
     0
285
     0
286
     0
287
     0
288
     1
  0
DIMSTYLE
105
95
330
94
100
AcDbSymbolTableRecord
100
AcDbDimStyleTableRecord
  2
1_1_2
 70
     0
  3

  4

  5

  6

  7

 40
1.0
 41
3.0
 42
1.0
 43
10.0
 44
0.6
 45
0.0
 46
0.0
 47
0.0
 48
0.0
140
3.5
141
0.09
142
0.0
143
25.4
144
1.0
145
0.0
146
1.0
147
1.0
 71
     0
 72
     0
 73
     0
 74
     0
 75
     0
 76
     0
 77
     1
 78
     8
170
     0
171
     2
172
     1
173
     0
174
     1
175
     0
176
   123
177
   123
178
     3
270
     2
271
     2
272
     2
273
     2
274
     2
340
89
275
     1
280
     0
281
     0
282
     0
283
     1
284
     0
285
     0
286
     0
287
     0
288
     1
  0
ENDTAB
  0
TABLE
  2
BLOCK_RECORD
  5
1
330
0
100
AcDbSymbolTable
 70
    56
  0
BLOCK_RECORD
  5
2
102
{ACAD_XDICTIONARY
360
3
102
}
330
1
100
AcDbSymbolTableRecord
100
AcDbBlockTableRecord
  2
*MODEL_SPACE
  0
BLOCK_RECORD
  5
D
102
{ACAD_XDICTIONARY
360
E
102
}
330
1
100
AcDbSymbolTableRecord
100
AcDbBlockTableRecord
  2
*PAPER_SPACE
  0
BLOCK_RECORD
  5
2FE
330
1
100
AcDbSymbolTableRecord
100
AcDbBlockTableRecord
  2
*D0
  0
BLOCK_RECORD
  5
2D9
330
1
100
AcDbSymbolTableRecord
100
AcDbBlockTableRecord
  2
*D1
  0
BLOCK_RECORD
  5
2A5
330
1
100
AcDbSymbolTableRecord
100
AcDbBlockTableRecord
  2
*D2
  0
BLOCK_RECORD
  5
2F1
330
1
100
AcDbSymbolTableRecord
100
AcDbBlockTableRecord
  2
*D3
  0
BLOCK_RECORD
  5
30D
330
1
100
AcDbSymbolTableRecord
100
AcDbBlockTableRecord
  2
*D4
  0
BLOCK_RECORD
  5
23D
330
1
100
AcDbSymbolTableRecord
100
AcDbBlockTableRecord
  2
*D5
  0
BLOCK_RECORD
  5
C7
330
1
100
AcDbSymbolTableRecord
100
AcDbBlockTableRecord
  2
*D6
  0
BLOCK_RECORD
  5
228
330
1
100
AcDbSymbolTableRecord
100
AcDbBlockTableRecord
  2
*D7
  0
BLOCK_RECORD
  5
1D4
330
1
100
AcDbSymbolTableRecord
100
AcDbBlockTableRecord
  2
*D8
  0
BLOCK_RECORD
  5
293
330
1
100
AcDbSymbolTableRecord
100
AcDbBlockTableRecord
  2
*D9
  0
BLOCK_RECORD
  5
270
330
1
100
AcDbSymbolTableRecord
100
AcDbBlockTableRecord
  2
*D10
  0
BLOCK_RECORD
  5
24D
330
1
100
AcDbSymbolTableRecord
100
AcDbBlockTableRecord
  2
*D11
  0
BLOCK_RECORD
  5
281
330
1
100
AcDbSymbolTableRecord
100
AcDbBlockTableRecord
  2
*D12
  0
BLOCK_RECORD
  5
217
330
1
100
AcDbSymbolTableRecord
100
AcDbBlockTableRecord
  2
*D13
  0
BLOCK_RECORD
  5
B7
330
1
100
AcDbSymbolTableRecord
100
AcDbBlockTableRecord
  2
*D14
  0
BLOCK_RECORD
  5
F5
330
1
100
AcDbSymbolTableRecord
100
AcDbBlockTableRecord
  2
*D15
  0
BLOCK_RECORD
  5
14A
330
1
100
AcDbSymbolTableRecord
100
AcDbBlockTableRecord
  2
*D16
  0
BLOCK_RECORD
  5
165
330
1
100
AcDbSymbolTableRecord
100
AcDbBlockTableRecord
  2
*D17
  0
BLOCK_RECORD
  5
1EB
330
1
100
AcDbSymbolTableRecord
100
AcDbBlockTableRecord
  2
*D18
  0
BLOCK_RECORD
  5
1F8
330
1
100
AcDbSymbolTableRecord
100
AcDbBlockTableRecord
  2
*D19
  0
BLOCK_RECORD
  5
D4
330
1
100
AcDbSymbolTableRecord
100
AcDbBlockTableRecord
  2
*D20
  0
BLOCK_RECORD
  5
158
330
1
100
AcDbSymbolTableRecord
100
AcDbBlockTableRecord
  2
*D21
  0
BLOCK_RECORD
  5
1AA
330
1
100
AcDbSymbolTableRecord
100
AcDbBlockTableRecord
  2
*D22
  0
BLOCK_RECORD
  5
187
330
1
100
AcDbSymbolTableRecord
100
AcDbBlockTableRecord
  2
*D23
  0
BLOCK_RECORD
  5
198
330
1
100
AcDbSymbolTableRecord
100
AcDbBlockTableRecord
  2
*D24
  0
BLOCK_RECORD
  5
124
330
1
100
AcDbSymbolTableRecord
100
AcDbBlockTableRecord
  2
*D25
  0
BLOCK_RECORD
  5
133
330
1
100
AcDbSymbolTableRecord
100
AcDbBlockTableRecord
  2
*D26
  0
BLOCK_RECORD
  5
207
330
1
100
AcDbSymbolTableRecord
100
AcDbBlockTableRecord
  2
*D27
  0
BLOCK_RECORD
  5
32E
330
1
100
AcDbSymbolTableRecord
100
AcDbBlockTableRecord
  2
*D28
  0
BLOCK_RECORD
  5
339
330
1
100
AcDbSymbolTableRecord
100
AcDbBlockTableRecord
  2
*D29
  0
BLOCK_RECORD
  5
345
330
1
100
AcDbSymbolTableRecord
100
AcDbBlockTableRecord
  2
*D30
  0
BLOCK_RECORD
  5
351
330
1
100
AcDbSymbolTableRecord
100
AcDbBlockTableRecord
  2
*D31
  0
BLOCK_RECORD
  5
35D
330
1
100
AcDbSymbolTableRecord
100
AcDbBlockTableRecord
  2
*D32
  0
BLOCK_RECORD
  5
369
330
1
100
AcDbSymbolTableRecord
100
AcDbBlockTableRecord
  2
*D33
  0
BLOCK_RECORD
  5
375
330
1
100
AcDbSymbolTableRecord
100
AcDbBlockTableRecord
  2
*D34
  0
BLOCK_RECORD
  5
381
330
1
100
AcDbSymbolTableRecord
100
AcDbBlockTableRecord
  2
*D35
  0
BLOCK_RECORD
  5
38F
330
1
100
AcDbSymbolTableRecord
100
AcDbBlockTableRecord
  2
*D36
  0
BLOCK_RECORD
  5
39B
330
1
100
AcDbSymbolTableRecord
100
AcDbBlockTableRecord
  2
*D37
  0
BLOCK_RECORD
  5
3A9
330
1
100
AcDbSymbolTableRecord
100
AcDbBlockTableRecord
  2
*D38
  0
BLOCK_RECORD
  5
3B5
330
1
100
AcDbSymbolTableRecord
100
AcDbBlockTableRecord
  2
*D39
  0
BLOCK_RECORD
  5
3C1
330
1
100
AcDbSymbolTableRecord
100
AcDbBlockTableRecord
  2
*D40
  0
BLOCK_RECORD
  5
3CC
330
1
100
AcDbSymbolTableRecord
100
AcDbBlockTableRecord
  2
*D41
  0
BLOCK_RECORD
  5
3DA
330
1
100
AcDbSymbolTableRecord
100
AcDbBlockTableRecord
  2
*D42
  0
BLOCK_RECORD
  5
3E6
330
1
100
AcDbSymbolTableRecord
100
AcDbBlockTableRecord
  2
*D43
  0
BLOCK_RECORD
  5
3F2
330
1
100
AcDbSymbolTableRecord
100
AcDbBlockTableRecord
  2
*D44
  0
BLOCK_RECORD
  5
3FE
330
1
100
AcDbSymbolTableRecord
100
AcDbBlockTableRecord
  2
*D45
  0
BLOCK_RECORD
  5
40C
330
1
100
AcDbSymbolTableRecord
100
AcDbBlockTableRecord
  2
*D46
  0
BLOCK_RECORD
  5
418
330
1
100
AcDbSymbolTableRecord
100
AcDbBlockTableRecord
  2
*D47
  0
BLOCK_RECORD
  5
424
330
1
100
AcDbSymbolTableRecord
100
AcDbBlockTableRecord
  2
*D48
  0
BLOCK_RECORD
  5
430
330
1
100
AcDbSymbolTableRecord
100
AcDbBlockTableRecord
  2
*D49
  0
BLOCK_RECORD
  5
43B
330
1
100
AcDbSymbolTableRecord
100
AcDbBlockTableRecord
  2
*D50
  0
BLOCK_RECORD
  5
449
330
1
100
AcDbSymbolTableRecord
100
AcDbBlockTableRecord
  2
*D51
  0
BLOCK_RECORD
  5
455
330
1
100
AcDbSymbolTableRecord
100
AcDbBlockTableRecord
  2
*D52
  0
BLOCK_RECORD
  5
463
330
1
100
AcDbSymbolTableRecord
100
AcDbBlockTableRecord
  2
*D53
  0
BLOCK_RECORD
  5
46F
330
1
100
AcDbSymbolTableRecord
100
AcDbBlockTableRecord
  2
*D54
  0
BLOCK_RECORD
  5
47B
330
1
100
AcDbSymbolTableRecord
100
AcDbBlockTableRecord
  2
*D55
  0
ENDTAB
  0
ENDSEC
  0
SECTION
  2
BLOCKS
  0
BLOCK
  5
4
330
2
100
AcDbEntity
  8
0
100
AcDbBlockBegin
  2
*MODEL_SPACE
 70
     0
 10
0.0
 20
0.0
 30
0.0
  3
*MODEL_SPACE
  1

  0
ENDBLK
  5
A
330
2
100
AcDbEntity
  8
0
100
AcDbBlockEnd
  0
BLOCK
  5
F
330
D
100
AcDbEntity
 67
     1
  8
0
100
AcDbBlockBegin
  2
*PAPER_SPACE
 70
     0
 10
0.0
 20
0.0
 30
0.0
  3
*PAPER_SPACE
  1

  0
ENDBLK
  5
10
330
D
100
AcDbEntity
 67
     1
  8
0
100
AcDbBlockEnd
  0
BLOCK
  5
308
330
2FE
100
AcDbEntity
  8
0
100
AcDbBlockBegin
  2
*D0
 70
     1
 10
0.0
 20
0.0
 30
0.0
  3
*D0
  1

  0
LINE
  5
2FF
330
2FE
100
AcDbEntity
  8
DIM
 62
   123
100
AcDbLine
 10
21565.58694147921
 20
-1280.40313395282
 30
0.0
 11
21565.58694147921
 21
-1233.241957349669
 31
0.0
  0
LINE
  5
300
330
2FE
100
AcDbEntity
  8
DIM
 62
   123
100
AcDbLine
 10
21578.0876509163
 20
-1252.723133952819
 30
0.0
 11
21578.0876509163
 21
-1233.241957349669
 31
0.0
  0
LINE
  5
301
330
2FE
100
AcDbEntity
  8
DIM
 62
   123
100
AcDbLine
 10
21568.08694147921
 20
-1233.841957349669
 30
0.0
 11
21575.58765091629
 21
-1233.841957349669
 31
0.0
  0
SOLID
  5
302
330
2FE
100
AcDbEntity
  8
DIM
 62
   123
100
AcDbTrace
 10
21568.08694147921
 20
-1233.425290683002
 30
0.0
 11
21568.08694147921
 21
-1234.258624016335
 31
0.0
 12
21565.58694147921
 22
-1233.841957349669
 32
0.0
 13
21565.58694147921
 23
-1233.841957349669
 33
0.0
  0
SOLID
  5
303
330
2FE
100
AcDbEntity
  8
DIM
 62
   123
100
AcDbTrace
 10
21575.58765091629
 20
-1233.425290683002
 30
0.0
 11
21575.58765091629
 21
-1234.258624016335
 31
0.0
 12
21578.0876509163
 22
-1233.841957349669
 32
0.0
 13
21578.0876509163
 23
-1233.841957349669
 33
0.0
  0
MTEXT
  5
304
330
2FE
100
AcDbEntity
  8
DIM
 62
     3
100
AcDbMText
 10
21570.89193671795
 20
-1231.341957349669
 30
0.0
 40
3.0
 41
0.0
 71
     5
 72
     1
  1
\A1;12.5
1001
ACAD
1000
MTEXTBEGIN
1070
    73
1070
     1
1070
    44
1040
1.0
1070
    74
1070
     0
1000
MTEXTEND
  0
POINT
  5
305
330
2FE
100
AcDbEntity
  8
DEFPOINTS
 62
     0
100
AcDbPoint
 10
21565.58694147921
 20
-1281.40313395282
 30
0.0
  0
POINT
  5
306
330
2FE
100
AcDbEntity
  8
DEFPOINTS
 62
     0
100
AcDbPoint
 10
21578.0876509163
 20
-1253.72313395282
 30
0.0
  0
POINT
  5
307
330
2FE
100
AcDbEntity
  8
DEFPOINTS
 62
     0
100
AcDbPoint
 10
21578.0876509163
 20
-1233.841957349669
 30
0.0
  0
ENDBLK
  5
309
330
2FE
100
AcDbEntity
  8
0
100
AcDbBlockEnd
  0
BLOCK
  5
2E3
330
2D9
100
AcDbEntity
  8
0
100
AcDbBlockBegin
  2
*D1
 70
     1
 10
0.0
 20
0.0
 30
0.0
  3
*D1
  1

  0
LINE
  5
2DA
330
2D9
100
AcDbEntity
  8
DIM
 62
   123
100
AcDbLine
 10
21462.59162785278
 20
-1256.72313395282
 30
0.0
 11
21462.59162785278
 21
-1239.472036158515
 31
0.0
  0
LINE
  5
2DB
330
2D9
100
AcDbEntity
  8
DIM
 62
   123
100
AcDbLine
 10
21522.59162785278
 20
-1257.72313395282
 30
0.0
 11
21522.59162785278
 21
-1239.472036158515
 31
0.0
  0
LINE
  5
2DC
330
2D9
100
AcDbEntity
  8
DIM
 62
   123
100
AcDbLine
 10
21465.09162785278
 20
-1240.072036158514
 30
0.0
 11
21520.09162785278
 21
-1240.072036158514
 31
0.0
  0
SOLID
  5
2DD
330
2D9
100
AcDbEntity
  8
DIM
 62
   123
100
AcDbTrace
 10
21465.09162785278
 20
-1239.655369491848
 30
0.0
 11
21465.09162785278
 21
-1240.488702825182
 31
0.0
 12
21462.59162785278
 22
-1240.072036158514
 32
0.0
 13
21462.59162785278
 23
-1240.072036158514
 33
0.0
  0
SOLID
  5
2DE
330
2D9
100
AcDbEntity
  8
DIM
 62
   123
100
AcDbTrace
 10
21520.09162785278
 20
-1239.655369491848
 30
0.0
 11
21520.09162785278
 21
-1240.488702825182
 31
0.0
 12
21522.59162785278
 22
-1240.072036158514
 32
0.0
 13
21522.59162785278
 23
-1240.072036158514
 33
0.0
  0
MTEXT
  5
2DF
330
2D9
100
AcDbEntity
  8
DIM
 62
     3
100
AcDbMText
 10
21492.26088909311
 20
-1237.572036158515
 30
0.0
 40
3.0
 41
0.0
 71
     5
 72
     1
  1
\A1;60
1001
ACAD
1000
MTEXTBEGIN
1070
    73
1070
     1
1070
    44
1040
1.0
1070
    74
1070
     0
1000
MTEXTEND
  0
POINT
  5
2E0
330
2D9
100
AcDbEntity
  8
DEFPOINTS
 62
     0
100
AcDbPoint
 10
21462.59162785278
 20
-1257.72313395282
 30
0.0
  0
POINT
  5
2E1
330
2D9
100
AcDbEntity
  8
DEFPOINTS
 62
     0
100
AcDbPoint
 10
21522.59162785278
 20
-1258.72313395282
 30
0.0
  0
POINT
  5
2E2
330
2D9
100
AcDbEntity
  8
DEFPOINTS
 62
     0
100
AcDbPoint
 10
21522.59162785278
 20
-1240.072036158514
 30
0.0
  0
ENDBLK
  5
2E4
330
2D9
100
AcDbEntity
  8
0
100
AcDbBlockEnd
  0
BLOCK
  5
2AE
330
2A5
100
AcDbEntity
  8
0
100
AcDbBlockBegin
  2
*D2
 70
     1
 10
0.0
 20
0.0
 30
0.0
  3
*D2
  1

  0
LINE
  5
2A6
330
2A5
100
AcDbEntity
  8
0
 62
   123
100
AcDbLine
 10
21460.06829216126
 20
-1302.390823566098
 30
0.0
 11
21457.90006978184
 21
-1303.635336206984
 31
0.0
  0
LINE
  5
2A7
330
2A5
100
AcDbEntity
  8
0
 62
   123
100
AcDbLine
 10
21525.11496354428
 20
-1265.055444339539
 30
0.0
 11
21546.73523812778
 21
-1252.645875434706
 31
0.0
  0
LINE
  5
2A8
330
2A5
100
AcDbEntity
  8
0
 62
   123
100
AcDbLine
 10
21462.23651454071
 20
-1301.146310925214
 30
0.0
 11
21522.94674116485
 21
-1266.299956980424
 31
0.0
  0
SOLID
  5
2A9
330
2A5
100
AcDbEntity
  8
0
 62
   123
100
AcDbTrace
 10
21459.86087338779
 20
-1302.029453169527
 30
0.0
 11
21460.27571093475
 21
-1302.752193962669
 31
0.0
 12
21462.23651454071
 22
-1301.146310925214
 32
0.0
 13
21462.23651454071
 23
-1301.146310925214
 33
0.0
  0
SOLID
  5
2AA
330
2A5
100
AcDbEntity
  8
0
 62
   123
100
AcDbTrace
 10
21524.9075447708
 20
-1264.694073942968
 30
0.0
 11
21525.32238231775
 21
-1265.41681473611
 31
0.0
 12
21522.94674116485
 22
-1266.299956980424
 32
0.0
 13
21522.94674116485
 23
-1266.299956980424
 33
0.0
  0
MTEXT
  5
2AB
330
2A5
100
AcDbEntity
  8
0
 62
     3
100
AcDbMText
 10
21536.63198833664
 20
-1255.56237613089
 30
0.0
 40
3.0
 41
0.0
 71
     5
 72
     1
  1
\A1;\U+220570%%p0.5
 11
0.86728895177344
 21
0.4978050563541193
 31
0.0
1001
ACAD
1000
MTEXTBEGIN
1070
    73
1070
     1
1070
    44
1040
1.0
1070
    74
1070
     0
1000
MTEXTEND
  0
POINT
  5
2AC
330
2A5
100
AcDbEntity
  8
DEFPOINTS
 62
     0
100
AcDbPoint
 10
21522.94674116485
 20
-1266.299956980424
 30
0.0
  0
POINT
  5
2AD
330
2A5
100
AcDbEntity
  8
DEFPOINTS
 62
     0
100
AcDbPoint
 10
21462.23651454071
 20
-1301.146310925214
 30
0.0
  0
ENDBLK
  5
2AF
330
2A5
100
AcDbEntity
  8
0
100
AcDbBlockEnd
  0
BLOCK
  5
2FB
330
2F1
100
AcDbEntity
  8
0
100
AcDbBlockBegin
  2
*D3
 70
     1
 10
0.0
 20
0.0
 30
0.0
  3
*D3
  1

  0
LINE
  5
2F2
330
2F1
100
AcDbEntity
  8
DIM
 62
   123
100
AcDbLine
 10
21575.0876509163
 20
-1256.72313395282
 30
0.0
 11
21555.92031894206
 21
-1256.72313395282
 31
0.0
  0
LINE
  5
2F3
330
2F1
100
AcDbEntity
  8
DIM
 62
   123
100
AcDbLine
 10
21575.0876509163
 20
-1310.72313395282
 30
0.0
 11
21555.92031894206
 21
-1310.72313395282
 31
0.0
  0
LINE
  5
2F4
330
2F1
100
AcDbEntity
  8
DIM
 62
   123
100
AcDbLine
 10
21556.52031894206
 20
-1259.22313395282
 30
0.0
 11
21556.52031894206
 21
-1308.22313395282
 31
0.0
  0
SOLID
  5
2F5
330
2F1
100
AcDbEntity
  8
DIM
 62
   123
100
AcDbTrace
 10
21556.10365227539
 20
-1259.22313395282
 30
0.0
 11
21556.93698560873
 21
-1259.22313395282
 31
0.0
 12
21556.52031894206
 22
-1256.72313395282
 32
0.0
 13
21556.52031894206
 23
-1256.72313395282
 33
0.0
  0
SOLID
  5
2F6
330
2F1
100
AcDbEntity
  8
DIM
 62
   123
100
AcDbTrace
 10
21556.10365227539
 20
-1308.22313395282
 30
0.0
 11
21556.93698560873
 21
-1308.22313395282
 31
0.0
 12
21556.52031894206
 22
-1310.72313395282
 32
0.0
 13
21556.52031894206
 23
-1310.72313395282
 33
0.0
  0
MTEXT
  5
2F7
330
2F1
100
AcDbEntity
  8
DIM
 62
     3
100
AcDbMText
 10
21552.57016894206
 20
-1283.72313395282
 30
0.0
 40
3.0
 41
0.0
 71
     5
 72
     1
  1
\A1;\A1;%%C54{\F;\H0.7x;\S+0^ -0.03;\H1.429x;(h7)} 
 11
0.0000000000000001
 21
1.0
 31
0.0
1001
ACAD
1000
MTEXTBEGIN
1070
    73
1070
     1
1070
    44
1040
1.0
1070
    74
1070
     0
1000
MTEXTEND
  0
POINT
  5
2F8
330
2F1
100
AcDbEntity
  8
DEFPOINTS
 62
     0
100
AcDbPoint
 10
21576.08765091629
 20
-1256.72313395282
 30
0.0
  0
POINT
  5
2F9
330
2F1
100
AcDbEntity
  8
DEFPOINTS
 62
     0
100
AcDbPoint
 10
21576.08765091629
 20
-1310.72313395282
 30
0.0
  0
POINT
  5
2FA
330
2F1
100
AcDbEntity
  8
DEFPOINTS
 62
     0
100
AcDbPoint
 10
21556.52031894206
 20
-1310.72313395282
 30
0.0
  0
ENDBLK
  5
2FC
330
2F1
100
AcDbEntity
  8
0
100
AcDbBlockEnd
  0
BLOCK
  5
319
330
30D
100
AcDbEntity
  8
0
100
AcDbBlockBegin
  2
*D4
 70
     1
 10
0.0
 20
0.0
 30
0.0
  3
*D4
  1

  0
LINE
  5
30E
330
30D
100
AcDbEntity
  8
DIM
 62
   123
100
AcDbLine
 10
21576.08765091629
 20
-1255.72313395282
 30
0.0
 11
21576.08765091629
 21
-1243.914800619487
 31
0.0
  0
LINE
  5
30F
330
30D
100
AcDbEntity
  8
DIM
 62
   123
100
AcDbLine
 10
21578.0876509163
 20
-1252.723133952819
 30
0.0
 11
21578.0876509163
 21
-1243.914800619487
 31
0.0
  0
LINE
  5
310
330
30D
100
AcDbEntity
  8
DIM
 62
   123
100
AcDbLine
 10
21580.5876509163
 20
-1244.514800619487
 30
0.0
 11
21583.08765091629
 21
-1244.514800619487
 31
0.0
  0
LINE
  5
311
330
30D
100
AcDbEntity
  8
DIM
 62
   123
100
AcDbLine
 10
21573.58765091629
 20
-1244.514800619487
 30
0.0
 11
21567.0876509163
 21
-1244.514800619487
 31
0.0
  0
LINE
  5
312
330
30D
100
AcDbEntity
  8
DIM
 62
   123
100
AcDbLine
 10
21578.0876509163
 20
-1244.514800619487
 30
0.0
 11
21576.08765091629
 21
-1244.514800619487
 31
0.0
  0
SOLID
  5
313
330
30D
100
AcDbEntity
  8
DIM
 62
   123
100
AcDbTrace
 10
21580.5876509163
 20
-1244.09813395282
 30
0.0
 11
21580.5876509163
 21
-1244.931467286154
 31
0.0
 12
21578.0876509163
 22
-1244.514800619487
 32
0.0
 13
21578.0876509163
 23
-1244.514800619487
 33
0.0
  0
SOLID
  5
314
330
30D
100
AcDbEntity
  8
DIM
 62
   123
100
AcDbTrace
 10
21573.58765091629
 20
-1244.09813395282
 30
0.0
 11
21573.58765091629
 21
-1244.931467286154
 31
0.0
 12
21576.08765091629
 22
-1244.514800619487
 32
0.0
 13
21576.08765091629
 23
-1244.514800619487
 33
0.0
  0
MTEXT
  5
315
330
30D
100
AcDbEntity
  8
DIM
 62
     3
100
AcDbMText
 10
21569.0876509163
 20
-1242.014800619487
 30
0.0
 40
3.0
 41
0.0
 71
     5
 72
     1
  1
\A1;2
1001
ACAD
1000
MTEXTBEGIN
1070
    73
1070
     1
1070
    44
1040
1.0
1070
    74
1070
     0
1000
MTEXTEND
  0
POINT
  5
316
330
30D
100
AcDbEntity
  8
DEFPOINTS
 62
     0
100
AcDbPoint
 10
21576.08765091629
 20
-1256.72313395282
 30
0.0
  0
POINT
  5
317
330
30D
100
AcDbEntity
  8
DEFPOINTS
 62
     0
100
AcDbPoint
 10
21578.0876509163
 20
-1253.72313395282
 30
0.0
  0
POINT
  5
318
330
30D
100
AcDbEntity
  8
DEFPOINTS
 62
     0
100
AcDbPoint
 10
21578.0876509163
 20
-1244.514800619487
 30
0.0
  0
ENDBLK
  5
31A
330
30D
100
AcDbEntity
  8
0
100
AcDbBlockEnd
  0
BLOCK
  5
247
330
23D
100
AcDbEntity
  8
0
100
AcDbBlockBegin
  2
*D5
 70
     1
 10
0.0
 20
0.0
 30
0.0
  3
*D5
  1

  0
LINE
  5
23E
330
23D
100
AcDbEntity
  8
DIM
 62
   123
100
AcDbLine
 10
21578.0876509163
 20
-1252.723133952819
 30
0.0
 11
21578.0876509163
 21
-1233.241957349669
 31
0.0
  0
LINE
  5
23F
330
23D
100
AcDbEntity
  8
DIM
 62
   123
100
AcDbLine
 10
21604.08765091629
 20
-1252.723133952819
 30
0.0
 11
21604.08765091629
 21
-1233.241957349669
 31
0.0
  0
LINE
  5
240
330
23D
100
AcDbEntity
  8
DIM
 62
   123
100
AcDbLine
 10
21580.5876509163
 20
-1233.841957349669
 30
0.0
 11
21601.5876509163
 21
-1233.841957349669
 31
0.0
  0
SOLID
  5
241
330
23D
100
AcDbEntity
  8
DIM
 62
   123
100
AcDbTrace
 10
21580.5876509163
 20
-1233.425290683002
 30
0.0
 11
21580.5876509163
 21
-1234.258624016336
 31
0.0
 12
21578.0876509163
 22
-1233.841957349669
 32
0.0
 13
21578.0876509163
 23
-1233.841957349669
 33
0.0
  0
SOLID
  5
242
330
23D
100
AcDbEntity
  8
DIM
 62
   123
100
AcDbTrace
 10
21601.5876509163
 20
-1233.425290683002
 30
0.0
 11
21601.5876509163
 21
-1234.258624016336
 31
0.0
 12
21604.08765091629
 22
-1233.841957349669
 32
0.0
 13
21604.08765091629
 23
-1233.841957349669
 33
0.0
  0
MTEXT
  5
243
330
23D
100
AcDbEntity
  8
DIM
 62
     3
100
AcDbMText
 10
21590.14193671795
 20
-1231.341957349669
 30
0.0
 40
3.0
 41
0.0
 71
     5
 72
     1
  1
\A1;26
1001
ACAD
1000
MTEXTBEGIN
1070
    73
1070
     1
1070
    44
1040
1.0
1070
    74
1070
     0
1000
MTEXTEND
  0
POINT
  5
244
330
23D
100
AcDbEntity
  8
DEFPOINTS
 62
     0
100
AcDbPoint
 10
21578.0876509163
 20
-1253.72313395282
 30
0.0
  0
POINT
  5
245
330
23D
100
AcDbEntity
  8
DEFPOINTS
 62
     0
100
AcDbPoint
 10
21604.08765091629
 20
-1253.72313395282
 30
0.0
  0
POINT
  5
246
330
23D
100
AcDbEntity
  8
DEFPOINTS
 62
     0
100
AcDbPoint
 10
21604.08765091629
 20
-1233.841957349669
 30
0.0
  0
ENDBLK
  5
248
330
23D
100
AcDbEntity
  8
0
100
AcDbBlockEnd
  0
BLOCK
  5
D0
330
C7
100
AcDbEntity
  8
0
100
AcDbBlockBegin
  2
*D6
 70
     1
 10
0.0
 20
0.0
 30
0.0
  3
*D6
  1

  0
LINE
  5
C8
330
C7
100
AcDbEntity
  8
2
 62
   123
100
AcDbLine
 10
21438.91343038003
 20
-1395.687426632183
 30
0.0
 11
21436.71677271655
 21
-1396.881032559383
 31
0.0
  0
LINE
  5
C9
330
C7
100
AcDbEntity
  8
2
 62
   123
100
AcDbLine
 10
21504.8131602846
 20
-1359.87924881615
 30
0.0
 11
21530.45532647471
 21
-1345.945970973389
 31
0.0
  0
LINE
  5
CA
330
C7
100
AcDbEntity
  8
2
 62
   123
100
AcDbLine
 10
21441.11008804352
 20
-1394.493820704981
 30
0.0
 11
21502.61650262111
 21
-1361.072854743351
 31
0.0
  0
SOLID
  5
CB
330
C7
100
AcDbEntity
  8
2
 62
   123
100
AcDbTrace
 10
21438.71449605884
 20
-1395.321317021604
 30
0.0
 11
21439.11236470124
 21
-1396.053536242763
 31
0.0
 12
21441.11008804352
 22
-1394.493820704981
 32
0.0
 13
21441.11008804352
 23
-1394.493820704981
 33
0.0
  0
SOLID
  5
CC
330
C7
100
AcDbEntity
  8
2
 62
   123
100
AcDbTrace
 10
21504.6142259634
 20
-1359.513139205572
 30
0.0
 11
21505.01209460581
 21
-1360.24535842673
 31
0.0
 12
21502.61650262111
 22
-1361.072854743351
 32
0.0
 13
21502.61650262111
 23
-1361.072854743351
 33
0.0
  0
MTEXT
  5
CD
330
C7
100
AcDbEntity
  8
2
 62
     3
100
AcDbMText
 10
21520.28680495098
 20
-1348.626046098183
 30
0.0
 40
3.0
 41
0.0
 71
     5
 72
     1
  1
\A1;\U+220570%%P0.5
 11
0.8786630653942813
 21
0.4774423708804289
 31
0.0
1001
ACAD
1000
MTEXTBEGIN
1070
    73
1070
     1
1070
    44
1040
1.0
1070
    74
1070
     0
1000
MTEXTEND
  0
POINT
  5
CE
330
C7
100
AcDbEntity
  8
DEFPOINTS
 62
     0
100
AcDbPoint
 10
21502.61650262111
 20
-1361.072854743351
 30
0.0
  0
POINT
  5
CF
330
C7
100
AcDbEntity
  8
DEFPOINTS
 62
     0
100
AcDbPoint
 10
21441.11008804352
 20
-1394.493820704981
 30
0.0
  0
ENDBLK
  5
D1
330
C7
100
AcDbEntity
  8
0
100
AcDbBlockEnd
  0
BLOCK
  5
232
330
228
100
AcDbEntity
  8
0
100
AcDbBlockBegin
  2
*D7
 70
     1
 10
0.0
 20
0.0
 30
0.0
  3
*D7
  1

  0
LINE
  5
229
330
228
100
AcDbEntity
  8
0
 62
   123
100
AcDbLine
 10
21595.46485850173
 20
-1355.783337724167
 30
0.0
 11
21536.05413576386
 21
-1355.783337724167
 31
0.0
  0
LINE
  5
22A
330
228
100
AcDbEntity
  8
0
 62
   123
100
AcDbLine
 10
21595.46485850173
 20
-1379.783337724166
 30
0.0
 11
21536.05413576386
 21
-1379.783337724166
 31
0.0
  0
LINE
  5
22B
330
228
100
AcDbEntity
  8
0
 62
   123
100
AcDbLine
 10
21536.65413576386
 20
-1358.283337724166
 30
0.0
 11
21536.65413576386
 21
-1377.283337724166
 31
0.0
  0
SOLID
  5
22C
330
228
100
AcDbEntity
  8
0
 62
   123
100
AcDbTrace
 10
21536.23746909719
 20
-1358.283337724166
 30
0.0
 11
21537.07080243053
 21
-1358.283337724166
 31
0.0
 12
21536.65413576386
 22
-1355.783337724167
 32
0.0
 13
21536.65413576386
 23
-1355.783337724167
 33
0.0
  0
SOLID
  5
22D
330
228
100
AcDbEntity
  8
0
 62
   123
100
AcDbTrace
 10
21536.23746909719
 20
-1377.283337724166
 30
0.0
 11
21537.07080243053
 21
-1377.283337724166
 31
0.0
 12
21536.65413576386
 22
-1379.783337724166
 32
0.0
 13
21536.65413576386
 23
-1379.783337724166
 33
0.0
  0
MTEXT
  5
22E
330
228
100
AcDbEntity
  8
0
 62
     3
100
AcDbMText
 10
21534.15413576385
 20
-1367.783337724163
 30
0.0
 40
3.0
 41
0.0
 71
     5
 72
     1
  1
\A1;%%c24
 11
0.0000000000000001
 21
1.0
 31
0.0
1001
ACAD
1000
MTEXTBEGIN
1070
    73
1070
     1
1070
    44
1040
1.0
1070
    74
1070
     0
1000
MTEXTEND
  0
POINT
  5
22F
330
228
100
AcDbEntity
  8
DEFPOINTS
 62
     0
100
AcDbPoint
 10
21596.46485850173
 20
-1355.783337724167
 30
0.0
  0
POINT
  5
230
330
228
100
AcDbEntity
  8
DEFPOINTS
 62
     0
100
AcDbPoint
 10
21596.46485850173
 20
-1379.783337724166
 30
0.0
  0
POINT
  5
231
330
228
100
AcDbEntity
  8
DEFPOINTS
 62
     0
100
AcDbPoint
 10
21536.65413576386
 20
-1379.783337724166
 30
0.0
  0
ENDBLK
  5
233
330
228
100
AcDbEntity
  8
0
100
AcDbBlockEnd
  0
BLOCK
  5
1DE
330
1D4
100
AcDbEntity
  8
0
100
AcDbBlockBegin
  2
*D8
 70
     1
 10
0.0
 20
0.0
 30
0.0
  3
*D8
  1

  0
LINE
  5
1D5
330
1D4
100
AcDbEntity
  8
0
 62
   123
100
AcDbLine
 10
21441.86329533233
 20
-1403.783337724166
 30
0.0
 11
21441.86329533233
 21
-1421.411658644552
 31
0.0
  0
LINE
  5
1D6
330
1D4
100
AcDbEntity
  8
0
 62
   123
100
AcDbLine
 10
21501.86329533233
 20
-1403.783337724166
 30
0.0
 11
21501.86329533233
 21
-1421.411658644552
 31
0.0
  0
LINE
  5
1D7
330
1D4
100
AcDbEntity
  8
0
 62
   123
100
AcDbLine
 10
21444.36329533233
 20
-1420.811658644552
 30
0.0
 11
21499.36329533233
 21
-1420.811658644552
 31
0.0
  0
SOLID
  5
1D8
330
1D4
100
AcDbEntity
  8
0
 62
   123
100
AcDbTrace
 10
21444.36329533233
 20
-1420.394991977885
 30
0.0
 11
21444.36329533233
 21
-1421.228325311219
 31
0.0
 12
21441.86329533233
 22
-1420.811658644552
 32
0.0
 13
21441.86329533233
 23
-1420.811658644552
 33
0.0
  0
SOLID
  5
1D9
330
1D4
100
AcDbEntity
  8
0
 62
   123
100
AcDbTrace
 10
21499.36329533233
 20
-1420.394991977885
 30
0.0
 11
21499.36329533233
 21
-1421.228325311219
 31
0.0
 12
21501.86329533233
 22
-1420.811658644552
 32
0.0
 13
21501.86329533233
 23
-1420.811658644552
 33
0.0
  0
MTEXT
  5
1DA
330
1D4
100
AcDbEntity
  8
0
 62
     3
100
AcDbMText
 10
21473.90804176118
 20
-1418.311658644552
 30
0.0
 40
3.0
 41
0.0
 71
     5
 72
     1
  1
\A1;60
1001
ACAD
1000
MTEXTBEGIN
1070
    73
1070
     1
1070
    44
1040
1.0
1070
    74
1070
     0
1000
MTEXTEND
  0
POINT
  5
1DB
330
1D4
100
AcDbEntity
  8
DEFPOINTS
 62
     0
100
AcDbPoint
 10
21441.86329533233
 20
-1402.783337724167
 30
0.0
  0
POINT
  5
1DC
330
1D4
100
AcDbEntity
  8
DEFPOINTS
 62
     0
100
AcDbPoint
 10
21501.86329533233
 20
-1402.783337724167
 30
0.0
  0
POINT
  5
1DD
330
1D4
100
AcDbEntity
  8
DEFPOINTS
 62
     0
100
AcDbPoint
 10
21501.86329533233
 20
-1420.811658644552
 30
0.0
  0
ENDBLK
  5
1DF
330
1D4
100
AcDbEntity
  8
0
100
AcDbBlockEnd
  0
BLOCK
  5
29F
330
293
100
AcDbEntity
  8
0
100
AcDbBlockBegin
  2
*D9
 70
     1
 10
0.0
 20
0.0
 30
0.0
  3
*D9
  1

  0
LINE
  5
294
330
293
100
AcDbEntity
  8
0
 62
   123
100
AcDbLine
 10
21582.46485850173
 20
-1371.783337724167
 30
0.0
 11
21587.0585838418
 21
-1371.783337724167
 31
0.0
  0
LINE
  5
295
330
293
100
AcDbEntity
  8
0
 62
   123
100
AcDbLine
 10
21579.96485850173
 20
-1363.783337724167
 30
0.0
 11
21587.0585838418
 21
-1363.783337724167
 31
0.0
  0
LINE
  5
296
330
293
100
AcDbEntity
  8
0
 62
   123
100
AcDbLine
 10
21586.4585838418
 20
-1374.283337724166
 30
0.0
 11
21586.4585838418
 21
-1376.783337724166
 31
0.0
  0
LINE
  5
297
330
293
100
AcDbEntity
  8
0
 62
   123
100
AcDbLine
 10
21586.4585838418
 20
-1361.283337724167
 30
0.0
 11
21586.4585838418
 21
-1321.413334500715
 31
0.0
  0
LINE
  5
298
330
293
100
AcDbEntity
  8
0
 62
   123
100
AcDbLine
 10
21586.4585838418
 20
-1371.783337724167
 30
0.0
 11
21586.4585838418
 21
-1363.783337724167
 31
0.0
  0
SOLID
  5
299
330
293
100
AcDbEntity
  8
0
 62
   123
100
AcDbTrace
 10
21586.04191717513
 20
-1374.283337724166
 30
0.0
 11
21586.87525050845
 21
-1374.283337724166
 31
0.0
 12
21586.4585838418
 22
-1371.783337724167
 32
0.0
 13
21586.4585838418
 23
-1371.783337724167
 33
0.0
  0
SOLID
  5
29A
330
293
100
AcDbEntity
  8
0
 62
   123
100
AcDbTrace
 10
21586.04191717513
 20
-1361.283337724167
 30
0.0
 11
21586.87525050845
 21
-1361.283337724167
 31
0.0
 12
21586.4585838418
 22
-1363.783337724167
 32
0.0
 13
21586.4585838418
 23
-1363.783337724167
 33
0.0
  0
MTEXT
  5
29B
330
293
100
AcDbEntity
  8
0
 62
     3
100
AcDbMText
 10
21582.5084338418
 20
-1335.086048786426
 30
0.0
 40
3.0
 41
0.0
 71
     5
 72
     1
  1
\A1;\A1;{\F;%%C8\H0.7x;\S+0^ -0.015;\H1.429x;(h7)}
 11
0.0000000000000001
 21
1.0
 31
0.0
1001
ACAD
1000
MTEXTBEGIN
1070
    73
1070
     1
1070
    44
1040
1.0
1070
    74
1070
     0
1000
MTEXTEND
  0
POINT
  5
29C
330
293
100
AcDbEntity
  8
DEFPOINTS
 62
     0
100
AcDbPoint
 10
21581.46485850173
 20
-1371.783337724167
 30
0.0
  0
POINT
  5
29D
330
293
100
AcDbEntity
  8
DEFPOINTS
 62
     0
100
AcDbPoint
 10
21578.96485850173
 20
-1363.783337724167
 30
0.0
  0
POINT
  5
29E
330
293
100
AcDbEntity
  8
DEFPOINTS
 62
     0
100
AcDbPoint
 10
21586.4585838418
 20
-1363.783337724167
 30
0.0
  0
ENDBLK
  5
2A0
330
293
100
AcDbEntity
  8
0
100
AcDbBlockEnd
  0
BLOCK
  5
27C
330
270
100
AcDbEntity
  8
0
100
AcDbBlockBegin
  2
*D10
 70
     1
 10
0.0
 20
0.0
 30
0.0
  3
*D10
  1

  0
LINE
  5
271
330
270
100
AcDbEntity
  8
0
 62
   123
100
AcDbLine
 10
21565.96485850173
 20
-1364.783337724167
 30
0.0
 11
21553.49205599216
 21
-1364.783337724167
 31
0.0
  0
LINE
  5
272
330
270
100
AcDbEntity
  8
0
 62
   123
100
AcDbLine
 10
21565.96485850173
 20
-1371.783337724167
 30
0.0
 11
21553.49205599216
 21
-1371.783337724167
 31
0.0
  0
LINE
  5
273
330
270
100
AcDbEntity
  8
0
 62
   123
100
AcDbLine
 10
21554.09205599216
 20
-1374.283337724166
 30
0.0
 11
21554.09205599216
 21
-1376.783337724166
 31
0.0
  0
LINE
  5
274
330
270
100
AcDbEntity
  8
0
 62
   123
100
AcDbLine
 10
21554.09205599216
 20
-1362.283337724167
 30
0.0
 11
21554.09205599216
 21
-1349.783337724171
 31
0.0
  0
LINE
  5
275
330
270
100
AcDbEntity
  8
0
 62
   123
100
AcDbLine
 10
21554.09205599216
 20
-1371.783337724167
 30
0.0
 11
21554.09205599216
 21
-1364.783337724167
 31
0.0
  0
SOLID
  5
276
330
270
100
AcDbEntity
  8
0
 62
   123
100
AcDbTrace
 10
21553.67538932549
 20
-1374.283337724166
 30
0.0
 11
21554.50872265881
 21
-1374.283337724166
 31
0.0
 12
21554.09205599216
 22
-1371.783337724167
 32
0.0
 13
21554.09205599216
 23
-1371.783337724167
 33
0.0
  0
SOLID
  5
277
330
270
100
AcDbEntity
  8
0
 62
   123
100
AcDbTrace
 10
21553.67538932549
 20
-1362.283337724167
 30
0.0
 11
21554.50872265881
 21
-1362.283337724167
 31
0.0
 12
21554.09205599216
 22
-1364.783337724167
 32
0.0
 13
21554.09205599216
 23
-1364.783337724167
 33
0.0
  0
MTEXT
  5
278
330
270
100
AcDbEntity
  8
0
 62
     3
100
AcDbMText
 10
21551.59205599215
 20
-1351.783337724167
 30
0.0
 40
3.0
 41
0.0
 71
     5
 72
     1
  1
\A1;7
 11
0.0000000000000001
 21
1.0
 31
0.0
1001
ACAD
1000
MTEXTBEGIN
1070
    73
1070
     1
1070
    44
1040
1.0
1070
    74
1070
     0
1000
MTEXTEND
  0
POINT
  5
279
330
270
100
AcDbEntity
  8
DEFPOINTS
 62
     0
100
AcDbPoint
 10
21566.96485850173
 20
-1364.783337724167
 30
0.0
  0
POINT
  5
27A
330
270
100
AcDbEntity
  8
DEFPOINTS
 62
     0
100
AcDbPoint
 10
21566.96485850173
 20
-1371.783337724167
 30
0.0
  0
POINT
  5
27B
330
270
100
AcDbEntity
  8
DEFPOINTS
 62
     0
100
AcDbPoint
 10
21554.09205599216
 20
-1371.783337724167
 30
0.0
  0
ENDBLK
  5
27D
330
270
100
AcDbEntity
  8
0
100
AcDbBlockEnd
  0
BLOCK
  5
257
330
24D
100
AcDbEntity
  8
0
100
AcDbBlockBegin
  2
*D11
 70
     1
 10
0.0
 20
0.0
 30
0.0
  3
*D11
  1

  0
LINE
  5
24E
330
24D
100
AcDbEntity
  8
0
 62
   123
100
AcDbLine
 10
21566.96485850173
 20
-1363.783337724167
 30
0.0
 11
21566.96485850173
 21
-1350.155500797106
 31
0.0
  0
LINE
  5
24F
330
24D
100
AcDbEntity
  8
0
 62
   123
100
AcDbLine
 10
21578.96485850173
 20
-1362.783337724167
 30
0.0
 11
21578.96485850173
 21
-1350.155500797106
 31
0.0
  0
LINE
  5
250
330
24D
100
AcDbEntity
  8
0
 62
   123
100
AcDbLine
 10
21569.46485850173
 20
-1350.755500797106
 30
0.0
 11
21576.46485850173
 21
-1350.755500797106
 31
0.0
  0
SOLID
  5
251
330
24D
100
AcDbEntity
  8
0
 62
   123
100
AcDbTrace
 10
21569.46485850173
 20
-1350.338834130439
 30
0.0
 11
21569.46485850173
 21
-1351.172167463772
 31
0.0
 12
21566.96485850173
 22
-1350.755500797106
 32
0.0
 13
21566.96485850173
 23
-1350.755500797106
 33
0.0
  0
SOLID
  5
252
330
24D
100
AcDbEntity
  8
0
 62
   123
100
AcDbTrace
 10
21576.46485850173
 20
-1350.338834130439
 30
0.0
 11
21576.46485850173
 21
-1351.172167463772
 31
0.0
 12
21578.96485850173
 22
-1350.755500797106
 32
0.0
 13
21578.96485850173
 23
-1350.755500797106
 33
0.0
  0
MTEXT
  5
253
330
24D
100
AcDbEntity
  8
0
 62
     3
100
AcDbMText
 10
21572.96485850173
 20
-1348.255500797105
 30
0.0
 40
3.0
 41
0.0
 71
     5
 72
     1
  1
\A1;12
1001
ACAD
1000
MTEXTBEGIN
1070
    73
1070
     1
1070
    44
1040
1.0
1070
    74
1070
     0
1000
MTEXTEND
  0
POINT
  5
254
330
24D
100
AcDbEntity
  8
DEFPOINTS
 62
     0
100
AcDbPoint
 10
21566.96485850173
 20
-1364.783337724167
 30
0.0
  0
POINT
  5
255
330
24D
100
AcDbEntity
  8
DEFPOINTS
 62
     0
100
AcDbPoint
 10
21578.96485850173
 20
-1363.783337724167
 30
0.0
  0
POINT
  5
256
330
24D
100
AcDbEntity
  8
DEFPOINTS
 62
     0
100
AcDbPoint
 10
21578.96485850173
 20
-1350.755500797106
 30
0.0
  0
ENDBLK
  5
258
330
24D
100
AcDbEntity
  8
0
100
AcDbBlockEnd
  0
BLOCK
  5
28B
330
281
100
AcDbEntity
  8
0
100
AcDbBlockBegin
  2
*D12
 70
     1
 10
0.0
 20
0.0
 30
0.0
  3
*D12
  1

  0
LINE
  5
282
330
281
100
AcDbEntity
  8
0
 62
   123
100
AcDbLine
 10
21562.0667197005
 20
-1367.783337724167
 30
0.0
 11
21544.10241380138
 21
-1367.783337724167
 31
0.0
  0
LINE
  5
283
330
281
100
AcDbEntity
  8
0
 62
   123
100
AcDbLine
 10
21554.35718536763
 20
-1377.783337724166
 30
0.0
 11
21544.10241380138
 21
-1377.783337724166
 31
0.0
  0
LINE
  5
284
330
281
100
AcDbEntity
  8
0
 62
   123
100
AcDbLine
 10
21544.70241380137
 20
-1370.283337724167
 30
0.0
 11
21544.70241380137
 21
-1375.283337724166
 31
0.0
  0
SOLID
  5
285
330
281
100
AcDbEntity
  8
0
 62
   123
100
AcDbTrace
 10
21544.2857471347
 20
-1370.283337724167
 30
0.0
 11
21545.11908046804
 21
-1370.283337724167
 31
0.0
 12
21544.70241380137
 22
-1367.783337724167
 32
0.0
 13
21544.70241380137
 23
-1367.783337724167
 33
0.0
  0
SOLID
  5
286
330
281
100
AcDbEntity
  8
0
 62
   123
100
AcDbTrace
 10
21544.2857471347
 20
-1375.283337724166
 30
0.0
 11
21545.11908046804
 21
-1375.283337724166
 31
0.0
 12
21544.70241380137
 22
-1377.783337724166
 32
0.0
 13
21544.70241380137
 23
-1377.783337724166
 33
0.0
  0
MTEXT
  5
287
330
281
100
AcDbEntity
  8
0
 62
     3
100
AcDbMText
 10
21542.20241380138
 20
-1372.783337724164
 30
0.0
 40
3.0
 41
0.0
 71
     5
 72
     1
  1
\A1;10
 11
0.0000000000000001
 21
1.0
 31
0.0
1001
ACAD
1000
MTEXTBEGIN
1070
    73
1070
     1
1070
    44
1040
1.0
1070
    74
1070
     0
1000
MTEXTEND
  0
POINT
  5
288
330
281
100
AcDbEntity
  8
DEFPOINTS
 62
     0
100
AcDbPoint
 10
21563.0667197005
 20
-1367.783337724167
 30
0.0
  0
POINT
  5
289
330
281
100
AcDbEntity
  8
DEFPOINTS
 62
     0
100
AcDbPoint
 10
21555.35718536763
 20
-1377.783337724166
 30
0.0
  0
POINT
  5
28A
330
281
100
AcDbEntity
  8
DEFPOINTS
 62
     0
100
AcDbPoint
 10
21544.70241380137
 20
-1377.783337724166
 30
0.0
  0
ENDBLK
  5
28C
330
281
100
AcDbEntity
  8
0
100
AcDbBlockEnd
  0
BLOCK
  5
221
330
217
100
AcDbEntity
  8
0
100
AcDbBlockBegin
  2
*D13
 70
     1
 10
0.0
 20
0.0
 30
0.0
  3
*D13
  1

  0
LINE
  5
218
330
217
100
AcDbEntity
  8
0
 62
   123
100
AcDbLine
 10
21638.96485850173
 20
-1408.283337724166
 30
0.0
 11
21638.96485850173
 21
-1421.179352105792
 31
0.0
  0
LINE
  5
219
330
217
100
AcDbEntity
  8
0
 62
   123
100
AcDbLine
 10
21598.96485850173
 20
-1408.283337724166
 30
0.0
 11
21598.96485850173
 21
-1421.179352105792
 31
0.0
  0
LINE
  5
21A
330
217
100
AcDbEntity
  8
0
 62
   123
100
AcDbLine
 10
21636.46485850173
 20
-1420.579352105793
 30
0.0
 11
21601.46485850173
 21
-1420.579352105793
 31
0.0
  0
SOLID
  5
21B
330
217
100
AcDbEntity
  8
0
 62
   123
100
AcDbTrace
 10
21636.46485850173
 20
-1420.162685439126
 30
0.0
 11
21636.46485850173
 21
-1420.996018772459
 31
0.0
 12
21638.96485850173
 22
-1420.579352105793
 32
0.0
 13
21638.96485850173
 23
-1420.579352105793
 33
0.0
  0
SOLID
  5
21C
330
217
100
AcDbEntity
  8
0
 62
   123
100
AcDbTrace
 10
21601.46485850173
 20
-1420.162685439126
 30
0.0
 11
21601.46485850173
 21
-1420.996018772459
 31
0.0
 12
21598.96485850173
 22
-1420.579352105793
 32
0.0
 13
21598.96485850173
 23
-1420.579352105793
 33
0.0
  0
MTEXT
  5
21D
330
217
100
AcDbEntity
  8
0
 62
     3
100
AcDbMText
 10
21618.96485850173
 20
-1418.079352105793
 30
0.0
 40
3.0
 41
0.0
 71
     5
 72
     1
  1
\A1;L
1001
ACAD
1000
MTEXTBEGIN
1070
    73
1070
     1
1070
    44
1040
1.0
1070
    74
1070
     0
1000
MTEXTEND
  0
POINT
  5
21E
330
217
100
AcDbEntity
  8
DEFPOINTS
 62
     0
100
AcDbPoint
 10
21638.96485850173
 20
-1407.283337724166
 30
0.0
  0
POINT
  5
21F
330
217
100
AcDbEntity
  8
DEFPOINTS
 62
     0
100
AcDbPoint
 10
21598.96485850173
 20
-1407.283337724166
 30
0.0
  0
POINT
  5
220
330
217
100
AcDbEntity
  8
DEFPOINTS
 62
     0
100
AcDbPoint
 10
21598.96485850173
 20
-1420.579352105793
 30
0.0
  0
ENDBLK
  5
222
330
217
100
AcDbEntity
  8
0
100
AcDbBlockEnd
  0
BLOCK
  5
C2
330
B7
100
AcDbEntity
  8
0
100
AcDbBlockBegin
  2
*D14
 70
     1
 10
0.0
 20
0.0
 30
0.0
  3
*D14
  1

  0
LINE
  5
B8
330
B7
100
AcDbEntity
  8
0
 62
   123
100
AcDbLine
 10
21566.96485850173
 20
-1372.783337724167
 30
0.0
 11
21566.96485850173
 21
-1421.179352105792
 31
0.0
  0
LINE
  5
B9
330
B7
100
AcDbEntity
  8
0
 62
   123
100
AcDbLine
 10
21598.96485850173
 20
-1408.283337724166
 30
0.0
 11
21598.96485850173
 21
-1421.179352105792
 31
0.0
  0
LINE
  5
BA
330
B7
100
AcDbEntity
  8
0
 62
   123
100
AcDbLine
 10
21569.46485850173
 20
-1420.579352105793
 30
0.0
 11
21596.46485850173
 21
-1420.579352105793
 31
0.0
  0
SOLID
  5
BB
330
B7
100
AcDbEntity
  8
0
 62
   123
100
AcDbTrace
 10
21569.46485850173
 20
-1420.162685439126
 30
0.0
 11
21569.46485850173
 21
-1420.996018772459
 31
0.0
 12
21566.96485850173
 22
-1420.579352105793
 32
0.0
 13
21566.96485850173
 23
-1420.579352105793
 33
0.0
  0
SOLID
  5
BC
330
B7
100
AcDbEntity
  8
0
 62
   123
100
AcDbTrace
 10
21596.46485850173
 20
-1420.162685439126
 30
0.0
 11
21596.46485850173
 21
-1420.996018772459
 31
0.0
 12
21598.96485850173
 22
-1420.579352105793
 32
0.0
 13
21598.96485850173
 23
-1420.579352105793
 33
0.0
  0
MTEXT
  5
BD
330
B7
100
AcDbEntity
  8
0
 62
     3
100
AcDbMText
 10
21582.96485850173
 20
-1418.079352105793
 30
0.0
 40
3.0
 41
0.0
 71
     5
 72
     1
  1
\A1;32
1001
ACAD
1000
MTEXTBEGIN
1070
    73
1070
     1
1070
    44
1040
1.0
1070
    74
1070
     0
1000
MTEXTEND
  0
POINT
  5
BE
330
B7
100
AcDbEntity
  8
DEFPOINTS
 62
     0
100
AcDbPoint
 10
21566.96485850173
 20
-1371.783337724167
 30
0.0
  0
POINT
  5
C0
330
B7
100
AcDbEntity
  8
DEFPOINTS
 62
     0
100
AcDbPoint
 10
21598.96485850173
 20
-1407.283337724166
 30
0.0
  0
POINT
  5
C1
330
B7
100
AcDbEntity
  8
DEFPOINTS
 62
     0
100
AcDbPoint
 10
21598.96485850173
 20
-1420.579352105793
 30
0.0
  0
ENDBLK
  5
C3
330
B7
100
AcDbEntity
  8
0
100
AcDbBlockEnd
  0
BLOCK
  5
FF
330
F5
100
AcDbEntity
  8
0
100
AcDbBlockBegin
  2
*D15
 70
     1
 10
0.0
 20
0.0
 30
0.0
  3
*D15
  1

  0
LINE
  5
F6
330
F5
100
AcDbEntity
  8
0
 62
   123
100
AcDbLine
 10
21417.41752418853
 20
-1573.009227445407
 30
0.0
 11
21417.41752418853
 21
-1590.43109977487
 31
0.0
  0
LINE
  5
F7
330
F5
100
AcDbEntity
  8
0
 62
   123
100
AcDbLine
 10
21477.41752418853
 20
-1573.009227445407
 30
0.0
 11
21477.41752418853
 21
-1590.43109977487
 31
0.0
  0
LINE
  5
F8
330
F5
100
AcDbEntity
  8
0
 62
   123
100
AcDbLine
 10
21419.91752418853
 20
-1589.83109977487
 30
0.0
 11
21474.91752418853
 21
-1589.83109977487
 31
0.0
  0
SOLID
  5
F9
330
F5
100
AcDbEntity
  8
0
 62
   123
100
AcDbTrace
 10
21419.91752418853
 20
-1589.414433108203
 30
0.0
 11
21419.91752418853
 21
-1590.247766441537
 31
0.0
 12
21417.41752418853
 22
-1589.83109977487
 32
0.0
 13
21417.41752418853
 23
-1589.83109977487
 33
0.0
  0
SOLID
  5
FA
330
F5
100
AcDbEntity
  8
0
 62
   123
100
AcDbTrace
 10
21474.91752418853
 20
-1589.414433108203
 30
0.0
 11
21474.91752418853
 21
-1590.247766441537
 31
0.0
 12
21477.41752418853
 22
-1589.83109977487
 32
0.0
 13
21477.41752418853
 23
-1589.83109977487
 33
0.0
  0
MTEXT
  5
FB
330
F5
100
AcDbEntity
  8
0
 62
     3
100
AcDbMText
 10
21447.41752418853
 20
-1587.331099774869
 30
0.0
 40
3.0
 41
0.0
 71
     5
 72
     1
  1
\A1;60
1001
ACAD
1000
MTEXTBEGIN
1070
    73
1070
     1
1070
    44
1040
1.0
1070
    74
1070
     0
1000
MTEXTEND
  0
POINT
  5
FC
330
F5
100
AcDbEntity
  8
DEFPOINTS
 62
     0
100
AcDbPoint
 10
21417.41752418853
 20
-1572.009227445407
 30
0.0
  0
POINT
  5
FD
330
F5
100
AcDbEntity
  8
DEFPOINTS
 62
     0
100
AcDbPoint
 10
21477.41752418853
 20
-1572.009227445407
 30
0.0
  0
POINT
  5
FE
330
F5
100
AcDbEntity
  8
DEFPOINTS
 62
     0
100
AcDbPoint
 10
21477.41752418853
 20
-1589.83109977487
 30
0.0
  0
ENDBLK
  5
100
330
F5
100
AcDbEntity
  8
0
100
AcDbBlockEnd
  0
BLOCK
  5
153
330
14A
100
AcDbEntity
  8
0
100
AcDbBlockBegin
  2
*D16
 70
     1
 10
0.0
 20
0.0
 30
0.0
  3
*D16
  1

  0
LINE
  5
14B
330
14A
100
AcDbEntity
  8
DIM
 62
   123
100
AcDbLine
 10
21411.78279688131
 20
-1557.688962448428
 30
0.0
 11
21409.40714839417
 21
-1558.46761144863
 31
0.0
  0
LINE
  5
14C
330
14A
100
AcDbEntity
  8
DIM
 62
   123
100
AcDbLine
 10
21483.05225149574
 20
-1534.329492442397
 30
0.0
 11
21506.74086069615
 21
-1526.565249554672
 31
0.0
  0
LINE
  5
14D
330
14A
100
AcDbEntity
  8
DIM
 62
   123
100
AcDbLine
 10
21414.15844536846
 20
-1556.910313448226
 30
0.0
 11
21480.67660300859
 21
-1535.108141442599
 31
0.0
  0
SOLID
  5
14E
330
14A
100
AcDbEntity
  8
DIM
 62
   123
100
AcDbTrace
 10
21411.65302204795
 20
-1557.293021033902
 30
0.0
 11
21411.91257171469
 21
-1558.084903862952
 31
0.0
 12
21414.15844536846
 22
-1556.910313448226
 32
0.0
 13
21414.15844536846
 23
-1556.910313448226
 33
0.0
  0
SOLID
  5
14F
330
14A
100
AcDbEntity
  8
DIM
 62
   123
100
AcDbTrace
 10
21482.92247666236
 20
-1533.933551027871
 30
0.0
 11
21483.18202632911
 21
-1534.72543385692
 31
0.0
 12
21480.67660300859
 22
-1535.108141442599
 32
0.0
 13
21480.67660300859
 23
-1535.108141442599
 33
0.0
  0
MTEXT
  5
150
330
14A
100
AcDbEntity
  8
DIM
 62
     3
100
AcDbMText
 10
21496.25599073419
 20
-1527.370938411204
 30
0.0
 40
3.0
 41
0.0
 71
     5
 72
     1
  1
\A1;\U+220570%%P0.5
 11
0.9502593948589654
 21
0.3114596000804487
 31
0.0
1001
ACAD
1000
MTEXTBEGIN
1070
    73
1070
     1
1070
    44
1040
1.0
1070
    74
1070
     0
1000
MTEXTEND
  0
POINT
  5
151
330
14A
100
AcDbEntity
  8
DEFPOINTS
 62
     0
100
AcDbPoint
 10
21480.67660300859
 20
-1535.108141442599
 30
0.0
  0
POINT
  5
152
330
14A
100
AcDbEntity
  8
DEFPOINTS
 62
     0
100
AcDbPoint
 10
21414.15844536846
 20
-1556.910313448226
 30
0.0
  0
ENDBLK
  5
154
330
14A
100
AcDbEntity
  8
0
100
AcDbBlockEnd
  0
BLOCK
  5
16F
330
165
100
AcDbEntity
  8
0
100
AcDbBlockBegin
  2
*D17
 70
     1
 10
0.0
 20
0.0
 30
0.0
  3
*D17
  1

  0
LINE
  5
166
330
165
100
AcDbEntity
  8
DIM
 62
   123
100
AcDbLine
 10
21589.10384697741
 20
-1524.009227445407
 30
0.0
 11
21516.82254369643
 21
-1524.009227445407
 31
0.0
  0
LINE
  5
167
330
165
100
AcDbEntity
  8
DIM
 62
   123
100
AcDbLine
 10
21589.10384697741
 20
-1548.009227445407
 30
0.0
 11
21516.82254369643
 21
-1548.009227445407
 31
0.0
  0
LINE
  5
168
330
165
100
AcDbEntity
  8
DIM
 62
   123
100
AcDbLine
 10
21517.42254369643
 20
-1526.509227445407
 30
0.0
 11
21517.42254369643
 21
-1545.509227445407
 31
0.0
  0
SOLID
  5
169
330
165
100
AcDbEntity
  8
DIM
 62
   123
100
AcDbTrace
 10
21517.00587702976
 20
-1526.509227445407
 30
0.0
 11
21517.8392103631
 21
-1526.509227445407
 31
0.0
 12
21517.42254369643
 22
-1524.009227445407
 32
0.0
 13
21517.42254369643
 23
-1524.009227445407
 33
0.0
  0
SOLID
  5
16A
330
165
100
AcDbEntity
  8
DIM
 62
   123
100
AcDbTrace
 10
21517.00587702976
 20
-1545.509227445407
 30
0.0
 11
21517.8392103631
 21
-1545.509227445407
 31
0.0
 12
21517.42254369643
 22
-1548.009227445407
 32
0.0
 13
21517.42254369643
 23
-1548.009227445407
 33
0.0
  0
MTEXT
  5
16B
330
165
100
AcDbEntity
  8
DIM
 62
     3
100
AcDbMText
 10
21514.92254369642
 20
-1536.009227445403
 30
0.0
 40
3.0
 41
0.0
 71
     5
 72
     1
  1
\A1;%%c24
 11
0.0000000000000001
 21
1.0
 31
0.0
1001
ACAD
1000
MTEXTBEGIN
1070
    73
1070
     1
1070
    44
1040
1.0
1070
    74
1070
     0
1000
MTEXTEND
  0
POINT
  5
16C
330
165
100
AcDbEntity
  8
DEFPOINTS
 62
     0
100
AcDbPoint
 10
21590.10384697741
 20
-1524.009227445407
 30
0.0
  0
POINT
  5
16D
330
165
100
AcDbEntity
  8
DEFPOINTS
 62
     0
100
AcDbPoint
 10
21590.10384697741
 20
-1548.009227445407
 30
0.0
  0
POINT
  5
16E
330
165
100
AcDbEntity
  8
DEFPOINTS
 62
     0
100
AcDbPoint
 10
21517.42254369643
 20
-1548.009227445407
 30
0.0
  0
ENDBLK
  5
170
330
165
100
AcDbEntity
  8
0
100
AcDbBlockEnd
  0
BLOCK
  5
1F5
330
1EB
100
AcDbEntity
  8
0
100
AcDbBlockBegin
  2
*D18
 70
     1
 10
0.0
 20
0.0
 30
0.0
  3
*D18
  1

  0
LINE
  5
1EC
330
1EB
100
AcDbEntity
  8
DIM
 62
   123
100
AcDbLine
 10
21632.6038469774
 20
-1515.009227445407
 30
0.0
 11
21632.6038469774
 21
-1485.858701921516
 31
0.0
  0
LINE
  5
1ED
330
1EB
100
AcDbEntity
  8
DIM
 62
   123
100
AcDbLine
 10
21592.6038469774
 20
-1515.509227445407
 30
0.0
 11
21592.6038469774
 21
-1485.858701921516
 31
0.0
  0
LINE
  5
1EE
330
1EB
100
AcDbEntity
  8
DIM
 62
   123
100
AcDbLine
 10
21630.10384697741
 20
-1486.458701921516
 30
0.0
 11
21595.10384697741
 21
-1486.458701921516
 31
0.0
  0
SOLID
  5
1EF
330
1EB
100
AcDbEntity
  8
DIM
 62
   123
100
AcDbTrace
 10
21630.10384697741
 20
-1486.042035254849
 30
0.0
 11
21630.10384697741
 21
-1486.875368588182
 31
0.0
 12
21632.6038469774
 22
-1486.458701921516
 32
0.0
 13
21632.6038469774
 23
-1486.458701921516
 33
0.0
  0
SOLID
  5
1F0
330
1EB
100
AcDbEntity
  8
DIM
 62
   123
100
AcDbTrace
 10
21595.10384697741
 20
-1486.042035254849
 30
0.0
 11
21595.10384697741
 21
-1486.875368588182
 31
0.0
 12
21592.6038469774
 22
-1486.458701921516
 32
0.0
 13
21592.6038469774
 23
-1486.458701921516
 33
0.0
  0
MTEXT
  5
1F1
330
1EB
100
AcDbEntity
  8
DIM
 62
     3
100
AcDbMText
 10
21612.60384697741
 20
-1483.958701921515
 30
0.0
 40
3.0
 41
0.0
 71
     5
 72
     1
  1
\A1;L
1001
ACAD
1000
MTEXTBEGIN
1070
    73
1070
     1
1070
    44
1040
1.0
1070
    74
1070
     0
1000
MTEXTEND
  0
POINT
  5
1F2
330
1EB
100
AcDbEntity
  8
DEFPOINTS
 62
     0
100
AcDbPoint
 10
21632.6038469774
 20
-1516.009227445407
 30
0.0
  0
POINT
  5
1F3
330
1EB
100
AcDbEntity
  8
DEFPOINTS
 62
     0
100
AcDbPoint
 10
21592.6038469774
 20
-1516.509227445407
 30
0.0
  0
POINT
  5
1F4
330
1EB
100
AcDbEntity
  8
DEFPOINTS
 62
     0
100
AcDbPoint
 10
21592.6038469774
 20
-1486.458701921516
 30
0.0
  0
ENDBLK
  5
1F6
330
1EB
100
AcDbEntity
  8
0
100
AcDbBlockEnd
  0
BLOCK
  5
202
330
1F8
100
AcDbEntity
  8
0
100
AcDbBlockBegin
  2
*D19
 70
     1
 10
0.0
 20
0.0
 30
0.0
  3
*D19
  1

  0
LINE
  5
1F9
330
1F8
100
AcDbEntity
  8
0
 62
   123
100
AcDbLine
 10
21632.6038469774
 20
-1485.509227445407
 30
0.0
 11
21632.6038469774
 21
-1485.909227445407
 31
0.0
  0
LINE
  5
1FA
330
1F8
100
AcDbEntity
  8
0
 62
   123
100
AcDbLine
 10
21707.60384697741
 20
-1518.009227445407
 30
0.0
 11
21707.60384697741
 21
-1485.909227445407
 31
0.0
  0
LINE
  5
1FB
330
1F8
100
AcDbEntity
  8
0
 62
   123
100
AcDbLine
 10
21635.10384697741
 20
-1486.509227445407
 30
0.0
 11
21705.1038469774
 21
-1486.509227445407
 31
0.0
  0
SOLID
  5
1FC
330
1F8
100
AcDbEntity
  8
0
 62
   123
100
AcDbTrace
 10
21635.10384697741
 20
-1486.09256077874
 30
0.0
 11
21635.10384697741
 21
-1486.925894112074
 31
0.0
 12
21632.6038469774
 22
-1486.509227445407
 32
0.0
 13
21632.6038469774
 23
-1486.509227445407
 33
0.0
  0
SOLID
  5
1FD
330
1F8
100
AcDbEntity
  8
0
 62
   123
100
AcDbTrace
 10
21705.1038469774
 20
-1486.09256077874
 30
0.0
 11
21705.1038469774
 21
-1486.925894112074
 31
0.0
 12
21707.60384697741
 22
-1486.509227445407
 32
0.0
 13
21707.60384697741
 23
-1486.509227445407
 33
0.0
  0
MTEXT
  5
1FE
330
1F8
100
AcDbEntity
  8
0
 62
     3
100
AcDbMText
 10
21670.10384697741
 20
-1484.009227445407
 30
0.0
 40
3.0
 41
0.0
 71
     5
 72
     1
  1
\A1;75
1001
ACAD
1000
MTEXTBEGIN
1070
    73
1070
     1
1070
    44
1040
1.0
1070
    74
1070
     0
1000
MTEXTEND
  0
POINT
  5
1FF
330
1F8
100
AcDbEntity
  8
DEFPOINTS
 62
     0
100
AcDbPoint
 10
21632.6038469774
 20
-1486.509227445407
 30
0.0
  0
POINT
  5
200
330
1F8
100
AcDbEntity
  8
DEFPOINTS
 62
     0
100
AcDbPoint
 10
21707.60384697741
 20
-1519.009227445407
 30
0.0
  0
POINT
  5
201
330
1F8
100
AcDbEntity
  8
DEFPOINTS
 62
     0
100
AcDbPoint
 10
21707.60384697741
 20
-1486.509227445407
 30
0.0
  0
ENDBLK
  5
203
330
1F8
100
AcDbEntity
  8
0
100
AcDbBlockEnd
  0
BLOCK
  5
DE
330
D4
100
AcDbEntity
  8
0
100
AcDbBlockBegin
  2
*D20
 70
     1
 10
0.0
 20
0.0
 30
0.0
  3
*D20
  1

  0
LINE
  5
D5
330
D4
100
AcDbEntity
  8
0
 62
   123
100
AcDbLine
 10
21701.60384697741
 20
-1516.009227445406
 30
0.0
 11
21723.82940895356
 21
-1516.009227445406
 31
0.0
  0
LINE
  5
D6
330
D4
100
AcDbEntity
  8
0
 62
   123
100
AcDbLine
 10
21701.60384697741
 20
-1576.009227445407
 30
0.0
 11
21723.82940895356
 21
-1576.009227445407
 31
0.0
  0
LINE
  5
D7
330
D4
100
AcDbEntity
  8
0
 62
   123
100
AcDbLine
 10
21723.22940895357
 20
-1518.509227445407
 30
0.0
 11
21723.22940895357
 21
-1573.509227445407
 31
0.0
  0
SOLID
  5
D8
330
D4
100
AcDbEntity
  8
0
 62
   123
100
AcDbTrace
 10
21722.8127422869
 20
-1518.509227445407
 30
0.0
 11
21723.64607562024
 21
-1518.509227445407
 31
0.0
 12
21723.22940895357
 22
-1516.009227445406
 32
0.0
 13
21723.22940895357
 23
-1516.009227445406
 33
0.0
  0
SOLID
  5
D9
330
D4
100
AcDbEntity
  8
0
 62
   123
100
AcDbTrace
 10
21722.8127422869
 20
-1573.509227445407
 30
0.0
 11
21723.64607562024
 21
-1573.509227445407
 31
0.0
 12
21723.22940895357
 22
-1576.009227445407
 32
0.0
 13
21723.22940895357
 23
-1576.009227445407
 33
0.0
  0
MTEXT
  5
DA
330
D4
100
AcDbEntity
  8
0
 62
     3
100
AcDbMText
 10
21720.72940895358
 20
-1546.009227445407
 30
0.0
 40
3.0
 41
0.0
 71
     5
 72
     1
  1
\A1;%%C60
 11
0.0000000000000001
 21
1.0
 31
0.0
1001
ACAD
1000
MTEXTBEGIN
1070
    73
1070
     1
1070
    44
1040
1.0
1070
    74
1070
     0
1000
MTEXTEND
  0
POINT
  5
DB
330
D4
100
AcDbEntity
  8
DEFPOINTS
 62
     0
100
AcDbPoint
 10
21700.60384697741
 20
-1516.009227445406
 30
0.0
  0
POINT
  5
DC
330
D4
100
AcDbEntity
  8
DEFPOINTS
 62
     0
100
AcDbPoint
 10
21700.60384697741
 20
-1576.009227445407
 30
0.0
  0
POINT
  5
DD
330
D4
100
AcDbEntity
  8
DEFPOINTS
 62
     0
100
AcDbPoint
 10
21723.22940895357
 20
-1576.009227445407
 30
0.0
  0
ENDBLK
  5
DF
330
D4
100
AcDbEntity
  8
0
100
AcDbBlockEnd
  0
BLOCK
  5
162
330
158
100
AcDbEntity
  8
0
100
AcDbBlockBegin
  2
*D21
 70
     1
 10
0.0
 20
0.0
 30
0.0
  3
*D21
  1

  0
LINE
  5
159
330
158
100
AcDbEntity
  8
DIM
 62
   123
100
AcDbLine
 10
21555.70570817618
 20
-1536.009227445407
 30
0.0
 11
21528.70266540026
 21
-1536.009227445407
 31
0.0
  0
LINE
  5
15A
330
158
100
AcDbEntity
  8
DIM
 62
   123
100
AcDbLine
 10
21554.9112733839
 20
-1546.009227445407
 30
0.0
 11
21528.70266540026
 21
-1546.009227445407
 31
0.0
  0
LINE
  5
15B
330
158
100
AcDbEntity
  8
DIM
 62
   123
100
AcDbLine
 10
21529.30266540026
 20
-1538.509227445407
 30
0.0
 11
21529.30266540026
 21
-1543.509227445407
 31
0.0
  0
SOLID
  5
15C
330
158
100
AcDbEntity
  8
DIM
 62
   123
100
AcDbTrace
 10
21528.8859987336
 20
-1538.509227445407
 30
0.0
 11
21529.71933206694
 21
-1538.509227445407
 31
0.0
 12
21529.30266540026
 22
-1536.009227445407
 32
0.0
 13
21529.30266540026
 23
-1536.009227445407
 33
0.0
  0
SOLID
  5
15D
330
158
100
AcDbEntity
  8
DIM
 62
   123
100
AcDbTrace
 10
21528.8859987336
 20
-1543.509227445407
 30
0.0
 11
21529.71933206694
 21
-1543.509227445407
 31
0.0
 12
21529.30266540026
 22
-1546.009227445407
 32
0.0
 13
21529.30266540026
 23
-1546.009227445407
 33
0.0
  0
MTEXT
  5
15E
330
158
100
AcDbEntity
  8
DIM
 62
     3
100
AcDbMText
 10
21526.80266540027
 20
-1541.009227445407
 30
0.0
 40
3.0
 41
0.0
 71
     5
 72
     1
  1
\A1;10
 11
0.0000000000000001
 21
1.0
 31
0.0
1001
ACAD
1000
MTEXTBEGIN
1070
    73
1070
     1
1070
    44
1040
1.0
1070
    74
1070
     0
1000
MTEXTEND
  0
POINT
  5
15F
330
158
100
AcDbEntity
  8
DEFPOINTS
 62
     0
100
AcDbPoint
 10
21556.70570817619
 20
-1536.009227445407
 30
0.0
  0
POINT
  5
160
330
158
100
AcDbEntity
  8
DEFPOINTS
 62
     0
100
AcDbPoint
 10
21555.91127338391
 20
-1546.009227445407
 30
0.0
  0
POINT
  5
161
330
158
100
AcDbEntity
  8
DEFPOINTS
 62
     0
100
AcDbPoint
 10
21529.30266540026
 20
-1546.009227445407
 30
0.0
  0
ENDBLK
  5
163
330
158
100
AcDbEntity
  8
0
100
AcDbBlockEnd
  0
BLOCK
  5
1B6
330
1AA
100
AcDbEntity
  8
0
100
AcDbBlockBegin
  2
*D22
 70
     1
 10
0.0
 20
0.0
 30
0.0
  3
*D22
  1

  0
LINE
  5
1AB
330
1AA
100
AcDbEntity
  8
DIM
 62
   123
100
AcDbLine
 10
21559.60384697741
 20
-1540.009227445407
 30
0.0
 11
21537.61275122628
 21
-1540.009227445407
 31
0.0
  0
LINE
  5
1AC
330
1AA
100
AcDbEntity
  8
DIM
 62
   123
100
AcDbLine
 10
21571.6038469774
 20
-1532.009227445407
 30
0.0
 11
21537.61275122628
 21
-1532.009227445407
 31
0.0
  0
LINE
  5
1AD
330
1AA
100
AcDbEntity
  8
DIM
 62
   123
100
AcDbLine
 10
21538.21275122628
 20
-1542.509227445407
 30
0.0
 11
21538.21275122628
 21
-1545.009227445407
 31
0.0
  0
LINE
  5
1AE
330
1AA
100
AcDbEntity
  8
DIM
 62
   123
100
AcDbLine
 10
21538.21275122628
 20
-1529.509227445407
 30
0.0
 11
21538.21275122628
 21
-1492.375993183429
 31
0.0
  0
LINE
  5
1AF
330
1AA
100
AcDbEntity
  8
DIM
 62
   123
100
AcDbLine
 10
21538.21275122628
 20
-1540.009227445407
 30
0.0
 11
21538.21275122628
 21
-1532.009227445407
 31
0.0
  0
SOLID
  5
1B0
330
1AA
100
AcDbEntity
  8
DIM
 62
   123
100
AcDbTrace
 10
21537.79608455961
 20
-1542.509227445407
 30
0.0
 11
21538.62941789295
 21
-1542.509227445407
 31
0.0
 12
21538.21275122628
 22
-1540.009227445407
 32
0.0
 13
21538.21275122628
 23
-1540.009227445407
 33
0.0
  0
SOLID
  5
1B1
330
1AA
100
AcDbEntity
  8
DIM
 62
   123
100
AcDbTrace
 10
21537.79608455961
 20
-1529.509227445407
 30
0.0
 11
21538.62941789295
 21
-1529.509227445407
 31
0.0
 12
21538.21275122628
 22
-1532.009227445407
 32
0.0
 13
21538.21275122628
 23
-1532.009227445407
 33
0.0
  0
MTEXT
  5
1B2
330
1AA
100
AcDbEntity
  8
DIM
 62
     3
100
AcDbMText
 10
21534.26260122628
 20
-1506.048707469139
 30
0.0
 40
3.0
 41
0.0
 71
     5
 72
     1
  1
\A1;\A1;{\F;%%C8\H0.7x;\S+0^ -0.015;\H1.429x;(h7)}
 11
0.0000000000000001
 21
1.0
 31
0.0
1001
ACAD
1000
MTEXTBEGIN
1070
    73
1070
     1
1070
    44
1040
1.0
1070
    74
1070
     0
1000
MTEXTEND
  0
POINT
  5
1B3
330
1AA
100
AcDbEntity
  8
DEFPOINTS
 62
     0
100
AcDbPoint
 10
21560.60384697741
 20
-1540.009227445407
 30
0.0
  0
POINT
  5
1B4
330
1AA
100
AcDbEntity
  8
DEFPOINTS
 62
     0
100
AcDbPoint
 10
21572.60384697741
 20
-1532.009227445407
 30
0.0
  0
POINT
  5
1B5
330
1AA
100
AcDbEntity
  8
DEFPOINTS
 62
     0
100
AcDbPoint
 10
21538.21275122628
 20
-1532.009227445407
 30
0.0
  0
ENDBLK
  5
1B7
330
1AA
100
AcDbEntity
  8
0
100
AcDbBlockEnd
  0
BLOCK
  5
193
330
187
100
AcDbEntity
  8
0
100
AcDbBlockBegin
  2
*D23
 70
     1
 10
0.0
 20
0.0
 30
0.0
  3
*D23
  1

  0
LINE
  5
188
330
187
100
AcDbEntity
  8
0
 62
   123
100
AcDbLine
 10
21559.60384697741
 20
-1533.009227445407
 30
0.0
 11
21547.13104446784
 21
-1533.009227445407
 31
0.0
  0
LINE
  5
189
330
187
100
AcDbEntity
  8
0
 62
   123
100
AcDbLine
 10
21559.60384697741
 20
-1540.009227445407
 30
0.0
 11
21547.13104446784
 21
-1540.009227445407
 31
0.0
  0
LINE
  5
18A
330
187
100
AcDbEntity
  8
0
 62
   123
100
AcDbLine
 10
21547.73104446784
 20
-1542.509227445407
 30
0.0
 11
21547.73104446784
 21
-1545.009227445407
 31
0.0
  0
LINE
  5
18B
330
187
100
AcDbEntity
  8
0
 62
   123
100
AcDbLine
 10
21547.73104446784
 20
-1530.509227445407
 30
0.0
 11
21547.73104446784
 21
-1518.354050698487
 31
0.0
  0
LINE
  5
18C
330
187
100
AcDbEntity
  8
0
 62
   123
100
AcDbLine
 10
21547.73104446784
 20
-1540.009227445407
 30
0.0
 11
21547.73104446784
 21
-1533.009227445407
 31
0.0
  0
SOLID
  5
18D
330
187
100
AcDbEntity
  8
0
 62
   123
100
AcDbTrace
 10
21547.31437780116
 20
-1542.509227445407
 30
0.0
 11
21548.1477111345
 21
-1542.509227445407
 31
0.0
 12
21547.73104446784
 22
-1540.009227445407
 32
0.0
 13
21547.73104446784
 23
-1540.009227445407
 33
0.0
  0
SOLID
  5
18E
330
187
100
AcDbEntity
  8
0
 62
   123
100
AcDbTrace
 10
21547.31437780116
 20
-1530.509227445407
 30
0.0
 11
21548.1477111345
 21
-1530.509227445407
 31
0.0
 12
21547.73104446784
 22
-1533.009227445407
 32
0.0
 13
21547.73104446784
 23
-1533.009227445407
 33
0.0
  0
MTEXT
  5
18F
330
187
100
AcDbEntity
  8
0
 62
     3
100
AcDbMText
 10
21545.23104446784
 20
-1520.354050698485
 30
0.0
 40
3.0
 41
0.0
 71
     5
 72
     1
  1
\A1;7
 11
0.0000000000000001
 21
1.0
 31
0.0
1001
ACAD
1000
MTEXTBEGIN
1070
    73
1070
     1
1070
    44
1040
1.0
1070
    74
1070
     0
1000
MTEXTEND
  0
POINT
  5
190
330
187
100
AcDbEntity
  8
DEFPOINTS
 62
     0
100
AcDbPoint
 10
21560.60384697741
 20
-1533.009227445407
 30
0.0
  0
POINT
  5
191
330
187
100
AcDbEntity
  8
DEFPOINTS
 62
     0
100
AcDbPoint
 10
21560.60384697741
 20
-1540.009227445407
 30
0.0
  0
POINT
  5
192
330
187
100
AcDbEntity
  8
DEFPOINTS
 62
     0
100
AcDbPoint
 10
21547.73104446784
 20
-1540.009227445407
 30
0.0
  0
ENDBLK
  5
194
330
187
100
AcDbEntity
  8
0
100
AcDbBlockEnd
  0
BLOCK
  5
1A2
330
198
100
AcDbEntity
  8
0
100
AcDbBlockBegin
  2
*D24
 70
     1
 10
0.0
 20
0.0
 30
0.0
  3
*D24
  1

  0
LINE
  5
199
330
198
100
AcDbEntity
  8
0
 62
   123
100
AcDbLine
 10
21560.60384697741
 20
-1532.009227445407
 30
0.0
 11
21560.60384697741
 21
-1518.381390518345
 31
0.0
  0
LINE
  5
19A
330
198
100
AcDbEntity
  8
0
 62
   123
100
AcDbLine
 10
21572.60384697741
 20
-1531.009227445407
 30
0.0
 11
21572.60384697741
 21
-1518.381390518345
 31
0.0
  0
LINE
  5
19B
330
198
100
AcDbEntity
  8
0
 62
   123
100
AcDbLine
 10
21563.10384697741
 20
-1518.981390518345
 30
0.0
 11
21570.10384697741
 21
-1518.981390518345
 31
0.0
  0
SOLID
  5
19C
330
198
100
AcDbEntity
  8
0
 62
   123
100
AcDbTrace
 10
21563.10384697741
 20
-1518.564723851677
 30
0.0
 11
21563.10384697741
 21
-1519.398057185012
 31
0.0
 12
21560.60384697741
 22
-1518.981390518345
 32
0.0
 13
21560.60384697741
 23
-1518.981390518345
 33
0.0
  0
SOLID
  5
19D
330
198
100
AcDbEntity
  8
0
 62
   123
100
AcDbTrace
 10
21570.10384697741
 20
-1518.564723851677
 30
0.0
 11
21570.10384697741
 21
-1519.398057185012
 31
0.0
 12
21572.60384697741
 22
-1518.981390518345
 32
0.0
 13
21572.60384697741
 23
-1518.981390518345
 33
0.0
  0
MTEXT
  5
19E
330
198
100
AcDbEntity
  8
0
 62
     3
100
AcDbMText
 10
21566.60384697741
 20
-1516.481390518345
 30
0.0
 40
3.0
 41
0.0
 71
     5
 72
     1
  1
\A1;12
1001
ACAD
1000
MTEXTBEGIN
1070
    73
1070
     1
1070
    44
1040
1.0
1070
    74
1070
     0
1000
MTEXTEND
  0
POINT
  5
19F
330
198
100
AcDbEntity
  8
DEFPOINTS
 62
     0
100
AcDbPoint
 10
21560.60384697741
 20
-1533.009227445407
 30
0.0
  0
POINT
  5
1A0
330
198
100
AcDbEntity
  8
DEFPOINTS
 62
     0
100
AcDbPoint
 10
21572.60384697741
 20
-1532.009227445407
 30
0.0
  0
POINT
  5
1A1
330
198
100
AcDbEntity
  8
DEFPOINTS
 62
     0
100
AcDbPoint
 10
21572.60384697741
 20
-1518.981390518345
 30
0.0
  0
ENDBLK
  5
1A3
330
198
100
AcDbEntity
  8
0
100
AcDbBlockEnd
  0
BLOCK
  5
12E
330
124
100
AcDbEntity
  8
0
100
AcDbBlockBegin
  2
*D25
 70
     1
 10
0.0
 20
0.0
 30
0.0
  3
*D25
  1

  0
LINE
  5
125
330
124
100
AcDbEntity
  8
0
 62
   123
100
AcDbLine
 10
21560.60384697741
 20
-1532.009227445407
 30
0.0
 11
21560.60384697741
 21
-1485.858701921516
 31
0.0
  0
LINE
  5
126
330
124
100
AcDbEntity
  8
0
 62
   123
100
AcDbLine
 10
21592.6038469774
 20
-1515.509227445407
 30
0.0
 11
21592.6038469774
 21
-1485.858701921516
 31
0.0
  0
LINE
  5
127
330
124
100
AcDbEntity
  8
0
 62
   123
100
AcDbLine
 10
21563.10384697741
 20
-1486.458701921516
 30
0.0
 11
21590.10384697741
 21
-1486.458701921516
 31
0.0
  0
SOLID
  5
128
330
124
100
AcDbEntity
  8
0
 62
   123
100
AcDbTrace
 10
21563.10384697741
 20
-1486.042035254849
 30
0.0
 11
21563.10384697741
 21
-1486.875368588182
 31
0.0
 12
21560.60384697741
 22
-1486.458701921516
 32
0.0
 13
21560.60384697741
 23
-1486.458701921516
 33
0.0
  0
SOLID
  5
129
330
124
100
AcDbEntity
  8
0
 62
   123
100
AcDbTrace
 10
21590.10384697741
 20
-1486.042035254849
 30
0.0
 11
21590.10384697741
 21
-1486.875368588182
 31
0.0
 12
21592.6038469774
 22
-1486.458701921516
 32
0.0
 13
21592.6038469774
 23
-1486.458701921516
 33
0.0
  0
MTEXT
  5
12A
330
124
100
AcDbEntity
  8
0
 62
     3
100
AcDbMText
 10
21576.60384697741
 20
-1483.958701921515
 30
0.0
 40
3.0
 41
0.0
 71
     5
 72
     1
  1
\A1;32
1001
ACAD
1000
MTEXTBEGIN
1070
    73
1070
     1
1070
    44
1040
1.0
1070
    74
1070
     0
1000
MTEXTEND
  0
POINT
  5
12B
330
124
100
AcDbEntity
  8
DEFPOINTS
 62
     0
100
AcDbPoint
 10
21560.60384697741
 20
-1533.009227445407
 30
0.0
  0
POINT
  5
12C
330
124
100
AcDbEntity
  8
DEFPOINTS
 62
     0
100
AcDbPoint
 10
21592.6038469774
 20
-1516.509227445407
 30
0.0
  0
POINT
  5
12D
330
124
100
AcDbEntity
  8
DEFPOINTS
 62
     0
100
AcDbPoint
 10
21592.6038469774
 20
-1486.458701921516
 30
0.0
  0
ENDBLK
  5
12F
330
124
100
AcDbEntity
  8
0
100
AcDbBlockEnd
  0
BLOCK
  5
13F
330
133
100
AcDbEntity
  8
0
100
AcDbBlockBegin
  2
*D26
 70
     1
 10
0.0
 20
0.0
 30
0.0
  3
*D26
  1

  0
LINE
  5
134
330
133
100
AcDbEntity
  8
0
 62
   123
100
AcDbLine
 10
21589.60384697741
 20
-1523.509227445407
 30
0.0
 11
21589.60384697741
 21
-1499.833964683461
 31
0.0
  0
LINE
  5
135
330
133
100
AcDbEntity
  8
0
 62
   123
100
AcDbLine
 10
21592.6038469774
 20
-1515.509227445407
 30
0.0
 11
21592.6038469774
 21
-1499.833964683461
 31
0.0
  0
LINE
  5
136
330
133
100
AcDbEntity
  8
0
 62
   123
100
AcDbLine
 10
21587.10384697741
 20
-1500.433964683461
 30
0.0
 11
21584.60384697741
 21
-1500.433964683461
 31
0.0
  0
LINE
  5
137
330
133
100
AcDbEntity
  8
0
 62
   123
100
AcDbLine
 10
21595.10384697741
 20
-1500.433964683461
 30
0.0
 11
21597.60384697741
 21
-1500.433964683461
 31
0.0
  0
LINE
  5
138
330
133
100
AcDbEntity
  8
0
 62
   123
100
AcDbLine
 10
21589.60384697741
 20
-1500.433964683461
 30
0.0
 11
21592.6038469774
 21
-1500.433964683461
 31
0.0
  0
SOLID
  5
139
330
133
100
AcDbEntity
  8
0
 62
   123
100
AcDbTrace
 10
21587.10384697741
 20
-1500.017298016794
 30
0.0
 11
21587.10384697741
 21
-1500.850631350128
 31
0.0
 12
21589.60384697741
 22
-1500.433964683461
 32
0.0
 13
21589.60384697741
 23
-1500.433964683461
 33
0.0
  0
SOLID
  5
13A
330
133
100
AcDbEntity
  8
0
 62
   123
100
AcDbTrace
 10
21595.10384697741
 20
-1500.017298016794
 30
0.0
 11
21595.10384697741
 21
-1500.850631350128
 31
0.0
 12
21592.6038469774
 22
-1500.433964683461
 32
0.0
 13
21592.6038469774
 23
-1500.433964683461
 33
0.0
  0
MTEXT
  5
13B
330
133
100
AcDbEntity
  8
0
 62
     3
100
AcDbMText
 10
21591.10384697741
 20
-1497.933964683461
 30
0.0
 40
3.0
 41
0.0
 71
     5
 72
     1
  1
\A1;3
1001
ACAD
1000
MTEXTBEGIN
1070
    73
1070
     1
1070
    44
1040
1.0
1070
    74
1070
     0
1000
MTEXTEND
  0
POINT
  5
13C
330
133
100
AcDbEntity
  8
DEFPOINTS
 62
     0
100
AcDbPoint
 10
21589.60384697741
 20
-1524.509227445407
 30
0.0
  0
POINT
  5
13D
330
133
100
AcDbEntity
  8
DEFPOINTS
 62
     0
100
AcDbPoint
 10
21592.6038469774
 20
-1516.509227445407
 30
0.0
  0
POINT
  5
13E
330
133
100
AcDbEntity
  8
DEFPOINTS
 62
     0
100
AcDbPoint
 10
21592.6038469774
 20
-1500.433964683461
 30
0.0
  0
ENDBLK
  5
140
330
133
100
AcDbEntity
  8
0
100
AcDbBlockEnd
  0
BLOCK
  5
211
330
207
100
AcDbEntity
  8
0
100
AcDbBlockBegin
  2
*D27
 70
     1
 10
0.0
 20
0.0
 30
0.0
  3
*D27
  1

  0
LINE
  5
208
330
207
100
AcDbEntity
  8
0
 62
   123
100
AcDbLine
 10
21632.6038469774
 20
-1515.009227445407
 30
0.0
 11
21632.6038469774
 21
-1499.833964683463
 31
0.0
  0
LINE
  5
209
330
207
100
AcDbEntity
  8
0
 62
   123
100
AcDbLine
 10
21639.60384697741
 20
-1515.509227445407
 30
0.0
 11
21639.60384697741
 21
-1499.833964683463
 31
0.0
  0
LINE
  5
20A
330
207
100
AcDbEntity
  8
0
 62
   123
100
AcDbLine
 10
21635.10384697741
 20
-1500.433964683463
 30
0.0
 11
21637.10384697741
 21
-1500.433964683463
 31
0.0
  0
SOLID
  5
20B
330
207
100
AcDbEntity
  8
0
 62
   123
100
AcDbTrace
 10
21635.10384697741
 20
-1500.017298016795
 30
0.0
 11
21635.10384697741
 21
-1500.85063135013
 31
0.0
 12
21632.6038469774
 22
-1500.433964683463
 32
0.0
 13
21632.6038469774
 23
-1500.433964683463
 33
0.0
  0
SOLID
  5
20C
330
207
100
AcDbEntity
  8
0
 62
   123
100
AcDbTrace
 10
21637.10384697741
 20
-1500.017298016795
 30
0.0
 11
21637.10384697741
 21
-1500.85063135013
 31
0.0
 12
21639.60384697741
 22
-1500.433964683463
 32
0.0
 13
21639.60384697741
 23
-1500.433964683463
 33
0.0
  0
MTEXT
  5
20D
330
207
100
AcDbEntity
  8
0
 62
     3
100
AcDbMText
 10
21636.10384697741
 20
-1497.933964683463
 30
0.0
 40
3.0
 41
0.0
 71
     5
 72
     1
  1
\A1;7
1001
ACAD
1000
MTEXTBEGIN
1070
    73
1070
     1
1070
    44
1040
1.0
1070
    74
1070
     0
1000
MTEXTEND
  0
POINT
  5
20E
330
207
100
AcDbEntity
  8
DEFPOINTS
 62
     0
100
AcDbPoint
 10
21632.6038469774
 20
-1516.009227445407
 30
0.0
  0
POINT
  5
20F
330
207
100
AcDbEntity
  8
DEFPOINTS
 62
     0
100
AcDbPoint
 10
21639.60384697741
 20
-1516.509227445407
 30
0.0
  0
POINT
  5
210
330
207
100
AcDbEntity
  8
DEFPOINTS
 62
     0
100
AcDbPoint
 10
21639.60384697741
 20
-1500.433964683463
 30
0.0
  0
ENDBLK
  5
212
330
207
100
AcDbEntity
  8
0
100
AcDbBlockEnd
  0
BLOCK
  5
337
330
32E
100
AcDbEntity
  8
0
100
AcDbBlockBegin
  2
*D28
 70
     1
 10
0.0
 20
0.0
 30
0.0
  3
*D28
  1

  0
LINE
  5
32F
330
32E
100
AcDbEntity
  8
2
 62
   123
100
AcDbLine
 10
27.26161576981459
 20
219.0943500917961
 30
0.0
 11
25.06495810632881
 21
217.9007441645952
 31
0.0
  0
LINE
  5
330
330
32E
100
AcDbEntity
  8
2
 62
   123
100
AcDbLine
 10
93.16134567438645
 20
254.9025279078234
 30
0.0
 11
118.8035118644931
 21
268.8358057505868
 31
0.0
  0
LINE
  5
331
330
32E
100
AcDbEntity
  8
2
 62
   123
100
AcDbLine
 10
29.45827343330036
 20
220.287956018997
 30
0.0
 11
90.96468801090068
 21
253.7089219806224
 31
0.0
  0
SOLID
  5
332
330
32E
100
AcDbEntity
  8
2
 62
   123
100
AcDbTrace
 10
27.06268144861444
 20
219.460459702377
 30
0.0
 11
27.46055009101475
 21
218.7282404812151
 31
0.0
 12
29.45827343330036
 22
220.287956018997
 32
0.0
 13
29.45827343330036
 23
220.287956018997
 33
0.0
  0
SOLID
  5
333
330
32E
100
AcDbEntity
  8
2
 62
   123
100
AcDbTrace
 10
92.96241135318631
 20
255.2686375184043
 30
0.0
 11
93.36027999558661
 21
254.5364182972424
 31
0.0
 12
90.96468801090068
 22
253.7089219806224
 32
0.0
 13
90.96468801090068
 23
253.7089219806224
 33
0.0
  0
MTEXT
  5
334
330
32E
100
AcDbEntity
  8
2
 62
     3
100
AcDbMText
 10
108.6349903407646
 20
266.1557306257944
 30
0.0
 40
3.0
 41
0.0
 71
     5
 72
     1
  1
\A1;\U+220570%%P0.5
 11
0.878663065394311
 21
0.4774423708803743
 31
0.0
1001
ACAD
1000
MTEXTBEGIN
1070
    73
1070
     1
1070
    44
1040
1.0
1070
    74
1070
     0
1000
MTEXTEND
  0
POINT
  5
335
330
32E
100
AcDbEntity
  8
DEFPOINTS
 62
     0
100
AcDbPoint
 10
90.96468801090068
 20
253.7089219806224
 30
0.0
  0
POINT
  5
336
330
32E
100
AcDbEntity
  8
DEFPOINTS
 62
     0
100
AcDbPoint
 10
29.45827343330036
 20
220.287956018997
 30
0.0
  0
ENDBLK
  5
338
330
32E
100
AcDbEntity
  8
0
100
AcDbBlockEnd
  0
BLOCK
  5
343
330
339
100
AcDbEntity
  8
0
100
AcDbBlockBegin
  2
*D29
 70
     1
 10
0.0
 20
0.0
 30
0.0
  3
*D29
  1

  0
LINE
  5
33A
330
339
100
AcDbEntity
  8
0
 62
   123
100
AcDbLine
 10
155.3130438915141
 20
241.9984389998087
 30
0.0
 11
155.3130438915141
 21
193.6024246181827
 31
0.0
  0
LINE
  5
33B
330
339
100
AcDbEntity
  8
0
 62
   123
100
AcDbLine
 10
187.3130438915141
 20
206.4984389998089
 30
0.0
 11
187.3130438915141
 21
193.6024246181827
 31
0.0
  0
LINE
  5
33C
330
339
100
AcDbEntity
  8
0
 62
   123
100
AcDbLine
 10
157.813043891514
 20
194.2024246181827
 30
0.0
 11
184.813043891514
 21
194.2024246181827
 31
0.0
  0
SOLID
  5
33D
330
339
100
AcDbEntity
  8
0
 62
   123
100
AcDbTrace
 10
157.813043891514
 20
194.6190912848493
 30
0.0
 11
157.813043891514
 21
193.785757951516
 31
0.0
 12
155.3130438915141
 22
194.2024246181827
 32
0.0
 13
155.3130438915141
 23
194.2024246181827
 33
0.0
  0
SOLID
  5
33E
330
339
100
AcDbEntity
  8
0
 62
   123
100
AcDbTrace
 10
184.813043891514
 20
194.6190912848493
 30
0.0
 11
184.813043891514
 21
193.785757951516
 31
0.0
 12
187.3130438915141
 22
194.2024246181827
 32
0.0
 13
187.3130438915141
 23
194.2024246181827
 33
0.0
  0
MTEXT
  5
33F
330
339
100
AcDbEntity
  8
0
 62
     3
100
AcDbMText
 10
171.313043891514
 20
196.7024246181827
 30
0.0
 40
3.0
 41
0.0
 71
     5
 72
     1
  1
\A1;32
1001
ACAD
1000
MTEXTBEGIN
1070
    73
1070
     1
1070
    44
1040
1.0
1070
    74
1070
     0
1000
MTEXTEND
  0
POINT
  5
340
330
339
100
AcDbEntity
  8
DEFPOINTS
 62
     0
100
AcDbPoint
 10
155.3130438915141
 20
242.9984389998087
 30
0.0
  0
POINT
  5
341
330
339
100
AcDbEntity
  8
DEFPOINTS
 62
     0
100
AcDbPoint
 10
187.3130438915141
 20
207.4984389998089
 30
0.0
  0
POINT
  5
342
330
339
100
AcDbEntity
  8
DEFPOINTS
 62
     0
100
AcDbPoint
 10
187.3130438915141
 20
194.2024246181827
 30
0.0
  0
ENDBLK
  5
344
330
339
100
AcDbEntity
  8
0
100
AcDbBlockEnd
  0
BLOCK
  5
34F
330
345
100
AcDbEntity
  8
0
100
AcDbBlockBegin
  2
*D30
 70
     1
 10
0.0
 20
0.0
 30
0.0
  3
*D30
  1

  0
LINE
  5
346
330
345
100
AcDbEntity
  8
0
 62
   123
100
AcDbLine
 10
289.9520323671931
 20
98.77254927856984
 30
0.0
 11
312.1775943433509
 21
98.77254927856984
 31
0.0
  0
LINE
  5
347
330
345
100
AcDbEntity
  8
0
 62
   123
100
AcDbLine
 10
289.9520323671931
 20
38.7725492785687
 30
0.0
 11
312.1775943433509
 21
38.77254927856869
 31
0.0
  0
LINE
  5
348
330
345
100
AcDbEntity
  8
0
 62
   123
100
AcDbLine
 10
311.5775943433509
 20
96.27254927856984
 30
0.0
 11
311.5775943433509
 21
41.2725492785687
 31
0.0
  0
SOLID
  5
349
330
345
100
AcDbEntity
  8
0
 62
   123
100
AcDbTrace
 10
311.1609276766842
 20
96.27254927856984
 30
0.0
 11
311.9942610100176
 21
96.27254927856984
 31
0.0
 12
311.5775943433509
 22
98.77254927856984
 32
0.0
 13
311.5775943433509
 23
98.77254927856984
 33
0.0
  0
SOLID
  5
34A
330
345
100
AcDbEntity
  8
0
 62
   123
100
AcDbTrace
 10
311.1609276766842
 20
41.2725492785687
 30
0.0
 11
311.9942610100176
 21
41.2725492785687
 31
0.0
 12
311.5775943433509
 22
38.77254927856869
 32
0.0
 13
311.5775943433509
 23
38.77254927856869
 33
0.0
  0
MTEXT
  5
34B
330
345
100
AcDbEntity
  8
0
 62
     3
100
AcDbMText
 10
309.0775943433509
 20
68.77254927856871
 30
0.0
 40
3.0
 41
0.0
 71
     5
 72
     1
  1
\A1;%%C60
 11
0.0000000000000001
 21
1.0
 31
0.0
1001
ACAD
1000
MTEXTBEGIN
1070
    73
1070
     1
1070
    44
1040
1.0
1070
    74
1070
     0
1000
MTEXTEND
  0
POINT
  5
34C
330
345
100
AcDbEntity
  8
DEFPOINTS
 62
     0
100
AcDbPoint
 10
288.9520323671931
 20
98.77254927856984
 30
0.0
  0
POINT
  5
34D
330
345
100
AcDbEntity
  8
DEFPOINTS
 62
     0
100
AcDbPoint
 10
288.9520323671931
 20
38.7725492785687
 30
0.0
  0
POINT
  5
34E
330
345
100
AcDbEntity
  8
DEFPOINTS
 62
     0
100
AcDbPoint
 10
311.5775943433509
 20
38.77254927856869
 30
0.0
  0
ENDBLK
  5
350
330
345
100
AcDbEntity
  8
0
100
AcDbBlockEnd
  0
BLOCK
  5
35B
330
351
100
AcDbEntity
  8
0
100
AcDbBlockBegin
  2
*D31
 70
     1
 10
0.0
 20
0.0
 30
0.0
  3
*D31
  1

  0
LINE
  5
352
330
351
100
AcDbEntity
  8
0
 62
   123
100
AcDbLine
 10
5.765709578314272
 20
41.7725492785687
 30
0.0
 11
5.765709578314271
 21
24.35067694910585
 31
0.0
  0
LINE
  5
353
330
351
100
AcDbEntity
  8
0
 62
   123
100
AcDbLine
 10
65.76570957831427
 20
41.7725492785687
 30
0.0
 11
65.76570957831427
 21
24.35067694910585
 31
0.0
  0
LINE
  5
354
330
351
100
AcDbEntity
  8
0
 62
   123
100
AcDbLine
 10
8.265709578314272
 20
24.95067694910585
 30
0.0
 11
63.26570957831427
 21
24.95067694910585
 31
0.0
  0
SOLID
  5
355
330
351
100
AcDbEntity
  8
0
 62
   123
100
AcDbTrace
 10
8.265709578314272
 20
25.36734361577252
 30
0.0
 11
8.265709578314272
 21
24.53401028243918
 31
0.0
 12
5.765709578314271
 22
24.95067694910585
 32
0.0
 13
5.765709578314271
 23
24.95067694910585
 33
0.0
  0
SOLID
  5
356
330
351
100
AcDbEntity
  8
0
 62
   123
100
AcDbTrace
 10
63.26570957831427
 20
25.36734361577252
 30
0.0
 11
63.26570957831427
 21
24.53401028243918
 31
0.0
 12
65.76570957831427
 22
24.95067694910585
 32
0.0
 13
65.76570957831427
 23
24.95067694910585
 33
0.0
  0
MTEXT
  5
357
330
351
100
AcDbEntity
  8
0
 62
     3
100
AcDbMText
 10
35.76570957831427
 20
27.45067694910585
 30
0.0
 40
3.0
 41
0.0
 71
     5
 72
     1
  1
\A1;60
1001
ACAD
1000
MTEXTBEGIN
1070
    73
1070
     1
1070
    44
1040
1.0
1070
    74
1070
     0
1000
MTEXTEND
  0
POINT
  5
358
330
351
100
AcDbEntity
  8
DEFPOINTS
 62
     0
100
AcDbPoint
 10
5.765709578314272
 20
42.7725492785687
 30
0.0
  0
POINT
  5
359
330
351
100
AcDbEntity
  8
DEFPOINTS
 62
     0
100
AcDbPoint
 10
65.76570957831427
 20
42.7725492785687
 30
0.0
  0
POINT
  5
35A
330
351
100
AcDbEntity
  8
DEFPOINTS
 62
     0
100
AcDbPoint
 10
65.76570957831427
 20
24.95067694910585
 30
0.0
  0
ENDBLK
  5
35C
330
351
100
AcDbEntity
  8
0
100
AcDbBlockEnd
  0
BLOCK
  5
367
330
35D
100
AcDbEntity
  8
0
100
AcDbBlockBegin
  2
*D32
 70
     1
 10
0.0
 20
0.0
 30
0.0
  3
*D32
  1

  0
LINE
  5
35E
330
35D
100
AcDbEntity
  8
0
 62
   123
100
AcDbLine
 10
227.3130438915141
 20
206.4984389998089
 30
0.0
 11
227.3130438915141
 21
193.6024246181827
 31
0.0
  0
LINE
  5
35F
330
35D
100
AcDbEntity
  8
0
 62
   123
100
AcDbLine
 10
187.3130438915141
 20
206.4984389998089
 30
0.0
 11
187.3130438915141
 21
193.6024246181827
 31
0.0
  0
LINE
  5
360
330
35D
100
AcDbEntity
  8
0
 62
   123
100
AcDbLine
 10
224.813043891514
 20
194.2024246181827
 30
0.0
 11
189.813043891514
 21
194.2024246181827
 31
0.0
  0
SOLID
  5
361
330
35D
100
AcDbEntity
  8
0
 62
   123
100
AcDbTrace
 10
224.813043891514
 20
194.6190912848493
 30
0.0
 11
224.813043891514
 21
193.785757951516
 31
0.0
 12
227.3130438915141
 22
194.2024246181827
 32
0.0
 13
227.3130438915141
 23
194.2024246181827
 33
0.0
  0
SOLID
  5
362
330
35D
100
AcDbEntity
  8
0
 62
   123
100
AcDbTrace
 10
189.813043891514
 20
194.6190912848493
 30
0.0
 11
189.813043891514
 21
193.785757951516
 31
0.0
 12
187.3130438915141
 22
194.2024246181827
 32
0.0
 13
187.3130438915141
 23
194.2024246181827
 33
0.0
  0
MTEXT
  5
363
330
35D
100
AcDbEntity
  8
0
 62
     3
100
AcDbMText
 10
207.3130438915141
 20
196.7024246181827
 30
0.0
 40
3.0
 41
0.0
 71
     5
 72
     1
  1
\A1;L
1001
ACAD
1000
MTEXTBEGIN
1070
    73
1070
     1
1070
    44
1040
1.0
1070
    74
1070
     0
1000
MTEXTEND
  0
POINT
  5
364
330
35D
100
AcDbEntity
  8
DEFPOINTS
 62
     0
100
AcDbPoint
 10
227.3130438915141
 20
207.4984389998089
 30
0.0
  0
POINT
  5
365
330
35D
100
AcDbEntity
  8
DEFPOINTS
 62
     0
100
AcDbPoint
 10
187.3130438915141
 20
207.4984389998089
 30
0.0
  0
POINT
  5
366
330
35D
100
AcDbEntity
  8
DEFPOINTS
 62
     0
100
AcDbPoint
 10
187.3130438915141
 20
194.2024246181827
 30
0.0
  0
ENDBLK
  5
368
330
35D
100
AcDbEntity
  8
0
100
AcDbBlockEnd
  0
BLOCK
  5
373
330
369
100
AcDbEntity
  8
0
100
AcDbBlockBegin
  2
*D33
 70
     1
 10
0.0
 20
0.0
 30
0.0
  3
*D33
  1

  0
LINE
  5
36A
330
369
100
AcDbEntity
  8
DIM
 62
   123
100
AcDbLine
 10
220.9520323671931
 20
99.7725492785687
 30
0.0
 11
220.9520323671931
 21
128.9230748024595
 31
0.0
  0
LINE
  5
36B
330
369
100
AcDbEntity
  8
DIM
 62
   123
100
AcDbLine
 10
180.9520323671931
 20
99.27254927856871
 30
0.0
 11
180.9520323671931
 21
128.9230748024595
 31
0.0
  0
LINE
  5
36C
330
369
100
AcDbEntity
  8
DIM
 62
   123
100
AcDbLine
 10
218.4520323671931
 20
128.3230748024595
 30
0.0
 11
183.4520323671931
 21
128.3230748024595
 31
0.0
  0
SOLID
  5
36D
330
369
100
AcDbEntity
  8
DIM
 62
   123
100
AcDbTrace
 10
218.4520323671931
 20
128.7397414691262
 30
0.0
 11
218.4520323671931
 21
127.9064081357929
 31
0.0
 12
220.9520323671931
 22
128.3230748024595
 32
0.0
 13
220.9520323671931
 23
128.3230748024595
 33
0.0
  0
SOLID
  5
36E
330
369
100
AcDbEntity
  8
DIM
 62
   123
100
AcDbTrace
 10
183.4520323671931
 20
128.7397414691262
 30
0.0
 11
183.4520323671931
 21
127.9064081357929
 31
0.0
 12
180.9520323671931
 22
128.3230748024595
 32
0.0
 13
180.9520323671931
 23
128.3230748024595
 33
0.0
  0
MTEXT
  5
36F
330
369
100
AcDbEntity
  8
DIM
 62
     3
100
AcDbMText
 10
200.9520323671931
 20
130.8230748024595
 30
0.0
 40
3.0
 41
0.0
 71
     5
 72
     1
  1
\A1;L
1001
ACAD
1000
MTEXTBEGIN
1070
    73
1070
     1
1070
    44
1040
1.0
1070
    74
1070
     0
1000
MTEXTEND
  0
POINT
  5
370
330
369
100
AcDbEntity
  8
DEFPOINTS
 62
     0
100
AcDbPoint
 10
220.9520323671931
 20
98.77254927856871
 30
0.0
  0
POINT
  5
371
330
369
100
AcDbEntity
  8
DEFPOINTS
 62
     0
100
AcDbPoint
 10
180.9520323671931
 20
98.2725492785687
 30
0.0
  0
POINT
  5
372
330
369
100
AcDbEntity
  8
DEFPOINTS
 62
     0
100
AcDbPoint
 10
180.9520323671931
 20
128.3230748024595
 30
0.0
  0
ENDBLK
  5
374
330
369
100
AcDbEntity
  8
0
100
AcDbBlockEnd
  0
BLOCK
  5
37F
330
375
100
AcDbEntity
  8
0
100
AcDbBlockBegin
  2
*D34
 70
     1
 10
0.0
 20
0.0
 30
0.0
  3
*D34
  1

  0
LINE
  5
376
330
375
100
AcDbEntity
  8
0
 62
   123
100
AcDbLine
 10
30.21148072211508
 20
210.9984389998089
 30
0.0
 11
30.21148072211508
 21
193.3701180794238
 31
0.0
  0
LINE
  5
377
330
375
100
AcDbEntity
  8
0
 62
   123
100
AcDbLine
 10
90.21148072211508
 20
210.9984389998089
 30
0.0
 11
90.21148072211508
 21
193.3701180794238
 31
0.0
  0
LINE
  5
378
330
375
100
AcDbEntity
  8
0
 62
   123
100
AcDbLine
 10
32.71148072211508
 20
193.9701180794238
 30
0.0
 11
87.71148072211508
 21
193.9701180794238
 31
0.0
  0
SOLID
  5
379
330
375
100
AcDbEntity
  8
0
 62
   123
100
AcDbTrace
 10
32.71148072211508
 20
194.3867847460905
 30
0.0
 11
32.71148072211508
 21
193.5534514127571
 31
0.0
 12
30.21148072211508
 22
193.9701180794238
 32
0.0
 13
30.21148072211508
 23
193.9701180794238
 33
0.0
  0
SOLID
  5
37A
330
375
100
AcDbEntity
  8
0
 62
   123
100
AcDbTrace
 10
87.71148072211508
 20
194.3867847460905
 30
0.0
 11
87.71148072211508
 21
193.5534514127571
 31
0.0
 12
90.21148072211508
 22
193.9701180794238
 32
0.0
 13
90.21148072211508
 23
193.9701180794238
 33
0.0
  0
MTEXT
  5
37B
330
375
100
AcDbEntity
  8
0
 62
     3
100
AcDbMText
 10
62.25622715096324
 20
196.4701180794238
 30
0.0
 40
3.0
 41
0.0
 71
     5
 72
     1
  1
\A1;60
1001
ACAD
1000
MTEXTBEGIN
1070
    73
1070
     1
1070
    44
1040
1.0
1070
    74
1070
     0
1000
MTEXTEND
  0
POINT
  5
37C
330
375
100
AcDbEntity
  8
DEFPOINTS
 62
     0
100
AcDbPoint
 10
30.21148072211508
 20
211.9984389998089
 30
0.0
  0
POINT
  5
37D
330
375
100
AcDbEntity
  8
DEFPOINTS
 62
     0
100
AcDbPoint
 10
90.21148072211508
 20
211.9984389998089
 30
0.0
  0
POINT
  5
37E
330
375
100
AcDbEntity
  8
DEFPOINTS
 62
     0
100
AcDbPoint
 10
90.21148072211508
 20
193.9701180794238
 30
0.0
  0
ENDBLK
  5
380
330
375
100
AcDbEntity
  8
0
100
AcDbBlockEnd
  0
BLOCK
  5
38D
330
381
100
AcDbEntity
  8
0
100
AcDbBlockBegin
  2
*D35
 70
     1
 10
0.0
 20
0.0
 30
0.0
  3
*D35
  1

  0
LINE
  5
382
330
381
100
AcDbEntity
  8
DIM
 62
   123
100
AcDbLine
 10
147.9520323671931
 20
74.7725492785687
 30
0.0
 11
125.9609366160643
 21
74.7725492785687
 31
0.0
  0
LINE
  5
383
330
381
100
AcDbEntity
  8
DIM
 62
   123
100
AcDbLine
 10
159.9520323671931
 20
82.77254927856871
 30
0.0
 11
125.9609366160643
 21
82.77254927856871
 31
0.0
  0
LINE
  5
384
330
381
100
AcDbEntity
  8
DIM
 62
   123
100
AcDbLine
 10
126.5609366160642
 20
72.2725492785687
 30
0.0
 11
126.5609366160642
 21
69.7725492785687
 31
0.0
  0
LINE
  5
385
330
381
100
AcDbEntity
  8
DIM
 62
   123
100
AcDbLine
 10
126.5609366160642
 20
85.27254927856871
 30
0.0
 11
126.5609366160643
 21
122.4057835405509
 31
0.0
  0
LINE
  5
386
330
381
100
AcDbEntity
  8
DIM
 62
   123
100
AcDbLine
 10
126.5609366160642
 20
74.7725492785687
 30
0.0
 11
126.5609366160642
 21
82.77254927856871
 31
0.0
  0
SOLID
  5
387
330
381
100
AcDbEntity
  8
DIM
 62
   123
100
AcDbTrace
 10
126.1442699493976
 20
72.2725492785687
 30
0.0
 11
126.9776032827309
 21
72.2725492785687
 31
0.0
 12
126.5609366160642
 22
74.7725492785687
 32
0.0
 13
126.5609366160642
 23
74.7725492785687
 33
0.0
  0
SOLID
  5
388
330
381
100
AcDbEntity
  8
DIM
 62
   123
100
AcDbTrace
 10
126.1442699493976
 20
85.27254927856871
 30
0.0
 11
126.9776032827309
 21
85.27254927856871
 31
0.0
 12
126.5609366160642
 22
82.77254927856871
 32
0.0
 13
126.5609366160642
 23
82.77254927856871
 33
0.0
  0
MTEXT
  5
389
330
381
100
AcDbEntity
  8
DIM
 62
     3
100
AcDbMText
 10
122.6107866160642
 20
108.7330692548366
 30
0.0
 40
3.0
 41
0.0
 71
     5
 72
     1
  1
\A1;\A1;{\F;%%C8\H0.7x;\S+0^ -0.015;\H1.429x;(h7)}
 11
0.0000000000000001
 21
1.0
 31
0.0
1001
ACAD
1000
MTEXTBEGIN
1070
    73
1070
     1
1070
    44
1040
1.0
1070
    74
1070
     0
1000
MTEXTEND
  0
POINT
  5
38A
330
381
100
AcDbEntity
  8
DEFPOINTS
 62
     0
100
AcDbPoint
 10
148.9520323671931
 20
74.7725492785687
 30
0.0
  0
POINT
  5
38B
330
381
100
AcDbEntity
  8
DEFPOINTS
 62
     0
100
AcDbPoint
 10
160.9520323671931
 20
82.77254927856871
 30
0.0
  0
POINT
  5
38C
330
381
100
AcDbEntity
  8
DEFPOINTS
 62
     0
100
AcDbPoint
 10
126.5609366160642
 20
82.77254927856871
 30
0.0
  0
ENDBLK
  5
38E
330
381
100
AcDbEntity
  8
0
100
AcDbBlockEnd
  0
BLOCK
  5
399
330
38F
100
AcDbEntity
  8
0
100
AcDbBlockBegin
  2
*D36
 70
     1
 10
0.0
 20
0.0
 30
0.0
  3
*D36
  1

  0
LINE
  5
390
330
38F
100
AcDbEntity
  8
0
 62
   123
100
AcDbLine
 10
148.9520323671931
 20
82.77254927856871
 30
0.0
 11
148.9520323671931
 21
96.40038620563073
 31
0.0
  0
LINE
  5
391
330
38F
100
AcDbEntity
  8
0
 62
   123
100
AcDbLine
 10
160.9520323671931
 20
83.77254927856871
 30
0.0
 11
160.9520323671931
 21
96.40038620563073
 31
0.0
  0
LINE
  5
392
330
38F
100
AcDbEntity
  8
0
 62
   123
100
AcDbLine
 10
151.4520323671931
 20
95.80038620563072
 30
0.0
 11
158.4520323671931
 21
95.80038620563072
 31
0.0
  0
SOLID
  5
393
330
38F
100
AcDbEntity
  8
0
 62
   123
100
AcDbTrace
 10
151.4520323671931
 20
96.2170528722974
 30
0.0
 11
151.4520323671931
 21
95.38371953896406
 31
0.0
 12
148.9520323671931
 22
95.80038620563072
 32
0.0
 13
148.9520323671931
 23
95.80038620563072
 33
0.0
  0
SOLID
  5
394
330
38F
100
AcDbEntity
  8
0
 62
   123
100
AcDbTrace
 10
158.4520323671931
 20
96.2170528722974
 30
0.0
 11
158.4520323671931
 21
95.38371953896406
 31
0.0
 12
160.9520323671931
 22
95.80038620563072
 32
0.0
 13
160.9520323671931
 23
95.80038620563072
 33
0.0
  0
MTEXT
  5
395
330
38F
100
AcDbEntity
  8
0
 62
     3
100
AcDbMText
 10
154.9520323671931
 20
98.30038620563072
 30
0.0
 40
3.0
 41
0.0
 71
     5
 72
     1
  1
\A1;12
1001
ACAD
1000
MTEXTBEGIN
1070
    73
1070
     1
1070
    44
1040
1.0
1070
    74
1070
     0
1000
MTEXTEND
  0
POINT
  5
396
330
38F
100
AcDbEntity
  8
DEFPOINTS
 62
     0
100
AcDbPoint
 10
148.9520323671931
 20
81.7725492785687
 30
0.0
  0
POINT
  5
397
330
38F
100
AcDbEntity
  8
DEFPOINTS
 62
     0
100
AcDbPoint
 10
160.9520323671931
 20
82.77254927856871
 30
0.0
  0
POINT
  5
398
330
38F
100
AcDbEntity
  8
DEFPOINTS
 62
     0
100
AcDbPoint
 10
160.9520323671931
 20
95.80038620563072
 30
0.0
  0
ENDBLK
  5
39A
330
38F
100
AcDbEntity
  8
0
100
AcDbBlockEnd
  0
BLOCK
  5
3A7
330
39B
100
AcDbEntity
  8
0
100
AcDbBlockBegin
  2
*D37
 70
     1
 10
0.0
 20
0.0
 30
0.0
  3
*D37
  1

  0
LINE
  5
39C
330
39B
100
AcDbEntity
  8
0
 62
   123
100
AcDbLine
 10
147.9520323671931
 20
81.7725492785687
 30
0.0
 11
135.4792298576234
 21
81.7725492785687
 31
0.0
  0
LINE
  5
39D
330
39B
100
AcDbEntity
  8
0
 62
   123
100
AcDbLine
 10
147.9520323671931
 20
74.7725492785687
 30
0.0
 11
135.4792298576234
 21
74.7725492785687
 31
0.0
  0
LINE
  5
39E
330
39B
100
AcDbEntity
  8
0
 62
   123
100
AcDbLine
 10
136.0792298576234
 20
72.2725492785687
 30
0.0
 11
136.0792298576234
 21
69.7725492785687
 31
0.0
  0
LINE
  5
39F
330
39B
100
AcDbEntity
  8
0
 62
   123
100
AcDbLine
 10
136.0792298576234
 20
84.2725492785687
 30
0.0
 11
136.0792298576234
 21
96.42772602549074
 31
0.0
  0
LINE
  5
3A0
330
39B
100
AcDbEntity
  8
0
 62
   123
100
AcDbLine
 10
136.0792298576234
 20
74.7725492785687
 30
0.0
 11
136.0792298576234
 21
81.7725492785687
 31
0.0
  0
SOLID
  5
3A1
330
39B
100
AcDbEntity
  8
0
 62
   123
100
AcDbTrace
 10
135.6625631909567
 20
72.2725492785687
 30
0.0
 11
136.4958965242901
 21
72.2725492785687
 31
0.0
 12
136.0792298576234
 22
74.7725492785687
 32
0.0
 13
136.0792298576234
 23
74.7725492785687
 33
0.0
  0
SOLID
  5
3A2
330
39B
100
AcDbEntity
  8
0
 62
   123
100
AcDbTrace
 10
135.6625631909567
 20
84.2725492785687
 30
0.0
 11
136.4958965242901
 21
84.2725492785687
 31
0.0
 12
136.0792298576234
 22
81.7725492785687
 32
0.0
 13
136.0792298576234
 23
81.7725492785687
 33
0.0
  0
MTEXT
  5
3A3
330
39B
100
AcDbEntity
  8
0
 62
     3
100
AcDbMText
 10
133.5792298576234
 20
94.42772602549075
 30
0.0
 40
3.0
 41
0.0
 71
     5
 72
     1
  1
\A1;7
 11
0.0000000000000001
 21
1.0
 31
0.0
1001
ACAD
1000
MTEXTBEGIN
1070
    73
1070
     1
1070
    44
1040
1.0
1070
    74
1070
     0
1000
MTEXTEND
  0
POINT
  5
3A4
330
39B
100
AcDbEntity
  8
DEFPOINTS
 62
     0
100
AcDbPoint
 10
148.9520323671931
 20
81.7725492785687
 30
0.0
  0
POINT
  5
3A5
330
39B
100
AcDbEntity
  8
DEFPOINTS
 62
     0
100
AcDbPoint
 10
148.9520323671931
 20
74.7725492785687
 30
0.0
  0
POINT
  5
3A6
330
39B
100
AcDbEntity
  8
DEFPOINTS
 62
     0
100
AcDbPoint
 10
136.0792298576234
 20
74.7725492785687
 30
0.0
  0
ENDBLK
  5
3A8
330
39B
100
AcDbEntity
  8
0
100
AcDbBlockEnd
  0
BLOCK
  5
3B3
330
3A9
100
AcDbEntity
  8
0
100
AcDbBlockBegin
  2
*D38
 70
     1
 10
0.0
 20
0.0
 30
0.0
  3
*D38
  1

  0
LINE
  5
3AA
330
3A9
100
AcDbEntity
  8
DIM
 62
   123
100
AcDbLine
 10
177.4520323671931
 20
90.7725492785687
 30
0.0
 11
105.1707290862126
 21
90.77254927856872
 31
0.0
  0
LINE
  5
3AB
330
3A9
100
AcDbEntity
  8
DIM
 62
   123
100
AcDbLine
 10
177.4520323671931
 20
66.7725492785687
 30
0.0
 11
105.1707290862126
 21
66.77254927856871
 31
0.0
  0
LINE
  5
3AC
330
3A9
100
AcDbEntity
  8
DIM
 62
   123
100
AcDbLine
 10
105.7707290862126
 20
88.27254927856872
 30
0.0
 11
105.7707290862126
 21
69.27254927856871
 31
0.0
  0
SOLID
  5
3AD
330
3A9
100
AcDbEntity
  8
DIM
 62
   123
100
AcDbTrace
 10
105.3540624195459
 20
88.27254927856872
 30
0.0
 11
106.1873957528793
 21
88.27254927856872
 31
0.0
 12
105.7707290862126
 22
90.77254927856872
 32
0.0
 13
105.7707290862126
 23
90.77254927856872
 33
0.0
  0
SOLID
  5
3AE
330
3A9
100
AcDbEntity
  8
DIM
 62
   123
100
AcDbTrace
 10
105.3540624195459
 20
69.27254927856871
 30
0.0
 11
106.1873957528793
 21
69.27254927856871
 31
0.0
 12
105.7707290862126
 22
66.77254927856871
 32
0.0
 13
105.7707290862126
 23
66.77254927856871
 33
0.0
  0
MTEXT
  5
3AF
330
3A9
100
AcDbEntity
  8
DIM
 62
     3
100
AcDbMText
 10
103.2707290862126
 20
78.77254927856874
 30
0.0
 40
3.0
 41
0.0
 71
     5
 72
     1
  1
\A1;%%c24
 11
0.0000000000000001
 21
1.0
 31
0.0
1001
ACAD
1000
MTEXTBEGIN
1070
    73
1070
     1
1070
    44
1040
1.0
1070
    74
1070
     0
1000
MTEXTEND
  0
POINT
  5
3B0
330
3A9
100
AcDbEntity
  8
DEFPOINTS
 62
     0
100
AcDbPoint
 10
178.4520323671931
 20
90.7725492785687
 30
0.0
  0
POINT
  5
3B1
330
3A9
100
AcDbEntity
  8
DEFPOINTS
 62
     0
100
AcDbPoint
 10
178.4520323671931
 20
66.7725492785687
 30
0.0
  0
POINT
  5
3B2
330
3A9
100
AcDbEntity
  8
DEFPOINTS
 62
     0
100
AcDbPoint
 10
105.7707290862126
 20
66.77254927856871
 30
0.0
  0
ENDBLK
  5
3B4
330
3A9
100
AcDbEntity
  8
0
100
AcDbBlockEnd
  0
BLOCK
  5
3BF
330
3B5
100
AcDbEntity
  8
0
100
AcDbBlockBegin
  2
*D39
 70
     1
 10
0.0
 20
0.0
 30
0.0
  3
*D39
  1

  0
LINE
  5
3B6
330
3B5
100
AcDbEntity
  8
DIM
 62
   123
100
AcDbLine
 10
144.0538935659751
 20
78.77254927856871
 30
0.0
 11
117.0508507900507
 21
78.77254927856871
 31
0.0
  0
LINE
  5
3B7
330
3B5
100
AcDbEntity
  8
DIM
 62
   123
100
AcDbLine
 10
143.259458773693
 20
68.77254927856871
 30
0.0
 11
117.0508507900507
 21
68.77254927856871
 31
0.0
  0
LINE
  5
3B8
330
3B5
100
AcDbEntity
  8
DIM
 62
   123
100
AcDbLine
 10
117.6508507900507
 20
76.27254927856871
 30
0.0
 11
117.6508507900507
 21
71.27254927856871
 31
0.0
  0
SOLID
  5
3B9
330
3B5
100
AcDbEntity
  8
DIM
 62
   123
100
AcDbTrace
 10
117.234184123384
 20
76.27254927856871
 30
0.0
 11
118.0675174567174
 21
76.27254927856871
 31
0.0
 12
117.6508507900507
 22
78.77254927856871
 32
0.0
 13
117.6508507900507
 23
78.77254927856871
 33
0.0
  0
SOLID
  5
3BA
330
3B5
100
AcDbEntity
  8
DIM
 62
   123
100
AcDbTrace
 10
117.234184123384
 20
71.27254927856871
 30
0.0
 11
118.0675174567174
 21
71.27254927856871
 31
0.0
 12
117.6508507900507
 22
68.77254927856871
 32
0.0
 13
117.6508507900507
 23
68.77254927856871
 33
0.0
  0
MTEXT
  5
3BB
330
3B5
100
AcDbEntity
  8
DIM
 62
     3
100
AcDbMText
 10
115.1508507900507
 20
73.77254927856871
 30
0.0
 40
3.0
 41
0.0
 71
     5
 72
     1
  1
\A1;10
 11
0.0000000000000001
 21
1.0
 31
0.0
1001
ACAD
1000
MTEXTBEGIN
1070
    73
1070
     1
1070
    44
1040
1.0
1070
    74
1070
     0
1000
MTEXTEND
  0
POINT
  5
3BC
330
3B5
100
AcDbEntity
  8
DEFPOINTS
 62
     0
100
AcDbPoint
 10
145.0538935659751
 20
78.77254927856871
 30
0.0
  0
POINT
  5
3BD
330
3B5
100
AcDbEntity
  8
DEFPOINTS
 62
     0
100
AcDbPoint
 10
144.259458773693
 20
68.77254927856871
 30
0.0
  0
POINT
  5
3BE
330
3B5
100
AcDbEntity
  8
DEFPOINTS
 62
     0
100
AcDbPoint
 10
117.6508507900507
 20
68.77254927856871
 30
0.0
  0
ENDBLK
  5
3C0
330
3B5
100
AcDbEntity
  8
0
100
AcDbBlockEnd
  0
BLOCK
  5
3CA
330
3C1
100
AcDbEntity
  8
0
100
AcDbBlockBegin
  2
*D40
 70
     1
 10
0.0
 20
0.0
 30
0.0
  3
*D40
  1

  0
LINE
  5
3C2
330
3C1
100
AcDbEntity
  8
DIM
 62
   123
100
AcDbLine
 10
0.1309822711058928
 20
57.09281427554652
 30
0.0
 11
-2.24466621604151
 21
56.31416527534537
 31
0.0
  0
LINE
  5
3C3
330
3C1
100
AcDbEntity
  8
DIM
 62
   123
100
AcDbLine
 10
71.40043688552265
 20
80.45228428157932
 30
0.0
 11
95.08904608594576
 21
88.21652716930278
 31
0.0
  0
LINE
  5
3C4
330
3C1
100
AcDbEntity
  8
DIM
 62
   123
100
AcDbLine
 10
2.506630758253297
 20
57.87146327574767
 30
0.0
 11
69.02478839837525
 21
79.67363528137815
 31
0.0
  0
SOLID
  5
3C5
330
3C1
100
AcDbEntity
  8
DIM
 62
   123
100
AcDbTrace
 10
0.0012074377390334
 20
57.48875569007109
 30
0.0
 11
0.2607571044727486
 21
56.69687286102195
 31
0.0
 12
2.506630758253297
 22
57.87146327574767
 32
0.0
 13
2.506630758253297
 23
57.87146327574767
 33
0.0
  0
SOLID
  5
3C6
330
3C1
100
AcDbEntity
  8
DIM
 62
   123
100
AcDbTrace
 10
71.2706620521558
 20
80.84822569610386
 30
0.0
 11
71.53021171888951
 21
80.05634286705472
 31
0.0
 12
69.02478839837525
 22
79.67363528137815
 32
0.0
 13
69.02478839837525
 23
79.67363528137815
 33
0.0
  0
MTEXT
  5
3C7
330
3C1
100
AcDbEntity
  8
DIM
 62
     3
100
AcDbMText
 10
84.60417612397094
 20
87.41083831277117
 30
0.0
 40
3.0
 41
0.0
 71
     5
 72
     1
  1
\A1;\U+220570%%P0.5
 11
0.9502593948589614
 21
0.3114596000804605
 31
0.0
1001
ACAD
1000
MTEXTBEGIN
1070
    73
1070
     1
1070
    44
1040
1.0
1070
    74
1070
     0
1000
MTEXTEND
  0
POINT
  5
3C8
330
3C1
100
AcDbEntity
  8
DEFPOINTS
 62
     0
100
AcDbPoint
 10
69.02478839837525
 20
79.67363528137815
 30
0.0
  0
POINT
  5
3C9
330
3C1
100
AcDbEntity
  8
DEFPOINTS
 62
     0
100
AcDbPoint
 10
2.506630758253297
 20
57.87146327574767
 30
0.0
  0
ENDBLK
  5
3CB
330
3C1
100
AcDbEntity
  8
0
100
AcDbBlockEnd
  0
BLOCK
  5
3D8
330
3CC
100
AcDbEntity
  8
0
100
AcDbBlockBegin
  2
*D41
 70
     1
 10
0.0
 20
0.0
 30
0.0
  3
*D41
  1

  0
LINE
  5
3CD
330
3CC
100
AcDbEntity
  8
0
 62
   123
100
AcDbLine
 10
177.9520323671931
 20
91.27254927856871
 30
0.0
 11
177.9520323671931
 21
114.9478120405147
 31
0.0
  0
LINE
  5
3CE
330
3CC
100
AcDbEntity
  8
0
 62
   123
100
AcDbLine
 10
180.9520323671931
 20
99.27254927856871
 30
0.0
 11
180.9520323671931
 21
114.9478120405147
 31
0.0
  0
LINE
  5
3CF
330
3CC
100
AcDbEntity
  8
0
 62
   123
100
AcDbLine
 10
175.4520323671931
 20
114.3478120405147
 30
0.0
 11
172.9520323671931
 21
114.3478120405147
 31
0.0
  0
LINE
  5
3D0
330
3CC
100
AcDbEntity
  8
0
 62
   123
100
AcDbLine
 10
183.4520323671931
 20
114.3478120405147
 30
0.0
 11
185.9520323671931
 21
114.3478120405147
 31
0.0
  0
LINE
  5
3D1
330
3CC
100
AcDbEntity
  8
0
 62
   123
100
AcDbLine
 10
177.9520323671931
 20
114.3478120405147
 30
0.0
 11
180.9520323671931
 21
114.3478120405147
 31
0.0
  0
SOLID
  5
3D2
330
3CC
100
AcDbEntity
  8
0
 62
   123
100
AcDbTrace
 10
175.4520323671931
 20
114.7644787071814
 30
0.0
 11
175.4520323671931
 21
113.9311453738481
 31
0.0
 12
177.9520323671931
 22
114.3478120405147
 32
0.0
 13
177.9520323671931
 23
114.3478120405147
 33
0.0
  0
SOLID
  5
3D3
330
3CC
100
AcDbEntity
  8
0
 62
   123
100
AcDbTrace
 10
183.4520323671931
 20
114.7644787071814
 30
0.0
 11
183.4520323671931
 21
113.9311453738481
 31
0.0
 12
180.9520323671931
 22
114.3478120405147
 32
0.0
 13
180.9520323671931
 23
114.3478120405147
 33
0.0
  0
MTEXT
  5
3D4
330
3CC
100
AcDbEntity
  8
0
 62
     3
100
AcDbMText
 10
179.4520323671931
 20
116.8478120405147
 30
0.0
 40
3.0
 41
0.0
 71
     5
 72
     1
  1
\A1;3
1001
ACAD
1000
MTEXTBEGIN
1070
    73
1070
     1
1070
    44
1040
1.0
1070
    74
1070
     0
1000
MTEXTEND
  0
POINT
  5
3D5
330
3CC
100
AcDbEntity
  8
DEFPOINTS
 62
     0
100
AcDbPoint
 10
177.9520323671931
 20
90.27254927856871
 30
0.0
  0
POINT
  5
3D6
330
3CC
100
AcDbEntity
  8
DEFPOINTS
 62
     0
100
AcDbPoint
 10
180.9520323671931
 20
98.2725492785687
 30
0.0
  0
POINT
  5
3D7
330
3CC
100
AcDbEntity
  8
DEFPOINTS
 62
     0
100
AcDbPoint
 10
180.9520323671931
 20
114.3478120405147
 30
0.0
  0
ENDBLK
  5
3D9
330
3CC
100
AcDbEntity
  8
0
100
AcDbBlockEnd
  0
BLOCK
  5
3E4
330
3DA
100
AcDbEntity
  8
0
100
AcDbBlockBegin
  2
*D42
 70
     1
 10
0.0
 20
0.0
 30
0.0
  3
*D42
  1

  0
LINE
  5
3DB
330
3DA
100
AcDbEntity
  8
0
 62
   123
100
AcDbLine
 10
148.9520323671931
 20
82.77254927856871
 30
0.0
 11
148.9520323671931
 21
128.9230748024595
 31
0.0
  0
LINE
  5
3DC
330
3DA
100
AcDbEntity
  8
0
 62
   123
100
AcDbLine
 10
180.9520323671931
 20
99.27254927856871
 30
0.0
 11
180.9520323671931
 21
128.9230748024595
 31
0.0
  0
LINE
  5
3DD
330
3DA
100
AcDbEntity
  8
0
 62
   123
100
AcDbLine
 10
151.4520323671931
 20
128.3230748024595
 30
0.0
 11
178.4520323671931
 21
128.3230748024595
 31
0.0
  0
SOLID
  5
3DE
330
3DA
100
AcDbEntity
  8
0
 62
   123
100
AcDbTrace
 10
151.4520323671931
 20
128.7397414691262
 30
0.0
 11
151.4520323671931
 21
127.9064081357929
 31
0.0
 12
148.9520323671931
 22
128.3230748024595
 32
0.0
 13
148.9520323671931
 23
128.3230748024595
 33
0.0
  0
SOLID
  5
3DF
330
3DA
100
AcDbEntity
  8
0
 62
   123
100
AcDbTrace
 10
178.4520323671931
 20
128.7397414691262
 30
0.0
 11
178.4520323671931
 21
127.9064081357929
 31
0.0
 12
180.9520323671931
 22
128.3230748024595
 32
0.0
 13
180.9520323671931
 23
128.3230748024595
 33
0.0
  0
MTEXT
  5
3E0
330
3DA
100
AcDbEntity
  8
0
 62
     3
100
AcDbMText
 10
164.9520323671931
 20
130.8230748024595
 30
0.0
 40
3.0
 41
0.0
 71
     5
 72
     1
  1
\A1;32
1001
ACAD
1000
MTEXTBEGIN
1070
    73
1070
     1
1070
    44
1040
1.0
1070
    74
1070
     0
1000
MTEXTEND
  0
POINT
  5
3E1
330
3DA
100
AcDbEntity
  8
DEFPOINTS
 62
     0
100
AcDbPoint
 10
148.9520323671931
 20
81.7725492785687
 30
0.0
  0
POINT
  5
3E2
330
3DA
100
AcDbEntity
  8
DEFPOINTS
 62
     0
100
AcDbPoint
 10
180.9520323671931
 20
98.2725492785687
 30
0.0
  0
POINT
  5
3E3
330
3DA
100
AcDbEntity
  8
DEFPOINTS
 62
     0
100
AcDbPoint
 10
180.9520323671931
 20
128.3230748024595
 30
0.0
  0
ENDBLK
  5
3E5
330
3DA
100
AcDbEntity
  8
0
100
AcDbBlockEnd
  0
BLOCK
  5
3F0
330
3E6
100
AcDbEntity
  8
0
100
AcDbBlockBegin
  2
*D43
 70
     1
 10
0.0
 20
0.0
 30
0.0
  3
*D43
  1

  0
LINE
  5
3E7
330
3E6
100
AcDbEntity
  8
0
 62
   123
100
AcDbLine
 10
220.9520323671931
 20
99.7725492785687
 30
0.0
 11
220.9520323671931
 21
114.9478120405127
 31
0.0
  0
LINE
  5
3E8
330
3E6
100
AcDbEntity
  8
0
 62
   123
100
AcDbLine
 10
227.9520323671931
 20
99.27254927856871
 30
0.0
 11
227.9520323671931
 21
114.9478120405127
 31
0.0
  0
LINE
  5
3E9
330
3E6
100
AcDbEntity
  8
0
 62
   123
100
AcDbLine
 10
223.4520323671931
 20
114.3478120405127
 30
0.0
 11
225.4520323671931
 21
114.3478120405127
 31
0.0
  0
SOLID
  5
3EA
330
3E6
100
AcDbEntity
  8
0
 62
   123
100
AcDbTrace
 10
223.4520323671931
 20
114.7644787071794
 30
0.0
 11
223.4520323671931
 21
113.931145373846
 31
0.0
 12
220.9520323671931
 22
114.3478120405127
 32
0.0
 13
220.9520323671931
 23
114.3478120405127
 33
0.0
  0
SOLID
  5
3EB
330
3E6
100
AcDbEntity
  8
0
 62
   123
100
AcDbTrace
 10
225.4520323671931
 20
114.7644787071794
 30
0.0
 11
225.4520323671931
 21
113.931145373846
 31
0.0
 12
227.9520323671931
 22
114.3478120405127
 32
0.0
 13
227.9520323671931
 23
114.3478120405127
 33
0.0
  0
MTEXT
  5
3EC
330
3E6
100
AcDbEntity
  8
0
 62
     3
100
AcDbMText
 10
224.4520323671931
 20
116.8478120405127
 30
0.0
 40
3.0
 41
0.0
 71
     5
 72
     1
  1
\A1;7
1001
ACAD
1000
MTEXTBEGIN
1070
    73
1070
     1
1070
    44
1040
1.0
1070
    74
1070
     0
1000
MTEXTEND
  0
POINT
  5
3ED
330
3E6
100
AcDbEntity
  8
DEFPOINTS
 62
     0
100
AcDbPoint
 10
220.9520323671931
 20
98.77254927856871
 30
0.0
  0
POINT
  5
3EE
330
3E6
100
AcDbEntity
  8
DEFPOINTS
 62
     0
100
AcDbPoint
 10
227.9520323671931
 20
98.2725492785687
 30
0.0
  0
POINT
  5
3EF
330
3E6
100
AcDbEntity
  8
DEFPOINTS
 62
     0
100
AcDbPoint
 10
227.9520323671931
 20
114.3478120405127
 30
0.0
  0
ENDBLK
  5
3F1
330
3E6
100
AcDbEntity
  8
0
100
AcDbBlockEnd
  0
BLOCK
  5
3FC
330
3F2
100
AcDbEntity
  8
0
100
AcDbBlockBegin
  2
*D44
 70
     1
 10
0.0
 20
0.0
 30
0.0
  3
*D44
  1

  0
LINE
  5
3F3
330
3F2
100
AcDbEntity
  8
0
 62
   123
100
AcDbLine
 10
220.9520323671931
 20
129.2725492785687
 30
0.0
 11
220.9520323671931
 21
128.8725492785687
 31
0.0
  0
LINE
  5
3F4
330
3F2
100
AcDbEntity
  8
0
 62
   123
100
AcDbLine
 10
295.9520323671931
 20
96.77254927856871
 30
0.0
 11
295.9520323671931
 21
128.8725492785687
 31
0.0
  0
LINE
  5
3F5
330
3F2
100
AcDbEntity
  8
0
 62
   123
100
AcDbLine
 10
223.4520323671931
 20
128.2725492785687
 30
0.0
 11
293.4520323671931
 21
128.2725492785687
 31
0.0
  0
SOLID
  5
3F6
330
3F2
100
AcDbEntity
  8
0
 62
   123
100
AcDbTrace
 10
223.4520323671931
 20
128.6892159452353
 30
0.0
 11
223.4520323671931
 21
127.855882611902
 31
0.0
 12
220.9520323671931
 22
128.2725492785687
 32
0.0
 13
220.9520323671931
 23
128.2725492785687
 33
0.0
  0
SOLID
  5
3F7
330
3F2
100
AcDbEntity
  8
0
 62
   123
100
AcDbTrace
 10
293.4520323671931
 20
128.6892159452353
 30
0.0
 11
293.4520323671931
 21
127.855882611902
 31
0.0
 12
295.9520323671931
 22
128.2725492785687
 32
0.0
 13
295.9520323671931
 23
128.2725492785687
 33
0.0
  0
MTEXT
  5
3F8
330
3F2
100
AcDbEntity
  8
0
 62
     3
100
AcDbMText
 10
258.4520323671931
 20
130.7725492785687
 30
0.0
 40
3.0
 41
0.0
 71
     5
 72
     1
  1
\A1;75
1001
ACAD
1000
MTEXTBEGIN
1070
    73
1070
     1
1070
    44
1040
1.0
1070
    74
1070
     0
1000
MTEXTEND
  0
POINT
  5
3F9
330
3F2
100
AcDbEntity
  8
DEFPOINTS
 62
     0
100
AcDbPoint
 10
220.9520323671931
 20
128.2725492785687
 30
0.0
  0
POINT
  5
3FA
330
3F2
100
AcDbEntity
  8
DEFPOINTS
 62
     0
100
AcDbPoint
 10
295.9520323671931
 20
95.7725492785687
 30
0.0
  0
POINT
  5
3FB
330
3F2
100
AcDbEntity
  8
DEFPOINTS
 62
     0
100
AcDbPoint
 10
295.9520323671931
 20
128.2725492785687
 30
0.0
  0
ENDBLK
  5
3FD
330
3F2
100
AcDbEntity
  8
0
100
AcDbBlockEnd
  0
BLOCK
  5
40A
330
3FE
100
AcDbEntity
  8
0
100
AcDbBlockBegin
  2
*D45
 70
     1
 10
0.0
 20
0.0
 30
0.0
  3
*D45
  1

  0
LINE
  5
3FF
330
3FE
100
AcDbEntity
  8
DIM
 62
   123
100
AcDbLine
 10
164.4358363060819
 20
359.0586427711557
 30
0.0
 11
164.4358363060819
 21
370.8669761044887
 31
0.0
  0
LINE
  5
400
330
3FE
100
AcDbEntity
  8
DIM
 62
   123
100
AcDbLine
 10
166.4358363060819
 20
362.0586427711557
 30
0.0
 11
166.4358363060819
 21
370.8669761044887
 31
0.0
  0
LINE
  5
401
330
3FE
100
AcDbEntity
  8
DIM
 62
   123
100
AcDbLine
 10
168.9358363060819
 20
370.2669761044887
 30
0.0
 11
171.4358363060819
 21
370.2669761044887
 31
0.0
  0
LINE
  5
402
330
3FE
100
AcDbEntity
  8
DIM
 62
   123
100
AcDbLine
 10
161.9358363060818
 20
370.2669761044887
 30
0.0
 11
155.4358363060819
 21
370.2669761044887
 31
0.0
  0
LINE
  5
403
330
3FE
100
AcDbEntity
  8
DIM
 62
   123
100
AcDbLine
 10
166.4358363060819
 20
370.2669761044887
 30
0.0
 11
164.4358363060819
 21
370.2669761044887
 31
0.0
  0
SOLID
  5
404
330
3FE
100
AcDbEntity
  8
DIM
 62
   123
100
AcDbTrace
 10
168.9358363060819
 20
370.6836427711554
 30
0.0
 11
168.9358363060819
 21
369.850309437822
 31
0.0
 12
166.4358363060819
 22
370.2669761044887
 32
0.0
 13
166.4358363060819
 23
370.2669761044887
 33
0.0
  0
SOLID
  5
405
330
3FE
100
AcDbEntity
  8
DIM
 62
   123
100
AcDbTrace
 10
161.9358363060818
 20
370.6836427711554
 30
0.0
 11
161.9358363060818
 21
369.850309437822
 31
0.0
 12
164.4358363060819
 22
370.2669761044887
 32
0.0
 13
164.4358363060819
 23
370.2669761044887
 33
0.0
  0
MTEXT
  5
406
330
3FE
100
AcDbEntity
  8
DIM
 62
     3
100
AcDbMText
 10
157.4358363060819
 20
372.7669761044887
 30
0.0
 40
3.0
 41
0.0
 71
     5
 72
     1
  1
\A1;2
1001
ACAD
1000
MTEXTBEGIN
1070
    73
1070
     1
1070
    44
1040
1.0
1070
    74
1070
     0
1000
MTEXTEND
  0
POINT
  5
407
330
3FE
100
AcDbEntity
  8
DEFPOINTS
 62
     0
100
AcDbPoint
 10
164.4358363060819
 20
358.0586427711557
 30
0.0
  0
POINT
  5
408
330
3FE
100
AcDbEntity
  8
DEFPOINTS
 62
     0
100
AcDbPoint
 10
166.4358363060819
 20
361.0586427711557
 30
0.0
  0
POINT
  5
409
330
3FE
100
AcDbEntity
  8
DEFPOINTS
 62
     0
100
AcDbPoint
 10
166.4358363060819
 20
370.2669761044887
 30
0.0
  0
ENDBLK
  5
40B
330
3FE
100
AcDbEntity
  8
0
100
AcDbBlockEnd
  0
BLOCK
  5
416
330
40C
100
AcDbEntity
  8
0
100
AcDbBlockBegin
  2
*D46
 70
     1
 10
0.0
 20
0.0
 30
0.0
  3
*D46
  1

  0
LINE
  5
40D
330
40C
100
AcDbEntity
  8
DIM
 62
   123
100
AcDbLine
 10
153.9351268689934
 20
334.3786427711559
 30
0.0
 11
153.9351268689934
 21
381.5398193743068
 31
0.0
  0
LINE
  5
40E
330
40C
100
AcDbEntity
  8
DIM
 62
   123
100
AcDbLine
 10
166.4358363060819
 20
362.0586427711557
 30
0.0
 11
166.4358363060819
 21
381.5398193743068
 31
0.0
  0
LINE
  5
40F
330
40C
100
AcDbEntity
  8
DIM
 62
   123
100
AcDbLine
 10
156.4351268689933
 20
380.9398193743068
 30
0.0
 11
163.9358363060819
 21
380.9398193743068
 31
0.0
  0
SOLID
  5
410
330
40C
100
AcDbEntity
  8
DIM
 62
   123
100
AcDbTrace
 10
156.4351268689933
 20
381.3564860409734
 30
0.0
 11
156.4351268689933
 21
380.5231527076401
 31
0.0
 12
153.9351268689934
 22
380.9398193743068
 32
0.0
 13
153.9351268689934
 23
380.9398193743068
 33
0.0
  0
SOLID
  5
411
330
40C
100
AcDbEntity
  8
DIM
 62
   123
100
AcDbTrace
 10
163.9358363060819
 20
381.3564860409734
 30
0.0
 11
163.9358363060819
 21
380.5231527076401
 31
0.0
 12
166.4358363060819
 22
380.9398193743068
 32
0.0
 13
166.4358363060819
 23
380.9398193743068
 33
0.0
  0
MTEXT
  5
412
330
40C
100
AcDbEntity
  8
DIM
 62
     3
100
AcDbMText
 10
159.2401221077416
 20
383.4398193743068
 30
0.0
 40
3.0
 41
0.0
 71
     5
 72
     1
  1
\A1;12.5
1001
ACAD
1000
MTEXTBEGIN
1070
    73
1070
     1
1070
    44
1040
1.0
1070
    74
1070
     0
1000
MTEXTEND
  0
POINT
  5
413
330
40C
100
AcDbEntity
  8
DEFPOINTS
 62
     0
100
AcDbPoint
 10
153.9351268689934
 20
333.3786427711558
 30
0.0
  0
POINT
  5
414
330
40C
100
AcDbEntity
  8
DEFPOINTS
 62
     0
100
AcDbPoint
 10
166.4358363060819
 20
361.0586427711557
 30
0.0
  0
POINT
  5
415
330
40C
100
AcDbEntity
  8
DEFPOINTS
 62
     0
100
AcDbPoint
 10
166.4358363060819
 20
380.9398193743068
 30
0.0
  0
ENDBLK
  5
417
330
40C
100
AcDbEntity
  8
0
100
AcDbBlockEnd
  0
BLOCK
  5
422
330
418
100
AcDbEntity
  8
0
100
AcDbBlockBegin
  2
*D47
 70
     1
 10
0.0
 20
0.0
 30
0.0
  3
*D47
  1

  0
LINE
  5
419
330
418
100
AcDbEntity
  8
DIM
 62
   123
100
AcDbLine
 10
163.4358363060819
 20
358.0586427711557
 30
0.0
 11
144.2685043318437
 21
358.0586427711557
 31
0.0
  0
LINE
  5
41A
330
418
100
AcDbEntity
  8
DIM
 62
   123
100
AcDbLine
 10
163.4358363060819
 20
304.0586427711557
 30
0.0
 11
144.2685043318437
 21
304.0586427711557
 31
0.0
  0
LINE
  5
41B
330
418
100
AcDbEntity
  8
DIM
 62
   123
100
AcDbLine
 10
144.8685043318437
 20
355.5586427711557
 30
0.0
 11
144.8685043318437
 21
306.5586427711557
 31
0.0
  0
SOLID
  5
41C
330
418
100
AcDbEntity
  8
DIM
 62
   123
100
AcDbTrace
 10
144.4518376651771
 20
355.5586427711557
 30
0.0
 11
145.2851709985104
 21
355.5586427711557
 31
0.0
 12
144.8685043318437
 22
358.0586427711557
 32
0.0
 13
144.8685043318437
 23
358.0586427711557
 33
0.0
  0
SOLID
  5
41D
330
418
100
AcDbEntity
  8
DIM
 62
   123
100
AcDbTrace
 10
144.4518376651771
 20
306.5586427711557
 30
0.0
 11
145.2851709985104
 21
306.5586427711557
 31
0.0
 12
144.8685043318437
 22
304.0586427711557
 32
0.0
 13
144.8685043318437
 23
304.0586427711557
 33
0.0
  0
MTEXT
  5
41E
330
418
100
AcDbEntity
  8
DIM
 62
     3
100
AcDbMText
 10
140.9183543318437
 20
331.0586427711557
 30
0.0
 40
3.0
 41
0.0
 71
     5
 72
     1
  1
\A1;\A1;%%C54{\F;\H0.7x;\S+0^ -0.03;\H1.429x;(h7)} 
 11
0.0000000000000001
 21
1.0
 31
0.0
1001
ACAD
1000
MTEXTBEGIN
1070
    73
1070
     1
1070
    44
1040
1.0
1070
    74
1070
     0
1000
MTEXTEND
  0
POINT
  5
41F
330
418
100
AcDbEntity
  8
DEFPOINTS
 62
     0
100
AcDbPoint
 10
164.4358363060819
 20
358.0586427711557
 30
0.0
  0
POINT
  5
420
330
418
100
AcDbEntity
  8
DEFPOINTS
 62
     0
100
AcDbPoint
 10
164.4358363060819
 20
304.0586427711557
 30
0.0
  0
POINT
  5
421
330
418
100
AcDbEntity
  8
DEFPOINTS
 62
     0
100
AcDbPoint
 10
144.8685043318437
 20
304.0586427711557
 30
0.0
  0
ENDBLK
  5
423
330
418
100
AcDbEntity
  8
0
100
AcDbBlockEnd
  0
BLOCK
  5
42E
330
424
100
AcDbEntity
  8
0
100
AcDbBlockBegin
  2
*D48
 70
     1
 10
0.0
 20
0.0
 30
0.0
  3
*D48
  1

  0
LINE
  5
425
330
424
100
AcDbEntity
  8
DIM
 62
   123
100
AcDbLine
 10
50.93981324256311
 20
358.0586427711557
 30
0.0
 11
50.93981324256311
 21
375.3097405654608
 31
0.0
  0
LINE
  5
426
330
424
100
AcDbEntity
  8
DIM
 62
   123
100
AcDbLine
 10
110.9398132425631
 20
357.0586427711557
 30
0.0
 11
110.9398132425631
 21
375.3097405654608
 31
0.0
  0
LINE
  5
427
330
424
100
AcDbEntity
  8
DIM
 62
   123
100
AcDbLine
 10
53.43981324256311
 20
374.7097405654608
 30
0.0
 11
108.4398132425631
 21
374.7097405654608
 31
0.0
  0
SOLID
  5
428
330
424
100
AcDbEntity
  8
DIM
 62
   123
100
AcDbTrace
 10
53.43981324256311
 20
375.1264072321275
 30
0.0
 11
53.43981324256311
 21
374.2930738987941
 31
0.0
 12
50.93981324256311
 22
374.7097405654608
 32
0.0
 13
50.93981324256311
 23
374.7097405654608
 33
0.0
  0
SOLID
  5
429
330
424
100
AcDbEntity
  8
DIM
 62
   123
100
AcDbTrace
 10
108.4398132425631
 20
375.1264072321275
 30
0.0
 11
108.4398132425631
 21
374.2930738987941
 31
0.0
 12
110.9398132425631
 22
374.7097405654608
 32
0.0
 13
110.9398132425631
 23
374.7097405654608
 33
0.0
  0
MTEXT
  5
42A
330
424
100
AcDbEntity
  8
DIM
 62
     3
100
AcDbMText
 10
80.60907448289436
 20
377.2097405654608
 30
0.0
 40
3.0
 41
0.0
 71
     5
 72
     1
  1
\A1;60
1001
ACAD
1000
MTEXTBEGIN
1070
    73
1070
     1
1070
    44
1040
1.0
1070
    74
1070
     0
1000
MTEXTEND
  0
POINT
  5
42B
330
424
100
AcDbEntity
  8
DEFPOINTS
 62
     0
100
AcDbPoint
 10
50.93981324256311
 20
357.0586427711557
 30
0.0
  0
POINT
  5
42C
330
424
100
AcDbEntity
  8
DEFPOINTS
 62
     0
100
AcDbPoint
 10
110.9398132425631
 20
356.0586427711557
 30
0.0
  0
POINT
  5
42D
330
424
100
AcDbEntity
  8
DEFPOINTS
 62
     0
100
AcDbPoint
 10
110.9398132425631
 20
374.7097405654608
 30
0.0
  0
ENDBLK
  5
42F
330
424
100
AcDbEntity
  8
0
100
AcDbBlockEnd
  0
BLOCK
  5
439
330
430
100
AcDbEntity
  8
0
100
AcDbBlockBegin
  2
*D49
 70
     1
 10
0.0
 20
0.0
 30
0.0
  3
*D49
  1

  0
LINE
  5
487
330
430
100
AcDbEntity
  8
0
 62
   123
100
AcDbLine
 10
48.41647755104681
 20
312.390953157876
 30
0.0
 11
46.24825517161319
 21
311.1464405169907
 31
0.0
  0
LINE
  5
488
330
430
100
AcDbEntity
  8
0
 62
   123
100
AcDbLine
 10
113.4631489340564
 20
349.726332384435
 30
0.0
 11
135.0834235175593
 21
362.1359012892668
 31
0.0
  0
LINE
  5
489
330
430
100
AcDbEntity
  8
0
 62
   123
100
AcDbLine
 10
50.58469993048042
 20
313.6354657987613
 30
0.0
 11
111.2949265546228
 21
348.4818197435496
 31
0.0
  0
SOLID
  5
48A
330
430
100
AcDbEntity
  8
0
 62
   123
100
AcDbTrace
 10
48.20905877756594
 20
312.7523235544483
 30
0.0
 11
48.62389632452769
 21
312.0295827613037
 31
0.0
 12
50.58469993048042
 22
313.6354657987613
 32
0.0
 13
50.58469993048042
 23
313.6354657987613
 33
0.0
  0
SOLID
  5
48B
330
430
100
AcDbEntity
  8
0
 62
   123
100
AcDbTrace
 10
113.2557301605755
 20
350.0877027810072
 30
0.0
 11
113.6705677075373
 21
349.3649619878626
 31
0.0
 12
111.2949265546228
 22
348.4818197435496
 32
0.0
 13
111.2949265546228
 23
348.4818197435496
 33
0.0
  0
MTEXT
  5
48C
330
430
100
AcDbEntity
  8
0
 62
     3
100
AcDbMText
 10
124.9801737264167
 20
359.2194005930833
 30
0.0
 40
3.0
 41
0.0
 71
     5
 72
     1
  1
\A1;\U+220570%%p0.5
 11
0.8672889517734452
 21
0.49780505635411
 31
0.0
1001
ACAD
1000
MTEXTBEGIN
1070
    73
1070
     1
1070
    44
1040
1.0
1070
    74
1070
     0
1000
MTEXTEND
  0
POINT
  5
48D
330
430
100
AcDbEntity
  8
DEFPOINTS
 62
     0
100
AcDbPoint
 10
111.2949265546228
 20
348.4818197435496
 30
0.0
  0
POINT
  5
48E
330
430
100
AcDbEntity
  8
DEFPOINTS
 62
     0
100
AcDbPoint
 10
50.58469993048042
 20
313.6354657987613
 30
0.0
  0
ENDBLK
  5
43A
330
430
100
AcDbEntity
  8
0
100
AcDbBlockEnd
  0
BLOCK
  5
447
330
43B
100
AcDbEntity
  8
0
100
AcDbBlockBegin
  2
*D50
 70
     1
 10
0.0
 20
0.0
 30
0.0
  3
*D50
  1

  0
LINE
  5
43C
330
43B
100
AcDbEntity
  8
0
 62
   123
100
AcDbLine
 10
170.8130438915141
 20
242.9984389998087
 30
0.0
 11
175.4067692315817
 21
242.9984389998087
 31
0.0
  0
LINE
  5
43D
330
43B
100
AcDbEntity
  8
0
 62
   123
100
AcDbLine
 10
168.313043891514
 20
250.9984389998087
 30
0.0
 11
175.4067692315817
 21
250.9984389998087
 31
0.0
  0
LINE
  5
43E
330
43B
100
AcDbEntity
  8
0
 62
   123
100
AcDbLine
 10
174.8067692315817
 20
240.4984389998087
 30
0.0
 11
174.8067692315817
 21
237.9984389998087
 31
0.0
  0
LINE
  5
43F
330
43B
100
AcDbEntity
  8
0
 62
   123
100
AcDbLine
 10
174.8067692315817
 20
253.4984389998087
 30
0.0
 11
174.8067692315817
 21
293.3684422232641
 31
0.0
  0
LINE
  5
440
330
43B
100
AcDbEntity
  8
0
 62
   123
100
AcDbLine
 10
174.8067692315817
 20
242.9984389998087
 30
0.0
 11
174.8067692315817
 21
250.9984389998087
 31
0.0
  0
SOLID
  5
441
330
43B
100
AcDbEntity
  8
0
 62
   123
100
AcDbTrace
 10
174.390102564915
 20
240.4984389998087
 30
0.0
 11
175.2234358982484
 21
240.4984389998087
 31
0.0
 12
174.8067692315817
 22
242.9984389998087
 32
0.0
 13
174.8067692315817
 23
242.9984389998087
 33
0.0
  0
SOLID
  5
442
330
43B
100
AcDbEntity
  8
0
 62
   123
100
AcDbTrace
 10
174.390102564915
 20
253.4984389998087
 30
0.0
 11
175.2234358982484
 21
253.4984389998087
 31
0.0
 12
174.8067692315817
 22
250.9984389998087
 32
0.0
 13
174.8067692315817
 23
250.9984389998087
 33
0.0
  0
MTEXT
  5
443
330
43B
100
AcDbEntity
  8
0
 62
     3
100
AcDbMText
 10
170.8566192315817
 20
279.6957279375499
 30
0.0
 40
3.0
 41
0.0
 71
     5
 72
     1
  1
\A1;\A1;{\F;%%C8\H0.7x;\S+0^ -0.015;\H1.429x;(h7)}
 11
0.0000000000000001
 21
1.0
 31
0.0
1001
ACAD
1000
MTEXTBEGIN
1070
    73
1070
     1
1070
    44
1040
1.0
1070
    74
1070
     0
1000
MTEXTEND
  0
POINT
  5
444
330
43B
100
AcDbEntity
  8
DEFPOINTS
 62
     0
100
AcDbPoint
 10
169.8130438915141
 20
242.9984389998087
 30
0.0
  0
POINT
  5
445
330
43B
100
AcDbEntity
  8
DEFPOINTS
 62
     0
100
AcDbPoint
 10
167.3130438915141
 20
250.9984389998087
 30
0.0
  0
POINT
  5
446
330
43B
100
AcDbEntity
  8
DEFPOINTS
 62
     0
100
AcDbPoint
 10
174.8067692315817
 20
250.9984389998087
 30
0.0
  0
ENDBLK
  5
448
330
43B
100
AcDbEntity
  8
0
100
AcDbBlockEnd
  0
BLOCK
  5
453
330
449
100
AcDbEntity
  8
0
100
AcDbBlockBegin
  2
*D51
 70
     1
 10
0.0
 20
0.0
 30
0.0
  3
*D51
  1

  0
LINE
  5
44A
330
449
100
AcDbEntity
  8
0
 62
   123
100
AcDbLine
 10
150.4149050902851
 20
246.9984389998087
 30
0.0
 11
132.4505991911522
 21
246.9984389998087
 31
0.0
  0
LINE
  5
44B
330
449
100
AcDbEntity
  8
0
 62
   123
100
AcDbLine
 10
142.7053707574159
 20
236.9984389998089
 30
0.0
 11
132.4505991911522
 21
236.9984389998089
 31
0.0
  0
LINE
  5
44C
330
449
100
AcDbEntity
  8
0
 62
   123
100
AcDbLine
 10
133.0505991911522
 20
244.4984389998087
 30
0.0
 11
133.0505991911522
 21
239.4984389998089
 31
0.0
  0
SOLID
  5
44D
330
449
100
AcDbEntity
  8
0
 62
   123
100
AcDbTrace
 10
132.6339325244856
 20
244.4984389998087
 30
0.0
 11
133.4672658578189
 21
244.4984389998087
 31
0.0
 12
133.0505991911522
 22
246.9984389998087
 32
0.0
 13
133.0505991911522
 23
246.9984389998087
 33
0.0
  0
SOLID
  5
44E
330
449
100
AcDbEntity
  8
0
 62
   123
100
AcDbTrace
 10
132.6339325244856
 20
239.4984389998089
 30
0.0
 11
133.4672658578189
 21
239.4984389998089
 31
0.0
 12
133.0505991911522
 22
236.9984389998089
 32
0.0
 13
133.0505991911522
 23
236.9984389998089
 33
0.0
  0
MTEXT
  5
44F
330
449
100
AcDbEntity
  8
0
 62
     3
100
AcDbMText
 10
130.5505991911522
 20
241.9984389998088
 30
0.0
 40
3.0
 41
0.0
 71
     5
 72
     1
  1
\A1;10
 11
0.0000000000000001
 21
1.0
 31
0.0
1001
ACAD
1000
MTEXTBEGIN
1070
    73
1070
     1
1070
    44
1040
1.0
1070
    74
1070
     0
1000
MTEXTEND
  0
POINT
  5
450
330
449
100
AcDbEntity
  8
DEFPOINTS
 62
     0
100
AcDbPoint
 10
151.4149050902851
 20
246.9984389998087
 30
0.0
  0
POINT
  5
451
330
449
100
AcDbEntity
  8
DEFPOINTS
 62
     0
100
AcDbPoint
 10
143.7053707574159
 20
236.9984389998089
 30
0.0
  0
POINT
  5
452
330
449
100
AcDbEntity
  8
DEFPOINTS
 62
     0
100
AcDbPoint
 10
133.0505991911522
 20
236.9984389998089
 30
0.0
  0
ENDBLK
  5
454
330
449
100
AcDbEntity
  8
0
100
AcDbBlockEnd
  0
BLOCK
  5
461
330
455
100
AcDbEntity
  8
0
100
AcDbBlockBegin
  2
*D52
 70
     1
 10
0.0
 20
0.0
 30
0.0
  3
*D52
  1

  0
LINE
  5
456
330
455
100
AcDbEntity
  8
0
 62
   123
100
AcDbLine
 10
154.3130438915141
 20
249.9984389998087
 30
0.0
 11
141.8402413819407
 21
249.9984389998087
 31
0.0
  0
LINE
  5
457
330
455
100
AcDbEntity
  8
0
 62
   123
100
AcDbLine
 10
154.3130438915141
 20
242.9984389998087
 30
0.0
 11
141.8402413819407
 21
242.9984389998087
 31
0.0
  0
LINE
  5
458
330
455
100
AcDbEntity
  8
0
 62
   123
100
AcDbLine
 10
142.4402413819407
 20
240.4984389998087
 30
0.0
 11
142.4402413819407
 21
237.9984389998087
 31
0.0
  0
LINE
  5
459
330
455
100
AcDbEntity
  8
0
 62
   123
100
AcDbLine
 10
142.4402413819407
 20
252.4984389998087
 30
0.0
 11
142.4402413819407
 21
264.9984389998077
 31
0.0
  0
LINE
  5
45A
330
455
100
AcDbEntity
  8
0
 62
   123
100
AcDbLine
 10
142.4402413819407
 20
242.9984389998087
 30
0.0
 11
142.4402413819407
 21
249.9984389998087
 31
0.0
  0
SOLID
  5
45B
330
455
100
AcDbEntity
  8
0
 62
   123
100
AcDbTrace
 10
142.023574715274
 20
240.4984389998087
 30
0.0
 11
142.8569080486074
 21
240.4984389998087
 31
0.0
 12
142.4402413819407
 22
242.9984389998087
 32
0.0
 13
142.4402413819407
 23
242.9984389998087
 33
0.0
  0
SOLID
  5
45C
330
455
100
AcDbEntity
  8
0
 62
   123
100
AcDbTrace
 10
142.023574715274
 20
252.4984389998087
 30
0.0
 11
142.8569080486074
 21
252.4984389998087
 31
0.0
 12
142.4402413819407
 22
249.9984389998087
 32
0.0
 13
142.4402413819407
 23
249.9984389998087
 33
0.0
  0
MTEXT
  5
45D
330
455
100
AcDbEntity
  8
0
 62
     3
100
AcDbMText
 10
139.9402413819407
 20
262.9984389998078
 30
0.0
 40
3.0
 41
0.0
 71
     5
 72
     1
  1
\A1;7
 11
0.0000000000000001
 21
1.0
 31
0.0
1001
ACAD
1000
MTEXTBEGIN
1070
    73
1070
     1
1070
    44
1040
1.0
1070
    74
1070
     0
1000
MTEXTEND
  0
POINT
  5
45E
330
455
100
AcDbEntity
  8
DEFPOINTS
 62
     0
100
AcDbPoint
 10
155.3130438915141
 20
249.9984389998087
 30
0.0
  0
POINT
  5
45F
330
455
100
AcDbEntity
  8
DEFPOINTS
 62
     0
100
AcDbPoint
 10
155.3130438915141
 20
242.9984389998087
 30
0.0
  0
POINT
  5
460
330
455
100
AcDbEntity
  8
DEFPOINTS
 62
     0
100
AcDbPoint
 10
142.4402413819407
 20
242.9984389998087
 30
0.0
  0
ENDBLK
  5
462
330
455
100
AcDbEntity
  8
0
100
AcDbBlockEnd
  0
BLOCK
  5
46D
330
463
100
AcDbEntity
  8
0
100
AcDbBlockBegin
  2
*D53
 70
     1
 10
0.0
 20
0.0
 30
0.0
  3
*D53
  1

  0
LINE
  5
464
330
463
100
AcDbEntity
  8
0
 62
   123
100
AcDbLine
 10
155.3130438915141
 20
250.9984389998087
 30
0.0
 11
155.3130438915141
 21
264.6262759268698
 31
0.0
  0
LINE
  5
465
330
463
100
AcDbEntity
  8
0
 62
   123
100
AcDbLine
 10
167.3130438915141
 20
251.9984389998087
 30
0.0
 11
167.3130438915141
 21
264.6262759268698
 31
0.0
  0
LINE
  5
466
330
463
100
AcDbEntity
  8
0
 62
   123
100
AcDbLine
 10
157.813043891514
 20
264.0262759268698
 30
0.0
 11
164.813043891514
 21
264.0262759268698
 31
0.0
  0
SOLID
  5
467
330
463
100
AcDbEntity
  8
0
 62
   123
100
AcDbTrace
 10
157.813043891514
 20
264.4429425935365
 30
0.0
 11
157.813043891514
 21
263.6096092602031
 31
0.0
 12
155.3130438915141
 22
264.0262759268698
 32
0.0
 13
155.3130438915141
 23
264.0262759268698
 33
0.0
  0
SOLID
  5
468
330
463
100
AcDbEntity
  8
0
 62
   123
100
AcDbTrace
 10
164.813043891514
 20
264.4429425935365
 30
0.0
 11
164.813043891514
 21
263.6096092602031
 31
0.0
 12
167.3130438915141
 22
264.0262759268698
 32
0.0
 13
167.3130438915141
 23
264.0262759268698
 33
0.0
  0
MTEXT
  5
469
330
463
100
AcDbEntity
  8
0
 62
     3
100
AcDbMText
 10
161.3130438915141
 20
266.5262759268698
 30
0.0
 40
3.0
 41
0.0
 71
     5
 72
     1
  1
\A1;12
1001
ACAD
1000
MTEXTBEGIN
1070
    73
1070
     1
1070
    44
1040
1.0
1070
    74
1070
     0
1000
MTEXTEND
  0
POINT
  5
46A
330
463
100
AcDbEntity
  8
DEFPOINTS
 62
     0
100
AcDbPoint
 10
155.3130438915141
 20
249.9984389998087
 30
0.0
  0
POINT
  5
46B
330
463
100
AcDbEntity
  8
DEFPOINTS
 62
     0
100
AcDbPoint
 10
167.3130438915141
 20
250.9984389998087
 30
0.0
  0
POINT
  5
46C
330
463
100
AcDbEntity
  8
DEFPOINTS
 62
     0
100
AcDbPoint
 10
167.3130438915141
 20
264.0262759268698
 30
0.0
  0
ENDBLK
  5
46E
330
463
100
AcDbEntity
  8
0
100
AcDbBlockEnd
  0
BLOCK
  5
479
330
46F
100
AcDbEntity
  8
0
100
AcDbBlockBegin
  2
*D54
 70
     1
 10
0.0
 20
0.0
 30
0.0
  3
*D54
  1

  0
LINE
  5
470
330
46F
100
AcDbEntity
  8
DIM
 62
   123
100
AcDbLine
 10
166.4358363060819
 20
362.0586427711557
 30
0.0
 11
166.4358363060819
 21
381.5398193743068
 31
0.0
  0
LINE
  5
471
330
46F
100
AcDbEntity
  8
DIM
 62
   123
100
AcDbLine
 10
192.4358363060819
 20
362.0586427711557
 30
0.0
 11
192.4358363060819
 21
381.5398193743068
 31
0.0
  0
LINE
  5
472
330
46F
100
AcDbEntity
  8
DIM
 62
   123
100
AcDbLine
 10
168.9358363060819
 20
380.9398193743068
 30
0.0
 11
189.9358363060819
 21
380.9398193743068
 31
0.0
  0
SOLID
  5
473
330
46F
100
AcDbEntity
  8
DIM
 62
   123
100
AcDbTrace
 10
168.9358363060819
 20
381.3564860409734
 30
0.0
 11
168.9358363060819
 21
380.5231527076401
 31
0.0
 12
166.4358363060819
 22
380.9398193743068
 32
0.0
 13
166.4358363060819
 23
380.9398193743068
 33
0.0
  0
SOLID
  5
474
330
46F
100
AcDbEntity
  8
DIM
 62
   123
100
AcDbTrace
 10
189.9358363060819
 20
381.3564860409734
 30
0.0
 11
189.9358363060819
 21
380.5231527076401
 31
0.0
 12
192.4358363060819
 22
380.9398193743068
 32
0.0
 13
192.4358363060819
 23
380.9398193743068
 33
0.0
  0
MTEXT
  5
475
330
46F
100
AcDbEntity
  8
DIM
 62
     3
100
AcDbMText
 10
178.4901221077416
 20
383.4398193743068
 30
0.0
 40
3.0
 41
0.0
 71
     5
 72
     1
  1
\A1;26
1001
ACAD
1000
MTEXTBEGIN
1070
    73
1070
     1
1070
    44
1040
1.0
1070
    74
1070
     0
1000
MTEXTEND
  0
POINT
  5
476
330
46F
100
AcDbEntity
  8
DEFPOINTS
 62
     0
100
AcDbPoint
 10
166.4358363060819
 20
361.0586427711557
 30
0.0
  0
POINT
  5
477
330
46F
100
AcDbEntity
  8
DEFPOINTS
 62
     0
100
AcDbPoint
 10
192.4358363060819
 20
361.0586427711557
 30
0.0
  0
POINT
  5
478
330
46F
100
AcDbEntity
  8
DEFPOINTS
 62
     0
100
AcDbPoint
 10
192.4358363060819
 20
380.9398193743068
 30
0.0
  0
ENDBLK
  5
47A
330
46F
100
AcDbEntity
  8
0
100
AcDbBlockEnd
  0
BLOCK
  5
485
330
47B
100
AcDbEntity
  8
0
100
AcDbBlockBegin
  2
*D55
 70
     1
 10
0.0
 20
0.0
 30
0.0
  3
*D55
  1

  0
LINE
  5
47C
330
47B
100
AcDbEntity
  8
0
 62
   123
100
AcDbLine
 10
183.813043891514
 20
258.9984389998087
 30
0.0
 11
124.4023211536427
 21
258.9984389998087
 31
0.0
  0
LINE
  5
47D
330
47B
100
AcDbEntity
  8
0
 62
   123
100
AcDbLine
 10
183.813043891514
 20
234.9984389998089
 30
0.0
 11
124.4023211536427
 21
234.9984389998089
 31
0.0
  0
LINE
  5
47E
330
47B
100
AcDbEntity
  8
0
 62
   123
100
AcDbLine
 10
125.0023211536426
 20
256.4984389998087
 30
0.0
 11
125.0023211536426
 21
237.4984389998089
 31
0.0
  0
SOLID
  5
47F
330
47B
100
AcDbEntity
  8
0
 62
   123
100
AcDbTrace
 10
124.585654486976
 20
256.4984389998087
 30
0.0
 11
125.4189878203093
 21
256.4984389998087
 31
0.0
 12
125.0023211536426
 22
258.9984389998087
 32
0.0
 13
125.0023211536426
 23
258.9984389998087
 33
0.0
  0
SOLID
  5
480
330
47B
100
AcDbEntity
  8
0
 62
   123
100
AcDbTrace
 10
124.585654486976
 20
237.4984389998089
 30
0.0
 11
125.4189878203093
 21
237.4984389998089
 31
0.0
 12
125.0023211536426
 22
234.9984389998089
 32
0.0
 13
125.0023211536426
 23
234.9984389998089
 33
0.0
  0
MTEXT
  5
481
330
47B
100
AcDbEntity
  8
0
 62
     3
100
AcDbMText
 10
122.5023211536426
 20
246.9984389998089
 30
0.0
 40
3.0
 41
0.0
 71
     5
 72
     1
  1
\A1;%%c24
 11
0.0000000000000001
 21
1.0
 31
0.0
1001
ACAD
1000
MTEXTBEGIN
1070
    73
1070
     1
1070
    44
1040
1.0
1070
    74
1070
     0
1000
MTEXTEND
  0
POINT
  5
482
330
47B
100
AcDbEntity
  8
DEFPOINTS
 62
     0
100
AcDbPoint
 10
184.813043891514
 20
258.9984389998087
 30
0.0
  0
POINT
  5
483
330
47B
100
AcDbEntity
  8
DEFPOINTS
 62
     0
100
AcDbPoint
 10
184.813043891514
 20
234.9984389998089
 30
0.0
  0
POINT
  5
484
330
47B
100
AcDbEntity
  8
DEFPOINTS
 62
     0
100
AcDbPoint
 10
125.0023211536426
 20
234.9984389998089
 30
0.0
  0
ENDBLK
  5
486
330
47B
100
AcDbEntity
  8
0
100
AcDbBlockEnd
  0
ENDSEC
  0
SECTION
  2
ENTITIES
  0
LEADER
  5
9B
330
2
100
AcDbEntity
  8
0
100
AcDbLeader
  3
STANDARD
 73
     0
 75
     1
 40
3.0
 41
26.65178571428571
 76
     3
 10
105.590634258122
 20
358.0552485236708
 30
0.0
 10
100.6872334253639
 20
382.9872336331268
 30
0.0
 10
98.18723342536396
 20
382.9872336331268
 30
0.0
340
9C
1001
ACAD
1000
DSTYLE
1002
{
1070
     5
1000

1070
    77
1070
     1
1070
   147
1040
1.0
1070
   342
1005
0
1002
}
1000
LEANOF
1010
0.0
1020
0.0
1030
0.0
  0
MTEXT
  5
9C
330
2
100
AcDbEntity
  8
0
 62
     3
100
AcDbMText
 10
97.18723342536396
 20
383.9872336331268
 30
0.0
 40
3.0
 41
0.0
 71
     9
 72
     1
  1
4-%%c4.5 hole
1001
ACAD
1000
MTEXTBEGIN
1070
    73
1070
     1
1070
    44
1040
1.0
1070
    74
1070
     0
1000
MTEXTEND
  0
MTEXT
  5
9E
330
2
100
AcDbEntity
  8
0
 62
     3
100
AcDbMText
 10
98.32690918400112
 20
277.8819275216688
 30
0.0
 40
3.2
 41
0.0
 71
     7
 72
     1
  1
4-%%C4.5 hole
1001
ACAD
1000
MTEXTBEGIN
1070
    73
1070
     1
1070
    44
1040
1.0
1070
    74
1070
     0
1000
MTEXTEND
  0
LINE
  5
9F
330
2
100
AcDbEntity
  8
2
 62
     7
100
AcDbLine
 10
187.3130438915141
 20
234.9984389998089
 30
0.0
 11
184.813043891514
 21
234.9984389998089
 31
0.0
  0
ARC
  5
A1
330
2
100
AcDbEntity
  8
2
 62
     7
100
AcDbCircle
 10
184.813043891514
 20
235.4984389998089
 30
0.0
 40
0.4999999999999967
100
AcDbArc
 50
180.0
 51
270.0
  0
LINE
  5
A2
330
2
100
AcDbEntity
  8
2
 62
     7
100
AcDbLine
 10
184.3130438915141
 20
235.4984389998089
 30
0.0
 11
184.3130438915141
 21
236.9984389998089
 31
0.0
  0
LEADER
  5
A3
330
2
100
AcDbEntity
  8
0
100
AcDbLeader
  3
STANDARD
 73
     0
 74
     0
 75
     1
 40
3.200000000000001
 41
28.42857142857143
 76
     3
 10
85.08168680986273
 20
264.1902954164456
 30
0.0
 10
94.82690918400113
 20
276.8819275216687
 30
0.0
 10
97.32690918400113
 20
276.8819275216687
 30
0.0
340
9E
1001
ACAD
1000
DSTYLE
1002
{
1070
     5
1000

1070
    77
1070
     1
1070
   147
1040
1.0
1070
   342
1005
0
1002
}
1000
LEANOF
1010
0.0
1020
0.0
1030
0.0
  0
LEADER
  5
A4
330
2
100
AcDbEntity
  8
0
100
AcDbLeader
  3
STANDARD
 73
     0
 74
     0
 75
     1
 40
3.200000000000001
 41
28.42857142857143
 76
     3
 10
60.63591566605101
 20
95.96440569520586
 30
0.0
 10
70.38113804019303
 20
108.6560378004287
 30
0.0
 10
72.88113804019303
 20
108.6560378004287
 30
0.0
340
A5
1001
ACAD
1000
DSTYLE
1002
{
1070
     5
1000

1070
    77
1070
     1
1070
   147
1040
1.0
1070
   342
1005
0
1002
}
1000
LEANOF
1010
0.0
1020
0.0
1030
0.0
  0
MTEXT
  5
A5
330
2
100
AcDbEntity
  8
0
 62
     3
100
AcDbMText
 10
73.88113804019304
 20
109.6560378004287
 30
0.0
 40
3.2
 41
0.0
 71
     7
 72
     1
  1
4-%%C4.5 hole
1001
ACAD
1000
MTEXTBEGIN
1070
    73
1070
     1
1070
    44
1040
1.0
1070
    74
1070
     0
1000
MTEXTEND
  0
LINE
  5
A6
330
2
100
AcDbEntity
  8
2
 62
     7
100
AcDbLine
 10
177.9520323671931
 20
67.2725492785687
 30
0.0
 11
177.9520323671931
 21
68.77254927856871
 31
0.0
  0
ARC
  5
A7
330
2
100
AcDbEntity
  8
2
 62
     7
100
AcDbCircle
 10
178.4520323671931
 20
67.2725492785687
 30
0.0
 40
0.4999999999999967
100
AcDbArc
 50
180.0
 51
270.0
  0
LINE
  5
A8
330
2
100
AcDbEntity
  8
2
 62
     7
100
AcDbLine
 10
180.9520323671931
 20
66.7725492785687
 30
0.0
 11
178.4520323671931
 21
66.7725492785687
 31
0.0
  0
MTEXT
  5
A9
330
2
100
AcDbEntity
  8
DIM
100
AcDbMText
 10
277.2620541476644
 20
7.335025859892766
 30
0.0
 40
3.5
 41
0.0
 71
     5
 72
     1
  1
MOTOR LEAD WIRE 300mm
1001
ACAD
1000
MTEXTBEGIN
1070
    73
1070
     1
1070
    44
1040
1.0
1070
    74
1070
     0
1000
MTEXTEND
  0
MTEXT
  5
AB
330
2
100
AcDbEntity
  8
DIM
100
AcDbMText
 10
273.2330684629996
 20
-1.122331437574302
 30
0.0
 40
3.5
 41
0.0
 71
     5
 72
     1
  1
UL Style 3266 , AWG20
1001
ACAD
1000
MTEXTBEGIN
1070
    73
1070
     1
1070
    44
1040
1.0
1070
    74
1070
     0
1000
MTEXTEND
  0
LEADER
  5
AC
330
2
100
AcDbEntity
  8
0
 48
0.6
100
AcDbLeader
  3
STANDARD
 76
     2
 10
235.5892967003019
 20
23.53166595291372
 30
0.0
 10
240.2257306164319
 20
4.049395359407981
 30
0.0
1001
ACAD
1000
DSTYLE
1002
{
1070
     5
1000

1070
    77
1070
     1
1070
   147
1040
1.0
1070
   342
1005
0
1002
}
1000
LEANOF
1010
0.0
1020
0.0
1030
0.0
  0
CIRCLE
  5
AD
330
2
100
AcDbEntity
  8
CEN
 48
0.6
100
AcDbCircle
 10
60.21148072211508
 20
236.9984389998089
 30
0.0
 40
23.0
  0
LINE
  5
B0
102
{ACAD_REACTORS
330
1D3
102
}
330
2
100
AcDbEntity
  8
0
100
AcDbLine
 10
90.21148072211508
 20
261.9984389998087
 30
0.0
 11
90.21148072211508
 21
211.9984389998089
 31
0.0
  0
LINE
  5
B1
330
2
100
AcDbEntity
  8
0
100
AcDbLine
 10
30.21148072211508
 20
261.9984389998087
 30
0.0
 11
30.21148072211508
 21
211.9984389998089
 31
0.0
  0
LINE
  5
B2
102
{ACAD_REACTORS
330
216
330
B6
102
}
330
2
100
AcDbEntity
  8
0
100
AcDbLine
 10
187.3130438915141
 20
266.4984389998087
 30
0.0
 11
187.3130438915141
 21
207.4984389998089
 31
0.0
  0
LINE
  5
B3
102
{ACAD_REACTORS
330
216
102
}
330
2
100
AcDbEntity
  8
0
100
AcDbLine
 10
227.3130438915141
 20
266.4984389998087
 30
0.0
 11
227.3130438915141
 21
207.4984389998089
 31
0.0
  0
DIMENSION
  5
B4
102
{ACAD_XDICTIONARY
360
B5
102
}
102
{ACAD_REACTORS
330
B6
102
}
330
2
100
AcDbEntity
  8
0
100
AcDbDimension
  2
*D29
 10
187.3130438915141
 20
194.2024246181827
 30
0.0
 11
171.313043891514
 21
196.7024246181827
 31
0.0
 70
    32
  3
STANDARD
100
AcDbAlignedDimension
 13
155.3130438915141
 23
242.9984389998087
 33
0.0
 14
187.3130438915141
 24
207.4984389998089
 34
0.0
 50
180.0
100
AcDbRotatedDimension
  0
LINE
  5
C4
330
2
100
AcDbEntity
  8
0
  6
CENTER
 62
     1
 48
0.4
100
AcDbLine
 10
60.21148072211508
 20
271.0889965749618
 30
0.0
 11
60.21148072211508
 21
202.9078814246588
 31
0.0
  0
CIRCLE
  5
C5
330
2
100
AcDbEntity
  8
0
100
AcDbCircle
 10
60.21148072211508
 20
236.9984389998108
 30
0.0
 40
27.0
  0
DIMENSION
  5
C6
330
2
100
AcDbEntity
  8
2
100
AcDbDimension
  2
*D28
 10
29.45827343330036
 20
220.287956018997
 30
0.0
 11
109.8285962679656
 21
263.9590729623086
 31
0.0
 70
   163
  1
<>%%P0.5
  3
STANDARD
100
AcDbDiametricDimension
 15
90.96468801090068
 25
253.7089219806224
 35
0.0
 40
0.0
  0
LINE
  5
D2
102
{ACAD_REACTORS
330
206
102
}
330
2
100
AcDbEntity
  8
0
100
AcDbLine
 10
220.9520323671931
 20
98.77254927856871
 30
0.0
 11
220.9520323671931
 21
38.7725492785687
 31
0.0
  0
DIMENSION
  5
D3
330
2
100
AcDbEntity
  8
0
 48
0.6
100
AcDbDimension
  2
*D30
 10
311.5775943433509
 20
38.77254927856869
 30
0.0
 11
311.5775943433509
 21
68.77254927856871
 31
0.0
 70
   160
  1
%%C<>
  3
STANDARD
100
AcDbAlignedDimension
 13
288.9520323671931
 23
98.77254927856984
 33
0.0
 14
288.9520323671931
 24
38.7725492785687
 34
0.0
 50
90.0
100
AcDbRotatedDimension
  0
LINE
  5
E0
330
2
100
AcDbEntity
  8
0
 48
0.6
100
AcDbLine
 10
220.9520323671931
 20
98.77254927856871
 30
0.0
 11
220.9520323671931
 21
38.7725492785687
 31
0.0
  0
LINE
  5
E1
330
2
100
AcDbEntity
  8
0
 48
0.6
100
AcDbLine
 10
227.0520323671917
 20
98.77254927856871
 30
0.0
 11
227.0520323671917
 21
38.7725492785687
 31
0.0
  0
LINE
  5
E2
330
2
100
AcDbEntity
  8
0
 48
0.6
100
AcDbLine
 10
294.9520323671931
 20
98.2725492785687
 30
0.0
 11
294.9520323671931
 21
39.2725492785687
 31
0.0
  0
LINE
  5
E3
330
2
100
AcDbEntity
  8
0
 48
0.6
100
AcDbLine
 10
288.9520323671931
 20
38.7725492785687
 30
0.0
 11
288.9520323671931
 21
98.77254927856871
 31
0.0
  0
LINE
  5
E4
330
2
100
AcDbEntity
  8
0
 48
0.6
100
AcDbLine
 10
295.9520323671931
 20
97.2725492785687
 30
0.0
 11
295.9520323671931
 21
40.2725492785687
 31
0.0
  0
LINE
  5
E5
330
2
100
AcDbEntity
  8
0
 48
0.6
100
AcDbLine
 10
227.9520323671931
 20
46.97254927856988
 30
0.0
 11
227.9520323671931
 21
39.2725492785687
 31
0.0
  0
LINE
  5
E6
330
2
100
AcDbEntity
  8
0
100
AcDbLine
 10
5.765709578314272
 20
93.77254927856871
 30
0.0
 11
5.765709578314272
 21
43.7725492785687
 31
0.0
  0
ARC
  5
E7
330
2
100
AcDbEntity
  8
CEN
 62
     1
 48
0.6
100
AcDbCircle
 10
35.76570957831427
 20
68.77254927856871
 30
0.0
 40
35.0
100
AcDbArc
 50
191.7493786021456
 51
231.9616261501608
  0
LINE
  5
E8
330
2
100
AcDbEntity
  8
0
100
AcDbLine
 10
65.76570957831427
 20
93.77254927856871
 30
0.0
 11
65.76570957831427
 21
43.7725492785687
 31
0.0
  0
LINE
  5
E9
102
{ACAD_REACTORS
330
123
330
132
102
}
330
2
100
AcDbEntity
  8
0
100
AcDbLine
 10
180.9520323671931
 20
98.2725492785687
 30
0.0
 11
180.9520323671931
 21
39.2725492785687
 31
0.0
  0
LINE
  5
EA
330
2
100
AcDbEntity
  8
CEN
 62
     1
 48
0.6
100
AcDbLine
 10
13.31506927563168
 20
46.32190897589476
 30
0.0
 11
8.718875197922898
 21
41.72571489818255
 31
0.0
  0
ARC
  5
EB
330
2
100
AcDbEntity
  8
CEN
 62
     1
 48
0.6
100
AcDbCircle
 10
35.76570957831427
 20
68.77254927856871
 30
0.0
 40
35.0
100
AcDbArc
 50
308.0383738498391
 51
321.9616261501568
  0
LINE
  5
EC
330
2
100
AcDbEntity
  8
CEN
 62
     1
 48
0.6
100
AcDbLine
 10
58.21634988097503
 20
46.32190897589476
 30
0.0
 11
62.81254395869109
 21
41.72571489818255
 31
0.0
  0
CIRCLE
  5
ED
330
2
100
AcDbEntity
  8
0
100
AcDbCircle
 10
35.76570957831427
 20
68.77254927856871
 30
0.0
 40
27.0
  0
LINE
  5
EE
330
2
100
AcDbEntity
  8
CEN
  6
CENTER
 48
0.4
100
AcDbLine
 10
35.76570957831427
 20
102.8631068537197
 30
0.0
 11
35.76570957831427
 21
34.6819917034179
 31
0.0
  0
LINE
  5
EF
330
2
100
AcDbEntity
  8
0
 48
0.6
100
AcDbLine
 10
10.76570957831427
 20
38.7725492785687
 30
0.0
 11
60.76570957831427
 21
38.7725492785687
 31
0.0
  0
ARC
  5
F0
330
2
100
AcDbEntity
  8
0
 48
0.6
100
AcDbCircle
 10
10.76570957831427
 20
43.7725492785687
 30
0.0
 40
5.0
100
AcDbArc
 50
180.0
 51
270.0
  0
CIRCLE
  5
F1
330
2
100
AcDbEntity
  8
0
 48
0.6
100
AcDbCircle
 10
11.01697223677183
 20
44.02381193703968
 30
0.0
 40
2.25
  0
ARC
  5
F2
330
2
100
AcDbEntity
  8
0
 48
0.6
100
AcDbCircle
 10
60.76570957831427
 20
43.7725492785687
 30
0.0
 40
5.0
100
AcDbArc
 50
270.0
 51
0.0
  0
CIRCLE
  5
F3
330
2
100
AcDbEntity
  8
0
 48
0.6
100
AcDbCircle
 10
60.51444691984215
 20
44.02381193703968
 30
0.0
 40
2.25
  0
DIMENSION
  5
F4
330
2
100
AcDbEntity
  8
0
 48
0.6
100
AcDbDimension
  2
*D31
 10
65.76570957831427
 20
24.95067694910585
 30
0.0
 11
35.76570957831427
 21
24.95067694910585
 31
0.0
 70
   160
  1
<>
  3
STANDARD
100
AcDbAlignedDimension
 13
5.765709578314272
 23
42.7725492785687
 33
0.0
 14
65.76570957831427
 24
42.7725492785687
 34
0.0
100
AcDbRotatedDimension
  0
POLYLINE
  5
101
330
2
100
AcDbEntity
  8
3
100
AcDb2dPolyline
 66
     1
 10
0.0
 20
0.0
 30
0.0
 70
     1
  0
VERTEX
  5
492
330
101
100
AcDbEntity
  8
3
100
AcDbVertex
100
AcDb2dVertex
 10
29.18130758762345
 20
25.69408401891087
 30
0.0
  0
VERTEX
  5
493
330
101
100
AcDbEntity
  8
3
100
AcDbVertex
100
AcDb2dVertex
 10
32.48130758761544
 20
25.69408401891087
 30
0.0
  0
VERTEX
  5
494
330
101
100
AcDbEntity
  8
3
100
AcDbVertex
100
AcDb2dVertex
 10
32.48130758761544
 20
29.19408401891087
 30
0.0
  0
VERTEX
  5
495
330
101
100
AcDbEntity
  8
3
100
AcDbVertex
100
AcDb2dVertex
 10
29.18130758762345
 20
29.19408401891087
 30
0.0
  0
SEQEND
  5
496
330
101
100
AcDbEntity
  8
3
  0
LINE
  5
103
330
2
100
AcDbEntity
  8
0
 48
0.6
100
AcDbLine
 10
295.9520323671931
 20
40.2725492785687
 30
0.0
 11
294.9520323671931
 21
39.2725492785687
 31
0.0
  0
LINE
  5
104
330
2
100
AcDbEntity
  8
0
 62
   123
 48
0.6
100
AcDbLine
 10
240.2257306164319
 20
4.049395359407981
 30
0.0
 11
312.1127733741523
 21
4.049395359407981
 31
0.0
  0
ARC
  5
105
330
2
100
AcDbEntity
  8
0
 48
0.6
100
AcDbCircle
 10
269.2547543671935
 20
37.68390327856877
 30
0.0
 40
33.95579199999999
100
AcDbArc
 50
179.8504230000004
 51
213.8981229999992
  0
ARC
  5
106
330
2
100
AcDbEntity
  8
0
 48
0.6
100
AcDbCircle
 10
269.2547543671935
 20
37.68390327856877
 30
0.0
 40
35.255792
100
AcDbArc
 50
179.8559380000023
 51
205.2470409999969
  0
ARC
  5
107
330
2
100
AcDbEntity
  8
0
 48
0.6
100
AcDbCircle
 10
269.2547543671935
 20
37.68390327856877
 30
0.0
 40
39.15579199999999
100
AcDbArc
 50
179.8702869999971
 51
212.7486590000019
  0
ARC
  5
108
330
2
100
AcDbEntity
  8
0
 48
0.6
100
AcDbCircle
 10
269.2547543671935
 20
37.68390327856877
 30
0.0
 40
37.855792
100
AcDbArc
 50
179.8658329999985
 51
205.2470409999969
  0
ARC
  5
109
330
2
100
AcDbEntity
  8
0
 48
0.6
100
AcDbCircle
 10
269.2547543671935
 20
37.68390327856877
 30
0.0
 40
36.555792
100
AcDbArc
 50
205.2470409999969
 51
213.8176429999978
  0
ARC
  5
10A
330
2
100
AcDbEntity
  8
0
 48
0.6
100
AcDbCircle
 10
269.2547543671935
 20
37.68390327856877
 30
0.0
 40
37.855792
100
AcDbArc
 50
212.7486590000019
 51
219.5987459999966
  0
ARC
  5
10B
330
2
100
AcDbEntity
  8
0
 48
0.6
100
AcDbCircle
 10
238.1650673671938
 20
17.2427152785699
 30
0.0
 40
0.7499080000000001
100
AcDbArc
 50
62.66289500000094
 51
182.8344229999968
  0
ARC
  5
10C
330
2
100
AcDbEntity
  8
0
 48
0.6
100
AcDbCircle
 10
236.6670863671934
 20
17.1685492785698
 30
0.0
 40
0.7499080000000001
100
AcDbArc
 50
242.6628950000009
 51
2.834422999996808
  0
ARC
  5
10D
330
2
100
AcDbEntity
  8
0
 48
0.6
100
AcDbCircle
 10
236.9382963671923
 20
22.03103427856877
 30
0.0
 40
0.7499080000000001
100
AcDbArc
 50
55.16127700000105
 51
175.3328050000016
  0
ARC
  5
10E
330
2
100
AcDbEntity
  8
0
 48
0.6
100
AcDbCircle
 10
235.4434533671919
 20
22.15307127856772
 30
0.0
 40
0.7499080000000001
100
AcDbArc
 50
235.1612770000011
 51
355.3328050000017
  0
ARC
  5
10F
330
2
100
AcDbEntity
  8
0
 48
0.6
100
AcDbCircle
 10
240.7260803671924
 20
18.07904827856873
 30
0.0
 40
0.7499080000000001
100
AcDbArc
 50
62.66289500000094
 51
182.8344229999968
  0
ARC
  5
110
330
2
100
AcDbEntity
  8
0
 48
0.6
100
AcDbCircle
 10
269.2547543671935
 20
37.68390327856877
 30
0.0
 40
35.255792
100
AcDbArc
 50
213.8564239999994
 51
219.5987459999966
  0
ARC
  5
111
330
2
100
AcDbEntity
  8
0
 48
0.6
100
AcDbCircle
 10
240.3483013671939
 20
14.25683027856985
 30
0.0
 40
0.7499080000000001
100
AcDbArc
 50
249.5129820000002
 51
9.684509999999278
  0
ARC
  5
112
330
2
100
AcDbEntity
  8
0
 48
0.6
100
AcDbCircle
 10
239.2280983671917
 20
18.00488227856862
 30
0.0
 40
0.7499080000000001
100
AcDbArc
 50
242.6628950000009
 51
2.834422999996808
  0
ARC
  5
113
330
2
100
AcDbEntity
  8
0
 48
0.6
100
AcDbCircle
 10
241.8267433671935
 20
14.50913327856869
 30
0.0
 40
0.7499080000000001
100
AcDbArc
 50
69.51298200000024
 51
189.6845099999992
  0
LINE
  5
114
330
2
100
AcDbEntity
  8
0
 48
0.6
100
AcDbLine
 10
237.9520323671931
 20
38.7725492785687
 30
0.0
 11
237.9520323671931
 21
38.2725492785687
 31
0.0
  0
ARC
  5
115
330
2
100
AcDbEntity
  8
0
 48
0.6
100
AcDbCircle
 10
237.4520323671931
 20
38.2725492785687
 30
0.0
 40
0.5
100
AcDbArc
 50
270.0
 51
0.0
  0
LINE
  5
116
330
2
100
AcDbEntity
  8
0
 48
0.6
100
AcDbLine
 10
227.9520323671931
 20
38.7725492785687
 30
0.0
 11
227.9520323671931
 21
38.2725492785687
 31
0.0
  0
ARC
  5
117
330
2
100
AcDbEntity
  8
0
 48
0.6
100
AcDbCircle
 10
228.4520323671931
 20
38.2725492785687
 30
0.0
 40
0.5
100
AcDbArc
 50
180.0
 51
270.0
  0
LINE
  5
118
330
2
100
AcDbEntity
  8
0
 48
0.6
100
AcDbLine
 10
227.0520323671917
 20
39.2725492785687
 30
0.0
 11
227.9520323671931
 21
39.2725492785687
 31
0.0
  0
LINE
  5
119
330
2
100
AcDbEntity
  8
0
 48
0.6
100
AcDbLine
 10
237.4520323671931
 20
37.7725492785687
 30
0.0
 11
228.4520323671931
 21
37.7725492785687
 31
0.0
  0
LINE
  5
11A
330
2
100
AcDbEntity
  8
0
 48
0.6
100
AcDbLine
 10
294.9520323671931
 20
39.2725492785687
 30
0.0
 11
288.9520323671931
 21
39.2725492785687
 31
0.0
  0
ARC
  5
11B
330
2
100
AcDbEntity
  8
0
100
AcDbCircle
 10
181.4520323671931
 20
39.2725492785687
 30
0.0
 40
0.5
100
AcDbArc
 50
180.0
 51
270.0
  0
LINE
  5
11C
330
2
100
AcDbEntity
  8
0
100
AcDbLine
 10
288.9520323671931
 20
38.7725492785687
 30
0.0
 11
181.4520323671931
 21
38.7725492785687
 31
0.0
  0
LINE
  5
11D
102
{ACAD_REACTORS
330
157
102
}
330
2
100
AcDbEntity
  8
CEN
 48
0.6
100
AcDbLine
 10
188.8104900705511
 20
78.77254927856871
 30
0.0
 11
145.0538935659751
 21
78.77254927856871
 31
0.0
  0
LINE
  5
11E
330
2
100
AcDbEntity
  8
0
100
AcDbLine
 10
178.4520323671931
 20
66.7725492785687
 30
0.0
 11
180.9520323671931
 21
66.7725492785687
 31
0.0
  0
LINE
  5
11F
330
2
100
AcDbEntity
  8
0
100
AcDbLine
 10
178.4520323671931
 20
90.7725492785687
 30
0.0
 11
180.9520323671931
 21
90.7725492785687
 31
0.0
  0
LINE
  5
120
102
{ACAD_REACTORS
330
157
102
}
330
2
100
AcDbEntity
  8
CEN
 48
0.6
100
AcDbLine
 10
144.259458773693
 20
68.77254927856871
 30
0.0
 11
302.8802153492433
 21
68.77254927856871
 31
0.0
  0
DIMENSION
  5
121
102
{ACAD_XDICTIONARY
360
122
102
}
102
{ACAD_REACTORS
330
123
102
}
330
2
100
AcDbEntity
  8
0
100
AcDbDimension
  2
*D42
 10
180.9520323671931
 20
128.3230748024595
 30
0.0
 11
164.9520323671931
 21
128.3230748024595
 31
0.0
 70
   160
  3
STANDARD
100
AcDbAlignedDimension
 13
148.9520323671931
 23
81.7725492785687
 33
0.0
 14
180.9520323671931
 24
98.2725492785687
 34
0.0
100
AcDbRotatedDimension
  0
DIMENSION
  5
130
102
{ACAD_XDICTIONARY
360
131
102
}
102
{ACAD_REACTORS
330
132
102
}
330
2
100
AcDbEntity
  8
0
100
AcDbDimension
  2
*D41
 10
180.9520323671931
 20
114.3478120405147
 30
0.0
 11
179.4520323671931
 21
114.3478120405147
 31
0.0
 70
   160
  3
STANDARD
100
AcDbAlignedDimension
 13
177.9520323671931
 23
90.27254927856871
 33
0.0
 14
180.9520323671931
 24
98.2725492785687
 34
0.0
100
AcDbRotatedDimension
  0
TEXT
  5
141
330
2
100
AcDbEntity
  8
1
  6
BYBLOCK
 62
     0
100
AcDbText
 10
129.7557568667034
 20
150.7728297430846
 30
0.0
 40
4.589999999999998
  1
K6G25~180B(C)
100
AcDbText
  0
TEXT
  5
143
330
2
100
AcDbEntity
  8
1
  6
BYBLOCK
 62
     0
100
AcDbText
 10
128.9914909446342
 20
168.5962794339598
 30
0.0
 40
4.589999999999998
  1
APPLICATION MODEL
 41
0.8
  7
GHS
100
AcDbText
  0
LINE
  5
145
330
2
100
AcDbEntity
  8
1
  6
BYBLOCK
 62
     0
100
AcDbLine
 10
191.3590178802333
 20
148.1575932660787
 30
0.0
 11
69.69069459490128
 21
148.1575932660787
 31
0.0
  0
LINE
  5
146
330
2
100
AcDbEntity
  8
1
  6
BYBLOCK
 62
     0
100
AcDbLine
 10
191.3590178802333
 20
175.6975932660786
 30
0.0
 11
69.69069459490128
 21
175.6975932660786
 31
0.0
  0
LINE
  5
147
330
2
100
AcDbEntity
  8
1
  6
BYBLOCK
 62
     0
100
AcDbLine
 10
191.3590178802333
 20
166.5175932660788
 30
0.0
 11
69.69069459490128
 21
166.5175932660788
 31
0.0
  0
LINE
  5
148
330
2
100
AcDbEntity
  8
1
  6
BYBLOCK
 62
     0
100
AcDbLine
 10
191.3590178802333
 20
157.3375932660787
 30
0.0
 11
69.69069459490128
 21
157.3375932660787
 31
0.0
  0
DIMENSION
  5
149
330
2
100
AcDbEntity
  8
DIM
100
AcDbDimension
  2
*D40
 10
2.506630758253297
 20
57.87146327574767
 30
0.0
 11
85.38282512417209
 21
85.03518982562377
 31
0.0
 70
   163
  1
<>%%P0.5
  3
STANDARD
100
AcDbDiametricDimension
 15
69.02478839837525
 25
79.67363528137815
 35
0.0
 40
0.0
  0
DIMENSION
  5
155
102
{ACAD_XDICTIONARY
360
156
102
}
102
{ACAD_REACTORS
330
157
102
}
330
2
100
AcDbEntity
  8
DIM
100
AcDbDimension
  2
*D39
 10
117.6508507900507
 20
68.77254927856871
 30
0.0
 11
117.6508507900507
 21
73.77254927856871
 31
0.0
 70
   160
  3
STANDARD
100
AcDbAlignedDimension
 13
145.0538935659751
 23
78.77254927856871
 33
0.0
 14
144.259458773693
 24
68.77254927856871
 34
0.0
 50
90.0
100
AcDbRotatedDimension
  0
DIMENSION
  5
164
330
2
100
AcDbEntity
  8
DIM
100
AcDbDimension
  2
*D38
 10
105.7707290862126
 20
66.77254927856871
 30
0.0
 11
103.2707290862126
 21
78.77254927856874
 31
0.0
 70
    32
  1
%%c<>
  3
STANDARD
100
AcDbAlignedDimension
 13
178.4520323671931
 23
90.7725492785687
 33
0.0
 14
178.4520323671931
 24
66.7725492785687
 34
0.0
 50
90.0
100
AcDbRotatedDimension
  0
LINE
  5
171
330
2
100
AcDbEntity
  8
0
100
AcDbLine
 10
32.41160761205174
 20
81.7725492785687
 30
0.0
 11
39.11981154455133
 21
81.7725492785687
 31
0.0
  0
LINE
  5
172
330
2
100
AcDbEntity
  8
CEN
  6
CENTER
 48
0.6
100
AcDbLine
 10
48.78733585807276
 20
78.77254927856871
 30
0.0
 11
22.74408329854122
 21
78.77254927856871
 31
0.0
  0
LINE
  5
173
330
2
100
AcDbEntity
  8
0
100
AcDbLine
 10
10.76570957831427
 20
98.77254927856871
 30
0.0
 11
60.76570957831427
 21
98.77254927856871
 31
0.0
  0
CIRCLE
  5
174
330
2
100
AcDbEntity
  8
0
100
AcDbCircle
 10
35.76570957831427
 20
78.77254927856871
 30
0.0
 40
4.5
  0
LINE
  5
175
330
2
100
AcDbEntity
  8
CEN
 48
0.6
100
AcDbLine
 10
0.7059461556928
 20
68.77254927856871
 30
0.0
 11
70.82547300092483
 21
68.77254927856871
 31
0.0
  0
LINE
  5
176
330
2
100
AcDbEntity
  8
CEN
 48
0.6
100
AcDbLine
 10
13.31506927563168
 20
95.81938365895462
 30
0.0
 11
8.718875197922898
 21
91.22318958124287
 31
0.0
  0
LINE
  5
177
330
2
100
AcDbEntity
  8
CEN
 48
0.6
100
AcDbLine
 10
13.31506927563168
 20
91.22318958124287
 30
0.0
 11
8.718875197922898
 21
95.81938365895462
 31
0.0
  0
ARC
  5
178
330
2
100
AcDbEntity
  8
0
 48
0.6
100
AcDbCircle
 10
10.76570957831427
 20
93.77254927856871
 30
0.0
 40
5.0
100
AcDbArc
 50
90.0
 51
180.0
  0
CIRCLE
  5
179
330
2
100
AcDbEntity
  8
0
 48
0.6
100
AcDbCircle
 10
11.01697223677183
 20
93.52128662009887
 30
0.0
 40
2.25
  0
ARC
  5
17A
330
2
100
AcDbEntity
  8
CEN
 48
0.6
100
AcDbCircle
 10
35.76570957831427
 20
68.77254927856871
 30
0.0
 40
35.0
100
AcDbArc
 50
15.13218434127649
 51
51.96162615016085
  0
LINE
  5
17B
330
2
100
AcDbEntity
  8
CEN
 48
0.6
100
AcDbLine
 10
58.21634988097503
 20
91.22318958124287
 30
0.0
 11
62.81254395869109
 21
95.81938365895462
 31
0.0
  0
ARC
  5
17C
330
2
100
AcDbEntity
  8
0
 48
0.6
100
AcDbCircle
 10
60.76570957831427
 20
93.77254927856871
 30
0.0
 40
5.0
100
AcDbArc
 50
0.0
 51
90.0
  0
CIRCLE
  5
17D
330
2
100
AcDbEntity
  8
0
 48
0.6
100
AcDbCircle
 10
60.51444691984215
 20
93.52128662009887
 30
0.0
 40
2.25
  0
CIRCLE
  5
17E
330
2
100
AcDbEntity
  8
0
100
AcDbCircle
 10
35.76570957831427
 20
78.77254927856871
 30
0.0
 40
12.0
  0
LINE
  5
17F
330
2
100
AcDbEntity
  8
0
100
AcDbLine
 10
177.9520323671931
 20
74.7725492785687
 30
0.0
 11
148.9520323671931
 21
74.7725492785687
 31
0.0
  0
LINE
  5
180
102
{ACAD_REACTORS
330
1A9
102
}
330
2
100
AcDbEntity
  8
0
100
AcDbLine
 10
177.9520323671931
 20
82.77254927856871
 30
0.0
 11
160.9520323671931
 21
82.77254927856871
 31
0.0
  0
LINE
  5
181
102
{ACAD_REACTORS
330
132
102
}
330
2
100
AcDbEntity
  8
0
100
AcDbLine
 10
177.9520323671931
 20
90.27254927856871
 30
0.0
 11
177.9520323671931
 21
67.2725492785687
 31
0.0
  0
ARC
  5
182
330
2
100
AcDbEntity
  8
0
100
AcDbCircle
 10
178.4520323671931
 20
67.2725492785687
 30
0.0
 40
0.5
100
AcDbArc
 50
180.0
 51
270.0
  0
ARC
  5
183
330
2
100
AcDbEntity
  8
0
100
AcDbCircle
 10
178.4520323671931
 20
90.27254927856871
 30
0.0
 40
0.5
100
AcDbArc
 50
90.0
 51
180.0
  0
DIMENSION
  5
184
102
{ACAD_XDICTIONARY
360
185
102
}
102
{ACAD_REACTORS
330
186
102
}
330
2
100
AcDbEntity
  8
0
100
AcDbDimension
  2
*D37
 10
136.0792298576234
 20
74.7725492785687
 30
0.0
 11
136.0792298576234
 21
94.42772602549075
 31
0.0
 70
   160
  3
STANDARD
100
AcDbAlignedDimension
 13
148.9520323671931
 23
81.7725492785687
 33
0.0
 14
148.9520323671931
 24
74.7725492785687
 34
0.0
 50
90.0
100
AcDbRotatedDimension
  0
DIMENSION
  5
195
102
{ACAD_XDICTIONARY
360
196
102
}
102
{ACAD_REACTORS
330
197
102
}
330
2
100
AcDbEntity
  8
0
100
AcDbDimension
  2
*D36
 10
160.9520323671931
 20
95.80038620563072
 30
0.0
 11
154.9520323671931
 21
98.30038620563072
 31
0.0
 70
    32
  3
STANDARD
100
AcDbAlignedDimension
 13
148.9520323671931
 23
81.7725492785687
 33
0.0
 14
160.9520323671931
 24
82.77254927856871
 34
0.0
 50
180.0
100
AcDbRotatedDimension
  0
LINE
  5
1A4
102
{ACAD_REACTORS
330
197
102
}
330
2
100
AcDbEntity
  8
0
100
AcDbLine
 10
160.9520323671931
 20
82.77254927856871
 30
0.0
 11
160.9520323671931
 21
81.7725492785687
 31
0.0
  0
LINE
  5
1A5
102
{ACAD_REACTORS
330
197
102
}
330
2
100
AcDbEntity
  8
0
100
AcDbLine
 10
160.9520323671931
 20
81.7725492785687
 30
0.0
 11
148.9520323671931
 21
81.7725492785687
 31
0.0
  0
LINE
  5
1A6
102
{ACAD_REACTORS
330
186
330
123
102
}
330
2
100
AcDbEntity
  8
0
100
AcDbLine
 10
148.9520323671931
 20
81.7725492785687
 30
0.0
 11
148.9520323671931
 21
74.7725492785687
 31
0.0
  0
DIMENSION
  5
1A7
102
{ACAD_XDICTIONARY
360
1A8
102
}
102
{ACAD_REACTORS
330
1A9
102
}
330
2
100
AcDbEntity
  8
DIM
100
AcDbDimension
  2
*D35
 10
126.5609366160642
 20
82.77254927856871
 30
0.0
 11
126.5609366160642
 21
108.7330692548366
 31
0.0
 70
   160
  1
\A1;{\f??|b0|i0|c0|p49;%%C8\H0.7x;\S+0^ -0.015;\H1.429x;(h7)}
  3
STANDARD
100
AcDbAlignedDimension
 13
148.9520323671931
 23
74.7725492785687
 33
0.0
 14
160.9520323671931
 24
82.77254927856871
 34
0.0
 50
90.0
100
AcDbRotatedDimension
  0
TEXT
  5
1B8
330
2
100
AcDbEntity
  8
1
  6
BYBLOCK
 62
     0
100
AcDbText
 10
129.1423944976631
 20
160.1013131831759
 30
0.0
 40
4.589999999999998
  1
K6G3~18B(C)
100
AcDbText
  0
LINE
  5
1B9
330
2
100
AcDbEntity
  8
1
  6
BYBLOCK
 62
     0
100
AcDbLine
 10
123.2005117784137
 20
175.6975932660786
 30
0.0
 11
123.2005117784137
 21
148.1575932660787
 31
0.0
  0
TEXT
  5
1BA
330
2
100
AcDbEntity
  8
1
  6
BYBLOCK
 62
     0
100
AcDbText
 10
77.25181975527448
 20
168.6864059920489
 30
0.0
 40
4.589999999999998
  1
NO.
 41
0.8
  7
GHS
100
AcDbText
  0
TEXT
  5
1BB
330
2
100
AcDbEntity
  8
1
  6
BYBLOCK
 62
     0
100
AcDbText
 10
77.70996820683286
 20
150.5792581921236
 30
0.0
 40
4.589999999999998
  1
02
 41
0.8
  7
GHS
100
AcDbText
  0
TEXT
  5
1BC
330
2
100
AcDbEntity
  8
1
  6
BYBLOCK
 62
     0
100
AcDbText
 10
77.70996820683286
 20
159.7592581921219
 30
0.0
 40
4.589999999999998
  1
01
 41
0.8
  7
GHS
100
AcDbText
  0
LINE
  5
1BD
330
2
100
AcDbEntity
  8
1
  6
BYBLOCK
 62
     0
100
AcDbLine
 10
93.50747779282391
 20
175.6975932660786
 30
0.0
 11
93.50747779282391
 21
148.1575932660787
 31
0.0
  0
LINE
  5
1BE
330
2
100
AcDbEntity
  8
1
  6
BYBLOCK
 62
     0
100
AcDbLine
 10
69.69069459490128
 20
175.6975932660786
 30
0.0
 11
69.69069459490128
 21
148.1575932660787
 31
0.0
  0
TEXT
  5
1BF
330
2
100
AcDbEntity
  8
1
  6
BYBLOCK
 62
     0
100
AcDbText
 10
105.0793278498422
 20
168.5182080791037
 30
0.0
 40
4.589999999999998
  1
L
 41
0.8
  7
GHS
100
AcDbText
  0
TEXT
  5
1C0
330
2
100
AcDbEntity
  8
1
  6
BYBLOCK
 62
     0
100
AcDbText
 10
103.230527044132
 20
150.3246782232208
 30
0.0
 40
4.589999999999998
  1
40
100
AcDbText
  0
TEXT
  5
1C1
330
2
100
AcDbEntity
  8
1
  6
BYBLOCK
 62
     0
100
AcDbText
 10
103.230527044132
 20
159.5046782232207
 30
0.0
 40
4.589999999999998
  1
30
100
AcDbText
  0
LINE
  5
1C2
330
2
100
AcDbEntity
  8
1
  6
BYBLOCK
 62
     0
100
AcDbLine
 10
68.92042802437209
 20
179.1552501812916
 30
0.0
 11
118.5858658365832
 21
179.1552501812916
 31
0.0
  0
LINE
  5
1C3
330
2
100
AcDbEntity
  8
1
  6
BYBLOCK
 62
     0
100
AcDbLine
 10
68.92042802437209
 20
179.3802501812899
 30
0.0
 11
118.5858658365832
 21
179.3802501812899
 31
0.0
  0
LINE
  5
1C4
330
2
100
AcDbEntity
  8
1
  6
BYBLOCK
 62
     0
100
AcDbLine
 10
68.92042802437209
 20
180.1092821422867
 30
0.0
 11
118.5858658365832
 21
180.1092821422867
 31
0.0
  0
TEXT
  5
1C5
330
2
100
AcDbEntity
  8
1
 62
     0
100
AcDbText
 10
69.58241851858111
 20
181.2050320530477
 30
0.0
 40
4.589999999999998
  1
DIMENSION TABLE
 41
0.8
  7
GHS
100
AcDbText
  0
ARC
  5
1C6
330
2
100
AcDbEntity
  8
CEN
 48
0.6
100
AcDbCircle
 10
60.2114807220496
 20
236.9984389997628
 30
0.0
 40
34.99999999992732
100
AcDbArc
 50
205.5917490017661
 51
231.9616261501888
  0
CIRCLE
  5
1C7
330
2
100
AcDbEntity
  8
0
 48
0.6
100
AcDbCircle
 10
60.21148072211508
 20
213.9984389998089
 30
0.0
 40
1.75
  0
CIRCLE
  5
1C8
330
2
100
AcDbEntity
  8
0
 48
0.6
100
AcDbCircle
 10
35.46274338058356
 20
212.2497016582788
 30
0.0
 40
2.25
  0
CIRCLE
  5
1C9
330
2
100
AcDbEntity
  8
0
 48
0.6
100
AcDbCircle
 10
84.96021806364296
 20
212.2497016582788
 30
0.0
 40
2.25
  0
LINE
  5
1CA
330
2
100
AcDbEntity
  8
CEN
 48
0.6
100
AcDbLine
 10
37.76084041943977
 20
214.5477986971345
 30
0.0
 11
33.16464634173462
 21
209.9516046194228
 31
0.0
  0
LINE
  5
1CB
330
2
100
AcDbEntity
  8
0
 48
0.6
100
AcDbLine
 10
35.21148072211508
 20
206.9984389998089
 30
0.0
 11
85.21148072211508
 21
206.9984389998089
 31
0.0
  0
ARC
  5
1CC
330
2
100
AcDbEntity
  8
0
 48
0.6
100
AcDbCircle
 10
85.21148072211508
 20
211.9984389998089
 30
0.0
 40
5.0
100
AcDbArc
 50
270.0
 51
0.0
  0
ARC
  5
1CD
102
{ACAD_REACTORS
330
1D3
102
}
330
2
100
AcDbEntity
  8
0
 48
0.6
100
AcDbCircle
 10
35.21148072211508
 20
211.9984389998089
 30
0.0
 40
5.0
100
AcDbArc
 50
180.0
 51
270.0
  0
LINE
  5
1CE
330
2
100
AcDbEntity
  8
CEN
 48
0.6
100
AcDbLine
 10
82.66212102478311
 20
214.5477986971345
 30
0.0
 11
87.25831510250282
 21
209.9516046194228
 31
0.0
  0
ARC
  5
1CF
330
2
100
AcDbEntity
  8
CEN
 48
0.6
100
AcDbCircle
 10
60.21148072211508
 20
236.9984389998089
 30
0.0
 40
35.0
100
AcDbArc
 50
308.0383738498391
 51
321.9616261501568
  0
CIRCLE
  5
1D0
330
2
100
AcDbEntity
  8
0
 48
0.6
100
AcDbCircle
 10
60.21148072211508
 20
213.9984389998089
 30
0.0
 40
3.0
  0
DIMENSION
  5
1D1
102
{ACAD_XDICTIONARY
360
1D2
102
}
102
{ACAD_REACTORS
330
1D3
102
}
330
2
100
AcDbEntity
  8
0
 48
0.6
100
AcDbDimension
  2
*D34
 10
90.21148072211508
 20
193.9701180794238
 30
0.0
 11
62.25622715096324
 21
193.9701180794238
 31
0.0
 70
   160
  3
STANDARD
100
AcDbAlignedDimension
 13
30.21148072211508
 23
211.9984389998089
 33
0.0
 14
90.21148072211508
 24
211.9984389998089
 34
0.0
100
AcDbRotatedDimension
  0
POLYLINE
  5
1E0
330
2
100
AcDbEntity
  8
3
100
AcDb2dPolyline
 66
     1
 10
0.0
 20
0.0
 30
0.0
 70
     1
  0
VERTEX
  5
497
330
1E0
100
AcDbEntity
  8
3
100
AcDbVertex
100
AcDb2dVertex
 10
55.67182516027242
 20
194.7135251492298
 30
0.0
  0
VERTEX
  5
498
330
1E0
100
AcDbEntity
  8
3
100
AcDbVertex
100
AcDb2dVertex
 10
58.97182516027533
 20
194.7135251492298
 30
0.0
  0
VERTEX
  5
499
330
1E0
100
AcDbEntity
  8
3
100
AcDbVertex
100
AcDb2dVertex
 10
58.97182516027533
 20
198.2135251492297
 30
0.0
  0
VERTEX
  5
49A
330
1E0
100
AcDbEntity
  8
3
100
AcDbVertex
100
AcDb2dVertex
 10
55.67182516027242
 20
198.2135251492297
 30
0.0
  0
SEQEND
  5
49B
330
1E0
100
AcDbEntity
  8
3
  0
LINE
  5
1E1
330
2
100
AcDbEntity
  8
0
 48
0.6
100
AcDbLine
 10
227.0520323671917
 20
46.97254927856988
 30
0.0
 11
227.9520323671931
 21
46.97254927856988
 31
0.0
  0
LINE
  5
1E2
330
2
100
AcDbEntity
  8
0
 48
0.6
100
AcDbLine
 10
295.9520323671931
 20
97.2725492785687
 30
0.0
 11
294.9520323671931
 21
98.2725492785687
 31
0.0
  0
LINE
  5
1E3
330
2
100
AcDbEntity
  8
0
 48
0.6
100
AcDbLine
 10
220.9520323671931
 20
71.77254927858871
 30
0.0
 11
220.9520323671931
 21
65.77254927854892
 31
0.0
  0
LINE
  5
1E4
330
2
100
AcDbEntity
  8
0
 48
0.6
100
AcDbLine
 10
227.9520323671931
 20
90.57254927856979
 30
0.0
 11
227.9520323671931
 21
98.2725492785687
 31
0.0
  0
LINE
  5
1E5
330
2
100
AcDbEntity
  8
0
 48
0.6
100
AcDbLine
 10
227.0520323671917
 20
90.57254927856979
 30
0.0
 11
227.9520323671931
 21
90.57254927856979
 31
0.0
  0
LINE
  5
1E6
330
2
100
AcDbEntity
  8
0
 48
0.6
100
AcDbLine
 10
227.0520323671917
 20
98.2725492785687
 30
0.0
 11
227.9520323671931
 21
98.2725492785687
 31
0.0
  0
LINE
  5
1E7
330
2
100
AcDbEntity
  8
0
 48
0.6
100
AcDbLine
 10
294.9520323671931
 20
98.2725492785687
 30
0.0
 11
288.9520323671931
 21
98.2725492785687
 31
0.0
  0
ARC
  5
1E8
330
2
100
AcDbEntity
  8
0
100
AcDbCircle
 10
181.4520323671931
 20
98.2725492785687
 30
0.0
 40
0.5
100
AcDbArc
 50
90.0
 51
180.0
  0
LINE
  5
1E9
330
2
100
AcDbEntity
  8
0
100
AcDbLine
 10
288.9520323671931
 20
98.77254927856871
 30
0.0
 11
181.4520323671931
 21
98.77254927856871
 31
0.0
  0
DIMENSION
  5
1EA
330
2
100
AcDbEntity
  8
DIM
100
AcDbDimension
  2
*D33
 10
180.9520323671931
 20
128.3230748024595
 30
0.0
 11
200.9520323671931
 21
128.3230748024595
 31
0.0
 70
   160
  1
L
  3
STANDARD
100
AcDbAlignedDimension
 13
220.9520323671931
 23
98.77254927856871
 33
0.0
 14
180.9520323671931
 24
98.2725492785687
 34
0.0
 50
180.0
100
AcDbRotatedDimension
  0
DIMENSION
  5
1F7
330
2
100
AcDbEntity
  8
0
 48
0.6
100
AcDbDimension
  2
*D44
 10
295.9520323671931
 20
128.2725492785687
 30
0.0
 11
258.4520323671931
 21
128.2725492785687
 31
0.0
 70
   160
  3
STANDARD
100
AcDbAlignedDimension
 13
220.9520323671931
 23
128.2725492785687
 33
0.0
 14
295.9520323671931
 24
95.7725492785687
 34
0.0
100
AcDbRotatedDimension
  0
DIMENSION
  5
204
102
{ACAD_XDICTIONARY
360
205
102
}
102
{ACAD_REACTORS
330
206
102
}
330
2
100
AcDbEntity
  8
0
100
AcDbDimension
  2
*D43
 10
227.9520323671931
 20
114.3478120405127
 30
0.0
 11
224.4520323671931
 21
114.3478120405127
 31
0.0
 70
   160
  3
STANDARD
100
AcDbAlignedDimension
 13
220.9520323671931
 23
98.77254927856871
 33
0.0
 14
227.9520323671931
 24
98.2725492785687
 34
0.0
100
AcDbRotatedDimension
  0
LINE
  5
213
330
2
100
AcDbEntity
  8
1
  6
BYBLOCK
 62
     0
100
AcDbLine
 10
191.3590178802333
 20
175.6975932660786
 30
0.0
 11
191.3590178802333
 21
148.1575932660787
 31
0.0
  0
DIMENSION
  5
214
102
{ACAD_XDICTIONARY
360
215
102
}
102
{ACAD_REACTORS
330
216
102
}
330
2
100
AcDbEntity
  8
0
100
AcDbDimension
  2
*D32
 10
187.3130438915141
 20
194.2024246181827
 30
0.0
 11
207.3130438915141
 21
196.7024246181827
 31
0.0
 70
    32
  1
L
  3
STANDARD
100
AcDbAlignedDimension
 13
227.3130438915141
 23
207.4984389998089
 33
0.0
 14
187.3130438915141
 24
207.4984389998089
 34
0.0
 50
180.0
100
AcDbRotatedDimension
  0
LINE
  5
223
330
2
100
AcDbEntity
  8
0
100
AcDbLine
 10
226.313043891514
 20
206.9984389998089
 30
0.0
 11
187.8130438915141
 21
206.9984389998089
 31
0.0
  0
LINE
  5
224
330
2
100
AcDbEntity
  8
0
100
AcDbLine
 10
226.313043891514
 20
207.4984389998089
 30
0.0
 11
226.313043891514
 21
206.9984389998089
 31
0.0
  0
LINE
  5
225
330
2
100
AcDbEntity
  8
0
100
AcDbLine
 10
227.3130438915141
 20
207.4984389998089
 30
0.0
 11
226.313043891514
 21
207.4984389998089
 31
0.0
  0
ARC
  5
226
330
2
100
AcDbEntity
  8
0
100
AcDbCircle
 10
187.8130438915141
 20
207.4984389998089
 30
0.0
 40
0.5
100
AcDbArc
 50
180.0
 51
270.0
  0
DIMENSION
  5
227
330
2
100
AcDbEntity
  8
0
100
AcDbDimension
  2
*D55
 10
125.0023211536426
 20
234.9984389998089
 30
0.0
 11
122.5023211536426
 21
246.9984389998089
 31
0.0
 70
    32
  1
%%c<>
  3
STANDARD
100
AcDbAlignedDimension
 13
184.813043891514
 23
258.9984389998087
 33
0.0
 14
184.813043891514
 24
234.9984389998089
 34
0.0
 50
90.0
100
AcDbRotatedDimension
  0
LINE
  5
234
102
{ACAD_REACTORS
330
280
102
}
330
2
100
AcDbEntity
  8
CEN
 48
0.6
100
AcDbLine
 10
143.7053707574159
 20
236.9984389998089
 30
0.0
 11
240.4725132311323
 21
236.9984389998089
 31
0.0
  0
LINE
  5
235
102
{ACAD_REACTORS
330
280
102
}
330
2
100
AcDbEntity
  8
CEN
 48
0.6
100
AcDbLine
 10
195.1715015948648
 20
246.9984389998087
 30
0.0
 11
151.4149050902851
 21
246.9984389998087
 31
0.0
  0
LINE
  5
236
102
{ACAD_REACTORS
330
292
102
}
330
2
100
AcDbEntity
  8
0
100
AcDbLine
 10
184.3130438915141
 20
242.9984389998087
 30
0.0
 11
155.3130438915141
 21
242.9984389998087
 31
0.0
  0
LINE
  5
237
102
{ACAD_REACTORS
330
292
102
}
330
2
100
AcDbEntity
  8
0
100
AcDbLine
 10
184.3130438915141
 20
250.9984389998087
 30
0.0
 11
167.3130438915141
 21
250.9984389998087
 31
0.0
  0
LINE
  5
238
330
2
100
AcDbEntity
  8
0
100
AcDbLine
 10
166.4358363060819
 20
301.0586427711557
 30
0.0
 11
192.4358363060819
 21
301.0586427711557
 31
0.0
  0
LINE
  5
239
102
{ACAD_REACTORS
330
23C
102
}
330
2
100
AcDbEntity
  8
0
100
AcDbLine
 10
166.4358363060819
 20
361.0586427711557
 30
0.0
 11
192.4358363060819
 21
361.0586427711557
 31
0.0
  0
DIMENSION
  5
23A
102
{ACAD_XDICTIONARY
360
23B
102
}
102
{ACAD_REACTORS
330
23C
102
}
330
2
100
AcDbEntity
  8
DIM
100
AcDbDimension
  2
*D54
 10
192.4358363060819
 20
380.9398193743068
 30
0.0
 11
178.4901221077416
 21
380.9398193743068
 31
0.0
 70
   160
  3
STANDARD
100
AcDbAlignedDimension
 13
166.4358363060819
 23
361.0586427711557
 33
0.0
 14
192.4358363060819
 24
361.0586427711557
 34
0.0
100
AcDbRotatedDimension
  0
LINE
  5
249
330
2
100
AcDbEntity
  8
CEN
 48
0.6
100
AcDbLine
 10
196.0117109569037
 20
331.0586427711557
 30
0.0
 11
145.9714286881317
 21
331.0586427711557
 31
0.0
  0
DIMENSION
  5
24A
102
{ACAD_XDICTIONARY
360
24B
102
}
102
{ACAD_REACTORS
330
24C
102
}
330
2
100
AcDbEntity
  8
0
100
AcDbDimension
  2
*D53
 10
167.3130438915141
 20
264.0262759268698
 30
0.0
 11
161.3130438915141
 21
266.5262759268698
 31
0.0
 70
    32
  3
STANDARD
100
AcDbAlignedDimension
 13
155.3130438915141
 23
249.9984389998087
 33
0.0
 14
167.3130438915141
 24
250.9984389998087
 34
0.0
 50
180.0
100
AcDbRotatedDimension
  0
LINE
  5
259
102
{ACAD_REACTORS
330
24C
102
}
330
2
100
AcDbEntity
  8
0
100
AcDbLine
 10
167.3130438915141
 20
249.9984389998087
 30
0.0
 11
155.3130438915141
 21
249.9984389998087
 31
0.0
  0
LINE
  5
25A
330
2
100
AcDbEntity
  8
CEN
 48
0.6
100
AcDbLine
 10
25.15171729950088
 20
236.9984389998108
 30
0.0
 11
95.27124414472565
 21
236.9984389998108
 31
0.0
  0
CIRCLE
  5
25B
330
2
100
AcDbEntity
  8
0
 48
0.6
100
AcDbCircle
 10
35.46274338058356
 20
261.7471763413368
 30
0.0
 40
2.25
  0
CIRCLE
  5
25C
330
2
100
AcDbEntity
  8
0
 48
0.6
100
AcDbCircle
 10
84.96021806364296
 20
261.7471763413368
 30
0.0
 40
2.25
  0
CIRCLE
  5
25D
330
2
100
AcDbEntity
  8
0
100
AcDbCircle
 10
60.21148072211508
 20
246.9984389998087
 30
0.0
 40
4.5
  0
CIRCLE
  5
25E
330
2
100
AcDbEntity
  8
0
100
AcDbCircle
 10
40.29289643507218
 20
248.4984389998087
 30
0.0
 40
1.75
  0
CIRCLE
  5
25F
330
2
100
AcDbEntity
  8
0
 48
0.6
100
AcDbCircle
 10
80.13006500916526
 20
248.4984389998087
 30
0.0
 40
1.75
  0
LINE
  5
260
330
2
100
AcDbEntity
  8
0
100
AcDbLine
 10
35.21148072211508
 20
266.9984389998087
 30
0.0
 11
85.21148072211508
 21
266.9984389998087
 31
0.0
  0
ARC
  5
261
330
2
100
AcDbEntity
  8
0
 48
0.6
100
AcDbCircle
 10
35.21148072211508
 20
261.9984389998087
 30
0.0
 40
5.0
100
AcDbArc
 50
90.0
 51
180.0
  0
ARC
  5
262
330
2
100
AcDbEntity
  8
0
 48
0.6
100
AcDbCircle
 10
85.21148072211508
 20
261.9984389998087
 30
0.0
 40
5.0
100
AcDbArc
 50
0.0
 51
90.0
  0
LINE
  5
263
330
2
100
AcDbEntity
  8
0
  6
CENTER
 62
     1
 48
0.4
100
AcDbLine
 10
37.00921677906444
 20
250.3942723331417
 30
0.0
 11
43.57657609109082
 21
246.6026056664748
 31
0.0
  0
LINE
  5
264
330
2
100
AcDbEntity
  8
0
  6
CENTER
 62
     1
 48
0.6
100
AcDbLine
 10
73.02062567978282
 20
246.9984389998087
 30
0.0
 11
46.9773731202622
 21
246.9984389998087
 31
0.0
  0
LINE
  5
265
330
2
100
AcDbEntity
  8
0
  6
CENTER
 62
     1
 48
0.6
100
AcDbLine
 10
83.41374466517299
 20
250.3942723331417
 30
0.0
 11
76.84638535313206
 21
246.6026056664748
 31
0.0
  0
LINE
  5
266
330
2
100
AcDbEntity
  8
CEN
 48
0.6
100
AcDbLine
 10
82.66212102478311
 20
259.4490793024806
 30
0.0
 11
87.25831510250282
 21
264.0452733801937
 31
0.0
  0
LINE
  5
267
330
2
100
AcDbEntity
  8
CEN
 48
0.6
100
AcDbLine
 10
37.76084041943977
 20
259.4490793024806
 30
0.0
 11
33.16464634173462
 21
264.0452733801948
 31
0.0
  0
LINE
  5
268
330
2
100
AcDbEntity
  8
CEN
 48
0.6
100
AcDbLine
 10
37.76084041943977
 20
264.0452733801937
 30
0.0
 11
33.16464634173462
 21
259.4490793024806
 31
0.0
  0
CIRCLE
  5
269
330
2
100
AcDbEntity
  8
0
100
AcDbCircle
 10
40.29289643507218
 20
248.4984389998087
 30
0.0
 40
3.0
  0
CIRCLE
  5
26A
330
2
100
AcDbEntity
  8
0
 48
0.6
100
AcDbCircle
 10
80.13006500916526
 20
248.4984389998087
 30
0.0
 40
3.0
  0
ARC
  5
26B
330
2
100
AcDbEntity
  8
CEN
 48
0.6
100
AcDbCircle
 10
60.21148072210053
 20
236.9984389998089
 30
0.0
 40
35.00000000000606
100
AcDbArc
 50
25.70831822988844
 51
51.96162615014948
  0
LINE
  5
26C
330
2
100
AcDbEntity
  8
0
100
AcDbLine
 10
56.85737875586347
 20
249.9984389998087
 30
0.0
 11
63.56558268836306
 21
249.9984389998087
 31
0.0
  0
DIMENSION
  5
26D
102
{ACAD_XDICTIONARY
360
26E
102
}
102
{ACAD_REACTORS
330
26F
102
}
330
2
100
AcDbEntity
  8
0
100
AcDbDimension
  2
*D52
 10
142.4402413819407
 20
242.9984389998087
 30
0.0
 11
142.4402413819407
 21
262.9984389998078
 31
0.0
 70
   160
  3
STANDARD
100
AcDbAlignedDimension
 13
155.3130438915141
 23
249.9984389998087
 33
0.0
 14
155.3130438915141
 24
242.9984389998087
 34
0.0
 50
90.0
100
AcDbRotatedDimension
  0
DIMENSION
  5
27E
102
{ACAD_XDICTIONARY
360
27F
102
}
102
{ACAD_REACTORS
330
280
102
}
330
2
100
AcDbEntity
  8
0
100
AcDbDimension
  2
*D51
 10
133.0505991911522
 20
236.9984389998089
 30
0.0
 11
130.5505991911522
 21
241.9984389998088
 31
0.0
 70
    32
  3
STANDARD
100
AcDbAlignedDimension
 13
151.4149050902851
 23
246.9984389998087
 33
0.0
 14
143.7053707574159
 24
236.9984389998089
 34
0.0
 50
90.0
100
AcDbRotatedDimension
  0
LINE
  5
28D
102
{ACAD_REACTORS
330
216
330
26F
330
B6
102
}
330
2
100
AcDbEntity
  8
0
100
AcDbLine
 10
155.3130438915141
 20
249.9984389998087
 30
0.0
 11
155.3130438915141
 21
242.9984389998087
 31
0.0
  0
LINE
  5
28E
102
{ACAD_REACTORS
330
216
330
24C
102
}
330
2
100
AcDbEntity
  8
0
100
AcDbLine
 10
167.3130438915141
 20
250.9984389998087
 30
0.0
 11
167.3130438915141
 21
249.9984389998087
 31
0.0
  0
CIRCLE
  5
28F
330
2
100
AcDbEntity
  8
0
100
AcDbCircle
 10
60.21148072211508
 20
246.9984389998087
 30
0.0
 40
12.0
  0
DIMENSION
  5
290
102
{ACAD_XDICTIONARY
360
291
102
}
102
{ACAD_REACTORS
330
292
102
}
330
2
100
AcDbEntity
  8
0
100
AcDbDimension
  2
*D50
 10
174.8067692315817
 20
250.9984389998087
 30
0.0
 11
174.8067692315817
 21
279.6957279375499
 31
0.0
 70
   160
  1
\A1;{\f??|b0|i0|c0|p49;%%C8\H0.7x;\S+0^ -0.015;\H1.429x;(h7)}
  3
STANDARD
100
AcDbAlignedDimension
 13
169.8130438915141
 23
242.9984389998087
 33
0.0
 14
167.3130438915141
 24
250.9984389998087
 34
0.0
 50
90.0
100
AcDbRotatedDimension
  0
CIRCLE
  5
2A1
330
2
100
AcDbEntity
  8
0
100
AcDbCircle
 10
80.93981324255219
 20
331.0586427711557
 30
0.0
 40
27.00000000000005
  0
DIMENSION
  5
2A2
102
{ACAD_XDICTIONARY
360
2A3
102
}
102
{ACAD_REACTORS
330
2A4
102
}
330
2
100
AcDbEntity
  8
0
100
AcDbDimension
  2
*D49
 10
50.58469993048042
 20
313.6354657987613
 30
0.0
 11
126.224686367302
 21
357.0511782136498
 31
0.0
 70
   163
  1
<>%%p0.5
  3
STANDARD
100
AcDbDiametricDimension
 15
111.2949265546228
 25
348.4818197435496
 35
0.0
 40
0.0
  0
LINE
  5
2B0
330
2
100
AcDbEntity
  8
0
100
AcDbLine
 10
50.93981324256311
 20
356.0586427711557
 30
0.0
 11
50.93981324256311
 21
306.0586427711557
 31
0.0
  0
LINE
  5
2B1
330
2
100
AcDbEntity
  8
CEN
 48
0.6
100
AcDbLine
 10
80.93981324255219
 20
296.0586427711557
 30
0.0
 11
80.93981324255219
 21
366.0586427711557
 31
0.0
  0
LINE
  5
2B2
102
{ACAD_REACTORS
330
2D8
102
}
330
2
100
AcDbEntity
  8
0
100
AcDbLine
 10
110.9398132425631
 20
356.0586427711557
 30
0.0
 11
110.9398132425631
 21
306.0586427711557
 31
0.0
  0
ARC
  5
2B3
102
{ACAD_REACTORS
330
2A4
102
}
330
2
100
AcDbEntity
  8
CEN
 48
0.6
100
AcDbCircle
 10
80.93981324255219
 20
331.0586427711557
 30
0.0
 40
35.0
100
AcDbArc
 50
21.71935007261406
 51
51.18655059757116
  0
LINE
  5
2B4
102
{ACAD_REACTORS
330
2F0
330
30C
102
}
330
2
100
AcDbEntity
  8
0
100
AcDbLine
 10
164.4358363060819
 20
358.0586427711557
 30
0.0
 11
164.4358363060819
 21
304.0586427711557
 31
0.0
  0
LINE
  5
2B5
102
{ACAD_REACTORS
330
30C
102
}
330
2
100
AcDbEntity
  8
0
100
AcDbLine
 10
166.4358363060819
 20
361.0586427711557
 30
0.0
 11
166.4358363060819
 21
301.0586427711557
 31
0.0
  0
LINE
  5
2B6
330
2
100
AcDbEntity
  8
CEN
 48
0.6
100
AcDbLine
 10
45.93981324256311
 20
331.0586427711557
 30
0.0
 11
115.9398132425631
 21
331.0586427711557
 31
0.0
  0
LINE
  5
2B7
330
2
100
AcDbEntity
  8
0
100
AcDbLine
 10
55.93981324256311
 20
301.0586427711557
 30
0.0
 11
105.939813242563
 21
301.0586427711557
 31
0.0
  0
ARC
  5
2B8
330
2
100
AcDbEntity
  8
0
100
AcDbCircle
 10
55.93981324256311
 20
306.0586427711557
 30
0.0
 40
5.0
100
AcDbArc
 50
180.0
 51
270.0
  0
ARC
  5
2B9
330
2
100
AcDbEntity
  8
CEN
 48
0.6
100
AcDbCircle
 10
80.93981324255219
 20
331.0586427711557
 30
0.0
 40
35.0
100
AcDbArc
 50
199.5241366191914
 51
231.1865505975711
  0
CIRCLE
  5
2BA
330
2
100
AcDbEntity
  8
0
100
AcDbCircle
 10
56.19107590103158
 20
306.3099054296258
 30
0.0
 40
2.25
  0
LINE
  5
2BB
330
2
100
AcDbEntity
  8
CEN
 48
0.6
100
AcDbLine
 10
59.19627972106536
 20
309.3151092496698
 30
0.0
 11
53.18587208098325
 21
303.3047016095838
 31
0.0
  0
CIRCLE
  5
2BC
330
2
100
AcDbEntity
  8
0
100
AcDbCircle
 10
80.93981324255219
 20
331.0586427711557
 30
0.0
 40
2.000000000000055
  0
CIRCLE
  5
2BD
330
2
100
AcDbEntity
  8
0
100
AcDbCircle
 10
80.93981324255219
 20
331.0586427711557
 30
0.0
 40
3.000000000000055
  0
ARC
  5
2BE
330
2
100
AcDbEntity
  8
0
100
AcDbCircle
 10
105.939813242563
 20
306.0586427711557
 30
0.0
 40
5.0
100
AcDbArc
 50
270.0
 51
0.0
  0
CIRCLE
  5
2BF
330
2
100
AcDbEntity
  8
0
100
AcDbCircle
 10
105.6885505840837
 20
306.3099054296258
 30
0.0
 40
2.25
  0
LINE
  5
2C0
330
2
100
AcDbEntity
  8
CEN
 48
0.6
100
AcDbLine
 10
102.6833467640426
 20
309.3151092496698
 30
0.0
 11
108.693754404132
 21
303.3047016095838
 31
0.0
  0
ARC
  5
2C1
330
2
100
AcDbEntity
  8
CEN
 48
0.6
100
AcDbCircle
 10
80.93981324255219
 20
331.0586427711557
 30
0.0
 40
35.0
100
AcDbArc
 50
304.6885525890122
 51
322.9113558998459
  0
ARC
  5
2C2
330
2
100
AcDbEntity
  8
0
100
AcDbCircle
 10
158.9759640406336
 20
363.1611245408496
 30
0.0
 40
30.21776684021192
100
AcDbArc
 50
272.7691355265055
 51
280.40961357857
  0
ARC
  5
2C3
330
2
100
AcDbEntity
  8
0
100
AcDbCircle
 10
158.9759640406336
 20
298.9561610014577
 30
0.0
 40
30.21776684021463
100
AcDbArc
 50
79.59038642143004
 51
87.23086447349437
  0
LINE
  5
2C4
330
2
100
AcDbEntity
  8
0
100
AcDbLine
 10
154.4351268689933
 20
333.8786427711547
 30
0.0
 11
164.4358363060819
 21
333.8786427711547
 31
0.0
  0
LINE
  5
2C5
330
2
100
AcDbEntity
  8
CEN
 48
0.6
100
AcDbLine
 10
151.9358363060819
 20
333.3681427711546
 30
0.0
 11
167.4358363060819
 21
333.3681427711546
 31
0.0
  0
LINE
  5
2C6
330
2
100
AcDbEntity
  8
0
100
AcDbLine
 10
154.4351268689933
 20
328.2386427711557
 30
0.0
 11
164.4358363060819
 21
328.2386427711557
 31
0.0
  0
LINE
  5
2C7
330
2
100
AcDbEntity
  8
CEN
 48
0.6
100
AcDbLine
 10
151.9358363060819
 20
328.7491427711559
 30
0.0
 11
167.4358363060819
 21
328.7491427711559
 31
0.0
  0
LINE
  5
2C8
330
2
100
AcDbEntity
  8
2
100
AcDbLine
 10
160.4358363060819
 20
332.9786427711558
 30
0.0
 11
160.4358363060819
 21
329.1386427711559
 31
0.0
  0
LINE
  5
2C9
330
2
100
AcDbEntity
  8
0
100
AcDbLine
 10
154.4351268689933
 20
333.8786427711547
 30
0.0
 11
153.9351268689934
 21
333.3786427711547
 31
0.0
  0
LINE
  5
2CA
330
2
100
AcDbEntity
  8
0
100
AcDbLine
 10
153.9351268689934
 20
328.7386427711558
 30
0.0
 11
154.4351268689933
 21
328.2386427711557
 31
0.0
  0
LINE
  5
2CB
330
2
100
AcDbEntity
  8
0
100
AcDbLine
 10
153.9351268689934
 20
333.3786427711547
 30
0.0
 11
153.9351268689934
 21
328.7386427711558
 31
0.0
  0
LINE
  5
2CC
330
2
100
AcDbEntity
  8
2
100
AcDbLine
 10
154.4351268689933
 20
333.8786427711547
 30
0.0
 11
154.4351268689933
 21
328.2386427711557
 31
0.0
  0
LINE
  5
2CD
330
2
100
AcDbEntity
  8
0
100
AcDbLine
 10
153.9351268689934
 20
332.9786427711558
 30
0.0
 11
160.4358363060819
 21
332.9786427711558
 31
0.0
  0
LINE
  5
2CE
330
2
100
AcDbEntity
  8
0
100
AcDbLine
 10
153.9351268689934
 20
329.1386427711559
 30
0.0
 11
160.4358363060819
 21
329.1386427711559
 31
0.0
  0
LINE
  5
2CF
330
2
100
AcDbEntity
  8
2
100
AcDbLine
 10
158.4358363060819
 20
332.9786427711558
 30
0.0
 11
153.9358363060819
 21
330.7053260862216
 31
0.0
  0
LINE
  5
2D0
330
2
100
AcDbEntity
  8
2
100
AcDbLine
 10
160.4358363060819
 20
332.9786427711558
 30
0.0
 11
153.9358363060819
 21
329.5385974172338
 31
0.0
  0
LINE
  5
2D1
330
2
100
AcDbEntity
  8
2
100
AcDbLine
 10
160.4358363060819
 20
331.8239422327758
 30
0.0
 11
155.2847612050245
 21
329.1386427711559
 31
0.0
  0
LINE
  5
2D2
330
2
100
AcDbEntity
  8
0
100
AcDbLine
 10
166.4358363060819
 20
333.8786427711547
 30
0.0
 11
166.4358363060819
 21
328.2386427711557
 31
0.0
  0
LINE
  5
2D3
330
2
100
AcDbEntity
  8
0
100
AcDbLine
 10
166.4358363060819
 20
333.8786427711547
 30
0.0
 11
166.4358363060819
 21
328.2386427711557
 31
0.0
  0
LINE
  5
2D4
330
2
100
AcDbEntity
  8
0
100
AcDbLine
 10
166.4358363060819
 20
304.0586427711557
 30
0.0
 11
164.4358363060819
 21
304.0586427711557
 31
0.0
  0
LINE
  5
2D5
330
2
100
AcDbEntity
  8
0
100
AcDbLine
 10
55.93981324256311
 20
361.0586427711557
 30
0.0
 11
105.939813242563
 21
361.0586427711557
 31
0.0
  0
DIMENSION
  5
2D6
102
{ACAD_XDICTIONARY
360
2D7
102
}
102
{ACAD_REACTORS
330
2D8
102
}
330
2
100
AcDbEntity
  8
DIM
100
AcDbDimension
  2
*D48
 10
110.9398132425631
 20
374.7097405654608
 30
0.0
 11
80.60907448289436
 21
374.7097405654608
 31
0.0
 70
   160
  1
60
  3
STANDARD
100
AcDbAlignedDimension
 13
50.93981324256311
 23
357.0586427711557
 33
0.0
 14
110.9398132425631
 24
356.0586427711557
 34
0.0
100
AcDbRotatedDimension
  0
ARC
  5
2E5
330
2
100
AcDbEntity
  8
0
100
AcDbCircle
 10
55.93981324256311
 20
356.0586427711557
 30
0.0
 40
5.0
100
AcDbArc
 50
90.0
 51
180.0
  0
ARC
  5
2E6
330
2
100
AcDbEntity
  8
CEN
 48
0.6
100
AcDbCircle
 10
80.93981324255219
 20
331.0586427711557
 30
0.0
 40
35.0
100
AcDbArc
 50
124.6885525890122
 51
145.106569353258
  0
LINE
  5
2E7
330
2
100
AcDbEntity
  8
CEN
 48
0.6
100
AcDbLine
 10
59.19627972106536
 20
352.8021762926416
 30
0.0
 11
53.18587208098325
 21
358.8125839327279
 31
0.0
  0
CIRCLE
  5
2E8
330
2
100
AcDbEntity
  8
0
100
AcDbCircle
 10
56.19107590103158
 20
355.8073801126847
 30
0.0
 40
2.25
  0
POLYLINE
  5
2E9
330
2
100
AcDbEntity
  8
3
100
AcDb2dPolyline
 66
     1
 10
0.0
 20
0.0
 30
0.0
 70
     1
  0
VERTEX
  5
49C
330
2E9
100
AcDbEntity
  8
3
100
AcDbVertex
100
AcDb2dVertex
 10
73.99154982963228
 20
375.4498269307846
 30
0.0
  0
VERTEX
  5
49D
330
2E9
100
AcDbEntity
  8
3
100
AcDbVertex
100
AcDb2dVertex
 10
77.29154982963518
 20
375.4498269307846
 30
0.0
  0
VERTEX
  5
49E
330
2E9
100
AcDbEntity
  8
3
100
AcDbVertex
100
AcDb2dVertex
 10
77.29154982963518
 20
378.9498269307846
 30
0.0
  0
VERTEX
  5
49F
330
2E9
100
AcDbEntity
  8
3
100
AcDbVertex
100
AcDb2dVertex
 10
73.99154982963228
 20
378.9498269307846
 30
0.0
  0
SEQEND
  5
4A0
330
2E9
100
AcDbEntity
  8
3
  0
ARC
  5
2EA
330
2
100
AcDbEntity
  8
0
100
AcDbCircle
 10
105.939813242563
 20
356.0586427711557
 30
0.0
 40
5.0
100
AcDbArc
 50
0.0
 51
90.0
  0
LINE
  5
2EB
330
2
100
AcDbEntity
  8
CEN
 48
0.6
100
AcDbLine
 10
102.6833467640426
 20
352.8021762926416
 30
0.0
 11
108.693754404132
 21
358.8125839327279
 31
0.0
  0
CIRCLE
  5
2EC
330
2
100
AcDbEntity
  8
0
100
AcDbCircle
 10
105.6885505840837
 20
355.8073801126847
 30
0.0
 40
2.25
  0
LINE
  5
2ED
330
2
100
AcDbEntity
  8
0
100
AcDbLine
 10
166.4358363060819
 20
358.0586427711557
 30
0.0
 11
164.4358363060819
 21
358.0586427711557
 31
0.0
  0
DIMENSION
  5
2EE
102
{ACAD_XDICTIONARY
360
2EF
102
}
102
{ACAD_REACTORS
330
2F0
102
}
330
2
100
AcDbEntity
  8
DIM
100
AcDbDimension
  2
*D47
 10
144.8685043318437
 20
304.0586427711557
 30
0.0
 11
144.8685043318437
 21
331.0586427711557
 31
0.0
 70
   160
  1
\A1;%%C<>{\f??|b0|i0|c0|p49;\H0.7x;\S+0^ -0.03;\H1.429x;(h7)} 
  3
STANDARD
100
AcDbAlignedDimension
 13
164.4358363060819
 23
358.0586427711557
 33
0.0
 14
164.4358363060819
 24
304.0586427711557
 34
0.0
 50
90.0
100
AcDbRotatedDimension
  0
DIMENSION
  5
2FD
330
2
100
AcDbEntity
  8
DIM
100
AcDbDimension
  2
*D46
 10
166.4358363060819
 20
380.9398193743068
 30
0.0
 11
159.2401221077416
 21
380.9398193743068
 31
0.0
 70
   160
  3
STANDARD
100
AcDbAlignedDimension
 13
153.9351268689934
 23
333.3786427711558
 33
0.0
 14
166.4358363060819
 24
361.0586427711557
 34
0.0
100
AcDbRotatedDimension
  0
DIMENSION
  5
30A
102
{ACAD_XDICTIONARY
360
30B
102
}
102
{ACAD_REACTORS
330
30C
102
}
330
2
100
AcDbEntity
  8
DIM
100
AcDbDimension
  2
*D45
 10
166.4358363060819
 20
370.2669761044887
 30
0.0
 11
157.4358363060819
 21
370.2669761044887
 31
0.0
 70
   160
  3
STANDARD
100
AcDbAlignedDimension
 13
164.4358363060819
 23
358.0586427711557
 33
0.0
 14
166.4358363060819
 24
361.0586427711557
 34
0.0
100
AcDbRotatedDimension
  0
LINE
  5
31B
330
2
100
AcDbEntity
  8
0
100
AcDbLine
 10
184.3130438915141
 20
258.4984389998087
 30
0.0
 11
184.3130438915141
 21
235.4984389998089
 31
0.0
  0
ARC
  5
31C
330
2
100
AcDbEntity
  8
0
100
AcDbCircle
 10
184.813043891514
 20
235.4984389998089
 30
0.0
 40
0.5
100
AcDbArc
 50
180.0
 51
270.0
  0
LINE
  5
31D
330
2
100
AcDbEntity
  8
0
100
AcDbLine
 10
184.813043891514
 20
234.9984389998089
 30
0.0
 11
187.3130438915141
 21
234.9984389998089
 31
0.0
  0
LINE
  5
31E
330
2
100
AcDbEntity
  8
0
100
AcDbLine
 10
226.313043891514
 20
266.9984389998087
 30
0.0
 11
187.8130438915141
 21
266.9984389998087
 31
0.0
  0
LINE
  5
31F
330
2
100
AcDbEntity
  8
0
100
AcDbLine
 10
226.313043891514
 20
266.9984389998087
 30
0.0
 11
226.313043891514
 21
266.4984389998087
 31
0.0
  0
LINE
  5
320
330
2
100
AcDbEntity
  8
0
100
AcDbLine
 10
227.3130438915141
 20
266.4984389998087
 30
0.0
 11
226.313043891514
 21
266.4984389998087
 31
0.0
  0
ARC
  5
321
330
2
100
AcDbEntity
  8
0
100
AcDbCircle
 10
184.813043891514
 20
258.4984389998087
 30
0.0
 40
0.5
100
AcDbArc
 50
90.0
 51
180.0
  0
ARC
  5
322
330
2
100
AcDbEntity
  8
0
100
AcDbCircle
 10
187.8130438915141
 20
266.4984389998087
 30
0.0
 40
0.5
100
AcDbArc
 50
90.0
 51
180.0
  0
LINE
  5
323
330
2
100
AcDbEntity
  8
0
100
AcDbLine
 10
184.813043891514
 20
258.9984389998087
 30
0.0
 11
187.3130438915141
 21
258.9984389998087
 31
0.0
  0
LINE
  5
324
102
{ACAD_REACTORS
330
30C
102
}
330
2
100
AcDbEntity
  8
0
100
AcDbLine
 10
192.4358363060819
 20
361.0586427711557
 30
0.0
 11
192.4358363060819
 21
301.0586427711557
 31
0.0
  0
ENDSEC
  0
SECTION
  2
OBJECTS
  0
DICTIONARY
  5
8
330
0
100
AcDbDictionary
  3
ACAD_GROUP
350
97
  3
ACAD_LAYOUT
350
C
  3
ACAD_MLINESTYLE
350
98
  3
ACAD_PLOTSETTINGS
350
99
1001
ACAD
1000
TREAT_AS_HARD
1070
     0
  0
DICTIONARY
  5
13
330
12
100
AcDbDictionary
  3
ACAD_LAYERFILTERS
350
14
  3
ACAD_LAYERSTATES
350
87
1001
ACAD
1000
TREAT_AS_HARD
1070
     1
  0
DICTIONARY
  5
3
330
2
100
AcDbDictionary
  3
ACAD_LAYOUTSELFREF
350
490
1001
ACAD
1000
TREAT_AS_HARD
1070
     1
  0
DICTIONARY
  5
E
330
D
100
AcDbDictionary
  3
ACAD_LAYOUTSELFREF
350
491
1001
ACAD
1000
TREAT_AS_HARD
1070
     1
  0
DICTIONARY
  5
B5
330
B4
100
AcDbDictionary
  3
ACAD_DIMASSOC
350
B6
1001
ACAD
1000
TREAT_AS_HARD
1070
     1
  0
DICTIONARY
  5
122
330
121
100
AcDbDictionary
  3
ACAD_DIMASSOC
350
123
1001
ACAD
1000
TREAT_AS_HARD
1070
     1
  0
DICTIONARY
  5
131
330
130
100
AcDbDictionary
  3
ACAD_DIMASSOC
350
132
1001
ACAD
1000
TREAT_AS_HARD
1070
     1
  0
DICTIONARY
  5
156
330
155
100
AcDbDictionary
  3
ACAD_DIMASSOC
350
157
1001
ACAD
1000
TREAT_AS_HARD
1070
     1
  0
DICTIONARY
  5
185
330
184
100
AcDbDictionary
  3
ACAD_DIMASSOC
350
186
1001
ACAD
1000
TREAT_AS_HARD
1070
     1
  0
DICTIONARY
  5
196
330
195
100
AcDbDictionary
  3
ACAD_DIMASSOC
350
197
1001
ACAD
1000
TREAT_AS_HARD
1070
     1
  0
DICTIONARY
  5
1A8
330
1A7
100
AcDbDictionary
  3
ACAD_DIMASSOC
350
1A9
1001
ACAD
1000
TREAT_AS_HARD
1070
     1
  0
DICTIONARY
  5
1D2
330
1D1
100
AcDbDictionary
  3
ACAD_DIMASSOC
350
1D3
1001
ACAD
1000
TREAT_AS_HARD
1070
     1
  0
DICTIONARY
  5
205
330
204
100
AcDbDictionary
  3
ACAD_DIMASSOC
350
206
1001
ACAD
1000
TREAT_AS_HARD
1070
     1
  0
DICTIONARY
  5
215
330
214
100
AcDbDictionary
  3
ACAD_DIMASSOC
350
216
1001
ACAD
1000
TREAT_AS_HARD
1070
     1
  0
DICTIONARY
  5
23B
330
23A
100
AcDbDictionary
  3
ACAD_DIMASSOC
350
23C
1001
ACAD
1000
TREAT_AS_HARD
1070
     1
  0
DICTIONARY
  5
24B
330
24A
100
AcDbDictionary
  3
ACAD_DIMASSOC
350
24C
1001
ACAD
1000
TREAT_AS_HARD
1070
     1
  0
DICTIONARY
  5
26E
330
26D
100
AcDbDictionary
  3
ACAD_DIMASSOC
350
26F
1001
ACAD
1000
TREAT_AS_HARD
1070
     1
  0
DICTIONARY
  5
27F
330
27E
100
AcDbDictionary
  3
ACAD_DIMASSOC
350
280
1001
ACAD
1000
TREAT_AS_HARD
1070
     1
  0
DICTIONARY
  5
291
330
290
100
AcDbDictionary
  3
ACAD_DIMASSOC
350
292
1001
ACAD
1000
TREAT_AS_HARD
1070
     1
  0
DICTIONARY
  5
2A3
330
2A2
100
AcDbDictionary
  3
ACAD_DIMASSOC
350
2A4
1001
ACAD
1000
TREAT_AS_HARD
1070
     1
  0
DICTIONARY
  5
2D7
330
2D6
100
AcDbDictionary
  3
ACAD_DIMASSOC
350
2D8
1001
ACAD
1000
TREAT_AS_HARD
1070
     1
  0
DICTIONARY
  5
2EF
330
2EE
100
AcDbDictionary
  3
ACAD_DIMASSOC
350
2F0
1001
ACAD
1000
TREAT_AS_HARD
1070
     1
  0
DICTIONARY
  5
30B
330
30A
100
AcDbDictionary
  3
ACAD_DIMASSOC
350
30C
1001
ACAD
1000
TREAT_AS_HARD
1070
     1
  0
DICTIONARY
  5
97
102
{ACAD_REACTORS
330
8
102
}
330
8
100
AcDbDictionary
1001
ACAD
1000
TREAT_AS_HARD
1070
     0
  0
DICTIONARY
  5
C
102
{ACAD_REACTORS
330
8
102
}
330
8
100
AcDbDictionary
1001
ACAD
1000
TREAT_AS_HARD
1070
     0
  0
DICTIONARY
  5
98
102
{ACAD_REACTORS
330
8
102
}
330
8
100
AcDbDictionary
  3
STANDARD
350
9A
1001
ACAD
1000
TREAT_AS_HARD
1070
     0
  0
DICTIONARY
  5
99
102
{ACAD_REACTORS
330
8
102
}
330
8
100
AcDbDictionary
1001
ACAD
1000
TREAT_AS_HARD
1070
     0
  0
DICTIONARY
  5
14
102
{ACAD_REACTORS
330
13
102
}
330
13
100
AcDbDictionary
  3
$LAYERS
350
15
  3
-_UND_0
350
16
  3
-PEGC
350
17
  3
101
350
18
  3
102
350
19
  3
1DUC
350
1A
  3
1EQ
350
1B
  3
1TUB
350
1C
  3
2
350
1D
  3
2000
350
1E
  3
50
350
1F
  3
58J
350
20
  3
65
350
21
  3
AA
350
22
  3
ACABADOS
350
23
  3
AGUA_Y_DREN
350
24
  3
AIRE
350
25
  3
ALLE_AUS
350
26
  3
ALLES_MIT_S
350
27
  3
AMARILLO
350
28
  3
APAGADOS
350
29
  3
ARR
350
2A
  3
BA
350
2B
  3
BACKS
350
2C
  3
BASE
350
2D
  3
BLOQ_INUTIL
350
2E
  3
CADKON
350
2F
  3
CARPINTERIA
350
30
  3
CERRADOS
350
31
  3
COL
350
32
  3
COLOR
350
33
  3
COLOR_250
350
34
  3
COLORES
350
35
  3
CONGELADOS
350
36
  3
CONJUNTO
350
37
  3
D1
350
38
  3
DA_
350
39
  3
DET-
350
3A
  3
DOR-H
350
3B
  3
EJES
350
3C
  3
ELECTRICO
350
3D
  3
F1
350
3E
  3
FROZEN
350
3F
  3
GRID
350
40
  3
GRIDTXT
350
41
  3
HATCH
350
42
  3
HCAD
350
43
  3
INSTALACIONES
350
44
  3
JIZNI
350
45
  3
KCK
350
46
  3
KKK
350
47
  3
LAY
350
48
  3
LAYER-0
350
4C
  3
LAYER-1
350
4D
  3
LAYER_1_UND_0
350
49
  3
LAYER_2_UND_0
350
4A
  3
LAYER_9_UND_0_SCHRAFFUR
350
4B
  3
LOCK
350
4E
  3
LOCKED
350
4F
  3
LOTES
350
50
  3
LUNAR
350
51
  3
LUNAR2
350
52
  3
M
350
53
  3
MIS_LAYERS
350
54
  3
MRKCK
350
55
  3
NECADKON
350
56
  3
NI_LH
350
57
  3
NI_RH
350
58
  3
NUM
350
59
  3
OFF
350
5A
  3
ON
350
5B
  3
PBASE
350
5C
  3
PEGC
350
5D
  3
PEGCT
350
5E
  3
PFRAME
350
5F
  3
PGRID
350
60
  3
PGRIDT
350
61
  3
PLAFONES
350
62
  3
PLANTAS
350
63
  3
PLOT
350
64
  3
PRENDIDAS
350
65
  3
PRENDIDOS
350
66
  3
PRINT
350
67
  3
PT
350
68
  3
PTH
350
69
  3
PVGRID
350
6A
  3
RED_DE_AGUA_POTABLE
350
6B
  3
RED_DE_ENERGIA_ELECTRICA
350
6C
  3
SEVERNI
350
6D
  3
SHIN
350
6E
  3
SHOW_ALL_LAYER
350
6F
  3
SIN
350
70
  3
STORAGE-CART
350
71
  3
T
350
72
  3
TEXTOS
350
73
  3
TEXTURAS
350
74
  3
TUBERIAS
350
75
  3
UNFRZ
350
76
  3
V\U+0160ECHNY_NEPOU\U+017D\U+00CDVAN\U+00C9
350
77
  3
VA
350
78
  3
VENTILACI\U+00D3N
350
79
  3
VYHODNI
350
7A
  3
YO
350
7B
  3
ZAPADNI
350
7C
  3
사용
350
7D
  3
신규
350
7E
  3
실박스
350
7F
  3
우리토목
350
80
  3
주차
350
81
  3
지상정밀
350
82
  3
쩜선
350
83
  3
플로터_작업층
350
84
  3
현재_작업층
350
85
  3
현재_잠금
350
86
1001
ACAD
1000
TREAT_AS_HARD
1070
     1
  0
DICTIONARY
  5
87
102
{ACAD_REACTORS
330
13
102
}
330
13
100
AcDbDictionary
1001
ACAD
1000
TREAT_AS_HARD
1070
     0
  0
XRECORD
  5
490
102
{ACAD_REACTORS
330
3
102
}
330
3
100
AcDbXrecord
340
2
  0
XRECORD
  5
491
102
{ACAD_REACTORS
330
E
102
}
330
E
100
AcDbXrecord
340
D
  0
DIMASSOC
  5
B6
102
{ACAD_REACTORS
330
B5
102
}
330
B5
100
AcDbDimAssoc
330
B4
 90
        3
 70
     0
 71
     0
  1
AcDbOsnapPointRef
 72
     1
331
28D
 73
     2
 91
        0
 40
1.0
 10
155.3130438915141
 20
242.9984389998087
 30
0.0
 75
     0
  1
AcDbOsnapPointRef
 72
     1
331
B2
 73
     2
 91
        0
 40
1.0
 10
187.3130438915141
 20
207.4984389998089
 30
0.0
 75
     0
  0
DIMASSOC
  5
123
102
{ACAD_REACTORS
330
122
102
}
330
122
100
AcDbDimAssoc
330
121
 90
        3
 70
     0
 71
     0
  1
AcDbOsnapPointRef
 72
    13
331
1A6
 73
     2
 91
        0
 40
0.0
 10
148.9520323671931
 20
81.7725492785687
 30
0.0
 75
     0
  1
AcDbOsnapPointRef
 72
    13
331
E9
 73
     2
 91
        0
 40
0.0
 10
180.9520323671931
 20
98.2725492785687
 30
0.0
 75
     0
  0
DIMASSOC
  5
132
102
{ACAD_REACTORS
330
131
102
}
330
131
100
AcDbDimAssoc
330
130
 90
        3
 70
     0
 71
     0
  1
AcDbOsnapPointRef
 72
    13
331
181
 73
     2
 91
        0
 40
0.0
 10
177.9520323671931
 20
90.27254927856871
 30
0.0
 75
     0
  1
AcDbOsnapPointRef
 72
    13
331
E9
 73
     2
 91
        0
 40
0.0
 10
180.9520323671931
 20
98.2725492785687
 30
0.0
 75
     0
  0
DIMASSOC
  5
157
102
{ACAD_REACTORS
330
156
102
}
330
156
100
AcDbDimAssoc
330
155
 90
        3
 70
     0
 71
     0
  1
AcDbOsnapPointRef
 72
     1
331
11D
 73
     2
 91
        0
 40
1.0
 10
145.0538935659751
 20
78.77254927856871
 30
0.0
 75
     0
  1
AcDbOsnapPointRef
 72
    13
331
120
 73
     2
 91
        0
 40
0.0
 10
144.259458773693
 20
68.77254927856871
 30
0.0
 75
     0
  0
DIMASSOC
  5
186
102
{ACAD_REACTORS
330
185
102
}
330
185
100
AcDbDimAssoc
330
184
 90
        3
 70
     0
 71
     0
  1
AcDbOsnapPointRef
 72
    13
331
1A6
 73
     2
 91
        0
 40
0.0
 10
148.9520323671931
 20
81.7725492785687
 30
0.0
 75
     0
  1
AcDbOsnapPointRef
 72
     1
331
1A6
 73
     2
 91
        0
 40
1.0
 10
148.9520323671931
 20
74.7725492785687
 30
0.0
 75
     0
  0
DIMASSOC
  5
197
102
{ACAD_REACTORS
330
196
102
}
330
196
100
AcDbDimAssoc
330
195
 90
        3
 70
     0
 71
     0
  1
AcDbOsnapPointRef
 72
     1
331
1A5
 73
     2
 91
        0
 40
1.0
 10
148.9520323671931
 20
81.7725492785687
 30
0.0
 75
     0
  1
AcDbOsnapPointRef
 72
    13
331
1A4
 73
     2
 91
        0
 40
0.0
 10
160.9520323671931
 20
82.77254927856871
 30
0.0
 75
     0
  0
DIMASSOC
  5
1A9
102
{ACAD_REACTORS
330
1A8
102
}
330
1A8
100
AcDbDimAssoc
330
1A7
 90
        2
 70
     0
 71
     0
  1
AcDbOsnapPointRef
 72
     1
331
180
 73
     2
 91
        0
 40
1.0
 10
160.9520323671931
 20
82.77254927856871
 30
0.0
 75
     0
  0
DIMASSOC
  5
1D3
102
{ACAD_REACTORS
330
1D2
102
}
330
1D2
100
AcDbDimAssoc
330
1D1
 90
        3
 70
     0
 71
     0
  1
AcDbOsnapPointRef
 72
    13
331
1CD
 73
     2
 91
        0
 40
3.141592653589792
 10
30.21148072211508
 20
211.9984389998089
 30
0.0
 75
     0
  1
AcDbOsnapPointRef
 72
     1
331
B0
 73
     2
 91
        0
 40
1.0
 10
90.21148072211508
 20
211.9984389998089
 30
0.0
 75
     0
  0
DIMASSOC
  5
206
102
{ACAD_REACTORS
330
205
102
}
330
205
100
AcDbDimAssoc
330
204
 90
        1
 70
     0
 71
     0
  1
AcDbOsnapPointRef
 72
    13
331
D2
 73
     2
 91
        0
 40
0.0
 10
220.9520323671931
 20
98.77254927856871
 30
0.0
 75
     0
  0
DIMASSOC
  5
216
102
{ACAD_REACTORS
330
215
102
}
330
215
100
AcDbDimAssoc
330
214
 90
        3
 70
     0
 71
     0
  1
AcDbOsnapPointRef
 72
     1
331
B3
 73
     2
 91
        0
 40
1.0
 10
227.3130438915141
 20
207.4984389998089
 30
0.0
 75
     0
  1
AcDbOsnapPointRef
 72
     1
331
B2
 73
     2
 91
        0
 40
1.0
 10
187.3130438915141
 20
207.4984389998089
 30
0.0
 75
     0
  0
DIMASSOC
  5
23C
102
{ACAD_REACTORS
330
23B
102
}
330
23B
100
AcDbDimAssoc
330
23A
 90
        3
 70
     0
 71
     0
  1
AcDbOsnapPointRef
 72
    13
331
239
 73
     2
 91
        0
 40
0.0
 10
166.4358363060819
 20
361.0586427711557
 30
0.0
 75
     0
  1
AcDbOsnapPointRef
 72
     1
331
239
 73
     2
 91
        0
 40
1.0
 10
192.4358363060819
 20
361.0586427711557
 30
0.0
 75
     0
  0
DIMASSOC
  5
24C
102
{ACAD_REACTORS
330
24B
102
}
330
24B
100
AcDbDimAssoc
330
24A
 90
        3
 70
     0
 71
     0
  1
AcDbOsnapPointRef
 72
     1
331
259
 73
     2
 91
        0
 40
1.0
 10
155.3130438915141
 20
249.9984389998087
 30
0.0
 75
     0
  1
AcDbOsnapPointRef
 72
    13
331
28E
 73
     2
 91
        0
 40
0.0
 10
167.3130438915141
 20
250.9984389998087
 30
0.0
 75
     0
  0
DIMASSOC
  5
26F
102
{ACAD_REACTORS
330
26E
102
}
330
26E
100
AcDbDimAssoc
330
26D
 90
        3
 70
     0
 71
     0
  1
AcDbOsnapPointRef
 72
    13
331
28D
 73
     2
 91
        0
 40
0.0
 10
155.3130438915141
 20
249.9984389998087
 30
0.0
 75
     0
  1
AcDbOsnapPointRef
 72
     1
331
28D
 73
     2
 91
        0
 40
1.0
 10
155.3130438915141
 20
242.9984389998087
 30
0.0
 75
     0
  0
DIMASSOC
  5
280
102
{ACAD_REACTORS
330
27F
102
}
330
27F
100
AcDbDimAssoc
330
27E
 90
        3
 70
     0
 71
     0
  1
AcDbOsnapPointRef
 72
     1
331
235
 73
     2
 91
        0
 40
1.0
 10
151.4149050902851
 20
246.9984389998087
 30
0.0
 75
     0
  1
AcDbOsnapPointRef
 72
    13
331
234
 73
     2
 91
        0
 40
0.0
 10
143.7053707574159
 20
236.9984389998089
 30
0.0
 75
     0
  0
DIMASSOC
  5
292
102
{ACAD_REACTORS
330
291
102
}
330
291
100
AcDbDimAssoc
330
290
 90
        3
 70
     0
 71
     0
  1
AcDbOsnapPointRef
 72
     2
331
236
 73
     2
 91
        0
 40
0.5
 10
169.8130438915141
 20
242.9984389998087
 30
0.0
 75
     0
  1
AcDbOsnapPointRef
 72
     1
331
237
 73
     2
 91
        0
 40
1.0
 10
167.3130438915141
 20
250.9984389998087
 30
0.0
 75
     0
  0
DIMASSOC
  5
2A4
102
{ACAD_REACTORS
330
2A3
102
}
330
2A3
100
AcDbDimAssoc
330
2A2
 90
        2
 70
     0
 71
     0
  1
AcDbOsnapPointRef
 72
     3
331
2B3
 73
     2
 91
        0
 40
0.0
 10
80.93981324255219
 20
331.0586427711557
 30
0.0
 75
     0
  0
DIMASSOC
  5
2D8
102
{ACAD_REACTORS
330
2D7
102
}
330
2D7
100
AcDbDimAssoc
330
2D6
 90
        2
 70
     0
 71
     0
  1
AcDbOsnapPointRef
 72
    13
331
2B2
 73
     2
 91
        0
 40
0.0
 10
110.9398132425631
 20
356.0586427711557
 30
0.0
 75
     0
  0
DIMASSOC
  5
2F0
102
{ACAD_REACTORS
330
2EF
102
}
330
2EF
100
AcDbDimAssoc
330
2EE
 90
        3
 70
     0
 71
     0
  1
AcDbOsnapPointRef
 72
    13
331
2B4
 73
     2
 91
        0
 40
0.0
 10
164.4358363060819
 20
358.0586427711557
 30
0.0
 75
     0
  1
AcDbOsnapPointRef
 72
     1
331
2B4
 73
     2
 91
        0
 40
1.0
 10
164.4358363060819
 20
304.0586427711557
 30
0.0
 75
     0
  0
DIMASSOC
  5
30C
102
{ACAD_REACTORS
330
30B
102
}
330
30B
100
AcDbDimAssoc
330
30A
 90
        3
 70
     0
 71
     0
  1
AcDbOsnapPointRef
 72
    13
331
2B4
 73
     2
 91
        0
 40
0.0
 10
164.4358363060819
 20
358.0586427711557
 30
0.0
 75
     0
  1
AcDbOsnapPointRef
 72
    13
331
2B5
 73
     2
 91
        0
 40
0.0
 10
166.4358363060819
 20
361.0586427711557
 30
0.0
 75
     0
  0
MLINESTYLE
  5
9A
102
{ACAD_REACTORS
330
98
102
}
330
98
100
AcDbMlineStyle
  2
STANDARD
 70
     0
  3

 62
   256
 51
90.0
 52
90.0
 71
     2
 49
0.5
 62
   256
  6
BYLAYER
 49
-0.5
 62
   256
  6
BYLAYER
  0
XRECORD
  5
15
102
{ACAD_REACTORS
330
14
102
}
330
14
100
AcDbXrecord
  1
$layers
  1
*
  1
*
  1
*
 70
     0
  1
*
  1
*
  0
XRECORD
  5
16
102
{ACAD_REACTORS
330
14
102
}
330
14
100
AcDbXrecord
  1
- und 0
  1
-*,0
  1
*
  1
*
 70
     0
  1
*
  1
*
  0
XRECORD
  5
17
102
{ACAD_REACTORS
330
14
102
}
330
14
100
AcDbXrecord
  1
-pegc
  1
*-pegc
  1
*
  1
*
 70
     0
  1
*
  1
*
  0
XRECORD
  5
18
102
{ACAD_REACTORS
330
14
102
}
330
14
100
AcDbXrecord
  1
101
  1
*101
  1
*
  1
*
 70
   256
  1
*
  1
*
  0
XRECORD
  5
19
102
{ACAD_REACTORS
330
14
102
}
330
14
100
AcDbXrecord
  1
102
  1
102*
  1
*
  1
*
 70
     0
  1
*
  1
*
  0
XRECORD
  5
1A
102
{ACAD_REACTORS
330
14
102
}
330
14
100
AcDbXrecord
  1
1duc
  1
*1duc*
  1
*
  1
*
 70
     0
  1
*
  1
*
  0
XRECORD
  5
1B
102
{ACAD_REACTORS
330
14
102
}
330
14
100
AcDbXrecord
  1
1eq
  1
*1eq*
  1
*
  1
*
 70
     0
  1
*
  1
*
  0
XRECORD
  5
1C
102
{ACAD_REACTORS
330
14
102
}
330
14
100
AcDbXrecord
  1
1tub
  1
*1t*
  1
*
  1
*
 70
     0
  1
*
  1
*
  0
XRECORD
  5
1D
102
{ACAD_REACTORS
330
14
102
}
330
14
100
AcDbXrecord
  1
2
  1
*
  1
2
  1
*
 70
     0
  1
*
  1
*
  0
XRECORD
  5
1E
102
{ACAD_REACTORS
330
14
102
}
330
14
100
AcDbXrecord
  1
2000
  1
2000*
  1
*
  1
*
 70
     0
  1
*
  1
*
  0
XRECORD
  5
1F
102
{ACAD_REACTORS
330
14
102
}
330
14
100
AcDbXrecord
  1
50
  1
*-50
  1
*
  1
*
 70
     0
  1
*
  1
*
  0
XRECORD
  5
20
102
{ACAD_REACTORS
330
14
102
}
330
14
100
AcDbXrecord
  1
58J
  1
*58*
  1
*
  1
*
 70
     0
  1
*
  1
*
  0
XRECORD
  5
21
102
{ACAD_REACTORS
330
14
102
}
330
14
100
AcDbXrecord
  1
65
  1
*65
  1
*
  1
*
 70
     0
  1
*
  1
*
  0
XRECORD
  5
22
102
{ACAD_REACTORS
330
14
102
}
330
14
100
AcDbXrecord
  1
aa
  1
aa*
  1
*
  1
*
 70
     0
  1
*
  1
*
  0
XRECORD
  5
23
102
{ACAD_REACTORS
330
14
102
}
330
14
100
AcDbXrecord
  1
acabados
  1
a-*
  1
*
  1
*
 70
     5
  1
*
  1
*
  0
XRECORD
  5
24
102
{ACAD_REACTORS
330
14
102
}
330
14
100
AcDbXrecord
  1
AGUA Y DREN
  1
A-DS-*
  1
*
  1
*
 70
     0
  1
*
  1
*
  0
XRECORD
  5
25
102
{ACAD_REACTORS
330
14
102
}
330
14
100
AcDbXrecord
  1
Aire
  1
*
  1
*
  1
*
 70
     0
  1
*
  1
*
  0
XRECORD
  5
26
102
{ACAD_REACTORS
330
14
102
}
330
14
100
AcDbXrecord
  1
alle aus
  1
99999999999
  1
*
  1
*
 70
     0
  1
*
  1
*
  0
XRECORD
  5
27
102
{ACAD_REACTORS
330
14
102
}
330
14
100
AcDbXrecord
  1
Alles mit S
  1
s*
  1
*
  1
*
 70
     0
  1
*
  1
*
  0
XRECORD
  5
28
102
{ACAD_REACTORS
330
14
102
}
330
14
100
AcDbXrecord
  1
amarillo
  1
*
  1
yellow
  1
*
 70
     0
  1
*
  1
*
  0
XRECORD
  5
29
102
{ACAD_REACTORS
330
14
102
}
330
14
100
AcDbXrecord
  1
APAGADOS
  1
*
  1
*
  1
*
 70
     4
  1
*
  1
*
  0
XRECORD
  5
2A
102
{ACAD_REACTORS
330
14
102
}
330
14
100
AcDbXrecord
  1
ARR
  1
ARR*
  1
*
  1
*
 70
     0
  1
*
  1
*
  0
XRECORD
  5
2B
102
{ACAD_REACTORS
330
14
102
}
330
14
100
AcDbXrecord
  1
ba
  1
*
  1
*
  1
*
 70
     0
  1
*
  1
*
  0
XRECORD
  5
2C
102
{ACAD_REACTORS
330
14
102
}
330
14
100
AcDbXrecord
  1
BACKS
  1
*-H
  1
*
  1
*
 70
     0
  1
*
  1
*
  0
XRECORD
  5
2D
102
{ACAD_REACTORS
330
14
102
}
330
14
100
AcDbXrecord
  1
BASE
  1
*-PBASE
  1
*
  1
*
 70
     0
  1
*
  1
*
  0
XRECORD
  5
2E
102
{ACAD_REACTORS
330
14
102
}
330
14
100
AcDbXrecord
  1
BLOQ_INUTIL
  1
*
  1
*
  1
*
 70
     0
  1
*
  1
*
  0
XRECORD
  5
2F
102
{ACAD_REACTORS
330
14
102
}
330
14
100
AcDbXrecord
  1
CADKON
  1
?[KAHBSM]?????[23M],?[KAHBSM]?????[23M][1456A-DGHILN-SU-Z]
  1
*
  1
*
 70
     0
  1
*
  1
*
  0
XRECORD
  5
30
102
{ACAD_REACTORS
330
14
102
}
330
14
100
AcDbXrecord
  1
carpinteria
  1
carp*
  1
*
  1
*
 70
     0
  1
*
  1
*
  0
XRECORD
  5
31
102
{ACAD_REACTORS
330
14
102
}
330
14
100
AcDbXrecord
  1
cerrados
  1
*
  1
*
  1
*
 70
   256
  1
*
  1
*
  0
XRECORD
  5
32
102
{ACAD_REACTORS
330
14
102
}
330
14
100
AcDbXrecord
  1
COL
  1
*
  1
*
  1
*
 70
     1
  1
*
  1
*
  0
XRECORD
  5
33
102
{ACAD_REACTORS
330
14
102
}
330
14
100
AcDbXrecord
  1
COLOR
  1
*
  1
253
  1
*
 70
     0
  1
*
  1
*
  0
XRECORD
  5
34
102
{ACAD_REACTORS
330
14
102
}
330
14
100
AcDbXrecord
  1
color 250
  1
*
  1
250
  1
*
 70
     0
  1
*
  1
*
  0
XRECORD
  5
35
102
{ACAD_REACTORS
330
14
102
}
330
14
100
AcDbXrecord
  1
COLORES
  1
*
  1
6
  1
*
 70
     0
  1
*
  1
*
  0
XRECORD
  5
36
102
{ACAD_REACTORS
330
14
102
}
330
14
100
AcDbXrecord
  1
Congelados
  1
*
  1
*
  1
*
 70
     4
  1
*
  1
*
  0
XRECORD
  5
37
102
{ACAD_REACTORS
330
14
102
}
330
14
100
AcDbXrecord
  1
CONJUNTO
  1
CON-*
  1
*
  1
*
 70
     0
  1
*
  1
*
  0
XRECORD
  5
38
102
{ACAD_REACTORS
330
14
102
}
330
14
100
AcDbXrecord
  1
d1
  1
achurados
  1
*
  1
*
 70
     0
  1
*
  1
*
  0
XRECORD
  5
39
102
{ACAD_REACTORS
330
14
102
}
330
14
100
AcDbXrecord
  1
DA_
  1
DA*
  1
*
  1
*
 70
     0
  1
*
  1
*
  0
XRECORD
  5
3A
102
{ACAD_REACTORS
330
14
102
}
330
14
100
AcDbXrecord
  1
DET-
  1
*
  1
*
  1
*
 70
     0
  1
*
  1
*
  0
XRECORD
  5
3B
102
{ACAD_REACTORS
330
14
102
}
330
14
100
AcDbXrecord
  1
DOR-H
  1
*
  1
7
  1
*
 70
     0
  1
*
  1
*
  0
XRECORD
  5
3C
102
{ACAD_REACTORS
330
14
102
}
330
14
100
AcDbXrecord
  1
ejes
  1
eje*
  1
*
  1
*
 70
     0
  1
*
  1
*
  0
XRECORD
  5
3D
102
{ACAD_REACTORS
330
14
102
}
330
14
100
AcDbXrecord
  1
ELECTRICO
  1
ELEC-*
  1
*
  1
*
 70
     0
  1
*
  1
*
  0
XRECORD
  5
3E
102
{ACAD_REACTORS
330
14
102
}
330
14
100
AcDbXrecord
  1
F1
  1
Halaxref*
  1
*
  1
*
 70
     0
  1
*
  1
*
  0
XRECORD
  5
3F
102
{ACAD_REACTORS
330
14
102
}
330
14
100
AcDbXrecord
  1
frozen
  1
*
  1
*
  1
*
 70
     4
  1
*
  1
*
  0
XRECORD
  5
40
102
{ACAD_REACTORS
330
14
102
}
330
14
100
AcDbXrecord
  1
grid
  1
*-PGRID
  1
*
  1
*
 70
     1
  1
*
  1
*
  0
XRECORD
  5
41
102
{ACAD_REACTORS
330
14
102
}
330
14
100
AcDbXrecord
  1
GRIDTXT
  1
*-PGRIDT
  1
*
  1
*
 70
     0
  1
*
  1
*
  0
XRECORD
  5
42
102
{ACAD_REACTORS
330
14
102
}
330
14
100
AcDbXrecord
  1
HATCH
  1
HAT*
  1
*
  1
*
 70
     0
  1
*
  1
*
  0
XRECORD
  5
43
102
{ACAD_REACTORS
330
14
102
}
330
14
100
AcDbXrecord
  1
HCAD
  1
1HCAD-*
  1
*
  1
*
 70
    13
  1
*
  1
*
  0
XRECORD
  5
44
102
{ACAD_REACTORS
330
14
102
}
330
14
100
AcDbXrecord
  1
INSTALACIONES
  1
I-*
  1
*
  1
*
 70
     0
  1
*
  1
*
  0
XRECORD
  5
45
102
{ACAD_REACTORS
330
14
102
}
330
14
100
AcDbXrecord
  1
JIZNI
  1
*-J
  1
*
  1
*
 70
     0
  1
*
  1
*
  0
XRECORD
  5
46
102
{ACAD_REACTORS
330
14
102
}
330
14
100
AcDbXrecord
  1
kck
  1
*
  1
*
  1
*
 70
     0
  1
*
  1
*
  0
XRECORD
  5
47
102
{ACAD_REACTORS
330
14
102
}
330
14
100
AcDbXrecord
  1
kkk
  1
k
  1
*
  1
*
 70
     0
  1
*
  1
*
  0
XRECORD
  5
48
102
{ACAD_REACTORS
330
14
102
}
330
14
100
AcDbXrecord
  1
lay
  1
??-*
  1
*
  1
*
 70
     0
  1
*
  1
*
  0
XRECORD
  5
4C
102
{ACAD_REACTORS
330
14
102
}
330
14
100
AcDbXrecord
  1
Layer-0
  1
0*
  1
*
  1
*
 70
     0
  1
*
  1
*
  0
XRECORD
  5
4D
102
{ACAD_REACTORS
330
14
102
}
330
14
100
AcDbXrecord
  1
Layer-1
  1
1*
  1
*
  1
*
 70
     0
  1
*
  1
*
  0
XRECORD
  5
49
102
{ACAD_REACTORS
330
14
102
}
330
14
100
AcDbXrecord
  1
Layer 1 und 0
  1
1*,0
  1
*
  1
*
 70
     0
  1
*
  1
*
  0
XRECORD
  5
4A
102
{ACAD_REACTORS
330
14
102
}
330
14
100
AcDbXrecord
  1
Layer 2 und 0
  1
2*,0
  1
*
  1
*
 70
     0
  1
*
  1
*
  0
XRECORD
  5
4B
102
{ACAD_REACTORS
330
14
102
}
330
14
100
AcDbXrecord
  1
Layer 9 und 0 Schraffur
  1
9*,0
  1
*
  1
*
 70
     0
  1
*
  1
*
  0
XRECORD
  5
4E
102
{ACAD_REACTORS
330
14
102
}
330
14
100
AcDbXrecord
  1
LOCK
  1
*
  1
*
  1
*
 70
   256
  1
*
  1
*
  0
XRECORD
  5
4F
102
{ACAD_REACTORS
330
14
102
}
330
14
100
AcDbXrecord
  1
locked
  1
*
  1
*
  1
*
 70
   256
  1
*
  1
*
  0
XRECORD
  5
50
102
{ACAD_REACTORS
330
14
102
}
330
14
100
AcDbXrecord
  1
Lotes
  1
*
  1
*
  1
*
 70
     1
  1
*
  1
*
  0
XRECORD
  5
51
102
{ACAD_REACTORS
330
14
102
}
330
14
100
AcDbXrecord
  1
LUNAR
  1
*
  1
*
  1
*
 70
    48
  1
*
  1
*
  0
XRECORD
  5
52
102
{ACAD_REACTORS
330
14
102
}
330
14
100
AcDbXrecord
  1
LUNAR2
  1
*
  1
*
  1
*
 70
    12
  1
*
  1
*
  0
XRECORD
  5
53
102
{ACAD_REACTORS
330
14
102
}
330
14
100
AcDbXrecord
  1
M
  1
M*
  1
*
  1
*
 70
     0
  1
*
  1
*
  0
XRECORD
  5
54
102
{ACAD_REACTORS
330
14
102
}
330
14
100
AcDbXrecord
  1
mis_layers
  1
mis_*
  1
*
  1
*
 70
     0
  1
*
  1
*
  0
XRECORD
  5
55
102
{ACAD_REACTORS
330
14
102
}
330
14
100
AcDbXrecord
  1
MRKCK
  1
*
  1
*
  1
*
 70
     0
  1
*
  1
*
  0
XRECORD
  5
56
102
{ACAD_REACTORS
330
14
102
}
330
14
100
AcDbXrecord
  1
NECADKON
  1
~*?[KAHBSM]?????[23M]*
  1
*
  1
*
 70
     0
  1
*
  1
*
  0
XRECORD
  5
57
102
{ACAD_REACTORS
330
14
102
}
330
14
100
AcDbXrecord
  1
NI_LH
  1
NI_LH*
  1
*
  1
*
 70
     0
  1
*
  1
*
  0
XRECORD
  5
58
102
{ACAD_REACTORS
330
14
102
}
330
14
100
AcDbXrecord
  1
NI_RH
  1
NI_RH*
  1
*
  1
*
 70
     0
  1
*
  1
*
  0
XRECORD
  5
59
102
{ACAD_REACTORS
330
14
102
}
330
14
100
AcDbXrecord
  1
NUM
  1
NUM*
  1
*
  1
*
 70
     0
  1
*
  1
*
  0
XRECORD
  5
5A
102
{ACAD_REACTORS
330
14
102
}
330
14
100
AcDbXrecord
  1
off
  1
*
  1
*
  1
*
 70
     3
  1
*
  1
*
  0
XRECORD
  5
5B
102
{ACAD_REACTORS
330
14
102
}
330
14
100
AcDbXrecord
  1
on
  1
*
  1
*
  1
*
 70
     0
  1
*
  1
*
  0
XRECORD
  5
5C
102
{ACAD_REACTORS
330
14
102
}
330
14
100
AcDbXrecord
  1
PBASE
  1
*PBASE
  1
*
  1
*
 70
     0
  1
*
  1
*
  0
XRECORD
  5
5D
102
{ACAD_REACTORS
330
14
102
}
330
14
100
AcDbXrecord
  1
PEGC
  1
*PEGC
  1
*
  1
*
 70
     0
  1
*
  1
*
  0
XRECORD
  5
5E
102
{ACAD_REACTORS
330
14
102
}
330
14
100
AcDbXrecord
  1
PEGCT
  1
*PEGCT
  1
*
  1
*
 70
     0
  1
*
  1
*
  0
XRECORD
  5
5F
102
{ACAD_REACTORS
330
14
102
}
330
14
100
AcDbXrecord
  1
PFRAME
  1
PFRAME*
  1
*
  1
*
 70
     0
  1
*
  1
*
  0
XRECORD
  5
60
102
{ACAD_REACTORS
330
14
102
}
330
14
100
AcDbXrecord
  1
PGRID
  1
*PGRID
  1
*
  1
*
 70
     0
  1
*
  1
*
  0
XRECORD
  5
61
102
{ACAD_REACTORS
330
14
102
}
330
14
100
AcDbXrecord
  1
PGRIDT
  1
*PGRIDT
  1
*
  1
*
 70
     0
  1
*
  1
*
  0
XRECORD
  5
62
102
{ACAD_REACTORS
330
14
102
}
330
14
100
AcDbXrecord
  1
PLAFONES
  1
0-*
  1
*
  1
*
 70
     0
  1
*
  1
*
  0
XRECORD
  5
63
102
{ACAD_REACTORS
330
14
102
}
330
14
100
AcDbXrecord
  1
PLANTAS
  1
P-*
  1
*
  1
*
 70
     0
  1
*
  1
*
  0
XRECORD
  5
64
102
{ACAD_REACTORS
330
14
102
}
330
14
100
AcDbXrecord
  1
Plot
  1
*
  1
*
  1
*
 70
  1024
  1
*
  1
*
  0
XRECORD
  5
65
102
{ACAD_REACTORS
330
14
102
}
330
14
100
AcDbXrecord
  1
PRENDIDAS
  1
*
  1
*
  1
*
 70
    13
  1
*
  1
*
  0
XRECORD
  5
66
102
{ACAD_REACTORS
330
14
102
}
330
14
100
AcDbXrecord
  1
PRENDIDOS
  1
*
  1
*
  1
*
 70
    12
  1
*
  1
*
  0
XRECORD
  5
67
102
{ACAD_REACTORS
330
14
102
}
330
14
100
AcDbXrecord
  1
print
  1
*
  1
7
  1
*
 70
  1280
  1
*
  1
*
  0
XRECORD
  5
68
102
{ACAD_REACTORS
330
14
102
}
330
14
100
AcDbXrecord
  1
PT
  1
PT-*
  1
*
  1
*
 70
     0
  1
*
  1
*
  0
XRECORD
  5
69
102
{ACAD_REACTORS
330
14
102
}
330
14
100
AcDbXrecord
  1
PTH
  1
PTH*
  1
*
  1
*
 70
     0
  1
*
  1
*
  0
XRECORD
  5
6A
102
{ACAD_REACTORS
330
14
102
}
330
14
100
AcDbXrecord
  1
PVGRID
  1
*PVGRID
  1
*
  1
*
 70
     0
  1
*
  1
*
  0
XRECORD
  5
6B
102
{ACAD_REACTORS
330
14
102
}
330
14
100
AcDbXrecord
  1
Red de Agua Potable
  1
Red de Agua Potable
  1
*
  1
*
 70
     1
  1
*
  1
*
  0
XRECORD
  5
6C
102
{ACAD_REACTORS
330
14
102
}
330
14
100
AcDbXrecord
  1
Red de Energia Electrica
  1
Lotes
  1
*
  1
*
 70
     1
  1
*
  1
*
  0
XRECORD
  5
6D
102
{ACAD_REACTORS
330
14
102
}
330
14
100
AcDbXrecord
  1
SEVERNI
  1
*-S
  1
*
  1
*
 70
     0
  1
*
  1
*
  0
XRECORD
  5
6E
102
{ACAD_REACTORS
330
14
102
}
330
14
100
AcDbXrecord
  1
shin
  1
일*
  1
*
  1
*
 70
     0
  1
*
  1
*
  0
XRECORD
  5
6F
102
{ACAD_REACTORS
330
14
102
}
330
14
100
AcDbXrecord
  1
SHOW ALL LAYER
  1
*
  1
*
  1
*
 70
     0
  1
*
  1
*
  0
XRECORD
  5
70
102
{ACAD_REACTORS
330
14
102
}
330
14
100
AcDbXrecord
  1
sin
  1
sin
  1
*
  1
*
 70
     0
  1
*
  1
*
  0
XRECORD
  5
71
102
{ACAD_REACTORS
330
14
102
}
330
14
100
AcDbXrecord
  1
STORAGE-CART
  1
STORAGE-CART*
  1
*
  1
*
 70
     0
  1
*
  1
*
  0
XRECORD
  5
72
102
{ACAD_REACTORS
330
14
102
}
330
14
100
AcDbXrecord
  1
T
  1
T*
  1
*
  1
*
 70
     0
  1
*
  1
*
  0
XRECORD
  5
73
102
{ACAD_REACTORS
330
14
102
}
330
14
100
AcDbXrecord
  1
TEXTOS
  1
TXT*
  1
*
  1
*
 70
     0
  1
*
  1
*
  0
XRECORD
  5
74
102
{ACAD_REACTORS
330
14
102
}
330
14
100
AcDbXrecord
  1
TEXTURAS
  1
*TEXTURAS
  1
*
  1
*
 70
     0
  1
*
  1
*
  0
XRECORD
  5
75
102
{ACAD_REACTORS
330
14
102
}
330
14
100
AcDbXrecord
  1
TUBERIAS
  1
T*
  1
*
  1
*
 70
     0
  1
*
  1
*
  0
XRECORD
  5
76
102
{ACAD_REACTORS
330
14
102
}
330
14
100
AcDbXrecord
  1
UNFRZ
  1
*
  1
*
  1
*
 70
    12
  1
*
  1
*
  0
XRECORD
  5
77
102
{ACAD_REACTORS
330
14
102
}
330
14
100
AcDbXrecord
  1
v\U+0161echny nepou\U+017E\U+00EDvan\U+00E9
  1
*
  1
*
  1
*
 70
     0
  1
*
  1
*
  0
XRECORD
  5
78
102
{ACAD_REACTORS
330
14
102
}
330
14
100
AcDbXrecord
  1
VA
  1
VA*
  1
*
  1
*
 70
     0
  1
*
  1
*
  0
XRECORD
  5
79
102
{ACAD_REACTORS
330
14
102
}
330
14
100
AcDbXrecord
  1
Ventilaci\U+00F3n
  1
*
  1
*
  1
*
 70
     0
  1
*
  1
*
  0
XRECORD
  5
7A
102
{ACAD_REACTORS
330
14
102
}
330
14
100
AcDbXrecord
  1
VYHODNI
  1
*-V
  1
*
  1
*
 70
     0
  1
*
  1
*
  0
XRECORD
  5
7B
102
{ACAD_REACTORS
330
14
102
}
330
14
100
AcDbXrecord
  1
Yo
  1
Muros
  1
*
  1
*
 70
     0
  1
*
  1
*
  0
XRECORD
  5
7C
102
{ACAD_REACTORS
330
14
102
}
330
14
100
AcDbXrecord
  1
ZAPADNI
  1
*-Z
  1
*
  1
*
 70
     0
  1
*
  1
*
  0
XRECORD
  5
7D
102
{ACAD_REACTORS
330
14
102
}
330
14
100
AcDbXrecord
  1
사용
  1
*
  1
*
  1
*
 70
   256
  1
*
  1
*
  0
XRECORD
  5
7E
102
{ACAD_REACTORS
330
14
102
}
330
14
100
AcDbXrecord
  1
신규
  1
신규
  1
*
  1
*
 70
     0
  1
*
  1
*
  0
XRECORD
  5
7F
102
{ACAD_REACTORS
330
14
102
}
330
14
100
AcDbXrecord
  1
실박스
  1
BLO,SYM,SYM1,SYM2
  1
*
  1
*
 70
     0
  1
*
  1
*
  0
XRECORD
  5
80
102
{ACAD_REACTORS
330
14
102
}
330
14
100
AcDbXrecord
  1
우리토목
  1
w-*
  1
*
  1
*
 70
     0
  1
*
  1
*
  0
XRECORD
  5
81
102
{ACAD_REACTORS
330
14
102
}
330
14
100
AcDbXrecord
  1
주차
  1
car*
  1
*
  1
*
 70
     0
  1
*
  1
*
  0
XRECORD
  5
82
102
{ACAD_REACTORS
330
14
102
}
330
14
100
AcDbXrecord
  1
지상정밀
  1
*
  1
*
  1
*
 70
     0
  1
*
  1
*
  0
XRECORD
  5
83
102
{ACAD_REACTORS
330
14
102
}
330
14
100
AcDbXrecord
  1
쩜선
  1
*
  1
*
  1
*
 70
     0
  1
*
  1
*
  0
XRECORD
  5
84
102
{ACAD_REACTORS
330
14
102
}
330
14
100
AcDbXrecord
  1
플로터 작업층
  1
*
  1
*
  1
*
 70
  1025
  1
*
  1
*
  0
XRECORD
  5
85
102
{ACAD_REACTORS
330
14
102
}
330
14
100
AcDbXrecord
  1
현재 작업층
  1
*
  1
*
  1
*
 70
     1
  1
*
  1
*
  0
XRECORD
  5
86
102
{ACAD_REACTORS
330
14
102
}
330
14
100
AcDbXrecord
  1
현재 잠금
  1
*
  1
*
  1
*
 70
   257
  1
*
  1
*
  0
ENDSEC
  0
EOF
