  0
SECTION
  2
HEADER
  9
$ACADVER
  1
AC1014
  9
$ACADMAINTVER
 70
     9
  9
$DWGCODEPAGE
  3
ANSI_949
  9
$INSBASE
 10
0.0
 20
0.0
 30
0.0
  9
$EXTMIN
 10
-112.3980540796187
 20
-8.212586057819521
 30
-0.0000000000112498
  9
$EXTMAX
 10
228.1244990473235
 20
497.5169495881912
 30
0.0000000000002956
  9
$LIMMIN
 10
0.0
 20
0.0
  9
$LIMMAX
 10
420.0
 20
297.0
  9
$ORTHOMODE
 70
     0
  9
$REGENMODE
 70
     1
  9
$FILLMODE
 70
     1
  9
$QTEXTMODE
 70
     0
  9
$MIRRTEXT
 70
     0
  9
$DRAGMODE
 70
     2
  9
$LTSCALE
 40
0.2
  9
$OSMODE
 70
  3071
  9
$ATTMODE
 70
     1
  9
$TEXTSIZE
 40
5.777225951253058
  9
$TRACEWID
 40
1.0
  9
$TEXTSTYLE
  7
STANDARD
  9
$CLAYER
  8
0
  9
$CELTYPE
  6
BYLAYER
  9
$CECOLOR
 62
   256
  9
$CELTSCALE
 40
1.0
  9
$DELOBJ
 70
     1
  9
$DISPSILH
 70
     0
  9
$DIMSCALE
 40
1.0
  9
$DIMASZ
 40
3.0
  9
$DIMEXO
 40
1.0
  9
$DIMDLI
 40
10.0
  9
$DIMRND
 40
0.0
  9
$DIMDLE
 40
0.0
  9
$DIMEXE
 40
0.6
  9
$DIMTP
 40
0.0
  9
$DIMTM
 40
0.0
  9
$DIMTXT
 40
3.5
  9
$DIMCEN
 40
0.09
  9
$DIMTSZ
 40
0.0
  9
$DIMTOL
 70
     0
  9
$DIMLIM
 70
     0
  9
$DIMTIH
 70
     0
  9
$DIMTOH
 70
     0
  9
$DIMSE1
 70
     0
  9
$DIMSE2
 70
     0
  9
$DIMTAD
 70
     1
  9
$DIMZIN
 70
     8
  9
$DIMBLK
  1

  9
$DIMASO
 70
     1
  9
$DIMSHO
 70
     1
  9
$DIMPOST
  1

  9
$DIMAPOST
  1

  9
$DIMALT
 70
     0
  9
$DIMALTD
 70
     2
  9
$DIMALTF
 40
25.4
  9
$DIMLFAC
 40
1.0
  9
$DIMTOFL
 70
     1
  9
$DIMTVP
 40
0.0
  9
$DIMTIX
 70
     1
  9
$DIMSOXD
 70
     0
  9
$DIMSAH
 70
     0
  9
$DIMBLK1
  1

  9
$DIMBLK2
  1

  9
$DIMSTYLE
  2
1_1_2
  9
$DIMCLRD
 70
   123
  9
$DIMCLRE
 70
   123
  9
$DIMCLRT
 70
     3
  9
$DIMTFAC
 40
1.0
  9
$DIMGAP
 40
1.0
  9
$DIMJUST
 70
     0
  9
$DIMSD1
 70
     0
  9
$DIMSD2
 70
     0
  9
$DIMTOLJ
 70
     1
  9
$DIMTZIN
 70
     0
  9
$DIMALTZ
 70
     0
  9
$DIMALTTZ
 70
     0
  9
$DIMFIT
 70
     3
  9
$DIMUPT
 70
     1
  9
$DIMUNIT
 70
     2
  9
$DIMDEC
 70
     2
  9
$DIMTDEC
 70
     2
  9
$DIMALTU
 70
     2
  9
$DIMALTTD
 70
     2
  9
$DIMTXSTY
  7
STANDARD
  9
$DIMAUNIT
 70
     1
  9
$LUNITS
 70
     2
  9
$LUPREC
 70
     4
  9
$SKETCHINC
 40
1.0
  9
$FILLETRAD
 40
0.5
  9
$AUNITS
 70
     0
  9
$AUPREC
 70
     0
  9
$MENU
  1
.
  9
$ELEVATION
 40
0.0
  9
$PELEVATION
 40
0.0
  9
$THICKNESS
 40
0.0
  9
$LIMCHECK
 70
     0
  9
$BLIPMODE
 70
     0
  9
$CHAMFERA
 40
1.0
  9
$CHAMFERB
 40
1.0
  9
$CHAMFERC
 40
20.0
  9
$CHAMFERD
 40
0.0
  9
$SKPOLY
 70
     0
  9
$TDCREATE
 40
2452839.586179271
  9
$TDUPDATE
 40
2453385.414412430
  9
$TDINDWG
 40
11.1201724537
  9
$TDUSRTIMER
 40
11.1201722685
  9
$USRTIMER
 70
     1
  9
$ANGBASE
 50
0.0
  9
$ANGDIR
 70
     0
  9
$PDMODE
 70
     0
  9
$PDSIZE
 40
0.0
  9
$PLINEWID
 40
0.0
  9
$COORDS
 70
     1
  9
$SPLFRAME
 70
     0
  9
$SPLINETYPE
 70
     6
  9
$SPLINESEGS
 70
   800
  9
$ATTDIA
 70
     0
  9
$ATTREQ
 70
     1
  9
$HANDLING
 70
 22529
  9
$HANDSEED
  5
5EC
  9
$SURFTAB1
 70
     6
  9
$SURFTAB2
 70
     6
  9
$SURFTYPE
 70
     6
  9
$SURFU
 70
     6
  9
$SURFV
 70
     6
  9
$UCSNAME
  2

  9
$UCSORG
 10
0.0
 20
0.0
 30
0.0
  9
$UCSXDIR
 10
1.0
 20
0.0
 30
0.0
  9
$UCSYDIR
 10
0.0
 20
1.0
 30
0.0
  9
$PUCSNAME
  2

  9
$PUCSORG
 10
0.0
 20
0.0
 30
0.0
  9
$PUCSXDIR
 10
1.0
 20
0.0
 30
0.0
  9
$PUCSYDIR
 10
0.0
 20
1.0
 30
0.0
  9
$USERI1
 70
     0
  9
$USERI2
 70
     0
  9
$USERI3
 70
     0
  9
$USERI4
 70
     0
  9
$USERI5
 70
     0
  9
$USERR1
 40
0.0
  9
$USERR2
 40
0.0
  9
$USERR3
 40
0.0
  9
$USERR4
 40
0.0
  9
$USERR5
 40
0.0
  9
$WORLDVIEW
 70
     1
  9
$SHADEDGE
 70
     3
  9
$SHADEDIF
 70
    70
  9
$TILEMODE
 70
     1
  9
$MAXACTVP
 70
    48
  9
$PINSBASE
 10
0.0
 20
0.0
 30
0.0
  9
$PLIMCHECK
 70
     0
  9
$PEXTMIN
 10
0.0
 20
0.0
 30
0.0
  9
$PEXTMAX
 10
0.0
 20
0.0
 30
0.0
  9
$PLIMMIN
 10
0.0
 20
0.0
  9
$PLIMMAX
 10
12.0
 20
9.0
  9
$UNITMODE
 70
     0
  9
$VISRETAIN
 70
     1
  9
$PLINEGEN
 70
     0
  9
$PSLTSCALE
 70
     1
  9
$TREEDEPTH
 70
  3020
  9
$PICKSTYLE
 70
     1
  9
$CMLSTYLE
  2
STANDARD
  9
$CMLJUST
 70
     0
  9
$CMLSCALE
 40
20.0
  9
$PROXYGRAPHICS
 70
     1
  9
$MEASUREMENT
 70
     1
  0
ENDSEC
  0
SECTION
  2
CLASSES
  0
CLASS
  1
ACDBDICTIONARYWDFLT
  2
AcDbDictionaryWithDefault
  3
AutoCAD 2000
 90
        0
280
     0
281
     0
  0
CLASS
  1
ACDBPLACEHOLDER
  2
AcDbPlaceHolder
  3
AutoCAD 2000
 90
        0
280
     0
281
     0
  0
CLASS
  1
LAYOUT
  2
AcDbLayout
  3
AutoCAD 2000
 90
        0
280
     0
281
     0
  0
CLASS
  1
DICTIONARYVAR
  2
AcDbDictionaryVar
  3
AutoCAD 2000
 90
        0
280
     0
281
     0
  0
CLASS
  1
DIMASSOC
  2
AcDbDimAssoc
  3
"AcDbDimAssoc|Product Desc:     AcDim ARX App For Dimension|Company:          Autodesk, Inc.|WEB Address:      www.autodesk.com"
 90
        0
280
     0
281
     0
  0
CLASS
  1
LONG_TRANSACTION
  2
AcDbLongTransaction
  3
AutoCAD 2000
 90
        0
280
     0
281
     0
  0
CLASS
  1
LWPOLYLINE
  2
AcDbPolyline
  3
AutoCAD 2000
 90
        0
280
     0
281
     1
  0
CLASS
  1
HATCH
  2
AcDbHatch
  3
AutoCAD 2000
 90
        0
280
     0
281
     1
  0
CLASS
  1
XRECORD
  2
AcDbXrecord
  3
AutoCAD 2000
 90
        0
280
     0
281
     0
  0
CLASS
  1
LONG_TRANSACTION
  2
AcDbLongTransaction
  3
AutoCAD 2000
 90
        0
280
     0
281
     0
  0
CLASS
  1
LWPOLYLINE
  2
AcDbPolyline
  3
AutoCAD 2000
 90
        0
280
     0
281
     1
  0
CLASS
  1
HATCH
  2
AcDbHatch
  3
AutoCAD 2000
 90
        0
280
     0
281
     1
  0
CLASS
  1
XRECORD
  2
AcDbXrecord
  3
AutoCAD 2000
 90
        0
280
     0
281
     0
  0
CLASS
  1
LONG_TRANSACTION
  2
AcDbLongTransaction
  3
AutoCAD 2000
 90
        0
280
     0
281
     0
  0
CLASS
  1
LWPOLYLINE
  2
AcDbPolyline
  3
AutoCAD 2000
 90
        0
280
     0
281
     1
  0
CLASS
  1
HATCH
  2
AcDbHatch
  3
AutoCAD 2000
 90
        0
280
     0
281
     1
  0
CLASS
  1
XRECORD
  2
AcDbXrecord
  3
AutoCAD 2000
 90
        0
280
     0
281
     0
  0
CLASS
  1
LONG_TRANSACTION
  2
AcDbLongTransaction
  3
AutoCAD 2000
 90
        0
280
     0
281
     0
  0
CLASS
  1
LWPOLYLINE
  2
AcDbPolyline
  3
AutoCAD 2000
 90
        0
280
     0
281
     1
  0
CLASS
  1
HATCH
  2
AcDbHatch
  3
AutoCAD 2000
 90
        0
280
     0
281
     1
  0
CLASS
  1
XRECORD
  2
AcDbXrecord
  3
AutoCAD 2000
 90
        0
280
     0
281
     0
  0
CLASS
  1
LONG_TRANSACTION
  2
AcDbLongTransaction
  3
AutoCAD 2000
 90
        0
280
     0
281
     0
  0
CLASS
  1
LWPOLYLINE
  2
AcDbPolyline
  3
AutoCAD 2000
 90
        0
280
     0
281
     1
  0
CLASS
  1
HATCH
  2
AcDbHatch
  3
AutoCAD 2000
 90
        0
280
     0
281
     1
  0
CLASS
  1
XRECORD
  2
AcDbXrecord
  3
AutoCAD 2000
 90
        0
280
     0
281
     0
  0
CLASS
  1
LONG_TRANSACTION
  2
AcDbLongTransaction
  3
AutoCAD 2000
 90
        0
280
     0
281
     0
  0
CLASS
  1
LWPOLYLINE
  2
AcDbPolyline
  3
AutoCAD 2000
 90
        0
280
     0
281
     1
  0
CLASS
  1
HATCH
  2
AcDbHatch
  3
AutoCAD 2000
 90
        0
280
     0
281
     1
  0
CLASS
  1
XRECORD
  2
AcDbXrecord
  3
AutoCAD 2000
 90
        0
280
     0
281
     0
  0
CLASS
  1
LONG_TRANSACTION
  2
AcDbLongTransaction
  3
AutoCAD 2000
 90
        0
280
     0
281
     0
  0
CLASS
  1
LWPOLYLINE
  2
AcDbPolyline
  3
AutoCAD 2000
 90
        0
280
     0
281
     1
  0
CLASS
  1
HATCH
  2
AcDbHatch
  3
AutoCAD 2000
 90
        0
280
     0
281
     1
  0
CLASS
  1
XRECORD
  2
AcDbXrecord
  3
AutoCAD 2000
 90
        0
280
     0
281
     0
  0
CLASS
  1
LONG_TRANSACTION
  2
AcDbLongTransaction
  3
AutoCAD 2000
 90
        0
280
     0
281
     0
  0
CLASS
  1
LWPOLYLINE
  2
AcDbPolyline
  3
AutoCAD 2000
 90
        0
280
     0
281
     1
  0
CLASS
  1
HATCH
  2
AcDbHatch
  3
AutoCAD 2000
 90
        0
280
     0
281
     1
  0
CLASS
  1
XRECORD
  2
AcDbXrecord
  3
AutoCAD 2000
 90
        0
280
     0
281
     0
  0
CLASS
  1
LONG_TRANSACTION
  2
AcDbLongTransaction
  3
AutoCAD 2000
 90
        0
280
     0
281
     0
  0
CLASS
  1
LWPOLYLINE
  2
AcDbPolyline
  3
AutoCAD 2000
 90
        0
280
     0
281
     1
  0
CLASS
  1
HATCH
  2
AcDbHatch
  3
AutoCAD 2000
 90
        0
280
     0
281
     1
  0
CLASS
  1
XRECORD
  2
AcDbXrecord
  3
AutoCAD 2000
 90
        0
280
     0
281
     0
  0
CLASS
  1
LONG_TRANSACTION
  2
AcDbLongTransaction
  3
AutoCAD 2000
 90
        0
280
     0
281
     0
  0
CLASS
  1
LWPOLYLINE
  2
AcDbPolyline
  3
AutoCAD 2000
 90
        0
280
     0
281
     1
  0
CLASS
  1
HATCH
  2
AcDbHatch
  3
AutoCAD 2000
 90
        0
280
     0
281
     1
  0
CLASS
  1
XRECORD
  2
AcDbXrecord
  3
AutoCAD 2000
 90
        0
280
     0
281
     0
  0
CLASS
  1
LONG_TRANSACTION
  2
AcDbLongTransaction
  3
AutoCAD 2000
 90
        0
280
     0
281
     0
  0
CLASS
  1
LWPOLYLINE
  2
AcDbPolyline
  3
AutoCAD 2000
 90
        0
280
     0
281
     1
  0
CLASS
  1
HATCH
  2
AcDbHatch
  3
AutoCAD 2000
 90
        0
280
     0
281
     1
  0
CLASS
  1
XRECORD
  2
AcDbXrecord
  3
AutoCAD 2000
 90
        0
280
     0
281
     0
  0
CLASS
  1
LONG_TRANSACTION
  2
AcDbLongTransaction
  3
AutoCAD 2000
 90
        0
280
     0
281
     0
  0
CLASS
  1
LWPOLYLINE
  2
AcDbPolyline
  3
AutoCAD 2000
 90
        0
280
     0
281
     1
  0
CLASS
  1
HATCH
  2
AcDbHatch
  3
AutoCAD 2000
 90
        0
280
     0
281
     1
  0
CLASS
  1
XRECORD
  2
AcDbXrecord
  3
AutoCAD 2000
 90
        0
280
     0
281
     0
  0
CLASS
  1
LONG_TRANSACTION
  2
AcDbLongTransaction
  3
AutoCAD 2000
 90
        0
280
     0
281
     0
  0
CLASS
  1
LWPOLYLINE
  2
AcDbPolyline
  3
AutoCAD 2000
 90
        0
280
     0
281
     1
  0
CLASS
  1
HATCH
  2
AcDbHatch
  3
AutoCAD 2000
 90
        0
280
     0
281
     1
  0
CLASS
  1
XRECORD
  2
AcDbXrecord
  3
AutoCAD 2000
 90
        0
280
     0
281
     0
  0
CLASS
  1
LONG_TRANSACTION
  2
AcDbLongTransaction
  3
AutoCAD 2000
 90
        0
280
     0
281
     0
  0
CLASS
  1
LWPOLYLINE
  2
AcDbPolyline
  3
AutoCAD 2000
 90
        0
280
     0
281
     1
  0
CLASS
  1
HATCH
  2
AcDbHatch
  3
AutoCAD 2000
 90
        0
280
     0
281
     1
  0
CLASS
  1
XRECORD
  2
AcDbXrecord
  3
AutoCAD 2000
 90
        0
280
     0
281
     0
  0
CLASS
  1
LONG_TRANSACTION
  2
AcDbLongTransaction
  3
AutoCAD 2000
 90
        0
280
     0
281
     0
  0
CLASS
  1
LWPOLYLINE
  2
AcDbPolyline
  3
AutoCAD 2000
 90
        0
280
     0
281
     1
  0
CLASS
  1
HATCH
  2
AcDbHatch
  3
AutoCAD 2000
 90
        0
280
     0
281
     1
  0
CLASS
  1
XRECORD
  2
AcDbXrecord
  3
AutoCAD 2000
 90
        0
280
     0
281
     0
  0
CLASS
  1
LONG_TRANSACTION
  2
AcDbLongTransaction
  3
AutoCAD 2000
 90
        0
280
     0
281
     0
  0
CLASS
  1
LWPOLYLINE
  2
AcDbPolyline
  3
AutoCAD 2000
 90
        0
280
     0
281
     1
  0
CLASS
  1
HATCH
  2
AcDbHatch
  3
AutoCAD 2000
 90
        0
280
     0
281
     1
  0
CLASS
  1
XRECORD
  2
AcDbXrecord
  3
AutoCAD 2000
 90
        0
280
     0
281
     0
  0
CLASS
  1
LONG_TRANSACTION
  2
AcDbLongTransaction
  3
AutoCAD 2000
 90
        0
280
     0
281
     0
  0
CLASS
  1
LWPOLYLINE
  2
AcDbPolyline
  3
AutoCAD 2000
 90
        0
280
     0
281
     1
  0
CLASS
  1
HATCH
  2
AcDbHatch
  3
AutoCAD 2000
 90
        0
280
     0
281
     1
  0
CLASS
  1
XRECORD
  2
AcDbXrecord
  3
AutoCAD 2000
 90
        0
280
     0
281
     0
  0
CLASS
  1
LONG_TRANSACTION
  2
AcDbLongTransaction
  3
AutoCAD 2000
 90
        0
280
     0
281
     0
  0
CLASS
  1
LWPOLYLINE
  2
AcDbPolyline
  3
AutoCAD 2000
 90
        0
280
     0
281
     1
  0
CLASS
  1
HATCH
  2
AcDbHatch
  3
AutoCAD 2000
 90
        0
280
     0
281
     1
  0
CLASS
  1
XRECORD
  2
AcDbXrecord
  3
AutoCAD 2000
 90
        0
280
     0
281
     0
  0
CLASS
  1
LONG_TRANSACTION
  2
AcDbLongTransaction
  3
AutoCAD 2000
 90
        0
280
     0
281
     0
  0
CLASS
  1
LWPOLYLINE
  2
AcDbPolyline
  3
AutoCAD 2000
 90
        0
280
     0
281
     1
  0
CLASS
  1
HATCH
  2
AcDbHatch
  3
AutoCAD 2000
 90
        0
280
     0
281
     1
  0
CLASS
  1
XRECORD
  2
AcDbXrecord
  3
AutoCAD 2000
 90
        0
280
     0
281
     0
  0
CLASS
  1
LONG_TRANSACTION
  2
AcDbLongTransaction
  3
AutoCAD 2000
 90
        0
280
     0
281
     0
  0
CLASS
  1
LWPOLYLINE
  2
AcDbPolyline
  3
AutoCAD 2000
 90
        0
280
     0
281
     1
  0
CLASS
  1
HATCH
  2
AcDbHatch
  3
AutoCAD 2000
 90
        0
280
     0
281
     1
  0
CLASS
  1
XRECORD
  2
AcDbXrecord
  3
AutoCAD 2000
 90
        0
280
     0
281
     0
  0
CLASS
  1
LONG_TRANSACTION
  2
AcDbLongTransaction
  3
AutoCAD 2000
 90
        0
280
     0
281
     0
  0
CLASS
  1
LWPOLYLINE
  2
AcDbPolyline
  3
AutoCAD 2000
 90
        0
280
     0
281
     1
  0
CLASS
  1
HATCH
  2
AcDbHatch
  3
AutoCAD 2000
 90
        0
280
     0
281
     1
  0
CLASS
  1
XRECORD
  2
AcDbXrecord
  3
AutoCAD 2000
 90
        0
280
     0
281
     0
  0
CLASS
  1
LONG_TRANSACTION
  2
AcDbLongTransaction
  3
AutoCAD 2000
 90
        0
280
     0
281
     0
  0
CLASS
  1
LWPOLYLINE
  2
AcDbPolyline
  3
AutoCAD 2000
 90
        0
280
     0
281
     1
  0
CLASS
  1
HATCH
  2
AcDbHatch
  3
AutoCAD 2000
 90
        0
280
     0
281
     1
  0
CLASS
  1
XRECORD
  2
AcDbXrecord
  3
AutoCAD 2000
 90
        0
280
     0
281
     0
  0
CLASS
  1
LONG_TRANSACTION
  2
AcDbLongTransaction
  3
AutoCAD 2000
 90
        0
280
     0
281
     0
  0
CLASS
  1
LWPOLYLINE
  2
AcDbPolyline
  3
AutoCAD 2000
 90
        0
280
     0
281
     1
  0
CLASS
  1
HATCH
  2
AcDbHatch
  3
AutoCAD 2000
 90
        0
280
     0
281
     1
  0
CLASS
  1
XRECORD
  2
AcDbXrecord
  3
AutoCAD 2000
 90
        0
280
     0
281
     0
  0
CLASS
  1
LONG_TRANSACTION
  2
AcDbLongTransaction
  3
AutoCAD 2000
 90
        0
280
     0
281
     0
  0
CLASS
  1
LWPOLYLINE
  2
AcDbPolyline
  3
AutoCAD 2000
 90
        0
280
     0
281
     1
  0
CLASS
  1
HATCH
  2
AcDbHatch
  3
AutoCAD 2000
 90
        0
280
     0
281
     1
  0
CLASS
  1
XRECORD
  2
AcDbXrecord
  3
AutoCAD 2000
 90
        0
280
     0
281
     0
  0
CLASS
  1
LONG_TRANSACTION
  2
AcDbLongTransaction
  3
AutoCAD 2000
 90
        0
280
     0
281
     0
  0
CLASS
  1
LWPOLYLINE
  2
AcDbPolyline
  3
AutoCAD 2000
 90
        0
280
     0
281
     1
  0
CLASS
  1
HATCH
  2
AcDbHatch
  3
AutoCAD 2000
 90
        0
280
     0
281
     1
  0
CLASS
  1
XRECORD
  2
AcDbXrecord
  3
AutoCAD 2000
 90
        0
280
     0
281
     0
  0
CLASS
  1
LONG_TRANSACTION
  2
AcDbLongTransaction
  3
AutoCAD 2000
 90
        0
280
     0
281
     0
  0
CLASS
  1
LWPOLYLINE
  2
AcDbPolyline
  3
AutoCAD 2000
 90
        0
280
     0
281
     1
  0
CLASS
  1
HATCH
  2
AcDbHatch
  3
AutoCAD 2000
 90
        0
280
     0
281
     1
  0
CLASS
  1
XRECORD
  2
AcDbXrecord
  3
AutoCAD 2000
 90
        0
280
     0
281
     0
  0
CLASS
  1
LONG_TRANSACTION
  2
AcDbLongTransaction
  3
AutoCAD 2000
 90
        0
280
     0
281
     0
  0
CLASS
  1
LWPOLYLINE
  2
AcDbPolyline
  3
AutoCAD 2000
 90
        0
280
     0
281
     1
  0
CLASS
  1
HATCH
  2
AcDbHatch
  3
AutoCAD 2000
 90
        0
280
     0
281
     1
  0
CLASS
  1
XRECORD
  2
AcDbXrecord
  3
AutoCAD 2000
 90
        0
280
     0
281
     0
  0
CLASS
  1
LONG_TRANSACTION
  2
AcDbLongTransaction
  3
AutoCAD 2000
 90
        0
280
     0
281
     0
  0
CLASS
  1
LWPOLYLINE
  2
AcDbPolyline
  3
AutoCAD 2000
 90
        0
280
     0
281
     1
  0
CLASS
  1
HATCH
  2
AcDbHatch
  3
AutoCAD 2000
 90
        0
280
     0
281
     1
  0
CLASS
  1
XRECORD
  2
AcDbXrecord
  3
AutoCAD 2000
 90
        0
280
     0
281
     0
  0
CLASS
  1
LONG_TRANSACTION
  2
AcDbLongTransaction
  3
AutoCAD 2000
 90
        0
280
     0
281
     0
  0
CLASS
  1
LWPOLYLINE
  2
AcDbPolyline
  3
AutoCAD 2000
 90
        0
280
     0
281
     1
  0
CLASS
  1
HATCH
  2
AcDbHatch
  3
AutoCAD 2000
 90
        0
280
     0
281
     1
  0
CLASS
  1
XRECORD
  2
AcDbXrecord
  3
AutoCAD 2000
 90
        0
280
     0
281
     0
  0
CLASS
  1
LONG_TRANSACTION
  2
AcDbLongTransaction
  3
AutoCAD 2000
 90
        0
280
     0
281
     0
  0
CLASS
  1
LWPOLYLINE
  2
AcDbPolyline
  3
AutoCAD 2000
 90
        0
280
     0
281
     1
  0
CLASS
  1
HATCH
  2
AcDbHatch
  3
AutoCAD 2000
 90
        0
280
     0
281
     1
  0
CLASS
  1
XRECORD
  2
AcDbXrecord
  3
AutoCAD 2000
 90
        0
280
     0
281
     0
  0
CLASS
  1
LONG_TRANSACTION
  2
AcDbLongTransaction
  3
AutoCAD 2000
 90
        0
280
     0
281
     0
  0
CLASS
  1
LWPOLYLINE
  2
AcDbPolyline
  3
AutoCAD 2000
 90
        0
280
     0
281
     1
  0
CLASS
  1
HATCH
  2
AcDbHatch
  3
AutoCAD 2000
 90
        0
280
     0
281
     1
  0
CLASS
  1
XRECORD
  2
AcDbXrecord
  3
AutoCAD 2000
 90
        0
280
     0
281
     0
  0
CLASS
  1
LONG_TRANSACTION
  2
AcDbLongTransaction
  3
AutoCAD 2000
 90
        0
280
     0
281
     0
  0
CLASS
  1
LWPOLYLINE
  2
AcDbPolyline
  3
AutoCAD 2000
 90
        0
280
     0
281
     1
  0
CLASS
  1
HATCH
  2
AcDbHatch
  3
AutoCAD 2000
 90
        0
280
     0
281
     1
  0
CLASS
  1
XRECORD
  2
AcDbXrecord
  3
AutoCAD 2000
 90
        0
280
     0
281
     0
  0
CLASS
  1
LONG_TRANSACTION
  2
AcDbLongTransaction
  3
AutoCAD 2000
 90
        0
280
     0
281
     0
  0
CLASS
  1
LWPOLYLINE
  2
AcDbPolyline
  3
AutoCAD 2000
 90
        0
280
     0
281
     1
  0
CLASS
  1
HATCH
  2
AcDbHatch
  3
AutoCAD 2000
 90
        0
280
     0
281
     1
  0
CLASS
  1
XRECORD
  2
AcDbXrecord
  3
AutoCAD 2000
 90
        0
280
     0
281
     0
  0
CLASS
  1
LONG_TRANSACTION
  2
AcDbLongTransaction
  3
AutoCAD 2000
 90
        0
280
     0
281
     0
  0
CLASS
  1
LWPOLYLINE
  2
AcDbPolyline
  3
AutoCAD 2000
 90
        0
280
     0
281
     1
  0
CLASS
  1
HATCH
  2
AcDbHatch
  3
AutoCAD 2000
 90
        0
280
     0
281
     1
  0
CLASS
  1
XRECORD
  2
AcDbXrecord
  3
AutoCAD 2000
 90
        0
280
     0
281
     0
  0
CLASS
  1
LONG_TRANSACTION
  2
AcDbLongTransaction
  3
AutoCAD 2000
 90
        0
280
     0
281
     0
  0
CLASS
  1
LWPOLYLINE
  2
AcDbPolyline
  3
AutoCAD 2000
 90
        0
280
     0
281
     1
  0
CLASS
  1
HATCH
  2
AcDbHatch
  3
AutoCAD 2000
 90
        0
280
     0
281
     1
  0
CLASS
  1
XRECORD
  2
AcDbXrecord
  3
AutoCAD 2000
 90
        0
280
     0
281
     0
  0
CLASS
  1
LONG_TRANSACTION
  2
AcDbLongTransaction
  3
AutoCAD 2000
 90
        0
280
     0
281
     0
  0
CLASS
  1
LWPOLYLINE
  2
AcDbPolyline
  3
AutoCAD 2000
 90
        0
280
     0
281
     1
  0
CLASS
  1
HATCH
  2
AcDbHatch
  3
AutoCAD 2000
 90
        0
280
     0
281
     1
  0
CLASS
  1
XRECORD
  2
AcDbXrecord
  3
AutoCAD 2000
 90
        0
280
     0
281
     0
  0
CLASS
  1
LONG_TRANSACTION
  2
AcDbLongTransaction
  3
AutoCAD 2000
 90
        0
280
     0
281
     0
  0
CLASS
  1
LWPOLYLINE
  2
AcDbPolyline
  3
AutoCAD 2000
 90
        0
280
     0
281
     1
  0
CLASS
  1
HATCH
  2
AcDbHatch
  3
AutoCAD 2000
 90
        0
280
     0
281
     1
  0
CLASS
  1
XRECORD
  2
AcDbXrecord
  3
AutoCAD 2000
 90
        0
280
     0
281
     0
  0
CLASS
  1
LONG_TRANSACTION
  2
AcDbLongTransaction
  3
AutoCAD 2000
 90
        0
280
     0
281
     0
  0
CLASS
  1
LWPOLYLINE
  2
AcDbPolyline
  3
AutoCAD 2000
 90
        0
280
     0
281
     1
  0
CLASS
  1
HATCH
  2
AcDbHatch
  3
AutoCAD 2000
 90
        0
280
     0
281
     1
  0
CLASS
  1
XRECORD
  2
AcDbXrecord
  3
AutoCAD 2000
 90
        0
280
     0
281
     0
  0
CLASS
  1
LONG_TRANSACTION
  2
AcDbLongTransaction
  3
AutoCAD 2000
 90
        0
280
     0
281
     0
  0
CLASS
  1
LWPOLYLINE
  2
AcDbPolyline
  3
AutoCAD 2000
 90
        0
280
     0
281
     1
  0
CLASS
  1
HATCH
  2
AcDbHatch
  3
AutoCAD 2000
 90
        0
280
     0
281
     1
  0
CLASS
  1
XRECORD
  2
AcDbXrecord
  3
AutoCAD 2000
 90
        0
280
     0
281
     0
  0
CLASS
  1
LONG_TRANSACTION
  2
AcDbLongTransaction
  3
AutoCAD 2000
 90
        0
280
     0
281
     0
  0
CLASS
  1
LWPOLYLINE
  2
AcDbPolyline
  3
AutoCAD 2000
 90
        0
280
     0
281
     1
  0
CLASS
  1
HATCH
  2
AcDbHatch
  3
AutoCAD 2000
 90
        0
280
     0
281
     1
  0
CLASS
  1
XRECORD
  2
AcDbXrecord
  3
AutoCAD 2000
 90
        0
280
     0
281
     0
  0
CLASS
  1
LONG_TRANSACTION
  2
AcDbLongTransaction
  3
AutoCAD 2000
 90
        0
280
     0
281
     0
  0
CLASS
  1
LWPOLYLINE
  2
AcDbPolyline
  3
AutoCAD 2000
 90
        0
280
     0
281
     1
  0
CLASS
  1
HATCH
  2
AcDbHatch
  3
AutoCAD 2000
 90
        0
280
     0
281
     1
  0
CLASS
  1
XRECORD
  2
AcDbXrecord
  3
AutoCAD 2000
 90
        0
280
     0
281
     0
  0
CLASS
  1
LONG_TRANSACTION
  2
AcDbLongTransaction
  3
AutoCAD 2000
 90
        0
280
     0
281
     0
  0
CLASS
  1
LWPOLYLINE
  2
AcDbPolyline
  3
AutoCAD 2000
 90
        0
280
     0
281
     1
  0
CLASS
  1
HATCH
  2
AcDbHatch
  3
AutoCAD 2000
 90
        0
280
     0
281
     1
  0
CLASS
  1
XRECORD
  2
AcDbXrecord
  3
AutoCAD 2000
 90
        0
280
     0
281
     0
  0
CLASS
  1
LONG_TRANSACTION
  2
AcDbLongTransaction
  3
AutoCAD 2000
 90
        0
280
     0
281
     0
  0
CLASS
  1
LWPOLYLINE
  2
AcDbPolyline
  3
AutoCAD 2000
 90
        0
280
     0
281
     1
  0
CLASS
  1
HATCH
  2
AcDbHatch
  3
AutoCAD 2000
 90
        0
280
     0
281
     1
  0
CLASS
  1
XRECORD
  2
AcDbXrecord
  3
AutoCAD 2000
 90
        0
280
     0
281
     0
  0
CLASS
  1
LONG_TRANSACTION
  2
AcDbLongTransaction
  3
AutoCAD 2000
 90
        0
280
     0
281
     0
  0
CLASS
  1
LWPOLYLINE
  2
AcDbPolyline
  3
AutoCAD 2000
 90
        0
280
     0
281
     1
  0
CLASS
  1
HATCH
  2
AcDbHatch
  3
AutoCAD 2000
 90
        0
280
     0
281
     1
  0
CLASS
  1
XRECORD
  2
AcDbXrecord
  3
AutoCAD 2000
 90
        0
280
     0
281
     0
  0
CLASS
  1
LONG_TRANSACTION
  2
AcDbLongTransaction
  3
AutoCAD 2000
 90
        0
280
     0
281
     0
  0
CLASS
  1
LWPOLYLINE
  2
AcDbPolyline
  3
AutoCAD 2000
 90
        0
280
     0
281
     1
  0
CLASS
  1
HATCH
  2
AcDbHatch
  3
AutoCAD 2000
 90
        0
280
     0
281
     1
  0
CLASS
  1
XRECORD
  2
AcDbXrecord
  3
AutoCAD 2000
 90
        0
280
     0
281
     0
  0
CLASS
  1
LONG_TRANSACTION
  2
AcDbLongTransaction
  3
AutoCAD 2000
 90
        0
280
     0
281
     0
  0
CLASS
  1
LWPOLYLINE
  2
AcDbPolyline
  3
AutoCAD 2000
 90
        0
280
     0
281
     1
  0
CLASS
  1
HATCH
  2
AcDbHatch
  3
AutoCAD 2000
 90
        0
280
     0
281
     1
  0
CLASS
  1
XRECORD
  2
AcDbXrecord
  3
AutoCAD 2000
 90
        0
280
     0
281
     0
  0
CLASS
  1
LONG_TRANSACTION
  2
AcDbLongTransaction
  3
AutoCAD 2000
 90
        0
280
     0
281
     0
  0
CLASS
  1
LWPOLYLINE
  2
AcDbPolyline
  3
AutoCAD 2000
 90
        0
280
     0
281
     1
  0
CLASS
  1
HATCH
  2
AcDbHatch
  3
AutoCAD 2000
 90
        0
280
     0
281
     1
  0
CLASS
  1
XRECORD
  2
AcDbXrecord
  3
AutoCAD 2000
 90
        0
280
     0
281
     0
  0
CLASS
  1
LONG_TRANSACTION
  2
AcDbLongTransaction
  3
AutoCAD 2000
 90
        0
280
     0
281
     0
  0
CLASS
  1
LWPOLYLINE
  2
AcDbPolyline
  3
AutoCAD 2000
 90
        0
280
     0
281
     1
  0
CLASS
  1
HATCH
  2
AcDbHatch
  3
AutoCAD 2000
 90
        0
280
     0
281
     1
  0
CLASS
  1
XRECORD
  2
AcDbXrecord
  3
AutoCAD 2000
 90
        0
280
     0
281
     0
  0
CLASS
  1
LONG_TRANSACTION
  2
AcDbLongTransaction
  3
AutoCAD 2000
 90
        0
280
     0
281
     0
  0
CLASS
  1
LWPOLYLINE
  2
AcDbPolyline
  3
AutoCAD 2000
 90
        0
280
     0
281
     1
  0
CLASS
  1
HATCH
  2
AcDbHatch
  3
AutoCAD 2000
 90
        0
280
     0
281
     1
  0
CLASS
  1
XRECORD
  2
AcDbXrecord
  3
AutoCAD 2000
 90
        0
280
     0
281
     0
  0
CLASS
  1
LONG_TRANSACTION
  2
AcDbLongTransaction
  3
AutoCAD 2000
 90
        0
280
     0
281
     0
  0
CLASS
  1
LWPOLYLINE
  2
AcDbPolyline
  3
AutoCAD 2000
 90
        0
280
     0
281
     1
  0
CLASS
  1
HATCH
  2
AcDbHatch
  3
AutoCAD 2000
 90
        0
280
     0
281
     1
  0
CLASS
  1
XRECORD
  2
AcDbXrecord
  3
AutoCAD 2000
 90
        0
280
     0
281
     0
  0
CLASS
  1
LONG_TRANSACTION
  2
AcDbLongTransaction
  3
AutoCAD 2000
 90
        0
280
     0
281
     0
  0
CLASS
  1
LWPOLYLINE
  2
AcDbPolyline
  3
AutoCAD 2000
 90
        0
280
     0
281
     1
  0
CLASS
  1
HATCH
  2
AcDbHatch
  3
AutoCAD 2000
 90
        0
280
     0
281
     1
  0
CLASS
  1
XRECORD
  2
AcDbXrecord
  3
AutoCAD 2000
 90
        0
280
     0
281
     0
  0
CLASS
  1
LONG_TRANSACTION
  2
AcDbLongTransaction
  3
AutoCAD 2000
 90
        0
280
     0
281
     0
  0
CLASS
  1
LWPOLYLINE
  2
AcDbPolyline
  3
AutoCAD 2000
 90
        0
280
     0
281
     1
  0
CLASS
  1
HATCH
  2
AcDbHatch
  3
AutoCAD 2000
 90
        0
280
     0
281
     1
  0
CLASS
  1
XRECORD
  2
AcDbXrecord
  3
AutoCAD 2000
 90
        0
280
     0
281
     0
  0
CLASS
  1
LONG_TRANSACTION
  2
AcDbLongTransaction
  3
AutoCAD 2000
 90
        0
280
     0
281
     0
  0
CLASS
  1
LWPOLYLINE
  2
AcDbPolyline
  3
AutoCAD 2000
 90
        0
280
     0
281
     1
  0
CLASS
  1
HATCH
  2
AcDbHatch
  3
AutoCAD 2000
 90
        0
280
     0
281
     1
  0
CLASS
  1
XRECORD
  2
AcDbXrecord
  3
AutoCAD 2000
 90
        0
280
     0
281
     0
  0
CLASS
  1
LONG_TRANSACTION
  2
AcDbLongTransaction
  3
AutoCAD 2000
 90
        0
280
     0
281
     0
  0
CLASS
  1
LWPOLYLINE
  2
AcDbPolyline
  3
AutoCAD 2000
 90
        0
280
     0
281
     1
  0
CLASS
  1
HATCH
  2
AcDbHatch
  3
AutoCAD 2000
 90
        0
280
     0
281
     1
  0
CLASS
  1
XRECORD
  2
AcDbXrecord
  3
AutoCAD 2000
 90
        0
280
     0
281
     0
  0
CLASS
  1
LONG_TRANSACTION
  2
AcDbLongTransaction
  3
AutoCAD 2000
 90
        0
280
     0
281
     0
  0
CLASS
  1
LWPOLYLINE
  2
AcDbPolyline
  3
AutoCAD 2000
 90
        0
280
     0
281
     1
  0
CLASS
  1
HATCH
  2
AcDbHatch
  3
AutoCAD 2000
 90
        0
280
     0
281
     1
  0
CLASS
  1
XRECORD
  2
AcDbXrecord
  3
AutoCAD 2000
 90
        0
280
     0
281
     0
  0
CLASS
  1
LONG_TRANSACTION
  2
AcDbLongTransaction
  3
AutoCAD 2000
 90
        0
280
     0
281
     0
  0
CLASS
  1
LWPOLYLINE
  2
AcDbPolyline
  3
AutoCAD 2000
 90
        0
280
     0
281
     1
  0
CLASS
  1
HATCH
  2
AcDbHatch
  3
AutoCAD 2000
 90
        0
280
     0
281
     1
  0
CLASS
  1
XRECORD
  2
AcDbXrecord
  3
AutoCAD 2000
 90
        0
280
     0
281
     0
  0
CLASS
  1
LONG_TRANSACTION
  2
AcDbLongTransaction
  3
AutoCAD 2000
 90
        0
280
     0
281
     0
  0
CLASS
  1
LWPOLYLINE
  2
AcDbPolyline
  3
AutoCAD 2000
 90
        0
280
     0
281
     1
  0
CLASS
  1
HATCH
  2
AcDbHatch
  3
AutoCAD 2000
 90
        0
280
     0
281
     1
  0
CLASS
  1
XRECORD
  2
AcDbXrecord
  3
AutoCAD 2000
 90
        0
280
     0
281
     0
  0
CLASS
  1
LONG_TRANSACTION
  2
AcDbLongTransaction
  3
AutoCAD 2000
 90
        0
280
     0
281
     0
  0
CLASS
  1
LWPOLYLINE
  2
AcDbPolyline
  3
AutoCAD 2000
 90
        0
280
     0
281
     1
  0
CLASS
  1
HATCH
  2
AcDbHatch
  3
AutoCAD 2000
 90
        0
280
     0
281
     1
  0
CLASS
  1
XRECORD
  2
AcDbXrecord
  3
AutoCAD 2000
 90
        0
280
     0
281
     0
  0
CLASS
  1
LONG_TRANSACTION
  2
AcDbLongTransaction
  3
AutoCAD 2000
 90
        0
280
     0
281
     0
  0
CLASS
  1
LWPOLYLINE
  2
AcDbPolyline
  3
AutoCAD 2000
 90
        0
280
     0
281
     1
  0
CLASS
  1
HATCH
  2
AcDbHatch
  3
AutoCAD 2000
 90
        0
280
     0
281
     1
  0
CLASS
  1
XRECORD
  2
AcDbXrecord
  3
AutoCAD 2000
 90
        0
280
     0
281
     0
  0
CLASS
  1
LONG_TRANSACTION
  2
AcDbLongTransaction
  3
AutoCAD 2000
 90
        0
280
     0
281
     0
  0
CLASS
  1
LWPOLYLINE
  2
AcDbPolyline
  3
AutoCAD 2000
 90
        0
280
     0
281
     1
  0
CLASS
  1
HATCH
  2
AcDbHatch
  3
AutoCAD 2000
 90
        0
280
     0
281
     1
  0
CLASS
  1
XRECORD
  2
AcDbXrecord
  3
AutoCAD 2000
 90
        0
280
     0
281
     0
  0
CLASS
  1
LONG_TRANSACTION
  2
AcDbLongTransaction
  3
AutoCAD 2000
 90
        0
280
     0
281
     0
  0
CLASS
  1
LWPOLYLINE
  2
AcDbPolyline
  3
AutoCAD 2000
 90
        0
280
     0
281
     1
  0
CLASS
  1
HATCH
  2
AcDbHatch
  3
AutoCAD 2000
 90
        0
280
     0
281
     1
  0
CLASS
  1
XRECORD
  2
AcDbXrecord
  3
AutoCAD 2000
 90
        0
280
     0
281
     0
  0
CLASS
  1
LONG_TRANSACTION
  2
AcDbLongTransaction
  3
AutoCAD 2000
 90
        0
280
     0
281
     0
  0
CLASS
  1
LWPOLYLINE
  2
AcDbPolyline
  3
AutoCAD 2000
 90
        0
280
     0
281
     1
  0
CLASS
  1
HATCH
  2
AcDbHatch
  3
AutoCAD 2000
 90
        0
280
     0
281
     1
  0
CLASS
  1
XRECORD
  2
AcDbXrecord
  3
AutoCAD 2000
 90
        0
280
     0
281
     0
  0
CLASS
  1
LONG_TRANSACTION
  2
AcDbLongTransaction
  3
AutoCAD 2000
 90
        0
280
     0
281
     0
  0
CLASS
  1
LWPOLYLINE
  2
AcDbPolyline
  3
AutoCAD 2000
 90
        0
280
     0
281
     1
  0
CLASS
  1
HATCH
  2
AcDbHatch
  3
AutoCAD 2000
 90
        0
280
     0
281
     1
  0
CLASS
  1
XRECORD
  2
AcDbXrecord
  3
AutoCAD 2000
 90
        0
280
     0
281
     0
  0
CLASS
  1
LONG_TRANSACTION
  2
AcDbLongTransaction
  3
AutoCAD 2000
 90
        0
280
     0
281
     0
  0
CLASS
  1
LWPOLYLINE
  2
AcDbPolyline
  3
AutoCAD 2000
 90
        0
280
     0
281
     1
  0
CLASS
  1
HATCH
  2
AcDbHatch
  3
AutoCAD 2000
 90
        0
280
     0
281
     1
  0
CLASS
  1
XRECORD
  2
AcDbXrecord
  3
AutoCAD 2000
 90
        0
280
     0
281
     0
  0
CLASS
  1
LONG_TRANSACTION
  2
AcDbLongTransaction
  3
AutoCAD 2000
 90
        0
280
     0
281
     0
  0
CLASS
  1
LWPOLYLINE
  2
AcDbPolyline
  3
AutoCAD 2000
 90
        0
280
     0
281
     1
  0
CLASS
  1
HATCH
  2
AcDbHatch
  3
AutoCAD 2000
 90
        0
280
     0
281
     1
  0
CLASS
  1
XRECORD
  2
AcDbXrecord
  3
AutoCAD 2000
 90
        0
280
     0
281
     0
  0
CLASS
  1
LONG_TRANSACTION
  2
AcDbLongTransaction
  3
AutoCAD 2000
 90
        0
280
     0
281
     0
  0
CLASS
  1
LWPOLYLINE
  2
AcDbPolyline
  3
AutoCAD 2000
 90
        0
280
     0
281
     1
  0
CLASS
  1
HATCH
  2
AcDbHatch
  3
AutoCAD 2000
 90
        0
280
     0
281
     1
  0
CLASS
  1
XRECORD
  2
AcDbXrecord
  3
AutoCAD 2000
 90
        0
280
     0
281
     0
  0
CLASS
  1
LONG_TRANSACTION
  2
AcDbLongTransaction
  3
AutoCAD 2000
 90
        0
280
     0
281
     0
  0
CLASS
  1
LWPOLYLINE
  2
AcDbPolyline
  3
AutoCAD 2000
 90
        0
280
     0
281
     1
  0
CLASS
  1
HATCH
  2
AcDbHatch
  3
AutoCAD 2000
 90
        0
280
     0
281
     1
  0
CLASS
  1
XRECORD
  2
AcDbXrecord
  3
AutoCAD 2000
 90
        0
280
     0
281
     0
  0
CLASS
  1
LONG_TRANSACTION
  2
AcDbLongTransaction
  3
AutoCAD 2000
 90
        0
280
     0
281
     0
  0
CLASS
  1
LWPOLYLINE
  2
AcDbPolyline
  3
AutoCAD 2000
 90
        0
280
     0
281
     1
  0
CLASS
  1
HATCH
  2
AcDbHatch
  3
AutoCAD 2000
 90
        0
280
     0
281
     1
  0
CLASS
  1
XRECORD
  2
AcDbXrecord
  3
AutoCAD 2000
 90
        0
280
     0
281
     0
  0
CLASS
  1
LONG_TRANSACTION
  2
AcDbLongTransaction
  3
AutoCAD 2000
 90
        0
280
     0
281
     0
  0
CLASS
  1
LWPOLYLINE
  2
AcDbPolyline
  3
AutoCAD 2000
 90
        0
280
     0
281
     1
  0
CLASS
  1
HATCH
  2
AcDbHatch
  3
AutoCAD 2000
 90
        0
280
     0
281
     1
  0
CLASS
  1
XRECORD
  2
AcDbXrecord
  3
AutoCAD 2000
 90
        0
280
     0
281
     0
  0
CLASS
  1
LONG_TRANSACTION
  2
AcDbLongTransaction
  3
AutoCAD 2000
 90
        0
280
     0
281
     0
  0
CLASS
  1
LWPOLYLINE
  2
AcDbPolyline
  3
AutoCAD 2000
 90
        0
280
     0
281
     1
  0
CLASS
  1
HATCH
  2
AcDbHatch
  3
AutoCAD 2000
 90
        0
280
     0
281
     1
  0
CLASS
  1
XRECORD
  2
AcDbXrecord
  3
AutoCAD 2000
 90
        0
280
     0
281
     0
  0
CLASS
  1
LONG_TRANSACTION
  2
AcDbLongTransaction
  3
AutoCAD 2000
 90
        0
280
     0
281
     0
  0
CLASS
  1
LWPOLYLINE
  2
AcDbPolyline
  3
AutoCAD 2000
 90
        0
280
     0
281
     1
  0
CLASS
  1
HATCH
  2
AcDbHatch
  3
AutoCAD 2000
 90
        0
280
     0
281
     1
  0
CLASS
  1
XRECORD
  2
AcDbXrecord
  3
AutoCAD 2000
 90
        0
280
     0
281
     0
  0
CLASS
  1
LONG_TRANSACTION
  2
AcDbLongTransaction
  3
AutoCAD 2000
 90
        0
280
     0
281
     0
  0
CLASS
  1
LWPOLYLINE
  2
AcDbPolyline
  3
AutoCAD 2000
 90
        0
280
     0
281
     1
  0
CLASS
  1
HATCH
  2
AcDbHatch
  3
AutoCAD 2000
 90
        0
280
     0
281
     1
  0
CLASS
  1
XRECORD
  2
AcDbXrecord
  3
AutoCAD 2000
 90
        0
280
     0
281
     0
  0
CLASS
  1
LONG_TRANSACTION
  2
AcDbLongTransaction
  3
AutoCAD 2000
 90
        0
280
     0
281
     0
  0
CLASS
  1
LWPOLYLINE
  2
AcDbPolyline
  3
AutoCAD 2000
 90
        0
280
     0
281
     1
  0
CLASS
  1
HATCH
  2
AcDbHatch
  3
AutoCAD 2000
 90
        0
280
     0
281
     1
  0
CLASS
  1
XRECORD
  2
AcDbXrecord
  3
AutoCAD 2000
 90
        0
280
     0
281
     0
  0
CLASS
  1
LONG_TRANSACTION
  2
AcDbLongTransaction
  3
AutoCAD 2000
 90
        0
280
     0
281
     0
  0
CLASS
  1
LWPOLYLINE
  2
AcDbPolyline
  3
AutoCAD 2000
 90
        0
280
     0
281
     1
  0
CLASS
  1
HATCH
  2
AcDbHatch
  3
AutoCAD 2000
 90
        0
280
     0
281
     1
  0
CLASS
  1
XRECORD
  2
AcDbXrecord
  3
AutoCAD 2000
 90
        0
280
     0
281
     0
  0
CLASS
  1
LONG_TRANSACTION
  2
AcDbLongTransaction
  3
AutoCAD 2000
 90
        0
280
     0
281
     0
  0
CLASS
  1
LWPOLYLINE
  2
AcDbPolyline
  3
AutoCAD 2000
 90
        0
280
     0
281
     1
  0
CLASS
  1
HATCH
  2
AcDbHatch
  3
AutoCAD 2000
 90
        0
280
     0
281
     1
  0
CLASS
  1
XRECORD
  2
AcDbXrecord
  3
AutoCAD 2000
 90
        0
280
     0
281
     0
  0
CLASS
  1
LONG_TRANSACTION
  2
AcDbLongTransaction
  3
AutoCAD 2000
 90
        0
280
     0
281
     0
  0
CLASS
  1
LWPOLYLINE
  2
AcDbPolyline
  3
AutoCAD 2000
 90
        0
280
     0
281
     1
  0
CLASS
  1
HATCH
  2
AcDbHatch
  3
AutoCAD 2000
 90
        0
280
     0
281
     1
  0
CLASS
  1
XRECORD
  2
AcDbXrecord
  3
AutoCAD 2000
 90
        0
280
     0
281
     0
  0
CLASS
  1
LONG_TRANSACTION
  2
AcDbLongTransaction
  3
AutoCAD 2000
 90
        0
280
     0
281
     0
  0
CLASS
  1
LWPOLYLINE
  2
AcDbPolyline
  3
AutoCAD 2000
 90
        0
280
     0
281
     1
  0
CLASS
  1
HATCH
  2
AcDbHatch
  3
AutoCAD 2000
 90
        0
280
     0
281
     1
  0
CLASS
  1
XRECORD
  2
AcDbXrecord
  3
AutoCAD 2000
 90
        0
280
     0
281
     0
  0
CLASS
  1
LONG_TRANSACTION
  2
AcDbLongTransaction
  3
AutoCAD 2000
 90
        0
280
     0
281
     0
  0
CLASS
  1
LWPOLYLINE
  2
AcDbPolyline
  3
AutoCAD 2000
 90
        0
280
     0
281
     1
  0
CLASS
  1
HATCH
  2
AcDbHatch
  3
AutoCAD 2000
 90
        0
280
     0
281
     1
  0
CLASS
  1
XRECORD
  2
AcDbXrecord
  3
AutoCAD 2000
 90
        0
280
     0
281
     0
  0
CLASS
  1
LONG_TRANSACTION
  2
AcDbLongTransaction
  3
AutoCAD 2000
 90
        0
280
     0
281
     0
  0
CLASS
  1
LWPOLYLINE
  2
AcDbPolyline
  3
AutoCAD 2000
 90
        0
280
     0
281
     1
  0
CLASS
  1
HATCH
  2
AcDbHatch
  3
AutoCAD 2000
 90
        0
280
     0
281
     1
  0
CLASS
  1
XRECORD
  2
AcDbXrecord
  3
AutoCAD 2000
 90
        0
280
     0
281
     0
  0
CLASS
  1
LONG_TRANSACTION
  2
AcDbLongTransaction
  3
AutoCAD 2000
 90
        0
280
     0
281
     0
  0
CLASS
  1
LWPOLYLINE
  2
AcDbPolyline
  3
AutoCAD 2000
 90
        0
280
     0
281
     1
  0
CLASS
  1
HATCH
  2
AcDbHatch
  3
AutoCAD 2000
 90
        0
280
     0
281
     1
  0
CLASS
  1
XRECORD
  2
AcDbXrecord
  3
AutoCAD 2000
 90
        0
280
     0
281
     0
  0
CLASS
  1
LONG_TRANSACTION
  2
AcDbLongTransaction
  3
AutoCAD 2000
 90
        0
280
     0
281
     0
  0
CLASS
  1
LWPOLYLINE
  2
AcDbPolyline
  3
AutoCAD 2000
 90
        0
280
     0
281
     1
  0
CLASS
  1
HATCH
  2
AcDbHatch
  3
AutoCAD 2000
 90
        0
280
     0
281
     1
  0
CLASS
  1
XRECORD
  2
AcDbXrecord
  3
AutoCAD 2000
 90
        0
280
     0
281
     0
  0
CLASS
  1
LONG_TRANSACTION
  2
AcDbLongTransaction
  3
AutoCAD 2000
 90
        0
280
     0
281
     0
  0
CLASS
  1
LWPOLYLINE
  2
AcDbPolyline
  3
AutoCAD 2000
 90
        0
280
     0
281
     1
  0
CLASS
  1
HATCH
  2
AcDbHatch
  3
AutoCAD 2000
 90
        0
280
     0
281
     1
  0
CLASS
  1
XRECORD
  2
AcDbXrecord
  3
AutoCAD 2000
 90
        0
280
     0
281
     0
  0
CLASS
  1
LONG_TRANSACTION
  2
AcDbLongTransaction
  3
AutoCAD 2000
 90
        0
280
     0
281
     0
  0
CLASS
  1
LWPOLYLINE
  2
AcDbPolyline
  3
AutoCAD 2000
 90
        0
280
     0
281
     1
  0
CLASS
  1
HATCH
  2
AcDbHatch
  3
AutoCAD 2000
 90
        0
280
     0
281
     1
  0
CLASS
  1
XRECORD
  2
AcDbXrecord
  3
AutoCAD 2000
 90
        0
280
     0
281
     0
  0
CLASS
  1
LONG_TRANSACTION
  2
AcDbLongTransaction
  3
AutoCAD 2000
 90
        0
280
     0
281
     0
  0
CLASS
  1
LWPOLYLINE
  2
AcDbPolyline
  3
AutoCAD 2000
 90
        0
280
     0
281
     1
  0
CLASS
  1
HATCH
  2
AcDbHatch
  3
AutoCAD 2000
 90
        0
280
     0
281
     1
  0
CLASS
  1
XRECORD
  2
AcDbXrecord
  3
AutoCAD 2000
 90
        0
280
     0
281
     0
  0
CLASS
  1
LONG_TRANSACTION
  2
AcDbLongTransaction
  3
AutoCAD 2000
 90
        0
280
     0
281
     0
  0
CLASS
  1
LWPOLYLINE
  2
AcDbPolyline
  3
AutoCAD 2000
 90
        0
280
     0
281
     1
  0
CLASS
  1
HATCH
  2
AcDbHatch
  3
AutoCAD 2000
 90
        0
280
     0
281
     1
  0
CLASS
  1
XRECORD
  2
AcDbXrecord
  3
AutoCAD 2000
 90
        0
280
     0
281
     0
  0
CLASS
  1
LONG_TRANSACTION
  2
AcDbLongTransaction
  3
AutoCAD 2000
 90
        0
280
     0
281
     0
  0
CLASS
  1
LWPOLYLINE
  2
AcDbPolyline
  3
AutoCAD 2000
 90
        0
280
     0
281
     1
  0
CLASS
  1
HATCH
  2
AcDbHatch
  3
AutoCAD 2000
 90
        0
280
     0
281
     1
  0
CLASS
  1
XRECORD
  2
AcDbXrecord
  3
AutoCAD 2000
 90
        0
280
     0
281
     0
  0
CLASS
  1
LONG_TRANSACTION
  2
AcDbLongTransaction
  3
AutoCAD 2000
 90
        0
280
     0
281
     0
  0
CLASS
  1
LWPOLYLINE
  2
AcDbPolyline
  3
AutoCAD 2000
 90
        0
280
     0
281
     1
  0
CLASS
  1
HATCH
  2
AcDbHatch
  3
AutoCAD 2000
 90
        0
280
     0
281
     1
  0
CLASS
  1
XRECORD
  2
AcDbXrecord
  3
AutoCAD 2000
 90
        0
280
     0
281
     0
  0
CLASS
  1
LONG_TRANSACTION
  2
AcDbLongTransaction
  3
AutoCAD 2000
 90
        0
280
     0
281
     0
  0
CLASS
  1
LWPOLYLINE
  2
AcDbPolyline
  3
AutoCAD 2000
 90
        0
280
     0
281
     1
  0
CLASS
  1
HATCH
  2
AcDbHatch
  3
AutoCAD 2000
 90
        0
280
     0
281
     1
  0
CLASS
  1
XRECORD
  2
AcDbXrecord
  3
AutoCAD 2000
 90
        0
280
     0
281
     0
  0
CLASS
  1
LONG_TRANSACTION
  2
AcDbLongTransaction
  3
AutoCAD 2000
 90
        0
280
     0
281
     0
  0
CLASS
  1
LWPOLYLINE
  2
AcDbPolyline
  3
AutoCAD 2000
 90
        0
280
     0
281
     1
  0
CLASS
  1
HATCH
  2
AcDbHatch
  3
AutoCAD 2000
 90
        0
280
     0
281
     1
  0
CLASS
  1
XRECORD
  2
AcDbXrecord
  3
AutoCAD 2000
 90
        0
280
     0
281
     0
  0
CLASS
  1
LONG_TRANSACTION
  2
AcDbLongTransaction
  3
AutoCAD 2000
 90
        0
280
     0
281
     0
  0
CLASS
  1
LWPOLYLINE
  2
AcDbPolyline
  3
AutoCAD 2000
 90
        0
280
     0
281
     1
  0
CLASS
  1
HATCH
  2
AcDbHatch
  3
AutoCAD 2000
 90
        0
280
     0
281
     1
  0
CLASS
  1
XRECORD
  2
AcDbXrecord
  3
AutoCAD 2000
 90
        0
280
     0
281
     0
  0
CLASS
  1
LONG_TRANSACTION
  2
AcDbLongTransaction
  3
AutoCAD 2000
 90
        0
280
     0
281
     0
  0
CLASS
  1
LWPOLYLINE
  2
AcDbPolyline
  3
AutoCAD 2000
 90
        0
280
     0
281
     1
  0
CLASS
  1
HATCH
  2
AcDbHatch
  3
AutoCAD 2000
 90
        0
280
     0
281
     1
  0
CLASS
  1
XRECORD
  2
AcDbXrecord
  3
AutoCAD 2000
 90
        0
280
     0
281
     0
  0
CLASS
  1
LONG_TRANSACTION
  2
AcDbLongTransaction
  3
AutoCAD 2000
 90
        0
280
     0
281
     0
  0
CLASS
  1
LWPOLYLINE
  2
AcDbPolyline
  3
AutoCAD 2000
 90
        0
280
     0
281
     1
  0
CLASS
  1
HATCH
  2
AcDbHatch
  3
AutoCAD 2000
 90
        0
280
     0
281
     1
  0
CLASS
  1
XRECORD
  2
AcDbXrecord
  3
AutoCAD 2000
 90
        0
280
     0
281
     0
  0
CLASS
  1
LONG_TRANSACTION
  2
AcDbLongTransaction
  3
AutoCAD 2000
 90
        0
280
     0
281
     0
  0
CLASS
  1
LWPOLYLINE
  2
AcDbPolyline
  3
AutoCAD 2000
 90
        0
280
     0
281
     1
  0
CLASS
  1
HATCH
  2
AcDbHatch
  3
AutoCAD 2000
 90
        0
280
     0
281
     1
  0
CLASS
  1
XRECORD
  2
AcDbXrecord
  3
AutoCAD 2000
 90
        0
280
     0
281
     0
  0
CLASS
  1
LONG_TRANSACTION
  2
AcDbLongTransaction
  3
AutoCAD 2000
 90
        0
280
     0
281
     0
  0
CLASS
  1
LWPOLYLINE
  2
AcDbPolyline
  3
AutoCAD 2000
 90
        0
280
     0
281
     1
  0
CLASS
  1
HATCH
  2
AcDbHatch
  3
AutoCAD 2000
 90
        0
280
     0
281
     1
  0
CLASS
  1
XRECORD
  2
AcDbXrecord
  3
AutoCAD 2000
 90
        0
280
     0
281
     0
  0
CLASS
  1
LONG_TRANSACTION
  2
AcDbLongTransaction
  3
AutoCAD 2000
 90
        0
280
     0
281
     0
  0
CLASS
  1
LWPOLYLINE
  2
AcDbPolyline
  3
AutoCAD 2000
 90
        0
280
     0
281
     1
  0
CLASS
  1
HATCH
  2
AcDbHatch
  3
AutoCAD 2000
 90
        0
280
     0
281
     1
  0
CLASS
  1
XRECORD
  2
AcDbXrecord
  3
AutoCAD 2000
 90
        0
280
     0
281
     0
  0
CLASS
  1
LONG_TRANSACTION
  2
AcDbLongTransaction
  3
AutoCAD 2000
 90
        0
280
     0
281
     0
  0
CLASS
  1
LWPOLYLINE
  2
AcDbPolyline
  3
AutoCAD 2000
 90
        0
280
     0
281
     1
  0
CLASS
  1
HATCH
  2
AcDbHatch
  3
AutoCAD 2000
 90
        0
280
     0
281
     1
  0
CLASS
  1
XRECORD
  2
AcDbXrecord
  3
AutoCAD 2000
 90
        0
280
     0
281
     0
  0
CLASS
  1
LONG_TRANSACTION
  2
AcDbLongTransaction
  3
AutoCAD 2000
 90
        0
280
     0
281
     0
  0
CLASS
  1
LWPOLYLINE
  2
AcDbPolyline
  3
AutoCAD 2000
 90
        0
280
     0
281
     1
  0
CLASS
  1
HATCH
  2
AcDbHatch
  3
AutoCAD 2000
 90
        0
280
     0
281
     1
  0
CLASS
  1
XRECORD
  2
AcDbXrecord
  3
AutoCAD 2000
 90
        0
280
     0
281
     0
  0
CLASS
  1
LONG_TRANSACTION
  2
AcDbLongTransaction
  3
AutoCAD 2000
 90
        0
280
     0
281
     0
  0
CLASS
  1
LWPOLYLINE
  2
AcDbPolyline
  3
AutoCAD 2000
 90
        0
280
     0
281
     1
  0
CLASS
  1
HATCH
  2
AcDbHatch
  3
AutoCAD 2000
 90
        0
280
     0
281
     1
  0
CLASS
  1
XRECORD
  2
AcDbXrecord
  3
AutoCAD 2000
 90
        0
280
     0
281
     0
  0
CLASS
  1
LONG_TRANSACTION
  2
AcDbLongTransaction
  3
AutoCAD 2000
 90
        0
280
     0
281
     0
  0
CLASS
  1
LWPOLYLINE
  2
AcDbPolyline
  3
AutoCAD 2000
 90
        0
280
     0
281
     1
  0
CLASS
  1
HATCH
  2
AcDbHatch
  3
AutoCAD 2000
 90
        0
280
     0
281
     1
  0
CLASS
  1
XRECORD
  2
AcDbXrecord
  3
AutoCAD 2000
 90
        0
280
     0
281
     0
  0
CLASS
  1
LONG_TRANSACTION
  2
AcDbLongTransaction
  3
AutoCAD 2000
 90
        0
280
     0
281
     0
  0
CLASS
  1
LWPOLYLINE
  2
AcDbPolyline
  3
AutoCAD 2000
 90
        0
280
     0
281
     1
  0
CLASS
  1
HATCH
  2
AcDbHatch
  3
AutoCAD 2000
 90
        0
280
     0
281
     1
  0
CLASS
  1
XRECORD
  2
AcDbXrecord
  3
AutoCAD 2000
 90
        0
280
     0
281
     0
  0
CLASS
  1
LONG_TRANSACTION
  2
AcDbLongTransaction
  3
AutoCAD 2000
 90
        0
280
     0
281
     0
  0
CLASS
  1
LWPOLYLINE
  2
AcDbPolyline
  3
AutoCAD 2000
 90
        0
280
     0
281
     1
  0
CLASS
  1
HATCH
  2
AcDbHatch
  3
AutoCAD 2000
 90
        0
280
     0
281
     1
  0
CLASS
  1
XRECORD
  2
AcDbXrecord
  3
AutoCAD 2000
 90
        0
280
     0
281
     0
  0
CLASS
  1
LONG_TRANSACTION
  2
AcDbLongTransaction
  3
AutoCAD 2000
 90
        0
280
     0
281
     0
  0
CLASS
  1
LWPOLYLINE
  2
AcDbPolyline
  3
AutoCAD 2000
 90
        0
280
     0
281
     1
  0
CLASS
  1
HATCH
  2
AcDbHatch
  3
AutoCAD 2000
 90
        0
280
     0
281
     1
  0
CLASS
  1
XRECORD
  2
AcDbXrecord
  3
AutoCAD 2000
 90
        0
280
     0
281
     0
  0
ENDSEC
  0
SECTION
  2
TABLES
  0
TABLE
  2
VPORT
  5
92
330
0
100
AcDbSymbolTable
 70
     2
  0
VPORT
  5
5BC
330
92
100
AcDbSymbolTableRecord
100
AcDbViewportTableRecord
  2
*ACTIVE
 70
     0
 10
0.0
 20
0.0
 11
1.0
 21
1.0
 12
57.86322248385241
 22
244.6521817651858
 13
0.0
 23
0.0
 14
10.0
 24
10.0
 15
10.0
 25
10.0
 16
0.0
 26
0.0
 36
1.0
 17
0.0
 27
0.0
 37
0.0
 40
509.555988626939
 41
1.162878787878787
 42
50.0
 43
0.0
 44
0.0
 50
0.0
 51
0.0
 71
     0
 72
 10000
 73
     1
 74
     3
 75
     0
 76
     0
 77
     0
 78
     1
  0
ENDTAB
  0
TABLE
  2
LTYPE
  5
8D
330
0
100
AcDbSymbolTable
 70
     3
  0
LTYPE
  5
8E
330
8D
100
AcDbSymbolTableRecord
100
AcDbLinetypeTableRecord
  2
BYBLOCK
 70
     0
  3

 72
    65
 73
     0
 40
0.0
  0
LTYPE
  5
8F
330
8D
100
AcDbSymbolTableRecord
100
AcDbLinetypeTableRecord
  2
BYLAYER
 70
     0
  3

 72
    65
 73
     0
 40
0.0
  0
LTYPE
  5
A
330
8D
100
AcDbSymbolTableRecord
100
AcDbLinetypeTableRecord
  2
CONTINUOUS
 70
     0
  3
Solid line
 72
    65
 73
     0
 40
0.0
  0
LTYPE
  5
C8
330
8D
100
AcDbSymbolTableRecord
100
AcDbLinetypeTableRecord
  2
CENTER
 70
     0
  3
Center ____ _ ____ _ ____ _ ____ _ ____ _ ____
 72
    65
 73
     4
 40
50.8
 49
31.75
 74
     0
 49
-6.349999999999997
 74
     0
 49
6.349999999999997
 74
     0
 49
-6.349999999999997
 74
     0
  0
LTYPE
  5
1D8
330
8D
100
AcDbSymbolTableRecord
100
AcDbLinetypeTableRecord
  2
HIDDEN
 70
     0
  3
Hidden __ __ __ __ __ __ __ __ __ __ __ __ __ _
 72
    65
 73
     2
 40
9.524999999999996
 49
6.349999999999997
 74
     0
 49
-3.174999999999998
 74
     0
  0
ENDTAB
  0
TABLE
  2
LAYER
  5
14
102
{ACAD_XDICTIONARY
360
15
102
}
330
0
100
AcDbSymbolTable
 70
     7
  0
LAYER
  5
6
330
14
100
AcDbSymbolTableRecord
100
AcDbLayerTableRecord
  2
0
 70
     0
 62
     7
  6
CONTINUOUS
  0
LAYER
  5
238
330
14
100
AcDbSymbolTableRecord
100
AcDbLayerTableRecord
  2
3
 70
     0
 62
     3
  6
CONTINUOUS
  0
LAYER
  5
2B9
330
14
100
AcDbSymbolTableRecord
100
AcDbLayerTableRecord
  2
1
 70
     0
 62
     1
  6
CENTER
  0
LAYER
  5
AD
330
14
100
AcDbSymbolTableRecord
100
AcDbLayerTableRecord
  2
DEFPOINTS
 70
     0
 62
     7
  6
CONTINUOUS
  0
LAYER
  5
1B8
330
14
100
AcDbSymbolTableRecord
100
AcDbLayerTableRecord
  2
DIM
 70
     0
 62
     3
  6
CONTINUOUS
  0
LAYER
  5
C7
330
14
100
AcDbSymbolTableRecord
100
AcDbLayerTableRecord
  2
CEN
 70
     0
 62
     1
  6
CENTER
  0
LAYER
  5
22E
330
14
100
AcDbSymbolTableRecord
100
AcDbLayerTableRecord
  2
2
 70
     0
 62
     2
  6
CONTINUOUS
  0
ENDTAB
  0
TABLE
  2
STYLE
  5
8A
330
0
100
AcDbSymbolTable
 70
     2
  0
STYLE
  5
8B
330
8A
100
AcDbSymbolTableRecord
100
AcDbTextStyleTableRecord
  2
STANDARD
 70
     0
 40
0.0
 41
1.0
 50
0.0
 71
     0
 42
5.777225951253058
  3
romans.shx
  4
whgtxt.shx
  0
STYLE
  5
2BA
330
8A
100
AcDbSymbolTableRecord
100
AcDbTextStyleTableRecord
  2
GHS
 70
     0
 40
0.0
 41
0.6
 50
0.0
 71
     0
 42
3.0
  3
ROMANS
  4
GHS
  0
ENDTAB
  0
TABLE
  2
VIEW
  5
90
330
0
100
AcDbSymbolTable
 70
     0
  0
ENDTAB
  0
TABLE
  2
UCS
  5
91
330
0
100
AcDbSymbolTable
 70
     0
  0
ENDTAB
  0
TABLE
  2
APPID
  5
94
330
0
100
AcDbSymbolTable
 70
     2
  0
APPID
  5
95
330
94
100
AcDbSymbolTableRecord
100
AcDbRegAppTableRecord
  2
ACAD
 70
     0
  0
APPID
  5
563
330
94
100
AcDbSymbolTableRecord
100
AcDbRegAppTableRecord
  2
CONTENTBLOCKICON
 70
     0
  0
ENDTAB
  0
TABLE
  2
DIMSTYLE
  5
96
330
0
100
AcDbSymbolTable
 70
     2
  0
DIMSTYLE
105
A4
102
{ACAD_REACTORS
330
CA
330
36B
330
2BB
330
A1
330
B2
330
26A
330
279
330
288
330
299
330
239
330
24E
330
37A
330
2D2
330
EA
330
33F
330
2ED
330
2FA
330
30A
330
31A
330
F7
330
16F
330
17E
330
1A6
330
108
330
117
330
124
330
133
330
140
330
1DE
330
1F1
330
14F
330
15E
330
21E
102
}
330
96
100
AcDbSymbolTableRecord
100
AcDbDimStyleTableRecord
  2
STANDARD
 70
     0
  3

  4

  5

  6

  7

 40
1.0
 41
2.5
 42
1.0
 43
10.0
 44
0.6
 45
0.0
 46
0.0
 47
0.0
 48
0.0
140
3.0
141
0.09
142
0.0
143
25.4
144
1.0
145
0.0
146
1.0
147
1.0
 71
     0
 72
     0
 73
     0
 74
     0
 75
     0
 76
     0
 77
     1
 78
     8
170
     0
171
     2
172
     1
173
     0
174
     1
175
     0
176
   123
177
   123
178
     3
270
     2
271
     2
272
     2
273
     2
274
     2
340
8B
275
     1
280
     0
281
     0
282
     0
283
     1
284
     0
285
     0
286
     0
287
     3
288
     1
  0
DIMSTYLE
105
9C
330
96
100
AcDbSymbolTableRecord
100
AcDbDimStyleTableRecord
  2
1_1_2
 70
     0
  3

  4

  5

  6

  7

 40
1.0
 41
3.0
 42
1.0
 43
10.0
 44
0.6
 45
0.0
 46
0.0
 47
0.0
 48
0.0
140
3.5
141
0.09
142
0.0
143
25.4
144
1.0
145
0.0
146
1.0
147
1.0
 71
     0
 72
     0
 73
     0
 74
     0
 75
     0
 76
     0
 77
     1
 78
     8
170
     0
171
     2
172
     1
173
     0
174
     1
175
     0
176
   123
177
   123
178
     3
270
     2
271
     2
272
     2
273
     2
274
     2
340
8B
275
     1
280
     0
281
     0
282
     0
283
     1
284
     0
285
     0
286
     0
287
     3
288
     1
  0
ENDTAB
  0
TABLE
  2
BLOCK_RECORD
  5
1
330
0
100
AcDbSymbolTable
 70
    66
  0
BLOCK_RECORD
  5
2
102
{ACAD_XDICTIONARY
360
3
102
}
330
1
100
AcDbSymbolTableRecord
100
AcDbBlockTableRecord
  2
*MODEL_SPACE
  0
BLOCK_RECORD
  5
E
102
{ACAD_XDICTIONARY
360
F
102
}
330
1
100
AcDbSymbolTableRecord
100
AcDbBlockTableRecord
  2
*PAPER_SPACE
  0
BLOCK_RECORD
  5
C4
330
1
100
AcDbSymbolTableRecord
100
AcDbBlockTableRecord
  2
5
1001
ACAD
1000
DesignCenter Data
1002
{
1070
     1
1070
     4
1002
}
1001
CONTENTBLOCKICON
1071
        0
1004
2800000020000000200000000100080000000000000400000000000000000000000000000000000000000000000080000080000000808000800000008000800080800000C0C0C000C0DCC000F0CAA6000020400000206000002080000020A0000020C0000020E00000400000004020000040400000406000004080000040A0
1004
000040C0000040E00000600000006020000060400000606000006080000060A0000060C0000060E00000800000008020000080400000806000008080000080A0000080C0000080E00000A0000000A0200000A0400000A0600000A0800000A0A00000A0C00000A0E00000C0000000C0200000C0400000C0600000C0800000C0
1004
A00000C0C00000C0E00000E0000000E0200000E0400000E0600000E0800000E0A00000E0C00000E0E00040000000400020004000400040006000400080004000A0004000C0004000E00040200000402020004020400040206000402080004020A0004020C0004020E000404000004040200040404000404060004040800040
1004
40A0004040C0004040E00040600000406020004060400040606000406080004060A0004060C0004060E00040800000408020004080400040806000408080004080A0004080C0004080E00040A0000040A0200040A0400040A0600040A0800040A0A00040A0C00040A0E00040C0000040C0200040C0400040C0600040C08000
1004
40C0A00040C0C00040C0E00040E0000040E0200040E0400040E0600040E0800040E0A00040E0C00040E0E00080000000800020008000400080006000800080008000A0008000C0008000E00080200000802020008020400080206000802080008020A0008020C0008020E00080400000804020008040400080406000804080
1004
008040A0008040C0008040E00080600000806020008060400080606000806080008060A0008060C0008060E00080800000808020008080400080806000808080008080A0008080C0008080E00080A0000080A0200080A0400080A0600080A0800080A0A00080A0C00080A0E00080C0000080C0200080C0400080C0600080C0
1004
800080C0A00080C0C00080C0E00080E0000080E0200080E0400080E0600080E0800080E0A00080E0C00080E0E000C0000000C0002000C0004000C0006000C0008000C000A000C000C000C000E000C0200000C0202000C0204000C0206000C0208000C020A000C020C000C020E000C0400000C0402000C0404000C0406000C0
1004
408000C040A000C040C000C040E000C0600000C0602000C0604000C0606000C0608000C060A000C060C000C060E000C0800000C0802000C0804000C0806000C0808000C080A000C080C000C080E000C0A00000C0A02000C0A04000C0A06000C0A08000C0A0A000C0A0C000C0A0E000C0C00000C0C02000C0C04000C0C06000
1004
C0C08000C0C0A000F0FBFF00A4A0A000808080000000FF0000FF000000FFFF00FF000000FF00FF00FFFF0000FFFFFF0000000000000000000000000000000000000000000000000000000000000000000000000000000000000000000000000000000000000000000000000000000000000000000000000000000000000000
1004
00000000000000000000000000000000000000000000F9000000000000000000000000000000F900000000000000000000000000FFF90000000000000000000000000000000000FFF9000000000000000000F3F3F9FF0000000000000000000000000000000000FFFF00000000000000000000F9FF00F90000000000000000
1004
00000000000000F900F9000000000000000000000000F30000000000000000000000000000000000000000000000000000000000000000F3F30000000000000000000000000000000000000000000000000000000000000000F30000000000000000000000000000000000000000000000000000000000000000F300000000
1004
00000000000000000000000000000000000000000000000000000000F30000000000000000000000000000000000000000000000000000000000000000F3F30000000000000000000000000000000000000000000000000000000000000000F300000000000000000000000000000000000000000000000000000000000000
1004
00F30000000000000000000000000000000000000000000000000000000000000000F30000000000000000000000000000000000000000000000000000000000000000F3F30000000000000000000000000000000000000000000000000000000000000000F300000000000000000000000000000000000000000000000000
1004
00000000000000F30000000000000000000000000000000000000000000000000000000000000000F30000000000000000000000000000000000000000000000000000000000000000F3F30000000000000000000000000000000000000000000000000000000000000000F3F900000000000000000000F9FF00F900000000
1004
0000000000000000000000F9F9FFF300000000000000000000FFFF00000000000000000000000000000000F9F9FF00F3000000000000000000FF00F90000000000000000000000000000F900FFF900FAFA000000000000000000000000000000000000000000000000000000000000FAFAFAF3000000000000000000000000
1004
0000000000000000000000000000000000FAFAFAFA0000000000000000000000000000000000000000000000000000000000FAFAFAF3000000000000000000000000000000000000000000000000000000000000FA000000000000000000000000000000000000000000000000000000000000000000000000000000000000
1004
0000000000000000000000000000000000000000000000000000000000000000000000000000000000000000000000000000000000000000
  0
BLOCK_RECORD
  5
CD
330
1
100
AcDbSymbolTableRecord
100
AcDbBlockTableRecord
  2
*D1
  0
BLOCK_RECORD
  5
36C
330
1
100
AcDbSymbolTableRecord
100
AcDbBlockTableRecord
  2
*D2
  0
BLOCK_RECORD
  5
2BC
330
1
100
AcDbSymbolTableRecord
100
AcDbBlockTableRecord
  2
*D3
  0
BLOCK_RECORD
  5
27A
330
1
100
AcDbSymbolTableRecord
100
AcDbBlockTableRecord
  2
*D4
  0
BLOCK_RECORD
  5
2D3
330
1
100
AcDbSymbolTableRecord
100
AcDbBlockTableRecord
  2
*D5
  0
BLOCK_RECORD
  5
EB
330
1
100
AcDbSymbolTableRecord
100
AcDbBlockTableRecord
  2
*D6
  0
BLOCK_RECORD
  5
2EE
330
1
100
AcDbSymbolTableRecord
100
AcDbBlockTableRecord
  2
*D7
  0
BLOCK_RECORD
  5
2FB
330
1
100
AcDbSymbolTableRecord
100
AcDbBlockTableRecord
  2
*D8
  0
BLOCK_RECORD
  5
17F
330
1
100
AcDbSymbolTableRecord
100
AcDbBlockTableRecord
  2
*D9
  0
BLOCK_RECORD
  5
118
330
1
100
AcDbSymbolTableRecord
100
AcDbBlockTableRecord
  2
*D10
  0
BLOCK_RECORD
  5
134
330
1
100
AcDbSymbolTableRecord
100
AcDbBlockTableRecord
  2
*D11
  0
BLOCK_RECORD
  5
150
330
1
100
AcDbSymbolTableRecord
100
AcDbBlockTableRecord
  2
*D12
  0
BLOCK_RECORD
  5
A5
330
1
100
AcDbSymbolTableRecord
100
AcDbBlockTableRecord
  2
*D13
  0
BLOCK_RECORD
  5
B5
330
1
100
AcDbSymbolTableRecord
100
AcDbBlockTableRecord
  2
*D14
  0
BLOCK_RECORD
  5
26D
330
1
100
AcDbSymbolTableRecord
100
AcDbBlockTableRecord
  2
*D15
  0
BLOCK_RECORD
  5
28B
330
1
100
AcDbSymbolTableRecord
100
AcDbBlockTableRecord
  2
*D16
  0
BLOCK_RECORD
  5
29C
330
1
100
AcDbSymbolTableRecord
100
AcDbBlockTableRecord
  2
*D17
  0
BLOCK_RECORD
  5
23C
330
1
100
AcDbSymbolTableRecord
100
AcDbBlockTableRecord
  2
*D18
  0
BLOCK_RECORD
  5
251
330
1
100
AcDbSymbolTableRecord
100
AcDbBlockTableRecord
  2
*D19
  0
BLOCK_RECORD
  5
37D
330
1
100
AcDbSymbolTableRecord
100
AcDbBlockTableRecord
  2
*D20
  0
BLOCK_RECORD
  5
342
330
1
100
AcDbSymbolTableRecord
100
AcDbBlockTableRecord
  2
*D21
  0
BLOCK_RECORD
  5
30D
330
1
100
AcDbSymbolTableRecord
100
AcDbBlockTableRecord
  2
*D22
  0
BLOCK_RECORD
  5
31D
330
1
100
AcDbSymbolTableRecord
100
AcDbBlockTableRecord
  2
*D23
  0
BLOCK_RECORD
  5
FA
330
1
100
AcDbSymbolTableRecord
100
AcDbBlockTableRecord
  2
*D24
  0
BLOCK_RECORD
  5
172
330
1
100
AcDbSymbolTableRecord
100
AcDbBlockTableRecord
  2
*D25
  0
BLOCK_RECORD
  5
1A9
330
1
100
AcDbSymbolTableRecord
100
AcDbBlockTableRecord
  2
*D26
  0
BLOCK_RECORD
  5
10B
330
1
100
AcDbSymbolTableRecord
100
AcDbBlockTableRecord
  2
*D27
  0
BLOCK_RECORD
  5
127
330
1
100
AcDbSymbolTableRecord
100
AcDbBlockTableRecord
  2
*D28
  0
BLOCK_RECORD
  5
143
330
1
100
AcDbSymbolTableRecord
100
AcDbBlockTableRecord
  2
*D29
  0
BLOCK_RECORD
  5
1E1
330
1
100
AcDbSymbolTableRecord
100
AcDbBlockTableRecord
  2
*D30
  0
BLOCK_RECORD
  5
1F4
330
1
100
AcDbSymbolTableRecord
100
AcDbBlockTableRecord
  2
*D31
  0
BLOCK_RECORD
  5
161
330
1
100
AcDbSymbolTableRecord
100
AcDbBlockTableRecord
  2
*D32
  0
BLOCK_RECORD
  5
221
330
1
100
AcDbSymbolTableRecord
100
AcDbBlockTableRecord
  2
*D33
  0
BLOCK_RECORD
  5
397
330
1
100
AcDbSymbolTableRecord
100
AcDbBlockTableRecord
  2
*D34
  0
BLOCK_RECORD
  5
3A3
330
1
100
AcDbSymbolTableRecord
100
AcDbBlockTableRecord
  2
*D35
  0
BLOCK_RECORD
  5
3B1
330
1
100
AcDbSymbolTableRecord
100
AcDbBlockTableRecord
  2
*D36
  0
BLOCK_RECORD
  5
3BD
330
1
100
AcDbSymbolTableRecord
100
AcDbBlockTableRecord
  2
*D37
  0
BLOCK_RECORD
  5
3C9
330
1
100
AcDbSymbolTableRecord
100
AcDbBlockTableRecord
  2
*D38
  0
BLOCK_RECORD
  5
3D7
330
1
100
AcDbSymbolTableRecord
100
AcDbBlockTableRecord
  2
*D39
  0
BLOCK_RECORD
  5
3E3
330
1
100
AcDbSymbolTableRecord
100
AcDbBlockTableRecord
  2
*D40
  0
BLOCK_RECORD
  5
3EF
330
1
100
AcDbSymbolTableRecord
100
AcDbBlockTableRecord
  2
*D41
  0
BLOCK_RECORD
  5
3FB
330
1
100
AcDbSymbolTableRecord
100
AcDbBlockTableRecord
  2
*D42
  0
BLOCK_RECORD
  5
407
330
1
100
AcDbSymbolTableRecord
100
AcDbBlockTableRecord
  2
*D43
  0
BLOCK_RECORD
  5
413
330
1
100
AcDbSymbolTableRecord
100
AcDbBlockTableRecord
  2
*D44
  0
BLOCK_RECORD
  5
421
330
1
100
AcDbSymbolTableRecord
100
AcDbBlockTableRecord
  2
*D45
  0
BLOCK_RECORD
  5
42D
330
1
100
AcDbSymbolTableRecord
100
AcDbBlockTableRecord
  2
*D46
  0
BLOCK_RECORD
  5
439
330
1
100
AcDbSymbolTableRecord
100
AcDbBlockTableRecord
  2
*D47
  0
BLOCK_RECORD
  5
447
330
1
100
AcDbSymbolTableRecord
100
AcDbBlockTableRecord
  2
*D48
  0
BLOCK_RECORD
  5
453
330
1
100
AcDbSymbolTableRecord
100
AcDbBlockTableRecord
  2
*D49
  0
BLOCK_RECORD
  5
45F
330
1
100
AcDbSymbolTableRecord
100
AcDbBlockTableRecord
  2
*D50
  0
BLOCK_RECORD
  5
46B
330
1
100
AcDbSymbolTableRecord
100
AcDbBlockTableRecord
  2
*D51
  0
BLOCK_RECORD
  5
479
330
1
100
AcDbSymbolTableRecord
100
AcDbBlockTableRecord
  2
*D52
  0
BLOCK_RECORD
  5
487
330
1
100
AcDbSymbolTableRecord
100
AcDbBlockTableRecord
  2
*D53
  0
BLOCK_RECORD
  5
495
330
1
100
AcDbSymbolTableRecord
100
AcDbBlockTableRecord
  2
*D54
  0
BLOCK_RECORD
  5
4A1
330
1
100
AcDbSymbolTableRecord
100
AcDbBlockTableRecord
  2
*D55
  0
BLOCK_RECORD
  5
4AD
330
1
100
AcDbSymbolTableRecord
100
AcDbBlockTableRecord
  2
*D56
  0
BLOCK_RECORD
  5
4BB
330
1
100
AcDbSymbolTableRecord
100
AcDbBlockTableRecord
  2
*D57
  0
BLOCK_RECORD
  5
4C7
330
1
100
AcDbSymbolTableRecord
100
AcDbBlockTableRecord
  2
*D58
  0
BLOCK_RECORD
  5
4D3
330
1
100
AcDbSymbolTableRecord
100
AcDbBlockTableRecord
  2
*D59
  0
BLOCK_RECORD
  5
4DF
330
1
100
AcDbSymbolTableRecord
100
AcDbBlockTableRecord
  2
*D60
  0
BLOCK_RECORD
  5
4EB
330
1
100
AcDbSymbolTableRecord
100
AcDbBlockTableRecord
  2
*D61
  0
BLOCK_RECORD
  5
4F9
330
1
100
AcDbSymbolTableRecord
100
AcDbBlockTableRecord
  2
*D62
  0
BLOCK_RECORD
  5
505
330
1
100
AcDbSymbolTableRecord
100
AcDbBlockTableRecord
  2
*D63
  0
BLOCK_RECORD
  5
511
330
1
100
AcDbSymbolTableRecord
100
AcDbBlockTableRecord
  2
*D64
  0
BLOCK_RECORD
  5
51F
330
1
100
AcDbSymbolTableRecord
100
AcDbBlockTableRecord
  2
*D65
  0
ENDTAB
  0
ENDSEC
  0
SECTION
  2
BLOCKS
  0
BLOCK
  5
5
330
2
100
AcDbEntity
  8
0
100
AcDbBlockBegin
  2
*MODEL_SPACE
 70
     0
 10
0.0
 20
0.0
 30
0.0
  3
*MODEL_SPACE
  1

  0
ENDBLK
  5
B
330
2
100
AcDbEntity
  8
0
100
AcDbBlockEnd
  0
BLOCK
  5
11
330
E
100
AcDbEntity
 67
     1
  8
0
100
AcDbBlockBegin
  2
*PAPER_SPACE
 70
     0
 10
0.0
 20
0.0
 30
0.0
  3
*PAPER_SPACE
  1

  0
ENDBLK
  5
12
330
E
100
AcDbEntity
 67
     1
  8
0
100
AcDbBlockEnd
  0
BLOCK
  5
E1
330
C4
100
AcDbEntity
  8
0
100
AcDbBlockBegin
  2
5
 70
     0
 10
0.0
 20
0.0
 30
0.0
  3
5
  1

  0
CIRCLE
  5
C5
330
C4
100
AcDbEntity
  8
0
100
AcDbCircle
 10
33.23401871576971
 20
33.2340187157647
 30
0.0
 40
2.75
  0
LINE
  5
C6
330
C4
100
AcDbEntity
  8
CEN
 48
0.6
100
AcDbLine
 10
29.87526150513349
 20
29.87526150512849
 30
0.0
 11
36.59277592640592
 21
36.59277592640092
 31
0.0
  0
ARC
  5
C9
102
{ACAD_REACTORS
330
CC
102
}
330
C4
100
AcDbEntity
  8
CEN
 48
0.6
100
AcDbCircle
 10
-0.0000000000009095
 20
0.0
 30
0.0
 40
47.0
100
AcDbArc
 50
35.54155537381702
 51
54.45844462620417
  0
DIMENSION
  5
CA
102
{ACAD_XDICTIONARY
360
CB
102
}
102
{ACAD_REACTORS
330
CC
102
}
330
C4
100
AcDbEntity
  8
0
100
AcDbDimension
  2
*D1
 10
-37.12703852731556
 20
-28.81983709515498
 30
0.0
 11
52.82902883363476
 21
41.00849583681338
 31
0.0
 12
-5558.635528985877
 22
2192.234809732951
 32
0.0
 70
   131
  1
<>%%P0.5
  3
STANDARD
100
AcDbDiametricDimension
 15
37.12703852731374
 25
28.81983709515407
 35
0.0
 40
0.0
  0
ARC
  5
D8
330
C4
100
AcDbEntity
  8
CEN
 48
0.6
100
AcDbCircle
 10
-0.0000000000009095
 20
0.0000000000004547
 30
0.0
 40
47.0
100
AcDbArc
 50
126.7642625682232
 51
143.2357374317767
  0
LINE
  5
D9
330
C4
100
AcDbEntity
  8
CEN
 48
0.6
100
AcDbLine
 10
-29.87526150512985
 20
29.87526150513439
 30
0.0
 11
-36.59277592640228
 21
36.59277592640683
 31
0.0
  0
CIRCLE
  5
DA
330
C4
100
AcDbEntity
  8
0
100
AcDbCircle
 10
-33.23401871576605
 20
33.23401871577107
 30
0.0
 40
2.75
  0
LINE
  5
DB
330
C4
100
AcDbEntity
  8
CEN
 48
0.6
100
AcDbLine
 10
-29.87526150513439
 20
-29.87526150512895
 30
0.0
 11
-36.59277592640683
 21
-36.59277592640135
 31
0.0
  0
CIRCLE
  5
DC
330
C4
100
AcDbEntity
  8
0
100
AcDbCircle
 10
-33.23401871577061
 20
-33.23401871576516
 30
0.0
 40
2.75
  0
ARC
  5
DD
330
C4
100
AcDbEntity
  8
CEN
 48
0.6
100
AcDbCircle
 10
0.0
 20
-0.0000000000004547
 30
0.0
 40
47.0
100
AcDbArc
 50
215.5415553738169
 51
234.4584446262041
  0
ARC
  5
DE
330
C4
100
AcDbEntity
  8
CEN
 48
0.6
100
AcDbCircle
 10
-0.000000000001819
 20
-0.0000000000004547
 30
0.0
 40
47.0
100
AcDbArc
 50
306.7642625682233
 51
323.2357374317766
  0
LINE
  5
DF
330
C4
100
AcDbEntity
  8
CEN
 48
0.6
100
AcDbLine
 10
29.87526150512712
 20
-29.87526150513439
 30
0.0
 11
36.59277592639954
 21
-36.59277592640683
 31
0.0
  0
CIRCLE
  5
E0
330
C4
100
AcDbEntity
  8
0
100
AcDbCircle
 10
33.23401871576243
 20
-33.23401871577107
 30
0.0
 40
2.75
  0
ENDBLK
  5
E2
330
C4
100
AcDbEntity
  8
0
100
AcDbBlockEnd
  0
BLOCK
  5
D6
330
CD
100
AcDbEntity
  8
0
100
AcDbBlockBegin
  2
*D1
 70
     1
 10
0.0
 20
0.0
 30
0.0
  3
*D1
  1

  0
LINE
  5
CE
330
CD
100
AcDbEntity
  8
0
 62
   123
100
AcDbLine
 10
5519.533647983703
 20
-2222.58761688636
 30
0.0
 11
5517.558805508848
 21
-2224.120586944613
 31
0.0
  0
LINE
  5
CF
330
CD
100
AcDbEntity
  8
0
 62
   123
100
AcDbLine
 10
5597.737409988048
 20
-2161.882002579545
 30
0.0
 11
5619.53319993107
 21
-2144.963036229563
 31
0.0
  0
LINE
  5
D0
330
CD
100
AcDbEntity
  8
0
 62
   123
100
AcDbLine
 10
5521.508490458562
 20
-2221.054646828107
 30
0.0
 11
5595.762567513191
 21
-2163.414972637796
 31
0.0
  0
SOLID
  5
D1
330
CD
100
AcDbEntity
  8
0
 62
   123
100
AcDbTrace
 10
5519.278152973996
 20
-2222.258476473883
 30
0.0
 11
5519.789142993413
 21
-2222.916757298836
 31
0.0
 12
5521.508490458562
 22
-2221.054646828107
 32
0.0
 13
5521.508490458562
 23
-2221.054646828107
 33
0.0
  0
SOLID
  5
D2
330
CD
100
AcDbEntity
  8
0
 62
   123
100
AcDbTrace
 10
5597.481914978339
 20
-2161.552862167069
 30
0.0
 11
5597.992904997757
 21
-2162.21114299202
 31
0.0
 12
5595.762567513191
 22
-2163.414972637796
 32
0.0
 13
5595.762567513191
 23
-2163.414972637796
 33
0.0
  0
MTEXT
  5
D3
330
CD
100
AcDbEntity
  8
0
 62
     3
100
AcDbMText
 10
5609.931587761259
 20
-2149.251471421281
 30
0.0
 40
3.0
 41
0.0
 71
     5
 72
     1
  1
\A1;\U+220594%%P0.5
 11
0.7899369899428739
 21
0.6131880233011666
 31
0.0
1001
ACAD
1000
MTEXTBEGIN
1070
    73
1070
     1
1070
    44
1040
1.0
1070
    74
1070
     0
1000
MTEXTEND
1000
MTEXTBEGIN
1070
    73
1070
     1
1070
    44
1040
1.0
1070
    74
1070
     0
1000
MTEXTEND
1000
MTEXTBEGIN
1070
    73
1070
     1
1070
    44
1040
1.0
1070
    74
1070
     0
1000
MTEXTEND
  0
POINT
  5
D4
330
CD
100
AcDbEntity
  8
DEFPOINTS
 62
     0
100
AcDbPoint
 10
5595.762567513191
 20
-2163.414972637796
 30
0.0
  0
POINT
  5
D5
330
CD
100
AcDbEntity
  8
DEFPOINTS
 62
     0
100
AcDbPoint
 10
5521.508490458562
 20
-2221.054646828107
 30
0.0
  0
ENDBLK
  5
D7
330
CD
100
AcDbEntity
  8
0
100
AcDbBlockEnd
  0
BLOCK
  5
378
330
36C
100
AcDbEntity
  8
0
100
AcDbBlockBegin
  2
*D2
 70
     1
 10
0.0
 20
0.0
 30
0.0
  3
*D2
  1

  0
LINE
  5
36D
330
36C
100
AcDbEntity
  8
0
 62
   123
100
AcDbLine
 10
-4168.328499003711
 20
-2771.629784607278
 30
0.0
 11
-4168.328499003711
 21
-2764.919856698373
 31
0.0
  0
LINE
  5
36E
330
36C
100
AcDbEntity
  8
0
 62
   123
100
AcDbLine
 10
-4171.328499003712
 20
-2779.629784607278
 30
0.0
 11
-4171.328499003712
 21
-2764.919856698373
 31
0.0
  0
LINE
  5
36F
330
36C
100
AcDbEntity
  8
0
 62
   123
100
AcDbLine
 10
-4165.828499003714
 20
-2765.519856698372
 30
0.0
 11
-4163.328499003712
 21
-2765.519856698372
 31
0.0
  0
LINE
  5
370
330
36C
100
AcDbEntity
  8
0
 62
   123
100
AcDbLine
 10
-4173.828499003714
 20
-2765.519856698372
 30
0.0
 11
-4176.328499003711
 21
-2765.519856698372
 31
0.0
  0
LINE
  5
371
330
36C
100
AcDbEntity
  8
0
 62
   123
100
AcDbLine
 10
-4168.328499003711
 20
-2765.519856698372
 30
0.0
 11
-4171.328499003712
 21
-2765.519856698372
 31
0.0
  0
SOLID
  5
372
330
36C
100
AcDbEntity
  8
0
 62
   123
100
AcDbTrace
 10
-4165.828499003714
 20
-2765.103190031704
 30
0.0
 11
-4165.828499003714
 21
-2765.93652336504
 31
0.0
 12
-4168.328499003711
 22
-2765.519856698372
 32
0.0
 13
-4168.328499003711
 23
-2765.519856698372
 33
0.0
  0
SOLID
  5
373
330
36C
100
AcDbEntity
  8
0
 62
   123
100
AcDbTrace
 10
-4173.828499003714
 20
-2765.103190031704
 30
0.0
 11
-4173.828499003714
 21
-2765.93652336504
 31
0.0
 12
-4171.328499003712
 22
-2765.519856698372
 32
0.0
 13
-4171.328499003712
 23
-2765.519856698372
 33
0.0
  0
MTEXT
  5
374
330
36C
100
AcDbEntity
  8
0
 62
     3
100
AcDbMText
 10
-4169.828499003711
 20
-2763.019856698372
 30
0.0
 40
3.0
 41
0.0
 71
     5
 72
     1
  1
\A1;3
1001
ACAD
1000
MTEXTBEGIN
1070
    73
1070
     1
1070
    44
1040
1.0
1070
    74
1070
     0
1000
MTEXTEND
1000
MTEXTBEGIN
1070
    73
1070
     1
1070
    44
1040
1.0
1070
    74
1070
     0
1000
MTEXTEND
1000
MTEXTBEGIN
1070
    73
1070
     1
1070
    44
1040
1.0
1070
    74
1070
     0
1000
MTEXTEND
  0
POINT
  5
375
330
36C
100
AcDbEntity
  8
DEFPOINTS
 62
     0
100
AcDbPoint
 10
-4168.328499003711
 20
-2772.629784607278
 30
0.0
  0
POINT
  5
376
330
36C
100
AcDbEntity
  8
DEFPOINTS
 62
     0
100
AcDbPoint
 10
-4171.328499003712
 20
-2780.629784607278
 30
0.0
  0
POINT
  5
377
330
36C
100
AcDbEntity
  8
DEFPOINTS
 62
     0
100
AcDbPoint
 10
-4171.328499003712
 20
-2765.519856698372
 30
0.0
  0
ENDBLK
  5
379
330
36C
100
AcDbEntity
  8
0
100
AcDbBlockEnd
  0
BLOCK
  5
2C6
330
2BC
100
AcDbEntity
  8
0
100
AcDbBlockBegin
  2
*D3
 70
     1
 10
0.0
 20
0.0
 30
0.0
  3
*D3
  1

  0
LINE
  5
2BD
330
2BC
100
AcDbEntity
  8
0
 62
   123
100
AcDbLine
 10
-4125.828499003714
 20
-2852.629784607278
 30
0.0
 11
-4125.828499003714
 21
-2865.817465655569
 31
0.0
  0
LINE
  5
2BE
330
2BC
100
AcDbEntity
  8
0
 62
   123
100
AcDbLine
 10
-4168.328499003711
 20
-2852.629784607278
 30
0.0
 11
-4168.328499003711
 21
-2865.817465655569
 31
0.0
  0
LINE
  5
2BF
330
2BC
100
AcDbEntity
  8
0
 62
   123
100
AcDbLine
 10
-4128.328499003713
 20
-2865.217465655569
 30
0.0
 11
-4165.828499003714
 21
-2865.217465655569
 31
0.0
  0
SOLID
  5
2C0
330
2BC
100
AcDbEntity
  8
0
 62
   123
100
AcDbTrace
 10
-4128.328499003713
 20
-2864.800798988903
 30
0.0
 11
-4128.328499003713
 21
-2865.634132322236
 31
0.0
 12
-4125.828499003714
 22
-2865.217465655569
 32
0.0
 13
-4125.828499003714
 23
-2865.217465655569
 33
0.0
  0
SOLID
  5
2C1
330
2BC
100
AcDbEntity
  8
0
 62
   123
100
AcDbTrace
 10
-4165.828499003714
 20
-2864.800798988903
 30
0.0
 11
-4165.828499003714
 21
-2865.634132322236
 31
0.0
 12
-4168.328499003711
 22
-2865.217465655569
 32
0.0
 13
-4168.328499003711
 23
-2865.217465655569
 33
0.0
  0
MTEXT
  5
2C2
330
2BC
100
AcDbEntity
  8
0
 62
     3
100
AcDbMText
 10
-4147.078499003714
 20
-2862.717465655569
 30
0.0
 40
3.0
 41
0.0
 71
     5
 72
     1
  1
\A1;L
1001
ACAD
1000
MTEXTBEGIN
1070
    73
1070
     1
1070
    44
1040
1.0
1070
    74
1070
     0
1000
MTEXTEND
1000
MTEXTBEGIN
1070
    73
1070
     1
1070
    44
1040
1.0
1070
    74
1070
     0
1000
MTEXTEND
1000
MTEXTBEGIN
1070
    73
1070
     1
1070
    44
1040
1.0
1070
    74
1070
     0
1000
MTEXTEND
  0
POINT
  5
2C3
330
2BC
100
AcDbEntity
  8
DEFPOINTS
 62
     0
100
AcDbPoint
 10
-4125.828499003714
 20
-2851.629784607278
 30
0.0
  0
POINT
  5
2C4
330
2BC
100
AcDbEntity
  8
DEFPOINTS
 62
     0
100
AcDbPoint
 10
-4168.328499003711
 20
-2851.629784607278
 30
0.0
  0
POINT
  5
2C5
330
2BC
100
AcDbEntity
  8
DEFPOINTS
 62
     0
100
AcDbPoint
 10
-4168.328499003711
 20
-2865.217465655569
 30
0.0
  0
ENDBLK
  5
2C7
330
2BC
100
AcDbEntity
  8
0
100
AcDbBlockEnd
  0
BLOCK
  5
286
330
27A
100
AcDbEntity
  8
0
100
AcDbBlockBegin
  2
*D4
 70
     1
 10
0.0
 20
0.0
 30
0.0
  3
*D4
  1

  0
LINE
  5
27B
330
27A
100
AcDbEntity
  8
0
 62
   123
100
AcDbLine
 10
-4351.680123009031
 20
-2920.291456858613
 30
0.0
 11
-4343.911067853568
 21
-2920.291456858613
 31
0.0
  0
LINE
  5
27C
330
27A
100
AcDbEntity
  8
0
 62
   123
100
AcDbLine
 10
-4351.680123009031
 20
-2916.291456858613
 30
0.0
 11
-4343.911067853568
 21
-2916.291456858613
 31
0.0
  0
LINE
  5
27D
330
27A
100
AcDbEntity
  8
0
 62
   123
100
AcDbLine
 10
-4344.511067853568
 20
-2922.791456858613
 30
0.0
 11
-4344.511067853568
 21
-2925.291456858613
 31
0.0
  0
LINE
  5
27E
330
27A
100
AcDbEntity
  8
0
 62
   123
100
AcDbLine
 10
-4344.511067853568
 20
-2913.791456858612
 30
0.0
 11
-4344.511067853568
 21
-2894.727709350236
 31
0.0
  0
LINE
  5
27F
330
27A
100
AcDbEntity
  8
0
 62
   123
100
AcDbLine
 10
-4344.511067853568
 20
-2920.291456858613
 30
0.0
 11
-4344.511067853568
 21
-2916.291456858613
 31
0.0
  0
SOLID
  5
280
330
27A
100
AcDbEntity
  8
0
 62
   123
100
AcDbTrace
 10
-4344.927734520235
 20
-2922.791456858613
 30
0.0
 11
-4344.094401186901
 21
-2922.791456858613
 31
0.0
 12
-4344.511067853568
 22
-2920.291456858613
 32
0.0
 13
-4344.511067853568
 23
-2920.291456858613
 33
0.0
  0
SOLID
  5
281
330
27A
100
AcDbEntity
  8
0
 62
   123
100
AcDbTrace
 10
-4344.927734520235
 20
-2913.791456858612
 30
0.0
 11
-4344.094401186901
 21
-2913.791456858612
 31
0.0
 12
-4344.511067853568
 22
-2916.291456858613
 32
0.0
 13
-4344.511067853568
 23
-2916.291456858613
 33
0.0
  0
MTEXT
  5
282
330
27A
100
AcDbEntity
  8
0
 62
     3
100
AcDbMText
 10
-4347.961067853566
 20
-2901.441995064521
 30
0.0
 40
3.0
 41
0.0
 71
     5
 72
     1
  1
\A1;\A1;4{\f??|b0|i0|c0|p49;\H0.7x;\S+0^ -0.03;}
 11
0.0000000000000001
 21
1.0
 31
0.0
1001
ACAD
1000
MTEXTBEGIN
1070
    73
1070
     1
1070
    44
1040
1.0
1070
    74
1070
     0
1000
MTEXTEND
1000
MTEXTBEGIN
1070
    73
1070
     1
1070
    44
1040
1.0
1070
    74
1070
     0
1000
MTEXTEND
1000
MTEXTBEGIN
1070
    73
1070
     1
1070
    44
1040
1.0
1070
    74
1070
     0
1000
MTEXTEND
  0
POINT
  5
283
330
27A
100
AcDbEntity
  8
DEFPOINTS
 62
     0
100
AcDbPoint
 10
-4352.680123009029
 20
-2920.291456858613
 30
0.0
  0
POINT
  5
284
330
27A
100
AcDbEntity
  8
DEFPOINTS
 62
     0
100
AcDbPoint
 10
-4352.680123009029
 20
-2916.291456858613
 30
0.0
  0
POINT
  5
285
330
27A
100
AcDbEntity
  8
DEFPOINTS
 62
     0
100
AcDbPoint
 10
-4344.511067853568
 20
-2916.291456858613
 30
0.0
  0
ENDBLK
  5
287
330
27A
100
AcDbEntity
  8
0
100
AcDbBlockEnd
  0
BLOCK
  5
2DD
330
2D3
100
AcDbEntity
  8
0
100
AcDbBlockBegin
  2
*D5
 70
     1
 10
0.0
 20
0.0
 30
0.0
  3
*D5
  1

  0
LINE
  5
2D4
330
2D3
100
AcDbEntity
  8
0
 62
   123
100
AcDbLine
 10
-4200.328499003711
 20
-2803.129784607278
 30
0.0
 11
-4200.328499003711
 21
-2865.817465655569
 31
0.0
  0
LINE
  5
2D5
330
2D3
100
AcDbEntity
  8
0
 62
   123
100
AcDbLine
 10
-4168.328499003711
 20
-2852.629784607278
 30
0.0
 11
-4168.328499003711
 21
-2865.817465655569
 31
0.0
  0
LINE
  5
2D6
330
2D3
100
AcDbEntity
  8
0
 62
   123
100
AcDbLine
 10
-4197.828499003714
 20
-2865.217465655569
 30
0.0
 11
-4170.828499003714
 21
-2865.217465655569
 31
0.0
  0
SOLID
  5
2D7
330
2D3
100
AcDbEntity
  8
0
 62
   123
100
AcDbTrace
 10
-4197.828499003714
 20
-2864.800798988903
 30
0.0
 11
-4197.828499003714
 21
-2865.634132322236
 31
0.0
 12
-4200.328499003711
 22
-2865.217465655569
 32
0.0
 13
-4200.328499003711
 23
-2865.217465655569
 33
0.0
  0
SOLID
  5
2D8
330
2D3
100
AcDbEntity
  8
0
 62
   123
100
AcDbTrace
 10
-4170.828499003714
 20
-2864.800798988903
 30
0.0
 11
-4170.828499003714
 21
-2865.634132322236
 31
0.0
 12
-4168.328499003711
 22
-2865.217465655569
 32
0.0
 13
-4168.328499003711
 23
-2865.217465655569
 33
0.0
  0
MTEXT
  5
2D9
330
2D3
100
AcDbEntity
  8
0
 62
     3
100
AcDbMText
 10
-4184.328499003714
 20
-2862.717465655569
 30
0.0
 40
3.0
 41
0.0
 71
     5
 72
     1
  1
\A1;32
1001
ACAD
1000
MTEXTBEGIN
1070
    73
1070
     1
1070
    44
1040
1.0
1070
    74
1070
     0
1000
MTEXTEND
1000
MTEXTBEGIN
1070
    73
1070
     1
1070
    44
1040
1.0
1070
    74
1070
     0
1000
MTEXTEND
1000
MTEXTBEGIN
1070
    73
1070
     1
1070
    44
1040
1.0
1070
    74
1070
     0
1000
MTEXTEND
  0
POINT
  5
2DA
330
2D3
100
AcDbEntity
  8
DEFPOINTS
 62
     0
100
AcDbPoint
 10
-4200.328499003711
 20
-2802.129784607278
 30
0.0
  0
POINT
  5
2DB
330
2D3
100
AcDbEntity
  8
DEFPOINTS
 62
     0
100
AcDbPoint
 10
-4168.328499003711
 20
-2851.629784607278
 30
0.0
  0
POINT
  5
2DC
330
2D3
100
AcDbEntity
  8
DEFPOINTS
 62
     0
100
AcDbPoint
 10
-4168.328499003711
 20
-2865.217465655569
 30
0.0
  0
ENDBLK
  5
2DE
330
2D3
100
AcDbEntity
  8
0
100
AcDbBlockEnd
  0
BLOCK
  5
F5
330
EB
100
AcDbEntity
  8
0
100
AcDbBlockBegin
  2
*D6
 70
     1
 10
0.0
 20
0.0
 30
0.0
  3
*D6
  1

  0
LINE
  5
EC
330
EB
100
AcDbEntity
  8
0
 62
   123
100
AcDbLine
 10
-4171.828499003714
 20
-2780.129784607278
 30
0.0
 11
-4234.442880895278
 21
-2780.129784607278
 31
0.0
  0
LINE
  5
ED
330
EB
100
AcDbEntity
  8
0
 62
   123
100
AcDbLine
 10
-4171.828499003714
 20
-2814.129784607278
 30
0.0
 11
-4234.442880895278
 21
-2814.129784607278
 31
0.0
  0
LINE
  5
EE
330
EB
100
AcDbEntity
  8
0
 62
   123
100
AcDbLine
 10
-4233.842880895275
 20
-2782.629784607278
 30
0.0
 11
-4233.842880895275
 21
-2811.629784607278
 31
0.0
  0
SOLID
  5
EF
330
EB
100
AcDbEntity
  8
0
 62
   123
100
AcDbTrace
 10
-4234.259547561945
 20
-2782.629784607278
 30
0.0
 11
-4233.42621422861
 21
-2782.629784607278
 31
0.0
 12
-4233.842880895275
 22
-2780.129784607278
 32
0.0
 13
-4233.842880895275
 23
-2780.129784607278
 33
0.0
  0
SOLID
  5
F0
330
EB
100
AcDbEntity
  8
0
 62
   123
100
AcDbTrace
 10
-4234.259547561945
 20
-2811.629784607278
 30
0.0
 11
-4233.42621422861
 21
-2811.629784607278
 31
0.0
 12
-4233.842880895275
 22
-2814.129784607278
 32
0.0
 13
-4233.842880895275
 23
-2814.129784607278
 33
0.0
  0
MTEXT
  5
F1
330
EB
100
AcDbEntity
  8
0
 62
     3
100
AcDbMText
 10
-4236.342880895278
 20
-2797.129784607277
 30
0.0
 40
3.0
 41
0.0
 71
     5
 72
     1
  1
\A1;{\f??|b0|i0|c0|p49;%%c}34
 11
0.0000000000000001
 21
1.0
 31
0.0
1001
ACAD
1000
MTEXTBEGIN
1070
    73
1070
     1
1070
    44
1040
1.0
1070
    74
1070
     0
1000
MTEXTEND
1000
MTEXTBEGIN
1070
    73
1070
     1
1070
    44
1040
1.0
1070
    74
1070
     0
1000
MTEXTEND
1000
MTEXTBEGIN
1070
    73
1070
     1
1070
    44
1040
1.0
1070
    74
1070
     0
1000
MTEXTEND
  0
POINT
  5
F2
330
EB
100
AcDbEntity
  8
DEFPOINTS
 62
     0
100
AcDbPoint
 10
-4170.828499003714
 20
-2780.129784607278
 30
0.0
  0
POINT
  5
F3
330
EB
100
AcDbEntity
  8
DEFPOINTS
 62
     0
100
AcDbPoint
 10
-4170.828499003714
 20
-2814.129784607278
 30
0.0
  0
POINT
  5
F4
330
EB
100
AcDbEntity
  8
DEFPOINTS
 62
     0
100
AcDbPoint
 10
-4233.842880895275
 20
-2814.129784607278
 30
0.0
  0
ENDBLK
  5
F6
330
EB
100
AcDbEntity
  8
0
100
AcDbBlockEnd
  0
BLOCK
  5
2F8
330
2EE
100
AcDbEntity
  8
0
100
AcDbBlockBegin
  2
*D7
 70
     1
 10
0.0
 20
0.0
 30
0.0
  3
*D7
  1

  0
LINE
  5
2EF
330
2EE
100
AcDbEntity
  8
0
 62
   123
100
AcDbLine
 10
-4207.089812388852
 20
-2661.09543972392
 30
0.0
 11
-4207.089812388852
 21
-2604.74394810398
 31
0.0
  0
LINE
  5
2F0
330
2EE
100
AcDbEntity
  8
0
 62
   123
100
AcDbLine
 10
-4193.589812388855
 20
-2624.20043972392
 30
0.0
 11
-4193.589812388855
 21
-2604.74394810398
 31
0.0
  0
LINE
  5
2F1
330
2EE
100
AcDbEntity
  8
0
 62
   123
100
AcDbLine
 10
-4204.589812388855
 20
-2605.34394810398
 30
0.0
 11
-4196.089812388854
 21
-2605.34394810398
 31
0.0
  0
SOLID
  5
2F2
330
2EE
100
AcDbEntity
  8
0
 62
   123
100
AcDbTrace
 10
-4204.589812388855
 20
-2604.927281437313
 30
0.0
 11
-4204.589812388855
 21
-2605.760614770646
 31
0.0
 12
-4207.089812388852
 22
-2605.34394810398
 32
0.0
 13
-4207.089812388852
 23
-2605.34394810398
 33
0.0
  0
SOLID
  5
2F3
330
2EE
100
AcDbEntity
  8
0
 62
   123
100
AcDbTrace
 10
-4196.089812388854
 20
-2604.927281437313
 30
0.0
 11
-4196.089812388854
 21
-2605.760614770646
 31
0.0
 12
-4193.589812388855
 22
-2605.34394810398
 32
0.0
 13
-4193.589812388855
 23
-2605.34394810398
 33
0.0
  0
MTEXT
  5
2F4
330
2EE
100
AcDbEntity
  8
0
 62
     3
100
AcDbMText
 10
-4199.839812388852
 20
-2602.84394810398
 30
0.0
 40
3.0
 41
0.0
 71
     5
 72
     1
  1
\A1;13.5
1001
ACAD
1000
MTEXTBEGIN
1070
    73
1070
     1
1070
    44
1040
1.0
1070
    74
1070
     0
1000
MTEXTEND
1000
MTEXTBEGIN
1070
    73
1070
     1
1070
    44
1040
1.0
1070
    74
1070
     0
1000
MTEXTEND
1000
MTEXTBEGIN
1070
    73
1070
     1
1070
    44
1040
1.0
1070
    74
1070
     0
1000
MTEXTEND
  0
POINT
  5
2F5
330
2EE
100
AcDbEntity
  8
DEFPOINTS
 62
     0
100
AcDbPoint
 10
-4207.089812388852
 20
-2662.09543972392
 30
0.0
  0
POINT
  5
2F6
330
2EE
100
AcDbEntity
  8
DEFPOINTS
 62
     0
100
AcDbPoint
 10
-4193.589812388855
 20
-2625.200439723919
 30
0.0
  0
POINT
  5
2F7
330
2EE
100
AcDbEntity
  8
DEFPOINTS
 62
     0
100
AcDbPoint
 10
-4193.589812388855
 20
-2605.34394810398
 30
0.0
  0
ENDBLK
  5
2F9
330
2EE
100
AcDbEntity
  8
0
100
AcDbBlockEnd
  0
BLOCK
  5
307
330
2FB
100
AcDbEntity
  8
0
100
AcDbBlockBegin
  2
*D8
 70
     1
 10
0.0
 20
0.0
 30
0.0
  3
*D8
  1

  0
LINE
  5
2FC
330
2FB
100
AcDbEntity
  8
0
 62
   123
100
AcDbLine
 10
-4195.589812388853
 20
-2627.70043972392
 30
0.0
 11
-4195.589812388853
 21
-2615.037951998889
 31
0.0
  0
LINE
  5
2FD
330
2FB
100
AcDbEntity
  8
0
 62
   123
100
AcDbLine
 10
-4193.589812388855
 20
-2624.20043972392
 30
0.0
 11
-4193.589812388855
 21
-2615.037951998889
 31
0.0
  0
LINE
  5
2FE
330
2FB
100
AcDbEntity
  8
0
 62
   123
100
AcDbLine
 10
-4191.089812388855
 20
-2615.637951998889
 30
0.0
 11
-4188.589812388854
 21
-2615.637951998889
 31
0.0
  0
LINE
  5
2FF
330
2FB
100
AcDbEntity
  8
0
 62
   123
100
AcDbLine
 10
-4198.089812388853
 20
-2615.637951998889
 30
0.0
 11
-4204.589812388855
 21
-2615.637951998889
 31
0.0
  0
LINE
  5
300
330
2FB
100
AcDbEntity
  8
0
 62
   123
100
AcDbLine
 10
-4193.589812388855
 20
-2615.637951998889
 30
0.0
 11
-4195.589812388853
 21
-2615.637951998889
 31
0.0
  0
SOLID
  5
301
330
2FB
100
AcDbEntity
  8
0
 62
   123
100
AcDbTrace
 10
-4191.089812388855
 20
-2615.221285332224
 30
0.0
 11
-4191.089812388855
 21
-2616.054618665557
 31
0.0
 12
-4193.589812388855
 22
-2615.637951998889
 32
0.0
 13
-4193.589812388855
 23
-2615.637951998889
 33
0.0
  0
SOLID
  5
302
330
2FB
100
AcDbEntity
  8
0
 62
   123
100
AcDbTrace
 10
-4198.089812388853
 20
-2615.221285332224
 30
0.0
 11
-4198.089812388853
 21
-2616.054618665557
 31
0.0
 12
-4195.589812388853
 22
-2615.637951998889
 32
0.0
 13
-4195.589812388853
 23
-2615.637951998889
 33
0.0
  0
MTEXT
  5
303
330
2FB
100
AcDbEntity
  8
0
 62
     3
100
AcDbMText
 10
-4202.589812388853
 20
-2613.137951998888
 30
0.0
 40
3.0
 41
0.0
 71
     5
 72
     1
  1
\A1;2
1001
ACAD
1000
MTEXTBEGIN
1070
    73
1070
     1
1070
    44
1040
1.0
1070
    74
1070
     0
1000
MTEXTEND
1000
MTEXTBEGIN
1070
    73
1070
     1
1070
    44
1040
1.0
1070
    74
1070
     0
1000
MTEXTEND
1000
MTEXTBEGIN
1070
    73
1070
     1
1070
    44
1040
1.0
1070
    74
1070
     0
1000
MTEXTEND
  0
POINT
  5
304
330
2FB
100
AcDbEntity
  8
DEFPOINTS
 62
     0
100
AcDbPoint
 10
-4195.589812388853
 20
-2628.700439723921
 30
0.0
  0
POINT
  5
305
330
2FB
100
AcDbEntity
  8
DEFPOINTS
 62
     0
100
AcDbPoint
 10
-4193.589812388855
 20
-2625.200439723919
 30
0.0
  0
POINT
  5
306
330
2FB
100
AcDbEntity
  8
DEFPOINTS
 62
     0
100
AcDbPoint
 10
-4193.589812388855
 20
-2615.637951998889
 30
0.0
  0
ENDBLK
  5
308
330
2FB
100
AcDbEntity
  8
0
100
AcDbBlockEnd
  0
BLOCK
  5
189
330
17F
100
AcDbEntity
  8
0
100
AcDbBlockBegin
  2
*D9
 70
     1
 10
0.0
 20
0.0
 30
0.0
  3
*D9
  1

  0
LINE
  5
180
330
17F
100
AcDbEntity
  8
0
 62
   123
100
AcDbLine
 10
-4218.162205195823
 20
-3001.784637857487
 30
0.0
 11
-4277.78042017606
 21
-3001.784637857487
 31
0.0
  0
LINE
  5
181
330
17F
100
AcDbEntity
  8
0
 62
   123
100
AcDbLine
 10
-4218.162205195823
 20
-3035.784637857487
 30
0.0
 11
-4277.78042017606
 21
-3035.784637857487
 31
0.0
  0
LINE
  5
182
330
17F
100
AcDbEntity
  8
0
 62
   123
100
AcDbLine
 10
-4277.180420176057
 20
-3004.284637857487
 30
0.0
 11
-4277.180420176057
 21
-3033.284637857487
 31
0.0
  0
SOLID
  5
183
330
17F
100
AcDbEntity
  8
0
 62
   123
100
AcDbTrace
 10
-4277.597086842725
 20
-3004.284637857487
 30
0.0
 11
-4276.763753509391
 21
-3004.284637857487
 31
0.0
 12
-4277.180420176057
 22
-3001.784637857487
 32
0.0
 13
-4277.180420176057
 23
-3001.784637857487
 33
0.0
  0
SOLID
  5
184
330
17F
100
AcDbEntity
  8
0
 62
   123
100
AcDbTrace
 10
-4277.597086842725
 20
-3033.284637857487
 30
0.0
 11
-4276.763753509391
 21
-3033.284637857487
 31
0.0
 12
-4277.180420176057
 22
-3035.784637857487
 32
0.0
 13
-4277.180420176057
 23
-3035.784637857487
 33
0.0
  0
MTEXT
  5
185
330
17F
100
AcDbEntity
  8
0
 62
     3
100
AcDbMText
 10
-4279.680420176059
 20
-3018.784637857487
 30
0.0
 40
3.0
 41
0.0
 71
     5
 72
     1
  1
\A1;{\f??|b0|i0|c0|p49;%%c}34
 11
0.0000000000000001
 21
1.0
 31
0.0
1001
ACAD
1000
MTEXTBEGIN
1070
    73
1070
     1
1070
    44
1040
1.0
1070
    74
1070
     0
1000
MTEXTEND
1000
MTEXTBEGIN
1070
    73
1070
     1
1070
    44
1040
1.0
1070
    74
1070
     0
1000
MTEXTEND
1000
MTEXTBEGIN
1070
    73
1070
     1
1070
    44
1040
1.0
1070
    74
1070
     0
1000
MTEXTEND
  0
POINT
  5
186
330
17F
100
AcDbEntity
  8
DEFPOINTS
 62
     0
100
AcDbPoint
 10
-4217.162205195823
 20
-3001.784637857487
 30
0.0
  0
POINT
  5
187
330
17F
100
AcDbEntity
  8
DEFPOINTS
 62
     0
100
AcDbPoint
 10
-4217.162205195823
 20
-3035.784637857487
 30
0.0
  0
POINT
  5
188
330
17F
100
AcDbEntity
  8
DEFPOINTS
 62
     0
100
AcDbPoint
 10
-4277.180420176057
 20
-3035.784637857487
 30
0.0
  0
ENDBLK
  5
18A
330
17F
100
AcDbEntity
  8
0
100
AcDbBlockEnd
  0
BLOCK
  5
122
330
118
100
AcDbEntity
  8
0
100
AcDbBlockBegin
  2
*D10
 70
     1
 10
0.0
 20
0.0
 30
0.0
  3
*D10
  1

  0
LINE
  5
119
330
118
100
AcDbEntity
  8
0
 62
   123
100
AcDbLine
 10
-4174.662205195824
 20
-2992.784637857488
 30
0.0
 11
-4174.662205195824
 21
-2964.532594638924
 31
0.0
  0
LINE
  5
11A
330
118
100
AcDbEntity
  8
0
 62
   123
100
AcDbLine
 10
-4089.662205195824
 20
-2995.784637857488
 30
0.0
 11
-4089.662205195824
 21
-2964.532594638924
 31
0.0
  0
LINE
  5
11B
330
118
100
AcDbEntity
  8
0
 62
   123
100
AcDbLine
 10
-4172.162205195824
 20
-2965.132594638923
 30
0.0
 11
-4092.162205195823
 21
-2965.132594638923
 31
0.0
  0
SOLID
  5
11C
330
118
100
AcDbEntity
  8
0
 62
   123
100
AcDbTrace
 10
-4172.162205195824
 20
-2964.715927972257
 30
0.0
 11
-4172.162205195824
 21
-2965.549261305589
 31
0.0
 12
-4174.662205195824
 22
-2965.132594638923
 32
0.0
 13
-4174.662205195824
 23
-2965.132594638923
 33
0.0
  0
SOLID
  5
11D
330
118
100
AcDbEntity
  8
0
 62
   123
100
AcDbTrace
 10
-4092.162205195823
 20
-2964.715927972257
 30
0.0
 11
-4092.162205195823
 21
-2965.549261305589
 31
0.0
 12
-4089.662205195824
 22
-2965.132594638923
 32
0.0
 13
-4089.662205195824
 23
-2965.132594638923
 33
0.0
  0
MTEXT
  5
11E
330
118
100
AcDbEntity
  8
0
 62
     3
100
AcDbMText
 10
-4132.162205195824
 20
-2962.632594638924
 30
0.0
 40
3.0
 41
0.0
 71
     5
 72
     1
  1
\A1;85
1001
ACAD
1000
MTEXTBEGIN
1070
    73
1070
     1
1070
    44
1040
1.0
1070
    74
1070
     0
1000
MTEXTEND
1000
MTEXTBEGIN
1070
    73
1070
     1
1070
    44
1040
1.0
1070
    74
1070
     0
1000
MTEXTEND
1000
MTEXTBEGIN
1070
    73
1070
     1
1070
    44
1040
1.0
1070
    74
1070
     0
1000
MTEXTEND
  0
POINT
  5
11F
330
118
100
AcDbEntity
  8
DEFPOINTS
 62
     0
100
AcDbPoint
 10
-4174.662205195824
 20
-2993.784637857487
 30
0.0
  0
POINT
  5
120
330
118
100
AcDbEntity
  8
DEFPOINTS
 62
     0
100
AcDbPoint
 10
-4089.662205195824
 20
-2996.784637857487
 30
0.0
  0
POINT
  5
121
330
118
100
AcDbEntity
  8
DEFPOINTS
 62
     0
100
AcDbPoint
 10
-4089.662205195824
 20
-2965.132594638923
 30
0.0
  0
ENDBLK
  5
123
330
118
100
AcDbEntity
  8
0
100
AcDbBlockEnd
  0
BLOCK
  5
13E
330
134
100
AcDbEntity
  8
0
100
AcDbBlockBegin
  2
*D11
 70
     1
 10
0.0
 20
0.0
 30
0.0
  3
*D11
  1

  0
LINE
  5
135
330
134
100
AcDbEntity
  8
0
 62
   123
100
AcDbLine
 10
-4214.662205195824
 20
-2993.284637857488
 30
0.0
 11
-4214.662205195824
 21
-2964.532594638924
 31
0.0
  0
LINE
  5
136
330
134
100
AcDbEntity
  8
0
 62
   123
100
AcDbLine
 10
-4174.662205195824
 20
-2992.784637857488
 30
0.0
 11
-4174.662205195824
 21
-2964.532594638924
 31
0.0
  0
LINE
  5
137
330
134
100
AcDbEntity
  8
0
 62
   123
100
AcDbLine
 10
-4212.162205195824
 20
-2965.132594638923
 30
0.0
 11
-4177.162205195823
 21
-2965.132594638923
 31
0.0
  0
SOLID
  5
138
330
134
100
AcDbEntity
  8
0
 62
   123
100
AcDbTrace
 10
-4212.162205195824
 20
-2964.715927972257
 30
0.0
 11
-4212.162205195824
 21
-2965.549261305589
 31
0.0
 12
-4214.662205195824
 22
-2965.132594638923
 32
0.0
 13
-4214.662205195824
 23
-2965.132594638923
 33
0.0
  0
SOLID
  5
139
330
134
100
AcDbEntity
  8
0
 62
   123
100
AcDbTrace
 10
-4177.162205195823
 20
-2964.715927972257
 30
0.0
 11
-4177.162205195823
 21
-2965.549261305589
 31
0.0
 12
-4174.662205195824
 22
-2965.132594638923
 32
0.0
 13
-4174.662205195824
 23
-2965.132594638923
 33
0.0
  0
MTEXT
  5
13A
330
134
100
AcDbEntity
  8
0
 62
     3
100
AcDbMText
 10
-4194.662205195824
 20
-2962.632594638924
 30
0.0
 40
3.0
 41
0.0
 71
     5
 72
     1
  1
\A1;{\f??|b0|i0|c0|p49;L}
1001
ACAD
1000
MTEXTBEGIN
1070
    73
1070
     1
1070
    44
1040
1.0
1070
    74
1070
     0
1000
MTEXTEND
1000
MTEXTBEGIN
1070
    73
1070
     1
1070
    44
1040
1.0
1070
    74
1070
     0
1000
MTEXTEND
1000
MTEXTBEGIN
1070
    73
1070
     1
1070
    44
1040
1.0
1070
    74
1070
     0
1000
MTEXTEND
  0
POINT
  5
13B
330
134
100
AcDbEntity
  8
DEFPOINTS
 62
     0
100
AcDbPoint
 10
-4214.662205195824
 20
-2994.284637857488
 30
0.0
  0
POINT
  5
13C
330
134
100
AcDbEntity
  8
DEFPOINTS
 62
     0
100
AcDbPoint
 10
-4174.662205195824
 20
-2993.784637857487
 30
0.0
  0
POINT
  5
13D
330
134
100
AcDbEntity
  8
DEFPOINTS
 62
     0
100
AcDbPoint
 10
-4174.662205195824
 20
-2965.132594638923
 30
0.0
  0
ENDBLK
  5
13F
330
134
100
AcDbEntity
  8
0
100
AcDbBlockEnd
  0
BLOCK
  5
15C
330
150
100
AcDbEntity
  8
0
100
AcDbBlockBegin
  2
*D12
 70
     1
 10
0.0
 20
0.0
 30
0.0
  3
*D12
  1

  0
LINE
  5
151
330
150
100
AcDbEntity
  8
0
 62
   123
100
AcDbLine
 10
-4214.662205195824
 20
-2993.284637857488
 30
0.0
 11
-4214.662205195824
 21
-2976.556532914873
 31
0.0
  0
LINE
  5
152
330
150
100
AcDbEntity
  8
0
 62
   123
100
AcDbLine
 10
-4217.662205195824
 20
-3001.284637857487
 30
0.0
 11
-4217.662205195824
 21
-2976.556532914873
 31
0.0
  0
LINE
  5
153
330
150
100
AcDbEntity
  8
0
 62
   123
100
AcDbLine
 10
-4212.162205195824
 20
-2977.156532914873
 30
0.0
 11
-4209.662205195824
 21
-2977.156532914873
 31
0.0
  0
LINE
  5
154
330
150
100
AcDbEntity
  8
0
 62
   123
100
AcDbLine
 10
-4220.162205195824
 20
-2977.156532914873
 30
0.0
 11
-4230.641371862488
 21
-2977.156532914873
 31
0.0
  0
LINE
  5
155
330
150
100
AcDbEntity
  8
0
 62
   123
100
AcDbLine
 10
-4214.662205195824
 20
-2977.156532914873
 30
0.0
 11
-4217.662205195824
 21
-2977.156532914873
 31
0.0
  0
SOLID
  5
156
330
150
100
AcDbEntity
  8
0
 62
   123
100
AcDbTrace
 10
-4212.162205195824
 20
-2976.739866248207
 30
0.0
 11
-4212.162205195824
 21
-2977.57319958154
 31
0.0
 12
-4214.662205195824
 22
-2977.156532914873
 32
0.0
 13
-4214.662205195824
 23
-2977.156532914873
 33
0.0
  0
SOLID
  5
157
330
150
100
AcDbEntity
  8
0
 62
   123
100
AcDbTrace
 10
-4220.162205195824
 20
-2976.739866248207
 30
0.0
 11
-4220.162205195824
 21
-2977.57319958154
 31
0.0
 12
-4217.662205195824
 22
-2977.156532914873
 32
0.0
 13
-4217.662205195824
 23
-2977.156532914873
 33
0.0
  0
MTEXT
  5
158
330
150
100
AcDbEntity
  8
0
 62
     3
100
AcDbMText
 10
-4228.641371862488
 20
-2974.656532914874
 30
0.0
 40
3.0
 41
0.0
 71
     5
 72
     1
  1
\A1;3
1001
ACAD
1000
MTEXTBEGIN
1070
    73
1070
     1
1070
    44
1040
1.0
1070
    74
1070
     0
1000
MTEXTEND
1000
MTEXTBEGIN
1070
    73
1070
     1
1070
    44
1040
1.0
1070
    74
1070
     0
1000
MTEXTEND
1000
MTEXTBEGIN
1070
    73
1070
     1
1070
    44
1040
1.0
1070
    74
1070
     0
1000
MTEXTEND
  0
POINT
  5
159
330
150
100
AcDbEntity
  8
DEFPOINTS
 62
     0
100
AcDbPoint
 10
-4214.662205195824
 20
-2994.284637857488
 30
0.0
  0
POINT
  5
15A
330
150
100
AcDbEntity
  8
DEFPOINTS
 62
     0
100
AcDbPoint
 10
-4217.662205195824
 20
-3002.284637857488
 30
0.0
  0
POINT
  5
15B
330
150
100
AcDbEntity
  8
DEFPOINTS
 62
     0
100
AcDbPoint
 10
-4217.662205195824
 20
-2977.156532914873
 30
0.0
  0
ENDBLK
  5
15D
330
150
100
AcDbEntity
  8
0
100
AcDbBlockEnd
  0
BLOCK
  5
B0
330
A5
100
AcDbEntity
  8
0
100
AcDbBlockBegin
  2
*D13
 70
     1
 10
0.0
 20
0.0
 30
0.0
  3
*D13
  1

  0
LINE
  5
A6
330
A5
100
AcDbEntity
  8
0
 62
   123
100
AcDbLine
 10
-4205.226637804939
 20
-2797.129784607277
 30
0.0
 11
-4224.775045675209
 21
-2797.129784607277
 31
0.0
  0
LINE
  5
A7
330
A5
100
AcDbEntity
  8
0
 62
   123
100
AcDbLine
 10
-4212.936172137815
 20
-2812.129784607277
 30
0.0
 11
-4224.775045675209
 21
-2812.129784607277
 31
0.0
  0
LINE
  5
A8
330
A5
100
AcDbEntity
  8
0
 62
   123
100
AcDbLine
 10
-4224.175045675209
 20
-2799.629784607277
 30
0.0
 11
-4224.175045675209
 21
-2809.629784607277
 31
0.0
  0
SOLID
  5
A9
330
A5
100
AcDbEntity
  8
0
 62
   123
100
AcDbTrace
 10
-4224.591712341875
 20
-2799.629784607277
 30
0.0
 11
-4223.758379008542
 21
-2799.629784607277
 31
0.0
 12
-4224.175045675209
 22
-2797.129784607277
 32
0.0
 13
-4224.175045675209
 23
-2797.129784607277
 33
0.0
  0
SOLID
  5
AA
330
A5
100
AcDbEntity
  8
0
 62
   123
100
AcDbTrace
 10
-4224.591712341875
 20
-2809.629784607277
 30
0.0
 11
-4223.758379008542
 21
-2809.629784607277
 31
0.0
 12
-4224.175045675209
 22
-2812.129784607277
 32
0.0
 13
-4224.175045675209
 23
-2812.129784607277
 33
0.0
  0
MTEXT
  5
AB
330
A5
100
AcDbEntity
  8
0
 62
     3
100
AcDbMText
 10
-4226.675045675206
 20
-2804.629784607278
 30
0.0
 40
3.0
 41
0.0
 71
     5
 72
     1
  1
\A1;15
 11
0.0000000000000001
 21
1.0
 31
0.0
1001
ACAD
1000
MTEXTBEGIN
1070
    73
1070
     1
1070
    44
1040
1.0
1070
    74
1070
     0
1000
MTEXTEND
1000
MTEXTBEGIN
1070
    73
1070
     1
1070
    44
1040
1.0
1070
    74
1070
     0
1000
MTEXTEND
1000
MTEXTBEGIN
1070
    73
1070
     1
1070
    44
1040
1.0
1070
    74
1070
     0
1000
MTEXTEND
  0
POINT
  5
AC
330
A5
100
AcDbEntity
  8
DEFPOINTS
 62
     0
100
AcDbPoint
 10
-4204.226637804938
 20
-2797.129784607277
 30
0.0
  0
POINT
  5
AE
330
A5
100
AcDbEntity
  8
DEFPOINTS
 62
     0
100
AcDbPoint
 10
-4211.936172137813
 20
-2812.129784607277
 30
0.0
  0
POINT
  5
AF
330
A5
100
AcDbEntity
  8
DEFPOINTS
 62
     0
100
AcDbPoint
 10
-4224.175045675209
 20
-2812.129784607277
 30
0.0
  0
ENDBLK
  5
B1
330
A5
100
AcDbEntity
  8
0
100
AcDbBlockEnd
  0
BLOCK
  5
C1
330
B5
100
AcDbEntity
  8
0
100
AcDbBlockBegin
  2
*D14
 70
     1
 10
0.0
 20
0.0
 30
0.0
  3
*D14
  1

  0
LINE
  5
B6
330
B5
100
AcDbEntity
  8
0
 62
   123
100
AcDbLine
 10
-4201.328499003714
 20
-2802.129784607277
 30
0.0
 11
-4215.75316229269
 21
-2802.129784607277
 31
0.0
  0
LINE
  5
B7
330
B5
100
AcDbEntity
  8
0
 62
   123
100
AcDbLine
 10
-4201.328499003714
 20
-2792.129784607277
 30
0.0
 11
-4215.75316229269
 21
-2792.129784607277
 31
0.0
  0
LINE
  5
B8
330
B5
100
AcDbEntity
  8
0
 62
   123
100
AcDbLine
 10
-4215.153162292689
 20
-2804.629784607277
 30
0.0
 11
-4215.153162292689
 21
-2807.129784607278
 31
0.0
  0
LINE
  5
B9
330
B5
100
AcDbEntity
  8
0
 62
   123
100
AcDbLine
 10
-4215.153162292689
 20
-2789.629784607277
 30
0.0
 11
-4215.153162292689
 21
-2749.203279252963
 31
0.0
  0
LINE
  5
BA
330
B5
100
AcDbEntity
  8
0
 62
   123
100
AcDbLine
 10
-4215.153162292689
 20
-2802.129784607277
 30
0.0
 11
-4215.153162292689
 21
-2792.129784607277
 31
0.0
  0
SOLID
  5
BB
330
B5
100
AcDbEntity
  8
0
 62
   123
100
AcDbTrace
 10
-4215.569828959356
 20
-2804.629784607277
 30
0.0
 11
-4214.736495626023
 21
-2804.629784607277
 31
0.0
 12
-4215.153162292689
 22
-2802.129784607277
 32
0.0
 13
-4215.153162292689
 23
-2802.129784607277
 33
0.0
  0
SOLID
  5
BC
330
B5
100
AcDbEntity
  8
0
 62
   123
100
AcDbTrace
 10
-4215.569828959356
 20
-2789.629784607277
 30
0.0
 11
-4214.736495626023
 21
-2789.629784607277
 31
0.0
 12
-4215.153162292689
 22
-2792.129784607277
 32
0.0
 13
-4215.153162292689
 23
-2792.129784607277
 33
0.0
  0
MTEXT
  5
BD
330
B5
100
AcDbEntity
  8
0
 62
     3
100
AcDbMText
 10
-4219.103312292688
 20
-2764.018850681535
 30
0.0
 40
3.0
 41
0.0
 71
     5
 72
     1
  1
\A1;\A1;{\f??|b0|i0|c0|p49;%%C10\H0.7x;\S+0^ -0.015;\H1.429x;(h7)}
 11
0.0000000000000001
 21
1.0
 31
0.0
1001
ACAD
1000
MTEXTBEGIN
1070
    73
1070
     1
1070
    44
1040
1.0
1070
    74
1070
     0
1000
MTEXTEND
1000
MTEXTBEGIN
1070
    73
1070
     1
1070
    44
1040
1.0
1070
    74
1070
     0
1000
MTEXTEND
1000
MTEXTBEGIN
1070
    73
1070
     1
1070
    44
1040
1.0
1070
    74
1070
     0
1000
MTEXTEND
  0
POINT
  5
BE
330
B5
100
AcDbEntity
  8
DEFPOINTS
 62
     0
100
AcDbPoint
 10
-4200.328499003711
 20
-2802.129784607277
 30
0.0
  0
POINT
  5
BF
330
B5
100
AcDbEntity
  8
DEFPOINTS
 62
     0
100
AcDbPoint
 10
-4200.328499003711
 20
-2792.129784607277
 30
0.0
  0
POINT
  5
C0
330
B5
100
AcDbEntity
  8
DEFPOINTS
 62
     0
100
AcDbPoint
 10
-4215.153162292689
 20
-2792.129784607277
 30
0.0
  0
ENDBLK
  5
C2
330
B5
100
AcDbEntity
  8
0
100
AcDbBlockEnd
  0
BLOCK
  5
277
330
26D
100
AcDbEntity
  8
0
100
AcDbBlockBegin
  2
*D15
 70
     1
 10
0.0
 20
0.0
 30
0.0
  3
*D15
  1

  0
LINE
  5
26E
330
26D
100
AcDbEntity
  8
0
 62
   123
100
AcDbLine
 10
-4377.680123009031
 20
-2917.291456858613
 30
0.0
 11
-4377.680123009031
 21
-2907.886262878137
 31
0.0
  0
LINE
  5
26F
330
26D
100
AcDbEntity
  8
0
 62
   123
100
AcDbLine
 10
-4352.680123009029
 20
-2915.291456858613
 30
0.0
 11
-4352.680123009029
 21
-2907.886262878137
 31
0.0
  0
LINE
  5
270
330
26D
100
AcDbEntity
  8
0
 62
   123
100
AcDbLine
 10
-4375.180123009029
 20
-2908.486262878136
 30
0.0
 11
-4355.18012300903
 21
-2908.486262878136
 31
0.0
  0
SOLID
  5
271
330
26D
100
AcDbEntity
  8
0
 62
   123
100
AcDbTrace
 10
-4375.180123009029
 20
-2908.069596211471
 30
0.0
 11
-4375.180123009029
 21
-2908.902929544804
 31
0.0
 12
-4377.680123009031
 22
-2908.486262878136
 32
0.0
 13
-4377.680123009031
 23
-2908.486262878136
 33
0.0
  0
SOLID
  5
272
330
26D
100
AcDbEntity
  8
0
 62
   123
100
AcDbTrace
 10
-4355.18012300903
 20
-2908.069596211471
 30
0.0
 11
-4355.18012300903
 21
-2908.902929544804
 31
0.0
 12
-4352.680123009029
 22
-2908.486262878136
 32
0.0
 13
-4352.680123009029
 23
-2908.486262878136
 33
0.0
  0
MTEXT
  5
273
330
26D
100
AcDbEntity
  8
0
 62
     3
100
AcDbMText
 10
-4365.180123009031
 20
-2905.986262878137
 30
0.0
 40
3.0
 41
0.0
 71
     5
 72
     1
  1
\A1;25{\f??|b0|i0|c0|p49;%%p0.2}
1001
ACAD
1000
MTEXTBEGIN
1070
    73
1070
     1
1070
    44
1040
1.0
1070
    74
1070
     0
1000
MTEXTEND
1000
MTEXTBEGIN
1070
    73
1070
     1
1070
    44
1040
1.0
1070
    74
1070
     0
1000
MTEXTEND
1000
MTEXTBEGIN
1070
    73
1070
     1
1070
    44
1040
1.0
1070
    74
1070
     0
1000
MTEXTEND
  0
POINT
  5
274
330
26D
100
AcDbEntity
  8
DEFPOINTS
 62
     0
100
AcDbPoint
 10
-4377.680123009031
 20
-2918.291456858613
 30
0.0
  0
POINT
  5
275
330
26D
100
AcDbEntity
  8
DEFPOINTS
 62
     0
100
AcDbPoint
 10
-4352.680123009029
 20
-2916.291456858613
 30
0.0
  0
POINT
  5
276
330
26D
100
AcDbEntity
  8
DEFPOINTS
 62
     0
100
AcDbPoint
 10
-4352.680123009029
 20
-2908.486262878136
 30
0.0
  0
ENDBLK
  5
278
330
26D
100
AcDbEntity
  8
0
100
AcDbBlockEnd
  0
BLOCK
  5
297
330
28B
100
AcDbEntity
  8
0
100
AcDbBlockBegin
  2
*D16
 70
     1
 10
0.0
 20
0.0
 30
0.0
  3
*D16
  1

  0
LINE
  5
28C
330
28B
100
AcDbEntity
  8
0
 62
   123
100
AcDbLine
 10
-4285.576089981772
 20
-2917.39175214561
 30
0.0
 11
-4270.47875748759
 21
-2917.39175214561
 31
0.0
  0
LINE
  5
28D
330
28B
100
AcDbEntity
  8
0
 62
   123
100
AcDbLine
 10
-4287.576089981771
 20
-2914.89175214561
 30
0.0
 11
-4270.47875748759
 21
-2914.89175214561
 31
0.0
  0
LINE
  5
28E
330
28B
100
AcDbEntity
  8
0
 62
   123
100
AcDbLine
 10
-4271.078757487591
 20
-2919.891752145609
 30
0.0
 11
-4271.078757487591
 21
-2922.391752145609
 31
0.0
  0
LINE
  5
28F
330
28B
100
AcDbEntity
  8
0
 62
   123
100
AcDbLine
 10
-4271.078757487591
 20
-2912.391752145609
 30
0.0
 11
-4271.078757487591
 21
-2890.977466431323
 31
0.0
  0
LINE
  5
290
330
28B
100
AcDbEntity
  8
0
 62
   123
100
AcDbLine
 10
-4271.078757487591
 20
-2917.39175214561
 30
0.0
 11
-4271.078757487591
 21
-2914.89175214561
 31
0.0
  0
SOLID
  5
291
330
28B
100
AcDbEntity
  8
0
 62
   123
100
AcDbTrace
 10
-4271.495424154259
 20
-2919.891752145609
 30
0.0
 11
-4270.662090820924
 21
-2919.891752145609
 31
0.0
 12
-4271.078757487591
 22
-2917.39175214561
 32
0.0
 13
-4271.078757487591
 23
-2917.39175214561
 33
0.0
  0
SOLID
  5
292
330
28B
100
AcDbEntity
  8
0
 62
   123
100
AcDbTrace
 10
-4271.495424154259
 20
-2912.391752145609
 30
0.0
 11
-4270.662090820924
 21
-2912.391752145609
 31
0.0
 12
-4271.078757487591
 22
-2914.89175214561
 32
0.0
 13
-4271.078757487591
 23
-2914.89175214561
 33
0.0
  0
MTEXT
  5
293
330
28B
100
AcDbEntity
  8
0
 62
     3
100
AcDbMText
 10
-4274.52875748759
 20
-2898.684609288466
 30
0.0
 40
3.0
 41
0.0
 71
     5
 72
     1
  1
\A1;\A1;2.5{\f??|b0|i0|c0|p49;\H0.7x;\S+0.1^ -0;\H1.429x; }
 11
0.0000000000000001
 21
1.0
 31
0.0
1001
ACAD
1000
MTEXTBEGIN
1070
    73
1070
     1
1070
    44
1040
1.0
1070
    74
1070
     0
1000
MTEXTEND
1000
MTEXTBEGIN
1070
    73
1070
     1
1070
    44
1040
1.0
1070
    74
1070
     0
1000
MTEXTEND
1000
MTEXTBEGIN
1070
    73
1070
     1
1070
    44
1040
1.0
1070
    74
1070
     0
1000
MTEXTEND
  0
POINT
  5
294
330
28B
100
AcDbEntity
  8
DEFPOINTS
 62
     0
100
AcDbPoint
 10
-4286.576089981771
 20
-2917.39175214561
 30
0.0
  0
POINT
  5
295
330
28B
100
AcDbEntity
  8
DEFPOINTS
 62
     0
100
AcDbPoint
 10
-4288.576089981773
 20
-2914.89175214561
 30
0.0
  0
POINT
  5
296
330
28B
100
AcDbEntity
  8
DEFPOINTS
 62
     0
100
AcDbPoint
 10
-4271.078757487591
 20
-2914.89175214561
 30
0.0
  0
ENDBLK
  5
298
330
28B
100
AcDbEntity
  8
0
100
AcDbBlockEnd
  0
BLOCK
  5
2A8
330
29C
100
AcDbEntity
  8
0
100
AcDbBlockBegin
  2
*D17
 70
     1
 10
0.0
 20
0.0
 30
0.0
  3
*D17
  1

  0
LINE
  5
29D
330
29C
100
AcDbEntity
  8
0
 62
   123
100
AcDbLine
 10
-4335.509469722317
 20
-2915.291456858613
 30
0.0
 11
-4335.509469722317
 21
-2907.01698119998
 31
0.0
  0
LINE
  5
29E
330
29C
100
AcDbEntity
  8
0
 62
   123
100
AcDbLine
 10
-4331.509469722316
 20
-2915.291456858613
 30
0.0
 11
-4331.509469722316
 21
-2907.01698119998
 31
0.0
  0
LINE
  5
29F
330
29C
100
AcDbEntity
  8
0
 62
   123
100
AcDbLine
 10
-4338.009469722318
 20
-2907.616981199979
 30
0.0
 11
-4340.509469722316
 21
-2907.616981199979
 31
0.0
  0
LINE
  5
2A0
330
29C
100
AcDbEntity
  8
0
 62
   123
100
AcDbLine
 10
-4329.009469722318
 20
-2907.616981199979
 30
0.0
 11
-4326.509469722316
 21
-2907.616981199979
 31
0.0
  0
LINE
  5
2A1
330
29C
100
AcDbEntity
  8
0
 62
   123
100
AcDbLine
 10
-4335.509469722317
 20
-2907.616981199979
 30
0.0
 11
-4331.509469722316
 21
-2907.616981199979
 31
0.0
  0
SOLID
  5
2A2
330
29C
100
AcDbEntity
  8
0
 62
   123
100
AcDbTrace
 10
-4338.009469722318
 20
-2907.200314533314
 30
0.0
 11
-4338.009469722318
 21
-2908.033647866647
 31
0.0
 12
-4335.509469722317
 22
-2907.616981199979
 32
0.0
 13
-4335.509469722317
 23
-2907.616981199979
 33
0.0
  0
SOLID
  5
2A3
330
29C
100
AcDbEntity
  8
0
 62
   123
100
AcDbTrace
 10
-4329.009469722318
 20
-2907.200314533314
 30
0.0
 11
-4329.009469722318
 21
-2908.033647866647
 31
0.0
 12
-4331.509469722316
 22
-2907.616981199979
 32
0.0
 13
-4331.509469722316
 23
-2907.616981199979
 33
0.0
  0
MTEXT
  5
2A4
330
29C
100
AcDbEntity
  8
0
 62
     3
100
AcDbMText
 10
-4333.509469722318
 20
-2904.166981199981
 30
0.0
 40
3.0
 41
0.0
 71
     5
 72
     1
  1
\A1;\A1;4{\f??|b0|i0|c0|p49;\H0.7x;\S+0^ -0.03;}
1001
ACAD
1000
MTEXTBEGIN
1070
    73
1070
     1
1070
    44
1040
1.0
1070
    74
1070
     0
1000
MTEXTEND
1000
MTEXTBEGIN
1070
    73
1070
     1
1070
    44
1040
1.0
1070
    74
1070
     0
1000
MTEXTEND
1000
MTEXTBEGIN
1070
    73
1070
     1
1070
    44
1040
1.0
1070
    74
1070
     0
1000
MTEXTEND
  0
POINT
  5
2A5
330
29C
100
AcDbEntity
  8
DEFPOINTS
 62
     0
100
AcDbPoint
 10
-4335.509469722317
 20
-2916.291456858613
 30
0.0
  0
POINT
  5
2A6
330
29C
100
AcDbEntity
  8
DEFPOINTS
 62
     0
100
AcDbPoint
 10
-4331.509469722316
 20
-2916.291456858613
 30
0.0
  0
POINT
  5
2A7
330
29C
100
AcDbEntity
  8
DEFPOINTS
 62
     0
100
AcDbPoint
 10
-4331.509469722316
 20
-2907.616981199979
 30
0.0
  0
ENDBLK
  5
2A9
330
29C
100
AcDbEntity
  8
0
100
AcDbBlockEnd
  0
BLOCK
  5
248
330
23C
100
AcDbEntity
  8
0
100
AcDbBlockBegin
  2
*D18
 70
     1
 10
0.0
 20
0.0
 30
0.0
  3
*D18
  1

  0
LINE
  5
23D
330
23C
100
AcDbEntity
  8
0
 62
   123
100
AcDbLine
 10
-4290.576089981771
 20
-2914.309176450652
 30
0.0
 11
-4290.576089981771
 21
-2905.950163905678
 31
0.0
  0
LINE
  5
23E
330
23C
100
AcDbEntity
  8
0
 62
   123
100
AcDbLine
 10
-4286.576089981771
 20
-2914.309176450652
 30
0.0
 11
-4286.576089981771
 21
-2905.950163905678
 31
0.0
  0
LINE
  5
23F
330
23C
100
AcDbEntity
  8
0
 62
   123
100
AcDbLine
 10
-4293.076089981773
 20
-2906.550163905678
 30
0.0
 11
-4295.576089981771
 21
-2906.550163905678
 31
0.0
  0
LINE
  5
240
330
23C
100
AcDbEntity
  8
0
 62
   123
100
AcDbLine
 10
-4284.076089981772
 20
-2906.550163905678
 30
0.0
 11
-4281.576089981771
 21
-2906.550163905678
 31
0.0
  0
LINE
  5
241
330
23C
100
AcDbEntity
  8
0
 62
   123
100
AcDbLine
 10
-4290.576089981771
 20
-2906.550163905678
 30
0.0
 11
-4286.576089981771
 21
-2906.550163905678
 31
0.0
  0
SOLID
  5
242
330
23C
100
AcDbEntity
  8
0
 62
   123
100
AcDbTrace
 10
-4293.076089981773
 20
-2906.133497239011
 30
0.0
 11
-4293.076089981773
 21
-2906.966830572345
 31
0.0
 12
-4290.576089981771
 22
-2906.550163905678
 32
0.0
 13
-4290.576089981771
 23
-2906.550163905678
 33
0.0
  0
SOLID
  5
243
330
23C
100
AcDbEntity
  8
0
 62
   123
100
AcDbTrace
 10
-4284.076089981772
 20
-2906.133497239011
 30
0.0
 11
-4284.076089981772
 21
-2906.966830572345
 31
0.0
 12
-4286.576089981771
 22
-2906.550163905678
 32
0.0
 13
-4286.576089981771
 23
-2906.550163905678
 33
0.0
  0
MTEXT
  5
244
330
23C
100
AcDbEntity
  8
0
 62
     3
100
AcDbMText
 10
-4288.576089981773
 20
-2903.100163905678
 30
0.0
 40
3.0
 41
0.0
 71
     5
 72
     1
  1
\A1;\A1;4{\f??|b0|i0|c0|p49;\H0.7x;\S+0.40^ -0;}
1001
ACAD
1000
MTEXTBEGIN
1070
    73
1070
     1
1070
    44
1040
1.0
1070
    74
1070
     0
1000
MTEXTEND
1000
MTEXTBEGIN
1070
    73
1070
     1
1070
    44
1040
1.0
1070
    74
1070
     0
1000
MTEXTEND
1000
MTEXTBEGIN
1070
    73
1070
     1
1070
    44
1040
1.0
1070
    74
1070
     0
1000
MTEXTEND
  0
POINT
  5
245
330
23C
100
AcDbEntity
  8
DEFPOINTS
 62
     0
100
AcDbPoint
 10
-4290.576089981771
 20
-2915.309176450653
 30
0.0
  0
POINT
  5
246
330
23C
100
AcDbEntity
  8
DEFPOINTS
 62
     0
100
AcDbPoint
 10
-4286.576089981771
 20
-2915.309176450653
 30
0.0
  0
POINT
  5
247
330
23C
100
AcDbEntity
  8
DEFPOINTS
 62
     0
100
AcDbPoint
 10
-4286.576089981771
 20
-2906.550163905678
 30
0.0
  0
ENDBLK
  5
249
330
23C
100
AcDbEntity
  8
0
100
AcDbBlockEnd
  0
BLOCK
  5
25B
330
251
100
AcDbEntity
  8
0
100
AcDbBlockBegin
  2
*D19
 70
     1
 10
0.0
 20
0.0
 30
0.0
  3
*D19
  1

  0
LINE
  5
252
330
251
100
AcDbEntity
  8
0
 62
   123
100
AcDbLine
 10
-4345.981619596204
 20
-2848.129784607278
 30
0.0
 11
-4345.981619596204
 21
-2873.706745947396
 31
0.0
  0
LINE
  5
253
330
251
100
AcDbEntity
  8
0
 62
   123
100
AcDbLine
 10
-4265.981619596205
 20
-2848.129784607278
 30
0.0
 11
-4265.981619596205
 21
-2873.706745947396
 31
0.0
  0
LINE
  5
254
330
251
100
AcDbEntity
  8
0
 62
   123
100
AcDbLine
 10
-4343.481619596205
 20
-2873.106745947398
 30
0.0
 11
-4268.481619596204
 21
-2873.106745947398
 31
0.0
  0
SOLID
  5
255
330
251
100
AcDbEntity
  8
0
 62
   123
100
AcDbTrace
 10
-4343.481619596205
 20
-2872.690079280731
 30
0.0
 11
-4343.481619596205
 21
-2873.523412614063
 31
0.0
 12
-4345.981619596204
 22
-2873.106745947398
 32
0.0
 13
-4345.981619596204
 23
-2873.106745947398
 33
0.0
  0
SOLID
  5
256
330
251
100
AcDbEntity
  8
0
 62
   123
100
AcDbTrace
 10
-4268.481619596204
 20
-2872.690079280731
 30
0.0
 11
-4268.481619596204
 21
-2873.523412614063
 31
0.0
 12
-4265.981619596205
 22
-2873.106745947398
 32
0.0
 13
-4265.981619596205
 23
-2873.106745947398
 33
0.0
  0
MTEXT
  5
257
330
251
100
AcDbEntity
  8
0
 62
     3
100
AcDbMText
 10
-4302.162401825684
 20
-2870.606745947397
 30
0.0
 40
3.0
 41
0.0
 71
     5
 72
     1
  1
\A1;80
1001
ACAD
1000
MTEXTBEGIN
1070
    73
1070
     1
1070
    44
1040
1.0
1070
    74
1070
     0
1000
MTEXTEND
1000
MTEXTBEGIN
1070
    73
1070
     1
1070
    44
1040
1.0
1070
    74
1070
     0
1000
MTEXTEND
1000
MTEXTBEGIN
1070
    73
1070
     1
1070
    44
1040
1.0
1070
    74
1070
     0
1000
MTEXTEND
  0
POINT
  5
258
330
251
100
AcDbEntity
  8
DEFPOINTS
 62
     0
100
AcDbPoint
 10
-4345.981619596204
 20
-2847.129784607277
 30
0.0
  0
POINT
  5
259
330
251
100
AcDbEntity
  8
DEFPOINTS
 62
     0
100
AcDbPoint
 10
-4265.981619596205
 20
-2847.129784607277
 30
0.0
  0
POINT
  5
25A
330
251
100
AcDbEntity
  8
DEFPOINTS
 62
     0
100
AcDbPoint
 10
-4265.981619596205
 20
-2873.106745947398
 30
0.0
  0
ENDBLK
  5
25C
330
251
100
AcDbEntity
  8
0
100
AcDbBlockEnd
  0
BLOCK
  5
387
330
37D
100
AcDbEntity
  8
0
100
AcDbBlockBegin
  2
*D20
 70
     1
 10
0.0
 20
0.0
 30
0.0
  3
*D20
  1

  0
LINE
  5
37E
330
37D
100
AcDbEntity
  8
0
 62
   123
100
AcDbLine
 10
-4175.328499003714
 20
-2791.129784607278
 30
0.0
 11
-4175.328499003714
 21
-2775.309496400375
 31
0.0
  0
LINE
  5
37F
330
37D
100
AcDbEntity
  8
0
 62
   123
100
AcDbLine
 10
-4200.328499003711
 20
-2791.129784607278
 30
0.0
 11
-4200.328499003711
 21
-2775.309496400375
 31
0.0
  0
LINE
  5
380
330
37D
100
AcDbEntity
  8
0
 62
   123
100
AcDbLine
 10
-4177.828499003712
 20
-2775.909496400374
 30
0.0
 11
-4197.828499003714
 21
-2775.909496400374
 31
0.0
  0
SOLID
  5
381
330
37D
100
AcDbEntity
  8
0
 62
   123
100
AcDbTrace
 10
-4177.828499003712
 20
-2775.492829733709
 30
0.0
 11
-4177.828499003712
 21
-2776.326163067042
 31
0.0
 12
-4175.328499003714
 22
-2775.909496400374
 32
0.0
 13
-4175.328499003714
 23
-2775.909496400374
 33
0.0
  0
SOLID
  5
382
330
37D
100
AcDbEntity
  8
0
 62
   123
100
AcDbTrace
 10
-4197.828499003714
 20
-2775.492829733709
 30
0.0
 11
-4197.828499003714
 21
-2776.326163067042
 31
0.0
 12
-4200.328499003711
 22
-2775.909496400374
 32
0.0
 13
-4200.328499003711
 23
-2775.909496400374
 33
0.0
  0
MTEXT
  5
383
330
37D
100
AcDbEntity
  8
0
 62
     3
100
AcDbMText
 10
-4187.517568336316
 20
-2773.409496400375
 30
0.0
 40
3.0
 41
0.0
 71
     5
 72
     1
  1
\A1;25
1001
ACAD
1000
MTEXTBEGIN
1070
    73
1070
     1
1070
    44
1040
1.0
1070
    74
1070
     0
1000
MTEXTEND
1000
MTEXTBEGIN
1070
    73
1070
     1
1070
    44
1040
1.0
1070
    74
1070
     0
1000
MTEXTEND
1000
MTEXTBEGIN
1070
    73
1070
     1
1070
    44
1040
1.0
1070
    74
1070
     0
1000
MTEXTEND
  0
POINT
  5
384
330
37D
100
AcDbEntity
  8
DEFPOINTS
 62
     0
100
AcDbPoint
 10
-4175.328499003714
 20
-2792.129784607277
 30
0.0
  0
POINT
  5
385
330
37D
100
AcDbEntity
  8
DEFPOINTS
 62
     0
100
AcDbPoint
 10
-4200.328499003711
 20
-2792.129784607277
 30
0.0
  0
POINT
  5
386
330
37D
100
AcDbEntity
  8
DEFPOINTS
 62
     0
100
AcDbPoint
 10
-4200.328499003711
 20
-2775.909496400374
 30
0.0
  0
ENDBLK
  5
388
330
37D
100
AcDbEntity
  8
0
100
AcDbBlockEnd
  0
BLOCK
  5
34C
330
342
100
AcDbEntity
  8
0
100
AcDbBlockBegin
  2
*D21
 70
     1
 10
0.0
 20
0.0
 30
0.0
  3
*D21
  1

  0
LINE
  5
343
330
342
100
AcDbEntity
  8
0
 62
   123
100
AcDbLine
 10
-4196.589812388855
 20
-2701.700439723921
 30
0.0
 11
-4219.690909780234
 21
-2701.700439723921
 31
0.0
  0
LINE
  5
344
330
342
100
AcDbEntity
  8
0
 62
   123
100
AcDbLine
 10
-4196.589812388855
 20
-2628.700439723921
 30
0.0
 11
-4219.690909780234
 21
-2628.700439723921
 31
0.0
  0
LINE
  5
345
330
342
100
AcDbEntity
  8
0
 62
   123
100
AcDbLine
 10
-4219.090909780233
 20
-2699.20043972392
 30
0.0
 11
-4219.090909780233
 21
-2631.200439723921
 31
0.0
  0
SOLID
  5
346
330
342
100
AcDbEntity
  8
0
 62
   123
100
AcDbTrace
 10
-4219.5075764469
 20
-2699.20043972392
 30
0.0
 11
-4218.674243113566
 21
-2699.20043972392
 31
0.0
 12
-4219.090909780233
 22
-2701.700439723921
 32
0.0
 13
-4219.090909780233
 23
-2701.700439723921
 33
0.0
  0
SOLID
  5
347
330
342
100
AcDbEntity
  8
0
 62
   123
100
AcDbTrace
 10
-4219.5075764469
 20
-2631.200439723921
 30
0.0
 11
-4218.674243113566
 21
-2631.200439723921
 31
0.0
 12
-4219.090909780233
 22
-2628.700439723921
 32
0.0
 13
-4219.090909780233
 23
-2628.700439723921
 33
0.0
  0
MTEXT
  5
348
330
342
100
AcDbEntity
  8
0
 62
     3
100
AcDbMText
 10
-4223.041059780231
 20
-2665.200439723919
 30
0.0
 40
3.0
 41
0.0
 71
     5
 72
     1
  1
\A1;\A1;{\f??|b0|i0|c0|p49;%%C}73{\f??|b0|i0|c0|p49;\H0.7x;\S+0^ -0.030;\H1.429x;(h7)}
 11
0.0000000000000001
 21
1.0
 31
0.0
1001
ACAD
1000
MTEXTBEGIN
1070
    73
1070
     1
1070
    44
1040
1.0
1070
    74
1070
     0
1000
MTEXTEND
1000
MTEXTBEGIN
1070
    73
1070
     1
1070
    44
1040
1.0
1070
    74
1070
     0
1000
MTEXTEND
1000
MTEXTBEGIN
1070
    73
1070
     1
1070
    44
1040
1.0
1070
    74
1070
     0
1000
MTEXTEND
  0
POINT
  5
349
330
342
100
AcDbEntity
  8
DEFPOINTS
 62
     0
100
AcDbPoint
 10
-4195.589812388853
 20
-2701.700439723921
 30
0.0
  0
POINT
  5
34A
330
342
100
AcDbEntity
  8
DEFPOINTS
 62
     0
100
AcDbPoint
 10
-4195.589812388853
 20
-2628.700439723921
 30
0.0
  0
POINT
  5
34B
330
342
100
AcDbEntity
  8
DEFPOINTS
 62
     0
100
AcDbPoint
 10
-4219.090909780233
 20
-2628.700439723921
 30
0.0
  0
ENDBLK
  5
34D
330
342
100
AcDbEntity
  8
0
100
AcDbBlockEnd
  0
BLOCK
  5
317
330
30D
100
AcDbEntity
  8
0
100
AcDbBlockBegin
  2
*D22
 70
     1
 10
0.0
 20
0.0
 30
0.0
  3
*D22
  1

  0
LINE
  5
30E
330
30D
100
AcDbEntity
  8
0
 62
   123
100
AcDbLine
 10
-4334.78276086022
 20
-2629.200439723919
 30
0.0
 11
-4334.78276086022
 21
-2610.125873074181
 31
0.0
  0
LINE
  5
30F
330
30D
100
AcDbEntity
  8
0
 62
   123
100
AcDbLine
 10
-4254.78276086022
 20
-2629.200439723919
 30
0.0
 11
-4254.78276086022
 21
-2610.125873074181
 31
0.0
  0
LINE
  5
310
330
30D
100
AcDbEntity
  8
0
 62
   123
100
AcDbLine
 10
-4332.28276086022
 20
-2610.725873074181
 30
0.0
 11
-4257.28276086022
 21
-2610.725873074181
 31
0.0
  0
SOLID
  5
311
330
30D
100
AcDbEntity
  8
0
 62
   123
100
AcDbTrace
 10
-4332.28276086022
 20
-2610.309206407514
 30
0.0
 11
-4332.28276086022
 21
-2611.142539740847
 31
0.0
 12
-4334.78276086022
 22
-2610.725873074181
 32
0.0
 13
-4334.78276086022
 23
-2610.725873074181
 33
0.0
  0
SOLID
  5
312
330
30D
100
AcDbEntity
  8
0
 62
   123
100
AcDbTrace
 10
-4257.28276086022
 20
-2610.309206407514
 30
0.0
 11
-4257.28276086022
 21
-2611.142539740847
 31
0.0
 12
-4254.78276086022
 22
-2610.725873074181
 32
0.0
 13
-4254.78276086022
 23
-2610.725873074181
 33
0.0
  0
MTEXT
  5
313
330
30D
100
AcDbEntity
  8
0
 62
     3
100
AcDbMText
 10
-4293.174039475579
 20
-2608.22587307418
 30
0.0
 40
3.0
 41
0.0
 71
     5
 72
     1
  1
\A1;80
1001
ACAD
1000
MTEXTBEGIN
1070
    73
1070
     1
1070
    44
1040
1.0
1070
    74
1070
     0
1000
MTEXTEND
1000
MTEXTBEGIN
1070
    73
1070
     1
1070
    44
1040
1.0
1070
    74
1070
     0
1000
MTEXTEND
1000
MTEXTBEGIN
1070
    73
1070
     1
1070
    44
1040
1.0
1070
    74
1070
     0
1000
MTEXTEND
  0
POINT
  5
314
330
30D
100
AcDbEntity
  8
DEFPOINTS
 62
     0
100
AcDbPoint
 10
-4334.78276086022
 20
-2630.200439723918
 30
0.0
  0
POINT
  5
315
330
30D
100
AcDbEntity
  8
DEFPOINTS
 62
     0
100
AcDbPoint
 10
-4254.78276086022
 20
-2630.200439723918
 30
0.0
  0
POINT
  5
316
330
30D
100
AcDbEntity
  8
DEFPOINTS
 62
     0
100
AcDbPoint
 10
-4254.78276086022
 20
-2610.725873074181
 30
0.0
  0
ENDBLK
  5
318
330
30D
100
AcDbEntity
  8
0
100
AcDbBlockEnd
  0
BLOCK
  5
327
330
31D
100
AcDbEntity
  8
0
100
AcDbBlockBegin
  2
*D23
 70
     1
 10
0.0
 20
0.0
 30
0.0
  3
*D23
  1

  0
LINE
  5
31E
330
31D
100
AcDbEntity
  8
0
 62
   123
100
AcDbLine
 10
-4193.589812388855
 20
-2624.20043972392
 30
0.0
 11
-4193.589812388855
 21
-2604.743948103978
 31
0.0
  0
LINE
  5
31F
330
31D
100
AcDbEntity
  8
0
 62
   123
100
AcDbLine
 10
-4161.589812388855
 20
-2624.20043972392
 30
0.0
 11
-4161.589812388855
 21
-2604.743948103978
 31
0.0
  0
LINE
  5
320
330
31D
100
AcDbEntity
  8
0
 62
   123
100
AcDbLine
 10
-4191.089812388855
 20
-2605.343948103979
 30
0.0
 11
-4164.089812388854
 21
-2605.343948103979
 31
0.0
  0
SOLID
  5
321
330
31D
100
AcDbEntity
  8
0
 62
   123
100
AcDbTrace
 10
-4191.089812388855
 20
-2604.927281437313
 30
0.0
 11
-4191.089812388855
 21
-2605.760614770646
 31
0.0
 12
-4193.589812388855
 22
-2605.343948103979
 32
0.0
 13
-4193.589812388855
 23
-2605.343948103979
 33
0.0
  0
SOLID
  5
322
330
31D
100
AcDbEntity
  8
0
 62
   123
100
AcDbTrace
 10
-4164.089812388854
 20
-2604.927281437313
 30
0.0
 11
-4164.089812388854
 21
-2605.760614770646
 31
0.0
 12
-4161.589812388855
 22
-2605.343948103979
 32
0.0
 13
-4161.589812388855
 23
-2605.343948103979
 33
0.0
  0
MTEXT
  5
323
330
31D
100
AcDbEntity
  8
0
 62
     3
100
AcDbMText
 10
-4177.589812388855
 20
-2602.843948103979
 30
0.0
 40
3.0
 41
0.0
 71
     5
 72
     1
  1
\A1;32
1001
ACAD
1000
MTEXTBEGIN
1070
    73
1070
     1
1070
    44
1040
1.0
1070
    74
1070
     0
1000
MTEXTEND
1000
MTEXTBEGIN
1070
    73
1070
     1
1070
    44
1040
1.0
1070
    74
1070
     0
1000
MTEXTEND
1000
MTEXTBEGIN
1070
    73
1070
     1
1070
    44
1040
1.0
1070
    74
1070
     0
1000
MTEXTEND
  0
POINT
  5
324
330
31D
100
AcDbEntity
  8
DEFPOINTS
 62
     0
100
AcDbPoint
 10
-4193.589812388855
 20
-2625.200439723919
 30
0.0
  0
POINT
  5
325
330
31D
100
AcDbEntity
  8
DEFPOINTS
 62
     0
100
AcDbPoint
 10
-4161.589812388855
 20
-2625.200439723919
 30
0.0
  0
POINT
  5
326
330
31D
100
AcDbEntity
  8
DEFPOINTS
 62
     0
100
AcDbPoint
 10
-4161.589812388855
 20
-2605.343948103979
 30
0.0
  0
ENDBLK
  5
328
330
31D
100
AcDbEntity
  8
0
100
AcDbBlockEnd
  0
BLOCK
  5
106
330
FA
100
AcDbEntity
  8
0
100
AcDbBlockBegin
  2
*D24
 70
     1
 10
0.0
 20
0.0
 30
0.0
  3
*D24
  1

  0
LINE
  5
FB
330
FA
100
AcDbEntity
  8
0
 62
   123
100
AcDbLine
 10
-4247.662205195823
 20
-3023.784637857488
 30
0.0
 11
-4262.086868484804
 21
-3023.784637857488
 31
0.0
  0
LINE
  5
FC
330
FA
100
AcDbEntity
  8
0
 62
   123
100
AcDbLine
 10
-4247.662205195823
 20
-3013.784637857487
 30
0.0
 11
-4262.086868484804
 21
-3013.784637857487
 31
0.0
  0
LINE
  5
FD
330
FA
100
AcDbEntity
  8
0
 62
   123
100
AcDbLine
 10
-4261.486868484802
 20
-3026.284637857488
 30
0.0
 11
-4261.486868484802
 21
-3028.784637857487
 31
0.0
  0
LINE
  5
FE
330
FA
100
AcDbEntity
  8
0
 62
   123
100
AcDbLine
 10
-4261.486868484802
 20
-3011.284637857488
 30
0.0
 11
-4261.486868484802
 21
-2964.899894188524
 31
0.0
  0
LINE
  5
FF
330
FA
100
AcDbEntity
  8
0
 62
   123
100
AcDbLine
 10
-4261.486868484802
 20
-3023.784637857488
 30
0.0
 11
-4261.486868484802
 21
-3013.784637857487
 31
0.0
  0
SOLID
  5
100
330
FA
100
AcDbEntity
  8
0
 62
   123
100
AcDbTrace
 10
-4261.90353515147
 20
-3026.284637857488
 30
0.0
 11
-4261.070201818136
 21
-3026.284637857488
 31
0.0
 12
-4261.486868484802
 22
-3023.784637857488
 32
0.0
 13
-4261.486868484802
 23
-3023.784637857488
 33
0.0
  0
SOLID
  5
101
330
FA
100
AcDbEntity
  8
0
 62
   123
100
AcDbTrace
 10
-4261.90353515147
 20
-3011.284637857488
 30
0.0
 11
-4261.070201818136
 21
-3011.284637857488
 31
0.0
 12
-4261.486868484802
 22
-3013.784637857487
 32
0.0
 13
-4261.486868484802
 23
-3013.784637857487
 33
0.0
  0
MTEXT
  5
102
330
FA
100
AcDbEntity
  8
0
 62
     3
100
AcDbMText
 10
-4265.437018484802
 20
-2979.715465617096
 30
0.0
 40
3.0
 41
0.0
 71
     5
 72
     1
  1
\A1;\A1;{\f??|b0|i0|c0|p49;%%C10\H0.7x;\S+0^ -0.015;\H1.429x;(h7)}
 11
0.0000000000000001
 21
1.0
 31
0.0
1001
ACAD
1000
MTEXTBEGIN
1070
    73
1070
     1
1070
    44
1040
1.0
1070
    74
1070
     0
1000
MTEXTEND
1000
MTEXTBEGIN
1070
    73
1070
     1
1070
    44
1040
1.0
1070
    74
1070
     0
1000
MTEXTEND
1000
MTEXTBEGIN
1070
    73
1070
     1
1070
    44
1040
1.0
1070
    74
1070
     0
1000
MTEXTEND
  0
POINT
  5
103
330
FA
100
AcDbEntity
  8
DEFPOINTS
 62
     0
100
AcDbPoint
 10
-4246.662205195824
 20
-3023.784637857488
 30
0.0
  0
POINT
  5
104
330
FA
100
AcDbEntity
  8
DEFPOINTS
 62
     0
100
AcDbPoint
 10
-4246.662205195824
 20
-3013.784637857487
 30
0.0
  0
POINT
  5
105
330
FA
100
AcDbEntity
  8
DEFPOINTS
 62
     0
100
AcDbPoint
 10
-4261.486868484802
 20
-3013.784637857487
 30
0.0
  0
ENDBLK
  5
107
330
FA
100
AcDbEntity
  8
0
100
AcDbBlockEnd
  0
BLOCK
  5
17C
330
172
100
AcDbEntity
  8
0
100
AcDbBlockBegin
  2
*D25
 70
     1
 10
0.0
 20
0.0
 30
0.0
  3
*D25
  1

  0
LINE
  5
173
330
172
100
AcDbEntity
  8
0
 62
   123
100
AcDbLine
 10
-4251.560343997049
 20
-3018.784637857487
 30
0.0
 11
-4267.960082417682
 21
-3018.784637857487
 31
0.0
  0
LINE
  5
174
330
172
100
AcDbEntity
  8
0
 62
   123
100
AcDbLine
 10
-4250.719396141607
 20
-3033.784637857487
 30
0.0
 11
-4267.960082417682
 21
-3033.784637857487
 31
0.0
  0
LINE
  5
175
330
172
100
AcDbEntity
  8
0
 62
   123
100
AcDbLine
 10
-4267.360082417682
 20
-3021.284637857487
 30
0.0
 11
-4267.360082417682
 21
-3031.284637857488
 31
0.0
  0
SOLID
  5
176
330
172
100
AcDbEntity
  8
0
 62
   123
100
AcDbTrace
 10
-4267.776749084349
 20
-3021.284637857487
 30
0.0
 11
-4266.943415751015
 21
-3021.284637857487
 31
0.0
 12
-4267.360082417682
 22
-3018.784637857487
 32
0.0
 13
-4267.360082417682
 23
-3018.784637857487
 33
0.0
  0
SOLID
  5
177
330
172
100
AcDbEntity
  8
0
 62
   123
100
AcDbTrace
 10
-4267.776749084349
 20
-3031.284637857488
 30
0.0
 11
-4266.943415751015
 21
-3031.284637857488
 31
0.0
 12
-4267.360082417682
 22
-3033.784637857487
 32
0.0
 13
-4267.360082417682
 23
-3033.784637857487
 33
0.0
  0
MTEXT
  5
178
330
172
100
AcDbEntity
  8
0
 62
     3
100
AcDbMText
 10
-4269.860082417682
 20
-3026.284637857488
 30
0.0
 40
3.0
 41
0.0
 71
     5
 72
     1
  1
\A1;15
 11
0.0000000000000001
 21
1.0
 31
0.0
1001
ACAD
1000
MTEXTBEGIN
1070
    73
1070
     1
1070
    44
1040
1.0
1070
    74
1070
     0
1000
MTEXTEND
1000
MTEXTBEGIN
1070
    73
1070
     1
1070
    44
1040
1.0
1070
    74
1070
     0
1000
MTEXTEND
1000
MTEXTBEGIN
1070
    73
1070
     1
1070
    44
1040
1.0
1070
    74
1070
     0
1000
MTEXTEND
  0
POINT
  5
179
330
172
100
AcDbEntity
  8
DEFPOINTS
 62
     0
100
AcDbPoint
 10
-4250.560343997049
 20
-3018.784637857487
 30
0.0
  0
POINT
  5
17A
330
172
100
AcDbEntity
  8
DEFPOINTS
 62
     0
100
AcDbPoint
 10
-4249.719396141607
 20
-3033.784637857487
 30
0.0
  0
POINT
  5
17B
330
172
100
AcDbEntity
  8
DEFPOINTS
 62
     0
100
AcDbPoint
 10
-4267.360082417682
 20
-3033.784637857487
 30
0.0
  0
ENDBLK
  5
17D
330
172
100
AcDbEntity
  8
0
100
AcDbBlockEnd
  0
BLOCK
  5
1B5
330
1A9
100
AcDbEntity
  8
0
100
AcDbBlockBegin
  2
*D26
 70
     1
 10
0.0
 20
0.0
 30
0.0
  3
*D26
  1

  0
LINE
  5
1AA
330
1A9
100
AcDbEntity
  8
0
 62
   123
100
AcDbLine
 10
-4349.747858900111
 20
-3081.956761065885
 30
0.0
 11
-4349.747858900111
 21
-3101.114971820198
 31
0.0
  0
LINE
  5
1AB
330
1A9
100
AcDbEntity
  8
0
 62
   123
100
AcDbLine
 10
-4332.868155950801
 20
-3074.535845646547
 30
0.0
 11
-4323.981655596975
 21
-3095.989755322786
 31
0.0
  0
ARC
  5
1AC
330
1A9
100
AcDbEntity
  8
0
 62
   123
100
AcDbCircle
 10
-4349.747858900111
 20
-3033.784637857484
 30
0.0
 40
66.73033396271438
100
AcDbArc
 50
272.1466673179619
 51
290.3533326820353
  0
SOLID
  5
1AD
330
1A9
100
AcDbEntity
  8
0
 62
   123
100
AcDbTrace
 10
-4347.24049250745
 20
-3100.884735101312
 30
0.0
 11
-4347.256102599664
 21
-3100.051547985795
 31
0.0
 12
-4349.747858900111
 22
-3100.514971820198
 32
0.0
 13
-4349.747858900111
 23
-3100.514971820198
 33
0.0
  0
SOLID
  5
1AE
330
1A9
100
AcDbEntity
  8
0
 62
   123
100
AcDbTrace
 10
-4326.690692925973
 20
-3095.960833661469
 30
0.0
 11
-4326.386267865501
 21
-3096.736571907917
 31
0.0
 12
-4324.211265656395
 22
-3095.43542760328
 32
0.0
 13
-4324.211265656395
 23
-3095.43542760328
 33
0.0
  0
MTEXT
  5
1AF
330
1A9
100
AcDbEntity
  8
0
 62
     3
100
AcDbMText
 10
-4335.757891440663
 20
-3096.180112021237
 30
0.0
 40
3.0
 41
0.0
 71
     5
 72
     1
  1
\A1;22°30'
 11
0.9757736378592793
 21
0.2187825579402252
 31
0.0
1001
ACAD
1000
MTEXTBEGIN
1070
    73
1070
     1
1070
    44
1040
1.0
1070
    74
1070
     0
1000
MTEXTEND
1000
MTEXTBEGIN
1070
    73
1070
     1
1070
    44
1040
1.0
1070
    74
1070
     0
1000
MTEXTEND
1000
MTEXTBEGIN
1070
    73
1070
     1
1070
    44
1040
1.0
1070
    74
1070
     0
1000
MTEXTEND
  0
POINT
  5
1B0
330
1A9
100
AcDbEntity
  8
DEFPOINTS
 62
     0
100
AcDbPoint
 10
-4341.037802502387
 20
-3099.944084562576
 30
0.0
  0
POINT
  5
1B1
330
1A9
100
AcDbEntity
  8
DEFPOINTS
 62
     0
100
AcDbPoint
 10
-4349.747858900111
 20
-3080.956761065885
 30
0.0
  0
POINT
  5
1B2
330
1A9
100
AcDbEntity
  8
DEFPOINTS
 62
     0
100
AcDbPoint
 10
-4333.250839383164
 20
-3073.611966114037
 30
0.0
  0
POINT
  5
1B3
330
1A9
100
AcDbEntity
  8
DEFPOINTS
 62
     0
100
AcDbPoint
 10
-4349.747858900109
 20
-3033.784637857487
 30
0.0
  0
POINT
  5
1B4
330
1A9
100
AcDbEntity
  8
DEFPOINTS
 62
     0
100
AcDbPoint
 10
-4349.747858900111
 20
-2986.612514649091
 30
0.0
  0
ENDBLK
  5
1B6
330
1A9
100
AcDbEntity
  8
0
100
AcDbBlockEnd
  0
BLOCK
  5
115
330
10B
100
AcDbEntity
  8
0
100
AcDbBlockBegin
  2
*D27
 70
     1
 10
0.0
 20
0.0
 30
0.0
  3
*D27
  1

  0
LINE
  5
10C
330
10B
100
AcDbEntity
  8
0
 62
   123
100
AcDbLine
 10
-4389.747858900109
 20
-2997.784637857487
 30
0.0
 11
-4389.747858900109
 21
-2975.989069526873
 31
0.0
  0
LINE
  5
10D
330
10B
100
AcDbEntity
  8
0
 62
   123
100
AcDbLine
 10
-4309.747858900109
 20
-2997.784637857487
 30
0.0
 11
-4309.747858900109
 21
-2975.989069526873
 31
0.0
  0
LINE
  5
10E
330
10B
100
AcDbEntity
  8
0
 62
   123
100
AcDbLine
 10
-4387.247858900109
 20
-2976.589069526873
 30
0.0
 11
-4312.24785890011
 21
-2976.589069526873
 31
0.0
  0
SOLID
  5
10F
330
10B
100
AcDbEntity
  8
0
 62
   123
100
AcDbTrace
 10
-4387.247858900109
 20
-2976.172402860207
 30
0.0
 11
-4387.247858900109
 21
-2977.00573619354
 31
0.0
 12
-4389.747858900109
 22
-2976.589069526873
 32
0.0
 13
-4389.747858900109
 23
-2976.589069526873
 33
0.0
  0
SOLID
  5
110
330
10B
100
AcDbEntity
  8
0
 62
   123
100
AcDbTrace
 10
-4312.24785890011
 20
-2976.172402860207
 30
0.0
 11
-4312.24785890011
 21
-2977.00573619354
 31
0.0
 12
-4309.747858900109
 22
-2976.589069526873
 32
0.0
 13
-4309.747858900109
 23
-2976.589069526873
 33
0.0
  0
MTEXT
  5
111
330
10B
100
AcDbEntity
  8
0
 62
     3
100
AcDbMText
 10
-4348.98923114527
 20
-2974.089069526873
 30
0.0
 40
3.0
 41
0.0
 71
     5
 72
     1
  1
\A1;80
1001
ACAD
1000
MTEXTBEGIN
1070
    73
1070
     1
1070
    44
1040
1.0
1070
    74
1070
     0
1000
MTEXTEND
1000
MTEXTBEGIN
1070
    73
1070
     1
1070
    44
1040
1.0
1070
    74
1070
     0
1000
MTEXTEND
1000
MTEXTBEGIN
1070
    73
1070
     1
1070
    44
1040
1.0
1070
    74
1070
     0
1000
MTEXTEND
  0
POINT
  5
112
330
10B
100
AcDbEntity
  8
DEFPOINTS
 62
     0
100
AcDbPoint
 10
-4389.747858900109
 20
-2998.784637857488
 30
0.0
  0
POINT
  5
113
330
10B
100
AcDbEntity
  8
DEFPOINTS
 62
     0
100
AcDbPoint
 10
-4309.747858900109
 20
-2998.784637857488
 30
0.0
  0
POINT
  5
114
330
10B
100
AcDbEntity
  8
DEFPOINTS
 62
     0
100
AcDbPoint
 10
-4309.747858900109
 20
-2976.589069526873
 30
0.0
  0
ENDBLK
  5
116
330
10B
100
AcDbEntity
  8
0
100
AcDbBlockEnd
  0
BLOCK
  5
131
330
127
100
AcDbEntity
  8
0
100
AcDbBlockBegin
  2
*D28
 70
     1
 10
0.0
 20
0.0
 30
0.0
  3
*D28
  1

  0
LINE
  5
128
330
127
100
AcDbEntity
  8
0
 62
   123
100
AcDbLine
 10
-4174.662205195824
 20
-2992.784637857488
 30
0.0
 11
-4174.662205195824
 21
-2977.264866248206
 31
0.0
  0
LINE
  5
129
330
127
100
AcDbEntity
  8
0
 62
   123
100
AcDbLine
 10
-4167.662205195823
 20
-2994.18590051596
 30
0.0
 11
-4167.662205195823
 21
-2977.264866248206
 31
0.0
  0
LINE
  5
12A
330
127
100
AcDbEntity
  8
0
 62
   123
100
AcDbLine
 10
-4172.162205195824
 20
-2977.864866248205
 30
0.0
 11
-4170.162205195824
 21
-2977.864866248205
 31
0.0
  0
SOLID
  5
12B
330
127
100
AcDbEntity
  8
0
 62
   123
100
AcDbTrace
 10
-4172.162205195824
 20
-2977.448199581538
 30
0.0
 11
-4172.162205195824
 21
-2978.281532914872
 31
0.0
 12
-4174.662205195824
 22
-2977.864866248205
 32
0.0
 13
-4174.662205195824
 23
-2977.864866248205
 33
0.0
  0
SOLID
  5
12C
330
127
100
AcDbEntity
  8
0
 62
   123
100
AcDbTrace
 10
-4170.162205195824
 20
-2977.448199581538
 30
0.0
 11
-4170.162205195824
 21
-2978.281532914872
 31
0.0
 12
-4167.662205195823
 22
-2977.864866248205
 32
0.0
 13
-4167.662205195823
 23
-2977.864866248205
 33
0.0
  0
MTEXT
  5
12D
330
127
100
AcDbEntity
  8
0
 62
     3
100
AcDbMText
 10
-4171.162205195822
 20
-2975.364866248206
 30
0.0
 40
3.0
 41
0.0
 71
     5
 72
     1
  1
\A1;7
1001
ACAD
1000
MTEXTBEGIN
1070
    73
1070
     1
1070
    44
1040
1.0
1070
    74
1070
     0
1000
MTEXTEND
1000
MTEXTBEGIN
1070
    73
1070
     1
1070
    44
1040
1.0
1070
    74
1070
     0
1000
MTEXTEND
1000
MTEXTBEGIN
1070
    73
1070
     1
1070
    44
1040
1.0
1070
    74
1070
     0
1000
MTEXTEND
  0
POINT
  5
12E
330
127
100
AcDbEntity
  8
DEFPOINTS
 62
     0
100
AcDbPoint
 10
-4174.662205195824
 20
-2993.784637857487
 30
0.0
  0
POINT
  5
12F
330
127
100
AcDbEntity
  8
DEFPOINTS
 62
     0
100
AcDbPoint
 10
-4167.662205195823
 20
-2995.18590051596
 30
0.0
  0
POINT
  5
130
330
127
100
AcDbEntity
  8
DEFPOINTS
 62
     0
100
AcDbPoint
 10
-4167.662205195823
 20
-2977.864866248205
 30
0.0
  0
ENDBLK
  5
132
330
127
100
AcDbEntity
  8
0
100
AcDbBlockEnd
  0
BLOCK
  5
14D
330
143
100
AcDbEntity
  8
0
100
AcDbBlockBegin
  2
*D29
 70
     1
 10
0.0
 20
0.0
 30
0.0
  3
*D29
  1

  0
LINE
  5
144
330
143
100
AcDbEntity
  8
0
 62
   123
100
AcDbLine
 10
-4089.662205195824
 20
-2995.784637857488
 30
0.0
 11
-4089.662205195824
 21
-2964.532594638924
 31
0.0
  0
LINE
  5
145
330
143
100
AcDbEntity
  8
0
 62
   123
100
AcDbLine
 10
-4079.662205195822
 20
-3010.284637857488
 30
0.0
 11
-4079.662205195822
 21
-2964.532594638924
 31
0.0
  0
LINE
  5
146
330
143
100
AcDbEntity
  8
0
 62
   123
100
AcDbLine
 10
-4087.162205195824
 20
-2965.132594638923
 30
0.0
 11
-4082.162205195824
 21
-2965.132594638923
 31
0.0
  0
SOLID
  5
147
330
143
100
AcDbEntity
  8
0
 62
   123
100
AcDbTrace
 10
-4087.162205195824
 20
-2964.715927972257
 30
0.0
 11
-4087.162205195824
 21
-2965.549261305589
 31
0.0
 12
-4089.662205195824
 22
-2965.132594638923
 32
0.0
 13
-4089.662205195824
 23
-2965.132594638923
 33
0.0
  0
SOLID
  5
148
330
143
100
AcDbEntity
  8
0
 62
   123
100
AcDbTrace
 10
-4082.162205195824
 20
-2964.715927972257
 30
0.0
 11
-4082.162205195824
 21
-2965.549261305589
 31
0.0
 12
-4079.662205195822
 22
-2965.132594638923
 32
0.0
 13
-4079.662205195822
 23
-2965.132594638923
 33
0.0
  0
MTEXT
  5
149
330
143
100
AcDbEntity
  8
0
 62
     3
100
AcDbMText
 10
-4084.662205195824
 20
-2962.632594638924
 30
0.0
 40
3.0
 41
0.0
 71
     5
 72
     1
  1
\A1;10
1001
ACAD
1000
MTEXTBEGIN
1070
    73
1070
     1
1070
    44
1040
1.0
1070
    74
1070
     0
1000
MTEXTEND
1000
MTEXTBEGIN
1070
    73
1070
     1
1070
    44
1040
1.0
1070
    74
1070
     0
1000
MTEXTEND
1000
MTEXTBEGIN
1070
    73
1070
     1
1070
    44
1040
1.0
1070
    74
1070
     0
1000
MTEXTEND
  0
POINT
  5
14A
330
143
100
AcDbEntity
  8
DEFPOINTS
 62
     0
100
AcDbPoint
 10
-4089.662205195824
 20
-2996.784637857487
 30
0.0
  0
POINT
  5
14B
330
143
100
AcDbEntity
  8
DEFPOINTS
 62
     0
100
AcDbPoint
 10
-4079.662205195822
 20
-3011.284637857488
 30
0.0
  0
POINT
  5
14C
330
143
100
AcDbEntity
  8
DEFPOINTS
 62
     0
100
AcDbPoint
 10
-4079.662205195822
 20
-2965.132594638923
 30
0.0
  0
ENDBLK
  5
14E
330
143
100
AcDbEntity
  8
0
100
AcDbBlockEnd
  0
BLOCK
  5
1EB
330
1E1
100
AcDbEntity
  8
0
100
AcDbBlockBegin
  2
*D30
 70
     1
 10
0.0
 20
0.0
 30
0.0
  3
*D30
  1

  0
LINE
  5
1E2
330
1E1
100
AcDbEntity
  8
0
 62
   123
100
AcDbLine
 10
-4079.662205195822
 20
-3010.284637857488
 30
0.0
 11
-4062.66450036693
 21
-3010.284637857488
 31
0.0
  0
LINE
  5
1E3
330
1E1
100
AcDbEntity
  8
0
 62
   123
100
AcDbLine
 10
-4079.662205195822
 20
-3057.284637857487
 30
0.0
 11
-4062.66450036693
 21
-3057.284637857487
 31
0.0
  0
LINE
  5
1E4
330
1E1
100
AcDbEntity
  8
0
 62
   123
100
AcDbLine
 10
-4063.26450036693
 20
-3012.784637857487
 30
0.0
 11
-4063.26450036693
 21
-3054.784637857487
 31
0.0
  0
SOLID
  5
1E5
330
1E1
100
AcDbEntity
  8
0
 62
   123
100
AcDbTrace
 10
-4063.681167033595
 20
-3012.784637857487
 30
0.0
 11
-4062.847833700263
 21
-3012.784637857487
 31
0.0
 12
-4063.26450036693
 22
-3010.284637857488
 32
0.0
 13
-4063.26450036693
 23
-3010.284637857488
 33
0.0
  0
SOLID
  5
1E6
330
1E1
100
AcDbEntity
  8
0
 62
   123
100
AcDbTrace
 10
-4063.681167033595
 20
-3054.784637857487
 30
0.0
 11
-4062.847833700263
 21
-3054.784637857487
 31
0.0
 12
-4063.26450036693
 22
-3057.284637857487
 32
0.0
 13
-4063.26450036693
 23
-3057.284637857487
 33
0.0
  0
MTEXT
  5
1E7
330
1E1
100
AcDbEntity
  8
0
 62
     3
100
AcDbMText
 10
-4065.764500366928
 20
-3033.824745084404
 30
0.0
 40
3.0
 41
0.0
 71
     5
 72
     1
  1
\A1;%%c47
 11
0.0000000000000001
 21
1.0
 31
0.0
1001
ACAD
1000
MTEXTBEGIN
1070
    73
1070
     1
1070
    44
1040
1.0
1070
    74
1070
     0
1000
MTEXTEND
1000
MTEXTBEGIN
1070
    73
1070
     1
1070
    44
1040
1.0
1070
    74
1070
     0
1000
MTEXTEND
1000
MTEXTBEGIN
1070
    73
1070
     1
1070
    44
1040
1.0
1070
    74
1070
     0
1000
MTEXTEND
  0
POINT
  5
1E8
330
1E1
100
AcDbEntity
  8
DEFPOINTS
 62
     0
100
AcDbPoint
 10
-4080.662205195824
 20
-3010.284637857488
 30
0.0
  0
POINT
  5
1E9
330
1E1
100
AcDbEntity
  8
DEFPOINTS
 62
     0
100
AcDbPoint
 10
-4080.662205195824
 20
-3057.284637857487
 30
0.0
  0
POINT
  5
1EA
330
1E1
100
AcDbEntity
  8
DEFPOINTS
 62
     0
100
AcDbPoint
 10
-4063.26450036693
 20
-3057.284637857487
 30
0.0
  0
ENDBLK
  5
1EC
330
1E1
100
AcDbEntity
  8
0
100
AcDbBlockEnd
  0
BLOCK
  5
1FE
330
1F4
100
AcDbEntity
  8
0
100
AcDbBlockBegin
  2
*D31
 70
     1
 10
0.0
 20
0.0
 30
0.0
  3
*D31
  1

  0
LINE
  5
1F5
330
1F4
100
AcDbEntity
  8
0
 62
   123
100
AcDbLine
 10
-4095.662205195822
 20
-2994.284637857488
 30
0.0
 11
-4053.331667369222
 21
-2994.284637857488
 31
0.0
  0
LINE
  5
1F6
330
1F4
100
AcDbEntity
  8
0
 62
   123
100
AcDbLine
 10
-4095.662205195824
 20
-3073.284637857487
 30
0.0
 11
-4053.331667369222
 21
-3073.284637857487
 31
0.0
  0
LINE
  5
1F7
330
1F4
100
AcDbEntity
  8
0
 62
   123
100
AcDbLine
 10
-4053.931667369221
 20
-2996.784637857487
 30
0.0
 11
-4053.931667369221
 21
-3070.784637857487
 31
0.0
  0
SOLID
  5
1F8
330
1F4
100
AcDbEntity
  8
0
 62
   123
100
AcDbTrace
 10
-4054.348334035888
 20
-2996.784637857487
 30
0.0
 11
-4053.515000702555
 21
-2996.784637857487
 31
0.0
 12
-4053.931667369221
 22
-2994.284637857488
 32
0.0
 13
-4053.931667369221
 23
-2994.284637857488
 33
0.0
  0
SOLID
  5
1F9
330
1F4
100
AcDbEntity
  8
0
 62
   123
100
AcDbTrace
 10
-4054.348334035888
 20
-3070.784637857487
 30
0.0
 11
-4053.515000702555
 21
-3070.784637857487
 31
0.0
 12
-4053.931667369222
 22
-3073.284637857487
 32
0.0
 13
-4053.931667369222
 23
-3073.284637857487
 33
0.0
  0
MTEXT
  5
1FA
330
1F4
100
AcDbEntity
  8
0
 62
     3
100
AcDbMText
 10
-4056.431667369221
 20
-3034.894084777933
 30
0.0
 40
3.0
 41
0.0
 71
     5
 72
     1
  1
\A1;%%C79
 11
0.0000000000000001
 21
1.0
 31
0.0
1001
ACAD
1000
MTEXTBEGIN
1070
    73
1070
     1
1070
    44
1040
1.0
1070
    74
1070
     0
1000
MTEXTEND
1000
MTEXTBEGIN
1070
    73
1070
     1
1070
    44
1040
1.0
1070
    74
1070
     0
1000
MTEXTEND
1000
MTEXTBEGIN
1070
    73
1070
     1
1070
    44
1040
1.0
1070
    74
1070
     0
1000
MTEXTEND
  0
POINT
  5
1FB
330
1F4
100
AcDbEntity
  8
DEFPOINTS
 62
     0
100
AcDbPoint
 10
-4096.662205195824
 20
-2994.284637857488
 30
0.0
  0
POINT
  5
1FC
330
1F4
100
AcDbEntity
  8
DEFPOINTS
 62
     0
100
AcDbPoint
 10
-4096.662205195824
 20
-3073.284637857487
 30
0.0
  0
POINT
  5
1FD
330
1F4
100
AcDbEntity
  8
DEFPOINTS
 62
     0
100
AcDbPoint
 10
-4053.931667369222
 20
-3073.284637857487
 30
0.0
  0
ENDBLK
  5
1FF
330
1F4
100
AcDbEntity
  8
0
100
AcDbBlockEnd
  0
BLOCK
  5
16B
330
161
100
AcDbEntity
  8
0
100
AcDbBlockBegin
  2
*D32
 70
     1
 10
0.0
 20
0.0
 30
0.0
  3
*D32
  1

  0
LINE
  5
162
330
161
100
AcDbEntity
  8
0
 62
   123
100
AcDbLine
 10
-4246.662205195824
 20
-3012.784637857487
 30
0.0
 11
-4246.662205195824
 21
-2964.535112557859
 31
0.0
  0
LINE
  5
163
330
161
100
AcDbEntity
  8
0
 62
   123
100
AcDbLine
 10
-4214.662205195824
 20
-2993.284637857488
 30
0.0
 11
-4214.662205195824
 21
-2964.535112557859
 31
0.0
  0
LINE
  5
164
330
161
100
AcDbEntity
  8
0
 62
   123
100
AcDbLine
 10
-4244.162205195824
 20
-2965.135112557859
 30
0.0
 11
-4217.162205195823
 21
-2965.135112557859
 31
0.0
  0
SOLID
  5
165
330
161
100
AcDbEntity
  8
0
 62
   123
100
AcDbTrace
 10
-4244.162205195824
 20
-2964.718445891193
 30
0.0
 11
-4244.162205195824
 21
-2965.551779224526
 31
0.0
 12
-4246.662205195824
 22
-2965.135112557859
 32
0.0
 13
-4246.662205195824
 23
-2965.135112557859
 33
0.0
  0
SOLID
  5
166
330
161
100
AcDbEntity
  8
0
 62
   123
100
AcDbTrace
 10
-4217.162205195823
 20
-2964.718445891193
 30
0.0
 11
-4217.162205195823
 21
-2965.551779224526
 31
0.0
 12
-4214.662205195824
 22
-2965.135112557859
 32
0.0
 13
-4214.662205195824
 23
-2965.135112557859
 33
0.0
  0
MTEXT
  5
167
330
161
100
AcDbEntity
  8
0
 62
     3
100
AcDbMText
 10
-4230.34097326594
 20
-2962.63511255786
 30
0.0
 40
3.0
 41
0.0
 71
     5
 72
     1
  1
\A1;32
1001
ACAD
1000
MTEXTBEGIN
1070
    73
1070
     1
1070
    44
1040
1.0
1070
    74
1070
     0
1000
MTEXTEND
1000
MTEXTBEGIN
1070
    73
1070
     1
1070
    44
1040
1.0
1070
    74
1070
     0
1000
MTEXTEND
1000
MTEXTBEGIN
1070
    73
1070
     1
1070
    44
1040
1.0
1070
    74
1070
     0
1000
MTEXTEND
  0
POINT
  5
168
330
161
100
AcDbEntity
  8
DEFPOINTS
 62
     0
100
AcDbPoint
 10
-4246.662205195824
 20
-3013.784637857487
 30
0.0
  0
POINT
  5
169
330
161
100
AcDbEntity
  8
DEFPOINTS
 62
     0
100
AcDbPoint
 10
-4214.662205195824
 20
-2994.284637857488
 30
0.0
  0
POINT
  5
16A
330
161
100
AcDbEntity
  8
DEFPOINTS
 62
     0
100
AcDbPoint
 10
-4214.662205195824
 20
-2965.135112557859
 30
0.0
  0
ENDBLK
  5
16C
330
161
100
AcDbEntity
  8
0
100
AcDbBlockEnd
  0
BLOCK
  5
22B
330
221
100
AcDbEntity
  8
0
100
AcDbBlockBegin
  2
*D33
 70
     1
 10
0.0
 20
0.0
 30
0.0
  3
*D33
  1

  0
LINE
  5
222
330
221
100
AcDbEntity
  8
0
 62
   123
100
AcDbLine
 10
-4221.662205195824
 20
-3012.784637857487
 30
0.0
 11
-4221.662205195824
 21
-2996.964349650584
 31
0.0
  0
LINE
  5
223
330
221
100
AcDbEntity
  8
0
 62
   123
100
AcDbLine
 10
-4246.662205195824
 20
-3012.784637857487
 30
0.0
 11
-4246.662205195824
 21
-2996.964349650584
 31
0.0
  0
LINE
  5
224
330
221
100
AcDbEntity
  8
0
 62
   123
100
AcDbLine
 10
-4224.162205195823
 20
-2997.564349650584
 30
0.0
 11
-4244.162205195824
 21
-2997.564349650584
 31
0.0
  0
SOLID
  5
225
330
221
100
AcDbEntity
  8
0
 62
   123
100
AcDbTrace
 10
-4224.162205195823
 20
-2997.147682983918
 30
0.0
 11
-4224.162205195823
 21
-2997.981016317251
 31
0.0
 12
-4221.662205195824
 22
-2997.564349650584
 32
0.0
 13
-4221.662205195824
 23
-2997.564349650584
 33
0.0
  0
SOLID
  5
226
330
221
100
AcDbEntity
  8
0
 62
   123
100
AcDbTrace
 10
-4244.162205195824
 20
-2997.147682983918
 30
0.0
 11
-4244.162205195824
 21
-2997.981016317251
 31
0.0
 12
-4246.662205195824
 22
-2997.564349650584
 32
0.0
 13
-4246.662205195824
 23
-2997.564349650584
 33
0.0
  0
MTEXT
  5
227
330
221
100
AcDbEntity
  8
0
 62
     3
100
AcDbMText
 10
-4233.851274528428
 20
-2995.064349650585
 30
0.0
 40
3.0
 41
0.0
 71
     5
 72
     1
  1
\A1;25
1001
ACAD
1000
MTEXTBEGIN
1070
    73
1070
     1
1070
    44
1040
1.0
1070
    74
1070
     0
1000
MTEXTEND
1000
MTEXTBEGIN
1070
    73
1070
     1
1070
    44
1040
1.0
1070
    74
1070
     0
1000
MTEXTEND
1000
MTEXTBEGIN
1070
    73
1070
     1
1070
    44
1040
1.0
1070
    74
1070
     0
1000
MTEXTEND
  0
POINT
  5
228
330
221
100
AcDbEntity
  8
DEFPOINTS
 62
     0
100
AcDbPoint
 10
-4221.662205195824
 20
-3013.784637857487
 30
0.0
  0
POINT
  5
229
330
221
100
AcDbEntity
  8
DEFPOINTS
 62
     0
100
AcDbPoint
 10
-4246.662205195824
 20
-3013.784637857487
 30
0.0
  0
POINT
  5
22A
330
221
100
AcDbEntity
  8
DEFPOINTS
 62
     0
100
AcDbPoint
 10
-4246.662205195824
 20
-2997.564349650584
 30
0.0
  0
ENDBLK
  5
22C
330
221
100
AcDbEntity
  8
0
100
AcDbBlockEnd
  0
BLOCK
  5
3A1
330
397
100
AcDbEntity
  8
0
100
AcDbBlockBegin
  2
*D34
 70
     1
 10
0.0
 20
0.0
 30
0.0
  3
*D34
  1

  0
LINE
  5
398
330
397
100
AcDbEntity
  8
0
 62
   123
100
AcDbLine
 10
109.604930230249
 20
312.9755553236095
 30
0.0
 11
46.990548338686
 21
312.9755553236095
 31
0.0
  0
LINE
  5
399
330
397
100
AcDbEntity
  8
0
 62
   123
100
AcDbLine
 10
109.604930230249
 20
278.9755553236095
 30
0.0
 11
46.99054833868599
 21
278.9755553236095
 31
0.0
  0
LINE
  5
39A
330
397
100
AcDbEntity
  8
0
 62
   123
100
AcDbLine
 10
47.59054833868598
 20
310.4755553236095
 30
0.0
 11
47.59054833868598
 21
281.4755553236095
 31
0.0
  0
SOLID
  5
39B
330
397
100
AcDbEntity
  8
0
 62
   123
100
AcDbTrace
 10
47.17388167201931
 20
310.4755553236095
 30
0.0
 11
48.00721500535266
 21
310.4755553236095
 31
0.0
 12
47.59054833868598
 22
312.9755553236095
 32
0.0
 13
47.59054833868598
 23
312.9755553236095
 33
0.0
  0
SOLID
  5
39C
330
397
100
AcDbEntity
  8
0
 62
   123
100
AcDbTrace
 10
47.17388167201931
 20
281.4755553236095
 30
0.0
 11
48.00721500535265
 21
281.4755553236095
 31
0.0
 12
47.59054833868598
 22
278.9755553236095
 32
0.0
 13
47.59054833868598
 23
278.9755553236095
 33
0.0
  0
MTEXT
  5
39D
330
397
100
AcDbEntity
  8
0
 62
     3
100
AcDbMText
 10
45.09054833868595
 20
295.9755553236103
 30
0.0
 40
3.0
 41
0.0
 71
     5
 72
     1
  1
\A1;{\f??|b0|i0|c0|p49;%%c}34
 11
0.0000000000000001
 21
1.0
 31
0.0
1001
ACAD
1000
MTEXTBEGIN
1070
    73
1070
     1
1070
    44
1040
1.0
1070
    74
1070
     0
1000
MTEXTEND
1000
MTEXTBEGIN
1070
    73
1070
     1
1070
    44
1040
1.0
1070
    74
1070
     0
1000
MTEXTEND
1000
MTEXTBEGIN
1070
    73
1070
     1
1070
    44
1040
1.0
1070
    74
1070
     0
1000
MTEXTEND
  0
POINT
  5
39E
330
397
100
AcDbEntity
  8
DEFPOINTS
 62
     0
100
AcDbPoint
 10
110.604930230249
 20
312.9755553236095
 30
0.0
  0
POINT
  5
39F
330
397
100
AcDbEntity
  8
DEFPOINTS
 62
     0
100
AcDbPoint
 10
110.604930230249
 20
278.9755553236095
 30
0.0
  0
POINT
  5
3A0
330
397
100
AcDbEntity
  8
DEFPOINTS
 62
     0
100
AcDbPoint
 10
47.59054833868598
 20
278.9755553236095
 30
0.0
  0
ENDBLK
  5
3A2
330
397
100
AcDbEntity
  8
0
100
AcDbBlockEnd
  0
BLOCK
  5
3AF
330
3A3
100
AcDbEntity
  8
0
100
AcDbBlockBegin
  2
*D35
 70
     1
 10
0.0
 20
0.0
 30
0.0
  3
*D35
  1

  0
LINE
  5
3A4
330
3A3
100
AcDbEntity
  8
0
 62
   123
100
AcDbLine
 10
80.1049302302499
 20
290.9755553236103
 30
0.0
 11
65.68026694127317
 21
290.9755553236103
 31
0.0
  0
LINE
  5
3A5
330
3A3
100
AcDbEntity
  8
0
 62
   123
100
AcDbLine
 10
80.1049302302499
 20
300.9755553236103
 30
0.0
 11
65.68026694127317
 21
300.9755553236103
 31
0.0
  0
LINE
  5
3A6
330
3A3
100
AcDbEntity
  8
0
 62
   123
100
AcDbLine
 10
66.28026694127317
 20
288.4755553236103
 30
0.0
 11
66.28026694127314
 21
285.9755553236102
 31
0.0
  0
LINE
  5
3A7
330
3A3
100
AcDbEntity
  8
0
 62
   123
100
AcDbLine
 10
66.28026694127317
 20
303.4755553236105
 30
0.0
 11
66.28026694127317
 21
343.9020606779236
 31
0.0
  0
LINE
  5
3A8
330
3A3
100
AcDbEntity
  8
0
 62
   123
100
AcDbLine
 10
66.28026694127317
 20
290.9755553236103
 30
0.0
 11
66.28026694127317
 21
300.9755553236103
 31
0.0
  0
SOLID
  5
3A9
330
3A3
100
AcDbEntity
  8
0
 62
   123
100
AcDbTrace
 10
65.86360027460649
 20
288.4755553236103
 30
0.0
 11
66.69693360793984
 21
288.4755553236103
 31
0.0
 12
66.28026694127317
 22
290.9755553236103
 32
0.0
 13
66.28026694127317
 23
290.9755553236103
 33
0.0
  0
SOLID
  5
3AA
330
3A3
100
AcDbEntity
  8
0
 62
   123
100
AcDbTrace
 10
65.86360027460649
 20
303.4755553236105
 30
0.0
 11
66.69693360793984
 21
303.4755553236105
 31
0.0
 12
66.28026694127317
 22
300.9755553236103
 32
0.0
 13
66.28026694127317
 23
300.9755553236103
 33
0.0
  0
MTEXT
  5
3AB
330
3A3
100
AcDbEntity
  8
0
 62
     3
100
AcDbMText
 10
62.33011694127312
 20
329.0864892493523
 30
0.0
 40
3.0
 41
0.0
 71
     5
 72
     1
  1
\A1;\A1;{\f??|b0|i0|c0|p49;%%C10\H0.7x;\S+0^ -0.015;\H1.429x;(h7)}
 11
0.0000000000000001
 21
1.0
 31
0.0
1001
ACAD
1000
MTEXTBEGIN
1070
    73
1070
     1
1070
    44
1040
1.0
1070
    74
1070
     0
1000
MTEXTEND
1000
MTEXTBEGIN
1070
    73
1070
     1
1070
    44
1040
1.0
1070
    74
1070
     0
1000
MTEXTEND
1000
MTEXTBEGIN
1070
    73
1070
     1
1070
    44
1040
1.0
1070
    74
1070
     0
1000
MTEXTEND
  0
POINT
  5
3AC
330
3A3
100
AcDbEntity
  8
DEFPOINTS
 62
     0
100
AcDbPoint
 10
81.10493023024991
 20
290.9755553236103
 30
0.0
  0
POINT
  5
3AD
330
3A3
100
AcDbEntity
  8
DEFPOINTS
 62
     0
100
AcDbPoint
 10
81.10493023024991
 20
300.9755553236103
 30
0.0
  0
POINT
  5
3AE
330
3A3
100
AcDbEntity
  8
DEFPOINTS
 62
     0
100
AcDbPoint
 10
66.28026694127317
 20
300.9755553236103
 30
0.0
  0
ENDBLK
  5
3B0
330
3A3
100
AcDbEntity
  8
0
100
AcDbBlockEnd
  0
BLOCK
  5
3BB
330
3B1
100
AcDbEntity
  8
0
100
AcDbBlockBegin
  2
*D36
 70
     1
 10
0.0
 20
0.0
 30
0.0
  3
*D36
  1

  0
LINE
  5
3B2
330
3B1
100
AcDbEntity
  8
0
 62
   123
100
AcDbLine
 10
76.20679142902464
 20
295.9755553236103
 30
0.0
 11
56.65838355875385
 21
295.9755553236103
 31
0.0
  0
LINE
  5
3B3
330
3B1
100
AcDbEntity
  8
0
 62
   123
100
AcDbLine
 10
68.49725709614813
 20
280.9755553236104
 30
0.0
 11
56.65838355875385
 21
280.9755553236104
 31
0.0
  0
LINE
  5
3B4
330
3B1
100
AcDbEntity
  8
0
 62
   123
100
AcDbLine
 10
57.25838355875385
 20
293.4755553236103
 30
0.0
 11
57.25838355875385
 21
283.4755553236103
 31
0.0
  0
SOLID
  5
3B5
330
3B1
100
AcDbEntity
  8
0
 62
   123
100
AcDbTrace
 10
56.84171689208718
 20
293.4755553236103
 30
0.0
 11
57.6750502254205
 21
293.4755553236103
 31
0.0
 12
57.25838355875385
 22
295.9755553236103
 32
0.0
 13
57.25838355875385
 23
295.9755553236103
 33
0.0
  0
SOLID
  5
3B6
330
3B1
100
AcDbEntity
  8
0
 62
   123
100
AcDbTrace
 10
56.84171689208718
 20
283.4755553236103
 30
0.0
 11
57.6750502254205
 21
283.4755553236103
 31
0.0
 12
57.25838355875385
 22
280.9755553236104
 32
0.0
 13
57.25838355875385
 23
280.9755553236104
 33
0.0
  0
MTEXT
  5
3B7
330
3B1
100
AcDbEntity
  8
0
 62
     3
100
AcDbMText
 10
54.7583835587538
 20
288.4755553236103
 30
0.0
 40
3.0
 41
0.0
 71
     5
 72
     1
  1
\A1;15
 11
0.0000000000000001
 21
1.0
 31
0.0
1001
ACAD
1000
MTEXTBEGIN
1070
    73
1070
     1
1070
    44
1040
1.0
1070
    74
1070
     0
1000
MTEXTEND
1000
MTEXTBEGIN
1070
    73
1070
     1
1070
    44
1040
1.0
1070
    74
1070
     0
1000
MTEXTEND
1000
MTEXTBEGIN
1070
    73
1070
     1
1070
    44
1040
1.0
1070
    74
1070
     0
1000
MTEXTEND
  0
POINT
  5
3B8
330
3B1
100
AcDbEntity
  8
DEFPOINTS
 62
     0
100
AcDbPoint
 10
77.20679142902463
 20
295.9755553236103
 30
0.0
  0
POINT
  5
3B9
330
3B1
100
AcDbEntity
  8
DEFPOINTS
 62
     0
100
AcDbPoint
 10
69.49725709614813
 20
280.9755553236104
 30
0.0
  0
POINT
  5
3BA
330
3B1
100
AcDbEntity
  8
DEFPOINTS
 62
     0
100
AcDbPoint
 10
57.25838355875385
 20
280.9755553236104
 30
0.0
  0
ENDBLK
  5
3BC
330
3B1
100
AcDbEntity
  8
0
100
AcDbBlockEnd
  0
BLOCK
  5
3C7
330
3BD
100
AcDbEntity
  8
0
100
AcDbBlockBegin
  2
*D37
 70
     1
 10
0.0
 20
0.0
 30
0.0
  3
*D37
  1

  0
LINE
  5
3BE
330
3BD
100
AcDbEntity
  8
0
 62
   123
100
AcDbLine
 10
34.77122403813881
 20
80.32070207339984
 30
0.0
 11
34.77122403813881
 21
128.5702273730285
 31
0.0
  0
LINE
  5
3BF
330
3BD
100
AcDbEntity
  8
0
 62
   123
100
AcDbLine
 10
66.77122403813882
 20
99.82070207339985
 30
0.0
 11
66.77122403813882
 21
128.5702273730285
 31
0.0
  0
LINE
  5
3C0
330
3BD
100
AcDbEntity
  8
0
 62
   123
100
AcDbLine
 10
37.27122403813881
 20
127.9702273730285
 30
0.0
 11
64.27122403813882
 21
127.9702273730285
 31
0.0
  0
SOLID
  5
3C1
330
3BD
100
AcDbEntity
  8
0
 62
   123
100
AcDbTrace
 10
37.27122403813881
 20
128.386894039695
 30
0.0
 11
37.27122403813881
 21
127.5535607063619
 31
0.0
 12
34.77122403813881
 22
127.9702273730285
 32
0.0
 13
34.77122403813881
 23
127.9702273730285
 33
0.0
  0
SOLID
  5
3C2
330
3BD
100
AcDbEntity
  8
0
 62
   123
100
AcDbTrace
 10
64.27122403813882
 20
128.386894039695
 30
0.0
 11
64.27122403813882
 21
127.5535607063619
 31
0.0
 12
66.77122403813882
 22
127.9702273730285
 32
0.0
 13
66.77122403813882
 23
127.9702273730285
 33
0.0
  0
MTEXT
  5
3C3
330
3BD
100
AcDbEntity
  8
0
 62
     3
100
AcDbMText
 10
51.09245596802248
 20
130.4702273730286
 30
0.0
 40
3.0
 41
0.0
 71
     5
 72
     1
  1
\A1;32
1001
ACAD
1000
MTEXTBEGIN
1070
    73
1070
     1
1070
    44
1040
1.0
1070
    74
1070
     0
1000
MTEXTEND
1000
MTEXTBEGIN
1070
    73
1070
     1
1070
    44
1040
1.0
1070
    74
1070
     0
1000
MTEXTEND
1000
MTEXTBEGIN
1070
    73
1070
     1
1070
    44
1040
1.0
1070
    74
1070
     0
1000
MTEXTEND
  0
POINT
  5
3C4
330
3BD
100
AcDbEntity
  8
DEFPOINTS
 62
     0
100
AcDbPoint
 10
34.77122403813881
 20
79.32070207339984
 30
0.0
  0
POINT
  5
3C5
330
3BD
100
AcDbEntity
  8
DEFPOINTS
 62
     0
100
AcDbPoint
 10
66.77122403813882
 20
98.82070207339985
 30
0.0
  0
POINT
  5
3C6
330
3BD
100
AcDbEntity
  8
DEFPOINTS
 62
     0
100
AcDbPoint
 10
66.77122403813882
 20
127.9702273730285
 30
0.0
  0
ENDBLK
  5
3C8
330
3BD
100
AcDbEntity
  8
0
100
AcDbBlockEnd
  0
BLOCK
  5
3D5
330
3C9
100
AcDbEntity
  8
0
100
AcDbBlockBegin
  2
*D38
 70
     1
 10
0.0
 20
0.0
 30
0.0
  3
*D38
  1

  0
LINE
  5
3CA
330
3C9
100
AcDbEntity
  8
0
 62
   123
100
AcDbLine
 10
66.77122403813882
 20
99.82070207339985
 30
0.0
 11
66.77122403813882
 21
116.5488070160143
 31
0.0
  0
LINE
  5
3CB
330
3C9
100
AcDbEntity
  8
0
 62
   123
100
AcDbLine
 10
63.77122403813881
 20
91.82070207339984
 30
0.0
 11
63.77122403813881
 21
116.5488070160143
 31
0.0
  0
LINE
  5
3CC
330
3C9
100
AcDbEntity
  8
0
 62
   123
100
AcDbLine
 10
69.27122403813882
 20
115.9488070160145
 30
0.0
 11
71.77122403813881
 21
115.9488070160145
 31
0.0
  0
LINE
  5
3CD
330
3C9
100
AcDbEntity
  8
0
 62
   123
100
AcDbLine
 10
61.27122403813881
 20
115.9488070160145
 30
0.0
 11
50.79205737147458
 21
115.9488070160145
 31
0.0
  0
LINE
  5
3CE
330
3C9
100
AcDbEntity
  8
0
 62
   123
100
AcDbLine
 10
66.77122403813882
 20
115.9488070160145
 30
0.0
 11
63.77122403813881
 21
115.9488070160145
 31
0.0
  0
SOLID
  5
3CF
330
3C9
100
AcDbEntity
  8
0
 62
   123
100
AcDbTrace
 10
69.27122403813882
 20
116.3654736826811
 30
0.0
 11
69.27122403813882
 21
115.5321403493479
 31
0.0
 12
66.77122403813882
 22
115.9488070160145
 32
0.0
 13
66.77122403813882
 23
115.9488070160145
 33
0.0
  0
SOLID
  5
3D0
330
3C9
100
AcDbEntity
  8
0
 62
   123
100
AcDbTrace
 10
61.27122403813881
 20
116.3654736826811
 30
0.0
 11
61.27122403813881
 21
115.5321403493479
 31
0.0
 12
63.77122403813881
 22
115.9488070160145
 32
0.0
 13
63.77122403813881
 23
115.9488070160145
 33
0.0
  0
MTEXT
  5
3D1
330
3C9
100
AcDbEntity
  8
0
 62
     3
100
AcDbMText
 10
52.79205737147458
 20
118.4488070160145
 30
0.0
 40
3.0
 41
0.0
 71
     5
 72
     1
  1
\A1;3
1001
ACAD
1000
MTEXTBEGIN
1070
    73
1070
     1
1070
    44
1040
1.0
1070
    74
1070
     0
1000
MTEXTEND
1000
MTEXTBEGIN
1070
    73
1070
     1
1070
    44
1040
1.0
1070
    74
1070
     0
1000
MTEXTEND
1000
MTEXTBEGIN
1070
    73
1070
     1
1070
    44
1040
1.0
1070
    74
1070
     0
1000
MTEXTEND
  0
POINT
  5
3D2
330
3C9
100
AcDbEntity
  8
DEFPOINTS
 62
     0
100
AcDbPoint
 10
66.77122403813882
 20
98.82070207339985
 30
0.0
  0
POINT
  5
3D3
330
3C9
100
AcDbEntity
  8
DEFPOINTS
 62
     0
100
AcDbPoint
 10
63.77122403813881
 20
90.82070207339985
 30
0.0
  0
POINT
  5
3D4
330
3C9
100
AcDbEntity
  8
DEFPOINTS
 62
     0
100
AcDbPoint
 10
63.77122403813881
 20
115.9488070160145
 30
0.0
  0
ENDBLK
  5
3D6
330
3C9
100
AcDbEntity
  8
0
100
AcDbBlockEnd
  0
BLOCK
  5
3E1
330
3D7
100
AcDbEntity
  8
0
100
AcDbBlockBegin
  2
*D39
 70
     1
 10
0.0
 20
0.0
 30
0.0
  3
*D39
  1

  0
LINE
  5
3D8
330
3D7
100
AcDbEntity
  8
0
 62
   123
100
AcDbLine
 10
191.7712240381386
 20
97.32070207339985
 30
0.0
 11
191.7712240381386
 21
128.5727452919646
 31
0.0
  0
LINE
  5
3D9
330
3D7
100
AcDbEntity
  8
0
 62
   123
100
AcDbLine
 10
201.7712240381396
 20
82.82070207339984
 30
0.0
 11
201.7712240381396
 21
128.5727452919646
 31
0.0
  0
LINE
  5
3DA
330
3D7
100
AcDbEntity
  8
0
 62
   123
100
AcDbLine
 10
194.2712240381388
 20
127.9727452919644
 30
0.0
 11
199.2712240381396
 21
127.9727452919644
 31
0.0
  0
SOLID
  5
3DB
330
3D7
100
AcDbEntity
  8
0
 62
   123
100
AcDbTrace
 10
194.2712240381388
 20
128.3894119586313
 30
0.0
 11
194.2712240381388
 21
127.5560786252979
 31
0.0
 12
191.7712240381386
 22
127.9727452919644
 32
0.0
 13
191.7712240381386
 23
127.9727452919644
 33
0.0
  0
SOLID
  5
3DC
330
3D7
100
AcDbEntity
  8
0
 62
   123
100
AcDbTrace
 10
199.2712240381396
 20
128.3894119586313
 30
0.0
 11
199.2712240381396
 21
127.5560786252979
 31
0.0
 12
201.7712240381396
 22
127.9727452919644
 32
0.0
 13
201.7712240381396
 23
127.9727452919644
 33
0.0
  0
MTEXT
  5
3DD
330
3D7
100
AcDbEntity
  8
0
 62
     3
100
AcDbMText
 10
196.7712240381388
 20
130.4727452919644
 30
0.0
 40
3.0
 41
0.0
 71
     5
 72
     1
  1
\A1;10
1001
ACAD
1000
MTEXTBEGIN
1070
    73
1070
     1
1070
    44
1040
1.0
1070
    74
1070
     0
1000
MTEXTEND
1000
MTEXTBEGIN
1070
    73
1070
     1
1070
    44
1040
1.0
1070
    74
1070
     0
1000
MTEXTEND
1000
MTEXTBEGIN
1070
    73
1070
     1
1070
    44
1040
1.0
1070
    74
1070
     0
1000
MTEXTEND
  0
POINT
  5
3DE
330
3D7
100
AcDbEntity
  8
DEFPOINTS
 62
     0
100
AcDbPoint
 10
191.7712240381386
 20
96.32070207339985
 30
0.0
  0
POINT
  5
3DF
330
3D7
100
AcDbEntity
  8
DEFPOINTS
 62
     0
100
AcDbPoint
 10
201.7712240381396
 20
81.82070207339984
 30
0.0
  0
POINT
  5
3E0
330
3D7
100
AcDbEntity
  8
DEFPOINTS
 62
     0
100
AcDbPoint
 10
201.7712240381396
 20
127.9727452919644
 30
0.0
  0
ENDBLK
  5
3E2
330
3D7
100
AcDbEntity
  8
0
100
AcDbBlockEnd
  0
BLOCK
  5
3ED
330
3E3
100
AcDbEntity
  8
0
100
AcDbBlockBegin
  2
*D40
 70
     1
 10
0.0
 20
0.0
 30
0.0
  3
*D40
  1

  0
LINE
  5
3E4
330
3E3
100
AcDbEntity
  8
0
 62
   123
100
AcDbLine
 10
66.77122403813882
 20
99.82070207339985
 30
0.0
 11
66.77122403813882
 21
128.5727452919646
 31
0.0
  0
LINE
  5
3E5
330
3E3
100
AcDbEntity
  8
0
 62
   123
100
AcDbLine
 10
106.7712240381387
 20
100.3207020733996
 30
0.0
 11
106.7712240381387
 21
128.5727452919646
 31
0.0
  0
LINE
  5
3E6
330
3E3
100
AcDbEntity
  8
0
 62
   123
100
AcDbLine
 10
69.27122403813882
 20
127.9727452919644
 30
0.0
 11
104.2712240381387
 21
127.9727452919644
 31
0.0
  0
SOLID
  5
3E7
330
3E3
100
AcDbEntity
  8
0
 62
   123
100
AcDbTrace
 10
69.27122403813882
 20
128.3894119586313
 30
0.0
 11
69.27122403813882
 21
127.5560786252979
 31
0.0
 12
66.77122403813882
 22
127.9727452919644
 32
0.0
 13
66.77122403813882
 23
127.9727452919644
 33
0.0
  0
SOLID
  5
3E8
330
3E3
100
AcDbEntity
  8
0
 62
   123
100
AcDbTrace
 10
104.2712240381387
 20
128.3894119586313
 30
0.0
 11
104.2712240381387
 21
127.5560786252979
 31
0.0
 12
106.7712240381387
 22
127.9727452919644
 32
0.0
 13
106.7712240381387
 23
127.9727452919644
 33
0.0
  0
MTEXT
  5
3E9
330
3E3
100
AcDbEntity
  8
0
 62
     3
100
AcDbMText
 10
86.7712240381388
 20
130.4727452919644
 30
0.0
 40
3.0
 41
0.0
 71
     5
 72
     1
  1
\A1;{\f??|b0|i0|c0|p49;L}
1001
ACAD
1000
MTEXTBEGIN
1070
    73
1070
     1
1070
    44
1040
1.0
1070
    74
1070
     0
1000
MTEXTEND
1000
MTEXTBEGIN
1070
    73
1070
     1
1070
    44
1040
1.0
1070
    74
1070
     0
1000
MTEXTEND
1000
MTEXTBEGIN
1070
    73
1070
     1
1070
    44
1040
1.0
1070
    74
1070
     0
1000
MTEXTEND
  0
POINT
  5
3EA
330
3E3
100
AcDbEntity
  8
DEFPOINTS
 62
     0
100
AcDbPoint
 10
66.77122403813882
 20
98.82070207339985
 30
0.0
  0
POINT
  5
3EB
330
3E3
100
AcDbEntity
  8
DEFPOINTS
 62
     0
100
AcDbPoint
 10
106.7712240381387
 20
99.32070207339984
 30
0.0
  0
POINT
  5
3EC
330
3E3
100
AcDbEntity
  8
DEFPOINTS
 62
     0
100
AcDbPoint
 10
106.7712240381387
 20
127.9727452919644
 30
0.0
  0
ENDBLK
  5
3EE
330
3E3
100
AcDbEntity
  8
0
100
AcDbBlockEnd
  0
BLOCK
  5
3F9
330
3EF
100
AcDbEntity
  8
0
100
AcDbBlockBegin
  2
*D41
 70
     1
 10
0.0
 20
0.0
 30
0.0
  3
*D41
  1

  0
LINE
  5
3F0
330
3EF
100
AcDbEntity
  8
0
 62
   123
100
AcDbLine
 10
106.7712240381387
 20
100.3207020733996
 30
0.0
 11
106.7712240381387
 21
115.8404736826823
 31
0.0
  0
LINE
  5
3F1
330
3EF
100
AcDbEntity
  8
0
 62
   123
100
AcDbLine
 10
113.7712240381397
 20
98.91943941492764
 30
0.0
 11
113.7712240381397
 21
115.8404736826823
 31
0.0
  0
LINE
  5
3F2
330
3EF
100
AcDbEntity
  8
0
 62
   123
100
AcDbLine
 10
109.2712240381388
 20
115.2404736826823
 30
0.0
 11
111.2712240381397
 21
115.2404736826823
 31
0.0
  0
SOLID
  5
3F3
330
3EF
100
AcDbEntity
  8
0
 62
   123
100
AcDbTrace
 10
109.2712240381388
 20
115.657140349349
 30
0.0
 11
109.2712240381388
 21
114.8238070160157
 31
0.0
 12
106.7712240381387
 22
115.2404736826823
 32
0.0
 13
106.7712240381387
 23
115.2404736826823
 33
0.0
  0
SOLID
  5
3F4
330
3EF
100
AcDbEntity
  8
0
 62
   123
100
AcDbTrace
 10
111.2712240381397
 20
115.657140349349
 30
0.0
 11
111.2712240381397
 21
114.8238070160157
 31
0.0
 12
113.7712240381397
 22
115.2404736826823
 32
0.0
 13
113.7712240381397
 23
115.2404736826823
 33
0.0
  0
MTEXT
  5
3F5
330
3EF
100
AcDbEntity
  8
0
 62
     3
100
AcDbMText
 10
110.2712240381397
 20
117.7404736826824
 30
0.0
 40
3.0
 41
0.0
 71
     5
 72
     1
  1
\A1;7
1001
ACAD
1000
MTEXTBEGIN
1070
    73
1070
     1
1070
    44
1040
1.0
1070
    74
1070
     0
1000
MTEXTEND
1000
MTEXTBEGIN
1070
    73
1070
     1
1070
    44
1040
1.0
1070
    74
1070
     0
1000
MTEXTEND
1000
MTEXTBEGIN
1070
    73
1070
     1
1070
    44
1040
1.0
1070
    74
1070
     0
1000
MTEXTEND
  0
POINT
  5
3F6
330
3EF
100
AcDbEntity
  8
DEFPOINTS
 62
     0
100
AcDbPoint
 10
106.7712240381387
 20
99.32070207339984
 30
0.0
  0
POINT
  5
3F7
330
3EF
100
AcDbEntity
  8
DEFPOINTS
 62
     0
100
AcDbPoint
 10
113.7712240381397
 20
97.91943941492764
 30
0.0
  0
POINT
  5
3F8
330
3EF
100
AcDbEntity
  8
DEFPOINTS
 62
     0
100
AcDbPoint
 10
113.7712240381397
 20
115.2404736826823
 30
0.0
  0
ENDBLK
  5
3FA
330
3EF
100
AcDbEntity
  8
0
100
AcDbBlockEnd
  0
BLOCK
  5
405
330
3FB
100
AcDbEntity
  8
0
100
AcDbBlockBegin
  2
*D42
 70
     1
 10
0.0
 20
0.0
 30
0.0
  3
*D42
  1

  0
LINE
  5
3FC
330
3FB
100
AcDbEntity
  8
0
 62
   123
100
AcDbLine
 10
106.7712240381387
 20
100.3207020733996
 30
0.0
 11
106.7712240381387
 21
128.5727452919646
 31
0.0
  0
LINE
  5
3FD
330
3FB
100
AcDbEntity
  8
0
 62
   123
100
AcDbLine
 10
191.7712240381386
 20
97.32070207339985
 30
0.0
 11
191.7712240381386
 21
128.5727452919646
 31
0.0
  0
LINE
  5
3FE
330
3FB
100
AcDbEntity
  8
0
 62
   123
100
AcDbLine
 10
109.2712240381388
 20
127.9727452919644
 30
0.0
 11
189.2712240381388
 21
127.9727452919644
 31
0.0
  0
SOLID
  5
3FF
330
3FB
100
AcDbEntity
  8
0
 62
   123
100
AcDbTrace
 10
109.2712240381388
 20
128.3894119586313
 30
0.0
 11
109.2712240381388
 21
127.5560786252979
 31
0.0
 12
106.7712240381387
 22
127.9727452919644
 32
0.0
 13
106.7712240381387
 23
127.9727452919644
 33
0.0
  0
SOLID
  5
400
330
3FB
100
AcDbEntity
  8
0
 62
   123
100
AcDbTrace
 10
189.2712240381388
 20
128.3894119586313
 30
0.0
 11
189.2712240381388
 21
127.5560786252979
 31
0.0
 12
191.7712240381386
 22
127.9727452919644
 32
0.0
 13
191.7712240381386
 23
127.9727452919644
 33
0.0
  0
MTEXT
  5
401
330
3FB
100
AcDbEntity
  8
0
 62
     3
100
AcDbMText
 10
149.2712240381386
 20
130.4727452919644
 30
0.0
 40
3.0
 41
0.0
 71
     5
 72
     1
  1
\A1;85
1001
ACAD
1000
MTEXTBEGIN
1070
    73
1070
     1
1070
    44
1040
1.0
1070
    74
1070
     0
1000
MTEXTEND
1000
MTEXTBEGIN
1070
    73
1070
     1
1070
    44
1040
1.0
1070
    74
1070
     0
1000
MTEXTEND
1000
MTEXTBEGIN
1070
    73
1070
     1
1070
    44
1040
1.0
1070
    74
1070
     0
1000
MTEXTEND
  0
POINT
  5
402
330
3FB
100
AcDbEntity
  8
DEFPOINTS
 62
     0
100
AcDbPoint
 10
106.7712240381387
 20
99.32070207339984
 30
0.0
  0
POINT
  5
403
330
3FB
100
AcDbEntity
  8
DEFPOINTS
 62
     0
100
AcDbPoint
 10
191.7712240381386
 20
96.32070207339985
 30
0.0
  0
POINT
  5
404
330
3FB
100
AcDbEntity
  8
DEFPOINTS
 62
     0
100
AcDbPoint
 10
191.7712240381386
 20
127.9727452919644
 30
0.0
  0
ENDBLK
  5
406
330
3FB
100
AcDbEntity
  8
0
100
AcDbBlockEnd
  0
BLOCK
  5
411
330
407
100
AcDbEntity
  8
0
100
AcDbBlockBegin
  2
*D43
 70
     1
 10
0.0
 20
0.0
 30
0.0
  3
*D43
  1

  0
LINE
  5
408
330
407
100
AcDbEntity
  8
0
 62
   123
100
AcDbLine
 10
-108.3144296661466
 20
95.32070207339984
 30
0.0
 11
-108.3144296661466
 21
117.116270404014
 31
0.0
  0
LINE
  5
409
330
407
100
AcDbEntity
  8
0
 62
   123
100
AcDbLine
 10
-28.31442966614668
 20
95.32070207339984
 30
0.0
 11
-28.31442966614668
 21
117.116270404014
 31
0.0
  0
LINE
  5
40A
330
407
100
AcDbEntity
  8
0
 62
   123
100
AcDbLine
 10
-105.8144296661466
 20
116.5162704040138
 30
0.0
 11
-30.81442966614668
 21
116.5162704040138
 31
0.0
  0
SOLID
  5
40B
330
407
100
AcDbEntity
  8
0
 62
   123
100
AcDbTrace
 10
-105.8144296661466
 20
116.9329370706805
 30
0.0
 11
-105.8144296661466
 21
116.0996037373472
 31
0.0
 12
-108.3144296661466
 22
116.5162704040138
 32
0.0
 13
-108.3144296661466
 23
116.5162704040138
 33
0.0
  0
SOLID
  5
40C
330
407
100
AcDbEntity
  8
0
 62
   123
100
AcDbTrace
 10
-30.81442966614668
 20
116.9329370706805
 30
0.0
 11
-30.81442966614668
 21
116.0996037373472
 31
0.0
 12
-28.31442966614668
 22
116.5162704040138
 32
0.0
 13
-28.31442966614668
 23
116.5162704040138
 33
0.0
  0
MTEXT
  5
40D
330
407
100
AcDbEntity
  8
0
 62
     3
100
AcDbMText
 10
-67.55580191130775
 20
119.0162704040139
 30
0.0
 40
3.0
 41
0.0
 71
     5
 72
     1
  1
\A1;80
1001
ACAD
1000
MTEXTBEGIN
1070
    73
1070
     1
1070
    44
1040
1.0
1070
    74
1070
     0
1000
MTEXTEND
1000
MTEXTBEGIN
1070
    73
1070
     1
1070
    44
1040
1.0
1070
    74
1070
     0
1000
MTEXTEND
1000
MTEXTBEGIN
1070
    73
1070
     1
1070
    44
1040
1.0
1070
    74
1070
     0
1000
MTEXTEND
  0
POINT
  5
40E
330
407
100
AcDbEntity
  8
DEFPOINTS
 62
     0
100
AcDbPoint
 10
-108.3144296661466
 20
94.32070207339984
 30
0.0
  0
POINT
  5
40F
330
407
100
AcDbEntity
  8
DEFPOINTS
 62
     0
100
AcDbPoint
 10
-28.31442966614668
 20
94.32070207339984
 30
0.0
  0
POINT
  5
410
330
407
100
AcDbEntity
  8
DEFPOINTS
 62
     0
100
AcDbPoint
 10
-28.31442966614668
 20
116.5162704040138
 30
0.0
  0
ENDBLK
  5
412
330
407
100
AcDbEntity
  8
0
100
AcDbBlockEnd
  0
BLOCK
  5
41F
330
413
100
AcDbEntity
  8
0
100
AcDbBlockBegin
  2
*D44
 70
     1
 10
0.0
 20
0.0
 30
0.0
  3
*D44
  1

  0
LINE
  5
414
330
413
100
AcDbEntity
  8
0
 62
   123
100
AcDbLine
 10
33.77122403813881
 20
69.32070207339984
 30
0.0
 11
19.3465607491602
 21
69.32070207339986
 31
0.0
  0
LINE
  5
415
330
413
100
AcDbEntity
  8
0
 62
   123
100
AcDbLine
 10
33.77122403813881
 20
79.32070207339984
 30
0.0
 11
19.3465607491602
 21
79.32070207339986
 31
0.0
  0
LINE
  5
416
330
413
100
AcDbEntity
  8
0
 62
   123
100
AcDbLine
 10
19.9465607491602
 20
66.82070207339986
 30
0.0
 11
19.9465607491602
 21
64.32070207339986
 31
0.0
  0
LINE
  5
417
330
413
100
AcDbEntity
  8
0
 62
   123
100
AcDbLine
 10
19.9465607491602
 20
81.82070207339986
 30
0.0
 11
19.94656074916021
 21
128.2054457423629
 31
0.0
  0
LINE
  5
418
330
413
100
AcDbEntity
  8
0
 62
   123
100
AcDbLine
 10
19.9465607491602
 20
69.32070207339986
 30
0.0
 11
19.9465607491602
 21
79.32070207339986
 31
0.0
  0
SOLID
  5
419
330
413
100
AcDbEntity
  8
0
 62
   123
100
AcDbTrace
 10
19.52989408249353
 20
66.82070207339986
 30
0.0
 11
20.36322741582687
 21
66.82070207339986
 31
0.0
 12
19.9465607491602
 22
69.32070207339986
 32
0.0
 13
19.9465607491602
 23
69.32070207339986
 33
0.0
  0
SOLID
  5
41A
330
413
100
AcDbEntity
  8
0
 62
   123
100
AcDbTrace
 10
19.52989408249353
 20
81.82070207339986
 30
0.0
 11
20.36322741582687
 21
81.82070207339986
 31
0.0
 12
19.9465607491602
 22
79.32070207339986
 32
0.0
 13
19.9465607491602
 23
79.32070207339986
 33
0.0
  0
MTEXT
  5
41B
330
413
100
AcDbEntity
  8
0
 62
     3
100
AcDbMText
 10
15.9964107491602
 20
113.3898743137915
 30
0.0
 40
3.0
 41
0.0
 71
     5
 72
     1
  1
\A1;\A1;{\f??|b0|i0|c0|p49;%%C10\H0.7x;\S+0^ -0.015;\H1.429x;(h7)}
 11
0.0000000000000001
 21
1.0
 31
0.0
1001
ACAD
1000
MTEXTBEGIN
1070
    73
1070
     1
1070
    44
1040
1.0
1070
    74
1070
     0
1000
MTEXTEND
1000
MTEXTBEGIN
1070
    73
1070
     1
1070
    44
1040
1.0
1070
    74
1070
     0
1000
MTEXTEND
1000
MTEXTBEGIN
1070
    73
1070
     1
1070
    44
1040
1.0
1070
    74
1070
     0
1000
MTEXTEND
  0
POINT
  5
41C
330
413
100
AcDbEntity
  8
DEFPOINTS
 62
     0
100
AcDbPoint
 10
34.77122403813881
 20
69.32070207339984
 30
0.0
  0
POINT
  5
41D
330
413
100
AcDbEntity
  8
DEFPOINTS
 62
     0
100
AcDbPoint
 10
34.77122403813881
 20
79.32070207339984
 30
0.0
  0
POINT
  5
41E
330
413
100
AcDbEntity
  8
DEFPOINTS
 62
     0
100
AcDbPoint
 10
19.9465607491602
 20
79.32070207339986
 30
0.0
  0
ENDBLK
  5
420
330
413
100
AcDbEntity
  8
0
100
AcDbBlockEnd
  0
BLOCK
  5
42B
330
421
100
AcDbEntity
  8
0
100
AcDbBlockBegin
  2
*D45
 70
     1
 10
0.0
 20
0.0
 30
0.0
  3
*D45
  1

  0
LINE
  5
422
330
421
100
AcDbEntity
  8
0
 62
   123
100
AcDbLine
 10
63.27122403813974
 20
91.32070207339983
 30
0.0
 11
3.653009057904831
 21
91.32070207339983
 31
0.0
  0
LINE
  5
423
330
421
100
AcDbEntity
  8
0
 62
   123
100
AcDbLine
 10
63.27122403813973
 20
57.32070207339983
 30
0.0
 11
3.653009057904823
 21
57.32070207339987
 31
0.0
  0
LINE
  5
424
330
421
100
AcDbEntity
  8
0
 62
   123
100
AcDbLine
 10
4.253009057904834
 20
88.82070207339983
 30
0.0
 11
4.253009057904828
 21
59.82070207339987
 31
0.0
  0
SOLID
  5
425
330
421
100
AcDbEntity
  8
0
 62
   123
100
AcDbTrace
 10
3.836342391238167
 20
88.82070207339983
 30
0.0
 11
4.669675724571501
 21
88.82070207339983
 31
0.0
 12
4.253009057904835
 22
91.32070207339983
 32
0.0
 13
4.253009057904835
 23
91.32070207339983
 33
0.0
  0
SOLID
  5
426
330
421
100
AcDbEntity
  8
0
 62
   123
100
AcDbTrace
 10
3.836342391238161
 20
59.82070207339987
 30
0.0
 11
4.669675724571495
 21
59.82070207339987
 31
0.0
 12
4.253009057904826
 22
57.32070207339987
 32
0.0
 13
4.253009057904826
 23
57.32070207339987
 33
0.0
  0
MTEXT
  5
427
330
421
100
AcDbEntity
  8
0
 62
     3
100
AcDbMText
 10
1.753009057904818
 20
74.32070207339984
 30
0.0
 40
3.0
 41
0.0
 71
     5
 72
     1
  1
\A1;{\f??|b0|i0|c0|p49;%%c}34
 11
0.0000000000000001
 21
1.0
 31
0.0
1001
ACAD
1000
MTEXTBEGIN
1070
    73
1070
     1
1070
    44
1040
1.0
1070
    74
1070
     0
1000
MTEXTEND
1000
MTEXTBEGIN
1070
    73
1070
     1
1070
    44
1040
1.0
1070
    74
1070
     0
1000
MTEXTEND
1000
MTEXTBEGIN
1070
    73
1070
     1
1070
    44
1040
1.0
1070
    74
1070
     0
1000
MTEXTEND
  0
POINT
  5
428
330
421
100
AcDbEntity
  8
DEFPOINTS
 62
     0
100
AcDbPoint
 10
64.27122403813974
 20
91.32070207339983
 30
0.0
  0
POINT
  5
429
330
421
100
AcDbEntity
  8
DEFPOINTS
 62
     0
100
AcDbPoint
 10
64.27122403813974
 20
57.32070207339983
 30
0.0
  0
POINT
  5
42A
330
421
100
AcDbEntity
  8
DEFPOINTS
 62
     0
100
AcDbPoint
 10
4.253009057904826
 20
57.32070207339987
 30
0.0
  0
ENDBLK
  5
42C
330
421
100
AcDbEntity
  8
0
100
AcDbBlockEnd
  0
BLOCK
  5
437
330
42D
100
AcDbEntity
  8
0
100
AcDbBlockBegin
  2
*D46
 70
     1
 10
0.0
 20
0.0
 30
0.0
  3
*D46
  1

  0
LINE
  5
42E
330
42D
100
AcDbEntity
  8
0
 62
   123
100
AcDbLine
 10
29.87308523691353
 20
74.32070207339984
 30
0.0
 11
13.47334681628345
 21
74.32070207339984
 31
0.0
  0
LINE
  5
42F
330
42D
100
AcDbEntity
  8
0
 62
   123
100
AcDbLine
 10
30.71403309235575
 20
59.32070207339982
 30
0.0
 11
13.47334681628345
 21
59.32070207339985
 31
0.0
  0
LINE
  5
430
330
42D
100
AcDbEntity
  8
0
 62
   123
100
AcDbLine
 10
14.07334681628346
 20
71.82070207339984
 30
0.0
 11
14.07334681628345
 21
61.82070207339985
 31
0.0
  0
SOLID
  5
431
330
42D
100
AcDbEntity
  8
0
 62
   123
100
AcDbTrace
 10
13.65668014961679
 20
71.82070207339984
 30
0.0
 11
14.49001348295012
 21
71.82070207339984
 31
0.0
 12
14.07334681628346
 22
74.32070207339984
 32
0.0
 13
14.07334681628346
 23
74.32070207339984
 33
0.0
  0
SOLID
  5
432
330
42D
100
AcDbEntity
  8
0
 62
   123
100
AcDbTrace
 10
13.65668014961679
 20
61.82070207339985
 30
0.0
 11
14.49001348295012
 21
61.82070207339985
 31
0.0
 12
14.07334681628345
 22
59.32070207339985
 32
0.0
 13
14.07334681628345
 23
59.32070207339985
 33
0.0
  0
MTEXT
  5
433
330
42D
100
AcDbEntity
  8
0
 62
     3
100
AcDbMText
 10
11.57334681628344
 20
66.82070207339984
 30
0.0
 40
3.0
 41
0.0
 71
     5
 72
     1
  1
\A1;15
 11
0.0000000000000001
 21
1.0
 31
0.0
1001
ACAD
1000
MTEXTBEGIN
1070
    73
1070
     1
1070
    44
1040
1.0
1070
    74
1070
     0
1000
MTEXTEND
1000
MTEXTBEGIN
1070
    73
1070
     1
1070
    44
1040
1.0
1070
    74
1070
     0
1000
MTEXTEND
1000
MTEXTBEGIN
1070
    73
1070
     1
1070
    44
1040
1.0
1070
    74
1070
     0
1000
MTEXTEND
  0
POINT
  5
434
330
42D
100
AcDbEntity
  8
DEFPOINTS
 62
     0
100
AcDbPoint
 10
30.87308523691354
 20
74.32070207339984
 30
0.0
  0
POINT
  5
435
330
42D
100
AcDbEntity
  8
DEFPOINTS
 62
     0
100
AcDbPoint
 10
31.71403309235575
 20
59.32070207339982
 30
0.0
  0
POINT
  5
436
330
42D
100
AcDbEntity
  8
DEFPOINTS
 62
     0
100
AcDbPoint
 10
14.07334681628345
 20
59.32070207339985
 30
0.0
  0
ENDBLK
  5
438
330
42D
100
AcDbEntity
  8
0
100
AcDbBlockEnd
  0
BLOCK
  5
445
330
439
100
AcDbEntity
  8
0
100
AcDbBlockBegin
  2
*D47
 70
     1
 10
0.0
 20
0.0
 30
0.0
  3
*D47
  1

  0
LINE
  5
5E1
330
439
100
AcDbEntity
  8
0
 62
   123
100
AcDbLine
 10
-68.3144296661485
 20
11.14857886500248
 30
0.0
 11
-68.31442966614853
 21
-8.00963188931054
 31
0.0
  0
LINE
  5
5E2
330
439
100
AcDbEntity
  8
0
 62
   123
100
AcDbLine
 10
-51.43472671683724
 20
18.5694942843393
 30
0.0
 11
-42.54822636301367
 21
-2.884415391899426
 31
0.0
  0
ARC
  5
5E3
330
439
100
AcDbEntity
  8
0
 62
   123
100
AcDbCircle
 10
-68.3144296661485
 20
59.32070207340422
 30
0.0
 40
66.73033396271475
100
AcDbArc
 50
272.1466673179617
 51
290.353332682034
  0
SOLID
  5
5E4
330
439
100
AcDbEntity
  8
0
 62
   123
100
AcDbTrace
 10
-65.80706327348671
 20
-7.779395170425933
 30
0.0
 11
-65.82267336570128
 21
-6.94620805490776
 31
0.0
 12
-68.31442966614853
 22
-7.409631889310539
 32
0.0
 13
-68.31442966614853
 23
-7.409631889310539
 33
0.0
  0
SOLID
  5
5E5
330
439
100
AcDbEntity
  8
0
 62
   123
100
AcDbTrace
 10
-45.25726369201102
 20
-2.855493730582312
 30
0.0
 11
-44.95283863153987
 21
-3.631231977029899
 31
0.0
 12
-42.77783642243268
 22
-2.330087672392639
 32
0.0
 13
-42.77783642243268
 23
-2.330087672392639
 33
0.0
  0
MTEXT
  5
5E6
330
439
100
AcDbEntity
  8
0
 62
     3
100
AcDbMText
 10
-54.32446220669885
 20
-3.07477209035045
 30
0.0
 40
3.0
 41
0.0
 71
     5
 72
     1
  1
\A1;22°30'
 11
0.975773637859277
 21
0.2187825579402355
 31
0.0
  0
POINT
  5
5E7
330
439
100
AcDbEntity
  8
DEFPOINTS
 62
     0
100
AcDbPoint
 10
-59.60437326842463
 20
-6.838744631687809
 30
0.0
  0
POINT
  5
5E8
330
439
100
AcDbEntity
  8
DEFPOINTS
 62
     0
100
AcDbPoint
 10
-68.31442966614851
 20
12.14857886500248
 30
0.0
  0
POINT
  5
5E9
330
439
100
AcDbEntity
  8
DEFPOINTS
 62
     0
100
AcDbPoint
 10
-51.81741014920226
 20
19.49337381685062
 30
0.0
  0
POINT
  5
5EA
330
439
100
AcDbEntity
  8
DEFPOINTS
 62
     0
100
AcDbPoint
 10
-68.3144296661467
 20
59.32070207339983
 30
0.0
  0
POINT
  5
5EB
330
439
100
AcDbEntity
  8
DEFPOINTS
 62
     0
100
AcDbPoint
 10
-68.3144296661485
 20
106.492825281796
 30
0.0
  0
ENDBLK
  5
446
330
439
100
AcDbEntity
  8
0
100
AcDbBlockEnd
  0
BLOCK
  5
451
330
447
100
AcDbEntity
  8
0
100
AcDbBlockBegin
  2
*D48
 70
     1
 10
0.0
 20
0.0
 30
0.0
  3
*D48
  1

  0
LINE
  5
448
330
447
100
AcDbEntity
  8
0
 62
   123
100
AcDbLine
 10
59.77122403813883
 20
80.32070207339984
 30
0.0
 11
59.77122403813883
 21
96.1409902803035
 31
0.0
  0
LINE
  5
449
330
447
100
AcDbEntity
  8
0
 62
   123
100
AcDbLine
 10
34.77122403813881
 20
80.32070207339984
 30
0.0
 11
34.77122403813881
 21
96.1409902803035
 31
0.0
  0
LINE
  5
44A
330
447
100
AcDbEntity
  8
0
 62
   123
100
AcDbLine
 10
57.27122403813883
 20
95.5409902803035
 30
0.0
 11
37.27122403813881
 21
95.5409902803035
 31
0.0
  0
SOLID
  5
44B
330
447
100
AcDbEntity
  8
0
 62
   123
100
AcDbTrace
 10
57.27122403813883
 20
95.9576569469702
 30
0.0
 11
57.27122403813883
 21
95.12432361363684
 31
0.0
 12
59.77122403813883
 22
95.5409902803035
 32
0.0
 13
59.77122403813883
 23
95.5409902803035
 33
0.0
  0
SOLID
  5
44C
330
447
100
AcDbEntity
  8
0
 62
   123
100
AcDbTrace
 10
37.27122403813881
 20
95.9576569469702
 30
0.0
 11
37.27122403813881
 21
95.12432361363684
 31
0.0
 12
34.77122403813881
 22
95.5409902803035
 32
0.0
 13
34.77122403813881
 23
95.5409902803035
 33
0.0
  0
MTEXT
  5
44D
330
447
100
AcDbEntity
  8
0
 62
     3
100
AcDbMText
 10
47.58215470553387
 20
98.0409902803035
 30
0.0
 40
3.0
 41
0.0
 71
     5
 72
     1
  1
\A1;25
1001
ACAD
1000
MTEXTBEGIN
1070
    73
1070
     1
1070
    44
1040
1.0
1070
    74
1070
     0
1000
MTEXTEND
1000
MTEXTBEGIN
1070
    73
1070
     1
1070
    44
1040
1.0
1070
    74
1070
     0
1000
MTEXTEND
1000
MTEXTBEGIN
1070
    73
1070
     1
1070
    44
1040
1.0
1070
    74
1070
     0
1000
MTEXTEND
  0
POINT
  5
44E
330
447
100
AcDbEntity
  8
DEFPOINTS
 62
     0
100
AcDbPoint
 10
59.77122403813883
 20
79.32070207339984
 30
0.0
  0
POINT
  5
44F
330
447
100
AcDbEntity
  8
DEFPOINTS
 62
     0
100
AcDbPoint
 10
34.77122403813881
 20
79.32070207339984
 30
0.0
  0
POINT
  5
450
330
447
100
AcDbEntity
  8
DEFPOINTS
 62
     0
100
AcDbPoint
 10
34.77122403813881
 20
95.5409902803035
 30
0.0
  0
ENDBLK
  5
452
330
447
100
AcDbEntity
  8
0
100
AcDbBlockEnd
  0
BLOCK
  5
45D
330
453
100
AcDbEntity
  8
0
100
AcDbBlockBegin
  2
*D49
 70
     1
 10
0.0
 20
0.0
 30
0.0
  3
*D49
  1

  0
LINE
  5
454
330
453
100
AcDbEntity
  8
0
 62
   123
100
AcDbLine
 10
185.7712240381386
 20
98.82070207339985
 30
0.0
 11
228.1017618647416
 21
98.82070207339985
 31
0.0
  0
LINE
  5
455
330
453
100
AcDbEntity
  8
0
 62
   123
100
AcDbLine
 10
185.7712240381386
 20
19.82070207339982
 30
0.0
 11
228.1017618647416
 21
19.82070207339982
 31
0.0
  0
LINE
  5
456
330
453
100
AcDbEntity
  8
0
 62
   123
100
AcDbLine
 10
227.5017618647416
 20
96.32070207339985
 30
0.0
 11
227.5017618647416
 21
22.32070207339983
 31
0.0
  0
SOLID
  5
457
330
453
100
AcDbEntity
  8
0
 62
   123
100
AcDbTrace
 10
227.085095198075
 20
96.32070207339985
 30
0.0
 11
227.9184285314083
 21
96.32070207339985
 31
0.0
 12
227.5017618647416
 22
98.82070207339985
 32
0.0
 13
227.5017618647416
 23
98.82070207339985
 33
0.0
  0
SOLID
  5
458
330
453
100
AcDbEntity
  8
0
 62
   123
100
AcDbTrace
 10
227.085095198075
 20
22.32070207339983
 30
0.0
 11
227.9184285314082
 21
22.32070207339983
 31
0.0
 12
227.5017618647416
 22
19.82070207339982
 32
0.0
 13
227.5017618647416
 23
19.82070207339982
 33
0.0
  0
MTEXT
  5
459
330
453
100
AcDbEntity
  8
0
 62
     3
100
AcDbMText
 10
225.0017618647415
 20
58.21125515295489
 30
0.0
 40
3.0
 41
0.0
 71
     5
 72
     1
  1
\A1;%%C79
 11
0.0000000000000001
 21
1.0
 31
0.0
1001
ACAD
1000
MTEXTBEGIN
1070
    73
1070
     1
1070
    44
1040
1.0
1070
    74
1070
     0
1000
MTEXTEND
1000
MTEXTBEGIN
1070
    73
1070
     1
1070
    44
1040
1.0
1070
    74
1070
     0
1000
MTEXTEND
1000
MTEXTBEGIN
1070
    73
1070
     1
1070
    44
1040
1.0
1070
    74
1070
     0
1000
MTEXTEND
  0
POINT
  5
45A
330
453
100
AcDbEntity
  8
DEFPOINTS
 62
     0
100
AcDbPoint
 10
184.7712240381386
 20
98.82070207339985
 30
0.0
  0
POINT
  5
45B
330
453
100
AcDbEntity
  8
DEFPOINTS
 62
     0
100
AcDbPoint
 10
184.7712240381386
 20
19.82070207339982
 30
0.0
  0
POINT
  5
45C
330
453
100
AcDbEntity
  8
DEFPOINTS
 62
     0
100
AcDbPoint
 10
227.5017618647416
 20
19.82070207339982
 30
0.0
  0
ENDBLK
  5
45E
330
453
100
AcDbEntity
  8
0
100
AcDbBlockEnd
  0
BLOCK
  5
469
330
45F
100
AcDbEntity
  8
0
100
AcDbBlockBegin
  2
*D50
 70
     1
 10
0.0
 20
0.0
 30
0.0
  3
*D50
  1

  0
LINE
  5
460
330
45F
100
AcDbEntity
  8
0
 62
   123
100
AcDbLine
 10
201.7712240381388
 20
82.82070207339984
 30
0.0
 11
218.7689288670341
 21
82.82070207339984
 31
0.0
  0
LINE
  5
461
330
45F
100
AcDbEntity
  8
0
 62
   123
100
AcDbLine
 10
201.7712240381388
 20
35.82070207339984
 30
0.0
 11
218.7689288670338
 21
35.82070207339983
 31
0.0
  0
LINE
  5
462
330
45F
100
AcDbEntity
  8
0
 62
   123
100
AcDbLine
 10
218.168928867034
 20
80.32070207339984
 30
0.0
 11
218.168928867034
 21
38.32070207339983
 31
0.0
  0
SOLID
  5
463
330
45F
100
AcDbEntity
  8
0
 62
   123
100
AcDbTrace
 10
217.7522622003674
 20
80.32070207339984
 30
0.0
 11
218.5855955337006
 21
80.32070207339984
 31
0.0
 12
218.168928867034
 22
82.82070207339984
 32
0.0
 13
218.168928867034
 23
82.82070207339984
 33
0.0
  0
SOLID
  5
464
330
45F
100
AcDbEntity
  8
0
 62
   123
100
AcDbTrace
 10
217.7522622003674
 20
38.32070207339983
 30
0.0
 11
218.5855955337006
 21
38.32070207339983
 31
0.0
 12
218.168928867034
 22
35.82070207339983
 32
0.0
 13
218.168928867034
 23
35.82070207339983
 33
0.0
  0
MTEXT
  5
465
330
45F
100
AcDbEntity
  8
0
 62
     3
100
AcDbMText
 10
215.6689288670341
 20
59.28059484648338
 30
0.0
 40
3.0
 41
0.0
 71
     5
 72
     1
  1
\A1;%%c47
 11
0.0000000000000001
 21
1.0
 31
0.0
1001
ACAD
1000
MTEXTBEGIN
1070
    73
1070
     1
1070
    44
1040
1.0
1070
    74
1070
     0
1000
MTEXTEND
1000
MTEXTBEGIN
1070
    73
1070
     1
1070
    44
1040
1.0
1070
    74
1070
     0
1000
MTEXTEND
1000
MTEXTBEGIN
1070
    73
1070
     1
1070
    44
1040
1.0
1070
    74
1070
     0
1000
MTEXTEND
  0
POINT
  5
466
330
45F
100
AcDbEntity
  8
DEFPOINTS
 62
     0
100
AcDbPoint
 10
200.7712240381386
 20
82.82070207339984
 30
0.0
  0
POINT
  5
467
330
45F
100
AcDbEntity
  8
DEFPOINTS
 62
     0
100
AcDbPoint
 10
200.7712240381386
 20
35.82070207339984
 30
0.0
  0
POINT
  5
468
330
45F
100
AcDbEntity
  8
DEFPOINTS
 62
     0
100
AcDbPoint
 10
218.168928867034
 20
35.82070207339983
 30
0.0
  0
ENDBLK
  5
46A
330
45F
100
AcDbEntity
  8
0
100
AcDbBlockEnd
  0
BLOCK
  5
477
330
46B
100
AcDbEntity
  8
0
100
AcDbBlockBegin
  2
*D51
 70
     1
 10
0.0
 20
0.0
 30
0.0
  3
*D51
  1

  0
LINE
  5
46C
330
46B
100
AcDbEntity
  8
0
 62
   123
100
AcDbLine
 10
-54.07604048835399
 20
177.813883072274
 30
0.0
 11
-54.07604048835399
 21
186.0883587309076
 31
0.0
  0
LINE
  5
46D
330
46B
100
AcDbEntity
  8
0
 62
   123
100
AcDbLine
 10
-50.076040488354
 20
177.813883072274
 30
0.0
 11
-50.076040488354
 21
186.0883587309076
 31
0.0
  0
LINE
  5
46E
330
46B
100
AcDbEntity
  8
0
 62
   123
100
AcDbLine
 10
-56.57604048835399
 20
185.4883587309076
 30
0.0
 11
-59.07604048835399
 21
185.4883587309076
 31
0.0
  0
LINE
  5
46F
330
46B
100
AcDbEntity
  8
0
 62
   123
100
AcDbLine
 10
-47.57604048835399
 20
185.4883587309076
 30
0.0
 11
-45.07604048835399
 21
185.4883587309076
 31
0.0
  0
LINE
  5
470
330
46B
100
AcDbEntity
  8
0
 62
   123
100
AcDbLine
 10
-54.07604048835399
 20
185.4883587309076
 30
0.0
 11
-50.076040488354
 21
185.4883587309076
 31
0.0
  0
SOLID
  5
471
330
46B
100
AcDbEntity
  8
0
 62
   123
100
AcDbTrace
 10
-56.57604048835399
 20
185.9050253975744
 30
0.0
 11
-56.57604048835399
 21
185.0716920642409
 31
0.0
 12
-54.07604048835399
 22
185.4883587309076
 32
0.0
 13
-54.07604048835399
 23
185.4883587309076
 33
0.0
  0
SOLID
  5
472
330
46B
100
AcDbEntity
  8
0
 62
   123
100
AcDbTrace
 10
-47.57604048835399
 20
185.9050253975744
 30
0.0
 11
-47.57604048835399
 21
185.0716920642409
 31
0.0
 12
-50.076040488354
 22
185.4883587309076
 32
0.0
 13
-50.076040488354
 23
185.4883587309076
 33
0.0
  0
MTEXT
  5
473
330
46B
100
AcDbEntity
  8
0
 62
     3
100
AcDbMText
 10
-52.07604048835399
 20
188.9383587309076
 30
0.0
 40
3.0
 41
0.0
 71
     5
 72
     1
  1
\A1;\A1;4{\f??|b0|i0|c0|p49;\H0.7x;\S+0^ -0.03;}
1001
ACAD
1000
MTEXTBEGIN
1070
    73
1070
     1
1070
    44
1040
1.0
1070
    74
1070
     0
1000
MTEXTEND
1000
MTEXTBEGIN
1070
    73
1070
     1
1070
    44
1040
1.0
1070
    74
1070
     0
1000
MTEXTEND
1000
MTEXTBEGIN
1070
    73
1070
     1
1070
    44
1040
1.0
1070
    74
1070
     0
1000
MTEXTEND
  0
POINT
  5
474
330
46B
100
AcDbEntity
  8
DEFPOINTS
 62
     0
100
AcDbPoint
 10
-54.07604048835399
 20
176.813883072274
 30
0.0
  0
POINT
  5
475
330
46B
100
AcDbEntity
  8
DEFPOINTS
 62
     0
100
AcDbPoint
 10
-50.076040488354
 20
176.813883072274
 30
0.0
  0
POINT
  5
476
330
46B
100
AcDbEntity
  8
DEFPOINTS
 62
     0
100
AcDbPoint
 10
-50.076040488354
 20
185.4883587309076
 30
0.0
  0
ENDBLK
  5
478
330
46B
100
AcDbEntity
  8
0
100
AcDbBlockEnd
  0
BLOCK
  5
485
330
479
100
AcDbEntity
  8
0
100
AcDbBlockBegin
  2
*D52
 70
     1
 10
0.0
 20
0.0
 30
0.0
  3
*D52
  1

  0
LINE
  5
47A
330
479
100
AcDbEntity
  8
0
 62
   123
100
AcDbLine
 10
-4.142660747808803
 20
175.7135877852769
 30
0.0
 11
10.95467174637325
 21
175.7135877852769
 31
0.0
  0
LINE
  5
47B
330
479
100
AcDbEntity
  8
0
 62
   123
100
AcDbLine
 10
-6.142660747810622
 20
178.2135877852768
 30
0.0
 11
10.95467174637327
 21
178.2135877852768
 31
0.0
  0
LINE
  5
47C
330
479
100
AcDbEntity
  8
0
 62
   123
100
AcDbLine
 10
10.35467174637326
 20
173.2135877852769
 30
0.0
 11
10.35467174637326
 21
170.713587785277
 31
0.0
  0
LINE
  5
47D
330
479
100
AcDbEntity
  8
0
 62
   123
100
AcDbLine
 10
10.35467174637326
 20
180.7135877852769
 30
0.0
 11
10.35467174637326
 21
202.127873499564
 31
0.0
  0
LINE
  5
47E
330
479
100
AcDbEntity
  8
0
 62
   123
100
AcDbLine
 10
10.35467174637326
 20
175.7135877852769
 30
0.0
 11
10.35467174637326
 21
178.2135877852768
 31
0.0
  0
SOLID
  5
47F
330
479
100
AcDbEntity
  8
0
 62
   123
100
AcDbTrace
 10
9.938005079706602
 20
173.2135877852769
 30
0.0
 11
10.77133841303993
 21
173.2135877852769
 31
0.0
 12
10.35467174637326
 22
175.7135877852769
 32
0.0
 13
10.35467174637326
 23
175.7135877852769
 33
0.0
  0
SOLID
  5
480
330
479
100
AcDbEntity
  8
0
 62
   123
100
AcDbTrace
 10
9.938005079706602
 20
180.7135877852769
 30
0.0
 11
10.77133841303993
 21
180.7135877852769
 31
0.0
 12
10.35467174637326
 22
178.2135877852768
 32
0.0
 13
10.35467174637326
 23
178.2135877852768
 33
0.0
  0
MTEXT
  5
481
330
479
100
AcDbEntity
  8
0
 62
     3
100
AcDbMText
 10
6.90467174637324
 20
194.4207306424214
 30
0.0
 40
3.0
 41
0.0
 71
     5
 72
     1
  1
\A1;\A1;2.5{\f??|b0|i0|c0|p49;\H0.7x;\S+0.1^ -0;\H1.429x; }
 11
0.0000000000000001
 21
1.0
 31
0.0
1001
ACAD
1000
MTEXTBEGIN
1070
    73
1070
     1
1070
    44
1040
1.0
1070
    74
1070
     0
1000
MTEXTEND
1000
MTEXTBEGIN
1070
    73
1070
     1
1070
    44
1040
1.0
1070
    74
1070
     0
1000
MTEXTEND
1000
MTEXTBEGIN
1070
    73
1070
     1
1070
    44
1040
1.0
1070
    74
1070
     0
1000
MTEXTEND
  0
POINT
  5
482
330
479
100
AcDbEntity
  8
DEFPOINTS
 62
     0
100
AcDbPoint
 10
-5.142660747808802
 20
175.7135877852769
 30
0.0
  0
POINT
  5
483
330
479
100
AcDbEntity
  8
DEFPOINTS
 62
     0
100
AcDbPoint
 10
-7.142660747810622
 20
178.2135877852768
 30
0.0
  0
POINT
  5
484
330
479
100
AcDbEntity
  8
DEFPOINTS
 62
     0
100
AcDbPoint
 10
10.35467174637326
 20
178.2135877852768
 30
0.0
  0
ENDBLK
  5
486
330
479
100
AcDbEntity
  8
0
100
AcDbBlockEnd
  0
BLOCK
  5
493
330
487
100
AcDbEntity
  8
0
100
AcDbBlockBegin
  2
*D53
 70
     1
 10
0.0
 20
0.0
 30
0.0
  3
*D53
  1

  0
LINE
  5
488
330
487
100
AcDbEntity
  8
0
 62
   123
100
AcDbLine
 10
-70.24669377506778
 20
172.813883072274
 30
0.0
 11
-62.47763861960391
 21
172.813883072274
 31
0.0
  0
LINE
  5
489
330
487
100
AcDbEntity
  8
0
 62
   123
100
AcDbLine
 10
-70.24669377506778
 20
176.813883072274
 30
0.0
 11
-62.4776386196039
 21
176.813883072274
 31
0.0
  0
LINE
  5
48A
330
487
100
AcDbEntity
  8
0
 62
   123
100
AcDbLine
 10
-63.07763861960391
 20
170.3138830722739
 30
0.0
 11
-63.07763861960391
 21
167.813883072274
 31
0.0
  0
LINE
  5
48B
330
487
100
AcDbEntity
  8
0
 62
   123
100
AcDbLine
 10
-63.0776386196039
 20
179.313883072274
 30
0.0
 11
-63.0776386196039
 21
198.3776305806513
 31
0.0
  0
LINE
  5
48C
330
487
100
AcDbEntity
  8
0
 62
   123
100
AcDbLine
 10
-63.07763861960391
 20
172.813883072274
 30
0.0
 11
-63.0776386196039
 21
176.813883072274
 31
0.0
  0
SOLID
  5
48D
330
487
100
AcDbEntity
  8
0
 62
   123
100
AcDbTrace
 10
-63.49430528627057
 20
170.3138830722739
 30
0.0
 11
-62.66097195293724
 21
170.3138830722739
 31
0.0
 12
-63.07763861960391
 22
172.813883072274
 32
0.0
 13
-63.07763861960391
 23
172.813883072274
 33
0.0
  0
SOLID
  5
48E
330
487
100
AcDbEntity
  8
0
 62
   123
100
AcDbTrace
 10
-63.49430528627056
 20
179.313883072274
 30
0.0
 11
-62.66097195293724
 21
179.313883072274
 31
0.0
 12
-63.0776386196039
 22
176.813883072274
 32
0.0
 13
-63.0776386196039
 23
176.813883072274
 33
0.0
  0
MTEXT
  5
48F
330
487
100
AcDbEntity
  8
0
 62
     3
100
AcDbMText
 10
-66.52763861960393
 20
191.6633448663655
 30
0.0
 40
3.0
 41
0.0
 71
     5
 72
     1
  1
\A1;\A1;4{\f??|b0|i0|c0|p49;\H0.7x;\S+0^ -0.03;}
 11
0.0000000000000001
 21
1.0
 31
0.0
1001
ACAD
1000
MTEXTBEGIN
1070
    73
1070
     1
1070
    44
1040
1.0
1070
    74
1070
     0
1000
MTEXTEND
1000
MTEXTBEGIN
1070
    73
1070
     1
1070
    44
1040
1.0
1070
    74
1070
     0
1000
MTEXTEND
1000
MTEXTBEGIN
1070
    73
1070
     1
1070
    44
1040
1.0
1070
    74
1070
     0
1000
MTEXTEND
  0
POINT
  5
490
330
487
100
AcDbEntity
  8
DEFPOINTS
 62
     0
100
AcDbPoint
 10
-71.2466937750678
 20
172.813883072274
 30
0.0
  0
POINT
  5
491
330
487
100
AcDbEntity
  8
DEFPOINTS
 62
     0
100
AcDbPoint
 10
-71.2466937750678
 20
176.813883072274
 30
0.0
  0
POINT
  5
492
330
487
100
AcDbEntity
  8
DEFPOINTS
 62
     0
100
AcDbPoint
 10
-63.0776386196039
 20
176.813883072274
 30
0.0
  0
ENDBLK
  5
494
330
487
100
AcDbEntity
  8
0
100
AcDbBlockEnd
  0
BLOCK
  5
49F
330
495
100
AcDbEntity
  8
0
100
AcDbBlockBegin
  2
*D54
 70
     1
 10
0.0
 20
0.0
 30
0.0
  3
*D54
  1

  0
LINE
  5
52B
330
495
100
AcDbEntity
  8
0
 62
   123
100
AcDbLine
 10
-96.24669377506961
 20
175.813883072274
 30
0.0
 11
-96.24669377506961
 21
185.2190770527505
 31
0.0
  0
LINE
  5
52C
330
495
100
AcDbEntity
  8
0
 62
   123
100
AcDbLine
 10
-71.24669377506958
 20
177.813883072274
 30
0.0
 11
-71.24669377506958
 21
185.2190770527505
 31
0.0
  0
LINE
  5
52D
330
495
100
AcDbEntity
  8
0
 62
   123
100
AcDbLine
 10
-93.74669377506959
 20
184.6190770527503
 30
0.0
 11
-73.74669377506958
 21
184.6190770527503
 31
0.0
  0
SOLID
  5
52E
330
495
100
AcDbEntity
  8
0
 62
   123
100
AcDbTrace
 10
-93.74669377506959
 20
185.035743719417
 30
0.0
 11
-93.74669377506959
 21
184.2024103860836
 31
0.0
 12
-96.24669377506961
 22
184.6190770527503
 32
0.0
 13
-96.24669377506961
 23
184.6190770527503
 33
0.0
  0
SOLID
  5
52F
330
495
100
AcDbEntity
  8
0
 62
   123
100
AcDbTrace
 10
-73.74669377506958
 20
185.035743719417
 30
0.0
 11
-73.74669377506958
 21
184.2024103860836
 31
0.0
 12
-71.24669377506958
 22
184.6190770527503
 32
0.0
 13
-71.24669377506958
 23
184.6190770527503
 33
0.0
  0
MTEXT
  5
530
330
495
100
AcDbEntity
  8
0
 62
     3
100
AcDbMText
 10
-83.74669377506959
 20
187.1190770527505
 30
0.0
 40
3.0
 41
0.0
 71
     5
 72
     1
  1
\A1;25{\f??|b0|i0|c0|p49;%%p0.2}
1001
ACAD
1000
MTEXTBEGIN
1070
    73
1070
     1
1070
    44
1040
1.0
1070
    74
1070
     0
1000
MTEXTEND
1000
MTEXTBEGIN
1070
    73
1070
     1
1070
    44
1040
1.0
1070
    74
1070
     0
1000
MTEXTEND
1000
MTEXTBEGIN
1070
    73
1070
     1
1070
    44
1040
1.0
1070
    74
1070
     0
1000
MTEXTEND
  0
POINT
  5
531
330
495
100
AcDbEntity
  8
DEFPOINTS
 62
     0
100
AcDbPoint
 10
-96.24669377506961
 20
174.813883072274
 30
0.0
  0
POINT
  5
532
330
495
100
AcDbEntity
  8
DEFPOINTS
 62
     0
100
AcDbPoint
 10
-71.24669377506958
 20
176.813883072274
 30
0.0
  0
POINT
  5
533
330
495
100
AcDbEntity
  8
DEFPOINTS
 62
     0
100
AcDbPoint
 10
-71.24669377506958
 20
184.6190770527503
 30
0.0
  0
ENDBLK
  5
4A0
330
495
100
AcDbEntity
  8
0
100
AcDbBlockEnd
  0
BLOCK
  5
4AB
330
4A1
100
AcDbEntity
  8
0
100
AcDbBlockBegin
  2
*D55
 70
     1
 10
0.0
 20
0.0
 30
0.0
  3
*D55
  1

  0
LINE
  5
4A2
330
4A1
100
AcDbEntity
  8
0
 62
   123
100
AcDbLine
 10
-64.54819036224126
 20
244.9755553236105
 30
0.0
 11
-64.54819036224126
 21
219.3985939834896
 31
0.0
  0
LINE
  5
4A3
330
4A1
100
AcDbEntity
  8
0
 62
   123
100
AcDbLine
 10
15.45180963775783
 20
244.9755553236105
 30
0.0
 11
15.45180963775783
 21
219.3985939834896
 31
0.0
  0
LINE
  5
4A4
330
4A1
100
AcDbEntity
  8
0
 62
   123
100
AcDbLine
 10
-62.04819036224126
 20
219.9985939834895
 30
0.0
 11
12.95180963775783
 21
219.9985939834895
 31
0.0
  0
SOLID
  5
4A5
330
4A1
100
AcDbEntity
  8
0
 62
   123
100
AcDbTrace
 10
-62.04819036224126
 20
220.4152606501561
 30
0.0
 11
-62.04819036224126
 21
219.5819273168229
 31
0.0
 12
-64.54819036224126
 22
219.9985939834895
 32
0.0
 13
-64.54819036224126
 23
219.9985939834895
 33
0.0
  0
SOLID
  5
4A6
330
4A1
100
AcDbEntity
  8
0
 62
   123
100
AcDbTrace
 10
12.95180963775783
 20
220.4152606501561
 30
0.0
 11
12.95180963775783
 21
219.5819273168229
 31
0.0
 12
15.45180963775783
 22
219.9985939834895
 32
0.0
 13
15.45180963775783
 23
219.9985939834895
 33
0.0
  0
MTEXT
  5
4A7
330
4A1
100
AcDbEntity
  8
0
 62
     3
100
AcDbMText
 10
-20.72897259172167
 20
222.4985939834895
 30
0.0
 40
3.0
 41
0.0
 71
     5
 72
     1
  1
\A1;80
1001
ACAD
1000
MTEXTBEGIN
1070
    73
1070
     1
1070
    44
1040
1.0
1070
    74
1070
     0
1000
MTEXTEND
1000
MTEXTBEGIN
1070
    73
1070
     1
1070
    44
1040
1.0
1070
    74
1070
     0
1000
MTEXTEND
1000
MTEXTBEGIN
1070
    73
1070
     1
1070
    44
1040
1.0
1070
    74
1070
     0
1000
MTEXTEND
  0
POINT
  5
4A8
330
4A1
100
AcDbEntity
  8
DEFPOINTS
 62
     0
100
AcDbPoint
 10
-64.54819036224126
 20
245.9755553236104
 30
0.0
  0
POINT
  5
4A9
330
4A1
100
AcDbEntity
  8
DEFPOINTS
 62
     0
100
AcDbPoint
 10
15.45180963775783
 20
245.9755553236104
 30
0.0
  0
POINT
  5
4AA
330
4A1
100
AcDbEntity
  8
DEFPOINTS
 62
     0
100
AcDbPoint
 10
15.45180963775783
 20
219.9985939834895
 30
0.0
  0
ENDBLK
  5
4AC
330
4A1
100
AcDbEntity
  8
0
100
AcDbBlockEnd
  0
BLOCK
  5
4B9
330
4AD
100
AcDbEntity
  8
0
100
AcDbBlockBegin
  2
*D56
 70
     1
 10
0.0
 20
0.0
 30
0.0
  3
*D56
  1

  0
LINE
  5
4AE
330
4AD
100
AcDbEntity
  8
0
 62
   123
100
AcDbLine
 10
-9.142660747808804
 20
178.7961634802345
 30
0.0
 11
-9.142660747808804
 21
187.1551760252095
 31
0.0
  0
LINE
  5
4AF
330
4AD
100
AcDbEntity
  8
0
 62
   123
100
AcDbLine
 10
-5.142660747808802
 20
178.7961634802345
 30
0.0
 11
-5.142660747808801
 21
187.1551760252095
 31
0.0
  0
LINE
  5
4B0
330
4AD
100
AcDbEntity
  8
0
 62
   123
100
AcDbLine
 10
-11.64266074780879
 20
186.5551760252095
 30
0.0
 11
-14.14266074780879
 21
186.5551760252095
 31
0.0
  0
LINE
  5
4B1
330
4AD
100
AcDbEntity
  8
0
 62
   123
100
AcDbLine
 10
-2.642660747808803
 20
186.5551760252095
 30
0.0
 11
-0.1426607478088036
 21
186.5551760252095
 31
0.0
  0
LINE
  5
4B2
330
4AD
100
AcDbEntity
  8
0
 62
   123
100
AcDbLine
 10
-9.142660747808804
 20
186.5551760252095
 30
0.0
 11
-5.142660747808801
 21
186.5551760252095
 31
0.0
  0
SOLID
  5
4B3
330
4AD
100
AcDbEntity
  8
0
 62
   123
100
AcDbTrace
 10
-11.64266074780879
 20
186.9718426918763
 30
0.0
 11
-11.64266074780879
 21
186.138509358543
 31
0.0
 12
-9.142660747808804
 22
186.5551760252095
 32
0.0
 13
-9.142660747808804
 23
186.5551760252095
 33
0.0
  0
SOLID
  5
4B4
330
4AD
100
AcDbEntity
  8
0
 62
   123
100
AcDbTrace
 10
-2.642660747808803
 20
186.9718426918763
 30
0.0
 11
-2.642660747808803
 21
186.138509358543
 31
0.0
 12
-5.142660747808801
 22
186.5551760252095
 32
0.0
 13
-5.142660747808801
 23
186.5551760252095
 33
0.0
  0
MTEXT
  5
4B5
330
4AD
100
AcDbEntity
  8
0
 62
     3
100
AcDbMText
 10
-7.142660747808803
 20
190.0051760252095
 30
0.0
 40
3.0
 41
0.0
 71
     5
 72
     1
  1
\A1;\A1;4{\f??|b0|i0|c0|p49;\H0.7x;\S+0.40^ -0;}
1001
ACAD
1000
MTEXTBEGIN
1070
    73
1070
     1
1070
    44
1040
1.0
1070
    74
1070
     0
1000
MTEXTEND
1000
MTEXTBEGIN
1070
    73
1070
     1
1070
    44
1040
1.0
1070
    74
1070
     0
1000
MTEXTEND
1000
MTEXTBEGIN
1070
    73
1070
     1
1070
    44
1040
1.0
1070
    74
1070
     0
1000
MTEXTEND
  0
POINT
  5
4B6
330
4AD
100
AcDbEntity
  8
DEFPOINTS
 62
     0
100
AcDbPoint
 10
-9.142660747808804
 20
177.7961634802345
 30
0.0
  0
POINT
  5
4B7
330
4AD
100
AcDbEntity
  8
DEFPOINTS
 62
     0
100
AcDbPoint
 10
-5.142660747808802
 20
177.7961634802345
 30
0.0
  0
POINT
  5
4B8
330
4AD
100
AcDbEntity
  8
DEFPOINTS
 62
     0
100
AcDbPoint
 10
-5.142660747808801
 20
186.5551760252095
 30
0.0
  0
ENDBLK
  5
4BA
330
4AD
100
AcDbEntity
  8
0
100
AcDbBlockEnd
  0
BLOCK
  5
4C5
330
4BB
100
AcDbEntity
  8
0
100
AcDbBlockBegin
  2
*D57
 70
     1
 10
0.0
 20
0.0
 30
0.0
  3
*D57
  1

  0
LINE
  5
4BC
330
4BB
100
AcDbEntity
  8
0
 62
   123
100
AcDbLine
 10
81.10493023024991
 20
289.9755553236095
 30
0.0
 11
81.10493023024991
 21
227.2878742753186
 31
0.0
  0
LINE
  5
4BD
330
4BB
100
AcDbEntity
  8
0
 62
   123
100
AcDbLine
 10
113.1049302302499
 20
240.4755553236095
 30
0.0
 11
113.1049302302499
 21
227.2878742753186
 31
0.0
  0
LINE
  5
4BE
330
4BB
100
AcDbEntity
  8
0
 62
   123
100
AcDbLine
 10
83.60493023024991
 20
227.8878742753186
 30
0.0
 11
110.6049302302499
 21
227.8878742753186
 31
0.0
  0
SOLID
  5
4BF
330
4BB
100
AcDbEntity
  8
0
 62
   123
100
AcDbTrace
 10
83.60493023024991
 20
228.304540941985
 30
0.0
 11
83.60493023024991
 21
227.4712076086519
 31
0.0
 12
81.10493023024991
 22
227.8878742753186
 32
0.0
 13
81.10493023024991
 23
227.8878742753186
 33
0.0
  0
SOLID
  5
4C0
330
4BB
100
AcDbEntity
  8
0
 62
   123
100
AcDbTrace
 10
110.6049302302499
 20
228.304540941985
 30
0.0
 11
110.6049302302499
 21
227.4712076086519
 31
0.0
 12
113.1049302302499
 22
227.8878742753186
 32
0.0
 13
113.1049302302499
 23
227.8878742753186
 33
0.0
  0
MTEXT
  5
4C1
330
4BB
100
AcDbEntity
  8
0
 62
     3
100
AcDbMText
 10
97.10493023024993
 20
230.3878742753186
 30
0.0
 40
3.0
 41
0.0
 71
     5
 72
     1
  1
\A1;32
1001
ACAD
1000
MTEXTBEGIN
1070
    73
1070
     1
1070
    44
1040
1.0
1070
    74
1070
     0
1000
MTEXTEND
1000
MTEXTBEGIN
1070
    73
1070
     1
1070
    44
1040
1.0
1070
    74
1070
     0
1000
MTEXTEND
1000
MTEXTBEGIN
1070
    73
1070
     1
1070
    44
1040
1.0
1070
    74
1070
     0
1000
MTEXTEND
  0
POINT
  5
4C2
330
4BB
100
AcDbEntity
  8
DEFPOINTS
 62
     0
100
AcDbPoint
 10
81.10493023024991
 20
290.9755553236095
 30
0.0
  0
POINT
  5
4C3
330
4BB
100
AcDbEntity
  8
DEFPOINTS
 62
     0
100
AcDbPoint
 10
113.1049302302499
 20
241.4755553236095
 30
0.0
  0
POINT
  5
4C4
330
4BB
100
AcDbEntity
  8
DEFPOINTS
 62
     0
100
AcDbPoint
 10
113.1049302302499
 20
227.8878742753186
 30
0.0
  0
ENDBLK
  5
4C6
330
4BB
100
AcDbEntity
  8
0
100
AcDbBlockEnd
  0
BLOCK
  5
4D1
330
4C7
100
AcDbEntity
  8
0
100
AcDbBlockBegin
  2
*D58
 70
     1
 10
0.0
 20
0.0
 30
0.0
  3
*D58
  1

  0
LINE
  5
4C8
330
4C7
100
AcDbEntity
  8
0
 62
   123
100
AcDbLine
 10
155.604930230249
 20
240.4755553236095
 30
0.0
 11
155.604930230249
 21
227.2878742753186
 31
0.0
  0
LINE
  5
4C9
330
4C7
100
AcDbEntity
  8
0
 62
   123
100
AcDbLine
 10
113.1049302302499
 20
240.4755553236095
 30
0.0
 11
113.1049302302499
 21
227.2878742753186
 31
0.0
  0
LINE
  5
4CA
330
4C7
100
AcDbEntity
  8
0
 62
   123
100
AcDbLine
 10
153.104930230249
 20
227.8878742753186
 30
0.0
 11
115.6049302302499
 21
227.8878742753186
 31
0.0
  0
SOLID
  5
4CB
330
4C7
100
AcDbEntity
  8
0
 62
   123
100
AcDbTrace
 10
153.104930230249
 20
228.304540941985
 30
0.0
 11
153.104930230249
 21
227.4712076086519
 31
0.0
 12
155.604930230249
 22
227.8878742753186
 32
0.0
 13
155.604930230249
 23
227.8878742753186
 33
0.0
  0
SOLID
  5
4CC
330
4C7
100
AcDbEntity
  8
0
 62
   123
100
AcDbTrace
 10
115.6049302302499
 20
228.304540941985
 30
0.0
 11
115.6049302302499
 21
227.4712076086519
 31
0.0
 12
113.1049302302499
 22
227.8878742753186
 32
0.0
 13
113.1049302302499
 23
227.8878742753186
 33
0.0
  0
MTEXT
  5
4CD
330
4C7
100
AcDbEntity
  8
0
 62
     3
100
AcDbMText
 10
134.3549302302494
 20
230.3878742753186
 30
0.0
 40
3.0
 41
0.0
 71
     5
 72
     1
  1
\A1;L
1001
ACAD
1000
MTEXTBEGIN
1070
    73
1070
     1
1070
    44
1040
1.0
1070
    74
1070
     0
1000
MTEXTEND
1000
MTEXTBEGIN
1070
    73
1070
     1
1070
    44
1040
1.0
1070
    74
1070
     0
1000
MTEXTEND
1000
MTEXTBEGIN
1070
    73
1070
     1
1070
    44
1040
1.0
1070
    74
1070
     0
1000
MTEXTEND
  0
POINT
  5
4CE
330
4C7
100
AcDbEntity
  8
DEFPOINTS
 62
     0
100
AcDbPoint
 10
155.604930230249
 20
241.4755553236095
 30
0.0
  0
POINT
  5
4CF
330
4C7
100
AcDbEntity
  8
DEFPOINTS
 62
     0
100
AcDbPoint
 10
113.1049302302499
 20
241.4755553236095
 30
0.0
  0
POINT
  5
4D0
330
4C7
100
AcDbEntity
  8
DEFPOINTS
 62
     0
100
AcDbPoint
 10
113.1049302302499
 20
227.8878742753186
 30
0.0
  0
ENDBLK
  5
4D2
330
4C7
100
AcDbEntity
  8
0
100
AcDbBlockEnd
  0
BLOCK
  5
4DD
330
4D3
100
AcDbEntity
  8
0
100
AcDbBlockBegin
  2
*D59
 70
     1
 10
0.0
 20
0.0
 30
0.0
  3
*D59
  1

  0
LINE
  5
4D4
330
4D3
100
AcDbEntity
  8
0
 62
   123
100
AcDbLine
 10
87.84361684510804
 20
468.9049002069687
 30
0.0
 11
87.84361684510804
 21
488.3613918269085
 31
0.0
  0
LINE
  5
4D5
330
4D3
100
AcDbEntity
  8
0
 62
   123
100
AcDbLine
 10
119.8436168451079
 20
468.9049002069687
 30
0.0
 11
119.8436168451079
 21
488.3613918269085
 31
0.0
  0
LINE
  5
4D6
330
4D3
100
AcDbEntity
  8
0
 62
   123
100
AcDbLine
 10
90.34361684510804
 20
487.7613918269083
 30
0.0
 11
117.3436168451079
 21
487.7613918269083
 31
0.0
  0
SOLID
  5
4D7
330
4D3
100
AcDbEntity
  8
0
 62
   123
100
AcDbTrace
 10
90.34361684510804
 20
488.1780584935752
 30
0.0
 11
90.34361684510804
 21
487.3447251602416
 31
0.0
 12
87.84361684510804
 22
487.7613918269083
 32
0.0
 13
87.84361684510804
 23
487.7613918269083
 33
0.0
  0
SOLID
  5
4D8
330
4D3
100
AcDbEntity
  8
0
 62
   123
100
AcDbTrace
 10
117.3436168451079
 20
488.1780584935752
 30
0.0
 11
117.3436168451079
 21
487.3447251602416
 31
0.0
 12
119.8436168451079
 22
487.7613918269083
 32
0.0
 13
119.8436168451079
 23
487.7613918269083
 33
0.0
  0
MTEXT
  5
4D9
330
4D3
100
AcDbEntity
  8
0
 62
     3
100
AcDbMText
 10
103.8436168451079
 20
490.2613918269085
 30
0.0
 40
3.0
 41
0.0
 71
     5
 72
     1
  1
\A1;32
1001
ACAD
1000
MTEXTBEGIN
1070
    73
1070
     1
1070
    44
1040
1.0
1070
    74
1070
     0
1000
MTEXTEND
1000
MTEXTBEGIN
1070
    73
1070
     1
1070
    44
1040
1.0
1070
    74
1070
     0
1000
MTEXTEND
1000
MTEXTBEGIN
1070
    73
1070
     1
1070
    44
1040
1.0
1070
    74
1070
     0
1000
MTEXTEND
  0
POINT
  5
4DA
330
4D3
100
AcDbEntity
  8
DEFPOINTS
 62
     0
100
AcDbPoint
 10
87.84361684510804
 20
467.9049002069687
 30
0.0
  0
POINT
  5
4DB
330
4D3
100
AcDbEntity
  8
DEFPOINTS
 62
     0
100
AcDbPoint
 10
119.8436168451079
 20
467.9049002069687
 30
0.0
  0
POINT
  5
4DC
330
4D3
100
AcDbEntity
  8
DEFPOINTS
 62
     0
100
AcDbPoint
 10
119.8436168451079
 20
487.7613918269083
 30
0.0
  0
ENDBLK
  5
4DE
330
4D3
100
AcDbEntity
  8
0
100
AcDbBlockEnd
  0
BLOCK
  5
4E9
330
4DF
100
AcDbEntity
  8
0
100
AcDbBlockBegin
  2
*D60
 70
     1
 10
0.0
 20
0.0
 30
0.0
  3
*D60
  1

  0
LINE
  5
4E0
330
4DF
100
AcDbEntity
  8
0
 62
   123
100
AcDbLine
 10
-53.34933162625747
 20
463.9049002069687
 30
0.0
 11
-53.34933162625747
 21
482.9794668567066
 31
0.0
  0
LINE
  5
4E1
330
4DF
100
AcDbEntity
  8
0
 62
   123
100
AcDbLine
 10
26.65066837374252
 20
463.9049002069687
 30
0.0
 11
26.65066837374252
 21
482.9794668567066
 31
0.0
  0
LINE
  5
4E2
330
4DF
100
AcDbEntity
  8
0
 62
   123
100
AcDbLine
 10
-50.84933162625747
 20
482.3794668567066
 30
0.0
 11
24.15066837374252
 21
482.3794668567066
 31
0.0
  0
SOLID
  5
4E3
330
4DF
100
AcDbEntity
  8
0
 62
   123
100
AcDbTrace
 10
-50.84933162625747
 20
482.796133523373
 30
0.0
 11
-50.84933162625747
 21
481.9628001900398
 31
0.0
 12
-53.34933162625747
 22
482.3794668567066
 32
0.0
 13
-53.34933162625747
 23
482.3794668567066
 33
0.0
  0
SOLID
  5
4E4
330
4DF
100
AcDbEntity
  8
0
 62
   123
100
AcDbTrace
 10
24.15066837374252
 20
482.796133523373
 30
0.0
 11
24.15066837374252
 21
481.9628001900398
 31
0.0
 12
26.65066837374252
 22
482.3794668567066
 32
0.0
 13
26.65066837374252
 23
482.3794668567066
 33
0.0
  0
MTEXT
  5
4E5
330
4DF
100
AcDbEntity
  8
0
 62
     3
100
AcDbMText
 10
-11.74061024161618
 20
484.8794668567064
 30
0.0
 40
3.0
 41
0.0
 71
     5
 72
     1
  1
\A1;80
1001
ACAD
1000
MTEXTBEGIN
1070
    73
1070
     1
1070
    44
1040
1.0
1070
    74
1070
     0
1000
MTEXTEND
1000
MTEXTBEGIN
1070
    73
1070
     1
1070
    44
1040
1.0
1070
    74
1070
     0
1000
MTEXTEND
1000
MTEXTBEGIN
1070
    73
1070
     1
1070
    44
1040
1.0
1070
    74
1070
     0
1000
MTEXTEND
  0
POINT
  5
4E6
330
4DF
100
AcDbEntity
  8
DEFPOINTS
 62
     0
100
AcDbPoint
 10
-53.34933162625747
 20
462.9049002069685
 30
0.0
  0
POINT
  5
4E7
330
4DF
100
AcDbEntity
  8
DEFPOINTS
 62
     0
100
AcDbPoint
 10
26.65066837374252
 20
462.9049002069685
 30
0.0
  0
POINT
  5
4E8
330
4DF
100
AcDbEntity
  8
DEFPOINTS
 62
     0
100
AcDbPoint
 10
26.65066837374252
 20
482.3794668567066
 30
0.0
  0
ENDBLK
  5
4EA
330
4DF
100
AcDbEntity
  8
0
100
AcDbBlockEnd
  0
BLOCK
  5
4F7
330
4EB
100
AcDbEntity
  8
0
100
AcDbBlockBegin
  2
*D61
 70
     1
 10
0.0
 20
0.0
 30
0.0
  3
*D61
  1

  0
LINE
  5
4EC
330
4EB
100
AcDbEntity
  8
0
 62
   123
100
AcDbLine
 10
85.84361684510895
 20
465.4049002069667
 30
0.0
 11
85.84361684510895
 21
478.0673879319979
 31
0.0
  0
LINE
  5
4ED
330
4EB
100
AcDbEntity
  8
0
 62
   123
100
AcDbLine
 10
87.84361684510804
 20
468.9049002069678
 30
0.0
 11
87.84361684510804
 21
478.0673879319979
 31
0.0
  0
LINE
  5
4EE
330
4EB
100
AcDbEntity
  8
0
 62
   123
100
AcDbLine
 10
90.34361684510804
 20
477.4673879319979
 30
0.0
 11
92.84361684510804
 21
477.4673879319979
 31
0.0
  0
LINE
  5
4EF
330
4EB
100
AcDbEntity
  8
0
 62
   123
100
AcDbLine
 10
83.34361684510895
 20
477.4673879319979
 30
0.0
 11
76.84361684510895
 21
477.4673879319979
 31
0.0
  0
LINE
  5
4F0
330
4EB
100
AcDbEntity
  8
0
 62
   123
100
AcDbLine
 10
87.84361684510804
 20
477.4673879319979
 30
0.0
 11
85.84361684510895
 21
477.4673879319979
 31
0.0
  0
SOLID
  5
4F1
330
4EB
100
AcDbEntity
  8
0
 62
   123
100
AcDbTrace
 10
90.34361684510804
 20
477.8840545986646
 30
0.0
 11
90.34361684510804
 21
477.0507212653313
 31
0.0
 12
87.84361684510804
 22
477.4673879319979
 32
0.0
 13
87.84361684510804
 23
477.4673879319979
 33
0.0
  0
SOLID
  5
4F2
330
4EB
100
AcDbEntity
  8
0
 62
   123
100
AcDbTrace
 10
83.34361684510895
 20
477.8840545986646
 30
0.0
 11
83.34361684510895
 21
477.0507212653313
 31
0.0
 12
85.84361684510895
 22
477.4673879319979
 32
0.0
 13
85.84361684510895
 23
477.4673879319979
 33
0.0
  0
MTEXT
  5
4F3
330
4EB
100
AcDbEntity
  8
0
 62
     3
100
AcDbMText
 10
78.84361684510896
 20
479.9673879319978
 30
0.0
 40
3.0
 41
0.0
 71
     5
 72
     1
  1
\A1;2
1001
ACAD
1000
MTEXTBEGIN
1070
    73
1070
     1
1070
    44
1040
1.0
1070
    74
1070
     0
1000
MTEXTEND
1000
MTEXTBEGIN
1070
    73
1070
     1
1070
    44
1040
1.0
1070
    74
1070
     0
1000
MTEXTEND
1000
MTEXTBEGIN
1070
    73
1070
     1
1070
    44
1040
1.0
1070
    74
1070
     0
1000
MTEXTEND
  0
POINT
  5
4F4
330
4EB
100
AcDbEntity
  8
DEFPOINTS
 62
     0
100
AcDbPoint
 10
85.84361684510895
 20
464.4049002069666
 30
0.0
  0
POINT
  5
4F5
330
4EB
100
AcDbEntity
  8
DEFPOINTS
 62
     0
100
AcDbPoint
 10
87.84361684510804
 20
467.9049002069675
 30
0.0
  0
POINT
  5
4F6
330
4EB
100
AcDbEntity
  8
DEFPOINTS
 62
     0
100
AcDbPoint
 10
87.84361684510804
 20
477.4673879319979
 30
0.0
  0
ENDBLK
  5
4F8
330
4EB
100
AcDbEntity
  8
0
100
AcDbBlockEnd
  0
BLOCK
  5
503
330
4F9
100
AcDbEntity
  8
0
100
AcDbBlockBegin
  2
*D62
 70
     1
 10
0.0
 20
0.0
 30
0.0
  3
*D62
  1

  0
LINE
  5
4FA
330
4F9
100
AcDbEntity
  8
0
 62
   123
100
AcDbLine
 10
74.34361684510895
 20
432.0099002069674
 30
0.0
 11
74.34361684510895
 21
488.3613918269076
 31
0.0
  0
LINE
  5
4FB
330
4F9
100
AcDbEntity
  8
0
 62
   123
100
AcDbLine
 10
87.84361684510804
 20
468.9049002069678
 30
0.0
 11
87.84361684510804
 21
488.3613918269076
 31
0.0
  0
LINE
  5
4FC
330
4F9
100
AcDbEntity
  8
0
 62
   123
100
AcDbLine
 10
76.84361684510895
 20
487.7613918269076
 30
0.0
 11
85.34361684510804
 21
487.7613918269076
 31
0.0
  0
SOLID
  5
4FD
330
4F9
100
AcDbEntity
  8
0
 62
   123
100
AcDbTrace
 10
76.84361684510895
 20
488.1780584935742
 30
0.0
 11
76.84361684510895
 21
487.3447251602406
 31
0.0
 12
74.34361684510895
 22
487.7613918269076
 32
0.0
 13
74.34361684510895
 23
487.7613918269076
 33
0.0
  0
SOLID
  5
4FE
330
4F9
100
AcDbEntity
  8
0
 62
   123
100
AcDbTrace
 10
85.34361684510804
 20
488.1780584935742
 30
0.0
 11
85.34361684510804
 21
487.3447251602406
 31
0.0
 12
87.84361684510804
 22
487.7613918269076
 32
0.0
 13
87.84361684510804
 23
487.7613918269076
 33
0.0
  0
MTEXT
  5
4FF
330
4F9
100
AcDbEntity
  8
0
 62
     3
100
AcDbMText
 10
81.59361684510896
 20
490.2613918269075
 30
0.0
 40
3.0
 41
0.0
 71
     5
 72
     1
  1
\A1;13.5
1001
ACAD
1000
MTEXTBEGIN
1070
    73
1070
     1
1070
    44
1040
1.0
1070
    74
1070
     0
1000
MTEXTEND
1000
MTEXTBEGIN
1070
    73
1070
     1
1070
    44
1040
1.0
1070
    74
1070
     0
1000
MTEXTEND
1000
MTEXTBEGIN
1070
    73
1070
     1
1070
    44
1040
1.0
1070
    74
1070
     0
1000
MTEXTEND
  0
POINT
  5
500
330
4F9
100
AcDbEntity
  8
DEFPOINTS
 62
     0
100
AcDbPoint
 10
74.34361684510895
 20
431.0099002069673
 30
0.0
  0
POINT
  5
501
330
4F9
100
AcDbEntity
  8
DEFPOINTS
 62
     0
100
AcDbPoint
 10
87.84361684510804
 20
467.9049002069675
 30
0.0
  0
POINT
  5
502
330
4F9
100
AcDbEntity
  8
DEFPOINTS
 62
     0
100
AcDbPoint
 10
87.84361684510804
 20
487.7613918269076
 30
0.0
  0
ENDBLK
  5
504
330
4F9
100
AcDbEntity
  8
0
100
AcDbBlockEnd
  0
BLOCK
  5
50F
330
505
100
AcDbEntity
  8
0
100
AcDbBlockBegin
  2
*D63
 70
     1
 10
0.0
 20
0.0
 30
0.0
  3
*D63
  1

  0
LINE
  5
506
330
505
100
AcDbEntity
  8
0
 62
   123
100
AcDbLine
 10
106.104930230249
 20
301.9755553236103
 30
0.0
 11
106.104930230249
 21
317.7958435305128
 31
0.0
  0
LINE
  5
507
330
505
100
AcDbEntity
  8
0
 62
   123
100
AcDbLine
 10
81.10493023024991
 20
301.9755553236095
 30
0.0
 11
81.10493023024991
 21
317.7958435305128
 31
0.0
  0
LINE
  5
508
330
505
100
AcDbEntity
  8
0
 62
   123
100
AcDbLine
 10
103.604930230249
 20
317.1958435305127
 30
0.0
 11
83.60493023024991
 21
317.1958435305127
 31
0.0
  0
SOLID
  5
509
330
505
100
AcDbEntity
  8
0
 62
   123
100
AcDbTrace
 10
103.604930230249
 20
317.6125101971793
 30
0.0
 11
103.604930230249
 21
316.7791768638461
 31
0.0
 12
106.104930230249
 22
317.1958435305127
 32
0.0
 13
106.104930230249
 23
317.1958435305127
 33
0.0
  0
SOLID
  5
50A
330
505
100
AcDbEntity
  8
0
 62
   123
100
AcDbTrace
 10
83.60493023024991
 20
317.6125101971793
 30
0.0
 11
83.60493023024991
 21
316.7791768638461
 31
0.0
 12
81.10493023024991
 22
317.1958435305127
 32
0.0
 13
81.10493023024991
 23
317.1958435305127
 33
0.0
  0
MTEXT
  5
50B
330
505
100
AcDbEntity
  8
0
 62
     3
100
AcDbMText
 10
93.91586089764677
 20
319.6958435305127
 30
0.0
 40
3.0
 41
0.0
 71
     5
 72
     1
  1
\A1;25
1001
ACAD
1000
MTEXTBEGIN
1070
    73
1070
     1
1070
    44
1040
1.0
1070
    74
1070
     0
1000
MTEXTEND
1000
MTEXTBEGIN
1070
    73
1070
     1
1070
    44
1040
1.0
1070
    74
1070
     0
1000
MTEXTEND
1000
MTEXTBEGIN
1070
    73
1070
     1
1070
    44
1040
1.0
1070
    74
1070
     0
1000
MTEXTEND
  0
POINT
  5
50C
330
505
100
AcDbEntity
  8
DEFPOINTS
 62
     0
100
AcDbPoint
 10
106.104930230249
 20
300.9755553236103
 30
0.0
  0
POINT
  5
50D
330
505
100
AcDbEntity
  8
DEFPOINTS
 62
     0
100
AcDbPoint
 10
81.10493023024991
 20
300.9755553236095
 30
0.0
  0
POINT
  5
50E
330
505
100
AcDbEntity
  8
DEFPOINTS
 62
     0
100
AcDbPoint
 10
81.10493023024991
 20
317.1958435305127
 30
0.0
  0
ENDBLK
  5
510
330
505
100
AcDbEntity
  8
0
100
AcDbBlockEnd
  0
BLOCK
  5
51D
330
511
100
AcDbEntity
  8
0
100
AcDbBlockBegin
  2
*D64
 70
     1
 10
0.0
 20
0.0
 30
0.0
  3
*D64
  1

  0
LINE
  5
512
330
511
100
AcDbEntity
  8
0
 62
   123
100
AcDbLine
 10
113.1049302302499
 20
321.4755553236095
 30
0.0
 11
113.1049302302499
 21
328.1854832325147
 31
0.0
  0
LINE
  5
513
330
511
100
AcDbEntity
  8
0
 62
   123
100
AcDbLine
 10
110.1049302302498
 20
313.4755553236095
 30
0.0
 11
110.1049302302498
 21
328.1854832325147
 31
0.0
  0
LINE
  5
514
330
511
100
AcDbEntity
  8
0
 62
   123
100
AcDbLine
 10
115.6049302302499
 20
327.5854832325149
 30
0.0
 11
118.1049302302499
 21
327.5854832325149
 31
0.0
  0
LINE
  5
515
330
511
100
AcDbEntity
  8
0
 62
   123
100
AcDbLine
 10
107.6049302302499
 20
327.5854832325149
 30
0.0
 11
105.1049302302499
 21
327.5854832325149
 31
0.0
  0
LINE
  5
516
330
511
100
AcDbEntity
  8
0
 62
   123
100
AcDbLine
 10
113.1049302302499
 20
327.5854832325149
 30
0.0
 11
110.1049302302498
 21
327.5854832325149
 31
0.0
  0
SOLID
  5
517
330
511
100
AcDbEntity
  8
0
 62
   123
100
AcDbTrace
 10
115.6049302302499
 20
328.0021498991815
 30
0.0
 11
115.6049302302499
 21
327.1688165658482
 31
0.0
 12
113.1049302302499
 22
327.5854832325149
 32
0.0
 13
113.1049302302499
 23
327.5854832325149
 33
0.0
  0
SOLID
  5
518
330
511
100
AcDbEntity
  8
0
 62
   123
100
AcDbTrace
 10
107.6049302302499
 20
328.0021498991815
 30
0.0
 11
107.6049302302499
 21
327.1688165658482
 31
0.0
 12
110.1049302302498
 22
327.5854832325149
 32
0.0
 13
110.1049302302498
 23
327.5854832325149
 33
0.0
  0
MTEXT
  5
519
330
511
100
AcDbEntity
  8
0
 62
     3
100
AcDbMText
 10
111.6049302302499
 20
330.0854832325146
 30
0.0
 40
3.0
 41
0.0
 71
     5
 72
     1
  1
\A1;3
1001
ACAD
1000
MTEXTBEGIN
1070
    73
1070
     1
1070
    44
1040
1.0
1070
    74
1070
     0
1000
MTEXTEND
1000
MTEXTBEGIN
1070
    73
1070
     1
1070
    44
1040
1.0
1070
    74
1070
     0
1000
MTEXTEND
1000
MTEXTBEGIN
1070
    73
1070
     1
1070
    44
1040
1.0
1070
    74
1070
     0
1000
MTEXTEND
  0
POINT
  5
51A
330
511
100
AcDbEntity
  8
DEFPOINTS
 62
     0
100
AcDbPoint
 10
113.1049302302499
 20
320.4755553236095
 30
0.0
  0
POINT
  5
51B
330
511
100
AcDbEntity
  8
DEFPOINTS
 62
     0
100
AcDbPoint
 10
110.1049302302498
 20
312.4755553236095
 30
0.0
  0
POINT
  5
51C
330
511
100
AcDbEntity
  8
DEFPOINTS
 62
     0
100
AcDbPoint
 10
110.1049302302498
 20
327.5854832325149
 30
0.0
  0
ENDBLK
  5
51E
330
511
100
AcDbEntity
  8
0
100
AcDbBlockEnd
  0
BLOCK
  5
529
330
51F
100
AcDbEntity
  8
0
100
AcDbBlockBegin
  2
*D65
 70
     1
 10
0.0
 20
0.0
 30
0.0
  3
*D65
  1

  0
LINE
  5
520
330
51F
100
AcDbEntity
  8
0
 62
   123
100
AcDbLine
 10
84.84361684510895
 20
391.4049002069667
 30
0.0
 11
61.7425194537304
 21
391.4049002069667
 31
0.0
  0
LINE
  5
521
330
51F
100
AcDbEntity
  8
0
 62
   123
100
AcDbLine
 10
84.84361684510895
 20
464.4049002069666
 30
0.0
 11
61.74251945373042
 21
464.4049002069666
 31
0.0
  0
LINE
  5
522
330
51F
100
AcDbEntity
  8
0
 62
   123
100
AcDbLine
 10
62.3425194537304
 20
393.9049002069669
 30
0.0
 11
62.34251945373042
 21
461.9049002069669
 31
0.0
  0
SOLID
  5
523
330
51F
100
AcDbEntity
  8
0
 62
   123
100
AcDbTrace
 10
61.92585278706374
 20
393.9049002069669
 30
0.0
 11
62.75918612039706
 21
393.9049002069669
 31
0.0
 12
62.3425194537304
 22
391.4049002069667
 32
0.0
 13
62.3425194537304
 23
391.4049002069667
 33
0.0
  0
SOLID
  5
524
330
51F
100
AcDbEntity
  8
0
 62
   123
100
AcDbTrace
 10
61.92585278706375
 20
461.9049002069669
 30
0.0
 11
62.75918612039708
 21
461.9049002069669
 31
0.0
 12
62.34251945373042
 22
464.4049002069666
 32
0.0
 13
62.34251945373042
 23
464.4049002069666
 33
0.0
  0
MTEXT
  5
525
330
51F
100
AcDbEntity
  8
0
 62
     3
100
AcDbMText
 10
58.39236945373034
 20
427.9049002069678
 30
0.0
 40
3.0
 41
0.0
 71
     5
 72
     1
  1
\A1;\A1;{\f??|b0|i0|c0|p49;%%C}73{\f??|b0|i0|c0|p49;\H0.7x;\S+0^ -0.030;\H1.429x;(h7)}
 11
0.0000000000000001
 21
1.0
 31
0.0
1001
ACAD
1000
MTEXTBEGIN
1070
    73
1070
     1
1070
    44
1040
1.0
1070
    74
1070
     0
1000
MTEXTEND
1000
MTEXTBEGIN
1070
    73
1070
     1
1070
    44
1040
1.0
1070
    74
1070
     0
1000
MTEXTEND
1000
MTEXTBEGIN
1070
    73
1070
     1
1070
    44
1040
1.0
1070
    74
1070
     0
1000
MTEXTEND
  0
POINT
  5
526
330
51F
100
AcDbEntity
  8
DEFPOINTS
 62
     0
100
AcDbPoint
 10
85.84361684510895
 20
391.4049002069667
 30
0.0
  0
POINT
  5
527
330
51F
100
AcDbEntity
  8
DEFPOINTS
 62
     0
100
AcDbPoint
 10
85.84361684510895
 20
464.4049002069666
 30
0.0
  0
POINT
  5
528
330
51F
100
AcDbEntity
  8
DEFPOINTS
 62
     0
100
AcDbPoint
 10
62.34251945373042
 20
464.4049002069666
 30
0.0
  0
ENDBLK
  5
52A
330
51F
100
AcDbEntity
  8
0
100
AcDbBlockEnd
  0
ENDSEC
  0
SECTION
  2
ENTITIES
  0
LINE
  5
9D
330
2
100
AcDbEntity
  8
0
100
AcDbLine
 10
110.1049302302498
 20
312.4755553236095
 30
0.0
 11
110.1049302302498
 21
281.4755553236103
 31
0.0
  0
LINE
  5
9E
330
2
100
AcDbEntity
  8
0
100
AcDbLine
 10
113.1049302302499
 20
320.4755553236103
 30
0.0
 11
113.1049302302499
 21
241.4755553236104
 31
0.0
  0
LINE
  5
9F
330
2
100
AcDbEntity
  8
0
100
AcDbLine
 10
155.604930230249
 20
320.4755553236103
 30
0.0
 11
155.604930230249
 21
241.4755553236104
 31
0.0
  0
LINE
  5
A0
102
{ACAD_REACTORS
330
B4
102
}
330
2
100
AcDbEntity
  8
0
100
AcDbLine
 10
81.10493023024991
 20
300.9755553236103
 30
0.0
 11
81.10493023024991
 21
290.9755553236103
 31
0.0
  0
DIMENSION
  5
A1
102
{ACAD_XDICTIONARY
360
A2
102
}
102
{ACAD_REACTORS
330
A3
102
}
330
2
100
AcDbEntity
  8
0
100
AcDbDimension
  2
*D36
 10
57.25838355875385
 20
280.9755553236104
 30
0.0
 11
54.7583835587538
 21
288.4755553236103
 31
0.0
 70
    32
  3
STANDARD
100
AcDbAlignedDimension
 13
77.20679142902463
 23
295.9755553236103
 33
0.0
 14
69.49725709614813
 24
280.9755553236104
 34
0.0
 50
90.0
100
AcDbRotatedDimension
  0
DIMENSION
  5
B2
102
{ACAD_XDICTIONARY
360
B3
102
}
102
{ACAD_REACTORS
330
B4
102
}
330
2
100
AcDbEntity
  8
0
100
AcDbDimension
  2
*D35
 10
66.28026694127317
 20
300.9755553236103
 30
0.0
 11
66.28026694127311
 21
329.0864892493523
 31
0.0
 70
   160
  1
\A1;{\f??|b0|i0|c0|p49;%%C10\H0.7x;\S+0^ -0.015;\H1.429x;(h7)}
  3
STANDARD
100
AcDbAlignedDimension
 13
81.10493023024991
 23
290.9755553236103
 33
0.0
 14
81.10493023024991
 24
300.9755553236103
 34
0.0
 50
90.0
100
AcDbRotatedDimension
  0
INSERT
  5
C3
330
2
100
AcDbEntity
  8
0
100
AcDbBlockReference
  2
5
 10
-24.54819036224217
 20
280.9755553236104
 30
0.0
  0
LINE
  5
E3
330
2
100
AcDbEntity
  8
CEN
 48
0.6
100
AcDbLine
 10
-24.54819036224217
 20
233.8034321152144
 30
0.0
 11
-24.54819036224217
 21
328.1476785320062
 31
0.0
  0
LINE
  5
E4
330
2
100
AcDbEntity
  8
CEN
 48
0.6
100
AcDbLine
 10
-24.54819036224217
 20
233.8034321152144
 30
0.0
 11
-24.54819036224217
 21
328.1476785320073
 31
0.0
  0
CIRCLE
  5
E5
330
2
100
AcDbEntity
  8
0
 48
0.6
100
AcDbCircle
 10
-24.54819036224217
 20
280.9755553236104
 30
0.0
 40
36.5
  0
CIRCLE
  5
E6
330
2
100
AcDbEntity
  8
0
 48
0.6
100
AcDbCircle
 10
-24.54819036224217
 20
295.9755553236103
 30
0.0
 40
5.0
  0
CIRCLE
  5
E7
330
2
100
AcDbEntity
  8
0
 48
0.6
100
AcDbCircle
 10
-24.54819036224217
 20
295.9755553236103
 30
0.0
 40
17.0
  0
LINE
  5
E8
330
2
100
AcDbEntity
  8
0
 48
0.6
100
AcDbLine
 10
-64.54819036224126
 20
315.9755553236105
 30
0.0
 11
-64.54819036224126
 21
245.9755553236104
 31
0.0
  0
LINE
  5
E9
102
{ACAD_REACTORS
330
250
102
}
330
2
100
AcDbEntity
  8
0
 48
0.6
100
AcDbLine
 10
15.45180963775783
 20
315.9755553236105
 30
0.0
 11
15.45180963775783
 21
245.9755553236104
 31
0.0
  0
DIMENSION
  5
EA
330
2
100
AcDbEntity
  8
0
100
AcDbDimension
  2
*D34
 10
47.59054833868598
 20
278.9755553236095
 30
0.0
 11
47.59054833868595
 21
295.9755553236103
 31
0.0
 70
   160
  1
{\f??|b0|i0|c0|p49;%%c}<>
  3
STANDARD
100
AcDbAlignedDimension
 13
110.604930230249
 23
312.9755553236095
 33
0.0
 14
110.604930230249
 24
278.9755553236095
 34
0.0
 50
90.0
100
AcDbRotatedDimension
  0
DIMENSION
  5
F7
102
{ACAD_XDICTIONARY
360
F8
102
}
102
{ACAD_REACTORS
330
F9
102
}
330
2
100
AcDbEntity
  8
0
100
AcDbDimension
  2
*D44
 10
19.9465607491602
 20
79.32070207339986
 30
0.0
 11
19.9465607491602
 21
113.3898743137915
 31
0.0
 70
   160
  1
\A1;{\f??|b0|i0|c0|p49;%%C10\H0.7x;\S+0^ -0.015;\H1.429x;(h7)}
  3
STANDARD
100
AcDbAlignedDimension
 13
34.77122403813881
 23
69.32070207339984
 33
0.0
 14
34.77122403813881
 24
79.32070207339984
 34
0.0
 50
90.0
100
AcDbRotatedDimension
  0
DIMENSION
  5
108
102
{ACAD_XDICTIONARY
360
109
102
}
102
{ACAD_REACTORS
330
10A
102
}
330
2
100
AcDbEntity
  8
0
100
AcDbDimension
  2
*D43
 10
-28.31442966614668
 20
116.5162704040138
 30
0.0
 11
-67.55580191130775
 21
116.5162704040138
 31
0.0
 70
   160
  3
STANDARD
100
AcDbAlignedDimension
 13
-108.3144296661466
 23
94.32070207339984
 33
0.0
 14
-28.31442966614668
 24
94.32070207339984
 34
0.0
100
AcDbRotatedDimension
  0
DIMENSION
  5
117
330
2
100
AcDbEntity
  8
0
100
AcDbDimension
  2
*D42
 10
191.7712240381386
 20
127.9727452919644
 30
0.0
 11
149.2712240381386
 21
127.9727452919644
 31
0.0
 70
   160
  3
STANDARD
100
AcDbAlignedDimension
 13
106.7712240381387
 23
99.32070207339984
 33
0.0
 14
191.7712240381386
 24
96.32070207339985
 34
0.0
100
AcDbRotatedDimension
  0
DIMENSION
  5
124
102
{ACAD_XDICTIONARY
360
125
102
}
102
{ACAD_REACTORS
330
126
102
}
330
2
100
AcDbEntity
  8
0
100
AcDbDimension
  2
*D41
 10
113.7712240381397
 20
115.2404736826823
 30
0.0
 11
110.2712240381397
 21
115.2404736826823
 31
0.0
 70
   160
  3
STANDARD
100
AcDbAlignedDimension
 13
106.7712240381387
 23
99.32070207339984
 33
0.0
 14
113.7712240381397
 24
97.91943941492764
 34
0.0
100
AcDbRotatedDimension
  0
DIMENSION
  5
133
330
2
100
AcDbEntity
  8
0
100
AcDbDimension
  2
*D40
 10
106.7712240381387
 20
127.9727452919644
 30
0.0
 11
86.7712240381388
 21
127.9727452919644
 31
0.0
 70
   160
  1
{\f??|b0|i0|c0|p49;L}
  3
STANDARD
100
AcDbAlignedDimension
 13
66.77122403813882
 23
98.82070207339985
 33
0.0
 14
106.7712240381387
 24
99.32070207339984
 34
0.0
100
AcDbRotatedDimension
  0
DIMENSION
  5
140
102
{ACAD_XDICTIONARY
360
141
102
}
102
{ACAD_REACTORS
330
142
102
}
330
2
100
AcDbEntity
  8
0
100
AcDbDimension
  2
*D39
 10
201.7712240381396
 20
127.9727452919644
 30
0.0
 11
196.7712240381388
 21
127.9727452919644
 31
0.0
 70
   160
  3
STANDARD
100
AcDbAlignedDimension
 13
191.7712240381386
 23
96.32070207339985
 33
0.0
 14
201.7712240381396
 24
81.82070207339984
 34
0.0
100
AcDbRotatedDimension
  0
DIMENSION
  5
14F
330
2
100
AcDbEntity
  8
0
100
AcDbDimension
  2
*D38
 10
63.77122403813881
 20
115.9488070160145
 30
0.0
 11
52.79205737147458
 21
115.9488070160145
 31
0.0
 70
   160
  3
STANDARD
100
AcDbAlignedDimension
 13
66.77122403813882
 23
98.82070207339985
 33
0.0
 14
63.77122403813881
 24
90.82070207339985
 34
0.0
 50
180.0
100
AcDbRotatedDimension
  0
DIMENSION
  5
15E
102
{ACAD_XDICTIONARY
360
15F
102
}
102
{ACAD_REACTORS
330
160
102
}
330
2
100
AcDbEntity
  8
0
100
AcDbDimension
  2
*D37
 10
66.77122403813882
 20
127.9702273730285
 30
0.0
 11
51.09245596802248
 21
127.9702273730285
 31
0.0
 70
   160
  3
STANDARD
100
AcDbAlignedDimension
 13
34.77122403813881
 23
79.32070207339984
 33
0.0
 14
66.77122403813882
 24
98.82070207339985
 34
0.0
100
AcDbRotatedDimension
  0
LEADER
  5
16D
330
2
100
AcDbEntity
  8
0
100
AcDbLeader
  3
STANDARD
 73
     0
 75
     1
 40
3.0
 41
26.65178571428571
 76
     3
 10
-34.27876387910328
 20
96.01787145496157
 30
0.0
 10
-44.28008103782668
 20
125.5446970739902
 30
0.0
 10
-46.78008103782668
 20
125.5446970739902
 30
0.0
340
16E
1001
ACAD
1000
DSTYLE
1002
{
1070
     5
1000

1070
    77
1070
     1
1070
   147
1040
1.0
1070
   342
1005
0
1002
}
  0
MTEXT
  5
16E
102
{ACAD_REACTORS
330
16D
102
}
330
2
100
AcDbEntity
  8
0
 62
     3
100
AcDbMText
 10
-47.78008103782665
 20
126.5446970739902
 30
0.0
 40
3.0
 41
0.0
 71
     9
 72
     1
  1
4-%%c5.5 hole
1001
ACAD
1000
MTEXTBEGIN
1070
    73
1070
     1
1070
    44
1040
1.0
1070
    74
1070
     0
1000
MTEXTEND
1000
MTEXTBEGIN
1070
    73
1070
     1
1070
    44
1040
1.0
1070
    74
1070
     0
1000
MTEXTEND
1000
MTEXTBEGIN
1070
    73
1070
     1
1070
    44
1040
1.0
1070
    74
1070
     0
1000
MTEXTEND
  0
DIMENSION
  5
16F
102
{ACAD_XDICTIONARY
360
170
102
}
102
{ACAD_REACTORS
330
171
102
}
330
2
100
AcDbEntity
  8
0
100
AcDbDimension
  2
*D46
 10
14.07334681628345
 20
59.32070207339985
 30
0.0
 11
14.07334681628344
 21
66.82070207339984
 31
0.0
 70
   160
  3
STANDARD
100
AcDbAlignedDimension
 13
30.87308523691354
 23
74.32070207339984
 33
0.0
 14
31.71403309235575
 24
59.32070207339982
 34
0.0
 50
90.0
100
AcDbRotatedDimension
  0
DIMENSION
  5
17E
330
2
100
AcDbEntity
  8
0
100
AcDbDimension
  2
*D45
 10
4.253009057904826
 20
57.32070207339987
 30
0.0
 11
4.253009057904818
 21
74.32070207339984
 31
0.0
 70
   160
  1
{\f??|b0|i0|c0|p49;%%c}<>
  3
STANDARD
100
AcDbAlignedDimension
 13
64.27122403813974
 23
91.32070207339983
 33
0.0
 14
64.27122403813974
 24
57.32070207339983
 34
0.0
 50
90.0
100
AcDbRotatedDimension
  0
INSERT
  5
18B
330
2
100
AcDbEntity
  8
0
100
AcDbBlockReference
  2
5
 10
-68.31442966614577
 20
59.32070207340029
 30
0.0
  0
ARC
  5
18C
330
2
100
AcDbEntity
  8
0
 48
0.6
100
AcDbCircle
 10
47.92770942551487
 20
73.61964829124326
 30
0.0
 40
116.9686661741607
100
AcDbArc
 50
210.1560153536115
 51
216.2412691602773
  0
LINE
  5
18D
330
2
100
AcDbEntity
  8
0
 48
0.6
100
AcDbLine
 10
-49.09373513951321
 20
19.49337381685062
 30
0.0
 11
-54.83478536604071
 21
19.49337381685062
 31
0.0
  0
LINE
  5
18E
330
2
100
AcDbEntity
  8
0
100
AcDbLine
 10
-53.21049981906435
 20
14.85970021977073
 30
0.0
 11
-46.71836847352188
 21
17.75030019650148
 31
0.0
  0
ARC
  5
18F
330
2
100
AcDbEntity
  8
0
 48
0.6
100
AcDbCircle
 10
-18.30081560854432
 20
33.80392646539077
 30
0.0
 40
39.15579199999999
100
AcDbArc
 50
201.4369589999631
 51
208.5517089163135
  0
ARC
  5
190
330
2
100
AcDbEntity
  8
0
 48
0.6
100
AcDbCircle
 10
-85.63310615874888
 20
5.904675200010387
 30
0.0
 40
39.15579199999999
100
AcDbArc
 50
16.65391050761257
 51
20.30648800596492
  0
LWPOLYLINE
  5
191
330
2
100
AcDbEntity
  8
0
100
AcDbPolyline
 90
      548
 70
     0
 43
0.0
 10
-46.41157863230728
 20
4.469322223277686
 10
-46.40856321719456
 20
4.483895638062675
 10
-46.40501476586542
 20
4.500555326730591
 10
-46.40138734768513
 20
4.517108372197981
 10
-46.39768121740599
 20
4.533555130330113
 10
-46.3938966297892
 20
4.549895957006357
 10
-46.39003383959059
 20
4.566131208095612
 10
-46.38609310156697
 20
4.582261239471336
 10
-46.38207467047687
 20
4.598286407008798
 10
-46.377978801077
 20
4.614207066577362
 10
-46.37380574812505
 20
4.630023574050483
 10
-46.36955576638138
 20
4.645736285303427
 10
-46.36522911059819
 20
4.661345556207377
 10
-46.3608260355395
 20
4.67685174263579
 10
-46.35634679595566
 20
4.69225520045984
 10
-46.35179164660893
 20
4.707556285554346
 10
-46.347160842256
 20
4.722755353792761
 10
-46.34245463765363
 20
4.737852761043995
 10
-46.33767328755857
 20
4.752848863185588
 10
-46.33281704673026
 20
4.767744016087815
 10
-46.32788616992366
 20
4.782538575622766
 10
-46.3228809118982
 20
4.797232897666616
 10
-46.31780152741338
 20
4.811827338089641
 10
-46.31264827122231
 20
4.82632225276393
 10
-46.30742139808535
 20
4.840717997565207
 10
-46.30212116275834
 20
4.855014928363743
 10
-46.29674781999892
 20
4.869213401034811
 10
-46.29130162456656
 20
4.883313771448683
 10
-46.28578283121894
 20
4.897316395479719
 10
-46.28019169471007
 20
4.911221629000464
 10
-46.27452846979847
 20
4.925029827883461
 10
-46.26879341124548
 20
4.938741348003532
 10
-46.26298677380416
 20
4.952356545230941
 10
-46.25710881223404
 20
4.965875775438233
 10
-46.25115978129088
 20
4.979299394500683
 10
-46.2451399357351
 20
4.992627758288563
 10
-46.2390495303225
 20
5.005861222678504
 10
-46.23288881980896
 20
5.019000143540778
 10
-46.22665805895574
 20
5.032044876746113
 10
-46.22035750251778
 20
5.044995778170231
 10
-46.21398740525274
 20
5.057853203686589
 10
-46.20754802191913
 20
5.070617509166368
 10
-46.20103960727464
 20
5.083289050484836
 10
-46.19446241607329
 20
5.0958681835109
 10
-46.18781670307726
 20
5.108355264119381
 10
-46.18110272304146
 20
5.120750648183728
 10
-46.17432073072268
 20
5.133054691577398
 10
-46.16747098088126
 20
5.145267750170205
 10
-46.16055372827213
 20
5.157390179837873
 10
-46.15356922765385
 20
5.169422336453408
 10
-46.14651773378409
 20
5.181364575886163
 10
-46.13939950142047
 20
5.193217254014596
 10
-46.13221478531977
 20
5.204980726704889
 10
-46.12496384024052
 20
5.216655349835491
 10
-46.11764692093855
 20
5.228241479276674
 10
-46.11026428217335
 20
5.23973947090144
 10
-46.10281617870167
 20
5.251149680583693
 10
-46.09530286527842
 20
5.262472464195525
 10
-46.0877245966667
 20
5.273708177608566
 10
-46.08008162761779
 20
5.284857176698549
 10
-46.0723742128921
 20
5.295919817335287
 10
-46.06460260724907
 20
5.306896455394507
 10
-46.05676706544364
 20
5.317787446747386
 10
-46.04886784223526
 20
5.328593147265563
 10
-46.04090519237707
 20
5.339313912823398
 10
-46.03287937063123
 20
5.349950099294346
 10
-46.0247906317545
 20
5.360502062550949
 10
-46.01663923050182
 20
5.370970158466207
 10
-46.00842542163445
 20
5.381354742910387
 10
-46.00014945990642
 20
5.391656171761495
 10
-45.99181160007719
 20
5.401874800887526
 10
-45.98341209690443
 20
5.412010986162838
 10
-45.97495120514396
 20
5.422065083461346
 10
-45.96642917955342
 20
5.432037448653773
 10
-45.95784627489229
 20
5.441928437616752
 10
-45.94920274591639
 20
5.451738406217828
 10
-45.94049884738524
 20
5.461467710334545
 10
-45.9317348340528
 20
5.47111670583763
 10
-45.92291096067856
 20
5.48068574859917
 10
-45.91402748202107
 20
5.490175194494893
 10
-45.90508465283618
 20
5.499585399394618
 10
-45.89608272788336
 20
5.5089167191727
 10
-45.8870219619166
 20
5.518169509701691
 10
-45.87790260969723
 20
5.527344126854585
 10
-45.86872492598103
 20
5.536440926503471
 10
-45.85948916552661
 20
5.545460264523626
 10
-45.85019558308795
 20
5.554402496785312
 10
-45.84084443342725
 20
5.563267979161536
 10
-45.83143597129856
 20
5.572057067527565
 10
-45.82197045146132
 20
5.580770117752763
 10
-45.81244812867135
 20
5.589407485711943
 10
-45.80286925768814
 20
5.5979695272772
 10
-45.79323409326661
 20
5.606456598323346
 10
-45.78354289016624
 20
5.614869054722022
 10
-45.77379590314558
 20
5.623207252345761
 10
-45.76399338695956
 20
5.631471547065757
 10
-45.75413559636672
 20
5.639662294757272
 10
-45.74422278612654
 20
5.647779851293307
 10
-45.73425521099307
 20
5.655824572545497
 10
-45.72423312572389
 20
5.663796814387296
 10
-45.71415678507945
 20
5.671696932691701
 10
-45.70402644381647
 20
5.679525283330804
 10
-45.69384235669075
 20
5.687282222179874
 10
-45.6836047784609
 20
5.694968105106452
 10
-45.67331396388363
 20
5.702583287987636
 10
-45.6629701677166
 20
5.710128126696418
 10
-45.65257364471928
 20
5.717602977105797
 10
-45.64212464964838
 20
5.725008195085591
 10
-45.63162343726071
 20
5.732344136511527
 10
-45.62107026231114
 20
5.73961115725342
 10
-45.61046537956372
 20
5.746809613188816
 10
-45.59980904376788
 20
5.753939860187527
 10
-45.58910150968768
 20
5.761002254121646
 10
-45.5783430320771
 20
5.767997150865537
 10
-45.56753386569653
 20
5.77492490629038
 10
-45.55667426529818
 20
5.781785876271442
 10
-45.54576448564603
 20
5.788580416681725
 10
-45.53480478149504
 20
5.795308883390587
 10
-45.52379540760012
 20
5.801971632275581
 10
-45.51273661872072
 20
5.808569019205606
 10
-45.50162866961726
 20
5.815101400055482
 10
-45.49047181504284
 20
5.821569130697753
 10
-45.47926630975596
 20
5.827972567003143
 10
-45.46801240851618
 20
5.8343120648492
 10
-45.45671036607926
 20
5.840587980104372
 10
-45.4453604372029
 20
5.846800668643481
 10
-45.43396287664561
 20
5.852950486339977
 10
-45.42251793916237
 20
5.859037789064585
 10
-45.41102587951352
 20
5.86506293269258
 10
-45.3994869524531
 20
5.871026273094685
 10
-45.3879014127433
 20
5.87692816614617
 10
-45.37626951513995
 20
5.882768967716856
 10
-45.36459151439885
 20
5.888549033680646
 10
-45.35286766527588
 20
5.894268719911451
 10
-45.34109822253322
 20
5.899928382283632
 10
-45.32928344092852
 20
5.905528376666553
 10
-45.31742357521307
 20
5.91106905893366
 10
-45.30551888015089
 20
5.916550784959781
 10
-45.2935696104978
 20
5.921973910615177
 10
-45.28157602100782
 20
5.927338791776946
 10
-45.26953836644316
 20
5.932645784313081
 10
-45.2574569015569
 20
5.937895244098397
 10
-45.24533188111127
 20
5.943087527006355
 10
-45.23316355986024
 20
5.948222988908582
 10
-45.22095219256152
 20
5.953301985678988
 10
-45.20869803397545
 20
5.958324873190576
 10
-45.19640133885514
 20
5.96329200731634
 10
-45.18406236196279
 20
5.96820374392837
 10
-45.1716813580515
 20
5.973060438898301
 10
-45.15925858188166
 20
5.977862448102311
 10
-45.14679428821182
 20
5.982610127409768
 10
-45.13428873179689
 20
5.987303832695032
 10
-45.12174216739367
 20
5.991943919830646
 10
-45.1091548497625
 20
5.996530744690517
 10
-45.09652703365827
 20
6.001064663148099
 10
-45.08385897384139
 20
6.00554603107366
 10
-45.07115092506682
 20
6.009975204340207
 10
-45.05840314209215
 20
6.014352538824367
 10
-45.0456158796778
 20
6.018678390395507
 10
-45.0327893925787
 20
6.022953114925712
 10
-45.01992393555156
 20
6.027177068289347
 10
-45.00701976335585
 20
6.031350606361682
 10
-44.99407713074652
 20
6.035474085012537
 10
-44.98109629248483
 20
6.039547860114907
 10
-44.96807750332755
 20
6.043572287540427
 10
-44.95502101802684
 20
6.047547723166641
 10
-44.94192709134767
 20
6.051474522862463
 10
-44.92879597804221
 20
6.055353042501337
 10
-44.91562793287357
 20
6.059183637956722
 10
-44.90242321059395
 20
6.062966665101613
 10
-44.88918206596006
 20
6.066702479809464
 10
-44.87590475373325
 20
6.070391437949182
 10
-44.86259152866931
 20
6.074033895399225
 10
-44.84924264552865
 20
6.077630208030312
 10
-44.83585835906342
 20
6.081180731712719
 10
-44.82243892403221
 20
6.084685822322626
 10
-44.8089845951972
 20
6.088145835732575
 10
-44.79549562731245
 20
6.091561127813745
 10
-44.78197227513738
 20
6.094932054438686
 10
-44.76841479342421
 20
6.098258971481299
 10
-44.75482343693601
 20
6.101542234817768
 10
-44.74119846043139
 20
6.104782200314273
 10
-44.72754011866164
 20
6.10797922384836
 10
-44.71384866638709
 20
6.111133661293022
 10
-44.70012435836724
 20
6.114245868516262
 10
-44.68636744935793
 20
6.117316201396532
 10
-44.67257819411679
 20
6.120345015804558
 10
-44.65875684740058
 20
6.123332667613794
 10
-44.64490366396967
 20
6.126279512694964
 10
-44.63101889857717
 20
6.129185906922884
 10
-44.61710280598254
 20
6.132052206170556
 10
-44.60315564094525
 20
6.134878766308702
 10
-44.58917765822024
 20
6.137665943213503
 10
-44.57516911256789
 20
6.140414092754781
 10
-44.56113025874038
 20
6.143123570805982
 10
-44.54706135150082
 20
6.145794733241472
 10
-44.53296264560504
 20
6.148427935933339
 10
-44.51883439580707
 20
6.151023534753674
 10
-44.50467685686906
 20
6.153581885577295
 10
-44.49049028354693
 20
6.156103344275834
 10
-44.47627493059735
 20
6.158588266720471
 10
-44.46203105277709
 20
6.161037008785567
 10
-44.44775890484836
 20
6.163449926345492
 10
-44.4334587415633
 20
6.165827375270507
 10
-44.41913081768142
 20
6.168169711434527
 10
-44.4047753879604
 20
6.170477290710548
 10
-44.39039270715784
 20
6.17275046897157
 10
-44.37598303002867
 20
6.174989602089226
 10
-44.36154661133514
 20
6.177195045940607
 10
-44.34708370583211
 20
6.179367156391888
 10
-44.33259456827727
 20
6.181506289321532
 10
-44.31807945342734
 20
6.183612800599346
 10
-44.30353861603999
 20
6.185687046099245
 10
-44.28897231087467
 20
6.187729381693768
 10
-44.27438079268632
 20
6.189740163255919
 10
-44.25976431623531
 20
6.191719746656417
 10
-44.24512313627838
 20
6.193668487772356
 10
-44.23045750756773
 20
6.195586742474459
 10
-44.21576768486827
 20
6.197474866636637
 10
-44.20105392293317
 20
6.199333216128707
 10
-44.18631647652271
 20
6.201162146826391
 10
-44.1715556003919
 20
6.20296201460178
 10
-44.15677154929926
 20
6.204733175327419
 10
-44.14196457800243
 20
6.206475984876759
 10
-44.1271349412591
 20
6.208190799121894
 10
-44.11228289382504
 20
6.209877973935817
 10
-44.09740869046254
 20
6.211537865192441
 10
-44.08251258592281
 20
6.213170828761576
 10
-44.06759483496714
 20
6.214777220520772
 10
-44.05265569235234
 20
6.21635739633848
 10
-44.03769541283509
 20
6.217911712089517
 10
-44.02271425117303
 20
6.219440523647788
 10
-44.0077124621257
 20
6.220944186885389
 10
-43.99269030044798
 20
6.222423057673493
 10
-43.97764802089841
 20
6.223877491887377
 10
-43.96258587823377
 20
6.225307845397309
 10
-43.94750412721259
 20
6.226714474079924
 10
-43.93240302259253
 20
6.228097733803679
 10
-43.91728281913128
 20
6.229457980443839
 10
-43.90214377158371
 20
6.230795569874318
 10
-43.88698613471023
 20
6.232110857964471
 10
-43.87181016326667
 20
6.233404200590483
 10
-43.85661611201429
 20
6.234675953624446
 10
-43.84140423570534
 20
6.235926472938442
 10
-43.82617478909923
 20
6.237156114404569
 10
-43.81092802695365
 20
6.238365233897637
 10
-43.79566420402714
 20
6.239554187289741
 10
-43.78038357507556
 20
6.240723330454784
 10
-43.76508639485837
 20
6.241873019261674
 10
-43.74977291813046
 20
6.243003609588867
 10
-43.73444339965042
 20
6.244115457304815
 10
-43.71909809417684
 20
6.245208918283877
 10
-43.70373725646823
 20
6.246284348398601
 10
-43.68836114127861
 20
6.247342103522441
 10
-43.67297000336748
 20
6.248382539529757
 10
-43.65756409748974
 20
6.249406012289455
 10
-43.64214367840577
 20
6.250412877678172
 10
-43.62670900087596
 20
6.251403491567542
 10
-43.61126031965066
 20
6.252378209828747
 10
-43.59579788949122
 20
6.253337388336147
 10
-43.58032196515522
 20
6.254281382962742
 10
-43.56483280140035
 20
6.255210549579713
 10
-43.54933065298427
 20
6.256125244062785
 10
-43.5338157746619
 20
6.257025822281775
 10
-43.51828842119539
 20
6.257912640114683
 10
-43.50274884733699
 20
6.258786053427227
 10
-43.48719730784796
 20
6.259646418096507
 10
-43.47163405748415
 20
6.260494089994606
 10
-43.45605935100411
 20
6.261329424994527
 10
-43.4404734431646
 20
6.262152778968809
 10
-43.42487658872232
 20
6.262964507790456
 10
-43.40926904243588
 20
6.263764967334736
 10
-43.39365105906199
 20
6.264554513468737
 10
-43.37802289336011
 20
6.265333502070006
 10
-43.36238480008613
 20
6.266102289009722
 10
-43.34673703399857
 20
6.266861230162247
 10
-43.33107984985145
 20
6.267610681397854
 10
-43.31541350240786
 20
6.268350998592722
 10
-43.29973824642093
 20
6.269082537615304
 10
-43.28405433664829
 20
6.26980565434269
 10
-43.26836202785123
 20
6.270520704645605
 10
-43.2526615747829
 20
6.271228044397503
 10
-43.23695323220454
 20
6.271928029471383
 10
-43.22123725487017
 20
6.272621015737511
 10
-43.20551389753926
 20
6.273307359073442
 10
-43.18978341497039
 20
6.273987415348527
 10
-43.17404606191849
 20
6.274661540437589
 10
-43.15830209314024
 20
6.275330090211356
 10
-43.14255176339975
 20
6.275993420544637
 10
-43.12679532744549
 20
6.276651887308617
 10
-43.11103304004245
 20
6.277305846378111
 10
-43.09526515594462
 20
6.2779556536243
 10
-43.07949192990782
 20
6.278601664920642
 10
-43.06371361669152
 20
6.279244236141039
 10
-43.04793047105522
 20
6.279883723156673
 10
-43.03214274775382
 20
6.280520481841449
 10
-43.01635070154498
 20
6.281154868067915
 10
-43.00055458718725
 20
6.281787237707701
 10
-42.98475465943737
 20
6.282417946634723
 10
-42.96895117305484
 20
6.283047350721517
 10
-42.95314438279183
 20
6.28367580584381
 10
-42.93733454341236
 20
6.284303667869151
 10
-42.92152190967136
 20
6.284931292675081
 10
-42.90570673632465
 20
6.285559036132324
 10
-42.88988927812988
 20
6.286187254112519
 10
-42.87406978984836
 20
6.286816302492753
 10
-42.85824852623227
 20
6.287446537140567
 10
-42.84242574204291
 20
6.288078313931237
 10
-42.826601692037
 20
6.288711988739577
 10
-42.81077663097129
 20
6.289347917434952
 10
-42.79495081360436
 20
6.289986455892631
 10
-42.77912449469204
 20
6.290627959984702
 10
-42.76329792899287
 20
6.291272785583712
 10
-42.74747137126451
 20
6.291921288564481
 10
-42.73164507626552
 20
6.292573824795452
 10
-42.71581929875174
 20
6.293230750154632
 10
-42.69999429348081
 20
6.293892420511382
 10
-42.68417031520947
 20
6.294559191739606
 10
-42.66834761869723
 20
6.295231419711398
 10
-42.65252645869895
 20
6.295909460300205
 10
-42.63670708997506
 20
6.296593669381763
 10
-42.62088976728228
 20
6.297284402824971
 10
-42.60507474537553
 20
6.297982016503282
 10
-42.58926227901793
 20
6.298686866289696
 10
-42.57345262296076
 20
6.299399308059946
 10
-42.55764603196439
 20
6.300119697682474
 10
-42.54184276078556
 20
6.300848391033014
 10
-42.5260430641847
 20
6.301585743981378
 10
-42.51024719691577
 20
6.302332112405565
 10
-42.4944554137346
 20
6.30308785217494
 10
-42.47866796940525
 20
6.303853319162497
 10
-42.46288511867986
 20
6.304628869241239
 10
-42.44710711631795
 20
6.305414858284621
 10
-42.43133421707717
 20
6.306211642165633
 10
-42.4155666757124
 20
6.307019576755465
 10
-42.39980474698495
 20
6.307839017928472
 10
-42.38404868565157
 20
6.308670321559473
 10
-42.36829874646718
 20
6.309513843516469
 10
-42.35255518419035
 20
6.310369939675181
 10
-42.33681825357961
 20
6.31123896590816
 10
-42.32108820939266
 20
6.312121278089763
 10
-42.30536530638528
 20
6.313017232090714
 10
-42.28964979931606
 20
6.313927183784471
 10
-42.27394194294356
 20
6.314851489043576
 10
-42.2582419920227
 20
6.315790503740571
 10
-42.24255020131477
 20
6.316744583749366
 10
-42.22686682557196
 20
6.317714084941598
 10
-42.21119211955829
 20
6.318699363193445
 10
-42.19552633802504
 20
6.319700774372448
 10
-42.1798697357317
 20
6.32071867435661
 10
-42.16422256743771
 20
6.321753419015747
 10
-42.14858508789983
 20
6.322805364222404
 10
-42.13295755187391
 20
6.323874865851394
 10
-42.11734021411939
 20
6.324962279775717
 10
-42.10173332939119
 20
6.326067961864737
 10
-42.08613715244882
 20
6.327192267995543
 10
-42.07055193805172
 20
6.328335554038857
 10
-42.054977940953
 20
6.329498175866771
 10
-42.03941541591393
 20
6.330680489352742
 10
-42.02386461769129
 20
6.331882850372494
 10
-42.00832580103906
 20
6.333105614794476
 10
-41.99279922071946
 20
6.334349138492597
 10
-41.97728513148649
 20
6.335613777342588
 10
-41.96178378809871
 20
6.336899887215622
 10
-41.94629544531743
 20
6.338207823982882
 10
-41.93082035789302
 20
6.339537943520554
 10
-41.91535878058767
 20
6.340890601697537
 10
-41.89991096815811
 20
6.342266154389562
 10
-41.88447717536201
 20
6.343664957468263
 10
-41.86905765695427
 20
6.345087366807547
 10
-41.85365266769804
 20
6.346533738278139
 10
-41.83826246234639
 20
6.348004427756677
 10
-41.82288729565789
 20
6.349499791111611
 10
-41.80752742238836
 20
6.351020184217759
 10
-41.79218309729731
 20
6.352565962950392
 10
-41.77685457514235
 20
6.354137483178874
 10
-41.76154211068022
 20
6.355735100774835
 10
-41.74624595867044
 20
6.357359171615826
 10
-41.73096637386516
 20
6.359010051571657
 10
-41.71570361102657
 20
6.360688096517606
 10
-41.70045792491055
 20
6.362393662322572
 10
-41.68522957027742
 20
6.364127104863198
 10
-41.67001880188218
 20
6.365888780009298
 10
-41.65482587448059
 20
6.367679043636597
 10
-41.63965104283215
 20
6.369498251616277
 10
-41.62449456169635
 20
6.371346759820878
 10
-41.60935668582624
 20
6.373224924125677
 10
-41.59423766998314
 20
6.375133100399123
 10
-41.5791377689211
 20
6.377071644517855
 10
-41.56405723740317
 20
6.379040912353502
 10
-41.54899633018067
 20
6.381041259779976
 10
-41.53395530201485
 20
6.383073042668454
 10
-41.51893440766071
 20
6.385136616892848
 10
-41.50393390187853
 20
6.387232338323427
 10
-41.48895403942242
 20
6.389360562837738
 10
-41.47399507505361
 20
6.391521646304227
 10
-41.45905726352703
 20
6.393715944599532
 10
-41.44414085960124
 20
6.395943813593929
 10
-41.42924611803482
 20
6.398205609160412
 10
-41.41437329358267
 20
6.400501687172436
 10
-41.39952264100247
 20
6.402832403504817
 10
-41.38469441505367
 20
6.405198114025552
 10
-41.36988887049392
 20
6.407599174611277
 10
-41.35510626207905
 20
6.410035941134537
 10
-41.34034684456674
 20
6.412508769466512
 10
-41.32561087271642
 20
6.415018015480652
 10
-41.31089860128304
 20
6.417564035052691
 10
-41.29621028502515
 20
6.420147184051526
 10
-41.2815461786995
 20
6.422767818352895
 10
-41.26690653706646
 20
6.425426293826602
 10
-41.25229161487822
 20
6.428122966346561
 10
-41.23770166690063
 20
6.430858191786682
 10
-41.22313694788044
 20
6.433632326020413
 10
-41.20859771258436
 20
6.436445724919392
 10
-41.19408421576554
 20
6.439298744356616
 10
-41.17959671218068
 20
6.442191740205997
 10
-41.16513545659109
 20
6.445125068337347
 10
-41.15070070375077
 20
6.448099084625482
 10
-41.13629270841737
 20
6.451114144945677
 10
-41.12191172535132
 20
6.454170605165472
 10
-41.10755800930745
 20
6.45726882116287
 10
-41.09323181504621
 20
6.460409148808594
 10
-41.07893339732071
 20
6.463591943974732
 10
-41.0646630108904
 20
6.466817562533831
 10
-41.05042091051382
 20
6.470086360360709
 10
-41.03620735094771
 20
6.473398693326996
 10
-41.02202258695069
 20
6.476754917306608
 10
-41.00786687327853
 20
6.480155388171621
 10
-40.99374046468891
 20
6.483600461795957
 10
-40.97964361593949
 20
6.487090494048517
 10
-40.96557658179063
 20
6.490625840805932
 10
-40.95153961699452
 20
6.494206857940752
 10
-40.93753297631153
 20
6.497833901324612
 10
-40.92355691449938
 20
6.501507326830505
 10
-40.90961168631657
 20
6.505227490333254
 10
-40.89569754651711
 20
6.508994747704491
 10
-40.88181474986231
 20
6.512809454816308
 10
-40.86796355110799
 20
6.516671967541697
 10
-40.8541442050109
 20
6.520582641753661
 10
-40.84035696632873
 20
6.5245418333252
 10
-40.82660208981997
 20
6.528549898129313
 10
-40.81287983024322
 20
6.532607192038539
 10
-40.79919044235428
 20
6.536714070927245
 10
-40.78553418090904
 20
6.540870890665246
 10
-40.77191130066966
 20
6.545078007129632
 10
-40.75832205638744
 20
6.549335776187946
 10
-40.74476670282547
 20
6.553644553717731
 10
-40.73124549473869
 20
6.558004695588351
 10
-40.71775868688289
 20
6.562416557675076
 10
-40.70430653402035
 20
6.566880495851362
 10
-40.69088929090411
 20
6.57139686598748
 10
-40.67750721229367
 20
6.575966023956425
 10
-40.66416055294758
 20
6.580588325632561
 10
-40.65084956762073
 20
6.58526412689025
 10
-40.63757451107176
 20
6.589993783598856
 10
-40.62433563806006
 20
6.594777651631375
 10
-40.6111332033397
 20
6.599616086863534
 10
-40.59796746166921
 20
6.604509445167422
 10
-40.58483866780714
 20
6.60945808241331
 10
-40.57174707651211
 20
6.614462354476471
 10
-40.55869294253898
 20
6.619522617231723
 10
-40.54567652064543
 20
6.624639226545696
 10
-40.53269806559092
 20
6.629812538296846
 10
-40.5197578321322
 20
6.635042908355899
 10
-40.50685607502692
 20
6.640330692596761
 10
-40.49399304903089
 20
6.645676246889705
 10
-40.48116900890271
 20
6.651079927110911
 10
-40.46838420939912
 20
6.656542089128377
 10
-40.45563890528228
 20
6.662063088822832
 10
-40.44293335130169
 20
6.667643282060452
 10
-40.43026780222135
 20
6.673283024714693
 10
-40.41764251279801
 20
6.678982672661732
 10
-40.40505773778386
 20
6.684742581772752
 10
-40.39251373194111
 20
6.690563107918932
 10
-40.38001075002831
 20
6.696444606976001
 10
-40.36754904679855
 20
6.702387434813315
 10
-40.35512887701496
 20
6.708391947307061
 10
-40.34275049542975
 20
6.714458500329781
 10
-40.33041415680235
 20
6.720587449753566
 10
-40.31812011589136
 20
6.726779151449591
 10
-40.30586862745439
 20
6.733033961294493
 10
-40.29365994624639
 20
6.739352235155821
 10
-40.28149432702593
 20
6.745734328912019
 10
-40.26937202455155
 20
6.752180598432911
 10
-40.25729329357909
 20
6.758691399591952
 10
-40.24525838886802
 20
6.765267088259404
 10
-40.23326756517508
 20
6.771908020312821
 10
-40.22132107725792
 20
6.778614551622013
 10
-40.20941917987328
 20
6.785387038061799
 10
-40.19756212777884
 20
6.792225835502449
 10
-40.18575017573311
 20
6.799131299819237
 10
-40.17398357849197
 20
6.806103786884249
 10
-40.16226259081485
 20
6.813143652568669
 10
-40.15058746745853
 20
6.820251252747766
 10
-40.13895846317701
 20
6.827426943294992
 10
-40.12737583273518
 20
6.834671080079258
 10
-40.11583983088529
 20
6.841984018975379
 10
-40.10435071238407
 20
6.849366115858173
 10
-40.09290873199097
 20
6.856817726598817
 10
-40.08151414446547
 20
6.864339207071677
 10
-40.07016720456157
 20
6.871930913146568
 10
-40.05886816703696
 20
6.879593200697851
 10
-40.04761728665289
 20
6.887326425598985
 10
-40.03641481816155
 20
6.895130943721596
 10
-40.02526101632429
 20
6.903007110938687
 10
-40.01415613589961
 20
6.91095528312644
 10
-40.00310043164063
 20
6.918975816153761
 10
-39.99209415830501
 20
6.927069065893647
 10
-39.98113757065766
 20
6.935235388220462
 10
-39.97023092344715
 20
6.943475139006293
 10
-39.95937447143386
 20
6.951788674126872
 10
-39.94856846937818
 20
6.960176349449737
 10
-39.93781317203411
 20
6.96863852085289
 10
-39.92710883416384
 20
6.977175544205237
 10
-39.91645571051686
 20
6.985787775381593
 10
-39.90585405585807
 20
6.994475570254508
 10
-39.89530412494239
 20
7.003239284696972
 10
-39.88480617252571
 20
7.012079274579718
 10
-39.87436045336743
 20
7.020995895779378
 10
-39.86396722222524
 20
7.029989504167588
 10
-39.85362673385407
 20
7.039060455615526
 10
-39.84333924301607
 20
7.048209105996646
 10
-39.83310500446532
 20
7.057435811183495
 10
-39.82292427295942
 20
7.066740927051339
 10
-39.81279730325695
 20
7.076124809470456
 10
-39.80272435011466
 20
7.085587814317932
 10
-39.79270566828927
 20
7.095130297458579
 10
-39.78274151254026
 20
7.104752614771769
 10
-39.7728321376253
 20
7.114455122129584
 10
-39.76297779830018
 20
7.124238175401842
 10
-39.7531787493226
 20
7.134102130464722
 10
-39.74343524544838
 20
7.144047343190321
 10
-39.7337475414406
 20
7.154074169449358
 10
-39.72411589205146
 20
7.164182965116649
 10
-39.71454055204047
 20
7.174374086065652
 10
-39.70502177616618
 20
7.184647888166637
 10
-39.69555981918256
 20
7.195004727294417
 10
-39.68615493585094
 20
7.205444959323812
 10
-39.67680738092713
 20
7.215968940121456
 10
-39.66751740916697
 20
7.226577025566712
 10
-39.65828527533357
 20
7.237269571529848
 10
-39.64911123417731
 20
7.248046933882505
 10
-39.63999554045947
 20
7.258909468498586
 10
-39.63093844893683
 20
7.269857531251544
 10
-39.6219402143688
 20
7.280891478014837
 10
-39.61300109151034
 20
7.29201166465782
 10
-39.60412133512089
 20
7.303218447057588
 10
-39.60077688460932
 20
7.307500845663525
  0
ARC
  5
192
330
2
100
AcDbEntity
  8
0
 48
0.6
100
AcDbCircle
 10
35.86925420945135
 20
66.39328062124604
 30
0.0
 40
95.84808274048763
100
AcDbArc
 50
210.4975034246499
 51
218.0575295674634
  0
CIRCLE
  5
193
330
2
100
AcDbEntity
  8
0
 48
0.6
100
AcDbCircle
 10
-68.31442966615487
 20
59.32070207339982
 30
0.0
 40
36.5
  0
LINE
  5
194
330
2
100
AcDbEntity
  8
0
 62
     0
 48
0.6
100
AcDbLine
 10
-70.31442966615305
 20
78.90327776835602
 30
0.0
 11
-70.31442966615305
 21
76.82070207339984
 31
0.0
  0
CIRCLE
  5
195
330
2
100
AcDbEntity
  8
0
 48
0.6
100
AcDbCircle
 10
-68.31442966615487
 20
74.32070207339984
 30
0.0
 40
5.0
  0
LINE
  5
196
330
2
100
AcDbEntity
  8
CEN
 48
0.6
100
AcDbLine
 10
-87.78003195369548
 20
74.32070207339984
 30
0.0
 11
-48.92833413842527
 21
74.32070207339984
 31
0.0
  0
LINE
  5
197
330
2
100
AcDbEntity
  8
0
 48
0.6
100
AcDbLine
 10
-70.31442966615305
 20
76.82070207339984
 30
0.0
 11
-66.31442966615304
 21
76.82070207339984
 31
0.0
  0
LINE
  5
198
330
2
100
AcDbEntity
  8
0
 62
     0
 48
0.6
100
AcDbLine
 10
-66.31442966615304
 20
78.90327776835602
 30
0.0
 11
-66.31442966615304
 21
76.82070207339984
 31
0.0
  0
CIRCLE
  5
199
330
2
100
AcDbEntity
  8
0
 48
0.6
100
AcDbCircle
 10
-68.31442966615487
 20
74.32070207339984
 30
0.0
 40
17.0
  0
LINE
  5
19A
102
{ACAD_REACTORS
330
1A8
102
}
330
2
100
AcDbEntity
  8
CEN
 48
0.6
100
AcDbLine
 10
-51.81741014920226
 20
19.49337381685062
 30
0.0
 11
-68.31442966614668
 21
59.32070207339982
 31
0.0
  0
LINE
  5
19B
330
2
100
AcDbEntity
  8
0
 48
0.6
100
AcDbLine
 10
-103.3144296661466
 20
19.32070207339982
 30
0.0
 11
-33.31442966614668
 21
19.32070207339982
 31
0.0
  0
LINE
  5
19C
330
2
100
AcDbEntity
  8
0
 48
0.6
100
AcDbLine
 10
-103.3144296661466
 20
99.32070207339984
 30
0.0
 11
-33.31442966614668
 21
99.32070207339984
 31
0.0
  0
LINE
  5
19D
330
2
100
AcDbEntity
  8
0
 48
0.6
100
AcDbLine
 10
-28.31442966614668
 20
94.32070207339984
 30
0.0
 11
-28.31442966614668
 21
24.32070207339984
 31
0.0
  0
LINE
  5
19E
330
2
100
AcDbEntity
  8
0
 48
0.6
100
AcDbLine
 10
-48.86224170258174
 20
19.32070207339982
 30
0.0
 11
-54.60329192910831
 21
19.32070207339982
 31
0.0
  0
ARC
  5
19F
330
2
100
AcDbEntity
  8
0
 48
0.6
100
AcDbCircle
 10
-33.31442966614668
 20
24.32070207339984
 30
0.0
 40
5.0
100
AcDbArc
 50
270.0
 51
0.0
  0
ARC
  5
1A0
102
{ACAD_REACTORS
330
10A
102
}
330
2
100
AcDbEntity
  8
0
 48
0.6
100
AcDbCircle
 10
-33.31442966614668
 20
94.32070207339984
 30
0.0
 40
5.0
100
AcDbArc
 50
0.0
 51
90.0
  0
LINE
  5
1A1
330
2
100
AcDbEntity
  8
CEN
 48
0.6
100
AcDbLine
 10
-68.31442966614668
 20
12.14857886500249
 30
0.0
 11
-68.31442966614668
 21
106.492825281796
 31
0.0
  0
ARC
  5
1A2
330
2
100
AcDbEntity
  8
0
 48
0.6
100
AcDbCircle
 10
-103.3144296661466
 20
24.32070207339984
 30
0.0
 40
5.0
100
AcDbArc
 50
180.0
 51
270.0
  0
ARC
  5
1A3
102
{ACAD_REACTORS
330
10A
102
}
330
2
100
AcDbEntity
  8
0
 48
0.6
100
AcDbCircle
 10
-103.3144296661466
 20
94.32070207339984
 30
0.0
 40
5.0
100
AcDbArc
 50
90.0
 51
180.0
  0
LINE
  5
1A4
330
2
100
AcDbEntity
  8
0
 48
0.6
100
AcDbLine
 10
-108.3144296661466
 20
94.32070207339984
 30
0.0
 11
-108.3144296661466
 21
24.32070207339984
 31
0.0
  0
LINE
  5
1A5
330
2
100
AcDbEntity
  8
CEN
 48
0.6
100
AcDbLine
 10
-112.3914193917425
 20
59.32070207339982
 30
0.0
 11
-24.23743994054984
 21
59.32070207339982
 31
0.0
  0
DIMENSION
  5
1A6
102
{ACAD_XDICTIONARY
360
1A7
102
}
102
{ACAD_REACTORS
330
1A8
102
}
330
2
100
AcDbEntity
  8
0
100
AcDbDimension
  2
*D47
 10
-68.3144296661485
 20
106.492825281796
 30
0.0
 11
-53.71499650957963
 21
-5.792998652958433
 31
0.0
 70
   162
  3
STANDARD
100
AcDb2LineAngularDimension
 13
-51.81741014920226
 23
19.49337381685062
 33
0.0
 14
-68.31442966614668
 24
59.32070207339982
 34
0.0
 15
-68.3144296661485
 25
12.14857886500249
 35
0.0
 16
-59.60437326842463
 26
-6.838744631687809
 36
0.0
1001
ACAD
1000
DSTYLE
1002
{
1070
   271
1070
     1
1070
   179
1070
     1
1070
   271
1070
     0
1070
   271
1070
     1
1070
   271
1070
     1
1070
   271
1070
     1
1070
   271
1070
     1
1070
   271
1070
     1
1070
   271
1070
     1
1002
}
  0
TEXT
  5
1B7
330
2
100
AcDbEntity
  8
DIM
100
AcDbText
 10
52.51687015483639
 20
-3.807027259599633
 30
0.0
 40
3.5
  1
 LEAD WIRE 300mm
100
AcDbText
  0
LINE
  5
1B9
330
2
100
AcDbEntity
  8
0
 62
   123
 48
0.6
100
AcDbLine
 10
110.4010079312165
 20
-5.807027259599633
 30
0.0
 11
51.14685010384892
 21
-5.807027259599633
 31
0.0
  0
LEADER
  5
1BA
330
2
100
AcDbEntity
  8
0
100
AcDbLeader
  3
STANDARD
 74
     0
 40
13.0
 41
28.50892857142855
 76
     2
 10
119.5177583233944
 20
9.487792370792249
 30
0.0
 10
110.4010079312165
 20
-5.807027259599633
 30
0.0
1001
ACAD
1000
DSTYLE
1002
{
1070
     5
1000

1070
   342
1005
0
1002
}
  0
LINE
  5
1BB
102
{ACAD_REACTORS
330
171
102
}
330
2
100
AcDbEntity
  8
CEN
 48
0.6
100
AcDbLine
 10
74.51917142084218
 20
74.32070207339984
 30
0.0
 11
30.87308523691354
 21
74.32070207339984
 31
0.0
  0
LINE
  5
1BC
330
2
100
AcDbEntity
  8
0
100
AcDbLine
 10
119.5737173503746
 20
16.97817929768143
 30
0.0
 11
191.2712240381388
 21
16.97817929768916
 31
0.0
  0
LINE
  5
1BD
330
2
100
AcDbEntity
  8
0
100
AcDbLine
 10
184.7712240381386
 20
98.82070207339985
 30
0.0
 11
112.8712240381372
 21
98.82070207339985
 31
0.0
  0
LINE
  5
1BE
102
{ACAD_REACTORS
330
1F3
102
}
330
2
100
AcDbEntity
  8
0
100
AcDbLine
 10
184.7712240381386
 20
19.82070207339982
 30
0.0
 11
112.8712240381372
 21
19.82070207339982
 31
0.0
  0
LINE
  5
1BF
102
{ACAD_REACTORS
330
126
102
}
330
2
100
AcDbEntity
  8
0
100
AcDbLine
 10
106.7712240381387
 20
99.32070207339984
 30
0.0
 11
106.7712240381387
 21
19.82070207339982
 31
0.0
  0
LINE
  5
1C0
330
2
100
AcDbEntity
  8
0
100
AcDbLine
 10
66.77122403813882
 20
98.82070207339985
 30
0.0
 11
66.77122403813882
 21
19.82070207339982
 31
0.0
  0
LINE
  5
1C1
330
2
100
AcDbEntity
  8
0
100
AcDbLine
 10
112.8712240381372
 20
99.32070207339984
 30
0.0
 11
112.8712240381372
 21
19.32070207339982
 31
0.0
  0
LINE
  5
1C2
330
2
100
AcDbEntity
  8
0
100
AcDbLine
 10
106.7712240381387
 20
99.32070207339984
 30
0.0
 11
106.7712240381387
 21
19.32070207339982
 31
0.0
  0
LINE
  5
1C3
330
2
100
AcDbEntity
  8
0
100
AcDbLine
 10
112.8712240381372
 20
19.32070207339982
 30
0.0
 11
67.27122403813972
 21
19.32070207339982
 31
0.0
  0
ARC
  5
1C4
330
2
100
AcDbEntity
  8
0
100
AcDbCircle
 10
67.27122403813972
 20
19.82070207339982
 30
0.0
 40
0.5
100
AcDbArc
 50
180.0
 51
270.0
  0
ARC
  5
1C5
330
2
100
AcDbEntity
  8
0
100
AcDbCircle
 10
119.5652727088035
 20
15.67041087394543
 30
0.0
 40
1.318158315128889
100
AcDbArc
 50
89.65642249348126
 51
172.1237927370704
  0
ARC
  5
1C6
330
2
100
AcDbEntity
  8
0
 48
0.6
100
AcDbCircle
 10
155.0739460381399
 20
18.73205607339968
 30
0.0
 40
33.95579199999998
100
AcDbArc
 50
179.8504230000196
 51
182.9607459492095
  0
ARC
  5
1C7
330
2
100
AcDbEntity
  8
0
 48
0.6
100
AcDbCircle
 10
154.7814519849143
 20
18.81836718240355
 30
0.0
 40
35.255792
100
AcDbArc
 50
179.9962054631615
 51
182.9919319862293
  0
ARC
  5
1C8
330
2
100
AcDbEntity
  8
0
 48
0.6
100
AcDbCircle
 10
155.3701519740295
 20
18.65666759754639
 30
0.0
 40
37.855792
100
AcDbArc
 50
179.8658330000311
 51
183.9724199931073
  0
ARC
  5
1C9
330
2
100
AcDbEntity
  8
0
 48
0.6
100
AcDbCircle
 10
155.0739460381399
 20
18.73205607339968
 30
0.0
 40
39.15579199999999
100
AcDbArc
 50
179.8702870000233
 51
183.6102158837794
  0
LINE
  5
1CA
330
2
100
AcDbEntity
  8
0
100
AcDbLine
 10
113.7712240381397
 20
28.42196473187096
 30
0.0
 11
113.7712240381397
 21
20.72196473186977
 31
0.0
  0
LINE
  5
1CB
330
2
100
AcDbEntity
  8
0
100
AcDbLine
 10
123.7712240381388
 20
19.82070207339982
 30
0.0
 11
123.7712240381388
 21
19.32070207339982
 31
0.0
  0
ARC
  5
1CC
330
2
100
AcDbEntity
  8
0
100
AcDbCircle
 10
123.2712240381387
 20
19.32070207339982
 30
0.0
 40
0.5
100
AcDbArc
 50
270.0
 51
0.0
  0
LINE
  5
1CD
330
2
100
AcDbEntity
  8
0
100
AcDbLine
 10
112.8712240381372
 20
20.72196473186977
 30
0.0
 11
113.7712240381397
 21
20.72196473186977
 31
0.0
  0
LINE
  5
1CE
330
2
100
AcDbEntity
  8
0
100
AcDbLine
 10
113.7712240381397
 20
19.82070207339982
 30
0.0
 11
113.7712240381397
 21
19.32070207339982
 31
0.0
  0
ARC
  5
1CF
330
2
100
AcDbEntity
  8
0
100
AcDbCircle
 10
114.2712240381388
 20
19.32070207339982
 30
0.0
 40
0.5
100
AcDbArc
 50
180.0
 51
270.0
  0
LINE
  5
1D0
330
2
100
AcDbEntity
  8
0
100
AcDbLine
 10
123.2712240381387
 20
18.82070207339983
 30
0.0
 11
114.2712240381388
 21
18.82070207339983
 31
0.0
  0
LINE
  5
1D1
330
2
100
AcDbEntity
  8
0
100
AcDbLine
 10
112.8712240381372
 20
28.42196473187096
 30
0.0
 11
113.7712240381397
 21
28.42196473187096
 31
0.0
  0
LINE
  5
1D2
330
2
100
AcDbEntity
  8
0
100
AcDbLine
 10
112.8712240381372
 20
99.32070207339984
 30
0.0
 11
67.27122403813972
 21
99.32070207339984
 31
0.0
  0
ARC
  5
1D3
330
2
100
AcDbEntity
  8
0
100
AcDbCircle
 10
67.27122403813972
 20
98.82070207339985
 30
0.0
 40
0.5
100
AcDbArc
 50
90.0
 51
180.0
  0
LINE
  5
1D4
330
2
100
AcDbEntity
  8
0
100
AcDbLine
 10
64.27122403813974
 20
91.32070207339983
 30
0.0
 11
66.77122403813882
 21
91.32070207339983
 31
0.0
  0
ARC
  5
1D5
330
2
100
AcDbEntity
  8
0
100
AcDbCircle
 10
64.27122403813974
 20
90.82070207339985
 30
0.0
 40
0.5
100
AcDbArc
 50
90.0
 51
180.0
  0
LINE
  5
1D6
330
2
100
AcDbEntity
  8
0
100
AcDbLine
 10
63.77122403813881
 20
90.82070207339985
 30
0.0
 11
63.77122403813881
 21
59.82070207339983
 31
0.0
  0
LINE
  5
1D7
102
{ACAD_REACTORS
330
220
102
}
330
2
100
AcDbEntity
  8
0
  6
HIDDEN
 62
     2
100
AcDbLine
 10
59.77122403813883
 20
79.32070207339984
 30
0.0
 11
59.77122403813883
 21
76.82070207339984
 31
0.0
  0
LINE
  5
1D9
330
2
100
AcDbEntity
  8
0
100
AcDbLine
 10
64.27122403813974
 20
57.32070207339983
 30
0.0
 11
66.77122403813882
 21
57.32070207339983
 31
0.0
  0
ARC
  5
1DA
330
2
100
AcDbEntity
  8
0
100
AcDbCircle
 10
64.27122403813974
 20
57.82070207339984
 30
0.0
 40
0.5
100
AcDbArc
 50
180.0
 51
270.0
  0
LINE
  5
1DB
102
{ACAD_REACTORS
330
126
102
}
330
2
100
AcDbEntity
  8
0
100
AcDbLine
 10
113.7712240381397
 20
90.21943941492873
 30
0.0
 11
113.7712240381397
 21
97.91943941492764
 31
0.0
  0
LINE
  5
1DC
330
2
100
AcDbEntity
  8
0
100
AcDbLine
 10
112.8712240381372
 20
90.21943941492873
 30
0.0
 11
113.7712240381397
 21
90.21943941492873
 31
0.0
  0
LINE
  5
1DD
330
2
100
AcDbEntity
  8
0
100
AcDbLine
 10
112.8712240381372
 20
97.91943941492764
 30
0.0
 11
113.7712240381397
 21
97.91943941492764
 31
0.0
  0
DIMENSION
  5
1DE
102
{ACAD_XDICTIONARY
360
1DF
102
}
102
{ACAD_REACTORS
330
1E0
102
}
330
2
100
AcDbEntity
  8
0
100
AcDbDimension
  2
*D50
 10
218.168928867034
 20
35.82070207339983
 30
0.0
 11
218.168928867034
 21
59.28059484648338
 31
0.0
 70
   160
  1
%%c<>
  3
STANDARD
100
AcDbAlignedDimension
 13
200.7712240381386
 23
82.82070207339984
 33
0.0
 14
200.7712240381386
 24
35.82070207339984
 34
0.0
 50
90.0
100
AcDbRotatedDimension
  0
LINE
  5
1ED
102
{ACAD_REACTORS
330
142
102
}
330
2
100
AcDbEntity
  8
0
 48
0.6
100
AcDbLine
 10
201.7712240381396
 20
81.82070207339984
 30
0.0
 11
201.7712240381396
 21
36.82070207339984
 31
0.0
  0
LINE
  5
1EE
102
{ACAD_REACTORS
330
142
102
}
330
2
100
AcDbEntity
  8
0
100
AcDbLine
 10
191.7712240381386
 20
96.32070207339985
 30
0.0
 11
191.7712240381386
 21
22.32070207339984
 31
0.0
  0
LINE
  5
1EF
330
2
100
AcDbEntity
  8
0
100
AcDbLine
 10
190.7712240381396
 20
97.32070207339985
 30
0.0
 11
190.7712240381396
 21
21.32070207339983
 31
0.0
  0
LINE
  5
1F0
102
{ACAD_REACTORS
330
1F3
102
}
330
2
100
AcDbEntity
  8
0
100
AcDbLine
 10
184.7712240381386
 20
19.82070207339982
 30
0.0
 11
184.7712240381386
 21
98.82070207339985
 31
0.0
  0
DIMENSION
  5
1F1
102
{ACAD_XDICTIONARY
360
1F2
102
}
102
{ACAD_REACTORS
330
1F3
102
}
330
2
100
AcDbEntity
  8
0
100
AcDbDimension
  2
*D49
 10
227.5017618647416
 20
19.82070207339982
 30
0.0
 11
227.5017618647416
 21
58.21125515295489
 31
0.0
 70
   160
  1
%%C<>
  3
STANDARD
100
AcDbAlignedDimension
 13
184.7712240381386
 23
98.82070207339985
 33
0.0
 14
184.7712240381386
 24
19.82070207339982
 34
0.0
 50
90.0
100
AcDbRotatedDimension
  0
LINE
  5
200
330
2
100
AcDbEntity
  8
0
100
AcDbLine
 10
190.7712240381396
 20
21.32070207339983
 30
0.0
 11
184.7712240381386
 21
21.32070207339983
 31
0.0
  0
ARC
  5
201
330
2
100
AcDbEntity
  8
0
100
AcDbCircle
 10
191.2712240381388
 20
19.97817929768871
 30
0.0
 40
3.0
100
AcDbArc
 50
270.0
 51
0.0
  0
LINE
  5
202
330
2
100
AcDbEntity
  8
0
100
AcDbLine
 10
194.2712240381388
 20
34.02070207339693
 30
0.0
 11
194.2712240381388
 21
19.97817929768871
 31
0.0
  0
LINE
  5
203
330
2
100
AcDbEntity
  8
0
100
AcDbLine
 10
199.2712240381386
 20
34.02070207339693
 30
0.0
 11
199.2712240381386
 21
17.97817929768553
 31
0.0
  0
LINE
  5
204
330
2
100
AcDbEntity
  8
0
100
AcDbLine
 10
194.2712240381388
 20
34.82070207339983
 30
0.0
 11
199.2712240381386
 21
34.82070207339983
 31
0.0
  0
ARC
  5
205
330
2
100
AcDbEntity
  8
0
100
AcDbCircle
 10
194.2712240381388
 20
35.82070207339984
 30
0.0
 40
1.0
100
AcDbArc
 50
180.0
 51
270.0
  0
ARC
  5
206
330
2
100
AcDbEntity
  8
0
100
AcDbCircle
 10
199.2712240381386
 20
35.82070207339984
 30
0.0
 40
1.0
100
AcDbArc
 50
270.0
 51
0.0
  0
LINE
  5
207
330
2
100
AcDbEntity
  8
0
100
AcDbLine
 10
196.7712240381388
 20
34.02070207339693
 30
0.0
 11
196.7712240381388
 21
34.82070207339983
 31
0.0
  0
LINE
  5
208
330
2
100
AcDbEntity
  8
0
100
AcDbLine
 10
194.7712240381386
 20
34.02070207339693
 30
0.0
 11
194.7712240381386
 21
34.82070207339983
 31
0.0
  0
LINE
  5
209
330
2
100
AcDbEntity
  8
0
100
AcDbLine
 10
198.7712240381396
 20
34.02070207339693
 30
0.0
 11
198.7712240381396
 21
34.82070207339983
 31
0.0
  0
LINE
  5
20A
330
2
100
AcDbEntity
  8
0
100
AcDbLine
 10
194.2712240381388
 20
34.02070207339693
 30
0.0
 11
199.2712240381386
 21
34.02070207339693
 31
0.0
  0
ARC
  5
20B
102
{ACAD_REACTORS
330
1E0
102
}
330
2
100
AcDbEntity
  8
0
 48
0.6
100
AcDbCircle
 10
200.7712240381386
 20
36.82070207339984
 30
0.0
 40
1.0
100
AcDbArc
 50
270.0
 51
0.0
  0
LINE
  5
20C
330
2
100
AcDbEntity
  8
0
 48
0.6
100
AcDbLine
 10
200.7712240381386
 20
35.82070207339984
 30
0.0
 11
191.7712240381386
 21
35.82070207339984
 31
0.0
  0
LINE
  5
20D
330
2
100
AcDbEntity
  8
0
100
AcDbLine
 10
191.7712240381386
 20
22.32070207339984
 30
0.0
 11
190.7712240381396
 21
21.32070207339983
 31
0.0
  0
LINE
  5
20E
330
2
100
AcDbEntity
  8
0
100
AcDbLine
 10
190.7712240381396
 20
97.32070207339985
 30
0.0
 11
184.7712240381386
 21
97.32070207339985
 31
0.0
  0
ARC
  5
20F
102
{ACAD_REACTORS
330
1E0
102
}
330
2
100
AcDbEntity
  8
0
 48
0.6
100
AcDbCircle
 10
200.7712240381386
 20
81.82070207339984
 30
0.0
 40
1.0
100
AcDbArc
 50
0.0
 51
90.0
  0
LINE
  5
210
330
2
100
AcDbEntity
  8
0
 48
0.6
100
AcDbLine
 10
200.7712240381386
 20
82.82070207339984
 30
0.0
 11
191.7712240381386
 21
82.82070207339984
 31
0.0
  0
LINE
  5
211
330
2
100
AcDbEntity
  8
0
100
AcDbLine
 10
191.7712240381386
 20
96.32070207339985
 30
0.0
 11
190.7712240381396
 21
97.32070207339985
 31
0.0
  0
LINE
  5
212
330
2
100
AcDbEntity
  8
0
100
AcDbLine
 10
123.92777808168
 20
11.97817929768871
 30
0.0
 11
193.2712240381388
 21
11.97817929768552
 31
0.0
  0
ARC
  5
213
330
2
100
AcDbEntity
  8
0
100
AcDbCircle
 10
123.92777808168
 20
11.47817929768916
 30
0.0
 40
0.5
100
AcDbArc
 50
90.0
 51
177.9685271120384
  0
ARC
  5
214
330
2
100
AcDbEntity
  8
0
 48
0.6
100
AcDbCircle
 10
365.5500294711238
 20
140.7885029991073
 30
0.0
 40
274.501074343486
100
AcDbArc
 50
208.2108864862266
 51
211.8532745528466
  0
LWPOLYLINE
  5
215
330
2
100
AcDbEntity
  8
0
100
AcDbPolyline
 90
      467
 70
     0
 43
0.0
 10
124.9320295093912
 20
-4.110228991636021
 10
124.9342277914639
 20
-4.109153905855535
 10
124.9544720417125
 20
-4.099351805213998
 10
124.9746915070891
 20
-4.089659901341136
 10
124.9948862307082
 20
-4.080077752024251
 10
125.0150562556827
 20
-4.070604915057018
 10
125.035201625119
 20
-4.061240948221282
 10
125.0553223821324
 20
-4.051985409312536
 10
125.0754185698297
 20
-4.042837856113082
 10
125.095490231326
 20
-4.033797846417046
 10
125.1155374097306
 20
-4.024864938009458
 10
125.1355601481572
 20
-4.01603868867899
 10
125.1555584897124
 20
-4.00731865622022
 10
125.175532477513
 20
-3.998704398416365
 10
125.1954821546697
 20
-3.990195473056998
 10
125.2154075642893
 20
-3.981791437932613
 10
125.2353087494858
 20
-3.973491850830511
 10
125.2551857533743
 20
-3.965296269541184
 10
125.2750386190583
 20
-3.957204251849205
 10
125.2948673896515
 20
-3.949215355552341
 10
125.3146721082694
 20
-3.941329138427435
 10
125.3344528180187
 20
-3.933545158275436
 10
125.3542095620133
 20
-3.925862972873191
 10
125.3739423833667
 20
-3.91828214001937
 10
125.393651325181
 20
-3.910802217498101
 10
125.4133364305799
 20
-3.903422763098958
 10
125.4329977426658
 20
-3.896143334610158
 10
125.4526353045492
 20
-3.888963489823551
 10
125.4722491593474
 20
-3.881882786523263
 10
125.4918393501702
 20
-3.874900782500233
 10
125.5114059201277
 20
-3.868017035545407
 10
125.5309489123302
 20
-3.861231103443359
 10
125.5504683698863
 20
-3.854542543985943
 10
125.5699643359167
 20
-3.847950914963191
 10
125.5894368535245
 20
-3.841455774161046
 10
125.6088859658248
 20
-3.835056679368178
 10
125.6283117159237
 20
-3.828753188374165
 10
125.6477141469386
 20
-3.82254485896722
 10
125.6670933019785
 20
-3.816431248940106
 10
125.6864492241529
 20
-3.81041191607649
 10
125.705781956577
 20
-3.804486418166406
 10
125.7250915423592
 20
-3.798654313000341
 10
125.7443780246094
 20
-3.792915158368329
 10
125.7636414464451
 20
-3.787268512054041
 10
125.7828818509715
 20
-3.781713931851143
 10
125.8020992812989
 20
-3.776250975546033
 10
125.8212937805418
 20
-3.770879200930111
 10
125.8404653918133
 20
-3.765598165789314
 10
125.8596141582221
 20
-3.760407427912766
 10
125.8787401228792
 20
-3.75530654509005
 10
125.8978433288957
 20
-3.750295075108923
 10
125.9169238193854
 20
-3.745372575760328
 10
125.935981637458
 20
-3.740538604828388
 10
125.9550168262229
 20
-3.735792720109046
 10
125.974029428794
 20
-3.731134479386427
 10
125.9930194882818
 20
-3.726563440451926
 10
126.0119870477947
 20
-3.722079161090576
 10
126.0309321504519
 20
-3.71768119909514
 10
126.049854839357
 20
-3.713369112250191
 10
126.0687551576221
 20
-3.709142458349859
 10
126.0876331483604
 20
-3.70500079517781
 10
126.1064888546844
 20
-3.70094368052544
 10
126.1253223197027
 20
-3.696970672180968
 10
126.1441335865302
 20
-3.693081327933056
 10
126.1629226982759
 20
-3.689275205573566
 10
126.181689698048
 20
-3.685551862889339
 10
126.2004346289604
 20
-3.681910857664958
 10
126.2191575341265
 20
-3.678351747695003
 10
126.237858456653
 20
-3.674874090764959
 10
126.2565374396573
 20
-3.671477444668497
 10
126.2751945262444
 20
-3.668161367184282
 10
126.293829759531
 20
-3.664925416110079
 10
126.3124431826244
 20
-3.661769149237287
 10
126.3310348386394
 20
-3.658692124345477
 10
126.3496047706822
 20
-3.655693899226959
 10
126.36815302187
 20
-3.652774031672221
 10
126.3866796353095
 20
-3.649932079466296
 10
126.4051846541097
 20
-3.647167600403308
 10
126.4236681213942
 20
-3.644480152268287
 10
126.4421300802577
 20
-3.641869292854451
 10
126.4605705738267
 20
-3.639334579944105
 10
126.4789896452002
 20
-3.636875571332283
 10
126.4973873374975
 20
-3.634491824801288
 10
126.5157636938257
 20
-3.632182898142971
 10
126.5341187572986
 20
-3.629948349151461
 10
126.5524525710215
 20
-3.627787735609516
 10
126.5707651781168
 20
-3.625700615304439
 10
126.5890566216857
 20
-3.623686546028081
 10
126.6073269448443
 20
-3.621745085570481
 10
126.6255761907068
 20
-3.619875791720303
 10
126.6438044023735
 20
-3.618078222263036
 10
126.6620116229669
 20
-3.616351934990078
 10
126.6801978955927
 20
-3.614696487689642
 10
126.6983632633655
 20
-3.613111438150852
 10
126.7165077693917
 20
-3.611596344160559
 10
126.7346314567894
 20
-3.610150763512438
 10
126.7527343686615
 20
-3.608774253986966
 10
126.7708165481254
 20
-3.607466373382819
 10
126.7888780382909
 20
-3.606226679480941
 10
126.8069188822674
 20
-3.605054730078634
 10
126.824939123171
 20
-3.603950082951384
 10
126.8429388041095
 20
-3.602912295902413
 10
126.8609179681925
 20
-3.601940926711293
 10
126.8788766585331
 20
-3.601035533169421
 10
126.8968149182464
 20
-3.600195673065924
 10
126.9147327904339
 20
-3.599420904190381
 10
126.9326303182187
 20
-3.598710784330095
 10
126.9505075447042
 20
-3.598064871277372
 10
126.9683645130053
 20
-3.597482722814064
 10
126.9862012662252
 20
-3.596963896734296
 10
127.004017847491
 20
-3.596507950824913
 10
127.0218142998992
 20
-3.596114442878231
 10
127.039590666568
 20
-3.595782930677459
 10
127.0573469906067
 20
-3.595512972014446
 10
127.0750833151278
 20
-3.59530412468014
 10
127.0927996832415
 20
-3.595155946459116
 10
127.1104961380597
 20
-3.595067995143225
 10
127.128172722695
 20
-3.595039828518408
 10
127.1458294802559
 20
-3.595071004376976
 10
127.1634664538559
 20
-3.595161080503501
 10
127.1810836866043
 20
-3.595309614692113
 10
127.1986812216155
 20
-3.595516164726475
 10
127.2162591019942
 20
-3.59578028839799
 10
127.2338173708621
 20
-3.596101543496232
 10
127.2513560713169
 20
-3.596479487810326
 10
127.2688752464838
 20
-3.596913679126218
 10
127.2863749394665
 20
-3.597403675232115
 10
127.3038551933769
 20
-3.597949033921238
 10
127.3213160513269
 20
-3.598549312978164
 10
127.3387575564274
 20
-3.599204070196108
 10
127.3561797517931
 20
-3.599912863360556
 10
127.373582680526
 20
-3.600675250259271
 10
127.3909663857512
 20
-3.601490788687286
 10
127.408330910568
 20
-3.602359036425085
 10
127.425676298093
 20
-3.603279551267248
 10
127.4430025914361
 20
-3.604251891001537
 10
127.4603098337083
 20
-3.605275613413896
 10
127.4775980680224
 20
-3.606350276297532
 10
127.494867337491
 20
-3.607475437436121
 10
127.5121176852207
 20
-3.608650654621513
 10
127.5293491543262
 20
-3.609875485644196
 10
127.5465617879181
 20
-3.611149488291473
 10
127.5637556291094
 20
-3.612472220351108
 10
127.5809307210066
 20
-3.613843239612221
 10
127.598087106724
 20
-3.615262103863486
 10
127.615224829371
 20
-3.616728370894476
 10
127.632343932064
 20
-3.618241598493866
 10
127.6494444579139
 20
-3.619801344451233
 10
127.6665264500242
 20
-3.621407166554334
 10
127.6835899515118
 20
-3.623058622591386
 10
127.7006350054852
 20
-3.624755270351513
 10
127.7176616550587
 20
-3.626496667625658
 10
127.7346699433447
 20
-3.628282372201126
 10
127.7516599134487
 20
-3.630111941864768
 10
127.7686316084892
 20
-3.631984934408889
 10
127.7855850715704
 20
-3.633900907619435
 10
127.8025203458118
 20
-3.635859419287341
 10
127.819437474317
 20
-3.637860027201285
 10
127.8363365001995
 20
-3.639902289147201
 10
127.8532174665689
 20
-3.641985762917401
 10
127.8700804165409
 20
-3.644110006296002
 10
127.8869253932262
 20
-3.646274577078044
 10
127.9037524397327
 20
-3.648479033050379
 10
127.9205615991759
 20
-3.650722931999396
 10
127.9373529146642
 20
-3.653005831716042
 10
127.9541264293065
 20
-3.655327289984896
 10
127.9708821862169
 20
-3.657686864602354
 10
127.9876202285112
 20
-3.660084113352993
 10
128.0043405992929
 20
-3.662518594021848
 10
128.0210433416778
 20
-3.664989864407131
 10
128.0377284987762
 20
-3.667497482291153
 10
128.0543961136946
 20
-3.670041005459849
 10
128.0710462295519
 20
-3.672619991708259
 10
128.0876788894593
 20
-3.675233998820957
 10
128.1042941365221
 20
-3.677882584592068
 10
128.1208920138506
 20
-3.680565306805264
 10
128.1374725645665
 20
-3.683281723251027
 10
128.1540358317705
 20
-3.686031391718486
 10
128.1705818585814
 20
-3.688813869995398
 10
128.187110688107
 20
-3.691628715873163
 10
128.2036223634559
 20
-3.694475487138631
 10
128.2201169277422
 20
-3.697353741578198
 10
128.2365944240745
 20
-3.700263036984167
 10
128.2530548955711
 20
-3.703202931146122
 10
128.269498385338
 20
-3.706172981850457
 10
128.2859249364856
 20
-3.709172746886296
 10
128.3023345921302
 20
-3.712201784042306
 10
128.3187273953763
 20
-3.715259651109434
 10
128.3351033893396
 20
-3.718345905874528
 10
128.3514626171299
 20
-3.721460106125348
 10
128.3678051218585
 20
-3.724601809652837
 10
128.3841309466388
 20
-3.727770574247031
 10
128.400440134579
 20
-3.730965957694323
 10
128.4167327287933
 20
-3.734187517782472
 10
128.4330087723918
 20
-3.73743481230197
 10
128.4492683084808
 20
-3.740707399041482
 10
128.4655113801836
 20
-3.744004835791501
 10
128.4817380305949
 20
-3.747326680337053
 10
128.4979483028419
 20
-3.750672490468629
 10
128.5141422400275
 20
-3.754041823978083
 10
128.5303198852662
 20
-3.757434238648627
 10
128.5464812816671
 20
-3.760849292275294
 10
128.5626264723378
 20
-3.764286542639936
 10
128.5787555003971
 20
-3.767745547539859
 10
128.5948684089543
 20
-3.771225864757368
 10
128.6109652411159
 20
-3.774727052079314
 10
128.6270460400001
 20
-3.778248667303003
 10
128.643110848714
 20
-3.781790268208922
 10
128.6591597103669
 20
-3.785351412590288
 10
128.6751926680752
 20
-3.788931658238496
 10
128.6912097649455
 20
-3.792530562933123
 10
128.707211044095
 20
-3.796147684472841
 10
128.7231965486299
 20
-3.79978258064314
 10
128.7391663216612
 20
-3.803434809227226
 10
128.7551204063038
 20
-3.807103928023324
 10
128.7710588456656
 20
-3.810789494812823
 10
128.7869816828588
 20
-3.814491067388033
 10
128.8028889609977
 20
-3.818208203538986
 10
128.8187807231896
 20
-3.821940461051171
 10
128.8346570125449
 20
-3.825687397716435
 10
128.8505178721807
 20
-3.82944857132118
 10
128.8663633452042
 20
-3.833223539653162
 10
128.8821934747266
 20
-3.837011860503323
 10
128.8980083038604
 20
-3.840813091662155
 10
128.913807875715
 20
-3.844626790914233
 10
128.929592233404
 20
-3.848452516054591
 10
128.9453614200384
 20
-3.852289824864173
 10
128.9611154787253
 20
-3.856138275137098
 10
128.9768544525823
 20
-3.85999742466204
 10
128.9925783847156
 20
-3.863866831225393
 10
129.0082873182381
 20
-3.867746052616737
 10
129.0239812962664
 20
-3.871634646626106
 10
129.039660361902
 20
-3.875532171038983
 10
129.055324558266
 20
-3.879438183650406
 10
129.0709739284638
 20
-3.883352242244042
 10
129.086608515603
 20
-3.887273904610381
 10
129.1022283628024
 20
-3.891202728538091
 10
129.1178335131726
 20
-3.89513827181311
 10
129.1334240098202
 20
-3.899080092231388
 10
129.148999895863
 20
-3.903027747572949
 10
129.1645612144039
 20
-3.906980795634651
 10
129.1801080085587
 20
-3.910938794201982
 10
129.1956403214417
 20
-3.914901301059971
 10
129.2111581961563
 20
-3.918867874004106
 10
129.2266616758215
 20
-3.922838070816241
 10
129.2421508035459
 20
-3.926811449292316
 10
129.257625622441
 20
-3.930787567218274
 10
129.2730861756144
 20
-3.934765982381421
 10
129.2885325061815
 20
-3.938746252571334
 10
129.303964657256
 20
-3.942727935573955
 10
129.3193826719415
 20
-3.946710589187502
 10
129.3347865933555
 20
-3.950693771189733
 10
129.350176464608
 20
-3.954677039376138
 10
129.3655523288088
 20
-3.958659951533107
 10
129.3809142290691
 20
-3.962642065448861
 10
129.3962622085001
 20
-3.966622938913885
 10
129.4115963102186
 20
-3.970602129718216
 10
129.4269165773284
 20
-3.974579195645971
 10
129.4422230529443
 20
-3.978553694491736
 10
129.4575157801727
 20
-3.982525184039174
 10
129.4727948021337
 20
-3.986493222077868
 10
129.4880601619315
 20
-3.990457366404216
 10
129.5033119026829
 20
-3.994417174797334
 10
129.518550067495
 20
-3.998372205047259
 10
129.5337746994799
 20
-4.00232201494721
 10
129.5489858417485
 20
-4.00626616228449
 10
129.5641835374145
 20
-4.010204204847312
 10
129.5793678295868
 20
-4.014135700423437
 10
129.5945387613737
 20
-4.018060206803809
 10
129.6096963758964
 20
-4.021977281773913
 10
129.6248407162547
 20
-4.025886483128331
 10
129.6399718255661
 20
-4.029787368652096
 10
129.6550897469415
 20
-4.033679496131142
 10
129.6701945234917
 20
-4.037562423360967
 10
129.685286198326
 20
-4.041435708126143
 10
129.7003648145599
 20
-4.045298908212161
 10
129.7154304153028
 20
-4.049151581414959
 10
129.7304830436642
 20
-4.052993285522306
 10
129.7455227427543
 20
-4.056823578319225
 10
129.7605495556918
 20
-4.060642017594846
 10
129.7755635255799
 20
-4.064448161141015
 10
129.7905646955314
 20
-4.068241566745498
 10
129.8055531086584
 20
-4.072021792195144
 10
129.820528808077
 20
-4.075788395280441
 10
129.8354918368914
 20
-4.079540933789601
 10
129.8504422382166
 20
-4.083278965512661
 10
129.8653800551601
 20
-4.087002048236926
 10
129.8803053308392
 20
-4.090709739751972
 10
129.8952181083604
 20
-4.094401597846926
 10
129.9101184308373
 20
-4.098077180309091
 10
129.9250063413838
 20
-4.10173604493123
 10
129.9398818831023
 20
-4.105377749493371
 10
129.9547450991138
 20
-4.109001851795553
 10
129.9695960325206
 20
-4.112607909619627
 10
129.9844347264434
 20
-4.116195480755165
 10
129.9992612239857
 20
-4.119764122993572
 10
130.014075568264
 20
-4.123313394122149
 10
130.0288778023878
 20
-4.126842851925927
 10
130.0436679694665
 20
-4.130352054200399
 10
130.0584461126146
 20
-4.133840558728323
 10
130.0732122749377
 20
-4.137307923302913
 10
130.0879664995572
 20
-4.140753705714658
 10
130.102708829573
 20
-4.144177463744043
 10
130.1174393081074
 20
-4.147578755187011
 10
130.1321579782579
 20
-4.150957137831326
 10
130.1468648831487
 20
-4.15431216946429
 10
130.1615600658896
 20
-4.157643407876392
 10
130.1762435695837
 20
-4.160950410854028
 10
130.1909154373479
 20
-4.164232736186319
 10
130.2055757122925
 20
-4.167489941666033
 10
130.2202244375276
 20
-4.170721585075924
 10
130.2348616561675
 20
-4.173927224210117
 10
130.2494874113244
 20
-4.177106416855011
 10
130.2641017461019
 20
-4.180258720797908
 10
130.2787047036172
 20
-4.183383693829298
 10
130.293296326984
 20
-4.186480893740123
 10
130.3078766593033
 20
-4.189549878314053
 10
130.3224457437007
 20
-4.192590205346576
 10
130.337003623279
 20
-4.195601432619994
 10
130.3515503411462
 20
-4.198583117927071
 10
130.3660859404207
 20
-4.201534819055112
 10
130.3806104642125
 20
-4.204456093795513
 10
130.3951239556282
 20
-4.20734649993149
 10
130.4096264577838
 20
-4.210205595257164
 10
130.4241180137887
 20
-4.213032937558935
 10
130.4385986667567
 20
-4.215828084626379
 10
130.453068459794
 20
-4.218590594248625
 10
130.4675274360187
 20
-4.221320024212973
 10
130.4819756385313
 20
-4.224015932309455
 10
130.4964131104553
 20
-4.226677876327201
 10
130.5108398948968
 20
-4.229305414054877
 10
130.5252560349645
 20
-4.231898103277971
 10
130.5396615737718
 20
-4.234455501789241
 10
130.5540565544315
 20
-4.23697716737827
 10
130.5684410200538
 20
-4.239462657832817
 10
130.5828150137512
 20
-4.241911530936091
 10
130.5971785786295
 20
-4.244323344488138
 10
130.6115317578058
 20
-4.24669765626625
 10
130.6258745943915
 20
-4.249034024067285
 10
130.6402071314942
 20
-4.251332005673091
 10
130.6545294122234
 20
-4.25359115887916
 10
130.6688414797017
 20
-4.255811041473251
 10
130.6831433770258
 20
-4.257991211239485
 10
130.6974351473172
 20
-4.260131225973352
 10
130.7117168336827
 20
-4.262230643458067
 10
130.7259884792346
 20
-4.264289021482299
 10
130.7402501270862
 20
-4.266305917838352
 10
130.7545018203437
 20
-4.26828089031717
 10
130.768743602124
 20
-4.27021349670197
 10
130.7829755155353
 20
-4.272103294782326
 10
130.7971976036878
 20
-4.273949842348272
 10
130.8114099096982
 20
-4.27575269718848
 10
130.8256124766675
 20
-4.277511417092071
 10
130.8398053477204
 20
-4.279225559848171
 10
130.8539885659537
 20
-4.280894683246359
 10
130.8681621744925
 20
-4.282518345074395
 10
130.8823262164378
 20
-4.284096103119124
 10
130.8964807349084
 20
-4.285627515172863
 10
130.9106257730109
 20
-4.287112139021544
 10
130.9247613738571
 20
-4.288549532456571
 10
130.938887580558
 20
-4.289939253265246
 10
130.9530044362273
 20
-4.291280859234873
 10
130.9671119839757
 20
-4.292573908160036
 10
130.9812102669082
 20
-4.293817957821218
 10
130.9952993281477
 20
-4.295012566011179
 10
131.0093792107927
 20
-4.296157290520412
 10
131.0234499579655
 20
-4.297251689136216
 10
131.0375116127714
 20
-4.298295319648631
 10
131.0515642183218
 20
-4.299287739844046
 10
131.0656078177325
 20
-4.300228507514319
 10
131.0796424541095
 20
-4.301117180444023
 10
131.0936681705662
 20
-4.301953316427287
 10
131.1076850102153
 20
-4.302736473246412
 10
131.1216930161672
 20
-4.303466208695525
 10
131.1356922315271
 20
-4.304142080561475
 10
131.149682699417
 20
-4.304763646634301
 10
131.163664462938
 20
-4.305330464701301
 10
131.1776375652097
 20
-4.305842092553421
 10
131.191602049339
 20
-4.306298087978419
 10
131.2055579584402
 20
-4.306698008761784
 10
131.2195053356209
 20
-4.307041412697643
 10
131.2334442239935
 20
-4.307327857570115
 10
131.247374666671
 20
-4.3075569011706
 10
131.2612967067597
 20
-4.307728101286401
 10
131.2752103873773
 20
-4.307841015712099
 10
131.2891157516342
 20
-4.307895202226816
 10
131.303012842638
 20
-4.307890218625131
 10
131.3169017035016
 20
-4.307825622699354
 10
131.3307823773337
 20
-4.30770097223133
 10
131.3446549072533
 20
-4.307515825011549
 10
131.3585193363642
 20
-4.307269738830497
 10
131.3723757077813
 20
-4.306962271477303
 10
131.3862240646112
 20
-4.306592980739266
 10
131.4000644499738
 20
-4.306161424405062
 10
131.4138969069745
 20
-4.305667160266538
 10
131.4277214787207
 20
-4.305109746108271
 10
131.4415382083298
 20
-4.304488739721207
 10
131.4553471389136
 20
-4.303803698891741
 10
131.4691483135821
 20
-4.303054181412178
 10
131.4829417754471
 20
-4.302239745074373
 10
131.4967275676163
 20
-4.301359947660174
 10
131.5105057332021
 20
-4.300414346958247
 10
131.52427631532
 20
-4.29940250076227
 10
131.5380393570757
 20
-4.29832396685954
 10
131.5517949015829
 20
-4.29717830303828
 10
131.5655429919553
 20
-4.295965067087153
 10
131.5792836712988
 20
-4.294683816793011
 10
131.5930169827325
 20
-4.293334109950436
 10
131.6067429693585
 20
-4.291915504339911
 10
131.620461674297
 20
-4.290427557757837
 10
131.6341731406519
 20
-4.28886982799061
 10
131.6478774115358
 20
-4.287241872827352
 10
131.661574530064
 20
-4.285543250052186
 10
131.6752645393481
 20
-4.283773517459238
 10
131.688947482492
 20
-4.281932232837178
 10
131.7026234026105
 20
-4.28001895397513
 10
131.7162923428214
 20
-4.278033238659488
 10
131.7299543462267
 20
-4.275974644676196
 10
131.7436094559435
 20
-4.273842729818468
 10
131.7572577150768
 20
-4.271637051877248
 10
131.7708991667486
 20
-4.269357168637569
 10
131.784533854059
 20
-4.267002637889007
 10
131.7981618201247
 20
-4.264573017420232
 10
131.811783108058
 20
-4.26206786502128
 10
131.8253977609701
 20
-4.259486738476723
 10
131.8390058219639
 20
-4.256829195584329
 10
131.8526073341655
 20
-4.254094794123219
 10
131.866202340674
 20
-4.251283091887061
 10
131.8797908846043
 20
-4.248393646665435
 10
131.8933730090703
 20
-4.24542601624246
 10
131.9069487571777
 20
-4.242379758410451
 10
131.9205181720452
 20
-4.239254430960343
 10
131.9340812967767
 20
-4.236049591678082
 10
131.947638174488
 20
-4.232764798349151
 10
131.9611888482887
 20
-4.229399608770408
 10
131.9747333612913
 20
-4.225953580722332
 10
131.9882717566097
 20
-4.222426272002238
 10
132.0018040773493
 20
-4.218817240389243
 10
132.015330366622
 20
-4.215126043682021
 10
132.0288506675414
 20
-4.211352239662417
 10
132.0423650232214
 20
-4.207495386120926
 10
132.0558734767674
 20
-4.203555040848031
 10
132.0693760712937
 20
-4.199530761632403
 10
132.0828728499128
 20
-4.195422106259982
 10
132.0963638557349
 20
-4.191228632522168
 10
132.109849131868
 20
-4.186949898205812
 10
132.123328721429
 20
-4.182585461103214
 10
132.1368026675254
 20
-4.178134878998959
 10
132.150271013268
 20
-4.173597709685352
 10
132.1637338017727
 20
-4.168973510948333
 10
132.1771910761471
 20
-4.164261840580208
 10
132.1906428795026
 20
-4.159462256366468
 10
132.2040892549512
 20
-4.154574316093956
 10
132.2175302456034
 20
-4.149597577559076
 10
132.2309658945733
 20
-4.144531598545498
 10
132.2443962449669
 20
-4.139375936842343
 10
132.257821339901
 20
-4.134130150237368
 10
132.2712412224809
 20
-4.128793796521976
 10
132.284655935825
 20
-4.123366433484378
 10
132.2980655230413
 20
-4.117847618910063
 10
132.311470027237
 20
-4.112236910594064
 10
132.3248694915291
 20
-4.10653386631914
 10
132.3382639590263
 20
-4.100738043880326
 10
132.3516534728387
 20
-4.094849001061291
 10
132.3650380760828
 20
-4.088866295651158
 10
132.3784178118639
 20
-4.082789485439049
 10
132.3881708718535
 20
-4.078289297343714
  0
ARC
  5
216
330
2
100
AcDbEntity
  8
0
 48
0.6
100
AcDbCircle
 10
334.6027611354211
 20
113.2486602162114
 30
0.0
 40
240.2809284497918
100
AcDbArc
 50
203.8100329256748
 51
209.2370255260661
  0
ARC
  5
217
330
2
100
AcDbEntity
  8
0
100
AcDbCircle
 10
115.5333553650296
 20
7.371178029540715
 30
0.0
 40
8.907313409310658
100
AcDbArc
 50
24.23072274291522
 51
94.90087069768783
  0
ARC
  5
218
330
2
100
AcDbEntity
  8
0
100
AcDbCircle
 10
193.2712240381388
 20
17.97817929768553
 30
0.0
 40
6.0
100
AcDbArc
 50
270.0
 51
0.0
  0
LINE
  5
219
102
{ACAD_REACTORS
330
F9
102
}
330
2
100
AcDbEntity
  8
0
100
AcDbLine
 10
34.77122403813881
 20
79.32070207339984
 30
0.0
 11
34.77122403813881
 21
69.32070207339984
 31
0.0
  0
LINE
  5
21A
330
2
100
AcDbEntity
  8
CEN
 48
0.6
100
AcDbLine
 10
31.71403309235575
 20
59.32070207339982
 30
0.0
 11
206.1535592293811
 21
59.32070207339982
 31
0.0
  0
LINE
  5
21B
102
{ACAD_REACTORS
330
171
102
}
330
2
100
AcDbEntity
  8
CEN
  6
BYBLOCK
 62
     0
100
AcDbLine
 10
63.77122403813881
 20
69.32070207339984
 30
0.0
 11
34.77122403813881
 21
69.32070207339984
 31
0.0
  0
LINE
  5
21C
102
{ACAD_REACTORS
330
171
102
}
330
2
100
AcDbEntity
  8
CEN
  6
HIDDEN
 62
     2
100
AcDbLine
 10
59.77122403813883
 20
76.82070207339984
 30
0.0
 11
34.77122403813881
 21
76.82070207339984
 31
0.0
  0
LINE
  5
21D
102
{ACAD_REACTORS
330
171
330
220
330
F9
330
160
102
}
330
2
100
AcDbEntity
  8
CEN
  6
BYBLOCK
 62
     0
100
AcDbLine
 10
63.77122403813881
 20
79.32070207339984
 30
0.0
 11
34.77122403813881
 21
79.32070207339984
 31
0.0
  0
DIMENSION
  5
21E
102
{ACAD_XDICTIONARY
360
21F
102
}
102
{ACAD_REACTORS
330
220
102
}
330
2
100
AcDbEntity
  8
0
100
AcDbDimension
  2
*D48
 10
34.77122403813881
 20
95.5409902803035
 30
0.0
 11
47.58215470553387
 21
95.5409902803035
 31
0.0
 70
   160
  3
STANDARD
100
AcDbAlignedDimension
 13
59.77122403813883
 23
79.32070207339984
 33
0.0
 14
34.77122403813881
 24
79.32070207339984
 34
0.0
 50
180.0
100
AcDbRotatedDimension
  0
ARC
  5
22D
330
2
100
AcDbEntity
  8
2
 62
     7
100
AcDbCircle
 10
64.27122403813974
 20
57.82070207339984
 30
0.0
 40
0.4999999999999968
100
AcDbArc
 50
180.0
 51
270.0
  0
LINE
  5
22F
330
2
100
AcDbEntity
  8
2
 62
     7
100
AcDbLine
 10
66.77122403813882
 20
57.32070207339983
 30
0.0
 11
64.27122403813974
 21
57.32070207339983
 31
0.0
  0
LINE
  5
230
330
2
100
AcDbEntity
  8
2
 62
     7
100
AcDbLine
 10
63.77122403813881
 20
57.82070207339984
 30
0.0
 11
63.77122403813881
 21
59.32070207339982
 31
0.0
  0
MTEXT
  5
231
330
2
100
AcDbEntity
  8
DIM
 62
     0
100
AcDbMText
 10
-86.27945687482499
 20
207.7770110591663
 30
0.0
 40
4.589999999999998
 41
0.0
 71
     1
 72
     5
  1
{\f굴림|b0|i0|c129|p50;KEY\f??|b0|i0|c0|p49;                  \f굴림|b0|i0|c129|p50;KEY GROOVE }
1001
ACAD
1000
MTEXTBEGIN
1070
    73
1070
     1
1070
    44
1040
1.0
1070
    74
1070
     0
1000
MTEXTEND
1000
MTEXTBEGIN
1070
    73
1070
     1
1070
    44
1040
1.0
1070
    74
1070
     0
1000
MTEXTEND
1000
MTEXTBEGIN
1070
    73
1070
     1
1070
    44
1040
1.0
1070
    74
1070
     0
1000
MTEXTEND
  0
LINE
  5
232
330
2
100
AcDbEntity
  8
CEN
 48
0.6
100
AcDbLine
 10
-68.62518008783808
 20
280.9755553236104
 30
0.0
 11
19.52879936335375
 21
280.9755553236104
 31
0.0
  0
LINE
  5
233
330
2
100
AcDbEntity
  8
CEN
 48
0.6
100
AcDbLine
 10
-68.62518008783808
 20
280.9755553236104
 30
0.0
 11
19.52879936335375
 21
280.9755553236104
 31
0.0
  0
ARC
  5
234
330
2
100
AcDbEntity
  8
0
 48
0.6
100
AcDbCircle
 10
10.45180963775783
 20
245.9755553236104
 30
0.0
 40
5.0
100
AcDbArc
 50
270.0
 51
0.0
  0
ARC
  5
235
330
2
100
AcDbEntity
  8
0
 48
0.6
100
AcDbCircle
 10
-59.54819036224217
 20
245.9755553236104
 30
0.0
 40
5.0
100
AcDbArc
 50
180.0
 51
270.0
  0
LINE
  5
236
330
2
100
AcDbEntity
  8
0
 48
0.6
100
AcDbLine
 10
-59.54819036224217
 20
240.9755553236095
 30
0.0
 11
10.45180963775783
 21
240.9755553236095
 31
0.0
  0
LWPOLYLINE
  5
237
330
2
100
AcDbEntity
  8
3
100
AcDbPolyline
 90
        4
 70
     1
 43
0.0
 10
-27.77373146874015
 20
220.6899251020513
 10
-24.47373146873724
 20
220.6899251020513
 10
-24.47373146873724
 20
224.1899251020526
 10
-27.77373146874015
 20
224.1899251020526
  0
DIMENSION
  5
239
102
{ACAD_XDICTIONARY
360
23A
102
}
102
{ACAD_REACTORS
330
23B
102
}
330
2
100
AcDbEntity
  8
0
100
AcDbDimension
  2
*D56
 10
-5.142660747808801
 20
186.5551760252095
 30
0.0
 11
-7.142660747808803
 21
190.0051760252095
 31
0.0
 70
    32
  1
\A1;<>{\f??|b0|i0|c0|p49;\H0.7x;\S+0.40^ -0;}
  3
STANDARD
100
AcDbAlignedDimension
 13
-9.142660747808804
 23
177.7961634802345
 33
0.0
 14
-5.142660747808802
 24
177.7961634802345
 34
0.0
100
AcDbRotatedDimension
  0
LWPOLYLINE
  5
24A
330
2
100
AcDbEntity
  8
0
100
AcDbPolyline
 90
        2
 70
     1
 43
1.5
 10
-91.22030759535027
 20
205.1696108030773
 42
1.0
 10
-89.72030759535028
 20
205.1696108030773
 42
1.0
  0
CIRCLE
  5
24B
330
2
100
AcDbEntity
  8
0
100
AcDbCircle
 10
-90.47030759535028
 20
205.1696108030773
 30
0.0
 40
1.5
  0
CIRCLE
  5
24C
330
2
100
AcDbEntity
  8
0
100
AcDbCircle
 10
-25.94568037071713
 20
205.3849267190785
 30
0.0
 40
1.5
  0
LWPOLYLINE
  5
24D
330
2
100
AcDbEntity
  8
0
100
AcDbPolyline
 90
        2
 70
     1
 43
1.5
 10
-26.69568037071712
 20
205.3849267190785
 42
1.0
 10
-25.19568037071712
 20
205.3849267190785
 42
1.0
  0
DIMENSION
  5
24E
102
{ACAD_XDICTIONARY
360
24F
102
}
102
{ACAD_REACTORS
330
250
102
}
330
2
100
AcDbEntity
  8
0
100
AcDbDimension
  2
*D55
 10
15.45180963775783
 20
219.9985939834895
 30
0.0
 11
-20.72897259172167
 21
219.9985939834895
 31
0.0
 70
   160
  3
STANDARD
100
AcDbAlignedDimension
 13
-64.54819036224126
 23
245.9755553236104
 33
0.0
 14
15.45180963775783
 24
245.9755553236104
 34
0.0
100
AcDbRotatedDimension
  0
LINE
  5
25D
102
{ACAD_REACTORS
330
26C
102
}
330
2
100
AcDbEntity
  8
0
 48
0.2
100
AcDbLine
 10
-94.24669377506962
 20
176.813883072274
 30
0.0
 11
-71.2466937750678
 21
176.813883072274
 31
0.0
  0
LINE
  5
25E
330
2
100
AcDbEntity
  8
0
 48
0.2
100
AcDbLine
 10
-94.24669377506962
 20
172.813883072274
 30
0.0
 11
-71.2466937750678
 21
172.813883072274
 31
0.0
  0
LINE
  5
25F
330
2
100
AcDbEntity
  8
0
  6
CENTER
 62
     1
 48
0.4
100
AcDbLine
 10
-101.9335800917797
 20
174.813883072274
 30
0.0
 11
-66.42782646273554
 21
174.813883072274
 31
0.0
  0
ARC
  5
260
102
{ACAD_REACTORS
330
26C
102
}
330
2
100
AcDbEntity
  8
0
100
AcDbCircle
 10
-94.24669377506962
 20
174.813883072274
 30
0.0
 40
2.0
100
AcDbArc
 50
90.0
 51
270.0
  0
LINE
  5
261
330
2
100
AcDbEntity
  8
0
100
AcDbLine
 10
-71.2466937750678
 20
176.813883072274
 30
0.0
 11
-71.2466937750678
 21
172.813883072274
 31
0.0
  0
LINE
  5
262
102
{ACAD_REACTORS
330
28A
102
}
330
2
100
AcDbEntity
  8
0
100
AcDbLine
 10
-9.142660747808804
 20
175.7135877852769
 30
0.0
 11
-5.142660747808802
 21
175.7135877852769
 31
0.0
  0
LINE
  5
263
330
2
100
AcDbEntity
  8
0
 48
0.2
100
AcDbLine
 10
-54.07604048835399
 20
176.813883072274
 30
0.0
 11
-50.076040488354
 21
176.813883072274
 31
0.0
  0
LINE
  5
264
330
2
100
AcDbEntity
  8
0
 48
0.2
100
AcDbLine
 10
-54.07604048835399
 20
172.813883072274
 30
0.0
 11
-50.076040488354
 21
172.813883072274
 31
0.0
  0
LINE
  5
265
102
{ACAD_REACTORS
330
29B
102
}
330
2
100
AcDbEntity
  8
0
100
AcDbLine
 10
-54.07604048835399
 20
176.813883072274
 30
0.0
 11
-54.07604048835399
 21
172.813883072274
 31
0.0
  0
LINE
  5
266
102
{ACAD_REACTORS
330
29B
102
}
330
2
100
AcDbEntity
  8
0
100
AcDbLine
 10
-50.076040488354
 20
176.813883072274
 30
0.0
 11
-50.076040488354
 21
172.813883072274
 31
0.0
  0
LINE
  5
267
330
2
100
AcDbEntity
  8
0
  6
CENTER
 62
     1
 48
0.4
100
AcDbLine
 10
-15.75030006458107
 20
173.2135877852783
 30
0.0
 11
1.18319448157217
 21
173.2135877852783
 31
0.0
  0
LINE
  5
268
330
2
100
AcDbEntity
  8
0
  6
CENTER
 62
     1
 48
0.4
100
AcDbLine
 10
-56.07604048835399
 20
174.813883072274
 30
0.0
 11
-48.07604048835401
 21
174.813883072274
 31
0.0
  0
LWPOLYLINE
  5
269
330
2
100
AcDbEntity
  8
3
100
AcDbPolyline
 90
        4
 70
     1
 43
0.0
 10
-75.26269307906659
 20
117.7937199647612
 10
-71.96269307906641
 20
117.7937199647612
 10
-71.96269307906641
 20
121.2937199647607
 10
-75.26269307906659
 20
121.2937199647607
  0
DIMENSION
  5
26A
102
{ACAD_XDICTIONARY
360
26B
102
}
102
{ACAD_REACTORS
330
26C
102
}
330
2
100
AcDbEntity
  8
0
100
AcDbDimension
  2
*D54
 10
-71.24669377506958
 20
184.6190770527503
 30
0.0
 11
-83.74669377506959
 21
187.1190770527505
 31
0.0
 70
    32
  1
<>{\f??|b0|i0|c0|p49;%%p0.2}
  3
STANDARD
100
AcDbAlignedDimension
 13
-96.24669377506961
 23
174.813883072274
 33
0.0
 14
-71.24669377506958
 24
176.813883072274
 34
0.0
100
AcDbRotatedDimension
  0
DIMENSION
  5
279
330
2
100
AcDbEntity
  8
0
100
AcDbDimension
  2
*D53
 10
-63.0776386196039
 20
176.813883072274
 30
0.0
 11
-63.07763861960393
 21
191.6633448663655
 31
0.0
 70
   160
  1
\A1;<>{\f??|b0|i0|c0|p49;\H0.7x;\S+0^ -0.03;}
  3
STANDARD
100
AcDbAlignedDimension
 13
-71.2466937750678
 23
172.813883072274
 33
0.0
 14
-71.2466937750678
 24
176.813883072274
 34
0.0
 50
90.0
100
AcDbRotatedDimension
  0
DIMENSION
  5
288
102
{ACAD_XDICTIONARY
360
289
102
}
102
{ACAD_REACTORS
330
28A
102
}
330
2
100
AcDbEntity
  8
0
100
AcDbDimension
  2
*D52
 10
10.35467174637326
 20
178.2135877852768
 30
0.0
 11
10.35467174637324
 21
194.4207306424214
 31
0.0
 70
   160
  1
\A1;<>{\f??|b0|i0|c0|p49;\H0.7x;\S+0.1^ -0;\H1.429x; }
  3
STANDARD
100
AcDbAlignedDimension
 13
-5.142660747808802
 23
175.7135877852769
 33
0.0
 14
-7.142660747810622
 24
178.2135877852768
 34
0.0
 50
90.0
100
AcDbRotatedDimension
  0
DIMENSION
  5
299
102
{ACAD_XDICTIONARY
360
29A
102
}
102
{ACAD_REACTORS
330
29B
102
}
330
2
100
AcDbEntity
  8
0
100
AcDbDimension
  2
*D51
 10
-50.076040488354
 20
185.4883587309076
 30
0.0
 11
-52.07604048835399
 21
188.9383587309076
 31
0.0
 70
    32
  1
\A1;<>{\f??|b0|i0|c0|p49;\H0.7x;\S+0^ -0.03;}
  3
STANDARD
100
AcDbAlignedDimension
 13
-54.07604048835399
 23
176.813883072274
 33
0.0
 14
-50.076040488354
 24
176.813883072274
 34
0.0
100
AcDbRotatedDimension
  0
LINE
  5
2AA
102
{ACAD_REACTORS
330
23B
102
}
330
2
100
AcDbEntity
  8
0
100
AcDbLine
 10
-5.142660747808802
 20
175.7135877852769
 30
0.0
 11
-5.142660747808802
 21
177.7961634802345
 31
0.0
  0
LINE
  5
2AB
102
{ACAD_REACTORS
330
23B
102
}
330
2
100
AcDbEntity
  8
0
100
AcDbLine
 10
-9.142660747808804
 20
175.7135877852769
 30
0.0
 11
-9.142660747808804
 21
177.7961634802345
 31
0.0
  0
CIRCLE
  5
2AC
102
{ACAD_REACTORS
330
28A
102
}
330
2
100
AcDbEntity
  8
0
100
AcDbCircle
 10
-7.142660747810622
 20
173.2135877852783
 30
0.0
 40
5.0
  0
LINE
  5
2AD
330
2
100
AcDbEntity
  8
0
  6
CENTER
 62
     1
 48
0.4
100
AcDbLine
 10
-52.07604048835583
 20
178.813883072274
 30
0.0
 11
-52.07604048835583
 21
170.813883072274
 31
0.0
  0
LINE
  5
2AE
330
2
100
AcDbEntity
  8
0
  6
CENTER
 62
     1
 48
0.4
100
AcDbLine
 10
-7.142660747810622
 20
183.1853524284943
 30
0.0
 11
-7.142660747810622
 21
162.556594205718
 31
0.0
  0
LINE
  5
2AF
330
2
100
AcDbEntity
  8
2
 62
     7
100
AcDbLine
 10
113.1049302302499
 20
278.9755553236104
 30
0.0
 11
110.604930230249
 21
278.9755553236104
 31
0.0
  0
LINE
  5
2B0
330
2
100
AcDbEntity
  8
2
 62
     7
100
AcDbLine
 10
110.1049302302498
 20
279.4755553236104
 30
0.0
 11
110.1049302302498
 21
280.9755553236104
 31
0.0
  0
ARC
  5
2B1
330
2
100
AcDbEntity
  8
2
 62
     7
100
AcDbCircle
 10
110.604930230249
 20
279.4755553236104
 30
0.0
 40
0.4999999999999968
100
AcDbArc
 50
180.0
 51
270.0
  0
LINE
  5
2B2
330
2
100
AcDbEntity
  8
0
100
AcDbLine
 10
154.6049302302499
 20
240.9755553236095
 30
0.0
 11
113.6049302302499
 21
240.9755553236095
 31
0.0
  0
LINE
  5
2B3
330
2
100
AcDbEntity
  8
0
100
AcDbLine
 10
110.604930230249
 20
278.9755553236104
 30
0.0
 11
113.1049302302499
 21
278.9755553236104
 31
0.0
  0
ARC
  5
2B4
330
2
100
AcDbEntity
  8
0
100
AcDbCircle
 10
113.6049302302499
 20
241.4755553236104
 30
0.0
 40
0.5
100
AcDbArc
 50
180.0
 51
270.0
  0
LINE
  5
2B5
330
2
100
AcDbEntity
  8
0
100
AcDbLine
 10
154.6049302302499
 20
241.4755553236104
 30
0.0
 11
154.6049302302499
 21
240.9755553236095
 31
0.0
  0
LINE
  5
2B6
330
2
100
AcDbEntity
  8
0
100
AcDbLine
 10
155.604930230249
 20
241.4755553236104
 30
0.0
 11
154.6049302302499
 21
241.4755553236104
 31
0.0
  0
ARC
  5
2B7
330
2
100
AcDbEntity
  8
0
100
AcDbCircle
 10
110.604930230249
 20
279.4755553236104
 30
0.0
 40
0.5
100
AcDbArc
 50
180.0
 51
270.0
  0
TEXT
  5
2B8
330
2
100
AcDbEntity
  8
1
  6
BYBLOCK
 62
     0
100
AcDbText
 10
120.1855267663167
 20
184.0266108767504
 30
0.0
 40
4.589999999999998
  1
K8G3~18B(C)
 41
0.8
  7
GHS
100
AcDbText
  0
DIMENSION
  5
2BB
330
2
100
AcDbEntity
  8
0
100
AcDbDimension
  2
*D58
 10
113.1049302302499
 20
227.8878742753186
 30
0.0
 11
134.3549302302494
 21
230.3878742753186
 31
0.0
 70
    32
  1
L
  3
STANDARD
100
AcDbAlignedDimension
 13
155.604930230249
 23
241.4755553236095
 33
0.0
 14
113.1049302302499
 24
241.4755553236095
 34
0.0
 50
180.0
100
AcDbRotatedDimension
  0
TEXT
  5
2C8
330
2
100
AcDbEntity
  8
1
  6
BYBLOCK
 62
     0
100
AcDbText
 10
116.9680283730603
 20
192.8908394930134
 30
0.0
 40
4.589999999999998
  1
APPLICATION MODEL
 41
0.8
  7
GHS
100
AcDbText
  0
TEXT
  5
2C9
330
2
100
AcDbEntity
  8
1
  6
BYBLOCK
 62
     0
100
AcDbText
 10
68.98333930604803
 20
183.8874845651485
 30
0.0
 40
4.589999999999998
  1
01
 41
0.8
  7
GHS
100
AcDbText
  0
TEXT
  5
2CA
330
2
100
AcDbEntity
  8
1
  6
BYBLOCK
 62
     0
100
AcDbText
 10
68.00746841255113
 20
192.7601871257154
 30
0.0
 40
4.589999999999998
  1
NO.
 41
0.8
  7
GHS
100
AcDbText
  0
TEXT
  5
2CB
330
2
100
AcDbEntity
  8
1
  6
BYBLOCK
 62
     0
100
AcDbText
 10
93.98617570140777
 20
183.5784593568869
 30
0.0
 40
4.589999999999998
  1
32
 41
0.8
  7
GHS
100
AcDbText
  0
TEXT
  5
2CC
330
2
100
AcDbEntity
  8
1
  6
BYBLOCK
 62
     0
100
AcDbText
 10
95.83497650712159
 20
192.5919892127716
 30
0.0
 40
4.589999999999998
  1
L
 41
0.8
  7
GHS
100
AcDbText
  0
LINE
  5
2CD
102
{ACAD_REACTORS
330
A3
102
}
330
2
100
AcDbEntity
  8
CEN
  6
BYBLOCK
 62
     0
100
AcDbLine
 10
110.1049302302498
 20
290.9755553236103
 30
0.0
 11
81.10493023024991
 21
290.9755553236103
 31
0.0
  0
LINE
  5
2CE
330
2
100
AcDbEntity
  8
1
  6
BYBLOCK
 62
     0
100
AcDbLine
 10
59.67607668164419
 20
204.1830632759523
 30
0.0
 11
109.3415144938706
 21
204.1830632759523
 31
0.0
  0
LINE
  5
2CF
330
2
100
AcDbEntity
  8
1
  6
BYBLOCK
 62
     0
100
AcDbLine
 10
59.67607668164419
 20
203.4540313149554
 30
0.0
 11
109.3415144938706
 21
203.4540313149554
 31
0.0
  0
LINE
  5
2D0
330
2
100
AcDbEntity
  8
1
  6
BYBLOCK
 62
     0
100
AcDbLine
 10
59.67607668164419
 20
203.2290313149573
 30
0.0
 11
109.3415144938706
 21
203.2290313149573
 31
0.0
  0
TEXT
  5
2D1
330
2
100
AcDbEntity
  8
1
 62
     0
100
AcDbText
 10
60.33806717585685
 20
205.2788131867131
 30
0.0
 40
4.589999999999998
  1
DIMENSION TABLE
 41
0.8
  7
GHS
100
AcDbText
  0
DIMENSION
  5
2D2
330
2
100
AcDbEntity
  8
0
100
AcDbDimension
  2
*D57
 10
113.1049302302499
 20
227.8878742753186
 30
0.0
 11
97.10493023024993
 21
230.3878742753186
 31
0.0
 70
    32
  3
STANDARD
100
AcDbAlignedDimension
 13
81.10493023024991
 23
290.9755553236095
 33
0.0
 14
113.1049302302499
 24
241.4755553236095
 34
0.0
 50
180.0
100
AcDbRotatedDimension
  0
LINE
  5
2DF
102
{ACAD_REACTORS
330
A3
102
}
330
2
100
AcDbEntity
  8
CEN
 48
0.6
100
AcDbLine
 10
69.49725709614813
 20
280.9755553236104
 30
0.0
 11
168.7643995698715
 21
280.9755553236104
 31
0.0
  0
LINE
  5
2E0
330
2
100
AcDbEntity
  8
1
  6
BYBLOCK
 62
     0
100
AcDbLine
 10
173.2000735162144
 20
181.4113743997443
 30
0.0
 11
60.44634325217703
 21
181.4113743997443
 31
0.0
  0
LINE
  5
2E1
330
2
100
AcDbEntity
  8
1
  6
BYBLOCK
 62
     0
100
AcDbLine
 10
173.2000735162144
 20
199.7713743997442
 30
0.0
 11
60.44634325217703
 21
199.7713743997442
 31
0.0
  0
LINE
  5
2E2
330
2
100
AcDbEntity
  8
1
  6
BYBLOCK
 62
     0
100
AcDbLine
 10
173.2000735162144
 20
190.5913743997441
 30
0.0
 11
60.44634325217703
 21
190.5913743997441
 31
0.0
  0
LINE
  5
2E3
330
2
100
AcDbEntity
  8
1
  6
BYBLOCK
 62
     0
100
AcDbLine
 10
173.2000735162144
 20
172.2313743997442
 30
0.0
 11
60.44634325217703
 21
172.2313743997442
 31
0.0
  0
LINE
  5
2E4
330
2
100
AcDbEntity
  8
1
  6
BYBLOCK
 62
     0
100
AcDbLine
 10
173.2000735162144
 20
199.7713743997442
 30
0.0
 11
173.2000735162144
 21
172.2313743997442
 31
0.0
  0
TEXT
  5
2E5
330
2
100
AcDbEntity
  8
1
  6
BYBLOCK
 62
     0
100
AcDbText
 10
120.5868796689283
 20
174.8466108767504
 30
0.0
 40
4.589999999999998
  1
K8G25~180B(C)
 41
0.8
  7
GHS
100
AcDbText
  0
LINE
  5
2E6
330
2
100
AcDbEntity
  8
1
  6
BYBLOCK
 62
     0
100
AcDbLine
 10
113.956160435694
 20
199.7713743997442
 30
0.0
 11
113.956160435694
 21
172.2313743997442
 31
0.0
  0
TEXT
  5
2E7
330
2
100
AcDbEntity
  8
1
  6
BYBLOCK
 62
     0
100
AcDbText
 10
68.98333930604803
 20
174.7074845651482
 30
0.0
 40
4.589999999999998
  1
02
 41
0.8
  7
GHS
100
AcDbText
  0
LINE
  5
2E8
330
2
100
AcDbEntity
  8
1
  6
BYBLOCK
 62
     0
100
AcDbLine
 10
84.26312645010328
 20
199.7713743997442
 30
0.0
 11
84.26312645010328
 21
172.2313743997442
 31
0.0
  0
LINE
  5
2E9
330
2
100
AcDbEntity
  8
1
  6
BYBLOCK
 62
     0
100
AcDbLine
 10
60.44634325217703
 20
199.7713743997442
 30
0.0
 11
60.44634325217703
 21
172.2313743997442
 31
0.0
  0
TEXT
  5
2EA
330
2
100
AcDbEntity
  8
1
  6
BYBLOCK
 62
     0
100
AcDbText
 10
93.98617570140777
 20
174.3984593568866
 30
0.0
 40
4.589999999999998
  1
42.5
 41
0.8
  7
GHS
100
AcDbText
  0
LEADER
  5
2EB
330
2
100
AcDbEntity
  8
0
100
AcDbLeader
  3
STANDARD
 73
     0
 75
     1
 40
3.0
 41
26.65178571428571
 76
     3
 10
20.11875754292848
 20
463.8889189227324
 30
0.0
 10
9.839074697792966
 20
493.0961787595323
 30
0.0
 10
7.339074697792966
 20
493.0961787595323
 30
0.0
340
2EC
213
0.0
223
-0.416076846235228
233
0.0
1001
ACAD
1000
DSTYLE
1002
{
1070
     5
1000

1070
   342
1005
0
1002
}
  0
MTEXT
  5
2EC
102
{ACAD_REACTORS
330
2EB
102
}
330
2
100
AcDbEntity
  8
0
 62
     3
100
AcDbMText
 10
6.339074697792966
 20
494.5122556057675
 30
0.0
 40
3.0
 41
0.0
 71
     9
 72
     1
  1
4-%%c5.5 hole
1001
ACAD
1000
MTEXTBEGIN
1070
    73
1070
     1
1070
    44
1040
1.0
1070
    74
1070
     0
1000
MTEXTEND
1000
MTEXTBEGIN
1070
    73
1070
     1
1070
    44
1040
1.0
1070
    74
1070
     0
1000
MTEXTEND
1000
MTEXTBEGIN
1070
    73
1070
     1
1070
    44
1040
1.0
1070
    74
1070
     0
1000
MTEXTEND
  0
DIMENSION
  5
2ED
330
2
100
AcDbEntity
  8
0
100
AcDbDimension
  2
*D62
 10
87.84361684510804
 20
487.7613918269076
 30
0.0
 11
81.59361684510896
 21
487.7613918269076
 31
0.0
 70
   160
  3
STANDARD
100
AcDbAlignedDimension
 13
74.34361684510895
 23
431.0099002069673
 33
0.0
 14
87.84361684510804
 24
467.9049002069675
 34
0.0
100
AcDbRotatedDimension
  0
DIMENSION
  5
2FA
330
2
100
AcDbEntity
  8
0
100
AcDbDimension
  2
*D61
 10
87.84361684510804
 20
477.4673879319979
 30
0.0
 11
78.84361684510896
 21
477.4673879319979
 31
0.0
 70
   160
  3
STANDARD
100
AcDbAlignedDimension
 13
85.84361684510895
 23
464.4049002069666
 33
0.0
 14
87.84361684510804
 24
467.9049002069675
 34
0.0
100
AcDbRotatedDimension
  0
LINE
  5
309
330
2
100
AcDbEntity
  8
CEN
 48
0.6
100
AcDbLine
 10
-13.34933162625748
 20
380.7327769985694
 30
0.0
 11
-13.34933162625748
 21
475.0770234153646
 31
0.0
  0
DIMENSION
  5
30A
102
{ACAD_XDICTIONARY
360
30B
102
}
102
{ACAD_REACTORS
330
30C
102
}
330
2
100
AcDbEntity
  8
0
100
AcDbDimension
  2
*D60
 10
26.65066837374252
 20
482.3794668567066
 30
0.0
 11
-11.74061024161618
 21
482.3794668567066
 31
0.0
 70
   160
  3
STANDARD
100
AcDbAlignedDimension
 13
-53.34933162625747
 23
462.9049002069685
 33
0.0
 14
26.65066837374252
 24
462.9049002069685
 34
0.0
100
AcDbRotatedDimension
  0
INSERT
  5
319
330
2
100
AcDbEntity
  8
0
100
AcDbBlockReference
  2
5
 10
-13.34933162625748
 20
427.9049002069687
 30
0.0
  0
DIMENSION
  5
31A
102
{ACAD_XDICTIONARY
360
31B
102
}
102
{ACAD_REACTORS
330
31C
102
}
330
2
100
AcDbEntity
  8
0
100
AcDbDimension
  2
*D59
 10
119.8436168451079
 20
487.7613918269083
 30
0.0
 11
103.8436168451079
 21
487.7613918269083
 31
0.0
 70
   160
  3
STANDARD
100
AcDbAlignedDimension
 13
87.84361684510804
 23
467.9049002069687
 33
0.0
 14
119.8436168451079
 24
467.9049002069687
 34
0.0
100
AcDbRotatedDimension
  0
CIRCLE
  5
329
330
2
100
AcDbEntity
  8
0
 48
0.6
100
AcDbCircle
 10
-13.34933162625748
 20
427.9049002069678
 30
0.0
 40
37.00000000000005
  0
LINE
  5
32A
330
2
100
AcDbEntity
  8
0
 48
0.6
100
AcDbLine
 10
-48.34933162625747
 20
387.9049002069687
 30
0.0
 11
21.65066837374252
 21
387.9049002069687
 31
0.0
  0
LINE
  5
32B
330
2
100
AcDbEntity
  8
CEN
 48
0.6
100
AcDbLine
 10
-57.42632135185338
 20
427.9049002069678
 30
0.0
 11
30.72765809933844
 21
427.9049002069678
 31
0.0
  0
LINE
  5
32C
330
2
100
AcDbEntity
  8
0
 48
0.6
100
AcDbLine
 10
-48.34933162625747
 20
467.9049002069675
 30
0.0
 11
21.65066837374252
 21
467.9049002069687
 31
0.0
  0
LINE
  5
32D
330
2
100
AcDbEntity
  8
0
 48
0.6
100
AcDbLine
 10
-53.34933162625747
 20
462.9049002069685
 30
0.0
 11
-53.34933162625747
 21
392.9049002069678
 31
0.0
  0
ARC
  5
32E
330
2
100
AcDbEntity
  8
0
 48
0.6
100
AcDbCircle
 10
-48.34933162625747
 20
392.9049002069678
 30
0.0
 40
5.0
100
AcDbArc
 50
180.0
 51
270.0
  0
LINE
  5
32F
330
2
100
AcDbEntity
  8
0
 48
0.6
100
AcDbLine
 10
6.102856337303816
 20
387.9049002069687
 30
0.0
 11
0.3618061107781614
 21
387.9049002069687
 31
0.0
  0
ARC
  5
330
102
{ACAD_REACTORS
330
30C
102
}
330
2
100
AcDbEntity
  8
0
 48
0.6
100
AcDbCircle
 10
-48.34933162625747
 20
462.9049002069685
 30
0.0
 40
5.0
100
AcDbArc
 50
90.0
 51
180.0
  0
CIRCLE
  5
331
330
2
100
AcDbEntity
  8
0
 48
0.6
100
AcDbCircle
 10
-13.34933162625748
 20
427.9049002069678
 30
0.0
 40
2.46089887076698
  0
CIRCLE
  5
332
330
2
100
AcDbEntity
  8
0
 48
0.6
100
AcDbCircle
 10
-13.34933162625748
 20
427.9049002069678
 30
0.0
 40
3.604999999999998
  0
LEADER
  5
333
330
2
100
AcDbEntity
  8
0
100
AcDbLeader
  3
STANDARD
 73
     0
 75
     1
 40
3.0
 41
26.65178571428571
 76
     3
 10
8.685828353525721
 20
316.9595740393773
 30
0.0
 10
-1.593854491612546
 20
337.1729176310982
 30
0.0
 10
-4.093854491612546
 20
337.1729176310982
 30
0.0
340
334
213
0.0
223
-0.416076846235228
233
0.0
1001
ACAD
1000
DSTYLE
1002
{
1070
     5
1000

1070
   342
1005
0
1002
}
  0
MTEXT
  5
334
102
{ACAD_REACTORS
330
333
102
}
330
2
100
AcDbEntity
  8
0
 62
     3
100
AcDbMText
 10
-5.093854491612544
 20
338.5889944773333
 30
0.0
 40
3.0
 41
0.0
 71
     9
 72
     1
  1
4-%%c5.5 hole
1001
ACAD
1000
MTEXTBEGIN
1070
    73
1070
     1
1070
    44
1040
1.0
1070
    74
1070
     0
1000
MTEXTEND
1000
MTEXTBEGIN
1070
    73
1070
     1
1070
    44
1040
1.0
1070
    74
1070
     0
1000
MTEXTEND
1000
MTEXTBEGIN
1070
    73
1070
     1
1070
    44
1040
1.0
1070
    74
1070
     0
1000
MTEXTEND
  0
LINE
  5
335
330
2
100
AcDbEntity
  8
0
 62
     0
 48
0.6
100
AcDbLine
 10
-22.54819036224124
 20
300.5581310185656
 30
0.0
 11
-22.54819036224124
 21
298.4755553236102
 31
0.0
  0
LINE
  5
336
330
2
100
AcDbEntity
  8
0
 62
     0
 48
0.6
100
AcDbLine
 10
-26.54819036224125
 20
300.5581310185656
 30
0.0
 11
-26.54819036224125
 21
298.4755553236102
 31
0.0
  0
LINE
  5
337
330
2
100
AcDbEntity
  8
0
 48
0.6
100
AcDbLine
 10
-26.54819036224125
 20
298.4755553236102
 30
0.0
 11
-22.54819036224124
 21
298.4755553236102
 31
0.0
  0
LINE
  5
338
330
2
100
AcDbEntity
  8
CEN
 48
0.6
100
AcDbLine
 10
-44.01379264978459
 20
295.9755553236103
 30
0.0
 11
-5.162094834515301
 21
295.9755553236103
 31
0.0
  0
ARC
  5
339
330
2
100
AcDbEntity
  8
0
 48
0.6
100
AcDbCircle
 10
10.45180963775783
 20
315.9755553236105
 30
0.0
 40
5.0
100
AcDbArc
 50
0.0
 51
90.0
  0
ARC
  5
33A
330
2
100
AcDbEntity
  8
0
 48
0.6
100
AcDbCircle
 10
-59.54819036224217
 20
315.9755553236105
 30
0.0
 40
5.0
100
AcDbArc
 50
90.0
 51
180.0
  0
LINE
  5
33B
330
2
100
AcDbEntity
  8
0
 48
0.6
100
AcDbLine
 10
-59.54819036224217
 20
320.9755553236103
 30
0.0
 11
10.45180963775783
 21
320.9755553236103
 31
0.0
  0
LINE
  5
33C
330
2
100
AcDbEntity
  8
0
100
AcDbLine
 10
119.8436168451079
 20
467.9049002069687
 30
0.0
 11
119.8436168451079
 21
387.9049002069669
 31
0.0
  0
LINE
  5
33D
102
{ACAD_REACTORS
330
341
102
}
330
2
100
AcDbEntity
  8
0
100
AcDbLine
 10
85.84361684510895
 20
464.4049002069666
 30
0.0
 11
85.84361684510895
 21
391.4049002069667
 31
0.0
  0
LINE
  5
33E
330
2
100
AcDbEntity
  8
0
100
AcDbLine
 10
87.84361684510804
 20
467.9049002069687
 30
0.0
 11
87.84361684510804
 21
387.9049002069669
 31
0.0
  0
DIMENSION
  5
33F
102
{ACAD_XDICTIONARY
360
340
102
}
102
{ACAD_REACTORS
330
341
102
}
330
2
100
AcDbEntity
  8
0
100
AcDbDimension
  2
*D65
 10
62.34251945373042
 20
464.4049002069666
 30
0.0
 11
62.34251945373035
 21
427.9049002069678
 31
0.0
 70
   160
  1
\A1;{\f??|b0|i0|c0|p49;%%C}<>{\f??|b0|i0|c0|p49;\H0.7x;\S+0^ -0.030;\H1.429x;(h7)}
  3
STANDARD
100
AcDbAlignedDimension
 13
85.84361684510895
 23
391.4049002069667
 33
0.0
 14
85.84361684510895
 24
464.4049002069666
 34
0.0
 50
90.0
100
AcDbRotatedDimension
  0
LINE
  5
34E
330
2
100
AcDbEntity
  8
0
100
AcDbLine
 10
87.84361684510804
 20
391.4049002069667
 30
0.0
 11
85.84361684510895
 21
391.4049002069667
 31
0.0
  0
LINE
  5
34F
330
2
100
AcDbEntity
  8
2
100
AcDbLine
 10
80.84361684510895
 20
429.8249002069674
 30
0.0
 11
74.84361684510895
 21
426.6494737264247
 31
0.0
  0
LINE
  5
350
330
2
100
AcDbEntity
  8
2
100
AcDbLine
 10
80.39751385532872
 20
430.6099002069666
 30
0.0
 11
74.84361684510895
 21
427.8041742648047
 31
0.0
  0
LINE
  5
351
330
2
100
AcDbEntity
  8
2
100
AcDbLine
 10
74.84361684510895
 20
431.5099002069673
 30
0.0
 11
74.84361684510895
 21
424.2999002069669
 31
0.0
  0
LINE
  5
352
330
2
100
AcDbEntity
  8
0
100
AcDbLine
 10
74.34361684510895
 20
431.0099002069673
 30
0.0
 11
74.34361684510895
 21
424.7999002069667
 31
0.0
  0
LINE
  5
353
330
2
100
AcDbEntity
  8
2
100
AcDbLine
 10
80.84361684510895
 20
430.6099002069666
 30
0.0
 11
80.84361684510895
 21
425.1999002069672
 31
0.0
  0
LINE
  5
354
330
2
100
AcDbEntity
  8
2
100
AcDbLine
 10
80.84361684510895
 20
428.6701996685873
 30
0.0
 11
74.84361684510895
 21
425.5423484038313
 31
0.0
  0
LINE
  5
355
330
2
100
AcDbEntity
  8
0
100
AcDbLine
 10
74.34361684510895
 20
425.1999002069672
 30
0.0
 11
80.84361684510895
 21
425.1999002069672
 31
0.0
  0
LINE
  5
356
330
2
100
AcDbEntity
  8
0
100
AcDbLine
 10
74.34361684510895
 20
424.7999002069667
 30
0.0
 11
74.84361684510895
 21
424.2999002069669
 31
0.0
  0
LINE
  5
357
330
2
100
AcDbEntity
  8
0
100
AcDbLine
 10
74.34361684510895
 20
430.6099002069666
 30
0.0
 11
80.84361684510895
 21
430.6099002069666
 31
0.0
  0
LINE
  5
358
330
2
100
AcDbEntity
  8
0
100
AcDbLine
 10
74.84361684510895
 20
431.5099002069673
 30
0.0
 11
74.34361684510895
 21
431.0099002069673
 31
0.0
  0
LINE
  5
359
330
2
100
AcDbEntity
  8
0
100
AcDbLine
 10
74.84361684510895
 20
424.2999002069677
 30
0.0
 11
85.84361684510895
 21
424.2999002069677
 31
0.0
  0
LINE
  5
35A
330
2
100
AcDbEntity
  8
0
100
AcDbLine
 10
74.84361684510895
 20
431.5099002069673
 30
0.0
 11
85.84361684510895
 21
431.5099002069673
 31
0.0
  0
ARC
  5
35B
330
2
100
AcDbEntity
  8
0
100
AcDbCircle
 10
80.88680375593776
 20
398.3836693179178
 30
0.0
 40
26.81626566478071
100
AcDbArc
 50
79.34799026071575
 51
90.09227342916824
  0
ARC
  5
35C
330
2
100
AcDbEntity
  8
0
100
AcDbCircle
 10
80.88680375594412
 20
457.4261310959878
 30
0.0
 40
26.81626566475105
100
AcDbArc
 50
269.9077265708258
 51
280.65200973929
  0
LINE
  5
35D
330
2
100
AcDbEntity
  8
0
100
AcDbLine
 10
87.84361684510804
 20
464.4049002069666
 30
0.0
 11
85.84361684510895
 21
464.4049002069666
 31
0.0
  0
LINE
  5
35E
330
2
100
AcDbEntity
  8
0
 48
0.6
100
AcDbLine
 10
26.65066837374252
 20
462.9049002069685
 30
0.0
 11
26.65066837374252
 21
392.9049002069678
 31
0.0
  0
ARC
  5
35F
330
2
100
AcDbEntity
  8
0
 48
0.6
100
AcDbCircle
 10
21.65066837374252
 20
392.9049002069678
 30
0.0
 40
5.0
100
AcDbArc
 50
270.0
 51
0.0
  0
ARC
  5
360
102
{ACAD_REACTORS
330
30C
102
}
330
2
100
AcDbEntity
  8
0
 48
0.6
100
AcDbCircle
 10
21.65066837374252
 20
462.9049002069685
 30
0.0
 40
5.0
100
AcDbArc
 50
0.0
 51
90.0
  0
LINE
  5
361
330
2
100
AcDbEntity
  8
0
100
AcDbLine
 10
87.84361684510804
 20
387.9049002069669
 30
0.0
 11
119.8436168451079
 21
387.9049002069669
 31
0.0
  0
LINE
  5
362
330
2
100
AcDbEntity
  8
CEN
 48
0.6
100
AcDbLine
 10
128.9568499894858
 20
427.9049002069678
 30
0.0
 11
70.19982304447331
 21
427.9049002069678
 31
0.0
  0
LINE
  5
363
102
{ACAD_REACTORS
330
31C
102
}
330
2
100
AcDbEntity
  8
0
100
AcDbLine
 10
87.84361684510804
 20
467.9049002069687
 30
0.0
 11
119.8436168451079
 21
467.9049002069687
 31
0.0
  0
LINE
  5
364
330
2
100
AcDbEntity
  8
0
100
AcDbLine
 10
154.6049302302499
 20
320.9755553236103
 30
0.0
 11
113.6049302302499
 21
320.9755553236103
 31
0.0
  0
LINE
  5
365
330
2
100
AcDbEntity
  8
0
100
AcDbLine
 10
110.604930230249
 20
312.9755553236102
 30
0.0
 11
113.1049302302499
 21
312.9755553236102
 31
0.0
  0
ARC
  5
366
330
2
100
AcDbEntity
  8
0
100
AcDbCircle
 10
113.6049302302499
 20
320.4755553236103
 30
0.0
 40
0.5
100
AcDbArc
 50
90.0
 51
180.0
  0
LINE
  5
367
330
2
100
AcDbEntity
  8
0
100
AcDbLine
 10
154.6049302302499
 20
320.9755553236103
 30
0.0
 11
154.6049302302499
 21
320.4755553236103
 31
0.0
  0
LINE
  5
368
330
2
100
AcDbEntity
  8
0
100
AcDbLine
 10
155.604930230249
 20
320.4755553236103
 30
0.0
 11
154.6049302302499
 21
320.4755553236103
 31
0.0
  0
LINE
  5
369
102
{ACAD_REACTORS
330
37C
102
}
330
2
100
AcDbEntity
  8
0
  6
HIDDEN
 62
     2
100
AcDbLine
 10
106.104930230249
 20
300.9755553236103
 30
0.0
 11
106.104930230249
 21
298.4755553236102
 31
0.0
  0
ARC
  5
36A
330
2
100
AcDbEntity
  8
0
100
AcDbCircle
 10
110.604930230249
 20
312.4755553236095
 30
0.0
 40
0.5
100
AcDbArc
 50
90.0
 51
180.0
  0
DIMENSION
  5
36B
330
2
100
AcDbEntity
  8
0
100
AcDbDimension
  2
*D64
 10
110.1049302302498
 20
327.5854832325149
 30
0.0
 11
111.6049302302499
 21
327.5854832325149
 31
0.0
 70
   160
  3
STANDARD
100
AcDbAlignedDimension
 13
113.1049302302499
 23
320.4755553236095
 33
0.0
 14
110.1049302302498
 24
312.4755553236095
 34
0.0
 50
180.0
100
AcDbRotatedDimension
  0
DIMENSION
  5
37A
102
{ACAD_XDICTIONARY
360
37B
102
}
102
{ACAD_REACTORS
330
37C
102
}
330
2
100
AcDbEntity
  8
0
100
AcDbDimension
  2
*D63
 10
81.10493023024991
 20
317.1958435305127
 30
0.0
 11
93.91586089764677
 21
317.1958435305127
 31
0.0
 70
   160
  3
STANDARD
100
AcDbAlignedDimension
 13
106.104930230249
 23
300.9755553236103
 33
0.0
 14
81.10493023024991
 24
300.9755553236095
 34
0.0
 50
180.0
100
AcDbRotatedDimension
  0
LINE
  5
389
102
{ACAD_REACTORS
330
A3
102
}
330
2
100
AcDbEntity
  8
CEN
  6
HIDDEN
 62
     2
100
AcDbLine
 10
106.104930230249
 20
298.4755553236102
 30
0.0
 11
81.10493023024991
 21
298.4755553236102
 31
0.0
  0
LINE
  5
38A
102
{ACAD_REACTORS
330
A3
330
37C
330
B4
102
}
330
2
100
AcDbEntity
  8
CEN
  6
BYBLOCK
 62
     0
100
AcDbLine
 10
110.1049302302498
 20
300.9755553236103
 30
0.0
 11
81.10493023024991
 21
300.9755553236103
 31
0.0
  0
LINE
  5
38B
102
{ACAD_REACTORS
330
A3
102
}
330
2
100
AcDbEntity
  8
CEN
 48
0.6
100
AcDbLine
 10
120.8528776129533
 20
295.9755553236103
 30
0.0
 11
77.20679142902463
 21
295.9755553236103
 31
0.0
  0
LWPOLYLINE
  5
38C
330
2
100
AcDbEntity
  8
3
100
AcDbPolyline
 90
        4
 70
     1
 43
0.0
 10
-18.64855553920642
 20
483.1929040735226
 10
-15.34855553920624
 20
483.1929040735226
 10
-15.34855553920624
 20
486.6929040735226
 10
-18.64855553920642
 20
486.6929040735226
  0
ENDSEC
  0
SECTION
  2
OBJECTS
  0
DICTIONARY
  5
9
330
0
100
AcDbDictionary
  3
ACAD_GROUP
350
98
  3
ACAD_LAYOUT
350
D
  3
ACAD_MLINESTYLE
350
99
  3
ACAD_PLOTSETTINGS
350
9A
  3
ACAD_PLOTSTYLENAME
350
8
  3
ACDBHEADERROUNDTRIPXREC
350
5BD
  3
ACDBVARIABLEDICTIONARY
350
38D
  0
DICTIONARY
  5
15
330
14
100
AcDbDictionary
280
     1
  3
ACAD_LAYERFILTERS
360
16
  3
ACAD_LAYERSTATES
360
89
  0
DICTIONARY
  5
3
330
2
100
AcDbDictionary
280
     1
  3
ACAD_LAYOUTSELFREF
360
5DE
  0
DICTIONARY
  5
F
330
E
100
AcDbDictionary
280
     1
  3
ACAD_LAYOUTSELFREF
360
5DF
  0
DICTIONARY
  5
CB
330
CA
100
AcDbDictionary
280
     1
  3
ACAD_DIMASSOC
360
CC
  0
DICTIONARY
  5
A2
330
A1
100
AcDbDictionary
280
     1
  3
ACAD_DIMASSOC
360
A3
  0
DICTIONARY
  5
B3
330
B2
100
AcDbDictionary
280
     1
  3
ACAD_DIMASSOC
360
B4
  0
DICTIONARY
  5
F8
330
F7
100
AcDbDictionary
280
     1
  3
ACAD_DIMASSOC
360
F9
  0
DICTIONARY
  5
109
330
108
100
AcDbDictionary
280
     1
  3
ACAD_DIMASSOC
360
10A
  0
DICTIONARY
  5
125
330
124
100
AcDbDictionary
280
     1
  3
ACAD_DIMASSOC
360
126
  0
DICTIONARY
  5
141
330
140
100
AcDbDictionary
280
     1
  3
ACAD_DIMASSOC
360
142
  0
DICTIONARY
  5
15F
330
15E
100
AcDbDictionary
280
     1
  3
ACAD_DIMASSOC
360
160
  0
DICTIONARY
  5
170
330
16F
100
AcDbDictionary
280
     1
  3
ACAD_DIMASSOC
360
171
  0
DICTIONARY
  5
1A7
330
1A6
100
AcDbDictionary
280
     1
  3
ACAD_DIMASSOC
360
1A8
  0
DICTIONARY
  5
1DF
330
1DE
100
AcDbDictionary
280
     1
  3
ACAD_DIMASSOC
360
1E0
  0
DICTIONARY
  5
1F2
330
1F1
100
AcDbDictionary
280
     1
  3
ACAD_DIMASSOC
360
1F3
  0
DICTIONARY
  5
21F
330
21E
100
AcDbDictionary
280
     1
  3
ACAD_DIMASSOC
360
220
  0
DICTIONARY
  5
23A
330
239
100
AcDbDictionary
280
     1
  3
ACAD_DIMASSOC
360
23B
  0
DICTIONARY
  5
24F
330
24E
100
AcDbDictionary
280
     1
  3
ACAD_DIMASSOC
360
250
  0
DICTIONARY
  5
26B
330
26A
100
AcDbDictionary
280
     1
  3
ACAD_DIMASSOC
360
26C
  0
DICTIONARY
  5
289
330
288
100
AcDbDictionary
280
     1
  3
ACAD_DIMASSOC
360
28A
  0
DICTIONARY
  5
29A
330
299
100
AcDbDictionary
280
     1
  3
ACAD_DIMASSOC
360
29B
  0
DICTIONARY
  5
30B
330
30A
100
AcDbDictionary
280
     1
  3
ACAD_DIMASSOC
360
30C
  0
DICTIONARY
  5
31B
330
31A
100
AcDbDictionary
280
     1
  3
ACAD_DIMASSOC
360
31C
  0
DICTIONARY
  5
340
330
33F
100
AcDbDictionary
280
     1
  3
ACAD_DIMASSOC
360
341
  0
DICTIONARY
  5
37B
330
37A
100
AcDbDictionary
280
     1
  3
ACAD_DIMASSOC
360
37C
  0
DICTIONARY
  5
98
102
{ACAD_REACTORS
330
9
102
}
330
9
100
AcDbDictionary
  0
DICTIONARY
  5
D
102
{ACAD_REACTORS
330
9
102
}
330
9
100
AcDbDictionary
  0
DICTIONARY
  5
99
102
{ACAD_REACTORS
330
9
102
}
330
9
100
AcDbDictionary
  3
STANDARD
350
9B
  0
DICTIONARY
  5
9A
102
{ACAD_REACTORS
330
9
102
}
330
9
100
AcDbDictionary
  0
ACDBDICTIONARYWDFLT
  5
8
102
{ACAD_REACTORS
330
9
102
}
330
9
100
AcDbDictionary
281
     1
  3
Normal
350
7
100
AcDbDictionaryWithDefault
340
7
  0
DICTIONARY
  5
5BD
102
{ACAD_REACTORS
330
9
102
}
330
9
100
AcDbDictionary
  3
CEPSNTYPE
350
5C7
  3
DIMSTYLEDATA
350
5CB
  3
FINGERPRINTGUID
350
5C8
  3
HYPERLINKBASE
350
5C0
  3
INSUNITS
350
5C6
  3
LAYOUTDICT
350
5C2
  3
LWETCUNION
350
5C5
  3
PLOTSETDICT
350
5C3
  3
PLOTSTYLNAMDICT
350
5C4
  3
PSVPSCALE
350
5CA
  3
PUCSBASE
350
5CE
  3
PUCSORGBACK
350
5D4
  3
PUCSORGBOTTOM
350
5D0
  3
PUCSORGFRONT
350
5D3
  3
PUCSORGLEFT
350
5D1
  3
PUCSORGRIGHT
350
5D2
  3
PUCSORGTOP
350
5CF
  3
PUCSORTHOREF
350
5CC
  3
PUCSORTHOVIEW
350
5CD
  3
STYLESHEET
350
5C1
  3
TSTACKALIGN
350
5BE
  3
TSTACKSIZE
350
5BF
  3
UCSBASE
350
5D7
  3
UCSORGBACK
350
5DD
  3
UCSORGBOTTOM
350
5D9
  3
UCSORGFRONT
350
5DC
  3
UCSORGLEFT
350
5DA
  3
UCSORGRIGHT
350
5DB
  3
UCSORGTOP
350
5D8
  3
UCSORTHOREF
350
5D5
  3
UCSORTHOVIEW
350
5D6
  3
VERSIONGUID
350
5C9
  0
DICTIONARY
  5
38D
102
{ACAD_REACTORS
330
9
102
}
330
9
100
AcDbDictionary
  3
DIMASSOC
350
38F
  3
HIDETEXT
350
38E
  0
DICTIONARY
  5
16
102
{ACAD_REACTORS
330
15
102
}
330
15
100
AcDbDictionary
280
     1
  3
$LAYERS
360
17
  3
-_UND_0
360
18
  3
-PEGC
360
19
  3
101
360
1A
  3
102
360
1B
  3
1DUC
360
1C
  3
1EQ
360
1D
  3
1TUB
360
1E
  3
2
360
1F
  3
2000
360
20
  3
50
360
21
  3
58J
360
22
  3
65
360
23
  3
AA
360
24
  3
ACABADOS
360
25
  3
AGUA_Y_DREN
360
26
  3
AIRE
360
27
  3
ALLE_AUS
360
28
  3
ALLES_MIT_S
360
29
  3
AMARILLO
360
2A
  3
APAGADOS
360
2B
  3
ARR
360
2C
  3
BA
360
2D
  3
BACKS
360
2E
  3
BASE
360
2F
  3
BLOQ_INUTIL
360
30
  3
CADKON
360
31
  3
CARPINTERIA
360
32
  3
CERRADOS
360
33
  3
COL
360
34
  3
COLOR
360
35
  3
COLOR_250
360
36
  3
COLORES
360
37
  3
CONGELADOS
360
38
  3
CONJUNTO
360
39
  3
D1
360
3A
  3
DA_
360
3B
  3
DET-
360
3C
  3
DOR-H
360
3D
  3
EJES
360
3E
  3
ELECTRICO
360
3F
  3
F1
360
40
  3
FROZEN
360
41
  3
GRID
360
42
  3
GRIDTXT
360
43
  3
HATCH
360
44
  3
HCAD
360
45
  3
INSTALACIONES
360
46
  3
JIZNI
360
47
  3
KCK
360
48
  3
KKK
360
49
  3
LAY
360
4A
  3
LAYER-0
360
4E
  3
LAYER-1
360
4F
  3
LAYER_1_UND_0
360
4B
  3
LAYER_2_UND_0
360
4C
  3
LAYER_9_UND_0_SCHRAFFUR
360
4D
  3
LOCK
360
50
  3
LOCKED
360
51
  3
LOTES
360
52
  3
LUNAR
360
53
  3
LUNAR2
360
54
  3
M
360
55
  3
MIS_LAYERS
360
56
  3
MRKCK
360
57
  3
NECADKON
360
58
  3
NI_LH
360
59
  3
NI_RH
360
5A
  3
NUM
360
5B
  3
OFF
360
5C
  3
ON
360
5D
  3
PBASE
360
5E
  3
PEGC
360
5F
  3
PEGCT
360
60
  3
PFRAME
360
61
  3
PGRID
360
62
  3
PGRIDT
360
63
  3
PLAFONES
360
64
  3
PLANTAS
360
65
  3
PLOT
360
66
  3
PRENDIDAS
360
67
  3
PRENDIDOS
360
68
  3
PRINT
360
69
  3
PT
360
6A
  3
PTH
360
6B
  3
PVGRID
360
6C
  3
RED_DE_AGUA_POTABLE
360
6D
  3
RED_DE_ENERGIA_ELECTRICA
360
6E
  3
SEVERNI
360
6F
  3
SHIN
360
70
  3
SHOW_ALL_LAYER
360
71
  3
SIN
360
72
  3
STORAGE-CART
360
73
  3
T
360
74
  3
TEXTOS
360
75
  3
TEXTURAS
360
76
  3
TUBERIAS
360
77
  3
UNFRZ
360
78
  3
V\U+0160ECHNY_NEPOU\U+017D\U+00CDVAN\U+00C9
360
79
  3
VA
360
7A
  3
VENTILACI\U+00D3N
360
7B
  3
VYHODNI
360
7C
  3
YO
360
7D
  3
ZAPADNI
360
7E
  3
사용
360
7F
  3
신규
360
80
  3
실박스
360
81
  3
우리토목
360
82
  3
주차
360
83
  3
지상정밀
360
84
  3
쩜선
360
85
  3
플로터_작업층
360
86
  3
현재_작업층
360
87
  3
현재_잠금
360
88
  0
DICTIONARY
  5
89
102
{ACAD_REACTORS
330
15
102
}
330
15
100
AcDbDictionary
  0
XRECORD
  5
5DE
102
{ACAD_REACTORS
330
3
102
}
330
3
100
AcDbXrecord
340
2
  0
XRECORD
  5
5DF
102
{ACAD_REACTORS
330
F
102
}
330
F
100
AcDbXrecord
340
E
  0
DIMASSOC
  5
CC
102
{ACAD_REACTORS
330
CB
102
}
330
CB
100
AcDbDimAssoc
330
CA
 90
        2
 70
     0
 71
     0
  1
AcDbOsnapPointRef
 72
     3
331
C9
 73
     2
 91
        0
 40
0.0
 10
-0.0000000000009095
 20
0.0
 30
0.0
 75
     0
  0
DIMASSOC
  5
A3
102
{ACAD_REACTORS
330
A2
102
}
330
A2
100
AcDbDimAssoc
330
A1
 90
        3
 70
     0
 71
     0
  1
AcDbOsnapPointRef
 72
     1
331
38B
 73
     2
 91
        0
 40
1.0
 10
77.20679142902463
 20
295.9755553236103
 30
0.0
 75
     0
  1
AcDbOsnapPointRef
 72
    13
331
2DF
 73
     2
 91
        0
 40
0.0
 10
69.49725709614813
 20
280.9755553236104
 30
0.0
 75
     0
  0
DIMASSOC
  5
B4
102
{ACAD_REACTORS
330
B3
102
}
330
B3
100
AcDbDimAssoc
330
B2
 90
        3
 70
     0
 71
     0
  1
AcDbOsnapPointRef
 72
     1
331
A0
 73
     2
 91
        0
 40
1.0
 10
81.10493023024991
 20
290.9755553236103
 30
0.0
 75
     0
  1
AcDbOsnapPointRef
 72
     6
331
A0
 73
     2
 91
        0
 40
0.0000000000000114
 10
81.10493023024991
 20
300.9755553236103
 30
0.0
332
38A
 74
     2
 92
        0
 75
     0
  0
DIMASSOC
  5
F9
102
{ACAD_REACTORS
330
F8
102
}
330
F8
100
AcDbDimAssoc
330
F7
 90
        3
 70
     0
 71
     0
  1
AcDbOsnapPointRef
 72
     1
331
219
 73
     2
 91
        0
 40
1.0
 10
34.77122403813881
 20
69.32070207339984
 30
0.0
 75
     0
  1
AcDbOsnapPointRef
 72
     6
331
219
 73
     2
 91
        0
 40
0.0000000000000114
 10
34.77122403813881
 20
79.32070207339984
 30
0.0
332
21D
 74
     2
 92
        0
 75
     0
  0
DIMASSOC
  5
10A
102
{ACAD_REACTORS
330
109
102
}
330
109
100
AcDbDimAssoc
330
108
 90
        3
 70
     0
 71
     0
  1
AcDbOsnapPointRef
 72
     1
331
1A3
 73
     2
 91
        0
 40
3.141592653589792
 10
-108.3144296661466
 20
94.32070207339984
 30
0.0
 75
     0
  1
AcDbOsnapPointRef
 72
    13
331
1A0
 73
     2
 91
        0
 40
0.0
 10
-28.31442966614668
 20
94.32070207339984
 30
0.0
 75
     0
  0
DIMASSOC
  5
126
102
{ACAD_REACTORS
330
125
102
}
330
125
100
AcDbDimAssoc
330
124
 90
        3
 70
     0
 71
     0
  1
AcDbOsnapPointRef
 72
    13
331
1BF
 73
     2
 91
        0
 40
0.0
 10
106.7712240381387
 20
99.32070207339984
 30
0.0
 75
     0
  1
AcDbOsnapPointRef
 72
     1
331
1DB
 73
     2
 91
        0
 40
1.0
 10
113.7712240381397
 20
97.91943941492764
 30
0.0
 75
     0
  0
DIMASSOC
  5
142
102
{ACAD_REACTORS
330
141
102
}
330
141
100
AcDbDimAssoc
330
140
 90
        3
 70
     0
 71
     0
  1
AcDbOsnapPointRef
 72
    13
331
1EE
 73
     2
 91
        0
 40
0.0
 10
191.7712240381386
 20
96.32070207339985
 30
0.0
 75
     0
  1
AcDbOsnapPointRef
 72
    13
331
1ED
 73
     2
 91
        0
 40
0.0
 10
201.7712240381396
 20
81.82070207339984
 30
0.0
 75
     0
  0
DIMASSOC
  5
160
102
{ACAD_REACTORS
330
15F
102
}
330
15F
100
AcDbDimAssoc
330
15E
 90
        1
 70
     0
 71
     0
  1
AcDbOsnapPointRef
 72
     1
331
21D
 73
     2
 91
        0
 40
1.0
 10
34.77122403813881
 20
79.32070207339984
 30
0.0
 75
     0
  0
DIMASSOC
  5
171
102
{ACAD_REACTORS
330
170
102
}
330
170
100
AcDbDimAssoc
330
16F
 90
        1
 70
     0
 71
     0
  1
AcDbOsnapPointRef
 72
     1
331
1BB
 73
     2
 91
        0
 40
1.0
 10
30.87308523691354
 20
74.32070207339984
 30
0.0
 75
     0
  0
DIMASSOC
  5
1A8
102
{ACAD_REACTORS
330
1A7
102
}
330
1A7
100
AcDbDimAssoc
330
1A6
 90
        3
 70
     0
 71
     0
  1
AcDbOsnapPointRef
 72
    13
331
19A
 73
     2
 91
        0
 40
0.0
 10
-51.81741014920226
 20
19.49337381685062
 30
0.0
 75
     0
  1
AcDbOsnapPointRef
 72
     1
331
19A
 73
     2
 91
        0
 40
1.0
 10
-68.31442966614668
 20
59.32070207339982
 30
0.0
 75
     0
  0
DIMASSOC
  5
1E0
102
{ACAD_REACTORS
330
1DF
102
}
330
1DF
100
AcDbDimAssoc
330
1DE
 90
        3
 70
     0
 71
     0
  1
AcDbOsnapPointRef
 72
     1
331
20F
 73
     2
 91
        0
 40
1.570796326794896
 10
200.7712240381386
 20
82.82070207339984
 30
0.0
 75
     0
  1
AcDbOsnapPointRef
 72
    13
331
20B
 73
     2
 91
        0
 40
4.712388980384688
 10
200.7712240381386
 20
35.82070207339984
 30
0.0
 75
     0
  0
DIMASSOC
  5
1F3
102
{ACAD_REACTORS
330
1F2
102
}
330
1F2
100
AcDbDimAssoc
330
1F1
 90
        3
 70
     0
 71
     0
  1
AcDbOsnapPointRef
 72
     1
331
1F0
 73
     2
 91
        0
 40
1.0
 10
184.7712240381386
 20
98.82070207339985
 30
0.0
 75
     0
  1
AcDbOsnapPointRef
 72
    13
331
1BE
 73
     2
 91
        0
 40
0.0
 10
184.7712240381386
 20
19.82070207339982
 30
0.0
 75
     0
  0
DIMASSOC
  5
220
102
{ACAD_REACTORS
330
21F
102
}
330
21F
100
AcDbDimAssoc
330
21E
 90
        3
 70
     0
 71
     0
  1
AcDbOsnapPointRef
 72
    13
331
1D7
 73
     2
 91
        0
 40
0.0
 10
59.77122403813883
 20
79.32070207339984
 30
0.0
 75
     0
  1
AcDbOsnapPointRef
 72
     1
331
21D
 73
     2
 91
        0
 40
1.0
 10
34.77122403813881
 20
79.32070207339984
 30
0.0
 75
     0
  0
DIMASSOC
  5
23B
102
{ACAD_REACTORS
330
23A
102
}
330
23A
100
AcDbDimAssoc
330
239
 90
        3
 70
     0
 71
     0
  1
AcDbOsnapPointRef
 72
     1
331
2AB
 73
     2
 91
        0
 40
1.0
 10
-9.142660747808804
 20
177.7961634802345
 30
0.0
 75
     0
  1
AcDbOsnapPointRef
 72
     1
331
2AA
 73
     2
 91
        0
 40
1.0
 10
-5.142660747808802
 20
177.7961634802345
 30
0.0
 75
     0
  0
DIMASSOC
  5
250
102
{ACAD_REACTORS
330
24F
102
}
330
24F
100
AcDbDimAssoc
330
24E
 90
        2
 70
     0
 71
     0
  1
AcDbOsnapPointRef
 72
     1
331
E9
 73
     2
 91
        0
 40
1.0
 10
15.45180963775783
 20
245.9755553236104
 30
0.0
 75
     0
  0
DIMASSOC
  5
26C
102
{ACAD_REACTORS
330
26B
102
}
330
26B
100
AcDbDimAssoc
330
26A
 90
        3
 70
     0
 71
     0
  1
AcDbOsnapPointRef
 72
     2
331
260
 73
     2
 91
        0
 40
3.141592653589792
 10
-96.24669377506961
 20
174.813883072274
 30
0.0
 75
     0
  1
AcDbOsnapPointRef
 72
     1
331
25D
 73
     2
 91
        0
 40
1.0
 10
-71.2466937750678
 20
176.813883072274
 30
0.0
 75
     0
  0
DIMASSOC
  5
28A
102
{ACAD_REACTORS
330
289
102
}
330
289
100
AcDbDimAssoc
330
288
 90
        3
 70
     0
 71
     0
  1
AcDbOsnapPointRef
 72
     1
331
262
 73
     2
 91
        0
 40
1.0
 10
-5.142660747808802
 20
175.7135877852769
 30
0.0
 75
     0
  1
AcDbOsnapPointRef
 72
     5
331
2AC
 73
     2
 91
        0
 40
1.570796326794896
 10
-7.142660747810618
 20
178.2135877852783
 30
0.0
 75
     0
  0
DIMASSOC
  5
29B
102
{ACAD_REACTORS
330
29A
102
}
330
29A
100
AcDbDimAssoc
330
299
 90
        3
 70
     0
 71
     0
  1
AcDbOsnapPointRef
 72
    13
331
265
 73
     2
 91
        0
 40
0.0
 10
-54.07604048835399
 20
176.813883072274
 30
0.0
 75
     0
  1
AcDbOsnapPointRef
 72
    13
331
266
 73
     2
 91
        0
 40
0.0
 10
-50.076040488354
 20
176.813883072274
 30
0.0
 75
     0
  0
DIMASSOC
  5
30C
102
{ACAD_REACTORS
330
30B
102
}
330
30B
100
AcDbDimAssoc
330
30A
 90
        3
 70
     0
 71
     0
  1
AcDbOsnapPointRef
 72
     1
331
330
 73
     2
 91
        0
 40
3.141592653589792
 10
-53.34933162625747
 20
462.9049002069685
 30
0.0
 75
     0
  1
AcDbOsnapPointRef
 72
    13
331
360
 73
     2
 91
        0
 40
0.0
 10
26.65066837374252
 20
462.9049002069685
 30
0.0
 75
     0
  0
DIMASSOC
  5
31C
102
{ACAD_REACTORS
330
31B
102
}
330
31B
100
AcDbDimAssoc
330
31A
 90
        3
 70
     0
 71
     0
  1
AcDbOsnapPointRef
 72
    13
331
363
 73
     2
 91
        0
 40
0.0
 10
87.84361684510804
 20
467.9049002069687
 30
0.0
 75
     0
  1
AcDbOsnapPointRef
 72
     1
331
363
 73
     2
 91
        0
 40
1.0
 10
119.8436168451079
 20
467.9049002069687
 30
0.0
 75
     0
  0
DIMASSOC
  5
341
102
{ACAD_REACTORS
330
340
102
}
330
340
100
AcDbDimAssoc
330
33F
 90
        3
 70
     0
 71
     0
  1
AcDbOsnapPointRef
 72
     1
331
33D
 73
     2
 91
        0
 40
1.0
 10
85.84361684510895
 20
391.4049002069667
 30
0.0
 75
     0
  1
AcDbOsnapPointRef
 72
    13
331
33D
 73
     2
 91
        0
 40
0.0
 10
85.84361684510895
 20
464.4049002069666
 30
0.0
 75
     0
  0
DIMASSOC
  5
37C
102
{ACAD_REACTORS
330
37B
102
}
330
37B
100
AcDbDimAssoc
330
37A
 90
        3
 70
     0
 71
     0
  1
AcDbOsnapPointRef
 72
    13
331
369
 73
     2
 91
        0
 40
0.0
 10
106.104930230249
 20
300.9755553236103
 30
0.0
 75
     0
  1
AcDbOsnapPointRef
 72
     1
331
38A
 73
     2
 91
        0
 40
1.0
 10
81.10493023024991
 20
300.9755553236103
 30
0.0
 75
     0
  0
MLINESTYLE
  5
9B
102
{ACAD_REACTORS
330
99
102
}
330
99
100
AcDbMlineStyle
  2
STANDARD
 70
     0
  3

 62
   256
 51
90.0
 52
90.0
 71
     2
 49
0.5
 62
   256
  6
BYLAYER
 49
-0.5
 62
   256
  6
BYLAYER
  0
ACDBPLACEHOLDER
  5
7
102
{ACAD_REACTORS
330
8
102
}
330
8
100
AcDbPlaceHolder
280
     0
  0
XRECORD
  5
5C7
102
{ACAD_REACTORS
330
5BD
102
}
330
5BD
100
AcDbXrecord
 90
        0
  0
XRECORD
  5
5CB
102
{ACAD_REACTORS
330
5BD
102
}
330
5BD
100
AcDbXrecord
1000
DSTYLE
1002
{
1070
    79
 70
     2
1070
   179
 70
     1
1002
}
  0
XRECORD
  5
5C8
102
{ACAD_REACTORS
330
5BD
102
}
330
5BD
100
AcDbXrecord
  1
{FDEAD578-A652-11D2-9A35-0060089B3A3F}
  0
XRECORD
  5
5C0
102
{ACAD_REACTORS
330
5BD
102
}
330
5BD
100
AcDbXrecord
  1

  0
XRECORD
  5
5C6
102
{ACAD_REACTORS
330
5BD
102
}
330
5BD
100
AcDbXrecord
 90
        4
  0
XRECORD
  5
5C2
102
{ACAD_REACTORS
330
5BD
102
}
330
5BD
100
AcDbXrecord
340
D
  0
XRECORD
  5
5C5
102
{ACAD_REACTORS
330
5BD
102
}
330
5BD
100
AcDbXrecord
 90
    10781
  0
XRECORD
  5
5C3
102
{ACAD_REACTORS
330
5BD
102
}
330
5BD
100
AcDbXrecord
340
9A
  0
XRECORD
  5
5C4
102
{ACAD_REACTORS
330
5BD
102
}
330
5BD
100
AcDbXrecord
340
8
  0
XRECORD
  5
5CA
102
{ACAD_REACTORS
330
5BD
102
}
330
5BD
100
AcDbXrecord
 40
0.0
  0
XRECORD
  5
5CE
102
{ACAD_REACTORS
330
5BD
102
}
330
5BD
100
AcDbXrecord
340
0
  0
XRECORD
  5
5D4
102
{ACAD_REACTORS
330
5BD
102
}
330
5BD
100
AcDbXrecord
 10
0.0
 20
0.0
 30
0.0
  0
XRECORD
  5
5D0
102
{ACAD_REACTORS
330
5BD
102
}
330
5BD
100
AcDbXrecord
 10
0.0
 20
0.0
 30
0.0
  0
XRECORD
  5
5D3
102
{ACAD_REACTORS
330
5BD
102
}
330
5BD
100
AcDbXrecord
 10
0.0
 20
0.0
 30
0.0
  0
XRECORD
  5
5D1
102
{ACAD_REACTORS
330
5BD
102
}
330
5BD
100
AcDbXrecord
 10
0.0
 20
0.0
 30
0.0
  0
XRECORD
  5
5D2
102
{ACAD_REACTORS
330
5BD
102
}
330
5BD
100
AcDbXrecord
 10
0.0
 20
0.0
 30
0.0
  0
XRECORD
  5
5CF
102
{ACAD_REACTORS
330
5BD
102
}
330
5BD
100
AcDbXrecord
 10
0.0
 20
0.0
 30
0.0
  0
XRECORD
  5
5CC
102
{ACAD_REACTORS
330
5BD
102
}
330
5BD
100
AcDbXrecord
340
0
  0
XRECORD
  5
5CD
102
{ACAD_REACTORS
330
5BD
102
}
330
5BD
100
AcDbXrecord
 70
     0
  0
XRECORD
  5
5C1
102
{ACAD_REACTORS
330
5BD
102
}
330
5BD
100
AcDbXrecord
  1

  0
XRECORD
  5
5BE
102
{ACAD_REACTORS
330
5BD
102
}
330
5BD
100
AcDbXrecord
 90
        1
  0
XRECORD
  5
5BF
102
{ACAD_REACTORS
330
5BD
102
}
330
5BD
100
AcDbXrecord
 90
       70
  0
XRECORD
  5
5D7
102
{ACAD_REACTORS
330
5BD
102
}
330
5BD
100
AcDbXrecord
340
0
  0
XRECORD
  5
5DD
102
{ACAD_REACTORS
330
5BD
102
}
330
5BD
100
AcDbXrecord
 10
0.0
 20
0.0
 30
0.0
  0
XRECORD
  5
5D9
102
{ACAD_REACTORS
330
5BD
102
}
330
5BD
100
AcDbXrecord
 10
0.0
 20
0.0
 30
0.0
  0
XRECORD
  5
5DC
102
{ACAD_REACTORS
330
5BD
102
}
330
5BD
100
AcDbXrecord
 10
0.0
 20
0.0
 30
0.0
  0
XRECORD
  5
5DA
102
{ACAD_REACTORS
330
5BD
102
}
330
5BD
100
AcDbXrecord
 10
0.0
 20
0.0
 30
0.0
  0
XRECORD
  5
5DB
102
{ACAD_REACTORS
330
5BD
102
}
330
5BD
100
AcDbXrecord
 10
0.0
 20
0.0
 30
0.0
  0
XRECORD
  5
5D8
102
{ACAD_REACTORS
330
5BD
102
}
330
5BD
100
AcDbXrecord
 10
0.0
 20
0.0
 30
0.0
  0
XRECORD
  5
5D5
102
{ACAD_REACTORS
330
5BD
102
}
330
5BD
100
AcDbXrecord
340
0
  0
XRECORD
  5
5D6
102
{ACAD_REACTORS
330
5BD
102
}
330
5BD
100
AcDbXrecord
 70
     0
  0
XRECORD
  5
5C9
102
{ACAD_REACTORS
330
5BD
102
}
330
5BD
100
AcDbXrecord
  1
{5968C907-1189-492B-84A9-C3DA76725D74}
  0
DICTIONARYVAR
  5
38F
102
{ACAD_REACTORS
330
38D
102
}
330
38D
100
DictionaryVariables
280
     0
  1
2
  0
DICTIONARYVAR
  5
38E
102
{ACAD_REACTORS
330
38D
102
}
330
38D
100
DictionaryVariables
280
     0
  1
1
  0
XRECORD
  5
17
102
{ACAD_REACTORS
330
16
102
}
330
16
100
AcDbXrecord
  1
$layers
  1
*
  1
*
  1
*
 70
     0
  1
*
  1
*
  0
XRECORD
  5
18
102
{ACAD_REACTORS
330
16
102
}
330
16
100
AcDbXrecord
  1
- und 0
  1
-*,0
  1
*
  1
*
 70
     0
  1
*
  1
*
  0
XRECORD
  5
19
102
{ACAD_REACTORS
330
16
102
}
330
16
100
AcDbXrecord
  1
-pegc
  1
*-pegc
  1
*
  1
*
 70
     0
  1
*
  1
*
  0
XRECORD
  5
1A
102
{ACAD_REACTORS
330
16
102
}
330
16
100
AcDbXrecord
  1
101
  1
*101
  1
*
  1
*
 70
   256
  1
*
  1
*
  0
XRECORD
  5
1B
102
{ACAD_REACTORS
330
16
102
}
330
16
100
AcDbXrecord
  1
102
  1
102*
  1
*
  1
*
 70
     0
  1
*
  1
*
  0
XRECORD
  5
1C
102
{ACAD_REACTORS
330
16
102
}
330
16
100
AcDbXrecord
  1
1duc
  1
*1duc*
  1
*
  1
*
 70
     0
  1
*
  1
*
  0
XRECORD
  5
1D
102
{ACAD_REACTORS
330
16
102
}
330
16
100
AcDbXrecord
  1
1eq
  1
*1eq*
  1
*
  1
*
 70
     0
  1
*
  1
*
  0
XRECORD
  5
1E
102
{ACAD_REACTORS
330
16
102
}
330
16
100
AcDbXrecord
  1
1tub
  1
*1t*
  1
*
  1
*
 70
     0
  1
*
  1
*
  0
XRECORD
  5
1F
102
{ACAD_REACTORS
330
16
102
}
330
16
100
AcDbXrecord
  1
2
  1
*
  1
2
  1
*
 70
     0
  1
*
  1
*
  0
XRECORD
  5
20
102
{ACAD_REACTORS
330
16
102
}
330
16
100
AcDbXrecord
  1
2000
  1
2000*
  1
*
  1
*
 70
     0
  1
*
  1
*
  0
XRECORD
  5
21
102
{ACAD_REACTORS
330
16
102
}
330
16
100
AcDbXrecord
  1
50
  1
*-50
  1
*
  1
*
 70
     0
  1
*
  1
*
  0
XRECORD
  5
22
102
{ACAD_REACTORS
330
16
102
}
330
16
100
AcDbXrecord
  1
58J
  1
*58*
  1
*
  1
*
 70
     0
  1
*
  1
*
  0
XRECORD
  5
23
102
{ACAD_REACTORS
330
16
102
}
330
16
100
AcDbXrecord
  1
65
  1
*65
  1
*
  1
*
 70
     0
  1
*
  1
*
  0
XRECORD
  5
24
102
{ACAD_REACTORS
330
16
102
}
330
16
100
AcDbXrecord
  1
aa
  1
aa*
  1
*
  1
*
 70
     0
  1
*
  1
*
  0
XRECORD
  5
25
102
{ACAD_REACTORS
330
16
102
}
330
16
100
AcDbXrecord
  1
acabados
  1
a-*
  1
*
  1
*
 70
     5
  1
*
  1
*
  0
XRECORD
  5
26
102
{ACAD_REACTORS
330
16
102
}
330
16
100
AcDbXrecord
  1
AGUA Y DREN
  1
A-DS-*
  1
*
  1
*
 70
     0
  1
*
  1
*
  0
XRECORD
  5
27
102
{ACAD_REACTORS
330
16
102
}
330
16
100
AcDbXrecord
  1
Aire
  1
*
  1
*
  1
*
 70
     0
  1
*
  1
*
  0
XRECORD
  5
28
102
{ACAD_REACTORS
330
16
102
}
330
16
100
AcDbXrecord
  1
alle aus
  1
99999999999
  1
*
  1
*
 70
     0
  1
*
  1
*
  0
XRECORD
  5
29
102
{ACAD_REACTORS
330
16
102
}
330
16
100
AcDbXrecord
  1
Alles mit S
  1
s*
  1
*
  1
*
 70
     0
  1
*
  1
*
  0
XRECORD
  5
2A
102
{ACAD_REACTORS
330
16
102
}
330
16
100
AcDbXrecord
  1
amarillo
  1
*
  1
yellow
  1
*
 70
     0
  1
*
  1
*
  0
XRECORD
  5
2B
102
{ACAD_REACTORS
330
16
102
}
330
16
100
AcDbXrecord
  1
APAGADOS
  1
*
  1
*
  1
*
 70
     4
  1
*
  1
*
  0
XRECORD
  5
2C
102
{ACAD_REACTORS
330
16
102
}
330
16
100
AcDbXrecord
  1
ARR
  1
ARR*
  1
*
  1
*
 70
     0
  1
*
  1
*
  0
XRECORD
  5
2D
102
{ACAD_REACTORS
330
16
102
}
330
16
100
AcDbXrecord
  1
ba
  1
*
  1
*
  1
*
 70
     0
  1
*
  1
*
  0
XRECORD
  5
2E
102
{ACAD_REACTORS
330
16
102
}
330
16
100
AcDbXrecord
  1
BACKS
  1
*-H
  1
*
  1
*
 70
     0
  1
*
  1
*
  0
XRECORD
  5
2F
102
{ACAD_REACTORS
330
16
102
}
330
16
100
AcDbXrecord
  1
BASE
  1
*-PBASE
  1
*
  1
*
 70
     0
  1
*
  1
*
  0
XRECORD
  5
30
102
{ACAD_REACTORS
330
16
102
}
330
16
100
AcDbXrecord
  1
BLOQ_INUTIL
  1
*
  1
*
  1
*
 70
     0
  1
*
  1
*
  0
XRECORD
  5
31
102
{ACAD_REACTORS
330
16
102
}
330
16
100
AcDbXrecord
  1
CADKON
  1
?[KAHBSM]?????[23M],?[KAHBSM]?????[23M][1456A-DGHILN-SU-Z]
  1
*
  1
*
 70
     0
  1
*
  1
*
  0
XRECORD
  5
32
102
{ACAD_REACTORS
330
16
102
}
330
16
100
AcDbXrecord
  1
carpinteria
  1
carp*
  1
*
  1
*
 70
     0
  1
*
  1
*
  0
XRECORD
  5
33
102
{ACAD_REACTORS
330
16
102
}
330
16
100
AcDbXrecord
  1
cerrados
  1
*
  1
*
  1
*
 70
   256
  1
*
  1
*
  0
XRECORD
  5
34
102
{ACAD_REACTORS
330
16
102
}
330
16
100
AcDbXrecord
  1
COL
  1
*
  1
*
  1
*
 70
     1
  1
*
  1
*
  0
XRECORD
  5
35
102
{ACAD_REACTORS
330
16
102
}
330
16
100
AcDbXrecord
  1
COLOR
  1
*
  1
253
  1
*
 70
     0
  1
*
  1
*
  0
XRECORD
  5
36
102
{ACAD_REACTORS
330
16
102
}
330
16
100
AcDbXrecord
  1
color 250
  1
*
  1
250
  1
*
 70
     0
  1
*
  1
*
  0
XRECORD
  5
37
102
{ACAD_REACTORS
330
16
102
}
330
16
100
AcDbXrecord
  1
COLORES
  1
*
  1
6
  1
*
 70
     0
  1
*
  1
*
  0
XRECORD
  5
38
102
{ACAD_REACTORS
330
16
102
}
330
16
100
AcDbXrecord
  1
Congelados
  1
*
  1
*
  1
*
 70
     4
  1
*
  1
*
  0
XRECORD
  5
39
102
{ACAD_REACTORS
330
16
102
}
330
16
100
AcDbXrecord
  1
CONJUNTO
  1
CON-*
  1
*
  1
*
 70
     0
  1
*
  1
*
  0
XRECORD
  5
3A
102
{ACAD_REACTORS
330
16
102
}
330
16
100
AcDbXrecord
  1
d1
  1
achurados
  1
*
  1
*
 70
     0
  1
*
  1
*
  0
XRECORD
  5
3B
102
{ACAD_REACTORS
330
16
102
}
330
16
100
AcDbXrecord
  1
DA_
  1
DA*
  1
*
  1
*
 70
     0
  1
*
  1
*
  0
XRECORD
  5
3C
102
{ACAD_REACTORS
330
16
102
}
330
16
100
AcDbXrecord
  1
DET-
  1
*
  1
*
  1
*
 70
     0
  1
*
  1
*
  0
XRECORD
  5
3D
102
{ACAD_REACTORS
330
16
102
}
330
16
100
AcDbXrecord
  1
DOR-H
  1
*
  1
7
  1
*
 70
     0
  1
*
  1
*
  0
XRECORD
  5
3E
102
{ACAD_REACTORS
330
16
102
}
330
16
100
AcDbXrecord
  1
ejes
  1
eje*
  1
*
  1
*
 70
     0
  1
*
  1
*
  0
XRECORD
  5
3F
102
{ACAD_REACTORS
330
16
102
}
330
16
100
AcDbXrecord
  1
ELECTRICO
  1
ELEC-*
  1
*
  1
*
 70
     0
  1
*
  1
*
  0
XRECORD
  5
40
102
{ACAD_REACTORS
330
16
102
}
330
16
100
AcDbXrecord
  1
F1
  1
Halaxref*
  1
*
  1
*
 70
     0
  1
*
  1
*
  0
XRECORD
  5
41
102
{ACAD_REACTORS
330
16
102
}
330
16
100
AcDbXrecord
  1
frozen
  1
*
  1
*
  1
*
 70
     4
  1
*
  1
*
  0
XRECORD
  5
42
102
{ACAD_REACTORS
330
16
102
}
330
16
100
AcDbXrecord
  1
grid
  1
*-PGRID
  1
*
  1
*
 70
     1
  1
*
  1
*
  0
XRECORD
  5
43
102
{ACAD_REACTORS
330
16
102
}
330
16
100
AcDbXrecord
  1
GRIDTXT
  1
*-PGRIDT
  1
*
  1
*
 70
     0
  1
*
  1
*
  0
XRECORD
  5
44
102
{ACAD_REACTORS
330
16
102
}
330
16
100
AcDbXrecord
  1
HATCH
  1
HAT*
  1
*
  1
*
 70
     0
  1
*
  1
*
  0
XRECORD
  5
45
102
{ACAD_REACTORS
330
16
102
}
330
16
100
AcDbXrecord
  1
HCAD
  1
1HCAD-*
  1
*
  1
*
 70
    13
  1
*
  1
*
  0
XRECORD
  5
46
102
{ACAD_REACTORS
330
16
102
}
330
16
100
AcDbXrecord
  1
INSTALACIONES
  1
I-*
  1
*
  1
*
 70
     0
  1
*
  1
*
  0
XRECORD
  5
47
102
{ACAD_REACTORS
330
16
102
}
330
16
100
AcDbXrecord
  1
JIZNI
  1
*-J
  1
*
  1
*
 70
     0
  1
*
  1
*
  0
XRECORD
  5
48
102
{ACAD_REACTORS
330
16
102
}
330
16
100
AcDbXrecord
  1
kck
  1
*
  1
*
  1
*
 70
     0
  1
*
  1
*
  0
XRECORD
  5
49
102
{ACAD_REACTORS
330
16
102
}
330
16
100
AcDbXrecord
  1
kkk
  1
k
  1
*
  1
*
 70
     0
  1
*
  1
*
  0
XRECORD
  5
4A
102
{ACAD_REACTORS
330
16
102
}
330
16
100
AcDbXrecord
  1
lay
  1
??-*
  1
*
  1
*
 70
     0
  1
*
  1
*
  0
XRECORD
  5
4E
102
{ACAD_REACTORS
330
16
102
}
330
16
100
AcDbXrecord
  1
Layer-0
  1
0*
  1
*
  1
*
 70
     0
  1
*
  1
*
  0
XRECORD
  5
4F
102
{ACAD_REACTORS
330
16
102
}
330
16
100
AcDbXrecord
  1
Layer-1
  1
1*
  1
*
  1
*
 70
     0
  1
*
  1
*
  0
XRECORD
  5
4B
102
{ACAD_REACTORS
330
16
102
}
330
16
100
AcDbXrecord
  1
Layer 1 und 0
  1
1*,0
  1
*
  1
*
 70
     0
  1
*
  1
*
  0
XRECORD
  5
4C
102
{ACAD_REACTORS
330
16
102
}
330
16
100
AcDbXrecord
  1
Layer 2 und 0
  1
2*,0
  1
*
  1
*
 70
     0
  1
*
  1
*
  0
XRECORD
  5
4D
102
{ACAD_REACTORS
330
16
102
}
330
16
100
AcDbXrecord
  1
Layer 9 und 0 Schraffur
  1
9*,0
  1
*
  1
*
 70
     0
  1
*
  1
*
  0
XRECORD
  5
50
102
{ACAD_REACTORS
330
16
102
}
330
16
100
AcDbXrecord
  1
LOCK
  1
*
  1
*
  1
*
 70
   256
  1
*
  1
*
  0
XRECORD
  5
51
102
{ACAD_REACTORS
330
16
102
}
330
16
100
AcDbXrecord
  1
locked
  1
*
  1
*
  1
*
 70
   256
  1
*
  1
*
  0
XRECORD
  5
52
102
{ACAD_REACTORS
330
16
102
}
330
16
100
AcDbXrecord
  1
Lotes
  1
*
  1
*
  1
*
 70
     1
  1
*
  1
*
  0
XRECORD
  5
53
102
{ACAD_REACTORS
330
16
102
}
330
16
100
AcDbXrecord
  1
LUNAR
  1
*
  1
*
  1
*
 70
    48
  1
*
  1
*
  0
XRECORD
  5
54
102
{ACAD_REACTORS
330
16
102
}
330
16
100
AcDbXrecord
  1
LUNAR2
  1
*
  1
*
  1
*
 70
    12
  1
*
  1
*
  0
XRECORD
  5
55
102
{ACAD_REACTORS
330
16
102
}
330
16
100
AcDbXrecord
  1
M
  1
M*
  1
*
  1
*
 70
     0
  1
*
  1
*
  0
XRECORD
  5
56
102
{ACAD_REACTORS
330
16
102
}
330
16
100
AcDbXrecord
  1
mis_layers
  1
mis_*
  1
*
  1
*
 70
     0
  1
*
  1
*
  0
XRECORD
  5
57
102
{ACAD_REACTORS
330
16
102
}
330
16
100
AcDbXrecord
  1
MRKCK
  1
*
  1
*
  1
*
 70
     0
  1
*
  1
*
  0
XRECORD
  5
58
102
{ACAD_REACTORS
330
16
102
}
330
16
100
AcDbXrecord
  1
NECADKON
  1
~*?[KAHBSM]?????[23M]*
  1
*
  1
*
 70
     0
  1
*
  1
*
  0
XRECORD
  5
59
102
{ACAD_REACTORS
330
16
102
}
330
16
100
AcDbXrecord
  1
NI_LH
  1
NI_LH*
  1
*
  1
*
 70
     0
  1
*
  1
*
  0
XRECORD
  5
5A
102
{ACAD_REACTORS
330
16
102
}
330
16
100
AcDbXrecord
  1
NI_RH
  1
NI_RH*
  1
*
  1
*
 70
     0
  1
*
  1
*
  0
XRECORD
  5
5B
102
{ACAD_REACTORS
330
16
102
}
330
16
100
AcDbXrecord
  1
NUM
  1
NUM*
  1
*
  1
*
 70
     0
  1
*
  1
*
  0
XRECORD
  5
5C
102
{ACAD_REACTORS
330
16
102
}
330
16
100
AcDbXrecord
  1
off
  1
*
  1
*
  1
*
 70
     3
  1
*
  1
*
  0
XRECORD
  5
5D
102
{ACAD_REACTORS
330
16
102
}
330
16
100
AcDbXrecord
  1
on
  1
*
  1
*
  1
*
 70
     0
  1
*
  1
*
  0
XRECORD
  5
5E
102
{ACAD_REACTORS
330
16
102
}
330
16
100
AcDbXrecord
  1
PBASE
  1
*PBASE
  1
*
  1
*
 70
     0
  1
*
  1
*
  0
XRECORD
  5
5F
102
{ACAD_REACTORS
330
16
102
}
330
16
100
AcDbXrecord
  1
PEGC
  1
*PEGC
  1
*
  1
*
 70
     0
  1
*
  1
*
  0
XRECORD
  5
60
102
{ACAD_REACTORS
330
16
102
}
330
16
100
AcDbXrecord
  1
PEGCT
  1
*PEGCT
  1
*
  1
*
 70
     0
  1
*
  1
*
  0
XRECORD
  5
61
102
{ACAD_REACTORS
330
16
102
}
330
16
100
AcDbXrecord
  1
PFRAME
  1
PFRAME*
  1
*
  1
*
 70
     0
  1
*
  1
*
  0
XRECORD
  5
62
102
{ACAD_REACTORS
330
16
102
}
330
16
100
AcDbXrecord
  1
PGRID
  1
*PGRID
  1
*
  1
*
 70
     0
  1
*
  1
*
  0
XRECORD
  5
63
102
{ACAD_REACTORS
330
16
102
}
330
16
100
AcDbXrecord
  1
PGRIDT
  1
*PGRIDT
  1
*
  1
*
 70
     0
  1
*
  1
*
  0
XRECORD
  5
64
102
{ACAD_REACTORS
330
16
102
}
330
16
100
AcDbXrecord
  1
PLAFONES
  1
0-*
  1
*
  1
*
 70
     0
  1
*
  1
*
  0
XRECORD
  5
65
102
{ACAD_REACTORS
330
16
102
}
330
16
100
AcDbXrecord
  1
PLANTAS
  1
P-*
  1
*
  1
*
 70
     0
  1
*
  1
*
  0
XRECORD
  5
66
102
{ACAD_REACTORS
330
16
102
}
330
16
100
AcDbXrecord
  1
Plot
  1
*
  1
*
  1
*
 70
  1024
  1
*
  1
*
  0
XRECORD
  5
67
102
{ACAD_REACTORS
330
16
102
}
330
16
100
AcDbXrecord
  1
PRENDIDAS
  1
*
  1
*
  1
*
 70
    13
  1
*
  1
*
  0
XRECORD
  5
68
102
{ACAD_REACTORS
330
16
102
}
330
16
100
AcDbXrecord
  1
PRENDIDOS
  1
*
  1
*
  1
*
 70
    12
  1
*
  1
*
  0
XRECORD
  5
69
102
{ACAD_REACTORS
330
16
102
}
330
16
100
AcDbXrecord
  1
print
  1
*
  1
7
  1
*
 70
  1280
  1
*
  1
*
  0
XRECORD
  5
6A
102
{ACAD_REACTORS
330
16
102
}
330
16
100
AcDbXrecord
  1
PT
  1
PT-*
  1
*
  1
*
 70
     0
  1
*
  1
*
  0
XRECORD
  5
6B
102
{ACAD_REACTORS
330
16
102
}
330
16
100
AcDbXrecord
  1
PTH
  1
PTH*
  1
*
  1
*
 70
     0
  1
*
  1
*
  0
XRECORD
  5
6C
102
{ACAD_REACTORS
330
16
102
}
330
16
100
AcDbXrecord
  1
PVGRID
  1
*PVGRID
  1
*
  1
*
 70
     0
  1
*
  1
*
  0
XRECORD
  5
6D
102
{ACAD_REACTORS
330
16
102
}
330
16
100
AcDbXrecord
  1
Red de Agua Potable
  1
Red de Agua Potable
  1
*
  1
*
 70
     1
  1
*
  1
*
  0
XRECORD
  5
6E
102
{ACAD_REACTORS
330
16
102
}
330
16
100
AcDbXrecord
  1
Red de Energia Electrica
  1
Lotes
  1
*
  1
*
 70
     1
  1
*
  1
*
  0
XRECORD
  5
6F
102
{ACAD_REACTORS
330
16
102
}
330
16
100
AcDbXrecord
  1
SEVERNI
  1
*-S
  1
*
  1
*
 70
     0
  1
*
  1
*
  0
XRECORD
  5
70
102
{ACAD_REACTORS
330
16
102
}
330
16
100
AcDbXrecord
  1
shin
  1
일*
  1
*
  1
*
 70
     0
  1
*
  1
*
  0
XRECORD
  5
71
102
{ACAD_REACTORS
330
16
102
}
330
16
100
AcDbXrecord
  1
SHOW ALL LAYER
  1
*
  1
*
  1
*
 70
     0
  1
*
  1
*
  0
XRECORD
  5
72
102
{ACAD_REACTORS
330
16
102
}
330
16
100
AcDbXrecord
  1
sin
  1
sin
  1
*
  1
*
 70
     0
  1
*
  1
*
  0
XRECORD
  5
73
102
{ACAD_REACTORS
330
16
102
}
330
16
100
AcDbXrecord
  1
STORAGE-CART
  1
STORAGE-CART*
  1
*
  1
*
 70
     0
  1
*
  1
*
  0
XRECORD
  5
74
102
{ACAD_REACTORS
330
16
102
}
330
16
100
AcDbXrecord
  1
T
  1
T*
  1
*
  1
*
 70
     0
  1
*
  1
*
  0
XRECORD
  5
75
102
{ACAD_REACTORS
330
16
102
}
330
16
100
AcDbXrecord
  1
TEXTOS
  1
TXT*
  1
*
  1
*
 70
     0
  1
*
  1
*
  0
XRECORD
  5
76
102
{ACAD_REACTORS
330
16
102
}
330
16
100
AcDbXrecord
  1
TEXTURAS
  1
*TEXTURAS
  1
*
  1
*
 70
     0
  1
*
  1
*
  0
XRECORD
  5
77
102
{ACAD_REACTORS
330
16
102
}
330
16
100
AcDbXrecord
  1
TUBERIAS
  1
T*
  1
*
  1
*
 70
     0
  1
*
  1
*
  0
XRECORD
  5
78
102
{ACAD_REACTORS
330
16
102
}
330
16
100
AcDbXrecord
  1
UNFRZ
  1
*
  1
*
  1
*
 70
    12
  1
*
  1
*
  0
XRECORD
  5
79
102
{ACAD_REACTORS
330
16
102
}
330
16
100
AcDbXrecord
  1
v\U+0161echny nepou\U+017E\U+00EDvan\U+00E9
  1
*
  1
*
  1
*
 70
     0
  1
*
  1
*
  0
XRECORD
  5
7A
102
{ACAD_REACTORS
330
16
102
}
330
16
100
AcDbXrecord
  1
VA
  1
VA*
  1
*
  1
*
 70
     0
  1
*
  1
*
  0
XRECORD
  5
7B
102
{ACAD_REACTORS
330
16
102
}
330
16
100
AcDbXrecord
  1
Ventilaci\U+00F3n
  1
*
  1
*
  1
*
 70
     0
  1
*
  1
*
  0
XRECORD
  5
7C
102
{ACAD_REACTORS
330
16
102
}
330
16
100
AcDbXrecord
  1
VYHODNI
  1
*-V
  1
*
  1
*
 70
     0
  1
*
  1
*
  0
XRECORD
  5
7D
102
{ACAD_REACTORS
330
16
102
}
330
16
100
AcDbXrecord
  1
Yo
  1
Muros
  1
*
  1
*
 70
     0
  1
*
  1
*
  0
XRECORD
  5
7E
102
{ACAD_REACTORS
330
16
102
}
330
16
100
AcDbXrecord
  1
ZAPADNI
  1
*-Z
  1
*
  1
*
 70
     0
  1
*
  1
*
  0
XRECORD
  5
7F
102
{ACAD_REACTORS
330
16
102
}
330
16
100
AcDbXrecord
  1
사용
  1
*
  1
*
  1
*
 70
   256
  1
*
  1
*
  0
XRECORD
  5
80
102
{ACAD_REACTORS
330
16
102
}
330
16
100
AcDbXrecord
  1
신규
  1
신규
  1
*
  1
*
 70
     0
  1
*
  1
*
  0
XRECORD
  5
81
102
{ACAD_REACTORS
330
16
102
}
330
16
100
AcDbXrecord
  1
실박스
  1
BLO,SYM,SYM1,SYM2
  1
*
  1
*
 70
     0
  1
*
  1
*
  0
XRECORD
  5
82
102
{ACAD_REACTORS
330
16
102
}
330
16
100
AcDbXrecord
  1
우리토목
  1
w-*
  1
*
  1
*
 70
     0
  1
*
  1
*
  0
XRECORD
  5
83
102
{ACAD_REACTORS
330
16
102
}
330
16
100
AcDbXrecord
  1
주차
  1
car*
  1
*
  1
*
 70
     0
  1
*
  1
*
  0
XRECORD
  5
84
102
{ACAD_REACTORS
330
16
102
}
330
16
100
AcDbXrecord
  1
지상정밀
  1
*
  1
*
  1
*
 70
     0
  1
*
  1
*
  0
XRECORD
  5
85
102
{ACAD_REACTORS
330
16
102
}
330
16
100
AcDbXrecord
  1
쩜선
  1
*
  1
*
  1
*
 70
     0
  1
*
  1
*
  0
XRECORD
  5
86
102
{ACAD_REACTORS
330
16
102
}
330
16
100
AcDbXrecord
  1
플로터 작업층
  1
*
  1
*
  1
*
 70
  1025
  1
*
  1
*
  0
XRECORD
  5
87
102
{ACAD_REACTORS
330
16
102
}
330
16
100
AcDbXrecord
  1
현재 작업층
  1
*
  1
*
  1
*
 70
     1
  1
*
  1
*
  0
XRECORD
  5
88
102
{ACAD_REACTORS
330
16
102
}
330
16
100
AcDbXrecord
  1
현재 잠금
  1
*
  1
*
  1
*
 70
   257
  1
*
  1
*
  0
ENDSEC
  0
EOF
