  0
SECTION
  2
HEADER
  9
$ACADVER
  1
AC1014
  9
$ACADMAINTVER
 70
     9
  9
$DWGCODEPAGE
  3
ANSI_949
  9
$INSBASE
 10
0.0
 20
0.0
 30
0.0
  9
$EXTMIN
 10
-2.685579498138395
 20
-4.48259680076444
 30
-0.0015258207003583
  9
$EXTMAX
 10
401.7788427845371
 20
544.0425576822235
 30
0.0000000349246037
  9
$LIMMIN
 10
0.0
 20
0.0
  9
$LIMMAX
 10
420.0
 20
297.0
  9
$ORTHOMODE
 70
     0
  9
$REGENMODE
 70
     1
  9
$FILLMODE
 70
     1
  9
$QTEXTMODE
 70
     0
  9
$MIRRTEXT
 70
     0
  9
$DRAGMODE
 70
     2
  9
$LTSCALE
 40
0.2
  9
$OSMODE
 70
   567
  9
$ATTMODE
 70
     1
  9
$TEXTSIZE
 40
5.777225951253058
  9
$TRACEWID
 40
1.0
  9
$TEXTSTYLE
  7
STANDARD
  9
$CLAYER
  8
0
  9
$CELTYPE
  6
BYLAYER
  9
$CECOLOR
 62
   256
  9
$CELTSCALE
 40
1.0
  9
$DELOBJ
 70
     1
  9
$DISPSILH
 70
     0
  9
$DIMSCALE
 40
1.0
  9
$DIMASZ
 40
3.0
  9
$DIMEXO
 40
1.0
  9
$DIMDLI
 40
10.0
  9
$DIMRND
 40
0.0
  9
$DIMDLE
 40
0.0
  9
$DIMEXE
 40
0.6
  9
$DIMTP
 40
0.0
  9
$DIMTM
 40
0.0
  9
$DIMTXT
 40
3.5
  9
$DIMCEN
 40
0.09
  9
$DIMTSZ
 40
0.0
  9
$DIMTOL
 70
     0
  9
$DIMLIM
 70
     0
  9
$DIMTIH
 70
     0
  9
$DIMTOH
 70
     0
  9
$DIMSE1
 70
     0
  9
$DIMSE2
 70
     0
  9
$DIMTAD
 70
     1
  9
$DIMZIN
 70
     8
  9
$DIMBLK
  1

  9
$DIMASO
 70
     1
  9
$DIMSHO
 70
     1
  9
$DIMPOST
  1

  9
$DIMAPOST
  1

  9
$DIMALT
 70
     0
  9
$DIMALTD
 70
     2
  9
$DIMALTF
 40
25.4
  9
$DIMLFAC
 40
1.0
  9
$DIMTOFL
 70
     1
  9
$DIMTVP
 40
0.0
  9
$DIMTIX
 70
     1
  9
$DIMSOXD
 70
     0
  9
$DIMSAH
 70
     0
  9
$DIMBLK1
  1

  9
$DIMBLK2
  1

  9
$DIMSTYLE
  2
1_1_2
  9
$DIMCLRD
 70
   123
  9
$DIMCLRE
 70
   123
  9
$DIMCLRT
 70
     3
  9
$DIMTFAC
 40
1.0
  9
$DIMGAP
 40
1.0
  9
$DIMJUST
 70
     0
  9
$DIMSD1
 70
     0
  9
$DIMSD2
 70
     0
  9
$DIMTOLJ
 70
     1
  9
$DIMTZIN
 70
     0
  9
$DIMALTZ
 70
     0
  9
$DIMALTTZ
 70
     0
  9
$DIMFIT
 70
     0
  9
$DIMUPT
 70
     1
  9
$DIMUNIT
 70
     2
  9
$DIMDEC
 70
     2
  9
$DIMTDEC
 70
     2
  9
$DIMALTU
 70
     2
  9
$DIMALTTD
 70
     2
  9
$DIMTXSTY
  7
STANDARD
  9
$DIMAUNIT
 70
     1
  9
$LUNITS
 70
     2
  9
$LUPREC
 70
     4
  9
$SKETCHINC
 40
1.0
  9
$FILLETRAD
 40
0.5
  9
$AUNITS
 70
     0
  9
$AUPREC
 70
     0
  9
$MENU
  1
.
  9
$ELEVATION
 40
0.0
  9
$PELEVATION
 40
0.0
  9
$THICKNESS
 40
0.0
  9
$LIMCHECK
 70
     0
  9
$BLIPMODE
 70
     1
  9
$CHAMFERA
 40
1.0
  9
$CHAMFERB
 40
1.0
  9
$CHAMFERC
 40
20.0
  9
$CHAMFERD
 40
0.0
  9
$SKPOLY
 70
     0
  9
$TDCREATE
 40
2452839.586179271
  9
$TDUPDATE
 40
2453376.730169988
  9
$TDINDWG
 40
11.1169957407
  9
$TDUSRTIMER
 40
11.1169955556
  9
$USRTIMER
 70
     1
  9
$ANGBASE
 50
0.0
  9
$ANGDIR
 70
     0
  9
$PDMODE
 70
     0
  9
$PDSIZE
 40
0.0
  9
$PLINEWID
 40
0.0
  9
$COORDS
 70
     2
  9
$SPLFRAME
 70
     0
  9
$SPLINETYPE
 70
     6
  9
$SPLINESEGS
 70
   800
  9
$ATTDIA
 70
     0
  9
$ATTREQ
 70
     1
  9
$HANDLING
 70
 22529
  9
$HANDSEED
  5
58C
  9
$SURFTAB1
 70
     6
  9
$SURFTAB2
 70
     6
  9
$SURFTYPE
 70
     6
  9
$SURFU
 70
     6
  9
$SURFV
 70
     6
  9
$UCSNAME
  2

  9
$UCSORG
 10
0.0
 20
0.0
 30
0.0
  9
$UCSXDIR
 10
1.0
 20
0.0
 30
0.0
  9
$UCSYDIR
 10
0.0
 20
1.0
 30
0.0
  9
$PUCSNAME
  2

  9
$PUCSORG
 10
0.0
 20
0.0
 30
0.0
  9
$PUCSXDIR
 10
1.0
 20
0.0
 30
0.0
  9
$PUCSYDIR
 10
0.0
 20
1.0
 30
0.0
  9
$USERI1
 70
     0
  9
$USERI2
 70
     0
  9
$USERI3
 70
     0
  9
$USERI4
 70
     0
  9
$USERI5
 70
     0
  9
$USERR1
 40
0.0
  9
$USERR2
 40
0.0
  9
$USERR3
 40
0.0
  9
$USERR4
 40
0.0
  9
$USERR5
 40
0.0
  9
$WORLDVIEW
 70
     1
  9
$SHADEDGE
 70
     3
  9
$SHADEDIF
 70
    70
  9
$TILEMODE
 70
     1
  9
$MAXACTVP
 70
    48
  9
$PINSBASE
 10
0.0
 20
0.0
 30
0.0
  9
$PLIMCHECK
 70
     0
  9
$PEXTMIN
 10
0.0
 20
0.0
 30
0.0
  9
$PEXTMAX
 10
0.0
 20
0.0
 30
0.0
  9
$PLIMMIN
 10
0.0
 20
0.0
  9
$PLIMMAX
 10
12.0
 20
9.0
  9
$UNITMODE
 70
     0
  9
$VISRETAIN
 70
     1
  9
$PLINEGEN
 70
     0
  9
$PSLTSCALE
 70
     1
  9
$TREEDEPTH
 70
  3020
  9
$PICKSTYLE
 70
     0
  9
$CMLSTYLE
  2
STANDARD
  9
$CMLJUST
 70
     0
  9
$CMLSCALE
 40
20.0
  9
$PROXYGRAPHICS
 70
     1
  9
$MEASUREMENT
 70
     1
  0
ENDSEC
  0
SECTION
  2
CLASSES
  0
CLASS
  1
ACDBDICTIONARYWDFLT
  2
AcDbDictionaryWithDefault
  3
AutoCAD 2000
 90
        0
280
     0
281
     0
  0
CLASS
  1
ACDBPLACEHOLDER
  2
AcDbPlaceHolder
  3
AutoCAD 2000
 90
        0
280
     0
281
     0
  0
CLASS
  1
LAYOUT
  2
AcDbLayout
  3
AutoCAD 2000
 90
        0
280
     0
281
     0
  0
CLASS
  1
DICTIONARYVAR
  2
AcDbDictionaryVar
  3
AutoCAD 2000
 90
        0
280
     0
281
     0
  0
CLASS
  1
DIMASSOC
  2
AcDbDimAssoc
  3
"AcDbDimAssoc|Product Desc:     AcDim ARX App For Dimension|Company:          Autodesk, Inc.|WEB Address:      www.autodesk.com"
 90
        0
280
     0
281
     0
  0
CLASS
  1
LONG_TRANSACTION
  2
AcDbLongTransaction
  3
AutoCAD 2000
 90
        0
280
     0
281
     0
  0
CLASS
  1
LWPOLYLINE
  2
AcDbPolyline
  3
AutoCAD 2000
 90
        0
280
     0
281
     1
  0
CLASS
  1
HATCH
  2
AcDbHatch
  3
AutoCAD 2000
 90
        0
280
     0
281
     1
  0
CLASS
  1
XRECORD
  2
AcDbXrecord
  3
AutoCAD 2000
 90
        0
280
     0
281
     0
  0
CLASS
  1
LONG_TRANSACTION
  2
AcDbLongTransaction
  3
AutoCAD 2000
 90
        0
280
     0
281
     0
  0
CLASS
  1
LWPOLYLINE
  2
AcDbPolyline
  3
AutoCAD 2000
 90
        0
280
     0
281
     1
  0
CLASS
  1
HATCH
  2
AcDbHatch
  3
AutoCAD 2000
 90
        0
280
     0
281
     1
  0
CLASS
  1
XRECORD
  2
AcDbXrecord
  3
AutoCAD 2000
 90
        0
280
     0
281
     0
  0
CLASS
  1
LONG_TRANSACTION
  2
AcDbLongTransaction
  3
AutoCAD 2000
 90
        0
280
     0
281
     0
  0
CLASS
  1
LWPOLYLINE
  2
AcDbPolyline
  3
AutoCAD 2000
 90
        0
280
     0
281
     1
  0
CLASS
  1
HATCH
  2
AcDbHatch
  3
AutoCAD 2000
 90
        0
280
     0
281
     1
  0
CLASS
  1
XRECORD
  2
AcDbXrecord
  3
AutoCAD 2000
 90
        0
280
     0
281
     0
  0
CLASS
  1
LONG_TRANSACTION
  2
AcDbLongTransaction
  3
AutoCAD 2000
 90
        0
280
     0
281
     0
  0
CLASS
  1
LWPOLYLINE
  2
AcDbPolyline
  3
AutoCAD 2000
 90
        0
280
     0
281
     1
  0
CLASS
  1
HATCH
  2
AcDbHatch
  3
AutoCAD 2000
 90
        0
280
     0
281
     1
  0
CLASS
  1
XRECORD
  2
AcDbXrecord
  3
AutoCAD 2000
 90
        0
280
     0
281
     0
  0
CLASS
  1
LONG_TRANSACTION
  2
AcDbLongTransaction
  3
AutoCAD 2000
 90
        0
280
     0
281
     0
  0
CLASS
  1
LWPOLYLINE
  2
AcDbPolyline
  3
AutoCAD 2000
 90
        0
280
     0
281
     1
  0
CLASS
  1
HATCH
  2
AcDbHatch
  3
AutoCAD 2000
 90
        0
280
     0
281
     1
  0
CLASS
  1
XRECORD
  2
AcDbXrecord
  3
AutoCAD 2000
 90
        0
280
     0
281
     0
  0
CLASS
  1
LONG_TRANSACTION
  2
AcDbLongTransaction
  3
AutoCAD 2000
 90
        0
280
     0
281
     0
  0
CLASS
  1
LWPOLYLINE
  2
AcDbPolyline
  3
AutoCAD 2000
 90
        0
280
     0
281
     1
  0
CLASS
  1
HATCH
  2
AcDbHatch
  3
AutoCAD 2000
 90
        0
280
     0
281
     1
  0
CLASS
  1
XRECORD
  2
AcDbXrecord
  3
AutoCAD 2000
 90
        0
280
     0
281
     0
  0
CLASS
  1
LONG_TRANSACTION
  2
AcDbLongTransaction
  3
AutoCAD 2000
 90
        0
280
     0
281
     0
  0
CLASS
  1
LWPOLYLINE
  2
AcDbPolyline
  3
AutoCAD 2000
 90
        0
280
     0
281
     1
  0
CLASS
  1
HATCH
  2
AcDbHatch
  3
AutoCAD 2000
 90
        0
280
     0
281
     1
  0
CLASS
  1
XRECORD
  2
AcDbXrecord
  3
AutoCAD 2000
 90
        0
280
     0
281
     0
  0
CLASS
  1
LONG_TRANSACTION
  2
AcDbLongTransaction
  3
AutoCAD 2000
 90
        0
280
     0
281
     0
  0
CLASS
  1
LWPOLYLINE
  2
AcDbPolyline
  3
AutoCAD 2000
 90
        0
280
     0
281
     1
  0
CLASS
  1
HATCH
  2
AcDbHatch
  3
AutoCAD 2000
 90
        0
280
     0
281
     1
  0
CLASS
  1
XRECORD
  2
AcDbXrecord
  3
AutoCAD 2000
 90
        0
280
     0
281
     0
  0
CLASS
  1
LONG_TRANSACTION
  2
AcDbLongTransaction
  3
AutoCAD 2000
 90
        0
280
     0
281
     0
  0
CLASS
  1
LWPOLYLINE
  2
AcDbPolyline
  3
AutoCAD 2000
 90
        0
280
     0
281
     1
  0
CLASS
  1
HATCH
  2
AcDbHatch
  3
AutoCAD 2000
 90
        0
280
     0
281
     1
  0
CLASS
  1
XRECORD
  2
AcDbXrecord
  3
AutoCAD 2000
 90
        0
280
     0
281
     0
  0
CLASS
  1
LONG_TRANSACTION
  2
AcDbLongTransaction
  3
AutoCAD 2000
 90
        0
280
     0
281
     0
  0
CLASS
  1
LWPOLYLINE
  2
AcDbPolyline
  3
AutoCAD 2000
 90
        0
280
     0
281
     1
  0
CLASS
  1
HATCH
  2
AcDbHatch
  3
AutoCAD 2000
 90
        0
280
     0
281
     1
  0
CLASS
  1
XRECORD
  2
AcDbXrecord
  3
AutoCAD 2000
 90
        0
280
     0
281
     0
  0
CLASS
  1
LONG_TRANSACTION
  2
AcDbLongTransaction
  3
AutoCAD 2000
 90
        0
280
     0
281
     0
  0
CLASS
  1
LWPOLYLINE
  2
AcDbPolyline
  3
AutoCAD 2000
 90
        0
280
     0
281
     1
  0
CLASS
  1
HATCH
  2
AcDbHatch
  3
AutoCAD 2000
 90
        0
280
     0
281
     1
  0
CLASS
  1
XRECORD
  2
AcDbXrecord
  3
AutoCAD 2000
 90
        0
280
     0
281
     0
  0
CLASS
  1
LONG_TRANSACTION
  2
AcDbLongTransaction
  3
AutoCAD 2000
 90
        0
280
     0
281
     0
  0
CLASS
  1
LWPOLYLINE
  2
AcDbPolyline
  3
AutoCAD 2000
 90
        0
280
     0
281
     1
  0
CLASS
  1
HATCH
  2
AcDbHatch
  3
AutoCAD 2000
 90
        0
280
     0
281
     1
  0
CLASS
  1
XRECORD
  2
AcDbXrecord
  3
AutoCAD 2000
 90
        0
280
     0
281
     0
  0
CLASS
  1
LONG_TRANSACTION
  2
AcDbLongTransaction
  3
AutoCAD 2000
 90
        0
280
     0
281
     0
  0
CLASS
  1
LWPOLYLINE
  2
AcDbPolyline
  3
AutoCAD 2000
 90
        0
280
     0
281
     1
  0
CLASS
  1
HATCH
  2
AcDbHatch
  3
AutoCAD 2000
 90
        0
280
     0
281
     1
  0
CLASS
  1
XRECORD
  2
AcDbXrecord
  3
AutoCAD 2000
 90
        0
280
     0
281
     0
  0
CLASS
  1
LONG_TRANSACTION
  2
AcDbLongTransaction
  3
AutoCAD 2000
 90
        0
280
     0
281
     0
  0
CLASS
  1
LWPOLYLINE
  2
AcDbPolyline
  3
AutoCAD 2000
 90
        0
280
     0
281
     1
  0
CLASS
  1
HATCH
  2
AcDbHatch
  3
AutoCAD 2000
 90
        0
280
     0
281
     1
  0
CLASS
  1
XRECORD
  2
AcDbXrecord
  3
AutoCAD 2000
 90
        0
280
     0
281
     0
  0
CLASS
  1
LONG_TRANSACTION
  2
AcDbLongTransaction
  3
AutoCAD 2000
 90
        0
280
     0
281
     0
  0
CLASS
  1
LWPOLYLINE
  2
AcDbPolyline
  3
AutoCAD 2000
 90
        0
280
     0
281
     1
  0
CLASS
  1
HATCH
  2
AcDbHatch
  3
AutoCAD 2000
 90
        0
280
     0
281
     1
  0
CLASS
  1
XRECORD
  2
AcDbXrecord
  3
AutoCAD 2000
 90
        0
280
     0
281
     0
  0
CLASS
  1
LONG_TRANSACTION
  2
AcDbLongTransaction
  3
AutoCAD 2000
 90
        0
280
     0
281
     0
  0
CLASS
  1
LWPOLYLINE
  2
AcDbPolyline
  3
AutoCAD 2000
 90
        0
280
     0
281
     1
  0
CLASS
  1
HATCH
  2
AcDbHatch
  3
AutoCAD 2000
 90
        0
280
     0
281
     1
  0
CLASS
  1
XRECORD
  2
AcDbXrecord
  3
AutoCAD 2000
 90
        0
280
     0
281
     0
  0
CLASS
  1
LONG_TRANSACTION
  2
AcDbLongTransaction
  3
AutoCAD 2000
 90
        0
280
     0
281
     0
  0
CLASS
  1
LWPOLYLINE
  2
AcDbPolyline
  3
AutoCAD 2000
 90
        0
280
     0
281
     1
  0
CLASS
  1
HATCH
  2
AcDbHatch
  3
AutoCAD 2000
 90
        0
280
     0
281
     1
  0
CLASS
  1
XRECORD
  2
AcDbXrecord
  3
AutoCAD 2000
 90
        0
280
     0
281
     0
  0
CLASS
  1
LONG_TRANSACTION
  2
AcDbLongTransaction
  3
AutoCAD 2000
 90
        0
280
     0
281
     0
  0
CLASS
  1
LWPOLYLINE
  2
AcDbPolyline
  3
AutoCAD 2000
 90
        0
280
     0
281
     1
  0
CLASS
  1
HATCH
  2
AcDbHatch
  3
AutoCAD 2000
 90
        0
280
     0
281
     1
  0
CLASS
  1
XRECORD
  2
AcDbXrecord
  3
AutoCAD 2000
 90
        0
280
     0
281
     0
  0
CLASS
  1
LONG_TRANSACTION
  2
AcDbLongTransaction
  3
AutoCAD 2000
 90
        0
280
     0
281
     0
  0
CLASS
  1
LWPOLYLINE
  2
AcDbPolyline
  3
AutoCAD 2000
 90
        0
280
     0
281
     1
  0
CLASS
  1
HATCH
  2
AcDbHatch
  3
AutoCAD 2000
 90
        0
280
     0
281
     1
  0
CLASS
  1
XRECORD
  2
AcDbXrecord
  3
AutoCAD 2000
 90
        0
280
     0
281
     0
  0
CLASS
  1
LONG_TRANSACTION
  2
AcDbLongTransaction
  3
AutoCAD 2000
 90
        0
280
     0
281
     0
  0
CLASS
  1
LWPOLYLINE
  2
AcDbPolyline
  3
AutoCAD 2000
 90
        0
280
     0
281
     1
  0
CLASS
  1
HATCH
  2
AcDbHatch
  3
AutoCAD 2000
 90
        0
280
     0
281
     1
  0
CLASS
  1
XRECORD
  2
AcDbXrecord
  3
AutoCAD 2000
 90
        0
280
     0
281
     0
  0
CLASS
  1
LONG_TRANSACTION
  2
AcDbLongTransaction
  3
AutoCAD 2000
 90
        0
280
     0
281
     0
  0
CLASS
  1
LWPOLYLINE
  2
AcDbPolyline
  3
AutoCAD 2000
 90
        0
280
     0
281
     1
  0
CLASS
  1
HATCH
  2
AcDbHatch
  3
AutoCAD 2000
 90
        0
280
     0
281
     1
  0
CLASS
  1
XRECORD
  2
AcDbXrecord
  3
AutoCAD 2000
 90
        0
280
     0
281
     0
  0
CLASS
  1
LONG_TRANSACTION
  2
AcDbLongTransaction
  3
AutoCAD 2000
 90
        0
280
     0
281
     0
  0
CLASS
  1
LWPOLYLINE
  2
AcDbPolyline
  3
AutoCAD 2000
 90
        0
280
     0
281
     1
  0
CLASS
  1
HATCH
  2
AcDbHatch
  3
AutoCAD 2000
 90
        0
280
     0
281
     1
  0
CLASS
  1
XRECORD
  2
AcDbXrecord
  3
AutoCAD 2000
 90
        0
280
     0
281
     0
  0
CLASS
  1
LONG_TRANSACTION
  2
AcDbLongTransaction
  3
AutoCAD 2000
 90
        0
280
     0
281
     0
  0
CLASS
  1
LWPOLYLINE
  2
AcDbPolyline
  3
AutoCAD 2000
 90
        0
280
     0
281
     1
  0
CLASS
  1
HATCH
  2
AcDbHatch
  3
AutoCAD 2000
 90
        0
280
     0
281
     1
  0
CLASS
  1
XRECORD
  2
AcDbXrecord
  3
AutoCAD 2000
 90
        0
280
     0
281
     0
  0
CLASS
  1
LONG_TRANSACTION
  2
AcDbLongTransaction
  3
AutoCAD 2000
 90
        0
280
     0
281
     0
  0
CLASS
  1
LWPOLYLINE
  2
AcDbPolyline
  3
AutoCAD 2000
 90
        0
280
     0
281
     1
  0
CLASS
  1
HATCH
  2
AcDbHatch
  3
AutoCAD 2000
 90
        0
280
     0
281
     1
  0
CLASS
  1
XRECORD
  2
AcDbXrecord
  3
AutoCAD 2000
 90
        0
280
     0
281
     0
  0
CLASS
  1
LONG_TRANSACTION
  2
AcDbLongTransaction
  3
AutoCAD 2000
 90
        0
280
     0
281
     0
  0
CLASS
  1
LWPOLYLINE
  2
AcDbPolyline
  3
AutoCAD 2000
 90
        0
280
     0
281
     1
  0
CLASS
  1
HATCH
  2
AcDbHatch
  3
AutoCAD 2000
 90
        0
280
     0
281
     1
  0
CLASS
  1
XRECORD
  2
AcDbXrecord
  3
AutoCAD 2000
 90
        0
280
     0
281
     0
  0
CLASS
  1
LONG_TRANSACTION
  2
AcDbLongTransaction
  3
AutoCAD 2000
 90
        0
280
     0
281
     0
  0
CLASS
  1
LWPOLYLINE
  2
AcDbPolyline
  3
AutoCAD 2000
 90
        0
280
     0
281
     1
  0
CLASS
  1
HATCH
  2
AcDbHatch
  3
AutoCAD 2000
 90
        0
280
     0
281
     1
  0
CLASS
  1
XRECORD
  2
AcDbXrecord
  3
AutoCAD 2000
 90
        0
280
     0
281
     0
  0
CLASS
  1
LONG_TRANSACTION
  2
AcDbLongTransaction
  3
AutoCAD 2000
 90
        0
280
     0
281
     0
  0
CLASS
  1
LWPOLYLINE
  2
AcDbPolyline
  3
AutoCAD 2000
 90
        0
280
     0
281
     1
  0
CLASS
  1
HATCH
  2
AcDbHatch
  3
AutoCAD 2000
 90
        0
280
     0
281
     1
  0
CLASS
  1
XRECORD
  2
AcDbXrecord
  3
AutoCAD 2000
 90
        0
280
     0
281
     0
  0
CLASS
  1
LONG_TRANSACTION
  2
AcDbLongTransaction
  3
AutoCAD 2000
 90
        0
280
     0
281
     0
  0
CLASS
  1
LWPOLYLINE
  2
AcDbPolyline
  3
AutoCAD 2000
 90
        0
280
     0
281
     1
  0
CLASS
  1
HATCH
  2
AcDbHatch
  3
AutoCAD 2000
 90
        0
280
     0
281
     1
  0
CLASS
  1
XRECORD
  2
AcDbXrecord
  3
AutoCAD 2000
 90
        0
280
     0
281
     0
  0
CLASS
  1
LONG_TRANSACTION
  2
AcDbLongTransaction
  3
AutoCAD 2000
 90
        0
280
     0
281
     0
  0
CLASS
  1
LWPOLYLINE
  2
AcDbPolyline
  3
AutoCAD 2000
 90
        0
280
     0
281
     1
  0
CLASS
  1
HATCH
  2
AcDbHatch
  3
AutoCAD 2000
 90
        0
280
     0
281
     1
  0
CLASS
  1
XRECORD
  2
AcDbXrecord
  3
AutoCAD 2000
 90
        0
280
     0
281
     0
  0
CLASS
  1
LONG_TRANSACTION
  2
AcDbLongTransaction
  3
AutoCAD 2000
 90
        0
280
     0
281
     0
  0
CLASS
  1
LWPOLYLINE
  2
AcDbPolyline
  3
AutoCAD 2000
 90
        0
280
     0
281
     1
  0
CLASS
  1
HATCH
  2
AcDbHatch
  3
AutoCAD 2000
 90
        0
280
     0
281
     1
  0
CLASS
  1
XRECORD
  2
AcDbXrecord
  3
AutoCAD 2000
 90
        0
280
     0
281
     0
  0
CLASS
  1
LONG_TRANSACTION
  2
AcDbLongTransaction
  3
AutoCAD 2000
 90
        0
280
     0
281
     0
  0
CLASS
  1
LWPOLYLINE
  2
AcDbPolyline
  3
AutoCAD 2000
 90
        0
280
     0
281
     1
  0
CLASS
  1
HATCH
  2
AcDbHatch
  3
AutoCAD 2000
 90
        0
280
     0
281
     1
  0
CLASS
  1
XRECORD
  2
AcDbXrecord
  3
AutoCAD 2000
 90
        0
280
     0
281
     0
  0
CLASS
  1
LONG_TRANSACTION
  2
AcDbLongTransaction
  3
AutoCAD 2000
 90
        0
280
     0
281
     0
  0
CLASS
  1
LWPOLYLINE
  2
AcDbPolyline
  3
AutoCAD 2000
 90
        0
280
     0
281
     1
  0
CLASS
  1
HATCH
  2
AcDbHatch
  3
AutoCAD 2000
 90
        0
280
     0
281
     1
  0
CLASS
  1
XRECORD
  2
AcDbXrecord
  3
AutoCAD 2000
 90
        0
280
     0
281
     0
  0
CLASS
  1
LONG_TRANSACTION
  2
AcDbLongTransaction
  3
AutoCAD 2000
 90
        0
280
     0
281
     0
  0
CLASS
  1
LWPOLYLINE
  2
AcDbPolyline
  3
AutoCAD 2000
 90
        0
280
     0
281
     1
  0
CLASS
  1
HATCH
  2
AcDbHatch
  3
AutoCAD 2000
 90
        0
280
     0
281
     1
  0
CLASS
  1
XRECORD
  2
AcDbXrecord
  3
AutoCAD 2000
 90
        0
280
     0
281
     0
  0
CLASS
  1
LONG_TRANSACTION
  2
AcDbLongTransaction
  3
AutoCAD 2000
 90
        0
280
     0
281
     0
  0
CLASS
  1
LWPOLYLINE
  2
AcDbPolyline
  3
AutoCAD 2000
 90
        0
280
     0
281
     1
  0
CLASS
  1
HATCH
  2
AcDbHatch
  3
AutoCAD 2000
 90
        0
280
     0
281
     1
  0
CLASS
  1
XRECORD
  2
AcDbXrecord
  3
AutoCAD 2000
 90
        0
280
     0
281
     0
  0
CLASS
  1
LONG_TRANSACTION
  2
AcDbLongTransaction
  3
AutoCAD 2000
 90
        0
280
     0
281
     0
  0
CLASS
  1
LWPOLYLINE
  2
AcDbPolyline
  3
AutoCAD 2000
 90
        0
280
     0
281
     1
  0
CLASS
  1
HATCH
  2
AcDbHatch
  3
AutoCAD 2000
 90
        0
280
     0
281
     1
  0
CLASS
  1
XRECORD
  2
AcDbXrecord
  3
AutoCAD 2000
 90
        0
280
     0
281
     0
  0
CLASS
  1
LONG_TRANSACTION
  2
AcDbLongTransaction
  3
AutoCAD 2000
 90
        0
280
     0
281
     0
  0
CLASS
  1
LWPOLYLINE
  2
AcDbPolyline
  3
AutoCAD 2000
 90
        0
280
     0
281
     1
  0
CLASS
  1
HATCH
  2
AcDbHatch
  3
AutoCAD 2000
 90
        0
280
     0
281
     1
  0
CLASS
  1
XRECORD
  2
AcDbXrecord
  3
AutoCAD 2000
 90
        0
280
     0
281
     0
  0
CLASS
  1
LONG_TRANSACTION
  2
AcDbLongTransaction
  3
AutoCAD 2000
 90
        0
280
     0
281
     0
  0
CLASS
  1
LWPOLYLINE
  2
AcDbPolyline
  3
AutoCAD 2000
 90
        0
280
     0
281
     1
  0
CLASS
  1
HATCH
  2
AcDbHatch
  3
AutoCAD 2000
 90
        0
280
     0
281
     1
  0
CLASS
  1
XRECORD
  2
AcDbXrecord
  3
AutoCAD 2000
 90
        0
280
     0
281
     0
  0
CLASS
  1
LONG_TRANSACTION
  2
AcDbLongTransaction
  3
AutoCAD 2000
 90
        0
280
     0
281
     0
  0
CLASS
  1
LWPOLYLINE
  2
AcDbPolyline
  3
AutoCAD 2000
 90
        0
280
     0
281
     1
  0
CLASS
  1
HATCH
  2
AcDbHatch
  3
AutoCAD 2000
 90
        0
280
     0
281
     1
  0
CLASS
  1
XRECORD
  2
AcDbXrecord
  3
AutoCAD 2000
 90
        0
280
     0
281
     0
  0
CLASS
  1
LONG_TRANSACTION
  2
AcDbLongTransaction
  3
AutoCAD 2000
 90
        0
280
     0
281
     0
  0
CLASS
  1
LWPOLYLINE
  2
AcDbPolyline
  3
AutoCAD 2000
 90
        0
280
     0
281
     1
  0
CLASS
  1
HATCH
  2
AcDbHatch
  3
AutoCAD 2000
 90
        0
280
     0
281
     1
  0
CLASS
  1
XRECORD
  2
AcDbXrecord
  3
AutoCAD 2000
 90
        0
280
     0
281
     0
  0
CLASS
  1
LONG_TRANSACTION
  2
AcDbLongTransaction
  3
AutoCAD 2000
 90
        0
280
     0
281
     0
  0
CLASS
  1
LWPOLYLINE
  2
AcDbPolyline
  3
AutoCAD 2000
 90
        0
280
     0
281
     1
  0
CLASS
  1
HATCH
  2
AcDbHatch
  3
AutoCAD 2000
 90
        0
280
     0
281
     1
  0
CLASS
  1
XRECORD
  2
AcDbXrecord
  3
AutoCAD 2000
 90
        0
280
     0
281
     0
  0
CLASS
  1
LONG_TRANSACTION
  2
AcDbLongTransaction
  3
AutoCAD 2000
 90
        0
280
     0
281
     0
  0
CLASS
  1
LWPOLYLINE
  2
AcDbPolyline
  3
AutoCAD 2000
 90
        0
280
     0
281
     1
  0
CLASS
  1
HATCH
  2
AcDbHatch
  3
AutoCAD 2000
 90
        0
280
     0
281
     1
  0
CLASS
  1
XRECORD
  2
AcDbXrecord
  3
AutoCAD 2000
 90
        0
280
     0
281
     0
  0
CLASS
  1
LONG_TRANSACTION
  2
AcDbLongTransaction
  3
AutoCAD 2000
 90
        0
280
     0
281
     0
  0
CLASS
  1
LWPOLYLINE
  2
AcDbPolyline
  3
AutoCAD 2000
 90
        0
280
     0
281
     1
  0
CLASS
  1
HATCH
  2
AcDbHatch
  3
AutoCAD 2000
 90
        0
280
     0
281
     1
  0
CLASS
  1
XRECORD
  2
AcDbXrecord
  3
AutoCAD 2000
 90
        0
280
     0
281
     0
  0
CLASS
  1
LONG_TRANSACTION
  2
AcDbLongTransaction
  3
AutoCAD 2000
 90
        0
280
     0
281
     0
  0
CLASS
  1
LWPOLYLINE
  2
AcDbPolyline
  3
AutoCAD 2000
 90
        0
280
     0
281
     1
  0
CLASS
  1
HATCH
  2
AcDbHatch
  3
AutoCAD 2000
 90
        0
280
     0
281
     1
  0
CLASS
  1
XRECORD
  2
AcDbXrecord
  3
AutoCAD 2000
 90
        0
280
     0
281
     0
  0
CLASS
  1
LONG_TRANSACTION
  2
AcDbLongTransaction
  3
AutoCAD 2000
 90
        0
280
     0
281
     0
  0
CLASS
  1
LWPOLYLINE
  2
AcDbPolyline
  3
AutoCAD 2000
 90
        0
280
     0
281
     1
  0
CLASS
  1
HATCH
  2
AcDbHatch
  3
AutoCAD 2000
 90
        0
280
     0
281
     1
  0
CLASS
  1
XRECORD
  2
AcDbXrecord
  3
AutoCAD 2000
 90
        0
280
     0
281
     0
  0
CLASS
  1
LONG_TRANSACTION
  2
AcDbLongTransaction
  3
AutoCAD 2000
 90
        0
280
     0
281
     0
  0
CLASS
  1
LWPOLYLINE
  2
AcDbPolyline
  3
AutoCAD 2000
 90
        0
280
     0
281
     1
  0
CLASS
  1
HATCH
  2
AcDbHatch
  3
AutoCAD 2000
 90
        0
280
     0
281
     1
  0
CLASS
  1
XRECORD
  2
AcDbXrecord
  3
AutoCAD 2000
 90
        0
280
     0
281
     0
  0
CLASS
  1
LONG_TRANSACTION
  2
AcDbLongTransaction
  3
AutoCAD 2000
 90
        0
280
     0
281
     0
  0
CLASS
  1
LWPOLYLINE
  2
AcDbPolyline
  3
AutoCAD 2000
 90
        0
280
     0
281
     1
  0
CLASS
  1
HATCH
  2
AcDbHatch
  3
AutoCAD 2000
 90
        0
280
     0
281
     1
  0
CLASS
  1
XRECORD
  2
AcDbXrecord
  3
AutoCAD 2000
 90
        0
280
     0
281
     0
  0
CLASS
  1
LONG_TRANSACTION
  2
AcDbLongTransaction
  3
AutoCAD 2000
 90
        0
280
     0
281
     0
  0
CLASS
  1
LWPOLYLINE
  2
AcDbPolyline
  3
AutoCAD 2000
 90
        0
280
     0
281
     1
  0
CLASS
  1
HATCH
  2
AcDbHatch
  3
AutoCAD 2000
 90
        0
280
     0
281
     1
  0
CLASS
  1
XRECORD
  2
AcDbXrecord
  3
AutoCAD 2000
 90
        0
280
     0
281
     0
  0
CLASS
  1
LONG_TRANSACTION
  2
AcDbLongTransaction
  3
AutoCAD 2000
 90
        0
280
     0
281
     0
  0
CLASS
  1
LWPOLYLINE
  2
AcDbPolyline
  3
AutoCAD 2000
 90
        0
280
     0
281
     1
  0
CLASS
  1
HATCH
  2
AcDbHatch
  3
AutoCAD 2000
 90
        0
280
     0
281
     1
  0
CLASS
  1
XRECORD
  2
AcDbXrecord
  3
AutoCAD 2000
 90
        0
280
     0
281
     0
  0
CLASS
  1
LONG_TRANSACTION
  2
AcDbLongTransaction
  3
AutoCAD 2000
 90
        0
280
     0
281
     0
  0
CLASS
  1
LWPOLYLINE
  2
AcDbPolyline
  3
AutoCAD 2000
 90
        0
280
     0
281
     1
  0
CLASS
  1
HATCH
  2
AcDbHatch
  3
AutoCAD 2000
 90
        0
280
     0
281
     1
  0
CLASS
  1
XRECORD
  2
AcDbXrecord
  3
AutoCAD 2000
 90
        0
280
     0
281
     0
  0
CLASS
  1
LONG_TRANSACTION
  2
AcDbLongTransaction
  3
AutoCAD 2000
 90
        0
280
     0
281
     0
  0
CLASS
  1
LWPOLYLINE
  2
AcDbPolyline
  3
AutoCAD 2000
 90
        0
280
     0
281
     1
  0
CLASS
  1
HATCH
  2
AcDbHatch
  3
AutoCAD 2000
 90
        0
280
     0
281
     1
  0
CLASS
  1
XRECORD
  2
AcDbXrecord
  3
AutoCAD 2000
 90
        0
280
     0
281
     0
  0
CLASS
  1
LONG_TRANSACTION
  2
AcDbLongTransaction
  3
AutoCAD 2000
 90
        0
280
     0
281
     0
  0
CLASS
  1
LWPOLYLINE
  2
AcDbPolyline
  3
AutoCAD 2000
 90
        0
280
     0
281
     1
  0
CLASS
  1
HATCH
  2
AcDbHatch
  3
AutoCAD 2000
 90
        0
280
     0
281
     1
  0
CLASS
  1
XRECORD
  2
AcDbXrecord
  3
AutoCAD 2000
 90
        0
280
     0
281
     0
  0
CLASS
  1
LONG_TRANSACTION
  2
AcDbLongTransaction
  3
AutoCAD 2000
 90
        0
280
     0
281
     0
  0
CLASS
  1
LWPOLYLINE
  2
AcDbPolyline
  3
AutoCAD 2000
 90
        0
280
     0
281
     1
  0
CLASS
  1
HATCH
  2
AcDbHatch
  3
AutoCAD 2000
 90
        0
280
     0
281
     1
  0
CLASS
  1
XRECORD
  2
AcDbXrecord
  3
AutoCAD 2000
 90
        0
280
     0
281
     0
  0
CLASS
  1
LONG_TRANSACTION
  2
AcDbLongTransaction
  3
AutoCAD 2000
 90
        0
280
     0
281
     0
  0
CLASS
  1
LWPOLYLINE
  2
AcDbPolyline
  3
AutoCAD 2000
 90
        0
280
     0
281
     1
  0
CLASS
  1
HATCH
  2
AcDbHatch
  3
AutoCAD 2000
 90
        0
280
     0
281
     1
  0
CLASS
  1
XRECORD
  2
AcDbXrecord
  3
AutoCAD 2000
 90
        0
280
     0
281
     0
  0
CLASS
  1
LONG_TRANSACTION
  2
AcDbLongTransaction
  3
AutoCAD 2000
 90
        0
280
     0
281
     0
  0
CLASS
  1
LWPOLYLINE
  2
AcDbPolyline
  3
AutoCAD 2000
 90
        0
280
     0
281
     1
  0
CLASS
  1
HATCH
  2
AcDbHatch
  3
AutoCAD 2000
 90
        0
280
     0
281
     1
  0
CLASS
  1
XRECORD
  2
AcDbXrecord
  3
AutoCAD 2000
 90
        0
280
     0
281
     0
  0
CLASS
  1
LONG_TRANSACTION
  2
AcDbLongTransaction
  3
AutoCAD 2000
 90
        0
280
     0
281
     0
  0
CLASS
  1
LWPOLYLINE
  2
AcDbPolyline
  3
AutoCAD 2000
 90
        0
280
     0
281
     1
  0
CLASS
  1
HATCH
  2
AcDbHatch
  3
AutoCAD 2000
 90
        0
280
     0
281
     1
  0
CLASS
  1
XRECORD
  2
AcDbXrecord
  3
AutoCAD 2000
 90
        0
280
     0
281
     0
  0
CLASS
  1
LONG_TRANSACTION
  2
AcDbLongTransaction
  3
AutoCAD 2000
 90
        0
280
     0
281
     0
  0
CLASS
  1
LWPOLYLINE
  2
AcDbPolyline
  3
AutoCAD 2000
 90
        0
280
     0
281
     1
  0
CLASS
  1
HATCH
  2
AcDbHatch
  3
AutoCAD 2000
 90
        0
280
     0
281
     1
  0
CLASS
  1
XRECORD
  2
AcDbXrecord
  3
AutoCAD 2000
 90
        0
280
     0
281
     0
  0
CLASS
  1
LONG_TRANSACTION
  2
AcDbLongTransaction
  3
AutoCAD 2000
 90
        0
280
     0
281
     0
  0
CLASS
  1
LWPOLYLINE
  2
AcDbPolyline
  3
AutoCAD 2000
 90
        0
280
     0
281
     1
  0
CLASS
  1
HATCH
  2
AcDbHatch
  3
AutoCAD 2000
 90
        0
280
     0
281
     1
  0
CLASS
  1
XRECORD
  2
AcDbXrecord
  3
AutoCAD 2000
 90
        0
280
     0
281
     0
  0
CLASS
  1
LONG_TRANSACTION
  2
AcDbLongTransaction
  3
AutoCAD 2000
 90
        0
280
     0
281
     0
  0
CLASS
  1
LWPOLYLINE
  2
AcDbPolyline
  3
AutoCAD 2000
 90
        0
280
     0
281
     1
  0
CLASS
  1
HATCH
  2
AcDbHatch
  3
AutoCAD 2000
 90
        0
280
     0
281
     1
  0
CLASS
  1
XRECORD
  2
AcDbXrecord
  3
AutoCAD 2000
 90
        0
280
     0
281
     0
  0
CLASS
  1
LONG_TRANSACTION
  2
AcDbLongTransaction
  3
AutoCAD 2000
 90
        0
280
     0
281
     0
  0
CLASS
  1
LWPOLYLINE
  2
AcDbPolyline
  3
AutoCAD 2000
 90
        0
280
     0
281
     1
  0
CLASS
  1
HATCH
  2
AcDbHatch
  3
AutoCAD 2000
 90
        0
280
     0
281
     1
  0
CLASS
  1
XRECORD
  2
AcDbXrecord
  3
AutoCAD 2000
 90
        0
280
     0
281
     0
  0
CLASS
  1
LONG_TRANSACTION
  2
AcDbLongTransaction
  3
AutoCAD 2000
 90
        0
280
     0
281
     0
  0
CLASS
  1
LWPOLYLINE
  2
AcDbPolyline
  3
AutoCAD 2000
 90
        0
280
     0
281
     1
  0
CLASS
  1
HATCH
  2
AcDbHatch
  3
AutoCAD 2000
 90
        0
280
     0
281
     1
  0
CLASS
  1
XRECORD
  2
AcDbXrecord
  3
AutoCAD 2000
 90
        0
280
     0
281
     0
  0
CLASS
  1
LONG_TRANSACTION
  2
AcDbLongTransaction
  3
AutoCAD 2000
 90
        0
280
     0
281
     0
  0
CLASS
  1
LWPOLYLINE
  2
AcDbPolyline
  3
AutoCAD 2000
 90
        0
280
     0
281
     1
  0
CLASS
  1
HATCH
  2
AcDbHatch
  3
AutoCAD 2000
 90
        0
280
     0
281
     1
  0
CLASS
  1
XRECORD
  2
AcDbXrecord
  3
AutoCAD 2000
 90
        0
280
     0
281
     0
  0
CLASS
  1
LONG_TRANSACTION
  2
AcDbLongTransaction
  3
AutoCAD 2000
 90
        0
280
     0
281
     0
  0
CLASS
  1
LWPOLYLINE
  2
AcDbPolyline
  3
AutoCAD 2000
 90
        0
280
     0
281
     1
  0
CLASS
  1
HATCH
  2
AcDbHatch
  3
AutoCAD 2000
 90
        0
280
     0
281
     1
  0
CLASS
  1
XRECORD
  2
AcDbXrecord
  3
AutoCAD 2000
 90
        0
280
     0
281
     0
  0
CLASS
  1
LONG_TRANSACTION
  2
AcDbLongTransaction
  3
AutoCAD 2000
 90
        0
280
     0
281
     0
  0
CLASS
  1
LWPOLYLINE
  2
AcDbPolyline
  3
AutoCAD 2000
 90
        0
280
     0
281
     1
  0
CLASS
  1
HATCH
  2
AcDbHatch
  3
AutoCAD 2000
 90
        0
280
     0
281
     1
  0
CLASS
  1
XRECORD
  2
AcDbXrecord
  3
AutoCAD 2000
 90
        0
280
     0
281
     0
  0
CLASS
  1
LONG_TRANSACTION
  2
AcDbLongTransaction
  3
AutoCAD 2000
 90
        0
280
     0
281
     0
  0
CLASS
  1
LWPOLYLINE
  2
AcDbPolyline
  3
AutoCAD 2000
 90
        0
280
     0
281
     1
  0
CLASS
  1
HATCH
  2
AcDbHatch
  3
AutoCAD 2000
 90
        0
280
     0
281
     1
  0
CLASS
  1
XRECORD
  2
AcDbXrecord
  3
AutoCAD 2000
 90
        0
280
     0
281
     0
  0
CLASS
  1
LONG_TRANSACTION
  2
AcDbLongTransaction
  3
AutoCAD 2000
 90
        0
280
     0
281
     0
  0
CLASS
  1
LWPOLYLINE
  2
AcDbPolyline
  3
AutoCAD 2000
 90
        0
280
     0
281
     1
  0
CLASS
  1
HATCH
  2
AcDbHatch
  3
AutoCAD 2000
 90
        0
280
     0
281
     1
  0
CLASS
  1
XRECORD
  2
AcDbXrecord
  3
AutoCAD 2000
 90
        0
280
     0
281
     0
  0
CLASS
  1
LONG_TRANSACTION
  2
AcDbLongTransaction
  3
AutoCAD 2000
 90
        0
280
     0
281
     0
  0
CLASS
  1
LWPOLYLINE
  2
AcDbPolyline
  3
AutoCAD 2000
 90
        0
280
     0
281
     1
  0
CLASS
  1
HATCH
  2
AcDbHatch
  3
AutoCAD 2000
 90
        0
280
     0
281
     1
  0
CLASS
  1
XRECORD
  2
AcDbXrecord
  3
AutoCAD 2000
 90
        0
280
     0
281
     0
  0
CLASS
  1
LONG_TRANSACTION
  2
AcDbLongTransaction
  3
AutoCAD 2000
 90
        0
280
     0
281
     0
  0
CLASS
  1
LWPOLYLINE
  2
AcDbPolyline
  3
AutoCAD 2000
 90
        0
280
     0
281
     1
  0
CLASS
  1
HATCH
  2
AcDbHatch
  3
AutoCAD 2000
 90
        0
280
     0
281
     1
  0
CLASS
  1
XRECORD
  2
AcDbXrecord
  3
AutoCAD 2000
 90
        0
280
     0
281
     0
  0
CLASS
  1
LONG_TRANSACTION
  2
AcDbLongTransaction
  3
AutoCAD 2000
 90
        0
280
     0
281
     0
  0
CLASS
  1
LWPOLYLINE
  2
AcDbPolyline
  3
AutoCAD 2000
 90
        0
280
     0
281
     1
  0
CLASS
  1
HATCH
  2
AcDbHatch
  3
AutoCAD 2000
 90
        0
280
     0
281
     1
  0
CLASS
  1
XRECORD
  2
AcDbXrecord
  3
AutoCAD 2000
 90
        0
280
     0
281
     0
  0
CLASS
  1
LONG_TRANSACTION
  2
AcDbLongTransaction
  3
AutoCAD 2000
 90
        0
280
     0
281
     0
  0
CLASS
  1
LWPOLYLINE
  2
AcDbPolyline
  3
AutoCAD 2000
 90
        0
280
     0
281
     1
  0
CLASS
  1
HATCH
  2
AcDbHatch
  3
AutoCAD 2000
 90
        0
280
     0
281
     1
  0
CLASS
  1
XRECORD
  2
AcDbXrecord
  3
AutoCAD 2000
 90
        0
280
     0
281
     0
  0
CLASS
  1
LONG_TRANSACTION
  2
AcDbLongTransaction
  3
AutoCAD 2000
 90
        0
280
     0
281
     0
  0
CLASS
  1
LWPOLYLINE
  2
AcDbPolyline
  3
AutoCAD 2000
 90
        0
280
     0
281
     1
  0
CLASS
  1
HATCH
  2
AcDbHatch
  3
AutoCAD 2000
 90
        0
280
     0
281
     1
  0
CLASS
  1
XRECORD
  2
AcDbXrecord
  3
AutoCAD 2000
 90
        0
280
     0
281
     0
  0
CLASS
  1
LONG_TRANSACTION
  2
AcDbLongTransaction
  3
AutoCAD 2000
 90
        0
280
     0
281
     0
  0
CLASS
  1
LWPOLYLINE
  2
AcDbPolyline
  3
AutoCAD 2000
 90
        0
280
     0
281
     1
  0
CLASS
  1
HATCH
  2
AcDbHatch
  3
AutoCAD 2000
 90
        0
280
     0
281
     1
  0
CLASS
  1
XRECORD
  2
AcDbXrecord
  3
AutoCAD 2000
 90
        0
280
     0
281
     0
  0
CLASS
  1
LONG_TRANSACTION
  2
AcDbLongTransaction
  3
AutoCAD 2000
 90
        0
280
     0
281
     0
  0
CLASS
  1
LWPOLYLINE
  2
AcDbPolyline
  3
AutoCAD 2000
 90
        0
280
     0
281
     1
  0
CLASS
  1
HATCH
  2
AcDbHatch
  3
AutoCAD 2000
 90
        0
280
     0
281
     1
  0
CLASS
  1
XRECORD
  2
AcDbXrecord
  3
AutoCAD 2000
 90
        0
280
     0
281
     0
  0
CLASS
  1
LONG_TRANSACTION
  2
AcDbLongTransaction
  3
AutoCAD 2000
 90
        0
280
     0
281
     0
  0
CLASS
  1
LWPOLYLINE
  2
AcDbPolyline
  3
AutoCAD 2000
 90
        0
280
     0
281
     1
  0
CLASS
  1
HATCH
  2
AcDbHatch
  3
AutoCAD 2000
 90
        0
280
     0
281
     1
  0
CLASS
  1
XRECORD
  2
AcDbXrecord
  3
AutoCAD 2000
 90
        0
280
     0
281
     0
  0
CLASS
  1
LONG_TRANSACTION
  2
AcDbLongTransaction
  3
AutoCAD 2000
 90
        0
280
     0
281
     0
  0
CLASS
  1
LWPOLYLINE
  2
AcDbPolyline
  3
AutoCAD 2000
 90
        0
280
     0
281
     1
  0
CLASS
  1
HATCH
  2
AcDbHatch
  3
AutoCAD 2000
 90
        0
280
     0
281
     1
  0
CLASS
  1
XRECORD
  2
AcDbXrecord
  3
AutoCAD 2000
 90
        0
280
     0
281
     0
  0
CLASS
  1
LONG_TRANSACTION
  2
AcDbLongTransaction
  3
AutoCAD 2000
 90
        0
280
     0
281
     0
  0
CLASS
  1
LWPOLYLINE
  2
AcDbPolyline
  3
AutoCAD 2000
 90
        0
280
     0
281
     1
  0
CLASS
  1
HATCH
  2
AcDbHatch
  3
AutoCAD 2000
 90
        0
280
     0
281
     1
  0
CLASS
  1
XRECORD
  2
AcDbXrecord
  3
AutoCAD 2000
 90
        0
280
     0
281
     0
  0
CLASS
  1
LONG_TRANSACTION
  2
AcDbLongTransaction
  3
AutoCAD 2000
 90
        0
280
     0
281
     0
  0
CLASS
  1
LWPOLYLINE
  2
AcDbPolyline
  3
AutoCAD 2000
 90
        0
280
     0
281
     1
  0
CLASS
  1
HATCH
  2
AcDbHatch
  3
AutoCAD 2000
 90
        0
280
     0
281
     1
  0
CLASS
  1
XRECORD
  2
AcDbXrecord
  3
AutoCAD 2000
 90
        0
280
     0
281
     0
  0
CLASS
  1
LONG_TRANSACTION
  2
AcDbLongTransaction
  3
AutoCAD 2000
 90
        0
280
     0
281
     0
  0
CLASS
  1
LWPOLYLINE
  2
AcDbPolyline
  3
AutoCAD 2000
 90
        0
280
     0
281
     1
  0
CLASS
  1
HATCH
  2
AcDbHatch
  3
AutoCAD 2000
 90
        0
280
     0
281
     1
  0
CLASS
  1
XRECORD
  2
AcDbXrecord
  3
AutoCAD 2000
 90
        0
280
     0
281
     0
  0
CLASS
  1
LONG_TRANSACTION
  2
AcDbLongTransaction
  3
AutoCAD 2000
 90
        0
280
     0
281
     0
  0
CLASS
  1
LWPOLYLINE
  2
AcDbPolyline
  3
AutoCAD 2000
 90
        0
280
     0
281
     1
  0
CLASS
  1
HATCH
  2
AcDbHatch
  3
AutoCAD 2000
 90
        0
280
     0
281
     1
  0
CLASS
  1
XRECORD
  2
AcDbXrecord
  3
AutoCAD 2000
 90
        0
280
     0
281
     0
  0
CLASS
  1
LONG_TRANSACTION
  2
AcDbLongTransaction
  3
AutoCAD 2000
 90
        0
280
     0
281
     0
  0
CLASS
  1
LWPOLYLINE
  2
AcDbPolyline
  3
AutoCAD 2000
 90
        0
280
     0
281
     1
  0
CLASS
  1
HATCH
  2
AcDbHatch
  3
AutoCAD 2000
 90
        0
280
     0
281
     1
  0
CLASS
  1
XRECORD
  2
AcDbXrecord
  3
AutoCAD 2000
 90
        0
280
     0
281
     0
  0
CLASS
  1
LONG_TRANSACTION
  2
AcDbLongTransaction
  3
AutoCAD 2000
 90
        0
280
     0
281
     0
  0
CLASS
  1
LWPOLYLINE
  2
AcDbPolyline
  3
AutoCAD 2000
 90
        0
280
     0
281
     1
  0
CLASS
  1
HATCH
  2
AcDbHatch
  3
AutoCAD 2000
 90
        0
280
     0
281
     1
  0
CLASS
  1
XRECORD
  2
AcDbXrecord
  3
AutoCAD 2000
 90
        0
280
     0
281
     0
  0
CLASS
  1
LONG_TRANSACTION
  2
AcDbLongTransaction
  3
AutoCAD 2000
 90
        0
280
     0
281
     0
  0
CLASS
  1
LWPOLYLINE
  2
AcDbPolyline
  3
AutoCAD 2000
 90
        0
280
     0
281
     1
  0
CLASS
  1
HATCH
  2
AcDbHatch
  3
AutoCAD 2000
 90
        0
280
     0
281
     1
  0
CLASS
  1
XRECORD
  2
AcDbXrecord
  3
AutoCAD 2000
 90
        0
280
     0
281
     0
  0
CLASS
  1
LONG_TRANSACTION
  2
AcDbLongTransaction
  3
AutoCAD 2000
 90
        0
280
     0
281
     0
  0
CLASS
  1
LWPOLYLINE
  2
AcDbPolyline
  3
AutoCAD 2000
 90
        0
280
     0
281
     1
  0
CLASS
  1
HATCH
  2
AcDbHatch
  3
AutoCAD 2000
 90
        0
280
     0
281
     1
  0
CLASS
  1
XRECORD
  2
AcDbXrecord
  3
AutoCAD 2000
 90
        0
280
     0
281
     0
  0
CLASS
  1
LONG_TRANSACTION
  2
AcDbLongTransaction
  3
AutoCAD 2000
 90
        0
280
     0
281
     0
  0
CLASS
  1
LWPOLYLINE
  2
AcDbPolyline
  3
AutoCAD 2000
 90
        0
280
     0
281
     1
  0
CLASS
  1
HATCH
  2
AcDbHatch
  3
AutoCAD 2000
 90
        0
280
     0
281
     1
  0
CLASS
  1
XRECORD
  2
AcDbXrecord
  3
AutoCAD 2000
 90
        0
280
     0
281
     0
  0
CLASS
  1
LONG_TRANSACTION
  2
AcDbLongTransaction
  3
AutoCAD 2000
 90
        0
280
     0
281
     0
  0
CLASS
  1
LWPOLYLINE
  2
AcDbPolyline
  3
AutoCAD 2000
 90
        0
280
     0
281
     1
  0
CLASS
  1
HATCH
  2
AcDbHatch
  3
AutoCAD 2000
 90
        0
280
     0
281
     1
  0
CLASS
  1
XRECORD
  2
AcDbXrecord
  3
AutoCAD 2000
 90
        0
280
     0
281
     0
  0
CLASS
  1
LONG_TRANSACTION
  2
AcDbLongTransaction
  3
AutoCAD 2000
 90
        0
280
     0
281
     0
  0
CLASS
  1
LWPOLYLINE
  2
AcDbPolyline
  3
AutoCAD 2000
 90
        0
280
     0
281
     1
  0
CLASS
  1
HATCH
  2
AcDbHatch
  3
AutoCAD 2000
 90
        0
280
     0
281
     1
  0
CLASS
  1
XRECORD
  2
AcDbXrecord
  3
AutoCAD 2000
 90
        0
280
     0
281
     0
  0
CLASS
  1
LONG_TRANSACTION
  2
AcDbLongTransaction
  3
AutoCAD 2000
 90
        0
280
     0
281
     0
  0
CLASS
  1
LWPOLYLINE
  2
AcDbPolyline
  3
AutoCAD 2000
 90
        0
280
     0
281
     1
  0
CLASS
  1
HATCH
  2
AcDbHatch
  3
AutoCAD 2000
 90
        0
280
     0
281
     1
  0
CLASS
  1
XRECORD
  2
AcDbXrecord
  3
AutoCAD 2000
 90
        0
280
     0
281
     0
  0
CLASS
  1
LONG_TRANSACTION
  2
AcDbLongTransaction
  3
AutoCAD 2000
 90
        0
280
     0
281
     0
  0
CLASS
  1
LWPOLYLINE
  2
AcDbPolyline
  3
AutoCAD 2000
 90
        0
280
     0
281
     1
  0
CLASS
  1
HATCH
  2
AcDbHatch
  3
AutoCAD 2000
 90
        0
280
     0
281
     1
  0
CLASS
  1
XRECORD
  2
AcDbXrecord
  3
AutoCAD 2000
 90
        0
280
     0
281
     0
  0
CLASS
  1
LONG_TRANSACTION
  2
AcDbLongTransaction
  3
AutoCAD 2000
 90
        0
280
     0
281
     0
  0
CLASS
  1
LWPOLYLINE
  2
AcDbPolyline
  3
AutoCAD 2000
 90
        0
280
     0
281
     1
  0
CLASS
  1
HATCH
  2
AcDbHatch
  3
AutoCAD 2000
 90
        0
280
     0
281
     1
  0
CLASS
  1
XRECORD
  2
AcDbXrecord
  3
AutoCAD 2000
 90
        0
280
     0
281
     0
  0
CLASS
  1
LONG_TRANSACTION
  2
AcDbLongTransaction
  3
AutoCAD 2000
 90
        0
280
     0
281
     0
  0
CLASS
  1
LWPOLYLINE
  2
AcDbPolyline
  3
AutoCAD 2000
 90
        0
280
     0
281
     1
  0
CLASS
  1
HATCH
  2
AcDbHatch
  3
AutoCAD 2000
 90
        0
280
     0
281
     1
  0
CLASS
  1
XRECORD
  2
AcDbXrecord
  3
AutoCAD 2000
 90
        0
280
     0
281
     0
  0
CLASS
  1
LONG_TRANSACTION
  2
AcDbLongTransaction
  3
AutoCAD 2000
 90
        0
280
     0
281
     0
  0
CLASS
  1
LWPOLYLINE
  2
AcDbPolyline
  3
AutoCAD 2000
 90
        0
280
     0
281
     1
  0
CLASS
  1
HATCH
  2
AcDbHatch
  3
AutoCAD 2000
 90
        0
280
     0
281
     1
  0
CLASS
  1
XRECORD
  2
AcDbXrecord
  3
AutoCAD 2000
 90
        0
280
     0
281
     0
  0
CLASS
  1
LONG_TRANSACTION
  2
AcDbLongTransaction
  3
AutoCAD 2000
 90
        0
280
     0
281
     0
  0
CLASS
  1
LWPOLYLINE
  2
AcDbPolyline
  3
AutoCAD 2000
 90
        0
280
     0
281
     1
  0
CLASS
  1
HATCH
  2
AcDbHatch
  3
AutoCAD 2000
 90
        0
280
     0
281
     1
  0
CLASS
  1
XRECORD
  2
AcDbXrecord
  3
AutoCAD 2000
 90
        0
280
     0
281
     0
  0
CLASS
  1
LONG_TRANSACTION
  2
AcDbLongTransaction
  3
AutoCAD 2000
 90
        0
280
     0
281
     0
  0
CLASS
  1
LWPOLYLINE
  2
AcDbPolyline
  3
AutoCAD 2000
 90
        0
280
     0
281
     1
  0
CLASS
  1
HATCH
  2
AcDbHatch
  3
AutoCAD 2000
 90
        0
280
     0
281
     1
  0
CLASS
  1
XRECORD
  2
AcDbXrecord
  3
AutoCAD 2000
 90
        0
280
     0
281
     0
  0
CLASS
  1
LONG_TRANSACTION
  2
AcDbLongTransaction
  3
AutoCAD 2000
 90
        0
280
     0
281
     0
  0
CLASS
  1
LWPOLYLINE
  2
AcDbPolyline
  3
AutoCAD 2000
 90
        0
280
     0
281
     1
  0
CLASS
  1
HATCH
  2
AcDbHatch
  3
AutoCAD 2000
 90
        0
280
     0
281
     1
  0
CLASS
  1
XRECORD
  2
AcDbXrecord
  3
AutoCAD 2000
 90
        0
280
     0
281
     0
  0
CLASS
  1
LONG_TRANSACTION
  2
AcDbLongTransaction
  3
AutoCAD 2000
 90
        0
280
     0
281
     0
  0
CLASS
  1
LWPOLYLINE
  2
AcDbPolyline
  3
AutoCAD 2000
 90
        0
280
     0
281
     1
  0
CLASS
  1
HATCH
  2
AcDbHatch
  3
AutoCAD 2000
 90
        0
280
     0
281
     1
  0
CLASS
  1
XRECORD
  2
AcDbXrecord
  3
AutoCAD 2000
 90
        0
280
     0
281
     0
  0
CLASS
  1
LONG_TRANSACTION
  2
AcDbLongTransaction
  3
AutoCAD 2000
 90
        0
280
     0
281
     0
  0
CLASS
  1
LWPOLYLINE
  2
AcDbPolyline
  3
AutoCAD 2000
 90
        0
280
     0
281
     1
  0
CLASS
  1
HATCH
  2
AcDbHatch
  3
AutoCAD 2000
 90
        0
280
     0
281
     1
  0
CLASS
  1
XRECORD
  2
AcDbXrecord
  3
AutoCAD 2000
 90
        0
280
     0
281
     0
  0
CLASS
  1
LONG_TRANSACTION
  2
AcDbLongTransaction
  3
AutoCAD 2000
 90
        0
280
     0
281
     0
  0
CLASS
  1
LWPOLYLINE
  2
AcDbPolyline
  3
AutoCAD 2000
 90
        0
280
     0
281
     1
  0
CLASS
  1
HATCH
  2
AcDbHatch
  3
AutoCAD 2000
 90
        0
280
     0
281
     1
  0
CLASS
  1
XRECORD
  2
AcDbXrecord
  3
AutoCAD 2000
 90
        0
280
     0
281
     0
  0
CLASS
  1
LONG_TRANSACTION
  2
AcDbLongTransaction
  3
AutoCAD 2000
 90
        0
280
     0
281
     0
  0
CLASS
  1
LWPOLYLINE
  2
AcDbPolyline
  3
AutoCAD 2000
 90
        0
280
     0
281
     1
  0
CLASS
  1
HATCH
  2
AcDbHatch
  3
AutoCAD 2000
 90
        0
280
     0
281
     1
  0
CLASS
  1
XRECORD
  2
AcDbXrecord
  3
AutoCAD 2000
 90
        0
280
     0
281
     0
  0
CLASS
  1
LONG_TRANSACTION
  2
AcDbLongTransaction
  3
AutoCAD 2000
 90
        0
280
     0
281
     0
  0
CLASS
  1
LWPOLYLINE
  2
AcDbPolyline
  3
AutoCAD 2000
 90
        0
280
     0
281
     1
  0
CLASS
  1
HATCH
  2
AcDbHatch
  3
AutoCAD 2000
 90
        0
280
     0
281
     1
  0
CLASS
  1
XRECORD
  2
AcDbXrecord
  3
AutoCAD 2000
 90
        0
280
     0
281
     0
  0
CLASS
  1
LONG_TRANSACTION
  2
AcDbLongTransaction
  3
AutoCAD 2000
 90
        0
280
     0
281
     0
  0
CLASS
  1
LWPOLYLINE
  2
AcDbPolyline
  3
AutoCAD 2000
 90
        0
280
     0
281
     1
  0
CLASS
  1
HATCH
  2
AcDbHatch
  3
AutoCAD 2000
 90
        0
280
     0
281
     1
  0
CLASS
  1
XRECORD
  2
AcDbXrecord
  3
AutoCAD 2000
 90
        0
280
     0
281
     0
  0
CLASS
  1
LONG_TRANSACTION
  2
AcDbLongTransaction
  3
AutoCAD 2000
 90
        0
280
     0
281
     0
  0
CLASS
  1
LWPOLYLINE
  2
AcDbPolyline
  3
AutoCAD 2000
 90
        0
280
     0
281
     1
  0
CLASS
  1
HATCH
  2
AcDbHatch
  3
AutoCAD 2000
 90
        0
280
     0
281
     1
  0
CLASS
  1
XRECORD
  2
AcDbXrecord
  3
AutoCAD 2000
 90
        0
280
     0
281
     0
  0
ENDSEC
  0
SECTION
  2
TABLES
  0
TABLE
  2
VPORT
  5
92
330
0
100
AcDbSymbolTable
 70
     2
  0
VPORT
  5
55C
330
92
100
AcDbSymbolTableRecord
100
AcDbViewportTableRecord
  2
*ACTIVE
 70
     0
 10
0.0
 20
0.0
 11
1.0
 21
1.0
 12
199.5466316431993
 22
269.7799804407295
 13
0.0
 23
0.0
 14
10.0
 24
10.0
 15
10.0
 25
10.0
 16
0.0
 26
0.0
 36
1.0
 17
0.0
 27
0.0
 37
0.0
 40
552.68590154607
 41
1.549367088607595
 42
50.0
 43
0.0
 44
0.0
 50
0.0
 51
0.0
 71
     0
 72
 10000
 73
     1
 74
     3
 75
     0
 76
     0
 77
     0
 78
     1
  0
ENDTAB
  0
TABLE
  2
LTYPE
  5
8D
330
0
100
AcDbSymbolTable
 70
     4
  0
LTYPE
  5
8E
330
8D
100
AcDbSymbolTableRecord
100
AcDbLinetypeTableRecord
  2
BYBLOCK
 70
     0
  3

 72
    65
 73
     0
 40
0.0
  0
LTYPE
  5
8F
330
8D
100
AcDbSymbolTableRecord
100
AcDbLinetypeTableRecord
  2
BYLAYER
 70
     0
  3

 72
    65
 73
     0
 40
0.0
  0
LTYPE
  5
A
330
8D
100
AcDbSymbolTableRecord
100
AcDbLinetypeTableRecord
  2
CONTINUOUS
 70
     0
  3
Solid line
 72
    65
 73
     0
 40
0.0
  0
LTYPE
  5
A4
330
8D
100
AcDbSymbolTableRecord
100
AcDbLinetypeTableRecord
  2
CENTER
 70
     0
  3
Center ____ _ ____ _ ____ _ ____ _ ____ _ ____
 72
    65
 73
     4
 40
50.8
 49
31.75
 74
     0
 49
-6.349999999999998
 74
     0
 49
6.349999999999998
 74
     0
 49
-6.349999999999998
 74
     0
  0
LTYPE
  5
A3
330
8D
100
AcDbSymbolTableRecord
100
AcDbLinetypeTableRecord
  2
CENTERX2
 70
     0
  3
Center (2x) ________  __  ________  __  _____
 72
    65
 73
     4
 40
101.6
 49
63.5
 74
     0
 49
-12.7
 74
     0
 49
12.7
 74
     0
 49
-12.7
 74
     0
  0
LTYPE
  5
17B
330
8D
100
AcDbSymbolTableRecord
100
AcDbLinetypeTableRecord
  2
HIDDEN
 70
     0
  3
Hidden __ __ __ __ __ __ __ __ __ __ __ __ __ _
 72
    65
 73
     2
 40
9.524999999999996
 49
6.349999999999998
 74
     0
 49
-3.174999999999998
 74
     0
  0
ENDTAB
  0
TABLE
  2
LAYER
  5
14
102
{ACAD_XDICTIONARY
360
15
102
}
330
0
100
AcDbSymbolTable
 70
     8
  0
LAYER
  5
6
330
14
100
AcDbSymbolTableRecord
100
AcDbLayerTableRecord
  2
0
 70
     0
 62
     7
  6
CONTINUOUS
  0
LAYER
  5
154
330
14
100
AcDbSymbolTableRecord
100
AcDbLayerTableRecord
  2
3
 70
     0
 62
     3
  6
CONTINUOUS
  0
LAYER
  5
146
330
14
100
AcDbSymbolTableRecord
100
AcDbLayerTableRecord
  2
1
 70
     0
 62
     1
  6
CENTER
  0
LAYER
  5
BB
330
14
100
AcDbSymbolTableRecord
100
AcDbLayerTableRecord
  2
DEFPOINTS
 70
     0
 62
     7
  6
CONTINUOUS
  0
LAYER
  5
EB
330
14
100
AcDbSymbolTableRecord
100
AcDbLayerTableRecord
  2
DIM
 70
     0
 62
     3
  6
CONTINUOUS
  0
LAYER
  5
A2
330
14
100
AcDbSymbolTableRecord
100
AcDbLayerTableRecord
  2
CL
 70
     0
 62
     1
  6
CENTERX2
  0
LAYER
  5
A7
330
14
100
AcDbSymbolTableRecord
100
AcDbLayerTableRecord
  2
CEN
 70
     0
 62
     1
  6
CENTER
  0
LAYER
  5
1DD
330
14
100
AcDbSymbolTableRecord
100
AcDbLayerTableRecord
  2
2
 70
     0
 62
     2
  6
CONTINUOUS
  0
ENDTAB
  0
TABLE
  2
STYLE
  5
8A
330
0
100
AcDbSymbolTable
 70
     2
  0
STYLE
  5
8B
330
8A
100
AcDbSymbolTableRecord
100
AcDbTextStyleTableRecord
  2
STANDARD
 70
     0
 40
0.0
 41
1.0
 50
0.0
 71
     0
 42
5.777225951253058
  3
romans.shx
  4
whgtxt.shx
  0
STYLE
  5
147
330
8A
100
AcDbSymbolTableRecord
100
AcDbTextStyleTableRecord
  2
GHS
 70
     0
 40
0.0
 41
0.6
 50
0.0
 71
     0
 42
3.0
  3
ROMANS
  4
GHS
  0
ENDTAB
  0
TABLE
  2
VIEW
  5
90
330
0
100
AcDbSymbolTable
 70
     0
  0
ENDTAB
  0
TABLE
  2
UCS
  5
91
330
0
100
AcDbSymbolTable
 70
     0
  0
ENDTAB
  0
TABLE
  2
APPID
  5
94
330
0
100
AcDbSymbolTable
 70
     2
  0
APPID
  5
95
330
94
100
AcDbSymbolTableRecord
100
AcDbRegAppTableRecord
  2
ACAD
 70
     0
  0
APPID
  5
580
330
94
100
AcDbSymbolTableRecord
100
AcDbRegAppTableRecord
  2
CONTENTBLOCKICON
 70
     0
  0
ENDTAB
  0
TABLE
  2
DIMSTYLE
  5
96
330
0
100
AcDbSymbolTable
 70
     2
  0
DIMSTYLE
105
B2
102
{ACAD_REACTORS
330
AF
330
30F
330
289
330
328
330
1E3
330
1F8
330
20A
330
21F
330
234
330
397
330
35E
330
2C8
330
2DD
330
2EB
330
298
330
37C
330
34A
330
26B
330
337
330
27C
330
2FD
102
}
330
96
100
AcDbSymbolTableRecord
100
AcDbDimStyleTableRecord
  2
STANDARD
 70
     0
  3

  4

  5

  6

  7

 40
1.0
 41
2.5
 42
1.0
 43
10.0
 44
0.6
 45
0.0
 46
0.0
 47
0.0
 48
0.0
140
3.0
141
0.09
142
0.0
143
25.4
144
1.0
145
0.0
146
1.0
147
1.0
 71
     0
 72
     0
 73
     0
 74
     0
 75
     0
 76
     0
 77
     1
 78
     8
170
     0
171
     2
172
     1
173
     0
174
     1
175
     0
176
   123
177
   123
178
     3
270
     2
271
     2
272
     2
273
     2
274
     2
340
8B
275
     1
280
     0
281
     0
282
     0
283
     1
284
     0
285
     0
286
     0
287
     0
288
     1
  0
DIMSTYLE
105
9C
102
{ACAD_REACTORS
330
1CC
330
137
330
159
330
16A
330
17D
330
18F
330
19E
330
1AB
330
125
330
1BD
330
DB
330
CA
102
}
330
96
100
AcDbSymbolTableRecord
100
AcDbDimStyleTableRecord
  2
1_1_2
 70
     0
  3

  4

  5

  6

  7

 40
1.0
 41
3.0
 42
1.0
 43
10.0
 44
0.6
 45
0.0
 46
0.0
 47
0.0
 48
0.0
140
3.5
141
0.09
142
0.0
143
25.4
144
1.0
145
0.0
146
1.0
147
1.0
 71
     0
 72
     0
 73
     0
 74
     0
 75
     0
 76
     0
 77
     1
 78
     8
170
     0
171
     2
172
     1
173
     0
174
     1
175
     0
176
   123
177
   123
178
     3
270
     2
271
     2
272
     2
273
     2
274
     2
340
8B
275
     1
280
     0
281
     0
282
     0
283
     1
284
     0
285
     0
286
     0
287
     0
288
     1
  0
ENDTAB
  0
TABLE
  2
BLOCK_RECORD
  5
1
330
0
100
AcDbSymbolTable
 70
    66
  0
BLOCK_RECORD
  5
2
102
{ACAD_XDICTIONARY
360
3
102
}
330
1
100
AcDbSymbolTableRecord
100
AcDbBlockTableRecord
  2
*MODEL_SPACE
  0
BLOCK_RECORD
  5
E
102
{ACAD_XDICTIONARY
360
F
102
}
330
1
100
AcDbSymbolTableRecord
100
AcDbBlockTableRecord
  2
*PAPER_SPACE
  0
BLOCK_RECORD
  5
B3
330
1
100
AcDbSymbolTableRecord
100
AcDbBlockTableRecord
  2
*D0
  0
BLOCK_RECORD
  5
AA
330
1
100
AcDbSymbolTableRecord
100
AcDbBlockTableRecord
  2
4
1001
ACAD
1000
DesignCenter Data
1002
{
1070
     1
1070
     4
1002
}
1001
CONTENTBLOCKICON
1071
        0
1004
2800000020000000200000000100080000000000000400000000000000000000000000000000000000000000000080000080000000808000800000008000800080800000C0C0C000C0DCC000F0CAA6000020400000206000002080000020A0000020C0000020E00000400000004020000040400000406000004080000040A0
1004
000040C0000040E00000600000006020000060400000606000006080000060A0000060C0000060E00000800000008020000080400000806000008080000080A0000080C0000080E00000A0000000A0200000A0400000A0600000A0800000A0A00000A0C00000A0E00000C0000000C0200000C0400000C0600000C0800000C0
1004
A00000C0C00000C0E00000E0000000E0200000E0400000E0600000E0800000E0A00000E0C00000E0E00040000000400020004000400040006000400080004000A0004000C0004000E00040200000402020004020400040206000402080004020A0004020C0004020E000404000004040200040404000404060004040800040
1004
40A0004040C0004040E00040600000406020004060400040606000406080004060A0004060C0004060E00040800000408020004080400040806000408080004080A0004080C0004080E00040A0000040A0200040A0400040A0600040A0800040A0A00040A0C00040A0E00040C0000040C0200040C0400040C0600040C08000
1004
40C0A00040C0C00040C0E00040E0000040E0200040E0400040E0600040E0800040E0A00040E0C00040E0E00080000000800020008000400080006000800080008000A0008000C0008000E00080200000802020008020400080206000802080008020A0008020C0008020E00080400000804020008040400080406000804080
1004
008040A0008040C0008040E00080600000806020008060400080606000806080008060A0008060C0008060E00080800000808020008080400080806000808080008080A0008080C0008080E00080A0000080A0200080A0400080A0600080A0800080A0A00080A0C00080A0E00080C0000080C0200080C0400080C0600080C0
1004
800080C0A00080C0C00080C0E00080E0000080E0200080E0400080E0600080E0800080E0A00080E0C00080E0E000C0000000C0002000C0004000C0006000C0008000C000A000C000C000C000E000C0200000C0202000C0204000C0206000C0208000C020A000C020C000C020E000C0400000C0402000C0404000C0406000C0
1004
408000C040A000C040C000C040E000C0600000C0602000C0604000C0606000C0608000C060A000C060C000C060E000C0800000C0802000C0804000C0806000C0808000C080A000C080C000C080E000C0A00000C0A02000C0A04000C0A06000C0A08000C0A0A000C0A0C000C0A0E000C0C00000C0C02000C0C04000C0C06000
1004
C0C08000C0C0A000F0FBFF00A4A0A000808080000000FF0000FF000000FFFF00FF000000FF00FF00FFFF0000FFFFFF0000000000000000000000000000000000000000000000000000000000000000000000000000000000000000000000000000000000000000000000000000000000000000000000000000000000000000
1004
0000000000000000000000000000000000000000FFFFFFFFFFFFFFFFFFFFFFFFFFFFFFFFFFFFFFFFFF000000000000000000FFFFFF00F9000000000000000000000000000000F9FFF9FF0000000000000000FF00FFF90000000000000000000000000000000000FFFFFF0000000000000000F3F3F9F9000000000000000000
1004
00000000000000F9FFF9FF0000000000000000FFF9000000000000000000000000000000000000000000FF0000000000000000FF00F3F300000000000000000000000000000000000000FF0000000000000000FF000000F3000000000000000000000000000000000000FF0000000000000000FF00000000F3000000000000
1004
0000000000000000000000FF0000000000000000FF0000000000F3F3000000000000000000000000000000FF0000000000000000FF00000000000000F30000000000000000000000000000FF0000000000000000FF0000000000000000F3F3000000000000000000000000FF0000000000000000FF00000000000000000000
1004
F30000000000000000000000FF0000000000000000FF0000000000000000000000F300000000000000000000FF0000000000000000FF000000000000000000000000F3F30000000000000000FF0000000000000000FF0000000000000000000000000000F300000000000000FF0000000000000000FF000000000000000000
1004
000000000000F3F30000000000FF0000000000000000FF0000000000000000000000000000000000F300000000FF0000000000000000FF000000000000000000000000000000000000F3000000FF0000000000000000FF00000000000000000000000000000000000000F3F300FF0000000000000000FF0000000000000000
1004
00000000000000000000000000FFFF0000000000000000FF00FFF900000000000000000000000000000000F9F900F30000000000000000FF00FFFF00000000000000000000000000000000F9F9FFFFFAF300000000000000FFF900F90000000000000000000000000000F90000F9FFFAFAF300000000000000FFFFFFFFFFFF
1004
FFFFFFFFFFFFFFFFFFFFFFFFFFFFFF0000FAFAFAF30000000000000000000000000000000000000000000000000000000000FAFAFAF30000000000000000000000000000000000000000000000000000000000FAFA000000000000000000000000000000000000000000000000000000000000000000000000000000000000
1004
0000000000000000000000000000000000000000000000000000000000000000000000000000000000000000000000000000000000000000
  0
BLOCK_RECORD
  5
28A
330
1
100
AcDbSymbolTableRecord
100
AcDbBlockTableRecord
  2
*D2
  0
BLOCK_RECORD
  5
329
330
1
100
AcDbSymbolTableRecord
100
AcDbBlockTableRecord
  2
*D3
  0
BLOCK_RECORD
  5
1F9
330
1
100
AcDbSymbolTableRecord
100
AcDbBlockTableRecord
  2
*D4
  0
BLOCK_RECORD
  5
35F
330
1
100
AcDbSymbolTableRecord
100
AcDbBlockTableRecord
  2
*D5
  0
BLOCK_RECORD
  5
2C9
330
1
100
AcDbSymbolTableRecord
100
AcDbBlockTableRecord
  2
*D6
  0
BLOCK_RECORD
  5
2DE
330
1
100
AcDbSymbolTableRecord
100
AcDbBlockTableRecord
  2
*D7
  0
BLOCK_RECORD
  5
299
330
1
100
AcDbSymbolTableRecord
100
AcDbBlockTableRecord
  2
*D8
  0
BLOCK_RECORD
  5
37D
330
1
100
AcDbSymbolTableRecord
100
AcDbBlockTableRecord
  2
*D9
  0
BLOCK_RECORD
  5
27D
330
1
100
AcDbSymbolTableRecord
100
AcDbBlockTableRecord
  2
*D10
  0
BLOCK_RECORD
  5
312
330
1
100
AcDbSymbolTableRecord
100
AcDbBlockTableRecord
  2
*D11
  0
BLOCK_RECORD
  5
1E6
330
1
100
AcDbSymbolTableRecord
100
AcDbBlockTableRecord
  2
*D12
  0
BLOCK_RECORD
  5
20D
330
1
100
AcDbSymbolTableRecord
100
AcDbBlockTableRecord
  2
*D13
  0
BLOCK_RECORD
  5
222
330
1
100
AcDbSymbolTableRecord
100
AcDbBlockTableRecord
  2
*D14
  0
BLOCK_RECORD
  5
237
330
1
100
AcDbSymbolTableRecord
100
AcDbBlockTableRecord
  2
*D15
  0
BLOCK_RECORD
  5
39A
330
1
100
AcDbSymbolTableRecord
100
AcDbBlockTableRecord
  2
*D16
  0
BLOCK_RECORD
  5
2EE
330
1
100
AcDbSymbolTableRecord
100
AcDbBlockTableRecord
  2
*D17
  0
BLOCK_RECORD
  5
34D
330
1
100
AcDbSymbolTableRecord
100
AcDbBlockTableRecord
  2
*D18
  0
BLOCK_RECORD
  5
26E
330
1
100
AcDbSymbolTableRecord
100
AcDbBlockTableRecord
  2
*D19
  0
BLOCK_RECORD
  5
33A
330
1
100
AcDbSymbolTableRecord
100
AcDbBlockTableRecord
  2
*D20
  0
BLOCK_RECORD
  5
300
330
1
100
AcDbSymbolTableRecord
100
AcDbBlockTableRecord
  2
*D21
  0
BLOCK_RECORD
  5
1CD
330
1
100
AcDbSymbolTableRecord
100
AcDbBlockTableRecord
  2
*D22
  0
BLOCK_RECORD
  5
138
330
1
100
AcDbSymbolTableRecord
100
AcDbBlockTableRecord
  2
*D23
  0
BLOCK_RECORD
  5
17E
330
1
100
AcDbSymbolTableRecord
100
AcDbBlockTableRecord
  2
*D24
  0
BLOCK_RECORD
  5
190
330
1
100
AcDbSymbolTableRecord
100
AcDbBlockTableRecord
  2
*D25
  0
BLOCK_RECORD
  5
19F
330
1
100
AcDbSymbolTableRecord
100
AcDbBlockTableRecord
  2
*D26
  0
BLOCK_RECORD
  5
1AC
330
1
100
AcDbSymbolTableRecord
100
AcDbBlockTableRecord
  2
*D27
  0
BLOCK_RECORD
  5
1BE
330
1
100
AcDbSymbolTableRecord
100
AcDbBlockTableRecord
  2
*D28
  0
BLOCK_RECORD
  5
DC
330
1
100
AcDbSymbolTableRecord
100
AcDbBlockTableRecord
  2
*D29
  0
BLOCK_RECORD
  5
CB
330
1
100
AcDbSymbolTableRecord
100
AcDbBlockTableRecord
  2
*D30
  0
BLOCK_RECORD
  5
15C
330
1
100
AcDbSymbolTableRecord
100
AcDbBlockTableRecord
  2
*D31
  0
BLOCK_RECORD
  5
16D
330
1
100
AcDbSymbolTableRecord
100
AcDbBlockTableRecord
  2
*D32
  0
BLOCK_RECORD
  5
128
330
1
100
AcDbSymbolTableRecord
100
AcDbBlockTableRecord
  2
*D33
  0
BLOCK_RECORD
  5
3AF
330
1
100
AcDbSymbolTableRecord
100
AcDbBlockTableRecord
  2
*D34
  0
BLOCK_RECORD
  5
3BB
330
1
100
AcDbSymbolTableRecord
100
AcDbBlockTableRecord
  2
*D35
  0
BLOCK_RECORD
  5
3C9
330
1
100
AcDbSymbolTableRecord
100
AcDbBlockTableRecord
  2
*D36
  0
BLOCK_RECORD
  5
3D5
330
1
100
AcDbSymbolTableRecord
100
AcDbBlockTableRecord
  2
*D37
  0
BLOCK_RECORD
  5
3E3
330
1
100
AcDbSymbolTableRecord
100
AcDbBlockTableRecord
  2
*D38
  0
BLOCK_RECORD
  5
3F1
330
1
100
AcDbSymbolTableRecord
100
AcDbBlockTableRecord
  2
*D39
  0
BLOCK_RECORD
  5
3FD
330
1
100
AcDbSymbolTableRecord
100
AcDbBlockTableRecord
  2
*D40
  0
BLOCK_RECORD
  5
40B
330
1
100
AcDbSymbolTableRecord
100
AcDbBlockTableRecord
  2
*D41
  0
BLOCK_RECORD
  5
419
330
1
100
AcDbSymbolTableRecord
100
AcDbBlockTableRecord
  2
*D42
  0
BLOCK_RECORD
  5
427
330
1
100
AcDbSymbolTableRecord
100
AcDbBlockTableRecord
  2
*D43
  0
BLOCK_RECORD
  5
433
330
1
100
AcDbSymbolTableRecord
100
AcDbBlockTableRecord
  2
*D44
  0
BLOCK_RECORD
  5
43F
330
1
100
AcDbSymbolTableRecord
100
AcDbBlockTableRecord
  2
*D45
  0
BLOCK_RECORD
  5
44B
330
1
100
AcDbSymbolTableRecord
100
AcDbBlockTableRecord
  2
*D46
  0
BLOCK_RECORD
  5
457
330
1
100
AcDbSymbolTableRecord
100
AcDbBlockTableRecord
  2
*D47
  0
BLOCK_RECORD
  5
465
330
1
100
AcDbSymbolTableRecord
100
AcDbBlockTableRecord
  2
*D48
  0
BLOCK_RECORD
  5
471
330
1
100
AcDbSymbolTableRecord
100
AcDbBlockTableRecord
  2
*D49
  0
BLOCK_RECORD
  5
47D
330
1
100
AcDbSymbolTableRecord
100
AcDbBlockTableRecord
  2
*D50
  0
BLOCK_RECORD
  5
48B
330
1
100
AcDbSymbolTableRecord
100
AcDbBlockTableRecord
  2
*D51
  0
BLOCK_RECORD
  5
497
330
1
100
AcDbSymbolTableRecord
100
AcDbBlockTableRecord
  2
*D52
  0
BLOCK_RECORD
  5
4A5
330
1
100
AcDbSymbolTableRecord
100
AcDbBlockTableRecord
  2
*D53
  0
BLOCK_RECORD
  5
4B1
330
1
100
AcDbSymbolTableRecord
100
AcDbBlockTableRecord
  2
*D54
  0
BLOCK_RECORD
  5
4BD
330
1
100
AcDbSymbolTableRecord
100
AcDbBlockTableRecord
  2
*D55
  0
BLOCK_RECORD
  5
4C8
330
1
100
AcDbSymbolTableRecord
100
AcDbBlockTableRecord
  2
*D56
  0
BLOCK_RECORD
  5
4D4
330
1
100
AcDbSymbolTableRecord
100
AcDbBlockTableRecord
  2
*D57
  0
BLOCK_RECORD
  5
4E2
330
1
100
AcDbSymbolTableRecord
100
AcDbBlockTableRecord
  2
*D58
  0
BLOCK_RECORD
  5
4EE
330
1
100
AcDbSymbolTableRecord
100
AcDbBlockTableRecord
  2
*D59
  0
BLOCK_RECORD
  5
4FA
330
1
100
AcDbSymbolTableRecord
100
AcDbBlockTableRecord
  2
*D60
  0
BLOCK_RECORD
  5
506
330
1
100
AcDbSymbolTableRecord
100
AcDbBlockTableRecord
  2
*D61
  0
BLOCK_RECORD
  5
512
330
1
100
AcDbSymbolTableRecord
100
AcDbBlockTableRecord
  2
*D62
  0
BLOCK_RECORD
  5
520
330
1
100
AcDbSymbolTableRecord
100
AcDbBlockTableRecord
  2
*D63
  0
BLOCK_RECORD
  5
52B
330
1
100
AcDbSymbolTableRecord
100
AcDbBlockTableRecord
  2
*D64
  0
BLOCK_RECORD
  5
537
330
1
100
AcDbSymbolTableRecord
100
AcDbBlockTableRecord
  2
*D65
  0
ENDTAB
  0
ENDSEC
  0
SECTION
  2
BLOCKS
  0
BLOCK
  5
5
330
2
100
AcDbEntity
  8
0
100
AcDbBlockBegin
  2
*MODEL_SPACE
 70
     0
 10
0.0
 20
0.0
 30
0.0
  3
*MODEL_SPACE
  1

  0
ENDBLK
  5
B
330
2
100
AcDbEntity
  8
0
100
AcDbBlockEnd
  0
BLOCK
  5
11
330
E
100
AcDbEntity
 67
     1
  8
0
100
AcDbBlockBegin
  2
*PAPER_SPACE
 70
     0
 10
0.0
 20
0.0
 30
0.0
  3
*PAPER_SPACE
  1

  0
ENDBLK
  5
12
330
E
100
AcDbEntity
 67
     1
  8
0
100
AcDbBlockEnd
  0
BLOCK
  5
BD
330
B3
100
AcDbEntity
  8
0
100
AcDbBlockBegin
  2
*D0
 70
     1
 10
0.0
 20
0.0
 30
0.0
  3
*D0
  1

  0
LINE
  5
B4
330
B3
100
AcDbEntity
  8
0
 62
   123
100
AcDbLine
 10
-474.0668181331803
 20
-2516.925402556208
 30
0.0
 11
-497.6135875546876
 21
-2534.857403328699
 31
0.0
  0
LINE
  5
B5
330
B3
100
AcDbEntity
  8
0
 62
   123
100
AcDbLine
 10
-584.3305466904876
 20
-2600.896550796242
 30
0.0
 11
-586.3194677715838
 21
-2602.411210141828
 31
0.0
  0
MTEXT
  5
B6
330
B3
100
AcDbEntity
  8
0
 62
     3
100
AcDbMText
 10
-484.8441670850144
 20
-2521.990466427412
 30
0.0
 40
3.0
 41
0.0
 71
     5
 72
     1
  1
\A1;\U+2205104%%P0.5
 11
0.7955684324385314
 21
0.6058637382343476
 31
0.0
1001
ACAD
1000
MTEXTBEGIN
1070
    73
1070
     1
1070
    44
1040
1.0
1070
    74
1070
     0
1000
MTEXTEND
  0
LINE
  5
B7
330
B3
100
AcDbEntity
  8
0
 62
   123
100
AcDbLine
 10
-582.3416256093914
 20
-2599.381891450657
 30
0.0
 11
-499.6025086357839
 21
-2536.372062674285
 31
0.0
  0
SOLID
  5
B8
330
B3
100
AcDbEntity
  8
0
 62
   123
100
AcDbTrace
 10
-584.5829899147519
 20
-2600.565063949392
 30
0.0
 11
-584.0781034662234
 21
-2601.228037643092
 31
0.0
 12
-582.3416256093914
 22
-2599.381891450657
 32
0.0
 13
-582.3416256093914
 23
-2599.381891450657
 33
0.0
  0
SOLID
  5
B9
330
B3
100
AcDbEntity
  8
0
 62
   123
100
AcDbTrace
 10
-497.8660307789517
 20
-2534.52591648185
 30
0.0
 11
-497.3611443304232
 21
-2535.188890175549
 31
0.0
 12
-499.6025086357839
 22
-2536.372062674285
 32
0.0
 13
-499.6025086357839
 23
-2536.372062674285
 33
0.0
  0
POINT
  5
BA
330
B3
100
AcDbEntity
  8
DEFPOINTS
 62
     0
100
AcDbPoint
 10
-499.6025086357839
 20
-2536.372062674285
 30
0.0
  0
POINT
  5
BC
330
B3
100
AcDbEntity
  8
DEFPOINTS
 62
     0
100
AcDbPoint
 10
-582.3416256093914
 20
-2599.381891450657
 30
0.0
  0
ENDBLK
  5
BE
330
B3
100
AcDbEntity
  8
0
100
AcDbBlockEnd
  0
BLOCK
  5
C8
330
AA
100
AcDbEntity
  8
0
100
AcDbBlockBegin
  2
4
 70
     0
 10
0.0
 20
0.0
 30
0.0
  3
4
  1

  0
LWPOLYLINE
  5
AB
330
AA
100
AcDbEntity
  8
0
100
AcDbPolyline
 90
        8
 70
     1
 43
0.0
 10
-40.0
 20
-45.00000000000045
 10
40.0
 20
-45.0
 42
0.4142135623730951
 10
45.0
 20
-40.0
 10
45.0
 20
40.0
 42
0.4142135623730951
 10
40.0
 20
45.0
 10
-40.0
 20
45.0
 42
0.4142135623730951
 10
-45.0
 20
40.0
 10
-45.0
 20
-40.00000000000045
 42
0.4142135623730951
  0
CIRCLE
  5
AC
330
AA
100
AcDbEntity
  8
0
100
AcDbCircle
 10
36.76955262170071
 20
36.76955262170031
 30
0.0
 40
3.25
  0
LINE
  5
AD
330
AA
100
AcDbEntity
  8
CL
 48
0.6
100
AcDbLine
 10
33.05724202047111
 20
33.05724202047122
 30
0.0
 11
40.48186322293008
 21
40.48186322292986
 31
0.0
  0
ARC
  5
AE
102
{ACAD_REACTORS
330
B1
102
}
330
AA
100
AcDbEntity
  8
CL
 48
0.6
100
AcDbCircle
 10
0.0
 20
0.0
 30
0.0
 40
51.9999999999996
100
AcDbArc
 50
35.90024337538245
 51
54.09975662462136
  0
DIMENSION
  5
AF
102
{ACAD_XDICTIONARY
360
B0
102
}
102
{ACAD_REACTORS
330
B1
102
}
330
AA
100
AcDbEntity
  8
0
100
AcDbDimension
  2
*D0
 10
-41.36955848680371
 20
-31.50491438818607
 30
0.0
 11
57.64255938315909
 21
43.89758955396246
 31
0.0
 12
540.9720671225876
 22
2567.87697706247
 32
0.0
 70
   131
  1
<>%%P0.5
  3
STANDARD
100
AcDbDiametricDimension
 15
41.36955848680371
 25
31.50491438818607
 35
0.0
 40
0.0
1001
ACAD
1000
DSTYLE
1002
{
1070
   287
1070
     4
1070
   287
1070
     4
1070
   287
1070
     4
1070
   287
1070
     4
1070
   287
1070
     4
1070
   279
1070
     1
1070
   289
1070
     3
1002
}
  0
ARC
  5
BF
330
AA
100
AcDbEntity
  8
CL
 48
0.6
100
AcDbCircle
 10
-0.0000000000002274
 20
0.0
 30
0.0
 40
52.0
100
AcDbArc
 50
129.2128702778055
 51
140.7871297221883
  0
LINE
  5
C0
330
AA
100
AcDbEntity
  8
CL
 48
0.6
100
AcDbLine
 10
-33.05724202047122
 20
33.05724202047122
 30
0.0
 11
-40.48186322292986
 21
40.48186322293031
 31
0.0
  0
CIRCLE
  5
C1
330
AA
100
AcDbEntity
  8
0
100
AcDbCircle
 10
-36.76955262170054
 20
36.76955262170077
 30
0.0
 40
3.25
  0
LINE
  5
C2
330
AA
100
AcDbEntity
  8
CL
 48
0.6
100
AcDbLine
 10
-33.05724202047122
 20
-33.05724202047122
 30
0.0
 11
-40.48186322293008
 21
-40.48186322292986
 31
0.0
  0
CIRCLE
  5
C3
330
AA
100
AcDbEntity
  8
0
100
AcDbCircle
 10
-36.76955262170077
 20
-36.76955262170031
 30
0.0
 40
3.25
  0
ARC
  5
C4
330
AA
100
AcDbEntity
  8
CL
 48
0.6
100
AcDbCircle
 10
0.0
 20
0.0
 30
0.0
 40
51.9999999999996
100
AcDbArc
 50
215.9002433753824
 51
234.0997566246214
  0
ARC
  5
C5
330
AA
100
AcDbEntity
  8
CL
 48
0.6
100
AcDbCircle
 10
0.0
 20
0.0000000000004547
 30
0.0
 40
52.0
100
AcDbArc
 50
309.2128702778056
 51
320.7871297221883
  0
LINE
  5
C6
330
AA
100
AcDbEntity
  8
CL
 48
0.6
100
AcDbLine
 10
33.05724202047076
 20
-33.05724202047122
 30
0.0
 11
40.48186322292941
 21
-40.48186322293031
 31
0.0
  0
CIRCLE
  5
C7
330
AA
100
AcDbEntity
  8
0
100
AcDbCircle
 10
36.76955262170025
 20
-36.76955262170077
 30
0.0
 40
3.25
  0
ENDBLK
  5
C9
330
AA
100
AcDbEntity
  8
0
100
AcDbBlockEnd
  0
BLOCK
  5
294
330
28A
100
AcDbEntity
  8
0
100
AcDbBlockBegin
  2
*D2
 70
     1
 10
0.0
 20
0.0
 30
0.0
  3
*D2
  1

  0
LINE
  5
28B
330
28A
100
AcDbEntity
  8
0
 62
   123
100
AcDbLine
 10
8654.486293650924
 20
-3773.875929643996
 30
0.0
 11
8654.486293650924
 21
-3844.481482855615
 31
0.0
  0
LINE
  5
28C
330
28A
100
AcDbEntity
  8
0
 62
   123
100
AcDbLine
 10
8686.486293650924
 20
-3828.375929643996
 30
0.0
 11
8686.486293650924
 21
-3844.481482855615
 31
0.0
  0
LINE
  5
28D
330
28A
100
AcDbEntity
  8
0
 62
   123
100
AcDbLine
 10
8656.986293650923
 20
-3843.881482855615
 30
0.0
 11
8683.986293650923
 21
-3843.881482855615
 31
0.0
  0
SOLID
  5
28E
330
28A
100
AcDbEntity
  8
0
 62
   123
100
AcDbTrace
 10
8656.986293650923
 20
-3843.464816188948
 30
0.0
 11
8656.986293650923
 21
-3844.29814952228
 31
0.0
 12
8654.486293650924
 22
-3843.881482855615
 32
0.0
 13
8654.486293650924
 23
-3843.881482855615
 33
0.0
  0
SOLID
  5
28F
330
28A
100
AcDbEntity
  8
0
 62
   123
100
AcDbTrace
 10
8683.986293650923
 20
-3843.464816188948
 30
0.0
 11
8683.986293650923
 21
-3844.29814952228
 31
0.0
 12
8686.486293650924
 22
-3843.881482855615
 32
0.0
 13
8686.486293650924
 23
-3843.881482855615
 33
0.0
  0
MTEXT
  5
290
330
28A
100
AcDbEntity
  8
0
 62
     3
100
AcDbMText
 10
8670.486293650922
 20
-3841.381482855615
 30
0.0
 40
3.0
 41
0.0
 71
     5
 72
     1
  1
\A1;32
1001
ACAD
1000
MTEXTBEGIN
1070
    73
1070
     1
1070
    44
1040
1.0
1070
    74
1070
     0
1000
MTEXTEND
  0
POINT
  5
291
330
28A
100
AcDbEntity
  8
DEFPOINTS
 62
     0
100
AcDbPoint
 10
8654.486293650924
 20
-3772.875929643996
 30
0.0
  0
POINT
  5
292
330
28A
100
AcDbEntity
  8
DEFPOINTS
 62
     0
100
AcDbPoint
 10
8686.486293650924
 20
-3827.375929643997
 30
0.0
  0
POINT
  5
293
330
28A
100
AcDbEntity
  8
DEFPOINTS
 62
     0
100
AcDbPoint
 10
8686.486293650924
 20
-3843.881482855615
 30
0.0
  0
ENDBLK
  5
295
330
28A
100
AcDbEntity
  8
0
100
AcDbBlockEnd
  0
BLOCK
  5
333
330
329
100
AcDbEntity
  8
0
100
AcDbBlockBegin
  2
*D3
 70
     1
 10
0.0
 20
0.0
 30
0.0
  3
*D3
  1

  0
LINE
  5
32A
330
329
100
AcDbEntity
  8
0
 62
   123
100
AcDbLine
 10
8728.486293650924
 20
-3828.375929643996
 30
0.0
 11
8728.486293650924
 21
-3844.481482855615
 31
0.0
  0
LINE
  5
32B
330
329
100
AcDbEntity
  8
0
 62
   123
100
AcDbLine
 10
8686.486293650924
 20
-3828.375929643996
 30
0.0
 11
8686.486293650924
 21
-3844.481482855615
 31
0.0
  0
LINE
  5
32C
330
329
100
AcDbEntity
  8
0
 62
   123
100
AcDbLine
 10
8725.986293650924
 20
-3843.881482855615
 30
0.0
 11
8688.986293650923
 21
-3843.881482855615
 31
0.0
  0
SOLID
  5
32D
330
329
100
AcDbEntity
  8
0
 62
   123
100
AcDbTrace
 10
8725.986293650924
 20
-3843.464816188948
 30
0.0
 11
8725.986293650924
 21
-3844.29814952228
 31
0.0
 12
8728.486293650924
 22
-3843.881482855615
 32
0.0
 13
8728.486293650924
 23
-3843.881482855615
 33
0.0
  0
SOLID
  5
32E
330
329
100
AcDbEntity
  8
0
 62
   123
100
AcDbTrace
 10
8688.986293650923
 20
-3843.464816188948
 30
0.0
 11
8688.986293650923
 21
-3844.29814952228
 31
0.0
 12
8686.486293650924
 22
-3843.881482855615
 32
0.0
 13
8686.486293650924
 23
-3843.881482855615
 33
0.0
  0
MTEXT
  5
32F
330
329
100
AcDbEntity
  8
0
 62
     3
100
AcDbMText
 10
8707.486293650923
 20
-3841.381482855615
 30
0.0
 40
3.0
 41
0.0
 71
     5
 72
     1
  1
\A1;L
1001
ACAD
1000
MTEXTBEGIN
1070
    73
1070
     1
1070
    44
1040
1.0
1070
    74
1070
     0
1000
MTEXTEND
  0
POINT
  5
330
330
329
100
AcDbEntity
  8
DEFPOINTS
 62
     0
100
AcDbPoint
 10
8728.486293650924
 20
-3827.375929643997
 30
0.0
  0
POINT
  5
331
330
329
100
AcDbEntity
  8
DEFPOINTS
 62
     0
100
AcDbPoint
 10
8686.486293650924
 20
-3827.375929643997
 30
0.0
  0
POINT
  5
332
330
329
100
AcDbEntity
  8
DEFPOINTS
 62
     0
100
AcDbPoint
 10
8686.486293650924
 20
-3843.881482855615
 30
0.0
  0
ENDBLK
  5
334
330
329
100
AcDbEntity
  8
0
100
AcDbBlockEnd
  0
BLOCK
  5
205
330
1F9
100
AcDbEntity
  8
0
100
AcDbBlockBegin
  2
*D4
 70
     1
 10
0.0
 20
0.0
 30
0.0
  3
*D4
  1

  0
LINE
  5
1FA
330
1F9
100
AcDbEntity
  8
0
 62
   123
100
AcDbLine
 10
8498.734282987363
 20
-3894.805024346735
 30
0.0
 11
8506.503338142827
 21
-3894.805024346735
 31
0.0
  0
LINE
  5
1FB
330
1F9
100
AcDbEntity
  8
0
 62
   123
100
AcDbLine
 10
8498.734282987363
 20
-3890.805024346735
 30
0.0
 11
8506.503338142827
 21
-3890.805024346735
 31
0.0
  0
LINE
  5
1FC
330
1F9
100
AcDbEntity
  8
0
 62
   123
100
AcDbLine
 10
8505.903338142827
 20
-3897.305024346735
 30
0.0
 11
8505.903338142827
 21
-3899.805024346735
 31
0.0
  0
LINE
  5
1FD
330
1F9
100
AcDbEntity
  8
0
 62
   123
100
AcDbLine
 10
8505.903338142827
 20
-3888.305024346735
 30
0.0
 11
8505.903338142827
 21
-3869.24127683836
 31
0.0
  0
LINE
  5
1FE
330
1F9
100
AcDbEntity
  8
0
 62
   123
100
AcDbLine
 10
8505.903338142827
 20
-3894.805024346735
 30
0.0
 11
8505.903338142827
 21
-3890.805024346735
 31
0.0
  0
SOLID
  5
1FF
330
1F9
100
AcDbEntity
  8
0
 62
   123
100
AcDbTrace
 10
8505.486671476161
 20
-3897.305024346735
 30
0.0
 11
8506.320004809493
 21
-3897.305024346735
 31
0.0
 12
8505.903338142827
 22
-3894.805024346735
 32
0.0
 13
8505.903338142827
 23
-3894.805024346735
 33
0.0
  0
SOLID
  5
200
330
1F9
100
AcDbEntity
  8
0
 62
   123
100
AcDbTrace
 10
8505.486671476161
 20
-3888.305024346735
 30
0.0
 11
8506.320004809493
 21
-3888.305024346735
 31
0.0
 12
8505.903338142827
 22
-3890.805024346735
 32
0.0
 13
8505.903338142827
 23
-3890.805024346735
 33
0.0
  0
MTEXT
  5
201
330
1F9
100
AcDbEntity
  8
0
 62
     3
100
AcDbMText
 10
8502.453338142826
 20
-3875.955562552643
 30
0.0
 40
3.0
 41
0.0
 71
     5
 72
     1
  1
\A1;\A1;4{\f??|b0|i0|c0|p49;\H0.7x;\S+0^ -0.03;}
 11
0.0000000000000001
 21
1.0
 31
0.0
1001
ACAD
1000
MTEXTBEGIN
1070
    73
1070
     1
1070
    44
1040
1.0
1070
    74
1070
     0
1000
MTEXTEND
  0
POINT
  5
202
330
1F9
100
AcDbEntity
  8
DEFPOINTS
 62
     0
100
AcDbPoint
 10
8497.734282987364
 20
-3894.805024346735
 30
0.0
  0
POINT
  5
203
330
1F9
100
AcDbEntity
  8
DEFPOINTS
 62
     0
100
AcDbPoint
 10
8497.734282987364
 20
-3890.805024346735
 30
0.0
  0
POINT
  5
204
330
1F9
100
AcDbEntity
  8
DEFPOINTS
 62
     0
100
AcDbPoint
 10
8505.903338142827
 20
-3890.805024346735
 30
0.0
  0
ENDBLK
  5
206
330
1F9
100
AcDbEntity
  8
0
100
AcDbBlockEnd
  0
BLOCK
  5
369
330
35F
100
AcDbEntity
  8
0
100
AcDbBlockBegin
  2
*D5
 70
     1
 10
0.0
 20
0.0
 30
0.0
  3
*D5
  1

  0
LINE
  5
360
330
35F
100
AcDbEntity
  8
0
 62
   123
100
AcDbLine
 10
8509.982956791965
 20
-3600.947995361073
 30
0.0
 11
8509.982956791965
 21
-3582.979557801819
 31
0.0
  0
LINE
  5
361
330
35F
100
AcDbEntity
  8
0
 62
   123
100
AcDbLine
 10
8599.982956791967
 20
-3600.947995361073
 30
0.0
 11
8599.982956791967
 21
-3582.979557801819
 31
0.0
  0
LINE
  5
362
330
35F
100
AcDbEntity
  8
0
 62
   123
100
AcDbLine
 10
8512.482956791966
 20
-3583.579557801818
 30
0.0
 11
8597.482956791965
 21
-3583.579557801818
 31
0.0
  0
SOLID
  5
363
330
35F
100
AcDbEntity
  8
0
 62
   123
100
AcDbTrace
 10
8512.482956791966
 20
-3583.162891135151
 30
0.0
 11
8512.482956791966
 21
-3583.996224468485
 31
0.0
 12
8509.982956791965
 22
-3583.579557801818
 32
0.0
 13
8509.982956791965
 23
-3583.579557801818
 33
0.0
  0
SOLID
  5
364
330
35F
100
AcDbEntity
  8
0
 62
   123
100
AcDbTrace
 10
8597.482956791965
 20
-3583.162891135151
 30
0.0
 11
8597.482956791965
 21
-3583.996224468485
 31
0.0
 12
8599.982956791967
 22
-3583.579557801818
 32
0.0
 13
8599.982956791967
 23
-3583.579557801818
 33
0.0
  0
MTEXT
  5
365
330
35F
100
AcDbEntity
  8
0
 62
     3
100
AcDbMText
 10
8554.982956791965
 20
-3581.079557801818
 30
0.0
 40
3.0
 41
0.0
 71
     5
 72
     1
  1
\A1;90
1001
ACAD
1000
MTEXTBEGIN
1070
    73
1070
     1
1070
    44
1040
1.0
1070
    74
1070
     0
1000
MTEXTEND
  0
POINT
  5
366
330
35F
100
AcDbEntity
  8
DEFPOINTS
 62
     0
100
AcDbPoint
 10
8509.982956791965
 20
-3601.947995361073
 30
0.0
  0
POINT
  5
367
330
35F
100
AcDbEntity
  8
DEFPOINTS
 62
     0
100
AcDbPoint
 10
8599.982956791967
 20
-3601.947995361073
 30
0.0
  0
POINT
  5
368
330
35F
100
AcDbEntity
  8
DEFPOINTS
 62
     0
100
AcDbPoint
 10
8599.982956791967
 20
-3583.579557801818
 30
0.0
  0
ENDBLK
  5
36A
330
35F
100
AcDbEntity
  8
0
100
AcDbBlockEnd
  0
BLOCK
  5
2D3
330
2C9
100
AcDbEntity
  8
0
100
AcDbBlockBegin
  2
*D6
 70
     1
 10
0.0
 20
0.0
 30
0.0
  3
*D6
  1

  0
LINE
  5
2CA
330
2C9
100
AcDbEntity
  8
0
 62
   123
100
AcDbLine
 10
8493.422143992985
 20
-3741.94012028219
 30
0.0
 11
8493.422143992985
 21
-3724.818299616291
 31
0.0
  0
LINE
  5
2CB
330
2C9
100
AcDbEntity
  8
0
 62
   123
100
AcDbLine
 10
8583.422143992981
 20
-3741.94012028219
 30
0.0
 11
8583.422143992981
 21
-3724.818299616291
 31
0.0
  0
LINE
  5
2CC
330
2C9
100
AcDbEntity
  8
0
 62
   123
100
AcDbLine
 10
8495.922143992984
 20
-3725.418299616291
 30
0.0
 11
8580.922143992983
 21
-3725.418299616291
 31
0.0
  0
SOLID
  5
2CD
330
2C9
100
AcDbEntity
  8
0
 62
   123
100
AcDbTrace
 10
8495.922143992984
 20
-3725.001632949624
 30
0.0
 11
8495.922143992984
 21
-3725.834966282957
 31
0.0
 12
8493.422143992985
 22
-3725.418299616291
 32
0.0
 13
8493.422143992985
 23
-3725.418299616291
 33
0.0
  0
SOLID
  5
2CE
330
2C9
100
AcDbEntity
  8
0
 62
   123
100
AcDbTrace
 10
8580.922143992983
 20
-3725.001632949624
 30
0.0
 11
8580.922143992983
 21
-3725.834966282957
 31
0.0
 12
8583.422143992981
 22
-3725.418299616291
 32
0.0
 13
8583.422143992981
 23
-3725.418299616291
 33
0.0
  0
MTEXT
  5
2CF
330
2C9
100
AcDbEntity
  8
0
 62
     3
100
AcDbMText
 10
8538.422143992985
 20
-3722.918299616291
 30
0.0
 40
3.0
 41
0.0
 71
     5
 72
     1
  1
\A1;90
1001
ACAD
1000
MTEXTBEGIN
1070
    73
1070
     1
1070
    44
1040
1.0
1070
    74
1070
     0
1000
MTEXTEND
  0
POINT
  5
2D0
330
2C9
100
AcDbEntity
  8
DEFPOINTS
 62
     0
100
AcDbPoint
 10
8493.422143992985
 20
-3742.940120282192
 30
0.0
  0
POINT
  5
2D1
330
2C9
100
AcDbEntity
  8
DEFPOINTS
 62
     0
100
AcDbPoint
 10
8583.422143992981
 20
-3742.940120282192
 30
0.0
  0
POINT
  5
2D2
330
2C9
100
AcDbEntity
  8
DEFPOINTS
 62
     0
100
AcDbPoint
 10
8583.422143992981
 20
-3725.418299616291
 30
0.0
  0
ENDBLK
  5
2D4
330
2C9
100
AcDbEntity
  8
0
100
AcDbBlockEnd
  0
BLOCK
  5
2E8
330
2DE
100
AcDbEntity
  8
0
100
AcDbBlockBegin
  2
*D7
 70
     1
 10
0.0
 20
0.0
 30
0.0
  3
*D7
  1

  0
LINE
  5
2DF
330
2DE
100
AcDbEntity
  8
0
 62
   123
100
AcDbLine
 10
8679.486293650922
 20
-3757.875929643997
 30
0.0
 11
8679.486293650922
 21
-3741.400109781439
 31
0.0
  0
LINE
  5
2E0
330
2DE
100
AcDbEntity
  8
0
 62
   123
100
AcDbLine
 10
8654.486293650924
 20
-3758.875929643997
 30
0.0
 11
8654.486293650924
 21
-3741.400109781439
 31
0.0
  0
LINE
  5
2E1
330
2DE
100
AcDbEntity
  8
0
 62
   123
100
AcDbLine
 10
8676.986293650925
 20
-3742.000109781439
 30
0.0
 11
8656.986293650923
 21
-3742.000109781439
 31
0.0
  0
SOLID
  5
2E2
330
2DE
100
AcDbEntity
  8
0
 62
   123
100
AcDbTrace
 10
8676.986293650925
 20
-3741.583443114773
 30
0.0
 11
8676.986293650925
 21
-3742.416776448107
 31
0.0
 12
8679.486293650922
 22
-3742.000109781439
 32
0.0
 13
8679.486293650922
 23
-3742.000109781439
 33
0.0
  0
SOLID
  5
2E3
330
2DE
100
AcDbEntity
  8
0
 62
   123
100
AcDbTrace
 10
8656.986293650923
 20
-3741.583443114773
 30
0.0
 11
8656.986293650923
 21
-3742.416776448107
 31
0.0
 12
8654.486293650924
 22
-3742.000109781439
 32
0.0
 13
8654.486293650924
 23
-3742.000109781439
 33
0.0
  0
MTEXT
  5
2E4
330
2DE
100
AcDbEntity
  8
0
 62
     3
100
AcDbMText
 10
8666.986293650923
 20
-3739.50010978144
 30
0.0
 40
3.0
 41
0.0
 71
     5
 72
     1
  1
\A1;25
1001
ACAD
1000
MTEXTBEGIN
1070
    73
1070
     1
1070
    44
1040
1.0
1070
    74
1070
     0
1000
MTEXTEND
  0
POINT
  5
2E5
330
2DE
100
AcDbEntity
  8
DEFPOINTS
 62
     0
100
AcDbPoint
 10
8679.486293650922
 20
-3758.875929643997
 30
0.0
  0
POINT
  5
2E6
330
2DE
100
AcDbEntity
  8
DEFPOINTS
 62
     0
100
AcDbPoint
 10
8654.486293650924
 20
-3759.875929643996
 30
0.0
  0
POINT
  5
2E7
330
2DE
100
AcDbEntity
  8
DEFPOINTS
 62
     0
100
AcDbPoint
 10
8654.486293650924
 20
-3742.000109781439
 30
0.0
  0
ENDBLK
  5
2E9
330
2DE
100
AcDbEntity
  8
0
100
AcDbBlockEnd
  0
BLOCK
  5
2A5
330
299
100
AcDbEntity
  8
0
100
AcDbBlockBegin
  2
*D8
 70
     1
 10
0.0
 20
0.0
 30
0.0
  3
*D8
  1

  0
LINE
  5
29A
330
299
100
AcDbEntity
  8
0
 62
   123
100
AcDbLine
 10
8686.486293650924
 20
-3737.375929643996
 30
0.0
 11
8686.486293650924
 21
-3729.756616220217
 31
0.0
  0
LINE
  5
29B
330
299
100
AcDbEntity
  8
0
 62
   123
100
AcDbLine
 10
8683.486293650924
 20
-3746.72948303459
 30
0.0
 11
8683.486293650924
 21
-3729.756616220217
 31
0.0
  0
LINE
  5
29C
330
299
100
AcDbEntity
  8
0
 62
   123
100
AcDbLine
 10
8688.986293650923
 20
-3730.356616220216
 30
0.0
 11
8691.486293650923
 21
-3730.356616220216
 31
0.0
  0
LINE
  5
29D
330
299
100
AcDbEntity
  8
0
 62
   123
100
AcDbLine
 10
8680.986293650923
 20
-3730.356616220216
 30
0.0
 11
8678.486293650925
 21
-3730.356616220216
 31
0.0
  0
LINE
  5
29E
330
299
100
AcDbEntity
  8
0
 62
   123
100
AcDbLine
 10
8686.486293650924
 20
-3730.356616220216
 30
0.0
 11
8683.486293650924
 21
-3730.356616220216
 31
0.0
  0
SOLID
  5
29F
330
299
100
AcDbEntity
  8
0
 62
   123
100
AcDbTrace
 10
8688.986293650923
 20
-3729.93994955355
 30
0.0
 11
8688.986293650923
 21
-3730.773282886882
 31
0.0
 12
8686.486293650924
 22
-3730.356616220216
 32
0.0
 13
8686.486293650924
 23
-3730.356616220216
 33
0.0
  0
SOLID
  5
2A0
330
299
100
AcDbEntity
  8
0
 62
   123
100
AcDbTrace
 10
8680.986293650923
 20
-3729.93994955355
 30
0.0
 11
8680.986293650923
 21
-3730.773282886882
 31
0.0
 12
8683.486293650924
 22
-3730.356616220216
 32
0.0
 13
8683.486293650924
 23
-3730.356616220216
 33
0.0
  0
MTEXT
  5
2A1
330
299
100
AcDbEntity
  8
0
 62
     3
100
AcDbMText
 10
8684.986293650924
 20
-3727.856616220217
 30
0.0
 40
3.0
 41
0.0
 71
     5
 72
     1
  1
\A1;3
1001
ACAD
1000
MTEXTBEGIN
1070
    73
1070
     1
1070
    44
1040
1.0
1070
    74
1070
     0
1000
MTEXTEND
  0
POINT
  5
2A2
330
299
100
AcDbEntity
  8
DEFPOINTS
 62
     0
100
AcDbPoint
 10
8686.486293650924
 20
-3738.375929643996
 30
0.0
  0
POINT
  5
2A3
330
299
100
AcDbEntity
  8
DEFPOINTS
 62
     0
100
AcDbPoint
 10
8683.486293650924
 20
-3747.729483034589
 30
0.0
  0
POINT
  5
2A4
330
299
100
AcDbEntity
  8
DEFPOINTS
 62
     0
100
AcDbPoint
 10
8683.486293650924
 20
-3730.356616220216
 30
0.0
  0
ENDBLK
  5
2A6
330
299
100
AcDbEntity
  8
0
100
AcDbBlockEnd
  0
BLOCK
  5
387
330
37D
100
AcDbEntity
  8
0
100
AcDbBlockBegin
  2
*D9
 70
     1
 10
0.0
 20
0.0
 30
0.0
  3
*D9
  1

  0
LINE
  5
37E
330
37D
100
AcDbEntity
  8
0
 62
   123
100
AcDbLine
 10
8656.531461463151
 20
-3637.905201602276
 30
0.0
 11
8656.531461463151
 21
-3574.253920815452
 31
0.0
  0
LINE
  5
37F
330
37D
100
AcDbEntity
  8
0
 62
   123
100
AcDbLine
 10
8674.53146146315
 20
-3595.905201602276
 30
0.0
 11
8674.53146146315
 21
-3574.253920815452
 31
0.0
  0
LINE
  5
380
330
37D
100
AcDbEntity
  8
0
 62
   123
100
AcDbLine
 10
8659.031461463149
 20
-3574.853920815451
 30
0.0
 11
8672.03146146315
 21
-3574.853920815451
 31
0.0
  0
SOLID
  5
381
330
37D
100
AcDbEntity
  8
0
 62
   123
100
AcDbTrace
 10
8659.031461463149
 20
-3574.437254148786
 30
0.0
 11
8659.031461463149
 21
-3575.270587482119
 31
0.0
 12
8656.531461463151
 22
-3574.853920815451
 32
0.0
 13
8656.531461463151
 23
-3574.853920815451
 33
0.0
  0
SOLID
  5
382
330
37D
100
AcDbEntity
  8
0
 62
   123
100
AcDbTrace
 10
8672.03146146315
 20
-3574.437254148786
 30
0.0
 11
8672.03146146315
 21
-3575.270587482119
 31
0.0
 12
8674.53146146315
 22
-3574.853920815451
 32
0.0
 13
8674.53146146315
 23
-3574.853920815451
 33
0.0
  0
MTEXT
  5
383
330
37D
100
AcDbEntity
  8
0
 62
     3
100
AcDbMText
 10
8665.53146146315
 20
-3572.353920815451
 30
0.0
 40
3.0
 41
0.0
 71
     5
 72
     1
  1
\A1;18
1001
ACAD
1000
MTEXTBEGIN
1070
    73
1070
     1
1070
    44
1040
1.0
1070
    74
1070
     0
1000
MTEXTEND
  0
POINT
  5
384
330
37D
100
AcDbEntity
  8
DEFPOINTS
 62
     0
100
AcDbPoint
 10
8656.531461463151
 20
-3638.905201602276
 30
0.0
  0
POINT
  5
385
330
37D
100
AcDbEntity
  8
DEFPOINTS
 62
     0
100
AcDbPoint
 10
8674.53146146315
 20
-3596.905201602276
 30
0.0
  0
POINT
  5
386
330
37D
100
AcDbEntity
  8
DEFPOINTS
 62
     0
100
AcDbPoint
 10
8674.53146146315
 20
-3574.853920815451
 30
0.0
  0
ENDBLK
  5
388
330
37D
100
AcDbEntity
  8
0
100
AcDbBlockEnd
  0
BLOCK
  5
287
330
27D
100
AcDbEntity
  8
0
100
AcDbBlockBegin
  2
*D10
 70
     1
 10
0.0
 20
0.0
 30
0.0
  3
*D10
  1

  0
LINE
  5
27E
330
27D
100
AcDbEntity
  8
0
 62
   123
100
AcDbLine
 10
8682.986293650923
 20
-3746.875929643997
 30
0.0
 11
8614.867486389806
 21
-3746.875929643997
 31
0.0
  0
LINE
  5
27F
330
27D
100
AcDbEntity
  8
0
 62
   123
100
AcDbLine
 10
8641.878620516822
 20
-3782.875929643997
 30
0.0
 11
8614.867486389806
 21
-3782.875929643997
 31
0.0
  0
LINE
  5
280
330
27D
100
AcDbEntity
  8
0
 62
   123
100
AcDbLine
 10
8615.467486389809
 20
-3749.375929643997
 30
0.0
 11
8615.467486389809
 21
-3780.375929643997
 31
0.0
  0
SOLID
  5
281
330
27D
100
AcDbEntity
  8
0
 62
   123
100
AcDbTrace
 10
8615.050819723142
 20
-3749.375929643997
 30
0.0
 11
8615.884153056473
 21
-3749.375929643997
 31
0.0
 12
8615.467486389809
 22
-3746.875929643997
 32
0.0
 13
8615.467486389809
 23
-3746.875929643997
 33
0.0
  0
SOLID
  5
282
330
27D
100
AcDbEntity
  8
0
 62
   123
100
AcDbTrace
 10
8615.050819723142
 20
-3780.375929643997
 30
0.0
 11
8615.884153056473
 21
-3780.375929643997
 31
0.0
 12
8615.467486389809
 22
-3782.875929643997
 32
0.0
 13
8615.467486389809
 23
-3782.875929643997
 33
0.0
  0
MTEXT
  5
283
330
27D
100
AcDbEntity
  8
0
 62
     3
100
AcDbMText
 10
8612.967486389807
 20
-3765.125929643996
 30
0.0
 40
3.0
 41
0.0
 71
     5
 72
     1
  1
\A1;{\f??|b0|i0|c0|p49;%%C}36
 11
0.0000000000000001
 21
1.0
 31
0.0
1001
ACAD
1000
MTEXTBEGIN
1070
    73
1070
     1
1070
    44
1040
1.0
1070
    74
1070
     0
1000
MTEXTEND
  0
POINT
  5
284
330
27D
100
AcDbEntity
  8
DEFPOINTS
 62
     0
100
AcDbPoint
 10
8683.986293650923
 20
-3746.875929643997
 30
0.0
  0
POINT
  5
285
330
27D
100
AcDbEntity
  8
DEFPOINTS
 62
     0
100
AcDbPoint
 10
8642.878620516823
 20
-3782.875929643997
 30
0.0
  0
POINT
  5
286
330
27D
100
AcDbEntity
  8
DEFPOINTS
 62
     0
100
AcDbPoint
 10
8615.467486389809
 20
-3782.875929643997
 30
0.0
  0
ENDBLK
  5
288
330
27D
100
AcDbEntity
  8
0
100
AcDbBlockEnd
  0
BLOCK
  5
31B
330
312
100
AcDbEntity
  8
0
100
AcDbBlockBegin
  2
*D11
 70
     1
 10
0.0
 20
0.0
 30
0.0
  3
*D11
  1

  0
LINE
  5
313
330
312
100
AcDbEntity
  8
0
 62
   123
100
AcDbLine
 10
8496.195407894555
 20
-3817.351905163899
 30
0.0
 11
8494.258401651508
 21
-3818.932413567672
 31
0.0
  0
LINE
  5
314
330
312
100
AcDbEntity
  8
0
 62
   123
100
AcDbLine
 10
8580.648880091414
 20
-3748.441738759408
 30
0.0
 11
8603.665104192932
 21
-3729.661553746506
 31
0.0
  0
LINE
  5
315
330
312
100
AcDbEntity
  8
0
 62
   123
100
AcDbLine
 10
8498.132414137602
 20
-3815.771396760126
 30
0.0
 11
8578.711873848366
 21
-3750.02224716318
 31
0.0
  0
SOLID
  5
316
330
312
100
AcDbEntity
  8
0
 62
   123
100
AcDbTrace
 10
8495.93198982726
 20
-3817.029070790058
 30
0.0
 11
8496.45882596185
 21
-3817.674739537739
 31
0.0
 12
8498.132414137602
 22
-3815.771396760126
 32
0.0
 13
8498.132414137602
 23
-3815.771396760126
 33
0.0
  0
SOLID
  5
317
330
312
100
AcDbEntity
  8
0
 62
   123
100
AcDbTrace
 10
8580.385462024118
 20
-3748.118904385567
 30
0.0
 11
8580.912298158708
 21
-3748.764573133249
 31
0.0
 12
8578.711873848366
 22
-3750.02224716318
 32
0.0
 13
8578.711873848366
 23
-3750.02224716318
 33
0.0
  0
MTEXT
  5
318
330
312
100
AcDbEntity
  8
0
 62
     3
100
AcDbMText
 10
8593.063681000115
 20
-3735.085200926745
 30
0.0
 40
3.0
 41
0.0
 71
     5
 72
     1
  1
\A1;\U+2205104%%P0.5
 11
0.774802497218873
 21
0.6322033615090942
 31
0.0
1001
ACAD
1000
MTEXTBEGIN
1070
    73
1070
     1
1070
    44
1040
1.0
1070
    74
1070
     0
1000
MTEXTEND
  0
POINT
  5
319
330
312
100
AcDbEntity
  8
DEFPOINTS
 62
     0
100
AcDbPoint
 10
8578.711873848366
 20
-3750.02224716318
 30
0.0
  0
POINT
  5
31A
330
312
100
AcDbEntity
  8
DEFPOINTS
 62
     0
100
AcDbPoint
 10
8498.132414137602
 20
-3815.771396760126
 30
0.0
  0
ENDBLK
  5
31C
330
312
100
AcDbEntity
  8
0
100
AcDbBlockEnd
  0
BLOCK
  5
1F2
330
1E6
100
AcDbEntity
  8
0
100
AcDbBlockBegin
  2
*D12
 70
     1
 10
0.0
 20
0.0
 30
0.0
  3
*D12
  1

  0
LINE
  5
1E7
330
1E6
100
AcDbEntity
  8
0
 62
   123
100
AcDbLine
 10
8564.838316014622
 20
-3891.90531963373
 30
0.0
 11
8579.935648508806
 21
-3891.90531963373
 31
0.0
  0
LINE
  5
1E8
330
1E6
100
AcDbEntity
  8
0
 62
   123
100
AcDbLine
 10
8562.838316014623
 20
-3889.405319633731
 30
0.0
 11
8579.935648508806
 21
-3889.405319633731
 31
0.0
  0
LINE
  5
1E9
330
1E6
100
AcDbEntity
  8
0
 62
   123
100
AcDbLine
 10
8579.335648508804
 20
-3894.405319633732
 30
0.0
 11
8579.335648508804
 21
-3896.905319633732
 31
0.0
  0
LINE
  5
1EA
330
1E6
100
AcDbEntity
  8
0
 62
   123
100
AcDbLine
 10
8579.335648508804
 20
-3886.905319633731
 30
0.0
 11
8579.335648508804
 21
-3865.491033919447
 31
0.0
  0
LINE
  5
1EB
330
1E6
100
AcDbEntity
  8
0
 62
   123
100
AcDbLine
 10
8579.335648508804
 20
-3891.90531963373
 30
0.0
 11
8579.335648508804
 21
-3889.405319633731
 31
0.0
  0
SOLID
  5
1EC
330
1E6
100
AcDbEntity
  8
0
 62
   123
100
AcDbTrace
 10
8578.918981842138
 20
-3894.405319633732
 30
0.0
 11
8579.75231517547
 21
-3894.405319633732
 31
0.0
 12
8579.335648508804
 22
-3891.90531963373
 32
0.0
 13
8579.335648508804
 23
-3891.90531963373
 33
0.0
  0
SOLID
  5
1ED
330
1E6
100
AcDbEntity
  8
0
 62
   123
100
AcDbTrace
 10
8578.918981842138
 20
-3886.905319633731
 30
0.0
 11
8579.75231517547
 21
-3886.905319633731
 31
0.0
 12
8579.335648508804
 22
-3889.405319633731
 32
0.0
 13
8579.335648508804
 23
-3889.405319633731
 33
0.0
  0
MTEXT
  5
1EE
330
1E6
100
AcDbEntity
  8
0
 62
     3
100
AcDbMText
 10
8575.885648508801
 20
-3873.198176776588
 30
0.0
 40
3.0
 41
0.0
 71
     5
 72
     1
  1
\A1;\A1;2.5{\f??|b0|i0|c0|p49;\H0.7x;\S+0.1^ -0;\H1.429x; }
 11
0.0000000000000001
 21
1.0
 31
0.0
1001
ACAD
1000
MTEXTBEGIN
1070
    73
1070
     1
1070
    44
1040
1.0
1070
    74
1070
     0
1000
MTEXTEND
  0
POINT
  5
1EF
330
1E6
100
AcDbEntity
  8
DEFPOINTS
 62
     0
100
AcDbPoint
 10
8563.838316014622
 20
-3891.90531963373
 30
0.0
  0
POINT
  5
1F0
330
1E6
100
AcDbEntity
  8
DEFPOINTS
 62
     0
100
AcDbPoint
 10
8561.838316014622
 20
-3889.405319633731
 30
0.0
  0
POINT
  5
1F1
330
1E6
100
AcDbEntity
  8
DEFPOINTS
 62
     0
100
AcDbPoint
 10
8579.335648508804
 20
-3889.405319633731
 30
0.0
  0
ENDBLK
  5
1F3
330
1E6
100
AcDbEntity
  8
0
100
AcDbBlockEnd
  0
BLOCK
  5
219
330
20D
100
AcDbEntity
  8
0
100
AcDbBlockBegin
  2
*D13
 70
     1
 10
0.0
 20
0.0
 30
0.0
  3
*D13
  1

  0
LINE
  5
20E
330
20D
100
AcDbEntity
  8
0
 62
   123
100
AcDbLine
 10
8514.904936274076
 20
-3889.805024346735
 30
0.0
 11
8514.904936274076
 21
-3881.530548688103
 31
0.0
  0
LINE
  5
20F
330
20D
100
AcDbEntity
  8
0
 62
   123
100
AcDbLine
 10
8518.904936274077
 20
-3889.805024346735
 30
0.0
 11
8518.904936274077
 21
-3881.530548688103
 31
0.0
  0
LINE
  5
210
330
20D
100
AcDbEntity
  8
0
 62
   123
100
AcDbLine
 10
8512.404936274078
 20
-3882.130548688103
 30
0.0
 11
8509.904936274077
 21
-3882.130548688103
 31
0.0
  0
LINE
  5
211
330
20D
100
AcDbEntity
  8
0
 62
   123
100
AcDbLine
 10
8521.404936274077
 20
-3882.130548688103
 30
0.0
 11
8523.904936274076
 21
-3882.130548688103
 31
0.0
  0
LINE
  5
212
330
20D
100
AcDbEntity
  8
0
 62
   123
100
AcDbLine
 10
8514.904936274076
 20
-3882.130548688103
 30
0.0
 11
8518.904936274077
 21
-3882.130548688103
 31
0.0
  0
SOLID
  5
213
330
20D
100
AcDbEntity
  8
0
 62
   123
100
AcDbTrace
 10
8512.404936274078
 20
-3881.713882021436
 30
0.0
 11
8512.404936274078
 21
-3882.547215354769
 31
0.0
 12
8514.904936274076
 22
-3882.130548688103
 32
0.0
 13
8514.904936274076
 23
-3882.130548688103
 33
0.0
  0
SOLID
  5
214
330
20D
100
AcDbEntity
  8
0
 62
   123
100
AcDbTrace
 10
8521.404936274077
 20
-3881.713882021436
 30
0.0
 11
8521.404936274077
 21
-3882.547215354769
 31
0.0
 12
8518.904936274077
 22
-3882.130548688103
 32
0.0
 13
8518.904936274077
 23
-3882.130548688103
 33
0.0
  0
MTEXT
  5
215
330
20D
100
AcDbEntity
  8
0
 62
     3
100
AcDbMText
 10
8516.904936274078
 20
-3878.680548688103
 30
0.0
 40
3.0
 41
0.0
 71
     5
 72
     1
  1
\A1;\A1;4{\f??|b0|i0|c0|p49;\H0.7x;\S+0^ -0.03;}
1001
ACAD
1000
MTEXTBEGIN
1070
    73
1070
     1
1070
    44
1040
1.0
1070
    74
1070
     0
1000
MTEXTEND
  0
POINT
  5
216
330
20D
100
AcDbEntity
  8
DEFPOINTS
 62
     0
100
AcDbPoint
 10
8514.904936274076
 20
-3890.805024346735
 30
0.0
  0
POINT
  5
217
330
20D
100
AcDbEntity
  8
DEFPOINTS
 62
     0
100
AcDbPoint
 10
8518.904936274077
 20
-3890.805024346735
 30
0.0
  0
POINT
  5
218
330
20D
100
AcDbEntity
  8
DEFPOINTS
 62
     0
100
AcDbPoint
 10
8518.904936274077
 20
-3882.130548688103
 30
0.0
  0
ENDBLK
  5
21A
330
20D
100
AcDbEntity
  8
0
100
AcDbBlockEnd
  0
BLOCK
  5
22C
330
222
100
AcDbEntity
  8
0
100
AcDbBlockBegin
  2
*D14
 70
     1
 10
0.0
 20
0.0
 30
0.0
  3
*D14
  1

  0
LINE
  5
223
330
222
100
AcDbEntity
  8
0
 62
   123
100
AcDbLine
 10
8472.734282987365
 20
-3891.805024346735
 30
0.0
 11
8472.734282987365
 21
-3882.39983036626
 31
0.0
  0
LINE
  5
224
330
222
100
AcDbEntity
  8
0
 62
   123
100
AcDbLine
 10
8497.734282987364
 20
-3889.805024346735
 30
0.0
 11
8497.734282987364
 21
-3882.39983036626
 31
0.0
  0
LINE
  5
225
330
222
100
AcDbEntity
  8
0
 62
   123
100
AcDbLine
 10
8475.234282987363
 20
-3882.99983036626
 30
0.0
 11
8495.234282987363
 21
-3882.99983036626
 31
0.0
  0
SOLID
  5
226
330
222
100
AcDbEntity
  8
0
 62
   123
100
AcDbTrace
 10
8475.234282987363
 20
-3882.583163699592
 30
0.0
 11
8475.234282987363
 21
-3883.416497032926
 31
0.0
 12
8472.734282987365
 22
-3882.99983036626
 32
0.0
 13
8472.734282987365
 23
-3882.99983036626
 33
0.0
  0
SOLID
  5
227
330
222
100
AcDbEntity
  8
0
 62
   123
100
AcDbTrace
 10
8495.234282987363
 20
-3882.583163699592
 30
0.0
 11
8495.234282987363
 21
-3883.416497032926
 31
0.0
 12
8497.734282987364
 22
-3882.99983036626
 32
0.0
 13
8497.734282987364
 23
-3882.99983036626
 33
0.0
  0
MTEXT
  5
228
330
222
100
AcDbEntity
  8
0
 62
     3
100
AcDbMText
 10
8485.234282987363
 20
-3880.499830366261
 30
0.0
 40
3.0
 41
0.0
 71
     5
 72
     1
  1
\A1;25{\f??|b0|i0|c0|p49;%%p0.2}
1001
ACAD
1000
MTEXTBEGIN
1070
    73
1070
     1
1070
    44
1040
1.0
1070
    74
1070
     0
1000
MTEXTEND
  0
POINT
  5
229
330
222
100
AcDbEntity
  8
DEFPOINTS
 62
     0
100
AcDbPoint
 10
8472.734282987365
 20
-3892.805024346735
 30
0.0
  0
POINT
  5
22A
330
222
100
AcDbEntity
  8
DEFPOINTS
 62
     0
100
AcDbPoint
 10
8497.734282987364
 20
-3890.805024346735
 30
0.0
  0
POINT
  5
22B
330
222
100
AcDbEntity
  8
DEFPOINTS
 62
     0
100
AcDbPoint
 10
8497.734282987364
 20
-3882.99983036626
 30
0.0
  0
ENDBLK
  5
22D
330
222
100
AcDbEntity
  8
0
100
AcDbBlockEnd
  0
BLOCK
  5
243
330
237
100
AcDbEntity
  8
0
100
AcDbBlockBegin
  2
*D15
 70
     1
 10
0.0
 20
0.0
 30
0.0
  3
*D15
  1

  0
LINE
  5
238
330
237
100
AcDbEntity
  8
0
 62
   123
100
AcDbLine
 10
8559.838316014623
 20
-3888.822743938775
 30
0.0
 11
8559.838316014623
 21
-3880.463731393801
 31
0.0
  0
LINE
  5
239
330
237
100
AcDbEntity
  8
0
 62
   123
100
AcDbLine
 10
8563.838316014622
 20
-3888.822743938775
 30
0.0
 11
8563.838316014622
 21
-3880.463731393801
 31
0.0
  0
LINE
  5
23A
330
237
100
AcDbEntity
  8
0
 62
   123
100
AcDbLine
 10
8557.338316014622
 20
-3881.0637313938
 30
0.0
 11
8554.838316014622
 21
-3881.0637313938
 31
0.0
  0
LINE
  5
23B
330
237
100
AcDbEntity
  8
0
 62
   123
100
AcDbLine
 10
8566.338316014622
 20
-3881.0637313938
 30
0.0
 11
8568.838316014623
 21
-3881.0637313938
 31
0.0
  0
LINE
  5
23C
330
237
100
AcDbEntity
  8
0
 62
   123
100
AcDbLine
 10
8559.838316014623
 20
-3881.0637313938
 30
0.0
 11
8563.838316014622
 21
-3881.0637313938
 31
0.0
  0
SOLID
  5
23D
330
237
100
AcDbEntity
  8
0
 62
   123
100
AcDbTrace
 10
8557.338316014622
 20
-3880.647064727133
 30
0.0
 11
8557.338316014622
 21
-3881.480398060467
 31
0.0
 12
8559.838316014623
 22
-3881.0637313938
 32
0.0
 13
8559.838316014623
 23
-3881.0637313938
 33
0.0
  0
SOLID
  5
23E
330
237
100
AcDbEntity
  8
0
 62
   123
100
AcDbTrace
 10
8566.338316014622
 20
-3880.647064727133
 30
0.0
 11
8566.338316014622
 21
-3881.480398060467
 31
0.0
 12
8563.838316014622
 22
-3881.0637313938
 32
0.0
 13
8563.838316014622
 23
-3881.0637313938
 33
0.0
  0
MTEXT
  5
23F
330
237
100
AcDbEntity
  8
0
 62
     3
100
AcDbMText
 10
8561.838316014622
 20
-3877.6137313938
 30
0.0
 40
3.0
 41
0.0
 71
     5
 72
     1
  1
\A1;\A1;4{\f??|b0|i0|c0|p49;\H0.7x;\S+0.40^ -0;}
1001
ACAD
1000
MTEXTBEGIN
1070
    73
1070
     1
1070
    44
1040
1.0
1070
    74
1070
     0
1000
MTEXTEND
  0
POINT
  5
240
330
237
100
AcDbEntity
  8
DEFPOINTS
 62
     0
100
AcDbPoint
 10
8559.838316014623
 20
-3889.822743938776
 30
0.0
  0
POINT
  5
241
330
237
100
AcDbEntity
  8
DEFPOINTS
 62
     0
100
AcDbPoint
 10
8563.838316014622
 20
-3889.822743938776
 30
0.0
  0
POINT
  5
242
330
237
100
AcDbEntity
  8
DEFPOINTS
 62
     0
100
AcDbPoint
 10
8563.838316014622
 20
-3881.0637313938
 30
0.0
  0
ENDBLK
  5
244
330
237
100
AcDbEntity
  8
0
100
AcDbBlockEnd
  0
BLOCK
  5
3A3
330
39A
100
AcDbEntity
  8
0
100
AcDbBlockBegin
  2
*D16
 70
     1
 10
0.0
 20
0.0
 30
0.0
  3
*D16
  1

  0
LINE
  5
39B
330
39A
100
AcDbEntity
  8
0
 62
   123
100
AcDbLine
 10
8512.756220693537
 20
-3676.360284804427
 30
0.0
 11
8510.81921445049
 21
-3677.940793208199
 31
0.0
  0
LINE
  5
39C
330
39A
100
AcDbEntity
  8
0
 62
   123
100
AcDbLine
 10
8597.2096928904
 20
-3607.450118399968
 30
0.0
 11
8620.225916991939
 21
-3588.669933387061
 31
0.0
  0
LINE
  5
39D
330
39A
100
AcDbEntity
  8
0
 62
   123
100
AcDbLine
 10
8514.693226936584
 20
-3674.779776400654
 30
0.0
 11
8595.272686647351
 21
-3609.03062680374
 31
0.0
  0
SOLID
  5
39E
330
39A
100
AcDbEntity
  8
0
 62
   123
100
AcDbTrace
 10
8512.492802626242
 20
-3676.037450430587
 30
0.0
 11
8513.01963876083
 21
-3676.683119178267
 31
0.0
 12
8514.693226936584
 22
-3674.779776400654
 32
0.0
 13
8514.693226936584
 23
-3674.779776400654
 33
0.0
  0
SOLID
  5
39F
330
39A
100
AcDbEntity
  8
0
 62
   123
100
AcDbTrace
 10
8596.946274823103
 20
-3607.127284026128
 30
0.0
 11
8597.473110957693
 21
-3607.772952773809
 31
0.0
 12
8595.272686647351
 22
-3609.03062680374
 32
0.0
 13
8595.272686647351
 23
-3609.03062680374
 33
0.0
  0
MTEXT
  5
3A0
330
39A
100
AcDbEntity
  8
0
 62
     3
100
AcDbMText
 10
8609.624493799117
 20
-3594.093580567296
 30
0.0
 40
3.0
 41
0.0
 71
     5
 72
     1
  1
\A1;\U+2205104%%P0.5
 11
0.7748024972190377
 21
0.6322033615088926
 31
0.0
1001
ACAD
1000
MTEXTBEGIN
1070
    73
1070
     1
1070
    44
1040
1.0
1070
    74
1070
     0
1000
MTEXTEND
  0
POINT
  5
3A1
330
39A
100
AcDbEntity
  8
DEFPOINTS
 62
     0
100
AcDbPoint
 10
8595.272686647351
 20
-3609.03062680374
 30
0.0
  0
POINT
  5
3A2
330
39A
100
AcDbEntity
  8
DEFPOINTS
 62
     0
100
AcDbPoint
 10
8514.693226936584
 20
-3674.779776400654
 30
0.0
  0
ENDBLK
  5
3A4
330
39A
100
AcDbEntity
  8
0
100
AcDbBlockEnd
  0
BLOCK
  5
2FA
330
2EE
100
AcDbEntity
  8
0
100
AcDbBlockBegin
  2
*D17
 70
     1
 10
0.0
 20
0.0
 30
0.0
  3
*D17
  1

  0
LINE
  5
2EF
330
2EE
100
AcDbEntity
  8
0
 62
   123
100
AcDbLine
 10
8653.486293650924
 20
-3770.875929643996
 30
0.0
 11
8639.317932820253
 21
-3770.875929643996
 31
0.0
  0
LINE
  5
2F0
330
2EE
100
AcDbEntity
  8
0
 62
   123
100
AcDbLine
 10
8653.486293650924
 20
-3758.875929643997
 30
0.0
 11
8639.317932820253
 21
-3758.875929643997
 31
0.0
  0
LINE
  5
2F1
330
2EE
100
AcDbEntity
  8
0
 62
   123
100
AcDbLine
 10
8639.917932820251
 20
-3773.375929643997
 30
0.0
 11
8639.917932820251
 21
-3775.875929643996
 31
0.0
  0
LINE
  5
2F2
330
2EE
100
AcDbEntity
  8
0
 62
   123
100
AcDbLine
 10
8639.917932820251
 20
-3756.375929643997
 30
0.0
 11
8639.917932820251
 21
-3715.867274306733
 31
0.0
  0
LINE
  5
2F3
330
2EE
100
AcDbEntity
  8
0
 62
   123
100
AcDbLine
 10
8639.917932820251
 20
-3770.875929643996
 30
0.0
 11
8639.917932820251
 21
-3758.875929643997
 31
0.0
  0
SOLID
  5
2F4
330
2EE
100
AcDbEntity
  8
0
 62
   123
100
AcDbTrace
 10
8639.501266153585
 20
-3773.375929643997
 30
0.0
 11
8640.334599486918
 21
-3773.375929643997
 31
0.0
 12
8639.917932820251
 22
-3770.875929643996
 32
0.0
 13
8639.917932820251
 23
-3770.875929643996
 33
0.0
  0
SOLID
  5
2F5
330
2EE
100
AcDbEntity
  8
0
 62
   123
100
AcDbTrace
 10
8639.501266153585
 20
-3756.375929643997
 30
0.0
 11
8640.334599486918
 21
-3756.375929643997
 31
0.0
 12
8639.917932820251
 22
-3758.875929643997
 32
0.0
 13
8639.917932820251
 23
-3758.875929643997
 33
0.0
  0
MTEXT
  5
2F6
330
2EE
100
AcDbEntity
  8
0
 62
     3
100
AcDbMText
 10
8635.96778282025
 20
-3730.682845735302
 30
0.0
 40
3.0
 41
0.0
 71
     5
 72
     1
  1
\A1;\A1;{\f??|b0|i0|c0|p49;%%C12\H0.7x;\S+0^ -0.018;\H1.429x;(h7)}
 11
0.0000000000000001
 21
1.0
 31
0.0
1001
ACAD
1000
MTEXTBEGIN
1070
    73
1070
     1
1070
    44
1040
1.0
1070
    74
1070
     0
1000
MTEXTEND
  0
POINT
  5
2F7
330
2EE
100
AcDbEntity
  8
DEFPOINTS
 62
     0
100
AcDbPoint
 10
8654.486293650924
 20
-3770.875929643996
 30
0.0
  0
POINT
  5
2F8
330
2EE
100
AcDbEntity
  8
DEFPOINTS
 62
     0
100
AcDbPoint
 10
8654.486293650924
 20
-3758.875929643997
 30
0.0
  0
POINT
  5
2F9
330
2EE
100
AcDbEntity
  8
DEFPOINTS
 62
     0
100
AcDbPoint
 10
8639.917932820251
 20
-3758.875929643997
 30
0.0
  0
ENDBLK
  5
2FB
330
2EE
100
AcDbEntity
  8
0
100
AcDbBlockEnd
  0
BLOCK
  5
357
330
34D
100
AcDbEntity
  8
0
100
AcDbBlockBegin
  2
*D18
 70
     1
 10
0.0
 20
0.0
 30
0.0
  3
*D18
  1

  0
LINE
  5
34E
330
34D
100
AcDbEntity
  8
0
 62
   123
100
AcDbLine
 10
8674.53146146315
 20
-3595.905201602276
 30
0.0
 11
8674.53146146315
 21
-3574.253920815452
 31
0.0
  0
LINE
  5
34F
330
34D
100
AcDbEntity
  8
0
 62
   123
100
AcDbLine
 10
8711.531461463151
 20
-3595.905201602276
 30
0.0
 11
8711.531461463151
 21
-3574.253920815452
 31
0.0
  0
LINE
  5
350
330
34D
100
AcDbEntity
  8
0
 62
   123
100
AcDbLine
 10
8677.031461463149
 20
-3574.853920815451
 30
0.0
 11
8709.031461463149
 21
-3574.853920815451
 31
0.0
  0
SOLID
  5
351
330
34D
100
AcDbEntity
  8
0
 62
   123
100
AcDbTrace
 10
8677.031461463149
 20
-3574.437254148786
 30
0.0
 11
8677.031461463149
 21
-3575.270587482119
 31
0.0
 12
8674.53146146315
 22
-3574.853920815451
 32
0.0
 13
8674.53146146315
 23
-3574.853920815451
 33
0.0
  0
SOLID
  5
352
330
34D
100
AcDbEntity
  8
0
 62
   123
100
AcDbTrace
 10
8709.031461463149
 20
-3574.437254148786
 30
0.0
 11
8709.031461463149
 21
-3575.270587482119
 31
0.0
 12
8711.531461463151
 22
-3574.853920815451
 32
0.0
 13
8711.531461463151
 23
-3574.853920815451
 33
0.0
  0
MTEXT
  5
353
330
34D
100
AcDbEntity
  8
0
 62
     3
100
AcDbMText
 10
8693.031461463149
 20
-3572.353920815451
 30
0.0
 40
3.0
 41
0.0
 71
     5
 72
     1
  1
\A1;37
1001
ACAD
1000
MTEXTBEGIN
1070
    73
1070
     1
1070
    44
1040
1.0
1070
    74
1070
     0
1000
MTEXTEND
  0
POINT
  5
354
330
34D
100
AcDbEntity
  8
DEFPOINTS
 62
     0
100
AcDbPoint
 10
8674.53146146315
 20
-3596.905201602276
 30
0.0
  0
POINT
  5
355
330
34D
100
AcDbEntity
  8
DEFPOINTS
 62
     0
100
AcDbPoint
 10
8711.531461463151
 20
-3596.905201602276
 30
0.0
  0
POINT
  5
356
330
34D
100
AcDbEntity
  8
DEFPOINTS
 62
     0
100
AcDbPoint
 10
8711.531461463151
 20
-3574.853920815451
 30
0.0
  0
ENDBLK
  5
358
330
34D
100
AcDbEntity
  8
0
100
AcDbBlockEnd
  0
BLOCK
  5
278
330
26E
100
AcDbEntity
  8
0
100
AcDbBlockBegin
  2
*D19
 70
     1
 10
0.0
 20
0.0
 30
0.0
  3
*D19
  1

  0
LINE
  5
26F
330
26E
100
AcDbEntity
  8
0
 62
   123
100
AcDbLine
 10
8671.53146146315
 20
-3600.405201602276
 30
0.0
 11
8646.415093120506
 21
-3600.405201602276
 31
0.0
  0
LINE
  5
270
330
26E
100
AcDbEntity
  8
0
 62
   123
100
AcDbLine
 10
8671.53146146315
 20
-3683.405201602276
 30
0.0
 11
8646.415093120506
 21
-3683.405201602276
 31
0.0
  0
LINE
  5
271
330
26E
100
AcDbEntity
  8
0
 62
   123
100
AcDbLine
 10
8647.015093120506
 20
-3602.905201602276
 30
0.0
 11
8647.015093120506
 21
-3680.905201602276
 31
0.0
  0
SOLID
  5
272
330
26E
100
AcDbEntity
  8
0
 62
   123
100
AcDbTrace
 10
8646.59842645384
 20
-3602.905201602276
 30
0.0
 11
8647.431759787172
 21
-3602.905201602276
 31
0.0
 12
8647.015093120506
 22
-3600.405201602276
 32
0.0
 13
8647.015093120506
 23
-3600.405201602276
 33
0.0
  0
SOLID
  5
273
330
26E
100
AcDbEntity
  8
0
 62
   123
100
AcDbTrace
 10
8646.59842645384
 20
-3680.905201602276
 30
0.0
 11
8647.431759787172
 21
-3680.905201602276
 31
0.0
 12
8647.015093120506
 22
-3683.405201602276
 32
0.0
 13
8647.015093120506
 23
-3683.405201602276
 33
0.0
  0
MTEXT
  5
274
330
26E
100
AcDbEntity
  8
0
 62
     3
100
AcDbMText
 10
8643.064943120505
 20
-3642.646609783099
 30
0.0
 40
3.0
 41
0.0
 71
     5
 72
     1
  1
\A1;\A1;{\f??|b0|i0|c0|p49;%%c}83{\f??|b0|i0|c0|p49;\H0.7x;\S+0^ -0.035;\H1.429x;(h7)}
 11
0.0000000000000001
 21
1.0
 31
0.0
1001
ACAD
1000
MTEXTBEGIN
1070
    73
1070
     1
1070
    44
1040
1.0
1070
    74
1070
     0
1000
MTEXTEND
  0
POINT
  5
275
330
26E
100
AcDbEntity
  8
DEFPOINTS
 62
     0
100
AcDbPoint
 10
8672.531461463149
 20
-3600.405201602276
 30
0.0
  0
POINT
  5
276
330
26E
100
AcDbEntity
  8
DEFPOINTS
 62
     0
100
AcDbPoint
 10
8672.531461463149
 20
-3683.405201602276
 30
0.0
  0
POINT
  5
277
330
26E
100
AcDbEntity
  8
DEFPOINTS
 62
     0
100
AcDbPoint
 10
8647.015093120506
 20
-3683.405201602276
 30
0.0
  0
ENDBLK
  5
279
330
26E
100
AcDbEntity
  8
0
100
AcDbBlockEnd
  0
BLOCK
  5
346
330
33A
100
AcDbEntity
  8
0
100
AcDbBlockBegin
  2
*D20
 70
     1
 10
0.0
 20
0.0
 30
0.0
  3
*D20
  1

  0
LINE
  5
33B
330
33A
100
AcDbEntity
  8
0
 62
   123
100
AcDbLine
 10
8672.531461463149
 20
-3599.405201602276
 30
0.0
 11
8672.531461463149
 21
-3584.479561208864
 31
0.0
  0
LINE
  5
33C
330
33A
100
AcDbEntity
  8
0
 62
   123
100
AcDbLine
 10
8674.53146146315
 20
-3595.905201602276
 30
0.0
 11
8674.53146146315
 21
-3584.479561208864
 31
0.0
  0
LINE
  5
33D
330
33A
100
AcDbEntity
  8
0
 62
   123
100
AcDbLine
 10
8670.03146146315
 20
-3585.079561208864
 30
0.0
 11
8667.53146146315
 21
-3585.079561208864
 31
0.0
  0
LINE
  5
33E
330
33A
100
AcDbEntity
  8
0
 62
   123
100
AcDbLine
 10
8677.031461463149
 20
-3585.079561208864
 30
0.0
 11
8685.531461463149
 21
-3585.079561208864
 31
0.0
  0
LINE
  5
33F
330
33A
100
AcDbEntity
  8
0
 62
   123
100
AcDbLine
 10
8672.531461463149
 20
-3585.079561208864
 30
0.0
 11
8674.53146146315
 21
-3585.079561208864
 31
0.0
  0
SOLID
  5
340
330
33A
100
AcDbEntity
  8
0
 62
   123
100
AcDbTrace
 10
8670.03146146315
 20
-3584.662894542196
 30
0.0
 11
8670.03146146315
 21
-3585.496227875529
 31
0.0
 12
8672.531461463149
 22
-3585.079561208864
 32
0.0
 13
8672.531461463149
 23
-3585.079561208864
 33
0.0
  0
SOLID
  5
341
330
33A
100
AcDbEntity
  8
0
 62
   123
100
AcDbTrace
 10
8677.031461463149
 20
-3584.662894542196
 30
0.0
 11
8677.031461463149
 21
-3585.496227875529
 31
0.0
 12
8674.53146146315
 22
-3585.079561208864
 32
0.0
 13
8674.53146146315
 23
-3585.079561208864
 33
0.0
  0
MTEXT
  5
342
330
33A
100
AcDbEntity
  8
0
 62
     3
100
AcDbMText
 10
8683.53146146315
 20
-3582.579561208864
 30
0.0
 40
3.0
 41
0.0
 71
     5
 72
     1
  1
\A1;2
1001
ACAD
1000
MTEXTBEGIN
1070
    73
1070
     1
1070
    44
1040
1.0
1070
    74
1070
     0
1000
MTEXTEND
  0
POINT
  5
343
330
33A
100
AcDbEntity
  8
DEFPOINTS
 62
     0
100
AcDbPoint
 10
8672.531461463149
 20
-3600.405201602276
 30
0.0
  0
POINT
  5
344
330
33A
100
AcDbEntity
  8
DEFPOINTS
 62
     0
100
AcDbPoint
 10
8674.53146146315
 20
-3596.905201602276
 30
0.0
  0
POINT
  5
345
330
33A
100
AcDbEntity
  8
DEFPOINTS
 62
     0
100
AcDbPoint
 10
8674.53146146315
 20
-3585.079561208864
 30
0.0
  0
ENDBLK
  5
347
330
33A
100
AcDbEntity
  8
0
100
AcDbBlockEnd
  0
BLOCK
  5
30A
330
300
100
AcDbEntity
  8
0
100
AcDbBlockBegin
  2
*D21
 70
     1
 10
0.0
 20
0.0
 30
0.0
  3
*D21
  1

  0
LINE
  5
301
330
300
100
AcDbEntity
  8
0
 62
   123
100
AcDbLine
 10
8649.588154849698
 20
-3764.875929643997
 30
0.0
 11
8627.773053453315
 21
-3764.875929643997
 31
0.0
  0
LINE
  5
302
330
300
100
AcDbEntity
  8
0
 62
   123
100
AcDbLine
 10
8641.878620516822
 20
-3782.875929643997
 30
0.0
 11
8627.773053453315
 21
-3782.875929643997
 31
0.0
  0
LINE
  5
303
330
300
100
AcDbEntity
  8
0
 62
   123
100
AcDbLine
 10
8628.373053453318
 20
-3767.375929643996
 30
0.0
 11
8628.373053453318
 21
-3780.375929643997
 31
0.0
  0
SOLID
  5
304
330
300
100
AcDbEntity
  8
0
 62
   123
100
AcDbTrace
 10
8627.956386786651
 20
-3767.375929643996
 30
0.0
 11
8628.78972011998
 21
-3767.375929643996
 31
0.0
 12
8628.373053453318
 22
-3764.875929643997
 32
0.0
 13
8628.373053453318
 23
-3764.875929643997
 33
0.0
  0
SOLID
  5
305
330
300
100
AcDbEntity
  8
0
 62
   123
100
AcDbTrace
 10
8627.956386786651
 20
-3780.375929643997
 30
0.0
 11
8628.78972011998
 21
-3780.375929643997
 31
0.0
 12
8628.373053453318
 22
-3782.875929643997
 32
0.0
 13
8628.373053453318
 23
-3782.875929643997
 33
0.0
  0
MTEXT
  5
306
330
300
100
AcDbEntity
  8
0
 62
     3
100
AcDbMText
 10
8625.873053453316
 20
-3773.875929643995
 30
0.0
 40
3.0
 41
0.0
 71
     5
 72
     1
  1
\A1;18
 11
0.0000000000000001
 21
1.0
 31
0.0
1001
ACAD
1000
MTEXTBEGIN
1070
    73
1070
     1
1070
    44
1040
1.0
1070
    74
1070
     0
1000
MTEXTEND
  0
POINT
  5
307
330
300
100
AcDbEntity
  8
DEFPOINTS
 62
     0
100
AcDbPoint
 10
8650.588154849698
 20
-3764.875929643997
 30
0.0
  0
POINT
  5
308
330
300
100
AcDbEntity
  8
DEFPOINTS
 62
     0
100
AcDbPoint
 10
8642.878620516823
 20
-3782.875929643997
 30
0.0
  0
POINT
  5
309
330
300
100
AcDbEntity
  8
DEFPOINTS
 62
     0
100
AcDbPoint
 10
8628.373053453318
 20
-3782.875929643997
 30
0.0
  0
ENDBLK
  5
30B
330
300
100
AcDbEntity
  8
0
100
AcDbBlockEnd
  0
BLOCK
  5
1D7
330
1CD
100
AcDbEntity
  8
0
100
AcDbBlockBegin
  2
*D22
 70
     1
 10
0.0
 20
0.0
 30
0.0
  3
*D22
  1

  0
LINE
  5
1CE
330
1CD
100
AcDbEntity
  8
0
 62
   123
100
AcDbLine
 10
8446.738066626823
 20
-3969.545601180071
 30
0.0
 11
8446.738066626823
 21
-3954.241146133675
 31
0.0
  0
LINE
  5
1CF
330
1CD
100
AcDbEntity
  8
0
 62
   123
100
AcDbLine
 10
8536.738066626822
 20
-3969.54560118007
 30
0.0
 11
8536.738066626822
 21
-3954.241146133675
 31
0.0
  0
LINE
  5
1D0
330
1CD
100
AcDbEntity
  8
0
 62
   123
100
AcDbLine
 10
8449.738066626821
 20
-3954.841146133673
 30
0.0
 11
8533.738066626822
 21
-3954.841146133673
 31
0.0
  0
SOLID
  5
1D1
330
1CD
100
AcDbEntity
  8
0
 62
   123
100
AcDbTrace
 10
8449.738066626821
 20
-3954.341146133675
 30
0.0
 11
8449.738066626821
 21
-3955.341146133675
 31
0.0
 12
8446.738066626823
 22
-3954.841146133673
 32
0.0
 13
8446.738066626823
 23
-3954.841146133673
 33
0.0
  0
SOLID
  5
1D2
330
1CD
100
AcDbEntity
  8
0
 62
   123
100
AcDbTrace
 10
8533.738066626822
 20
-3954.341146133675
 30
0.0
 11
8533.738066626822
 21
-3955.341146133675
 31
0.0
 12
8536.738066626822
 22
-3954.841146133673
 32
0.0
 13
8536.738066626822
 23
-3954.841146133673
 33
0.0
  0
MTEXT
  5
1D3
330
1CD
100
AcDbEntity
  8
0
 62
     3
100
AcDbMText
 10
8492.700429512737
 20
-3952.091146133675
 30
0.0
 40
3.5
 41
0.0
 71
     5
 72
     1
  1
\A1;90
1001
ACAD
1000
MTEXTBEGIN
1070
    73
1070
     1
1070
    44
1040
1.0
1070
    74
1070
     0
1000
MTEXTEND
  0
POINT
  5
1D4
330
1CD
100
AcDbEntity
  8
DEFPOINTS
 62
     0
100
AcDbPoint
 10
8446.738066626823
 20
-3970.54560118007
 30
0.0
  0
POINT
  5
1D5
330
1CD
100
AcDbEntity
  8
DEFPOINTS
 62
     0
100
AcDbPoint
 10
8536.738066626822
 20
-3970.54560118007
 30
0.0
  0
POINT
  5
1D6
330
1CD
100
AcDbEntity
  8
DEFPOINTS
 62
     0
100
AcDbPoint
 10
8536.738066626822
 20
-3954.841146133673
 30
0.0
  0
ENDBLK
  5
1D8
330
1CD
100
AcDbEntity
  8
0
100
AcDbBlockEnd
  0
BLOCK
  5
142
330
138
100
AcDbEntity
  8
0
100
AcDbBlockBegin
  2
*D23
 70
     1
 10
0.0
 20
0.0
 30
0.0
  3
*D23
  1

  0
LINE
  5
139
330
138
100
AcDbEntity
  8
0
 62
   123
100
AcDbLine
 10
8674.928602622697
 20
-3964.54560118007
 30
0.0
 11
8674.928602622697
 21
-3939.086049376273
 31
0.0
  0
LINE
  5
13A
330
138
100
AcDbEntity
  8
0
 62
   123
100
AcDbLine
 10
8822.928602622694
 20
-3970.54560118007
 30
0.0
 11
8822.928602622694
 21
-3939.086049376273
 31
0.0
  0
LINE
  5
13B
330
138
100
AcDbEntity
  8
0
 62
   123
100
AcDbLine
 10
8677.928602622694
 20
-3939.686049376273
 30
0.0
 11
8819.928602622693
 21
-3939.686049376273
 31
0.0
  0
SOLID
  5
13C
330
138
100
AcDbEntity
  8
0
 62
   123
100
AcDbTrace
 10
8677.928602622694
 20
-3939.186049376274
 30
0.0
 11
8677.928602622694
 21
-3940.186049376274
 31
0.0
 12
8674.928602622697
 22
-3939.686049376273
 32
0.0
 13
8674.928602622697
 23
-3939.686049376273
 33
0.0
  0
SOLID
  5
13D
330
138
100
AcDbEntity
  8
0
 62
   123
100
AcDbTrace
 10
8819.928602622693
 20
-3939.186049376274
 30
0.0
 11
8819.928602622693
 21
-3940.186049376274
 31
0.0
 12
8822.928602622694
 22
-3939.686049376273
 32
0.0
 13
8822.928602622694
 23
-3939.686049376273
 33
0.0
  0
MTEXT
  5
13E
330
138
100
AcDbEntity
  8
0
 62
     3
100
AcDbMText
 10
8742.428602622695
 20
-3936.936049376274
 30
0.0
 40
3.5
 41
0.0
 71
     5
 72
     1
  1
\A1;148
1001
ACAD
1000
MTEXTBEGIN
1070
    73
1070
     1
1070
    44
1040
1.0
1070
    74
1070
     0
1000
MTEXTEND
  0
POINT
  5
13F
330
138
100
AcDbEntity
  8
DEFPOINTS
 62
     0
100
AcDbPoint
 10
8674.928602622697
 20
-3965.54560118007
 30
0.0
  0
POINT
  5
140
330
138
100
AcDbEntity
  8
DEFPOINTS
 62
     0
100
AcDbPoint
 10
8822.928602622694
 20
-3971.54560118007
 30
0.0
  0
POINT
  5
141
330
138
100
AcDbEntity
  8
DEFPOINTS
 62
     0
100
AcDbPoint
 10
8822.928602622694
 20
-3939.686049376273
 30
0.0
  0
ENDBLK
  5
143
330
138
100
AcDbEntity
  8
0
100
AcDbBlockEnd
  0
BLOCK
  5
188
330
17E
100
AcDbEntity
  8
0
100
AcDbBlockBegin
  2
*D24
 70
     1
 10
0.0
 20
0.0
 30
0.0
  3
*D24
  1

  0
LINE
  5
17F
330
17E
100
AcDbEntity
  8
0
 62
   123
100
AcDbLine
 10
8627.928602622693
 20
-3985.54560118007
 30
0.0
 11
8627.928602622693
 21
-3969.069781317515
 31
0.0
  0
LINE
  5
180
330
17E
100
AcDbEntity
  8
0
 62
   123
100
AcDbLine
 10
8602.928602622695
 20
-3986.54560118007
 30
0.0
 11
8602.928602622695
 21
-3969.069781317515
 31
0.0
  0
LINE
  5
181
330
17E
100
AcDbEntity
  8
0
 62
   123
100
AcDbLine
 10
8624.928602622695
 20
-3969.669781317515
 30
0.0
 11
8605.928602622695
 21
-3969.669781317515
 31
0.0
  0
SOLID
  5
182
330
17E
100
AcDbEntity
  8
0
 62
   123
100
AcDbTrace
 10
8624.928602622695
 20
-3969.169781317515
 30
0.0
 11
8624.928602622695
 21
-3970.169781317515
 31
0.0
 12
8627.928602622693
 22
-3969.669781317515
 32
0.0
 13
8627.928602622693
 23
-3969.669781317515
 33
0.0
  0
SOLID
  5
183
330
17E
100
AcDbEntity
  8
0
 62
   123
100
AcDbTrace
 10
8605.928602622695
 20
-3969.169781317515
 30
0.0
 11
8605.928602622695
 21
-3970.169781317515
 31
0.0
 12
8602.928602622695
 22
-3969.669781317515
 32
0.0
 13
8602.928602622695
 23
-3969.669781317515
 33
0.0
  0
MTEXT
  5
184
330
17E
100
AcDbEntity
  8
0
 62
     3
100
AcDbMText
 10
8615.428602622694
 20
-3966.919781317515
 30
0.0
 40
3.5
 41
0.0
 71
     5
 72
     1
  1
\A1;25
1001
ACAD
1000
MTEXTBEGIN
1070
    73
1070
     1
1070
    44
1040
1.0
1070
    74
1070
     0
1000
MTEXTEND
  0
POINT
  5
185
330
17E
100
AcDbEntity
  8
DEFPOINTS
 62
     0
100
AcDbPoint
 10
8627.928602622693
 20
-3986.54560118007
 30
0.0
  0
POINT
  5
186
330
17E
100
AcDbEntity
  8
DEFPOINTS
 62
     0
100
AcDbPoint
 10
8602.928602622695
 20
-3987.54560118007
 30
0.0
  0
POINT
  5
187
330
17E
100
AcDbEntity
  8
DEFPOINTS
 62
     0
100
AcDbPoint
 10
8602.928602622695
 20
-3969.669781317515
 30
0.0
  0
ENDBLK
  5
189
330
17E
100
AcDbEntity
  8
0
100
AcDbBlockEnd
  0
BLOCK
  5
19C
330
190
100
AcDbEntity
  8
0
100
AcDbBlockBegin
  2
*D25
 70
     1
 10
0.0
 20
0.0
 30
0.0
  3
*D25
  1

  0
LINE
  5
191
330
190
100
AcDbEntity
  8
0
 62
   123
100
AcDbLine
 10
8634.928602622695
 20
-3965.04560118007
 30
0.0
 11
8634.928602622695
 21
-3950.934216127996
 31
0.0
  0
LINE
  5
192
330
190
100
AcDbEntity
  8
0
 62
   123
100
AcDbLine
 10
8631.928602622695
 20
-3974.399154570664
 30
0.0
 11
8631.928602622695
 21
-3950.934216127996
 31
0.0
  0
LINE
  5
193
330
190
100
AcDbEntity
  8
0
 62
   123
100
AcDbLine
 10
8637.928602622695
 20
-3951.534216127996
 30
0.0
 11
8640.928602622695
 21
-3951.534216127996
 31
0.0
  0
LINE
  5
194
330
190
100
AcDbEntity
  8
0
 62
   123
100
AcDbLine
 10
8628.928602622695
 20
-3951.534216127996
 30
0.0
 11
8625.928602622694
 21
-3951.534216127996
 31
0.0
  0
LINE
  5
195
330
190
100
AcDbEntity
  8
0
 62
   123
100
AcDbLine
 10
8634.928602622695
 20
-3951.534216127996
 30
0.0
 11
8631.928602622695
 21
-3951.534216127996
 31
0.0
  0
SOLID
  5
196
330
190
100
AcDbEntity
  8
0
 62
   123
100
AcDbTrace
 10
8637.928602622695
 20
-3951.034216127995
 30
0.0
 11
8637.928602622695
 21
-3952.034216127996
 31
0.0
 12
8634.928602622695
 22
-3951.534216127996
 32
0.0
 13
8634.928602622695
 23
-3951.534216127996
 33
0.0
  0
SOLID
  5
197
330
190
100
AcDbEntity
  8
0
 62
   123
100
AcDbTrace
 10
8628.928602622695
 20
-3951.034216127995
 30
0.0
 11
8628.928602622695
 21
-3952.034216127996
 31
0.0
 12
8631.928602622695
 22
-3951.534216127996
 32
0.0
 13
8631.928602622695
 23
-3951.534216127996
 33
0.0
  0
MTEXT
  5
198
330
190
100
AcDbEntity
  8
0
 62
     3
100
AcDbMText
 10
8633.428602622695
 20
-3948.784216127995
 30
0.0
 40
3.5
 41
0.0
 71
     5
 72
     1
  1
\A1;3
1001
ACAD
1000
MTEXTBEGIN
1070
    73
1070
     1
1070
    44
1040
1.0
1070
    74
1070
     0
1000
MTEXTEND
  0
POINT
  5
199
330
190
100
AcDbEntity
  8
DEFPOINTS
 62
     0
100
AcDbPoint
 10
8634.928602622695
 20
-3966.04560118007
 30
0.0
  0
POINT
  5
19A
330
190
100
AcDbEntity
  8
DEFPOINTS
 62
     0
100
AcDbPoint
 10
8631.928602622695
 20
-3975.399154570664
 30
0.0
  0
POINT
  5
19B
330
190
100
AcDbEntity
  8
DEFPOINTS
 62
     0
100
AcDbPoint
 10
8631.928602622695
 20
-3951.534216127996
 30
0.0
  0
ENDBLK
  5
19D
330
190
100
AcDbEntity
  8
0
100
AcDbBlockEnd
  0
BLOCK
  5
1A9
330
19F
100
AcDbEntity
  8
0
100
AcDbBlockBegin
  2
*D26
 70
     1
 10
0.0
 20
0.0
 30
0.0
  3
*D26
  1

  0
LINE
  5
1A0
330
19F
100
AcDbEntity
  8
0
 62
   123
100
AcDbLine
 10
8674.928602622697
 20
-3964.545601180071
 30
0.0
 11
8674.928602622697
 21
-3938.522831075921
 31
0.0
  0
LINE
  5
1A1
330
19F
100
AcDbEntity
  8
0
 62
   123
100
AcDbLine
 10
8634.928602622695
 20
-3965.04560118007
 30
0.0
 11
8634.928602622695
 21
-3938.522831075921
 31
0.0
  0
LINE
  5
1A2
330
19F
100
AcDbEntity
  8
0
 62
   123
100
AcDbLine
 10
8671.928602622697
 20
-3939.122831075921
 30
0.0
 11
8637.928602622695
 21
-3939.122831075921
 31
0.0
  0
SOLID
  5
1A3
330
19F
100
AcDbEntity
  8
0
 62
   123
100
AcDbTrace
 10
8671.928602622697
 20
-3938.622831075921
 30
0.0
 11
8671.928602622697
 21
-3939.62283107592
 31
0.0
 12
8674.928602622697
 22
-3939.122831075921
 32
0.0
 13
8674.928602622697
 23
-3939.122831075921
 33
0.0
  0
SOLID
  5
1A4
330
19F
100
AcDbEntity
  8
0
 62
   123
100
AcDbTrace
 10
8637.928602622695
 20
-3938.622831075921
 30
0.0
 11
8637.928602622695
 21
-3939.62283107592
 31
0.0
 12
8634.928602622695
 22
-3939.122831075921
 32
0.0
 13
8634.928602622695
 23
-3939.122831075921
 33
0.0
  0
MTEXT
  5
1A5
330
19F
100
AcDbEntity
  8
0
 62
     3
100
AcDbMText
 10
8654.928602622694
 20
-3936.372831075921
 30
0.0
 40
3.5
 41
0.0
 71
     5
 72
     1
  1
\A1;L
1001
ACAD
1000
MTEXTBEGIN
1070
    73
1070
     1
1070
    44
1040
1.0
1070
    74
1070
     0
1000
MTEXTEND
  0
POINT
  5
1A6
330
19F
100
AcDbEntity
  8
DEFPOINTS
 62
     0
100
AcDbPoint
 10
8674.928602622697
 20
-3965.545601180071
 30
0.0
  0
POINT
  5
1A7
330
19F
100
AcDbEntity
  8
DEFPOINTS
 62
     0
100
AcDbPoint
 10
8634.928602622695
 20
-3966.04560118007
 30
0.0
  0
POINT
  5
1A8
330
19F
100
AcDbEntity
  8
DEFPOINTS
 62
     0
100
AcDbPoint
 10
8634.928602622695
 20
-3939.122831075921
 30
0.0
  0
ENDBLK
  5
1AA
330
19F
100
AcDbEntity
  8
0
100
AcDbBlockEnd
  0
BLOCK
  5
1B6
330
1AC
100
AcDbEntity
  8
0
100
AcDbBlockBegin
  2
*D27
 70
     1
 10
0.0
 20
0.0
 30
0.0
  3
*D27
  1

  0
LINE
  5
1AD
330
1AC
100
AcDbEntity
  8
0
 62
   123
100
AcDbLine
 10
8602.928602622695
 20
-3985.54560118007
 30
0.0
 11
8602.928602622695
 21
-3938.522831075921
 31
0.0
  0
LINE
  5
1AE
330
1AC
100
AcDbEntity
  8
0
 62
   123
100
AcDbLine
 10
8634.928602622695
 20
-3964.440637225617
 30
0.0
 11
8634.928602622695
 21
-3938.522831075921
 31
0.0
  0
LINE
  5
1AF
330
1AC
100
AcDbEntity
  8
0
 62
   123
100
AcDbLine
 10
8605.928602622695
 20
-3939.122831075921
 30
0.0
 11
8631.928602622695
 21
-3939.122831075921
 31
0.0
  0
SOLID
  5
1B0
330
1AC
100
AcDbEntity
  8
0
 62
   123
100
AcDbTrace
 10
8605.928602622695
 20
-3938.622831075921
 30
0.0
 11
8605.928602622695
 21
-3939.62283107592
 31
0.0
 12
8602.928602622695
 22
-3939.122831075921
 32
0.0
 13
8602.928602622695
 23
-3939.122831075921
 33
0.0
  0
SOLID
  5
1B1
330
1AC
100
AcDbEntity
  8
0
 62
   123
100
AcDbTrace
 10
8631.928602622695
 20
-3938.622831075921
 30
0.0
 11
8631.928602622695
 21
-3939.62283107592
 31
0.0
 12
8634.928602622695
 22
-3939.122831075921
 32
0.0
 13
8634.928602622695
 23
-3939.122831075921
 33
0.0
  0
MTEXT
  5
1B2
330
1AC
100
AcDbEntity
  8
0
 62
     3
100
AcDbMText
 10
8618.928602622695
 20
-3936.372831075921
 30
0.0
 40
3.5
 41
0.0
 71
     5
 72
     1
  1
\A1;32
1001
ACAD
1000
MTEXTBEGIN
1070
    73
1070
     1
1070
    44
1040
1.0
1070
    74
1070
     0
1000
MTEXTEND
  0
POINT
  5
1B3
330
1AC
100
AcDbEntity
  8
DEFPOINTS
 62
     0
100
AcDbPoint
 10
8602.928602622695
 20
-3986.54560118007
 30
0.0
  0
POINT
  5
1B4
330
1AC
100
AcDbEntity
  8
DEFPOINTS
 62
     0
100
AcDbPoint
 10
8634.928602622695
 20
-3965.440637225618
 30
0.0
  0
POINT
  5
1B5
330
1AC
100
AcDbEntity
  8
DEFPOINTS
 62
     0
100
AcDbPoint
 10
8634.928602622695
 20
-3939.122831075921
 30
0.0
  0
ENDBLK
  5
1B7
330
1AC
100
AcDbEntity
  8
0
100
AcDbBlockEnd
  0
BLOCK
  5
1C8
330
1BE
100
AcDbEntity
  8
0
100
AcDbBlockBegin
  2
*D28
 70
     1
 10
0.0
 20
0.0
 30
0.0
  3
*D28
  1

  0
LINE
  5
1BF
330
1BE
100
AcDbEntity
  8
0
 62
   123
100
AcDbLine
 10
8631.428602622696
 20
-3974.54560118007
 30
0.0
 11
8563.309795361577
 21
-3974.54560118007
 31
0.0
  0
LINE
  5
1C0
330
1BE
100
AcDbEntity
  8
0
 62
   123
100
AcDbLine
 10
8617.845724217998
 20
-4010.54560118007
 30
0.0
 11
8563.309795361577
 21
-4010.54560118007
 31
0.0
  0
LINE
  5
1C1
330
1BE
100
AcDbEntity
  8
0
 62
   123
100
AcDbLine
 10
8563.909795361579
 20
-3977.54560118007
 30
0.0
 11
8563.909795361579
 21
-4007.545601180071
 31
0.0
  0
SOLID
  5
1C2
330
1BE
100
AcDbEntity
  8
0
 62
   123
100
AcDbTrace
 10
8563.409795361577
 20
-3977.54560118007
 30
0.0
 11
8564.409795361578
 21
-3977.54560118007
 31
0.0
 12
8563.909795361579
 22
-3974.54560118007
 32
0.0
 13
8563.909795361579
 23
-3974.54560118007
 33
0.0
  0
SOLID
  5
1C3
330
1BE
100
AcDbEntity
  8
0
 62
   123
100
AcDbTrace
 10
8563.409795361577
 20
-4007.545601180071
 30
0.0
 11
8564.409795361578
 21
-4007.545601180071
 31
0.0
 12
8563.909795361579
 22
-4010.54560118007
 32
0.0
 13
8563.909795361579
 23
-4010.54560118007
 33
0.0
  0
MTEXT
  5
1C4
330
1BE
100
AcDbEntity
  8
0
 62
     3
100
AcDbMText
 10
8561.159795361581
 20
-3992.795601180071
 30
0.0
 40
3.5
 41
0.0
 71
     5
 72
     1
  1
\A1;{\f??|b0|i0|c0|p49;%%C}36
 11
0.0000000000000001
 21
1.0
 31
0.0
1001
ACAD
1000
MTEXTBEGIN
1070
    73
1070
     1
1070
    44
1040
1.0
1070
    74
1070
     0
1000
MTEXTEND
  0
POINT
  5
1C5
330
1BE
100
AcDbEntity
  8
DEFPOINTS
 62
     0
100
AcDbPoint
 10
8632.428602622693
 20
-3974.54560118007
 30
0.0
  0
POINT
  5
1C6
330
1BE
100
AcDbEntity
  8
DEFPOINTS
 62
     0
100
AcDbPoint
 10
8618.845724217997
 20
-4010.54560118007
 30
0.0
  0
POINT
  5
1C7
330
1BE
100
AcDbEntity
  8
DEFPOINTS
 62
     0
100
AcDbPoint
 10
8563.909795361579
 20
-4010.54560118007
 30
0.0
  0
ENDBLK
  5
1C9
330
1BE
100
AcDbEntity
  8
0
100
AcDbBlockEnd
  0
BLOCK
  5
E6
330
DC
100
AcDbEntity
  8
0
100
AcDbBlockBegin
  2
*D29
 70
     1
 10
0.0
 20
0.0
 30
0.0
  3
*D29
  1

  0
LINE
  5
DD
330
DC
100
AcDbEntity
  8
0
 62
   123
100
AcDbLine
 10
8817.928602622695
 20
-3966.04560118007
 30
0.0
 11
8837.202613067075
 21
-3966.04560118007
 31
0.0
  0
LINE
  5
DE
330
DC
100
AcDbEntity
  8
0
 62
   123
100
AcDbLine
 10
8817.928602622695
 20
-4055.04560118007
 30
0.0
 11
8837.202613067075
 21
-4055.04560118007
 31
0.0
  0
LINE
  5
DF
330
DC
100
AcDbEntity
  8
0
 62
   123
100
AcDbLine
 10
8836.602613067077
 20
-3969.04560118007
 30
0.0
 11
8836.602613067077
 21
-4052.045601180071
 31
0.0
  0
SOLID
  5
E0
330
DC
100
AcDbEntity
  8
0
 62
   123
100
AcDbTrace
 10
8836.102613067076
 20
-3969.04560118007
 30
0.0
 11
8837.102613067076
 21
-3969.04560118007
 31
0.0
 12
8836.602613067077
 22
-3966.04560118007
 32
0.0
 13
8836.602613067077
 23
-3966.04560118007
 33
0.0
  0
SOLID
  5
E1
330
DC
100
AcDbEntity
  8
0
 62
   123
100
AcDbTrace
 10
8836.102613067076
 20
-4052.045601180071
 30
0.0
 11
8837.102613067076
 21
-4052.045601180071
 31
0.0
 12
8836.602613067077
 22
-4055.04560118007
 32
0.0
 13
8836.602613067077
 23
-4055.04560118007
 33
0.0
  0
MTEXT
  5
E2
330
DC
100
AcDbEntity
  8
0
 62
     3
100
AcDbMText
 10
8833.852613067076
 20
-4010.54560118007
 30
0.0
 40
3.5
 41
0.0
 71
     5
 72
     1
  1
\A1;%%C89
 11
0.0000000000000001
 21
1.0
 31
0.0
1001
ACAD
1000
MTEXTBEGIN
1070
    73
1070
     1
1070
    44
1040
1.0
1070
    74
1070
     0
1000
MTEXTEND
  0
POINT
  5
E3
330
DC
100
AcDbEntity
  8
DEFPOINTS
 62
     0
100
AcDbPoint
 10
8816.928602622693
 20
-3966.04560118007
 30
0.0
  0
POINT
  5
E4
330
DC
100
AcDbEntity
  8
DEFPOINTS
 62
     0
100
AcDbPoint
 10
8816.928602622693
 20
-4055.04560118007
 30
0.0
  0
POINT
  5
E5
330
DC
100
AcDbEntity
  8
DEFPOINTS
 62
     0
100
AcDbPoint
 10
8836.602613067077
 20
-4055.04560118007
 30
0.0
  0
ENDBLK
  5
E7
330
DC
100
AcDbEntity
  8
0
100
AcDbBlockEnd
  0
BLOCK
  5
D7
330
CB
100
AcDbEntity
  8
0
100
AcDbBlockBegin
  2
*D30
 70
     1
 10
0.0
 20
0.0
 30
0.0
  3
*D30
  1

  0
LINE
  5
CC
330
CB
100
AcDbEntity
  8
0
 62
   123
100
AcDbLine
 10
8491.738066626821
 20
-4060.682320285077
 30
0.0
 11
8491.738066626821
 21
-4083.594333337289
 31
0.0
  0
LINE
  5
CD
330
CB
100
AcDbEntity
  8
0
 62
   123
100
AcDbLine
 10
8510.760360365942
 20
-4056.469480712581
 30
0.0
 11
8519.692606178621
 21
-4078.033829696042
 31
0.0
  0
ARC
  5
CE
330
CB
100
AcDbEntity
  8
0
 62
   123
100
AcDbCircle
 10
8491.738066626821
 20
-4010.545601180072
 30
0.0
 40
72.44873215721765
100
AcDbArc
 50
272.3727071022548
 51
290.1272928977098
  0
SOLID
  5
CF
330
CB
100
AcDbEntity
  8
0
 62
   123
100
AcDbTrace
 10
8494.747775704116
 20
-4083.432113270641
 30
0.0
 11
8494.727071408053
 21
-4082.432327627553
 31
0.0
 12
8491.738066626821
 22
-4082.994333337288
 32
0.0
 13
8491.738066626821
 23
-4082.994333337288
 33
0.0
  0
SOLID
  5
D0
330
CB
100
AcDbEntity
  8
0
 62
   123
100
AcDbTrace
 10
8516.486445505234
 20
-4078.104119013191
 30
0.0
 11
8516.849918631391
 21
-4079.035723696821
 31
0.0
 12
8519.462996119202
 22
-4077.479501976534
 32
0.0
 13
8519.462996119202
 23
-4077.479501976534
 33
0.0
  0
MTEXT
  5
D1
330
CB
100
AcDbEntity
  8
0
 62
     3
100
AcDbMText
 10
8505.270584620131
 20
-4078.578163315841
 30
0.0
 40
3.5
 41
0.0
 71
     5
 72
     1
  1
\A1;22°30'
 11
0.980785280403291
 21
0.1950903220158245
 31
0.0
1001
ACAD
1000
MTEXTBEGIN
1070
    73
1070
     1
1070
    44
1040
1.0
1070
    74
1070
     0
1000
MTEXTEND
  0
POINT
  5
D2
330
CB
100
AcDbEntity
  8
DEFPOINTS
 62
     0
100
AcDbPoint
 10
8501.194523766459
 20
-4082.374524390393
 30
0.0
  0
POINT
  5
D3
330
CB
100
AcDbEntity
  8
DEFPOINTS
 62
     0
100
AcDbPoint
 10
8491.738066626821
 20
-4059.682320285077
 30
0.0
  0
POINT
  5
D4
330
CB
100
AcDbEntity
  8
DEFPOINTS
 62
     0
100
AcDbPoint
 10
8491.738066626821
 20
-4010.54560118007
 30
0.0
  0
POINT
  5
D5
330
CB
100
AcDbEntity
  8
DEFPOINTS
 62
     0
100
AcDbPoint
 10
8510.377676933577
 20
-4055.54560118007
 30
0.0
  0
POINT
  5
D6
330
CB
100
AcDbEntity
  8
DEFPOINTS
 62
     0
100
AcDbPoint
 10
8491.738066626821
 20
-3956.915456416318
 30
0.0
  0
ENDBLK
  5
D8
330
CB
100
AcDbEntity
  8
0
100
AcDbBlockEnd
  0
BLOCK
  5
168
330
15C
100
AcDbEntity
  8
0
100
AcDbBlockBegin
  2
*D31
 70
     1
 10
0.0
 20
0.0
 30
0.0
  3
*D31
  1

  0
LINE
  5
15D
330
15C
100
AcDbEntity
  8
0
 62
   123
100
AcDbLine
 10
8601.928602622695
 20
-3998.545601180071
 30
0.0
 11
8587.760241792016
 21
-3998.545601180071
 31
0.0
  0
LINE
  5
15E
330
15C
100
AcDbEntity
  8
0
 62
   123
100
AcDbLine
 10
8601.928602622695
 20
-3986.54560118007
 30
0.0
 11
8587.760241792016
 21
-3986.54560118007
 31
0.0
  0
LINE
  5
15F
330
15C
100
AcDbEntity
  8
0
 62
   123
100
AcDbLine
 10
8588.360241792019
 20
-4001.545601180071
 30
0.0
 11
8588.360241792019
 21
-4004.545601180071
 31
0.0
  0
LINE
  5
160
330
15C
100
AcDbEntity
  8
0
 62
   123
100
AcDbLine
 10
8588.360241792019
 20
-3983.54560118007
 30
0.0
 11
8588.360241792019
 21
-3941.510000907607
 31
0.0
  0
LINE
  5
161
330
15C
100
AcDbEntity
  8
0
 62
   123
100
AcDbLine
 10
8588.360241792019
 20
-3998.545601180071
 30
0.0
 11
8588.360241792019
 21
-3986.54560118007
 31
0.0
  0
SOLID
  5
162
330
15C
100
AcDbEntity
  8
0
 62
   123
100
AcDbTrace
 10
8587.86024179202
 20
-4001.545601180071
 30
0.0
 11
8588.860241792019
 21
-4001.545601180071
 31
0.0
 12
8588.360241792019
 22
-3998.545601180071
 32
0.0
 13
8588.360241792019
 23
-3998.545601180071
 33
0.0
  0
SOLID
  5
163
330
15C
100
AcDbEntity
  8
0
 62
   123
100
AcDbTrace
 10
8587.86024179202
 20
-3983.54560118007
 30
0.0
 11
8588.860241792019
 21
-3983.54560118007
 31
0.0
 12
8588.360241792019
 22
-3986.54560118007
 32
0.0
 13
8588.360241792019
 23
-3986.54560118007
 33
0.0
  0
MTEXT
  5
164
330
15C
100
AcDbEntity
  8
0
 62
     3
100
AcDbMText
 10
8583.918400125353
 20
-3958.628167574271
 30
0.0
 40
3.5
 41
0.0
 71
     5
 72
     1
  1
\A1;\A1;{\f??|b0|i0|c0|p49;%%C12\H0.7x;\S+0^ -0.018;\H1.429x;(h7)}
 11
0.0000000000000001
 21
1.0
 31
0.0
1001
ACAD
1000
MTEXTBEGIN
1070
    73
1070
     1
1070
    44
1040
1.0
1070
    74
1070
     0
1000
MTEXTEND
  0
POINT
  5
165
330
15C
100
AcDbEntity
  8
DEFPOINTS
 62
     0
100
AcDbPoint
 10
8602.928602622695
 20
-3998.545601180071
 30
0.0
  0
POINT
  5
166
330
15C
100
AcDbEntity
  8
DEFPOINTS
 62
     0
100
AcDbPoint
 10
8602.928602622695
 20
-3986.54560118007
 30
0.0
  0
POINT
  5
167
330
15C
100
AcDbEntity
  8
DEFPOINTS
 62
     0
100
AcDbPoint
 10
8588.360241792019
 20
-3986.54560118007
 30
0.0
  0
ENDBLK
  5
169
330
15C
100
AcDbEntity
  8
0
100
AcDbBlockEnd
  0
BLOCK
  5
177
330
16D
100
AcDbEntity
  8
0
100
AcDbBlockBegin
  2
*D32
 70
     1
 10
0.0
 20
0.0
 30
0.0
  3
*D32
  1

  0
LINE
  5
16E
330
16D
100
AcDbEntity
  8
0
 62
   123
100
AcDbLine
 10
8598.030463821469
 20
-3992.54560118007
 30
0.0
 11
8576.215362425084
 21
-3992.54560118007
 31
0.0
  0
LINE
  5
16F
330
16D
100
AcDbEntity
  8
0
 62
   123
100
AcDbLine
 10
8616.845724217998
 20
-4010.54560118007
 30
0.0
 11
8576.215362425084
 21
-4010.54560118007
 31
0.0
  0
LINE
  5
170
330
16D
100
AcDbEntity
  8
0
 62
   123
100
AcDbLine
 10
8576.815362425087
 20
-3995.54560118007
 30
0.0
 11
8576.815362425087
 21
-4007.545601180071
 31
0.0
  0
SOLID
  5
171
330
16D
100
AcDbEntity
  8
0
 62
   123
100
AcDbTrace
 10
8576.315362425084
 20
-3995.54560118007
 30
0.0
 11
8577.315362425087
 21
-3995.54560118007
 31
0.0
 12
8576.815362425087
 22
-3992.54560118007
 32
0.0
 13
8576.815362425087
 23
-3992.54560118007
 33
0.0
  0
SOLID
  5
172
330
16D
100
AcDbEntity
  8
0
 62
   123
100
AcDbTrace
 10
8576.315362425084
 20
-4007.545601180071
 30
0.0
 11
8577.315362425087
 21
-4007.545601180071
 31
0.0
 12
8576.815362425087
 22
-4010.54560118007
 32
0.0
 13
8576.815362425087
 23
-4010.54560118007
 33
0.0
  0
MTEXT
  5
173
330
16D
100
AcDbEntity
  8
0
 62
     3
100
AcDbMText
 10
8574.065362425084
 20
-4001.545601180068
 30
0.0
 40
3.5
 41
0.0
 71
     5
 72
     1
  1
\A1;18
 11
0.0000000000000001
 21
1.0
 31
0.0
1001
ACAD
1000
MTEXTBEGIN
1070
    73
1070
     1
1070
    44
1040
1.0
1070
    74
1070
     0
1000
MTEXTEND
  0
POINT
  5
174
330
16D
100
AcDbEntity
  8
DEFPOINTS
 62
     0
100
AcDbPoint
 10
8599.030463821469
 20
-3992.54560118007
 30
0.0
  0
POINT
  5
175
330
16D
100
AcDbEntity
  8
DEFPOINTS
 62
     0
100
AcDbPoint
 10
8617.845724217998
 20
-4010.54560118007
 30
0.0
  0
POINT
  5
176
330
16D
100
AcDbEntity
  8
DEFPOINTS
 62
     0
100
AcDbPoint
 10
8576.815362425087
 20
-4010.54560118007
 30
0.0
  0
ENDBLK
  5
178
330
16D
100
AcDbEntity
  8
0
100
AcDbBlockEnd
  0
BLOCK
  5
134
330
128
100
AcDbEntity
  8
0
100
AcDbBlockBegin
  2
*D33
 70
     1
 10
0.0
 20
0.0
 30
0.0
  3
*D33
  1

  0
LINE
  5
129
330
128
100
AcDbEntity
  8
0
 62
   123
100
AcDbLine
 10
8674.928602622697
 20
-3964.54560118007
 30
0.0
 11
8674.928602622697
 21
-3952.913856421528
 31
0.0
  0
LINE
  5
12A
330
128
100
AcDbEntity
  8
0
 62
   123
100
AcDbLine
 10
8682.428602622694
 20
-3965.946863838541
 30
0.0
 11
8682.428602622694
 21
-3952.913856421528
 31
0.0
  0
LINE
  5
12B
330
128
100
AcDbEntity
  8
0
 62
   123
100
AcDbLine
 10
8671.928602622697
 20
-3953.513856421528
 30
0.0
 11
8668.928602622695
 21
-3953.513856421528
 31
0.0
  0
LINE
  5
12C
330
128
100
AcDbEntity
  8
0
 62
   123
100
AcDbLine
 10
8685.428602622694
 20
-3953.513856421528
 30
0.0
 11
8688.428602622694
 21
-3953.513856421528
 31
0.0
  0
LINE
  5
12D
330
128
100
AcDbEntity
  8
0
 62
   123
100
AcDbLine
 10
8674.928602622697
 20
-3953.513856421528
 30
0.0
 11
8682.428602622694
 21
-3953.513856421528
 31
0.0
  0
SOLID
  5
12E
330
128
100
AcDbEntity
  8
0
 62
   123
100
AcDbTrace
 10
8671.928602622697
 20
-3953.013856421527
 30
0.0
 11
8671.928602622697
 21
-3954.013856421527
 31
0.0
 12
8674.928602622697
 22
-3953.513856421528
 32
0.0
 13
8674.928602622697
 23
-3953.513856421528
 33
0.0
  0
SOLID
  5
12F
330
128
100
AcDbEntity
  8
0
 62
   123
100
AcDbTrace
 10
8685.428602622694
 20
-3953.013856421527
 30
0.0
 11
8685.428602622694
 21
-3954.013856421527
 31
0.0
 12
8682.428602622694
 22
-3953.513856421528
 32
0.0
 13
8682.428602622694
 23
-3953.513856421528
 33
0.0
  0
MTEXT
  5
130
330
128
100
AcDbEntity
  8
0
 62
     3
100
AcDbMText
 10
8678.678602622694
 20
-3950.763856421527
 30
0.0
 40
3.5
 41
0.0
 71
     5
 72
     1
  1
\A1;7.5
1001
ACAD
1000
MTEXTBEGIN
1070
    73
1070
     1
1070
    44
1040
1.0
1070
    74
1070
     0
1000
MTEXTEND
  0
POINT
  5
131
330
128
100
AcDbEntity
  8
DEFPOINTS
 62
     0
100
AcDbPoint
 10
8674.928602622697
 20
-3965.54560118007
 30
0.0
  0
POINT
  5
132
330
128
100
AcDbEntity
  8
DEFPOINTS
 62
     0
100
AcDbPoint
 10
8682.428602622694
 20
-3966.946863838542
 30
0.0
  0
POINT
  5
133
330
128
100
AcDbEntity
  8
DEFPOINTS
 62
     0
100
AcDbPoint
 10
8682.428602622694
 20
-3953.513856421528
 30
0.0
  0
ENDBLK
  5
135
330
128
100
AcDbEntity
  8
0
100
AcDbBlockEnd
  0
BLOCK
  5
3B9
330
3AF
100
AcDbEntity
  8
0
100
AcDbBlockBegin
  2
*D34
 70
     1
 10
0.0
 20
0.0
 30
0.0
  3
*D34
  1

  0
LINE
  5
3B0
330
3AF
100
AcDbEntity
  8
0
 62
   123
100
AcDbLine
 10
381.6332317596989
 20
143.9574160975248
 30
0.0
 11
400.9072422040823
 21
143.9574160975248
 31
0.0
  0
LINE
  5
3B1
330
3AF
100
AcDbEntity
  8
0
 62
   123
100
AcDbLine
 10
381.6332317596989
 20
54.95741609752485
 30
0.0
 11
400.9072422040823
 21
54.95741609752485
 31
0.0
  0
LINE
  5
3B2
330
3AF
100
AcDbEntity
  8
0
 62
   123
100
AcDbLine
 10
400.3072422040823
 20
140.9574160975248
 30
0.0
 11
400.3072422040823
 21
57.95741609752485
 31
0.0
  0
SOLID
  5
3B3
330
3AF
100
AcDbEntity
  8
0
 62
   123
100
AcDbTrace
 10
399.8072422040823
 20
140.9574160975248
 30
0.0
 11
400.8072422040823
 21
140.9574160975248
 31
0.0
 12
400.3072422040823
 22
143.9574160975248
 32
0.0
 13
400.3072422040823
 23
143.9574160975248
 33
0.0
  0
SOLID
  5
3B4
330
3AF
100
AcDbEntity
  8
0
 62
   123
100
AcDbTrace
 10
399.8072422040822
 20
57.95741609752486
 30
0.0
 11
400.8072422040823
 21
57.95741609752485
 31
0.0
 12
400.3072422040823
 22
54.95741609752485
 32
0.0
 13
400.3072422040823
 23
54.95741609752485
 33
0.0
  0
MTEXT
  5
3B5
330
3AF
100
AcDbEntity
  8
0
 62
     3
100
AcDbMText
 10
397.5572422040822
 20
99.45741609752486
 30
0.0
 40
3.5
 41
0.0
 71
     5
 72
     1
  1
\A1;%%C89
 11
0.0000000000000001
 21
1.0
 31
0.0
1001
ACAD
1000
MTEXTBEGIN
1070
    73
1070
     1
1070
    44
1040
1.0
1070
    74
1070
     0
1000
MTEXTEND
  0
POINT
  5
3B6
330
3AF
100
AcDbEntity
  8
DEFPOINTS
 62
     0
100
AcDbPoint
 10
380.6332317596988
 20
143.9574160975248
 30
0.0
  0
POINT
  5
3B7
330
3AF
100
AcDbEntity
  8
DEFPOINTS
 62
     0
100
AcDbPoint
 10
380.6332317596988
 20
54.95741609752485
 30
0.0
  0
POINT
  5
3B8
330
3AF
100
AcDbEntity
  8
DEFPOINTS
 62
     0
100
AcDbPoint
 10
400.3072422040823
 20
54.95741609752485
 30
0.0
  0
ENDBLK
  5
3BA
330
3AF
100
AcDbEntity
  8
0
100
AcDbBlockEnd
  0
BLOCK
  5
3C7
330
3BB
100
AcDbEntity
  8
0
100
AcDbBlockBegin
  2
*D35
 70
     1
 10
0.0
 20
0.0
 30
0.0
  3
*D35
  1

  0
LINE
  5
581
330
3BB
100
AcDbEntity
  8
0
 62
   123
100
AcDbLine
 10
55.44269576382794
 20
49.32069699251679
 30
0.0
 11
55.44269576382794
 21
26.40868394030724
 31
0.0
  0
LINE
  5
582
330
3BB
100
AcDbEntity
  8
0
 62
   123
100
AcDbLine
 10
74.46498950294698
 20
53.53353656501331
 30
0.0
 11
83.39723531562563
 21
31.96918758155401
 31
0.0
  0
ARC
  5
583
330
3BB
100
AcDbEntity
  8
0
 62
   123
100
AcDbCircle
 10
55.44269576382794
 20
99.45741609752486
 30
0.0
 40
72.44873215721762
100
AcDbArc
 50
272.3727071022548
 51
290.1272928977073
  0
SOLID
  5
584
330
3BB
100
AcDbEntity
  8
0
 62
   123
100
AcDbTrace
 10
58.45240484112308
 20
26.57090400695349
 30
0.0
 11
58.4317005450597
 21
27.5706896500413
 31
0.0
 12
55.44269576382794
 22
27.00868394030724
 32
0.0
 13
55.44269576382794
 23
27.00868394030724
 33
0.0
  0
SOLID
  5
585
330
3BB
100
AcDbEntity
  8
0
 62
   123
100
AcDbTrace
 10
80.19107464223832
 20
31.89889826440325
 30
0.0
 11
80.55454776839587
 21
30.96729358077331
 31
0.0
 12
83.16762525620694
 22
32.52351530106095
 32
0.0
 13
83.16762525620694
 23
32.52351530106095
 33
0.0
  0
MTEXT
  5
586
330
3BB
100
AcDbEntity
  8
0
 62
     3
100
AcDbMText
 10
68.97521375713428
 20
31.42485396175513
 30
0.0
 40
3.5
 41
0.0
 71
     5
 72
     1
  1
\A1;22°30'
 11
0.9807852804032947
 21
0.1950903220158053
 31
0.0
  0
POINT
  5
587
330
3BB
100
AcDbEntity
  8
DEFPOINTS
 62
     0
100
AcDbPoint
 10
64.89915290346418
 20
27.62849288720183
 30
0.0
  0
POINT
  5
588
330
3BB
100
AcDbEntity
  8
DEFPOINTS
 62
     0
100
AcDbPoint
 10
55.44269576382794
 20
50.32069699251678
 30
0.0
  0
POINT
  5
589
330
3BB
100
AcDbEntity
  8
DEFPOINTS
 62
     0
100
AcDbPoint
 10
55.44269576382794
 20
99.45741609752486
 30
0.0
  0
POINT
  5
58A
330
3BB
100
AcDbEntity
  8
DEFPOINTS
 62
     0
100
AcDbPoint
 10
74.08230607058249
 20
54.45741609752485
 30
0.0
  0
POINT
  5
58B
330
3BB
100
AcDbEntity
  8
DEFPOINTS
 62
     0
100
AcDbPoint
 10
55.44269576382794
 20
153.0875608612773
 30
0.0
  0
ENDBLK
  5
3C8
330
3BB
100
AcDbEntity
  8
0
100
AcDbBlockEnd
  0
BLOCK
  5
3D3
330
3C9
100
AcDbEntity
  8
0
100
AcDbBlockBegin
  2
*D36
 70
     1
 10
0.0
 20
0.0
 30
0.0
  3
*D36
  1

  0
LINE
  5
3CA
330
3C9
100
AcDbEntity
  8
0
 62
   123
100
AcDbLine
 10
238.6332317597025
 20
145.4574160975248
 30
0.0
 11
238.6332317597025
 21
170.9169679013212
 31
0.0
  0
LINE
  5
3CB
330
3C9
100
AcDbEntity
  8
0
 62
   123
100
AcDbLine
 10
386.6332317597007
 20
139.4574160975244
 30
0.0
 11
386.6332317597007
 21
170.9169679013212
 31
0.0
  0
LINE
  5
3CC
330
3C9
100
AcDbEntity
  8
0
 62
   123
100
AcDbLine
 10
241.6332317597025
 20
170.3169679013212
 30
0.0
 11
383.6332317597007
 21
170.3169679013212
 31
0.0
  0
SOLID
  5
3CD
330
3C9
100
AcDbEntity
  8
0
 62
   123
100
AcDbTrace
 10
241.6332317597025
 20
170.8169679013212
 30
0.0
 11
241.6332317597025
 21
169.8169679013212
 31
0.0
 12
238.6332317597025
 22
170.3169679013212
 32
0.0
 13
238.6332317597025
 23
170.3169679013212
 33
0.0
  0
SOLID
  5
3CE
330
3C9
100
AcDbEntity
  8
0
 62
   123
100
AcDbTrace
 10
383.6332317597007
 20
170.8169679013212
 30
0.0
 11
383.6332317597007
 21
169.8169679013212
 31
0.0
 12
386.6332317597007
 22
170.3169679013212
 32
0.0
 13
386.6332317597007
 23
170.3169679013212
 33
0.0
  0
MTEXT
  5
3CF
330
3C9
100
AcDbEntity
  8
0
 62
     3
100
AcDbMText
 10
306.1332317597007
 20
173.0669679013212
 30
0.0
 40
3.5
 41
0.0
 71
     5
 72
     1
  1
\A1;148
1001
ACAD
1000
MTEXTBEGIN
1070
    73
1070
     1
1070
    44
1040
1.0
1070
    74
1070
     0
1000
MTEXTEND
  0
POINT
  5
3D0
330
3C9
100
AcDbEntity
  8
DEFPOINTS
 62
     0
100
AcDbPoint
 10
238.6332317597025
 20
144.4574160975248
 30
0.0
  0
POINT
  5
3D1
330
3C9
100
AcDbEntity
  8
DEFPOINTS
 62
     0
100
AcDbPoint
 10
386.6332317597007
 20
138.4574160975243
 30
0.0
  0
POINT
  5
3D2
330
3C9
100
AcDbEntity
  8
DEFPOINTS
 62
     0
100
AcDbPoint
 10
386.6332317597007
 20
170.3169679013212
 30
0.0
  0
ENDBLK
  5
3D4
330
3C9
100
AcDbEntity
  8
0
100
AcDbBlockEnd
  0
BLOCK
  5
3E1
330
3D5
100
AcDbEntity
  8
0
100
AcDbBlockBegin
  2
*D37
 70
     1
 10
0.0
 20
0.0
 30
0.0
  3
*D37
  1

  0
LINE
  5
3D6
330
3D5
100
AcDbEntity
  8
0
 62
   123
100
AcDbLine
 10
238.6332317597025
 20
145.4574160975248
 30
0.0
 11
238.6332317597025
 21
157.0891608560674
 31
0.0
  0
LINE
  5
3D7
330
3D5
100
AcDbEntity
  8
0
 62
   123
100
AcDbLine
 10
246.1332317597007
 20
144.0561534390531
 30
0.0
 11
246.1332317597007
 21
157.0891608560674
 31
0.0
  0
LINE
  5
3D8
330
3D5
100
AcDbEntity
  8
0
 62
   123
100
AcDbLine
 10
235.6332317597025
 20
156.4891608560674
 30
0.0
 11
232.6332317597025
 21
156.4891608560674
 31
0.0
  0
LINE
  5
3D9
330
3D5
100
AcDbEntity
  8
0
 62
   123
100
AcDbLine
 10
249.1332317597007
 20
156.4891608560674
 30
0.0
 11
252.1332317597007
 21
156.4891608560674
 31
0.0
  0
LINE
  5
3DA
330
3D5
100
AcDbEntity
  8
0
 62
   123
100
AcDbLine
 10
238.6332317597025
 20
156.4891608560674
 30
0.0
 11
246.1332317597007
 21
156.4891608560674
 31
0.0
  0
SOLID
  5
3DB
330
3D5
100
AcDbEntity
  8
0
 62
   123
100
AcDbTrace
 10
235.6332317597025
 20
156.9891608560674
 30
0.0
 11
235.6332317597025
 21
155.9891608560674
 31
0.0
 12
238.6332317597025
 22
156.4891608560674
 32
0.0
 13
238.6332317597025
 23
156.4891608560674
 33
0.0
  0
SOLID
  5
3DC
330
3D5
100
AcDbEntity
  8
0
 62
   123
100
AcDbTrace
 10
249.1332317597007
 20
156.9891608560674
 30
0.0
 11
249.1332317597007
 21
155.9891608560674
 31
0.0
 12
246.1332317597007
 22
156.4891608560674
 32
0.0
 13
246.1332317597007
 23
156.4891608560674
 33
0.0
  0
MTEXT
  5
3DD
330
3D5
100
AcDbEntity
  8
0
 62
     3
100
AcDbMText
 10
242.3832317597016
 20
159.2391608560674
 30
0.0
 40
3.5
 41
0.0
 71
     5
 72
     1
  1
\A1;7.5
1001
ACAD
1000
MTEXTBEGIN
1070
    73
1070
     1
1070
    44
1040
1.0
1070
    74
1070
     0
1000
MTEXTEND
  0
POINT
  5
3DE
330
3D5
100
AcDbEntity
  8
DEFPOINTS
 62
     0
100
AcDbPoint
 10
238.6332317597025
 20
144.4574160975248
 30
0.0
  0
POINT
  5
3DF
330
3D5
100
AcDbEntity
  8
DEFPOINTS
 62
     0
100
AcDbPoint
 10
246.1332317597007
 20
143.0561534390531
 30
0.0
  0
POINT
  5
3E0
330
3D5
100
AcDbEntity
  8
DEFPOINTS
 62
     0
100
AcDbPoint
 10
246.1332317597007
 20
156.4891608560674
 30
0.0
  0
ENDBLK
  5
3E2
330
3D5
100
AcDbEntity
  8
0
100
AcDbBlockEnd
  0
BLOCK
  5
3EF
330
3E3
100
AcDbEntity
  8
0
100
AcDbBlockBegin
  2
*D38
 70
     1
 10
0.0
 20
0.0
 30
0.0
  3
*D38
  1

  0
LINE
  5
3E4
330
3E3
100
AcDbEntity
  8
0
 62
   123
100
AcDbLine
 10
123.5429451516283
 20
221.180273338819
 30
0.0
 11
123.5429451516283
 21
229.539285883795
 31
0.0
  0
LINE
  5
3E5
330
3E3
100
AcDbEntity
  8
0
 62
   123
100
AcDbLine
 10
127.5429451516283
 20
221.180273338819
 30
0.0
 11
127.5429451516283
 21
229.539285883795
 31
0.0
  0
LINE
  5
3E6
330
3E3
100
AcDbEntity
  8
0
 62
   123
100
AcDbLine
 10
121.0429451516283
 20
228.939285883795
 30
0.0
 11
118.5429451516283
 21
228.939285883795
 31
0.0
  0
LINE
  5
3E7
330
3E3
100
AcDbEntity
  8
0
 62
   123
100
AcDbLine
 10
130.0429451516283
 20
228.939285883795
 30
0.0
 11
132.5429451516283
 21
228.939285883795
 31
0.0
  0
LINE
  5
3E8
330
3E3
100
AcDbEntity
  8
0
 62
   123
100
AcDbLine
 10
123.5429451516283
 20
228.939285883795
 30
0.0
 11
127.5429451516283
 21
228.939285883795
 31
0.0
  0
SOLID
  5
3E9
330
3E3
100
AcDbEntity
  8
0
 62
   123
100
AcDbTrace
 10
121.0429451516283
 20
229.3559525504616
 30
0.0
 11
121.0429451516283
 21
228.5226192171283
 31
0.0
 12
123.5429451516283
 22
228.939285883795
 32
0.0
 13
123.5429451516283
 23
228.939285883795
 33
0.0
  0
SOLID
  5
3EA
330
3E3
100
AcDbEntity
  8
0
 62
   123
100
AcDbTrace
 10
130.0429451516283
 20
229.3559525504616
 30
0.0
 11
130.0429451516283
 21
228.5226192171283
 31
0.0
 12
127.5429451516283
 22
228.939285883795
 32
0.0
 13
127.5429451516283
 23
228.939285883795
 33
0.0
  0
MTEXT
  5
3EB
330
3E3
100
AcDbEntity
  8
0
 62
     3
100
AcDbMText
 10
125.5429451516283
 20
232.389285883795
 30
0.0
 40
3.0
 41
0.0
 71
     5
 72
     1
  1
\A1;\A1;4{\f??|b0|i0|c0|p49;\H0.7x;\S+0.40^ -0;}
1001
ACAD
1000
MTEXTBEGIN
1070
    73
1070
     1
1070
    44
1040
1.0
1070
    74
1070
     0
1000
MTEXTEND
  0
POINT
  5
3EC
330
3E3
100
AcDbEntity
  8
DEFPOINTS
 62
     0
100
AcDbPoint
 10
123.5429451516283
 20
220.1802733388189
 30
0.0
  0
POINT
  5
3ED
330
3E3
100
AcDbEntity
  8
DEFPOINTS
 62
     0
100
AcDbPoint
 10
127.5429451516283
 20
220.1802733388189
 30
0.0
  0
POINT
  5
3EE
330
3E3
100
AcDbEntity
  8
DEFPOINTS
 62
     0
100
AcDbPoint
 10
127.5429451516283
 20
228.939285883795
 30
0.0
  0
ENDBLK
  5
3F0
330
3E3
100
AcDbEntity
  8
0
100
AcDbBlockEnd
  0
BLOCK
  5
3FB
330
3F1
100
AcDbEntity
  8
0
100
AcDbBlockBegin
  2
*D39
 70
     1
 10
0.0
 20
0.0
 30
0.0
  3
*D39
  1

  0
LINE
  5
553
330
3F1
100
AcDbEntity
  8
0
 62
   123
100
AcDbLine
 10
36.43891212436938
 20
218.1979929308599
 30
0.0
 11
36.43891212436938
 21
227.6031869113345
 31
0.0
  0
LINE
  5
554
330
3F1
100
AcDbEntity
  8
0
 62
   123
100
AcDbLine
 10
61.43891212436938
 20
220.1979929308599
 30
0.0
 11
61.43891212436938
 21
227.6031869113345
 31
0.0
  0
LINE
  5
555
330
3F1
100
AcDbEntity
  8
0
 62
   123
100
AcDbLine
 10
38.93891212436938
 20
227.0031869113345
 30
0.0
 11
58.93891212436938
 21
227.0031869113345
 31
0.0
  0
SOLID
  5
556
330
3F1
100
AcDbEntity
  8
0
 62
   123
100
AcDbTrace
 10
38.93891212436938
 20
227.4198535780012
 30
0.0
 11
38.93891212436938
 21
226.5865202446678
 31
0.0
 12
36.43891212436938
 22
227.0031869113345
 32
0.0
 13
36.43891212436938
 23
227.0031869113345
 33
0.0
  0
SOLID
  5
557
330
3F1
100
AcDbEntity
  8
0
 62
   123
100
AcDbTrace
 10
58.93891212436938
 20
227.4198535780012
 30
0.0
 11
58.93891212436938
 21
226.5865202446678
 31
0.0
 12
61.43891212436938
 22
227.0031869113345
 32
0.0
 13
61.43891212436938
 23
227.0031869113345
 33
0.0
  0
MTEXT
  5
558
330
3F1
100
AcDbEntity
  8
0
 62
     3
100
AcDbMText
 10
48.93891212436938
 20
229.5031869113345
 30
0.0
 40
3.0
 41
0.0
 71
     5
 72
     1
  1
\A1;25{\f??|b0|i0|c0|p49;%%p0.2}
1001
ACAD
1000
MTEXTBEGIN
1070
    73
1070
     1
1070
    44
1040
1.0
1070
    74
1070
     0
1000
MTEXTEND
  0
POINT
  5
559
330
3F1
100
AcDbEntity
  8
DEFPOINTS
 62
     0
100
AcDbPoint
 10
36.43891212436938
 20
217.1979929308599
 30
0.0
  0
POINT
  5
55A
330
3F1
100
AcDbEntity
  8
DEFPOINTS
 62
     0
100
AcDbPoint
 10
61.43891212436938
 20
219.1979929308599
 30
0.0
  0
POINT
  5
55B
330
3F1
100
AcDbEntity
  8
DEFPOINTS
 62
     0
100
AcDbPoint
 10
61.43891212436938
 20
227.0031869113345
 30
0.0
  0
ENDBLK
  5
3FC
330
3F1
100
AcDbEntity
  8
0
100
AcDbBlockEnd
  0
BLOCK
  5
409
330
3FD
100
AcDbEntity
  8
0
100
AcDbBlockBegin
  2
*D40
 70
     1
 10
0.0
 20
0.0
 30
0.0
  3
*D40
  1

  0
LINE
  5
3FE
330
3FD
100
AcDbEntity
  8
0
 62
   123
100
AcDbLine
 10
78.60956541108135
 20
220.1979929308599
 30
0.0
 11
78.60956541108135
 21
228.4724685894921
 31
0.0
  0
LINE
  5
3FF
330
3FD
100
AcDbEntity
  8
0
 62
   123
100
AcDbLine
 10
82.60956541108317
 20
220.1979929308599
 30
0.0
 11
82.60956541108317
 21
228.4724685894921
 31
0.0
  0
LINE
  5
400
330
3FD
100
AcDbEntity
  8
0
 62
   123
100
AcDbLine
 10
76.10956541108135
 20
227.8724685894922
 30
0.0
 11
73.60956541108135
 21
227.8724685894922
 31
0.0
  0
LINE
  5
401
330
3FD
100
AcDbEntity
  8
0
 62
   123
100
AcDbLine
 10
85.10956541108317
 20
227.8724685894922
 30
0.0
 11
87.60956541108317
 21
227.8724685894922
 31
0.0
  0
LINE
  5
402
330
3FD
100
AcDbEntity
  8
0
 62
   123
100
AcDbLine
 10
78.60956541108135
 20
227.8724685894922
 30
0.0
 11
82.60956541108317
 21
227.8724685894922
 31
0.0
  0
SOLID
  5
403
330
3FD
100
AcDbEntity
  8
0
 62
   123
100
AcDbTrace
 10
76.10956541108135
 20
228.2891352561588
 30
0.0
 11
76.10956541108135
 21
227.4558019228255
 31
0.0
 12
78.60956541108135
 22
227.8724685894922
 32
0.0
 13
78.60956541108135
 23
227.8724685894922
 33
0.0
  0
SOLID
  5
404
330
3FD
100
AcDbEntity
  8
0
 62
   123
100
AcDbTrace
 10
85.10956541108317
 20
228.2891352561588
 30
0.0
 11
85.10956541108317
 21
227.4558019228255
 31
0.0
 12
82.60956541108317
 22
227.8724685894922
 32
0.0
 13
82.60956541108317
 23
227.8724685894922
 33
0.0
  0
MTEXT
  5
405
330
3FD
100
AcDbEntity
  8
0
 62
     3
100
AcDbMText
 10
80.60956541108225
 20
231.3224685894922
 30
0.0
 40
3.0
 41
0.0
 71
     5
 72
     1
  1
\A1;\A1;4{\f??|b0|i0|c0|p49;\H0.7x;\S+0^ -0.03;}
1001
ACAD
1000
MTEXTBEGIN
1070
    73
1070
     1
1070
    44
1040
1.0
1070
    74
1070
     0
1000
MTEXTEND
  0
POINT
  5
406
330
3FD
100
AcDbEntity
  8
DEFPOINTS
 62
     0
100
AcDbPoint
 10
78.60956541108135
 20
219.1979929308599
 30
0.0
  0
POINT
  5
407
330
3FD
100
AcDbEntity
  8
DEFPOINTS
 62
     0
100
AcDbPoint
 10
82.60956541108317
 20
219.1979929308599
 30
0.0
  0
POINT
  5
408
330
3FD
100
AcDbEntity
  8
DEFPOINTS
 62
     0
100
AcDbPoint
 10
82.60956541108317
 20
227.8724685894922
 30
0.0
  0
ENDBLK
  5
40A
330
3FD
100
AcDbEntity
  8
0
100
AcDbBlockEnd
  0
BLOCK
  5
417
330
40B
100
AcDbEntity
  8
0
100
AcDbBlockBegin
  2
*D41
 70
     1
 10
0.0
 20
0.0
 30
0.0
  3
*D41
  1

  0
LINE
  5
40C
330
40B
100
AcDbEntity
  8
0
 62
   123
100
AcDbLine
 10
62.43891212437119
 20
215.1979929308599
 30
0.0
 11
70.20796727983327
 21
215.1979929308599
 31
0.0
  0
LINE
  5
40D
330
40B
100
AcDbEntity
  8
0
 62
   123
100
AcDbLine
 10
62.43891212437119
 20
219.1979929308599
 30
0.0
 11
70.20796727983327
 21
219.1979929308599
 31
0.0
  0
LINE
  5
40E
330
40B
100
AcDbEntity
  8
0
 62
   123
100
AcDbLine
 10
69.60796727983328
 20
212.6979929308599
 30
0.0
 11
69.60796727983328
 21
210.1979929308599
 31
0.0
  0
LINE
  5
40F
330
40B
100
AcDbEntity
  8
0
 62
   123
100
AcDbLine
 10
69.60796727983328
 20
221.6979929308599
 30
0.0
 11
69.60796727983328
 21
240.7617404392366
 31
0.0
  0
LINE
  5
410
330
40B
100
AcDbEntity
  8
0
 62
   123
100
AcDbLine
 10
69.60796727983328
 20
215.1979929308599
 30
0.0
 11
69.60796727983328
 21
219.1979929308599
 31
0.0
  0
SOLID
  5
411
330
40B
100
AcDbEntity
  8
0
 62
   123
100
AcDbTrace
 10
69.19130061316661
 20
212.6979929308599
 30
0.0
 11
70.02463394649995
 21
212.6979929308599
 31
0.0
 12
69.60796727983328
 22
215.1979929308599
 32
0.0
 13
69.60796727983328
 23
215.1979929308599
 33
0.0
  0
SOLID
  5
412
330
40B
100
AcDbEntity
  8
0
 62
   123
100
AcDbTrace
 10
69.19130061316661
 20
221.6979929308599
 30
0.0
 11
70.02463394649995
 21
221.6979929308599
 31
0.0
 12
69.60796727983328
 22
219.1979929308599
 32
0.0
 13
69.60796727983328
 23
219.1979929308599
 33
0.0
  0
MTEXT
  5
413
330
40B
100
AcDbEntity
  8
0
 62
     3
100
AcDbMText
 10
66.15796727983324
 20
234.0474547249509
 30
0.0
 40
3.0
 41
0.0
 71
     5
 72
     1
  1
\A1;\A1;4{\f??|b0|i0|c0|p49;\H0.7x;\S+0^ -0.03;}
 11
0.0000000000000001
 21
1.0
 31
0.0
1001
ACAD
1000
MTEXTBEGIN
1070
    73
1070
     1
1070
    44
1040
1.0
1070
    74
1070
     0
1000
MTEXTEND
  0
POINT
  5
414
330
40B
100
AcDbEntity
  8
DEFPOINTS
 62
     0
100
AcDbPoint
 10
61.4389121243712
 20
215.1979929308599
 30
0.0
  0
POINT
  5
415
330
40B
100
AcDbEntity
  8
DEFPOINTS
 62
     0
100
AcDbPoint
 10
61.4389121243712
 20
219.1979929308599
 30
0.0
  0
POINT
  5
416
330
40B
100
AcDbEntity
  8
DEFPOINTS
 62
     0
100
AcDbPoint
 10
69.60796727983328
 20
219.1979929308599
 30
0.0
  0
ENDBLK
  5
418
330
40B
100
AcDbEntity
  8
0
100
AcDbBlockEnd
  0
BLOCK
  5
425
330
419
100
AcDbEntity
  8
0
100
AcDbBlockBegin
  2
*D42
 70
     1
 10
0.0
 20
0.0
 30
0.0
  3
*D42
  1

  0
LINE
  5
41A
330
419
100
AcDbEntity
  8
0
 62
   123
100
AcDbLine
 10
128.5429451516283
 20
218.0976976438642
 30
0.0
 11
143.6402776458104
 21
218.0976976438642
 31
0.0
  0
LINE
  5
41B
330
419
100
AcDbEntity
  8
0
 62
   123
100
AcDbLine
 10
126.5429451516283
 20
220.5976976438642
 30
0.0
 11
143.6402776458104
 21
220.5976976438642
 31
0.0
  0
LINE
  5
41C
330
419
100
AcDbEntity
  8
0
 62
   123
100
AcDbLine
 10
143.0402776458104
 20
215.5976976438641
 30
0.0
 11
143.0402776458104
 21
213.0976976438641
 31
0.0
  0
LINE
  5
41D
330
419
100
AcDbEntity
  8
0
 62
   123
100
AcDbLine
 10
143.0402776458104
 20
223.0976976438642
 30
0.0
 11
143.0402776458104
 21
244.5119833581495
 31
0.0
  0
LINE
  5
41E
330
419
100
AcDbEntity
  8
0
 62
   123
100
AcDbLine
 10
143.0402776458104
 20
218.0976976438642
 30
0.0
 11
143.0402776458104
 21
220.5976976438642
 31
0.0
  0
SOLID
  5
41F
330
419
100
AcDbEntity
  8
0
 62
   123
100
AcDbTrace
 10
142.6236109791438
 20
215.5976976438641
 30
0.0
 11
143.4569443124771
 21
215.5976976438641
 31
0.0
 12
143.0402776458104
 22
218.0976976438642
 32
0.0
 13
143.0402776458104
 23
218.0976976438642
 33
0.0
  0
SOLID
  5
420
330
419
100
AcDbEntity
  8
0
 62
   123
100
AcDbTrace
 10
142.6236109791438
 20
223.0976976438642
 30
0.0
 11
143.4569443124771
 21
223.0976976438642
 31
0.0
 12
143.0402776458104
 22
220.5976976438642
 32
0.0
 13
143.0402776458104
 23
220.5976976438642
 33
0.0
  0
MTEXT
  5
421
330
419
100
AcDbEntity
  8
0
 62
     3
100
AcDbMText
 10
139.5902776458104
 20
236.8048405010067
 30
0.0
 40
3.0
 41
0.0
 71
     5
 72
     1
  1
\A1;\A1;2.5{\f??|b0|i0|c0|p49;\H0.7x;\S+0.1^ -0;\H1.429x; }
 11
0.0000000000000001
 21
1.0
 31
0.0
1001
ACAD
1000
MTEXTBEGIN
1070
    73
1070
     1
1070
    44
1040
1.0
1070
    74
1070
     0
1000
MTEXTEND
  0
POINT
  5
422
330
419
100
AcDbEntity
  8
DEFPOINTS
 62
     0
100
AcDbPoint
 10
127.5429451516283
 20
218.0976976438642
 30
0.0
  0
POINT
  5
423
330
419
100
AcDbEntity
  8
DEFPOINTS
 62
     0
100
AcDbPoint
 10
125.5429451516283
 20
220.5976976438642
 30
0.0
  0
POINT
  5
424
330
419
100
AcDbEntity
  8
DEFPOINTS
 62
     0
100
AcDbPoint
 10
143.0402776458104
 20
220.5976976438642
 30
0.0
  0
ENDBLK
  5
426
330
419
100
AcDbEntity
  8
0
100
AcDbBlockEnd
  0
BLOCK
  5
431
330
427
100
AcDbEntity
  8
0
100
AcDbBlockBegin
  2
*D43
 70
     1
 10
0.0
 20
0.0
 30
0.0
  3
*D43
  1

  0
LINE
  5
428
330
427
100
AcDbEntity
  8
0
 62
   123
100
AcDbLine
 10
10.44269576382794
 20
140.4574160975248
 30
0.0
 11
10.44269576382794
 21
155.7618711439214
 31
0.0
  0
LINE
  5
429
330
427
100
AcDbEntity
  8
0
 62
   123
100
AcDbLine
 10
100.4426957638279
 20
140.4574160975248
 30
0.0
 11
100.4426957638279
 21
155.7618711439214
 31
0.0
  0
LINE
  5
42A
330
427
100
AcDbEntity
  8
0
 62
   123
100
AcDbLine
 10
13.44269576382794
 20
155.1618711439214
 30
0.0
 11
97.44269576382794
 21
155.1618711439214
 31
0.0
  0
SOLID
  5
42B
330
427
100
AcDbEntity
  8
0
 62
   123
100
AcDbTrace
 10
13.44269576382794
 20
155.6618711439214
 30
0.0
 11
13.44269576382794
 21
154.6618711439214
 31
0.0
 12
10.44269576382794
 22
155.1618711439214
 32
0.0
 13
10.44269576382794
 23
155.1618711439214
 33
0.0
  0
SOLID
  5
42C
330
427
100
AcDbEntity
  8
0
 62
   123
100
AcDbTrace
 10
97.44269576382794
 20
155.6618711439214
 30
0.0
 11
97.44269576382794
 21
154.6618711439214
 31
0.0
 12
100.4426957638279
 22
155.1618711439214
 32
0.0
 13
100.4426957638279
 23
155.1618711439214
 33
0.0
  0
MTEXT
  5
42D
330
427
100
AcDbEntity
  8
0
 62
     3
100
AcDbMText
 10
56.40505864974329
 20
157.9118711439214
 30
0.0
 40
3.5
 41
0.0
 71
     5
 72
     1
  1
\A1;90
1001
ACAD
1000
MTEXTBEGIN
1070
    73
1070
     1
1070
    44
1040
1.0
1070
    74
1070
     0
1000
MTEXTEND
  0
POINT
  5
42E
330
427
100
AcDbEntity
  8
DEFPOINTS
 62
     0
100
AcDbPoint
 10
10.44269576382794
 20
139.4574160975248
 30
0.0
  0
POINT
  5
42F
330
427
100
AcDbEntity
  8
DEFPOINTS
 62
     0
100
AcDbPoint
 10
100.4426957638279
 20
139.4574160975248
 30
0.0
  0
POINT
  5
430
330
427
100
AcDbEntity
  8
DEFPOINTS
 62
     0
100
AcDbPoint
 10
100.4426957638279
 20
155.1618711439214
 30
0.0
  0
ENDBLK
  5
432
330
427
100
AcDbEntity
  8
0
100
AcDbBlockEnd
  0
BLOCK
  5
43D
330
433
100
AcDbEntity
  8
0
100
AcDbBlockBegin
  2
*D44
 70
     1
 10
0.0
 20
0.0
 30
0.0
  3
*D44
  1

  0
LINE
  5
434
330
433
100
AcDbEntity
  8
0
 62
   123
100
AcDbLine
 10
195.1332317596989
 20
135.4574160975248
 30
0.0
 11
127.0144244985862
 21
135.4574160975248
 31
0.0
  0
LINE
  5
435
330
433
100
AcDbEntity
  8
0
 62
   123
100
AcDbLine
 10
181.5503533550035
 20
99.45741609752486
 30
0.0
 11
127.0144244985862
 21
99.45741609752488
 31
0.0
  0
LINE
  5
436
330
433
100
AcDbEntity
  8
0
 62
   123
100
AcDbLine
 10
127.6144244985862
 20
132.4574160975248
 30
0.0
 11
127.6144244985862
 21
102.4574160975248
 31
0.0
  0
SOLID
  5
437
330
433
100
AcDbEntity
  8
0
 62
   123
100
AcDbTrace
 10
127.1144244985862
 20
132.4574160975248
 30
0.0
 11
128.1144244985862
 21
132.4574160975248
 31
0.0
 12
127.6144244985862
 22
135.4574160975248
 32
0.0
 13
127.6144244985862
 23
135.4574160975248
 33
0.0
  0
SOLID
  5
438
330
433
100
AcDbEntity
  8
0
 62
   123
100
AcDbTrace
 10
127.1144244985862
 20
102.4574160975248
 30
0.0
 11
128.1144244985862
 21
102.4574160975248
 31
0.0
 12
127.6144244985862
 22
99.45741609752488
 32
0.0
 13
127.6144244985862
 23
99.45741609752488
 33
0.0
  0
MTEXT
  5
439
330
433
100
AcDbEntity
  8
0
 62
     3
100
AcDbMText
 10
124.8644244985862
 20
117.2074160975244
 30
0.0
 40
3.5
 41
0.0
 71
     5
 72
     1
  1
\A1;{\f??|b0|i0|c0|p49;%%C}36
 11
0.0000000000000001
 21
1.0
 31
0.0
1001
ACAD
1000
MTEXTBEGIN
1070
    73
1070
     1
1070
    44
1040
1.0
1070
    74
1070
     0
1000
MTEXTEND
  0
POINT
  5
43A
330
433
100
AcDbEntity
  8
DEFPOINTS
 62
     0
100
AcDbPoint
 10
196.1332317596989
 20
135.4574160975248
 30
0.0
  0
POINT
  5
43B
330
433
100
AcDbEntity
  8
DEFPOINTS
 62
     0
100
AcDbPoint
 10
182.5503533550035
 20
99.45741609752486
 30
0.0
  0
POINT
  5
43C
330
433
100
AcDbEntity
  8
DEFPOINTS
 62
     0
100
AcDbPoint
 10
127.6144244985862
 20
99.45741609752488
 30
0.0
  0
ENDBLK
  5
43E
330
433
100
AcDbEntity
  8
0
100
AcDbBlockEnd
  0
BLOCK
  5
449
330
43F
100
AcDbEntity
  8
0
100
AcDbBlockBegin
  2
*D45
 70
     1
 10
0.0
 20
0.0
 30
0.0
  3
*D45
  1

  0
LINE
  5
440
330
43F
100
AcDbEntity
  8
0
 62
   123
100
AcDbLine
 10
166.6332317597007
 20
124.4574160975248
 30
0.0
 11
166.6332317597007
 21
171.4801862016739
 31
0.0
  0
LINE
  5
441
330
43F
100
AcDbEntity
  8
0
 62
   123
100
AcDbLine
 10
198.6332317597007
 20
145.5623800519765
 30
0.0
 11
198.6332317597007
 21
171.4801862016739
 31
0.0
  0
LINE
  5
442
330
43F
100
AcDbEntity
  8
0
 62
   123
100
AcDbLine
 10
169.6332317597007
 20
170.8801862016739
 30
0.0
 11
195.6332317597007
 21
170.8801862016739
 31
0.0
  0
SOLID
  5
443
330
43F
100
AcDbEntity
  8
0
 62
   123
100
AcDbTrace
 10
169.6332317597007
 20
171.3801862016739
 30
0.0
 11
169.6332317597007
 21
170.3801862016739
 31
0.0
 12
166.6332317597007
 22
170.8801862016739
 32
0.0
 13
166.6332317597007
 23
170.8801862016739
 33
0.0
  0
SOLID
  5
444
330
43F
100
AcDbEntity
  8
0
 62
   123
100
AcDbTrace
 10
195.6332317597007
 20
171.3801862016739
 30
0.0
 11
195.6332317597007
 21
170.3801862016739
 31
0.0
 12
198.6332317597007
 22
170.8801862016739
 32
0.0
 13
198.6332317597007
 23
170.8801862016739
 33
0.0
  0
MTEXT
  5
445
330
43F
100
AcDbEntity
  8
0
 62
     3
100
AcDbMText
 10
182.6332317597007
 20
173.6301862016739
 30
0.0
 40
3.5
 41
0.0
 71
     5
 72
     1
  1
\A1;32
1001
ACAD
1000
MTEXTBEGIN
1070
    73
1070
     1
1070
    44
1040
1.0
1070
    74
1070
     0
1000
MTEXTEND
  0
POINT
  5
446
330
43F
100
AcDbEntity
  8
DEFPOINTS
 62
     0
100
AcDbPoint
 10
166.6332317597007
 20
123.4574160975248
 30
0.0
  0
POINT
  5
447
330
43F
100
AcDbEntity
  8
DEFPOINTS
 62
     0
100
AcDbPoint
 10
198.6332317597007
 20
144.5623800519765
 30
0.0
  0
POINT
  5
448
330
43F
100
AcDbEntity
  8
DEFPOINTS
 62
     0
100
AcDbPoint
 10
198.6332317597007
 20
170.8801862016739
 30
0.0
  0
ENDBLK
  5
44A
330
43F
100
AcDbEntity
  8
0
100
AcDbBlockEnd
  0
BLOCK
  5
455
330
44B
100
AcDbEntity
  8
0
100
AcDbBlockBegin
  2
*D46
 70
     1
 10
0.0
 20
0.0
 30
0.0
  3
*D46
  1

  0
LINE
  5
44C
330
44B
100
AcDbEntity
  8
0
 62
   123
100
AcDbLine
 10
238.6332317597025
 20
145.4574160975244
 30
0.0
 11
238.6332317597025
 21
171.4801862016739
 31
0.0
  0
LINE
  5
44D
330
44B
100
AcDbEntity
  8
0
 62
   123
100
AcDbLine
 10
198.6332317597007
 20
144.9574160975248
 30
0.0
 11
198.6332317597007
 21
171.4801862016739
 31
0.0
  0
LINE
  5
44E
330
44B
100
AcDbEntity
  8
0
 62
   123
100
AcDbLine
 10
235.6332317597025
 20
170.8801862016739
 30
0.0
 11
201.6332317597007
 21
170.8801862016739
 31
0.0
  0
SOLID
  5
44F
330
44B
100
AcDbEntity
  8
0
 62
   123
100
AcDbTrace
 10
235.6332317597025
 20
171.3801862016739
 30
0.0
 11
235.6332317597025
 21
170.3801862016739
 31
0.0
 12
238.6332317597025
 22
170.8801862016739
 32
0.0
 13
238.6332317597025
 23
170.8801862016739
 33
0.0
  0
SOLID
  5
450
330
44B
100
AcDbEntity
  8
0
 62
   123
100
AcDbTrace
 10
201.6332317597007
 20
171.3801862016739
 30
0.0
 11
201.6332317597007
 21
170.3801862016739
 31
0.0
 12
198.6332317597007
 22
170.8801862016739
 32
0.0
 13
198.6332317597007
 23
170.8801862016739
 33
0.0
  0
MTEXT
  5
451
330
44B
100
AcDbEntity
  8
0
 62
     3
100
AcDbMText
 10
218.6332317597007
 20
173.6301862016739
 30
0.0
 40
3.5
 41
0.0
 71
     5
 72
     1
  1
\A1;L
1001
ACAD
1000
MTEXTBEGIN
1070
    73
1070
     1
1070
    44
1040
1.0
1070
    74
1070
     0
1000
MTEXTEND
  0
POINT
  5
452
330
44B
100
AcDbEntity
  8
DEFPOINTS
 62
     0
100
AcDbPoint
 10
238.6332317597025
 20
144.4574160975244
 30
0.0
  0
POINT
  5
453
330
44B
100
AcDbEntity
  8
DEFPOINTS
 62
     0
100
AcDbPoint
 10
198.6332317597007
 20
143.9574160975248
 30
0.0
  0
POINT
  5
454
330
44B
100
AcDbEntity
  8
DEFPOINTS
 62
     0
100
AcDbPoint
 10
198.6332317597007
 20
170.8801862016739
 30
0.0
  0
ENDBLK
  5
456
330
44B
100
AcDbEntity
  8
0
100
AcDbBlockEnd
  0
BLOCK
  5
463
330
457
100
AcDbEntity
  8
0
100
AcDbBlockBegin
  2
*D47
 70
     1
 10
0.0
 20
0.0
 30
0.0
  3
*D47
  1

  0
LINE
  5
458
330
457
100
AcDbEntity
  8
0
 62
   123
100
AcDbLine
 10
198.6332317597007
 20
144.9574160975248
 30
0.0
 11
198.6332317597007
 21
159.0688011495986
 31
0.0
  0
LINE
  5
459
330
457
100
AcDbEntity
  8
0
 62
   123
100
AcDbLine
 10
195.6332317597007
 20
135.603862706931
 30
0.0
 11
195.6332317597007
 21
159.0688011495986
 31
0.0
  0
LINE
  5
45A
330
457
100
AcDbEntity
  8
0
 62
   123
100
AcDbLine
 10
201.6332317597007
 20
158.4688011495986
 30
0.0
 11
204.6332317597007
 21
158.4688011495986
 31
0.0
  0
LINE
  5
45B
330
457
100
AcDbEntity
  8
0
 62
   123
100
AcDbLine
 10
192.6332317597007
 20
158.4688011495986
 30
0.0
 11
189.6332317597007
 21
158.4688011495986
 31
0.0
  0
LINE
  5
45C
330
457
100
AcDbEntity
  8
0
 62
   123
100
AcDbLine
 10
198.6332317597007
 20
158.4688011495986
 30
0.0
 11
195.6332317597007
 21
158.4688011495986
 31
0.0
  0
SOLID
  5
45D
330
457
100
AcDbEntity
  8
0
 62
   123
100
AcDbTrace
 10
201.6332317597007
 20
158.9688011495986
 30
0.0
 11
201.6332317597007
 21
157.9688011495986
 31
0.0
 12
198.6332317597007
 22
158.4688011495986
 32
0.0
 13
198.6332317597007
 23
158.4688011495986
 33
0.0
  0
SOLID
  5
45E
330
457
100
AcDbEntity
  8
0
 62
   123
100
AcDbTrace
 10
192.6332317597007
 20
158.9688011495986
 30
0.0
 11
192.6332317597007
 21
157.9688011495986
 31
0.0
 12
195.6332317597007
 22
158.4688011495986
 32
0.0
 13
195.6332317597007
 23
158.4688011495986
 33
0.0
  0
MTEXT
  5
45F
330
457
100
AcDbEntity
  8
0
 62
     3
100
AcDbMText
 10
197.1332317597007
 20
161.2188011495986
 30
0.0
 40
3.5
 41
0.0
 71
     5
 72
     1
  1
\A1;3
1001
ACAD
1000
MTEXTBEGIN
1070
    73
1070
     1
1070
    44
1040
1.0
1070
    74
1070
     0
1000
MTEXTEND
  0
POINT
  5
460
330
457
100
AcDbEntity
  8
DEFPOINTS
 62
     0
100
AcDbPoint
 10
198.6332317597007
 20
143.9574160975248
 30
0.0
  0
POINT
  5
461
330
457
100
AcDbEntity
  8
DEFPOINTS
 62
     0
100
AcDbPoint
 10
195.6332317597007
 20
134.603862706931
 30
0.0
  0
POINT
  5
462
330
457
100
AcDbEntity
  8
DEFPOINTS
 62
     0
100
AcDbPoint
 10
195.6332317597007
 20
158.4688011495986
 30
0.0
  0
ENDBLK
  5
464
330
457
100
AcDbEntity
  8
0
100
AcDbBlockEnd
  0
BLOCK
  5
46F
330
465
100
AcDbEntity
  8
0
100
AcDbBlockBegin
  2
*D48
 70
     1
 10
0.0
 20
0.0
 30
0.0
  3
*D48
  1

  0
LINE
  5
466
330
465
100
AcDbEntity
  8
0
 62
   123
100
AcDbLine
 10
191.6332317596989
 20
124.4574160975248
 30
0.0
 11
191.6332317596989
 21
140.9332359600799
 31
0.0
  0
LINE
  5
467
330
465
100
AcDbEntity
  8
0
 62
   123
100
AcDbLine
 10
166.6332317597007
 20
123.4574160975248
 30
0.0
 11
166.6332317597007
 21
140.9332359600799
 31
0.0
  0
LINE
  5
468
330
465
100
AcDbEntity
  8
0
 62
   123
100
AcDbLine
 10
188.6332317596989
 20
140.3332359600799
 30
0.0
 11
169.6332317597007
 21
140.3332359600799
 31
0.0
  0
SOLID
  5
469
330
465
100
AcDbEntity
  8
0
 62
   123
100
AcDbTrace
 10
188.6332317596989
 20
140.8332359600799
 30
0.0
 11
188.6332317596989
 21
139.8332359600799
 31
0.0
 12
191.6332317596989
 22
140.3332359600799
 32
0.0
 13
191.6332317596989
 23
140.3332359600799
 33
0.0
  0
SOLID
  5
46A
330
465
100
AcDbEntity
  8
0
 62
   123
100
AcDbTrace
 10
169.6332317597007
 20
140.8332359600799
 30
0.0
 11
169.6332317597007
 21
139.8332359600799
 31
0.0
 12
166.6332317597007
 22
140.3332359600799
 32
0.0
 13
166.6332317597007
 23
140.3332359600799
 33
0.0
  0
MTEXT
  5
46B
330
465
100
AcDbEntity
  8
0
 62
     3
100
AcDbMText
 10
179.1332317597007
 20
143.0832359600799
 30
0.0
 40
3.5
 41
0.0
 71
     5
 72
     1
  1
\A1;25
1001
ACAD
1000
MTEXTBEGIN
1070
    73
1070
     1
1070
    44
1040
1.0
1070
    74
1070
     0
1000
MTEXTEND
  0
POINT
  5
46C
330
465
100
AcDbEntity
  8
DEFPOINTS
 62
     0
100
AcDbPoint
 10
191.6332317596989
 20
123.4574160975248
 30
0.0
  0
POINT
  5
46D
330
465
100
AcDbEntity
  8
DEFPOINTS
 62
     0
100
AcDbPoint
 10
166.6332317597007
 20
122.4574160975248
 30
0.0
  0
POINT
  5
46E
330
465
100
AcDbEntity
  8
DEFPOINTS
 62
     0
100
AcDbPoint
 10
166.6332317597007
 20
140.3332359600799
 30
0.0
  0
ENDBLK
  5
470
330
465
100
AcDbEntity
  8
0
100
AcDbBlockEnd
  0
BLOCK
  5
47B
330
471
100
AcDbEntity
  8
0
100
AcDbBlockBegin
  2
*D49
 70
     1
 10
0.0
 20
0.0
 30
0.0
  3
*D49
  1

  0
LINE
  5
472
330
471
100
AcDbEntity
  8
0
 62
   123
100
AcDbLine
 10
161.7350929584754
 20
117.4574160975248
 30
0.0
 11
139.9199915620924
 21
117.4574160975248
 31
0.0
  0
LINE
  5
473
330
471
100
AcDbEntity
  8
0
 62
   123
100
AcDbLine
 10
180.5503533550036
 20
99.45741609752486
 30
0.0
 11
139.9199915620924
 21
99.45741609752488
 31
0.0
  0
LINE
  5
474
330
471
100
AcDbEntity
  8
0
 62
   123
100
AcDbLine
 10
140.5199915620924
 20
114.4574160975248
 30
0.0
 11
140.5199915620924
 21
102.4574160975248
 31
0.0
  0
SOLID
  5
475
330
471
100
AcDbEntity
  8
0
 62
   123
100
AcDbTrace
 10
140.0199915620923
 20
114.4574160975248
 30
0.0
 11
141.0199915620923
 21
114.4574160975248
 31
0.0
 12
140.5199915620924
 22
117.4574160975248
 32
0.0
 13
140.5199915620924
 23
117.4574160975248
 33
0.0
  0
SOLID
  5
476
330
471
100
AcDbEntity
  8
0
 62
   123
100
AcDbTrace
 10
140.0199915620923
 20
102.4574160975248
 30
0.0
 11
141.0199915620923
 21
102.4574160975248
 31
0.0
 12
140.5199915620924
 22
99.45741609752488
 32
0.0
 13
140.5199915620924
 23
99.45741609752488
 33
0.0
  0
MTEXT
  5
477
330
471
100
AcDbEntity
  8
0
 62
     3
100
AcDbMText
 10
137.7699915620923
 20
108.4574160975248
 30
0.0
 40
3.5
 41
0.0
 71
     5
 72
     1
  1
\A1;18
 11
0.0000000000000001
 21
1.0
 31
0.0
1001
ACAD
1000
MTEXTBEGIN
1070
    73
1070
     1
1070
    44
1040
1.0
1070
    74
1070
     0
1000
MTEXTEND
  0
POINT
  5
478
330
471
100
AcDbEntity
  8
DEFPOINTS
 62
     0
100
AcDbPoint
 10
162.7350929584754
 20
117.4574160975248
 30
0.0
  0
POINT
  5
479
330
471
100
AcDbEntity
  8
DEFPOINTS
 62
     0
100
AcDbPoint
 10
181.5503533550035
 20
99.45741609752486
 30
0.0
  0
POINT
  5
47A
330
471
100
AcDbEntity
  8
DEFPOINTS
 62
     0
100
AcDbPoint
 10
140.5199915620924
 20
99.45741609752488
 30
0.0
  0
ENDBLK
  5
47C
330
471
100
AcDbEntity
  8
0
100
AcDbBlockEnd
  0
BLOCK
  5
489
330
47D
100
AcDbEntity
  8
0
100
AcDbBlockBegin
  2
*D50
 70
     1
 10
0.0
 20
0.0
 30
0.0
  3
*D50
  1

  0
LINE
  5
47E
330
47D
100
AcDbEntity
  8
0
 62
   123
100
AcDbLine
 10
165.6332317597007
 20
111.4574160975243
 30
0.0
 11
151.4648709290253
 21
111.4574160975244
 31
0.0
  0
LINE
  5
47F
330
47D
100
AcDbEntity
  8
0
 62
   123
100
AcDbLine
 10
165.6332317597007
 20
123.4574160975248
 30
0.0
 11
151.4648709290253
 21
123.4574160975248
 31
0.0
  0
LINE
  5
480
330
47D
100
AcDbEntity
  8
0
 62
   123
100
AcDbLine
 10
152.0648709290253
 20
108.4574160975244
 30
0.0
 11
152.0648709290253
 21
105.4574160975244
 31
0.0
  0
LINE
  5
481
330
47D
100
AcDbEntity
  8
0
 62
   123
100
AcDbLine
 10
152.0648709290253
 20
126.4574160975248
 30
0.0
 11
152.0648709290253
 21
168.49301636999
 31
0.0
  0
LINE
  5
482
330
47D
100
AcDbEntity
  8
0
 62
   123
100
AcDbLine
 10
152.0648709290253
 20
111.4574160975244
 30
0.0
 11
152.0648709290253
 21
123.4574160975248
 31
0.0
  0
SOLID
  5
483
330
47D
100
AcDbEntity
  8
0
 62
   123
100
AcDbTrace
 10
151.5648709290253
 20
108.4574160975244
 30
0.0
 11
152.5648709290253
 21
108.4574160975244
 31
0.0
 12
152.0648709290253
 22
111.4574160975244
 32
0.0
 13
152.0648709290253
 23
111.4574160975244
 33
0.0
  0
SOLID
  5
484
330
47D
100
AcDbEntity
  8
0
 62
   123
100
AcDbTrace
 10
151.5648709290253
 20
126.4574160975248
 30
0.0
 11
152.5648709290253
 21
126.4574160975248
 31
0.0
 12
152.0648709290253
 22
123.4574160975248
 32
0.0
 13
152.0648709290253
 23
123.4574160975248
 33
0.0
  0
MTEXT
  5
485
330
47D
100
AcDbEntity
  8
0
 62
     3
100
AcDbMText
 10
147.6230292623586
 20
151.3748497033234
 30
0.0
 40
3.5
 41
0.0
 71
     5
 72
     1
  1
\A1;\A1;{\f??|b0|i0|c0|p49;%%C12\H0.7x;\S+0^ -0.018;\H1.429x;(h7)}
 11
0.0000000000000001
 21
1.0
 31
0.0
1001
ACAD
1000
MTEXTBEGIN
1070
    73
1070
     1
1070
    44
1040
1.0
1070
    74
1070
     0
1000
MTEXTEND
  0
POINT
  5
486
330
47D
100
AcDbEntity
  8
DEFPOINTS
 62
     0
100
AcDbPoint
 10
166.6332317597007
 20
111.4574160975243
 30
0.0
  0
POINT
  5
487
330
47D
100
AcDbEntity
  8
DEFPOINTS
 62
     0
100
AcDbPoint
 10
166.6332317597007
 20
123.4574160975248
 30
0.0
  0
POINT
  5
488
330
47D
100
AcDbEntity
  8
DEFPOINTS
 62
     0
100
AcDbPoint
 10
152.0648709290253
 20
123.4574160975248
 30
0.0
  0
ENDBLK
  5
48A
330
47D
100
AcDbEntity
  8
0
100
AcDbBlockEnd
  0
BLOCK
  5
495
330
48B
100
AcDbEntity
  8
0
100
AcDbBlockBegin
  2
*D51
 70
     1
 10
0.0
 20
0.0
 30
0.0
  3
*D51
  1

  0
LINE
  5
48C
330
48B
100
AcDbEntity
  8
0
 62
   123
100
AcDbLine
 10
235.2360906001558
 20
509.5978156753189
 30
0.0
 11
210.1197222575124
 21
509.5978156753189
 31
0.0
  0
LINE
  5
48D
330
48B
100
AcDbEntity
  8
0
 62
   123
100
AcDbLine
 10
235.2360906001558
 20
426.597815675319
 30
0.0
 11
210.1197222575124
 21
426.597815675319
 31
0.0
  0
LINE
  5
48E
330
48B
100
AcDbEntity
  8
0
 62
   123
100
AcDbLine
 10
210.7197222575124
 20
507.097815675319
 30
0.0
 11
210.7197222575123
 21
429.0978156753189
 31
0.0
  0
SOLID
  5
48F
330
48B
100
AcDbEntity
  8
0
 62
   123
100
AcDbTrace
 10
210.3030555908457
 20
507.097815675319
 30
0.0
 11
211.136388924179
 21
507.097815675319
 31
0.0
 12
210.7197222575124
 22
509.5978156753189
 32
0.0
 13
210.7197222575124
 23
509.5978156753189
 33
0.0
  0
SOLID
  5
490
330
48B
100
AcDbEntity
  8
0
 62
   123
100
AcDbTrace
 10
210.3030555908457
 20
429.0978156753189
 30
0.0
 11
211.136388924179
 21
429.0978156753189
 31
0.0
 12
210.7197222575123
 22
426.597815675319
 32
0.0
 13
210.7197222575123
 23
426.597815675319
 33
0.0
  0
MTEXT
  5
491
330
48B
100
AcDbEntity
  8
0
 62
     3
100
AcDbMText
 10
206.7695722575123
 20
467.3564074944961
 30
0.0
 40
3.0
 41
0.0
 71
     5
 72
     1
  1
\A1;\A1;{\f??|b0|i0|c0|p49;%%c}83{\f??|b0|i0|c0|p49;\H0.7x;\S+0^ -0.035;\H1.429x;(h7)}
 11
0.0000000000000001
 21
1.0
 31
0.0
1001
ACAD
1000
MTEXTBEGIN
1070
    73
1070
     1
1070
    44
1040
1.0
1070
    74
1070
     0
1000
MTEXTEND
  0
POINT
  5
492
330
48B
100
AcDbEntity
  8
DEFPOINTS
 62
     0
100
AcDbPoint
 10
236.2360906001558
 20
509.5978156753189
 30
0.0
  0
POINT
  5
493
330
48B
100
AcDbEntity
  8
DEFPOINTS
 62
     0
100
AcDbPoint
 10
236.2360906001558
 20
426.597815675319
 30
0.0
  0
POINT
  5
494
330
48B
100
AcDbEntity
  8
DEFPOINTS
 62
     0
100
AcDbPoint
 10
210.7197222575123
 20
426.597815675319
 30
0.0
  0
ENDBLK
  5
496
330
48B
100
AcDbEntity
  8
0
100
AcDbBlockEnd
  0
BLOCK
  5
4A3
330
497
100
AcDbEntity
  8
0
100
AcDbBlockBegin
  2
*D52
 70
     1
 10
0.0
 20
0.0
 30
0.0
  3
*D52
  1

  0
LINE
  5
498
330
497
100
AcDbEntity
  8
0
 62
   123
100
AcDbLine
 10
250.1909227879295
 20
372.6270876335988
 30
0.0
 11
250.1909227879295
 21
380.2464010573791
 31
0.0
  0
LINE
  5
499
330
497
100
AcDbEntity
  8
0
 62
   123
100
AcDbLine
 10
247.1909227879296
 20
363.273534243006
 30
0.0
 11
247.1909227879296
 21
380.2464010573791
 31
0.0
  0
LINE
  5
49A
330
497
100
AcDbEntity
  8
0
 62
   123
100
AcDbLine
 10
252.6909227879296
 20
379.6464010573791
 30
0.0
 11
255.1909227879296
 21
379.6464010573791
 31
0.0
  0
LINE
  5
49B
330
497
100
AcDbEntity
  8
0
 62
   123
100
AcDbLine
 10
244.6909227879296
 20
379.6464010573791
 30
0.0
 11
242.1909227879296
 21
379.6464010573791
 31
0.0
  0
LINE
  5
49C
330
497
100
AcDbEntity
  8
0
 62
   123
100
AcDbLine
 10
250.1909227879295
 20
379.6464010573791
 30
0.0
 11
247.1909227879296
 21
379.6464010573791
 31
0.0
  0
SOLID
  5
49D
330
497
100
AcDbEntity
  8
0
 62
   123
100
AcDbTrace
 10
252.6909227879296
 20
380.0630677240457
 30
0.0
 11
252.6909227879296
 21
379.2297343907124
 31
0.0
 12
250.1909227879295
 22
379.6464010573791
 32
0.0
 13
250.1909227879295
 23
379.6464010573791
 33
0.0
  0
SOLID
  5
49E
330
497
100
AcDbEntity
  8
0
 62
   123
100
AcDbTrace
 10
244.6909227879296
 20
380.0630677240457
 30
0.0
 11
244.6909227879296
 21
379.2297343907124
 31
0.0
 12
247.1909227879296
 22
379.6464010573791
 32
0.0
 13
247.1909227879296
 23
379.6464010573791
 33
0.0
  0
MTEXT
  5
49F
330
497
100
AcDbEntity
  8
0
 62
     3
100
AcDbMText
 10
248.6909227879296
 20
382.1464010573791
 30
0.0
 40
3.0
 41
0.0
 71
     5
 72
     1
  1
\A1;3
1001
ACAD
1000
MTEXTBEGIN
1070
    73
1070
     1
1070
    44
1040
1.0
1070
    74
1070
     0
1000
MTEXTEND
  0
POINT
  5
4A0
330
497
100
AcDbEntity
  8
DEFPOINTS
 62
     0
100
AcDbPoint
 10
250.1909227879295
 20
371.6270876335988
 30
0.0
  0
POINT
  5
4A1
330
497
100
AcDbEntity
  8
DEFPOINTS
 62
     0
100
AcDbPoint
 10
247.1909227879296
 20
362.2735342430059
 30
0.0
  0
POINT
  5
4A2
330
497
100
AcDbEntity
  8
DEFPOINTS
 62
     0
100
AcDbPoint
 10
247.1909227879296
 20
379.6464010573791
 30
0.0
  0
ENDBLK
  5
4A4
330
497
100
AcDbEntity
  8
0
100
AcDbBlockEnd
  0
BLOCK
  5
4AF
330
4A5
100
AcDbEntity
  8
0
100
AcDbBlockBegin
  2
*D53
 70
     1
 10
0.0
 20
0.0
 30
0.0
  3
*D53
  1

  0
LINE
  5
4A6
330
4A5
100
AcDbEntity
  8
0
 62
   123
100
AcDbLine
 10
218.1909227879295
 20
336.1270876335988
 30
0.0
 11
218.1909227879295
 21
265.5215344219799
 31
0.0
  0
LINE
  5
4A7
330
4A5
100
AcDbEntity
  8
0
 62
   123
100
AcDbLine
 10
250.1909227879295
 20
281.6270876335979
 30
0.0
 11
250.1909227879295
 21
265.5215344219799
 31
0.0
  0
LINE
  5
4A8
330
4A5
100
AcDbEntity
  8
0
 62
   123
100
AcDbLine
 10
220.6909227879295
 20
266.1215344219799
 30
0.0
 11
247.6909227879295
 21
266.1215344219799
 31
0.0
  0
SOLID
  5
4A9
330
4A5
100
AcDbEntity
  8
0
 62
   123
100
AcDbTrace
 10
220.6909227879295
 20
266.5382010886466
 30
0.0
 11
220.6909227879295
 21
265.7048677553132
 31
0.0
 12
218.1909227879295
 22
266.1215344219799
 32
0.0
 13
218.1909227879295
 23
266.1215344219799
 33
0.0
  0
SOLID
  5
4AA
330
4A5
100
AcDbEntity
  8
0
 62
   123
100
AcDbTrace
 10
247.6909227879295
 20
266.5382010886466
 30
0.0
 11
247.6909227879295
 21
265.7048677553132
 31
0.0
 12
250.1909227879295
 22
266.1215344219799
 32
0.0
 13
250.1909227879295
 23
266.1215344219799
 33
0.0
  0
MTEXT
  5
4AB
330
4A5
100
AcDbEntity
  8
0
 62
     3
100
AcDbMText
 10
234.1909227879296
 20
268.6215344219799
 30
0.0
 40
3.0
 41
0.0
 71
     5
 72
     1
  1
\A1;32
1001
ACAD
1000
MTEXTBEGIN
1070
    73
1070
     1
1070
    44
1040
1.0
1070
    74
1070
     0
1000
MTEXTEND
  0
POINT
  5
4AC
330
4A5
100
AcDbEntity
  8
DEFPOINTS
 62
     0
100
AcDbPoint
 10
218.1909227879295
 20
337.1270876335988
 30
0.0
  0
POINT
  5
4AD
330
4A5
100
AcDbEntity
  8
DEFPOINTS
 62
     0
100
AcDbPoint
 10
250.1909227879295
 20
282.6270876335979
 30
0.0
  0
POINT
  5
4AE
330
4A5
100
AcDbEntity
  8
DEFPOINTS
 62
     0
100
AcDbPoint
 10
250.1909227879295
 20
266.1215344219799
 30
0.0
  0
ENDBLK
  5
4B0
330
4A5
100
AcDbEntity
  8
0
100
AcDbBlockEnd
  0
BLOCK
  5
4BB
330
4B1
100
AcDbEntity
  8
0
100
AcDbBlockBegin
  2
*D54
 70
     1
 10
0.0
 20
0.0
 30
0.0
  3
*D54
  1

  0
LINE
  5
4B2
330
4B1
100
AcDbEntity
  8
0
 62
   123
100
AcDbLine
 10
246.6909227879296
 20
363.1270876335979
 30
0.0
 11
178.5721155268151
 21
363.1270876335979
 31
0.0
  0
LINE
  5
4B3
330
4B1
100
AcDbEntity
  8
0
 62
   123
100
AcDbLine
 10
205.5832496538278
 20
327.1270876335979
 30
0.0
 11
178.5721155268151
 21
327.1270876335979
 31
0.0
  0
LINE
  5
4B4
330
4B1
100
AcDbEntity
  8
0
 62
   123
100
AcDbLine
 10
179.1721155268151
 20
360.6270876335979
 30
0.0
 11
179.1721155268151
 21
329.6270876335979
 31
0.0
  0
SOLID
  5
4B5
330
4B1
100
AcDbEntity
  8
0
 62
   123
100
AcDbTrace
 10
178.7554488601485
 20
360.6270876335979
 30
0.0
 11
179.5887821934818
 21
360.6270876335979
 31
0.0
 12
179.1721155268151
 22
363.1270876335979
 32
0.0
 13
179.1721155268151
 23
363.1270876335979
 33
0.0
  0
SOLID
  5
4B6
330
4B1
100
AcDbEntity
  8
0
 62
   123
100
AcDbTrace
 10
178.7554488601485
 20
329.6270876335979
 30
0.0
 11
179.5887821934818
 21
329.6270876335979
 31
0.0
 12
179.1721155268151
 22
327.1270876335979
 32
0.0
 13
179.1721155268151
 23
327.1270876335979
 33
0.0
  0
MTEXT
  5
4B7
330
4B1
100
AcDbEntity
  8
0
 62
     3
100
AcDbMText
 10
176.672115526815
 20
344.8770876335988
 30
0.0
 40
3.0
 41
0.0
 71
     5
 72
     1
  1
\A1;{\f??|b0|i0|c0|p49;%%C}36
 11
0.0000000000000001
 21
1.0
 31
0.0
1001
ACAD
1000
MTEXTBEGIN
1070
    73
1070
     1
1070
    44
1040
1.0
1070
    74
1070
     0
1000
MTEXTEND
  0
POINT
  5
4B8
330
4B1
100
AcDbEntity
  8
DEFPOINTS
 62
     0
100
AcDbPoint
 10
247.6909227879295
 20
363.1270876335979
 30
0.0
  0
POINT
  5
4B9
330
4B1
100
AcDbEntity
  8
DEFPOINTS
 62
     0
100
AcDbPoint
 10
206.5832496538277
 20
327.1270876335979
 30
0.0
  0
POINT
  5
4BA
330
4B1
100
AcDbEntity
  8
DEFPOINTS
 62
     0
100
AcDbPoint
 10
179.1721155268151
 20
327.1270876335979
 30
0.0
  0
ENDBLK
  5
4BC
330
4B1
100
AcDbEntity
  8
0
100
AcDbBlockEnd
  0
BLOCK
  5
4C6
330
4BD
100
AcDbEntity
  8
0
100
AcDbBlockBegin
  2
*D55
 70
     1
 10
0.0
 20
0.0
 30
0.0
  3
*D55
  1

  0
LINE
  5
54B
330
4BD
100
AcDbEntity
  8
0
 62
   123
100
AcDbLine
 10
59.90003703155991
 20
292.6511121136972
 30
0.0
 11
57.9630307885127
 21
291.0706037099245
 31
0.0
  0
LINE
  5
54C
330
4BD
100
AcDbEntity
  8
0
 62
   123
100
AcDbLine
 10
144.353509228418
 20
361.5612785181879
 30
0.0
 11
167.3697333299383
 21
380.341463531088
 31
0.0
  0
LINE
  5
54D
330
4BD
100
AcDbEntity
  8
0
 62
   123
100
AcDbLine
 10
61.83704327460711
 20
294.2316205174699
 30
0.0
 11
142.4165029853707
 21
359.9807701144152
 31
0.0
  0
SOLID
  5
54E
330
4BD
100
AcDbEntity
  8
0
 62
   123
100
AcDbTrace
 10
59.63661896426447
 20
292.9739464875384
 30
0.0
 11
60.16345509885536
 21
292.3282777398561
 31
0.0
 12
61.83704327460711
 22
294.2316205174699
 32
0.0
 13
61.83704327460711
 23
294.2316205174699
 33
0.0
  0
SOLID
  5
54F
330
4BD
100
AcDbEntity
  8
0
 62
   123
100
AcDbTrace
 10
144.0900911611225
 20
361.8841128920291
 30
0.0
 11
144.6169272957134
 21
361.2384441443467
 31
0.0
 12
142.4165029853707
 22
359.9807701144152
 32
0.0
 13
142.4165029853707
 23
359.9807701144152
 33
0.0
  0
MTEXT
  5
550
330
4BD
100
AcDbEntity
  8
0
 62
     3
100
AcDbMText
 10
156.7683101371172
 20
374.917816350851
 30
0.0
 40
3.0
 41
0.0
 71
     5
 72
     1
  1
\A1;\U+2205104%%P0.5
 11
0.7748024972188792
 21
0.6322033615090865
 31
0.0
1001
ACAD
1000
MTEXTBEGIN
1070
    73
1070
     1
1070
    44
1040
1.0
1070
    74
1070
     0
1000
MTEXTEND
  0
POINT
  5
551
330
4BD
100
AcDbEntity
  8
DEFPOINTS
 62
     0
100
AcDbPoint
 10
142.4165029853707
 20
359.9807701144152
 30
0.0
  0
POINT
  5
552
330
4BD
100
AcDbEntity
  8
DEFPOINTS
 62
     0
100
AcDbPoint
 10
61.83704327460711
 20
294.2316205174699
 30
0.0
  0
ENDBLK
  5
4C7
330
4BD
100
AcDbEntity
  8
0
100
AcDbBlockEnd
  0
BLOCK
  5
4D2
330
4C8
100
AcDbEntity
  8
0
100
AcDbBlockBegin
  2
*D56
 70
     1
 10
0.0
 20
0.0
 30
0.0
  3
*D56
  1

  0
LINE
  5
4C9
330
4C8
100
AcDbEntity
  8
0
 62
   123
100
AcDbLine
 10
213.2927839867043
 20
345.1270876335979
 30
0.0
 11
191.477682590323
 21
345.1270876335979
 31
0.0
  0
LINE
  5
4CA
330
4C8
100
AcDbEntity
  8
0
 62
   123
100
AcDbLine
 10
205.5832496538278
 20
327.1270876335979
 30
0.0
 11
191.477682590323
 21
327.1270876335979
 31
0.0
  0
LINE
  5
4CB
330
4C8
100
AcDbEntity
  8
0
 62
   123
100
AcDbLine
 10
192.077682590323
 20
342.6270876335979
 30
0.0
 11
192.077682590323
 21
329.6270876335979
 31
0.0
  0
SOLID
  5
4CC
330
4C8
100
AcDbEntity
  8
0
 62
   123
100
AcDbTrace
 10
191.6610159236564
 20
342.6270876335979
 30
0.0
 11
192.4943492569897
 21
342.6270876335979
 31
0.0
 12
192.077682590323
 22
345.1270876335979
 32
0.0
 13
192.077682590323
 23
345.1270876335979
 33
0.0
  0
SOLID
  5
4CD
330
4C8
100
AcDbEntity
  8
0
 62
   123
100
AcDbTrace
 10
191.6610159236564
 20
329.6270876335979
 30
0.0
 11
192.4943492569897
 21
329.6270876335979
 31
0.0
 12
192.077682590323
 22
327.1270876335979
 32
0.0
 13
192.077682590323
 23
327.1270876335979
 33
0.0
  0
MTEXT
  5
4CE
330
4C8
100
AcDbEntity
  8
0
 62
     3
100
AcDbMText
 10
189.577682590323
 20
336.127087633598
 30
0.0
 40
3.0
 41
0.0
 71
     5
 72
     1
  1
\A1;18
 11
0.0000000000000001
 21
1.0
 31
0.0
1001
ACAD
1000
MTEXTBEGIN
1070
    73
1070
     1
1070
    44
1040
1.0
1070
    74
1070
     0
1000
MTEXTEND
  0
POINT
  5
4CF
330
4C8
100
AcDbEntity
  8
DEFPOINTS
 62
     0
100
AcDbPoint
 10
214.2927839867043
 20
345.1270876335979
 30
0.0
  0
POINT
  5
4D0
330
4C8
100
AcDbEntity
  8
DEFPOINTS
 62
     0
100
AcDbPoint
 10
206.5832496538277
 20
327.1270876335979
 30
0.0
  0
POINT
  5
4D1
330
4C8
100
AcDbEntity
  8
DEFPOINTS
 62
     0
100
AcDbPoint
 10
192.077682590323
 20
327.1270876335979
 30
0.0
  0
ENDBLK
  5
4D3
330
4C8
100
AcDbEntity
  8
0
100
AcDbBlockEnd
  0
BLOCK
  5
4E0
330
4D4
100
AcDbEntity
  8
0
100
AcDbBlockBegin
  2
*D57
 70
     1
 10
0.0
 20
0.0
 30
0.0
  3
*D57
  1

  0
LINE
  5
4D5
330
4D4
100
AcDbEntity
  8
0
 62
   123
100
AcDbLine
 10
217.1909227879296
 20
339.1270876335988
 30
0.0
 11
203.0225619572579
 21
339.1270876335988
 31
0.0
  0
LINE
  5
4D6
330
4D4
100
AcDbEntity
  8
0
 62
   123
100
AcDbLine
 10
217.1909227879296
 20
351.1270876335979
 30
0.0
 11
203.0225619572579
 21
351.1270876335979
 31
0.0
  0
LINE
  5
4D7
330
4D4
100
AcDbEntity
  8
0
 62
   123
100
AcDbLine
 10
203.6225619572578
 20
336.6270876335988
 30
0.0
 11
203.6225619572578
 21
334.1270876335988
 31
0.0
  0
LINE
  5
4D8
330
4D4
100
AcDbEntity
  8
0
 62
   123
100
AcDbLine
 10
203.6225619572578
 20
353.6270876335979
 30
0.0
 11
203.6225619572578
 21
394.1357429708637
 31
0.0
  0
LINE
  5
4D9
330
4D4
100
AcDbEntity
  8
0
 62
   123
100
AcDbLine
 10
203.6225619572578
 20
339.1270876335988
 30
0.0
 11
203.6225619572578
 21
351.1270876335979
 31
0.0
  0
SOLID
  5
4DA
330
4D4
100
AcDbEntity
  8
0
 62
   123
100
AcDbTrace
 10
203.2058952905912
 20
336.6270876335988
 30
0.0
 11
204.0392286239245
 21
336.6270876335988
 31
0.0
 12
203.6225619572578
 22
339.1270876335988
 32
0.0
 13
203.6225619572578
 23
339.1270876335988
 33
0.0
  0
SOLID
  5
4DB
330
4D4
100
AcDbEntity
  8
0
 62
   123
100
AcDbTrace
 10
203.2058952905912
 20
353.6270876335979
 30
0.0
 11
204.0392286239245
 21
353.6270876335979
 31
0.0
 12
203.6225619572578
 22
351.1270876335979
 32
0.0
 13
203.6225619572578
 23
351.1270876335979
 33
0.0
  0
MTEXT
  5
4DC
330
4D4
100
AcDbEntity
  8
0
 62
     3
100
AcDbMText
 10
199.6724119572578
 20
379.3201715422924
 30
0.0
 40
3.0
 41
0.0
 71
     5
 72
     1
  1
\A1;\A1;{\f??|b0|i0|c0|p49;%%C12\H0.7x;\S+0^ -0.018;\H1.429x;(h7)}
 11
0.0000000000000001
 21
1.0
 31
0.0
1001
ACAD
1000
MTEXTBEGIN
1070
    73
1070
     1
1070
    44
1040
1.0
1070
    74
1070
     0
1000
MTEXTEND
  0
POINT
  5
4DD
330
4D4
100
AcDbEntity
  8
DEFPOINTS
 62
     0
100
AcDbPoint
 10
218.1909227879295
 20
339.1270876335988
 30
0.0
  0
POINT
  5
4DE
330
4D4
100
AcDbEntity
  8
DEFPOINTS
 62
     0
100
AcDbPoint
 10
218.1909227879295
 20
351.1270876335979
 30
0.0
  0
POINT
  5
4DF
330
4D4
100
AcDbEntity
  8
DEFPOINTS
 62
     0
100
AcDbPoint
 10
203.6225619572578
 20
351.1270876335979
 30
0.0
  0
ENDBLK
  5
4E1
330
4D4
100
AcDbEntity
  8
0
100
AcDbBlockEnd
  0
BLOCK
  5
4EC
330
4E2
100
AcDbEntity
  8
0
100
AcDbBlockBegin
  2
*D58
 70
     1
 10
0.0
 20
0.0
 30
0.0
  3
*D58
  1

  0
LINE
  5
4E3
330
4E2
100
AcDbEntity
  8
0
 62
   123
100
AcDbLine
 10
243.1909227879277
 20
352.1270876335979
 30
0.0
 11
243.1909227879277
 21
368.6029074961558
 31
0.0
  0
LINE
  5
4E4
330
4E2
100
AcDbEntity
  8
0
 62
   123
100
AcDbLine
 10
218.1909227879295
 20
351.1270876335988
 30
0.0
 11
218.1909227879295
 21
368.6029074961558
 31
0.0
  0
LINE
  5
4E5
330
4E2
100
AcDbEntity
  8
0
 62
   123
100
AcDbLine
 10
240.6909227879277
 20
368.0029074961558
 30
0.0
 11
220.6909227879295
 21
368.0029074961558
 31
0.0
  0
SOLID
  5
4E6
330
4E2
100
AcDbEntity
  8
0
 62
   123
100
AcDbTrace
 10
240.6909227879277
 20
368.4195741628224
 30
0.0
 11
240.6909227879277
 21
367.5862408294891
 31
0.0
 12
243.1909227879277
 22
368.0029074961558
 32
0.0
 13
243.1909227879277
 23
368.0029074961558
 33
0.0
  0
SOLID
  5
4E7
330
4E2
100
AcDbEntity
  8
0
 62
   123
100
AcDbTrace
 10
220.6909227879295
 20
368.4195741628224
 30
0.0
 11
220.6909227879295
 21
367.5862408294891
 31
0.0
 12
218.1909227879295
 22
368.0029074961558
 32
0.0
 13
218.1909227879295
 23
368.0029074961558
 33
0.0
  0
MTEXT
  5
4E8
330
4E2
100
AcDbEntity
  8
0
 62
     3
100
AcDbMText
 10
230.6909227879295
 20
370.5029074961557
 30
0.0
 40
3.0
 41
0.0
 71
     5
 72
     1
  1
\A1;25
1001
ACAD
1000
MTEXTBEGIN
1070
    73
1070
     1
1070
    44
1040
1.0
1070
    74
1070
     0
1000
MTEXTEND
  0
POINT
  5
4E9
330
4E2
100
AcDbEntity
  8
DEFPOINTS
 62
     0
100
AcDbPoint
 10
243.1909227879277
 20
351.1270876335979
 30
0.0
  0
POINT
  5
4EA
330
4E2
100
AcDbEntity
  8
DEFPOINTS
 62
     0
100
AcDbPoint
 10
218.1909227879295
 20
350.1270876335988
 30
0.0
  0
POINT
  5
4EB
330
4E2
100
AcDbEntity
  8
DEFPOINTS
 62
     0
100
AcDbPoint
 10
218.1909227879295
 20
368.0029074961558
 30
0.0
  0
ENDBLK
  5
4ED
330
4E2
100
AcDbEntity
  8
0
100
AcDbBlockEnd
  0
BLOCK
  5
4F8
330
4EE
100
AcDbEntity
  8
0
100
AcDbBlockBegin
  2
*D59
 70
     1
 10
0.0
 20
0.0
 30
0.0
  3
*D59
  1

  0
LINE
  5
4EF
330
4EE
100
AcDbEntity
  8
0
 62
   123
100
AcDbLine
 10
57.1267731299904
 20
368.0628969954032
 30
0.0
 11
57.1267731299904
 21
385.1847176613042
 31
0.0
  0
LINE
  5
4F0
330
4EE
100
AcDbEntity
  8
0
 62
   123
100
AcDbLine
 10
147.1267731299867
 20
368.0628969954032
 30
0.0
 11
147.1267731299867
 21
385.1847176613042
 31
0.0
  0
LINE
  5
4F1
330
4EE
100
AcDbEntity
  8
0
 62
   123
100
AcDbLine
 10
59.6267731299904
 20
384.5847176613042
 30
0.0
 11
144.6267731299867
 21
384.5847176613042
 31
0.0
  0
SOLID
  5
4F2
330
4EE
100
AcDbEntity
  8
0
 62
   123
100
AcDbTrace
 10
59.6267731299904
 20
385.0013843279709
 30
0.0
 11
59.6267731299904
 21
384.1680509946375
 31
0.0
 12
57.1267731299904
 22
384.5847176613042
 32
0.0
 13
57.1267731299904
 23
384.5847176613042
 33
0.0
  0
SOLID
  5
4F3
330
4EE
100
AcDbEntity
  8
0
 62
   123
100
AcDbTrace
 10
144.6267731299867
 20
385.0013843279709
 30
0.0
 11
144.6267731299867
 21
384.1680509946375
 31
0.0
 12
147.1267731299867
 22
384.5847176613042
 32
0.0
 13
147.1267731299867
 23
384.5847176613042
 33
0.0
  0
MTEXT
  5
4F4
330
4EE
100
AcDbEntity
  8
0
 62
     3
100
AcDbMText
 10
102.1267731299903
 20
387.0847176613042
 30
0.0
 40
3.0
 41
0.0
 71
     5
 72
     1
  1
\A1;90
1001
ACAD
1000
MTEXTBEGIN
1070
    73
1070
     1
1070
    44
1040
1.0
1070
    74
1070
     0
1000
MTEXTEND
  0
POINT
  5
4F5
330
4EE
100
AcDbEntity
  8
DEFPOINTS
 62
     0
100
AcDbPoint
 10
57.1267731299904
 20
367.0628969954031
 30
0.0
  0
POINT
  5
4F6
330
4EE
100
AcDbEntity
  8
DEFPOINTS
 62
     0
100
AcDbPoint
 10
147.1267731299867
 20
367.0628969954031
 30
0.0
  0
POINT
  5
4F7
330
4EE
100
AcDbEntity
  8
DEFPOINTS
 62
     0
100
AcDbPoint
 10
147.1267731299867
 20
384.5847176613042
 30
0.0
  0
ENDBLK
  5
4F9
330
4EE
100
AcDbEntity
  8
0
100
AcDbBlockEnd
  0
BLOCK
  5
504
330
4FA
100
AcDbEntity
  8
0
100
AcDbBlockBegin
  2
*D60
 70
     1
 10
0.0
 20
0.0
 30
0.0
  3
*D60
  1

  0
LINE
  5
4FB
330
4FA
100
AcDbEntity
  8
0
 62
   123
100
AcDbLine
 10
292.1909227879296
 20
281.6270876335979
 30
0.0
 11
292.1909227879296
 21
265.5215344219799
 31
0.0
  0
LINE
  5
4FC
330
4FA
100
AcDbEntity
  8
0
 62
   123
100
AcDbLine
 10
250.1909227879295
 20
281.6270876335979
 30
0.0
 11
250.1909227879295
 21
265.5215344219799
 31
0.0
  0
LINE
  5
4FD
330
4FA
100
AcDbEntity
  8
0
 62
   123
100
AcDbLine
 10
289.6909227879295
 20
266.1215344219799
 30
0.0
 11
252.6909227879296
 21
266.1215344219799
 31
0.0
  0
SOLID
  5
4FE
330
4FA
100
AcDbEntity
  8
0
 62
   123
100
AcDbTrace
 10
289.6909227879295
 20
266.5382010886466
 30
0.0
 11
289.6909227879295
 21
265.7048677553132
 31
0.0
 12
292.1909227879296
 22
266.1215344219799
 32
0.0
 13
292.1909227879296
 23
266.1215344219799
 33
0.0
  0
SOLID
  5
4FF
330
4FA
100
AcDbEntity
  8
0
 62
   123
100
AcDbTrace
 10
252.6909227879296
 20
266.5382010886466
 30
0.0
 11
252.6909227879296
 21
265.7048677553132
 31
0.0
 12
250.1909227879295
 22
266.1215344219799
 32
0.0
 13
250.1909227879295
 23
266.1215344219799
 33
0.0
  0
MTEXT
  5
500
330
4FA
100
AcDbEntity
  8
0
 62
     3
100
AcDbMText
 10
271.1909227879295
 20
268.6215344219799
 30
0.0
 40
3.0
 41
0.0
 71
     5
 72
     1
  1
\A1;L
1001
ACAD
1000
MTEXTBEGIN
1070
    73
1070
     1
1070
    44
1040
1.0
1070
    74
1070
     0
1000
MTEXTEND
  0
POINT
  5
501
330
4FA
100
AcDbEntity
  8
DEFPOINTS
 62
     0
100
AcDbPoint
 10
292.1909227879296
 20
282.6270876335979
 30
0.0
  0
POINT
  5
502
330
4FA
100
AcDbEntity
  8
DEFPOINTS
 62
     0
100
AcDbPoint
 10
250.1909227879295
 20
282.6270876335979
 30
0.0
  0
POINT
  5
503
330
4FA
100
AcDbEntity
  8
DEFPOINTS
 62
     0
100
AcDbPoint
 10
250.1909227879295
 20
266.1215344219799
 30
0.0
  0
ENDBLK
  5
505
330
4FA
100
AcDbEntity
  8
0
100
AcDbBlockEnd
  0
BLOCK
  5
510
330
506
100
AcDbEntity
  8
0
100
AcDbBlockBegin
  2
*D61
 70
     1
 10
0.0
 20
0.0
 30
0.0
  3
*D61
  1

  0
LINE
  5
507
330
506
100
AcDbEntity
  8
0
 62
   123
100
AcDbLine
 10
238.2360906001558
 20
514.097815675319
 30
0.0
 11
238.2360906001558
 21
535.749096462143
 31
0.0
  0
LINE
  5
508
330
506
100
AcDbEntity
  8
0
 62
   123
100
AcDbLine
 10
275.2360906001559
 20
514.097815675319
 30
0.0
 11
275.2360906001559
 21
535.749096462143
 31
0.0
  0
LINE
  5
509
330
506
100
AcDbEntity
  8
0
 62
   123
100
AcDbLine
 10
240.7360906001558
 20
535.1490964621429
 30
0.0
 11
272.7360906001558
 21
535.1490964621429
 31
0.0
  0
SOLID
  5
50A
330
506
100
AcDbEntity
  8
0
 62
   123
100
AcDbTrace
 10
240.7360906001558
 20
535.5657631288096
 30
0.0
 11
240.7360906001558
 21
534.7324297954763
 31
0.0
 12
238.2360906001558
 22
535.1490964621429
 32
0.0
 13
238.2360906001558
 23
535.1490964621429
 33
0.0
  0
SOLID
  5
50B
330
506
100
AcDbEntity
  8
0
 62
   123
100
AcDbTrace
 10
272.7360906001558
 20
535.5657631288096
 30
0.0
 11
272.7360906001558
 21
534.7324297954763
 31
0.0
 12
275.2360906001559
 22
535.1490964621429
 32
0.0
 13
275.2360906001559
 23
535.1490964621429
 33
0.0
  0
MTEXT
  5
50C
330
506
100
AcDbEntity
  8
0
 62
     3
100
AcDbMText
 10
256.7360906001558
 20
537.649096462143
 30
0.0
 40
3.0
 41
0.0
 71
     5
 72
     1
  1
\A1;37
1001
ACAD
1000
MTEXTBEGIN
1070
    73
1070
     1
1070
    44
1040
1.0
1070
    74
1070
     0
1000
MTEXTEND
  0
POINT
  5
50D
330
506
100
AcDbEntity
  8
DEFPOINTS
 62
     0
100
AcDbPoint
 10
238.2360906001558
 20
513.0978156753189
 30
0.0
  0
POINT
  5
50E
330
506
100
AcDbEntity
  8
DEFPOINTS
 62
     0
100
AcDbPoint
 10
275.2360906001559
 20
513.0978156753189
 30
0.0
  0
POINT
  5
50F
330
506
100
AcDbEntity
  8
DEFPOINTS
 62
     0
100
AcDbPoint
 10
275.2360906001559
 20
535.1490964621429
 30
0.0
  0
ENDBLK
  5
511
330
506
100
AcDbEntity
  8
0
100
AcDbBlockEnd
  0
BLOCK
  5
51E
330
512
100
AcDbEntity
  8
0
100
AcDbBlockBegin
  2
*D62
 70
     1
 10
0.0
 20
0.0
 30
0.0
  3
*D62
  1

  0
LINE
  5
513
330
512
100
AcDbEntity
  8
0
 62
   123
100
AcDbLine
 10
236.2360906001558
 20
510.597815675319
 30
0.0
 11
236.2360906001558
 21
525.5234560687309
 31
0.0
  0
LINE
  5
514
330
512
100
AcDbEntity
  8
0
 62
   123
100
AcDbLine
 10
238.2360906001558
 20
514.097815675319
 30
0.0
 11
238.2360906001558
 21
525.5234560687309
 31
0.0
  0
LINE
  5
515
330
512
100
AcDbEntity
  8
0
 62
   123
100
AcDbLine
 10
233.7360906001558
 20
524.9234560687309
 30
0.0
 11
231.2360906001558
 21
524.9234560687309
 31
0.0
  0
LINE
  5
516
330
512
100
AcDbEntity
  8
0
 62
   123
100
AcDbLine
 10
240.7360906001558
 20
524.9234560687309
 30
0.0
 11
249.2360906001558
 21
524.9234560687309
 31
0.0
  0
LINE
  5
517
330
512
100
AcDbEntity
  8
0
 62
   123
100
AcDbLine
 10
236.2360906001558
 20
524.9234560687309
 30
0.0
 11
238.2360906001558
 21
524.9234560687309
 31
0.0
  0
SOLID
  5
518
330
512
100
AcDbEntity
  8
0
 62
   123
100
AcDbTrace
 10
233.7360906001558
 20
525.3401227353975
 30
0.0
 11
233.7360906001558
 21
524.5067894020642
 31
0.0
 12
236.2360906001558
 22
524.9234560687309
 32
0.0
 13
236.2360906001558
 23
524.9234560687309
 33
0.0
  0
SOLID
  5
519
330
512
100
AcDbEntity
  8
0
 62
   123
100
AcDbTrace
 10
240.7360906001558
 20
525.3401227353975
 30
0.0
 11
240.7360906001558
 21
524.5067894020642
 31
0.0
 12
238.2360906001558
 22
524.9234560687309
 32
0.0
 13
238.2360906001558
 23
524.9234560687309
 33
0.0
  0
MTEXT
  5
51A
330
512
100
AcDbEntity
  8
0
 62
     3
100
AcDbMText
 10
247.2360906001558
 20
527.4234560687309
 30
0.0
 40
3.0
 41
0.0
 71
     5
 72
     1
  1
\A1;2
1001
ACAD
1000
MTEXTBEGIN
1070
    73
1070
     1
1070
    44
1040
1.0
1070
    74
1070
     0
1000
MTEXTEND
  0
POINT
  5
51B
330
512
100
AcDbEntity
  8
DEFPOINTS
 62
     0
100
AcDbPoint
 10
236.2360906001558
 20
509.5978156753189
 30
0.0
  0
POINT
  5
51C
330
512
100
AcDbEntity
  8
DEFPOINTS
 62
     0
100
AcDbPoint
 10
238.2360906001558
 20
513.0978156753189
 30
0.0
  0
POINT
  5
51D
330
512
100
AcDbEntity
  8
DEFPOINTS
 62
     0
100
AcDbPoint
 10
238.2360906001558
 20
524.9234560687309
 30
0.0
  0
ENDBLK
  5
51F
330
512
100
AcDbEntity
  8
0
100
AcDbBlockEnd
  0
BLOCK
  5
529
330
520
100
AcDbEntity
  8
0
100
AcDbBlockBegin
  2
*D63
 70
     1
 10
0.0
 20
0.0
 30
0.0
  3
*D63
  1

  0
LINE
  5
543
330
520
100
AcDbEntity
  8
0
 62
   123
100
AcDbLine
 10
76.46084983054311
 20
433.6427324731702
 30
0.0
 11
74.52384358749549
 21
432.0622240693981
 31
0.0
  0
LINE
  5
544
330
520
100
AcDbEntity
  8
0
 62
   123
100
AcDbLine
 10
160.9143220274075
 20
502.5528988776262
 30
0.0
 11
183.9305461289487
 21
521.3330838905323
 31
0.0
  0
LINE
  5
545
330
520
100
AcDbEntity
  8
0
 62
   123
100
AcDbLine
 10
78.39785607359079
 20
435.2232408769423
 30
0.0
 11
158.9773157843599
 21
500.972390473854
 31
0.0
  0
SOLID
  5
546
330
520
100
AcDbEntity
  8
0
 62
   123
100
AcDbTrace
 10
76.19743176324774
 20
433.9655668470115
 30
0.0
 11
76.7242678978385
 21
433.3198980993289
 31
0.0
 12
78.39785607359079
 22
435.2232408769423
 32
0.0
 13
78.39785607359079
 23
435.2232408769423
 33
0.0
  0
SOLID
  5
547
330
520
100
AcDbEntity
  8
0
 62
   123
100
AcDbTrace
 10
160.6509039601122
 20
502.8757332514674
 30
0.0
 11
161.177740094703
 21
502.2300645037849
 31
0.0
 12
158.9773157843599
 22
500.972390473854
 32
0.0
 13
158.9773157843599
 23
500.972390473854
 33
0.0
  0
MTEXT
  5
548
330
520
100
AcDbEntity
  8
0
 62
     3
100
AcDbMText
 10
173.3291229361261
 20
515.9094367102982
 30
0.0
 40
3.0
 41
0.0
 71
     5
 72
     1
  1
\A1;\U+2205104%%P0.5
 11
0.7748024972190583
 21
0.632203361508867
 31
0.0
1001
ACAD
1000
MTEXTBEGIN
1070
    73
1070
     1
1070
    44
1040
1.0
1070
    74
1070
     0
1000
MTEXTEND
  0
POINT
  5
549
330
520
100
AcDbEntity
  8
DEFPOINTS
 62
     0
100
AcDbPoint
 10
158.9773157843599
 20
500.972390473854
 30
0.0
  0
POINT
  5
54A
330
520
100
AcDbEntity
  8
DEFPOINTS
 62
     0
100
AcDbPoint
 10
78.39785607359079
 20
435.2232408769423
 30
0.0
  0
ENDBLK
  5
52A
330
520
100
AcDbEntity
  8
0
100
AcDbBlockEnd
  0
BLOCK
  5
535
330
52B
100
AcDbEntity
  8
0
100
AcDbBlockBegin
  2
*D64
 70
     1
 10
0.0
 20
0.0
 30
0.0
  3
*D64
  1

  0
LINE
  5
52C
330
52B
100
AcDbEntity
  8
0
 62
   123
100
AcDbLine
 10
220.2360906001558
 20
472.0978156753189
 30
0.0
 11
220.2360906001558
 21
535.749096462143
 31
0.0
  0
LINE
  5
52D
330
52B
100
AcDbEntity
  8
0
 62
   123
100
AcDbLine
 10
238.2360906001558
 20
514.097815675319
 30
0.0
 11
238.2360906001558
 21
535.749096462143
 31
0.0
  0
LINE
  5
52E
330
52B
100
AcDbEntity
  8
0
 62
   123
100
AcDbLine
 10
222.7360906001558
 20
535.1490964621429
 30
0.0
 11
235.7360906001559
 21
535.1490964621429
 31
0.0
  0
SOLID
  5
52F
330
52B
100
AcDbEntity
  8
0
 62
   123
100
AcDbTrace
 10
222.7360906001558
 20
535.5657631288096
 30
0.0
 11
222.7360906001558
 21
534.7324297954763
 31
0.0
 12
220.2360906001558
 22
535.1490964621429
 32
0.0
 13
220.2360906001558
 23
535.1490964621429
 33
0.0
  0
SOLID
  5
530
330
52B
100
AcDbEntity
  8
0
 62
   123
100
AcDbTrace
 10
235.7360906001559
 20
535.5657631288096
 30
0.0
 11
235.7360906001559
 21
534.7324297954763
 31
0.0
 12
238.2360906001558
 22
535.1490964621429
 32
0.0
 13
238.2360906001558
 23
535.1490964621429
 33
0.0
  0
MTEXT
  5
531
330
52B
100
AcDbEntity
  8
0
 62
     3
100
AcDbMText
 10
229.2360906001558
 20
537.649096462143
 30
0.0
 40
3.0
 41
0.0
 71
     5
 72
     1
  1
\A1;18
1001
ACAD
1000
MTEXTBEGIN
1070
    73
1070
     1
1070
    44
1040
1.0
1070
    74
1070
     0
1000
MTEXTEND
  0
POINT
  5
532
330
52B
100
AcDbEntity
  8
DEFPOINTS
 62
     0
100
AcDbPoint
 10
220.2360906001558
 20
471.0978156753189
 30
0.0
  0
POINT
  5
533
330
52B
100
AcDbEntity
  8
DEFPOINTS
 62
     0
100
AcDbPoint
 10
238.2360906001558
 20
513.0978156753189
 30
0.0
  0
POINT
  5
534
330
52B
100
AcDbEntity
  8
DEFPOINTS
 62
     0
100
AcDbPoint
 10
238.2360906001558
 20
535.1490964621429
 30
0.0
  0
ENDBLK
  5
536
330
52B
100
AcDbEntity
  8
0
100
AcDbBlockEnd
  0
BLOCK
  5
541
330
537
100
AcDbEntity
  8
0
100
AcDbBlockBegin
  2
*D65
 70
     1
 10
0.0
 20
0.0
 30
0.0
  3
*D65
  1

  0
LINE
  5
538
330
537
100
AcDbEntity
  8
0
 62
   123
100
AcDbLine
 10
73.68758592897211
 20
509.055021916522
 30
0.0
 11
73.68758592897211
 21
527.0234594757767
 31
0.0
  0
LINE
  5
539
330
537
100
AcDbEntity
  8
0
 62
   123
100
AcDbLine
 10
163.6875859289721
 20
509.055021916522
 30
0.0
 11
163.6875859289721
 21
527.0234594757767
 31
0.0
  0
LINE
  5
53A
330
537
100
AcDbEntity
  8
0
 62
   123
100
AcDbLine
 10
76.18758592897211
 20
526.4234594757767
 30
0.0
 11
161.1875859289721
 21
526.4234594757767
 31
0.0
  0
SOLID
  5
53B
330
537
100
AcDbEntity
  8
0
 62
   123
100
AcDbTrace
 10
76.18758592897211
 20
526.8401261424433
 30
0.0
 11
76.18758592897211
 21
526.0067928091102
 31
0.0
 12
73.68758592897211
 22
526.4234594757767
 32
0.0
 13
73.68758592897211
 23
526.4234594757767
 33
0.0
  0
SOLID
  5
53C
330
537
100
AcDbEntity
  8
0
 62
   123
100
AcDbTrace
 10
161.1875859289721
 20
526.8401261424433
 30
0.0
 11
161.1875859289721
 21
526.0067928091102
 31
0.0
 12
163.6875859289721
 22
526.4234594757767
 32
0.0
 13
163.6875859289721
 23
526.4234594757767
 33
0.0
  0
MTEXT
  5
53D
330
537
100
AcDbEntity
  8
0
 62
     3
100
AcDbMText
 10
118.6875859289721
 20
528.9234594757767
 30
0.0
 40
3.0
 41
0.0
 71
     5
 72
     1
  1
\A1;90
1001
ACAD
1000
MTEXTBEGIN
1070
    73
1070
     1
1070
    44
1040
1.0
1070
    74
1070
     0
1000
MTEXTEND
  0
POINT
  5
53E
330
537
100
AcDbEntity
  8
DEFPOINTS
 62
     0
100
AcDbPoint
 10
73.68758592897211
 20
508.055021916522
 30
0.0
  0
POINT
  5
53F
330
537
100
AcDbEntity
  8
DEFPOINTS
 62
     0
100
AcDbPoint
 10
163.6875859289721
 20
508.055021916522
 30
0.0
  0
POINT
  5
540
330
537
100
AcDbEntity
  8
DEFPOINTS
 62
     0
100
AcDbPoint
 10
163.6875859289721
 20
526.4234594757767
 30
0.0
  0
ENDBLK
  5
542
330
537
100
AcDbEntity
  8
0
100
AcDbBlockEnd
  0
ENDSEC
  0
SECTION
  2
ENTITIES
  0
LINE
  5
9D
330
2
100
AcDbEntity
  8
0
100
AcDbLine
 10
238.6332317597025
 20
144.4574160975244
 30
0.0
 11
238.6332317597025
 21
54.95741609752485
 31
0.0
  0
LINE
  5
9E
330
2
100
AcDbEntity
  8
0
100
AcDbLine
 10
238.6332317597025
 20
144.4574160975244
 30
0.0
 11
238.6332317597025
 21
54.45741609752485
 31
0.0
  0
LINE
  5
9F
330
2
100
AcDbEntity
  8
0
100
AcDbLine
 10
238.6332317597025
 20
144.4574160975248
 30
0.0
 11
238.6332317597025
 21
54.4574160975244
 31
0.0
  0
LINE
  5
A0
330
2
100
AcDbEntity
  8
0
100
AcDbLine
 10
245.2332317597029
 20
144.4574160975248
 30
0.0
 11
245.2332317597029
 21
54.4574160975244
 31
0.0
  0
LINE
  5
A1
330
2
100
AcDbEntity
  8
CL
  6
CENTER
100
AcDbLine
 10
55.44269576382794
 20
50.32069699251678
 30
0.0
 11
55.44269576382794
 21
148.5941352025311
 31
0.0
  0
LINE
  5
A5
330
2
100
AcDbEntity
  8
0
100
AcDbLine
 10
198.6332317597007
 20
143.9574160975248
 30
0.0
 11
198.6332317597007
 21
54.95741609752485
 31
0.0
  0
LINE
  5
A6
330
2
100
AcDbEntity
  8
CEN
 48
0.6
100
AcDbLine
 10
74.08230607058249
 20
54.45741609752485
 30
0.0
 11
55.44269576381157
 21
99.45741609749667
 31
0.0
  0
CIRCLE
  5
A8
330
2
100
AcDbEntity
  8
0
100
AcDbCircle
 10
55.44269576382794
 20
99.45741609752486
 30
0.0
 40
41.5
  0
INSERT
  5
A9
330
2
100
AcDbEntity
  8
0
100
AcDbBlockReference
  2
4
 10
55.44269576380066
 20
99.45741609752303
 30
0.0
  0
DIMENSION
  5
CA
330
2
100
AcDbEntity
  8
0
100
AcDbDimension
  2
*D35
 10
55.44269576382794
 20
153.0875608612773
 30
0.0
 11
68.97521375713428
 21
31.42485396175514
 31
0.0
 70
    34
  1
<>
  3
1_1_2
100
AcDb2LineAngularDimension
 13
55.44269576382794
 23
99.45741609752486
 33
0.0
 14
74.08230607058249
 24
54.45741609752485
 34
0.0
 15
55.44269576382794
 25
50.32069699251678
 35
0.0
 16
64.89915290346418
 26
27.62849288720183
 36
0.0
1001
ACAD
1000
DSTYLE
1002
{
1070
   271
1070
     1
1070
   271
1070
     1
1070
   271
1070
     1
1070
   271
1070
     1
1070
   271
1070
     1
1070
   271
1070
     1
1070
   271
1070
     1
1070
   271
1070
     1
1002
}
  0
LINE
  5
D9
330
2
100
AcDbEntity
  8
0
100
AcDbLine
 10
386.6332317597007
 20
126.8613406992849
 30
0.0
 11
386.6332317597007
 21
61.95741609752485
 31
0.0
  0
LINE
  5
DA
330
2
100
AcDbEntity
  8
0
100
AcDbLine
 10
350.4134537968129
 20
143.9574160975248
 30
0.0
 11
350.4134537968129
 21
54.9574160975244
 31
0.0
  0
DIMENSION
  5
DB
330
2
100
AcDbEntity
  8
0
100
AcDbDimension
  2
*D34
 10
400.3072422040823
 20
54.95741609752485
 30
0.0
 11
400.3072422040823
 21
99.45741609752486
 31
0.0
 70
   160
  1
%%C<>
  3
1_1_2
100
AcDbAlignedDimension
 13
380.6332317596988
 23
143.9574160975248
 33
0.0
 14
380.6332317596988
 24
54.95741609752485
 34
0.0
 50
90.0
100
AcDbRotatedDimension
  0
LINE
  5
E8
330
2
100
AcDbEntity
  8
0
 62
   123
100
AcDbLine
 10
225.0474834910692
 20
2.488013307397523
 30
0.0
 11
316.4348352906181
 21
2.488013307397523
 31
0.0
  0
LEADER
  5
E9
330
2
100
AcDbEntity
  8
0
100
AcDbLeader
  3
STANDARD
 76
     2
 10
251.8850045007711
 20
40.31596602396303
 30
0.0
 10
225.0474834910692
 20
2.488013307397523
 30
0.0
1001
ACAD
1000
DSTYLE
1002
{
1070
     5
1000

1070
   342
1005
0
1002
}
  0
MTEXT
  5
EA
330
2
100
AcDbEntity
  8
DIM
100
AcDbMText
 10
273.6361686280106
 20
6.045808219443642
 30
0.0
 40
3.5
 41
0.0
 71
     5
 72
     1
  1
MOTOR LEAD WIRE 300mm
1001
ACAD
1000
MTEXTBEGIN
1070
    73
1070
     1
1070
    44
1040
1.0
1070
    74
1070
     0
1000
MTEXTEND
  0
MTEXT
  5
EC
330
2
100
AcDbEntity
  8
DIM
100
AcDbMText
 10
270.8031567065809
 20
-1.956740757638726
 30
0.0
 40
3.5
 41
0.0
 71
     5
 72
     1
  1
UL Style 3271 , AWG20
1001
ACAD
1000
MTEXTBEGIN
1070
    73
1070
     1
1070
    44
1040
1.0
1070
    74
1070
     0
1000
MTEXTEND
  0
LINE
  5
ED
330
2
100
AcDbEntity
  8
0
100
AcDbLine
 10
255.1332317597007
 20
53.9574160975244
 30
0.0
 11
246.1332317597007
 21
53.9574160975244
 31
0.0
  0
ARC
  5
EE
330
2
100
AcDbEntity
  8
0
100
AcDbCircle
 10
286.935953759701
 20
53.86877009752424
 30
0.0
 40
39.15579199999999
100
AcDbArc
 50
179.8702869999971
 51
212.7486590000019
  0
LINE
  5
EF
330
2
100
AcDbEntity
  8
0
100
AcDbLine
 10
379.6332317597025
 20
54.9574160975244
 30
0.0
 11
245.2332317596992
 21
54.95741609752485
 31
0.0
  0
LINE
  5
F0
330
2
100
AcDbEntity
  8
0
100
AcDbLine
 10
199.1332317597007
 20
54.45741609752485
 30
0.0
 11
238.6332317597025
 21
54.45741609752485
 31
0.0
  0
ARC
  5
F1
330
2
100
AcDbEntity
  8
0
100
AcDbCircle
 10
199.1332317597007
 20
54.95741609752485
 30
0.0
 40
0.5
100
AcDbArc
 50
180.0
 51
270.0
  0
ARC
  5
F2
330
2
100
AcDbEntity
  8
0
100
AcDbCircle
 10
107.7605111146476
 20
68.76796874606452
 30
0.0
 40
37.855792
100
AcDbArc
 50
235.2486590000054
 51
242.0987460000029
  0
ARC
  5
F3
330
2
100
AcDbEntity
  8
0
 48
0.6
100
AcDbCircle
 10
86.85989011464698
 20
37.98526574606421
 30
0.0
 40
0.7499080000000001
100
AcDbArc
 50
85.16289500000455
 51
205.3344229999993
  0
ARC
  5
F4
330
2
100
AcDbEntity
  8
0
100
AcDbCircle
 10
85.50431711464625
 20
37.34349274606575
 30
0.0
 40
0.7499080000000001
100
AcDbArc
 50
265.1628950000044
 51
25.33442299999946
  0
ARC
  5
F5
330
2
100
AcDbEntity
  8
0
 48
0.6
100
AcDbCircle
 10
87.55033411464683
 20
39.09622074606568
 30
0.0
 40
0.7499080000000001
100
AcDbArc
 50
265.1628950000044
 51
25.33442299999946
  0
ARC
  5
F6
330
2
100
AcDbEntity
  8
0
 48
0.6
100
AcDbCircle
 10
107.7605111146476
 20
68.76796874606452
 30
0.0
 40
35.255792
100
AcDbArc
 50
236.3564240000014
 51
242.0987460000029
  0
ARC
  5
F7
330
2
100
AcDbEntity
  8
0
100
AcDbCircle
 10
90.01958311464477
 20
36.06215474606415
 30
0.0
 40
0.7499080000000001
100
AcDbArc
 50
272.0129819999954
 51
32.18451000000101
  0
ARC
  5
F8
330
2
100
AcDbEntity
  8
0
100
AcDbCircle
 10
91.28893411464742
 20
36.86102774606434
 30
0.0
 40
0.7499080000000001
100
AcDbArc
 50
92.01298199999559
 51
212.184510000001
  0
ARC
  5
F9
330
2
100
AcDbEntity
  8
0
 48
0.6
100
AcDbCircle
 10
88.90590611464721
 20
39.73799274606426
 30
0.0
 40
0.7499080000000001
100
AcDbArc
 50
85.16289500000455
 51
205.3344229999993
  0
ARC
  5
FA
330
2
100
AcDbEntity
  8
0
 48
0.6
100
AcDbCircle
 10
107.7605111146476
 20
68.76796874606452
 30
0.0
 40
33.95579199999999
100
AcDbArc
 50
204.9259499999998
 51
236.3981230000006
  0
ARC
  5
FB
330
2
100
AcDbEntity
  8
0
100
AcDbCircle
 10
107.7605111146476
 20
68.76796874606452
 30
0.0
 40
39.15579199999999
100
AcDbArc
 50
201.4369589999971
 51
235.2486590000054
  0
ARC
  5
FC
330
2
100
AcDbEntity
  8
0
 48
0.6
100
AcDbCircle
 10
108.0130684662653
 20
69.04845969865118
 30
0.0
 40
36.92930121396881
100
AcDbArc
 50
203.2726782588581
 51
236.2329275593634
  0
LINE
  5
FD
330
2
100
AcDbEntity
  8
0
100
AcDbLine
 10
246.1332317597007
 20
63.55867875599551
 30
0.0
 11
246.1332317597007
 21
55.85867875599524
 31
0.0
  0
LINE
  5
FE
330
2
100
AcDbEntity
  8
0
100
AcDbLine
 10
245.2332317597029
 20
55.85867875599524
 30
0.0
 11
246.1332317597007
 21
55.85867875599524
 31
0.0
  0
LINE
  5
FF
330
2
100
AcDbEntity
  8
0
100
AcDbLine
 10
245.6332317597007
 20
54.95741609752485
 30
0.0
 11
245.6332317597007
 21
54.45741609752485
 31
0.0
  0
ARC
  5
100
330
2
100
AcDbEntity
  8
0
100
AcDbCircle
 10
246.1332317597007
 20
54.45741609752485
 30
0.0
 40
0.5
100
AcDbArc
 50
180.0
 51
270.0
  0
LINE
  5
101
330
2
100
AcDbEntity
  8
0
100
AcDbLine
 10
238.6332317597025
 20
54.4574160975244
 30
0.0
 11
245.2332317597029
 21
54.4574160975244
 31
0.0
  0
LINE
  5
102
330
2
100
AcDbEntity
  8
0
100
AcDbLine
 10
245.2332317597029
 20
63.55867875599551
 30
0.0
 11
246.1332317597007
 21
63.55867875599551
 31
0.0
  0
LINE
  5
103
330
2
100
AcDbEntity
  8
0
 62
   123
 48
0.6
100
AcDbLine
 10
300.1098060360582
 20
19.11897870030816
 30
0.0
 11
378.1232649416488
 21
19.11897870030816
 31
0.0
  0
MTEXT
  5
104
330
2
100
AcDbEntity
  8
DIM
100
AcDbMText
 10
336.0659246942159
 20
14.347783049202
 30
0.0
 40
3.5
 41
0.0
 71
     5
 72
     1
  1
UL Style 3266 , AWG22
1001
ACAD
1000
MTEXTBEGIN
1070
    73
1070
     1
1070
    44
1040
1.0
1070
    74
1070
     0
1000
MTEXTEND
  0
MTEXT
  5
105
330
2
100
AcDbEntity
  8
DIM
100
AcDbMText
 10
336.9593604229612
 20
23.07766231644109
 30
0.0
 40
3.5
 41
0.0
 71
     5
 72
     1
  1
BRAKE LEAD WIRE 300mm
1001
ACAD
1000
MTEXTBEGIN
1070
    73
1070
     1
1070
    44
1040
1.0
1070
    74
1070
     0
1000
MTEXTEND
  0
LEADER
  5
106
330
2
100
AcDbEntity
  8
0
 48
0.6
100
AcDbLeader
  3
STANDARD
 76
     2
 10
364.9505939018308
 20
43.37842538749145
 30
0.0
 10
378.1232649416488
 20
19.11897870030816
 30
0.0
1001
ACAD
1000
DSTYLE
1002
{
1070
     5
1000

1070
   342
1005
0
1002
}
  0
ARC
  5
107
330
2
100
AcDbEntity
  8
0
100
AcDbCircle
 10
255.1332317597007
 20
54.45741609752485
 30
0.0
 40
0.5
100
AcDbArc
 50
270.0
 51
0.0
  0
ARC
  5
108
330
2
100
AcDbEntity
  8
0
100
AcDbCircle
 10
286.935953759701
 20
53.86877009752424
 30
0.0
 40
37.855792
100
AcDbArc
 50
212.7486590000019
 51
219.5987459999966
  0
ARC
  5
109
330
2
100
AcDbEntity
  8
0
100
AcDbCircle
 10
255.8462667597014
 20
33.42758209752492
 30
0.0
 40
0.7499080000000001
100
AcDbArc
 50
62.66289500000094
 51
182.8344229999968
  0
ARC
  5
10A
330
2
100
AcDbEntity
  8
0
100
AcDbCircle
 10
286.935953759701
 20
53.86877009752424
 30
0.0
 40
36.555792
100
AcDbArc
 50
179.8610604128478
 51
213.8176429999978
  0
ARC
  5
10B
330
2
100
AcDbEntity
  8
0
100
AcDbCircle
 10
254.3482857597009
 20
33.35341609752504
 30
0.0
 40
0.7499080000000001
100
AcDbArc
 50
242.6628950000009
 51
2.834422999996808
  0
LINE
  5
10C
330
2
100
AcDbEntity
  8
0
100
AcDbLine
 10
255.6332317596988
 20
54.95741609752485
 30
0.0
 11
255.6332317596988
 21
54.45741609752485
 31
0.0
  0
ARC
  5
10D
330
2
100
AcDbEntity
  8
0
100
AcDbCircle
 10
256.9092977597029
 20
34.18974909752432
 30
0.0
 40
0.7499080000000001
100
AcDbArc
 50
242.6628950000009
 51
2.834422999996808
  0
ARC
  5
10E
330
2
100
AcDbEntity
  8
0
100
AcDbCircle
 10
286.935953759701
 20
53.86877009752424
 30
0.0
 40
33.95579199999999
100
AcDbArc
 50
179.8504230000004
 51
213.8981229999992
  0
ARC
  5
10F
330
2
100
AcDbEntity
  8
0
100
AcDbCircle
 10
379.6332317597025
 20
61.95741609752485
 30
0.0
 40
7.0
100
AcDbArc
 50
269.9999999999998
 51
359.9999999999997
  0
LINE
  5
110
330
2
100
AcDbEntity
  8
0
100
AcDbLine
 10
354.8749708757059
 20
54.06848071187778
 30
0.0
 11
354.8749708757059
 21
54.95741609752485
 31
0.0
  0
ARC
  5
111
330
2
100
AcDbEntity
  8
0
100
AcDbCircle
 10
351.4416514031872
 20
54.06848071187778
 30
0.0
 40
1.0
100
AcDbArc
 50
180.0
 51
270.0
  0
LINE
  5
112
330
2
100
AcDbEntity
  8
0
100
AcDbLine
 10
351.4416514031872
 20
53.06848071187778
 30
0.0
 11
353.8749708757041
 21
53.06848071187778
 31
0.0
  0
LINE
  5
113
330
2
100
AcDbEntity
  8
0
100
AcDbLine
 10
350.4416514031873
 20
54.95741609752485
 30
0.0
 11
350.4416514031873
 21
54.06848071187778
 31
0.0
  0
ARC
  5
114
330
2
100
AcDbEntity
  8
0
100
AcDbCircle
 10
353.8749708757041
 20
54.06848071187778
 30
0.0
 40
1.0
100
AcDbArc
 50
269.9999999999998
 51
0.0
  0
ARC
  5
115
330
2
100
AcDbEntity
  8
0
 48
0.6
100
AcDbCircle
 10
369.3284734845056
 20
54.4574160975244
 30
0.0
 40
0.5
100
AcDbArc
 50
270.0
 51
0.0
  0
LINE
  5
116
330
2
100
AcDbEntity
  8
0
 48
0.6
100
AcDbLine
 10
369.3284734845056
 20
53.95741609752303
 30
0.0
 11
360.3284734845037
 21
53.95741609752303
 31
0.0
  0
ARC
  5
117
330
2
100
AcDbEntity
  8
0
 48
0.6
100
AcDbCircle
 10
360.3284734845037
 20
54.4574160975244
 30
0.0
 40
0.5
100
AcDbArc
 50
180.0
 51
270.0
  0
LINE
  5
118
330
2
100
AcDbEntity
  8
0
 48
0.6
100
AcDbLine
 10
359.8284734845037
 20
54.9574160975244
 30
0.0
 11
359.8284734845037
 21
54.4574160975244
 31
0.0
  0
LINE
  5
119
330
2
100
AcDbEntity
  8
0
 48
0.6
100
AcDbLine
 10
369.8284734845037
 20
54.9574160975244
 30
0.0
 11
369.8284734845037
 21
54.4574160975244
 31
0.0
  0
ARC
  5
11A
330
2
100
AcDbEntity
  8
0
100
AcDbCircle
 10
258.4072797597
 20
34.2639150975242
 30
0.0
 40
0.7499080000000001
100
AcDbArc
 50
62.66289500000094
 51
182.8344229999968
  0
ARC
  5
11B
330
2
100
AcDbEntity
  8
0
100
AcDbCircle
 10
258.0295007597015
 20
30.44169709752486
 30
0.0
 40
0.7499080000000001
100
AcDbArc
 50
249.5129820000002
 51
9.684509999999278
  0
ARC
  5
11C
330
2
100
AcDbEntity
  8
0
100
AcDbCircle
 10
259.5079427597011
 20
30.69400009752508
 30
0.0
 40
0.7499080000000001
100
AcDbArc
 50
69.51298200000024
 51
189.6845099999992
  0
ARC
  5
11D
330
2
100
AcDbEntity
  8
0
100
AcDbCircle
 10
286.935953759701
 20
53.86877009752424
 30
0.0
 40
35.255792
100
AcDbArc
 50
213.8564239999994
 51
219.5987459999966
  0
ARC
  5
11E
330
2
100
AcDbEntity
  8
0
 48
0.6
100
AcDbCircle
 10
401.1311954845041
 20
53.86877009752424
 30
0.0
 40
33.95579199999999
100
AcDbArc
 50
179.8504230000004
 51
213.8981229999992
  0
ARC
  5
11F
330
2
100
AcDbEntity
  8
0
 48
0.6
100
AcDbCircle
 10
372.6025214845031
 20
34.2639150975242
 30
0.0
 40
0.7499080000000001
100
AcDbArc
 50
62.66289500000094
 51
182.8344229999968
  0
ARC
  5
120
330
2
100
AcDbEntity
  8
0
 48
0.6
100
AcDbCircle
 10
368.543527484504
 20
33.35341609752413
 30
0.0
 40
0.7499080000000001
100
AcDbArc
 50
242.6628950000009
 51
2.834422999996808
  0
ARC
  5
121
330
2
100
AcDbEntity
  8
0
 48
0.6
100
AcDbCircle
 10
370.0415084845044
 20
33.42758209752446
 30
0.0
 40
0.7499080000000001
100
AcDbArc
 50
62.66289500000094
 51
182.8344229999968
  0
ARC
  5
122
330
2
100
AcDbEntity
  8
0
 48
0.6
100
AcDbCircle
 10
401.1311954845041
 20
53.86877009752424
 30
0.0
 40
36.555792
100
AcDbArc
 50
179.8610604128478
 51
213.8176429999978
  0
ARC
  5
123
330
2
100
AcDbEntity
  8
0
 48
0.6
100
AcDbCircle
 10
401.1311954845041
 20
53.86877009752424
 30
0.0
 40
39.15579199999999
100
AcDbArc
 50
179.8702869999971
 51
212.7486590000019
  0
ARC
  5
124
330
2
100
AcDbEntity
  8
0
 48
0.6
100
AcDbCircle
 10
371.1045394845041
 20
34.18974909752432
 30
0.0
 40
0.7499080000000001
100
AcDbArc
 50
242.6628950000009
 51
2.834422999996808
  0
DIMENSION
  5
125
102
{ACAD_XDICTIONARY
360
126
102
}
102
{ACAD_REACTORS
330
127
102
}
330
2
100
AcDbEntity
  8
0
100
AcDbDimension
  2
*D37
 10
246.1332317597007
 20
156.4891608560674
 30
0.0
 11
242.3832317597016
 21
156.4891608560674
 31
0.0
 70
   160
  3
1_1_2
100
AcDbAlignedDimension
 13
238.6332317597025
 23
144.4574160975248
 33
0.0
 14
246.1332317597007
 24
143.0561534390531
 34
0.0
100
AcDbRotatedDimension
  0
LINE
  5
136
330
2
100
AcDbEntity
  8
0
100
AcDbLine
 10
379.6332317597025
 20
143.9574160975248
 30
0.0
 11
245.2332317597029
 21
143.9574160975248
 31
0.0
  0
DIMENSION
  5
137
330
2
100
AcDbEntity
  8
0
100
AcDbDimension
  2
*D36
 10
386.6332317597007
 20
170.3169679013212
 30
0.0
 11
306.1332317597007
 21
170.3169679013212
 31
0.0
 70
   160
  3
1_1_2
100
AcDbAlignedDimension
 13
238.6332317597025
 23
144.4574160975248
 33
0.0
 14
386.6332317597007
 24
138.4574160975243
 34
0.0
100
AcDbRotatedDimension
  0
LINE
  5
144
330
2
100
AcDbEntity
  8
CEN
100
AcDbLine
 10
182.5503533550035
 20
99.45741609752486
 30
0.0
 11
391.3923916652675
 21
99.45741609752486
 31
0.0
  0
TEXT
  5
145
330
2
100
AcDbEntity
  8
1
 62
     0
100
AcDbText
 10
202.3329347586477
 20
247.4126502683138
 30
0.0
 40
4.589999999999998
  1
DIMENSION TABLE
 41
0.8
  7
GHS
100
AcDbText
  0
LINE
  5
148
330
2
100
AcDbEntity
  8
1
  6
BYBLOCK
 62
     0
100
AcDbLine
 10
201.6709442644332
 20
245.3628683965594
 30
0.0
 11
251.3363820766608
 21
245.3628683965594
 31
0.0
  0
LINE
  5
149
330
2
100
AcDbEntity
  8
1
  6
BYBLOCK
 62
     0
100
AcDbLine
 10
201.6709442644332
 20
245.587868396557
 30
0.0
 11
251.3363820766608
 21
245.587868396557
 31
0.0
  0
LINE
  5
14A
330
2
100
AcDbEntity
  8
1
  6
BYBLOCK
 62
     0
100
AcDbLine
 10
201.6709442644332
 20
246.3169003575531
 30
0.0
 11
251.3363820766608
 21
246.3169003575531
 31
0.0
  0
LINE
  5
14B
330
2
100
AcDbEntity
  8
1
  6
BYBLOCK
 62
     0
100
AcDbLine
 10
315.1949410990055
 20
214.3652114813448
 30
0.0
 11
202.4412108349679
 21
214.3652114813448
 31
0.0
  0
LINE
  5
14C
330
2
100
AcDbEntity
  8
1
  6
BYBLOCK
 62
     0
100
AcDbLine
 10
315.1949410990055
 20
223.545211481346
 30
0.0
 11
202.4412108349679
 21
223.545211481346
 31
0.0
  0
LINE
  5
14D
330
2
100
AcDbEntity
  8
1
  6
BYBLOCK
 62
     0
100
AcDbLine
 10
315.1949410990055
 20
232.725211481345
 30
0.0
 11
202.4412108349679
 21
232.725211481345
 31
0.0
  0
LINE
  5
14E
330
2
100
AcDbEntity
  8
1
  6
BYBLOCK
 62
     0
100
AcDbLine
 10
315.1949410990055
 20
241.9052114813462
 30
0.0
 11
202.4412108349679
 21
241.9052114813462
 31
0.0
  0
LINE
  5
14F
102
{ACAD_REACTORS
330
127
102
}
330
2
100
AcDbEntity
  8
0
100
AcDbLine
 10
245.2332317597029
 20
143.0561534390531
 30
0.0
 11
246.1332317597007
 21
143.0561534390531
 31
0.0
  0
LINE
  5
150
330
2
100
AcDbEntity
  8
0
100
AcDbLine
 10
245.2332317597029
 20
135.3561534390537
 30
0.0
 11
246.1332317597007
 21
135.3561534390537
 31
0.0
  0
LINE
  5
151
330
2
100
AcDbEntity
  8
0
100
AcDbLine
 10
246.1332317597007
 20
135.3561534390537
 30
0.0
 11
246.1332317597007
 21
143.0561534390531
 31
0.0
  0
LINE
  5
152
330
2
100
AcDbEntity
  8
0
100
AcDbLine
 10
238.6332317597025
 20
144.4574160975248
 30
0.0
 11
245.2332317597029
 21
144.4574160975248
 31
0.0
  0
LWPOLYLINE
  5
153
330
2
100
AcDbEntity
  8
3
100
AcDbPolyline
 90
        4
 70
     1
 43
0.0
 10
49.26722685933782
 20
156.0449383559953
 10
52.56722685933709
 20
156.0449383559953
 10
52.56722685933709
 20
159.5449383559953
 10
49.26722685933782
 20
159.5449383559953
  0
CIRCLE
  5
155
330
2
100
AcDbEntity
  8
0
100
AcDbCircle
 10
55.44269576382794
 20
117.457416097523
 30
0.0
 40
7.5
  0
LINE
  5
156
330
2
100
AcDbEntity
  8
0
100
AcDbLine
 10
52.94269576382794
 20
121.957416097523
 30
0.0
 11
57.94269576382794
 21
121.957416097523
 31
0.0
  0
LINE
  5
157
330
2
100
AcDbEntity
  8
0
100
AcDbLine
 10
52.94269576382794
 20
124.5284839093887
 30
0.0
 11
52.94269576382794
 21
121.957416097523
 31
0.0
  0
LINE
  5
158
330
2
100
AcDbEntity
  8
0
100
AcDbLine
 10
57.94269576382794
 20
124.5284839093887
 30
0.0
 11
57.94269576382794
 21
121.957416097523
 31
0.0
  0
DIMENSION
  5
159
102
{ACAD_XDICTIONARY
360
15A
102
}
102
{ACAD_REACTORS
330
15B
102
}
330
2
100
AcDbEntity
  8
0
100
AcDbDimension
  2
*D50
 10
152.0648709290253
 20
123.4574160975248
 30
0.0
 11
152.0648709290253
 21
151.3748497033234
 31
0.0
 70
   160
  1
\A1;{\f??|b0|i0|c0|p49;%%C12\H0.7x;\S+0^ -0.018;\H1.429x;(h7)}
  3
1_1_2
100
AcDbAlignedDimension
 13
166.6332317597007
 23
111.4574160975243
 33
0.0
 14
166.6332317597007
 24
123.4574160975248
 34
0.0
 50
90.0
100
AcDbRotatedDimension
  0
DIMENSION
  5
16A
102
{ACAD_XDICTIONARY
360
16B
102
}
102
{ACAD_REACTORS
330
16C
102
}
330
2
100
AcDbEntity
  8
0
100
AcDbDimension
  2
*D49
 10
140.5199915620924
 20
99.45741609752488
 30
0.0
 11
137.7699915620923
 21
108.4574160975248
 31
0.0
 70
    32
  3
1_1_2
100
AcDbAlignedDimension
 13
162.7350929584754
 23
117.4574160975248
 33
0.0
 14
181.5503533550035
 24
99.45741609752486
 34
0.0
 50
90.0
100
AcDbRotatedDimension
  0
LINE
  5
179
330
2
100
AcDbEntity
  8
0
100
AcDbLine
 10
199.1332317597007
 20
144.4574160975244
 30
0.0
 11
238.6332317597025
 21
144.4574160975244
 31
0.0
  0
LINE
  5
17A
102
{ACAD_REACTORS
330
16C
102
}
330
2
100
AcDbEntity
  8
CEN
  6
HIDDEN
 62
     2
100
AcDbLine
 10
191.6332317596989
 20
120.9574160975243
 30
0.0
 11
166.6332317597007
 21
120.9574160975243
 31
0.0
  0
LINE
  5
17C
102
{ACAD_REACTORS
330
16C
102
}
330
2
100
AcDbEntity
  8
CEN
  6
BYBLOCK
 62
     0
100
AcDbLine
 10
195.6332317597007
 20
123.4574160975248
 30
0.0
 11
166.6332317597007
 21
123.4574160975248
 31
0.0
  0
DIMENSION
  5
17D
330
2
100
AcDbEntity
  8
0
100
AcDbDimension
  2
*D48
 10
166.6332317597007
 20
140.3332359600799
 30
0.0
 11
179.1332317597007
 21
140.3332359600799
 31
0.0
 70
   160
  3
1_1_2
100
AcDbAlignedDimension
 13
191.6332317596989
 23
123.4574160975248
 33
0.0
 14
166.6332317597007
 24
122.4574160975248
 34
0.0
 50
180.0
100
AcDbRotatedDimension
  0
LINE
  5
18A
330
2
100
AcDbEntity
  8
0
  6
HIDDEN
 62
     2
100
AcDbLine
 10
191.6332317596989
 20
123.4574160975248
 30
0.0
 11
191.6332317596989
 21
120.9574160975243
 31
0.0
  0
LINE
  5
18B
330
2
100
AcDbEntity
  8
0
100
AcDbLine
 10
196.1332317596989
 20
135.4574160975248
 30
0.0
 11
198.6332317597007
 21
135.4574160975248
 31
0.0
  0
ARC
  5
18C
330
2
100
AcDbEntity
  8
0
100
AcDbCircle
 10
199.1332317597007
 20
143.9574160975248
 30
0.0
 40
0.5
100
AcDbArc
 50
90.0
 51
180.0
  0
ARC
  5
18D
330
2
100
AcDbEntity
  8
0
100
AcDbCircle
 10
196.1332317596989
 20
134.9574160975248
 30
0.0
 40
0.5
100
AcDbArc
 50
90.0
 51
180.0
  0
LINE
  5
18E
102
{ACAD_REACTORS
330
16C
102
}
330
2
100
AcDbEntity
  8
CEN
 48
0.6
100
AcDbLine
 10
209.2786337647285
 20
117.4574160975248
 30
0.0
 11
162.7350929584754
 21
117.4574160975248
 31
0.0
  0
DIMENSION
  5
18F
330
2
100
AcDbEntity
  8
0
100
AcDbDimension
  2
*D47
 10
195.6332317597007
 20
158.4688011495986
 30
0.0
 11
197.1332317597007
 21
158.4688011495986
 31
0.0
 70
   160
  3
1_1_2
100
AcDbAlignedDimension
 13
198.6332317597007
 23
143.9574160975248
 33
0.0
 14
195.6332317597007
 24
134.603862706931
 34
0.0
 50
180.0
100
AcDbRotatedDimension
  0
DIMENSION
  5
19E
330
2
100
AcDbEntity
  8
0
100
AcDbDimension
  2
*D46
 10
198.6332317597007
 20
170.8801862016739
 30
0.0
 11
218.6332317597007
 21
170.8801862016739
 31
0.0
 70
   160
  1
L
  3
1_1_2
100
AcDbAlignedDimension
 13
238.6332317597025
 23
144.4574160975244
 33
0.0
 14
198.6332317597007
 24
143.9574160975248
 34
0.0
 50
180.0
100
AcDbRotatedDimension
  0
DIMENSION
  5
1AB
330
2
100
AcDbEntity
  8
0
100
AcDbDimension
  2
*D45
 10
198.6332317597007
 20
170.8801862016739
 30
0.0
 11
182.6332317597007
 21
170.8801862016739
 31
0.0
 70
   160
  3
1_1_2
100
AcDbAlignedDimension
 13
166.6332317597007
 23
123.4574160975248
 33
0.0
 14
198.6332317597007
 24
144.5623800519765
 34
0.0
 50
180.0
100
AcDbRotatedDimension
  0
LINE
  5
1B8
102
{ACAD_REACTORS
330
16C
330
15B
102
}
330
2
100
AcDbEntity
  8
CEN
  6
BYBLOCK
 62
     0
100
AcDbLine
 10
195.6332317597007
 20
111.4574160975243
 30
0.0
 11
166.6332317597007
 21
111.4574160975243
 31
0.0
  0
LINE
  5
1B9
330
2
100
AcDbEntity
  8
0
100
AcDbLine
 10
196.1332317596989
 20
99.45741609752486
 30
0.0
 11
198.6332317597007
 21
99.45741609752486
 31
0.0
  0
ARC
  5
1BA
330
2
100
AcDbEntity
  8
0
100
AcDbCircle
 10
196.1332317596989
 20
99.95741609752485
 30
0.0
 40
0.5
100
AcDbArc
 50
180.0
 51
270.0
  0
LINE
  5
1BB
330
2
100
AcDbEntity
  8
0
100
AcDbLine
 10
195.6332317597007
 20
134.9574160975248
 30
0.0
 11
195.6332317597007
 21
99.95741609752485
 31
0.0
  0
LINE
  5
1BC
330
2
100
AcDbEntity
  8
0
100
AcDbLine
 10
166.6332317597007
 20
123.4574160975248
 30
0.0
 11
166.6332317597007
 21
111.4574160975243
 31
0.0
  0
DIMENSION
  5
1BD
330
2
100
AcDbEntity
  8
0
100
AcDbDimension
  2
*D44
 10
127.6144244985862
 20
99.45741609752488
 30
0.0
 11
127.6144244985862
 21
117.2074160975244
 31
0.0
 70
   160
  1
{\f??|b0|i0|c0|p49;%%C}<>
  3
1_1_2
100
AcDbAlignedDimension
 13
196.1332317596989
 23
135.4574160975248
 33
0.0
 14
182.5503533550035
 24
99.45741609752486
 34
0.0
 50
90.0
100
AcDbRotatedDimension
  0
LEADER
  5
1CA
330
2
100
AcDbEntity
  8
0
100
AcDbLeader
  3
1_1_2
 73
     0
 75
     1
 40
3.0
 41
26.65178571428571
 76
     3
 10
92.23694029892248
 20
139.3221375936145
 30
0.0
 10
85.53806469176562
 20
166.1183335034374
 30
0.0
 10
82.53806469176561
 20
166.1183335034374
 30
0.0
340
1CB
1001
ACAD
1000
DSTYLE
1002
{
1070
     5
1000

1070
   342
1005
0
1002
}
  0
MTEXT
  5
1CB
102
{ACAD_REACTORS
330
1CA
102
}
330
2
100
AcDbEntity
  8
0
 62
     3
100
AcDbMText
 10
81.53806469176561
 20
167.1183335034374
 30
0.0
 40
3.0
 41
0.0
 71
     9
 72
     1
  1
4-%%C6.5 hole
1001
ACAD
1000
MTEXTBEGIN
1070
    73
1070
     1
1070
    44
1040
1.0
1070
    74
1070
     0
1000
MTEXTEND
  0
DIMENSION
  5
1CC
330
2
100
AcDbEntity
  8
0
100
AcDbDimension
  2
*D43
 10
100.4426957638279
 20
155.1618711439214
 30
0.0
 11
56.40505864974329
 21
155.1618711439214
 31
0.0
 70
   160
  3
1_1_2
100
AcDbAlignedDimension
 13
10.44269576382794
 23
139.4574160975248
 33
0.0
 14
100.4426957638279
 24
139.4574160975248
 34
0.0
100
AcDbRotatedDimension
  0
LINE
  5
1D9
330
2
100
AcDbEntity
  8
CL
  6
CENTER
100
AcDbLine
 10
111.1729560861022
 20
99.45741609752303
 30
0.0
 11
-0.287564558442682
 21
99.45741609752303
 31
0.0
  0
LINE
  5
1DA
330
2
100
AcDbEntity
  8
CL
  6
CENTER
100
AcDbLine
 10
35.16713034221538
 20
117.457416097523
 30
0.0
 11
75.71826118544049
 21
117.457416097523
 31
0.0
  0
CIRCLE
  5
1DB
330
2
100
AcDbEntity
  8
0
100
AcDbCircle
 10
55.44269576382794
 20
117.457416097523
 30
0.0
 40
17.99999999997861
  0
ARC
  5
1DC
330
2
100
AcDbEntity
  8
2
 62
     7
100
AcDbCircle
 10
196.1332317596989
 20
99.95741609752485
 30
0.0
 40
0.4999999999999967
100
AcDbArc
 50
180.0
 51
270.0
  0
LINE
  5
1DE
330
2
100
AcDbEntity
  8
2
 62
     7
100
AcDbLine
 10
198.6332317597007
 20
99.45741609752486
 30
0.0
 11
196.1332317596989
 21
99.45741609752486
 31
0.0
  0
LINE
  5
1DF
330
2
100
AcDbEntity
  8
2
 62
     7
100
AcDbLine
 10
195.6332317597007
 20
99.95741609752485
 30
0.0
 11
195.6332317597007
 21
101.4574160975248
 31
0.0
  0
LINE
  5
1E0
330
2
100
AcDbEntity
  8
0
  6
CENTER
 62
     1
 48
0.4
100
AcDbLine
 10
80.60956541108499
 20
221.1979929308599
 30
0.0
 11
80.60956541108499
 21
213.1979929308599
 31
0.0
  0
LINE
  5
1E1
102
{ACAD_REACTORS
330
20C
102
}
330
2
100
AcDbEntity
  8
0
100
AcDbLine
 10
82.60956541108317
 20
219.1979929308599
 30
0.0
 11
82.60956541108317
 21
215.1979929308599
 31
0.0
  0
LINE
  5
1E2
102
{ACAD_REACTORS
330
20C
102
}
330
2
100
AcDbEntity
  8
0
100
AcDbLine
 10
78.60956541108135
 20
219.1979929308599
 30
0.0
 11
78.60956541108135
 21
215.1979929308599
 31
0.0
  0
DIMENSION
  5
1E3
102
{ACAD_XDICTIONARY
360
1E4
102
}
102
{ACAD_REACTORS
330
1E5
102
}
330
2
100
AcDbEntity
  8
0
100
AcDbDimension
  2
*D42
 10
143.0402776458104
 20
220.5976976438642
 30
0.0
 11
143.0402776458104
 21
236.8048405010067
 31
0.0
 70
   160
  1
\A1;<>{\f??|b0|i0|c0|p49;\H0.7x;\S+0.1^ -0;\H1.429x; }
  3
STANDARD
100
AcDbAlignedDimension
 13
127.5429451516283
 23
218.0976976438642
 33
0.0
 14
125.5429451516283
 24
220.5976976438642
 34
0.0
 50
90.0
100
AcDbRotatedDimension
  0
LINE
  5
1F4
330
2
100
AcDbEntity
  8
0
  6
CENTER
 62
     1
 48
0.4
100
AcDbLine
 10
125.5429451516283
 20
225.5694622870801
 30
0.0
 11
125.5429451516283
 21
204.940704064304
 31
0.0
  0
CIRCLE
  5
1F5
102
{ACAD_REACTORS
330
1E5
102
}
330
2
100
AcDbEntity
  8
0
100
AcDbCircle
 10
125.5429451516283
 20
215.5976976438628
 30
0.0
 40
5.0
  0
LINE
  5
1F6
330
2
100
AcDbEntity
  8
0
100
AcDbLine
 10
61.4389121243712
 20
219.1979929308599
 30
0.0
 11
61.4389121243712
 21
215.1979929308599
 31
0.0
  0
ARC
  5
1F7
102
{ACAD_REACTORS
330
221
102
}
330
2
100
AcDbEntity
  8
0
100
AcDbCircle
 10
38.43891212436938
 20
217.1979929308599
 30
0.0
 40
2.0
100
AcDbArc
 50
90.0
 51
270.0
  0
DIMENSION
  5
1F8
330
2
100
AcDbEntity
  8
0
100
AcDbDimension
  2
*D41
 10
69.60796727983328
 20
219.1979929308599
 30
0.0
 11
69.60796727983325
 21
234.0474547249509
 31
0.0
 70
   160
  1
\A1;<>{\f??|b0|i0|c0|p49;\H0.7x;\S+0^ -0.03;}
  3
STANDARD
100
AcDbAlignedDimension
 13
61.4389121243712
 23
215.1979929308599
 33
0.0
 14
61.4389121243712
 24
219.1979929308599
 34
0.0
 50
90.0
100
AcDbRotatedDimension
  0
LINE
  5
207
330
2
100
AcDbEntity
  8
0
 48
0.2
100
AcDbLine
 10
78.60956541108135
 20
215.1979929308599
 30
0.0
 11
82.60956541108317
 21
215.1979929308599
 31
0.0
  0
LINE
  5
208
330
2
100
AcDbEntity
  8
0
 48
0.2
100
AcDbLine
 10
38.43891212436938
 20
215.1979929308599
 30
0.0
 11
61.4389121243712
 21
215.1979929308599
 31
0.0
  0
LINE
  5
209
330
2
100
AcDbEntity
  8
0
  6
CENTER
 62
     1
 48
0.4
100
AcDbLine
 10
116.9353058348569
 20
215.5976976438628
 30
0.0
 11
133.8688003810093
 21
215.5976976438628
 31
0.0
  0
DIMENSION
  5
20A
102
{ACAD_XDICTIONARY
360
20B
102
}
102
{ACAD_REACTORS
330
20C
102
}
330
2
100
AcDbEntity
  8
0
100
AcDbDimension
  2
*D40
 10
82.60956541108317
 20
227.8724685894922
 30
0.0
 11
80.60956541108225
 21
231.3224685894922
 31
0.0
 70
    32
  1
\A1;<>{\f??|b0|i0|c0|p49;\H0.7x;\S+0^ -0.03;}
  3
STANDARD
100
AcDbAlignedDimension
 13
78.60956541108135
 23
219.1979929308599
 33
0.0
 14
82.60956541108317
 24
219.1979929308599
 34
0.0
100
AcDbRotatedDimension
  0
LINE
  5
21B
330
2
100
AcDbEntity
  8
0
  6
CENTER
 62
     1
 48
0.4
100
AcDbLine
 10
76.60956541108316
 20
217.1979929308599
 30
0.0
 11
84.60956541108135
 21
217.1979929308599
 31
0.0
  0
LINE
  5
21C
330
2
100
AcDbEntity
  8
0
 48
0.2
100
AcDbLine
 10
78.60956541108135
 20
219.1979929308599
 30
0.0
 11
82.60956541108317
 21
219.1979929308599
 31
0.0
  0
LINE
  5
21D
330
2
100
AcDbEntity
  8
0
  6
CENTER
 62
     1
 48
0.4
100
AcDbLine
 10
30.75202580765835
 20
217.1979929308599
 30
0.0
 11
66.25777943670255
 21
217.1979929308599
 31
0.0
  0
LINE
  5
21E
102
{ACAD_REACTORS
330
221
102
}
330
2
100
AcDbEntity
  8
0
 48
0.2
100
AcDbLine
 10
38.43891212436938
 20
219.1979929308599
 30
0.0
 11
61.4389121243712
 21
219.1979929308599
 31
0.0
  0
DIMENSION
  5
21F
102
{ACAD_XDICTIONARY
360
220
102
}
102
{ACAD_REACTORS
330
221
102
}
330
2
100
AcDbEntity
  8
0
100
AcDbDimension
  2
*D39
 10
61.43891212436938
 20
227.0031869113345
 30
0.0
 11
48.93891212436938
 21
229.5031869113345
 31
0.0
 70
    32
  1
<>{\f??|b0|i0|c0|p49;%%p0.2}
  3
STANDARD
100
AcDbAlignedDimension
 13
36.43891212436938
 23
217.1979929308599
 33
0.0
 14
61.43891212436938
 24
219.1979929308599
 34
0.0
100
AcDbRotatedDimension
  0
CIRCLE
  5
22E
330
2
100
AcDbEntity
  8
0
100
AcDbCircle
 10
42.2152983040869
 20
247.5537206616631
 30
0.0
 40
1.5
  0
LWPOLYLINE
  5
22F
330
2
100
AcDbEntity
  8
0
100
AcDbPolyline
 90
        2
 70
     1
 43
1.5
 10
41.4652983040869
 20
247.5537206616631
 42
1.0
 10
42.96529830408689
 20
247.5537206616631
 42
1.0
  0
LWPOLYLINE
  5
230
330
2
100
AcDbEntity
  8
0
100
AcDbPolyline
 90
        2
 70
     1
 43
1.5
 10
105.98992552872
 20
247.7690365776638
 42
1.0
 10
107.48992552872
 20
247.7690365776638
 42
1.0
  0
LINE
  5
231
102
{ACAD_REACTORS
330
1E5
102
}
330
2
100
AcDbEntity
  8
0
100
AcDbLine
 10
123.5429451516283
 20
218.0976976438642
 30
0.0
 11
127.5429451516283
 21
218.0976976438642
 31
0.0
  0
LINE
  5
232
102
{ACAD_REACTORS
330
236
102
}
330
2
100
AcDbEntity
  8
0
100
AcDbLine
 10
123.5429451516283
 20
218.0976976438642
 30
0.0
 11
123.5429451516283
 21
220.1802733388189
 31
0.0
  0
LINE
  5
233
102
{ACAD_REACTORS
330
236
102
}
330
2
100
AcDbEntity
  8
0
100
AcDbLine
 10
127.5429451516283
 20
218.0976976438642
 30
0.0
 11
127.5429451516283
 21
220.1802733388189
 31
0.0
  0
DIMENSION
  5
234
102
{ACAD_XDICTIONARY
360
235
102
}
102
{ACAD_REACTORS
330
236
102
}
330
2
100
AcDbEntity
  8
0
100
AcDbDimension
  2
*D38
 10
127.5429451516283
 20
228.939285883795
 30
0.0
 11
125.5429451516283
 21
232.389285883795
 31
0.0
 70
    32
  1
\A1;<>{\f??|b0|i0|c0|p49;\H0.7x;\S+0.40^ -0;}
  3
STANDARD
100
AcDbAlignedDimension
 13
123.5429451516283
 23
220.1802733388189
 33
0.0
 14
127.5429451516283
 24
220.1802733388189
 34
0.0
100
AcDbRotatedDimension
  0
CIRCLE
  5
245
330
2
100
AcDbEntity
  8
0
100
AcDbCircle
 10
106.73992552872
 20
247.7690365776638
 30
0.0
 40
1.5
  0
MTEXT
  5
246
330
2
100
AcDbEntity
  8
DIM
 62
     0
100
AcDbMText
 10
46.40614902461311
 20
250.1611209177517
 30
0.0
 40
4.589999999999998
 41
0.0
 71
     1
 72
     5
  1
{\f굴림|b0|i0|c129|p50;KEY\f??|b0|i0|c0|p49;                  \f굴림|b0|i0|c129|p50;KEY GROOVE }
1001
ACAD
1000
MTEXTBEGIN
1070
    73
1070
     1
1070
    44
1040
1.0
1070
    74
1070
     0
1000
MTEXTEND
  0
LINE
  5
247
330
2
100
AcDbEntity
  8
1
  6
BYBLOCK
 62
     0
100
AcDbLine
 10
202.4412108349679
 20
241.9052114813462
 30
0.0
 11
202.4412108349679
 21
214.3652114813448
 31
0.0
  0
TEXT
  5
248
330
2
100
AcDbEntity
  8
1
  6
BYBLOCK
 62
     0
100
AcDbText
 10
210.0023359953411
 20
234.8940242073172
 30
0.0
 40
4.589999999999998
  1
NO.
 41
0.8
  7
GHS
100
AcDbText
  0
TEXT
  5
249
330
2
100
AcDbEntity
  8
1
  6
BYBLOCK
 62
     0
100
AcDbText
 10
210.8804645349955
 20
225.6568008652361
 30
0.0
 40
4.589999999999998
  1
01
 41
0.8
  7
GHS
100
AcDbText
  0
TEXT
  5
24A
330
2
100
AcDbEntity
  8
1
  6
BYBLOCK
 62
     0
100
AcDbText
 10
210.8804645349955
 20
216.4768008652358
 30
0.0
 40
4.589999999999998
  1
02
 41
0.8
  7
GHS
100
AcDbText
  0
LINE
  5
24B
330
2
100
AcDbEntity
  8
1
  6
BYBLOCK
 62
     0
100
AcDbLine
 10
226.2579940328941
 20
241.9052114813462
 30
0.0
 11
226.2579940328941
 21
214.3652114813448
 31
0.0
  0
TEXT
  5
24C
330
2
100
AcDbEntity
  8
1
  6
BYBLOCK
 62
     0
100
AcDbText
 10
235.9810432842004
 20
216.5322964384868
 30
0.0
 40
4.589999999999998
  1
60
 41
0.8
  7
GHS
100
AcDbText
  0
TEXT
  5
24D
330
2
100
AcDbEntity
  8
1
  6
BYBLOCK
 62
     0
100
AcDbText
 10
237.8298440899125
 20
234.7258262943728
 30
0.0
 40
4.589999999999998
  1
L
 41
0.8
  7
GHS
100
AcDbText
  0
TEXT
  5
24E
330
2
100
AcDbEntity
  8
1
  6
BYBLOCK
 62
     0
100
AcDbText
 10
235.9810432842004
 20
225.7122964384866
 30
0.0
 40
4.589999999999998
  1
42
 41
0.8
  7
GHS
100
AcDbText
  0
LINE
  5
24F
330
2
100
AcDbEntity
  8
0
100
AcDbLine
 10
386.6332317597007
 20
112.8613406992849
 30
0.0
 11
386.6332317597007
 21
86.05349149576387
 31
0.0
  0
ARC
  5
250
330
2
100
AcDbEntity
  8
0
100
AcDbCircle
 10
379.6332317597025
 20
136.9574160975248
 30
0.0
 40
7.0
100
AcDbArc
 50
359.9999999999998
 51
90.0000000000001
  0
LINE
  5
251
330
2
100
AcDbEntity
  8
0
100
AcDbLine
 10
386.6332317597007
 20
136.9574160975248
 30
0.0
 11
386.6332317597007
 21
126.3613406992849
 31
0.0
  0
LINE
  5
252
330
2
100
AcDbEntity
  8
0
100
AcDbLine
 10
354.8749708757059
 20
144.846351483171
 30
0.0
 11
354.8749708757059
 21
143.9574160975248
 31
0.0
  0
ARC
  5
253
330
2
100
AcDbEntity
  8
0
100
AcDbCircle
 10
351.4416514031872
 20
144.846351483171
 30
0.0
 40
1.0
100
AcDbArc
 50
89.99999999999991
 51
179.9999999999998
  0
LINE
  5
254
330
2
100
AcDbEntity
  8
0
100
AcDbLine
 10
350.4416514031873
 20
143.9574160975248
 30
0.0
 11
350.4416514031873
 21
144.846351483171
 31
0.0
  0
LINE
  5
255
330
2
100
AcDbEntity
  8
0
100
AcDbLine
 10
351.4416514031872
 20
145.846351483171
 30
0.0
 11
353.8749708757041
 21
145.846351483171
 31
0.0
  0
ARC
  5
256
330
2
100
AcDbEntity
  8
0
100
AcDbCircle
 10
353.8749708757041
 20
144.846351483171
 30
0.0
 40
1.0
100
AcDbArc
 50
359.9999999999998
 51
90.00000000000005
  0
LINE
  5
257
330
2
100
AcDbEntity
  8
0
100
AcDbLine
 10
351.7062660534465
 20
100.3106197111883
 30
0.0
 11
353.4126732807744
 21
98.60421248385911
 31
0.0
  0
LINE
  5
258
330
2
100
AcDbEntity
  8
0
100
AcDbLine
 10
353.4163120768589
 20
100.3106197111883
 30
0.0
 11
351.709904849531
 21
98.60421248385911
 31
0.0
  0
CIRCLE
  5
259
330
2
100
AcDbEntity
  8
0
100
AcDbCircle
 10
352.5612890651537
 20
99.45559669948124
 30
0.0
 40
2.147836038934201
  0
LINE
  5
25A
330
2
100
AcDbEntity
  8
1
  6
BYBLOCK
 62
     0
100
AcDbLine
 10
315.1949410990055
 20
241.9052114813462
 30
0.0
 11
315.1949410990055
 21
214.3652114813448
 31
0.0
  0
LINE
  5
25B
330
2
100
AcDbEntity
  8
1
  6
BYBLOCK
 62
     0
100
AcDbLine
 10
255.951028018484
 20
241.9052114813462
 30
0.0
 11
255.951028018484
 21
214.3652114813448
 31
0.0
  0
TEXT
  5
25C
330
2
100
AcDbEntity
  8
1
  6
BYBLOCK
 62
     0
100
AcDbText
 10
262.5817472517192
 20
216.9804479583512
 30
0.0
 40
4.589999999999998
  1
K9G25~180B(C)
 41
0.8
  7
GHS
100
AcDbText
  0
TEXT
  5
25D
330
2
100
AcDbEntity
  8
1
  6
BYBLOCK
 62
     0
100
AcDbText
 10
262.6892574289504
 20
225.7235900964042
 30
0.0
 40
4.589999999999998
  1
K9G3~18B(C)
 41
0.8
  7
GHS
100
AcDbText
  0
TEXT
  5
25E
330
2
100
AcDbEntity
  8
1
  6
BYBLOCK
 62
     0
100
AcDbText
 10
258.5759745413852
 20
234.5174846398099
 30
0.0
 40
4.589999999999998
  1
APPLICATION MODEL
 41
0.8
  7
GHS
100
AcDbText
  0
LINE
  5
25F
102
{ACAD_REACTORS
330
34C
102
}
330
2
100
AcDbEntity
  8
0
100
AcDbLine
 10
275.2360906001559
 20
513.0978156753189
 30
0.0
 11
275.2360906001559
 21
423.097815675319
 31
0.0
  0
CIRCLE
  5
260
330
2
100
AcDbEntity
  8
0
100
AcDbCircle
 10
118.6875859289721
 20
468.097815675319
 30
0.0
 40
42.00000000000005
  0
CIRCLE
  5
261
330
2
100
AcDbEntity
  8
0
100
AcDbCircle
 10
155.4571385506751
 20
431.3282630536869
 30
0.0
 40
3.25
  0
LINE
  5
262
330
2
100
AcDbEntity
  8
CL
  6
CENTER
100
AcDbLine
 10
159.1694491518992
 20
427.6159524524573
 30
0.0
 11
151.7448279494456
 21
435.0405736549169
 31
0.0
  0
ARC
  5
263
330
2
100
AcDbEntity
  8
CL
  6
CENTER
100
AcDbCircle
 10
118.6875859289721
 20
468.0978156753867
 30
0.0
 40
52.0
100
AcDbArc
 50
309.2128702778047
 51
320.7871297221982
  0
LINE
  5
264
330
2
100
AcDbEntity
  8
0
100
AcDbLine
 10
73.68758592897211
 20
508.097815675388
 30
0.0
 11
73.68758592897211
 21
428.0978156753881
 31
0.0
  0
ARC
  5
265
330
2
100
AcDbEntity
  8
CL
  6
CENTER
100
AcDbCircle
 10
118.6875859289721
 20
468.0978156753867
 30
0.0
 40
52.0
100
AcDbArc
 50
217.5220799114929
 51
230.7871297221982
  0
CIRCLE
  5
266
330
2
100
AcDbEntity
  8
0
100
AcDbCircle
 10
81.91803330727271
 20
431.328263053686
 30
0.0
 40
3.25
  0
LINE
  5
267
330
2
100
AcDbEntity
  8
CL
  6
CENTER
100
AcDbLine
 10
78.20572270604134
 20
427.6159524524573
 30
0.0
 11
85.63034390850225
 21
435.0405736549155
 31
0.0
  0
LINE
  5
268
330
2
100
AcDbEntity
  8
0
100
AcDbLine
 10
163.6875859289721
 20
508.097815675388
 30
0.0
 11
163.6875859289721
 21
428.0978156753881
 31
0.0
  0
LINE
  5
269
102
{ACAD_REACTORS
330
26D
330
339
102
}
330
2
100
AcDbEntity
  8
0
100
AcDbLine
 10
236.2360906001558
 20
509.5978156753189
 30
0.0
 11
236.2360906001558
 21
426.597815675319
 31
0.0
  0
LINE
  5
26A
102
{ACAD_REACTORS
330
339
102
}
330
2
100
AcDbEntity
  8
0
100
AcDbLine
 10
238.2360906001558
 20
513.0978156753189
 30
0.0
 11
238.2360906001558
 21
423.097815675319
 31
0.0
  0
DIMENSION
  5
26B
102
{ACAD_XDICTIONARY
360
26C
102
}
102
{ACAD_REACTORS
330
26D
102
}
330
2
100
AcDbEntity
  8
0
100
AcDbDimension
  2
*D51
 10
210.7197222575123
 20
426.597815675319
 30
0.0
 11
210.7197222575123
 21
467.3564074944961
 31
0.0
 70
   160
  1
\A1;{\f??|b0|i0|c0|p49;%%c}<>{\f??|b0|i0|c0|p49;\H0.7x;\S+0^ -0.035;\H1.429x;(h7)}
  3
STANDARD
100
AcDbAlignedDimension
 13
236.2360906001558
 23
509.5978156753189
 33
0.0
 14
236.2360906001558
 24
426.597815675319
 34
0.0
 50
90.0
100
AcDbRotatedDimension
  0
LINE
  5
27A
330
2
100
AcDbEntity
  8
CEN
100
AcDbLine
 10
118.6875859289721
 20
416.5245135412082
 30
0.0
 11
118.6875859289721
 21
519.6711178095847
 31
0.0
  0
LINE
  5
27B
330
2
100
AcDbEntity
  8
0
100
AcDbLine
 10
238.2360906001558
 20
423.097815675319
 30
0.0
 11
275.2360906001559
 21
423.097815675319
 31
0.0
  0
DIMENSION
  5
27C
330
2
100
AcDbEntity
  8
0
100
AcDbDimension
  2
*D54
 10
179.1721155268151
 20
327.1270876335979
 30
0.0
 11
179.1721155268151
 21
344.8770876335988
 31
0.0
 70
   160
  1
{\f??|b0|i0|c0|p49;%%C}<>
  3
STANDARD
100
AcDbAlignedDimension
 13
247.6909227879295
 23
363.1270876335979
 33
0.0
 14
206.5832496538277
 24
327.1270876335979
 34
0.0
 50
90.0
100
AcDbRotatedDimension
  0
DIMENSION
  5
289
330
2
100
AcDbEntity
  8
0
100
AcDbDimension
  2
*D53
 10
250.1909227879295
 20
266.1215344219799
 30
0.0
 11
234.1909227879296
 21
268.6215344219799
 31
0.0
 70
    32
  3
STANDARD
100
AcDbAlignedDimension
 13
218.1909227879295
 23
337.1270876335988
 33
0.0
 14
250.1909227879295
 24
282.6270876335979
 34
0.0
 50
180.0
100
AcDbRotatedDimension
  0
LINE
  5
296
102
{ACAD_REACTORS
330
2FF
102
}
330
2
100
AcDbEntity
  8
CEN
 48
0.6
100
AcDbLine
 10
260.8363247929537
 20
345.1270876335979
 30
0.0
 11
214.2927839867043
 21
345.1270876335979
 31
0.0
  0
ARC
  5
297
330
2
100
AcDbEntity
  8
0
100
AcDbCircle
 10
247.6909227879295
 20
362.6270876335988
 30
0.0
 40
0.5
100
AcDbArc
 50
90.0
 51
180.0
  0
DIMENSION
  5
298
330
2
100
AcDbEntity
  8
0
100
AcDbDimension
  2
*D52
 10
247.1909227879296
 20
379.6464010573791
 30
0.0
 11
248.6909227879296
 21
379.6464010573791
 31
0.0
 70
   160
  3
STANDARD
100
AcDbAlignedDimension
 13
250.1909227879295
 23
371.6270876335988
 33
0.0
 14
247.1909227879296
 24
362.2735342430059
 34
0.0
 50
180.0
100
AcDbRotatedDimension
  0
ARC
  5
2A7
330
2
100
AcDbEntity
  8
0
100
AcDbCircle
 10
247.6909227879295
 20
327.6270876335988
 30
0.0
 40
0.5
100
AcDbArc
 50
180.0
 51
270.0
  0
ARC
  5
2A8
330
2
100
AcDbEntity
  8
2
 62
     7
100
AcDbCircle
 10
247.6909227879295
 20
327.6270876335988
 30
0.0
 40
0.4999999999999967
100
AcDbArc
 50
180.0
 51
270.0
  0
LINE
  5
2A9
102
{ACAD_REACTORS
330
2FF
102
}
330
2
100
AcDbEntity
  8
CEN
 48
0.6
100
AcDbLine
 10
206.5832496538277
 20
327.1270876335979
 30
0.0
 11
303.3503921275514
 21
327.1270876335979
 31
0.0
  0
LINE
  5
2AA
330
2
100
AcDbEntity
  8
0
100
AcDbLine
 10
78.68758592897211
 20
423.097815675389
 30
0.0
 11
158.6875859289721
 21
423.097815675389
 31
0.0
  0
ARC
  5
2AB
330
2
100
AcDbEntity
  8
0
100
AcDbCircle
 10
78.68758592897211
 20
428.0978156753881
 30
0.0
 40
5.0
100
AcDbArc
 50
180.0
 51
270.0
  0
ARC
  5
2AC
330
2
100
AcDbEntity
  8
0
100
AcDbCircle
 10
158.6875859289721
 20
428.0978156753881
 30
0.0
 40
5.0
100
AcDbArc
 50
270.0
 51
0.0
  0
LINE
  5
2AD
330
2
100
AcDbEntity
  8
0
100
AcDbLine
 10
238.2360906001558
 20
426.597815675319
 30
0.0
 11
236.2360906001558
 21
426.597815675319
 31
0.0
  0
LINE
  5
2AE
330
2
100
AcDbEntity
  8
0
100
AcDbLine
 10
147.0513088158077
 20
367.1056907542697
 30
0.0
 11
147.0513088158131
 21
287.1056907542697
 31
0.0
  0
LINE
  5
2AF
330
2
100
AcDbEntity
  8
CL
  6
CENTER
 48
0.6
100
AcDbLine
 10
102.126773129994
 20
274.9576802356464
 30
0.0
 11
102.126773129994
 21
379.2547103962497
 31
0.0
  0
LINE
  5
2B0
330
2
100
AcDbEntity
  8
0
100
AcDbLine
 10
57.05130881581317
 20
367.1056907542697
 30
0.0
 11
57.05130881581317
 21
287.1056907542697
 31
0.0
  0
CIRCLE
  5
2B1
330
2
100
AcDbEntity
  8
0
 48
0.6
100
AcDbCircle
 10
102.1267731300031
 20
327.1061953159482
 30
0.0
 40
41.5
  0
CIRCLE
  5
2B2
330
2
100
AcDbEntity
  8
0
100
AcDbCircle
 10
138.8963257516952
 20
290.3366426942393
 30
0.0
 40
3.25
  0
LINE
  5
2B3
330
2
100
AcDbEntity
  8
CL
  6
CENTER
100
AcDbLine
 10
142.6086363529211
 20
286.6243320930084
 30
0.0
 11
135.1840151504657
 21
294.0489532954666
 31
0.0
  0
ARC
  5
2B4
330
2
100
AcDbEntity
  8
CL
  6
CENTER
100
AcDbCircle
 10
102.126773129994
 20
327.1061953159392
 30
0.0
 40
52.0
100
AcDbArc
 50
309.2128702778047
 51
320.7871297221982
  0
ARC
  5
2B5
330
2
100
AcDbEntity
  8
0
100
AcDbCircle
 10
142.0513088158113
 20
287.1056907542697
 30
0.0
 40
5.0
100
AcDbArc
 50
270.0
 51
0.0
  0
ARC
  5
2B6
330
2
100
AcDbEntity
  8
CL
  6
CENTER
100
AcDbCircle
 10
102.126773129994
 20
327.1061953159392
 30
0.0
 40
52.0
100
AcDbArc
 50
217.5220799114929
 51
230.7871297221982
  0
CIRCLE
  5
2B7
330
2
100
AcDbEntity
  8
0
100
AcDbCircle
 10
65.35722050829281
 20
290.3366426942379
 30
0.0
 40
3.25
  0
LINE
  5
2B8
330
2
100
AcDbEntity
  8
CL
  6
CENTER
100
AcDbLine
 10
61.64490990706326
 20
286.6243320930084
 30
0.0
 11
69.06953110952418
 21
294.0489532954666
 31
0.0
  0
ARC
  5
2B9
330
2
100
AcDbEntity
  8
0
100
AcDbCircle
 10
62.05130881581135
 20
287.1056907542697
 30
0.0
 40
5.0
100
AcDbArc
 50
180.0
 51
270.0
  0
LINE
  5
2BA
330
2
100
AcDbEntity
  8
0
100
AcDbLine
 10
62.05130881581135
 20
282.1056907542697
 30
0.0
 11
142.0513088158113
 21
282.1056907542697
 31
0.0
  0
ARC
  5
2BB
102
{ACAD_REACTORS
330
311
102
}
330
2
100
AcDbEntity
  8
CL
  6
CENTER
100
AcDbCircle
 10
102.1267731300176
 20
327.106195315966
 30
0.0
 40
51.99999999996308
100
AcDbArc
 50
36.36425856586086
 51
50.78712972219959
  0
LINE
  5
2BC
330
2
100
AcDbEntity
  8
CL
  6
CENTER
100
AcDbLine
 10
142.6086363529211
 20
367.5880585388681
 30
0.0
 11
135.1840151504602
 21
360.1634373364108
 31
0.0
  0
CIRCLE
  5
2BD
330
2
100
AcDbEntity
  8
0
100
AcDbCircle
 10
138.8963257516916
 20
363.8757479376404
 30
0.0
 40
3.25
  0
ARC
  5
2BE
330
2
100
AcDbEntity
  8
0
100
AcDbCircle
 10
142.0513088158077
 20
367.1056907542697
 30
0.0
 40
5.0
100
AcDbArc
 50
0.0000000000006488
 51
90.0000000000003
  0
LWPOLYLINE
  5
2BF
330
2
100
AcDbEntity
  8
3
100
AcDbPolyline
 90
        4
 70
     1
 43
0.0
 10
94.98894133958675
 20
385.4432130126715
 10
98.28894133958602
 20
385.4432130126715
 10
98.28894133958602
 20
388.9432130126715
 10
94.98894133958675
 20
388.9432130126715
  0
LINE
  5
2C0
330
2
100
AcDbEntity
  8
0
 48
0.6
100
AcDbLine
 10
103.9919993626954
 20
350.8089079249475
 30
0.0
 11
103.9919993626954
 21
348.6046814609399
 31
0.0
  0
LINE
  5
2C1
330
2
100
AcDbEntity
  8
0
 48
0.6
100
AcDbLine
 10
99.99199936269542
 20
350.7135780354037
 30
0.0
 11
99.99199936269542
 21
348.6046814609399
 31
0.0
  0
LINE
  5
2C2
330
2
100
AcDbEntity
  8
0
 48
0.6
100
AcDbLine
 10
99.99199936269542
 20
348.6046814609399
 30
0.0
 11
103.9919993626954
 21
348.6046814609399
 31
0.0
  0
CIRCLE
  5
2C3
330
2
100
AcDbEntity
  8
0
 48
0.6
100
AcDbCircle
 10
102.126773129994
 20
345.1061953159483
 30
0.0
 40
6.0
  0
CIRCLE
  5
2C4
330
2
100
AcDbEntity
  8
0
100
AcDbCircle
 10
65.35722050828735
 20
363.8757479376376
 30
0.0
 40
3.25
  0
LINE
  5
2C5
330
2
100
AcDbEntity
  8
CL
  6
CENTER
100
AcDbLine
 10
61.64490990706326
 20
367.5880585388681
 30
0.0
 11
69.06953110951872
 21
360.163437336409
 31
0.0
  0
ARC
  5
2C6
330
2
100
AcDbEntity
  8
CL
  6
CENTER
100
AcDbCircle
 10
102.126773129994
 20
327.1061953159392
 30
0.0
 40
52.0
100
AcDbArc
 50
129.2128702778049
 51
140.7871297221982
  0
ARC
  5
2C7
330
2
100
AcDbEntity
  8
0
100
AcDbCircle
 10
62.05130881581135
 20
367.1056907542697
 30
0.0
 40
5.0
100
AcDbArc
 50
90.00000000000033
 51
180.0
  0
DIMENSION
  5
2C8
330
2
100
AcDbEntity
  8
0
100
AcDbDimension
  2
*D59
 10
147.1267731299867
 20
384.5847176613042
 30
0.0
 11
102.1267731299903
 21
384.5847176613042
 31
0.0
 70
   160
  3
STANDARD
100
AcDbAlignedDimension
 13
57.1267731299904
 23
367.0628969954031
 33
0.0
 14
147.1267731299867
 24
367.0628969954031
 34
0.0
100
AcDbRotatedDimension
  0
LINE
  5
2D5
330
2
100
AcDbEntity
  8
0
100
AcDbLine
 10
62.05130881581135
 20
372.1056907542697
 30
0.0
 11
142.0513088158077
 21
372.1056907542697
 31
0.0
  0
LINE
  5
2D6
330
2
100
AcDbEntity
  8
CEN
 48
0.6
100
AcDbLine
 10
81.12677312999222
 20
345.1061953159483
 30
0.0
 11
123.126773129994
 21
345.1061953159483
 31
0.0
  0
LINE
  5
2D7
330
2
100
AcDbEntity
  8
CEN
 48
0.6
100
AcDbLine
 10
49.30747294100547
 20
327.1061953159482
 30
0.0
 11
154.9460733189771
 21
327.1061953159482
 31
0.0
  0
CIRCLE
  5
2D8
330
2
100
AcDbEntity
  8
0
 48
0.6
100
AcDbCircle
 10
102.126773129994
 20
345.1061953159483
 30
0.0
 40
18.0
  0
MTEXT
  5
2D9
102
{ACAD_REACTORS
330
30E
102
}
330
2
100
AcDbEntity
  8
0
 62
     3
100
AcDbMText
 10
127.1363635918241
 20
397.2132493804601
 30
0.0
 40
3.0
 41
0.0
 71
     9
 72
     1
  1
4-%%C6.5 hole
1001
ACAD
1000
MTEXTBEGIN
1070
    73
1070
     1
1070
    44
1040
1.0
1070
    74
1070
     0
1000
MTEXTEND
  0
LINE
  5
2DA
102
{ACAD_REACTORS
330
2FF
102
}
330
2
100
AcDbEntity
  8
CEN
  6
HIDDEN
 62
     2
100
AcDbLine
 10
243.1909227879277
 20
348.6270876335988
 30
0.0
 11
218.1909227879295
 21
348.6270876335988
 31
0.0
  0
LINE
  5
2DB
102
{ACAD_REACTORS
330
2FF
102
}
330
2
100
AcDbEntity
  8
CEN
  6
BYBLOCK
 62
     0
100
AcDbLine
 10
247.1909227879296
 20
351.1270876335979
 30
0.0
 11
218.1909227879295
 21
351.1270876335979
 31
0.0
  0
LINE
  5
2DC
102
{ACAD_REACTORS
330
2FF
330
2ED
102
}
330
2
100
AcDbEntity
  8
CEN
  6
BYBLOCK
 62
     0
100
AcDbLine
 10
247.1909227879296
 20
339.1270876335988
 30
0.0
 11
218.1909227879295
 21
339.1270876335988
 31
0.0
  0
DIMENSION
  5
2DD
330
2
100
AcDbEntity
  8
0
100
AcDbDimension
  2
*D58
 10
218.1909227879295
 20
368.0029074961558
 30
0.0
 11
230.6909227879295
 21
368.0029074961558
 31
0.0
 70
   160
  3
STANDARD
100
AcDbAlignedDimension
 13
243.1909227879277
 23
351.1270876335979
 33
0.0
 14
218.1909227879295
 24
350.1270876335988
 34
0.0
 50
180.0
100
AcDbRotatedDimension
  0
LINE
  5
2EA
330
2
100
AcDbEntity
  8
0
100
AcDbLine
 10
218.1909227879295
 20
351.1270876335979
 30
0.0
 11
218.1909227879295
 21
339.1270876335988
 31
0.0
  0
DIMENSION
  5
2EB
102
{ACAD_XDICTIONARY
360
2EC
102
}
102
{ACAD_REACTORS
330
2ED
102
}
330
2
100
AcDbEntity
  8
0
100
AcDbDimension
  2
*D57
 10
203.6225619572578
 20
351.1270876335979
 30
0.0
 11
203.6225619572578
 21
379.3201715422924
 31
0.0
 70
   160
  1
\A1;{\f??|b0|i0|c0|p49;%%C12\H0.7x;\S+0^ -0.018;\H1.429x;(h7)}
  3
STANDARD
100
AcDbAlignedDimension
 13
218.1909227879295
 23
339.1270876335988
 33
0.0
 14
218.1909227879295
 24
351.1270876335979
 34
0.0
 50
90.0
100
AcDbRotatedDimension
  0
LINE
  5
2FC
330
2
100
AcDbEntity
  8
0
  6
HIDDEN
 62
     2
100
AcDbLine
 10
243.1909227879277
 20
351.1270876335979
 30
0.0
 11
243.1909227879277
 21
348.6270876335988
 31
0.0
  0
DIMENSION
  5
2FD
102
{ACAD_XDICTIONARY
360
2FE
102
}
102
{ACAD_REACTORS
330
2FF
102
}
330
2
100
AcDbEntity
  8
0
100
AcDbDimension
  2
*D56
 10
192.077682590323
 20
327.1270876335979
 30
0.0
 11
189.577682590323
 21
336.127087633598
 31
0.0
 70
    32
  3
STANDARD
100
AcDbAlignedDimension
 13
214.2927839867043
 23
345.1270876335979
 33
0.0
 14
206.5832496538277
 24
327.1270876335979
 34
0.0
 50
90.0
100
AcDbRotatedDimension
  0
LINE
  5
30C
330
2
100
AcDbEntity
  8
0
100
AcDbLine
 10
247.1909227879296
 20
362.6270876335988
 30
0.0
 11
247.1909227879296
 21
327.6270876335988
 31
0.0
  0
LINE
  5
30D
330
2
100
AcDbEntity
  8
2
 62
     7
100
AcDbLine
 10
247.1909227879296
 20
327.6270876335988
 30
0.0
 11
247.1909227879296
 21
329.1270876335989
 31
0.0
  0
LEADER
  5
30E
330
2
100
AcDbEntity
  8
0
100
AcDbLeader
  3
STANDARD
 73
     0
 75
     1
 40
3.0
 41
26.65178571428571
 76
     3
 10
138.9210176650867
 20
366.9704122502898
 30
0.0
 10
130.6363635918242
 20
396.2132493804602
 30
0.0
 10
128.1363635918241
 20
396.2132493804602
 30
0.0
340
2D9
1001
ACAD
1000
DSTYLE
1002
{
1070
     5
1000

1070
   342
1005
0
1002
}
  0
DIMENSION
  5
30F
102
{ACAD_XDICTIONARY
360
310
102
}
102
{ACAD_REACTORS
330
311
102
}
330
2
100
AcDbEntity
  8
0
100
AcDbDimension
  2
*D55
 10
61.83704327460711
 20
294.2316205174699
 30
0.0
 11
158.3488185408899
 21
372.9808101078038
 31
0.0
 70
   163
  1
<>%%P0.5
  3
STANDARD
100
AcDbDiametricDimension
 15
142.4165029853707
 25
359.9807701144152
 35
0.0
 40
0.0
  0
LINE
  5
31D
330
2
100
AcDbEntity
  8
0
100
AcDbLine
 10
292.1909227879296
 20
371.6270876335988
 30
0.0
 11
292.1909227879296
 21
282.6270876335979
 31
0.0
  0
LINE
  5
31E
330
2
100
AcDbEntity
  8
0
100
AcDbLine
 10
291.1909227879295
 20
282.6270876335979
 30
0.0
 11
291.1909227879295
 21
282.1270876335988
 31
0.0
  0
LINE
  5
31F
330
2
100
AcDbEntity
  8
0
100
AcDbLine
 10
292.1909227879296
 20
282.6270876335979
 30
0.0
 11
291.1909227879295
 21
282.6270876335979
 31
0.0
  0
LINE
  5
320
330
2
100
AcDbEntity
  8
0
100
AcDbLine
 10
291.1909227879295
 20
372.1270876335988
 30
0.0
 11
291.1909227879295
 21
371.6270876335988
 31
0.0
  0
LINE
  5
321
330
2
100
AcDbEntity
  8
0
100
AcDbLine
 10
292.1909227879296
 20
371.6270876335988
 30
0.0
 11
291.1909227879295
 21
371.6270876335988
 31
0.0
  0
LINE
  5
322
330
2
100
AcDbEntity
  8
0
100
AcDbLine
 10
250.1909227879295
 20
371.6270876335988
 30
0.0
 11
250.1909227879295
 21
282.6270876335979
 31
0.0
  0
ARC
  5
323
330
2
100
AcDbEntity
  8
0
100
AcDbCircle
 10
250.6909227879296
 20
282.6270876335979
 30
0.0
 40
0.5
100
AcDbArc
 50
180.0
 51
270.0
  0
ARC
  5
324
330
2
100
AcDbEntity
  8
0
100
AcDbCircle
 10
250.6909227879296
 20
371.6270876335988
 30
0.0
 40
0.5
100
AcDbArc
 50
90.0
 51
180.0
  0
LINE
  5
325
330
2
100
AcDbEntity
  8
0
100
AcDbLine
 10
247.6909227879295
 20
363.1270876335979
 30
0.0
 11
250.1909227879295
 21
363.1270876335979
 31
0.0
  0
LINE
  5
326
330
2
100
AcDbEntity
  8
0
100
AcDbLine
 10
247.6909227879295
 20
327.1270876335979
 30
0.0
 11
250.1909227879295
 21
327.1270876335979
 31
0.0
  0
LINE
  5
327
330
2
100
AcDbEntity
  8
2
 62
     7
100
AcDbLine
 10
250.1909227879295
 20
327.1270876335979
 30
0.0
 11
247.6909227879295
 21
327.1270876335979
 31
0.0
  0
DIMENSION
  5
328
330
2
100
AcDbEntity
  8
0
100
AcDbDimension
  2
*D60
 10
250.1909227879295
 20
266.1215344219799
 30
0.0
 11
271.1909227879295
 21
268.6215344219799
 31
0.0
 70
    32
  1
L
  3
STANDARD
100
AcDbAlignedDimension
 13
292.1909227879296
 23
282.6270876335979
 33
0.0
 14
250.1909227879295
 24
282.6270876335979
 34
0.0
 50
180.0
100
AcDbRotatedDimension
  0
LINE
  5
335
330
2
100
AcDbEntity
  8
0
100
AcDbLine
 10
291.1909227879295
 20
282.1270876335988
 30
0.0
 11
250.6909227879296
 21
282.1270876335988
 31
0.0
  0
LINE
  5
336
330
2
100
AcDbEntity
  8
0
100
AcDbLine
 10
291.1909227879295
 20
372.1270876335988
 30
0.0
 11
250.6909227879296
 21
372.1270876335988
 31
0.0
  0
DIMENSION
  5
337
102
{ACAD_XDICTIONARY
360
338
102
}
102
{ACAD_REACTORS
330
339
102
}
330
2
100
AcDbEntity
  8
0
100
AcDbDimension
  2
*D62
 10
238.2360906001558
 20
524.9234560687309
 30
0.0
 11
247.2360906001558
 21
524.9234560687309
 31
0.0
 70
   160
  3
STANDARD
100
AcDbAlignedDimension
 13
236.2360906001558
 23
509.5978156753189
 33
0.0
 14
238.2360906001558
 24
513.0978156753189
 34
0.0
100
AcDbRotatedDimension
  0
LINE
  5
348
330
2
100
AcDbEntity
  8
CEN
100
AcDbLine
 10
288.3010494559984
 20
468.097815675319
 30
0.0
 11
214.0916181597495
 21
468.097815675319
 31
0.0
  0
LINE
  5
349
102
{ACAD_REACTORS
330
34C
102
}
330
2
100
AcDbEntity
  8
0
100
AcDbLine
 10
238.2360906001558
 20
513.0978156753189
 30
0.0
 11
275.2360906001559
 21
513.0978156753189
 31
0.0
  0
DIMENSION
  5
34A
102
{ACAD_XDICTIONARY
360
34B
102
}
102
{ACAD_REACTORS
330
34C
102
}
330
2
100
AcDbEntity
  8
0
100
AcDbDimension
  2
*D61
 10
275.2360906001559
 20
535.1490964621429
 30
0.0
 11
256.7360906001558
 21
535.1490964621429
 31
0.0
 70
   160
  3
STANDARD
100
AcDbAlignedDimension
 13
238.2360906001558
 23
513.0978156753189
 33
0.0
 14
275.2360906001559
 24
513.0978156753189
 34
0.0
100
AcDbRotatedDimension
  0
LINE
  5
359
330
2
100
AcDbEntity
  8
CEN
100
AcDbLine
 10
69.43430971457201
 20
468.097815675319
 30
0.0
 11
167.9408621433722
 21
468.097815675319
 31
0.0
  0
LINE
  5
35A
330
2
100
AcDbEntity
  8
0
100
AcDbLine
 10
78.68758592897211
 20
513.097815675389
 30
0.0
 11
158.6875859289721
 21
513.097815675389
 31
0.0
  0
ARC
  5
35B
102
{ACAD_REACTORS
330
399
102
}
330
2
100
AcDbEntity
  8
CL
  6
CENTER
100
AcDbCircle
 10
118.6875859289975
 20
468.0978156754163
 30
0.0
 40
51.99999999996308
100
AcDbArc
 50
36.36425856586086
 51
50.78712972219959
  0
LINE
  5
35C
330
2
100
AcDbEntity
  8
CL
  6
CENTER
100
AcDbLine
 10
159.1694491518992
 20
508.5796788983184
 30
0.0
 11
151.7448279494419
 21
501.155057695858
 31
0.0
  0
CIRCLE
  5
35D
330
2
100
AcDbEntity
  8
0
100
AcDbCircle
 10
155.4571385506715
 20
504.8673682970879
 30
0.0
 40
3.25
  0
DIMENSION
  5
35E
330
2
100
AcDbEntity
  8
0
100
AcDbDimension
  2
*D65
 10
163.6875859289721
 20
526.4234594757767
 30
0.0
 11
118.6875859289721
 21
526.4234594757767
 31
0.0
 70
   160
  3
STANDARD
100
AcDbAlignedDimension
 13
73.68758592897211
 23
508.055021916522
 33
0.0
 14
163.6875859289721
 24
508.055021916522
 34
0.0
100
AcDbRotatedDimension
  0
CIRCLE
  5
36B
330
2
100
AcDbEntity
  8
0
100
AcDbCircle
 10
118.6875859289721
 20
468.097815675319
 30
0.0
 40
3.198036349121024
  0
CIRCLE
  5
36C
330
2
100
AcDbEntity
  8
0
100
AcDbCircle
 10
118.6875859289721
 20
468.097815675319
 30
0.0
 40
4.235
  0
CIRCLE
  5
36D
330
2
100
AcDbEntity
  8
0
100
AcDbCircle
 10
81.91803330726907
 20
504.8673682970879
 30
0.0
 40
3.25
  0
LINE
  5
36E
330
2
100
AcDbEntity
  8
CL
  6
CENTER
100
AcDbLine
 10
78.20572270604134
 20
508.5796788983184
 30
0.0
 11
85.63034390849862
 21
501.155057695858
 31
0.0
  0
ARC
  5
36F
330
2
100
AcDbEntity
  8
CL
  6
CENTER
100
AcDbCircle
 10
118.6875859289721
 20
468.0978156753881
 30
0.0
 40
52.0
100
AcDbArc
 50
129.2128702778049
 51
140.7871297221982
  0
ARC
  5
370
330
2
100
AcDbEntity
  8
0
100
AcDbCircle
 10
78.68758592897211
 20
508.097815675388
 30
0.0
 40
5.0
100
AcDbArc
 50
90.00000000000033
 51
180.0
  0
LWPOLYLINE
  5
371
330
2
100
AcDbEntity
  8
3
100
AcDbPolyline
 90
        4
 70
     1
 43
0.0
 10
111.59750185152
 20
527.0655757669796
 10
114.8975018515211
 20
527.0655757669796
 10
114.8975018515211
 20
530.5655757669792
 10
111.59750185152
 20
530.5655757669792
  0
ARC
  5
372
330
2
100
AcDbEntity
  8
0
100
AcDbCircle
 10
158.6875859289721
 20
508.097815675388
 30
0.0
 40
5.0
100
AcDbArc
 50
0.0000000000006488
 51
90.0000000000003
  0
MTEXT
  5
373
102
{ACAD_REACTORS
330
396
102
}
330
2
100
AcDbEntity
  8
0
 62
     3
100
AcDbMText
 10
144.6917961824619
 20
540.5460209806992
 30
0.0
 40
3.0
 41
0.0
 71
     9
 72
     1
  1
4-%%C6.5 hole
1001
ACAD
1000
MTEXTBEGIN
1070
    73
1070
     1
1070
    44
1040
1.0
1070
    74
1070
     0
1000
MTEXTEND
  0
LINE
  5
374
330
2
100
AcDbEntity
  8
0
100
AcDbLine
 10
221.2360906001558
 20
463.8628156753179
 30
0.0
 11
236.2360906001558
 21
463.8628156753179
 31
0.0
  0
LINE
  5
375
330
2
100
AcDbEntity
  8
0
100
AcDbLine
 10
221.2360906001558
 20
472.3328156753204
 30
0.0
 11
236.2360906001558
 21
472.3328156753204
 31
0.0
  0
LINE
  5
376
330
2
100
AcDbEntity
  8
CEN
100
AcDbLine
 10
218.3172787884741
 20
471.8223156753192
 30
0.0
 11
239.2360906001558
 21
471.8223156753192
 31
0.0
  0
LINE
  5
377
330
2
100
AcDbEntity
  8
CEN
100
AcDbLine
 10
218.3172787884741
 20
464.3733156753191
 30
0.0
 11
239.2360906001558
 21
464.3733156753191
 31
0.0
  0
LINE
  5
378
330
2
100
AcDbEntity
  8
2
100
AcDbLine
 10
231.2360906001558
 20
470.71790505233
 30
0.0
 11
221.2360906001558
 21
465.4255275847585
 31
0.0
  0
LINE
  5
379
330
2
100
AcDbEntity
  8
0
100
AcDbLine
 10
220.336090600158
 20
464.762815675318
 30
0.0
 11
231.2360906001558
 21
464.762815675318
 31
0.0
  0
LINE
  5
37A
330
2
100
AcDbEntity
  8
2
100
AcDbLine
 10
230.7142383327445
 20
471.4328156753176
 30
0.0
 11
221.2360906001558
 21
466.6446309235916
 31
0.0
  0
LINE
  5
37B
330
2
100
AcDbEntity
  8
0
100
AcDbLine
 10
220.336090600158
 20
471.4328156753176
 30
0.0
 11
231.2360906001558
 21
471.4328156753176
 31
0.0
  0
DIMENSION
  5
37C
330
2
100
AcDbEntity
  8
0
100
AcDbDimension
  2
*D64
 10
238.2360906001558
 20
535.1490964621429
 30
0.0
 11
229.2360906001558
 21
535.1490964621429
 31
0.0
 70
   160
  3
STANDARD
100
AcDbAlignedDimension
 13
220.2360906001558
 23
471.0978156753189
 33
0.0
 14
238.2360906001558
 24
513.0978156753189
 34
0.0
100
AcDbRotatedDimension
  0
LINE
  5
389
330
2
100
AcDbEntity
  8
2
100
AcDbLine
 10
221.2360906001558
 20
472.3328156753204
 30
0.0
 11
221.2360906001558
 21
463.8628156753179
 31
0.0
  0
LINE
  5
38A
330
2
100
AcDbEntity
  8
0
100
AcDbLine
 10
220.2360906001558
 20
464.8628156753179
 30
0.0
 11
221.2360906001558
 21
463.8628156753179
 31
0.0
  0
LINE
  5
38B
330
2
100
AcDbEntity
  8
0
100
AcDbLine
 10
220.2360906001558
 20
471.3328156753204
 30
0.0
 11
221.2360906001558
 21
472.3328156753204
 31
0.0
  0
LINE
  5
38C
330
2
100
AcDbEntity
  8
0
100
AcDbLine
 10
220.2360906001558
 20
471.3328156753204
 30
0.0
 11
220.2360906001558
 21
464.8628156753179
 31
0.0
  0
ARC
  5
38D
330
2
100
AcDbEntity
  8
0
100
AcDbCircle
 10
231.2792775109901
 20
498.2490465643386
 30
0.0
 40
26.81626566475105
100
AcDbArc
 50
269.9077265708258
 51
280.6520097392901
  0
ARC
  5
38E
330
2
100
AcDbEntity
  8
0
100
AcDbCircle
 10
231.2792775109901
 20
437.946584786268
 30
0.0
 40
26.81626566478071
100
AcDbArc
 50
79.34799026071575
 51
90.09227342916824
  0
LINE
  5
38F
330
2
100
AcDbEntity
  8
0
100
AcDbLine
 10
225.2360906001559
 20
463.8628156753179
 30
0.0
 11
236.2360906001558
 21
463.8628156753179
 31
0.0
  0
LINE
  5
390
330
2
100
AcDbEntity
  8
0
100
AcDbLine
 10
225.2360906001559
 20
472.3328156753204
 30
0.0
 11
236.2360906001558
 21
472.3328156753204
 31
0.0
  0
LINE
  5
391
330
2
100
AcDbEntity
  8
2
100
AcDbLine
 10
231.2360906001558
 20
471.197815675318
 30
0.0
 11
231.2360906001558
 21
464.997815675319
 31
0.0
  0
LINE
  5
392
330
2
100
AcDbEntity
  8
2
100
AcDbLine
 10
231.2360906001558
 20
469.5527155596692
 30
0.0
 11
222.0478662015338
 21
464.762815675318
 31
0.0
  0
LINE
  5
393
330
2
100
AcDbEntity
  8
0
100
AcDbLine
 10
238.2360906001558
 20
470.9178156753191
 30
0.0
 11
238.2360906001558
 21
465.2778156753202
 31
0.0
  0
LINE
  5
394
330
2
100
AcDbEntity
  8
0
100
AcDbLine
 10
238.2360906001558
 20
470.9178156753191
 30
0.0
 11
238.2360906001558
 21
465.2778156753202
 31
0.0
  0
LINE
  5
395
330
2
100
AcDbEntity
  8
0
100
AcDbLine
 10
238.2360906001558
 20
509.5978156753189
 30
0.0
 11
236.2360906001558
 21
509.5978156753189
 31
0.0
  0
LEADER
  5
396
330
2
100
AcDbEntity
  8
0
100
AcDbLeader
  3
STANDARD
 73
     0
 75
     1
 40
3.0
 41
26.65178571428571
 76
     3
 10
155.4817791254026
 20
508.0169901281228
 30
0.0
 10
148.1917961824619
 20
539.5460209806993
 30
0.0
 10
145.6917961824619
 20
539.5460209806993
 30
0.0
340
373
1001
ACAD
1000
DSTYLE
1002
{
1070
     5
1000

1070
   342
1005
0
1002
}
  0
DIMENSION
  5
397
102
{ACAD_XDICTIONARY
360
398
102
}
102
{ACAD_REACTORS
330
399
102
}
330
2
100
AcDbEntity
  8
0
100
AcDbDimension
  2
*D63
 10
78.39785607359079
 20
435.2232408769423
 30
0.0
 11
174.9096313398983
 21
513.9724304672506
 31
0.0
 70
   163
  1
<>%%P0.5
  3
STANDARD
100
AcDbDiametricDimension
 15
158.9773157843599
 25
500.972390473854
 35
0.0
 40
0.0
  0
ENDSEC
  0
SECTION
  2
OBJECTS
  0
DICTIONARY
  5
9
330
0
100
AcDbDictionary
  3
ACAD_GROUP
350
98
  3
ACAD_LAYOUT
350
D
  3
ACAD_MLINESTYLE
350
99
  3
ACAD_PLOTSETTINGS
350
9A
  3
ACAD_PLOTSTYLENAME
350
8
  3
ACDBHEADERROUNDTRIPXREC
350
55D
  3
ACDBVARIABLEDICTIONARY
350
3A5
  0
DICTIONARY
  5
15
330
14
100
AcDbDictionary
280
     1
  3
ACAD_LAYERFILTERS
360
16
  3
ACAD_LAYERSTATES
360
89
  0
DICTIONARY
  5
3
330
2
100
AcDbDictionary
280
     1
  3
ACAD_LAYOUTSELFREF
360
57E
  0
DICTIONARY
  5
F
330
E
100
AcDbDictionary
280
     1
  3
ACAD_LAYOUTSELFREF
360
57F
  0
DICTIONARY
  5
B0
330
AF
100
AcDbDictionary
280
     1
  3
ACAD_DIMASSOC
360
B1
  0
DICTIONARY
  5
126
330
125
100
AcDbDictionary
280
     1
  3
ACAD_DIMASSOC
360
127
  0
DICTIONARY
  5
15A
330
159
100
AcDbDictionary
280
     1
  3
ACAD_DIMASSOC
360
15B
  0
DICTIONARY
  5
16B
330
16A
100
AcDbDictionary
280
     1
  3
ACAD_DIMASSOC
360
16C
  0
DICTIONARY
  5
1E4
330
1E3
100
AcDbDictionary
280
     1
  3
ACAD_DIMASSOC
360
1E5
  0
DICTIONARY
  5
20B
330
20A
100
AcDbDictionary
280
     1
  3
ACAD_DIMASSOC
360
20C
  0
DICTIONARY
  5
220
330
21F
100
AcDbDictionary
280
     1
  3
ACAD_DIMASSOC
360
221
  0
DICTIONARY
  5
235
330
234
100
AcDbDictionary
280
     1
  3
ACAD_DIMASSOC
360
236
  0
DICTIONARY
  5
26C
330
26B
100
AcDbDictionary
280
     1
  3
ACAD_DIMASSOC
360
26D
  0
DICTIONARY
  5
2EC
330
2EB
100
AcDbDictionary
280
     1
  3
ACAD_DIMASSOC
360
2ED
  0
DICTIONARY
  5
2FE
330
2FD
100
AcDbDictionary
280
     1
  3
ACAD_DIMASSOC
360
2FF
  0
DICTIONARY
  5
310
330
30F
100
AcDbDictionary
280
     1
  3
ACAD_DIMASSOC
360
311
  0
DICTIONARY
  5
338
330
337
100
AcDbDictionary
280
     1
  3
ACAD_DIMASSOC
360
339
  0
DICTIONARY
  5
34B
330
34A
100
AcDbDictionary
280
     1
  3
ACAD_DIMASSOC
360
34C
  0
DICTIONARY
  5
398
330
397
100
AcDbDictionary
280
     1
  3
ACAD_DIMASSOC
360
399
  0
DICTIONARY
  5
98
102
{ACAD_REACTORS
330
9
102
}
330
9
100
AcDbDictionary
  0
DICTIONARY
  5
D
102
{ACAD_REACTORS
330
9
102
}
330
9
100
AcDbDictionary
  0
DICTIONARY
  5
99
102
{ACAD_REACTORS
330
9
102
}
330
9
100
AcDbDictionary
  3
STANDARD
350
9B
  0
DICTIONARY
  5
9A
102
{ACAD_REACTORS
330
9
102
}
330
9
100
AcDbDictionary
  0
ACDBDICTIONARYWDFLT
  5
8
102
{ACAD_REACTORS
330
9
102
}
330
9
100
AcDbDictionary
281
     1
  3
Normal
350
7
100
AcDbDictionaryWithDefault
340
7
  0
DICTIONARY
  5
55D
102
{ACAD_REACTORS
330
9
102
}
330
9
100
AcDbDictionary
  3
CEPSNTYPE
350
567
  3
DIMSTYLEDATA
350
56B
  3
FINGERPRINTGUID
350
568
  3
HYPERLINKBASE
350
560
  3
INSUNITS
350
566
  3
LAYOUTDICT
350
562
  3
LWETCUNION
350
565
  3
PLOTSETDICT
350
563
  3
PLOTSTYLNAMDICT
350
564
  3
PSVPSCALE
350
56A
  3
PUCSBASE
350
56E
  3
PUCSORGBACK
350
574
  3
PUCSORGBOTTOM
350
570
  3
PUCSORGFRONT
350
573
  3
PUCSORGLEFT
350
571
  3
PUCSORGRIGHT
350
572
  3
PUCSORGTOP
350
56F
  3
PUCSORTHOREF
350
56C
  3
PUCSORTHOVIEW
350
56D
  3
STYLESHEET
350
561
  3
TSTACKALIGN
350
55E
  3
TSTACKSIZE
350
55F
  3
UCSBASE
350
577
  3
UCSORGBACK
350
57D
  3
UCSORGBOTTOM
350
579
  3
UCSORGFRONT
350
57C
  3
UCSORGLEFT
350
57A
  3
UCSORGRIGHT
350
57B
  3
UCSORGTOP
350
578
  3
UCSORTHOREF
350
575
  3
UCSORTHOVIEW
350
576
  3
VERSIONGUID
350
569
  0
DICTIONARY
  5
3A5
102
{ACAD_REACTORS
330
9
102
}
330
9
100
AcDbDictionary
  3
DIMASSOC
350
3A7
  3
HIDETEXT
350
3A6
  0
DICTIONARY
  5
16
102
{ACAD_REACTORS
330
15
102
}
330
15
100
AcDbDictionary
280
     1
  3
$LAYERS
360
17
  3
-_UND_0
360
18
  3
-PEGC
360
19
  3
101
360
1A
  3
102
360
1B
  3
1DUC
360
1C
  3
1EQ
360
1D
  3
1TUB
360
1E
  3
2
360
1F
  3
2000
360
20
  3
50
360
21
  3
58J
360
22
  3
65
360
23
  3
AA
360
24
  3
ACABADOS
360
25
  3
AGUA_Y_DREN
360
26
  3
AIRE
360
27
  3
ALLE_AUS
360
28
  3
ALLES_MIT_S
360
29
  3
AMARILLO
360
2A
  3
APAGADOS
360
2B
  3
ARR
360
2C
  3
BA
360
2D
  3
BACKS
360
2E
  3
BASE
360
2F
  3
BLOQ_INUTIL
360
30
  3
CADKON
360
31
  3
CARPINTERIA
360
32
  3
CERRADOS
360
33
  3
COL
360
34
  3
COLOR
360
35
  3
COLOR_250
360
36
  3
COLORES
360
37
  3
CONGELADOS
360
38
  3
CONJUNTO
360
39
  3
D1
360
3A
  3
DA_
360
3B
  3
DET-
360
3C
  3
DOR-H
360
3D
  3
EJES
360
3E
  3
ELECTRICO
360
3F
  3
F1
360
40
  3
FROZEN
360
41
  3
GRID
360
42
  3
GRIDTXT
360
43
  3
HATCH
360
44
  3
HCAD
360
45
  3
INSTALACIONES
360
46
  3
JIZNI
360
47
  3
KCK
360
48
  3
KKK
360
49
  3
LAY
360
4A
  3
LAYER-0
360
4E
  3
LAYER-1
360
4F
  3
LAYER_1_UND_0
360
4B
  3
LAYER_2_UND_0
360
4C
  3
LAYER_9_UND_0_SCHRAFFUR
360
4D
  3
LOCK
360
50
  3
LOCKED
360
51
  3
LOTES
360
52
  3
LUNAR
360
53
  3
LUNAR2
360
54
  3
M
360
55
  3
MIS_LAYERS
360
56
  3
MRKCK
360
57
  3
NECADKON
360
58
  3
NI_LH
360
59
  3
NI_RH
360
5A
  3
NUM
360
5B
  3
OFF
360
5C
  3
ON
360
5D
  3
PBASE
360
5E
  3
PEGC
360
5F
  3
PEGCT
360
60
  3
PFRAME
360
61
  3
PGRID
360
62
  3
PGRIDT
360
63
  3
PLAFONES
360
64
  3
PLANTAS
360
65
  3
PLOT
360
66
  3
PRENDIDAS
360
67
  3
PRENDIDOS
360
68
  3
PRINT
360
69
  3
PT
360
6A
  3
PTH
360
6B
  3
PVGRID
360
6C
  3
RED_DE_AGUA_POTABLE
360
6D
  3
RED_DE_ENERGIA_ELECTRICA
360
6E
  3
SEVERNI
360
6F
  3
SHIN
360
70
  3
SHOW_ALL_LAYER
360
71
  3
SIN
360
72
  3
STORAGE-CART
360
73
  3
T
360
74
  3
TEXTOS
360
75
  3
TEXTURAS
360
76
  3
TUBERIAS
360
77
  3
UNFRZ
360
78
  3
V\U+0160ECHNY_NEPOU\U+017D\U+00CDVAN\U+00C9
360
79
  3
VA
360
7A
  3
VENTILACI\U+00D3N
360
7B
  3
VYHODNI
360
7C
  3
YO
360
7D
  3
ZAPADNI
360
7E
  3
사용
360
7F
  3
신규
360
80
  3
실박스
360
81
  3
우리토목
360
82
  3
주차
360
83
  3
지상정밀
360
84
  3
쩜선
360
85
  3
플로터_작업층
360
86
  3
현재_작업층
360
87
  3
현재_잠금
360
88
  0
DICTIONARY
  5
89
102
{ACAD_REACTORS
330
15
102
}
330
15
100
AcDbDictionary
  0
XRECORD
  5
57E
102
{ACAD_REACTORS
330
3
102
}
330
3
100
AcDbXrecord
340
2
  0
XRECORD
  5
57F
102
{ACAD_REACTORS
330
F
102
}
330
F
100
AcDbXrecord
340
E
  0
DIMASSOC
  5
B1
102
{ACAD_REACTORS
330
B0
102
}
330
B0
100
AcDbDimAssoc
330
AF
 90
        2
 70
     0
 71
     0
  1
AcDbOsnapPointRef
 72
     3
331
AE
 73
     2
 91
        0
 40
0.0
 10
0.0
 20
0.0
 30
0.0
 75
     0
  0
DIMASSOC
  5
127
102
{ACAD_REACTORS
330
126
102
}
330
126
100
AcDbDimAssoc
330
125
 90
        2
 70
     0
 71
     0
  1
AcDbOsnapPointRef
 72
     1
331
14F
 73
     2
 91
        0
 40
1.0
 10
246.1332317597007
 20
143.0561534390531
 30
0.0
 75
     0
  0
DIMASSOC
  5
15B
102
{ACAD_REACTORS
330
15A
102
}
330
15A
100
AcDbDimAssoc
330
159
 90
        1
 70
     0
 71
     0
  1
AcDbOsnapPointRef
 72
     1
331
1B8
 73
     2
 91
        0
 40
1.0
 10
166.6332317597007
 20
111.4574160975243
 30
0.0
 75
     0
  0
DIMASSOC
  5
16C
102
{ACAD_REACTORS
330
16B
102
}
330
16B
100
AcDbDimAssoc
330
16A
 90
        1
 70
     0
 71
     0
  1
AcDbOsnapPointRef
 72
     1
331
18E
 73
     2
 91
        0
 40
1.0
 10
162.7350929584754
 20
117.4574160975248
 30
0.0
 75
     0
  0
DIMASSOC
  5
1E5
102
{ACAD_REACTORS
330
1E4
102
}
330
1E4
100
AcDbDimAssoc
330
1E3
 90
        3
 70
     0
 71
     0
  1
AcDbOsnapPointRef
 72
     1
331
231
 73
     2
 91
        0
 40
1.0
 10
127.5429451516283
 20
218.0976976438642
 30
0.0
 75
     0
  1
AcDbOsnapPointRef
 72
     5
331
1F5
 73
     2
 91
        0
 40
1.570796326794896
 10
125.5429451516283
 20
220.5976976438628
 30
0.0
 75
     0
  0
DIMASSOC
  5
20C
102
{ACAD_REACTORS
330
20B
102
}
330
20B
100
AcDbDimAssoc
330
20A
 90
        3
 70
     0
 71
     0
  1
AcDbOsnapPointRef
 72
    13
331
1E2
 73
     2
 91
        0
 40
0.0
 10
78.60956541108135
 20
219.1979929308599
 30
0.0
 75
     0
  1
AcDbOsnapPointRef
 72
    13
331
1E1
 73
     2
 91
        0
 40
0.0
 10
82.60956541108317
 20
219.1979929308599
 30
0.0
 75
     0
  0
DIMASSOC
  5
221
102
{ACAD_REACTORS
330
220
102
}
330
220
100
AcDbDimAssoc
330
21F
 90
        3
 70
     0
 71
     0
  1
AcDbOsnapPointRef
 72
     2
331
1F7
 73
     2
 91
        0
 40
3.141592653589792
 10
36.43891212436938
 20
217.1979929308599
 30
0.0
 75
     0
  1
AcDbOsnapPointRef
 72
     1
331
21E
 73
     2
 91
        0
 40
1.0
 10
61.4389121243712
 20
219.1979929308599
 30
0.0
 75
     0
  0
DIMASSOC
  5
236
102
{ACAD_REACTORS
330
235
102
}
330
235
100
AcDbDimAssoc
330
234
 90
        3
 70
     0
 71
     0
  1
AcDbOsnapPointRef
 72
     1
331
232
 73
     2
 91
        0
 40
1.0
 10
123.5429451516283
 20
220.1802733388189
 30
0.0
 75
     0
  1
AcDbOsnapPointRef
 72
     1
331
233
 73
     2
 91
        0
 40
1.0
 10
127.5429451516283
 20
220.1802733388189
 30
0.0
 75
     0
  0
DIMASSOC
  5
26D
102
{ACAD_REACTORS
330
26C
102
}
330
26C
100
AcDbDimAssoc
330
26B
 90
        3
 70
     0
 71
     0
  1
AcDbOsnapPointRef
 72
    13
331
269
 73
     2
 91
        0
 40
0.0
 10
236.2360906001558
 20
509.5978156753189
 30
0.0
 75
     0
  1
AcDbOsnapPointRef
 72
     1
331
269
 73
     2
 91
        0
 40
1.0
 10
236.2360906001558
 20
426.597815675319
 30
0.0
 75
     0
  0
DIMASSOC
  5
2ED
102
{ACAD_REACTORS
330
2EC
102
}
330
2EC
100
AcDbDimAssoc
330
2EB
 90
        1
 70
     0
 71
     0
  1
AcDbOsnapPointRef
 72
     1
331
2DC
 73
     2
 91
        0
 40
1.0
 10
218.1909227879295
 20
339.1270876335988
 30
0.0
 75
     0
  0
DIMASSOC
  5
2FF
102
{ACAD_REACTORS
330
2FE
102
}
330
2FE
100
AcDbDimAssoc
330
2FD
 90
        3
 70
     0
 71
     0
  1
AcDbOsnapPointRef
 72
     1
331
296
 73
     2
 91
        0
 40
1.0
 10
214.2927839867043
 20
345.1270876335979
 30
0.0
 75
     0
  1
AcDbOsnapPointRef
 72
    13
331
2A9
 73
     2
 91
        0
 40
0.0
 10
206.5832496538277
 20
327.1270876335979
 30
0.0
 75
     0
  0
DIMASSOC
  5
311
102
{ACAD_REACTORS
330
310
102
}
330
310
100
AcDbDimAssoc
330
30F
 90
        2
 70
     0
 71
     0
  1
AcDbOsnapPointRef
 72
     3
331
2BB
 73
     2
 91
        0
 40
0.0
 10
102.1267731300176
 20
327.106195315966
 30
0.0
 75
     0
  0
DIMASSOC
  5
339
102
{ACAD_REACTORS
330
338
102
}
330
338
100
AcDbDimAssoc
330
337
 90
        3
 70
     0
 71
     0
  1
AcDbOsnapPointRef
 72
    13
331
269
 73
     2
 91
        0
 40
0.0
 10
236.2360906001558
 20
509.5978156753189
 30
0.0
 75
     0
  1
AcDbOsnapPointRef
 72
    13
331
26A
 73
     2
 91
        0
 40
0.0
 10
238.2360906001558
 20
513.0978156753189
 30
0.0
 75
     0
  0
DIMASSOC
  5
34C
102
{ACAD_REACTORS
330
34B
102
}
330
34B
100
AcDbDimAssoc
330
34A
 90
        3
 70
     0
 71
     0
  1
AcDbOsnapPointRef
 72
    13
331
349
 73
     2
 91
        0
 40
0.0
 10
238.2360906001558
 20
513.0978156753189
 30
0.0
 75
     0
  1
AcDbOsnapPointRef
 72
    13
331
25F
 73
     2
 91
        0
 40
0.0
 10
275.2360906001559
 20
513.0978156753189
 30
0.0
 75
     0
  0
DIMASSOC
  5
399
102
{ACAD_REACTORS
330
398
102
}
330
398
100
AcDbDimAssoc
330
397
 90
        2
 70
     0
 71
     0
  1
AcDbOsnapPointRef
 72
     3
331
35B
 73
     2
 91
        0
 40
0.0
 10
118.6875859289975
 20
468.0978156754163
 30
0.0
 75
     0
  0
MLINESTYLE
  5
9B
102
{ACAD_REACTORS
330
99
102
}
330
99
100
AcDbMlineStyle
  2
STANDARD
 70
     0
  3

 62
   256
 51
90.0
 52
90.0
 71
     2
 49
0.5
 62
   256
  6
BYLAYER
 49
-0.5
 62
   256
  6
BYLAYER
  0
ACDBPLACEHOLDER
  5
7
102
{ACAD_REACTORS
330
8
102
}
330
8
100
AcDbPlaceHolder
280
     0
  0
XRECORD
  5
567
102
{ACAD_REACTORS
330
55D
102
}
330
55D
100
AcDbXrecord
 90
        0
  0
XRECORD
  5
56B
102
{ACAD_REACTORS
330
55D
102
}
330
55D
100
AcDbXrecord
1000
DSTYLE
1002
{
1070
    79
 70
     2
1070
   179
 70
     1
1070
   289
 70
     0
1002
}
  0
XRECORD
  5
568
102
{ACAD_REACTORS
330
55D
102
}
330
55D
100
AcDbXrecord
  1
{FDEAD578-A652-11D2-9A35-0060089B3A3F}
  0
XRECORD
  5
560
102
{ACAD_REACTORS
330
55D
102
}
330
55D
100
AcDbXrecord
  1

  0
XRECORD
  5
566
102
{ACAD_REACTORS
330
55D
102
}
330
55D
100
AcDbXrecord
 90
        4
  0
XRECORD
  5
562
102
{ACAD_REACTORS
330
55D
102
}
330
55D
100
AcDbXrecord
340
D
  0
XRECORD
  5
565
102
{ACAD_REACTORS
330
55D
102
}
330
55D
100
AcDbXrecord
 90
    10781
  0
XRECORD
  5
563
102
{ACAD_REACTORS
330
55D
102
}
330
55D
100
AcDbXrecord
340
9A
  0
XRECORD
  5
564
102
{ACAD_REACTORS
330
55D
102
}
330
55D
100
AcDbXrecord
340
8
  0
XRECORD
  5
56A
102
{ACAD_REACTORS
330
55D
102
}
330
55D
100
AcDbXrecord
 40
0.0
  0
XRECORD
  5
56E
102
{ACAD_REACTORS
330
55D
102
}
330
55D
100
AcDbXrecord
340
0
  0
XRECORD
  5
574
102
{ACAD_REACTORS
330
55D
102
}
330
55D
100
AcDbXrecord
 10
0.0
 20
0.0
 30
0.0
  0
XRECORD
  5
570
102
{ACAD_REACTORS
330
55D
102
}
330
55D
100
AcDbXrecord
 10
0.0
 20
0.0
 30
0.0
  0
XRECORD
  5
573
102
{ACAD_REACTORS
330
55D
102
}
330
55D
100
AcDbXrecord
 10
0.0
 20
0.0
 30
0.0
  0
XRECORD
  5
571
102
{ACAD_REACTORS
330
55D
102
}
330
55D
100
AcDbXrecord
 10
0.0
 20
0.0
 30
0.0
  0
XRECORD
  5
572
102
{ACAD_REACTORS
330
55D
102
}
330
55D
100
AcDbXrecord
 10
0.0
 20
0.0
 30
0.0
  0
XRECORD
  5
56F
102
{ACAD_REACTORS
330
55D
102
}
330
55D
100
AcDbXrecord
 10
0.0
 20
0.0
 30
0.0
  0
XRECORD
  5
56C
102
{ACAD_REACTORS
330
55D
102
}
330
55D
100
AcDbXrecord
340
0
  0
XRECORD
  5
56D
102
{ACAD_REACTORS
330
55D
102
}
330
55D
100
AcDbXrecord
 70
     0
  0
XRECORD
  5
561
102
{ACAD_REACTORS
330
55D
102
}
330
55D
100
AcDbXrecord
  1

  0
XRECORD
  5
55E
102
{ACAD_REACTORS
330
55D
102
}
330
55D
100
AcDbXrecord
 90
        1
  0
XRECORD
  5
55F
102
{ACAD_REACTORS
330
55D
102
}
330
55D
100
AcDbXrecord
 90
       70
  0
XRECORD
  5
577
102
{ACAD_REACTORS
330
55D
102
}
330
55D
100
AcDbXrecord
340
0
  0
XRECORD
  5
57D
102
{ACAD_REACTORS
330
55D
102
}
330
55D
100
AcDbXrecord
 10
0.0
 20
0.0
 30
0.0
  0
XRECORD
  5
579
102
{ACAD_REACTORS
330
55D
102
}
330
55D
100
AcDbXrecord
 10
0.0
 20
0.0
 30
0.0
  0
XRECORD
  5
57C
102
{ACAD_REACTORS
330
55D
102
}
330
55D
100
AcDbXrecord
 10
0.0
 20
0.0
 30
0.0
  0
XRECORD
  5
57A
102
{ACAD_REACTORS
330
55D
102
}
330
55D
100
AcDbXrecord
 10
0.0
 20
0.0
 30
0.0
  0
XRECORD
  5
57B
102
{ACAD_REACTORS
330
55D
102
}
330
55D
100
AcDbXrecord
 10
0.0
 20
0.0
 30
0.0
  0
XRECORD
  5
578
102
{ACAD_REACTORS
330
55D
102
}
330
55D
100
AcDbXrecord
 10
0.0
 20
0.0
 30
0.0
  0
XRECORD
  5
575
102
{ACAD_REACTORS
330
55D
102
}
330
55D
100
AcDbXrecord
340
0
  0
XRECORD
  5
576
102
{ACAD_REACTORS
330
55D
102
}
330
55D
100
AcDbXrecord
 70
     0
  0
XRECORD
  5
569
102
{ACAD_REACTORS
330
55D
102
}
330
55D
100
AcDbXrecord
  1
{1CB44DA6-230E-4EBE-9414-85E8EAAD2860}
  0
DICTIONARYVAR
  5
3A7
102
{ACAD_REACTORS
330
3A5
102
}
330
3A5
100
DictionaryVariables
280
     0
  1
2
  0
DICTIONARYVAR
  5
3A6
102
{ACAD_REACTORS
330
3A5
102
}
330
3A5
100
DictionaryVariables
280
     0
  1
1
  0
XRECORD
  5
17
102
{ACAD_REACTORS
330
16
102
}
330
16
100
AcDbXrecord
  1
$layers
  1
*
  1
*
  1
*
 70
     0
  1
*
  1
*
  0
XRECORD
  5
18
102
{ACAD_REACTORS
330
16
102
}
330
16
100
AcDbXrecord
  1
- und 0
  1
-*,0
  1
*
  1
*
 70
     0
  1
*
  1
*
  0
XRECORD
  5
19
102
{ACAD_REACTORS
330
16
102
}
330
16
100
AcDbXrecord
  1
-pegc
  1
*-pegc
  1
*
  1
*
 70
     0
  1
*
  1
*
  0
XRECORD
  5
1A
102
{ACAD_REACTORS
330
16
102
}
330
16
100
AcDbXrecord
  1
101
  1
*101
  1
*
  1
*
 70
   256
  1
*
  1
*
  0
XRECORD
  5
1B
102
{ACAD_REACTORS
330
16
102
}
330
16
100
AcDbXrecord
  1
102
  1
102*
  1
*
  1
*
 70
     0
  1
*
  1
*
  0
XRECORD
  5
1C
102
{ACAD_REACTORS
330
16
102
}
330
16
100
AcDbXrecord
  1
1duc
  1
*1duc*
  1
*
  1
*
 70
     0
  1
*
  1
*
  0
XRECORD
  5
1D
102
{ACAD_REACTORS
330
16
102
}
330
16
100
AcDbXrecord
  1
1eq
  1
*1eq*
  1
*
  1
*
 70
     0
  1
*
  1
*
  0
XRECORD
  5
1E
102
{ACAD_REACTORS
330
16
102
}
330
16
100
AcDbXrecord
  1
1tub
  1
*1t*
  1
*
  1
*
 70
     0
  1
*
  1
*
  0
XRECORD
  5
1F
102
{ACAD_REACTORS
330
16
102
}
330
16
100
AcDbXrecord
  1
2
  1
*
  1
2
  1
*
 70
     0
  1
*
  1
*
  0
XRECORD
  5
20
102
{ACAD_REACTORS
330
16
102
}
330
16
100
AcDbXrecord
  1
2000
  1
2000*
  1
*
  1
*
 70
     0
  1
*
  1
*
  0
XRECORD
  5
21
102
{ACAD_REACTORS
330
16
102
}
330
16
100
AcDbXrecord
  1
50
  1
*-50
  1
*
  1
*
 70
     0
  1
*
  1
*
  0
XRECORD
  5
22
102
{ACAD_REACTORS
330
16
102
}
330
16
100
AcDbXrecord
  1
58J
  1
*58*
  1
*
  1
*
 70
     0
  1
*
  1
*
  0
XRECORD
  5
23
102
{ACAD_REACTORS
330
16
102
}
330
16
100
AcDbXrecord
  1
65
  1
*65
  1
*
  1
*
 70
     0
  1
*
  1
*
  0
XRECORD
  5
24
102
{ACAD_REACTORS
330
16
102
}
330
16
100
AcDbXrecord
  1
aa
  1
aa*
  1
*
  1
*
 70
     0
  1
*
  1
*
  0
XRECORD
  5
25
102
{ACAD_REACTORS
330
16
102
}
330
16
100
AcDbXrecord
  1
acabados
  1
a-*
  1
*
  1
*
 70
     5
  1
*
  1
*
  0
XRECORD
  5
26
102
{ACAD_REACTORS
330
16
102
}
330
16
100
AcDbXrecord
  1
AGUA Y DREN
  1
A-DS-*
  1
*
  1
*
 70
     0
  1
*
  1
*
  0
XRECORD
  5
27
102
{ACAD_REACTORS
330
16
102
}
330
16
100
AcDbXrecord
  1
Aire
  1
*
  1
*
  1
*
 70
     0
  1
*
  1
*
  0
XRECORD
  5
28
102
{ACAD_REACTORS
330
16
102
}
330
16
100
AcDbXrecord
  1
alle aus
  1
99999999999
  1
*
  1
*
 70
     0
  1
*
  1
*
  0
XRECORD
  5
29
102
{ACAD_REACTORS
330
16
102
}
330
16
100
AcDbXrecord
  1
Alles mit S
  1
s*
  1
*
  1
*
 70
     0
  1
*
  1
*
  0
XRECORD
  5
2A
102
{ACAD_REACTORS
330
16
102
}
330
16
100
AcDbXrecord
  1
amarillo
  1
*
  1
yellow
  1
*
 70
     0
  1
*
  1
*
  0
XRECORD
  5
2B
102
{ACAD_REACTORS
330
16
102
}
330
16
100
AcDbXrecord
  1
APAGADOS
  1
*
  1
*
  1
*
 70
     4
  1
*
  1
*
  0
XRECORD
  5
2C
102
{ACAD_REACTORS
330
16
102
}
330
16
100
AcDbXrecord
  1
ARR
  1
ARR*
  1
*
  1
*
 70
     0
  1
*
  1
*
  0
XRECORD
  5
2D
102
{ACAD_REACTORS
330
16
102
}
330
16
100
AcDbXrecord
  1
ba
  1
*
  1
*
  1
*
 70
     0
  1
*
  1
*
  0
XRECORD
  5
2E
102
{ACAD_REACTORS
330
16
102
}
330
16
100
AcDbXrecord
  1
BACKS
  1
*-H
  1
*
  1
*
 70
     0
  1
*
  1
*
  0
XRECORD
  5
2F
102
{ACAD_REACTORS
330
16
102
}
330
16
100
AcDbXrecord
  1
BASE
  1
*-PBASE
  1
*
  1
*
 70
     0
  1
*
  1
*
  0
XRECORD
  5
30
102
{ACAD_REACTORS
330
16
102
}
330
16
100
AcDbXrecord
  1
BLOQ_INUTIL
  1
*
  1
*
  1
*
 70
     0
  1
*
  1
*
  0
XRECORD
  5
31
102
{ACAD_REACTORS
330
16
102
}
330
16
100
AcDbXrecord
  1
CADKON
  1
?[KAHBSM]?????[23M],?[KAHBSM]?????[23M][1456A-DGHILN-SU-Z]
  1
*
  1
*
 70
     0
  1
*
  1
*
  0
XRECORD
  5
32
102
{ACAD_REACTORS
330
16
102
}
330
16
100
AcDbXrecord
  1
carpinteria
  1
carp*
  1
*
  1
*
 70
     0
  1
*
  1
*
  0
XRECORD
  5
33
102
{ACAD_REACTORS
330
16
102
}
330
16
100
AcDbXrecord
  1
cerrados
  1
*
  1
*
  1
*
 70
   256
  1
*
  1
*
  0
XRECORD
  5
34
102
{ACAD_REACTORS
330
16
102
}
330
16
100
AcDbXrecord
  1
COL
  1
*
  1
*
  1
*
 70
     1
  1
*
  1
*
  0
XRECORD
  5
35
102
{ACAD_REACTORS
330
16
102
}
330
16
100
AcDbXrecord
  1
COLOR
  1
*
  1
253
  1
*
 70
     0
  1
*
  1
*
  0
XRECORD
  5
36
102
{ACAD_REACTORS
330
16
102
}
330
16
100
AcDbXrecord
  1
color 250
  1
*
  1
250
  1
*
 70
     0
  1
*
  1
*
  0
XRECORD
  5
37
102
{ACAD_REACTORS
330
16
102
}
330
16
100
AcDbXrecord
  1
COLORES
  1
*
  1
6
  1
*
 70
     0
  1
*
  1
*
  0
XRECORD
  5
38
102
{ACAD_REACTORS
330
16
102
}
330
16
100
AcDbXrecord
  1
Congelados
  1
*
  1
*
  1
*
 70
     4
  1
*
  1
*
  0
XRECORD
  5
39
102
{ACAD_REACTORS
330
16
102
}
330
16
100
AcDbXrecord
  1
CONJUNTO
  1
CON-*
  1
*
  1
*
 70
     0
  1
*
  1
*
  0
XRECORD
  5
3A
102
{ACAD_REACTORS
330
16
102
}
330
16
100
AcDbXrecord
  1
d1
  1
achurados
  1
*
  1
*
 70
     0
  1
*
  1
*
  0
XRECORD
  5
3B
102
{ACAD_REACTORS
330
16
102
}
330
16
100
AcDbXrecord
  1
DA_
  1
DA*
  1
*
  1
*
 70
     0
  1
*
  1
*
  0
XRECORD
  5
3C
102
{ACAD_REACTORS
330
16
102
}
330
16
100
AcDbXrecord
  1
DET-
  1
*
  1
*
  1
*
 70
     0
  1
*
  1
*
  0
XRECORD
  5
3D
102
{ACAD_REACTORS
330
16
102
}
330
16
100
AcDbXrecord
  1
DOR-H
  1
*
  1
7
  1
*
 70
     0
  1
*
  1
*
  0
XRECORD
  5
3E
102
{ACAD_REACTORS
330
16
102
}
330
16
100
AcDbXrecord
  1
ejes
  1
eje*
  1
*
  1
*
 70
     0
  1
*
  1
*
  0
XRECORD
  5
3F
102
{ACAD_REACTORS
330
16
102
}
330
16
100
AcDbXrecord
  1
ELECTRICO
  1
ELEC-*
  1
*
  1
*
 70
     0
  1
*
  1
*
  0
XRECORD
  5
40
102
{ACAD_REACTORS
330
16
102
}
330
16
100
AcDbXrecord
  1
F1
  1
Halaxref*
  1
*
  1
*
 70
     0
  1
*
  1
*
  0
XRECORD
  5
41
102
{ACAD_REACTORS
330
16
102
}
330
16
100
AcDbXrecord
  1
frozen
  1
*
  1
*
  1
*
 70
     4
  1
*
  1
*
  0
XRECORD
  5
42
102
{ACAD_REACTORS
330
16
102
}
330
16
100
AcDbXrecord
  1
grid
  1
*-PGRID
  1
*
  1
*
 70
     1
  1
*
  1
*
  0
XRECORD
  5
43
102
{ACAD_REACTORS
330
16
102
}
330
16
100
AcDbXrecord
  1
GRIDTXT
  1
*-PGRIDT
  1
*
  1
*
 70
     0
  1
*
  1
*
  0
XRECORD
  5
44
102
{ACAD_REACTORS
330
16
102
}
330
16
100
AcDbXrecord
  1
HATCH
  1
HAT*
  1
*
  1
*
 70
     0
  1
*
  1
*
  0
XRECORD
  5
45
102
{ACAD_REACTORS
330
16
102
}
330
16
100
AcDbXrecord
  1
HCAD
  1
1HCAD-*
  1
*
  1
*
 70
    13
  1
*
  1
*
  0
XRECORD
  5
46
102
{ACAD_REACTORS
330
16
102
}
330
16
100
AcDbXrecord
  1
INSTALACIONES
  1
I-*
  1
*
  1
*
 70
     0
  1
*
  1
*
  0
XRECORD
  5
47
102
{ACAD_REACTORS
330
16
102
}
330
16
100
AcDbXrecord
  1
JIZNI
  1
*-J
  1
*
  1
*
 70
     0
  1
*
  1
*
  0
XRECORD
  5
48
102
{ACAD_REACTORS
330
16
102
}
330
16
100
AcDbXrecord
  1
kck
  1
*
  1
*
  1
*
 70
     0
  1
*
  1
*
  0
XRECORD
  5
49
102
{ACAD_REACTORS
330
16
102
}
330
16
100
AcDbXrecord
  1
kkk
  1
k
  1
*
  1
*
 70
     0
  1
*
  1
*
  0
XRECORD
  5
4A
102
{ACAD_REACTORS
330
16
102
}
330
16
100
AcDbXrecord
  1
lay
  1
??-*
  1
*
  1
*
 70
     0
  1
*
  1
*
  0
XRECORD
  5
4E
102
{ACAD_REACTORS
330
16
102
}
330
16
100
AcDbXrecord
  1
Layer-0
  1
0*
  1
*
  1
*
 70
     0
  1
*
  1
*
  0
XRECORD
  5
4F
102
{ACAD_REACTORS
330
16
102
}
330
16
100
AcDbXrecord
  1
Layer-1
  1
1*
  1
*
  1
*
 70
     0
  1
*
  1
*
  0
XRECORD
  5
4B
102
{ACAD_REACTORS
330
16
102
}
330
16
100
AcDbXrecord
  1
Layer 1 und 0
  1
1*,0
  1
*
  1
*
 70
     0
  1
*
  1
*
  0
XRECORD
  5
4C
102
{ACAD_REACTORS
330
16
102
}
330
16
100
AcDbXrecord
  1
Layer 2 und 0
  1
2*,0
  1
*
  1
*
 70
     0
  1
*
  1
*
  0
XRECORD
  5
4D
102
{ACAD_REACTORS
330
16
102
}
330
16
100
AcDbXrecord
  1
Layer 9 und 0 Schraffur
  1
9*,0
  1
*
  1
*
 70
     0
  1
*
  1
*
  0
XRECORD
  5
50
102
{ACAD_REACTORS
330
16
102
}
330
16
100
AcDbXrecord
  1
LOCK
  1
*
  1
*
  1
*
 70
   256
  1
*
  1
*
  0
XRECORD
  5
51
102
{ACAD_REACTORS
330
16
102
}
330
16
100
AcDbXrecord
  1
locked
  1
*
  1
*
  1
*
 70
   256
  1
*
  1
*
  0
XRECORD
  5
52
102
{ACAD_REACTORS
330
16
102
}
330
16
100
AcDbXrecord
  1
Lotes
  1
*
  1
*
  1
*
 70
     1
  1
*
  1
*
  0
XRECORD
  5
53
102
{ACAD_REACTORS
330
16
102
}
330
16
100
AcDbXrecord
  1
LUNAR
  1
*
  1
*
  1
*
 70
    48
  1
*
  1
*
  0
XRECORD
  5
54
102
{ACAD_REACTORS
330
16
102
}
330
16
100
AcDbXrecord
  1
LUNAR2
  1
*
  1
*
  1
*
 70
    12
  1
*
  1
*
  0
XRECORD
  5
55
102
{ACAD_REACTORS
330
16
102
}
330
16
100
AcDbXrecord
  1
M
  1
M*
  1
*
  1
*
 70
     0
  1
*
  1
*
  0
XRECORD
  5
56
102
{ACAD_REACTORS
330
16
102
}
330
16
100
AcDbXrecord
  1
mis_layers
  1
mis_*
  1
*
  1
*
 70
     0
  1
*
  1
*
  0
XRECORD
  5
57
102
{ACAD_REACTORS
330
16
102
}
330
16
100
AcDbXrecord
  1
MRKCK
  1
*
  1
*
  1
*
 70
     0
  1
*
  1
*
  0
XRECORD
  5
58
102
{ACAD_REACTORS
330
16
102
}
330
16
100
AcDbXrecord
  1
NECADKON
  1
~*?[KAHBSM]?????[23M]*
  1
*
  1
*
 70
     0
  1
*
  1
*
  0
XRECORD
  5
59
102
{ACAD_REACTORS
330
16
102
}
330
16
100
AcDbXrecord
  1
NI_LH
  1
NI_LH*
  1
*
  1
*
 70
     0
  1
*
  1
*
  0
XRECORD
  5
5A
102
{ACAD_REACTORS
330
16
102
}
330
16
100
AcDbXrecord
  1
NI_RH
  1
NI_RH*
  1
*
  1
*
 70
     0
  1
*
  1
*
  0
XRECORD
  5
5B
102
{ACAD_REACTORS
330
16
102
}
330
16
100
AcDbXrecord
  1
NUM
  1
NUM*
  1
*
  1
*
 70
     0
  1
*
  1
*
  0
XRECORD
  5
5C
102
{ACAD_REACTORS
330
16
102
}
330
16
100
AcDbXrecord
  1
off
  1
*
  1
*
  1
*
 70
     3
  1
*
  1
*
  0
XRECORD
  5
5D
102
{ACAD_REACTORS
330
16
102
}
330
16
100
AcDbXrecord
  1
on
  1
*
  1
*
  1
*
 70
     0
  1
*
  1
*
  0
XRECORD
  5
5E
102
{ACAD_REACTORS
330
16
102
}
330
16
100
AcDbXrecord
  1
PBASE
  1
*PBASE
  1
*
  1
*
 70
     0
  1
*
  1
*
  0
XRECORD
  5
5F
102
{ACAD_REACTORS
330
16
102
}
330
16
100
AcDbXrecord
  1
PEGC
  1
*PEGC
  1
*
  1
*
 70
     0
  1
*
  1
*
  0
XRECORD
  5
60
102
{ACAD_REACTORS
330
16
102
}
330
16
100
AcDbXrecord
  1
PEGCT
  1
*PEGCT
  1
*
  1
*
 70
     0
  1
*
  1
*
  0
XRECORD
  5
61
102
{ACAD_REACTORS
330
16
102
}
330
16
100
AcDbXrecord
  1
PFRAME
  1
PFRAME*
  1
*
  1
*
 70
     0
  1
*
  1
*
  0
XRECORD
  5
62
102
{ACAD_REACTORS
330
16
102
}
330
16
100
AcDbXrecord
  1
PGRID
  1
*PGRID
  1
*
  1
*
 70
     0
  1
*
  1
*
  0
XRECORD
  5
63
102
{ACAD_REACTORS
330
16
102
}
330
16
100
AcDbXrecord
  1
PGRIDT
  1
*PGRIDT
  1
*
  1
*
 70
     0
  1
*
  1
*
  0
XRECORD
  5
64
102
{ACAD_REACTORS
330
16
102
}
330
16
100
AcDbXrecord
  1
PLAFONES
  1
0-*
  1
*
  1
*
 70
     0
  1
*
  1
*
  0
XRECORD
  5
65
102
{ACAD_REACTORS
330
16
102
}
330
16
100
AcDbXrecord
  1
PLANTAS
  1
P-*
  1
*
  1
*
 70
     0
  1
*
  1
*
  0
XRECORD
  5
66
102
{ACAD_REACTORS
330
16
102
}
330
16
100
AcDbXrecord
  1
Plot
  1
*
  1
*
  1
*
 70
  1024
  1
*
  1
*
  0
XRECORD
  5
67
102
{ACAD_REACTORS
330
16
102
}
330
16
100
AcDbXrecord
  1
PRENDIDAS
  1
*
  1
*
  1
*
 70
    13
  1
*
  1
*
  0
XRECORD
  5
68
102
{ACAD_REACTORS
330
16
102
}
330
16
100
AcDbXrecord
  1
PRENDIDOS
  1
*
  1
*
  1
*
 70
    12
  1
*
  1
*
  0
XRECORD
  5
69
102
{ACAD_REACTORS
330
16
102
}
330
16
100
AcDbXrecord
  1
print
  1
*
  1
7
  1
*
 70
  1280
  1
*
  1
*
  0
XRECORD
  5
6A
102
{ACAD_REACTORS
330
16
102
}
330
16
100
AcDbXrecord
  1
PT
  1
PT-*
  1
*
  1
*
 70
     0
  1
*
  1
*
  0
XRECORD
  5
6B
102
{ACAD_REACTORS
330
16
102
}
330
16
100
AcDbXrecord
  1
PTH
  1
PTH*
  1
*
  1
*
 70
     0
  1
*
  1
*
  0
XRECORD
  5
6C
102
{ACAD_REACTORS
330
16
102
}
330
16
100
AcDbXrecord
  1
PVGRID
  1
*PVGRID
  1
*
  1
*
 70
     0
  1
*
  1
*
  0
XRECORD
  5
6D
102
{ACAD_REACTORS
330
16
102
}
330
16
100
AcDbXrecord
  1
Red de Agua Potable
  1
Red de Agua Potable
  1
*
  1
*
 70
     1
  1
*
  1
*
  0
XRECORD
  5
6E
102
{ACAD_REACTORS
330
16
102
}
330
16
100
AcDbXrecord
  1
Red de Energia Electrica
  1
Lotes
  1
*
  1
*
 70
     1
  1
*
  1
*
  0
XRECORD
  5
6F
102
{ACAD_REACTORS
330
16
102
}
330
16
100
AcDbXrecord
  1
SEVERNI
  1
*-S
  1
*
  1
*
 70
     0
  1
*
  1
*
  0
XRECORD
  5
70
102
{ACAD_REACTORS
330
16
102
}
330
16
100
AcDbXrecord
  1
shin
  1
일*
  1
*
  1
*
 70
     0
  1
*
  1
*
  0
XRECORD
  5
71
102
{ACAD_REACTORS
330
16
102
}
330
16
100
AcDbXrecord
  1
SHOW ALL LAYER
  1
*
  1
*
  1
*
 70
     0
  1
*
  1
*
  0
XRECORD
  5
72
102
{ACAD_REACTORS
330
16
102
}
330
16
100
AcDbXrecord
  1
sin
  1
sin
  1
*
  1
*
 70
     0
  1
*
  1
*
  0
XRECORD
  5
73
102
{ACAD_REACTORS
330
16
102
}
330
16
100
AcDbXrecord
  1
STORAGE-CART
  1
STORAGE-CART*
  1
*
  1
*
 70
     0
  1
*
  1
*
  0
XRECORD
  5
74
102
{ACAD_REACTORS
330
16
102
}
330
16
100
AcDbXrecord
  1
T
  1
T*
  1
*
  1
*
 70
     0
  1
*
  1
*
  0
XRECORD
  5
75
102
{ACAD_REACTORS
330
16
102
}
330
16
100
AcDbXrecord
  1
TEXTOS
  1
TXT*
  1
*
  1
*
 70
     0
  1
*
  1
*
  0
XRECORD
  5
76
102
{ACAD_REACTORS
330
16
102
}
330
16
100
AcDbXrecord
  1
TEXTURAS
  1
*TEXTURAS
  1
*
  1
*
 70
     0
  1
*
  1
*
  0
XRECORD
  5
77
102
{ACAD_REACTORS
330
16
102
}
330
16
100
AcDbXrecord
  1
TUBERIAS
  1
T*
  1
*
  1
*
 70
     0
  1
*
  1
*
  0
XRECORD
  5
78
102
{ACAD_REACTORS
330
16
102
}
330
16
100
AcDbXrecord
  1
UNFRZ
  1
*
  1
*
  1
*
 70
    12
  1
*
  1
*
  0
XRECORD
  5
79
102
{ACAD_REACTORS
330
16
102
}
330
16
100
AcDbXrecord
  1
v\U+0161echny nepou\U+017E\U+00EDvan\U+00E9
  1
*
  1
*
  1
*
 70
     0
  1
*
  1
*
  0
XRECORD
  5
7A
102
{ACAD_REACTORS
330
16
102
}
330
16
100
AcDbXrecord
  1
VA
  1
VA*
  1
*
  1
*
 70
     0
  1
*
  1
*
  0
XRECORD
  5
7B
102
{ACAD_REACTORS
330
16
102
}
330
16
100
AcDbXrecord
  1
Ventilaci\U+00F3n
  1
*
  1
*
  1
*
 70
     0
  1
*
  1
*
  0
XRECORD
  5
7C
102
{ACAD_REACTORS
330
16
102
}
330
16
100
AcDbXrecord
  1
VYHODNI
  1
*-V
  1
*
  1
*
 70
     0
  1
*
  1
*
  0
XRECORD
  5
7D
102
{ACAD_REACTORS
330
16
102
}
330
16
100
AcDbXrecord
  1
Yo
  1
Muros
  1
*
  1
*
 70
     0
  1
*
  1
*
  0
XRECORD
  5
7E
102
{ACAD_REACTORS
330
16
102
}
330
16
100
AcDbXrecord
  1
ZAPADNI
  1
*-Z
  1
*
  1
*
 70
     0
  1
*
  1
*
  0
XRECORD
  5
7F
102
{ACAD_REACTORS
330
16
102
}
330
16
100
AcDbXrecord
  1
사용
  1
*
  1
*
  1
*
 70
   256
  1
*
  1
*
  0
XRECORD
  5
80
102
{ACAD_REACTORS
330
16
102
}
330
16
100
AcDbXrecord
  1
신규
  1
신규
  1
*
  1
*
 70
     0
  1
*
  1
*
  0
XRECORD
  5
81
102
{ACAD_REACTORS
330
16
102
}
330
16
100
AcDbXrecord
  1
실박스
  1
BLO,SYM,SYM1,SYM2
  1
*
  1
*
 70
     0
  1
*
  1
*
  0
XRECORD
  5
82
102
{ACAD_REACTORS
330
16
102
}
330
16
100
AcDbXrecord
  1
우리토목
  1
w-*
  1
*
  1
*
 70
     0
  1
*
  1
*
  0
XRECORD
  5
83
102
{ACAD_REACTORS
330
16
102
}
330
16
100
AcDbXrecord
  1
주차
  1
car*
  1
*
  1
*
 70
     0
  1
*
  1
*
  0
XRECORD
  5
84
102
{ACAD_REACTORS
330
16
102
}
330
16
100
AcDbXrecord
  1
지상정밀
  1
*
  1
*
  1
*
 70
     0
  1
*
  1
*
  0
XRECORD
  5
85
102
{ACAD_REACTORS
330
16
102
}
330
16
100
AcDbXrecord
  1
쩜선
  1
*
  1
*
  1
*
 70
     0
  1
*
  1
*
  0
XRECORD
  5
86
102
{ACAD_REACTORS
330
16
102
}
330
16
100
AcDbXrecord
  1
플로터 작업층
  1
*
  1
*
  1
*
 70
  1025
  1
*
  1
*
  0
XRECORD
  5
87
102
{ACAD_REACTORS
330
16
102
}
330
16
100
AcDbXrecord
  1
현재 작업층
  1
*
  1
*
  1
*
 70
     1
  1
*
  1
*
  0
XRECORD
  5
88
102
{ACAD_REACTORS
330
16
102
}
330
16
100
AcDbXrecord
  1
현재 잠금
  1
*
  1
*
  1
*
 70
   257
  1
*
  1
*
  0
ENDSEC
  0
EOF
