  0
SECTION
  2
HEADER
  9
$ACADVER
  1
AC1014
  9
$ACADMAINTVER
 70
     9
  9
$DWGCODEPAGE
  3
ANSI_949
  9
$INSBASE
 10
0.0
 20
0.0
 30
0.0
  9
$EXTMIN
 10
2.370226262559299
 20
-2.420472120418708
 30
-0.0015258207003583
  9
$EXTMAX
 10
371.44400822038
 20
544.0425576822235
 30
0.0000000349246037
  9
$LIMMIN
 10
0.0
 20
0.0
  9
$LIMMAX
 10
420.0
 20
297.0
  9
$ORTHOMODE
 70
     0
  9
$REGENMODE
 70
     1
  9
$FILLMODE
 70
     1
  9
$QTEXTMODE
 70
     0
  9
$MIRRTEXT
 70
     0
  9
$DRAGMODE
 70
     2
  9
$LTSCALE
 40
0.2
  9
$OSMODE
 70
   567
  9
$ATTMODE
 70
     1
  9
$TEXTSIZE
 40
5.777225951253058
  9
$TRACEWID
 40
1.0
  9
$TEXTSTYLE
  7
STANDARD
  9
$CLAYER
  8
0
  9
$CELTYPE
  6
BYLAYER
  9
$CECOLOR
 62
   256
  9
$CELTSCALE
 40
1.0
  9
$DELOBJ
 70
     1
  9
$DISPSILH
 70
     0
  9
$DIMSCALE
 40
1.0
  9
$DIMASZ
 40
3.0
  9
$DIMEXO
 40
1.0
  9
$DIMDLI
 40
10.0
  9
$DIMRND
 40
0.0
  9
$DIMDLE
 40
0.0
  9
$DIMEXE
 40
0.6
  9
$DIMTP
 40
0.0
  9
$DIMTM
 40
0.0
  9
$DIMTXT
 40
3.5
  9
$DIMCEN
 40
0.09
  9
$DIMTSZ
 40
0.0
  9
$DIMTOL
 70
     0
  9
$DIMLIM
 70
     0
  9
$DIMTIH
 70
     0
  9
$DIMTOH
 70
     0
  9
$DIMSE1
 70
     0
  9
$DIMSE2
 70
     0
  9
$DIMTAD
 70
     1
  9
$DIMZIN
 70
     8
  9
$DIMBLK
  1

  9
$DIMASO
 70
     1
  9
$DIMSHO
 70
     1
  9
$DIMPOST
  1

  9
$DIMAPOST
  1

  9
$DIMALT
 70
     0
  9
$DIMALTD
 70
     2
  9
$DIMALTF
 40
25.4
  9
$DIMLFAC
 40
1.0
  9
$DIMTOFL
 70
     1
  9
$DIMTVP
 40
0.0
  9
$DIMTIX
 70
     1
  9
$DIMSOXD
 70
     0
  9
$DIMSAH
 70
     0
  9
$DIMBLK1
  1

  9
$DIMBLK2
  1

  9
$DIMSTYLE
  2
1_1_2
  9
$DIMCLRD
 70
   123
  9
$DIMCLRE
 70
   123
  9
$DIMCLRT
 70
     3
  9
$DIMTFAC
 40
1.0
  9
$DIMGAP
 40
1.0
  9
$DIMJUST
 70
     0
  9
$DIMSD1
 70
     0
  9
$DIMSD2
 70
     0
  9
$DIMTOLJ
 70
     1
  9
$DIMTZIN
 70
     0
  9
$DIMALTZ
 70
     0
  9
$DIMALTTZ
 70
     0
  9
$DIMFIT
 70
     0
  9
$DIMUPT
 70
     1
  9
$DIMUNIT
 70
     2
  9
$DIMDEC
 70
     2
  9
$DIMTDEC
 70
     2
  9
$DIMALTU
 70
     2
  9
$DIMALTTD
 70
     2
  9
$DIMTXSTY
  7
STANDARD
  9
$DIMAUNIT
 70
     1
  9
$LUNITS
 70
     2
  9
$LUPREC
 70
     4
  9
$SKETCHINC
 40
1.0
  9
$FILLETRAD
 40
0.5
  9
$AUNITS
 70
     0
  9
$AUPREC
 70
     0
  9
$MENU
  1
.
  9
$ELEVATION
 40
0.0
  9
$PELEVATION
 40
0.0
  9
$THICKNESS
 40
0.0
  9
$LIMCHECK
 70
     0
  9
$BLIPMODE
 70
     1
  9
$CHAMFERA
 40
1.0
  9
$CHAMFERB
 40
1.0
  9
$CHAMFERC
 40
20.0
  9
$CHAMFERD
 40
0.0
  9
$SKPOLY
 70
     0
  9
$TDCREATE
 40
2452839.586179271
  9
$TDUPDATE
 40
2453376.729943564
  9
$TDINDWG
 40
11.1166561111
  9
$TDUSRTIMER
 40
11.1166559375
  9
$USRTIMER
 70
     1
  9
$ANGBASE
 50
0.0
  9
$ANGDIR
 70
     0
  9
$PDMODE
 70
     0
  9
$PDSIZE
 40
0.0
  9
$PLINEWID
 40
0.0
  9
$COORDS
 70
     2
  9
$SPLFRAME
 70
     0
  9
$SPLINETYPE
 70
     6
  9
$SPLINESEGS
 70
   800
  9
$ATTDIA
 70
     0
  9
$ATTREQ
 70
     1
  9
$HANDLING
 70
 22529
  9
$HANDSEED
  5
530
  9
$SURFTAB1
 70
     6
  9
$SURFTAB2
 70
     6
  9
$SURFTYPE
 70
     6
  9
$SURFU
 70
     6
  9
$SURFV
 70
     6
  9
$UCSNAME
  2

  9
$UCSORG
 10
0.0
 20
0.0
 30
0.0
  9
$UCSXDIR
 10
1.0
 20
0.0
 30
0.0
  9
$UCSYDIR
 10
0.0
 20
1.0
 30
0.0
  9
$PUCSNAME
  2

  9
$PUCSORG
 10
0.0
 20
0.0
 30
0.0
  9
$PUCSXDIR
 10
1.0
 20
0.0
 30
0.0
  9
$PUCSYDIR
 10
0.0
 20
1.0
 30
0.0
  9
$USERI1
 70
     0
  9
$USERI2
 70
     0
  9
$USERI3
 70
     0
  9
$USERI4
 70
     0
  9
$USERI5
 70
     0
  9
$USERR1
 40
0.0
  9
$USERR2
 40
0.0
  9
$USERR3
 40
0.0
  9
$USERR4
 40
0.0
  9
$USERR5
 40
0.0
  9
$WORLDVIEW
 70
     1
  9
$SHADEDGE
 70
     3
  9
$SHADEDIF
 70
    70
  9
$TILEMODE
 70
     1
  9
$MAXACTVP
 70
    48
  9
$PINSBASE
 10
0.0
 20
0.0
 30
0.0
  9
$PLIMCHECK
 70
     0
  9
$PEXTMIN
 10
0.0
 20
0.0
 30
0.0
  9
$PEXTMAX
 10
0.0
 20
0.0
 30
0.0
  9
$PLIMMIN
 10
0.0
 20
0.0
  9
$PLIMMAX
 10
12.0
 20
9.0
  9
$UNITMODE
 70
     0
  9
$VISRETAIN
 70
     1
  9
$PLINEGEN
 70
     0
  9
$PSLTSCALE
 70
     1
  9
$TREEDEPTH
 70
  3020
  9
$PICKSTYLE
 70
     0
  9
$CMLSTYLE
  2
STANDARD
  9
$CMLJUST
 70
     0
  9
$CMLSCALE
 40
20.0
  9
$PROXYGRAPHICS
 70
     1
  9
$MEASUREMENT
 70
     1
  0
ENDSEC
  0
SECTION
  2
CLASSES
  0
CLASS
  1
ACDBDICTIONARYWDFLT
  2
AcDbDictionaryWithDefault
  3
AutoCAD 2000
 90
        0
280
     0
281
     0
  0
CLASS
  1
ACDBPLACEHOLDER
  2
AcDbPlaceHolder
  3
AutoCAD 2000
 90
        0
280
     0
281
     0
  0
CLASS
  1
LAYOUT
  2
AcDbLayout
  3
AutoCAD 2000
 90
        0
280
     0
281
     0
  0
CLASS
  1
DICTIONARYVAR
  2
AcDbDictionaryVar
  3
AutoCAD 2000
 90
        0
280
     0
281
     0
  0
CLASS
  1
DIMASSOC
  2
AcDbDimAssoc
  3
"AcDbDimAssoc|Product Desc:     AcDim ARX App For Dimension|Company:          Autodesk, Inc.|WEB Address:      www.autodesk.com"
 90
        0
280
     0
281
     0
  0
CLASS
  1
LONG_TRANSACTION
  2
AcDbLongTransaction
  3
AutoCAD 2000
 90
        0
280
     0
281
     0
  0
CLASS
  1
LWPOLYLINE
  2
AcDbPolyline
  3
AutoCAD 2000
 90
        0
280
     0
281
     1
  0
CLASS
  1
HATCH
  2
AcDbHatch
  3
AutoCAD 2000
 90
        0
280
     0
281
     1
  0
CLASS
  1
XRECORD
  2
AcDbXrecord
  3
AutoCAD 2000
 90
        0
280
     0
281
     0
  0
CLASS
  1
LONG_TRANSACTION
  2
AcDbLongTransaction
  3
AutoCAD 2000
 90
        0
280
     0
281
     0
  0
CLASS
  1
LWPOLYLINE
  2
AcDbPolyline
  3
AutoCAD 2000
 90
        0
280
     0
281
     1
  0
CLASS
  1
HATCH
  2
AcDbHatch
  3
AutoCAD 2000
 90
        0
280
     0
281
     1
  0
CLASS
  1
XRECORD
  2
AcDbXrecord
  3
AutoCAD 2000
 90
        0
280
     0
281
     0
  0
CLASS
  1
LONG_TRANSACTION
  2
AcDbLongTransaction
  3
AutoCAD 2000
 90
        0
280
     0
281
     0
  0
CLASS
  1
LWPOLYLINE
  2
AcDbPolyline
  3
AutoCAD 2000
 90
        0
280
     0
281
     1
  0
CLASS
  1
HATCH
  2
AcDbHatch
  3
AutoCAD 2000
 90
        0
280
     0
281
     1
  0
CLASS
  1
XRECORD
  2
AcDbXrecord
  3
AutoCAD 2000
 90
        0
280
     0
281
     0
  0
CLASS
  1
LONG_TRANSACTION
  2
AcDbLongTransaction
  3
AutoCAD 2000
 90
        0
280
     0
281
     0
  0
CLASS
  1
LWPOLYLINE
  2
AcDbPolyline
  3
AutoCAD 2000
 90
        0
280
     0
281
     1
  0
CLASS
  1
HATCH
  2
AcDbHatch
  3
AutoCAD 2000
 90
        0
280
     0
281
     1
  0
CLASS
  1
XRECORD
  2
AcDbXrecord
  3
AutoCAD 2000
 90
        0
280
     0
281
     0
  0
CLASS
  1
LONG_TRANSACTION
  2
AcDbLongTransaction
  3
AutoCAD 2000
 90
        0
280
     0
281
     0
  0
CLASS
  1
LWPOLYLINE
  2
AcDbPolyline
  3
AutoCAD 2000
 90
        0
280
     0
281
     1
  0
CLASS
  1
HATCH
  2
AcDbHatch
  3
AutoCAD 2000
 90
        0
280
     0
281
     1
  0
CLASS
  1
XRECORD
  2
AcDbXrecord
  3
AutoCAD 2000
 90
        0
280
     0
281
     0
  0
CLASS
  1
LONG_TRANSACTION
  2
AcDbLongTransaction
  3
AutoCAD 2000
 90
        0
280
     0
281
     0
  0
CLASS
  1
LWPOLYLINE
  2
AcDbPolyline
  3
AutoCAD 2000
 90
        0
280
     0
281
     1
  0
CLASS
  1
HATCH
  2
AcDbHatch
  3
AutoCAD 2000
 90
        0
280
     0
281
     1
  0
CLASS
  1
XRECORD
  2
AcDbXrecord
  3
AutoCAD 2000
 90
        0
280
     0
281
     0
  0
CLASS
  1
LONG_TRANSACTION
  2
AcDbLongTransaction
  3
AutoCAD 2000
 90
        0
280
     0
281
     0
  0
CLASS
  1
LWPOLYLINE
  2
AcDbPolyline
  3
AutoCAD 2000
 90
        0
280
     0
281
     1
  0
CLASS
  1
HATCH
  2
AcDbHatch
  3
AutoCAD 2000
 90
        0
280
     0
281
     1
  0
CLASS
  1
XRECORD
  2
AcDbXrecord
  3
AutoCAD 2000
 90
        0
280
     0
281
     0
  0
CLASS
  1
LONG_TRANSACTION
  2
AcDbLongTransaction
  3
AutoCAD 2000
 90
        0
280
     0
281
     0
  0
CLASS
  1
LWPOLYLINE
  2
AcDbPolyline
  3
AutoCAD 2000
 90
        0
280
     0
281
     1
  0
CLASS
  1
HATCH
  2
AcDbHatch
  3
AutoCAD 2000
 90
        0
280
     0
281
     1
  0
CLASS
  1
XRECORD
  2
AcDbXrecord
  3
AutoCAD 2000
 90
        0
280
     0
281
     0
  0
CLASS
  1
LONG_TRANSACTION
  2
AcDbLongTransaction
  3
AutoCAD 2000
 90
        0
280
     0
281
     0
  0
CLASS
  1
LWPOLYLINE
  2
AcDbPolyline
  3
AutoCAD 2000
 90
        0
280
     0
281
     1
  0
CLASS
  1
HATCH
  2
AcDbHatch
  3
AutoCAD 2000
 90
        0
280
     0
281
     1
  0
CLASS
  1
XRECORD
  2
AcDbXrecord
  3
AutoCAD 2000
 90
        0
280
     0
281
     0
  0
CLASS
  1
LONG_TRANSACTION
  2
AcDbLongTransaction
  3
AutoCAD 2000
 90
        0
280
     0
281
     0
  0
CLASS
  1
LWPOLYLINE
  2
AcDbPolyline
  3
AutoCAD 2000
 90
        0
280
     0
281
     1
  0
CLASS
  1
HATCH
  2
AcDbHatch
  3
AutoCAD 2000
 90
        0
280
     0
281
     1
  0
CLASS
  1
XRECORD
  2
AcDbXrecord
  3
AutoCAD 2000
 90
        0
280
     0
281
     0
  0
CLASS
  1
LONG_TRANSACTION
  2
AcDbLongTransaction
  3
AutoCAD 2000
 90
        0
280
     0
281
     0
  0
CLASS
  1
LWPOLYLINE
  2
AcDbPolyline
  3
AutoCAD 2000
 90
        0
280
     0
281
     1
  0
CLASS
  1
HATCH
  2
AcDbHatch
  3
AutoCAD 2000
 90
        0
280
     0
281
     1
  0
CLASS
  1
XRECORD
  2
AcDbXrecord
  3
AutoCAD 2000
 90
        0
280
     0
281
     0
  0
CLASS
  1
LONG_TRANSACTION
  2
AcDbLongTransaction
  3
AutoCAD 2000
 90
        0
280
     0
281
     0
  0
CLASS
  1
LWPOLYLINE
  2
AcDbPolyline
  3
AutoCAD 2000
 90
        0
280
     0
281
     1
  0
CLASS
  1
HATCH
  2
AcDbHatch
  3
AutoCAD 2000
 90
        0
280
     0
281
     1
  0
CLASS
  1
XRECORD
  2
AcDbXrecord
  3
AutoCAD 2000
 90
        0
280
     0
281
     0
  0
CLASS
  1
LONG_TRANSACTION
  2
AcDbLongTransaction
  3
AutoCAD 2000
 90
        0
280
     0
281
     0
  0
CLASS
  1
LWPOLYLINE
  2
AcDbPolyline
  3
AutoCAD 2000
 90
        0
280
     0
281
     1
  0
CLASS
  1
HATCH
  2
AcDbHatch
  3
AutoCAD 2000
 90
        0
280
     0
281
     1
  0
CLASS
  1
XRECORD
  2
AcDbXrecord
  3
AutoCAD 2000
 90
        0
280
     0
281
     0
  0
CLASS
  1
LONG_TRANSACTION
  2
AcDbLongTransaction
  3
AutoCAD 2000
 90
        0
280
     0
281
     0
  0
CLASS
  1
LWPOLYLINE
  2
AcDbPolyline
  3
AutoCAD 2000
 90
        0
280
     0
281
     1
  0
CLASS
  1
HATCH
  2
AcDbHatch
  3
AutoCAD 2000
 90
        0
280
     0
281
     1
  0
CLASS
  1
XRECORD
  2
AcDbXrecord
  3
AutoCAD 2000
 90
        0
280
     0
281
     0
  0
CLASS
  1
LONG_TRANSACTION
  2
AcDbLongTransaction
  3
AutoCAD 2000
 90
        0
280
     0
281
     0
  0
CLASS
  1
LWPOLYLINE
  2
AcDbPolyline
  3
AutoCAD 2000
 90
        0
280
     0
281
     1
  0
CLASS
  1
HATCH
  2
AcDbHatch
  3
AutoCAD 2000
 90
        0
280
     0
281
     1
  0
CLASS
  1
XRECORD
  2
AcDbXrecord
  3
AutoCAD 2000
 90
        0
280
     0
281
     0
  0
CLASS
  1
LONG_TRANSACTION
  2
AcDbLongTransaction
  3
AutoCAD 2000
 90
        0
280
     0
281
     0
  0
CLASS
  1
LWPOLYLINE
  2
AcDbPolyline
  3
AutoCAD 2000
 90
        0
280
     0
281
     1
  0
CLASS
  1
HATCH
  2
AcDbHatch
  3
AutoCAD 2000
 90
        0
280
     0
281
     1
  0
CLASS
  1
XRECORD
  2
AcDbXrecord
  3
AutoCAD 2000
 90
        0
280
     0
281
     0
  0
CLASS
  1
LONG_TRANSACTION
  2
AcDbLongTransaction
  3
AutoCAD 2000
 90
        0
280
     0
281
     0
  0
CLASS
  1
LWPOLYLINE
  2
AcDbPolyline
  3
AutoCAD 2000
 90
        0
280
     0
281
     1
  0
CLASS
  1
HATCH
  2
AcDbHatch
  3
AutoCAD 2000
 90
        0
280
     0
281
     1
  0
CLASS
  1
XRECORD
  2
AcDbXrecord
  3
AutoCAD 2000
 90
        0
280
     0
281
     0
  0
CLASS
  1
LONG_TRANSACTION
  2
AcDbLongTransaction
  3
AutoCAD 2000
 90
        0
280
     0
281
     0
  0
CLASS
  1
LWPOLYLINE
  2
AcDbPolyline
  3
AutoCAD 2000
 90
        0
280
     0
281
     1
  0
CLASS
  1
HATCH
  2
AcDbHatch
  3
AutoCAD 2000
 90
        0
280
     0
281
     1
  0
CLASS
  1
XRECORD
  2
AcDbXrecord
  3
AutoCAD 2000
 90
        0
280
     0
281
     0
  0
CLASS
  1
LONG_TRANSACTION
  2
AcDbLongTransaction
  3
AutoCAD 2000
 90
        0
280
     0
281
     0
  0
CLASS
  1
LWPOLYLINE
  2
AcDbPolyline
  3
AutoCAD 2000
 90
        0
280
     0
281
     1
  0
CLASS
  1
HATCH
  2
AcDbHatch
  3
AutoCAD 2000
 90
        0
280
     0
281
     1
  0
CLASS
  1
XRECORD
  2
AcDbXrecord
  3
AutoCAD 2000
 90
        0
280
     0
281
     0
  0
CLASS
  1
LONG_TRANSACTION
  2
AcDbLongTransaction
  3
AutoCAD 2000
 90
        0
280
     0
281
     0
  0
CLASS
  1
LWPOLYLINE
  2
AcDbPolyline
  3
AutoCAD 2000
 90
        0
280
     0
281
     1
  0
CLASS
  1
HATCH
  2
AcDbHatch
  3
AutoCAD 2000
 90
        0
280
     0
281
     1
  0
CLASS
  1
XRECORD
  2
AcDbXrecord
  3
AutoCAD 2000
 90
        0
280
     0
281
     0
  0
CLASS
  1
LONG_TRANSACTION
  2
AcDbLongTransaction
  3
AutoCAD 2000
 90
        0
280
     0
281
     0
  0
CLASS
  1
LWPOLYLINE
  2
AcDbPolyline
  3
AutoCAD 2000
 90
        0
280
     0
281
     1
  0
CLASS
  1
HATCH
  2
AcDbHatch
  3
AutoCAD 2000
 90
        0
280
     0
281
     1
  0
CLASS
  1
XRECORD
  2
AcDbXrecord
  3
AutoCAD 2000
 90
        0
280
     0
281
     0
  0
CLASS
  1
LONG_TRANSACTION
  2
AcDbLongTransaction
  3
AutoCAD 2000
 90
        0
280
     0
281
     0
  0
CLASS
  1
LWPOLYLINE
  2
AcDbPolyline
  3
AutoCAD 2000
 90
        0
280
     0
281
     1
  0
CLASS
  1
HATCH
  2
AcDbHatch
  3
AutoCAD 2000
 90
        0
280
     0
281
     1
  0
CLASS
  1
XRECORD
  2
AcDbXrecord
  3
AutoCAD 2000
 90
        0
280
     0
281
     0
  0
CLASS
  1
LONG_TRANSACTION
  2
AcDbLongTransaction
  3
AutoCAD 2000
 90
        0
280
     0
281
     0
  0
CLASS
  1
LWPOLYLINE
  2
AcDbPolyline
  3
AutoCAD 2000
 90
        0
280
     0
281
     1
  0
CLASS
  1
HATCH
  2
AcDbHatch
  3
AutoCAD 2000
 90
        0
280
     0
281
     1
  0
CLASS
  1
XRECORD
  2
AcDbXrecord
  3
AutoCAD 2000
 90
        0
280
     0
281
     0
  0
CLASS
  1
LONG_TRANSACTION
  2
AcDbLongTransaction
  3
AutoCAD 2000
 90
        0
280
     0
281
     0
  0
CLASS
  1
LWPOLYLINE
  2
AcDbPolyline
  3
AutoCAD 2000
 90
        0
280
     0
281
     1
  0
CLASS
  1
HATCH
  2
AcDbHatch
  3
AutoCAD 2000
 90
        0
280
     0
281
     1
  0
CLASS
  1
XRECORD
  2
AcDbXrecord
  3
AutoCAD 2000
 90
        0
280
     0
281
     0
  0
CLASS
  1
LONG_TRANSACTION
  2
AcDbLongTransaction
  3
AutoCAD 2000
 90
        0
280
     0
281
     0
  0
CLASS
  1
LWPOLYLINE
  2
AcDbPolyline
  3
AutoCAD 2000
 90
        0
280
     0
281
     1
  0
CLASS
  1
HATCH
  2
AcDbHatch
  3
AutoCAD 2000
 90
        0
280
     0
281
     1
  0
CLASS
  1
XRECORD
  2
AcDbXrecord
  3
AutoCAD 2000
 90
        0
280
     0
281
     0
  0
CLASS
  1
LONG_TRANSACTION
  2
AcDbLongTransaction
  3
AutoCAD 2000
 90
        0
280
     0
281
     0
  0
CLASS
  1
LWPOLYLINE
  2
AcDbPolyline
  3
AutoCAD 2000
 90
        0
280
     0
281
     1
  0
CLASS
  1
HATCH
  2
AcDbHatch
  3
AutoCAD 2000
 90
        0
280
     0
281
     1
  0
CLASS
  1
XRECORD
  2
AcDbXrecord
  3
AutoCAD 2000
 90
        0
280
     0
281
     0
  0
CLASS
  1
LONG_TRANSACTION
  2
AcDbLongTransaction
  3
AutoCAD 2000
 90
        0
280
     0
281
     0
  0
CLASS
  1
LWPOLYLINE
  2
AcDbPolyline
  3
AutoCAD 2000
 90
        0
280
     0
281
     1
  0
CLASS
  1
HATCH
  2
AcDbHatch
  3
AutoCAD 2000
 90
        0
280
     0
281
     1
  0
CLASS
  1
XRECORD
  2
AcDbXrecord
  3
AutoCAD 2000
 90
        0
280
     0
281
     0
  0
CLASS
  1
LONG_TRANSACTION
  2
AcDbLongTransaction
  3
AutoCAD 2000
 90
        0
280
     0
281
     0
  0
CLASS
  1
LWPOLYLINE
  2
AcDbPolyline
  3
AutoCAD 2000
 90
        0
280
     0
281
     1
  0
CLASS
  1
HATCH
  2
AcDbHatch
  3
AutoCAD 2000
 90
        0
280
     0
281
     1
  0
CLASS
  1
XRECORD
  2
AcDbXrecord
  3
AutoCAD 2000
 90
        0
280
     0
281
     0
  0
CLASS
  1
LONG_TRANSACTION
  2
AcDbLongTransaction
  3
AutoCAD 2000
 90
        0
280
     0
281
     0
  0
CLASS
  1
LWPOLYLINE
  2
AcDbPolyline
  3
AutoCAD 2000
 90
        0
280
     0
281
     1
  0
CLASS
  1
HATCH
  2
AcDbHatch
  3
AutoCAD 2000
 90
        0
280
     0
281
     1
  0
CLASS
  1
XRECORD
  2
AcDbXrecord
  3
AutoCAD 2000
 90
        0
280
     0
281
     0
  0
CLASS
  1
LONG_TRANSACTION
  2
AcDbLongTransaction
  3
AutoCAD 2000
 90
        0
280
     0
281
     0
  0
CLASS
  1
LWPOLYLINE
  2
AcDbPolyline
  3
AutoCAD 2000
 90
        0
280
     0
281
     1
  0
CLASS
  1
HATCH
  2
AcDbHatch
  3
AutoCAD 2000
 90
        0
280
     0
281
     1
  0
CLASS
  1
XRECORD
  2
AcDbXrecord
  3
AutoCAD 2000
 90
        0
280
     0
281
     0
  0
CLASS
  1
LONG_TRANSACTION
  2
AcDbLongTransaction
  3
AutoCAD 2000
 90
        0
280
     0
281
     0
  0
CLASS
  1
LWPOLYLINE
  2
AcDbPolyline
  3
AutoCAD 2000
 90
        0
280
     0
281
     1
  0
CLASS
  1
HATCH
  2
AcDbHatch
  3
AutoCAD 2000
 90
        0
280
     0
281
     1
  0
CLASS
  1
XRECORD
  2
AcDbXrecord
  3
AutoCAD 2000
 90
        0
280
     0
281
     0
  0
CLASS
  1
LONG_TRANSACTION
  2
AcDbLongTransaction
  3
AutoCAD 2000
 90
        0
280
     0
281
     0
  0
CLASS
  1
LWPOLYLINE
  2
AcDbPolyline
  3
AutoCAD 2000
 90
        0
280
     0
281
     1
  0
CLASS
  1
HATCH
  2
AcDbHatch
  3
AutoCAD 2000
 90
        0
280
     0
281
     1
  0
CLASS
  1
XRECORD
  2
AcDbXrecord
  3
AutoCAD 2000
 90
        0
280
     0
281
     0
  0
CLASS
  1
LONG_TRANSACTION
  2
AcDbLongTransaction
  3
AutoCAD 2000
 90
        0
280
     0
281
     0
  0
CLASS
  1
LWPOLYLINE
  2
AcDbPolyline
  3
AutoCAD 2000
 90
        0
280
     0
281
     1
  0
CLASS
  1
HATCH
  2
AcDbHatch
  3
AutoCAD 2000
 90
        0
280
     0
281
     1
  0
CLASS
  1
XRECORD
  2
AcDbXrecord
  3
AutoCAD 2000
 90
        0
280
     0
281
     0
  0
CLASS
  1
LONG_TRANSACTION
  2
AcDbLongTransaction
  3
AutoCAD 2000
 90
        0
280
     0
281
     0
  0
CLASS
  1
LWPOLYLINE
  2
AcDbPolyline
  3
AutoCAD 2000
 90
        0
280
     0
281
     1
  0
CLASS
  1
HATCH
  2
AcDbHatch
  3
AutoCAD 2000
 90
        0
280
     0
281
     1
  0
CLASS
  1
XRECORD
  2
AcDbXrecord
  3
AutoCAD 2000
 90
        0
280
     0
281
     0
  0
CLASS
  1
LONG_TRANSACTION
  2
AcDbLongTransaction
  3
AutoCAD 2000
 90
        0
280
     0
281
     0
  0
CLASS
  1
LWPOLYLINE
  2
AcDbPolyline
  3
AutoCAD 2000
 90
        0
280
     0
281
     1
  0
CLASS
  1
HATCH
  2
AcDbHatch
  3
AutoCAD 2000
 90
        0
280
     0
281
     1
  0
CLASS
  1
XRECORD
  2
AcDbXrecord
  3
AutoCAD 2000
 90
        0
280
     0
281
     0
  0
CLASS
  1
LONG_TRANSACTION
  2
AcDbLongTransaction
  3
AutoCAD 2000
 90
        0
280
     0
281
     0
  0
CLASS
  1
LWPOLYLINE
  2
AcDbPolyline
  3
AutoCAD 2000
 90
        0
280
     0
281
     1
  0
CLASS
  1
HATCH
  2
AcDbHatch
  3
AutoCAD 2000
 90
        0
280
     0
281
     1
  0
CLASS
  1
XRECORD
  2
AcDbXrecord
  3
AutoCAD 2000
 90
        0
280
     0
281
     0
  0
CLASS
  1
LONG_TRANSACTION
  2
AcDbLongTransaction
  3
AutoCAD 2000
 90
        0
280
     0
281
     0
  0
CLASS
  1
LWPOLYLINE
  2
AcDbPolyline
  3
AutoCAD 2000
 90
        0
280
     0
281
     1
  0
CLASS
  1
HATCH
  2
AcDbHatch
  3
AutoCAD 2000
 90
        0
280
     0
281
     1
  0
CLASS
  1
XRECORD
  2
AcDbXrecord
  3
AutoCAD 2000
 90
        0
280
     0
281
     0
  0
CLASS
  1
LONG_TRANSACTION
  2
AcDbLongTransaction
  3
AutoCAD 2000
 90
        0
280
     0
281
     0
  0
CLASS
  1
LWPOLYLINE
  2
AcDbPolyline
  3
AutoCAD 2000
 90
        0
280
     0
281
     1
  0
CLASS
  1
HATCH
  2
AcDbHatch
  3
AutoCAD 2000
 90
        0
280
     0
281
     1
  0
CLASS
  1
XRECORD
  2
AcDbXrecord
  3
AutoCAD 2000
 90
        0
280
     0
281
     0
  0
CLASS
  1
LONG_TRANSACTION
  2
AcDbLongTransaction
  3
AutoCAD 2000
 90
        0
280
     0
281
     0
  0
CLASS
  1
LWPOLYLINE
  2
AcDbPolyline
  3
AutoCAD 2000
 90
        0
280
     0
281
     1
  0
CLASS
  1
HATCH
  2
AcDbHatch
  3
AutoCAD 2000
 90
        0
280
     0
281
     1
  0
CLASS
  1
XRECORD
  2
AcDbXrecord
  3
AutoCAD 2000
 90
        0
280
     0
281
     0
  0
CLASS
  1
LONG_TRANSACTION
  2
AcDbLongTransaction
  3
AutoCAD 2000
 90
        0
280
     0
281
     0
  0
CLASS
  1
LWPOLYLINE
  2
AcDbPolyline
  3
AutoCAD 2000
 90
        0
280
     0
281
     1
  0
CLASS
  1
HATCH
  2
AcDbHatch
  3
AutoCAD 2000
 90
        0
280
     0
281
     1
  0
CLASS
  1
XRECORD
  2
AcDbXrecord
  3
AutoCAD 2000
 90
        0
280
     0
281
     0
  0
CLASS
  1
LONG_TRANSACTION
  2
AcDbLongTransaction
  3
AutoCAD 2000
 90
        0
280
     0
281
     0
  0
CLASS
  1
LWPOLYLINE
  2
AcDbPolyline
  3
AutoCAD 2000
 90
        0
280
     0
281
     1
  0
CLASS
  1
HATCH
  2
AcDbHatch
  3
AutoCAD 2000
 90
        0
280
     0
281
     1
  0
CLASS
  1
XRECORD
  2
AcDbXrecord
  3
AutoCAD 2000
 90
        0
280
     0
281
     0
  0
CLASS
  1
LONG_TRANSACTION
  2
AcDbLongTransaction
  3
AutoCAD 2000
 90
        0
280
     0
281
     0
  0
CLASS
  1
LWPOLYLINE
  2
AcDbPolyline
  3
AutoCAD 2000
 90
        0
280
     0
281
     1
  0
CLASS
  1
HATCH
  2
AcDbHatch
  3
AutoCAD 2000
 90
        0
280
     0
281
     1
  0
CLASS
  1
XRECORD
  2
AcDbXrecord
  3
AutoCAD 2000
 90
        0
280
     0
281
     0
  0
CLASS
  1
LONG_TRANSACTION
  2
AcDbLongTransaction
  3
AutoCAD 2000
 90
        0
280
     0
281
     0
  0
CLASS
  1
LWPOLYLINE
  2
AcDbPolyline
  3
AutoCAD 2000
 90
        0
280
     0
281
     1
  0
CLASS
  1
HATCH
  2
AcDbHatch
  3
AutoCAD 2000
 90
        0
280
     0
281
     1
  0
CLASS
  1
XRECORD
  2
AcDbXrecord
  3
AutoCAD 2000
 90
        0
280
     0
281
     0
  0
CLASS
  1
LONG_TRANSACTION
  2
AcDbLongTransaction
  3
AutoCAD 2000
 90
        0
280
     0
281
     0
  0
CLASS
  1
LWPOLYLINE
  2
AcDbPolyline
  3
AutoCAD 2000
 90
        0
280
     0
281
     1
  0
CLASS
  1
HATCH
  2
AcDbHatch
  3
AutoCAD 2000
 90
        0
280
     0
281
     1
  0
CLASS
  1
XRECORD
  2
AcDbXrecord
  3
AutoCAD 2000
 90
        0
280
     0
281
     0
  0
CLASS
  1
LONG_TRANSACTION
  2
AcDbLongTransaction
  3
AutoCAD 2000
 90
        0
280
     0
281
     0
  0
CLASS
  1
LWPOLYLINE
  2
AcDbPolyline
  3
AutoCAD 2000
 90
        0
280
     0
281
     1
  0
CLASS
  1
HATCH
  2
AcDbHatch
  3
AutoCAD 2000
 90
        0
280
     0
281
     1
  0
CLASS
  1
XRECORD
  2
AcDbXrecord
  3
AutoCAD 2000
 90
        0
280
     0
281
     0
  0
CLASS
  1
LONG_TRANSACTION
  2
AcDbLongTransaction
  3
AutoCAD 2000
 90
        0
280
     0
281
     0
  0
CLASS
  1
LWPOLYLINE
  2
AcDbPolyline
  3
AutoCAD 2000
 90
        0
280
     0
281
     1
  0
CLASS
  1
HATCH
  2
AcDbHatch
  3
AutoCAD 2000
 90
        0
280
     0
281
     1
  0
CLASS
  1
XRECORD
  2
AcDbXrecord
  3
AutoCAD 2000
 90
        0
280
     0
281
     0
  0
CLASS
  1
LONG_TRANSACTION
  2
AcDbLongTransaction
  3
AutoCAD 2000
 90
        0
280
     0
281
     0
  0
CLASS
  1
LWPOLYLINE
  2
AcDbPolyline
  3
AutoCAD 2000
 90
        0
280
     0
281
     1
  0
CLASS
  1
HATCH
  2
AcDbHatch
  3
AutoCAD 2000
 90
        0
280
     0
281
     1
  0
CLASS
  1
XRECORD
  2
AcDbXrecord
  3
AutoCAD 2000
 90
        0
280
     0
281
     0
  0
CLASS
  1
LONG_TRANSACTION
  2
AcDbLongTransaction
  3
AutoCAD 2000
 90
        0
280
     0
281
     0
  0
CLASS
  1
LWPOLYLINE
  2
AcDbPolyline
  3
AutoCAD 2000
 90
        0
280
     0
281
     1
  0
CLASS
  1
HATCH
  2
AcDbHatch
  3
AutoCAD 2000
 90
        0
280
     0
281
     1
  0
CLASS
  1
XRECORD
  2
AcDbXrecord
  3
AutoCAD 2000
 90
        0
280
     0
281
     0
  0
CLASS
  1
LONG_TRANSACTION
  2
AcDbLongTransaction
  3
AutoCAD 2000
 90
        0
280
     0
281
     0
  0
CLASS
  1
LWPOLYLINE
  2
AcDbPolyline
  3
AutoCAD 2000
 90
        0
280
     0
281
     1
  0
CLASS
  1
HATCH
  2
AcDbHatch
  3
AutoCAD 2000
 90
        0
280
     0
281
     1
  0
CLASS
  1
XRECORD
  2
AcDbXrecord
  3
AutoCAD 2000
 90
        0
280
     0
281
     0
  0
CLASS
  1
LONG_TRANSACTION
  2
AcDbLongTransaction
  3
AutoCAD 2000
 90
        0
280
     0
281
     0
  0
CLASS
  1
LWPOLYLINE
  2
AcDbPolyline
  3
AutoCAD 2000
 90
        0
280
     0
281
     1
  0
CLASS
  1
HATCH
  2
AcDbHatch
  3
AutoCAD 2000
 90
        0
280
     0
281
     1
  0
CLASS
  1
XRECORD
  2
AcDbXrecord
  3
AutoCAD 2000
 90
        0
280
     0
281
     0
  0
CLASS
  1
LONG_TRANSACTION
  2
AcDbLongTransaction
  3
AutoCAD 2000
 90
        0
280
     0
281
     0
  0
CLASS
  1
LWPOLYLINE
  2
AcDbPolyline
  3
AutoCAD 2000
 90
        0
280
     0
281
     1
  0
CLASS
  1
HATCH
  2
AcDbHatch
  3
AutoCAD 2000
 90
        0
280
     0
281
     1
  0
CLASS
  1
XRECORD
  2
AcDbXrecord
  3
AutoCAD 2000
 90
        0
280
     0
281
     0
  0
CLASS
  1
LONG_TRANSACTION
  2
AcDbLongTransaction
  3
AutoCAD 2000
 90
        0
280
     0
281
     0
  0
CLASS
  1
LWPOLYLINE
  2
AcDbPolyline
  3
AutoCAD 2000
 90
        0
280
     0
281
     1
  0
CLASS
  1
HATCH
  2
AcDbHatch
  3
AutoCAD 2000
 90
        0
280
     0
281
     1
  0
CLASS
  1
XRECORD
  2
AcDbXrecord
  3
AutoCAD 2000
 90
        0
280
     0
281
     0
  0
CLASS
  1
LONG_TRANSACTION
  2
AcDbLongTransaction
  3
AutoCAD 2000
 90
        0
280
     0
281
     0
  0
CLASS
  1
LWPOLYLINE
  2
AcDbPolyline
  3
AutoCAD 2000
 90
        0
280
     0
281
     1
  0
CLASS
  1
HATCH
  2
AcDbHatch
  3
AutoCAD 2000
 90
        0
280
     0
281
     1
  0
CLASS
  1
XRECORD
  2
AcDbXrecord
  3
AutoCAD 2000
 90
        0
280
     0
281
     0
  0
CLASS
  1
LONG_TRANSACTION
  2
AcDbLongTransaction
  3
AutoCAD 2000
 90
        0
280
     0
281
     0
  0
CLASS
  1
LWPOLYLINE
  2
AcDbPolyline
  3
AutoCAD 2000
 90
        0
280
     0
281
     1
  0
CLASS
  1
HATCH
  2
AcDbHatch
  3
AutoCAD 2000
 90
        0
280
     0
281
     1
  0
CLASS
  1
XRECORD
  2
AcDbXrecord
  3
AutoCAD 2000
 90
        0
280
     0
281
     0
  0
CLASS
  1
LONG_TRANSACTION
  2
AcDbLongTransaction
  3
AutoCAD 2000
 90
        0
280
     0
281
     0
  0
CLASS
  1
LWPOLYLINE
  2
AcDbPolyline
  3
AutoCAD 2000
 90
        0
280
     0
281
     1
  0
CLASS
  1
HATCH
  2
AcDbHatch
  3
AutoCAD 2000
 90
        0
280
     0
281
     1
  0
CLASS
  1
XRECORD
  2
AcDbXrecord
  3
AutoCAD 2000
 90
        0
280
     0
281
     0
  0
CLASS
  1
LONG_TRANSACTION
  2
AcDbLongTransaction
  3
AutoCAD 2000
 90
        0
280
     0
281
     0
  0
CLASS
  1
LWPOLYLINE
  2
AcDbPolyline
  3
AutoCAD 2000
 90
        0
280
     0
281
     1
  0
CLASS
  1
HATCH
  2
AcDbHatch
  3
AutoCAD 2000
 90
        0
280
     0
281
     1
  0
CLASS
  1
XRECORD
  2
AcDbXrecord
  3
AutoCAD 2000
 90
        0
280
     0
281
     0
  0
CLASS
  1
LONG_TRANSACTION
  2
AcDbLongTransaction
  3
AutoCAD 2000
 90
        0
280
     0
281
     0
  0
CLASS
  1
LWPOLYLINE
  2
AcDbPolyline
  3
AutoCAD 2000
 90
        0
280
     0
281
     1
  0
CLASS
  1
HATCH
  2
AcDbHatch
  3
AutoCAD 2000
 90
        0
280
     0
281
     1
  0
CLASS
  1
XRECORD
  2
AcDbXrecord
  3
AutoCAD 2000
 90
        0
280
     0
281
     0
  0
CLASS
  1
LONG_TRANSACTION
  2
AcDbLongTransaction
  3
AutoCAD 2000
 90
        0
280
     0
281
     0
  0
CLASS
  1
LWPOLYLINE
  2
AcDbPolyline
  3
AutoCAD 2000
 90
        0
280
     0
281
     1
  0
CLASS
  1
HATCH
  2
AcDbHatch
  3
AutoCAD 2000
 90
        0
280
     0
281
     1
  0
CLASS
  1
XRECORD
  2
AcDbXrecord
  3
AutoCAD 2000
 90
        0
280
     0
281
     0
  0
CLASS
  1
LONG_TRANSACTION
  2
AcDbLongTransaction
  3
AutoCAD 2000
 90
        0
280
     0
281
     0
  0
CLASS
  1
LWPOLYLINE
  2
AcDbPolyline
  3
AutoCAD 2000
 90
        0
280
     0
281
     1
  0
CLASS
  1
HATCH
  2
AcDbHatch
  3
AutoCAD 2000
 90
        0
280
     0
281
     1
  0
CLASS
  1
XRECORD
  2
AcDbXrecord
  3
AutoCAD 2000
 90
        0
280
     0
281
     0
  0
CLASS
  1
LONG_TRANSACTION
  2
AcDbLongTransaction
  3
AutoCAD 2000
 90
        0
280
     0
281
     0
  0
CLASS
  1
LWPOLYLINE
  2
AcDbPolyline
  3
AutoCAD 2000
 90
        0
280
     0
281
     1
  0
CLASS
  1
HATCH
  2
AcDbHatch
  3
AutoCAD 2000
 90
        0
280
     0
281
     1
  0
CLASS
  1
XRECORD
  2
AcDbXrecord
  3
AutoCAD 2000
 90
        0
280
     0
281
     0
  0
CLASS
  1
LONG_TRANSACTION
  2
AcDbLongTransaction
  3
AutoCAD 2000
 90
        0
280
     0
281
     0
  0
CLASS
  1
LWPOLYLINE
  2
AcDbPolyline
  3
AutoCAD 2000
 90
        0
280
     0
281
     1
  0
CLASS
  1
HATCH
  2
AcDbHatch
  3
AutoCAD 2000
 90
        0
280
     0
281
     1
  0
CLASS
  1
XRECORD
  2
AcDbXrecord
  3
AutoCAD 2000
 90
        0
280
     0
281
     0
  0
CLASS
  1
LONG_TRANSACTION
  2
AcDbLongTransaction
  3
AutoCAD 2000
 90
        0
280
     0
281
     0
  0
CLASS
  1
LWPOLYLINE
  2
AcDbPolyline
  3
AutoCAD 2000
 90
        0
280
     0
281
     1
  0
CLASS
  1
HATCH
  2
AcDbHatch
  3
AutoCAD 2000
 90
        0
280
     0
281
     1
  0
CLASS
  1
XRECORD
  2
AcDbXrecord
  3
AutoCAD 2000
 90
        0
280
     0
281
     0
  0
CLASS
  1
LONG_TRANSACTION
  2
AcDbLongTransaction
  3
AutoCAD 2000
 90
        0
280
     0
281
     0
  0
CLASS
  1
LWPOLYLINE
  2
AcDbPolyline
  3
AutoCAD 2000
 90
        0
280
     0
281
     1
  0
CLASS
  1
HATCH
  2
AcDbHatch
  3
AutoCAD 2000
 90
        0
280
     0
281
     1
  0
CLASS
  1
XRECORD
  2
AcDbXrecord
  3
AutoCAD 2000
 90
        0
280
     0
281
     0
  0
CLASS
  1
LONG_TRANSACTION
  2
AcDbLongTransaction
  3
AutoCAD 2000
 90
        0
280
     0
281
     0
  0
CLASS
  1
LWPOLYLINE
  2
AcDbPolyline
  3
AutoCAD 2000
 90
        0
280
     0
281
     1
  0
CLASS
  1
HATCH
  2
AcDbHatch
  3
AutoCAD 2000
 90
        0
280
     0
281
     1
  0
CLASS
  1
XRECORD
  2
AcDbXrecord
  3
AutoCAD 2000
 90
        0
280
     0
281
     0
  0
CLASS
  1
LONG_TRANSACTION
  2
AcDbLongTransaction
  3
AutoCAD 2000
 90
        0
280
     0
281
     0
  0
CLASS
  1
LWPOLYLINE
  2
AcDbPolyline
  3
AutoCAD 2000
 90
        0
280
     0
281
     1
  0
CLASS
  1
HATCH
  2
AcDbHatch
  3
AutoCAD 2000
 90
        0
280
     0
281
     1
  0
CLASS
  1
XRECORD
  2
AcDbXrecord
  3
AutoCAD 2000
 90
        0
280
     0
281
     0
  0
CLASS
  1
LONG_TRANSACTION
  2
AcDbLongTransaction
  3
AutoCAD 2000
 90
        0
280
     0
281
     0
  0
CLASS
  1
LWPOLYLINE
  2
AcDbPolyline
  3
AutoCAD 2000
 90
        0
280
     0
281
     1
  0
CLASS
  1
HATCH
  2
AcDbHatch
  3
AutoCAD 2000
 90
        0
280
     0
281
     1
  0
CLASS
  1
XRECORD
  2
AcDbXrecord
  3
AutoCAD 2000
 90
        0
280
     0
281
     0
  0
CLASS
  1
LONG_TRANSACTION
  2
AcDbLongTransaction
  3
AutoCAD 2000
 90
        0
280
     0
281
     0
  0
CLASS
  1
LWPOLYLINE
  2
AcDbPolyline
  3
AutoCAD 2000
 90
        0
280
     0
281
     1
  0
CLASS
  1
HATCH
  2
AcDbHatch
  3
AutoCAD 2000
 90
        0
280
     0
281
     1
  0
CLASS
  1
XRECORD
  2
AcDbXrecord
  3
AutoCAD 2000
 90
        0
280
     0
281
     0
  0
CLASS
  1
LONG_TRANSACTION
  2
AcDbLongTransaction
  3
AutoCAD 2000
 90
        0
280
     0
281
     0
  0
CLASS
  1
LWPOLYLINE
  2
AcDbPolyline
  3
AutoCAD 2000
 90
        0
280
     0
281
     1
  0
CLASS
  1
HATCH
  2
AcDbHatch
  3
AutoCAD 2000
 90
        0
280
     0
281
     1
  0
CLASS
  1
XRECORD
  2
AcDbXrecord
  3
AutoCAD 2000
 90
        0
280
     0
281
     0
  0
CLASS
  1
LONG_TRANSACTION
  2
AcDbLongTransaction
  3
AutoCAD 2000
 90
        0
280
     0
281
     0
  0
CLASS
  1
LWPOLYLINE
  2
AcDbPolyline
  3
AutoCAD 2000
 90
        0
280
     0
281
     1
  0
CLASS
  1
HATCH
  2
AcDbHatch
  3
AutoCAD 2000
 90
        0
280
     0
281
     1
  0
CLASS
  1
XRECORD
  2
AcDbXrecord
  3
AutoCAD 2000
 90
        0
280
     0
281
     0
  0
CLASS
  1
LONG_TRANSACTION
  2
AcDbLongTransaction
  3
AutoCAD 2000
 90
        0
280
     0
281
     0
  0
CLASS
  1
LWPOLYLINE
  2
AcDbPolyline
  3
AutoCAD 2000
 90
        0
280
     0
281
     1
  0
CLASS
  1
HATCH
  2
AcDbHatch
  3
AutoCAD 2000
 90
        0
280
     0
281
     1
  0
CLASS
  1
XRECORD
  2
AcDbXrecord
  3
AutoCAD 2000
 90
        0
280
     0
281
     0
  0
CLASS
  1
LONG_TRANSACTION
  2
AcDbLongTransaction
  3
AutoCAD 2000
 90
        0
280
     0
281
     0
  0
CLASS
  1
LWPOLYLINE
  2
AcDbPolyline
  3
AutoCAD 2000
 90
        0
280
     0
281
     1
  0
CLASS
  1
HATCH
  2
AcDbHatch
  3
AutoCAD 2000
 90
        0
280
     0
281
     1
  0
CLASS
  1
XRECORD
  2
AcDbXrecord
  3
AutoCAD 2000
 90
        0
280
     0
281
     0
  0
CLASS
  1
LONG_TRANSACTION
  2
AcDbLongTransaction
  3
AutoCAD 2000
 90
        0
280
     0
281
     0
  0
CLASS
  1
LWPOLYLINE
  2
AcDbPolyline
  3
AutoCAD 2000
 90
        0
280
     0
281
     1
  0
CLASS
  1
HATCH
  2
AcDbHatch
  3
AutoCAD 2000
 90
        0
280
     0
281
     1
  0
CLASS
  1
XRECORD
  2
AcDbXrecord
  3
AutoCAD 2000
 90
        0
280
     0
281
     0
  0
CLASS
  1
LONG_TRANSACTION
  2
AcDbLongTransaction
  3
AutoCAD 2000
 90
        0
280
     0
281
     0
  0
CLASS
  1
LWPOLYLINE
  2
AcDbPolyline
  3
AutoCAD 2000
 90
        0
280
     0
281
     1
  0
CLASS
  1
HATCH
  2
AcDbHatch
  3
AutoCAD 2000
 90
        0
280
     0
281
     1
  0
CLASS
  1
XRECORD
  2
AcDbXrecord
  3
AutoCAD 2000
 90
        0
280
     0
281
     0
  0
CLASS
  1
LONG_TRANSACTION
  2
AcDbLongTransaction
  3
AutoCAD 2000
 90
        0
280
     0
281
     0
  0
CLASS
  1
LWPOLYLINE
  2
AcDbPolyline
  3
AutoCAD 2000
 90
        0
280
     0
281
     1
  0
CLASS
  1
HATCH
  2
AcDbHatch
  3
AutoCAD 2000
 90
        0
280
     0
281
     1
  0
CLASS
  1
XRECORD
  2
AcDbXrecord
  3
AutoCAD 2000
 90
        0
280
     0
281
     0
  0
CLASS
  1
LONG_TRANSACTION
  2
AcDbLongTransaction
  3
AutoCAD 2000
 90
        0
280
     0
281
     0
  0
CLASS
  1
LWPOLYLINE
  2
AcDbPolyline
  3
AutoCAD 2000
 90
        0
280
     0
281
     1
  0
CLASS
  1
HATCH
  2
AcDbHatch
  3
AutoCAD 2000
 90
        0
280
     0
281
     1
  0
CLASS
  1
XRECORD
  2
AcDbXrecord
  3
AutoCAD 2000
 90
        0
280
     0
281
     0
  0
CLASS
  1
LONG_TRANSACTION
  2
AcDbLongTransaction
  3
AutoCAD 2000
 90
        0
280
     0
281
     0
  0
CLASS
  1
LWPOLYLINE
  2
AcDbPolyline
  3
AutoCAD 2000
 90
        0
280
     0
281
     1
  0
CLASS
  1
HATCH
  2
AcDbHatch
  3
AutoCAD 2000
 90
        0
280
     0
281
     1
  0
CLASS
  1
XRECORD
  2
AcDbXrecord
  3
AutoCAD 2000
 90
        0
280
     0
281
     0
  0
CLASS
  1
LONG_TRANSACTION
  2
AcDbLongTransaction
  3
AutoCAD 2000
 90
        0
280
     0
281
     0
  0
CLASS
  1
LWPOLYLINE
  2
AcDbPolyline
  3
AutoCAD 2000
 90
        0
280
     0
281
     1
  0
CLASS
  1
HATCH
  2
AcDbHatch
  3
AutoCAD 2000
 90
        0
280
     0
281
     1
  0
CLASS
  1
XRECORD
  2
AcDbXrecord
  3
AutoCAD 2000
 90
        0
280
     0
281
     0
  0
CLASS
  1
LONG_TRANSACTION
  2
AcDbLongTransaction
  3
AutoCAD 2000
 90
        0
280
     0
281
     0
  0
CLASS
  1
LWPOLYLINE
  2
AcDbPolyline
  3
AutoCAD 2000
 90
        0
280
     0
281
     1
  0
CLASS
  1
HATCH
  2
AcDbHatch
  3
AutoCAD 2000
 90
        0
280
     0
281
     1
  0
CLASS
  1
XRECORD
  2
AcDbXrecord
  3
AutoCAD 2000
 90
        0
280
     0
281
     0
  0
CLASS
  1
LONG_TRANSACTION
  2
AcDbLongTransaction
  3
AutoCAD 2000
 90
        0
280
     0
281
     0
  0
CLASS
  1
LWPOLYLINE
  2
AcDbPolyline
  3
AutoCAD 2000
 90
        0
280
     0
281
     1
  0
CLASS
  1
HATCH
  2
AcDbHatch
  3
AutoCAD 2000
 90
        0
280
     0
281
     1
  0
CLASS
  1
XRECORD
  2
AcDbXrecord
  3
AutoCAD 2000
 90
        0
280
     0
281
     0
  0
CLASS
  1
LONG_TRANSACTION
  2
AcDbLongTransaction
  3
AutoCAD 2000
 90
        0
280
     0
281
     0
  0
CLASS
  1
LWPOLYLINE
  2
AcDbPolyline
  3
AutoCAD 2000
 90
        0
280
     0
281
     1
  0
CLASS
  1
HATCH
  2
AcDbHatch
  3
AutoCAD 2000
 90
        0
280
     0
281
     1
  0
CLASS
  1
XRECORD
  2
AcDbXrecord
  3
AutoCAD 2000
 90
        0
280
     0
281
     0
  0
CLASS
  1
LONG_TRANSACTION
  2
AcDbLongTransaction
  3
AutoCAD 2000
 90
        0
280
     0
281
     0
  0
CLASS
  1
LWPOLYLINE
  2
AcDbPolyline
  3
AutoCAD 2000
 90
        0
280
     0
281
     1
  0
CLASS
  1
HATCH
  2
AcDbHatch
  3
AutoCAD 2000
 90
        0
280
     0
281
     1
  0
CLASS
  1
XRECORD
  2
AcDbXrecord
  3
AutoCAD 2000
 90
        0
280
     0
281
     0
  0
CLASS
  1
LONG_TRANSACTION
  2
AcDbLongTransaction
  3
AutoCAD 2000
 90
        0
280
     0
281
     0
  0
CLASS
  1
LWPOLYLINE
  2
AcDbPolyline
  3
AutoCAD 2000
 90
        0
280
     0
281
     1
  0
CLASS
  1
HATCH
  2
AcDbHatch
  3
AutoCAD 2000
 90
        0
280
     0
281
     1
  0
CLASS
  1
XRECORD
  2
AcDbXrecord
  3
AutoCAD 2000
 90
        0
280
     0
281
     0
  0
CLASS
  1
LONG_TRANSACTION
  2
AcDbLongTransaction
  3
AutoCAD 2000
 90
        0
280
     0
281
     0
  0
CLASS
  1
LWPOLYLINE
  2
AcDbPolyline
  3
AutoCAD 2000
 90
        0
280
     0
281
     1
  0
CLASS
  1
HATCH
  2
AcDbHatch
  3
AutoCAD 2000
 90
        0
280
     0
281
     1
  0
CLASS
  1
XRECORD
  2
AcDbXrecord
  3
AutoCAD 2000
 90
        0
280
     0
281
     0
  0
CLASS
  1
LONG_TRANSACTION
  2
AcDbLongTransaction
  3
AutoCAD 2000
 90
        0
280
     0
281
     0
  0
CLASS
  1
LWPOLYLINE
  2
AcDbPolyline
  3
AutoCAD 2000
 90
        0
280
     0
281
     1
  0
CLASS
  1
HATCH
  2
AcDbHatch
  3
AutoCAD 2000
 90
        0
280
     0
281
     1
  0
CLASS
  1
XRECORD
  2
AcDbXrecord
  3
AutoCAD 2000
 90
        0
280
     0
281
     0
  0
CLASS
  1
LONG_TRANSACTION
  2
AcDbLongTransaction
  3
AutoCAD 2000
 90
        0
280
     0
281
     0
  0
CLASS
  1
LWPOLYLINE
  2
AcDbPolyline
  3
AutoCAD 2000
 90
        0
280
     0
281
     1
  0
CLASS
  1
HATCH
  2
AcDbHatch
  3
AutoCAD 2000
 90
        0
280
     0
281
     1
  0
CLASS
  1
XRECORD
  2
AcDbXrecord
  3
AutoCAD 2000
 90
        0
280
     0
281
     0
  0
CLASS
  1
LONG_TRANSACTION
  2
AcDbLongTransaction
  3
AutoCAD 2000
 90
        0
280
     0
281
     0
  0
CLASS
  1
LWPOLYLINE
  2
AcDbPolyline
  3
AutoCAD 2000
 90
        0
280
     0
281
     1
  0
CLASS
  1
HATCH
  2
AcDbHatch
  3
AutoCAD 2000
 90
        0
280
     0
281
     1
  0
CLASS
  1
XRECORD
  2
AcDbXrecord
  3
AutoCAD 2000
 90
        0
280
     0
281
     0
  0
CLASS
  1
LONG_TRANSACTION
  2
AcDbLongTransaction
  3
AutoCAD 2000
 90
        0
280
     0
281
     0
  0
CLASS
  1
LWPOLYLINE
  2
AcDbPolyline
  3
AutoCAD 2000
 90
        0
280
     0
281
     1
  0
CLASS
  1
HATCH
  2
AcDbHatch
  3
AutoCAD 2000
 90
        0
280
     0
281
     1
  0
CLASS
  1
XRECORD
  2
AcDbXrecord
  3
AutoCAD 2000
 90
        0
280
     0
281
     0
  0
CLASS
  1
LONG_TRANSACTION
  2
AcDbLongTransaction
  3
AutoCAD 2000
 90
        0
280
     0
281
     0
  0
CLASS
  1
LWPOLYLINE
  2
AcDbPolyline
  3
AutoCAD 2000
 90
        0
280
     0
281
     1
  0
CLASS
  1
HATCH
  2
AcDbHatch
  3
AutoCAD 2000
 90
        0
280
     0
281
     1
  0
CLASS
  1
XRECORD
  2
AcDbXrecord
  3
AutoCAD 2000
 90
        0
280
     0
281
     0
  0
CLASS
  1
LONG_TRANSACTION
  2
AcDbLongTransaction
  3
AutoCAD 2000
 90
        0
280
     0
281
     0
  0
CLASS
  1
LWPOLYLINE
  2
AcDbPolyline
  3
AutoCAD 2000
 90
        0
280
     0
281
     1
  0
CLASS
  1
HATCH
  2
AcDbHatch
  3
AutoCAD 2000
 90
        0
280
     0
281
     1
  0
CLASS
  1
XRECORD
  2
AcDbXrecord
  3
AutoCAD 2000
 90
        0
280
     0
281
     0
  0
CLASS
  1
LONG_TRANSACTION
  2
AcDbLongTransaction
  3
AutoCAD 2000
 90
        0
280
     0
281
     0
  0
CLASS
  1
LWPOLYLINE
  2
AcDbPolyline
  3
AutoCAD 2000
 90
        0
280
     0
281
     1
  0
CLASS
  1
HATCH
  2
AcDbHatch
  3
AutoCAD 2000
 90
        0
280
     0
281
     1
  0
CLASS
  1
XRECORD
  2
AcDbXrecord
  3
AutoCAD 2000
 90
        0
280
     0
281
     0
  0
CLASS
  1
LONG_TRANSACTION
  2
AcDbLongTransaction
  3
AutoCAD 2000
 90
        0
280
     0
281
     0
  0
CLASS
  1
LWPOLYLINE
  2
AcDbPolyline
  3
AutoCAD 2000
 90
        0
280
     0
281
     1
  0
CLASS
  1
HATCH
  2
AcDbHatch
  3
AutoCAD 2000
 90
        0
280
     0
281
     1
  0
CLASS
  1
XRECORD
  2
AcDbXrecord
  3
AutoCAD 2000
 90
        0
280
     0
281
     0
  0
CLASS
  1
LONG_TRANSACTION
  2
AcDbLongTransaction
  3
AutoCAD 2000
 90
        0
280
     0
281
     0
  0
CLASS
  1
LWPOLYLINE
  2
AcDbPolyline
  3
AutoCAD 2000
 90
        0
280
     0
281
     1
  0
CLASS
  1
HATCH
  2
AcDbHatch
  3
AutoCAD 2000
 90
        0
280
     0
281
     1
  0
CLASS
  1
XRECORD
  2
AcDbXrecord
  3
AutoCAD 2000
 90
        0
280
     0
281
     0
  0
CLASS
  1
LONG_TRANSACTION
  2
AcDbLongTransaction
  3
AutoCAD 2000
 90
        0
280
     0
281
     0
  0
CLASS
  1
LWPOLYLINE
  2
AcDbPolyline
  3
AutoCAD 2000
 90
        0
280
     0
281
     1
  0
CLASS
  1
HATCH
  2
AcDbHatch
  3
AutoCAD 2000
 90
        0
280
     0
281
     1
  0
CLASS
  1
XRECORD
  2
AcDbXrecord
  3
AutoCAD 2000
 90
        0
280
     0
281
     0
  0
CLASS
  1
LONG_TRANSACTION
  2
AcDbLongTransaction
  3
AutoCAD 2000
 90
        0
280
     0
281
     0
  0
CLASS
  1
LWPOLYLINE
  2
AcDbPolyline
  3
AutoCAD 2000
 90
        0
280
     0
281
     1
  0
CLASS
  1
HATCH
  2
AcDbHatch
  3
AutoCAD 2000
 90
        0
280
     0
281
     1
  0
CLASS
  1
XRECORD
  2
AcDbXrecord
  3
AutoCAD 2000
 90
        0
280
     0
281
     0
  0
CLASS
  1
LONG_TRANSACTION
  2
AcDbLongTransaction
  3
AutoCAD 2000
 90
        0
280
     0
281
     0
  0
CLASS
  1
LWPOLYLINE
  2
AcDbPolyline
  3
AutoCAD 2000
 90
        0
280
     0
281
     1
  0
CLASS
  1
HATCH
  2
AcDbHatch
  3
AutoCAD 2000
 90
        0
280
     0
281
     1
  0
CLASS
  1
XRECORD
  2
AcDbXrecord
  3
AutoCAD 2000
 90
        0
280
     0
281
     0
  0
CLASS
  1
LONG_TRANSACTION
  2
AcDbLongTransaction
  3
AutoCAD 2000
 90
        0
280
     0
281
     0
  0
CLASS
  1
LWPOLYLINE
  2
AcDbPolyline
  3
AutoCAD 2000
 90
        0
280
     0
281
     1
  0
CLASS
  1
HATCH
  2
AcDbHatch
  3
AutoCAD 2000
 90
        0
280
     0
281
     1
  0
CLASS
  1
XRECORD
  2
AcDbXrecord
  3
AutoCAD 2000
 90
        0
280
     0
281
     0
  0
CLASS
  1
LONG_TRANSACTION
  2
AcDbLongTransaction
  3
AutoCAD 2000
 90
        0
280
     0
281
     0
  0
CLASS
  1
LWPOLYLINE
  2
AcDbPolyline
  3
AutoCAD 2000
 90
        0
280
     0
281
     1
  0
CLASS
  1
HATCH
  2
AcDbHatch
  3
AutoCAD 2000
 90
        0
280
     0
281
     1
  0
CLASS
  1
XRECORD
  2
AcDbXrecord
  3
AutoCAD 2000
 90
        0
280
     0
281
     0
  0
CLASS
  1
LONG_TRANSACTION
  2
AcDbLongTransaction
  3
AutoCAD 2000
 90
        0
280
     0
281
     0
  0
CLASS
  1
LWPOLYLINE
  2
AcDbPolyline
  3
AutoCAD 2000
 90
        0
280
     0
281
     1
  0
CLASS
  1
HATCH
  2
AcDbHatch
  3
AutoCAD 2000
 90
        0
280
     0
281
     1
  0
CLASS
  1
XRECORD
  2
AcDbXrecord
  3
AutoCAD 2000
 90
        0
280
     0
281
     0
  0
CLASS
  1
LONG_TRANSACTION
  2
AcDbLongTransaction
  3
AutoCAD 2000
 90
        0
280
     0
281
     0
  0
CLASS
  1
LWPOLYLINE
  2
AcDbPolyline
  3
AutoCAD 2000
 90
        0
280
     0
281
     1
  0
CLASS
  1
HATCH
  2
AcDbHatch
  3
AutoCAD 2000
 90
        0
280
     0
281
     1
  0
CLASS
  1
XRECORD
  2
AcDbXrecord
  3
AutoCAD 2000
 90
        0
280
     0
281
     0
  0
CLASS
  1
LONG_TRANSACTION
  2
AcDbLongTransaction
  3
AutoCAD 2000
 90
        0
280
     0
281
     0
  0
CLASS
  1
LWPOLYLINE
  2
AcDbPolyline
  3
AutoCAD 2000
 90
        0
280
     0
281
     1
  0
CLASS
  1
HATCH
  2
AcDbHatch
  3
AutoCAD 2000
 90
        0
280
     0
281
     1
  0
CLASS
  1
XRECORD
  2
AcDbXrecord
  3
AutoCAD 2000
 90
        0
280
     0
281
     0
  0
ENDSEC
  0
SECTION
  2
TABLES
  0
TABLE
  2
VPORT
  5
92
330
0
100
AcDbSymbolTable
 70
     2
  0
VPORT
  5
500
330
92
100
AcDbSymbolTableRecord
100
AcDbViewportTableRecord
  2
*ACTIVE
 70
     0
 10
0.0
 20
0.0
 11
1.0
 21
1.0
 12
186.9071172414697
 22
270.8110427809023
 13
0.0
 23
0.0
 14
10.0
 24
10.0
 15
10.0
 25
10.0
 16
0.0
 26
0.0
 36
1.0
 17
0.0
 27
0.0
 37
0.0
 40
550.6081349591729
 41
1.549367088607595
 42
50.0
 43
0.0
 44
0.0
 50
0.0
 51
0.0
 71
     0
 72
 10000
 73
     1
 74
     3
 75
     0
 76
     0
 77
     0
 78
     1
  0
ENDTAB
  0
TABLE
  2
LTYPE
  5
8D
330
0
100
AcDbSymbolTable
 70
     3
  0
LTYPE
  5
8E
330
8D
100
AcDbSymbolTableRecord
100
AcDbLinetypeTableRecord
  2
BYBLOCK
 70
     0
  3

 72
    65
 73
     0
 40
0.0
  0
LTYPE
  5
8F
330
8D
100
AcDbSymbolTableRecord
100
AcDbLinetypeTableRecord
  2
BYLAYER
 70
     0
  3

 72
    65
 73
     0
 40
0.0
  0
LTYPE
  5
A
330
8D
100
AcDbSymbolTableRecord
100
AcDbLinetypeTableRecord
  2
CONTINUOUS
 70
     0
  3
Solid line
 72
    65
 73
     0
 40
0.0
  0
LTYPE
  5
B6
330
8D
100
AcDbSymbolTableRecord
100
AcDbLinetypeTableRecord
  2
CENTER
 70
     0
  3
Center ____ _ ____ _ ____ _ ____ _ ____ _ ____
 72
    65
 73
     4
 40
50.8
 49
31.75
 74
     0
 49
-6.349999999999998
 74
     0
 49
6.349999999999998
 74
     0
 49
-6.349999999999998
 74
     0
  0
LTYPE
  5
260
330
8D
100
AcDbSymbolTableRecord
100
AcDbLinetypeTableRecord
  2
HIDDEN
 70
     0
  3
Hidden __ __ __ __ __ __ __ __ __ __ __ __ __ _
 72
    65
 73
     2
 40
9.524999999999996
 49
6.349999999999998
 74
     0
 49
-3.174999999999998
 74
     0
  0
ENDTAB
  0
TABLE
  2
LAYER
  5
14
102
{ACAD_XDICTIONARY
360
15
102
}
330
0
100
AcDbSymbolTable
 70
     7
  0
LAYER
  5
6
330
14
100
AcDbSymbolTableRecord
100
AcDbLayerTableRecord
  2
0
 70
     0
 62
     7
  6
CONTINUOUS
  0
LAYER
  5
1A3
330
14
100
AcDbSymbolTableRecord
100
AcDbLayerTableRecord
  2
3
 70
     0
 62
     3
  6
CONTINUOUS
  0
LAYER
  5
182
330
14
100
AcDbSymbolTableRecord
100
AcDbLayerTableRecord
  2
1
 70
     0
 62
     1
  6
CENTER
  0
LAYER
  5
AC
330
14
100
AcDbSymbolTableRecord
100
AcDbLayerTableRecord
  2
DEFPOINTS
 70
     0
 62
     7
  6
CONTINUOUS
  0
LAYER
  5
114
330
14
100
AcDbSymbolTableRecord
100
AcDbLayerTableRecord
  2
DIM
 70
     0
 62
     3
  6
CONTINUOUS
  0
LAYER
  5
B5
330
14
100
AcDbSymbolTableRecord
100
AcDbLayerTableRecord
  2
CEN
 70
     0
 62
     1
  6
CENTER
  0
LAYER
  5
2AA
330
14
100
AcDbSymbolTableRecord
100
AcDbLayerTableRecord
  2
2
 70
     0
 62
     2
  6
CONTINUOUS
  0
ENDTAB
  0
TABLE
  2
STYLE
  5
8A
330
0
100
AcDbSymbolTable
 70
     2
  0
STYLE
  5
8B
330
8A
100
AcDbSymbolTableRecord
100
AcDbTextStyleTableRecord
  2
STANDARD
 70
     0
 40
0.0
 41
1.0
 50
0.0
 71
     0
 42
5.777225951253058
  3
romans.shx
  4
whgtxt.shx
  0
STYLE
  5
183
330
8A
100
AcDbSymbolTableRecord
100
AcDbTextStyleTableRecord
  2
GHS
 70
     0
 40
0.0
 41
0.6
 50
0.0
 71
     0
 42
3.0
  3
ROMANS
  4
GHS
  0
ENDTAB
  0
TABLE
  2
VIEW
  5
90
330
0
100
AcDbSymbolTable
 70
     0
  0
ENDTAB
  0
TABLE
  2
UCS
  5
91
330
0
100
AcDbSymbolTable
 70
     0
  0
ENDTAB
  0
TABLE
  2
APPID
  5
94
330
0
100
AcDbSymbolTable
 70
     2
  0
APPID
  5
95
330
94
100
AcDbSymbolTableRecord
100
AcDbRegAppTableRecord
  2
ACAD
 70
     0
  0
APPID
  5
524
330
94
100
AcDbSymbolTableRecord
100
AcDbRegAppTableRecord
  2
CONTENTBLOCKICON
 70
     0
  0
ENDTAB
  0
TABLE
  2
DIMSTYLE
  5
96
330
0
100
AcDbSymbolTable
 70
     2
  0
DIMSTYLE
105
A3
102
{ACAD_REACTORS
330
BC
330
286
330
188
330
20F
330
D5
330
EA
330
221
330
22E
330
23F
330
24E
330
265
330
276
330
102
330
2BC
330
158
330
2CE
330
2DD
330
1A4
330
1B3
330
1C2
330
1D3
330
1E4
330
165
330
302
330
174
330
315
330
A0
330
333
330
340
330
352
330
367
102
}
330
96
100
AcDbSymbolTableRecord
100
AcDbDimStyleTableRecord
  2
STANDARD
 70
     0
  3

  4

  5

  6

  7

 40
1.0
 41
2.5
 42
1.0
 43
10.0
 44
0.6
 45
0.0
 46
0.0
 47
0.0
 48
0.0
140
3.0
141
0.09
142
0.0
143
25.4
144
1.0
145
0.0
146
1.0
147
1.0
 71
     0
 72
     0
 73
     0
 74
     0
 75
     0
 76
     0
 77
     1
 78
     8
170
     0
171
     2
172
     1
173
     0
174
     1
175
     0
176
   123
177
   123
178
     3
270
     2
271
     2
272
     2
273
     2
274
     2
340
8B
275
     1
280
     0
281
     0
282
     0
283
     1
284
     0
285
     0
286
     0
287
     0
288
     1
  0
DIMSTYLE
105
9C
330
96
100
AcDbSymbolTableRecord
100
AcDbDimStyleTableRecord
  2
1_1_2
 70
     0
  3

  4

  5

  6

  7

 40
1.0
 41
3.0
 42
1.0
 43
10.0
 44
0.6
 45
0.0
 46
0.0
 47
0.0
 48
0.0
140
3.5
141
0.09
142
0.0
143
25.4
144
1.0
145
0.0
146
1.0
147
1.0
 71
     0
 72
     0
 73
     0
 74
     0
 75
     0
 76
     0
 77
     1
 78
     8
170
     0
171
     2
172
     1
173
     0
174
     1
175
     0
176
   123
177
   123
178
     3
270
     2
271
     2
272
     2
273
     2
274
     2
340
8B
275
     1
280
     0
281
     0
282
     0
283
     1
284
     0
285
     0
286
     0
287
     0
288
     1
  0
ENDTAB
  0
TABLE
  2
BLOCK_RECORD
  5
1
330
0
100
AcDbSymbolTable
 70
    62
  0
BLOCK_RECORD
  5
2
102
{ACAD_XDICTIONARY
360
3
102
}
330
1
100
AcDbSymbolTableRecord
100
AcDbBlockTableRecord
  2
*MODEL_SPACE
  0
BLOCK_RECORD
  5
E
102
{ACAD_XDICTIONARY
360
F
102
}
330
1
100
AcDbSymbolTableRecord
100
AcDbBlockTableRecord
  2
*PAPER_SPACE
  0
BLOCK_RECORD
  5
B8
330
1
100
AcDbSymbolTableRecord
100
AcDbBlockTableRecord
  2
5
1001
ACAD
1000
DesignCenter Data
1002
{
1070
     1
1070
     4
1002
}
1001
CONTENTBLOCKICON
1071
        0
1004
2800000020000000200000000100080000000000000400000000000000000000000000000000000000000000000080000080000000808000800000008000800080800000C0C0C000C0DCC000F0CAA6000020400000206000002080000020A0000020C0000020E00000400000004020000040400000406000004080000040A0
1004
000040C0000040E00000600000006020000060400000606000006080000060A0000060C0000060E00000800000008020000080400000806000008080000080A0000080C0000080E00000A0000000A0200000A0400000A0600000A0800000A0A00000A0C00000A0E00000C0000000C0200000C0400000C0600000C0800000C0
1004
A00000C0C00000C0E00000E0000000E0200000E0400000E0600000E0800000E0A00000E0C00000E0E00040000000400020004000400040006000400080004000A0004000C0004000E00040200000402020004020400040206000402080004020A0004020C0004020E000404000004040200040404000404060004040800040
1004
40A0004040C0004040E00040600000406020004060400040606000406080004060A0004060C0004060E00040800000408020004080400040806000408080004080A0004080C0004080E00040A0000040A0200040A0400040A0600040A0800040A0A00040A0C00040A0E00040C0000040C0200040C0400040C0600040C08000
1004
40C0A00040C0C00040C0E00040E0000040E0200040E0400040E0600040E0800040E0A00040E0C00040E0E00080000000800020008000400080006000800080008000A0008000C0008000E00080200000802020008020400080206000802080008020A0008020C0008020E00080400000804020008040400080406000804080
1004
008040A0008040C0008040E00080600000806020008060400080606000806080008060A0008060C0008060E00080800000808020008080400080806000808080008080A0008080C0008080E00080A0000080A0200080A0400080A0600080A0800080A0A00080A0C00080A0E00080C0000080C0200080C0400080C0600080C0
1004
800080C0A00080C0C00080C0E00080E0000080E0200080E0400080E0600080E0800080E0A00080E0C00080E0E000C0000000C0002000C0004000C0006000C0008000C000A000C000C000C000E000C0200000C0202000C0204000C0206000C0208000C020A000C020C000C020E000C0400000C0402000C0404000C0406000C0
1004
408000C040A000C040C000C040E000C0600000C0602000C0604000C0606000C0608000C060A000C060C000C060E000C0800000C0802000C0804000C0806000C0808000C080A000C080C000C080E000C0A00000C0A02000C0A04000C0A06000C0A08000C0A0A000C0A0C000C0A0E000C0C00000C0C02000C0C04000C0C06000
1004
C0C08000C0C0A000F0FBFF00A4A0A000808080000000FF0000FF000000FFFF00FF000000FF00FF00FFFF0000FFFFFF0000000000000000000000000000000000000000000000000000000000000000000000000000000000000000000000000000000000000000000000000000000000000000000000000000000000000000
1004
00000000000000000000000000000000000000000000F9000000000000000000000000000000F900000000000000000000000000FFF90000000000000000000000000000000000FFF9000000000000000000F3F3F9FF0000000000000000000000000000000000FFFF00000000000000000000F9FF00F90000000000000000
1004
00000000000000F900F9000000000000000000000000F30000000000000000000000000000000000000000000000000000000000000000F3F30000000000000000000000000000000000000000000000000000000000000000F30000000000000000000000000000000000000000000000000000000000000000F300000000
1004
00000000000000000000000000000000000000000000000000000000F30000000000000000000000000000000000000000000000000000000000000000F3F30000000000000000000000000000000000000000000000000000000000000000F300000000000000000000000000000000000000000000000000000000000000
1004
00F30000000000000000000000000000000000000000000000000000000000000000F30000000000000000000000000000000000000000000000000000000000000000F3F30000000000000000000000000000000000000000000000000000000000000000F300000000000000000000000000000000000000000000000000
1004
00000000000000F30000000000000000000000000000000000000000000000000000000000000000F30000000000000000000000000000000000000000000000000000000000000000F3F30000000000000000000000000000000000000000000000000000000000000000F3F900000000000000000000F9FF00F900000000
1004
0000000000000000000000F9F9FFF300000000000000000000FFFF00000000000000000000000000000000F9F9FF00F3000000000000000000FF00F90000000000000000000000000000F900FFF900FAFA000000000000000000000000000000000000000000000000000000000000FAFAFAF3000000000000000000000000
1004
0000000000000000000000000000000000FAFAFAFA0000000000000000000000000000000000000000000000000000000000FAFAFAF3000000000000000000000000000000000000000000000000000000000000FA000000000000000000000000000000000000000000000000000000000000000000000000000000000000
1004
0000000000000000000000000000000000000000000000000000000000000000000000000000000000000000000000000000000000000000
  0
BLOCK_RECORD
  5
BF
330
1
100
AcDbSymbolTableRecord
100
AcDbBlockTableRecord
  2
*D1
  0
BLOCK_RECORD
  5
189
330
1
100
AcDbSymbolTableRecord
100
AcDbBlockTableRecord
  2
*D2
  0
BLOCK_RECORD
  5
EB
330
1
100
AcDbSymbolTableRecord
100
AcDbBlockTableRecord
  2
*D3
  0
BLOCK_RECORD
  5
222
330
1
100
AcDbSymbolTableRecord
100
AcDbBlockTableRecord
  2
*D4
  0
BLOCK_RECORD
  5
240
330
1
100
AcDbSymbolTableRecord
100
AcDbBlockTableRecord
  2
*D5
  0
BLOCK_RECORD
  5
289
330
1
100
AcDbSymbolTableRecord
100
AcDbBlockTableRecord
  2
*D6
  0
BLOCK_RECORD
  5
212
330
1
100
AcDbSymbolTableRecord
100
AcDbBlockTableRecord
  2
*D7
  0
BLOCK_RECORD
  5
D8
330
1
100
AcDbSymbolTableRecord
100
AcDbBlockTableRecord
  2
*D8
  0
BLOCK_RECORD
  5
231
330
1
100
AcDbSymbolTableRecord
100
AcDbBlockTableRecord
  2
*D9
  0
BLOCK_RECORD
  5
251
330
1
100
AcDbSymbolTableRecord
100
AcDbBlockTableRecord
  2
*D10
  0
BLOCK_RECORD
  5
268
330
1
100
AcDbSymbolTableRecord
100
AcDbBlockTableRecord
  2
*D11
  0
BLOCK_RECORD
  5
279
330
1
100
AcDbSymbolTableRecord
100
AcDbBlockTableRecord
  2
*D12
  0
BLOCK_RECORD
  5
105
330
1
100
AcDbSymbolTableRecord
100
AcDbBlockTableRecord
  2
*D13
  0
BLOCK_RECORD
  5
2BD
330
1
100
AcDbSymbolTableRecord
100
AcDbBlockTableRecord
  2
*D14
  0
BLOCK_RECORD
  5
159
330
1
100
AcDbSymbolTableRecord
100
AcDbBlockTableRecord
  2
*D15
  0
BLOCK_RECORD
  5
1B4
330
1
100
AcDbSymbolTableRecord
100
AcDbBlockTableRecord
  2
*D16
  0
BLOCK_RECORD
  5
175
330
1
100
AcDbSymbolTableRecord
100
AcDbBlockTableRecord
  2
*D17
  0
BLOCK_RECORD
  5
316
330
1
100
AcDbSymbolTableRecord
100
AcDbBlockTableRecord
  2
*D18
  0
BLOCK_RECORD
  5
334
330
1
100
AcDbSymbolTableRecord
100
AcDbBlockTableRecord
  2
*D19
  0
BLOCK_RECORD
  5
341
330
1
100
AcDbSymbolTableRecord
100
AcDbBlockTableRecord
  2
*D20
  0
BLOCK_RECORD
  5
2D1
330
1
100
AcDbSymbolTableRecord
100
AcDbBlockTableRecord
  2
*D21
  0
BLOCK_RECORD
  5
2E0
330
1
100
AcDbSymbolTableRecord
100
AcDbBlockTableRecord
  2
*D22
  0
BLOCK_RECORD
  5
1A7
330
1
100
AcDbSymbolTableRecord
100
AcDbBlockTableRecord
  2
*D23
  0
BLOCK_RECORD
  5
1C5
330
1
100
AcDbSymbolTableRecord
100
AcDbBlockTableRecord
  2
*D24
  0
BLOCK_RECORD
  5
1D6
330
1
100
AcDbSymbolTableRecord
100
AcDbBlockTableRecord
  2
*D25
  0
BLOCK_RECORD
  5
1E7
330
1
100
AcDbSymbolTableRecord
100
AcDbBlockTableRecord
  2
*D26
  0
BLOCK_RECORD
  5
168
330
1
100
AcDbSymbolTableRecord
100
AcDbBlockTableRecord
  2
*D27
  0
BLOCK_RECORD
  5
305
330
1
100
AcDbSymbolTableRecord
100
AcDbBlockTableRecord
  2
*D28
  0
BLOCK_RECORD
  5
A4
330
1
100
AcDbSymbolTableRecord
100
AcDbBlockTableRecord
  2
*D29
  0
BLOCK_RECORD
  5
355
330
1
100
AcDbSymbolTableRecord
100
AcDbBlockTableRecord
  2
*D30
  0
BLOCK_RECORD
  5
36A
330
1
100
AcDbSymbolTableRecord
100
AcDbBlockTableRecord
  2
*D31
  0
BLOCK_RECORD
  5
384
330
1
100
AcDbSymbolTableRecord
100
AcDbBlockTableRecord
  2
*D32
  0
BLOCK_RECORD
  5
390
330
1
100
AcDbSymbolTableRecord
100
AcDbBlockTableRecord
  2
*D33
  0
BLOCK_RECORD
  5
39E
330
1
100
AcDbSymbolTableRecord
100
AcDbBlockTableRecord
  2
*D34
  0
BLOCK_RECORD
  5
3AA
330
1
100
AcDbSymbolTableRecord
100
AcDbBlockTableRecord
  2
*D35
  0
BLOCK_RECORD
  5
3B6
330
1
100
AcDbSymbolTableRecord
100
AcDbBlockTableRecord
  2
*D36
  0
BLOCK_RECORD
  5
3C2
330
1
100
AcDbSymbolTableRecord
100
AcDbBlockTableRecord
  2
*D37
  0
BLOCK_RECORD
  5
3CE
330
1
100
AcDbSymbolTableRecord
100
AcDbBlockTableRecord
  2
*D38
  0
BLOCK_RECORD
  5
3DA
330
1
100
AcDbSymbolTableRecord
100
AcDbBlockTableRecord
  2
*D39
  0
BLOCK_RECORD
  5
3E6
330
1
100
AcDbSymbolTableRecord
100
AcDbBlockTableRecord
  2
*D40
  0
BLOCK_RECORD
  5
3F2
330
1
100
AcDbSymbolTableRecord
100
AcDbBlockTableRecord
  2
*D41
  0
BLOCK_RECORD
  5
3FE
330
1
100
AcDbSymbolTableRecord
100
AcDbBlockTableRecord
  2
*D42
  0
BLOCK_RECORD
  5
40C
330
1
100
AcDbSymbolTableRecord
100
AcDbBlockTableRecord
  2
*D43
  0
BLOCK_RECORD
  5
418
330
1
100
AcDbSymbolTableRecord
100
AcDbBlockTableRecord
  2
*D44
  0
BLOCK_RECORD
  5
426
330
1
100
AcDbSymbolTableRecord
100
AcDbBlockTableRecord
  2
*D45
  0
BLOCK_RECORD
  5
432
330
1
100
AcDbSymbolTableRecord
100
AcDbBlockTableRecord
  2
*D46
  0
BLOCK_RECORD
  5
43E
330
1
100
AcDbSymbolTableRecord
100
AcDbBlockTableRecord
  2
*D47
  0
BLOCK_RECORD
  5
44A
330
1
100
AcDbSymbolTableRecord
100
AcDbBlockTableRecord
  2
*D48
  0
BLOCK_RECORD
  5
458
330
1
100
AcDbSymbolTableRecord
100
AcDbBlockTableRecord
  2
*D49
  0
BLOCK_RECORD
  5
466
330
1
100
AcDbSymbolTableRecord
100
AcDbBlockTableRecord
  2
*D50
  0
BLOCK_RECORD
  5
474
330
1
100
AcDbSymbolTableRecord
100
AcDbBlockTableRecord
  2
*D51
  0
BLOCK_RECORD
  5
482
330
1
100
AcDbSymbolTableRecord
100
AcDbBlockTableRecord
  2
*D52
  0
BLOCK_RECORD
  5
48E
330
1
100
AcDbSymbolTableRecord
100
AcDbBlockTableRecord
  2
*D53
  0
BLOCK_RECORD
  5
49A
330
1
100
AcDbSymbolTableRecord
100
AcDbBlockTableRecord
  2
*D54
  0
BLOCK_RECORD
  5
4A6
330
1
100
AcDbSymbolTableRecord
100
AcDbBlockTableRecord
  2
*D55
  0
BLOCK_RECORD
  5
4B4
330
1
100
AcDbSymbolTableRecord
100
AcDbBlockTableRecord
  2
*D56
  0
BLOCK_RECORD
  5
4C0
330
1
100
AcDbSymbolTableRecord
100
AcDbBlockTableRecord
  2
*D57
  0
BLOCK_RECORD
  5
4CE
330
1
100
AcDbSymbolTableRecord
100
AcDbBlockTableRecord
  2
*D58
  0
BLOCK_RECORD
  5
4DA
330
1
100
AcDbSymbolTableRecord
100
AcDbBlockTableRecord
  2
*D59
  0
BLOCK_RECORD
  5
4E6
330
1
100
AcDbSymbolTableRecord
100
AcDbBlockTableRecord
  2
*D60
  0
BLOCK_RECORD
  5
4F4
330
1
100
AcDbSymbolTableRecord
100
AcDbBlockTableRecord
  2
*D61
  0
ENDTAB
  0
ENDSEC
  0
SECTION
  2
BLOCKS
  0
BLOCK
  5
5
330
2
100
AcDbEntity
  8
0
100
AcDbBlockBegin
  2
*MODEL_SPACE
 70
     0
 10
0.0
 20
0.0
 30
0.0
  3
*MODEL_SPACE
  1

  0
ENDBLK
  5
B
330
2
100
AcDbEntity
  8
0
100
AcDbBlockEnd
  0
BLOCK
  5
11
330
E
100
AcDbEntity
 67
     1
  8
0
100
AcDbBlockBegin
  2
*PAPER_SPACE
 70
     0
 10
0.0
 20
0.0
 30
0.0
  3
*PAPER_SPACE
  1

  0
ENDBLK
  5
12
330
E
100
AcDbEntity
 67
     1
  8
0
100
AcDbBlockEnd
  0
BLOCK
  5
D3
330
B8
100
AcDbEntity
  8
0
100
AcDbBlockBegin
  2
5
 70
     0
 10
0.0
 20
0.0
 30
0.0
  3
5
  1

  0
CIRCLE
  5
B9
330
B8
100
AcDbEntity
  8
0
100
AcDbCircle
 10
33.23401871576971
 20
33.2340187157647
 30
0.0
 40
2.75
  0
LINE
  5
BA
330
B8
100
AcDbEntity
  8
CEN
 48
0.6
100
AcDbLine
 10
29.87526150513349
 20
29.87526150512849
 30
0.0
 11
36.59277592640592
 21
36.59277592640092
 31
0.0
  0
ARC
  5
BB
102
{ACAD_REACTORS
330
BE
102
}
330
B8
100
AcDbEntity
  8
CEN
 48
0.6
100
AcDbCircle
 10
-0.0000000000009095
 20
0.0
 30
0.0
 40
47.0
100
AcDbArc
 50
35.54155537381702
 51
54.45844462620417
  0
DIMENSION
  5
BC
102
{ACAD_XDICTIONARY
360
BD
102
}
102
{ACAD_REACTORS
330
BE
102
}
330
B8
100
AcDbEntity
  8
0
100
AcDbDimension
  2
*D1
 10
-37.12703852731556
 20
-28.81983709515498
 30
0.0
 11
52.82902883363476
 21
41.00849583681338
 31
0.0
 12
-5558.635528985877
 22
2192.234809732951
 32
0.0
 70
   131
  1
<>%%P0.5
  3
STANDARD
100
AcDbDiametricDimension
 15
37.12703852731374
 25
28.81983709515407
 35
0.0
 40
0.0
  0
ARC
  5
CA
330
B8
100
AcDbEntity
  8
CEN
 48
0.6
100
AcDbCircle
 10
-0.0000000000009095
 20
0.0000000000004547
 30
0.0
 40
47.0
100
AcDbArc
 50
126.7642625682232
 51
143.2357374317767
  0
LINE
  5
CB
330
B8
100
AcDbEntity
  8
CEN
 48
0.6
100
AcDbLine
 10
-29.87526150512985
 20
29.87526150513439
 30
0.0
 11
-36.59277592640228
 21
36.59277592640683
 31
0.0
  0
CIRCLE
  5
CC
330
B8
100
AcDbEntity
  8
0
100
AcDbCircle
 10
-33.23401871576605
 20
33.23401871577107
 30
0.0
 40
2.75
  0
LINE
  5
CD
330
B8
100
AcDbEntity
  8
CEN
 48
0.6
100
AcDbLine
 10
-29.87526150513439
 20
-29.87526150512895
 30
0.0
 11
-36.59277592640683
 21
-36.59277592640136
 31
0.0
  0
CIRCLE
  5
CE
330
B8
100
AcDbEntity
  8
0
100
AcDbCircle
 10
-33.23401871577061
 20
-33.23401871576516
 30
0.0
 40
2.75
  0
ARC
  5
CF
330
B8
100
AcDbEntity
  8
CEN
 48
0.6
100
AcDbCircle
 10
0.0
 20
-0.0000000000004547
 30
0.0
 40
47.0
100
AcDbArc
 50
215.5415553738169
 51
234.4584446262041
  0
ARC
  5
D0
330
B8
100
AcDbEntity
  8
CEN
 48
0.6
100
AcDbCircle
 10
-0.000000000001819
 20
-0.0000000000004547
 30
0.0
 40
47.0
100
AcDbArc
 50
306.7642625682233
 51
323.2357374317766
  0
LINE
  5
D1
330
B8
100
AcDbEntity
  8
CEN
 48
0.6
100
AcDbLine
 10
29.87526150512712
 20
-29.87526150513439
 30
0.0
 11
36.59277592639954
 21
-36.59277592640683
 31
0.0
  0
CIRCLE
  5
D2
330
B8
100
AcDbEntity
  8
0
100
AcDbCircle
 10
33.23401871576243
 20
-33.23401871577107
 30
0.0
 40
2.75
  0
ENDBLK
  5
D4
330
B8
100
AcDbEntity
  8
0
100
AcDbBlockEnd
  0
BLOCK
  5
C8
330
BF
100
AcDbEntity
  8
0
100
AcDbBlockBegin
  2
*D1
 70
     1
 10
0.0
 20
0.0
 30
0.0
  3
*D1
  1

  0
LINE
  5
C0
330
BF
100
AcDbEntity
  8
0
 62
   123
100
AcDbLine
 10
5519.533647983703
 20
-2222.58761688636
 30
0.0
 11
5517.558805508848
 21
-2224.120586944613
 31
0.0
  0
LINE
  5
C1
330
BF
100
AcDbEntity
  8
0
 62
   123
100
AcDbLine
 10
5597.737409988048
 20
-2161.882002579545
 30
0.0
 11
5619.53319993107
 21
-2144.963036229563
 31
0.0
  0
LINE
  5
C2
330
BF
100
AcDbEntity
  8
0
 62
   123
100
AcDbLine
 10
5521.508490458562
 20
-2221.054646828107
 30
0.0
 11
5595.762567513191
 21
-2163.414972637797
 31
0.0
  0
SOLID
  5
C3
330
BF
100
AcDbEntity
  8
0
 62
   123
100
AcDbTrace
 10
5519.278152973996
 20
-2222.258476473883
 30
0.0
 11
5519.789142993413
 21
-2222.916757298836
 31
0.0
 12
5521.508490458562
 22
-2221.054646828107
 32
0.0
 13
5521.508490458562
 23
-2221.054646828107
 33
0.0
  0
SOLID
  5
C4
330
BF
100
AcDbEntity
  8
0
 62
   123
100
AcDbTrace
 10
5597.481914978339
 20
-2161.552862167069
 30
0.0
 11
5597.992904997757
 21
-2162.21114299202
 31
0.0
 12
5595.762567513191
 22
-2163.414972637797
 32
0.0
 13
5595.762567513191
 23
-2163.414972637797
 33
0.0
  0
MTEXT
  5
C5
330
BF
100
AcDbEntity
  8
0
 62
     3
100
AcDbMText
 10
5609.931587761259
 20
-2149.251471421281
 30
0.0
 40
3.0
 41
0.0
 71
     5
 72
     1
  1
\A1;\U+220594%%P0.5
 11
0.7899369899428739
 21
0.6131880233011666
 31
0.0
1001
ACAD
1000
MTEXTBEGIN
1070
    73
1070
     1
1070
    44
1040
1.0
1070
    74
1070
     0
1000
MTEXTEND
  0
POINT
  5
C6
330
BF
100
AcDbEntity
  8
DEFPOINTS
 62
     0
100
AcDbPoint
 10
5595.762567513191
 20
-2163.414972637797
 30
0.0
  0
POINT
  5
C7
330
BF
100
AcDbEntity
  8
DEFPOINTS
 62
     0
100
AcDbPoint
 10
5521.508490458562
 20
-2221.054646828107
 30
0.0
  0
ENDBLK
  5
C9
330
BF
100
AcDbEntity
  8
0
100
AcDbBlockEnd
  0
BLOCK
  5
193
330
189
100
AcDbEntity
  8
0
100
AcDbBlockBegin
  2
*D2
 70
     1
 10
0.0
 20
0.0
 30
0.0
  3
*D2
  1

  0
LINE
  5
18A
330
189
100
AcDbEntity
  8
0
 62
   123
100
AcDbLine
 10
8599.367226557907
 20
-3110.677006519327
 30
0.0
 11
8599.367226557907
 21
-3085.806093063516
 31
0.0
  0
LINE
  5
18B
330
189
100
AcDbEntity
  8
0
 62
   123
100
AcDbLine
 10
8729.367226557908
 20
-3114.677006519327
 30
0.0
 11
8729.367226557908
 21
-3085.806093063516
 31
0.0
  0
LINE
  5
18C
330
189
100
AcDbEntity
  8
0
 62
   123
100
AcDbLine
 10
8601.867226557908
 20
-3086.406093063516
 30
0.0
 11
8726.867226557908
 21
-3086.406093063516
 31
0.0
  0
SOLID
  5
18D
330
189
100
AcDbEntity
  8
0
 62
   123
100
AcDbTrace
 10
8601.867226557908
 20
-3085.989426396848
 30
0.0
 11
8601.867226557908
 21
-3086.822759730182
 31
0.0
 12
8599.367226557907
 22
-3086.406093063516
 32
0.0
 13
8599.367226557907
 23
-3086.406093063516
 33
0.0
  0
SOLID
  5
18E
330
189
100
AcDbEntity
  8
0
 62
   123
100
AcDbTrace
 10
8726.867226557908
 20
-3085.989426396848
 30
0.0
 11
8726.867226557908
 21
-3086.822759730182
 31
0.0
 12
8729.367226557908
 22
-3086.406093063516
 32
0.0
 13
8729.367226557908
 23
-3086.406093063516
 33
0.0
  0
MTEXT
  5
18F
330
189
100
AcDbEntity
  8
0
 62
     3
100
AcDbMText
 10
8664.367226557908
 20
-3083.906093063516
 30
0.0
 40
3.0
 41
0.0
 71
     5
 72
     1
  1
\A1;130
1001
ACAD
1000
MTEXTBEGIN
1070
    73
1070
     1
1070
    44
1040
1.0
1070
    74
1070
     0
1000
MTEXTEND
  0
POINT
  5
190
330
189
100
AcDbEntity
  8
DEFPOINTS
 62
     0
100
AcDbPoint
 10
8599.367226557907
 20
-3111.677006519327
 30
0.0
  0
POINT
  5
191
330
189
100
AcDbEntity
  8
DEFPOINTS
 62
     0
100
AcDbPoint
 10
8729.367226557908
 20
-3115.677006519327
 30
0.0
  0
POINT
  5
192
330
189
100
AcDbEntity
  8
DEFPOINTS
 62
     0
100
AcDbPoint
 10
8729.367226557908
 20
-3086.406093063516
 30
0.0
  0
ENDBLK
  5
194
330
189
100
AcDbEntity
  8
0
100
AcDbBlockEnd
  0
BLOCK
  5
F5
330
EB
100
AcDbEntity
  8
0
100
AcDbBlockBegin
  2
*D3
 70
     1
 10
0.0
 20
0.0
 30
0.0
  3
*D3
  1

  0
LINE
  5
EC
330
EB
100
AcDbEntity
  8
0
 62
   123
100
AcDbLine
 10
8553.367226557908
 20
-3119.677006519327
 30
0.0
 11
8491.867410134755
 21
-3119.677006519327
 31
0.0
  0
LINE
  5
ED
330
EB
100
AcDbEntity
  8
0
 62
   123
100
AcDbLine
 10
8553.367226557908
 20
-3153.677006519327
 30
0.0
 11
8491.867410134755
 21
-3153.677006519327
 31
0.0
  0
LINE
  5
EE
330
EB
100
AcDbEntity
  8
0
 62
   123
100
AcDbLine
 10
8492.467410134755
 20
-3122.177006519327
 30
0.0
 11
8492.467410134755
 21
-3151.177006519326
 31
0.0
  0
SOLID
  5
EF
330
EB
100
AcDbEntity
  8
0
 62
   123
100
AcDbTrace
 10
8492.050743468089
 20
-3122.177006519327
 30
0.0
 11
8492.884076801422
 21
-3122.177006519327
 31
0.0
 12
8492.467410134755
 22
-3119.677006519327
 32
0.0
 13
8492.467410134755
 23
-3119.677006519327
 33
0.0
  0
SOLID
  5
F0
330
EB
100
AcDbEntity
  8
0
 62
   123
100
AcDbTrace
 10
8492.050743468089
 20
-3151.177006519326
 30
0.0
 11
8492.884076801422
 21
-3151.177006519326
 31
0.0
 12
8492.467410134755
 22
-3153.677006519327
 32
0.0
 13
8492.467410134755
 23
-3153.677006519327
 33
0.0
  0
MTEXT
  5
F1
330
EB
100
AcDbEntity
  8
0
 62
     3
100
AcDbMText
 10
8489.967410134756
 20
-3136.677006519327
 30
0.0
 40
3.0
 41
0.0
 71
     5
 72
     1
  1
\A1;{\f??|b0|i0|c0|p49;%%c}34
 11
0.0000000000000001
 21
1.0
 31
0.0
1001
ACAD
1000
MTEXTBEGIN
1070
    73
1070
     1
1070
    44
1040
1.0
1070
    74
1070
     0
1000
MTEXTEND
  0
POINT
  5
F2
330
EB
100
AcDbEntity
  8
DEFPOINTS
 62
     0
100
AcDbPoint
 10
8554.367226557905
 20
-3119.677006519327
 30
0.0
  0
POINT
  5
F3
330
EB
100
AcDbEntity
  8
DEFPOINTS
 62
     0
100
AcDbPoint
 10
8554.367226557905
 20
-3153.677006519327
 30
0.0
  0
POINT
  5
F4
330
EB
100
AcDbEntity
  8
DEFPOINTS
 62
     0
100
AcDbPoint
 10
8492.467410134755
 20
-3153.677006519327
 30
0.0
  0
ENDBLK
  5
F6
330
EB
100
AcDbEntity
  8
0
100
AcDbBlockEnd
  0
BLOCK
  5
22C
330
222
100
AcDbEntity
  8
0
100
AcDbBlockBegin
  2
*D4
 70
     1
 10
0.0
 20
0.0
 30
0.0
  3
*D4
  1

  0
LINE
  5
223
330
222
100
AcDbEntity
  8
0
 62
   123
100
AcDbLine
 10
8556.867226557908
 20
-3111.177006519326
 30
0.0
 11
8556.867226557908
 21
-3085.806093063516
 31
0.0
  0
LINE
  5
224
330
222
100
AcDbEntity
  8
0
 62
   123
100
AcDbLine
 10
8599.367226557907
 20
-3110.677006519327
 30
0.0
 11
8599.367226557907
 21
-3085.806093063516
 31
0.0
  0
LINE
  5
225
330
222
100
AcDbEntity
  8
0
 62
   123
100
AcDbLine
 10
8559.367226557908
 20
-3086.406093063516
 30
0.0
 11
8596.867226557909
 21
-3086.406093063516
 31
0.0
  0
SOLID
  5
226
330
222
100
AcDbEntity
  8
0
 62
   123
100
AcDbTrace
 10
8559.367226557908
 20
-3085.989426396848
 30
0.0
 11
8559.367226557908
 21
-3086.822759730182
 31
0.0
 12
8556.867226557908
 22
-3086.406093063516
 32
0.0
 13
8556.867226557908
 23
-3086.406093063516
 33
0.0
  0
SOLID
  5
227
330
222
100
AcDbEntity
  8
0
 62
   123
100
AcDbTrace
 10
8596.867226557909
 20
-3085.989426396848
 30
0.0
 11
8596.867226557909
 21
-3086.822759730182
 31
0.0
 12
8599.367226557907
 22
-3086.406093063516
 32
0.0
 13
8599.367226557907
 23
-3086.406093063516
 33
0.0
  0
MTEXT
  5
228
330
222
100
AcDbEntity
  8
0
 62
     3
100
AcDbMText
 10
8576.867226557908
 20
-3083.906093063516
 30
0.0
 40
3.0
 41
0.0
 71
     5
 72
     1
  1
\A1;{\f??|b0|i0|c0|p49;L}
1001
ACAD
1000
MTEXTBEGIN
1070
    73
1070
     1
1070
    44
1040
1.0
1070
    74
1070
     0
1000
MTEXTEND
  0
POINT
  5
229
330
222
100
AcDbEntity
  8
DEFPOINTS
 62
     0
100
AcDbPoint
 10
8556.867226557908
 20
-3112.177006519326
 30
0.0
  0
POINT
  5
22A
330
222
100
AcDbEntity
  8
DEFPOINTS
 62
     0
100
AcDbPoint
 10
8599.367226557907
 20
-3111.677006519327
 30
0.0
  0
POINT
  5
22B
330
222
100
AcDbEntity
  8
DEFPOINTS
 62
     0
100
AcDbPoint
 10
8599.367226557907
 20
-3086.406093063516
 30
0.0
  0
ENDBLK
  5
22D
330
222
100
AcDbEntity
  8
0
100
AcDbBlockEnd
  0
BLOCK
  5
24C
330
240
100
AcDbEntity
  8
0
100
AcDbBlockBegin
  2
*D5
 70
     1
 10
0.0
 20
0.0
 30
0.0
  3
*D5
  1

  0
LINE
  5
241
330
240
100
AcDbEntity
  8
0
 62
   123
100
AcDbLine
 10
8556.867226557908
 20
-3111.177006519326
 30
0.0
 11
8556.867226557908
 21
-3099.333373632267
 31
0.0
  0
LINE
  5
242
330
240
100
AcDbEntity
  8
0
 62
   123
100
AcDbLine
 10
8553.867226557908
 20
-3119.177006519326
 30
0.0
 11
8553.867226557908
 21
-3099.333373632267
 31
0.0
  0
LINE
  5
243
330
240
100
AcDbEntity
  8
0
 62
   123
100
AcDbLine
 10
8559.367226557908
 20
-3099.933373632266
 30
0.0
 11
8561.867226557906
 21
-3099.933373632266
 31
0.0
  0
LINE
  5
244
330
240
100
AcDbEntity
  8
0
 62
   123
100
AcDbLine
 10
8551.367226557905
 20
-3099.933373632266
 30
0.0
 11
8548.867226557907
 21
-3099.933373632266
 31
0.0
  0
LINE
  5
245
330
240
100
AcDbEntity
  8
0
 62
   123
100
AcDbLine
 10
8556.867226557908
 20
-3099.933373632266
 30
0.0
 11
8553.867226557908
 21
-3099.933373632266
 31
0.0
  0
SOLID
  5
246
330
240
100
AcDbEntity
  8
0
 62
   123
100
AcDbTrace
 10
8559.367226557908
 20
-3099.5167069656
 30
0.0
 11
8559.367226557908
 21
-3100.350040298933
 31
0.0
 12
8556.867226557908
 22
-3099.933373632266
 32
0.0
 13
8556.867226557908
 23
-3099.933373632266
 33
0.0
  0
SOLID
  5
247
330
240
100
AcDbEntity
  8
0
 62
   123
100
AcDbTrace
 10
8551.367226557905
 20
-3099.5167069656
 30
0.0
 11
8551.367226557905
 21
-3100.350040298933
 31
0.0
 12
8553.867226557908
 22
-3099.933373632266
 32
0.0
 13
8553.867226557908
 23
-3099.933373632266
 33
0.0
  0
MTEXT
  5
248
330
240
100
AcDbEntity
  8
0
 62
     3
100
AcDbMText
 10
8555.367226557908
 20
-3097.433373632267
 30
0.0
 40
3.0
 41
0.0
 71
     5
 72
     1
  1
\A1;3
1001
ACAD
1000
MTEXTBEGIN
1070
    73
1070
     1
1070
    44
1040
1.0
1070
    74
1070
     0
1000
MTEXTEND
  0
POINT
  5
249
330
240
100
AcDbEntity
  8
DEFPOINTS
 62
     0
100
AcDbPoint
 10
8556.867226557908
 20
-3112.177006519326
 30
0.0
  0
POINT
  5
24A
330
240
100
AcDbEntity
  8
DEFPOINTS
 62
     0
100
AcDbPoint
 10
8553.867226557908
 20
-3120.177006519327
 30
0.0
  0
POINT
  5
24B
330
240
100
AcDbEntity
  8
DEFPOINTS
 62
     0
100
AcDbPoint
 10
8553.867226557908
 20
-3099.933373632266
 30
0.0
  0
ENDBLK
  5
24D
330
240
100
AcDbEntity
  8
0
100
AcDbBlockEnd
  0
BLOCK
  5
293
330
289
100
AcDbEntity
  8
0
100
AcDbBlockBegin
  2
*D6
 70
     1
 10
0.0
 20
0.0
 30
0.0
  3
*D6
  1

  0
LINE
  5
28A
330
289
100
AcDbEntity
  8
0
 62
   123
100
AcDbLine
 10
8384.788471021442
 20
-3115.677006519327
 30
0.0
 11
8384.788471021442
 21
-3093.881438188712
 31
0.0
  0
LINE
  5
28B
330
289
100
AcDbEntity
  8
0
 62
   123
100
AcDbLine
 10
8464.788471021442
 20
-3115.677006519327
 30
0.0
 11
8464.788471021442
 21
-3093.881438188712
 31
0.0
  0
LINE
  5
28C
330
289
100
AcDbEntity
  8
0
 62
   123
100
AcDbLine
 10
8387.288471021442
 20
-3094.481438188712
 30
0.0
 11
8462.288471021443
 21
-3094.481438188712
 31
0.0
  0
SOLID
  5
28D
330
289
100
AcDbEntity
  8
0
 62
   123
100
AcDbTrace
 10
8387.288471021442
 20
-3094.064771522045
 30
0.0
 11
8387.288471021442
 21
-3094.898104855379
 31
0.0
 12
8384.788471021442
 22
-3094.481438188712
 32
0.0
 13
8384.788471021442
 23
-3094.481438188712
 33
0.0
  0
SOLID
  5
28E
330
289
100
AcDbEntity
  8
0
 62
   123
100
AcDbTrace
 10
8462.288471021443
 20
-3094.064771522045
 30
0.0
 11
8462.288471021443
 21
-3094.898104855379
 31
0.0
 12
8464.788471021442
 22
-3094.481438188712
 32
0.0
 13
8464.788471021442
 23
-3094.481438188712
 33
0.0
  0
MTEXT
  5
28F
330
289
100
AcDbEntity
  8
0
 62
     3
100
AcDbMText
 10
8425.547098776283
 20
-3091.981438188712
 30
0.0
 40
3.0
 41
0.0
 71
     5
 72
     1
  1
\A1;80
1001
ACAD
1000
MTEXTBEGIN
1070
    73
1070
     1
1070
    44
1040
1.0
1070
    74
1070
     0
1000
MTEXTEND
  0
POINT
  5
290
330
289
100
AcDbEntity
  8
DEFPOINTS
 62
     0
100
AcDbPoint
 10
8384.788471021442
 20
-3116.677006519326
 30
0.0
  0
POINT
  5
291
330
289
100
AcDbEntity
  8
DEFPOINTS
 62
     0
100
AcDbPoint
 10
8464.788471021442
 20
-3116.677006519326
 30
0.0
  0
POINT
  5
292
330
289
100
AcDbEntity
  8
DEFPOINTS
 62
     0
100
AcDbPoint
 10
8464.788471021442
 20
-3094.481438188712
 30
0.0
  0
ENDBLK
  5
294
330
289
100
AcDbEntity
  8
0
100
AcDbBlockEnd
  0
BLOCK
  5
21C
330
212
100
AcDbEntity
  8
0
100
AcDbBlockBegin
  2
*D7
 70
     1
 10
0.0
 20
0.0
 30
0.0
  3
*D7
  1

  0
LINE
  5
213
330
212
100
AcDbEntity
  8
0
 62
   123
100
AcDbLine
 10
8599.367226557907
 20
-3111.177006519326
 30
0.0
 11
8599.367226557907
 21
-3099.148324455915
 31
0.0
  0
LINE
  5
214
330
212
100
AcDbEntity
  8
0
 62
   123
100
AcDbLine
 10
8606.367226557908
 20
-3112.078269177798
 30
0.0
 11
8606.367226557908
 21
-3099.148324455915
 31
0.0
  0
LINE
  5
215
330
212
100
AcDbEntity
  8
0
 62
   123
100
AcDbLine
 10
8601.867226557908
 20
-3099.748324455914
 30
0.0
 11
8603.867226557907
 21
-3099.748324455914
 31
0.0
  0
SOLID
  5
216
330
212
100
AcDbEntity
  8
0
 62
   123
100
AcDbTrace
 10
8601.867226557908
 20
-3099.331657789249
 30
0.0
 11
8601.867226557908
 21
-3100.164991122582
 31
0.0
 12
8599.367226557907
 22
-3099.748324455914
 32
0.0
 13
8599.367226557907
 23
-3099.748324455914
 33
0.0
  0
SOLID
  5
217
330
212
100
AcDbEntity
  8
0
 62
   123
100
AcDbTrace
 10
8603.867226557907
 20
-3099.331657789249
 30
0.0
 11
8603.867226557907
 21
-3100.164991122582
 31
0.0
 12
8606.367226557908
 22
-3099.748324455914
 32
0.0
 13
8606.367226557908
 23
-3099.748324455914
 33
0.0
  0
MTEXT
  5
218
330
212
100
AcDbEntity
  8
0
 62
     3
100
AcDbMText
 10
8602.867226557908
 20
-3097.248324455915
 30
0.0
 40
3.0
 41
0.0
 71
     5
 72
     1
  1
\A1;7
1001
ACAD
1000
MTEXTBEGIN
1070
    73
1070
     1
1070
    44
1040
1.0
1070
    74
1070
     0
1000
MTEXTEND
  0
POINT
  5
219
330
212
100
AcDbEntity
  8
DEFPOINTS
 62
     0
100
AcDbPoint
 10
8599.367226557907
 20
-3112.177006519326
 30
0.0
  0
POINT
  5
21A
330
212
100
AcDbEntity
  8
DEFPOINTS
 62
     0
100
AcDbPoint
 10
8606.367226557908
 20
-3113.078269177798
 30
0.0
  0
POINT
  5
21B
330
212
100
AcDbEntity
  8
DEFPOINTS
 62
     0
100
AcDbPoint
 10
8606.367226557908
 20
-3099.748324455914
 30
0.0
  0
ENDBLK
  5
21D
330
212
100
AcDbEntity
  8
0
100
AcDbBlockEnd
  0
BLOCK
  5
E2
330
D8
100
AcDbEntity
  8
0
100
AcDbBlockBegin
  2
*D8
 70
     1
 10
0.0
 20
0.0
 30
0.0
  3
*D8
  1

  0
LINE
  5
D9
330
D8
100
AcDbEntity
  8
0
 62
   123
100
AcDbLine
 10
8725.367226557908
 20
-3111.677006519327
 30
0.0
 11
8746.370893527254
 21
-3111.677006519327
 31
0.0
  0
LINE
  5
DA
330
D8
100
AcDbEntity
  8
0
 62
   123
100
AcDbLine
 10
8725.367226557908
 20
-3191.677006519328
 30
0.0
 11
8746.370893527254
 21
-3191.677006519328
 31
0.0
  0
LINE
  5
DB
330
D8
100
AcDbEntity
  8
0
 62
   123
100
AcDbLine
 10
8745.770893527254
 20
-3114.177006519327
 30
0.0
 11
8745.770893527254
 21
-3189.177006519328
 31
0.0
  0
SOLID
  5
DC
330
D8
100
AcDbEntity
  8
0
 62
   123
100
AcDbTrace
 10
8745.354226860587
 20
-3114.177006519327
 30
0.0
 11
8746.187560193922
 21
-3114.177006519327
 31
0.0
 12
8745.770893527254
 22
-3111.677006519327
 32
0.0
 13
8745.770893527254
 23
-3111.677006519327
 33
0.0
  0
SOLID
  5
DD
330
D8
100
AcDbEntity
  8
0
 62
   123
100
AcDbTrace
 10
8745.354226860587
 20
-3189.177006519328
 30
0.0
 11
8746.187560193922
 21
-3189.177006519328
 31
0.0
 12
8745.770893527254
 22
-3191.677006519328
 32
0.0
 13
8745.770893527254
 23
-3191.677006519328
 33
0.0
  0
MTEXT
  5
DE
330
D8
100
AcDbEntity
  8
0
 62
     3
100
AcDbMText
 10
8743.270893527252
 20
-3151.677006519327
 30
0.0
 40
3.0
 41
0.0
 71
     5
 72
     1
  1
\A1;%%C80
 11
0.0000000000000001
 21
1.0
 31
0.0
1001
ACAD
1000
MTEXTBEGIN
1070
    73
1070
     1
1070
    44
1040
1.0
1070
    74
1070
     0
1000
MTEXTEND
  0
POINT
  5
DF
330
D8
100
AcDbEntity
  8
DEFPOINTS
 62
     0
100
AcDbPoint
 10
8724.367226557907
 20
-3111.677006519327
 30
0.0
  0
POINT
  5
E0
330
D8
100
AcDbEntity
  8
DEFPOINTS
 62
     0
100
AcDbPoint
 10
8724.367226557907
 20
-3191.677006519328
 30
0.0
  0
POINT
  5
E1
330
D8
100
AcDbEntity
  8
DEFPOINTS
 62
     0
100
AcDbPoint
 10
8745.770893527254
 20
-3191.677006519328
 30
0.0
  0
ENDBLK
  5
E3
330
D8
100
AcDbEntity
  8
0
100
AcDbBlockEnd
  0
BLOCK
  5
23B
330
231
100
AcDbEntity
  8
0
100
AcDbBlockBegin
  2
*D9
 70
     1
 10
0.0
 20
0.0
 30
0.0
  3
*D9
  1

  0
LINE
  5
232
330
231
100
AcDbEntity
  8
0
 62
   123
100
AcDbLine
 10
8524.867226557908
 20
-3130.677006519327
 30
0.0
 11
8524.867226557908
 21
-3085.808610982451
 31
0.0
  0
LINE
  5
233
330
231
100
AcDbEntity
  8
0
 62
   123
100
AcDbLine
 10
8556.867226557908
 20
-3111.177006519326
 30
0.0
 11
8556.867226557908
 21
-3085.808610982451
 31
0.0
  0
LINE
  5
234
330
231
100
AcDbEntity
  8
0
 62
   123
100
AcDbLine
 10
8527.367226557908
 20
-3086.408610982451
 30
0.0
 11
8554.367226557905
 21
-3086.408610982451
 31
0.0
  0
SOLID
  5
235
330
231
100
AcDbEntity
  8
0
 62
   123
100
AcDbTrace
 10
8527.367226557908
 20
-3085.991944315785
 30
0.0
 11
8527.367226557908
 21
-3086.825277649118
 31
0.0
 12
8524.867226557908
 22
-3086.408610982451
 32
0.0
 13
8524.867226557908
 23
-3086.408610982451
 33
0.0
  0
SOLID
  5
236
330
231
100
AcDbEntity
  8
0
 62
   123
100
AcDbTrace
 10
8554.367226557905
 20
-3085.991944315785
 30
0.0
 11
8554.367226557905
 21
-3086.825277649118
 31
0.0
 12
8556.867226557908
 22
-3086.408610982451
 32
0.0
 13
8556.867226557908
 23
-3086.408610982451
 33
0.0
  0
MTEXT
  5
237
330
231
100
AcDbEntity
  8
0
 62
     3
100
AcDbMText
 10
8541.188458487793
 20
-3083.908610982451
 30
0.0
 40
3.0
 41
0.0
 71
     5
 72
     1
  1
\A1;32
1001
ACAD
1000
MTEXTBEGIN
1070
    73
1070
     1
1070
    44
1040
1.0
1070
    74
1070
     0
1000
MTEXTEND
  0
POINT
  5
238
330
231
100
AcDbEntity
  8
DEFPOINTS
 62
     0
100
AcDbPoint
 10
8524.867226557908
 20
-3131.677006519327
 30
0.0
  0
POINT
  5
239
330
231
100
AcDbEntity
  8
DEFPOINTS
 62
     0
100
AcDbPoint
 10
8556.867226557908
 20
-3112.177006519326
 30
0.0
  0
POINT
  5
23A
330
231
100
AcDbEntity
  8
DEFPOINTS
 62
     0
100
AcDbPoint
 10
8556.867226557908
 20
-3086.408610982451
 30
0.0
  0
ENDBLK
  5
23C
330
231
100
AcDbEntity
  8
0
100
AcDbBlockEnd
  0
BLOCK
  5
25B
330
251
100
AcDbEntity
  8
0
100
AcDbBlockBegin
  2
*D10
 70
     1
 10
0.0
 20
0.0
 30
0.0
  3
*D10
  1

  0
LINE
  5
252
330
251
100
AcDbEntity
  8
0
 62
   123
100
AcDbLine
 10
8549.86722655791
 20
-3130.677006519325
 30
0.0
 11
8549.86722655791
 21
-3114.856718312424
 31
0.0
  0
LINE
  5
253
330
251
100
AcDbEntity
  8
0
 62
   123
100
AcDbLine
 10
8524.867226557908
 20
-3130.677006519327
 30
0.0
 11
8524.867226557908
 21
-3114.856718312424
 31
0.0
  0
LINE
  5
254
330
251
100
AcDbEntity
  8
0
 62
   123
100
AcDbLine
 10
8547.367226557907
 20
-3115.456718312423
 30
0.0
 11
8527.367226557908
 21
-3115.456718312423
 31
0.0
  0
SOLID
  5
255
330
251
100
AcDbEntity
  8
0
 62
   123
100
AcDbTrace
 10
8547.367226557907
 20
-3115.040051645758
 30
0.0
 11
8547.367226557907
 21
-3115.87338497909
 31
0.0
 12
8549.86722655791
 22
-3115.456718312423
 32
0.0
 13
8549.86722655791
 23
-3115.456718312423
 33
0.0
  0
SOLID
  5
256
330
251
100
AcDbEntity
  8
0
 62
   123
100
AcDbTrace
 10
8527.367226557908
 20
-3115.040051645758
 30
0.0
 11
8527.367226557908
 21
-3115.87338497909
 31
0.0
 12
8524.867226557908
 22
-3115.456718312423
 32
0.0
 13
8524.867226557908
 23
-3115.456718312423
 33
0.0
  0
MTEXT
  5
257
330
251
100
AcDbEntity
  8
0
 62
     3
100
AcDbMText
 10
8537.367226557909
 20
-3112.956718312423
 30
0.0
 40
3.0
 41
0.0
 71
     5
 72
     1
  1
\A1;25
1001
ACAD
1000
MTEXTBEGIN
1070
    73
1070
     1
1070
    44
1040
1.0
1070
    74
1070
     0
1000
MTEXTEND
  0
POINT
  5
258
330
251
100
AcDbEntity
  8
DEFPOINTS
 62
     0
100
AcDbPoint
 10
8549.86722655791
 20
-3131.677006519326
 30
0.0
  0
POINT
  5
259
330
251
100
AcDbEntity
  8
DEFPOINTS
 62
     0
100
AcDbPoint
 10
8524.867226557908
 20
-3131.677006519327
 30
0.0
  0
POINT
  5
25A
330
251
100
AcDbEntity
  8
DEFPOINTS
 62
     0
100
AcDbPoint
 10
8524.867226557908
 20
-3115.456718312423
 30
0.0
  0
ENDBLK
  5
25C
330
251
100
AcDbEntity
  8
0
100
AcDbBlockEnd
  0
BLOCK
  5
274
330
268
100
AcDbEntity
  8
0
100
AcDbBlockBegin
  2
*D11
 70
     1
 10
0.0
 20
0.0
 30
0.0
  3
*D11
  1

  0
LINE
  5
269
330
268
100
AcDbEntity
  8
0
 62
   123
100
AcDbLine
 10
8523.867226557909
 20
-3141.677006519326
 30
0.0
 11
8509.44256326893
 21
-3141.677006519326
 31
0.0
  0
LINE
  5
26A
330
268
100
AcDbEntity
  8
0
 62
   123
100
AcDbLine
 10
8523.867226557909
 20
-3131.677006519327
 30
0.0
 11
8509.44256326893
 21
-3131.677006519327
 31
0.0
  0
LINE
  5
26B
330
268
100
AcDbEntity
  8
0
 62
   123
100
AcDbLine
 10
8510.04256326893
 20
-3144.177006519326
 30
0.0
 11
8510.04256326893
 21
-3146.677006519327
 31
0.0
  0
LINE
  5
26C
330
268
100
AcDbEntity
  8
0
 62
   123
100
AcDbLine
 10
8510.04256326893
 20
-3129.177006519327
 30
0.0
 11
8510.04256326893
 21
-3089.058277669224
 31
0.0
  0
LINE
  5
26D
330
268
100
AcDbEntity
  8
0
 62
   123
100
AcDbLine
 10
8510.04256326893
 20
-3141.677006519326
 30
0.0
 11
8510.04256326893
 21
-3131.677006519327
 31
0.0
  0
SOLID
  5
26E
330
268
100
AcDbEntity
  8
0
 62
   123
100
AcDbTrace
 10
8509.625896602265
 20
-3144.177006519326
 30
0.0
 11
8510.459229935596
 21
-3144.177006519326
 31
0.0
 12
8510.04256326893
 22
-3141.677006519326
 32
0.0
 13
8510.04256326893
 23
-3141.677006519326
 33
0.0
  0
SOLID
  5
26F
330
268
100
AcDbEntity
  8
0
 62
   123
100
AcDbTrace
 10
8509.625896602265
 20
-3129.177006519327
 30
0.0
 11
8510.459229935596
 21
-3129.177006519327
 31
0.0
 12
8510.04256326893
 22
-3131.677006519327
 32
0.0
 13
8510.04256326893
 23
-3131.677006519327
 33
0.0
  0
MTEXT
  5
270
330
268
100
AcDbEntity
  8
0
 62
     3
100
AcDbMText
 10
8506.092413268929
 20
-3103.873849097794
 30
0.0
 40
3.0
 41
0.0
 71
     5
 72
     1
  1
\A1;\A1;{\f??|b0|i0|c0|p49;%%C10\H0.7x;\S+0^ -0.015;\H1.429x;(h7)}
 11
0.0000000000000001
 21
1.0
 31
0.0
1001
ACAD
1000
MTEXTBEGIN
1070
    73
1070
     1
1070
    44
1040
1.0
1070
    74
1070
     0
1000
MTEXTEND
  0
POINT
  5
271
330
268
100
AcDbEntity
  8
DEFPOINTS
 62
     0
100
AcDbPoint
 10
8524.867226557908
 20
-3141.677006519326
 30
0.0
  0
POINT
  5
272
330
268
100
AcDbEntity
  8
DEFPOINTS
 62
     0
100
AcDbPoint
 10
8524.867226557908
 20
-3131.677006519327
 30
0.0
  0
POINT
  5
273
330
268
100
AcDbEntity
  8
DEFPOINTS
 62
     0
100
AcDbPoint
 10
8510.04256326893
 20
-3131.677006519327
 30
0.0
  0
ENDBLK
  5
275
330
268
100
AcDbEntity
  8
0
100
AcDbBlockEnd
  0
BLOCK
  5
283
330
279
100
AcDbEntity
  8
0
100
AcDbBlockBegin
  2
*D12
 70
     1
 10
0.0
 20
0.0
 30
0.0
  3
*D12
  1

  0
LINE
  5
27A
330
279
100
AcDbEntity
  8
0
 62
   123
100
AcDbLine
 10
8519.969087756679
 20
-3136.677006519327
 30
0.0
 11
8499.937379199566
 21
-3136.677006519327
 31
0.0
  0
LINE
  5
27B
330
279
100
AcDbEntity
  8
0
 62
   123
100
AcDbLine
 10
8526.334274126877
 20
-3151.677006519327
 30
0.0
 11
8499.937379199566
 21
-3151.677006519327
 31
0.0
  0
LINE
  5
27C
330
279
100
AcDbEntity
  8
0
 62
   123
100
AcDbLine
 10
8500.537379199567
 20
-3139.177006519327
 30
0.0
 11
8500.537379199567
 21
-3149.177006519327
 31
0.0
  0
SOLID
  5
27D
330
279
100
AcDbEntity
  8
0
 62
   123
100
AcDbTrace
 10
8500.120712532901
 20
-3139.177006519327
 30
0.0
 11
8500.954045866233
 21
-3139.177006519327
 31
0.0
 12
8500.537379199567
 22
-3136.677006519327
 32
0.0
 13
8500.537379199567
 23
-3136.677006519327
 33
0.0
  0
SOLID
  5
27E
330
279
100
AcDbEntity
  8
0
 62
   123
100
AcDbTrace
 10
8500.120712532901
 20
-3149.177006519327
 30
0.0
 11
8500.954045866233
 21
-3149.177006519327
 31
0.0
 12
8500.537379199567
 22
-3151.677006519327
 32
0.0
 13
8500.537379199567
 23
-3151.677006519327
 33
0.0
  0
MTEXT
  5
27F
330
279
100
AcDbEntity
  8
0
 62
     3
100
AcDbMText
 10
8498.037379199566
 20
-3144.177006519326
 30
0.0
 40
3.0
 41
0.0
 71
     5
 72
     1
  1
\A1;15
 11
0.0000000000000001
 21
1.0
 31
0.0
1001
ACAD
1000
MTEXTBEGIN
1070
    73
1070
     1
1070
    44
1040
1.0
1070
    74
1070
     0
1000
MTEXTEND
  0
POINT
  5
280
330
279
100
AcDbEntity
  8
DEFPOINTS
 62
     0
100
AcDbPoint
 10
8520.969087756679
 20
-3136.677006519327
 30
0.0
  0
POINT
  5
281
330
279
100
AcDbEntity
  8
DEFPOINTS
 62
     0
100
AcDbPoint
 10
8527.334274126875
 20
-3151.677006519327
 30
0.0
  0
POINT
  5
282
330
279
100
AcDbEntity
  8
DEFPOINTS
 62
     0
100
AcDbPoint
 10
8500.537379199567
 20
-3151.677006519327
 30
0.0
  0
ENDBLK
  5
284
330
279
100
AcDbEntity
  8
0
100
AcDbBlockEnd
  0
BLOCK
  5
111
330
105
100
AcDbEntity
  8
0
100
AcDbBlockBegin
  2
*D13
 70
     1
 10
0.0
 20
0.0
 30
0.0
  3
*D13
  1

  0
LINE
  5
106
330
105
100
AcDbEntity
  8
0
 62
   123
100
AcDbLine
 10
8424.788471021441
 20
-3199.849129727724
 30
0.0
 11
8424.788471021441
 21
-3225.14700621921
 31
0.0
  0
LINE
  5
107
330
105
100
AcDbEntity
  8
0
 62
   123
100
AcDbLine
 10
8441.739696948728
 20
-3192.600886051838
 30
0.0
 11
8452.904222682454
 21
-3219.554435495663
 31
0.0
  0
ARC
  5
108
330
105
100
AcDbEntity
  8
0
 62
   123
100
AcDbCircle
 10
8424.788471021441
 20
-3151.677006519321
 30
0.0
 40
72.86999969988868
100
AcDbArc
 50
271.9657811870681
 51
290.5342188129261
  0
SOLID
  5
109
330
105
100
AcDbEntity
  8
0
 62
   123
100
AcDbTrace
 10
8427.29525060831
 20
-3224.920726989264
 30
0.0
 11
8427.280955745255
 21
-3224.087516270817
 31
0.0
 12
8424.788471021441
 22
-3224.54700621921
 32
0.0
 13
8424.788471021441
 23
-3224.54700621921
 33
0.0
  0
SOLID
  5
10A
330
105
100
AcDbEntity
  8
0
 62
   123
100
AcDbTrace
 10
8450.196017811014
 20
-3219.529427026666
 30
0.0
 11
8450.501667017237
 21
-3220.304683762968
 31
0.0
 12
8452.674612623033
 22
-3219.000107776155
 32
0.0
 13
8452.674612623033
 23
-3219.000107776155
 33
0.0
  0
MTEXT
  5
10B
330
105
100
AcDbEntity
  8
0
 62
     3
100
AcDbMText
 10
8439.155084643404
 20
-3220.272979251346
 30
0.0
 40
3.0
 41
0.0
 71
     5
 72
     1
  1
\A1;22°30'
 11
0.9787639600895655
 21
0.2049905130238759
 31
0.0
1001
ACAD
1000
MTEXTBEGIN
1070
    73
1070
     1
1070
    44
1040
1.0
1070
    74
1070
     0
1000
MTEXTEND
  0
POINT
  5
10C
330
105
100
AcDbEntity
  8
DEFPOINTS
 62
     0
100
AcDbPoint
 10
8434.29991460934
 20
-3223.923593270088
 30
0.0
  0
POINT
  5
10D
330
105
100
AcDbEntity
  8
DEFPOINTS
 62
     0
100
AcDbPoint
 10
8424.788471021441
 20
-3198.849129727722
 30
0.0
  0
POINT
  5
10E
330
105
100
AcDbEntity
  8
DEFPOINTS
 62
     0
100
AcDbPoint
 10
8441.357013516363
 20
-3191.677006519327
 30
0.0
  0
POINT
  5
10F
330
105
100
AcDbEntity
  8
DEFPOINTS
 62
     0
100
AcDbPoint
 10
8424.788471021441
 20
-3151.677006519328
 30
0.0
  0
POINT
  5
110
330
105
100
AcDbEntity
  8
DEFPOINTS
 62
     0
100
AcDbPoint
 10
8424.788471021441
 20
-3104.50488331093
 30
0.0
  0
ENDBLK
  5
112
330
105
100
AcDbEntity
  8
0
100
AcDbBlockEnd
  0
BLOCK
  5
2C9
330
2BD
100
AcDbEntity
  8
0
100
AcDbBlockBegin
  2
*D14
 70
     1
 10
0.0
 20
0.0
 30
0.0
  3
*D14
  1

  0
LINE
  5
2BE
330
2BD
100
AcDbEntity
  8
0
 62
   123
100
AcDbLine
 10
8630.132053047871
 20
-2884.01106024388
 30
0.0
 11
8630.132053047871
 21
-2877.301132334975
 31
0.0
  0
LINE
  5
2BF
330
2BD
100
AcDbEntity
  8
0
 62
   123
100
AcDbLine
 10
8627.132053047871
 20
-2892.01106024388
 30
0.0
 11
8627.132053047871
 21
-2877.301132334975
 31
0.0
  0
LINE
  5
2C0
330
2BD
100
AcDbEntity
  8
0
 62
   123
100
AcDbLine
 10
8632.632053047869
 20
-2877.901132334974
 30
0.0
 11
8635.13205304787
 21
-2877.901132334974
 31
0.0
  0
LINE
  5
2C1
330
2BD
100
AcDbEntity
  8
0
 62
   123
100
AcDbLine
 10
8624.63205304787
 20
-2877.901132334974
 30
0.0
 11
8622.132053047868
 21
-2877.901132334974
 31
0.0
  0
LINE
  5
2C2
330
2BD
100
AcDbEntity
  8
0
 62
   123
100
AcDbLine
 10
8630.132053047871
 20
-2877.901132334974
 30
0.0
 11
8627.132053047871
 21
-2877.901132334974
 31
0.0
  0
SOLID
  5
2C3
330
2BD
100
AcDbEntity
  8
0
 62
   123
100
AcDbTrace
 10
8632.632053047869
 20
-2877.484465668308
 30
0.0
 11
8632.632053047869
 21
-2878.317799001642
 31
0.0
 12
8630.132053047871
 22
-2877.901132334974
 32
0.0
 13
8630.132053047871
 23
-2877.901132334974
 33
0.0
  0
SOLID
  5
2C4
330
2BD
100
AcDbEntity
  8
0
 62
   123
100
AcDbTrace
 10
8624.63205304787
 20
-2877.484465668308
 30
0.0
 11
8624.63205304787
 21
-2878.317799001642
 31
0.0
 12
8627.132053047871
 22
-2877.901132334974
 32
0.0
 13
8627.132053047871
 23
-2877.901132334974
 33
0.0
  0
MTEXT
  5
2C5
330
2BD
100
AcDbEntity
  8
0
 62
     3
100
AcDbMText
 10
8628.632053047871
 20
-2875.401132334975
 30
0.0
 40
3.0
 41
0.0
 71
     5
 72
     1
  1
\A1;3
1001
ACAD
1000
MTEXTBEGIN
1070
    73
1070
     1
1070
    44
1040
1.0
1070
    74
1070
     0
1000
MTEXTEND
  0
POINT
  5
2C6
330
2BD
100
AcDbEntity
  8
DEFPOINTS
 62
     0
100
AcDbPoint
 10
8630.132053047871
 20
-2885.01106024388
 30
0.0
  0
POINT
  5
2C7
330
2BD
100
AcDbEntity
  8
DEFPOINTS
 62
     0
100
AcDbPoint
 10
8627.132053047871
 20
-2893.01106024388
 30
0.0
  0
POINT
  5
2C8
330
2BD
100
AcDbEntity
  8
DEFPOINTS
 62
     0
100
AcDbPoint
 10
8627.132053047871
 20
-2877.901132334974
 30
0.0
  0
ENDBLK
  5
2CA
330
2BD
100
AcDbEntity
  8
0
100
AcDbBlockEnd
  0
BLOCK
  5
163
330
159
100
AcDbEntity
  8
0
100
AcDbBlockBegin
  2
*D15
 70
     1
 10
0.0
 20
0.0
 30
0.0
  3
*D15
  1

  0
LINE
  5
15A
330
159
100
AcDbEntity
  8
0
 62
   123
100
AcDbLine
 10
8672.63205304787
 20
-2965.01106024388
 30
0.0
 11
8672.63205304787
 21
-2978.198741292171
 31
0.0
  0
LINE
  5
15B
330
159
100
AcDbEntity
  8
0
 62
   123
100
AcDbLine
 10
8630.132053047871
 20
-2965.01106024388
 30
0.0
 11
8630.132053047871
 21
-2978.198741292171
 31
0.0
  0
LINE
  5
15C
330
159
100
AcDbEntity
  8
0
 62
   123
100
AcDbLine
 10
8670.13205304787
 20
-2977.598741292172
 30
0.0
 11
8632.632053047869
 21
-2977.598741292172
 31
0.0
  0
SOLID
  5
15D
330
159
100
AcDbEntity
  8
0
 62
   123
100
AcDbTrace
 10
8670.13205304787
 20
-2977.182074625504
 30
0.0
 11
8670.13205304787
 21
-2978.015407958837
 31
0.0
 12
8672.63205304787
 22
-2977.598741292172
 32
0.0
 13
8672.63205304787
 23
-2977.598741292172
 33
0.0
  0
SOLID
  5
15E
330
159
100
AcDbEntity
  8
0
 62
   123
100
AcDbTrace
 10
8632.632053047869
 20
-2977.182074625504
 30
0.0
 11
8632.632053047869
 21
-2978.015407958837
 31
0.0
 12
8630.132053047871
 22
-2977.598741292172
 32
0.0
 13
8630.132053047871
 23
-2977.598741292172
 33
0.0
  0
MTEXT
  5
15F
330
159
100
AcDbEntity
  8
0
 62
     3
100
AcDbMText
 10
8651.38205304787
 20
-2975.098741292171
 30
0.0
 40
3.0
 41
0.0
 71
     5
 72
     1
  1
\A1;L
1001
ACAD
1000
MTEXTBEGIN
1070
    73
1070
     1
1070
    44
1040
1.0
1070
    74
1070
     0
1000
MTEXTEND
  0
POINT
  5
160
330
159
100
AcDbEntity
  8
DEFPOINTS
 62
     0
100
AcDbPoint
 10
8672.63205304787
 20
-2964.01106024388
 30
0.0
  0
POINT
  5
161
330
159
100
AcDbEntity
  8
DEFPOINTS
 62
     0
100
AcDbPoint
 10
8630.132053047871
 20
-2964.01106024388
 30
0.0
  0
POINT
  5
162
330
159
100
AcDbEntity
  8
DEFPOINTS
 62
     0
100
AcDbPoint
 10
8630.132053047871
 20
-2977.598741292172
 30
0.0
  0
ENDBLK
  5
164
330
159
100
AcDbEntity
  8
0
100
AcDbBlockEnd
  0
BLOCK
  5
1C0
330
1B4
100
AcDbEntity
  8
0
100
AcDbBlockBegin
  2
*D16
 70
     1
 10
0.0
 20
0.0
 30
0.0
  3
*D16
  1

  0
LINE
  5
1B5
330
1B4
100
AcDbEntity
  8
0
 62
   123
100
AcDbLine
 10
8446.780429042552
 20
-3032.672732495214
 30
0.0
 11
8454.549484198016
 21
-3032.672732495214
 31
0.0
  0
LINE
  5
1B6
330
1B4
100
AcDbEntity
  8
0
 62
   123
100
AcDbLine
 10
8446.780429042552
 20
-3028.672732495214
 30
0.0
 11
8454.549484198016
 21
-3028.672732495214
 31
0.0
  0
LINE
  5
1B7
330
1B4
100
AcDbEntity
  8
0
 62
   123
100
AcDbLine
 10
8453.949484198016
 20
-3035.172732495215
 30
0.0
 11
8453.949484198016
 21
-3037.672732495215
 31
0.0
  0
LINE
  5
1B8
330
1B4
100
AcDbEntity
  8
0
 62
   123
100
AcDbLine
 10
8453.949484198016
 20
-3026.172732495215
 30
0.0
 11
8453.949484198016
 21
-3007.108984986839
 31
0.0
  0
LINE
  5
1B9
330
1B4
100
AcDbEntity
  8
0
 62
   123
100
AcDbLine
 10
8453.949484198016
 20
-3032.672732495214
 30
0.0
 11
8453.949484198016
 21
-3028.672732495214
 31
0.0
  0
SOLID
  5
1BA
330
1B4
100
AcDbEntity
  8
0
 62
   123
100
AcDbTrace
 10
8453.53281753135
 20
-3035.172732495215
 30
0.0
 11
8454.366150864682
 21
-3035.172732495215
 31
0.0
 12
8453.949484198016
 22
-3032.672732495214
 32
0.0
 13
8453.949484198016
 23
-3032.672732495214
 33
0.0
  0
SOLID
  5
1BB
330
1B4
100
AcDbEntity
  8
0
 62
   123
100
AcDbTrace
 10
8453.53281753135
 20
-3026.172732495215
 30
0.0
 11
8454.366150864682
 21
-3026.172732495215
 31
0.0
 12
8453.949484198016
 22
-3028.672732495214
 32
0.0
 13
8453.949484198016
 23
-3028.672732495214
 33
0.0
  0
MTEXT
  5
1BC
330
1B4
100
AcDbEntity
  8
0
 62
     3
100
AcDbMText
 10
8450.499484198015
 20
-3013.823270701124
 30
0.0
 40
3.0
 41
0.0
 71
     5
 72
     1
  1
\A1;\A1;4{\f??|b0|i0|c0|p49;\H0.7x;\S+0^ -0.03;}
 11
0.0000000000000001
 21
1.0
 31
0.0
1001
ACAD
1000
MTEXTBEGIN
1070
    73
1070
     1
1070
    44
1040
1.0
1070
    74
1070
     0
1000
MTEXTEND
  0
POINT
  5
1BD
330
1B4
100
AcDbEntity
  8
DEFPOINTS
 62
     0
100
AcDbPoint
 10
8445.780429042553
 20
-3032.672732495214
 30
0.0
  0
POINT
  5
1BE
330
1B4
100
AcDbEntity
  8
DEFPOINTS
 62
     0
100
AcDbPoint
 10
8445.780429042553
 20
-3028.672732495214
 30
0.0
  0
POINT
  5
1BF
330
1B4
100
AcDbEntity
  8
DEFPOINTS
 62
     0
100
AcDbPoint
 10
8453.949484198016
 20
-3028.672732495214
 30
0.0
  0
ENDBLK
  5
1C1
330
1B4
100
AcDbEntity
  8
0
100
AcDbBlockEnd
  0
BLOCK
  5
17F
330
175
100
AcDbEntity
  8
0
100
AcDbBlockBegin
  2
*D17
 70
     1
 10
0.0
 20
0.0
 30
0.0
  3
*D17
  1

  0
LINE
  5
176
330
175
100
AcDbEntity
  8
0
 62
   123
100
AcDbLine
 10
8598.132053047867
 20
-2915.511060243879
 30
0.0
 11
8598.132053047867
 21
-2978.198741292171
 31
0.0
  0
LINE
  5
177
330
175
100
AcDbEntity
  8
0
 62
   123
100
AcDbLine
 10
8630.132053047871
 20
-2965.01106024388
 30
0.0
 11
8630.132053047871
 21
-2978.198741292171
 31
0.0
  0
LINE
  5
178
330
175
100
AcDbEntity
  8
0
 62
   123
100
AcDbLine
 10
8600.632053047872
 20
-2977.598741292172
 30
0.0
 11
8627.63205304787
 21
-2977.598741292172
 31
0.0
  0
SOLID
  5
179
330
175
100
AcDbEntity
  8
0
 62
   123
100
AcDbTrace
 10
8600.632053047872
 20
-2977.182074625504
 30
0.0
 11
8600.632053047872
 21
-2978.015407958837
 31
0.0
 12
8598.132053047867
 22
-2977.598741292172
 32
0.0
 13
8598.132053047867
 23
-2977.598741292172
 33
0.0
  0
SOLID
  5
17A
330
175
100
AcDbEntity
  8
0
 62
   123
100
AcDbTrace
 10
8627.63205304787
 20
-2977.182074625504
 30
0.0
 11
8627.63205304787
 21
-2978.015407958837
 31
0.0
 12
8630.132053047871
 22
-2977.598741292172
 32
0.0
 13
8630.132053047871
 23
-2977.598741292172
 33
0.0
  0
MTEXT
  5
17B
330
175
100
AcDbEntity
  8
0
 62
     3
100
AcDbMText
 10
8614.132053047867
 20
-2975.098741292171
 30
0.0
 40
3.0
 41
0.0
 71
     5
 72
     1
  1
\A1;32
1001
ACAD
1000
MTEXTBEGIN
1070
    73
1070
     1
1070
    44
1040
1.0
1070
    74
1070
     0
1000
MTEXTEND
  0
POINT
  5
17C
330
175
100
AcDbEntity
  8
DEFPOINTS
 62
     0
100
AcDbPoint
 10
8598.132053047867
 20
-2914.51106024388
 30
0.0
  0
POINT
  5
17D
330
175
100
AcDbEntity
  8
DEFPOINTS
 62
     0
100
AcDbPoint
 10
8630.132053047871
 20
-2964.01106024388
 30
0.0
  0
POINT
  5
17E
330
175
100
AcDbEntity
  8
DEFPOINTS
 62
     0
100
AcDbPoint
 10
8630.132053047871
 20
-2977.598741292172
 30
0.0
  0
ENDBLK
  5
180
330
175
100
AcDbEntity
  8
0
100
AcDbBlockEnd
  0
BLOCK
  5
320
330
316
100
AcDbEntity
  8
0
100
AcDbBlockBegin
  2
*D18
 70
     1
 10
0.0
 20
0.0
 30
0.0
  3
*D18
  1

  0
LINE
  5
317
330
316
100
AcDbEntity
  8
0
 62
   123
100
AcDbLine
 10
8626.632053047869
 20
-2892.511060243879
 30
0.0
 11
8564.017671156305
 21
-2892.511060243879
 31
0.0
  0
LINE
  5
318
330
316
100
AcDbEntity
  8
0
 62
   123
100
AcDbLine
 10
8626.632053047869
 20
-2926.51106024388
 30
0.0
 11
8564.017671156305
 21
-2926.51106024388
 31
0.0
  0
LINE
  5
319
330
316
100
AcDbEntity
  8
0
 62
   123
100
AcDbLine
 10
8564.617671156305
 20
-2895.011060243879
 30
0.0
 11
8564.617671156305
 21
-2924.01106024388
 31
0.0
  0
SOLID
  5
31A
330
316
100
AcDbEntity
  8
0
 62
   123
100
AcDbTrace
 10
8564.201004489637
 20
-2895.011060243879
 30
0.0
 11
8565.034337822972
 21
-2895.011060243879
 31
0.0
 12
8564.617671156305
 22
-2892.511060243879
 32
0.0
 13
8564.617671156305
 23
-2892.511060243879
 33
0.0
  0
SOLID
  5
31B
330
316
100
AcDbEntity
  8
0
 62
   123
100
AcDbTrace
 10
8564.201004489637
 20
-2924.01106024388
 30
0.0
 11
8565.034337822972
 21
-2924.01106024388
 31
0.0
 12
8564.617671156305
 22
-2926.51106024388
 32
0.0
 13
8564.617671156305
 23
-2926.51106024388
 33
0.0
  0
MTEXT
  5
31C
330
316
100
AcDbEntity
  8
0
 62
     3
100
AcDbMText
 10
8562.117671156306
 20
-2909.51106024388
 30
0.0
 40
3.0
 41
0.0
 71
     5
 72
     1
  1
\A1;{\f??|b0|i0|c0|p49;%%c}34
 11
0.0000000000000001
 21
1.0
 31
0.0
1001
ACAD
1000
MTEXTBEGIN
1070
    73
1070
     1
1070
    44
1040
1.0
1070
    74
1070
     0
1000
MTEXTEND
  0
POINT
  5
31D
330
316
100
AcDbEntity
  8
DEFPOINTS
 62
     0
100
AcDbPoint
 10
8627.63205304787
 20
-2892.511060243879
 30
0.0
  0
POINT
  5
31E
330
316
100
AcDbEntity
  8
DEFPOINTS
 62
     0
100
AcDbPoint
 10
8627.63205304787
 20
-2926.51106024388
 30
0.0
  0
POINT
  5
31F
330
316
100
AcDbEntity
  8
DEFPOINTS
 62
     0
100
AcDbPoint
 10
8564.617671156305
 20
-2926.51106024388
 30
0.0
  0
ENDBLK
  5
321
330
316
100
AcDbEntity
  8
0
100
AcDbBlockEnd
  0
BLOCK
  5
33E
330
334
100
AcDbEntity
  8
0
100
AcDbBlockBegin
  2
*D19
 70
     1
 10
0.0
 20
0.0
 30
0.0
  3
*D19
  1

  0
LINE
  5
335
330
334
100
AcDbEntity
  8
0
 62
   123
100
AcDbLine
 10
8591.370739662728
 20
-2773.476715360523
 30
0.0
 11
8591.370739662728
 21
-2717.125223740582
 31
0.0
  0
LINE
  5
336
330
334
100
AcDbEntity
  8
0
 62
   123
100
AcDbLine
 10
8604.870739662729
 20
-2736.581715360522
 30
0.0
 11
8604.870739662729
 21
-2717.125223740582
 31
0.0
  0
LINE
  5
337
330
334
100
AcDbEntity
  8
0
 62
   123
100
AcDbLine
 10
8593.87073966273
 20
-2717.725223740582
 30
0.0
 11
8602.370739662729
 21
-2717.725223740582
 31
0.0
  0
SOLID
  5
338
330
334
100
AcDbEntity
  8
0
 62
   123
100
AcDbTrace
 10
8593.87073966273
 20
-2717.308557073915
 30
0.0
 11
8593.87073966273
 21
-2718.141890407249
 31
0.0
 12
8591.370739662728
 22
-2717.725223740582
 32
0.0
 13
8591.370739662728
 23
-2717.725223740582
 33
0.0
  0
SOLID
  5
339
330
334
100
AcDbEntity
  8
0
 62
   123
100
AcDbTrace
 10
8602.370739662729
 20
-2717.308557073915
 30
0.0
 11
8602.370739662729
 21
-2718.141890407249
 31
0.0
 12
8604.870739662729
 22
-2717.725223740582
 32
0.0
 13
8604.870739662729
 23
-2717.725223740582
 33
0.0
  0
MTEXT
  5
33A
330
334
100
AcDbEntity
  8
0
 62
     3
100
AcDbMText
 10
8598.620739662729
 20
-2715.225223740581
 30
0.0
 40
3.0
 41
0.0
 71
     5
 72
     1
  1
\A1;13.5
1001
ACAD
1000
MTEXTBEGIN
1070
    73
1070
     1
1070
    44
1040
1.0
1070
    74
1070
     0
1000
MTEXTEND
  0
POINT
  5
33B
330
334
100
AcDbEntity
  8
DEFPOINTS
 62
     0
100
AcDbPoint
 10
8591.370739662728
 20
-2774.476715360523
 30
0.0
  0
POINT
  5
33C
330
334
100
AcDbEntity
  8
DEFPOINTS
 62
     0
100
AcDbPoint
 10
8604.870739662729
 20
-2737.581715360521
 30
0.0
  0
POINT
  5
33D
330
334
100
AcDbEntity
  8
DEFPOINTS
 62
     0
100
AcDbPoint
 10
8604.870739662729
 20
-2717.725223740582
 30
0.0
  0
ENDBLK
  5
33F
330
334
100
AcDbEntity
  8
0
100
AcDbBlockEnd
  0
BLOCK
  5
34D
330
341
100
AcDbEntity
  8
0
100
AcDbBlockBegin
  2
*D20
 70
     1
 10
0.0
 20
0.0
 30
0.0
  3
*D20
  1

  0
LINE
  5
342
330
341
100
AcDbEntity
  8
0
 62
   123
100
AcDbLine
 10
8602.870739662728
 20
-2740.081715360523
 30
0.0
 11
8602.870739662728
 21
-2727.419227635493
 31
0.0
  0
LINE
  5
343
330
341
100
AcDbEntity
  8
0
 62
   123
100
AcDbLine
 10
8604.870739662729
 20
-2736.581715360522
 30
0.0
 11
8604.870739662729
 21
-2727.419227635493
 31
0.0
  0
LINE
  5
344
330
341
100
AcDbEntity
  8
0
 62
   123
100
AcDbLine
 10
8607.370739662728
 20
-2728.019227635492
 30
0.0
 11
8609.87073966273
 21
-2728.019227635492
 31
0.0
  0
LINE
  5
345
330
341
100
AcDbEntity
  8
0
 62
   123
100
AcDbLine
 10
8600.370739662729
 20
-2728.019227635492
 30
0.0
 11
8593.87073966273
 21
-2728.019227635492
 31
0.0
  0
LINE
  5
346
330
341
100
AcDbEntity
  8
0
 62
   123
100
AcDbLine
 10
8604.870739662729
 20
-2728.019227635492
 30
0.0
 11
8602.870739662728
 21
-2728.019227635492
 31
0.0
  0
SOLID
  5
347
330
341
100
AcDbEntity
  8
0
 62
   123
100
AcDbTrace
 10
8607.370739662728
 20
-2727.602560968826
 30
0.0
 11
8607.370739662728
 21
-2728.435894302159
 31
0.0
 12
8604.870739662729
 22
-2728.019227635492
 32
0.0
 13
8604.870739662729
 23
-2728.019227635492
 33
0.0
  0
SOLID
  5
348
330
341
100
AcDbEntity
  8
0
 62
   123
100
AcDbTrace
 10
8600.370739662729
 20
-2727.602560968826
 30
0.0
 11
8600.370739662729
 21
-2728.435894302159
 31
0.0
 12
8602.870739662728
 22
-2728.019227635492
 32
0.0
 13
8602.870739662728
 23
-2728.019227635492
 33
0.0
  0
MTEXT
  5
349
330
341
100
AcDbEntity
  8
0
 62
     3
100
AcDbMText
 10
8595.870739662728
 20
-2725.519227635492
 30
0.0
 40
3.0
 41
0.0
 71
     5
 72
     1
  1
\A1;2
1001
ACAD
1000
MTEXTBEGIN
1070
    73
1070
     1
1070
    44
1040
1.0
1070
    74
1070
     0
1000
MTEXTEND
  0
POINT
  5
34A
330
341
100
AcDbEntity
  8
DEFPOINTS
 62
     0
100
AcDbPoint
 10
8602.870739662728
 20
-2741.081715360523
 30
0.0
  0
POINT
  5
34B
330
341
100
AcDbEntity
  8
DEFPOINTS
 62
     0
100
AcDbPoint
 10
8604.870739662729
 20
-2737.581715360521
 30
0.0
  0
POINT
  5
34C
330
341
100
AcDbEntity
  8
DEFPOINTS
 62
     0
100
AcDbPoint
 10
8604.870739662729
 20
-2728.019227635492
 30
0.0
  0
ENDBLK
  5
34E
330
341
100
AcDbEntity
  8
0
100
AcDbBlockEnd
  0
BLOCK
  5
2DB
330
2D1
100
AcDbEntity
  8
0
100
AcDbBlockBegin
  2
*D21
 70
     1
 10
0.0
 20
0.0
 30
0.0
  3
*D21
  1

  0
LINE
  5
2D2
330
2D1
100
AcDbEntity
  8
0
 62
   123
100
AcDbLine
 10
8593.233914246644
 20
-2909.51106024388
 30
0.0
 11
8573.685506376374
 21
-2909.51106024388
 31
0.0
  0
LINE
  5
2D3
330
2D1
100
AcDbEntity
  8
0
 62
   123
100
AcDbLine
 10
8585.524379913769
 20
-2924.511060243879
 30
0.0
 11
8573.685506376374
 21
-2924.511060243879
 31
0.0
  0
LINE
  5
2D4
330
2D1
100
AcDbEntity
  8
0
 62
   123
100
AcDbLine
 10
8574.285506376375
 20
-2912.01106024388
 30
0.0
 11
8574.285506376375
 21
-2922.01106024388
 31
0.0
  0
SOLID
  5
2D5
330
2D1
100
AcDbEntity
  8
0
 62
   123
100
AcDbTrace
 10
8573.868839709708
 20
-2912.01106024388
 30
0.0
 11
8574.702173043041
 21
-2912.01106024388
 31
0.0
 12
8574.285506376375
 22
-2909.51106024388
 32
0.0
 13
8574.285506376375
 23
-2909.51106024388
 33
0.0
  0
SOLID
  5
2D6
330
2D1
100
AcDbEntity
  8
0
 62
   123
100
AcDbTrace
 10
8573.868839709708
 20
-2922.01106024388
 30
0.0
 11
8574.702173043041
 21
-2922.01106024388
 31
0.0
 12
8574.285506376375
 22
-2924.511060243879
 32
0.0
 13
8574.285506376375
 23
-2924.511060243879
 33
0.0
  0
MTEXT
  5
2D7
330
2D1
100
AcDbEntity
  8
0
 62
     3
100
AcDbMText
 10
8571.785506376375
 20
-2917.011060243878
 30
0.0
 40
3.0
 41
0.0
 71
     5
 72
     1
  1
\A1;15
 11
0.0000000000000001
 21
1.0
 31
0.0
1001
ACAD
1000
MTEXTBEGIN
1070
    73
1070
     1
1070
    44
1040
1.0
1070
    74
1070
     0
1000
MTEXTEND
  0
POINT
  5
2D8
330
2D1
100
AcDbEntity
  8
DEFPOINTS
 62
     0
100
AcDbPoint
 10
8594.233914246647
 20
-2909.51106024388
 30
0.0
  0
POINT
  5
2D9
330
2D1
100
AcDbEntity
  8
DEFPOINTS
 62
     0
100
AcDbPoint
 10
8586.524379913768
 20
-2924.511060243879
 30
0.0
  0
POINT
  5
2DA
330
2D1
100
AcDbEntity
  8
DEFPOINTS
 62
     0
100
AcDbPoint
 10
8574.285506376375
 20
-2924.511060243879
 30
0.0
  0
ENDBLK
  5
2DC
330
2D1
100
AcDbEntity
  8
0
100
AcDbBlockEnd
  0
BLOCK
  5
2EC
330
2E0
100
AcDbEntity
  8
0
100
AcDbBlockBegin
  2
*D22
 70
     1
 10
0.0
 20
0.0
 30
0.0
  3
*D22
  1

  0
LINE
  5
2E1
330
2E0
100
AcDbEntity
  8
0
 62
   123
100
AcDbLine
 10
8597.13205304787
 20
-2914.51106024388
 30
0.0
 11
8582.707389758894
 21
-2914.51106024388
 31
0.0
  0
LINE
  5
2E2
330
2E0
100
AcDbEntity
  8
0
 62
   123
100
AcDbLine
 10
8597.13205304787
 20
-2904.51106024388
 30
0.0
 11
8582.707389758894
 21
-2904.51106024388
 31
0.0
  0
LINE
  5
2E3
330
2E0
100
AcDbEntity
  8
0
 62
   123
100
AcDbLine
 10
8583.307389758894
 20
-2917.01106024388
 30
0.0
 11
8583.307389758894
 21
-2919.51106024388
 31
0.0
  0
LINE
  5
2E4
330
2E0
100
AcDbEntity
  8
0
 62
   123
100
AcDbLine
 10
8583.307389758894
 20
-2902.01106024388
 30
0.0
 11
8583.307389758894
 21
-2861.584554889565
 31
0.0
  0
LINE
  5
2E5
330
2E0
100
AcDbEntity
  8
0
 62
   123
100
AcDbLine
 10
8583.307389758894
 20
-2914.51106024388
 30
0.0
 11
8583.307389758894
 21
-2904.51106024388
 31
0.0
  0
SOLID
  5
2E6
330
2E0
100
AcDbEntity
  8
0
 62
   123
100
AcDbTrace
 10
8582.890723092228
 20
-2917.01106024388
 30
0.0
 11
8583.724056425561
 21
-2917.01106024388
 31
0.0
 12
8583.307389758894
 22
-2914.51106024388
 32
0.0
 13
8583.307389758894
 23
-2914.51106024388
 33
0.0
  0
SOLID
  5
2E7
330
2E0
100
AcDbEntity
  8
0
 62
   123
100
AcDbTrace
 10
8582.890723092228
 20
-2902.01106024388
 30
0.0
 11
8583.724056425561
 21
-2902.01106024388
 31
0.0
 12
8583.307389758894
 22
-2904.51106024388
 32
0.0
 13
8583.307389758894
 23
-2904.51106024388
 33
0.0
  0
MTEXT
  5
2E8
330
2E0
100
AcDbEntity
  8
0
 62
     3
100
AcDbMText
 10
8579.357239758897
 20
-2876.400126318137
 30
0.0
 40
3.0
 41
0.0
 71
     5
 72
     1
  1
\A1;\A1;{\f??|b0|i0|c0|p49;%%C10\H0.7x;\S+0^ -0.015;\H1.429x;(h7)}
 11
0.0000000000000001
 21
1.0
 31
0.0
1001
ACAD
1000
MTEXTBEGIN
1070
    73
1070
     1
1070
    44
1040
1.0
1070
    74
1070
     0
1000
MTEXTEND
  0
POINT
  5
2E9
330
2E0
100
AcDbEntity
  8
DEFPOINTS
 62
     0
100
AcDbPoint
 10
8598.132053047867
 20
-2914.51106024388
 30
0.0
  0
POINT
  5
2EA
330
2E0
100
AcDbEntity
  8
DEFPOINTS
 62
     0
100
AcDbPoint
 10
8598.132053047867
 20
-2904.51106024388
 30
0.0
  0
POINT
  5
2EB
330
2E0
100
AcDbEntity
  8
DEFPOINTS
 62
     0
100
AcDbPoint
 10
8583.307389758894
 20
-2904.51106024388
 30
0.0
  0
ENDBLK
  5
2ED
330
2E0
100
AcDbEntity
  8
0
100
AcDbBlockEnd
  0
BLOCK
  5
1B1
330
1A7
100
AcDbEntity
  8
0
100
AcDbBlockBegin
  2
*D23
 70
     1
 10
0.0
 20
0.0
 30
0.0
  3
*D23
  1

  0
LINE
  5
1A8
330
1A7
100
AcDbEntity
  8
0
 62
   123
100
AcDbLine
 10
8420.780429042553
 20
-3029.672732495214
 30
0.0
 11
8420.780429042553
 21
-3020.26753851474
 31
0.0
  0
LINE
  5
1A9
330
1A7
100
AcDbEntity
  8
0
 62
   123
100
AcDbLine
 10
8445.780429042553
 20
-3027.672732495215
 30
0.0
 11
8445.780429042553
 21
-3020.26753851474
 31
0.0
  0
LINE
  5
1AA
330
1A7
100
AcDbEntity
  8
0
 62
   123
100
AcDbLine
 10
8423.280429042552
 20
-3020.867538514739
 30
0.0
 11
8443.280429042552
 21
-3020.867538514739
 31
0.0
  0
SOLID
  5
1AB
330
1A7
100
AcDbEntity
  8
0
 62
   123
100
AcDbTrace
 10
8423.280429042552
 20
-3020.450871848073
 30
0.0
 11
8423.280429042552
 21
-3021.284205181406
 31
0.0
 12
8420.780429042553
 22
-3020.867538514739
 32
0.0
 13
8420.780429042553
 23
-3020.867538514739
 33
0.0
  0
SOLID
  5
1AC
330
1A7
100
AcDbEntity
  8
0
 62
   123
100
AcDbTrace
 10
8443.280429042552
 20
-3020.450871848073
 30
0.0
 11
8443.280429042552
 21
-3021.284205181406
 31
0.0
 12
8445.780429042553
 22
-3020.867538514739
 32
0.0
 13
8445.780429042553
 23
-3020.867538514739
 33
0.0
  0
MTEXT
  5
1AD
330
1A7
100
AcDbEntity
  8
0
 62
     3
100
AcDbMText
 10
8433.280429042552
 20
-3018.367538514739
 30
0.0
 40
3.0
 41
0.0
 71
     5
 72
     1
  1
\A1;25{\f??|b0|i0|c0|p49;%%p0.2}
1001
ACAD
1000
MTEXTBEGIN
1070
    73
1070
     1
1070
    44
1040
1.0
1070
    74
1070
     0
1000
MTEXTEND
  0
POINT
  5
1AE
330
1A7
100
AcDbEntity
  8
DEFPOINTS
 62
     0
100
AcDbPoint
 10
8420.780429042553
 20
-3030.672732495215
 30
0.0
  0
POINT
  5
1AF
330
1A7
100
AcDbEntity
  8
DEFPOINTS
 62
     0
100
AcDbPoint
 10
8445.780429042553
 20
-3028.672732495214
 30
0.0
  0
POINT
  5
1B0
330
1A7
100
AcDbEntity
  8
DEFPOINTS
 62
     0
100
AcDbPoint
 10
8445.780429042553
 20
-3020.867538514739
 30
0.0
  0
ENDBLK
  5
1B2
330
1A7
100
AcDbEntity
  8
0
100
AcDbBlockEnd
  0
BLOCK
  5
1D1
330
1C5
100
AcDbEntity
  8
0
100
AcDbBlockBegin
  2
*D24
 70
     1
 10
0.0
 20
0.0
 30
0.0
  3
*D24
  1

  0
LINE
  5
1C6
330
1C5
100
AcDbEntity
  8
0
 62
   123
100
AcDbLine
 10
8512.884462069811
 20
-3029.773027782212
 30
0.0
 11
8527.981794563993
 21
-3029.773027782212
 31
0.0
  0
LINE
  5
1C7
330
1C5
100
AcDbEntity
  8
0
 62
   123
100
AcDbLine
 10
8510.884462069808
 20
-3027.273027782212
 30
0.0
 11
8527.981794563993
 21
-3027.273027782212
 31
0.0
  0
LINE
  5
1C8
330
1C5
100
AcDbEntity
  8
0
 62
   123
100
AcDbLine
 10
8527.381794563993
 20
-3032.273027782212
 30
0.0
 11
8527.381794563993
 21
-3034.773027782212
 31
0.0
  0
LINE
  5
1C9
330
1C5
100
AcDbEntity
  8
0
 62
   123
100
AcDbLine
 10
8527.381794563993
 20
-3024.773027782212
 30
0.0
 11
8527.381794563993
 21
-3003.358742067927
 31
0.0
  0
LINE
  5
1CA
330
1C5
100
AcDbEntity
  8
0
 62
   123
100
AcDbLine
 10
8527.381794563993
 20
-3029.773027782212
 30
0.0
 11
8527.381794563993
 21
-3027.273027782212
 31
0.0
  0
SOLID
  5
1CB
330
1C5
100
AcDbEntity
  8
0
 62
   123
100
AcDbTrace
 10
8526.965127897327
 20
-3032.273027782212
 30
0.0
 11
8527.798461230659
 21
-3032.273027782212
 31
0.0
 12
8527.381794563993
 22
-3029.773027782212
 32
0.0
 13
8527.381794563993
 23
-3029.773027782212
 33
0.0
  0
SOLID
  5
1CC
330
1C5
100
AcDbEntity
  8
0
 62
   123
100
AcDbTrace
 10
8526.965127897327
 20
-3024.773027782212
 30
0.0
 11
8527.798461230659
 21
-3024.773027782212
 31
0.0
 12
8527.381794563993
 22
-3027.273027782212
 32
0.0
 13
8527.381794563993
 23
-3027.273027782212
 33
0.0
  0
MTEXT
  5
1CD
330
1C5
100
AcDbEntity
  8
0
 62
     3
100
AcDbMText
 10
8523.931794563992
 20
-3011.065884925067
 30
0.0
 40
3.0
 41
0.0
 71
     5
 72
     1
  1
\A1;\A1;2.5{\f??|b0|i0|c0|p49;\H0.7x;\S+0.1^ -0;\H1.429x; }
 11
0.0000000000000001
 21
1.0
 31
0.0
1001
ACAD
1000
MTEXTBEGIN
1070
    73
1070
     1
1070
    44
1040
1.0
1070
    74
1070
     0
1000
MTEXTEND
  0
POINT
  5
1CE
330
1C5
100
AcDbEntity
  8
DEFPOINTS
 62
     0
100
AcDbPoint
 10
8511.884462069811
 20
-3029.773027782212
 30
0.0
  0
POINT
  5
1CF
330
1C5
100
AcDbEntity
  8
DEFPOINTS
 62
     0
100
AcDbPoint
 10
8509.884462069811
 20
-3027.273027782212
 30
0.0
  0
POINT
  5
1D0
330
1C5
100
AcDbEntity
  8
DEFPOINTS
 62
     0
100
AcDbPoint
 10
8527.381794563993
 20
-3027.273027782212
 30
0.0
  0
ENDBLK
  5
1D2
330
1C5
100
AcDbEntity
  8
0
100
AcDbBlockEnd
  0
BLOCK
  5
1E2
330
1D6
100
AcDbEntity
  8
0
100
AcDbBlockBegin
  2
*D25
 70
     1
 10
0.0
 20
0.0
 30
0.0
  3
*D25
  1

  0
LINE
  5
1D7
330
1D6
100
AcDbEntity
  8
0
 62
   123
100
AcDbLine
 10
8462.951082329267
 20
-3027.672732495215
 30
0.0
 11
8462.951082329267
 21
-3019.398256836583
 31
0.0
  0
LINE
  5
1D8
330
1D6
100
AcDbEntity
  8
0
 62
   123
100
AcDbLine
 10
8466.951082329265
 20
-3027.672732495215
 30
0.0
 11
8466.951082329265
 21
-3019.398256836583
 31
0.0
  0
LINE
  5
1D9
330
1D6
100
AcDbEntity
  8
0
 62
   123
100
AcDbLine
 10
8460.451082329266
 20
-3019.998256836583
 30
0.0
 11
8457.951082329266
 21
-3019.998256836583
 31
0.0
  0
LINE
  5
1DA
330
1D6
100
AcDbEntity
  8
0
 62
   123
100
AcDbLine
 10
8469.451082329266
 20
-3019.998256836583
 30
0.0
 11
8471.951082329267
 21
-3019.998256836583
 31
0.0
  0
LINE
  5
1DB
330
1D6
100
AcDbEntity
  8
0
 62
   123
100
AcDbLine
 10
8462.951082329267
 20
-3019.998256836583
 30
0.0
 11
8466.951082329265
 21
-3019.998256836583
 31
0.0
  0
SOLID
  5
1DC
330
1D6
100
AcDbEntity
  8
0
 62
   123
100
AcDbTrace
 10
8460.451082329266
 20
-3019.581590169917
 30
0.0
 11
8460.451082329266
 21
-3020.414923503249
 31
0.0
 12
8462.951082329267
 22
-3019.998256836583
 32
0.0
 13
8462.951082329267
 23
-3019.998256836583
 33
0.0
  0
SOLID
  5
1DD
330
1D6
100
AcDbEntity
  8
0
 62
   123
100
AcDbTrace
 10
8469.451082329266
 20
-3019.581590169917
 30
0.0
 11
8469.451082329266
 21
-3020.414923503249
 31
0.0
 12
8466.951082329265
 22
-3019.998256836583
 32
0.0
 13
8466.951082329265
 23
-3019.998256836583
 33
0.0
  0
MTEXT
  5
1DE
330
1D6
100
AcDbEntity
  8
0
 62
     3
100
AcDbMText
 10
8464.951082329266
 20
-3016.548256836583
 30
0.0
 40
3.0
 41
0.0
 71
     5
 72
     1
  1
\A1;\A1;4{\f??|b0|i0|c0|p49;\H0.7x;\S+0^ -0.03;}
1001
ACAD
1000
MTEXTBEGIN
1070
    73
1070
     1
1070
    44
1040
1.0
1070
    74
1070
     0
1000
MTEXTEND
  0
POINT
  5
1DF
330
1D6
100
AcDbEntity
  8
DEFPOINTS
 62
     0
100
AcDbPoint
 10
8462.951082329267
 20
-3028.672732495214
 30
0.0
  0
POINT
  5
1E0
330
1D6
100
AcDbEntity
  8
DEFPOINTS
 62
     0
100
AcDbPoint
 10
8466.951082329265
 20
-3028.672732495214
 30
0.0
  0
POINT
  5
1E1
330
1D6
100
AcDbEntity
  8
DEFPOINTS
 62
     0
100
AcDbPoint
 10
8466.951082329265
 20
-3019.998256836583
 30
0.0
  0
ENDBLK
  5
1E3
330
1D6
100
AcDbEntity
  8
0
100
AcDbBlockEnd
  0
BLOCK
  5
1F3
330
1E7
100
AcDbEntity
  8
0
100
AcDbBlockBegin
  2
*D26
 70
     1
 10
0.0
 20
0.0
 30
0.0
  3
*D26
  1

  0
LINE
  5
1E8
330
1E7
100
AcDbEntity
  8
0
 62
   123
100
AcDbLine
 10
8507.884462069808
 20
-3026.690452087255
 30
0.0
 11
8507.884462069808
 21
-3018.331439542281
 31
0.0
  0
LINE
  5
1E9
330
1E7
100
AcDbEntity
  8
0
 62
   123
100
AcDbLine
 10
8511.884462069811
 20
-3026.690452087255
 30
0.0
 11
8511.884462069811
 21
-3018.331439542281
 31
0.0
  0
LINE
  5
1EA
330
1E7
100
AcDbEntity
  8
0
 62
   123
100
AcDbLine
 10
8505.384462069811
 20
-3018.931439542281
 30
0.0
 11
8502.884462069811
 21
-3018.931439542281
 31
0.0
  0
LINE
  5
1EB
330
1E7
100
AcDbEntity
  8
0
 62
   123
100
AcDbLine
 10
8514.384462069811
 20
-3018.931439542281
 30
0.0
 11
8516.884462069809
 21
-3018.931439542281
 31
0.0
  0
LINE
  5
1EC
330
1E7
100
AcDbEntity
  8
0
 62
   123
100
AcDbLine
 10
8507.884462069808
 20
-3018.931439542281
 30
0.0
 11
8511.884462069811
 21
-3018.931439542281
 31
0.0
  0
SOLID
  5
1ED
330
1E7
100
AcDbEntity
  8
0
 62
   123
100
AcDbTrace
 10
8505.384462069811
 20
-3018.514772875614
 30
0.0
 11
8505.384462069811
 21
-3019.348106208947
 31
0.0
 12
8507.884462069808
 22
-3018.931439542281
 32
0.0
 13
8507.884462069808
 23
-3018.931439542281
 33
0.0
  0
SOLID
  5
1EE
330
1E7
100
AcDbEntity
  8
0
 62
   123
100
AcDbTrace
 10
8514.384462069811
 20
-3018.514772875614
 30
0.0
 11
8514.384462069811
 21
-3019.348106208947
 31
0.0
 12
8511.884462069811
 22
-3018.931439542281
 32
0.0
 13
8511.884462069811
 23
-3018.931439542281
 33
0.0
  0
MTEXT
  5
1EF
330
1E7
100
AcDbEntity
  8
0
 62
     3
100
AcDbMText
 10
8509.884462069811
 20
-3015.481439542281
 30
0.0
 40
3.0
 41
0.0
 71
     5
 72
     1
  1
\A1;\A1;4{\f??|b0|i0|c0|p49;\H0.7x;\S+0.40^ -0;}
1001
ACAD
1000
MTEXTBEGIN
1070
    73
1070
     1
1070
    44
1040
1.0
1070
    74
1070
     0
1000
MTEXTEND
  0
POINT
  5
1F0
330
1E7
100
AcDbEntity
  8
DEFPOINTS
 62
     0
100
AcDbPoint
 10
8507.884462069808
 20
-3027.690452087256
 30
0.0
  0
POINT
  5
1F1
330
1E7
100
AcDbEntity
  8
DEFPOINTS
 62
     0
100
AcDbPoint
 10
8511.884462069811
 20
-3027.690452087256
 30
0.0
  0
POINT
  5
1F2
330
1E7
100
AcDbEntity
  8
DEFPOINTS
 62
     0
100
AcDbPoint
 10
8511.884462069811
 20
-3018.931439542281
 30
0.0
  0
ENDBLK
  5
1F4
330
1E7
100
AcDbEntity
  8
0
100
AcDbBlockEnd
  0
BLOCK
  5
172
330
168
100
AcDbEntity
  8
0
100
AcDbBlockBegin
  2
*D27
 70
     1
 10
0.0
 20
0.0
 30
0.0
  3
*D27
  1

  0
LINE
  5
169
330
168
100
AcDbEntity
  8
0
 62
   123
100
AcDbLine
 10
8452.478932455379
 20
-2960.511060243879
 30
0.0
 11
8452.478932455379
 21
-2986.088021583999
 31
0.0
  0
LINE
  5
16A
330
168
100
AcDbEntity
  8
0
 62
   123
100
AcDbLine
 10
8532.478932455379
 20
-2960.511060243879
 30
0.0
 11
8532.478932455379
 21
-2986.088021583999
 31
0.0
  0
LINE
  5
16B
330
168
100
AcDbEntity
  8
0
 62
   123
100
AcDbLine
 10
8454.978932455379
 20
-2985.488021584
 30
0.0
 11
8529.978932455378
 21
-2985.488021584
 31
0.0
  0
SOLID
  5
16C
330
168
100
AcDbEntity
  8
0
 62
   123
100
AcDbTrace
 10
8454.978932455379
 20
-2985.071354917332
 30
0.0
 11
8454.978932455379
 21
-2985.904688250666
 31
0.0
 12
8452.478932455379
 22
-2985.488021584
 32
0.0
 13
8452.478932455379
 23
-2985.488021584
 33
0.0
  0
SOLID
  5
16D
330
168
100
AcDbEntity
  8
0
 62
   123
100
AcDbTrace
 10
8529.978932455378
 20
-2985.071354917332
 30
0.0
 11
8529.978932455378
 21
-2985.904688250666
 31
0.0
 12
8532.478932455379
 22
-2985.488021584
 32
0.0
 13
8532.478932455379
 23
-2985.488021584
 33
0.0
  0
MTEXT
  5
16E
330
168
100
AcDbEntity
  8
0
 62
     3
100
AcDbMText
 10
8496.2981502259
 20
-2982.988021584
 30
0.0
 40
3.0
 41
0.0
 71
     5
 72
     1
  1
\A1;80
1001
ACAD
1000
MTEXTBEGIN
1070
    73
1070
     1
1070
    44
1040
1.0
1070
    74
1070
     0
1000
MTEXTEND
  0
POINT
  5
16F
330
168
100
AcDbEntity
  8
DEFPOINTS
 62
     0
100
AcDbPoint
 10
8452.478932455379
 20
-2959.51106024388
 30
0.0
  0
POINT
  5
170
330
168
100
AcDbEntity
  8
DEFPOINTS
 62
     0
100
AcDbPoint
 10
8532.478932455379
 20
-2959.51106024388
 30
0.0
  0
POINT
  5
171
330
168
100
AcDbEntity
  8
DEFPOINTS
 62
     0
100
AcDbPoint
 10
8532.478932455379
 20
-2985.488021584
 30
0.0
  0
ENDBLK
  5
173
330
168
100
AcDbEntity
  8
0
100
AcDbBlockEnd
  0
BLOCK
  5
30F
330
305
100
AcDbEntity
  8
0
100
AcDbBlockBegin
  2
*D28
 70
     1
 10
0.0
 20
0.0
 30
0.0
  3
*D28
  1

  0
LINE
  5
306
330
305
100
AcDbEntity
  8
0
 62
   123
100
AcDbLine
 10
8623.13205304787
 20
-2903.51106024388
 30
0.0
 11
8623.13205304787
 21
-2887.690772036978
 31
0.0
  0
LINE
  5
307
330
305
100
AcDbEntity
  8
0
 62
   123
100
AcDbLine
 10
8598.132053047867
 20
-2903.51106024388
 30
0.0
 11
8598.132053047867
 21
-2887.690772036978
 31
0.0
  0
LINE
  5
308
330
305
100
AcDbEntity
  8
0
 62
   123
100
AcDbLine
 10
8620.632053047868
 20
-2888.290772036978
 30
0.0
 11
8600.632053047872
 21
-2888.290772036978
 31
0.0
  0
SOLID
  5
309
330
305
100
AcDbEntity
  8
0
 62
   123
100
AcDbTrace
 10
8620.632053047868
 20
-2887.874105370311
 30
0.0
 11
8620.632053047868
 21
-2888.707438703644
 31
0.0
 12
8623.13205304787
 22
-2888.290772036978
 32
0.0
 13
8623.13205304787
 23
-2888.290772036978
 33
0.0
  0
SOLID
  5
30A
330
305
100
AcDbEntity
  8
0
 62
   123
100
AcDbTrace
 10
8600.632053047872
 20
-2887.874105370311
 30
0.0
 11
8600.632053047872
 21
-2888.707438703644
 31
0.0
 12
8598.132053047867
 22
-2888.290772036978
 32
0.0
 13
8598.132053047867
 23
-2888.290772036978
 33
0.0
  0
MTEXT
  5
30B
330
305
100
AcDbEntity
  8
0
 62
     3
100
AcDbMText
 10
8610.942983715267
 20
-2885.790772036978
 30
0.0
 40
3.0
 41
0.0
 71
     5
 72
     1
  1
\A1;25
1001
ACAD
1000
MTEXTBEGIN
1070
    73
1070
     1
1070
    44
1040
1.0
1070
    74
1070
     0
1000
MTEXTEND
  0
POINT
  5
30C
330
305
100
AcDbEntity
  8
DEFPOINTS
 62
     0
100
AcDbPoint
 10
8623.13205304787
 20
-2904.51106024388
 30
0.0
  0
POINT
  5
30D
330
305
100
AcDbEntity
  8
DEFPOINTS
 62
     0
100
AcDbPoint
 10
8598.132053047867
 20
-2904.51106024388
 30
0.0
  0
POINT
  5
30E
330
305
100
AcDbEntity
  8
DEFPOINTS
 62
     0
100
AcDbPoint
 10
8598.132053047867
 20
-2888.290772036978
 30
0.0
  0
ENDBLK
  5
310
330
305
100
AcDbEntity
  8
0
100
AcDbBlockEnd
  0
BLOCK
  5
AF
330
A4
100
AcDbEntity
  8
0
100
AcDbBlockBegin
  2
*D29
 70
     1
 10
0.0
 20
0.0
 30
0.0
  3
*D29
  1

  0
LINE
  5
A5
330
A4
100
AcDbEntity
  8
0
 62
   123
100
AcDbLine
 10
8601.870739662729
 20
-2814.081715360523
 30
0.0
 11
8578.769642271351
 21
-2814.081715360523
 31
0.0
  0
LINE
  5
A6
330
A4
100
AcDbEntity
  8
0
 62
   123
100
AcDbLine
 10
8601.870739662729
 20
-2741.081715360523
 30
0.0
 11
8578.769642271351
 21
-2741.081715360523
 31
0.0
  0
LINE
  5
A7
330
A4
100
AcDbEntity
  8
0
 62
   123
100
AcDbLine
 10
8579.36964227135
 20
-2811.581715360523
 30
0.0
 11
8579.36964227135
 21
-2743.581715360523
 31
0.0
  0
SOLID
  5
A8
330
A4
100
AcDbEntity
  8
0
 62
   123
100
AcDbTrace
 10
8578.952975604684
 20
-2811.581715360523
 30
0.0
 11
8579.786308938016
 21
-2811.581715360523
 31
0.0
 12
8579.36964227135
 22
-2814.081715360523
 32
0.0
 13
8579.36964227135
 23
-2814.081715360523
 33
0.0
  0
SOLID
  5
A9
330
A4
100
AcDbEntity
  8
0
 62
   123
100
AcDbTrace
 10
8578.952975604684
 20
-2743.581715360523
 30
0.0
 11
8579.786308938016
 21
-2743.581715360523
 31
0.0
 12
8579.36964227135
 22
-2741.081715360523
 32
0.0
 13
8579.36964227135
 23
-2741.081715360523
 33
0.0
  0
MTEXT
  5
AA
330
A4
100
AcDbEntity
  8
0
 62
     3
100
AcDbMText
 10
8575.41949227135
 20
-2777.581715360523
 30
0.0
 40
3.0
 41
0.0
 71
     5
 72
     1
  1
\A1;\A1;{\f??|b0|i0|c0|p49;%%C}73{\f??|b0|i0|c0|p49;\H0.7x;\S+0^ -0.030;\H1.429x;(h7)}
 11
0.0000000000000001
 21
1.0
 31
0.0
1001
ACAD
1000
MTEXTBEGIN
1070
    73
1070
     1
1070
    44
1040
1.0
1070
    74
1070
     0
1000
MTEXTEND
  0
POINT
  5
AB
330
A4
100
AcDbEntity
  8
DEFPOINTS
 62
     0
100
AcDbPoint
 10
8602.870739662728
 20
-2814.081715360523
 30
0.0
  0
POINT
  5
AD
330
A4
100
AcDbEntity
  8
DEFPOINTS
 62
     0
100
AcDbPoint
 10
8602.870739662728
 20
-2741.081715360523
 30
0.0
  0
POINT
  5
AE
330
A4
100
AcDbEntity
  8
DEFPOINTS
 62
     0
100
AcDbPoint
 10
8579.36964227135
 20
-2741.081715360523
 30
0.0
  0
ENDBLK
  5
B0
330
A4
100
AcDbEntity
  8
0
100
AcDbBlockEnd
  0
BLOCK
  5
35F
330
355
100
AcDbEntity
  8
0
100
AcDbBlockBegin
  2
*D30
 70
     1
 10
0.0
 20
0.0
 30
0.0
  3
*D30
  1

  0
LINE
  5
356
330
355
100
AcDbEntity
  8
0
 62
   123
100
AcDbLine
 10
8463.677791191363
 20
-2741.581715360521
 30
0.0
 11
8463.677791191363
 21
-2722.507148710783
 31
0.0
  0
LINE
  5
357
330
355
100
AcDbEntity
  8
0
 62
   123
100
AcDbLine
 10
8543.677791191363
 20
-2741.581715360521
 30
0.0
 11
8543.677791191363
 21
-2722.507148710783
 31
0.0
  0
LINE
  5
358
330
355
100
AcDbEntity
  8
0
 62
   123
100
AcDbLine
 10
8466.177791191363
 20
-2723.107148710782
 30
0.0
 11
8541.177791191364
 21
-2723.107148710782
 31
0.0
  0
SOLID
  5
359
330
355
100
AcDbEntity
  8
0
 62
   123
100
AcDbTrace
 10
8466.177791191363
 20
-2722.690482044117
 30
0.0
 11
8466.177791191363
 21
-2723.52381537745
 31
0.0
 12
8463.677791191363
 22
-2723.107148710782
 32
0.0
 13
8463.677791191363
 23
-2723.107148710782
 33
0.0
  0
SOLID
  5
35A
330
355
100
AcDbEntity
  8
0
 62
   123
100
AcDbTrace
 10
8541.177791191364
 20
-2722.690482044117
 30
0.0
 11
8541.177791191364
 21
-2723.52381537745
 31
0.0
 12
8543.677791191363
 22
-2723.107148710782
 32
0.0
 13
8543.677791191363
 23
-2723.107148710782
 33
0.0
  0
MTEXT
  5
35B
330
355
100
AcDbEntity
  8
0
 62
     3
100
AcDbMText
 10
8505.286512576004
 20
-2720.607148710783
 30
0.0
 40
3.0
 41
0.0
 71
     5
 72
     1
  1
\A1;80
1001
ACAD
1000
MTEXTBEGIN
1070
    73
1070
     1
1070
    44
1040
1.0
1070
    74
1070
     0
1000
MTEXTEND
  0
POINT
  5
35C
330
355
100
AcDbEntity
  8
DEFPOINTS
 62
     0
100
AcDbPoint
 10
8463.677791191363
 20
-2742.581715360521
 30
0.0
  0
POINT
  5
35D
330
355
100
AcDbEntity
  8
DEFPOINTS
 62
     0
100
AcDbPoint
 10
8543.677791191363
 20
-2742.581715360521
 30
0.0
  0
POINT
  5
35E
330
355
100
AcDbEntity
  8
DEFPOINTS
 62
     0
100
AcDbPoint
 10
8543.677791191363
 20
-2723.107148710782
 30
0.0
  0
ENDBLK
  5
360
330
355
100
AcDbEntity
  8
0
100
AcDbBlockEnd
  0
BLOCK
  5
374
330
36A
100
AcDbEntity
  8
0
100
AcDbBlockBegin
  2
*D31
 70
     1
 10
0.0
 20
0.0
 30
0.0
  3
*D31
  1

  0
LINE
  5
36B
330
36A
100
AcDbEntity
  8
0
 62
   123
100
AcDbLine
 10
8604.870739662729
 20
-2736.581715360522
 30
0.0
 11
8604.870739662729
 21
-2717.125223740582
 31
0.0
  0
LINE
  5
36C
330
36A
100
AcDbEntity
  8
0
 62
   123
100
AcDbLine
 10
8636.870739662729
 20
-2736.581715360522
 30
0.0
 11
8636.870739662729
 21
-2717.125223740582
 31
0.0
  0
LINE
  5
36D
330
36A
100
AcDbEntity
  8
0
 62
   123
100
AcDbLine
 10
8607.370739662728
 20
-2717.725223740582
 30
0.0
 11
8634.370739662729
 21
-2717.725223740582
 31
0.0
  0
SOLID
  5
36E
330
36A
100
AcDbEntity
  8
0
 62
   123
100
AcDbTrace
 10
8607.370739662728
 20
-2717.308557073915
 30
0.0
 11
8607.370739662728
 21
-2718.141890407248
 31
0.0
 12
8604.870739662729
 22
-2717.725223740582
 32
0.0
 13
8604.870739662729
 23
-2717.725223740582
 33
0.0
  0
SOLID
  5
36F
330
36A
100
AcDbEntity
  8
0
 62
   123
100
AcDbTrace
 10
8634.370739662729
 20
-2717.308557073915
 30
0.0
 11
8634.370739662729
 21
-2718.141890407248
 31
0.0
 12
8636.870739662729
 22
-2717.725223740582
 32
0.0
 13
8636.870739662729
 23
-2717.725223740582
 33
0.0
  0
MTEXT
  5
370
330
36A
100
AcDbEntity
  8
0
 62
     3
100
AcDbMText
 10
8620.870739662729
 20
-2715.225223740581
 30
0.0
 40
3.0
 41
0.0
 71
     5
 72
     1
  1
\A1;32
1001
ACAD
1000
MTEXTBEGIN
1070
    73
1070
     1
1070
    44
1040
1.0
1070
    74
1070
     0
1000
MTEXTEND
  0
POINT
  5
371
330
36A
100
AcDbEntity
  8
DEFPOINTS
 62
     0
100
AcDbPoint
 10
8604.870739662729
 20
-2737.581715360521
 30
0.0
  0
POINT
  5
372
330
36A
100
AcDbEntity
  8
DEFPOINTS
 62
     0
100
AcDbPoint
 10
8636.870739662729
 20
-2737.581715360521
 30
0.0
  0
POINT
  5
373
330
36A
100
AcDbEntity
  8
DEFPOINTS
 62
     0
100
AcDbPoint
 10
8636.870739662729
 20
-2717.725223740582
 30
0.0
  0
ENDBLK
  5
375
330
36A
100
AcDbEntity
  8
0
100
AcDbBlockEnd
  0
BLOCK
  5
38E
330
384
100
AcDbEntity
  8
0
100
AcDbBlockBegin
  2
*D32
 70
     1
 10
0.0
 20
0.0
 30
0.0
  3
*D32
  1

  0
LINE
  5
385
330
384
100
AcDbEntity
  8
0
 62
   123
100
AcDbLine
 10
225.1104594333155
 20
437.3405627793481
 30
0.0
 11
202.009362041936
 21
437.3405627793481
 31
0.0
  0
LINE
  5
386
330
384
100
AcDbEntity
  8
0
 62
   123
100
AcDbLine
 10
225.1104594333155
 20
510.3405627793481
 30
0.0
 11
202.0093620419361
 21
510.3405627793481
 31
0.0
  0
LINE
  5
387
330
384
100
AcDbEntity
  8
0
 62
   123
100
AcDbLine
 10
202.6093620419361
 20
439.8405627793481
 30
0.0
 11
202.6093620419361
 21
507.8405627793481
 31
0.0
  0
SOLID
  5
388
330
384
100
AcDbEntity
  8
0
 62
   123
100
AcDbTrace
 10
202.1926953752694
 20
439.8405627793481
 30
0.0
 11
203.0260287086027
 21
439.8405627793481
 31
0.0
 12
202.6093620419361
 22
437.3405627793481
 32
0.0
 13
202.6093620419361
 23
437.3405627793481
 33
0.0
  0
SOLID
  5
389
330
384
100
AcDbEntity
  8
0
 62
   123
100
AcDbTrace
 10
202.1926953752694
 20
507.8405627793481
 30
0.0
 11
203.0260287086028
 21
507.8405627793481
 31
0.0
 12
202.6093620419361
 22
510.3405627793481
 32
0.0
 13
202.6093620419361
 23
510.3405627793481
 33
0.0
  0
MTEXT
  5
38A
330
384
100
AcDbEntity
  8
0
 62
     3
100
AcDbMText
 10
198.659212041936
 20
473.8405627793481
 30
0.0
 40
3.0
 41
0.0
 71
     5
 72
     1
  1
\A1;\A1;{\f??|b0|i0|c0|p49;%%C}73{\f??|b0|i0|c0|p49;\H0.7x;\S+0^ -0.030;\H1.429x;(h7)}
 11
0.0000000000000001
 21
1.0
 31
0.0
1001
ACAD
1000
MTEXTBEGIN
1070
    73
1070
     1
1070
    44
1040
1.0
1070
    74
1070
     0
1000
MTEXTEND
  0
POINT
  5
38B
330
384
100
AcDbEntity
  8
DEFPOINTS
 62
     0
100
AcDbPoint
 10
226.1104594333155
 20
437.3405627793481
 30
0.0
  0
POINT
  5
38C
330
384
100
AcDbEntity
  8
DEFPOINTS
 62
     0
100
AcDbPoint
 10
226.1104594333155
 20
510.3405627793481
 30
0.0
  0
POINT
  5
38D
330
384
100
AcDbEntity
  8
DEFPOINTS
 62
     0
100
AcDbPoint
 10
202.6093620419361
 20
510.3405627793481
 30
0.0
  0
ENDBLK
  5
38F
330
384
100
AcDbEntity
  8
0
100
AcDbBlockEnd
  0
BLOCK
  5
39C
330
390
100
AcDbEntity
  8
0
100
AcDbBlockBegin
  2
*D33
 70
     1
 10
0.0
 20
0.0
 30
0.0
  3
*D33
  1

  0
LINE
  5
525
330
390
100
AcDbEntity
  8
0
 62
   123
100
AcDbLine
 10
48.02819079202709
 20
51.57314841214703
 30
0.0
 11
48.02819079202707
 21
26.2752719206609
 31
0.0
  0
LINE
  5
526
330
390
100
AcDbEntity
  8
0
 62
   123
100
AcDbLine
 10
64.97941671931458
 20
58.82139208803307
 30
0.0
 11
76.14394245303863
 21
31.86784264421083
 31
0.0
  0
ARC
  5
527
330
390
100
AcDbEntity
  8
0
 62
   123
100
AcDbCircle
 10
48.02819079202709
 20
99.74527162054435
 30
0.0
 40
72.86999969988343
100
AcDbArc
 50
271.9657811870684
 51
290.5342188129299
  0
SOLID
  5
528
330
390
100
AcDbEntity
  8
0
 62
   123
100
AcDbTrace
 10
50.53497037889592
 20
26.50155115060822
 30
0.0
 11
50.52067551583902
 21
27.33476186905502
 31
0.0
 12
48.02819079202708
 22
26.8752719206609
 32
0.0
 13
48.02819079202708
 23
26.8752719206609
 33
0.0
  0
SOLID
  5
529
330
390
100
AcDbEntity
  8
0
 62
   123
100
AcDbTrace
 10
73.43573758160395
 20
31.89285111320777
 30
0.0
 11
73.74138678782421
 21
31.11759437690594
 31
0.0
 12
75.91433239361959
 22
32.42217036371761
 32
0.0
 13
75.91433239361959
 23
32.42217036371761
 33
0.0
  0
MTEXT
  5
52A
330
390
100
AcDbEntity
  8
0
 62
     3
100
AcDbMText
 10
62.39480441399039
 20
31.149298888525
 30
0.0
 40
3.0
 41
0.0
 71
     5
 72
     1
  1
\A1;22°30'
 11
0.9787639600895621
 21
0.2049905130238906
 31
0.0
  0
POINT
  5
52B
330
390
100
AcDbEntity
  8
DEFPOINTS
 62
     0
100
AcDbPoint
 10
57.53963437992846
 20
27.49868486978371
 30
0.0
  0
POINT
  5
52C
330
390
100
AcDbEntity
  8
DEFPOINTS
 62
     0
100
AcDbPoint
 10
48.02819079202709
 20
52.57314841214702
 30
0.0
  0
POINT
  5
52D
330
390
100
AcDbEntity
  8
DEFPOINTS
 62
     0
100
AcDbPoint
 10
64.59673328694954
 20
59.74527162054437
 30
0.0
  0
POINT
  5
52E
330
390
100
AcDbEntity
  8
DEFPOINTS
 62
     0
100
AcDbPoint
 10
48.02819079202709
 20
99.74527162054437
 30
0.0
  0
POINT
  5
52F
330
390
100
AcDbEntity
  8
DEFPOINTS
 62
     0
100
AcDbPoint
 10
48.0281907920271
 20
146.9173948289407
 30
0.0
  0
ENDBLK
  5
39D
330
390
100
AcDbEntity
  8
0
100
AcDbBlockEnd
  0
BLOCK
  5
3A8
330
39E
100
AcDbEntity
  8
0
100
AcDbBlockBegin
  2
*D34
 70
     1
 10
0.0
 20
0.0
 30
0.0
  3
*D34
  1

  0
LINE
  5
39F
330
39E
100
AcDbEntity
  8
0
 62
   123
100
AcDbLine
 10
176.606946328493
 20
131.7452716205443
 30
0.0
 11
115.1071299053423
 21
131.7452716205443
 31
0.0
  0
LINE
  5
3A0
330
39E
100
AcDbEntity
  8
0
 62
   123
100
AcDbLine
 10
176.606946328493
 20
97.74527162054438
 30
0.0
 11
115.1071299053423
 21
97.7452716205444
 31
0.0
  0
LINE
  5
3A1
330
39E
100
AcDbEntity
  8
0
 62
   123
100
AcDbLine
 10
115.7071299053423
 20
129.2452716205443
 30
0.0
 11
115.7071299053423
 21
100.2452716205443
 31
0.0
  0
SOLID
  5
3A2
330
39E
100
AcDbEntity
  8
0
 62
   123
100
AcDbTrace
 10
115.2904632386756
 20
129.2452716205443
 30
0.0
 11
116.1237965720089
 21
129.2452716205443
 31
0.0
 12
115.7071299053423
 22
131.7452716205443
 32
0.0
 13
115.7071299053423
 23
131.7452716205443
 33
0.0
  0
SOLID
  5
3A3
330
39E
100
AcDbEntity
  8
0
 62
   123
100
AcDbTrace
 10
115.2904632386756
 20
100.2452716205443
 30
0.0
 11
116.1237965720089
 21
100.2452716205443
 31
0.0
 12
115.7071299053423
 22
97.7452716205444
 32
0.0
 13
115.7071299053423
 23
97.7452716205444
 33
0.0
  0
MTEXT
  5
3A4
330
39E
100
AcDbEntity
  8
0
 62
     3
100
AcDbMText
 10
113.2071299053422
 20
114.7452716205443
 30
0.0
 40
3.0
 41
0.0
 71
     5
 72
     1
  1
\A1;{\f??|b0|i0|c0|p49;%%c}34
 11
0.0000000000000001
 21
1.0
 31
0.0
1001
ACAD
1000
MTEXTBEGIN
1070
    73
1070
     1
1070
    44
1040
1.0
1070
    74
1070
     0
1000
MTEXTEND
  0
POINT
  5
3A5
330
39E
100
AcDbEntity
  8
DEFPOINTS
 62
     0
100
AcDbPoint
 10
177.606946328493
 20
131.7452716205443
 30
0.0
  0
POINT
  5
3A6
330
39E
100
AcDbEntity
  8
DEFPOINTS
 62
     0
100
AcDbPoint
 10
177.606946328493
 20
97.74527162054438
 30
0.0
  0
POINT
  5
3A7
330
39E
100
AcDbEntity
  8
DEFPOINTS
 62
     0
100
AcDbPoint
 10
115.7071299053423
 20
97.7452716205444
 30
0.0
  0
ENDBLK
  5
3A9
330
39E
100
AcDbEntity
  8
0
100
AcDbBlockEnd
  0
BLOCK
  5
3B4
330
3AA
100
AcDbEntity
  8
0
100
AcDbBlockBegin
  2
*D35
 70
     1
 10
0.0
 20
0.0
 30
0.0
  3
*D35
  1

  0
LINE
  5
3AB
330
3AA
100
AcDbEntity
  8
0
 62
   123
100
AcDbLine
 10
348.606946328493
 20
139.7452716205443
 30
0.0
 11
369.6106132978399
 21
139.7452716205443
 31
0.0
  0
LINE
  5
3AC
330
3AA
100
AcDbEntity
  8
0
 62
   123
100
AcDbLine
 10
348.606946328493
 20
59.745271620543
 30
0.0
 11
369.6106132978399
 21
59.745271620543
 31
0.0
  0
LINE
  5
3AD
330
3AA
100
AcDbEntity
  8
0
 62
   123
100
AcDbLine
 10
369.0106132978399
 20
137.2452716205443
 30
0.0
 11
369.0106132978399
 21
62.245271620543
 31
0.0
  0
SOLID
  5
3AE
330
3AA
100
AcDbEntity
  8
0
 62
   123
100
AcDbTrace
 10
368.5939466311732
 20
137.2452716205443
 30
0.0
 11
369.4272799645066
 21
137.2452716205443
 31
0.0
 12
369.0106132978399
 22
139.7452716205443
 32
0.0
 13
369.0106132978399
 23
139.7452716205443
 33
0.0
  0
SOLID
  5
3AF
330
3AA
100
AcDbEntity
  8
0
 62
   123
100
AcDbTrace
 10
368.5939466311732
 20
62.245271620543
 30
0.0
 11
369.4272799645065
 21
62.245271620543
 31
0.0
 12
369.0106132978399
 22
59.745271620543
 32
0.0
 13
369.0106132978399
 23
59.745271620543
 33
0.0
  0
MTEXT
  5
3B0
330
3AA
100
AcDbEntity
  8
0
 62
     3
100
AcDbMText
 10
366.5106132978398
 20
99.74527162054437
 30
0.0
 40
3.0
 41
0.0
 71
     5
 72
     1
  1
\A1;%%C80
 11
0.0000000000000001
 21
1.0
 31
0.0
1001
ACAD
1000
MTEXTBEGIN
1070
    73
1070
     1
1070
    44
1040
1.0
1070
    74
1070
     0
1000
MTEXTEND
  0
POINT
  5
3B1
330
3AA
100
AcDbEntity
  8
DEFPOINTS
 62
     0
100
AcDbPoint
 10
347.6069463284929
 20
139.7452716205443
 30
0.0
  0
POINT
  5
3B2
330
3AA
100
AcDbEntity
  8
DEFPOINTS
 62
     0
100
AcDbPoint
 10
347.6069463284929
 20
59.745271620543
 30
0.0
  0
POINT
  5
3B3
330
3AA
100
AcDbEntity
  8
DEFPOINTS
 62
     0
100
AcDbPoint
 10
369.0106132978399
 20
59.745271620543
 30
0.0
  0
ENDBLK
  5
3B5
330
3AA
100
AcDbEntity
  8
0
100
AcDbBlockEnd
  0
BLOCK
  5
3C0
330
3B6
100
AcDbEntity
  8
0
100
AcDbBlockBegin
  2
*D36
 70
     1
 10
0.0
 20
0.0
 30
0.0
  3
*D36
  1

  0
LINE
  5
3B7
330
3B6
100
AcDbEntity
  8
0
 62
   123
100
AcDbLine
 10
221.3717728184547
 20
335.9112178959912
 30
0.0
 11
221.3717728184547
 21
273.2235368476989
 31
0.0
  0
LINE
  5
3B8
330
3B6
100
AcDbEntity
  8
0
 62
   123
100
AcDbLine
 10
253.3717728184583
 20
286.4112178959913
 30
0.0
 11
253.3717728184583
 21
273.2235368476989
 31
0.0
  0
LINE
  5
3B9
330
3B6
100
AcDbEntity
  8
0
 62
   123
100
AcDbLine
 10
223.8717728184547
 20
273.8235368476989
 30
0.0
 11
250.8717728184583
 21
273.8235368476989
 31
0.0
  0
SOLID
  5
3BA
330
3B6
100
AcDbEntity
  8
0
 62
   123
100
AcDbTrace
 10
223.8717728184547
 20
274.2402035143656
 30
0.0
 11
223.8717728184547
 21
273.4068701810322
 31
0.0
 12
221.3717728184547
 22
273.8235368476989
 32
0.0
 13
221.3717728184547
 23
273.8235368476989
 33
0.0
  0
SOLID
  5
3BB
330
3B6
100
AcDbEntity
  8
0
 62
   123
100
AcDbTrace
 10
250.8717728184583
 20
274.2402035143656
 30
0.0
 11
250.8717728184583
 21
273.4068701810322
 31
0.0
 12
253.3717728184583
 22
273.8235368476989
 32
0.0
 13
253.3717728184583
 23
273.8235368476989
 33
0.0
  0
MTEXT
  5
3BC
330
3B6
100
AcDbEntity
  8
0
 62
     3
100
AcDbMText
 10
237.3717728184565
 20
276.3235368476989
 30
0.0
 40
3.0
 41
0.0
 71
     5
 72
     1
  1
\A1;32
1001
ACAD
1000
MTEXTBEGIN
1070
    73
1070
     1
1070
    44
1040
1.0
1070
    74
1070
     0
1000
MTEXTEND
  0
POINT
  5
3BD
330
3B6
100
AcDbEntity
  8
DEFPOINTS
 62
     0
100
AcDbPoint
 10
221.3717728184547
 20
336.9112178959912
 30
0.0
  0
POINT
  5
3BE
330
3B6
100
AcDbEntity
  8
DEFPOINTS
 62
     0
100
AcDbPoint
 10
253.3717728184583
 20
287.4112178959912
 30
0.0
  0
POINT
  5
3BF
330
3B6
100
AcDbEntity
  8
DEFPOINTS
 62
     0
100
AcDbPoint
 10
253.3717728184583
 20
273.8235368476989
 30
0.0
  0
ENDBLK
  5
3C1
330
3B6
100
AcDbEntity
  8
0
100
AcDbBlockEnd
  0
BLOCK
  5
3CC
330
3C2
100
AcDbEntity
  8
0
100
AcDbBlockBegin
  2
*D37
 70
     1
 10
0.0
 20
0.0
 30
0.0
  3
*D37
  1

  0
LINE
  5
3C3
330
3C2
100
AcDbEntity
  8
0
 62
   123
100
AcDbLine
 10
75.71865222596534
 20
290.9112178959913
 30
0.0
 11
75.71865222596534
 21
265.3342565558708
 31
0.0
  0
LINE
  5
3C4
330
3C2
100
AcDbEntity
  8
0
 62
   123
100
AcDbLine
 10
155.7186522259653
 20
290.9112178959913
 30
0.0
 11
155.7186522259653
 21
265.3342565558708
 31
0.0
  0
LINE
  5
3C5
330
3C2
100
AcDbEntity
  8
0
 62
   123
100
AcDbLine
 10
78.21865222596534
 20
265.9342565558708
 30
0.0
 11
153.2186522259653
 21
265.9342565558708
 31
0.0
  0
SOLID
  5
3C6
330
3C2
100
AcDbEntity
  8
0
 62
   123
100
AcDbTrace
 10
78.21865222596534
 20
266.3509232225375
 30
0.0
 11
78.21865222596534
 21
265.5175898892041
 31
0.0
 12
75.71865222596534
 22
265.9342565558708
 32
0.0
 13
75.71865222596534
 23
265.9342565558708
 33
0.0
  0
SOLID
  5
3C7
330
3C2
100
AcDbEntity
  8
0
 62
   123
100
AcDbTrace
 10
153.2186522259653
 20
266.3509232225375
 30
0.0
 11
153.2186522259653
 21
265.5175898892041
 31
0.0
 12
155.7186522259653
 22
265.9342565558708
 32
0.0
 13
155.7186522259653
 23
265.9342565558708
 33
0.0
  0
MTEXT
  5
3C8
330
3C2
100
AcDbEntity
  8
0
 62
     3
100
AcDbMText
 10
119.5378699964858
 20
268.4342565558708
 30
0.0
 40
3.0
 41
0.0
 71
     5
 72
     1
  1
\A1;80
1001
ACAD
1000
MTEXTBEGIN
1070
    73
1070
     1
1070
    44
1040
1.0
1070
    74
1070
     0
1000
MTEXTEND
  0
POINT
  5
3C9
330
3C2
100
AcDbEntity
  8
DEFPOINTS
 62
     0
100
AcDbPoint
 10
75.71865222596534
 20
291.9112178959912
 30
0.0
  0
POINT
  5
3CA
330
3C2
100
AcDbEntity
  8
DEFPOINTS
 62
     0
100
AcDbPoint
 10
155.7186522259653
 20
291.9112178959912
 30
0.0
  0
POINT
  5
3CB
330
3C2
100
AcDbEntity
  8
DEFPOINTS
 62
     0
100
AcDbPoint
 10
155.7186522259653
 20
265.9342565558708
 30
0.0
  0
ENDBLK
  5
3CD
330
3C2
100
AcDbEntity
  8
0
100
AcDbBlockEnd
  0
BLOCK
  5
3D8
330
3CE
100
AcDbEntity
  8
0
100
AcDbBlockBegin
  2
*D38
 70
     1
 10
0.0
 20
0.0
 30
0.0
  3
*D38
  1

  0
LINE
  5
3CF
330
3CE
100
AcDbEntity
  8
0
 62
   123
100
AcDbLine
 10
295.8717728184565
 20
286.4112178959913
 30
0.0
 11
295.8717728184565
 21
273.2235368476989
 31
0.0
  0
LINE
  5
3D0
330
3CE
100
AcDbEntity
  8
0
 62
   123
100
AcDbLine
 10
253.3717728184583
 20
286.4112178959913
 30
0.0
 11
253.3717728184583
 21
273.2235368476989
 31
0.0
  0
LINE
  5
3D1
330
3CE
100
AcDbEntity
  8
0
 62
   123
100
AcDbLine
 10
293.3717728184565
 20
273.8235368476989
 30
0.0
 11
255.8717728184583
 21
273.8235368476989
 31
0.0
  0
SOLID
  5
3D2
330
3CE
100
AcDbEntity
  8
0
 62
   123
100
AcDbTrace
 10
293.3717728184565
 20
274.2402035143656
 30
0.0
 11
293.3717728184565
 21
273.4068701810322
 31
0.0
 12
295.8717728184565
 22
273.8235368476989
 32
0.0
 13
295.8717728184565
 23
273.8235368476989
 33
0.0
  0
SOLID
  5
3D3
330
3CE
100
AcDbEntity
  8
0
 62
   123
100
AcDbTrace
 10
255.8717728184583
 20
274.2402035143656
 30
0.0
 11
255.8717728184583
 21
273.4068701810322
 31
0.0
 12
253.3717728184583
 22
273.8235368476989
 32
0.0
 13
253.3717728184583
 23
273.8235368476989
 33
0.0
  0
MTEXT
  5
3D4
330
3CE
100
AcDbEntity
  8
0
 62
     3
100
AcDbMText
 10
274.6217728184574
 20
276.3235368476989
 30
0.0
 40
3.0
 41
0.0
 71
     5
 72
     1
  1
\A1;L
1001
ACAD
1000
MTEXTBEGIN
1070
    73
1070
     1
1070
    44
1040
1.0
1070
    74
1070
     0
1000
MTEXTEND
  0
POINT
  5
3D5
330
3CE
100
AcDbEntity
  8
DEFPOINTS
 62
     0
100
AcDbPoint
 10
295.8717728184565
 20
287.4112178959912
 30
0.0
  0
POINT
  5
3D6
330
3CE
100
AcDbEntity
  8
DEFPOINTS
 62
     0
100
AcDbPoint
 10
253.3717728184583
 20
287.4112178959912
 30
0.0
  0
POINT
  5
3D7
330
3CE
100
AcDbEntity
  8
DEFPOINTS
 62
     0
100
AcDbPoint
 10
253.3717728184583
 20
273.8235368476989
 30
0.0
  0
ENDBLK
  5
3D9
330
3CE
100
AcDbEntity
  8
0
100
AcDbBlockEnd
  0
BLOCK
  5
3E4
330
3DA
100
AcDbEntity
  8
0
100
AcDbBlockBegin
  2
*D39
 70
     1
 10
0.0
 20
0.0
 30
0.0
  3
*D39
  1

  0
LINE
  5
3DB
330
3DA
100
AcDbEntity
  8
0
 62
   123
100
AcDbLine
 10
222.6069463284929
 20
140.7452716205443
 30
0.0
 11
222.6069463284929
 21
165.6161850763547
 31
0.0
  0
LINE
  5
3DC
330
3DA
100
AcDbEntity
  8
0
 62
   123
100
AcDbLine
 10
352.6069463284948
 20
136.7452716205443
 30
0.0
 11
352.6069463284948
 21
165.6161850763547
 31
0.0
  0
LINE
  5
3DD
330
3DA
100
AcDbEntity
  8
0
 62
   123
100
AcDbLine
 10
225.106946328493
 20
165.0161850763547
 30
0.0
 11
350.1069463284948
 21
165.0161850763547
 31
0.0
  0
SOLID
  5
3DE
330
3DA
100
AcDbEntity
  8
0
 62
   123
100
AcDbTrace
 10
225.106946328493
 20
165.4328517430214
 30
0.0
 11
225.106946328493
 21
164.599518409688
 31
0.0
 12
222.6069463284929
 22
165.0161850763547
 32
0.0
 13
222.6069463284929
 23
165.0161850763547
 33
0.0
  0
SOLID
  5
3DF
330
3DA
100
AcDbEntity
  8
0
 62
   123
100
AcDbTrace
 10
350.1069463284948
 20
165.4328517430214
 30
0.0
 11
350.1069463284948
 21
164.599518409688
 31
0.0
 12
352.6069463284948
 22
165.0161850763547
 32
0.0
 13
352.6069463284948
 23
165.0161850763547
 33
0.0
  0
MTEXT
  5
3E0
330
3DA
100
AcDbEntity
  8
0
 62
     3
100
AcDbMText
 10
287.6069463284948
 20
167.5161850763547
 30
0.0
 40
3.0
 41
0.0
 71
     5
 72
     1
  1
\A1;130
1001
ACAD
1000
MTEXTBEGIN
1070
    73
1070
     1
1070
    44
1040
1.0
1070
    74
1070
     0
1000
MTEXTEND
  0
POINT
  5
3E1
330
3DA
100
AcDbEntity
  8
DEFPOINTS
 62
     0
100
AcDbPoint
 10
222.6069463284929
 20
139.7452716205443
 30
0.0
  0
POINT
  5
3E2
330
3DA
100
AcDbEntity
  8
DEFPOINTS
 62
     0
100
AcDbPoint
 10
352.6069463284948
 20
135.7452716205443
 30
0.0
  0
POINT
  5
3E3
330
3DA
100
AcDbEntity
  8
DEFPOINTS
 62
     0
100
AcDbPoint
 10
352.6069463284948
 20
165.0161850763547
 30
0.0
  0
ENDBLK
  5
3E5
330
3DA
100
AcDbEntity
  8
0
100
AcDbBlockEnd
  0
BLOCK
  5
3F0
330
3E6
100
AcDbEntity
  8
0
100
AcDbBlockBegin
  2
*D40
 70
     1
 10
0.0
 20
0.0
 30
0.0
  3
*D40
  1

  0
LINE
  5
3E7
330
3E6
100
AcDbEntity
  8
0
 62
   123
100
AcDbLine
 10
8.028190792028908
 20
135.7452716205448
 30
0.0
 11
8.02819079202891
 21
157.5408399511589
 31
0.0
  0
LINE
  5
3E8
330
3E6
100
AcDbEntity
  8
0
 62
   123
100
AcDbLine
 10
88.0281907920289
 20
135.7452716205448
 30
0.0
 11
88.0281907920289
 21
157.5408399511589
 31
0.0
  0
LINE
  5
3E9
330
3E6
100
AcDbEntity
  8
0
 62
   123
100
AcDbLine
 10
10.52819079202891
 20
156.9408399511589
 30
0.0
 11
85.5281907920289
 21
156.9408399511589
 31
0.0
  0
SOLID
  5
3EA
330
3E6
100
AcDbEntity
  8
0
 62
   123
100
AcDbTrace
 10
10.52819079202891
 20
157.3575066178256
 30
0.0
 11
10.52819079202891
 21
156.5241732844923
 31
0.0
 12
8.02819079202891
 22
156.9408399511589
 32
0.0
 13
8.02819079202891
 23
156.9408399511589
 33
0.0
  0
SOLID
  5
3EB
330
3E6
100
AcDbEntity
  8
0
 62
   123
100
AcDbTrace
 10
85.5281907920289
 20
157.3575066178256
 30
0.0
 11
85.5281907920289
 21
156.5241732844923
 31
0.0
 12
88.0281907920289
 22
156.9408399511589
 32
0.0
 13
88.0281907920289
 23
156.9408399511589
 33
0.0
  0
MTEXT
  5
3EC
330
3E6
100
AcDbEntity
  8
0
 62
     3
100
AcDbMText
 10
48.78681854687056
 20
159.4408399511589
 30
0.0
 40
3.0
 41
0.0
 71
     5
 72
     1
  1
\A1;80
1001
ACAD
1000
MTEXTBEGIN
1070
    73
1070
     1
1070
    44
1040
1.0
1070
    74
1070
     0
1000
MTEXTEND
  0
POINT
  5
3ED
330
3E6
100
AcDbEntity
  8
DEFPOINTS
 62
     0
100
AcDbPoint
 10
8.028190792028908
 20
134.7452716205448
 30
0.0
  0
POINT
  5
3EE
330
3E6
100
AcDbEntity
  8
DEFPOINTS
 62
     0
100
AcDbPoint
 10
88.0281907920289
 20
134.7452716205448
 30
0.0
  0
POINT
  5
3EF
330
3E6
100
AcDbEntity
  8
DEFPOINTS
 62
     0
100
AcDbPoint
 10
88.0281907920289
 20
156.9408399511589
 30
0.0
  0
ENDBLK
  5
3F1
330
3E6
100
AcDbEntity
  8
0
100
AcDbBlockEnd
  0
BLOCK
  5
3FC
330
3F2
100
AcDbEntity
  8
0
100
AcDbBlockBegin
  2
*D41
 70
     1
 10
0.0
 20
0.0
 30
0.0
  3
*D41
  1

  0
LINE
  5
3F3
330
3F2
100
AcDbEntity
  8
0
 62
   123
100
AcDbLine
 10
143.2088075272659
 20
114.7452716205443
 30
0.0
 11
123.177098970153
 21
114.7452716205443
 31
0.0
  0
LINE
  5
3F4
330
3F2
100
AcDbEntity
  8
0
 62
   123
100
AcDbLine
 10
149.573993897462
 20
99.74527162054437
 30
0.0
 11
123.177098970153
 21
99.74527162054437
 31
0.0
  0
LINE
  5
3F5
330
3F2
100
AcDbEntity
  8
0
 62
   123
100
AcDbLine
 10
123.777098970153
 20
112.2452716205443
 30
0.0
 11
123.777098970153
 21
102.2452716205443
 31
0.0
  0
SOLID
  5
3F6
330
3F2
100
AcDbEntity
  8
0
 62
   123
100
AcDbTrace
 10
123.3604323034863
 20
112.2452716205443
 30
0.0
 11
124.1937656368197
 21
112.2452716205443
 31
0.0
 12
123.777098970153
 22
114.7452716205443
 32
0.0
 13
123.777098970153
 23
114.7452716205443
 33
0.0
  0
SOLID
  5
3F7
330
3F2
100
AcDbEntity
  8
0
 62
   123
100
AcDbTrace
 10
123.3604323034863
 20
102.2452716205443
 30
0.0
 11
124.1937656368197
 21
102.2452716205443
 31
0.0
 12
123.777098970153
 22
99.74527162054437
 32
0.0
 13
123.777098970153
 23
99.74527162054437
 33
0.0
  0
MTEXT
  5
3F8
330
3F2
100
AcDbEntity
  8
0
 62
     3
100
AcDbMText
 10
121.277098970153
 20
107.2452716205448
 30
0.0
 40
3.0
 41
0.0
 71
     5
 72
     1
  1
\A1;15
 11
0.0000000000000001
 21
1.0
 31
0.0
1001
ACAD
1000
MTEXTBEGIN
1070
    73
1070
     1
1070
    44
1040
1.0
1070
    74
1070
     0
1000
MTEXTEND
  0
POINT
  5
3F9
330
3F2
100
AcDbEntity
  8
DEFPOINTS
 62
     0
100
AcDbPoint
 10
144.2088075272659
 20
114.7452716205443
 30
0.0
  0
POINT
  5
3FA
330
3F2
100
AcDbEntity
  8
DEFPOINTS
 62
     0
100
AcDbPoint
 10
150.573993897462
 20
99.74527162054437
 30
0.0
  0
POINT
  5
3FB
330
3F2
100
AcDbEntity
  8
DEFPOINTS
 62
     0
100
AcDbPoint
 10
123.777098970153
 20
99.74527162054437
 30
0.0
  0
ENDBLK
  5
3FD
330
3F2
100
AcDbEntity
  8
0
100
AcDbBlockEnd
  0
BLOCK
  5
40A
330
3FE
100
AcDbEntity
  8
0
100
AcDbBlockBegin
  2
*D42
 70
     1
 10
0.0
 20
0.0
 30
0.0
  3
*D42
  1

  0
LINE
  5
3FF
330
3FE
100
AcDbEntity
  8
0
 62
   123
100
AcDbLine
 10
147.1069463284948
 20
109.7452716205448
 30
0.0
 11
132.6822830395162
 21
109.7452716205448
 31
0.0
  0
LINE
  5
400
330
3FE
100
AcDbEntity
  8
0
 62
   123
100
AcDbLine
 10
147.1069463284948
 20
119.7452716205443
 30
0.0
 11
132.6822830395162
 21
119.7452716205443
 31
0.0
  0
LINE
  5
401
330
3FE
100
AcDbEntity
  8
0
 62
   123
100
AcDbLine
 10
133.2822830395162
 20
107.2452716205448
 30
0.0
 11
133.2822830395162
 21
104.7452716205448
 31
0.0
  0
LINE
  5
402
330
3FE
100
AcDbEntity
  8
0
 62
   123
100
AcDbLine
 10
133.2822830395162
 20
122.2452716205443
 30
0.0
 11
133.2822830395162
 21
162.3640004706482
 31
0.0
  0
LINE
  5
403
330
3FE
100
AcDbEntity
  8
0
 62
   123
100
AcDbLine
 10
133.2822830395162
 20
109.7452716205448
 30
0.0
 11
133.2822830395162
 21
119.7452716205443
 31
0.0
  0
SOLID
  5
404
330
3FE
100
AcDbEntity
  8
0
 62
   123
100
AcDbTrace
 10
132.8656163728495
 20
107.2452716205448
 30
0.0
 11
133.6989497061828
 21
107.2452716205448
 31
0.0
 12
133.2822830395162
 22
109.7452716205448
 32
0.0
 13
133.2822830395162
 23
109.7452716205448
 33
0.0
  0
SOLID
  5
405
330
3FE
100
AcDbEntity
  8
0
 62
   123
100
AcDbTrace
 10
132.8656163728495
 20
122.2452716205443
 30
0.0
 11
133.6989497061828
 21
122.2452716205443
 31
0.0
 12
133.2822830395162
 22
119.7452716205443
 32
0.0
 13
133.2822830395162
 23
119.7452716205443
 33
0.0
  0
MTEXT
  5
406
330
3FE
100
AcDbEntity
  8
0
 62
     3
100
AcDbMText
 10
129.3321330395161
 20
147.5484290420768
 30
0.0
 40
3.0
 41
0.0
 71
     5
 72
     1
  1
\A1;\A1;{\f??|b0|i0|c0|p49;%%C10\H0.7x;\S+0^ -0.015;\H1.429x;(h7)}
 11
0.0000000000000001
 21
1.0
 31
0.0
1001
ACAD
1000
MTEXTBEGIN
1070
    73
1070
     1
1070
    44
1040
1.0
1070
    74
1070
     0
1000
MTEXTEND
  0
POINT
  5
407
330
3FE
100
AcDbEntity
  8
DEFPOINTS
 62
     0
100
AcDbPoint
 10
148.1069463284948
 20
109.7452716205448
 30
0.0
  0
POINT
  5
408
330
3FE
100
AcDbEntity
  8
DEFPOINTS
 62
     0
100
AcDbPoint
 10
148.1069463284948
 20
119.7452716205443
 30
0.0
  0
POINT
  5
409
330
3FE
100
AcDbEntity
  8
DEFPOINTS
 62
     0
100
AcDbPoint
 10
133.2822830395162
 20
119.7452716205443
 30
0.0
  0
ENDBLK
  5
40B
330
3FE
100
AcDbEntity
  8
0
100
AcDbBlockEnd
  0
BLOCK
  5
416
330
40C
100
AcDbEntity
  8
0
100
AcDbBlockBegin
  2
*D43
 70
     1
 10
0.0
 20
0.0
 30
0.0
  3
*D43
  1

  0
LINE
  5
40D
330
40C
100
AcDbEntity
  8
0
 62
   123
100
AcDbLine
 10
173.1069463284966
 20
120.7452716205448
 30
0.0
 11
173.1069463284966
 21
136.5655598274475
 31
0.0
  0
LINE
  5
40E
330
40C
100
AcDbEntity
  8
0
 62
   123
100
AcDbLine
 10
148.1069463284948
 20
120.7452716205443
 30
0.0
 11
148.1069463284948
 21
136.5655598274475
 31
0.0
  0
LINE
  5
40F
330
40C
100
AcDbEntity
  8
0
 62
   123
100
AcDbLine
 10
170.6069463284966
 20
135.9655598274475
 30
0.0
 11
150.6069463284948
 21
135.9655598274475
 31
0.0
  0
SOLID
  5
410
330
40C
100
AcDbEntity
  8
0
 62
   123
100
AcDbTrace
 10
170.6069463284966
 20
136.3822264941142
 30
0.0
 11
170.6069463284966
 21
135.5488931607809
 31
0.0
 12
173.1069463284966
 22
135.9655598274475
 32
0.0
 13
173.1069463284966
 23
135.9655598274475
 33
0.0
  0
SOLID
  5
411
330
40C
100
AcDbEntity
  8
0
 62
   123
100
AcDbTrace
 10
150.6069463284948
 20
136.3822264941142
 30
0.0
 11
150.6069463284948
 21
135.5488931607809
 31
0.0
 12
148.1069463284948
 22
135.9655598274475
 32
0.0
 13
148.1069463284948
 23
135.9655598274475
 33
0.0
  0
MTEXT
  5
412
330
40C
100
AcDbEntity
  8
0
 62
     3
100
AcDbMText
 10
160.6069463284966
 20
138.4655598274475
 30
0.0
 40
3.0
 41
0.0
 71
     5
 72
     1
  1
\A1;25
1001
ACAD
1000
MTEXTBEGIN
1070
    73
1070
     1
1070
    44
1040
1.0
1070
    74
1070
     0
1000
MTEXTEND
  0
POINT
  5
413
330
40C
100
AcDbEntity
  8
DEFPOINTS
 62
     0
100
AcDbPoint
 10
173.1069463284966
 20
119.7452716205448
 30
0.0
  0
POINT
  5
414
330
40C
100
AcDbEntity
  8
DEFPOINTS
 62
     0
100
AcDbPoint
 10
148.1069463284948
 20
119.7452716205443
 30
0.0
  0
POINT
  5
415
330
40C
100
AcDbEntity
  8
DEFPOINTS
 62
     0
100
AcDbPoint
 10
148.1069463284948
 20
135.9655598274475
 30
0.0
  0
ENDBLK
  5
417
330
40C
100
AcDbEntity
  8
0
100
AcDbBlockEnd
  0
BLOCK
  5
424
330
418
100
AcDbEntity
  8
0
100
AcDbBlockBegin
  2
*D44
 70
     1
 10
0.0
 20
0.0
 30
0.0
  3
*D44
  1

  0
LINE
  5
419
330
418
100
AcDbEntity
  8
0
 62
   123
100
AcDbLine
 10
180.1069463284948
 20
140.2452716205448
 30
0.0
 11
180.1069463284948
 21
152.0889045076051
 31
0.0
  0
LINE
  5
41A
330
418
100
AcDbEntity
  8
0
 62
   123
100
AcDbLine
 10
177.1069463284948
 20
132.2452716205443
 30
0.0
 11
177.1069463284948
 21
152.0889045076051
 31
0.0
  0
LINE
  5
41B
330
418
100
AcDbEntity
  8
0
 62
   123
100
AcDbLine
 10
182.6069463284948
 20
151.4889045076051
 30
0.0
 11
185.1069463284948
 21
151.4889045076051
 31
0.0
  0
LINE
  5
41C
330
418
100
AcDbEntity
  8
0
 62
   123
100
AcDbLine
 10
174.6069463284948
 20
151.4889045076051
 30
0.0
 11
172.1069463284948
 21
151.4889045076051
 31
0.0
  0
LINE
  5
41D
330
418
100
AcDbEntity
  8
0
 62
   123
100
AcDbLine
 10
180.1069463284948
 20
151.4889045076051
 30
0.0
 11
177.1069463284948
 21
151.4889045076051
 31
0.0
  0
SOLID
  5
41E
330
418
100
AcDbEntity
  8
0
 62
   123
100
AcDbTrace
 10
182.6069463284948
 20
151.9055711742718
 30
0.0
 11
182.6069463284948
 21
151.0722378409385
 31
0.0
 12
180.1069463284948
 22
151.4889045076051
 32
0.0
 13
180.1069463284948
 23
151.4889045076051
 33
0.0
  0
SOLID
  5
41F
330
418
100
AcDbEntity
  8
0
 62
   123
100
AcDbTrace
 10
174.6069463284948
 20
151.9055711742718
 30
0.0
 11
174.6069463284948
 21
151.0722378409385
 31
0.0
 12
177.1069463284948
 22
151.4889045076051
 32
0.0
 13
177.1069463284948
 23
151.4889045076051
 33
0.0
  0
MTEXT
  5
420
330
418
100
AcDbEntity
  8
0
 62
     3
100
AcDbMText
 10
178.6069463284948
 20
153.9889045076051
 30
0.0
 40
3.0
 41
0.0
 71
     5
 72
     1
  1
\A1;3
1001
ACAD
1000
MTEXTBEGIN
1070
    73
1070
     1
1070
    44
1040
1.0
1070
    74
1070
     0
1000
MTEXTEND
  0
POINT
  5
421
330
418
100
AcDbEntity
  8
DEFPOINTS
 62
     0
100
AcDbPoint
 10
180.1069463284948
 20
139.2452716205448
 30
0.0
  0
POINT
  5
422
330
418
100
AcDbEntity
  8
DEFPOINTS
 62
     0
100
AcDbPoint
 10
177.1069463284948
 20
131.2452716205443
 30
0.0
  0
POINT
  5
423
330
418
100
AcDbEntity
  8
DEFPOINTS
 62
     0
100
AcDbPoint
 10
177.1069463284948
 20
151.4889045076051
 30
0.0
  0
ENDBLK
  5
425
330
418
100
AcDbEntity
  8
0
100
AcDbBlockEnd
  0
BLOCK
  5
430
330
426
100
AcDbEntity
  8
0
100
AcDbBlockBegin
  2
*D45
 70
     1
 10
0.0
 20
0.0
 30
0.0
  3
*D45
  1

  0
LINE
  5
427
330
426
100
AcDbEntity
  8
0
 62
   123
100
AcDbLine
 10
148.1069463284948
 20
120.7452716205443
 30
0.0
 11
148.1069463284948
 21
165.6136671574196
 31
0.0
  0
LINE
  5
428
330
426
100
AcDbEntity
  8
0
 62
   123
100
AcDbLine
 10
180.1069463284948
 20
140.2452716205448
 30
0.0
 11
180.1069463284948
 21
165.6136671574196
 31
0.0
  0
LINE
  5
429
330
426
100
AcDbEntity
  8
0
 62
   123
100
AcDbLine
 10
150.6069463284948
 20
165.0136671574196
 30
0.0
 11
177.6069463284948
 21
165.0136671574196
 31
0.0
  0
SOLID
  5
42A
330
426
100
AcDbEntity
  8
0
 62
   123
100
AcDbTrace
 10
150.6069463284948
 20
165.4303338240862
 30
0.0
 11
150.6069463284948
 21
164.5970004907529
 31
0.0
 12
148.1069463284948
 22
165.0136671574196
 32
0.0
 13
148.1069463284948
 23
165.0136671574196
 33
0.0
  0
SOLID
  5
42B
330
426
100
AcDbEntity
  8
0
 62
   123
100
AcDbTrace
 10
177.6069463284948
 20
165.4303338240862
 30
0.0
 11
177.6069463284948
 21
164.5970004907529
 31
0.0
 12
180.1069463284948
 22
165.0136671574196
 32
0.0
 13
180.1069463284948
 23
165.0136671574196
 33
0.0
  0
MTEXT
  5
42C
330
426
100
AcDbEntity
  8
0
 62
     3
100
AcDbMText
 10
164.4281782583802
 20
167.5136671574195
 30
0.0
 40
3.0
 41
0.0
 71
     5
 72
     1
  1
\A1;32
1001
ACAD
1000
MTEXTBEGIN
1070
    73
1070
     1
1070
    44
1040
1.0
1070
    74
1070
     0
1000
MTEXTEND
  0
POINT
  5
42D
330
426
100
AcDbEntity
  8
DEFPOINTS
 62
     0
100
AcDbPoint
 10
148.1069463284948
 20
119.7452716205443
 30
0.0
  0
POINT
  5
42E
330
426
100
AcDbEntity
  8
DEFPOINTS
 62
     0
100
AcDbPoint
 10
180.1069463284948
 20
139.2452716205448
 30
0.0
  0
POINT
  5
42F
330
426
100
AcDbEntity
  8
DEFPOINTS
 62
     0
100
AcDbPoint
 10
180.1069463284948
 20
165.0136671574196
 30
0.0
  0
ENDBLK
  5
431
330
426
100
AcDbEntity
  8
0
100
AcDbBlockEnd
  0
BLOCK
  5
43C
330
432
100
AcDbEntity
  8
0
100
AcDbBlockBegin
  2
*D46
 70
     1
 10
0.0
 20
0.0
 30
0.0
  3
*D46
  1

  0
LINE
  5
433
330
432
100
AcDbEntity
  8
0
 62
   123
100
AcDbLine
 10
180.1069463284948
 20
140.2452716205448
 30
0.0
 11
180.1069463284948
 21
165.6161850763547
 31
0.0
  0
LINE
  5
434
330
432
100
AcDbEntity
  8
0
 62
   123
100
AcDbLine
 10
222.6069463284929
 20
140.7452716205443
 30
0.0
 11
222.6069463284929
 21
165.6161850763547
 31
0.0
  0
LINE
  5
435
330
432
100
AcDbEntity
  8
0
 62
   123
100
AcDbLine
 10
182.6069463284948
 20
165.0161850763547
 30
0.0
 11
220.1069463284929
 21
165.0161850763547
 31
0.0
  0
SOLID
  5
436
330
432
100
AcDbEntity
  8
0
 62
   123
100
AcDbTrace
 10
182.6069463284948
 20
165.4328517430214
 30
0.0
 11
182.6069463284948
 21
164.599518409688
 31
0.0
 12
180.1069463284948
 22
165.0161850763547
 32
0.0
 13
180.1069463284948
 23
165.0161850763547
 33
0.0
  0
SOLID
  5
437
330
432
100
AcDbEntity
  8
0
 62
   123
100
AcDbTrace
 10
220.1069463284929
 20
165.4328517430214
 30
0.0
 11
220.1069463284929
 21
164.599518409688
 31
0.0
 12
222.6069463284929
 22
165.0161850763547
 32
0.0
 13
222.6069463284929
 23
165.0161850763547
 33
0.0
  0
MTEXT
  5
438
330
432
100
AcDbEntity
  8
0
 62
     3
100
AcDbMText
 10
200.1069463284948
 20
167.5161850763547
 30
0.0
 40
3.0
 41
0.0
 71
     5
 72
     1
  1
\A1;{\f??|b0|i0|c0|p49;L}
1001
ACAD
1000
MTEXTBEGIN
1070
    73
1070
     1
1070
    44
1040
1.0
1070
    74
1070
     0
1000
MTEXTEND
  0
POINT
  5
439
330
432
100
AcDbEntity
  8
DEFPOINTS
 62
     0
100
AcDbPoint
 10
180.1069463284948
 20
139.2452716205448
 30
0.0
  0
POINT
  5
43A
330
432
100
AcDbEntity
  8
DEFPOINTS
 62
     0
100
AcDbPoint
 10
222.6069463284929
 20
139.7452716205443
 30
0.0
  0
POINT
  5
43B
330
432
100
AcDbEntity
  8
DEFPOINTS
 62
     0
100
AcDbPoint
 10
222.6069463284929
 20
165.0161850763547
 30
0.0
  0
ENDBLK
  5
43D
330
432
100
AcDbEntity
  8
0
100
AcDbBlockEnd
  0
BLOCK
  5
448
330
43E
100
AcDbEntity
  8
0
100
AcDbBlockBegin
  2
*D47
 70
     1
 10
0.0
 20
0.0
 30
0.0
  3
*D47
  1

  0
LINE
  5
43F
330
43E
100
AcDbEntity
  8
0
 62
   123
100
AcDbLine
 10
222.6069463284929
 20
140.2452716205448
 30
0.0
 11
222.6069463284929
 21
152.2739536839563
 31
0.0
  0
LINE
  5
440
330
43E
100
AcDbEntity
  8
0
 62
   123
100
AcDbLine
 10
229.6069463284948
 20
139.3440089620735
 30
0.0
 11
229.6069463284948
 21
152.2739536839563
 31
0.0
  0
LINE
  5
441
330
43E
100
AcDbEntity
  8
0
 62
   123
100
AcDbLine
 10
225.106946328493
 20
151.6739536839563
 30
0.0
 11
227.1069463284948
 21
151.6739536839563
 31
0.0
  0
SOLID
  5
442
330
43E
100
AcDbEntity
  8
0
 62
   123
100
AcDbTrace
 10
225.106946328493
 20
152.090620350623
 30
0.0
 11
225.106946328493
 21
151.2572870172897
 31
0.0
 12
222.6069463284929
 22
151.6739536839563
 32
0.0
 13
222.6069463284929
 23
151.6739536839563
 33
0.0
  0
SOLID
  5
443
330
43E
100
AcDbEntity
  8
0
 62
   123
100
AcDbTrace
 10
227.1069463284948
 20
152.090620350623
 30
0.0
 11
227.1069463284948
 21
151.2572870172897
 31
0.0
 12
229.6069463284948
 22
151.6739536839563
 32
0.0
 13
229.6069463284948
 23
151.6739536839563
 33
0.0
  0
MTEXT
  5
444
330
43E
100
AcDbEntity
  8
0
 62
     3
100
AcDbMText
 10
226.1069463284948
 20
154.1739536839563
 30
0.0
 40
3.0
 41
0.0
 71
     5
 72
     1
  1
\A1;7
1001
ACAD
1000
MTEXTBEGIN
1070
    73
1070
     1
1070
    44
1040
1.0
1070
    74
1070
     0
1000
MTEXTEND
  0
POINT
  5
445
330
43E
100
AcDbEntity
  8
DEFPOINTS
 62
     0
100
AcDbPoint
 10
222.6069463284929
 20
139.2452716205448
 30
0.0
  0
POINT
  5
446
330
43E
100
AcDbEntity
  8
DEFPOINTS
 62
     0
100
AcDbPoint
 10
229.6069463284948
 20
138.3440089620735
 30
0.0
  0
POINT
  5
447
330
43E
100
AcDbEntity
  8
DEFPOINTS
 62
     0
100
AcDbPoint
 10
229.6069463284948
 20
151.6739536839563
 30
0.0
  0
ENDBLK
  5
449
330
43E
100
AcDbEntity
  8
0
100
AcDbBlockEnd
  0
BLOCK
  5
456
330
44A
100
AcDbEntity
  8
0
100
AcDbBlockBegin
  2
*D48
 70
     1
 10
0.0
 20
0.0
 30
0.0
  3
*D48
  1

  0
LINE
  5
44B
330
44A
100
AcDbEntity
  8
0
 62
   123
100
AcDbLine
 10
131.1241818403959
 20
224.7318260526153
 30
0.0
 11
131.1241818403959
 21
233.0908385975904
 31
0.0
  0
LINE
  5
44C
330
44A
100
AcDbEntity
  8
0
 62
   123
100
AcDbLine
 10
135.1241818403978
 20
224.7318260526153
 30
0.0
 11
135.1241818403978
 21
233.0908385975904
 31
0.0
  0
LINE
  5
44D
330
44A
100
AcDbEntity
  8
0
 62
   123
100
AcDbLine
 10
128.6241818403959
 20
232.4908385975904
 30
0.0
 11
126.1241818403959
 21
232.4908385975904
 31
0.0
  0
LINE
  5
44E
330
44A
100
AcDbEntity
  8
0
 62
   123
100
AcDbLine
 10
137.6241818403977
 20
232.4908385975904
 30
0.0
 11
140.1241818403977
 21
232.4908385975904
 31
0.0
  0
LINE
  5
44F
330
44A
100
AcDbEntity
  8
0
 62
   123
100
AcDbLine
 10
131.1241818403959
 20
232.4908385975904
 30
0.0
 11
135.1241818403978
 21
232.4908385975904
 31
0.0
  0
SOLID
  5
450
330
44A
100
AcDbEntity
  8
0
 62
   123
100
AcDbTrace
 10
128.6241818403959
 20
232.9075052642571
 30
0.0
 11
128.6241818403959
 21
232.0741719309238
 31
0.0
 12
131.1241818403959
 22
232.4908385975904
 32
0.0
 13
131.1241818403959
 23
232.4908385975904
 33
0.0
  0
SOLID
  5
451
330
44A
100
AcDbEntity
  8
0
 62
   123
100
AcDbTrace
 10
137.6241818403977
 20
232.9075052642571
 30
0.0
 11
137.6241818403977
 21
232.0741719309238
 31
0.0
 12
135.1241818403978
 22
232.4908385975904
 32
0.0
 13
135.1241818403978
 23
232.4908385975904
 33
0.0
  0
MTEXT
  5
452
330
44A
100
AcDbEntity
  8
0
 62
     3
100
AcDbMText
 10
133.1241818403968
 20
235.9408385975904
 30
0.0
 40
3.0
 41
0.0
 71
     5
 72
     1
  1
\A1;\A1;4{\f??|b0|i0|c0|p49;\H0.7x;\S+0.40^ -0;}
1001
ACAD
1000
MTEXTBEGIN
1070
    73
1070
     1
1070
    44
1040
1.0
1070
    74
1070
     0
1000
MTEXTEND
  0
POINT
  5
453
330
44A
100
AcDbEntity
  8
DEFPOINTS
 62
     0
100
AcDbPoint
 10
131.1241818403959
 20
223.7318260526153
 30
0.0
  0
POINT
  5
454
330
44A
100
AcDbEntity
  8
DEFPOINTS
 62
     0
100
AcDbPoint
 10
135.1241818403978
 20
223.7318260526153
 30
0.0
  0
POINT
  5
455
330
44A
100
AcDbEntity
  8
DEFPOINTS
 62
     0
100
AcDbPoint
 10
135.1241818403978
 20
232.4908385975904
 30
0.0
  0
ENDBLK
  5
457
330
44A
100
AcDbEntity
  8
0
100
AcDbBlockEnd
  0
BLOCK
  5
464
330
458
100
AcDbEntity
  8
0
100
AcDbBlockBegin
  2
*D49
 70
     1
 10
0.0
 20
0.0
 30
0.0
  3
*D49
  1

  0
LINE
  5
459
330
458
100
AcDbEntity
  8
0
 62
   123
100
AcDbLine
 10
86.1908020998544
 20
223.7495456446563
 30
0.0
 11
86.1908020998544
 21
232.0240213032881
 31
0.0
  0
LINE
  5
45A
330
458
100
AcDbEntity
  8
0
 62
   123
100
AcDbLine
 10
90.1908020998526
 20
223.7495456446563
 30
0.0
 11
90.1908020998526
 21
232.0240213032881
 31
0.0
  0
LINE
  5
45B
330
458
100
AcDbEntity
  8
0
 62
   123
100
AcDbLine
 10
83.6908020998544
 20
231.424021303288
 30
0.0
 11
81.1908020998544
 21
231.424021303288
 31
0.0
  0
LINE
  5
45C
330
458
100
AcDbEntity
  8
0
 62
   123
100
AcDbLine
 10
92.6908020998526
 20
231.424021303288
 30
0.0
 11
95.1908020998526
 21
231.424021303288
 31
0.0
  0
LINE
  5
45D
330
458
100
AcDbEntity
  8
0
 62
   123
100
AcDbLine
 10
86.1908020998544
 20
231.424021303288
 30
0.0
 11
90.1908020998526
 21
231.424021303288
 31
0.0
  0
SOLID
  5
45E
330
458
100
AcDbEntity
  8
0
 62
   123
100
AcDbTrace
 10
83.6908020998544
 20
231.8406879699547
 30
0.0
 11
83.6908020998544
 21
231.0073546366214
 31
0.0
 12
86.1908020998544
 22
231.424021303288
 32
0.0
 13
86.1908020998544
 23
231.424021303288
 33
0.0
  0
SOLID
  5
45F
330
458
100
AcDbEntity
  8
0
 62
   123
100
AcDbTrace
 10
92.6908020998526
 20
231.8406879699547
 30
0.0
 11
92.6908020998526
 21
231.0073546366214
 31
0.0
 12
90.1908020998526
 22
231.424021303288
 32
0.0
 13
90.1908020998526
 23
231.424021303288
 33
0.0
  0
MTEXT
  5
460
330
458
100
AcDbEntity
  8
0
 62
     3
100
AcDbMText
 10
88.19080209985349
 20
234.874021303288
 30
0.0
 40
3.0
 41
0.0
 71
     5
 72
     1
  1
\A1;\A1;4{\f??|b0|i0|c0|p49;\H0.7x;\S+0^ -0.03;}
1001
ACAD
1000
MTEXTBEGIN
1070
    73
1070
     1
1070
    44
1040
1.0
1070
    74
1070
     0
1000
MTEXTEND
  0
POINT
  5
461
330
458
100
AcDbEntity
  8
DEFPOINTS
 62
     0
100
AcDbPoint
 10
86.1908020998544
 20
222.7495456446563
 30
0.0
  0
POINT
  5
462
330
458
100
AcDbEntity
  8
DEFPOINTS
 62
     0
100
AcDbPoint
 10
90.1908020998526
 20
222.7495456446563
 30
0.0
  0
POINT
  5
463
330
458
100
AcDbEntity
  8
DEFPOINTS
 62
     0
100
AcDbPoint
 10
90.1908020998526
 20
231.424021303288
 30
0.0
  0
ENDBLK
  5
465
330
458
100
AcDbEntity
  8
0
100
AcDbBlockEnd
  0
BLOCK
  5
472
330
466
100
AcDbEntity
  8
0
100
AcDbBlockBegin
  2
*D50
 70
     1
 10
0.0
 20
0.0
 30
0.0
  3
*D50
  1

  0
LINE
  5
467
330
466
100
AcDbEntity
  8
0
 62
   123
100
AcDbLine
 10
136.1241818403978
 20
221.6492503576592
 30
0.0
 11
151.2215143345798
 21
221.6492503576592
 31
0.0
  0
LINE
  5
468
330
466
100
AcDbEntity
  8
0
 62
   123
100
AcDbLine
 10
134.1241818403978
 20
224.1492503576592
 30
0.0
 11
151.2215143345798
 21
224.1492503576592
 31
0.0
  0
LINE
  5
469
330
466
100
AcDbEntity
  8
0
 62
   123
100
AcDbLine
 10
150.6215143345798
 20
219.1492503576591
 30
0.0
 11
150.6215143345798
 21
216.6492503576591
 31
0.0
  0
LINE
  5
46A
330
466
100
AcDbEntity
  8
0
 62
   123
100
AcDbLine
 10
150.6215143345798
 20
226.6492503576591
 30
0.0
 11
150.6215143345798
 21
248.0635360719463
 31
0.0
  0
LINE
  5
46B
330
466
100
AcDbEntity
  8
0
 62
   123
100
AcDbLine
 10
150.6215143345798
 20
221.6492503576592
 30
0.0
 11
150.6215143345798
 21
224.1492503576592
 31
0.0
  0
SOLID
  5
46C
330
466
100
AcDbEntity
  8
0
 62
   123
100
AcDbTrace
 10
150.2048476679132
 20
219.1492503576591
 30
0.0
 11
151.0381810012465
 21
219.1492503576591
 31
0.0
 12
150.6215143345798
 22
221.6492503576592
 32
0.0
 13
150.6215143345798
 23
221.6492503576592
 33
0.0
  0
SOLID
  5
46D
330
466
100
AcDbEntity
  8
0
 62
   123
100
AcDbTrace
 10
150.2048476679132
 20
226.6492503576591
 30
0.0
 11
151.0381810012465
 21
226.6492503576591
 31
0.0
 12
150.6215143345798
 22
224.1492503576592
 32
0.0
 13
150.6215143345798
 23
224.1492503576592
 33
0.0
  0
MTEXT
  5
46E
330
466
100
AcDbEntity
  8
0
 62
     3
100
AcDbMText
 10
147.1715143345798
 20
240.3563932148035
 30
0.0
 40
3.0
 41
0.0
 71
     5
 72
     1
  1
\A1;\A1;2.5{\f??|b0|i0|c0|p49;\H0.7x;\S+0.1^ -0;\H1.429x; }
 11
0.0000000000000001
 21
1.0
 31
0.0
1001
ACAD
1000
MTEXTBEGIN
1070
    73
1070
     1
1070
    44
1040
1.0
1070
    74
1070
     0
1000
MTEXTEND
  0
POINT
  5
46F
330
466
100
AcDbEntity
  8
DEFPOINTS
 62
     0
100
AcDbPoint
 10
135.1241818403978
 20
221.6492503576592
 30
0.0
  0
POINT
  5
470
330
466
100
AcDbEntity
  8
DEFPOINTS
 62
     0
100
AcDbPoint
 10
133.1241818403978
 20
224.1492503576592
 30
0.0
  0
POINT
  5
471
330
466
100
AcDbEntity
  8
DEFPOINTS
 62
     0
100
AcDbPoint
 10
150.6215143345798
 20
224.1492503576592
 30
0.0
  0
ENDBLK
  5
473
330
466
100
AcDbEntity
  8
0
100
AcDbBlockEnd
  0
BLOCK
  5
480
330
474
100
AcDbEntity
  8
0
100
AcDbBlockBegin
  2
*D51
 70
     1
 10
0.0
 20
0.0
 30
0.0
  3
*D51
  1

  0
LINE
  5
475
330
474
100
AcDbEntity
  8
0
 62
   123
100
AcDbLine
 10
70.0201488131388
 20
218.7495456446563
 30
0.0
 11
77.78920396860269
 21
218.7495456446563
 31
0.0
  0
LINE
  5
476
330
474
100
AcDbEntity
  8
0
 62
   123
100
AcDbLine
 10
70.0201488131388
 20
222.7495456446563
 30
0.0
 11
77.78920396860269
 21
222.7495456446563
 31
0.0
  0
LINE
  5
477
330
474
100
AcDbEntity
  8
0
 62
   123
100
AcDbLine
 10
77.18920396860269
 20
216.2495456446563
 30
0.0
 11
77.18920396860269
 21
213.7495456446563
 31
0.0
  0
LINE
  5
478
330
474
100
AcDbEntity
  8
0
 62
   123
100
AcDbLine
 10
77.18920396860271
 20
225.2495456446563
 30
0.0
 11
77.18920396860271
 21
244.3132931530325
 31
0.0
  0
LINE
  5
479
330
474
100
AcDbEntity
  8
0
 62
   123
100
AcDbLine
 10
77.18920396860269
 20
218.7495456446563
 30
0.0
 11
77.18920396860269
 21
222.7495456446563
 31
0.0
  0
SOLID
  5
47A
330
474
100
AcDbEntity
  8
0
 62
   123
100
AcDbTrace
 10
76.77253730193602
 20
216.2495456446563
 30
0.0
 11
77.60587063526937
 21
216.2495456446563
 31
0.0
 12
77.18920396860269
 22
218.7495456446563
 32
0.0
 13
77.18920396860269
 23
218.7495456446563
 33
0.0
  0
SOLID
  5
47B
330
474
100
AcDbEntity
  8
0
 62
   123
100
AcDbTrace
 10
76.77253730193604
 20
225.2495456446563
 30
0.0
 11
77.60587063526938
 21
225.2495456446563
 31
0.0
 12
77.18920396860269
 22
222.7495456446563
 32
0.0
 13
77.18920396860269
 23
222.7495456446563
 33
0.0
  0
MTEXT
  5
47C
330
474
100
AcDbEntity
  8
0
 62
     3
100
AcDbMText
 10
73.73920396860267
 20
237.5990074387468
 30
0.0
 40
3.0
 41
0.0
 71
     5
 72
     1
  1
\A1;\A1;4{\f??|b0|i0|c0|p49;\H0.7x;\S+0^ -0.03;}
 11
0.0000000000000001
 21
1.0
 31
0.0
1001
ACAD
1000
MTEXTBEGIN
1070
    73
1070
     1
1070
    44
1040
1.0
1070
    74
1070
     0
1000
MTEXTEND
  0
POINT
  5
47D
330
474
100
AcDbEntity
  8
DEFPOINTS
 62
     0
100
AcDbPoint
 10
69.0201488131388
 20
218.7495456446563
 30
0.0
  0
POINT
  5
47E
330
474
100
AcDbEntity
  8
DEFPOINTS
 62
     0
100
AcDbPoint
 10
69.0201488131388
 20
222.7495456446563
 30
0.0
  0
POINT
  5
47F
330
474
100
AcDbEntity
  8
DEFPOINTS
 62
     0
100
AcDbPoint
 10
77.18920396860269
 20
222.7495456446563
 30
0.0
  0
ENDBLK
  5
481
330
474
100
AcDbEntity
  8
0
100
AcDbBlockEnd
  0
BLOCK
  5
48C
330
482
100
AcDbEntity
  8
0
100
AcDbBlockBegin
  2
*D52
 70
     1
 10
0.0
 20
0.0
 30
0.0
  3
*D52
  1

  0
LINE
  5
483
330
482
100
AcDbEntity
  8
0
 62
   123
100
AcDbLine
 10
44.0201488131388
 20
221.7495456446563
 30
0.0
 11
44.0201488131388
 21
231.1547396251322
 31
0.0
  0
LINE
  5
484
330
482
100
AcDbEntity
  8
0
 62
   123
100
AcDbLine
 10
69.0201488131388
 20
223.7495456446563
 30
0.0
 11
69.0201488131388
 21
231.1547396251322
 31
0.0
  0
LINE
  5
485
330
482
100
AcDbEntity
  8
0
 62
   123
100
AcDbLine
 10
46.5201488131388
 20
230.5547396251322
 30
0.0
 11
66.5201488131388
 21
230.5547396251322
 31
0.0
  0
SOLID
  5
486
330
482
100
AcDbEntity
  8
0
 62
   123
100
AcDbTrace
 10
46.5201488131388
 20
230.9714062917989
 30
0.0
 11
46.5201488131388
 21
230.1380729584655
 31
0.0
 12
44.0201488131388
 22
230.5547396251322
 32
0.0
 13
44.0201488131388
 23
230.5547396251322
 33
0.0
  0
SOLID
  5
487
330
482
100
AcDbEntity
  8
0
 62
   123
100
AcDbTrace
 10
66.5201488131388
 20
230.9714062917989
 30
0.0
 11
66.5201488131388
 21
230.1380729584655
 31
0.0
 12
69.0201488131388
 22
230.5547396251322
 32
0.0
 13
69.0201488131388
 23
230.5547396251322
 33
0.0
  0
MTEXT
  5
488
330
482
100
AcDbEntity
  8
0
 62
     3
100
AcDbMText
 10
56.5201488131388
 20
233.0547396251322
 30
0.0
 40
3.0
 41
0.0
 71
     5
 72
     1
  1
\A1;25{\f??|b0|i0|c0|p49;%%p0.2}
1001
ACAD
1000
MTEXTBEGIN
1070
    73
1070
     1
1070
    44
1040
1.0
1070
    74
1070
     0
1000
MTEXTEND
  0
POINT
  5
489
330
482
100
AcDbEntity
  8
DEFPOINTS
 62
     0
100
AcDbPoint
 10
44.0201488131388
 20
220.7495456446563
 30
0.0
  0
POINT
  5
48A
330
482
100
AcDbEntity
  8
DEFPOINTS
 62
     0
100
AcDbPoint
 10
69.0201488131388
 20
222.7495456446563
 30
0.0
  0
POINT
  5
48B
330
482
100
AcDbEntity
  8
DEFPOINTS
 62
     0
100
AcDbPoint
 10
69.0201488131388
 20
230.5547396251322
 30
0.0
  0
ENDBLK
  5
48D
330
482
100
AcDbEntity
  8
0
100
AcDbBlockEnd
  0
BLOCK
  5
498
330
48E
100
AcDbEntity
  8
0
100
AcDbBlockBegin
  2
*D53
 70
     1
 10
0.0
 20
0.0
 30
0.0
  3
*D53
  1

  0
LINE
  5
48F
330
48E
100
AcDbEntity
  8
0
 62
   123
100
AcDbLine
 10
249.8717728184565
 20
358.9112178959912
 30
0.0
 11
187.2573909268926
 21
358.9112178959912
 31
0.0
  0
LINE
  5
490
330
48E
100
AcDbEntity
  8
0
 62
   123
100
AcDbLine
 10
249.8717728184565
 20
324.9112178959912
 30
0.0
 11
187.2573909268926
 21
324.9112178959912
 31
0.0
  0
LINE
  5
491
330
48E
100
AcDbEntity
  8
0
 62
   123
100
AcDbLine
 10
187.8573909268926
 20
356.4112178959912
 30
0.0
 11
187.8573909268926
 21
327.4112178959912
 31
0.0
  0
SOLID
  5
492
330
48E
100
AcDbEntity
  8
0
 62
   123
100
AcDbTrace
 10
187.4407242602259
 20
356.4112178959912
 30
0.0
 11
188.2740575935592
 21
356.4112178959912
 31
0.0
 12
187.8573909268926
 22
358.9112178959912
 32
0.0
 13
187.8573909268926
 23
358.9112178959912
 33
0.0
  0
SOLID
  5
493
330
48E
100
AcDbEntity
  8
0
 62
   123
100
AcDbTrace
 10
187.4407242602259
 20
327.4112178959912
 30
0.0
 11
188.2740575935592
 21
327.4112178959912
 31
0.0
 12
187.8573909268926
 22
324.9112178959912
 32
0.0
 13
187.8573909268926
 23
324.9112178959912
 33
0.0
  0
MTEXT
  5
494
330
48E
100
AcDbEntity
  8
0
 62
     3
100
AcDbMText
 10
185.3573909268925
 20
341.9112178959912
 30
0.0
 40
3.0
 41
0.0
 71
     5
 72
     1
  1
\A1;{\f??|b0|i0|c0|p49;%%c}34
 11
0.0000000000000001
 21
1.0
 31
0.0
1001
ACAD
1000
MTEXTBEGIN
1070
    73
1070
     1
1070
    44
1040
1.0
1070
    74
1070
     0
1000
MTEXTEND
  0
POINT
  5
495
330
48E
100
AcDbEntity
  8
DEFPOINTS
 62
     0
100
AcDbPoint
 10
250.8717728184565
 20
358.9112178959912
 30
0.0
  0
POINT
  5
496
330
48E
100
AcDbEntity
  8
DEFPOINTS
 62
     0
100
AcDbPoint
 10
250.8717728184565
 20
324.9112178959912
 30
0.0
  0
POINT
  5
497
330
48E
100
AcDbEntity
  8
DEFPOINTS
 62
     0
100
AcDbPoint
 10
187.8573909268926
 20
324.9112178959912
 30
0.0
  0
ENDBLK
  5
499
330
48E
100
AcDbEntity
  8
0
100
AcDbBlockEnd
  0
BLOCK
  5
4A4
330
49A
100
AcDbEntity
  8
0
100
AcDbBlockBegin
  2
*D54
 70
     1
 10
0.0
 20
0.0
 30
0.0
  3
*D54
  1

  0
LINE
  5
49B
330
49A
100
AcDbEntity
  8
0
 62
   123
100
AcDbLine
 10
246.3717728184565
 20
347.9112178959912
 30
0.0
 11
246.3717728184565
 21
363.7315061028931
 31
0.0
  0
LINE
  5
49C
330
49A
100
AcDbEntity
  8
0
 62
   123
100
AcDbLine
 10
221.3717728184547
 20
347.9112178959912
 30
0.0
 11
221.3717728184547
 21
363.7315061028931
 31
0.0
  0
LINE
  5
49D
330
49A
100
AcDbEntity
  8
0
 62
   123
100
AcDbLine
 10
243.8717728184565
 20
363.1315061028931
 30
0.0
 11
223.8717728184547
 21
363.1315061028931
 31
0.0
  0
SOLID
  5
49E
330
49A
100
AcDbEntity
  8
0
 62
   123
100
AcDbTrace
 10
243.8717728184565
 20
363.5481727695598
 30
0.0
 11
243.8717728184565
 21
362.7148394362264
 31
0.0
 12
246.3717728184565
 22
363.1315061028931
 32
0.0
 13
246.3717728184565
 23
363.1315061028931
 33
0.0
  0
SOLID
  5
49F
330
49A
100
AcDbEntity
  8
0
 62
   123
100
AcDbTrace
 10
223.8717728184547
 20
363.5481727695598
 30
0.0
 11
223.8717728184547
 21
362.7148394362264
 31
0.0
 12
221.3717728184547
 22
363.1315061028931
 32
0.0
 13
221.3717728184547
 23
363.1315061028931
 33
0.0
  0
MTEXT
  5
4A0
330
49A
100
AcDbEntity
  8
0
 62
     3
100
AcDbMText
 10
234.1827034858543
 20
365.6315061028931
 30
0.0
 40
3.0
 41
0.0
 71
     5
 72
     1
  1
\A1;25
1001
ACAD
1000
MTEXTBEGIN
1070
    73
1070
     1
1070
    44
1040
1.0
1070
    74
1070
     0
1000
MTEXTEND
  0
POINT
  5
4A1
330
49A
100
AcDbEntity
  8
DEFPOINTS
 62
     0
100
AcDbPoint
 10
246.3717728184565
 20
346.9112178959913
 30
0.0
  0
POINT
  5
4A2
330
49A
100
AcDbEntity
  8
DEFPOINTS
 62
     0
100
AcDbPoint
 10
221.3717728184547
 20
346.9112178959913
 30
0.0
  0
POINT
  5
4A3
330
49A
100
AcDbEntity
  8
DEFPOINTS
 62
     0
100
AcDbPoint
 10
221.3717728184547
 20
363.1315061028931
 30
0.0
  0
ENDBLK
  5
4A5
330
49A
100
AcDbEntity
  8
0
100
AcDbBlockEnd
  0
BLOCK
  5
4B2
330
4A6
100
AcDbEntity
  8
0
100
AcDbBlockBegin
  2
*D55
 70
     1
 10
0.0
 20
0.0
 30
0.0
  3
*D55
  1

  0
LINE
  5
4A7
330
4A6
100
AcDbEntity
  8
0
 62
   123
100
AcDbLine
 10
220.3717728184547
 20
336.9112178959912
 30
0.0
 11
205.9471095294815
 21
336.9112178959912
 31
0.0
  0
LINE
  5
4A8
330
4A6
100
AcDbEntity
  8
0
 62
   123
100
AcDbLine
 10
220.3717728184547
 20
346.9112178959913
 30
0.0
 11
205.9471095294815
 21
346.9112178959913
 31
0.0
  0
LINE
  5
4A9
330
4A6
100
AcDbEntity
  8
0
 62
   123
100
AcDbLine
 10
206.5471095294816
 20
334.4112178959913
 30
0.0
 11
206.5471095294816
 21
331.9112178959912
 31
0.0
  0
LINE
  5
4AA
330
4A6
100
AcDbEntity
  8
0
 62
   123
100
AcDbLine
 10
206.5471095294816
 20
349.4112178959912
 30
0.0
 11
206.5471095294816
 21
389.8377232503053
 31
0.0
  0
LINE
  5
4AB
330
4A6
100
AcDbEntity
  8
0
 62
   123
100
AcDbLine
 10
206.5471095294816
 20
336.9112178959912
 30
0.0
 11
206.5471095294816
 21
346.9112178959913
 31
0.0
  0
SOLID
  5
4AC
330
4A6
100
AcDbEntity
  8
0
 62
   123
100
AcDbTrace
 10
206.1304428628149
 20
334.4112178959913
 30
0.0
 11
206.9637761961482
 21
334.4112178959913
 31
0.0
 12
206.5471095294816
 22
336.9112178959912
 32
0.0
 13
206.5471095294816
 23
336.9112178959912
 33
0.0
  0
SOLID
  5
4AD
330
4A6
100
AcDbEntity
  8
0
 62
   123
100
AcDbTrace
 10
206.1304428628149
 20
349.4112178959912
 30
0.0
 11
206.9637761961482
 21
349.4112178959912
 31
0.0
 12
206.5471095294816
 22
346.9112178959913
 32
0.0
 13
206.5471095294816
 23
346.9112178959913
 33
0.0
  0
MTEXT
  5
4AE
330
4A6
100
AcDbEntity
  8
0
 62
     3
100
AcDbMText
 10
202.5969595294815
 20
375.022151821734
 30
0.0
 40
3.0
 41
0.0
 71
     5
 72
     1
  1
\A1;\A1;{\f??|b0|i0|c0|p49;%%C10\H0.7x;\S+0^ -0.015;\H1.429x;(h7)}
 11
0.0000000000000001
 21
1.0
 31
0.0
1001
ACAD
1000
MTEXTBEGIN
1070
    73
1070
     1
1070
    44
1040
1.0
1070
    74
1070
     0
1000
MTEXTEND
  0
POINT
  5
4AF
330
4A6
100
AcDbEntity
  8
DEFPOINTS
 62
     0
100
AcDbPoint
 10
221.3717728184547
 20
336.9112178959912
 30
0.0
  0
POINT
  5
4B0
330
4A6
100
AcDbEntity
  8
DEFPOINTS
 62
     0
100
AcDbPoint
 10
221.3717728184547
 20
346.9112178959913
 30
0.0
  0
POINT
  5
4B1
330
4A6
100
AcDbEntity
  8
DEFPOINTS
 62
     0
100
AcDbPoint
 10
206.5471095294816
 20
346.9112178959913
 30
0.0
  0
ENDBLK
  5
4B3
330
4A6
100
AcDbEntity
  8
0
100
AcDbBlockEnd
  0
BLOCK
  5
4BE
330
4B4
100
AcDbEntity
  8
0
100
AcDbBlockBegin
  2
*D56
 70
     1
 10
0.0
 20
0.0
 30
0.0
  3
*D56
  1

  0
LINE
  5
4B5
330
4B4
100
AcDbEntity
  8
0
 62
   123
100
AcDbLine
 10
216.473634017233
 20
341.9112178959912
 30
0.0
 11
196.9252261469613
 21
341.9112178959912
 31
0.0
  0
LINE
  5
4B6
330
4B4
100
AcDbEntity
  8
0
 62
   123
100
AcDbLine
 10
208.7640996843547
 20
326.9112178959922
 30
0.0
 11
196.9252261469613
 21
326.9112178959922
 31
0.0
  0
LINE
  5
4B7
330
4B4
100
AcDbEntity
  8
0
 62
   123
100
AcDbLine
 10
197.5252261469613
 20
339.4112178959912
 30
0.0
 11
197.5252261469613
 21
329.4112178959922
 31
0.0
  0
SOLID
  5
4B8
330
4B4
100
AcDbEntity
  8
0
 62
   123
100
AcDbTrace
 10
197.1085594802947
 20
339.4112178959912
 30
0.0
 11
197.941892813628
 21
339.4112178959912
 31
0.0
 12
197.5252261469613
 22
341.9112178959912
 32
0.0
 13
197.5252261469613
 23
341.9112178959912
 33
0.0
  0
SOLID
  5
4B9
330
4B4
100
AcDbEntity
  8
0
 62
   123
100
AcDbTrace
 10
197.1085594802947
 20
329.4112178959922
 30
0.0
 11
197.941892813628
 21
329.4112178959922
 31
0.0
 12
197.5252261469613
 22
326.9112178959922
 32
0.0
 13
197.5252261469613
 23
326.9112178959922
 33
0.0
  0
MTEXT
  5
4BA
330
4B4
100
AcDbEntity
  8
0
 62
     3
100
AcDbMText
 10
195.0252261469613
 20
334.4112178959917
 30
0.0
 40
3.0
 41
0.0
 71
     5
 72
     1
  1
\A1;15
 11
0.0000000000000001
 21
1.0
 31
0.0
1001
ACAD
1000
MTEXTBEGIN
1070
    73
1070
     1
1070
    44
1040
1.0
1070
    74
1070
     0
1000
MTEXTEND
  0
POINT
  5
4BB
330
4B4
100
AcDbEntity
  8
DEFPOINTS
 62
     0
100
AcDbPoint
 10
217.473634017233
 20
341.9112178959912
 30
0.0
  0
POINT
  5
4BC
330
4B4
100
AcDbEntity
  8
DEFPOINTS
 62
     0
100
AcDbPoint
 10
209.7640996843547
 20
326.9112178959922
 30
0.0
  0
POINT
  5
4BD
330
4B4
100
AcDbEntity
  8
DEFPOINTS
 62
     0
100
AcDbPoint
 10
197.5252261469613
 20
326.9112178959922
 30
0.0
  0
ENDBLK
  5
4BF
330
4B4
100
AcDbEntity
  8
0
100
AcDbBlockEnd
  0
BLOCK
  5
4CC
330
4C0
100
AcDbEntity
  8
0
100
AcDbBlockBegin
  2
*D57
 70
     1
 10
0.0
 20
0.0
 30
0.0
  3
*D57
  1

  0
LINE
  5
4C1
330
4C0
100
AcDbEntity
  8
0
 62
   123
100
AcDbLine
 10
253.3717728184583
 20
367.4112178959912
 30
0.0
 11
253.3717728184583
 21
374.1211458048961
 31
0.0
  0
LINE
  5
4C2
330
4C0
100
AcDbEntity
  8
0
 62
   123
100
AcDbLine
 10
250.3717728184583
 20
359.4112178959913
 30
0.0
 11
250.3717728184583
 21
374.1211458048961
 31
0.0
  0
LINE
  5
4C3
330
4C0
100
AcDbEntity
  8
0
 62
   123
100
AcDbLine
 10
255.8717728184583
 20
373.5211458048961
 30
0.0
 11
258.3717728184583
 21
373.5211458048961
 31
0.0
  0
LINE
  5
4C4
330
4C0
100
AcDbEntity
  8
0
 62
   123
100
AcDbLine
 10
247.8717728184583
 20
373.5211458048961
 30
0.0
 11
245.3717728184583
 21
373.5211458048961
 31
0.0
  0
LINE
  5
4C5
330
4C0
100
AcDbEntity
  8
0
 62
   123
100
AcDbLine
 10
253.3717728184583
 20
373.5211458048961
 30
0.0
 11
250.3717728184583
 21
373.5211458048961
 31
0.0
  0
SOLID
  5
4C6
330
4C0
100
AcDbEntity
  8
0
 62
   123
100
AcDbTrace
 10
255.8717728184583
 20
373.9378124715628
 30
0.0
 11
255.8717728184583
 21
373.1044791382294
 31
0.0
 12
253.3717728184583
 22
373.5211458048961
 32
0.0
 13
253.3717728184583
 23
373.5211458048961
 33
0.0
  0
SOLID
  5
4C7
330
4C0
100
AcDbEntity
  8
0
 62
   123
100
AcDbTrace
 10
247.8717728184583
 20
373.9378124715628
 30
0.0
 11
247.8717728184583
 21
373.1044791382294
 31
0.0
 12
250.3717728184583
 22
373.5211458048961
 32
0.0
 13
250.3717728184583
 23
373.5211458048961
 33
0.0
  0
MTEXT
  5
4C8
330
4C0
100
AcDbEntity
  8
0
 62
     3
100
AcDbMText
 10
251.8717728184583
 20
376.0211458048961
 30
0.0
 40
3.0
 41
0.0
 71
     5
 72
     1
  1
\A1;3
1001
ACAD
1000
MTEXTBEGIN
1070
    73
1070
     1
1070
    44
1040
1.0
1070
    74
1070
     0
1000
MTEXTEND
  0
POINT
  5
4C9
330
4C0
100
AcDbEntity
  8
DEFPOINTS
 62
     0
100
AcDbPoint
 10
253.3717728184583
 20
366.4112178959912
 30
0.0
  0
POINT
  5
4CA
330
4C0
100
AcDbEntity
  8
DEFPOINTS
 62
     0
100
AcDbPoint
 10
250.3717728184583
 20
358.4112178959912
 30
0.0
  0
POINT
  5
4CB
330
4C0
100
AcDbEntity
  8
DEFPOINTS
 62
     0
100
AcDbPoint
 10
250.3717728184583
 20
373.5211458048961
 30
0.0
  0
ENDBLK
  5
4CD
330
4C0
100
AcDbEntity
  8
0
100
AcDbBlockEnd
  0
BLOCK
  5
4D8
330
4CE
100
AcDbEntity
  8
0
100
AcDbBlockBegin
  2
*D58
 70
     1
 10
0.0
 20
0.0
 30
0.0
  3
*D58
  1

  0
LINE
  5
4CF
330
4CE
100
AcDbEntity
  8
0
 62
   123
100
AcDbLine
 10
228.1104594333155
 20
514.8405627793494
 30
0.0
 11
228.1104594333155
 21
534.2970543992893
 31
0.0
  0
LINE
  5
4D0
330
4CE
100
AcDbEntity
  8
0
 62
   123
100
AcDbLine
 10
260.1104594333155
 20
514.8405627793494
 30
0.0
 11
260.1104594333155
 21
534.2970543992893
 31
0.0
  0
LINE
  5
4D1
330
4CE
100
AcDbEntity
  8
0
 62
   123
100
AcDbLine
 10
230.6104594333155
 20
533.6970543992893
 30
0.0
 11
257.6104594333155
 21
533.6970543992893
 31
0.0
  0
SOLID
  5
4D2
330
4CE
100
AcDbEntity
  8
0
 62
   123
100
AcDbTrace
 10
230.6104594333155
 20
534.1137210659559
 30
0.0
 11
230.6104594333155
 21
533.2803877326226
 31
0.0
 12
228.1104594333155
 22
533.6970543992893
 32
0.0
 13
228.1104594333155
 23
533.6970543992893
 33
0.0
  0
SOLID
  5
4D3
330
4CE
100
AcDbEntity
  8
0
 62
   123
100
AcDbTrace
 10
257.6104594333155
 20
534.1137210659559
 30
0.0
 11
257.6104594333155
 21
533.2803877326226
 31
0.0
 12
260.1104594333155
 22
533.6970543992893
 32
0.0
 13
260.1104594333155
 23
533.6970543992893
 33
0.0
  0
MTEXT
  5
4D4
330
4CE
100
AcDbEntity
  8
0
 62
     3
100
AcDbMText
 10
244.1104594333155
 20
536.1970543992892
 30
0.0
 40
3.0
 41
0.0
 71
     5
 72
     1
  1
\A1;32
1001
ACAD
1000
MTEXTBEGIN
1070
    73
1070
     1
1070
    44
1040
1.0
1070
    74
1070
     0
1000
MTEXTEND
  0
POINT
  5
4D5
330
4CE
100
AcDbEntity
  8
DEFPOINTS
 62
     0
100
AcDbPoint
 10
228.1104594333155
 20
513.8405627793495
 30
0.0
  0
POINT
  5
4D6
330
4CE
100
AcDbEntity
  8
DEFPOINTS
 62
     0
100
AcDbPoint
 10
260.1104594333155
 20
513.8405627793495
 30
0.0
  0
POINT
  5
4D7
330
4CE
100
AcDbEntity
  8
DEFPOINTS
 62
     0
100
AcDbPoint
 10
260.1104594333155
 20
533.6970543992893
 30
0.0
  0
ENDBLK
  5
4D9
330
4CE
100
AcDbEntity
  8
0
100
AcDbBlockEnd
  0
BLOCK
  5
4E4
330
4DA
100
AcDbEntity
  8
0
100
AcDbBlockBegin
  2
*D59
 70
     1
 10
0.0
 20
0.0
 30
0.0
  3
*D59
  1

  0
LINE
  5
4DB
330
4DA
100
AcDbEntity
  8
0
 62
   123
100
AcDbLine
 10
86.91751096195003
 20
509.8405627793495
 30
0.0
 11
86.91751096195003
 21
528.9151294290883
 31
0.0
  0
LINE
  5
4DC
330
4DA
100
AcDbEntity
  8
0
 62
   123
100
AcDbLine
 10
166.91751096195
 20
509.8405627793495
 30
0.0
 11
166.91751096195
 21
528.9151294290883
 31
0.0
  0
LINE
  5
4DD
330
4DA
100
AcDbEntity
  8
0
 62
   123
100
AcDbLine
 10
89.41751096195003
 20
528.3151294290883
 30
0.0
 11
164.41751096195
 21
528.3151294290883
 31
0.0
  0
SOLID
  5
4DE
330
4DA
100
AcDbEntity
  8
0
 62
   123
100
AcDbTrace
 10
89.41751096195003
 20
528.7317960957549
 30
0.0
 11
89.41751096195003
 21
527.8984627624216
 31
0.0
 12
86.91751096195003
 22
528.3151294290883
 32
0.0
 13
86.91751096195003
 23
528.3151294290883
 33
0.0
  0
SOLID
  5
4DF
330
4DA
100
AcDbEntity
  8
0
 62
   123
100
AcDbTrace
 10
164.41751096195
 20
528.7317960957549
 30
0.0
 11
164.41751096195
 21
527.8984627624216
 31
0.0
 12
166.91751096195
 22
528.3151294290883
 32
0.0
 13
166.91751096195
 23
528.3151294290883
 33
0.0
  0
MTEXT
  5
4E0
330
4DA
100
AcDbEntity
  8
0
 62
     3
100
AcDbMText
 10
128.5262323465903
 20
530.8151294290882
 30
0.0
 40
3.0
 41
0.0
 71
     5
 72
     1
  1
\A1;80
1001
ACAD
1000
MTEXTBEGIN
1070
    73
1070
     1
1070
    44
1040
1.0
1070
    74
1070
     0
1000
MTEXTEND
  0
POINT
  5
4E1
330
4DA
100
AcDbEntity
  8
DEFPOINTS
 62
     0
100
AcDbPoint
 10
86.91751096195003
 20
508.8405627793495
 30
0.0
  0
POINT
  5
4E2
330
4DA
100
AcDbEntity
  8
DEFPOINTS
 62
     0
100
AcDbPoint
 10
166.91751096195
 20
508.8405627793495
 30
0.0
  0
POINT
  5
4E3
330
4DA
100
AcDbEntity
  8
DEFPOINTS
 62
     0
100
AcDbPoint
 10
166.91751096195
 20
528.3151294290883
 30
0.0
  0
ENDBLK
  5
4E5
330
4DA
100
AcDbEntity
  8
0
100
AcDbBlockEnd
  0
BLOCK
  5
4F2
330
4E6
100
AcDbEntity
  8
0
100
AcDbBlockBegin
  2
*D60
 70
     1
 10
0.0
 20
0.0
 30
0.0
  3
*D60
  1

  0
LINE
  5
4E7
330
4E6
100
AcDbEntity
  8
0
 62
   123
100
AcDbLine
 10
226.1104594333155
 20
511.3405627793481
 30
0.0
 11
226.1104594333155
 21
524.0030505043793
 31
0.0
  0
LINE
  5
4E8
330
4E6
100
AcDbEntity
  8
0
 62
   123
100
AcDbLine
 10
228.1104594333155
 20
514.8405627793494
 30
0.0
 11
228.1104594333155
 21
524.0030505043793
 31
0.0
  0
LINE
  5
4E9
330
4E6
100
AcDbEntity
  8
0
 62
   123
100
AcDbLine
 10
230.6104594333155
 20
523.4030505043793
 30
0.0
 11
233.1104594333155
 21
523.4030505043793
 31
0.0
  0
LINE
  5
4EA
330
4E6
100
AcDbEntity
  8
0
 62
   123
100
AcDbLine
 10
223.6104594333155
 20
523.4030505043793
 30
0.0
 11
217.1104594333155
 21
523.4030505043793
 31
0.0
  0
LINE
  5
4EB
330
4E6
100
AcDbEntity
  8
0
 62
   123
100
AcDbLine
 10
228.1104594333155
 20
523.4030505043793
 30
0.0
 11
226.1104594333155
 21
523.4030505043793
 31
0.0
  0
SOLID
  5
4EC
330
4E6
100
AcDbEntity
  8
0
 62
   123
100
AcDbTrace
 10
230.6104594333155
 20
523.8197171710459
 30
0.0
 11
230.6104594333155
 21
522.9863838377126
 31
0.0
 12
228.1104594333155
 22
523.4030505043793
 32
0.0
 13
228.1104594333155
 23
523.4030505043793
 33
0.0
  0
SOLID
  5
4ED
330
4E6
100
AcDbEntity
  8
0
 62
   123
100
AcDbTrace
 10
223.6104594333155
 20
523.8197171710459
 30
0.0
 11
223.6104594333155
 21
522.9863838377126
 31
0.0
 12
226.1104594333155
 22
523.4030505043793
 32
0.0
 13
226.1104594333155
 23
523.4030505043793
 33
0.0
  0
MTEXT
  5
4EE
330
4E6
100
AcDbEntity
  8
0
 62
     3
100
AcDbMText
 10
219.1104594333155
 20
525.9030505043792
 30
0.0
 40
3.0
 41
0.0
 71
     5
 72
     1
  1
\A1;2
1001
ACAD
1000
MTEXTBEGIN
1070
    73
1070
     1
1070
    44
1040
1.0
1070
    74
1070
     0
1000
MTEXTEND
  0
POINT
  5
4EF
330
4E6
100
AcDbEntity
  8
DEFPOINTS
 62
     0
100
AcDbPoint
 10
226.1104594333155
 20
510.3405627793481
 30
0.0
  0
POINT
  5
4F0
330
4E6
100
AcDbEntity
  8
DEFPOINTS
 62
     0
100
AcDbPoint
 10
228.1104594333155
 20
513.8405627793495
 30
0.0
  0
POINT
  5
4F1
330
4E6
100
AcDbEntity
  8
DEFPOINTS
 62
     0
100
AcDbPoint
 10
228.1104594333155
 20
523.4030505043793
 30
0.0
  0
ENDBLK
  5
4F3
330
4E6
100
AcDbEntity
  8
0
100
AcDbBlockEnd
  0
BLOCK
  5
4FE
330
4F4
100
AcDbEntity
  8
0
100
AcDbBlockBegin
  2
*D61
 70
     1
 10
0.0
 20
0.0
 30
0.0
  3
*D61
  1

  0
LINE
  5
4F5
330
4F4
100
AcDbEntity
  8
0
 62
   123
100
AcDbLine
 10
214.6104594333155
 20
477.9455627793481
 30
0.0
 11
214.6104594333155
 21
534.2970543992893
 31
0.0
  0
LINE
  5
4F6
330
4F4
100
AcDbEntity
  8
0
 62
   123
100
AcDbLine
 10
228.1104594333155
 20
514.8405627793494
 30
0.0
 11
228.1104594333155
 21
534.2970543992893
 31
0.0
  0
LINE
  5
4F7
330
4F4
100
AcDbEntity
  8
0
 62
   123
100
AcDbLine
 10
217.1104594333155
 20
533.6970543992893
 30
0.0
 11
225.6104594333155
 21
533.6970543992893
 31
0.0
  0
SOLID
  5
4F8
330
4F4
100
AcDbEntity
  8
0
 62
   123
100
AcDbTrace
 10
217.1104594333155
 20
534.1137210659559
 30
0.0
 11
217.1104594333155
 21
533.2803877326226
 31
0.0
 12
214.6104594333155
 22
533.6970543992893
 32
0.0
 13
214.6104594333155
 23
533.6970543992893
 33
0.0
  0
SOLID
  5
4F9
330
4F4
100
AcDbEntity
  8
0
 62
   123
100
AcDbTrace
 10
225.6104594333155
 20
534.1137210659559
 30
0.0
 11
225.6104594333155
 21
533.2803877326226
 31
0.0
 12
228.1104594333155
 22
533.6970543992893
 32
0.0
 13
228.1104594333155
 23
533.6970543992893
 33
0.0
  0
MTEXT
  5
4FA
330
4F4
100
AcDbEntity
  8
0
 62
     3
100
AcDbMText
 10
221.8604594333155
 20
536.1970543992892
 30
0.0
 40
3.0
 41
0.0
 71
     5
 72
     1
  1
\A1;13.5
1001
ACAD
1000
MTEXTBEGIN
1070
    73
1070
     1
1070
    44
1040
1.0
1070
    74
1070
     0
1000
MTEXTEND
  0
POINT
  5
4FB
330
4F4
100
AcDbEntity
  8
DEFPOINTS
 62
     0
100
AcDbPoint
 10
214.6104594333155
 20
476.9455627793481
 30
0.0
  0
POINT
  5
4FC
330
4F4
100
AcDbEntity
  8
DEFPOINTS
 62
     0
100
AcDbPoint
 10
228.1104594333155
 20
513.8405627793495
 30
0.0
  0
POINT
  5
4FD
330
4F4
100
AcDbEntity
  8
DEFPOINTS
 62
     0
100
AcDbPoint
 10
228.1104594333155
 20
533.6970543992893
 30
0.0
  0
ENDBLK
  5
4FF
330
4F4
100
AcDbEntity
  8
0
100
AcDbBlockEnd
  0
ENDSEC
  0
SECTION
  2
ENTITIES
  0
LINE
  5
9D
330
2
100
AcDbEntity
  8
0
100
AcDbLine
 10
260.1104594333155
 20
513.8405627793495
 30
0.0
 11
260.1104594333155
 21
433.8405627793467
 31
0.0
  0
LINE
  5
9E
102
{ACAD_REACTORS
330
A2
102
}
330
2
100
AcDbEntity
  8
0
100
AcDbLine
 10
226.1104594333155
 20
510.3405627793481
 30
0.0
 11
226.1104594333155
 21
437.3405627793481
 31
0.0
  0
LINE
  5
9F
330
2
100
AcDbEntity
  8
0
100
AcDbLine
 10
228.1104594333155
 20
513.8405627793495
 30
0.0
 11
228.1104594333155
 21
433.8405627793467
 31
0.0
  0
DIMENSION
  5
A0
102
{ACAD_XDICTIONARY
360
A1
102
}
102
{ACAD_REACTORS
330
A2
102
}
330
2
100
AcDbEntity
  8
0
100
AcDbDimension
  2
*D32
 10
202.6093620419361
 20
510.3405627793481
 30
0.0
 11
202.609362041936
 21
473.8405627793481
 31
0.0
 70
   160
  1
\A1;{\f??|b0|i0|c0|p49;%%C}<>{\f??|b0|i0|c0|p49;\H0.7x;\S+0^ -0.030;\H1.429x;(h7)}
  3
STANDARD
100
AcDbAlignedDimension
 13
226.1104594333155
 23
437.3405627793481
 33
0.0
 14
226.1104594333155
 24
510.3405627793481
 34
0.0
 50
90.0
100
AcDbRotatedDimension
  0
CIRCLE
  5
B1
330
2
100
AcDbEntity
  8
0
 48
0.6
100
AcDbCircle
 10
126.91751096195
 20
473.8405627793481
 30
0.0
 40
37.00000000000005
  0
LINE
  5
B2
330
2
100
AcDbEntity
  8
0
 48
0.6
100
AcDbLine
 10
86.91751096195003
 20
508.8405627793495
 30
0.0
 11
86.91751096195003
 21
438.8405627793495
 31
0.0
  0
LINE
  5
B3
330
2
100
AcDbEntity
  8
0
 48
0.6
100
AcDbLine
 10
166.91751096195
 20
508.8405627793495
 30
0.0
 11
166.91751096195
 21
438.8405627793495
 31
0.0
  0
LINE
  5
B4
330
2
100
AcDbEntity
  8
CEN
 48
0.6
100
AcDbLine
 10
126.91751096195
 20
426.6684395709517
 30
0.0
 11
126.91751096195
 21
521.0126859877464
 31
0.0
  0
INSERT
  5
B7
330
2
100
AcDbEntity
  8
0
100
AcDbBlockReference
  2
5
 10
126.91751096195
 20
473.8405627793495
 30
0.0
  0
DIMENSION
  5
D5
102
{ACAD_XDICTIONARY
360
D6
102
}
102
{ACAD_REACTORS
330
D7
102
}
330
2
100
AcDbEntity
  8
0
100
AcDbDimension
  2
*D35
 10
369.0106132978399
 20
59.745271620543
 30
0.0
 11
369.0106132978399
 21
99.74527162054437
 31
0.0
 70
   160
  1
%%C<>
  3
STANDARD
100
AcDbAlignedDimension
 13
347.6069463284929
 23
139.7452716205443
 33
0.0
 14
347.6069463284929
 24
59.745271620543
 34
0.0
 50
90.0
100
AcDbRotatedDimension
  0
LINE
  5
E4
330
2
100
AcDbEntity
  8
0
100
AcDbLine
 10
316.3871683656052
 20
139.2452716205448
 30
0.0
 11
316.3871683656052
 21
59.745271620543
 31
0.0
  0
LINE
  5
E5
330
2
100
AcDbEntity
  8
0
100
AcDbLine
 10
352.6069463284948
 20
134.7452716205448
 30
0.0
 11
352.6069463284948
 21
64.745271620543
 31
0.0
  0
LINE
  5
E6
330
2
100
AcDbEntity
  8
0
100
AcDbLine
 10
222.6069463284929
 20
139.7452716205443
 30
0.0
 11
222.6069463284966
 21
59.745271620543
 31
0.0
  0
LINE
  5
E7
330
2
100
AcDbEntity
  8
0
100
AcDbLine
 10
228.7069463284933
 20
139.7452716205443
 30
0.0
 11
228.7069463284933
 21
59.74527162054437
 31
0.0
  0
LINE
  5
E8
102
{ACAD_REACTORS
330
211
102
}
330
2
100
AcDbEntity
  8
0
100
AcDbLine
 10
222.6069463284929
 20
139.2452716205448
 30
0.0
 11
222.6069463284929
 21
59.74527162054437
 31
0.0
  0
LINE
  5
E9
330
2
100
AcDbEntity
  8
0
100
AcDbLine
 10
180.1069463284948
 20
139.2452716205448
 30
0.0
 11
180.1069463284948
 21
60.24527162054437
 31
0.0
  0
DIMENSION
  5
EA
330
2
100
AcDbEntity
  8
0
100
AcDbDimension
  2
*D34
 10
115.7071299053423
 20
97.7452716205444
 30
0.0
 11
115.7071299053423
 21
114.7452716205443
 31
0.0
 70
   160
  1
{\f??|b0|i0|c0|p49;%%c}<>
  3
STANDARD
100
AcDbAlignedDimension
 13
177.606946328493
 23
131.7452716205443
 33
0.0
 14
177.606946328493
 24
97.74527162054438
 34
0.0
 50
90.0
100
AcDbRotatedDimension
  0
LINE
  5
F7
330
2
100
AcDbEntity
  8
0
100
AcDbLine
 10
177.1069463284948
 20
131.2452716205443
 30
0.0
 11
177.1069463284948
 21
98.24527162054483
 31
0.0
  0
CIRCLE
  5
F8
330
2
100
AcDbEntity
  8
0
100
AcDbCircle
 10
318.5350036339459
 20
99.74345222003558
 30
0.0
 40
2.147836038934201
  0
LINE
  5
F9
330
2
100
AcDbEntity
  8
0
100
AcDbLine
 10
319.390026645653
 20
100.5984752317431
 30
0.0
 11
317.6836194183251
 21
98.89206800441389
 31
0.0
  0
LINE
  5
FA
330
2
100
AcDbEntity
  8
0
100
AcDbLine
 10
317.6799806222388
 20
100.5984752317431
 30
0.0
 11
319.3863878495704
 21
98.89206800441389
 31
0.0
  0
LINE
  5
FB
330
2
100
AcDbEntity
  8
0
 48
0.6
100
AcDbLine
 10
88.0281907920289
 20
134.7452716205448
 30
0.0
 11
88.0281907920289
 21
64.74527162054482
 31
0.0
  0
LINE
  5
FC
330
2
100
AcDbEntity
  8
CEN
 48
0.6
100
AcDbLine
 10
48.02819079202709
 20
52.57314841214839
 30
0.0
 11
48.02819079202709
 21
146.9173948289408
 31
0.0
  0
LINE
  5
FD
330
2
100
AcDbEntity
  8
0
 48
0.6
100
AcDbLine
 10
8.028190792028908
 20
134.7452716205448
 30
0.0
 11
8.028190792028908
 21
64.74527162054482
 31
0.0
  0
LINE
  5
FE
102
{ACAD_REACTORS
330
104
102
}
330
2
100
AcDbEntity
  8
CEN
 48
0.6
100
AcDbLine
 10
64.59673328694953
 20
59.74527162054437
 30
0.0
 11
48.02819079202709
 21
99.74527162054437
 31
0.0
  0
LINE
  5
FF
102
{ACAD_REACTORS
330
104
102
}
330
2
100
AcDbEntity
  8
CEN
 48
0.6
100
AcDbLine
 10
48.02819079202709
 20
52.57314841214839
 30
0.0
 11
48.02819079202709
 21
146.9173948289421
 31
0.0
  0
CIRCLE
  5
100
330
2
100
AcDbEntity
  8
0
 48
0.6
100
AcDbCircle
 10
48.02819079203982
 20
99.74527162057121
 30
0.0
 40
36.5
  0
CIRCLE
  5
101
330
2
100
AcDbEntity
  8
0
 48
0.6
100
AcDbCircle
 10
48.02819079203982
 20
114.7452716205711
 30
0.0
 40
17.0
  0
DIMENSION
  5
102
102
{ACAD_XDICTIONARY
360
103
102
}
102
{ACAD_REACTORS
330
104
102
}
330
2
100
AcDbEntity
  8
0
100
AcDbDimension
  2
*D33
 10
48.02819079202709
 20
146.9173948289408
 30
0.0
 11
62.96584941455694
 21
28.42274214256121
 31
0.0
 70
   162
  3
STANDARD
100
AcDb2LineAngularDimension
 13
64.59673328694953
 23
59.74527162054437
 33
0.0
 14
48.02819079202709
 24
99.74527162054437
 34
0.0
 15
48.02819079202709
 25
52.57314841214702
 35
0.0
 16
57.53963437992846
 26
27.49868486978371
 36
0.0
1001
ACAD
1000
DSTYLE
1002
{
1070
   271
1070
     1
1070
   271
1070
     1
1070
   271
1070
     1
1070
   271
1070
     1
1070
   271
1070
     1
1070
   271
1070
     1
1002
}
  0
MTEXT
  5
113
330
2
100
AcDbEntity
  8
DIM
100
AcDbMText
 10
288.0166854537219
 20
3.241923348844011
 30
0.0
 40
3.5
 41
0.0
 71
     5
 72
     1
  1
UL Style 3266 , AWG22
1001
ACAD
1000
MTEXTBEGIN
1070
    73
1070
     1
1070
    44
1040
1.0
1070
    74
1070
     0
1000
MTEXTEND
  0
MTEXT
  5
115
330
2
100
AcDbEntity
  8
DIM
100
AcDbMText
 10
286.8769480936935
 20
11.15408800313252
 30
0.0
 40
3.5
 41
0.0
 71
     5
 72
     1
  1
BRAKE LEAD WIRE 300mm
1001
ACAD
1000
MTEXTBEGIN
1070
    73
1070
     1
1070
    44
1040
1.0
1070
    74
1070
     0
1000
MTEXTEND
  0
LINE
  5
116
330
2
100
AcDbEntity
  8
0
 62
   123
 48
0.6
100
AcDbLine
 10
251.8739229194888
 20
7.723671593733342
 30
0.0
 11
324.6919826954144
 21
7.723671593733342
 31
0.0
  0
LINE
  5
117
102
{ACAD_REACTORS
330
D7
102
}
330
2
100
AcDbEntity
  8
0
100
AcDbLine
 10
347.6069463284929
 20
59.745271620543
 30
0.0
 11
228.7069463284951
 21
59.745271620543
 31
0.0
  0
MTEXT
  5
118
330
2
100
AcDbEntity
  8
DIM
100
AcDbMText
 10
176.0606109240016
 20
9.47864753081285
 30
0.0
 40
3.5
 41
0.0
 71
     5
 72
     1
  1
MOTOR LEAD WIRE 300mm
1001
ACAD
1000
MTEXTBEGIN
1070
    73
1070
     1
1070
    44
1040
1.0
1070
    74
1070
     0
1000
MTEXTEND
  0
MTEXT
  5
119
330
2
100
AcDbEntity
  8
DIM
100
AcDbMText
 10
176.461454780856
 20
0.2918041643652032
 30
0.0
 40
3.5
 41
0.0
 71
     5
 72
     1
  1
UL Style 3271 , AWG20
1001
ACAD
1000
MTEXTBEGIN
1070
    73
1070
     1
1070
    44
1040
1.0
1070
    74
1070
     0
1000
MTEXTEND
  0
LINE
  5
11A
330
2
100
AcDbEntity
  8
0
 62
   123
100
AcDbLine
 10
221.7558575609909
 20
5.393672737069209
 30
0.0
 11
138.698510260936
 21
5.393672737069209
 31
0.0
  0
LEADER
  5
11B
330
2
100
AcDbEntity
  8
0
100
AcDbLeader
  3
STANDARD
 76
     2
 10
240.2814342532001
 20
40.16730970798517
 30
0.0
 10
221.7558575609909
 20
5.393672737069209
 30
0.0
1001
ACAD
1000
DSTYLE
1002
{
1070
     5
1000

1070
    77
1070
     1
1070
   147
1040
1.0
1070
   342
1005
0
1002
}
  0
ARC
  5
11C
330
2
100
AcDbEntity
  8
0
100
AcDbCircle
 10
268.7523565805386
 20
58.66542341423019
 30
0.0
 40
33.09846512244591
100
AcDbArc
 50
179.861777803627
 51
206.070816287308
  0
LINE
  5
11D
330
2
100
AcDbEntity
  8
0
100
AcDbLine
 10
239.1069463284948
 20
58.74527162054437
 30
0.0
 11
230.106946328493
 21
58.74527162054437
 31
0.0
  0
ARC
  5
11E
330
2
100
AcDbEntity
  8
0
100
AcDbCircle
 10
269.268171069325
 20
58.66864558979433
 30
0.0
 40
37.51427265423034
100
AcDbArc
 50
179.8829693302432
 51
213.4780580786824
  0
ARC
  5
11F
330
2
100
AcDbEntity
  8
0
100
AcDbCircle
 10
268.7490716524553
 20
58.66523523153819
 30
0.0
 40
35.69518126343886
100
AcDbArc
 50
179.8715315986486
 51
206.0128613674916
  0
ARC
  5
120
330
2
100
AcDbEntity
  8
0
100
AcDbCircle
 10
230.106946328493
 20
59.24527162054483
 30
0.0
 40
0.5
100
AcDbArc
 50
180.0
 51
270.0
  0
LINE
  5
121
330
2
100
AcDbEntity
  8
0
100
AcDbLine
 10
229.6069463284948
 20
59.74527162054437
 30
0.0
 11
229.6069463284948
 21
59.24527162054483
 31
0.0
  0
ARC
  5
122
330
2
100
AcDbEntity
  8
0
100
AcDbCircle
 10
239.1069463284948
 20
59.24527162054483
 30
0.0
 40
0.5
100
AcDbArc
 50
270.0
 51
0.0
  0
LINE
  5
123
330
2
100
AcDbEntity
  8
0
100
AcDbLine
 10
239.6069463284948
 20
59.74527162054437
 30
0.0
 11
239.6069463284948
 21
59.24527162054483
 31
0.0
  0
ARC
  5
124
330
2
100
AcDbEntity
  8
0
100
AcDbCircle
 10
269.3322095385647
 20
58.66957143955733
 30
0.0
 40
32.37830599241412
100
AcDbArc
 50
179.8660441688514
 51
214.7395979650275
  0
ARC
  5
125
330
2
100
AcDbEntity
  8
0
100
AcDbCircle
 10
270.9096683284951
 20
59.15662562054421
 30
0.0
 40
36.555792
100
AcDbArc
 50
205.2470409999969
 51
213.8176429999978
  0
ARC
  5
126
330
2
100
AcDbEntity
  8
0
100
AcDbCircle
 10
270.9096683284951
 20
59.15662562054421
 30
0.0
 40
35.255792
100
AcDbArc
 50
213.8564239999994
 51
219.5987459999966
  0
ARC
  5
127
330
2
100
AcDbEntity
  8
0
100
AcDbCircle
 10
243.4816573284952
 20
35.98185562054459
 30
0.0
 40
0.7499080000000001
100
AcDbArc
 50
69.51298200000024
 51
189.6845099999992
  0
ARC
  5
128
330
2
100
AcDbEntity
  8
0
100
AcDbCircle
 10
242.0032153284937
 20
35.72955262054438
 30
0.0
 40
0.7499080000000001
100
AcDbArc
 50
249.5129820000002
 51
9.684509999999278
  0
ARC
  5
129
330
2
100
AcDbEntity
  8
0
100
AcDbCircle
 10
242.3809943284941
 20
39.55177062054463
 30
0.0
 40
0.7499080000000001
100
AcDbArc
 50
62.66289500000094
 51
182.8344229999968
  0
ARC
  5
12A
330
2
100
AcDbEntity
  8
0
100
AcDbCircle
 10
238.322000328495
 20
38.64127162054455
 30
0.0
 40
0.7499080000000001
100
AcDbArc
 50
242.6628950000009
 51
2.834422999996808
  0
ARC
  5
12B
330
2
100
AcDbEntity
  8
0
100
AcDbCircle
 10
239.8199813284936
 20
38.71543762054443
 30
0.0
 40
0.7499080000000001
100
AcDbArc
 50
62.66289500000094
 51
182.8344229999968
  0
ARC
  5
12C
330
2
100
AcDbEntity
  8
0
100
AcDbCircle
 10
240.8830123284933
 20
39.47760462054429
 30
0.0
 40
0.7499080000000001
100
AcDbArc
 50
242.6628950000009
 51
2.834422999996808
  0
ARC
  5
12D
330
2
100
AcDbEntity
  8
0
100
AcDbCircle
 10
270.9096683284951
 20
59.15662562054421
 30
0.0
 40
37.855792
100
AcDbArc
 50
212.7486590000019
 51
219.5987459999966
  0
ARC
  5
12E
330
2
100
AcDbEntity
  8
0
100
AcDbCircle
 10
237.0983673284954
 20
43.6257936205443
 30
0.0
 40
0.7499080000000001
100
AcDbArc
 50
235.1612770000011
 51
355.3328050000017
  0
ARC
  5
12F
330
2
100
AcDbEntity
  8
0
100
AcDbCircle
 10
238.593210328494
 20
43.50375662054512
 30
0.0
 40
0.7499080000000001
100
AcDbArc
 50
55.16127700000105
 51
175.3328050000016
  0
LINE
  5
130
330
2
100
AcDbEntity
  8
0
100
AcDbLine
 10
229.6069463284948
 20
68.84653427901548
 30
0.0
 11
229.6069463284948
 21
61.14653427901567
 31
0.0
  0
LINE
  5
131
330
2
100
AcDbEntity
  8
0
100
AcDbLine
 10
228.7069463284951
 20
61.14653427901567
 30
0.0
 11
229.6069463284948
 21
61.14653427901567
 31
0.0
  0
LINE
  5
132
330
2
100
AcDbEntity
  8
0
100
AcDbLine
 10
228.7069463284951
 20
68.84653427901548
 30
0.0
 11
229.6069463284948
 21
68.84653427901548
 31
0.0
  0
ARC
  5
133
330
2
100
AcDbEntity
  8
0
100
AcDbCircle
 10
180.6069463284929
 20
60.24527162054437
 30
0.0
 40
0.5
100
AcDbArc
 50
180.0
 51
270.0
  0
LINE
  5
134
330
2
100
AcDbEntity
  8
0
100
AcDbLine
 10
228.7069463284933
 20
59.745271620543
 30
0.0
 11
180.6069463284929
 21
59.74527162054437
 31
0.0
  0
ARC
  5
135
330
2
100
AcDbEntity
  8
0
100
AcDbCircle
 10
177.606946328493
 20
98.24527162054483
 30
0.0
 40
0.5
100
AcDbArc
 50
180.0
 51
270.0
  0
LINE
  5
136
330
2
100
AcDbEntity
  8
0
100
AcDbLine
 10
177.606946328493
 20
97.74527162054438
 30
0.0
 11
180.1069463284948
 21
97.74527162054438
 31
0.0
  0
ARC
  5
137
330
2
100
AcDbEntity
  8
0
 48
0.6
100
AcDbCircle
 10
83.02819079202709
 20
64.74527162054482
 30
0.0
 40
5.0
100
AcDbArc
 50
270.0
 51
0.0
  0
LINE
  5
138
330
2
100
AcDbEntity
  8
0
 48
0.6
100
AcDbLine
 10
13.0281907920289
 20
59.74527162054437
 30
0.0
 11
83.02819079202709
 21
59.74527162054437
 31
0.0
  0
ARC
  5
139
330
2
100
AcDbEntity
  8
0
 48
0.6
100
AcDbCircle
 10
13.0281907920289
 20
64.74527162054482
 30
0.0
 40
5.0
100
AcDbArc
 50
180.0
 51
270.0
  0
ARC
  5
13A
330
2
100
AcDbEntity
  8
0
100
AcDbCircle
 10
98.2732982865582
 20
74.05582426908449
 30
0.0
 40
39.15579199999999
100
AcDbArc
 50
201.4369589999971
 51
235.2486590000054
  0
ARC
  5
13B
330
2
100
AcDbEntity
  8
0
100
AcDbCircle
 10
74.40687728655939
 20
47.22748626908514
 30
0.0
 40
0.7499080000000001
100
AcDbArc
 50
77.66127699999917
 51
197.832805000001
  0
ARC
  5
13C
330
2
100
AcDbEntity
  8
0
100
AcDbCircle
 10
98.2732982865582
 20
74.05582426908449
 30
0.0
 40
37.855792
100
AcDbArc
 50
202.2115912309427
 51
227.7470409999976
  0
ARC
  5
13D
330
2
100
AcDbEntity
  8
0
100
AcDbCircle
 10
98.2732982865582
 20
74.05582426908449
 30
0.0
 40
33.95579199999999
100
AcDbArc
 50
204.9259499999998
 51
236.3981230000006
  0
ARC
  5
13E
330
2
100
AcDbEntity
  8
0
100
AcDbCircle
 10
79.41869328655775
 20
45.02584826908424
 30
0.0
 40
0.7499080000000001
100
AcDbArc
 50
85.16289500000455
 51
205.3344229999993
  0
ARC
  5
13F
330
2
100
AcDbEntity
  8
0
100
AcDbCircle
 10
78.06312128656282
 20
44.3840762690852
 30
0.0
 40
0.7499080000000001
100
AcDbArc
 50
265.1628950000044
 51
25.33442299999946
  0
ARC
  5
140
330
2
100
AcDbEntity
  8
0
100
AcDbCircle
 10
98.2732982865582
 20
74.05582426908449
 30
0.0
 40
35.255792
100
AcDbArc
 50
236.3564240000014
 51
242.0987460000029
  0
ARC
  5
141
330
2
100
AcDbEntity
  8
0
100
AcDbCircle
 10
72.97912128655662
 20
46.76818226908517
 30
0.0
 40
0.7499080000000001
100
AcDbArc
 50
257.6612769999992
 51
17.83280500000109
  0
ARC
  5
142
330
2
100
AcDbEntity
  8
0
100
AcDbCircle
 10
98.2732982865582
 20
74.05582426908449
 30
0.0
 40
36.555792
100
AcDbArc
 50
227.7470409999976
 51
236.3176429999981
  0
ARC
  5
143
330
2
100
AcDbEntity
  8
0
100
AcDbCircle
 10
77.37267728655751
 20
43.27312126908509
 30
0.0
 40
0.7499080000000001
100
AcDbArc
 50
85.16289500000455
 51
205.3344229999993
  0
ARC
  5
144
330
2
100
AcDbEntity
  8
0
100
AcDbCircle
 10
80.53237028655894
 20
41.35001026908503
 30
0.0
 40
0.7499080000000001
100
AcDbArc
 50
272.0129819999954
 51
32.18451000000101
  0
ARC
  5
145
330
2
100
AcDbEntity
  8
0
100
AcDbCircle
 10
81.80172128655796
 20
42.14888326908521
 30
0.0
 40
0.7499080000000001
100
AcDbArc
 50
92.01298199999559
 51
212.184510000001
  0
ARC
  5
146
330
2
100
AcDbEntity
  8
0
100
AcDbCircle
 10
76.01710428656042
 20
42.63134826908435
 30
0.0
 40
0.7499080000000001
100
AcDbArc
 50
265.1628950000044
 51
25.33442299999946
  0
ARC
  5
147
330
2
100
AcDbEntity
  8
0
100
AcDbCircle
 10
98.2732982865582
 20
74.05582426908449
 30
0.0
 40
37.855792
100
AcDbArc
 50
235.2486590000054
 51
242.0987460000029
  0
ARC
  5
148
330
2
100
AcDbEntity
  8
0
100
AcDbCircle
 10
98.2732982865582
 20
74.05582426908449
 30
0.0
 40
35.255792
100
AcDbArc
 50
203.947941
 51
227.7470409999976
  0
LINE
  5
149
330
2
100
AcDbEntity
  8
0
 48
0.6
100
AcDbLine
 10
67.48037875559385
 20
59.74527162054437
 30
0.0
 11
61.7393285290691
 21
59.74527162054437
 31
0.0
  0
LEADER
  5
14A
330
2
100
AcDbEntity
  8
0
 48
0.6
100
AcDbLeader
  3
STANDARD
 76
     2
 10
335.1853174585976
 20
38.97677008444088
 30
0.0
 10
324.6919826954144
 20
7.723671593733342
 30
0.0
1001
ACAD
1000
DSTYLE
1002
{
1070
     5
1000

1070
    77
1070
     1
1070
   147
1040
1.0
1070
   342
1005
0
1002
}
  0
ARC
  5
14B
330
2
100
AcDbEntity
  8
0
 48
0.6
100
AcDbCircle
 10
335.302188053296
 20
58.74527162054483
 30
0.0
 40
0.5
100
AcDbArc
 50
270.0
 51
0.0
  0
LINE
  5
14C
330
2
100
AcDbEntity
  8
0
 48
0.6
100
AcDbLine
 10
335.802188053296
 20
59.24527162054483
 30
0.0
 11
335.802188053296
 21
58.74527162054483
 31
0.0
  0
ARC
  5
14D
330
2
100
AcDbEntity
  8
0
100
AcDbCircle
 10
347.6069463284929
 20
64.745271620543
 30
0.0
 40
5.0
100
AcDbArc
 50
270.0
 51
0.0
  0
ARC
  5
14E
330
2
100
AcDbEntity
  8
0
 48
0.6
100
AcDbCircle
 10
326.302188053296
 20
58.74527162054483
 30
0.0
 40
0.5
100
AcDbArc
 50
180.0
 51
270.0
  0
LINE
  5
14F
330
2
100
AcDbEntity
  8
0
 48
0.6
100
AcDbLine
 10
325.802188053296
 20
59.24527162054483
 30
0.0
 11
325.802188053296
 21
58.74527162054483
 31
0.0
  0
LINE
  5
150
330
2
100
AcDbEntity
  8
0
 48
0.6
100
AcDbLine
 10
335.302188053296
 20
58.24527162054619
 30
0.0
 11
326.302188053296
 21
58.24527162054619
 31
0.0
  0
ARC
  5
151
330
2
100
AcDbEntity
  8
0
 48
0.6
100
AcDbCircle
 10
365.4634127941262
 20
58.16864558979478
 30
0.0
 40
37.51427265423034
100
AcDbArc
 50
179.8829693302432
 51
213.4780580786824
  0
ARC
  5
152
330
2
100
AcDbEntity
  8
0
 48
0.6
100
AcDbCircle
 10
365.5274512633659
 20
58.16957143955824
 30
0.0
 40
32.37830599241412
100
AcDbArc
 50
179.8660441688514
 51
214.7395979650275
  0
ARC
  5
153
330
2
100
AcDbEntity
  8
0
 48
0.6
100
AcDbCircle
 10
365.5214103632279
 20
58.16937754213177
 30
0.0
 40
34.97226717846828
100
AcDbArc
 50
179.8756610838514
 51
214.5983055095793
  0
ARC
  5
154
330
2
100
AcDbEntity
  8
0
 48
0.6
100
AcDbCircle
 10
334.5172420532962
 20
38.14127162054637
 30
0.0
 40
0.7499080000000001
100
AcDbArc
 50
242.6628950000009
 51
2.834422999996808
  0
ARC
  5
155
330
2
100
AcDbEntity
  8
0
 48
0.6
100
AcDbCircle
 10
338.5762360532953
 20
39.05177062054508
 30
0.0
 40
0.7499080000000001
100
AcDbArc
 50
62.66289500000094
 51
182.8344229999968
  0
ARC
  5
156
330
2
100
AcDbEntity
  8
0
 48
0.6
100
AcDbCircle
 10
337.0782540532964
 20
38.97760462054611
 30
0.0
 40
0.7499080000000001
100
AcDbArc
 50
242.6628950000009
 51
2.834422999996808
  0
ARC
  5
157
330
2
100
AcDbEntity
  8
0
 48
0.6
100
AcDbCircle
 10
336.0152230532967
 20
38.21543762054488
 30
0.0
 40
0.7499080000000001
100
AcDbArc
 50
62.66289500000094
 51
182.8344229999968
  0
DIMENSION
  5
158
330
2
100
AcDbEntity
  8
0
100
AcDbDimension
  2
*D38
 10
253.3717728184583
 20
273.8235368476989
 30
0.0
 11
274.6217728184574
 21
276.3235368476989
 31
0.0
 70
    32
  1
L
  3
STANDARD
100
AcDbAlignedDimension
 13
295.8717728184565
 23
287.4112178959912
 33
0.0
 14
253.3717728184583
 24
287.4112178959912
 34
0.0
 50
180.0
100
AcDbRotatedDimension
  0
DIMENSION
  5
165
102
{ACAD_XDICTIONARY
360
166
102
}
102
{ACAD_REACTORS
330
167
102
}
330
2
100
AcDbEntity
  8
0
100
AcDbDimension
  2
*D37
 10
155.7186522259653
 20
265.9342565558708
 30
0.0
 11
119.5378699964858
 21
265.9342565558708
 31
0.0
 70
   160
  3
STANDARD
100
AcDbAlignedDimension
 13
75.71865222596534
 23
291.9112178959912
 33
0.0
 14
155.7186522259653
 24
291.9112178959912
 34
0.0
100
AcDbRotatedDimension
  0
DIMENSION
  5
174
330
2
100
AcDbEntity
  8
0
100
AcDbDimension
  2
*D36
 10
253.3717728184583
 20
273.8235368476989
 30
0.0
 11
237.3717728184565
 21
276.3235368476989
 31
0.0
 70
    32
  3
STANDARD
100
AcDbAlignedDimension
 13
221.3717728184547
 23
336.9112178959912
 33
0.0
 14
253.3717728184583
 24
287.4112178959912
 34
0.0
 50
180.0
100
AcDbRotatedDimension
  0
TEXT
  5
181
330
2
100
AcDbEntity
  8
1
  6
BYBLOCK
 62
     0
100
AcDbText
 10
257.234870961267
 20
238.8265020653952
 30
0.0
 40
4.589999999999998
  1
APPLICATION MODEL
 41
0.8
  7
GHS
100
AcDbText
  0
LINE
  5
184
330
2
100
AcDbEntity
  8
1
  6
BYBLOCK
 62
     0
100
AcDbLine
 10
313.4669161044203
 20
227.3470369721253
 30
0.0
 11
200.7131858403845
 21
227.3470369721253
 31
0.0
  0
LINE
  5
185
330
2
100
AcDbEntity
  8
1
  6
BYBLOCK
 62
     0
100
AcDbLine
 10
313.4669161044203
 20
245.7070369721264
 30
0.0
 11
200.7131858403845
 21
245.7070369721264
 31
0.0
  0
LINE
  5
186
330
2
100
AcDbEntity
  8
1
  6
BYBLOCK
 62
     0
100
AcDbLine
 10
313.4669161044203
 20
236.5270369721265
 30
0.0
 11
200.7131858403845
 21
236.5270369721265
 31
0.0
  0
LINE
  5
187
330
2
100
AcDbEntity
  8
1
  6
BYBLOCK
 62
     0
100
AcDbLine
 10
313.4669161044203
 20
218.167036972125
 30
0.0
 11
200.7131858403845
 21
218.167036972125
 31
0.0
  0
DIMENSION
  5
188
330
2
100
AcDbEntity
  8
0
100
AcDbDimension
  2
*D39
 10
352.6069463284948
 20
165.0161850763547
 30
0.0
 11
287.6069463284948
 21
165.0161850763547
 31
0.0
 70
   160
  3
STANDARD
100
AcDbAlignedDimension
 13
222.6069463284929
 23
139.7452716205443
 33
0.0
 14
352.6069463284948
 24
135.7452716205443
 34
0.0
100
AcDbRotatedDimension
  0
LINE
  5
195
330
2
100
AcDbEntity
  8
CEN
 48
0.6
100
AcDbLine
 10
150.7852546660506
 20
99.745271620543
 30
0.0
 11
362.5964086672575
 21
99.74527162054437
 31
0.0
  0
LINE
  5
196
102
{ACAD_REACTORS
330
D7
102
}
330
2
100
AcDbEntity
  8
0
100
AcDbLine
 10
347.6069463284929
 20
139.7452716205443
 30
0.0
 11
228.7069463284951
 21
139.7452716205443
 31
0.0
  0
TEXT
  5
197
330
2
100
AcDbEntity
  8
1
  6
BYBLOCK
 62
     0
100
AcDbText
 10
260.853722257134
 20
220.7822734491315
 30
0.0
 40
4.589999999999998
  1
K8G25~180B(C)
 41
0.8
  7
GHS
100
AcDbText
  0
TEXT
  5
198
330
2
100
AcDbEntity
  8
1
  6
BYBLOCK
 62
     0
100
AcDbText
 10
260.4523693545215
 20
229.9622734491313
 30
0.0
 40
4.589999999999998
  1
K8G3~18B(C)
 41
0.8
  7
GHS
100
AcDbText
  0
LINE
  5
199
330
2
100
AcDbEntity
  8
1
  6
BYBLOCK
 62
     0
100
AcDbLine
 10
254.2230030239006
 20
245.7070369721264
 30
0.0
 11
254.2230030239006
 21
218.167036972125
 31
0.0
  0
MTEXT
  5
19A
330
2
100
AcDbEntity
  8
DIM
 62
     0
100
AcDbMText
 10
53.98738571338253
 20
253.7126736315485
 30
0.0
 40
4.589999999999998
 41
0.0
 71
     1
 72
     5
  1
{\f굴림|b0|i0|c129|p50;KEY\f??|b0|i0|c0|p49;                  \f굴림|b0|i0|c129|p50;KEY GROOVE }
1001
ACAD
1000
MTEXTBEGIN
1070
    73
1070
     1
1070
    44
1040
1.0
1070
    74
1070
     0
1000
MTEXTEND
  0
TEXT
  5
19B
330
2
100
AcDbEntity
  8
1
  6
BYBLOCK
 62
     0
100
AcDbText
 10
209.2501818942564
 20
220.6431471375294
 30
0.0
 40
4.589999999999998
  1
02
 41
0.8
  7
GHS
100
AcDbText
  0
TEXT
  5
19C
330
2
100
AcDbEntity
  8
1
  6
BYBLOCK
 62
     0
100
AcDbText
 10
209.2501818942564
 20
229.8231471375292
 30
0.0
 40
4.589999999999998
  1
01
 41
0.8
  7
GHS
100
AcDbText
  0
TEXT
  5
19D
330
2
100
AcDbEntity
  8
1
  6
BYBLOCK
 62
     0
100
AcDbText
 10
208.2743110007577
 20
238.6958496980969
 30
0.0
 40
4.589999999999998
  1
NO.
 41
0.8
  7
GHS
100
AcDbText
  0
TEXT
  5
19E
330
2
100
AcDbEntity
  8
1
  6
BYBLOCK
 62
     0
100
AcDbText
 10
234.2530182896171
 20
229.5141219292668
 30
0.0
 40
4.589999999999998
  1
32
 41
0.8
  7
GHS
100
AcDbText
  0
TEXT
  5
19F
330
2
100
AcDbEntity
  8
1
  6
BYBLOCK
 62
     0
100
AcDbText
 10
236.1018190953291
 20
238.527651785153
 30
0.0
 40
4.589999999999998
  1
L
 41
0.8
  7
GHS
100
AcDbText
  0
LINE
  5
1A0
330
2
100
AcDbEntity
  8
1
  6
BYBLOCK
 62
     0
100
AcDbLine
 10
224.5299690383108
 20
245.7070369721264
 30
0.0
 11
224.5299690383108
 21
218.167036972125
 31
0.0
  0
LINE
  5
1A1
330
2
100
AcDbEntity
  8
1
  6
BYBLOCK
 62
     0
100
AcDbLine
 10
200.7131858403845
 20
245.7070369721264
 30
0.0
 11
200.7131858403845
 21
218.167036972125
 31
0.0
  0
LWPOLYLINE
  5
1A2
330
2
100
AcDbEntity
  8
3
100
AcDbPolyline
 90
        4
 70
     1
 43
0.0
 10
112.4931111194655
 20
266.625587674433
 10
115.7931111194702
 20
266.625587674433
 10
115.7931111194702
 20
270.125587674433
 10
112.4931111194655
 20
270.125587674433
  0
DIMENSION
  5
1A4
102
{ACAD_XDICTIONARY
360
1A5
102
}
102
{ACAD_REACTORS
330
1A6
102
}
330
2
100
AcDbEntity
  8
0
100
AcDbDimension
  2
*D52
 10
69.0201488131388
 20
230.5547396251322
 30
0.0
 11
56.5201488131388
 21
233.0547396251322
 31
0.0
 70
    32
  1
<>{\f??|b0|i0|c0|p49;%%p0.2}
  3
STANDARD
100
AcDbAlignedDimension
 13
44.0201488131388
 23
220.7495456446563
 33
0.0
 14
69.0201488131388
 24
222.7495456446563
 34
0.0
100
AcDbRotatedDimension
  0
DIMENSION
  5
1B3
330
2
100
AcDbEntity
  8
0
100
AcDbDimension
  2
*D51
 10
77.18920396860269
 20
222.7495456446563
 30
0.0
 11
77.18920396860267
 21
237.5990074387468
 31
0.0
 70
   160
  1
\A1;<>{\f??|b0|i0|c0|p49;\H0.7x;\S+0^ -0.03;}
  3
STANDARD
100
AcDbAlignedDimension
 13
69.0201488131388
 23
218.7495456446563
 33
0.0
 14
69.0201488131388
 24
222.7495456446563
 34
0.0
 50
90.0
100
AcDbRotatedDimension
  0
DIMENSION
  5
1C2
102
{ACAD_XDICTIONARY
360
1C3
102
}
102
{ACAD_REACTORS
330
1C4
102
}
330
2
100
AcDbEntity
  8
0
100
AcDbDimension
  2
*D50
 10
150.6215143345798
 20
224.1492503576592
 30
0.0
 11
150.6215143345798
 21
240.3563932148035
 31
0.0
 70
   160
  1
\A1;<>{\f??|b0|i0|c0|p49;\H0.7x;\S+0.1^ -0;\H1.429x; }
  3
STANDARD
100
AcDbAlignedDimension
 13
135.1241818403978
 23
221.6492503576592
 33
0.0
 14
133.1241818403978
 24
224.1492503576592
 34
0.0
 50
90.0
100
AcDbRotatedDimension
  0
DIMENSION
  5
1D3
102
{ACAD_XDICTIONARY
360
1D4
102
}
102
{ACAD_REACTORS
330
1D5
102
}
330
2
100
AcDbEntity
  8
0
100
AcDbDimension
  2
*D49
 10
90.1908020998526
 20
231.424021303288
 30
0.0
 11
88.19080209985349
 21
234.874021303288
 31
0.0
 70
    32
  1
\A1;<>{\f??|b0|i0|c0|p49;\H0.7x;\S+0^ -0.03;}
  3
STANDARD
100
AcDbAlignedDimension
 13
86.1908020998544
 23
222.7495456446563
 33
0.0
 14
90.1908020998526
 24
222.7495456446563
 34
0.0
100
AcDbRotatedDimension
  0
DIMENSION
  5
1E4
102
{ACAD_XDICTIONARY
360
1E5
102
}
102
{ACAD_REACTORS
330
1E6
102
}
330
2
100
AcDbEntity
  8
0
100
AcDbDimension
  2
*D48
 10
135.1241818403978
 20
232.4908385975904
 30
0.0
 11
133.1241818403968
 21
235.9408385975904
 31
0.0
 70
    32
  1
\A1;<>{\f??|b0|i0|c0|p49;\H0.7x;\S+0.40^ -0;}
  3
STANDARD
100
AcDbAlignedDimension
 13
131.1241818403959
 23
223.7318260526153
 33
0.0
 14
135.1241818403978
 24
223.7318260526153
 34
0.0
100
AcDbRotatedDimension
  0
LINE
  5
1F5
102
{ACAD_REACTORS
330
1A6
102
}
330
2
100
AcDbEntity
  8
0
 48
0.2
100
AcDbLine
 10
46.0201488131388
 20
222.7495456446563
 30
0.0
 11
69.0201488131388
 21
222.7495456446563
 31
0.0
  0
LINE
  5
1F6
330
2
100
AcDbEntity
  8
0
 48
0.2
100
AcDbLine
 10
46.0201488131388
 20
218.7495456446563
 30
0.0
 11
69.0201488131388
 21
218.7495456446563
 31
0.0
  0
LINE
  5
1F7
330
2
100
AcDbEntity
  8
0
  6
CENTER
 62
     1
 48
0.4
100
AcDbLine
 10
38.33326249642778
 20
220.7495456446563
 30
0.0
 11
73.83901612547197
 21
220.7495456446563
 31
0.0
  0
ARC
  5
1F8
102
{ACAD_REACTORS
330
1A6
102
}
330
2
100
AcDbEntity
  8
0
100
AcDbCircle
 10
46.0201488131388
 20
220.7495456446563
 30
0.0
 40
2.0
100
AcDbArc
 50
90.0
 51
270.0
  0
LINE
  5
1F9
330
2
100
AcDbEntity
  8
0
100
AcDbLine
 10
69.0201488131388
 20
222.7495456446563
 30
0.0
 11
69.0201488131388
 21
218.7495456446563
 31
0.0
  0
LINE
  5
1FA
102
{ACAD_REACTORS
330
1E6
102
}
330
2
100
AcDbEntity
  8
0
100
AcDbLine
 10
135.1241818403978
 20
221.6492503576592
 30
0.0
 11
135.1241818403978
 21
223.7318260526153
 31
0.0
  0
LINE
  5
1FB
102
{ACAD_REACTORS
330
1E6
102
}
330
2
100
AcDbEntity
  8
0
100
AcDbLine
 10
131.1241818403959
 20
221.6492503576592
 30
0.0
 11
131.1241818403959
 21
223.7318260526153
 31
0.0
  0
LINE
  5
1FC
102
{ACAD_REACTORS
330
1C4
102
}
330
2
100
AcDbEntity
  8
0
100
AcDbLine
 10
131.1241818403959
 20
221.6492503576592
 30
0.0
 11
135.1241818403978
 21
221.6492503576592
 31
0.0
  0
LINE
  5
1FD
330
2
100
AcDbEntity
  8
0
 48
0.2
100
AcDbLine
 10
86.1908020998544
 20
222.7495456446563
 30
0.0
 11
90.1908020998526
 21
222.7495456446563
 31
0.0
  0
LINE
  5
1FE
330
2
100
AcDbEntity
  8
0
 48
0.2
100
AcDbLine
 10
86.1908020998544
 20
218.7495456446563
 30
0.0
 11
90.1908020998526
 21
218.7495456446563
 31
0.0
  0
LINE
  5
1FF
102
{ACAD_REACTORS
330
1D5
102
}
330
2
100
AcDbEntity
  8
0
100
AcDbLine
 10
86.1908020998544
 20
222.7495456446563
 30
0.0
 11
86.1908020998544
 21
218.7495456446563
 31
0.0
  0
LINE
  5
200
102
{ACAD_REACTORS
330
1D5
102
}
330
2
100
AcDbEntity
  8
0
100
AcDbLine
 10
90.1908020998526
 20
222.7495456446563
 30
0.0
 11
90.1908020998526
 21
218.7495456446563
 31
0.0
  0
CIRCLE
  5
201
102
{ACAD_REACTORS
330
1C4
102
}
330
2
100
AcDbEntity
  8
0
100
AcDbCircle
 10
133.1241818403978
 20
219.1492503576591
 30
0.0
 40
5.0
  0
LINE
  5
202
330
2
100
AcDbEntity
  8
0
  6
CENTER
 62
     1
 48
0.4
100
AcDbLine
 10
124.5165425236264
 20
219.1492503576591
 30
0.0
 11
141.4500370697769
 21
219.1492503576591
 31
0.0
  0
LINE
  5
203
330
2
100
AcDbEntity
  8
0
  6
CENTER
 62
     1
 48
0.4
100
AcDbLine
 10
84.19080209985258
 20
220.7495456446563
 30
0.0
 11
92.1908020998544
 21
220.7495456446563
 31
0.0
  0
LINE
  5
204
330
2
100
AcDbEntity
  8
0
  6
CENTER
 62
     1
 48
0.4
100
AcDbLine
 10
88.19080209985258
 20
224.7495456446563
 30
0.0
 11
88.19080209985258
 21
216.7495456446563
 31
0.0
  0
LINE
  5
205
330
2
100
AcDbEntity
  8
0
  6
CENTER
 62
     1
 48
0.4
100
AcDbLine
 10
133.1241818403978
 20
229.1210150008764
 30
0.0
 11
133.1241818403978
 21
208.4922567780995
 31
0.0
  0
LWPOLYLINE
  5
206
330
2
100
AcDbEntity
  8
0
100
AcDbPolyline
 90
        2
 70
     1
 43
1.5
 10
49.04653499285632
 20
251.1052733754591
 42
1.0
 10
50.54653499285632
 20
251.1052733754591
 42
1.0
  0
CIRCLE
  5
207
330
2
100
AcDbEntity
  8
0
100
AcDbCircle
 10
49.79653499285632
 20
251.1052733754591
 30
0.0
 40
1.5
  0
CIRCLE
  5
208
330
2
100
AcDbEntity
  8
0
100
AcDbCircle
 10
114.3211622174894
 20
251.3205892914597
 30
0.0
 40
1.5
  0
LWPOLYLINE
  5
209
330
2
100
AcDbEntity
  8
0
100
AcDbPolyline
 90
        2
 70
     1
 43
1.5
 10
113.5711622174894
 20
251.3205892914597
 42
1.0
 10
115.0711622174894
 20
251.3205892914597
 42
1.0
  0
TEXT
  5
20A
330
2
100
AcDbEntity
  8
1
  6
BYBLOCK
 62
     0
100
AcDbText
 10
234.2530182896171
 20
220.3341219292669
 30
0.0
 40
4.589999999999998
  1
42.5
 41
0.8
  7
GHS
100
AcDbText
  0
LINE
  5
20B
330
2
100
AcDbEntity
  8
1
  6
BYBLOCK
 62
     0
100
AcDbLine
 10
199.9429192698516
 20
250.1187258483332
 30
0.0
 11
249.6083570820774
 21
250.1187258483332
 31
0.0
  0
LINE
  5
20C
330
2
100
AcDbEntity
  8
1
  6
BYBLOCK
 62
     0
100
AcDbLine
 10
199.9429192698516
 20
249.3896938873372
 30
0.0
 11
249.6083570820774
 21
249.3896938873372
 31
0.0
  0
LINE
  5
20D
330
2
100
AcDbEntity
  8
1
  6
BYBLOCK
 62
     0
100
AcDbLine
 10
199.9429192698516
 20
249.1646938873382
 30
0.0
 11
249.6083570820774
 21
249.1646938873382
 31
0.0
  0
TEXT
  5
20E
330
2
100
AcDbEntity
  8
1
 62
     0
100
AcDbText
 10
200.6049097640625
 20
251.214475759094
 30
0.0
 40
4.589999999999998
  1
DIMENSION TABLE
 41
0.8
  7
GHS
100
AcDbText
  0
DIMENSION
  5
20F
102
{ACAD_XDICTIONARY
360
210
102
}
102
{ACAD_REACTORS
330
211
102
}
330
2
100
AcDbEntity
  8
0
100
AcDbDimension
  2
*D47
 10
229.6069463284948
 20
151.6739536839563
 30
0.0
 11
226.1069463284948
 21
151.6739536839563
 31
0.0
 70
   160
  3
STANDARD
100
AcDbAlignedDimension
 13
222.6069463284929
 23
139.2452716205448
 33
0.0
 14
229.6069463284948
 24
138.3440089620735
 34
0.0
100
AcDbRotatedDimension
  0
LINE
  5
21E
330
2
100
AcDbEntity
  8
0
100
AcDbLine
 10
228.7069463284951
 20
138.3440089620735
 30
0.0
 11
229.6069463284948
 21
138.3440089620735
 31
0.0
  0
LINE
  5
21F
330
2
100
AcDbEntity
  8
0
100
AcDbLine
 10
228.7069463284951
 20
130.6440089620741
 30
0.0
 11
229.6069463284948
 21
130.6440089620741
 31
0.0
  0
LINE
  5
220
102
{ACAD_REACTORS
330
211
102
}
330
2
100
AcDbEntity
  8
0
100
AcDbLine
 10
229.6069463284948
 20
130.6440089620741
 30
0.0
 11
229.6069463284948
 21
138.3440089620735
 31
0.0
  0
DIMENSION
  5
221
330
2
100
AcDbEntity
  8
0
100
AcDbDimension
  2
*D46
 10
222.6069463284929
 20
165.0161850763547
 30
0.0
 11
200.1069463284948
 21
165.0161850763547
 31
0.0
 70
   160
  1
{\f??|b0|i0|c0|p49;L}
  3
STANDARD
100
AcDbAlignedDimension
 13
180.1069463284948
 23
139.2452716205448
 33
0.0
 14
222.6069463284929
 24
139.7452716205443
 34
0.0
100
AcDbRotatedDimension
  0
DIMENSION
  5
22E
102
{ACAD_XDICTIONARY
360
22F
102
}
102
{ACAD_REACTORS
330
230
102
}
330
2
100
AcDbEntity
  8
0
100
AcDbDimension
  2
*D45
 10
180.1069463284948
 20
165.0136671574196
 30
0.0
 11
164.4281782583802
 21
165.0136671574196
 31
0.0
 70
   160
  3
STANDARD
100
AcDbAlignedDimension
 13
148.1069463284948
 23
119.7452716205443
 33
0.0
 14
180.1069463284948
 24
139.2452716205448
 34
0.0
100
AcDbRotatedDimension
  0
LINE
  5
23D
330
2
100
AcDbEntity
  8
0
100
AcDbLine
 10
228.7069463284988
 20
139.7452716205443
 30
0.0
 11
180.6069463284929
 21
139.7452716205443
 31
0.0
  0
ARC
  5
23E
330
2
100
AcDbEntity
  8
0
100
AcDbCircle
 10
180.6069463284929
 20
139.2452716205448
 30
0.0
 40
0.5
100
AcDbArc
 50
90.0
 51
180.0
  0
DIMENSION
  5
23F
330
2
100
AcDbEntity
  8
0
100
AcDbDimension
  2
*D44
 10
177.1069463284948
 20
151.4889045076051
 30
0.0
 11
178.6069463284948
 21
151.4889045076051
 31
0.0
 70
   160
  3
STANDARD
100
AcDbAlignedDimension
 13
180.1069463284948
 23
139.2452716205448
 33
0.0
 14
177.1069463284948
 24
131.2452716205443
 34
0.0
 50
180.0
100
AcDbRotatedDimension
  0
DIMENSION
  5
24E
102
{ACAD_XDICTIONARY
360
24F
102
}
102
{ACAD_REACTORS
330
250
102
}
330
2
100
AcDbEntity
  8
0
100
AcDbDimension
  2
*D43
 10
148.1069463284948
 20
135.9655598274475
 30
0.0
 11
160.6069463284966
 21
135.9655598274475
 31
0.0
 70
   160
  3
STANDARD
100
AcDbAlignedDimension
 13
173.1069463284966
 23
119.7452716205448
 33
0.0
 14
148.1069463284948
 24
119.7452716205443
 34
0.0
 50
180.0
100
AcDbRotatedDimension
  0
LINE
  5
25D
330
2
100
AcDbEntity
  8
0
100
AcDbLine
 10
177.606946328493
 20
131.7452716205443
 30
0.0
 11
180.1069463284948
 21
131.7452716205443
 31
0.0
  0
ARC
  5
25E
330
2
100
AcDbEntity
  8
0
100
AcDbCircle
 10
177.606946328493
 20
131.2452716205443
 30
0.0
 40
0.5
100
AcDbArc
 50
90.0
 51
180.0
  0
LINE
  5
25F
102
{ACAD_REACTORS
330
250
102
}
330
2
100
AcDbEntity
  8
0
  6
HIDDEN
 62
     2
100
AcDbLine
 10
173.1069463284966
 20
119.7452716205448
 30
0.0
 11
173.1069463284966
 21
117.2452716205443
 31
0.0
  0
LINE
  5
261
102
{ACAD_REACTORS
330
278
102
}
330
2
100
AcDbEntity
  8
CEN
  6
BYBLOCK
 62
     0
100
AcDbLine
 10
177.1069463284948
 20
109.7452716205448
 30
0.0
 11
148.1069463284948
 21
109.7452716205448
 31
0.0
  0
LINE
  5
262
102
{ACAD_REACTORS
330
278
102
}
330
2
100
AcDbEntity
  8
CEN
  6
HIDDEN
 62
     2
100
AcDbLine
 10
173.1069463284966
 20
117.2452716205443
 30
0.0
 11
148.1069463284948
 21
117.2452716205443
 31
0.0
  0
LINE
  5
263
102
{ACAD_REACTORS
330
278
330
250
330
267
330
230
102
}
330
2
100
AcDbEntity
  8
CEN
  6
BYBLOCK
 62
     0
100
AcDbLine
 10
177.1069463284948
 20
119.7452716205443
 30
0.0
 11
148.1069463284948
 21
119.7452716205443
 31
0.0
  0
LINE
  5
264
102
{ACAD_REACTORS
330
278
102
}
330
2
100
AcDbEntity
  8
CEN
 48
0.6
100
AcDbLine
 10
187.8548937111991
 20
114.7452716205443
 30
0.0
 11
144.2088075272659
 21
114.7452716205443
 31
0.0
  0
DIMENSION
  5
265
102
{ACAD_XDICTIONARY
360
266
102
}
102
{ACAD_REACTORS
330
267
102
}
330
2
100
AcDbEntity
  8
0
100
AcDbDimension
  2
*D42
 10
133.2822830395162
 20
119.7452716205443
 30
0.0
 11
133.2822830395161
 21
147.5484290420768
 31
0.0
 70
   160
  1
\A1;{\f??|b0|i0|c0|p49;%%C10\H0.7x;\S+0^ -0.015;\H1.429x;(h7)}
  3
STANDARD
100
AcDbAlignedDimension
 13
148.1069463284948
 23
109.7452716205448
 33
0.0
 14
148.1069463284948
 24
119.7452716205443
 34
0.0
 50
90.0
100
AcDbRotatedDimension
  0
DIMENSION
  5
276
102
{ACAD_XDICTIONARY
360
277
102
}
102
{ACAD_REACTORS
330
278
102
}
330
2
100
AcDbEntity
  8
0
100
AcDbDimension
  2
*D41
 10
123.777098970153
 20
99.74527162054437
 30
0.0
 11
123.777098970153
 21
107.2452716205448
 31
0.0
 70
   160
  3
STANDARD
100
AcDbAlignedDimension
 13
144.2088075272659
 23
114.7452716205443
 33
0.0
 14
150.573993897462
 24
99.74527162054437
 34
0.0
 50
90.0
100
AcDbRotatedDimension
  0
LINE
  5
285
102
{ACAD_REACTORS
330
267
102
}
330
2
100
AcDbEntity
  8
0
100
AcDbLine
 10
148.1069463284948
 20
119.7452716205443
 30
0.0
 11
148.1069463284948
 21
109.7452716205448
 31
0.0
  0
DIMENSION
  5
286
102
{ACAD_XDICTIONARY
360
287
102
}
102
{ACAD_REACTORS
330
288
102
}
330
2
100
AcDbEntity
  8
0
100
AcDbDimension
  2
*D40
 10
88.0281907920289
 20
156.9408399511589
 30
0.0
 11
48.78681854687056
 21
156.9408399511589
 31
0.0
 70
   160
  3
STANDARD
100
AcDbAlignedDimension
 13
8.028190792028908
 23
134.7452716205448
 33
0.0
 14
88.0281907920289
 24
134.7452716205448
 34
0.0
100
AcDbRotatedDimension
  0
ARC
  5
295
102
{ACAD_REACTORS
330
288
102
}
330
2
100
AcDbEntity
  8
0
 48
0.6
100
AcDbCircle
 10
83.02819079202709
 20
134.7452716205448
 30
0.0
 40
5.0
100
AcDbArc
 50
0.0
 51
90.0
  0
LINE
  5
296
330
2
100
AcDbEntity
  8
0
 48
0.6
100
AcDbLine
 10
13.0281907920289
 20
139.7452716205443
 30
0.0
 11
83.02819079202709
 21
139.7452716205443
 31
0.0
  0
ARC
  5
297
102
{ACAD_REACTORS
330
288
102
}
330
2
100
AcDbEntity
  8
0
 48
0.6
100
AcDbCircle
 10
13.0281907920289
 20
134.7452716205448
 30
0.0
 40
5.0
100
AcDbArc
 50
90.0
 51
180.0
  0
LWPOLYLINE
  5
298
330
2
100
AcDbEntity
  8
3
100
AcDbPolyline
 90
        4
 70
     1
 43
0.0
 10
41.07992737910899
 20
158.2182895119062
 10
44.37992737910644
 20
158.2182895119062
 10
44.37992737910644
 20
161.7182895119062
 10
41.07992737910899
 20
161.7182895119062
  0
LINE
  5
299
330
2
100
AcDbEntity
  8
0
 62
     0
 48
0.6
100
AcDbLine
 10
50.02819079203982
 20
119.3278473155273
 30
0.0
 11
50.02819079203982
 21
117.2452716205712
 31
0.0
  0
LINE
  5
29A
330
2
100
AcDbEntity
  8
0
 48
0.6
100
AcDbLine
 10
46.02819079203982
 20
117.2452716205712
 30
0.0
 11
50.02819079203982
 21
117.2452716205712
 31
0.0
  0
LINE
  5
29B
330
2
100
AcDbEntity
  8
CEN
 48
0.6
100
AcDbLine
 10
28.56258850449739
 20
114.7452716205711
 30
0.0
 11
67.41428631976487
 21
114.7452716205711
 31
0.0
  0
CIRCLE
  5
29C
330
2
100
AcDbEntity
  8
0
 48
0.6
100
AcDbCircle
 10
48.02819079203982
 20
114.7452716205711
 30
0.0
 40
5.0
  0
LINE
  5
29D
330
2
100
AcDbEntity
  8
0
 62
     0
 48
0.6
100
AcDbLine
 10
46.02819079203982
 20
119.3278473155273
 30
0.0
 11
46.02819079203982
 21
117.2452716205712
 31
0.0
  0
LEADER
  5
29E
330
2
100
AcDbEntity
  8
0
100
AcDbLeader
  3
STANDARD
 73
     0
 75
     1
 40
3.0
 41
26.65178571428571
 76
     3
 10
81.2622095077968
 20
135.7292903363122
 30
0.0
 10
71.71563722171777
 20
164.5041083270048
 30
0.0
 10
69.21563722171777
 20
164.5041083270048
 30
0.0
340
29F
1001
ACAD
1000
DSTYLE
1002
{
1070
     5
1000

1070
    77
1070
     1
1070
   147
1040
1.0
1070
   342
1005
0
1002
}
  0
MTEXT
  5
29F
102
{ACAD_REACTORS
330
29E
102
}
330
2
100
AcDbEntity
  8
0
 62
     3
100
AcDbMText
 10
68.21563722171777
 20
165.5041083270048
 30
0.0
 40
3.0
 41
0.0
 71
     9
 72
     1
  1
4-%%C5.5 hole
1001
ACAD
1000
MTEXTBEGIN
1070
    73
1070
     1
1070
    44
1040
1.0
1070
    74
1070
     0
1000
MTEXTEND
  0
LINE
  5
2A0
330
2
100
AcDbEntity
  8
1
  6
BYBLOCK
 62
     0
100
AcDbLine
 10
313.4669161044203
 20
245.7070369721264
 30
0.0
 11
313.4669161044203
 21
218.167036972125
 31
0.0
  0
ARC
  5
2A1
330
2
100
AcDbEntity
  8
0
100
AcDbCircle
 10
347.6069463284929
 20
134.7452716205448
 30
0.0
 40
5.0
100
AcDbArc
 50
0.0
 51
90.00000000000019
  0
LINE
  5
2A2
102
{ACAD_REACTORS
330
2D0
102
}
330
2
100
AcDbEntity
  8
CEN
 48
0.6
100
AcDbLine
 10
209.7640996843547
 20
326.9112178959922
 30
0.0
 11
309.0312421580784
 21
326.9112178959922
 31
0.0
  0
LINE
  5
2A3
330
2
100
AcDbEntity
  8
0
100
AcDbLine
 10
228.1104594333155
 20
437.3405627793481
 30
0.0
 11
226.1104594333155
 21
437.3405627793481
 31
0.0
  0
LINE
  5
2A4
330
2
100
AcDbEntity
  8
0
 48
0.6
100
AcDbLine
 10
91.91751096195003
 20
433.8405627793495
 30
0.0
 11
161.91751096195
 21
433.8405627793495
 31
0.0
  0
ARC
  5
2A5
330
2
100
AcDbEntity
  8
0
 48
0.6
100
AcDbCircle
 10
91.91751096195003
 20
438.8405627793495
 30
0.0
 40
5.0
100
AcDbArc
 50
180.0
 51
270.0
  0
LINE
  5
2A6
330
2
100
AcDbEntity
  8
0
 48
0.6
100
AcDbLine
 10
146.3696989255131
 20
433.8405627793495
 30
0.0
 11
140.6286486989847
 21
433.8405627793495
 31
0.0
  0
ARC
  5
2A7
330
2
100
AcDbEntity
  8
0
 48
0.6
100
AcDbCircle
 10
161.91751096195
 20
438.8405627793495
 30
0.0
 40
5.0
100
AcDbArc
 50
270.0
 51
0.0
  0
LINE
  5
2A8
330
2
100
AcDbEntity
  8
0
100
AcDbLine
 10
228.1104594333155
 20
433.8405627793467
 30
0.0
 11
260.1104594333155
 21
433.8405627793467
 31
0.0
  0
LINE
  5
2A9
330
2
100
AcDbEntity
  8
2
 62
     7
100
AcDbLine
 10
253.3717728184583
 20
324.9112178959912
 30
0.0
 11
250.8717728184565
 21
324.9112178959912
 31
0.0
  0
LINE
  5
2AB
330
2
100
AcDbEntity
  8
2
 62
     7
100
AcDbLine
 10
250.3717728184583
 20
325.4112178959912
 30
0.0
 11
250.3717728184583
 21
326.9112178959922
 31
0.0
  0
ARC
  5
2AC
330
2
100
AcDbEntity
  8
2
 62
     7
100
AcDbCircle
 10
250.8717728184565
 20
325.4112178959912
 30
0.0
 40
0.4999999999999967
100
AcDbArc
 50
180.0
 51
270.0
  0
LINE
  5
2AD
330
2
100
AcDbEntity
  8
0
100
AcDbLine
 10
294.8717728184565
 20
366.9112178959912
 30
0.0
 11
253.8717728184565
 21
366.9112178959912
 31
0.0
  0
LINE
  5
2AE
330
2
100
AcDbEntity
  8
0
100
AcDbLine
 10
294.8717728184565
 20
286.9112178959912
 30
0.0
 11
253.8717728184565
 21
286.9112178959912
 31
0.0
  0
LINE
  5
2AF
330
2
100
AcDbEntity
  8
0
100
AcDbLine
 10
250.8717728184565
 20
358.9112178959922
 30
0.0
 11
253.3717728184583
 21
358.9112178959922
 31
0.0
  0
ARC
  5
2B0
330
2
100
AcDbEntity
  8
0
100
AcDbCircle
 10
253.8717728184565
 20
366.4112178959912
 30
0.0
 40
0.5
100
AcDbArc
 50
90.0
 51
180.0
  0
LINE
  5
2B1
330
2
100
AcDbEntity
  8
0
100
AcDbLine
 10
250.8717728184565
 20
324.9112178959912
 30
0.0
 11
253.3717728184583
 21
324.9112178959912
 31
0.0
  0
ARC
  5
2B2
330
2
100
AcDbEntity
  8
0
100
AcDbCircle
 10
253.8717728184565
 20
287.4112178959912
 30
0.0
 40
0.5
100
AcDbArc
 50
180.0
 51
270.0
  0
LINE
  5
2B3
330
2
100
AcDbEntity
  8
0
100
AcDbLine
 10
250.3717728184583
 20
358.4112178959912
 30
0.0
 11
250.3717728184583
 21
327.4112178959912
 31
0.0
  0
LINE
  5
2B4
330
2
100
AcDbEntity
  8
0
100
AcDbLine
 10
253.3717728184583
 20
366.4112178959912
 30
0.0
 11
253.3717728184583
 21
287.4112178959912
 31
0.0
  0
LINE
  5
2B5
330
2
100
AcDbEntity
  8
0
100
AcDbLine
 10
294.8717728184565
 20
366.9112178959912
 30
0.0
 11
294.8717728184565
 21
366.4112178959912
 31
0.0
  0
LINE
  5
2B6
330
2
100
AcDbEntity
  8
0
100
AcDbLine
 10
295.8717728184565
 20
366.4112178959912
 30
0.0
 11
294.8717728184565
 21
366.4112178959912
 31
0.0
  0
LINE
  5
2B7
330
2
100
AcDbEntity
  8
0
100
AcDbLine
 10
294.8717728184565
 20
287.4112178959912
 30
0.0
 11
294.8717728184565
 21
286.9112178959912
 31
0.0
  0
LINE
  5
2B8
330
2
100
AcDbEntity
  8
0
100
AcDbLine
 10
295.8717728184565
 20
287.4112178959912
 30
0.0
 11
294.8717728184565
 21
287.4112178959912
 31
0.0
  0
LINE
  5
2B9
330
2
100
AcDbEntity
  8
0
100
AcDbLine
 10
295.8717728184565
 20
366.4112178959912
 30
0.0
 11
295.8717728184565
 21
287.4112178959912
 31
0.0
  0
LINE
  5
2BA
102
{ACAD_REACTORS
330
304
102
}
330
2
100
AcDbEntity
  8
0
  6
HIDDEN
 62
     2
100
AcDbLine
 10
246.3717728184565
 20
346.9112178959913
 30
0.0
 11
246.3717728184565
 21
344.4112178959922
 31
0.0
  0
ARC
  5
2BB
330
2
100
AcDbEntity
  8
0
100
AcDbCircle
 10
250.8717728184565
 20
358.4112178959912
 30
0.0
 40
0.5
100
AcDbArc
 50
90.0
 51
180.0
  0
DIMENSION
  5
2BC
330
2
100
AcDbEntity
  8
0
100
AcDbDimension
  2
*D57
 10
250.3717728184583
 20
373.5211458048961
 30
0.0
 11
251.8717728184583
 21
373.5211458048961
 31
0.0
 70
   160
  3
STANDARD
100
AcDbAlignedDimension
 13
253.3717728184583
 23
366.4112178959912
 33
0.0
 14
250.3717728184583
 24
358.4112178959912
 34
0.0
 50
180.0
100
AcDbRotatedDimension
  0
ARC
  5
2CB
330
2
100
AcDbEntity
  8
0
100
AcDbCircle
 10
250.8717728184565
 20
325.4112178959912
 30
0.0
 40
0.5
100
AcDbArc
 50
180.0
 51
270.0
  0
MTEXT
  5
2CC
102
{ACAD_REACTORS
330
322
102
}
330
2
100
AcDbEntity
  8
0
 62
     3
100
AcDbMText
 10
135.172988096594
 20
384.5246570497147
 30
0.0
 40
3.0
 41
0.0
 71
     9
 72
     1
  1
4-%%c5.5 hole
1001
ACAD
1000
MTEXTBEGIN
1070
    73
1070
     1
1070
    44
1040
1.0
1070
    74
1070
     0
1000
MTEXTEND
  0
LINE
  5
2CD
102
{ACAD_REACTORS
330
2DF
102
}
330
2
100
AcDbEntity
  8
0
100
AcDbLine
 10
221.3717728184547
 20
346.9112178959913
 30
0.0
 11
221.3717728184547
 21
336.9112178959912
 31
0.0
  0
DIMENSION
  5
2CE
102
{ACAD_XDICTIONARY
360
2CF
102
}
102
{ACAD_REACTORS
330
2D0
102
}
330
2
100
AcDbEntity
  8
0
100
AcDbDimension
  2
*D56
 10
197.5252261469613
 20
326.9112178959922
 30
0.0
 11
195.0252261469613
 21
334.4112178959917
 31
0.0
 70
    32
  3
STANDARD
100
AcDbAlignedDimension
 13
217.473634017233
 23
341.9112178959912
 33
0.0
 14
209.7640996843547
 24
326.9112178959922
 34
0.0
 50
90.0
100
AcDbRotatedDimension
  0
DIMENSION
  5
2DD
102
{ACAD_XDICTIONARY
360
2DE
102
}
102
{ACAD_REACTORS
330
2DF
102
}
330
2
100
AcDbEntity
  8
0
100
AcDbDimension
  2
*D55
 10
206.5471095294816
 20
346.9112178959913
 30
0.0
 11
206.5471095294815
 21
375.022151821734
 31
0.0
 70
   160
  1
\A1;{\f??|b0|i0|c0|p49;%%C10\H0.7x;\S+0^ -0.015;\H1.429x;(h7)}
  3
STANDARD
100
AcDbAlignedDimension
 13
221.3717728184547
 23
336.9112178959912
 33
0.0
 14
221.3717728184547
 24
346.9112178959913
 34
0.0
 50
90.0
100
AcDbRotatedDimension
  0
LINE
  5
2EE
330
2
100
AcDbEntity
  8
CEN
 48
0.6
100
AcDbLine
 10
71.6416625003676
 20
326.9112178959922
 30
0.0
 11
159.7956419515612
 21
326.9112178959922
 31
0.0
  0
LINE
  5
2EF
330
2
100
AcDbEntity
  8
CEN
 48
0.6
100
AcDbLine
 10
71.6416625003676
 20
326.9112178959922
 30
0.0
 11
159.7956419515612
 21
326.9112178959922
 31
0.0
  0
INSERT
  5
2F0
330
2
100
AcDbEntity
  8
0
100
AcDbBlockReference
  2
5
 10
115.7186522259653
 20
326.9112178959922
 30
0.0
  0
LINE
  5
2F1
330
2
100
AcDbEntity
  8
CEN
 48
0.6
100
AcDbLine
 10
115.7186522259653
 20
279.7390946875953
 30
0.0
 11
115.7186522259653
 21
374.0833411043881
 31
0.0
  0
LINE
  5
2F2
330
2
100
AcDbEntity
  8
CEN
 48
0.6
100
AcDbLine
 10
115.7186522259653
 20
279.7390946875953
 30
0.0
 11
115.7186522259653
 21
374.083341104389
 31
0.0
  0
CIRCLE
  5
2F3
330
2
100
AcDbEntity
  8
0
 48
0.6
100
AcDbCircle
 10
115.7186522259653
 20
326.9112178959922
 30
0.0
 40
36.5
  0
LINE
  5
2F4
330
2
100
AcDbEntity
  8
0
 62
     0
 48
0.6
100
AcDbLine
 10
117.7186522259635
 20
346.493793590946
 30
0.0
 11
117.7186522259635
 21
344.4112178959922
 31
0.0
  0
LINE
  5
2F5
330
2
100
AcDbEntity
  8
0
 62
     0
 48
0.6
100
AcDbLine
 10
113.7186522259653
 20
346.493793590946
 30
0.0
 11
113.7186522259653
 21
344.4112178959922
 31
0.0
  0
CIRCLE
  5
2F6
330
2
100
AcDbEntity
  8
0
 48
0.6
100
AcDbCircle
 10
115.7186522259653
 20
341.9112178959912
 30
0.0
 40
5.0
  0
CIRCLE
  5
2F7
330
2
100
AcDbEntity
  8
0
 48
0.6
100
AcDbCircle
 10
115.7186522259653
 20
341.9112178959912
 30
0.0
 40
17.0
  0
LINE
  5
2F8
330
2
100
AcDbEntity
  8
0
 48
0.6
100
AcDbLine
 10
75.71865222596534
 20
361.9112178959921
 30
0.0
 11
75.71865222596534
 21
291.9112178959912
 31
0.0
  0
LINE
  5
2F9
102
{ACAD_REACTORS
330
167
102
}
330
2
100
AcDbEntity
  8
0
 48
0.6
100
AcDbLine
 10
155.7186522259653
 20
361.9112178959921
 30
0.0
 11
155.7186522259653
 21
291.9112178959912
 31
0.0
  0
LINE
  5
2FA
330
2
100
AcDbEntity
  8
0
 48
0.6
100
AcDbLine
 10
113.7186522259653
 20
344.4112178959922
 30
0.0
 11
117.7186522259635
 21
344.4112178959922
 31
0.0
  0
LINE
  5
2FB
330
2
100
AcDbEntity
  8
CEN
 48
0.6
100
AcDbLine
 10
96.25304993842291
 20
341.9112178959912
 30
0.0
 11
135.1047477536922
 21
341.9112178959912
 31
0.0
  0
ARC
  5
2FC
330
2
100
AcDbEntity
  8
0
 48
0.6
100
AcDbCircle
 10
150.7186522259653
 20
291.9112178959912
 30
0.0
 40
5.0
100
AcDbArc
 50
270.0
 51
0.0
  0
ARC
  5
2FD
330
2
100
AcDbEntity
  8
0
 48
0.6
100
AcDbCircle
 10
80.71865222596533
 20
291.9112178959912
 30
0.0
 40
5.0
100
AcDbArc
 50
180.0
 51
270.0
  0
LINE
  5
2FE
330
2
100
AcDbEntity
  8
0
 48
0.6
100
AcDbLine
 10
80.71865222596533
 20
286.9112178959912
 30
0.0
 11
150.7186522259653
 21
286.9112178959912
 31
0.0
  0
ARC
  5
2FF
330
2
100
AcDbEntity
  8
0
 48
0.6
100
AcDbCircle
 10
150.7186522259653
 20
361.9112178959921
 30
0.0
 40
5.0
100
AcDbArc
 50
0.0
 51
90.0
  0
ARC
  5
300
330
2
100
AcDbEntity
  8
0
 48
0.6
100
AcDbCircle
 10
80.71865222596533
 20
361.9112178959921
 30
0.0
 40
5.0
100
AcDbArc
 50
90.0
 51
180.0
  0
LINE
  5
301
330
2
100
AcDbEntity
  8
0
 48
0.6
100
AcDbLine
 10
80.71865222596533
 20
366.9112178959912
 30
0.0
 11
150.7186522259653
 21
366.9112178959912
 31
0.0
  0
DIMENSION
  5
302
102
{ACAD_XDICTIONARY
360
303
102
}
102
{ACAD_REACTORS
330
304
102
}
330
2
100
AcDbEntity
  8
0
100
AcDbDimension
  2
*D54
 10
221.3717728184547
 20
363.1315061028931
 30
0.0
 11
234.1827034858543
 21
363.1315061028931
 31
0.0
 70
   160
  3
STANDARD
100
AcDbAlignedDimension
 13
246.3717728184565
 23
346.9112178959913
 33
0.0
 14
221.3717728184547
 24
346.9112178959913
 34
0.0
 50
180.0
100
AcDbRotatedDimension
  0
LINE
  5
311
102
{ACAD_REACTORS
330
2D0
102
}
330
2
100
AcDbEntity
  8
CEN
  6
HIDDEN
 62
     2
100
AcDbLine
 10
246.3717728184565
 20
344.4112178959922
 30
0.0
 11
221.3717728184547
 21
344.4112178959922
 31
0.0
  0
LINE
  5
312
102
{ACAD_REACTORS
330
2D0
330
304
330
2DF
102
}
330
2
100
AcDbEntity
  8
CEN
  6
BYBLOCK
 62
     0
100
AcDbLine
 10
250.3717728184583
 20
346.9112178959913
 30
0.0
 11
221.3717728184547
 21
346.9112178959913
 31
0.0
  0
LINE
  5
313
102
{ACAD_REACTORS
330
2D0
102
}
330
2
100
AcDbEntity
  8
CEN
 48
0.6
100
AcDbLine
 10
261.1197202011626
 20
341.9112178959912
 30
0.0
 11
217.473634017233
 21
341.9112178959912
 31
0.0
  0
LINE
  5
314
102
{ACAD_REACTORS
330
2D0
102
}
330
2
100
AcDbEntity
  8
CEN
  6
BYBLOCK
 62
     0
100
AcDbLine
 10
250.3717728184583
 20
336.9112178959912
 30
0.0
 11
221.3717728184547
 21
336.9112178959912
 31
0.0
  0
DIMENSION
  5
315
330
2
100
AcDbEntity
  8
0
100
AcDbDimension
  2
*D53
 10
187.8573909268926
 20
324.9112178959912
 30
0.0
 11
187.8573909268925
 21
341.9112178959912
 31
0.0
 70
   160
  1
{\f??|b0|i0|c0|p49;%%c}<>
  3
STANDARD
100
AcDbAlignedDimension
 13
250.8717728184565
 23
358.9112178959912
 33
0.0
 14
250.8717728184565
 24
324.9112178959912
 34
0.0
 50
90.0
100
AcDbRotatedDimension
  0
LEADER
  5
322
330
2
100
AcDbEntity
  8
0
100
AcDbLeader
  3
STANDARD
 73
     0
 75
     1
 40
3.0
 41
26.65178571428571
 76
     3
 10
148.952670941735
 20
362.8952366117591
 30
0.0
 10
138.672988096594
 20
383.1085802034795
 30
0.0
 10
136.172988096594
 20
383.1085802034795
 30
0.0
340
2CC
213
0.0
223
-0.416076846235228
233
0.0
1001
ACAD
1000
DSTYLE
1002
{
1070
     5
1000

1070
   342
1005
0
1002
}
  0
MTEXT
  5
323
102
{ACAD_REACTORS
330
376
102
}
330
2
100
AcDbEntity
  8
0
 62
     3
100
AcDbMText
 10
146.6059172859986
 20
540.4479181781489
 30
0.0
 40
3.0
 41
0.0
 71
     9
 72
     1
  1
4-%%c5.5 hole
1001
ACAD
1000
MTEXTBEGIN
1070
    73
1070
     1
1070
    44
1040
1.0
1070
    74
1070
     0
1000
MTEXTEND
  0
LINE
  5
324
330
2
100
AcDbEntity
  8
2
100
AcDbLine
 10
221.1104594333155
 20
475.7605627793481
 30
0.0
 11
215.1104594333155
 21
472.585136298805
 31
0.0
  0
LINE
  5
325
330
2
100
AcDbEntity
  8
2
100
AcDbLine
 10
220.664356443538
 20
476.545562779348
 30
0.0
 11
215.1104594333155
 21
473.7398368371851
 31
0.0
  0
LINE
  5
326
330
2
100
AcDbEntity
  8
2
100
AcDbLine
 10
215.1104594333155
 20
477.4455627793495
 30
0.0
 11
215.1104594333155
 21
470.2355627793481
 31
0.0
  0
LINE
  5
327
330
2
100
AcDbEntity
  8
0
100
AcDbLine
 10
214.6104594333155
 20
476.9455627793495
 30
0.0
 11
214.6104594333155
 21
470.7355627793481
 31
0.0
  0
LINE
  5
328
330
2
100
AcDbEntity
  8
2
100
AcDbLine
 10
221.1104594333155
 20
476.545562779348
 30
0.0
 11
221.1104594333155
 21
471.1355627793482
 31
0.0
  0
LINE
  5
329
330
2
100
AcDbEntity
  8
2
100
AcDbLine
 10
221.1104594333155
 20
474.6058622409691
 30
0.0
 11
215.1104594333155
 21
471.4780109762123
 31
0.0
  0
LINE
  5
32A
330
2
100
AcDbEntity
  8
0
100
AcDbLine
 10
214.6104594333155
 20
471.1355627793482
 30
0.0
 11
221.1104594333155
 21
471.1355627793482
 31
0.0
  0
LINE
  5
32B
330
2
100
AcDbEntity
  8
0
100
AcDbLine
 10
214.6104594333155
 20
470.7355627793481
 30
0.0
 11
215.1104594333155
 21
470.2355627793481
 31
0.0
  0
LINE
  5
32C
330
2
100
AcDbEntity
  8
0
100
AcDbLine
 10
214.6104594333155
 20
476.545562779348
 30
0.0
 11
221.1104594333155
 21
476.545562779348
 31
0.0
  0
LINE
  5
32D
330
2
100
AcDbEntity
  8
0
100
AcDbLine
 10
215.1104594333155
 20
477.4455627793495
 30
0.0
 11
214.6104594333155
 21
476.9455627793495
 31
0.0
  0
LINE
  5
32E
330
2
100
AcDbEntity
  8
0
100
AcDbLine
 10
215.1104594333155
 20
470.2355627793495
 30
0.0
 11
226.1104594333155
 21
470.2355627793495
 31
0.0
  0
LINE
  5
32F
330
2
100
AcDbEntity
  8
0
100
AcDbLine
 10
215.1104594333155
 20
477.4455627793495
 30
0.0
 11
226.1104594333155
 21
477.4455627793495
 31
0.0
  0
ARC
  5
330
330
2
100
AcDbEntity
  8
0
100
AcDbCircle
 10
221.1536463441461
 20
444.3193318902991
 30
0.0
 40
26.81626566478071
100
AcDbArc
 50
79.34799026071575
 51
90.09227342916824
  0
ARC
  5
331
330
2
100
AcDbEntity
  8
0
100
AcDbCircle
 10
221.1536463441516
 20
503.3617936683681
 30
0.0
 40
26.81626566475105
100
AcDbArc
 50
269.9077265708258
 51
280.6520097392901
  0
LINE
  5
332
330
2
100
AcDbEntity
  8
0
100
AcDbLine
 10
228.1104594333155
 20
510.3405627793481
 30
0.0
 11
226.1104594333155
 21
510.3405627793481
 31
0.0
  0
DIMENSION
  5
333
330
2
100
AcDbEntity
  8
0
100
AcDbDimension
  2
*D61
 10
228.1104594333155
 20
533.6970543992893
 30
0.0
 11
221.8604594333155
 21
533.6970543992893
 31
0.0
 70
   160
  3
STANDARD
100
AcDbAlignedDimension
 13
214.6104594333155
 23
476.9455627793481
 33
0.0
 14
228.1104594333155
 24
513.8405627793495
 34
0.0
100
AcDbRotatedDimension
  0
DIMENSION
  5
340
330
2
100
AcDbEntity
  8
0
100
AcDbDimension
  2
*D60
 10
228.1104594333155
 20
523.4030505043793
 30
0.0
 11
219.1104594333155
 21
523.4030505043793
 31
0.0
 70
   160
  3
STANDARD
100
AcDbAlignedDimension
 13
226.1104594333155
 23
510.3405627793481
 33
0.0
 14
228.1104594333155
 24
513.8405627793495
 34
0.0
100
AcDbRotatedDimension
  0
LWPOLYLINE
  5
34F
330
2
100
AcDbEntity
  8
3
100
AcDbPolyline
 90
        4
 70
     1
 43
0.0
 10
121.6182870490029
 20
529.1285666459043
 10
124.9182870490003
 20
529.1285666459043
 10
124.9182870490003
 20
532.6285666459043
 10
121.6182870490029
 20
532.6285666459043
  0
LINE
  5
350
330
2
100
AcDbEntity
  8
CEN
 48
0.6
100
AcDbLine
 10
82.8405212363541
 20
473.8405627793481
 30
0.0
 11
170.9945006875441
 21
473.8405627793481
 31
0.0
  0
LINE
  5
351
330
2
100
AcDbEntity
  8
0
 48
0.6
100
AcDbLine
 10
91.91751096195003
 20
513.8405627793481
 30
0.0
 11
161.91751096195
 21
513.8405627793495
 31
0.0
  0
DIMENSION
  5
352
102
{ACAD_XDICTIONARY
360
353
102
}
102
{ACAD_REACTORS
330
354
102
}
330
2
100
AcDbEntity
  8
0
100
AcDbDimension
  2
*D59
 10
166.91751096195
 20
528.3151294290883
 30
0.0
 11
128.5262323465903
 21
528.3151294290883
 31
0.0
 70
   160
  3
STANDARD
100
AcDbAlignedDimension
 13
86.91751096195003
 23
508.8405627793495
 33
0.0
 14
166.91751096195
 24
508.8405627793495
 34
0.0
100
AcDbRotatedDimension
  0
ARC
  5
361
102
{ACAD_REACTORS
330
354
102
}
330
2
100
AcDbEntity
  8
0
 48
0.6
100
AcDbCircle
 10
91.91751096195003
 20
508.8405627793495
 30
0.0
 40
5.0
100
AcDbArc
 50
90.0
 51
180.0
  0
CIRCLE
  5
362
330
2
100
AcDbEntity
  8
0
 48
0.6
100
AcDbCircle
 10
126.91751096195
 20
473.8405627793481
 30
0.0
 40
2.460898870766981
  0
CIRCLE
  5
363
330
2
100
AcDbEntity
  8
0
 48
0.6
100
AcDbCircle
 10
126.91751096195
 20
473.8405627793481
 30
0.0
 40
3.604999999999998
  0
ARC
  5
364
102
{ACAD_REACTORS
330
354
102
}
330
2
100
AcDbEntity
  8
0
 48
0.6
100
AcDbCircle
 10
161.91751096195
 20
508.8405627793495
 30
0.0
 40
5.0
100
AcDbArc
 50
0.0
 51
90.0
  0
LINE
  5
365
330
2
100
AcDbEntity
  8
CEN
 48
0.6
100
AcDbLine
 10
269.2236925776942
 20
473.8405627793481
 30
0.0
 11
210.4666656326808
 21
473.8405627793481
 31
0.0
  0
LINE
  5
366
102
{ACAD_REACTORS
330
369
102
}
330
2
100
AcDbEntity
  8
0
100
AcDbLine
 10
228.1104594333155
 20
513.8405627793495
 30
0.0
 11
260.1104594333155
 21
513.8405627793495
 31
0.0
  0
DIMENSION
  5
367
102
{ACAD_XDICTIONARY
360
368
102
}
102
{ACAD_REACTORS
330
369
102
}
330
2
100
AcDbEntity
  8
0
100
AcDbDimension
  2
*D58
 10
260.1104594333155
 20
533.6970543992893
 30
0.0
 11
244.1104594333155
 21
533.6970543992893
 31
0.0
 70
   160
  3
STANDARD
100
AcDbAlignedDimension
 13
228.1104594333155
 23
513.8405627793495
 33
0.0
 14
260.1104594333155
 24
513.8405627793495
 34
0.0
100
AcDbRotatedDimension
  0
LEADER
  5
376
330
2
100
AcDbEntity
  8
0
100
AcDbLeader
  3
STANDARD
 73
     0
 75
     1
 40
3.0
 41
26.65178571428571
 76
     3
 10
160.385600131136
 20
509.8245814951142
 30
0.0
 10
150.1059172859986
 20
539.0318413319136
 30
0.0
 10
147.6059172859986
 20
539.0318413319136
 30
0.0
340
323
213
0.0
223
-0.416076846235228
233
0.0
1001
ACAD
1000
DSTYLE
1002
{
1070
     5
1000

1070
   342
1005
0
1002
}
  0
INSERT
  5
377
330
2
100
AcDbEntity
  8
0
100
AcDbBlockReference
  2
5
 10
48.02819079202709
 20
99.74527162054483
 30
0.0
  0
LINE
  5
378
330
2
100
AcDbEntity
  8
CEN
 48
0.6
100
AcDbLine
 10
3.951201066431167
 20
99.74527162054437
 30
0.0
 11
92.10518051762482
 21
99.74527162054437
 31
0.0
  0
LINE
  5
379
330
2
100
AcDbEntity
  8
CEN
 48
0.6
100
AcDbLine
 10
3.951201066431167
 20
99.74527162054437
 30
0.0
 11
92.10518051762482
 21
99.74527162054437
 31
0.0
  0
ENDSEC
  0
SECTION
  2
OBJECTS
  0
DICTIONARY
  5
9
330
0
100
AcDbDictionary
  3
ACAD_GROUP
350
98
  3
ACAD_LAYOUT
350
D
  3
ACAD_MLINESTYLE
350
99
  3
ACAD_PLOTSETTINGS
350
9A
  3
ACAD_PLOTSTYLENAME
350
8
  3
ACDBHEADERROUNDTRIPXREC
350
501
  3
ACDBVARIABLEDICTIONARY
350
37A
  0
DICTIONARY
  5
15
330
14
100
AcDbDictionary
280
     1
  3
ACAD_LAYERFILTERS
360
16
  3
ACAD_LAYERSTATES
360
89
  0
DICTIONARY
  5
3
330
2
100
AcDbDictionary
280
     1
  3
ACAD_LAYOUTSELFREF
360
522
  0
DICTIONARY
  5
F
330
E
100
AcDbDictionary
280
     1
  3
ACAD_LAYOUTSELFREF
360
523
  0
DICTIONARY
  5
BD
330
BC
100
AcDbDictionary
280
     1
  3
ACAD_DIMASSOC
360
BE
  0
DICTIONARY
  5
A1
330
A0
100
AcDbDictionary
280
     1
  3
ACAD_DIMASSOC
360
A2
  0
DICTIONARY
  5
D6
330
D5
100
AcDbDictionary
280
     1
  3
ACAD_DIMASSOC
360
D7
  0
DICTIONARY
  5
103
330
102
100
AcDbDictionary
280
     1
  3
ACAD_DIMASSOC
360
104
  0
DICTIONARY
  5
166
330
165
100
AcDbDictionary
280
     1
  3
ACAD_DIMASSOC
360
167
  0
DICTIONARY
  5
1A5
330
1A4
100
AcDbDictionary
280
     1
  3
ACAD_DIMASSOC
360
1A6
  0
DICTIONARY
  5
1C3
330
1C2
100
AcDbDictionary
280
     1
  3
ACAD_DIMASSOC
360
1C4
  0
DICTIONARY
  5
1D4
330
1D3
100
AcDbDictionary
280
     1
  3
ACAD_DIMASSOC
360
1D5
  0
DICTIONARY
  5
1E5
330
1E4
100
AcDbDictionary
280
     1
  3
ACAD_DIMASSOC
360
1E6
  0
DICTIONARY
  5
210
330
20F
100
AcDbDictionary
280
     1
  3
ACAD_DIMASSOC
360
211
  0
DICTIONARY
  5
22F
330
22E
100
AcDbDictionary
280
     1
  3
ACAD_DIMASSOC
360
230
  0
DICTIONARY
  5
24F
330
24E
100
AcDbDictionary
280
     1
  3
ACAD_DIMASSOC
360
250
  0
DICTIONARY
  5
266
330
265
100
AcDbDictionary
280
     1
  3
ACAD_DIMASSOC
360
267
  0
DICTIONARY
  5
277
330
276
100
AcDbDictionary
280
     1
  3
ACAD_DIMASSOC
360
278
  0
DICTIONARY
  5
287
330
286
100
AcDbDictionary
280
     1
  3
ACAD_DIMASSOC
360
288
  0
DICTIONARY
  5
2CF
330
2CE
100
AcDbDictionary
280
     1
  3
ACAD_DIMASSOC
360
2D0
  0
DICTIONARY
  5
2DE
330
2DD
100
AcDbDictionary
280
     1
  3
ACAD_DIMASSOC
360
2DF
  0
DICTIONARY
  5
303
330
302
100
AcDbDictionary
280
     1
  3
ACAD_DIMASSOC
360
304
  0
DICTIONARY
  5
353
330
352
100
AcDbDictionary
280
     1
  3
ACAD_DIMASSOC
360
354
  0
DICTIONARY
  5
368
330
367
100
AcDbDictionary
280
     1
  3
ACAD_DIMASSOC
360
369
  0
DICTIONARY
  5
98
102
{ACAD_REACTORS
330
9
102
}
330
9
100
AcDbDictionary
  0
DICTIONARY
  5
D
102
{ACAD_REACTORS
330
9
102
}
330
9
100
AcDbDictionary
  0
DICTIONARY
  5
99
102
{ACAD_REACTORS
330
9
102
}
330
9
100
AcDbDictionary
  3
STANDARD
350
9B
  0
DICTIONARY
  5
9A
102
{ACAD_REACTORS
330
9
102
}
330
9
100
AcDbDictionary
  0
ACDBDICTIONARYWDFLT
  5
8
102
{ACAD_REACTORS
330
9
102
}
330
9
100
AcDbDictionary
281
     1
  3
Normal
350
7
100
AcDbDictionaryWithDefault
340
7
  0
DICTIONARY
  5
501
102
{ACAD_REACTORS
330
9
102
}
330
9
100
AcDbDictionary
  3
CEPSNTYPE
350
50B
  3
DIMSTYLEDATA
350
50F
  3
FINGERPRINTGUID
350
50C
  3
HYPERLINKBASE
350
504
  3
INSUNITS
350
50A
  3
LAYOUTDICT
350
506
  3
LWETCUNION
350
509
  3
PLOTSETDICT
350
507
  3
PLOTSTYLNAMDICT
350
508
  3
PSVPSCALE
350
50E
  3
PUCSBASE
350
512
  3
PUCSORGBACK
350
518
  3
PUCSORGBOTTOM
350
514
  3
PUCSORGFRONT
350
517
  3
PUCSORGLEFT
350
515
  3
PUCSORGRIGHT
350
516
  3
PUCSORGTOP
350
513
  3
PUCSORTHOREF
350
510
  3
PUCSORTHOVIEW
350
511
  3
STYLESHEET
350
505
  3
TSTACKALIGN
350
502
  3
TSTACKSIZE
350
503
  3
UCSBASE
350
51B
  3
UCSORGBACK
350
521
  3
UCSORGBOTTOM
350
51D
  3
UCSORGFRONT
350
520
  3
UCSORGLEFT
350
51E
  3
UCSORGRIGHT
350
51F
  3
UCSORGTOP
350
51C
  3
UCSORTHOREF
350
519
  3
UCSORTHOVIEW
350
51A
  3
VERSIONGUID
350
50D
  0
DICTIONARY
  5
37A
102
{ACAD_REACTORS
330
9
102
}
330
9
100
AcDbDictionary
  3
DIMASSOC
350
37C
  3
HIDETEXT
350
37B
  0
DICTIONARY
  5
16
102
{ACAD_REACTORS
330
15
102
}
330
15
100
AcDbDictionary
280
     1
  3
$LAYERS
360
17
  3
-_UND_0
360
18
  3
-PEGC
360
19
  3
101
360
1A
  3
102
360
1B
  3
1DUC
360
1C
  3
1EQ
360
1D
  3
1TUB
360
1E
  3
2
360
1F
  3
2000
360
20
  3
50
360
21
  3
58J
360
22
  3
65
360
23
  3
AA
360
24
  3
ACABADOS
360
25
  3
AGUA_Y_DREN
360
26
  3
AIRE
360
27
  3
ALLE_AUS
360
28
  3
ALLES_MIT_S
360
29
  3
AMARILLO
360
2A
  3
APAGADOS
360
2B
  3
ARR
360
2C
  3
BA
360
2D
  3
BACKS
360
2E
  3
BASE
360
2F
  3
BLOQ_INUTIL
360
30
  3
CADKON
360
31
  3
CARPINTERIA
360
32
  3
CERRADOS
360
33
  3
COL
360
34
  3
COLOR
360
35
  3
COLOR_250
360
36
  3
COLORES
360
37
  3
CONGELADOS
360
38
  3
CONJUNTO
360
39
  3
D1
360
3A
  3
DA_
360
3B
  3
DET-
360
3C
  3
DOR-H
360
3D
  3
EJES
360
3E
  3
ELECTRICO
360
3F
  3
F1
360
40
  3
FROZEN
360
41
  3
GRID
360
42
  3
GRIDTXT
360
43
  3
HATCH
360
44
  3
HCAD
360
45
  3
INSTALACIONES
360
46
  3
JIZNI
360
47
  3
KCK
360
48
  3
KKK
360
49
  3
LAY
360
4A
  3
LAYER-0
360
4E
  3
LAYER-1
360
4F
  3
LAYER_1_UND_0
360
4B
  3
LAYER_2_UND_0
360
4C
  3
LAYER_9_UND_0_SCHRAFFUR
360
4D
  3
LOCK
360
50
  3
LOCKED
360
51
  3
LOTES
360
52
  3
LUNAR
360
53
  3
LUNAR2
360
54
  3
M
360
55
  3
MIS_LAYERS
360
56
  3
MRKCK
360
57
  3
NECADKON
360
58
  3
NI_LH
360
59
  3
NI_RH
360
5A
  3
NUM
360
5B
  3
OFF
360
5C
  3
ON
360
5D
  3
PBASE
360
5E
  3
PEGC
360
5F
  3
PEGCT
360
60
  3
PFRAME
360
61
  3
PGRID
360
62
  3
PGRIDT
360
63
  3
PLAFONES
360
64
  3
PLANTAS
360
65
  3
PLOT
360
66
  3
PRENDIDAS
360
67
  3
PRENDIDOS
360
68
  3
PRINT
360
69
  3
PT
360
6A
  3
PTH
360
6B
  3
PVGRID
360
6C
  3
RED_DE_AGUA_POTABLE
360
6D
  3
RED_DE_ENERGIA_ELECTRICA
360
6E
  3
SEVERNI
360
6F
  3
SHIN
360
70
  3
SHOW_ALL_LAYER
360
71
  3
SIN
360
72
  3
STORAGE-CART
360
73
  3
T
360
74
  3
TEXTOS
360
75
  3
TEXTURAS
360
76
  3
TUBERIAS
360
77
  3
UNFRZ
360
78
  3
V\U+0160ECHNY_NEPOU\U+017D\U+00CDVAN\U+00C9
360
79
  3
VA
360
7A
  3
VENTILACI\U+00D3N
360
7B
  3
VYHODNI
360
7C
  3
YO
360
7D
  3
ZAPADNI
360
7E
  3
사용
360
7F
  3
신규
360
80
  3
실박스
360
81
  3
우리토목
360
82
  3
주차
360
83
  3
지상정밀
360
84
  3
쩜선
360
85
  3
플로터_작업층
360
86
  3
현재_작업층
360
87
  3
현재_잠금
360
88
  0
DICTIONARY
  5
89
102
{ACAD_REACTORS
330
15
102
}
330
15
100
AcDbDictionary
  0
XRECORD
  5
522
102
{ACAD_REACTORS
330
3
102
}
330
3
100
AcDbXrecord
340
2
  0
XRECORD
  5
523
102
{ACAD_REACTORS
330
F
102
}
330
F
100
AcDbXrecord
340
E
  0
DIMASSOC
  5
BE
102
{ACAD_REACTORS
330
BD
102
}
330
BD
100
AcDbDimAssoc
330
BC
 90
        2
 70
     0
 71
     0
  1
AcDbOsnapPointRef
 72
     3
331
BB
 73
     2
 91
        0
 40
0.0
 10
-0.0000000000009095
 20
0.0
 30
0.0
 75
     0
  0
DIMASSOC
  5
A2
102
{ACAD_REACTORS
330
A1
102
}
330
A1
100
AcDbDimAssoc
330
A0
 90
        3
 70
     0
 71
     0
  1
AcDbOsnapPointRef
 72
     1
331
9E
 73
     2
 91
        0
 40
1.0
 10
226.1104594333155
 20
437.3405627793481
 30
0.0
 75
     0
  1
AcDbOsnapPointRef
 72
    13
331
9E
 73
     2
 91
        0
 40
0.0
 10
226.1104594333155
 20
510.3405627793481
 30
0.0
 75
     0
  0
DIMASSOC
  5
D7
102
{ACAD_REACTORS
330
D6
102
}
330
D6
100
AcDbDimAssoc
330
D5
 90
        3
 70
     0
 71
     0
  1
AcDbOsnapPointRef
 72
    13
331
196
 73
     2
 91
        0
 40
0.0
 10
347.6069463284929
 20
139.7452716205443
 30
0.0
 75
     0
  1
AcDbOsnapPointRef
 72
    13
331
117
 73
     2
 91
        0
 40
0.0
 10
347.6069463284929
 20
59.745271620543
 30
0.0
 75
     0
  0
DIMASSOC
  5
104
102
{ACAD_REACTORS
330
103
102
}
330
103
100
AcDbDimAssoc
330
102
 90
       15
 70
     0
 71
     0
  1
AcDbOsnapPointRef
 72
    13
331
FE
 73
     2
 91
        0
 40
0.0
 10
64.59673328694953
 20
59.74527162054437
 30
0.0
 75
     0
  1
AcDbOsnapPointRef
 72
     1
331
FE
 73
     2
 91
        0
 40
1.0
 10
48.02819079202709
 20
99.74527162054437
 30
0.0
 75
     0
  1
AcDbOsnapPointRef
 72
    13
331
FF
 73
     2
 91
        0
 40
0.0
 10
48.02819079202709
 20
52.57314841214839
 30
0.0
 75
     0
  1
AcDbOsnapPointRef
 72
     1
331
FF
 73
     2
 91
        0
 40
1.0
 10
48.02819079202709
 20
146.9173948289421
 30
0.0
 75
     0
  0
DIMASSOC
  5
167
102
{ACAD_REACTORS
330
166
102
}
330
166
100
AcDbDimAssoc
330
165
 90
        2
 70
     0
 71
     0
  1
AcDbOsnapPointRef
 72
     1
331
2F9
 73
     2
 91
        0
 40
1.0
 10
155.7186522259653
 20
291.9112178959912
 30
0.0
 75
     0
  0
DIMASSOC
  5
1A6
102
{ACAD_REACTORS
330
1A5
102
}
330
1A5
100
AcDbDimAssoc
330
1A4
 90
        3
 70
     0
 71
     0
  1
AcDbOsnapPointRef
 72
     2
331
1F8
 73
     2
 91
        0
 40
3.141592653589792
 10
44.0201488131388
 20
220.7495456446563
 30
0.0
 75
     0
  1
AcDbOsnapPointRef
 72
     1
331
1F5
 73
     2
 91
        0
 40
1.0
 10
69.0201488131388
 20
222.7495456446563
 30
0.0
 75
     0
  0
DIMASSOC
  5
1C4
102
{ACAD_REACTORS
330
1C3
102
}
330
1C3
100
AcDbDimAssoc
330
1C2
 90
        3
 70
     0
 71
     0
  1
AcDbOsnapPointRef
 72
     1
331
1FC
 73
     2
 91
        0
 40
1.0
 10
135.1241818403978
 20
221.6492503576592
 30
0.0
 75
     0
  1
AcDbOsnapPointRef
 72
     5
331
201
 73
     2
 91
        0
 40
1.570796326794896
 10
133.1241818403978
 20
224.1492503576592
 30
0.0
 75
     0
  0
DIMASSOC
  5
1D5
102
{ACAD_REACTORS
330
1D4
102
}
330
1D4
100
AcDbDimAssoc
330
1D3
 90
        3
 70
     0
 71
     0
  1
AcDbOsnapPointRef
 72
    13
331
1FF
 73
     2
 91
        0
 40
0.0
 10
86.1908020998544
 20
222.7495456446563
 30
0.0
 75
     0
  1
AcDbOsnapPointRef
 72
    13
331
200
 73
     2
 91
        0
 40
0.0
 10
90.1908020998526
 20
222.7495456446563
 30
0.0
 75
     0
  0
DIMASSOC
  5
1E6
102
{ACAD_REACTORS
330
1E5
102
}
330
1E5
100
AcDbDimAssoc
330
1E4
 90
        3
 70
     0
 71
     0
  1
AcDbOsnapPointRef
 72
     1
331
1FB
 73
     2
 91
        0
 40
1.0
 10
131.1241818403959
 20
223.7318260526153
 30
0.0
 75
     0
  1
AcDbOsnapPointRef
 72
     1
331
1FA
 73
     2
 91
        0
 40
1.0
 10
135.1241818403978
 20
223.7318260526153
 30
0.0
 75
     0
  0
DIMASSOC
  5
211
102
{ACAD_REACTORS
330
210
102
}
330
210
100
AcDbDimAssoc
330
20F
 90
        3
 70
     0
 71
     0
  1
AcDbOsnapPointRef
 72
    13
331
E8
 73
     2
 91
        0
 40
0.0
 10
222.6069463284929
 20
139.2452716205448
 30
0.0
 75
     0
  1
AcDbOsnapPointRef
 72
     1
331
220
 73
     2
 91
        0
 40
1.0
 10
229.6069463284948
 20
138.3440089620735
 30
0.0
 75
     0
  0
DIMASSOC
  5
230
102
{ACAD_REACTORS
330
22F
102
}
330
22F
100
AcDbDimAssoc
330
22E
 90
        1
 70
     0
 71
     0
  1
AcDbOsnapPointRef
 72
     1
331
263
 73
     2
 91
        0
 40
1.0
 10
148.1069463284948
 20
119.7452716205443
 30
0.0
 75
     0
  0
DIMASSOC
  5
250
102
{ACAD_REACTORS
330
24F
102
}
330
24F
100
AcDbDimAssoc
330
24E
 90
        3
 70
     0
 71
     0
  1
AcDbOsnapPointRef
 72
    13
331
25F
 73
     2
 91
        0
 40
0.0
 10
173.1069463284966
 20
119.7452716205448
 30
0.0
 75
     0
  1
AcDbOsnapPointRef
 72
     1
331
263
 73
     2
 91
        0
 40
1.0
 10
148.1069463284948
 20
119.7452716205443
 30
0.0
 75
     0
  0
DIMASSOC
  5
267
102
{ACAD_REACTORS
330
266
102
}
330
266
100
AcDbDimAssoc
330
265
 90
        3
 70
     0
 71
     0
  1
AcDbOsnapPointRef
 72
     1
331
285
 73
     2
 91
        0
 40
1.0
 10
148.1069463284948
 20
109.7452716205448
 30
0.0
 75
     0
  1
AcDbOsnapPointRef
 72
     6
331
285
 73
     2
 91
        0
 40
0.0000000000000114
 10
148.1069463284948
 20
119.7452716205443
 30
0.0
332
263
 74
     2
 92
        0
 75
     0
  0
DIMASSOC
  5
278
102
{ACAD_REACTORS
330
277
102
}
330
277
100
AcDbDimAssoc
330
276
 90
        1
 70
     0
 71
     0
  1
AcDbOsnapPointRef
 72
     1
331
264
 73
     2
 91
        0
 40
1.0
 10
144.2088075272659
 20
114.7452716205443
 30
0.0
 75
     0
  0
DIMASSOC
  5
288
102
{ACAD_REACTORS
330
287
102
}
330
287
100
AcDbDimAssoc
330
286
 90
        3
 70
     0
 71
     0
  1
AcDbOsnapPointRef
 72
     1
331
297
 73
     2
 91
        0
 40
3.141592653589792
 10
8.028190792028908
 20
134.7452716205448
 30
0.0
 75
     0
  1
AcDbOsnapPointRef
 72
    13
331
295
 73
     2
 91
        0
 40
0.0
 10
88.02819079202709
 20
134.7452716205448
 30
0.0
 75
     0
  0
DIMASSOC
  5
2D0
102
{ACAD_REACTORS
330
2CF
102
}
330
2CF
100
AcDbDimAssoc
330
2CE
 90
        3
 70
     0
 71
     0
  1
AcDbOsnapPointRef
 72
     1
331
313
 73
     2
 91
        0
 40
1.0
 10
217.473634017233
 20
341.9112178959912
 30
0.0
 75
     0
  1
AcDbOsnapPointRef
 72
    13
331
2A2
 73
     2
 91
        0
 40
0.0
 10
209.7640996843547
 20
326.9112178959922
 30
0.0
 75
     0
  0
DIMASSOC
  5
2DF
102
{ACAD_REACTORS
330
2DE
102
}
330
2DE
100
AcDbDimAssoc
330
2DD
 90
        3
 70
     0
 71
     0
  1
AcDbOsnapPointRef
 72
     1
331
2CD
 73
     2
 91
        0
 40
1.0
 10
221.3717728184547
 20
336.9112178959912
 30
0.0
 75
     0
  1
AcDbOsnapPointRef
 72
     6
331
2CD
 73
     2
 91
        0
 40
0.0000000000000114
 10
221.3717728184547
 20
346.9112178959913
 30
0.0
332
312
 74
     2
 92
        0
 75
     0
  0
DIMASSOC
  5
304
102
{ACAD_REACTORS
330
303
102
}
330
303
100
AcDbDimAssoc
330
302
 90
        3
 70
     0
 71
     0
  1
AcDbOsnapPointRef
 72
    13
331
2BA
 73
     2
 91
        0
 40
0.0
 10
246.3717728184565
 20
346.9112178959913
 30
0.0
 75
     0
  1
AcDbOsnapPointRef
 72
     1
331
312
 73
     2
 91
        0
 40
1.0
 10
221.3717728184547
 20
346.9112178959913
 30
0.0
 75
     0
  0
DIMASSOC
  5
354
102
{ACAD_REACTORS
330
353
102
}
330
353
100
AcDbDimAssoc
330
352
 90
        3
 70
     0
 71
     0
  1
AcDbOsnapPointRef
 72
     1
331
361
 73
     2
 91
        0
 40
3.141592653589792
 10
86.91751096195003
 20
508.8405627793495
 30
0.0
 75
     0
  1
AcDbOsnapPointRef
 72
    13
331
364
 73
     2
 91
        0
 40
0.0
 10
166.91751096195
 20
508.8405627793495
 30
0.0
 75
     0
  0
DIMASSOC
  5
369
102
{ACAD_REACTORS
330
368
102
}
330
368
100
AcDbDimAssoc
330
367
 90
        3
 70
     0
 71
     0
  1
AcDbOsnapPointRef
 72
    13
331
366
 73
     2
 91
        0
 40
0.0
 10
228.1104594333155
 20
513.8405627793495
 30
0.0
 75
     0
  1
AcDbOsnapPointRef
 72
     1
331
366
 73
     2
 91
        0
 40
1.0
 10
260.1104594333155
 20
513.8405627793495
 30
0.0
 75
     0
  0
MLINESTYLE
  5
9B
102
{ACAD_REACTORS
330
99
102
}
330
99
100
AcDbMlineStyle
  2
STANDARD
 70
     0
  3

 62
   256
 51
90.0
 52
90.0
 71
     2
 49
0.5
 62
   256
  6
BYLAYER
 49
-0.5
 62
   256
  6
BYLAYER
  0
ACDBPLACEHOLDER
  5
7
102
{ACAD_REACTORS
330
8
102
}
330
8
100
AcDbPlaceHolder
280
     0
  0
XRECORD
  5
50B
102
{ACAD_REACTORS
330
501
102
}
330
501
100
AcDbXrecord
 90
        0
  0
XRECORD
  5
50F
102
{ACAD_REACTORS
330
501
102
}
330
501
100
AcDbXrecord
1000
DSTYLE
1002
{
1070
    79
 70
     2
1070
   179
 70
     1
1070
   289
 70
     0
1002
}
  0
XRECORD
  5
50C
102
{ACAD_REACTORS
330
501
102
}
330
501
100
AcDbXrecord
  1
{FDEAD578-A652-11D2-9A35-0060089B3A3F}
  0
XRECORD
  5
504
102
{ACAD_REACTORS
330
501
102
}
330
501
100
AcDbXrecord
  1

  0
XRECORD
  5
50A
102
{ACAD_REACTORS
330
501
102
}
330
501
100
AcDbXrecord
 90
        4
  0
XRECORD
  5
506
102
{ACAD_REACTORS
330
501
102
}
330
501
100
AcDbXrecord
340
D
  0
XRECORD
  5
509
102
{ACAD_REACTORS
330
501
102
}
330
501
100
AcDbXrecord
 90
    10781
  0
XRECORD
  5
507
102
{ACAD_REACTORS
330
501
102
}
330
501
100
AcDbXrecord
340
9A
  0
XRECORD
  5
508
102
{ACAD_REACTORS
330
501
102
}
330
501
100
AcDbXrecord
340
8
  0
XRECORD
  5
50E
102
{ACAD_REACTORS
330
501
102
}
330
501
100
AcDbXrecord
 40
0.0
  0
XRECORD
  5
512
102
{ACAD_REACTORS
330
501
102
}
330
501
100
AcDbXrecord
340
0
  0
XRECORD
  5
518
102
{ACAD_REACTORS
330
501
102
}
330
501
100
AcDbXrecord
 10
0.0
 20
0.0
 30
0.0
  0
XRECORD
  5
514
102
{ACAD_REACTORS
330
501
102
}
330
501
100
AcDbXrecord
 10
0.0
 20
0.0
 30
0.0
  0
XRECORD
  5
517
102
{ACAD_REACTORS
330
501
102
}
330
501
100
AcDbXrecord
 10
0.0
 20
0.0
 30
0.0
  0
XRECORD
  5
515
102
{ACAD_REACTORS
330
501
102
}
330
501
100
AcDbXrecord
 10
0.0
 20
0.0
 30
0.0
  0
XRECORD
  5
516
102
{ACAD_REACTORS
330
501
102
}
330
501
100
AcDbXrecord
 10
0.0
 20
0.0
 30
0.0
  0
XRECORD
  5
513
102
{ACAD_REACTORS
330
501
102
}
330
501
100
AcDbXrecord
 10
0.0
 20
0.0
 30
0.0
  0
XRECORD
  5
510
102
{ACAD_REACTORS
330
501
102
}
330
501
100
AcDbXrecord
340
0
  0
XRECORD
  5
511
102
{ACAD_REACTORS
330
501
102
}
330
501
100
AcDbXrecord
 70
     0
  0
XRECORD
  5
505
102
{ACAD_REACTORS
330
501
102
}
330
501
100
AcDbXrecord
  1

  0
XRECORD
  5
502
102
{ACAD_REACTORS
330
501
102
}
330
501
100
AcDbXrecord
 90
        1
  0
XRECORD
  5
503
102
{ACAD_REACTORS
330
501
102
}
330
501
100
AcDbXrecord
 90
       70
  0
XRECORD
  5
51B
102
{ACAD_REACTORS
330
501
102
}
330
501
100
AcDbXrecord
340
0
  0
XRECORD
  5
521
102
{ACAD_REACTORS
330
501
102
}
330
501
100
AcDbXrecord
 10
0.0
 20
0.0
 30
0.0
  0
XRECORD
  5
51D
102
{ACAD_REACTORS
330
501
102
}
330
501
100
AcDbXrecord
 10
0.0
 20
0.0
 30
0.0
  0
XRECORD
  5
520
102
{ACAD_REACTORS
330
501
102
}
330
501
100
AcDbXrecord
 10
0.0
 20
0.0
 30
0.0
  0
XRECORD
  5
51E
102
{ACAD_REACTORS
330
501
102
}
330
501
100
AcDbXrecord
 10
0.0
 20
0.0
 30
0.0
  0
XRECORD
  5
51F
102
{ACAD_REACTORS
330
501
102
}
330
501
100
AcDbXrecord
 10
0.0
 20
0.0
 30
0.0
  0
XRECORD
  5
51C
102
{ACAD_REACTORS
330
501
102
}
330
501
100
AcDbXrecord
 10
0.0
 20
0.0
 30
0.0
  0
XRECORD
  5
519
102
{ACAD_REACTORS
330
501
102
}
330
501
100
AcDbXrecord
340
0
  0
XRECORD
  5
51A
102
{ACAD_REACTORS
330
501
102
}
330
501
100
AcDbXrecord
 70
     0
  0
XRECORD
  5
50D
102
{ACAD_REACTORS
330
501
102
}
330
501
100
AcDbXrecord
  1
{CC4C2844-F5BA-416D-97F4-0F1DC6D14D9A}
  0
DICTIONARYVAR
  5
37C
102
{ACAD_REACTORS
330
37A
102
}
330
37A
100
DictionaryVariables
280
     0
  1
2
  0
DICTIONARYVAR
  5
37B
102
{ACAD_REACTORS
330
37A
102
}
330
37A
100
DictionaryVariables
280
     0
  1
1
  0
XRECORD
  5
17
102
{ACAD_REACTORS
330
16
102
}
330
16
100
AcDbXrecord
  1
$layers
  1
*
  1
*
  1
*
 70
     0
  1
*
  1
*
  0
XRECORD
  5
18
102
{ACAD_REACTORS
330
16
102
}
330
16
100
AcDbXrecord
  1
- und 0
  1
-*,0
  1
*
  1
*
 70
     0
  1
*
  1
*
  0
XRECORD
  5
19
102
{ACAD_REACTORS
330
16
102
}
330
16
100
AcDbXrecord
  1
-pegc
  1
*-pegc
  1
*
  1
*
 70
     0
  1
*
  1
*
  0
XRECORD
  5
1A
102
{ACAD_REACTORS
330
16
102
}
330
16
100
AcDbXrecord
  1
101
  1
*101
  1
*
  1
*
 70
   256
  1
*
  1
*
  0
XRECORD
  5
1B
102
{ACAD_REACTORS
330
16
102
}
330
16
100
AcDbXrecord
  1
102
  1
102*
  1
*
  1
*
 70
     0
  1
*
  1
*
  0
XRECORD
  5
1C
102
{ACAD_REACTORS
330
16
102
}
330
16
100
AcDbXrecord
  1
1duc
  1
*1duc*
  1
*
  1
*
 70
     0
  1
*
  1
*
  0
XRECORD
  5
1D
102
{ACAD_REACTORS
330
16
102
}
330
16
100
AcDbXrecord
  1
1eq
  1
*1eq*
  1
*
  1
*
 70
     0
  1
*
  1
*
  0
XRECORD
  5
1E
102
{ACAD_REACTORS
330
16
102
}
330
16
100
AcDbXrecord
  1
1tub
  1
*1t*
  1
*
  1
*
 70
     0
  1
*
  1
*
  0
XRECORD
  5
1F
102
{ACAD_REACTORS
330
16
102
}
330
16
100
AcDbXrecord
  1
2
  1
*
  1
2
  1
*
 70
     0
  1
*
  1
*
  0
XRECORD
  5
20
102
{ACAD_REACTORS
330
16
102
}
330
16
100
AcDbXrecord
  1
2000
  1
2000*
  1
*
  1
*
 70
     0
  1
*
  1
*
  0
XRECORD
  5
21
102
{ACAD_REACTORS
330
16
102
}
330
16
100
AcDbXrecord
  1
50
  1
*-50
  1
*
  1
*
 70
     0
  1
*
  1
*
  0
XRECORD
  5
22
102
{ACAD_REACTORS
330
16
102
}
330
16
100
AcDbXrecord
  1
58J
  1
*58*
  1
*
  1
*
 70
     0
  1
*
  1
*
  0
XRECORD
  5
23
102
{ACAD_REACTORS
330
16
102
}
330
16
100
AcDbXrecord
  1
65
  1
*65
  1
*
  1
*
 70
     0
  1
*
  1
*
  0
XRECORD
  5
24
102
{ACAD_REACTORS
330
16
102
}
330
16
100
AcDbXrecord
  1
aa
  1
aa*
  1
*
  1
*
 70
     0
  1
*
  1
*
  0
XRECORD
  5
25
102
{ACAD_REACTORS
330
16
102
}
330
16
100
AcDbXrecord
  1
acabados
  1
a-*
  1
*
  1
*
 70
     5
  1
*
  1
*
  0
XRECORD
  5
26
102
{ACAD_REACTORS
330
16
102
}
330
16
100
AcDbXrecord
  1
AGUA Y DREN
  1
A-DS-*
  1
*
  1
*
 70
     0
  1
*
  1
*
  0
XRECORD
  5
27
102
{ACAD_REACTORS
330
16
102
}
330
16
100
AcDbXrecord
  1
Aire
  1
*
  1
*
  1
*
 70
     0
  1
*
  1
*
  0
XRECORD
  5
28
102
{ACAD_REACTORS
330
16
102
}
330
16
100
AcDbXrecord
  1
alle aus
  1
99999999999
  1
*
  1
*
 70
     0
  1
*
  1
*
  0
XRECORD
  5
29
102
{ACAD_REACTORS
330
16
102
}
330
16
100
AcDbXrecord
  1
Alles mit S
  1
s*
  1
*
  1
*
 70
     0
  1
*
  1
*
  0
XRECORD
  5
2A
102
{ACAD_REACTORS
330
16
102
}
330
16
100
AcDbXrecord
  1
amarillo
  1
*
  1
yellow
  1
*
 70
     0
  1
*
  1
*
  0
XRECORD
  5
2B
102
{ACAD_REACTORS
330
16
102
}
330
16
100
AcDbXrecord
  1
APAGADOS
  1
*
  1
*
  1
*
 70
     4
  1
*
  1
*
  0
XRECORD
  5
2C
102
{ACAD_REACTORS
330
16
102
}
330
16
100
AcDbXrecord
  1
ARR
  1
ARR*
  1
*
  1
*
 70
     0
  1
*
  1
*
  0
XRECORD
  5
2D
102
{ACAD_REACTORS
330
16
102
}
330
16
100
AcDbXrecord
  1
ba
  1
*
  1
*
  1
*
 70
     0
  1
*
  1
*
  0
XRECORD
  5
2E
102
{ACAD_REACTORS
330
16
102
}
330
16
100
AcDbXrecord
  1
BACKS
  1
*-H
  1
*
  1
*
 70
     0
  1
*
  1
*
  0
XRECORD
  5
2F
102
{ACAD_REACTORS
330
16
102
}
330
16
100
AcDbXrecord
  1
BASE
  1
*-PBASE
  1
*
  1
*
 70
     0
  1
*
  1
*
  0
XRECORD
  5
30
102
{ACAD_REACTORS
330
16
102
}
330
16
100
AcDbXrecord
  1
BLOQ_INUTIL
  1
*
  1
*
  1
*
 70
     0
  1
*
  1
*
  0
XRECORD
  5
31
102
{ACAD_REACTORS
330
16
102
}
330
16
100
AcDbXrecord
  1
CADKON
  1
?[KAHBSM]?????[23M],?[KAHBSM]?????[23M][1456A-DGHILN-SU-Z]
  1
*
  1
*
 70
     0
  1
*
  1
*
  0
XRECORD
  5
32
102
{ACAD_REACTORS
330
16
102
}
330
16
100
AcDbXrecord
  1
carpinteria
  1
carp*
  1
*
  1
*
 70
     0
  1
*
  1
*
  0
XRECORD
  5
33
102
{ACAD_REACTORS
330
16
102
}
330
16
100
AcDbXrecord
  1
cerrados
  1
*
  1
*
  1
*
 70
   256
  1
*
  1
*
  0
XRECORD
  5
34
102
{ACAD_REACTORS
330
16
102
}
330
16
100
AcDbXrecord
  1
COL
  1
*
  1
*
  1
*
 70
     1
  1
*
  1
*
  0
XRECORD
  5
35
102
{ACAD_REACTORS
330
16
102
}
330
16
100
AcDbXrecord
  1
COLOR
  1
*
  1
253
  1
*
 70
     0
  1
*
  1
*
  0
XRECORD
  5
36
102
{ACAD_REACTORS
330
16
102
}
330
16
100
AcDbXrecord
  1
color 250
  1
*
  1
250
  1
*
 70
     0
  1
*
  1
*
  0
XRECORD
  5
37
102
{ACAD_REACTORS
330
16
102
}
330
16
100
AcDbXrecord
  1
COLORES
  1
*
  1
6
  1
*
 70
     0
  1
*
  1
*
  0
XRECORD
  5
38
102
{ACAD_REACTORS
330
16
102
}
330
16
100
AcDbXrecord
  1
Congelados
  1
*
  1
*
  1
*
 70
     4
  1
*
  1
*
  0
XRECORD
  5
39
102
{ACAD_REACTORS
330
16
102
}
330
16
100
AcDbXrecord
  1
CONJUNTO
  1
CON-*
  1
*
  1
*
 70
     0
  1
*
  1
*
  0
XRECORD
  5
3A
102
{ACAD_REACTORS
330
16
102
}
330
16
100
AcDbXrecord
  1
d1
  1
achurados
  1
*
  1
*
 70
     0
  1
*
  1
*
  0
XRECORD
  5
3B
102
{ACAD_REACTORS
330
16
102
}
330
16
100
AcDbXrecord
  1
DA_
  1
DA*
  1
*
  1
*
 70
     0
  1
*
  1
*
  0
XRECORD
  5
3C
102
{ACAD_REACTORS
330
16
102
}
330
16
100
AcDbXrecord
  1
DET-
  1
*
  1
*
  1
*
 70
     0
  1
*
  1
*
  0
XRECORD
  5
3D
102
{ACAD_REACTORS
330
16
102
}
330
16
100
AcDbXrecord
  1
DOR-H
  1
*
  1
7
  1
*
 70
     0
  1
*
  1
*
  0
XRECORD
  5
3E
102
{ACAD_REACTORS
330
16
102
}
330
16
100
AcDbXrecord
  1
ejes
  1
eje*
  1
*
  1
*
 70
     0
  1
*
  1
*
  0
XRECORD
  5
3F
102
{ACAD_REACTORS
330
16
102
}
330
16
100
AcDbXrecord
  1
ELECTRICO
  1
ELEC-*
  1
*
  1
*
 70
     0
  1
*
  1
*
  0
XRECORD
  5
40
102
{ACAD_REACTORS
330
16
102
}
330
16
100
AcDbXrecord
  1
F1
  1
Halaxref*
  1
*
  1
*
 70
     0
  1
*
  1
*
  0
XRECORD
  5
41
102
{ACAD_REACTORS
330
16
102
}
330
16
100
AcDbXrecord
  1
frozen
  1
*
  1
*
  1
*
 70
     4
  1
*
  1
*
  0
XRECORD
  5
42
102
{ACAD_REACTORS
330
16
102
}
330
16
100
AcDbXrecord
  1
grid
  1
*-PGRID
  1
*
  1
*
 70
     1
  1
*
  1
*
  0
XRECORD
  5
43
102
{ACAD_REACTORS
330
16
102
}
330
16
100
AcDbXrecord
  1
GRIDTXT
  1
*-PGRIDT
  1
*
  1
*
 70
     0
  1
*
  1
*
  0
XRECORD
  5
44
102
{ACAD_REACTORS
330
16
102
}
330
16
100
AcDbXrecord
  1
HATCH
  1
HAT*
  1
*
  1
*
 70
     0
  1
*
  1
*
  0
XRECORD
  5
45
102
{ACAD_REACTORS
330
16
102
}
330
16
100
AcDbXrecord
  1
HCAD
  1
1HCAD-*
  1
*
  1
*
 70
    13
  1
*
  1
*
  0
XRECORD
  5
46
102
{ACAD_REACTORS
330
16
102
}
330
16
100
AcDbXrecord
  1
INSTALACIONES
  1
I-*
  1
*
  1
*
 70
     0
  1
*
  1
*
  0
XRECORD
  5
47
102
{ACAD_REACTORS
330
16
102
}
330
16
100
AcDbXrecord
  1
JIZNI
  1
*-J
  1
*
  1
*
 70
     0
  1
*
  1
*
  0
XRECORD
  5
48
102
{ACAD_REACTORS
330
16
102
}
330
16
100
AcDbXrecord
  1
kck
  1
*
  1
*
  1
*
 70
     0
  1
*
  1
*
  0
XRECORD
  5
49
102
{ACAD_REACTORS
330
16
102
}
330
16
100
AcDbXrecord
  1
kkk
  1
k
  1
*
  1
*
 70
     0
  1
*
  1
*
  0
XRECORD
  5
4A
102
{ACAD_REACTORS
330
16
102
}
330
16
100
AcDbXrecord
  1
lay
  1
??-*
  1
*
  1
*
 70
     0
  1
*
  1
*
  0
XRECORD
  5
4E
102
{ACAD_REACTORS
330
16
102
}
330
16
100
AcDbXrecord
  1
Layer-0
  1
0*
  1
*
  1
*
 70
     0
  1
*
  1
*
  0
XRECORD
  5
4F
102
{ACAD_REACTORS
330
16
102
}
330
16
100
AcDbXrecord
  1
Layer-1
  1
1*
  1
*
  1
*
 70
     0
  1
*
  1
*
  0
XRECORD
  5
4B
102
{ACAD_REACTORS
330
16
102
}
330
16
100
AcDbXrecord
  1
Layer 1 und 0
  1
1*,0
  1
*
  1
*
 70
     0
  1
*
  1
*
  0
XRECORD
  5
4C
102
{ACAD_REACTORS
330
16
102
}
330
16
100
AcDbXrecord
  1
Layer 2 und 0
  1
2*,0
  1
*
  1
*
 70
     0
  1
*
  1
*
  0
XRECORD
  5
4D
102
{ACAD_REACTORS
330
16
102
}
330
16
100
AcDbXrecord
  1
Layer 9 und 0 Schraffur
  1
9*,0
  1
*
  1
*
 70
     0
  1
*
  1
*
  0
XRECORD
  5
50
102
{ACAD_REACTORS
330
16
102
}
330
16
100
AcDbXrecord
  1
LOCK
  1
*
  1
*
  1
*
 70
   256
  1
*
  1
*
  0
XRECORD
  5
51
102
{ACAD_REACTORS
330
16
102
}
330
16
100
AcDbXrecord
  1
locked
  1
*
  1
*
  1
*
 70
   256
  1
*
  1
*
  0
XRECORD
  5
52
102
{ACAD_REACTORS
330
16
102
}
330
16
100
AcDbXrecord
  1
Lotes
  1
*
  1
*
  1
*
 70
     1
  1
*
  1
*
  0
XRECORD
  5
53
102
{ACAD_REACTORS
330
16
102
}
330
16
100
AcDbXrecord
  1
LUNAR
  1
*
  1
*
  1
*
 70
    48
  1
*
  1
*
  0
XRECORD
  5
54
102
{ACAD_REACTORS
330
16
102
}
330
16
100
AcDbXrecord
  1
LUNAR2
  1
*
  1
*
  1
*
 70
    12
  1
*
  1
*
  0
XRECORD
  5
55
102
{ACAD_REACTORS
330
16
102
}
330
16
100
AcDbXrecord
  1
M
  1
M*
  1
*
  1
*
 70
     0
  1
*
  1
*
  0
XRECORD
  5
56
102
{ACAD_REACTORS
330
16
102
}
330
16
100
AcDbXrecord
  1
mis_layers
  1
mis_*
  1
*
  1
*
 70
     0
  1
*
  1
*
  0
XRECORD
  5
57
102
{ACAD_REACTORS
330
16
102
}
330
16
100
AcDbXrecord
  1
MRKCK
  1
*
  1
*
  1
*
 70
     0
  1
*
  1
*
  0
XRECORD
  5
58
102
{ACAD_REACTORS
330
16
102
}
330
16
100
AcDbXrecord
  1
NECADKON
  1
~*?[KAHBSM]?????[23M]*
  1
*
  1
*
 70
     0
  1
*
  1
*
  0
XRECORD
  5
59
102
{ACAD_REACTORS
330
16
102
}
330
16
100
AcDbXrecord
  1
NI_LH
  1
NI_LH*
  1
*
  1
*
 70
     0
  1
*
  1
*
  0
XRECORD
  5
5A
102
{ACAD_REACTORS
330
16
102
}
330
16
100
AcDbXrecord
  1
NI_RH
  1
NI_RH*
  1
*
  1
*
 70
     0
  1
*
  1
*
  0
XRECORD
  5
5B
102
{ACAD_REACTORS
330
16
102
}
330
16
100
AcDbXrecord
  1
NUM
  1
NUM*
  1
*
  1
*
 70
     0
  1
*
  1
*
  0
XRECORD
  5
5C
102
{ACAD_REACTORS
330
16
102
}
330
16
100
AcDbXrecord
  1
off
  1
*
  1
*
  1
*
 70
     3
  1
*
  1
*
  0
XRECORD
  5
5D
102
{ACAD_REACTORS
330
16
102
}
330
16
100
AcDbXrecord
  1
on
  1
*
  1
*
  1
*
 70
     0
  1
*
  1
*
  0
XRECORD
  5
5E
102
{ACAD_REACTORS
330
16
102
}
330
16
100
AcDbXrecord
  1
PBASE
  1
*PBASE
  1
*
  1
*
 70
     0
  1
*
  1
*
  0
XRECORD
  5
5F
102
{ACAD_REACTORS
330
16
102
}
330
16
100
AcDbXrecord
  1
PEGC
  1
*PEGC
  1
*
  1
*
 70
     0
  1
*
  1
*
  0
XRECORD
  5
60
102
{ACAD_REACTORS
330
16
102
}
330
16
100
AcDbXrecord
  1
PEGCT
  1
*PEGCT
  1
*
  1
*
 70
     0
  1
*
  1
*
  0
XRECORD
  5
61
102
{ACAD_REACTORS
330
16
102
}
330
16
100
AcDbXrecord
  1
PFRAME
  1
PFRAME*
  1
*
  1
*
 70
     0
  1
*
  1
*
  0
XRECORD
  5
62
102
{ACAD_REACTORS
330
16
102
}
330
16
100
AcDbXrecord
  1
PGRID
  1
*PGRID
  1
*
  1
*
 70
     0
  1
*
  1
*
  0
XRECORD
  5
63
102
{ACAD_REACTORS
330
16
102
}
330
16
100
AcDbXrecord
  1
PGRIDT
  1
*PGRIDT
  1
*
  1
*
 70
     0
  1
*
  1
*
  0
XRECORD
  5
64
102
{ACAD_REACTORS
330
16
102
}
330
16
100
AcDbXrecord
  1
PLAFONES
  1
0-*
  1
*
  1
*
 70
     0
  1
*
  1
*
  0
XRECORD
  5
65
102
{ACAD_REACTORS
330
16
102
}
330
16
100
AcDbXrecord
  1
PLANTAS
  1
P-*
  1
*
  1
*
 70
     0
  1
*
  1
*
  0
XRECORD
  5
66
102
{ACAD_REACTORS
330
16
102
}
330
16
100
AcDbXrecord
  1
Plot
  1
*
  1
*
  1
*
 70
  1024
  1
*
  1
*
  0
XRECORD
  5
67
102
{ACAD_REACTORS
330
16
102
}
330
16
100
AcDbXrecord
  1
PRENDIDAS
  1
*
  1
*
  1
*
 70
    13
  1
*
  1
*
  0
XRECORD
  5
68
102
{ACAD_REACTORS
330
16
102
}
330
16
100
AcDbXrecord
  1
PRENDIDOS
  1
*
  1
*
  1
*
 70
    12
  1
*
  1
*
  0
XRECORD
  5
69
102
{ACAD_REACTORS
330
16
102
}
330
16
100
AcDbXrecord
  1
print
  1
*
  1
7
  1
*
 70
  1280
  1
*
  1
*
  0
XRECORD
  5
6A
102
{ACAD_REACTORS
330
16
102
}
330
16
100
AcDbXrecord
  1
PT
  1
PT-*
  1
*
  1
*
 70
     0
  1
*
  1
*
  0
XRECORD
  5
6B
102
{ACAD_REACTORS
330
16
102
}
330
16
100
AcDbXrecord
  1
PTH
  1
PTH*
  1
*
  1
*
 70
     0
  1
*
  1
*
  0
XRECORD
  5
6C
102
{ACAD_REACTORS
330
16
102
}
330
16
100
AcDbXrecord
  1
PVGRID
  1
*PVGRID
  1
*
  1
*
 70
     0
  1
*
  1
*
  0
XRECORD
  5
6D
102
{ACAD_REACTORS
330
16
102
}
330
16
100
AcDbXrecord
  1
Red de Agua Potable
  1
Red de Agua Potable
  1
*
  1
*
 70
     1
  1
*
  1
*
  0
XRECORD
  5
6E
102
{ACAD_REACTORS
330
16
102
}
330
16
100
AcDbXrecord
  1
Red de Energia Electrica
  1
Lotes
  1
*
  1
*
 70
     1
  1
*
  1
*
  0
XRECORD
  5
6F
102
{ACAD_REACTORS
330
16
102
}
330
16
100
AcDbXrecord
  1
SEVERNI
  1
*-S
  1
*
  1
*
 70
     0
  1
*
  1
*
  0
XRECORD
  5
70
102
{ACAD_REACTORS
330
16
102
}
330
16
100
AcDbXrecord
  1
shin
  1
일*
  1
*
  1
*
 70
     0
  1
*
  1
*
  0
XRECORD
  5
71
102
{ACAD_REACTORS
330
16
102
}
330
16
100
AcDbXrecord
  1
SHOW ALL LAYER
  1
*
  1
*
  1
*
 70
     0
  1
*
  1
*
  0
XRECORD
  5
72
102
{ACAD_REACTORS
330
16
102
}
330
16
100
AcDbXrecord
  1
sin
  1
sin
  1
*
  1
*
 70
     0
  1
*
  1
*
  0
XRECORD
  5
73
102
{ACAD_REACTORS
330
16
102
}
330
16
100
AcDbXrecord
  1
STORAGE-CART
  1
STORAGE-CART*
  1
*
  1
*
 70
     0
  1
*
  1
*
  0
XRECORD
  5
74
102
{ACAD_REACTORS
330
16
102
}
330
16
100
AcDbXrecord
  1
T
  1
T*
  1
*
  1
*
 70
     0
  1
*
  1
*
  0
XRECORD
  5
75
102
{ACAD_REACTORS
330
16
102
}
330
16
100
AcDbXrecord
  1
TEXTOS
  1
TXT*
  1
*
  1
*
 70
     0
  1
*
  1
*
  0
XRECORD
  5
76
102
{ACAD_REACTORS
330
16
102
}
330
16
100
AcDbXrecord
  1
TEXTURAS
  1
*TEXTURAS
  1
*
  1
*
 70
     0
  1
*
  1
*
  0
XRECORD
  5
77
102
{ACAD_REACTORS
330
16
102
}
330
16
100
AcDbXrecord
  1
TUBERIAS
  1
T*
  1
*
  1
*
 70
     0
  1
*
  1
*
  0
XRECORD
  5
78
102
{ACAD_REACTORS
330
16
102
}
330
16
100
AcDbXrecord
  1
UNFRZ
  1
*
  1
*
  1
*
 70
    12
  1
*
  1
*
  0
XRECORD
  5
79
102
{ACAD_REACTORS
330
16
102
}
330
16
100
AcDbXrecord
  1
v\U+0161echny nepou\U+017E\U+00EDvan\U+00E9
  1
*
  1
*
  1
*
 70
     0
  1
*
  1
*
  0
XRECORD
  5
7A
102
{ACAD_REACTORS
330
16
102
}
330
16
100
AcDbXrecord
  1
VA
  1
VA*
  1
*
  1
*
 70
     0
  1
*
  1
*
  0
XRECORD
  5
7B
102
{ACAD_REACTORS
330
16
102
}
330
16
100
AcDbXrecord
  1
Ventilaci\U+00F3n
  1
*
  1
*
  1
*
 70
     0
  1
*
  1
*
  0
XRECORD
  5
7C
102
{ACAD_REACTORS
330
16
102
}
330
16
100
AcDbXrecord
  1
VYHODNI
  1
*-V
  1
*
  1
*
 70
     0
  1
*
  1
*
  0
XRECORD
  5
7D
102
{ACAD_REACTORS
330
16
102
}
330
16
100
AcDbXrecord
  1
Yo
  1
Muros
  1
*
  1
*
 70
     0
  1
*
  1
*
  0
XRECORD
  5
7E
102
{ACAD_REACTORS
330
16
102
}
330
16
100
AcDbXrecord
  1
ZAPADNI
  1
*-Z
  1
*
  1
*
 70
     0
  1
*
  1
*
  0
XRECORD
  5
7F
102
{ACAD_REACTORS
330
16
102
}
330
16
100
AcDbXrecord
  1
사용
  1
*
  1
*
  1
*
 70
   256
  1
*
  1
*
  0
XRECORD
  5
80
102
{ACAD_REACTORS
330
16
102
}
330
16
100
AcDbXrecord
  1
신규
  1
신규
  1
*
  1
*
 70
     0
  1
*
  1
*
  0
XRECORD
  5
81
102
{ACAD_REACTORS
330
16
102
}
330
16
100
AcDbXrecord
  1
실박스
  1
BLO,SYM,SYM1,SYM2
  1
*
  1
*
 70
     0
  1
*
  1
*
  0
XRECORD
  5
82
102
{ACAD_REACTORS
330
16
102
}
330
16
100
AcDbXrecord
  1
우리토목
  1
w-*
  1
*
  1
*
 70
     0
  1
*
  1
*
  0
XRECORD
  5
83
102
{ACAD_REACTORS
330
16
102
}
330
16
100
AcDbXrecord
  1
주차
  1
car*
  1
*
  1
*
 70
     0
  1
*
  1
*
  0
XRECORD
  5
84
102
{ACAD_REACTORS
330
16
102
}
330
16
100
AcDbXrecord
  1
지상정밀
  1
*
  1
*
  1
*
 70
     0
  1
*
  1
*
  0
XRECORD
  5
85
102
{ACAD_REACTORS
330
16
102
}
330
16
100
AcDbXrecord
  1
쩜선
  1
*
  1
*
  1
*
 70
     0
  1
*
  1
*
  0
XRECORD
  5
86
102
{ACAD_REACTORS
330
16
102
}
330
16
100
AcDbXrecord
  1
플로터 작업층
  1
*
  1
*
  1
*
 70
  1025
  1
*
  1
*
  0
XRECORD
  5
87
102
{ACAD_REACTORS
330
16
102
}
330
16
100
AcDbXrecord
  1
현재 작업층
  1
*
  1
*
  1
*
 70
     1
  1
*
  1
*
  0
XRECORD
  5
88
102
{ACAD_REACTORS
330
16
102
}
330
16
100
AcDbXrecord
  1
현재 잠금
  1
*
  1
*
  1
*
 70
   257
  1
*
  1
*
  0
ENDSEC
  0
EOF
