  0
SECTION
  2
HEADER
  9
$ACADVER
  1
AC1014
  9
$ACADMAINTVER
 70
     9
  9
$DWGCODEPAGE
  3
ANSI_949
  9
$INSBASE
 10
0.0
 20
0.0
 30
0.0
  9
$EXTMIN
 10
-12.79719101951923
 20
8.577526174747617
 30
-0.0015258207003583
  9
$EXTMAX
 10
330.9975621348421
 20
493.1768155670725
 30
0.0000000349246037
  9
$LIMMIN
 10
0.0
 20
0.0
  9
$LIMMAX
 10
420.0
 20
297.0
  9
$ORTHOMODE
 70
     0
  9
$REGENMODE
 70
     1
  9
$FILLMODE
 70
     1
  9
$QTEXTMODE
 70
     0
  9
$MIRRTEXT
 70
     0
  9
$DRAGMODE
 70
     2
  9
$LTSCALE
 40
0.2
  9
$OSMODE
 70
   567
  9
$ATTMODE
 70
     1
  9
$TEXTSIZE
 40
5.777225951253058
  9
$TRACEWID
 40
1.0
  9
$TEXTSTYLE
  7
STANDARD
  9
$CLAYER
  8
0
  9
$CELTYPE
  6
BYLAYER
  9
$CECOLOR
 62
   256
  9
$CELTSCALE
 40
1.0
  9
$DELOBJ
 70
     1
  9
$DISPSILH
 70
     0
  9
$DIMSCALE
 40
1.0
  9
$DIMASZ
 40
3.0
  9
$DIMEXO
 40
1.0
  9
$DIMDLI
 40
10.0
  9
$DIMRND
 40
0.0
  9
$DIMDLE
 40
0.0
  9
$DIMEXE
 40
0.6
  9
$DIMTP
 40
0.0
  9
$DIMTM
 40
0.0
  9
$DIMTXT
 40
3.5
  9
$DIMCEN
 40
0.09
  9
$DIMTSZ
 40
0.0
  9
$DIMTOL
 70
     0
  9
$DIMLIM
 70
     0
  9
$DIMTIH
 70
     0
  9
$DIMTOH
 70
     0
  9
$DIMSE1
 70
     0
  9
$DIMSE2
 70
     0
  9
$DIMTAD
 70
     1
  9
$DIMZIN
 70
     8
  9
$DIMBLK
  1

  9
$DIMASO
 70
     1
  9
$DIMSHO
 70
     1
  9
$DIMPOST
  1

  9
$DIMAPOST
  1

  9
$DIMALT
 70
     0
  9
$DIMALTD
 70
     2
  9
$DIMALTF
 40
25.4
  9
$DIMLFAC
 40
1.0
  9
$DIMTOFL
 70
     1
  9
$DIMTVP
 40
0.0
  9
$DIMTIX
 70
     1
  9
$DIMSOXD
 70
     0
  9
$DIMSAH
 70
     0
  9
$DIMBLK1
  1

  9
$DIMBLK2
  1

  9
$DIMSTYLE
  2
1_1_2
  9
$DIMCLRD
 70
   123
  9
$DIMCLRE
 70
   123
  9
$DIMCLRT
 70
     3
  9
$DIMTFAC
 40
1.0
  9
$DIMGAP
 40
1.0
  9
$DIMJUST
 70
     0
  9
$DIMSD1
 70
     0
  9
$DIMSD2
 70
     0
  9
$DIMTOLJ
 70
     1
  9
$DIMTZIN
 70
     0
  9
$DIMALTZ
 70
     0
  9
$DIMALTTZ
 70
     0
  9
$DIMFIT
 70
     0
  9
$DIMUPT
 70
     1
  9
$DIMUNIT
 70
     2
  9
$DIMDEC
 70
     2
  9
$DIMTDEC
 70
     2
  9
$DIMALTU
 70
     2
  9
$DIMALTTD
 70
     2
  9
$DIMTXSTY
  7
STANDARD
  9
$DIMAUNIT
 70
     1
  9
$LUNITS
 70
     2
  9
$LUPREC
 70
     4
  9
$SKETCHINC
 40
1.0
  9
$FILLETRAD
 40
0.5
  9
$AUNITS
 70
     0
  9
$AUPREC
 70
     0
  9
$MENU
  1
.
  9
$ELEVATION
 40
0.0
  9
$PELEVATION
 40
0.0
  9
$THICKNESS
 40
0.0
  9
$LIMCHECK
 70
     0
  9
$BLIPMODE
 70
     1
  9
$CHAMFERA
 40
1.0
  9
$CHAMFERB
 40
1.0
  9
$CHAMFERC
 40
20.0
  9
$CHAMFERD
 40
0.0
  9
$SKPOLY
 70
     0
  9
$TDCREATE
 40
2452839.586179271
  9
$TDUPDATE
 40
2453376.729752407
  9
$TDINDWG
 40
11.1162649537
  9
$TDUSRTIMER
 40
11.1162649537
  9
$USRTIMER
 70
     1
  9
$ANGBASE
 50
0.0
  9
$ANGDIR
 70
     0
  9
$PDMODE
 70
     0
  9
$PDSIZE
 40
0.0
  9
$PLINEWID
 40
0.0
  9
$COORDS
 70
     2
  9
$SPLFRAME
 70
     0
  9
$SPLINETYPE
 70
     6
  9
$SPLINESEGS
 70
   800
  9
$ATTDIA
 70
     0
  9
$ATTREQ
 70
     1
  9
$HANDLING
 70
 22529
  9
$HANDSEED
  5
53D
  9
$SURFTAB1
 70
     6
  9
$SURFTAB2
 70
     6
  9
$SURFTYPE
 70
     6
  9
$SURFU
 70
     6
  9
$SURFV
 70
     6
  9
$UCSNAME
  2

  9
$UCSORG
 10
0.0
 20
0.0
 30
0.0
  9
$UCSXDIR
 10
1.0
 20
0.0
 30
0.0
  9
$UCSYDIR
 10
0.0
 20
1.0
 30
0.0
  9
$PUCSNAME
  2

  9
$PUCSORG
 10
0.0
 20
0.0
 30
0.0
  9
$PUCSXDIR
 10
1.0
 20
0.0
 30
0.0
  9
$PUCSYDIR
 10
0.0
 20
1.0
 30
0.0
  9
$USERI1
 70
     0
  9
$USERI2
 70
     0
  9
$USERI3
 70
     0
  9
$USERI4
 70
     0
  9
$USERI5
 70
     0
  9
$USERR1
 40
0.0
  9
$USERR2
 40
0.0
  9
$USERR3
 40
0.0
  9
$USERR4
 40
0.0
  9
$USERR5
 40
0.0
  9
$WORLDVIEW
 70
     1
  9
$SHADEDGE
 70
     3
  9
$SHADEDIF
 70
    70
  9
$TILEMODE
 70
     1
  9
$MAXACTVP
 70
    48
  9
$PINSBASE
 10
0.0
 20
0.0
 30
0.0
  9
$PLIMCHECK
 70
     0
  9
$PEXTMIN
 10
0.0
 20
0.0
 30
0.0
  9
$PEXTMAX
 10
0.0
 20
0.0
 30
0.0
  9
$PLIMMIN
 10
0.0
 20
0.0
  9
$PLIMMAX
 10
12.0
 20
9.0
  9
$UNITMODE
 70
     0
  9
$VISRETAIN
 70
     1
  9
$PLINEGEN
 70
     0
  9
$PSLTSCALE
 70
     1
  9
$TREEDEPTH
 70
  3020
  9
$PICKSTYLE
 70
     0
  9
$CMLSTYLE
  2
STANDARD
  9
$CMLJUST
 70
     0
  9
$CMLSCALE
 40
20.0
  9
$PROXYGRAPHICS
 70
     1
  9
$MEASUREMENT
 70
     1
  0
ENDSEC
  0
SECTION
  2
CLASSES
  0
CLASS
  1
ACDBDICTIONARYWDFLT
  2
AcDbDictionaryWithDefault
  3
AutoCAD 2000
 90
        0
280
     0
281
     0
  0
CLASS
  1
ACDBPLACEHOLDER
  2
AcDbPlaceHolder
  3
AutoCAD 2000
 90
        0
280
     0
281
     0
  0
CLASS
  1
LAYOUT
  2
AcDbLayout
  3
AutoCAD 2000
 90
        0
280
     0
281
     0
  0
CLASS
  1
DICTIONARYVAR
  2
AcDbDictionaryVar
  3
AutoCAD 2000
 90
        0
280
     0
281
     0
  0
CLASS
  1
DIMASSOC
  2
AcDbDimAssoc
  3
"AcDbDimAssoc|Product Desc:     AcDim ARX App For Dimension|Company:          Autodesk, Inc.|WEB Address:      www.autodesk.com"
 90
        0
280
     0
281
     0
  0
CLASS
  1
LONG_TRANSACTION
  2
AcDbLongTransaction
  3
AutoCAD 2000
 90
        0
280
     0
281
     0
  0
CLASS
  1
LWPOLYLINE
  2
AcDbPolyline
  3
AutoCAD 2000
 90
        0
280
     0
281
     1
  0
CLASS
  1
HATCH
  2
AcDbHatch
  3
AutoCAD 2000
 90
        0
280
     0
281
     1
  0
CLASS
  1
XRECORD
  2
AcDbXrecord
  3
AutoCAD 2000
 90
        0
280
     0
281
     0
  0
CLASS
  1
LONG_TRANSACTION
  2
AcDbLongTransaction
  3
AutoCAD 2000
 90
        0
280
     0
281
     0
  0
CLASS
  1
LWPOLYLINE
  2
AcDbPolyline
  3
AutoCAD 2000
 90
        0
280
     0
281
     1
  0
CLASS
  1
HATCH
  2
AcDbHatch
  3
AutoCAD 2000
 90
        0
280
     0
281
     1
  0
CLASS
  1
XRECORD
  2
AcDbXrecord
  3
AutoCAD 2000
 90
        0
280
     0
281
     0
  0
CLASS
  1
LONG_TRANSACTION
  2
AcDbLongTransaction
  3
AutoCAD 2000
 90
        0
280
     0
281
     0
  0
CLASS
  1
LWPOLYLINE
  2
AcDbPolyline
  3
AutoCAD 2000
 90
        0
280
     0
281
     1
  0
CLASS
  1
HATCH
  2
AcDbHatch
  3
AutoCAD 2000
 90
        0
280
     0
281
     1
  0
CLASS
  1
XRECORD
  2
AcDbXrecord
  3
AutoCAD 2000
 90
        0
280
     0
281
     0
  0
CLASS
  1
LONG_TRANSACTION
  2
AcDbLongTransaction
  3
AutoCAD 2000
 90
        0
280
     0
281
     0
  0
CLASS
  1
LWPOLYLINE
  2
AcDbPolyline
  3
AutoCAD 2000
 90
        0
280
     0
281
     1
  0
CLASS
  1
HATCH
  2
AcDbHatch
  3
AutoCAD 2000
 90
        0
280
     0
281
     1
  0
CLASS
  1
XRECORD
  2
AcDbXrecord
  3
AutoCAD 2000
 90
        0
280
     0
281
     0
  0
CLASS
  1
LONG_TRANSACTION
  2
AcDbLongTransaction
  3
AutoCAD 2000
 90
        0
280
     0
281
     0
  0
CLASS
  1
LWPOLYLINE
  2
AcDbPolyline
  3
AutoCAD 2000
 90
        0
280
     0
281
     1
  0
CLASS
  1
HATCH
  2
AcDbHatch
  3
AutoCAD 2000
 90
        0
280
     0
281
     1
  0
CLASS
  1
XRECORD
  2
AcDbXrecord
  3
AutoCAD 2000
 90
        0
280
     0
281
     0
  0
CLASS
  1
LONG_TRANSACTION
  2
AcDbLongTransaction
  3
AutoCAD 2000
 90
        0
280
     0
281
     0
  0
CLASS
  1
LWPOLYLINE
  2
AcDbPolyline
  3
AutoCAD 2000
 90
        0
280
     0
281
     1
  0
CLASS
  1
HATCH
  2
AcDbHatch
  3
AutoCAD 2000
 90
        0
280
     0
281
     1
  0
CLASS
  1
XRECORD
  2
AcDbXrecord
  3
AutoCAD 2000
 90
        0
280
     0
281
     0
  0
CLASS
  1
LONG_TRANSACTION
  2
AcDbLongTransaction
  3
AutoCAD 2000
 90
        0
280
     0
281
     0
  0
CLASS
  1
LWPOLYLINE
  2
AcDbPolyline
  3
AutoCAD 2000
 90
        0
280
     0
281
     1
  0
CLASS
  1
HATCH
  2
AcDbHatch
  3
AutoCAD 2000
 90
        0
280
     0
281
     1
  0
CLASS
  1
XRECORD
  2
AcDbXrecord
  3
AutoCAD 2000
 90
        0
280
     0
281
     0
  0
CLASS
  1
LONG_TRANSACTION
  2
AcDbLongTransaction
  3
AutoCAD 2000
 90
        0
280
     0
281
     0
  0
CLASS
  1
LWPOLYLINE
  2
AcDbPolyline
  3
AutoCAD 2000
 90
        0
280
     0
281
     1
  0
CLASS
  1
HATCH
  2
AcDbHatch
  3
AutoCAD 2000
 90
        0
280
     0
281
     1
  0
CLASS
  1
XRECORD
  2
AcDbXrecord
  3
AutoCAD 2000
 90
        0
280
     0
281
     0
  0
CLASS
  1
LONG_TRANSACTION
  2
AcDbLongTransaction
  3
AutoCAD 2000
 90
        0
280
     0
281
     0
  0
CLASS
  1
LWPOLYLINE
  2
AcDbPolyline
  3
AutoCAD 2000
 90
        0
280
     0
281
     1
  0
CLASS
  1
HATCH
  2
AcDbHatch
  3
AutoCAD 2000
 90
        0
280
     0
281
     1
  0
CLASS
  1
XRECORD
  2
AcDbXrecord
  3
AutoCAD 2000
 90
        0
280
     0
281
     0
  0
CLASS
  1
LONG_TRANSACTION
  2
AcDbLongTransaction
  3
AutoCAD 2000
 90
        0
280
     0
281
     0
  0
CLASS
  1
LWPOLYLINE
  2
AcDbPolyline
  3
AutoCAD 2000
 90
        0
280
     0
281
     1
  0
CLASS
  1
HATCH
  2
AcDbHatch
  3
AutoCAD 2000
 90
        0
280
     0
281
     1
  0
CLASS
  1
XRECORD
  2
AcDbXrecord
  3
AutoCAD 2000
 90
        0
280
     0
281
     0
  0
CLASS
  1
LONG_TRANSACTION
  2
AcDbLongTransaction
  3
AutoCAD 2000
 90
        0
280
     0
281
     0
  0
CLASS
  1
LWPOLYLINE
  2
AcDbPolyline
  3
AutoCAD 2000
 90
        0
280
     0
281
     1
  0
CLASS
  1
HATCH
  2
AcDbHatch
  3
AutoCAD 2000
 90
        0
280
     0
281
     1
  0
CLASS
  1
XRECORD
  2
AcDbXrecord
  3
AutoCAD 2000
 90
        0
280
     0
281
     0
  0
CLASS
  1
LONG_TRANSACTION
  2
AcDbLongTransaction
  3
AutoCAD 2000
 90
        0
280
     0
281
     0
  0
CLASS
  1
LWPOLYLINE
  2
AcDbPolyline
  3
AutoCAD 2000
 90
        0
280
     0
281
     1
  0
CLASS
  1
HATCH
  2
AcDbHatch
  3
AutoCAD 2000
 90
        0
280
     0
281
     1
  0
CLASS
  1
XRECORD
  2
AcDbXrecord
  3
AutoCAD 2000
 90
        0
280
     0
281
     0
  0
CLASS
  1
LONG_TRANSACTION
  2
AcDbLongTransaction
  3
AutoCAD 2000
 90
        0
280
     0
281
     0
  0
CLASS
  1
LWPOLYLINE
  2
AcDbPolyline
  3
AutoCAD 2000
 90
        0
280
     0
281
     1
  0
CLASS
  1
HATCH
  2
AcDbHatch
  3
AutoCAD 2000
 90
        0
280
     0
281
     1
  0
CLASS
  1
XRECORD
  2
AcDbXrecord
  3
AutoCAD 2000
 90
        0
280
     0
281
     0
  0
CLASS
  1
LONG_TRANSACTION
  2
AcDbLongTransaction
  3
AutoCAD 2000
 90
        0
280
     0
281
     0
  0
CLASS
  1
LWPOLYLINE
  2
AcDbPolyline
  3
AutoCAD 2000
 90
        0
280
     0
281
     1
  0
CLASS
  1
HATCH
  2
AcDbHatch
  3
AutoCAD 2000
 90
        0
280
     0
281
     1
  0
CLASS
  1
XRECORD
  2
AcDbXrecord
  3
AutoCAD 2000
 90
        0
280
     0
281
     0
  0
CLASS
  1
LONG_TRANSACTION
  2
AcDbLongTransaction
  3
AutoCAD 2000
 90
        0
280
     0
281
     0
  0
CLASS
  1
LWPOLYLINE
  2
AcDbPolyline
  3
AutoCAD 2000
 90
        0
280
     0
281
     1
  0
CLASS
  1
HATCH
  2
AcDbHatch
  3
AutoCAD 2000
 90
        0
280
     0
281
     1
  0
CLASS
  1
XRECORD
  2
AcDbXrecord
  3
AutoCAD 2000
 90
        0
280
     0
281
     0
  0
CLASS
  1
LONG_TRANSACTION
  2
AcDbLongTransaction
  3
AutoCAD 2000
 90
        0
280
     0
281
     0
  0
CLASS
  1
LWPOLYLINE
  2
AcDbPolyline
  3
AutoCAD 2000
 90
        0
280
     0
281
     1
  0
CLASS
  1
HATCH
  2
AcDbHatch
  3
AutoCAD 2000
 90
        0
280
     0
281
     1
  0
CLASS
  1
XRECORD
  2
AcDbXrecord
  3
AutoCAD 2000
 90
        0
280
     0
281
     0
  0
CLASS
  1
LONG_TRANSACTION
  2
AcDbLongTransaction
  3
AutoCAD 2000
 90
        0
280
     0
281
     0
  0
CLASS
  1
LWPOLYLINE
  2
AcDbPolyline
  3
AutoCAD 2000
 90
        0
280
     0
281
     1
  0
CLASS
  1
HATCH
  2
AcDbHatch
  3
AutoCAD 2000
 90
        0
280
     0
281
     1
  0
CLASS
  1
XRECORD
  2
AcDbXrecord
  3
AutoCAD 2000
 90
        0
280
     0
281
     0
  0
CLASS
  1
LONG_TRANSACTION
  2
AcDbLongTransaction
  3
AutoCAD 2000
 90
        0
280
     0
281
     0
  0
CLASS
  1
LWPOLYLINE
  2
AcDbPolyline
  3
AutoCAD 2000
 90
        0
280
     0
281
     1
  0
CLASS
  1
HATCH
  2
AcDbHatch
  3
AutoCAD 2000
 90
        0
280
     0
281
     1
  0
CLASS
  1
XRECORD
  2
AcDbXrecord
  3
AutoCAD 2000
 90
        0
280
     0
281
     0
  0
CLASS
  1
LONG_TRANSACTION
  2
AcDbLongTransaction
  3
AutoCAD 2000
 90
        0
280
     0
281
     0
  0
CLASS
  1
LWPOLYLINE
  2
AcDbPolyline
  3
AutoCAD 2000
 90
        0
280
     0
281
     1
  0
CLASS
  1
HATCH
  2
AcDbHatch
  3
AutoCAD 2000
 90
        0
280
     0
281
     1
  0
CLASS
  1
XRECORD
  2
AcDbXrecord
  3
AutoCAD 2000
 90
        0
280
     0
281
     0
  0
CLASS
  1
LONG_TRANSACTION
  2
AcDbLongTransaction
  3
AutoCAD 2000
 90
        0
280
     0
281
     0
  0
CLASS
  1
LWPOLYLINE
  2
AcDbPolyline
  3
AutoCAD 2000
 90
        0
280
     0
281
     1
  0
CLASS
  1
HATCH
  2
AcDbHatch
  3
AutoCAD 2000
 90
        0
280
     0
281
     1
  0
CLASS
  1
XRECORD
  2
AcDbXrecord
  3
AutoCAD 2000
 90
        0
280
     0
281
     0
  0
CLASS
  1
LONG_TRANSACTION
  2
AcDbLongTransaction
  3
AutoCAD 2000
 90
        0
280
     0
281
     0
  0
CLASS
  1
LWPOLYLINE
  2
AcDbPolyline
  3
AutoCAD 2000
 90
        0
280
     0
281
     1
  0
CLASS
  1
HATCH
  2
AcDbHatch
  3
AutoCAD 2000
 90
        0
280
     0
281
     1
  0
CLASS
  1
XRECORD
  2
AcDbXrecord
  3
AutoCAD 2000
 90
        0
280
     0
281
     0
  0
CLASS
  1
LONG_TRANSACTION
  2
AcDbLongTransaction
  3
AutoCAD 2000
 90
        0
280
     0
281
     0
  0
CLASS
  1
LWPOLYLINE
  2
AcDbPolyline
  3
AutoCAD 2000
 90
        0
280
     0
281
     1
  0
CLASS
  1
HATCH
  2
AcDbHatch
  3
AutoCAD 2000
 90
        0
280
     0
281
     1
  0
CLASS
  1
XRECORD
  2
AcDbXrecord
  3
AutoCAD 2000
 90
        0
280
     0
281
     0
  0
CLASS
  1
LONG_TRANSACTION
  2
AcDbLongTransaction
  3
AutoCAD 2000
 90
        0
280
     0
281
     0
  0
CLASS
  1
LWPOLYLINE
  2
AcDbPolyline
  3
AutoCAD 2000
 90
        0
280
     0
281
     1
  0
CLASS
  1
HATCH
  2
AcDbHatch
  3
AutoCAD 2000
 90
        0
280
     0
281
     1
  0
CLASS
  1
XRECORD
  2
AcDbXrecord
  3
AutoCAD 2000
 90
        0
280
     0
281
     0
  0
CLASS
  1
LONG_TRANSACTION
  2
AcDbLongTransaction
  3
AutoCAD 2000
 90
        0
280
     0
281
     0
  0
CLASS
  1
LWPOLYLINE
  2
AcDbPolyline
  3
AutoCAD 2000
 90
        0
280
     0
281
     1
  0
CLASS
  1
HATCH
  2
AcDbHatch
  3
AutoCAD 2000
 90
        0
280
     0
281
     1
  0
CLASS
  1
XRECORD
  2
AcDbXrecord
  3
AutoCAD 2000
 90
        0
280
     0
281
     0
  0
CLASS
  1
LONG_TRANSACTION
  2
AcDbLongTransaction
  3
AutoCAD 2000
 90
        0
280
     0
281
     0
  0
CLASS
  1
LWPOLYLINE
  2
AcDbPolyline
  3
AutoCAD 2000
 90
        0
280
     0
281
     1
  0
CLASS
  1
HATCH
  2
AcDbHatch
  3
AutoCAD 2000
 90
        0
280
     0
281
     1
  0
CLASS
  1
XRECORD
  2
AcDbXrecord
  3
AutoCAD 2000
 90
        0
280
     0
281
     0
  0
CLASS
  1
LONG_TRANSACTION
  2
AcDbLongTransaction
  3
AutoCAD 2000
 90
        0
280
     0
281
     0
  0
CLASS
  1
LWPOLYLINE
  2
AcDbPolyline
  3
AutoCAD 2000
 90
        0
280
     0
281
     1
  0
CLASS
  1
HATCH
  2
AcDbHatch
  3
AutoCAD 2000
 90
        0
280
     0
281
     1
  0
CLASS
  1
XRECORD
  2
AcDbXrecord
  3
AutoCAD 2000
 90
        0
280
     0
281
     0
  0
CLASS
  1
LONG_TRANSACTION
  2
AcDbLongTransaction
  3
AutoCAD 2000
 90
        0
280
     0
281
     0
  0
CLASS
  1
LWPOLYLINE
  2
AcDbPolyline
  3
AutoCAD 2000
 90
        0
280
     0
281
     1
  0
CLASS
  1
HATCH
  2
AcDbHatch
  3
AutoCAD 2000
 90
        0
280
     0
281
     1
  0
CLASS
  1
XRECORD
  2
AcDbXrecord
  3
AutoCAD 2000
 90
        0
280
     0
281
     0
  0
CLASS
  1
LONG_TRANSACTION
  2
AcDbLongTransaction
  3
AutoCAD 2000
 90
        0
280
     0
281
     0
  0
CLASS
  1
LWPOLYLINE
  2
AcDbPolyline
  3
AutoCAD 2000
 90
        0
280
     0
281
     1
  0
CLASS
  1
HATCH
  2
AcDbHatch
  3
AutoCAD 2000
 90
        0
280
     0
281
     1
  0
CLASS
  1
XRECORD
  2
AcDbXrecord
  3
AutoCAD 2000
 90
        0
280
     0
281
     0
  0
CLASS
  1
LONG_TRANSACTION
  2
AcDbLongTransaction
  3
AutoCAD 2000
 90
        0
280
     0
281
     0
  0
CLASS
  1
LWPOLYLINE
  2
AcDbPolyline
  3
AutoCAD 2000
 90
        0
280
     0
281
     1
  0
CLASS
  1
HATCH
  2
AcDbHatch
  3
AutoCAD 2000
 90
        0
280
     0
281
     1
  0
CLASS
  1
XRECORD
  2
AcDbXrecord
  3
AutoCAD 2000
 90
        0
280
     0
281
     0
  0
CLASS
  1
LONG_TRANSACTION
  2
AcDbLongTransaction
  3
AutoCAD 2000
 90
        0
280
     0
281
     0
  0
CLASS
  1
LWPOLYLINE
  2
AcDbPolyline
  3
AutoCAD 2000
 90
        0
280
     0
281
     1
  0
CLASS
  1
HATCH
  2
AcDbHatch
  3
AutoCAD 2000
 90
        0
280
     0
281
     1
  0
CLASS
  1
XRECORD
  2
AcDbXrecord
  3
AutoCAD 2000
 90
        0
280
     0
281
     0
  0
CLASS
  1
LONG_TRANSACTION
  2
AcDbLongTransaction
  3
AutoCAD 2000
 90
        0
280
     0
281
     0
  0
CLASS
  1
LWPOLYLINE
  2
AcDbPolyline
  3
AutoCAD 2000
 90
        0
280
     0
281
     1
  0
CLASS
  1
HATCH
  2
AcDbHatch
  3
AutoCAD 2000
 90
        0
280
     0
281
     1
  0
CLASS
  1
XRECORD
  2
AcDbXrecord
  3
AutoCAD 2000
 90
        0
280
     0
281
     0
  0
CLASS
  1
LONG_TRANSACTION
  2
AcDbLongTransaction
  3
AutoCAD 2000
 90
        0
280
     0
281
     0
  0
CLASS
  1
LWPOLYLINE
  2
AcDbPolyline
  3
AutoCAD 2000
 90
        0
280
     0
281
     1
  0
CLASS
  1
HATCH
  2
AcDbHatch
  3
AutoCAD 2000
 90
        0
280
     0
281
     1
  0
CLASS
  1
XRECORD
  2
AcDbXrecord
  3
AutoCAD 2000
 90
        0
280
     0
281
     0
  0
CLASS
  1
LONG_TRANSACTION
  2
AcDbLongTransaction
  3
AutoCAD 2000
 90
        0
280
     0
281
     0
  0
CLASS
  1
LWPOLYLINE
  2
AcDbPolyline
  3
AutoCAD 2000
 90
        0
280
     0
281
     1
  0
CLASS
  1
HATCH
  2
AcDbHatch
  3
AutoCAD 2000
 90
        0
280
     0
281
     1
  0
CLASS
  1
XRECORD
  2
AcDbXrecord
  3
AutoCAD 2000
 90
        0
280
     0
281
     0
  0
CLASS
  1
LONG_TRANSACTION
  2
AcDbLongTransaction
  3
AutoCAD 2000
 90
        0
280
     0
281
     0
  0
CLASS
  1
LWPOLYLINE
  2
AcDbPolyline
  3
AutoCAD 2000
 90
        0
280
     0
281
     1
  0
CLASS
  1
HATCH
  2
AcDbHatch
  3
AutoCAD 2000
 90
        0
280
     0
281
     1
  0
CLASS
  1
XRECORD
  2
AcDbXrecord
  3
AutoCAD 2000
 90
        0
280
     0
281
     0
  0
CLASS
  1
LONG_TRANSACTION
  2
AcDbLongTransaction
  3
AutoCAD 2000
 90
        0
280
     0
281
     0
  0
CLASS
  1
LWPOLYLINE
  2
AcDbPolyline
  3
AutoCAD 2000
 90
        0
280
     0
281
     1
  0
CLASS
  1
HATCH
  2
AcDbHatch
  3
AutoCAD 2000
 90
        0
280
     0
281
     1
  0
CLASS
  1
XRECORD
  2
AcDbXrecord
  3
AutoCAD 2000
 90
        0
280
     0
281
     0
  0
CLASS
  1
LONG_TRANSACTION
  2
AcDbLongTransaction
  3
AutoCAD 2000
 90
        0
280
     0
281
     0
  0
CLASS
  1
LWPOLYLINE
  2
AcDbPolyline
  3
AutoCAD 2000
 90
        0
280
     0
281
     1
  0
CLASS
  1
HATCH
  2
AcDbHatch
  3
AutoCAD 2000
 90
        0
280
     0
281
     1
  0
CLASS
  1
XRECORD
  2
AcDbXrecord
  3
AutoCAD 2000
 90
        0
280
     0
281
     0
  0
CLASS
  1
LONG_TRANSACTION
  2
AcDbLongTransaction
  3
AutoCAD 2000
 90
        0
280
     0
281
     0
  0
CLASS
  1
LWPOLYLINE
  2
AcDbPolyline
  3
AutoCAD 2000
 90
        0
280
     0
281
     1
  0
CLASS
  1
HATCH
  2
AcDbHatch
  3
AutoCAD 2000
 90
        0
280
     0
281
     1
  0
CLASS
  1
XRECORD
  2
AcDbXrecord
  3
AutoCAD 2000
 90
        0
280
     0
281
     0
  0
CLASS
  1
LONG_TRANSACTION
  2
AcDbLongTransaction
  3
AutoCAD 2000
 90
        0
280
     0
281
     0
  0
CLASS
  1
LWPOLYLINE
  2
AcDbPolyline
  3
AutoCAD 2000
 90
        0
280
     0
281
     1
  0
CLASS
  1
HATCH
  2
AcDbHatch
  3
AutoCAD 2000
 90
        0
280
     0
281
     1
  0
CLASS
  1
XRECORD
  2
AcDbXrecord
  3
AutoCAD 2000
 90
        0
280
     0
281
     0
  0
CLASS
  1
LONG_TRANSACTION
  2
AcDbLongTransaction
  3
AutoCAD 2000
 90
        0
280
     0
281
     0
  0
CLASS
  1
LWPOLYLINE
  2
AcDbPolyline
  3
AutoCAD 2000
 90
        0
280
     0
281
     1
  0
CLASS
  1
HATCH
  2
AcDbHatch
  3
AutoCAD 2000
 90
        0
280
     0
281
     1
  0
CLASS
  1
XRECORD
  2
AcDbXrecord
  3
AutoCAD 2000
 90
        0
280
     0
281
     0
  0
CLASS
  1
LONG_TRANSACTION
  2
AcDbLongTransaction
  3
AutoCAD 2000
 90
        0
280
     0
281
     0
  0
CLASS
  1
LWPOLYLINE
  2
AcDbPolyline
  3
AutoCAD 2000
 90
        0
280
     0
281
     1
  0
CLASS
  1
HATCH
  2
AcDbHatch
  3
AutoCAD 2000
 90
        0
280
     0
281
     1
  0
CLASS
  1
XRECORD
  2
AcDbXrecord
  3
AutoCAD 2000
 90
        0
280
     0
281
     0
  0
CLASS
  1
LONG_TRANSACTION
  2
AcDbLongTransaction
  3
AutoCAD 2000
 90
        0
280
     0
281
     0
  0
CLASS
  1
LWPOLYLINE
  2
AcDbPolyline
  3
AutoCAD 2000
 90
        0
280
     0
281
     1
  0
CLASS
  1
HATCH
  2
AcDbHatch
  3
AutoCAD 2000
 90
        0
280
     0
281
     1
  0
CLASS
  1
XRECORD
  2
AcDbXrecord
  3
AutoCAD 2000
 90
        0
280
     0
281
     0
  0
CLASS
  1
LONG_TRANSACTION
  2
AcDbLongTransaction
  3
AutoCAD 2000
 90
        0
280
     0
281
     0
  0
CLASS
  1
LWPOLYLINE
  2
AcDbPolyline
  3
AutoCAD 2000
 90
        0
280
     0
281
     1
  0
CLASS
  1
HATCH
  2
AcDbHatch
  3
AutoCAD 2000
 90
        0
280
     0
281
     1
  0
CLASS
  1
XRECORD
  2
AcDbXrecord
  3
AutoCAD 2000
 90
        0
280
     0
281
     0
  0
CLASS
  1
LONG_TRANSACTION
  2
AcDbLongTransaction
  3
AutoCAD 2000
 90
        0
280
     0
281
     0
  0
CLASS
  1
LWPOLYLINE
  2
AcDbPolyline
  3
AutoCAD 2000
 90
        0
280
     0
281
     1
  0
CLASS
  1
HATCH
  2
AcDbHatch
  3
AutoCAD 2000
 90
        0
280
     0
281
     1
  0
CLASS
  1
XRECORD
  2
AcDbXrecord
  3
AutoCAD 2000
 90
        0
280
     0
281
     0
  0
CLASS
  1
LONG_TRANSACTION
  2
AcDbLongTransaction
  3
AutoCAD 2000
 90
        0
280
     0
281
     0
  0
CLASS
  1
LWPOLYLINE
  2
AcDbPolyline
  3
AutoCAD 2000
 90
        0
280
     0
281
     1
  0
CLASS
  1
HATCH
  2
AcDbHatch
  3
AutoCAD 2000
 90
        0
280
     0
281
     1
  0
CLASS
  1
XRECORD
  2
AcDbXrecord
  3
AutoCAD 2000
 90
        0
280
     0
281
     0
  0
CLASS
  1
LONG_TRANSACTION
  2
AcDbLongTransaction
  3
AutoCAD 2000
 90
        0
280
     0
281
     0
  0
CLASS
  1
LWPOLYLINE
  2
AcDbPolyline
  3
AutoCAD 2000
 90
        0
280
     0
281
     1
  0
CLASS
  1
HATCH
  2
AcDbHatch
  3
AutoCAD 2000
 90
        0
280
     0
281
     1
  0
CLASS
  1
XRECORD
  2
AcDbXrecord
  3
AutoCAD 2000
 90
        0
280
     0
281
     0
  0
CLASS
  1
LONG_TRANSACTION
  2
AcDbLongTransaction
  3
AutoCAD 2000
 90
        0
280
     0
281
     0
  0
CLASS
  1
LWPOLYLINE
  2
AcDbPolyline
  3
AutoCAD 2000
 90
        0
280
     0
281
     1
  0
CLASS
  1
HATCH
  2
AcDbHatch
  3
AutoCAD 2000
 90
        0
280
     0
281
     1
  0
CLASS
  1
XRECORD
  2
AcDbXrecord
  3
AutoCAD 2000
 90
        0
280
     0
281
     0
  0
CLASS
  1
LONG_TRANSACTION
  2
AcDbLongTransaction
  3
AutoCAD 2000
 90
        0
280
     0
281
     0
  0
CLASS
  1
LWPOLYLINE
  2
AcDbPolyline
  3
AutoCAD 2000
 90
        0
280
     0
281
     1
  0
CLASS
  1
HATCH
  2
AcDbHatch
  3
AutoCAD 2000
 90
        0
280
     0
281
     1
  0
CLASS
  1
XRECORD
  2
AcDbXrecord
  3
AutoCAD 2000
 90
        0
280
     0
281
     0
  0
CLASS
  1
LONG_TRANSACTION
  2
AcDbLongTransaction
  3
AutoCAD 2000
 90
        0
280
     0
281
     0
  0
CLASS
  1
LWPOLYLINE
  2
AcDbPolyline
  3
AutoCAD 2000
 90
        0
280
     0
281
     1
  0
CLASS
  1
HATCH
  2
AcDbHatch
  3
AutoCAD 2000
 90
        0
280
     0
281
     1
  0
CLASS
  1
XRECORD
  2
AcDbXrecord
  3
AutoCAD 2000
 90
        0
280
     0
281
     0
  0
CLASS
  1
LONG_TRANSACTION
  2
AcDbLongTransaction
  3
AutoCAD 2000
 90
        0
280
     0
281
     0
  0
CLASS
  1
LWPOLYLINE
  2
AcDbPolyline
  3
AutoCAD 2000
 90
        0
280
     0
281
     1
  0
CLASS
  1
HATCH
  2
AcDbHatch
  3
AutoCAD 2000
 90
        0
280
     0
281
     1
  0
CLASS
  1
XRECORD
  2
AcDbXrecord
  3
AutoCAD 2000
 90
        0
280
     0
281
     0
  0
CLASS
  1
LONG_TRANSACTION
  2
AcDbLongTransaction
  3
AutoCAD 2000
 90
        0
280
     0
281
     0
  0
CLASS
  1
LWPOLYLINE
  2
AcDbPolyline
  3
AutoCAD 2000
 90
        0
280
     0
281
     1
  0
CLASS
  1
HATCH
  2
AcDbHatch
  3
AutoCAD 2000
 90
        0
280
     0
281
     1
  0
CLASS
  1
XRECORD
  2
AcDbXrecord
  3
AutoCAD 2000
 90
        0
280
     0
281
     0
  0
CLASS
  1
LONG_TRANSACTION
  2
AcDbLongTransaction
  3
AutoCAD 2000
 90
        0
280
     0
281
     0
  0
CLASS
  1
LWPOLYLINE
  2
AcDbPolyline
  3
AutoCAD 2000
 90
        0
280
     0
281
     1
  0
CLASS
  1
HATCH
  2
AcDbHatch
  3
AutoCAD 2000
 90
        0
280
     0
281
     1
  0
CLASS
  1
XRECORD
  2
AcDbXrecord
  3
AutoCAD 2000
 90
        0
280
     0
281
     0
  0
CLASS
  1
LONG_TRANSACTION
  2
AcDbLongTransaction
  3
AutoCAD 2000
 90
        0
280
     0
281
     0
  0
CLASS
  1
LWPOLYLINE
  2
AcDbPolyline
  3
AutoCAD 2000
 90
        0
280
     0
281
     1
  0
CLASS
  1
HATCH
  2
AcDbHatch
  3
AutoCAD 2000
 90
        0
280
     0
281
     1
  0
CLASS
  1
XRECORD
  2
AcDbXrecord
  3
AutoCAD 2000
 90
        0
280
     0
281
     0
  0
CLASS
  1
LONG_TRANSACTION
  2
AcDbLongTransaction
  3
AutoCAD 2000
 90
        0
280
     0
281
     0
  0
CLASS
  1
LWPOLYLINE
  2
AcDbPolyline
  3
AutoCAD 2000
 90
        0
280
     0
281
     1
  0
CLASS
  1
HATCH
  2
AcDbHatch
  3
AutoCAD 2000
 90
        0
280
     0
281
     1
  0
CLASS
  1
XRECORD
  2
AcDbXrecord
  3
AutoCAD 2000
 90
        0
280
     0
281
     0
  0
CLASS
  1
LONG_TRANSACTION
  2
AcDbLongTransaction
  3
AutoCAD 2000
 90
        0
280
     0
281
     0
  0
CLASS
  1
LWPOLYLINE
  2
AcDbPolyline
  3
AutoCAD 2000
 90
        0
280
     0
281
     1
  0
CLASS
  1
HATCH
  2
AcDbHatch
  3
AutoCAD 2000
 90
        0
280
     0
281
     1
  0
CLASS
  1
XRECORD
  2
AcDbXrecord
  3
AutoCAD 2000
 90
        0
280
     0
281
     0
  0
CLASS
  1
LONG_TRANSACTION
  2
AcDbLongTransaction
  3
AutoCAD 2000
 90
        0
280
     0
281
     0
  0
CLASS
  1
LWPOLYLINE
  2
AcDbPolyline
  3
AutoCAD 2000
 90
        0
280
     0
281
     1
  0
CLASS
  1
HATCH
  2
AcDbHatch
  3
AutoCAD 2000
 90
        0
280
     0
281
     1
  0
CLASS
  1
XRECORD
  2
AcDbXrecord
  3
AutoCAD 2000
 90
        0
280
     0
281
     0
  0
CLASS
  1
LONG_TRANSACTION
  2
AcDbLongTransaction
  3
AutoCAD 2000
 90
        0
280
     0
281
     0
  0
CLASS
  1
LWPOLYLINE
  2
AcDbPolyline
  3
AutoCAD 2000
 90
        0
280
     0
281
     1
  0
CLASS
  1
HATCH
  2
AcDbHatch
  3
AutoCAD 2000
 90
        0
280
     0
281
     1
  0
CLASS
  1
XRECORD
  2
AcDbXrecord
  3
AutoCAD 2000
 90
        0
280
     0
281
     0
  0
CLASS
  1
LONG_TRANSACTION
  2
AcDbLongTransaction
  3
AutoCAD 2000
 90
        0
280
     0
281
     0
  0
CLASS
  1
LWPOLYLINE
  2
AcDbPolyline
  3
AutoCAD 2000
 90
        0
280
     0
281
     1
  0
CLASS
  1
HATCH
  2
AcDbHatch
  3
AutoCAD 2000
 90
        0
280
     0
281
     1
  0
CLASS
  1
XRECORD
  2
AcDbXrecord
  3
AutoCAD 2000
 90
        0
280
     0
281
     0
  0
CLASS
  1
LONG_TRANSACTION
  2
AcDbLongTransaction
  3
AutoCAD 2000
 90
        0
280
     0
281
     0
  0
CLASS
  1
LWPOLYLINE
  2
AcDbPolyline
  3
AutoCAD 2000
 90
        0
280
     0
281
     1
  0
CLASS
  1
HATCH
  2
AcDbHatch
  3
AutoCAD 2000
 90
        0
280
     0
281
     1
  0
CLASS
  1
XRECORD
  2
AcDbXrecord
  3
AutoCAD 2000
 90
        0
280
     0
281
     0
  0
CLASS
  1
LONG_TRANSACTION
  2
AcDbLongTransaction
  3
AutoCAD 2000
 90
        0
280
     0
281
     0
  0
CLASS
  1
LWPOLYLINE
  2
AcDbPolyline
  3
AutoCAD 2000
 90
        0
280
     0
281
     1
  0
CLASS
  1
HATCH
  2
AcDbHatch
  3
AutoCAD 2000
 90
        0
280
     0
281
     1
  0
CLASS
  1
XRECORD
  2
AcDbXrecord
  3
AutoCAD 2000
 90
        0
280
     0
281
     0
  0
CLASS
  1
LONG_TRANSACTION
  2
AcDbLongTransaction
  3
AutoCAD 2000
 90
        0
280
     0
281
     0
  0
CLASS
  1
LWPOLYLINE
  2
AcDbPolyline
  3
AutoCAD 2000
 90
        0
280
     0
281
     1
  0
CLASS
  1
HATCH
  2
AcDbHatch
  3
AutoCAD 2000
 90
        0
280
     0
281
     1
  0
CLASS
  1
XRECORD
  2
AcDbXrecord
  3
AutoCAD 2000
 90
        0
280
     0
281
     0
  0
CLASS
  1
LONG_TRANSACTION
  2
AcDbLongTransaction
  3
AutoCAD 2000
 90
        0
280
     0
281
     0
  0
CLASS
  1
LWPOLYLINE
  2
AcDbPolyline
  3
AutoCAD 2000
 90
        0
280
     0
281
     1
  0
CLASS
  1
HATCH
  2
AcDbHatch
  3
AutoCAD 2000
 90
        0
280
     0
281
     1
  0
CLASS
  1
XRECORD
  2
AcDbXrecord
  3
AutoCAD 2000
 90
        0
280
     0
281
     0
  0
CLASS
  1
LONG_TRANSACTION
  2
AcDbLongTransaction
  3
AutoCAD 2000
 90
        0
280
     0
281
     0
  0
CLASS
  1
LWPOLYLINE
  2
AcDbPolyline
  3
AutoCAD 2000
 90
        0
280
     0
281
     1
  0
CLASS
  1
HATCH
  2
AcDbHatch
  3
AutoCAD 2000
 90
        0
280
     0
281
     1
  0
CLASS
  1
XRECORD
  2
AcDbXrecord
  3
AutoCAD 2000
 90
        0
280
     0
281
     0
  0
CLASS
  1
LONG_TRANSACTION
  2
AcDbLongTransaction
  3
AutoCAD 2000
 90
        0
280
     0
281
     0
  0
CLASS
  1
LWPOLYLINE
  2
AcDbPolyline
  3
AutoCAD 2000
 90
        0
280
     0
281
     1
  0
CLASS
  1
HATCH
  2
AcDbHatch
  3
AutoCAD 2000
 90
        0
280
     0
281
     1
  0
CLASS
  1
XRECORD
  2
AcDbXrecord
  3
AutoCAD 2000
 90
        0
280
     0
281
     0
  0
CLASS
  1
LONG_TRANSACTION
  2
AcDbLongTransaction
  3
AutoCAD 2000
 90
        0
280
     0
281
     0
  0
CLASS
  1
LWPOLYLINE
  2
AcDbPolyline
  3
AutoCAD 2000
 90
        0
280
     0
281
     1
  0
CLASS
  1
HATCH
  2
AcDbHatch
  3
AutoCAD 2000
 90
        0
280
     0
281
     1
  0
CLASS
  1
XRECORD
  2
AcDbXrecord
  3
AutoCAD 2000
 90
        0
280
     0
281
     0
  0
CLASS
  1
LONG_TRANSACTION
  2
AcDbLongTransaction
  3
AutoCAD 2000
 90
        0
280
     0
281
     0
  0
CLASS
  1
LWPOLYLINE
  2
AcDbPolyline
  3
AutoCAD 2000
 90
        0
280
     0
281
     1
  0
CLASS
  1
HATCH
  2
AcDbHatch
  3
AutoCAD 2000
 90
        0
280
     0
281
     1
  0
CLASS
  1
XRECORD
  2
AcDbXrecord
  3
AutoCAD 2000
 90
        0
280
     0
281
     0
  0
CLASS
  1
LONG_TRANSACTION
  2
AcDbLongTransaction
  3
AutoCAD 2000
 90
        0
280
     0
281
     0
  0
CLASS
  1
LWPOLYLINE
  2
AcDbPolyline
  3
AutoCAD 2000
 90
        0
280
     0
281
     1
  0
CLASS
  1
HATCH
  2
AcDbHatch
  3
AutoCAD 2000
 90
        0
280
     0
281
     1
  0
CLASS
  1
XRECORD
  2
AcDbXrecord
  3
AutoCAD 2000
 90
        0
280
     0
281
     0
  0
CLASS
  1
LONG_TRANSACTION
  2
AcDbLongTransaction
  3
AutoCAD 2000
 90
        0
280
     0
281
     0
  0
CLASS
  1
LWPOLYLINE
  2
AcDbPolyline
  3
AutoCAD 2000
 90
        0
280
     0
281
     1
  0
CLASS
  1
HATCH
  2
AcDbHatch
  3
AutoCAD 2000
 90
        0
280
     0
281
     1
  0
CLASS
  1
XRECORD
  2
AcDbXrecord
  3
AutoCAD 2000
 90
        0
280
     0
281
     0
  0
CLASS
  1
LONG_TRANSACTION
  2
AcDbLongTransaction
  3
AutoCAD 2000
 90
        0
280
     0
281
     0
  0
CLASS
  1
LWPOLYLINE
  2
AcDbPolyline
  3
AutoCAD 2000
 90
        0
280
     0
281
     1
  0
CLASS
  1
HATCH
  2
AcDbHatch
  3
AutoCAD 2000
 90
        0
280
     0
281
     1
  0
CLASS
  1
XRECORD
  2
AcDbXrecord
  3
AutoCAD 2000
 90
        0
280
     0
281
     0
  0
CLASS
  1
LONG_TRANSACTION
  2
AcDbLongTransaction
  3
AutoCAD 2000
 90
        0
280
     0
281
     0
  0
CLASS
  1
LWPOLYLINE
  2
AcDbPolyline
  3
AutoCAD 2000
 90
        0
280
     0
281
     1
  0
CLASS
  1
HATCH
  2
AcDbHatch
  3
AutoCAD 2000
 90
        0
280
     0
281
     1
  0
CLASS
  1
XRECORD
  2
AcDbXrecord
  3
AutoCAD 2000
 90
        0
280
     0
281
     0
  0
CLASS
  1
LONG_TRANSACTION
  2
AcDbLongTransaction
  3
AutoCAD 2000
 90
        0
280
     0
281
     0
  0
CLASS
  1
LWPOLYLINE
  2
AcDbPolyline
  3
AutoCAD 2000
 90
        0
280
     0
281
     1
  0
CLASS
  1
HATCH
  2
AcDbHatch
  3
AutoCAD 2000
 90
        0
280
     0
281
     1
  0
CLASS
  1
XRECORD
  2
AcDbXrecord
  3
AutoCAD 2000
 90
        0
280
     0
281
     0
  0
CLASS
  1
LONG_TRANSACTION
  2
AcDbLongTransaction
  3
AutoCAD 2000
 90
        0
280
     0
281
     0
  0
CLASS
  1
LWPOLYLINE
  2
AcDbPolyline
  3
AutoCAD 2000
 90
        0
280
     0
281
     1
  0
CLASS
  1
HATCH
  2
AcDbHatch
  3
AutoCAD 2000
 90
        0
280
     0
281
     1
  0
CLASS
  1
XRECORD
  2
AcDbXrecord
  3
AutoCAD 2000
 90
        0
280
     0
281
     0
  0
CLASS
  1
LONG_TRANSACTION
  2
AcDbLongTransaction
  3
AutoCAD 2000
 90
        0
280
     0
281
     0
  0
CLASS
  1
LWPOLYLINE
  2
AcDbPolyline
  3
AutoCAD 2000
 90
        0
280
     0
281
     1
  0
CLASS
  1
HATCH
  2
AcDbHatch
  3
AutoCAD 2000
 90
        0
280
     0
281
     1
  0
CLASS
  1
XRECORD
  2
AcDbXrecord
  3
AutoCAD 2000
 90
        0
280
     0
281
     0
  0
CLASS
  1
LONG_TRANSACTION
  2
AcDbLongTransaction
  3
AutoCAD 2000
 90
        0
280
     0
281
     0
  0
CLASS
  1
LWPOLYLINE
  2
AcDbPolyline
  3
AutoCAD 2000
 90
        0
280
     0
281
     1
  0
CLASS
  1
HATCH
  2
AcDbHatch
  3
AutoCAD 2000
 90
        0
280
     0
281
     1
  0
CLASS
  1
XRECORD
  2
AcDbXrecord
  3
AutoCAD 2000
 90
        0
280
     0
281
     0
  0
CLASS
  1
LONG_TRANSACTION
  2
AcDbLongTransaction
  3
AutoCAD 2000
 90
        0
280
     0
281
     0
  0
CLASS
  1
LWPOLYLINE
  2
AcDbPolyline
  3
AutoCAD 2000
 90
        0
280
     0
281
     1
  0
CLASS
  1
HATCH
  2
AcDbHatch
  3
AutoCAD 2000
 90
        0
280
     0
281
     1
  0
CLASS
  1
XRECORD
  2
AcDbXrecord
  3
AutoCAD 2000
 90
        0
280
     0
281
     0
  0
CLASS
  1
LONG_TRANSACTION
  2
AcDbLongTransaction
  3
AutoCAD 2000
 90
        0
280
     0
281
     0
  0
CLASS
  1
LWPOLYLINE
  2
AcDbPolyline
  3
AutoCAD 2000
 90
        0
280
     0
281
     1
  0
CLASS
  1
HATCH
  2
AcDbHatch
  3
AutoCAD 2000
 90
        0
280
     0
281
     1
  0
CLASS
  1
XRECORD
  2
AcDbXrecord
  3
AutoCAD 2000
 90
        0
280
     0
281
     0
  0
CLASS
  1
LONG_TRANSACTION
  2
AcDbLongTransaction
  3
AutoCAD 2000
 90
        0
280
     0
281
     0
  0
CLASS
  1
LWPOLYLINE
  2
AcDbPolyline
  3
AutoCAD 2000
 90
        0
280
     0
281
     1
  0
CLASS
  1
HATCH
  2
AcDbHatch
  3
AutoCAD 2000
 90
        0
280
     0
281
     1
  0
CLASS
  1
XRECORD
  2
AcDbXrecord
  3
AutoCAD 2000
 90
        0
280
     0
281
     0
  0
CLASS
  1
LONG_TRANSACTION
  2
AcDbLongTransaction
  3
AutoCAD 2000
 90
        0
280
     0
281
     0
  0
CLASS
  1
LWPOLYLINE
  2
AcDbPolyline
  3
AutoCAD 2000
 90
        0
280
     0
281
     1
  0
CLASS
  1
HATCH
  2
AcDbHatch
  3
AutoCAD 2000
 90
        0
280
     0
281
     1
  0
CLASS
  1
XRECORD
  2
AcDbXrecord
  3
AutoCAD 2000
 90
        0
280
     0
281
     0
  0
CLASS
  1
LONG_TRANSACTION
  2
AcDbLongTransaction
  3
AutoCAD 2000
 90
        0
280
     0
281
     0
  0
CLASS
  1
LWPOLYLINE
  2
AcDbPolyline
  3
AutoCAD 2000
 90
        0
280
     0
281
     1
  0
CLASS
  1
HATCH
  2
AcDbHatch
  3
AutoCAD 2000
 90
        0
280
     0
281
     1
  0
CLASS
  1
XRECORD
  2
AcDbXrecord
  3
AutoCAD 2000
 90
        0
280
     0
281
     0
  0
CLASS
  1
LONG_TRANSACTION
  2
AcDbLongTransaction
  3
AutoCAD 2000
 90
        0
280
     0
281
     0
  0
CLASS
  1
LWPOLYLINE
  2
AcDbPolyline
  3
AutoCAD 2000
 90
        0
280
     0
281
     1
  0
CLASS
  1
HATCH
  2
AcDbHatch
  3
AutoCAD 2000
 90
        0
280
     0
281
     1
  0
CLASS
  1
XRECORD
  2
AcDbXrecord
  3
AutoCAD 2000
 90
        0
280
     0
281
     0
  0
CLASS
  1
LONG_TRANSACTION
  2
AcDbLongTransaction
  3
AutoCAD 2000
 90
        0
280
     0
281
     0
  0
CLASS
  1
LWPOLYLINE
  2
AcDbPolyline
  3
AutoCAD 2000
 90
        0
280
     0
281
     1
  0
CLASS
  1
HATCH
  2
AcDbHatch
  3
AutoCAD 2000
 90
        0
280
     0
281
     1
  0
CLASS
  1
XRECORD
  2
AcDbXrecord
  3
AutoCAD 2000
 90
        0
280
     0
281
     0
  0
CLASS
  1
LONG_TRANSACTION
  2
AcDbLongTransaction
  3
AutoCAD 2000
 90
        0
280
     0
281
     0
  0
CLASS
  1
LWPOLYLINE
  2
AcDbPolyline
  3
AutoCAD 2000
 90
        0
280
     0
281
     1
  0
CLASS
  1
HATCH
  2
AcDbHatch
  3
AutoCAD 2000
 90
        0
280
     0
281
     1
  0
CLASS
  1
XRECORD
  2
AcDbXrecord
  3
AutoCAD 2000
 90
        0
280
     0
281
     0
  0
CLASS
  1
LONG_TRANSACTION
  2
AcDbLongTransaction
  3
AutoCAD 2000
 90
        0
280
     0
281
     0
  0
CLASS
  1
LWPOLYLINE
  2
AcDbPolyline
  3
AutoCAD 2000
 90
        0
280
     0
281
     1
  0
CLASS
  1
HATCH
  2
AcDbHatch
  3
AutoCAD 2000
 90
        0
280
     0
281
     1
  0
CLASS
  1
XRECORD
  2
AcDbXrecord
  3
AutoCAD 2000
 90
        0
280
     0
281
     0
  0
CLASS
  1
LONG_TRANSACTION
  2
AcDbLongTransaction
  3
AutoCAD 2000
 90
        0
280
     0
281
     0
  0
CLASS
  1
LWPOLYLINE
  2
AcDbPolyline
  3
AutoCAD 2000
 90
        0
280
     0
281
     1
  0
CLASS
  1
HATCH
  2
AcDbHatch
  3
AutoCAD 2000
 90
        0
280
     0
281
     1
  0
CLASS
  1
XRECORD
  2
AcDbXrecord
  3
AutoCAD 2000
 90
        0
280
     0
281
     0
  0
CLASS
  1
LONG_TRANSACTION
  2
AcDbLongTransaction
  3
AutoCAD 2000
 90
        0
280
     0
281
     0
  0
CLASS
  1
LWPOLYLINE
  2
AcDbPolyline
  3
AutoCAD 2000
 90
        0
280
     0
281
     1
  0
CLASS
  1
HATCH
  2
AcDbHatch
  3
AutoCAD 2000
 90
        0
280
     0
281
     1
  0
CLASS
  1
XRECORD
  2
AcDbXrecord
  3
AutoCAD 2000
 90
        0
280
     0
281
     0
  0
CLASS
  1
LONG_TRANSACTION
  2
AcDbLongTransaction
  3
AutoCAD 2000
 90
        0
280
     0
281
     0
  0
CLASS
  1
LWPOLYLINE
  2
AcDbPolyline
  3
AutoCAD 2000
 90
        0
280
     0
281
     1
  0
CLASS
  1
HATCH
  2
AcDbHatch
  3
AutoCAD 2000
 90
        0
280
     0
281
     1
  0
CLASS
  1
XRECORD
  2
AcDbXrecord
  3
AutoCAD 2000
 90
        0
280
     0
281
     0
  0
CLASS
  1
LONG_TRANSACTION
  2
AcDbLongTransaction
  3
AutoCAD 2000
 90
        0
280
     0
281
     0
  0
CLASS
  1
LWPOLYLINE
  2
AcDbPolyline
  3
AutoCAD 2000
 90
        0
280
     0
281
     1
  0
CLASS
  1
HATCH
  2
AcDbHatch
  3
AutoCAD 2000
 90
        0
280
     0
281
     1
  0
CLASS
  1
XRECORD
  2
AcDbXrecord
  3
AutoCAD 2000
 90
        0
280
     0
281
     0
  0
CLASS
  1
LONG_TRANSACTION
  2
AcDbLongTransaction
  3
AutoCAD 2000
 90
        0
280
     0
281
     0
  0
CLASS
  1
LWPOLYLINE
  2
AcDbPolyline
  3
AutoCAD 2000
 90
        0
280
     0
281
     1
  0
CLASS
  1
HATCH
  2
AcDbHatch
  3
AutoCAD 2000
 90
        0
280
     0
281
     1
  0
CLASS
  1
XRECORD
  2
AcDbXrecord
  3
AutoCAD 2000
 90
        0
280
     0
281
     0
  0
CLASS
  1
LONG_TRANSACTION
  2
AcDbLongTransaction
  3
AutoCAD 2000
 90
        0
280
     0
281
     0
  0
CLASS
  1
LWPOLYLINE
  2
AcDbPolyline
  3
AutoCAD 2000
 90
        0
280
     0
281
     1
  0
CLASS
  1
HATCH
  2
AcDbHatch
  3
AutoCAD 2000
 90
        0
280
     0
281
     1
  0
CLASS
  1
XRECORD
  2
AcDbXrecord
  3
AutoCAD 2000
 90
        0
280
     0
281
     0
  0
CLASS
  1
LONG_TRANSACTION
  2
AcDbLongTransaction
  3
AutoCAD 2000
 90
        0
280
     0
281
     0
  0
CLASS
  1
LWPOLYLINE
  2
AcDbPolyline
  3
AutoCAD 2000
 90
        0
280
     0
281
     1
  0
CLASS
  1
HATCH
  2
AcDbHatch
  3
AutoCAD 2000
 90
        0
280
     0
281
     1
  0
CLASS
  1
XRECORD
  2
AcDbXrecord
  3
AutoCAD 2000
 90
        0
280
     0
281
     0
  0
CLASS
  1
LONG_TRANSACTION
  2
AcDbLongTransaction
  3
AutoCAD 2000
 90
        0
280
     0
281
     0
  0
CLASS
  1
LWPOLYLINE
  2
AcDbPolyline
  3
AutoCAD 2000
 90
        0
280
     0
281
     1
  0
CLASS
  1
HATCH
  2
AcDbHatch
  3
AutoCAD 2000
 90
        0
280
     0
281
     1
  0
CLASS
  1
XRECORD
  2
AcDbXrecord
  3
AutoCAD 2000
 90
        0
280
     0
281
     0
  0
CLASS
  1
LONG_TRANSACTION
  2
AcDbLongTransaction
  3
AutoCAD 2000
 90
        0
280
     0
281
     0
  0
CLASS
  1
LWPOLYLINE
  2
AcDbPolyline
  3
AutoCAD 2000
 90
        0
280
     0
281
     1
  0
CLASS
  1
HATCH
  2
AcDbHatch
  3
AutoCAD 2000
 90
        0
280
     0
281
     1
  0
CLASS
  1
XRECORD
  2
AcDbXrecord
  3
AutoCAD 2000
 90
        0
280
     0
281
     0
  0
CLASS
  1
LONG_TRANSACTION
  2
AcDbLongTransaction
  3
AutoCAD 2000
 90
        0
280
     0
281
     0
  0
CLASS
  1
LWPOLYLINE
  2
AcDbPolyline
  3
AutoCAD 2000
 90
        0
280
     0
281
     1
  0
CLASS
  1
HATCH
  2
AcDbHatch
  3
AutoCAD 2000
 90
        0
280
     0
281
     1
  0
CLASS
  1
XRECORD
  2
AcDbXrecord
  3
AutoCAD 2000
 90
        0
280
     0
281
     0
  0
CLASS
  1
LONG_TRANSACTION
  2
AcDbLongTransaction
  3
AutoCAD 2000
 90
        0
280
     0
281
     0
  0
CLASS
  1
LWPOLYLINE
  2
AcDbPolyline
  3
AutoCAD 2000
 90
        0
280
     0
281
     1
  0
CLASS
  1
HATCH
  2
AcDbHatch
  3
AutoCAD 2000
 90
        0
280
     0
281
     1
  0
CLASS
  1
XRECORD
  2
AcDbXrecord
  3
AutoCAD 2000
 90
        0
280
     0
281
     0
  0
CLASS
  1
LONG_TRANSACTION
  2
AcDbLongTransaction
  3
AutoCAD 2000
 90
        0
280
     0
281
     0
  0
CLASS
  1
LWPOLYLINE
  2
AcDbPolyline
  3
AutoCAD 2000
 90
        0
280
     0
281
     1
  0
CLASS
  1
HATCH
  2
AcDbHatch
  3
AutoCAD 2000
 90
        0
280
     0
281
     1
  0
CLASS
  1
XRECORD
  2
AcDbXrecord
  3
AutoCAD 2000
 90
        0
280
     0
281
     0
  0
CLASS
  1
LONG_TRANSACTION
  2
AcDbLongTransaction
  3
AutoCAD 2000
 90
        0
280
     0
281
     0
  0
CLASS
  1
LWPOLYLINE
  2
AcDbPolyline
  3
AutoCAD 2000
 90
        0
280
     0
281
     1
  0
CLASS
  1
HATCH
  2
AcDbHatch
  3
AutoCAD 2000
 90
        0
280
     0
281
     1
  0
CLASS
  1
XRECORD
  2
AcDbXrecord
  3
AutoCAD 2000
 90
        0
280
     0
281
     0
  0
CLASS
  1
LONG_TRANSACTION
  2
AcDbLongTransaction
  3
AutoCAD 2000
 90
        0
280
     0
281
     0
  0
CLASS
  1
LWPOLYLINE
  2
AcDbPolyline
  3
AutoCAD 2000
 90
        0
280
     0
281
     1
  0
CLASS
  1
HATCH
  2
AcDbHatch
  3
AutoCAD 2000
 90
        0
280
     0
281
     1
  0
CLASS
  1
XRECORD
  2
AcDbXrecord
  3
AutoCAD 2000
 90
        0
280
     0
281
     0
  0
CLASS
  1
LONG_TRANSACTION
  2
AcDbLongTransaction
  3
AutoCAD 2000
 90
        0
280
     0
281
     0
  0
CLASS
  1
LWPOLYLINE
  2
AcDbPolyline
  3
AutoCAD 2000
 90
        0
280
     0
281
     1
  0
CLASS
  1
HATCH
  2
AcDbHatch
  3
AutoCAD 2000
 90
        0
280
     0
281
     1
  0
CLASS
  1
XRECORD
  2
AcDbXrecord
  3
AutoCAD 2000
 90
        0
280
     0
281
     0
  0
CLASS
  1
LONG_TRANSACTION
  2
AcDbLongTransaction
  3
AutoCAD 2000
 90
        0
280
     0
281
     0
  0
CLASS
  1
LWPOLYLINE
  2
AcDbPolyline
  3
AutoCAD 2000
 90
        0
280
     0
281
     1
  0
CLASS
  1
HATCH
  2
AcDbHatch
  3
AutoCAD 2000
 90
        0
280
     0
281
     1
  0
CLASS
  1
XRECORD
  2
AcDbXrecord
  3
AutoCAD 2000
 90
        0
280
     0
281
     0
  0
CLASS
  1
LONG_TRANSACTION
  2
AcDbLongTransaction
  3
AutoCAD 2000
 90
        0
280
     0
281
     0
  0
CLASS
  1
LWPOLYLINE
  2
AcDbPolyline
  3
AutoCAD 2000
 90
        0
280
     0
281
     1
  0
CLASS
  1
HATCH
  2
AcDbHatch
  3
AutoCAD 2000
 90
        0
280
     0
281
     1
  0
CLASS
  1
XRECORD
  2
AcDbXrecord
  3
AutoCAD 2000
 90
        0
280
     0
281
     0
  0
CLASS
  1
LONG_TRANSACTION
  2
AcDbLongTransaction
  3
AutoCAD 2000
 90
        0
280
     0
281
     0
  0
CLASS
  1
LWPOLYLINE
  2
AcDbPolyline
  3
AutoCAD 2000
 90
        0
280
     0
281
     1
  0
CLASS
  1
HATCH
  2
AcDbHatch
  3
AutoCAD 2000
 90
        0
280
     0
281
     1
  0
CLASS
  1
XRECORD
  2
AcDbXrecord
  3
AutoCAD 2000
 90
        0
280
     0
281
     0
  0
ENDSEC
  0
SECTION
  2
TABLES
  0
TABLE
  2
VPORT
  5
92
330
0
100
AcDbSymbolTable
 70
     2
  0
VPORT
  5
50D
330
92
100
AcDbSymbolTableRecord
100
AcDbViewportTableRecord
  2
*ACTIVE
 70
     0
 10
0.0
 20
0.0
 11
1.0
 21
1.0
 12
159.1001855576614
 22
250.87717087091
 13
0.0
 23
0.0
 14
10.0
 24
10.0
 15
10.0
 25
10.0
 16
0.0
 26
0.0
 36
1.0
 17
0.0
 27
0.0
 37
0.0
 40
488.2751373523172
 41
1.549367088607595
 42
50.0
 43
0.0
 44
0.0
 50
0.0
 51
0.0
 71
     0
 72
 10000
 73
     1
 74
     3
 75
     0
 76
     0
 77
     0
 78
     1
  0
ENDTAB
  0
TABLE
  2
LTYPE
  5
8D
330
0
100
AcDbSymbolTable
 70
     3
  0
LTYPE
  5
8E
330
8D
100
AcDbSymbolTableRecord
100
AcDbLinetypeTableRecord
  2
BYBLOCK
 70
     0
  3

 72
    65
 73
     0
 40
0.0
  0
LTYPE
  5
8F
330
8D
100
AcDbSymbolTableRecord
100
AcDbLinetypeTableRecord
  2
BYLAYER
 70
     0
  3

 72
    65
 73
     0
 40
0.0
  0
LTYPE
  5
A
330
8D
100
AcDbSymbolTableRecord
100
AcDbLinetypeTableRecord
  2
CONTINUOUS
 70
     0
  3
Solid line
 72
    65
 73
     0
 40
0.0
  0
LTYPE
  5
A2
330
8D
100
AcDbSymbolTableRecord
100
AcDbLinetypeTableRecord
  2
CENTER
 70
     0
  3
Center ____ _ ____ _ ____ _ ____ _ ____ _ ____
 72
    65
 73
     4
 40
50.8
 49
31.75
 74
     0
 49
-6.349999999999998
 74
     0
 49
6.349999999999998
 74
     0
 49
-6.349999999999998
 74
     0
  0
LTYPE
  5
136
330
8D
100
AcDbSymbolTableRecord
100
AcDbLinetypeTableRecord
  2
HIDDEN
 70
     0
  3
Hidden __ __ __ __ __ __ __ __ __ __ __ __ __ _
 72
    65
 73
     2
 40
9.524999999999996
 49
6.349999999999998
 74
     0
 49
-3.174999999999998
 74
     0
  0
ENDTAB
  0
TABLE
  2
LAYER
  5
14
102
{ACAD_XDICTIONARY
360
15
102
}
330
0
100
AcDbSymbolTable
 70
     7
  0
LAYER
  5
6
330
14
100
AcDbSymbolTableRecord
100
AcDbLayerTableRecord
  2
0
 70
     0
 62
     7
  6
CONTINUOUS
  0
LAYER
  5
161
330
14
100
AcDbSymbolTableRecord
100
AcDbLayerTableRecord
  2
3
 70
     0
 62
     3
  6
CONTINUOUS
  0
LAYER
  5
CE
330
14
100
AcDbSymbolTableRecord
100
AcDbLayerTableRecord
  2
1
 70
     0
 62
     1
  6
CENTER
  0
LAYER
  5
B1
330
14
100
AcDbSymbolTableRecord
100
AcDbLayerTableRecord
  2
DEFPOINTS
 70
     0
 62
     7
  6
CONTINUOUS
  0
LAYER
  5
C7
330
14
100
AcDbSymbolTableRecord
100
AcDbLayerTableRecord
  2
DIM
 70
     0
 62
     3
  6
CONTINUOUS
  0
LAYER
  5
A1
330
14
100
AcDbSymbolTableRecord
100
AcDbLayerTableRecord
  2
CEN
 70
     0
 62
     1
  6
CENTER
  0
LAYER
  5
1A9
330
14
100
AcDbSymbolTableRecord
100
AcDbLayerTableRecord
  2
2
 70
     0
 62
     2
  6
CONTINUOUS
  0
ENDTAB
  0
TABLE
  2
STYLE
  5
8A
330
0
100
AcDbSymbolTable
 70
     2
  0
STYLE
  5
8B
330
8A
100
AcDbSymbolTableRecord
100
AcDbTextStyleTableRecord
  2
STANDARD
 70
     0
 40
0.0
 41
1.0
 50
0.0
 71
     0
 42
5.777225951253058
  3
romans.shx
  4
whgtxt.shx
  0
STYLE
  5
D2
330
8A
100
AcDbSymbolTableRecord
100
AcDbTextStyleTableRecord
  2
GHS
 70
     0
 40
0.0
 41
0.6
 50
0.0
 71
     0
 42
3.0
  3
ROMANS
  4
GHS
  0
ENDTAB
  0
TABLE
  2
VIEW
  5
90
330
0
100
AcDbSymbolTable
 70
     0
  0
ENDTAB
  0
TABLE
  2
UCS
  5
91
330
0
100
AcDbSymbolTable
 70
     0
  0
ENDTAB
  0
TABLE
  2
APPID
  5
94
330
0
100
AcDbSymbolTable
 70
     2
  0
APPID
  5
95
330
94
100
AcDbSymbolTableRecord
100
AcDbRegAppTableRecord
  2
ACAD
 70
     0
  0
APPID
  5
531
330
94
100
AcDbSymbolTableRecord
100
AcDbRegAppTableRecord
  2
CONTENTBLOCKICON
 70
     0
  0
ENDTAB
  0
TABLE
  2
DIMSTYLE
  5
96
330
0
100
AcDbSymbolTable
 70
     2
  0
DIMSTYLE
105
A8
102
{ACAD_REACTORS
330
A5
330
E5
330
D3
330
202
330
218
330
22D
330
36E
330
25E
330
2E1
330
310
330
323
330
347
330
35C
330
272
330
29A
330
2B1
330
2C2
330
283
330
2FC
330
1AC
330
166
330
F7
330
1BD
330
24F
330
113
330
17D
330
122
330
1D4
330
138
330
14C
330
18A
102
}
330
96
100
AcDbSymbolTableRecord
100
AcDbDimStyleTableRecord
  2
STANDARD
 70
     0
  3

  4

  5

  6

  7

 40
1.0
 41
2.5
 42
1.0
 43
10.0
 44
0.6
 45
0.0
 46
0.0
 47
0.0
 48
0.0
140
3.0
141
0.09
142
0.0
143
25.4
144
1.0
145
0.0
146
1.0
147
1.0
 71
     0
 72
     0
 73
     0
 74
     0
 75
     0
 76
     0
 77
     1
 78
     8
170
     0
171
     2
172
     1
173
     0
174
     1
175
     0
176
   123
177
   123
178
     3
270
     2
271
     2
272
     2
273
     2
274
     2
340
8B
275
     1
280
     0
281
     0
282
     0
283
     1
284
     0
285
     0
286
     0
287
     0
288
     1
  0
DIMSTYLE
105
9C
330
96
100
AcDbSymbolTableRecord
100
AcDbDimStyleTableRecord
  2
1_1_2
 70
     0
  3

  4

  5

  6

  7

 40
1.0
 41
3.0
 42
1.0
 43
10.0
 44
0.6
 45
0.0
 46
0.0
 47
0.0
 48
0.0
140
3.5
141
0.09
142
0.0
143
25.4
144
1.0
145
0.0
146
1.0
147
1.0
 71
     0
 72
     0
 73
     0
 74
     0
 75
     0
 76
     0
 77
     1
 78
     8
170
     0
171
     2
172
     1
173
     0
174
     1
175
     0
176
   123
177
   123
178
     3
270
     2
271
     2
272
     2
273
     2
274
     2
340
8B
275
     1
280
     0
281
     0
282
     0
283
     1
284
     0
285
     0
286
     0
287
     0
288
     1
  0
ENDTAB
  0
TABLE
  2
BLOCK_RECORD
  5
1
330
0
100
AcDbSymbolTable
 70
    62
  0
BLOCK_RECORD
  5
2
102
{ACAD_XDICTIONARY
360
3
102
}
330
1
100
AcDbSymbolTableRecord
100
AcDbBlockTableRecord
  2
*MODEL_SPACE
  0
BLOCK_RECORD
  5
E
102
{ACAD_XDICTIONARY
360
F
102
}
330
1
100
AcDbSymbolTableRecord
100
AcDbBlockTableRecord
  2
*PAPER_SPACE
  0
BLOCK_RECORD
  5
A9
330
1
100
AcDbSymbolTableRecord
100
AcDbBlockTableRecord
  2
*D0
  0
BLOCK_RECORD
  5
A4
330
1
100
AcDbSymbolTableRecord
100
AcDbBlockTableRecord
  2
3
1001
ACAD
1000
DesignCenter Data
1002
{
1070
     1
1070
     4
1002
}
1001
CONTENTBLOCKICON
1071
        0
1004
2800000020000000200000000100080000000000000400000000000000000000000000000000000000000000000080000080000000808000800000008000800080800000C0C0C000C0DCC000F0CAA6000020400000206000002080000020A0000020C0000020E00000400000004020000040400000406000004080000040A0
1004
000040C0000040E00000600000006020000060400000606000006080000060A0000060C0000060E00000800000008020000080400000806000008080000080A0000080C0000080E00000A0000000A0200000A0400000A0600000A0800000A0A00000A0C00000A0E00000C0000000C0200000C0400000C0600000C0800000C0
1004
A00000C0C00000C0E00000E0000000E0200000E0400000E0600000E0800000E0A00000E0C00000E0E00040000000400020004000400040006000400080004000A0004000C0004000E00040200000402020004020400040206000402080004020A0004020C0004020E000404000004040200040404000404060004040800040
1004
40A0004040C0004040E00040600000406020004060400040606000406080004060A0004060C0004060E00040800000408020004080400040806000408080004080A0004080C0004080E00040A0000040A0200040A0400040A0600040A0800040A0A00040A0C00040A0E00040C0000040C0200040C0400040C0600040C08000
1004
40C0A00040C0C00040C0E00040E0000040E0200040E0400040E0600040E0800040E0A00040E0C00040E0E00080000000800020008000400080006000800080008000A0008000C0008000E00080200000802020008020400080206000802080008020A0008020C0008020E00080400000804020008040400080406000804080
1004
008040A0008040C0008040E00080600000806020008060400080606000806080008060A0008060C0008060E00080800000808020008080400080806000808080008080A0008080C0008080E00080A0000080A0200080A0400080A0600080A0800080A0A00080A0C00080A0E00080C0000080C0200080C0400080C0600080C0
1004
800080C0A00080C0C00080C0E00080E0000080E0200080E0400080E0600080E0800080E0A00080E0C00080E0E000C0000000C0002000C0004000C0006000C0008000C000A000C000C000C000E000C0200000C0202000C0204000C0206000C0208000C020A000C020C000C020E000C0400000C0402000C0404000C0406000C0
1004
408000C040A000C040C000C040E000C0600000C0602000C0604000C0606000C0608000C060A000C060C000C060E000C0800000C0802000C0804000C0806000C0808000C080A000C080C000C080E000C0A00000C0A02000C0A04000C0A06000C0A08000C0A0A000C0A0C000C0A0E000C0C00000C0C02000C0C04000C0C06000
1004
C0C08000C0C0A000F0FBFF00A4A0A000808080000000FF0000FF000000FFFF00FF000000FF00FF00FFFF0000FFFFFF0000000000000000000000000000000000000000000000000000000000000000000000000000000000000000000000000000000000000000000000000000000000000000000000000000000000000000
1004
00000000000000000000000000000000000000000000000000000000000000000000000000000000000000000000000000000000F90000F90000000000000000000000000000F9FFF9000000000000000000F300FFF9FF00000000000000000000000000000000F9FF00000000000000000000F3FFFFF90000000000000000
1004
00000000000000F9FFF900000000000000000000F900F30000000000000000000000000000000000000000000000000000000000000000F3F30000000000000000000000000000000000000000000000000000000000000000F30000000000000000000000000000000000000000000000000000000000000000F300000000
1004
00000000000000000000000000000000000000000000000000000000F30000000000000000000000000000000000000000000000000000000000000000F3F30000000000000000000000000000000000000000000000000000000000000000F300000000000000000000000000000000000000000000000000000000000000
1004
00F30000000000000000000000000000000000000000000000000000000000000000F30000000000000000000000000000000000000000000000000000000000000000F3F30000000000000000000000000000000000000000000000000000000000000000F300000000000000000000000000000000000000000000000000
1004
00000000000000F30000000000000000000000000000000000000000000000000000000000000000F30000000000000000000000000000000000000000000000000000000000000000F3F30000000000000000000000000000000000000000000000000000000000000000F300F900000000000000000000F900F900000000
1004
0000000000000000000000F9FFF9F300000000000000000000FFF9FF00000000000000000000000000000000FFFF00FA000000000000000000F9FFF9000000000000000000000000000000F9FFF9FAFAFA00000000000000000000000000000000000000000000000000F900000000FAFAFAF3000000000000000000000000
1004
0000000000000000000000000000000000FAFAFAFA0000000000000000000000000000000000000000000000000000000000FAFAFAF300000000000000000000000000000000000000000000000000000000000000000000000000000000000000000000000000000000000000000000000000000000000000000000000000
1004
0000000000000000000000000000000000000000000000000000000000000000000000000000000000000000000000000000000000000000
  0
BLOCK_RECORD
  5
D4
330
1
100
AcDbSymbolTableRecord
100
AcDbBlockTableRecord
  2
*D2
  0
BLOCK_RECORD
  5
348
330
1
100
AcDbSymbolTableRecord
100
AcDbBlockTableRecord
  2
*D3
  0
BLOCK_RECORD
  5
273
330
1
100
AcDbSymbolTableRecord
100
AcDbBlockTableRecord
  2
*D4
  0
BLOCK_RECORD
  5
284
330
1
100
AcDbSymbolTableRecord
100
AcDbBlockTableRecord
  2
*D5
  0
BLOCK_RECORD
  5
E8
330
1
100
AcDbSymbolTableRecord
100
AcDbBlockTableRecord
  2
*D6
  0
BLOCK_RECORD
  5
205
330
1
100
AcDbSymbolTableRecord
100
AcDbBlockTableRecord
  2
*D7
  0
BLOCK_RECORD
  5
21B
330
1
100
AcDbSymbolTableRecord
100
AcDbBlockTableRecord
  2
*D8
  0
BLOCK_RECORD
  5
230
330
1
100
AcDbSymbolTableRecord
100
AcDbBlockTableRecord
  2
*D9
  0
BLOCK_RECORD
  5
371
330
1
100
AcDbSymbolTableRecord
100
AcDbBlockTableRecord
  2
*D10
  0
BLOCK_RECORD
  5
261
330
1
100
AcDbSymbolTableRecord
100
AcDbBlockTableRecord
  2
*D11
  0
BLOCK_RECORD
  5
2E4
330
1
100
AcDbSymbolTableRecord
100
AcDbBlockTableRecord
  2
*D12
  0
BLOCK_RECORD
  5
313
330
1
100
AcDbSymbolTableRecord
100
AcDbBlockTableRecord
  2
*D13
  0
BLOCK_RECORD
  5
326
330
1
100
AcDbSymbolTableRecord
100
AcDbBlockTableRecord
  2
*D14
  0
BLOCK_RECORD
  5
35F
330
1
100
AcDbSymbolTableRecord
100
AcDbBlockTableRecord
  2
*D15
  0
BLOCK_RECORD
  5
29D
330
1
100
AcDbSymbolTableRecord
100
AcDbBlockTableRecord
  2
*D16
  0
BLOCK_RECORD
  5
2B4
330
1
100
AcDbSymbolTableRecord
100
AcDbBlockTableRecord
  2
*D17
  0
BLOCK_RECORD
  5
2C5
330
1
100
AcDbSymbolTableRecord
100
AcDbBlockTableRecord
  2
*D18
  0
BLOCK_RECORD
  5
2FF
330
1
100
AcDbSymbolTableRecord
100
AcDbBlockTableRecord
  2
*D19
  0
BLOCK_RECORD
  5
F8
330
1
100
AcDbSymbolTableRecord
100
AcDbBlockTableRecord
  2
*D20
  0
BLOCK_RECORD
  5
250
330
1
100
AcDbSymbolTableRecord
100
AcDbBlockTableRecord
  2
*D21
  0
BLOCK_RECORD
  5
17E
330
1
100
AcDbSymbolTableRecord
100
AcDbBlockTableRecord
  2
*D22
  0
BLOCK_RECORD
  5
1AF
330
1
100
AcDbSymbolTableRecord
100
AcDbBlockTableRecord
  2
*D23
  0
BLOCK_RECORD
  5
169
330
1
100
AcDbSymbolTableRecord
100
AcDbBlockTableRecord
  2
*D24
  0
BLOCK_RECORD
  5
1C0
330
1
100
AcDbSymbolTableRecord
100
AcDbBlockTableRecord
  2
*D25
  0
BLOCK_RECORD
  5
116
330
1
100
AcDbSymbolTableRecord
100
AcDbBlockTableRecord
  2
*D26
  0
BLOCK_RECORD
  5
125
330
1
100
AcDbSymbolTableRecord
100
AcDbBlockTableRecord
  2
*D27
  0
BLOCK_RECORD
  5
1D7
330
1
100
AcDbSymbolTableRecord
100
AcDbBlockTableRecord
  2
*D28
  0
BLOCK_RECORD
  5
13B
330
1
100
AcDbSymbolTableRecord
100
AcDbBlockTableRecord
  2
*D29
  0
BLOCK_RECORD
  5
14F
330
1
100
AcDbSymbolTableRecord
100
AcDbBlockTableRecord
  2
*D30
  0
BLOCK_RECORD
  5
18D
330
1
100
AcDbSymbolTableRecord
100
AcDbBlockTableRecord
  2
*D31
  0
BLOCK_RECORD
  5
388
330
1
100
AcDbSymbolTableRecord
100
AcDbBlockTableRecord
  2
*D32
  0
BLOCK_RECORD
  5
396
330
1
100
AcDbSymbolTableRecord
100
AcDbBlockTableRecord
  2
*D33
  0
BLOCK_RECORD
  5
3A4
330
1
100
AcDbSymbolTableRecord
100
AcDbBlockTableRecord
  2
*D34
  0
BLOCK_RECORD
  5
3B0
330
1
100
AcDbSymbolTableRecord
100
AcDbBlockTableRecord
  2
*D35
  0
BLOCK_RECORD
  5
3BE
330
1
100
AcDbSymbolTableRecord
100
AcDbBlockTableRecord
  2
*D36
  0
BLOCK_RECORD
  5
3CA
330
1
100
AcDbSymbolTableRecord
100
AcDbBlockTableRecord
  2
*D37
  0
BLOCK_RECORD
  5
3D8
330
1
100
AcDbSymbolTableRecord
100
AcDbBlockTableRecord
  2
*D38
  0
BLOCK_RECORD
  5
3E4
330
1
100
AcDbSymbolTableRecord
100
AcDbBlockTableRecord
  2
*D39
  0
BLOCK_RECORD
  5
3F0
330
1
100
AcDbSymbolTableRecord
100
AcDbBlockTableRecord
  2
*D40
  0
BLOCK_RECORD
  5
3FE
330
1
100
AcDbSymbolTableRecord
100
AcDbBlockTableRecord
  2
*D41
  0
BLOCK_RECORD
  5
40A
330
1
100
AcDbSymbolTableRecord
100
AcDbBlockTableRecord
  2
*D42
  0
BLOCK_RECORD
  5
416
330
1
100
AcDbSymbolTableRecord
100
AcDbBlockTableRecord
  2
*D43
  0
BLOCK_RECORD
  5
422
330
1
100
AcDbSymbolTableRecord
100
AcDbBlockTableRecord
  2
*D44
  0
BLOCK_RECORD
  5
430
330
1
100
AcDbSymbolTableRecord
100
AcDbBlockTableRecord
  2
*D45
  0
BLOCK_RECORD
  5
43E
330
1
100
AcDbSymbolTableRecord
100
AcDbBlockTableRecord
  2
*D46
  0
BLOCK_RECORD
  5
44A
330
1
100
AcDbSymbolTableRecord
100
AcDbBlockTableRecord
  2
*D47
  0
BLOCK_RECORD
  5
456
330
1
100
AcDbSymbolTableRecord
100
AcDbBlockTableRecord
  2
*D48
  0
BLOCK_RECORD
  5
462
330
1
100
AcDbSymbolTableRecord
100
AcDbBlockTableRecord
  2
*D49
  0
BLOCK_RECORD
  5
46E
330
1
100
AcDbSymbolTableRecord
100
AcDbBlockTableRecord
  2
*D50
  0
BLOCK_RECORD
  5
47C
330
1
100
AcDbSymbolTableRecord
100
AcDbBlockTableRecord
  2
*D51
  0
BLOCK_RECORD
  5
48A
330
1
100
AcDbSymbolTableRecord
100
AcDbBlockTableRecord
  2
*D52
  0
BLOCK_RECORD
  5
496
330
1
100
AcDbSymbolTableRecord
100
AcDbBlockTableRecord
  2
*D53
  0
BLOCK_RECORD
  5
4A2
330
1
100
AcDbSymbolTableRecord
100
AcDbBlockTableRecord
  2
*D54
  0
BLOCK_RECORD
  5
4AE
330
1
100
AcDbSymbolTableRecord
100
AcDbBlockTableRecord
  2
*D55
  0
BLOCK_RECORD
  5
4BA
330
1
100
AcDbSymbolTableRecord
100
AcDbBlockTableRecord
  2
*D56
  0
BLOCK_RECORD
  5
4C6
330
1
100
AcDbSymbolTableRecord
100
AcDbBlockTableRecord
  2
*D57
  0
BLOCK_RECORD
  5
4D2
330
1
100
AcDbSymbolTableRecord
100
AcDbBlockTableRecord
  2
*D58
  0
BLOCK_RECORD
  5
4DE
330
1
100
AcDbSymbolTableRecord
100
AcDbBlockTableRecord
  2
*D59
  0
BLOCK_RECORD
  5
4EA
330
1
100
AcDbSymbolTableRecord
100
AcDbBlockTableRecord
  2
*D60
  0
BLOCK_RECORD
  5
4F8
330
1
100
AcDbSymbolTableRecord
100
AcDbBlockTableRecord
  2
*D61
  0
ENDTAB
  0
ENDSEC
  0
SECTION
  2
BLOCKS
  0
BLOCK
  5
5
330
2
100
AcDbEntity
  8
0
100
AcDbBlockBegin
  2
*MODEL_SPACE
 70
     0
 10
0.0
 20
0.0
 30
0.0
  3
*MODEL_SPACE
  1

  0
ENDBLK
  5
B
330
2
100
AcDbEntity
  8
0
100
AcDbBlockEnd
  0
BLOCK
  5
11
330
E
100
AcDbEntity
 67
     1
  8
0
100
AcDbBlockBegin
  2
*PAPER_SPACE
 70
     0
 10
0.0
 20
0.0
 30
0.0
  3
*PAPER_SPACE
  1

  0
ENDBLK
  5
12
330
E
100
AcDbEntity
 67
     1
  8
0
100
AcDbBlockEnd
  0
BLOCK
  5
B3
330
A9
100
AcDbEntity
  8
0
100
AcDbBlockBegin
  2
*D0
 70
     1
 10
0.0
 20
0.0
 30
0.0
  3
*D0
  1

  0
LINE
  5
AA
330
A9
100
AcDbEntity
  8
0
 62
   123
100
AcDbLine
 10
15629.80488223125
 20
-1733.340049768652
 30
0.0
 11
15627.80633318254
 21
-1734.841982423581
 31
0.0
  0
LINE
  5
AB
330
A9
100
AcDbEntity
  8
0
 62
   123
100
AcDbLine
 10
15699.35438912599
 20
-1681.072793377123
 30
0.0
 11
15717.68393897264
 21
-1667.297925313345
 31
0.0
  0
LINE
  5
AC
330
A9
100
AcDbEntity
  8
0
 62
   123
100
AcDbLine
 10
15631.80343127995
 20
-1731.838117113723
 30
0.0
 11
15697.35584007729
 21
-1682.574726032052
 31
0.0
  0
SOLID
  5
AD
330
A9
100
AcDbEntity
  8
0
 62
   123
100
AcDbTrace
 10
15629.55456012208
 20
-1733.006958260537
 30
0.0
 11
15630.0552043404
 21
-1733.673141276769
 31
0.0
 12
15631.80343127995
 22
-1731.838117113723
 32
0.0
 13
15631.80343127995
 23
-1731.838117113723
 33
0.0
  0
SOLID
  5
AE
330
A9
100
AcDbEntity
  8
0
 62
   123
100
AcDbTrace
 10
15699.10406701684
 20
-1680.739701869008
 30
0.0
 11
15699.60471123515
 21
-1681.40588488524
 31
0.0
 12
15697.35584007729
 22
-1682.574726032052
 32
0.0
 13
15697.35584007729
 23
-1682.574726032052
 33
0.0
  0
MTEXT
  5
AF
330
A9
100
AcDbEntity
  8
0
 62
     3
100
AcDbMText
 10
15708.01650591874
 20
-1671.435843969068
 30
0.0
 40
3.0
 41
0.0
 71
     5
 72
     1
  1
\A1;\U+220582%%P0.5
 11
0.7994196194798298
 21
0.6007730619715935
 31
0.0
1001
ACAD
1000
MTEXTBEGIN
1070
    73
1070
     1
1070
    44
1040
1.0
1070
    74
1070
     0
1000
MTEXTEND
  0
POINT
  5
B0
330
A9
100
AcDbEntity
  8
DEFPOINTS
 62
     0
100
AcDbPoint
 10
15697.35584007729
 20
-1682.574726032052
 30
0.0
  0
POINT
  5
B2
330
A9
100
AcDbEntity
  8
DEFPOINTS
 62
     0
100
AcDbPoint
 10
15631.80343127995
 20
-1731.838117113723
 30
0.0
  0
ENDBLK
  5
B4
330
A9
100
AcDbEntity
  8
0
100
AcDbBlockEnd
  0
BLOCK
  5
C1
330
A4
100
AcDbEntity
  8
0
100
AcDbBlockBegin
  2
3
 70
     0
 10
0.0
 20
0.0
 30
0.0
  3
3
  1

  0
DIMENSION
  5
A5
102
{ACAD_XDICTIONARY
360
A6
102
}
102
{ACAD_REACTORS
330
A7
102
}
330
A4
100
AcDbEntity
  8
0
100
AcDbDimension
  2
*D0
 10
-32.77620439867496
 20
-24.63169554083719
 30
0.0
 11
44.93880289504522
 21
33.772028555117
 31
0.0
 12
-15664.57963567861
 22
1707.206421572886
 32
0.0
 70
   131
  1
<>%%P0.5
  3
STANDARD
100
AcDbDiametricDimension
 15
32.77620439867132
 25
24.63169554083401
 35
0.0
 40
0.0
  0
ARC
  5
B5
102
{ACAD_REACTORS
330
A7
102
}
330
A4
100
AcDbEntity
  8
CEN
 48
0.6
100
AcDbCircle
 10
-0.000000000003638
 20
0.0000000000020464
 30
0.0
 40
41.0
100
AcDbArc
 50
34.15351134749203
 51
55.84648865250797
  0
LINE
  5
B6
330
A4
100
AcDbEntity
  8
CEN
 48
0.6
100
AcDbLine
 10
25.63262081800167
 20
25.63262081802145
 30
0.0
 11
32.35013523927227
 21
32.35013523929547
 31
0.0
  0
CIRCLE
  5
B7
330
A4
100
AcDbEntity
  8
0
100
AcDbCircle
 10
28.99137802863515
 20
28.99137802865948
 30
0.0
 40
2.75
  0
CIRCLE
  5
B8
330
A4
100
AcDbEntity
  8
0
100
AcDbCircle
 10
-28.99137802866608
 20
28.99137802864379
 30
0.0
 40
2.75
  0
LINE
  5
B9
330
A4
100
AcDbEntity
  8
CEN
 48
0.6
100
AcDbLine
 10
-25.63262081802895
 20
25.63262081801099
 30
0.0
 11
-32.35013523930319
 21
32.35013523928158
 31
0.0
  0
ARC
  5
BA
330
A4
100
AcDbEntity
  8
CEN
 48
0.6
100
AcDbCircle
 10
-0.0000000000090949
 20
0.0000000000047748
 30
0.0
 40
41.0
100
AcDbArc
 50
128.358356428657
 51
141.641643571353
  0
ARC
  5
BB
330
A4
100
AcDbEntity
  8
CEN
 48
0.6
100
AcDbCircle
 10
-0.0000000000127329
 20
-0.0000000000009095
 30
0.0
 40
41.0
100
AcDbArc
 50
214.1535113474919
 51
235.8464886525078
  0
CIRCLE
  5
BC
330
A4
100
AcDbEntity
  8
0
100
AcDbCircle
 10
-28.99137802865151
 20
-28.99137802865833
 30
0.0
 40
2.75
  0
LINE
  5
BD
330
A4
100
AcDbEntity
  8
CEN
 48
0.6
100
AcDbLine
 10
-25.63262081801804
 20
-25.63262081802031
 30
0.0
 11
-32.35013523928865
 21
-32.35013523929433
 31
0.0
  0
CIRCLE
  5
BE
330
A4
100
AcDbEntity
  8
0
100
AcDbCircle
 10
28.99137802865151
 20
-28.99137802864446
 30
0.0
 40
2.75
  0
LINE
  5
BF
330
A4
100
AcDbEntity
  8
CEN
 48
0.6
100
AcDbLine
 10
25.63262081801257
 20
-25.63262081801052
 30
0.0
 11
32.35013523928683
 21
-32.35013523928113
 31
0.0
  0
ARC
  5
C0
330
A4
100
AcDbEntity
  8
CEN
 48
0.6
100
AcDbCircle
 10
-0.000000000005457
 20
-0.0000000000056843
 30
0.0
 40
41.0
100
AcDbArc
 50
308.3583564286569
 51
321.6416435713529
  0
ENDBLK
  5
C2
330
A4
100
AcDbEntity
  8
0
100
AcDbBlockEnd
  0
BLOCK
  5
E0
330
D4
100
AcDbEntity
  8
0
100
AcDbBlockBegin
  2
*D2
 70
     1
 10
0.0
 20
0.0
 30
0.0
  3
*D2
  1

  0
LINE
  5
D5
330
D4
100
AcDbEntity
  8
0
 62
   123
100
AcDbLine
 10
8469.016182039352
 20
-2294.031836697605
 30
0.0
 11
8476.785237194816
 21
-2294.031836697605
 31
0.0
  0
LINE
  5
D6
330
D4
100
AcDbEntity
  8
0
 62
   123
100
AcDbLine
 10
8469.016182039352
 20
-2290.031836697605
 30
0.0
 11
8476.785237194816
 21
-2290.031836697605
 31
0.0
  0
LINE
  5
D7
330
D4
100
AcDbEntity
  8
0
 62
   123
100
AcDbLine
 10
8476.185237194815
 20
-2296.531836697605
 30
0.0
 11
8476.185237194815
 21
-2299.031836697606
 31
0.0
  0
LINE
  5
D8
330
D4
100
AcDbEntity
  8
0
 62
   123
100
AcDbLine
 10
8476.185237194815
 20
-2287.531836697605
 30
0.0
 11
8476.185237194815
 21
-2268.468089189231
 31
0.0
  0
LINE
  5
D9
330
D4
100
AcDbEntity
  8
0
 62
   123
100
AcDbLine
 10
8476.185237194815
 20
-2294.031836697605
 30
0.0
 11
8476.185237194815
 21
-2290.031836697605
 31
0.0
  0
SOLID
  5
DA
330
D4
100
AcDbEntity
  8
0
 62
   123
100
AcDbTrace
 10
8475.768570528149
 20
-2296.531836697605
 30
0.0
 11
8476.601903861482
 21
-2296.531836697605
 31
0.0
 12
8476.185237194815
 22
-2294.031836697605
 32
0.0
 13
8476.185237194815
 23
-2294.031836697605
 33
0.0
  0
SOLID
  5
DB
330
D4
100
AcDbEntity
  8
0
 62
   123
100
AcDbTrace
 10
8475.768570528149
 20
-2287.531836697605
 30
0.0
 11
8476.601903861482
 21
-2287.531836697605
 31
0.0
 12
8476.185237194815
 22
-2290.031836697605
 32
0.0
 13
8476.185237194815
 23
-2290.031836697605
 33
0.0
  0
MTEXT
  5
DC
330
D4
100
AcDbEntity
  8
0
 62
     3
100
AcDbMText
 10
8472.735237194815
 20
-2275.182374903515
 30
0.0
 40
3.0
 41
0.0
 71
     5
 72
     1
  1
\A1;\A1;4{\f??|b0|i0|c0|p49;\H0.7x;\S+0^ -0.03;}
 11
0.0000000000000001
 21
1.0
 31
0.0
1001
ACAD
1000
MTEXTBEGIN
1070
    73
1070
     1
1070
    44
1040
1.0
1070
    74
1070
     0
1000
MTEXTEND
  0
POINT
  5
DD
330
D4
100
AcDbEntity
  8
DEFPOINTS
 62
     0
100
AcDbPoint
 10
8468.016182039352
 20
-2294.031836697605
 30
0.0
  0
POINT
  5
DE
330
D4
100
AcDbEntity
  8
DEFPOINTS
 62
     0
100
AcDbPoint
 10
8468.016182039352
 20
-2290.031836697605
 30
0.0
  0
POINT
  5
DF
330
D4
100
AcDbEntity
  8
DEFPOINTS
 62
     0
100
AcDbPoint
 10
8476.185237194815
 20
-2290.031836697605
 30
0.0
  0
ENDBLK
  5
E1
330
D4
100
AcDbEntity
  8
0
100
AcDbBlockEnd
  0
BLOCK
  5
352
330
348
100
AcDbEntity
  8
0
100
AcDbBlockBegin
  2
*D3
 70
     1
 10
0.0
 20
0.0
 30
0.0
  3
*D3
  1

  0
LINE
  5
349
330
348
100
AcDbEntity
  8
0
 62
   123
100
AcDbLine
 10
8580.962747165171
 20
-2057.941983226275
 30
0.0
 11
8580.962747165171
 21
-2006.594405401842
 31
0.0
  0
LINE
  5
34A
330
348
100
AcDbEntity
  8
0
 62
   123
100
AcDbLine
 10
8593.962747165171
 20
-2025.781483226274
 30
0.0
 11
8593.962747165171
 21
-2006.594405401842
 31
0.0
  0
LINE
  5
34B
330
348
100
AcDbEntity
  8
0
 62
   123
100
AcDbLine
 10
8583.462747165169
 20
-2007.194405401842
 30
0.0
 11
8591.462747165172
 21
-2007.194405401842
 31
0.0
  0
SOLID
  5
34C
330
348
100
AcDbEntity
  8
0
 62
   123
100
AcDbTrace
 10
8583.462747165169
 20
-2006.777738735176
 30
0.0
 11
8583.462747165169
 21
-2007.611072068509
 31
0.0
 12
8580.962747165171
 22
-2007.194405401842
 32
0.0
 13
8580.962747165171
 23
-2007.194405401842
 33
0.0
  0
SOLID
  5
34D
330
348
100
AcDbEntity
  8
0
 62
   123
100
AcDbTrace
 10
8591.462747165172
 20
-2006.777738735176
 30
0.0
 11
8591.462747165172
 21
-2007.611072068509
 31
0.0
 12
8593.962747165171
 22
-2007.194405401842
 32
0.0
 13
8593.962747165171
 23
-2007.194405401842
 33
0.0
  0
MTEXT
  5
34E
330
348
100
AcDbEntity
  8
0
 62
     3
100
AcDbMText
 10
8587.462747165169
 20
-2004.694405401842
 30
0.0
 40
3.0
 41
0.0
 71
     5
 72
     1
  1
\A1;13
1001
ACAD
1000
MTEXTBEGIN
1070
    73
1070
     1
1070
    44
1040
1.0
1070
    74
1070
     0
1000
MTEXTEND
  0
POINT
  5
34F
330
348
100
AcDbEntity
  8
DEFPOINTS
 62
     0
100
AcDbPoint
 10
8580.962747165171
 20
-2058.941983226275
 30
0.0
  0
POINT
  5
350
330
348
100
AcDbEntity
  8
DEFPOINTS
 62
     0
100
AcDbPoint
 10
8593.962747165171
 20
-2026.781483226274
 30
0.0
  0
POINT
  5
351
330
348
100
AcDbEntity
  8
DEFPOINTS
 62
     0
100
AcDbPoint
 10
8593.962747165171
 20
-2007.194405401842
 30
0.0
  0
ENDBLK
  5
353
330
348
100
AcDbEntity
  8
0
100
AcDbBlockEnd
  0
BLOCK
  5
27D
330
273
100
AcDbEntity
  8
0
100
AcDbBlockBegin
  2
*D4
 70
     1
 10
0.0
 20
0.0
 30
0.0
  3
*D4
  1

  0
LINE
  5
274
330
273
100
AcDbEntity
  8
0
 62
   123
100
AcDbLine
 10
8597.942732294892
 20
-2178.296917238005
 30
0.0
 11
8597.942732294892
 21
-2236.19293161963
 31
0.0
  0
LINE
  5
275
330
273
100
AcDbEntity
  8
0
 62
   123
100
AcDbLine
 10
8629.942732294892
 20
-2218.296917238004
 30
0.0
 11
8629.942732294892
 21
-2236.19293161963
 31
0.0
  0
LINE
  5
276
330
273
100
AcDbEntity
  8
0
 62
   123
100
AcDbLine
 10
8600.44273229489
 20
-2235.59293161963
 30
0.0
 11
8627.442732294893
 21
-2235.59293161963
 31
0.0
  0
SOLID
  5
277
330
273
100
AcDbEntity
  8
0
 62
   123
100
AcDbTrace
 10
8600.44273229489
 20
-2235.176264952963
 30
0.0
 11
8600.44273229489
 21
-2236.009598286297
 31
0.0
 12
8597.942732294892
 22
-2235.59293161963
 32
0.0
 13
8597.942732294892
 23
-2235.59293161963
 33
0.0
  0
SOLID
  5
278
330
273
100
AcDbEntity
  8
0
 62
   123
100
AcDbTrace
 10
8627.442732294893
 20
-2235.176264952963
 30
0.0
 11
8627.442732294893
 21
-2236.009598286297
 31
0.0
 12
8629.942732294892
 22
-2235.59293161963
 32
0.0
 13
8629.942732294892
 23
-2235.59293161963
 33
0.0
  0
MTEXT
  5
279
330
273
100
AcDbEntity
  8
0
 62
     3
100
AcDbMText
 10
8613.942732294892
 20
-2233.09293161963
 30
0.0
 40
3.0
 41
0.0
 71
     5
 72
     1
  1
\A1;32
1001
ACAD
1000
MTEXTBEGIN
1070
    73
1070
     1
1070
    44
1040
1.0
1070
    74
1070
     0
1000
MTEXTEND
  0
POINT
  5
27A
330
273
100
AcDbEntity
  8
DEFPOINTS
 62
     0
100
AcDbPoint
 10
8597.942732294892
 20
-2177.296917238004
 30
0.0
  0
POINT
  5
27B
330
273
100
AcDbEntity
  8
DEFPOINTS
 62
     0
100
AcDbPoint
 10
8629.942732294892
 20
-2217.296917238005
 30
0.0
  0
POINT
  5
27C
330
273
100
AcDbEntity
  8
DEFPOINTS
 62
     0
100
AcDbPoint
 10
8629.942732294892
 20
-2235.59293161963
 30
0.0
  0
ENDBLK
  5
27E
330
273
100
AcDbEntity
  8
0
100
AcDbBlockEnd
  0
BLOCK
  5
28E
330
284
100
AcDbEntity
  8
0
100
AcDbBlockBegin
  2
*D5
 70
     1
 10
0.0
 20
0.0
 30
0.0
  3
*D5
  1

  0
LINE
  5
285
330
284
100
AcDbEntity
  8
0
 62
   123
100
AcDbLine
 10
8626.44273229489
 20
-2157.296917238004
 30
0.0
 11
8565.176686372439
 21
-2157.296917238004
 31
0.0
  0
LINE
  5
286
330
284
100
AcDbEntity
  8
0
 62
   123
100
AcDbLine
 10
8613.583014049591
 20
-2187.296917238005
 30
0.0
 11
8565.176686372439
 21
-2187.296917238005
 31
0.0
  0
LINE
  5
287
330
284
100
AcDbEntity
  8
0
 62
   123
100
AcDbLine
 10
8565.776686372439
 20
-2159.796917238005
 30
0.0
 11
8565.776686372439
 21
-2184.796917238005
 31
0.0
  0
SOLID
  5
288
330
284
100
AcDbEntity
  8
0
 62
   123
100
AcDbTrace
 10
8565.360019705773
 20
-2159.796917238005
 30
0.0
 11
8566.193353039105
 21
-2159.796917238005
 31
0.0
 12
8565.776686372439
 22
-2157.296917238004
 32
0.0
 13
8565.776686372439
 23
-2157.296917238004
 33
0.0
  0
SOLID
  5
289
330
284
100
AcDbEntity
  8
0
 62
   123
100
AcDbTrace
 10
8565.360019705773
 20
-2184.796917238005
 30
0.0
 11
8566.193353039105
 21
-2184.796917238005
 31
0.0
 12
8565.776686372439
 22
-2187.296917238005
 32
0.0
 13
8565.776686372439
 23
-2187.296917238005
 33
0.0
  0
MTEXT
  5
28A
330
284
100
AcDbEntity
  8
0
 62
     3
100
AcDbMText
 10
8563.276686372439
 20
-2172.546917238004
 30
0.0
 40
3.0
 41
0.0
 71
     5
 72
     1
  1
\A1;{\f??|b0|i0|c0|p49;%%c}30
 11
0.0000000000000001
 21
1.0
 31
0.0
1001
ACAD
1000
MTEXTBEGIN
1070
    73
1070
     1
1070
    44
1040
1.0
1070
    74
1070
     0
1000
MTEXTEND
  0
POINT
  5
28B
330
284
100
AcDbEntity
  8
DEFPOINTS
 62
     0
100
AcDbPoint
 10
8627.442732294893
 20
-2157.296917238004
 30
0.0
  0
POINT
  5
28C
330
284
100
AcDbEntity
  8
DEFPOINTS
 62
     0
100
AcDbPoint
 10
8614.583014049589
 20
-2187.296917238005
 30
0.0
  0
POINT
  5
28D
330
284
100
AcDbEntity
  8
DEFPOINTS
 62
     0
100
AcDbPoint
 10
8565.776686372439
 20
-2187.296917238005
 30
0.0
  0
ENDBLK
  5
28F
330
284
100
AcDbEntity
  8
0
100
AcDbBlockEnd
  0
BLOCK
  5
F4
330
E8
100
AcDbEntity
  8
0
100
AcDbBlockBegin
  2
*D6
 70
     1
 10
0.0
 20
0.0
 30
0.0
  3
*D6
  1

  0
LINE
  5
E9
330
E8
100
AcDbEntity
  8
0
 62
   123
100
AcDbLine
 10
8535.120215066609
 20
-2291.132131984602
 30
0.0
 11
8550.217547560793
 21
-2291.132131984602
 31
0.0
  0
LINE
  5
EA
330
E8
100
AcDbEntity
  8
0
 62
   123
100
AcDbLine
 10
8533.120215066608
 20
-2288.632131984603
 30
0.0
 11
8550.217547560793
 21
-2288.632131984603
 31
0.0
  0
LINE
  5
EB
330
E8
100
AcDbEntity
  8
0
 62
   123
100
AcDbLine
 10
8549.617547560792
 20
-2293.632131984602
 30
0.0
 11
8549.617547560792
 21
-2296.132131984602
 31
0.0
  0
LINE
  5
EC
330
E8
100
AcDbEntity
  8
0
 62
   123
100
AcDbLine
 10
8549.617547560792
 20
-2286.132131984603
 30
0.0
 11
8549.617547560792
 21
-2264.717846270318
 31
0.0
  0
LINE
  5
ED
330
E8
100
AcDbEntity
  8
0
 62
   123
100
AcDbLine
 10
8549.617547560792
 20
-2291.132131984602
 30
0.0
 11
8549.617547560792
 21
-2288.632131984603
 31
0.0
  0
SOLID
  5
EE
330
E8
100
AcDbEntity
  8
0
 62
   123
100
AcDbTrace
 10
8549.200880894126
 20
-2293.632131984602
 30
0.0
 11
8550.034214227459
 21
-2293.632131984602
 31
0.0
 12
8549.617547560792
 22
-2291.132131984602
 32
0.0
 13
8549.617547560792
 23
-2291.132131984602
 33
0.0
  0
SOLID
  5
EF
330
E8
100
AcDbEntity
  8
0
 62
   123
100
AcDbTrace
 10
8549.200880894126
 20
-2286.132131984603
 30
0.0
 11
8550.034214227459
 21
-2286.132131984603
 31
0.0
 12
8549.617547560792
 22
-2288.632131984603
 32
0.0
 13
8549.617547560792
 23
-2288.632131984603
 33
0.0
  0
MTEXT
  5
F0
330
E8
100
AcDbEntity
  8
0
 62
     3
100
AcDbMText
 10
8546.167547560791
 20
-2272.424989127459
 30
0.0
 40
3.0
 41
0.0
 71
     5
 72
     1
  1
\A1;\A1;2.5{\f??|b0|i0|c0|p49;\H0.7x;\S+0.1^ -0;\H1.429x; }
 11
0.0000000000000001
 21
1.0
 31
0.0
1001
ACAD
1000
MTEXTBEGIN
1070
    73
1070
     1
1070
    44
1040
1.0
1070
    74
1070
     0
1000
MTEXTEND
  0
POINT
  5
F1
330
E8
100
AcDbEntity
  8
DEFPOINTS
 62
     0
100
AcDbPoint
 10
8534.120215066613
 20
-2291.132131984602
 30
0.0
  0
POINT
  5
F2
330
E8
100
AcDbEntity
  8
DEFPOINTS
 62
     0
100
AcDbPoint
 10
8532.120215066608
 20
-2288.632131984603
 30
0.0
  0
POINT
  5
F3
330
E8
100
AcDbEntity
  8
DEFPOINTS
 62
     0
100
AcDbPoint
 10
8549.617547560792
 20
-2288.632131984603
 30
0.0
  0
ENDBLK
  5
F5
330
E8
100
AcDbEntity
  8
0
100
AcDbBlockEnd
  0
BLOCK
  5
211
330
205
100
AcDbEntity
  8
0
100
AcDbBlockBegin
  2
*D7
 70
     1
 10
0.0
 20
0.0
 30
0.0
  3
*D7
  1

  0
LINE
  5
206
330
205
100
AcDbEntity
  8
0
 62
   123
100
AcDbLine
 10
8530.120215066608
 20
-2288.049556289645
 30
0.0
 11
8530.120215066608
 21
-2279.690543744671
 31
0.0
  0
LINE
  5
207
330
205
100
AcDbEntity
  8
0
 62
   123
100
AcDbLine
 10
8534.120215066613
 20
-2288.049556289645
 30
0.0
 11
8534.120215066613
 21
-2279.690543744671
 31
0.0
  0
LINE
  5
208
330
205
100
AcDbEntity
  8
0
 62
   123
100
AcDbLine
 10
8527.62021506661
 20
-2280.29054374467
 30
0.0
 11
8525.120215066609
 21
-2280.29054374467
 31
0.0
  0
LINE
  5
209
330
205
100
AcDbEntity
  8
0
 62
   123
100
AcDbLine
 10
8536.620215066609
 20
-2280.29054374467
 30
0.0
 11
8539.120215066608
 21
-2280.29054374467
 31
0.0
  0
LINE
  5
20A
330
205
100
AcDbEntity
  8
0
 62
   123
100
AcDbLine
 10
8530.120215066608
 20
-2280.29054374467
 30
0.0
 11
8534.120215066613
 21
-2280.29054374467
 31
0.0
  0
SOLID
  5
20B
330
205
100
AcDbEntity
  8
0
 62
   123
100
AcDbTrace
 10
8527.62021506661
 20
-2279.873877078005
 30
0.0
 11
8527.62021506661
 21
-2280.707210411338
 31
0.0
 12
8530.120215066608
 22
-2280.29054374467
 32
0.0
 13
8530.120215066608
 23
-2280.29054374467
 33
0.0
  0
SOLID
  5
20C
330
205
100
AcDbEntity
  8
0
 62
   123
100
AcDbTrace
 10
8536.620215066609
 20
-2279.873877078005
 30
0.0
 11
8536.620215066609
 21
-2280.707210411338
 31
0.0
 12
8534.120215066613
 22
-2280.29054374467
 32
0.0
 13
8534.120215066613
 23
-2280.29054374467
 33
0.0
  0
MTEXT
  5
20D
330
205
100
AcDbEntity
  8
0
 62
     3
100
AcDbMText
 10
8532.120215066608
 20
-2276.840543744671
 30
0.0
 40
3.0
 41
0.0
 71
     5
 72
     1
  1
\A1;\A1;4{\f??|b0|i0|c0|p49;\H0.7x;\S+0.40^ -0;}
1001
ACAD
1000
MTEXTBEGIN
1070
    73
1070
     1
1070
    44
1040
1.0
1070
    74
1070
     0
1000
MTEXTEND
  0
POINT
  5
20E
330
205
100
AcDbEntity
  8
DEFPOINTS
 62
     0
100
AcDbPoint
 10
8530.120215066608
 20
-2289.049556289647
 30
0.0
  0
POINT
  5
20F
330
205
100
AcDbEntity
  8
DEFPOINTS
 62
     0
100
AcDbPoint
 10
8534.120215066613
 20
-2289.049556289647
 30
0.0
  0
POINT
  5
210
330
205
100
AcDbEntity
  8
DEFPOINTS
 62
     0
100
AcDbPoint
 10
8534.120215066613
 20
-2280.29054374467
 30
0.0
  0
ENDBLK
  5
212
330
205
100
AcDbEntity
  8
0
100
AcDbBlockEnd
  0
BLOCK
  5
225
330
21B
100
AcDbEntity
  8
0
100
AcDbBlockBegin
  2
*D8
 70
     1
 10
0.0
 20
0.0
 30
0.0
  3
*D8
  1

  0
LINE
  5
21C
330
21B
100
AcDbEntity
  8
0
 62
   123
100
AcDbLine
 10
8443.016182039352
 20
-2291.031836697605
 30
0.0
 11
8443.016182039352
 21
-2281.626642717131
 31
0.0
  0
LINE
  5
21D
330
21B
100
AcDbEntity
  8
0
 62
   123
100
AcDbLine
 10
8468.016182039352
 20
-2289.031836697605
 30
0.0
 11
8468.016182039352
 21
-2281.626642717131
 31
0.0
  0
LINE
  5
21E
330
21B
100
AcDbEntity
  8
0
 62
   123
100
AcDbLine
 10
8445.516182039352
 20
-2282.22664271713
 30
0.0
 11
8465.516182039351
 21
-2282.22664271713
 31
0.0
  0
SOLID
  5
21F
330
21B
100
AcDbEntity
  8
0
 62
   123
100
AcDbTrace
 10
8445.516182039352
 20
-2281.809976050463
 30
0.0
 11
8445.516182039352
 21
-2282.643309383797
 31
0.0
 12
8443.016182039352
 22
-2282.22664271713
 32
0.0
 13
8443.016182039352
 23
-2282.22664271713
 33
0.0
  0
SOLID
  5
220
330
21B
100
AcDbEntity
  8
0
 62
   123
100
AcDbTrace
 10
8465.516182039351
 20
-2281.809976050463
 30
0.0
 11
8465.516182039351
 21
-2282.643309383797
 31
0.0
 12
8468.016182039352
 22
-2282.22664271713
 32
0.0
 13
8468.016182039352
 23
-2282.22664271713
 33
0.0
  0
MTEXT
  5
221
330
21B
100
AcDbEntity
  8
0
 62
     3
100
AcDbMText
 10
8455.516182039351
 20
-2279.72664271713
 30
0.0
 40
3.0
 41
0.0
 71
     5
 72
     1
  1
\A1;25{\f??|b0|i0|c0|p49;%%p0.2}
1001
ACAD
1000
MTEXTBEGIN
1070
    73
1070
     1
1070
    44
1040
1.0
1070
    74
1070
     0
1000
MTEXTEND
  0
POINT
  5
222
330
21B
100
AcDbEntity
  8
DEFPOINTS
 62
     0
100
AcDbPoint
 10
8443.016182039352
 20
-2292.031836697606
 30
0.0
  0
POINT
  5
223
330
21B
100
AcDbEntity
  8
DEFPOINTS
 62
     0
100
AcDbPoint
 10
8468.016182039352
 20
-2290.031836697605
 30
0.0
  0
POINT
  5
224
330
21B
100
AcDbEntity
  8
DEFPOINTS
 62
     0
100
AcDbPoint
 10
8468.016182039352
 20
-2282.22664271713
 30
0.0
  0
ENDBLK
  5
226
330
21B
100
AcDbEntity
  8
0
100
AcDbBlockEnd
  0
BLOCK
  5
23C
330
230
100
AcDbEntity
  8
0
100
AcDbBlockBegin
  2
*D9
 70
     1
 10
0.0
 20
0.0
 30
0.0
  3
*D9
  1

  0
LINE
  5
231
330
230
100
AcDbEntity
  8
0
 62
   123
100
AcDbLine
 10
8485.186835326066
 20
-2289.031836697605
 30
0.0
 11
8485.186835326066
 21
-2280.757361038974
 31
0.0
  0
LINE
  5
232
330
230
100
AcDbEntity
  8
0
 62
   123
100
AcDbLine
 10
8489.186835326064
 20
-2289.031836697605
 30
0.0
 11
8489.186835326064
 21
-2280.757361038974
 31
0.0
  0
LINE
  5
233
330
230
100
AcDbEntity
  8
0
 62
   123
100
AcDbLine
 10
8482.686835326065
 20
-2281.357361038974
 30
0.0
 11
8480.186835326065
 21
-2281.357361038974
 31
0.0
  0
LINE
  5
234
330
230
100
AcDbEntity
  8
0
 62
   123
100
AcDbLine
 10
8491.686835326065
 20
-2281.357361038974
 30
0.0
 11
8494.186835326066
 21
-2281.357361038974
 31
0.0
  0
LINE
  5
235
330
230
100
AcDbEntity
  8
0
 62
   123
100
AcDbLine
 10
8485.186835326066
 20
-2281.357361038974
 30
0.0
 11
8489.186835326064
 21
-2281.357361038974
 31
0.0
  0
SOLID
  5
236
330
230
100
AcDbEntity
  8
0
 62
   123
100
AcDbTrace
 10
8482.686835326065
 20
-2280.940694372307
 30
0.0
 11
8482.686835326065
 21
-2281.77402770564
 31
0.0
 12
8485.186835326066
 22
-2281.357361038974
 32
0.0
 13
8485.186835326066
 23
-2281.357361038974
 33
0.0
  0
SOLID
  5
237
330
230
100
AcDbEntity
  8
0
 62
   123
100
AcDbTrace
 10
8491.686835326065
 20
-2280.940694372307
 30
0.0
 11
8491.686835326065
 21
-2281.77402770564
 31
0.0
 12
8489.186835326064
 22
-2281.357361038974
 32
0.0
 13
8489.186835326064
 23
-2281.357361038974
 33
0.0
  0
MTEXT
  5
238
330
230
100
AcDbEntity
  8
0
 62
     3
100
AcDbMText
 10
8487.186835326065
 20
-2277.907361038974
 30
0.0
 40
3.0
 41
0.0
 71
     5
 72
     1
  1
\A1;\A1;4{\f??|b0|i0|c0|p49;\H0.7x;\S+0^ -0.03;}
1001
ACAD
1000
MTEXTBEGIN
1070
    73
1070
     1
1070
    44
1040
1.0
1070
    74
1070
     0
1000
MTEXTEND
  0
POINT
  5
239
330
230
100
AcDbEntity
  8
DEFPOINTS
 62
     0
100
AcDbPoint
 10
8485.186835326066
 20
-2290.031836697605
 30
0.0
  0
POINT
  5
23A
330
230
100
AcDbEntity
  8
DEFPOINTS
 62
     0
100
AcDbPoint
 10
8489.186835326064
 20
-2290.031836697605
 30
0.0
  0
POINT
  5
23B
330
230
100
AcDbEntity
  8
DEFPOINTS
 62
     0
100
AcDbPoint
 10
8489.186835326064
 20
-2281.357361038974
 30
0.0
  0
ENDBLK
  5
23D
330
230
100
AcDbEntity
  8
0
100
AcDbBlockEnd
  0
BLOCK
  5
37B
330
371
100
AcDbEntity
  8
0
100
AcDbBlockBegin
  2
*D10
 70
     1
 10
0.0
 20
0.0
 30
0.0
  3
*D10
  1

  0
LINE
  5
372
330
371
100
AcDbEntity
  8
0
 62
   123
100
AcDbLine
 10
8590.962747165169
 20
-2029.781483226275
 30
0.0
 11
8568.764922288158
 21
-2029.781483226275
 31
0.0
  0
LINE
  5
373
330
371
100
AcDbEntity
  8
0
 62
   123
100
AcDbLine
 10
8590.962747165169
 20
-2093.781483226275
 30
0.0
 11
8568.764922288158
 21
-2093.781483226275
 31
0.0
  0
LINE
  5
374
330
371
100
AcDbEntity
  8
0
 62
   123
100
AcDbLine
 10
8569.364922288157
 20
-2032.281483226275
 30
0.0
 11
8569.364922288157
 21
-2091.281483226275
 31
0.0
  0
SOLID
  5
375
330
371
100
AcDbEntity
  8
0
 62
   123
100
AcDbTrace
 10
8568.94825562149
 20
-2032.281483226275
 30
0.0
 11
8569.781588954823
 21
-2032.281483226275
 31
0.0
 12
8569.364922288157
 22
-2029.781483226275
 32
0.0
 13
8569.364922288157
 23
-2029.781483226275
 33
0.0
  0
SOLID
  5
376
330
371
100
AcDbEntity
  8
0
 62
   123
100
AcDbTrace
 10
8568.94825562149
 20
-2091.281483226275
 30
0.0
 11
8569.781588954823
 21
-2091.281483226275
 31
0.0
 12
8569.364922288157
 22
-2093.781483226275
 32
0.0
 13
8569.364922288157
 23
-2093.781483226275
 33
0.0
  0
MTEXT
  5
377
330
371
100
AcDbEntity
  8
0
 62
     3
100
AcDbMText
 10
8565.414772288157
 20
-2064.418624318574
 30
0.0
 40
3.0
 41
0.0
 71
     5
 72
     1
  1
\A1;\A1;%%C{\f??|b0|i0|c0|p49;64\H0.7x;\S+0^ -0.030;\H1.429x;(h7)} 
 11
0.0000000000000001
 21
1.0
 31
0.0
1001
ACAD
1000
MTEXTBEGIN
1070
    73
1070
     1
1070
    44
1040
1.0
1070
    74
1070
     0
1000
MTEXTEND
  0
POINT
  5
378
330
371
100
AcDbEntity
  8
DEFPOINTS
 62
     0
100
AcDbPoint
 10
8591.962747165169
 20
-2029.781483226275
 30
0.0
  0
POINT
  5
379
330
371
100
AcDbEntity
  8
DEFPOINTS
 62
     0
100
AcDbPoint
 10
8591.962747165169
 20
-2093.781483226275
 30
0.0
  0
POINT
  5
37A
330
371
100
AcDbEntity
  8
DEFPOINTS
 62
     0
100
AcDbPoint
 10
8569.364922288157
 20
-2093.781483226275
 30
0.0
  0
ENDBLK
  5
37C
330
371
100
AcDbEntity
  8
0
100
AcDbBlockEnd
  0
BLOCK
  5
26B
330
261
100
AcDbEntity
  8
0
100
AcDbBlockBegin
  2
*D11
 70
     1
 10
0.0
 20
0.0
 30
0.0
  3
*D11
  1

  0
LINE
  5
262
330
261
100
AcDbEntity
  8
0
 62
   123
100
AcDbLine
 10
8622.942732294893
 20
-2166.296917238004
 30
0.0
 11
8622.942732294893
 21
-2150.476629031103
 31
0.0
  0
LINE
  5
263
330
261
100
AcDbEntity
  8
0
 62
   123
100
AcDbLine
 10
8597.942732294892
 20
-2166.296917238005
 30
0.0
 11
8597.942732294892
 21
-2150.476629031103
 31
0.0
  0
LINE
  5
264
330
261
100
AcDbEntity
  8
0
 62
   123
100
AcDbLine
 10
8620.44273229489
 20
-2151.076629031102
 30
0.0
 11
8600.44273229489
 21
-2151.076629031102
 31
0.0
  0
SOLID
  5
265
330
261
100
AcDbEntity
  8
0
 62
   123
100
AcDbTrace
 10
8620.44273229489
 20
-2150.659962364436
 30
0.0
 11
8620.44273229489
 21
-2151.493295697768
 31
0.0
 12
8622.942732294893
 22
-2151.076629031102
 32
0.0
 13
8622.942732294893
 23
-2151.076629031102
 33
0.0
  0
SOLID
  5
266
330
261
100
AcDbEntity
  8
0
 62
   123
100
AcDbTrace
 10
8600.44273229489
 20
-2150.659962364436
 30
0.0
 11
8600.44273229489
 21
-2151.493295697768
 31
0.0
 12
8597.942732294892
 22
-2151.076629031102
 32
0.0
 13
8597.942732294892
 23
-2151.076629031102
 33
0.0
  0
MTEXT
  5
267
330
261
100
AcDbEntity
  8
0
 62
     3
100
AcDbMText
 10
8610.753662962284
 20
-2148.576629031102
 30
0.0
 40
3.0
 41
0.0
 71
     5
 72
     1
  1
\A1;25
1001
ACAD
1000
MTEXTBEGIN
1070
    73
1070
     1
1070
    44
1040
1.0
1070
    74
1070
     0
1000
MTEXTEND
  0
POINT
  5
268
330
261
100
AcDbEntity
  8
DEFPOINTS
 62
     0
100
AcDbPoint
 10
8622.942732294893
 20
-2167.296917238004
 30
0.0
  0
POINT
  5
269
330
261
100
AcDbEntity
  8
DEFPOINTS
 62
     0
100
AcDbPoint
 10
8597.942732294892
 20
-2167.296917238004
 30
0.0
  0
POINT
  5
26A
330
261
100
AcDbEntity
  8
DEFPOINTS
 62
     0
100
AcDbPoint
 10
8597.942732294892
 20
-2151.076629031102
 30
0.0
  0
ENDBLK
  5
26C
330
261
100
AcDbEntity
  8
0
100
AcDbBlockEnd
  0
BLOCK
  5
2F0
330
2E4
100
AcDbEntity
  8
0
100
AcDbBlockBegin
  2
*D12
 70
     1
 10
0.0
 20
0.0
 30
0.0
  3
*D12
  1

  0
LINE
  5
2E5
330
2E4
100
AcDbEntity
  8
0
 62
   123
100
AcDbLine
 10
8629.942732294892
 20
-2151.296917238004
 30
0.0
 11
8629.942732294892
 21
-2142.514778534795
 31
0.0
  0
LINE
  5
2E6
330
2E4
100
AcDbEntity
  8
0
 62
   123
100
AcDbLine
 10
8626.942732294892
 20
-2156.796917238005
 30
0.0
 11
8626.942732294892
 21
-2142.514778534795
 31
0.0
  0
LINE
  5
2E7
330
2E4
100
AcDbEntity
  8
0
 62
   123
100
AcDbLine
 10
8632.44273229489
 20
-2143.114778534795
 30
0.0
 11
8634.942732294893
 21
-2143.114778534795
 31
0.0
  0
LINE
  5
2E8
330
2E4
100
AcDbEntity
  8
0
 62
   123
100
AcDbLine
 10
8624.442732294893
 20
-2143.114778534795
 30
0.0
 11
8621.94273229489
 21
-2143.114778534795
 31
0.0
  0
LINE
  5
2E9
330
2E4
100
AcDbEntity
  8
0
 62
   123
100
AcDbLine
 10
8629.942732294892
 20
-2143.114778534795
 30
0.0
 11
8626.942732294892
 21
-2143.114778534795
 31
0.0
  0
SOLID
  5
2EA
330
2E4
100
AcDbEntity
  8
0
 62
   123
100
AcDbTrace
 10
8632.44273229489
 20
-2142.698111868127
 30
0.0
 11
8632.44273229489
 21
-2143.531445201462
 31
0.0
 12
8629.942732294892
 22
-2143.114778534795
 32
0.0
 13
8629.942732294892
 23
-2143.114778534795
 33
0.0
  0
SOLID
  5
2EB
330
2E4
100
AcDbEntity
  8
0
 62
   123
100
AcDbTrace
 10
8624.442732294893
 20
-2142.698111868127
 30
0.0
 11
8624.442732294893
 21
-2143.531445201462
 31
0.0
 12
8626.942732294892
 22
-2143.114778534795
 32
0.0
 13
8626.942732294892
 23
-2143.114778534795
 33
0.0
  0
MTEXT
  5
2EC
330
2E4
100
AcDbEntity
  8
0
 62
     3
100
AcDbMText
 10
8628.442732294892
 20
-2140.614778534794
 30
0.0
 40
3.0
 41
0.0
 71
     5
 72
     1
  1
\A1;3
1001
ACAD
1000
MTEXTBEGIN
1070
    73
1070
     1
1070
    44
1040
1.0
1070
    74
1070
     0
1000
MTEXTEND
  0
POINT
  5
2ED
330
2E4
100
AcDbEntity
  8
DEFPOINTS
 62
     0
100
AcDbPoint
 10
8629.942732294892
 20
-2152.296917238004
 30
0.0
  0
POINT
  5
2EE
330
2E4
100
AcDbEntity
  8
DEFPOINTS
 62
     0
100
AcDbPoint
 10
8626.942732294892
 20
-2157.796917238004
 30
0.0
  0
POINT
  5
2EF
330
2E4
100
AcDbEntity
  8
DEFPOINTS
 62
     0
100
AcDbPoint
 10
8626.942732294892
 20
-2143.114778534795
 30
0.0
  0
ENDBLK
  5
2F1
330
2E4
100
AcDbEntity
  8
0
100
AcDbBlockEnd
  0
BLOCK
  5
31D
330
313
100
AcDbEntity
  8
0
100
AcDbBlockBegin
  2
*D13
 70
     1
 10
0.0
 20
0.0
 30
0.0
  3
*D13
  1

  0
LINE
  5
314
330
313
100
AcDbEntity
  8
0
 62
   123
100
AcDbLine
 10
8593.962747165171
 20
-2025.781483226274
 30
0.0
 11
8593.962747165171
 21
-2006.594405401842
 31
0.0
  0
LINE
  5
315
330
313
100
AcDbEntity
  8
0
 62
   123
100
AcDbLine
 10
8623.962747165171
 20
-2025.781483226274
 30
0.0
 11
8623.962747165171
 21
-2006.594405401842
 31
0.0
  0
LINE
  5
316
330
313
100
AcDbEntity
  8
0
 62
   123
100
AcDbLine
 10
8596.462747165169
 20
-2007.194405401842
 30
0.0
 11
8621.462747165169
 21
-2007.194405401842
 31
0.0
  0
SOLID
  5
317
330
313
100
AcDbEntity
  8
0
 62
   123
100
AcDbTrace
 10
8596.462747165169
 20
-2006.777738735176
 30
0.0
 11
8596.462747165169
 21
-2007.611072068509
 31
0.0
 12
8593.962747165171
 22
-2007.194405401842
 32
0.0
 13
8593.962747165171
 23
-2007.194405401842
 33
0.0
  0
SOLID
  5
318
330
313
100
AcDbEntity
  8
0
 62
   123
100
AcDbTrace
 10
8621.462747165169
 20
-2006.777738735176
 30
0.0
 11
8621.462747165169
 21
-2007.611072068509
 31
0.0
 12
8623.962747165171
 22
-2007.194405401842
 32
0.0
 13
8623.962747165171
 23
-2007.194405401842
 33
0.0
  0
MTEXT
  5
319
330
313
100
AcDbEntity
  8
0
 62
     3
100
AcDbMText
 10
8608.96274716517
 20
-2004.694405401842
 30
0.0
 40
3.0
 41
0.0
 71
     5
 72
     1
  1
\A1;30
1001
ACAD
1000
MTEXTBEGIN
1070
    73
1070
     1
1070
    44
1040
1.0
1070
    74
1070
     0
1000
MTEXTEND
  0
POINT
  5
31A
330
313
100
AcDbEntity
  8
DEFPOINTS
 62
     0
100
AcDbPoint
 10
8593.962747165171
 20
-2026.781483226274
 30
0.0
  0
POINT
  5
31B
330
313
100
AcDbEntity
  8
DEFPOINTS
 62
     0
100
AcDbPoint
 10
8623.962747165171
 20
-2026.781483226274
 30
0.0
  0
POINT
  5
31C
330
313
100
AcDbEntity
  8
DEFPOINTS
 62
     0
100
AcDbPoint
 10
8623.962747165171
 20
-2007.194405401842
 30
0.0
  0
ENDBLK
  5
31E
330
313
100
AcDbEntity
  8
0
100
AcDbBlockEnd
  0
BLOCK
  5
332
330
326
100
AcDbEntity
  8
0
100
AcDbBlockBegin
  2
*D14
 70
     1
 10
0.0
 20
0.0
 30
0.0
  3
*D14
  1

  0
LINE
  5
327
330
326
100
AcDbEntity
  8
0
 62
   123
100
AcDbLine
 10
8591.962747165169
 20
-2028.781483226274
 30
0.0
 11
8591.962747165169
 21
-2016.720614079797
 31
0.0
  0
LINE
  5
328
330
326
100
AcDbEntity
  8
0
 62
   123
100
AcDbLine
 10
8593.962747165171
 20
-2025.781483226274
 30
0.0
 11
8593.962747165171
 21
-2016.720614079797
 31
0.0
  0
LINE
  5
329
330
326
100
AcDbEntity
  8
0
 62
   123
100
AcDbLine
 10
8596.462747165169
 20
-2017.320614079797
 30
0.0
 11
8598.962747165172
 21
-2017.320614079797
 31
0.0
  0
LINE
  5
32A
330
326
100
AcDbEntity
  8
0
 62
   123
100
AcDbLine
 10
8589.462747165169
 20
-2017.320614079797
 30
0.0
 11
8582.962747165169
 21
-2017.320614079797
 31
0.0
  0
LINE
  5
32B
330
326
100
AcDbEntity
  8
0
 62
   123
100
AcDbLine
 10
8593.962747165171
 20
-2017.320614079797
 30
0.0
 11
8591.962747165169
 21
-2017.320614079797
 31
0.0
  0
SOLID
  5
32C
330
326
100
AcDbEntity
  8
0
 62
   123
100
AcDbTrace
 10
8596.462747165169
 20
-2016.903947413131
 30
0.0
 11
8596.462747165169
 21
-2017.737280746464
 31
0.0
 12
8593.962747165171
 22
-2017.320614079797
 32
0.0
 13
8593.962747165171
 23
-2017.320614079797
 33
0.0
  0
SOLID
  5
32D
330
326
100
AcDbEntity
  8
0
 62
   123
100
AcDbTrace
 10
8589.462747165169
 20
-2016.903947413131
 30
0.0
 11
8589.462747165169
 21
-2017.737280746464
 31
0.0
 12
8591.962747165169
 22
-2017.320614079797
 32
0.0
 13
8591.962747165169
 23
-2017.320614079797
 33
0.0
  0
MTEXT
  5
32E
330
326
100
AcDbEntity
  8
0
 62
     3
100
AcDbMText
 10
8584.962747165169
 20
-2014.820614079797
 30
0.0
 40
3.0
 41
0.0
 71
     5
 72
     1
  1
\A1;2
1001
ACAD
1000
MTEXTBEGIN
1070
    73
1070
     1
1070
    44
1040
1.0
1070
    74
1070
     0
1000
MTEXTEND
  0
POINT
  5
32F
330
326
100
AcDbEntity
  8
DEFPOINTS
 62
     0
100
AcDbPoint
 10
8591.962747165169
 20
-2029.781483226275
 30
0.0
  0
POINT
  5
330
330
326
100
AcDbEntity
  8
DEFPOINTS
 62
     0
100
AcDbPoint
 10
8593.962747165171
 20
-2026.781483226275
 30
0.0
  0
POINT
  5
331
330
326
100
AcDbEntity
  8
DEFPOINTS
 62
     0
100
AcDbPoint
 10
8593.962747165171
 20
-2017.320614079797
 30
0.0
  0
ENDBLK
  5
333
330
326
100
AcDbEntity
  8
0
100
AcDbBlockEnd
  0
BLOCK
  5
369
330
35F
100
AcDbEntity
  8
0
100
AcDbBlockBegin
  2
*D15
 70
     1
 10
0.0
 20
0.0
 30
0.0
  3
*D15
  1

  0
LINE
  5
360
330
35F
100
AcDbEntity
  8
0
 62
   123
100
AcDbLine
 10
8467.401385162927
 20
-2030.781483226274
 30
0.0
 11
8467.401385162927
 21
-2013.613688100369
 31
0.0
  0
LINE
  5
361
330
35F
100
AcDbEntity
  8
0
 62
   123
100
AcDbLine
 10
8537.401385162928
 20
-2030.781483226274
 30
0.0
 11
8537.401385162928
 21
-2013.613688100369
 31
0.0
  0
LINE
  5
362
330
35F
100
AcDbEntity
  8
0
 62
   123
100
AcDbLine
 10
8469.901385162927
 20
-2014.213688100368
 30
0.0
 11
8534.901385162928
 21
-2014.213688100368
 31
0.0
  0
SOLID
  5
363
330
35F
100
AcDbEntity
  8
0
 62
   123
100
AcDbTrace
 10
8469.901385162927
 20
-2013.797021433702
 30
0.0
 11
8469.901385162927
 21
-2014.630354767035
 31
0.0
 12
8467.401385162927
 22
-2014.213688100368
 32
0.0
 13
8467.401385162927
 23
-2014.213688100368
 33
0.0
  0
SOLID
  5
364
330
35F
100
AcDbEntity
  8
0
 62
   123
100
AcDbTrace
 10
8534.901385162928
 20
-2013.797021433702
 30
0.0
 11
8534.901385162928
 21
-2014.630354767035
 31
0.0
 12
8537.401385162928
 22
-2014.213688100368
 32
0.0
 13
8537.401385162928
 23
-2014.213688100368
 33
0.0
  0
MTEXT
  5
365
330
35F
100
AcDbEntity
  8
0
 62
     3
100
AcDbMText
 10
8502.401385162928
 20
-2011.713688100368
 30
0.0
 40
3.0
 41
0.0
 71
     5
 72
     1
  1
\A1;70
1001
ACAD
1000
MTEXTBEGIN
1070
    73
1070
     1
1070
    44
1040
1.0
1070
    74
1070
     0
1000
MTEXTEND
  0
POINT
  5
366
330
35F
100
AcDbEntity
  8
DEFPOINTS
 62
     0
100
AcDbPoint
 10
8467.401385162927
 20
-2031.781483226275
 30
0.0
  0
POINT
  5
367
330
35F
100
AcDbEntity
  8
DEFPOINTS
 62
     0
100
AcDbPoint
 10
8537.401385162928
 20
-2031.781483226275
 30
0.0
  0
POINT
  5
368
330
35F
100
AcDbEntity
  8
DEFPOINTS
 62
     0
100
AcDbPoint
 10
8537.401385162928
 20
-2014.213688100368
 30
0.0
  0
ENDBLK
  5
36A
330
35F
100
AcDbEntity
  8
0
100
AcDbBlockEnd
  0
BLOCK
  5
2A7
330
29D
100
AcDbEntity
  8
0
100
AcDbBlockBegin
  2
*D16
 70
     1
 10
0.0
 20
0.0
 30
0.0
  3
*D16
  1

  0
LINE
  5
29E
330
29D
100
AcDbEntity
  8
0
 62
   123
100
AcDbLine
 10
8593.044593493662
 20
-2172.296917238005
 30
0.0
 11
8574.070486192473
 21
-2172.296917238005
 31
0.0
  0
LINE
  5
29F
330
29D
100
AcDbEntity
  8
0
 62
   123
100
AcDbLine
 10
8613.583014049591
 20
-2187.296917238005
 30
0.0
 11
8574.070486192473
 21
-2187.296917238005
 31
0.0
  0
LINE
  5
2A0
330
29D
100
AcDbEntity
  8
0
 62
   123
100
AcDbLine
 10
8574.670486192474
 20
-2174.796917238004
 30
0.0
 11
8574.670486192474
 21
-2184.796917238005
 31
0.0
  0
SOLID
  5
2A1
330
29D
100
AcDbEntity
  8
0
 62
   123
100
AcDbTrace
 10
8574.253819525807
 20
-2174.796917238004
 30
0.0
 11
8575.087152859142
 21
-2174.796917238004
 31
0.0
 12
8574.670486192474
 22
-2172.296917238005
 32
0.0
 13
8574.670486192474
 23
-2172.296917238005
 33
0.0
  0
SOLID
  5
2A2
330
29D
100
AcDbEntity
  8
0
 62
   123
100
AcDbTrace
 10
8574.253819525807
 20
-2184.796917238005
 30
0.0
 11
8575.087152859142
 21
-2184.796917238005
 31
0.0
 12
8574.670486192474
 22
-2187.296917238005
 32
0.0
 13
8574.670486192474
 23
-2187.296917238005
 33
0.0
  0
MTEXT
  5
2A3
330
29D
100
AcDbEntity
  8
0
 62
     3
100
AcDbMText
 10
8572.170486192474
 20
-2179.796917238003
 30
0.0
 40
3.0
 41
0.0
 71
     5
 72
     1
  1
\A1;15
 11
0.0000000000000001
 21
1.0
 31
0.0
1001
ACAD
1000
MTEXTBEGIN
1070
    73
1070
     1
1070
    44
1040
1.0
1070
    74
1070
     0
1000
MTEXTEND
  0
POINT
  5
2A4
330
29D
100
AcDbEntity
  8
DEFPOINTS
 62
     0
100
AcDbPoint
 10
8594.044593493661
 20
-2172.296917238005
 30
0.0
  0
POINT
  5
2A5
330
29D
100
AcDbEntity
  8
DEFPOINTS
 62
     0
100
AcDbPoint
 10
8614.583014049589
 20
-2187.296917238005
 30
0.0
  0
POINT
  5
2A6
330
29D
100
AcDbEntity
  8
DEFPOINTS
 62
     0
100
AcDbPoint
 10
8574.670486192474
 20
-2187.296917238005
 30
0.0
  0
ENDBLK
  5
2A8
330
29D
100
AcDbEntity
  8
0
100
AcDbBlockEnd
  0
BLOCK
  5
2BE
330
2B4
100
AcDbEntity
  8
0
100
AcDbBlockBegin
  2
*D17
 70
     1
 10
0.0
 20
0.0
 30
0.0
  3
*D17
  1

  0
LINE
  5
2B5
330
2B4
100
AcDbEntity
  8
0
 62
   123
100
AcDbLine
 10
8458.153318030534
 20
-2214.909905447326
 30
0.0
 11
8458.153318030534
 21
-2237.358907438548
 31
0.0
  0
LINE
  5
2B6
330
2B4
100
AcDbEntity
  8
0
 62
   123
100
AcDbLine
 10
8528.153318030534
 20
-2214.909905447326
 30
0.0
 11
8528.153318030534
 21
-2237.358907438548
 31
0.0
  0
LINE
  5
2B7
330
2B4
100
AcDbEntity
  8
0
 62
   123
100
AcDbLine
 10
8460.653318030535
 20
-2236.758907438547
 30
0.0
 11
8525.653318030533
 21
-2236.758907438547
 31
0.0
  0
SOLID
  5
2B8
330
2B4
100
AcDbEntity
  8
0
 62
   123
100
AcDbTrace
 10
8460.653318030535
 20
-2236.342240771882
 30
0.0
 11
8460.653318030535
 21
-2237.175574105215
 31
0.0
 12
8458.153318030534
 22
-2236.758907438547
 32
0.0
 13
8458.153318030534
 23
-2236.758907438547
 33
0.0
  0
SOLID
  5
2B9
330
2B4
100
AcDbEntity
  8
0
 62
   123
100
AcDbTrace
 10
8525.653318030533
 20
-2236.342240771882
 30
0.0
 11
8525.653318030533
 21
-2237.175574105215
 31
0.0
 12
8528.153318030534
 22
-2236.758907438547
 32
0.0
 13
8528.153318030534
 23
-2236.758907438547
 33
0.0
  0
MTEXT
  5
2BA
330
2B4
100
AcDbEntity
  8
0
 62
     3
100
AcDbMText
 10
8496.495133579745
 20
-2234.258907438547
 30
0.0
 40
3.0
 41
0.0
 71
     5
 72
     1
  1
\A1;70
1001
ACAD
1000
MTEXTBEGIN
1070
    73
1070
     1
1070
    44
1040
1.0
1070
    74
1070
     0
1000
MTEXTEND
  0
POINT
  5
2BB
330
2B4
100
AcDbEntity
  8
DEFPOINTS
 62
     0
100
AcDbPoint
 10
8458.153318030534
 20
-2213.909905447326
 30
0.0
  0
POINT
  5
2BC
330
2B4
100
AcDbEntity
  8
DEFPOINTS
 62
     0
100
AcDbPoint
 10
8528.153318030534
 20
-2213.909905447326
 30
0.0
  0
POINT
  5
2BD
330
2B4
100
AcDbEntity
  8
DEFPOINTS
 62
     0
100
AcDbPoint
 10
8528.153318030534
 20
-2236.758907438547
 30
0.0
  0
ENDBLK
  5
2BF
330
2B4
100
AcDbEntity
  8
0
100
AcDbBlockEnd
  0
BLOCK
  5
2D1
330
2C5
100
AcDbEntity
  8
0
100
AcDbBlockBegin
  2
*D18
 70
     1
 10
0.0
 20
0.0
 30
0.0
  3
*D18
  1

  0
LINE
  5
2C6
330
2C5
100
AcDbEntity
  8
0
 62
   123
100
AcDbLine
 10
8596.942732294889
 20
-2177.296917238004
 30
0.0
 11
8582.518069005912
 21
-2177.296917238004
 31
0.0
  0
LINE
  5
2C7
330
2C5
100
AcDbEntity
  8
0
 62
   123
100
AcDbLine
 10
8596.942732294889
 20
-2167.296917238004
 30
0.0
 11
8582.518069005912
 21
-2167.296917238004
 31
0.0
  0
LINE
  5
2C8
330
2C5
100
AcDbEntity
  8
0
 62
   123
100
AcDbLine
 10
8583.118069005911
 20
-2179.796917238005
 30
0.0
 11
8583.118069005911
 21
-2182.296917238005
 31
0.0
  0
LINE
  5
2C9
330
2C5
100
AcDbEntity
  8
0
 62
   123
100
AcDbLine
 10
8583.118069005911
 20
-2164.796917238005
 30
0.0
 11
8583.118069005911
 21
-2126.492138600404
 31
0.0
  0
LINE
  5
2CA
330
2C5
100
AcDbEntity
  8
0
 62
   123
100
AcDbLine
 10
8583.118069005911
 20
-2177.296917238004
 30
0.0
 11
8583.118069005911
 21
-2167.296917238004
 31
0.0
  0
SOLID
  5
2CB
330
2C5
100
AcDbEntity
  8
0
 62
   123
100
AcDbTrace
 10
8582.701402339246
 20
-2179.796917238005
 30
0.0
 11
8583.534735672577
 21
-2179.796917238005
 31
0.0
 12
8583.118069005911
 22
-2177.296917238004
 32
0.0
 13
8583.118069005911
 23
-2177.296917238004
 33
0.0
  0
SOLID
  5
2CC
330
2C5
100
AcDbEntity
  8
0
 62
   123
100
AcDbTrace
 10
8582.701402339246
 20
-2164.796917238005
 30
0.0
 11
8583.534735672577
 21
-2164.796917238005
 31
0.0
 12
8583.118069005911
 22
-2167.296917238004
 32
0.0
 13
8583.118069005911
 23
-2167.296917238004
 33
0.0
  0
MTEXT
  5
2CD
330
2C5
100
AcDbEntity
  8
0
 62
     3
100
AcDbMText
 10
8579.167919005911
 20
-2141.307710028975
 30
0.0
 40
3.0
 41
0.0
 71
     5
 72
     1
  1
\A1;\A1;{\f??|b0|i0|c0|p49;%%C10\H0.7x;\S+0^ -0.015;\H1.429x;(h7)}
 11
0.0000000000000001
 21
1.0
 31
0.0
1001
ACAD
1000
MTEXTBEGIN
1070
    73
1070
     1
1070
    44
1040
1.0
1070
    74
1070
     0
1000
MTEXTEND
  0
POINT
  5
2CE
330
2C5
100
AcDbEntity
  8
DEFPOINTS
 62
     0
100
AcDbPoint
 10
8597.942732294892
 20
-2177.296917238004
 30
0.0
  0
POINT
  5
2CF
330
2C5
100
AcDbEntity
  8
DEFPOINTS
 62
     0
100
AcDbPoint
 10
8597.942732294892
 20
-2167.296917238004
 30
0.0
  0
POINT
  5
2D0
330
2C5
100
AcDbEntity
  8
DEFPOINTS
 62
     0
100
AcDbPoint
 10
8583.118069005911
 20
-2167.296917238004
 30
0.0
  0
ENDBLK
  5
2D2
330
2C5
100
AcDbEntity
  8
0
100
AcDbBlockEnd
  0
BLOCK
  5
309
330
2FF
100
AcDbEntity
  8
0
100
AcDbBlockBegin
  2
*D19
 70
     1
 10
0.0
 20
0.0
 30
0.0
  3
*D19
  1

  0
LINE
  5
300
330
2FF
100
AcDbEntity
  8
0
 62
   123
100
AcDbLine
 10
8671.94273229489
 20
-2223.296917238005
 30
0.0
 11
8671.94273229489
 21
-2236.19293161963
 31
0.0
  0
LINE
  5
301
330
2FF
100
AcDbEntity
  8
0
 62
   123
100
AcDbLine
 10
8629.942732294892
 20
-2223.296917238005
 30
0.0
 11
8629.942732294892
 21
-2236.19293161963
 31
0.0
  0
LINE
  5
302
330
2FF
100
AcDbEntity
  8
0
 62
   123
100
AcDbLine
 10
8669.442732294893
 20
-2235.59293161963
 30
0.0
 11
8632.44273229489
 21
-2235.59293161963
 31
0.0
  0
SOLID
  5
303
330
2FF
100
AcDbEntity
  8
0
 62
   123
100
AcDbTrace
 10
8669.442732294893
 20
-2235.176264952963
 30
0.0
 11
8669.442732294893
 21
-2236.009598286297
 31
0.0
 12
8671.94273229489
 22
-2235.59293161963
 32
0.0
 13
8671.94273229489
 23
-2235.59293161963
 33
0.0
  0
SOLID
  5
304
330
2FF
100
AcDbEntity
  8
0
 62
   123
100
AcDbTrace
 10
8632.44273229489
 20
-2235.176264952963
 30
0.0
 11
8632.44273229489
 21
-2236.009598286297
 31
0.0
 12
8629.942732294892
 22
-2235.59293161963
 32
0.0
 13
8629.942732294892
 23
-2235.59293161963
 33
0.0
  0
MTEXT
  5
305
330
2FF
100
AcDbEntity
  8
0
 62
     3
100
AcDbMText
 10
8650.942732294891
 20
-2233.09293161963
 30
0.0
 40
3.0
 41
0.0
 71
     5
 72
     1
  1
\A1;L
1001
ACAD
1000
MTEXTBEGIN
1070
    73
1070
     1
1070
    44
1040
1.0
1070
    74
1070
     0
1000
MTEXTEND
  0
POINT
  5
306
330
2FF
100
AcDbEntity
  8
DEFPOINTS
 62
     0
100
AcDbPoint
 10
8671.94273229489
 20
-2222.296917238005
 30
0.0
  0
POINT
  5
307
330
2FF
100
AcDbEntity
  8
DEFPOINTS
 62
     0
100
AcDbPoint
 10
8629.942732294892
 20
-2222.296917238005
 30
0.0
  0
POINT
  5
308
330
2FF
100
AcDbEntity
  8
DEFPOINTS
 62
     0
100
AcDbPoint
 10
8629.942732294892
 20
-2235.59293161963
 30
0.0
  0
ENDBLK
  5
30A
330
2FF
100
AcDbEntity
  8
0
100
AcDbBlockEnd
  0
BLOCK
  5
102
330
F8
100
AcDbEntity
  8
0
100
AcDbBlockBegin
  2
*D20
 70
     1
 10
0.0
 20
0.0
 30
0.0
  3
*D20
  1

  0
LINE
  5
F9
330
F8
100
AcDbEntity
  8
0
 62
   123
100
AcDbLine
 10
8591.446180948423
 20
-2349.652340034203
 30
0.0
 11
8591.446180948423
 21
-2327.266404213609
 31
0.0
  0
LINE
  5
FA
330
F8
100
AcDbEntity
  8
0
 62
   123
100
AcDbLine
 10
8711.446180948424
 20
-2354.152340034203
 30
0.0
 11
8711.446180948424
 21
-2327.266404213609
 31
0.0
  0
LINE
  5
FB
330
F8
100
AcDbEntity
  8
0
 62
   123
100
AcDbLine
 10
8593.946180948424
 20
-2327.866404213609
 30
0.0
 11
8708.946180948423
 21
-2327.866404213609
 31
0.0
  0
SOLID
  5
FC
330
F8
100
AcDbEntity
  8
0
 62
   123
100
AcDbTrace
 10
8593.946180948424
 20
-2327.449737546942
 30
0.0
 11
8593.946180948424
 21
-2328.283070880276
 31
0.0
 12
8591.446180948423
 22
-2327.866404213609
 32
0.0
 13
8591.446180948423
 23
-2327.866404213609
 33
0.0
  0
SOLID
  5
FD
330
F8
100
AcDbEntity
  8
0
 62
   123
100
AcDbTrace
 10
8708.946180948423
 20
-2327.449737546942
 30
0.0
 11
8708.946180948423
 21
-2328.283070880276
 31
0.0
 12
8711.446180948424
 22
-2327.866404213609
 32
0.0
 13
8711.446180948424
 23
-2327.866404213609
 33
0.0
  0
MTEXT
  5
FE
330
F8
100
AcDbEntity
  8
0
 62
     3
100
AcDbMText
 10
8651.446180948424
 20
-2325.366404213608
 30
0.0
 40
3.0
 41
0.0
 71
     5
 72
     1
  1
\A1;120
1001
ACAD
1000
MTEXTBEGIN
1070
    73
1070
     1
1070
    44
1040
1.0
1070
    74
1070
     0
1000
MTEXTEND
  0
POINT
  5
FF
330
F8
100
AcDbEntity
  8
DEFPOINTS
 62
     0
100
AcDbPoint
 10
8591.446180948423
 20
-2350.652340034204
 30
0.0
  0
POINT
  5
100
330
F8
100
AcDbEntity
  8
DEFPOINTS
 62
     0
100
AcDbPoint
 10
8711.446180948424
 20
-2355.152340034203
 30
0.0
  0
POINT
  5
101
330
F8
100
AcDbEntity
  8
DEFPOINTS
 62
     0
100
AcDbPoint
 10
8711.446180948424
 20
-2327.866404213609
 30
0.0
  0
ENDBLK
  5
103
330
F8
100
AcDbEntity
  8
0
100
AcDbBlockEnd
  0
BLOCK
  5
25A
330
250
100
AcDbEntity
  8
0
100
AcDbBlockBegin
  2
*D21
 70
     1
 10
0.0
 20
0.0
 30
0.0
  3
*D21
  1

  0
LINE
  5
251
330
250
100
AcDbEntity
  8
0
 62
   123
100
AcDbLine
 10
8708.446180948424
 20
-2350.652340034203
 30
0.0
 11
8726.202400888665
 21
-2350.652340034203
 31
0.0
  0
LINE
  5
252
330
250
100
AcDbEntity
  8
0
 62
   123
100
AcDbLine
 10
8708.446180948424
 20
-2420.652340034203
 30
0.0
 11
8726.202400888665
 21
-2420.652340034203
 31
0.0
  0
LINE
  5
253
330
250
100
AcDbEntity
  8
0
 62
   123
100
AcDbLine
 10
8725.602400888666
 20
-2353.152340034203
 30
0.0
 11
8725.602400888666
 21
-2418.152340034203
 31
0.0
  0
SOLID
  5
254
330
250
100
AcDbEntity
  8
0
 62
   123
100
AcDbTrace
 10
8725.185734222
 20
-2353.152340034203
 30
0.0
 11
8726.019067555332
 21
-2353.152340034203
 31
0.0
 12
8725.602400888666
 22
-2350.652340034203
 32
0.0
 13
8725.602400888666
 23
-2350.652340034203
 33
0.0
  0
SOLID
  5
255
330
250
100
AcDbEntity
  8
0
 62
   123
100
AcDbTrace
 10
8725.185734222
 20
-2418.152340034203
 30
0.0
 11
8726.019067555332
 21
-2418.152340034203
 31
0.0
 12
8725.602400888666
 22
-2420.652340034203
 32
0.0
 13
8725.602400888666
 23
-2420.652340034203
 33
0.0
  0
MTEXT
  5
256
330
250
100
AcDbEntity
  8
0
 62
     3
100
AcDbMText
 10
8723.102400888668
 20
-2385.652340034203
 30
0.0
 40
3.0
 41
0.0
 71
     5
 72
     1
  1
\A1;%%C70
 11
0.0000000000000001
 21
1.0
 31
0.0
1001
ACAD
1000
MTEXTBEGIN
1070
    73
1070
     1
1070
    44
1040
1.0
1070
    74
1070
     0
1000
MTEXTEND
  0
POINT
  5
257
330
250
100
AcDbEntity
  8
DEFPOINTS
 62
     0
100
AcDbPoint
 10
8707.446180948423
 20
-2350.652340034203
 30
0.0
  0
POINT
  5
258
330
250
100
AcDbEntity
  8
DEFPOINTS
 62
     0
100
AcDbPoint
 10
8707.446180948423
 20
-2420.652340034203
 30
0.0
  0
POINT
  5
259
330
250
100
AcDbEntity
  8
DEFPOINTS
 62
     0
100
AcDbPoint
 10
8725.602400888666
 20
-2420.652340034203
 30
0.0
  0
ENDBLK
  5
25B
330
250
100
AcDbEntity
  8
0
100
AcDbBlockEnd
  0
BLOCK
  5
188
330
17E
100
AcDbEntity
  8
0
100
AcDbBlockBegin
  2
*D22
 70
     1
 10
0.0
 20
0.0
 30
0.0
  3
*D22
  1

  0
LINE
  5
17F
330
17E
100
AcDbEntity
  8
0
 62
   123
100
AcDbLine
 10
8546.196180948424
 20
-2355.652340034203
 30
0.0
 11
8487.8359135392
 21
-2355.652340034203
 31
0.0
  0
LINE
  5
180
330
17E
100
AcDbEntity
  8
0
 62
   123
100
AcDbLine
 10
8533.086462703122
 20
-2385.652340034205
 30
0.0
 11
8487.8359135392
 21
-2385.652340034205
 31
0.0
  0
LINE
  5
181
330
17E
100
AcDbEntity
  8
0
 62
   123
100
AcDbLine
 10
8488.4359135392
 20
-2358.152340034205
 30
0.0
 11
8488.4359135392
 21
-2383.152340034205
 31
0.0
  0
SOLID
  5
182
330
17E
100
AcDbEntity
  8
0
 62
   123
100
AcDbTrace
 10
8488.019246872534
 20
-2358.152340034205
 30
0.0
 11
8488.852580205865
 21
-2358.152340034205
 31
0.0
 12
8488.4359135392
 22
-2355.652340034203
 32
0.0
 13
8488.4359135392
 23
-2355.652340034203
 33
0.0
  0
SOLID
  5
183
330
17E
100
AcDbEntity
  8
0
 62
   123
100
AcDbTrace
 10
8488.019246872534
 20
-2383.152340034205
 30
0.0
 11
8488.852580205865
 21
-2383.152340034205
 31
0.0
 12
8488.4359135392
 22
-2385.652340034205
 32
0.0
 13
8488.4359135392
 23
-2385.652340034205
 33
0.0
  0
MTEXT
  5
184
330
17E
100
AcDbEntity
  8
0
 62
     3
100
AcDbMText
 10
8485.935913539201
 20
-2370.902340034203
 30
0.0
 40
3.0
 41
0.0
 71
     5
 72
     1
  1
\A1;{\f??|b0|i0|c0|p49;%%c}30
 11
0.0000000000000001
 21
1.0
 31
0.0
1001
ACAD
1000
MTEXTBEGIN
1070
    73
1070
     1
1070
    44
1040
1.0
1070
    74
1070
     0
1000
MTEXTEND
  0
POINT
  5
185
330
17E
100
AcDbEntity
  8
DEFPOINTS
 62
     0
100
AcDbPoint
 10
8547.196180948423
 20
-2355.652340034203
 30
0.0
  0
POINT
  5
186
330
17E
100
AcDbEntity
  8
DEFPOINTS
 62
     0
100
AcDbPoint
 10
8534.086462703122
 20
-2385.652340034205
 30
0.0
  0
POINT
  5
187
330
17E
100
AcDbEntity
  8
DEFPOINTS
 62
     0
100
AcDbPoint
 10
8488.4359135392
 20
-2385.652340034205
 30
0.0
  0
ENDBLK
  5
189
330
17E
100
AcDbEntity
  8
0
100
AcDbBlockEnd
  0
BLOCK
  5
1BB
330
1AF
100
AcDbEntity
  8
0
100
AcDbBlockBegin
  2
*D23
 70
     1
 10
0.0
 20
0.0
 30
0.0
  3
*D23
  1

  0
LINE
  5
1B0
330
1AF
100
AcDbEntity
  8
0
 62
   123
100
AcDbLine
 10
8432.088315377169
 20
-2428.700053038407
 30
0.0
 11
8432.088315377169
 21
-2445.919039421454
 31
0.0
  0
LINE
  5
1B1
330
1AF
100
AcDbEntity
  8
0
 62
   123
100
AcDbLine
 10
8446.968473492598
 20
-2421.576219566716
 30
0.0
 11
8455.151382756001
 21
-2441.331510090096
 31
0.0
  0
ARC
  5
1B2
330
1AF
100
AcDbEntity
  8
0
 62
   123
100
AcDbCircle
 10
8432.088315377169
 20
-2385.652340034186
 30
0.0
 40
59.66669938726784
100
AcDbArc
 50
272.4008354753672
 51
290.0991645246266
  0
SOLID
  5
1B3
330
1AF
100
AcDbEntity
  8
0
 62
   123
100
AcDbTrace
 10
8434.596495749564
 20
-2445.68324036965
 30
0.0
 11
8434.579037658576
 21
-2444.85008992735
 31
0.0
 12
8432.088315377169
 22
-2445.319039421454
 32
0.0
 13
8432.088315377169
 23
-2445.319039421454
 33
0.0
  0
SOLID
  5
1B4
330
1AF
100
AcDbEntity
  8
0
 62
   123
100
AcDbTrace
 10
8452.441186157612
 20
-2441.297087682921
 30
0.0
 11
8452.743889855609
 21
-2442.073499246244
 31
0.0
 12
8454.921772696582
 22
-2440.777182370589
 32
0.0
 13
8454.921772696582
 23
-2440.777182370589
 33
0.0
  0
MTEXT
  5
1B5
330
1AF
100
AcDbEntity
  8
0
 62
     3
100
AcDbMText
 10
8443.185245077224
 20
-2441.440372956625
 30
0.0
 40
3.0
 41
0.0
 71
     5
 72
     1
  1
\A1;22°30'
 11
0.980785280403237
 21
0.1950903220160962
 31
0.0
1001
ACAD
1000
MTEXTBEGIN
1070
    73
1070
     1
1070
    44
1040
1.0
1070
    74
1070
     0
1000
MTEXTEND
  0
POINT
  5
1B6
330
1AF
100
AcDbEntity
  8
DEFPOINTS
 62
     0
100
AcDbPoint
 10
8439.876382450526
 20
-2444.808582536829
 30
0.0
  0
POINT
  5
1B7
330
1AF
100
AcDbEntity
  8
DEFPOINTS
 62
     0
100
AcDbPoint
 10
8432.088315377169
 20
-2427.700053038408
 30
0.0
  0
POINT
  5
1B8
330
1AF
100
AcDbEntity
  8
DEFPOINTS
 62
     0
100
AcDbPoint
 10
8432.088315377177
 20
-2385.652340034205
 30
0.0
  0
POINT
  5
1B9
330
1AF
100
AcDbEntity
  8
DEFPOINTS
 62
     0
100
AcDbPoint
 10
8446.585790060231
 20
-2420.652340034203
 30
0.0
  0
POINT
  5
1BA
330
1AF
100
AcDbEntity
  8
DEFPOINTS
 62
     0
100
AcDbPoint
 10
8432.088315377169
 20
-2343.604627030008
 30
0.0
  0
ENDBLK
  5
1BC
330
1AF
100
AcDbEntity
  8
0
100
AcDbBlockEnd
  0
BLOCK
  5
173
330
169
100
AcDbEntity
  8
0
100
AcDbBlockBegin
  2
*D24
 70
     1
 10
0.0
 20
0.0
 30
0.0
  3
*D24
  1

  0
LINE
  5
16A
330
169
100
AcDbEntity
  8
0
 62
   123
100
AcDbLine
 10
8397.088315377173
 20
-2354.652340034204
 30
0.0
 11
8397.088315377173
 21
-2337.484544908298
 31
0.0
  0
LINE
  5
16B
330
169
100
AcDbEntity
  8
0
 62
   123
100
AcDbLine
 10
8467.088315377173
 20
-2354.652340034204
 30
0.0
 11
8467.088315377173
 21
-2337.484544908298
 31
0.0
  0
LINE
  5
16C
330
169
100
AcDbEntity
  8
0
 62
   123
100
AcDbLine
 10
8399.588315377171
 20
-2338.084544908297
 30
0.0
 11
8464.588315377172
 21
-2338.084544908297
 31
0.0
  0
SOLID
  5
16D
330
169
100
AcDbEntity
  8
0
 62
   123
100
AcDbTrace
 10
8399.588315377171
 20
-2337.667878241632
 30
0.0
 11
8399.588315377171
 21
-2338.501211574965
 31
0.0
 12
8397.088315377173
 22
-2338.084544908297
 32
0.0
 13
8397.088315377173
 23
-2338.084544908297
 33
0.0
  0
SOLID
  5
16E
330
169
100
AcDbEntity
  8
0
 62
   123
100
AcDbTrace
 10
8464.588315377172
 20
-2337.667878241632
 30
0.0
 11
8464.588315377172
 21
-2338.501211574965
 31
0.0
 12
8467.088315377173
 22
-2338.084544908297
 32
0.0
 13
8467.088315377173
 23
-2338.084544908297
 33
0.0
  0
MTEXT
  5
16F
330
169
100
AcDbEntity
  8
0
 62
     3
100
AcDbMText
 10
8432.088315377169
 20
-2335.584544908298
 30
0.0
 40
3.0
 41
0.0
 71
     5
 72
     1
  1
\A1;70
1001
ACAD
1000
MTEXTBEGIN
1070
    73
1070
     1
1070
    44
1040
1.0
1070
    74
1070
     0
1000
MTEXTEND
  0
POINT
  5
170
330
169
100
AcDbEntity
  8
DEFPOINTS
 62
     0
100
AcDbPoint
 10
8397.088315377173
 20
-2355.652340034203
 30
0.0
  0
POINT
  5
171
330
169
100
AcDbEntity
  8
DEFPOINTS
 62
     0
100
AcDbPoint
 10
8467.088315377173
 20
-2355.652340034203
 30
0.0
  0
POINT
  5
172
330
169
100
AcDbEntity
  8
DEFPOINTS
 62
     0
100
AcDbPoint
 10
8467.088315377173
 20
-2338.084544908297
 30
0.0
  0
ENDBLK
  5
174
330
169
100
AcDbEntity
  8
0
100
AcDbBlockEnd
  0
BLOCK
  5
1CA
330
1C0
100
AcDbEntity
  8
0
100
AcDbBlockBegin
  2
*D25
 70
     1
 10
0.0
 20
0.0
 30
0.0
  3
*D25
  1

  0
LINE
  5
1C1
330
1C0
100
AcDbEntity
  8
0
 62
   123
100
AcDbLine
 10
8591.446180948423
 20
-2339.628097507667
 30
0.0
 11
8591.446180948423
 21
-2340.126734015928
 31
0.0
  0
LINE
  5
1C2
330
1C0
100
AcDbEntity
  8
0
 62
   123
100
AcDbLine
 10
8598.446180948426
 20
-2351.053602692674
 30
0.0
 11
8598.446180948426
 21
-2338.926734015928
 31
0.0
  0
LINE
  5
1C3
330
1C0
100
AcDbEntity
  8
0
 62
   123
100
AcDbLine
 10
8593.946180948424
 20
-2339.526734015927
 30
0.0
 11
8595.946180948423
 21
-2339.526734015927
 31
0.0
  0
SOLID
  5
1C4
330
1C0
100
AcDbEntity
  8
0
 62
   123
100
AcDbTrace
 10
8593.946180948424
 20
-2339.110067349261
 30
0.0
 11
8593.946180948424
 21
-2339.943400682594
 31
0.0
 12
8591.446180948423
 22
-2339.526734015927
 32
0.0
 13
8591.446180948423
 23
-2339.526734015927
 33
0.0
  0
SOLID
  5
1C5
330
1C0
100
AcDbEntity
  8
0
 62
   123
100
AcDbTrace
 10
8595.946180948423
 20
-2339.110067349261
 30
0.0
 11
8595.946180948423
 21
-2339.943400682594
 31
0.0
 12
8598.446180948426
 22
-2339.526734015927
 32
0.0
 13
8598.446180948426
 23
-2339.526734015927
 33
0.0
  0
MTEXT
  5
1C6
330
1C0
100
AcDbEntity
  8
0
 62
     3
100
AcDbMText
 10
8595.196180948425
 20
-2337.026734015928
 30
0.0
 40
3.0
 41
0.0
 71
     5
 72
     1
  1
\A1;7
1001
ACAD
1000
MTEXTBEGIN
1070
    73
1070
     1
1070
    44
1040
1.0
1070
    74
1070
     0
1000
MTEXTEND
  0
POINT
  5
1C7
330
1C0
100
AcDbEntity
  8
DEFPOINTS
 62
     0
100
AcDbPoint
 10
8591.446180948423
 20
-2338.628097507668
 30
0.0
  0
POINT
  5
1C8
330
1C0
100
AcDbEntity
  8
DEFPOINTS
 62
     0
100
AcDbPoint
 10
8598.446180948426
 20
-2352.053602692675
 30
0.0
  0
POINT
  5
1C9
330
1C0
100
AcDbEntity
  8
DEFPOINTS
 62
     0
100
AcDbPoint
 10
8598.446180948426
 20
-2339.526734015927
 30
0.0
  0
ENDBLK
  5
1CB
330
1C0
100
AcDbEntity
  8
0
100
AcDbBlockEnd
  0
BLOCK
  5
120
330
116
100
AcDbEntity
  8
0
100
AcDbBlockBegin
  2
*D26
 70
     1
 10
0.0
 20
0.0
 30
0.0
  3
*D26
  1

  0
LINE
  5
117
330
116
100
AcDbEntity
  8
0
 62
   123
100
AcDbLine
 10
8517.446180948423
 20
-2364.652340034204
 30
0.0
 11
8517.446180948423
 21
-2327.266404213609
 31
0.0
  0
LINE
  5
118
330
116
100
AcDbEntity
  8
0
 62
   123
100
AcDbLine
 10
8549.446180948423
 20
-2350.152340034204
 30
0.0
 11
8549.446180948423
 21
-2327.266404213609
 31
0.0
  0
LINE
  5
119
330
116
100
AcDbEntity
  8
0
 62
   123
100
AcDbLine
 10
8519.946180948423
 20
-2327.866404213609
 30
0.0
 11
8546.946180948424
 21
-2327.866404213609
 31
0.0
  0
SOLID
  5
11A
330
116
100
AcDbEntity
  8
0
 62
   123
100
AcDbTrace
 10
8519.946180948423
 20
-2327.449737546942
 30
0.0
 11
8519.946180948423
 21
-2328.283070880274
 31
0.0
 12
8517.446180948423
 22
-2327.866404213609
 32
0.0
 13
8517.446180948423
 23
-2327.866404213609
 33
0.0
  0
SOLID
  5
11B
330
116
100
AcDbEntity
  8
0
 62
   123
100
AcDbTrace
 10
8546.946180948424
 20
-2327.449737546942
 30
0.0
 11
8546.946180948424
 21
-2328.283070880274
 31
0.0
 12
8549.446180948423
 22
-2327.866404213609
 32
0.0
 13
8549.446180948423
 23
-2327.866404213609
 33
0.0
  0
MTEXT
  5
11C
330
116
100
AcDbEntity
  8
0
 62
     3
100
AcDbMText
 10
8533.446180948423
 20
-2325.366404213608
 30
0.0
 40
3.0
 41
0.0
 71
     5
 72
     1
  1
\A1;32
1001
ACAD
1000
MTEXTBEGIN
1070
    73
1070
     1
1070
    44
1040
1.0
1070
    74
1070
     0
1000
MTEXTEND
  0
POINT
  5
11D
330
116
100
AcDbEntity
  8
DEFPOINTS
 62
     0
100
AcDbPoint
 10
8517.446180948423
 20
-2365.652340034203
 30
0.0
  0
POINT
  5
11E
330
116
100
AcDbEntity
  8
DEFPOINTS
 62
     0
100
AcDbPoint
 10
8549.446180948423
 20
-2351.152340034203
 30
0.0
  0
POINT
  5
11F
330
116
100
AcDbEntity
  8
DEFPOINTS
 62
     0
100
AcDbPoint
 10
8549.446180948423
 20
-2327.866404213609
 30
0.0
  0
ENDBLK
  5
121
330
116
100
AcDbEntity
  8
0
100
AcDbBlockEnd
  0
BLOCK
  5
12F
330
125
100
AcDbEntity
  8
0
100
AcDbBlockBegin
  2
*D27
 70
     1
 10
0.0
 20
0.0
 30
0.0
  3
*D27
  1

  0
LINE
  5
126
330
125
100
AcDbEntity
  8
0
 62
   123
100
AcDbLine
 10
8542.446180948424
 20
-2364.652340034204
 30
0.0
 11
8542.446180948424
 21
-2348.832051827303
 31
0.0
  0
LINE
  5
127
330
125
100
AcDbEntity
  8
0
 62
   123
100
AcDbLine
 10
8517.446180948423
 20
-2364.652340034204
 30
0.0
 11
8517.446180948423
 21
-2348.832051827303
 31
0.0
  0
LINE
  5
128
330
125
100
AcDbEntity
  8
0
 62
   123
100
AcDbLine
 10
8539.946180948424
 20
-2349.432051827303
 30
0.0
 11
8519.946180948423
 21
-2349.432051827303
 31
0.0
  0
SOLID
  5
129
330
125
100
AcDbEntity
  8
0
 62
   123
100
AcDbTrace
 10
8539.946180948424
 20
-2349.015385160636
 30
0.0
 11
8539.946180948424
 21
-2349.848718493969
 31
0.0
 12
8542.446180948424
 22
-2349.432051827303
 32
0.0
 13
8542.446180948424
 23
-2349.432051827303
 33
0.0
  0
SOLID
  5
12A
330
125
100
AcDbEntity
  8
0
 62
   123
100
AcDbTrace
 10
8519.946180948423
 20
-2349.015385160636
 30
0.0
 11
8519.946180948423
 21
-2349.848718493969
 31
0.0
 12
8517.446180948423
 22
-2349.432051827303
 32
0.0
 13
8517.446180948423
 23
-2349.432051827303
 33
0.0
  0
MTEXT
  5
12B
330
125
100
AcDbEntity
  8
0
 62
     3
100
AcDbMText
 10
8530.257111615823
 20
-2346.932051827303
 30
0.0
 40
3.0
 41
0.0
 71
     5
 72
     1
  1
\A1;25
1001
ACAD
1000
MTEXTBEGIN
1070
    73
1070
     1
1070
    44
1040
1.0
1070
    74
1070
     0
1000
MTEXTEND
  0
POINT
  5
12C
330
125
100
AcDbEntity
  8
DEFPOINTS
 62
     0
100
AcDbPoint
 10
8542.446180948424
 20
-2365.652340034203
 30
0.0
  0
POINT
  5
12D
330
125
100
AcDbEntity
  8
DEFPOINTS
 62
     0
100
AcDbPoint
 10
8517.446180948423
 20
-2365.652340034205
 30
0.0
  0
POINT
  5
12E
330
125
100
AcDbEntity
  8
DEFPOINTS
 62
     0
100
AcDbPoint
 10
8517.446180948423
 20
-2349.432051827303
 30
0.0
  0
ENDBLK
  5
130
330
125
100
AcDbEntity
  8
0
100
AcDbBlockEnd
  0
BLOCK
  5
1E1
330
1D7
100
AcDbEntity
  8
0
100
AcDbBlockBegin
  2
*D28
 70
     1
 10
0.0
 20
0.0
 30
0.0
  3
*D28
  1

  0
LINE
  5
1D8
330
1D7
100
AcDbEntity
  8
0
 62
   123
100
AcDbLine
 10
8549.446180948423
 20
-2350.152340034204
 30
0.0
 11
8549.446180948423
 21
-2327.266404213608
 31
0.0
  0
LINE
  5
1D9
330
1D7
100
AcDbEntity
  8
0
 62
   123
100
AcDbLine
 10
8591.446180948423
 20
-2349.652340034205
 30
0.0
 11
8591.446180948423
 21
-2327.266404213608
 31
0.0
  0
LINE
  5
1DA
330
1D7
100
AcDbEntity
  8
0
 62
   123
100
AcDbLine
 10
8551.946180948425
 20
-2327.866404213608
 30
0.0
 11
8588.946180948424
 21
-2327.866404213608
 31
0.0
  0
SOLID
  5
1DB
330
1D7
100
AcDbEntity
  8
0
 62
   123
100
AcDbTrace
 10
8551.946180948425
 20
-2327.44973754694
 30
0.0
 11
8551.946180948425
 21
-2328.283070880274
 31
0.0
 12
8549.446180948423
 22
-2327.866404213608
 32
0.0
 13
8549.446180948423
 23
-2327.866404213608
 33
0.0
  0
SOLID
  5
1DC
330
1D7
100
AcDbEntity
  8
0
 62
   123
100
AcDbTrace
 10
8588.946180948424
 20
-2327.44973754694
 30
0.0
 11
8588.946180948424
 21
-2328.283070880274
 31
0.0
 12
8591.446180948423
 22
-2327.866404213608
 32
0.0
 13
8591.446180948423
 23
-2327.866404213608
 33
0.0
  0
MTEXT
  5
1DD
330
1D7
100
AcDbEntity
  8
0
 62
     3
100
AcDbMText
 10
8569.446180948423
 20
-2325.366404213608
 30
0.0
 40
3.0
 41
0.0
 71
     5
 72
     1
  1
\A1;{\f??|b0|i0|c0|p49;L}
1001
ACAD
1000
MTEXTBEGIN
1070
    73
1070
     1
1070
    44
1040
1.0
1070
    74
1070
     0
1000
MTEXTEND
  0
POINT
  5
1DE
330
1D7
100
AcDbEntity
  8
DEFPOINTS
 62
     0
100
AcDbPoint
 10
8549.446180948423
 20
-2351.152340034205
 30
0.0
  0
POINT
  5
1DF
330
1D7
100
AcDbEntity
  8
DEFPOINTS
 62
     0
100
AcDbPoint
 10
8591.446180948423
 20
-2350.652340034204
 30
0.0
  0
POINT
  5
1E0
330
1D7
100
AcDbEntity
  8
DEFPOINTS
 62
     0
100
AcDbPoint
 10
8591.446180948423
 20
-2327.866404213608
 30
0.0
  0
ENDBLK
  5
1E2
330
1D7
100
AcDbEntity
  8
0
100
AcDbBlockEnd
  0
BLOCK
  5
147
330
13B
100
AcDbEntity
  8
0
100
AcDbBlockBegin
  2
*D29
 70
     1
 10
0.0
 20
0.0
 30
0.0
  3
*D29
  1

  0
LINE
  5
13C
330
13B
100
AcDbEntity
  8
0
 62
   123
100
AcDbLine
 10
8549.446180948423
 20
-2350.152340034204
 30
0.0
 11
8549.446180948423
 21
-2338.790309406177
 31
0.0
  0
LINE
  5
13D
330
13B
100
AcDbEntity
  8
0
 62
   123
100
AcDbLine
 10
8546.446180948423
 20
-2355.152340034203
 30
0.0
 11
8546.446180948423
 21
-2338.790309406177
 31
0.0
  0
LINE
  5
13E
330
13B
100
AcDbEntity
  8
0
 62
   123
100
AcDbLine
 10
8551.946180948425
 20
-2339.390309406176
 30
0.0
 11
8554.446180948422
 21
-2339.390309406176
 31
0.0
  0
LINE
  5
13F
330
13B
100
AcDbEntity
  8
0
 62
   123
100
AcDbLine
 10
8543.946180948424
 20
-2339.390309406176
 30
0.0
 11
8541.446180948424
 21
-2339.390309406176
 31
0.0
  0
LINE
  5
140
330
13B
100
AcDbEntity
  8
0
 62
   123
100
AcDbLine
 10
8549.446180948423
 20
-2339.390309406176
 30
0.0
 11
8546.446180948423
 21
-2339.390309406176
 31
0.0
  0
SOLID
  5
141
330
13B
100
AcDbEntity
  8
0
 62
   123
100
AcDbTrace
 10
8551.946180948425
 20
-2338.97364273951
 30
0.0
 11
8551.946180948425
 21
-2339.806976072843
 31
0.0
 12
8549.446180948423
 22
-2339.390309406176
 32
0.0
 13
8549.446180948423
 23
-2339.390309406176
 33
0.0
  0
SOLID
  5
142
330
13B
100
AcDbEntity
  8
0
 62
   123
100
AcDbTrace
 10
8543.946180948424
 20
-2338.97364273951
 30
0.0
 11
8543.946180948424
 21
-2339.806976072843
 31
0.0
 12
8546.446180948423
 22
-2339.390309406176
 32
0.0
 13
8546.446180948423
 23
-2339.390309406176
 33
0.0
  0
MTEXT
  5
143
330
13B
100
AcDbEntity
  8
0
 62
     3
100
AcDbMText
 10
8547.946180948423
 20
-2336.890309406177
 30
0.0
 40
3.0
 41
0.0
 71
     5
 72
     1
  1
\A1;3
1001
ACAD
1000
MTEXTBEGIN
1070
    73
1070
     1
1070
    44
1040
1.0
1070
    74
1070
     0
1000
MTEXTEND
  0
POINT
  5
144
330
13B
100
AcDbEntity
  8
DEFPOINTS
 62
     0
100
AcDbPoint
 10
8549.446180948423
 20
-2351.152340034203
 30
0.0
  0
POINT
  5
145
330
13B
100
AcDbEntity
  8
DEFPOINTS
 62
     0
100
AcDbPoint
 10
8546.446180948423
 20
-2356.152340034204
 30
0.0
  0
POINT
  5
146
330
13B
100
AcDbEntity
  8
DEFPOINTS
 62
     0
100
AcDbPoint
 10
8546.446180948423
 20
-2339.390309406176
 30
0.0
  0
ENDBLK
  5
148
330
13B
100
AcDbEntity
  8
0
100
AcDbBlockEnd
  0
BLOCK
  5
15B
330
14F
100
AcDbEntity
  8
0
100
AcDbBlockBegin
  2
*D30
 70
     1
 10
0.0
 20
0.0
 30
0.0
  3
*D30
  1

  0
LINE
  5
150
330
14F
100
AcDbEntity
  8
0
 62
   123
100
AcDbLine
 10
8516.446180948424
 20
-2375.652340034204
 30
0.0
 11
8502.021517659448
 21
-2375.652340034204
 31
0.0
  0
LINE
  5
151
330
14F
100
AcDbEntity
  8
0
 62
   123
100
AcDbLine
 10
8516.446180948424
 20
-2365.652340034203
 30
0.0
 11
8502.021517659448
 21
-2365.652340034203
 31
0.0
  0
LINE
  5
152
330
14F
100
AcDbEntity
  8
0
 62
   123
100
AcDbLine
 10
8502.621517659449
 20
-2378.152340034203
 30
0.0
 11
8502.621517659449
 21
-2380.652340034204
 31
0.0
  0
LINE
  5
153
330
14F
100
AcDbEntity
  8
0
 62
   123
100
AcDbLine
 10
8502.621517659449
 20
-2363.152340034204
 30
0.0
 11
8502.621517659449
 21
-2324.824297521037
 31
0.0
  0
LINE
  5
154
330
14F
100
AcDbEntity
  8
0
 62
   123
100
AcDbLine
 10
8502.621517659449
 20
-2375.652340034204
 30
0.0
 11
8502.621517659449
 21
-2365.652340034203
 31
0.0
  0
SOLID
  5
155
330
14F
100
AcDbEntity
  8
0
 62
   123
100
AcDbTrace
 10
8502.204850992782
 20
-2378.152340034203
 30
0.0
 11
8503.038184326115
 21
-2378.152340034203
 31
0.0
 12
8502.621517659449
 22
-2375.652340034204
 32
0.0
 13
8502.621517659449
 23
-2375.652340034204
 33
0.0
  0
SOLID
  5
156
330
14F
100
AcDbEntity
  8
0
 62
   123
100
AcDbTrace
 10
8502.204850992782
 20
-2363.152340034204
 30
0.0
 11
8503.038184326115
 21
-2363.152340034204
 31
0.0
 12
8502.621517659449
 22
-2365.652340034203
 32
0.0
 13
8502.621517659449
 23
-2365.652340034203
 33
0.0
  0
MTEXT
  5
157
330
14F
100
AcDbEntity
  8
0
 62
     3
100
AcDbMText
 10
8498.671367659445
 20
-2339.639868949606
 30
0.0
 40
3.0
 41
0.0
 71
     5
 72
     1
  1
\A1;\A1;{\f??|b0|i0|c0|p49;%%C10\H0.7x;\S+0^ -0.015;\H1.429x;(h7)}
 11
0.0000000000000001
 21
1.0
 31
0.0
1001
ACAD
1000
MTEXTBEGIN
1070
    73
1070
     1
1070
    44
1040
1.0
1070
    74
1070
     0
1000
MTEXTEND
  0
POINT
  5
158
330
14F
100
AcDbEntity
  8
DEFPOINTS
 62
     0
100
AcDbPoint
 10
8517.446180948423
 20
-2375.652340034204
 30
0.0
  0
POINT
  5
159
330
14F
100
AcDbEntity
  8
DEFPOINTS
 62
     0
100
AcDbPoint
 10
8517.446180948423
 20
-2365.652340034203
 30
0.0
  0
POINT
  5
15A
330
14F
100
AcDbEntity
  8
DEFPOINTS
 62
     0
100
AcDbPoint
 10
8502.621517659449
 20
-2365.652340034203
 30
0.0
  0
ENDBLK
  5
15C
330
14F
100
AcDbEntity
  8
0
100
AcDbBlockEnd
  0
BLOCK
  5
197
330
18D
100
AcDbEntity
  8
0
100
AcDbBlockBegin
  2
*D31
 70
     1
 10
0.0
 20
0.0
 30
0.0
  3
*D31
  1

  0
LINE
  5
18E
330
18D
100
AcDbEntity
  8
0
 62
   123
100
AcDbLine
 10
8512.548042147193
 20
-2370.652340034204
 30
0.0
 11
8495.403199330551
 21
-2370.652340034204
 31
0.0
  0
LINE
  5
18F
330
18D
100
AcDbEntity
  8
0
 62
   123
100
AcDbLine
 10
8533.086462703122
 20
-2385.652340034205
 30
0.0
 11
8495.403199330551
 21
-2385.652340034205
 31
0.0
  0
LINE
  5
190
330
18D
100
AcDbEntity
  8
0
 62
   123
100
AcDbLine
 10
8496.003199330553
 20
-2373.152340034204
 30
0.0
 11
8496.003199330553
 21
-2383.152340034205
 31
0.0
  0
SOLID
  5
191
330
18D
100
AcDbEntity
  8
0
 62
   123
100
AcDbTrace
 10
8495.586532663887
 20
-2373.152340034204
 30
0.0
 11
8496.419865997221
 21
-2373.152340034204
 31
0.0
 12
8496.003199330553
 22
-2370.652340034204
 32
0.0
 13
8496.003199330553
 23
-2370.652340034204
 33
0.0
  0
SOLID
  5
192
330
18D
100
AcDbEntity
  8
0
 62
   123
100
AcDbTrace
 10
8495.586532663887
 20
-2383.152340034205
 30
0.0
 11
8496.419865997221
 21
-2383.152340034205
 31
0.0
 12
8496.003199330553
 22
-2385.652340034205
 32
0.0
 13
8496.003199330553
 23
-2385.652340034205
 33
0.0
  0
MTEXT
  5
193
330
18D
100
AcDbEntity
  8
0
 62
     3
100
AcDbMText
 10
8493.503199330552
 20
-2378.152340034203
 30
0.0
 40
3.0
 41
0.0
 71
     5
 72
     1
  1
\A1;15
 11
0.0000000000000001
 21
1.0
 31
0.0
1001
ACAD
1000
MTEXTBEGIN
1070
    73
1070
     1
1070
    44
1040
1.0
1070
    74
1070
     0
1000
MTEXTEND
  0
POINT
  5
194
330
18D
100
AcDbEntity
  8
DEFPOINTS
 62
     0
100
AcDbPoint
 10
8513.548042147197
 20
-2370.652340034204
 30
0.0
  0
POINT
  5
195
330
18D
100
AcDbEntity
  8
DEFPOINTS
 62
     0
100
AcDbPoint
 10
8534.086462703122
 20
-2385.652340034205
 30
0.0
  0
POINT
  5
196
330
18D
100
AcDbEntity
  8
DEFPOINTS
 62
     0
100
AcDbPoint
 10
8496.003199330553
 20
-2385.652340034205
 30
0.0
  0
ENDBLK
  5
198
330
18D
100
AcDbEntity
  8
0
100
AcDbBlockEnd
  0
BLOCK
  5
394
330
388
100
AcDbEntity
  8
0
100
AcDbBlockBegin
  2
*D32
 70
     1
 10
0.0
 20
0.0
 30
0.0
  3
*D32
  1

  0
LINE
  5
389
330
388
100
AcDbEntity
  8
0
 62
   123
100
AcDbLine
 10
133.8582238318686
 20
200.6252595580672
 30
0.0
 11
148.9555563260488
 21
200.6252595580672
 31
0.0
  0
LINE
  5
38A
330
388
100
AcDbEntity
  8
0
 62
   123
100
AcDbLine
 10
131.8582238318649
 20
203.1252595580663
 30
0.0
 11
148.9555563260488
 21
203.1252595580663
 31
0.0
  0
LINE
  5
38B
330
388
100
AcDbEntity
  8
0
 62
   123
100
AcDbLine
 10
148.3555563260488
 20
198.1252595580672
 30
0.0
 11
148.3555563260488
 21
195.6252595580672
 31
0.0
  0
LINE
  5
38C
330
388
100
AcDbEntity
  8
0
 62
   123
100
AcDbLine
 10
148.3555563260488
 20
205.6252595580663
 30
0.0
 11
148.3555563260488
 21
227.039545272353
 31
0.0
  0
LINE
  5
38D
330
388
100
AcDbEntity
  8
0
 62
   123
100
AcDbLine
 10
148.3555563260488
 20
200.6252595580672
 30
0.0
 11
148.3555563260488
 21
203.1252595580663
 31
0.0
  0
SOLID
  5
38E
330
388
100
AcDbEntity
  8
0
 62
   123
100
AcDbTrace
 10
147.9388896593822
 20
198.1252595580672
 30
0.0
 11
148.7722229927155
 21
198.1252595580672
 31
0.0
 12
148.3555563260488
 22
200.6252595580672
 32
0.0
 13
148.3555563260488
 23
200.6252595580672
 33
0.0
  0
SOLID
  5
38F
330
388
100
AcDbEntity
  8
0
 62
   123
100
AcDbTrace
 10
147.9388896593822
 20
205.6252595580663
 30
0.0
 11
148.7722229927155
 21
205.6252595580663
 31
0.0
 12
148.3555563260488
 22
203.1252595580663
 32
0.0
 13
148.3555563260488
 23
203.1252595580663
 33
0.0
  0
MTEXT
  5
390
330
388
100
AcDbEntity
  8
0
 62
     3
100
AcDbMText
 10
144.9055563260488
 20
219.3324024152102
 30
0.0
 40
3.0
 41
0.0
 71
     5
 72
     1
  1
\A1;\A1;2.5{\f??|b0|i0|c0|p49;\H0.7x;\S+0.1^ -0;\H1.429x; }
 11
0.0000000000000001
 21
1.0
 31
0.0
1001
ACAD
1000
MTEXTBEGIN
1070
    73
1070
     1
1070
    44
1040
1.0
1070
    74
1070
     0
1000
MTEXTEND
  0
POINT
  5
391
330
388
100
AcDbEntity
  8
DEFPOINTS
 62
     0
100
AcDbPoint
 10
132.8582238318686
 20
200.6252595580672
 30
0.0
  0
POINT
  5
392
330
388
100
AcDbEntity
  8
DEFPOINTS
 62
     0
100
AcDbPoint
 10
130.8582238318649
 20
203.1252595580663
 30
0.0
  0
POINT
  5
393
330
388
100
AcDbEntity
  8
DEFPOINTS
 62
     0
100
AcDbPoint
 10
148.3555563260488
 20
203.1252595580663
 30
0.0
  0
ENDBLK
  5
395
330
388
100
AcDbEntity
  8
0
100
AcDbBlockEnd
  0
BLOCK
  5
3A2
330
396
100
AcDbEntity
  8
0
100
AcDbBlockBegin
  2
*D33
 70
     1
 10
0.0
 20
0.0
 30
0.0
  3
*D33
  1

  0
LINE
  5
397
330
396
100
AcDbEntity
  8
0
 62
   123
100
AcDbLine
 10
67.75419080460778
 20
197.7255548450634
 30
0.0
 11
75.52324596007167
 21
197.7255548450634
 31
0.0
  0
LINE
  5
398
330
396
100
AcDbEntity
  8
0
 62
   123
100
AcDbLine
 10
67.75419080460778
 20
201.7255548450634
 30
0.0
 11
75.52324596007167
 21
201.7255548450634
 31
0.0
  0
LINE
  5
399
330
396
100
AcDbEntity
  8
0
 62
   123
100
AcDbLine
 10
74.92324596007168
 20
195.2255548450634
 30
0.0
 11
74.92324596007168
 21
192.7255548450634
 31
0.0
  0
LINE
  5
39A
330
396
100
AcDbEntity
  8
0
 62
   123
100
AcDbLine
 10
74.92324596007168
 20
204.2255548450634
 30
0.0
 11
74.92324596007168
 21
223.2893023534396
 31
0.0
  0
LINE
  5
39B
330
396
100
AcDbEntity
  8
0
 62
   123
100
AcDbLine
 10
74.92324596007168
 20
197.7255548450634
 30
0.0
 11
74.92324596007168
 21
201.7255548450634
 31
0.0
  0
SOLID
  5
39C
330
396
100
AcDbEntity
  8
0
 62
   123
100
AcDbTrace
 10
74.50657929340501
 20
195.2255548450634
 30
0.0
 11
75.33991262673835
 21
195.2255548450634
 31
0.0
 12
74.92324596007168
 22
197.7255548450634
 32
0.0
 13
74.92324596007168
 23
197.7255548450634
 33
0.0
  0
SOLID
  5
39D
330
396
100
AcDbEntity
  8
0
 62
   123
100
AcDbTrace
 10
74.50657929340501
 20
204.2255548450634
 30
0.0
 11
75.33991262673835
 21
204.2255548450634
 31
0.0
 12
74.92324596007168
 22
201.7255548450634
 32
0.0
 13
74.92324596007168
 23
201.7255548450634
 33
0.0
  0
MTEXT
  5
39E
330
396
100
AcDbEntity
  8
0
 62
     3
100
AcDbMText
 10
71.47324596007165
 20
216.575016639154
 30
0.0
 40
3.0
 41
0.0
 71
     5
 72
     1
  1
\A1;\A1;4{\f??|b0|i0|c0|p49;\H0.7x;\S+0^ -0.03;}
 11
0.0000000000000001
 21
1.0
 31
0.0
1001
ACAD
1000
MTEXTBEGIN
1070
    73
1070
     1
1070
    44
1040
1.0
1070
    74
1070
     0
1000
MTEXTEND
  0
POINT
  5
39F
330
396
100
AcDbEntity
  8
DEFPOINTS
 62
     0
100
AcDbPoint
 10
66.75419080460779
 20
197.7255548450634
 30
0.0
  0
POINT
  5
3A0
330
396
100
AcDbEntity
  8
DEFPOINTS
 62
     0
100
AcDbPoint
 10
66.75419080460779
 20
201.7255548450634
 30
0.0
  0
POINT
  5
3A1
330
396
100
AcDbEntity
  8
DEFPOINTS
 62
     0
100
AcDbPoint
 10
74.92324596007168
 20
201.7255548450634
 30
0.0
  0
ENDBLK
  5
3A3
330
396
100
AcDbEntity
  8
0
100
AcDbBlockEnd
  0
BLOCK
  5
3AE
330
3A4
100
AcDbEntity
  8
0
100
AcDbBlockBegin
  2
*D34
 70
     1
 10
0.0
 20
0.0
 30
0.0
  3
*D34
  1

  0
LINE
  5
3A5
330
3A4
100
AcDbEntity
  8
0
 62
   123
100
AcDbLine
 10
190.1841897136801
 20
142.1050515084653
 30
0.0
 11
190.1841897136801
 21
164.4909873290604
 31
0.0
  0
LINE
  5
3A6
330
3A4
100
AcDbEntity
  8
0
 62
   123
100
AcDbLine
 10
310.1841897136801
 20
137.6050515084652
 30
0.0
 11
310.1841897136801
 21
164.4909873290604
 31
0.0
  0
LINE
  5
3A7
330
3A4
100
AcDbEntity
  8
0
 62
   123
100
AcDbLine
 10
192.6841897136801
 20
163.8909873290604
 30
0.0
 11
307.6841897136801
 21
163.8909873290604
 31
0.0
  0
SOLID
  5
3A8
330
3A4
100
AcDbEntity
  8
0
 62
   123
100
AcDbTrace
 10
192.6841897136801
 20
164.307653995727
 30
0.0
 11
192.6841897136801
 21
163.4743206623937
 31
0.0
 12
190.1841897136801
 22
163.8909873290604
 32
0.0
 13
190.1841897136801
 23
163.8909873290604
 33
0.0
  0
SOLID
  5
3A9
330
3A4
100
AcDbEntity
  8
0
 62
   123
100
AcDbTrace
 10
307.6841897136801
 20
164.307653995727
 30
0.0
 11
307.6841897136801
 21
163.4743206623937
 31
0.0
 12
310.1841897136801
 22
163.8909873290604
 32
0.0
 13
310.1841897136801
 23
163.8909873290604
 33
0.0
  0
MTEXT
  5
3AA
330
3A4
100
AcDbEntity
  8
0
 62
     3
100
AcDbMText
 10
250.1841897136801
 20
166.3909873290604
 30
0.0
 40
3.0
 41
0.0
 71
     5
 72
     1
  1
\A1;120
1001
ACAD
1000
MTEXTBEGIN
1070
    73
1070
     1
1070
    44
1040
1.0
1070
    74
1070
     0
1000
MTEXTEND
  0
POINT
  5
3AB
330
3A4
100
AcDbEntity
  8
DEFPOINTS
 62
     0
100
AcDbPoint
 10
190.1841897136801
 20
141.1050515084653
 30
0.0
  0
POINT
  5
3AC
330
3A4
100
AcDbEntity
  8
DEFPOINTS
 62
     0
100
AcDbPoint
 10
310.1841897136801
 20
136.6050515084652
 30
0.0
  0
POINT
  5
3AD
330
3A4
100
AcDbEntity
  8
DEFPOINTS
 62
     0
100
AcDbPoint
 10
310.1841897136801
 20
163.8909873290604
 30
0.0
  0
ENDBLK
  5
3AF
330
3A4
100
AcDbEntity
  8
0
100
AcDbBlockEnd
  0
BLOCK
  5
3BC
330
3B0
100
AcDbEntity
  8
0
100
AcDbBlockBegin
  2
*D35
 70
     1
 10
0.0
 20
0.0
 30
0.0
  3
*D35
  1

  0
LINE
  5
3B1
330
3B0
100
AcDbEntity
  8
0
 62
   123
100
AcDbLine
 10
83.92484409132157
 20
202.7255548450634
 30
0.0
 11
83.92484409132157
 21
211.0000305036952
 31
0.0
  0
LINE
  5
3B2
330
3B0
100
AcDbEntity
  8
0
 62
   123
100
AcDbLine
 10
87.92484409132157
 20
202.7255548450634
 30
0.0
 11
87.92484409132157
 21
211.0000305036952
 31
0.0
  0
LINE
  5
3B3
330
3B0
100
AcDbEntity
  8
0
 62
   123
100
AcDbLine
 10
81.42484409132157
 20
210.4000305036952
 30
0.0
 11
78.92484409132157
 21
210.4000305036952
 31
0.0
  0
LINE
  5
3B4
330
3B0
100
AcDbEntity
  8
0
 62
   123
100
AcDbLine
 10
90.42484409132157
 20
210.4000305036952
 30
0.0
 11
92.92484409132157
 21
210.4000305036952
 31
0.0
  0
LINE
  5
3B5
330
3B0
100
AcDbEntity
  8
0
 62
   123
100
AcDbLine
 10
83.92484409132157
 20
210.4000305036952
 30
0.0
 11
87.92484409132157
 21
210.4000305036952
 31
0.0
  0
SOLID
  5
3B6
330
3B0
100
AcDbEntity
  8
0
 62
   123
100
AcDbTrace
 10
81.42484409132157
 20
210.8166971703619
 30
0.0
 11
81.42484409132157
 21
209.9833638370285
 31
0.0
 12
83.92484409132157
 22
210.4000305036952
 32
0.0
 13
83.92484409132157
 23
210.4000305036952
 33
0.0
  0
SOLID
  5
3B7
330
3B0
100
AcDbEntity
  8
0
 62
   123
100
AcDbTrace
 10
90.42484409132157
 20
210.8166971703619
 30
0.0
 11
90.42484409132157
 21
209.9833638370285
 31
0.0
 12
87.92484409132157
 22
210.4000305036952
 32
0.0
 13
87.92484409132157
 23
210.4000305036952
 33
0.0
  0
MTEXT
  5
3B8
330
3B0
100
AcDbEntity
  8
0
 62
     3
100
AcDbMText
 10
85.92484409132158
 20
213.8500305036952
 30
0.0
 40
3.0
 41
0.0
 71
     5
 72
     1
  1
\A1;\A1;4{\f??|b0|i0|c0|p49;\H0.7x;\S+0^ -0.03;}
1001
ACAD
1000
MTEXTBEGIN
1070
    73
1070
     1
1070
    44
1040
1.0
1070
    74
1070
     0
1000
MTEXTEND
  0
POINT
  5
3B9
330
3B0
100
AcDbEntity
  8
DEFPOINTS
 62
     0
100
AcDbPoint
 10
83.92484409132157
 20
201.7255548450634
 30
0.0
  0
POINT
  5
3BA
330
3B0
100
AcDbEntity
  8
DEFPOINTS
 62
     0
100
AcDbPoint
 10
87.92484409132157
 20
201.7255548450634
 30
0.0
  0
POINT
  5
3BB
330
3B0
100
AcDbEntity
  8
DEFPOINTS
 62
     0
100
AcDbPoint
 10
87.92484409132157
 20
210.4000305036952
 30
0.0
  0
ENDBLK
  5
3BD
330
3B0
100
AcDbEntity
  8
0
100
AcDbBlockEnd
  0
BLOCK
  5
3C8
330
3BE
100
AcDbEntity
  8
0
100
AcDbBlockBegin
  2
*D36
 70
     1
 10
0.0
 20
0.0
 30
0.0
  3
*D36
  1

  0
LINE
  5
3BF
330
3BE
100
AcDbEntity
  8
0
 62
   123
100
AcDbLine
 10
41.75419080460779
 20
200.7255548450634
 30
0.0
 11
41.75419080460779
 21
210.1307488255389
 31
0.0
  0
LINE
  5
3C0
330
3BE
100
AcDbEntity
  8
0
 62
   123
100
AcDbLine
 10
66.75419080460779
 20
202.7255548450634
 30
0.0
 11
66.75419080460779
 21
210.1307488255389
 31
0.0
  0
LINE
  5
3C1
330
3BE
100
AcDbEntity
  8
0
 62
   123
100
AcDbLine
 10
44.25419080460779
 20
209.5307488255389
 30
0.0
 11
64.25419080460779
 21
209.5307488255389
 31
0.0
  0
SOLID
  5
3C2
330
3BE
100
AcDbEntity
  8
0
 62
   123
100
AcDbTrace
 10
44.25419080460779
 20
209.9474154922055
 30
0.0
 11
44.25419080460779
 21
209.1140821588722
 31
0.0
 12
41.75419080460779
 22
209.5307488255389
 32
0.0
 13
41.75419080460779
 23
209.5307488255389
 33
0.0
  0
SOLID
  5
3C3
330
3BE
100
AcDbEntity
  8
0
 62
   123
100
AcDbTrace
 10
64.25419080460779
 20
209.9474154922055
 30
0.0
 11
64.25419080460779
 21
209.1140821588722
 31
0.0
 12
66.75419080460779
 22
209.5307488255389
 32
0.0
 13
66.75419080460779
 23
209.5307488255389
 33
0.0
  0
MTEXT
  5
3C4
330
3BE
100
AcDbEntity
  8
0
 62
     3
100
AcDbMText
 10
54.25419080460779
 20
212.0307488255389
 30
0.0
 40
3.0
 41
0.0
 71
     5
 72
     1
  1
\A1;25{\f??|b0|i0|c0|p49;%%p0.2}
1001
ACAD
1000
MTEXTBEGIN
1070
    73
1070
     1
1070
    44
1040
1.0
1070
    74
1070
     0
1000
MTEXTEND
  0
POINT
  5
3C5
330
3BE
100
AcDbEntity
  8
DEFPOINTS
 62
     0
100
AcDbPoint
 10
41.75419080460779
 20
199.7255548450634
 30
0.0
  0
POINT
  5
3C6
330
3BE
100
AcDbEntity
  8
DEFPOINTS
 62
     0
100
AcDbPoint
 10
66.75419080460779
 20
201.7255548450634
 30
0.0
  0
POINT
  5
3C7
330
3BE
100
AcDbEntity
  8
DEFPOINTS
 62
     0
100
AcDbPoint
 10
66.75419080460779
 20
209.5307488255389
 30
0.0
  0
ENDBLK
  5
3C9
330
3BE
100
AcDbEntity
  8
0
100
AcDbBlockEnd
  0
BLOCK
  5
3D6
330
3CA
100
AcDbEntity
  8
0
100
AcDbBlockBegin
  2
*D37
 70
     1
 10
0.0
 20
0.0
 30
0.0
  3
*D37
  1

  0
LINE
  5
3CB
330
3CA
100
AcDbEntity
  8
0
 62
   123
100
AcDbLine
 10
128.8582238318649
 20
203.7078352530225
 30
0.0
 11
128.8582238318649
 21
212.066847797998
 31
0.0
  0
LINE
  5
3CC
330
3CA
100
AcDbEntity
  8
0
 62
   123
100
AcDbLine
 10
132.8582238318686
 20
203.7078352530225
 30
0.0
 11
132.8582238318686
 21
212.066847797998
 31
0.0
  0
LINE
  5
3CD
330
3CA
100
AcDbEntity
  8
0
 62
   123
100
AcDbLine
 10
126.3582238318649
 20
211.466847797998
 30
0.0
 11
123.8582238318649
 21
211.466847797998
 31
0.0
  0
LINE
  5
3CE
330
3CA
100
AcDbEntity
  8
0
 62
   123
100
AcDbLine
 10
135.3582238318685
 20
211.466847797998
 30
0.0
 11
137.8582238318686
 21
211.466847797998
 31
0.0
  0
LINE
  5
3CF
330
3CA
100
AcDbEntity
  8
0
 62
   123
100
AcDbLine
 10
128.8582238318649
 20
211.466847797998
 30
0.0
 11
132.8582238318686
 21
211.466847797998
 31
0.0
  0
SOLID
  5
3D0
330
3CA
100
AcDbEntity
  8
0
 62
   123
100
AcDbTrace
 10
126.3582238318649
 20
211.8835144646647
 30
0.0
 11
126.3582238318649
 21
211.0501811313314
 31
0.0
 12
128.8582238318649
 22
211.466847797998
 32
0.0
 13
128.8582238318649
 23
211.466847797998
 33
0.0
  0
SOLID
  5
3D1
330
3CA
100
AcDbEntity
  8
0
 62
   123
100
AcDbTrace
 10
135.3582238318685
 20
211.8835144646647
 30
0.0
 11
135.3582238318685
 21
211.0501811313314
 31
0.0
 12
132.8582238318686
 22
211.466847797998
 32
0.0
 13
132.8582238318686
 23
211.466847797998
 33
0.0
  0
MTEXT
  5
3D2
330
3CA
100
AcDbEntity
  8
0
 62
     3
100
AcDbMText
 10
130.8582238318667
 20
214.916847797998
 30
0.0
 40
3.0
 41
0.0
 71
     5
 72
     1
  1
\A1;\A1;4{\f??|b0|i0|c0|p49;\H0.7x;\S+0.40^ -0;}
1001
ACAD
1000
MTEXTBEGIN
1070
    73
1070
     1
1070
    44
1040
1.0
1070
    74
1070
     0
1000
MTEXTEND
  0
POINT
  5
3D3
330
3CA
100
AcDbEntity
  8
DEFPOINTS
 62
     0
100
AcDbPoint
 10
128.8582238318649
 20
202.7078352530224
 30
0.0
  0
POINT
  5
3D4
330
3CA
100
AcDbEntity
  8
DEFPOINTS
 62
     0
100
AcDbPoint
 10
132.8582238318686
 20
202.7078352530224
 30
0.0
  0
POINT
  5
3D5
330
3CA
100
AcDbEntity
  8
DEFPOINTS
 62
     0
100
AcDbPoint
 10
132.8582238318686
 20
211.466847797998
 30
0.0
  0
ENDBLK
  5
3D7
330
3CA
100
AcDbEntity
  8
0
100
AcDbBlockEnd
  0
BLOCK
  5
3E2
330
3D8
100
AcDbEntity
  8
0
100
AcDbBlockBegin
  2
*D38
 70
     1
 10
0.0
 20
0.0
 30
0.0
  3
*D38
  1

  0
LINE
  5
504
330
3D8
100
AcDbEntity
  8
0
 62
   123
100
AcDbLine
 10
148.1841897136801
 20
141.6050515084643
 30
0.0
 11
148.1841897136801
 21
164.4909873290622
 31
0.0
  0
LINE
  5
505
330
3D8
100
AcDbEntity
  8
0
 62
   123
100
AcDbLine
 10
190.1841897136801
 20
142.1050515084653
 30
0.0
 11
190.1841897136801
 21
164.4909873290622
 31
0.0
  0
LINE
  5
506
330
3D8
100
AcDbEntity
  8
0
 62
   123
100
AcDbLine
 10
150.68418971368
 20
163.8909873290622
 30
0.0
 11
187.6841897136801
 21
163.8909873290622
 31
0.0
  0
SOLID
  5
507
330
3D8
100
AcDbEntity
  8
0
 62
   123
100
AcDbTrace
 10
150.68418971368
 20
164.3076539957288
 30
0.0
 11
150.68418971368
 21
163.4743206623955
 31
0.0
 12
148.1841897136801
 22
163.8909873290622
 32
0.0
 13
148.1841897136801
 23
163.8909873290622
 33
0.0
  0
SOLID
  5
508
330
3D8
100
AcDbEntity
  8
0
 62
   123
100
AcDbTrace
 10
187.6841897136801
 20
164.3076539957288
 30
0.0
 11
187.6841897136801
 21
163.4743206623955
 31
0.0
 12
190.1841897136801
 22
163.8909873290622
 32
0.0
 13
190.1841897136801
 23
163.8909873290622
 33
0.0
  0
MTEXT
  5
509
330
3D8
100
AcDbEntity
  8
0
 62
     3
100
AcDbMText
 10
168.18418971368
 20
166.3909873290622
 30
0.0
 40
3.0
 41
0.0
 71
     5
 72
     1
  1
\A1;{\f??|b0|i0|c0|p49;L}
1001
ACAD
1000
MTEXTBEGIN
1070
    73
1070
     1
1070
    44
1040
1.0
1070
    74
1070
     0
1000
MTEXTEND
  0
POINT
  5
50A
330
3D8
100
AcDbEntity
  8
DEFPOINTS
 62
     0
100
AcDbPoint
 10
148.1841897136801
 20
140.6050515084643
 30
0.0
  0
POINT
  5
50B
330
3D8
100
AcDbEntity
  8
DEFPOINTS
 62
     0
100
AcDbPoint
 10
190.1841897136801
 20
141.1050515084653
 30
0.0
  0
POINT
  5
50C
330
3D8
100
AcDbEntity
  8
DEFPOINTS
 62
     0
100
AcDbPoint
 10
190.1841897136801
 20
163.8909873290622
 30
0.0
  0
ENDBLK
  5
3E3
330
3D8
100
AcDbEntity
  8
0
100
AcDbBlockEnd
  0
BLOCK
  5
3EE
330
3E4
100
AcDbEntity
  8
0
100
AcDbBlockBegin
  2
*D39
 70
     1
 10
0.0
 20
0.0
 30
0.0
  3
*D39
  1

  0
LINE
  5
3E5
330
3E4
100
AcDbEntity
  8
0
 62
   123
100
AcDbLine
 10
190.1841897136801
 20
152.1292940350008
 30
0.0
 11
190.1841897136801
 21
151.6306575267421
 31
0.0
  0
LINE
  5
3E6
330
3E4
100
AcDbEntity
  8
0
 62
   123
100
AcDbLine
 10
197.1841897136819
 20
140.7037888499944
 30
0.0
 11
197.1841897136819
 21
152.830657526742
 31
0.0
  0
LINE
  5
3E7
330
3E4
100
AcDbEntity
  8
0
 62
   123
100
AcDbLine
 10
192.6841897136801
 20
152.2306575267421
 30
0.0
 11
194.6841897136819
 21
152.2306575267421
 31
0.0
  0
SOLID
  5
3E8
330
3E4
100
AcDbEntity
  8
0
 62
   123
100
AcDbTrace
 10
192.6841897136801
 20
152.6473241934087
 30
0.0
 11
192.6841897136801
 21
151.8139908600754
 31
0.0
 12
190.1841897136801
 22
152.2306575267421
 32
0.0
 13
190.1841897136801
 23
152.2306575267421
 33
0.0
  0
SOLID
  5
3E9
330
3E4
100
AcDbEntity
  8
0
 62
   123
100
AcDbTrace
 10
194.6841897136819
 20
152.6473241934087
 30
0.0
 11
194.6841897136819
 21
151.8139908600754
 31
0.0
 12
197.1841897136819
 22
152.2306575267421
 32
0.0
 13
197.1841897136819
 23
152.2306575267421
 33
0.0
  0
MTEXT
  5
3EA
330
3E4
100
AcDbEntity
  8
0
 62
     3
100
AcDbMText
 10
193.9341897136819
 20
154.7306575267421
 30
0.0
 40
3.0
 41
0.0
 71
     5
 72
     1
  1
\A1;7
1001
ACAD
1000
MTEXTBEGIN
1070
    73
1070
     1
1070
    44
1040
1.0
1070
    74
1070
     0
1000
MTEXTEND
  0
POINT
  5
3EB
330
3E4
100
AcDbEntity
  8
DEFPOINTS
 62
     0
100
AcDbPoint
 10
190.1841897136801
 20
153.1292940350008
 30
0.0
  0
POINT
  5
3EC
330
3E4
100
AcDbEntity
  8
DEFPOINTS
 62
     0
100
AcDbPoint
 10
197.1841897136819
 20
139.7037888499944
 30
0.0
  0
POINT
  5
3ED
330
3E4
100
AcDbEntity
  8
DEFPOINTS
 62
     0
100
AcDbPoint
 10
197.1841897136819
 20
152.2306575267421
 30
0.0
  0
ENDBLK
  5
3EF
330
3E4
100
AcDbEntity
  8
0
100
AcDbBlockEnd
  0
BLOCK
  5
3FC
330
3F0
100
AcDbEntity
  8
0
100
AcDbBlockBegin
  2
*D40
 70
     1
 10
0.0
 20
0.0
 30
0.0
  3
*D40
  1

  0
LINE
  5
532
330
3F0
100
AcDbEntity
  8
0
 62
   123
100
AcDbLine
 10
30.82632414242469
 20
63.05733850426122
 30
0.0
 11
30.82632414242469
 21
45.83835212121516
 31
0.0
  0
LINE
  5
533
330
3F0
100
AcDbEntity
  8
0
 62
   123
100
AcDbLine
 10
45.70648225785279
 20
70.18117197595398
 30
0.0
 11
53.88939152125591
 21
50.4258814525743
 31
0.0
  0
ARC
  5
534
330
3F0
100
AcDbEntity
  8
0
 62
   123
100
AcDbCircle
 10
30.82632414242471
 20
106.1050515084828
 30
0.0
 40
59.66669938726769
100
AcDbArc
 50
272.4008354753679
 51
290.0991645246285
  0
SOLID
  5
535
330
3F0
100
AcDbEntity
  8
0
 62
   123
100
AcDbTrace
 10
33.33450451481516
 20
46.07415117301994
 30
0.0
 11
33.31704642383034
 21
46.9073016153193
 31
0.0
 12
30.82632414242469
 22
46.43835212121516
 32
0.0
 13
30.82632414242469
 23
46.43835212121516
 33
0.0
  0
SOLID
  5
536
330
3F0
100
AcDbEntity
  8
0
 62
   123
100
AcDbTrace
 10
51.17919492286671
 20
50.46030385974905
 30
0.0
 11
51.48189862086469
 21
49.68389229642532
 31
0.0
 12
53.6597814618369
 22
50.98020917208109
 32
0.0
 13
53.6597814618369
 23
50.98020917208109
 33
0.0
  0
MTEXT
  5
537
330
3F0
100
AcDbEntity
  8
0
 62
     3
100
AcDbMText
 10
41.92325384247962
 20
50.31701858604348
 30
0.0
 40
3.0
 41
0.0
 71
     5
 72
     1
  1
\A1;22°30'
 11
0.9807852804032364
 21
0.195090322016098
 31
0.0
  0
POINT
  5
538
330
3F0
100
AcDbEntity
  8
DEFPOINTS
 62
     0
100
AcDbPoint
 10
38.61439121578201
 20
46.94880900584026
 30
0.0
  0
POINT
  5
539
330
3F0
100
AcDbEntity
  8
DEFPOINTS
 62
     0
100
AcDbPoint
 10
30.8263241424247
 20
64.05733850426122
 30
0.0
  0
POINT
  5
53A
330
3F0
100
AcDbEntity
  8
DEFPOINTS
 62
     0
100
AcDbPoint
 10
30.82632414243198
 20
106.1050515084652
 30
0.0
  0
POINT
  5
53B
330
3F0
100
AcDbEntity
  8
DEFPOINTS
 62
     0
100
AcDbPoint
 10
45.32379882548775
 20
71.10505150846529
 30
0.0
  0
POINT
  5
53C
330
3F0
100
AcDbEntity
  8
DEFPOINTS
 62
     0
100
AcDbPoint
 10
30.8263241424247
 20
148.1527645126611
 30
0.0
  0
ENDBLK
  5
3FD
330
3F0
100
AcDbEntity
  8
0
100
AcDbBlockEnd
  0
BLOCK
  5
408
330
3FE
100
AcDbEntity
  8
0
100
AcDbBlockBegin
  2
*D41
 70
     1
 10
0.0
 20
0.0
 30
0.0
  3
*D41
  1

  0
LINE
  5
3FF
330
3FE
100
AcDbEntity
  8
0
 62
   123
100
AcDbLine
 10
111.286050912453
 20
121.1050515084652
 30
0.0
 11
94.14120809580927
 21
121.1050515084653
 31
0.0
  0
LINE
  5
400
330
3FE
100
AcDbEntity
  8
0
 62
   123
100
AcDbLine
 10
131.8244714683787
 20
106.1050515084643
 30
0.0
 11
94.14120809580927
 21
106.1050515084644
 31
0.0
  0
LINE
  5
401
330
3FE
100
AcDbEntity
  8
0
 62
   123
100
AcDbLine
 10
94.74120809580927
 20
118.6050515084653
 30
0.0
 11
94.74120809580927
 21
108.6050515084644
 31
0.0
  0
SOLID
  5
402
330
3FE
100
AcDbEntity
  8
0
 62
   123
100
AcDbTrace
 10
94.32454142914259
 20
118.6050515084653
 30
0.0
 11
95.15787476247593
 21
118.6050515084653
 31
0.0
 12
94.74120809580927
 22
121.1050515084653
 32
0.0
 13
94.74120809580927
 23
121.1050515084653
 33
0.0
  0
SOLID
  5
403
330
3FE
100
AcDbEntity
  8
0
 62
   123
100
AcDbTrace
 10
94.32454142914259
 20
108.6050515084644
 30
0.0
 11
95.15787476247593
 21
108.6050515084644
 31
0.0
 12
94.74120809580927
 22
106.1050515084644
 32
0.0
 13
94.74120809580927
 23
106.1050515084644
 33
0.0
  0
MTEXT
  5
404
330
3FE
100
AcDbEntity
  8
0
 62
     3
100
AcDbMText
 10
92.24120809580924
 20
113.6050515084648
 30
0.0
 40
3.0
 41
0.0
 71
     5
 72
     1
  1
\A1;15
 11
0.0000000000000001
 21
1.0
 31
0.0
1001
ACAD
1000
MTEXTBEGIN
1070
    73
1070
     1
1070
    44
1040
1.0
1070
    74
1070
     0
1000
MTEXTEND
  0
POINT
  5
405
330
3FE
100
AcDbEntity
  8
DEFPOINTS
 62
     0
100
AcDbPoint
 10
112.286050912453
 20
121.1050515084652
 30
0.0
  0
POINT
  5
406
330
3FE
100
AcDbEntity
  8
DEFPOINTS
 62
     0
100
AcDbPoint
 10
132.8244714683787
 20
106.1050515084643
 30
0.0
  0
POINT
  5
407
330
3FE
100
AcDbEntity
  8
DEFPOINTS
 62
     0
100
AcDbPoint
 10
94.74120809580927
 20
106.1050515084644
 30
0.0
  0
ENDBLK
  5
409
330
3FE
100
AcDbEntity
  8
0
100
AcDbBlockEnd
  0
BLOCK
  5
414
330
40A
100
AcDbEntity
  8
0
100
AcDbBlockBegin
  2
*D42
 70
     1
 10
0.0
 20
0.0
 30
0.0
  3
*D42
  1

  0
LINE
  5
40B
330
40A
100
AcDbEntity
  8
0
 62
   123
100
AcDbLine
 10
144.9341897136801
 20
136.1050515084653
 30
0.0
 11
86.57392230445694
 21
136.1050515084653
 31
0.0
  0
LINE
  5
40C
330
40A
100
AcDbEntity
  8
0
 62
   123
100
AcDbLine
 10
131.8244714683787
 20
106.1050515084643
 30
0.0
 11
86.57392230445694
 21
106.1050515084644
 31
0.0
  0
LINE
  5
40D
330
40A
100
AcDbEntity
  8
0
 62
   123
100
AcDbLine
 10
87.17392230445694
 20
133.6050515084652
 30
0.0
 11
87.17392230445694
 21
108.6050515084644
 31
0.0
  0
SOLID
  5
40E
330
40A
100
AcDbEntity
  8
0
 62
   123
100
AcDbTrace
 10
86.75725563779028
 20
133.6050515084652
 30
0.0
 11
87.59058897112362
 21
133.6050515084652
 31
0.0
 12
87.17392230445694
 22
136.1050515084653
 32
0.0
 13
87.17392230445694
 23
136.1050515084653
 33
0.0
  0
SOLID
  5
40F
330
40A
100
AcDbEntity
  8
0
 62
   123
100
AcDbTrace
 10
86.75725563779028
 20
108.6050515084644
 30
0.0
 11
87.59058897112362
 21
108.6050515084644
 31
0.0
 12
87.17392230445694
 22
106.1050515084644
 32
0.0
 13
87.17392230445694
 23
106.1050515084644
 33
0.0
  0
MTEXT
  5
410
330
40A
100
AcDbEntity
  8
0
 62
     3
100
AcDbMText
 10
84.67392230445694
 20
120.8550515084652
 30
0.0
 40
3.0
 41
0.0
 71
     5
 72
     1
  1
\A1;{\f??|b0|i0|c0|p49;%%c}30
 11
0.0000000000000001
 21
1.0
 31
0.0
1001
ACAD
1000
MTEXTBEGIN
1070
    73
1070
     1
1070
    44
1040
1.0
1070
    74
1070
     0
1000
MTEXTEND
  0
POINT
  5
411
330
40A
100
AcDbEntity
  8
DEFPOINTS
 62
     0
100
AcDbPoint
 10
145.9341897136801
 20
136.1050515084653
 30
0.0
  0
POINT
  5
412
330
40A
100
AcDbEntity
  8
DEFPOINTS
 62
     0
100
AcDbPoint
 10
132.8244714683787
 20
106.1050515084643
 30
0.0
  0
POINT
  5
413
330
40A
100
AcDbEntity
  8
DEFPOINTS
 62
     0
100
AcDbPoint
 10
87.17392230445694
 20
106.1050515084644
 30
0.0
  0
ENDBLK
  5
415
330
40A
100
AcDbEntity
  8
0
100
AcDbBlockEnd
  0
BLOCK
  5
420
330
416
100
AcDbEntity
  8
0
100
AcDbBlockBegin
  2
*D43
 70
     1
 10
0.0
 20
0.0
 30
0.0
  3
*D43
  1

  0
LINE
  5
417
330
416
100
AcDbEntity
  8
0
 62
   123
100
AcDbLine
 10
-4.173675857571652
 20
137.1050515084653
 30
0.0
 11
-4.173675857571651
 21
154.2728466343711
 31
0.0
  0
LINE
  5
418
330
416
100
AcDbEntity
  8
0
 62
   123
100
AcDbLine
 10
65.82632414242834
 20
137.1050515084653
 30
0.0
 11
65.82632414242834
 21
154.2728466343711
 31
0.0
  0
LINE
  5
419
330
416
100
AcDbEntity
  8
0
 62
   123
100
AcDbLine
 10
-1.673675857571651
 20
153.6728466343711
 30
0.0
 11
63.32632414242834
 21
153.6728466343711
 31
0.0
  0
SOLID
  5
41A
330
416
100
AcDbEntity
  8
0
 62
   123
100
AcDbTrace
 10
-1.673675857571651
 20
154.0895133010377
 30
0.0
 11
-1.673675857571651
 21
153.2561799677044
 31
0.0
 12
-4.173675857571651
 22
153.6728466343711
 32
0.0
 13
-4.173675857571651
 23
153.6728466343711
 33
0.0
  0
SOLID
  5
41B
330
416
100
AcDbEntity
  8
0
 62
   123
100
AcDbTrace
 10
63.32632414242834
 20
154.0895133010377
 30
0.0
 11
63.32632414242834
 21
153.2561799677044
 31
0.0
 12
65.82632414242834
 22
153.6728466343711
 32
0.0
 13
65.82632414242834
 23
153.6728466343711
 33
0.0
  0
MTEXT
  5
41C
330
416
100
AcDbEntity
  8
0
 62
     3
100
AcDbMText
 10
30.82632414242652
 20
156.1728466343711
 30
0.0
 40
3.0
 41
0.0
 71
     5
 72
     1
  1
\A1;70
1001
ACAD
1000
MTEXTBEGIN
1070
    73
1070
     1
1070
    44
1040
1.0
1070
    74
1070
     0
1000
MTEXTEND
  0
POINT
  5
41D
330
416
100
AcDbEntity
  8
DEFPOINTS
 62
     0
100
AcDbPoint
 10
-4.173675857571652
 20
136.1050515084653
 30
0.0
  0
POINT
  5
41E
330
416
100
AcDbEntity
  8
DEFPOINTS
 62
     0
100
AcDbPoint
 10
65.82632414242834
 20
136.1050515084653
 30
0.0
  0
POINT
  5
41F
330
416
100
AcDbEntity
  8
DEFPOINTS
 62
     0
100
AcDbPoint
 10
65.82632414242834
 20
153.6728466343711
 30
0.0
  0
ENDBLK
  5
421
330
416
100
AcDbEntity
  8
0
100
AcDbBlockEnd
  0
BLOCK
  5
42E
330
422
100
AcDbEntity
  8
0
100
AcDbBlockBegin
  2
*D44
 70
     1
 10
0.0
 20
0.0
 30
0.0
  3
*D44
  1

  0
LINE
  5
423
330
422
100
AcDbEntity
  8
0
 62
   123
100
AcDbLine
 10
115.18418971368
 20
116.1050515084653
 30
0.0
 11
100.7595264247051
 21
116.1050515084653
 31
0.0
  0
LINE
  5
424
330
422
100
AcDbEntity
  8
0
 62
   123
100
AcDbLine
 10
115.18418971368
 20
126.1050515084652
 30
0.0
 11
100.7595264247051
 21
126.1050515084652
 31
0.0
  0
LINE
  5
425
330
422
100
AcDbEntity
  8
0
 62
   123
100
AcDbLine
 10
101.3595264247051
 20
113.6050515084652
 30
0.0
 11
101.3595264247051
 21
111.1050515084653
 31
0.0
  0
LINE
  5
426
330
422
100
AcDbEntity
  8
0
 62
   123
100
AcDbLine
 10
101.3595264247051
 20
128.6050515084653
 30
0.0
 11
101.3595264247051
 21
166.9330940216338
 31
0.0
  0
LINE
  5
427
330
422
100
AcDbEntity
  8
0
 62
   123
100
AcDbLine
 10
101.3595264247051
 20
116.1050515084653
 30
0.0
 11
101.3595264247051
 21
126.1050515084652
 31
0.0
  0
SOLID
  5
428
330
422
100
AcDbEntity
  8
0
 62
   123
100
AcDbTrace
 10
100.9428597580384
 20
113.6050515084652
 30
0.0
 11
101.7761930913718
 21
113.6050515084652
 31
0.0
 12
101.3595264247051
 22
116.1050515084653
 32
0.0
 13
101.3595264247051
 23
116.1050515084653
 33
0.0
  0
SOLID
  5
429
330
422
100
AcDbEntity
  8
0
 62
   123
100
AcDbTrace
 10
100.9428597580384
 20
128.6050515084653
 30
0.0
 11
101.7761930913718
 21
128.6050515084653
 31
0.0
 12
101.3595264247051
 22
126.1050515084652
 32
0.0
 13
101.3595264247051
 23
126.1050515084652
 33
0.0
  0
MTEXT
  5
42A
330
422
100
AcDbEntity
  8
0
 62
     3
100
AcDbMText
 10
97.40937642470512
 20
152.1175225930624
 30
0.0
 40
3.0
 41
0.0
 71
     5
 72
     1
  1
\A1;\A1;{\f??|b0|i0|c0|p49;%%C10\H0.7x;\S+0^ -0.015;\H1.429x;(h7)}
 11
0.0000000000000001
 21
1.0
 31
0.0
1001
ACAD
1000
MTEXTBEGIN
1070
    73
1070
     1
1070
    44
1040
1.0
1070
    74
1070
     0
1000
MTEXTEND
  0
POINT
  5
42B
330
422
100
AcDbEntity
  8
DEFPOINTS
 62
     0
100
AcDbPoint
 10
116.18418971368
 20
116.1050515084653
 30
0.0
  0
POINT
  5
42C
330
422
100
AcDbEntity
  8
DEFPOINTS
 62
     0
100
AcDbPoint
 10
116.18418971368
 20
126.1050515084652
 30
0.0
  0
POINT
  5
42D
330
422
100
AcDbEntity
  8
DEFPOINTS
 62
     0
100
AcDbPoint
 10
101.3595264247051
 20
126.1050515084652
 30
0.0
  0
ENDBLK
  5
42F
330
422
100
AcDbEntity
  8
0
100
AcDbBlockEnd
  0
BLOCK
  5
43C
330
430
100
AcDbEntity
  8
0
100
AcDbBlockBegin
  2
*D45
 70
     1
 10
0.0
 20
0.0
 30
0.0
  3
*D45
  1

  0
LINE
  5
431
330
430
100
AcDbEntity
  8
0
 62
   123
100
AcDbLine
 10
148.1841897136801
 20
141.6050515084652
 30
0.0
 11
148.1841897136801
 21
152.967082136493
 31
0.0
  0
LINE
  5
432
330
430
100
AcDbEntity
  8
0
 62
   123
100
AcDbLine
 10
145.1841897136801
 20
136.6050515084652
 30
0.0
 11
145.1841897136801
 21
152.967082136493
 31
0.0
  0
LINE
  5
433
330
430
100
AcDbEntity
  8
0
 62
   123
100
AcDbLine
 10
150.68418971368
 20
152.367082136493
 30
0.0
 11
153.1841897136801
 21
152.367082136493
 31
0.0
  0
LINE
  5
434
330
430
100
AcDbEntity
  8
0
 62
   123
100
AcDbLine
 10
142.6841897136801
 20
152.367082136493
 30
0.0
 11
140.18418971368
 21
152.367082136493
 31
0.0
  0
LINE
  5
435
330
430
100
AcDbEntity
  8
0
 62
   123
100
AcDbLine
 10
148.1841897136801
 20
152.367082136493
 30
0.0
 11
145.1841897136801
 21
152.367082136493
 31
0.0
  0
SOLID
  5
436
330
430
100
AcDbEntity
  8
0
 62
   123
100
AcDbTrace
 10
150.68418971368
 20
152.7837488031597
 30
0.0
 11
150.68418971368
 21
151.9504154698264
 31
0.0
 12
148.1841897136801
 22
152.367082136493
 32
0.0
 13
148.1841897136801
 23
152.367082136493
 33
0.0
  0
SOLID
  5
437
330
430
100
AcDbEntity
  8
0
 62
   123
100
AcDbTrace
 10
142.6841897136801
 20
152.7837488031597
 30
0.0
 11
142.6841897136801
 21
151.9504154698264
 31
0.0
 12
145.1841897136801
 22
152.367082136493
 32
0.0
 13
145.1841897136801
 23
152.367082136493
 33
0.0
  0
MTEXT
  5
438
330
430
100
AcDbEntity
  8
0
 62
     3
100
AcDbMText
 10
146.68418971368
 20
154.867082136493
 30
0.0
 40
3.0
 41
0.0
 71
     5
 72
     1
  1
\A1;3
1001
ACAD
1000
MTEXTBEGIN
1070
    73
1070
     1
1070
    44
1040
1.0
1070
    74
1070
     0
1000
MTEXTEND
  0
POINT
  5
439
330
430
100
AcDbEntity
  8
DEFPOINTS
 62
     0
100
AcDbPoint
 10
148.1841897136801
 20
140.6050515084652
 30
0.0
  0
POINT
  5
43A
330
430
100
AcDbEntity
  8
DEFPOINTS
 62
     0
100
AcDbPoint
 10
145.1841897136801
 20
135.6050515084652
 30
0.0
  0
POINT
  5
43B
330
430
100
AcDbEntity
  8
DEFPOINTS
 62
     0
100
AcDbPoint
 10
145.1841897136801
 20
152.367082136493
 30
0.0
  0
ENDBLK
  5
43D
330
430
100
AcDbEntity
  8
0
100
AcDbBlockEnd
  0
BLOCK
  5
448
330
43E
100
AcDbEntity
  8
0
100
AcDbBlockBegin
  2
*D46
 70
     1
 10
0.0
 20
0.0
 30
0.0
  3
*D46
  1

  0
LINE
  5
43F
330
43E
100
AcDbEntity
  8
0
 62
   123
100
AcDbLine
 10
141.1841897136801
 20
127.1050515084652
 30
0.0
 11
141.1841897136801
 21
142.9253397153662
 31
0.0
  0
LINE
  5
440
330
43E
100
AcDbEntity
  8
0
 62
   123
100
AcDbLine
 10
116.18418971368
 20
127.1050515084643
 30
0.0
 11
116.18418971368
 21
142.9253397153662
 31
0.0
  0
LINE
  5
441
330
43E
100
AcDbEntity
  8
0
 62
   123
100
AcDbLine
 10
138.6841897136801
 20
142.3253397153662
 30
0.0
 11
118.6841897136801
 21
142.3253397153662
 31
0.0
  0
SOLID
  5
442
330
43E
100
AcDbEntity
  8
0
 62
   123
100
AcDbTrace
 10
138.6841897136801
 20
142.7420063820328
 30
0.0
 11
138.6841897136801
 21
141.9086730486995
 31
0.0
 12
141.1841897136801
 22
142.3253397153662
 32
0.0
 13
141.1841897136801
 23
142.3253397153662
 33
0.0
  0
SOLID
  5
443
330
43E
100
AcDbEntity
  8
0
 62
   123
100
AcDbTrace
 10
118.6841897136801
 20
142.7420063820328
 30
0.0
 11
118.6841897136801
 21
141.9086730486995
 31
0.0
 12
116.18418971368
 22
142.3253397153662
 32
0.0
 13
116.18418971368
 23
142.3253397153662
 33
0.0
  0
MTEXT
  5
444
330
43E
100
AcDbEntity
  8
0
 62
     3
100
AcDbMText
 10
128.9951203810796
 20
144.8253397153662
 30
0.0
 40
3.0
 41
0.0
 71
     5
 72
     1
  1
\A1;25
1001
ACAD
1000
MTEXTBEGIN
1070
    73
1070
     1
1070
    44
1040
1.0
1070
    74
1070
     0
1000
MTEXTEND
  0
POINT
  5
445
330
43E
100
AcDbEntity
  8
DEFPOINTS
 62
     0
100
AcDbPoint
 10
141.1841897136801
 20
126.1050515084652
 30
0.0
  0
POINT
  5
446
330
43E
100
AcDbEntity
  8
DEFPOINTS
 62
     0
100
AcDbPoint
 10
116.18418971368
 20
126.1050515084643
 30
0.0
  0
POINT
  5
447
330
43E
100
AcDbEntity
  8
DEFPOINTS
 62
     0
100
AcDbPoint
 10
116.18418971368
 20
142.3253397153662
 30
0.0
  0
ENDBLK
  5
449
330
43E
100
AcDbEntity
  8
0
100
AcDbBlockEnd
  0
BLOCK
  5
454
330
44A
100
AcDbEntity
  8
0
100
AcDbBlockBegin
  2
*D47
 70
     1
 10
0.0
 20
0.0
 30
0.0
  3
*D47
  1

  0
LINE
  5
44B
330
44A
100
AcDbEntity
  8
0
 62
   123
100
AcDbLine
 10
116.18418971368
 20
127.1050515084652
 30
0.0
 11
116.18418971368
 21
164.4909873290604
 31
0.0
  0
LINE
  5
44C
330
44A
100
AcDbEntity
  8
0
 62
   123
100
AcDbLine
 10
148.1841897136801
 20
141.6050515084652
 30
0.0
 11
148.1841897136801
 21
164.4909873290604
 31
0.0
  0
LINE
  5
44D
330
44A
100
AcDbEntity
  8
0
 62
   123
100
AcDbLine
 10
118.6841897136801
 20
163.8909873290604
 30
0.0
 11
145.68418971368
 21
163.8909873290604
 31
0.0
  0
SOLID
  5
44E
330
44A
100
AcDbEntity
  8
0
 62
   123
100
AcDbTrace
 10
118.6841897136801
 20
164.307653995727
 30
0.0
 11
118.6841897136801
 21
163.4743206623937
 31
0.0
 12
116.18418971368
 22
163.8909873290604
 32
0.0
 13
116.18418971368
 23
163.8909873290604
 33
0.0
  0
SOLID
  5
44F
330
44A
100
AcDbEntity
  8
0
 62
   123
100
AcDbTrace
 10
145.68418971368
 20
164.307653995727
 30
0.0
 11
145.68418971368
 21
163.4743206623937
 31
0.0
 12
148.1841897136801
 22
163.8909873290604
 32
0.0
 13
148.1841897136801
 23
163.8909873290604
 33
0.0
  0
MTEXT
  5
450
330
44A
100
AcDbEntity
  8
0
 62
     3
100
AcDbMText
 10
132.1841897136801
 20
166.3909873290604
 30
0.0
 40
3.0
 41
0.0
 71
     5
 72
     1
  1
\A1;32
1001
ACAD
1000
MTEXTBEGIN
1070
    73
1070
     1
1070
    44
1040
1.0
1070
    74
1070
     0
1000
MTEXTEND
  0
POINT
  5
451
330
44A
100
AcDbEntity
  8
DEFPOINTS
 62
     0
100
AcDbPoint
 10
116.18418971368
 20
126.1050515084652
 30
0.0
  0
POINT
  5
452
330
44A
100
AcDbEntity
  8
DEFPOINTS
 62
     0
100
AcDbPoint
 10
148.1841897136801
 20
140.6050515084652
 30
0.0
  0
POINT
  5
453
330
44A
100
AcDbEntity
  8
DEFPOINTS
 62
     0
100
AcDbPoint
 10
148.1841897136801
 20
163.8909873290604
 30
0.0
  0
ENDBLK
  5
455
330
44A
100
AcDbEntity
  8
0
100
AcDbBlockEnd
  0
BLOCK
  5
460
330
456
100
AcDbEntity
  8
0
100
AcDbBlockBegin
  2
*D48
 70
     1
 10
0.0
 20
0.0
 30
0.0
  3
*D48
  1

  0
LINE
  5
457
330
456
100
AcDbEntity
  8
0
 62
   123
100
AcDbLine
 10
307.18418971368
 20
141.1050515084662
 30
0.0
 11
324.9404096539216
 21
141.1050515084661
 31
0.0
  0
LINE
  5
458
330
456
100
AcDbEntity
  8
0
 62
   123
100
AcDbLine
 10
307.18418971368
 20
71.1050515084662
 30
0.0
 11
324.9404096539216
 21
71.1050515084662
 31
0.0
  0
LINE
  5
459
330
456
100
AcDbEntity
  8
0
 62
   123
100
AcDbLine
 10
324.3404096539216
 20
138.6050515084661
 30
0.0
 11
324.3404096539216
 21
73.6050515084662
 31
0.0
  0
SOLID
  5
45A
330
456
100
AcDbEntity
  8
0
 62
   123
100
AcDbTrace
 10
323.9237429872549
 20
138.6050515084661
 30
0.0
 11
324.7570763205883
 21
138.6050515084661
 31
0.0
 12
324.3404096539216
 22
141.1050515084661
 32
0.0
 13
324.3404096539216
 23
141.1050515084661
 33
0.0
  0
SOLID
  5
45B
330
456
100
AcDbEntity
  8
0
 62
   123
100
AcDbTrace
 10
323.9237429872549
 20
73.6050515084662
 30
0.0
 11
324.7570763205883
 21
73.6050515084662
 31
0.0
 12
324.3404096539216
 22
71.1050515084662
 32
0.0
 13
324.3404096539216
 23
71.1050515084662
 33
0.0
  0
MTEXT
  5
45C
330
456
100
AcDbEntity
  8
0
 62
     3
100
AcDbMText
 10
321.8404096539216
 20
106.1050515084652
 30
0.0
 40
3.0
 41
0.0
 71
     5
 72
     1
  1
\A1;%%C70
 11
0.0000000000000001
 21
1.0
 31
0.0
1001
ACAD
1000
MTEXTBEGIN
1070
    73
1070
     1
1070
    44
1040
1.0
1070
    74
1070
     0
1000
MTEXTEND
  0
POINT
  5
45D
330
456
100
AcDbEntity
  8
DEFPOINTS
 62
     0
100
AcDbPoint
 10
306.1841897136801
 20
141.1050515084662
 30
0.0
  0
POINT
  5
45E
330
456
100
AcDbEntity
  8
DEFPOINTS
 62
     0
100
AcDbPoint
 10
306.1841897136801
 20
71.1050515084662
 30
0.0
  0
POINT
  5
45F
330
456
100
AcDbEntity
  8
DEFPOINTS
 62
     0
100
AcDbPoint
 10
324.3404096539216
 20
71.1050515084662
 30
0.0
  0
ENDBLK
  5
461
330
456
100
AcDbEntity
  8
0
100
AcDbBlockEnd
  0
BLOCK
  5
46C
330
462
100
AcDbEntity
  8
0
100
AcDbBlockBegin
  2
*D49
 70
     1
 10
0.0
 20
0.0
 30
0.0
  3
*D49
  1

  0
LINE
  5
463
330
462
100
AcDbEntity
  8
0
 62
   123
100
AcDbLine
 10
270.6807410601468
 20
268.4604743046643
 30
0.0
 11
270.6807410601468
 21
255.5644599230389
 31
0.0
  0
LINE
  5
464
330
462
100
AcDbEntity
  8
0
 62
   123
100
AcDbLine
 10
228.6807410601486
 20
268.4604743046643
 30
0.0
 11
228.6807410601486
 21
255.5644599230389
 31
0.0
  0
LINE
  5
465
330
462
100
AcDbEntity
  8
0
 62
   123
100
AcDbLine
 10
268.1807410601468
 20
256.164459923039
 30
0.0
 11
231.1807410601486
 21
256.164459923039
 31
0.0
  0
SOLID
  5
466
330
462
100
AcDbEntity
  8
0
 62
   123
100
AcDbTrace
 10
268.1807410601468
 20
256.5811265897056
 30
0.0
 11
268.1807410601468
 21
255.7477932563723
 31
0.0
 12
270.6807410601468
 22
256.164459923039
 32
0.0
 13
270.6807410601468
 23
256.164459923039
 33
0.0
  0
SOLID
  5
467
330
462
100
AcDbEntity
  8
0
 62
   123
100
AcDbTrace
 10
231.1807410601486
 20
256.5811265897056
 30
0.0
 11
231.1807410601486
 21
255.7477932563723
 31
0.0
 12
228.6807410601486
 22
256.164459923039
 32
0.0
 13
228.6807410601486
 23
256.164459923039
 33
0.0
  0
MTEXT
  5
468
330
462
100
AcDbEntity
  8
0
 62
     3
100
AcDbMText
 10
249.6807410601477
 20
258.6644599230389
 30
0.0
 40
3.0
 41
0.0
 71
     5
 72
     1
  1
\A1;L
1001
ACAD
1000
MTEXTBEGIN
1070
    73
1070
     1
1070
    44
1040
1.0
1070
    74
1070
     0
1000
MTEXTEND
  0
POINT
  5
469
330
462
100
AcDbEntity
  8
DEFPOINTS
 62
     0
100
AcDbPoint
 10
270.6807410601468
 20
269.4604743046643
 30
0.0
  0
POINT
  5
46A
330
462
100
AcDbEntity
  8
DEFPOINTS
 62
     0
100
AcDbPoint
 10
228.6807410601486
 20
269.4604743046643
 30
0.0
  0
POINT
  5
46B
330
462
100
AcDbEntity
  8
DEFPOINTS
 62
     0
100
AcDbPoint
 10
228.6807410601486
 20
256.164459923039
 30
0.0
  0
ENDBLK
  5
46D
330
462
100
AcDbEntity
  8
0
100
AcDbBlockEnd
  0
BLOCK
  5
47A
330
46E
100
AcDbEntity
  8
0
100
AcDbBlockBegin
  2
*D50
 70
     1
 10
0.0
 20
0.0
 30
0.0
  3
*D50
  1

  0
LINE
  5
46F
330
46E
100
AcDbEntity
  8
0
 62
   123
100
AcDbLine
 10
228.6807410601486
 20
340.4604743046643
 30
0.0
 11
228.6807410601486
 21
349.2426130078744
 31
0.0
  0
LINE
  5
470
330
46E
100
AcDbEntity
  8
0
 62
   123
100
AcDbLine
 10
225.6807410601486
 20
334.9604743046643
 30
0.0
 11
225.6807410601486
 21
349.2426130078744
 31
0.0
  0
LINE
  5
471
330
46E
100
AcDbEntity
  8
0
 62
   123
100
AcDbLine
 10
231.1807410601486
 20
348.6426130078744
 30
0.0
 11
233.6807410601486
 21
348.6426130078744
 31
0.0
  0
LINE
  5
472
330
46E
100
AcDbEntity
  8
0
 62
   123
100
AcDbLine
 10
223.1807410601486
 20
348.6426130078744
 30
0.0
 11
220.6807410601486
 21
348.6426130078744
 31
0.0
  0
LINE
  5
473
330
46E
100
AcDbEntity
  8
0
 62
   123
100
AcDbLine
 10
228.6807410601486
 20
348.6426130078744
 30
0.0
 11
225.6807410601486
 21
348.6426130078744
 31
0.0
  0
SOLID
  5
474
330
46E
100
AcDbEntity
  8
0
 62
   123
100
AcDbTrace
 10
231.1807410601486
 20
349.059279674541
 30
0.0
 11
231.1807410601486
 21
348.2259463412077
 31
0.0
 12
228.6807410601486
 22
348.6426130078744
 32
0.0
 13
228.6807410601486
 23
348.6426130078744
 33
0.0
  0
SOLID
  5
475
330
46E
100
AcDbEntity
  8
0
 62
   123
100
AcDbTrace
 10
223.1807410601486
 20
349.059279674541
 30
0.0
 11
223.1807410601486
 21
348.2259463412077
 31
0.0
 12
225.6807410601486
 22
348.6426130078744
 32
0.0
 13
225.6807410601486
 23
348.6426130078744
 33
0.0
  0
MTEXT
  5
476
330
46E
100
AcDbEntity
  8
0
 62
     3
100
AcDbMText
 10
227.1807410601486
 20
351.1426130078743
 30
0.0
 40
3.0
 41
0.0
 71
     5
 72
     1
  1
\A1;3
1001
ACAD
1000
MTEXTBEGIN
1070
    73
1070
     1
1070
    44
1040
1.0
1070
    74
1070
     0
1000
MTEXTEND
  0
POINT
  5
477
330
46E
100
AcDbEntity
  8
DEFPOINTS
 62
     0
100
AcDbPoint
 10
228.6807410601486
 20
339.4604743046643
 30
0.0
  0
POINT
  5
478
330
46E
100
AcDbEntity
  8
DEFPOINTS
 62
     0
100
AcDbPoint
 10
225.6807410601486
 20
333.9604743046643
 30
0.0
  0
POINT
  5
479
330
46E
100
AcDbEntity
  8
DEFPOINTS
 62
     0
100
AcDbPoint
 10
225.6807410601486
 20
348.6426130078744
 30
0.0
  0
ENDBLK
  5
47B
330
46E
100
AcDbEntity
  8
0
100
AcDbBlockEnd
  0
BLOCK
  5
488
330
47C
100
AcDbEntity
  8
0
100
AcDbBlockBegin
  2
*D51
 70
     1
 10
0.0
 20
0.0
 30
0.0
  3
*D51
  1

  0
LINE
  5
47D
330
47C
100
AcDbEntity
  8
0
 62
   123
100
AcDbLine
 10
195.6807410601486
 20
314.4604743046643
 30
0.0
 11
181.2560777711664
 21
314.4604743046643
 31
0.0
  0
LINE
  5
47E
330
47C
100
AcDbEntity
  8
0
 62
   123
100
AcDbLine
 10
195.6807410601486
 20
324.4604743046643
 30
0.0
 11
181.2560777711664
 21
324.4604743046643
 31
0.0
  0
LINE
  5
47F
330
47C
100
AcDbEntity
  8
0
 62
   123
100
AcDbLine
 10
181.8560777711664
 20
311.9604743046643
 30
0.0
 11
181.8560777711664
 21
309.4604743046643
 31
0.0
  0
LINE
  5
480
330
47C
100
AcDbEntity
  8
0
 62
   123
100
AcDbLine
 10
181.8560777711664
 20
326.9604743046643
 30
0.0
 11
181.8560777711664
 21
365.2652529422658
 31
0.0
  0
LINE
  5
481
330
47C
100
AcDbEntity
  8
0
 62
   123
100
AcDbLine
 10
181.8560777711664
 20
314.4604743046643
 30
0.0
 11
181.8560777711664
 21
324.4604743046643
 31
0.0
  0
SOLID
  5
482
330
47C
100
AcDbEntity
  8
0
 62
   123
100
AcDbTrace
 10
181.4394111044997
 20
311.9604743046643
 30
0.0
 11
182.272744437833
 21
311.9604743046643
 31
0.0
 12
181.8560777711664
 22
314.4604743046643
 32
0.0
 13
181.8560777711664
 23
314.4604743046643
 33
0.0
  0
SOLID
  5
483
330
47C
100
AcDbEntity
  8
0
 62
   123
100
AcDbTrace
 10
181.4394111044997
 20
326.9604743046643
 30
0.0
 11
182.2727444378331
 21
326.9604743046643
 31
0.0
 12
181.8560777711664
 22
324.4604743046643
 32
0.0
 13
181.8560777711664
 23
324.4604743046643
 33
0.0
  0
MTEXT
  5
484
330
47C
100
AcDbEntity
  8
0
 62
     3
100
AcDbMText
 10
177.9059277711663
 20
350.4496815136945
 30
0.0
 40
3.0
 41
0.0
 71
     5
 72
     1
  1
\A1;\A1;{\f??|b0|i0|c0|p49;%%C10\H0.7x;\S+0^ -0.015;\H1.429x;(h7)}
 11
0.0000000000000001
 21
1.0
 31
0.0
1001
ACAD
1000
MTEXTBEGIN
1070
    73
1070
     1
1070
    44
1040
1.0
1070
    74
1070
     0
1000
MTEXTEND
  0
POINT
  5
485
330
47C
100
AcDbEntity
  8
DEFPOINTS
 62
     0
100
AcDbPoint
 10
196.6807410601486
 20
314.4604743046643
 30
0.0
  0
POINT
  5
486
330
47C
100
AcDbEntity
  8
DEFPOINTS
 62
     0
100
AcDbPoint
 10
196.6807410601486
 20
324.4604743046643
 30
0.0
  0
POINT
  5
487
330
47C
100
AcDbEntity
  8
DEFPOINTS
 62
     0
100
AcDbPoint
 10
181.8560777711664
 20
324.4604743046643
 30
0.0
  0
ENDBLK
  5
489
330
47C
100
AcDbEntity
  8
0
100
AcDbBlockEnd
  0
BLOCK
  5
494
330
48A
100
AcDbEntity
  8
0
100
AcDbBlockBegin
  2
*D52
 70
     1
 10
0.0
 20
0.0
 30
0.0
  3
*D52
  1

  0
LINE
  5
48B
330
48A
100
AcDbEntity
  8
0
 62
   123
100
AcDbLine
 10
56.89132679579052
 20
276.8474860953433
 30
0.0
 11
56.89132679579052
 21
254.3984841041214
 31
0.0
  0
LINE
  5
48C
330
48A
100
AcDbEntity
  8
0
 62
   123
100
AcDbLine
 10
126.8913267957905
 20
276.8474860953433
 30
0.0
 11
126.8913267957905
 21
254.3984841041214
 31
0.0
  0
LINE
  5
48D
330
48A
100
AcDbEntity
  8
0
 62
   123
100
AcDbLine
 10
59.39132679579052
 20
254.9984841041214
 30
0.0
 11
124.3913267957905
 21
254.9984841041214
 31
0.0
  0
SOLID
  5
48E
330
48A
100
AcDbEntity
  8
0
 62
   123
100
AcDbTrace
 10
59.39132679579052
 20
255.415150770788
 30
0.0
 11
59.39132679579052
 21
254.5818174374547
 31
0.0
 12
56.89132679579052
 22
254.9984841041214
 32
0.0
 13
56.89132679579052
 23
254.9984841041214
 33
0.0
  0
SOLID
  5
48F
330
48A
100
AcDbEntity
  8
0
 62
   123
100
AcDbTrace
 10
124.3913267957905
 20
255.415150770788
 30
0.0
 11
124.3913267957905
 21
254.5818174374547
 31
0.0
 12
126.8913267957905
 22
254.9984841041214
 32
0.0
 13
126.8913267957905
 23
254.9984841041214
 33
0.0
  0
MTEXT
  5
490
330
48A
100
AcDbEntity
  8
0
 62
     3
100
AcDbMText
 10
95.23314234500139
 20
257.4984841041214
 30
0.0
 40
3.0
 41
0.0
 71
     5
 72
     1
  1
\A1;70
1001
ACAD
1000
MTEXTBEGIN
1070
    73
1070
     1
1070
    44
1040
1.0
1070
    74
1070
     0
1000
MTEXTEND
  0
POINT
  5
491
330
48A
100
AcDbEntity
  8
DEFPOINTS
 62
     0
100
AcDbPoint
 10
56.89132679579052
 20
277.8474860953433
 30
0.0
  0
POINT
  5
492
330
48A
100
AcDbEntity
  8
DEFPOINTS
 62
     0
100
AcDbPoint
 10
126.8913267957905
 20
277.8474860953433
 30
0.0
  0
POINT
  5
493
330
48A
100
AcDbEntity
  8
DEFPOINTS
 62
     0
100
AcDbPoint
 10
126.8913267957905
 20
254.9984841041214
 30
0.0
  0
ENDBLK
  5
495
330
48A
100
AcDbEntity
  8
0
100
AcDbBlockEnd
  0
BLOCK
  5
4A0
330
496
100
AcDbEntity
  8
0
100
AcDbBlockBegin
  2
*D53
 70
     1
 10
0.0
 20
0.0
 30
0.0
  3
*D53
  1

  0
LINE
  5
497
330
496
100
AcDbEntity
  8
0
 62
   123
100
AcDbLine
 10
191.7826022589179
 20
319.4604743046643
 30
0.0
 11
172.80849495773
 21
319.4604743046643
 31
0.0
  0
LINE
  5
498
330
496
100
AcDbEntity
  8
0
 62
   123
100
AcDbLine
 10
212.3210228148455
 20
304.4604743046643
 30
0.0
 11
172.80849495773
 21
304.4604743046643
 31
0.0
  0
LINE
  5
499
330
496
100
AcDbEntity
  8
0
 62
   123
100
AcDbLine
 10
173.40849495773
 20
316.9604743046643
 30
0.0
 11
173.40849495773
 21
306.9604743046643
 31
0.0
  0
SOLID
  5
49A
330
496
100
AcDbEntity
  8
0
 62
   123
100
AcDbTrace
 10
172.9918282910633
 20
316.9604743046643
 30
0.0
 11
173.8251616243966
 21
316.9604743046643
 31
0.0
 12
173.40849495773
 22
319.4604743046643
 32
0.0
 13
173.40849495773
 23
319.4604743046643
 33
0.0
  0
SOLID
  5
49B
330
496
100
AcDbEntity
  8
0
 62
   123
100
AcDbTrace
 10
172.9918282910633
 20
306.9604743046643
 30
0.0
 11
173.8251616243966
 21
306.9604743046643
 31
0.0
 12
173.40849495773
 22
304.4604743046643
 32
0.0
 13
173.40849495773
 23
304.4604743046643
 33
0.0
  0
MTEXT
  5
49C
330
496
100
AcDbEntity
  8
0
 62
     3
100
AcDbMText
 10
170.9084949577299
 20
311.9604743046644
 30
0.0
 40
3.0
 41
0.0
 71
     5
 72
     1
  1
\A1;15
 11
0.0000000000000001
 21
1.0
 31
0.0
1001
ACAD
1000
MTEXTBEGIN
1070
    73
1070
     1
1070
    44
1040
1.0
1070
    74
1070
     0
1000
MTEXTEND
  0
POINT
  5
49D
330
496
100
AcDbEntity
  8
DEFPOINTS
 62
     0
100
AcDbPoint
 10
192.7826022589179
 20
319.4604743046643
 30
0.0
  0
POINT
  5
49E
330
496
100
AcDbEntity
  8
DEFPOINTS
 62
     0
100
AcDbPoint
 10
213.3210228148454
 20
304.4604743046643
 30
0.0
  0
POINT
  5
49F
330
496
100
AcDbEntity
  8
DEFPOINTS
 62
     0
100
AcDbPoint
 10
173.40849495773
 20
304.4604743046643
 30
0.0
  0
ENDBLK
  5
4A1
330
496
100
AcDbEntity
  8
0
100
AcDbBlockEnd
  0
BLOCK
  5
4AC
330
4A2
100
AcDbEntity
  8
0
100
AcDbBlockBegin
  2
*D54
 70
     1
 10
0.0
 20
0.0
 30
0.0
  3
*D54
  1

  0
LINE
  5
4A3
330
4A2
100
AcDbEntity
  8
0
 62
   123
100
AcDbLine
 10
225.1807410601486
 20
334.4604743046652
 30
0.0
 11
163.9146951376955
 21
334.4604743046652
 31
0.0
  0
LINE
  5
4A4
330
4A2
100
AcDbEntity
  8
0
 62
   123
100
AcDbLine
 10
212.3210228148455
 20
304.4604743046643
 30
0.0
 11
163.9146951376955
 21
304.4604743046643
 31
0.0
  0
LINE
  5
4A5
330
4A2
100
AcDbEntity
  8
0
 62
   123
100
AcDbLine
 10
164.5146951376955
 20
331.9604743046652
 30
0.0
 11
164.5146951376955
 21
306.9604743046643
 31
0.0
  0
SOLID
  5
4A6
330
4A2
100
AcDbEntity
  8
0
 62
   123
100
AcDbTrace
 10
164.0980284710289
 20
331.9604743046652
 30
0.0
 11
164.9313618043622
 21
331.9604743046652
 31
0.0
 12
164.5146951376955
 22
334.4604743046652
 32
0.0
 13
164.5146951376955
 23
334.4604743046652
 33
0.0
  0
SOLID
  5
4A7
330
4A2
100
AcDbEntity
  8
0
 62
   123
100
AcDbTrace
 10
164.0980284710289
 20
306.9604743046643
 30
0.0
 11
164.9313618043622
 21
306.9604743046643
 31
0.0
 12
164.5146951376955
 22
304.4604743046643
 32
0.0
 13
164.5146951376955
 23
304.4604743046643
 33
0.0
  0
MTEXT
  5
4A8
330
4A2
100
AcDbEntity
  8
0
 62
     3
100
AcDbMText
 10
162.0146951376955
 20
319.2104743046652
 30
0.0
 40
3.0
 41
0.0
 71
     5
 72
     1
  1
\A1;{\f??|b0|i0|c0|p49;%%c}30
 11
0.0000000000000001
 21
1.0
 31
0.0
1001
ACAD
1000
MTEXTBEGIN
1070
    73
1070
     1
1070
    44
1040
1.0
1070
    74
1070
     0
1000
MTEXTEND
  0
POINT
  5
4A9
330
4A2
100
AcDbEntity
  8
DEFPOINTS
 62
     0
100
AcDbPoint
 10
226.1807410601486
 20
334.4604743046652
 30
0.0
  0
POINT
  5
4AA
330
4A2
100
AcDbEntity
  8
DEFPOINTS
 62
     0
100
AcDbPoint
 10
213.3210228148454
 20
304.4604743046643
 30
0.0
  0
POINT
  5
4AB
330
4A2
100
AcDbEntity
  8
DEFPOINTS
 62
     0
100
AcDbPoint
 10
164.5146951376955
 20
304.4604743046643
 30
0.0
  0
ENDBLK
  5
4AD
330
4A2
100
AcDbEntity
  8
0
100
AcDbBlockEnd
  0
BLOCK
  5
4B8
330
4AE
100
AcDbEntity
  8
0
100
AcDbBlockBegin
  2
*D55
 70
     1
 10
0.0
 20
0.0
 30
0.0
  3
*D55
  1

  0
LINE
  5
4AF
330
4AE
100
AcDbEntity
  8
0
 62
   123
100
AcDbLine
 10
196.6807410601486
 20
313.4604743046652
 30
0.0
 11
196.6807410601486
 21
255.5644599230389
 31
0.0
  0
LINE
  5
4B0
330
4AE
100
AcDbEntity
  8
0
 62
   123
100
AcDbLine
 10
228.6807410601486
 20
273.4604743046643
 30
0.0
 11
228.6807410601486
 21
255.5644599230389
 31
0.0
  0
LINE
  5
4B1
330
4AE
100
AcDbEntity
  8
0
 62
   123
100
AcDbLine
 10
199.1807410601486
 20
256.164459923039
 30
0.0
 11
226.1807410601486
 21
256.164459923039
 31
0.0
  0
SOLID
  5
4B2
330
4AE
100
AcDbEntity
  8
0
 62
   123
100
AcDbTrace
 10
199.1807410601486
 20
256.5811265897056
 30
0.0
 11
199.1807410601486
 21
255.7477932563723
 31
0.0
 12
196.6807410601486
 22
256.164459923039
 32
0.0
 13
196.6807410601486
 23
256.164459923039
 33
0.0
  0
SOLID
  5
4B3
330
4AE
100
AcDbEntity
  8
0
 62
   123
100
AcDbTrace
 10
226.1807410601486
 20
256.5811265897056
 30
0.0
 11
226.1807410601486
 21
255.7477932563723
 31
0.0
 12
228.6807410601486
 22
256.164459923039
 32
0.0
 13
228.6807410601486
 23
256.164459923039
 33
0.0
  0
MTEXT
  5
4B4
330
4AE
100
AcDbEntity
  8
0
 62
     3
100
AcDbMText
 10
212.6807410601486
 20
258.6644599230389
 30
0.0
 40
3.0
 41
0.0
 71
     5
 72
     1
  1
\A1;32
1001
ACAD
1000
MTEXTBEGIN
1070
    73
1070
     1
1070
    44
1040
1.0
1070
    74
1070
     0
1000
MTEXTEND
  0
POINT
  5
4B5
330
4AE
100
AcDbEntity
  8
DEFPOINTS
 62
     0
100
AcDbPoint
 10
196.6807410601486
 20
314.4604743046652
 30
0.0
  0
POINT
  5
4B6
330
4AE
100
AcDbEntity
  8
DEFPOINTS
 62
     0
100
AcDbPoint
 10
228.6807410601486
 20
274.4604743046643
 30
0.0
  0
POINT
  5
4B7
330
4AE
100
AcDbEntity
  8
DEFPOINTS
 62
     0
100
AcDbPoint
 10
228.6807410601486
 20
256.164459923039
 30
0.0
  0
ENDBLK
  5
4B9
330
4AE
100
AcDbEntity
  8
0
100
AcDbBlockEnd
  0
BLOCK
  5
4C4
330
4BA
100
AcDbEntity
  8
0
100
AcDbBlockBegin
  2
*D56
 70
     1
 10
0.0
 20
0.0
 30
0.0
  3
*D56
  1

  0
LINE
  5
4BB
330
4BA
100
AcDbEntity
  8
0
 62
   123
100
AcDbLine
 10
221.6807410601486
 20
325.4604743046652
 30
0.0
 11
221.6807410601486
 21
341.2807625115671
 31
0.0
  0
LINE
  5
4BC
330
4BA
100
AcDbEntity
  8
0
 62
   123
100
AcDbLine
 10
196.6807410601486
 20
325.4604743046652
 30
0.0
 11
196.6807410601486
 21
341.2807625115671
 31
0.0
  0
LINE
  5
4BD
330
4BA
100
AcDbEntity
  8
0
 62
   123
100
AcDbLine
 10
219.1807410601486
 20
340.680762511567
 30
0.0
 11
199.1807410601486
 21
340.680762511567
 31
0.0
  0
SOLID
  5
4BE
330
4BA
100
AcDbEntity
  8
0
 62
   123
100
AcDbTrace
 10
219.1807410601486
 20
341.0974291782337
 30
0.0
 11
219.1807410601486
 21
340.2640958449004
 31
0.0
 12
221.6807410601486
 22
340.680762511567
 32
0.0
 13
221.6807410601486
 23
340.680762511567
 33
0.0
  0
SOLID
  5
4BF
330
4BA
100
AcDbEntity
  8
0
 62
   123
100
AcDbTrace
 10
199.1807410601486
 20
341.0974291782337
 30
0.0
 11
199.1807410601486
 21
340.2640958449004
 31
0.0
 12
196.6807410601486
 22
340.680762511567
 32
0.0
 13
196.6807410601486
 23
340.680762511567
 33
0.0
  0
MTEXT
  5
4C0
330
4BA
100
AcDbEntity
  8
0
 62
     3
100
AcDbMText
 10
209.4916717275409
 20
343.180762511567
 30
0.0
 40
3.0
 41
0.0
 71
     5
 72
     1
  1
\A1;25
1001
ACAD
1000
MTEXTBEGIN
1070
    73
1070
     1
1070
    44
1040
1.0
1070
    74
1070
     0
1000
MTEXTEND
  0
POINT
  5
4C1
330
4BA
100
AcDbEntity
  8
DEFPOINTS
 62
     0
100
AcDbPoint
 10
221.6807410601486
 20
324.4604743046652
 30
0.0
  0
POINT
  5
4C2
330
4BA
100
AcDbEntity
  8
DEFPOINTS
 62
     0
100
AcDbPoint
 10
196.6807410601486
 20
324.4604743046652
 30
0.0
  0
POINT
  5
4C3
330
4BA
100
AcDbEntity
  8
DEFPOINTS
 62
     0
100
AcDbPoint
 10
196.6807410601486
 20
340.680762511567
 30
0.0
  0
ENDBLK
  5
4C5
330
4BA
100
AcDbEntity
  8
0
100
AcDbBlockEnd
  0
BLOCK
  5
4D0
330
4C6
100
AcDbEntity
  8
0
100
AcDbBlockBegin
  2
*D57
 70
     1
 10
0.0
 20
0.0
 30
0.0
  3
*D57
  1

  0
LINE
  5
4C7
330
4C6
100
AcDbEntity
  8
0
 62
   123
100
AcDbLine
 10
189.7007559304256
 20
461.9759083163942
 30
0.0
 11
167.5029310534123
 21
461.9759083163942
 31
0.0
  0
LINE
  5
4C8
330
4C6
100
AcDbEntity
  8
0
 62
   123
100
AcDbLine
 10
189.7007559304256
 20
397.975908316394
 30
0.0
 11
167.5029310534123
 21
397.975908316394
 31
0.0
  0
LINE
  5
4C9
330
4C6
100
AcDbEntity
  8
0
 62
   123
100
AcDbLine
 10
168.1029310534123
 20
459.4759083163942
 30
0.0
 11
168.1029310534123
 21
400.4759083163939
 31
0.0
  0
SOLID
  5
4CA
330
4C6
100
AcDbEntity
  8
0
 62
   123
100
AcDbTrace
 10
167.6862643867456
 20
459.4759083163942
 30
0.0
 11
168.5195977200789
 21
459.4759083163942
 31
0.0
 12
168.1029310534123
 22
461.9759083163942
 32
0.0
 13
168.1029310534123
 23
461.9759083163942
 33
0.0
  0
SOLID
  5
4CB
330
4C6
100
AcDbEntity
  8
0
 62
   123
100
AcDbTrace
 10
167.6862643867456
 20
400.4759083163939
 30
0.0
 11
168.5195977200789
 21
400.4759083163939
 31
0.0
 12
168.1029310534123
 22
397.975908316394
 32
0.0
 13
168.1029310534123
 23
397.975908316394
 33
0.0
  0
MTEXT
  5
4CC
330
4C6
100
AcDbEntity
  8
0
 62
     3
100
AcDbMText
 10
164.1527810534122
 20
427.3387672240942
 30
0.0
 40
3.0
 41
0.0
 71
     5
 72
     1
  1
\A1;\A1;%%C{\f??|b0|i0|c0|p49;64\H0.7x;\S+0^ -0.030;\H1.429x;(h7)} 
 11
0.0000000000000001
 21
1.0
 31
0.0
1001
ACAD
1000
MTEXTBEGIN
1070
    73
1070
     1
1070
    44
1040
1.0
1070
    74
1070
     0
1000
MTEXTEND
  0
POINT
  5
4CD
330
4C6
100
AcDbEntity
  8
DEFPOINTS
 62
     0
100
AcDbPoint
 10
190.7007559304256
 20
461.9759083163942
 30
0.0
  0
POINT
  5
4CE
330
4C6
100
AcDbEntity
  8
DEFPOINTS
 62
     0
100
AcDbPoint
 10
190.7007559304256
 20
397.975908316394
 30
0.0
  0
POINT
  5
4CF
330
4C6
100
AcDbEntity
  8
DEFPOINTS
 62
     0
100
AcDbPoint
 10
168.1029310534123
 20
397.975908316394
 30
0.0
  0
ENDBLK
  5
4D1
330
4C6
100
AcDbEntity
  8
0
100
AcDbBlockEnd
  0
BLOCK
  5
4DC
330
4D2
100
AcDbEntity
  8
0
100
AcDbBlockBegin
  2
*D58
 70
     1
 10
0.0
 20
0.0
 30
0.0
  3
*D58
  1

  0
LINE
  5
4D3
330
4D2
100
AcDbEntity
  8
0
 62
   123
100
AcDbLine
 10
66.13939392818429
 20
460.9759083163942
 30
0.0
 11
66.13939392818429
 21
478.1437034423012
 31
0.0
  0
LINE
  5
4D4
330
4D2
100
AcDbEntity
  8
0
 62
   123
100
AcDbLine
 10
136.1393939281842
 20
460.9759083163942
 30
0.0
 11
136.1393939281842
 21
478.1437034423012
 31
0.0
  0
LINE
  5
4D5
330
4D2
100
AcDbEntity
  8
0
 62
   123
100
AcDbLine
 10
68.63939392818429
 20
477.5437034423012
 30
0.0
 11
133.6393939281842
 21
477.5437034423012
 31
0.0
  0
SOLID
  5
4D6
330
4D2
100
AcDbEntity
  8
0
 62
   123
100
AcDbTrace
 10
68.63939392818429
 20
477.9603701089678
 30
0.0
 11
68.63939392818429
 21
477.1270367756344
 31
0.0
 12
66.13939392818429
 22
477.5437034423012
 32
0.0
 13
66.13939392818429
 23
477.5437034423012
 33
0.0
  0
SOLID
  5
4D7
330
4D2
100
AcDbEntity
  8
0
 62
   123
100
AcDbTrace
 10
133.6393939281842
 20
477.9603701089678
 30
0.0
 11
133.6393939281842
 21
477.1270367756344
 31
0.0
 12
136.1393939281842
 22
477.5437034423012
 32
0.0
 13
136.1393939281842
 23
477.5437034423012
 33
0.0
  0
MTEXT
  5
4D8
330
4D2
100
AcDbEntity
  8
0
 62
     3
100
AcDbMText
 10
101.1393939281842
 20
480.0437034423011
 30
0.0
 40
3.0
 41
0.0
 71
     5
 72
     1
  1
\A1;70
1001
ACAD
1000
MTEXTBEGIN
1070
    73
1070
     1
1070
    44
1040
1.0
1070
    74
1070
     0
1000
MTEXTEND
  0
POINT
  5
4D9
330
4D2
100
AcDbEntity
  8
DEFPOINTS
 62
     0
100
AcDbPoint
 10
66.13939392818429
 20
459.9759083163942
 30
0.0
  0
POINT
  5
4DA
330
4D2
100
AcDbEntity
  8
DEFPOINTS
 62
     0
100
AcDbPoint
 10
136.1393939281842
 20
459.9759083163942
 30
0.0
  0
POINT
  5
4DB
330
4D2
100
AcDbEntity
  8
DEFPOINTS
 62
     0
100
AcDbPoint
 10
136.1393939281842
 20
477.5437034423012
 30
0.0
  0
ENDBLK
  5
4DD
330
4D2
100
AcDbEntity
  8
0
100
AcDbBlockEnd
  0
BLOCK
  5
4E8
330
4DE
100
AcDbEntity
  8
0
100
AcDbBlockBegin
  2
*D59
 70
     1
 10
0.0
 20
0.0
 30
0.0
  3
*D59
  1

  0
LINE
  5
4DF
330
4DE
100
AcDbEntity
  8
0
 62
   123
100
AcDbLine
 10
179.7007559304274
 20
433.815408316394
 30
0.0
 11
179.7007559304274
 21
485.1629861408272
 31
0.0
  0
LINE
  5
4E0
330
4DE
100
AcDbEntity
  8
0
 62
   123
100
AcDbLine
 10
192.7007559304274
 20
465.9759083163951
 30
0.0
 11
192.7007559304274
 21
485.1629861408272
 31
0.0
  0
LINE
  5
4E1
330
4DE
100
AcDbEntity
  8
0
 62
   123
100
AcDbLine
 10
182.2007559304274
 20
484.5629861408272
 30
0.0
 11
190.2007559304274
 21
484.5629861408272
 31
0.0
  0
SOLID
  5
4E2
330
4DE
100
AcDbEntity
  8
0
 62
   123
100
AcDbTrace
 10
182.2007559304274
 20
484.9796528074938
 30
0.0
 11
182.2007559304274
 21
484.1463194741605
 31
0.0
 12
179.7007559304274
 22
484.5629861408272
 32
0.0
 13
179.7007559304274
 23
484.5629861408272
 33
0.0
  0
SOLID
  5
4E3
330
4DE
100
AcDbEntity
  8
0
 62
   123
100
AcDbTrace
 10
190.2007559304274
 20
484.9796528074938
 30
0.0
 11
190.2007559304274
 21
484.1463194741605
 31
0.0
 12
192.7007559304274
 22
484.5629861408272
 32
0.0
 13
192.7007559304274
 23
484.5629861408272
 33
0.0
  0
MTEXT
  5
4E4
330
4DE
100
AcDbEntity
  8
0
 62
     3
100
AcDbMText
 10
186.2007559304256
 20
487.0629861408271
 30
0.0
 40
3.0
 41
0.0
 71
     5
 72
     1
  1
\A1;13
1001
ACAD
1000
MTEXTBEGIN
1070
    73
1070
     1
1070
    44
1040
1.0
1070
    74
1070
     0
1000
MTEXTEND
  0
POINT
  5
4E5
330
4DE
100
AcDbEntity
  8
DEFPOINTS
 62
     0
100
AcDbPoint
 10
179.7007559304274
 20
432.815408316394
 30
0.0
  0
POINT
  5
4E6
330
4DE
100
AcDbEntity
  8
DEFPOINTS
 62
     0
100
AcDbPoint
 10
192.7007559304274
 20
464.9759083163951
 30
0.0
  0
POINT
  5
4E7
330
4DE
100
AcDbEntity
  8
DEFPOINTS
 62
     0
100
AcDbPoint
 10
192.7007559304274
 20
484.5629861408272
 30
0.0
  0
ENDBLK
  5
4E9
330
4DE
100
AcDbEntity
  8
0
100
AcDbBlockEnd
  0
BLOCK
  5
4F6
330
4EA
100
AcDbEntity
  8
0
100
AcDbBlockBegin
  2
*D60
 70
     1
 10
0.0
 20
0.0
 30
0.0
  3
*D60
  1

  0
LINE
  5
4EB
330
4EA
100
AcDbEntity
  8
0
 62
   123
100
AcDbLine
 10
190.7007559304256
 20
462.9759083163942
 30
0.0
 11
190.7007559304256
 21
475.0367774628722
 31
0.0
  0
LINE
  5
4EC
330
4EA
100
AcDbEntity
  8
0
 62
   123
100
AcDbLine
 10
192.7007559304274
 20
465.9759083163942
 30
0.0
 11
192.7007559304274
 21
475.0367774628722
 31
0.0
  0
LINE
  5
4ED
330
4EA
100
AcDbEntity
  8
0
 62
   123
100
AcDbLine
 10
195.2007559304274
 20
474.4367774628722
 30
0.0
 11
197.7007559304274
 21
474.4367774628722
 31
0.0
  0
LINE
  5
4EE
330
4EA
100
AcDbEntity
  8
0
 62
   123
100
AcDbLine
 10
188.2007559304256
 20
474.4367774628722
 30
0.0
 11
181.7007559304256
 21
474.4367774628722
 31
0.0
  0
LINE
  5
4EF
330
4EA
100
AcDbEntity
  8
0
 62
   123
100
AcDbLine
 10
192.7007559304274
 20
474.4367774628722
 30
0.0
 11
190.7007559304256
 21
474.4367774628722
 31
0.0
  0
SOLID
  5
4F0
330
4EA
100
AcDbEntity
  8
0
 62
   123
100
AcDbTrace
 10
195.2007559304274
 20
474.8534441295388
 30
0.0
 11
195.2007559304274
 21
474.0201107962055
 31
0.0
 12
192.7007559304274
 22
474.4367774628722
 32
0.0
 13
192.7007559304274
 23
474.4367774628722
 33
0.0
  0
SOLID
  5
4F1
330
4EA
100
AcDbEntity
  8
0
 62
   123
100
AcDbTrace
 10
188.2007559304256
 20
474.8534441295388
 30
0.0
 11
188.2007559304256
 21
474.0201107962055
 31
0.0
 12
190.7007559304256
 22
474.4367774628722
 32
0.0
 13
190.7007559304256
 23
474.4367774628722
 33
0.0
  0
MTEXT
  5
4F2
330
4EA
100
AcDbEntity
  8
0
 62
     3
100
AcDbMText
 10
183.7007559304256
 20
476.9367774628721
 30
0.0
 40
3.0
 41
0.0
 71
     5
 72
     1
  1
\A1;2
1001
ACAD
1000
MTEXTBEGIN
1070
    73
1070
     1
1070
    44
1040
1.0
1070
    74
1070
     0
1000
MTEXTEND
  0
POINT
  5
4F3
330
4EA
100
AcDbEntity
  8
DEFPOINTS
 62
     0
100
AcDbPoint
 10
190.7007559304256
 20
461.9759083163942
 30
0.0
  0
POINT
  5
4F4
330
4EA
100
AcDbEntity
  8
DEFPOINTS
 62
     0
100
AcDbPoint
 10
192.7007559304274
 20
464.9759083163941
 30
0.0
  0
POINT
  5
4F5
330
4EA
100
AcDbEntity
  8
DEFPOINTS
 62
     0
100
AcDbPoint
 10
192.7007559304274
 20
474.4367774628722
 30
0.0
  0
ENDBLK
  5
4F7
330
4EA
100
AcDbEntity
  8
0
100
AcDbBlockEnd
  0
BLOCK
  5
502
330
4F8
100
AcDbEntity
  8
0
100
AcDbBlockBegin
  2
*D61
 70
     1
 10
0.0
 20
0.0
 30
0.0
  3
*D61
  1

  0
LINE
  5
4F9
330
4F8
100
AcDbEntity
  8
0
 62
   123
100
AcDbLine
 10
192.7007559304274
 20
465.9759083163951
 30
0.0
 11
192.7007559304274
 21
485.1629861408272
 31
0.0
  0
LINE
  5
4FA
330
4F8
100
AcDbEntity
  8
0
 62
   123
100
AcDbLine
 10
222.7007559304274
 20
465.9759083163951
 30
0.0
 11
222.7007559304274
 21
485.1629861408272
 31
0.0
  0
LINE
  5
4FB
330
4F8
100
AcDbEntity
  8
0
 62
   123
100
AcDbLine
 10
195.2007559304274
 20
484.5629861408272
 30
0.0
 11
220.2007559304274
 21
484.5629861408272
 31
0.0
  0
SOLID
  5
4FC
330
4F8
100
AcDbEntity
  8
0
 62
   123
100
AcDbTrace
 10
195.2007559304274
 20
484.9796528074938
 30
0.0
 11
195.2007559304274
 21
484.1463194741605
 31
0.0
 12
192.7007559304274
 22
484.5629861408272
 32
0.0
 13
192.7007559304274
 23
484.5629861408272
 33
0.0
  0
SOLID
  5
4FD
330
4F8
100
AcDbEntity
  8
0
 62
   123
100
AcDbTrace
 10
220.2007559304274
 20
484.9796528074938
 30
0.0
 11
220.2007559304274
 21
484.1463194741605
 31
0.0
 12
222.7007559304274
 22
484.5629861408272
 32
0.0
 13
222.7007559304274
 23
484.5629861408272
 33
0.0
  0
MTEXT
  5
4FE
330
4F8
100
AcDbEntity
  8
0
 62
     3
100
AcDbMText
 10
207.7007559304274
 20
487.0629861408271
 30
0.0
 40
3.0
 41
0.0
 71
     5
 72
     1
  1
\A1;30
1001
ACAD
1000
MTEXTBEGIN
1070
    73
1070
     1
1070
    44
1040
1.0
1070
    74
1070
     0
1000
MTEXTEND
  0
POINT
  5
4FF
330
4F8
100
AcDbEntity
  8
DEFPOINTS
 62
     0
100
AcDbPoint
 10
192.7007559304274
 20
464.9759083163951
 30
0.0
  0
POINT
  5
500
330
4F8
100
AcDbEntity
  8
DEFPOINTS
 62
     0
100
AcDbPoint
 10
222.7007559304274
 20
464.9759083163951
 30
0.0
  0
POINT
  5
501
330
4F8
100
AcDbEntity
  8
DEFPOINTS
 62
     0
100
AcDbPoint
 10
222.7007559304274
 20
484.5629861408272
 30
0.0
  0
ENDBLK
  5
503
330
4F8
100
AcDbEntity
  8
0
100
AcDbBlockEnd
  0
ENDSEC
  0
SECTION
  2
ENTITIES
  0
ARC
  5
9D
330
2
100
AcDbEntity
  8
0
 48
0.6
100
AcDbCircle
 10
131.1393939281843
 20
399.975908316394
 30
0.0
 40
5.0
100
AcDbArc
 50
270.0
 51
0.0
  0
LINE
  5
9E
330
2
100
AcDbEntity
  8
0
100
AcDbLine
 10
192.7007559304274
 20
464.9759083163951
 30
0.0
 11
192.7007559304274
 21
394.9759083163939
 31
0.0
  0
ARC
  5
9F
330
2
100
AcDbEntity
  8
0
 48
0.6
100
AcDbCircle
 10
71.13939392818429
 20
399.975908316394
 30
0.0
 40
5.0
100
AcDbArc
 50
180.0
 51
270.0
  0
LINE
  5
A0
330
2
100
AcDbEntity
  8
CEN
 48
0.6
100
AcDbLine
 10
101.1393939281842
 20
388.7546017575641
 30
0.0
 11
101.1393939281842
 21
471.1972148752231
 31
0.0
  0
INSERT
  5
A3
330
2
100
AcDbEntity
  8
0
100
AcDbBlockReference
  2
3
 10
101.1393939281879
 20
429.9759083163981
 30
0.0
  0
LINE
  5
C3
330
2
100
AcDbEntity
  8
0
100
AcDbLine
 10
222.7007559304274
 20
464.9759083163951
 30
0.0
 11
222.7007559304274
 21
394.9759083163939
 31
0.0
  0
LEADER
  5
C4
330
2
100
AcDbEntity
  8
0
 48
0.6
100
AcDbLeader
  3
STANDARD
 76
     2
 10
289.2688785570335
 20
55.83238055077027
 30
0.0
 10
257.6360064408909
 20
29.88951046211332
 30
0.0
1001
ACAD
1000
DSTYLE
1002
{
1070
     5
1000

1070
    77
1070
     1
1070
   147
1040
1.0
1070
   342
1005
0
1002
}
  0
LEADER
  5
C5
330
2
100
AcDbEntity
  8
0
100
AcDbLeader
  3
STANDARD
 76
     2
 10
204.3649953516342
 20
57.52292017431227
 30
0.0
 10
189.8894876238882
 20
16.2495269035362
 30
0.0
1001
ACAD
1000
DSTYLE
1002
{
1070
     5
1000

1070
    77
1070
     1
1070
   147
1040
1.0
1070
   342
1005
0
1002
}
  0
MTEXT
  5
C6
330
2
100
AcDbEntity
  8
DIM
100
AcDbMText
 10
299.5793481593318
 20
33.84819407824489
 30
0.0
 40
3.5
 41
0.0
 71
     5
 72
     1
  1
BRAKE LEAD 300mm
1001
ACAD
1000
MTEXTBEGIN
1070
    73
1070
     1
1070
    44
1040
1.0
1070
    74
1070
     0
1000
MTEXTEND
  0
LINE
  5
C8
330
2
100
AcDbEntity
  8
0
 62
   123
 48
0.6
100
AcDbLine
 10
257.6360064408909
 20
29.88951046211423
 30
0.0
 11
330.6937081155447
 21
29.88951046211423
 31
0.0
  0
MTEXT
  5
C9
330
2
100
AcDbEntity
  8
DIM
100
AcDbMText
 10
300.3968068283902
 20
25.69306809494446
 30
0.0
 40
3.5
 41
0.0
 71
     5
 72
     1
  1
UL Style 3266 , AWG22
1001
ACAD
1000
MTEXTBEGIN
1070
    73
1070
     1
1070
    44
1040
1.0
1070
    74
1070
     0
1000
MTEXTEND
  0
MTEXT
  5
CA
330
2
100
AcDbEntity
  8
DIM
100
AcDbMText
 10
228.1611604173704
 20
11.21126871275009
 30
0.0
 40
3.5
 41
0.0
 71
     5
 72
     1
  1
UL Style 3271 , AWG20
1001
ACAD
1000
MTEXTBEGIN
1070
    73
1070
     1
1070
    44
1040
1.0
1070
    74
1070
     0
1000
MTEXTEND
  0
MTEXT
  5
CB
330
2
100
AcDbEntity
  8
DIM
100
AcDbMText
 10
227.930285531449
 20
19.75211027445629
 30
0.0
 40
3.5
 41
0.0
 71
     5
 72
     1
  1
MOTOR LEAD 300mm
1001
ACAD
1000
MTEXTBEGIN
1070
    73
1070
     1
1070
    44
1040
1.0
1070
    74
1070
     0
1000
MTEXTEND
  0
LINE
  5
CC
330
2
100
AcDbEntity
  8
0
 62
   123
100
AcDbLine
 10
189.8894876238882
 20
16.2495269035362
 30
0.0
 11
262.3854848618466
 21
16.2495269035362
 31
0.0
  0
LINE
  5
CD
330
2
100
AcDbEntity
  8
1
  6
BYBLOCK
 62
     0
100
AcDbLine
 10
305.6961867410573
 20
224.9656809017983
 30
0.0
 11
305.6961867410573
 21
197.4256809017974
 31
0.0
  0
LINE
  5
CF
330
2
100
AcDbEntity
  8
1
  6
BYBLOCK
 62
     0
100
AcDbLine
 10
216.7592396749423
 20
224.9656809017983
 30
0.0
 11
216.7592396749423
 21
197.4256809017974
 31
0.0
  0
LINE
  5
D0
330
2
100
AcDbEntity
  8
1
  6
BYBLOCK
 62
     0
100
AcDbLine
 10
192.942456477016
 20
224.9656809017983
 30
0.0
 11
192.942456477016
 21
197.4256809017974
 31
0.0
  0
TEXT
  5
D1
330
2
100
AcDbEntity
  8
1
  6
BYBLOCK
 62
     0
100
AcDbText
 10
200.5035816373929
 20
217.9544936277693
 30
0.0
 40
4.589999999999998
  1
NO.
 41
0.8
  7
GHS
100
AcDbText
  0
DIMENSION
  5
D3
330
2
100
AcDbEntity
  8
0
100
AcDbDimension
  2
*D33
 10
74.92324596007168
 20
201.7255548450634
 30
0.0
 11
74.92324596007165
 21
216.575016639154
 31
0.0
 70
   160
  1
\A1;<>{\f??|b0|i0|c0|p49;\H0.7x;\S+0^ -0.03;}
  3
STANDARD
100
AcDbAlignedDimension
 13
66.75419080460779
 23
197.7255548450634
 33
0.0
 14
66.75419080460779
 24
201.7255548450634
 34
0.0
 50
90.0
100
AcDbRotatedDimension
  0
LINE
  5
E2
330
2
100
AcDbEntity
  8
1
  6
BYBLOCK
 62
     0
100
AcDbLine
 10
246.4522736605322
 20
224.9656809017983
 30
0.0
 11
246.4522736605322
 21
197.4256809017974
 31
0.0
  0
TEXT
  5
E3
330
2
100
AcDbEntity
  8
1
  6
BYBLOCK
 62
     0
100
AcDbText
 10
228.3310897319624
 20
217.7862957148254
 30
0.0
 40
4.589999999999998
  1
L
 41
0.8
  7
GHS
100
AcDbText
  0
TEXT
  5
E4
330
2
100
AcDbEntity
  8
1
  6
BYBLOCK
 62
     0
100
AcDbText
 10
249.2384655505757
 20
217.7999642939121
 30
0.0
 40
4.589999999999998
  1
APPLICATION MODEL
 41
0.8
  7
GHS
100
AcDbText
  0
DIMENSION
  5
E5
102
{ACAD_XDICTIONARY
360
E6
102
}
102
{ACAD_REACTORS
330
E7
102
}
330
2
100
AcDbEntity
  8
0
100
AcDbDimension
  2
*D32
 10
148.3555563260488
 20
203.1252595580663
 30
0.0
 11
148.3555563260488
 21
219.3324024152102
 31
0.0
 70
   160
  1
\A1;<>{\f??|b0|i0|c0|p49;\H0.7x;\S+0.1^ -0;\H1.429x; }
  3
STANDARD
100
AcDbAlignedDimension
 13
132.8582238318686
 23
200.6252595580672
 33
0.0
 14
130.8582238318649
 24
203.1252595580663
 34
0.0
 50
90.0
100
AcDbRotatedDimension
  0
LINE
  5
F6
330
2
100
AcDbEntity
  8
CEN
  6
CENTER
 48
0.6
100
AcDbLine
 10
314.9109321118048
 20
106.1050515084652
 30
0.0
 11
132.8079094926488
 21
106.1050515084652
 31
0.0
  0
DIMENSION
  5
F7
330
2
100
AcDbEntity
  8
0
100
AcDbDimension
  2
*D34
 10
310.1841897136801
 20
163.8909873290604
 30
0.0
 11
250.1841897136801
 21
163.8909873290604
 31
0.0
 70
   160
  3
STANDARD
100
AcDbAlignedDimension
 13
190.1841897136801
 23
141.1050515084653
 33
0.0
 14
310.1841897136801
 24
136.6050515084652
 34
0.0
100
AcDbRotatedDimension
  0
LINE
  5
104
330
2
100
AcDbEntity
  8
0
100
AcDbLine
 10
305.18418971368
 20
141.1050515084671
 30
0.0
 11
196.2841897136786
 21
141.1050515084671
 31
0.0
  0
LINE
  5
105
330
2
100
AcDbEntity
  8
0
100
AcDbLine
 10
305.18418971368
 20
71.10505150846711
 30
0.0
 11
196.2841897136786
 21
71.10505150846711
 31
0.0
  0
TEXT
  5
106
330
2
100
AcDbEntity
  8
1
  6
BYBLOCK
 62
     0
100
AcDbText
 10
254.9549085062772
 20
209.2209173788041
 30
0.0
 40
4.589999999999998
  1
K7G3~18B(C)
 41
0.8
  7
GHS
100
AcDbText
  0
TEXT
  5
107
330
2
100
AcDbEntity
  8
1
  6
BYBLOCK
 62
     0
100
AcDbText
 10
253.0829928937691
 20
200.0409173788034
 30
0.0
 40
4.589999999999998
  1
K7G25~180B(C)
 41
0.8
  7
GHS
100
AcDbText
  0
LINE
  5
108
330
2
100
AcDbEntity
  8
1
  6
BYBLOCK
 62
     0
100
AcDbLine
 10
305.6961867410573
 20
206.6056809017982
 30
0.0
 11
192.942456477016
 21
206.6056809017982
 31
0.0
  0
LINE
  5
109
330
2
100
AcDbEntity
  8
1
  6
BYBLOCK
 62
     0
100
AcDbLine
 10
305.6961867410573
 20
215.785680901798
 30
0.0
 11
192.942456477016
 21
215.785680901798
 31
0.0
  0
LINE
  5
10A
330
2
100
AcDbEntity
  8
1
  6
BYBLOCK
 62
     0
100
AcDbLine
 10
305.6961867410573
 20
197.4256809017974
 30
0.0
 11
192.942456477016
 21
197.4256809017974
 31
0.0
  0
ARC
  5
10B
330
2
100
AcDbEntity
  8
0
100
AcDbCircle
 10
61.25779578066977
 20
52.70979015700596
 30
0.0
 40
0.7499080000000001
100
AcDbArc
 50
272.0129819999954
 51
32.18451000000101
  0
ARC
  5
10C
330
2
100
AcDbEntity
  8
0
100
AcDbCircle
 10
62.52714678067423
 20
53.50866315700523
 30
0.0
 40
0.7499080000000001
100
AcDbArc
 50
92.01298199999559
 51
212.184510000001
  0
ARC
  5
10D
330
2
100
AcDbEntity
  8
0
100
AcDbCircle
 10
56.74252978067307
 20
53.99112815700437
 30
0.0
 40
0.7499080000000001
100
AcDbArc
 50
265.1628950000044
 51
25.33442299999946
  0
ARC
  5
10E
330
2
100
AcDbEntity
  8
0
100
AcDbCircle
 10
58.0981027806738
 20
54.63290115700511
 30
0.0
 40
0.7499080000000001
100
AcDbArc
 50
85.16289500000455
 51
205.3344229999993
  0
ARC
  5
10F
330
2
100
AcDbEntity
  8
0
100
AcDbCircle
 10
58.78854678067364
 20
55.74385615700521
 30
0.0
 40
0.7499080000000001
100
AcDbArc
 50
265.1628950000044
 51
25.33442299999946
  0
ARC
  5
110
330
2
100
AcDbEntity
  8
0
100
AcDbCircle
 10
78.99872378067448
 20
85.41560415700496
 30
0.0
 40
37.855792
100
AcDbArc
 50
235.2486590000054
 51
242.0987460000029
  0
ARC
  5
111
330
2
100
AcDbEntity
  8
0
100
AcDbCircle
 10
60.14411878067403
 20
56.38562815700516
 30
0.0
 40
0.7499080000000001
100
AcDbArc
 50
85.16289500000455
 51
205.3344229999993
  0
ARC
  5
112
330
2
100
AcDbEntity
  8
0
100
AcDbCircle
 10
78.99872378067448
 20
85.41560415700496
 30
0.0
 40
35.255792
100
AcDbArc
 50
236.3564240000014
 51
242.0987460000029
  0
DIMENSION
  5
113
102
{ACAD_XDICTIONARY
360
114
102
}
102
{ACAD_REACTORS
330
115
102
}
330
2
100
AcDbEntity
  8
0
100
AcDbDimension
  2
*D47
 10
148.1841897136801
 20
163.8909873290604
 30
0.0
 11
132.1841897136801
 21
163.8909873290604
 31
0.0
 70
   160
  3
STANDARD
100
AcDbAlignedDimension
 13
116.18418971368
 23
126.1050515084652
 33
0.0
 14
148.1841897136801
 24
140.6050515084652
 34
0.0
100
AcDbRotatedDimension
  0
DIMENSION
  5
122
102
{ACAD_XDICTIONARY
360
123
102
}
102
{ACAD_REACTORS
330
124
102
}
330
2
100
AcDbEntity
  8
0
100
AcDbDimension
  2
*D46
 10
116.18418971368
 20
142.3253397153662
 30
0.0
 11
128.9951203810796
 21
142.3253397153662
 31
0.0
 70
   160
  3
STANDARD
100
AcDbAlignedDimension
 13
141.1841897136801
 23
126.1050515084652
 33
0.0
 14
116.18418971368
 24
126.1050515084643
 34
0.0
 50
180.0
100
AcDbRotatedDimension
  0
LINE
  5
131
102
{ACAD_REACTORS
330
13A
102
}
330
2
100
AcDbEntity
  8
0
100
AcDbLine
 10
145.1841897136801
 20
135.6050515084652
 30
0.0
 11
145.1841897136801
 21
106.6050515084652
 31
0.0
  0
LINE
  5
132
102
{ACAD_REACTORS
330
18C
102
}
330
2
100
AcDbEntity
  8
CEN
 48
0.6
100
AcDbLine
 10
159.7599369053478
 20
121.1050515084652
 30
0.0
 11
112.286050912453
 21
121.1050515084652
 31
0.0
  0
LINE
  5
133
102
{ACAD_REACTORS
330
18C
102
}
330
2
100
AcDbEntity
  8
CEN
  6
BYBLOCK
 62
     0
100
AcDbLine
 10
145.1841897136801
 20
116.1050515084653
 30
0.0
 11
116.18418971368
 21
116.1050515084653
 31
0.0
  0
LINE
  5
134
102
{ACAD_REACTORS
330
18C
330
124
330
14E
330
115
102
}
330
2
100
AcDbEntity
  8
CEN
  6
BYBLOCK
 62
     0
100
AcDbLine
 10
145.1841897136801
 20
126.1050515084652
 30
0.0
 11
116.18418971368
 21
126.1050515084652
 31
0.0
  0
LINE
  5
135
102
{ACAD_REACTORS
330
18C
102
}
330
2
100
AcDbEntity
  8
CEN
  6
HIDDEN
 62
     2
100
AcDbLine
 10
141.1841897136801
 20
123.6050515084653
 30
0.0
 11
116.18418971368
 21
123.6050515084653
 31
0.0
  0
LINE
  5
137
102
{ACAD_REACTORS
330
124
102
}
330
2
100
AcDbEntity
  8
0
  6
HIDDEN
 62
     2
100
AcDbLine
 10
141.1841897136801
 20
126.1050515084652
 30
0.0
 11
141.1841897136801
 21
123.6050515084653
 31
0.0
  0
DIMENSION
  5
138
102
{ACAD_XDICTIONARY
360
139
102
}
102
{ACAD_REACTORS
330
13A
102
}
330
2
100
AcDbEntity
  8
0
100
AcDbDimension
  2
*D45
 10
145.1841897136801
 20
152.367082136493
 30
0.0
 11
146.68418971368
 21
152.367082136493
 31
0.0
 70
   160
  3
STANDARD
100
AcDbAlignedDimension
 13
148.1841897136801
 23
140.6050515084652
 33
0.0
 14
145.1841897136801
 24
135.6050515084652
 34
0.0
 50
180.0
100
AcDbRotatedDimension
  0
ARC
  5
149
330
2
100
AcDbEntity
  8
0
100
AcDbCircle
 10
148.68418971368
 20
140.6050515084652
 30
0.0
 40
0.5
100
AcDbArc
 50
90.0
 51
180.0
  0
ARC
  5
14A
330
2
100
AcDbEntity
  8
0
100
AcDbCircle
 10
145.68418971368
 20
135.6050515084652
 30
0.0
 40
0.5
100
AcDbArc
 50
90.0
 51
180.0
  0
LINE
  5
14B
330
2
100
AcDbEntity
  8
0
100
AcDbLine
 10
145.68418971368
 20
136.1050515084653
 30
0.0
 11
148.1841897136801
 21
136.1050515084653
 31
0.0
  0
DIMENSION
  5
14C
102
{ACAD_XDICTIONARY
360
14D
102
}
102
{ACAD_REACTORS
330
14E
102
}
330
2
100
AcDbEntity
  8
0
100
AcDbDimension
  2
*D44
 10
101.3595264247051
 20
126.1050515084652
 30
0.0
 11
101.3595264247051
 21
152.1175225930624
 31
0.0
 70
   160
  1
\A1;{\f??|b0|i0|c0|p49;%%C10\H0.7x;\S+0^ -0.015;\H1.429x;(h7)}
  3
STANDARD
100
AcDbAlignedDimension
 13
116.18418971368
 23
116.1050515084653
 33
0.0
 14
116.18418971368
 24
126.1050515084652
 34
0.0
 50
90.0
100
AcDbRotatedDimension
  0
LINE
  5
15D
102
{ACAD_REACTORS
330
14E
102
}
330
2
100
AcDbEntity
  8
0
100
AcDbLine
 10
116.18418971368
 20
126.1050515084652
 30
0.0
 11
116.18418971368
 21
116.1050515084653
 31
0.0
  0
ARC
  5
15E
330
2
100
AcDbEntity
  8
0
100
AcDbCircle
 10
145.68418971368
 20
106.6050515084652
 30
0.0
 40
0.5
100
AcDbArc
 50
180.0
 51
270.0
  0
LINE
  5
15F
330
2
100
AcDbEntity
  8
0
100
AcDbLine
 10
145.68418971368
 20
106.1050515084652
 30
0.0
 11
148.1841897136801
 21
106.1050515084652
 31
0.0
  0
LWPOLYLINE
  5
160
330
2
100
AcDbEntity
  8
3
100
AcDbPolyline
 90
        4
 70
     1
 43
0.0
 10
23.87806072950843
 20
154.350586754711
 10
27.1780607295077
 20
154.350586754711
 10
27.1780607295077
 20
157.8505867547123
 10
23.87806072950843
 20
157.8505867547123
  0
ARC
  5
162
102
{ACAD_REACTORS
330
168
102
}
330
2
100
AcDbEntity
  8
0
 48
0.6
100
AcDbCircle
 10
0.8263241424283478
 20
136.1050515084653
 30
0.0
 40
5.0
100
AcDbArc
 50
90.0
 51
180.0
  0
LINE
  5
163
330
2
100
AcDbEntity
  8
0
 48
0.6
100
AcDbLine
 10
0.8263241424283478
 20
141.1050515084653
 30
0.0
 11
60.82632414242652
 21
141.1050515084653
 31
0.0
  0
LINE
  5
164
330
2
100
AcDbEntity
  8
CEN
  6
CENTER
 48
0.6
100
AcDbLine
 10
-11.26892556103121
 20
106.1050515084612
 30
0.0
 11
72.92157384588972
 21
106.1050515084612
 31
0.0
  0
ARC
  5
165
102
{ACAD_REACTORS
330
168
102
}
330
2
100
AcDbEntity
  8
0
 48
0.6
100
AcDbCircle
 10
60.82632414242652
 20
136.1050515084653
 30
0.0
 40
5.0
100
AcDbArc
 50
0.0
 51
90.0
  0
DIMENSION
  5
166
102
{ACAD_XDICTIONARY
360
167
102
}
102
{ACAD_REACTORS
330
168
102
}
330
2
100
AcDbEntity
  8
0
100
AcDbDimension
  2
*D43
 10
65.82632414242834
 20
153.6728466343711
 30
0.0
 11
30.82632414242652
 21
153.6728466343711
 31
0.0
 70
   160
  3
STANDARD
100
AcDbAlignedDimension
 13
-4.173675857571652
 23
136.1050515084653
 33
0.0
 14
65.82632414242834
 24
136.1050515084653
 34
0.0
100
AcDbRotatedDimension
  0
CIRCLE
  5
175
330
2
100
AcDbEntity
  8
0
100
AcDbCircle
 10
30.82632414243198
 20
121.1050515084612
 30
0.0
 40
15.0
  0
LINE
  5
176
330
2
100
AcDbEntity
  8
0
 62
     0
100
AcDbLine
 10
32.82632414243198
 20
125.6876272034173
 30
0.0
 11
32.82632414243198
 21
123.6050515084611
 31
0.0
  0
LINE
  5
177
330
2
100
AcDbEntity
  8
0
100
AcDbLine
 10
28.82632414243198
 20
123.6050515084611
 30
0.0
 11
32.82632414243198
 21
123.6050515084611
 31
0.0
  0
LINE
  5
178
330
2
100
AcDbEntity
  8
CEN
 48
0.6
100
AcDbLine
 10
14.15063674622069
 20
121.1050515084612
 30
0.0
 11
47.50201153862872
 21
121.1050515084612
 31
0.0
  0
CIRCLE
  5
179
330
2
100
AcDbEntity
  8
0
100
AcDbCircle
 10
30.82632414243198
 20
121.1050515084612
 30
0.0
 40
5.0
  0
LINE
  5
17A
330
2
100
AcDbEntity
  8
0
 62
     0
100
AcDbLine
 10
28.82632414243198
 20
125.6876272034173
 30
0.0
 11
28.82632414243198
 21
123.6050515084611
 31
0.0
  0
LEADER
  5
17B
330
2
100
AcDbEntity
  8
0
100
AcDbLeader
  3
STANDARD
 73
     0
 75
     1
 40
3.0
 41
26.65178571428571
 76
     3
 10
59.86198992947175
 20
137.3022208900274
 30
0.0
 10
54.86067277074835
 20
162.7320744104699
 30
0.0
 10
52.36067277074835
 20
162.7320744104699
 30
0.0
340
17C
1001
ACAD
1000
DSTYLE
1002
{
1070
     5
1000

1070
    77
1070
     1
1070
   147
1040
1.0
1070
   342
1005
0
1002
}
  0
MTEXT
  5
17C
102
{ACAD_REACTORS
330
17B
102
}
330
2
100
AcDbEntity
  8
0
 62
     3
100
AcDbMText
 10
51.36067277074835
 20
163.7320744104699
 30
0.0
 40
3.0
 41
0.0
 71
     9
 72
     1
  1
4-%%c4.5 hole
1001
ACAD
1000
MTEXTBEGIN
1070
    73
1070
     1
1070
    44
1040
1.0
1070
    74
1070
     0
1000
MTEXTEND
  0
DIMENSION
  5
17D
330
2
100
AcDbEntity
  8
0
100
AcDbDimension
  2
*D42
 10
87.17392230445694
 20
106.1050515084644
 30
0.0
 11
87.17392230445694
 21
120.8550515084652
 31
0.0
 70
   160
  1
{\f??|b0|i0|c0|p49;%%c}<>
  3
STANDARD
100
AcDbAlignedDimension
 13
145.9341897136801
 23
136.1050515084653
 33
0.0
 14
132.8244714683787
 24
106.1050515084643
 34
0.0
 50
90.0
100
AcDbRotatedDimension
  0
DIMENSION
  5
18A
102
{ACAD_XDICTIONARY
360
18B
102
}
102
{ACAD_REACTORS
330
18C
102
}
330
2
100
AcDbEntity
  8
0
100
AcDbDimension
  2
*D41
 10
94.74120809580927
 20
106.1050515084644
 30
0.0
 11
92.24120809580924
 21
113.6050515084648
 31
0.0
 70
    32
  3
STANDARD
100
AcDbAlignedDimension
 13
112.286050912453
 23
121.1050515084652
 33
0.0
 14
132.8244714683787
 24
106.1050515084643
 34
0.0
 50
90.0
100
AcDbRotatedDimension
  0
ARC
  5
199
330
2
100
AcDbEntity
  8
0
100
AcDbCircle
 10
148.68418971368
 20
71.60505150846529
 30
0.0
 40
0.5
100
AcDbArc
 50
180.0
 51
270.0
  0
LINE
  5
19A
330
2
100
AcDbEntity
  8
0
 48
0.6
100
AcDbLine
 10
48.20580424970649
 20
71.10505150846529
 30
0.0
 11
42.4647540231781
 21
71.10505150846529
 31
0.0
  0
ARC
  5
19B
330
2
100
AcDbEntity
  8
0
100
AcDbCircle
 10
78.99872378067448
 20
85.41560415700496
 30
0.0
 40
36.555792
100
AcDbArc
 50
203.0460947298108
 51
236.3176429999981
  0
ARC
  5
19C
330
2
100
AcDbEntity
  8
0
100
AcDbCircle
 10
78.99872378067448
 20
85.41560415700496
 30
0.0
 40
39.15579199999999
100
AcDbArc
 50
201.4369589999971
 51
235.2486590000054
  0
ARC
  5
19D
330
2
100
AcDbEntity
  8
0
 48
0.6
100
AcDbCircle
 10
78.99872378067448
 20
85.41560415700496
 30
0.0
 40
33.95579199999999
100
AcDbArc
 50
204.9259499999998
 51
236.3981230000006
  0
ARC
  5
19E
330
2
100
AcDbEntity
  8
0
 48
0.6
100
AcDbCircle
 10
0.8263241424283478
 20
76.10505150846529
 30
0.0
 40
5.0
100
AcDbArc
 50
180.0
 51
270.0
  0
LINE
  5
19F
330
2
100
AcDbEntity
  8
0
 48
0.6
100
AcDbLine
 10
0.8263241424283478
 20
71.10505150846529
 30
0.0
 11
60.82632414242652
 21
71.10505150846529
 31
0.0
  0
ARC
  5
1A0
330
2
100
AcDbEntity
  8
0
 48
0.6
100
AcDbCircle
 10
60.82632414242652
 20
76.10505150846529
 30
0.0
 40
5.0
100
AcDbArc
 50
270.0
 51
0.0
  0
LINE
  5
1A1
330
2
100
AcDbEntity
  8
0
 48
0.6
100
AcDbLine
 10
65.82632414242834
 20
136.1050515084653
 30
0.0
 11
65.82632414242834
 21
76.10505150846529
 31
0.0
  0
LINE
  5
1A2
102
{ACAD_REACTORS
330
1AE
102
}
330
2
100
AcDbEntity
  8
CEN
  6
CENTER
 48
0.6
100
AcDbLine
 10
30.82632414242471
 20
64.05733850426122
 30
0.0
 11
30.82632414242471
 21
148.1527645126611
 31
0.0
  0
LINE
  5
1A3
330
2
100
AcDbEntity
  8
0
 48
0.6
100
AcDbLine
 10
-4.173675857571652
 20
136.1050515084653
 30
0.0
 11
-4.173675857571652
 21
76.10505150846529
 31
0.0
  0
LINE
  5
1A4
102
{ACAD_REACTORS
330
1AE
102
}
330
2
100
AcDbEntity
  8
CEN
  6
CENTER
 62
     1
 48
0.6
100
AcDbLine
 10
30.82632414243198
 20
106.1050515084652
 30
0.0
 11
45.32379882548775
 21
71.10505150846529
 31
0.0
  0
CIRCLE
  5
1A5
330
2
100
AcDbEntity
  8
0
100
AcDbCircle
 10
30.82632414243198
 20
106.1050515084652
 30
0.0
 40
32.0
  0
INSERT
  5
1A6
330
2
100
AcDbEntity
  8
0
100
AcDbBlockReference
  2
3
 10
30.82632414242471
 20
106.1050515084821
 30
0.0
  0
LINE
  5
1A7
102
{ACAD_REACTORS
330
13A
330
1D6
330
115
102
}
330
2
100
AcDbEntity
  8
0
100
AcDbLine
 10
148.1841897136801
 20
140.6050515084652
 30
0.0
 11
148.1841897136801
 21
71.60505150846529
 31
0.0
  0
LINE
  5
1A8
330
2
100
AcDbEntity
  8
2
 62
     7
100
AcDbLine
 10
145.1841897136801
 20
106.6050515084652
 30
0.0
 11
145.1841897136801
 21
108.1050515084652
 31
0.0
  0
LINE
  5
1AA
330
2
100
AcDbEntity
  8
2
 62
     7
100
AcDbLine
 10
148.1841897136801
 20
106.1050515084652
 30
0.0
 11
145.68418971368
 21
106.1050515084652
 31
0.0
  0
ARC
  5
1AB
330
2
100
AcDbEntity
  8
2
 62
     7
100
AcDbCircle
 10
145.68418971368
 20
106.6050515084652
 30
0.0
 40
0.4999999999999967
100
AcDbArc
 50
180.0
 51
270.0
  0
DIMENSION
  5
1AC
102
{ACAD_XDICTIONARY
360
1AD
102
}
102
{ACAD_REACTORS
330
1AE
102
}
330
2
100
AcDbEntity
  8
0
100
AcDbDimension
  2
*D40
 10
30.82632414242471
 20
148.1527645126611
 30
0.0
 11
41.92325384247962
 21
50.31701858604347
 31
0.0
 70
    34
  3
STANDARD
100
AcDb2LineAngularDimension
 13
30.82632414243198
 23
106.1050515084652
 33
0.0
 14
45.32379882548775
 24
71.10505150846529
 34
0.0
 15
30.82632414242471
 25
64.05733850426122
 35
0.0
 16
38.61439121578201
 26
46.94880900584026
 36
0.0
1001
ACAD
1000
DSTYLE
1002
{
1070
   271
1070
     1
1070
   271
1070
     1
1070
   271
1070
     1
1070
   271
1070
     1
1070
   271
1070
     1
1070
   271
1070
     1
1070
   271
1070
     1
1070
   271
1070
     1
1070
   271
1070
     1
1070
   271
1070
     1
1070
   271
1070
     1
1070
   271
1070
     1
1070
   271
1070
     1
1070
   271
1070
     1
1070
   271
1070
     1
1070
   271
1070
     1
1070
   271
1070
     1
1070
   271
1070
     1
1070
   271
1070
     1
1070
   271
1070
     1
1070
   271
1070
     1
1070
   271
1070
     1
1070
   271
1070
     1
1070
   271
1070
     1
1070
   271
1070
     1
1070
   271
1070
     1
1070
   271
1070
     1
1070
   271
1070
     1
1070
   271
1070
     1
1070
   271
1070
     1
1070
   271
1070
     1
1070
   271
1070
     1
1070
   271
1070
     1
1070
   271
1070
     1
1070
   271
1070
     1
1070
   271
1070
     1
1070
   271
1070
     1
1070
   271
1070
     1
1070
   271
1070
     1
1070
   271
1070
     1
1070
   271
1070
     1
1070
   271
1070
     1
1070
   271
1070
     1
1070
   271
1070
     1
1070
   271
1070
     1
1070
   271
1070
     1
1070
   271
1070
     1
1070
   271
1070
     1
1070
   271
1070
     1
1070
   271
1070
     1
1070
   271
1070
     1
1070
   271
1070
     1
1070
   271
1070
     1
1070
   271
1070
     1
1070
   271
1070
     1
1070
   271
1070
     1
1070
   271
1070
     1
1070
   271
1070
     1
1070
   271
1070
     1
1070
   271
1070
     1
1070
   271
1070
     1
1070
   271
1070
     1
1070
   271
1070
     1
1070
   271
1070
     1
1070
   271
1070
     1
1070
   271
1070
     1
1070
   271
1070
     1
1070
   271
1070
     1
1070
   271
1070
     1
1070
   271
1070
     1
1070
   271
1070
     1
1070
   271
1070
     1
1070
   271
1070
     1
1070
   271
1070
     1
1070
   271
1070
     1
1070
   271
1070
     1
1070
   271
1070
     1
1070
   271
1070
     1
1070
   271
1070
     1
1070
   271
1070
     1
1070
   271
1070
     1
1070
   271
1070
     1
1070
   271
1070
     1
1070
   271
1070
     1
1070
   271
1070
     1
1070
   271
1070
     1
1070
   271
1070
     1
1070
   271
1070
     1
1070
   271
1070
     1
1070
   271
1070
     1
1070
   271
1070
     1
1070
   271
1070
     1
1070
   271
1070
     1
1070
   271
1070
     1
1070
   271
1070
     1
1070
   271
1070
     1
1070
   271
1070
     1
1070
   271
1070
     1
1070
   271
1070
     1
1002
}
  0
DIMENSION
  5
1BD
102
{ACAD_XDICTIONARY
360
1BE
102
}
102
{ACAD_REACTORS
330
1BF
102
}
330
2
100
AcDbEntity
  8
0
100
AcDbDimension
  2
*D39
 10
197.1841897136819
 20
152.2306575267421
 30
0.0
 11
193.9341897136819
 21
152.2306575267421
 31
0.0
 70
   160
  3
STANDARD
100
AcDbAlignedDimension
 13
190.1841897136801
 23
153.1292940350008
 33
0.0
 14
197.1841897136819
 24
139.7037888499944
 34
0.0
100
AcDbRotatedDimension
  0
LINE
  5
1CC
330
2
100
AcDbEntity
  8
0
100
AcDbLine
 10
196.2841897136822
 20
80.20631416693595
 30
0.0
 11
197.1841897136819
 21
80.20631416693595
 31
0.0
  0
LINE
  5
1CD
330
2
100
AcDbEntity
  8
0
100
AcDbLine
 10
275.2572240074259
 20
106.958255122131
 30
0.0
 11
276.9636312347575
 21
105.2518478948022
 31
0.0
  0
LINE
  5
1CE
330
2
100
AcDbEntity
  8
0
100
AcDbLine
 10
276.9672700308401
 20
106.958255122131
 30
0.0
 11
275.2608628035141
 21
105.2518478948022
 31
0.0
  0
CIRCLE
  5
1CF
330
2
100
AcDbEntity
  8
0
100
AcDbCircle
 10
276.112247019133
 20
106.1032321104244
 30
0.0
 40
2.147836038934201
  0
LINE
  5
1D0
102
{ACAD_REACTORS
330
1BF
102
}
330
2
100
AcDbEntity
  8
0
100
AcDbLine
 10
196.2841897136822
 20
139.7037888499944
 30
0.0
 11
197.1841897136819
 21
139.7037888499944
 31
0.0
  0
LINE
  5
1D1
330
2
100
AcDbEntity
  8
0
100
AcDbLine
 10
190.1841897136801
 20
141.1050515084653
 30
0.0
 11
196.2841897136822
 21
141.1050515084653
 31
0.0
  0
LINE
  5
1D2
330
2
100
AcDbEntity
  8
0
100
AcDbLine
 10
196.2841897136822
 20
132.0037888499941
 30
0.0
 11
197.1841897136819
 21
132.0037888499941
 31
0.0
  0
LINE
  5
1D3
330
2
100
AcDbEntity
  8
0
100
AcDbLine
 10
197.1841897136819
 20
132.0037888499941
 30
0.0
 11
197.1841897136819
 21
139.7037888499944
 31
0.0
  0
DIMENSION
  5
1D4
102
{ACAD_XDICTIONARY
360
1D5
102
}
102
{ACAD_REACTORS
330
1D6
102
}
330
2
100
AcDbEntity
  8
0
100
AcDbDimension
  2
*D38
 10
190.1841897136801
 20
163.8909873290622
 30
0.0
 11
168.18418971368
 21
163.8909873290622
 31
0.0
 70
   160
  1
{\f??|b0|i0|c0|p49;L}
  3
STANDARD
100
AcDbAlignedDimension
 13
148.1841897136801
 23
140.6050515084643
 33
0.0
 14
190.1841897136801
 24
141.1050515084653
 34
0.0
100
AcDbRotatedDimension
  0
LINE
  5
1E3
330
2
100
AcDbEntity
  8
0
100
AcDbLine
 10
148.68418971368
 20
141.1050515084653
 30
0.0
 11
190.1841897136801
 21
141.1050515084653
 31
0.0
  0
LINE
  5
1E4
330
2
100
AcDbEntity
  8
0
100
AcDbLine
 10
206.68418971368
 20
70.10505150846711
 30
0.0
 11
197.68418971368
 21
70.10505150846711
 31
0.0
  0
ARC
  5
1E5
330
2
100
AcDbEntity
  8
0
100
AcDbCircle
 10
207.3972247136807
 20
49.57521750846627
 30
0.0
 40
0.7499080000000001
100
AcDbArc
 50
62.66289500000094
 51
182.8344229999968
  0
ARC
  5
1E6
330
2
100
AcDbEntity
  8
0
100
AcDbCircle
 10
205.8992437136803
 20
49.5010515084673
 30
0.0
 40
0.7499080000000001
100
AcDbArc
 50
242.6628950000009
 51
2.834422999996808
  0
ARC
  5
1E7
330
2
100
AcDbEntity
  8
0
100
AcDbCircle
 10
238.4869117136804
 20
70.01640550846741
 30
0.0
 40
36.555792
100
AcDbArc
 50
179.8610604128478
 51
213.8176429999978
  0
ARC
  5
1E8
330
2
100
AcDbEntity
  8
0
100
AcDbCircle
 10
238.4869117136804
 20
70.01640550846741
 30
0.0
 40
37.855792
100
AcDbArc
 50
212.7486590000019
 51
219.5987459999966
  0
ARC
  5
1E9
330
2
100
AcDbEntity
  8
0
100
AcDbCircle
 10
238.4869117136804
 20
70.01640550846741
 30
0.0
 40
33.95579199999999
100
AcDbArc
 50
179.8504230000004
 51
213.8981229999992
  0
ARC
  5
1EA
330
2
100
AcDbEntity
  8
0
100
AcDbCircle
 10
197.68418971368
 20
70.60505150846712
 30
0.0
 40
0.5
100
AcDbArc
 50
180.0
 51
270.0
  0
LINE
  5
1EB
330
2
100
AcDbEntity
  8
0
100
AcDbLine
 10
197.1841897136819
 20
71.10505150846711
 30
0.0
 11
197.1841897136819
 21
70.60505150846712
 31
0.0
  0
LINE
  5
1EC
330
2
100
AcDbEntity
  8
0
100
AcDbLine
 10
196.2841897136822
 20
72.50631416693614
 30
0.0
 11
197.1841897136819
 21
72.50631416693614
 31
0.0
  0
LINE
  5
1ED
330
2
100
AcDbEntity
  8
0
100
AcDbLine
 10
190.1841897136801
 20
71.10505150846529
 30
0.0
 11
196.2841897136822
 21
71.10505150846529
 31
0.0
  0
ARC
  5
1EE
330
2
100
AcDbEntity
  8
0
100
AcDbCircle
 10
238.4869117136804
 20
70.01640550846741
 30
0.0
 40
39.15579199999999
100
AcDbArc
 50
179.8702869999971
 51
212.7486590000019
  0
ARC
  5
1EF
330
2
100
AcDbEntity
  8
0
100
AcDbCircle
 10
206.68418971368
 20
70.60505150846712
 30
0.0
 40
0.5
100
AcDbArc
 50
270.0
 51
0.0
  0
LINE
  5
1F0
330
2
100
AcDbEntity
  8
0
100
AcDbLine
 10
207.18418971368
 20
71.10505150846711
 30
0.0
 11
207.18418971368
 21
70.60505150846712
 31
0.0
  0
ARC
  5
1F1
330
2
100
AcDbEntity
  8
0
100
AcDbCircle
 10
208.4602557136822
 20
50.33738450846704
 30
0.0
 40
0.7499080000000001
100
AcDbArc
 50
242.6628950000009
 51
2.834422999996808
  0
ARC
  5
1F2
330
2
100
AcDbEntity
  8
0
100
AcDbCircle
 10
209.9582377136812
 20
50.41155050846737
 30
0.0
 40
0.7499080000000001
100
AcDbArc
 50
62.66289500000094
 51
182.8344229999968
  0
ARC
  5
1F3
330
2
100
AcDbEntity
  8
0
100
AcDbCircle
 10
209.5804587136808
 20
46.58933250846621
 30
0.0
 40
0.7499080000000001
100
AcDbArc
 50
249.5129820000002
 51
9.684509999999278
  0
ARC
  5
1F4
330
2
100
AcDbEntity
  8
0
100
AcDbCircle
 10
211.0589007136804
 20
46.84163550846733
 30
0.0
 40
0.7499080000000001
100
AcDbArc
 50
69.51298200000024
 51
189.6845099999992
  0
ARC
  5
1F5
330
2
100
AcDbEntity
  8
0
100
AcDbCircle
 10
238.4869117136804
 20
70.01640550846741
 30
0.0
 40
35.255792
100
AcDbArc
 50
213.8564239999994
 51
219.5987459999966
  0
LINE
  5
1F6
330
2
100
AcDbEntity
  8
0
100
AcDbLine
 10
190.1841897136801
 20
71.10505150846529
 30
0.0
 11
148.68418971368
 21
71.10505150846529
 31
0.0
  0
LINE
  5
1F7
330
2
100
AcDbEntity
  8
0
100
AcDbLine
 10
196.2841897136822
 20
141.1050515084653
 30
0.0
 11
196.2841897136822
 21
71.10505150846529
 31
0.0
  0
LINE
  5
1F8
330
2
100
AcDbEntity
  8
0
100
AcDbLine
 10
190.1841897136801
 20
141.1050515084653
 30
0.0
 11
190.1841897136801
 21
71.10505150846529
 31
0.0
  0
LINE
  5
1F9
330
2
100
AcDbEntity
  8
0
100
AcDbLine
 10
273.9644117507923
 20
141.1050515084671
 30
0.0
 11
273.9644117507923
 21
71.10505150846711
 31
0.0
  0
LINE
  5
1FA
330
2
100
AcDbEntity
  8
0
100
AcDbLine
 10
197.1841897136819
 20
80.20631416693595
 30
0.0
 11
197.1841897136819
 21
72.50631416693614
 31
0.0
  0
TEXT
  5
1FB
330
2
100
AcDbEntity
  8
1
  6
BYBLOCK
 62
     0
100
AcDbText
 10
201.3078341615364
 20
199.941728283095
 30
0.0
 40
4.589999999999998
  1
02
 41
0.8
  7
GHS
100
AcDbText
  0
TEXT
  5
1FC
330
2
100
AcDbEntity
  8
1
  6
BYBLOCK
 62
     0
100
AcDbText
 10
201.3078341615364
 20
209.1217282830953
 30
0.0
 40
4.589999999999998
  1
01
 41
0.8
  7
GHS
100
AcDbText
  0
LINE
  5
1FD
330
2
100
AcDbEntity
  8
0
  6
CENTER
 62
     1
 48
0.4
100
AcDbLine
 10
130.8582238318649
 20
208.0970242012831
 30
0.0
 11
130.8582238318649
 21
187.4682659785071
 31
0.0
  0
CIRCLE
  5
1FE
102
{ACAD_REACTORS
330
E7
102
}
330
2
100
AcDbEntity
  8
0
100
AcDbCircle
 10
130.8582238318649
 20
198.1252595580672
 30
0.0
 40
5.0
  0
LINE
  5
1FF
102
{ACAD_REACTORS
330
E7
102
}
330
2
100
AcDbEntity
  8
0
100
AcDbLine
 10
128.8582238318649
 20
200.6252595580672
 30
0.0
 11
132.8582238318686
 21
200.6252595580672
 31
0.0
  0
LINE
  5
200
102
{ACAD_REACTORS
330
204
102
}
330
2
100
AcDbEntity
  8
0
100
AcDbLine
 10
128.8582238318649
 20
200.6252595580672
 30
0.0
 11
128.8582238318649
 21
202.7078352530224
 31
0.0
  0
LINE
  5
201
102
{ACAD_REACTORS
330
204
102
}
330
2
100
AcDbEntity
  8
0
100
AcDbLine
 10
132.8582238318686
 20
200.6252595580672
 30
0.0
 11
132.8582238318686
 21
202.7078352530224
 31
0.0
  0
DIMENSION
  5
202
102
{ACAD_XDICTIONARY
360
203
102
}
102
{ACAD_REACTORS
330
204
102
}
330
2
100
AcDbEntity
  8
0
100
AcDbDimension
  2
*D37
 10
132.8582238318686
 20
211.466847797998
 30
0.0
 11
130.8582238318667
 21
214.916847797998
 31
0.0
 70
    32
  1
\A1;<>{\f??|b0|i0|c0|p49;\H0.7x;\S+0.40^ -0;}
  3
STANDARD
100
AcDbAlignedDimension
 13
128.8582238318649
 23
202.7078352530224
 33
0.0
 14
132.8582238318686
 24
202.7078352530224
 34
0.0
100
AcDbRotatedDimension
  0
LINE
  5
213
330
2
100
AcDbEntity
  8
0
  6
CENTER
 62
     1
 48
0.4
100
AcDbLine
 10
36.06730448789858
 20
199.7255548450634
 30
0.0
 11
71.57305811694095
 21
199.7255548450634
 31
0.0
  0
LINE
  5
214
330
2
100
AcDbEntity
  8
0
100
AcDbLine
 10
66.75419080460779
 20
201.7255548450634
 30
0.0
 11
66.75419080460779
 21
197.7255548450634
 31
0.0
  0
ARC
  5
215
102
{ACAD_REACTORS
330
21A
102
}
330
2
100
AcDbEntity
  8
0
100
AcDbCircle
 10
43.75419080460779
 20
199.7255548450634
 30
0.0
 40
2.0
100
AcDbArc
 50
90.0
 51
270.0
  0
LINE
  5
216
330
2
100
AcDbEntity
  8
0
 48
0.2
100
AcDbLine
 10
43.75419080460779
 20
197.7255548450634
 30
0.0
 11
66.75419080460779
 21
197.7255548450634
 31
0.0
  0
LINE
  5
217
102
{ACAD_REACTORS
330
21A
102
}
330
2
100
AcDbEntity
  8
0
 48
0.2
100
AcDbLine
 10
43.75419080460779
 20
201.7255548450634
 30
0.0
 11
66.75419080460779
 21
201.7255548450634
 31
0.0
  0
DIMENSION
  5
218
102
{ACAD_XDICTIONARY
360
219
102
}
102
{ACAD_REACTORS
330
21A
102
}
330
2
100
AcDbEntity
  8
0
100
AcDbDimension
  2
*D36
 10
66.75419080460779
 20
209.5307488255389
 30
0.0
 11
54.25419080460779
 21
212.0307488255389
 31
0.0
 70
    32
  1
<>{\f??|b0|i0|c0|p49;%%p0.2}
  3
STANDARD
100
AcDbAlignedDimension
 13
41.75419080460779
 23
199.7255548450634
 33
0.0
 14
66.75419080460779
 24
201.7255548450634
 34
0.0
100
AcDbRotatedDimension
  0
LINE
  5
227
330
2
100
AcDbEntity
  8
0
  6
CENTER
 62
     1
 48
0.4
100
AcDbLine
 10
85.92484409132158
 20
203.7255548450634
 30
0.0
 11
85.92484409132158
 21
195.7255548450634
 31
0.0
  0
LINE
  5
228
330
2
100
AcDbEntity
  8
0
  6
CENTER
 62
     1
 48
0.4
100
AcDbLine
 10
81.92484409132157
 20
199.7255548450634
 30
0.0
 11
89.92484409132158
 21
199.7255548450634
 31
0.0
  0
LINE
  5
229
102
{ACAD_REACTORS
330
22F
102
}
330
2
100
AcDbEntity
  8
0
100
AcDbLine
 10
87.92484409132157
 20
201.7255548450634
 30
0.0
 11
87.92484409132157
 21
197.7255548450634
 31
0.0
  0
LINE
  5
22A
102
{ACAD_REACTORS
330
22F
102
}
330
2
100
AcDbEntity
  8
0
100
AcDbLine
 10
83.92484409132157
 20
201.7255548450634
 30
0.0
 11
83.92484409132157
 21
197.7255548450634
 31
0.0
  0
LINE
  5
22B
330
2
100
AcDbEntity
  8
0
 48
0.2
100
AcDbLine
 10
83.92484409132157
 20
197.7255548450634
 30
0.0
 11
87.92484409132157
 21
197.7255548450634
 31
0.0
  0
LINE
  5
22C
330
2
100
AcDbEntity
  8
0
 48
0.2
100
AcDbLine
 10
83.92484409132157
 20
201.7255548450634
 30
0.0
 11
87.92484409132157
 21
201.7255548450634
 31
0.0
  0
DIMENSION
  5
22D
102
{ACAD_XDICTIONARY
360
22E
102
}
102
{ACAD_REACTORS
330
22F
102
}
330
2
100
AcDbEntity
  8
0
100
AcDbDimension
  2
*D35
 10
87.92484409132157
 20
210.4000305036952
 30
0.0
 11
85.92484409132158
 21
213.8500305036952
 31
0.0
 70
    32
  1
\A1;<>{\f??|b0|i0|c0|p49;\H0.7x;\S+0^ -0.03;}
  3
STANDARD
100
AcDbAlignedDimension
 13
83.92484409132157
 23
201.7255548450634
 33
0.0
 14
87.92484409132157
 24
201.7255548450634
 34
0.0
100
AcDbRotatedDimension
  0
LINE
  5
23E
330
2
100
AcDbEntity
  8
0
  6
CENTER
 62
     1
 48
0.4
100
AcDbLine
 10
122.2505845150954
 20
198.1252595580672
 30
0.0
 11
139.1840790612477
 21
198.1252595580672
 31
0.0
  0
TEXT
  5
23F
330
2
100
AcDbEntity
  8
1
  6
BYBLOCK
 62
     0
100
AcDbText
 10
226.4822889262504
 20
208.7727658589392
 30
0.0
 40
4.589999999999998
  1
32
 41
0.8
  7
GHS
100
AcDbText
  0
TEXT
  5
240
330
2
100
AcDbEntity
  8
1
  6
BYBLOCK
 62
     0
100
AcDbText
 10
226.4822889262504
 20
199.5927658589389
 30
0.0
 40
4.589999999999998
  1
42
 41
0.8
  7
GHS
100
AcDbText
  0
ARC
  5
241
330
2
100
AcDbEntity
  8
0
100
AcDbCircle
 10
305.18418971368
 20
136.1050515084671
 30
0.0
 40
5.0
100
AcDbArc
 50
0.0000000000003562
 51
90.0
  0
ARC
  5
242
330
2
100
AcDbEntity
  8
0
100
AcDbCircle
 10
305.18418971368
 20
76.10505150846711
 30
0.0
 40
5.0
100
AcDbArc
 50
269.9999999999998
 51
0.0
  0
ARC
  5
243
330
2
100
AcDbEntity
  8
0
 48
0.6
100
AcDbCircle
 10
292.8794314384831
 20
70.10505150846802
 30
0.0
 40
0.5
100
AcDbArc
 50
270.0
 51
0.0
  0
ARC
  5
244
330
2
100
AcDbEntity
  8
0
 48
0.6
100
AcDbCircle
 10
292.0944854384833
 20
49.00105150846911
 30
0.0
 40
0.7499080000000001
100
AcDbArc
 50
242.6628950000009
 51
2.834422999996808
  0
ARC
  5
245
330
2
100
AcDbEntity
  8
0
 48
0.6
100
AcDbCircle
 10
293.5924664384801
 20
49.07521750846808
 30
0.0
 40
0.7499080000000001
100
AcDbArc
 50
62.66289500000094
 51
182.8344229999968
  0
ARC
  5
246
330
2
100
AcDbEntity
  8
0
 48
0.6
100
AcDbCircle
 10
324.6821534384798
 20
69.51640550846923
 30
0.0
 40
33.95579199999999
100
AcDbArc
 50
179.8504230000004
 51
213.8981229999992
  0
ARC
  5
247
330
2
100
AcDbEntity
  8
0
 48
0.6
100
AcDbCircle
 10
324.6821534384798
 20
69.51640550846923
 30
0.0
 40
36.555792
100
AcDbArc
 50
179.8610604128478
 51
213.8176429999978
  0
LINE
  5
248
330
2
100
AcDbEntity
  8
0
 48
0.6
100
AcDbLine
 10
292.8794314384831
 20
69.60505150846893
 30
0.0
 11
283.8794314384831
 21
69.60505150846893
 31
0.0
  0
ARC
  5
249
330
2
100
AcDbEntity
  8
0
 48
0.6
100
AcDbCircle
 10
283.8794314384831
 20
70.10505150846802
 30
0.0
 40
0.5
100
AcDbArc
 50
180.0
 51
270.0
  0
LINE
  5
24A
330
2
100
AcDbEntity
  8
0
 48
0.6
100
AcDbLine
 10
283.3794314384831
 20
70.60505150846893
 30
0.0
 11
283.3794314384831
 21
70.10505150846802
 31
0.0
  0
ARC
  5
24B
330
2
100
AcDbEntity
  8
0
 48
0.6
100
AcDbCircle
 10
324.6821534384798
 20
69.51640550846923
 30
0.0
 40
39.15579199999999
100
AcDbArc
 50
179.8702869999971
 51
212.7486590000019
  0
LINE
  5
24C
330
2
100
AcDbEntity
  8
0
 48
0.6
100
AcDbLine
 10
293.3794314384831
 20
70.60505150846893
 30
0.0
 11
293.3794314384831
 21
70.10505150846802
 31
0.0
  0
ARC
  5
24D
330
2
100
AcDbEntity
  8
0
 48
0.6
100
AcDbCircle
 10
294.6554974384834
 20
49.83738450846885
 30
0.0
 40
0.7499080000000001
100
AcDbArc
 50
242.6628950000009
 51
2.834422999996808
  0
ARC
  5
24E
330
2
100
AcDbEntity
  8
0
 48
0.6
100
AcDbCircle
 10
296.1534794384824
 20
49.91155050846919
 30
0.0
 40
0.7499080000000001
100
AcDbArc
 50
62.66289500000094
 51
182.8344229999968
  0
DIMENSION
  5
24F
330
2
100
AcDbEntity
  8
0
100
AcDbDimension
  2
*D48
 10
324.3404096539216
 20
71.1050515084662
 30
0.0
 11
324.3404096539216
 21
106.1050515084652
 31
0.0
 70
   160
  1
%%C<>
  3
STANDARD
100
AcDbAlignedDimension
 13
306.1841897136801
 23
141.1050515084662
 33
0.0
 14
306.1841897136801
 24
71.1050515084662
 34
0.0
 50
90.0
100
AcDbRotatedDimension
  0
LINE
  5
25C
330
2
100
AcDbEntity
  8
0
100
AcDbLine
 10
310.1841897136801
 20
136.1050515084671
 30
0.0
 11
310.1841897136801
 21
76.10505150846711
 31
0.0
  0
LINE
  5
25D
330
2
100
AcDbEntity
  8
1
  6
BYBLOCK
 62
     0
100
AcDbLine
 10
305.6961867410573
 20
224.9656809017983
 30
0.0
 11
192.942456477016
 21
224.9656809017983
 31
0.0
  0
DIMENSION
  5
25E
102
{ACAD_XDICTIONARY
360
25F
102
}
102
{ACAD_REACTORS
330
260
102
}
330
2
100
AcDbEntity
  8
0
100
AcDbDimension
  2
*D56
 10
196.6807410601486
 20
340.680762511567
 30
0.0
 11
209.4916717275409
 21
340.680762511567
 31
0.0
 70
   160
  3
STANDARD
100
AcDbAlignedDimension
 13
221.6807410601486
 23
324.4604743046652
 33
0.0
 14
196.6807410601486
 24
324.4604743046652
 34
0.0
 50
180.0
100
AcDbRotatedDimension
  0
LINE
  5
26D
102
{ACAD_REACTORS
330
29C
330
260
330
2C4
102
}
330
2
100
AcDbEntity
  8
CEN
  6
BYBLOCK
 62
     0
100
AcDbLine
 10
225.6807410601486
 20
324.4604743046643
 30
0.0
 11
196.6807410601486
 21
324.4604743046643
 31
0.0
  0
LINE
  5
26E
102
{ACAD_REACTORS
330
29C
102
}
330
2
100
AcDbEntity
  8
CEN
  6
HIDDEN
 62
     2
100
AcDbLine
 10
221.6807410601486
 20
321.9604743046643
 30
0.0
 11
196.6807410601486
 21
321.9604743046643
 31
0.0
  0
LINE
  5
26F
330
2
100
AcDbEntity
  8
0
100
AcDbLine
 10
192.7007559304274
 20
394.9759083163939
 30
0.0
 11
222.7007559304274
 21
394.9759083163939
 31
0.0
  0
LINE
  5
270
102
{ACAD_REACTORS
330
29C
102
}
330
2
100
AcDbEntity
  8
CEN
  6
BYBLOCK
 62
     0
100
AcDbLine
 10
225.6807410601486
 20
314.4604743046643
 30
0.0
 11
196.6807410601486
 21
314.4604743046643
 31
0.0
  0
LINE
  5
271
102
{ACAD_REACTORS
330
29C
102
}
330
2
100
AcDbEntity
  8
CEN
 48
0.6
100
AcDbLine
 10
240.256488251809
 20
319.4604743046643
 30
0.0
 11
192.7826022589179
 21
319.4604743046643
 31
0.0
  0
DIMENSION
  5
272
330
2
100
AcDbEntity
  8
0
100
AcDbDimension
  2
*D55
 10
228.6807410601486
 20
256.164459923039
 30
0.0
 11
212.6807410601486
 21
258.6644599230389
 31
0.0
 70
    32
  3
STANDARD
100
AcDbAlignedDimension
 13
196.6807410601486
 23
314.4604743046652
 33
0.0
 14
228.6807410601486
 24
274.4604743046643
 34
0.0
 50
180.0
100
AcDbRotatedDimension
  0
LINE
  5
27F
330
2
100
AcDbEntity
  8
1
  6
BYBLOCK
 62
     0
100
AcDbLine
 10
192.1721899064887
 20
229.3773697780052
 30
0.0
 11
241.8376277187089
 21
229.3773697780052
 31
0.0
  0
LINE
  5
280
330
2
100
AcDbEntity
  8
1
  6
BYBLOCK
 62
     0
100
AcDbLine
 10
192.1721899064887
 20
228.6483378170091
 30
0.0
 11
241.8376277187089
 21
228.6483378170091
 31
0.0
  0
LINE
  5
281
330
2
100
AcDbEntity
  8
1
  6
BYBLOCK
 62
     0
100
AcDbLine
 10
192.1721899064887
 20
228.423337817011
 30
0.0
 11
241.8376277187089
 21
228.423337817011
 31
0.0
  0
TEXT
  5
282
330
2
100
AcDbEntity
  8
1
 62
     0
100
AcDbText
 10
192.8341804007013
 20
230.4731196887664
 30
0.0
 40
4.589999999999998
  1
DIMENSION TABLE
 41
0.8
  7
GHS
100
AcDbText
  0
DIMENSION
  5
283
330
2
100
AcDbEntity
  8
0
100
AcDbDimension
  2
*D54
 10
164.5146951376955
 20
304.4604743046643
 30
0.0
 11
164.5146951376955
 21
319.2104743046652
 31
0.0
 70
   160
  1
{\f??|b0|i0|c0|p49;%%c}<>
  3
STANDARD
100
AcDbAlignedDimension
 13
226.1807410601486
 23
334.4604743046652
 33
0.0
 14
213.3210228148454
 24
304.4604743046643
 34
0.0
 50
90.0
100
AcDbRotatedDimension
  0
LINE
  5
290
102
{ACAD_REACTORS
330
29C
102
}
330
2
100
AcDbEntity
  8
CEN
 48
0.6
100
AcDbLine
 10
213.3210228148454
 20
304.4604743046643
 30
0.0
 11
281.840210399765
 21
304.4604743046643
 31
0.0
  0
LINE
  5
291
330
2
100
AcDbEntity
  8
CEN
 48
0.6
100
AcDbLine
 10
82.75058136841654
 20
322.8474860953433
 30
0.0
 11
100.6567297177825
 21
322.8474860953433
 31
0.0
  0
LINE
  5
292
330
2
100
AcDbEntity
  8
0
100
AcDbLine
 10
89.89132679579597
 20
325.3474860953433
 30
0.0
 11
93.89132679579052
 21
325.3474860953433
 31
0.0
  0
LINE
  5
293
330
2
100
AcDbEntity
  8
0
 62
     0
100
AcDbLine
 10
93.89132679579416
 20
327.3786149694924
 30
0.0
 11
93.89132679579416
 21
325.3474860953433
 31
0.0
  0
LINE
  5
294
330
2
100
AcDbEntity
  8
0
 62
     0
100
AcDbLine
 10
89.89132679579597
 20
327.3786149694924
 30
0.0
 11
89.89132679579597
 21
325.3474860953433
 31
0.0
  0
LINE
  5
295
330
2
100
AcDbEntity
  8
0
 48
0.6
100
AcDbLine
 10
118.5188740354569
 20
394.9759083163949
 30
0.0
 11
112.7778238089286
 21
394.9759083163949
 31
0.0
  0
LINE
  5
296
330
2
100
AcDbEntity
  8
0
100
AcDbLine
 10
61.89132679579052
 20
342.8474860953433
 30
0.0
 11
121.8913267957905
 21
342.8474860953433
 31
0.0
  0
ARC
  5
297
330
2
100
AcDbEntity
  8
0
100
AcDbCircle
 10
61.89132679579052
 20
337.8474860953433
 30
0.0
 40
5.0
100
AcDbArc
 50
90.0
 51
180.0
  0
LINE
  5
298
330
2
100
AcDbEntity
  8
0
 48
0.6
100
AcDbLine
 10
71.13939392818429
 20
394.9759083163949
 30
0.0
 11
131.1393939281843
 21
394.9759083163949
 31
0.0
  0
ARC
  5
299
330
2
100
AcDbEntity
  8
0
100
AcDbCircle
 10
121.8913267957905
 20
337.8474860953433
 30
0.0
 40
5.0
100
AcDbArc
 50
0.0
 51
90.0
  0
DIMENSION
  5
29A
102
{ACAD_XDICTIONARY
360
29B
102
}
102
{ACAD_REACTORS
330
29C
102
}
330
2
100
AcDbEntity
  8
0
100
AcDbDimension
  2
*D53
 10
173.40849495773
 20
304.4604743046643
 30
0.0
 11
170.9084949577299
 21
311.9604743046644
 31
0.0
 70
    32
  3
STANDARD
100
AcDbAlignedDimension
 13
192.7826022589179
 23
319.4604743046643
 33
0.0
 14
213.3210228148454
 24
304.4604743046643
 34
0.0
 50
90.0
100
AcDbRotatedDimension
  0
LINE
  5
2A9
330
2
100
AcDbEntity
  8
0
100
AcDbLine
 10
61.89132679579052
 20
272.8474860953433
 30
0.0
 11
121.8913267957905
 21
272.8474860953433
 31
0.0
  0
ARC
  5
2AA
330
2
100
AcDbEntity
  8
0
100
AcDbCircle
 10
61.89132679579052
 20
277.8474860953433
 30
0.0
 40
5.0
100
AcDbArc
 50
180.0
 51
270.0
  0
LWPOLYLINE
  5
2AB
330
2
100
AcDbEntity
  8
3
100
AcDbPolyline
 90
        4
 70
     1
 43
0.0
 10
88.49888998762981
 20
255.8353460827902
 10
91.79888998762908
 20
255.8353460827902
 10
91.79888998762908
 20
259.3353460827902
 10
88.49888998762981
 20
259.3353460827902
  0
CIRCLE
  5
2AC
330
2
100
AcDbEntity
  8
0
100
AcDbCircle
 10
47.5305769843253
 20
230.0812825758662
 30
0.0
 40
1.5
  0
LWPOLYLINE
  5
2AD
330
2
100
AcDbEntity
  8
0
100
AcDbPolyline
 90
        2
 70
     1
 43
1.5
 10
46.78057698432531
 20
230.0812825758662
 42
1.0
 10
48.2805769843253
 20
230.0812825758662
 42
1.0
  0
LWPOLYLINE
  5
2AE
330
2
100
AcDbEntity
  8
0
100
AcDbPolyline
 90
        2
 70
     1
 43
1.5
 10
111.3052042089584
 20
230.2965984918673
 42
1.0
 10
112.8052042089584
 20
230.2965984918673
 42
1.0
  0
CIRCLE
  5
2AF
330
2
100
AcDbEntity
  8
0
100
AcDbCircle
 10
112.0552042089584
 20
230.2965984918673
 30
0.0
 40
1.5
  0
LINE
  5
2B0
330
2
100
AcDbEntity
  8
CEN
 48
0.6
100
AcDbLine
 10
49.6535807538603
 20
307.8474860953433
 30
0.0
 11
134.1290728377207
 21
307.8474860953433
 31
0.0
  0
DIMENSION
  5
2B1
102
{ACAD_XDICTIONARY
360
2B2
102
}
102
{ACAD_REACTORS
330
2B3
102
}
330
2
100
AcDbEntity
  8
0
100
AcDbDimension
  2
*D52
 10
126.8913267957905
 20
254.9984841041214
 30
0.0
 11
95.23314234500139
 21
254.9984841041214
 31
0.0
 70
   160
  3
STANDARD
100
AcDbAlignedDimension
 13
56.89132679579052
 23
277.8474860953433
 33
0.0
 14
126.8913267957905
 24
277.8474860953433
 34
0.0
100
AcDbRotatedDimension
  0
ARC
  5
2C0
330
2
100
AcDbEntity
  8
0
100
AcDbCircle
 10
121.8913267957905
 20
277.8474860953433
 30
0.0
 40
5.0
100
AcDbArc
 50
270.0
 51
0.0
  0
LINE
  5
2C1
102
{ACAD_REACTORS
330
2B3
102
}
330
2
100
AcDbEntity
  8
0
100
AcDbLine
 10
126.8913267957905
 20
337.8474860953433
 30
0.0
 11
126.8913267957905
 21
277.8474860953433
 31
0.0
  0
DIMENSION
  5
2C2
102
{ACAD_XDICTIONARY
360
2C3
102
}
102
{ACAD_REACTORS
330
2C4
102
}
330
2
100
AcDbEntity
  8
0
100
AcDbDimension
  2
*D51
 10
181.8560777711664
 20
324.4604743046643
 30
0.0
 11
181.8560777711663
 21
350.4496815136945
 31
0.0
 70
   160
  1
\A1;{\f??|b0|i0|c0|p49;%%C10\H0.7x;\S+0^ -0.015;\H1.429x;(h7)}
  3
STANDARD
100
AcDbAlignedDimension
 13
196.6807410601486
 23
314.4604743046643
 33
0.0
 14
196.6807410601486
 24
324.4604743046643
 34
0.0
 50
90.0
100
AcDbRotatedDimension
  0
LINE
  5
2D3
102
{ACAD_REACTORS
330
2FE
330
2C4
102
}
330
2
100
AcDbEntity
  8
0
100
AcDbLine
 10
196.6807410601486
 20
324.4604743046643
 30
0.0
 11
196.6807410601486
 21
314.4604743046643
 31
0.0
  0
CIRCLE
  5
2D4
330
2
100
AcDbEntity
  8
0
100
AcDbCircle
 10
91.89132679579051
 20
322.8474860953433
 30
0.0
 40
15.0
  0
LINE
  5
2D5
102
{ACAD_REACTORS
330
2B3
102
}
330
2
100
AcDbEntity
  8
0
100
AcDbLine
 10
56.89132679579052
 20
337.8474860953433
 30
0.0
 11
56.89132679579052
 21
277.8474860953433
 31
0.0
  0
LINE
  5
2D6
330
2
100
AcDbEntity
  8
0
  6
CENTER
 62
     1
 48
0.6
100
AcDbLine
 10
91.89132679579051
 20
347.9491312001182
 30
0.0
 11
91.89132679579051
 21
267.7458409905671
 31
0.0
  0
CIRCLE
  5
2D7
330
2
100
AcDbEntity
  8
0
100
AcDbCircle
 10
91.89132679579051
 20
322.8474860953433
 30
0.0
 40
5.0
  0
CIRCLE
  5
2D8
330
2
100
AcDbEntity
  8
0
100
AcDbCircle
 10
91.89132679579051
 20
307.8474860953433
 30
0.0
 40
32.0
  0
INSERT
  5
2D9
330
2
100
AcDbEntity
  8
0
100
AcDbBlockReference
  2
3
 10
91.89132679579779
 20
307.8474860953483
 30
0.0
  0
MTEXT
  5
2DA
330
2
100
AcDbEntity
  8
DIM
 62
     0
100
AcDbMText
 10
51.72142770485152
 20
232.6886828319552
 30
0.0
 40
4.589999999999998
 41
0.0
 71
     1
 72
     5
  1
{\f굴림|b0|i0|c129|p50;KEY\f??|b0|i0|c0|p49;                  \f굴림|b0|i0|c129|p50;KEY GROOVE }
1001
ACAD
1000
MTEXTBEGIN
1070
    73
1070
     1
1070
    44
1040
1.0
1070
    74
1070
     0
1000
MTEXTEND
  0
MTEXT
  5
2DB
102
{ACAD_REACTORS
330
30F
102
}
330
2
100
AcDbEntity
  8
0
 62
     3
100
AcDbMText
 10
111.3456626664228
 20
359.6209935464203
 30
0.0
 40
3.0
 41
0.0
 71
     9
 72
     1
  1
4-%%c5.5 hole
1001
ACAD
1000
MTEXTBEGIN
1070
    73
1070
     1
1070
    44
1040
1.0
1070
    74
1070
     0
1000
MTEXTEND
  0
LINE
  5
2DC
330
2
100
AcDbEntity
  8
0
100
AcDbLine
 10
269.6807410601486
 20
339.9604743046643
 30
0.0
 11
269.6807410601486
 21
339.4604743046643
 31
0.0
  0
LINE
  5
2DD
330
2
100
AcDbEntity
  8
0
100
AcDbLine
 10
270.6807410601468
 20
339.4604743046643
 30
0.0
 11
269.6807410601486
 21
339.4604743046643
 31
0.0
  0
LINE
  5
2DE
330
2
100
AcDbEntity
  8
0
100
AcDbLine
 10
269.6807410601486
 20
269.4604743046643
 30
0.0
 11
269.6807410601486
 21
268.9604743046643
 31
0.0
  0
LINE
  5
2DF
330
2
100
AcDbEntity
  8
0
100
AcDbLine
 10
270.6807410601468
 20
269.4604743046643
 30
0.0
 11
269.6807410601486
 21
269.4604743046643
 31
0.0
  0
LINE
  5
2E0
102
{ACAD_REACTORS
330
2FE
102
}
330
2
100
AcDbEntity
  8
0
100
AcDbLine
 10
270.6807410601468
 20
339.4604743046643
 30
0.0
 11
270.6807410601468
 21
269.4604743046643
 31
0.0
  0
DIMENSION
  5
2E1
102
{ACAD_XDICTIONARY
360
2E2
102
}
102
{ACAD_REACTORS
330
2E3
102
}
330
2
100
AcDbEntity
  8
0
100
AcDbDimension
  2
*D50
 10
225.6807410601486
 20
348.6426130078744
 30
0.0
 11
227.1807410601486
 21
348.6426130078744
 31
0.0
 70
   160
  3
STANDARD
100
AcDbAlignedDimension
 13
228.6807410601486
 23
339.4604743046643
 33
0.0
 14
225.6807410601486
 24
333.9604743046643
 34
0.0
 50
180.0
100
AcDbRotatedDimension
  0
LINE
  5
2F2
330
2
100
AcDbEntity
  8
0
100
AcDbLine
 10
226.1807410601486
 20
334.4604743046643
 30
0.0
 11
228.6807410601486
 21
334.4604743046643
 31
0.0
  0
ARC
  5
2F3
330
2
100
AcDbEntity
  8
0
100
AcDbCircle
 10
226.1807410601486
 20
333.9604743046643
 30
0.0
 40
0.5
100
AcDbArc
 50
90.0
 51
180.0
  0
LINE
  5
2F4
102
{ACAD_REACTORS
330
2FE
330
260
102
}
330
2
100
AcDbEntity
  8
0
  6
HIDDEN
 62
     2
100
AcDbLine
 10
221.6807410601486
 20
324.4604743046652
 30
0.0
 11
221.6807410601486
 21
321.9604743046643
 31
0.0
  0
ARC
  5
2F5
330
2
100
AcDbEntity
  8
0
100
AcDbCircle
 10
229.1807410601486
 20
339.4604743046643
 30
0.0
 40
0.5
100
AcDbArc
 50
90.0
 51
180.0
  0
LINE
  5
2F6
330
2
100
AcDbEntity
  8
0
100
AcDbLine
 10
226.1807410601486
 20
304.4604743046643
 30
0.0
 11
228.6807410601486
 21
304.4604743046643
 31
0.0
  0
ARC
  5
2F7
330
2
100
AcDbEntity
  8
0
100
AcDbCircle
 10
229.1807410601486
 20
269.4604743046643
 30
0.0
 40
0.5
100
AcDbArc
 50
180.0
 51
270.0
  0
ARC
  5
2F8
330
2
100
AcDbEntity
  8
0
100
AcDbCircle
 10
226.1807410601486
 20
304.9604743046643
 30
0.0
 40
0.5
100
AcDbArc
 50
180.0
 51
270.0
  0
LINE
  5
2F9
102
{ACAD_REACTORS
330
2FE
330
2E3
102
}
330
2
100
AcDbEntity
  8
0
100
AcDbLine
 10
228.6807410601486
 20
339.4604743046643
 30
0.0
 11
228.6807410601486
 21
269.4604743046643
 31
0.0
  0
LINE
  5
2FA
102
{ACAD_REACTORS
330
2E3
102
}
330
2
100
AcDbEntity
  8
0
100
AcDbLine
 10
225.6807410601486
 20
333.9604743046643
 30
0.0
 11
225.6807410601486
 21
304.9604743046643
 31
0.0
  0
LINE
  5
2FB
330
2
100
AcDbEntity
  8
0
100
AcDbLine
 10
269.6807410601486
 20
268.9604743046643
 30
0.0
 11
229.1807410601486
 21
268.9604743046643
 31
0.0
  0
DIMENSION
  5
2FC
102
{ACAD_XDICTIONARY
360
2FD
102
}
102
{ACAD_REACTORS
330
2FE
102
}
330
2
100
AcDbEntity
  8
0
100
AcDbDimension
  2
*D49
 10
228.6807410601486
 20
256.164459923039
 30
0.0
 11
249.6807410601477
 21
258.6644599230389
 31
0.0
 70
    32
  1
L
  3
STANDARD
100
AcDbAlignedDimension
 13
270.6807410601468
 23
269.4604743046643
 33
0.0
 14
228.6807410601486
 24
269.4604743046643
 34
0.0
 50
180.0
100
AcDbRotatedDimension
  0
LINE
  5
30B
330
2
100
AcDbEntity
  8
0
100
AcDbLine
 10
269.6807410601486
 20
339.9604743046643
 30
0.0
 11
229.1807410601486
 21
339.9604743046643
 31
0.0
  0
LINE
  5
30C
330
2
100
AcDbEntity
  8
2
 62
     7
100
AcDbLine
 10
228.6807410601486
 20
304.4604743046643
 30
0.0
 11
226.1807410601486
 21
304.4604743046643
 31
0.0
  0
LINE
  5
30D
330
2
100
AcDbEntity
  8
2
 62
     7
100
AcDbLine
 10
225.6807410601486
 20
304.9604743046643
 30
0.0
 11
225.6807410601486
 21
306.4604743046643
 31
0.0
  0
ARC
  5
30E
330
2
100
AcDbEntity
  8
2
 62
     7
100
AcDbCircle
 10
226.1807410601486
 20
304.9604743046643
 30
0.0
 40
0.4999999999999967
100
AcDbArc
 50
180.0
 51
270.0
  0
LEADER
  5
30F
330
2
100
AcDbEntity
  8
0
100
AcDbLeader
  3
STANDARD
 73
     0
 75
     1
 40
3.0
 41
26.65178571428571
 76
     3
 10
120.7537871570675
 20
339.4599464566181
 30
0.0
 10
114.8456626664228
 20
358.6209935464203
 30
0.0
 10
112.3456626664228
 20
358.6209935464203
 30
0.0
340
2DB
1001
ACAD
1000
DSTYLE
1002
{
1070
     5
1000

1070
   342
1005
0
1002
}
  0
DIMENSION
  5
310
102
{ACAD_XDICTIONARY
360
311
102
}
102
{ACAD_REACTORS
330
312
102
}
330
2
100
AcDbEntity
  8
0
100
AcDbDimension
  2
*D61
 10
222.7007559304274
 20
484.5629861408272
 30
0.0
 11
207.7007559304274
 21
484.5629861408272
 31
0.0
 70
   160
  3
STANDARD
100
AcDbAlignedDimension
 13
192.7007559304274
 23
464.9759083163951
 33
0.0
 14
222.7007559304274
 24
464.9759083163951
 34
0.0
100
AcDbRotatedDimension
  0
LINE
  5
31F
102
{ACAD_REACTORS
330
325
330
312
102
}
330
2
100
AcDbEntity
  8
0
100
AcDbLine
 10
192.7007559304274
 20
464.9759083163951
 30
0.0
 11
222.7007559304274
 21
464.9759083163951
 31
0.0
  0
LINE
  5
320
330
2
100
AcDbEntity
  8
CEN
 48
0.6
100
AcDbLine
 10
231.8139890748061
 20
429.975908316394
 30
0.0
 11
173.0569621297909
 21
429.975908316394
 31
0.0
  0
LINE
  5
321
330
2
100
AcDbEntity
  8
0
100
AcDbLine
 10
192.7007559304274
 20
461.9759083163942
 30
0.0
 11
190.7007559304256
 21
461.9759083163942
 31
0.0
  0
ARC
  5
322
102
{ACAD_REACTORS
330
35E
102
}
330
2
100
AcDbEntity
  8
0
 48
0.6
100
AcDbCircle
 10
131.1393939281843
 20
459.9759083163942
 30
0.0
 40
5.0
100
AcDbArc
 50
0.0
 51
90.0
  0
DIMENSION
  5
323
102
{ACAD_XDICTIONARY
360
324
102
}
102
{ACAD_REACTORS
330
325
102
}
330
2
100
AcDbEntity
  8
0
100
AcDbDimension
  2
*D60
 10
192.7007559304274
 20
474.4367774628722
 30
0.0
 11
183.7007559304256
 21
474.4367774628722
 31
0.0
 70
   160
  3
STANDARD
100
AcDbAlignedDimension
 13
190.7007559304256
 23
461.9759083163942
 33
0.0
 14
192.7007559304274
 24
464.9759083163941
 34
0.0
100
AcDbRotatedDimension
  0
LINE
  5
334
330
2
100
AcDbEntity
  8
0
100
AcDbLine
 10
192.7007559304274
 20
432.7959083163941
 30
0.0
 11
192.7007559304274
 21
427.1559083163943
 31
0.0
  0
LINE
  5
335
330
2
100
AcDbEntity
  8
0
100
AcDbLine
 10
192.7007559304274
 20
432.7959083163941
 30
0.0
 11
192.7007559304274
 21
427.1559083163943
 31
0.0
  0
LINE
  5
336
330
2
100
AcDbEntity
  8
0
100
AcDbLine
 10
192.7007559304274
 20
397.975908316394
 30
0.0
 11
190.7007559304256
 21
397.975908316394
 31
0.0
  0
LINE
  5
337
330
2
100
AcDbEntity
  8
2
100
AcDbLine
 10
186.7007559304256
 20
432.4259083163951
 30
0.0
 11
186.7007559304256
 21
427.5259083163951
 31
0.0
  0
LINE
  5
338
330
2
100
AcDbEntity
  8
2
100
AcDbLine
 10
180.2007559304256
 20
433.3259083163944
 30
0.0
 11
180.2007559304256
 21
426.6259083163941
 31
0.0
  0
LINE
  5
339
330
2
100
AcDbEntity
  8
0
100
AcDbLine
 10
179.7007559304274
 20
432.8259083163943
 30
0.0
 11
179.7007559304274
 21
427.136408316393
 31
0.0
  0
LINE
  5
33A
330
2
100
AcDbEntity
  8
0
100
AcDbLine
 10
179.7007559304274
 20
427.1259083163941
 30
0.0
 11
180.2007559304256
 21
426.6259083163941
 31
0.0
  0
LINE
  5
33B
330
2
100
AcDbEntity
  8
0
100
AcDbLine
 10
180.2007559304256
 20
433.3259083163944
 30
0.0
 11
179.7007559304274
 21
432.8259083163943
 31
0.0
  0
LINE
  5
33C
330
2
100
AcDbEntity
  8
2
100
AcDbLine
 10
186.7007559304256
 20
431.8959083163931
 30
0.0
 11
180.7007559304256
 21
428.7204818358514
 31
0.0
  0
LINE
  5
33D
330
2
100
AcDbEntity
  8
2
100
AcDbLine
 10
185.7498838481551
 20
432.4259083163951
 30
0.0
 11
180.7007559304256
 21
429.87518237423
 31
0.0
  0
LINE
  5
33E
330
2
100
AcDbEntity
  8
2
100
AcDbLine
 10
186.7007559304256
 20
430.7412077780163
 30
0.0
 11
180.5330084460474
 21
427.5259083163951
 31
0.0
  0
LINE
  5
33F
330
2
100
AcDbEntity
  8
0
100
AcDbLine
 10
179.7007559304274
 20
427.5259083163951
 30
0.0
 11
186.7007559304256
 21
427.5259083163951
 31
0.0
  0
LINE
  5
340
330
2
100
AcDbEntity
  8
0
100
AcDbLine
 10
179.7007559304274
 20
432.4259083163951
 30
0.0
 11
186.7007559304256
 21
432.4259083163951
 31
0.0
  0
ARC
  5
341
330
2
100
AcDbEntity
  8
0
100
AcDbCircle
 10
185.2408836649738
 20
397.3434265466971
 30
0.0
 40
30.21776684021463
100
AcDbArc
 50
79.59038642144166
 51
87.23086447351985
  0
ARC
  5
342
330
2
100
AcDbEntity
  8
0
100
AcDbCircle
 10
185.2408836649738
 20
462.608390086089
 30
0.0
 40
30.21776684021192
100
AcDbArc
 50
272.7691355264801
 51
280.4096135785584
  0
LINE
  5
343
330
2
100
AcDbEntity
  8
CEN
 48
0.6
100
AcDbLine
 10
178.2007559304274
 20
427.136408316393
 30
0.0
 11
193.7007559304256
 21
427.136408316393
 31
0.0
  0
LINE
  5
344
330
2
100
AcDbEntity
  8
0
100
AcDbLine
 10
180.2007559304256
 20
426.6259083163941
 30
0.0
 11
190.7007559304256
 21
426.6259083163941
 31
0.0
  0
LINE
  5
345
330
2
100
AcDbEntity
  8
CEN
 48
0.6
100
AcDbLine
 10
178.2007559304274
 20
432.815408316394
 30
0.0
 11
193.7007559304256
 21
432.815408316394
 31
0.0
  0
LINE
  5
346
330
2
100
AcDbEntity
  8
0
100
AcDbLine
 10
180.2007559304256
 20
433.3259083163944
 30
0.0
 11
190.7007559304256
 21
433.3259083163944
 31
0.0
  0
DIMENSION
  5
347
330
2
100
AcDbEntity
  8
0
100
AcDbDimension
  2
*D59
 10
192.7007559304274
 20
484.5629861408272
 30
0.0
 11
186.2007559304256
 21
484.5629861408272
 31
0.0
 70
   160
  1
<>
  3
STANDARD
100
AcDbAlignedDimension
 13
179.7007559304274
 23
432.815408316394
 33
0.0
 14
192.7007559304274
 24
464.9759083163951
 34
0.0
100
AcDbRotatedDimension
  0
LINE
  5
354
102
{ACAD_REACTORS
330
370
330
325
102
}
330
2
100
AcDbEntity
  8
0
100
AcDbLine
 10
190.7007559304256
 20
461.9759083163942
 30
0.0
 11
190.7007559304256
 21
397.975908316394
 31
0.0
  0
LINE
  5
355
330
2
100
AcDbEntity
  8
0
 48
0.6
100
AcDbLine
 10
136.1393939281842
 20
459.9759083163942
 30
0.0
 11
136.1393939281842
 21
399.975908316394
 31
0.0
  0
LWPOLYLINE
  5
356
330
2
100
AcDbEntity
  8
3
100
AcDbPolyline
 90
        4
 70
     1
 43
0.0
 10
92.9236243352534
 20
479.8733795772314
 10
96.2236243352545
 20
479.8733795772314
 10
96.2236243352545
 20
483.3733795772314
 10
92.9236243352534
 20
483.3733795772314
  0
ARC
  5
357
102
{ACAD_REACTORS
330
35E
102
}
330
2
100
AcDbEntity
  8
0
 48
0.6
100
AcDbCircle
 10
71.13939392818429
 20
459.9759083163942
 30
0.0
 40
5.0
100
AcDbArc
 50
90.0
 51
180.0
  0
CIRCLE
  5
358
330
2
100
AcDbEntity
  8
0
 48
0.6
100
AcDbCircle
 10
101.1393939281842
 20
429.975908316394
 30
0.0
 40
2.000000000000055
  0
CIRCLE
  5
359
330
2
100
AcDbEntity
  8
0
 48
0.6
100
AcDbCircle
 10
101.1393939281842
 20
429.975908316394
 30
0.0
 40
3.000000000000055
  0
LINE
  5
35A
330
2
100
AcDbEntity
  8
0
 48
0.6
100
AcDbLine
 10
66.13939392818429
 20
459.9759083163942
 30
0.0
 11
66.13939392818429
 21
399.975908316394
 31
0.0
  0
LINE
  5
35B
330
2
100
AcDbEntity
  8
0
 48
0.6
100
AcDbLine
 10
71.13939392818429
 20
464.9759083163933
 30
0.0
 11
131.1393939281843
 21
464.9759083163951
 31
0.0
  0
DIMENSION
  5
35C
102
{ACAD_XDICTIONARY
360
35D
102
}
102
{ACAD_REACTORS
330
35E
102
}
330
2
100
AcDbEntity
  8
0
100
AcDbDimension
  2
*D58
 10
136.1393939281842
 20
477.5437034423012
 30
0.0
 11
101.1393939281842
 21
477.5437034423012
 31
0.0
 70
   160
  3
STANDARD
100
AcDbAlignedDimension
 13
66.13939392818429
 23
459.9759083163942
 33
0.0
 14
136.1393939281842
 24
459.9759083163942
 34
0.0
100
AcDbRotatedDimension
  0
LINE
  5
36B
330
2
100
AcDbEntity
  8
CEN
 48
0.6
100
AcDbLine
 10
61.54175920833949
 20
429.975908316394
 30
0.0
 11
140.737028648029
 21
429.975908316394
 31
0.0
  0
CIRCLE
  5
36C
330
2
100
AcDbEntity
  8
0
 48
0.6
100
AcDbCircle
 10
101.1393939281842
 20
429.975908316394
 30
0.0
 40
32.00000000000005
  0
MTEXT
  5
36D
102
{ACAD_REACTORS
330
37D
102
}
330
2
100
AcDbEntity
  8
0
 62
     3
100
AcDbMText
 10
119.0053946097614
 20
489.959460651095
 30
0.0
 40
3.0
 41
0.0
 71
     9
 72
     1
  1
4-%%c5.5 hole
1001
ACAD
1000
MTEXTBEGIN
1070
    73
1070
     1
1070
    44
1040
1.0
1070
    74
1070
     0
1000
MTEXTEND
  0
DIMENSION
  5
36E
102
{ACAD_XDICTIONARY
360
36F
102
}
102
{ACAD_REACTORS
330
370
102
}
330
2
100
AcDbEntity
  8
0
100
AcDbDimension
  2
*D57
 10
168.1029310534123
 20
397.975908316394
 30
0.0
 11
168.1029310534122
 21
427.3387672240942
 31
0.0
 70
   160
  1
\A1;%%C{\f??|b0|i0|c0|p49;64\H0.7x;\S+0^ -0.030;\H1.429x;(h7)} 
  3
STANDARD
100
AcDbAlignedDimension
 13
190.7007559304256
 23
461.9759083163942
 33
0.0
 14
190.7007559304256
 24
397.975908316394
 34
0.0
 50
90.0
100
AcDbRotatedDimension
  0
LEADER
  5
37D
330
2
100
AcDbEntity
  8
0
100
AcDbLeader
  3
STANDARD
 73
     0
 75
     1
 40
3.0
 41
26.65178571428571
 76
     3
 10
130.1750597152276
 20
461.6730776979582
 30
0.0
 10
122.5053946097614
 20
488.959460651095
 30
0.0
 10
120.0053946097614
 20
488.959460651095
 30
0.0
340
36D
1001
ACAD
1000
DSTYLE
1002
{
1070
     5
1000

1070
   342
1005
0
1002
}
  0
ENDSEC
  0
SECTION
  2
OBJECTS
  0
DICTIONARY
  5
9
330
0
100
AcDbDictionary
  3
ACAD_GROUP
350
98
  3
ACAD_LAYOUT
350
D
  3
ACAD_MLINESTYLE
350
99
  3
ACAD_PLOTSETTINGS
350
9A
  3
ACAD_PLOTSTYLENAME
350
8
  3
ACDBHEADERROUNDTRIPXREC
350
50E
  3
ACDBVARIABLEDICTIONARY
350
37E
  0
DICTIONARY
  5
15
330
14
100
AcDbDictionary
280
     1
  3
ACAD_LAYERFILTERS
360
16
  3
ACAD_LAYERSTATES
360
89
  0
DICTIONARY
  5
3
330
2
100
AcDbDictionary
280
     1
  3
ACAD_LAYOUTSELFREF
360
52F
  0
DICTIONARY
  5
F
330
E
100
AcDbDictionary
280
     1
  3
ACAD_LAYOUTSELFREF
360
530
  0
DICTIONARY
  5
A6
330
A5
100
AcDbDictionary
280
     1
  3
ACAD_DIMASSOC
360
A7
  0
DICTIONARY
  5
E6
330
E5
100
AcDbDictionary
280
     1
  3
ACAD_DIMASSOC
360
E7
  0
DICTIONARY
  5
114
330
113
100
AcDbDictionary
280
     1
  3
ACAD_DIMASSOC
360
115
  0
DICTIONARY
  5
123
330
122
100
AcDbDictionary
280
     1
  3
ACAD_DIMASSOC
360
124
  0
DICTIONARY
  5
139
330
138
100
AcDbDictionary
280
     1
  3
ACAD_DIMASSOC
360
13A
  0
DICTIONARY
  5
14D
330
14C
100
AcDbDictionary
280
     1
  3
ACAD_DIMASSOC
360
14E
  0
DICTIONARY
  5
167
330
166
100
AcDbDictionary
280
     1
  3
ACAD_DIMASSOC
360
168
  0
DICTIONARY
  5
18B
330
18A
100
AcDbDictionary
280
     1
  3
ACAD_DIMASSOC
360
18C
  0
DICTIONARY
  5
1AD
330
1AC
100
AcDbDictionary
280
     1
  3
ACAD_DIMASSOC
360
1AE
  0
DICTIONARY
  5
1BE
330
1BD
100
AcDbDictionary
280
     1
  3
ACAD_DIMASSOC
360
1BF
  0
DICTIONARY
  5
1D5
330
1D4
100
AcDbDictionary
280
     1
  3
ACAD_DIMASSOC
360
1D6
  0
DICTIONARY
  5
203
330
202
100
AcDbDictionary
280
     1
  3
ACAD_DIMASSOC
360
204
  0
DICTIONARY
  5
219
330
218
100
AcDbDictionary
280
     1
  3
ACAD_DIMASSOC
360
21A
  0
DICTIONARY
  5
22E
330
22D
100
AcDbDictionary
280
     1
  3
ACAD_DIMASSOC
360
22F
  0
DICTIONARY
  5
25F
330
25E
100
AcDbDictionary
280
     1
  3
ACAD_DIMASSOC
360
260
  0
DICTIONARY
  5
29B
330
29A
100
AcDbDictionary
280
     1
  3
ACAD_DIMASSOC
360
29C
  0
DICTIONARY
  5
2B2
330
2B1
100
AcDbDictionary
280
     1
  3
ACAD_DIMASSOC
360
2B3
  0
DICTIONARY
  5
2C3
330
2C2
100
AcDbDictionary
280
     1
  3
ACAD_DIMASSOC
360
2C4
  0
DICTIONARY
  5
2E2
330
2E1
100
AcDbDictionary
280
     1
  3
ACAD_DIMASSOC
360
2E3
  0
DICTIONARY
  5
2FD
330
2FC
100
AcDbDictionary
280
     1
  3
ACAD_DIMASSOC
360
2FE
  0
DICTIONARY
  5
311
330
310
100
AcDbDictionary
280
     1
  3
ACAD_DIMASSOC
360
312
  0
DICTIONARY
  5
324
330
323
100
AcDbDictionary
280
     1
  3
ACAD_DIMASSOC
360
325
  0
DICTIONARY
  5
35D
330
35C
100
AcDbDictionary
280
     1
  3
ACAD_DIMASSOC
360
35E
  0
DICTIONARY
  5
36F
330
36E
100
AcDbDictionary
280
     1
  3
ACAD_DIMASSOC
360
370
  0
DICTIONARY
  5
98
102
{ACAD_REACTORS
330
9
102
}
330
9
100
AcDbDictionary
  0
DICTIONARY
  5
D
102
{ACAD_REACTORS
330
9
102
}
330
9
100
AcDbDictionary
  0
DICTIONARY
  5
99
102
{ACAD_REACTORS
330
9
102
}
330
9
100
AcDbDictionary
  3
STANDARD
350
9B
  0
DICTIONARY
  5
9A
102
{ACAD_REACTORS
330
9
102
}
330
9
100
AcDbDictionary
  0
ACDBDICTIONARYWDFLT
  5
8
102
{ACAD_REACTORS
330
9
102
}
330
9
100
AcDbDictionary
281
     1
  3
Normal
350
7
100
AcDbDictionaryWithDefault
340
7
  0
DICTIONARY
  5
50E
102
{ACAD_REACTORS
330
9
102
}
330
9
100
AcDbDictionary
  3
CEPSNTYPE
350
518
  3
DIMSTYLEDATA
350
51C
  3
FINGERPRINTGUID
350
519
  3
HYPERLINKBASE
350
511
  3
INSUNITS
350
517
  3
LAYOUTDICT
350
513
  3
LWETCUNION
350
516
  3
PLOTSETDICT
350
514
  3
PLOTSTYLNAMDICT
350
515
  3
PSVPSCALE
350
51B
  3
PUCSBASE
350
51F
  3
PUCSORGBACK
350
525
  3
PUCSORGBOTTOM
350
521
  3
PUCSORGFRONT
350
524
  3
PUCSORGLEFT
350
522
  3
PUCSORGRIGHT
350
523
  3
PUCSORGTOP
350
520
  3
PUCSORTHOREF
350
51D
  3
PUCSORTHOVIEW
350
51E
  3
STYLESHEET
350
512
  3
TSTACKALIGN
350
50F
  3
TSTACKSIZE
350
510
  3
UCSBASE
350
528
  3
UCSORGBACK
350
52E
  3
UCSORGBOTTOM
350
52A
  3
UCSORGFRONT
350
52D
  3
UCSORGLEFT
350
52B
  3
UCSORGRIGHT
350
52C
  3
UCSORGTOP
350
529
  3
UCSORTHOREF
350
526
  3
UCSORTHOVIEW
350
527
  3
VERSIONGUID
350
51A
  0
DICTIONARY
  5
37E
102
{ACAD_REACTORS
330
9
102
}
330
9
100
AcDbDictionary
  3
DIMASSOC
350
380
  3
HIDETEXT
350
37F
  0
DICTIONARY
  5
16
102
{ACAD_REACTORS
330
15
102
}
330
15
100
AcDbDictionary
280
     1
  3
$LAYERS
360
17
  3
-_UND_0
360
18
  3
-PEGC
360
19
  3
101
360
1A
  3
102
360
1B
  3
1DUC
360
1C
  3
1EQ
360
1D
  3
1TUB
360
1E
  3
2
360
1F
  3
2000
360
20
  3
50
360
21
  3
58J
360
22
  3
65
360
23
  3
AA
360
24
  3
ACABADOS
360
25
  3
AGUA_Y_DREN
360
26
  3
AIRE
360
27
  3
ALLE_AUS
360
28
  3
ALLES_MIT_S
360
29
  3
AMARILLO
360
2A
  3
APAGADOS
360
2B
  3
ARR
360
2C
  3
BA
360
2D
  3
BACKS
360
2E
  3
BASE
360
2F
  3
BLOQ_INUTIL
360
30
  3
CADKON
360
31
  3
CARPINTERIA
360
32
  3
CERRADOS
360
33
  3
COL
360
34
  3
COLOR
360
35
  3
COLOR_250
360
36
  3
COLORES
360
37
  3
CONGELADOS
360
38
  3
CONJUNTO
360
39
  3
D1
360
3A
  3
DA_
360
3B
  3
DET-
360
3C
  3
DOR-H
360
3D
  3
EJES
360
3E
  3
ELECTRICO
360
3F
  3
F1
360
40
  3
FROZEN
360
41
  3
GRID
360
42
  3
GRIDTXT
360
43
  3
HATCH
360
44
  3
HCAD
360
45
  3
INSTALACIONES
360
46
  3
JIZNI
360
47
  3
KCK
360
48
  3
KKK
360
49
  3
LAY
360
4A
  3
LAYER-0
360
4E
  3
LAYER-1
360
4F
  3
LAYER_1_UND_0
360
4B
  3
LAYER_2_UND_0
360
4C
  3
LAYER_9_UND_0_SCHRAFFUR
360
4D
  3
LOCK
360
50
  3
LOCKED
360
51
  3
LOTES
360
52
  3
LUNAR
360
53
  3
LUNAR2
360
54
  3
M
360
55
  3
MIS_LAYERS
360
56
  3
MRKCK
360
57
  3
NECADKON
360
58
  3
NI_LH
360
59
  3
NI_RH
360
5A
  3
NUM
360
5B
  3
OFF
360
5C
  3
ON
360
5D
  3
PBASE
360
5E
  3
PEGC
360
5F
  3
PEGCT
360
60
  3
PFRAME
360
61
  3
PGRID
360
62
  3
PGRIDT
360
63
  3
PLAFONES
360
64
  3
PLANTAS
360
65
  3
PLOT
360
66
  3
PRENDIDAS
360
67
  3
PRENDIDOS
360
68
  3
PRINT
360
69
  3
PT
360
6A
  3
PTH
360
6B
  3
PVGRID
360
6C
  3
RED_DE_AGUA_POTABLE
360
6D
  3
RED_DE_ENERGIA_ELECTRICA
360
6E
  3
SEVERNI
360
6F
  3
SHIN
360
70
  3
SHOW_ALL_LAYER
360
71
  3
SIN
360
72
  3
STORAGE-CART
360
73
  3
T
360
74
  3
TEXTOS
360
75
  3
TEXTURAS
360
76
  3
TUBERIAS
360
77
  3
UNFRZ
360
78
  3
V\U+0160ECHNY_NEPOU\U+017D\U+00CDVAN\U+00C9
360
79
  3
VA
360
7A
  3
VENTILACI\U+00D3N
360
7B
  3
VYHODNI
360
7C
  3
YO
360
7D
  3
ZAPADNI
360
7E
  3
사용
360
7F
  3
신규
360
80
  3
실박스
360
81
  3
우리토목
360
82
  3
주차
360
83
  3
지상정밀
360
84
  3
쩜선
360
85
  3
플로터_작업층
360
86
  3
현재_작업층
360
87
  3
현재_잠금
360
88
  0
DICTIONARY
  5
89
102
{ACAD_REACTORS
330
15
102
}
330
15
100
AcDbDictionary
  0
XRECORD
  5
52F
102
{ACAD_REACTORS
330
3
102
}
330
3
100
AcDbXrecord
340
2
  0
XRECORD
  5
530
102
{ACAD_REACTORS
330
F
102
}
330
F
100
AcDbXrecord
340
E
  0
DIMASSOC
  5
A7
102
{ACAD_REACTORS
330
A6
102
}
330
A6
100
AcDbDimAssoc
330
A5
 90
        2
 70
     0
 71
     0
  1
AcDbOsnapPointRef
 72
     3
331
B5
 73
     2
 91
        0
 40
0.0
 10
-0.000000000003638
 20
0.0000000000020464
 30
0.0
 75
     0
  0
DIMASSOC
  5
E7
102
{ACAD_REACTORS
330
E6
102
}
330
E6
100
AcDbDimAssoc
330
E5
 90
        3
 70
     0
 71
     0
  1
AcDbOsnapPointRef
 72
     1
331
1FF
 73
     2
 91
        0
 40
1.0
 10
132.8582238318686
 20
200.6252595580672
 30
0.0
 75
     0
  1
AcDbOsnapPointRef
 72
     5
331
1FE
 73
     2
 91
        0
 40
1.570796326794896
 10
130.8582238318649
 20
203.1252595580672
 30
0.0
 75
     0
  0
DIMASSOC
  5
115
102
{ACAD_REACTORS
330
114
102
}
330
114
100
AcDbDimAssoc
330
113
 90
        3
 70
     0
 71
     0
  1
AcDbOsnapPointRef
 72
     1
331
134
 73
     2
 91
        0
 40
1.0
 10
116.18418971368
 20
126.1050515084652
 30
0.0
 75
     0
  1
AcDbOsnapPointRef
 72
    13
331
1A7
 73
     2
 91
        0
 40
0.0
 10
148.1841897136801
 20
140.6050515084652
 30
0.0
 75
     0
  0
DIMASSOC
  5
124
102
{ACAD_REACTORS
330
123
102
}
330
123
100
AcDbDimAssoc
330
122
 90
        3
 70
     0
 71
     0
  1
AcDbOsnapPointRef
 72
    13
331
137
 73
     2
 91
        0
 40
0.0
 10
141.1841897136801
 20
126.1050515084652
 30
0.0
 75
     0
  1
AcDbOsnapPointRef
 72
     1
331
134
 73
     2
 91
        0
 40
1.0
 10
116.18418971368
 20
126.1050515084652
 30
0.0
 75
     0
  0
DIMASSOC
  5
13A
102
{ACAD_REACTORS
330
139
102
}
330
139
100
AcDbDimAssoc
330
138
 90
        3
 70
     0
 71
     0
  1
AcDbOsnapPointRef
 72
    13
331
1A7
 73
     2
 91
        0
 40
0.0
 10
148.1841897136801
 20
140.6050515084652
 30
0.0
 75
     0
  1
AcDbOsnapPointRef
 72
    13
331
131
 73
     2
 91
        0
 40
0.0
 10
145.1841897136801
 20
135.6050515084652
 30
0.0
 75
     0
  0
DIMASSOC
  5
14E
102
{ACAD_REACTORS
330
14D
102
}
330
14D
100
AcDbDimAssoc
330
14C
 90
        3
 70
     0
 71
     0
  1
AcDbOsnapPointRef
 72
     1
331
15D
 73
     2
 91
        0
 40
1.0
 10
116.18418971368
 20
116.1050515084653
 30
0.0
 75
     0
  1
AcDbOsnapPointRef
 72
     6
331
15D
 73
     2
 91
        0
 40
0.0000000000000114
 10
116.18418971368
 20
126.1050515084652
 30
0.0
332
134
 74
     2
 92
        0
 75
     0
  0
DIMASSOC
  5
168
102
{ACAD_REACTORS
330
167
102
}
330
167
100
AcDbDimAssoc
330
166
 90
        3
 70
     0
 71
     0
  1
AcDbOsnapPointRef
 72
     1
331
162
 73
     2
 91
        0
 40
3.141592653589792
 10
-4.173675857571652
 20
136.1050515084653
 30
0.0
 75
     0
  1
AcDbOsnapPointRef
 72
    13
331
165
 73
     2
 91
        0
 40
0.0
 10
65.82632414242652
 20
136.1050515084653
 30
0.0
 75
     0
  0
DIMASSOC
  5
18C
102
{ACAD_REACTORS
330
18B
102
}
330
18B
100
AcDbDimAssoc
330
18A
 90
        1
 70
     0
 71
     0
  1
AcDbOsnapPointRef
 72
     1
331
132
 73
     2
 91
        0
 40
1.0
 10
112.286050912453
 20
121.1050515084652
 30
0.0
 75
     0
  0
DIMASSOC
  5
1AE
102
{ACAD_REACTORS
330
1AD
102
}
330
1AD
100
AcDbDimAssoc
330
1AC
 90
       15
 70
     0
 71
     0
  1
AcDbOsnapPointRef
 72
    13
331
1A4
 73
     2
 91
        0
 40
0.0
 10
30.82632414243198
 20
106.1050515084652
 30
0.0
 75
     0
  1
AcDbOsnapPointRef
 72
     1
331
1A4
 73
     2
 91
        0
 40
1.0
 10
45.32379882548775
 20
71.10505150846529
 30
0.0
 75
     0
  1
AcDbOsnapPointRef
 72
    13
331
1A2
 73
     2
 91
        0
 40
0.0
 10
30.82632414242471
 20
64.05733850426122
 30
0.0
 75
     0
  1
AcDbOsnapPointRef
 72
     1
331
1A2
 73
     2
 91
        0
 40
1.0
 10
30.82632414242471
 20
148.1527645126611
 30
0.0
 75
     0
  0
DIMASSOC
  5
1BF
102
{ACAD_REACTORS
330
1BE
102
}
330
1BE
100
AcDbDimAssoc
330
1BD
 90
        2
 70
     0
 71
     0
  1
AcDbOsnapPointRef
 72
     1
331
1D0
 73
     2
 91
        0
 40
1.0
 10
197.1841897136819
 20
139.7037888499944
 30
0.0
 75
     0
  0
DIMASSOC
  5
1D6
102
{ACAD_REACTORS
330
1D5
102
}
330
1D5
100
AcDbDimAssoc
330
1D4
 90
        1
 70
     0
 71
     0
  1
AcDbOsnapPointRef
 72
    13
331
1A7
 73
     2
 91
        0
 40
0.0
 10
148.1841897136801
 20
140.6050515084652
 30
0.0
 75
     0
  0
DIMASSOC
  5
204
102
{ACAD_REACTORS
330
203
102
}
330
203
100
AcDbDimAssoc
330
202
 90
        3
 70
     0
 71
     0
  1
AcDbOsnapPointRef
 72
     1
331
200
 73
     2
 91
        0
 40
1.0
 10
128.8582238318649
 20
202.7078352530224
 30
0.0
 75
     0
  1
AcDbOsnapPointRef
 72
     1
331
201
 73
     2
 91
        0
 40
1.0
 10
132.8582238318686
 20
202.7078352530224
 30
0.0
 75
     0
  0
DIMASSOC
  5
21A
102
{ACAD_REACTORS
330
219
102
}
330
219
100
AcDbDimAssoc
330
218
 90
        3
 70
     0
 71
     0
  1
AcDbOsnapPointRef
 72
     2
331
215
 73
     2
 91
        0
 40
3.141592653589792
 10
41.75419080460779
 20
199.7255548450634
 30
0.0
 75
     0
  1
AcDbOsnapPointRef
 72
     1
331
217
 73
     2
 91
        0
 40
1.0
 10
66.75419080460779
 20
201.7255548450634
 30
0.0
 75
     0
  0
DIMASSOC
  5
22F
102
{ACAD_REACTORS
330
22E
102
}
330
22E
100
AcDbDimAssoc
330
22D
 90
        3
 70
     0
 71
     0
  1
AcDbOsnapPointRef
 72
    13
331
22A
 73
     2
 91
        0
 40
0.0
 10
83.92484409132157
 20
201.7255548450634
 30
0.0
 75
     0
  1
AcDbOsnapPointRef
 72
    13
331
229
 73
     2
 91
        0
 40
0.0
 10
87.92484409132157
 20
201.7255548450634
 30
0.0
 75
     0
  0
DIMASSOC
  5
260
102
{ACAD_REACTORS
330
25F
102
}
330
25F
100
AcDbDimAssoc
330
25E
 90
        3
 70
     0
 71
     0
  1
AcDbOsnapPointRef
 72
    13
331
2F4
 73
     2
 91
        0
 40
0.0
 10
221.6807410601486
 20
324.4604743046652
 30
0.0
 75
     0
  1
AcDbOsnapPointRef
 72
     1
331
26D
 73
     2
 91
        0
 40
1.0
 10
196.6807410601486
 20
324.4604743046643
 30
0.0
 75
     0
  0
DIMASSOC
  5
29C
102
{ACAD_REACTORS
330
29B
102
}
330
29B
100
AcDbDimAssoc
330
29A
 90
        3
 70
     0
 71
     0
  1
AcDbOsnapPointRef
 72
     1
331
271
 73
     2
 91
        0
 40
1.0
 10
192.7826022589179
 20
319.4604743046643
 30
0.0
 75
     0
  1
AcDbOsnapPointRef
 72
    13
331
290
 73
     2
 91
        0
 40
0.0
 10
213.3210228148454
 20
304.4604743046643
 30
0.0
 75
     0
  0
DIMASSOC
  5
2B3
102
{ACAD_REACTORS
330
2B2
102
}
330
2B2
100
AcDbDimAssoc
330
2B1
 90
        3
 70
     0
 71
     0
  1
AcDbOsnapPointRef
 72
     1
331
2D5
 73
     2
 91
        0
 40
1.0
 10
56.89132679579052
 20
277.8474860953433
 30
0.0
 75
     0
  1
AcDbOsnapPointRef
 72
     1
331
2C1
 73
     2
 91
        0
 40
1.0
 10
126.8913267957905
 20
277.8474860953433
 30
0.0
 75
     0
  0
DIMASSOC
  5
2C4
102
{ACAD_REACTORS
330
2C3
102
}
330
2C3
100
AcDbDimAssoc
330
2C2
 90
        3
 70
     0
 71
     0
  1
AcDbOsnapPointRef
 72
     1
331
2D3
 73
     2
 91
        0
 40
1.0
 10
196.6807410601486
 20
314.4604743046643
 30
0.0
 75
     0
  1
AcDbOsnapPointRef
 72
     6
331
2D3
 73
     2
 91
        0
 40
0.0000000000000114
 10
196.6807410601486
 20
324.4604743046643
 30
0.0
332
26D
 74
     2
 92
        0
 75
     0
  0
DIMASSOC
  5
2E3
102
{ACAD_REACTORS
330
2E2
102
}
330
2E2
100
AcDbDimAssoc
330
2E1
 90
        3
 70
     0
 71
     0
  1
AcDbOsnapPointRef
 72
    13
331
2F9
 73
     2
 91
        0
 40
0.0
 10
228.6807410601486
 20
339.4604743046643
 30
0.0
 75
     0
  1
AcDbOsnapPointRef
 72
    13
331
2FA
 73
     2
 91
        0
 40
0.0
 10
225.6807410601486
 20
333.9604743046643
 30
0.0
 75
     0
  0
DIMASSOC
  5
2FE
102
{ACAD_REACTORS
330
2FD
102
}
330
2FD
100
AcDbDimAssoc
330
2FC
 90
        3
 70
     0
 71
     0
  1
AcDbOsnapPointRef
 72
     1
331
2E0
 73
     2
 91
        0
 40
1.0
 10
270.6807410601468
 20
269.4604743046643
 30
0.0
 75
     0
  1
AcDbOsnapPointRef
 72
     1
331
2F9
 73
     2
 91
        0
 40
1.0
 10
228.6807410601486
 20
269.4604743046643
 30
0.0
 75
     0
  0
DIMASSOC
  5
312
102
{ACAD_REACTORS
330
311
102
}
330
311
100
AcDbDimAssoc
330
310
 90
        3
 70
     0
 71
     0
  1
AcDbOsnapPointRef
 72
    13
331
31F
 73
     2
 91
        0
 40
0.0
 10
192.7007559304274
 20
464.9759083163951
 30
0.0
 75
     0
  1
AcDbOsnapPointRef
 72
     1
331
31F
 73
     2
 91
        0
 40
1.0
 10
222.7007559304274
 20
464.9759083163951
 30
0.0
 75
     0
  0
DIMASSOC
  5
325
102
{ACAD_REACTORS
330
324
102
}
330
324
100
AcDbDimAssoc
330
323
 90
        3
 70
     0
 71
     0
  1
AcDbOsnapPointRef
 72
    13
331
354
 73
     2
 91
        0
 40
0.0
 10
190.7007559304256
 20
461.9759083163942
 30
0.0
 75
     0
  1
AcDbOsnapPointRef
 72
    13
331
31F
 73
     2
 91
        0
 40
0.0
 10
192.7007559304274
 20
464.9759083163951
 30
0.0
 75
     0
  0
DIMASSOC
  5
35E
102
{ACAD_REACTORS
330
35D
102
}
330
35D
100
AcDbDimAssoc
330
35C
 90
        3
 70
     0
 71
     0
  1
AcDbOsnapPointRef
 72
     1
331
357
 73
     2
 91
        0
 40
3.141592653589792
 10
66.13939392818429
 20
459.9759083163942
 30
0.0
 75
     0
  1
AcDbOsnapPointRef
 72
    13
331
322
 73
     2
 91
        0
 40
0.0
 10
136.1393939281842
 20
459.9759083163942
 30
0.0
 75
     0
  0
DIMASSOC
  5
370
102
{ACAD_REACTORS
330
36F
102
}
330
36F
100
AcDbDimAssoc
330
36E
 90
        1
 70
     0
 71
     0
  1
AcDbOsnapPointRef
 72
    13
331
354
 73
     2
 91
        0
 40
0.0
 10
190.7007559304256
 20
461.9759083163942
 30
0.0
 75
     0
  0
MLINESTYLE
  5
9B
102
{ACAD_REACTORS
330
99
102
}
330
99
100
AcDbMlineStyle
  2
STANDARD
 70
     0
  3

 62
   256
 51
90.0
 52
90.0
 71
     2
 49
0.5
 62
   256
  6
BYLAYER
 49
-0.5
 62
   256
  6
BYLAYER
  0
ACDBPLACEHOLDER
  5
7
102
{ACAD_REACTORS
330
8
102
}
330
8
100
AcDbPlaceHolder
280
     0
  0
XRECORD
  5
518
102
{ACAD_REACTORS
330
50E
102
}
330
50E
100
AcDbXrecord
 90
        0
  0
XRECORD
  5
51C
102
{ACAD_REACTORS
330
50E
102
}
330
50E
100
AcDbXrecord
1000
DSTYLE
1002
{
1070
    79
 70
     2
1070
   179
 70
     1
1070
   289
 70
     0
1002
}
  0
XRECORD
  5
519
102
{ACAD_REACTORS
330
50E
102
}
330
50E
100
AcDbXrecord
  1
{FDEAD578-A652-11D2-9A35-0060089B3A3F}
  0
XRECORD
  5
511
102
{ACAD_REACTORS
330
50E
102
}
330
50E
100
AcDbXrecord
  1

  0
XRECORD
  5
517
102
{ACAD_REACTORS
330
50E
102
}
330
50E
100
AcDbXrecord
 90
        4
  0
XRECORD
  5
513
102
{ACAD_REACTORS
330
50E
102
}
330
50E
100
AcDbXrecord
340
D
  0
XRECORD
  5
516
102
{ACAD_REACTORS
330
50E
102
}
330
50E
100
AcDbXrecord
 90
    10781
  0
XRECORD
  5
514
102
{ACAD_REACTORS
330
50E
102
}
330
50E
100
AcDbXrecord
340
9A
  0
XRECORD
  5
515
102
{ACAD_REACTORS
330
50E
102
}
330
50E
100
AcDbXrecord
340
8
  0
XRECORD
  5
51B
102
{ACAD_REACTORS
330
50E
102
}
330
50E
100
AcDbXrecord
 40
0.0
  0
XRECORD
  5
51F
102
{ACAD_REACTORS
330
50E
102
}
330
50E
100
AcDbXrecord
340
0
  0
XRECORD
  5
525
102
{ACAD_REACTORS
330
50E
102
}
330
50E
100
AcDbXrecord
 10
0.0
 20
0.0
 30
0.0
  0
XRECORD
  5
521
102
{ACAD_REACTORS
330
50E
102
}
330
50E
100
AcDbXrecord
 10
0.0
 20
0.0
 30
0.0
  0
XRECORD
  5
524
102
{ACAD_REACTORS
330
50E
102
}
330
50E
100
AcDbXrecord
 10
0.0
 20
0.0
 30
0.0
  0
XRECORD
  5
522
102
{ACAD_REACTORS
330
50E
102
}
330
50E
100
AcDbXrecord
 10
0.0
 20
0.0
 30
0.0
  0
XRECORD
  5
523
102
{ACAD_REACTORS
330
50E
102
}
330
50E
100
AcDbXrecord
 10
0.0
 20
0.0
 30
0.0
  0
XRECORD
  5
520
102
{ACAD_REACTORS
330
50E
102
}
330
50E
100
AcDbXrecord
 10
0.0
 20
0.0
 30
0.0
  0
XRECORD
  5
51D
102
{ACAD_REACTORS
330
50E
102
}
330
50E
100
AcDbXrecord
340
0
  0
XRECORD
  5
51E
102
{ACAD_REACTORS
330
50E
102
}
330
50E
100
AcDbXrecord
 70
     0
  0
XRECORD
  5
512
102
{ACAD_REACTORS
330
50E
102
}
330
50E
100
AcDbXrecord
  1

  0
XRECORD
  5
50F
102
{ACAD_REACTORS
330
50E
102
}
330
50E
100
AcDbXrecord
 90
        1
  0
XRECORD
  5
510
102
{ACAD_REACTORS
330
50E
102
}
330
50E
100
AcDbXrecord
 90
       70
  0
XRECORD
  5
528
102
{ACAD_REACTORS
330
50E
102
}
330
50E
100
AcDbXrecord
340
0
  0
XRECORD
  5
52E
102
{ACAD_REACTORS
330
50E
102
}
330
50E
100
AcDbXrecord
 10
0.0
 20
0.0
 30
0.0
  0
XRECORD
  5
52A
102
{ACAD_REACTORS
330
50E
102
}
330
50E
100
AcDbXrecord
 10
0.0
 20
0.0
 30
0.0
  0
XRECORD
  5
52D
102
{ACAD_REACTORS
330
50E
102
}
330
50E
100
AcDbXrecord
 10
0.0
 20
0.0
 30
0.0
  0
XRECORD
  5
52B
102
{ACAD_REACTORS
330
50E
102
}
330
50E
100
AcDbXrecord
 10
0.0
 20
0.0
 30
0.0
  0
XRECORD
  5
52C
102
{ACAD_REACTORS
330
50E
102
}
330
50E
100
AcDbXrecord
 10
0.0
 20
0.0
 30
0.0
  0
XRECORD
  5
529
102
{ACAD_REACTORS
330
50E
102
}
330
50E
100
AcDbXrecord
 10
0.0
 20
0.0
 30
0.0
  0
XRECORD
  5
526
102
{ACAD_REACTORS
330
50E
102
}
330
50E
100
AcDbXrecord
340
0
  0
XRECORD
  5
527
102
{ACAD_REACTORS
330
50E
102
}
330
50E
100
AcDbXrecord
 70
     0
  0
XRECORD
  5
51A
102
{ACAD_REACTORS
330
50E
102
}
330
50E
100
AcDbXrecord
  1
{0F4CAFB1-F3D1-4B89-8D74-0A121F2881CE}
  0
DICTIONARYVAR
  5
380
102
{ACAD_REACTORS
330
37E
102
}
330
37E
100
DictionaryVariables
280
     0
  1
2
  0
DICTIONARYVAR
  5
37F
102
{ACAD_REACTORS
330
37E
102
}
330
37E
100
DictionaryVariables
280
     0
  1
1
  0
XRECORD
  5
17
102
{ACAD_REACTORS
330
16
102
}
330
16
100
AcDbXrecord
  1
$layers
  1
*
  1
*
  1
*
 70
     0
  1
*
  1
*
  0
XRECORD
  5
18
102
{ACAD_REACTORS
330
16
102
}
330
16
100
AcDbXrecord
  1
- und 0
  1
-*,0
  1
*
  1
*
 70
     0
  1
*
  1
*
  0
XRECORD
  5
19
102
{ACAD_REACTORS
330
16
102
}
330
16
100
AcDbXrecord
  1
-pegc
  1
*-pegc
  1
*
  1
*
 70
     0
  1
*
  1
*
  0
XRECORD
  5
1A
102
{ACAD_REACTORS
330
16
102
}
330
16
100
AcDbXrecord
  1
101
  1
*101
  1
*
  1
*
 70
   256
  1
*
  1
*
  0
XRECORD
  5
1B
102
{ACAD_REACTORS
330
16
102
}
330
16
100
AcDbXrecord
  1
102
  1
102*
  1
*
  1
*
 70
     0
  1
*
  1
*
  0
XRECORD
  5
1C
102
{ACAD_REACTORS
330
16
102
}
330
16
100
AcDbXrecord
  1
1duc
  1
*1duc*
  1
*
  1
*
 70
     0
  1
*
  1
*
  0
XRECORD
  5
1D
102
{ACAD_REACTORS
330
16
102
}
330
16
100
AcDbXrecord
  1
1eq
  1
*1eq*
  1
*
  1
*
 70
     0
  1
*
  1
*
  0
XRECORD
  5
1E
102
{ACAD_REACTORS
330
16
102
}
330
16
100
AcDbXrecord
  1
1tub
  1
*1t*
  1
*
  1
*
 70
     0
  1
*
  1
*
  0
XRECORD
  5
1F
102
{ACAD_REACTORS
330
16
102
}
330
16
100
AcDbXrecord
  1
2
  1
*
  1
2
  1
*
 70
     0
  1
*
  1
*
  0
XRECORD
  5
20
102
{ACAD_REACTORS
330
16
102
}
330
16
100
AcDbXrecord
  1
2000
  1
2000*
  1
*
  1
*
 70
     0
  1
*
  1
*
  0
XRECORD
  5
21
102
{ACAD_REACTORS
330
16
102
}
330
16
100
AcDbXrecord
  1
50
  1
*-50
  1
*
  1
*
 70
     0
  1
*
  1
*
  0
XRECORD
  5
22
102
{ACAD_REACTORS
330
16
102
}
330
16
100
AcDbXrecord
  1
58J
  1
*58*
  1
*
  1
*
 70
     0
  1
*
  1
*
  0
XRECORD
  5
23
102
{ACAD_REACTORS
330
16
102
}
330
16
100
AcDbXrecord
  1
65
  1
*65
  1
*
  1
*
 70
     0
  1
*
  1
*
  0
XRECORD
  5
24
102
{ACAD_REACTORS
330
16
102
}
330
16
100
AcDbXrecord
  1
aa
  1
aa*
  1
*
  1
*
 70
     0
  1
*
  1
*
  0
XRECORD
  5
25
102
{ACAD_REACTORS
330
16
102
}
330
16
100
AcDbXrecord
  1
acabados
  1
a-*
  1
*
  1
*
 70
     5
  1
*
  1
*
  0
XRECORD
  5
26
102
{ACAD_REACTORS
330
16
102
}
330
16
100
AcDbXrecord
  1
AGUA Y DREN
  1
A-DS-*
  1
*
  1
*
 70
     0
  1
*
  1
*
  0
XRECORD
  5
27
102
{ACAD_REACTORS
330
16
102
}
330
16
100
AcDbXrecord
  1
Aire
  1
*
  1
*
  1
*
 70
     0
  1
*
  1
*
  0
XRECORD
  5
28
102
{ACAD_REACTORS
330
16
102
}
330
16
100
AcDbXrecord
  1
alle aus
  1
99999999999
  1
*
  1
*
 70
     0
  1
*
  1
*
  0
XRECORD
  5
29
102
{ACAD_REACTORS
330
16
102
}
330
16
100
AcDbXrecord
  1
Alles mit S
  1
s*
  1
*
  1
*
 70
     0
  1
*
  1
*
  0
XRECORD
  5
2A
102
{ACAD_REACTORS
330
16
102
}
330
16
100
AcDbXrecord
  1
amarillo
  1
*
  1
yellow
  1
*
 70
     0
  1
*
  1
*
  0
XRECORD
  5
2B
102
{ACAD_REACTORS
330
16
102
}
330
16
100
AcDbXrecord
  1
APAGADOS
  1
*
  1
*
  1
*
 70
     4
  1
*
  1
*
  0
XRECORD
  5
2C
102
{ACAD_REACTORS
330
16
102
}
330
16
100
AcDbXrecord
  1
ARR
  1
ARR*
  1
*
  1
*
 70
     0
  1
*
  1
*
  0
XRECORD
  5
2D
102
{ACAD_REACTORS
330
16
102
}
330
16
100
AcDbXrecord
  1
ba
  1
*
  1
*
  1
*
 70
     0
  1
*
  1
*
  0
XRECORD
  5
2E
102
{ACAD_REACTORS
330
16
102
}
330
16
100
AcDbXrecord
  1
BACKS
  1
*-H
  1
*
  1
*
 70
     0
  1
*
  1
*
  0
XRECORD
  5
2F
102
{ACAD_REACTORS
330
16
102
}
330
16
100
AcDbXrecord
  1
BASE
  1
*-PBASE
  1
*
  1
*
 70
     0
  1
*
  1
*
  0
XRECORD
  5
30
102
{ACAD_REACTORS
330
16
102
}
330
16
100
AcDbXrecord
  1
BLOQ_INUTIL
  1
*
  1
*
  1
*
 70
     0
  1
*
  1
*
  0
XRECORD
  5
31
102
{ACAD_REACTORS
330
16
102
}
330
16
100
AcDbXrecord
  1
CADKON
  1
?[KAHBSM]?????[23M],?[KAHBSM]?????[23M][1456A-DGHILN-SU-Z]
  1
*
  1
*
 70
     0
  1
*
  1
*
  0
XRECORD
  5
32
102
{ACAD_REACTORS
330
16
102
}
330
16
100
AcDbXrecord
  1
carpinteria
  1
carp*
  1
*
  1
*
 70
     0
  1
*
  1
*
  0
XRECORD
  5
33
102
{ACAD_REACTORS
330
16
102
}
330
16
100
AcDbXrecord
  1
cerrados
  1
*
  1
*
  1
*
 70
   256
  1
*
  1
*
  0
XRECORD
  5
34
102
{ACAD_REACTORS
330
16
102
}
330
16
100
AcDbXrecord
  1
COL
  1
*
  1
*
  1
*
 70
     1
  1
*
  1
*
  0
XRECORD
  5
35
102
{ACAD_REACTORS
330
16
102
}
330
16
100
AcDbXrecord
  1
COLOR
  1
*
  1
253
  1
*
 70
     0
  1
*
  1
*
  0
XRECORD
  5
36
102
{ACAD_REACTORS
330
16
102
}
330
16
100
AcDbXrecord
  1
color 250
  1
*
  1
250
  1
*
 70
     0
  1
*
  1
*
  0
XRECORD
  5
37
102
{ACAD_REACTORS
330
16
102
}
330
16
100
AcDbXrecord
  1
COLORES
  1
*
  1
6
  1
*
 70
     0
  1
*
  1
*
  0
XRECORD
  5
38
102
{ACAD_REACTORS
330
16
102
}
330
16
100
AcDbXrecord
  1
Congelados
  1
*
  1
*
  1
*
 70
     4
  1
*
  1
*
  0
XRECORD
  5
39
102
{ACAD_REACTORS
330
16
102
}
330
16
100
AcDbXrecord
  1
CONJUNTO
  1
CON-*
  1
*
  1
*
 70
     0
  1
*
  1
*
  0
XRECORD
  5
3A
102
{ACAD_REACTORS
330
16
102
}
330
16
100
AcDbXrecord
  1
d1
  1
achurados
  1
*
  1
*
 70
     0
  1
*
  1
*
  0
XRECORD
  5
3B
102
{ACAD_REACTORS
330
16
102
}
330
16
100
AcDbXrecord
  1
DA_
  1
DA*
  1
*
  1
*
 70
     0
  1
*
  1
*
  0
XRECORD
  5
3C
102
{ACAD_REACTORS
330
16
102
}
330
16
100
AcDbXrecord
  1
DET-
  1
*
  1
*
  1
*
 70
     0
  1
*
  1
*
  0
XRECORD
  5
3D
102
{ACAD_REACTORS
330
16
102
}
330
16
100
AcDbXrecord
  1
DOR-H
  1
*
  1
7
  1
*
 70
     0
  1
*
  1
*
  0
XRECORD
  5
3E
102
{ACAD_REACTORS
330
16
102
}
330
16
100
AcDbXrecord
  1
ejes
  1
eje*
  1
*
  1
*
 70
     0
  1
*
  1
*
  0
XRECORD
  5
3F
102
{ACAD_REACTORS
330
16
102
}
330
16
100
AcDbXrecord
  1
ELECTRICO
  1
ELEC-*
  1
*
  1
*
 70
     0
  1
*
  1
*
  0
XRECORD
  5
40
102
{ACAD_REACTORS
330
16
102
}
330
16
100
AcDbXrecord
  1
F1
  1
Halaxref*
  1
*
  1
*
 70
     0
  1
*
  1
*
  0
XRECORD
  5
41
102
{ACAD_REACTORS
330
16
102
}
330
16
100
AcDbXrecord
  1
frozen
  1
*
  1
*
  1
*
 70
     4
  1
*
  1
*
  0
XRECORD
  5
42
102
{ACAD_REACTORS
330
16
102
}
330
16
100
AcDbXrecord
  1
grid
  1
*-PGRID
  1
*
  1
*
 70
     1
  1
*
  1
*
  0
XRECORD
  5
43
102
{ACAD_REACTORS
330
16
102
}
330
16
100
AcDbXrecord
  1
GRIDTXT
  1
*-PGRIDT
  1
*
  1
*
 70
     0
  1
*
  1
*
  0
XRECORD
  5
44
102
{ACAD_REACTORS
330
16
102
}
330
16
100
AcDbXrecord
  1
HATCH
  1
HAT*
  1
*
  1
*
 70
     0
  1
*
  1
*
  0
XRECORD
  5
45
102
{ACAD_REACTORS
330
16
102
}
330
16
100
AcDbXrecord
  1
HCAD
  1
1HCAD-*
  1
*
  1
*
 70
    13
  1
*
  1
*
  0
XRECORD
  5
46
102
{ACAD_REACTORS
330
16
102
}
330
16
100
AcDbXrecord
  1
INSTALACIONES
  1
I-*
  1
*
  1
*
 70
     0
  1
*
  1
*
  0
XRECORD
  5
47
102
{ACAD_REACTORS
330
16
102
}
330
16
100
AcDbXrecord
  1
JIZNI
  1
*-J
  1
*
  1
*
 70
     0
  1
*
  1
*
  0
XRECORD
  5
48
102
{ACAD_REACTORS
330
16
102
}
330
16
100
AcDbXrecord
  1
kck
  1
*
  1
*
  1
*
 70
     0
  1
*
  1
*
  0
XRECORD
  5
49
102
{ACAD_REACTORS
330
16
102
}
330
16
100
AcDbXrecord
  1
kkk
  1
k
  1
*
  1
*
 70
     0
  1
*
  1
*
  0
XRECORD
  5
4A
102
{ACAD_REACTORS
330
16
102
}
330
16
100
AcDbXrecord
  1
lay
  1
??-*
  1
*
  1
*
 70
     0
  1
*
  1
*
  0
XRECORD
  5
4E
102
{ACAD_REACTORS
330
16
102
}
330
16
100
AcDbXrecord
  1
Layer-0
  1
0*
  1
*
  1
*
 70
     0
  1
*
  1
*
  0
XRECORD
  5
4F
102
{ACAD_REACTORS
330
16
102
}
330
16
100
AcDbXrecord
  1
Layer-1
  1
1*
  1
*
  1
*
 70
     0
  1
*
  1
*
  0
XRECORD
  5
4B
102
{ACAD_REACTORS
330
16
102
}
330
16
100
AcDbXrecord
  1
Layer 1 und 0
  1
1*,0
  1
*
  1
*
 70
     0
  1
*
  1
*
  0
XRECORD
  5
4C
102
{ACAD_REACTORS
330
16
102
}
330
16
100
AcDbXrecord
  1
Layer 2 und 0
  1
2*,0
  1
*
  1
*
 70
     0
  1
*
  1
*
  0
XRECORD
  5
4D
102
{ACAD_REACTORS
330
16
102
}
330
16
100
AcDbXrecord
  1
Layer 9 und 0 Schraffur
  1
9*,0
  1
*
  1
*
 70
     0
  1
*
  1
*
  0
XRECORD
  5
50
102
{ACAD_REACTORS
330
16
102
}
330
16
100
AcDbXrecord
  1
LOCK
  1
*
  1
*
  1
*
 70
   256
  1
*
  1
*
  0
XRECORD
  5
51
102
{ACAD_REACTORS
330
16
102
}
330
16
100
AcDbXrecord
  1
locked
  1
*
  1
*
  1
*
 70
   256
  1
*
  1
*
  0
XRECORD
  5
52
102
{ACAD_REACTORS
330
16
102
}
330
16
100
AcDbXrecord
  1
Lotes
  1
*
  1
*
  1
*
 70
     1
  1
*
  1
*
  0
XRECORD
  5
53
102
{ACAD_REACTORS
330
16
102
}
330
16
100
AcDbXrecord
  1
LUNAR
  1
*
  1
*
  1
*
 70
    48
  1
*
  1
*
  0
XRECORD
  5
54
102
{ACAD_REACTORS
330
16
102
}
330
16
100
AcDbXrecord
  1
LUNAR2
  1
*
  1
*
  1
*
 70
    12
  1
*
  1
*
  0
XRECORD
  5
55
102
{ACAD_REACTORS
330
16
102
}
330
16
100
AcDbXrecord
  1
M
  1
M*
  1
*
  1
*
 70
     0
  1
*
  1
*
  0
XRECORD
  5
56
102
{ACAD_REACTORS
330
16
102
}
330
16
100
AcDbXrecord
  1
mis_layers
  1
mis_*
  1
*
  1
*
 70
     0
  1
*
  1
*
  0
XRECORD
  5
57
102
{ACAD_REACTORS
330
16
102
}
330
16
100
AcDbXrecord
  1
MRKCK
  1
*
  1
*
  1
*
 70
     0
  1
*
  1
*
  0
XRECORD
  5
58
102
{ACAD_REACTORS
330
16
102
}
330
16
100
AcDbXrecord
  1
NECADKON
  1
~*?[KAHBSM]?????[23M]*
  1
*
  1
*
 70
     0
  1
*
  1
*
  0
XRECORD
  5
59
102
{ACAD_REACTORS
330
16
102
}
330
16
100
AcDbXrecord
  1
NI_LH
  1
NI_LH*
  1
*
  1
*
 70
     0
  1
*
  1
*
  0
XRECORD
  5
5A
102
{ACAD_REACTORS
330
16
102
}
330
16
100
AcDbXrecord
  1
NI_RH
  1
NI_RH*
  1
*
  1
*
 70
     0
  1
*
  1
*
  0
XRECORD
  5
5B
102
{ACAD_REACTORS
330
16
102
}
330
16
100
AcDbXrecord
  1
NUM
  1
NUM*
  1
*
  1
*
 70
     0
  1
*
  1
*
  0
XRECORD
  5
5C
102
{ACAD_REACTORS
330
16
102
}
330
16
100
AcDbXrecord
  1
off
  1
*
  1
*
  1
*
 70
     3
  1
*
  1
*
  0
XRECORD
  5
5D
102
{ACAD_REACTORS
330
16
102
}
330
16
100
AcDbXrecord
  1
on
  1
*
  1
*
  1
*
 70
     0
  1
*
  1
*
  0
XRECORD
  5
5E
102
{ACAD_REACTORS
330
16
102
}
330
16
100
AcDbXrecord
  1
PBASE
  1
*PBASE
  1
*
  1
*
 70
     0
  1
*
  1
*
  0
XRECORD
  5
5F
102
{ACAD_REACTORS
330
16
102
}
330
16
100
AcDbXrecord
  1
PEGC
  1
*PEGC
  1
*
  1
*
 70
     0
  1
*
  1
*
  0
XRECORD
  5
60
102
{ACAD_REACTORS
330
16
102
}
330
16
100
AcDbXrecord
  1
PEGCT
  1
*PEGCT
  1
*
  1
*
 70
     0
  1
*
  1
*
  0
XRECORD
  5
61
102
{ACAD_REACTORS
330
16
102
}
330
16
100
AcDbXrecord
  1
PFRAME
  1
PFRAME*
  1
*
  1
*
 70
     0
  1
*
  1
*
  0
XRECORD
  5
62
102
{ACAD_REACTORS
330
16
102
}
330
16
100
AcDbXrecord
  1
PGRID
  1
*PGRID
  1
*
  1
*
 70
     0
  1
*
  1
*
  0
XRECORD
  5
63
102
{ACAD_REACTORS
330
16
102
}
330
16
100
AcDbXrecord
  1
PGRIDT
  1
*PGRIDT
  1
*
  1
*
 70
     0
  1
*
  1
*
  0
XRECORD
  5
64
102
{ACAD_REACTORS
330
16
102
}
330
16
100
AcDbXrecord
  1
PLAFONES
  1
0-*
  1
*
  1
*
 70
     0
  1
*
  1
*
  0
XRECORD
  5
65
102
{ACAD_REACTORS
330
16
102
}
330
16
100
AcDbXrecord
  1
PLANTAS
  1
P-*
  1
*
  1
*
 70
     0
  1
*
  1
*
  0
XRECORD
  5
66
102
{ACAD_REACTORS
330
16
102
}
330
16
100
AcDbXrecord
  1
Plot
  1
*
  1
*
  1
*
 70
  1024
  1
*
  1
*
  0
XRECORD
  5
67
102
{ACAD_REACTORS
330
16
102
}
330
16
100
AcDbXrecord
  1
PRENDIDAS
  1
*
  1
*
  1
*
 70
    13
  1
*
  1
*
  0
XRECORD
  5
68
102
{ACAD_REACTORS
330
16
102
}
330
16
100
AcDbXrecord
  1
PRENDIDOS
  1
*
  1
*
  1
*
 70
    12
  1
*
  1
*
  0
XRECORD
  5
69
102
{ACAD_REACTORS
330
16
102
}
330
16
100
AcDbXrecord
  1
print
  1
*
  1
7
  1
*
 70
  1280
  1
*
  1
*
  0
XRECORD
  5
6A
102
{ACAD_REACTORS
330
16
102
}
330
16
100
AcDbXrecord
  1
PT
  1
PT-*
  1
*
  1
*
 70
     0
  1
*
  1
*
  0
XRECORD
  5
6B
102
{ACAD_REACTORS
330
16
102
}
330
16
100
AcDbXrecord
  1
PTH
  1
PTH*
  1
*
  1
*
 70
     0
  1
*
  1
*
  0
XRECORD
  5
6C
102
{ACAD_REACTORS
330
16
102
}
330
16
100
AcDbXrecord
  1
PVGRID
  1
*PVGRID
  1
*
  1
*
 70
     0
  1
*
  1
*
  0
XRECORD
  5
6D
102
{ACAD_REACTORS
330
16
102
}
330
16
100
AcDbXrecord
  1
Red de Agua Potable
  1
Red de Agua Potable
  1
*
  1
*
 70
     1
  1
*
  1
*
  0
XRECORD
  5
6E
102
{ACAD_REACTORS
330
16
102
}
330
16
100
AcDbXrecord
  1
Red de Energia Electrica
  1
Lotes
  1
*
  1
*
 70
     1
  1
*
  1
*
  0
XRECORD
  5
6F
102
{ACAD_REACTORS
330
16
102
}
330
16
100
AcDbXrecord
  1
SEVERNI
  1
*-S
  1
*
  1
*
 70
     0
  1
*
  1
*
  0
XRECORD
  5
70
102
{ACAD_REACTORS
330
16
102
}
330
16
100
AcDbXrecord
  1
shin
  1
일*
  1
*
  1
*
 70
     0
  1
*
  1
*
  0
XRECORD
  5
71
102
{ACAD_REACTORS
330
16
102
}
330
16
100
AcDbXrecord
  1
SHOW ALL LAYER
  1
*
  1
*
  1
*
 70
     0
  1
*
  1
*
  0
XRECORD
  5
72
102
{ACAD_REACTORS
330
16
102
}
330
16
100
AcDbXrecord
  1
sin
  1
sin
  1
*
  1
*
 70
     0
  1
*
  1
*
  0
XRECORD
  5
73
102
{ACAD_REACTORS
330
16
102
}
330
16
100
AcDbXrecord
  1
STORAGE-CART
  1
STORAGE-CART*
  1
*
  1
*
 70
     0
  1
*
  1
*
  0
XRECORD
  5
74
102
{ACAD_REACTORS
330
16
102
}
330
16
100
AcDbXrecord
  1
T
  1
T*
  1
*
  1
*
 70
     0
  1
*
  1
*
  0
XRECORD
  5
75
102
{ACAD_REACTORS
330
16
102
}
330
16
100
AcDbXrecord
  1
TEXTOS
  1
TXT*
  1
*
  1
*
 70
     0
  1
*
  1
*
  0
XRECORD
  5
76
102
{ACAD_REACTORS
330
16
102
}
330
16
100
AcDbXrecord
  1
TEXTURAS
  1
*TEXTURAS
  1
*
  1
*
 70
     0
  1
*
  1
*
  0
XRECORD
  5
77
102
{ACAD_REACTORS
330
16
102
}
330
16
100
AcDbXrecord
  1
TUBERIAS
  1
T*
  1
*
  1
*
 70
     0
  1
*
  1
*
  0
XRECORD
  5
78
102
{ACAD_REACTORS
330
16
102
}
330
16
100
AcDbXrecord
  1
UNFRZ
  1
*
  1
*
  1
*
 70
    12
  1
*
  1
*
  0
XRECORD
  5
79
102
{ACAD_REACTORS
330
16
102
}
330
16
100
AcDbXrecord
  1
v\U+0161echny nepou\U+017E\U+00EDvan\U+00E9
  1
*
  1
*
  1
*
 70
     0
  1
*
  1
*
  0
XRECORD
  5
7A
102
{ACAD_REACTORS
330
16
102
}
330
16
100
AcDbXrecord
  1
VA
  1
VA*
  1
*
  1
*
 70
     0
  1
*
  1
*
  0
XRECORD
  5
7B
102
{ACAD_REACTORS
330
16
102
}
330
16
100
AcDbXrecord
  1
Ventilaci\U+00F3n
  1
*
  1
*
  1
*
 70
     0
  1
*
  1
*
  0
XRECORD
  5
7C
102
{ACAD_REACTORS
330
16
102
}
330
16
100
AcDbXrecord
  1
VYHODNI
  1
*-V
  1
*
  1
*
 70
     0
  1
*
  1
*
  0
XRECORD
  5
7D
102
{ACAD_REACTORS
330
16
102
}
330
16
100
AcDbXrecord
  1
Yo
  1
Muros
  1
*
  1
*
 70
     0
  1
*
  1
*
  0
XRECORD
  5
7E
102
{ACAD_REACTORS
330
16
102
}
330
16
100
AcDbXrecord
  1
ZAPADNI
  1
*-Z
  1
*
  1
*
 70
     0
  1
*
  1
*
  0
XRECORD
  5
7F
102
{ACAD_REACTORS
330
16
102
}
330
16
100
AcDbXrecord
  1
사용
  1
*
  1
*
  1
*
 70
   256
  1
*
  1
*
  0
XRECORD
  5
80
102
{ACAD_REACTORS
330
16
102
}
330
16
100
AcDbXrecord
  1
신규
  1
신규
  1
*
  1
*
 70
     0
  1
*
  1
*
  0
XRECORD
  5
81
102
{ACAD_REACTORS
330
16
102
}
330
16
100
AcDbXrecord
  1
실박스
  1
BLO,SYM,SYM1,SYM2
  1
*
  1
*
 70
     0
  1
*
  1
*
  0
XRECORD
  5
82
102
{ACAD_REACTORS
330
16
102
}
330
16
100
AcDbXrecord
  1
우리토목
  1
w-*
  1
*
  1
*
 70
     0
  1
*
  1
*
  0
XRECORD
  5
83
102
{ACAD_REACTORS
330
16
102
}
330
16
100
AcDbXrecord
  1
주차
  1
car*
  1
*
  1
*
 70
     0
  1
*
  1
*
  0
XRECORD
  5
84
102
{ACAD_REACTORS
330
16
102
}
330
16
100
AcDbXrecord
  1
지상정밀
  1
*
  1
*
  1
*
 70
     0
  1
*
  1
*
  0
XRECORD
  5
85
102
{ACAD_REACTORS
330
16
102
}
330
16
100
AcDbXrecord
  1
쩜선
  1
*
  1
*
  1
*
 70
     0
  1
*
  1
*
  0
XRECORD
  5
86
102
{ACAD_REACTORS
330
16
102
}
330
16
100
AcDbXrecord
  1
플로터 작업층
  1
*
  1
*
  1
*
 70
  1025
  1
*
  1
*
  0
XRECORD
  5
87
102
{ACAD_REACTORS
330
16
102
}
330
16
100
AcDbXrecord
  1
현재 작업층
  1
*
  1
*
  1
*
 70
     1
  1
*
  1
*
  0
XRECORD
  5
88
102
{ACAD_REACTORS
330
16
102
}
330
16
100
AcDbXrecord
  1
현재 잠금
  1
*
  1
*
  1
*
 70
   257
  1
*
  1
*
  0
ENDSEC
  0
EOF
