  0
SECTION
  2
HEADER
  9
$ACADVER
  1
AC1014
  9
$ACADMAINTVER
 70
     9
  9
$DWGCODEPAGE
  3
ANSI_949
  9
$INSBASE
 10
0.0
 20
0.0
 30
0.0
  9
$EXTMIN
 10
-20.38089966056577
 20
-12.04372062869151
 30
-0.0015258207003583
  9
$EXTMAX
 10
320.8859506134613
 20
434.7499496239943
 30
0.0000000349246037
  9
$LIMMIN
 10
0.0
 20
0.0
  9
$LIMMAX
 10
420.0
 20
297.0
  9
$ORTHOMODE
 70
     0
  9
$REGENMODE
 70
     1
  9
$FILLMODE
 70
     1
  9
$QTEXTMODE
 70
     0
  9
$MIRRTEXT
 70
     0
  9
$DRAGMODE
 70
     2
  9
$LTSCALE
 40
0.2
  9
$OSMODE
 70
   567
  9
$ATTMODE
 70
     1
  9
$TEXTSIZE
 40
5.777225951253058
  9
$TRACEWID
 40
1.0
  9
$TEXTSTYLE
  7
STANDARD
  9
$CLAYER
  8
0
  9
$CELTYPE
  6
BYLAYER
  9
$CECOLOR
 62
   256
  9
$CELTSCALE
 40
1.0
  9
$DELOBJ
 70
     1
  9
$DISPSILH
 70
     0
  9
$DIMSCALE
 40
1.0
  9
$DIMASZ
 40
3.0
  9
$DIMEXO
 40
1.0
  9
$DIMDLI
 40
10.0
  9
$DIMRND
 40
0.0
  9
$DIMDLE
 40
0.0
  9
$DIMEXE
 40
0.6
  9
$DIMTP
 40
0.0
  9
$DIMTM
 40
0.0
  9
$DIMTXT
 40
3.5
  9
$DIMCEN
 40
0.09
  9
$DIMTSZ
 40
0.0
  9
$DIMTOL
 70
     0
  9
$DIMLIM
 70
     0
  9
$DIMTIH
 70
     0
  9
$DIMTOH
 70
     0
  9
$DIMSE1
 70
     0
  9
$DIMSE2
 70
     0
  9
$DIMTAD
 70
     1
  9
$DIMZIN
 70
     8
  9
$DIMBLK
  1

  9
$DIMASO
 70
     1
  9
$DIMSHO
 70
     1
  9
$DIMPOST
  1

  9
$DIMAPOST
  1

  9
$DIMALT
 70
     0
  9
$DIMALTD
 70
     2
  9
$DIMALTF
 40
25.4
  9
$DIMLFAC
 40
1.0
  9
$DIMTOFL
 70
     1
  9
$DIMTVP
 40
0.0
  9
$DIMTIX
 70
     1
  9
$DIMSOXD
 70
     0
  9
$DIMSAH
 70
     0
  9
$DIMBLK1
  1

  9
$DIMBLK2
  1

  9
$DIMSTYLE
  2
1_1_2
  9
$DIMCLRD
 70
   123
  9
$DIMCLRE
 70
   123
  9
$DIMCLRT
 70
     3
  9
$DIMTFAC
 40
1.0
  9
$DIMGAP
 40
1.0
  9
$DIMJUST
 70
     0
  9
$DIMSD1
 70
     0
  9
$DIMSD2
 70
     0
  9
$DIMTOLJ
 70
     1
  9
$DIMTZIN
 70
     0
  9
$DIMALTZ
 70
     0
  9
$DIMALTTZ
 70
     0
  9
$DIMFIT
 70
     0
  9
$DIMUPT
 70
     1
  9
$DIMUNIT
 70
     2
  9
$DIMDEC
 70
     2
  9
$DIMTDEC
 70
     2
  9
$DIMALTU
 70
     2
  9
$DIMALTTD
 70
     2
  9
$DIMTXSTY
  7
STANDARD
  9
$DIMAUNIT
 70
     1
  9
$LUNITS
 70
     2
  9
$LUPREC
 70
     4
  9
$SKETCHINC
 40
1.0
  9
$FILLETRAD
 40
0.5
  9
$AUNITS
 70
     0
  9
$AUPREC
 70
     0
  9
$MENU
  1
.
  9
$ELEVATION
 40
0.0
  9
$PELEVATION
 40
0.0
  9
$THICKNESS
 40
0.0
  9
$LIMCHECK
 70
     0
  9
$BLIPMODE
 70
     1
  9
$CHAMFERA
 40
1.0
  9
$CHAMFERB
 40
1.0
  9
$CHAMFERC
 40
20.0
  9
$CHAMFERD
 40
0.0
  9
$SKPOLY
 70
     0
  9
$TDCREATE
 40
2452839.586179271
  9
$TDUPDATE
 40
2453376.729540463
  9
$TDINDWG
 40
11.1158119329
  9
$TDUSRTIMER
 40
11.1158117477
  9
$USRTIMER
 70
     1
  9
$ANGBASE
 50
0.0
  9
$ANGDIR
 70
     0
  9
$PDMODE
 70
     0
  9
$PDSIZE
 40
0.0
  9
$PLINEWID
 40
0.0
  9
$COORDS
 70
     2
  9
$SPLFRAME
 70
     0
  9
$SPLINETYPE
 70
     6
  9
$SPLINESEGS
 70
   800
  9
$ATTDIA
 70
     0
  9
$ATTREQ
 70
     1
  9
$HANDLING
 70
 22529
  9
$HANDSEED
  5
512
  9
$SURFTAB1
 70
     6
  9
$SURFTAB2
 70
     6
  9
$SURFTYPE
 70
     6
  9
$SURFU
 70
     6
  9
$SURFV
 70
     6
  9
$UCSNAME
  2

  9
$UCSORG
 10
0.0
 20
0.0
 30
0.0
  9
$UCSXDIR
 10
1.0
 20
0.0
 30
0.0
  9
$UCSYDIR
 10
0.0
 20
1.0
 30
0.0
  9
$PUCSNAME
  2

  9
$PUCSORG
 10
0.0
 20
0.0
 30
0.0
  9
$PUCSXDIR
 10
1.0
 20
0.0
 30
0.0
  9
$PUCSYDIR
 10
0.0
 20
1.0
 30
0.0
  9
$USERI1
 70
     0
  9
$USERI2
 70
     0
  9
$USERI3
 70
     0
  9
$USERI4
 70
     0
  9
$USERI5
 70
     0
  9
$USERR1
 40
0.0
  9
$USERR2
 40
0.0
  9
$USERR3
 40
0.0
  9
$USERR4
 40
0.0
  9
$USERR5
 40
0.0
  9
$WORLDVIEW
 70
     1
  9
$SHADEDGE
 70
     3
  9
$SHADEDIF
 70
    70
  9
$TILEMODE
 70
     1
  9
$MAXACTVP
 70
    48
  9
$PINSBASE
 10
0.0
 20
0.0
 30
0.0
  9
$PLIMCHECK
 70
     0
  9
$PEXTMIN
 10
0.0
 20
0.0
 30
0.0
  9
$PEXTMAX
 10
0.0
 20
0.0
 30
0.0
  9
$PLIMMIN
 10
0.0
 20
0.0
  9
$PLIMMAX
 10
12.0
 20
9.0
  9
$UNITMODE
 70
     0
  9
$VISRETAIN
 70
     1
  9
$PLINEGEN
 70
     0
  9
$PSLTSCALE
 70
     1
  9
$TREEDEPTH
 70
  3020
  9
$PICKSTYLE
 70
     0
  9
$CMLSTYLE
  2
STANDARD
  9
$CMLJUST
 70
     0
  9
$CMLSCALE
 40
20.0
  9
$PROXYGRAPHICS
 70
     1
  9
$MEASUREMENT
 70
     1
  0
ENDSEC
  0
SECTION
  2
CLASSES
  0
CLASS
  1
ACDBDICTIONARYWDFLT
  2
AcDbDictionaryWithDefault
  3
AutoCAD 2000
 90
        0
280
     0
281
     0
  0
CLASS
  1
ACDBPLACEHOLDER
  2
AcDbPlaceHolder
  3
AutoCAD 2000
 90
        0
280
     0
281
     0
  0
CLASS
  1
LAYOUT
  2
AcDbLayout
  3
AutoCAD 2000
 90
        0
280
     0
281
     0
  0
CLASS
  1
DICTIONARYVAR
  2
AcDbDictionaryVar
  3
AutoCAD 2000
 90
        0
280
     0
281
     0
  0
CLASS
  1
DIMASSOC
  2
AcDbDimAssoc
  3
"AcDbDimAssoc|Product Desc:     AcDim ARX App For Dimension|Company:          Autodesk, Inc.|WEB Address:      www.autodesk.com"
 90
        0
280
     0
281
     0
  0
CLASS
  1
LONG_TRANSACTION
  2
AcDbLongTransaction
  3
AutoCAD 2000
 90
        0
280
     0
281
     0
  0
CLASS
  1
LWPOLYLINE
  2
AcDbPolyline
  3
AutoCAD 2000
 90
        0
280
     0
281
     1
  0
CLASS
  1
HATCH
  2
AcDbHatch
  3
AutoCAD 2000
 90
        0
280
     0
281
     1
  0
CLASS
  1
XRECORD
  2
AcDbXrecord
  3
AutoCAD 2000
 90
        0
280
     0
281
     0
  0
CLASS
  1
LONG_TRANSACTION
  2
AcDbLongTransaction
  3
AutoCAD 2000
 90
        0
280
     0
281
     0
  0
CLASS
  1
LWPOLYLINE
  2
AcDbPolyline
  3
AutoCAD 2000
 90
        0
280
     0
281
     1
  0
CLASS
  1
HATCH
  2
AcDbHatch
  3
AutoCAD 2000
 90
        0
280
     0
281
     1
  0
CLASS
  1
XRECORD
  2
AcDbXrecord
  3
AutoCAD 2000
 90
        0
280
     0
281
     0
  0
CLASS
  1
LONG_TRANSACTION
  2
AcDbLongTransaction
  3
AutoCAD 2000
 90
        0
280
     0
281
     0
  0
CLASS
  1
LWPOLYLINE
  2
AcDbPolyline
  3
AutoCAD 2000
 90
        0
280
     0
281
     1
  0
CLASS
  1
HATCH
  2
AcDbHatch
  3
AutoCAD 2000
 90
        0
280
     0
281
     1
  0
CLASS
  1
XRECORD
  2
AcDbXrecord
  3
AutoCAD 2000
 90
        0
280
     0
281
     0
  0
CLASS
  1
LONG_TRANSACTION
  2
AcDbLongTransaction
  3
AutoCAD 2000
 90
        0
280
     0
281
     0
  0
CLASS
  1
LWPOLYLINE
  2
AcDbPolyline
  3
AutoCAD 2000
 90
        0
280
     0
281
     1
  0
CLASS
  1
HATCH
  2
AcDbHatch
  3
AutoCAD 2000
 90
        0
280
     0
281
     1
  0
CLASS
  1
XRECORD
  2
AcDbXrecord
  3
AutoCAD 2000
 90
        0
280
     0
281
     0
  0
CLASS
  1
LONG_TRANSACTION
  2
AcDbLongTransaction
  3
AutoCAD 2000
 90
        0
280
     0
281
     0
  0
CLASS
  1
LWPOLYLINE
  2
AcDbPolyline
  3
AutoCAD 2000
 90
        0
280
     0
281
     1
  0
CLASS
  1
HATCH
  2
AcDbHatch
  3
AutoCAD 2000
 90
        0
280
     0
281
     1
  0
CLASS
  1
XRECORD
  2
AcDbXrecord
  3
AutoCAD 2000
 90
        0
280
     0
281
     0
  0
CLASS
  1
LONG_TRANSACTION
  2
AcDbLongTransaction
  3
AutoCAD 2000
 90
        0
280
     0
281
     0
  0
CLASS
  1
LWPOLYLINE
  2
AcDbPolyline
  3
AutoCAD 2000
 90
        0
280
     0
281
     1
  0
CLASS
  1
HATCH
  2
AcDbHatch
  3
AutoCAD 2000
 90
        0
280
     0
281
     1
  0
CLASS
  1
XRECORD
  2
AcDbXrecord
  3
AutoCAD 2000
 90
        0
280
     0
281
     0
  0
CLASS
  1
LONG_TRANSACTION
  2
AcDbLongTransaction
  3
AutoCAD 2000
 90
        0
280
     0
281
     0
  0
CLASS
  1
LWPOLYLINE
  2
AcDbPolyline
  3
AutoCAD 2000
 90
        0
280
     0
281
     1
  0
CLASS
  1
HATCH
  2
AcDbHatch
  3
AutoCAD 2000
 90
        0
280
     0
281
     1
  0
CLASS
  1
XRECORD
  2
AcDbXrecord
  3
AutoCAD 2000
 90
        0
280
     0
281
     0
  0
CLASS
  1
LONG_TRANSACTION
  2
AcDbLongTransaction
  3
AutoCAD 2000
 90
        0
280
     0
281
     0
  0
CLASS
  1
LWPOLYLINE
  2
AcDbPolyline
  3
AutoCAD 2000
 90
        0
280
     0
281
     1
  0
CLASS
  1
HATCH
  2
AcDbHatch
  3
AutoCAD 2000
 90
        0
280
     0
281
     1
  0
CLASS
  1
XRECORD
  2
AcDbXrecord
  3
AutoCAD 2000
 90
        0
280
     0
281
     0
  0
CLASS
  1
LONG_TRANSACTION
  2
AcDbLongTransaction
  3
AutoCAD 2000
 90
        0
280
     0
281
     0
  0
CLASS
  1
LWPOLYLINE
  2
AcDbPolyline
  3
AutoCAD 2000
 90
        0
280
     0
281
     1
  0
CLASS
  1
HATCH
  2
AcDbHatch
  3
AutoCAD 2000
 90
        0
280
     0
281
     1
  0
CLASS
  1
XRECORD
  2
AcDbXrecord
  3
AutoCAD 2000
 90
        0
280
     0
281
     0
  0
CLASS
  1
LONG_TRANSACTION
  2
AcDbLongTransaction
  3
AutoCAD 2000
 90
        0
280
     0
281
     0
  0
CLASS
  1
LWPOLYLINE
  2
AcDbPolyline
  3
AutoCAD 2000
 90
        0
280
     0
281
     1
  0
CLASS
  1
HATCH
  2
AcDbHatch
  3
AutoCAD 2000
 90
        0
280
     0
281
     1
  0
CLASS
  1
XRECORD
  2
AcDbXrecord
  3
AutoCAD 2000
 90
        0
280
     0
281
     0
  0
CLASS
  1
LONG_TRANSACTION
  2
AcDbLongTransaction
  3
AutoCAD 2000
 90
        0
280
     0
281
     0
  0
CLASS
  1
LWPOLYLINE
  2
AcDbPolyline
  3
AutoCAD 2000
 90
        0
280
     0
281
     1
  0
CLASS
  1
HATCH
  2
AcDbHatch
  3
AutoCAD 2000
 90
        0
280
     0
281
     1
  0
CLASS
  1
XRECORD
  2
AcDbXrecord
  3
AutoCAD 2000
 90
        0
280
     0
281
     0
  0
CLASS
  1
LONG_TRANSACTION
  2
AcDbLongTransaction
  3
AutoCAD 2000
 90
        0
280
     0
281
     0
  0
CLASS
  1
LWPOLYLINE
  2
AcDbPolyline
  3
AutoCAD 2000
 90
        0
280
     0
281
     1
  0
CLASS
  1
HATCH
  2
AcDbHatch
  3
AutoCAD 2000
 90
        0
280
     0
281
     1
  0
CLASS
  1
XRECORD
  2
AcDbXrecord
  3
AutoCAD 2000
 90
        0
280
     0
281
     0
  0
CLASS
  1
LONG_TRANSACTION
  2
AcDbLongTransaction
  3
AutoCAD 2000
 90
        0
280
     0
281
     0
  0
CLASS
  1
LWPOLYLINE
  2
AcDbPolyline
  3
AutoCAD 2000
 90
        0
280
     0
281
     1
  0
CLASS
  1
HATCH
  2
AcDbHatch
  3
AutoCAD 2000
 90
        0
280
     0
281
     1
  0
CLASS
  1
XRECORD
  2
AcDbXrecord
  3
AutoCAD 2000
 90
        0
280
     0
281
     0
  0
CLASS
  1
LONG_TRANSACTION
  2
AcDbLongTransaction
  3
AutoCAD 2000
 90
        0
280
     0
281
     0
  0
CLASS
  1
LWPOLYLINE
  2
AcDbPolyline
  3
AutoCAD 2000
 90
        0
280
     0
281
     1
  0
CLASS
  1
HATCH
  2
AcDbHatch
  3
AutoCAD 2000
 90
        0
280
     0
281
     1
  0
CLASS
  1
XRECORD
  2
AcDbXrecord
  3
AutoCAD 2000
 90
        0
280
     0
281
     0
  0
CLASS
  1
LONG_TRANSACTION
  2
AcDbLongTransaction
  3
AutoCAD 2000
 90
        0
280
     0
281
     0
  0
CLASS
  1
LWPOLYLINE
  2
AcDbPolyline
  3
AutoCAD 2000
 90
        0
280
     0
281
     1
  0
CLASS
  1
HATCH
  2
AcDbHatch
  3
AutoCAD 2000
 90
        0
280
     0
281
     1
  0
CLASS
  1
XRECORD
  2
AcDbXrecord
  3
AutoCAD 2000
 90
        0
280
     0
281
     0
  0
CLASS
  1
LONG_TRANSACTION
  2
AcDbLongTransaction
  3
AutoCAD 2000
 90
        0
280
     0
281
     0
  0
CLASS
  1
LWPOLYLINE
  2
AcDbPolyline
  3
AutoCAD 2000
 90
        0
280
     0
281
     1
  0
CLASS
  1
HATCH
  2
AcDbHatch
  3
AutoCAD 2000
 90
        0
280
     0
281
     1
  0
CLASS
  1
XRECORD
  2
AcDbXrecord
  3
AutoCAD 2000
 90
        0
280
     0
281
     0
  0
CLASS
  1
LONG_TRANSACTION
  2
AcDbLongTransaction
  3
AutoCAD 2000
 90
        0
280
     0
281
     0
  0
CLASS
  1
LWPOLYLINE
  2
AcDbPolyline
  3
AutoCAD 2000
 90
        0
280
     0
281
     1
  0
CLASS
  1
HATCH
  2
AcDbHatch
  3
AutoCAD 2000
 90
        0
280
     0
281
     1
  0
CLASS
  1
XRECORD
  2
AcDbXrecord
  3
AutoCAD 2000
 90
        0
280
     0
281
     0
  0
CLASS
  1
LONG_TRANSACTION
  2
AcDbLongTransaction
  3
AutoCAD 2000
 90
        0
280
     0
281
     0
  0
CLASS
  1
LWPOLYLINE
  2
AcDbPolyline
  3
AutoCAD 2000
 90
        0
280
     0
281
     1
  0
CLASS
  1
HATCH
  2
AcDbHatch
  3
AutoCAD 2000
 90
        0
280
     0
281
     1
  0
CLASS
  1
XRECORD
  2
AcDbXrecord
  3
AutoCAD 2000
 90
        0
280
     0
281
     0
  0
CLASS
  1
LONG_TRANSACTION
  2
AcDbLongTransaction
  3
AutoCAD 2000
 90
        0
280
     0
281
     0
  0
CLASS
  1
LWPOLYLINE
  2
AcDbPolyline
  3
AutoCAD 2000
 90
        0
280
     0
281
     1
  0
CLASS
  1
HATCH
  2
AcDbHatch
  3
AutoCAD 2000
 90
        0
280
     0
281
     1
  0
CLASS
  1
XRECORD
  2
AcDbXrecord
  3
AutoCAD 2000
 90
        0
280
     0
281
     0
  0
CLASS
  1
LONG_TRANSACTION
  2
AcDbLongTransaction
  3
AutoCAD 2000
 90
        0
280
     0
281
     0
  0
CLASS
  1
LWPOLYLINE
  2
AcDbPolyline
  3
AutoCAD 2000
 90
        0
280
     0
281
     1
  0
CLASS
  1
HATCH
  2
AcDbHatch
  3
AutoCAD 2000
 90
        0
280
     0
281
     1
  0
CLASS
  1
XRECORD
  2
AcDbXrecord
  3
AutoCAD 2000
 90
        0
280
     0
281
     0
  0
CLASS
  1
LONG_TRANSACTION
  2
AcDbLongTransaction
  3
AutoCAD 2000
 90
        0
280
     0
281
     0
  0
CLASS
  1
LWPOLYLINE
  2
AcDbPolyline
  3
AutoCAD 2000
 90
        0
280
     0
281
     1
  0
CLASS
  1
HATCH
  2
AcDbHatch
  3
AutoCAD 2000
 90
        0
280
     0
281
     1
  0
CLASS
  1
XRECORD
  2
AcDbXrecord
  3
AutoCAD 2000
 90
        0
280
     0
281
     0
  0
CLASS
  1
LONG_TRANSACTION
  2
AcDbLongTransaction
  3
AutoCAD 2000
 90
        0
280
     0
281
     0
  0
CLASS
  1
LWPOLYLINE
  2
AcDbPolyline
  3
AutoCAD 2000
 90
        0
280
     0
281
     1
  0
CLASS
  1
HATCH
  2
AcDbHatch
  3
AutoCAD 2000
 90
        0
280
     0
281
     1
  0
CLASS
  1
XRECORD
  2
AcDbXrecord
  3
AutoCAD 2000
 90
        0
280
     0
281
     0
  0
CLASS
  1
LONG_TRANSACTION
  2
AcDbLongTransaction
  3
AutoCAD 2000
 90
        0
280
     0
281
     0
  0
CLASS
  1
LWPOLYLINE
  2
AcDbPolyline
  3
AutoCAD 2000
 90
        0
280
     0
281
     1
  0
CLASS
  1
HATCH
  2
AcDbHatch
  3
AutoCAD 2000
 90
        0
280
     0
281
     1
  0
CLASS
  1
XRECORD
  2
AcDbXrecord
  3
AutoCAD 2000
 90
        0
280
     0
281
     0
  0
CLASS
  1
LONG_TRANSACTION
  2
AcDbLongTransaction
  3
AutoCAD 2000
 90
        0
280
     0
281
     0
  0
CLASS
  1
LWPOLYLINE
  2
AcDbPolyline
  3
AutoCAD 2000
 90
        0
280
     0
281
     1
  0
CLASS
  1
HATCH
  2
AcDbHatch
  3
AutoCAD 2000
 90
        0
280
     0
281
     1
  0
CLASS
  1
XRECORD
  2
AcDbXrecord
  3
AutoCAD 2000
 90
        0
280
     0
281
     0
  0
CLASS
  1
LONG_TRANSACTION
  2
AcDbLongTransaction
  3
AutoCAD 2000
 90
        0
280
     0
281
     0
  0
CLASS
  1
LWPOLYLINE
  2
AcDbPolyline
  3
AutoCAD 2000
 90
        0
280
     0
281
     1
  0
CLASS
  1
HATCH
  2
AcDbHatch
  3
AutoCAD 2000
 90
        0
280
     0
281
     1
  0
CLASS
  1
XRECORD
  2
AcDbXrecord
  3
AutoCAD 2000
 90
        0
280
     0
281
     0
  0
CLASS
  1
LONG_TRANSACTION
  2
AcDbLongTransaction
  3
AutoCAD 2000
 90
        0
280
     0
281
     0
  0
CLASS
  1
LWPOLYLINE
  2
AcDbPolyline
  3
AutoCAD 2000
 90
        0
280
     0
281
     1
  0
CLASS
  1
HATCH
  2
AcDbHatch
  3
AutoCAD 2000
 90
        0
280
     0
281
     1
  0
CLASS
  1
XRECORD
  2
AcDbXrecord
  3
AutoCAD 2000
 90
        0
280
     0
281
     0
  0
CLASS
  1
LONG_TRANSACTION
  2
AcDbLongTransaction
  3
AutoCAD 2000
 90
        0
280
     0
281
     0
  0
CLASS
  1
LWPOLYLINE
  2
AcDbPolyline
  3
AutoCAD 2000
 90
        0
280
     0
281
     1
  0
CLASS
  1
HATCH
  2
AcDbHatch
  3
AutoCAD 2000
 90
        0
280
     0
281
     1
  0
CLASS
  1
XRECORD
  2
AcDbXrecord
  3
AutoCAD 2000
 90
        0
280
     0
281
     0
  0
CLASS
  1
LONG_TRANSACTION
  2
AcDbLongTransaction
  3
AutoCAD 2000
 90
        0
280
     0
281
     0
  0
CLASS
  1
LWPOLYLINE
  2
AcDbPolyline
  3
AutoCAD 2000
 90
        0
280
     0
281
     1
  0
CLASS
  1
HATCH
  2
AcDbHatch
  3
AutoCAD 2000
 90
        0
280
     0
281
     1
  0
CLASS
  1
XRECORD
  2
AcDbXrecord
  3
AutoCAD 2000
 90
        0
280
     0
281
     0
  0
CLASS
  1
LONG_TRANSACTION
  2
AcDbLongTransaction
  3
AutoCAD 2000
 90
        0
280
     0
281
     0
  0
CLASS
  1
LWPOLYLINE
  2
AcDbPolyline
  3
AutoCAD 2000
 90
        0
280
     0
281
     1
  0
CLASS
  1
HATCH
  2
AcDbHatch
  3
AutoCAD 2000
 90
        0
280
     0
281
     1
  0
CLASS
  1
XRECORD
  2
AcDbXrecord
  3
AutoCAD 2000
 90
        0
280
     0
281
     0
  0
CLASS
  1
LONG_TRANSACTION
  2
AcDbLongTransaction
  3
AutoCAD 2000
 90
        0
280
     0
281
     0
  0
CLASS
  1
LWPOLYLINE
  2
AcDbPolyline
  3
AutoCAD 2000
 90
        0
280
     0
281
     1
  0
CLASS
  1
HATCH
  2
AcDbHatch
  3
AutoCAD 2000
 90
        0
280
     0
281
     1
  0
CLASS
  1
XRECORD
  2
AcDbXrecord
  3
AutoCAD 2000
 90
        0
280
     0
281
     0
  0
CLASS
  1
LONG_TRANSACTION
  2
AcDbLongTransaction
  3
AutoCAD 2000
 90
        0
280
     0
281
     0
  0
CLASS
  1
LWPOLYLINE
  2
AcDbPolyline
  3
AutoCAD 2000
 90
        0
280
     0
281
     1
  0
CLASS
  1
HATCH
  2
AcDbHatch
  3
AutoCAD 2000
 90
        0
280
     0
281
     1
  0
CLASS
  1
XRECORD
  2
AcDbXrecord
  3
AutoCAD 2000
 90
        0
280
     0
281
     0
  0
CLASS
  1
LONG_TRANSACTION
  2
AcDbLongTransaction
  3
AutoCAD 2000
 90
        0
280
     0
281
     0
  0
CLASS
  1
LWPOLYLINE
  2
AcDbPolyline
  3
AutoCAD 2000
 90
        0
280
     0
281
     1
  0
CLASS
  1
HATCH
  2
AcDbHatch
  3
AutoCAD 2000
 90
        0
280
     0
281
     1
  0
CLASS
  1
XRECORD
  2
AcDbXrecord
  3
AutoCAD 2000
 90
        0
280
     0
281
     0
  0
CLASS
  1
LONG_TRANSACTION
  2
AcDbLongTransaction
  3
AutoCAD 2000
 90
        0
280
     0
281
     0
  0
CLASS
  1
LWPOLYLINE
  2
AcDbPolyline
  3
AutoCAD 2000
 90
        0
280
     0
281
     1
  0
CLASS
  1
HATCH
  2
AcDbHatch
  3
AutoCAD 2000
 90
        0
280
     0
281
     1
  0
CLASS
  1
XRECORD
  2
AcDbXrecord
  3
AutoCAD 2000
 90
        0
280
     0
281
     0
  0
CLASS
  1
LONG_TRANSACTION
  2
AcDbLongTransaction
  3
AutoCAD 2000
 90
        0
280
     0
281
     0
  0
CLASS
  1
LWPOLYLINE
  2
AcDbPolyline
  3
AutoCAD 2000
 90
        0
280
     0
281
     1
  0
CLASS
  1
HATCH
  2
AcDbHatch
  3
AutoCAD 2000
 90
        0
280
     0
281
     1
  0
CLASS
  1
XRECORD
  2
AcDbXrecord
  3
AutoCAD 2000
 90
        0
280
     0
281
     0
  0
CLASS
  1
LONG_TRANSACTION
  2
AcDbLongTransaction
  3
AutoCAD 2000
 90
        0
280
     0
281
     0
  0
CLASS
  1
LWPOLYLINE
  2
AcDbPolyline
  3
AutoCAD 2000
 90
        0
280
     0
281
     1
  0
CLASS
  1
HATCH
  2
AcDbHatch
  3
AutoCAD 2000
 90
        0
280
     0
281
     1
  0
CLASS
  1
XRECORD
  2
AcDbXrecord
  3
AutoCAD 2000
 90
        0
280
     0
281
     0
  0
CLASS
  1
LONG_TRANSACTION
  2
AcDbLongTransaction
  3
AutoCAD 2000
 90
        0
280
     0
281
     0
  0
CLASS
  1
LWPOLYLINE
  2
AcDbPolyline
  3
AutoCAD 2000
 90
        0
280
     0
281
     1
  0
CLASS
  1
HATCH
  2
AcDbHatch
  3
AutoCAD 2000
 90
        0
280
     0
281
     1
  0
CLASS
  1
XRECORD
  2
AcDbXrecord
  3
AutoCAD 2000
 90
        0
280
     0
281
     0
  0
CLASS
  1
LONG_TRANSACTION
  2
AcDbLongTransaction
  3
AutoCAD 2000
 90
        0
280
     0
281
     0
  0
CLASS
  1
LWPOLYLINE
  2
AcDbPolyline
  3
AutoCAD 2000
 90
        0
280
     0
281
     1
  0
CLASS
  1
HATCH
  2
AcDbHatch
  3
AutoCAD 2000
 90
        0
280
     0
281
     1
  0
CLASS
  1
XRECORD
  2
AcDbXrecord
  3
AutoCAD 2000
 90
        0
280
     0
281
     0
  0
CLASS
  1
LONG_TRANSACTION
  2
AcDbLongTransaction
  3
AutoCAD 2000
 90
        0
280
     0
281
     0
  0
CLASS
  1
LWPOLYLINE
  2
AcDbPolyline
  3
AutoCAD 2000
 90
        0
280
     0
281
     1
  0
CLASS
  1
HATCH
  2
AcDbHatch
  3
AutoCAD 2000
 90
        0
280
     0
281
     1
  0
CLASS
  1
XRECORD
  2
AcDbXrecord
  3
AutoCAD 2000
 90
        0
280
     0
281
     0
  0
CLASS
  1
LONG_TRANSACTION
  2
AcDbLongTransaction
  3
AutoCAD 2000
 90
        0
280
     0
281
     0
  0
CLASS
  1
LWPOLYLINE
  2
AcDbPolyline
  3
AutoCAD 2000
 90
        0
280
     0
281
     1
  0
CLASS
  1
HATCH
  2
AcDbHatch
  3
AutoCAD 2000
 90
        0
280
     0
281
     1
  0
CLASS
  1
XRECORD
  2
AcDbXrecord
  3
AutoCAD 2000
 90
        0
280
     0
281
     0
  0
CLASS
  1
LONG_TRANSACTION
  2
AcDbLongTransaction
  3
AutoCAD 2000
 90
        0
280
     0
281
     0
  0
CLASS
  1
LWPOLYLINE
  2
AcDbPolyline
  3
AutoCAD 2000
 90
        0
280
     0
281
     1
  0
CLASS
  1
HATCH
  2
AcDbHatch
  3
AutoCAD 2000
 90
        0
280
     0
281
     1
  0
CLASS
  1
XRECORD
  2
AcDbXrecord
  3
AutoCAD 2000
 90
        0
280
     0
281
     0
  0
CLASS
  1
LONG_TRANSACTION
  2
AcDbLongTransaction
  3
AutoCAD 2000
 90
        0
280
     0
281
     0
  0
CLASS
  1
LWPOLYLINE
  2
AcDbPolyline
  3
AutoCAD 2000
 90
        0
280
     0
281
     1
  0
CLASS
  1
HATCH
  2
AcDbHatch
  3
AutoCAD 2000
 90
        0
280
     0
281
     1
  0
CLASS
  1
XRECORD
  2
AcDbXrecord
  3
AutoCAD 2000
 90
        0
280
     0
281
     0
  0
CLASS
  1
LONG_TRANSACTION
  2
AcDbLongTransaction
  3
AutoCAD 2000
 90
        0
280
     0
281
     0
  0
CLASS
  1
LWPOLYLINE
  2
AcDbPolyline
  3
AutoCAD 2000
 90
        0
280
     0
281
     1
  0
CLASS
  1
HATCH
  2
AcDbHatch
  3
AutoCAD 2000
 90
        0
280
     0
281
     1
  0
CLASS
  1
XRECORD
  2
AcDbXrecord
  3
AutoCAD 2000
 90
        0
280
     0
281
     0
  0
CLASS
  1
LONG_TRANSACTION
  2
AcDbLongTransaction
  3
AutoCAD 2000
 90
        0
280
     0
281
     0
  0
CLASS
  1
LWPOLYLINE
  2
AcDbPolyline
  3
AutoCAD 2000
 90
        0
280
     0
281
     1
  0
CLASS
  1
HATCH
  2
AcDbHatch
  3
AutoCAD 2000
 90
        0
280
     0
281
     1
  0
CLASS
  1
XRECORD
  2
AcDbXrecord
  3
AutoCAD 2000
 90
        0
280
     0
281
     0
  0
CLASS
  1
LONG_TRANSACTION
  2
AcDbLongTransaction
  3
AutoCAD 2000
 90
        0
280
     0
281
     0
  0
CLASS
  1
LWPOLYLINE
  2
AcDbPolyline
  3
AutoCAD 2000
 90
        0
280
     0
281
     1
  0
CLASS
  1
HATCH
  2
AcDbHatch
  3
AutoCAD 2000
 90
        0
280
     0
281
     1
  0
CLASS
  1
XRECORD
  2
AcDbXrecord
  3
AutoCAD 2000
 90
        0
280
     0
281
     0
  0
CLASS
  1
LONG_TRANSACTION
  2
AcDbLongTransaction
  3
AutoCAD 2000
 90
        0
280
     0
281
     0
  0
CLASS
  1
LWPOLYLINE
  2
AcDbPolyline
  3
AutoCAD 2000
 90
        0
280
     0
281
     1
  0
CLASS
  1
HATCH
  2
AcDbHatch
  3
AutoCAD 2000
 90
        0
280
     0
281
     1
  0
CLASS
  1
XRECORD
  2
AcDbXrecord
  3
AutoCAD 2000
 90
        0
280
     0
281
     0
  0
CLASS
  1
LONG_TRANSACTION
  2
AcDbLongTransaction
  3
AutoCAD 2000
 90
        0
280
     0
281
     0
  0
CLASS
  1
LWPOLYLINE
  2
AcDbPolyline
  3
AutoCAD 2000
 90
        0
280
     0
281
     1
  0
CLASS
  1
HATCH
  2
AcDbHatch
  3
AutoCAD 2000
 90
        0
280
     0
281
     1
  0
CLASS
  1
XRECORD
  2
AcDbXrecord
  3
AutoCAD 2000
 90
        0
280
     0
281
     0
  0
CLASS
  1
LONG_TRANSACTION
  2
AcDbLongTransaction
  3
AutoCAD 2000
 90
        0
280
     0
281
     0
  0
CLASS
  1
LWPOLYLINE
  2
AcDbPolyline
  3
AutoCAD 2000
 90
        0
280
     0
281
     1
  0
CLASS
  1
HATCH
  2
AcDbHatch
  3
AutoCAD 2000
 90
        0
280
     0
281
     1
  0
CLASS
  1
XRECORD
  2
AcDbXrecord
  3
AutoCAD 2000
 90
        0
280
     0
281
     0
  0
CLASS
  1
LONG_TRANSACTION
  2
AcDbLongTransaction
  3
AutoCAD 2000
 90
        0
280
     0
281
     0
  0
CLASS
  1
LWPOLYLINE
  2
AcDbPolyline
  3
AutoCAD 2000
 90
        0
280
     0
281
     1
  0
CLASS
  1
HATCH
  2
AcDbHatch
  3
AutoCAD 2000
 90
        0
280
     0
281
     1
  0
CLASS
  1
XRECORD
  2
AcDbXrecord
  3
AutoCAD 2000
 90
        0
280
     0
281
     0
  0
CLASS
  1
LONG_TRANSACTION
  2
AcDbLongTransaction
  3
AutoCAD 2000
 90
        0
280
     0
281
     0
  0
CLASS
  1
LWPOLYLINE
  2
AcDbPolyline
  3
AutoCAD 2000
 90
        0
280
     0
281
     1
  0
CLASS
  1
HATCH
  2
AcDbHatch
  3
AutoCAD 2000
 90
        0
280
     0
281
     1
  0
CLASS
  1
XRECORD
  2
AcDbXrecord
  3
AutoCAD 2000
 90
        0
280
     0
281
     0
  0
CLASS
  1
LONG_TRANSACTION
  2
AcDbLongTransaction
  3
AutoCAD 2000
 90
        0
280
     0
281
     0
  0
CLASS
  1
LWPOLYLINE
  2
AcDbPolyline
  3
AutoCAD 2000
 90
        0
280
     0
281
     1
  0
CLASS
  1
HATCH
  2
AcDbHatch
  3
AutoCAD 2000
 90
        0
280
     0
281
     1
  0
CLASS
  1
XRECORD
  2
AcDbXrecord
  3
AutoCAD 2000
 90
        0
280
     0
281
     0
  0
CLASS
  1
LONG_TRANSACTION
  2
AcDbLongTransaction
  3
AutoCAD 2000
 90
        0
280
     0
281
     0
  0
CLASS
  1
LWPOLYLINE
  2
AcDbPolyline
  3
AutoCAD 2000
 90
        0
280
     0
281
     1
  0
CLASS
  1
HATCH
  2
AcDbHatch
  3
AutoCAD 2000
 90
        0
280
     0
281
     1
  0
CLASS
  1
XRECORD
  2
AcDbXrecord
  3
AutoCAD 2000
 90
        0
280
     0
281
     0
  0
CLASS
  1
LONG_TRANSACTION
  2
AcDbLongTransaction
  3
AutoCAD 2000
 90
        0
280
     0
281
     0
  0
CLASS
  1
LWPOLYLINE
  2
AcDbPolyline
  3
AutoCAD 2000
 90
        0
280
     0
281
     1
  0
CLASS
  1
HATCH
  2
AcDbHatch
  3
AutoCAD 2000
 90
        0
280
     0
281
     1
  0
CLASS
  1
XRECORD
  2
AcDbXrecord
  3
AutoCAD 2000
 90
        0
280
     0
281
     0
  0
CLASS
  1
LONG_TRANSACTION
  2
AcDbLongTransaction
  3
AutoCAD 2000
 90
        0
280
     0
281
     0
  0
CLASS
  1
LWPOLYLINE
  2
AcDbPolyline
  3
AutoCAD 2000
 90
        0
280
     0
281
     1
  0
CLASS
  1
HATCH
  2
AcDbHatch
  3
AutoCAD 2000
 90
        0
280
     0
281
     1
  0
CLASS
  1
XRECORD
  2
AcDbXrecord
  3
AutoCAD 2000
 90
        0
280
     0
281
     0
  0
CLASS
  1
LONG_TRANSACTION
  2
AcDbLongTransaction
  3
AutoCAD 2000
 90
        0
280
     0
281
     0
  0
CLASS
  1
LWPOLYLINE
  2
AcDbPolyline
  3
AutoCAD 2000
 90
        0
280
     0
281
     1
  0
CLASS
  1
HATCH
  2
AcDbHatch
  3
AutoCAD 2000
 90
        0
280
     0
281
     1
  0
CLASS
  1
XRECORD
  2
AcDbXrecord
  3
AutoCAD 2000
 90
        0
280
     0
281
     0
  0
CLASS
  1
LONG_TRANSACTION
  2
AcDbLongTransaction
  3
AutoCAD 2000
 90
        0
280
     0
281
     0
  0
CLASS
  1
LWPOLYLINE
  2
AcDbPolyline
  3
AutoCAD 2000
 90
        0
280
     0
281
     1
  0
CLASS
  1
HATCH
  2
AcDbHatch
  3
AutoCAD 2000
 90
        0
280
     0
281
     1
  0
CLASS
  1
XRECORD
  2
AcDbXrecord
  3
AutoCAD 2000
 90
        0
280
     0
281
     0
  0
CLASS
  1
LONG_TRANSACTION
  2
AcDbLongTransaction
  3
AutoCAD 2000
 90
        0
280
     0
281
     0
  0
CLASS
  1
LWPOLYLINE
  2
AcDbPolyline
  3
AutoCAD 2000
 90
        0
280
     0
281
     1
  0
CLASS
  1
HATCH
  2
AcDbHatch
  3
AutoCAD 2000
 90
        0
280
     0
281
     1
  0
CLASS
  1
XRECORD
  2
AcDbXrecord
  3
AutoCAD 2000
 90
        0
280
     0
281
     0
  0
CLASS
  1
LONG_TRANSACTION
  2
AcDbLongTransaction
  3
AutoCAD 2000
 90
        0
280
     0
281
     0
  0
CLASS
  1
LWPOLYLINE
  2
AcDbPolyline
  3
AutoCAD 2000
 90
        0
280
     0
281
     1
  0
CLASS
  1
HATCH
  2
AcDbHatch
  3
AutoCAD 2000
 90
        0
280
     0
281
     1
  0
CLASS
  1
XRECORD
  2
AcDbXrecord
  3
AutoCAD 2000
 90
        0
280
     0
281
     0
  0
CLASS
  1
LONG_TRANSACTION
  2
AcDbLongTransaction
  3
AutoCAD 2000
 90
        0
280
     0
281
     0
  0
CLASS
  1
LWPOLYLINE
  2
AcDbPolyline
  3
AutoCAD 2000
 90
        0
280
     0
281
     1
  0
CLASS
  1
HATCH
  2
AcDbHatch
  3
AutoCAD 2000
 90
        0
280
     0
281
     1
  0
CLASS
  1
XRECORD
  2
AcDbXrecord
  3
AutoCAD 2000
 90
        0
280
     0
281
     0
  0
CLASS
  1
LONG_TRANSACTION
  2
AcDbLongTransaction
  3
AutoCAD 2000
 90
        0
280
     0
281
     0
  0
CLASS
  1
LWPOLYLINE
  2
AcDbPolyline
  3
AutoCAD 2000
 90
        0
280
     0
281
     1
  0
CLASS
  1
HATCH
  2
AcDbHatch
  3
AutoCAD 2000
 90
        0
280
     0
281
     1
  0
CLASS
  1
XRECORD
  2
AcDbXrecord
  3
AutoCAD 2000
 90
        0
280
     0
281
     0
  0
CLASS
  1
LONG_TRANSACTION
  2
AcDbLongTransaction
  3
AutoCAD 2000
 90
        0
280
     0
281
     0
  0
CLASS
  1
LWPOLYLINE
  2
AcDbPolyline
  3
AutoCAD 2000
 90
        0
280
     0
281
     1
  0
CLASS
  1
HATCH
  2
AcDbHatch
  3
AutoCAD 2000
 90
        0
280
     0
281
     1
  0
CLASS
  1
XRECORD
  2
AcDbXrecord
  3
AutoCAD 2000
 90
        0
280
     0
281
     0
  0
CLASS
  1
LONG_TRANSACTION
  2
AcDbLongTransaction
  3
AutoCAD 2000
 90
        0
280
     0
281
     0
  0
CLASS
  1
LWPOLYLINE
  2
AcDbPolyline
  3
AutoCAD 2000
 90
        0
280
     0
281
     1
  0
CLASS
  1
HATCH
  2
AcDbHatch
  3
AutoCAD 2000
 90
        0
280
     0
281
     1
  0
CLASS
  1
XRECORD
  2
AcDbXrecord
  3
AutoCAD 2000
 90
        0
280
     0
281
     0
  0
CLASS
  1
LONG_TRANSACTION
  2
AcDbLongTransaction
  3
AutoCAD 2000
 90
        0
280
     0
281
     0
  0
CLASS
  1
LWPOLYLINE
  2
AcDbPolyline
  3
AutoCAD 2000
 90
        0
280
     0
281
     1
  0
CLASS
  1
HATCH
  2
AcDbHatch
  3
AutoCAD 2000
 90
        0
280
     0
281
     1
  0
CLASS
  1
XRECORD
  2
AcDbXrecord
  3
AutoCAD 2000
 90
        0
280
     0
281
     0
  0
CLASS
  1
LONG_TRANSACTION
  2
AcDbLongTransaction
  3
AutoCAD 2000
 90
        0
280
     0
281
     0
  0
CLASS
  1
LWPOLYLINE
  2
AcDbPolyline
  3
AutoCAD 2000
 90
        0
280
     0
281
     1
  0
CLASS
  1
HATCH
  2
AcDbHatch
  3
AutoCAD 2000
 90
        0
280
     0
281
     1
  0
CLASS
  1
XRECORD
  2
AcDbXrecord
  3
AutoCAD 2000
 90
        0
280
     0
281
     0
  0
CLASS
  1
LONG_TRANSACTION
  2
AcDbLongTransaction
  3
AutoCAD 2000
 90
        0
280
     0
281
     0
  0
CLASS
  1
LWPOLYLINE
  2
AcDbPolyline
  3
AutoCAD 2000
 90
        0
280
     0
281
     1
  0
CLASS
  1
HATCH
  2
AcDbHatch
  3
AutoCAD 2000
 90
        0
280
     0
281
     1
  0
CLASS
  1
XRECORD
  2
AcDbXrecord
  3
AutoCAD 2000
 90
        0
280
     0
281
     0
  0
CLASS
  1
LONG_TRANSACTION
  2
AcDbLongTransaction
  3
AutoCAD 2000
 90
        0
280
     0
281
     0
  0
CLASS
  1
LWPOLYLINE
  2
AcDbPolyline
  3
AutoCAD 2000
 90
        0
280
     0
281
     1
  0
CLASS
  1
HATCH
  2
AcDbHatch
  3
AutoCAD 2000
 90
        0
280
     0
281
     1
  0
CLASS
  1
XRECORD
  2
AcDbXrecord
  3
AutoCAD 2000
 90
        0
280
     0
281
     0
  0
CLASS
  1
LONG_TRANSACTION
  2
AcDbLongTransaction
  3
AutoCAD 2000
 90
        0
280
     0
281
     0
  0
CLASS
  1
LWPOLYLINE
  2
AcDbPolyline
  3
AutoCAD 2000
 90
        0
280
     0
281
     1
  0
CLASS
  1
HATCH
  2
AcDbHatch
  3
AutoCAD 2000
 90
        0
280
     0
281
     1
  0
CLASS
  1
XRECORD
  2
AcDbXrecord
  3
AutoCAD 2000
 90
        0
280
     0
281
     0
  0
CLASS
  1
LONG_TRANSACTION
  2
AcDbLongTransaction
  3
AutoCAD 2000
 90
        0
280
     0
281
     0
  0
CLASS
  1
LWPOLYLINE
  2
AcDbPolyline
  3
AutoCAD 2000
 90
        0
280
     0
281
     1
  0
CLASS
  1
HATCH
  2
AcDbHatch
  3
AutoCAD 2000
 90
        0
280
     0
281
     1
  0
CLASS
  1
XRECORD
  2
AcDbXrecord
  3
AutoCAD 2000
 90
        0
280
     0
281
     0
  0
CLASS
  1
LONG_TRANSACTION
  2
AcDbLongTransaction
  3
AutoCAD 2000
 90
        0
280
     0
281
     0
  0
CLASS
  1
LWPOLYLINE
  2
AcDbPolyline
  3
AutoCAD 2000
 90
        0
280
     0
281
     1
  0
CLASS
  1
HATCH
  2
AcDbHatch
  3
AutoCAD 2000
 90
        0
280
     0
281
     1
  0
CLASS
  1
XRECORD
  2
AcDbXrecord
  3
AutoCAD 2000
 90
        0
280
     0
281
     0
  0
CLASS
  1
LONG_TRANSACTION
  2
AcDbLongTransaction
  3
AutoCAD 2000
 90
        0
280
     0
281
     0
  0
CLASS
  1
LWPOLYLINE
  2
AcDbPolyline
  3
AutoCAD 2000
 90
        0
280
     0
281
     1
  0
CLASS
  1
HATCH
  2
AcDbHatch
  3
AutoCAD 2000
 90
        0
280
     0
281
     1
  0
CLASS
  1
XRECORD
  2
AcDbXrecord
  3
AutoCAD 2000
 90
        0
280
     0
281
     0
  0
CLASS
  1
LONG_TRANSACTION
  2
AcDbLongTransaction
  3
AutoCAD 2000
 90
        0
280
     0
281
     0
  0
CLASS
  1
LWPOLYLINE
  2
AcDbPolyline
  3
AutoCAD 2000
 90
        0
280
     0
281
     1
  0
CLASS
  1
HATCH
  2
AcDbHatch
  3
AutoCAD 2000
 90
        0
280
     0
281
     1
  0
CLASS
  1
XRECORD
  2
AcDbXrecord
  3
AutoCAD 2000
 90
        0
280
     0
281
     0
  0
CLASS
  1
LONG_TRANSACTION
  2
AcDbLongTransaction
  3
AutoCAD 2000
 90
        0
280
     0
281
     0
  0
CLASS
  1
LWPOLYLINE
  2
AcDbPolyline
  3
AutoCAD 2000
 90
        0
280
     0
281
     1
  0
CLASS
  1
HATCH
  2
AcDbHatch
  3
AutoCAD 2000
 90
        0
280
     0
281
     1
  0
CLASS
  1
XRECORD
  2
AcDbXrecord
  3
AutoCAD 2000
 90
        0
280
     0
281
     0
  0
CLASS
  1
LONG_TRANSACTION
  2
AcDbLongTransaction
  3
AutoCAD 2000
 90
        0
280
     0
281
     0
  0
CLASS
  1
LWPOLYLINE
  2
AcDbPolyline
  3
AutoCAD 2000
 90
        0
280
     0
281
     1
  0
CLASS
  1
HATCH
  2
AcDbHatch
  3
AutoCAD 2000
 90
        0
280
     0
281
     1
  0
CLASS
  1
XRECORD
  2
AcDbXrecord
  3
AutoCAD 2000
 90
        0
280
     0
281
     0
  0
CLASS
  1
LONG_TRANSACTION
  2
AcDbLongTransaction
  3
AutoCAD 2000
 90
        0
280
     0
281
     0
  0
CLASS
  1
LWPOLYLINE
  2
AcDbPolyline
  3
AutoCAD 2000
 90
        0
280
     0
281
     1
  0
CLASS
  1
HATCH
  2
AcDbHatch
  3
AutoCAD 2000
 90
        0
280
     0
281
     1
  0
CLASS
  1
XRECORD
  2
AcDbXrecord
  3
AutoCAD 2000
 90
        0
280
     0
281
     0
  0
CLASS
  1
LONG_TRANSACTION
  2
AcDbLongTransaction
  3
AutoCAD 2000
 90
        0
280
     0
281
     0
  0
CLASS
  1
LWPOLYLINE
  2
AcDbPolyline
  3
AutoCAD 2000
 90
        0
280
     0
281
     1
  0
CLASS
  1
HATCH
  2
AcDbHatch
  3
AutoCAD 2000
 90
        0
280
     0
281
     1
  0
CLASS
  1
XRECORD
  2
AcDbXrecord
  3
AutoCAD 2000
 90
        0
280
     0
281
     0
  0
CLASS
  1
LONG_TRANSACTION
  2
AcDbLongTransaction
  3
AutoCAD 2000
 90
        0
280
     0
281
     0
  0
CLASS
  1
LWPOLYLINE
  2
AcDbPolyline
  3
AutoCAD 2000
 90
        0
280
     0
281
     1
  0
CLASS
  1
HATCH
  2
AcDbHatch
  3
AutoCAD 2000
 90
        0
280
     0
281
     1
  0
CLASS
  1
XRECORD
  2
AcDbXrecord
  3
AutoCAD 2000
 90
        0
280
     0
281
     0
  0
CLASS
  1
LONG_TRANSACTION
  2
AcDbLongTransaction
  3
AutoCAD 2000
 90
        0
280
     0
281
     0
  0
CLASS
  1
LWPOLYLINE
  2
AcDbPolyline
  3
AutoCAD 2000
 90
        0
280
     0
281
     1
  0
CLASS
  1
HATCH
  2
AcDbHatch
  3
AutoCAD 2000
 90
        0
280
     0
281
     1
  0
CLASS
  1
XRECORD
  2
AcDbXrecord
  3
AutoCAD 2000
 90
        0
280
     0
281
     0
  0
CLASS
  1
LONG_TRANSACTION
  2
AcDbLongTransaction
  3
AutoCAD 2000
 90
        0
280
     0
281
     0
  0
CLASS
  1
LWPOLYLINE
  2
AcDbPolyline
  3
AutoCAD 2000
 90
        0
280
     0
281
     1
  0
CLASS
  1
HATCH
  2
AcDbHatch
  3
AutoCAD 2000
 90
        0
280
     0
281
     1
  0
CLASS
  1
XRECORD
  2
AcDbXrecord
  3
AutoCAD 2000
 90
        0
280
     0
281
     0
  0
CLASS
  1
LONG_TRANSACTION
  2
AcDbLongTransaction
  3
AutoCAD 2000
 90
        0
280
     0
281
     0
  0
CLASS
  1
LWPOLYLINE
  2
AcDbPolyline
  3
AutoCAD 2000
 90
        0
280
     0
281
     1
  0
CLASS
  1
HATCH
  2
AcDbHatch
  3
AutoCAD 2000
 90
        0
280
     0
281
     1
  0
CLASS
  1
XRECORD
  2
AcDbXrecord
  3
AutoCAD 2000
 90
        0
280
     0
281
     0
  0
CLASS
  1
LONG_TRANSACTION
  2
AcDbLongTransaction
  3
AutoCAD 2000
 90
        0
280
     0
281
     0
  0
CLASS
  1
LWPOLYLINE
  2
AcDbPolyline
  3
AutoCAD 2000
 90
        0
280
     0
281
     1
  0
CLASS
  1
HATCH
  2
AcDbHatch
  3
AutoCAD 2000
 90
        0
280
     0
281
     1
  0
CLASS
  1
XRECORD
  2
AcDbXrecord
  3
AutoCAD 2000
 90
        0
280
     0
281
     0
  0
CLASS
  1
LONG_TRANSACTION
  2
AcDbLongTransaction
  3
AutoCAD 2000
 90
        0
280
     0
281
     0
  0
CLASS
  1
LWPOLYLINE
  2
AcDbPolyline
  3
AutoCAD 2000
 90
        0
280
     0
281
     1
  0
CLASS
  1
HATCH
  2
AcDbHatch
  3
AutoCAD 2000
 90
        0
280
     0
281
     1
  0
CLASS
  1
XRECORD
  2
AcDbXrecord
  3
AutoCAD 2000
 90
        0
280
     0
281
     0
  0
CLASS
  1
LONG_TRANSACTION
  2
AcDbLongTransaction
  3
AutoCAD 2000
 90
        0
280
     0
281
     0
  0
CLASS
  1
LWPOLYLINE
  2
AcDbPolyline
  3
AutoCAD 2000
 90
        0
280
     0
281
     1
  0
CLASS
  1
HATCH
  2
AcDbHatch
  3
AutoCAD 2000
 90
        0
280
     0
281
     1
  0
CLASS
  1
XRECORD
  2
AcDbXrecord
  3
AutoCAD 2000
 90
        0
280
     0
281
     0
  0
CLASS
  1
LONG_TRANSACTION
  2
AcDbLongTransaction
  3
AutoCAD 2000
 90
        0
280
     0
281
     0
  0
CLASS
  1
LWPOLYLINE
  2
AcDbPolyline
  3
AutoCAD 2000
 90
        0
280
     0
281
     1
  0
CLASS
  1
HATCH
  2
AcDbHatch
  3
AutoCAD 2000
 90
        0
280
     0
281
     1
  0
CLASS
  1
XRECORD
  2
AcDbXrecord
  3
AutoCAD 2000
 90
        0
280
     0
281
     0
  0
CLASS
  1
LONG_TRANSACTION
  2
AcDbLongTransaction
  3
AutoCAD 2000
 90
        0
280
     0
281
     0
  0
CLASS
  1
LWPOLYLINE
  2
AcDbPolyline
  3
AutoCAD 2000
 90
        0
280
     0
281
     1
  0
CLASS
  1
HATCH
  2
AcDbHatch
  3
AutoCAD 2000
 90
        0
280
     0
281
     1
  0
CLASS
  1
XRECORD
  2
AcDbXrecord
  3
AutoCAD 2000
 90
        0
280
     0
281
     0
  0
CLASS
  1
LONG_TRANSACTION
  2
AcDbLongTransaction
  3
AutoCAD 2000
 90
        0
280
     0
281
     0
  0
CLASS
  1
LWPOLYLINE
  2
AcDbPolyline
  3
AutoCAD 2000
 90
        0
280
     0
281
     1
  0
CLASS
  1
HATCH
  2
AcDbHatch
  3
AutoCAD 2000
 90
        0
280
     0
281
     1
  0
CLASS
  1
XRECORD
  2
AcDbXrecord
  3
AutoCAD 2000
 90
        0
280
     0
281
     0
  0
CLASS
  1
LONG_TRANSACTION
  2
AcDbLongTransaction
  3
AutoCAD 2000
 90
        0
280
     0
281
     0
  0
CLASS
  1
LWPOLYLINE
  2
AcDbPolyline
  3
AutoCAD 2000
 90
        0
280
     0
281
     1
  0
CLASS
  1
HATCH
  2
AcDbHatch
  3
AutoCAD 2000
 90
        0
280
     0
281
     1
  0
CLASS
  1
XRECORD
  2
AcDbXrecord
  3
AutoCAD 2000
 90
        0
280
     0
281
     0
  0
CLASS
  1
LONG_TRANSACTION
  2
AcDbLongTransaction
  3
AutoCAD 2000
 90
        0
280
     0
281
     0
  0
CLASS
  1
LWPOLYLINE
  2
AcDbPolyline
  3
AutoCAD 2000
 90
        0
280
     0
281
     1
  0
CLASS
  1
HATCH
  2
AcDbHatch
  3
AutoCAD 2000
 90
        0
280
     0
281
     1
  0
CLASS
  1
XRECORD
  2
AcDbXrecord
  3
AutoCAD 2000
 90
        0
280
     0
281
     0
  0
CLASS
  1
LONG_TRANSACTION
  2
AcDbLongTransaction
  3
AutoCAD 2000
 90
        0
280
     0
281
     0
  0
CLASS
  1
LWPOLYLINE
  2
AcDbPolyline
  3
AutoCAD 2000
 90
        0
280
     0
281
     1
  0
CLASS
  1
HATCH
  2
AcDbHatch
  3
AutoCAD 2000
 90
        0
280
     0
281
     1
  0
CLASS
  1
XRECORD
  2
AcDbXrecord
  3
AutoCAD 2000
 90
        0
280
     0
281
     0
  0
CLASS
  1
LONG_TRANSACTION
  2
AcDbLongTransaction
  3
AutoCAD 2000
 90
        0
280
     0
281
     0
  0
CLASS
  1
LWPOLYLINE
  2
AcDbPolyline
  3
AutoCAD 2000
 90
        0
280
     0
281
     1
  0
CLASS
  1
HATCH
  2
AcDbHatch
  3
AutoCAD 2000
 90
        0
280
     0
281
     1
  0
CLASS
  1
XRECORD
  2
AcDbXrecord
  3
AutoCAD 2000
 90
        0
280
     0
281
     0
  0
CLASS
  1
LONG_TRANSACTION
  2
AcDbLongTransaction
  3
AutoCAD 2000
 90
        0
280
     0
281
     0
  0
CLASS
  1
LWPOLYLINE
  2
AcDbPolyline
  3
AutoCAD 2000
 90
        0
280
     0
281
     1
  0
CLASS
  1
HATCH
  2
AcDbHatch
  3
AutoCAD 2000
 90
        0
280
     0
281
     1
  0
CLASS
  1
XRECORD
  2
AcDbXrecord
  3
AutoCAD 2000
 90
        0
280
     0
281
     0
  0
CLASS
  1
LONG_TRANSACTION
  2
AcDbLongTransaction
  3
AutoCAD 2000
 90
        0
280
     0
281
     0
  0
CLASS
  1
LWPOLYLINE
  2
AcDbPolyline
  3
AutoCAD 2000
 90
        0
280
     0
281
     1
  0
CLASS
  1
HATCH
  2
AcDbHatch
  3
AutoCAD 2000
 90
        0
280
     0
281
     1
  0
CLASS
  1
XRECORD
  2
AcDbXrecord
  3
AutoCAD 2000
 90
        0
280
     0
281
     0
  0
CLASS
  1
LONG_TRANSACTION
  2
AcDbLongTransaction
  3
AutoCAD 2000
 90
        0
280
     0
281
     0
  0
CLASS
  1
LWPOLYLINE
  2
AcDbPolyline
  3
AutoCAD 2000
 90
        0
280
     0
281
     1
  0
CLASS
  1
HATCH
  2
AcDbHatch
  3
AutoCAD 2000
 90
        0
280
     0
281
     1
  0
CLASS
  1
XRECORD
  2
AcDbXrecord
  3
AutoCAD 2000
 90
        0
280
     0
281
     0
  0
CLASS
  1
LONG_TRANSACTION
  2
AcDbLongTransaction
  3
AutoCAD 2000
 90
        0
280
     0
281
     0
  0
CLASS
  1
LWPOLYLINE
  2
AcDbPolyline
  3
AutoCAD 2000
 90
        0
280
     0
281
     1
  0
CLASS
  1
HATCH
  2
AcDbHatch
  3
AutoCAD 2000
 90
        0
280
     0
281
     1
  0
CLASS
  1
XRECORD
  2
AcDbXrecord
  3
AutoCAD 2000
 90
        0
280
     0
281
     0
  0
CLASS
  1
LONG_TRANSACTION
  2
AcDbLongTransaction
  3
AutoCAD 2000
 90
        0
280
     0
281
     0
  0
CLASS
  1
LWPOLYLINE
  2
AcDbPolyline
  3
AutoCAD 2000
 90
        0
280
     0
281
     1
  0
CLASS
  1
HATCH
  2
AcDbHatch
  3
AutoCAD 2000
 90
        0
280
     0
281
     1
  0
CLASS
  1
XRECORD
  2
AcDbXrecord
  3
AutoCAD 2000
 90
        0
280
     0
281
     0
  0
CLASS
  1
LONG_TRANSACTION
  2
AcDbLongTransaction
  3
AutoCAD 2000
 90
        0
280
     0
281
     0
  0
CLASS
  1
LWPOLYLINE
  2
AcDbPolyline
  3
AutoCAD 2000
 90
        0
280
     0
281
     1
  0
CLASS
  1
HATCH
  2
AcDbHatch
  3
AutoCAD 2000
 90
        0
280
     0
281
     1
  0
CLASS
  1
XRECORD
  2
AcDbXrecord
  3
AutoCAD 2000
 90
        0
280
     0
281
     0
  0
CLASS
  1
LONG_TRANSACTION
  2
AcDbLongTransaction
  3
AutoCAD 2000
 90
        0
280
     0
281
     0
  0
CLASS
  1
LWPOLYLINE
  2
AcDbPolyline
  3
AutoCAD 2000
 90
        0
280
     0
281
     1
  0
CLASS
  1
HATCH
  2
AcDbHatch
  3
AutoCAD 2000
 90
        0
280
     0
281
     1
  0
CLASS
  1
XRECORD
  2
AcDbXrecord
  3
AutoCAD 2000
 90
        0
280
     0
281
     0
  0
CLASS
  1
LONG_TRANSACTION
  2
AcDbLongTransaction
  3
AutoCAD 2000
 90
        0
280
     0
281
     0
  0
CLASS
  1
LWPOLYLINE
  2
AcDbPolyline
  3
AutoCAD 2000
 90
        0
280
     0
281
     1
  0
CLASS
  1
HATCH
  2
AcDbHatch
  3
AutoCAD 2000
 90
        0
280
     0
281
     1
  0
CLASS
  1
XRECORD
  2
AcDbXrecord
  3
AutoCAD 2000
 90
        0
280
     0
281
     0
  0
CLASS
  1
LONG_TRANSACTION
  2
AcDbLongTransaction
  3
AutoCAD 2000
 90
        0
280
     0
281
     0
  0
CLASS
  1
LWPOLYLINE
  2
AcDbPolyline
  3
AutoCAD 2000
 90
        0
280
     0
281
     1
  0
CLASS
  1
HATCH
  2
AcDbHatch
  3
AutoCAD 2000
 90
        0
280
     0
281
     1
  0
CLASS
  1
XRECORD
  2
AcDbXrecord
  3
AutoCAD 2000
 90
        0
280
     0
281
     0
  0
CLASS
  1
LONG_TRANSACTION
  2
AcDbLongTransaction
  3
AutoCAD 2000
 90
        0
280
     0
281
     0
  0
CLASS
  1
LWPOLYLINE
  2
AcDbPolyline
  3
AutoCAD 2000
 90
        0
280
     0
281
     1
  0
CLASS
  1
HATCH
  2
AcDbHatch
  3
AutoCAD 2000
 90
        0
280
     0
281
     1
  0
CLASS
  1
XRECORD
  2
AcDbXrecord
  3
AutoCAD 2000
 90
        0
280
     0
281
     0
  0
CLASS
  1
LONG_TRANSACTION
  2
AcDbLongTransaction
  3
AutoCAD 2000
 90
        0
280
     0
281
     0
  0
CLASS
  1
LWPOLYLINE
  2
AcDbPolyline
  3
AutoCAD 2000
 90
        0
280
     0
281
     1
  0
CLASS
  1
HATCH
  2
AcDbHatch
  3
AutoCAD 2000
 90
        0
280
     0
281
     1
  0
CLASS
  1
XRECORD
  2
AcDbXrecord
  3
AutoCAD 2000
 90
        0
280
     0
281
     0
  0
CLASS
  1
LONG_TRANSACTION
  2
AcDbLongTransaction
  3
AutoCAD 2000
 90
        0
280
     0
281
     0
  0
CLASS
  1
LWPOLYLINE
  2
AcDbPolyline
  3
AutoCAD 2000
 90
        0
280
     0
281
     1
  0
CLASS
  1
HATCH
  2
AcDbHatch
  3
AutoCAD 2000
 90
        0
280
     0
281
     1
  0
CLASS
  1
XRECORD
  2
AcDbXrecord
  3
AutoCAD 2000
 90
        0
280
     0
281
     0
  0
ENDSEC
  0
SECTION
  2
TABLES
  0
TABLE
  2
VPORT
  5
92
330
0
100
AcDbSymbolTable
 70
     2
  0
VPORT
  5
4E3
330
92
100
AcDbSymbolTableRecord
100
AcDbViewportTableRecord
  2
*ACTIVE
 70
     0
 10
0.0
 20
0.0
 11
1.0
 21
1.0
 12
150.2525254764477
 22
211.3531144976513
 13
0.0
 23
0.0
 14
10.0
 24
10.0
 15
10.0
 25
10.0
 16
0.0
 26
0.0
 36
1.0
 17
0.0
 27
0.0
 37
0.0
 40
450.1827499259047
 41
1.549367088607595
 42
50.0
 43
0.0
 44
0.0
 50
0.0
 51
0.0
 71
     0
 72
 10000
 73
     1
 74
     3
 75
     0
 76
     0
 77
     0
 78
     1
  0
ENDTAB
  0
TABLE
  2
LTYPE
  5
8D
330
0
100
AcDbSymbolTable
 70
     2
  0
LTYPE
  5
8E
330
8D
100
AcDbSymbolTableRecord
100
AcDbLinetypeTableRecord
  2
BYBLOCK
 70
     0
  3

 72
    65
 73
     0
 40
0.0
  0
LTYPE
  5
8F
330
8D
100
AcDbSymbolTableRecord
100
AcDbLinetypeTableRecord
  2
BYLAYER
 70
     0
  3

 72
    65
 73
     0
 40
0.0
  0
LTYPE
  5
A
330
8D
100
AcDbSymbolTableRecord
100
AcDbLinetypeTableRecord
  2
CONTINUOUS
 70
     0
  3
Solid line
 72
    65
 73
     0
 40
0.0
  0
LTYPE
  5
E0
330
8D
100
AcDbSymbolTableRecord
100
AcDbLinetypeTableRecord
  2
CENTER
 70
     0
  3
Center ____ _ ____ _ ____ _ ____ _ ____ _ ____
 72
    65
 73
     4
 40
50.8
 49
31.75
 74
     0
 49
-6.349999999999998
 74
     0
 49
6.349999999999998
 74
     0
 49
-6.349999999999998
 74
     0
  0
ENDTAB
  0
TABLE
  2
LAYER
  5
14
102
{ACAD_XDICTIONARY
360
15
102
}
330
0
100
AcDbSymbolTable
 70
     7
  0
LAYER
  5
6
330
14
100
AcDbSymbolTableRecord
100
AcDbLayerTableRecord
  2
0
 70
     0
 62
     7
  6
CONTINUOUS
  0
LAYER
  5
B0
330
14
100
AcDbSymbolTableRecord
100
AcDbLayerTableRecord
  2
3
 70
     0
 62
     3
  6
CONTINUOUS
  0
LAYER
  5
23E
330
14
100
AcDbSymbolTableRecord
100
AcDbLayerTableRecord
  2
1
 70
     0
 62
     1
  6
CENTER
  0
LAYER
  5
AA
330
14
100
AcDbSymbolTableRecord
100
AcDbLayerTableRecord
  2
DEFPOINTS
 70
     0
 62
     7
  6
CONTINUOUS
  0
LAYER
  5
A0
330
14
100
AcDbSymbolTableRecord
100
AcDbLayerTableRecord
  2
DIM
 70
     0
 62
     3
  6
CONTINUOUS
  0
LAYER
  5
DF
330
14
100
AcDbSymbolTableRecord
100
AcDbLayerTableRecord
  2
CEN
 70
     0
 62
     1
  6
CENTER
  0
LAYER
  5
23A
330
14
100
AcDbSymbolTableRecord
100
AcDbLayerTableRecord
  2
2
 70
     0
 62
     2
  6
CONTINUOUS
  0
ENDTAB
  0
TABLE
  2
STYLE
  5
8A
330
0
100
AcDbSymbolTable
 70
     2
  0
STYLE
  5
8B
330
8A
100
AcDbSymbolTableRecord
100
AcDbTextStyleTableRecord
  2
STANDARD
 70
     0
 40
0.0
 41
1.0
 50
0.0
 71
     0
 42
5.777225951253058
  3
romans.shx
  4
whgtxt.shx
  0
STYLE
  5
253
330
8A
100
AcDbSymbolTableRecord
100
AcDbTextStyleTableRecord
  2
GHS
 70
     0
 40
0.0
 41
0.6
 50
0.0
 71
     0
 42
3.0
  3
ROMANS
  4
GHS
  0
ENDTAB
  0
TABLE
  2
VIEW
  5
90
330
0
100
AcDbSymbolTable
 70
     0
  0
ENDTAB
  0
TABLE
  2
UCS
  5
91
330
0
100
AcDbSymbolTable
 70
     0
  0
ENDTAB
  0
TABLE
  2
APPID
  5
94
330
0
100
AcDbSymbolTable
 70
     1
  0
APPID
  5
95
330
94
100
AcDbSymbolTableRecord
100
AcDbRegAppTableRecord
  2
ACAD
 70
     0
  0
ENDTAB
  0
TABLE
  2
DIMSTYLE
  5
96
330
0
100
AcDbSymbolTable
 70
     2
  0
DIMSTYLE
105
A1
102
{ACAD_REACTORS
330
9D
330
26A
330
B3
330
C0
330
34A
330
32E
330
147
330
2AA
330
15A
330
2BD
330
2CE
330
2F9
330
306
330
317
330
242
330
F6
330
CF
330
19C
330
E5
330
16B
330
1BF
330
218
330
1FA
330
22A
330
17C
330
207
330
18D
330
1D5
330
1ED
102
}
330
96
100
AcDbSymbolTableRecord
100
AcDbDimStyleTableRecord
  2
STANDARD
 70
     0
  3

  4

  5

  6

  7

 40
1.0
 41
2.5
 42
1.0
 43
10.0
 44
0.6
 45
0.0
 46
0.0
 47
0.0
 48
0.0
140
3.0
141
0.09
142
0.0
143
25.4
144
1.0
145
0.0
146
1.0
147
1.0
 71
     0
 72
     0
 73
     0
 74
     0
 75
     0
 76
     0
 77
     1
 78
     8
170
     0
171
     2
172
     1
173
     0
174
     1
175
     0
176
   123
177
   123
178
     3
270
     2
271
     2
272
     2
273
     2
274
     2
340
8B
275
     1
280
     0
281
     0
282
     0
283
     1
284
     0
285
     0
286
     0
287
     0
288
     1
  0
DIMSTYLE
105
9C
330
96
100
AcDbSymbolTableRecord
100
AcDbDimStyleTableRecord
  2
1_1_2
 70
     0
  3

  4

  5

  6

  7

 40
1.0
 41
3.0
 42
1.0
 43
10.0
 44
0.6
 45
0.0
 46
0.0
 47
0.0
 48
0.0
140
3.5
141
0.09
142
0.0
143
25.4
144
1.0
145
0.0
146
1.0
147
1.0
 71
     0
 72
     0
 73
     0
 74
     0
 75
     0
 76
     0
 77
     1
 78
     8
170
     0
171
     2
172
     1
173
     0
174
     1
175
     0
176
   123
177
   123
178
     3
270
     2
271
     2
272
     2
273
     2
274
     2
340
8B
275
     1
280
     0
281
     0
282
     0
283
     1
284
     0
285
     0
286
     0
287
     0
288
     1
  0
ENDTAB
  0
TABLE
  2
BLOCK_RECORD
  5
1
330
0
100
AcDbSymbolTable
 70
    58
  0
BLOCK_RECORD
  5
2
102
{ACAD_XDICTIONARY
360
3
102
}
330
1
100
AcDbSymbolTableRecord
100
AcDbBlockTableRecord
  2
*MODEL_SPACE
  0
BLOCK_RECORD
  5
E
102
{ACAD_XDICTIONARY
360
F
102
}
330
1
100
AcDbSymbolTableRecord
100
AcDbBlockTableRecord
  2
*PAPER_SPACE
  0
BLOCK_RECORD
  5
B4
330
1
100
AcDbSymbolTableRecord
100
AcDbBlockTableRecord
  2
*D0
  0
BLOCK_RECORD
  5
2AB
330
1
100
AcDbSymbolTableRecord
100
AcDbBlockTableRecord
  2
*D1
  0
BLOCK_RECORD
  5
2FA
330
1
100
AcDbSymbolTableRecord
100
AcDbBlockTableRecord
  2
*D2
  0
BLOCK_RECORD
  5
A2
330
1
100
AcDbSymbolTableRecord
100
AcDbBlockTableRecord
  2
*D3
  0
BLOCK_RECORD
  5
26D
330
1
100
AcDbSymbolTableRecord
100
AcDbBlockTableRecord
  2
*D4
  0
BLOCK_RECORD
  5
C3
330
1
100
AcDbSymbolTableRecord
100
AcDbBlockTableRecord
  2
*D5
  0
BLOCK_RECORD
  5
34D
330
1
100
AcDbSymbolTableRecord
100
AcDbBlockTableRecord
  2
*D6
  0
BLOCK_RECORD
  5
331
330
1
100
AcDbSymbolTableRecord
100
AcDbBlockTableRecord
  2
*D7
  0
BLOCK_RECORD
  5
14A
330
1
100
AcDbSymbolTableRecord
100
AcDbBlockTableRecord
  2
*D8
  0
BLOCK_RECORD
  5
15D
330
1
100
AcDbSymbolTableRecord
100
AcDbBlockTableRecord
  2
*D9
  0
BLOCK_RECORD
  5
2C0
330
1
100
AcDbSymbolTableRecord
100
AcDbBlockTableRecord
  2
*D10
  0
BLOCK_RECORD
  5
2D1
330
1
100
AcDbSymbolTableRecord
100
AcDbBlockTableRecord
  2
*D11
  0
BLOCK_RECORD
  5
309
330
1
100
AcDbSymbolTableRecord
100
AcDbBlockTableRecord
  2
*D12
  0
BLOCK_RECORD
  5
31A
330
1
100
AcDbSymbolTableRecord
100
AcDbBlockTableRecord
  2
*D13
  0
BLOCK_RECORD
  5
245
330
1
100
AcDbSymbolTableRecord
100
AcDbBlockTableRecord
  2
*D14
  0
BLOCK_RECORD
  5
F7
330
1
100
AcDbSymbolTableRecord
100
AcDbBlockTableRecord
  2
*D15
  0
BLOCK_RECORD
  5
1FB
330
1
100
AcDbSymbolTableRecord
100
AcDbBlockTableRecord
  2
*D16
  0
BLOCK_RECORD
  5
1EE
330
1
100
AcDbSymbolTableRecord
100
AcDbBlockTableRecord
  2
*D17
  0
BLOCK_RECORD
  5
D2
330
1
100
AcDbSymbolTableRecord
100
AcDbBlockTableRecord
  2
*D18
  0
BLOCK_RECORD
  5
19F
330
1
100
AcDbSymbolTableRecord
100
AcDbBlockTableRecord
  2
*D19
  0
BLOCK_RECORD
  5
E8
330
1
100
AcDbSymbolTableRecord
100
AcDbBlockTableRecord
  2
*D20
  0
BLOCK_RECORD
  5
16E
330
1
100
AcDbSymbolTableRecord
100
AcDbBlockTableRecord
  2
*D21
  0
BLOCK_RECORD
  5
1C2
330
1
100
AcDbSymbolTableRecord
100
AcDbBlockTableRecord
  2
*D22
  0
BLOCK_RECORD
  5
21B
330
1
100
AcDbSymbolTableRecord
100
AcDbBlockTableRecord
  2
*D23
  0
BLOCK_RECORD
  5
22D
330
1
100
AcDbSymbolTableRecord
100
AcDbBlockTableRecord
  2
*D24
  0
BLOCK_RECORD
  5
17F
330
1
100
AcDbSymbolTableRecord
100
AcDbBlockTableRecord
  2
*D25
  0
BLOCK_RECORD
  5
20A
330
1
100
AcDbSymbolTableRecord
100
AcDbBlockTableRecord
  2
*D26
  0
BLOCK_RECORD
  5
190
330
1
100
AcDbSymbolTableRecord
100
AcDbBlockTableRecord
  2
*D27
  0
BLOCK_RECORD
  5
1D8
330
1
100
AcDbSymbolTableRecord
100
AcDbBlockTableRecord
  2
*D28
  0
BLOCK_RECORD
  5
361
330
1
100
AcDbSymbolTableRecord
100
AcDbBlockTableRecord
  2
*D29
  0
BLOCK_RECORD
  5
36D
330
1
100
AcDbSymbolTableRecord
100
AcDbBlockTableRecord
  2
*D30
  0
BLOCK_RECORD
  5
379
330
1
100
AcDbSymbolTableRecord
100
AcDbBlockTableRecord
  2
*D31
  0
BLOCK_RECORD
  5
385
330
1
100
AcDbSymbolTableRecord
100
AcDbBlockTableRecord
  2
*D32
  0
BLOCK_RECORD
  5
391
330
1
100
AcDbSymbolTableRecord
100
AcDbBlockTableRecord
  2
*D33
  0
BLOCK_RECORD
  5
39F
330
1
100
AcDbSymbolTableRecord
100
AcDbBlockTableRecord
  2
*D34
  0
BLOCK_RECORD
  5
3AA
330
1
100
AcDbSymbolTableRecord
100
AcDbBlockTableRecord
  2
*D35
  0
BLOCK_RECORD
  5
3B6
330
1
100
AcDbSymbolTableRecord
100
AcDbBlockTableRecord
  2
*D36
  0
BLOCK_RECORD
  5
3C2
330
1
100
AcDbSymbolTableRecord
100
AcDbBlockTableRecord
  2
*D37
  0
BLOCK_RECORD
  5
3CE
330
1
100
AcDbSymbolTableRecord
100
AcDbBlockTableRecord
  2
*D38
  0
BLOCK_RECORD
  5
3DA
330
1
100
AcDbSymbolTableRecord
100
AcDbBlockTableRecord
  2
*D39
  0
BLOCK_RECORD
  5
3E6
330
1
100
AcDbSymbolTableRecord
100
AcDbBlockTableRecord
  2
*D40
  0
BLOCK_RECORD
  5
3F2
330
1
100
AcDbSymbolTableRecord
100
AcDbBlockTableRecord
  2
*D41
  0
BLOCK_RECORD
  5
400
330
1
100
AcDbSymbolTableRecord
100
AcDbBlockTableRecord
  2
*D42
  0
BLOCK_RECORD
  5
40C
330
1
100
AcDbSymbolTableRecord
100
AcDbBlockTableRecord
  2
*D43
  0
BLOCK_RECORD
  5
418
330
1
100
AcDbSymbolTableRecord
100
AcDbBlockTableRecord
  2
*D44
  0
BLOCK_RECORD
  5
426
330
1
100
AcDbSymbolTableRecord
100
AcDbBlockTableRecord
  2
*D45
  0
BLOCK_RECORD
  5
434
330
1
100
AcDbSymbolTableRecord
100
AcDbBlockTableRecord
  2
*D46
  0
BLOCK_RECORD
  5
440
330
1
100
AcDbSymbolTableRecord
100
AcDbBlockTableRecord
  2
*D47
  0
BLOCK_RECORD
  5
44C
330
1
100
AcDbSymbolTableRecord
100
AcDbBlockTableRecord
  2
*D48
  0
BLOCK_RECORD
  5
45A
330
1
100
AcDbSymbolTableRecord
100
AcDbBlockTableRecord
  2
*D49
  0
BLOCK_RECORD
  5
465
330
1
100
AcDbSymbolTableRecord
100
AcDbBlockTableRecord
  2
*D50
  0
BLOCK_RECORD
  5
471
330
1
100
AcDbSymbolTableRecord
100
AcDbBlockTableRecord
  2
*D51
  0
BLOCK_RECORD
  5
47D
330
1
100
AcDbSymbolTableRecord
100
AcDbBlockTableRecord
  2
*D52
  0
BLOCK_RECORD
  5
48B
330
1
100
AcDbSymbolTableRecord
100
AcDbBlockTableRecord
  2
*D53
  0
BLOCK_RECORD
  5
497
330
1
100
AcDbSymbolTableRecord
100
AcDbBlockTableRecord
  2
*D54
  0
BLOCK_RECORD
  5
4A3
330
1
100
AcDbSymbolTableRecord
100
AcDbBlockTableRecord
  2
*D55
  0
BLOCK_RECORD
  5
4B1
330
1
100
AcDbSymbolTableRecord
100
AcDbBlockTableRecord
  2
*D56
  0
BLOCK_RECORD
  5
4BC
330
1
100
AcDbSymbolTableRecord
100
AcDbBlockTableRecord
  2
*D57
  0
ENDTAB
  0
ENDSEC
  0
SECTION
  2
BLOCKS
  0
BLOCK
  5
5
330
2
100
AcDbEntity
  8
0
100
AcDbBlockBegin
  2
*MODEL_SPACE
 70
     0
 10
0.0
 20
0.0
 30
0.0
  3
*MODEL_SPACE
  1

  0
ENDBLK
  5
B
330
2
100
AcDbEntity
  8
0
100
AcDbBlockEnd
  0
BLOCK
  5
11
330
E
100
AcDbEntity
 67
     1
  8
0
100
AcDbBlockBegin
  2
*PAPER_SPACE
 70
     0
 10
0.0
 20
0.0
 30
0.0
  3
*PAPER_SPACE
  1

  0
ENDBLK
  5
12
330
E
100
AcDbEntity
 67
     1
  8
0
100
AcDbBlockEnd
  0
BLOCK
  5
BE
330
B4
100
AcDbEntity
  8
0
100
AcDbBlockBegin
  2
*D0
 70
     1
 10
0.0
 20
0.0
 30
0.0
  3
*D0
  1

  0
LINE
  5
B5
330
B4
100
AcDbEntity
  8
DIM
 62
   123
100
AcDbLine
 10
8573.162351255339
 20
-1436.324196143998
 30
0.0
 11
8573.162351255339
 21
-1389.163019540848
 31
0.0
  0
LINE
  5
B6
330
B4
100
AcDbEntity
  8
DIM
 62
   123
100
AcDbLine
 10
8585.663060692438
 20
-1408.644196143999
 30
0.0
 11
8585.663060692438
 21
-1389.163019540848
 31
0.0
  0
LINE
  5
B7
330
B4
100
AcDbEntity
  8
DIM
 62
   123
100
AcDbLine
 10
8575.662351255342
 20
-1389.763019540848
 30
0.0
 11
8583.163060692438
 21
-1389.763019540848
 31
0.0
  0
SOLID
  5
B8
330
B4
100
AcDbEntity
  8
DIM
 62
   123
100
AcDbTrace
 10
8575.662351255342
 20
-1389.34635287418
 30
0.0
 11
8575.662351255342
 21
-1390.179686207515
 31
0.0
 12
8573.162351255339
 22
-1389.763019540848
 32
0.0
 13
8573.162351255339
 23
-1389.763019540848
 33
0.0
  0
SOLID
  5
B9
330
B4
100
AcDbEntity
  8
DIM
 62
   123
100
AcDbTrace
 10
8583.163060692438
 20
-1389.34635287418
 30
0.0
 11
8583.163060692438
 21
-1390.179686207515
 31
0.0
 12
8585.663060692438
 22
-1389.763019540848
 32
0.0
 13
8585.663060692438
 23
-1389.763019540848
 33
0.0
  0
MTEXT
  5
BA
330
B4
100
AcDbEntity
  8
DIM
 62
     3
100
AcDbMText
 10
8578.467346494093
 20
-1387.263019540848
 30
0.0
 40
3.0
 41
0.0
 71
     5
 72
     1
  1
\A1;12.5
1001
ACAD
1000
MTEXTBEGIN
1070
    73
1070
     1
1070
    44
1040
1.0
1070
    74
1070
     0
1000
MTEXTEND
  0
POINT
  5
BB
330
B4
100
AcDbEntity
  8
DEFPOINTS
 62
     0
100
AcDbPoint
 10
8573.162351255339
 20
-1437.324196143999
 30
0.0
  0
POINT
  5
BC
330
B4
100
AcDbEntity
  8
DEFPOINTS
 62
     0
100
AcDbPoint
 10
8585.663060692438
 20
-1409.644196143999
 30
0.0
  0
POINT
  5
BD
330
B4
100
AcDbEntity
  8
DEFPOINTS
 62
     0
100
AcDbPoint
 10
8585.663060692438
 20
-1389.763019540848
 30
0.0
  0
ENDBLK
  5
BF
330
B4
100
AcDbEntity
  8
0
100
AcDbBlockEnd
  0
BLOCK
  5
2B4
330
2AB
100
AcDbEntity
  8
0
100
AcDbBlockBegin
  2
*D1
 70
     1
 10
0.0
 20
0.0
 30
0.0
  3
*D1
  1

  0
LINE
  5
2AC
330
2AB
100
AcDbEntity
  8
2
 62
   123
100
AcDbLine
 10
8458.398676351379
 20
-1558.330988861365
 30
0.0
 11
8456.202018687896
 21
-1559.524594788566
 31
0.0
  0
LINE
  5
2AD
330
2AB
100
AcDbEntity
  8
2
 62
   123
100
AcDbLine
 10
8524.298406255944
 20
-1522.522811045323
 30
0.0
 11
8549.94057244604
 21
-1508.58953320256
 31
0.0
  0
LINE
  5
2AE
330
2AB
100
AcDbEntity
  8
2
 62
   123
100
AcDbLine
 10
8460.595334014866
 20
-1557.137382934162
 30
0.0
 11
8522.10174859246
 21
-1523.716416972525
 31
0.0
  0
SOLID
  5
2AF
330
2AB
100
AcDbEntity
  8
2
 62
   123
100
AcDbTrace
 10
8458.199742030179
 20
-1557.964879250783
 30
0.0
 11
8458.59761067258
 21
-1558.697098471944
 31
0.0
 12
8460.595334014866
 22
-1557.137382934162
 32
0.0
 13
8460.595334014866
 23
-1557.137382934162
 33
0.0
  0
SOLID
  5
2B0
330
2AB
100
AcDbEntity
  8
2
 62
   123
100
AcDbTrace
 10
8524.099471934745
 20
-1522.156701434742
 30
0.0
 11
8524.497340577147
 21
-1522.888920655904
 31
0.0
 12
8522.10174859246
 22
-1523.716416972525
 32
0.0
 13
8522.10174859246
 23
-1523.716416972525
 33
0.0
  0
MTEXT
  5
2B1
330
2AB
100
AcDbEntity
  8
2
 62
     3
100
AcDbMText
 10
8539.772050922309
 20
-1511.269608327353
 30
0.0
 40
3.0
 41
0.0
 71
     5
 72
     1
  1
\A1;\U+220570%%P0.5
 11
0.8786630653942118
 21
0.4774423708805571
 31
0.0
1001
ACAD
1000
MTEXTBEGIN
1070
    73
1070
     1
1070
    44
1040
1.0
1070
    74
1070
     0
1000
MTEXTEND
  0
POINT
  5
2B2
330
2AB
100
AcDbEntity
  8
DEFPOINTS
 62
     0
100
AcDbPoint
 10
8522.10174859246
 20
-1523.716416972525
 30
0.0
  0
POINT
  5
2B3
330
2AB
100
AcDbEntity
  8
DEFPOINTS
 62
     0
100
AcDbPoint
 10
8460.595334014866
 20
-1557.137382934162
 30
0.0
  0
ENDBLK
  5
2B5
330
2AB
100
AcDbEntity
  8
0
100
AcDbBlockEnd
  0
BLOCK
  5
304
330
2FA
100
AcDbEntity
  8
0
100
AcDbBlockBegin
  2
*D2
 70
     1
 10
0.0
 20
0.0
 30
0.0
  3
*D2
  1

  0
LINE
  5
2FB
330
2FA
100
AcDbEntity
  8
0
 62
   123
100
AcDbLine
 10
8614.950104473065
 20
-1518.426899953342
 30
0.0
 11
8555.539381735192
 21
-1518.426899953342
 31
0.0
  0
LINE
  5
2FC
330
2FA
100
AcDbEntity
  8
0
 62
   123
100
AcDbLine
 10
8614.950104473065
 20
-1542.426899953342
 30
0.0
 11
8555.539381735192
 21
-1542.426899953342
 31
0.0
  0
LINE
  5
2FD
330
2FA
100
AcDbEntity
  8
0
 62
   123
100
AcDbLine
 10
8556.13938173519
 20
-1520.926899953343
 30
0.0
 11
8556.13938173519
 21
-1539.926899953343
 31
0.0
  0
SOLID
  5
2FE
330
2FA
100
AcDbEntity
  8
0
 62
   123
100
AcDbTrace
 10
8555.722715068524
 20
-1520.926899953343
 30
0.0
 11
8556.556048401859
 21
-1520.926899953343
 31
0.0
 12
8556.13938173519
 22
-1518.426899953342
 32
0.0
 13
8556.13938173519
 23
-1518.426899953342
 33
0.0
  0
SOLID
  5
2FF
330
2FA
100
AcDbEntity
  8
0
 62
   123
100
AcDbTrace
 10
8555.722715068524
 20
-1539.926899953343
 30
0.0
 11
8556.556048401859
 21
-1539.926899953343
 31
0.0
 12
8556.13938173519
 22
-1542.426899953342
 32
0.0
 13
8556.13938173519
 23
-1542.426899953342
 33
0.0
  0
MTEXT
  5
300
330
2FA
100
AcDbEntity
  8
0
 62
     3
100
AcDbMText
 10
8553.639381735193
 20
-1530.426899953342
 30
0.0
 40
3.0
 41
0.0
 71
     5
 72
     1
  1
\A1;%%c24
 11
0.0000000000000001
 21
1.0
 31
0.0
1001
ACAD
1000
MTEXTBEGIN
1070
    73
1070
     1
1070
    44
1040
1.0
1070
    74
1070
     0
1000
MTEXTEND
  0
POINT
  5
301
330
2FA
100
AcDbEntity
  8
DEFPOINTS
 62
     0
100
AcDbPoint
 10
8615.950104473064
 20
-1518.426899953342
 30
0.0
  0
POINT
  5
302
330
2FA
100
AcDbEntity
  8
DEFPOINTS
 62
     0
100
AcDbPoint
 10
8615.950104473064
 20
-1542.426899953342
 30
0.0
  0
POINT
  5
303
330
2FA
100
AcDbEntity
  8
DEFPOINTS
 62
     0
100
AcDbPoint
 10
8556.13938173519
 20
-1542.426899953342
 30
0.0
  0
ENDBLK
  5
305
330
2FA
100
AcDbEntity
  8
0
100
AcDbBlockEnd
  0
BLOCK
  5
AD
330
A2
100
AcDbEntity
  8
0
100
AcDbBlockBegin
  2
*D3
 70
     1
 10
0.0
 20
0.0
 30
0.0
  3
*D3
  1

  0
LINE
  5
A3
330
A2
100
AcDbEntity
  8
DIM
 62
   123
100
AcDbLine
 10
8585.663060692438
 20
-1408.644196143999
 30
0.0
 11
8585.663060692438
 21
-1389.163019540848
 31
0.0
  0
LINE
  5
A4
330
A2
100
AcDbEntity
  8
DIM
 62
   123
100
AcDbLine
 10
8611.663060692437
 20
-1408.644196143999
 30
0.0
 11
8611.663060692437
 21
-1389.163019540848
 31
0.0
  0
LINE
  5
A5
330
A2
100
AcDbEntity
  8
DIM
 62
   123
100
AcDbLine
 10
8588.163060692437
 20
-1389.763019540848
 30
0.0
 11
8609.163060692436
 21
-1389.763019540848
 31
0.0
  0
SOLID
  5
A6
330
A2
100
AcDbEntity
  8
DIM
 62
   123
100
AcDbTrace
 10
8588.163060692437
 20
-1389.34635287418
 30
0.0
 11
8588.163060692437
 21
-1390.179686207515
 31
0.0
 12
8585.663060692438
 22
-1389.763019540848
 32
0.0
 13
8585.663060692438
 23
-1389.763019540848
 33
0.0
  0
SOLID
  5
A7
330
A2
100
AcDbEntity
  8
DIM
 62
   123
100
AcDbTrace
 10
8609.163060692436
 20
-1389.34635287418
 30
0.0
 11
8609.163060692436
 21
-1390.179686207515
 31
0.0
 12
8611.663060692437
 22
-1389.763019540848
 32
0.0
 13
8611.663060692437
 23
-1389.763019540848
 33
0.0
  0
MTEXT
  5
A8
330
A2
100
AcDbEntity
  8
DIM
 62
     3
100
AcDbMText
 10
8597.717346494093
 20
-1387.263019540848
 30
0.0
 40
3.0
 41
0.0
 71
     5
 72
     1
  1
\A1;26
1001
ACAD
1000
MTEXTBEGIN
1070
    73
1070
     1
1070
    44
1040
1.0
1070
    74
1070
     0
1000
MTEXTEND
  0
POINT
  5
A9
330
A2
100
AcDbEntity
  8
DEFPOINTS
 62
     0
100
AcDbPoint
 10
8585.663060692438
 20
-1409.644196143999
 30
0.0
  0
POINT
  5
AB
330
A2
100
AcDbEntity
  8
DEFPOINTS
 62
     0
100
AcDbPoint
 10
8611.663060692437
 20
-1409.644196143999
 30
0.0
  0
POINT
  5
AC
330
A2
100
AcDbEntity
  8
DEFPOINTS
 62
     0
100
AcDbPoint
 10
8611.663060692437
 20
-1389.763019540848
 30
0.0
  0
ENDBLK
  5
AE
330
A2
100
AcDbEntity
  8
0
100
AcDbBlockEnd
  0
BLOCK
  5
279
330
26D
100
AcDbEntity
  8
0
100
AcDbBlockBegin
  2
*D4
 70
     1
 10
0.0
 20
0.0
 30
0.0
  3
*D4
  1

  0
LINE
  5
26E
330
26D
100
AcDbEntity
  8
DIM
 62
   123
100
AcDbLine
 10
8583.663060692437
 20
-1411.644196143999
 30
0.0
 11
8583.663060692437
 21
-1399.835862810665
 31
0.0
  0
LINE
  5
26F
330
26D
100
AcDbEntity
  8
DIM
 62
   123
100
AcDbLine
 10
8585.663060692438
 20
-1408.644196143999
 30
0.0
 11
8585.663060692438
 21
-1399.835862810665
 31
0.0
  0
LINE
  5
270
330
26D
100
AcDbEntity
  8
DIM
 62
   123
100
AcDbLine
 10
8588.163060692437
 20
-1400.435862810665
 30
0.0
 11
8590.663060692438
 21
-1400.435862810665
 31
0.0
  0
LINE
  5
271
330
26D
100
AcDbEntity
  8
DIM
 62
   123
100
AcDbLine
 10
8581.163060692437
 20
-1400.435862810665
 30
0.0
 11
8574.663060692436
 21
-1400.435862810665
 31
0.0
  0
LINE
  5
272
330
26D
100
AcDbEntity
  8
DIM
 62
   123
100
AcDbLine
 10
8585.663060692438
 20
-1400.435862810665
 30
0.0
 11
8583.663060692437
 21
-1400.435862810665
 31
0.0
  0
SOLID
  5
273
330
26D
100
AcDbEntity
  8
DIM
 62
   123
100
AcDbTrace
 10
8588.163060692437
 20
-1400.019196143999
 30
0.0
 11
8588.163060692437
 21
-1400.852529477331
 31
0.0
 12
8585.663060692438
 22
-1400.435862810665
 32
0.0
 13
8585.663060692438
 23
-1400.435862810665
 33
0.0
  0
SOLID
  5
274
330
26D
100
AcDbEntity
  8
DIM
 62
   123
100
AcDbTrace
 10
8581.163060692437
 20
-1400.019196143999
 30
0.0
 11
8581.163060692437
 21
-1400.852529477331
 31
0.0
 12
8583.663060692437
 22
-1400.435862810665
 32
0.0
 13
8583.663060692437
 23
-1400.435862810665
 33
0.0
  0
MTEXT
  5
275
330
26D
100
AcDbEntity
  8
DIM
 62
     3
100
AcDbMText
 10
8576.663060692437
 20
-1397.935862810665
 30
0.0
 40
3.0
 41
0.0
 71
     5
 72
     1
  1
\A1;2
1001
ACAD
1000
MTEXTBEGIN
1070
    73
1070
     1
1070
    44
1040
1.0
1070
    74
1070
     0
1000
MTEXTEND
  0
POINT
  5
276
330
26D
100
AcDbEntity
  8
DEFPOINTS
 62
     0
100
AcDbPoint
 10
8583.663060692437
 20
-1412.644196143999
 30
0.0
  0
POINT
  5
277
330
26D
100
AcDbEntity
  8
DEFPOINTS
 62
     0
100
AcDbPoint
 10
8585.663060692438
 20
-1409.644196143999
 30
0.0
  0
POINT
  5
278
330
26D
100
AcDbEntity
  8
DEFPOINTS
 62
     0
100
AcDbPoint
 10
8585.663060692438
 20
-1400.435862810665
 30
0.0
  0
ENDBLK
  5
27A
330
26D
100
AcDbEntity
  8
0
100
AcDbBlockEnd
  0
BLOCK
  5
CD
330
C3
100
AcDbEntity
  8
0
100
AcDbBlockBegin
  2
*D5
 70
     1
 10
0.0
 20
0.0
 30
0.0
  3
*D5
  1

  0
LINE
  5
C4
330
C3
100
AcDbEntity
  8
DIM
 62
   123
100
AcDbLine
 10
8470.167037628911
 20
-1412.644196143999
 30
0.0
 11
8470.167037628911
 21
-1395.393098349694
 31
0.0
  0
LINE
  5
C5
330
C3
100
AcDbEntity
  8
DIM
 62
   123
100
AcDbLine
 10
8530.167037628913
 20
-1413.644196143999
 30
0.0
 11
8530.167037628913
 21
-1395.393098349694
 31
0.0
  0
LINE
  5
C6
330
C3
100
AcDbEntity
  8
DIM
 62
   123
100
AcDbLine
 10
8472.667037628911
 20
-1395.993098349693
 30
0.0
 11
8527.667037628914
 21
-1395.993098349693
 31
0.0
  0
SOLID
  5
C7
330
C3
100
AcDbEntity
  8
DIM
 62
   123
100
AcDbTrace
 10
8472.667037628911
 20
-1395.576431683028
 30
0.0
 11
8472.667037628911
 21
-1396.409765016361
 31
0.0
 12
8470.167037628911
 22
-1395.993098349693
 32
0.0
 13
8470.167037628911
 23
-1395.993098349693
 33
0.0
  0
SOLID
  5
C8
330
C3
100
AcDbEntity
  8
DIM
 62
   123
100
AcDbTrace
 10
8527.667037628914
 20
-1395.576431683028
 30
0.0
 11
8527.667037628914
 21
-1396.409765016361
 31
0.0
 12
8530.167037628913
 22
-1395.993098349693
 32
0.0
 13
8530.167037628913
 23
-1395.993098349693
 33
0.0
  0
MTEXT
  5
C9
330
C3
100
AcDbEntity
  8
DIM
 62
     3
100
AcDbMText
 10
8499.836298869251
 20
-1393.493098349694
 30
0.0
 40
3.0
 41
0.0
 71
     5
 72
     1
  1
\A1;60
1001
ACAD
1000
MTEXTBEGIN
1070
    73
1070
     1
1070
    44
1040
1.0
1070
    74
1070
     0
1000
MTEXTEND
  0
POINT
  5
CA
330
C3
100
AcDbEntity
  8
DEFPOINTS
 62
     0
100
AcDbPoint
 10
8470.167037628911
 20
-1413.644196143999
 30
0.0
  0
POINT
  5
CB
330
C3
100
AcDbEntity
  8
DEFPOINTS
 62
     0
100
AcDbPoint
 10
8530.167037628913
 20
-1414.644196143999
 30
0.0
  0
POINT
  5
CC
330
C3
100
AcDbEntity
  8
DEFPOINTS
 62
     0
100
AcDbPoint
 10
8530.167037628913
 20
-1395.993098349693
 30
0.0
  0
ENDBLK
  5
CE
330
C3
100
AcDbEntity
  8
0
100
AcDbBlockEnd
  0
BLOCK
  5
356
330
34D
100
AcDbEntity
  8
0
100
AcDbBlockBegin
  2
*D6
 70
     1
 10
0.0
 20
0.0
 30
0.0
  3
*D6
  1

  0
LINE
  5
34E
330
34D
100
AcDbEntity
  8
0
 62
   123
100
AcDbLine
 10
8467.643701937397
 20
-1458.311885757284
 30
0.0
 11
8465.475479557964
 21
-1459.556398398171
 31
0.0
  0
LINE
  5
34F
330
34D
100
AcDbEntity
  8
0
 62
   123
100
AcDbLine
 10
8532.690373320413
 20
-1420.976506530718
 30
0.0
 11
8554.310647903905
 21
-1408.56693762589
 31
0.0
  0
LINE
  5
350
330
34D
100
AcDbEntity
  8
0
 62
   123
100
AcDbLine
 10
8469.811924316829
 20
-1457.0673731164
 30
0.0
 11
8530.52215094098
 21
-1422.221019171604
 31
0.0
  0
SOLID
  5
351
330
34D
100
AcDbEntity
  8
0
 62
   123
100
AcDbTrace
 10
8467.436283163916
 20
-1457.950515360713
 30
0.0
 11
8467.851120710877
 21
-1458.673256153858
 31
0.0
 12
8469.811924316829
 22
-1457.0673731164
 32
0.0
 13
8469.811924316829
 23
-1457.0673731164
 33
0.0
  0
SOLID
  5
352
330
34D
100
AcDbEntity
  8
0
 62
   123
100
AcDbTrace
 10
8532.482954546933
 20
-1420.615136134146
 30
0.0
 11
8532.897792093896
 21
-1421.337876927291
 31
0.0
 12
8530.52215094098
 22
-1422.221019171604
 32
0.0
 13
8530.52215094098
 23
-1422.221019171604
 33
0.0
  0
MTEXT
  5
353
330
34D
100
AcDbEntity
  8
0
 62
     3
100
AcDbMText
 10
8544.207398112765
 20
-1411.483438322074
 30
0.0
 40
3.0
 41
0.0
 71
     5
 72
     1
  1
\A1;\U+220570%%p0.5
 11
0.8672889517734178
 21
0.4978050563541578
 31
0.0
1001
ACAD
1000
MTEXTBEGIN
1070
    73
1070
     1
1070
    44
1040
1.0
1070
    74
1070
     0
1000
MTEXTEND
  0
POINT
  5
354
330
34D
100
AcDbEntity
  8
DEFPOINTS
 62
     0
100
AcDbPoint
 10
8530.52215094098
 20
-1422.221019171604
 30
0.0
  0
POINT
  5
355
330
34D
100
AcDbEntity
  8
DEFPOINTS
 62
     0
100
AcDbPoint
 10
8469.811924316829
 20
-1457.0673731164
 30
0.0
  0
ENDBLK
  5
357
330
34D
100
AcDbEntity
  8
0
100
AcDbBlockEnd
  0
BLOCK
  5
33B
330
331
100
AcDbEntity
  8
0
100
AcDbBlockBegin
  2
*D7
 70
     1
 10
0.0
 20
0.0
 30
0.0
  3
*D7
  1

  0
LINE
  5
332
330
331
100
AcDbEntity
  8
DIM
 62
   123
100
AcDbLine
 10
8582.663060692437
 20
-1412.644196143999
 30
0.0
 11
8563.495728718194
 21
-1412.644196143999
 31
0.0
  0
LINE
  5
333
330
331
100
AcDbEntity
  8
DIM
 62
   123
100
AcDbLine
 10
8582.663060692437
 20
-1466.644196143999
 30
0.0
 11
8563.495728718194
 21
-1466.644196143999
 31
0.0
  0
LINE
  5
334
330
331
100
AcDbEntity
  8
DIM
 62
   123
100
AcDbLine
 10
8564.095728718196
 20
-1415.144196143999
 30
0.0
 11
8564.095728718196
 21
-1464.144196143999
 31
0.0
  0
SOLID
  5
335
330
331
100
AcDbEntity
  8
DIM
 62
   123
100
AcDbTrace
 10
8563.67906205153
 20
-1415.144196143999
 30
0.0
 11
8564.512395384861
 21
-1415.144196143999
 31
0.0
 12
8564.095728718196
 22
-1412.644196143999
 32
0.0
 13
8564.095728718196
 23
-1412.644196143999
 33
0.0
  0
SOLID
  5
336
330
331
100
AcDbEntity
  8
DIM
 62
   123
100
AcDbTrace
 10
8563.67906205153
 20
-1464.144196143999
 30
0.0
 11
8564.512395384861
 21
-1464.144196143999
 31
0.0
 12
8564.095728718196
 22
-1466.644196143999
 32
0.0
 13
8564.095728718196
 23
-1466.644196143999
 33
0.0
  0
MTEXT
  5
337
330
331
100
AcDbEntity
  8
DIM
 62
     3
100
AcDbMText
 10
8560.145578718195
 20
-1439.644196143999
 30
0.0
 40
3.0
 41
0.0
 71
     5
 72
     1
  1
\A1;\A1;%%C54{\f??|b0|i0|c0|p49;\H0.7x;\S+0^ -0.03;\H1.429x;(h7)} 
 11
0.0000000000000001
 21
1.0
 31
0.0
1001
ACAD
1000
MTEXTBEGIN
1070
    73
1070
     1
1070
    44
1040
1.0
1070
    74
1070
     0
1000
MTEXTEND
  0
POINT
  5
338
330
331
100
AcDbEntity
  8
DEFPOINTS
 62
     0
100
AcDbPoint
 10
8583.663060692437
 20
-1412.644196143999
 30
0.0
  0
POINT
  5
339
330
331
100
AcDbEntity
  8
DEFPOINTS
 62
     0
100
AcDbPoint
 10
8583.663060692437
 20
-1466.644196143999
 30
0.0
  0
POINT
  5
33A
330
331
100
AcDbEntity
  8
DEFPOINTS
 62
     0
100
AcDbPoint
 10
8564.095728718196
 20
-1466.644196143999
 30
0.0
  0
ENDBLK
  5
33C
330
331
100
AcDbEntity
  8
0
100
AcDbBlockEnd
  0
BLOCK
  5
154
330
14A
100
AcDbEntity
  8
0
100
AcDbBlockBegin
  2
*D8
 70
     1
 10
0.0
 20
0.0
 30
0.0
  3
*D8
  1

  0
LINE
  5
14B
330
14A
100
AcDbEntity
  8
0
 62
   123
100
AcDbLine
 10
8586.450104473064
 20
-1535.426899953343
 30
0.0
 11
8586.450104473064
 21
-1583.822914334968
 31
0.0
  0
LINE
  5
14C
330
14A
100
AcDbEntity
  8
0
 62
   123
100
AcDbLine
 10
8618.450104473064
 20
-1570.926899953343
 30
0.0
 11
8618.450104473064
 21
-1583.822914334968
 31
0.0
  0
LINE
  5
14D
330
14A
100
AcDbEntity
  8
0
 62
   123
100
AcDbLine
 10
8588.950104473061
 20
-1583.222914334968
 30
0.0
 11
8615.950104473064
 21
-1583.222914334968
 31
0.0
  0
SOLID
  5
14E
330
14A
100
AcDbEntity
  8
0
 62
   123
100
AcDbTrace
 10
8588.950104473061
 20
-1582.806247668302
 30
0.0
 11
8588.950104473061
 21
-1583.639581001635
 31
0.0
 12
8586.450104473064
 22
-1583.222914334968
 32
0.0
 13
8586.450104473064
 23
-1583.222914334968
 33
0.0
  0
SOLID
  5
14F
330
14A
100
AcDbEntity
  8
0
 62
   123
100
AcDbTrace
 10
8615.950104473064
 20
-1582.806247668302
 30
0.0
 11
8615.950104473064
 21
-1583.639581001635
 31
0.0
 12
8618.450104473064
 22
-1583.222914334968
 32
0.0
 13
8618.450104473064
 23
-1583.222914334968
 33
0.0
  0
MTEXT
  5
150
330
14A
100
AcDbEntity
  8
0
 62
     3
100
AcDbMText
 10
8602.450104473064
 20
-1580.722914334968
 30
0.0
 40
3.0
 41
0.0
 71
     5
 72
     1
  1
\A1;32
1001
ACAD
1000
MTEXTBEGIN
1070
    73
1070
     1
1070
    44
1040
1.0
1070
    74
1070
     0
1000
MTEXTEND
  0
POINT
  5
151
330
14A
100
AcDbEntity
  8
DEFPOINTS
 62
     0
100
AcDbPoint
 10
8586.450104473064
 20
-1534.426899953342
 30
0.0
  0
POINT
  5
152
330
14A
100
AcDbEntity
  8
DEFPOINTS
 62
     0
100
AcDbPoint
 10
8618.450104473064
 20
-1569.926899953342
 30
0.0
  0
POINT
  5
153
330
14A
100
AcDbEntity
  8
DEFPOINTS
 62
     0
100
AcDbPoint
 10
8618.450104473064
 20
-1583.222914334968
 30
0.0
  0
ENDBLK
  5
155
330
14A
100
AcDbEntity
  8
0
100
AcDbBlockEnd
  0
BLOCK
  5
167
330
15D
100
AcDbEntity
  8
0
100
AcDbBlockBegin
  2
*D9
 70
     1
 10
0.0
 20
0.0
 30
0.0
  3
*D9
  1

  0
LINE
  5
15E
330
15D
100
AcDbEntity
  8
0
 62
   123
100
AcDbLine
 10
8461.348541303665
 20
-1566.426899953342
 30
0.0
 11
8461.348541303665
 21
-1584.055220873727
 31
0.0
  0
LINE
  5
15F
330
15D
100
AcDbEntity
  8
0
 62
   123
100
AcDbLine
 10
8521.348541303664
 20
-1566.426899953342
 30
0.0
 11
8521.348541303664
 21
-1584.055220873727
 31
0.0
  0
LINE
  5
160
330
15D
100
AcDbEntity
  8
0
 62
   123
100
AcDbLine
 10
8463.848541303665
 20
-1583.455220873728
 30
0.0
 11
8518.848541303666
 21
-1583.455220873728
 31
0.0
  0
SOLID
  5
161
330
15D
100
AcDbEntity
  8
0
 62
   123
100
AcDbTrace
 10
8463.848541303665
 20
-1583.03855420706
 30
0.0
 11
8463.848541303665
 21
-1583.871887540394
 31
0.0
 12
8461.348541303665
 22
-1583.455220873728
 32
0.0
 13
8461.348541303665
 23
-1583.455220873728
 33
0.0
  0
SOLID
  5
162
330
15D
100
AcDbEntity
  8
0
 62
   123
100
AcDbTrace
 10
8518.848541303666
 20
-1583.03855420706
 30
0.0
 11
8518.848541303666
 21
-1583.871887540394
 31
0.0
 12
8521.348541303664
 22
-1583.455220873728
 32
0.0
 13
8521.348541303664
 23
-1583.455220873728
 33
0.0
  0
MTEXT
  5
163
330
15D
100
AcDbEntity
  8
0
 62
     3
100
AcDbMText
 10
8493.393287732507
 20
-1580.955220873727
 30
0.0
 40
3.0
 41
0.0
 71
     5
 72
     1
  1
\A1;60
1001
ACAD
1000
MTEXTBEGIN
1070
    73
1070
     1
1070
    44
1040
1.0
1070
    74
1070
     0
1000
MTEXTEND
  0
POINT
  5
164
330
15D
100
AcDbEntity
  8
DEFPOINTS
 62
     0
100
AcDbPoint
 10
8461.348541303665
 20
-1565.426899953342
 30
0.0
  0
POINT
  5
165
330
15D
100
AcDbEntity
  8
DEFPOINTS
 62
     0
100
AcDbPoint
 10
8521.348541303664
 20
-1565.426899953342
 30
0.0
  0
POINT
  5
166
330
15D
100
AcDbEntity
  8
DEFPOINTS
 62
     0
100
AcDbPoint
 10
8521.348541303664
 20
-1583.455220873728
 30
0.0
  0
ENDBLK
  5
168
330
15D
100
AcDbEntity
  8
0
100
AcDbBlockEnd
  0
BLOCK
  5
2CC
330
2C0
100
AcDbEntity
  8
0
100
AcDbBlockBegin
  2
*D10
 70
     1
 10
0.0
 20
0.0
 30
0.0
  3
*D10
  1

  0
LINE
  5
2C1
330
2C0
100
AcDbEntity
  8
0
 62
   123
100
AcDbLine
 10
8601.950104473067
 20
-1534.426899953342
 30
0.0
 11
8606.543829813126
 21
-1534.426899953342
 31
0.0
  0
LINE
  5
2C2
330
2C0
100
AcDbEntity
  8
0
 62
   123
100
AcDbLine
 10
8599.450104473064
 20
-1526.426899953342
 30
0.0
 11
8606.543829813126
 21
-1526.426899953342
 31
0.0
  0
LINE
  5
2C3
330
2C0
100
AcDbEntity
  8
0
 62
   123
100
AcDbLine
 10
8605.943829813128
 20
-1536.926899953343
 30
0.0
 11
8605.943829813128
 21
-1539.426899953342
 31
0.0
  0
LINE
  5
2C4
330
2C0
100
AcDbEntity
  8
0
 62
   123
100
AcDbLine
 10
8605.943829813128
 20
-1523.926899953343
 30
0.0
 11
8605.943829813128
 21
-1484.056896729889
 31
0.0
  0
LINE
  5
2C5
330
2C0
100
AcDbEntity
  8
0
 62
   123
100
AcDbLine
 10
8605.943829813128
 20
-1534.426899953342
 30
0.0
 11
8605.943829813128
 21
-1526.426899953342
 31
0.0
  0
SOLID
  5
2C6
330
2C0
100
AcDbEntity
  8
0
 62
   123
100
AcDbTrace
 10
8605.527163146462
 20
-1536.926899953343
 30
0.0
 11
8606.360496479794
 21
-1536.926899953343
 31
0.0
 12
8605.943829813128
 22
-1534.426899953342
 32
0.0
 13
8605.943829813128
 23
-1534.426899953342
 33
0.0
  0
SOLID
  5
2C7
330
2C0
100
AcDbEntity
  8
0
 62
   123
100
AcDbTrace
 10
8605.527163146462
 20
-1523.926899953343
 30
0.0
 11
8606.360496479794
 21
-1523.926899953343
 31
0.0
 12
8605.943829813128
 22
-1526.426899953342
 32
0.0
 13
8605.943829813128
 23
-1526.426899953342
 33
0.0
  0
MTEXT
  5
2C8
330
2C0
100
AcDbEntity
  8
0
 62
     3
100
AcDbMText
 10
8601.993679813128
 20
-1497.729611015602
 30
0.0
 40
3.0
 41
0.0
 71
     5
 72
     1
  1
\A1;\A1;{\f??|b0|i0|c0|p49;%%C8\H0.7x;\S+0^ -0.015;\H1.429x;(h7)}
 11
0.0000000000000001
 21
1.0
 31
0.0
1001
ACAD
1000
MTEXTBEGIN
1070
    73
1070
     1
1070
    44
1040
1.0
1070
    74
1070
     0
1000
MTEXTEND
  0
POINT
  5
2C9
330
2C0
100
AcDbEntity
  8
DEFPOINTS
 62
     0
100
AcDbPoint
 10
8600.950104473064
 20
-1534.426899953342
 30
0.0
  0
POINT
  5
2CA
330
2C0
100
AcDbEntity
  8
DEFPOINTS
 62
     0
100
AcDbPoint
 10
8598.450104473064
 20
-1526.426899953342
 30
0.0
  0
POINT
  5
2CB
330
2C0
100
AcDbEntity
  8
DEFPOINTS
 62
     0
100
AcDbPoint
 10
8605.943829813128
 20
-1526.426899953342
 30
0.0
  0
ENDBLK
  5
2CD
330
2C0
100
AcDbEntity
  8
0
100
AcDbBlockEnd
  0
BLOCK
  5
2DB
330
2D1
100
AcDbEntity
  8
0
100
AcDbBlockBegin
  2
*D11
 70
     1
 10
0.0
 20
0.0
 30
0.0
  3
*D11
  1

  0
LINE
  5
2D2
330
2D1
100
AcDbEntity
  8
0
 62
   123
100
AcDbLine
 10
8586.450104473064
 20
-1526.426899953342
 30
0.0
 11
8586.450104473064
 21
-1512.799063026281
 31
0.0
  0
LINE
  5
2D3
330
2D1
100
AcDbEntity
  8
0
 62
   123
100
AcDbLine
 10
8598.450104473064
 20
-1525.426899953342
 30
0.0
 11
8598.450104473064
 21
-1512.799063026281
 31
0.0
  0
LINE
  5
2D4
330
2D1
100
AcDbEntity
  8
0
 62
   123
100
AcDbLine
 10
8588.950104473061
 20
-1513.399063026281
 30
0.0
 11
8595.950104473066
 21
-1513.399063026281
 31
0.0
  0
SOLID
  5
2D5
330
2D1
100
AcDbEntity
  8
0
 62
   123
100
AcDbTrace
 10
8588.950104473061
 20
-1512.982396359613
 30
0.0
 11
8588.950104473061
 21
-1513.815729692947
 31
0.0
 12
8586.450104473064
 22
-1513.399063026281
 32
0.0
 13
8586.450104473064
 23
-1513.399063026281
 33
0.0
  0
SOLID
  5
2D6
330
2D1
100
AcDbEntity
  8
0
 62
   123
100
AcDbTrace
 10
8595.950104473066
 20
-1512.982396359613
 30
0.0
 11
8595.950104473066
 21
-1513.815729692947
 31
0.0
 12
8598.450104473064
 22
-1513.399063026281
 32
0.0
 13
8598.450104473064
 23
-1513.399063026281
 33
0.0
  0
MTEXT
  5
2D7
330
2D1
100
AcDbEntity
  8
0
 62
     3
100
AcDbMText
 10
8592.450104473064
 20
-1510.899063026281
 30
0.0
 40
3.0
 41
0.0
 71
     5
 72
     1
  1
\A1;12
1001
ACAD
1000
MTEXTBEGIN
1070
    73
1070
     1
1070
    44
1040
1.0
1070
    74
1070
     0
1000
MTEXTEND
  0
POINT
  5
2D8
330
2D1
100
AcDbEntity
  8
DEFPOINTS
 62
     0
100
AcDbPoint
 10
8586.450104473064
 20
-1527.426899953343
 30
0.0
  0
POINT
  5
2D9
330
2D1
100
AcDbEntity
  8
DEFPOINTS
 62
     0
100
AcDbPoint
 10
8598.450104473064
 20
-1526.426899953342
 30
0.0
  0
POINT
  5
2DA
330
2D1
100
AcDbEntity
  8
DEFPOINTS
 62
     0
100
AcDbPoint
 10
8598.450104473064
 20
-1513.399063026281
 30
0.0
  0
ENDBLK
  5
2DC
330
2D1
100
AcDbEntity
  8
0
100
AcDbBlockEnd
  0
BLOCK
  5
315
330
309
100
AcDbEntity
  8
0
100
AcDbBlockBegin
  2
*D12
 70
     1
 10
0.0
 20
0.0
 30
0.0
  3
*D12
  1

  0
LINE
  5
30A
330
309
100
AcDbEntity
  8
0
 62
   123
100
AcDbLine
 10
8585.450104473064
 20
-1527.426899953343
 30
0.0
 11
8572.977301963486
 21
-1527.426899953343
 31
0.0
  0
LINE
  5
30B
330
309
100
AcDbEntity
  8
0
 62
   123
100
AcDbLine
 10
8585.450104473064
 20
-1534.426899953342
 30
0.0
 11
8572.977301963486
 21
-1534.426899953342
 31
0.0
  0
LINE
  5
30C
330
309
100
AcDbEntity
  8
0
 62
   123
100
AcDbLine
 10
8573.577301963487
 20
-1536.926899953343
 30
0.0
 11
8573.577301963487
 21
-1539.426899953342
 31
0.0
  0
LINE
  5
30D
330
309
100
AcDbEntity
  8
0
 62
   123
100
AcDbLine
 10
8573.577301963487
 20
-1524.926899953342
 30
0.0
 11
8573.577301963487
 21
-1512.426899953345
 31
0.0
  0
LINE
  5
30E
330
309
100
AcDbEntity
  8
0
 62
   123
100
AcDbLine
 10
8573.577301963487
 20
-1534.426899953342
 30
0.0
 11
8573.577301963487
 21
-1527.426899953343
 31
0.0
  0
SOLID
  5
30F
330
309
100
AcDbEntity
  8
0
 62
   123
100
AcDbTrace
 10
8573.160635296821
 20
-1536.926899953343
 30
0.0
 11
8573.993968630153
 21
-1536.926899953343
 31
0.0
 12
8573.577301963487
 22
-1534.426899953342
 32
0.0
 13
8573.577301963487
 23
-1534.426899953342
 33
0.0
  0
SOLID
  5
310
330
309
100
AcDbEntity
  8
0
 62
   123
100
AcDbTrace
 10
8573.160635296821
 20
-1524.926899953342
 30
0.0
 11
8573.993968630153
 21
-1524.926899953342
 31
0.0
 12
8573.577301963487
 22
-1527.426899953343
 32
0.0
 13
8573.577301963487
 23
-1527.426899953343
 33
0.0
  0
MTEXT
  5
311
330
309
100
AcDbEntity
  8
0
 62
     3
100
AcDbMText
 10
8571.077301963487
 20
-1514.426899953343
 30
0.0
 40
3.0
 41
0.0
 71
     5
 72
     1
  1
\A1;7
 11
0.0000000000000001
 21
1.0
 31
0.0
1001
ACAD
1000
MTEXTBEGIN
1070
    73
1070
     1
1070
    44
1040
1.0
1070
    74
1070
     0
1000
MTEXTEND
  0
POINT
  5
312
330
309
100
AcDbEntity
  8
DEFPOINTS
 62
     0
100
AcDbPoint
 10
8586.450104473064
 20
-1527.426899953343
 30
0.0
  0
POINT
  5
313
330
309
100
AcDbEntity
  8
DEFPOINTS
 62
     0
100
AcDbPoint
 10
8586.450104473064
 20
-1534.426899953342
 30
0.0
  0
POINT
  5
314
330
309
100
AcDbEntity
  8
DEFPOINTS
 62
     0
100
AcDbPoint
 10
8573.577301963487
 20
-1534.426899953342
 30
0.0
  0
ENDBLK
  5
316
330
309
100
AcDbEntity
  8
0
100
AcDbBlockEnd
  0
BLOCK
  5
324
330
31A
100
AcDbEntity
  8
0
100
AcDbBlockBegin
  2
*D13
 70
     1
 10
0.0
 20
0.0
 30
0.0
  3
*D13
  1

  0
LINE
  5
31B
330
31A
100
AcDbEntity
  8
0
 62
   123
100
AcDbLine
 10
8581.551965671835
 20
-1530.426899953343
 30
0.0
 11
8563.587659772709
 21
-1530.426899953343
 31
0.0
  0
LINE
  5
31C
330
31A
100
AcDbEntity
  8
0
 62
   123
100
AcDbLine
 10
8573.842431338963
 20
-1540.426899953343
 30
0.0
 11
8563.587659772709
 21
-1540.426899953343
 31
0.0
  0
LINE
  5
31D
330
31A
100
AcDbEntity
  8
0
 62
   123
100
AcDbLine
 10
8564.187659772709
 20
-1532.926899953342
 30
0.0
 11
8564.187659772709
 21
-1537.926899953342
 31
0.0
  0
SOLID
  5
31E
330
31A
100
AcDbEntity
  8
0
 62
   123
100
AcDbTrace
 10
8563.770993106045
 20
-1532.926899953342
 30
0.0
 11
8564.604326439376
 21
-1532.926899953342
 31
0.0
 12
8564.187659772709
 22
-1530.426899953343
 32
0.0
 13
8564.187659772709
 23
-1530.426899953343
 33
0.0
  0
SOLID
  5
31F
330
31A
100
AcDbEntity
  8
0
 62
   123
100
AcDbTrace
 10
8563.770993106045
 20
-1537.926899953342
 30
0.0
 11
8564.604326439376
 21
-1537.926899953342
 31
0.0
 12
8564.187659772709
 22
-1540.426899953343
 32
0.0
 13
8564.187659772709
 23
-1540.426899953343
 33
0.0
  0
MTEXT
  5
320
330
31A
100
AcDbEntity
  8
0
 62
     3
100
AcDbMText
 10
8561.68765977271
 20
-1535.426899953342
 30
0.0
 40
3.0
 41
0.0
 71
     5
 72
     1
  1
\A1;10
 11
0.0000000000000001
 21
1.0
 31
0.0
1001
ACAD
1000
MTEXTBEGIN
1070
    73
1070
     1
1070
    44
1040
1.0
1070
    74
1070
     0
1000
MTEXTEND
  0
POINT
  5
321
330
31A
100
AcDbEntity
  8
DEFPOINTS
 62
     0
100
AcDbPoint
 10
8582.551965671836
 20
-1530.426899953343
 30
0.0
  0
POINT
  5
322
330
31A
100
AcDbEntity
  8
DEFPOINTS
 62
     0
100
AcDbPoint
 10
8574.842431338963
 20
-1540.426899953343
 30
0.0
  0
POINT
  5
323
330
31A
100
AcDbEntity
  8
DEFPOINTS
 62
     0
100
AcDbPoint
 10
8564.187659772709
 20
-1540.426899953343
 30
0.0
  0
ENDBLK
  5
325
330
31A
100
AcDbEntity
  8
0
100
AcDbBlockEnd
  0
BLOCK
  5
24F
330
245
100
AcDbEntity
  8
0
100
AcDbBlockBegin
  2
*D14
 70
     1
 10
0.0
 20
0.0
 30
0.0
  3
*D14
  1

  0
LINE
  5
246
330
245
100
AcDbEntity
  8
0
 62
   123
100
AcDbLine
 10
8658.450104473066
 20
-1570.926899953343
 30
0.0
 11
8658.450104473066
 21
-1583.822914334968
 31
0.0
  0
LINE
  5
247
330
245
100
AcDbEntity
  8
0
 62
   123
100
AcDbLine
 10
8618.450104473064
 20
-1570.926899953343
 30
0.0
 11
8618.450104473064
 21
-1583.822914334968
 31
0.0
  0
LINE
  5
248
330
245
100
AcDbEntity
  8
0
 62
   123
100
AcDbLine
 10
8655.950104473062
 20
-1583.222914334968
 30
0.0
 11
8620.950104473065
 21
-1583.222914334968
 31
0.0
  0
SOLID
  5
249
330
245
100
AcDbEntity
  8
0
 62
   123
100
AcDbTrace
 10
8655.950104473062
 20
-1582.806247668302
 30
0.0
 11
8655.950104473062
 21
-1583.639581001635
 31
0.0
 12
8658.450104473066
 22
-1583.222914334968
 32
0.0
 13
8658.450104473066
 23
-1583.222914334968
 33
0.0
  0
SOLID
  5
24A
330
245
100
AcDbEntity
  8
0
 62
   123
100
AcDbTrace
 10
8620.950104473065
 20
-1582.806247668302
 30
0.0
 11
8620.950104473065
 21
-1583.639581001635
 31
0.0
 12
8618.450104473064
 22
-1583.222914334968
 32
0.0
 13
8618.450104473064
 23
-1583.222914334968
 33
0.0
  0
MTEXT
  5
24B
330
245
100
AcDbEntity
  8
0
 62
     3
100
AcDbMText
 10
8638.450104473063
 20
-1580.722914334968
 30
0.0
 40
3.0
 41
0.0
 71
     5
 72
     1
  1
\A1;L
1001
ACAD
1000
MTEXTBEGIN
1070
    73
1070
     1
1070
    44
1040
1.0
1070
    74
1070
     0
1000
MTEXTEND
  0
POINT
  5
24C
330
245
100
AcDbEntity
  8
DEFPOINTS
 62
     0
100
AcDbPoint
 10
8658.450104473066
 20
-1569.926899953342
 30
0.0
  0
POINT
  5
24D
330
245
100
AcDbEntity
  8
DEFPOINTS
 62
     0
100
AcDbPoint
 10
8618.450104473064
 20
-1569.926899953342
 30
0.0
  0
POINT
  5
24E
330
245
100
AcDbEntity
  8
DEFPOINTS
 62
     0
100
AcDbPoint
 10
8618.450104473064
 20
-1583.222914334968
 30
0.0
  0
ENDBLK
  5
250
330
245
100
AcDbEntity
  8
0
100
AcDbBlockEnd
  0
BLOCK
  5
101
330
F7
100
AcDbEntity
  8
0
100
AcDbBlockBegin
  2
*D15
 70
     1
 10
0.0
 20
0.0
 30
0.0
  3
*D15
  1

  0
LINE
  5
F8
330
F7
100
AcDbEntity
  8
0
 62
   123
100
AcDbLine
 10
8694.060670480752
 20
-1698.508159241779
 30
0.0
 11
8710.286232456921
 21
-1698.508159241779
 31
0.0
  0
LINE
  5
F9
330
F7
100
AcDbEntity
  8
0
 62
   123
100
AcDbLine
 10
8694.060670480752
 20
-1758.50815924178
 30
0.0
 11
8710.286232456921
 21
-1758.50815924178
 31
0.0
  0
LINE
  5
FA
330
F7
100
AcDbEntity
  8
0
 62
   123
100
AcDbLine
 10
8709.686232456919
 20
-1701.008159241779
 30
0.0
 11
8709.686232456919
 21
-1756.00815924178
 31
0.0
  0
SOLID
  5
FB
330
F7
100
AcDbEntity
  8
0
 62
   123
100
AcDbTrace
 10
8709.269565790254
 20
-1701.008159241779
 30
0.0
 11
8710.102899123585
 21
-1701.008159241779
 31
0.0
 12
8709.686232456919
 22
-1698.508159241779
 32
0.0
 13
8709.686232456919
 23
-1698.508159241779
 33
0.0
  0
SOLID
  5
FC
330
F7
100
AcDbEntity
  8
0
 62
   123
100
AcDbTrace
 10
8709.269565790254
 20
-1756.00815924178
 30
0.0
 11
8710.102899123585
 21
-1756.00815924178
 31
0.0
 12
8709.686232456919
 22
-1758.50815924178
 32
0.0
 13
8709.686232456919
 23
-1758.50815924178
 33
0.0
  0
MTEXT
  5
FD
330
F7
100
AcDbEntity
  8
0
 62
     3
100
AcDbMText
 10
8707.186232456919
 20
-1728.50815924178
 30
0.0
 40
3.0
 41
0.0
 71
     5
 72
     1
  1
\A1;%%C60
 11
0.0000000000000001
 21
1.0
 31
0.0
1001
ACAD
1000
MTEXTBEGIN
1070
    73
1070
     1
1070
    44
1040
1.0
1070
    74
1070
     0
1000
MTEXTEND
  0
POINT
  5
FE
330
F7
100
AcDbEntity
  8
DEFPOINTS
 62
     0
100
AcDbPoint
 10
8693.060670480752
 20
-1698.508159241779
 30
0.0
  0
POINT
  5
FF
330
F7
100
AcDbEntity
  8
DEFPOINTS
 62
     0
100
AcDbPoint
 10
8693.060670480752
 20
-1758.50815924178
 30
0.0
  0
POINT
  5
100
330
F7
100
AcDbEntity
  8
DEFPOINTS
 62
     0
100
AcDbPoint
 10
8709.686232456919
 20
-1758.50815924178
 30
0.0
  0
ENDBLK
  5
102
330
F7
100
AcDbEntity
  8
0
100
AcDbBlockEnd
  0
BLOCK
  5
205
330
1FB
100
AcDbEntity
  8
0
100
AcDbBlockBegin
  2
*D16
 70
     1
 10
0.0
 20
0.0
 30
0.0
  3
*D16
  1

  0
LINE
  5
1FC
330
1FB
100
AcDbEntity
  8
DIM
 62
   123
100
AcDbLine
 10
8535.560670480753
 20
-1706.50815924178
 30
0.0
 11
8465.422024649139
 21
-1706.50815924178
 31
0.0
  0
LINE
  5
1FD
330
1FB
100
AcDbEntity
  8
DIM
 62
   123
100
AcDbLine
 10
8535.560670480753
 20
-1730.50815924178
 30
0.0
 11
8465.422024649139
 21
-1730.50815924178
 31
0.0
  0
LINE
  5
1FE
330
1FB
100
AcDbEntity
  8
DIM
 62
   123
100
AcDbLine
 10
8466.02202464914
 20
-1709.00815924178
 30
0.0
 11
8466.02202464914
 21
-1728.00815924178
 31
0.0
  0
SOLID
  5
1FF
330
1FB
100
AcDbEntity
  8
DIM
 62
   123
100
AcDbTrace
 10
8465.605357982473
 20
-1709.00815924178
 30
0.0
 11
8466.438691315806
 21
-1709.00815924178
 31
0.0
 12
8466.02202464914
 22
-1706.50815924178
 32
0.0
 13
8466.02202464914
 23
-1706.50815924178
 33
0.0
  0
SOLID
  5
200
330
1FB
100
AcDbEntity
  8
DIM
 62
   123
100
AcDbTrace
 10
8465.605357982473
 20
-1728.00815924178
 30
0.0
 11
8466.438691315806
 21
-1728.00815924178
 31
0.0
 12
8466.02202464914
 22
-1730.50815924178
 32
0.0
 13
8466.02202464914
 23
-1730.50815924178
 33
0.0
  0
MTEXT
  5
201
330
1FB
100
AcDbEntity
  8
DIM
 62
     3
100
AcDbMText
 10
8463.522024649138
 20
-1718.508159241778
 30
0.0
 40
3.0
 41
0.0
 71
     5
 72
     1
  1
\A1;%%c24
 11
0.0000000000000001
 21
1.0
 31
0.0
1001
ACAD
1000
MTEXTBEGIN
1070
    73
1070
     1
1070
    44
1040
1.0
1070
    74
1070
     0
1000
MTEXTEND
  0
POINT
  5
202
330
1FB
100
AcDbEntity
  8
DEFPOINTS
 62
     0
100
AcDbPoint
 10
8536.560670480755
 20
-1706.50815924178
 30
0.0
  0
POINT
  5
203
330
1FB
100
AcDbEntity
  8
DEFPOINTS
 62
     0
100
AcDbPoint
 10
8536.560670480755
 20
-1730.50815924178
 30
0.0
  0
POINT
  5
204
330
1FB
100
AcDbEntity
  8
DEFPOINTS
 62
     0
100
AcDbPoint
 10
8466.02202464914
 20
-1730.50815924178
 30
0.0
  0
ENDBLK
  5
206
330
1FB
100
AcDbEntity
  8
0
100
AcDbBlockEnd
  0
BLOCK
  5
1F8
330
1EE
100
AcDbEntity
  8
0
100
AcDbBlockBegin
  2
*D17
 70
     1
 10
0.0
 20
0.0
 30
0.0
  3
*D17
  1

  0
LINE
  5
1EF
330
1EE
100
AcDbEntity
  8
DIM
 62
   123
100
AcDbLine
 10
8579.060670480755
 20
-1697.50815924178
 30
0.0
 11
8579.060670480755
 21
-1675.086396350388
 31
0.0
  0
LINE
  5
1F0
330
1EE
100
AcDbEntity
  8
DIM
 62
   123
100
AcDbLine
 10
8539.060670480754
 20
-1698.00815924178
 30
0.0
 11
8539.060670480754
 21
-1675.086396350388
 31
0.0
  0
LINE
  5
1F1
330
1EE
100
AcDbEntity
  8
DIM
 62
   123
100
AcDbLine
 10
8576.560670480754
 20
-1675.686396350387
 30
0.0
 11
8541.560670480754
 21
-1675.686396350387
 31
0.0
  0
SOLID
  5
1F2
330
1EE
100
AcDbEntity
  8
DIM
 62
   123
100
AcDbTrace
 10
8576.560670480754
 20
-1675.26972968372
 30
0.0
 11
8576.560670480754
 21
-1676.103063017054
 31
0.0
 12
8579.060670480755
 22
-1675.686396350387
 32
0.0
 13
8579.060670480755
 23
-1675.686396350387
 33
0.0
  0
SOLID
  5
1F3
330
1EE
100
AcDbEntity
  8
DIM
 62
   123
100
AcDbTrace
 10
8541.560670480754
 20
-1675.26972968372
 30
0.0
 11
8541.560670480754
 21
-1676.103063017054
 31
0.0
 12
8539.060670480754
 22
-1675.686396350387
 32
0.0
 13
8539.060670480754
 23
-1675.686396350387
 33
0.0
  0
MTEXT
  5
1F4
330
1EE
100
AcDbEntity
  8
DIM
 62
     3
100
AcDbMText
 10
8558.5469960397
 20
-1673.186396350388
 30
0.0
 40
3.0
 41
0.0
 71
     5
 72
     1
  1
\A1;L
1001
ACAD
1000
MTEXTBEGIN
1070
    73
1070
     1
1070
    44
1040
1.0
1070
    74
1070
     0
1000
MTEXTEND
  0
POINT
  5
1F5
330
1EE
100
AcDbEntity
  8
DEFPOINTS
 62
     0
100
AcDbPoint
 10
8579.060670480755
 20
-1698.50815924178
 30
0.0
  0
POINT
  5
1F6
330
1EE
100
AcDbEntity
  8
DEFPOINTS
 62
     0
100
AcDbPoint
 10
8539.060670480754
 20
-1699.00815924178
 30
0.0
  0
POINT
  5
1F7
330
1EE
100
AcDbEntity
  8
DEFPOINTS
 62
     0
100
AcDbPoint
 10
8539.060670480754
 20
-1675.686396350387
 30
0.0
  0
ENDBLK
  5
1F9
330
1EE
100
AcDbEntity
  8
0
100
AcDbBlockEnd
  0
BLOCK
  5
DB
330
D2
100
AcDbEntity
  8
0
100
AcDbBlockBegin
  2
*D18
 70
     1
 10
0.0
 20
0.0
 30
0.0
  3
*D18
  1

  0
LINE
  5
D3
330
D2
100
AcDbEntity
  8
0
 62
   123
100
AcDbLine
 10
8386.102986619324
 20
-1748.895003013422
 30
0.0
 11
8384.004705205056
 21
-1750.254125931531
 31
0.0
  0
LINE
  5
D4
330
D2
100
AcDbEntity
  8
0
 62
   123
100
AcDbLine
 10
8449.051429047402
 20
-1708.121315470131
 30
0.0
 11
8470.423122035821
 21
-1694.278197220199
 31
0.0
  0
LINE
  5
D5
330
D2
100
AcDbEntity
  8
0
 62
   123
100
AcDbLine
 10
8388.201268033594
 20
-1747.535880095312
 30
0.0
 11
8446.953147633132
 21
-1709.480438388242
 31
0.0
  0
SOLID
  5
D6
330
D2
100
AcDbEntity
  8
0
 62
   123
100
AcDbTrace
 10
8385.876466132973
 20
-1748.545289444377
 30
0.0
 11
8386.329507105676
 21
-1749.244716582466
 31
0.0
 12
8388.201268033594
 22
-1747.535880095312
 32
0.0
 13
8388.201268033594
 23
-1747.535880095312
 33
0.0
  0
SOLID
  5
D7
330
D2
100
AcDbEntity
  8
0
 62
   123
100
AcDbTrace
 10
8448.824908561052
 20
-1707.771601901088
 30
0.0
 11
8449.277949533755
 21
-1708.471029039176
 31
0.0
 12
8446.953147633132
 22
-1709.480438388242
 32
0.0
 13
8446.953147633132
 23
-1709.480438388242
 33
0.0
  0
MTEXT
  5
D8
330
D2
100
AcDbEntity
  8
0
 62
     3
100
AcDbMText
 10
8460.491020767983
 20
-1697.732903728494
 30
0.0
 40
3.0
 41
0.0
 71
     5
 72
     1
  1
\A1;\U+220570%%p0.5
 11
0.839312565707784
 21
0.5436491672439287
 31
0.0
1001
ACAD
1000
MTEXTBEGIN
1070
    73
1070
     1
1070
    44
1040
1.0
1070
    74
1070
     0
1000
MTEXTEND
  0
POINT
  5
D9
330
D2
100
AcDbEntity
  8
DEFPOINTS
 62
     0
100
AcDbPoint
 10
8446.953147633132
 20
-1709.480438388242
 30
0.0
  0
POINT
  5
DA
330
D2
100
AcDbEntity
  8
DEFPOINTS
 62
     0
100
AcDbPoint
 10
8388.201268033594
 20
-1747.535880095312
 30
0.0
  0
ENDBLK
  5
DC
330
D2
100
AcDbEntity
  8
0
100
AcDbBlockEnd
  0
BLOCK
  5
1A9
330
19F
100
AcDbEntity
  8
0
100
AcDbBlockBegin
  2
*D19
 70
     1
 10
0.0
 20
0.0
 30
0.0
  3
*D19
  1

  0
LINE
  5
1A0
330
19F
100
AcDbEntity
  8
0
 62
   123
100
AcDbLine
 10
8387.577207833361
 20
-1702.508159241778
 30
0.0
 11
8387.577207833361
 21
-1684.257061447474
 31
0.0
  0
LINE
  5
1A1
330
19F
100
AcDbEntity
  8
0
 62
   123
100
AcDbLine
 10
8447.577207833361
 20
-1702.508159241778
 30
0.0
 11
8447.577207833361
 21
-1684.257061447474
 31
0.0
  0
LINE
  5
1A2
330
19F
100
AcDbEntity
  8
0
 62
   123
100
AcDbLine
 10
8390.077207833362
 20
-1684.857061447474
 30
0.0
 11
8445.077207833362
 21
-1684.857061447474
 31
0.0
  0
SOLID
  5
1A3
330
19F
100
AcDbEntity
  8
0
 62
   123
100
AcDbTrace
 10
8390.077207833362
 20
-1684.440394780806
 30
0.0
 11
8390.077207833362
 21
-1685.273728114141
 31
0.0
 12
8387.577207833361
 22
-1684.857061447474
 32
0.0
 13
8387.577207833361
 23
-1684.857061447474
 33
0.0
  0
SOLID
  5
1A4
330
19F
100
AcDbEntity
  8
0
 62
   123
100
AcDbTrace
 10
8445.077207833362
 20
-1684.440394780806
 30
0.0
 11
8445.077207833362
 21
-1685.273728114141
 31
0.0
 12
8447.577207833361
 22
-1684.857061447474
 32
0.0
 13
8447.577207833361
 23
-1684.857061447474
 33
0.0
  0
MTEXT
  5
1A5
330
19F
100
AcDbEntity
  8
0
 62
     3
100
AcDbMText
 10
8417.246469073701
 20
-1682.357061447474
 30
0.0
 40
3.0
 41
0.0
 71
     5
 72
     1
  1
\A1;60
1001
ACAD
1000
MTEXTBEGIN
1070
    73
1070
     1
1070
    44
1040
1.0
1070
    74
1070
     0
1000
MTEXTEND
  0
POINT
  5
1A6
330
19F
100
AcDbEntity
  8
DEFPOINTS
 62
     0
100
AcDbPoint
 10
8387.577207833361
 20
-1703.508159241779
 30
0.0
  0
POINT
  5
1A7
330
19F
100
AcDbEntity
  8
DEFPOINTS
 62
     0
100
AcDbPoint
 10
8447.577207833361
 20
-1703.508159241779
 30
0.0
  0
POINT
  5
1A8
330
19F
100
AcDbEntity
  8
DEFPOINTS
 62
     0
100
AcDbPoint
 10
8447.577207833361
 20
-1684.857061447474
 30
0.0
  0
ENDBLK
  5
1AA
330
19F
100
AcDbEntity
  8
0
100
AcDbBlockEnd
  0
BLOCK
  5
F4
330
E8
100
AcDbEntity
  8
0
100
AcDbBlockBegin
  2
*D20
 70
     1
 10
0.0
 20
0.0
 30
0.0
  3
*D20
  1

  0
LINE
  5
E9
330
E8
100
AcDbEntity
  8
0
 62
   123
100
AcDbLine
 10
8417.577207833359
 20
-1764.508159241779
 30
0.0
 11
8417.577207833366
 21
-1781.027018082121
 31
0.0
  0
LINE
  5
EA
330
E8
100
AcDbEntity
  8
0
 62
   123
100
AcDbLine
 10
8431.25329988389
 20
-1761.52516615042
 30
0.0
 11
8437.675304998283
 21
-1777.029257995222
 31
0.0
  0
ARC
  5
EB
330
E8
100
AcDbEntity
  8
0
 62
   123
100
AcDbCircle
 10
8417.577207833359
 20
-1728.508159241769
 30
0.0
 40
51.91885884035201
100
AcDbArc
 50
272.7591764118522
 51
289.7408235881444
  0
SOLID
  5
EC
330
E8
100
AcDbEntity
  8
0
 62
   123
100
AcDbTrace
 10
8420.086514838452
 20
-1780.783373894923
 30
0.0
 11
8420.066451480167
 21
-1779.950282119608
 31
0.0
 12
8417.577207833359
 22
-1780.427018082121
 32
0.0
 13
8417.577207833359
 23
-1780.427018082121
 33
0.0
  0
SOLID
  5
ED
330
E8
100
AcDbEntity
  8
0
 62
   123
100
AcDbTrace
 10
8434.96349472768
 20
-1776.987075980288
 30
0.0
 11
8435.263769021659
 21
-1777.764430335019
 31
0.0
 12
8437.445694938864
 22
-1776.474930275715
 32
0.0
 13
8437.445694938864
 23
-1776.474930275715
 33
0.0
  0
MTEXT
  5
EE
330
E8
100
AcDbEntity
  8
0
 62
     3
100
AcDbMText
 10
8427.162608826192
 20
-1776.697224200883
 30
0.0
 40
3.0
 41
0.0
 71
     5
 72
     1
  1
\A1;22°30'
 11
0.9807852804032325
 21
0.1950903220161171
 31
0.0
1001
ACAD
1000
MTEXTBEGIN
1070
    73
1070
     1
1070
    44
1040
1.0
1070
    74
1070
     0
1000
MTEXTEND
  0
POINT
  5
EF
330
E8
100
AcDbEntity
  8
DEFPOINTS
 62
     0
100
AcDbPoint
 10
8424.353978782203
 20
-1779.982845047428
 30
0.0
  0
POINT
  5
F0
330
E8
100
AcDbEntity
  8
DEFPOINTS
 62
     0
100
AcDbPoint
 10
8417.577207833359
 20
-1763.50815924178
 30
0.0
  0
POINT
  5
F1
330
E8
100
AcDbEntity
  8
DEFPOINTS
 62
     0
100
AcDbPoint
 10
8417.577207833366
 20
-1728.508159241779
 30
0.0
  0
POINT
  5
F2
330
E8
100
AcDbEntity
  8
DEFPOINTS
 62
     0
100
AcDbPoint
 10
8430.870616451525
 20
-1760.601286617909
 30
0.0
  0
POINT
  5
F3
330
E8
100
AcDbEntity
  8
DEFPOINTS
 62
     0
100
AcDbPoint
 10
8417.577207833359
 20
-1693.508159241781
 30
0.0
  0
ENDBLK
  5
F5
330
E8
100
AcDbEntity
  8
0
100
AcDbBlockEnd
  0
BLOCK
  5
178
330
16E
100
AcDbEntity
  8
0
100
AcDbBlockBegin
  2
*D21
 70
     1
 10
0.0
 20
0.0
 30
0.0
  3
*D21
  1

  0
LINE
  5
16F
330
16E
100
AcDbEntity
  8
0
 62
   123
100
AcDbLine
 10
8579.060670480755
 20
-1697.508159241779
 30
0.0
 11
8579.060670480755
 21
-1675.086396350388
 31
0.0
  0
LINE
  5
170
330
16E
100
AcDbEntity
  8
0
 62
   123
100
AcDbLine
 10
8694.060670480755
 20
-1698.508159241779
 30
0.0
 11
8694.060670480755
 21
-1675.086396350388
 31
0.0
  0
LINE
  5
171
330
16E
100
AcDbEntity
  8
0
 62
   123
100
AcDbLine
 10
8581.560670480754
 20
-1675.686396350387
 30
0.0
 11
8691.560670480754
 21
-1675.686396350387
 31
0.0
  0
SOLID
  5
172
330
16E
100
AcDbEntity
  8
0
 62
   123
100
AcDbTrace
 10
8581.560670480754
 20
-1675.26972968372
 30
0.0
 11
8581.560670480754
 21
-1676.103063017054
 31
0.0
 12
8579.060670480755
 22
-1675.686396350387
 32
0.0
 13
8579.060670480755
 23
-1675.686396350387
 33
0.0
  0
SOLID
  5
173
330
16E
100
AcDbEntity
  8
0
 62
   123
100
AcDbTrace
 10
8691.560670480754
 20
-1675.26972968372
 30
0.0
 11
8691.560670480754
 21
-1676.103063017054
 31
0.0
 12
8694.060670480755
 22
-1675.686396350387
 32
0.0
 13
8694.060670480755
 23
-1675.686396350387
 33
0.0
  0
MTEXT
  5
174
330
16E
100
AcDbEntity
  8
0
 62
     3
100
AcDbMText
 10
8636.046996039699
 20
-1673.186396350388
 30
0.0
 40
3.0
 41
0.0
 71
     5
 72
     1
  1
\A1;115
1001
ACAD
1000
MTEXTBEGIN
1070
    73
1070
     1
1070
    44
1040
1.0
1070
    74
1070
     0
1000
MTEXTEND
  0
POINT
  5
175
330
16E
100
AcDbEntity
  8
DEFPOINTS
 62
     0
100
AcDbPoint
 10
8579.060670480755
 20
-1698.508159241779
 30
0.0
  0
POINT
  5
176
330
16E
100
AcDbEntity
  8
DEFPOINTS
 62
     0
100
AcDbPoint
 10
8694.060670480755
 20
-1699.508159241779
 30
0.0
  0
POINT
  5
177
330
16E
100
AcDbEntity
  8
DEFPOINTS
 62
     0
100
AcDbPoint
 10
8694.060670480755
 20
-1675.686396350387
 30
0.0
  0
ENDBLK
  5
179
330
16E
100
AcDbEntity
  8
0
100
AcDbBlockEnd
  0
BLOCK
  5
1CC
330
1C2
100
AcDbEntity
  8
0
100
AcDbBlockBegin
  2
*D22
 70
     1
 10
0.0
 20
0.0
 30
0.0
  3
*D22
  1

  0
LINE
  5
1C3
330
1C2
100
AcDbEntity
  8
0
 62
   123
100
AcDbLine
 10
8579.060670480755
 20
-1697.508159241779
 30
0.0
 11
8579.060670480755
 21
-1687.256956824896
 31
0.0
  0
LINE
  5
1C4
330
1C2
100
AcDbEntity
  8
0
 62
   123
100
AcDbLine
 10
8586.060670480753
 20
-1698.909421900251
 30
0.0
 11
8586.060670480753
 21
-1687.256956824896
 31
0.0
  0
LINE
  5
1C5
330
1C2
100
AcDbEntity
  8
0
 62
   123
100
AcDbLine
 10
8581.560670480754
 20
-1687.856956824894
 30
0.0
 11
8583.560670480755
 21
-1687.856956824894
 31
0.0
  0
SOLID
  5
1C6
330
1C2
100
AcDbEntity
  8
0
 62
   123
100
AcDbTrace
 10
8581.560670480754
 20
-1687.440290158229
 30
0.0
 11
8581.560670480754
 21
-1688.273623491562
 31
0.0
 12
8579.060670480755
 22
-1687.856956824894
 32
0.0
 13
8579.060670480755
 23
-1687.856956824894
 33
0.0
  0
SOLID
  5
1C7
330
1C2
100
AcDbEntity
  8
0
 62
   123
100
AcDbTrace
 10
8583.560670480755
 20
-1687.440290158229
 30
0.0
 11
8583.560670480755
 21
-1688.273623491562
 31
0.0
 12
8586.060670480753
 22
-1687.856956824894
 32
0.0
 13
8586.060670480753
 23
-1687.856956824894
 33
0.0
  0
MTEXT
  5
1C8
330
1C2
100
AcDbEntity
  8
0
 62
     3
100
AcDbMText
 10
8582.560670480754
 20
-1685.356956824895
 30
0.0
 40
3.0
 41
0.0
 71
     5
 72
     1
  1
\A1;7
1001
ACAD
1000
MTEXTBEGIN
1070
    73
1070
     1
1070
    44
1040
1.0
1070
    74
1070
     0
1000
MTEXTEND
  0
POINT
  5
1C9
330
1C2
100
AcDbEntity
  8
DEFPOINTS
 62
     0
100
AcDbPoint
 10
8579.060670480755
 20
-1698.508159241779
 30
0.0
  0
POINT
  5
1CA
330
1C2
100
AcDbEntity
  8
DEFPOINTS
 62
     0
100
AcDbPoint
 10
8586.060670480753
 20
-1699.90942190025
 30
0.0
  0
POINT
  5
1CB
330
1C2
100
AcDbEntity
  8
DEFPOINTS
 62
     0
100
AcDbPoint
 10
8586.060670480753
 20
-1687.856956824894
 30
0.0
  0
ENDBLK
  5
1CD
330
1C2
100
AcDbEntity
  8
0
100
AcDbBlockEnd
  0
BLOCK
  5
225
330
21B
100
AcDbEntity
  8
0
100
AcDbBlockBegin
  2
*D23
 70
     1
 10
0.0
 20
0.0
 30
0.0
  3
*D23
  1

  0
LINE
  5
21C
330
21B
100
AcDbEntity
  8
0
 62
   123
100
AcDbLine
 10
8507.060670480754
 20
-1714.508159241781
 30
0.0
 11
8507.060670480754
 21
-1675.086396350388
 31
0.0
  0
LINE
  5
21D
330
21B
100
AcDbEntity
  8
0
 62
   123
100
AcDbLine
 10
8539.060670480754
 20
-1698.008159241781
 30
0.0
 11
8539.060670480754
 21
-1675.086396350388
 31
0.0
  0
LINE
  5
21E
330
21B
100
AcDbEntity
  8
0
 62
   123
100
AcDbLine
 10
8509.560670480754
 20
-1675.686396350387
 30
0.0
 11
8536.560670480755
 21
-1675.686396350387
 31
0.0
  0
SOLID
  5
21F
330
21B
100
AcDbEntity
  8
0
 62
   123
100
AcDbTrace
 10
8509.560670480754
 20
-1675.26972968372
 30
0.0
 11
8509.560670480754
 21
-1676.103063017055
 31
0.0
 12
8507.060670480754
 22
-1675.686396350387
 32
0.0
 13
8507.060670480754
 23
-1675.686396350387
 33
0.0
  0
SOLID
  5
220
330
21B
100
AcDbEntity
  8
0
 62
   123
100
AcDbTrace
 10
8536.560670480755
 20
-1675.26972968372
 30
0.0
 11
8536.560670480755
 21
-1676.103063017055
 31
0.0
 12
8539.060670480754
 22
-1675.686396350387
 32
0.0
 13
8539.060670480754
 23
-1675.686396350387
 33
0.0
  0
MTEXT
  5
221
330
21B
100
AcDbEntity
  8
0
 62
     3
100
AcDbMText
 10
8522.546996039698
 20
-1673.186396350388
 30
0.0
 40
3.0
 41
0.0
 71
     5
 72
     1
  1
\A1;32
1001
ACAD
1000
MTEXTBEGIN
1070
    73
1070
     1
1070
    44
1040
1.0
1070
    74
1070
     0
1000
MTEXTEND
  0
POINT
  5
222
330
21B
100
AcDbEntity
  8
DEFPOINTS
 62
     0
100
AcDbPoint
 10
8507.060670480754
 20
-1715.508159241781
 30
0.0
  0
POINT
  5
223
330
21B
100
AcDbEntity
  8
DEFPOINTS
 62
     0
100
AcDbPoint
 10
8539.060670480754
 20
-1699.00815924178
 30
0.0
  0
POINT
  5
224
330
21B
100
AcDbEntity
  8
DEFPOINTS
 62
     0
100
AcDbPoint
 10
8539.060670480754
 20
-1675.686396350387
 30
0.0
  0
ENDBLK
  5
226
330
21B
100
AcDbEntity
  8
0
100
AcDbBlockEnd
  0
BLOCK
  5
237
330
22D
100
AcDbEntity
  8
0
100
AcDbBlockBegin
  2
*D24
 70
     1
 10
0.0
 20
0.0
 30
0.0
  3
*D24
  1

  0
LINE
  5
22E
330
22D
100
AcDbEntity
  8
0
 62
   123
100
AcDbLine
 10
8507.060670480754
 20
-1714.508159241781
 30
0.0
 11
8507.060670480754
 21
-1700.880322314719
 31
0.0
  0
LINE
  5
22F
330
22D
100
AcDbEntity
  8
0
 62
   123
100
AcDbLine
 10
8519.060670480754
 20
-1713.50815924178
 30
0.0
 11
8519.060670480754
 21
-1700.880322314719
 31
0.0
  0
LINE
  5
230
330
22D
100
AcDbEntity
  8
0
 62
   123
100
AcDbLine
 10
8509.560670480754
 20
-1701.480322314719
 30
0.0
 11
8516.560670480755
 21
-1701.480322314719
 31
0.0
  0
SOLID
  5
231
330
22D
100
AcDbEntity
  8
0
 62
   123
100
AcDbTrace
 10
8509.560670480754
 20
-1701.063655648052
 30
0.0
 11
8509.560670480754
 21
-1701.896988981386
 31
0.0
 12
8507.060670480754
 22
-1701.480322314719
 32
0.0
 13
8507.060670480754
 23
-1701.480322314719
 33
0.0
  0
SOLID
  5
232
330
22D
100
AcDbEntity
  8
0
 62
   123
100
AcDbTrace
 10
8516.560670480755
 20
-1701.063655648052
 30
0.0
 11
8516.560670480755
 21
-1701.896988981386
 31
0.0
 12
8519.060670480754
 22
-1701.480322314719
 32
0.0
 13
8519.060670480754
 23
-1701.480322314719
 33
0.0
  0
MTEXT
  5
233
330
22D
100
AcDbEntity
  8
0
 62
     3
100
AcDbMText
 10
8513.060670480754
 20
-1698.980322314718
 30
0.0
 40
3.0
 41
0.0
 71
     5
 72
     1
  1
\A1;12
1001
ACAD
1000
MTEXTBEGIN
1070
    73
1070
     1
1070
    44
1040
1.0
1070
    74
1070
     0
1000
MTEXTEND
  0
POINT
  5
234
330
22D
100
AcDbEntity
  8
DEFPOINTS
 62
     0
100
AcDbPoint
 10
8507.060670480754
 20
-1715.508159241781
 30
0.0
  0
POINT
  5
235
330
22D
100
AcDbEntity
  8
DEFPOINTS
 62
     0
100
AcDbPoint
 10
8519.060670480754
 20
-1714.508159241781
 30
0.0
  0
POINT
  5
236
330
22D
100
AcDbEntity
  8
DEFPOINTS
 62
     0
100
AcDbPoint
 10
8519.060670480754
 20
-1701.480322314719
 30
0.0
  0
ENDBLK
  5
238
330
22D
100
AcDbEntity
  8
0
100
AcDbBlockEnd
  0
BLOCK
  5
18B
330
17F
100
AcDbEntity
  8
0
100
AcDbBlockBegin
  2
*D25
 70
     1
 10
0.0
 20
0.0
 30
0.0
  3
*D25
  1

  0
LINE
  5
180
330
17F
100
AcDbEntity
  8
0
 62
   123
100
AcDbLine
 10
8506.060670480755
 20
-1715.508159241781
 30
0.0
 11
8493.587867971179
 21
-1715.508159241781
 31
0.0
  0
LINE
  5
181
330
17F
100
AcDbEntity
  8
0
 62
   123
100
AcDbLine
 10
8506.060670480755
 20
-1722.508159241781
 30
0.0
 11
8493.587867971179
 21
-1722.508159241781
 31
0.0
  0
LINE
  5
182
330
17F
100
AcDbEntity
  8
0
 62
   123
100
AcDbLine
 10
8494.187867971181
 20
-1725.008159241781
 30
0.0
 11
8494.187867971181
 21
-1727.50815924178
 31
0.0
  0
LINE
  5
183
330
17F
100
AcDbEntity
  8
0
 62
   123
100
AcDbLine
 10
8494.187867971181
 20
-1713.00815924178
 30
0.0
 11
8494.187867971181
 21
-1700.852982494859
 31
0.0
  0
LINE
  5
184
330
17F
100
AcDbEntity
  8
0
 62
   123
100
AcDbLine
 10
8494.187867971181
 20
-1722.508159241781
 30
0.0
 11
8494.187867971181
 21
-1715.508159241781
 31
0.0
  0
SOLID
  5
185
330
17F
100
AcDbEntity
  8
0
 62
   123
100
AcDbTrace
 10
8493.771201304515
 20
-1725.008159241781
 30
0.0
 11
8494.604534637847
 21
-1725.008159241781
 31
0.0
 12
8494.187867971181
 22
-1722.508159241781
 32
0.0
 13
8494.187867971181
 23
-1722.508159241781
 33
0.0
  0
SOLID
  5
186
330
17F
100
AcDbEntity
  8
0
 62
   123
100
AcDbTrace
 10
8493.771201304515
 20
-1713.00815924178
 30
0.0
 11
8494.604534637847
 21
-1713.00815924178
 31
0.0
 12
8494.187867971181
 22
-1715.508159241781
 32
0.0
 13
8494.187867971181
 23
-1715.508159241781
 33
0.0
  0
MTEXT
  5
187
330
17F
100
AcDbEntity
  8
0
 62
     3
100
AcDbMText
 10
8491.687867971181
 20
-1702.852982494858
 30
0.0
 40
3.0
 41
0.0
 71
     5
 72
     1
  1
\A1;7
 11
0.0000000000000001
 21
1.0
 31
0.0
1001
ACAD
1000
MTEXTBEGIN
1070
    73
1070
     1
1070
    44
1040
1.0
1070
    74
1070
     0
1000
MTEXTEND
  0
POINT
  5
188
330
17F
100
AcDbEntity
  8
DEFPOINTS
 62
     0
100
AcDbPoint
 10
8507.060670480754
 20
-1715.508159241781
 30
0.0
  0
POINT
  5
189
330
17F
100
AcDbEntity
  8
DEFPOINTS
 62
     0
100
AcDbPoint
 10
8507.060670480754
 20
-1722.508159241781
 30
0.0
  0
POINT
  5
18A
330
17F
100
AcDbEntity
  8
DEFPOINTS
 62
     0
100
AcDbPoint
 10
8494.187867971181
 20
-1722.508159241781
 30
0.0
  0
ENDBLK
  5
18C
330
17F
100
AcDbEntity
  8
0
100
AcDbBlockEnd
  0
BLOCK
  5
216
330
20A
100
AcDbEntity
  8
0
100
AcDbBlockBegin
  2
*D26
 70
     1
 10
0.0
 20
0.0
 30
0.0
  3
*D26
  1

  0
LINE
  5
20B
330
20A
100
AcDbEntity
  8
DIM
 62
   123
100
AcDbLine
 10
8506.060670480755
 20
-1722.50815924178
 30
0.0
 11
8484.069574729621
 21
-1722.50815924178
 31
0.0
  0
LINE
  5
20C
330
20A
100
AcDbEntity
  8
DIM
 62
   123
100
AcDbLine
 10
8518.060670480755
 20
-1714.50815924178
 30
0.0
 11
8484.069574729621
 21
-1714.50815924178
 31
0.0
  0
LINE
  5
20D
330
20A
100
AcDbEntity
  8
DIM
 62
   123
100
AcDbLine
 10
8484.669574729622
 20
-1725.00815924178
 30
0.0
 11
8484.669574729622
 21
-1727.50815924178
 31
0.0
  0
LINE
  5
20E
330
20A
100
AcDbEntity
  8
DIM
 62
   123
100
AcDbLine
 10
8484.669574729622
 20
-1712.00815924178
 30
0.0
 11
8484.669574729622
 21
-1674.8749249798
 31
0.0
  0
LINE
  5
20F
330
20A
100
AcDbEntity
  8
DIM
 62
   123
100
AcDbLine
 10
8484.669574729622
 20
-1722.50815924178
 30
0.0
 11
8484.669574729622
 21
-1714.50815924178
 31
0.0
  0
SOLID
  5
210
330
20A
100
AcDbEntity
  8
DIM
 62
   123
100
AcDbTrace
 10
8484.252908062957
 20
-1725.00815924178
 30
0.0
 11
8485.086241396286
 21
-1725.00815924178
 31
0.0
 12
8484.669574729622
 22
-1722.50815924178
 32
0.0
 13
8484.669574729622
 23
-1722.50815924178
 33
0.0
  0
SOLID
  5
211
330
20A
100
AcDbEntity
  8
DIM
 62
   123
100
AcDbTrace
 10
8484.252908062957
 20
-1712.00815924178
 30
0.0
 11
8485.086241396286
 21
-1712.00815924178
 31
0.0
 12
8484.669574729622
 22
-1714.50815924178
 32
0.0
 13
8484.669574729622
 23
-1714.50815924178
 33
0.0
  0
MTEXT
  5
212
330
20A
100
AcDbEntity
  8
DIM
 62
     3
100
AcDbMText
 10
8480.71942472962
 20
-1688.547639265513
 30
0.0
 40
3.0
 41
0.0
 71
     5
 72
     1
  1
\A1;\A1;{\f??|b0|i0|c0|p49;%%C8\H0.7x;\S+0^ -0.015;\H1.429x;(h7)}
 11
0.0000000000000001
 21
1.0
 31
0.0
1001
ACAD
1000
MTEXTBEGIN
1070
    73
1070
     1
1070
    44
1040
1.0
1070
    74
1070
     0
1000
MTEXTEND
  0
POINT
  5
213
330
20A
100
AcDbEntity
  8
DEFPOINTS
 62
     0
100
AcDbPoint
 10
8507.060670480754
 20
-1722.50815924178
 30
0.0
  0
POINT
  5
214
330
20A
100
AcDbEntity
  8
DEFPOINTS
 62
     0
100
AcDbPoint
 10
8519.060670480754
 20
-1714.50815924178
 30
0.0
  0
POINT
  5
215
330
20A
100
AcDbEntity
  8
DEFPOINTS
 62
     0
100
AcDbPoint
 10
8484.669574729622
 20
-1714.50815924178
 30
0.0
  0
ENDBLK
  5
217
330
20A
100
AcDbEntity
  8
0
100
AcDbBlockEnd
  0
BLOCK
  5
19A
330
190
100
AcDbEntity
  8
0
100
AcDbBlockBegin
  2
*D27
 70
     1
 10
0.0
 20
0.0
 30
0.0
  3
*D27
  1

  0
LINE
  5
191
330
190
100
AcDbEntity
  8
DIM
 62
   123
100
AcDbLine
 10
8502.162531679527
 20
-1718.50815924178
 30
0.0
 11
8475.159488903615
 21
-1718.50815924178
 31
0.0
  0
LINE
  5
192
330
190
100
AcDbEntity
  8
DIM
 62
   123
100
AcDbLine
 10
8503.335928462075
 20
-1728.50815924178
 30
0.0
 11
8475.159488903615
 21
-1728.50815924178
 31
0.0
  0
LINE
  5
193
330
190
100
AcDbEntity
  8
DIM
 62
   123
100
AcDbLine
 10
8475.759488903616
 20
-1721.00815924178
 30
0.0
 11
8475.759488903616
 21
-1726.00815924178
 31
0.0
  0
SOLID
  5
194
330
190
100
AcDbEntity
  8
DIM
 62
   123
100
AcDbTrace
 10
8475.34282223695
 20
-1721.00815924178
 30
0.0
 11
8476.176155570282
 21
-1721.00815924178
 31
0.0
 12
8475.759488903616
 22
-1718.50815924178
 32
0.0
 13
8475.759488903616
 23
-1718.50815924178
 33
0.0
  0
SOLID
  5
195
330
190
100
AcDbEntity
  8
DIM
 62
   123
100
AcDbTrace
 10
8475.34282223695
 20
-1726.00815924178
 30
0.0
 11
8476.176155570282
 21
-1726.00815924178
 31
0.0
 12
8475.759488903616
 22
-1728.50815924178
 32
0.0
 13
8475.759488903616
 23
-1728.50815924178
 33
0.0
  0
MTEXT
  5
196
330
190
100
AcDbEntity
  8
DIM
 62
     3
100
AcDbMText
 10
8473.259488903613
 20
-1723.508159241781
 30
0.0
 40
3.0
 41
0.0
 71
     5
 72
     1
  1
\A1;10
 11
0.0000000000000001
 21
1.0
 31
0.0
1001
ACAD
1000
MTEXTBEGIN
1070
    73
1070
     1
1070
    44
1040
1.0
1070
    74
1070
     0
1000
MTEXTEND
  0
POINT
  5
197
330
190
100
AcDbEntity
  8
DEFPOINTS
 62
     0
100
AcDbPoint
 10
8503.162531679526
 20
-1718.50815924178
 30
0.0
  0
POINT
  5
198
330
190
100
AcDbEntity
  8
DEFPOINTS
 62
     0
100
AcDbPoint
 10
8504.335928462074
 20
-1728.50815924178
 30
0.0
  0
POINT
  5
199
330
190
100
AcDbEntity
  8
DEFPOINTS
 62
     0
100
AcDbPoint
 10
8475.759488903616
 20
-1728.50815924178
 30
0.0
  0
ENDBLK
  5
19B
330
190
100
AcDbEntity
  8
0
100
AcDbBlockEnd
  0
BLOCK
  5
1E4
330
1D8
100
AcDbEntity
  8
0
100
AcDbBlockBegin
  2
*D28
 70
     1
 10
0.0
 20
0.0
 30
0.0
  3
*D28
  1

  0
LINE
  5
1D9
330
1D8
100
AcDbEntity
  8
0
 62
   123
100
AcDbLine
 10
8536.060670480754
 20
-1706.008159241781
 30
0.0
 11
8536.060670480754
 21
-1687.657555232996
 31
0.0
  0
LINE
  5
1DA
330
1D8
100
AcDbEntity
  8
0
 62
   123
100
AcDbLine
 10
8539.060670480754
 20
-1698.008159241781
 30
0.0
 11
8539.060670480754
 21
-1687.657555232996
 31
0.0
  0
LINE
  5
1DB
330
1D8
100
AcDbEntity
  8
0
 62
   123
100
AcDbLine
 10
8541.560670480754
 20
-1688.257555232996
 30
0.0
 11
8544.060670480755
 21
-1688.257555232996
 31
0.0
  0
LINE
  5
1DC
330
1D8
100
AcDbEntity
  8
0
 62
   123
100
AcDbLine
 10
8533.560670480754
 20
-1688.257555232996
 30
0.0
 11
8527.060670480755
 21
-1688.257555232996
 31
0.0
  0
LINE
  5
1DD
330
1D8
100
AcDbEntity
  8
0
 62
   123
100
AcDbLine
 10
8539.060670480754
 20
-1688.257555232996
 30
0.0
 11
8536.060670480754
 21
-1688.257555232996
 31
0.0
  0
SOLID
  5
1DE
330
1D8
100
AcDbEntity
  8
0
 62
   123
100
AcDbTrace
 10
8541.560670480754
 20
-1687.840888566329
 30
0.0
 11
8541.560670480754
 21
-1688.674221899663
 31
0.0
 12
8539.060670480754
 22
-1688.257555232996
 32
0.0
 13
8539.060670480754
 23
-1688.257555232996
 33
0.0
  0
SOLID
  5
1DF
330
1D8
100
AcDbEntity
  8
0
 62
   123
100
AcDbTrace
 10
8533.560670480754
 20
-1687.840888566329
 30
0.0
 11
8533.560670480754
 21
-1688.674221899663
 31
0.0
 12
8536.060670480754
 22
-1688.257555232996
 32
0.0
 13
8536.060670480754
 23
-1688.257555232996
 33
0.0
  0
MTEXT
  5
1E0
330
1D8
100
AcDbEntity
  8
0
 62
     3
100
AcDbMText
 10
8529.060670480754
 20
-1685.757555232996
 30
0.0
 40
3.0
 41
0.0
 71
     5
 72
     1
  1
\A1;3
1001
ACAD
1000
MTEXTBEGIN
1070
    73
1070
     1
1070
    44
1040
1.0
1070
    74
1070
     0
1000
MTEXTEND
  0
POINT
  5
1E1
330
1D8
100
AcDbEntity
  8
DEFPOINTS
 62
     0
100
AcDbPoint
 10
8536.060670480754
 20
-1707.008159241781
 30
0.0
  0
POINT
  5
1E2
330
1D8
100
AcDbEntity
  8
DEFPOINTS
 62
     0
100
AcDbPoint
 10
8539.060670480754
 20
-1699.00815924178
 30
0.0
  0
POINT
  5
1E3
330
1D8
100
AcDbEntity
  8
DEFPOINTS
 62
     0
100
AcDbPoint
 10
8539.060670480754
 20
-1688.257555232996
 30
0.0
  0
ENDBLK
  5
1E5
330
1D8
100
AcDbEntity
  8
0
100
AcDbBlockEnd
  0
BLOCK
  5
36B
330
361
100
AcDbEntity
  8
0
100
AcDbBlockBegin
  2
*D29
 70
     1
 10
0.0
 20
0.0
 30
0.0
  3
*D29
  1

  0
LINE
  5
362
330
361
100
AcDbEntity
  8
DIM
 62
   123
100
AcDbLine
 10
67.54535742152075
 20
405.4418457550132
 30
0.0
 11
67.54535742152075
 21
422.6929435493185
 31
0.0
  0
LINE
  5
363
330
361
100
AcDbEntity
  8
DIM
 62
   123
100
AcDbLine
 10
127.5453574215225
 20
404.4418457550132
 30
0.0
 11
127.5453574215225
 21
422.6929435493185
 31
0.0
  0
LINE
  5
364
330
361
100
AcDbEntity
  8
DIM
 62
   123
100
AcDbLine
 10
70.04535742152075
 20
422.0929435493185
 30
0.0
 11
125.0453574215225
 21
422.0929435493185
 31
0.0
  0
SOLID
  5
365
330
361
100
AcDbEntity
  8
DIM
 62
   123
100
AcDbTrace
 10
70.04535742152075
 20
422.5096102159851
 30
0.0
 11
70.04535742152075
 21
421.6762768826518
 31
0.0
 12
67.54535742152075
 22
422.0929435493185
 32
0.0
 13
67.54535742152075
 23
422.0929435493185
 33
0.0
  0
SOLID
  5
366
330
361
100
AcDbEntity
  8
DIM
 62
   123
100
AcDbTrace
 10
125.0453574215225
 20
422.5096102159851
 30
0.0
 11
125.0453574215225
 21
421.6762768826518
 31
0.0
 12
127.5453574215225
 22
422.0929435493185
 32
0.0
 13
127.5453574215225
 23
422.0929435493185
 33
0.0
  0
MTEXT
  5
367
330
361
100
AcDbEntity
  8
DIM
 62
     3
100
AcDbMText
 10
97.21461866185928
 20
424.5929435493185
 30
0.0
 40
3.0
 41
0.0
 71
     5
 72
     1
  1
\A1;60
1001
ACAD
1000
MTEXTBEGIN
1070
    73
1070
     1
1070
    44
1040
1.0
1070
    74
1070
     0
1000
MTEXTEND
  0
POINT
  5
368
330
361
100
AcDbEntity
  8
DEFPOINTS
 62
     0
100
AcDbPoint
 10
67.54535742152075
 20
404.4418457550132
 30
0.0
  0
POINT
  5
369
330
361
100
AcDbEntity
  8
DEFPOINTS
 62
     0
100
AcDbPoint
 10
127.5453574215225
 20
403.4418457550132
 30
0.0
  0
POINT
  5
36A
330
361
100
AcDbEntity
  8
DEFPOINTS
 62
     0
100
AcDbPoint
 10
127.5453574215225
 20
422.0929435493185
 30
0.0
  0
ENDBLK
  5
36C
330
361
100
AcDbEntity
  8
0
100
AcDbBlockEnd
  0
BLOCK
  5
377
330
36D
100
AcDbEntity
  8
0
100
AcDbBlockBegin
  2
*D30
 70
     1
 10
0.0
 20
0.0
 30
0.0
  3
*D30
  1

  0
LINE
  5
36E
330
36D
100
AcDbEntity
  8
DIM
 62
   123
100
AcDbLine
 10
170.5406710479492
 20
381.7618457550133
 30
0.0
 11
170.5406710479492
 21
428.9230223581642
 31
0.0
  0
LINE
  5
36F
330
36D
100
AcDbEntity
  8
DIM
 62
   123
100
AcDbLine
 10
183.0413804850468
 20
409.4418457550132
 30
0.0
 11
183.0413804850468
 21
428.9230223581642
 31
0.0
  0
LINE
  5
370
330
36D
100
AcDbEntity
  8
DIM
 62
   123
100
AcDbLine
 10
173.0406710479492
 20
428.3230223581642
 30
0.0
 11
180.5413804850468
 21
428.3230223581642
 31
0.0
  0
SOLID
  5
371
330
36D
100
AcDbEntity
  8
DIM
 62
   123
100
AcDbTrace
 10
173.0406710479492
 20
428.7396890248309
 30
0.0
 11
173.0406710479492
 21
427.9063556914976
 31
0.0
 12
170.5406710479492
 22
428.3230223581642
 32
0.0
 13
170.5406710479492
 23
428.3230223581642
 33
0.0
  0
SOLID
  5
372
330
36D
100
AcDbEntity
  8
DIM
 62
   123
100
AcDbTrace
 10
180.5413804850468
 20
428.7396890248309
 30
0.0
 11
180.5413804850468
 21
427.9063556914976
 31
0.0
 12
183.0413804850468
 22
428.3230223581642
 32
0.0
 13
183.0413804850468
 23
428.3230223581642
 33
0.0
  0
MTEXT
  5
373
330
36D
100
AcDbEntity
  8
DIM
 62
     3
100
AcDbMText
 10
175.8456662867029
 20
430.8230223581642
 30
0.0
 40
3.0
 41
0.0
 71
     5
 72
     1
  1
\A1;12.5
1001
ACAD
1000
MTEXTBEGIN
1070
    73
1070
     1
1070
    44
1040
1.0
1070
    74
1070
     0
1000
MTEXTEND
  0
POINT
  5
374
330
36D
100
AcDbEntity
  8
DEFPOINTS
 62
     0
100
AcDbPoint
 10
170.5406710479492
 20
380.7618457550134
 30
0.0
  0
POINT
  5
375
330
36D
100
AcDbEntity
  8
DEFPOINTS
 62
     0
100
AcDbPoint
 10
183.0413804850468
 20
408.4418457550132
 30
0.0
  0
POINT
  5
376
330
36D
100
AcDbEntity
  8
DEFPOINTS
 62
     0
100
AcDbPoint
 10
183.0413804850468
 20
428.3230223581642
 30
0.0
  0
ENDBLK
  5
378
330
36D
100
AcDbEntity
  8
0
100
AcDbBlockEnd
  0
BLOCK
  5
383
330
379
100
AcDbEntity
  8
0
100
AcDbBlockBegin
  2
*D31
 70
     1
 10
0.0
 20
0.0
 30
0.0
  3
*D31
  1

  0
LINE
  5
37A
330
379
100
AcDbEntity
  8
DIM
 62
   123
100
AcDbLine
 10
183.0413804850468
 20
409.4418457550132
 30
0.0
 11
183.0413804850468
 21
428.9230223581642
 31
0.0
  0
LINE
  5
37B
330
379
100
AcDbEntity
  8
DIM
 62
   123
100
AcDbLine
 10
209.0413804850468
 20
409.4418457550132
 30
0.0
 11
209.0413804850468
 21
428.9230223581642
 31
0.0
  0
LINE
  5
37C
330
379
100
AcDbEntity
  8
DIM
 62
   123
100
AcDbLine
 10
185.5413804850468
 20
428.3230223581642
 30
0.0
 11
206.5413804850468
 21
428.3230223581642
 31
0.0
  0
SOLID
  5
37D
330
379
100
AcDbEntity
  8
DIM
 62
   123
100
AcDbTrace
 10
185.5413804850468
 20
428.7396890248309
 30
0.0
 11
185.5413804850468
 21
427.9063556914976
 31
0.0
 12
183.0413804850468
 22
428.3230223581642
 32
0.0
 13
183.0413804850468
 23
428.3230223581642
 33
0.0
  0
SOLID
  5
37E
330
379
100
AcDbEntity
  8
DIM
 62
   123
100
AcDbTrace
 10
206.5413804850468
 20
428.7396890248309
 30
0.0
 11
206.5413804850468
 21
427.9063556914976
 31
0.0
 12
209.0413804850468
 22
428.3230223581642
 32
0.0
 13
209.0413804850468
 23
428.3230223581642
 33
0.0
  0
MTEXT
  5
37F
330
379
100
AcDbEntity
  8
DIM
 62
     3
100
AcDbMText
 10
195.0956662867029
 20
430.8230223581642
 30
0.0
 40
3.0
 41
0.0
 71
     5
 72
     1
  1
\A1;26
1001
ACAD
1000
MTEXTBEGIN
1070
    73
1070
     1
1070
    44
1040
1.0
1070
    74
1070
     0
1000
MTEXTEND
  0
POINT
  5
380
330
379
100
AcDbEntity
  8
DEFPOINTS
 62
     0
100
AcDbPoint
 10
183.0413804850468
 20
408.4418457550132
 30
0.0
  0
POINT
  5
381
330
379
100
AcDbEntity
  8
DEFPOINTS
 62
     0
100
AcDbPoint
 10
209.0413804850468
 20
408.4418457550132
 30
0.0
  0
POINT
  5
382
330
379
100
AcDbEntity
  8
DEFPOINTS
 62
     0
100
AcDbPoint
 10
209.0413804850468
 20
428.3230223581642
 30
0.0
  0
ENDBLK
  5
384
330
379
100
AcDbEntity
  8
0
100
AcDbBlockEnd
  0
BLOCK
  5
38F
330
385
100
AcDbEntity
  8
0
100
AcDbBlockBegin
  2
*D32
 70
     1
 10
0.0
 20
0.0
 30
0.0
  3
*D32
  1

  0
LINE
  5
386
330
385
100
AcDbEntity
  8
0
 62
   123
100
AcDbLine
 10
291.4389902733619
 20
119.5778826572334
 30
0.0
 11
307.6645522495287
 21
119.5778826572334
 31
0.0
  0
LINE
  5
387
330
385
100
AcDbEntity
  8
0
 62
   123
100
AcDbLine
 10
291.4389902733619
 20
59.57788265723229
 30
0.0
 11
307.6645522495287
 21
59.57788265723229
 31
0.0
  0
LINE
  5
388
330
385
100
AcDbEntity
  8
0
 62
   123
100
AcDbLine
 10
307.0645522495287
 20
117.0778826572334
 30
0.0
 11
307.0645522495287
 21
62.07788265723229
 31
0.0
  0
SOLID
  5
389
330
385
100
AcDbEntity
  8
0
 62
   123
100
AcDbTrace
 10
306.647885582862
 20
117.0778826572334
 30
0.0
 11
307.4812189161954
 21
117.0778826572334
 31
0.0
 12
307.0645522495287
 22
119.5778826572334
 32
0.0
 13
307.0645522495287
 23
119.5778826572334
 33
0.0
  0
SOLID
  5
38A
330
385
100
AcDbEntity
  8
0
 62
   123
100
AcDbTrace
 10
306.647885582862
 20
62.07788265723229
 30
0.0
 11
307.4812189161954
 21
62.07788265723229
 31
0.0
 12
307.0645522495287
 22
59.57788265723229
 32
0.0
 13
307.0645522495287
 23
59.57788265723229
 33
0.0
  0
MTEXT
  5
38B
330
385
100
AcDbEntity
  8
0
 62
     3
100
AcDbMText
 10
304.5645522495287
 20
89.57788265723229
 30
0.0
 40
3.0
 41
0.0
 71
     5
 72
     1
  1
\A1;%%C60
 11
0.0000000000000001
 21
1.0
 31
0.0
1001
ACAD
1000
MTEXTBEGIN
1070
    73
1070
     1
1070
    44
1040
1.0
1070
    74
1070
     0
1000
MTEXTEND
  0
POINT
  5
38C
330
385
100
AcDbEntity
  8
DEFPOINTS
 62
     0
100
AcDbPoint
 10
290.4389902733619
 20
119.5778826572334
 30
0.0
  0
POINT
  5
38D
330
385
100
AcDbEntity
  8
DEFPOINTS
 62
     0
100
AcDbPoint
 10
290.4389902733619
 20
59.57788265723229
 30
0.0
  0
POINT
  5
38E
330
385
100
AcDbEntity
  8
DEFPOINTS
 62
     0
100
AcDbPoint
 10
307.0645522495287
 20
59.57788265723229
 30
0.0
  0
ENDBLK
  5
390
330
385
100
AcDbEntity
  8
0
100
AcDbBlockEnd
  0
BLOCK
  5
39D
330
391
100
AcDbEntity
  8
0
100
AcDbBlockBegin
  2
*D33
 70
     1
 10
0.0
 20
0.0
 30
0.0
  3
*D33
  1

  0
LINE
  5
507
330
391
100
AcDbEntity
  8
0
 62
   123
100
AcDbLine
 10
14.95552762596889
 20
53.57788265723229
 30
0.0
 11
14.95552762596888
 21
37.05902381689055
 31
0.0
  0
LINE
  5
508
330
391
100
AcDbEntity
  8
0
 62
   123
100
AcDbLine
 10
28.63161967649887
 20
56.5608757485921
 30
0.0
 11
35.05362479089288
 21
41.05678390379175
 31
0.0
  0
ARC
  5
509
330
391
100
AcDbEntity
  8
0
 62
   123
100
AcDbCircle
 10
14.95552762596889
 20
89.5778826572466
 30
0.0
 40
51.91885884035605
100
AcDbArc
 50
272.7591764118516
 51
289.740823588147
  0
SOLID
  5
50A
330
391
100
AcDbEntity
  8
0
 62
   123
100
AcDbTrace
 10
17.46483463105871
 20
37.30266800408791
 30
0.0
 11
17.44477127277363
 21
38.13575977940368
 31
0.0
 12
14.95552762596888
 22
37.65902381689055
 32
0.0
 13
14.95552762596888
 23
37.65902381689055
 33
0.0
  0
SOLID
  5
50B
330
391
100
AcDbEntity
  8
0
 62
   123
100
AcDbTrace
 10
32.34181452029077
 20
41.09896591872429
 30
0.0
 11
32.64208881427069
 21
40.32161156399325
 31
0.0
 12
34.82401473147384
 22
41.61111162329851
 32
0.0
 13
34.82401473147384
 23
41.61111162329851
 33
0.0
  0
MTEXT
  5
50C
330
391
100
AcDbEntity
  8
0
 62
     3
100
AcDbMText
 10
24.54092861879838
 20
41.38881769812972
 30
0.0
 40
3.0
 41
0.0
 71
     5
 72
     1
  1
\A1;22°30'
 11
0.9807852804032325
 21
0.1950903220161171
 31
0.0
  0
POINT
  5
50D
330
391
100
AcDbEntity
  8
DEFPOINTS
 62
     0
100
AcDbPoint
 10
21.73229857481055
 20
38.10319685158331
 30
0.0
  0
POINT
  5
50E
330
391
100
AcDbEntity
  8
DEFPOINTS
 62
     0
100
AcDbPoint
 10
14.95552762596889
 20
54.57788265723229
 30
0.0
  0
POINT
  5
50F
330
391
100
AcDbEntity
  8
DEFPOINTS
 62
     0
100
AcDbPoint
 10
14.95552762597435
 20
89.57788265723342
 30
0.0
  0
POINT
  5
510
330
391
100
AcDbEntity
  8
DEFPOINTS
 62
     0
100
AcDbPoint
 10
28.2489362441338
 20
57.48475528110339
 30
0.0
  0
POINT
  5
511
330
391
100
AcDbEntity
  8
DEFPOINTS
 62
     0
100
AcDbPoint
 10
14.95552762596889
 20
124.5778826572322
 30
0.0
  0
ENDBLK
  5
39E
330
391
100
AcDbEntity
  8
0
100
AcDbBlockEnd
  0
BLOCK
  5
3A8
330
39F
100
AcDbEntity
  8
0
100
AcDbBlockBegin
  2
*D34
 70
     1
 10
0.0
 20
0.0
 30
0.0
  3
*D34
  1

  0
LINE
  5
4DB
330
39F
100
AcDbEntity
  8
0
 62
   123
100
AcDbLine
 10
-16.51869358806712
 20
69.19103888559206
 30
0.0
 11
-18.61697500233664
 21
67.83191596748235
 31
0.0
  0
LINE
  5
4DC
330
39F
100
AcDbEntity
  8
0
 62
   123
100
AcDbLine
 10
46.42974884001175
 20
109.9647264288792
 30
0.0
 11
67.8014418284325
 21
123.8078446788111
 31
0.0
  0
LINE
  5
4DD
330
39F
100
AcDbEntity
  8
0
 62
   123
100
AcDbLine
 10
-14.42041217379759
 20
70.55016180370178
 30
0.0
 11
44.33146742574223
 21
108.6056035107695
 31
0.0
  0
SOLID
  5
4DE
330
39F
100
AcDbEntity
  8
0
 62
   123
100
AcDbTrace
 10
-16.74521407441874
 20
69.54075245463698
 30
0.0
 11
-16.29217310171549
 21
68.84132531654714
 31
0.0
 12
-14.42041217379759
 22
70.55016180370178
 32
0.0
 13
-14.42041217379759
 23
70.55016180370178
 33
0.0
  0
SOLID
  5
4DF
330
39F
100
AcDbEntity
  8
0
 62
   123
100
AcDbTrace
 10
46.20322835366013
 20
110.3144399979241
 30
0.0
 11
46.65626932636338
 21
109.6150128598343
 31
0.0
 12
44.33146742574223
 22
108.6056035107695
 32
0.0
 13
44.33146742574223
 23
108.6056035107695
 33
0.0
  0
MTEXT
  5
4E0
330
39F
100
AcDbEntity
  8
0
 62
     3
100
AcDbMText
 10
57.869340560593
 20
120.3531381705181
 30
0.0
 40
3.0
 41
0.0
 71
     5
 72
     1
  1
\A1;\U+220570%%p0.5
 11
0.8393125657078099
 21
0.5436491672438883
 31
0.0
1001
ACAD
1000
MTEXTBEGIN
1070
    73
1070
     1
1070
    44
1040
1.0
1070
    74
1070
     0
1000
MTEXTEND
  0
POINT
  5
4E1
330
39F
100
AcDbEntity
  8
DEFPOINTS
 62
     0
100
AcDbPoint
 10
44.33146742574223
 20
108.6056035107695
 30
0.0
  0
POINT
  5
4E2
330
39F
100
AcDbEntity
  8
DEFPOINTS
 62
     0
100
AcDbPoint
 10
-14.42041217379759
 20
70.55016180370178
 30
0.0
  0
ENDBLK
  5
3A9
330
39F
100
AcDbEntity
  8
0
100
AcDbBlockEnd
  0
BLOCK
  5
3B4
330
3AA
100
AcDbEntity
  8
0
100
AcDbBlockBegin
  2
*D35
 70
     1
 10
0.0
 20
0.0
 30
0.0
  3
*D35
  1

  0
LINE
  5
3AB
330
3AA
100
AcDbEntity
  8
0
 62
   123
100
AcDbLine
 10
58.72686109627466
 20
251.6591419456694
 30
0.0
 11
58.72686109627466
 21
234.0308210252843
 31
0.0
  0
LINE
  5
3AC
330
3AA
100
AcDbEntity
  8
0
 62
   123
100
AcDbLine
 10
118.7268610962746
 20
251.6591419456694
 30
0.0
 11
118.7268610962746
 21
234.0308210252843
 31
0.0
  0
LINE
  5
3AD
330
3AA
100
AcDbEntity
  8
0
 62
   123
100
AcDbLine
 10
61.22686109627466
 20
234.6308210252843
 30
0.0
 11
116.2268610962746
 21
234.6308210252843
 31
0.0
  0
SOLID
  5
3AE
330
3AA
100
AcDbEntity
  8
0
 62
   123
100
AcDbTrace
 10
61.22686109627466
 20
235.047487691951
 30
0.0
 11
61.22686109627466
 21
234.2141543586177
 31
0.0
 12
58.72686109627466
 22
234.6308210252843
 32
0.0
 13
58.72686109627466
 23
234.6308210252843
 33
0.0
  0
SOLID
  5
3AF
330
3AA
100
AcDbEntity
  8
0
 62
   123
100
AcDbTrace
 10
116.2268610962746
 20
235.047487691951
 30
0.0
 11
116.2268610962746
 21
234.2141543586177
 31
0.0
 12
118.7268610962746
 22
234.6308210252843
 32
0.0
 13
118.7268610962746
 23
234.6308210252843
 33
0.0
  0
MTEXT
  5
3B0
330
3AA
100
AcDbEntity
  8
0
 62
     3
100
AcDbMText
 10
90.77160752511735
 20
237.1308210252843
 30
0.0
 40
3.0
 41
0.0
 71
     5
 72
     1
  1
\A1;60
1001
ACAD
1000
MTEXTBEGIN
1070
    73
1070
     1
1070
    44
1040
1.0
1070
    74
1070
     0
1000
MTEXTEND
  0
POINT
  5
3B1
330
3AA
100
AcDbEntity
  8
DEFPOINTS
 62
     0
100
AcDbPoint
 10
58.72686109627466
 20
252.6591419456694
 30
0.0
  0
POINT
  5
3B2
330
3AA
100
AcDbEntity
  8
DEFPOINTS
 62
     0
100
AcDbPoint
 10
118.7268610962746
 20
252.6591419456694
 30
0.0
  0
POINT
  5
3B3
330
3AA
100
AcDbEntity
  8
DEFPOINTS
 62
     0
100
AcDbPoint
 10
118.7268610962746
 20
234.6308210252843
 30
0.0
  0
ENDBLK
  5
3B5
330
3AA
100
AcDbEntity
  8
0
100
AcDbBlockEnd
  0
BLOCK
  5
3C0
330
3B6
100
AcDbEntity
  8
0
100
AcDbBlockBegin
  2
*D36
 70
     1
 10
0.0
 20
0.0
 30
0.0
  3
*D36
  1

  0
LINE
  5
3B7
330
3B6
100
AcDbEntity
  8
0
 62
   123
100
AcDbLine
 10
183.8284242656736
 20
282.6591419456694
 30
0.0
 11
183.8284242656736
 21
234.2631275640443
 31
0.0
  0
LINE
  5
3B8
330
3B6
100
AcDbEntity
  8
0
 62
   123
100
AcDbLine
 10
215.8284242656737
 20
247.1591419456694
 30
0.0
 11
215.8284242656737
 21
234.2631275640443
 31
0.0
  0
LINE
  5
3B9
330
3B6
100
AcDbEntity
  8
0
 62
   123
100
AcDbLine
 10
186.3284242656736
 20
234.8631275640443
 30
0.0
 11
213.3284242656736
 21
234.8631275640443
 31
0.0
  0
SOLID
  5
3BA
330
3B6
100
AcDbEntity
  8
0
 62
   123
100
AcDbTrace
 10
186.3284242656736
 20
235.279794230711
 30
0.0
 11
186.3284242656736
 21
234.4464608973777
 31
0.0
 12
183.8284242656736
 22
234.8631275640443
 32
0.0
 13
183.8284242656736
 23
234.8631275640443
 33
0.0
  0
SOLID
  5
3BB
330
3B6
100
AcDbEntity
  8
0
 62
   123
100
AcDbTrace
 10
213.3284242656736
 20
235.279794230711
 30
0.0
 11
213.3284242656736
 21
234.4464608973777
 31
0.0
 12
215.8284242656737
 22
234.8631275640443
 32
0.0
 13
215.8284242656737
 23
234.8631275640443
 33
0.0
  0
MTEXT
  5
3BC
330
3B6
100
AcDbEntity
  8
0
 62
     3
100
AcDbMText
 10
199.8284242656736
 20
237.3631275640443
 30
0.0
 40
3.0
 41
0.0
 71
     5
 72
     1
  1
\A1;32
1001
ACAD
1000
MTEXTBEGIN
1070
    73
1070
     1
1070
    44
1040
1.0
1070
    74
1070
     0
1000
MTEXTEND
  0
POINT
  5
3BD
330
3B6
100
AcDbEntity
  8
DEFPOINTS
 62
     0
100
AcDbPoint
 10
183.8284242656736
 20
283.6591419456695
 30
0.0
  0
POINT
  5
3BE
330
3B6
100
AcDbEntity
  8
DEFPOINTS
 62
     0
100
AcDbPoint
 10
215.8284242656737
 20
248.1591419456695
 30
0.0
  0
POINT
  5
3BF
330
3B6
100
AcDbEntity
  8
DEFPOINTS
 62
     0
100
AcDbPoint
 10
215.8284242656737
 20
234.8631275640443
 30
0.0
  0
ENDBLK
  5
3C1
330
3B6
100
AcDbEntity
  8
0
100
AcDbBlockEnd
  0
BLOCK
  5
3CC
330
3C2
100
AcDbEntity
  8
0
100
AcDbBlockBegin
  2
*D37
 70
     1
 10
0.0
 20
0.0
 30
0.0
  3
*D37
  1

  0
LINE
  5
3C3
330
3C2
100
AcDbEntity
  8
0
 62
   123
100
AcDbLine
 10
176.4389902733637
 20
120.5778826572334
 30
0.0
 11
176.4389902733637
 21
142.9996455486253
 31
0.0
  0
LINE
  5
3C4
330
3C2
100
AcDbEntity
  8
0
 62
   123
100
AcDbLine
 10
291.4389902733637
 20
119.5778826572334
 30
0.0
 11
291.4389902733637
 21
142.9996455486253
 31
0.0
  0
LINE
  5
3C5
330
3C2
100
AcDbEntity
  8
0
 62
   123
100
AcDbLine
 10
178.9389902733637
 20
142.3996455486253
 30
0.0
 11
288.9389902733637
 21
142.3996455486253
 31
0.0
  0
SOLID
  5
3C6
330
3C2
100
AcDbEntity
  8
0
 62
   123
100
AcDbTrace
 10
178.9389902733637
 20
142.816312215292
 30
0.0
 11
178.9389902733637
 21
141.9829788819586
 31
0.0
 12
176.4389902733637
 22
142.3996455486253
 32
0.0
 13
176.4389902733637
 23
142.3996455486253
 33
0.0
  0
SOLID
  5
3C7
330
3C2
100
AcDbEntity
  8
0
 62
   123
100
AcDbTrace
 10
288.9389902733637
 20
142.816312215292
 30
0.0
 11
288.9389902733637
 21
141.9829788819586
 31
0.0
 12
291.4389902733637
 22
142.3996455486253
 32
0.0
 13
291.4389902733637
 23
142.3996455486253
 33
0.0
  0
MTEXT
  5
3C8
330
3C2
100
AcDbEntity
  8
0
 62
     3
100
AcDbMText
 10
233.4253158323081
 20
144.8996455486253
 30
0.0
 40
3.0
 41
0.0
 71
     5
 72
     1
  1
\A1;115
1001
ACAD
1000
MTEXTBEGIN
1070
    73
1070
     1
1070
    44
1040
1.0
1070
    74
1070
     0
1000
MTEXTEND
  0
POINT
  5
3C9
330
3C2
100
AcDbEntity
  8
DEFPOINTS
 62
     0
100
AcDbPoint
 10
176.4389902733637
 20
119.5778826572334
 30
0.0
  0
POINT
  5
3CA
330
3C2
100
AcDbEntity
  8
DEFPOINTS
 62
     0
100
AcDbPoint
 10
291.4389902733637
 20
118.5778826572334
 30
0.0
  0
POINT
  5
3CB
330
3C2
100
AcDbEntity
  8
DEFPOINTS
 62
     0
100
AcDbPoint
 10
291.4389902733637
 20
142.3996455486253
 30
0.0
  0
ENDBLK
  5
3CD
330
3C2
100
AcDbEntity
  8
0
100
AcDbBlockEnd
  0
BLOCK
  5
3D8
330
3CE
100
AcDbEntity
  8
0
100
AcDbBlockBegin
  2
*D38
 70
     1
 10
0.0
 20
0.0
 30
0.0
  3
*D38
  1

  0
LINE
  5
3CF
330
3CE
100
AcDbEntity
  8
0
 62
   123
100
AcDbLine
 10
255.8284242656755
 20
247.1591419456694
 30
0.0
 11
255.8284242656755
 21
234.2631275640443
 31
0.0
  0
LINE
  5
3D0
330
3CE
100
AcDbEntity
  8
0
 62
   123
100
AcDbLine
 10
215.8284242656737
 20
247.1591419456694
 30
0.0
 11
215.8284242656737
 21
234.2631275640443
 31
0.0
  0
LINE
  5
3D1
330
3CE
100
AcDbEntity
  8
0
 62
   123
100
AcDbLine
 10
253.3284242656754
 20
234.8631275640443
 30
0.0
 11
218.3284242656736
 21
234.8631275640443
 31
0.0
  0
SOLID
  5
3D2
330
3CE
100
AcDbEntity
  8
0
 62
   123
100
AcDbTrace
 10
253.3284242656754
 20
235.279794230711
 30
0.0
 11
253.3284242656754
 21
234.4464608973777
 31
0.0
 12
255.8284242656755
 22
234.8631275640443
 32
0.0
 13
255.8284242656755
 23
234.8631275640443
 33
0.0
  0
SOLID
  5
3D3
330
3CE
100
AcDbEntity
  8
0
 62
   123
100
AcDbTrace
 10
218.3284242656736
 20
235.279794230711
 30
0.0
 11
218.3284242656736
 21
234.4464608973777
 31
0.0
 12
215.8284242656737
 22
234.8631275640443
 32
0.0
 13
215.8284242656737
 23
234.8631275640443
 33
0.0
  0
MTEXT
  5
3D4
330
3CE
100
AcDbEntity
  8
0
 62
     3
100
AcDbMText
 10
235.8284242656746
 20
237.3631275640443
 30
0.0
 40
3.0
 41
0.0
 71
     5
 72
     1
  1
\A1;L
1001
ACAD
1000
MTEXTBEGIN
1070
    73
1070
     1
1070
    44
1040
1.0
1070
    74
1070
     0
1000
MTEXTEND
  0
POINT
  5
3D5
330
3CE
100
AcDbEntity
  8
DEFPOINTS
 62
     0
100
AcDbPoint
 10
255.8284242656755
 20
248.1591419456695
 30
0.0
  0
POINT
  5
3D6
330
3CE
100
AcDbEntity
  8
DEFPOINTS
 62
     0
100
AcDbPoint
 10
215.8284242656737
 20
248.1591419456695
 30
0.0
  0
POINT
  5
3D7
330
3CE
100
AcDbEntity
  8
DEFPOINTS
 62
     0
100
AcDbPoint
 10
215.8284242656737
 20
234.8631275640443
 30
0.0
  0
ENDBLK
  5
3D9
330
3CE
100
AcDbEntity
  8
0
100
AcDbBlockEnd
  0
BLOCK
  5
3E4
330
3DA
100
AcDbEntity
  8
0
100
AcDbBlockBegin
  2
*D39
 70
     1
 10
0.0
 20
0.0
 30
0.0
  3
*D39
  1

  0
LINE
  5
3DB
330
3DA
100
AcDbEntity
  8
0
 62
   123
100
AcDbLine
 10
104.4389902733637
 20
103.5778826572313
 30
0.0
 11
104.4389902733637
 21
117.2057195842933
 31
0.0
  0
LINE
  5
3DC
330
3DA
100
AcDbEntity
  8
0
 62
   123
100
AcDbLine
 10
116.4389902733637
 20
104.5778826572313
 30
0.0
 11
116.4389902733637
 21
117.2057195842933
 31
0.0
  0
LINE
  5
3DD
330
3DA
100
AcDbEntity
  8
0
 62
   123
100
AcDbLine
 10
106.9389902733637
 20
116.6057195842934
 30
0.0
 11
113.9389902733637
 21
116.6057195842934
 31
0.0
  0
SOLID
  5
3DE
330
3DA
100
AcDbEntity
  8
0
 62
   123
100
AcDbTrace
 10
106.9389902733637
 20
117.02238625096
 30
0.0
 11
106.9389902733637
 21
116.1890529176267
 31
0.0
 12
104.4389902733637
 22
116.6057195842934
 32
0.0
 13
104.4389902733637
 23
116.6057195842934
 33
0.0
  0
SOLID
  5
3DF
330
3DA
100
AcDbEntity
  8
0
 62
   123
100
AcDbTrace
 10
113.9389902733637
 20
117.02238625096
 30
0.0
 11
113.9389902733637
 21
116.1890529176267
 31
0.0
 12
116.4389902733637
 22
116.6057195842934
 32
0.0
 13
116.4389902733637
 23
116.6057195842934
 33
0.0
  0
MTEXT
  5
3E0
330
3DA
100
AcDbEntity
  8
0
 62
     3
100
AcDbMText
 10
110.4389902733637
 20
119.1057195842934
 30
0.0
 40
3.0
 41
0.0
 71
     5
 72
     1
  1
\A1;12
1001
ACAD
1000
MTEXTBEGIN
1070
    73
1070
     1
1070
    44
1040
1.0
1070
    74
1070
     0
1000
MTEXTEND
  0
POINT
  5
3E1
330
3DA
100
AcDbEntity
  8
DEFPOINTS
 62
     0
100
AcDbPoint
 10
104.4389902733637
 20
102.5778826572313
 30
0.0
  0
POINT
  5
3E2
330
3DA
100
AcDbEntity
  8
DEFPOINTS
 62
     0
100
AcDbPoint
 10
116.4389902733637
 20
103.5778826572313
 30
0.0
  0
POINT
  5
3E3
330
3DA
100
AcDbEntity
  8
DEFPOINTS
 62
     0
100
AcDbPoint
 10
116.4389902733637
 20
116.6057195842934
 30
0.0
  0
ENDBLK
  5
3E5
330
3DA
100
AcDbEntity
  8
0
100
AcDbBlockEnd
  0
BLOCK
  5
3F0
330
3E6
100
AcDbEntity
  8
0
100
AcDbBlockBegin
  2
*D40
 70
     1
 10
0.0
 20
0.0
 30
0.0
  3
*D40
  1

  0
LINE
  5
3E7
330
3E6
100
AcDbEntity
  8
0
 62
   123
100
AcDbLine
 10
104.4389902733637
 20
103.5778826572313
 30
0.0
 11
104.4389902733637
 21
142.9996455486244
 31
0.0
  0
LINE
  5
3E8
330
3E6
100
AcDbEntity
  8
0
 62
   123
100
AcDbLine
 10
136.4389902733637
 20
120.0778826572322
 30
0.0
 11
136.4389902733637
 21
142.9996455486244
 31
0.0
  0
LINE
  5
3E9
330
3E6
100
AcDbEntity
  8
0
 62
   123
100
AcDbLine
 10
106.9389902733637
 20
142.3996455486244
 30
0.0
 11
133.9389902733637
 21
142.3996455486244
 31
0.0
  0
SOLID
  5
3EA
330
3E6
100
AcDbEntity
  8
0
 62
   123
100
AcDbTrace
 10
106.9389902733637
 20
142.8163122152911
 30
0.0
 11
106.9389902733637
 21
141.9829788819577
 31
0.0
 12
104.4389902733637
 22
142.3996455486244
 32
0.0
 13
104.4389902733637
 23
142.3996455486244
 33
0.0
  0
SOLID
  5
3EB
330
3E6
100
AcDbEntity
  8
0
 62
   123
100
AcDbTrace
 10
133.9389902733637
 20
142.8163122152911
 30
0.0
 11
133.9389902733637
 21
141.9829788819577
 31
0.0
 12
136.4389902733637
 22
142.3996455486244
 32
0.0
 13
136.4389902733637
 23
142.3996455486244
 33
0.0
  0
MTEXT
  5
3EC
330
3E6
100
AcDbEntity
  8
0
 62
     3
100
AcDbMText
 10
119.9253158323081
 20
144.8996455486244
 30
0.0
 40
3.0
 41
0.0
 71
     5
 72
     1
  1
\A1;32
1001
ACAD
1000
MTEXTBEGIN
1070
    73
1070
     1
1070
    44
1040
1.0
1070
    74
1070
     0
1000
MTEXTEND
  0
POINT
  5
3ED
330
3E6
100
AcDbEntity
  8
DEFPOINTS
 62
     0
100
AcDbPoint
 10
104.4389902733637
 20
102.5778826572313
 30
0.0
  0
POINT
  5
3EE
330
3E6
100
AcDbEntity
  8
DEFPOINTS
 62
     0
100
AcDbPoint
 10
136.4389902733637
 20
119.0778826572322
 30
0.0
  0
POINT
  5
3EF
330
3E6
100
AcDbEntity
  8
DEFPOINTS
 62
     0
100
AcDbPoint
 10
136.4389902733637
 20
142.3996455486244
 30
0.0
  0
ENDBLK
  5
3F1
330
3E6
100
AcDbEntity
  8
0
100
AcDbBlockEnd
  0
BLOCK
  5
3FE
330
3F2
100
AcDbEntity
  8
0
100
AcDbBlockBegin
  2
*D41
 70
     1
 10
0.0
 20
0.0
 30
0.0
  3
*D41
  1

  0
LINE
  5
3F3
330
3F2
100
AcDbEntity
  8
DIM
 62
   123
100
AcDbLine
 10
103.4389902733637
 20
95.5778826572323
 30
0.0
 11
81.4478945222312
 21
95.5778826572323
 31
0.0
  0
LINE
  5
3F4
330
3F2
100
AcDbEntity
  8
DIM
 62
   123
100
AcDbLine
 10
115.4389902733637
 20
103.5778826572322
 30
0.0
 11
81.44789452223122
 21
103.5778826572323
 31
0.0
  0
LINE
  5
3F5
330
3F2
100
AcDbEntity
  8
DIM
 62
   123
100
AcDbLine
 10
82.04789452223122
 20
93.0778826572323
 30
0.0
 11
82.04789452223122
 21
90.5778826572323
 31
0.0
  0
LINE
  5
3F6
330
3F2
100
AcDbEntity
  8
DIM
 62
   123
100
AcDbLine
 10
82.04789452223122
 20
106.0778826572323
 30
0.0
 11
82.04789452223122
 21
143.2111169192135
 31
0.0
  0
LINE
  5
3F7
330
3F2
100
AcDbEntity
  8
DIM
 62
   123
100
AcDbLine
 10
82.04789452223122
 20
95.5778826572323
 30
0.0
 11
82.04789452223122
 21
103.5778826572323
 31
0.0
  0
SOLID
  5
3F8
330
3F2
100
AcDbEntity
  8
DIM
 62
   123
100
AcDbTrace
 10
81.63122785556454
 20
93.0778826572323
 30
0.0
 11
82.46456118889788
 21
93.0778826572323
 31
0.0
 12
82.04789452223122
 22
95.5778826572323
 32
0.0
 13
82.04789452223122
 23
95.5778826572323
 33
0.0
  0
SOLID
  5
3F9
330
3F2
100
AcDbEntity
  8
DIM
 62
   123
100
AcDbTrace
 10
81.63122785556456
 20
106.0778826572323
 30
0.0
 11
82.4645611888979
 21
106.0778826572323
 31
0.0
 12
82.04789452223122
 22
103.5778826572323
 32
0.0
 13
82.04789452223122
 23
103.5778826572323
 33
0.0
  0
MTEXT
  5
3FA
330
3F2
100
AcDbEntity
  8
DIM
 62
     3
100
AcDbMText
 10
78.09774452223122
 20
129.5384026334993
 30
0.0
 40
3.0
 41
0.0
 71
     5
 72
     1
  1
\A1;\A1;{\f??|b0|i0|c0|p49;%%C8\H0.7x;\S+0^ -0.015;\H1.429x;(h7)}
 11
0.0000000000000001
 21
1.0
 31
0.0
1001
ACAD
1000
MTEXTBEGIN
1070
    73
1070
     1
1070
    44
1040
1.0
1070
    74
1070
     0
1000
MTEXTEND
  0
POINT
  5
3FB
330
3F2
100
AcDbEntity
  8
DEFPOINTS
 62
     0
100
AcDbPoint
 10
104.4389902733637
 20
95.5778826572323
 30
0.0
  0
POINT
  5
3FC
330
3F2
100
AcDbEntity
  8
DEFPOINTS
 62
     0
100
AcDbPoint
 10
116.4389902733637
 20
103.5778826572322
 30
0.0
  0
POINT
  5
3FD
330
3F2
100
AcDbEntity
  8
DEFPOINTS
 62
     0
100
AcDbPoint
 10
82.04789452223122
 20
103.5778826572323
 30
0.0
  0
ENDBLK
  5
3FF
330
3F2
100
AcDbEntity
  8
0
100
AcDbBlockEnd
  0
BLOCK
  5
40A
330
400
100
AcDbEntity
  8
0
100
AcDbBlockBegin
  2
*D42
 70
     1
 10
0.0
 20
0.0
 30
0.0
  3
*D42
  1

  0
LINE
  5
401
330
400
100
AcDbEntity
  8
DIM
 62
   123
100
AcDbLine
 10
132.9389902733637
 20
111.5778826572322
 30
0.0
 11
62.80034444175035
 21
111.5778826572323
 31
0.0
  0
LINE
  5
402
330
400
100
AcDbEntity
  8
DIM
 62
   123
100
AcDbLine
 10
132.9389902733637
 20
87.57788265723229
 30
0.0
 11
62.80034444175035
 21
87.57788265723231
 31
0.0
  0
LINE
  5
403
330
400
100
AcDbEntity
  8
DIM
 62
   123
100
AcDbLine
 10
63.40034444175035
 20
109.0778826572323
 30
0.0
 11
63.40034444175035
 21
90.07788265723231
 31
0.0
  0
SOLID
  5
404
330
400
100
AcDbEntity
  8
DIM
 62
   123
100
AcDbTrace
 10
62.98367777508368
 20
109.0778826572323
 30
0.0
 11
63.81701110841701
 21
109.0778826572323
 31
0.0
 12
63.40034444175035
 22
111.5778826572323
 32
0.0
 13
63.40034444175035
 23
111.5778826572323
 33
0.0
  0
SOLID
  5
405
330
400
100
AcDbEntity
  8
DIM
 62
   123
100
AcDbTrace
 10
62.98367777508368
 20
90.07788265723231
 30
0.0
 11
63.81701110841701
 21
90.07788265723231
 31
0.0
 12
63.40034444175035
 22
87.57788265723231
 32
0.0
 13
63.40034444175035
 23
87.57788265723231
 33
0.0
  0
MTEXT
  5
406
330
400
100
AcDbEntity
  8
DIM
 62
     3
100
AcDbMText
 10
60.90034444175033
 20
99.57788265723232
 30
0.0
 40
3.0
 41
0.0
 71
     5
 72
     1
  1
\A1;%%c24
 11
0.0000000000000001
 21
1.0
 31
0.0
1001
ACAD
1000
MTEXTBEGIN
1070
    73
1070
     1
1070
    44
1040
1.0
1070
    74
1070
     0
1000
MTEXTEND
  0
POINT
  5
407
330
400
100
AcDbEntity
  8
DEFPOINTS
 62
     0
100
AcDbPoint
 10
133.9389902733637
 20
111.5778826572322
 30
0.0
  0
POINT
  5
408
330
400
100
AcDbEntity
  8
DEFPOINTS
 62
     0
100
AcDbPoint
 10
133.9389902733637
 20
87.57788265723229
 30
0.0
  0
POINT
  5
409
330
400
100
AcDbEntity
  8
DEFPOINTS
 62
     0
100
AcDbPoint
 10
63.40034444175035
 20
87.57788265723231
 30
0.0
  0
ENDBLK
  5
40B
330
400
100
AcDbEntity
  8
0
100
AcDbBlockEnd
  0
BLOCK
  5
416
330
40C
100
AcDbEntity
  8
0
100
AcDbBlockBegin
  2
*D43
 70
     1
 10
0.0
 20
0.0
 30
0.0
  3
*D43
  1

  0
LINE
  5
40D
330
40C
100
AcDbEntity
  8
DIM
 62
   123
100
AcDbLine
 10
176.4389902733637
 20
120.5778826572323
 30
0.0
 11
176.4389902733637
 21
142.9996455486253
 31
0.0
  0
LINE
  5
40E
330
40C
100
AcDbEntity
  8
DIM
 62
   123
100
AcDbLine
 10
136.4389902733637
 20
120.0778826572322
 30
0.0
 11
136.4389902733637
 21
142.9996455486253
 31
0.0
  0
LINE
  5
40F
330
40C
100
AcDbEntity
  8
DIM
 62
   123
100
AcDbLine
 10
173.9389902733637
 20
142.3996455486253
 30
0.0
 11
138.9389902733637
 21
142.3996455486253
 31
0.0
  0
SOLID
  5
410
330
40C
100
AcDbEntity
  8
DIM
 62
   123
100
AcDbTrace
 10
173.9389902733637
 20
142.816312215292
 30
0.0
 11
173.9389902733637
 21
141.9829788819586
 31
0.0
 12
176.4389902733637
 22
142.3996455486253
 32
0.0
 13
176.4389902733637
 23
142.3996455486253
 33
0.0
  0
SOLID
  5
411
330
40C
100
AcDbEntity
  8
DIM
 62
   123
100
AcDbTrace
 10
138.9389902733637
 20
142.816312215292
 30
0.0
 11
138.9389902733637
 21
141.9829788819586
 31
0.0
 12
136.4389902733637
 22
142.3996455486253
 32
0.0
 13
136.4389902733637
 23
142.3996455486253
 33
0.0
  0
MTEXT
  5
412
330
40C
100
AcDbEntity
  8
DIM
 62
     3
100
AcDbMText
 10
155.9253158323099
 20
144.8996455486253
 30
0.0
 40
3.0
 41
0.0
 71
     5
 72
     1
  1
\A1;L
1001
ACAD
1000
MTEXTBEGIN
1070
    73
1070
     1
1070
    44
1040
1.0
1070
    74
1070
     0
1000
MTEXTEND
  0
POINT
  5
413
330
40C
100
AcDbEntity
  8
DEFPOINTS
 62
     0
100
AcDbPoint
 10
176.4389902733637
 20
119.5778826572323
 30
0.0
  0
POINT
  5
414
330
40C
100
AcDbEntity
  8
DEFPOINTS
 62
     0
100
AcDbPoint
 10
136.4389902733637
 20
119.0778826572322
 30
0.0
  0
POINT
  5
415
330
40C
100
AcDbEntity
  8
DEFPOINTS
 62
     0
100
AcDbPoint
 10
136.4389902733637
 20
142.3996455486253
 30
0.0
  0
ENDBLK
  5
417
330
40C
100
AcDbEntity
  8
0
100
AcDbBlockEnd
  0
BLOCK
  5
424
330
418
100
AcDbEntity
  8
0
100
AcDbBlockBegin
  2
*D44
 70
     1
 10
0.0
 20
0.0
 30
0.0
  3
*D44
  1

  0
LINE
  5
419
330
418
100
AcDbEntity
  8
0
 62
   123
100
AcDbLine
 10
133.4389902733637
 20
112.0778826572313
 30
0.0
 11
133.4389902733637
 21
130.4284866660164
 31
0.0
  0
LINE
  5
41A
330
418
100
AcDbEntity
  8
0
 62
   123
100
AcDbLine
 10
136.4389902733637
 20
120.0778826572322
 30
0.0
 11
136.4389902733637
 21
130.4284866660164
 31
0.0
  0
LINE
  5
41B
330
418
100
AcDbEntity
  8
0
 62
   123
100
AcDbLine
 10
138.9389902733637
 20
129.8284866660164
 30
0.0
 11
141.4389902733637
 21
129.8284866660164
 31
0.0
  0
LINE
  5
41C
330
418
100
AcDbEntity
  8
0
 62
   123
100
AcDbLine
 10
130.9389902733637
 20
129.8284866660164
 30
0.0
 11
124.4389902733637
 21
129.8284866660164
 31
0.0
  0
LINE
  5
41D
330
418
100
AcDbEntity
  8
0
 62
   123
100
AcDbLine
 10
136.4389902733637
 20
129.8284866660164
 30
0.0
 11
133.4389902733637
 21
129.8284866660164
 31
0.0
  0
SOLID
  5
41E
330
418
100
AcDbEntity
  8
0
 62
   123
100
AcDbTrace
 10
138.9389902733637
 20
130.2451533326831
 30
0.0
 11
138.9389902733637
 21
129.4118199993498
 31
0.0
 12
136.4389902733637
 22
129.8284866660164
 32
0.0
 13
136.4389902733637
 23
129.8284866660164
 33
0.0
  0
SOLID
  5
41F
330
418
100
AcDbEntity
  8
0
 62
   123
100
AcDbTrace
 10
130.9389902733637
 20
130.2451533326831
 30
0.0
 11
130.9389902733637
 21
129.4118199993498
 31
0.0
 12
133.4389902733637
 22
129.8284866660164
 32
0.0
 13
133.4389902733637
 23
129.8284866660164
 33
0.0
  0
MTEXT
  5
420
330
418
100
AcDbEntity
  8
0
 62
     3
100
AcDbMText
 10
126.4389902733637
 20
132.3284866660164
 30
0.0
 40
3.0
 41
0.0
 71
     5
 72
     1
  1
\A1;3
1001
ACAD
1000
MTEXTBEGIN
1070
    73
1070
     1
1070
    44
1040
1.0
1070
    74
1070
     0
1000
MTEXTEND
  0
POINT
  5
421
330
418
100
AcDbEntity
  8
DEFPOINTS
 62
     0
100
AcDbPoint
 10
133.4389902733637
 20
111.0778826572313
 30
0.0
  0
POINT
  5
422
330
418
100
AcDbEntity
  8
DEFPOINTS
 62
     0
100
AcDbPoint
 10
136.4389902733637
 20
119.0778826572322
 30
0.0
  0
POINT
  5
423
330
418
100
AcDbEntity
  8
DEFPOINTS
 62
     0
100
AcDbPoint
 10
136.4389902733637
 20
129.8284866660164
 30
0.0
  0
ENDBLK
  5
425
330
418
100
AcDbEntity
  8
0
100
AcDbBlockEnd
  0
BLOCK
  5
432
330
426
100
AcDbEntity
  8
0
100
AcDbBlockBegin
  2
*D45
 70
     1
 10
0.0
 20
0.0
 30
0.0
  3
*D45
  1

  0
LINE
  5
427
330
426
100
AcDbEntity
  8
0
 62
   123
100
AcDbLine
 10
176.4389902733637
 20
120.5778826572334
 30
0.0
 11
176.4389902733637
 21
130.8290850741173
 31
0.0
  0
LINE
  5
428
330
426
100
AcDbEntity
  8
0
 62
   123
100
AcDbLine
 10
183.4389902733619
 20
119.1766199987623
 30
0.0
 11
183.4389902733619
 21
130.8290850741173
 31
0.0
  0
LINE
  5
429
330
426
100
AcDbEntity
  8
0
 62
   123
100
AcDbLine
 10
173.9389902733637
 20
130.2290850741173
 30
0.0
 11
171.4389902733637
 21
130.2290850741173
 31
0.0
  0
LINE
  5
42A
330
426
100
AcDbEntity
  8
0
 62
   123
100
AcDbLine
 10
185.9389902733619
 20
130.2290850741173
 30
0.0
 11
188.4389902733619
 21
130.2290850741173
 31
0.0
  0
LINE
  5
42B
330
426
100
AcDbEntity
  8
0
 62
   123
100
AcDbLine
 10
176.4389902733637
 20
130.2290850741173
 30
0.0
 11
183.4389902733619
 21
130.2290850741173
 31
0.0
  0
SOLID
  5
42C
330
426
100
AcDbEntity
  8
0
 62
   123
100
AcDbTrace
 10
173.9389902733637
 20
130.645751740784
 30
0.0
 11
173.9389902733637
 21
129.8124184074507
 31
0.0
 12
176.4389902733637
 22
130.2290850741173
 32
0.0
 13
176.4389902733637
 23
130.2290850741173
 33
0.0
  0
SOLID
  5
42D
330
426
100
AcDbEntity
  8
0
 62
   123
100
AcDbTrace
 10
185.9389902733619
 20
130.645751740784
 30
0.0
 11
185.9389902733619
 21
129.8124184074507
 31
0.0
 12
183.4389902733619
 22
130.2290850741173
 32
0.0
 13
183.4389902733619
 23
130.2290850741173
 33
0.0
  0
MTEXT
  5
42E
330
426
100
AcDbEntity
  8
0
 62
     3
100
AcDbMText
 10
179.9389902733628
 20
132.7290850741174
 30
0.0
 40
3.0
 41
0.0
 71
     5
 72
     1
  1
\A1;7
1001
ACAD
1000
MTEXTBEGIN
1070
    73
1070
     1
1070
    44
1040
1.0
1070
    74
1070
     0
1000
MTEXTEND
  0
POINT
  5
42F
330
426
100
AcDbEntity
  8
DEFPOINTS
 62
     0
100
AcDbPoint
 10
176.4389902733637
 20
119.5778826572334
 30
0.0
  0
POINT
  5
430
330
426
100
AcDbEntity
  8
DEFPOINTS
 62
     0
100
AcDbPoint
 10
183.4389902733619
 20
118.1766199987623
 30
0.0
  0
POINT
  5
431
330
426
100
AcDbEntity
  8
DEFPOINTS
 62
     0
100
AcDbPoint
 10
183.4389902733619
 20
130.2290850741173
 30
0.0
  0
ENDBLK
  5
433
330
426
100
AcDbEntity
  8
0
100
AcDbBlockEnd
  0
BLOCK
  5
43E
330
434
100
AcDbEntity
  8
0
100
AcDbBlockBegin
  2
*D46
 70
     1
 10
0.0
 20
0.0
 30
0.0
  3
*D46
  1

  0
LINE
  5
435
330
434
100
AcDbEntity
  8
0
 62
   123
100
AcDbLine
 10
-15.04447237402928
 20
115.5778826572334
 30
0.0
 11
-15.04447237402928
 21
133.8289804515382
 31
0.0
  0
LINE
  5
436
330
434
100
AcDbEntity
  8
0
 62
   123
100
AcDbLine
 10
44.95552762597071
 20
115.5778826572334
 30
0.0
 11
44.95552762597071
 21
133.8289804515382
 31
0.0
  0
LINE
  5
437
330
434
100
AcDbEntity
  8
0
 62
   123
100
AcDbLine
 10
-12.54447237402928
 20
133.2289804515383
 30
0.0
 11
42.45552762597071
 21
133.2289804515383
 31
0.0
  0
SOLID
  5
438
330
434
100
AcDbEntity
  8
0
 62
   123
100
AcDbTrace
 10
-12.54447237402928
 20
133.6456471182049
 30
0.0
 11
-12.54447237402928
 21
132.8123137848716
 31
0.0
 12
-15.04447237402928
 22
133.2289804515383
 32
0.0
 13
-15.04447237402928
 23
133.2289804515383
 33
0.0
  0
SOLID
  5
439
330
434
100
AcDbEntity
  8
0
 62
   123
100
AcDbTrace
 10
42.45552762597071
 20
133.6456471182049
 30
0.0
 11
42.45552762597071
 21
132.8123137848716
 31
0.0
 12
44.95552762597071
 22
133.2289804515383
 32
0.0
 13
44.95552762597071
 23
133.2289804515383
 33
0.0
  0
MTEXT
  5
43A
330
434
100
AcDbEntity
  8
0
 62
     3
100
AcDbMText
 10
14.62478886631106
 20
135.7289804515382
 30
0.0
 40
3.0
 41
0.0
 71
     5
 72
     1
  1
\A1;60
1001
ACAD
1000
MTEXTBEGIN
1070
    73
1070
     1
1070
    44
1040
1.0
1070
    74
1070
     0
1000
MTEXTEND
  0
POINT
  5
43B
330
434
100
AcDbEntity
  8
DEFPOINTS
 62
     0
100
AcDbPoint
 10
-15.04447237402928
 20
114.5778826572334
 30
0.0
  0
POINT
  5
43C
330
434
100
AcDbEntity
  8
DEFPOINTS
 62
     0
100
AcDbPoint
 10
44.95552762597071
 20
114.5778826572334
 30
0.0
  0
POINT
  5
43D
330
434
100
AcDbEntity
  8
DEFPOINTS
 62
     0
100
AcDbPoint
 10
44.95552762597071
 20
133.2289804515383
 30
0.0
  0
ENDBLK
  5
43F
330
434
100
AcDbEntity
  8
0
100
AcDbBlockEnd
  0
BLOCK
  5
44A
330
440
100
AcDbEntity
  8
0
100
AcDbBlockBegin
  2
*D47
 70
     1
 10
0.0
 20
0.0
 30
0.0
  3
*D47
  1

  0
LINE
  5
4D2
330
440
100
AcDbEntity
  8
DIM
 62
   123
100
AcDbLine
 10
99.54085147213664
 20
99.5778826572323
 30
0.0
 11
72.537808696225
 21
99.5778826572323
 31
0.0
  0
LINE
  5
4D3
330
440
100
AcDbEntity
  8
DIM
 62
   123
100
AcDbLine
 10
100.7142482546842
 20
89.57788265723229
 30
0.0
 11
72.53780869622499
 21
89.5778826572323
 31
0.0
  0
LINE
  5
4D4
330
440
100
AcDbEntity
  8
DIM
 62
   123
100
AcDbLine
 10
73.13780869622499
 20
97.0778826572323
 30
0.0
 11
73.13780869622497
 21
92.0778826572323
 31
0.0
  0
SOLID
  5
4D5
330
440
100
AcDbEntity
  8
DIM
 62
   123
100
AcDbTrace
 10
72.72114202955832
 20
97.0778826572323
 30
0.0
 11
73.55447536289166
 21
97.0778826572323
 31
0.0
 12
73.13780869622499
 22
99.5778826572323
 32
0.0
 13
73.13780869622499
 23
99.5778826572323
 33
0.0
  0
SOLID
  5
4D6
330
440
100
AcDbEntity
  8
DIM
 62
   123
100
AcDbTrace
 10
72.7211420295583
 20
92.0778826572323
 30
0.0
 11
73.55447536289165
 21
92.0778826572323
 31
0.0
 12
73.13780869622497
 22
89.5778826572323
 32
0.0
 13
73.13780869622497
 23
89.5778826572323
 33
0.0
  0
MTEXT
  5
4D7
330
440
100
AcDbEntity
  8
DIM
 62
     3
100
AcDbMText
 10
70.63780869622497
 20
94.57788265723047
 30
0.0
 40
3.0
 41
0.0
 71
     5
 72
     1
  1
\A1;10
 11
0.0000000000000001
 21
1.0
 31
0.0
1001
ACAD
1000
MTEXTBEGIN
1070
    73
1070
     1
1070
    44
1040
1.0
1070
    74
1070
     0
1000
MTEXTEND
  0
POINT
  5
4D8
330
440
100
AcDbEntity
  8
DEFPOINTS
 62
     0
100
AcDbPoint
 10
100.5408514721366
 20
99.5778826572323
 30
0.0
  0
POINT
  5
4D9
330
440
100
AcDbEntity
  8
DEFPOINTS
 62
     0
100
AcDbPoint
 10
101.7142482546842
 20
89.57788265723229
 30
0.0
  0
POINT
  5
4DA
330
440
100
AcDbEntity
  8
DEFPOINTS
 62
     0
100
AcDbPoint
 10
73.13780869622497
 20
89.5778826572323
 30
0.0
  0
ENDBLK
  5
44B
330
440
100
AcDbEntity
  8
0
100
AcDbBlockEnd
  0
BLOCK
  5
458
330
44C
100
AcDbEntity
  8
0
100
AcDbBlockBegin
  2
*D48
 70
     1
 10
0.0
 20
0.0
 30
0.0
  3
*D48
  1

  0
LINE
  5
44D
330
44C
100
AcDbEntity
  8
0
 62
   123
100
AcDbLine
 10
103.4389902733637
 20
102.5778826572313
 30
0.0
 11
90.9661877637904
 21
102.5778826572314
 31
0.0
  0
LINE
  5
44E
330
44C
100
AcDbEntity
  8
0
 62
   123
100
AcDbLine
 10
103.4389902733637
 20
95.57788265723138
 30
0.0
 11
90.96618776379038
 21
95.57788265723139
 31
0.0
  0
LINE
  5
44F
330
44C
100
AcDbEntity
  8
0
 62
   123
100
AcDbLine
 10
91.56618776379039
 20
93.07788265723139
 30
0.0
 11
91.56618776379039
 21
90.57788265723139
 31
0.0
  0
LINE
  5
450
330
44C
100
AcDbEntity
  8
0
 62
   123
100
AcDbLine
 10
91.56618776379039
 20
105.0778826572313
 30
0.0
 11
91.56618776379039
 21
117.2330594041534
 31
0.0
  0
LINE
  5
451
330
44C
100
AcDbEntity
  8
0
 62
   123
100
AcDbLine
 10
91.56618776379039
 20
95.57788265723139
 30
0.0
 11
91.56618776379039
 21
102.5778826572314
 31
0.0
  0
SOLID
  5
452
330
44C
100
AcDbEntity
  8
0
 62
   123
100
AcDbTrace
 10
91.14952109712371
 20
93.07788265723139
 30
0.0
 11
91.98285443045705
 21
93.07788265723139
 31
0.0
 12
91.56618776379039
 22
95.57788265723139
 32
0.0
 13
91.56618776379039
 23
95.57788265723139
 33
0.0
  0
SOLID
  5
453
330
44C
100
AcDbEntity
  8
0
 62
   123
100
AcDbTrace
 10
91.14952109712373
 20
105.0778826572313
 30
0.0
 11
91.98285443045707
 21
105.0778826572313
 31
0.0
 12
91.56618776379039
 22
102.5778826572314
 32
0.0
 13
91.56618776379039
 23
102.5778826572314
 33
0.0
  0
MTEXT
  5
454
330
44C
100
AcDbEntity
  8
0
 62
     3
100
AcDbMText
 10
89.06618776379037
 20
115.2330594041534
 30
0.0
 40
3.0
 41
0.0
 71
     5
 72
     1
  1
\A1;7
 11
0.0000000000000001
 21
1.0
 31
0.0
1001
ACAD
1000
MTEXTBEGIN
1070
    73
1070
     1
1070
    44
1040
1.0
1070
    74
1070
     0
1000
MTEXTEND
  0
POINT
  5
455
330
44C
100
AcDbEntity
  8
DEFPOINTS
 62
     0
100
AcDbPoint
 10
104.4389902733637
 20
102.5778826572313
 30
0.0
  0
POINT
  5
456
330
44C
100
AcDbEntity
  8
DEFPOINTS
 62
     0
100
AcDbPoint
 10
104.4389902733637
 20
95.57788265723138
 30
0.0
  0
POINT
  5
457
330
44C
100
AcDbEntity
  8
DEFPOINTS
 62
     0
100
AcDbPoint
 10
91.56618776379039
 20
95.57788265723139
 30
0.0
  0
ENDBLK
  5
459
330
44C
100
AcDbEntity
  8
0
100
AcDbBlockEnd
  0
BLOCK
  5
463
330
45A
100
AcDbEntity
  8
0
100
AcDbBlockBegin
  2
*D49
 70
     1
 10
0.0
 20
0.0
 30
0.0
  3
*D49
  1

  0
LINE
  5
4CA
330
45A
100
AcDbEntity
  8
0
 62
   123
100
AcDbLine
 10
65.02202173000523
 20
359.7741561417251
 30
0.0
 11
62.85379935057173
 21
358.5296435008397
 31
0.0
  0
LINE
  5
4CB
330
45A
100
AcDbEntity
  8
0
 62
   123
100
AcDbLine
 10
130.0686931130216
 20
397.1095353682949
 30
0.0
 11
151.6889676965126
 21
409.5191042731221
 31
0.0
  0
LINE
  5
4CC
330
45A
100
AcDbEntity
  8
0
 62
   123
100
AcDbLine
 10
67.19024410943877
 20
361.0186687826106
 30
0.0
 11
127.9004707335881
 21
395.8650227274095
 31
0.0
  0
SOLID
  5
4CD
330
45A
100
AcDbEntity
  8
0
 62
   123
100
AcDbTrace
 10
64.81460295652431
 20
360.1355265382975
 30
0.0
 11
65.22944050348616
 21
359.4127857451529
 31
0.0
 12
67.19024410943877
 22
361.0186687826106
 32
0.0
 13
67.19024410943877
 23
361.0186687826106
 33
0.0
  0
SOLID
  5
4CE
330
45A
100
AcDbEntity
  8
0
 62
   123
100
AcDbTrace
 10
129.8612743395407
 20
397.4709057648672
 30
0.0
 11
130.2761118865026
 21
396.7481649717226
 31
0.0
 12
127.9004707335881
 22
395.8650227274095
 32
0.0
 13
127.9004707335881
 23
395.8650227274095
 33
0.0
  0
MTEXT
  5
4CF
330
45A
100
AcDbEntity
  8
0
 62
     3
100
AcDbMText
 10
141.5857179053702
 20
406.6026035769381
 30
0.0
 40
3.0
 41
0.0
 71
     5
 72
     1
  1
\A1;\U+220570%%p0.5
 11
0.8672889517734059
 21
0.4978050563541786
 31
0.0
1001
ACAD
1000
MTEXTBEGIN
1070
    73
1070
     1
1070
    44
1040
1.0
1070
    74
1070
     0
1000
MTEXTEND
  0
POINT
  5
4D0
330
45A
100
AcDbEntity
  8
DEFPOINTS
 62
     0
100
AcDbPoint
 10
127.9004707335881
 20
395.8650227274095
 30
0.0
  0
POINT
  5
4D1
330
45A
100
AcDbEntity
  8
DEFPOINTS
 62
     0
100
AcDbPoint
 10
67.19024410943877
 20
361.0186687826106
 30
0.0
  0
ENDBLK
  5
464
330
45A
100
AcDbEntity
  8
0
100
AcDbBlockEnd
  0
BLOCK
  5
46F
330
465
100
AcDbEntity
  8
0
100
AcDbBlockBegin
  2
*D50
 70
     1
 10
0.0
 20
0.0
 30
0.0
  3
*D50
  1

  0
LINE
  5
466
330
465
100
AcDbEntity
  8
DIM
 62
   123
100
AcDbLine
 10
180.0413804850468
 20
405.4418457550132
 30
0.0
 11
160.874048510805
 21
405.4418457550132
 31
0.0
  0
LINE
  5
467
330
465
100
AcDbEntity
  8
DIM
 62
   123
100
AcDbLine
 10
180.0413804850468
 20
351.4418457550132
 30
0.0
 11
160.874048510805
 21
351.4418457550132
 31
0.0
  0
LINE
  5
468
330
465
100
AcDbEntity
  8
DIM
 62
   123
100
AcDbLine
 10
161.474048510805
 20
402.9418457550132
 30
0.0
 11
161.474048510805
 21
353.9418457550132
 31
0.0
  0
SOLID
  5
469
330
465
100
AcDbEntity
  8
DIM
 62
   123
100
AcDbTrace
 10
161.0573818441384
 20
402.9418457550132
 30
0.0
 11
161.8907151774717
 21
402.9418457550132
 31
0.0
 12
161.474048510805
 22
405.4418457550132
 32
0.0
 13
161.474048510805
 23
405.4418457550132
 33
0.0
  0
SOLID
  5
46A
330
465
100
AcDbEntity
  8
DIM
 62
   123
100
AcDbTrace
 10
161.0573818441384
 20
353.9418457550132
 30
0.0
 11
161.8907151774717
 21
353.9418457550132
 31
0.0
 12
161.474048510805
 22
351.4418457550132
 32
0.0
 13
161.474048510805
 23
351.4418457550132
 33
0.0
  0
MTEXT
  5
46B
330
465
100
AcDbEntity
  8
DIM
 62
     3
100
AcDbMText
 10
157.5238985108049
 20
378.4418457550132
 30
0.0
 40
3.0
 41
0.0
 71
     5
 72
     1
  1
\A1;\A1;%%C54{\f??|b0|i0|c0|p49;\H0.7x;\S+0^ -0.03;\H1.429x;(h7)} 
 11
0.0000000000000001
 21
1.0
 31
0.0
1001
ACAD
1000
MTEXTBEGIN
1070
    73
1070
     1
1070
    44
1040
1.0
1070
    74
1070
     0
1000
MTEXTEND
  0
POINT
  5
46C
330
465
100
AcDbEntity
  8
DEFPOINTS
 62
     0
100
AcDbPoint
 10
181.0413804850468
 20
405.4418457550132
 30
0.0
  0
POINT
  5
46D
330
465
100
AcDbEntity
  8
DEFPOINTS
 62
     0
100
AcDbPoint
 10
181.0413804850468
 20
351.4418457550132
 30
0.0
  0
POINT
  5
46E
330
465
100
AcDbEntity
  8
DEFPOINTS
 62
     0
100
AcDbPoint
 10
161.474048510805
 20
351.4418457550132
 30
0.0
  0
ENDBLK
  5
470
330
465
100
AcDbEntity
  8
0
100
AcDbBlockEnd
  0
BLOCK
  5
47B
330
471
100
AcDbEntity
  8
0
100
AcDbBlockBegin
  2
*D51
 70
     1
 10
0.0
 20
0.0
 30
0.0
  3
*D51
  1

  0
LINE
  5
472
330
471
100
AcDbEntity
  8
0
 62
   123
100
AcDbLine
 10
178.9302854644447
 20
287.6591419456694
 30
0.0
 11
160.9659795653191
 21
287.6591419456694
 31
0.0
  0
LINE
  5
473
330
471
100
AcDbEntity
  8
0
 62
   123
100
AcDbLine
 10
171.2207511315718
 20
277.6591419456694
 30
0.0
 11
160.9659795653191
 21
277.6591419456694
 31
0.0
  0
LINE
  5
474
330
471
100
AcDbEntity
  8
0
 62
   123
100
AcDbLine
 10
161.5659795653191
 20
285.1591419456695
 30
0.0
 11
161.5659795653191
 21
280.1591419456694
 31
0.0
  0
SOLID
  5
475
330
471
100
AcDbEntity
  8
0
 62
   123
100
AcDbTrace
 10
161.1493128986524
 20
285.1591419456695
 30
0.0
 11
161.9826462319857
 21
285.1591419456695
 31
0.0
 12
161.5659795653191
 22
287.6591419456694
 32
0.0
 13
161.5659795653191
 23
287.6591419456694
 33
0.0
  0
SOLID
  5
476
330
471
100
AcDbEntity
  8
0
 62
   123
100
AcDbTrace
 10
161.1493128986524
 20
280.1591419456694
 30
0.0
 11
161.9826462319857
 21
280.1591419456694
 31
0.0
 12
161.5659795653191
 22
277.6591419456694
 32
0.0
 13
161.5659795653191
 23
277.6591419456694
 33
0.0
  0
MTEXT
  5
477
330
471
100
AcDbEntity
  8
0
 62
     3
100
AcDbMText
 10
159.0659795653191
 20
282.6591419456695
 30
0.0
 40
3.0
 41
0.0
 71
     5
 72
     1
  1
\A1;10
 11
0.0000000000000001
 21
1.0
 31
0.0
1001
ACAD
1000
MTEXTBEGIN
1070
    73
1070
     1
1070
    44
1040
1.0
1070
    74
1070
     0
1000
MTEXTEND
  0
POINT
  5
478
330
471
100
AcDbEntity
  8
DEFPOINTS
 62
     0
100
AcDbPoint
 10
179.9302854644447
 20
287.6591419456694
 30
0.0
  0
POINT
  5
479
330
471
100
AcDbEntity
  8
DEFPOINTS
 62
     0
100
AcDbPoint
 10
172.2207511315718
 20
277.6591419456694
 30
0.0
  0
POINT
  5
47A
330
471
100
AcDbEntity
  8
DEFPOINTS
 62
     0
100
AcDbPoint
 10
161.5659795653191
 20
277.6591419456694
 30
0.0
  0
ENDBLK
  5
47C
330
471
100
AcDbEntity
  8
0
100
AcDbBlockEnd
  0
BLOCK
  5
489
330
47D
100
AcDbEntity
  8
0
100
AcDbBlockBegin
  2
*D52
 70
     1
 10
0.0
 20
0.0
 30
0.0
  3
*D52
  1

  0
LINE
  5
47E
330
47D
100
AcDbEntity
  8
0
 62
   123
100
AcDbLine
 10
182.8284242656736
 20
290.6591419456694
 30
0.0
 11
170.3556217560967
 21
290.6591419456694
 31
0.0
  0
LINE
  5
47F
330
47D
100
AcDbEntity
  8
0
 62
   123
100
AcDbLine
 10
182.8284242656736
 20
283.6591419456695
 30
0.0
 11
170.3556217560967
 21
283.6591419456695
 31
0.0
  0
LINE
  5
480
330
47D
100
AcDbEntity
  8
0
 62
   123
100
AcDbLine
 10
170.9556217560966
 20
281.1591419456695
 30
0.0
 11
170.9556217560966
 21
278.6591419456694
 31
0.0
  0
LINE
  5
481
330
47D
100
AcDbEntity
  8
0
 62
   123
100
AcDbLine
 10
170.9556217560966
 20
293.1591419456694
 30
0.0
 11
170.9556217560966
 21
305.6591419456694
 31
0.0
  0
LINE
  5
482
330
47D
100
AcDbEntity
  8
0
 62
   123
100
AcDbLine
 10
170.9556217560966
 20
283.6591419456695
 30
0.0
 11
170.9556217560966
 21
290.6591419456694
 31
0.0
  0
SOLID
  5
483
330
47D
100
AcDbEntity
  8
0
 62
   123
100
AcDbTrace
 10
170.53895508943
 20
281.1591419456695
 30
0.0
 11
171.3722884227633
 21
281.1591419456695
 31
0.0
 12
170.9556217560966
 22
283.6591419456695
 32
0.0
 13
170.9556217560966
 23
283.6591419456695
 33
0.0
  0
SOLID
  5
484
330
47D
100
AcDbEntity
  8
0
 62
   123
100
AcDbTrace
 10
170.53895508943
 20
293.1591419456694
 30
0.0
 11
171.3722884227633
 21
293.1591419456694
 31
0.0
 12
170.9556217560966
 22
290.6591419456694
 32
0.0
 13
170.9556217560966
 23
290.6591419456694
 33
0.0
  0
MTEXT
  5
485
330
47D
100
AcDbEntity
  8
0
 62
     3
100
AcDbMText
 10
168.4556217560966
 20
303.6591419456694
 30
0.0
 40
3.0
 41
0.0
 71
     5
 72
     1
  1
\A1;7
 11
0.0000000000000001
 21
1.0
 31
0.0
1001
ACAD
1000
MTEXTBEGIN
1070
    73
1070
     1
1070
    44
1040
1.0
1070
    74
1070
     0
1000
MTEXTEND
  0
POINT
  5
486
330
47D
100
AcDbEntity
  8
DEFPOINTS
 62
     0
100
AcDbPoint
 10
183.8284242656736
 20
290.6591419456694
 30
0.0
  0
POINT
  5
487
330
47D
100
AcDbEntity
  8
DEFPOINTS
 62
     0
100
AcDbPoint
 10
183.8284242656736
 20
283.6591419456695
 30
0.0
  0
POINT
  5
488
330
47D
100
AcDbEntity
  8
DEFPOINTS
 62
     0
100
AcDbPoint
 10
170.9556217560966
 20
283.6591419456695
 30
0.0
  0
ENDBLK
  5
48A
330
47D
100
AcDbEntity
  8
0
100
AcDbBlockEnd
  0
BLOCK
  5
495
330
48B
100
AcDbEntity
  8
0
100
AcDbBlockBegin
  2
*D53
 70
     1
 10
0.0
 20
0.0
 30
0.0
  3
*D53
  1

  0
LINE
  5
48C
330
48B
100
AcDbEntity
  8
0
 62
   123
100
AcDbLine
 10
212.3284242656736
 20
299.6591419456695
 30
0.0
 11
152.9177015278004
 21
299.6591419456695
 31
0.0
  0
LINE
  5
48D
330
48B
100
AcDbEntity
  8
0
 62
   123
100
AcDbLine
 10
212.3284242656736
 20
275.6591419456694
 30
0.0
 11
152.9177015278004
 21
275.6591419456694
 31
0.0
  0
LINE
  5
48E
330
48B
100
AcDbEntity
  8
0
 62
   123
100
AcDbLine
 10
153.5177015278004
 20
297.1591419456694
 30
0.0
 11
153.5177015278004
 21
278.1591419456694
 31
0.0
  0
SOLID
  5
48F
330
48B
100
AcDbEntity
  8
0
 62
   123
100
AcDbTrace
 10
153.1010348611338
 20
297.1591419456694
 30
0.0
 11
153.9343681944671
 21
297.1591419456694
 31
0.0
 12
153.5177015278004
 22
299.6591419456695
 32
0.0
 13
153.5177015278004
 23
299.6591419456695
 33
0.0
  0
SOLID
  5
490
330
48B
100
AcDbEntity
  8
0
 62
   123
100
AcDbTrace
 10
153.1010348611338
 20
278.1591419456694
 30
0.0
 11
153.9343681944671
 21
278.1591419456694
 31
0.0
 12
153.5177015278004
 22
275.6591419456694
 32
0.0
 13
153.5177015278004
 23
275.6591419456694
 33
0.0
  0
MTEXT
  5
491
330
48B
100
AcDbEntity
  8
0
 62
     3
100
AcDbMText
 10
151.0177015278004
 20
287.6591419456695
 30
0.0
 40
3.0
 41
0.0
 71
     5
 72
     1
  1
\A1;%%c24
 11
0.0000000000000001
 21
1.0
 31
0.0
1001
ACAD
1000
MTEXTBEGIN
1070
    73
1070
     1
1070
    44
1040
1.0
1070
    74
1070
     0
1000
MTEXTEND
  0
POINT
  5
492
330
48B
100
AcDbEntity
  8
DEFPOINTS
 62
     0
100
AcDbPoint
 10
213.3284242656736
 20
299.6591419456695
 30
0.0
  0
POINT
  5
493
330
48B
100
AcDbEntity
  8
DEFPOINTS
 62
     0
100
AcDbPoint
 10
213.3284242656736
 20
275.6591419456694
 30
0.0
  0
POINT
  5
494
330
48B
100
AcDbEntity
  8
DEFPOINTS
 62
     0
100
AcDbPoint
 10
153.5177015278004
 20
275.6591419456694
 30
0.0
  0
ENDBLK
  5
496
330
48B
100
AcDbEntity
  8
0
100
AcDbBlockEnd
  0
BLOCK
  5
4A1
330
497
100
AcDbEntity
  8
0
100
AcDbBlockBegin
  2
*D54
 70
     1
 10
0.0
 20
0.0
 30
0.0
  3
*D54
  1

  0
LINE
  5
498
330
497
100
AcDbEntity
  8
0
 62
   123
100
AcDbLine
 10
183.8284242656736
 20
291.6591419456695
 30
0.0
 11
183.8284242656736
 21
305.2869788727313
 31
0.0
  0
LINE
  5
499
330
497
100
AcDbEntity
  8
0
 62
   123
100
AcDbLine
 10
195.8284242656736
 20
292.6591419456694
 30
0.0
 11
195.8284242656736
 21
305.2869788727313
 31
0.0
  0
LINE
  5
49A
330
497
100
AcDbEntity
  8
0
 62
   123
100
AcDbLine
 10
186.3284242656736
 20
304.6869788727312
 30
0.0
 11
193.3284242656736
 21
304.6869788727312
 31
0.0
  0
SOLID
  5
49B
330
497
100
AcDbEntity
  8
0
 62
   123
100
AcDbTrace
 10
186.3284242656736
 20
305.1036455393979
 30
0.0
 11
186.3284242656736
 21
304.2703122060645
 31
0.0
 12
183.8284242656736
 22
304.6869788727312
 32
0.0
 13
183.8284242656736
 23
304.6869788727312
 33
0.0
  0
SOLID
  5
49C
330
497
100
AcDbEntity
  8
0
 62
   123
100
AcDbTrace
 10
193.3284242656736
 20
305.1036455393979
 30
0.0
 11
193.3284242656736
 21
304.2703122060645
 31
0.0
 12
195.8284242656736
 22
304.6869788727312
 32
0.0
 13
195.8284242656736
 23
304.6869788727312
 33
0.0
  0
MTEXT
  5
49D
330
497
100
AcDbEntity
  8
0
 62
     3
100
AcDbMText
 10
189.8284242656736
 20
307.1869788727312
 30
0.0
 40
3.0
 41
0.0
 71
     5
 72
     1
  1
\A1;12
1001
ACAD
1000
MTEXTBEGIN
1070
    73
1070
     1
1070
    44
1040
1.0
1070
    74
1070
     0
1000
MTEXTEND
  0
POINT
  5
49E
330
497
100
AcDbEntity
  8
DEFPOINTS
 62
     0
100
AcDbPoint
 10
183.8284242656736
 20
290.6591419456694
 30
0.0
  0
POINT
  5
49F
330
497
100
AcDbEntity
  8
DEFPOINTS
 62
     0
100
AcDbPoint
 10
195.8284242656736
 20
291.6591419456695
 30
0.0
  0
POINT
  5
4A0
330
497
100
AcDbEntity
  8
DEFPOINTS
 62
     0
100
AcDbPoint
 10
195.8284242656736
 20
304.6869788727312
 30
0.0
  0
ENDBLK
  5
4A2
330
497
100
AcDbEntity
  8
0
100
AcDbBlockEnd
  0
BLOCK
  5
4AF
330
4A3
100
AcDbEntity
  8
0
100
AcDbBlockBegin
  2
*D55
 70
     1
 10
0.0
 20
0.0
 30
0.0
  3
*D55
  1

  0
LINE
  5
4A4
330
4A3
100
AcDbEntity
  8
0
 62
   123
100
AcDbLine
 10
199.3284242656736
 20
283.6591419456695
 30
0.0
 11
203.9221496057376
 21
283.6591419456695
 31
0.0
  0
LINE
  5
4A5
330
4A3
100
AcDbEntity
  8
0
 62
   123
100
AcDbLine
 10
196.8284242656736
 20
291.6591419456695
 30
0.0
 11
203.9221496057376
 21
291.6591419456695
 31
0.0
  0
LINE
  5
4A6
330
4A3
100
AcDbEntity
  8
0
 62
   123
100
AcDbLine
 10
203.3221496057376
 20
281.1591419456695
 30
0.0
 11
203.3221496057376
 21
278.6591419456694
 31
0.0
  0
LINE
  5
4A7
330
4A3
100
AcDbEntity
  8
0
 62
   123
100
AcDbLine
 10
203.3221496057376
 20
294.1591419456695
 30
0.0
 11
203.3221496057377
 21
334.0291451691244
 31
0.0
  0
LINE
  5
4A8
330
4A3
100
AcDbEntity
  8
0
 62
   123
100
AcDbLine
 10
203.3221496057376
 20
283.6591419456695
 30
0.0
 11
203.3221496057376
 21
291.6591419456695
 31
0.0
  0
SOLID
  5
4A9
330
4A3
100
AcDbEntity
  8
0
 62
   123
100
AcDbTrace
 10
202.905482939071
 20
281.1591419456695
 30
0.0
 11
203.7388162724043
 21
281.1591419456695
 31
0.0
 12
203.3221496057376
 22
283.6591419456695
 32
0.0
 13
203.3221496057376
 23
283.6591419456695
 33
0.0
  0
SOLID
  5
4AA
330
4A3
100
AcDbEntity
  8
0
 62
   123
100
AcDbTrace
 10
202.905482939071
 20
294.1591419456695
 30
0.0
 11
203.7388162724043
 21
294.1591419456695
 31
0.0
 12
203.3221496057376
 22
291.6591419456695
 32
0.0
 13
203.3221496057376
 23
291.6591419456695
 33
0.0
  0
MTEXT
  5
4AB
330
4A3
100
AcDbEntity
  8
0
 62
     3
100
AcDbMText
 10
199.3719996057376
 20
320.3564308834102
 30
0.0
 40
3.0
 41
0.0
 71
     5
 72
     1
  1
\A1;\A1;{\f??|b0|i0|c0|p49;%%C8\H0.7x;\S+0^ -0.015;\H1.429x;(h7)}
 11
0.0000000000000001
 21
1.0
 31
0.0
1001
ACAD
1000
MTEXTBEGIN
1070
    73
1070
     1
1070
    44
1040
1.0
1070
    74
1070
     0
1000
MTEXTEND
  0
POINT
  5
4AC
330
4A3
100
AcDbEntity
  8
DEFPOINTS
 62
     0
100
AcDbPoint
 10
198.3284242656736
 20
283.6591419456695
 30
0.0
  0
POINT
  5
4AD
330
4A3
100
AcDbEntity
  8
DEFPOINTS
 62
     0
100
AcDbPoint
 10
195.8284242656736
 20
291.6591419456695
 30
0.0
  0
POINT
  5
4AE
330
4A3
100
AcDbEntity
  8
DEFPOINTS
 62
     0
100
AcDbPoint
 10
203.3221496057376
 20
291.6591419456695
 30
0.0
  0
ENDBLK
  5
4B0
330
4A3
100
AcDbEntity
  8
0
100
AcDbBlockEnd
  0
BLOCK
  5
4BA
330
4B1
100
AcDbEntity
  8
0
100
AcDbBlockBegin
  2
*D56
 70
     1
 10
0.0
 20
0.0
 30
0.0
  3
*D56
  1

  0
LINE
  5
4B2
330
4B1
100
AcDbEntity
  8
2
 62
   123
100
AcDbLine
 10
55.77699614399058
 20
259.7550530376476
 30
0.0
 11
53.58033848050506
 21
258.5614471104461
 31
0.0
  0
LINE
  5
4B3
330
4B1
100
AcDbEntity
  8
2
 62
   123
100
AcDbLine
 10
121.6767260485552
 20
295.5632308536893
 30
0.0
 11
147.31889223865
 21
309.4965086964533
 31
0.0
  0
LINE
  5
4B4
330
4B1
100
AcDbEntity
  8
2
 62
   123
100
AcDbLine
 10
57.97365380747608
 20
260.948658964849
 30
0.0
 11
119.4800683850696
 21
294.3696249264879
 31
0.0
  0
SOLID
  5
4B5
330
4B1
100
AcDbEntity
  8
2
 62
   123
100
AcDbTrace
 10
55.57806182279036
 20
260.1211626482285
 30
0.0
 11
55.97593046519081
 21
259.3889434270666
 31
0.0
 12
57.97365380747608
 22
260.948658964849
 32
0.0
 13
57.97365380747608
 23
260.948658964849
 33
0.0
  0
SOLID
  5
4B6
330
4B1
100
AcDbEntity
  8
2
 62
   123
100
AcDbTrace
 10
121.4777917273549
 20
295.9293404642702
 30
0.0
 11
121.8756603697554
 21
295.1971212431084
 31
0.0
 12
119.4800683850696
 22
294.3696249264879
 32
0.0
 13
119.4800683850696
 23
294.3696249264879
 33
0.0
  0
MTEXT
  5
4B7
330
4B1
100
AcDbEntity
  8
2
 62
     3
100
AcDbMText
 10
137.1503707149219
 20
306.8164335716588
 30
0.0
 40
3.0
 41
0.0
 71
     5
 72
     1
  1
\A1;\U+220570%%P0.5
 11
0.8786630653942083
 21
0.4774423708805631
 31
0.0
1001
ACAD
1000
MTEXTBEGIN
1070
    73
1070
     1
1070
    44
1040
1.0
1070
    74
1070
     0
1000
MTEXTEND
  0
POINT
  5
4B8
330
4B1
100
AcDbEntity
  8
DEFPOINTS
 62
     0
100
AcDbPoint
 10
119.4800683850696
 20
294.3696249264879
 30
0.0
  0
POINT
  5
4B9
330
4B1
100
AcDbEntity
  8
DEFPOINTS
 62
     0
100
AcDbPoint
 10
57.97365380747608
 20
260.948658964849
 30
0.0
  0
ENDBLK
  5
4BB
330
4B1
100
AcDbEntity
  8
0
100
AcDbBlockEnd
  0
BLOCK
  5
4C8
330
4BC
100
AcDbEntity
  8
0
100
AcDbBlockBegin
  2
*D57
 70
     1
 10
0.0
 20
0.0
 30
0.0
  3
*D57
  1

  0
LINE
  5
4BD
330
4BC
100
AcDbEntity
  8
DIM
 62
   123
100
AcDbLine
 10
181.0413804850468
 20
406.4418457550131
 30
0.0
 11
181.0413804850468
 21
418.2501790883464
 31
0.0
  0
LINE
  5
4BE
330
4BC
100
AcDbEntity
  8
DIM
 62
   123
100
AcDbLine
 10
183.0413804850468
 20
409.4418457550132
 30
0.0
 11
183.0413804850468
 21
418.2501790883464
 31
0.0
  0
LINE
  5
4BF
330
4BC
100
AcDbEntity
  8
DIM
 62
   123
100
AcDbLine
 10
185.5413804850468
 20
417.6501790883464
 30
0.0
 11
188.0413804850468
 21
417.6501790883464
 31
0.0
  0
LINE
  5
4C0
330
4BC
100
AcDbEntity
  8
DIM
 62
   123
100
AcDbLine
 10
178.5413804850468
 20
417.6501790883464
 30
0.0
 11
172.0413804850468
 21
417.6501790883464
 31
0.0
  0
LINE
  5
4C1
330
4BC
100
AcDbEntity
  8
DIM
 62
   123
100
AcDbLine
 10
183.0413804850468
 20
417.6501790883464
 30
0.0
 11
181.0413804850468
 21
417.6501790883464
 31
0.0
  0
SOLID
  5
4C2
330
4BC
100
AcDbEntity
  8
DIM
 62
   123
100
AcDbTrace
 10
185.5413804850468
 20
418.0668457550131
 30
0.0
 11
185.5413804850468
 21
417.2335124216798
 31
0.0
 12
183.0413804850468
 22
417.6501790883464
 32
0.0
 13
183.0413804850468
 23
417.6501790883464
 33
0.0
  0
SOLID
  5
4C3
330
4BC
100
AcDbEntity
  8
DIM
 62
   123
100
AcDbTrace
 10
178.5413804850468
 20
418.0668457550131
 30
0.0
 11
178.5413804850468
 21
417.2335124216798
 31
0.0
 12
181.0413804850468
 22
417.6501790883464
 32
0.0
 13
181.0413804850468
 23
417.6501790883464
 33
0.0
  0
MTEXT
  5
4C4
330
4BC
100
AcDbEntity
  8
DIM
 62
     3
100
AcDbMText
 10
174.0413804850468
 20
420.1501790883464
 30
0.0
 40
3.0
 41
0.0
 71
     5
 72
     1
  1
\A1;2
1001
ACAD
1000
MTEXTBEGIN
1070
    73
1070
     1
1070
    44
1040
1.0
1070
    74
1070
     0
1000
MTEXTEND
  0
POINT
  5
4C5
330
4BC
100
AcDbEntity
  8
DEFPOINTS
 62
     0
100
AcDbPoint
 10
181.0413804850468
 20
405.4418457550132
 30
0.0
  0
POINT
  5
4C6
330
4BC
100
AcDbEntity
  8
DEFPOINTS
 62
     0
100
AcDbPoint
 10
183.0413804850468
 20
408.4418457550132
 30
0.0
  0
POINT
  5
4C7
330
4BC
100
AcDbEntity
  8
DEFPOINTS
 62
     0
100
AcDbPoint
 10
183.0413804850468
 20
417.6501790883464
 30
0.0
  0
ENDBLK
  5
4C9
330
4BC
100
AcDbEntity
  8
0
100
AcDbBlockEnd
  0
ENDSEC
  0
SECTION
  2
ENTITIES
  0
DIMENSION
  5
9D
102
{ACAD_XDICTIONARY
360
9E
102
}
102
{ACAD_REACTORS
330
9F
102
}
330
2
100
AcDbEntity
  8
DIM
100
AcDbDimension
  2
*D31
 10
209.0413804850468
 20
428.3230223581642
 30
0.0
 11
195.0956662867029
 21
428.3230223581642
 31
0.0
 70
   160
  3
STANDARD
100
AcDbAlignedDimension
 13
183.0413804850468
 23
408.4418457550132
 33
0.0
 14
209.0413804850468
 24
408.4418457550132
 34
0.0
100
AcDbRotatedDimension
  0
LWPOLYLINE
  5
AF
330
2
100
AcDbEntity
  8
3
100
AcDbPolyline
 90
        4
 70
     1
 43
0.0
 10
90.5970940085972
 20
422.8330299146425
 10
93.89709400860011
 20
422.8330299146425
 10
93.89709400860011
 20
426.3330299146425
 10
90.5970940085972
 20
426.3330299146425
  0
LEADER
  5
B1
330
2
100
AcDbEntity
  8
0
100
AcDbLeader
  3
STANDARD
 73
     0
 75
     1
 40
3.0
 41
26.65178571428571
 76
     3
 10
122.1961784370814
 20
405.4384515075282
 30
0.0
 10
117.2927776043252
 20
430.3704366169845
 30
0.0
 10
114.7927776043252
 20
430.3704366169845
 30
0.0
340
B2
1001
ACAD
1000
DSTYLE
1002
{
1070
     5
1000

1070
    77
1070
     1
1070
   147
1040
1.0
1070
   342
1005
0
1002
}
  0
MTEXT
  5
B2
102
{ACAD_REACTORS
330
B1
102
}
330
2
100
AcDbEntity
  8
0
 62
     3
100
AcDbMText
 10
113.7927776043252
 20
431.3704366169845
 30
0.0
 40
3.0
 41
0.0
 71
     9
 72
     1
  1
4-%%c4.5 hole
1001
ACAD
1000
MTEXTBEGIN
1070
    73
1070
     1
1070
    44
1040
1.0
1070
    74
1070
     0
1000
MTEXTEND
  0
DIMENSION
  5
B3
330
2
100
AcDbEntity
  8
DIM
100
AcDbDimension
  2
*D30
 10
183.0413804850468
 20
428.3230223581642
 30
0.0
 11
175.8456662867029
 21
428.3230223581642
 31
0.0
 70
   160
  3
STANDARD
100
AcDbAlignedDimension
 13
170.5406710479492
 23
380.7618457550134
 33
0.0
 14
183.0413804850468
 24
408.4418457550132
 34
0.0
100
AcDbRotatedDimension
  0
DIMENSION
  5
C0
102
{ACAD_XDICTIONARY
360
C1
102
}
102
{ACAD_REACTORS
330
C2
102
}
330
2
100
AcDbEntity
  8
DIM
100
AcDbDimension
  2
*D29
 10
127.5453574215225
 20
422.0929435493185
 30
0.0
 11
97.21461866185928
 21
422.0929435493185
 31
0.0
 70
   160
  1
60
  3
STANDARD
100
AcDbAlignedDimension
 13
67.54535742152075
 23
404.4418457550132
 33
0.0
 14
127.5453574215225
 24
403.4418457550132
 34
0.0
100
AcDbRotatedDimension
  0
DIMENSION
  5
CF
102
{ACAD_XDICTIONARY
360
D0
102
}
102
{ACAD_REACTORS
330
D1
102
}
330
2
100
AcDbEntity
  8
0
 48
0.6
100
AcDbDimension
  2
*D34
 10
-14.42041217379759
 20
70.55016180370178
 30
0.0
 11
59.22846347870272
 21
118.2548567562485
 31
0.0
 70
   163
  1
<>%%p0.5
  3
STANDARD
100
AcDbDiametricDimension
 15
44.33146742574223
 25
108.6056035107695
 35
0.0
 40
0.0
  0
LINE
  5
DD
102
{ACAD_REACTORS
330
19E
102
}
330
2
100
AcDbEntity
  8
0
 48
0.6
100
AcDbLine
 10
-15.04447237402928
 20
114.5778826572334
 30
0.0
 11
-15.04447237402928
 21
64.57788265723343
 31
0.0
  0
ARC
  5
DE
330
2
100
AcDbEntity
  8
CEN
 48
0.6
100
AcDbCircle
 10
14.95552762596889
 20
89.57788265723342
 30
0.0
 40
35.0
100
AcDbArc
 50
199.5241366191914
 51
231.1865505975711
  0
LINE
  5
E1
102
{ACAD_REACTORS
330
E7
102
}
330
2
100
AcDbEntity
  8
0
  6
CENTER
 62
     1
 48
0.6
100
AcDbLine
 10
14.95552762597435
 20
89.57788265723342
 30
0.0
 11
28.2489362441338
 21
57.4847552811043
 31
0.0
  0
LINE
  5
E2
102
{ACAD_REACTORS
330
19E
102
}
330
2
100
AcDbEntity
  8
0
 48
0.6
100
AcDbLine
 10
44.95552762597071
 20
114.5778826572334
 30
0.0
 11
44.95552762597071
 21
64.57788265723343
 31
0.0
  0
LINE
  5
E3
102
{ACAD_REACTORS
330
E7
102
}
330
2
100
AcDbEntity
  8
CEN
 48
0.6
100
AcDbLine
 10
14.95552762596889
 20
54.57788265723229
 30
0.0
 11
14.95552762596889
 21
124.5778826572322
 31
0.0
  0
CIRCLE
  5
E4
330
2
100
AcDbEntity
  8
0
100
AcDbCircle
 10
14.95552762596889
 20
89.57788265723229
 30
0.0
 40
27.0
  0
DIMENSION
  5
E5
102
{ACAD_XDICTIONARY
360
E6
102
}
102
{ACAD_REACTORS
330
E7
102
}
330
2
100
AcDbEntity
  8
0
 48
0.6
100
AcDbDimension
  2
*D33
 10
14.95552762596889
 20
124.5778826572322
 30
0.0
 11
24.54092861879838
 21
41.38881769812972
 31
0.0
 70
    34
  1
<>
  3
STANDARD
100
AcDb2LineAngularDimension
 13
14.95552762597435
 23
89.57788265723342
 33
0.0
 14
28.2489362441338
 24
57.48475528110339
 34
0.0
 15
14.95552762596889
 25
54.57788265723229
 35
0.0
 16
21.73229857481055
 26
38.10319685158331
 36
0.0
1001
ACAD
1000
DSTYLE
1002
{
1070
   271
1070
     1
1070
   271
1070
     1
1070
   271
1070
     1
1070
   271
1070
     1
1070
   271
1070
     1
1070
   271
1070
     1
1070
   271
1070
     1
1070
   271
1070
     1
1070
   271
1070
     1
1070
   271
1070
     1
1070
   271
1070
     1
1070
   271
1070
     1
1070
   271
1070
     1
1070
   271
1070
     1
1070
   271
1070
     1
1070
   271
1070
     1
1070
   271
1070
     1
1070
   271
1070
     1
1070
   271
1070
     1
1070
   271
1070
     1
1070
   271
1070
     1
1070
   271
1070
     1
1070
   271
1070
     1
1070
   271
1070
     1
1070
   271
1070
     1
1070
   271
1070
     1
1070
   271
1070
     1
1070
   271
1070
     1
1070
   271
1070
     1
1070
   271
1070
     1
1070
   271
1070
     1
1070
   271
1070
     1
1070
   271
1070
     1
1070
   271
1070
     1
1070
   271
1070
     1
1070
   271
1070
     1
1070
   271
1070
     1
1070
   271
1070
     1
1070
   271
1070
     1
1070
   271
1070
     1
1070
   271
1070
     1
1070
   271
1070
     1
1070
   271
1070
     1
1070
   271
1070
     1
1070
   271
1070
     1
1070
   271
1070
     1
1070
   271
1070
     1
1070
   271
1070
     1
1070
   271
1070
     1
1070
   271
1070
     1
1070
   271
1070
     1
1070
   271
1070
     1
1070
   271
1070
     1
1070
   271
1070
     1
1070
   271
1070
     1
1070
   271
1070
     1
1070
   271
1070
     1
1070
   271
1070
     1
1070
   271
1070
     1
1070
   271
1070
     1
1070
   271
1070
     1
1070
   271
1070
     1
1070
   271
1070
     1
1070
   271
1070
     1
1070
   271
1070
     1
1070
   271
1070
     1
1070
   271
1070
     1
1070
   271
1070
     1
1070
   271
1070
     1
1070
   271
1070
     1
1070
   271
1070
     1
1070
   271
1070
     1
1070
   271
1070
     1
1070
   271
1070
     1
1070
   271
1070
     1
1070
   271
1070
     1
1070
   271
1070
     1
1070
   271
1070
     1
1070
   271
1070
     1
1070
   271
1070
     1
1070
   271
1070
     1
1070
   271
1070
     1
1070
   271
1070
     1
1070
   271
1070
     1
1070
   271
1070
     1
1070
   271
1070
     1
1070
   271
1070
     1
1070
   271
1070
     1
1070
   271
1070
     1
1070
   271
1070
     1
1070
   271
1070
     1
1070
   271
1070
     1
1070
   271
1070
     1
1070
   271
1070
     1
1070
   271
1070
     1
1070
   271
1070
     1
1070
   271
1070
     1
1070
   271
1070
     1
1070
   271
1070
     1
1002
}
  0
DIMENSION
  5
F6
330
2
100
AcDbEntity
  8
0
 48
0.6
100
AcDbDimension
  2
*D32
 10
307.0645522495287
 20
59.57788265723229
 30
0.0
 11
307.0645522495287
 21
89.57788265723229
 31
0.0
 70
   160
  1
%%C<>
  3
STANDARD
100
AcDbAlignedDimension
 13
290.4389902733619
 23
119.5778826572334
 33
0.0
 14
290.4389902733619
 24
59.57788265723229
 34
0.0
 50
90.0
100
AcDbRotatedDimension
  0
LINE
  5
103
330
2
100
AcDbEntity
  8
0
 48
0.6
100
AcDbLine
 10
182.5389902733604
 20
119.5778826572334
 30
0.0
 11
182.5389902733604
 21
59.57788265723138
 31
0.0
  0
LINE
  5
104
102
{ACAD_REACTORS
330
16D
102
}
330
2
100
AcDbEntity
  8
0
 48
0.6
100
AcDbLine
 10
176.4389902733637
 20
119.5778826572334
 30
0.0
 11
176.4389902733637
 21
59.57788265723138
 31
0.0
  0
LINE
  5
105
330
2
100
AcDbEntity
  8
0
100
AcDbLine
 10
255.2192123104741
 20
119.5778826572334
 30
0.0
 11
255.2192123104741
 21
59.57788265723343
 31
0.0
  0
LINE
  5
106
102
{ACAD_REACTORS
330
16D
102
}
330
2
100
AcDbEntity
  8
0
 48
0.6
100
AcDbLine
 10
291.4389902733637
 20
118.5778826572334
 30
0.0
 11
291.4389902733637
 21
60.57788265723343
 31
0.0
  0
LINE
  5
107
330
2
100
AcDbEntity
  8
0
 48
0.6
100
AcDbLine
 10
290.4389902733637
 20
119.5778826572334
 30
0.0
 11
290.4389902733637
 21
59.57788265723343
 31
0.0
  0
LINE
  5
108
102
{ACAD_REACTORS
330
21A
330
1D7
102
}
330
2
100
AcDbEntity
  8
0
100
AcDbLine
 10
136.4389902733637
 20
119.0778826572322
 30
0.0
 11
136.4389902733637
 21
60.07788265723229
 31
0.0
  0
MTEXT
  5
109
330
2
100
AcDbEntity
  8
DIM
100
AcDbMText
 10
280.5793830887887
 20
7.928383996982347
 30
0.0
 40
3.5
 41
0.0
 71
     5
 72
     1
  1
UL Style 3266 , AWG22
1001
ACAD
1000
MTEXTBEGIN
1070
    73
1070
     1
1070
    44
1040
1.0
1070
    74
1070
     0
1000
MTEXTEND
  0
MTEXT
  5
10A
330
2
100
AcDbEntity
  8
DIM
100
AcDbMText
 10
283.5145308787323
 20
16.30691345002946
 30
0.0
 40
3.5
 41
0.0
 71
     5
 72
     1
  1
BRAKE LEAD WIRE 300mm
1001
ACAD
1000
MTEXTBEGIN
1070
    73
1070
     1
1070
    44
1040
1.0
1070
    74
1070
     0
1000
MTEXTEND
  0
LINE
  5
10B
330
2
100
AcDbEntity
  8
0
 62
   123
 48
0.6
100
AcDbLine
 10
238.0439694164197
 20
12.20358961937722
 30
0.0
 11
320.6379573759877
 21
12.20358961937722
 31
0.0
  0
LINE
  5
10C
330
2
100
AcDbEntity
  8
0
100
AcDbLine
 10
290.4389902733619
 20
59.57788265723138
 30
0.0
 11
136.9389902733637
 21
59.57788265723138
 31
0.0
  0
MTEXT
  5
10D
330
2
100
AcDbEntity
  8
DIM
100
AcDbMText
 10
203.1135450015444
 20
-9.233606868653623
 30
0.0
 40
3.5
 41
0.0
 71
     5
 72
     1
  1
UL Style 3266 , AWG20
1001
ACAD
1000
MTEXTBEGIN
1070
    73
1070
     1
1070
    44
1040
1.0
1070
    74
1070
     0
1000
MTEXTEND
  0
LEADER
  5
10E
330
2
100
AcDbEntity
  8
0
 48
0.6
100
AcDbLeader
  3
STANDARD
 76
     2
 10
190.4707454499512
 20
42.30104290160148
 30
0.0
 10
166.8153175228399
 20
-5.302724093355436
 30
0.0
1001
ACAD
1000
DSTYLE
1002
{
1070
     5
1000

1070
    77
1070
     1
1070
   147
1040
1.0
1070
   342
1005
0
1002
}
  0
LEADER
  5
10F
330
2
100
AcDbEntity
  8
0
 48
0.6
100
AcDbLeader
  3
STANDARD
 76
     2
 10
271.5541815781325
 20
43.40859111484951
 30
0.0
 10
238.0439694164197
 20
12.20358961937722
 30
0.0
1001
ACAD
1000
DSTYLE
1002
{
1070
     5
1000

1070
    77
1070
     1
1070
   147
1040
1.0
1070
   342
1005
0
1002
}
  0
MTEXT
  5
110
330
2
100
AcDbEntity
  8
DIM
100
AcDbMText
 10
207.646008391488
 20
-1.927740960863729
 30
0.0
 40
3.5
 41
0.0
 71
     5
 72
     1
  1
MOTOR LEAD WIRE 300mm
1001
ACAD
1000
MTEXTBEGIN
1070
    73
1070
     1
1070
    44
1040
1.0
1070
    74
1070
     0
1000
MTEXTEND
  0
LINE
  5
111
330
2
100
AcDbEntity
  8
0
 62
   123
 48
0.6
100
AcDbLine
 10
166.8153175228399
 20
-5.302724093355436
 30
0.0
 11
245.6803753678213
 21
-5.302724093355436
 31
0.0
  0
LINE
  5
112
330
2
100
AcDbEntity
  8
0
 48
0.6
100
AcDbLine
 10
-10.0444723740311
 20
59.57788265723343
 30
0.0
 11
39.95552762597071
 21
59.57788265723343
 31
0.0
  0
ARC
  5
113
330
2
100
AcDbEntity
  8
0
 48
0.6
100
AcDbCircle
 10
-10.0444723740311
 20
64.57788265723343
 30
0.0
 40
5.0
100
AcDbArc
 50
180.0
 51
270.0
  0
LINE
  5
114
330
2
100
AcDbEntity
  8
CEN
 48
0.6
100
AcDbLine
 10
-6.788005895516107
 20
67.83434913574729
 30
0.0
 11
-12.79841353560186
 21
61.8239414956613
 31
0.0
  0
CIRCLE
  5
115
330
2
100
AcDbEntity
  8
0
 48
0.6
100
AcDbCircle
 10
-9.793209715557168
 20
64.82914531570327
 30
0.0
 40
2.25
  0
ARC
  5
116
330
2
100
AcDbEntity
  8
0
 48
0.6
100
AcDbCircle
 10
60.99845237747832
 20
73.8884353057731
 30
0.0
 40
33.95579199999999
100
AcDbArc
 50
204.9259499999998
 51
236.3981230000006
  0
ARC
  5
117
330
2
100
AcDbEntity
  8
0
 48
0.6
100
AcDbCircle
 10
60.99845237747832
 20
73.8884353057731
 30
0.0
 40
39.15579199999999
100
AcDbArc
 50
201.4369589999971
 51
235.2486590000054
  0
ARC
  5
118
330
2
100
AcDbEntity
  8
0
 48
0.6
100
AcDbCircle
 10
60.99845237747832
 20
73.8884353057731
 30
0.0
 40
36.555792
100
AcDbArc
 50
203.0460947298102
 51
236.3176429999981
  0
ARC
  5
119
330
2
100
AcDbEntity
  8
0
 48
0.6
100
AcDbCircle
 10
60.99845237747832
 20
73.8884353057731
 30
0.0
 40
35.255792
100
AcDbArc
 50
236.3564240000014
 51
242.0987460000029
  0
ARC
  5
11A
330
2
100
AcDbEntity
  8
0
 48
0.6
100
AcDbCircle
 10
40.78827537747566
 20
44.21668730577266
 30
0.0
 40
0.7499080000000001
100
AcDbArc
 50
265.1628950000044
 51
25.33442299999946
  0
ARC
  5
11B
330
2
100
AcDbEntity
  8
0
 48
0.6
100
AcDbCircle
 10
42.14384737747787
 20
44.85845930577329
 30
0.0
 40
0.7499080000000001
100
AcDbArc
 50
85.16289500000455
 51
205.3344229999993
  0
ARC
  5
11C
330
2
100
AcDbEntity
  8
0
 48
0.6
100
AcDbCircle
 10
40.09783137747581
 20
43.10573230577256
 30
0.0
 40
0.7499080000000001
100
AcDbArc
 50
85.16289500000455
 51
205.3344229999993
  0
ARC
  5
11D
330
2
100
AcDbEntity
  8
0
 48
0.6
100
AcDbCircle
 10
43.25752437747723
 20
41.18262130577249
 30
0.0
 40
0.7499080000000001
100
AcDbArc
 50
272.0129819999954
 51
32.18451000000101
  0
ARC
  5
11E
330
2
100
AcDbEntity
  8
0
 48
0.6
100
AcDbCircle
 10
44.52687537747806
 20
41.98149430577268
 30
0.0
 40
0.7499080000000001
100
AcDbArc
 50
92.01298199999559
 51
212.184510000001
  0
ARC
  5
11F
330
2
100
AcDbEntity
  8
0
 48
0.6
100
AcDbCircle
 10
38.74225837747871
 20
42.46395930577318
 30
0.0
 40
0.7499080000000001
100
AcDbArc
 50
265.1628950000044
 51
25.33442299999946
  0
ARC
  5
120
330
2
100
AcDbEntity
  8
0
 48
0.6
100
AcDbCircle
 10
60.99845237747832
 20
73.8884353057731
 30
0.0
 40
37.855792
100
AcDbArc
 50
235.2486590000054
 51
242.0987460000029
  0
LINE
  5
121
330
2
100
AcDbEntity
  8
CEN
 48
0.6
100
AcDbLine
 10
36.69906114745754
 20
67.83434913574729
 30
0.0
 11
42.7094687875433
 21
61.8239414956613
 31
0.0
  0
ARC
  5
122
330
2
100
AcDbEntity
  8
CEN
 48
0.6
100
AcDbCircle
 10
14.95552762596889
 20
89.57788265723342
 30
0.0
 40
35.0
100
AcDbArc
 50
308.0383738498413
 51
321.9616261501601
  0
ARC
  5
123
330
2
100
AcDbEntity
  8
0
 48
0.6
100
AcDbCircle
 10
39.95552762597071
 20
64.57788265723343
 30
0.0
 40
5.0
100
AcDbArc
 50
270.0
 51
0.0
  0
CIRCLE
  5
124
330
2
100
AcDbEntity
  8
0
 48
0.6
100
AcDbCircle
 10
39.70426496750042
 20
64.82914531570327
 30
0.0
 40
2.25
  0
ARC
  5
125
330
2
100
AcDbEntity
  8
0
 48
0.6
100
AcDbCircle
 10
224.7417122733622
 20
58.48923665723351
 30
0.0
 40
39.15579199999999
100
AcDbArc
 50
179.8702869999971
 51
212.7486590000019
  0
ARC
  5
126
330
2
100
AcDbEntity
  8
0
 48
0.6
100
AcDbCircle
 10
224.7417122733622
 20
58.48923665723351
 30
0.0
 40
33.95579199999999
100
AcDbArc
 50
179.8504230000004
 51
213.8981229999992
  0
ARC
  5
127
330
2
100
AcDbEntity
  8
0
 48
0.6
100
AcDbCircle
 10
224.7417122733622
 20
58.48923665723351
 30
0.0
 40
36.555792
100
AcDbArc
 50
179.8610604128478
 51
213.8176429999978
  0
ARC
  5
128
330
2
100
AcDbEntity
  8
0
 48
0.6
100
AcDbCircle
 10
305.9369539981616
 20
58.48923665723351
 30
0.0
 40
33.95579199999999
100
AcDbArc
 50
179.8504230000004
 51
213.8981229999992
  0
ARC
  5
129
330
2
100
AcDbEntity
  8
0
 48
0.6
100
AcDbCircle
 10
305.9369539981616
 20
58.48923665723351
 30
0.0
 40
39.15579199999999
100
AcDbArc
 50
179.8702869999971
 51
212.7486590000019
  0
ARC
  5
12A
330
2
100
AcDbEntity
  8
0
 48
0.6
100
AcDbCircle
 10
305.9369539981616
 20
58.48923665723351
 30
0.0
 40
36.555792
100
AcDbArc
 50
179.8610604128478
 51
213.8176429999978
  0
ARC
  5
12B
330
2
100
AcDbEntity
  8
0
 48
0.6
100
AcDbCircle
 10
197.314640446455
 20
35.27692990210835
 30
0.0
 40
0.7499080000000001
100
AcDbArc
 50
69.51298200000024
 51
189.6845099999992
  0
ARC
  5
12C
330
2
100
AcDbEntity
  8
0
 48
0.6
100
AcDbCircle
 10
224.7426514464568
 20
58.45169990210752
 30
0.0
 40
35.255792
100
AcDbArc
 50
213.8564239999994
 51
219.5987459999966
  0
ARC
  5
12D
330
2
100
AcDbEntity
  8
0
 48
0.6
100
AcDbCircle
 10
193.6520252733607
 20
38.04804865723236
 30
0.0
 40
0.7499080000000001
100
AcDbArc
 50
62.66289500000094
 51
182.8344229999968
  0
ARC
  5
12E
330
2
100
AcDbEntity
  8
0
 48
0.6
100
AcDbCircle
 10
192.1540442733621
 20
37.97388265723225
 30
0.0
 40
0.7499080000000001
100
AcDbArc
 50
242.6628950000009
 51
2.834422999996808
  0
ARC
  5
12F
330
2
100
AcDbEntity
  8
0
 48
0.6
100
AcDbCircle
 10
196.213038273363
 20
38.88438165723346
 30
0.0
 40
0.7499080000000001
100
AcDbArc
 50
62.66289500000094
 51
182.8344229999968
  0
ARC
  5
130
330
2
100
AcDbEntity
  8
0
 48
0.6
100
AcDbCircle
 10
194.715056273364
 20
38.81021565723358
 30
0.0
 40
0.7499080000000001
100
AcDbArc
 50
242.6628950000009
 51
2.834422999996808
  0
ARC
  5
131
330
2
100
AcDbEntity
  8
0
 48
0.6
100
AcDbCircle
 10
273.3492859981633
 20
37.97388265723225
 30
0.0
 40
0.7499080000000001
100
AcDbArc
 50
242.6628950000009
 51
2.834422999996808
  0
ARC
  5
132
330
2
100
AcDbEntity
  8
0
 48
0.6
100
AcDbCircle
 10
274.8472669981638
 20
38.04804865723236
 30
0.0
 40
0.7499080000000001
100
AcDbArc
 50
62.66289500000094
 51
182.8344229999968
  0
ARC
  5
133
330
2
100
AcDbEntity
  8
0
 48
0.6
100
AcDbCircle
 10
275.9102979981617
 20
38.81021565723358
 30
0.0
 40
0.7499080000000001
100
AcDbArc
 50
242.6628950000009
 51
2.834422999996808
  0
ARC
  5
134
330
2
100
AcDbEntity
  8
0
 48
0.6
100
AcDbCircle
 10
277.4082799981643
 20
38.88438165723346
 30
0.0
 40
0.7499080000000001
100
AcDbArc
 50
62.66289500000094
 51
182.8344229999968
  0
ARC
  5
135
330
2
100
AcDbEntity
  8
0
 48
0.6
100
AcDbCircle
 10
192.9389902733655
 20
59.0778826572323
 30
0.0
 40
0.5
100
AcDbArc
 50
270.0
 51
0.0
  0
LINE
  5
136
330
2
100
AcDbEntity
  8
0
 48
0.6
100
AcDbLine
 10
192.9389902733655
 20
58.57788265723229
 30
0.0
 11
183.9389902733637
 21
58.57788265723229
 31
0.0
  0
LINE
  5
137
330
2
100
AcDbEntity
  8
0
 48
0.6
100
AcDbLine
 10
183.4389902733619
 20
59.57788265723229
 30
0.0
 11
183.4389902733619
 21
59.0778826572323
 31
0.0
  0
ARC
  5
138
330
2
100
AcDbEntity
  8
0
 48
0.6
100
AcDbCircle
 10
183.9389902733637
 20
59.0778826572323
 30
0.0
 40
0.5
100
AcDbArc
 50
180.0
 51
270.0
  0
LINE
  5
139
330
2
100
AcDbEntity
  8
0
 48
0.6
100
AcDbLine
 10
193.4389902733637
 20
59.57788265723229
 30
0.0
 11
193.4389902733637
 21
59.0778826572323
 31
0.0
  0
LINE
  5
13A
330
2
100
AcDbEntity
  8
0
 48
0.6
100
AcDbLine
 10
183.4389902733619
 20
68.67914531570341
 30
0.0
 11
183.4389902733619
 21
60.97914531570336
 31
0.0
  0
LINE
  5
13B
330
2
100
AcDbEntity
  8
0
 48
0.6
100
AcDbLine
 10
182.5389902733604
 20
60.97914531570336
 30
0.0
 11
183.4389902733619
 21
60.97914531570336
 31
0.0
  0
LINE
  5
13C
330
2
100
AcDbEntity
  8
0
 48
0.6
100
AcDbLine
 10
176.4389902733637
 20
59.57788265723138
 30
0.0
 11
182.5389902733604
 21
59.57788265723138
 31
0.0
  0
LINE
  5
13D
330
2
100
AcDbEntity
  8
0
 48
0.6
100
AcDbLine
 10
182.5389902733604
 20
68.67914531570341
 30
0.0
 11
183.4389902733619
 21
68.67914531570341
 31
0.0
  0
LINE
  5
13E
330
2
100
AcDbEntity
  8
0
 48
0.6
100
AcDbLine
 10
274.134231998165
 20
58.57788265723229
 30
0.0
 11
265.1342319981649
 21
58.57788265723229
 31
0.0
  0
ARC
  5
13F
330
2
100
AcDbEntity
  8
0
 48
0.6
100
AcDbCircle
 10
265.1342319981649
 20
59.0778826572323
 30
0.0
 40
0.5
100
AcDbArc
 50
180.0
 51
270.0
  0
LINE
  5
140
330
2
100
AcDbEntity
  8
0
 48
0.6
100
AcDbLine
 10
264.6342319981613
 20
59.57788265723229
 30
0.0
 11
264.6342319981613
 21
59.0778826572323
 31
0.0
  0
ARC
  5
141
330
2
100
AcDbEntity
  8
0
 48
0.6
100
AcDbCircle
 10
274.134231998165
 20
59.0778826572323
 30
0.0
 40
0.5
100
AcDbArc
 50
270.0
 51
0.0
  0
LINE
  5
142
330
2
100
AcDbEntity
  8
0
 48
0.6
100
AcDbLine
 10
274.6342319981631
 20
59.57788265723229
 30
0.0
 11
274.6342319981631
 21
59.0778826572323
 31
0.0
  0
ARC
  5
143
330
2
100
AcDbEntity
  8
0
 48
0.6
100
AcDbCircle
 10
224.7426514464568
 20
58.45169990210752
 30
0.0
 40
37.855792
100
AcDbArc
 50
212.7486590000019
 51
219.5987459999966
  0
ARC
  5
144
330
2
100
AcDbEntity
  8
0
 48
0.6
100
AcDbCircle
 10
195.8361984464572
 20
35.02462690210632
 30
0.0
 40
0.7499080000000001
100
AcDbArc
 50
249.5129820000002
 51
9.684509999999278
  0
ARC
  5
145
330
2
100
AcDbEntity
  8
0
100
AcDbCircle
 10
136.9389902733637
 20
60.07788265723229
 30
0.0
 40
0.5
100
AcDbArc
 50
180.0
 51
270.0
  0
LINE
  5
146
330
2
100
AcDbEntity
  8
0
 48
0.6
100
AcDbLine
 10
291.4389902733637
 20
60.57788265723343
 30
0.0
 11
290.4389902733637
 21
59.57788265723343
 31
0.0
  0
DIMENSION
  5
147
102
{ACAD_XDICTIONARY
360
148
102
}
102
{ACAD_REACTORS
330
149
102
}
330
2
100
AcDbEntity
  8
0
100
AcDbDimension
  2
*D36
 10
215.8284242656737
 20
234.8631275640443
 30
0.0
 11
199.8284242656736
 21
237.3631275640443
 31
0.0
 70
    32
  3
STANDARD
100
AcDbAlignedDimension
 13
183.8284242656736
 23
283.6591419456695
 33
0.0
 14
215.8284242656737
 24
248.1591419456695
 34
0.0
 50
180.0
100
AcDbRotatedDimension
  0
LINE
  5
156
330
2
100
AcDbEntity
  8
0
  6
CENTER
 62
     1
 48
0.4
100
AcDbLine
 10
88.72686109627466
 20
311.7496995208223
 30
0.0
 11
88.72686109627466
 21
243.5685843705202
 31
0.0
  0
ARC
  5
157
102
{ACAD_REACTORS
330
15C
102
}
330
2
100
AcDbEntity
  8
0
 48
0.6
100
AcDbCircle
 10
63.72686109627466
 20
252.6591419456694
 30
0.0
 40
5.0
100
AcDbArc
 50
180.0
 51
270.0
  0
ARC
  5
158
330
2
100
AcDbEntity
  8
0
 48
0.6
100
AcDbCircle
 10
113.7268610962746
 20
252.6591419456694
 30
0.0
 40
5.0
100
AcDbArc
 50
270.0
 51
0.0
  0
ARC
  5
159
330
2
100
AcDbEntity
  8
CEN
 48
0.6
100
AcDbCircle
 10
88.72686109621463
 20
277.6591419456233
 30
0.0
 40
34.99999999992732
100
AcDbArc
 50
205.5917490017661
 51
231.9616261501888
  0
DIMENSION
  5
15A
102
{ACAD_XDICTIONARY
360
15B
102
}
102
{ACAD_REACTORS
330
15C
102
}
330
2
100
AcDbEntity
  8
0
 48
0.6
100
AcDbDimension
  2
*D35
 10
118.7268610962746
 20
234.6308210252843
 30
0.0
 11
90.77160752511735
 21
234.6308210252843
 31
0.0
 70
   160
  3
STANDARD
100
AcDbAlignedDimension
 13
58.72686109627466
 23
252.6591419456694
 33
0.0
 14
118.7268610962746
 24
252.6591419456694
 34
0.0
100
AcDbRotatedDimension
  0
LINE
  5
169
102
{ACAD_REACTORS
330
244
330
149
102
}
330
2
100
AcDbEntity
  8
0
100
AcDbLine
 10
215.8284242656737
 20
307.1591419456694
 30
0.0
 11
215.8284242656737
 21
248.1591419456695
 31
0.0
  0
LINE
  5
16A
102
{ACAD_REACTORS
330
244
102
}
330
2
100
AcDbEntity
  8
0
100
AcDbLine
 10
255.8284242656755
 20
307.1591419456694
 30
0.0
 11
255.8284242656755
 21
248.1591419456695
 31
0.0
  0
DIMENSION
  5
16B
102
{ACAD_XDICTIONARY
360
16C
102
}
102
{ACAD_REACTORS
330
16D
102
}
330
2
100
AcDbEntity
  8
0
100
AcDbDimension
  2
*D37
 10
291.4389902733637
 20
142.3996455486253
 30
0.0
 11
233.4253158323081
 21
142.3996455486253
 31
0.0
 70
   160
  3
STANDARD
100
AcDbAlignedDimension
 13
176.4389902733637
 23
119.5778826572334
 33
0.0
 14
291.4389902733637
 24
118.5778826572334
 34
0.0
100
AcDbRotatedDimension
  0
LINE
  5
17A
330
2
100
AcDbEntity
  8
0
 48
0.6
100
AcDbLine
 10
290.4389902733619
 20
119.5778826572334
 30
0.0
 11
136.9389902733637
 21
119.5778826572343
 31
0.0
  0
LINE
  5
17B
330
2
100
AcDbEntity
  8
CEN
 48
0.6
100
AcDbLine
 10
101.7142482546842
 20
89.57788265723229
 30
0.0
 11
297.5253301838765
 21
89.57788265723229
 31
0.0
  0
DIMENSION
  5
17C
102
{ACAD_XDICTIONARY
360
17D
102
}
102
{ACAD_REACTORS
330
17E
102
}
330
2
100
AcDbEntity
  8
0
100
AcDbDimension
  2
*D48
 10
91.56618776379039
 20
95.57788265723139
 30
0.0
 11
91.56618776379037
 21
115.2330594041534
 31
0.0
 70
   160
  3
STANDARD
100
AcDbAlignedDimension
 13
104.4389902733637
 23
102.5778826572313
 33
0.0
 14
104.4389902733637
 24
95.57788265723138
 34
0.0
 50
90.0
100
AcDbRotatedDimension
  0
DIMENSION
  5
18D
102
{ACAD_XDICTIONARY
360
18E
102
}
102
{ACAD_REACTORS
330
18F
102
}
330
2
100
AcDbEntity
  8
DIM
100
AcDbDimension
  2
*D47
 10
73.13780869622497
 20
89.5778826572323
 30
0.0
 11
73.13780869622497
 21
94.57788265723047
 31
0.0
 70
   160
  3
STANDARD
100
AcDbAlignedDimension
 13
100.5408514721366
 23
99.5778826572323
 33
0.0
 14
101.7142482546842
 24
89.57788265723229
 34
0.0
 50
90.0
100
AcDbRotatedDimension
  0
DIMENSION
  5
19C
102
{ACAD_XDICTIONARY
360
19D
102
}
102
{ACAD_REACTORS
330
19E
102
}
330
2
100
AcDbEntity
  8
0
 48
0.6
100
AcDbDimension
  2
*D46
 10
44.95552762597071
 20
133.2289804515383
 30
0.0
 11
14.62478886631106
 21
133.2289804515383
 31
0.0
 70
   160
  1
60
  3
STANDARD
100
AcDbAlignedDimension
 13
-15.04447237402928
 23
114.5778826572334
 33
0.0
 14
44.95552762597071
 24
114.5778826572334
 34
0.0
100
AcDbRotatedDimension
  0
LINE
  5
1AB
330
2
100
AcDbEntity
  8
0
 48
0.6
100
AcDbLine
 10
-10.0444723740311
 20
119.5778826572334
 30
0.0
 11
39.95552762597071
 21
119.5778826572334
 31
0.0
  0
LINE
  5
1AC
330
2
100
AcDbEntity
  8
CEN
 48
0.6
100
AcDbLine
 10
-20.04447237402928
 20
89.57788265723229
 30
0.0
 11
49.95552762597071
 21
89.57788265723229
 31
0.0
  0
LINE
  5
1AD
330
2
100
AcDbEntity
  8
CEN
 48
0.6
100
AcDbLine
 10
-6.788005895516107
 20
111.3214161787193
 30
0.0
 11
-12.79841353560186
 21
117.3318238188053
 31
0.0
  0
CIRCLE
  5
1AE
330
2
100
AcDbEntity
  8
0
 48
0.6
100
AcDbCircle
 10
-9.793209715557168
 20
114.3266199987624
 30
0.0
 40
2.25
  0
ARC
  5
1AF
330
2
100
AcDbEntity
  8
0
 48
0.6
100
AcDbCircle
 10
-10.0444723740311
 20
114.5778826572334
 30
0.0
 40
5.0
100
AcDbArc
 50
90.0
 51
180.0
  0
ARC
  5
1B0
330
2
100
AcDbEntity
  8
CEN
 48
0.6
100
AcDbCircle
 10
14.95552762596889
 20
89.57788265723342
 30
0.0
 40
35.0
100
AcDbArc
 50
128.038373849838
 51
141.9616261501576
  0
LWPOLYLINE
  5
1B1
330
2
100
AcDbEntity
  8
3
 48
0.6
100
AcDbPolyline
 90
        4
 70
     1
 43
0.0
 10
8.007264213052621
 20
133.9690668168623
 10
11.30726421305007
 20
133.9690668168623
 10
11.30726421305007
 20
137.4690668168623
 10
8.007264213052621
 20
137.4690668168623
  0
ARC
  5
1B2
330
2
100
AcDbEntity
  8
0
 48
0.6
100
AcDbCircle
 10
39.95552762597071
 20
114.5778826572334
 30
0.0
 40
5.0
100
AcDbArc
 50
0.0
 51
90.0
  0
ARC
  5
1B3
102
{ACAD_REACTORS
330
D1
102
}
330
2
100
AcDbEntity
  8
CEN
 48
0.6
100
AcDbCircle
 10
14.95552762596889
 20
89.57788265723342
 30
0.0
 40
35.0
100
AcDbArc
 50
21.71935007261406
 51
51.18655059757116
  0
LINE
  5
1B4
330
2
100
AcDbEntity
  8
CEN
 48
0.6
100
AcDbLine
 10
36.69906114745754
 20
111.3214161787193
 30
0.0
 11
42.7094687875433
 21
117.3318238188053
 31
0.0
  0
CIRCLE
  5
1B5
330
2
100
AcDbEntity
  8
0
 48
0.6
100
AcDbCircle
 10
39.70426496750042
 20
114.3266199987624
 30
0.0
 40
2.25
  0
CIRCLE
  5
1B6
330
2
100
AcDbEntity
  8
0
100
AcDbCircle
 10
14.95552762597435
 20
99.57788265723753
 30
0.0
 40
4.5
  0
LINE
  5
1B7
330
2
100
AcDbEntity
  8
CEN
  6
CENTER
 48
0.6
100
AcDbLine
 10
27.76467258364027
 20
99.57788265723753
 30
0.0
 11
1.721420024117833
 21
99.57788265723753
 31
0.0
  0
LINE
  5
1B8
330
2
100
AcDbEntity
  8
0
100
AcDbLine
 10
11.60142565972273
 20
102.5778826572375
 30
0.0
 11
18.30962959222233
 21
102.5778826572375
 31
0.0
  0
CIRCLE
  5
1B9
330
2
100
AcDbEntity
  8
0
100
AcDbCircle
 10
14.95552762596889
 20
99.57788265723753
 30
0.0
 40
12.0
  0
LINE
  5
1BA
102
{ACAD_REACTORS
330
17E
330
21A
102
}
330
2
100
AcDbEntity
  8
0
100
AcDbLine
 10
104.4389902733637
 20
102.5778826572313
 30
0.0
 11
104.4389902733637
 21
95.57788265723138
 31
0.0
  0
LEADER
  5
1BB
330
2
100
AcDbEntity
  8
0
100
AcDbLeader
  3
STANDARD
 73
     0
 75
     1
 40
3.0
 41
26.65178571428571
 76
     3
 10
39.6846736214211
 20
116.5765347036253
 30
0.0
 10
34.78140612045172
 20
141.5078418701064
 30
0.0
 10
32.28140612045172
 20
141.5078418701064
 30
0.0
340
1BC
1001
ACAD
1000
DSTYLE
1002
{
1070
     5
1000

1070
    77
1070
     1
1070
   147
1040
1.0
1070
   342
1005
0
1002
}
  0
MTEXT
  5
1BC
102
{ACAD_REACTORS
330
1BB
102
}
330
2
100
AcDbEntity
  8
0
 62
     3
100
AcDbMText
 10
31.28140612045172
 20
142.5078418701064
 30
0.0
 40
3.0
 41
0.0
 71
     9
 72
     1
  1
4-%%c4.5 hole
1001
ACAD
1000
MTEXTBEGIN
1070
    73
1070
     1
1070
    44
1040
1.0
1070
    74
1070
     0
1000
MTEXTEND
  0
LINE
  5
1BD
330
2
100
AcDbEntity
  8
0
 48
0.6
100
AcDbLine
 10
183.4389902733619
 20
110.4766199987623
 30
0.0
 11
183.4389902733619
 21
118.1766199987623
 31
0.0
  0
LINE
  5
1BE
330
2
100
AcDbEntity
  8
0
 48
0.6
100
AcDbLine
 10
182.5389902733604
 20
110.4766199987623
 30
0.0
 11
183.4389902733619
 21
110.4766199987623
 31
0.0
  0
DIMENSION
  5
1BF
102
{ACAD_XDICTIONARY
360
1C0
102
}
102
{ACAD_REACTORS
330
1C1
102
}
330
2
100
AcDbEntity
  8
0
 48
0.6
100
AcDbDimension
  2
*D45
 10
183.4389902733619
 20
130.2290850741173
 30
0.0
 11
179.9389902733628
 21
130.2290850741173
 31
0.0
 70
   160
  3
STANDARD
100
AcDbAlignedDimension
 13
176.4389902733637
 23
119.5778826572334
 33
0.0
 14
183.4389902733619
 24
118.1766199987623
 34
0.0
100
AcDbRotatedDimension
  0
LINE
  5
1CE
102
{ACAD_REACTORS
330
1C1
102
}
330
2
100
AcDbEntity
  8
0
 48
0.6
100
AcDbLine
 10
182.5389902733604
 20
118.1766199987623
 30
0.0
 11
183.4389902733619
 21
118.1766199987623
 31
0.0
  0
LINE
  5
1CF
330
2
100
AcDbEntity
  8
0
 48
0.6
100
AcDbLine
 10
176.4389902733637
 20
119.5778826572334
 30
0.0
 11
182.5389902733604
 21
119.5778826572334
 31
0.0
  0
CIRCLE
  5
1D0
330
2
100
AcDbEntity
  8
0
100
AcDbCircle
 10
257.3670475788148
 20
89.57606325919028
 30
0.0
 40
2.147836038934201
  0
LINE
  5
1D1
330
2
100
AcDbEntity
  8
0
100
AcDbLine
 10
256.5120245671096
 20
90.43108627089736
 30
0.0
 11
258.2184317944375
 21
88.72467904356744
 31
0.0
  0
LINE
  5
1D2
330
2
100
AcDbEntity
  8
0
100
AcDbLine
 10
258.2220705905238
 20
90.43108627089736
 30
0.0
 11
256.5156633631922
 21
88.72467904356744
 31
0.0
  0
LINE
  5
1D3
102
{ACAD_REACTORS
330
209
102
}
330
2
100
AcDbEntity
  8
0
100
AcDbLine
 10
133.4389902733637
 20
103.5778826572313
 30
0.0
 11
116.4389902733637
 21
103.5778826572313
 31
0.0
  0
LINE
  5
1D4
102
{ACAD_REACTORS
330
22C
102
}
330
2
100
AcDbEntity
  8
0
100
AcDbLine
 10
116.4389902733637
 20
103.5778826572313
 30
0.0
 11
116.4389902733637
 21
102.5778826572313
 31
0.0
  0
DIMENSION
  5
1D5
102
{ACAD_XDICTIONARY
360
1D6
102
}
102
{ACAD_REACTORS
330
1D7
102
}
330
2
100
AcDbEntity
  8
0
100
AcDbDimension
  2
*D44
 10
136.4389902733637
 20
129.8284866660164
 30
0.0
 11
126.4389902733637
 21
129.8284866660164
 31
0.0
 70
   160
  3
STANDARD
100
AcDbAlignedDimension
 13
133.4389902733637
 23
111.0778826572313
 33
0.0
 14
136.4389902733637
 24
119.0778826572322
 34
0.0
100
AcDbRotatedDimension
  0
LINE
  5
1E6
330
2
100
AcDbEntity
  8
0
 48
0.6
100
AcDbLine
 10
176.4389902733637
 20
92.57788265725322
 30
0.0
 11
176.4389902733637
 21
86.57788265721114
 31
0.0
  0
LINE
  5
1E7
330
2
100
AcDbEntity
  8
0
100
AcDbLine
 10
133.9389902733637
 20
111.5778826572313
 30
0.0
 11
136.4389902733637
 21
111.5778826572313
 31
0.0
  0
ARC
  5
1E8
330
2
100
AcDbEntity
  8
0
100
AcDbCircle
 10
136.9389902733637
 20
119.0778826572322
 30
0.0
 40
0.5
100
AcDbArc
 50
90.0
 51
180.0
  0
ARC
  5
1E9
330
2
100
AcDbEntity
  8
0
100
AcDbCircle
 10
133.9389902733637
 20
111.0778826572313
 30
0.0
 40
0.5
100
AcDbArc
 50
90.0
 51
180.0
  0
LINE
  5
1EA
330
2
100
AcDbEntity
  8
0
100
AcDbLine
 10
133.9389902733637
 20
87.57788265723139
 30
0.0
 11
136.4389902733637
 21
87.57788265723139
 31
0.0
  0
ARC
  5
1EB
330
2
100
AcDbEntity
  8
0
100
AcDbCircle
 10
133.9389902733637
 20
88.07788265723138
 30
0.0
 40
0.5
100
AcDbArc
 50
180.0
 51
270.0
  0
LINE
  5
1EC
102
{ACAD_REACTORS
330
1D7
102
}
330
2
100
AcDbEntity
  8
0
100
AcDbLine
 10
133.4389902733637
 20
111.0778826572313
 30
0.0
 11
133.4389902733637
 21
88.07788265723138
 31
0.0
  0
DIMENSION
  5
1ED
330
2
100
AcDbEntity
  8
DIM
100
AcDbDimension
  2
*D43
 10
136.4389902733637
 20
142.3996455486253
 30
0.0
 11
155.9253158323099
 21
142.3996455486253
 31
0.0
 70
   160
  1
L
  3
STANDARD
100
AcDbAlignedDimension
 13
176.4389902733637
 23
119.5778826572323
 33
0.0
 14
136.4389902733637
 24
119.0778826572322
 34
0.0
 50
180.0
100
AcDbRotatedDimension
  0
DIMENSION
  5
1FA
330
2
100
AcDbEntity
  8
DIM
100
AcDbDimension
  2
*D42
 10
63.40034444175035
 20
87.57788265723231
 30
0.0
 11
60.90034444175033
 21
99.57788265723232
 31
0.0
 70
    32
  1
%%c<>
  3
STANDARD
100
AcDbAlignedDimension
 13
133.9389902733637
 23
111.5778826572322
 33
0.0
 14
133.9389902733637
 24
87.57788265723229
 34
0.0
 50
90.0
100
AcDbRotatedDimension
  0
DIMENSION
  5
207
102
{ACAD_XDICTIONARY
360
208
102
}
102
{ACAD_REACTORS
330
209
102
}
330
2
100
AcDbEntity
  8
DIM
100
AcDbDimension
  2
*D41
 10
82.04789452223122
 20
103.5778826572323
 30
0.0
 11
82.04789452223122
 21
129.5384026334993
 31
0.0
 70
   160
  1
\A1;{\f??|b0|i0|c0|p49;%%C8\H0.7x;\S+0^ -0.015;\H1.429x;(h7)}
  3
STANDARD
100
AcDbAlignedDimension
 13
104.4389902733637
 23
95.5778826572323
 33
0.0
 14
116.4389902733637
 24
103.5778826572322
 34
0.0
 50
90.0
100
AcDbRotatedDimension
  0
DIMENSION
  5
218
102
{ACAD_XDICTIONARY
360
219
102
}
102
{ACAD_REACTORS
330
21A
102
}
330
2
100
AcDbEntity
  8
0
100
AcDbDimension
  2
*D40
 10
136.4389902733637
 20
142.3996455486244
 30
0.0
 11
119.9253158323081
 21
142.3996455486244
 31
0.0
 70
   160
  3
STANDARD
100
AcDbAlignedDimension
 13
104.4389902733637
 23
102.5778826572313
 33
0.0
 14
136.4389902733637
 24
119.0778826572322
 34
0.0
100
AcDbRotatedDimension
  0
LINE
  5
227
102
{ACAD_REACTORS
330
18F
102
}
330
2
100
AcDbEntity
  8
CEN
 48
0.6
100
AcDbLine
 10
144.2974479767217
 20
99.57788265723138
 30
0.0
 11
100.5408514721366
 21
99.57788265723138
 31
0.0
  0
LINE
  5
228
330
2
100
AcDbEntity
  8
0
100
AcDbLine
 10
133.4389902733637
 20
95.57788265723138
 30
0.0
 11
104.4389902733637
 21
95.57788265723138
 31
0.0
  0
LINE
  5
229
102
{ACAD_REACTORS
330
22C
102
}
330
2
100
AcDbEntity
  8
0
100
AcDbLine
 10
116.4389902733637
 20
102.5778826572313
 30
0.0
 11
104.4389902733637
 21
102.5778826572313
 31
0.0
  0
DIMENSION
  5
22A
102
{ACAD_XDICTIONARY
360
22B
102
}
102
{ACAD_REACTORS
330
22C
102
}
330
2
100
AcDbEntity
  8
0
100
AcDbDimension
  2
*D39
 10
116.4389902733637
 20
116.6057195842934
 30
0.0
 11
110.4389902733637
 21
119.1057195842934
 31
0.0
 70
    32
  3
STANDARD
100
AcDbAlignedDimension
 13
104.4389902733637
 23
102.5778826572313
 33
0.0
 14
116.4389902733637
 24
103.5778826572313
 34
0.0
 50
180.0
100
AcDbRotatedDimension
  0
LINE
  5
239
330
2
100
AcDbEntity
  8
2
 62
     7
100
AcDbLine
 10
133.4389902733637
 20
88.07788265723138
 30
0.0
 11
133.4389902733637
 21
89.57788265723138
 31
0.0
  0
ARC
  5
23B
330
2
100
AcDbEntity
  8
2
 62
     7
100
AcDbCircle
 10
133.9389902733637
 20
88.07788265723138
 30
0.0
 40
0.4999999999999967
100
AcDbArc
 50
180.0
 51
270.0
  0
LINE
  5
23C
330
2
100
AcDbEntity
  8
2
 62
     7
100
AcDbLine
 10
136.4389902733637
 20
87.57788265723139
 30
0.0
 11
133.9389902733637
 21
87.57788265723139
 31
0.0
  0
LINE
  5
23D
330
2
100
AcDbEntity
  8
1
  6
BYBLOCK
 62
     0
100
AcDbLine
 10
216.6859229190086
 20
190.7136088418271
 30
0.0
 11
95.01759963367659
 21
190.7136088418271
 31
0.0
  0
LINE
  5
23F
330
2
100
AcDbEntity
  8
1
  6
BYBLOCK
 62
     0
100
AcDbLine
 10
216.6859229190086
 20
199.8936088418272
 30
0.0
 11
95.01759963367659
 21
199.8936088418272
 31
0.0
  0
LINE
  5
240
330
2
100
AcDbEntity
  8
1
  6
BYBLOCK
 62
     0
100
AcDbLine
 10
216.6859229190086
 20
209.0736088418273
 30
0.0
 11
95.01759963367659
 21
209.0736088418273
 31
0.0
  0
LINE
  5
241
330
2
100
AcDbEntity
  8
1
  6
BYBLOCK
 62
     0
100
AcDbLine
 10
216.6859229190086
 20
181.5336088418264
 30
0.0
 11
95.01759963367659
 21
181.5336088418264
 31
0.0
  0
DIMENSION
  5
242
102
{ACAD_XDICTIONARY
360
243
102
}
102
{ACAD_REACTORS
330
244
102
}
330
2
100
AcDbEntity
  8
0
100
AcDbDimension
  2
*D38
 10
215.8284242656737
 20
234.8631275640443
 30
0.0
 11
235.8284242656746
 21
237.3631275640443
 31
0.0
 70
    32
  1
L
  3
STANDARD
100
AcDbAlignedDimension
 13
255.8284242656755
 23
248.1591419456695
 33
0.0
 14
215.8284242656737
 24
248.1591419456695
 34
0.0
 50
180.0
100
AcDbRotatedDimension
  0
ARC
  5
251
330
2
100
AcDbEntity
  8
0
100
AcDbCircle
 10
216.3284242656736
 20
248.1591419456695
 30
0.0
 40
0.5
100
AcDbArc
 50
180.0
 51
270.0
  0
TEXT
  5
252
330
2
100
AcDbEntity
  8
1
  6
BYBLOCK
 62
     0
100
AcDbText
 10
103.0368732456117
 20
183.9552737678723
 30
0.0
 40
4.589999999999998
  1
02
 41
0.8
  7
GHS
100
AcDbText
  0
TEXT
  5
254
330
2
100
AcDbEntity
  8
1
  6
BYBLOCK
 62
     0
100
AcDbText
 10
103.0368732456117
 20
193.1352737678703
 30
0.0
 40
4.589999999999998
  1
01
 41
0.8
  7
GHS
100
AcDbText
  0
TEXT
  5
255
330
2
100
AcDbEntity
  8
1
  6
BYBLOCK
 62
     0
100
AcDbText
 10
102.5787247940534
 20
202.0624215677973
 30
0.0
 40
4.589999999999998
  1
NO.
 41
0.8
  7
GHS
100
AcDbText
  0
LINE
  5
256
330
2
100
AcDbEntity
  8
0
 48
0.6
100
AcDbLine
 10
63.72686109627466
 20
247.6591419456695
 30
0.0
 11
113.7268610962746
 21
247.6591419456695
 31
0.0
  0
LWPOLYLINE
  5
257
330
2
100
AcDbEntity
  8
3
100
AcDbPolyline
 90
        4
 70
     1
 43
0.0
 10
84.18720553443199
 20
235.3742280950902
 10
87.48720553443126
 20
235.3742280950902
 10
87.48720553443126
 20
238.8742280950903
 10
84.18720553443199
 20
238.8742280950903
  0
TEXT
  5
258
330
2
100
AcDbEntity
  8
1
 62
     0
100
AcDbText
 10
94.90932355736005
 20
214.5810476287954
 30
0.0
 40
4.589999999999998
  1
DIMENSION TABLE
 41
0.8
  7
GHS
100
AcDbText
  0
LINE
  5
259
330
2
100
AcDbEntity
  8
1
  6
BYBLOCK
 62
     0
100
AcDbLine
 10
94.24733306314738
 20
213.4852977180341
 30
0.0
 11
143.9127708753658
 21
213.4852977180341
 31
0.0
  0
LINE
  5
25A
330
2
100
AcDbEntity
  8
1
  6
BYBLOCK
 62
     0
100
AcDbLine
 10
94.24733306314738
 20
212.7562657570383
 30
0.0
 11
143.9127708753658
 21
212.7562657570383
 31
0.0
  0
LINE
  5
25B
330
2
100
AcDbEntity
  8
1
  6
BYBLOCK
 62
     0
100
AcDbLine
 10
94.24733306314738
 20
212.5312657570393
 30
0.0
 11
143.9127708753658
 21
212.5312657570393
 31
0.0
  0
TEXT
  5
25C
330
2
100
AcDbEntity
  8
1
  6
BYBLOCK
 62
     0
100
AcDbText
 10
128.5574320829109
 20
192.8806937989693
 30
0.0
 40
4.589999999999998
  1
30
100
AcDbText
  0
TEXT
  5
25D
330
2
100
AcDbEntity
  8
1
  6
BYBLOCK
 62
     0
100
AcDbText
 10
128.5574320829109
 20
183.7006937989683
 30
0.0
 40
4.589999999999998
  1
40
100
AcDbText
  0
TEXT
  5
25E
330
2
100
AcDbEntity
  8
1
  6
BYBLOCK
 62
     0
100
AcDbText
 10
130.4062328886211
 20
201.8942236548525
 30
0.0
 40
4.589999999999998
  1
L
 41
0.8
  7
GHS
100
AcDbText
  0
LINE
  5
25F
330
2
100
AcDbEntity
  8
1
  6
BYBLOCK
 62
     0
100
AcDbLine
 10
95.01759963367659
 20
209.0736088418273
 30
0.0
 11
95.01759963367659
 21
181.5336088418264
 31
0.0
  0
LINE
  5
260
330
2
100
AcDbEntity
  8
1
  6
BYBLOCK
 62
     0
100
AcDbLine
 10
118.8343828316046
 20
209.0736088418273
 30
0.0
 11
118.8343828316046
 21
181.5336088418264
 31
0.0
  0
LINE
  5
261
330
2
100
AcDbEntity
  8
1
  6
BYBLOCK
 62
     0
100
AcDbLine
 10
148.5274168171927
 20
209.0736088418273
 30
0.0
 11
148.527416817189
 21
181.5336088418264
 31
0.0
  0
TEXT
  5
262
330
2
100
AcDbEntity
  8
1
  6
BYBLOCK
 62
     0
100
AcDbText
 10
154.3183959834132
 20
201.9722950097084
 30
0.0
 40
4.589999999999998
  1
APPLICATION MODEL
 41
0.8
  7
GHS
100
AcDbText
  0
TEXT
  5
263
330
2
100
AcDbEntity
  8
1
  6
BYBLOCK
 62
     0
100
AcDbText
 10
155.0826619054823
 20
184.1488453188324
 30
0.0
 40
4.589999999999998
  1
K6G25~180B(C)
100
AcDbText
  0
TEXT
  5
264
330
2
100
AcDbEntity
  8
1
  6
BYBLOCK
 62
     0
100
AcDbText
 10
154.4692995364457
 20
193.4773287589232
 30
0.0
 40
4.589999999999998
  1
K6G3~18B(C)
100
AcDbText
  0
LINE
  5
265
330
2
100
AcDbEntity
  8
0
100
AcDbLine
 10
254.8284242656718
 20
247.6591419456695
 30
0.0
 11
216.3284242656736
 21
247.6591419456695
 31
0.0
  0
LINE
  5
266
330
2
100
AcDbEntity
  8
0
100
AcDbLine
 10
254.8284242656718
 20
248.1591419456695
 30
0.0
 11
254.8284242656718
 21
247.6591419456695
 31
0.0
  0
LINE
  5
267
330
2
100
AcDbEntity
  8
0
100
AcDbLine
 10
255.8284242656755
 20
248.1591419456695
 30
0.0
 11
254.8284242656718
 21
248.1591419456695
 31
0.0
  0
LINE
  5
268
330
2
100
AcDbEntity
  8
1
  6
BYBLOCK
 62
     0
100
AcDbLine
 10
216.6859229190086
 20
209.0736088418273
 30
0.0
 11
216.6859229190086
 21
181.5336088418264
 31
0.0
  0
LINE
  5
269
102
{ACAD_REACTORS
330
16D
102
}
330
2
100
AcDbEntity
  8
0
 48
0.6
100
AcDbLine
 10
291.4389902733619
 20
118.5778826572334
 30
0.0
 11
290.4389902733619
 21
119.5778826572334
 31
0.0
  0
DIMENSION
  5
26A
102
{ACAD_XDICTIONARY
360
26B
102
}
102
{ACAD_REACTORS
330
26C
102
}
330
2
100
AcDbEntity
  8
DIM
100
AcDbDimension
  2
*D57
 10
183.0413804850468
 20
417.6501790883464
 30
0.0
 11
174.0413804850468
 21
417.6501790883464
 31
0.0
 70
   160
  3
STANDARD
100
AcDbAlignedDimension
 13
181.0413804850468
 23
405.4418457550132
 33
0.0
 14
183.0413804850468
 24
408.4418457550132
 34
0.0
100
AcDbRotatedDimension
  0
LINE
  5
27B
102
{ACAD_REACTORS
330
9F
102
}
330
2
100
AcDbEntity
  8
0
100
AcDbLine
 10
183.0413804850468
 20
408.4418457550132
 30
0.0
 11
209.0413804850468
 21
408.4418457550132
 31
0.0
  0
LINE
  5
27C
330
2
100
AcDbEntity
  8
0
100
AcDbLine
 10
183.0413804850468
 20
405.4418457550132
 30
0.0
 11
181.0413804850468
 21
405.4418457550132
 31
0.0
  0
LINE
  5
27D
330
2
100
AcDbEntity
  8
0
100
AcDbLine
 10
72.54535742152256
 20
408.4418457550132
 30
0.0
 11
122.5453574215207
 21
408.4418457550132
 31
0.0
  0
LINE
  5
27E
102
{ACAD_REACTORS
330
319
102
}
330
2
100
AcDbEntity
  8
CEN
 48
0.6
100
AcDbLine
 10
223.686881969028
 20
287.6591419456694
 30
0.0
 11
179.9302854644447
 21
287.6591419456694
 31
0.0
  0
LINE
  5
27F
102
{ACAD_REACTORS
330
319
102
}
330
2
100
AcDbEntity
  8
CEN
 48
0.6
100
AcDbLine
 10
172.2207511315718
 20
277.6591419456694
 30
0.0
 11
268.9878936052918
 21
277.6591419456694
 31
0.0
  0
ARC
  5
280
330
2
100
AcDbEntity
  8
0
100
AcDbCircle
 10
216.3284242656736
 20
307.1591419456694
 30
0.0
 40
0.5
100
AcDbArc
 50
90.0
 51
180.0
  0
LINE
  5
281
330
2
100
AcDbEntity
  8
CEN
 48
0.6
100
AcDbLine
 10
212.6172551358558
 20
378.4418457550132
 30
0.0
 11
162.5769728670911
 21
378.4418457550132
 31
0.0
  0
LINE
  5
282
330
2
100
AcDbEntity
  8
0
100
AcDbLine
 10
183.0413804850468
 20
348.4418457550132
 30
0.0
 11
209.0413804850468
 21
348.4418457550132
 31
0.0
  0
LINE
  5
283
330
2
100
AcDbEntity
  8
0
100
AcDbLine
 10
183.0413804850468
 20
351.4418457550132
 30
0.0
 11
181.0413804850468
 21
351.4418457550132
 31
0.0
  0
LINE
  5
284
330
2
100
AcDbEntity
  8
0
100
AcDbLine
 10
183.0413804850468
 20
381.2618457550124
 30
0.0
 11
183.0413804850468
 21
375.6218457550132
 31
0.0
  0
LINE
  5
285
330
2
100
AcDbEntity
  8
0
100
AcDbLine
 10
183.0413804850468
 20
381.2618457550124
 30
0.0
 11
183.0413804850468
 21
375.6218457550132
 31
0.0
  0
LINE
  5
286
330
2
100
AcDbEntity
  8
2
100
AcDbLine
 10
177.0413804850468
 20
379.2071452166331
 30
0.0
 11
171.8903053839822
 21
376.5218457550133
 31
0.0
  0
LINE
  5
287
330
2
100
AcDbEntity
  8
2
100
AcDbLine
 10
177.0413804850468
 20
380.3618457550133
 30
0.0
 11
170.5413804850468
 21
376.9218004010911
 31
0.0
  0
LINE
  5
288
330
2
100
AcDbEntity
  8
2
100
AcDbLine
 10
175.0413804850468
 20
380.3618457550133
 30
0.0
 11
170.5413804850468
 21
378.0885290700791
 31
0.0
  0
LINE
  5
289
330
2
100
AcDbEntity
  8
0
100
AcDbLine
 10
170.5406710479492
 20
376.5218457550133
 30
0.0
 11
177.0413804850468
 21
376.5218457550133
 31
0.0
  0
LINE
  5
28A
330
2
100
AcDbEntity
  8
0
100
AcDbLine
 10
170.5406710479492
 20
380.3618457550133
 30
0.0
 11
177.0413804850468
 21
380.3618457550133
 31
0.0
  0
LINE
  5
28B
330
2
100
AcDbEntity
  8
2
100
AcDbLine
 10
171.0406710479492
 20
381.2618457550124
 30
0.0
 11
171.0406710479492
 21
375.6218457550132
 31
0.0
  0
LINE
  5
28C
330
2
100
AcDbEntity
  8
0
100
AcDbLine
 10
170.5406710479492
 20
380.7618457550134
 30
0.0
 11
170.5406710479492
 21
376.1218457550132
 31
0.0
  0
LINE
  5
28D
330
2
100
AcDbEntity
  8
0
100
AcDbLine
 10
170.5406710479492
 20
376.1218457550132
 30
0.0
 11
171.0406710479492
 21
375.6218457550132
 31
0.0
  0
LINE
  5
28E
330
2
100
AcDbEntity
  8
0
100
AcDbLine
 10
171.0406710479492
 20
381.2618457550124
 30
0.0
 11
170.5406710479492
 21
380.7618457550134
 31
0.0
  0
LINE
  5
28F
330
2
100
AcDbEntity
  8
2
100
AcDbLine
 10
177.0413804850468
 20
380.3618457550133
 30
0.0
 11
177.0413804850468
 21
376.5218457550133
 31
0.0
  0
LINE
  5
290
330
2
100
AcDbEntity
  8
CEN
 48
0.6
100
AcDbLine
 10
168.5413804850468
 20
376.1323457550133
 30
0.0
 11
184.0413804850468
 21
376.1323457550133
 31
0.0
  0
LINE
  5
291
330
2
100
AcDbEntity
  8
0
100
AcDbLine
 10
171.0406710479492
 20
375.6218457550132
 30
0.0
 11
181.0413804850468
 21
375.6218457550132
 31
0.0
  0
LINE
  5
292
330
2
100
AcDbEntity
  8
CEN
 48
0.6
100
AcDbLine
 10
168.5413804850468
 20
380.7513457550123
 30
0.0
 11
184.0413804850468
 21
380.7513457550123
 31
0.0
  0
LINE
  5
293
330
2
100
AcDbEntity
  8
0
100
AcDbLine
 10
171.0406710479492
 20
381.2618457550124
 30
0.0
 11
181.0413804850468
 21
381.2618457550124
 31
0.0
  0
ARC
  5
294
330
2
100
AcDbEntity
  8
0
100
AcDbCircle
 10
175.5815082195895
 20
346.3393639853154
 30
0.0
 40
30.21776684021463
100
AcDbArc
 50
79.59038642143004
 51
87.23086447349437
  0
ARC
  5
295
330
2
100
AcDbEntity
  8
0
100
AcDbCircle
 10
175.5815082195895
 20
410.5443275247073
 30
0.0
 40
30.21776684021192
100
AcDbArc
 50
272.7691355265055
 51
280.40961357857
  0
LINE
  5
296
330
2
100
AcDbEntity
  8
0
100
AcDbLine
 10
67.54535742152075
 20
403.4418457550132
 30
0.0
 11
67.54535742152075
 21
353.4418457550132
 31
0.0
  0
LINE
  5
297
102
{ACAD_REACTORS
330
C2
102
}
330
2
100
AcDbEntity
  8
0
100
AcDbLine
 10
127.5453574215225
 20
403.4418457550132
 30
0.0
 11
127.5453574215225
 21
353.4418457550132
 31
0.0
  0
LINE
  5
298
330
2
100
AcDbEntity
  8
CEN
 48
0.6
100
AcDbLine
 10
62.54535742152256
 20
378.4418457550132
 30
0.0
 11
132.5453574215207
 21
378.4418457550132
 31
0.0
  0
LINE
  5
299
330
2
100
AcDbEntity
  8
0
100
AcDbLine
 10
72.54535742152256
 20
348.4418457550132
 30
0.0
 11
122.5453574215207
 21
348.4418457550132
 31
0.0
  0
ARC
  5
29A
330
2
100
AcDbEntity
  8
0
100
AcDbCircle
 10
72.54535742152256
 20
353.4418457550132
 30
0.0
 40
5.0
100
AcDbArc
 50
180.0
 51
270.0
  0
ARC
  5
29B
330
2
100
AcDbEntity
  8
CEN
 48
0.6
100
AcDbCircle
 10
97.54535742151894
 20
378.4418457550132
 30
0.0
 40
35.0
100
AcDbArc
 50
199.5241366191914
 51
231.1865505975711
  0
CIRCLE
  5
29C
330
2
100
AcDbEntity
  8
0
100
AcDbCircle
 10
72.79662007999286
 20
353.6931084134835
 30
0.0
 40
2.25
  0
LINE
  5
29D
330
2
100
AcDbEntity
  8
CEN
 48
0.6
100
AcDbLine
 10
75.80182390003028
 20
356.6983122335261
 30
0.0
 11
69.79141625994998
 21
350.6879045934404
 31
0.0
  0
CIRCLE
  5
29E
330
2
100
AcDbEntity
  8
0
100
AcDbCircle
 10
97.54535742151894
 20
378.4418457550132
 30
0.0
 40
2.000000000000055
  0
CIRCLE
  5
29F
330
2
100
AcDbEntity
  8
0
100
AcDbCircle
 10
97.54535742151894
 20
378.4418457550132
 30
0.0
 40
3.000000000000055
  0
ARC
  5
2A0
330
2
100
AcDbEntity
  8
0
100
AcDbCircle
 10
122.5453574215207
 20
353.4418457550132
 30
0.0
 40
5.0
100
AcDbArc
 50
270.0
 51
0.0
  0
CIRCLE
  5
2A1
330
2
100
AcDbEntity
  8
0
100
AcDbCircle
 10
122.2940947630486
 20
353.6931084134835
 30
0.0
 40
2.25
  0
LINE
  5
2A2
330
2
100
AcDbEntity
  8
CEN
 48
0.6
100
AcDbLine
 10
119.2888909430039
 20
356.6983122335261
 30
0.0
 11
125.2992985830933
 21
350.6879045934404
 31
0.0
  0
ARC
  5
2A3
330
2
100
AcDbEntity
  8
CEN
 48
0.6
100
AcDbCircle
 10
97.54535742151894
 20
378.4418457550132
 30
0.0
 40
35.0
100
AcDbArc
 50
304.6885525890122
 51
322.9113558998459
  0
LINE
  5
2A4
330
2
100
AcDbEntity
  8
0
100
AcDbLine
 10
213.3284242656736
 20
299.6591419456695
 30
0.0
 11
215.8284242656737
 21
299.6591419456695
 31
0.0
  0
LINE
  5
2A5
330
2
100
AcDbEntity
  8
0
100
AcDbLine
 10
213.3284242656736
 20
275.6591419456694
 30
0.0
 11
215.8284242656737
 21
275.6591419456694
 31
0.0
  0
CIRCLE
  5
2A6
330
2
100
AcDbEntity
  8
0
100
AcDbCircle
 10
88.72686109627466
 20
277.6591419456713
 30
0.0
 40
27.0
  0
LINE
  5
2A7
330
2
100
AcDbEntity
  8
0
100
AcDbLine
 10
58.72686109627466
 20
302.6591419456694
 30
0.0
 11
58.72686109627466
 21
252.6591419456694
 31
0.0
  0
LINE
  5
2A8
102
{ACAD_REACTORS
330
15C
102
}
330
2
100
AcDbEntity
  8
0
100
AcDbLine
 10
118.7268610962746
 20
302.6591419456694
 30
0.0
 11
118.7268610962746
 21
252.6591419456694
 31
0.0
  0
CIRCLE
  5
2A9
330
2
100
AcDbEntity
  8
CEN
 48
0.6
100
AcDbCircle
 10
88.72686109627466
 20
277.6591419456694
 30
0.0
 40
23.0
  0
DIMENSION
  5
2AA
330
2
100
AcDbEntity
  8
2
100
AcDbDimension
  2
*D56
 10
57.97365380747608
 20
260.948658964849
 30
0.0
 11
138.3439766421233
 21
304.6197759081733
 31
0.0
 70
   163
  1
<>%%P0.5
  3
STANDARD
100
AcDbDiametricDimension
 15
119.4800683850696
 25
294.3696249264879
 35
0.0
 40
0.0
  0
CIRCLE
  5
2B6
330
2
100
AcDbEntity
  8
0
 48
0.6
100
AcDbCircle
 10
88.72686109627466
 20
254.6591419456694
 30
0.0
 40
3.0
  0
ARC
  5
2B7
330
2
100
AcDbEntity
  8
CEN
 48
0.6
100
AcDbCircle
 10
88.72686109627466
 20
277.6591419456694
 30
0.0
 40
35.0
100
AcDbArc
 50
308.0383738498391
 51
321.9616261501568
  0
LINE
  5
2B8
330
2
100
AcDbEntity
  8
CEN
 48
0.6
100
AcDbLine
 10
111.1775013989463
 20
255.2085016429964
 30
0.0
 11
115.7736954766587
 21
250.6123075652833
 31
0.0
  0
LINE
  5
2B9
330
2
100
AcDbEntity
  8
CEN
 48
0.6
100
AcDbLine
 10
66.27622079360117
 20
255.2085016429964
 30
0.0
 11
61.68002671589056
 21
250.6123075652833
 31
0.0
  0
CIRCLE
  5
2BA
330
2
100
AcDbEntity
  8
0
 48
0.6
100
AcDbCircle
 10
113.4755984378061
 20
252.9104046041393
 30
0.0
 40
2.25
  0
CIRCLE
  5
2BB
330
2
100
AcDbEntity
  8
0
 48
0.6
100
AcDbCircle
 10
63.97812375474678
 20
252.9104046041393
 30
0.0
 40
2.25
  0
CIRCLE
  5
2BC
330
2
100
AcDbEntity
  8
0
 48
0.6
100
AcDbCircle
 10
88.72686109627466
 20
254.6591419456694
 30
0.0
 40
1.75
  0
DIMENSION
  5
2BD
102
{ACAD_XDICTIONARY
360
2BE
102
}
102
{ACAD_REACTORS
330
2BF
102
}
330
2
100
AcDbEntity
  8
0
100
AcDbDimension
  2
*D55
 10
203.3221496057376
 20
291.6591419456695
 30
0.0
 11
203.3221496057376
 21
320.3564308834102
 31
0.0
 70
   160
  1
\A1;{\f??|b0|i0|c0|p49;%%C8\H0.7x;\S+0^ -0.015;\H1.429x;(h7)}
  3
STANDARD
100
AcDbAlignedDimension
 13
198.3284242656736
 23
283.6591419456695
 33
0.0
 14
195.8284242656736
 24
291.6591419456695
 34
0.0
 50
90.0
100
AcDbRotatedDimension
  0
DIMENSION
  5
2CE
102
{ACAD_XDICTIONARY
360
2CF
102
}
102
{ACAD_REACTORS
330
2D0
102
}
330
2
100
AcDbEntity
  8
0
100
AcDbDimension
  2
*D54
 10
195.8284242656736
 20
304.6869788727312
 30
0.0
 11
189.8284242656736
 21
307.1869788727312
 31
0.0
 70
    32
  3
STANDARD
100
AcDbAlignedDimension
 13
183.8284242656736
 23
290.6591419456694
 33
0.0
 14
195.8284242656736
 24
291.6591419456695
 34
0.0
 50
180.0
100
AcDbRotatedDimension
  0
LINE
  5
2DD
102
{ACAD_REACTORS
330
2D0
102
}
330
2
100
AcDbEntity
  8
0
100
AcDbLine
 10
195.8284242656736
 20
290.6591419456694
 30
0.0
 11
183.8284242656736
 21
290.6591419456694
 31
0.0
  0
LINE
  5
2DE
102
{ACAD_REACTORS
330
2BF
102
}
330
2
100
AcDbEntity
  8
0
100
AcDbLine
 10
212.8284242656736
 20
283.6591419456695
 30
0.0
 11
183.8284242656736
 21
283.6591419456695
 31
0.0
  0
LINE
  5
2DF
102
{ACAD_REACTORS
330
244
330
308
330
149
102
}
330
2
100
AcDbEntity
  8
0
100
AcDbLine
 10
183.8284242656736
 20
290.6591419456694
 30
0.0
 11
183.8284242656736
 21
283.6591419456695
 31
0.0
  0
LINE
  5
2E0
102
{ACAD_REACTORS
330
244
330
2D0
102
}
330
2
100
AcDbEntity
  8
0
100
AcDbLine
 10
195.8284242656736
 20
291.6591419456695
 30
0.0
 11
195.8284242656736
 21
290.6591419456694
 31
0.0
  0
LINE
  5
2E1
102
{ACAD_REACTORS
330
2BF
102
}
330
2
100
AcDbEntity
  8
0
100
AcDbLine
 10
212.8284242656736
 20
291.6591419456695
 30
0.0
 11
195.8284242656736
 21
291.6591419456695
 31
0.0
  0
ARC
  5
2E2
330
2
100
AcDbEntity
  8
0
100
AcDbCircle
 10
213.3284242656736
 20
299.1591419456694
 30
0.0
 40
0.5
100
AcDbArc
 50
90.0
 51
180.0
  0
LINE
  5
2E3
330
2
100
AcDbEntity
  8
0
100
AcDbLine
 10
85.37275913002849
 20
290.6591419456694
 30
0.0
 11
92.08096306252263
 21
290.6591419456694
 31
0.0
  0
CIRCLE
  5
2E4
330
2
100
AcDbEntity
  8
0
 48
0.6
100
AcDbCircle
 10
108.6454453833193
 20
289.1591419456694
 30
0.0
 40
3.0
  0
CIRCLE
  5
2E5
330
2
100
AcDbEntity
  8
0
100
AcDbCircle
 10
68.80827680923175
 20
289.1591419456694
 30
0.0
 40
3.0
  0
LINE
  5
2E6
330
2
100
AcDbEntity
  8
CEN
 48
0.6
100
AcDbLine
 10
66.27622079360117
 20
304.7059763260542
 30
0.0
 11
61.68002671589056
 21
300.1097822483425
 31
0.0
  0
LINE
  5
2E7
330
2
100
AcDbEntity
  8
CEN
 48
0.6
100
AcDbLine
 10
66.27622079360117
 20
300.1097822483425
 30
0.0
 11
61.68002671589056
 21
304.7059763260554
 31
0.0
  0
LINE
  5
2E8
330
2
100
AcDbEntity
  8
CEN
 48
0.6
100
AcDbLine
 10
111.1775013989463
 20
300.1097822483425
 30
0.0
 11
115.7736954766587
 21
304.7059763260542
 31
0.0
  0
LINE
  5
2E9
330
2
100
AcDbEntity
  8
0
  6
CENTER
 62
     1
 48
0.6
100
AcDbLine
 10
111.9291250393325
 20
291.0549752790022
 30
0.0
 11
105.3617657272989
 21
287.2633086123353
 31
0.0
  0
LINE
  5
2EA
330
2
100
AcDbEntity
  8
0
  6
CENTER
 62
     1
 48
0.6
100
AcDbLine
 10
101.5360060539442
 20
287.6591419456694
 30
0.0
 11
75.49275349442178
 21
287.6591419456694
 31
0.0
  0
LINE
  5
2EB
330
2
100
AcDbEntity
  8
0
  6
CENTER
 62
     1
 48
0.4
100
AcDbLine
 10
65.52459715321674
 20
291.0549752790022
 30
0.0
 11
72.0919564652504
 21
287.2633086123353
 31
0.0
  0
ARC
  5
2EC
330
2
100
AcDbEntity
  8
0
 48
0.6
100
AcDbCircle
 10
113.7268610962746
 20
302.6591419456694
 30
0.0
 40
5.0
100
AcDbArc
 50
0.0
 51
90.0
  0
ARC
  5
2ED
330
2
100
AcDbEntity
  8
0
 48
0.6
100
AcDbCircle
 10
63.72686109627466
 20
302.6591419456694
 30
0.0
 40
5.0
100
AcDbArc
 50
90.0
 51
180.0
  0
LINE
  5
2EE
330
2
100
AcDbEntity
  8
0
100
AcDbLine
 10
63.72686109627466
 20
307.6591419456694
 30
0.0
 11
113.7268610962746
 21
307.6591419456694
 31
0.0
  0
CIRCLE
  5
2EF
330
2
100
AcDbEntity
  8
0
 48
0.6
100
AcDbCircle
 10
108.6454453833193
 20
289.1591419456694
 30
0.0
 40
1.75
  0
CIRCLE
  5
2F0
330
2
100
AcDbEntity
  8
0
100
AcDbCircle
 10
68.80827680923175
 20
289.1591419456694
 30
0.0
 40
1.75
  0
CIRCLE
  5
2F1
330
2
100
AcDbEntity
  8
0
100
AcDbCircle
 10
88.72686109627466
 20
287.6591419456694
 30
0.0
 40
4.5
  0
CIRCLE
  5
2F2
330
2
100
AcDbEntity
  8
0
 48
0.6
100
AcDbCircle
 10
113.4755984378061
 20
302.4078792871983
 30
0.0
 40
2.25
  0
CIRCLE
  5
2F3
330
2
100
AcDbEntity
  8
0
 48
0.6
100
AcDbCircle
 10
63.97812375474678
 20
302.4078792871983
 30
0.0
 40
2.25
  0
ARC
  5
2F4
330
2
100
AcDbEntity
  8
CEN
 48
0.6
100
AcDbCircle
 10
88.72686109626739
 20
277.6591419456694
 30
0.0
 40
35.00000000000606
100
AcDbArc
 50
25.70831822988844
 51
51.96162615014948
  0
ARC
  5
2F5
330
2
100
AcDbEntity
  8
0
100
AcDbCircle
 10
213.3284242656736
 20
276.1591419456694
 30
0.0
 40
0.5
100
AcDbArc
 50
180.0
 51
270.0
  0
LINE
  5
2F6
330
2
100
AcDbEntity
  8
CEN
 48
0.6
100
AcDbLine
 10
53.66709767365865
 20
277.6591419456713
 30
0.0
 11
123.7866245188888
 21
277.6591419456713
 31
0.0
  0
LINE
  5
2F7
330
2
100
AcDbEntity
  8
0
100
AcDbLine
 10
212.8284242656736
 20
299.1591419456694
 30
0.0
 11
212.8284242656736
 21
276.1591419456694
 31
0.0
  0
CIRCLE
  5
2F8
330
2
100
AcDbEntity
  8
0
100
AcDbCircle
 10
88.72686109627466
 20
287.6591419456694
 30
0.0
 40
12.0
  0
DIMENSION
  5
2F9
330
2
100
AcDbEntity
  8
0
100
AcDbDimension
  2
*D53
 10
153.5177015278004
 20
275.6591419456694
 30
0.0
 11
151.0177015278004
 21
287.6591419456695
 31
0.0
 70
    32
  1
%%c<>
  3
STANDARD
100
AcDbAlignedDimension
 13
213.3284242656736
 23
299.6591419456695
 33
0.0
 14
213.3284242656736
 24
275.6591419456694
 34
0.0
 50
90.0
100
AcDbRotatedDimension
  0
DIMENSION
  5
306
102
{ACAD_XDICTIONARY
360
307
102
}
102
{ACAD_REACTORS
330
308
102
}
330
2
100
AcDbEntity
  8
0
100
AcDbDimension
  2
*D52
 10
170.9556217560966
 20
283.6591419456695
 30
0.0
 11
170.9556217560966
 21
303.6591419456694
 31
0.0
 70
   160
  3
STANDARD
100
AcDbAlignedDimension
 13
183.8284242656736
 23
290.6591419456694
 33
0.0
 14
183.8284242656736
 24
283.6591419456695
 34
0.0
 50
90.0
100
AcDbRotatedDimension
  0
DIMENSION
  5
317
102
{ACAD_XDICTIONARY
360
318
102
}
102
{ACAD_REACTORS
330
319
102
}
330
2
100
AcDbEntity
  8
0
100
AcDbDimension
  2
*D51
 10
161.5659795653191
 20
277.6591419456694
 30
0.0
 11
159.0659795653191
 21
282.6591419456695
 31
0.0
 70
    32
  3
STANDARD
100
AcDbAlignedDimension
 13
179.9302854644447
 23
287.6591419456694
 33
0.0
 14
172.2207511315718
 24
277.6591419456694
 34
0.0
 50
90.0
100
AcDbRotatedDimension
  0
LINE
  5
326
330
2
100
AcDbEntity
  8
2
 62
     7
100
AcDbLine
 10
212.8284242656736
 20
276.1591419456694
 30
0.0
 11
212.8284242656736
 21
277.6591419456694
 31
0.0
  0
ARC
  5
327
330
2
100
AcDbEntity
  8
2
 62
     7
100
AcDbCircle
 10
213.3284242656736
 20
276.1591419456694
 30
0.0
 40
0.4999999999999967
100
AcDbArc
 50
180.0
 51
270.0
  0
LINE
  5
328
330
2
100
AcDbEntity
  8
2
 62
     7
100
AcDbLine
 10
215.8284242656737
 20
275.6591419456694
 30
0.0
 11
213.3284242656736
 21
275.6591419456694
 31
0.0
  0
MTEXT
  5
329
102
{ACAD_REACTORS
330
32D
102
}
330
2
100
AcDbEntity
  8
0
 62
     3
100
AcDbMText
 10
126.8422895581643
 20
318.5426304675295
 30
0.0
 40
3.2
 41
0.0
 71
     7
 72
     1
  1
4-%%C4.5 hole
1001
ACAD
1000
MTEXTBEGIN
1070
    73
1070
     1
1070
    44
1040
1.0
1070
    74
1070
     0
1000
MTEXTEND
  0
LINE
  5
32A
330
2
100
AcDbEntity
  8
0
100
AcDbLine
 10
254.8284242656718
 20
307.6591419456694
 30
0.0
 11
216.3284242656736
 21
307.6591419456694
 31
0.0
  0
LINE
  5
32B
330
2
100
AcDbEntity
  8
0
100
AcDbLine
 10
254.8284242656718
 20
307.6591419456694
 30
0.0
 11
254.8284242656718
 21
307.1591419456694
 31
0.0
  0
LINE
  5
32C
330
2
100
AcDbEntity
  8
0
100
AcDbLine
 10
255.8284242656755
 20
307.1591419456694
 30
0.0
 11
254.8284242656718
 21
307.1591419456694
 31
0.0
  0
LEADER
  5
32D
330
2
100
AcDbEntity
  8
0
100
AcDbLeader
  3
STANDARD
 73
     0
 74
     0
 75
     1
 40
3.200000000000001
 41
28.42857142857143
 76
     3
 10
113.5970671840186
 20
304.8509983623064
 30
0.0
 10
123.3422895581643
 20
317.5426304675295
 30
0.0
 10
125.8422895581643
 20
317.5426304675295
 30
0.0
340
329
1001
ACAD
1000
DSTYLE
1002
{
1070
     5
1000

1070
    77
1070
     1
1070
   147
1040
1.0
1070
   342
1005
0
1002
}
  0
DIMENSION
  5
32E
102
{ACAD_XDICTIONARY
360
32F
102
}
102
{ACAD_REACTORS
330
330
102
}
330
2
100
AcDbEntity
  8
DIM
100
AcDbDimension
  2
*D50
 10
161.474048510805
 20
351.4418457550132
 30
0.0
 11
161.474048510805
 21
378.4418457550132
 31
0.0
 70
   160
  1
\A1;%%C<>{\f??|b0|i0|c0|p49;\H0.7x;\S+0^ -0.03;\H1.429x;(h7)} 
  3
STANDARD
100
AcDbAlignedDimension
 13
181.0413804850468
 23
405.4418457550132
 33
0.0
 14
181.0413804850468
 24
351.4418457550132
 34
0.0
 50
90.0
100
AcDbRotatedDimension
  0
LINE
  5
33D
102
{ACAD_REACTORS
330
26C
102
}
330
2
100
AcDbEntity
  8
0
100
AcDbLine
 10
183.0413804850468
 20
408.4418457550132
 30
0.0
 11
183.0413804850468
 21
348.4418457550132
 31
0.0
  0
LINE
  5
33E
102
{ACAD_REACTORS
330
330
330
26C
102
}
330
2
100
AcDbEntity
  8
0
100
AcDbLine
 10
181.0413804850468
 20
405.4418457550132
 30
0.0
 11
181.0413804850468
 21
351.4418457550132
 31
0.0
  0
ARC
  5
33F
330
2
100
AcDbEntity
  8
0
100
AcDbCircle
 10
72.54535742152256
 20
403.4418457550132
 30
0.0
 40
5.0
100
AcDbArc
 50
90.0
 51
180.0
  0
ARC
  5
340
330
2
100
AcDbEntity
  8
CEN
 48
0.6
100
AcDbCircle
 10
97.54535742151894
 20
378.4418457550132
 30
0.0
 40
35.0
100
AcDbArc
 50
124.6885525890122
 51
145.106569353258
  0
LINE
  5
341
330
2
100
AcDbEntity
  8
CEN
 48
0.6
100
AcDbLine
 10
75.80182390003028
 20
400.1853792765005
 30
0.0
 11
69.79141625994998
 21
406.1957869165862
 31
0.0
  0
CIRCLE
  5
342
330
2
100
AcDbEntity
  8
0
100
AcDbCircle
 10
72.79662007999286
 20
403.1905830965424
 30
0.0
 40
2.25
  0
ARC
  5
343
330
2
100
AcDbEntity
  8
0
100
AcDbCircle
 10
122.5453574215207
 20
403.4418457550132
 30
0.0
 40
5.0
100
AcDbArc
 50
0.0
 51
90.0
  0
LINE
  5
344
330
2
100
AcDbEntity
  8
CEN
 48
0.6
100
AcDbLine
 10
119.2888909430039
 20
400.1853792765005
 30
0.0
 11
125.2992985830933
 21
406.1957869165862
 31
0.0
  0
CIRCLE
  5
345
330
2
100
AcDbEntity
  8
0
100
AcDbCircle
 10
122.2940947630486
 20
403.1905830965424
 30
0.0
 40
2.25
  0
CIRCLE
  5
346
330
2
100
AcDbEntity
  8
0
100
AcDbCircle
 10
97.54535742151894
 20
378.4418457550132
 30
0.0
 40
27.00000000000005
  0
LINE
  5
347
330
2
100
AcDbEntity
  8
CEN
 48
0.6
100
AcDbLine
 10
97.54535742151894
 20
343.4418457550132
 30
0.0
 11
97.54535742151894
 21
413.4418457550132
 31
0.0
  0
ARC
  5
348
102
{ACAD_REACTORS
330
34C
102
}
330
2
100
AcDbEntity
  8
CEN
 48
0.6
100
AcDbCircle
 10
97.54535742151894
 20
378.4418457550132
 30
0.0
 40
35.0
100
AcDbArc
 50
21.71935007261406
 51
51.18655059757116
  0
LINE
  5
349
102
{ACAD_REACTORS
330
26C
102
}
330
2
100
AcDbEntity
  8
0
100
AcDbLine
 10
209.0413804850468
 20
408.4418457550132
 30
0.0
 11
209.0413804850468
 21
348.4418457550132
 31
0.0
  0
DIMENSION
  5
34A
102
{ACAD_XDICTIONARY
360
34B
102
}
102
{ACAD_REACTORS
330
34C
102
}
330
2
100
AcDbEntity
  8
0
100
AcDbDimension
  2
*D49
 10
67.19024410943877
 20
361.0186687826106
 30
0.0
 11
142.8302305462556
 21
404.4343811975044
 31
0.0
 70
   163
  1
<>%%p0.5
  3
STANDARD
100
AcDbDiametricDimension
 15
127.9004707335881
 25
395.8650227274095
 35
0.0
 40
0.0
  0
ENDSEC
  0
SECTION
  2
OBJECTS
  0
DICTIONARY
  5
9
330
0
100
AcDbDictionary
  3
ACAD_GROUP
350
98
  3
ACAD_LAYOUT
350
D
  3
ACAD_MLINESTYLE
350
99
  3
ACAD_PLOTSETTINGS
350
9A
  3
ACAD_PLOTSTYLENAME
350
8
  3
ACDBHEADERROUNDTRIPXREC
350
4E4
  3
ACDBVARIABLEDICTIONARY
350
358
  0
DICTIONARY
  5
15
330
14
100
AcDbDictionary
280
     1
  3
ACAD_LAYERFILTERS
360
16
  3
ACAD_LAYERSTATES
360
89
  0
DICTIONARY
  5
3
330
2
100
AcDbDictionary
280
     1
  3
ACAD_LAYOUTSELFREF
360
505
  0
DICTIONARY
  5
F
330
E
100
AcDbDictionary
280
     1
  3
ACAD_LAYOUTSELFREF
360
506
  0
DICTIONARY
  5
9E
330
9D
100
AcDbDictionary
280
     1
  3
ACAD_DIMASSOC
360
9F
  0
DICTIONARY
  5
C1
330
C0
100
AcDbDictionary
280
     1
  3
ACAD_DIMASSOC
360
C2
  0
DICTIONARY
  5
D0
330
CF
100
AcDbDictionary
280
     1
  3
ACAD_DIMASSOC
360
D1
  0
DICTIONARY
  5
E6
330
E5
100
AcDbDictionary
280
     1
  3
ACAD_DIMASSOC
360
E7
  0
DICTIONARY
  5
148
330
147
100
AcDbDictionary
280
     1
  3
ACAD_DIMASSOC
360
149
  0
DICTIONARY
  5
15B
330
15A
100
AcDbDictionary
280
     1
  3
ACAD_DIMASSOC
360
15C
  0
DICTIONARY
  5
16C
330
16B
100
AcDbDictionary
280
     1
  3
ACAD_DIMASSOC
360
16D
  0
DICTIONARY
  5
17D
330
17C
100
AcDbDictionary
280
     1
  3
ACAD_DIMASSOC
360
17E
  0
DICTIONARY
  5
18E
330
18D
100
AcDbDictionary
280
     1
  3
ACAD_DIMASSOC
360
18F
  0
DICTIONARY
  5
19D
330
19C
100
AcDbDictionary
280
     1
  3
ACAD_DIMASSOC
360
19E
  0
DICTIONARY
  5
1C0
330
1BF
100
AcDbDictionary
280
     1
  3
ACAD_DIMASSOC
360
1C1
  0
DICTIONARY
  5
1D6
330
1D5
100
AcDbDictionary
280
     1
  3
ACAD_DIMASSOC
360
1D7
  0
DICTIONARY
  5
208
330
207
100
AcDbDictionary
280
     1
  3
ACAD_DIMASSOC
360
209
  0
DICTIONARY
  5
219
330
218
100
AcDbDictionary
280
     1
  3
ACAD_DIMASSOC
360
21A
  0
DICTIONARY
  5
22B
330
22A
100
AcDbDictionary
280
     1
  3
ACAD_DIMASSOC
360
22C
  0
DICTIONARY
  5
243
330
242
100
AcDbDictionary
280
     1
  3
ACAD_DIMASSOC
360
244
  0
DICTIONARY
  5
26B
330
26A
100
AcDbDictionary
280
     1
  3
ACAD_DIMASSOC
360
26C
  0
DICTIONARY
  5
2BE
330
2BD
100
AcDbDictionary
280
     1
  3
ACAD_DIMASSOC
360
2BF
  0
DICTIONARY
  5
2CF
330
2CE
100
AcDbDictionary
280
     1
  3
ACAD_DIMASSOC
360
2D0
  0
DICTIONARY
  5
307
330
306
100
AcDbDictionary
280
     1
  3
ACAD_DIMASSOC
360
308
  0
DICTIONARY
  5
318
330
317
100
AcDbDictionary
280
     1
  3
ACAD_DIMASSOC
360
319
  0
DICTIONARY
  5
32F
330
32E
100
AcDbDictionary
280
     1
  3
ACAD_DIMASSOC
360
330
  0
DICTIONARY
  5
34B
330
34A
100
AcDbDictionary
280
     1
  3
ACAD_DIMASSOC
360
34C
  0
DICTIONARY
  5
98
102
{ACAD_REACTORS
330
9
102
}
330
9
100
AcDbDictionary
  0
DICTIONARY
  5
D
102
{ACAD_REACTORS
330
9
102
}
330
9
100
AcDbDictionary
  0
DICTIONARY
  5
99
102
{ACAD_REACTORS
330
9
102
}
330
9
100
AcDbDictionary
  3
STANDARD
350
9B
  0
DICTIONARY
  5
9A
102
{ACAD_REACTORS
330
9
102
}
330
9
100
AcDbDictionary
  0
ACDBDICTIONARYWDFLT
  5
8
102
{ACAD_REACTORS
330
9
102
}
330
9
100
AcDbDictionary
281
     1
  3
Normal
350
7
100
AcDbDictionaryWithDefault
340
7
  0
DICTIONARY
  5
4E4
102
{ACAD_REACTORS
330
9
102
}
330
9
100
AcDbDictionary
  3
CEPSNTYPE
350
4EE
  3
DIMSTYLEDATA
350
4F2
  3
FINGERPRINTGUID
350
4EF
  3
HYPERLINKBASE
350
4E7
  3
INSUNITS
350
4ED
  3
LAYOUTDICT
350
4E9
  3
LWETCUNION
350
4EC
  3
PLOTSETDICT
350
4EA
  3
PLOTSTYLNAMDICT
350
4EB
  3
PSVPSCALE
350
4F1
  3
PUCSBASE
350
4F5
  3
PUCSORGBACK
350
4FB
  3
PUCSORGBOTTOM
350
4F7
  3
PUCSORGFRONT
350
4FA
  3
PUCSORGLEFT
350
4F8
  3
PUCSORGRIGHT
350
4F9
  3
PUCSORGTOP
350
4F6
  3
PUCSORTHOREF
350
4F3
  3
PUCSORTHOVIEW
350
4F4
  3
STYLESHEET
350
4E8
  3
TSTACKALIGN
350
4E5
  3
TSTACKSIZE
350
4E6
  3
UCSBASE
350
4FE
  3
UCSORGBACK
350
504
  3
UCSORGBOTTOM
350
500
  3
UCSORGFRONT
350
503
  3
UCSORGLEFT
350
501
  3
UCSORGRIGHT
350
502
  3
UCSORGTOP
350
4FF
  3
UCSORTHOREF
350
4FC
  3
UCSORTHOVIEW
350
4FD
  3
VERSIONGUID
350
4F0
  0
DICTIONARY
  5
358
102
{ACAD_REACTORS
330
9
102
}
330
9
100
AcDbDictionary
  3
DIMASSOC
350
35A
  3
HIDETEXT
350
359
  0
DICTIONARY
  5
16
102
{ACAD_REACTORS
330
15
102
}
330
15
100
AcDbDictionary
280
     1
  3
$LAYERS
360
17
  3
-_UND_0
360
18
  3
-PEGC
360
19
  3
101
360
1A
  3
102
360
1B
  3
1DUC
360
1C
  3
1EQ
360
1D
  3
1TUB
360
1E
  3
2
360
1F
  3
2000
360
20
  3
50
360
21
  3
58J
360
22
  3
65
360
23
  3
AA
360
24
  3
ACABADOS
360
25
  3
AGUA_Y_DREN
360
26
  3
AIRE
360
27
  3
ALLE_AUS
360
28
  3
ALLES_MIT_S
360
29
  3
AMARILLO
360
2A
  3
APAGADOS
360
2B
  3
ARR
360
2C
  3
BA
360
2D
  3
BACKS
360
2E
  3
BASE
360
2F
  3
BLOQ_INUTIL
360
30
  3
CADKON
360
31
  3
CARPINTERIA
360
32
  3
CERRADOS
360
33
  3
COL
360
34
  3
COLOR
360
35
  3
COLOR_250
360
36
  3
COLORES
360
37
  3
CONGELADOS
360
38
  3
CONJUNTO
360
39
  3
D1
360
3A
  3
DA_
360
3B
  3
DET-
360
3C
  3
DOR-H
360
3D
  3
EJES
360
3E
  3
ELECTRICO
360
3F
  3
F1
360
40
  3
FROZEN
360
41
  3
GRID
360
42
  3
GRIDTXT
360
43
  3
HATCH
360
44
  3
HCAD
360
45
  3
INSTALACIONES
360
46
  3
JIZNI
360
47
  3
KCK
360
48
  3
KKK
360
49
  3
LAY
360
4A
  3
LAYER-0
360
4E
  3
LAYER-1
360
4F
  3
LAYER_1_UND_0
360
4B
  3
LAYER_2_UND_0
360
4C
  3
LAYER_9_UND_0_SCHRAFFUR
360
4D
  3
LOCK
360
50
  3
LOCKED
360
51
  3
LOTES
360
52
  3
LUNAR
360
53
  3
LUNAR2
360
54
  3
M
360
55
  3
MIS_LAYERS
360
56
  3
MRKCK
360
57
  3
NECADKON
360
58
  3
NI_LH
360
59
  3
NI_RH
360
5A
  3
NUM
360
5B
  3
OFF
360
5C
  3
ON
360
5D
  3
PBASE
360
5E
  3
PEGC
360
5F
  3
PEGCT
360
60
  3
PFRAME
360
61
  3
PGRID
360
62
  3
PGRIDT
360
63
  3
PLAFONES
360
64
  3
PLANTAS
360
65
  3
PLOT
360
66
  3
PRENDIDAS
360
67
  3
PRENDIDOS
360
68
  3
PRINT
360
69
  3
PT
360
6A
  3
PTH
360
6B
  3
PVGRID
360
6C
  3
RED_DE_AGUA_POTABLE
360
6D
  3
RED_DE_ENERGIA_ELECTRICA
360
6E
  3
SEVERNI
360
6F
  3
SHIN
360
70
  3
SHOW_ALL_LAYER
360
71
  3
SIN
360
72
  3
STORAGE-CART
360
73
  3
T
360
74
  3
TEXTOS
360
75
  3
TEXTURAS
360
76
  3
TUBERIAS
360
77
  3
UNFRZ
360
78
  3
V\U+0160ECHNY_NEPOU\U+017D\U+00CDVAN\U+00C9
360
79
  3
VA
360
7A
  3
VENTILACI\U+00D3N
360
7B
  3
VYHODNI
360
7C
  3
YO
360
7D
  3
ZAPADNI
360
7E
  3
사용
360
7F
  3
신규
360
80
  3
실박스
360
81
  3
우리토목
360
82
  3
주차
360
83
  3
지상정밀
360
84
  3
쩜선
360
85
  3
플로터_작업층
360
86
  3
현재_작업층
360
87
  3
현재_잠금
360
88
  0
DICTIONARY
  5
89
102
{ACAD_REACTORS
330
15
102
}
330
15
100
AcDbDictionary
  0
XRECORD
  5
505
102
{ACAD_REACTORS
330
3
102
}
330
3
100
AcDbXrecord
340
2
  0
XRECORD
  5
506
102
{ACAD_REACTORS
330
F
102
}
330
F
100
AcDbXrecord
340
E
  0
DIMASSOC
  5
9F
102
{ACAD_REACTORS
330
9E
102
}
330
9E
100
AcDbDimAssoc
330
9D
 90
        3
 70
     0
 71
     0
  1
AcDbOsnapPointRef
 72
    13
331
27B
 73
     2
 91
        0
 40
0.0
 10
183.0413804850468
 20
408.4418457550132
 30
0.0
 75
     0
  1
AcDbOsnapPointRef
 72
     1
331
27B
 73
     2
 91
        0
 40
1.0
 10
209.0413804850468
 20
408.4418457550132
 30
0.0
 75
     0
  0
DIMASSOC
  5
C2
102
{ACAD_REACTORS
330
C1
102
}
330
C1
100
AcDbDimAssoc
330
C0
 90
        2
 70
     0
 71
     0
  1
AcDbOsnapPointRef
 72
    13
331
297
 73
     2
 91
        0
 40
0.0
 10
127.5453574215225
 20
403.4418457550132
 30
0.0
 75
     0
  0
DIMASSOC
  5
D1
102
{ACAD_REACTORS
330
D0
102
}
330
D0
100
AcDbDimAssoc
330
CF
 90
        2
 70
     0
 71
     0
  1
AcDbOsnapPointRef
 72
     3
331
1B3
 73
     2
 91
        0
 40
0.0
 10
14.95552762596889
 20
89.57788265723342
 30
0.0
 75
     0
  0
DIMASSOC
  5
E7
102
{ACAD_REACTORS
330
E6
102
}
330
E6
100
AcDbDimAssoc
330
E5
 90
       15
 70
     0
 71
     0
  1
AcDbOsnapPointRef
 72
    13
331
E1
 73
     2
 91
        0
 40
0.0
 10
14.95552762597435
 20
89.57788265723342
 30
0.0
 75
     0
  1
AcDbOsnapPointRef
 72
     1
331
E1
 73
     2
 91
        0
 40
1.0
 10
28.2489362441338
 20
57.4847552811043
 30
0.0
 75
     0
  1
AcDbOsnapPointRef
 72
    13
331
E3
 73
     2
 91
        0
 40
0.0
 10
14.95552762596889
 20
54.57788265723229
 30
0.0
 75
     0
  1
AcDbOsnapPointRef
 72
     1
331
E3
 73
     2
 91
        0
 40
1.0
 10
14.95552762596889
 20
124.5778826572322
 30
0.0
 75
     0
  0
DIMASSOC
  5
149
102
{ACAD_REACTORS
330
148
102
}
330
148
100
AcDbDimAssoc
330
147
 90
        3
 70
     0
 71
     0
  1
AcDbOsnapPointRef
 72
     1
331
2DF
 73
     2
 91
        0
 40
1.0
 10
183.8284242656736
 20
283.6591419456695
 30
0.0
 75
     0
  1
AcDbOsnapPointRef
 72
     1
331
169
 73
     2
 91
        0
 40
1.0
 10
215.8284242656737
 20
248.1591419456695
 30
0.0
 75
     0
  0
DIMASSOC
  5
15C
102
{ACAD_REACTORS
330
15B
102
}
330
15B
100
AcDbDimAssoc
330
15A
 90
        3
 70
     0
 71
     0
  1
AcDbOsnapPointRef
 72
    13
331
157
 73
     2
 91
        0
 40
3.141592653589792
 10
58.72686109627466
 20
252.6591419456694
 30
0.0
 75
     0
  1
AcDbOsnapPointRef
 72
     1
331
2A8
 73
     2
 91
        0
 40
1.0
 10
118.7268610962746
 20
252.6591419456694
 30
0.0
 75
     0
  0
DIMASSOC
  5
16D
102
{ACAD_REACTORS
330
16C
102
}
330
16C
100
AcDbDimAssoc
330
16B
 90
        3
 70
     0
 71
     0
  1
AcDbOsnapPointRef
 72
    13
331
104
 73
     2
 91
        0
 40
0.0
 10
176.4389902733637
 20
119.5778826572334
 30
0.0
 75
     0
  1
AcDbOsnapPointRef
 72
     6
331
106
 73
     2
 91
        0
 40
0.0000000000000078
 10
291.4389902733637
 20
118.5778826572316
 30
0.0
332
269
 74
     2
 92
        0
 75
     0
  0
DIMASSOC
  5
17E
102
{ACAD_REACTORS
330
17D
102
}
330
17D
100
AcDbDimAssoc
330
17C
 90
        3
 70
     0
 71
     0
  1
AcDbOsnapPointRef
 72
    13
331
1BA
 73
     2
 91
        0
 40
0.0
 10
104.4389902733637
 20
102.5778826572313
 30
0.0
 75
     0
  1
AcDbOsnapPointRef
 72
     1
331
1BA
 73
     2
 91
        0
 40
1.0
 10
104.4389902733637
 20
95.57788265723138
 30
0.0
 75
     0
  0
DIMASSOC
  5
18F
102
{ACAD_REACTORS
330
18E
102
}
330
18E
100
AcDbDimAssoc
330
18D
 90
        1
 70
     0
 71
     0
  1
AcDbOsnapPointRef
 72
     1
331
227
 73
     2
 91
        0
 40
1.0
 10
100.5408514721366
 20
99.57788265723138
 30
0.0
 75
     0
  0
DIMASSOC
  5
19E
102
{ACAD_REACTORS
330
19D
102
}
330
19D
100
AcDbDimAssoc
330
19C
 90
        3
 70
     0
 71
     0
  1
AcDbOsnapPointRef
 72
    13
331
DD
 73
     2
 91
        0
 40
0.0
 10
-15.04447237402928
 20
114.5778826572334
 30
0.0
 75
     0
  1
AcDbOsnapPointRef
 72
    13
331
E2
 73
     2
 91
        0
 40
0.0
 10
44.95552762597071
 20
114.5778826572334
 30
0.0
 75
     0
  0
DIMASSOC
  5
1C1
102
{ACAD_REACTORS
330
1C0
102
}
330
1C0
100
AcDbDimAssoc
330
1BF
 90
        2
 70
     0
 71
     0
  1
AcDbOsnapPointRef
 72
     1
331
1CE
 73
     2
 91
        0
 40
1.0
 10
183.4389902733619
 20
118.1766199987623
 30
0.0
 75
     0
  0
DIMASSOC
  5
1D7
102
{ACAD_REACTORS
330
1D6
102
}
330
1D6
100
AcDbDimAssoc
330
1D5
 90
        3
 70
     0
 71
     0
  1
AcDbOsnapPointRef
 72
    13
331
1EC
 73
     2
 91
        0
 40
0.0
 10
133.4389902733637
 20
111.0778826572313
 30
0.0
 75
     0
  1
AcDbOsnapPointRef
 72
    13
331
108
 73
     2
 91
        0
 40
0.0
 10
136.4389902733637
 20
119.0778826572322
 30
0.0
 75
     0
  0
DIMASSOC
  5
209
102
{ACAD_REACTORS
330
208
102
}
330
208
100
AcDbDimAssoc
330
207
 90
        2
 70
     0
 71
     0
  1
AcDbOsnapPointRef
 72
     1
331
1D3
 73
     2
 91
        0
 40
1.0
 10
116.4389902733637
 20
103.5778826572313
 30
0.0
 75
     0
  0
DIMASSOC
  5
21A
102
{ACAD_REACTORS
330
219
102
}
330
219
100
AcDbDimAssoc
330
218
 90
        3
 70
     0
 71
     0
  1
AcDbOsnapPointRef
 72
    13
331
1BA
 73
     2
 91
        0
 40
0.0
 10
104.4389902733637
 20
102.5778826572313
 30
0.0
 75
     0
  1
AcDbOsnapPointRef
 72
    13
331
108
 73
     2
 91
        0
 40
0.0
 10
136.4389902733637
 20
119.0778826572322
 30
0.0
 75
     0
  0
DIMASSOC
  5
22C
102
{ACAD_REACTORS
330
22B
102
}
330
22B
100
AcDbDimAssoc
330
22A
 90
        3
 70
     0
 71
     0
  1
AcDbOsnapPointRef
 72
     1
331
229
 73
     2
 91
        0
 40
1.0
 10
104.4389902733637
 20
102.5778826572313
 30
0.0
 75
     0
  1
AcDbOsnapPointRef
 72
    13
331
1D4
 73
     2
 91
        0
 40
0.0
 10
116.4389902733637
 20
103.5778826572313
 30
0.0
 75
     0
  0
DIMASSOC
  5
244
102
{ACAD_REACTORS
330
243
102
}
330
243
100
AcDbDimAssoc
330
242
 90
        3
 70
     0
 71
     0
  1
AcDbOsnapPointRef
 72
     1
331
16A
 73
     2
 91
        0
 40
1.0
 10
255.8284242656755
 20
248.1591419456695
 30
0.0
 75
     0
  1
AcDbOsnapPointRef
 72
     1
331
169
 73
     2
 91
        0
 40
1.0
 10
215.8284242656737
 20
248.1591419456695
 30
0.0
 75
     0
  0
DIMASSOC
  5
26C
102
{ACAD_REACTORS
330
26B
102
}
330
26B
100
AcDbDimAssoc
330
26A
 90
        3
 70
     0
 71
     0
  1
AcDbOsnapPointRef
 72
    13
331
33E
 73
     2
 91
        0
 40
0.0
 10
181.0413804850468
 20
405.4418457550132
 30
0.0
 75
     0
  1
AcDbOsnapPointRef
 72
    13
331
33D
 73
     2
 91
        0
 40
0.0
 10
183.0413804850468
 20
408.4418457550132
 30
0.0
 75
     0
  0
DIMASSOC
  5
2BF
102
{ACAD_REACTORS
330
2BE
102
}
330
2BE
100
AcDbDimAssoc
330
2BD
 90
        3
 70
     0
 71
     0
  1
AcDbOsnapPointRef
 72
     2
331
2DE
 73
     2
 91
        0
 40
0.5
 10
198.3284242656736
 20
283.6591419456695
 30
0.0
 75
     0
  1
AcDbOsnapPointRef
 72
     1
331
2E1
 73
     2
 91
        0
 40
1.0
 10
195.8284242656736
 20
291.6591419456695
 30
0.0
 75
     0
  0
DIMASSOC
  5
2D0
102
{ACAD_REACTORS
330
2CF
102
}
330
2CF
100
AcDbDimAssoc
330
2CE
 90
        3
 70
     0
 71
     0
  1
AcDbOsnapPointRef
 72
     1
331
2DD
 73
     2
 91
        0
 40
1.0
 10
183.8284242656736
 20
290.6591419456694
 30
0.0
 75
     0
  1
AcDbOsnapPointRef
 72
    13
331
2E0
 73
     2
 91
        0
 40
0.0
 10
195.8284242656736
 20
291.6591419456695
 30
0.0
 75
     0
  0
DIMASSOC
  5
308
102
{ACAD_REACTORS
330
307
102
}
330
307
100
AcDbDimAssoc
330
306
 90
        3
 70
     0
 71
     0
  1
AcDbOsnapPointRef
 72
    13
331
2DF
 73
     2
 91
        0
 40
0.0
 10
183.8284242656736
 20
290.6591419456694
 30
0.0
 75
     0
  1
AcDbOsnapPointRef
 72
     1
331
2DF
 73
     2
 91
        0
 40
1.0
 10
183.8284242656736
 20
283.6591419456695
 30
0.0
 75
     0
  0
DIMASSOC
  5
319
102
{ACAD_REACTORS
330
318
102
}
330
318
100
AcDbDimAssoc
330
317
 90
        3
 70
     0
 71
     0
  1
AcDbOsnapPointRef
 72
     1
331
27E
 73
     2
 91
        0
 40
1.0
 10
179.9302854644447
 20
287.6591419456694
 30
0.0
 75
     0
  1
AcDbOsnapPointRef
 72
    13
331
27F
 73
     2
 91
        0
 40
0.0
 10
172.2207511315718
 20
277.6591419456694
 30
0.0
 75
     0
  0
DIMASSOC
  5
330
102
{ACAD_REACTORS
330
32F
102
}
330
32F
100
AcDbDimAssoc
330
32E
 90
        3
 70
     0
 71
     0
  1
AcDbOsnapPointRef
 72
    13
331
33E
 73
     2
 91
        0
 40
0.0
 10
181.0413804850468
 20
405.4418457550132
 30
0.0
 75
     0
  1
AcDbOsnapPointRef
 72
     1
331
33E
 73
     2
 91
        0
 40
1.0
 10
181.0413804850468
 20
351.4418457550132
 30
0.0
 75
     0
  0
DIMASSOC
  5
34C
102
{ACAD_REACTORS
330
34B
102
}
330
34B
100
AcDbDimAssoc
330
34A
 90
        2
 70
     0
 71
     0
  1
AcDbOsnapPointRef
 72
     3
331
348
 73
     2
 91
        0
 40
0.0
 10
97.54535742151894
 20
378.4418457550132
 30
0.0
 75
     0
  0
MLINESTYLE
  5
9B
102
{ACAD_REACTORS
330
99
102
}
330
99
100
AcDbMlineStyle
  2
STANDARD
 70
     0
  3

 62
   256
 51
90.0
 52
90.0
 71
     2
 49
0.5
 62
   256
  6
BYLAYER
 49
-0.5
 62
   256
  6
BYLAYER
  0
ACDBPLACEHOLDER
  5
7
102
{ACAD_REACTORS
330
8
102
}
330
8
100
AcDbPlaceHolder
280
     0
  0
XRECORD
  5
4EE
102
{ACAD_REACTORS
330
4E4
102
}
330
4E4
100
AcDbXrecord
 90
        0
  0
XRECORD
  5
4F2
102
{ACAD_REACTORS
330
4E4
102
}
330
4E4
100
AcDbXrecord
1000
DSTYLE
1002
{
1070
    79
 70
     2
1070
   179
 70
     1
1070
   289
 70
     0
1002
}
  0
XRECORD
  5
4EF
102
{ACAD_REACTORS
330
4E4
102
}
330
4E4
100
AcDbXrecord
  1
{FDEAD578-A652-11D2-9A35-0060089B3A3F}
  0
XRECORD
  5
4E7
102
{ACAD_REACTORS
330
4E4
102
}
330
4E4
100
AcDbXrecord
  1

  0
XRECORD
  5
4ED
102
{ACAD_REACTORS
330
4E4
102
}
330
4E4
100
AcDbXrecord
 90
        4
  0
XRECORD
  5
4E9
102
{ACAD_REACTORS
330
4E4
102
}
330
4E4
100
AcDbXrecord
340
D
  0
XRECORD
  5
4EC
102
{ACAD_REACTORS
330
4E4
102
}
330
4E4
100
AcDbXrecord
 90
    10781
  0
XRECORD
  5
4EA
102
{ACAD_REACTORS
330
4E4
102
}
330
4E4
100
AcDbXrecord
340
9A
  0
XRECORD
  5
4EB
102
{ACAD_REACTORS
330
4E4
102
}
330
4E4
100
AcDbXrecord
340
8
  0
XRECORD
  5
4F1
102
{ACAD_REACTORS
330
4E4
102
}
330
4E4
100
AcDbXrecord
 40
0.0
  0
XRECORD
  5
4F5
102
{ACAD_REACTORS
330
4E4
102
}
330
4E4
100
AcDbXrecord
340
0
  0
XRECORD
  5
4FB
102
{ACAD_REACTORS
330
4E4
102
}
330
4E4
100
AcDbXrecord
 10
0.0
 20
0.0
 30
0.0
  0
XRECORD
  5
4F7
102
{ACAD_REACTORS
330
4E4
102
}
330
4E4
100
AcDbXrecord
 10
0.0
 20
0.0
 30
0.0
  0
XRECORD
  5
4FA
102
{ACAD_REACTORS
330
4E4
102
}
330
4E4
100
AcDbXrecord
 10
0.0
 20
0.0
 30
0.0
  0
XRECORD
  5
4F8
102
{ACAD_REACTORS
330
4E4
102
}
330
4E4
100
AcDbXrecord
 10
0.0
 20
0.0
 30
0.0
  0
XRECORD
  5
4F9
102
{ACAD_REACTORS
330
4E4
102
}
330
4E4
100
AcDbXrecord
 10
0.0
 20
0.0
 30
0.0
  0
XRECORD
  5
4F6
102
{ACAD_REACTORS
330
4E4
102
}
330
4E4
100
AcDbXrecord
 10
0.0
 20
0.0
 30
0.0
  0
XRECORD
  5
4F3
102
{ACAD_REACTORS
330
4E4
102
}
330
4E4
100
AcDbXrecord
340
0
  0
XRECORD
  5
4F4
102
{ACAD_REACTORS
330
4E4
102
}
330
4E4
100
AcDbXrecord
 70
     0
  0
XRECORD
  5
4E8
102
{ACAD_REACTORS
330
4E4
102
}
330
4E4
100
AcDbXrecord
  1

  0
XRECORD
  5
4E5
102
{ACAD_REACTORS
330
4E4
102
}
330
4E4
100
AcDbXrecord
 90
        1
  0
XRECORD
  5
4E6
102
{ACAD_REACTORS
330
4E4
102
}
330
4E4
100
AcDbXrecord
 90
       70
  0
XRECORD
  5
4FE
102
{ACAD_REACTORS
330
4E4
102
}
330
4E4
100
AcDbXrecord
340
0
  0
XRECORD
  5
504
102
{ACAD_REACTORS
330
4E4
102
}
330
4E4
100
AcDbXrecord
 10
0.0
 20
0.0
 30
0.0
  0
XRECORD
  5
500
102
{ACAD_REACTORS
330
4E4
102
}
330
4E4
100
AcDbXrecord
 10
0.0
 20
0.0
 30
0.0
  0
XRECORD
  5
503
102
{ACAD_REACTORS
330
4E4
102
}
330
4E4
100
AcDbXrecord
 10
0.0
 20
0.0
 30
0.0
  0
XRECORD
  5
501
102
{ACAD_REACTORS
330
4E4
102
}
330
4E4
100
AcDbXrecord
 10
0.0
 20
0.0
 30
0.0
  0
XRECORD
  5
502
102
{ACAD_REACTORS
330
4E4
102
}
330
4E4
100
AcDbXrecord
 10
0.0
 20
0.0
 30
0.0
  0
XRECORD
  5
4FF
102
{ACAD_REACTORS
330
4E4
102
}
330
4E4
100
AcDbXrecord
 10
0.0
 20
0.0
 30
0.0
  0
XRECORD
  5
4FC
102
{ACAD_REACTORS
330
4E4
102
}
330
4E4
100
AcDbXrecord
340
0
  0
XRECORD
  5
4FD
102
{ACAD_REACTORS
330
4E4
102
}
330
4E4
100
AcDbXrecord
 70
     0
  0
XRECORD
  5
4F0
102
{ACAD_REACTORS
330
4E4
102
}
330
4E4
100
AcDbXrecord
  1
{4D1521FA-53BB-4938-8B62-5DFA17280AB3}
  0
DICTIONARYVAR
  5
35A
102
{ACAD_REACTORS
330
358
102
}
330
358
100
DictionaryVariables
280
     0
  1
2
  0
DICTIONARYVAR
  5
359
102
{ACAD_REACTORS
330
358
102
}
330
358
100
DictionaryVariables
280
     0
  1
1
  0
XRECORD
  5
17
102
{ACAD_REACTORS
330
16
102
}
330
16
100
AcDbXrecord
  1
$layers
  1
*
  1
*
  1
*
 70
     0
  1
*
  1
*
  0
XRECORD
  5
18
102
{ACAD_REACTORS
330
16
102
}
330
16
100
AcDbXrecord
  1
- und 0
  1
-*,0
  1
*
  1
*
 70
     0
  1
*
  1
*
  0
XRECORD
  5
19
102
{ACAD_REACTORS
330
16
102
}
330
16
100
AcDbXrecord
  1
-pegc
  1
*-pegc
  1
*
  1
*
 70
     0
  1
*
  1
*
  0
XRECORD
  5
1A
102
{ACAD_REACTORS
330
16
102
}
330
16
100
AcDbXrecord
  1
101
  1
*101
  1
*
  1
*
 70
   256
  1
*
  1
*
  0
XRECORD
  5
1B
102
{ACAD_REACTORS
330
16
102
}
330
16
100
AcDbXrecord
  1
102
  1
102*
  1
*
  1
*
 70
     0
  1
*
  1
*
  0
XRECORD
  5
1C
102
{ACAD_REACTORS
330
16
102
}
330
16
100
AcDbXrecord
  1
1duc
  1
*1duc*
  1
*
  1
*
 70
     0
  1
*
  1
*
  0
XRECORD
  5
1D
102
{ACAD_REACTORS
330
16
102
}
330
16
100
AcDbXrecord
  1
1eq
  1
*1eq*
  1
*
  1
*
 70
     0
  1
*
  1
*
  0
XRECORD
  5
1E
102
{ACAD_REACTORS
330
16
102
}
330
16
100
AcDbXrecord
  1
1tub
  1
*1t*
  1
*
  1
*
 70
     0
  1
*
  1
*
  0
XRECORD
  5
1F
102
{ACAD_REACTORS
330
16
102
}
330
16
100
AcDbXrecord
  1
2
  1
*
  1
2
  1
*
 70
     0
  1
*
  1
*
  0
XRECORD
  5
20
102
{ACAD_REACTORS
330
16
102
}
330
16
100
AcDbXrecord
  1
2000
  1
2000*
  1
*
  1
*
 70
     0
  1
*
  1
*
  0
XRECORD
  5
21
102
{ACAD_REACTORS
330
16
102
}
330
16
100
AcDbXrecord
  1
50
  1
*-50
  1
*
  1
*
 70
     0
  1
*
  1
*
  0
XRECORD
  5
22
102
{ACAD_REACTORS
330
16
102
}
330
16
100
AcDbXrecord
  1
58J
  1
*58*
  1
*
  1
*
 70
     0
  1
*
  1
*
  0
XRECORD
  5
23
102
{ACAD_REACTORS
330
16
102
}
330
16
100
AcDbXrecord
  1
65
  1
*65
  1
*
  1
*
 70
     0
  1
*
  1
*
  0
XRECORD
  5
24
102
{ACAD_REACTORS
330
16
102
}
330
16
100
AcDbXrecord
  1
aa
  1
aa*
  1
*
  1
*
 70
     0
  1
*
  1
*
  0
XRECORD
  5
25
102
{ACAD_REACTORS
330
16
102
}
330
16
100
AcDbXrecord
  1
acabados
  1
a-*
  1
*
  1
*
 70
     5
  1
*
  1
*
  0
XRECORD
  5
26
102
{ACAD_REACTORS
330
16
102
}
330
16
100
AcDbXrecord
  1
AGUA Y DREN
  1
A-DS-*
  1
*
  1
*
 70
     0
  1
*
  1
*
  0
XRECORD
  5
27
102
{ACAD_REACTORS
330
16
102
}
330
16
100
AcDbXrecord
  1
Aire
  1
*
  1
*
  1
*
 70
     0
  1
*
  1
*
  0
XRECORD
  5
28
102
{ACAD_REACTORS
330
16
102
}
330
16
100
AcDbXrecord
  1
alle aus
  1
99999999999
  1
*
  1
*
 70
     0
  1
*
  1
*
  0
XRECORD
  5
29
102
{ACAD_REACTORS
330
16
102
}
330
16
100
AcDbXrecord
  1
Alles mit S
  1
s*
  1
*
  1
*
 70
     0
  1
*
  1
*
  0
XRECORD
  5
2A
102
{ACAD_REACTORS
330
16
102
}
330
16
100
AcDbXrecord
  1
amarillo
  1
*
  1
yellow
  1
*
 70
     0
  1
*
  1
*
  0
XRECORD
  5
2B
102
{ACAD_REACTORS
330
16
102
}
330
16
100
AcDbXrecord
  1
APAGADOS
  1
*
  1
*
  1
*
 70
     4
  1
*
  1
*
  0
XRECORD
  5
2C
102
{ACAD_REACTORS
330
16
102
}
330
16
100
AcDbXrecord
  1
ARR
  1
ARR*
  1
*
  1
*
 70
     0
  1
*
  1
*
  0
XRECORD
  5
2D
102
{ACAD_REACTORS
330
16
102
}
330
16
100
AcDbXrecord
  1
ba
  1
*
  1
*
  1
*
 70
     0
  1
*
  1
*
  0
XRECORD
  5
2E
102
{ACAD_REACTORS
330
16
102
}
330
16
100
AcDbXrecord
  1
BACKS
  1
*-H
  1
*
  1
*
 70
     0
  1
*
  1
*
  0
XRECORD
  5
2F
102
{ACAD_REACTORS
330
16
102
}
330
16
100
AcDbXrecord
  1
BASE
  1
*-PBASE
  1
*
  1
*
 70
     0
  1
*
  1
*
  0
XRECORD
  5
30
102
{ACAD_REACTORS
330
16
102
}
330
16
100
AcDbXrecord
  1
BLOQ_INUTIL
  1
*
  1
*
  1
*
 70
     0
  1
*
  1
*
  0
XRECORD
  5
31
102
{ACAD_REACTORS
330
16
102
}
330
16
100
AcDbXrecord
  1
CADKON
  1
?[KAHBSM]?????[23M],?[KAHBSM]?????[23M][1456A-DGHILN-SU-Z]
  1
*
  1
*
 70
     0
  1
*
  1
*
  0
XRECORD
  5
32
102
{ACAD_REACTORS
330
16
102
}
330
16
100
AcDbXrecord
  1
carpinteria
  1
carp*
  1
*
  1
*
 70
     0
  1
*
  1
*
  0
XRECORD
  5
33
102
{ACAD_REACTORS
330
16
102
}
330
16
100
AcDbXrecord
  1
cerrados
  1
*
  1
*
  1
*
 70
   256
  1
*
  1
*
  0
XRECORD
  5
34
102
{ACAD_REACTORS
330
16
102
}
330
16
100
AcDbXrecord
  1
COL
  1
*
  1
*
  1
*
 70
     1
  1
*
  1
*
  0
XRECORD
  5
35
102
{ACAD_REACTORS
330
16
102
}
330
16
100
AcDbXrecord
  1
COLOR
  1
*
  1
253
  1
*
 70
     0
  1
*
  1
*
  0
XRECORD
  5
36
102
{ACAD_REACTORS
330
16
102
}
330
16
100
AcDbXrecord
  1
color 250
  1
*
  1
250
  1
*
 70
     0
  1
*
  1
*
  0
XRECORD
  5
37
102
{ACAD_REACTORS
330
16
102
}
330
16
100
AcDbXrecord
  1
COLORES
  1
*
  1
6
  1
*
 70
     0
  1
*
  1
*
  0
XRECORD
  5
38
102
{ACAD_REACTORS
330
16
102
}
330
16
100
AcDbXrecord
  1
Congelados
  1
*
  1
*
  1
*
 70
     4
  1
*
  1
*
  0
XRECORD
  5
39
102
{ACAD_REACTORS
330
16
102
}
330
16
100
AcDbXrecord
  1
CONJUNTO
  1
CON-*
  1
*
  1
*
 70
     0
  1
*
  1
*
  0
XRECORD
  5
3A
102
{ACAD_REACTORS
330
16
102
}
330
16
100
AcDbXrecord
  1
d1
  1
achurados
  1
*
  1
*
 70
     0
  1
*
  1
*
  0
XRECORD
  5
3B
102
{ACAD_REACTORS
330
16
102
}
330
16
100
AcDbXrecord
  1
DA_
  1
DA*
  1
*
  1
*
 70
     0
  1
*
  1
*
  0
XRECORD
  5
3C
102
{ACAD_REACTORS
330
16
102
}
330
16
100
AcDbXrecord
  1
DET-
  1
*
  1
*
  1
*
 70
     0
  1
*
  1
*
  0
XRECORD
  5
3D
102
{ACAD_REACTORS
330
16
102
}
330
16
100
AcDbXrecord
  1
DOR-H
  1
*
  1
7
  1
*
 70
     0
  1
*
  1
*
  0
XRECORD
  5
3E
102
{ACAD_REACTORS
330
16
102
}
330
16
100
AcDbXrecord
  1
ejes
  1
eje*
  1
*
  1
*
 70
     0
  1
*
  1
*
  0
XRECORD
  5
3F
102
{ACAD_REACTORS
330
16
102
}
330
16
100
AcDbXrecord
  1
ELECTRICO
  1
ELEC-*
  1
*
  1
*
 70
     0
  1
*
  1
*
  0
XRECORD
  5
40
102
{ACAD_REACTORS
330
16
102
}
330
16
100
AcDbXrecord
  1
F1
  1
Halaxref*
  1
*
  1
*
 70
     0
  1
*
  1
*
  0
XRECORD
  5
41
102
{ACAD_REACTORS
330
16
102
}
330
16
100
AcDbXrecord
  1
frozen
  1
*
  1
*
  1
*
 70
     4
  1
*
  1
*
  0
XRECORD
  5
42
102
{ACAD_REACTORS
330
16
102
}
330
16
100
AcDbXrecord
  1
grid
  1
*-PGRID
  1
*
  1
*
 70
     1
  1
*
  1
*
  0
XRECORD
  5
43
102
{ACAD_REACTORS
330
16
102
}
330
16
100
AcDbXrecord
  1
GRIDTXT
  1
*-PGRIDT
  1
*
  1
*
 70
     0
  1
*
  1
*
  0
XRECORD
  5
44
102
{ACAD_REACTORS
330
16
102
}
330
16
100
AcDbXrecord
  1
HATCH
  1
HAT*
  1
*
  1
*
 70
     0
  1
*
  1
*
  0
XRECORD
  5
45
102
{ACAD_REACTORS
330
16
102
}
330
16
100
AcDbXrecord
  1
HCAD
  1
1HCAD-*
  1
*
  1
*
 70
    13
  1
*
  1
*
  0
XRECORD
  5
46
102
{ACAD_REACTORS
330
16
102
}
330
16
100
AcDbXrecord
  1
INSTALACIONES
  1
I-*
  1
*
  1
*
 70
     0
  1
*
  1
*
  0
XRECORD
  5
47
102
{ACAD_REACTORS
330
16
102
}
330
16
100
AcDbXrecord
  1
JIZNI
  1
*-J
  1
*
  1
*
 70
     0
  1
*
  1
*
  0
XRECORD
  5
48
102
{ACAD_REACTORS
330
16
102
}
330
16
100
AcDbXrecord
  1
kck
  1
*
  1
*
  1
*
 70
     0
  1
*
  1
*
  0
XRECORD
  5
49
102
{ACAD_REACTORS
330
16
102
}
330
16
100
AcDbXrecord
  1
kkk
  1
k
  1
*
  1
*
 70
     0
  1
*
  1
*
  0
XRECORD
  5
4A
102
{ACAD_REACTORS
330
16
102
}
330
16
100
AcDbXrecord
  1
lay
  1
??-*
  1
*
  1
*
 70
     0
  1
*
  1
*
  0
XRECORD
  5
4E
102
{ACAD_REACTORS
330
16
102
}
330
16
100
AcDbXrecord
  1
Layer-0
  1
0*
  1
*
  1
*
 70
     0
  1
*
  1
*
  0
XRECORD
  5
4F
102
{ACAD_REACTORS
330
16
102
}
330
16
100
AcDbXrecord
  1
Layer-1
  1
1*
  1
*
  1
*
 70
     0
  1
*
  1
*
  0
XRECORD
  5
4B
102
{ACAD_REACTORS
330
16
102
}
330
16
100
AcDbXrecord
  1
Layer 1 und 0
  1
1*,0
  1
*
  1
*
 70
     0
  1
*
  1
*
  0
XRECORD
  5
4C
102
{ACAD_REACTORS
330
16
102
}
330
16
100
AcDbXrecord
  1
Layer 2 und 0
  1
2*,0
  1
*
  1
*
 70
     0
  1
*
  1
*
  0
XRECORD
  5
4D
102
{ACAD_REACTORS
330
16
102
}
330
16
100
AcDbXrecord
  1
Layer 9 und 0 Schraffur
  1
9*,0
  1
*
  1
*
 70
     0
  1
*
  1
*
  0
XRECORD
  5
50
102
{ACAD_REACTORS
330
16
102
}
330
16
100
AcDbXrecord
  1
LOCK
  1
*
  1
*
  1
*
 70
   256
  1
*
  1
*
  0
XRECORD
  5
51
102
{ACAD_REACTORS
330
16
102
}
330
16
100
AcDbXrecord
  1
locked
  1
*
  1
*
  1
*
 70
   256
  1
*
  1
*
  0
XRECORD
  5
52
102
{ACAD_REACTORS
330
16
102
}
330
16
100
AcDbXrecord
  1
Lotes
  1
*
  1
*
  1
*
 70
     1
  1
*
  1
*
  0
XRECORD
  5
53
102
{ACAD_REACTORS
330
16
102
}
330
16
100
AcDbXrecord
  1
LUNAR
  1
*
  1
*
  1
*
 70
    48
  1
*
  1
*
  0
XRECORD
  5
54
102
{ACAD_REACTORS
330
16
102
}
330
16
100
AcDbXrecord
  1
LUNAR2
  1
*
  1
*
  1
*
 70
    12
  1
*
  1
*
  0
XRECORD
  5
55
102
{ACAD_REACTORS
330
16
102
}
330
16
100
AcDbXrecord
  1
M
  1
M*
  1
*
  1
*
 70
     0
  1
*
  1
*
  0
XRECORD
  5
56
102
{ACAD_REACTORS
330
16
102
}
330
16
100
AcDbXrecord
  1
mis_layers
  1
mis_*
  1
*
  1
*
 70
     0
  1
*
  1
*
  0
XRECORD
  5
57
102
{ACAD_REACTORS
330
16
102
}
330
16
100
AcDbXrecord
  1
MRKCK
  1
*
  1
*
  1
*
 70
     0
  1
*
  1
*
  0
XRECORD
  5
58
102
{ACAD_REACTORS
330
16
102
}
330
16
100
AcDbXrecord
  1
NECADKON
  1
~*?[KAHBSM]?????[23M]*
  1
*
  1
*
 70
     0
  1
*
  1
*
  0
XRECORD
  5
59
102
{ACAD_REACTORS
330
16
102
}
330
16
100
AcDbXrecord
  1
NI_LH
  1
NI_LH*
  1
*
  1
*
 70
     0
  1
*
  1
*
  0
XRECORD
  5
5A
102
{ACAD_REACTORS
330
16
102
}
330
16
100
AcDbXrecord
  1
NI_RH
  1
NI_RH*
  1
*
  1
*
 70
     0
  1
*
  1
*
  0
XRECORD
  5
5B
102
{ACAD_REACTORS
330
16
102
}
330
16
100
AcDbXrecord
  1
NUM
  1
NUM*
  1
*
  1
*
 70
     0
  1
*
  1
*
  0
XRECORD
  5
5C
102
{ACAD_REACTORS
330
16
102
}
330
16
100
AcDbXrecord
  1
off
  1
*
  1
*
  1
*
 70
     3
  1
*
  1
*
  0
XRECORD
  5
5D
102
{ACAD_REACTORS
330
16
102
}
330
16
100
AcDbXrecord
  1
on
  1
*
  1
*
  1
*
 70
     0
  1
*
  1
*
  0
XRECORD
  5
5E
102
{ACAD_REACTORS
330
16
102
}
330
16
100
AcDbXrecord
  1
PBASE
  1
*PBASE
  1
*
  1
*
 70
     0
  1
*
  1
*
  0
XRECORD
  5
5F
102
{ACAD_REACTORS
330
16
102
}
330
16
100
AcDbXrecord
  1
PEGC
  1
*PEGC
  1
*
  1
*
 70
     0
  1
*
  1
*
  0
XRECORD
  5
60
102
{ACAD_REACTORS
330
16
102
}
330
16
100
AcDbXrecord
  1
PEGCT
  1
*PEGCT
  1
*
  1
*
 70
     0
  1
*
  1
*
  0
XRECORD
  5
61
102
{ACAD_REACTORS
330
16
102
}
330
16
100
AcDbXrecord
  1
PFRAME
  1
PFRAME*
  1
*
  1
*
 70
     0
  1
*
  1
*
  0
XRECORD
  5
62
102
{ACAD_REACTORS
330
16
102
}
330
16
100
AcDbXrecord
  1
PGRID
  1
*PGRID
  1
*
  1
*
 70
     0
  1
*
  1
*
  0
XRECORD
  5
63
102
{ACAD_REACTORS
330
16
102
}
330
16
100
AcDbXrecord
  1
PGRIDT
  1
*PGRIDT
  1
*
  1
*
 70
     0
  1
*
  1
*
  0
XRECORD
  5
64
102
{ACAD_REACTORS
330
16
102
}
330
16
100
AcDbXrecord
  1
PLAFONES
  1
0-*
  1
*
  1
*
 70
     0
  1
*
  1
*
  0
XRECORD
  5
65
102
{ACAD_REACTORS
330
16
102
}
330
16
100
AcDbXrecord
  1
PLANTAS
  1
P-*
  1
*
  1
*
 70
     0
  1
*
  1
*
  0
XRECORD
  5
66
102
{ACAD_REACTORS
330
16
102
}
330
16
100
AcDbXrecord
  1
Plot
  1
*
  1
*
  1
*
 70
  1024
  1
*
  1
*
  0
XRECORD
  5
67
102
{ACAD_REACTORS
330
16
102
}
330
16
100
AcDbXrecord
  1
PRENDIDAS
  1
*
  1
*
  1
*
 70
    13
  1
*
  1
*
  0
XRECORD
  5
68
102
{ACAD_REACTORS
330
16
102
}
330
16
100
AcDbXrecord
  1
PRENDIDOS
  1
*
  1
*
  1
*
 70
    12
  1
*
  1
*
  0
XRECORD
  5
69
102
{ACAD_REACTORS
330
16
102
}
330
16
100
AcDbXrecord
  1
print
  1
*
  1
7
  1
*
 70
  1280
  1
*
  1
*
  0
XRECORD
  5
6A
102
{ACAD_REACTORS
330
16
102
}
330
16
100
AcDbXrecord
  1
PT
  1
PT-*
  1
*
  1
*
 70
     0
  1
*
  1
*
  0
XRECORD
  5
6B
102
{ACAD_REACTORS
330
16
102
}
330
16
100
AcDbXrecord
  1
PTH
  1
PTH*
  1
*
  1
*
 70
     0
  1
*
  1
*
  0
XRECORD
  5
6C
102
{ACAD_REACTORS
330
16
102
}
330
16
100
AcDbXrecord
  1
PVGRID
  1
*PVGRID
  1
*
  1
*
 70
     0
  1
*
  1
*
  0
XRECORD
  5
6D
102
{ACAD_REACTORS
330
16
102
}
330
16
100
AcDbXrecord
  1
Red de Agua Potable
  1
Red de Agua Potable
  1
*
  1
*
 70
     1
  1
*
  1
*
  0
XRECORD
  5
6E
102
{ACAD_REACTORS
330
16
102
}
330
16
100
AcDbXrecord
  1
Red de Energia Electrica
  1
Lotes
  1
*
  1
*
 70
     1
  1
*
  1
*
  0
XRECORD
  5
6F
102
{ACAD_REACTORS
330
16
102
}
330
16
100
AcDbXrecord
  1
SEVERNI
  1
*-S
  1
*
  1
*
 70
     0
  1
*
  1
*
  0
XRECORD
  5
70
102
{ACAD_REACTORS
330
16
102
}
330
16
100
AcDbXrecord
  1
shin
  1
일*
  1
*
  1
*
 70
     0
  1
*
  1
*
  0
XRECORD
  5
71
102
{ACAD_REACTORS
330
16
102
}
330
16
100
AcDbXrecord
  1
SHOW ALL LAYER
  1
*
  1
*
  1
*
 70
     0
  1
*
  1
*
  0
XRECORD
  5
72
102
{ACAD_REACTORS
330
16
102
}
330
16
100
AcDbXrecord
  1
sin
  1
sin
  1
*
  1
*
 70
     0
  1
*
  1
*
  0
XRECORD
  5
73
102
{ACAD_REACTORS
330
16
102
}
330
16
100
AcDbXrecord
  1
STORAGE-CART
  1
STORAGE-CART*
  1
*
  1
*
 70
     0
  1
*
  1
*
  0
XRECORD
  5
74
102
{ACAD_REACTORS
330
16
102
}
330
16
100
AcDbXrecord
  1
T
  1
T*
  1
*
  1
*
 70
     0
  1
*
  1
*
  0
XRECORD
  5
75
102
{ACAD_REACTORS
330
16
102
}
330
16
100
AcDbXrecord
  1
TEXTOS
  1
TXT*
  1
*
  1
*
 70
     0
  1
*
  1
*
  0
XRECORD
  5
76
102
{ACAD_REACTORS
330
16
102
}
330
16
100
AcDbXrecord
  1
TEXTURAS
  1
*TEXTURAS
  1
*
  1
*
 70
     0
  1
*
  1
*
  0
XRECORD
  5
77
102
{ACAD_REACTORS
330
16
102
}
330
16
100
AcDbXrecord
  1
TUBERIAS
  1
T*
  1
*
  1
*
 70
     0
  1
*
  1
*
  0
XRECORD
  5
78
102
{ACAD_REACTORS
330
16
102
}
330
16
100
AcDbXrecord
  1
UNFRZ
  1
*
  1
*
  1
*
 70
    12
  1
*
  1
*
  0
XRECORD
  5
79
102
{ACAD_REACTORS
330
16
102
}
330
16
100
AcDbXrecord
  1
v\U+0161echny nepou\U+017E\U+00EDvan\U+00E9
  1
*
  1
*
  1
*
 70
     0
  1
*
  1
*
  0
XRECORD
  5
7A
102
{ACAD_REACTORS
330
16
102
}
330
16
100
AcDbXrecord
  1
VA
  1
VA*
  1
*
  1
*
 70
     0
  1
*
  1
*
  0
XRECORD
  5
7B
102
{ACAD_REACTORS
330
16
102
}
330
16
100
AcDbXrecord
  1
Ventilaci\U+00F3n
  1
*
  1
*
  1
*
 70
     0
  1
*
  1
*
  0
XRECORD
  5
7C
102
{ACAD_REACTORS
330
16
102
}
330
16
100
AcDbXrecord
  1
VYHODNI
  1
*-V
  1
*
  1
*
 70
     0
  1
*
  1
*
  0
XRECORD
  5
7D
102
{ACAD_REACTORS
330
16
102
}
330
16
100
AcDbXrecord
  1
Yo
  1
Muros
  1
*
  1
*
 70
     0
  1
*
  1
*
  0
XRECORD
  5
7E
102
{ACAD_REACTORS
330
16
102
}
330
16
100
AcDbXrecord
  1
ZAPADNI
  1
*-Z
  1
*
  1
*
 70
     0
  1
*
  1
*
  0
XRECORD
  5
7F
102
{ACAD_REACTORS
330
16
102
}
330
16
100
AcDbXrecord
  1
사용
  1
*
  1
*
  1
*
 70
   256
  1
*
  1
*
  0
XRECORD
  5
80
102
{ACAD_REACTORS
330
16
102
}
330
16
100
AcDbXrecord
  1
신규
  1
신규
  1
*
  1
*
 70
     0
  1
*
  1
*
  0
XRECORD
  5
81
102
{ACAD_REACTORS
330
16
102
}
330
16
100
AcDbXrecord
  1
실박스
  1
BLO,SYM,SYM1,SYM2
  1
*
  1
*
 70
     0
  1
*
  1
*
  0
XRECORD
  5
82
102
{ACAD_REACTORS
330
16
102
}
330
16
100
AcDbXrecord
  1
우리토목
  1
w-*
  1
*
  1
*
 70
     0
  1
*
  1
*
  0
XRECORD
  5
83
102
{ACAD_REACTORS
330
16
102
}
330
16
100
AcDbXrecord
  1
주차
  1
car*
  1
*
  1
*
 70
     0
  1
*
  1
*
  0
XRECORD
  5
84
102
{ACAD_REACTORS
330
16
102
}
330
16
100
AcDbXrecord
  1
지상정밀
  1
*
  1
*
  1
*
 70
     0
  1
*
  1
*
  0
XRECORD
  5
85
102
{ACAD_REACTORS
330
16
102
}
330
16
100
AcDbXrecord
  1
쩜선
  1
*
  1
*
  1
*
 70
     0
  1
*
  1
*
  0
XRECORD
  5
86
102
{ACAD_REACTORS
330
16
102
}
330
16
100
AcDbXrecord
  1
플로터 작업층
  1
*
  1
*
  1
*
 70
  1025
  1
*
  1
*
  0
XRECORD
  5
87
102
{ACAD_REACTORS
330
16
102
}
330
16
100
AcDbXrecord
  1
현재 작업층
  1
*
  1
*
  1
*
 70
     1
  1
*
  1
*
  0
XRECORD
  5
88
102
{ACAD_REACTORS
330
16
102
}
330
16
100
AcDbXrecord
  1
현재 잠금
  1
*
  1
*
  1
*
 70
   257
  1
*
  1
*
  0
ENDSEC
  0
EOF
