  0
SECTION
  2
HEADER
  9
$ACADVER
  1
AC1015
  9
$ACADMAINTVER
 70
    20
  9
$DWGCODEPAGE
  3
ANSI_949
  9
$INSBASE
 10
0.0
 20
0.0
 30
0.0
  9
$EXTMIN
 10
-6052.387844029915
 20
6032.691893240809
 30
-0.0000610323622112
  9
$EXTMAX
 10
-4889.219520922237
 20
6376.411802025748
 30
0.0000152650755787
  9
$LIMMIN
 10
0.0
 20
0.0
  9
$LIMMAX
 10
383.0
 20
273.0
  9
$ORTHOMODE
 70
     1
  9
$REGENMODE
 70
     1
  9
$FILLMODE
 70
     1
  9
$QTEXTMODE
 70
     0
  9
$MIRRTEXT
 70
     0
  9
$LTSCALE
 40
1.0
  9
$ATTMODE
 70
     1
  9
$TEXTSIZE
 40
3.0
  9
$TRACEWID
 40
1.0
  9
$TEXTSTYLE
  7
Standard
  9
$CLAYER
  8
0
  9
$CELTYPE
  6
ByLayer
  9
$CECOLOR
 62
   256
  9
$CELTSCALE
 40
1.0
  9
$DISPSILH
 70
     0
  9
$DIMSCALE
 40
1.0
  9
$DIMASZ
 40
2.5
  9
$DIMEXO
 40
1.0
  9
$DIMDLI
 40
10.0
  9
$DIMRND
 40
0.0
  9
$DIMDLE
 40
0.0
  9
$DIMEXE
 40
0.6
  9
$DIMTP
 40
0.0
  9
$DIMTM
 40
0.0
  9
$DIMTXT
 40
3.0
  9
$DIMCEN
 40
0.09
  9
$DIMTSZ
 40
0.0
  9
$DIMTOL
 70
     0
  9
$DIMLIM
 70
     0
  9
$DIMTIH
 70
     0
  9
$DIMTOH
 70
     0
  9
$DIMSE1
 70
     0
  9
$DIMSE2
 70
     0
  9
$DIMTAD
 70
     1
  9
$DIMZIN
 70
     8
  9
$DIMBLK
  1

  9
$DIMASO
 70
     1
  9
$DIMSHO
 70
     1
  9
$DIMPOST
  1

  9
$DIMAPOST
  1

  9
$DIMALT
 70
     0
  9
$DIMALTD
 70
     2
  9
$DIMALTF
 40
25.4
  9
$DIMLFAC
 40
1.0
  9
$DIMTOFL
 70
     1
  9
$DIMTVP
 40
0.0
  9
$DIMTIX
 70
     1
  9
$DIMSOXD
 70
     0
  9
$DIMSAH
 70
     0
  9
$DIMBLK1
  1

  9
$DIMBLK2
  1

  9
$DIMSTYLE
  2
STANDARD
  9
$DIMCLRD
 70
   123
  9
$DIMCLRE
 70
   123
  9
$DIMCLRT
 70
     3
  9
$DIMTFAC
 40
1.0
  9
$DIMGAP
 40
1.0
  9
$DIMJUST
 70
     0
  9
$DIMSD1
 70
     0
  9
$DIMSD2
 70
     0
  9
$DIMTOLJ
 70
     1
  9
$DIMTZIN
 70
     0
  9
$DIMALTZ
 70
     0
  9
$DIMALTTZ
 70
     0
  9
$DIMUPT
 70
     1
  9
$DIMDEC
 70
     2
  9
$DIMTDEC
 70
     2
  9
$DIMALTU
 70
     2
  9
$DIMALTTD
 70
     2
  9
$DIMTXSTY
  7
Standard
  9
$DIMAUNIT
 70
     1
  9
$DIMADEC
 70
     1
  9
$DIMALTRND
 40
0.0
  9
$DIMAZIN
 70
     2
  9
$DIMDSEP
 70
    46
  9
$DIMATFIT
 70
     0
  9
$DIMFRAC
 70
     0
  9
$DIMLDRBLK
  1

  9
$DIMLUNIT
 70
     2
  9
$DIMLWD
 70
    -2
  9
$DIMLWE
 70
    -2
  9
$DIMTMOVE
 70
     0
  9
$LUNITS
 70
     2
  9
$LUPREC
 70
     4
  9
$SKETCHINC
 40
1.0
  9
$FILLETRAD
 40
0.0
  9
$AUNITS
 70
     0
  9
$AUPREC
 70
     0
  9
$MENU
  1
.
  9
$ELEVATION
 40
0.0
  9
$PELEVATION
 40
0.0
  9
$THICKNESS
 40
0.0
  9
$LIMCHECK
 70
     0
  9
$CHAMFERA
 40
0.5
  9
$CHAMFERB
 40
0.5
  9
$CHAMFERC
 40
20.0
  9
$CHAMFERD
 40
0.0
  9
$SKPOLY
 70
     0
  9
$TDCREATE
 40
2452452.600976968
  9
$TDUCREATE
 40
2452452.225976968
  9
$TDUPDATE
 40
2456960.588890880
  9
$TDUUPDATE
 40
2456960.213890880
  9
$TDINDWG
 40
147.9506120255
  9
$TDUSRTIMER
 40
147.9505980208
  9
$USRTIMER
 70
     1
  9
$ANGBASE
 50
0.0
  9
$ANGDIR
 70
     0
  9
$PDMODE
 70
     0
  9
$PDSIZE
 40
0.0
  9
$PLINEWID
 40
0.0
  9
$SPLFRAME
 70
     0
  9
$SPLINETYPE
 70
     6
  9
$SPLINESEGS
 70
     8
  9
$HANDSEED
  5
4D8
  9
$SURFTAB1
 70
     6
  9
$SURFTAB2
 70
     6
  9
$SURFTYPE
 70
     6
  9
$SURFU
 70
     6
  9
$SURFV
 70
     6
  9
$UCSBASE
  2

  9
$UCSNAME
  2

  9
$UCSORG
 10
0.0
 20
0.0
 30
0.0
  9
$UCSXDIR
 10
1.0
 20
0.0
 30
0.0
  9
$UCSYDIR
 10
0.0
 20
1.0
 30
0.0
  9
$UCSORTHOREF
  2

  9
$UCSORTHOVIEW
 70
     0
  9
$UCSORGTOP
 10
0.0
 20
0.0
 30
0.0
  9
$UCSORGBOTTOM
 10
0.0
 20
0.0
 30
0.0
  9
$UCSORGLEFT
 10
0.0
 20
0.0
 30
0.0
  9
$UCSORGRIGHT
 10
0.0
 20
0.0
 30
0.0
  9
$UCSORGFRONT
 10
0.0
 20
0.0
 30
0.0
  9
$UCSORGBACK
 10
0.0
 20
0.0
 30
0.0
  9
$PUCSBASE
  2

  9
$PUCSNAME
  2

  9
$PUCSORG
 10
0.0
 20
0.0
 30
0.0
  9
$PUCSXDIR
 10
1.0
 20
0.0
 30
0.0
  9
$PUCSYDIR
 10
0.0
 20
1.0
 30
0.0
  9
$PUCSORTHOREF
  2

  9
$PUCSORTHOVIEW
 70
     0
  9
$PUCSORGTOP
 10
0.0
 20
0.0
 30
0.0
  9
$PUCSORGBOTTOM
 10
0.0
 20
0.0
 30
0.0
  9
$PUCSORGLEFT
 10
0.0
 20
0.0
 30
0.0
  9
$PUCSORGRIGHT
 10
0.0
 20
0.0
 30
0.0
  9
$PUCSORGFRONT
 10
0.0
 20
0.0
 30
0.0
  9
$PUCSORGBACK
 10
0.0
 20
0.0
 30
0.0
  9
$USERI1
 70
     0
  9
$USERI2
 70
     0
  9
$USERI3
 70
     0
  9
$USERI4
 70
     0
  9
$USERI5
 70
     0
  9
$USERR1
 40
0.0
  9
$USERR2
 40
0.0
  9
$USERR3
 40
0.0
  9
$USERR4
 40
0.0
  9
$USERR5
 40
0.0
  9
$WORLDVIEW
 70
     1
  9
$SHADEDGE
 70
     3
  9
$SHADEDIF
 70
    70
  9
$TILEMODE
 70
     1
  9
$MAXACTVP
 70
    48
  9
$PINSBASE
 10
0.0
 20
0.0
 30
0.0
  9
$PLIMCHECK
 70
     0
  9
$PEXTMIN
 10
40.83261737823487
 20
28.52208232879639
 30
0.0
  9
$PEXTMAX
 10
367.4935564041137
 20
256.6987409591675
 30
0.0
  9
$PLIMMIN
 10
-6.085416793823242
 20
-5.704408645629882
  9
$PLIMMAX
 10
414.0729084014892
 20
291.3062419891357
  9
$UNITMODE
 70
     0
  9
$VISRETAIN
 70
     1
  9
$PLINEGEN
 70
     0
  9
$PSLTSCALE
 70
     1
  9
$TREEDEPTH
 70
  3020
  9
$CMLSTYLE
  2
Standard
  9
$CMLJUST
 70
     0
  9
$CMLSCALE
 40
5.0
  9
$PROXYGRAPHICS
 70
     1
  9
$MEASUREMENT
 70
     1
  9
$CELWEIGHT
370
    -1
  9
$ENDCAPS
280
     0
  9
$JOINSTYLE
280
     0
  9
$LWDISPLAY
290
     0
  9
$INSUNITS
 70
     4
  9
$HYPERLINKBASE
  1

  9
$STYLESHEET
  1

  9
$XEDIT
290
     1
  9
$CEPSNTYPE
380
     0
  9
$PSTYLEMODE
290
     1
  9
$FINGERPRINTGUID
  2
{2DB78C1B-D952-4A43-BEF2-5BE04734B6C5}
  9
$VERSIONGUID
  2
{F12F665E-4F32-4391-B349-A30F95E92608}
  9
$EXTNAMES
290
     1
  9
$PSVPSCALE
 40
0.0
  9
$OLESTARTUP
290
     0
  0
ENDSEC
  0
SECTION
  2
CLASSES
  0
CLASS
  1
ACDBDICTIONARYWDFLT
  2
AcDbDictionaryWithDefault
  3
ObjectDBX Classes
 90
        0
280
     0
281
     0
  0
CLASS
  1
ACDBPLACEHOLDER
  2
AcDbPlaceHolder
  3
ObjectDBX Classes
 90
        0
280
     0
281
     0
  0
CLASS
  1
LAYOUT
  2
AcDbLayout
  3
ObjectDBX Classes
 90
        0
280
     0
281
     0
  0
CLASS
  1
DIMASSOC
  2
AcDbDimAssoc
  3
"AcDbDimAssoc|Product Desc:     AcDim ARX App For Dimension|Company:          Autodesk, Inc.|WEB Address:      www.autodesk.com"
 90
        0
280
     0
281
     0
  0
CLASS
  1
DICTIONARYVAR
  2
AcDbDictionaryVar
  3
ObjectDBX Classes
 90
        0
280
     0
281
     0
  0
CLASS
  1
ARCALIGNEDTEXT
  2
AcDbArcAlignedText
  3
ATEXT|AutoCAD Express Tool|expresstools@autodesk.com
 90
    32768
280
     1
281
     1
  0
CLASS
  1
MATERIAL
  2
AcDbMaterial
  3
ObjectDBX Classes
 90
     1153
280
     0
281
     0
  0
CLASS
  1
VISUALSTYLE
  2
AcDbVisualStyle
  3
ObjectDBX Classes
 90
     4095
280
     0
281
     0
  0
CLASS
  1
TABLESTYLE
  2
AcDbTableStyle
  3
ObjectDBX Classes
 90
     4095
280
     0
281
     0
  0
CLASS
  1
SCALE
  2
AcDbScale
  3
ObjectDBX Classes
 90
     1153
280
     0
281
     0
  0
CLASS
  1
MLEADERSTYLE
  2
AcDbMLeaderStyle
  3
ACDB_MLEADERSTYLE_CLASS
 90
     4095
280
     0
281
     0
  0
CLASS
  1
SORTENTSTABLE
  2
AcDbSortentsTable
  3
ObjectDBX Classes
 90
        0
280
     0
281
     0
  0
CLASS
  1
CELLSTYLEMAP
  2
AcDbCellStyleMap
  3
ObjectDBX Classes
 90
     1152
280
     0
281
     0
  0
CLASS
  1
EXACXREFPANELOBJECT
  2
ExAcXREFPanelObject
  3
EXAC_ESW
 90
     1025
280
     1
281
     0
  0
CLASS
  1
NPOCOLLECTION
  2
AcDbImpNonPersistentObjectsCollection
  3
ObjectDBX Classes
 90
     1153
280
     0
281
     0
  0
CLASS
  1
RASTERVARIABLES
  2
AcDbRasterVariables
  3
ISM
 90
    32768
280
     1
281
     0
  0
CLASS
  1
IMAGEDEF
  2
AcDbRasterImageDef
  3
ISM
 90
    32768
280
     1
281
     0
  0
CLASS
  1
IMAGEDEF_REACTOR
  2
AcDbRasterImageDefReactor
  3
ISM
 90
    32769
280
     1
281
     0
  0
CLASS
  1
IMAGE
  2
AcDbRasterImage
  3
ISM
 90
    34943
280
     1
281
     1
  0
CLASS
  1
ACDB_MTEXTOBJECTCONTEXTDATA_CLASS
  2
AcDbMTextObjectContextData
  3
ObjectDBX Classes
 90
    33921
280
     0
281
     0
  0
CLASS
  1
SOLID_BACKGROUND
  2
AcDbSolidBackground
  3
SCENEOE
 90
    36863
280
     1
281
     0
  0
CLASS
  1
ACME_DOCUMENT
  2
AcMeDbDoc
  3
AcMeServices
 90
    33792
280
     1
281
     0
  0
CLASS
  1
AMGSETTINGSOBJ
  2
AmgSettingsObj
  3
"AcadM|Product Description: AutoCAD Mechanical|Company: Autodesk, Inc."
 90
    33792
280
     1
281
     0
  0
CLASS
  1
ACMESCOPE
  2
AcMeScope
  3
AcMeServices
 90
    33792
280
     1
281
     0
  0
CLASS
  1
ACMECOMMANDHISTORY
  2
AcMeCommandHistory
  3
AcMeServices
 90
    33792
280
     1
281
     0
  0
CLASS
  1
ACIMSYSVARMAN
  2
AcImSysVarManager
  3
AcMeServices
 90
    33792
280
     1
281
     0
  0
CLASS
  1
ACIMINTSYSVAR
  2
AcImIntSysVar
  3
AcMeServices
 90
    33792
280
     1
281
     0
  0
CLASS
  1
ACMEDRAWINGMAN
  2
AcMeDrawingMan
  3
AcMeServices
 90
    33792
280
     1
281
     0
  0
CLASS
  1
ACMEVIEW
  2
AcMeView
  3
AcMeServices
 90
    33792
280
     1
281
     0
  0
CLASS
  1
ACDBENTITYCACHE
  2
AcMeEntityCache
  3
AcMeServices
 90
    33792
280
     1
281
     0
  0
CLASS
  1
GSMANAGER
  2
AcMeGSManager
  3
AcMeServices
 90
    33792
280
     1
281
     0
  0
CLASS
  1
AMDTINTERNALREACTOR
  2
AmdtInternalReactor
  3
AcMeServices
 90
    33792
280
     1
281
     0
  0
CLASS
  1
ACMESTATEMGR
  2
AcMeStateMgr
  3
AcMeServices
 90
    33792
280
     1
281
     0
  0
CLASS
  1
ACGREFMASTER
  2
AcGrefMaster
  3
AcAttribServices
 90
    33792
280
     1
281
     0
  0
CLASS
  1
AM_DRAWING_MGR
  2
AcDmDwgMgr
  3
AcMechDwgViewMgmt
 90
    33792
280
     1
281
     0
  0
CLASS
  1
AM_DWG_DOCUMENT
  2
AcDmDwgDocument
  3
AcMechDwgViewMgmt
 90
    33792
280
     1
281
     0
  0
CLASS
  1
AM_DWG_SHEET
  2
AcDmSheet
  3
AcMechDwgViewMgmt
 90
    33792
280
     1
281
     0
  0
CLASS
  1
AM_VIEWDIMPARMAP
  2
AcDmViewDimParMap
  3
AcMechDwgViewMgmt
 90
    33792
280
     1
281
     0
  0
CLASS
  1
ACIMREALSYSVAR
  2
AcImRealSysVar
  3
AcMeServices
 90
    33792
280
     1
281
     0
  0
CLASS
  1
AM_DWGMGR_NAME
  2
AcDmDwgMgrName
  3
AcMechDwgViewMgmt
 90
    33792
280
     1
281
     0
  0
CLASS
  1
ACME_DATABASE
  2
AcMeDbDatabase
  3
AcMeServices
 90
    33792
280
     1
281
     0
  0
CLASS
  1
ACRFINSADJUSTERMGR
  2
AcRfInsAdjusterMgr
  3
AcMeServices
 90
    33792
280
     1
281
     0
  0
CLASS
  1
ACGREFACADMASTER
  2
AcGrefacadMaster
  3
AcGrefServices
 90
    33792
280
     1
281
     0
  0
CLASS
  1
AMDTMENUSTATEMGR
  2
AmdtMenuStateMgr
  3
McadcomServices
 90
    33792
280
     1
281
     0
  0
CLASS
  1
AMDTMCOMMENUSTATE
  2
AmdtMcomMenuState
  3
McadcomServices
 90
    33792
280
     1
281
     0
  0
CLASS
  1
AMIMASTER
  2
AmiMaster
  3
AmiServices
 90
    33792
280
     1
281
     0
  0
CLASS
  1
MAPIAMMOUDLE
  2
MApiAmModule
  3
MApiAmServices
 90
    33792
280
     1
281
     0
  0
CLASS
  1
ACIMSTRSYSVAR
  2
AcImStrSysVar
  3
AcMeServices
 90
    33792
280
     1
281
     0
  0
CLASS
  1
AMDTADMENUSTATE
  2
AmdtAdMenuState
  3
DesignerServices
 90
    33792
280
     1
281
     0
  0
CLASS
  1
ADAPPL
  2
AcAdAppl
  3
DesignerServices
 90
    33792
280
     1
281
     0
  0
CLASS
  1
DEPMGR
  2
AcAdDepMgr
  3
DesignerServices
 90
    33792
280
     1
281
     0
  0
CLASS
  1
PARAMMGR
  2
AcAdParamMgr
  3
DesignerServices
 90
    33792
280
     1
281
     0
  0
CLASS
  1
PARAMSCOPE
  2
AcAdParamScope
  3
DesignerServices
 90
    33792
280
     1
281
     0
  0
CLASS
  1
NAMEDAPPL
  2
AcAdNamedAppl
  3
DesignerServices
 90
    33792
280
     1
281
     0
  0
CLASS
  1
AMDTDMMENUSTATE
  2
AmdtDmMenuState
  3
AcMechDwgViewMgmt
 90
    33792
280
     1
281
     0
  0
CLASS
  1
AMDTAMMENUSTATE
  2
AmdtAmMenuState
  3
DesignerAssemblies
 90
    33792
280
     1
281
     0
  0
CLASS
  1
ACAMPROJECT
  2
AcAmProject
  3
DesignerAssemblies
 90
    33792
280
     1
281
     0
  0
CLASS
  1
ACAMGRCOMPDEF
  2
AcAmGrCompDef
  3
DesignerAssemblies
 90
    33792
280
     1
281
     0
  0
CLASS
  1
ACCMCONTEXT
  2
AcCmContext
  3
DesignerAssemblies
 90
    33792
280
     1
281
     0
  0
CLASS
  1
ACAMCOMPDEF
  2
AcAmCompDef
  3
DesignerAssemblies
 90
    33792
280
     1
281
     0
  0
CLASS
  1
ACAMCOMPDEFMGR
  2
AcAmCompDefMgr
  3
DesignerAssemblies
 90
    33792
280
     1
281
     0
  0
CLASS
  1
AMCONTEXTMGR
  2
AcAmContextMgr
  3
DesignerAssemblies
 90
    33792
280
     1
281
     0
  0
CLASS
  1
ACAMCONTEXTMODELER
  2
AcAmContextModeler
  3
DesignerAssemblies
 90
    33792
280
     1
281
     0
  0
CLASS
  1
ACMDATADICTIONARY
  2
AcmDataDictionary
  3
"AcmSymBB|Product Description: AutoCAD Mechanical|Company: Autodesk, Inc."
 90
    33792
280
     1
281
     0
  0
CLASS
  1
CATALOGSTATE
  2
AcAmCatalogState
  3
DesignerAssemblies
 90
    33792
280
     1
281
     0
  0
CLASS
  1
ACAMGRCOMPDEFSET
  2
AcAmGrCompDefSet
  3
DesignerAssemblies
 90
    33792
280
     1
281
     0
  0
CLASS
  1
AMDTBROWSERDBTAB
  2
AmdtBrowserDbTab
  3
McadcomServices
 90
    33792
280
     1
281
     0
  0
CLASS
  1
CBROWSERAPPOBJECT
  2
CBrowserAppObject
  3
McadcomServices
 90
    33792
280
     1
281
     0
  0
CLASS
  1
DM_PLACEHOLDER
  2
AcDmSelsetPlaceholder
  3
AcMechDwgViewMgmt
 90
    33792
280
     1
281
     0
  0
CLASS
  1
ACMSTANDARDISO
  2
AcmStandardISO
  3
"Amdt_StdImp|Product Description: AutoCAD Mechanical|Company: Autodesk, Inc."
 90
    33792
280
     1
281
     0
  0
CLASS
  1
AMDTEDGESTANDARDISO13715
  2
AmdtEdgeStdISO13715
  3
"Amdt_StdImp|Product Description: AutoCAD Mechanical|Company: Autodesk, Inc."
 90
    33792
280
     1
281
     0
  0
CLASS
  1
ACMSURFSTANDARDISO2002
  2
AcmSurfTextStdISO2002
  3
"Amdt_StdImp|Product Description: AutoCAD Mechanical|Company: Autodesk, Inc."
 90
    33792
280
     1
281
     0
  0
CLASS
  1
ACMFCFSTANDARDISO
  2
AcmFCFStdISO
  3
"Amdt_StdImp|Product Description: AutoCAD Mechanical|Company: Autodesk, Inc."
 90
    33792
280
     1
281
     0
  0
CLASS
  1
ACMWELDSTANDARDISO
  2
AcmWeldingStdISO
  3
"Amdt_StdImp|Product Description: AutoCAD Mechanical|Company: Autodesk, Inc."
 90
    33792
280
     1
281
     0
  0
CLASS
  1
ACMIDSTANDARDISO
  2
AcmIdStdISO
  3
"Amdt_StdImp|Product Description: AutoCAD Mechanical|Company: Autodesk, Inc."
 90
    33792
280
     1
281
     0
  0
CLASS
  1
ACMDATUMSTANDARDISO
  2
AcmDatumStdISO
  3
"Amdt_StdImp|Product Description: AutoCAD Mechanical|Company: Autodesk, Inc."
 90
    33792
280
     1
281
     0
  0
CLASS
  1
ACMBOMSTANDARDISO
  2
AcmBOMStdISO
  3
"Amdt_StdImp|Product Description: AutoCAD Mechanical|Company: Autodesk, Inc."
 90
    33792
280
     1
281
     0
  0
CLASS
  1
ACMDETAILSTANDARDISO
  2
AmdtDetailSymStdISO
  3
"Amdt_StdImp|Product Description: AutoCAD Mechanical|Company: Autodesk, Inc."
 90
    33792
280
     1
281
     0
  0
CLASS
  1
ACMSECTIONSTANDARDISO2001
  2
AmdtSectionSymStdISO2001
  3
"Amdt_StdImp|Product Description: AutoCAD Mechanical|Company: Autodesk, Inc."
 90
    33792
280
     1
281
     0
  0
CLASS
  1
ACMCENTERLINESTANDARDISO
  2
AmdtCenterLineStdISO
  3
"Amdt_StdImp|Product Description: AutoCAD Mechanical|Company: Autodesk, Inc."
 90
    33792
280
     1
281
     0
  0
CLASS
  1
ACMTHREADLINESTANDARDISO
  2
AmdtThreadLineStdISO
  3
"Amdt_StdImp|Product Description: AutoCAD Mechanical|Company: Autodesk, Inc."
 90
    33792
280
     1
281
     0
  0
CLASS
  1
ACMNOTESTANDARDISO
  2
AmdtNoteStdISO
  3
"Amdt_StdImp|Product Description: AutoCAD Mechanical|Company: Autodesk, Inc."
 90
    33792
280
     1
281
     0
  0
CLASS
  1
ACMTAPERSTANDARDISO
  2
AcmTaperStdISO
  3
"Amdt_StdImp|Product Description: AutoCAD Mechanical|Company: Autodesk, Inc."
 90
    33792
280
     1
281
     0
  0
CLASS
  1
ACMANOOTATIONVIEWSTANDARDISO
  2
AmdtAnViewStdISO
  3
"Amdt_StdImp|Product Description: AutoCAD Mechanical|Company: Autodesk, Inc."
 90
    33792
280
     1
281
     0
  0
CLASS
  1
ACAMGLAYSTD
  2
AcAmgLayStd
  3
"AmgLay|Product Description: AutoCAD Mechanical|Company: Autodesk, Inc."
 90
    33792
280
     1
281
     0
  0
CLASS
  1
ACAMGDIMSTD
  2
AcAmgDimStd
  3
"AmgDim|Product Description: AutoCAD Mechanical|Company: Autodesk, Inc."
 90
    33792
280
     1
281
     0
  0
CLASS
  1
AMGOBJPROPCFG
  2
AmgObjPropCfg
  3
"AmgLay|Product Description: AutoCAD Mechanical|Company: Autodesk, Inc."
 90
    33793
280
     1
281
     0
  0
CLASS
  1
ACAMGHOLECHARTSTDISO
  2
AcAmgHoleChartStdISO
  3
AmgDim|Product Description: AutoCAD Mechanical|Company: Autodesk, Inc.
 90
    33792
280
     1
281
     0
  0
CLASS
  1
ACAMGTITLESTD
  2
AcAmgTitleStd
  3
"AmgTitle|Product Description: AutoCAD Mechanical|Company: Autodesk, Inc."
 90
    36863
280
     1
281
     0
  0
CLASS
  1
AMDTNOTETEMPLATEDB
  2
AmdtNoteTemplateDB
  3
AcmSymBB|Product Description: AutoCAD Mechanical|Company: Autodesk, Inc.
 90
    33792
280
     1
281
     0
  0
CLASS
  1
ACAMGFILTERDAT
  2
AcAmgFilterDat
  3
"AcadM|Product Description: AutoCAD Mechanical|Company: Autodesk, Inc."
 90
    33792
280
     1
281
     0
  0
CLASS
  1
ACAD_PROXY_OBJECT_WRAPPER
  2
AcDbProxyObjectWrapper
  3
ObjectDBX Classes
 90
    32768
280
     0
281
     0
  0
CLASS
  1
CAMSSTRUCTBTNSTATE
  2
StructBtnState
  3
DesignerAssemblies
 90
    33792
280
     1
281
     0
  0
CLASS
  1
STDPART2D
  2
AmgStdPart
  3
AmgStdPart|Product Description: AutoCAD Mechanical|Company: Autodesk, Inc.
 90
    36863
280
     1
281
     1
  0
CLASS
  1
ACAD_PROXY_ENTITY_WRAPPER
  2
AcDbProxyEntityWrapper
  3
ObjectDBX Classes
 90
    32768
280
     0
281
     1
  0
CLASS
  1
ACMSTANDARDANSI
  2
AcmStandardANSI
  3
"Amdt_StdImp|Product Description: AutoCAD Mechanical|Company: Autodesk, Inc."
 90
    33792
280
     1
281
     0
  0
CLASS
  1
ACMSURFSTANDARDANSI
  2
AcmSurfTextStdANSI
  3
"Amdt_StdImp|Product Description: AutoCAD Mechanical|Company: Autodesk, Inc."
 90
    33792
280
     1
281
     0
  0
CLASS
  1
ACMFCFSTANDARDANSI
  2
AcmFCFStdANSI
  3
"Amdt_StdImp|Product Description: AutoCAD Mechanical|Company: Autodesk, Inc."
 90
    33792
280
     1
281
     0
  0
CLASS
  1
ACMWELDSTANDARDANSI
  2
AcmWeldingStdANSI
  3
"Amdt_StdImp|Product Description: AutoCAD Mechanical|Company: Autodesk, Inc."
 90
    33792
280
     1
281
     0
  0
CLASS
  1
ACMIDSTANDARDANSI
  2
AcmIdStdANSI
  3
"Amdt_StdImp|Product Description: AutoCAD Mechanical|Company: Autodesk, Inc."
 90
    33792
280
     1
281
     0
  0
CLASS
  1
ACMDATUMSTANDARDANSI
  2
AcmDatumStdANSI
  3
"Amdt_StdImp|Product Description: AutoCAD Mechanical|Company: Autodesk, Inc."
 90
    33792
280
     1
281
     0
  0
CLASS
  1
ACMBOMSTANDARDANSI
  2
AcmBOMStdANSI
  3
"Amdt_StdImp|Product Description: AutoCAD Mechanical|Company: Autodesk, Inc."
 90
    33792
280
     1
281
     0
  0
CLASS
  1
ACMDETAILSTANDARDANSI
  2
AmdtDetailSymStdANSI
  3
"Amdt_StdImp|Product Description: AutoCAD Mechanical|Company: Autodesk, Inc."
 90
    33792
280
     1
281
     0
  0
CLASS
  1
ACMSECTIONSTANDARDANSI
  2
AmdtSectionSymStdANSI
  3
"Amdt_StdImp|Product Description: AutoCAD Mechanical|Company: Autodesk, Inc."
 90
    33792
280
     1
281
     0
  0
CLASS
  1
ACMCENTERLINESTANDARDANSI
  2
AmdtCenterLineStdANSI
  3
"Amdt_StdImp|Product Description: AutoCAD Mechanical|Company: Autodesk, Inc."
 90
    33792
280
     1
281
     0
  0
CLASS
  1
ACMTHREADLINESTANDARDANSI
  2
AmdtThreadLineStdANSI
  3
"Amdt_StdImp|Product Description: AutoCAD Mechanical|Company: Autodesk, Inc."
 90
    33792
280
     1
281
     0
  0
CLASS
  1
ACMNOTESTANDARDANSI
  2
AmdtNoteStdANSI
  3
"Amdt_StdImp|Product Description: AutoCAD Mechanical|Company: Autodesk, Inc."
 90
    33792
280
     1
281
     0
  0
CLASS
  1
ACMTAPERSTANDARDANSI
  2
AcmTaperStdANSI
  3
"Amdt_StdImp|Product Description: AutoCAD Mechanical|Company: Autodesk, Inc."
 90
    33792
280
     1
281
     0
  0
CLASS
  1
ACMANOOTATIONVIEWSTANDARDANSI
  2
AmdtAnViewStdANSI
  3
"Amdt_StdImp|Product Description: AutoCAD Mechanical|Company: Autodesk, Inc."
 90
    33792
280
     1
281
     0
  0
CLASS
  1
ACAMGHOLECHARTSTDANSI
  2
AcAmgHoleChartStdANSI
  3
AmgDim|Product Description: AutoCAD Mechanical|Company: Autodesk, Inc.
 90
    33792
280
     1
281
     0
  0
CLASS
  1
AEC_REFEDIT_STATUS_TRACKER
  2
AecDbRefEditStatusTracker
  3
AecArchBase50|Product Desc: Autodesk Architectural Desktop 2007 |Company: Autodesk,Inc. |WEB Address: www.autodesk.com
 90
    32897
280
     1
281
     0
  0
ENDSEC
  0
SECTION
  2
TABLES
  0
TABLE
  2
VPORT
  5
31
102
{ACAD_XDICTIONARY
360
38
102
}
330
0
100
AcDbSymbolTable
 70
     1
  0
VPORT
  5
32
330
31
100
AcDbSymbolTableRecord
100
AcDbViewportTableRecord
  2
*Active
 70
     0
 10
0.0
 20
0.0
 11
1.0
 21
1.0
 12
-5470.803682476077
 22
6204.551847633278
 13
0.0
 23
0.0
 14
10.0
 24
10.0
 15
10.0
 25
10.0
 16
0.0
 26
0.0
 36
1.0
 17
0.0
 27
0.0
 37
0.0
 40
589.6201682364843
 41
1.980148883374689
 42
50.0
 43
0.0
 44
0.0
 50
0.0
 51
0.0
 71
     0
 72
   500
 73
     1
 74
     0
 75
     0
 76
     0
 77
     0
 78
     0
281
     0
 65
     1
110
0.0
120
0.0
130
0.0
111
1.0
121
0.0
131
0.0
112
0.0
122
1.0
132
0.0
 79
     0
146
0.0
1001
ACAD_NAV_VCDISPLAY
1070
     3
  0
ENDTAB
  0
TABLE
  2
LTYPE
  5
2C
330
0
100
AcDbSymbolTable
 70
     3
  0
LTYPE
  5
2D
330
2C
100
AcDbSymbolTableRecord
100
AcDbLinetypeTableRecord
  2
ByBlock
 70
     0
  3

 72
    65
 73
     0
 40
0.0
  0
LTYPE
  5
2E
330
2C
100
AcDbSymbolTableRecord
100
AcDbLinetypeTableRecord
  2
ByLayer
 70
     0
  3

 72
    65
 73
     0
 40
0.0
  0
LTYPE
  5
16
330
2C
100
AcDbSymbolTableRecord
100
AcDbLinetypeTableRecord
  2
Continuous
 70
     0
  3
Solid line
 72
    65
 73
     0
 40
0.0
  0
LTYPE
  5
80
330
2C
100
AcDbSymbolTableRecord
100
AcDbLinetypeTableRecord
  2
CENTER
 70
     0
  3
Center ____ _ ____ _ ____ _ ____ _ ____ _ ____
 72
    65
 73
     4
 40
50.8
 49
31.75
 74
     0
 49
-6.349999999999998
 74
     0
 49
6.349999999999998
 74
     0
 49
-6.349999999999998
 74
     0
  0
LTYPE
  5
B5
330
2C
100
AcDbSymbolTableRecord
100
AcDbLinetypeTableRecord
  2
PHANTOM
 70
     0
  3
Phantom ______  __  __  ______  __  __  ______
 72
    65
 73
     6
 40
2.5
 49
1.25
 74
     0
 49
-0.25
 74
     0
 49
0.25
 74
     0
 49
-0.25
 74
     0
 49
0.25
 74
     0
 49
-0.25
 74
     0
  0
ENDTAB
  0
TABLE
  2
LAYER
  5
23
102
{ACAD_XDICTIONARY
360
24
102
}
330
0
100
AcDbSymbolTable
 70
     2
  0
LAYER
  5
7
102
{ACAD_XDICTIONARY
360
8
102
}
330
23
100
AcDbSymbolTableRecord
100
AcDbLayerTableRecord
  2
0
 70
     0
 62
     7
  6
Continuous
370
    -3
390
A
  0
LAYER
  5
AC
330
23
100
AcDbSymbolTableRecord
100
AcDbLayerTableRecord
  2
Defpoints
 70
     0
 62
     7
  6
Continuous
290
     0
370
    -3
390
A
  0
ENDTAB
  0
TABLE
  2
STYLE
  5
29
330
0
100
AcDbSymbolTable
 70
     4
  0
STYLE
  5
2A
330
29
100
AcDbSymbolTableRecord
100
AcDbTextStyleTableRecord
  2
Standard
 70
     0
 40
0.0
 41
1.0
 50
0.0
 71
     0
 42
3.0
  3
romans.shx
  4
whgtxt.shx
  0
STYLE
  5
1A2
330
29
100
AcDbSymbolTableRecord
100
AcDbTextStyleTableRecord
  2
GHS
 70
     0
 40
0.0
 41
0.6
 50
0.0
 71
     0
 42
3.0
  3
ROMANS
  4
GHS
  0
STYLE
  5
444
330
29
100
AcDbSymbolTableRecord
100
AcDbTextStyleTableRecord
  2
WHGTXT
 70
     0
 40
0.0
 41
0.75
 50
0.0
 71
     0
 42
1.5
  3
romans.shx
  4
whgtxt.shx
  0
STYLE
  5
19E
330
29
100
AcDbSymbolTableRecord
100
AcDbTextStyleTableRecord
  2
유형1
 70
     0
 40
0.0
 41
1.0
 50
0.0
 71
     0
 42
2.0
  3
HYGTRE.TTF
  4

1001
ACAD
1000
HY견고딕
1071
    33042
  0
ENDTAB
  0
TABLE
  2
VIEW
  5
2F
330
0
100
AcDbSymbolTable
 70
     0
  0
ENDTAB
  0
TABLE
  2
UCS
  5
30
330
0
100
AcDbSymbolTable
 70
     0
  0
ENDTAB
  0
TABLE
  2
APPID
  5
39
330
0
100
AcDbSymbolTable
 70
    10
  0
APPID
  5
28
330
39
100
AcDbSymbolTableRecord
100
AcDbRegAppTableRecord
  2
ACAD
 70
     0
  0
APPID
  5
1C
330
39
100
AcDbSymbolTableRecord
100
AcDbRegAppTableRecord
  2
ACAD_PSEXT
 70
     0
  0
APPID
  5
370
330
39
100
AcDbSymbolTableRecord
100
AcDbRegAppTableRecord
  2
ACAD_DSTYLE_DIMRADIAL_EXTENSION
 70
     0
  0
APPID
  5
37
330
39
100
AcDbSymbolTableRecord
100
AcDbRegAppTableRecord
  2
ACAD_NAV_VCDISPLAY
 70
     0
  0
APPID
  5
1A3
330
39
100
AcDbSymbolTableRecord
100
AcDbRegAppTableRecord
  2
ACAD_DSTYLE_DIMJAG
 70
     0
  0
APPID
  5
1A4
330
39
100
AcDbSymbolTableRecord
100
AcDbRegAppTableRecord
  2
ACAD_DSTYLE_DIMTALN
 70
     0
  0
APPID
  5
4A7
330
39
100
AcDbSymbolTableRecord
100
AcDbRegAppTableRecord
  2
ACAD_DSTYLE_DIM_LINETYPE
 70
     0
  0
APPID
  5
4A8
330
39
100
AcDbSymbolTableRecord
100
AcDbRegAppTableRecord
  2
ACAD_DSTYLE_DIM_EXT1_LINETYPE
 70
     0
  0
APPID
  5
4A9
330
39
100
AcDbSymbolTableRecord
100
AcDbRegAppTableRecord
  2
ACAD_DSTYLE_DIM_EXT2_LINETYPE
 70
     0
  0
APPID
  5
4C2
330
39
100
AcDbSymbolTableRecord
100
AcDbRegAppTableRecord
  2
ACAD_MLEADERVER
 70
     0
  0
ENDTAB
  0
TABLE
  2
DIMSTYLE
  5
3A
330
0
100
AcDbSymbolTable
 70
     3
100
AcDbDimStyleTable
 71
     1
340
3B
  0
DIMSTYLE
105
3B
102
{ACAD_REACTORS
330
A2
330
1A6
330
1B6
330
1C5
330
1F0
330
1FD
330
20C
330
219
330
226
330
2CD
330
2DC
330
2E9
330
2FC
330
309
330
317
330
324
330
331
330
341
330
362
330
371
330
40E
330
41E
330
42D
102
}
330
3A
100
AcDbSymbolTableRecord
100
AcDbDimStyleTableRecord
  2
STANDARD
 70
     0
 41
2.5
 42
1.0
 43
10.0
 44
0.6
 73
     0
 74
     0
 77
     1
 78
     8
 79
     2
140
3.0
147
1.0
172
     1
174
     1
176
   123
177
   123
178
     3
179
     1
271
     2
272
     2
275
     1
288
     1
289
     0
340
2A
  0
DIMSTYLE
105
1A1
330
3A
100
AcDbSymbolTableRecord
100
AcDbDimStyleTableRecord
  2
STANDARD$7
 70
     0
 41
2.5
 42
0.1
 73
     0
 74
     0
 77
     1
 78
     8
140
2.5
141
0.0
147
1.0
176
   256
177
   256
178
   256
271
     2
272
     2
284
     8
289
     0
340
1A2
371
    -1
372
    -1
1001
ACAD_DSTYLE_DIMJAG
1070
   388
1040
1.5
1001
ACAD_DSTYLE_DIMTALN
1070
   392
1070
     0
1001
ACAD_DSTYLE_DIM_LINETYPE
1070
   380
1005
2E
1001
ACAD_DSTYLE_DIM_EXT1_LINETYPE
1070
   381
1005
2E
1001
ACAD_DSTYLE_DIM_EXT2_LINETYPE
1070
   382
1005
2E
  0
ENDTAB
  0
TABLE
  2
BLOCK_RECORD
  5
1
330
0
100
AcDbSymbolTable
 70
    23
  0
BLOCK_RECORD
  5
2
102
{ACAD_XDICTIONARY
360
3
102
}
330
1
100
AcDbSymbolTableRecord
100
AcDbBlockTableRecord
  2
*Model_Space
340
18
  0
BLOCK_RECORD
  5
1D
102
{ACAD_XDICTIONARY
360
1E
102
}
330
1
100
AcDbSymbolTableRecord
100
AcDbBlockTableRecord
  2
*Paper_Space
340
22
  0
BLOCK_RECORD
  5
A3
330
1
100
AcDbSymbolTableRecord
100
AcDbBlockTableRecord
  2
*D0
340
0
  0
BLOCK_RECORD
  5
1A7
330
1
100
AcDbSymbolTableRecord
100
AcDbBlockTableRecord
  2
*D1
340
0
  0
BLOCK_RECORD
  5
1F1
330
1
100
AcDbSymbolTableRecord
100
AcDbBlockTableRecord
  2
*D2
340
0
  0
BLOCK_RECORD
  5
1FE
330
1
100
AcDbSymbolTableRecord
100
AcDbBlockTableRecord
  2
*D3
340
0
  0
BLOCK_RECORD
  5
20D
330
1
100
AcDbSymbolTableRecord
100
AcDbBlockTableRecord
  2
*D4
340
0
  0
BLOCK_RECORD
  5
21A
330
1
100
AcDbSymbolTableRecord
100
AcDbBlockTableRecord
  2
*D5
340
0
  0
BLOCK_RECORD
  5
227
330
1
100
AcDbSymbolTableRecord
100
AcDbBlockTableRecord
  2
*D6
340
0
  0
BLOCK_RECORD
  5
2CE
330
1
100
AcDbSymbolTableRecord
100
AcDbBlockTableRecord
  2
*D7
340
0
  0
BLOCK_RECORD
  5
2DD
330
1
100
AcDbSymbolTableRecord
100
AcDbBlockTableRecord
  2
*D8
340
0
  0
BLOCK_RECORD
  5
2EA
330
1
100
AcDbSymbolTableRecord
100
AcDbBlockTableRecord
  2
*D9
340
0
  0
BLOCK_RECORD
  5
2FD
330
1
100
AcDbSymbolTableRecord
100
AcDbBlockTableRecord
  2
*D10
340
0
  0
BLOCK_RECORD
  5
30A
330
1
100
AcDbSymbolTableRecord
100
AcDbBlockTableRecord
  2
*D11
340
0
  0
BLOCK_RECORD
  5
318
330
1
100
AcDbSymbolTableRecord
100
AcDbBlockTableRecord
  2
*D12
340
0
  0
BLOCK_RECORD
  5
325
330
1
100
AcDbSymbolTableRecord
100
AcDbBlockTableRecord
  2
*D13
340
0
  0
BLOCK_RECORD
  5
332
330
1
100
AcDbSymbolTableRecord
100
AcDbBlockTableRecord
  2
*D14
340
0
  0
BLOCK_RECORD
  5
342
330
1
100
AcDbSymbolTableRecord
100
AcDbBlockTableRecord
  2
*D15
340
0
  0
BLOCK_RECORD
  5
40F
330
1
100
AcDbSymbolTableRecord
100
AcDbBlockTableRecord
  2
*D16
340
0
  0
BLOCK_RECORD
  5
1B9
330
1
100
AcDbSymbolTableRecord
100
AcDbBlockTableRecord
  2
*D17
340
0
  0
BLOCK_RECORD
  5
1C8
330
1
100
AcDbSymbolTableRecord
100
AcDbBlockTableRecord
  2
*D18
340
0
  0
BLOCK_RECORD
  5
365
330
1
100
AcDbSymbolTableRecord
100
AcDbBlockTableRecord
  2
*D19
340
0
  0
BLOCK_RECORD
  5
374
330
1
100
AcDbSymbolTableRecord
100
AcDbBlockTableRecord
  2
*D20
340
0
  0
BLOCK_RECORD
  5
421
330
1
100
AcDbSymbolTableRecord
100
AcDbBlockTableRecord
  2
*D21
340
0
  0
BLOCK_RECORD
  5
430
330
1
100
AcDbSymbolTableRecord
100
AcDbBlockTableRecord
  2
*D22
340
0
  0
ENDTAB
  0
ENDSEC
  0
SECTION
  2
BLOCKS
  0
BLOCK
  5
6
330
2
100
AcDbEntity
  8
0
100
AcDbBlockBegin
  2
*Model_Space
 70
     0
 10
0.0
 20
0.0
 30
0.0
  3
*Model_Space
  1

  0
ENDBLK
  5
17
330
2
100
AcDbEntity
  8
0
100
AcDbBlockEnd
  0
BLOCK
  5
20
330
1D
100
AcDbEntity
 67
     1
  8
0
100
AcDbBlockBegin
  2
*Paper_Space
 70
     0
 10
0.0
 20
0.0
 30
0.0
  3
*Paper_Space
  1

  0
ENDBLK
  5
21
330
1D
100
AcDbEntity
 67
     1
  8
0
100
AcDbBlockEnd
  0
BLOCK
  5
A4
330
A3
100
AcDbEntity
  8
0
100
AcDbBlockBegin
  2
*D0
 70
     1
 10
0.0
 20
0.0
 30
0.0
  3
*D0
  1

  0
LINE
  5
A5
330
A3
100
AcDbEntity
  8
0
 62
   123
370
    -2
100
AcDbLine
 10
-6044.813291620958
 20
6285.00222533519
 30
0.0
 11
-6044.813291620958
 21
6315.102075007326
 31
0.0
  0
LINE
  5
A6
330
A3
100
AcDbEntity
  8
0
 62
   123
370
    -2
100
AcDbLine
 10
-5954.813291620958
 20
6285.00222533519
 30
0.0
 11
-5954.813291620958
 21
6315.102075007326
 31
0.0
  0
LINE
  5
A7
330
A3
100
AcDbEntity
  8
0
 62
   123
370
    -2
100
AcDbLine
 10
-6042.313291620958
 20
6314.502075007325
 30
0.0
 11
-5957.313291620958
 21
6314.502075007325
 31
0.0
  0
SOLID
  5
A8
330
A3
100
AcDbEntity
  8
0
 62
   123
100
AcDbTrace
 10
-6042.313291620958
 20
6314.918741673992
 30
0.0
 11
-6042.313291620958
 21
6314.085408340659
 31
0.0
 12
-6044.813291620958
 22
6314.502075007325
 32
0.0
 13
-6044.813291620958
 23
6314.502075007325
 33
0.0
  0
SOLID
  5
A9
330
A3
100
AcDbEntity
  8
0
 62
   123
100
AcDbTrace
 10
-5957.313291620958
 20
6314.918741673992
 30
0.0
 11
-5957.313291620958
 21
6314.085408340659
 31
0.0
 12
-5954.813291620958
 22
6314.502075007325
 32
0.0
 13
-5954.813291620958
 23
6314.502075007325
 33
0.0
  0
MTEXT
  5
AA
330
A3
100
AcDbEntity
  8
0
 62
     3
100
AcDbMText
 10
-5999.813291620958
 20
6317.002075007326
 30
0.0
 40
3.0
 41
0.0
 71
     5
 72
     1
  1
\A1;{\fGulim|b0|i0|c129|p50;□}90
 73
     1
 44
1.0
1001
ACAD
1000
MTEXTBEGIN
1070
    73
1070
     1
1070
    44
1040
1.0
1070
    74
1070
     0
1000
MTEXTEND
  0
POINT
  5
AB
330
A3
100
AcDbEntity
  8
Defpoints
 62
     0
100
AcDbPoint
 10
-6044.813291620958
 20
6284.002225335191
 30
0.0
  0
POINT
  5
AD
330
A3
100
AcDbEntity
  8
Defpoints
 62
     0
100
AcDbPoint
 10
-5954.813291620958
 20
6284.002225335191
 30
0.0
  0
POINT
  5
AE
330
A3
100
AcDbEntity
  8
Defpoints
 62
     0
100
AcDbPoint
 10
-5954.813291620958
 20
6314.502075007325
 30
0.0
  0
ENDBLK
  5
AF
330
A3
100
AcDbEntity
  8
0
100
AcDbBlockEnd
  0
BLOCK
  5
1A8
330
1A7
100
AcDbEntity
  8
0
100
AcDbBlockBegin
  2
*D1
 70
     1
 10
0.0
 20
0.0
 30
0.0
  3
*D1
  1

  0
LINE
  5
1A9
330
1A7
100
AcDbEntity
  8
0
 62
   123
370
    -2
100
AcDbLine
 10
-5657.613291620958
 20
6149.002225335191
 30
0.0
 11
-5660.413291620957
 21
6149.002225335191
 31
0.0
  0
LINE
  5
1AA
330
1A7
100
AcDbEntity
  8
0
 62
   123
370
    -2
100
AcDbLine
 10
-5656.713291620956
 20
6139.002225335191
 30
0.0
 11
-5660.413291620958
 21
6139.002225335191
 31
0.0
  0
LINE
  5
1AB
330
1A7
100
AcDbEntity
  8
0
 62
   123
370
    -2
100
AcDbLine
 10
-5659.813291620957
 20
6146.502225335191
 30
0.0
 11
-5659.813291620958
 21
6141.502225335191
 31
0.0
  0
SOLID
  5
1AC
330
1A7
100
AcDbEntity
  8
0
 62
   123
100
AcDbTrace
 10
-5660.229958287625
 20
6146.502225335191
 30
0.0
 11
-5659.39662495429
 21
6146.502225335191
 31
0.0
 12
-5659.813291620957
 22
6149.002225335191
 32
0.0
 13
-5659.813291620957
 23
6149.002225335191
 33
0.0
  0
SOLID
  5
1AD
330
1A7
100
AcDbEntity
  8
0
 62
   123
100
AcDbTrace
 10
-5660.229958287625
 20
6141.502225335191
 30
0.0
 11
-5659.396624954291
 21
6141.502225335191
 31
0.0
 12
-5659.813291620958
 22
6139.002225335191
 32
0.0
 13
-5659.813291620958
 23
6139.002225335191
 33
0.0
  0
MTEXT
  5
1AE
330
1A7
100
AcDbEntity
  8
0
 62
     3
100
AcDbMText
 10
-5662.31329162096
 20
6144.002225335191
 30
0.0
 40
3.0
 41
0.0
 71
     5
 72
     1
  1
\A1;10
 11
0.0000000000000001
 21
1.0
 31
0.0
 73
     1
 44
1.0
1001
ACAD
1000
MTEXTBEGIN
1070
    73
1070
     1
1070
    44
1040
1.0
1070
    74
1070
     0
1000
MTEXTEND
  0
POINT
  5
1AF
330
1A7
100
AcDbEntity
  8
Defpoints
 62
     0
100
AcDbPoint
 10
-5656.613291620957
 20
6149.002225335191
 30
0.0
  0
POINT
  5
1B0
330
1A7
100
AcDbEntity
  8
Defpoints
 62
     0
100
AcDbPoint
 10
-5655.713291620956
 20
6139.002225335191
 30
0.0
  0
POINT
  5
1B1
330
1A7
100
AcDbEntity
  8
Defpoints
 62
     0
100
AcDbPoint
 10
-5659.813291620958
 20
6139.002225335191
 30
0.0
  0
ENDBLK
  5
1B2
330
1A7
100
AcDbEntity
  8
0
100
AcDbBlockEnd
  0
BLOCK
  5
1F2
330
1F1
100
AcDbEntity
  8
0
100
AcDbBlockBegin
  2
*D2
 70
     1
 10
0.0
 20
0.0
 30
0.0
  3
*D2
  1

  0
LINE
  5
1F3
330
1F1
100
AcDbEntity
  8
0
 62
   123
370
    -2
100
AcDbLine
 10
-5863.026655283327
 20
6205.502225335191
 30
0.0
 11
-5891.126655283329
 21
6205.502225335191
 31
0.0
  0
LINE
  5
1F4
330
1F1
100
AcDbEntity
  8
0
 62
   123
370
    -2
100
AcDbLine
 10
-5863.026655283327
 20
6288.502225335191
 30
0.0
 11
-5891.126655283329
 21
6288.502225335191
 31
0.0
  0
LINE
  5
1F5
330
1F1
100
AcDbEntity
  8
0
 62
   123
370
    -2
100
AcDbLine
 10
-5890.526655283327
 20
6208.00222533519
 30
0.0
 11
-5890.526655283327
 21
6286.002225335191
 31
0.0
  0
SOLID
  5
1F6
330
1F1
100
AcDbEntity
  8
0
 62
   123
100
AcDbTrace
 10
-5890.943321949995
 20
6208.00222533519
 30
0.0
 11
-5890.109988616661
 21
6208.00222533519
 31
0.0
 12
-5890.526655283327
 22
6205.502225335191
 32
0.0
 13
-5890.526655283327
 23
6205.502225335191
 33
0.0
  0
SOLID
  5
1F7
330
1F1
100
AcDbEntity
  8
0
 62
   123
100
AcDbTrace
 10
-5890.943321949995
 20
6286.002225335191
 30
0.0
 11
-5890.109988616661
 21
6286.002225335191
 31
0.0
 12
-5890.526655283327
 22
6288.502225335191
 32
0.0
 13
-5890.526655283327
 23
6288.502225335191
 33
0.0
  0
MTEXT
  5
1F8
330
1F1
100
AcDbEntity
  8
0
 62
     3
100
AcDbMText
 10
-5893.97665528333
 20
6247.00222533519
 30
0.0
 40
3.0
 41
0.0
 71
     5
 72
     1
  1
\A1;%%C83{\H0.7x;\S  0^ -0.035;}
 11
0.0000000000000001
 21
1.0
 31
0.0
 73
     1
 44
1.0
1001
ACAD
1000
MTEXTBEGIN
1070
    73
1070
     1
1070
    44
1040
1.0
1070
    74
1070
     0
1000
MTEXTEND
  0
POINT
  5
1F9
330
1F1
100
AcDbEntity
  8
Defpoints
 62
     0
100
AcDbPoint
 10
-5862.02665528333
 20
6205.502225335191
 30
0.0
  0
POINT
  5
1FA
330
1F1
100
AcDbEntity
  8
Defpoints
 62
     0
100
AcDbPoint
 10
-5862.02665528333
 20
6288.502225335191
 30
0.0
  0
POINT
  5
1FB
330
1F1
100
AcDbEntity
  8
Defpoints
 62
     0
100
AcDbPoint
 10
-5890.526655283327
 20
6288.502225335191
 30
0.0
  0
ENDBLK
  5
1FC
330
1F1
100
AcDbEntity
  8
0
100
AcDbBlockEnd
  0
BLOCK
  5
1FF
330
1FE
100
AcDbEntity
  8
0
100
AcDbBlockBegin
  2
*D3
 70
     1
 10
0.0
 20
0.0
 30
0.0
  3
*D3
  1

  0
LINE
  5
200
330
1FE
100
AcDbEntity
  8
0
 62
   123
370
    -2
100
AcDbLine
 10
-5860.526655283329
 20
6293.00222533519
 30
0.0
 11
-5860.526655283329
 21
6308.038347379459
 31
0.0
  0
LINE
  5
201
330
1FE
100
AcDbEntity
  8
0
 62
   123
370
    -2
100
AcDbLine
 10
-5853.526655283327
 20
6292.502225335191
 30
0.0
 11
-5853.526655283327
 21
6308.038347379459
 31
0.0
  0
LINE
  5
202
330
1FE
100
AcDbEntity
  8
0
 62
   123
370
    -2
100
AcDbLine
 10
-5863.026655283327
 20
6307.438347379459
 30
0.0
 11
-5865.526655283328
 21
6307.438347379459
 31
0.0
  0
LINE
  5
203
330
1FE
100
AcDbEntity
  8
0
 62
   123
370
    -2
100
AcDbLine
 10
-5851.026655283327
 20
6307.438347379459
 30
0.0
 11
-5848.526655283327
 21
6307.438347379459
 31
0.0
  0
LINE
  5
204
330
1FE
100
AcDbEntity
  8
0
 62
   123
370
    -2
100
AcDbLine
 10
-5860.526655283329
 20
6307.438347379459
 30
0.0
 11
-5853.526655283327
 21
6307.438347379459
 31
0.0
  0
SOLID
  5
205
330
1FE
100
AcDbEntity
  8
0
 62
   123
100
AcDbTrace
 10
-5863.026655283327
 20
6307.855014046126
 30
0.0
 11
-5863.026655283327
 21
6307.021680712792
 31
0.0
 12
-5860.526655283329
 22
6307.438347379459
 32
0.0
 13
-5860.526655283329
 23
6307.438347379459
 33
0.0
  0
SOLID
  5
206
330
1FE
100
AcDbEntity
  8
0
 62
   123
100
AcDbTrace
 10
-5851.026655283327
 20
6307.855014046126
 30
0.0
 11
-5851.026655283327
 21
6307.021680712792
 31
0.0
 12
-5853.526655283327
 22
6307.438347379459
 32
0.0
 13
-5853.526655283327
 23
6307.438347379459
 33
0.0
  0
MTEXT
  5
207
330
1FE
100
AcDbEntity
  8
0
 62
     3
100
AcDbMText
 10
-5857.026655283327
 20
6309.93834737946
 30
0.0
 40
3.0
 41
0.0
 71
     5
 72
     1
  1
\A1;7
 73
     1
 44
1.0
1001
ACAD
1000
MTEXTBEGIN
1070
    73
1070
     1
1070
    44
1040
1.0
1070
    74
1070
     0
1000
MTEXTEND
  0
POINT
  5
208
330
1FE
100
AcDbEntity
  8
Defpoints
 62
     0
100
AcDbPoint
 10
-5860.526655283329
 20
6292.002225335191
 30
0.0
  0
POINT
  5
209
330
1FE
100
AcDbEntity
  8
Defpoints
 62
     0
100
AcDbPoint
 10
-5853.526655283327
 20
6291.50222533519
 30
0.0
  0
POINT
  5
20A
330
1FE
100
AcDbEntity
  8
Defpoints
 62
     0
100
AcDbPoint
 10
-5853.526655283327
 20
6307.438347379459
 30
0.0
  0
ENDBLK
  5
20B
330
1FE
100
AcDbEntity
  8
0
100
AcDbBlockEnd
  0
BLOCK
  5
20E
330
20D
100
AcDbEntity
  8
0
100
AcDbBlockBegin
  2
*D4
 70
     1
 10
0.0
 20
0.0
 30
0.0
  3
*D4
  1

  0
LINE
  5
20F
330
20D
100
AcDbEntity
  8
0
 62
   123
370
    -2
100
AcDbLine
 10
-5878.526655283327
 20
6250.887225335191
 30
0.0
 11
-5878.526655283327
 21
6316.423622613797
 31
0.0
  0
LINE
  5
210
330
20D
100
AcDbEntity
  8
0
 62
   123
370
    -2
100
AcDbLine
 10
-5860.526655283329
 20
6293.00222533519
 30
0.0
 11
-5860.526655283329
 21
6316.423622613797
 31
0.0
  0
LINE
  5
211
330
20D
100
AcDbEntity
  8
0
 62
   123
370
    -2
100
AcDbLine
 10
-5876.026655283329
 20
6315.823622613798
 30
0.0
 11
-5863.026655283327
 21
6315.823622613798
 31
0.0
  0
SOLID
  5
212
330
20D
100
AcDbEntity
  8
0
 62
   123
100
AcDbTrace
 10
-5876.026655283329
 20
6316.240289280464
 30
0.0
 11
-5876.026655283329
 21
6315.406955947132
 31
0.0
 12
-5878.526655283327
 22
6315.823622613798
 32
0.0
 13
-5878.526655283327
 23
6315.823622613798
 33
0.0
  0
SOLID
  5
213
330
20D
100
AcDbEntity
  8
0
 62
   123
100
AcDbTrace
 10
-5863.026655283327
 20
6316.240289280464
 30
0.0
 11
-5863.026655283327
 21
6315.406955947132
 31
0.0
 12
-5860.526655283329
 22
6315.823622613798
 32
0.0
 13
-5860.526655283329
 23
6315.823622613798
 33
0.0
  0
MTEXT
  5
214
330
20D
100
AcDbEntity
  8
0
 62
     3
100
AcDbMText
 10
-5869.526655283327
 20
6318.323622613798
 30
0.0
 40
3.0
 41
0.0
 71
     5
 72
     1
  1
\A1;18
 73
     1
 44
1.0
1001
ACAD
1000
MTEXTBEGIN
1070
    73
1070
     1
1070
    44
1040
1.0
1070
    74
1070
     0
1000
MTEXTEND
  0
POINT
  5
215
330
20D
100
AcDbEntity
  8
Defpoints
 62
     0
100
AcDbPoint
 10
-5878.526655283327
 20
6249.88722533519
 30
0.0
  0
POINT
  5
216
330
20D
100
AcDbEntity
  8
Defpoints
 62
     0
100
AcDbPoint
 10
-5860.526655283329
 20
6292.002225335191
 30
0.0
  0
POINT
  5
217
330
20D
100
AcDbEntity
  8
Defpoints
 62
     0
100
AcDbPoint
 10
-5860.526655283329
 20
6315.823622613798
 30
0.0
  0
ENDBLK
  5
218
330
20D
100
AcDbEntity
  8
0
100
AcDbBlockEnd
  0
BLOCK
  5
21B
330
21A
100
AcDbEntity
  8
0
100
AcDbBlockBegin
  2
*D5
 70
     1
 10
0.0
 20
0.0
 30
0.0
  3
*D5
  1

  0
LINE
  5
21C
330
21A
100
AcDbEntity
  8
0
 62
   123
370
    -2
100
AcDbLine
 10
-5860.526655283329
 20
6293.00222533519
 30
0.0
 11
-5860.526655283329
 21
6316.423622613797
 31
0.0
  0
LINE
  5
21D
330
21A
100
AcDbEntity
  8
0
 62
   123
370
    -2
100
AcDbLine
 10
-5736.026655283327
 20
6283.002225335191
 30
0.0
 11
-5736.026655283327
 21
6316.423622613797
 31
0.0
  0
LINE
  5
21E
330
21A
100
AcDbEntity
  8
0
 62
   123
370
    -2
100
AcDbLine
 10
-5858.026655283327
 20
6315.823622613798
 30
0.0
 11
-5738.52665528333
 21
6315.823622613798
 31
0.0
  0
SOLID
  5
21F
330
21A
100
AcDbEntity
  8
0
 62
   123
100
AcDbTrace
 10
-5858.026655283327
 20
6316.240289280464
 30
0.0
 11
-5858.026655283327
 21
6315.406955947132
 31
0.0
 12
-5860.526655283329
 22
6315.823622613798
 32
0.0
 13
-5860.526655283329
 23
6315.823622613798
 33
0.0
  0
SOLID
  5
220
330
21A
100
AcDbEntity
  8
0
 62
   123
100
AcDbTrace
 10
-5738.52665528333
 20
6316.240289280464
 30
0.0
 11
-5738.52665528333
 21
6315.406955947132
 31
0.0
 12
-5736.026655283327
 22
6315.823622613798
 32
0.0
 13
-5736.026655283327
 23
6315.823622613798
 33
0.0
  0
MTEXT
  5
221
330
21A
100
AcDbEntity
  8
0
 62
     3
100
AcDbMText
 10
-5798.276655283327
 20
6318.323622613798
 30
0.0
 40
3.0
 41
0.0
 71
     5
 72
     1
  1
\A1;124.5
 73
     1
 44
1.0
1001
ACAD
1000
MTEXTBEGIN
1070
    73
1070
     1
1070
    44
1040
1.0
1070
    74
1070
     0
1000
MTEXTEND
  0
POINT
  5
222
330
21A
100
AcDbEntity
  8
Defpoints
 62
     0
100
AcDbPoint
 10
-5860.526655283329
 20
6292.002225335191
 30
0.0
  0
POINT
  5
223
330
21A
100
AcDbEntity
  8
Defpoints
 62
     0
100
AcDbPoint
 10
-5736.026655283327
 20
6282.00222533519
 30
0.0
  0
POINT
  5
224
330
21A
100
AcDbEntity
  8
Defpoints
 62
     0
100
AcDbPoint
 10
-5736.026655283327
 20
6315.823622613798
 30
0.0
  0
ENDBLK
  5
225
330
21A
100
AcDbEntity
  8
0
100
AcDbBlockEnd
  0
BLOCK
  5
228
330
227
100
AcDbEntity
  8
0
100
AcDbBlockBegin
  2
*D6
 70
     1
 10
0.0
 20
0.0
 30
0.0
  3
*D6
  1

  0
LINE
  5
229
330
227
100
AcDbEntity
  8
0
 62
   123
370
    -2
100
AcDbLine
 10
-5860.526655283329
 20
6293.00222533519
 30
0.0
 11
-5860.526655283329
 21
6301.002233354688
 31
0.0
  0
LINE
  5
22A
330
227
100
AcDbEntity
  8
0
 62
   123
370
    -2
100
AcDbLine
 10
-5862.526655283327
 20
6289.002225335191
 30
0.0
 11
-5862.526655283327
 21
6301.002233354688
 31
0.0
  0
LINE
  5
22B
330
227
100
AcDbEntity
  8
0
 62
   123
370
    -2
100
AcDbLine
 10
-5858.026655283327
 20
6300.402233354687
 30
0.0
 11
-5855.526655283327
 21
6300.402233354687
 31
0.0
  0
LINE
  5
22C
330
227
100
AcDbEntity
  8
0
 62
   123
370
    -2
100
AcDbLine
 10
-5865.026655283327
 20
6300.402233354687
 30
0.0
 11
-5871.526655283329
 21
6300.402233354687
 31
0.0
  0
LINE
  5
22D
330
227
100
AcDbEntity
  8
0
 62
   123
370
    -2
100
AcDbLine
 10
-5860.526655283329
 20
6300.402233354687
 30
0.0
 11
-5862.526655283327
 21
6300.402233354687
 31
0.0
  0
SOLID
  5
22E
330
227
100
AcDbEntity
  8
0
 62
   123
100
AcDbTrace
 10
-5858.026655283327
 20
6300.818900021353
 30
0.0
 11
-5858.026655283327
 21
6299.98556668802
 31
0.0
 12
-5860.526655283329
 22
6300.402233354687
 32
0.0
 13
-5860.526655283329
 23
6300.402233354687
 33
0.0
  0
SOLID
  5
22F
330
227
100
AcDbEntity
  8
0
 62
   123
100
AcDbTrace
 10
-5865.026655283327
 20
6300.818900021353
 30
0.0
 11
-5865.026655283327
 21
6299.98556668802
 31
0.0
 12
-5862.526655283327
 22
6300.402233354687
 32
0.0
 13
-5862.526655283327
 23
6300.402233354687
 33
0.0
  0
MTEXT
  5
230
330
227
100
AcDbEntity
  8
0
 62
     3
100
AcDbMText
 10
-5869.526655283327
 20
6302.902233354688
 30
0.0
 40
3.0
 41
0.0
 71
     5
 72
     1
  1
\A1;2
 73
     1
 44
1.0
1001
ACAD
1000
MTEXTBEGIN
1070
    73
1070
     1
1070
    44
1040
1.0
1070
    74
1070
     0
1000
MTEXTEND
  0
POINT
  5
231
330
227
100
AcDbEntity
  8
Defpoints
 62
     0
100
AcDbPoint
 10
-5860.526655283329
 20
6292.002225335191
 30
0.0
  0
POINT
  5
232
330
227
100
AcDbEntity
  8
Defpoints
 62
     0
100
AcDbPoint
 10
-5862.526655283327
 20
6288.002225335191
 30
0.0
  0
POINT
  5
233
330
227
100
AcDbEntity
  8
Defpoints
 62
     0
100
AcDbPoint
 10
-5862.526655283327
 20
6300.402233354687
 30
0.0
  0
ENDBLK
  5
234
330
227
100
AcDbEntity
  8
0
100
AcDbBlockEnd
  0
BLOCK
  5
2CF
330
2CE
100
AcDbEntity
  8
0
100
AcDbBlockBegin
  2
*D7
 70
     1
 10
0.0
 20
0.0
 30
0.0
  3
*D7
  1

  0
LINE
  5
2D0
330
2CE
100
AcDbEntity
  8
0
 62
   123
370
    -2
100
AcDbLine
 10
-5171.602761626236
 20
6297.193990753804
 30
0.0
 11
-5171.602761626236
 21
6313.711896188411
 31
0.0
  0
LINE
  5
2D1
330
2CE
100
AcDbEntity
  8
0
 62
   123
370
    -2
100
AcDbLine
 10
-5164.602761626237
 20
6296.693990753802
 30
0.0
 11
-5164.602761626237
 21
6313.711896188411
 31
0.0
  0
LINE
  5
2D2
330
2CE
100
AcDbEntity
  8
0
 62
   123
370
    -2
100
AcDbLine
 10
-5174.102761626237
 20
6313.111896188409
 30
0.0
 11
-5176.602761626236
 21
6313.111896188409
 31
0.0
  0
LINE
  5
2D3
330
2CE
100
AcDbEntity
  8
0
 62
   123
370
    -2
100
AcDbLine
 10
-5162.102761626236
 20
6313.111896188409
 30
0.0
 11
-5159.602761626236
 21
6313.111896188409
 31
0.0
  0
LINE
  5
2D4
330
2CE
100
AcDbEntity
  8
0
 62
   123
370
    -2
100
AcDbLine
 10
-5171.602761626236
 20
6313.111896188409
 30
0.0
 11
-5164.602761626237
 21
6313.111896188409
 31
0.0
  0
SOLID
  5
2D5
330
2CE
100
AcDbEntity
  8
0
 62
   123
100
AcDbTrace
 10
-5174.102761626237
 20
6313.528562855077
 30
0.0
 11
-5174.102761626237
 21
6312.695229521743
 31
0.0
 12
-5171.602761626236
 22
6313.111896188409
 32
0.0
 13
-5171.602761626236
 23
6313.111896188409
 33
0.0
  0
SOLID
  5
2D6
330
2CE
100
AcDbEntity
  8
0
 62
   123
100
AcDbTrace
 10
-5162.102761626236
 20
6313.528562855077
 30
0.0
 11
-5162.102761626236
 21
6312.695229521743
 31
0.0
 12
-5164.602761626237
 22
6313.111896188409
 32
0.0
 13
-5164.602761626237
 23
6313.111896188409
 33
0.0
  0
MTEXT
  5
2D7
330
2CE
100
AcDbEntity
  8
0
 62
     3
100
AcDbMText
 10
-5168.102761626236
 20
6315.611896188411
 30
0.0
 40
3.0
 41
0.0
 71
     5
 72
     1
  1
\A1;7
 73
     1
 44
1.0
1001
ACAD
1000
MTEXTBEGIN
1070
    73
1070
     1
1070
    44
1040
1.0
1070
    74
1070
     0
1000
MTEXTEND
  0
POINT
  5
2D8
330
2CE
100
AcDbEntity
  8
Defpoints
 62
     0
100
AcDbPoint
 10
-5171.602761626236
 20
6296.193990753804
 30
0.0
  0
POINT
  5
2D9
330
2CE
100
AcDbEntity
  8
Defpoints
 62
     0
100
AcDbPoint
 10
-5164.602761626237
 20
6295.693990753804
 30
0.0
  0
POINT
  5
2DA
330
2CE
100
AcDbEntity
  8
Defpoints
 62
     0
100
AcDbPoint
 10
-5164.602761626237
 20
6313.111896188409
 30
0.0
  0
ENDBLK
  5
2DB
330
2CE
100
AcDbEntity
  8
0
100
AcDbBlockEnd
  0
BLOCK
  5
2DE
330
2DD
100
AcDbEntity
  8
0
100
AcDbBlockBegin
  2
*D8
 70
     1
 10
0.0
 20
0.0
 30
0.0
  3
*D8
  1

  0
LINE
  5
2DF
330
2DD
100
AcDbEntity
  8
0
 62
   123
370
    -2
100
AcDbLine
 10
-5171.602761626236
 20
6297.193990753804
 30
0.0
 11
-5171.602761626236
 21
6322.052983759061
 31
0.0
  0
LINE
  5
2E0
330
2DD
100
AcDbEntity
  8
0
 62
   123
370
    -2
100
AcDbLine
 10
-5047.102761626236
 20
6287.193990753802
 30
0.0
 11
-5047.102761626236
 21
6322.052983759061
 31
0.0
  0
LINE
  5
2E1
330
2DD
100
AcDbEntity
  8
0
 62
   123
370
    -2
100
AcDbLine
 10
-5169.102761626238
 20
6321.452983759058
 30
0.0
 11
-5049.602761626236
 21
6321.452983759058
 31
0.0
  0
SOLID
  5
2E2
330
2DD
100
AcDbEntity
  8
0
 62
   123
100
AcDbTrace
 10
-5169.102761626238
 20
6321.869650425728
 30
0.0
 11
-5169.102761626238
 21
6321.036317092393
 31
0.0
 12
-5171.602761626236
 22
6321.452983759058
 32
0.0
 13
-5171.602761626236
 23
6321.452983759058
 33
0.0
  0
SOLID
  5
2E3
330
2DD
100
AcDbEntity
  8
0
 62
   123
100
AcDbTrace
 10
-5049.602761626236
 20
6321.869650425728
 30
0.0
 11
-5049.602761626236
 21
6321.036317092393
 31
0.0
 12
-5047.102761626236
 22
6321.452983759058
 32
0.0
 13
-5047.102761626236
 23
6321.452983759058
 33
0.0
  0
MTEXT
  5
2E4
330
2DD
100
AcDbEntity
  8
0
 62
     3
100
AcDbMText
 10
-5109.352761626237
 20
6323.95298375906
 30
0.0
 40
3.0
 41
0.0
 71
     5
 72
     1
  1
\A1;124.5
 73
     1
 44
1.0
1001
ACAD
1000
MTEXTBEGIN
1070
    73
1070
     1
1070
    44
1040
1.0
1070
    74
1070
     0
1000
MTEXTEND
  0
POINT
  5
2E5
330
2DD
100
AcDbEntity
  8
Defpoints
 62
     0
100
AcDbPoint
 10
-5171.602761626236
 20
6296.193990753804
 30
0.0
  0
POINT
  5
2E6
330
2DD
100
AcDbEntity
  8
Defpoints
 62
     0
100
AcDbPoint
 10
-5047.102761626236
 20
6286.193990753804
 30
0.0
  0
POINT
  5
2E7
330
2DD
100
AcDbEntity
  8
Defpoints
 62
     0
100
AcDbPoint
 10
-5047.102761626236
 20
6321.452983759058
 30
0.0
  0
ENDBLK
  5
2E8
330
2DD
100
AcDbEntity
  8
0
100
AcDbBlockEnd
  0
BLOCK
  5
2EB
330
2EA
100
AcDbEntity
  8
0
100
AcDbBlockBegin
  2
*D9
 70
     1
 10
0.0
 20
0.0
 30
0.0
  3
*D9
  1

  0
LINE
  5
2EC
330
2EA
100
AcDbEntity
  8
0
 62
   123
370
    -2
100
AcDbLine
 10
-5374.150467293468
 20
6289.193990753804
 30
0.0
 11
-5374.150467293468
 21
6319.216904874815
 31
0.0
  0
LINE
  5
2ED
330
2EA
100
AcDbEntity
  8
0
 62
   123
370
    -2
100
AcDbLine
 10
-5284.150467293467
 20
6289.193990753804
 30
0.0
 11
-5284.150467293467
 21
6319.216904874815
 31
0.0
  0
LINE
  5
2EE
330
2EA
100
AcDbEntity
  8
0
 62
   123
370
    -2
100
AcDbLine
 10
-5371.650467293466
 20
6318.616904874816
 30
0.0
 11
-5286.650467293467
 21
6318.616904874816
 31
0.0
  0
SOLID
  5
2EF
330
2EA
100
AcDbEntity
  8
0
 62
   123
100
AcDbTrace
 10
-5371.650467293466
 20
6319.033571541483
 30
0.0
 11
-5371.650467293466
 21
6318.200238208149
 31
0.0
 12
-5374.150467293468
 22
6318.616904874816
 32
0.0
 13
-5374.150467293468
 23
6318.616904874816
 33
0.0
  0
SOLID
  5
2F0
330
2EA
100
AcDbEntity
  8
0
 62
   123
100
AcDbTrace
 10
-5286.650467293467
 20
6319.033571541483
 30
0.0
 11
-5286.650467293467
 21
6318.200238208149
 31
0.0
 12
-5284.150467293467
 22
6318.616904874816
 32
0.0
 13
-5284.150467293467
 23
6318.616904874816
 33
0.0
  0
MTEXT
  5
2F1
330
2EA
100
AcDbEntity
  8
0
 62
     3
100
AcDbMText
 10
-5329.150467293467
 20
6321.116904874816
 30
0.0
 40
3.0
 41
0.0
 71
     5
 72
     1
  1
\A1;{\fGulim|b0|i0|c129|p50;□}90
 73
     1
 44
1.0
1001
ACAD
1000
MTEXTBEGIN
1070
    73
1070
     1
1070
    44
1040
1.0
1070
    74
1070
     0
1000
MTEXTEND
  0
POINT
  5
2F2
330
2EA
100
AcDbEntity
  8
Defpoints
 62
     0
100
AcDbPoint
 10
-5374.150467293468
 20
6288.193990753804
 30
0.0
  0
POINT
  5
2F3
330
2EA
100
AcDbEntity
  8
Defpoints
 62
     0
100
AcDbPoint
 10
-5284.150467293467
 20
6288.193990753804
 30
0.0
  0
POINT
  5
2F4
330
2EA
100
AcDbEntity
  8
Defpoints
 62
     0
100
AcDbPoint
 10
-5284.150467293467
 20
6318.616904874816
 30
0.0
  0
ENDBLK
  5
2F5
330
2EA
100
AcDbEntity
  8
0
100
AcDbBlockEnd
  0
BLOCK
  5
2FE
330
2FD
100
AcDbEntity
  8
0
100
AcDbBlockBegin
  2
*D10
 70
     1
 10
0.0
 20
0.0
 30
0.0
  3
*D10
  1

  0
LINE
  5
2FF
330
2FD
100
AcDbEntity
  8
0
 62
   123
370
    -2
100
AcDbLine
 10
-5171.602761626236
 20
6297.193990753804
 30
0.0
 11
-5171.602761626236
 21
6322.052983759061
 31
0.0
  0
LINE
  5
300
330
2FD
100
AcDbEntity
  8
0
 62
   123
370
    -2
100
AcDbLine
 10
-5208.602761626236
 20
6256.693990753802
 30
0.0
 11
-5208.602761626236
 21
6322.052983759061
 31
0.0
  0
LINE
  5
301
330
2FD
100
AcDbEntity
  8
0
 62
   123
370
    -2
100
AcDbLine
 10
-5174.102761626237
 20
6321.452983759058
 30
0.0
 11
-5206.102761626237
 21
6321.452983759058
 31
0.0
  0
SOLID
  5
302
330
2FD
100
AcDbEntity
  8
0
 62
   123
100
AcDbTrace
 10
-5174.102761626237
 20
6321.869650425728
 30
0.0
 11
-5174.102761626237
 21
6321.036317092393
 31
0.0
 12
-5171.602761626236
 22
6321.452983759058
 32
0.0
 13
-5171.602761626236
 23
6321.452983759058
 33
0.0
  0
SOLID
  5
303
330
2FD
100
AcDbEntity
  8
0
 62
   123
100
AcDbTrace
 10
-5206.102761626237
 20
6321.869650425728
 30
0.0
 11
-5206.102761626237
 21
6321.036317092393
 31
0.0
 12
-5208.602761626236
 22
6321.452983759058
 32
0.0
 13
-5208.602761626236
 23
6321.452983759058
 33
0.0
  0
MTEXT
  5
304
330
2FD
100
AcDbEntity
  8
0
 62
     3
100
AcDbMText
 10
-5190.102761626236
 20
6323.95298375906
 30
0.0
 40
3.0
 41
0.0
 71
     5
 72
     1
  1
\A1;37
 73
     1
 44
1.0
1001
ACAD
1000
MTEXTBEGIN
1070
    73
1070
     1
1070
    44
1040
1.0
1070
    74
1070
     0
1000
MTEXTEND
  0
POINT
  5
305
330
2FD
100
AcDbEntity
  8
Defpoints
 62
     0
100
AcDbPoint
 10
-5171.602761626236
 20
6296.193990753804
 30
0.0
  0
POINT
  5
306
330
2FD
100
AcDbEntity
  8
Defpoints
 62
     0
100
AcDbPoint
 10
-5208.602761626236
 20
6255.693990753804
 30
0.0
  0
POINT
  5
307
330
2FD
100
AcDbEntity
  8
Defpoints
 62
     0
100
AcDbPoint
 10
-5208.602761626236
 20
6321.452983759058
 30
0.0
  0
ENDBLK
  5
308
330
2FD
100
AcDbEntity
  8
0
100
AcDbBlockEnd
  0
BLOCK
  5
30B
330
30A
100
AcDbEntity
  8
0
100
AcDbBlockBegin
  2
*D11
 70
     1
 10
0.0
 20
0.0
 30
0.0
  3
*D11
  1

  0
LINE
  5
30C
330
30A
100
AcDbEntity
  8
0
 62
   123
370
    -2
100
AcDbLine
 10
-5174.102761626237
 20
6209.693990753804
 30
0.0
 11
-5232.202761626236
 21
6209.693990753804
 31
0.0
  0
LINE
  5
30D
330
30A
100
AcDbEntity
  8
0
 62
   123
370
    -2
100
AcDbLine
 10
-5174.102761626237
 20
6292.693990753804
 30
0.0
 11
-5232.202761626236
 21
6292.693990753804
 31
0.0
  0
LINE
  5
30E
330
30A
100
AcDbEntity
  8
0
 62
   123
370
    -2
100
AcDbLine
 10
-5231.602761626238
 20
6212.193990753803
 30
0.0
 11
-5231.602761626238
 21
6290.193990753802
 31
0.0
  0
SOLID
  5
30F
330
30A
100
AcDbEntity
  8
0
 62
   123
100
AcDbTrace
 10
-5232.019428292904
 20
6212.193990753803
 30
0.0
 11
-5231.18609495957
 21
6212.193990753803
 31
0.0
 12
-5231.602761626238
 22
6209.693990753804
 32
0.0
 13
-5231.602761626238
 23
6209.693990753804
 33
0.0
  0
SOLID
  5
310
330
30A
100
AcDbEntity
  8
0
 62
   123
100
AcDbTrace
 10
-5232.019428292904
 20
6290.193990753802
 30
0.0
 11
-5231.18609495957
 21
6290.193990753802
 31
0.0
 12
-5231.602761626238
 22
6292.693990753804
 32
0.0
 13
-5231.602761626238
 23
6292.693990753804
 33
0.0
  0
MTEXT
  5
311
330
30A
100
AcDbEntity
  8
0
 62
     3
100
AcDbMText
 10
-5235.052761626239
 20
6251.193990753803
 30
0.0
 40
3.0
 41
0.0
 71
     5
 72
     1
  1
\A1;%%C83{\H0.7x;\S  0^ -0.035;}
 11
0.0000000000000001
 21
1.0
 31
0.0
 73
     1
 44
1.0
1001
ACAD
1000
MTEXTBEGIN
1070
    73
1070
     1
1070
    44
1040
1.0
1070
    74
1070
     0
1000
MTEXTEND
  0
POINT
  5
312
330
30A
100
AcDbEntity
  8
Defpoints
 62
     0
100
AcDbPoint
 10
-5173.102761626236
 20
6209.693990753804
 30
0.0
  0
POINT
  5
313
330
30A
100
AcDbEntity
  8
Defpoints
 62
     0
100
AcDbPoint
 10
-5173.102761626236
 20
6292.693990753804
 30
0.0
  0
POINT
  5
314
330
30A
100
AcDbEntity
  8
Defpoints
 62
     0
100
AcDbPoint
 10
-5231.602761626238
 20
6292.693990753804
 30
0.0
  0
ENDBLK
  5
315
330
30A
100
AcDbEntity
  8
0
100
AcDbBlockEnd
  0
BLOCK
  5
319
330
318
100
AcDbEntity
  8
0
100
AcDbBlockBegin
  2
*D12
 70
     1
 10
0.0
 20
0.0
 30
0.0
  3
*D12
  1

  0
LINE
  5
31A
330
318
100
AcDbEntity
  8
0
 62
   123
370
    -2
100
AcDbLine
 10
-5208.602761626236
 20
6256.193990753804
 30
0.0
 11
-5208.602761626236
 21
6264.793990753804
 31
0.0
  0
LINE
  5
31B
330
318
100
AcDbEntity
  8
0
 62
   123
370
    -2
100
AcDbLine
 10
-5178.602761626237
 20
6257.193990753804
 30
0.0
 11
-5178.602761626237
 21
6264.793990753804
 31
0.0
  0
LINE
  5
31C
330
318
100
AcDbEntity
  8
0
 62
   123
370
    -2
100
AcDbLine
 10
-5206.102761626237
 20
6264.193990753804
 30
0.0
 11
-5181.102761626236
 21
6264.193990753804
 31
0.0
  0
SOLID
  5
31D
330
318
100
AcDbEntity
  8
0
 62
   123
100
AcDbTrace
 10
-5206.102761626237
 20
6264.610657420472
 30
0.0
 11
-5206.102761626237
 21
6263.777324087136
 31
0.0
 12
-5208.602761626236
 22
6264.193990753804
 32
0.0
 13
-5208.602761626236
 23
6264.193990753804
 33
0.0
  0
SOLID
  5
31E
330
318
100
AcDbEntity
  8
0
 62
   123
100
AcDbTrace
 10
-5181.102761626236
 20
6264.610657420472
 30
0.0
 11
-5181.102761626236
 21
6263.777324087136
 31
0.0
 12
-5178.602761626237
 22
6264.193990753804
 32
0.0
 13
-5178.602761626237
 23
6264.193990753804
 33
0.0
  0
MTEXT
  5
31F
330
318
100
AcDbEntity
  8
0
 62
     3
100
AcDbMText
 10
-5193.602761626237
 20
6266.693990753804
 30
0.0
 40
3.0
 41
0.0
 71
     5
 72
     1
  1
\A1;30
 73
     1
 44
1.0
1001
ACAD
1000
MTEXTBEGIN
1070
    73
1070
     1
1070
    44
1040
1.0
1070
    74
1070
     0
1000
MTEXTEND
  0
POINT
  5
320
330
318
100
AcDbEntity
  8
Defpoints
 62
     0
100
AcDbPoint
 10
-5208.602761626236
 20
6255.193990753802
 30
0.0
  0
POINT
  5
321
330
318
100
AcDbEntity
  8
Defpoints
 62
     0
100
AcDbPoint
 10
-5178.602761626237
 20
6256.193990753804
 30
0.0
  0
POINT
  5
322
330
318
100
AcDbEntity
  8
Defpoints
 62
     0
100
AcDbPoint
 10
-5178.602761626237
 20
6264.193990753804
 30
0.0
  0
ENDBLK
  5
323
330
318
100
AcDbEntity
  8
0
100
AcDbBlockEnd
  0
BLOCK
  5
326
330
325
100
AcDbEntity
  8
0
100
AcDbBlockBegin
  2
*D13
 70
     1
 10
0.0
 20
0.0
 30
0.0
  3
*D13
  1

  0
LINE
  5
327
330
325
100
AcDbEntity
  8
0
 62
   123
370
    -2
100
AcDbLine
 10
-5209.102761626237
 20
6246.193990753804
 30
0.0
 11
-5217.202761626237
 21
6246.193990753804
 31
0.0
  0
LINE
  5
328
330
325
100
AcDbEntity
  8
0
 62
   123
370
    -2
100
AcDbLine
 10
-5209.602761626236
 20
6255.193990753802
 30
0.0
 11
-5217.202761626237
 21
6255.193990753802
 31
0.0
  0
LINE
  5
329
330
325
100
AcDbEntity
  8
0
 62
   123
370
    -2
100
AcDbLine
 10
-5216.602761626236
 20
6248.693990753803
 30
0.0
 11
-5216.602761626236
 21
6252.693990753804
 31
0.0
  0
SOLID
  5
32A
330
325
100
AcDbEntity
  8
0
 62
   123
100
AcDbTrace
 10
-5217.019428292903
 20
6248.693990753803
 30
0.0
 11
-5216.186094959569
 21
6248.693990753803
 31
0.0
 12
-5216.602761626236
 22
6246.193990753804
 32
0.0
 13
-5216.602761626236
 23
6246.193990753804
 33
0.0
  0
SOLID
  5
32B
330
325
100
AcDbEntity
  8
0
 62
   123
100
AcDbTrace
 10
-5217.019428292903
 20
6252.693990753804
 30
0.0
 11
-5216.186094959569
 21
6252.693990753804
 31
0.0
 12
-5216.602761626236
 22
6255.193990753802
 32
0.0
 13
-5216.602761626236
 23
6255.193990753802
 33
0.0
  0
MTEXT
  5
32C
330
325
100
AcDbEntity
  8
0
 62
     3
100
AcDbMText
 10
-5219.102761626238
 20
6250.693990753802
 30
0.0
 40
3.0
 41
0.0
 71
     5
 72
     1
  1
\A1;9
 11
0.0000000000000001
 21
1.0
 31
0.0
 73
     1
 44
1.0
1001
ACAD
1000
MTEXTBEGIN
1070
    73
1070
     1
1070
    44
1040
1.0
1070
    74
1070
     0
1000
MTEXTEND
  0
POINT
  5
32D
330
325
100
AcDbEntity
  8
Defpoints
 62
     0
100
AcDbPoint
 10
-5208.102761626236
 20
6246.193990753804
 30
0.0
  0
POINT
  5
32E
330
325
100
AcDbEntity
  8
Defpoints
 62
     0
100
AcDbPoint
 10
-5208.602761626236
 20
6255.193990753802
 30
0.0
  0
POINT
  5
32F
330
325
100
AcDbEntity
  8
Defpoints
 62
     0
100
AcDbPoint
 10
-5216.602761626236
 20
6255.193990753802
 30
0.0
  0
ENDBLK
  5
330
330
325
100
AcDbEntity
  8
0
100
AcDbBlockEnd
  0
BLOCK
  5
333
330
332
100
AcDbEntity
  8
0
100
AcDbBlockBegin
  2
*D14
 70
     1
 10
0.0
 20
0.0
 30
0.0
  3
*D14
  1

  0
LINE
  5
334
330
332
100
AcDbEntity
  8
0
 62
   123
370
    -2
100
AcDbLine
 10
-5209.102761626237
 20
6246.193990753804
 30
0.0
 11
-5224.202761626237
 21
6246.193990753804
 31
0.0
  0
LINE
  5
335
330
332
100
AcDbEntity
  8
0
 62
   123
370
    -2
100
AcDbLine
 10
-5179.602761626236
 20
6256.193990753804
 30
0.0
 11
-5224.202761626237
 21
6256.193990753804
 31
0.0
  0
LINE
  5
336
330
332
100
AcDbEntity
  8
0
 62
   123
370
    -2
100
AcDbLine
 10
-5223.602761626236
 20
6243.693990753804
 30
0.0
 11
-5223.602761626236
 21
6241.193990753803
 31
0.0
  0
LINE
  5
337
330
332
100
AcDbEntity
  8
0
 62
   123
370
    -2
100
AcDbLine
 10
-5223.602761626236
 20
6258.693990753804
 30
0.0
 11
-5223.602761626236
 21
6261.193990753803
 31
0.0
  0
LINE
  5
338
330
332
100
AcDbEntity
  8
0
 62
   123
370
    -2
100
AcDbLine
 10
-5223.602761626236
 20
6246.193990753804
 30
0.0
 11
-5223.602761626236
 21
6256.193990753804
 31
0.0
  0
SOLID
  5
339
330
332
100
AcDbEntity
  8
0
 62
   123
100
AcDbTrace
 10
-5224.019428292903
 20
6243.693990753804
 30
0.0
 11
-5223.186094959569
 21
6243.693990753804
 31
0.0
 12
-5223.602761626236
 22
6246.193990753804
 32
0.0
 13
-5223.602761626236
 23
6246.193990753804
 33
0.0
  0
SOLID
  5
33A
330
332
100
AcDbEntity
  8
0
 62
   123
100
AcDbTrace
 10
-5224.019428292903
 20
6258.693990753804
 30
0.0
 11
-5223.186094959569
 21
6258.693990753804
 31
0.0
 12
-5223.602761626236
 22
6256.193990753804
 32
0.0
 13
-5223.602761626236
 23
6256.193990753804
 33
0.0
  0
MTEXT
  5
33B
330
332
100
AcDbEntity
  8
0
 62
     3
100
AcDbMText
 10
-5227.052761626238
 20
6251.193990753803
 30
0.0
 40
3.0
 41
0.0
 71
     5
 72
     1
  1
\A1;%%C10{\H0.7x;\S  0^ -0.015;}
 11
0.0000000000000001
 21
1.0
 31
0.0
 73
     1
 44
1.0
1001
ACAD
1000
MTEXTBEGIN
1070
    73
1070
     1
1070
    44
1040
1.0
1070
    74
1070
     0
1000
MTEXTEND
  0
POINT
  5
33C
330
332
100
AcDbEntity
  8
Defpoints
 62
     0
100
AcDbPoint
 10
-5208.102761626236
 20
6246.193990753804
 30
0.0
  0
POINT
  5
33D
330
332
100
AcDbEntity
  8
Defpoints
 62
     0
100
AcDbPoint
 10
-5178.602761626237
 20
6256.193990753804
 30
0.0
  0
POINT
  5
33E
330
332
100
AcDbEntity
  8
Defpoints
 62
     0
100
AcDbPoint
 10
-5223.602761626236
 20
6256.193990753804
 30
0.0
  0
ENDBLK
  5
33F
330
332
100
AcDbEntity
  8
0
100
AcDbBlockEnd
  0
BLOCK
  5
343
330
342
100
AcDbEntity
  8
0
100
AcDbBlockBegin
  2
*D15
 70
     1
 10
0.0
 20
0.0
 30
0.0
  3
*D15
  1

  0
LINE
  5
344
330
342
100
AcDbEntity
  8
0
 62
   123
370
    -2
100
AcDbLine
 10
-5171.602761626236
 20
6297.193990753804
 30
0.0
 11
-5171.602761626236
 21
6305.741136367565
 31
0.0
  0
LINE
  5
345
330
342
100
AcDbEntity
  8
0
 62
   123
370
    -2
100
AcDbLine
 10
-5173.602761626236
 20
6293.193990753803
 30
0.0
 11
-5173.602761626236
 21
6305.741136367565
 31
0.0
  0
LINE
  5
346
330
342
100
AcDbEntity
  8
0
 62
   123
370
    -2
100
AcDbLine
 10
-5169.102761626238
 20
6305.141136367566
 30
0.0
 11
-5166.602761626236
 21
6305.141136367566
 31
0.0
  0
LINE
  5
347
330
342
100
AcDbEntity
  8
0
 62
   123
370
    -2
100
AcDbLine
 10
-5176.102761626236
 20
6305.141136367566
 30
0.0
 11
-5182.602761626236
 21
6305.141136367566
 31
0.0
  0
LINE
  5
348
330
342
100
AcDbEntity
  8
0
 62
   123
370
    -2
100
AcDbLine
 10
-5171.602761626236
 20
6305.141136367566
 30
0.0
 11
-5173.602761626236
 21
6305.141136367566
 31
0.0
  0
SOLID
  5
349
330
342
100
AcDbEntity
  8
0
 62
   123
100
AcDbTrace
 10
-5169.102761626238
 20
6305.557803034233
 30
0.0
 11
-5169.102761626238
 21
6304.724469700898
 31
0.0
 12
-5171.602761626236
 22
6305.141136367566
 32
0.0
 13
-5171.602761626236
 23
6305.141136367566
 33
0.0
  0
SOLID
  5
34A
330
342
100
AcDbEntity
  8
0
 62
   123
100
AcDbTrace
 10
-5176.102761626236
 20
6305.557803034233
 30
0.0
 11
-5176.102761626236
 21
6304.724469700898
 31
0.0
 12
-5173.602761626236
 22
6305.141136367566
 32
0.0
 13
-5173.602761626236
 23
6305.141136367566
 33
0.0
  0
MTEXT
  5
34B
330
342
100
AcDbEntity
  8
0
 62
     3
100
AcDbMText
 10
-5180.602761626236
 20
6307.641136367564
 30
0.0
 40
3.0
 41
0.0
 71
     5
 72
     1
  1
\A1;2
 73
     1
 44
1.0
1001
ACAD
1000
MTEXTBEGIN
1070
    73
1070
     1
1070
    44
1040
1.0
1070
    74
1070
     0
1000
MTEXTEND
  0
POINT
  5
34C
330
342
100
AcDbEntity
  8
Defpoints
 62
     0
100
AcDbPoint
 10
-5171.602761626236
 20
6296.193990753804
 30
0.0
  0
POINT
  5
34D
330
342
100
AcDbEntity
  8
Defpoints
 62
     0
100
AcDbPoint
 10
-5173.602761626236
 20
6292.193990753804
 30
0.0
  0
POINT
  5
34E
330
342
100
AcDbEntity
  8
Defpoints
 62
     0
100
AcDbPoint
 10
-5173.602761626236
 20
6305.141136367566
 30
0.0
  0
ENDBLK
  5
34F
330
342
100
AcDbEntity
  8
0
100
AcDbBlockEnd
  0
BLOCK
  5
410
330
40F
100
AcDbEntity
  8
0
100
AcDbBlockBegin
  2
*D16
 70
     1
 10
0.0
 20
0.0
 30
0.0
  3
*D16
  1

  0
LINE
  5
411
330
40F
100
AcDbEntity
  8
0
 62
   123
370
    -2
100
AcDbLine
 10
-4985.00197919251
 20
6153.193990753804
 30
0.0
 11
-4987.801979192511
 21
6153.193990753804
 31
0.0
  0
LINE
  5
412
330
40F
100
AcDbEntity
  8
0
 62
   123
370
    -2
100
AcDbLine
 10
-4984.101979192509
 20
6143.193990753804
 30
0.0
 11
-4987.801979192513
 21
6143.193990753804
 31
0.0
  0
LINE
  5
413
330
40F
100
AcDbEntity
  8
0
 62
   123
370
    -2
100
AcDbLine
 10
-4987.20197919251
 20
6150.693990753802
 30
0.0
 11
-4987.20197919251
 21
6145.693990753803
 31
0.0
  0
SOLID
  5
414
330
40F
100
AcDbEntity
  8
0
 62
   123
100
AcDbTrace
 10
-4987.618645859178
 20
6150.693990753802
 30
0.0
 11
-4986.785312525842
 21
6150.693990753802
 31
0.0
 12
-4987.20197919251
 22
6153.193990753804
 32
0.0
 13
-4987.20197919251
 23
6153.193990753804
 33
0.0
  0
SOLID
  5
415
330
40F
100
AcDbEntity
  8
0
 62
   123
100
AcDbTrace
 10
-4987.618645859178
 20
6145.693990753803
 30
0.0
 11
-4986.785312525842
 21
6145.693990753803
 31
0.0
 12
-4987.201979192511
 22
6143.193990753804
 32
0.0
 13
-4987.201979192511
 23
6143.193990753804
 33
0.0
  0
MTEXT
  5
416
330
40F
100
AcDbEntity
  8
0
 62
     3
100
AcDbMText
 10
-4989.701979192513
 20
6148.193990753803
 30
0.0
 40
3.0
 41
0.0
 71
     5
 72
     1
  1
\A1;10
 11
0.0000000000000001
 21
1.0
 31
0.0
 73
     1
 44
1.0
1001
ACAD
1000
MTEXTBEGIN
1070
    73
1070
     1
1070
    44
1040
1.0
1070
    74
1070
     0
1000
MTEXTEND
  0
POINT
  5
417
330
40F
100
AcDbEntity
  8
Defpoints
 62
     0
100
AcDbPoint
 10
-4984.001979192511
 20
6153.193990753804
 30
0.0
  0
POINT
  5
418
330
40F
100
AcDbEntity
  8
Defpoints
 62
     0
100
AcDbPoint
 10
-4983.101979192509
 20
6143.193990753804
 30
0.0
  0
POINT
  5
419
330
40F
100
AcDbEntity
  8
Defpoints
 62
     0
100
AcDbPoint
 10
-4987.201979192511
 20
6143.193990753804
 30
0.0
  0
ENDBLK
  5
41A
330
40F
100
AcDbEntity
  8
0
100
AcDbBlockEnd
  0
BLOCK
  5
1BA
330
1B9
100
AcDbEntity
  8
0
100
AcDbBlockBegin
  2
*D17
 70
     1
 10
0.0
 20
0.0
 30
0.0
  3
*D17
  1

  0
LINE
  5
1BB
330
1B9
100
AcDbEntity
  8
0
 62
   123
370
    -2
100
AcDbLine
 10
-5659.813291620958
 20
6248.002225335191
 30
0.0
 11
-5659.813291620958
 21
6301.611879519165
 31
0.0
  0
LINE
  5
1BC
330
1B9
100
AcDbEntity
  8
0
 62
   123
370
    -2
100
AcDbLine
 10
-5579.813291620958
 20
6248.002225335191
 30
0.0
 11
-5579.813291620958
 21
6301.611879519165
 31
0.0
  0
LINE
  5
1BD
330
1B9
100
AcDbEntity
  8
0
 62
   123
370
    -2
100
AcDbLine
 10
-5657.313291620958
 20
6301.011879519165
 30
0.0
 11
-5582.313291620958
 21
6301.011879519165
 31
0.0
  0
SOLID
  5
1BE
330
1B9
100
AcDbEntity
  8
0
 62
   123
100
AcDbTrace
 10
-5657.313291620958
 20
6301.428546185833
 30
0.0
 11
-5657.313291620958
 21
6300.595212852498
 31
0.0
 12
-5659.813291620958
 22
6301.011879519165
 32
0.0
 13
-5659.813291620958
 23
6301.011879519165
 33
0.0
  0
SOLID
  5
1BF
330
1B9
100
AcDbEntity
  8
0
 62
   123
100
AcDbTrace
 10
-5582.313291620958
 20
6301.428546185833
 30
0.0
 11
-5582.313291620958
 21
6300.595212852498
 31
0.0
 12
-5579.813291620958
 22
6301.011879519165
 32
0.0
 13
-5579.813291620958
 23
6301.011879519165
 33
0.0
  0
MTEXT
  5
1C0
330
1B9
100
AcDbEntity
  8
0
 62
     3
100
AcDbMText
 10
-5619.813291620958
 20
6303.511879519165
 30
0.0
 40
3.0
 41
0.0
 71
     5
 72
     1
  1
\A1;%%C80
 73
     1
 44
1.0
1001
ACAD
1000
MTEXTBEGIN
1070
    73
1070
     1
1070
    44
1040
1.0
1070
    74
1070
     0
1000
MTEXTEND
  0
POINT
  5
1C1
330
1B9
100
AcDbEntity
  8
Defpoints
 62
     0
100
AcDbPoint
 10
-5659.813291620958
 20
6247.00222533519
 30
0.0
  0
POINT
  5
1C2
330
1B9
100
AcDbEntity
  8
Defpoints
 62
     0
100
AcDbPoint
 10
-5579.813291620958
 20
6247.00222533519
 30
0.0
  0
POINT
  5
1C3
330
1B9
100
AcDbEntity
  8
Defpoints
 62
     0
100
AcDbPoint
 10
-5579.813291620958
 20
6301.011879519165
 30
0.0
  0
ENDBLK
  5
1C4
330
1B9
100
AcDbEntity
  8
0
100
AcDbBlockEnd
  0
BLOCK
  5
1C9
330
1C8
100
AcDbEntity
  8
0
100
AcDbBlockBegin
  2
*D18
 70
     1
 10
0.0
 20
0.0
 30
0.0
  3
*D18
  1

  0
LINE
  5
1CA
330
1C8
100
AcDbEntity
  8
0
 62
   123
370
    -2
100
AcDbLine
 10
-5608.313291620958
 20
6204.002225335193
 30
0.0
 11
-5567.213291620959
 21
6204.002225335193
 31
0.0
  0
LINE
  5
1CB
330
1C8
100
AcDbEntity
  8
0
 62
   123
370
    -2
100
AcDbLine
 10
-5608.313291620958
 20
6290.00222533519
 30
0.0
 11
-5567.213291620959
 21
6290.00222533519
 31
0.0
  0
LINE
  5
1CC
330
1C8
100
AcDbEntity
  8
0
 62
   123
370
    -2
100
AcDbLine
 10
-5567.813291620957
 20
6206.502225335192
 30
0.0
 11
-5567.813291620957
 21
6287.502225335191
 31
0.0
  0
SOLID
  5
1CD
330
1C8
100
AcDbEntity
  8
0
 62
   123
100
AcDbTrace
 10
-5568.229958287624
 20
6206.502225335192
 30
0.0
 11
-5567.396624954291
 21
6206.502225335192
 31
0.0
 12
-5567.813291620957
 22
6204.002225335193
 32
0.0
 13
-5567.813291620957
 23
6204.002225335193
 33
0.0
  0
SOLID
  5
1CE
330
1C8
100
AcDbEntity
  8
0
 62
   123
100
AcDbTrace
 10
-5568.229958287624
 20
6287.502225335191
 30
0.0
 11
-5567.396624954291
 21
6287.502225335191
 31
0.0
 12
-5567.813291620957
 22
6290.00222533519
 32
0.0
 13
-5567.813291620957
 23
6290.00222533519
 33
0.0
  0
MTEXT
  5
1CF
330
1C8
100
AcDbEntity
  8
0
 62
     3
100
AcDbMText
 10
-5570.313291620959
 20
6247.00222533519
 30
0.0
 40
3.0
 41
0.0
 71
     5
 72
     1
  1
\A1;86
 11
0.0000000000000001
 21
1.0
 31
0.0
 73
     1
 44
1.0
1001
ACAD
1000
MTEXTBEGIN
1070
    73
1070
     1
1070
    44
1040
1.0
1070
    74
1070
     0
1000
MTEXTEND
  0
POINT
  5
1D0
330
1C8
100
AcDbEntity
  8
Defpoints
 62
     0
100
AcDbPoint
 10
-5609.313291620958
 20
6204.002225335193
 30
0.0
  0
POINT
  5
1D1
330
1C8
100
AcDbEntity
  8
Defpoints
 62
     0
100
AcDbPoint
 10
-5609.313291620958
 20
6290.00222533519
 30
0.0
  0
POINT
  5
1D2
330
1C8
100
AcDbEntity
  8
Defpoints
 62
     0
100
AcDbPoint
 10
-5567.813291620957
 20
6290.00222533519
 30
0.0
  0
ENDBLK
  5
1D3
330
1C8
100
AcDbEntity
  8
0
100
AcDbBlockEnd
  0
BLOCK
  5
366
330
365
100
AcDbEntity
  8
0
100
AcDbBlockBegin
  2
*D19
 70
     1
 10
0.0
 20
0.0
 30
0.0
  3
*D19
  1

  0
LINE
  5
367
330
365
100
AcDbEntity
  8
0
 62
   123
370
    -2
100
AcDbLine
 10
-6044.095130142903
 20
6215.23166070192
 30
0.0
 11
-6046.126407139322
 21
6213.77429535177
 31
0.0
  0
LINE
  5
368
330
365
100
AcDbEntity
  8
0
 62
   123
370
    -2
100
AcDbLine
 10
-5955.531453099013
 20
6278.772789968456
 30
0.0
 11
-5931.506859140056
 21
6296.009538500992
 31
0.0
  0
LINE
  5
369
330
365
100
AcDbEntity
  8
0
 62
   123
370
    -2
100
AcDbLine
 10
-6042.063853146483
 20
6216.689026052069
 30
0.0
 11
-5957.562730095433
 21
6277.315424618307
 31
0.0
  0
SOLID
  5
36A
330
365
100
AcDbEntity
  8
0
 62
   123
100
AcDbTrace
 10
-6044.338024367927
 20
6215.570206867989
 30
0.0
 11
-6043.852235917879
 21
6214.89311453585
 31
0.0
 12
-6042.063853146483
 22
6216.689026052069
 32
0.0
 13
-6042.063853146483
 23
6216.689026052069
 33
0.0
  0
SOLID
  5
36B
330
365
100
AcDbEntity
  8
0
 62
   123
100
AcDbTrace
 10
-5955.774347324039
 20
6279.111336134525
 30
0.0
 11
-5955.288558873989
 21
6278.434243802387
 31
0.0
 12
-5957.562730095433
 22
6277.315424618307
 32
0.0
 13
-5957.562730095433
 23
6277.315424618307
 33
0.0
  0
MTEXT
  5
36C
102
{ACAD_XDICTIONARY
360
4D4
102
}
330
365
100
AcDbEntity
  8
0
 62
     3
100
AcDbMText
 10
-5942.424171644958
 20
6291.25365686671
 30
0.0
 40
3.0
 41
0.0
 71
     5
 72
     1
  1
\A1;\U+2205104%%P0.5
 11
0.812510798567753
 21
0.5829461400599479
 31
0.0
 73
     1
 44
1.0
1001
ACAD
1000
MTEXTBEGIN
1070
    73
1070
     1
1070
    44
1040
1.0
1070
    74
1070
     0
1000
MTEXTEND
  0
POINT
  5
36D
330
365
100
AcDbEntity
  8
Defpoints
 62
     0
100
AcDbPoint
 10
-5957.562730095433
 20
6277.315424618307
 30
0.0
  0
POINT
  5
36E
330
365
100
AcDbEntity
  8
Defpoints
 62
     0
100
AcDbPoint
 10
-6042.063853146483
 20
6216.689026052069
 30
0.0
  0
ENDBLK
  5
36F
330
365
100
AcDbEntity
  8
0
100
AcDbBlockEnd
  0
BLOCK
  5
375
330
374
100
AcDbEntity
  8
0
100
AcDbBlockBegin
  2
*D20
 70
     1
 10
0.0
 20
0.0
 30
0.0
  3
*D20
  1

  0
LINE
  5
376
330
374
100
AcDbEntity
  8
0
 62
   123
370
    -2
100
AcDbLine
 10
-5374.74446670896
 20
6221.337044873479
 30
0.0
 11
-5376.835934572056
 21
6219.96746020007
 31
0.0
  0
LINE
  5
377
330
374
100
AcDbEntity
  8
0
 62
   123
370
    -2
100
AcDbLine
 10
-5283.556467877975
 20
6281.050936634124
 30
0.0
 11
-5261.984470775757
 21
6295.177224265573
 31
0.0
  0
LINE
  5
378
330
374
100
AcDbEntity
  8
0
 62
   123
370
    -2
100
AcDbLine
 10
-5372.652998845865
 20
6222.706629546888
 30
0.0
 11
-5285.647935741071
 21
6279.681351960714
 31
0.0
  0
SOLID
  5
379
330
374
100
AcDbEntity
  8
0
 62
   123
100
AcDbTrace
 10
-5374.972730821196
 20
6221.68562285066
 30
0.0
 11
-5374.516202596726
 21
6220.988466896297
 31
0.0
 12
-5372.652998845865
 22
6222.706629546888
 32
0.0
 13
-5372.652998845865
 23
6222.706629546888
 33
0.0
  0
SOLID
  5
37A
330
374
100
AcDbEntity
  8
0
 62
   123
100
AcDbTrace
 10
-5283.784731990209
 20
6281.399514611305
 30
0.0
 11
-5283.328203765738
 21
6280.702358656942
 31
0.0
 12
-5285.647935741071
 22
6279.681351960714
 32
0.0
 13
-5285.647935741071
 23
6279.681351960714
 33
0.0
  0
MTEXT
  5
37B
102
{ACAD_XDICTIONARY
360
4D6
102
}
330
374
100
AcDbEntity
  8
0
 62
     3
100
AcDbMText
 10
-5273.094320068726
 20
6290.890340649649
 30
0.0
 40
3.0
 41
0.0
 71
     5
 72
     1
  1
\A1;\U+2205104%%P0.5
 11
0.8365871452383423
 21
0.5478338693636611
 31
0.0
 73
     1
 44
1.0
1001
ACAD
1000
MTEXTBEGIN
1070
    73
1070
     1
1070
    44
1040
1.0
1070
    74
1070
     0
1000
MTEXTEND
  0
POINT
  5
37C
330
374
100
AcDbEntity
  8
Defpoints
 62
     0
100
AcDbPoint
 10
-5285.647935741071
 20
6279.681351960714
 30
0.0
  0
POINT
  5
37D
330
374
100
AcDbEntity
  8
Defpoints
 62
     0
100
AcDbPoint
 10
-5372.652998845865
 20
6222.706629546888
 30
0.0
  0
ENDBLK
  5
37E
330
374
100
AcDbEntity
  8
0
100
AcDbBlockEnd
  0
BLOCK
  5
422
330
421
100
AcDbEntity
  8
0
100
AcDbBlockBegin
  2
*D21
 70
     1
 10
0.0
 20
0.0
 30
0.0
  3
*D21
  1

  0
LINE
  5
423
330
421
100
AcDbEntity
  8
0
 62
   123
370
    -2
100
AcDbLine
 10
-4987.201979192511
 20
6252.193990753802
 30
0.0
 11
-4987.201979192511
 21
6310.623023131256
 31
0.0
  0
LINE
  5
424
330
421
100
AcDbEntity
  8
0
 62
   123
370
    -2
100
AcDbLine
 10
-4907.201979192511
 20
6252.193990753802
 30
0.0
 11
-4907.201979192511
 21
6310.623023131256
 31
0.0
  0
LINE
  5
425
330
421
100
AcDbEntity
  8
0
 62
   123
370
    -2
100
AcDbLine
 10
-4984.701979192511
 20
6310.023023131257
 30
0.0
 11
-4909.701979192512
 21
6310.023023131257
 31
0.0
  0
SOLID
  5
426
330
421
100
AcDbEntity
  8
0
 62
   123
100
AcDbTrace
 10
-4984.701979192511
 20
6310.439689797924
 30
0.0
 11
-4984.701979192511
 21
6309.606356464588
 31
0.0
 12
-4987.201979192511
 22
6310.023023131257
 32
0.0
 13
-4987.201979192511
 23
6310.023023131257
 33
0.0
  0
SOLID
  5
427
330
421
100
AcDbEntity
  8
0
 62
   123
100
AcDbTrace
 10
-4909.701979192512
 20
6310.439689797924
 30
0.0
 11
-4909.701979192512
 21
6309.606356464588
 31
0.0
 12
-4907.201979192511
 22
6310.023023131257
 32
0.0
 13
-4907.201979192511
 23
6310.023023131257
 33
0.0
  0
MTEXT
  5
428
330
421
100
AcDbEntity
  8
0
 62
     3
100
AcDbMText
 10
-4947.201979192511
 20
6312.523023131256
 30
0.0
 40
3.0
 41
0.0
 71
     5
 72
     1
  1
\A1;%%C80
 73
     1
 44
1.0
1001
ACAD
1000
MTEXTBEGIN
1070
    73
1070
     1
1070
    44
1040
1.0
1070
    74
1070
     0
1000
MTEXTEND
  0
POINT
  5
429
330
421
100
AcDbEntity
  8
Defpoints
 62
     0
100
AcDbPoint
 10
-4987.201979192511
 20
6251.193990753804
 30
0.0
  0
POINT
  5
42A
330
421
100
AcDbEntity
  8
Defpoints
 62
     0
100
AcDbPoint
 10
-4907.201979192511
 20
6251.193990753804
 30
0.0
  0
POINT
  5
42B
330
421
100
AcDbEntity
  8
Defpoints
 62
     0
100
AcDbPoint
 10
-4907.201979192511
 20
6310.023023131257
 30
0.0
  0
ENDBLK
  5
42C
330
421
100
AcDbEntity
  8
0
100
AcDbBlockEnd
  0
BLOCK
  5
431
330
430
100
AcDbEntity
  8
0
100
AcDbBlockBegin
  2
*D22
 70
     1
 10
0.0
 20
0.0
 30
0.0
  3
*D22
  1

  0
LINE
  5
432
330
430
100
AcDbEntity
  8
0
 62
   123
370
    -2
100
AcDbLine
 10
-4935.701979192511
 20
6208.193990753805
 30
0.0
 11
-4889.637496277891
 21
6208.193990753805
 31
0.0
  0
LINE
  5
433
330
430
100
AcDbEntity
  8
0
 62
   123
370
    -2
100
AcDbLine
 10
-4935.701979192511
 20
6294.193990753804
 30
0.0
 11
-4889.637496277891
 21
6294.193990753804
 31
0.0
  0
LINE
  5
434
330
430
100
AcDbEntity
  8
0
 62
   123
370
    -2
100
AcDbLine
 10
-4890.237496277891
 20
6210.693990753807
 30
0.0
 11
-4890.237496277891
 21
6291.693990753802
 31
0.0
  0
SOLID
  5
435
330
430
100
AcDbEntity
  8
0
 62
   123
100
AcDbTrace
 10
-4890.654162944558
 20
6210.693990753807
 30
0.0
 11
-4889.820829611224
 21
6210.693990753807
 31
0.0
 12
-4890.237496277891
 22
6208.193990753805
 32
0.0
 13
-4890.237496277891
 23
6208.193990753805
 33
0.0
  0
SOLID
  5
436
330
430
100
AcDbEntity
  8
0
 62
   123
100
AcDbTrace
 10
-4890.654162944558
 20
6291.693990753802
 30
0.0
 11
-4889.820829611224
 21
6291.693990753802
 31
0.0
 12
-4890.237496277891
 22
6294.193990753804
 32
0.0
 13
-4890.237496277891
 23
6294.193990753804
 33
0.0
  0
MTEXT
  5
437
330
430
100
AcDbEntity
  8
0
 62
     3
100
AcDbMText
 10
-4892.737496277893
 20
6251.193990753804
 30
0.0
 40
3.0
 41
0.0
 71
     5
 72
     1
  1
\A1;86
 11
0.0000000000000001
 21
1.0
 31
0.0
 73
     1
 44
1.0
1001
ACAD
1000
MTEXTBEGIN
1070
    73
1070
     1
1070
    44
1040
1.0
1070
    74
1070
     0
1000
MTEXTEND
  0
POINT
  5
438
330
430
100
AcDbEntity
  8
Defpoints
 62
     0
100
AcDbPoint
 10
-4936.701979192513
 20
6208.193990753805
 30
0.0
  0
POINT
  5
439
330
430
100
AcDbEntity
  8
Defpoints
 62
     0
100
AcDbPoint
 10
-4936.701979192513
 20
6294.193990753804
 30
0.0
  0
POINT
  5
43A
330
430
100
AcDbEntity
  8
Defpoints
 62
     0
100
AcDbPoint
 10
-4890.237496277891
 20
6294.193990753804
 30
0.0
  0
ENDBLK
  5
43B
330
430
100
AcDbEntity
  8
0
100
AcDbBlockEnd
  0
ENDSEC
  0
SECTION
  2
ENTITIES
  0
LINE
  5
7F
330
2
100
AcDbEntity
  8
0
  6
CENTER
 62
     1
100
AcDbLine
 10
-5999.813291620958
 20
6195.002225335191
 30
0.0
 11
-5999.813291620958
 21
6299.002225335191
 31
0.0
  0
LINE
  5
81
330
2
100
AcDbEntity
  8
0
  6
CENTER
 62
     1
100
AcDbLine
 10
-5969.813291620958
 20
6242.002225335191
 30
0.0
 11
-5969.813291620958
 21
6252.002225335191
 31
0.0
  0
LINE
  5
82
330
2
100
AcDbEntity
  8
0
  6
CENTER
 62
     1
100
AcDbLine
 10
-6029.813291620958
 20
6242.002225335191
 30
0.0
 11
-6029.813291620958
 21
6252.002225335191
 31
0.0
  0
LINE
  5
83
330
2
100
AcDbEntity
  8
0
100
AcDbLine
 10
-5954.813291620958
 20
6210.002225335191
 30
0.0
 11
-5954.813291620958
 21
6284.002225335191
 31
0.0
  0
ARC
  5
84
330
2
100
AcDbEntity
  8
0
100
AcDbCircle
 10
-5962.813291620958
 20
6210.002225335191
 30
0.0
 40
8.0
100
AcDbArc
 50
270.0
 51
0.0
  0
ARC
  5
85
330
2
100
AcDbEntity
  8
0
100
AcDbCircle
 10
-5962.813291620958
 20
6284.002225335191
 30
0.0
 40
8.0
100
AcDbArc
 50
0.0
 51
90.0
  0
LINE
  5
86
330
2
100
AcDbEntity
  8
0
100
AcDbLine
 10
-6044.813291620958
 20
6210.002225335191
 30
0.0
 11
-6044.813291620958
 21
6284.002225335191
 31
0.0
  0
LINE
  5
87
330
2
100
AcDbEntity
  8
0
  6
CENTER
 62
     1
100
AcDbLine
 10
-5947.813291620958
 20
6247.00222533519
 30
0.0
 11
-6051.813291620958
 21
6247.00222533519
 31
0.0
  0
LINE
  5
88
330
2
100
AcDbEntity
  8
0
100
AcDbLine
 10
-5962.813291620958
 20
6202.002225335191
 30
0.0
 11
-6036.813291620958
 21
6202.002225335191
 31
0.0
  0
ARC
  5
89
330
2
100
AcDbEntity
  8
0
100
AcDbCircle
 10
-6036.813291620958
 20
6210.002225335191
 30
0.0
 40
8.0
100
AcDbArc
 50
180.0
 51
270.0
  0
LINE
  5
8A
330
2
100
AcDbEntity
  8
0
100
AcDbLine
 10
-5962.813291620958
 20
6292.002225335191
 30
0.0
 11
-6036.813291620958
 21
6292.002225335191
 31
0.0
  0
ARC
  5
8B
330
2
100
AcDbEntity
  8
0
100
AcDbCircle
 10
-6036.813291620958
 20
6284.002225335191
 30
0.0
 40
8.0
100
AcDbArc
 50
90.0
 51
180.0
  0
CIRCLE
  5
8C
330
2
100
AcDbEntity
  8
0
100
AcDbCircle
 10
-6036.582844242658
 20
6210.232672713491
 30
0.0
 40
3.25
  0
CIRCLE
  5
8D
330
2
100
AcDbEntity
  8
0
100
AcDbCircle
 10
-5963.043738999258
 20
6210.232672713491
 30
0.0
 40
3.25
  0
ARC
  5
8E
330
2
100
AcDbEntity
  8
0
  6
CENTER
 62
     1
100
AcDbCircle
 10
-5999.813291620958
 20
6247.00222533519
 30
0.0
 40
52.00000000000123
100
AcDbArc
 50
128.3852756407124
 51
141.614724359289
  0
LINE
  5
8F
330
2
100
AcDbEntity
  8
0
  6
CENTER
 62
     1
100
AcDbLine
 10
-6032.340203555541
 20
6279.529137269772
 30
0.0
 11
-6040.825484929779
 21
6288.01441864401
 31
0.0
  0
CIRCLE
  5
90
330
2
100
AcDbEntity
  8
0
100
AcDbCircle
 10
-6036.582844242658
 20
6283.771777956889
 30
0.0
 40
3.25
  0
CIRCLE
  5
91
330
2
100
AcDbEntity
  8
0
100
AcDbCircle
 10
-5963.043738999258
 20
6283.771777956889
 30
0.0
 40
3.25
  0
ARC
  5
92
102
{ACAD_REACTORS
330
364
102
}
330
2
100
AcDbEntity
  8
0
  6
CENTER
 62
     1
100
AcDbCircle
 10
-5999.813291620958
 20
6247.00222533519
 30
0.0
 40
52.00000000000123
100
AcDbArc
 50
30.07334764497639
 51
51.6147243594359
  0
LINE
  5
93
330
2
100
AcDbEntity
  8
0
  6
CENTER
 62
     1
100
AcDbLine
 10
-5967.286379686375
 20
6279.529137269772
 30
0.0
 11
-5958.801098312136
 21
6288.01441864401
 31
0.0
  0
ARC
  5
94
330
2
100
AcDbEntity
  8
0
  6
CENTER
 62
     1
100
AcDbCircle
 10
-5999.813291620958
 20
6247.00222533519
 30
0.0
 40
52.00000000000123
100
AcDbArc
 50
210.0733476449764
 51
231.6147243592876
  0
LINE
  5
95
330
2
100
AcDbEntity
  8
0
  6
CENTER
 62
     1
100
AcDbLine
 10
-6032.340203555541
 20
6214.475313400608
 30
0.0
 11
-6040.825484929779
 21
6205.99003202637
 31
0.0
  0
ARC
  5
96
330
2
100
AcDbEntity
  8
0
  6
CENTER
 62
     1
100
AcDbCircle
 10
-5999.813291620958
 20
6247.00222533519
 30
0.0
 40
52.00000000000123
100
AcDbArc
 50
308.3852756405641
 51
321.6147243594353
  0
LINE
  5
97
330
2
100
AcDbEntity
  8
0
  6
CENTER
 62
     1
100
AcDbLine
 10
-5967.286379686375
 20
6214.475313400608
 30
0.0
 11
-5958.801098312136
 21
6205.99003202637
 31
0.0
  0
CIRCLE
  5
98
330
2
100
AcDbEntity
  8
0
100
AcDbCircle
 10
-5999.813291620958
 20
6247.00222533519
 30
0.0
 40
41.5
  0
CIRCLE
  5
99
330
2
100
AcDbEntity
  8
0
100
AcDbCircle
 10
-5999.813291620958
 20
6247.00222533519
 30
0.0
 40
39.0
  0
CIRCLE
  5
9A
330
2
100
AcDbEntity
  8
0
100
AcDbCircle
 10
-5999.813291620958
 20
6247.00222533519
 30
0.0
 40
20.0
  0
CIRCLE
  5
9B
330
2
100
AcDbEntity
  8
0
100
AcDbCircle
 10
-5999.813291620958
 20
6247.00222533519
 30
0.0
 40
2.884999999999998
  0
CIRCLE
  5
9C
330
2
100
AcDbEntity
  8
0
  6
CENTER
 62
     1
100
AcDbCircle
 10
-5999.813291620958
 20
6247.00222533519
 30
0.0
 40
3.634999999999998
  0
CIRCLE
  5
9D
330
2
100
AcDbEntity
  8
0
100
AcDbCircle
 10
-5999.813291620958
 20
6247.00222533519
 30
0.0
 40
4.235
  0
ARC
  5
9E
330
2
100
AcDbEntity
  8
0
 62
     3
100
AcDbCircle
 10
-6029.813291620958
 20
6247.00222533519
 30
0.0
 40
2.5
100
AcDbArc
 50
260.0000000000478
 51
190.0000000000546
  0
CIRCLE
  5
9F
330
2
100
AcDbEntity
  8
0
100
AcDbCircle
 10
-6029.813291620958
 20
6247.00222533519
 30
0.0
 40
2.0
  0
ARC
  5
A0
330
2
100
AcDbEntity
  8
0
 62
     3
100
AcDbCircle
 10
-5969.813291620958
 20
6247.00222533519
 30
0.0
 40
2.5
100
AcDbArc
 50
260.0000000000478
 51
190.0000000000546
  0
CIRCLE
  5
A1
330
2
100
AcDbEntity
  8
0
100
AcDbCircle
 10
-5969.813291620958
 20
6247.00222533519
 30
0.0
 40
2.0
  0
DIMENSION
  5
A2
330
2
100
AcDbEntity
  8
0
100
AcDbDimension
  2
*D0
 10
-5954.813291620958
 20
6314.502075007325
 30
0.0
 11
-5999.813291620958
 21
6317.002075007326
 31
0.0
  1
{\fGulim|b0|i0|c129|p50;□}<>
 71
     5
 42
90.0
  3
STANDARD
100
AcDbAlignedDimension
 13
-6044.813291620958
 23
6284.002225335191
 33
0.0
 14
-5954.813291620958
 24
6284.002225335191
 34
0.0
100
AcDbRotatedDimension
  0
LINE
  5
B0
330
2
100
AcDbEntity
  8
0
  6
CENTER
 62
     1
100
AcDbLine
 10
-5733.026655283327
 20
6247.00222533519
 30
0.0
 11
-5881.526655283327
 21
6247.002225335192
 31
0.0
  0
LINE
  5
B1
330
2
100
AcDbEntity
  8
0
100
AcDbLine
 10
-5739.026655283328
 20
6240.00222533519
 30
0.0
 11
-5742.526655283327
 21
6240.00222533519
 31
0.0
  0
LINE
  5
B2
330
2
100
AcDbEntity
  8
0
100
AcDbLine
 10
-5851.026655283327
 20
6207.002225335191
 30
0.0
 11
-5771.026655283328
 21
6207.002225335191
 31
0.0
  0
LINE
  5
B3
330
2
100
AcDbEntity
  8
0
100
AcDbLine
 10
-5771.526655283327
 20
6207.002225335191
 30
0.0
 11
-5771.526655283327
 21
6287.002225335191
 31
0.0
  0
LINE
  5
B4
330
2
100
AcDbEntity
  8
0
  6
PHANTOM
 62
     6
 48
3.0
100
AcDbLine
 10
-5759.197284056944
 20
6193.930604068561
 30
0.0
 11
-5748.105530040434
 21
6200.334431235779
 31
0.0
  0
LINE
  5
B6
330
2
100
AcDbEntity
  8
0
100
AcDbLine
 10
-5756.826655283322
 20
6219.323821294784
 30
0.0
 11
-5756.826655283328
 21
6195.299287229158
 31
0.0
  0
LINE
  5
B7
330
2
100
AcDbEntity
  8
0
100
AcDbLine
 10
-5751.226655283325
 20
6219.323821294782
 30
0.0
 11
-5751.226655283328
 21
6198.532448736619
 31
0.0
  0
LINE
  5
B8
330
2
100
AcDbEntity
  8
0
100
AcDbLine
 10
-5754.026655283327
 20
6220.13222533519
 30
0.0
 11
-5754.026655283327
 21
6196.915867982887
 31
0.0
  0
LINE
  5
B9
330
2
100
AcDbEntity
  8
0
100
AcDbLine
 10
-5742.526655283327
 20
6233.287939620904
 30
0.0
 11
-5742.526655283327
 21
6260.716511049476
 31
0.0
  0
LINE
  5
BA
330
2
100
AcDbEntity
  8
0
100
AcDbLine
 10
-5736.026655283333
 20
6212.002225335191
 30
0.0
 11
-5736.026655283327
 21
6282.00222533519
 31
0.0
  0
LINE
  5
BB
330
2
100
AcDbEntity
  8
0
100
AcDbLine
 10
-5771.026655283328
 20
6290.00222533519
 30
0.0
 11
-5771.026655283328
 21
6284.831225335191
 31
0.0
  0
LINE
  5
BC
330
2
100
AcDbEntity
  8
0
100
AcDbLine
 10
-5739.026655283328
 20
6287.002225335191
 30
0.0
 11
-5742.526655283327
 21
6287.002225335191
 31
0.0
  0
ARC
  5
BD
330
2
100
AcDbEntity
  8
0
100
AcDbCircle
 10
-5739.026655283328
 20
6284.502225335191
 30
0.0
 40
2.5
100
AcDbArc
 50
0.0
 51
90.0
  0
LINE
  5
BE
330
2
100
AcDbEntity
  8
0
100
AcDbLine
 10
-5745.026655283329
 20
6290.00222533519
 30
0.0
 11
-5771.026655283328
 21
6290.00222533519
 31
0.0
  0
ARC
  5
BF
330
2
100
AcDbEntity
  8
0
100
AcDbCircle
 10
-5745.026655283329
 20
6287.502225335191
 30
0.0
 40
2.5
100
AcDbArc
 50
0.0
 51
90.0
  0
LINE
  5
C0
330
2
100
AcDbEntity
  8
0
100
AcDbLine
 10
-5742.526655283327
 20
6287.502225335191
 30
0.0
 11
-5742.526655283327
 21
6287.002225335191
 31
0.0
  0
LINE
  5
C1
330
2
100
AcDbEntity
  8
0
100
AcDbLine
 10
-5736.026655283327
 20
6282.00222533519
 30
0.0
 11
-5736.526655283327
 21
6282.00222533519
 31
0.0
  0
LINE
  5
C2
330
2
100
AcDbEntity
  8
0
100
AcDbLine
 10
-5771.026655283328
 20
6204.002225335191
 30
0.0
 11
-5771.026655283328
 21
6209.173225335192
 31
0.0
  0
LINE
  5
C3
330
2
100
AcDbEntity
  8
0
100
AcDbLine
 10
-5739.026655283328
 20
6207.002225335191
 30
0.0
 11
-5742.526655283327
 21
6207.002225335191
 31
0.0
  0
ARC
  5
C4
330
2
100
AcDbEntity
  8
0
100
AcDbCircle
 10
-5739.026655283328
 20
6209.502225335191
 30
0.0
 40
2.5
100
AcDbArc
 50
270.0
 51
0.0
  0
LINE
  5
C5
330
2
100
AcDbEntity
  8
0
100
AcDbLine
 10
-5745.026655283329
 20
6204.002225335191
 30
0.0
 11
-5751.226655283328
 21
6204.002225335191
 31
0.0
  0
LINE
  5
C6
330
2
100
AcDbEntity
  8
0
100
AcDbLine
 10
-5756.826655283322
 20
6204.002225335191
 30
0.0
 11
-5771.026655283328
 21
6204.002225335191
 31
0.0
  0
LINE
  5
C7
330
2
100
AcDbEntity
  8
0
100
AcDbLine
 10
-5756.826655283322
 20
6209.173225335192
 30
0.0
 11
-5771.026655283328
 21
6209.173225335192
 31
0.0
  0
ARC
  5
C8
330
2
100
AcDbEntity
  8
0
100
AcDbCircle
 10
-5745.026655283329
 20
6206.502225335191
 30
0.0
 40
2.5
100
AcDbArc
 50
270.0
 51
0.0
  0
LINE
  5
C9
330
2
100
AcDbEntity
  8
0
100
AcDbLine
 10
-5736.526655283327
 20
6209.502225335191
 30
0.0
 11
-5736.526655283326
 21
6284.502225335191
 31
0.0
  0
LINE
  5
CA
330
2
100
AcDbEntity
  8
0
100
AcDbLine
 10
-5742.526655283327
 20
6206.502225335191
 30
0.0
 11
-5742.526655283327
 21
6207.002225335191
 31
0.0
  0
LINE
  5
CB
330
2
100
AcDbEntity
  8
0
100
AcDbLine
 10
-5736.026655283327
 20
6212.002225335191
 30
0.0
 11
-5736.526655283327
 21
6212.002225335191
 31
0.0
  0
LINE
  5
CC
330
2
100
AcDbEntity
  8
0
100
AcDbLine
 10
-5851.026655283327
 20
6207.002225335191
 30
0.0
 11
-5851.026655283327
 21
6287.002225335193
 31
0.0
  0
ARC
  5
CD
330
2
100
AcDbEntity
  8
0
100
AcDbCircle
 10
-5755.526655283327
 20
6169.165569646573
 30
0.0
 40
40.00765568861701
100
AcDbArc
 50
71.03819276406196
 51
83.82996400579804
  0
ELLIPSE
  5
CE
330
2
100
AcDbEntity
  8
0
100
AcDbEllipse
 10
-5754.026655283327
 20
6219.443158806821
 30
0.0
 11
8.999999999999431
 21
0.000000000001883
 31
0.0
210
0.0
220
0.0
230
1.0
 40
0.707111111111109
 41
1.570796326794748
 42
3.860379041339666
  0
SPLINE
  5
CF
330
2
100
AcDbEntity
  8
0
100
AcDbSpline
210
0.0
220
0.0
230
1.0
 70
     8
 71
     3
 72
    26
 73
    22
 74
     0
 42
0.0000000001
 43
0.0000000001
 40
3.141592653589792
 40
3.141592653589792
 40
3.141592653589792
 40
3.141592653589792
 40
3.467218823503951
 40
3.467218823503951
 40
3.79284499341811
 40
3.79284499341811
 40
4.118471163332269
 40
4.118471163332269
 40
4.444097333246428
 40
4.444097333246428
 40
4.769723503160587
 40
4.769723503160587
 40
5.095349673074747
 40
5.095349673074747
 40
5.420975842988905
 40
5.420975842988905
 40
5.746602012903065
 40
5.746602012903065
 40
6.072228182817222
 40
6.072228182817222
 40
6.283185307179585
 40
6.283185307179585
 40
6.283185307179585
 40
6.283185307179585
 10
-5746.526655283329
 20
6218.718225335191
 30
0.0
 10
-5746.526655283329
 20
6219.178735920685
 30
0.0
 10
-5746.630700416424
 20
6219.641765351728
 30
0.0
 10
-5747.075703842992
 20
6220.573710779323
 30
0.0
 10
-5747.420188118042
 20
6221.041469608144
 30
0.0
 10
-5748.357644949511
 20
6221.911190784176
 30
0.0
 10
-5748.950047376676
 20
6222.311059575408
 30
0.0
 10
-5750.322873805949
 20
6222.966547259326
 30
0.0
 10
-5751.102329472285
 20
6223.221777592159
 30
0.0
 10
-5752.751938102498
 20
6223.542459603801
 30
0.0
 10
-5753.62150194417
 20
6223.607908471148
 30
0.0
 10
-5755.341605786366
 20
6223.538095716811
 30
0.0
 10
-5756.19164518245
 20
6223.402829446481
 30
0.0
 10
-5757.765812114602
 20
6222.954412920968
 30
0.0
 10
-5758.489246638093
 20
6222.641316082111
 30
0.0
 10
-5759.722890618047
 20
6221.893669973383
 30
0.0
 10
-5760.232023362966
 20
6221.459932784958
 30
0.0
 10
-5760.99577234487
 20
6220.551963401264
 30
0.0
 10
-5761.250901388624
 20
6220.080393807451
 30
0.0
 10
-5761.48262372688
 20
6219.315235736029
 30
0.0
 10
-5761.526655283327
 20
6219.016567415252
 30
0.0
 10
-5761.526655283327
 20
6218.718225335191
 30
0.0
  0
SPLINE
  5
D0
330
2
100
AcDbEntity
  8
0
100
AcDbSpline
210
0.0
220
0.0
230
1.0
 70
     8
 71
     3
 72
    42
 73
    38
 74
     0
 42
0.0000000001
 43
0.0000000001
 40
1.932891985193865
 40
1.932891985193865
 40
1.932891985193865
 40
1.932891985193865
 40
2.112657033612368
 40
2.112657033612368
 40
2.446561407782708
 40
2.446561407782708
 40
2.780465781953049
 40
2.780465781953049
 40
3.11437015612339
 40
3.11437015612339
 40
3.448274530293731
 40
3.448274530293731
 40
3.782178904464071
 40
3.782178904464071
 40
4.116083278634412
 40
4.116083278634412
 40
4.449987652804751
 40
4.449987652804751
 40
4.783892026975093
 40
4.783892026975093
 40
5.117796401145433
 40
5.117796401145433
 40
5.451700775315773
 40
5.451700775315773
 40
5.785605149486113
 40
5.785605149486113
 40
6.119509523656454
 40
6.119509523656454
 40
6.453413897826794
 40
6.453413897826794
 40
6.787318271997134
 40
6.787318271997134
 40
7.121222646167476
 40
7.121222646167476
 40
7.455127020337816
 40
7.455127020337816
 40
7.491888099862732
 40
7.491888099862732
 40
7.491888099862732
 40
7.491888099862732
 10
-5751.226655283328
 20
6212.801838589246
 30
0.0
 10
-5750.787864403771
 20
6212.919427589122
 30
0.0
 10
-5750.36714290056
 20
6213.064076697471
 30
0.0
 10
-5749.239617007126
 20
6213.544012416772
 30
0.0
 10
-5748.598320235256
 20
6213.936959347073
 30
0.0
 10
-5747.570708445624
 20
6214.808402954311
 30
0.0
 10
-5747.185294956184
 20
6215.284855890387
 30
0.0
 10
-5746.675210832276
 20
6216.239835435196
 30
0.0
 10
-5746.547066348648
 20
6216.716416574641
 30
0.0
 10
-5746.510691591394
 20
6217.661026491426
 30
0.0
 10
-5746.601603987868
 20
6218.134622189362
 30
0.0
 10
-5747.029549759843
 20
6219.090199138918
 30
0.0
 10
-5747.370772985972
 20
6219.571317597309
 30
0.0
 10
-5748.31572158323
 20
6220.467660425823
 30
0.0
 10
-5748.918897060304
 20
6220.880437830477
 30
0.0
 10
-5750.323852171919
 20
6221.554725594903
 30
0.0
 10
-5751.12453132921
 20
6221.815783536329
 30
0.0
 10
-5752.819343327707
 20
6222.137672607723
 30
0.0
 10
-5753.712812107778
 20
6222.198501224617
 30
0.0
 10
-5755.474710532231
 20
6222.109266457092
 30
0.0
 10
-5756.342569357953
 20
6221.959196816204
 30
0.0
 10
-5757.93861597652
 20
6221.474829714107
 30
0.0
 10
-5758.665988604197
 20
6221.140614406704
 30
0.0
 10
-5759.889680421559
 20
6220.351622034791
 30
0.0
 10
-5760.384780700109
 20
6219.897942635864
 30
0.0
 10
-5761.10673352817
 20
6218.958078605968
 30
0.0
 10
-5761.334767399699
 20
6218.474939780558
 30
0.0
 10
-5761.556596392818
 20
6217.525168793393
 30
0.0
 10
-5761.554500517582
 20
6217.0554941768
 30
0.0
 10
-5761.32353438621
 20
6216.105371030121
 30
0.0
 10
-5761.090471974934
 20
6215.622060779883
 30
0.0
 10
-5760.358234983645
 20
6214.683524160641
 30
0.0
 10
-5759.857982306422
 20
6214.231344837642
 30
0.0
 10
-5758.625380034443
 20
6213.447005271127
 30
0.0
 10
-5757.894250403585
 20
6213.115904537637
 30
0.0
 10
-5757.005374895766
 20
6212.851012922435
 30
0.0
 10
-5756.916392601517
 20
6212.825846130055
 30
0.0
 10
-5756.826655283328
 20
6212.801810140873
 30
0.0
  0
ELLIPSE
  5
D1
330
2
100
AcDbEntity
  8
0
100
AcDbEllipse
 10
-5754.026655283327
 20
6217.30422533519
 30
0.0
 11
3.999999999999212
 21
0.0000000000002969
 31
0.0
210
0.0
220
0.0
230
1.0
 40
0.7070000000000191
 41
-0.7953988301836218
 42
3.936991483774582
  0
LINE
  5
D2
330
2
100
AcDbEntity
  8
0
  6
CENTER
 62
     1
100
AcDbLine
 10
-5619.813291620958
 20
6201.002225335193
 30
0.0
 11
-5619.813291620958
 21
6293.00222533519
 31
0.0
  0
LINE
  5
D3
330
2
100
AcDbEntity
  8
0
  6
CENTER
 62
     1
100
AcDbLine
 10
-5649.813291620958
 20
6238.002225335191
 30
0.0
 11
-5649.813291620958
 21
6256.002225335191
 31
0.0
  0
ARC
  5
D4
102
{ACAD_REACTORS
330
1B8
102
}
330
2
100
AcDbEntity
  8
0
100
AcDbCircle
 10
-5619.813291620958
 20
6247.00222533519
 30
0.0
 40
40.0
100
AcDbArc
 50
235.8069228747966
 51
214.1930771252007
  0
LINE
  5
D5
102
{ACAD_REACTORS
330
1B8
102
}
330
2
100
AcDbEntity
  8
0
  6
CENTER
 62
     1
100
AcDbLine
 10
-5574.813291620958
 20
6247.00222533519
 30
0.0
 11
-5664.813291620959
 21
6247.00222533519
 31
0.0
  0
ARC
  5
D6
330
2
100
AcDbEntity
  8
0
100
AcDbCircle
 10
-5586.934727175409
 20
6235.002225335191
 30
0.0
 40
5.0
100
AcDbArc
 50
339.9489574334699
 51
90.0
  0
LINE
  5
D7
330
2
100
AcDbEntity
  8
0
100
AcDbLine
 10
-5589.813291620958
 20
6240.00222533519
 30
0.0
 11
-5586.934727175409
 21
6240.00222533519
 31
0.0
  0
LINE
  5
D8
330
2
100
AcDbEntity
  8
0
100
AcDbLine
 10
-5589.813291620958
 20
6254.002225335191
 30
0.0
 11
-5586.934727175409
 21
6254.002225335191
 31
0.0
  0
ARC
  5
D9
330
2
100
AcDbEntity
  8
0
100
AcDbCircle
 10
-5586.934727175409
 20
6259.002225335191
 30
0.0
 40
5.0
100
AcDbArc
 50
270.0
 51
20.05104256652986
  0
ARC
  5
DA
330
2
100
AcDbEntity
  8
0
100
AcDbCircle
 10
-5589.813291620958
 20
6247.00222533519
 30
0.0
 40
7.0
100
AcDbArc
 50
90.0
 51
270.0
  0
LINE
  5
DB
330
2
100
AcDbEntity
  8
0
100
AcDbLine
 10
-5640.672941665958
 20
6213.414653228831
 30
0.0
 11
-5653.400863727318
 21
6226.142575290189
 31
0.0
  0
LINE
  5
DC
330
2
100
AcDbEntity
  8
0
 62
   123
100
AcDbLine
 10
-5654.107970508507
 20
6226.849682071375
 30
0.0
 11
-5656.936397633253
 21
6229.678109196122
 31
0.0
  0
LINE
  5
DD
330
2
100
AcDbEntity
  8
0
  6
CENTER
 62
     1
100
AcDbLine
 10
-5644.915582353082
 20
6221.899934603069
 30
0.0
 11
-5650.218883211979
 21
6216.59663374417
 31
0.0
  0
LINE
  5
DE
330
2
100
AcDbEntity
  8
0
100
AcDbLine
 10
-5640.672941665958
 20
6213.414653228831
 30
0.0
 11
-5641.008358149321
 21
6213.079236745472
 31
0.0
  0
ARC
  5
DF
330
2
100
AcDbEntity
  8
0
100
AcDbCircle
 10
-5649.813291620958
 20
6247.00222533519
 30
0.0
 40
7.0
100
AcDbArc
 50
270.0
 51
90.0
  0
LINE
  5
E0
330
2
100
AcDbEntity
  8
0
100
AcDbLine
 10
-5649.813291620958
 20
6254.002225335191
 30
0.0
 11
-5652.691856066507
 21
6254.002225335191
 31
0.0
  0
LINE
  5
E1
330
2
100
AcDbEntity
  8
0
100
AcDbLine
 10
-5649.813291620958
 20
6240.00222533519
 30
0.0
 11
-5652.691856066507
 21
6240.00222533519
 31
0.0
  0
ARC
  5
E2
330
2
100
AcDbEntity
  8
0
100
AcDbCircle
 10
-5652.691856066507
 20
6259.002225335191
 30
0.0
 40
5.0
100
AcDbArc
 50
159.9489574334701
 51
270.0
  0
ARC
  5
E3
330
2
100
AcDbEntity
  8
0
100
AcDbCircle
 10
-5652.691856066507
 20
6235.002225335191
 30
0.0
 40
5.0
100
AcDbArc
 50
90.0
 51
200.0510425665299
  0
LINE
  5
E4
330
2
100
AcDbEntity
  8
0
100
AcDbLine
 10
-5606.813291620958
 20
6206.502225335192
 30
0.0
 11
-5606.813291620958
 21
6209.173664696436
 31
0.0
  0
ARC
  5
E5
330
2
100
AcDbEntity
  8
0
100
AcDbCircle
 10
-5609.313291620958
 20
6206.502225335192
 30
0.0
 40
2.5
100
AcDbArc
 50
270.0
 51
0.0
  0
LINE
  5
E6
330
2
100
AcDbEntity
  8
0
100
AcDbLine
 10
-5632.813291620959
 20
6206.502225335192
 30
0.0
 11
-5632.813291620959
 21
6209.173664696436
 31
0.0
  0
LINE
  5
E7
102
{ACAD_REACTORS
330
1C7
102
}
330
2
100
AcDbEntity
  8
0
100
AcDbLine
 10
-5609.313291620958
 20
6204.002225335193
 30
0.0
 11
-5630.313291620957
 21
6204.002225335193
 31
0.0
  0
ARC
  5
E8
330
2
100
AcDbEntity
  8
0
100
AcDbCircle
 10
-5630.313291620957
 20
6206.502225335192
 30
0.0
 40
2.5
100
AcDbArc
 50
180.0
 51
270.0
  0
LINE
  5
E9
330
2
100
AcDbEntity
  8
0
100
AcDbLine
 10
-5606.813291620958
 20
6287.502225335191
 30
0.0
 11
-5606.813291620958
 21
6284.830785973946
 31
0.0
  0
LINE
  5
EA
330
2
100
AcDbEntity
  8
0
100
AcDbLine
 10
-5632.813291620959
 20
6287.502225335193
 30
0.0
 11
-5632.813291620959
 21
6284.830785973946
 31
0.0
  0
LINE
  5
EB
330
2
100
AcDbEntity
  8
0
100
AcDbLine
 10
-5609.313291620958
 20
6290.00222533519
 30
0.0
 11
-5630.313291620957
 21
6290.002225335193
 31
0.0
  0
ARC
  5
EC
102
{ACAD_REACTORS
330
1C7
102
}
330
2
100
AcDbEntity
  8
0
100
AcDbCircle
 10
-5609.313291620958
 20
6287.502225335191
 30
0.0
 40
2.5
100
AcDbArc
 50
0.0
 51
90.0
  0
ARC
  5
ED
330
2
100
AcDbEntity
  8
0
100
AcDbCircle
 10
-5630.313291620957
 20
6287.502225335193
 30
0.0
 40
2.5
100
AcDbArc
 50
90.0
 51
180.0
  0
LINE
  5
EE
330
2
100
AcDbEntity
  8
0
100
AcDbLine
 10
-5618.313291620958
 20
6221.771921342275
 30
0.0
 11
-5618.313291620958
 21
6230.068531113316
 31
0.0
  0
LINE
  5
EF
330
2
100
AcDbEntity
  8
0
100
AcDbLine
 10
-5621.313291620958
 20
6221.771921342275
 30
0.0
 11
-5621.313291620958
 21
6230.068531113316
 31
0.0
  0
CIRCLE
  5
F0
330
2
100
AcDbEntity
  8
0
100
AcDbCircle
 10
-5619.813291620958
 20
6247.00222533519
 30
0.0
 40
15.0
  0
ARC
  5
F1
330
2
100
AcDbEntity
  8
0
100
AcDbCircle
 10
-5619.813291620958
 20
6247.00222533519
 30
0.0
 40
17.0
100
AcDbArc
 50
275.0620929643585
 51
308.3493345859912
  0
ARC
  5
F2
330
2
100
AcDbEntity
  8
0
100
AcDbCircle
 10
-5619.813291620958
 20
6247.00222533519
 30
0.0
 40
17.0
100
AcDbArc
 50
231.6506654140088
 51
264.9379070356415
  0
CIRCLE
  5
F3
330
2
100
AcDbEntity
  8
0
100
AcDbCircle
 10
-5619.813291620958
 20
6217.002225335191
 30
0.0
 40
1.0
  0
ARC
  5
F4
330
2
100
AcDbEntity
  8
0
100
AcDbCircle
 10
-5619.813291620958
 20
6217.002225335191
 30
0.0
 40
5.0
100
AcDbArc
 50
29.55192387598165
 51
72.54239687633472
  0
ARC
  5
F5
330
2
100
AcDbEntity
  8
0
100
AcDbCircle
 10
-5619.813291620958
 20
6217.002225335191
 30
0.0
 40
5.0
100
AcDbArc
 50
107.4576031236652
 51
150.4480761240183
  0
ARC
  5
F6
330
2
100
AcDbEntity
  8
0
100
AcDbCircle
 10
-5619.813291620958
 20
6217.002225335191
 30
0.0
 40
5.0
100
AcDbArc
 50
203.5781784781728
 51
336.4218215218272
  0
LINE
  5
F7
330
2
100
AcDbEntity
  8
0
100
AcDbLine
 10
-5624.395867315914
 20
6215.00222533519
 30
0.0
 11
-5634.62868424684
 21
6238.448554414492
 31
0.0
  0
LINE
  5
F8
330
2
100
AcDbEntity
  8
0
100
AcDbLine
 10
-5624.162837037933
 20
6219.468285891155
 30
0.0
 11
-5630.361018705826
 21
6233.670104223262
 31
0.0
  0
LINE
  5
F9
330
2
100
AcDbEntity
  8
0
100
AcDbLine
 10
-5615.230715926003
 20
6215.00222533519
 30
0.0
 11
-5604.997898995076
 21
6238.448554414481
 31
0.0
  0
LINE
  5
FA
330
2
100
AcDbEntity
  8
0
100
AcDbLine
 10
-5615.463746203983
 20
6219.468285891155
 30
0.0
 11
-5609.265564536086
 21
6233.670104223262
 31
0.0
  0
LINE
  5
FB
330
2
100
AcDbEntity
  8
0
100
AcDbLine
 10
-5598.713207417888
 20
6260.916415437326
 30
0.0
 11
-5605.898282244896
 21
6256.768110551804
 31
0.0
  0
LINE
  5
FC
330
2
100
AcDbEntity
  8
0
100
AcDbLine
 10
-5597.213207417888
 20
6258.31833922597
 30
0.0
 11
-5604.398282244896
 21
6254.170034340452
 31
0.0
  0
ARC
  5
FD
330
2
100
AcDbEntity
  8
0
100
AcDbCircle
 10
-5619.813291620958
 20
6247.002225335189
 30
0.0
 40
17.0
100
AcDbArc
 50
351.6506654140779
 51
24.93790703566756
  0
CIRCLE
  5
FE
330
2
100
AcDbEntity
  8
0
100
AcDbCircle
 10
-5593.832529507426
 20
6262.002225335189
 30
0.0
 40
0.9999999999999998
  0
ARC
  5
FF
330
2
100
AcDbEntity
  8
0
100
AcDbCircle
 10
-5593.832529507426
 20
6262.002225335189
 30
0.0
 40
4.999999999999999
100
AcDbArc
 50
149.5519238759224
 51
192.5423968763535
  0
ARC
  5
100
330
2
100
AcDbEntity
  8
0
100
AcDbCircle
 10
-5593.832529507426
 20
6262.002225335189
 30
0.0
 40
4.999999999999999
100
AcDbArc
 50
227.4576031237401
 51
270.4480761240394
  0
ARC
  5
101
330
2
100
AcDbEntity
  8
0
100
AcDbCircle
 10
-5593.832529507426
 20
6262.002225335189
 30
0.0
 40
4.999999999999999
100
AcDbArc
 50
323.5781784782559
 51
96.42182152176644
  0
LINE
  5
102
330
2
100
AcDbEntity
  8
0
100
AcDbLine
 10
-5589.809190852378
 20
6259.033598368592
 30
0.0
 11
-5604.997898995076
 21
6238.448554414483
 31
0.0
  0
LINE
  5
103
330
2
100
AcDbEntity
  8
0
100
AcDbLine
 10
-5593.793427887671
 20
6257.002378231195
 30
0.0
 11
-5602.993472509261
 21
6244.533686283474
 31
0.0
  0
LINE
  5
104
330
2
100
AcDbEntity
  8
0
100
AcDbLine
 10
-5594.391766547335
 20
6266.970852301787
 30
0.0
 11
-5619.813291620951
 21
6264.109567176595
 31
0.0
  0
LINE
  5
105
330
2
100
AcDbEntity
  8
0
100
AcDbLine
 10
-5598.142973304646
 20
6264.536011883222
 30
0.0
 11
-5613.541199594132
 21
6262.802885498835
 31
0.0
  0
LINE
  5
106
330
2
100
AcDbEntity
  8
0
100
AcDbLine
 10
-5642.413375824029
 20
6258.318339225972
 30
0.0
 11
-5635.22830099702
 21
6254.170034340452
 31
0.0
  0
LINE
  5
107
330
2
100
AcDbEntity
  8
0
100
AcDbLine
 10
-5640.913375824029
 20
6260.916415437326
 30
0.0
 11
-5633.72830099702
 21
6256.768110551805
 31
0.0
  0
ARC
  5
108
330
2
100
AcDbEntity
  8
0
100
AcDbCircle
 10
-5619.813291620958
 20
6247.00222533519
 30
0.0
 40
17.0
100
AcDbArc
 50
155.0620929643324
 51
188.3493345859221
  0
ARC
  5
109
330
2
100
AcDbEntity
  8
0
100
AcDbCircle
 10
-5619.813291620958
 20
6247.00222533519
 30
0.0
 40
17.0
100
AcDbArc
 50
111.6506654140471
 51
144.9379070358024
  0
CIRCLE
  5
10A
330
2
100
AcDbEntity
  8
0
100
AcDbCircle
 10
-5645.794053734491
 20
6262.002225335191
 30
0.0
 40
1.0
  0
ARC
  5
10B
330
2
100
AcDbEntity
  8
0
100
AcDbCircle
 10
-5645.794053734491
 20
6262.002225335191
 30
0.0
 40
5.0
100
AcDbArc
 50
269.5519238759607
 51
312.5423968762599
  0
ARC
  5
10C
330
2
100
AcDbEntity
  8
0
100
AcDbCircle
 10
-5645.794053734491
 20
6262.002225335191
 30
0.0
 40
5.0
100
AcDbArc
 50
347.4576031238626
 51
30.44807612407755
  0
ARC
  5
10D
330
2
100
AcDbEntity
  8
0
100
AcDbCircle
 10
-5645.794053734491
 20
6262.002225335191
 30
0.0
 40
5.0
100
AcDbArc
 50
83.57817847823353
 51
216.421821521885
  0
LINE
  5
10E
330
2
100
AcDbEntity
  8
0
100
AcDbLine
 10
-5645.234816694581
 20
6266.970852301787
 30
0.0
 11
-5619.813291620951
 21
6264.109567176595
 31
0.0
  0
LINE
  5
10F
330
2
100
AcDbEntity
  8
0
100
AcDbLine
 10
-5641.483609937266
 20
6264.536011883222
 30
0.0
 11
-5626.085383647783
 21
6262.802885498835
 31
0.0
  0
LINE
  5
110
330
2
100
AcDbEntity
  8
0
100
AcDbLine
 10
-5649.817392389537
 20
6259.033598368595
 30
0.0
 11
-5634.628684246845
 21
6238.448554414493
 31
0.0
  0
LINE
  5
111
330
2
100
AcDbEntity
  8
0
100
AcDbLine
 10
-5645.833155354242
 20
6257.002378231195
 30
0.0
 11
-5636.633110732653
 21
6244.533686283474
 31
0.0
  0
ARC
  5
112
330
2
100
AcDbEntity
  8
0
100
AcDbCircle
 10
-5619.813291620958
 20
6247.002225335189
 30
0.0
 40
17.0
100
AcDbArc
 50
35.06209296439069
 51
68.34933458595291
  0
CIRCLE
  5
113
330
2
100
AcDbEntity
  8
0
100
AcDbCircle
 10
-5649.813291620958
 20
6247.00222533519
 30
0.0
 40
4.5
  0
ARC
  5
114
330
2
100
AcDbEntity
  8
0
100
AcDbCircle
 10
-5650.938291620958
 20
6248.127225335191
 30
0.0
 40
0.625
100
AcDbArc
 50
270.0
 51
0.0
  0
ARC
  5
115
330
2
100
AcDbEntity
  8
0
100
AcDbCircle
 10
-5648.688291620958
 20
6248.127225335191
 30
0.0
 40
0.625
100
AcDbArc
 50
180.0
 51
270.0
  0
LINE
  5
116
330
2
100
AcDbEntity
  8
0
100
AcDbLine
 10
-5650.313291620958
 20
6244.702225335191
 30
0.0
 11
-5649.313291620958
 21
6244.702225335191
 31
0.0
  0
LINE
  5
117
330
2
100
AcDbEntity
  8
0
100
AcDbLine
 10
-5650.313291620958
 20
6244.702225335191
 30
0.0
 11
-5650.313291620958
 21
6245.877225335191
 31
0.0
  0
LINE
  5
118
330
2
100
AcDbEntity
  8
0
100
AcDbLine
 10
-5652.113291620957
 20
6247.502225335191
 30
0.0
 11
-5650.938291620958
 21
6247.502225335191
 31
0.0
  0
LINE
  5
119
330
2
100
AcDbEntity
  8
0
100
AcDbLine
 10
-5652.113291620957
 20
6246.502225335191
 30
0.0
 11
-5650.938291620958
 21
6246.502225335191
 31
0.0
  0
LINE
  5
11A
330
2
100
AcDbEntity
  8
0
100
AcDbLine
 10
-5652.113291620957
 20
6247.502225335191
 30
0.0
 11
-5652.113291620957
 21
6246.502225335191
 31
0.0
  0
ARC
  5
11B
330
2
100
AcDbEntity
  8
0
100
AcDbCircle
 10
-5650.938291620958
 20
6245.877225335191
 30
0.0
 40
0.625
100
AcDbArc
 50
0.0
 51
90.0
  0
LINE
  5
11C
330
2
100
AcDbEntity
  8
0
100
AcDbLine
 10
-5649.313291620958
 20
6244.702225335191
 30
0.0
 11
-5649.313291620958
 21
6245.877225335191
 31
0.0
  0
LINE
  5
11D
330
2
100
AcDbEntity
  8
0
100
AcDbLine
 10
-5648.688291620958
 20
6247.502225335191
 30
0.0
 11
-5647.51329162096
 21
6247.502225335191
 31
0.0
  0
LINE
  5
11E
330
2
100
AcDbEntity
  8
0
100
AcDbLine
 10
-5648.688291620958
 20
6246.502225335191
 30
0.0
 11
-5647.51329162096
 21
6246.502225335191
 31
0.0
  0
LINE
  5
11F
330
2
100
AcDbEntity
  8
0
100
AcDbLine
 10
-5647.51329162096
 20
6247.502225335191
 30
0.0
 11
-5647.51329162096
 21
6246.502225335191
 31
0.0
  0
ARC
  5
120
330
2
100
AcDbEntity
  8
0
100
AcDbCircle
 10
-5648.688291620958
 20
6245.877225335191
 30
0.0
 40
0.625
100
AcDbArc
 50
90.0
 51
180.0
  0
LINE
  5
121
330
2
100
AcDbEntity
  8
0
100
AcDbLine
 10
-5650.313291620958
 20
6249.30222533519
 30
0.0
 11
-5649.313291620958
 21
6249.30222533519
 31
0.0
  0
LINE
  5
122
330
2
100
AcDbEntity
  8
0
100
AcDbLine
 10
-5650.313291620958
 20
6248.127225335191
 30
0.0
 11
-5650.313291620958
 21
6249.30222533519
 31
0.0
  0
LINE
  5
123
330
2
100
AcDbEntity
  8
0
100
AcDbLine
 10
-5649.313291620958
 20
6248.127225335191
 30
0.0
 11
-5649.313291620958
 21
6249.30222533519
 31
0.0
  0
CIRCLE
  5
124
330
2
100
AcDbEntity
  8
0
100
AcDbCircle
 10
-5589.813291620958
 20
6247.00222533519
 30
0.0
 40
4.5
  0
ARC
  5
125
330
2
100
AcDbEntity
  8
0
100
AcDbCircle
 10
-5590.938291620958
 20
6248.127225335191
 30
0.0
 40
0.625
100
AcDbArc
 50
270.0
 51
0.0
  0
ARC
  5
126
330
2
100
AcDbEntity
  8
0
100
AcDbCircle
 10
-5588.688291620957
 20
6248.127225335191
 30
0.0
 40
0.625
100
AcDbArc
 50
180.0
 51
270.0
  0
LINE
  5
127
330
2
100
AcDbEntity
  8
0
100
AcDbLine
 10
-5590.313291620958
 20
6244.702225335191
 30
0.0
 11
-5589.313291620958
 21
6244.702225335191
 31
0.0
  0
LINE
  5
128
330
2
100
AcDbEntity
  8
0
100
AcDbLine
 10
-5590.313291620958
 20
6244.702225335191
 30
0.0
 11
-5590.313291620958
 21
6245.877225335191
 31
0.0
  0
LINE
  5
129
330
2
100
AcDbEntity
  8
0
100
AcDbLine
 10
-5592.113291620957
 20
6247.502225335191
 30
0.0
 11
-5590.938291620958
 21
6247.502225335191
 31
0.0
  0
LINE
  5
12A
330
2
100
AcDbEntity
  8
0
100
AcDbLine
 10
-5592.113291620957
 20
6246.502225335191
 30
0.0
 11
-5590.938291620958
 21
6246.502225335191
 31
0.0
  0
LINE
  5
12B
330
2
100
AcDbEntity
  8
0
100
AcDbLine
 10
-5592.113291620957
 20
6247.502225335191
 30
0.0
 11
-5592.113291620957
 21
6246.502225335191
 31
0.0
  0
ARC
  5
12C
330
2
100
AcDbEntity
  8
0
100
AcDbCircle
 10
-5590.938291620958
 20
6245.877225335191
 30
0.0
 40
0.625
100
AcDbArc
 50
0.0
 51
90.0
  0
LINE
  5
12D
330
2
100
AcDbEntity
  8
0
100
AcDbLine
 10
-5589.313291620958
 20
6244.702225335191
 30
0.0
 11
-5589.313291620958
 21
6245.877225335191
 31
0.0
  0
LINE
  5
12E
330
2
100
AcDbEntity
  8
0
100
AcDbLine
 10
-5588.688291620957
 20
6247.502225335191
 30
0.0
 11
-5587.513291620958
 21
6247.502225335191
 31
0.0
  0
LINE
  5
12F
330
2
100
AcDbEntity
  8
0
100
AcDbLine
 10
-5588.688291620957
 20
6246.502225335191
 30
0.0
 11
-5587.513291620958
 21
6246.502225335191
 31
0.0
  0
LINE
  5
130
330
2
100
AcDbEntity
  8
0
100
AcDbLine
 10
-5587.513291620958
 20
6247.502225335191
 30
0.0
 11
-5587.513291620958
 21
6246.502225335191
 31
0.0
  0
ARC
  5
131
330
2
100
AcDbEntity
  8
0
100
AcDbCircle
 10
-5588.688291620957
 20
6245.877225335191
 30
0.0
 40
0.625
100
AcDbArc
 50
90.0
 51
180.0
  0
LINE
  5
132
330
2
100
AcDbEntity
  8
0
100
AcDbLine
 10
-5590.313291620958
 20
6249.30222533519
 30
0.0
 11
-5589.313291620958
 21
6249.30222533519
 31
0.0
  0
LINE
  5
133
330
2
100
AcDbEntity
  8
0
100
AcDbLine
 10
-5590.313291620958
 20
6248.127225335191
 30
0.0
 11
-5590.313291620958
 21
6249.30222533519
 31
0.0
  0
LINE
  5
134
330
2
100
AcDbEntity
  8
0
100
AcDbLine
 10
-5589.313291620958
 20
6248.127225335191
 30
0.0
 11
-5589.313291620958
 21
6249.30222533519
 31
0.0
  0
LINE
  5
135
330
2
100
AcDbEntity
  8
0
100
AcDbLine
 10
-5656.613291620957
 20
6171.741921385233
 30
0.0
 11
-5656.613291620957
 21
6208.86008971146
 31
0.0
  0
LINE
  5
136
330
2
100
AcDbEntity
  8
0
100
AcDbLine
 10
-5653.40086372733
 20
6226.14257529018
 30
0.0
 11
-5653.736280210687
 21
6225.807158806819
 31
0.0
  0
LINE
  5
137
330
2
100
AcDbEntity
  8
0
100
AcDbLine
 10
-5653.400863727318
 20
6223.314148165442
 30
0.0
 11
-5643.501368790706
 21
6213.414653228831
 31
0.0
  0
LINE
  5
138
330
2
100
AcDbEntity
  8
0
100
AcDbLine
 10
-5642.79426200952
 20
6213.414653228831
 30
0.0
 11
-5641.733601837742
 21
6214.475313400608
 31
0.0
  0
ARC
  5
139
330
2
100
AcDbEntity
  8
0
100
AcDbCircle
 10
-5643.147815400116
 20
6213.768206619423
 30
0.0
 40
0.5
100
AcDbArc
 50
224.9999999998569
 51
315.0000000001431
  0
ARC
  5
13A
330
2
100
AcDbEntity
  8
0
100
AcDbCircle
 10
-5653.047310336726
 20
6223.667701556035
 30
0.0
 40
0.5
100
AcDbArc
 50
135.000000000143
 51
224.9999999998569
  0
LINE
  5
13B
330
2
100
AcDbEntity
  8
0
100
AcDbLine
 10
-5653.400863727322
 20
6224.021254946628
 30
0.0
 11
-5652.340203555541
 21
6225.081915118408
 31
0.0
  0
LINE
  5
13C
330
2
100
AcDbEntity
  8
0
  6
PHANTOM
 62
     6
 48
3.0
100
AcDbLine
 10
-5659.732102576922
 20
6169.941275040251
 30
0.0
 11
-5645.840348560412
 21
6177.961682961202
 31
0.0
  0
LINE
  5
13D
330
2
100
AcDbEntity
  8
0
100
AcDbLine
 10
-5650.431015246333
 20
6220.344299684458
 30
0.0
 11
-5652.864258420144
 21
6217.911056510647
 31
0.0
  0
ARC
  5
13E
330
2
100
AcDbEntity
  8
0
100
AcDbCircle
 10
-5643.813291620958
 20
6208.86008971146
 30
0.0
 40
12.8
100
AcDbArc
 50
134.9999999998851
 51
180.0
  0
LINE
  5
13F
330
2
100
AcDbEntity
  8
0
100
AcDbLine
 10
-5646.471217271689
 20
6216.384501709813
 30
0.0
 11
-5648.611567226686
 21
6214.244151754814
 31
0.0
  0
LINE
  5
140
330
2
100
AcDbEntity
  8
0
100
AcDbLine
 10
-5644.491318284366
 20
6214.404602722492
 30
0.0
 11
-5646.631668239361
 21
6212.264252767493
 31
0.0
  0
LINE
  5
141
330
2
100
AcDbEntity
  8
0
100
AcDbLine
 10
-5648.451116259014
 20
6218.364400697137
 30
0.0
 11
-5650.884359432821
 21
6215.931157523326
 31
0.0
  0
ARC
  5
142
330
2
100
AcDbEntity
  8
0
100
AcDbCircle
 10
-5643.813291620958
 20
6208.86008971146
 30
0.0
 40
10.0
100
AcDbArc
 50
134.9999999998851
 51
180.0
  0
ARC
  5
143
330
2
100
AcDbEntity
  8
0
 62
   123
100
AcDbCircle
 10
-5643.813291620958
 20
6208.86008971146
 30
0.0
 40
23.0
100
AcDbArc
 50
134.9999999998851
 51
180.0
  0
LINE
  5
144
330
2
100
AcDbEntity
  8
0
100
AcDbLine
 10
-5653.813291620958
 20
6149.002225335191
 30
0.0
 11
-5653.813291620958
 21
6170.358502138963
 31
0.0
  0
LINE
  5
145
330
2
100
AcDbEntity
  8
0
100
AcDbLine
 10
-5653.813291620958
 20
6173.358502138963
 30
0.0
 11
-5653.813291620958
 21
6208.86008971146
 31
0.0
  0
LINE
  5
146
330
2
100
AcDbEntity
  8
0
100
AcDbLine
 10
-5656.613291620957
 20
6149.002225335191
 30
0.0
 11
-5656.613291620957
 21
6168.741921385231
 31
0.0
  0
LINE
  5
147
330
2
100
AcDbEntity
  8
0
100
AcDbLine
 10
-5651.01329162096
 20
6149.002225335191
 30
0.0
 11
-5651.01329162096
 21
6171.975082892693
 31
0.0
  0
ARC
  5
148
330
2
100
AcDbEntity
  8
0
100
AcDbCircle
 10
-5642.813291620957
 20
6208.445876149085
 30
0.0
 40
8.199999999999999
100
AcDbArc
 50
134.9999999998851
 51
180.0
  0
ARC
  5
149
330
2
100
AcDbEntity
  8
0
100
AcDbCircle
 10
-5642.813291620957
 20
6208.445876149085
 30
0.0
 40
5.399999999999998
100
AcDbArc
 50
134.9999999998851
 51
180.0
  0
LINE
  5
14A
330
2
100
AcDbEntity
  8
0
100
AcDbLine
 10
-5651.01329162096
 20
6174.975082892693
 30
0.0
 11
-5651.01329162096
 21
6208.445876149085
 31
0.0
  0
LINE
  5
14B
330
2
100
AcDbEntity
  8
0
100
AcDbLine
 10
-5648.213291620958
 20
6176.591663646425
 30
0.0
 11
-5648.213291620958
 21
6208.445876149085
 31
0.0
  0
LINE
  5
14C
330
2
100
AcDbEntity
  8
0
  6
PHANTOM
 62
     6
 48
3.0
100
AcDbLine
 10
-5659.732102576922
 20
6166.941275040251
 30
0.0
 11
-5645.840348560414
 21
6174.961682961201
 31
0.0
  0
LINE
  5
14D
330
2
100
AcDbEntity
  8
0
100
AcDbLine
 10
-5656.613291620957
 20
6149.002225335191
 30
0.0
 11
-5653.813291620958
 21
6149.002225335191
 31
0.0
  0
LINE
  5
14E
330
2
100
AcDbEntity
  8
0
100
AcDbLine
 10
-5655.713291620952
 20
6139.002225335191
 30
0.0
 11
-5654.713291620955
 21
6139.002225335191
 31
0.0
  0
LINE
  5
14F
330
2
100
AcDbEntity
  8
0
100
AcDbLine
 10
-5651.01329162096
 20
6149.002225335191
 30
0.0
 11
-5648.213291620959
 21
6149.002225335191
 31
0.0
  0
LINE
  5
150
330
2
100
AcDbEntity
  8
0
100
AcDbLine
 10
-5648.213291620959
 20
6149.002225335191
 30
0.0
 11
-5648.213291620959
 21
6173.591663646424
 31
0.0
  0
LINE
  5
151
330
2
100
AcDbEntity
  8
0
100
AcDbLine
 10
-5655.213291620956
 20
6139.002225335191
 30
0.0
 11
-5655.213291620956
 21
6149.002225335191
 31
0.0
  0
LINE
  5
152
330
2
100
AcDbEntity
  8
0
100
AcDbLine
 10
-5655.713291620956
 20
6139.002225335191
 30
0.0
 11
-5655.713291620956
 21
6149.002225335191
 31
0.0
  0
LINE
  5
153
330
2
100
AcDbEntity
  8
0
100
AcDbLine
 10
-5654.713291620955
 20
6139.002225335191
 30
0.0
 11
-5654.713291620955
 21
6149.002225335191
 31
0.0
  0
LINE
  5
154
330
2
100
AcDbEntity
  8
0
100
AcDbLine
 10
-5650.113291620954
 20
6139.002225335191
 30
0.0
 11
-5649.113291620957
 21
6139.002225335191
 31
0.0
  0
LINE
  5
155
330
2
100
AcDbEntity
  8
0
100
AcDbLine
 10
-5649.613291620958
 20
6139.002225335191
 30
0.0
 11
-5649.613291620958
 21
6149.002225335191
 31
0.0
  0
LINE
  5
156
330
2
100
AcDbEntity
  8
0
100
AcDbLine
 10
-5650.113291620957
 20
6139.002225335191
 30
0.0
 11
-5650.113291620957
 21
6149.002225335191
 31
0.0
  0
LINE
  5
157
330
2
100
AcDbEntity
  8
0
100
AcDbLine
 10
-5649.113291620957
 20
6139.002225335191
 30
0.0
 11
-5649.113291620957
 21
6149.002225335191
 31
0.0
  0
LINE
  5
158
330
2
100
AcDbEntity
  8
0
100
AcDbLine
 10
-5761.526655283327
 20
6217.30422533519
 30
0.0
 11
-5761.526655283327
 21
6218.718225335191
 31
0.0
  0
LINE
  5
159
330
2
100
AcDbEntity
  8
0
100
AcDbLine
 10
-5746.526655283329
 20
6217.30422533519
 30
0.0
 11
-5746.526655283329
 21
6218.718225335191
 31
0.0
  0
LINE
  5
15A
330
2
100
AcDbEntity
  8
0
100
AcDbLine
 10
-5754.026655283327
 20
6225.807158806819
 30
0.0
 11
-5736.526655283327
 21
6225.807158806819
 31
0.0
  0
LINE
  5
15B
330
2
100
AcDbEntity
  8
0
100
AcDbLine
 10
-5750.356010469801
 20
6213.079236745471
 30
0.0
 11
-5736.526655283327
 21
6213.079236745471
 31
0.0
  0
ARC
  5
15C
330
2
100
AcDbEntity
  8
0
100
AcDbCircle
 10
-5739.026655283328
 20
6237.502225335191
 30
0.0
 40
2.5
100
AcDbArc
 50
0.0
 51
90.0
  0
LINE
  5
15D
330
2
100
AcDbEntity
  8
0
100
AcDbLine
 10
-5736.926655283326
 20
6244.002225335191
 30
0.0
 11
-5736.926655283326
 21
6250.00222533519
 31
0.0
  0
LINE
  5
15E
330
2
100
AcDbEntity
  8
0
100
AcDbLine
 10
-5740.426655283326
 20
6242.502225335191
 30
0.0
 11
-5740.426655283326
 21
6251.50222533519
 31
0.0
  0
LINE
  5
15F
330
2
100
AcDbEntity
  8
0
100
AcDbLine
 10
-5741.926655283326
 20
6242.502225335191
 30
0.0
 11
-5741.926655283326
 21
6251.50222533519
 31
0.0
  0
LINE
  5
160
330
2
100
AcDbEntity
  8
0
100
AcDbLine
 10
-5742.526655283327
 20
6242.502225335191
 30
0.0
 11
-5738.426655283326
 21
6242.502225335191
 31
0.0
  0
ARC
  5
161
330
2
100
AcDbEntity
  8
0
100
AcDbCircle
 10
-5738.426655283326
 20
6244.002225335191
 30
0.0
 40
1.5
100
AcDbArc
 50
270.0
 51
0.0
  0
LINE
  5
162
330
2
100
AcDbEntity
  8
0
100
AcDbLine
 10
-5833.026655283327
 20
6216.002225335191
 30
0.0
 11
-5789.026655283327
 21
6216.002225335191
 31
0.0
  0
LINE
  5
163
330
2
100
AcDbEntity
  8
0
100
AcDbLine
 10
-5787.026655283327
 20
6218.00222533519
 30
0.0
 11
-5787.026655283327
 21
6276.002225335191
 31
0.0
  0
ARC
  5
164
330
2
100
AcDbEntity
  8
0
100
AcDbCircle
 10
-5789.026655283327
 20
6218.00222533519
 30
0.0
 40
2.0
100
AcDbArc
 50
270.0
 51
0.0
  0
LINE
  5
165
330
2
100
AcDbEntity
  8
0
100
AcDbLine
 10
-5835.026655283328
 20
6218.00222533519
 30
0.0
 11
-5835.026655283328
 21
6276.002225335191
 31
0.0
  0
ARC
  5
166
330
2
100
AcDbEntity
  8
0
100
AcDbCircle
 10
-5833.026655283327
 20
6218.00222533519
 30
0.0
 40
2.0
100
AcDbArc
 50
180.0
 51
270.0
  0
LINE
  5
167
330
2
100
AcDbEntity
  8
0
100
AcDbLine
 10
-5817.026655283328
 20
6216.002225335191
 30
0.0
 11
-5817.026655283329
 21
6278.002225335191
 31
0.0
  0
LINE
  5
168
330
2
100
AcDbEntity
  8
0
100
AcDbLine
 10
-5827.526655283327
 20
6216.002225335191
 30
0.0
 11
-5827.526655283329
 21
6278.002225335191
 31
0.0
  0
HATCH
  5
169
330
2
100
AcDbEntity
  8
0
100
AcDbHatch
 10
0.0
 20
0.0
 30
0.0
210
0.0
220
0.0
230
1.0
  2
SOLID
 70
     1
 71
     0
 91
        3
 92
        7
 72
     1
 73
     1
 93
       14
 10
-5819.264866136743
 20
6220.420543848732
 42
0.0937143382696255
 10
-5819.682275642973
 20
6222.631070164518
 42
0.0
 10
-5821.653342450504
 20
6222.631070164521
 42
-0.3419987131189617
 10
-5822.111985215183
 20
6222.986333322413
 42
0.8810189742401522
 10
-5822.422760873586
 20
6222.946859180145
 42
0.0
 10
-5822.422760873586
 20
6222.946859638206
 42
0.0
 10
-5822.422760873586
 20
6221.131070164518
 42
0.8810176860282405
 10
-5822.111985215183
 20
6221.091596480308
 42
-0.3419987131199286
 10
-5821.653342450504
 20
6221.446859638203
 42
0.0
 10
-5820.206170640363
 20
6221.446859638203
 42
-1.140543588145414
 10
-5824.396445084112
 20
6220.89422805925
 42
-0.2430703534513821
 10
-5823.621444512527
 20
6222.394228059257
 42
0.0
 10
-5825.096111196988
 20
6222.394228059257
 42
-0.2403282878310472
 10
-5825.056751841667
 20
6221.677817614175
 42
1.201119850359529
 97
        0
 92
        7
 72
     1
 73
     1
 93
       14
 10
-5819.264866136743
 20
6228.315280690837
 42
0.0937143382697012
 10
-5819.682275642973
 20
6230.525807006625
 42
0.0
 10
-5821.653342450504
 20
6230.525807006625
 42
-0.3419987131189617
 10
-5822.111985215183
 20
6230.881070164517
 42
0.8810189742401522
 10
-5822.422760873586
 20
6230.84159602225
 42
0.0
 10
-5822.422760873586
 20
6230.841596480312
 42
0.0
 10
-5822.422760873586
 20
6229.025807006625
 42
0.881017686029679
 10
-5822.111985215183
 20
6228.986333322414
 42
-0.3419987131193316
 10
-5821.653342450504
 20
6229.341596480308
 42
0.0
 10
-5820.206170640363
 20
6229.341596480308
 42
-1.140543588145414
 10
-5824.396445084112
 20
6228.788964901355
 42
-0.2430703534513821
 10
-5823.621444512527
 20
6230.288964901362
 42
0.0
 10
-5825.096111196988
 20
6230.288964901362
 42
-0.2403282878310472
 10
-5825.056751841667
 20
6229.572554456279
 42
1.201119850359529
 97
        0
 92
        7
 72
     1
 73
     1
 93
       25
 10
-5819.264866136743
 20
6236.598035450073
 42
0.0
 10
-5819.264866136745
 20
6236.614832762503
 42
0.0
 10
-5824.317497715693
 20
6238.657385953993
 42
0.0
 10
-5820.340046402952
 20
6238.657385953993
 42
-0.3419987131199597
 10
-5819.57564179515
 20
6238.065280690832
 42
0.8810176860694333
 10
-5819.264866136743
 20
6238.104754375044
 42
0.0
 10
-5819.264866136743
 20
6240.394228059257
 42
0.8810176860694735
 10
-5819.57564179515
 20
6240.433701743469
 42
-0.3419987131199634
 10
-5820.340046402952
 20
6239.841596480308
 42
0.0
 10
-5824.189685870539
 20
6239.841596480308
 42
-0.3419987131199597
 10
-5824.954090478343
 20
6240.433701743469
 42
0.8810176860694333
 10
-5825.264866136743
 20
6240.394228059257
 42
0.0
 10
-5825.264866136743
 20
6238.420543848729
 42
0.0
 10
-5821.554339820957
 20
6236.920543848729
 42
0.0
 10
-5825.264866136743
 20
6235.104754375047
 42
0.0
 10
-5825.264866136743
 20
6233.367912269781
 42
0.8810176860694735
 10
-5824.954090478343
 20
6233.32843858557
 42
-0.3419987131199635
 10
-5824.189685870539
 20
6233.920543848729
 42
0.0
 10
-5820.340046402952
 20
6233.920543848729
 42
-0.3419987131199597
 10
-5819.57564179515
 20
6233.32843858557
 42
0.8810176860694333
 10
-5819.264866136743
 20
6233.367912269781
 42
0.0
 10
-5819.264866136743
 20
6235.025807006625
 42
0.8810176860694735
 10
-5819.57564179515
 20
6235.065280690836
 42
-0.3419987131199634
 10
-5820.340046402952
 20
6234.473175427677
 42
0.0
 10
-5823.606971399903
 20
6234.473175427677
 42
0.0
 97
        0
 75
     0
 76
     1
 47
0.0347943292785178
 98
        3
 10
-5821.250373621458
 20
6218.19408540354
 10
-5820.589281573445
 20
6226.513841410289
 10
-5821.737494769887
 20
6236.051975439041
1001
ACAD
1010
0.0
1020
0.0
1030
0.0
  0
LINE
  5
16A
330
2
100
AcDbEntity
  8
0
100
AcDbLine
 10
-5819.264866136743
 20
6238.104754375044
 30
0.0
 11
-5819.264866136743
 21
6240.394228059257
 31
0.0
  0
LINE
  5
16B
330
2
100
AcDbEntity
  8
0
100
AcDbLine
 10
-5820.340046402952
 20
6239.841596480308
 30
0.0
 11
-5824.189685870539
 21
6239.841596480308
 31
0.0
  0
LINE
  5
16C
330
2
100
AcDbEntity
  8
0
100
AcDbLine
 10
-5824.317497715693
 20
6238.657385953993
 30
0.0
 11
-5820.340046402952
 21
6238.657385953993
 31
0.0
  0
ARC
  5
16D
330
2
100
AcDbEntity
  8
0
100
AcDbCircle
 10
-5819.422760873586
 20
6240.394228059257
 30
0.0
 40
0.1578947368421076
100
AcDbArc
 50
0.0
 51
165.5224878140648
  0
ARC
  5
16E
330
2
100
AcDbEntity
  8
0
100
AcDbCircle
 10
-5820.340046402952
 20
6240.631070164521
 30
0.0
 40
0.7894736842105267
100
AcDbArc
 50
270.0
 51
345.5224878140648
  0
ARC
  5
16F
330
2
100
AcDbEntity
  8
0
100
AcDbCircle
 10
-5819.422760873586
 20
6238.104754375044
 30
0.0
 40
0.1578947368421076
100
AcDbArc
 50
194.4775121859351
 51
0.0
  0
ARC
  5
170
330
2
100
AcDbEntity
  8
0
100
AcDbCircle
 10
-5820.340046402952
 20
6237.867912269781
 30
0.0
 40
0.7894736842105267
100
AcDbArc
 50
14.47751218593517
 51
90.0
  0
ARC
  5
171
330
2
100
AcDbEntity
  8
0
100
AcDbCircle
 10
-5825.106971399903
 20
6240.394228059257
 30
0.0
 40
0.1578947368421076
100
AcDbArc
 50
14.47751218593517
 51
180.0
  0
ARC
  5
172
330
2
100
AcDbEntity
  8
0
100
AcDbCircle
 10
-5824.189685870539
 20
6240.631070164521
 30
0.0
 40
0.7894736842105267
100
AcDbArc
 50
194.4775121859351
 51
270.0
  0
LINE
  5
173
330
2
100
AcDbEntity
  8
0
100
AcDbLine
 10
-5825.264866136743
 20
6238.420543848729
 30
0.0
 11
-5825.264866136743
 21
6240.394228059257
 31
0.0
  0
LINE
  5
174
330
2
100
AcDbEntity
  8
0
100
AcDbLine
 10
-5821.554339820957
 20
6236.920543848729
 30
0.0
 11
-5825.264866136743
 21
6238.420543848729
 31
0.0
  0
LINE
  5
175
330
2
100
AcDbEntity
  8
0
100
AcDbLine
 10
-5819.264866136743
 20
6236.598035450073
 30
0.0
 11
-5819.264866136743
 21
6236.614832762502
 31
0.0
  0
LINE
  5
176
330
2
100
AcDbEntity
  8
0
100
AcDbLine
 10
-5819.264866136743
 20
6233.367912269781
 30
0.0
 11
-5819.264866136743
 21
6235.025807006625
 31
0.0
  0
LINE
  5
177
330
2
100
AcDbEntity
  8
0
100
AcDbLine
 10
-5823.606971399903
 20
6234.473175427677
 30
0.0
 11
-5820.340046402952
 21
6234.473175427677
 31
0.0
  0
ARC
  5
178
330
2
100
AcDbEntity
  8
0
100
AcDbCircle
 10
-5820.340046402952
 20
6235.262649111888
 30
0.0
 40
0.7894736842105267
100
AcDbArc
 50
270.0
 51
345.5224878140648
  0
ARC
  5
179
330
2
100
AcDbEntity
  8
0
100
AcDbCircle
 10
-5819.422760873586
 20
6235.025807006625
 30
0.0
 40
0.1578947368421076
100
AcDbArc
 50
0.0
 51
165.5224878140648
  0
LINE
  5
17A
330
2
100
AcDbEntity
  8
0
100
AcDbLine
 10
-5820.340046402952
 20
6233.920543848729
 30
0.0
 11
-5824.189685870539
 21
6233.920543848729
 31
0.0
  0
ARC
  5
17B
330
2
100
AcDbEntity
  8
0
100
AcDbCircle
 10
-5820.340046402952
 20
6233.131070164517
 30
0.0
 40
0.7894736842105267
100
AcDbArc
 50
14.47751218593517
 51
90.0
  0
ARC
  5
17C
330
2
100
AcDbEntity
  8
0
100
AcDbCircle
 10
-5819.422760873586
 20
6233.367912269781
 30
0.0
 40
0.1578947368421076
100
AcDbArc
 50
194.4775121859351
 51
0.0
  0
LINE
  5
17D
330
2
100
AcDbEntity
  8
0
100
AcDbLine
 10
-5823.606971399903
 20
6234.473175427677
 30
0.0
 11
-5819.264866136743
 21
6236.598035450073
 31
0.0
  0
ARC
  5
17E
330
2
100
AcDbEntity
  8
0
100
AcDbCircle
 10
-5825.106971399903
 20
6233.367912269781
 30
0.0
 40
0.1578947368421076
100
AcDbArc
 50
180.0
 51
345.5224878140648
  0
ARC
  5
17F
330
2
100
AcDbEntity
  8
0
100
AcDbCircle
 10
-5824.189685870539
 20
6233.131070164517
 30
0.0
 40
0.7894736842105267
100
AcDbArc
 50
90.0
 51
165.5224878140648
  0
LINE
  5
180
330
2
100
AcDbEntity
  8
0
100
AcDbLine
 10
-5825.264866136743
 20
6233.367912269781
 30
0.0
 11
-5825.264866136743
 21
6235.104754375043
 31
0.0
  0
ARC
  5
181
330
2
100
AcDbEntity
  8
0
100
AcDbCircle
 10
-5822.276655283327
 20
6220.515511364174
 30
0.0
 40
3.013286028982678
100
AcDbArc
 50
156.8155745922429
 51
358.1939520675011
  0
LINE
  5
182
330
2
100
AcDbEntity
  8
0
100
AcDbLine
 10
-5823.621444512527
 20
6222.394228059257
 30
0.0
 11
-5825.096111196988
 21
6222.394228059257
 31
0.0
  0
ARC
  5
183
330
2
100
AcDbEntity
  8
0
100
AcDbCircle
 10
-5821.653342450504
 20
6220.973175427675
 30
0.0
 40
0.4736842105263161
100
AcDbArc
 50
90.0
 51
165.5224878140648
  0
ARC
  5
184
330
2
100
AcDbEntity
  8
0
100
AcDbCircle
 10
-5822.264866136743
 20
6221.131070164518
 30
0.0
 40
0.1578947368420963
100
AcDbArc
 50
180.0
 51
345.5224878140648
  0
ARC
  5
185
330
2
100
AcDbEntity
  8
0
100
AcDbCircle
 10
-5821.653342450504
 20
6223.104754375046
 30
0.0
 40
0.4736842105263161
100
AcDbArc
 50
194.4775121859351
 51
270.0
  0
LINE
  5
186
330
2
100
AcDbEntity
  8
0
100
AcDbLine
 10
-5822.422760873586
 20
6221.131070164518
 30
0.0
 11
-5822.422760873586
 21
6222.946859638203
 31
0.0
  0
LINE
  5
187
330
2
100
AcDbEntity
  8
0
100
AcDbLine
 10
-5820.206170640363
 20
6221.446859638203
 30
0.0
 11
-5821.653342450504
 21
6221.446859638203
 31
0.0
  0
ARC
  5
188
330
2
100
AcDbEntity
  8
0
100
AcDbCircle
 10
-5822.264866136743
 20
6220.894228059257
 30
0.0
 40
2.131578947368458
100
AcDbArc
 50
180.0
 51
15.02611375910461
  0
LINE
  5
189
330
2
100
AcDbEntity
  8
0
100
AcDbLine
 10
-5819.682275642973
 20
6222.631070164518
 30
0.0
 11
-5821.653342450504
 21
6222.631070164521
 31
0.0
  0
ARC
  5
18A
330
2
100
AcDbEntity
  8
0
100
AcDbCircle
 10
-5822.264866136743
 20
6222.946859638203
 30
0.0
 40
0.1578947368420963
100
AcDbArc
 50
14.47751218593517
 51
180.0
  0
LINE
  5
18B
330
2
100
AcDbEntity
  8
0
100
AcDbLine
 10
-5819.264866136743
 20
6236.614832762502
 30
0.0
 11
-5824.317497715693
 21
6238.657385953993
 31
0.0
  0
LINE
  5
18C
330
2
100
AcDbEntity
  8
0
100
AcDbLine
 10
-5825.264866136743
 20
6235.104754375043
 30
0.0
 11
-5821.554339820957
 21
6236.920543848729
 31
0.0
  0
ARC
  5
18D
330
2
100
AcDbEntity
  8
0
100
AcDbCircle
 10
-5825.318761392011
 20
6220.422070731745
 30
0.0
 40
6.053895447818247
100
AcDbArc
 50
359.9855491469638
 51
21.40074743271767
  0
ARC
  5
18E
330
2
100
AcDbEntity
  8
0
100
AcDbCircle
 10
-5825.778629585239
 20
6221.99744430485
 30
0.0
 40
0.7894736842105267
100
AcDbArc
 50
338.0090682493488
 51
30.1716840922412
  0
ARC
  5
18F
330
2
100
AcDbEntity
  8
0
100
AcDbCircle
 10
-5822.557332965699
 20
6220.894228059257
 30
0.0
 40
1.839112118411773
100
AcDbArc
 50
125.3521829317296
 51
180.0
  0
ARC
  5
190
330
2
100
AcDbEntity
  8
0
100
AcDbCircle
 10
-5822.557332965699
 20
6228.788964901362
 30
0.0
 40
1.839112118411773
100
AcDbArc
 50
125.3521829317296
 51
180.0
  0
LINE
  5
191
330
2
100
AcDbEntity
  8
0
100
AcDbLine
 10
-5823.621444512527
 20
6230.288964901362
 30
0.0
 11
-5825.096111196988
 21
6230.288964901362
 31
0.0
  0
ARC
  5
192
330
2
100
AcDbEntity
  8
0
100
AcDbCircle
 10
-5822.264866136743
 20
6228.788964901362
 30
0.0
 40
2.131578947368458
100
AcDbArc
 50
180.0
 51
15.02611375910461
  0
ARC
  5
193
330
2
100
AcDbEntity
  8
0
100
AcDbCircle
 10
-5822.276655283327
 20
6228.410248206279
 30
0.0
 40
3.013286028982678
100
AcDbArc
 50
156.8155745922429
 51
358.1939520675011
  0
ARC
  5
194
330
2
100
AcDbEntity
  8
0
100
AcDbCircle
 10
-5825.778629585239
 20
6229.892181146955
 30
0.0
 40
0.7894736842105267
100
AcDbArc
 50
338.0090682493488
 51
30.1716840922412
  0
ARC
  5
195
330
2
100
AcDbEntity
  8
0
100
AcDbCircle
 10
-5825.318761392011
 20
6228.316807573849
 30
0.0
 40
6.053895447818247
100
AcDbArc
 50
359.9855491469638
 51
21.40074743271767
  0
LINE
  5
196
330
2
100
AcDbEntity
  8
0
100
AcDbLine
 10
-5819.682275642973
 20
6230.525807006625
 30
0.0
 11
-5821.653342450504
 21
6230.525807006625
 31
0.0
  0
ARC
  5
197
330
2
100
AcDbEntity
  8
0
100
AcDbCircle
 10
-5822.264866136743
 20
6230.841596480308
 30
0.0
 40
0.1578947368420963
100
AcDbArc
 50
14.47751218593517
 51
180.0
  0
LINE
  5
198
330
2
100
AcDbEntity
  8
0
100
AcDbLine
 10
-5820.206170640363
 20
6229.341596480308
 30
0.0
 11
-5821.653342450504
 21
6229.341596480308
 31
0.0
  0
LINE
  5
199
330
2
100
AcDbEntity
  8
0
100
AcDbLine
 10
-5822.422760873586
 20
6229.025807006625
 30
0.0
 11
-5822.422760873586
 21
6230.841596480308
 31
0.0
  0
ARC
  5
19A
330
2
100
AcDbEntity
  8
0
100
AcDbCircle
 10
-5821.653342450504
 20
6230.99949121715
 30
0.0
 40
0.4736842105263161
100
AcDbArc
 50
194.4775121859351
 51
270.0
  0
ARC
  5
19B
330
2
100
AcDbEntity
  8
0
100
AcDbCircle
 10
-5822.264866136743
 20
6229.025807006625
 30
0.0
 40
0.1578947368420963
100
AcDbArc
 50
180.0
 51
345.5224878140648
  0
ARC
  5
19C
330
2
100
AcDbEntity
  8
0
100
AcDbCircle
 10
-5821.653342450504
 20
6228.867912269781
 30
0.0
 40
0.4736842105263161
100
AcDbArc
 50
90.0
 51
165.5224878140648
  0
TEXT
  5
19D
330
2
100
AcDbEntity
  8
0
100
AcDbText
 10
-5788.526655283327
 20
6220.002225335191
 30
0.0
 40
2.0
  1
GOOOOOO
 50
90.0
  7
유형1
100
AcDbText
  0
LINE
  5
19F
330
2
100
AcDbEntity
  8
0
100
AcDbLine
 10
-5817.026655283328
 20
6242.002225335191
 30
0.0
 11
-5827.526655283327
 21
6242.002225335191
 31
0.0
  0
LEADER
  5
1A0
330
2
100
AcDbEntity
  8
0
 62
   123
100
AcDbLeader
  3
STANDARD$7
 76
     2
 10
-5656.229290852063
 20
6228.971002414934
 30
0.0
 10
-5660.076747588245
 20
6225.123545678751
 30
0.0
1001
ACAD
1000
DSTYLE
1002
{
1070
    77
1070
     0
1070
   176
1070
   123
1002
}
  0
TEXT
  5
1A5
330
2
100
AcDbEntity
  8
0
 62
     3
100
AcDbText
 10
-5667.813291620958
 20
6172.689896514527
 30
0.0
 40
3.0
  1
300 %%P10
 50
90.0
  7
GHS
100
AcDbText
  0
DIMENSION
  5
1A6
330
2
100
AcDbEntity
  8
0
100
AcDbDimension
  2
*D1
 10
-5659.813291620958
 20
6139.002225335191
 30
0.0
 11
-5662.31329162096
 21
6144.002225335191
 31
0.0
 71
     5
 42
10.0
  3
STANDARD
100
AcDbAlignedDimension
 13
-5656.613291620957
 23
6149.002225335191
 33
0.0
 14
-5655.713291620956
 24
6139.002225335191
 34
0.0
 50
90.0
100
AcDbRotatedDimension
  0
LEADER
  5
1B3
330
2
100
AcDbEntity
  8
0
 62
   123
100
AcDbLeader
  3
STANDARD$7
 76
     2
 10
-5666.813291620957
 20
6139.002225335191
 30
0.0
 10
-5666.813291620957
 20
6209.002225335191
 30
0.0
1001
ACAD
1000
DSTYLE
1002
{
1070
    77
1070
     0
1070
   176
1070
   123
1002
}
  0
LINE
  5
1B4
330
2
100
AcDbEntity
  8
0
 62
   123
100
AcDbLine
 10
-5656.713291620956
 20
6139.002225335191
 30
0.0
 11
-5667.813291620958
 21
6139.002225335191
 31
0.0
  0
LINE
  5
1B5
330
2
100
AcDbEntity
  8
0
  6
CENTER
 62
     1
100
AcDbLine
 10
-5589.813291620958
 20
6238.002225335191
 30
0.0
 11
-5589.813291620958
 21
6256.002225335191
 31
0.0
  0
DIMENSION
  5
1B6
102
{ACAD_XDICTIONARY
360
1B7
102
}
102
{ACAD_REACTORS
330
1B8
102
}
330
2
100
AcDbEntity
  8
0
100
AcDbDimension
  2
*D17
 10
-5579.813291620958
 20
6301.011879519165
 30
0.0
 11
-5619.813291620958
 21
6303.511879519165
 31
0.0
  1
%%C<>
 71
     5
 42
80.0
  3
STANDARD
100
AcDbAlignedDimension
 13
-5659.813291620958
 23
6247.00222533519
 33
0.0
 14
-5579.813291620958
 24
6247.00222533519
 34
0.0
100
AcDbRotatedDimension
  0
DIMENSION
  5
1C5
102
{ACAD_XDICTIONARY
360
1C6
102
}
102
{ACAD_REACTORS
330
1C7
102
}
330
2
100
AcDbEntity
  8
0
100
AcDbDimension
  2
*D18
 10
-5567.813291620957
 20
6290.00222533519
 30
0.0
 11
-5570.313291620959
 21
6247.00222533519
 31
0.0
 71
     5
 42
85.99999999999818
  3
STANDARD
100
AcDbAlignedDimension
 13
-5609.313291620958
 23
6204.002225335193
 33
0.0
 14
-5609.313291620958
 24
6290.00222533519
 34
0.0
 50
90.0
100
AcDbRotatedDimension
  0
LINE
  5
1D4
330
2
100
AcDbEntity
  8
0
100
AcDbLine
 10
-5870.026655283326
 20
6249.88722533519
 30
0.0
 11
-5878.526655283327
 21
6249.88722533519
 31
0.0
  0
LINE
  5
1D5
330
2
100
AcDbEntity
  8
0
100
AcDbLine
 10
-5862.526655283329
 20
6251.237225335191
 30
0.0
 11
-5877.176655283328
 21
6251.237225335191
 31
0.0
  0
ARC
  5
1D6
330
2
100
AcDbEntity
  8
0
100
AcDbCircle
 10
-5877.176655283328
 20
6249.88722533519
 30
0.0
 40
1.35
100
AcDbArc
 50
90.0
 51
180.0
  0
LINE
  5
1D7
330
2
100
AcDbEntity
  8
0
  6
CENTER
 62
     1
100
AcDbLine
 10
-5863.014165682668
 20
6250.63722533519
 30
0.0
 11
-5879.526655283326
 21
6250.63722533519
 31
0.0
  0
LINE
  5
1D8
330
2
100
AcDbEntity
  8
0
100
AcDbLine
 10
-5878.526655283327
 20
6244.117225335191
 30
0.0
 11
-5878.526655283327
 21
6249.88722533519
 31
0.0
  0
LINE
  5
1D9
330
2
100
AcDbEntity
  8
0
100
AcDbLine
 10
-5862.526655283327
 20
6206.002225335191
 30
0.0
 11
-5862.526655283327
 21
6288.002225335191
 31
0.0
  0
LINE
  5
1DA
330
2
100
AcDbEntity
  8
0
100
AcDbLine
 10
-5862.02665528333
 20
6205.502225335191
 30
0.0
 11
-5862.02665528333
 21
6288.502225335193
 31
0.0
  0
LINE
  5
1DB
330
2
100
AcDbEntity
  8
0
100
AcDbLine
 10
-5851.526655283327
 20
6207.002225335191
 30
0.0
 11
-5851.526655283327
 21
6287.002225335193
 31
0.0
  0
LINE
  5
1DC
330
2
100
AcDbEntity
  8
0
100
AcDbLine
 10
-5853.526655283327
 20
6202.502225335191
 30
0.0
 11
-5853.526655283327
 21
6291.502225335193
 31
0.0
  0
LINE
  5
1DD
330
2
100
AcDbEntity
  8
0
100
AcDbLine
 10
-5860.526655283329
 20
6202.002225335191
 30
0.0
 11
-5860.526655283329
 21
6292.002225335193
 31
0.0
  0
LINE
  5
1DE
330
2
100
AcDbEntity
  8
0
100
AcDbLine
 10
-5854.026655283327
 20
6202.002225335191
 30
0.0
 11
-5860.526655283329
 21
6202.002225335191
 31
0.0
  0
LINE
  5
1DF
330
2
100
AcDbEntity
  8
0
100
AcDbLine
 10
-5862.02665528333
 20
6205.502225335191
 30
0.0
 11
-5860.526655283329
 21
6205.502225335191
 31
0.0
  0
LINE
  5
1E0
330
2
100
AcDbEntity
  8
0
100
AcDbLine
 10
-5862.02665528333
 20
6205.502225335191
 30
0.0
 11
-5862.526655283327
 21
6206.002225335191
 31
0.0
  0
LINE
  5
1E1
330
2
100
AcDbEntity
  8
0
100
AcDbLine
 10
-5851.526655283327
 20
6207.002225335191
 30
0.0
 11
-5853.526655283327
 21
6207.002225335191
 31
0.0
  0
ARC
  5
1E2
330
2
100
AcDbEntity
  8
0
100
AcDbCircle
 10
-5854.026655283327
 20
6202.502225335191
 30
0.0
 40
0.5
100
AcDbArc
 50
270.0
 51
0.0
  0
LINE
  5
1E3
330
2
100
AcDbEntity
  8
0
100
AcDbLine
 10
-5851.026655283327
 20
6207.502225335191
 30
0.0
 11
-5851.526655283327
 21
6207.002225335191
 31
0.0
  0
LINE
  5
1E4
330
2
100
AcDbEntity
  8
0
100
AcDbLine
 10
-5870.526655283327
 20
6244.117225335191
 30
0.0
 11
-5870.526655283327
 21
6249.88722533519
 31
0.0
  0
LINE
  5
1E5
330
2
100
AcDbEntity
  8
0
100
AcDbLine
 10
-5854.026655283327
 20
6292.002225335191
 30
0.0
 11
-5860.526655283329
 21
6292.002225335191
 31
0.0
  0
LINE
  5
1E6
330
2
100
AcDbEntity
  8
0
100
AcDbLine
 10
-5862.02665528333
 20
6288.502225335191
 30
0.0
 11
-5860.526655283329
 21
6288.502225335191
 31
0.0
  0
LINE
  5
1E7
330
2
100
AcDbEntity
  8
0
100
AcDbLine
 10
-5862.526655283327
 20
6288.002225335191
 30
0.0
 11
-5862.02665528333
 21
6288.502225335191
 31
0.0
  0
ARC
  5
1E8
330
2
100
AcDbEntity
  8
0
100
AcDbCircle
 10
-5854.026655283327
 20
6291.50222533519
 30
0.0
 40
0.5
100
AcDbArc
 50
0.0
 51
90.0
  0
LINE
  5
1E9
330
2
100
AcDbEntity
  8
0
100
AcDbLine
 10
-5853.526655283327
 20
6287.002225335191
 30
0.0
 11
-5771.026655283328
 21
6287.002225335191
 31
0.0
  0
ARC
  5
1EA
330
2
100
AcDbEntity
  8
0
100
AcDbCircle
 10
-5870.526655283327
 20
6265.88722533519
 30
0.0
 40
16.0
100
AcDbArc
 50
270.0
 51
293.7053581843575
  0
LINE
  5
1EB
330
2
100
AcDbEntity
  8
0
100
AcDbLine
 10
-5870.026655283329
 20
6244.117225335191
 30
0.0
 11
-5878.526655283327
 21
6244.117225335191
 31
0.0
  0
LINE
  5
1EC
330
2
100
AcDbEntity
  8
0
100
AcDbLine
 10
-5862.526655283327
 20
6242.76722533519
 30
0.0
 11
-5877.176655283328
 21
6242.76722533519
 31
0.0
  0
ARC
  5
1ED
330
2
100
AcDbEntity
  8
0
100
AcDbCircle
 10
-5877.176655283328
 20
6244.117225335191
 30
0.0
 40
1.35
100
AcDbArc
 50
180.0
 51
270.0
  0
ARC
  5
1EE
330
2
100
AcDbEntity
  8
0
100
AcDbCircle
 10
-5870.526655283327
 20
6228.11722533519
 30
0.0
 40
16.0
100
AcDbArc
 50
66.29464181564252
 51
90.0
  0
LINE
  5
1EF
330
2
100
AcDbEntity
  8
0
  6
CENTER
 62
     1
100
AcDbLine
 10
-5863.014165682668
 20
6243.367225335191
 30
0.0
 11
-5879.526655283328
 21
6243.367225335191
 31
0.0
  0
DIMENSION
  5
1F0
330
2
100
AcDbEntity
  8
0
100
AcDbDimension
  2
*D2
 10
-5890.526655283327
 20
6288.502225335191
 30
0.0
 11
-5893.97665528333
 21
6247.00222533519
 31
0.0
  1
%%C<>{\H0.7x;\S  0^ -0.035;}
 71
     5
 42
83.0
  3
STANDARD
100
AcDbAlignedDimension
 13
-5862.02665528333
 23
6205.502225335191
 33
0.0
 14
-5862.02665528333
 24
6288.502225335191
 34
0.0
 50
90.0
100
AcDbRotatedDimension
  0
DIMENSION
  5
1FD
330
2
100
AcDbEntity
  8
0
100
AcDbDimension
  2
*D3
 10
-5853.526655283327
 20
6307.438347379459
 30
0.0
 11
-5857.026655283327
 21
6309.93834737946
 31
0.0
 71
     5
 42
7.0
  3
STANDARD
100
AcDbAlignedDimension
 13
-5860.526655283329
 23
6292.002225335191
 33
0.0
 14
-5853.526655283327
 24
6291.50222533519
 34
0.0
100
AcDbRotatedDimension
  0
DIMENSION
  5
20C
330
2
100
AcDbEntity
  8
0
100
AcDbDimension
  2
*D4
 10
-5860.526655283329
 20
6315.823622613798
 30
0.0
 11
-5869.526655283327
 21
6318.323622613798
 31
0.0
 71
     5
 42
18.0
  3
STANDARD
100
AcDbAlignedDimension
 13
-5878.526655283327
 23
6249.88722533519
 33
0.0
 14
-5860.526655283329
 24
6292.002225335191
 34
0.0
100
AcDbRotatedDimension
  0
DIMENSION
  5
219
330
2
100
AcDbEntity
  8
0
100
AcDbDimension
  2
*D5
 10
-5736.026655283327
 20
6315.823622613798
 30
0.0
 11
-5798.276655283327
 21
6318.323622613798
 31
0.0
 71
     5
 42
124.5
  3
STANDARD
100
AcDbAlignedDimension
 13
-5860.526655283329
 23
6292.002225335191
 33
0.0
 14
-5736.026655283327
 24
6282.00222533519
 34
0.0
100
AcDbRotatedDimension
  0
DIMENSION
  5
226
330
2
100
AcDbEntity
  8
0
100
AcDbDimension
  2
*D6
 10
-5862.526655283327
 20
6300.402233354687
 30
0.0
 11
-5869.526655283327
 21
6300.402233354687
 31
0.0
 70
   128
 71
     5
 42
2.0
  3
STANDARD
100
AcDbAlignedDimension
 13
-5860.526655283329
 23
6292.002225335191
 33
0.0
 14
-5862.526655283327
 24
6288.002225335191
 34
0.0
100
AcDbRotatedDimension
  0
LINE
  5
235
330
2
100
AcDbEntity
  8
0
  6
CENTER
 62
     1
100
AcDbLine
 10
-5329.150467293468
 20
6199.193990753804
 30
0.0
 11
-5329.150467293468
 21
6303.193990753804
 31
0.0
  0
LINE
  5
236
330
2
100
AcDbEntity
  8
0
  6
CENTER
 62
     1
100
AcDbLine
 10
-5299.150467293468
 20
6246.193990753804
 30
0.0
 11
-5299.150467293468
 21
6256.193990753804
 31
0.0
  0
LINE
  5
237
330
2
100
AcDbEntity
  8
0
  6
CENTER
 62
     1
100
AcDbLine
 10
-5359.150467293468
 20
6246.193990753804
 30
0.0
 11
-5359.150467293468
 21
6256.193990753804
 31
0.0
  0
LINE
  5
238
330
2
100
AcDbEntity
  8
0
100
AcDbLine
 10
-5284.150467293468
 20
6214.193990753804
 30
0.0
 11
-5284.150467293468
 21
6288.193990753804
 31
0.0
  0
ARC
  5
239
330
2
100
AcDbEntity
  8
0
100
AcDbCircle
 10
-5292.150467293468
 20
6214.193990753804
 30
0.0
 40
8.0
100
AcDbArc
 50
270.0
 51
0.0
  0
ARC
  5
23A
330
2
100
AcDbEntity
  8
0
100
AcDbCircle
 10
-5292.150467293468
 20
6288.193990753804
 30
0.0
 40
8.0
100
AcDbArc
 50
0.0
 51
90.0
  0
LINE
  5
23B
330
2
100
AcDbEntity
  8
0
100
AcDbLine
 10
-5374.150467293468
 20
6214.193990753804
 30
0.0
 11
-5374.150467293468
 21
6288.193990753804
 31
0.0
  0
LINE
  5
23C
330
2
100
AcDbEntity
  8
0
  6
CENTER
 62
     1
100
AcDbLine
 10
-5277.150467293468
 20
6251.193990753804
 30
0.0
 11
-5381.150467293468
 21
6251.193990753804
 31
0.0
  0
LINE
  5
23D
330
2
100
AcDbEntity
  8
0
100
AcDbLine
 10
-5326.150467293468
 20
6255.193990753802
 30
0.0
 11
-5332.150467293468
 21
6255.193990753802
 31
0.0
  0
LINE
  5
23E
330
2
100
AcDbEntity
  8
0
100
AcDbLine
 10
-5292.150467293468
 20
6206.193990753804
 30
0.0
 11
-5366.150467293469
 21
6206.193990753804
 31
0.0
  0
ARC
  5
23F
330
2
100
AcDbEntity
  8
0
100
AcDbCircle
 10
-5366.150467293469
 20
6214.193990753804
 30
0.0
 40
8.0
100
AcDbArc
 50
180.0
 51
270.0
  0
LINE
  5
240
330
2
100
AcDbEntity
  8
0
100
AcDbLine
 10
-5292.150467293468
 20
6296.193990753804
 30
0.0
 11
-5366.150467293469
 21
6296.193990753804
 31
0.0
  0
ARC
  5
241
330
2
100
AcDbEntity
  8
0
100
AcDbCircle
 10
-5366.150467293469
 20
6288.193990753804
 30
0.0
 40
8.0
100
AcDbArc
 50
90.0
 51
180.0
  0
CIRCLE
  5
242
330
2
100
AcDbEntity
  8
0
100
AcDbCircle
 10
-5365.920019915169
 20
6214.424438132104
 30
0.0
 40
3.25
  0
CIRCLE
  5
243
330
2
100
AcDbEntity
  8
0
100
AcDbCircle
 10
-5292.380914671769
 20
6214.424438132104
 30
0.0
 40
3.25
  0
ARC
  5
244
330
2
100
AcDbEntity
  8
0
  6
CENTER
 62
     1
100
AcDbCircle
 10
-5329.150467293468
 20
6251.193990753804
 30
0.0
 40
52.00000000000123
100
AcDbArc
 50
128.3852756407124
 51
141.6147243592889
  0
LINE
  5
245
330
2
100
AcDbEntity
  8
0
  6
CENTER
 62
     1
100
AcDbLine
 10
-5361.677379228051
 20
6283.720902688385
 30
0.0
 11
-5370.162660602289
 21
6292.206184062623
 31
0.0
  0
CIRCLE
  5
246
330
2
100
AcDbEntity
  8
0
100
AcDbCircle
 10
-5365.920019915169
 20
6287.963543375504
 30
0.0
 40
3.25
  0
CIRCLE
  5
247
330
2
100
AcDbEntity
  8
0
100
AcDbCircle
 10
-5292.380914671769
 20
6287.963543375504
 30
0.0
 40
3.25
  0
ARC
  5
248
102
{ACAD_REACTORS
330
373
102
}
330
2
100
AcDbEntity
  8
0
  6
CENTER
 62
     1
100
AcDbCircle
 10
-5329.150467293468
 20
6251.193990753804
 30
0.0
 40
52.00000000000123
100
AcDbArc
 50
30.07334764497637
 51
51.61472435943601
  0
LINE
  5
249
330
2
100
AcDbEntity
  8
0
  6
CENTER
 62
     1
100
AcDbLine
 10
-5296.623555358885
 20
6283.720902688385
 30
0.0
 11
-5288.138273984646
 21
6292.206184062623
 31
0.0
  0
ARC
  5
24A
330
2
100
AcDbEntity
  8
0
  6
CENTER
 62
     1
100
AcDbCircle
 10
-5329.150467293468
 20
6251.193990753804
 30
0.0
 40
52.00000000000123
100
AcDbArc
 50
210.0733476449764
 51
231.6147243592875
  0
LINE
  5
24B
330
2
100
AcDbEntity
  8
0
  6
CENTER
 62
     1
100
AcDbLine
 10
-5361.677379228051
 20
6218.667078819223
 30
0.0
 11
-5370.162660602289
 21
6210.181797444985
 31
0.0
  0
ARC
  5
24C
330
2
100
AcDbEntity
  8
0
  6
CENTER
 62
     1
100
AcDbCircle
 10
-5329.150467293468
 20
6251.193990753804
 30
0.0
 40
52.00000000000123
100
AcDbArc
 50
308.385275640564
 51
321.6147243594355
  0
LINE
  5
24D
330
2
100
AcDbEntity
  8
0
  6
CENTER
 62
     1
100
AcDbLine
 10
-5296.623555358885
 20
6218.667078819223
 30
0.0
 11
-5288.138273984646
 21
6210.181797444985
 31
0.0
  0
CIRCLE
  5
24E
330
2
100
AcDbEntity
  8
0
100
AcDbCircle
 10
-5329.150467293468
 20
6251.193990753804
 30
0.0
 40
41.5
  0
CIRCLE
  5
24F
330
2
100
AcDbEntity
  8
0
100
AcDbCircle
 10
-5329.150467293468
 20
6251.193990753804
 30
0.0
 40
39.0
  0
CIRCLE
  5
250
330
2
100
AcDbEntity
  8
0
100
AcDbCircle
 10
-5329.150467293468
 20
6251.193990753804
 30
0.0
 40
20.0
  0
ARC
  5
251
330
2
100
AcDbEntity
  8
0
 62
     3
100
AcDbCircle
 10
-5359.150467293468
 20
6251.193990753804
 30
0.0
 40
2.5
100
AcDbArc
 50
260.0000000000477
 51
190.0000000000546
  0
CIRCLE
  5
252
330
2
100
AcDbEntity
  8
0
100
AcDbCircle
 10
-5359.150467293468
 20
6251.193990753804
 30
0.0
 40
2.0
  0
ARC
  5
253
330
2
100
AcDbEntity
  8
0
 62
     3
100
AcDbCircle
 10
-5299.150467293468
 20
6251.193990753804
 30
0.0
 40
2.5
100
AcDbArc
 50
260.0000000000477
 51
190.0000000000546
  0
CIRCLE
  5
254
330
2
100
AcDbEntity
  8
0
100
AcDbCircle
 10
-5299.150467293468
 20
6251.193990753804
 30
0.0
 40
2.0
  0
LINE
  5
255
330
2
100
AcDbEntity
  8
0
  6
CENTER
 62
     1
100
AcDbLine
 10
-5044.102761626238
 20
6251.193990753804
 30
0.0
 11
-5211.602761626235
 21
6251.193990753804
 31
0.0
  0
LINE
  5
256
330
2
100
AcDbEntity
  8
0
100
AcDbLine
 10
-5050.102761626236
 20
6244.193990753803
 30
0.0
 11
-5053.602761626237
 21
6244.193990753803
 31
0.0
  0
LINE
  5
257
330
2
100
AcDbEntity
  8
0
100
AcDbLine
 10
-5162.102761626236
 20
6211.193990753804
 30
0.0
 11
-5082.102761626236
 21
6211.193990753804
 31
0.0
  0
LINE
  5
258
330
2
100
AcDbEntity
  8
0
100
AcDbLine
 10
-5082.602761626237
 20
6211.193990753804
 30
0.0
 11
-5082.602761626237
 21
6291.193990753805
 31
0.0
  0
LINE
  5
259
330
2
100
AcDbEntity
  8
0
  6
PHANTOM
 62
     6
100
AcDbLine
 10
-5070.273390399854
 20
6198.122369487173
 30
0.0
 11
-5059.181636383343
 21
6204.526196654391
 31
0.0
  0
LINE
  5
25A
330
2
100
AcDbEntity
  8
0
100
AcDbLine
 10
-5067.902761626232
 20
6223.515586713396
 30
0.0
 11
-5067.902761626235
 21
6199.491052647771
 31
0.0
  0
LINE
  5
25B
330
2
100
AcDbEntity
  8
0
100
AcDbLine
 10
-5062.302761626233
 20
6223.515586713395
 30
0.0
 11
-5062.302761626237
 21
6202.724214155232
 31
0.0
  0
LINE
  5
25C
330
2
100
AcDbEntity
  8
0
100
AcDbLine
 10
-5065.102761626236
 20
6224.323990753804
 30
0.0
 11
-5065.102761626236
 21
6201.107633401501
 31
0.0
  0
LINE
  5
25D
330
2
100
AcDbEntity
  8
0
100
AcDbLine
 10
-5053.602761626237
 20
6237.479705039516
 30
0.0
 11
-5053.602761626224
 21
6264.90827646809
 31
0.0
  0
LINE
  5
25E
330
2
100
AcDbEntity
  8
0
100
AcDbLine
 10
-5047.10276162624
 20
6216.193990753803
 30
0.0
 11
-5047.102761626236
 21
6286.193990753804
 31
0.0
  0
LINE
  5
25F
330
2
100
AcDbEntity
  8
0
100
AcDbLine
 10
-5082.102761626236
 20
6294.193990753804
 30
0.0
 11
-5082.102761626236
 21
6289.022990753815
 31
0.0
  0
LINE
  5
260
330
2
100
AcDbEntity
  8
0
100
AcDbLine
 10
-5050.102761626236
 20
6291.193990753804
 30
0.0
 11
-5053.602761626237
 21
6291.193990753804
 31
0.0
  0
ARC
  5
261
330
2
100
AcDbEntity
  8
0
100
AcDbCircle
 10
-5050.102761626236
 20
6288.693990753802
 30
0.0
 40
2.5
100
AcDbArc
 50
0.0
 51
90.0
  0
LINE
  5
262
330
2
100
AcDbEntity
  8
0
100
AcDbLine
 10
-5056.102761626236
 20
6294.193990753804
 30
0.0
 11
-5082.102761626236
 21
6294.193990753804
 31
0.0
  0
ARC
  5
263
330
2
100
AcDbEntity
  8
0
100
AcDbCircle
 10
-5056.102761626236
 20
6291.693990753802
 30
0.0
 40
2.5
100
AcDbArc
 50
0.0
 51
90.0
  0
LINE
  5
264
330
2
100
AcDbEntity
  8
0
100
AcDbLine
 10
-5053.602761626237
 20
6291.693990753802
 30
0.0
 11
-5053.602761626237
 21
6291.193990753804
 31
0.0
  0
LINE
  5
265
330
2
100
AcDbEntity
  8
0
100
AcDbLine
 10
-5047.102761626236
 20
6286.193990753804
 30
0.0
 11
-5047.602761626237
 21
6286.193990753804
 31
0.0
  0
LINE
  5
266
330
2
100
AcDbEntity
  8
0
100
AcDbLine
 10
-5082.102761626236
 20
6208.193990753803
 30
0.0
 11
-5082.102761626236
 21
6213.364990753802
 31
0.0
  0
LINE
  5
267
330
2
100
AcDbEntity
  8
0
100
AcDbLine
 10
-5050.102761626236
 20
6211.193990753804
 30
0.0
 11
-5053.602761626237
 21
6211.193990753804
 31
0.0
  0
ARC
  5
268
330
2
100
AcDbEntity
  8
0
100
AcDbCircle
 10
-5050.102761626236
 20
6213.693990753803
 30
0.0
 40
2.5
100
AcDbArc
 50
270.0
 51
0.0
  0
LINE
  5
269
330
2
100
AcDbEntity
  8
0
100
AcDbLine
 10
-5056.102761626236
 20
6208.193990753803
 30
0.0
 11
-5062.302761626237
 21
6208.193990753803
 31
0.0
  0
LINE
  5
26A
330
2
100
AcDbEntity
  8
0
100
AcDbLine
 10
-5067.902761626232
 20
6208.193990753803
 30
0.0
 11
-5082.102761626236
 21
6208.193990753803
 31
0.0
  0
LINE
  5
26B
330
2
100
AcDbEntity
  8
0
100
AcDbLine
 10
-5067.902761626232
 20
6213.364990753802
 30
0.0
 11
-5082.102761626236
 21
6213.364990753802
 31
0.0
  0
ARC
  5
26C
330
2
100
AcDbEntity
  8
0
100
AcDbCircle
 10
-5056.102761626236
 20
6210.693990753803
 30
0.0
 40
2.5
100
AcDbArc
 50
270.0
 51
0.0
  0
LINE
  5
26D
330
2
100
AcDbEntity
  8
0
100
AcDbLine
 10
-5047.602761626237
 20
6213.693990753803
 30
0.0
 11
-5047.602761626237
 21
6288.693990753802
 31
0.0
  0
LINE
  5
26E
330
2
100
AcDbEntity
  8
0
100
AcDbLine
 10
-5053.602761626237
 20
6210.693990753803
 30
0.0
 11
-5053.602761626237
 21
6211.193990753804
 31
0.0
  0
LINE
  5
26F
330
2
100
AcDbEntity
  8
0
100
AcDbLine
 10
-5047.102761626236
 20
6216.193990753803
 30
0.0
 11
-5047.602761626237
 21
6216.193990753803
 31
0.0
  0
LINE
  5
270
330
2
100
AcDbEntity
  8
0
100
AcDbLine
 10
-5162.102761626236
 20
6211.193990753804
 30
0.0
 11
-5162.102761626277
 21
6291.1939907538
 31
0.0
  0
ARC
  5
271
330
2
100
AcDbEntity
  8
0
100
AcDbCircle
 10
-5066.602761626236
 20
6173.357335065187
 30
0.0
 40
40.00765568861701
100
AcDbArc
 50
71.03819276406193
 51
83.82996400579804
  0
ELLIPSE
  5
272
330
2
100
AcDbEntity
  8
0
100
AcDbEllipse
 10
-5065.102761626236
 20
6223.634924225432
 30
0.0
 11
8.999999999999431
 21
0.000000000001883
 31
0.0
210
0.0
220
0.0
230
1.0
 40
0.707111111111109
 41
1.570796326794748
 42
3.860379041339666
  0
SPLINE
  5
273
330
2
100
AcDbEntity
  8
0
100
AcDbSpline
210
0.0
220
0.0
230
1.0
 70
     8
 71
     3
 72
    26
 73
    22
 74
     0
 42
0.0000000001
 43
0.0000000001
 40
3.141592653589792
 40
3.141592653589792
 40
3.141592653589792
 40
3.141592653589792
 40
3.467218823503951
 40
3.467218823503951
 40
3.79284499341811
 40
3.79284499341811
 40
4.118471163332269
 40
4.118471163332269
 40
4.444097333246428
 40
4.444097333246428
 40
4.769723503160587
 40
4.769723503160587
 40
5.095349673074747
 40
5.095349673074747
 40
5.420975842988905
 40
5.420975842988905
 40
5.746602012903065
 40
5.746602012903065
 40
6.072228182817222
 40
6.072228182817222
 40
6.283185307179585
 40
6.283185307179585
 40
6.283185307179585
 40
6.283185307179585
 10
-5057.602761626236
 20
6222.909990753804
 30
0.0
 10
-5057.602761626236
 20
6223.370501339299
 30
0.0
 10
-5057.70680675933
 20
6223.833530770342
 30
0.0
 10
-5058.151810185901
 20
6224.765476197934
 30
0.0
 10
-5058.496294460951
 20
6225.233235026757
 30
0.0
 10
-5059.433751292417
 20
6226.10295620279
 30
0.0
 10
-5060.026153719584
 20
6226.502824994021
 30
0.0
 10
-5061.398980148857
 20
6227.158312677939
 30
0.0
 10
-5062.178435815193
 20
6227.413543010772
 30
0.0
 10
-5063.828044445407
 20
6227.734225022413
 30
0.0
 10
-5064.697608287079
 20
6227.799673889761
 30
0.0
 10
-5066.417712129275
 20
6227.729861135426
 30
0.0
 10
-5067.26775152536
 20
6227.594594865093
 30
0.0
 10
-5068.84191845751
 20
6227.14617833958
 30
0.0
 10
-5069.565352981001
 20
6226.833081500721
 30
0.0
 10
-5070.798996960956
 20
6226.085435391995
 30
0.0
 10
-5071.308129705874
 20
6225.651698203572
 30
0.0
 10
-5072.071878687776
 20
6224.743728819878
 30
0.0
 10
-5072.327007731532
 20
6224.272159226064
 30
0.0
 10
-5072.558730069788
 20
6223.507001154641
 30
0.0
 10
-5072.602761626236
 20
6223.208332833863
 30
0.0
 10
-5072.602761626236
 20
6222.909990753804
 30
0.0
  0
SPLINE
  5
274
330
2
100
AcDbEntity
  8
0
100
AcDbSpline
210
0.0
220
0.0
230
1.0
 70
     8
 71
     3
 72
    42
 73
    38
 74
     0
 42
0.0000000001
 43
0.0000000001
 40
1.932891985193865
 40
1.932891985193865
 40
1.932891985193865
 40
1.932891985193865
 40
2.112657033612368
 40
2.112657033612368
 40
2.446561407782708
 40
2.446561407782708
 40
2.780465781953049
 40
2.780465781953049
 40
3.11437015612339
 40
3.11437015612339
 40
3.448274530293731
 40
3.448274530293731
 40
3.782178904464071
 40
3.782178904464071
 40
4.116083278634412
 40
4.116083278634412
 40
4.449987652804751
 40
4.449987652804751
 40
4.783892026975093
 40
4.783892026975093
 40
5.117796401145433
 40
5.117796401145433
 40
5.451700775315773
 40
5.451700775315773
 40
5.785605149486113
 40
5.785605149486113
 40
6.119509523656454
 40
6.119509523656454
 40
6.453413897826794
 40
6.453413897826794
 40
6.787318271997134
 40
6.787318271997134
 40
7.121222646167476
 40
7.121222646167476
 40
7.455127020337816
 40
7.455127020337816
 40
7.491888099862732
 40
7.491888099862732
 40
7.491888099862732
 40
7.491888099862732
 10
-5062.302761626237
 20
6216.993604007861
 30
0.0
 10
-5061.863970746679
 20
6217.111193007736
 30
0.0
 10
-5061.443249243468
 20
6217.255842116084
 30
0.0
 10
-5060.315723350035
 20
6217.735777835383
 30
0.0
 10
-5059.674426578165
 20
6218.128724765684
 30
0.0
 10
-5058.646814788533
 20
6219.000168372923
 30
0.0
 10
-5058.261401299091
 20
6219.476621309
 30
0.0
 10
-5057.751317175185
 20
6220.431600853809
 30
0.0
 10
-5057.623172691559
 20
6220.908181993253
 30
0.0
 10
-5057.586797934302
 20
6221.852791910039
 30
0.0
 10
-5057.677710330776
 20
6222.326387607973
 30
0.0
 10
-5058.105656102751
 20
6223.281964557529
 30
0.0
 10
-5058.446879328879
 20
6223.763083015921
 30
0.0
 10
-5059.391827926138
 20
6224.659425844436
 30
0.0
 10
-5059.995003403212
 20
6225.072203249091
 30
0.0
 10
-5061.399958514828
 20
6225.746491013516
 30
0.0
 10
-5062.200637672118
 20
6226.007548954942
 30
0.0
 10
-5063.895449670614
 20
6226.329438026335
 30
0.0
 10
-5064.788918450686
 20
6226.390266643232
 30
0.0
 10
-5066.550816875139
 20
6226.301031875705
 30
0.0
 10
-5067.418675700861
 20
6226.150962234815
 30
0.0
 10
-5069.014722319429
 20
6225.66659513272
 30
0.0
 10
-5069.742094947105
 20
6225.332379825317
 30
0.0
 10
-5070.965786764467
 20
6224.543387453405
 30
0.0
 10
-5071.460887043016
 20
6224.089708054476
 30
0.0
 10
-5072.182839871079
 20
6223.149844024582
 30
0.0
 10
-5072.410873742607
 20
6222.666705199171
 30
0.0
 10
-5072.632702735726
 20
6221.716934212006
 30
0.0
 10
-5072.63060686049
 20
6221.247259595411
 30
0.0
 10
-5072.399640729121
 20
6220.297136448732
 30
0.0
 10
-5072.166578317843
 20
6219.813826198496
 30
0.0
 10
-5071.434341326552
 20
6218.875289579254
 30
0.0
 10
-5070.93408864933
 20
6218.423110256253
 30
0.0
 10
-5069.701486377351
 20
6217.638770689742
 30
0.0
 10
-5068.970356746493
 20
6217.307669956252
 30
0.0
 10
-5068.081481238674
 20
6217.042778341049
 30
0.0
 10
-5067.992498944426
 20
6217.017611548667
 30
0.0
 10
-5067.902761626235
 20
6216.993575559485
 30
0.0
  0
ELLIPSE
  5
275
330
2
100
AcDbEntity
  8
0
100
AcDbEllipse
 10
-5065.102761626236
 20
6221.495990753802
 30
0.0
 11
3.999999999999212
 21
0.0000000000002969
 31
0.0
210
0.0
220
0.0
230
1.0
 40
0.7070000000000191
 41
-0.7953988301836218
 42
3.936991483774582
  0
LINE
  5
276
330
2
100
AcDbEntity
  8
0
100
AcDbLine
 10
-5072.602761626236
 20
6221.495990753802
 30
0.0
 11
-5072.602761626236
 21
6222.909990753804
 31
0.0
  0
LINE
  5
277
330
2
100
AcDbEntity
  8
0
100
AcDbLine
 10
-5057.602761626236
 20
6221.495990753802
 30
0.0
 11
-5057.602761626236
 21
6222.909990753804
 31
0.0
  0
LINE
  5
278
330
2
100
AcDbEntity
  8
0
100
AcDbLine
 10
-5065.102761626236
 20
6229.998924225434
 30
0.0
 11
-5047.602761626237
 21
6229.998924225434
 31
0.0
  0
LINE
  5
279
330
2
100
AcDbEntity
  8
0
100
AcDbLine
 10
-5061.43211681271
 20
6217.271002164085
 30
0.0
 11
-5047.602761626237
 21
6217.271002164085
 31
0.0
  0
ARC
  5
27A
330
2
100
AcDbEntity
  8
0
100
AcDbCircle
 10
-5050.102761626236
 20
6241.693990753804
 30
0.0
 40
2.5
100
AcDbArc
 50
0.0
 51
90.0
  0
LINE
  5
27B
330
2
100
AcDbEntity
  8
0
100
AcDbLine
 10
-5048.002761626234
 20
6248.193990753803
 30
0.0
 11
-5048.002761626231
 21
6254.193990753798
 31
0.0
  0
LINE
  5
27C
330
2
100
AcDbEntity
  8
0
100
AcDbLine
 10
-5051.502761626235
 20
6246.693990753803
 30
0.0
 11
-5051.502761626229
 21
6255.693990753801
 31
0.0
  0
LINE
  5
27D
330
2
100
AcDbEntity
  8
0
100
AcDbLine
 10
-5053.002761626235
 20
6246.693990753803
 30
0.0
 11
-5053.002761626229
 21
6255.693990753801
 31
0.0
  0
LINE
  5
27E
330
2
100
AcDbEntity
  8
0
100
AcDbLine
 10
-5053.602761626237
 20
6246.693990753803
 30
0.0
 11
-5049.502761626234
 21
6246.693990753803
 31
0.0
  0
ARC
  5
27F
330
2
100
AcDbEntity
  8
0
100
AcDbCircle
 10
-5049.502761626234
 20
6248.193990753803
 30
0.0
 40
1.5
100
AcDbArc
 50
270.0
 51
0.0
  0
LINE
  5
280
330
2
100
AcDbEntity
  8
0
100
AcDbLine
 10
-5144.102761626236
 20
6220.193990753802
 30
0.0
 11
-5100.102761626236
 21
6220.193990753802
 31
0.0
  0
LINE
  5
281
330
2
100
AcDbEntity
  8
0
100
AcDbLine
 10
-5098.102761626236
 20
6222.193990753804
 30
0.0
 11
-5098.102761626236
 21
6280.193990753804
 31
0.0
  0
ARC
  5
282
330
2
100
AcDbEntity
  8
0
100
AcDbCircle
 10
-5100.102761626236
 20
6222.193990753804
 30
0.0
 40
2.0
100
AcDbArc
 50
270.0
 51
0.0
  0
LINE
  5
283
330
2
100
AcDbEntity
  8
0
100
AcDbLine
 10
-5146.102761626236
 20
6222.193990753804
 30
0.0
 11
-5146.102761626236
 21
6280.193990753804
 31
0.0
  0
ARC
  5
284
330
2
100
AcDbEntity
  8
0
100
AcDbCircle
 10
-5144.102761626236
 20
6222.193990753804
 30
0.0
 40
2.0
100
AcDbArc
 50
180.0
 51
270.0
  0
LINE
  5
285
330
2
100
AcDbEntity
  8
0
100
AcDbLine
 10
-5128.102761626236
 20
6220.193990753802
 30
0.0
 11
-5128.102761626236
 21
6282.193990753803
 31
0.0
  0
LINE
  5
286
330
2
100
AcDbEntity
  8
0
100
AcDbLine
 10
-5138.602761626238
 20
6220.193990753802
 30
0.0
 11
-5138.602761626238
 21
6282.193990753803
 31
0.0
  0
HATCH
  5
287
330
2
100
AcDbEntity
  8
0
100
AcDbHatch
 10
0.0
 20
0.0
 30
0.0
210
0.0
220
0.0
230
1.0
  2
SOLID
 70
     1
 71
     0
 91
        3
 92
        7
 72
     1
 73
     1
 93
       14
 10
-5130.34097247965
 20
6224.612309267343
 42
0.0937143382696255
 10
-5130.758381985881
 20
6226.82283558313
 42
0.0
 10
-5132.729448793412
 20
6226.822835583132
 42
-0.3419987131189617
 10
-5133.188091558093
 20
6227.178098741026
 42
0.8810189742401522
 10
-5133.498867216495
 20
6227.138624598758
 42
0.0
 10
-5133.498867216495
 20
6227.138625056817
 42
0.0
 10
-5133.498867216495
 20
6225.322835583131
 42
0.8810176860282405
 10
-5133.188091558093
 20
6225.28336189892
 42
-0.3419987131199286
 10
-5132.729448793412
 20
6225.638625056816
 42
0.0
 10
-5131.282276983271
 20
6225.638625056816
 42
-1.140543588145414
 10
-5135.472551427021
 20
6225.085993477861
 42
-0.2430703534513821
 10
-5134.697550855435
 20
6226.585993477868
 42
0.0
 10
-5136.172217539897
 20
6226.585993477868
 42
-0.2403282878310472
 10
-5136.132858184573
 20
6225.869583032787
 42
1.201119850359529
 97
        0
 92
        7
 72
     1
 73
     1
 93
       14
 10
-5130.34097247965
 20
6232.507046109449
 42
0.0937143382697012
 10
-5130.758381985881
 20
6234.717572425236
 42
0.0
 10
-5132.729448793412
 20
6234.717572425236
 42
-0.3419987131189617
 10
-5133.188091558093
 20
6235.072835583131
 42
0.8810189742401522
 10
-5133.498867216495
 20
6235.033361440862
 42
0.0
 10
-5133.498867216495
 20
6235.033361898923
 42
0.0
 10
-5133.498867216495
 20
6233.217572425236
 42
0.881017686029679
 10
-5133.188091558093
 20
6233.178098741027
 42
-0.3419987131193316
 10
-5132.729448793412
 20
6233.533361898921
 42
0.0
 10
-5131.282276983271
 20
6233.533361898921
 42
-1.140543588145414
 10
-5135.472551427021
 20
6232.980730319967
 42
-0.2430703534513821
 10
-5134.697550855435
 20
6234.480730319974
 42
0.0
 10
-5136.172217539897
 20
6234.480730319974
 42
-0.2403282878310472
 10
-5136.132858184573
 20
6233.764319874893
 42
1.201119850359529
 97
        0
 92
        7
 72
     1
 73
     1
 93
       25
 10
-5130.34097247965
 20
6240.789800868686
 42
0.0
 10
-5130.340972479655
 20
6240.806598181117
 42
0.0
 10
-5135.393604058601
 20
6242.849151372606
 42
0.0
 10
-5131.41615274586
 20
6242.849151372606
 42
-0.3419987131199597
 10
-5130.651748138058
 20
6242.257046109447
 42
0.8810176860694333
 10
-5130.34097247965
 20
6242.296519793658
 42
0.0
 10
-5130.34097247965
 20
6244.585993477868
 42
0.8810176860694735
 10
-5130.651748138058
 20
6244.62546716208
 42
-0.3419987131199634
 10
-5131.41615274586
 20
6244.033361898921
 42
0.0
 10
-5135.265792213446
 20
6244.033361898921
 42
-0.3419987131199597
 10
-5136.030196821252
 20
6244.62546716208
 42
0.8810176860694333
 10
-5136.340972479651
 20
6244.585993477868
 42
0.0
 10
-5136.340972479651
 20
6242.612309267343
 42
0.0
 10
-5132.630446163865
 20
6241.112309267343
 42
0.0
 10
-5136.340972479651
 20
6239.296519793658
 42
0.0
 10
-5136.340972479651
 20
6237.559677688394
 42
0.8810176860694735
 10
-5136.030196821252
 20
6237.520204004185
 42
-0.3419987131199635
 10
-5135.265792213446
 20
6238.112309267343
 42
0.0
 10
-5131.41615274586
 20
6238.112309267343
 42
-0.3419987131199597
 10
-5130.651748138058
 20
6237.520204004185
 42
0.8810176860694333
 10
-5130.34097247965
 20
6237.559677688394
 42
0.0
 10
-5130.34097247965
 20
6239.217572425237
 42
0.8810176860694735
 10
-5130.651748138058
 20
6239.257046109448
 42
-0.3419987131199634
 10
-5131.41615274586
 20
6238.664940846289
 42
0.0
 10
-5134.683077742812
 20
6238.664940846289
 42
0.0
 97
        0
 75
     0
 76
     1
 47
0.0347943292785178
 98
        3
 10
-5132.326479964365
 20
6222.385850822154
 10
-5131.665387916353
 20
6230.705606828903
 10
-5132.813601112792
 20
6240.243740857652
1001
ACAD
1010
0.0
1020
0.0
1030
0.0
  0
LINE
  5
288
330
2
100
AcDbEntity
  8
0
100
AcDbLine
 10
-5130.34097247965
 20
6242.296519793658
 30
0.0
 11
-5130.34097247965
 21
6244.585993477868
 31
0.0
  0
LINE
  5
289
330
2
100
AcDbEntity
  8
0
100
AcDbLine
 10
-5131.41615274586
 20
6244.033361898921
 30
0.0
 11
-5135.265792213446
 21
6244.033361898921
 31
0.0
  0
LINE
  5
28A
330
2
100
AcDbEntity
  8
0
100
AcDbLine
 10
-5135.393604058601
 20
6242.849151372606
 30
0.0
 11
-5131.41615274586
 21
6242.849151372606
 31
0.0
  0
ARC
  5
28B
330
2
100
AcDbEntity
  8
0
100
AcDbCircle
 10
-5130.498867216495
 20
6244.585993477868
 30
0.0
 40
0.1578947368421076
100
AcDbArc
 50
0.0
 51
165.522487814065
  0
ARC
  5
28C
330
2
100
AcDbEntity
  8
0
100
AcDbCircle
 10
-5131.41615274586
 20
6244.822835583132
 30
0.0
 40
0.7894736842105267
100
AcDbArc
 50
270.0
 51
345.5224878140646
  0
ARC
  5
28D
330
2
100
AcDbEntity
  8
0
100
AcDbCircle
 10
-5130.498867216495
 20
6242.296519793658
 30
0.0
 40
0.1578947368421076
100
AcDbArc
 50
194.477512185935
 51
0.0
  0
ARC
  5
28E
330
2
100
AcDbEntity
  8
0
100
AcDbCircle
 10
-5131.41615274586
 20
6242.059677688394
 30
0.0
 40
0.7894736842105267
100
AcDbArc
 50
14.47751218593498
 51
90.0
  0
ARC
  5
28F
330
2
100
AcDbEntity
  8
0
100
AcDbCircle
 10
-5136.183077742811
 20
6244.585993477868
 30
0.0
 40
0.1578947368421076
100
AcDbArc
 50
14.47751218593498
 51
180.0
  0
ARC
  5
290
330
2
100
AcDbEntity
  8
0
100
AcDbCircle
 10
-5135.265792213446
 20
6244.822835583132
 30
0.0
 40
0.7894736842105267
100
AcDbArc
 50
194.477512185935
 51
270.0
  0
LINE
  5
291
330
2
100
AcDbEntity
  8
0
100
AcDbLine
 10
-5136.340972479651
 20
6242.612309267343
 30
0.0
 11
-5136.340972479651
 21
6244.585993477868
 31
0.0
  0
LINE
  5
292
330
2
100
AcDbEntity
  8
0
100
AcDbLine
 10
-5132.630446163865
 20
6241.112309267343
 30
0.0
 11
-5136.340972479651
 21
6242.612309267343
 31
0.0
  0
LINE
  5
293
330
2
100
AcDbEntity
  8
0
100
AcDbLine
 10
-5130.34097247965
 20
6240.789800868686
 30
0.0
 11
-5130.34097247965
 21
6240.806598181116
 31
0.0
  0
LINE
  5
294
330
2
100
AcDbEntity
  8
0
100
AcDbLine
 10
-5130.34097247965
 20
6237.559677688394
 30
0.0
 11
-5130.34097247965
 21
6239.217572425237
 31
0.0
  0
LINE
  5
295
330
2
100
AcDbEntity
  8
0
100
AcDbLine
 10
-5134.683077742812
 20
6238.664940846289
 30
0.0
 11
-5131.41615274586
 21
6238.664940846289
 31
0.0
  0
ARC
  5
296
330
2
100
AcDbEntity
  8
0
100
AcDbCircle
 10
-5131.41615274586
 20
6239.454414530501
 30
0.0
 40
0.7894736842105267
100
AcDbArc
 50
270.0
 51
345.5224878140646
  0
ARC
  5
297
330
2
100
AcDbEntity
  8
0
100
AcDbCircle
 10
-5130.498867216495
 20
6239.217572425237
 30
0.0
 40
0.1578947368421076
100
AcDbArc
 50
0.0
 51
165.522487814065
  0
LINE
  5
298
330
2
100
AcDbEntity
  8
0
100
AcDbLine
 10
-5131.41615274586
 20
6238.112309267343
 30
0.0
 11
-5135.265792213446
 21
6238.112309267343
 31
0.0
  0
ARC
  5
299
330
2
100
AcDbEntity
  8
0
100
AcDbCircle
 10
-5131.41615274586
 20
6237.322835583131
 30
0.0
 40
0.7894736842105267
100
AcDbArc
 50
14.47751218593498
 51
90.0
  0
ARC
  5
29A
330
2
100
AcDbEntity
  8
0
100
AcDbCircle
 10
-5130.498867216495
 20
6237.559677688394
 30
0.0
 40
0.1578947368421076
100
AcDbArc
 50
194.477512185935
 51
0.0
  0
LINE
  5
29B
330
2
100
AcDbEntity
  8
0
100
AcDbLine
 10
-5134.683077742812
 20
6238.664940846289
 30
0.0
 11
-5130.34097247965
 21
6240.789800868686
 31
0.0
  0
ARC
  5
29C
330
2
100
AcDbEntity
  8
0
100
AcDbCircle
 10
-5136.183077742811
 20
6237.559677688394
 30
0.0
 40
0.1578947368421076
100
AcDbArc
 50
180.0
 51
345.5224878140646
  0
ARC
  5
29D
330
2
100
AcDbEntity
  8
0
100
AcDbCircle
 10
-5135.265792213446
 20
6237.322835583131
 30
0.0
 40
0.7894736842105267
100
AcDbArc
 50
90.0
 51
165.522487814065
  0
LINE
  5
29E
330
2
100
AcDbEntity
  8
0
100
AcDbLine
 10
-5136.340972479651
 20
6237.559677688394
 30
0.0
 11
-5136.340972479651
 21
6239.296519793658
 31
0.0
  0
ARC
  5
29F
330
2
100
AcDbEntity
  8
0
100
AcDbCircle
 10
-5133.352761626237
 20
6224.707276782787
 30
0.0
 40
3.013286028982678
100
AcDbArc
 50
156.8155745922431
 51
358.1939520675011
  0
LINE
  5
2A0
330
2
100
AcDbEntity
  8
0
100
AcDbLine
 10
-5134.697550855435
 20
6226.585993477868
 30
0.0
 11
-5136.172217539897
 21
6226.585993477868
 31
0.0
  0
ARC
  5
2A1
330
2
100
AcDbEntity
  8
0
100
AcDbCircle
 10
-5132.729448793412
 20
6225.164940846289
 30
0.0
 40
0.4736842105263161
100
AcDbArc
 50
90.0
 51
165.522487814065
  0
ARC
  5
2A2
330
2
100
AcDbEntity
  8
0
100
AcDbCircle
 10
-5133.340972479651
 20
6225.322835583131
 30
0.0
 40
0.1578947368420963
100
AcDbArc
 50
180.0
 51
345.5224878140646
  0
ARC
  5
2A3
330
2
100
AcDbEntity
  8
0
100
AcDbCircle
 10
-5132.729448793412
 20
6227.296519793657
 30
0.0
 40
0.4736842105263161
100
AcDbArc
 50
194.477512185935
 51
270.0
  0
LINE
  5
2A4
330
2
100
AcDbEntity
  8
0
100
AcDbLine
 10
-5133.498867216495
 20
6225.322835583131
 30
0.0
 11
-5133.498867216495
 21
6227.138625056817
 31
0.0
  0
LINE
  5
2A5
330
2
100
AcDbEntity
  8
0
100
AcDbLine
 10
-5131.282276983271
 20
6225.638625056816
 30
0.0
 11
-5132.729448793412
 21
6225.638625056816
 31
0.0
  0
ARC
  5
2A6
330
2
100
AcDbEntity
  8
0
100
AcDbCircle
 10
-5133.340972479651
 20
6225.085993477868
 30
0.0
 40
2.131578947368458
100
AcDbArc
 50
180.0
 51
15.02611375910442
  0
LINE
  5
2A7
330
2
100
AcDbEntity
  8
0
100
AcDbLine
 10
-5130.758381985881
 20
6226.82283558313
 30
0.0
 11
-5132.729448793412
 21
6226.822835583132
 31
0.0
  0
ARC
  5
2A8
330
2
100
AcDbEntity
  8
0
100
AcDbCircle
 10
-5133.340972479651
 20
6227.138625056817
 30
0.0
 40
0.1578947368420963
100
AcDbArc
 50
14.47751218593498
 51
180.0
  0
LINE
  5
2A9
330
2
100
AcDbEntity
  8
0
100
AcDbLine
 10
-5130.34097247965
 20
6240.806598181116
 30
0.0
 11
-5135.393604058601
 21
6242.849151372606
 31
0.0
  0
LINE
  5
2AA
330
2
100
AcDbEntity
  8
0
100
AcDbLine
 10
-5136.340972479651
 20
6239.296519793658
 30
0.0
 11
-5132.630446163865
 21
6241.112309267343
 31
0.0
  0
ARC
  5
2AB
330
2
100
AcDbEntity
  8
0
100
AcDbCircle
 10
-5136.394867734918
 20
6224.613836150356
 30
0.0
 40
6.053895447818247
100
AcDbArc
 50
359.9855491469638
 51
21.40074743271766
  0
ARC
  5
2AC
330
2
100
AcDbEntity
  8
0
100
AcDbCircle
 10
-5136.854735928149
 20
6226.189209723465
 30
0.0
 40
0.7894736842105267
100
AcDbArc
 50
338.0090682493486
 51
30.17168409224102
  0
ARC
  5
2AD
330
2
100
AcDbEntity
  8
0
100
AcDbCircle
 10
-5133.633439308607
 20
6225.085993477868
 30
0.0
 40
1.839112118411773
100
AcDbArc
 50
125.3521829317296
 51
180.0
  0
ARC
  5
2AE
330
2
100
AcDbEntity
  8
0
100
AcDbCircle
 10
-5133.633439308607
 20
6232.980730319974
 30
0.0
 40
1.839112118411773
100
AcDbArc
 50
125.3521829317296
 51
180.0
  0
LINE
  5
2AF
330
2
100
AcDbEntity
  8
0
100
AcDbLine
 10
-5134.697550855435
 20
6234.480730319974
 30
0.0
 11
-5136.172217539897
 21
6234.480730319974
 31
0.0
  0
ARC
  5
2B0
330
2
100
AcDbEntity
  8
0
100
AcDbCircle
 10
-5133.340972479651
 20
6232.980730319974
 30
0.0
 40
2.131578947368458
100
AcDbArc
 50
180.0
 51
15.02611375910442
  0
ARC
  5
2B1
330
2
100
AcDbEntity
  8
0
100
AcDbCircle
 10
-5133.352761626237
 20
6232.602013624893
 30
0.0
 40
3.013286028982678
100
AcDbArc
 50
156.8155745922431
 51
358.1939520675011
  0
ARC
  5
2B2
330
2
100
AcDbEntity
  8
0
100
AcDbCircle
 10
-5136.854735928149
 20
6234.083946565569
 30
0.0
 40
0.7894736842105267
100
AcDbArc
 50
338.0090682493486
 51
30.17168409224102
  0
ARC
  5
2B3
330
2
100
AcDbEntity
  8
0
100
AcDbCircle
 10
-5136.394867734918
 20
6232.508572992461
 30
0.0
 40
6.053895447818247
100
AcDbArc
 50
359.9855491469638
 51
21.40074743271766
  0
LINE
  5
2B4
330
2
100
AcDbEntity
  8
0
100
AcDbLine
 10
-5130.758381985881
 20
6234.717572425236
 30
0.0
 11
-5132.729448793412
 21
6234.717572425236
 31
0.0
  0
ARC
  5
2B5
330
2
100
AcDbEntity
  8
0
100
AcDbCircle
 10
-5133.340972479651
 20
6235.033361898921
 30
0.0
 40
0.1578947368420963
100
AcDbArc
 50
14.47751218593498
 51
180.0
  0
LINE
  5
2B6
330
2
100
AcDbEntity
  8
0
100
AcDbLine
 10
-5131.282276983271
 20
6233.533361898921
 30
0.0
 11
-5132.729448793412
 21
6233.533361898921
 31
0.0
  0
LINE
  5
2B7
330
2
100
AcDbEntity
  8
0
100
AcDbLine
 10
-5133.498867216495
 20
6233.217572425236
 30
0.0
 11
-5133.498867216495
 21
6235.033361898921
 31
0.0
  0
ARC
  5
2B8
330
2
100
AcDbEntity
  8
0
100
AcDbCircle
 10
-5132.729448793412
 20
6235.191256635761
 30
0.0
 40
0.4736842105263161
100
AcDbArc
 50
194.477512185935
 51
270.0
  0
ARC
  5
2B9
330
2
100
AcDbEntity
  8
0
100
AcDbCircle
 10
-5133.340972479651
 20
6233.217572425236
 30
0.0
 40
0.1578947368420963
100
AcDbArc
 50
180.0
 51
345.5224878140646
  0
ARC
  5
2BA
330
2
100
AcDbEntity
  8
0
100
AcDbCircle
 10
-5132.729448793412
 20
6233.059677688395
 30
0.0
 40
0.4736842105263161
100
AcDbArc
 50
90.0
 51
165.522487814065
  0
TEXT
  5
2BB
330
2
100
AcDbEntity
  8
0
100
AcDbText
 10
-5099.602761626236
 20
6224.193990753803
 30
0.0
 40
2.0
  1
GOOOOOO
 50
90.0
  7
유형1
100
AcDbText
  0
LINE
  5
2BC
330
2
100
AcDbEntity
  8
0
100
AcDbLine
 10
-5128.102761626236
 20
6246.193990753804
 30
0.0
 11
-5138.602761626238
 21
6246.193990753804
 31
0.0
  0
LINE
  5
2BD
330
2
100
AcDbEntity
  8
0
100
AcDbLine
 10
-5173.602761626236
 20
6210.193990753804
 30
0.0
 11
-5173.602761626236
 21
6292.193990753804
 31
0.0
  0
LINE
  5
2BE
330
2
100
AcDbEntity
  8
0
100
AcDbLine
 10
-5173.102761626236
 20
6209.693990753804
 30
0.0
 11
-5173.102761626279
 21
6292.693990753789
 31
0.0
  0
LINE
  5
2BF
330
2
100
AcDbEntity
  8
0
100
AcDbLine
 10
-5162.602761626236
 20
6211.193990753804
 30
0.0
 11
-5162.602761626278
 21
6291.1939907538
 31
0.0
  0
LINE
  5
2C0
330
2
100
AcDbEntity
  8
0
100
AcDbLine
 10
-5164.602761626237
 20
6206.693990753803
 30
0.0
 11
-5164.602761626237
 21
6295.693990753804
 31
0.0
  0
LINE
  5
2C1
330
2
100
AcDbEntity
  8
0
100
AcDbLine
 10
-5171.602761626236
 20
6206.193990753804
 30
0.0
 11
-5171.602761626236
 21
6296.193990753804
 31
0.0
  0
LINE
  5
2C2
330
2
100
AcDbEntity
  8
0
100
AcDbLine
 10
-5165.102761626236
 20
6206.193990753804
 30
0.0
 11
-5171.602761626236
 21
6206.193990753804
 31
0.0
  0
LINE
  5
2C3
330
2
100
AcDbEntity
  8
0
100
AcDbLine
 10
-5173.102761626236
 20
6209.693990753804
 30
0.0
 11
-5171.602761626236
 21
6209.693990753804
 31
0.0
  0
LINE
  5
2C4
330
2
100
AcDbEntity
  8
0
100
AcDbLine
 10
-5173.102761626236
 20
6209.693990753804
 30
0.0
 11
-5173.602761626236
 21
6210.193990753804
 31
0.0
  0
LINE
  5
2C5
330
2
100
AcDbEntity
  8
0
100
AcDbLine
 10
-5162.602761626236
 20
6211.193990753804
 30
0.0
 11
-5164.602761626237
 21
6211.193990753804
 31
0.0
  0
ARC
  5
2C6
330
2
100
AcDbEntity
  8
0
100
AcDbCircle
 10
-5165.102761626236
 20
6206.693990753803
 30
0.0
 40
0.5
100
AcDbArc
 50
270.0
 51
0.0
  0
LINE
  5
2C7
330
2
100
AcDbEntity
  8
0
100
AcDbLine
 10
-5162.102761626236
 20
6211.693990753804
 30
0.0
 11
-5162.602761626236
 21
6211.193990753804
 31
0.0
  0
LINE
  5
2C8
330
2
100
AcDbEntity
  8
0
100
AcDbLine
 10
-5165.102761626236
 20
6296.193990753804
 30
0.0
 11
-5171.602761626236
 21
6296.193990753804
 31
0.0
  0
LINE
  5
2C9
330
2
100
AcDbEntity
  8
0
100
AcDbLine
 10
-5173.102761626236
 20
6292.693990753804
 30
0.0
 11
-5171.602761626236
 21
6292.693990753804
 31
0.0
  0
LINE
  5
2CA
330
2
100
AcDbEntity
  8
0
100
AcDbLine
 10
-5173.602761626236
 20
6292.193990753804
 30
0.0
 11
-5173.102761626236
 21
6292.693990753804
 31
0.0
  0
ARC
  5
2CB
330
2
100
AcDbEntity
  8
0
100
AcDbCircle
 10
-5165.102761626236
 20
6295.693990753804
 30
0.0
 40
0.5
100
AcDbArc
 50
0.0
 51
90.0
  0
LINE
  5
2CC
330
2
100
AcDbEntity
  8
0
100
AcDbLine
 10
-5164.602761626237
 20
6291.193990753804
 30
0.0
 11
-5082.102761626236
 21
6291.193990753804
 31
0.0
  0
DIMENSION
  5
2CD
330
2
100
AcDbEntity
  8
0
100
AcDbDimension
  2
*D7
 10
-5164.602761626237
 20
6313.111896188409
 30
0.0
 11
-5168.102761626236
 21
6315.611896188411
 31
0.0
 71
     5
 42
7.0
  3
STANDARD
100
AcDbAlignedDimension
 13
-5171.602761626236
 23
6296.193990753804
 33
0.0
 14
-5164.602761626237
 24
6295.693990753804
 34
0.0
100
AcDbRotatedDimension
  0
DIMENSION
  5
2DC
330
2
100
AcDbEntity
  8
0
100
AcDbDimension
  2
*D8
 10
-5047.102761626236
 20
6321.452983759058
 30
0.0
 11
-5109.352761626237
 21
6323.95298375906
 31
0.0
 71
     5
 42
124.5
  3
STANDARD
100
AcDbAlignedDimension
 13
-5171.602761626236
 23
6296.193990753804
 33
0.0
 14
-5047.102761626236
 24
6286.193990753804
 34
0.0
100
AcDbRotatedDimension
  0
DIMENSION
  5
2E9
330
2
100
AcDbEntity
  8
0
100
AcDbDimension
  2
*D9
 10
-5284.150467293467
 20
6318.616904874816
 30
0.0
 11
-5329.150467293467
 21
6321.116904874816
 31
0.0
  1
{\fGulim|b0|i0|c129|p50;□}<>
 71
     5
 42
90.0
  3
STANDARD
100
AcDbAlignedDimension
 13
-5374.150467293468
 23
6288.193990753804
 33
0.0
 14
-5284.150467293467
 24
6288.193990753804
 34
0.0
100
AcDbRotatedDimension
  0
LINE
  5
2F6
330
2
100
AcDbEntity
  8
0
100
AcDbLine
 10
-5173.602761626236
 20
6256.193990753804
 30
0.0
 11
-5178.602761626237
 21
6256.193990753804
 31
0.0
  0
LINE
  5
2F7
330
2
100
AcDbEntity
  8
0
100
AcDbLine
 10
-5178.602761626234
 20
6255.193990753802
 30
0.0
 11
-5208.602761626236
 21
6255.193990753802
 31
0.0
  0
LINE
  5
2F8
330
2
100
AcDbEntity
  8
0
100
AcDbLine
 10
-5208.602761626236
 20
6246.693990753803
 30
0.0
 11
-5208.602761626236
 21
6255.193990753802
 31
0.0
  0
LINE
  5
2F9
330
2
100
AcDbEntity
  8
0
100
AcDbLine
 10
-5178.602761626234
 20
6255.193990753802
 30
0.0
 11
-5178.602761626237
 21
6256.193990753804
 31
0.0
  0
LINE
  5
2FA
330
2
100
AcDbEntity
  8
0
100
AcDbLine
 10
-5208.102761626236
 20
6246.193990753804
 30
0.0
 11
-5208.102761626236
 21
6255.193990753802
 31
0.0
  0
LINE
  5
2FB
330
2
100
AcDbEntity
  8
0
100
AcDbLine
 10
-5173.602761626236
 20
6246.193990753804
 30
0.0
 11
-5208.102761626236
 21
6246.193990753804
 31
0.0
  0
DIMENSION
  5
2FC
330
2
100
AcDbEntity
  8
0
100
AcDbDimension
  2
*D10
 10
-5208.602761626236
 20
6321.452983759058
 30
0.0
 11
-5190.102761626236
 21
6323.95298375906
 31
0.0
 71
     5
 42
37.0
  3
STANDARD
100
AcDbAlignedDimension
 13
-5171.602761626236
 23
6296.193990753804
 33
0.0
 14
-5208.602761626236
 24
6255.693990753804
 34
0.0
100
AcDbRotatedDimension
  0
DIMENSION
  5
309
330
2
100
AcDbEntity
  8
0
100
AcDbDimension
  2
*D11
 10
-5231.602761626238
 20
6292.693990753804
 30
0.0
 11
-5235.052761626239
 21
6251.193990753803
 31
0.0
  1
%%C<>{\H0.7x;\S  0^ -0.035;}
 71
     5
 42
83.0
  3
STANDARD
100
AcDbAlignedDimension
 13
-5173.102761626236
 23
6209.693990753804
 33
0.0
 14
-5173.102761626236
 24
6292.693990753804
 34
0.0
 50
90.0
100
AcDbRotatedDimension
  0
LINE
  5
316
330
2
100
AcDbEntity
  8
0
100
AcDbLine
 10
-5208.102761626236
 20
6246.193990753804
 30
0.0
 11
-5208.602761626236
 21
6246.693990753803
 31
0.0
  0
DIMENSION
  5
317
330
2
100
AcDbEntity
  8
0
100
AcDbDimension
  2
*D12
 10
-5178.602761626237
 20
6264.193990753804
 30
0.0
 11
-5193.602761626237
 21
6266.693990753804
 31
0.0
 71
     5
 42
30.0
  3
STANDARD
100
AcDbAlignedDimension
 13
-5208.602761626236
 23
6255.193990753802
 33
0.0
 14
-5178.602761626237
 24
6256.193990753804
 34
0.0
100
AcDbRotatedDimension
  0
DIMENSION
  5
324
330
2
100
AcDbEntity
  8
0
100
AcDbDimension
  2
*D13
 10
-5216.602761626236
 20
6255.193990753802
 30
0.0
 11
-5219.102761626238
 21
6250.693990753802
 31
0.0
 71
     5
 42
9.0
  3
STANDARD
100
AcDbAlignedDimension
 13
-5208.102761626236
 23
6246.193990753804
 33
0.0
 14
-5208.602761626236
 24
6255.193990753802
 34
0.0
 50
90.0
100
AcDbRotatedDimension
  0
DIMENSION
  5
331
330
2
100
AcDbEntity
  8
0
100
AcDbDimension
  2
*D14
 10
-5223.602761626236
 20
6256.193990753804
 30
0.0
 11
-5227.052761626238
 21
6251.193990753803
 31
0.0
  1
%%C<>{\H0.7x;\S  0^ -0.015;}
 71
     5
 42
10.0
  3
STANDARD
100
AcDbAlignedDimension
 13
-5208.102761626236
 23
6246.193990753804
 33
0.0
 14
-5178.602761626237
 24
6256.193990753804
 34
0.0
 50
90.0
100
AcDbRotatedDimension
  0
CIRCLE
  5
340
330
2
100
AcDbEntity
  8
0
100
AcDbCircle
 10
-5329.150467293468
 20
6251.193990753804
 30
0.0
 40
5.0
  0
DIMENSION
  5
341
330
2
100
AcDbEntity
  8
0
100
AcDbDimension
  2
*D15
 10
-5173.602761626236
 20
6305.141136367566
 30
0.0
 11
-5180.602761626236
 21
6305.141136367566
 31
0.0
 70
   128
 71
     5
 42
2.0
  3
STANDARD
100
AcDbAlignedDimension
 13
-5171.602761626236
 23
6296.193990753804
 33
0.0
 14
-5173.602761626236
 24
6292.193990753804
 34
0.0
100
AcDbRotatedDimension
  0
LINE
  5
350
330
2
100
AcDbEntity
  8
0
100
AcDbLine
 10
-5739.026655283328
 20
6254.002225335191
 30
0.0
 11
-5742.526655283327
 21
6254.002225335191
 31
0.0
  0
ARC
  5
351
330
2
100
AcDbEntity
  8
0
100
AcDbCircle
 10
-5739.026655283328
 20
6256.502225335191
 30
0.0
 40
2.5
100
AcDbArc
 50
270.0
 51
0.0
  0
LINE
  5
352
330
2
100
AcDbEntity
  8
0
100
AcDbLine
 10
-5742.526655283327
 20
6251.50222533519
 30
0.0
 11
-5738.426655283326
 21
6251.50222533519
 31
0.0
  0
ARC
  5
353
330
2
100
AcDbEntity
  8
0
100
AcDbCircle
 10
-5738.426655283326
 20
6250.00222533519
 30
0.0
 40
1.5
100
AcDbArc
 50
0.0
 51
90.0
  0
LINE
  5
354
330
2
100
AcDbEntity
  8
0
100
AcDbLine
 10
-5755.526655283327
 20
6284.831225335191
 30
0.0
 11
-5771.026655283328
 21
6284.831225335191
 31
0.0
  0
ARC
  5
355
330
2
100
AcDbEntity
  8
0
100
AcDbCircle
 10
-5755.526655283327
 20
6324.838881023808
 30
0.0
 40
40.00765568861701
100
AcDbArc
 50
270.0
 51
288.9618072359244
  0
LINE
  5
356
330
2
100
AcDbEntity
  8
0
100
AcDbLine
 10
-5050.10276162623
 20
6258.193990753799
 30
0.0
 11
-5053.60276162623
 21
6258.193990753802
 31
0.0
  0
ARC
  5
357
330
2
100
AcDbEntity
  8
0
100
AcDbCircle
 10
-5050.102761626227
 20
6260.693990753799
 30
0.0
 40
2.5
100
AcDbArc
 50
269.9999999999479
 51
359.9999999998958
  0
LINE
  5
358
330
2
100
AcDbEntity
  8
0
100
AcDbLine
 10
-5053.602761626233
 20
6255.693990753803
 30
0.0
 11
-5049.50276162623
 21
6255.693990753798
 31
0.0
  0
ARC
  5
359
330
2
100
AcDbEntity
  8
0
100
AcDbCircle
 10
-5049.502761626231
 20
6254.193990753799
 30
0.0
 40
1.5
100
AcDbArc
 50
359.9999999998958
 51
89.99999999994789
  0
LINE
  5
35A
330
2
100
AcDbEntity
  8
0
100
AcDbLine
 10
-5066.602761626214
 20
6289.022990753805
 30
0.0
 11
-5082.102761626213
 21
6289.022990753816
 31
0.0
  0
ARC
  5
35B
330
2
100
AcDbEntity
  8
0
100
AcDbCircle
 10
-5066.602761626189
 20
6329.030646442423
 30
0.0
 40
40.00765568861701
100
AcDbArc
 50
269.9999999999609
 51
288.9618072358964
  0
LINE
  5
35C
330
2
100
AcDbEntity
  8
0
100
AcDbLine
 10
-5144.102761626236
 20
6282.193990753803
 30
0.0
 11
-5100.102761626236
 21
6282.193990753803
 31
0.0
  0
ARC
  5
35D
330
2
100
AcDbEntity
  8
0
100
AcDbCircle
 10
-5100.102761626236
 20
6280.193990753804
 30
0.0
 40
2.0
100
AcDbArc
 50
0.0
 51
90.0
  0
ARC
  5
35E
330
2
100
AcDbEntity
  8
0
100
AcDbCircle
 10
-5144.102761626236
 20
6280.193990753804
 30
0.0
 40
2.0
100
AcDbArc
 50
90.0
 51
180.0
  0
LINE
  5
35F
330
2
100
AcDbEntity
  8
0
100
AcDbLine
 10
-5833.026655283327
 20
6278.002225335191
 30
0.0
 11
-5789.026655283327
 21
6278.002225335191
 31
0.0
  0
ARC
  5
360
330
2
100
AcDbEntity
  8
0
100
AcDbCircle
 10
-5833.026655283327
 20
6276.002225335191
 30
0.0
 40
2.0
100
AcDbArc
 50
90.0
 51
180.0
  0
ARC
  5
361
330
2
100
AcDbEntity
  8
0
100
AcDbCircle
 10
-5789.026655283327
 20
6276.002225335191
 30
0.0
 40
2.0
100
AcDbArc
 50
0.0
 51
90.0
  0
DIMENSION
  5
362
102
{ACAD_XDICTIONARY
360
363
102
}
102
{ACAD_REACTORS
330
364
102
}
330
2
100
AcDbEntity
  8
0
100
AcDbDimension
  2
*D19
 10
-6042.063853146483
 20
6216.689026052069
 30
0.0
 11
-5940.966806294809
 21
6289.222379870291
 31
0.0
 70
   131
  1
<>%%P0.5
 71
     5
 42
104.000000000005
  3
STANDARD
100
AcDbDiametricDimension
 15
-5957.562730095433
 25
6277.315424618307
 35
0.0
 40
0.0
1001
ACAD_DSTYLE_DIMRADIAL_EXTENSION
1070
   387
1070
     1
1070
   388
1040
0.5248789335016775
1070
   390
1040
0.9008468825814547
  0
DIMENSION
  5
371
102
{ACAD_XDICTIONARY
360
372
102
}
102
{ACAD_REACTORS
330
373
102
}
330
2
100
AcDbEntity
  8
0
100
AcDbDimension
  2
*D20
 10
-5372.652998845865
 20
6222.706629546888
 30
0.0
 11
-5271.724735395316
 21
6288.798872786554
 31
0.0
 70
   131
  1
<>%%P0.5
 71
     5
 42
104.0000000000091
  3
STANDARD
100
AcDbDiametricDimension
 15
-5285.647935741071
 25
6279.681351960714
 35
0.0
 40
0.0
1001
ACAD_DSTYLE_DIMRADIAL_EXTENSION
1070
   387
1070
     1
1070
   388
1040
0.5248789335016772
1070
   390
1040
0.9008468825814599
  0
LEADER
  5
37F
330
2
100
AcDbEntity
  8
0
 62
   123
100
AcDbLeader
  3
STANDARD$7
 76
     3
 10
-5961.949402026957
 20
6207.715977419042
 30
0.0
 10
-5952.091924917898
 20
6190.872626934407
 30
0.0
 10
-5917.848279549282
 20
6190.872626934407
 30
0.0
1001
ACAD
1000
DSTYLE
1002
{
1070
   176
1070
   123
1070
   147
1040
1.0
1070
    77
1070
     1
1002
}
  0
TEXT
  5
380
330
2
100
AcDbEntity
  8
0
 62
     3
100
AcDbText
 10
-5950.186082060444
 20
6192.277209812641
 30
0.0
 40
3.0
  1
4-%%C6.5 HOLE
  7
GHS
100
AcDbText
  0
LEADER
  5
381
330
2
100
AcDbEntity
  8
0
 62
   123
100
AcDbLeader
  3
STANDARD$7
 76
     3
 10
-5291.286577699465
 20
6211.907742837652
 30
0.0
 10
-5281.429100590407
 20
6195.064392353017
 30
0.0
 10
-5247.185455221789
 20
6195.064392353017
 30
0.0
1001
ACAD
1000
DSTYLE
1002
{
1070
   176
1070
   123
1070
   147
1040
1.0
1070
    77
1070
     1
1002
}
  0
TEXT
  5
382
330
2
100
AcDbEntity
  8
0
 62
     3
100
AcDbText
 10
-5279.52325773295
 20
6196.468975231254
 30
0.0
 40
3.0
  1
4-%%C6.5 HOLE
  7
GHS
100
AcDbText
  0
LEADER
  5
383
330
2
100
AcDbEntity
  8
0
 62
   123
100
AcDbLeader
  3
STANDARD$7
 76
     2
 10
-5655.21329162096
 20
6192.00222533519
 30
0.0
 10
-5625.813291620961
 20
6166.002225335191
 30
0.0
1001
ACAD
1000
DSTYLE
1002
{
1070
   176
1070
   123
1070
   147
1040
1.0
1070
    77
1070
     0
1002
}
  0
LEADER
  5
384
330
2
100
AcDbEntity
  8
0
 62
   123
100
AcDbLeader
  3
STANDARD$7
 76
     3
 10
-5649.613291620961
 20
6165.939014781624
 30
0.0
 10
-5625.813291620961
 20
6166.002225335191
 30
0.0
 10
-5566.81329162096
 20
6166.002225335191
 30
0.0
1001
ACAD
1000
DSTYLE
1002
{
1070
   176
1070
   123
1070
   147
1040
1.0
1070
    77
1070
     0
1002
}
  0
MTEXT
  5
385
330
2
100
AcDbEntity
  8
0
 62
     3
100
AcDbMText
 10
-5624.81329162096
 20
6170.002225335191
 30
0.0
 40
3.0
 41
0.0
 71
     1
 72
     5
  1
{\W1;LEAD WIRE UL1015 AWG18\PRED & BLACK}
  7
GHS
 73
     1
 44
1.0
1001
ACAD
1000
MTEXTBEGIN
1070
    73
1070
     1
1070
    44
1040
1.0
1070
    74
1070
     0
1000
MTEXTEND
  0
LINE
  5
386
330
2
100
AcDbEntity
  8
0
  6
CENTER
 62
     1
100
AcDbLine
 10
-4947.201979192511
 20
6205.193990753805
 30
0.0
 11
-4947.201979192511
 21
6297.193990753804
 31
0.0
  0
LINE
  5
387
330
2
100
AcDbEntity
  8
0
  6
CENTER
 62
     1
100
AcDbLine
 10
-4977.201979192511
 20
6242.193990753804
 30
0.0
 11
-4977.201979192511
 21
6260.193990753804
 31
0.0
  0
ARC
  5
388
102
{ACAD_REACTORS
330
420
102
}
330
2
100
AcDbEntity
  8
0
100
AcDbCircle
 10
-4947.201979192511
 20
6251.193990753804
 30
0.0
 40
40.0
100
AcDbArc
 50
235.8069228747973
 51
214.1930771252009
  0
LINE
  5
389
102
{ACAD_REACTORS
330
420
102
}
330
2
100
AcDbEntity
  8
0
  6
CENTER
 62
     1
100
AcDbLine
 10
-4902.201979192511
 20
6251.193990753804
 30
0.0
 11
-4992.201979192511
 21
6251.193990753804
 31
0.0
  0
ARC
  5
38A
330
2
100
AcDbEntity
  8
0
100
AcDbCircle
 10
-4914.323414746962
 20
6239.193990753804
 30
0.0
 40
5.0
100
AcDbArc
 50
339.9489574334699
 51
90.0
  0
LINE
  5
38B
330
2
100
AcDbEntity
  8
0
100
AcDbLine
 10
-4917.201979192512
 20
6244.193990753803
 30
0.0
 11
-4914.323414746962
 21
6244.193990753803
 31
0.0
  0
LINE
  5
38C
330
2
100
AcDbEntity
  8
0
100
AcDbLine
 10
-4917.201979192512
 20
6258.193990753802
 30
0.0
 11
-4914.323414746962
 21
6258.193990753802
 31
0.0
  0
ARC
  5
38D
330
2
100
AcDbEntity
  8
0
100
AcDbCircle
 10
-4914.323414746962
 20
6263.193990753802
 30
0.0
 40
5.0
100
AcDbArc
 50
270.0
 51
20.05104256652987
  0
ARC
  5
38E
330
2
100
AcDbEntity
  8
0
100
AcDbCircle
 10
-4917.201979192512
 20
6251.193990753804
 30
0.0
 40
7.0
100
AcDbArc
 50
90.0
 51
270.0
  0
LINE
  5
38F
330
2
100
AcDbEntity
  8
0
100
AcDbLine
 10
-4968.061629237513
 20
6217.606418647442
 30
0.0
 11
-4980.789551298872
 21
6230.334340708802
 31
0.0
  0
LINE
  5
390
330
2
100
AcDbEntity
  8
0
 62
   123
100
AcDbLine
 10
-4981.49665808006
 20
6231.041447489989
 30
0.0
 11
-4984.325085204807
 21
6233.869874614732
 31
0.0
  0
LINE
  5
391
330
2
100
AcDbEntity
  8
0
  6
CENTER
 62
     1
100
AcDbLine
 10
-4972.304269924635
 20
6226.09170002168
 30
0.0
 11
-4977.607570783533
 21
6220.788399162782
 31
0.0
  0
LINE
  5
392
330
2
100
AcDbEntity
  8
0
100
AcDbLine
 10
-4968.061629237513
 20
6217.606418647442
 30
0.0
 11
-4968.397045720872
 21
6217.271002164086
 31
0.0
  0
ARC
  5
393
330
2
100
AcDbEntity
  8
0
100
AcDbCircle
 10
-4977.201979192511
 20
6251.193990753804
 30
0.0
 40
7.0
100
AcDbArc
 50
270.0
 51
90.0
  0
LINE
  5
394
330
2
100
AcDbEntity
  8
0
100
AcDbLine
 10
-4977.201979192511
 20
6258.193990753802
 30
0.0
 11
-4980.08054363806
 21
6258.193990753802
 31
0.0
  0
LINE
  5
395
330
2
100
AcDbEntity
  8
0
100
AcDbLine
 10
-4977.201979192511
 20
6244.193990753803
 30
0.0
 11
-4980.08054363806
 21
6244.193990753803
 31
0.0
  0
ARC
  5
396
330
2
100
AcDbEntity
  8
0
100
AcDbCircle
 10
-4980.08054363806
 20
6263.193990753802
 30
0.0
 40
5.0
100
AcDbArc
 50
159.9489574334701
 51
270.0
  0
ARC
  5
397
330
2
100
AcDbEntity
  8
0
100
AcDbCircle
 10
-4980.08054363806
 20
6239.193990753804
 30
0.0
 40
5.0
100
AcDbArc
 50
90.0
 51
200.0510425665299
  0
LINE
  5
398
330
2
100
AcDbEntity
  8
0
100
AcDbLine
 10
-4934.201979192511
 20
6210.693990753807
 30
0.0
 11
-4934.201979192511
 21
6213.365430115049
 31
0.0
  0
ARC
  5
399
330
2
100
AcDbEntity
  8
0
100
AcDbCircle
 10
-4936.701979192513
 20
6210.693990753807
 30
0.0
 40
2.5
100
AcDbArc
 50
270.0
 51
0.0
  0
LINE
  5
39A
330
2
100
AcDbEntity
  8
0
100
AcDbLine
 10
-4960.201979192511
 20
6210.693990753807
 30
0.0
 11
-4960.201979192511
 21
6213.365430115049
 31
0.0
  0
LINE
  5
39B
102
{ACAD_REACTORS
330
42F
102
}
330
2
100
AcDbEntity
  8
0
100
AcDbLine
 10
-4936.701979192513
 20
6208.193990753805
 30
0.0
 11
-4957.701979192512
 21
6208.193990753805
 31
0.0
  0
ARC
  5
39C
330
2
100
AcDbEntity
  8
0
100
AcDbCircle
 10
-4957.701979192512
 20
6210.693990753807
 30
0.0
 40
2.5
100
AcDbArc
 50
180.0
 51
270.0
  0
LINE
  5
39D
330
2
100
AcDbEntity
  8
0
100
AcDbLine
 10
-4934.201979192511
 20
6291.693990753802
 30
0.0
 11
-4934.201979192511
 21
6289.02255139256
 31
0.0
  0
LINE
  5
39E
330
2
100
AcDbEntity
  8
0
100
AcDbLine
 10
-4960.201979192511
 20
6291.693990753806
 30
0.0
 11
-4960.201979192511
 21
6289.02255139256
 31
0.0
  0
LINE
  5
39F
330
2
100
AcDbEntity
  8
0
100
AcDbLine
 10
-4936.701979192513
 20
6294.193990753804
 30
0.0
 11
-4957.701979192512
 21
6294.193990753806
 31
0.0
  0
ARC
  5
3A0
102
{ACAD_REACTORS
330
42F
102
}
330
2
100
AcDbEntity
  8
0
100
AcDbCircle
 10
-4936.701979192513
 20
6291.693990753802
 30
0.0
 40
2.5
100
AcDbArc
 50
0.0
 51
90.0
  0
ARC
  5
3A1
330
2
100
AcDbEntity
  8
0
100
AcDbCircle
 10
-4957.701979192512
 20
6291.693990753806
 30
0.0
 40
2.5
100
AcDbArc
 50
90.0
 51
180.0
  0
LINE
  5
3A2
330
2
100
AcDbEntity
  8
0
100
AcDbLine
 10
-4945.701979192511
 20
6225.963686760888
 30
0.0
 11
-4945.701979192511
 21
6234.260296531927
 31
0.0
  0
LINE
  5
3A3
330
2
100
AcDbEntity
  8
0
100
AcDbLine
 10
-4948.701979192511
 20
6225.963686760888
 30
0.0
 11
-4948.701979192511
 21
6234.260296531927
 31
0.0
  0
CIRCLE
  5
3A4
330
2
100
AcDbEntity
  8
0
100
AcDbCircle
 10
-4947.201979192511
 20
6251.193990753804
 30
0.0
 40
15.0
  0
ARC
  5
3A5
330
2
100
AcDbEntity
  8
0
100
AcDbCircle
 10
-4947.201979192511
 20
6251.193990753804
 30
0.0
 40
17.0
100
AcDbArc
 50
275.0620929643585
 51
308.3493345859912
  0
ARC
  5
3A6
330
2
100
AcDbEntity
  8
0
100
AcDbCircle
 10
-4947.201979192511
 20
6251.193990753804
 30
0.0
 40
17.0
100
AcDbArc
 50
231.6506654140088
 51
264.9379070356415
  0
CIRCLE
  5
3A7
330
2
100
AcDbEntity
  8
0
100
AcDbCircle
 10
-4947.201979192511
 20
6221.193990753802
 30
0.0
 40
1.0
  0
ARC
  5
3A8
330
2
100
AcDbEntity
  8
0
100
AcDbCircle
 10
-4947.201979192511
 20
6221.193990753802
 30
0.0
 40
5.0
100
AcDbArc
 50
29.55192387598217
 51
72.54239687633464
  0
ARC
  5
3A9
330
2
100
AcDbEntity
  8
0
100
AcDbCircle
 10
-4947.201979192511
 20
6221.193990753802
 30
0.0
 40
5.0
100
AcDbArc
 50
107.4576031236653
 51
150.4480761240178
  0
ARC
  5
3AA
330
2
100
AcDbEntity
  8
0
100
AcDbCircle
 10
-4947.201979192511
 20
6221.193990753802
 30
0.0
 40
5.0
100
AcDbArc
 50
203.5781784781728
 51
336.4218215218272
  0
LINE
  5
3AB
330
2
100
AcDbEntity
  8
0
100
AcDbLine
 10
-4951.784554887467
 20
6219.193990753804
 30
0.0
 11
-4962.017371818394
 21
6242.640319833104
 31
0.0
  0
LINE
  5
3AC
330
2
100
AcDbEntity
  8
0
100
AcDbLine
 10
-4951.551524609486
 20
6223.660051309766
 30
0.0
 11
-4957.749706277379
 21
6237.861869641875
 31
0.0
  0
LINE
  5
3AD
330
2
100
AcDbEntity
  8
0
100
AcDbLine
 10
-4942.619403497555
 20
6219.193990753804
 30
0.0
 11
-4932.386586566629
 21
6242.640319833093
 31
0.0
  0
LINE
  5
3AE
330
2
100
AcDbEntity
  8
0
100
AcDbLine
 10
-4942.852433775536
 20
6223.660051309766
 30
0.0
 11
-4936.65425210764
 21
6237.861869641875
 31
0.0
  0
LINE
  5
3AF
330
2
100
AcDbEntity
  8
0
100
AcDbLine
 10
-4926.10189498944
 20
6265.108180855937
 30
0.0
 11
-4933.28696981645
 21
6260.959875970417
 31
0.0
  0
LINE
  5
3B0
330
2
100
AcDbEntity
  8
0
100
AcDbLine
 10
-4924.60189498944
 20
6262.510104644583
 30
0.0
 11
-4931.78696981645
 21
6258.361799759065
 31
0.0
  0
ARC
  5
3B1
330
2
100
AcDbEntity
  8
0
100
AcDbCircle
 10
-4947.201979192511
 20
6251.193990753803
 30
0.0
 40
17.0
100
AcDbArc
 50
351.6506654140782
 51
24.93790703566663
  0
CIRCLE
  5
3B2
330
2
100
AcDbEntity
  8
0
100
AcDbCircle
 10
-4921.221217078978
 20
6266.193990753802
 30
0.0
 40
0.9999999999999998
  0
ARC
  5
3B3
330
2
100
AcDbEntity
  8
0
100
AcDbCircle
 10
-4921.221217078978
 20
6266.193990753802
 30
0.0
 40
4.999999999999999
100
AcDbArc
 50
149.5519238759223
 51
192.5423968763534
  0
ARC
  5
3B4
330
2
100
AcDbEntity
  8
0
100
AcDbCircle
 10
-4921.221217078978
 20
6266.193990753802
 30
0.0
 40
4.999999999999999
100
AcDbArc
 50
227.4576031237401
 51
270.4480761240394
  0
ARC
  5
3B5
330
2
100
AcDbEntity
  8
0
100
AcDbCircle
 10
-4921.221217078978
 20
6266.193990753802
 30
0.0
 40
4.999999999999999
100
AcDbArc
 50
323.5781784782547
 51
96.42182152176644
  0
LINE
  5
3B6
330
2
100
AcDbEntity
  8
0
100
AcDbLine
 10
-4917.197878423932
 20
6263.225363787205
 30
0.0
 11
-4932.386586566629
 21
6242.640319833094
 31
0.0
  0
LINE
  5
3B7
330
2
100
AcDbEntity
  8
0
100
AcDbLine
 10
-4921.182115459224
 20
6261.194143649807
 30
0.0
 11
-4930.382160080814
 21
6248.725451702086
 31
0.0
  0
LINE
  5
3B8
330
2
100
AcDbEntity
  8
0
100
AcDbLine
 10
-4921.780454118888
 20
6271.162617720399
 30
0.0
 11
-4947.201979192504
 21
6268.301332595209
 31
0.0
  0
LINE
  5
3B9
330
2
100
AcDbEntity
  8
0
100
AcDbLine
 10
-4925.531660876199
 20
6268.727777301833
 30
0.0
 11
-4940.929887165686
 21
6266.994650917448
 31
0.0
  0
LINE
  5
3BA
330
2
100
AcDbEntity
  8
0
100
AcDbLine
 10
-4969.802063395581
 20
6262.510104644587
 30
0.0
 11
-4962.616988568573
 21
6258.361799759065
 31
0.0
  0
LINE
  5
3BB
330
2
100
AcDbEntity
  8
0
100
AcDbLine
 10
-4968.302063395581
 20
6265.108180855937
 30
0.0
 11
-4961.116988568573
 21
6260.959875970417
 31
0.0
  0
ARC
  5
3BC
330
2
100
AcDbEntity
  8
0
100
AcDbCircle
 10
-4947.201979192511
 20
6251.193990753804
 30
0.0
 40
17.0
100
AcDbArc
 50
155.0620929643332
 51
188.3493345859218
  0
ARC
  5
3BD
330
2
100
AcDbEntity
  8
0
100
AcDbCircle
 10
-4947.201979192511
 20
6251.193990753804
 30
0.0
 40
17.0
100
AcDbArc
 50
111.6506654140469
 51
144.9379070358016
  0
CIRCLE
  5
3BE
330
2
100
AcDbEntity
  8
0
100
AcDbCircle
 10
-4973.182741306043
 20
6266.193990753802
 30
0.0
 40
1.0
  0
ARC
  5
3BF
330
2
100
AcDbEntity
  8
0
100
AcDbCircle
 10
-4973.182741306043
 20
6266.193990753802
 30
0.0
 40
5.0
100
AcDbArc
 50
269.5519238759607
 51
312.5423968762599
  0
ARC
  5
3C0
330
2
100
AcDbEntity
  8
0
100
AcDbCircle
 10
-4973.182741306043
 20
6266.193990753802
 30
0.0
 40
5.0
100
AcDbArc
 50
347.4576031238624
 51
30.44807612407763
  0
ARC
  5
3C1
330
2
100
AcDbEntity
  8
0
100
AcDbCircle
 10
-4973.182741306043
 20
6266.193990753802
 30
0.0
 40
5.0
100
AcDbArc
 50
83.57817847823353
 51
216.4218215218854
  0
LINE
  5
3C2
330
2
100
AcDbEntity
  8
0
100
AcDbLine
 10
-4972.623504266135
 20
6271.162617720399
 30
0.0
 11
-4947.201979192504
 21
6268.301332595209
 31
0.0
  0
LINE
  5
3C3
330
2
100
AcDbEntity
  8
0
100
AcDbLine
 10
-4968.87229750882
 20
6268.727777301833
 30
0.0
 11
-4953.474071219337
 21
6266.994650917448
 31
0.0
  0
LINE
  5
3C4
330
2
100
AcDbEntity
  8
0
100
AcDbLine
 10
-4977.206079961091
 20
6263.225363787207
 30
0.0
 11
-4962.017371818397
 21
6242.640319833107
 31
0.0
  0
LINE
  5
3C5
330
2
100
AcDbEntity
  8
0
100
AcDbLine
 10
-4973.221842925795
 20
6261.194143649807
 30
0.0
 11
-4964.021798304205
 21
6248.725451702086
 31
0.0
  0
ARC
  5
3C6
330
2
100
AcDbEntity
  8
0
100
AcDbCircle
 10
-4947.201979192511
 20
6251.193990753803
 30
0.0
 40
17.0
100
AcDbArc
 50
35.06209296439019
 51
68.34933458595312
  0
CIRCLE
  5
3C7
330
2
100
AcDbEntity
  8
0
100
AcDbCircle
 10
-4977.201979192511
 20
6251.193990753804
 30
0.0
 40
4.5
  0
ARC
  5
3C8
330
2
100
AcDbEntity
  8
0
100
AcDbCircle
 10
-4978.326979192511
 20
6252.318990753804
 30
0.0
 40
0.625
100
AcDbArc
 50
270.0
 51
0.0
  0
ARC
  5
3C9
330
2
100
AcDbEntity
  8
0
100
AcDbCircle
 10
-4976.076979192511
 20
6252.318990753804
 30
0.0
 40
0.625
100
AcDbArc
 50
180.0
 51
270.0
  0
LINE
  5
3CA
330
2
100
AcDbEntity
  8
0
100
AcDbLine
 10
-4977.701979192511
 20
6248.893990753803
 30
0.0
 11
-4976.701979192512
 21
6248.893990753803
 31
0.0
  0
LINE
  5
3CB
330
2
100
AcDbEntity
  8
0
100
AcDbLine
 10
-4977.701979192511
 20
6248.893990753803
 30
0.0
 11
-4977.701979192511
 21
6250.068990753804
 31
0.0
  0
LINE
  5
3CC
330
2
100
AcDbEntity
  8
0
100
AcDbLine
 10
-4979.501979192511
 20
6251.693990753802
 30
0.0
 11
-4978.326979192511
 21
6251.693990753802
 31
0.0
  0
LINE
  5
3CD
330
2
100
AcDbEntity
  8
0
100
AcDbLine
 10
-4979.501979192511
 20
6250.693990753802
 30
0.0
 11
-4978.326979192511
 21
6250.693990753802
 31
0.0
  0
LINE
  5
3CE
330
2
100
AcDbEntity
  8
0
100
AcDbLine
 10
-4979.501979192511
 20
6251.693990753802
 30
0.0
 11
-4979.501979192511
 21
6250.693990753802
 31
0.0
  0
ARC
  5
3CF
330
2
100
AcDbEntity
  8
0
100
AcDbCircle
 10
-4978.326979192511
 20
6250.068990753804
 30
0.0
 40
0.625
100
AcDbArc
 50
0.0
 51
90.0
  0
LINE
  5
3D0
330
2
100
AcDbEntity
  8
0
100
AcDbLine
 10
-4976.701979192512
 20
6248.893990753803
 30
0.0
 11
-4976.701979192512
 21
6250.068990753804
 31
0.0
  0
LINE
  5
3D1
330
2
100
AcDbEntity
  8
0
100
AcDbLine
 10
-4976.076979192511
 20
6251.693990753802
 30
0.0
 11
-4974.901979192512
 21
6251.693990753802
 31
0.0
  0
LINE
  5
3D2
330
2
100
AcDbEntity
  8
0
100
AcDbLine
 10
-4976.076979192511
 20
6250.693990753802
 30
0.0
 11
-4974.901979192512
 21
6250.693990753802
 31
0.0
  0
LINE
  5
3D3
330
2
100
AcDbEntity
  8
0
100
AcDbLine
 10
-4974.901979192512
 20
6251.693990753802
 30
0.0
 11
-4974.901979192512
 21
6250.693990753802
 31
0.0
  0
ARC
  5
3D4
330
2
100
AcDbEntity
  8
0
100
AcDbCircle
 10
-4976.076979192511
 20
6250.068990753804
 30
0.0
 40
0.625
100
AcDbArc
 50
90.0
 51
180.0
  0
LINE
  5
3D5
330
2
100
AcDbEntity
  8
0
100
AcDbLine
 10
-4977.701979192511
 20
6253.493990753804
 30
0.0
 11
-4976.701979192512
 21
6253.493990753804
 31
0.0
  0
LINE
  5
3D6
330
2
100
AcDbEntity
  8
0
100
AcDbLine
 10
-4977.701979192511
 20
6252.318990753804
 30
0.0
 11
-4977.701979192511
 21
6253.493990753804
 31
0.0
  0
LINE
  5
3D7
330
2
100
AcDbEntity
  8
0
100
AcDbLine
 10
-4976.701979192512
 20
6252.318990753804
 30
0.0
 11
-4976.701979192512
 21
6253.493990753804
 31
0.0
  0
CIRCLE
  5
3D8
330
2
100
AcDbEntity
  8
0
100
AcDbCircle
 10
-4917.201979192512
 20
6251.193990753804
 30
0.0
 40
4.5
  0
ARC
  5
3D9
330
2
100
AcDbEntity
  8
0
100
AcDbCircle
 10
-4918.326979192511
 20
6252.318990753804
 30
0.0
 40
0.625
100
AcDbArc
 50
270.0
 51
0.0
  0
ARC
  5
3DA
330
2
100
AcDbEntity
  8
0
100
AcDbCircle
 10
-4916.076979192511
 20
6252.318990753804
 30
0.0
 40
0.625
100
AcDbArc
 50
180.0
 51
270.0
  0
LINE
  5
3DB
330
2
100
AcDbEntity
  8
0
100
AcDbLine
 10
-4917.701979192511
 20
6248.893990753803
 30
0.0
 11
-4916.701979192511
 21
6248.893990753803
 31
0.0
  0
LINE
  5
3DC
330
2
100
AcDbEntity
  8
0
100
AcDbLine
 10
-4917.701979192511
 20
6248.893990753803
 30
0.0
 11
-4917.701979192511
 21
6250.068990753804
 31
0.0
  0
LINE
  5
3DD
330
2
100
AcDbEntity
  8
0
100
AcDbLine
 10
-4919.50197919251
 20
6251.693990753802
 30
0.0
 11
-4918.326979192511
 21
6251.693990753802
 31
0.0
  0
LINE
  5
3DE
330
2
100
AcDbEntity
  8
0
100
AcDbLine
 10
-4919.50197919251
 20
6250.693990753802
 30
0.0
 11
-4918.326979192511
 21
6250.693990753802
 31
0.0
  0
LINE
  5
3DF
330
2
100
AcDbEntity
  8
0
100
AcDbLine
 10
-4919.50197919251
 20
6251.693990753802
 30
0.0
 11
-4919.50197919251
 21
6250.693990753802
 31
0.0
  0
ARC
  5
3E0
330
2
100
AcDbEntity
  8
0
100
AcDbCircle
 10
-4918.326979192511
 20
6250.068990753804
 30
0.0
 40
0.625
100
AcDbArc
 50
0.0
 51
90.0
  0
LINE
  5
3E1
330
2
100
AcDbEntity
  8
0
100
AcDbLine
 10
-4916.701979192511
 20
6248.893990753803
 30
0.0
 11
-4916.701979192511
 21
6250.068990753804
 31
0.0
  0
LINE
  5
3E2
330
2
100
AcDbEntity
  8
0
100
AcDbLine
 10
-4916.076979192511
 20
6251.693990753802
 30
0.0
 11
-4914.901979192512
 21
6251.693990753802
 31
0.0
  0
LINE
  5
3E3
330
2
100
AcDbEntity
  8
0
100
AcDbLine
 10
-4916.076979192511
 20
6250.693990753802
 30
0.0
 11
-4914.901979192512
 21
6250.693990753802
 31
0.0
  0
LINE
  5
3E4
330
2
100
AcDbEntity
  8
0
100
AcDbLine
 10
-4914.901979192512
 20
6251.693990753802
 30
0.0
 11
-4914.901979192512
 21
6250.693990753802
 31
0.0
  0
ARC
  5
3E5
330
2
100
AcDbEntity
  8
0
100
AcDbCircle
 10
-4916.076979192511
 20
6250.068990753804
 30
0.0
 40
0.625
100
AcDbArc
 50
90.0
 51
180.0
  0
LINE
  5
3E6
330
2
100
AcDbEntity
  8
0
100
AcDbLine
 10
-4917.701979192511
 20
6253.493990753804
 30
0.0
 11
-4916.701979192511
 21
6253.493990753804
 31
0.0
  0
LINE
  5
3E7
330
2
100
AcDbEntity
  8
0
100
AcDbLine
 10
-4917.701979192511
 20
6252.318990753804
 30
0.0
 11
-4917.701979192511
 21
6253.493990753804
 31
0.0
  0
LINE
  5
3E8
330
2
100
AcDbEntity
  8
0
100
AcDbLine
 10
-4916.701979192511
 20
6252.318990753804
 30
0.0
 11
-4916.701979192511
 21
6253.493990753804
 31
0.0
  0
LINE
  5
3E9
330
2
100
AcDbEntity
  8
0
100
AcDbLine
 10
-4984.001979192511
 20
6175.933686803845
 30
0.0
 11
-4984.001979192511
 21
6213.051855130073
 31
0.0
  0
LINE
  5
3EA
330
2
100
AcDbEntity
  8
0
100
AcDbLine
 10
-4980.789551298883
 20
6230.334340708791
 30
0.0
 11
-4981.124967782242
 21
6229.998924225434
 31
0.0
  0
LINE
  5
3EB
330
2
100
AcDbEntity
  8
0
100
AcDbLine
 10
-4980.789551298872
 20
6227.505913584055
 30
0.0
 11
-4970.890056362258
 21
6217.606418647442
 31
0.0
  0
LINE
  5
3EC
330
2
100
AcDbEntity
  8
0
100
AcDbLine
 10
-4970.182949581073
 20
6217.606418647442
 30
0.0
 11
-4969.122289409296
 21
6218.667078819223
 31
0.0
  0
ARC
  5
3ED
330
2
100
AcDbEntity
  8
0
100
AcDbCircle
 10
-4970.536502971668
 20
6217.959972038036
 30
0.0
 40
0.5
100
AcDbArc
 50
224.9999999998568
 51
315.0000000001431
  0
ARC
  5
3EE
330
2
100
AcDbEntity
  8
0
100
AcDbCircle
 10
-4980.435997908279
 20
6227.859466974647
 30
0.0
 40
0.5
100
AcDbArc
 50
135.0000000001431
 51
224.9999999998568
  0
LINE
  5
3EF
330
2
100
AcDbEntity
  8
0
100
AcDbLine
 10
-4980.789551298875
 20
6228.213020365242
 30
0.0
 11
-4979.728891127095
 21
6229.27368053702
 31
0.0
  0
LINE
  5
3F0
330
2
100
AcDbEntity
  8
0
  6
PHANTOM
 62
     6
 48
3.0
100
AcDbLine
 10
-4987.120790148477
 20
6174.133040458865
 30
0.0
 11
-4973.229036131965
 21
6182.153448379814
 31
0.0
  0
LINE
  5
3F1
330
2
100
AcDbEntity
  8
0
100
AcDbLine
 10
-4977.819702817885
 20
6224.536065103071
 30
0.0
 11
-4980.252945991697
 21
6222.102821929262
 31
0.0
  0
ARC
  5
3F2
330
2
100
AcDbEntity
  8
0
100
AcDbCircle
 10
-4971.201979192511
 20
6213.051855130073
 30
0.0
 40
12.8
100
AcDbArc
 50
134.9999999998852
 51
180.0
  0
LINE
  5
3F3
330
2
100
AcDbEntity
  8
0
100
AcDbLine
 10
-4973.859904843243
 20
6220.576267128425
 30
0.0
 11
-4976.00025479824
 21
6218.435917173427
 31
0.0
  0
LINE
  5
3F4
330
2
100
AcDbEntity
  8
0
100
AcDbLine
 10
-4971.88000585592
 20
6218.596368141105
 30
0.0
 11
-4974.020355810916
 21
6216.456018186106
 31
0.0
  0
LINE
  5
3F5
330
2
100
AcDbEntity
  8
0
100
AcDbLine
 10
-4975.839803830567
 20
6222.55616611575
 30
0.0
 11
-4978.273047004375
 21
6220.122922941939
 31
0.0
  0
ARC
  5
3F6
330
2
100
AcDbEntity
  8
0
100
AcDbCircle
 10
-4971.201979192511
 20
6213.051855130073
 30
0.0
 40
10.0
100
AcDbArc
 50
134.9999999998852
 51
180.0
  0
ARC
  5
3F7
330
2
100
AcDbEntity
  8
0
 62
   123
100
AcDbCircle
 10
-4971.201979192511
 20
6213.051855130073
 30
0.0
 40
23.0
100
AcDbArc
 50
134.9999999998852
 51
180.0
  0
LINE
  5
3F8
330
2
100
AcDbEntity
  8
0
100
AcDbLine
 10
-4981.201979192512
 20
6153.193990753804
 30
0.0
 11
-4981.201979192512
 21
6174.550267557576
 31
0.0
  0
LINE
  5
3F9
330
2
100
AcDbEntity
  8
0
100
AcDbLine
 10
-4981.201979192512
 20
6177.550267557576
 30
0.0
 11
-4981.201979192512
 21
6213.051855130073
 31
0.0
  0
LINE
  5
3FA
330
2
100
AcDbEntity
  8
0
100
AcDbLine
 10
-4984.001979192511
 20
6153.193990753804
 30
0.0
 11
-4984.001979192511
 21
6172.933686803844
 31
0.0
  0
LINE
  5
3FB
330
2
100
AcDbEntity
  8
0
100
AcDbLine
 10
-4978.401979192511
 20
6153.193990753804
 30
0.0
 11
-4978.401979192511
 21
6176.166848311306
 31
0.0
  0
ARC
  5
3FC
330
2
100
AcDbEntity
  8
0
100
AcDbCircle
 10
-4970.201979192513
 20
6212.637641567695
 30
0.0
 40
8.199999999999999
100
AcDbArc
 50
134.9999999998852
 51
180.0
  0
ARC
  5
3FD
330
2
100
AcDbEntity
  8
0
100
AcDbCircle
 10
-4970.201979192513
 20
6212.637641567695
 30
0.0
 40
5.399999999999998
100
AcDbArc
 50
134.9999999998852
 51
180.0
  0
LINE
  5
3FE
330
2
100
AcDbEntity
  8
0
100
AcDbLine
 10
-4978.401979192511
 20
6179.166848311306
 30
0.0
 11
-4978.401979192511
 21
6212.637641567695
 31
0.0
  0
LINE
  5
3FF
330
2
100
AcDbEntity
  8
0
100
AcDbLine
 10
-4975.601979192511
 20
6180.783429065038
 30
0.0
 11
-4975.601979192512
 21
6212.637641567695
 31
0.0
  0
LINE
  5
400
330
2
100
AcDbEntity
  8
0
  6
PHANTOM
 62
     6
 48
3.0
100
AcDbLine
 10
-4987.120790148477
 20
6171.133040458864
 30
0.0
 11
-4973.229036131968
 21
6179.153448379814
 31
0.0
  0
LINE
  5
401
330
2
100
AcDbEntity
  8
0
100
AcDbLine
 10
-4984.001979192511
 20
6153.193990753804
 30
0.0
 11
-4981.201979192512
 21
6153.193990753804
 31
0.0
  0
LINE
  5
402
330
2
100
AcDbEntity
  8
0
100
AcDbLine
 10
-4983.101979192507
 20
6143.193990753804
 30
0.0
 11
-4982.10197919251
 21
6143.193990753804
 31
0.0
  0
LINE
  5
403
330
2
100
AcDbEntity
  8
0
100
AcDbLine
 10
-4978.401979192511
 20
6153.193990753804
 30
0.0
 11
-4975.601979192513
 21
6153.193990753804
 31
0.0
  0
LINE
  5
404
330
2
100
AcDbEntity
  8
0
100
AcDbLine
 10
-4975.601979192513
 20
6153.193990753804
 30
0.0
 11
-4975.601979192513
 21
6177.783429065035
 31
0.0
  0
LINE
  5
405
330
2
100
AcDbEntity
  8
0
100
AcDbLine
 10
-4982.601979192509
 20
6143.193990753804
 30
0.0
 11
-4982.601979192509
 21
6153.193990753804
 31
0.0
  0
LINE
  5
406
330
2
100
AcDbEntity
  8
0
100
AcDbLine
 10
-4983.101979192509
 20
6143.193990753804
 30
0.0
 11
-4983.101979192509
 21
6153.193990753804
 31
0.0
  0
LINE
  5
407
330
2
100
AcDbEntity
  8
0
100
AcDbLine
 10
-4982.10197919251
 20
6143.193990753804
 30
0.0
 11
-4982.10197919251
 21
6153.193990753804
 31
0.0
  0
LINE
  5
408
330
2
100
AcDbEntity
  8
0
100
AcDbLine
 10
-4977.501979192506
 20
6143.193990753804
 30
0.0
 11
-4976.50197919251
 21
6143.193990753804
 31
0.0
  0
LINE
  5
409
330
2
100
AcDbEntity
  8
0
100
AcDbLine
 10
-4977.001979192511
 20
6143.193990753804
 30
0.0
 11
-4977.001979192511
 21
6153.193990753804
 31
0.0
  0
LINE
  5
40A
330
2
100
AcDbEntity
  8
0
100
AcDbLine
 10
-4977.50197919251
 20
6143.193990753804
 30
0.0
 11
-4977.50197919251
 21
6153.193990753804
 31
0.0
  0
LINE
  5
40B
330
2
100
AcDbEntity
  8
0
100
AcDbLine
 10
-4976.50197919251
 20
6143.193990753804
 30
0.0
 11
-4976.50197919251
 21
6153.193990753804
 31
0.0
  0
LEADER
  5
40C
330
2
100
AcDbEntity
  8
0
 62
   123
100
AcDbLeader
  3
STANDARD$7
 76
     2
 10
-4983.61797842362
 20
6233.162767833547
 30
0.0
 10
-4987.4654351598
 20
6229.315311097363
 30
0.0
1001
ACAD
1000
DSTYLE
1002
{
1070
    77
1070
     0
1070
   176
1070
   123
1002
}
  0
TEXT
  5
40D
330
2
100
AcDbEntity
  8
0
 62
     3
100
AcDbText
 10
-4995.201979192511
 20
6176.881661933141
 30
0.0
 40
3.0
  1
300 %%P10
 50
90.0
  7
GHS
100
AcDbText
  0
DIMENSION
  5
40E
330
2
100
AcDbEntity
  8
0
100
AcDbDimension
  2
*D16
 10
-4987.201979192511
 20
6143.193990753804
 30
0.0
 11
-4989.701979192513
 21
6148.193990753803
 31
0.0
 71
     5
 42
10.0
  3
STANDARD
100
AcDbAlignedDimension
 13
-4984.001979192511
 23
6153.193990753804
 33
0.0
 14
-4983.101979192509
 24
6143.193990753804
 34
0.0
 50
90.0
100
AcDbRotatedDimension
  0
LEADER
  5
41B
330
2
100
AcDbEntity
  8
0
 62
   123
100
AcDbLeader
  3
STANDARD$7
 76
     2
 10
-4994.201979192511
 20
6143.193990753804
 30
0.0
 10
-4994.201979192511
 20
6213.193990753802
 30
0.0
1001
ACAD
1000
DSTYLE
1002
{
1070
    77
1070
     0
1070
   176
1070
   123
1002
}
  0
LINE
  5
41C
330
2
100
AcDbEntity
  8
0
 62
   123
100
AcDbLine
 10
-4984.101979192509
 20
6143.193990753804
 30
0.0
 11
-4995.201979192511
 21
6143.193990753804
 31
0.0
  0
LINE
  5
41D
330
2
100
AcDbEntity
  8
0
  6
CENTER
 62
     1
100
AcDbLine
 10
-4917.201979192512
 20
6242.193990753804
 30
0.0
 11
-4917.201979192512
 21
6260.193990753804
 31
0.0
  0
DIMENSION
  5
41E
102
{ACAD_XDICTIONARY
360
41F
102
}
102
{ACAD_REACTORS
330
420
102
}
330
2
100
AcDbEntity
  8
0
100
AcDbDimension
  2
*D21
 10
-4907.201979192511
 20
6310.023023131257
 30
0.0
 11
-4947.201979192511
 21
6312.523023131256
 31
0.0
  1
%%C<>
 71
     5
 42
80.0
  3
STANDARD
100
AcDbAlignedDimension
 13
-4987.201979192511
 23
6251.193990753804
 33
0.0
 14
-4907.201979192511
 24
6251.193990753804
 34
0.0
100
AcDbRotatedDimension
  0
DIMENSION
  5
42D
102
{ACAD_XDICTIONARY
360
42E
102
}
102
{ACAD_REACTORS
330
42F
102
}
330
2
100
AcDbEntity
  8
0
100
AcDbDimension
  2
*D22
 10
-4890.237496277891
 20
6294.193990753804
 30
0.0
 11
-4892.737496277893
 21
6251.193990753804
 31
0.0
 71
     5
 42
85.99999999999818
  3
STANDARD
100
AcDbAlignedDimension
 13
-4936.701979192513
 23
6208.193990753805
 33
0.0
 14
-4936.701979192513
 24
6294.193990753804
 34
0.0
 50
90.0
100
AcDbRotatedDimension
  0
LEADER
  5
43C
330
2
100
AcDbEntity
  8
0
 62
   123
100
AcDbLeader
  3
STANDARD$7
 76
     2
 10
-4982.601979192512
 20
6196.193990753804
 30
0.0
 10
-4953.201979192515
 20
6170.193990753802
 30
0.0
1001
ACAD
1000
DSTYLE
1002
{
1070
   176
1070
   123
1070
   147
1040
1.0
1070
    77
1070
     0
1002
}
  0
LEADER
  5
43D
330
2
100
AcDbEntity
  8
0
 62
   123
100
AcDbLeader
  3
STANDARD$7
 76
     3
 10
-4977.001979192515
 20
6170.130780200236
 30
0.0
 10
-4953.201979192515
 20
6170.193990753802
 30
0.0
 10
-4894.201979192515
 20
6170.193990753802
 30
0.0
1001
ACAD
1000
DSTYLE
1002
{
1070
   176
1070
   123
1070
   147
1040
1.0
1070
    77
1070
     0
1002
}
  0
MTEXT
  5
43E
330
2
100
AcDbEntity
  8
0
 62
     3
100
AcDbMText
 10
-4952.201979192516
 20
6174.193990753804
 30
0.0
 40
3.0
 41
0.0
 71
     1
 72
     5
  1
{\W1;LEAD WIRE UL1015 AWG18\PRED & BLACK}
  7
GHS
 73
     1
 44
1.0
1001
ACAD
1000
MTEXTBEGIN
1070
    73
1070
     1
1070
    44
1040
1.0
1070
    74
1070
     0
1000
MTEXTEND
  0
HATCH
  5
43F
330
2
100
AcDbEntity
  8
0
100
AcDbHatch
 10
0.0
 20
0.0
 30
0.0
210
0.0
220
0.0
230
1.0
  2
SOLID
 70
     1
 71
     0
 91
        3
 92
        7
 72
     1
 73
     1
 93
       13
 10
-6005.302788149959
 20
6216.934677925578
 42
-1.140543588148774
 10
-6005.82778814996
 20
6220.915438647137
 42
-0.2430703534504115
 10
-6004.402788149961
 20
6220.179188104128
 42
0.0
 10
-6004.402788149961
 20
6221.580121454369
 42
-0.2403282878107557
 10
-6005.083378072735
 20
6221.542730066788
 42
1.201119850371999
 10
-6006.277788149961
 20
6216.040438647135
 42
0.0937143382698217
 10
-6004.177788149959
 20
6216.436977678053
 42
0.0
 10
-6004.177788149959
 20
6218.309491145207
 42
-0.3419987131196037
 10
-6003.840288149961
 20
6218.745201771654
 42
0.8810176860691893
 10
-6003.877788149958
 20
6219.040438647136
 42
0.0
 10
-6005.60278814996
 20
6219.040438647136
 42
0.8810176860693442
 10
-6005.64028814996
 20
6218.745201771654
 42
-0.3419987131196037
 10
-6005.302788149959
 20
6218.309491145207
 42
0.0
 97
        0
 92
        7
 72
     1
 73
     1
 93
       13
 10
-5999.302788149959
 20
6216.934677925578
 42
-1.140543588148774
 10
-5999.82778814996
 20
6220.915438647137
 42
-0.2430703534504115
 10
-5998.402788149959
 20
6220.179188104128
 42
0.0
 10
-5998.402788149959
 20
6221.580121454369
 42
-0.2403282878107557
 10
-5999.083378072736
 20
6221.542730066788
 42
1.201119850371999
 10
-6000.27778814996
 20
6216.040438647135
 42
0.0937143382698217
 10
-5998.177788149959
 20
6216.436977678053
 42
0.0
 10
-5998.177788149959
 20
6218.309491145207
 42
-0.3419987131196037
 10
-5997.840288149959
 20
6218.745201771654
 42
0.8810176860691893
 10
-5997.877788149958
 20
6219.040438647136
 42
0.0
 10
-5999.602788149958
 20
6219.040438647136
 42
0.8810176860693442
 10
-5999.64028814996
 20
6218.745201771654
 42
-0.3419987131196037
 10
-5999.302788149959
 20
6218.309491145207
 42
0.0
 97
        0
 92
        7
 72
     1
 73
     1
 93
       25
 10
-5997.315288149958
 20
6216.33567552262
 42
0.8810176860682611
 10
-5997.277788149961
 20
6216.040438647135
 42
0.0
 10
-5995.70278814996
 20
6216.040438647135
 42
0.8810176860672523
 10
-5995.665288149958
 20
6216.33567552262
 42
-0.34199871311962
 10
-5996.227788149958
 20
6217.061859900033
 42
0.0
 10
-5996.227788149958
 20
6220.165438647137
 42
0.0
 10
-5994.209171128683
 20
6216.040438647135
 42
0.0
 10
-5994.193213681874
 20
6216.040438647135
 42
0.0
 10
-5992.252788149958
 20
6220.840438647138
 42
0.0
 10
-5992.252788149958
 20
6217.061859900033
 42
-0.3419987131196446
 10
-5992.815288149959
 20
6216.33567552262
 42
0.8810176860682611
 10
-5992.777788149961
 20
6216.040438647135
 42
0.0
 10
-5990.60278814996
 20
6216.040438647135
 42
0.8810176860672523
 10
-5990.565288149959
 20
6216.33567552262
 42
-0.3419987131196446
 10
-5991.12778814996
 20
6217.061859900033
 42
0.0
 10
-5991.12778814996
 20
6220.719017394241
 42
-0.3419987131196446
 10
-5990.565288149959
 20
6221.445201771655
 42
0.881017686069239
 10
-5990.60278814996
 20
6221.740438647137
 42
0.0
 10
-5992.477788149958
 20
6221.740438647137
 42
0.0
 10
-5993.902788149959
 20
6218.215438647137
 42
0.0
 10
-5995.62778814996
 20
6221.740438647137
 42
0.0
 10
-5997.277788149961
 20
6221.740438647137
 42
0.8810176860694916
 10
-5997.315288149958
 20
6221.445201771655
 42
-0.3419987131196446
 10
-5996.752788149962
 20
6220.719017394241
 42
0.0
 10
-5996.752788149962
 20
6217.061859900033
 42
-0.34199871311962
 97
        0
 75
     0
 76
     1
 47
0.0381833426294037
 98
        3
 10
-6005.143852762099
 20
6216.949273723625
 10
-5998.782972375069
 20
6216.891997754629
 10
-5996.548066255013
 20
6216.777448595816
  0
HATCH
  5
440
330
2
100
AcDbEntity
  8
0
100
AcDbHatch
 10
0.0
 20
0.0
 30
0.0
210
0.0
220
0.0
230
1.0
  2
SOLID
 70
     1
 71
     0
 91
        3
 92
        7
 72
     1
 73
     1
 93
       13
 10
-5334.639963822478
 20
6221.126443344192
 42
-1.140543588148774
 10
-5335.164963822478
 20
6225.107204065751
 42
-0.2430703534504115
 10
-5333.73996382248
 20
6224.370953522744
 42
0.0
 10
-5333.73996382248
 20
6225.771886872983
 42
-0.2403282878107557
 10
-5334.420553745253
 20
6225.734495485403
 42
1.201119850371999
 10
-5335.61496382248
 20
6220.232204065752
 42
0.0937143382698217
 10
-5333.514963822478
 20
6220.62874309667
 42
0.0
 10
-5333.514963822478
 20
6222.501256563823
 42
-0.3419987131196037
 10
-5333.17746382248
 20
6222.936967190269
 42
0.8810176860691893
 10
-5333.214963822476
 20
6223.232204065751
 42
0.0
 10
-5334.939963822478
 20
6223.232204065751
 42
0.8810176860693442
 10
-5334.977463822478
 20
6222.936967190269
 42
-0.3419987131196037
 10
-5334.639963822478
 20
6222.501256563823
 42
0.0
 97
        0
 92
        7
 72
     1
 73
     1
 93
       13
 10
-5328.639963822478
 20
6221.126443344192
 42
-1.140543588148774
 10
-5329.164963822478
 20
6225.107204065751
 42
-0.2430703534504115
 10
-5327.739963822478
 20
6224.370953522744
 42
0.0
 10
-5327.739963822478
 20
6225.771886872983
 42
-0.2403282878107557
 10
-5328.420553745253
 20
6225.734495485403
 42
1.201119850371999
 10
-5329.614963822479
 20
6220.232204065752
 42
0.0937143382698217
 10
-5327.514963822478
 20
6220.62874309667
 42
0.0
 10
-5327.514963822478
 20
6222.501256563823
 42
-0.3419987131196037
 10
-5327.177463822479
 20
6222.936967190269
 42
0.8810176860691893
 10
-5327.214963822477
 20
6223.232204065751
 42
0.0
 10
-5328.939963822477
 20
6223.232204065751
 42
0.8810176860693442
 10
-5328.977463822479
 20
6222.936967190269
 42
-0.3419987131196037
 10
-5328.639963822478
 20
6222.501256563823
 42
0.0
 97
        0
 92
        7
 72
     1
 73
     1
 93
       25
 10
-5326.652463822476
 20
6220.527440941236
 42
0.8810176860682611
 10
-5326.614963822478
 20
6220.232204065752
 42
0.0
 10
-5325.039963822479
 20
6220.232204065752
 42
0.8810176860672523
 10
-5325.002463822478
 20
6220.527440941236
 42
-0.34199871311962
 10
-5325.564963822478
 20
6221.253625318649
 42
0.0
 10
-5325.564963822478
 20
6224.357204065751
 42
0.0
 10
-5323.546346801201
 20
6220.232204065752
 42
0.0
 10
-5323.530389354392
 20
6220.232204065752
 42
0.0
 10
-5321.589963822479
 20
6225.032204065755
 42
0.0
 10
-5321.589963822479
 20
6221.253625318649
 42
-0.3419987131196446
 10
-5322.152463822476
 20
6220.527440941236
 42
0.8810176860682611
 10
-5322.114963822478
 20
6220.232204065752
 42
0.0
 10
-5319.939963822477
 20
6220.232204065752
 42
0.8810176860672523
 10
-5319.902463822478
 20
6220.527440941236
 42
-0.3419987131196446
 10
-5320.464963822477
 20
6221.253625318649
 42
0.0
 10
-5320.464963822477
 20
6224.910782812856
 42
-0.3419987131196446
 10
-5319.902463822478
 20
6225.636967190269
 42
0.881017686069239
 10
-5319.939963822477
 20
6225.932204065753
 42
0.0
 10
-5321.814963822478
 20
6225.932204065753
 42
0.0
 10
-5323.23996382248
 20
6222.407204065754
 42
0.0
 10
-5324.964963822477
 20
6225.932204065753
 42
0.0
 10
-5326.614963822478
 20
6225.932204065753
 42
0.8810176860694916
 10
-5326.652463822476
 20
6225.636967190269
 42
-0.3419987131196446
 10
-5326.089963822479
 20
6224.910782812856
 42
0.0
 10
-5326.089963822479
 20
6221.253625318649
 42
-0.34199871311962
 97
        0
 75
     0
 76
     1
 47
0.0381833426294037
 98
        3
 10
-5334.481028434618
 20
6221.141039142242
 10
-5328.120148047588
 20
6221.083763173243
 10
-5325.885241927533
 20
6220.969214014432
  0
LINE
  5
441
330
2
100
AcDbEntity
  8
0
100
AcDbLine
 10
-5990.100080258205
 20
6092.781014995581
 30
0.0
 11
-6010.636687660144
 21
6092.781014995581
 31
0.0
  0
LINE
  5
442
330
2
100
AcDbEntity
  8
0
100
AcDbLine
 10
-5990.100080258205
 20
6070.322681525349
 30
0.0
 11
-6010.636687660144
 21
6070.322681525347
 31
0.0
  0
TEXT
  5
443
330
2
100
AcDbEntity
  8
0
100
AcDbText
 10
-6020.560308855386
 20
6118.296611627601
 30
0.0
 40
3.937499999999998
  1
RED
 41
0.9
  7
WHGTXT
 72
     1
 11
-6015.329058855385
 21
6118.296611627601
 31
0.0
100
AcDbText
  0
TEXT
  5
445
330
2
100
AcDbEntity
  8
0
100
AcDbText
 10
-6020.805651683962
 20
6110.095349979522
 30
0.0
 40
3.937499999999998
  1
BLACK
 41
0.9
  7
WHGTXT
 72
     1
 11
-6012.452526683962
 21
6110.095349979522
 31
0.0
100
AcDbText
  0
MTEXT
  5
446
330
2
100
AcDbEntity
  8
0
100
AcDbMText
 10
-6043.454417248209
 20
6137.995431726928
 30
0.0
 40
4.999999999999999
 41
0.0
 71
     1
 72
     5
  1
{\fHYSinMyeongJo-Medium|b1|i0|c129|p18;- CONNECTION DIAGRAM}
 73
     1
 44
1.0
1001
ACAD
1000
MTEXTBEGIN
1070
    73
1070
     1
1070
    44
1040
1.0
1070
    74
1070
     0
1000
MTEXTEND
  0
TEXT
  5
447
330
2
100
AcDbEntity
  8
0
100
AcDbText
 10
-6007.403764543216
 20
6095.390935786745
 30
0.0
 40
3.937499999999998
  1
RED
 41
0.9
  7
WHGTXT
 72
     1
 11
-6002.172514543215
 21
6095.390935786745
 31
0.0
100
AcDbText
  0
LINE
  5
448
330
2
100
AcDbEntity
  8
0
100
AcDbLine
 10
-6010.636687660144
 20
6092.781014995581
 30
0.0
 11
-6019.143654140157
 21
6086.348259653732
 31
0.0
  0
LINE
  5
449
330
2
100
AcDbEntity
  8
0
100
AcDbLine
 10
-6010.636687660144
 20
6070.322681525347
 30
0.0
 11
-6019.143654140157
 21
6076.755436867196
 31
0.0
  0
TEXT
  5
44A
330
2
100
AcDbEntity
  8
0
100
AcDbText
 10
-6007.586021764839
 20
6063.449680834839
 30
0.0
 40
3.937499999999998
  1
BLACK
 41
0.9
  7
WHGTXT
 72
     1
 11
-5999.232896764839
 21
6063.449680834839
 31
0.0
100
AcDbText
  0
TEXT
  5
44B
330
2
100
AcDbEntity
  8
0
100
AcDbText
 10
-6026.572747756988
 20
6079.115629859098
 30
0.0
 40
4.999999999999999
  1
M
  7
WHGTXT
 72
     1
 11
-6023.715604899845
 21
6079.115629859098
 31
0.0
100
AcDbText
  0
CIRCLE
  5
44C
330
2
100
AcDbEntity
  8
0
100
AcDbCircle
 10
-6023.622587494934
 20
6081.551848260463
 30
0.0
 40
6.562499999999999
  0
ARC
  5
44D
330
2
100
AcDbEntity
  8
0
100
AcDbCircle
 10
-6024.455920828264
 20
6081.551848260463
 30
0.0
 40
9.0625
100
AcDbArc
 50
116.2310645593155
 51
239.2211388502676
  0
LINE
  5
44E
330
2
100
AcDbEntity
  8
0
100
AcDbLine
 10
-5968.427836513399
 20
6092.781014995581
 30
0.0
 11
-5988.433413591534
 21
6092.781014995581
 31
0.0
  0
CIRCLE
  5
44F
330
2
100
AcDbEntity
  8
0
100
AcDbCircle
 10
-5989.266746924864
 20
6092.781014995581
 30
0.0
 40
0.8333333333333332
  0
LINE
  5
450
330
2
100
AcDbEntity
  8
0
100
AcDbLine
 10
-5968.427836513399
 20
6070.322681525347
 30
0.0
 11
-5988.433413591534
 21
6070.322681525349
 31
0.0
  0
CIRCLE
  5
451
330
2
100
AcDbEntity
  8
0
100
AcDbCircle
 10
-5989.266746924864
 20
6070.322681525349
 30
0.0
 40
0.8333333333333332
  0
LINE
  5
452
330
2
100
AcDbEntity
  8
0
100
AcDbLine
 10
-5968.427836513399
 20
6070.322681525347
 30
0.0
 11
-5968.427836513399
 21
6078.270816419766
 31
0.0
  0
LINE
  5
453
330
2
100
AcDbEntity
  8
0
100
AcDbLine
 10
-5968.427836513399
 20
6092.781014995581
 30
0.0
 11
-5968.427836513399
 21
6084.83288010116
 31
0.0
  0
CIRCLE
  5
454
330
2
100
AcDbEntity
  8
0
100
AcDbCircle
 10
-5968.465673305406
 20
6081.551848260463
 30
0.0
 40
3.281249999999998
  0
TEXT
  5
455
330
2
100
AcDbEntity
  8
0
100
AcDbText
 10
-5961.312419644041
 20
6081.642521554292
 30
0.0
 40
3.937499999999998
  1
DC POWER
 41
0.9
  7
WHGTXT
 72
     1
 11
-5947.511833706542
 21
6081.642521554292
 31
0.0
100
AcDbText
  0
TEXT
  5
456
330
2
100
AcDbEntity
  8
0
100
AcDbText
 10
-5957.721208706542
 20
6075.73627155429
 30
0.0
 40
3.937499999999998
  1
SUPPLY
 41
0.9
  7
WHGTXT
 72
     1
 11
-5947.511833706542
 21
6075.73627155429
 31
0.0
100
AcDbText
  0
TEXT
  5
457
330
2
100
AcDbEntity
  8
0
100
AcDbText
 10
-5970.444449393802
 20
6079.816829365972
 30
0.0
 40
3.937499999999998
  1
-
 41
0.75
  7
WHGTXT
 72
     1
 11
-5968.616324393803
 21
6079.816829365972
 31
0.0
100
AcDbText
  0
SOLID
  5
458
330
2
100
AcDbEntity
  8
0
100
AcDbTrace
 10
-5994.031484793982
 20
6113.027654067909
 30
0.0
 11
-5994.031484793982
 21
6111.152654067911
 31
0.0
 12
-5999.65648479398
 22
6112.090154067908
 32
0.0
 13
-5999.65648479398
 23
6112.090154067908
 33
0.0
  0
CIRCLE
  5
459
330
2
100
AcDbEntity
  8
0
100
AcDbCircle
 10
-5981.386665870886
 20
6111.91390615657
 30
0.0
 40
2.550408109319824
  0
TEXT
  5
45A
330
2
100
AcDbEntity
  8
0
100
AcDbText
 10
-5983.214791972205
 20
6109.992165343373
 30
0.0
 40
3.937499999999998
  1
+
 41
0.75
  7
WHGTXT
 72
     1
 11
-5981.386666972206
 21
6109.992165343373
 31
0.0
100
AcDbText
  0
LINE
  5
45B
330
2
100
AcDbEntity
  8
0
100
AcDbLine
 10
-5989.201655279914
 20
6112.090154067908
 30
0.0
 11
-5994.031484793982
 21
6112.090154067908
 31
0.0
  0
TEXT
  5
45C
330
2
100
AcDbEntity
  8
0
100
AcDbText
 10
-5976.993091249163
 20
6110.253751811844
 30
0.0
 40
3.937499999999998
  1
CCW
 41
0.9
  7
WHGTXT
 72
     1
 11
-5971.339966249163
 21
6110.253751811844
 31
0.0
100
AcDbText
  0
TEXT
  5
45D
330
2
100
AcDbEntity
  8
0
100
AcDbText
 10
-5976.976104626226
 20
6118.301336100686
 30
0.0
 40
3.937499999999998
  1
CW
 41
0.9
  7
WHGTXT
 72
     1
 11
-5973.094854626225
 21
6118.301336100686
 31
0.0
100
AcDbText
  0
CIRCLE
  5
45E
330
2
100
AcDbEntity
  8
0
100
AcDbCircle
 10
-5981.386665870886
 20
6120.345207865433
 30
0.0
 40
2.550408109319824
  0
TEXT
  5
45F
330
2
100
AcDbEntity
  8
0
100
AcDbText
 10
-5983.214791972205
 20
6118.678754437176
 30
0.0
 40
3.937499999999998
  1
+
 41
0.75
  7
WHGTXT
 72
     1
 11
-5981.386666972206
 21
6118.678754437176
 31
0.0
100
AcDbText
  0
LINE
  5
460
330
2
100
AcDbEntity
  8
0
100
AcDbLine
 10
-5989.201655279914
 20
6120.521455776772
 30
0.0
 11
-5994.031484793982
 21
6120.521455776772
 31
0.0
  0
SOLID
  5
461
330
2
100
AcDbEntity
  8
0
100
AcDbTrace
 10
-5994.031484793982
 20
6121.458955776775
 30
0.0
 11
-5994.031484793982
 21
6119.583955776772
 31
0.0
 12
-5999.65648479398
 22
6120.521455776772
 32
0.0
 13
-5999.65648479398
 23
6120.521455776772
 33
0.0
  0
SOLID
  5
462
330
2
100
AcDbEntity
  8
0
100
AcDbTrace
 10
-6032.28461771742
 20
6087.432550141371
 30
0.0
 11
-6028.461475705797
 21
6089.681081703678
 31
0.0
 12
-6031.348707912806
 22
6086.314154438264
 32
0.0
 13
-6031.348707912806
 23
6086.314154438264
 33
0.0
1001
ACAD
1000
DSTYLE
1002
{
1070
    41
1040
3.5
1070
   147
1040
1.0
1070
    77
1070
     1
1002
}
  0
TEXT
  5
463
330
2
100
AcDbEntity
  8
0
100
AcDbText
 10
-6043.642686856625
 20
6079.601279277945
 30
0.0
 40
3.937499999999998
  1
CW
 41
0.9
  7
WHGTXT
 72
     1
 11
-6039.761436856625
 21
6079.601279277945
 31
0.0
100
AcDbText
  0
MTEXT
  5
464
330
2
100
AcDbEntity
  8
0
100
AcDbMText
 10
-6043.52086866736
 20
6056.503799333222
 30
0.0
 40
4.999999999999999
 41
0.0
 71
     1
 72
     5
  1
{\fHYSinMyeongJo-Medium|b0|i0|c129|p18;The direction of motor rotation is\Pas viewed from the front shaft\Pend of the motor}
 73
     1
 44
1.0
1001
ACAD
1000
MTEXTBEGIN
1070
    73
1070
     1
1070
    44
1040
1.0
1070
    74
1070
     0
1000
MTEXTEND
  0
LINE
  5
465
330
2
100
AcDbEntity
  8
0
100
AcDbLine
 10
-5321.254565258938
 20
6092.056940540238
 30
0.0
 11
-5341.791172660879
 21
6092.056940540238
 31
0.0
  0
LINE
  5
466
330
2
100
AcDbEntity
  8
0
100
AcDbLine
 10
-5321.254565258938
 20
6069.598607070004
 30
0.0
 11
-5341.791172660879
 21
6069.598607070003
 31
0.0
  0
TEXT
  5
467
330
2
100
AcDbEntity
  8
0
100
AcDbText
 10
-5351.71479385612
 20
6117.572537172257
 30
0.0
 40
3.937499999999998
  1
RED
 41
0.9
  7
WHGTXT
 72
     1
 11
-5346.48354385612
 21
6117.572537172257
 31
0.0
100
AcDbText
  0
TEXT
  5
468
330
2
100
AcDbEntity
  8
0
100
AcDbText
 10
-5351.960136684698
 20
6109.371275524178
 30
0.0
 40
3.937499999999998
  1
BLACK
 41
0.9
  7
WHGTXT
 72
     1
 11
-5343.607011684698
 21
6109.371275524178
 31
0.0
100
AcDbText
  0
MTEXT
  5
469
330
2
100
AcDbEntity
  8
0
100
AcDbMText
 10
-5374.608902248944
 20
6137.271357271583
 30
0.0
 40
4.999999999999999
 41
0.0
 71
     1
 72
     5
  1
{\fHYSinMyeongJo-Medium|b1|i0|c129|p18;- CONNECTION DIAGRAM}
 73
     1
 44
1.0
1001
ACAD
1000
MTEXTBEGIN
1070
    73
1070
     1
1070
    44
1040
1.0
1070
    74
1070
     0
1000
MTEXTEND
  0
TEXT
  5
46A
330
2
100
AcDbEntity
  8
0
100
AcDbText
 10
-5338.558249543948
 20
6094.666861331401
 30
0.0
 40
3.937499999999998
  1
RED
 41
0.9
  7
WHGTXT
 72
     1
 11
-5333.326999543949
 21
6094.666861331401
 31
0.0
100
AcDbText
  0
LINE
  5
46B
330
2
100
AcDbEntity
  8
0
100
AcDbLine
 10
-5341.791172660879
 20
6092.056940540238
 30
0.0
 11
-5350.298139140893
 21
6085.624185198388
 31
0.0
  0
LINE
  5
46C
330
2
100
AcDbEntity
  8
0
100
AcDbLine
 10
-5341.791172660879
 20
6069.598607070003
 30
0.0
 11
-5350.298139140893
 21
6076.031362411852
 31
0.0
  0
TEXT
  5
46D
330
2
100
AcDbEntity
  8
0
100
AcDbText
 10
-5338.740506765573
 20
6062.725606379495
 30
0.0
 40
3.937499999999998
  1
BLACK
 41
0.9
  7
WHGTXT
 72
     1
 11
-5330.387381765573
 21
6062.725606379495
 31
0.0
100
AcDbText
  0
TEXT
  5
46E
330
2
100
AcDbEntity
  8
0
100
AcDbText
 10
-5357.727232757723
 20
6078.391555403754
 30
0.0
 40
4.999999999999999
  1
M
  7
WHGTXT
 72
     1
 11
-5354.87008990058
 21
6078.391555403754
 31
0.0
100
AcDbText
  0
CIRCLE
  5
46F
330
2
100
AcDbEntity
  8
0
100
AcDbCircle
 10
-5354.777072495668
 20
6080.827773805118
 30
0.0
 40
6.562499999999999
  0
ARC
  5
470
330
2
100
AcDbEntity
  8
0
100
AcDbCircle
 10
-5355.610405828997
 20
6080.827773805118
 30
0.0
 40
9.0625
100
AcDbArc
 50
116.2310645593157
 51
239.2211388502675
  0
LINE
  5
471
330
2
100
AcDbEntity
  8
0
100
AcDbLine
 10
-5299.582321514132
 20
6092.056940540238
 30
0.0
 11
-5319.587898592268
 21
6092.056940540238
 31
0.0
  0
CIRCLE
  5
472
330
2
100
AcDbEntity
  8
0
100
AcDbCircle
 10
-5320.421231925599
 20
6092.056940540238
 30
0.0
 40
0.8333333333333332
  0
LINE
  5
473
330
2
100
AcDbEntity
  8
0
100
AcDbLine
 10
-5299.582321514132
 20
6069.598607070003
 30
0.0
 11
-5319.587898592268
 21
6069.598607070004
 31
0.0
  0
CIRCLE
  5
474
330
2
100
AcDbEntity
  8
0
100
AcDbCircle
 10
-5320.421231925599
 20
6069.598607070004
 30
0.0
 40
0.8333333333333332
  0
LINE
  5
475
330
2
100
AcDbEntity
  8
0
100
AcDbLine
 10
-5299.582321514132
 20
6069.598607070003
 30
0.0
 11
-5299.582321514132
 21
6077.546741964423
 31
0.0
  0
LINE
  5
476
330
2
100
AcDbEntity
  8
0
100
AcDbLine
 10
-5299.582321514132
 20
6092.056940540238
 30
0.0
 11
-5299.582321514132
 21
6084.108805645817
 31
0.0
  0
CIRCLE
  5
477
330
2
100
AcDbEntity
  8
0
100
AcDbCircle
 10
-5299.620158306141
 20
6080.827773805118
 30
0.0
 40
3.281249999999998
  0
TEXT
  5
478
330
2
100
AcDbEntity
  8
0
100
AcDbText
 10
-5292.466904644775
 20
6080.918447098948
 30
0.0
 40
3.937499999999998
  1
DC POWER
 41
0.9
  7
WHGTXT
 72
     1
 11
-5278.666318707275
 21
6080.918447098948
 31
0.0
100
AcDbText
  0
TEXT
  5
479
330
2
100
AcDbEntity
  8
0
100
AcDbText
 10
-5288.875693707275
 20
6075.012197098946
 30
0.0
 40
3.937499999999998
  1
SUPPLY
 41
0.9
  7
WHGTXT
 72
     1
 11
-5278.666318707275
 21
6075.012197098946
 31
0.0
100
AcDbText
  0
TEXT
  5
47A
330
2
100
AcDbEntity
  8
0
100
AcDbText
 10
-5301.598934394537
 20
6079.092754910629
 30
0.0
 40
3.937499999999998
  1
-
 41
0.75
  7
WHGTXT
 72
     1
 11
-5299.770809394537
 21
6079.092754910629
 31
0.0
100
AcDbText
  0
SOLID
  5
47B
330
2
100
AcDbEntity
  8
0
100
AcDbTrace
 10
-5325.185969794716
 20
6112.303579612563
 30
0.0
 11
-5325.185969794716
 21
6110.428579612567
 31
0.0
 12
-5330.810969794715
 22
6111.366079612565
 32
0.0
 13
-5330.810969794715
 23
6111.366079612565
 33
0.0
  0
CIRCLE
  5
47C
330
2
100
AcDbEntity
  8
0
100
AcDbCircle
 10
-5312.54115087162
 20
6111.189831701227
 30
0.0
 40
2.550408109319824
  0
TEXT
  5
47D
330
2
100
AcDbEntity
  8
0
100
AcDbText
 10
-5314.36927697294
 20
6109.268090888028
 30
0.0
 40
3.937499999999998
  1
+
 41
0.75
  7
WHGTXT
 72
     1
 11
-5312.54115197294
 21
6109.268090888028
 31
0.0
100
AcDbText
  0
LINE
  5
47E
330
2
100
AcDbEntity
  8
0
100
AcDbLine
 10
-5320.356140280648
 20
6111.366079612565
 30
0.0
 11
-5325.185969794716
 21
6111.366079612565
 31
0.0
  0
TEXT
  5
47F
330
2
100
AcDbEntity
  8
0
100
AcDbText
 10
-5308.147576249897
 20
6109.529677356501
 30
0.0
 40
3.937499999999998
  1
CCW
 41
0.9
  7
WHGTXT
 72
     1
 11
-5302.494451249897
 21
6109.529677356501
 31
0.0
100
AcDbText
  0
TEXT
  5
480
330
2
100
AcDbEntity
  8
0
100
AcDbText
 10
-5308.13058962696
 20
6117.577261645341
 30
0.0
 40
3.937499999999998
  1
CW
 41
0.9
  7
WHGTXT
 72
     1
 11
-5304.24933962696
 21
6117.577261645341
 31
0.0
100
AcDbText
  0
CIRCLE
  5
481
330
2
100
AcDbEntity
  8
0
100
AcDbCircle
 10
-5312.54115087162
 20
6119.621133410089
 30
0.0
 40
2.550408109319824
  0
TEXT
  5
482
330
2
100
AcDbEntity
  8
0
100
AcDbText
 10
-5314.36927697294
 20
6117.954679981834
 30
0.0
 40
3.937499999999998
  1
+
 41
0.75
  7
WHGTXT
 72
     1
 11
-5312.54115197294
 21
6117.954679981834
 31
0.0
100
AcDbText
  0
LINE
  5
483
330
2
100
AcDbEntity
  8
0
100
AcDbLine
 10
-5320.356140280648
 20
6119.797381321429
 30
0.0
 11
-5325.185969794716
 21
6119.797381321429
 31
0.0
  0
SOLID
  5
484
330
2
100
AcDbEntity
  8
0
100
AcDbTrace
 10
-5325.185969794716
 20
6120.73488132143
 30
0.0
 11
-5325.185969794716
 21
6118.85988132143
 31
0.0
 12
-5330.810969794715
 22
6119.797381321429
 32
0.0
 13
-5330.810969794715
 23
6119.797381321429
 33
0.0
  0
SOLID
  5
485
330
2
100
AcDbEntity
  8
0
100
AcDbTrace
 10
-5363.439102718157
 20
6086.708475686027
 30
0.0
 11
-5359.615960706531
 21
6088.957007248334
 31
0.0
 12
-5362.50319291354
 22
6085.590079982921
 32
0.0
 13
-5362.50319291354
 23
6085.590079982921
 33
0.0
1001
ACAD
1000
DSTYLE
1002
{
1070
    41
1040
3.5
1070
   147
1040
1.0
1070
    77
1070
     1
1002
}
  0
TEXT
  5
486
330
2
100
AcDbEntity
  8
0
100
AcDbText
 10
-5374.797171857359
 20
6078.877204822603
 30
0.0
 40
3.937499999999998
  1
CW
 41
0.9
  7
WHGTXT
 72
     1
 11
-5370.915921857359
 21
6078.877204822603
 31
0.0
100
AcDbText
  0
MTEXT
  5
487
330
2
100
AcDbEntity
  8
0
100
AcDbMText
 10
-5374.675353668093
 20
6055.779724877879
 30
0.0
 40
4.999999999999999
 41
0.0
 71
     1
 72
     5
  1
{\fHYSinMyeongJo-Medium|b0|i0|c129|p18;The direction of motor rotation is\Pas viewed from the front shaft\Pend of the motor}
 73
     1
 44
1.0
1001
ACAD
1000
MTEXTBEGIN
1070
    73
1070
     1
1070
    44
1040
1.0
1070
    74
1070
     0
1000
MTEXTEND
  0
MTEXT
  5
488
330
2
100
AcDbEntity
  8
0
 62
     3
100
AcDbMText
 10
-5798.398310633878
 20
6373.859087209599
 30
0.0
 40
15.0
 41
0.0
 71
     2
 72
     5
  1
K9DG40N{\fGulim|b0|i0|c129|p50;\H0.9583x;□}
 73
     1
 44
1.0
1001
ACAD
1000
MTEXTBEGIN
1070
    73
1070
     1
1070
    44
1040
1.0
1070
    74
1070
     0
1000
MTEXTEND
  0
MTEXT
  5
489
330
2
100
AcDbEntity
  8
0
 62
     3
100
AcDbMText
 10
-5118.657860144571
 20
6373.859087209588
 30
0.0
 40
15.0
 41
0.0
 71
     2
 72
     5
  1
K9DS40N{\fGulim|b0|i0|c129|p50;\H0.9583x;□}
 73
     1
 44
1.0
1001
ACAD
1000
MTEXTBEGIN
1070
    73
1070
     1
1070
    44
1040
1.0
1070
    74
1070
     0
1000
MTEXTEND
  0
ENDSEC
  0
SECTION
  2
OBJECTS
  0
DICTIONARY
  5
C
330
0
100
AcDbDictionary
281
     1
  3
ACAD_2007HEADERVARS_RT
350
4CB
  3
ACAD_COLOR
350
51
  3
ACAD_GROUP
350
3E
  3
ACAD_LAYOUT
350
19
  3
ACAD_MATERIAL
350
E
  3
ACAD_MLEADERSTYLE
350
4C0
  3
ACAD_MLINESTYLE
350
3F
  3
ACAD_PLOTSETTINGS
350
40
  3
ACAD_PLOTSTYLENAME
350
B
  3
ACAD_SCALELIST
350
52
  3
ACAD_TABLESTYLE
350
53
  3
ACAD_VISUALSTYLE
350
34
  3
ACDB_RECOMPOSE_DATA
350
49A
  3
AcDbVariableDictionary
350
491
  3
DWGPROPS
350
4CA
  0
DICTIONARY
  5
38
330
31
100
AcDbDictionary
280
     1
281
     1
  0
DICTIONARY
  5
24
330
23
100
AcDbDictionary
280
     1
281
     1
  3
ACAD_LAYERFILTERS
360
25
  3
ACAD_LAYERSTATES
360
26
  3
ACLYDICTIONARY
360
27
  0
DICTIONARY
  5
8
330
7
100
AcDbDictionary
280
     1
281
     1
  3
ADSK_XREC_LAYER_RECONCILED
360
9
  0
DICTIONARY
  5
3
330
2
100
AcDbDictionary
280
     1
281
     1
  3
ACAD_LAYOUTSELFREF
360
4
  3
ACAD_SORTENTS
360
48A
  0
DICTIONARY
  5
1E
330
1D
100
AcDbDictionary
280
     1
281
     1
  3
ACAD_LAYOUTSELFREF
360
1F
  0
DICTIONARY
  5
4D4
330
36C
100
AcDbDictionary
280
     1
281
     1
  3
ACAD_MTEXT_RT
360
4D5
  0
DICTIONARY
  5
4D6
330
37B
100
AcDbDictionary
280
     1
281
     1
  3
ACAD_MTEXT_RT
360
4D7
  0
DICTIONARY
  5
1B7
330
1B6
100
AcDbDictionary
280
     1
281
     1
  3
ACAD_DIMASSOC
360
1B8
  0
DICTIONARY
  5
1C6
330
1C5
100
AcDbDictionary
280
     1
281
     1
  3
ACAD_DIMASSOC
360
1C7
  0
DICTIONARY
  5
363
330
362
100
AcDbDictionary
280
     1
281
     1
  3
ACAD_DIMASSOC
360
364
  0
DICTIONARY
  5
372
330
371
100
AcDbDictionary
280
     1
281
     1
  3
ACAD_DIMASSOC
360
373
  0
DICTIONARY
  5
41F
330
41E
100
AcDbDictionary
280
     1
281
     1
  3
ACAD_DIMASSOC
360
420
  0
DICTIONARY
  5
42E
330
42D
100
AcDbDictionary
280
     1
281
     1
  3
ACAD_DIMASSOC
360
42F
  0
DICTIONARY
  5
4CB
102
{ACAD_REACTORS
330
C
102
}
330
C
100
AcDbDictionary
281
     1
  3
DIMARCSYM
350
4CC
  3
DIMLTEX1
350
4CE
  3
DIMLTEX2
350
4CF
  3
DIMLTYPE
350
4CD
  0
DICTIONARY
  5
51
102
{ACAD_REACTORS
330
C
102
}
330
C
100
AcDbDictionary
281
     1
  0
DICTIONARY
  5
3E
102
{ACAD_REACTORS
330
C
102
}
330
C
100
AcDbDictionary
281
     1
  0
DICTIONARY
  5
19
102
{ACAD_REACTORS
330
C
102
}
330
C
100
AcDbDictionary
281
     1
  3
Layout2
350
22
  3
Model
350
18
  0
DICTIONARY
  5
E
102
{ACAD_REACTORS
330
C
102
}
330
C
100
AcDbDictionary
281
     1
  3
ByBlock
350
49
  3
ByLayer
350
41
  3
Global
350
D
  0
DICTIONARY
  5
4C0
102
{ACAD_REACTORS
330
C
102
}
330
C
100
AcDbDictionary
281
     1
  3
Standard
350
4C1
  0
DICTIONARY
  5
3F
102
{ACAD_REACTORS
330
C
102
}
330
C
100
AcDbDictionary
281
     1
  3
Standard
350
54
  0
DICTIONARY
  5
40
102
{ACAD_REACTORS
330
C
102
}
330
C
100
AcDbDictionary
281
     1
  0
ACDBDICTIONARYWDFLT
  5
B
102
{ACAD_REACTORS
330
C
102
}
330
C
100
AcDbDictionary
281
     1
  3
Normal
350
A
100
AcDbDictionaryWithDefault
340
A
  0
DICTIONARY
  5
52
102
{ACAD_REACTORS
330
C
102
}
330
C
100
AcDbDictionary
281
     1
  3
*A1
350
5D
  3
A0
350
5E
  3
A1
350
5F
  3
A2
350
60
  3
A3
350
61
  3
A4
350
62
  3
A5
350
63
  3
A6
350
64
  3
A7
350
65
  3
A8
350
66
  3
A9
350
67
  3
B0
350
68
  3
B1
350
69
  3
B2
350
6A
  3
B3
350
6B
  3
B4
350
6C
  3
B5
350
6D
  3
B6
350
6E
  3
B7
350
6F
  3
B8
350
70
  3
B9
350
71
  3
C0
350
72
  3
C1
350
73
  3
C2
350
74
  3
C3
350
75
  3
C4
350
76
  3
C5
350
77
  3
C6
350
78
  3
C7
350
79
  3
C8
350
7A
  3
C9
350
7B
  3
D0
350
7C
  3
D1
350
7D
  3
D2
350
7E
  0
DICTIONARY
  5
53
102
{ACAD_REACTORS
330
C
102
}
330
C
100
AcDbDictionary
281
     1
  3
Standard
350
55
  0
DICTIONARY
  5
34
102
{ACAD_REACTORS
330
C
102
}
330
C
100
AcDbDictionary
281
     1
  3
2dWireframe
350
33
  3
3D Hidden
350
4B8
  3
3dWireframe
350
5A
  3
Basic
350
4B7
  3
Brighten
350
4BB
  3
ColorChange
350
4BF
  3
Conceptual
350
4B9
  3
Dim
350
4BA
  3
Facepattern
350
4BE
  3
Flat
350
4B3
  3
FlatWithEdges
350
4B4
  3
Gouraud
350
4B5
  3
GouraudWithEdges
350
4B6
  3
Linepattern
350
4BD
  3
Realistic
350
57
  3
Thicken
350
4BC
  0
XRECORD
  5
49A
102
{ACAD_REACTORS
330
C
102
}
330
C
100
AcDbXrecord
280
     1
 90
        1
330
55
  0
DICTIONARY
  5
491
102
{ACAD_REACTORS
330
C
102
}
330
C
100
AcDbDictionary
281
     1
  3
CANNOSCALE
350
494
  3
CMLEADERSTYLE
350
493
  3
CTABLESTYLE
350
492
  3
DIMASSOC
350
498
  3
HIDETEXT
350
497
  3
INDEXCTL
350
496
  3
SORTENTS
350
495
  0
XRECORD
  5
4CA
102
{ACAD_REACTORS
330
C
102
}
330
C
100
AcDbXrecord
280
     1
  1
DWGPROPS COOKIE
  2

  3

  4

  6

  7

  8
kkk
  9

300
=
301
=
302
=
303
=
304
=
305
=
306
=
307
=
308
=
309
=
 40
147.9506119097222
 41
2452452.600976968
 42
2456960.58889088
  1

 90
        0
  0
DICTIONARY
  5
25
102
{ACAD_REACTORS
330
24
102
}
330
24
100
AcDbDictionary
281
     1
  0
DICTIONARY
  5
26
102
{ACAD_REACTORS
330
24
102
}
330
24
100
AcDbDictionary
281
     1
  0
DICTIONARY
  5
27
102
{ACAD_REACTORS
330
24
102
}
330
24
100
AcDbDictionary
281
     1
1001
ACAD
1000
<All
  0
XRECORD
  5
9
102
{ACAD_REACTORS
330
8
102
}
330
8
100
AcDbXrecord
280
     1
290
     1
  0
XRECORD
  5
4
102
{ACAD_REACTORS
330
3
102
}
330
3
100
AcDbXrecord
280
     1
340
2
  0
SORTENTSTABLE
  5
48A
102
{ACAD_REACTORS
330
3
102
}
330
3
100
AcDbSortentsTable
330
2
  0
XRECORD
  5
1F
102
{ACAD_REACTORS
330
1E
102
}
330
1E
100
AcDbXrecord
280
     1
340
1D
  0
XRECORD
  5
4D5
102
{ACAD_REACTORS
330
4D4
102
}
330
4D4
100
AcDbXrecord
280
     1
 40
11034.0
  1
\A1;\U+2205104%%P0.5
  0
XRECORD
  5
4D7
102
{ACAD_REACTORS
330
4D6
102
}
330
4D6
100
AcDbXrecord
280
     1
 40
11034.0
  1
\A1;\U+2205104%%P0.5
  0
DIMASSOC
  5
1B8
102
{ACAD_REACTORS
330
1B7
102
}
330
1B7
100
AcDbDimAssoc
330
1B6
 90
        3
 70
     0
 71
     0
  1
AcDbOsnapPointRef
 72
     6
331
D5
 73
     2
 91
        0
 40
0.9444444444444444
 10
0.0
 20
0.0
 30
0.0
332
D4
 74
     2
 92
        0
 75
     0
  1
AcDbOsnapPointRef
 72
     6
331
D5
 73
     2
 91
        0
 40
0.0555555555555556
 10
0.0
 20
0.0
 30
0.0
332
D4
 74
     2
 92
        0
 75
     0
  0
DIMASSOC
  5
1C7
102
{ACAD_REACTORS
330
1C6
102
}
330
1C6
100
AcDbDimAssoc
330
1C5
 90
        3
 70
     0
 71
     0
  1
AcDbOsnapPointRef
 72
    13
331
E7
 73
     2
 91
        0
 40
0.0
 10
0.0
 20
0.0
 30
2.000000000000000E+50
 75
     0
  1
AcDbOsnapPointRef
 72
     1
331
EC
 73
     2
 91
        0
 40
1.570796326794896
 10
0.0
 20
0.0
 30
2.000000000000000E+50
 75
     0
  0
DIMASSOC
  5
364
102
{ACAD_REACTORS
330
363
102
}
330
363
100
AcDbDimAssoc
330
362
 90
        2
 70
     0
 71
     0
  1
AcDbOsnapPointRef
 72
     3
331
92
 73
     2
 91
        0
 40
0.0
 10
0.0
 20
0.0
 30
0.0
 75
     0
  0
DIMASSOC
  5
373
102
{ACAD_REACTORS
330
372
102
}
330
372
100
AcDbDimAssoc
330
371
 90
        2
 70
     0
 71
     0
  1
AcDbOsnapPointRef
 72
     3
331
248
 73
     2
 91
        0
 40
0.0
 10
0.0
 20
0.0
 30
0.0
 75
     0
  0
DIMASSOC
  5
420
102
{ACAD_REACTORS
330
41F
102
}
330
41F
100
AcDbDimAssoc
330
41E
 90
        3
 70
     0
 71
     0
  1
AcDbOsnapPointRef
 72
     6
331
389
 73
     2
 91
        0
 40
0.9444444444444444
 10
0.0
 20
0.0
 30
0.0
332
388
 74
     2
 92
        0
 75
     0
  1
AcDbOsnapPointRef
 72
     6
331
389
 73
     2
 91
        0
 40
0.0555555555555556
 10
0.0
 20
0.0
 30
0.0
332
388
 74
     2
 92
        0
 75
     0
  0
DIMASSOC
  5
42F
102
{ACAD_REACTORS
330
42E
102
}
330
42E
100
AcDbDimAssoc
330
42D
 90
        3
 70
     0
 71
     0
  1
AcDbOsnapPointRef
 72
    13
331
39B
 73
     2
 91
        0
 40
0.0
 10
0.0
 20
0.0
 30
2.000000000000000E+50
 75
     0
  1
AcDbOsnapPointRef
 72
     1
331
3A0
 73
     2
 91
        0
 40
1.570796326794896
 10
0.0
 20
0.0
 30
2.000000000000000E+50
 75
     0
  0
XRECORD
  5
4CC
102
{ACAD_REACTORS
330
4CB
102
}
330
4CB
100
AcDbXrecord
280
     1
 70
     1
  0
XRECORD
  5
4CE
102
{ACAD_REACTORS
330
4CB
102
}
330
4CB
100
AcDbXrecord
280
     1
340
2E
  0
XRECORD
  5
4CF
102
{ACAD_REACTORS
330
4CB
102
}
330
4CB
100
AcDbXrecord
280
     1
340
2E
  0
XRECORD
  5
4CD
102
{ACAD_REACTORS
330
4CB
102
}
330
4CB
100
AcDbXrecord
280
     1
340
2E
  0
LAYOUT
  5
22
102
{ACAD_XDICTIONARY
360
4D1
102
}
102
{ACAD_REACTORS
330
19
102
}
330
19
100
AcDbPlotSettings
  1

  2
HP LaserJet 5000 Series PS
  4
A3
  6

 40
6.085416793823242
 41
5.704408645629882
 42
5.746734619140625
 43
6.085418701171875
 44
420.1583251953125
 45
297.0106506347656
 46
0.0
 47
0.0
 48
0.0
 49
0.0
140
0.0
141
0.0
142
1.0
143
1.0
 70
   688
 72
     1
 73
     0
 74
     5
  7
monochrome.ctb
 75
    16
147
1.0
148
0.0
149
0.0
100
AcDbLayout
  1
Layout2
 70
     1
 71
     1
 10
-6.085416793823242
 20
-5.704408645629882
 11
414.0729084014892
 21
291.3062419891357
 12
0.0
 22
0.0
 32
0.0
 14
40.83261737823487
 24
28.52208232879639
 34
0.0
 15
367.4935564041137
 25
256.6987409591675
 35
0.0
146
0.0
 13
0.0
 23
0.0
 33
0.0
 16
1.0
 26
0.0
 36
0.0
 17
0.0
 27
1.0
 37
0.0
 76
     0
330
1D
  0
LAYOUT
  5
18
102
{ACAD_XDICTIONARY
360
1A
102
}
102
{ACAD_REACTORS
330
19
102
}
330
19
100
AcDbPlotSettings
  1

  2
RICOH Aficio 2027 RPCS
  4
A3
  6

 40
5.027082920074462
 41
5.027085781097412
 42
5.027099609375
 43
5.027069091796875
 44
296.9259948730469
 45
419.9466552734373
 46
4.935906171798848
 47
13.44625020027143
 48
-7703.932044841464
 49
7550.951812877231
140
-7244.332044841462
141
7883.351812877229
142
1.0
143
1.199999999999999
 70
  3748
 72
     1
 73
     1
 74
     4
  7
KSJ2008.ctb
 75
     0
147
0.8630319264247825
148
7703.932044841464
149
-7550.951812877231
100
AcDbLayout
  1
Model
 70
     1
 71
     0
 10
0.0
 20
0.0
 11
12.0
 21
9.0
 12
0.0
 22
0.0
 32
0.0
 14
0.0
 24
0.0
 34
0.0
 15
0.0
 25
0.0
 35
0.0
146
0.0
 13
0.0
 23
0.0
 33
0.0
 16
1.0
 26
0.0
 36
0.0
 17
0.0
 27
1.0
 37
0.0
 76
     0
330
2
331
32
1001
ACAD_PSEXT
1000
RICOH Aficio 2027 RPCS
1000
RICOH Aficio 2027 RPCS
1000
IP_192.168.10.205
1000

1070
     0
  0
MATERIAL
  5
49
102
{ACAD_XDICTIONARY
360
4A
102
}
102
{ACAD_REACTORS
330
E
102
}
330
E
100
AcDbMaterial
  1
ByBlock
 72
     0
 43
0.0008202099737533
 43
0.0
 43
0.0
 43
0.0
 43
0.0
 43
0.0008202099737533
 43
0.0
 43
0.0
 43
0.0
 43
0.0
 43
1.0
 43
0.0
 43
0.0
 43
0.0
 43
0.0
 43
1.0
 77
     0
 47
0.0008202099737533
 47
0.0
 47
0.0
 47
0.0
 47
0.0
 47
0.0008202099737533
 47
0.0
 47
0.0
 47
0.0
 47
0.0
 47
1.0
 47
0.0
 47
0.0
 47
0.0
 47
0.0
 47
1.0
171
     0
 49
0.0008202099737533
 49
0.0
 49
0.0
 49
0.0
 49
0.0
 49
0.0008202099737533
 49
0.0
 49
0.0
 49
0.0
 49
0.0
 49
1.0
 49
0.0
 49
0.0
 49
0.0
 49
0.0
 49
1.0
175
     0
142
0.0008202099737533
142
0.0
142
0.0
142
0.0
142
0.0
142
0.0008202099737533
142
0.0
142
0.0
142
0.0
142
0.0
142
1.0
142
0.0
142
0.0
142
0.0
142
0.0
142
1.0
179
     0
144
0.0008202099737533
144
0.0
144
0.0
144
0.0
144
0.0
144
0.0008202099737533
144
0.0
144
0.0
144
0.0
144
0.0
144
1.0
144
0.0
144
0.0
144
0.0
144
0.0
144
1.0
147
0.0008202099737533
147
0.0
147
0.0
147
0.0
147
0.0
147
0.0008202099737533
147
0.0
147
0.0
147
0.0
147
0.0
147
1.0
147
0.0
147
0.0
147
0.0
147
0.0
147
1.0
  0
MATERIAL
  5
41
102
{ACAD_XDICTIONARY
360
42
102
}
102
{ACAD_REACTORS
330
E
102
}
330
E
100
AcDbMaterial
  1
ByLayer
 72
     0
 43
0.0008202099737533
 43
0.0
 43
0.0
 43
0.0
 43
0.0
 43
0.0008202099737533
 43
0.0
 43
0.0
 43
0.0
 43
0.0
 43
1.0
 43
0.0
 43
0.0
 43
0.0
 43
0.0
 43
1.0
 77
     0
 47
0.0008202099737533
 47
0.0
 47
0.0
 47
0.0
 47
0.0
 47
0.0008202099737533
 47
0.0
 47
0.0
 47
0.0
 47
0.0
 47
1.0
 47
0.0
 47
0.0
 47
0.0
 47
0.0
 47
1.0
171
     0
 49
0.0008202099737533
 49
0.0
 49
0.0
 49
0.0
 49
0.0
 49
0.0008202099737533
 49
0.0
 49
0.0
 49
0.0
 49
0.0
 49
1.0
 49
0.0
 49
0.0
 49
0.0
 49
0.0
 49
1.0
175
     0
142
0.0008202099737533
142
0.0
142
0.0
142
0.0
142
0.0
142
0.0008202099737533
142
0.0
142
0.0
142
0.0
142
0.0
142
1.0
142
0.0
142
0.0
142
0.0
142
0.0
142
1.0
179
     0
144
0.0008202099737533
144
0.0
144
0.0
144
0.0
144
0.0
144
0.0008202099737533
144
0.0
144
0.0
144
0.0
144
0.0
144
1.0
144
0.0
144
0.0
144
0.0
144
0.0
144
1.0
147
0.0008202099737533
147
0.0
147
0.0
147
0.0
147
0.0
147
0.0008202099737533
147
0.0
147
0.0
147
0.0
147
0.0
147
1.0
147
0.0
147
0.0
147
0.0
147
0.0
147
1.0
  0
MATERIAL
  5
D
102
{ACAD_XDICTIONARY
360
F
102
}
102
{ACAD_REACTORS
330
E
102
}
330
E
100
AcDbMaterial
  1
Global
 72
     0
 43
0.0008202099737533
 43
0.0
 43
0.0
 43
0.0
 43
0.0
 43
0.0008202099737533
 43
0.0
 43
0.0
 43
0.0
 43
0.0
 43
1.0
 43
0.0
 43
0.0
 43
0.0
 43
0.0
 43
1.0
 77
     0
 47
0.0008202099737533
 47
0.0
 47
0.0
 47
0.0
 47
0.0
 47
0.0008202099737533
 47
0.0
 47
0.0
 47
0.0
 47
0.0
 47
1.0
 47
0.0
 47
0.0
 47
0.0
 47
0.0
 47
1.0
171
     0
 49
0.0008202099737533
 49
0.0
 49
0.0
 49
0.0
 49
0.0
 49
0.0008202099737533
 49
0.0
 49
0.0
 49
0.0
 49
0.0
 49
1.0
 49
0.0
 49
0.0
 49
0.0
 49
0.0
 49
1.0
175
     0
142
0.0008202099737533
142
0.0
142
0.0
142
0.0
142
0.0
142
0.0008202099737533
142
0.0
142
0.0
142
0.0
142
0.0
142
1.0
142
0.0
142
0.0
142
0.0
142
0.0
142
1.0
179
     0
144
0.0008202099737533
144
0.0
144
0.0
144
0.0
144
0.0
144
0.0008202099737533
144
0.0
144
0.0
144
0.0
144
0.0
144
1.0
144
0.0
144
0.0
144
0.0
144
0.0
144
1.0
147
0.0008202099737533
147
0.0
147
0.0
147
0.0
147
0.0
147
0.0008202099737533
147
0.0
147
0.0
147
0.0
147
0.0
147
1.0
147
0.0
147
0.0
147
0.0
147
0.0
147
1.0
  0
MLEADERSTYLE
  5
4C1
102
{ACAD_REACTORS
330
4C0
102
}
330
4C0
100
AcDbMLeaderStyle
170
     2
171
     1
172
     0
 90
        2
 40
0.0
 41
0.0
173
     1
 91
-1056964608
340
2D
 92
       -2
290
     1
 42
2.0
291
     1
 43
0.36
  3
Standard
 44
4.0
300

342
2A
174
     1
178
     6
175
     1
176
     0
 93
-1056964608
 45
4.0
292
     0
297
     0
 46
4.0
 94
-1056964608
 47
1.0
 49
1.0
140
1.0
293
     1
141
0.0
294
     1
177
     0
142
1.0
295
     0
296
     0
143
0.125
1001
ACAD_MLEADERVER
1070
     2
  0
MLINESTYLE
  5
54
102
{ACAD_REACTORS
330
3F
102
}
330
3F
100
AcDbMlineStyle
  2
STANDARD
 70
     0
  3

 62
   256
 51
90.0
 52
90.0
 71
     2
 49
0.5
 62
   256
  6
BYLAYER
 49
-0.5
 62
   256
  6
BYLAYER
  0
ACDBPLACEHOLDER
  5
A
102
{ACAD_REACTORS
330
B
102
}
330
B
  0
SCALE
  5
5D
102
{ACAD_REACTORS
330
52
102
}
330
52
100
AcDbScale
 70
     0
300
1/128" = 1'-0"_1
140
0.007812
141
12.0
290
     0
  0
SCALE
  5
5E
102
{ACAD_REACTORS
330
52
102
}
330
52
100
AcDbScale
 70
     0
300
1:1
140
1.0
141
1.0
290
     1
  0
SCALE
  5
5F
102
{ACAD_REACTORS
330
52
102
}
330
52
100
AcDbScale
 70
     0
300
1:2
140
1.0
141
2.0
290
     0
  0
SCALE
  5
60
102
{ACAD_REACTORS
330
52
102
}
330
52
100
AcDbScale
 70
     0
300
1:4
140
1.0
141
4.0
290
     0
  0
SCALE
  5
61
102
{ACAD_REACTORS
330
52
102
}
330
52
100
AcDbScale
 70
     0
300
1:5
140
1.0
141
5.0
290
     0
  0
SCALE
  5
62
102
{ACAD_REACTORS
330
52
102
}
330
52
100
AcDbScale
 70
     0
300
1:8
140
1.0
141
8.0
290
     0
  0
SCALE
  5
63
102
{ACAD_REACTORS
330
52
102
}
330
52
100
AcDbScale
 70
     0
300
1:10
140
1.0
141
10.0
290
     0
  0
SCALE
  5
64
102
{ACAD_REACTORS
330
52
102
}
330
52
100
AcDbScale
 70
     0
300
1:16
140
1.0
141
16.0
290
     0
  0
SCALE
  5
65
102
{ACAD_REACTORS
330
52
102
}
330
52
100
AcDbScale
 70
     0
300
1:20
140
1.0
141
20.0
290
     0
  0
SCALE
  5
66
102
{ACAD_REACTORS
330
52
102
}
330
52
100
AcDbScale
 70
     0
300
1:30
140
1.0
141
30.0
290
     0
  0
SCALE
  5
67
102
{ACAD_REACTORS
330
52
102
}
330
52
100
AcDbScale
 70
     0
300
1:40
140
1.0
141
40.0
290
     0
  0
SCALE
  5
68
102
{ACAD_REACTORS
330
52
102
}
330
52
100
AcDbScale
 70
     0
300
1:50
140
1.0
141
50.0
290
     0
  0
SCALE
  5
69
102
{ACAD_REACTORS
330
52
102
}
330
52
100
AcDbScale
 70
     0
300
1:100
140
1.0
141
100.0
290
     0
  0
SCALE
  5
6A
102
{ACAD_REACTORS
330
52
102
}
330
52
100
AcDbScale
 70
     0
300
2:1
140
2.0
141
1.0
290
     0
  0
SCALE
  5
6B
102
{ACAD_REACTORS
330
52
102
}
330
52
100
AcDbScale
 70
     0
300
4:1
140
4.0
141
1.0
290
     0
  0
SCALE
  5
6C
102
{ACAD_REACTORS
330
52
102
}
330
52
100
AcDbScale
 70
     0
300
8:1
140
8.0
141
1.0
290
     0
  0
SCALE
  5
6D
102
{ACAD_REACTORS
330
52
102
}
330
52
100
AcDbScale
 70
     0
300
10:1
140
10.0
141
1.0
290
     0
  0
SCALE
  5
6E
102
{ACAD_REACTORS
330
52
102
}
330
52
100
AcDbScale
 70
     0
300
100:1
140
100.0
141
1.0
290
     0
  0
SCALE
  5
6F
102
{ACAD_REACTORS
330
52
102
}
330
52
100
AcDbScale
 70
     0
300
1/128" = 1'-0"
140
0.0078125
141
12.0
290
     0
  0
SCALE
  5
70
102
{ACAD_REACTORS
330
52
102
}
330
52
100
AcDbScale
 70
     0
300
1/64" = 1'-0"
140
0.015625
141
12.0
290
     0
  0
SCALE
  5
71
102
{ACAD_REACTORS
330
52
102
}
330
52
100
AcDbScale
 70
     0
300
1/32" = 1'-0"
140
0.03125
141
12.0
290
     0
  0
SCALE
  5
72
102
{ACAD_REACTORS
330
52
102
}
330
52
100
AcDbScale
 70
     0
300
1/16" = 1'-0"
140
0.0625
141
12.0
290
     0
  0
SCALE
  5
73
102
{ACAD_REACTORS
330
52
102
}
330
52
100
AcDbScale
 70
     0
300
3/32" = 1'-0"
140
0.09375
141
12.0
290
     0
  0
SCALE
  5
74
102
{ACAD_REACTORS
330
52
102
}
330
52
100
AcDbScale
 70
     0
300
1/8" = 1'-0"
140
0.125
141
12.0
290
     0
  0
SCALE
  5
75
102
{ACAD_REACTORS
330
52
102
}
330
52
100
AcDbScale
 70
     0
300
3/16" = 1'-0"
140
0.1875
141
12.0
290
     0
  0
SCALE
  5
76
102
{ACAD_REACTORS
330
52
102
}
330
52
100
AcDbScale
 70
     0
300
1/4" = 1'-0"
140
0.25
141
12.0
290
     0
  0
SCALE
  5
77
102
{ACAD_REACTORS
330
52
102
}
330
52
100
AcDbScale
 70
     0
300
3/8" = 1'-0"
140
0.375
141
12.0
290
     0
  0
SCALE
  5
78
102
{ACAD_REACTORS
330
52
102
}
330
52
100
AcDbScale
 70
     0
300
1/2" = 1'-0"
140
0.5
141
12.0
290
     0
  0
SCALE
  5
79
102
{ACAD_REACTORS
330
52
102
}
330
52
100
AcDbScale
 70
     0
300
3/4" = 1'-0"
140
0.75
141
12.0
290
     0
  0
SCALE
  5
7A
102
{ACAD_REACTORS
330
52
102
}
330
52
100
AcDbScale
 70
     0
300
1" = 1'-0"
140
1.0
141
12.0
290
     0
  0
SCALE
  5
7B
102
{ACAD_REACTORS
330
52
102
}
330
52
100
AcDbScale
 70
     0
300
1-1/2" = 1'-0"
140
1.5
141
12.0
290
     0
  0
SCALE
  5
7C
102
{ACAD_REACTORS
330
52
102
}
330
52
100
AcDbScale
 70
     0
300
3" = 1'-0"
140
3.0
141
12.0
290
     0
  0
SCALE
  5
7D
102
{ACAD_REACTORS
330
52
102
}
330
52
100
AcDbScale
 70
     0
300
6" = 1'-0"
140
6.0
141
12.0
290
     0
  0
SCALE
  5
7E
102
{ACAD_REACTORS
330
52
102
}
330
52
100
AcDbScale
 70
     0
300
1'-0" = 1'-0"
140
12.0
141
12.0
290
     0
  0
TABLESTYLE
  5
55
102
{ACAD_XDICTIONARY
360
56
102
}
102
{ACAD_REACTORS
330
53
102
}
330
53
100
AcDbTableStyle
  3
Standard
 70
     0
 71
     0
 40
1.5
 41
1.5
280
     0
281
     0
  7
Standard
140
4.5
170
     2
 62
     0
 63
     7
283
     0
274
    -2
284
     1
 64
     0
275
    -2
285
     1
 65
     0
276
    -2
286
     1
 66
     0
277
    -2
287
     1
 67
     0
278
    -2
288
     1
 68
     0
279
    -2
289
     1
 69
     0
  7
Standard
140
6.0
170
     5
 62
     0
 63
     7
283
     0
274
    -2
284
     1
 64
     0
275
    -2
285
     1
 65
     0
276
    -2
286
     1
 66
     0
277
    -2
287
     1
 67
     0
278
    -2
288
     1
 68
     0
279
    -2
289
     1
 69
     0
  7
Standard
140
4.5
170
     5
 62
     0
 63
     7
283
     0
274
    -2
284
     1
 64
     0
275
    -2
285
     1
 65
     0
276
    -2
286
     1
 66
     0
277
    -2
287
     1
 67
     0
278
    -2
288
     1
 68
     0
279
    -2
289
     1
 69
     0
  0
VISUALSTYLE
  5
33
102
{ACAD_XDICTIONARY
360
35
102
}
102
{ACAD_REACTORS
330
34
102
}
330
34
100
AcDbVisualStyle
  2
2dWireframe
 70
     4
 71
     0
 72
     2
 73
     0
 90
        0
 40
-0.6
 41
-30.0
 62
     5
 63
     7
 74
     1
 91
        4
 64
     7
 65
   257
 75
     1
175
     1
 42
1.0
 92
        0
 66
   257
 43
1.0
 76
     1
 77
     6
 78
     2
 67
     7
 79
     5
170
     0
171
     0
290
     0
174
     0
 93
        1
 44
0.0
173
     0
291
     0
 45
0.0
1001
ACAD
1000
AcDbSavedByObjectVersion
1070
     0
1000
AcDbSavedByObjectVersion
1070
     0
  0
VISUALSTYLE
  5
4B8
102
{ACAD_REACTORS
330
34
102
}
330
34
100
AcDbVisualStyle
  2
3D Hidden
 70
     6
 71
     1
 72
     2
 73
     2
 90
        0
 40
-0.6
 41
-30.0
 62
     5
 63
     7
 74
     2
 91
        2
 64
     7
 65
   257
 75
     2
175
     1
 42
40.0
 92
        0
 66
   257
 43
1.0
 76
     1
 77
     6
 78
     2
 67
     7
 79
     3
170
     0
171
     0
290
     0
174
     0
 93
        1
 44
0.0
173
     0
291
     0
 45
0.0
1001
ACAD
1000
AcDbSavedByObjectVersion
1070
     0
  0
VISUALSTYLE
  5
5A
102
{ACAD_XDICTIONARY
360
5B
102
}
102
{ACAD_REACTORS
330
34
102
}
330
34
100
AcDbVisualStyle
  2
3dWireframe
 70
     5
 71
     0
 72
     2
 73
     0
 90
        0
 40
-0.6
 41
-30.0
 62
     5
 63
     7
 74
     1
 91
        4
 64
     7
 65
   257
 75
     1
175
     1
 42
1.0
 92
        0
 66
   257
 43
1.0
 76
     1
 77
     6
 78
     2
 67
     7
 79
     5
170
     0
171
     0
290
     0
174
     0
 93
        1
 44
0.0
173
     0
291
     0
 45
0.0
1001
ACAD
1000
AcDbSavedByObjectVersion
1070
     0
1000
AcDbSavedByObjectVersion
1070
     0
  0
VISUALSTYLE
  5
4B7
102
{ACAD_REACTORS
330
34
102
}
330
34
100
AcDbVisualStyle
  2
Basic
 70
     7
 71
     1
 72
     0
 73
     1
 90
        0
 40
-0.6
 41
-30.0
 62
     5
 63
     7
 74
     0
 91
        4
 64
     7
 65
   257
 75
     1
175
     1
 42
1.0
 92
        8
 66
     7
 43
1.0
 76
     1
 77
     6
 78
     2
 67
     7
 79
     5
170
     0
171
     0
290
     0
174
     0
 93
        1
 44
0.0
173
     0
291
     1
 45
0.0
1001
ACAD
1000
AcDbSavedByObjectVersion
1070
     0
  0
VISUALSTYLE
  5
4BB
102
{ACAD_REACTORS
330
34
102
}
330
34
100
AcDbVisualStyle
  2
Brighten
 70
    12
 71
     2
 72
     2
 73
     0
 90
        0
 40
-0.6
 41
-30.0
 62
     5
 63
     7
 74
     1
 91
        4
 64
     7
 65
   257
 75
     1
175
     1
 42
1.0
 92
        8
 66
     7
 43
1.0
 76
     1
 77
     6
 78
     2
 67
     7
 79
     5
170
     0
171
     0
290
     0
174
     0
 93
        1
 44
50.0
173
     0
291
     1
 45
0.0
1001
ACAD
1000
AcDbSavedByObjectVersion
1070
     0
  0
VISUALSTYLE
  5
4BF
102
{ACAD_REACTORS
330
34
102
}
330
34
100
AcDbVisualStyle
  2
ColorChange
 70
    16
 71
     2
 72
     2
 73
     3
 90
        0
 40
-0.6
 41
-30.0
 62
     5
 63
     8
 74
     1
 91
        4
 64
     7
 65
   257
 75
     1
175
     1
 42
1.0
 92
        8
 66
     8
 43
1.0
 76
     1
 77
     6
 78
     2
 67
     7
 79
     5
170
     0
171
     0
290
     0
174
     0
 93
        1
 44
0.0
173
     0
291
     1
 45
0.0
1001
ACAD
1000
AcDbSavedByObjectVersion
1070
     0
  0
VISUALSTYLE
  5
4B9
102
{ACAD_REACTORS
330
34
102
}
330
34
100
AcDbVisualStyle
  2
Conceptual
 70
     9
 71
     3
 72
     2
 73
     0
 90
        0
 40
-0.6
 41
-30.0
 62
     5
 63
     7
 74
     2
 91
        2
 64
     7
 65
   257
 75
     1
175
     1
 42
40.0
 92
        8
 66
     7
 43
1.0
 76
     1
 77
     6
 78
     2
 67
     7
 79
     3
170
     0
171
     0
290
     0
174
     0
 93
        1
 44
0.0
173
     0
291
     0
 45
0.0
1001
ACAD
1000
AcDbSavedByObjectVersion
1070
     0
  0
VISUALSTYLE
  5
4BA
102
{ACAD_REACTORS
330
34
102
}
330
34
100
AcDbVisualStyle
  2
Dim
 70
    11
 71
     2
 72
     2
 73
     0
 90
        0
 40
-0.6
 41
-30.0
 62
     5
 63
     7
 74
     1
 91
        4
 64
     7
 65
   257
 75
     1
175
     1
 42
1.0
 92
        8
 66
     7
 43
1.0
 76
     1
 77
     6
 78
     2
 67
     7
 79
     5
170
     0
171
     0
290
     0
174
     0
 93
        1
 44
-50.0
173
     0
291
     1
 45
0.0
1001
ACAD
1000
AcDbSavedByObjectVersion
1070
     0
  0
VISUALSTYLE
  5
4BE
102
{ACAD_REACTORS
330
34
102
}
330
34
100
AcDbVisualStyle
  2
Facepattern
 70
    15
 71
     2
 72
     2
 73
     0
 90
        0
 40
-0.6
 41
-30.0
 62
     5
 63
     7
 74
     1
 91
        4
 64
     7
 65
   257
 75
     1
175
     1
 42
1.0
 92
        8
 66
     7
 43
1.0
 76
     1
 77
     6
 78
     2
 67
     7
 79
     5
170
     0
171
     0
290
     0
174
     0
 93
        1
 44
0.0
173
     0
291
     1
 45
0.0
1001
ACAD
1000
AcDbSavedByObjectVersion
1070
     0
  0
VISUALSTYLE
  5
4B3
102
{ACAD_REACTORS
330
34
102
}
330
34
100
AcDbVisualStyle
  2
Flat
 70
     0
 71
     2
 72
     1
 73
     1
 90
        2
 40
-0.6
 41
30.0
 62
     5
 63
     7
 74
     0
 91
        4
 64
     7
 65
   257
 75
     1
175
     1
 42
1.0
 92
        8
 66
     7
 43
1.0
 76
     1
 77
     6
 78
     2
 67
     7
 79
     5
170
     0
171
     0
290
     0
174
     0
 93
       13
 44
0.0
173
     0
291
     1
 45
0.0
1001
ACAD
1000
AcDbSavedByObjectVersion
1070
     0
  0
VISUALSTYLE
  5
4B4
102
{ACAD_REACTORS
330
34
102
}
330
34
100
AcDbVisualStyle
  2
FlatWithEdges
 70
     1
 71
     2
 72
     1
 73
     1
 90
        2
 40
-0.6
 41
30.0
 62
     5
 63
     7
 74
     1
 91
        4
 64
     7
 65
   257
 75
     1
175
     1
 42
1.0
 92
        0
 66
   257
 43
1.0
 76
     1
 77
     6
 78
     2
 67
     7
 79
     5
170
     0
171
     0
290
     0
174
     0
 93
       13
 44
0.0
173
     0
291
     1
 45
0.0
1001
ACAD
1000
AcDbSavedByObjectVersion
1070
     0
  0
VISUALSTYLE
  5
4B5
102
{ACAD_REACTORS
330
34
102
}
330
34
100
AcDbVisualStyle
  2
Gouraud
 70
     2
 71
     2
 72
     2
 73
     1
 90
        2
 40
-0.6
 41
30.0
 62
     5
 63
     7
 74
     0
 91
        4
 64
     7
 65
   257
 75
     1
175
     1
 42
1.0
 92
        0
 66
     7
 43
1.0
 76
     1
 77
     6
 78
     2
 67
     7
 79
     5
170
     0
171
     0
290
     0
174
     0
 93
       13
 44
0.0
173
     0
291
     1
 45
0.0
1001
ACAD
1000
AcDbSavedByObjectVersion
1070
     0
  0
VISUALSTYLE
  5
4B6
102
{ACAD_REACTORS
330
34
102
}
330
34
100
AcDbVisualStyle
  2
GouraudWithEdges
 70
     3
 71
     2
 72
     2
 73
     1
 90
        2
 40
-0.6
 41
30.0
 62
     5
 63
     7
 74
     1
 91
        4
 64
     7
 65
   257
 75
     1
175
     1
 42
1.0
 92
        0
 66
   257
 43
1.0
 76
     1
 77
     6
 78
     2
 67
     7
 79
     5
170
     0
171
     0
290
     0
174
     0
 93
       13
 44
0.0
173
     0
291
     1
 45
0.0
1001
ACAD
1000
AcDbSavedByObjectVersion
1070
     0
  0
VISUALSTYLE
  5
4BD
102
{ACAD_REACTORS
330
34
102
}
330
34
100
AcDbVisualStyle
  2
Linepattern
 70
    14
 71
     2
 72
     2
 73
     0
 90
        0
 40
-0.6
 41
-30.0
 62
     5
 63
     7
 74
     1
 91
        4
 64
     7
 65
   257
 75
     7
175
     7
 42
1.0
 92
        8
 66
     7
 43
1.0
 76
     1
 77
     6
 78
     2
 67
     7
 79
     5
170
     0
171
     0
290
     0
174
     0
 93
        1
 44
0.0
173
     0
291
     1
 45
0.0
1001
ACAD
1000
AcDbSavedByObjectVersion
1070
     0
  0
VISUALSTYLE
  5
57
102
{ACAD_XDICTIONARY
360
58
102
}
102
{ACAD_REACTORS
330
34
102
}
330
34
100
AcDbVisualStyle
  2
Realistic
 70
     8
 71
     2
 72
     2
 73
     0
 90
        0
 40
-0.6
 41
-30.0
 62
     5
 63
     7
 74
     1
 91
        0
 64
     7
 65
   257
 75
     1
175
     1
 42
1.0
 92
        8
 66
     8
 43
1.0
 76
     1
 77
     6
 78
     2
 67
     7
 79
     5
170
     0
171
     0
290
     0
174
     0
 93
       13
 44
0.0
173
     0
291
     0
 45
0.0
1001
ACAD
1000
AcDbSavedByObjectVersion
1070
     0
1000
AcDbSavedByObjectVersion
1070
     0
  0
VISUALSTYLE
  5
4BC
102
{ACAD_REACTORS
330
34
102
}
330
34
100
AcDbVisualStyle
  2
Thicken
 70
    13
 71
     2
 72
     2
 73
     0
 90
        0
 40
-0.6
 41
-30.0
 62
     5
 63
     7
 74
     1
 91
        4
 64
     7
 65
   257
 75
     1
175
     1
 42
1.0
 92
       12
 66
     7
 43
1.0
 76
     1
 77
     6
 78
     2
 67
     7
 79
     5
170
     0
171
     0
290
     0
174
     0
 93
        1
 44
0.0
173
     0
291
     1
 45
0.0
1001
ACAD
1000
AcDbSavedByObjectVersion
1070
     0
  0
DICTIONARYVAR
  5
494
102
{ACAD_REACTORS
330
491
102
}
330
491
100
DictionaryVariables
280
     0
  1
1:1
  0
DICTIONARYVAR
  5
493
102
{ACAD_REACTORS
330
491
102
}
330
491
100
DictionaryVariables
280
     0
  1
STANDARD
  0
DICTIONARYVAR
  5
492
102
{ACAD_REACTORS
330
491
102
}
330
491
100
DictionaryVariables
280
     0
  1
STANDARD
  0
DICTIONARYVAR
  5
498
102
{ACAD_REACTORS
330
491
102
}
330
491
100
DictionaryVariables
280
     0
  1
2
  0
DICTIONARYVAR
  5
497
102
{ACAD_REACTORS
330
491
102
}
330
491
100
DictionaryVariables
280
     0
  1
1
  0
DICTIONARYVAR
  5
496
102
{ACAD_REACTORS
330
491
102
}
330
491
100
DictionaryVariables
280
     0
  1
0
  0
DICTIONARYVAR
  5
495
102
{ACAD_REACTORS
330
491
102
}
330
491
100
DictionaryVariables
280
     0
  1
127
  0
DICTIONARY
  5
4D1
330
22
100
AcDbDictionary
280
     1
281
     1
  3
ACAD_XREC_ROUNDTRIP
360
4D2
  0
DICTIONARY
  5
1A
330
18
100
AcDbDictionary
280
     1
281
     1
  3
ACAD_XREC_ROUNDTRIP
360
4D0
  3
ADSK_XREC_LAYOUTTHUMBNAIL
360
1B
  0
DICTIONARY
  5
4A
330
49
100
AcDbDictionary
280
     1
281
     1
  3
ACAD_XREC_ROUNDTRIP
360
4A5
  3
BUMPTILE
360
4B
  3
DIFFUSETILE
360
4C
  3
OPACITYTILE
360
4D
  3
REFLECTIONTILE
360
4E
  3
REFRACTIONTILE
360
4F
  3
SPECULARTILE
360
50
  0
DICTIONARY
  5
42
330
41
100
AcDbDictionary
280
     1
281
     1
  3
ACAD_XREC_ROUNDTRIP
360
4A4
  3
BUMPTILE
360
43
  3
DIFFUSETILE
360
44
  3
OPACITYTILE
360
45
  3
REFLECTIONTILE
360
46
  3
REFRACTIONTILE
360
47
  3
SPECULARTILE
360
48
  0
DICTIONARY
  5
F
330
D
100
AcDbDictionary
280
     1
281
     1
  3
ACAD_XREC_ROUNDTRIP
360
4A0
  3
BUMPTILE
360
10
  3
DIFFUSETILE
360
11
  3
OPACITYTILE
360
12
  3
REFLECTIONTILE
360
13
  3
REFRACTIONTILE
360
14
  3
SPECULARTILE
360
15
  0
DICTIONARY
  5
56
330
55
100
AcDbDictionary
280
     1
281
     1
  3
ACAD_ROUNDTRIP_2008_TABLESTYLE_CELLSTYLEMAP
360
4C9
  3
ACAD_XREC_ROUNDTRIP
360
4D3
  0
DICTIONARY
  5
35
330
33
100
AcDbDictionary
280
     1
281
     1
  3
ACAD_XREC_ROUNDTRIP
360
36
  0
DICTIONARY
  5
5B
330
5A
100
AcDbDictionary
280
     1
281
     1
  3
ACAD_XREC_ROUNDTRIP
360
5C
  0
DICTIONARY
  5
58
330
57
100
AcDbDictionary
280
     1
281
     1
  3
ACAD_XREC_ROUNDTRIP
360
59
  0
XRECORD
  5
4D2
102
{ACAD_REACTORS
330
4D1
102
}
330
4D1
100
AcDbXrecord
280
     1
102
SHADEPLOT
 70
     0
102
SHADEPLOTRESLEVEL
 70
     2
102
SHADEPLOTCUSTOMDPI
 70
   300
  0
XRECORD
  5
4D0
102
{ACAD_REACTORS
330
1A
102
}
330
1A
100
AcDbXrecord
280
     1
102
SHADEPLOT
 70
     1
102
SHADEPLOTRESLEVEL
 70
     2
102
SHADEPLOTCUSTOMDPI
 70
   300
  0
XRECORD
  5
1B
102
{ACAD_REACTORS
330
1A
102
}
330
1A
100
AcDbXrecord
280
     1
310
280000000001000073000000010008000000000000730000000000000000000000010000000000000000000000000000FFFFFF000000000000000000000000000000000000000000000000000000000000000000330000006600000099000000CC000000FF00000000330000333300006633000099330000CC330000FF3300
310
0000660000336600006666000099660000CC660000FF66000000990000339900006699000099990000CC990000FF99000000CC000033CC000066CC000099CC0000CCCC0000FFCC000000FF000033FF000066FF000099FF0000CCFF0000FFFF000000003300330033006600330099003300CC003300FF003300003333003333
310
33006633330099333300CC333300FF33330000663300336633006666330099663300CC663300FF66330000993300339933006699330099993300CC993300FF99330000CC330033CC330066CC330099CC3300CCCC3300FFCC330000FF330033FF330066FF330099FF3300CCFF3300FFFF330000006600330066006600660099
310
006600CC006600FF00660000336600333366006633660099336600CC336600FF33660000666600336666006666660099666600CC666600FF66660000996600339966006699660099996600CC996600FF99660000CC660033CC660066CC660099CC6600CCCC6600FFCC660000FF660033FF660066FF660099FF6600CCFF6600
310
FFFF660000009900330099006600990099009900CC009900FF00990000339900333399006633990099339900CC339900FF33990000669900336699006666990099669900CC669900FF66990000999900339999006699990099999900CC999900FF99990000CC990033CC990066CC990099CC9900CCCC9900FFCC990000FF99
310
0033FF990066FF990099FF9900CCFF9900FFFF99000000CC003300CC006600CC009900CC00CC00CC00FF00CC000033CC003333CC006633CC009933CC00CC33CC00FF33CC000066CC003366CC006666CC009966CC00CC66CC00FF66CC000099CC003399CC006699CC009999CC00CC99CC00FF99CC0000CCCC0033CCCC0066CC
310
CC0099CCCC00CCCCCC00FFCCCC0000FFCC0033FFCC0066FFCC0099FFCC00CCFFCC00FFFFCC000000FF003300FF006600FF009900FF00CC00FF00FF00FF000033FF003333FF006633FF009933FF00CC33FF00FF33FF000066FF003366FF006666FF009966FF00CC66FF00FF66FF000099FF003399FF006699FF009999FF00CC
310
99FF00FF99FF0000CCFF0033CCFF0066CCFF0099CCFF00CCCCFF00FFCCFF0000FFFF0033FFFF0066FFFF0099FFFF00CCFFFF00FFFFFF00000000000D0D0D001A1A1A00282828003535350043434300505050005D5D5D006B6B6B00787878008686860093939300A1A1A100AEAEAE00BBBBBB00C9C9C900D6D6D600E4E4E400
310
F1F1F100FFFFFF0000000000000000000000000000000000000000000000000000000000000000000000000000000000E2E2E2E2E2E2E2E2E2E2E2E2E2E2E2E2E2E2E2E2E2E2E2E2E2E2E2E2E2E2E2E2E2E2E2E2E2E2E2E2E2E2E2E2E2E2E2E2E2E2E2E2E2E2E2E2E2E2E2E2E2E2E2E2E2E2E2E2E2E2E2E2E2E2E2E2E2E2E2
310
E2E2E2E2E2E2E2E2E2E2E2E2E2E2E2E2E2E2E2E2E2E2E2E2E2E2E2E2E2E2E2E2E2E2E2E2E2E2E2E2E2E2E2E2E2E2E2E2E2E2E2E2E2E2E2E2E2E2E2E2E2E2E2E2E2E2E2E2E2E2E2E2E2E2E2E2E2E2E2E2E2E2E2E2E2E2E2E2E2E2E2E2E2E2E2E2E2E2E2E2E2E2E2E2E2E2E2E2E2E2E2E2E2E2E2E2E2E2E2E2E2E2E2E2E2E2E2
310
E2E2E2E2E9E2E2E2E2E2E2E2E2E2E2E2E2E2E2E2E2E2E2E2E2E2E2E2E2E2E2E2E2E2E2E2E2E2E2E2E2E2E2E2E2E2E2E2E2E2E2E2E2E2E2E2E2E2E2E2E2E2E2E2E2E2E2E2E2E2E2E2E2E2E2E2E2E2E2E2E2E2E2E2E2E2E2E2E2E2E2E2E2E2E2E2E2E2E2E2E2E2E2E2E2E2E2E2E2E2E2E2E2E2E2E2E2E2E2E2E2E2E2E2E2E2E2
310
E2E2E2E2E2E2E2E2E2E2E2E2E2E2E2E2E2E2E2E2E2E2E2E2E2E2E2E2E2E2E2E2E2E2E2E2E2E2E2E2E2E2E2E2E2E2E2E2E2E2E2E2E2E2E2E2E2E2E2E2E2E2E2E2E2E2E2E2E2E2E2E2E2E2E2E2E2E2E2E2E2E2E2E2E2E2E2E2E2E2E2E2E2E2E2E2E2E2E2E2E2E2E2E2E2E2E2E2E2E2E2E2E2E2E2E2E2E2E2E2E2E2E2E2E2E2E2
310
E2E2E2E2E2E2E9E2E2E2E2E2E2E2E2E2E2E2E2E2E2E2E2E2E2E2E2E2E2E2E2E2E2E2E2E2E2E2E2E2E2E2E2E2E2E2E2E2E2E2E2E2E2E2E2E2E2E2E2E2E2E2E2E2E2E2E2E2E2E2E2E2E2E2E2E2E2E2E2E2E2E2E2E2E2E2E2E2E2E2E2E2E2E2E2E2E2E2E2E2E2E2E2E2E2E2E2E2E2E2E2E2E2E2E2E2E2E2E2E2E2E2E2E2E2E2E2
310
E2E2E2E2E2E2E2E2E2E2E2E2E2E2E2E2E2E2E2E2E2E2E2E2E2E2E2E2E2E2E2E2E2E2E2E2E2E2E2E2E2E2E2E2E2E2E2E2E2E2E2E2E2E2E2E2E2E2E2E2E2E2E2E2E2E2E2E2E2E2E2E2E2E2E2E2E2E2E2E2E2E2E2E2E2E2E2E2E2E2E2E2E2E2E2E2E2E2E2E2E2E2E2E2E2E2E2E2E2E2E2E2E2E2E2E2E2E2E2E2E2E2E2E2E2E2E2
310
E2E2E2E2E2E2E2E2E9E2E2E2E2E2E2E2E2E2E2E2E2E2E2E2E2E2E2E2E2E2E2E2E2E2E2E2E2E2E2E2E2E2E2E2E2E2E2E2E2E2E2E2E2E2E2E2E2E2E2E2E2E2E2E2E2E2E2E2E2E2E2E2E2E2E2E2E2E2E2E2E2E2E2E2E2E2E2E2E2E2E2E2E2E2E2E2E2E2E2E2E2E2E2E2E2E2E2E2E2E2E2E2E2E2E2E2E2E2E2E2E2E2E2E2E2E2E2
310
E2E2E2E2E2E2E2E2E2E2E2E2E2E2E2E2E2E2E2E2E2E2E2E2E2E2E2E2E2E2E2E2E2E2E2E2E2E2E2E2E2E2E2E2E2E2E2E2E2E2E2E2E2E2E2E2E2E2E2E2E2E2E2E2E2E2E2E2E2E2E2E2E2E2E2E2E2E2E2E2E2F5E2E2E2F5E2E2E2E2E2E2E2E2E2E2E2E2E2E2E2E2E2E2E2E2E2E2E2E2E2E2E2E2E2E2E2E2E2E2E2E2E2E2E2E2E2
310
E2E2E2E2E2E2E2E2E2E2E9E2E2E2E2E2E2E2E2E2E2E2E2E2E2E2E2E2E2E2E2E2E2E2E2E2E2E2E2E2E2E2E2E2E2E2E2E2E2E2E2E2E2E2E2E2E2E2E2E2E2E2E2E2E2E2E2E2E2E2E2E2E2E2E2E2E2E2E2E2E2E2E2E2E2E2E2E2E2E2E2E2E2E2E2E2E2E2E2E2E2E2E2E2E2E2E2E2E2E2E2E2E2E2E2E2E2E2E2E2E2E2E2E2E2E2E2
310
E2E2E2E2E2E2E2E2E2E2E2E2E2E2E2E2E2E2E2E2E2E2E2E2E2E2E2E2E2E2E2E2E2E2E2E2E2E2E2E2E2E2E2E2E2E2E2E2E2E2E2E2E2E2E2E2E2E2E2E2E2E2E2E2E2E2E2E2E2E2E2E2E2E2E2E2E2E2E2E2E2E2F5F5F5F5F5F5E2E2E2E2E2E2E2E2E2E2E2E2E2E2E2E2E2E2E2E2E2E2E2E2E2E2E2E2E2E2E2E2E2E2E2E2E2E2E2
310
E2E2E2E2E2E2E2E2E2E2E2E2E9E2E2E2E2E2E2E2E2E2E2E2E2E2E2E2E2E2E2E2E2E2E2E2E2E2E2E2E2E2E2E2E2E2E2E2E2E2E2E2E2E2E2E2E2E2E2E2E2E2E2E2E2E2E2E2E2E2E2E2E2E2E2E2E2E2E2E2E2E2E2E2E2E2E2E2E2E2E2E2E2E2E2E2E2E2E2E2E2F5F5F5F5F5F5F5F5F5F5F5F5F5F5F5F5F5F5F5F5F5F5F5F5F5F5
310
F5F5F5F5F5F5F5F5F5F5F5F5F5F5F5F5F5F5F5F5F5F5F5F5F5F5F5F5F5F5F5F5F5F5F5F5F5F5282828282828282828282828F5F528F5F5F5F5F5F5F5F528F5F5F5F5F5F5F5F5F5F5F5F5F5F5F5F5F5F5F5F5F5F5F5F5F5F5F5F5E2E2E2E2E2E2E2E2E2E2E2E2E2E2E2E2E2E2E2E2E2E2E2E2E2E2E2E2E2E2E2E2E2E2E2E2E2
310
E2E2E2E2E2E2E2E2E2E2E2E2E2E2E9E2E2E2E2E2E2E2E2E2E2E2E2E2E2E2E2E2E2E2E2E2E2E2E2E2E2E2E2E2E2E2E2E2E2E2E2E2E2E2E2E2E2E2E2E2E2E2E2E2E2E2E2E2E2E2E2E2E2E2E2E2E2E2E2E2E2E2E2E2E2E2E2E2E2E2E2E2E2E2E2E2E2E2E2E2E2E2E2F5E2E2E2E2E2E2E2E2E2E2E2E2E2E2E2E2E2E2E2E2E2E2E2
310
E2E2E2E2E2E2E2E2E2E2E2E2E2E2E2E2E2E2E2E2E2E2E2E2E2E2E2E2E2E2E2E2E2E2E2E2E2E2E2F5282828282828282828282828E2E228E2E2E2E2E2E2E2E228E2E2E2E2E2E2E2E2E2E2E2E2E2E2E2E2E2E2E2E2E2E2E2E2E2E2E2F5E2E2E2E2E2E2E2E2E2E2E2E2E2E2E2E2E2E2E2E2E2E2E2E2E2E2E2E2E2E2E2E2E2E2E2
310
E2E2E2E2E2E2E2E2E2E2E2E2E2E2E2E2E9E2E2E2E2E2E2E2E2E2E2E2E2E2E2E2E2E2E2E2E2E2E2E2E2E2E2E2E2E2E2E2E2E2E2E2E2E2E2E2E2E2E2E2E2E2E2E2E2E2E2E2E2E2E2E2E2E2E2E2E2E2E2E2E2E2E2E2E2E2E2E2E2E2E2E2E2E2E2E2E2E2E2E2E2E2E2E2E2F5E2E2E2E2E2E2E2E2E2E2E2E2E2E2E2E2E2E2E2E2E2
310
E2E2E2E2E2E2E2E2E2E2E2E2E2E2E2E2E2E2E2E2E2E2E2E2E2E2E2E2E2E2E2E2E2E2E2E2E2E2E2E2E2F5282828282828282828282828E2E228E2E2E2E2E2E2E2E228E2E2E2E2E2E2E2E2F5F5F5F5F5F5F5F5F5F5F5E2E2E2E2E2E2E2E2F5E2E2E2E2E2E2E2E2E2E2E2E2E2E2E2E2E2E2E2E2E2E2E2E2E2E2E2E2E2E2E2E2E2
310
E2E2E2E2E2E2E2E2E2E2E2E2E2E2E2E2E2E2E9E2E2E2E2E2E2E2E2E2E2E2E2E2E2E2E2E2E2E2E2E2E2E2E2E2E2E2E2E2E2E2E2E2E2E2E2E2E2E2E2E2E2E2E2E2E2E2E2E2E2E2E2E2E2E2E2E2E2E2E2E2E2E2E2E2E2E2E2E2E2E2E2E2E2E2E2E2E2E2E2E2E2E2E2E2E2E2E2F5E2E2E2E2E2E2E2E2E2E2E2E2E2E2E2E2E2E2E2
310
E2E2E2E2E2E2E2E2E2E2E2E2E2E2E2E2E2E2E2E2E2E2E2E2E2E2E2E2E2E2E2E2E2E2E2E2E2E2E2E2E2E2E2F5282828282828282828282828E2E2282828282828282828282828282828E2E2E2F5F5E2F5F5E2F5F5F5F5F5E2E2E2E2E2E2E2E2F5E2E2E2E2E2E2E2E2E2E2E2E2E2E2E2E2E2E2E2E2E2E2E2E2E2E2E2E2E2E2E2
310
E2E2E2E2E2E2E2E2E2E2E2E2E2E2E2E2E2E2E2E2E9E2E2E2E2E2E2E2E2E2E2E2E2E2E2E2E2E2E2E2E2E2E2E2E2E2E2E2E2E2E2E2E2E2E2E2E2E2E2E2E2E2E2E2E2E2E2E2E2E2E2E2E2E2E2E2E2E2E2E2E2E2E2E2E2E2E2E2E2E2E2E2E2E2E2E2E2E2E2E2E2E2E2E2E2E2E2E2E2F5E2E2E2E2E2E2E2E2E2E2E2E2E2E2E2E2E2
310
E2E2E2E2E2E2E2E2E2E2E2E2E2E2E2E2E2E2E2E2E2E2E2E2E2E2E2E2E2E2E2E2E2E2E2E2E2E2E2E2E2E2E2E2E22828282828282828282828282828282828282828282828282828282828282828282828282828282828282828282828282828282828E2E2E2E2E2E2E2E2E2E2E2E2E2E2E2E2E2E2E2E2E2E2E2E2E2E2E2E2E2
310
E2E2E2E2E2E2E2E2E2E2E2E2E2E2E2E2E2E2E2E2E2E2E9E2E2E2E2E2E2E2E2E2E2E2E2E2E2E2E2E2E2E2E2E2E2E2E2E2E2E2E2E2E2E2E2E2E2E2E2E2E2E2E2E2E2E2E2E2E2E2E2E2E2E2E2E2E2E2E2E2E2E2E2E2E2E2E2E2E2E2E2E2E2E2E2E2E2E2E2E2E2E2E2E2E2E2E2E2E2E2E2F5E2E2E2E2E2E2E2E2E2E2E2E2E2E2E2
310
E2E2E2E2E2E2E2E2E2E2E2E2E2E2E2E2E2E2E2E2E2E2E2E2E2E2E2E2E2E2E2E2E2E2E2E2E2E2E2E2E2E2E2E2E2E2E2F52828282828282828282828282828282828282828E2E22828E2E2E2E2E2E2E2E2E2E2E2E2E2E2E2E2E2E2E2E2E2E2E2E2E2E2E2F5E2E2E2E2E2E2E2E2E2E2E2E2E2E2E2E2E2E2E2E2E2E2E2E2E2E2E2
310
E2E2E2E2E2E2E2E2E2E2E2E2E2E2E2E2E2E2E2E2E2E2E2E2E9E2E2E2E2E2E2E2E2E2E2E2E2E2E2E2E2E2E2E2E2E2E2E2E2E2E2E2E2E2E2E2E2E2E2E2E2E2E2E2E2E2E2E2E2E2E2E2E2E2E2E2E2E2E2E2E2E2E2E2E2E2E2E2E2E2E2E2E2E2E2E2E2E2E2E2E2E2E2E2E2E2E2E2E2E2E2E2E2F5E2E2E2E2E2E2E2E2E2E2E2E2E2
310
E2E2E2E2E2E2E2E2E2E2E2E2E2E2E2E2E2E2E2E2E2E2E2E2E2E2E2E2E2E2E2E2E2E2E2E2E2E2E2E2E2E2E2E2E2E2E2E2E2F5282828282828282828282828282828282828282828BEBE28E2E2E2E2E2E2E2E2E2F5F5F5F5F5F5F5F5E2E2E2E2E2E2E2E2E2E2F5E2E2E2E2E2E2E2E2E2E2E2E2E2E2E2E2E2E2E2E2E2E2E2E2E2
310
E2E2E2E2E2E2E2E2E2E2E2E2E2E2E2E2E2E2E2E2E2E2E2E2E2E2E9E2E2E2E2E2E2E2E2E2E2E2E2E2E2E2E2E2E2E2E2E2E2E2E2E2E2E2E2E2E2E2E2E2E2E2E2E2E2E2E2E2E2E2E2E2E2E2E2E2E2E2E2E2E2E2E2E2E2E2E2E2E2E2E2E2E2E2E2E2E2E2E2E2E2E2E2E2E2E2E2E2E2E2E2E2E2E2E2F5E2E2E2E2E2E2E2E2E2E2E2
310
E2E2E2E2E2E2E2E2E2E2E2E2E2E2E2E2E2E2E2E2E2E2E2E2E2E2E2E2E2E2E2E2E2E2E2E2E2E2E2E2E2E2E2E2E2E2E2E2E2E2E2F52828282828282828282828282828282828282828E2E22828282828282828282828F5F5F5F5F5F5F5F5E2E2E2E2E2E2E2E2E2E2F5E2E2E2E2E2E2E2E2E2E2E2E2E2E2E2E2E2E2E2E2E2E2E2
310
E2E2E2E2E2E2E2E2E2E2E2E2E2E2E2E2E2E2E2E2E2E2E2E2E2E2E2E2E9E2E2E2E2E2E2E2E2E2E2E2E2E2E2E2E2E2E2E2E2E2E2E2E2E2E2E2E2E2E2E2E2E2E2E2E2E2E2E2E2E2E2E2E2E2E2E2E2E2E2E2E2E2E2E2E2E2E2E2E2E2E2E2E2E2E2E2E2E2E2E2E2E2E2E2E2E2E2E2E2E2E2E2E2E2E2E2E2F5E2E2E2E2E2E2E2E2E2
310
E2E2E2E2E2E2E2E2E2E2E2E2E2E2E2E2E2E2E2E2E2E2E2E2E2E2E2E2E2E2E2E2E2E2E2E2E2E2E2E2E2E2E2E2E2E2E2E2E2E2E2E2E2F528282828282828282828282828282828282828282828282828282828282828282828282828282828282828282828282828282828E2E2E2E2E2E2E2E2E2E2E2E2E2E2E2E2E2E2E2E2E2
310
E2E2E2E2E2E2E2E2E2E2E2E2E2E2E2E2E2E2E2E2E2E2E2E2E2E2E2E2E2E2E9E2E2E2E2E2E2E2E2E2E2E2E2E2E2E2E2E2E2E2E2E2E2E2E2E2E2E2E2E2E2E2E2E2E2E2E2E2E2E2E2E2E2E2E2E2E2E2E2E2E2E2E2E2E2E2E2E2E2E2E2E2E2E2E2E2E2E2E2E2E2E2E2E2E2E2E2E2E2E2E2E2E2E2E2E2E2E2E2F5E2E2E2E2E2E2E2
310
E2E2E2E2E2E2E2E2E2E2E2E2E2E2E2E2E2E2E2E2E2E2E2E2E2E2E2E2E2E2E2E2E2E2E2E2E2E2E2E2E2E2E2E2E2E2E2E2E2E2E2E2E2E2E2F52828282828282828282828282828282828E2282828282828E2E2E2E2E2E2E2E2E2F5F5F5F5F5F5F5F5E2E2E2E2E2E2E2E2E2E2F5E2E2E2E2E2E2E2E2E2E2E2E2E2E2E2E2E2E2E2
310
E2E2E2E2E2E2E2E2E2E2E2E2E2E2E2E2E2E2E2E2E2E2E2E2E2E2E2E2E2E2E2E2E9E2E2E2E2E2E2E2E2E2E2E2E2E2E2E2E2E2E2E2E2E2E2E2E2E2E2E2E2E2E2E2E2E2E2E2E2E2E2E2E2E2E2E2E2E2E2E2E2E2E2E2E2E2E2E2E2E2E2E2E2E2E2E2E2E2E2E2E2E2E2E2E2E2E2E2E2E2E2E2E2E2E2E2E2E2E2E2E2F5E2E2E2E2E2
310
E2E2E2E2E2E2E2E2E2E2E2E2E2E2E2E2E2E2E2E2E2E2E2E2E2E2E2E2E2E2E2E2E2E2E2E2E2E2E2E2E2E2E2E2E2E2E2E2E2E2E2E2E2E2E2E2E2F5282828282828282828282828282828282828282828282828282828282828E2E2E2F5F5F5F5F5F5F5F5E2E2E2E2E2E2E2E2E2E2F5E2E2E2E2E2E2E2E2E2E2E2E2E2E2E2E2E2
310
E2E2E2E2E2E2E2E2E2E2E2E2E2E2E2E2E2E2E2E2E2E2E2E2E2E2E2E2E2E2E2E2E2E2E9E2E2E2E2E2E2E2E2E2E2E2E2E2E2E2E2E2E2E2E2E2E2E2E2E2E2E2E2E2E2E2E2E2E2E2E2E2E2E2E2E2E2E2E2E2E2E2E2E2E2E2E2E2E2E2E2E2E2E2E2E2E2E2E2E2E2E2E2E2E2E2E2E2E2E2E2E2E2E2E2E2E2E2E2E2E2E2E2F5E2E2E2
310
E2E2E2E2E2E2E2E2E2E2E2E2E2E2E2E2E2E2E2E2E2E2E2E2E2E2E2E2E2E2E2E2E2E2E2E2E2E2E2E2E2E2E2E2E2E2E2E2E2E2E2E2E2E2E2E2E2E2E2F5F5F5F5F5F5F52828282828F52828282828F5F5F5F5F5F5F5F5F5F5F5F5F5F5F5F5F5F5F5F5F5F5F5F5F5F5F5F5F5F5F5F5F5F5F5E2E2E2E2E2E2E2E2E2E2E2E2E2E2E2
310
E2E2E2E2E2E2E2E2E2E2E2E2E2E2E2E2E2E2E2E2E2E2E2E2E2E2E2E2E2E2E2E2E2E2E2E2E9E2E2E2E2E2E2E2E2E2E2E2E2E2E2E2E2E2E2E2E2E2E2E2E2E2E2E2E2E2E2E2E2E2E2E2E2E2E2E2E2E2E2E2E2E2E2E2E2E2E2E2E2E2E2E2E2E2E2E2E2E2E2E2E2E2E2E2E2E2E2E2E2E2E2E2E2E2E2E2E2E2E2E2E2E2E2E2E2F5E2
310
E2E2E2E2E2E2E2E2E2E2E2E2E2E2E2E2E2E2E2E2E2E2E2E2E2E2E2E2E2E2E2E2E2E2E2E2E2E2E2E2E2E2E2E2E2E2E2E2E2E2E2E2E2E2E2E2E2E2E2E2E2E2E2E2E2E2E2E2E2E2E2E2E2E2E2E2E2E2E2E2E2E2E2E2E2E2E2E2E2E2E2E2E2E2E2E2E2E2E2E2E2E2E2E2E2E2E2E2E2E2E2E2E2F5E2E2E2E2E2E2E2E2E2E2E2E2E2
310
E2E2E2E2E2E2E2E2E2E2E2E2E2E2E2E2E2E2E2E2E2E2E2E2E2E2E2E2E2E2E2E2E2E2E2E2E2E2E9E2E2E2E2E2E2E2E2E2E2E2E2E2E2E2E2E2E2E2E2E2E2E2E2E2E2E2E2E2E2E2E2E2E2E2E2E2E2E2E2E2E2E2E2E2E2E2E2E2E2E2E2E2E2E2E2E2E2E2E2E2E2E2E2E2E2E2E2E2E2E2E2E2E2E2E2E2E2E2E2E2E2E2E2E2E2E2E2
310
F5E2E2E2E2E2E2E2E2E2E2E2E2E2E2E2E2E2E2E2E2E2E2E2E2E2E2E2E2E2E2E2E2E2E2E2E2E2E2E2E2E2E2E2E2E2E2E2E2E2E2E2E2E2E2E2E2E2E2E2E2E2E2E2E2E2E2E2E2E2E2E2E2E2E2E2E2E2E2E2E2E2E2E2E2E2E2E2E2E2E2E2E2E2E2E2E2E2E2E2E2E2E2E2E2E2E2E2E2E2E2E2E2E2E2F5E2E2E2E2E2E2E2E2E2E2E2
310
E2E2E2E2E2E2E2E2E2E2E2E2E2E2E2E2E2E2E2E2E2E2E2E2E2E2E2E2E2E2E2E2E2E2E2E2E2E2E2E2E9E2E2E2E2E2E2E2E2E2E2E2E2E2E2E2E2E2E2E2E2E2E2E2E2E2E2E2E2E2E2E2E2E2E2E2E2E2E2E2E2E2E2E2E2E2E2E2E2E2E2E2E2E2E2E2E2E2E2E2E2E2E2E2E2E2E2E2E2E2E2E2E2E2E2E2E2E2E2E2E2E2E2E2E2E2E2
310
E2E2F5E2E2E2E2E2E2E2E2E2E2E2E2E2E2E2E2E2E2E2E2E2E2E2E2E2E2E2E2E2E2E2E2E2E2E2E2E2E2E2E2E2E2E2E2E2E2E2E2E2E2E2E2E2E2E2E2E2E2E2E2E2E2E2E2E2E2E2E2E2E2E2E2E2E2E2E2E2E2E2E2E2E2E2E2E2E2E2E2E2E2E2E2E2E2E2E2E2E2E2E2E2E2E2E2E2E2E2E2E2E2E2E2E2E2F5E2E2E2E2E2E2E2E2E2
310
E2E2E2E2E2E2E2E2E2E2E2E2E2E2E2E2E2E2E2E2E2E2E2E2E2E2E2E2E2E2E2E2E2E2E2E2E2E2E2E2E2E2E9E2E2E2E2E2E2E2E2E2E2E2E2E2E2E2E2E2E2E2E2E2E2E2E2E2E2E2E2E2E2E2E2E2E2E2E2E2E2E2E2E2E2E2E2E2E2E2E2E2E2E2E2E2E2E2E2E2E2E2E2E2E2E2E2E2E2E2E2E2E2E2E2E2E2E2E2E2E2E2E2E2E2E2E2
310
E2E2E2E2F5E2E2E2E2E2E2E2E2E2E2E2E2E2E2E2E2E2E2E2E2E2E2E2E2E2E2E2E2E2E2E2E2E2E2E2E2E2E2E2E2E2E2E2E2E2E2E2E2E2E2E2E2E2E2E2E2E2E2E2E2E2E2E2E2E2E2E2E2E2E2E2E2E2E2E2E2E2E2E2E2E2E2E2E2E2E2E2E2E2E2E2E2E2E2E2E2E2E2E2E2E2E2E2E2E2E2E2E2E2E2E2E2E2E2F5E2E2E2E2E2E2E2
310
E2E2E2E2E2E2E2E2E2E2E2E2E2E2E2E2E2E2E2E2E2E2E2E2E2E2E2E2E2E2E2E2E2E2E2E2E2E2E2E2E2E2E2E2E9E2E2E2E2E2E2E2E2E2E2E2E2E2E2E2E2E2E2E2E2E2E2E2E2E2E2E2E2E2E2E2E2E2E2E2E2E2E2E2E2E2E2E2E2E2E2E2E2E2E2E2E2E2E2E2E2E2E2E2E2E2E2E2E2E2E2E2E2E2E2E2E2E2E2E2E2E2E2E2E2E2E2
310
E2E2E2E2E2E2F5E2E2E2E2E2E2E2E2E2E2E2E2E2E2E2E2E2E2E2E2E2E2E2E2E2E2E2E2E2E2E2E2E2E2E2E2E2E2E2E2E2E2E2E2E2E2E2E2E2E2E2E2E2E2E2E2E2E2E2E2E2E2E2E2E2E2E2E2E2E2E2E2E2E2E2E2E2E2E2E2E2E2E2E2E2E2E2E2E2E2E2E2E2E2E2E2E2E2E2E2E2E2E2E2E2E2E2E2E2E2E2E2E2E2F5E2E2E2E2E2
310
E2E2E2E2E2E2E2E2E2E2E2E2E2E2E2E2E2E2E2E2E2E2E2E2E2E2E2E2E2E2E2E2E2E2E2E2E2E2E2E2E2E2E2E2E2E2E9E2E2E2E2E2E2E2E2E2E2E2E2E2E2E2E2E2E2E2E2E2E2E2E2E2E2E2E2E2E2E2E2E2E2E2E2E2E2E2E2E2E2E2E2E2E2E2E2E2E2E2E2E2E2E2E2E2E2E2E2E2E2E2E2E2E2E2E2E2E2E2E2E2E2E2E2E2E2E2E2
310
E2E2E2E2E2E2E2E2F5E2E2E2E2E2E2E2E2E2E2E2E2E2E2E2E2E2E2E2E2E2E2E2E2E2E2E2E2E2E2E2E2E2E2E2E2E2E2E2E2E2E2E2E2E2E2E2E2E2E2E2E2E2E2E2E2E2E2E2E2E2E2E2E2E2E2E2E2E2E2E2E2E2E2E2E2E2E2E2E2E2E2E2E2E2E2E2E2E2E2E2E2E2E2E2E2E2E2E2E2E2E2E2E2E2E2E2E2E2E2E2E2E2E2F5E2E2E2
310
E2E2E2E2E2E2E2E2E2E2E2E2E2E2E2E2E2E2E2E2E2E2E2E2E2E2E2E2E2E2E2E2E2E2E2E2E2E2E2E2E2E2E2E2E2E2E2E2E9E2E2E2E2E2E2E2E2E2E2E2E2E2E2E2E2E2E2E2E2E2E2E2E2E2E2E2E2E2E2E2E2E2E2E2E2E2E2E2E2E2E2E2E2E2E2E2E2E2E2E2E2E2E2E2E2E2E2E2E2E2E2E2E2E2E2E2E2E2E2E2E2E2E2E2E2E2E2
310
E2E2E2E2E2E2E2E2E2E2F5E2E2E2E2E2E2E2E2E2E2E2E2E2E2E2E2E2E2E2E2E2E2E2E2E2E2E2E2E2E2E2E2E2E2E2E2E2E2E2E2E2E2E2E2E2E2E2E2E2E2E2E2E2E2E2E2E2E2E2E2E2E2E2E2E2E2E2E2E2E2E2E2E2E2E2E2E2E2E2E2E2E2E2E2E2E2E2E2E2E2E2E2E2E2E2E2E2E2E2E2E2E2E2E2E2E2E2E2E2E2E2E2E2E2F5E2
310
E2E2E2E2E2E2E2E2E2E2E2E2E2E2E2E2E2E2E2E2E2E2E2E2E2E2E2E2E2E2E2E2E2E2E2E2E2E2E2E2E2E2E2E2E2E2E2E2E2E2E9E2E2E2E2E2E2E2E2E2E2E2E2E2E2E2E2E2E2E2E2E2E2E2E2E2E2E2E2E2E2E2E2E2E2E2E2E2E2E2E2E2E2E2E2E2E2E2E2E2E2E2E2E2E2E2E2E2E2E2E2E2E2E2E2E2E2E2E2E2E2E2E2E2E2E2E2
310
E2E2E2E2E2E2E2E2E2E2E2E2F5E2E2E2E2E2E2E2E2E2E2E2E2E2E2E2E2E2E2E2E2E2E2E2E2E2E2E2E2E2E2E2E2E2E2E2E2E2E2E2E2E2E2E2E2E2E2E2E2E2E2E2E2E2E2E2E2E2E2E2E2E2E2E2E2E2E2E2E2E2E2E2E2E2E2E2E2E2E2E2E2E2E2E2E2E2E2E2E2E2E2E2E2E2E2E2E2E2E2E2E2E2E2E2E2E2E2E2E2E2E2E2E2E2E2
310
F5E2E2E2E2E2E2E2E2E2E2E2E2E2E2E2E2E2E2E2E2E2E2E2E2E2E2E2E2E2E2E2E2E2E2E2E2E2E2E2E2E2E2E2E2E2E2E2E2E2E2E2E9E2E2E2E2E2E2E2E2E2E2E2E2E2E2E2E2E2E2E2E2E2E2E2E2E2E2E2E2E2E2E2E2E2E2E2E2E2E2E2E2E2E2E2E2E2E2E2E2E2E2E2E2E2E2E2E2E2E2E2E2E2E2E2E2E2E2E2E2E2E2E2E2E2E2
310
E2E2E2E2E2E2E2E2E2E2E2E2E2E2F5E2E2E2E2E2E2E2E2E2E2E2E2E2E2E2E2E2E2E2E2E2E2E2E2E2E2E2E2E2E2E2E2E2E2E2E2E2E2E2E2E2E2E2E2E2E2E2E2E2E2E2E2E2E2E2E2E2E2E2E2E2E2E2E2E2E2E2E2E2E2E2E2E2E2E2E2E2E2E2E2E2E2E2E2E2E2E2E2E2E2E2E2E2E2E2E2E2E2E2E2E2E2E2E2E2E2E2E2E2E2E2E2
310
E2E2F5E2E2E2E2E2E2E2E2E2E2E2E2E2E2E2E2E2E2E2E2E2E2E2E2E2E2E2E2E2E2E2E2E2E2E2E2E2E2E2E2E2E2E2E2E2E2E2E2E2E2E2E9E2E2E2E2E2E2E2E2E2E2E2E2E2E2E2E2E2E2E2E2E2E2E2E2E2E2E2E2E2E2E2E2E2E2E2E2E2E2E2E2E2E2E2E2E2E2E2E2E2E2E2E2E2E2E2E2E2E2E2E2E2E2E2E2E2E2E2E2E2E2E2E2
310
E2E2E2E2E2E2E2E2E2E2E2E2E2E2E2E2F5E2E2E2E2E2E2E2E2E2E2E2E2E2E2E2E2E2E2E2E2E2E2E2E2E2E2E2E2E2E2E2E2E2E2E2E2E2E2E2E2E2E2E2E2E2E2E2E2E2E2E2E2E2E2E2E2E2E2E2E2E2E2E2E2E2E2E2E2E2E2E2E2E2E2E2E2E2E2E2E2E2E2E2E2E2E2E2E2E2E2E2E2E2E2E2E2E2E2E2E2E2E2E2E2E2E2E2E2E2E2
310
E2E2E2E2F5E2E2E2E2E2E2E2E2E2E2E2E2E2E2E2E2E2E2E2E2E2E2E2E2E2E2E2E2E2E2E2E2E2E2E2E2E2E2E2E2E2E2E2E2E2E2E2E2E2E2E2E9E2E2E2E2E2E2E2E2E2E2E2E2E2E2E2E2E2E2E2E2E2E2E2E2E2E2E2E2E2E2E2E2E2E2E2E2E2E2E2E2E2E2E2E2E2E2E2E2E2E2E2E2E2E2E2E2E2E2E2E2E2E2E2E2E2E2E2E2E2E2
310
E2E2E2E2E2E2E2E2E2E2E2E2E2E2E2E2E2E2F5E2E2E2E2E2E2E2E2E2E2E2E2E2E2E2E2E2E2E2E2E2E2E2E2E2E2E2E2E2E2E2E2E2E2E2E2E2E2E2E2E2E2E2E2E2E2E2E2E2E2E2E2E2E2E2E2E2E2E2E2E2E2E2E2E2E2E2E2E2E2E2E2E2E2E2E2E2E2E2E2E2E2E2E2E2E2E2E2E2E2E2E2E2E2E2E2E2E2E2E2E2E2E2E2E2E2E2E2
310
E2E2E2E2E2E2F5E2E2E2E2E2E2E2E2E2E2E2E2E2E2E2E2E2E2E2E2E2E2E2E2E2E2E2E2E2E2E2E2E2E2E2E2E2E2E2E2E2E2E2E2E2E2E2E2E2E2E2E9E2E2E2E2E2E2E2E2E2E2E2E2E2E2E2E2E2E2E2E2E2E2E2E2E2E2E2E2E2E2E2E2E2E2E2E2E2E2E2E2E2E2E2E2E2E2E2E2E2E2E2E2E2E2E2E2E2E2E2E2E2E2E2E2E2E2E2E2
310
E2E2E2E2E2E2E2E2E2E2E2E2E2E2E2E2E2E2E2E2F5E2E2E2E2E2E2E2E2E2E2E2E2E2E2E2E2E2E2E2E2E2E2E2E2E2E2E2E2E2E2E2E2E2E2E2E2E2E2E2E2E2E2E2E2E2E2E2E2E2E2E2E2E2E2E2E2E2E2E2E2E2E2E2E2E2E2E2E2E2E2E2E2E2E2E2E2E2E2E2E2E2E2E2E2E2E2E2E2E2E2E2E2E2E2E2E2E2E2E2E2E2E2E2E2E2E2
310
E2E2E2E2E2E2E2E2F5E2E2E2E2E2E2E2E2E2E2E2E2E2E2E2E2E2E2E2E2E2E2E2E2E2E2E2E2E2E2E2E2E2E2E2E2E2E2E2E2E2E2E2E2E2E2E2E2E2E2E2E9E2E2E2E2E2E2E2E2E2E2E2E2E2E2E2E2E2E2E2E2E2E2E2E2E2E2E2E2E2E2E2E2E2E2E2E2E2E2E2E2E2E2E2E2E2E2E2E2E2E2E2E2E2E2E2E2E2E2E2E2E2E2E2E2E2E2
310
E2E2E2E2E2E2E2E2E2E2E2E2E2E2E2E2E2E2E2E2E2E2F5E2E2E2E2E2E2E2E2E2E2E2E2E2E2E2E2E2E2E2E2E2E2E2E2E2E2E2E2E2E2E2E2E2E2E2E2E2BEE2E2E2E2E2E2E2E2E2E2E2E2E2E2E2E2E2E2E2E2E2E2E2E2E2E2E2E2E2E2E2E2E2E2E2E2E2E2E2E2E2E2E2E2E2E2E2E2E2E2E2E2E2E2E2E2E2E2E2E2E2E2E2E2E2E2
310
E2E2E2E2E2E2E2E2E2E2F5E2E2E2E2E2E2E2E2E2E2E2E2E2E2E2E2E2E2E2E2E2E2E2E2E2E2E2E2E2E2E2E2E2E2E2E2E2E2E2E2E2E2E2E2E2E2E2E2E2E2E2E9E2E2E2E2E2E2E2E2E2E2E2E2E2E2E2E2E2E2E2E2E2E2E2E2E2E2E2E2E2E2E2E2E2E2E2E2E2E2E2E2E2E2E2E2E2E2E2E2E2E2E2E2E2E2E2E2E2E2E2E2E2E2E2E2
310
E2E2E2E2E2E2E2E2E2E2E2E2E2E2E2E2E2E2E2E2E2E2E2E2F5E2E2E2E2E2E2E2E2E2E2E2E2E2E2E2E2E2E2E2E2E2E2E2E2E2E2E2E2E2E2E2E2E2E2E2E2E2BEE2E2E2E2E2E2E2E2E2E2E2E2E2E2E2E2E2E2E2E2E2E2E2E2E2E2E2E2E2E2E2E2E2E2E2E2E2E2E2E2E2E2E2E2E2E2E2E2E2E2E2E2E2E2E2E2E2E2E2E2E2E2E2E2
310
E2E2E2E2E2E2E2E2E2E2E2E2F5E2E2E2E2E2E2E2E2E2E2E2E2E2E2E2E2E2E2E2E2E2E2E2E2E2E2E2E2E2E2E2E2E2E2E2E2E2E2E2E2E2E2E2E2E2E2E2E2E2E2E2E9E2E2E2E2E2E2E2E2E2E2E2E2E2E2E2E2E2E2E2E2E2E2E2E2E2E2E2E2E2E2E2E2E2E2E2E2E2E2E2E2E2E2E2E2E2E2E2E2E2E2E2E2E2E2E2E2E2E2E2E2E2E2
310
E2E2E2E2E2E2E2E2E2E2E2E2E2E2E2E2E2E2E2E2E2E2E2E2E2E2F5E2E2E2E2E2E2E2E2E2E2E2E2E2E2E2E2E2E2E2E2E2E2E2E2F5F5F5F5F5F5F5F5F5F5F5F5F5BEF5F5F5F5F5F5F5F5F5F5F5F5F5F5E2E2E2E2E2E2E2E2E2E2E2E2E2E2E2E2E2E2E2E2E2E2E2E2F5F5F5F5F5F5F5F5F5F5F5F5E2E2E2E2E2E2E2E2E2E2E2E2
310
E2E2E2E2E2E2E2E2E2E2E2E2E2E2F5E2E2E2E2E2E2E2E2E2E2E2E2E2E2E2E2E2E2E2E2E2E2E2E2E2E2E2E2E2E2E2E2E2E2E2E2E2E2E2E2E2E2E2E2E2E2E2E2E2E2E2E9E2E2E2E2E2E2E2E2E2E2E2E2E2E2E2E2E2E2E2E2E2E2E2E2E2E2E2E2E2E2E2E2E2E2E2E2E2E2E2E2E2E2E2E2E2E2E2E2E2E2E2E2E2E2E2E2E2E2E2E2
310
E2E2E2E2E2E2E2E2E2E2E2E2E2E2E2E2E2E2E2E2E2E2E2E2E2E2E2E2F5E2E2E2E2E2E2E2E2E2E2E2E2E2E2E2E2E2E2E2E2E2E2E2E2F5BEF5BEE2E2E2E2E2F5F5F5F5F5F5F5F5F5F5E2E2E2E2BEF5F5BEF5E2E2E2E2E2E2E2E2E2E2E2E2E2E2F56D6D6D6D6D6D6D6DF5F5E2E2E2E2E2E2E2E2E2E2F5E2E2E2E2E2E2E2E2E2E2
310
E2E2E2E2E2E2E2E2E2E2E2E2E2E2E2E2F5E2E2E2E2E2E2E2E2E2E2E2E2E2E2E2E2E2E2E2E2E2E2E2E2E2E2E2E2E2E2E2E2E2E2E2E2E2E2E2E2E2E2E2E2E2E2E2E2E2E2E2E9E2E2E2E2E2E2E2E2E2E2E2E2E2E2E2E2E2E2E2E2E2E2E2E2E2E2E2E2E2E2E2E2E2E2E2E2E2E2E2E2E2E2E2E2E2E2E2E2E2E2E2E2E2E2E2E2E2E2
310
E2E2E2E2E2E2E2E2E2E2E2E2E2E2E2E2E2E2E2E2E2E2E2E2E2E2E2E2E2E2F5E2E2E2E2E2E2E2E2E2E2E2E2E2E2E2E2E2E2E2E2E2E2E2E2F5F5BEBEE2E2E2F5F5E2E2E2E2BEE2E2E2E2F5F5F5E2E2F5F5F5E2F5E2E2E2E2E2E2E2E2E2E2E2E2E2E26DE2E2E2E2E2E2E2E2F5F5E2E2E2E2E2E2E2E2E2E2F5E2E2E2E2E2E2E2E2
310
E2E2E2E2E2E2E2E2E2E2E2E2E2E2E2E2E2E2F5E2E2E2E2E2E2E2E2E2E2E2E2E2E2E2E2E2E2E2E2E2E2E2E2E2E2E2E2E2E2E2E2E2E2E2E2E2E2E2E2E2E2E2E2E2E2E2E2E2E2E2E9E2E2E2E2E2E2E2E2E2E2E2E2E2E2E2E2E2E2E2E2E2E2E2E2E2E2E2E2E2E2E2E2E2E2E2E2E2E2E2E2E2E2E2E2E2E2E2E2E2E2E2E2E2E2E2E2
310
E2E2E2E2E2E2E2E2E2E2E2E2E2E2E2E2E2E2E2E2E2E2E2E2E2E2E2E2E2E2E2E2F5E2E2E2E2E2E2E2E2E2E2E2E2E2E2E2E2E2E2E2E2E2E2E2E2F5BEBEF5E2F5F5E2E2E2E2E2E2BEE2E2E2E2E2E2F5F5E2BEF5F5E2F5E2E2E2E2E2E2E2E2E2E2E2E2E2E26DE2E2E2E2E2E2E2E2F5F5E2E2E2E2E2E2E2E2E2E2F5E2E2E2E2E2E2
310
E2E2E2E2E2E2E2E2E2E2E2E2E2E2E2E2E2E2E2E2F5E2E2E2E2E2E2E2E2E2E2E2E2E2E2E2E2E2E2E2E2E2E2E2E2E2E2E2E2E2E2E2E2E2E2E2E2E2E2E2E2E2E2E2E2E2E2E2E2E2E2E2E9E2E2E2E2E2E2E2E2E2E2E2E2E2E2E2E2E2E2E2E2E2E2E2E2E2E2E2E2E2E2E2E2E2E2E2E2E2E2E2E2E2E2E2E2E2E2E2E2E2E2E2E2E2E2
310
E2E2E2E2E2E2E2E2E2E2E2E2E2E2E2E2E2E2E2E2E2E2E2E2E2E2E2E2E2E2E2E2E2E2F5E2E2E2E2E2E2E2E2E2E2E2E2E2E2E2E2E2E2E2E2E2E2E2E2F5BE6DE2F5F5E2E2E2E2E2E2E2E2E2E2E2E2E2E2E2E2F5F5E2E2E2F5E2E2E2E2E2E2E2E2E2E2E2E2E2E26DE2E2E2E2E2E2E2E2F5F5E2E2E2E2E2E2E2E2E2E2F5E2E2E2E2
310
E2E2E2E2E2E2E2E2E2E2E2E2E2E2E2E2E2E2E2E2E2E2F5E2E2E2E2E2E2E2E2E2E2E2E2E2E2E2E2E2E2E2E2E2E2E2E2E2E2E2E2E2E2E2E2E2E2E2E2E2E2E2E2E2E2E2E2E2E2E2E2E2E2E2E9E2E2E2E2E2E2E2E2E2E2E2E2E2E2E2E2E2E2E2E2E2E2E2E2E2E2E2E2E2E2E2E2E2E2E2E2E2E2E2E2E2E2E2E2E2E2E2E2E2E2E2E2
310
E2E2E2E2E2E2E2E2E2E2E2E2E2E2E2E2E2E2E2E2E2E2E2E2E2E2E2E2E2E2E2E2E2E2E2E2F5E2E2E2E2E2E2E2E2E2E2E2E2E2E2E2E2E2E2E2E2E2E2E2E2F5E2E2F5F5E2E2E2E2E2E2E2E2BEE2E2E2E2E2E2E2E2E2F5E2E2E2F5E2E2E2E2E2E2E2E2E2E2E2E2E2E26DE2E2E2E2E2E2E2E2F5F5E2E2E2E2E2E2E2E2E2E2F5E2E2
310
E2E2E2E2E2E2E2E2E2E2E2E2E2E2E2E2E2E2E2E2E2E2E2E2F5E2E2E2E2E2E2E2E2E2E2E2E2E2E2E2E2E2E2E2E2E2E2E2E2E2E2E2E2E2E2E2E2E2E2E2E2E2E2E2E2E2E2E2E2E2E2E2E2E2E2E2E9E2E2E2E2E2E2E2E2E2E2E2E2E2E2E2E2E2E2E2E2E2E2E2E2E2E2E2E2E2E2E2E2E2E2E2E2E2E2E2E2E2E2E2E2E2E2E2E2E2E2
310
E2E2E2E2E2E2E2E2E2E2E2E2E2E2E2E2E2E2E2E2E2E2E2E2E2E2E2E2E2E2E2E2E2E2E2E2E2E2F5E2E2E2E2E2E2E2E2E2E2E2E2E2E2E2E2E2E2E2E2E2E2E2E2F5E2E2F56D6DE2E2E2E2E2E2E2BEE2E2E2E2E2E2E2E2E2F5F5E2E2F5E2E2E2E2E2E2E2E2E2E2E2E2E2E26DE2E2E2E2E2E2E2E2F5F5E2E2E2E2E2E2E2E2E2E2F5
310
E2E2E2E2E2E2E2E2E2E2E2E2E2E2E2E2E2E2E2E2E2E2E2E2E2E2F5E2E2E2E2E2E2E2E2E2E2E2E2E2E2E2E2E2E2E2E2E2E2E2E2E2E2E2E2E2E2E2E2E2E2E2E2E2E2E2E2E2E2E2E2E2E2E2E2E2E2E2E9E2E2E2E2E2E2E2E2E2E2E2E2E2E2E2E2E2E2E2E2E2E2E2E2E2E2E2E2E2E2E2E2E2E2E2E2E2E2E2E2E2E2E2E2E2E2E2E2
310
E2E2E2E2E2E2E2E2E2E2E2E2E2E2E2E2E2E2E2E2E2E2E2E2E2E2E2E2E2E2E2E2E2E2E2E2E2E2E2E2F5E2E2E2E2E2E2E2E2E2E2E2E2E2E2E2E2E2E2E2E2E2E2E2E2F5E2F5E2E2E26DE2E2E2E2E2E2E2E2E2E2E2E2E2E2E2E2E2F5F5E2F5E2E2E2E2E2E2E2E2E2E2E2E2E2E26DE2E2E2E2E2E2E2E2F5F5E2E2E2E2E2E2E2E2E2
310
E2F5E2E2E2E2E2E2E2E2E2E2E2E2E2E2E2E2E2E2E2E2E2E2E2E2E2E2F5E2E2E2E2E2E2E2E2E2E2E2E2E2E2E2E2E2E2E2E2E2E2E2E2E2E2E2E2E2E2E2E2E2E2E2E2E2E2E2E2E2E2E2E2E2E2E2E2E2E2E2E9E2E2E2E2E2E2E2E2E2E2E2E2E2E2E2E2E2E2E2E2E2E2E2E2E2E2E2E2E2E2E2E2E2E2E2E2E2E2E2E2E2E2E2E2E2E2
310
E2E2E2E2E2E2E2E2E2E2E2E2E2E2E2E2E2E2E2E2E2E2E2E2E2E2E2E2E2E2E2E2E2E2E2E2E2E2E2E2E2E2F5E2E2E2E2E2E2E2E2E2E2E2E2E2E2E2E2E2E2E2E2E2E2E2E2F5E2F5E2E2E2E26DE2E2E2E2E2BEE2E2E2E2E2E2E2E2E2E2E2F5E2F5E2E2E2E2E2E2E2E2E2E2E2E2E2E26DE2E2E2E2E2E2E2E2F5F5E2E2E2E2E2E2E2
310
E2E2E2F5E2E2E2E2E2E2E2E2E2E2E2E2E2E2E2E2E2E2E2E2E2E2E2E2E2E2F5E2E2E2E2E2E2E2E2E2E2E2E2E2E2E2E2E2E2E2E2E2E2E2E2E2E2E2E2E2E2E2E2E2E2E2E2E2E2E2E2E2E2E2E2E2E2E2E2E2E2E2E9E2E2E2E2E2E2E2E2E2E2E2E2E2E2E2E2E2E2E2E2E2E2E2E2E2E2E2E2E2E2E2E2E2E2E2E2E2E2E2E2E2E2E2E2
310
E2E2E2E2E2E2E2E2E2E2E2E2E2E2E2E2E2E2E2E2E2E2E2E2E2E2E2E2E2E2E2E2E2E2E2E2E2E2E2E2E2E2E2E2F5E2E2E2E2E2E2E2E2E2E2E2E2E2E2E2E2E2E2E2E2E2E2E2E2F5F5F5E2E2E2E2E26DE2E2E2E2BEE2E2E2E2E2E2E2E2E2E2E2F5E2F5E2E2E2E2E2E2E2E2E2E2E2E228286DE2E2E2E2E2E2E2E2F5F5E2E2E2E2E2
310
E2E2E2E2E2F5E2E2E2E2E2E2E2E2E2E2E2E2E2E2E2E2E2E2E2E2E2E2E2E2E2E2F5E2E2E2E2E2E2E2E2E2E2E2E2E2E2E2E2E2E2E2E2E2E2E2E2E2E2E2E2E2E2E2E2E2E2E2E2E2E2E2E2E2E2E2E2E2E2E2E2E2E2E2E9E2E2E2E2E2E2E2E2E2E2E2E2E2E2E2E2E2E2E2E2E2E2E2E2E2E2E2E2E2E2E2E2E2E2E2E2E2E2E2E2E2E2
310
E2E2E2E2E2E2E2E2E2E2E2E2E2E2E2E2E2E2E2E2E2E2E2E2E2E2E2E2E2E2E2E2E2E2E2E2E2E2E2E2E2E2E2E2E2E2F5E2E2E2E2E2E2E2E2E2E2E2E2E2E2E2E2E2E2E2E2E2E2E2E2F5F5E2E2E2E2E2E2E26DE2E2E2BEE2E2E2E2E2E2E2E2E2E2E2F5F5F5E2E2E2E2E2E2E2E2E2E2E2E228286DE2E2E2E2E2E2E2E2F5F5E2E2E2
310
E2E2E2E2E2E2E2F5E2E2E2E2E2E2E2E2E2E2E2E2E2E2E2E2E2E2E2E2E2E2E2E2E2E2F5E2E2E2E2E2E2E2E2E2E2E2E2E2E2E2E2E2E2E2E2E2E2E2E2E2E2E2E2E2E2E2E2E2E2E2E2E2E2E2E2E2E2E2E2E2E2E2E2E2E2E2E9E2E2E2E2E2E2E2E2E2E2E2E2E2E2E2E2E2E2E2E2E2E2E2E2E2E2E2E2E2E2E2E2E2E2E2E2E2E2E2E2
310
E2E2E2E2E2E2E2E2E2E2E2E2E2E2E2E2E2E2E2E2E2E2E2E2E2E2E2E2E2E2E2E2E2E2E2E2E2E2E2E2E2E2E2E2E2E2E2E2F5E2E2E2E2E2E2E2E2E2E2E2E2E2E2E2E2E2E2E2E2E2E2E2E2F5F5E2E2E2E2E2E2E2E26D6DE2BEE2E2E2E2E2E2E2E2E2E2E2E2F5F5E2E2E2E2E2E2E2E2E2E2E2E228286DE2E2E2E2E2E2E2E2F5F5E2
310
E2E2E2E2E2E2E2E2E2F5E2E2E2E2E2E2E2E2E2E2E2E2E2E2E2E2E2E2E2E2E2E2E2E2E2E2F5E2E2E2E2E2E2E2E2E2E2E2E2E2E2E2E2E2E2E2E2E2E2E2E2E2E2E2E2E2E2E2E2E2E2E2E2E2E2E2E2E2E2E2E2E2E2E2E2E2E2E2E9E2E2E2E2E2E2E2E2E2E2E2E2E2E2E2E2E2E2E2E2E2E2E2E2E2E2E2E2E2E2E2E2E2E2E2E2E2E2
310
E2E2E2E2E2E2E2E2E2E2E2E2E2E2E2E2E2E2E2E2E2E2E2E2E2E2E2E2E2E2E2E2E2E2E2E2E2E2E2E2E2E2E2E2E2E2E2E2E2E2F5E2E2E2E2E2E2E2E2E2E2E2E2E2E2E2E2E2E2E2E2E2E2E2E2F5F5E2E2E2E2E2E2E2E2E2E2F5BEF5E2E2E2E2E2E2E2E2E2E2E2F5F5E2E2E2E2E2E2E2E2E2E2E2E228286DE2E2E2BEF5F5F5F5F5
310
F5E2E2E2E2E2E2E2E2E2E2F5E2E2E2E2E2E2E2E2E2E2E2E2E2E2E2E2E2E2E2E2E2E2E2E2E2E2F5E2E2E2E2E2E2E2E2E2E2E2E2E2E2E2E2E2E2E2E2E2E2E2E2E2E2E2E2E2E2E2E2E2E2E2E2E2E2E2E2E2E2E2E2E2E2E2E2E2E2E2E9E2E2E2E2E2E2E2E2E2E2E2E2E2E2E2E2E2E2E2E2E2E2E2E2E2E2E2E2E2E2E2E2E2E2E2E2
310
E2E2E2E2E2E2E2E2E2E2E2E2E2E2E2E2E2E2E2E2E2E2E2E2E2E2E2E2E2E2E2E2E2E2E2E2E2E2E2E2E2E2E2E2E2E2E2E2E2E2E2E2F5E2E2E2E2E2E2E2E2E2E2E2E2E2E2E2E2E2E2E2E2E2E2E2BEBEF5BEBEBEBEBEBEBEBEBEE2BEBEBEF5BEBEBEBEBEBEBEBEBEBEF5BEBEE2E2E2E2E2E2E2E2E2E2E2E2286DE2E2BEF5DCDCDC
310
DCF5F5E2BEBEBEE2BEBEBEBEBEBEBEBEE2E2E2E2E2E2E2E2E2E2E2E2E2E2E2E2E2E2E2E2E2E2E2E2F5E2E2E2E2E2E2E2E2E2E2E2E2E2E2E2E2E2E2E2E2E2E2E2E2E2E2E2E2E2E2E2E2E2E2E2E2E2E2E2E2E2E2E2E2E2E2E2E2E2E2E2E9E2E2E2E2E2E2E2E2E2E2E2E2E2E2E2E2E2E2E2E2E2E2E2E2E2E2E2E2E2E2E2E2E2E2
310
E2E2E2E2E2E2E2E2E2E2E2E2E2E2E2E2E2E2E2E2E2E2E2E2E2E2E2E2E2E2E2E2E2E2E2E2E2E2E2E2E2E2E2E2E2E2E2E2E2E2E2E2E2E2F5E2E2E2E2E2E2E2E2E2E2E2E2E2E2E2E2E2E2E2E2E2E2E2E2F5F5E2E2E2E2E2E2E2E2E2E2F5BEF5F5E2E2E2E2E2E2E2E2E2E2F5F5E2E2E2E2E2E2E2E2E2E2E2E2E2286DE2E2E2BEF5
310
F5F5F5F5F5E2E2E2E2E2E2E2E2E2E2F5E2E2E2E2E2E2E2E2E2E2E2E2E2E2E2E2E2E2E2E2E2E2E2E2E2E2F5E2E2E2E2E2E2E2E2E2E2E2E2E2E2E2E2E2E2E2E2E2E2E2E2E2E2E2E2E2E2E2E2E2E2E2E2E2E2E2E2E2E2E2E2E2E2E2E2E2E2E2E9E2E2E2E2E2E2E2E2E2E2E2E2E2E2E2E2E2E2E2E2E2E2E2E2E2E2E2E2E2E2E2E2
310
E2E2E2E2E2E2E2E2E2E2E2E2E2E2E2E2E2E2E2E2E2E2E2E2E2E2E2E2E2E2E2E2E2E2E2E2E2E2E2E2E2E2E2E2E2E2E2E2E2E2E2E2E2E2E2E2F5E2E2E2E2E2E2E2E2E2E2E2E2E2E2E2E2E2E2E2E2E2E2E2E2F5F5E2E2E2E2E2E2E2E2E2E2E2BEE26DE2E2E2E2E2E2E2E2E2E2F5F5E2E2E2E2E2E2E2E2E2E2E2E228286DE2E2E2
310
6DE2E2E2E2F5F5E2E2E2E2E2E2E2E2E2E2F5E2E2E2E2E2E2E2E2E2E2E2E2E2E2E2E2E2E2E2E2E2E2E2E2E2E2F5E2E2E2E2E2E2E2E2E2E2E2E2E2E2E2E2E2E2E2E2E2E2E2E2E2E2E2E2E2E2E2E2E2E2E2E2E2E2E2E2E2E2E2E2E2E2E2E2E2E2E2E9E2E2E2E2E2E2E2E2E2E2E2E2E2E2E2E2E2E2E2E2E2E2E2E2E2E2E2E2E2E2
310
E2E2E2E2E2E2E2E2E2E2E2E2E2E2E2E2E2E2E2E2E2E2E2E2E2E2E2E2E2E2E2E2E2E2E2E2E2E2E2E2E2E2E2E2E2E2E2E2E2E2E2E2E2E2E2E2E2E2F5E2E2E2E2E2E2E2E2E2E2E2E2E2E2E2E2E2E2E2E2E2E2E2E2F5F5E2E2E2E2E2E2E2E2E2E2E2BEE2E26D6DE2E2E2E2E2E2E2F5F5F5E2E2E2E2E2E2E2E2E2E2E2E228286DE2
310
E2E26DE2E2E2E2F5F5E2E2E2E2E2E2E2E2E2E2F5E2E2E2E2E2E2E2E2E2E2E2E2E2E2E2E2E2E2E2E2E2E2E2E2E2E2F5E2E2E2E2E2E2E2E2E2E2E2E2E2E2E2E2E2E2E2E2E2E2E2E2E2E2E2E2E2E2E2E2E2E2E2E2E2E2E2E2E2E2E2E2E2E2E2E2E2E2E2E9E2E2E2E2E2E2E2E2E2E2E2E2E2E2E2E2E2E2E2E2E2E2E2E2E2E2E2E2
310
E2E2E2E2E2E2E2E2E2E2E2E2E2E2E2E2E2E2E2E2E2E2E2E2E2E2E2E2E2E2E2E2E2E2E2E2E2E2E2E2E2E2E2E2E2E2E2E2E2E2E2E2E2E2E2E2E2E2E2E2F5E2E2E2E2E2E2E2E2E2E2E2E2E2E2E2E2E2E2E2E2E2E2E2E2F5F5F5E2E2E2E2E2E2E2E2E2E2BEE2E2E2E26DE2E2E2E2E2E2F5E2F5E2E2E2E2E2E2E2E2E2E2E2E22828
310
6DE2E2E26DE2E2E2E2F5F5E2E2E2E2E2E2E2E2E2E2F5E2E2E2E2E2E2E2E2E2E2E2E2E2E2E2E2E2E2E2E2E2E2E2E2E2E2F5E2E2E2E2E2E2E2E2E2E2E2E2E2E2E2E2E2E2E2E2E2E2E2E2E2E2E2E2E2E2E2E2E2E2E2E2E2E2E2E2E2E2E2E2E2E2E2E2E2E2E2E9E2E2E2E2E2E2E2E2E2E2E2E2E2E2E2E2E2E2E2E2E2E2E2E2E2E2
310
E2E2E2E2E2E2E2E2E2E2E2E2E2E2E2E2E2E2E2E2E2E2E2E2E2E2E2E2E2E2E2E2E2E2E2E2E2E2E2E2E2E2E2E2E2E2E2E2E2E2E2E2E2E2E2E2E2E2E2E2E2E2F5E2E2E2E2E2E2E2E2E2E2E2E2E2E2E2E2E2E2E2E2E2E2E2E2F5E2F5E2E2E2E2E2E2E2E2E2E2BEE2E2E2E2E26DE2E2E2E2E2F5E2F5E2E2E2E2E2E2E2E2E2E2E2E2
310
E2E26DE2E2E26DE2E2E2E2F5F5E2E2E2E2E2E2E2E2E2E2F5E2E2E2E2E2E2E2E2E2E2E2E2E2E2E2E2E2E2E2E2E2E2E2E2E2E2F5E2E2E2E2E2E2E2E2E2E2E2E2E2E2E2E2E2E2E2E2E2E2E2E2E2E2E2E2E2E2E2E2E2E2E2E2E2E2E2E2E2E2E2E2E2E2E2E2E2E2E2E9E2E2E2E2E2E2E2E2E2E2E2E2E2E2E2E2E2E2E2E2E2E2E2E2
310
E2E2E2E2E2E2E2E2E2E2E2E2E2E2E2E2E2E2E2E2E2E2E2E2E2E2E2E2E2E2E2E2E2E2E2E2E2E2E2E2E2E2E2E2E2E2E2E2E2E2E2E2E2E2E2E2E2E2E2E2E2E2E2E2F5E2E2E2E2E2E2E2E2E2E2E2E2E2E2E2E2E2E2E2E2E2E2E2E2F5E2F5E2E2E2E2E2E2E2E2E2E2E2E2E2E2E2E2E26DE2E2E2F5F5E2F5E2E2E2E2E2E2E2E2E2E2
310
E2E2E2E26DE2E2E26DE2E2E2E2F5F5E2E2E2E2E2E2E2E2E2E2F5E2E2E2E2E2E2E2E2E2E2E2E2E2E2E2E2E2E2E2E2E2E2E2E2E2E2F5E2E2E2E2E2E2E2E2E2E2E2E2E2E2E2E2E2E2E2E2E2E2E2E2E2E2E2E2E2E2E2E2E2E2E2E2E2E2E2E2E2E2E2E2E2E2E2E2E2E2E2E9E2E2E2E2E2E2E2E2E2E2E2E2E2E2E2E2E2E2E2E2E2E2
310
E2E2E2E2E2E2E2E2E2E2E2E2E2E2E2E2E2E2E2E2E2E2E2E2E2E2E2E2E2E2E2E2E2E2E2E2E2E2E2E2E2E2E2E2E2E2E2E2E2E2E2E2E2E2E2E2E2E2E2E2E2E2E2E2E2E2F5E2E2E2E2E2E2E2E2E2E2E2E2E2E2E2E2E2E2E2E2E2E2E2E2F5E2E2F5E2E2E2E2E2E2E2E2E2BEE2E2E2E2E2E2E26DE2E2F5E2E2F5E2E2E2E2E2E2E2E2
310
E2E2E2E2E2E26DE2E2E26DE2E2E2E2F5F5E2E2E2E2E2E2E2E2E2E2F5E2E2E2E2E2E2E2E2E2E2E2E2E2E2E2E2E2E2E2E2E2E2E2E2E2E2F5E2E2E2E2E2E2E2E2E2E2E2E2E2E2E2E2E2E2E2E2E2E2E2E2E2E2E2E2E2E2E2E2E2E2E2E2E2E2E2E2E2E2E2E2E2E2E2E2E2E2E2E9E2E2E2E2E2E2E2E2E2E2E2E2E2E2E2E2E2E2E2E2
310
E2E2E2E2E2E2E2E2E2E2E2E2E2E2E2E2E2E2E2E2E2E2E2E2E2E2E2E2E2E2E2E2E2E2E2E2E2E2E2E2E2E2E2E2E2E2E2E2E2E2E2E2E2E2E2E2E2E2E2E2E2E2E2E2E2E2E2E2F5E2E2E2E2E2E2E2E2E2E2E2E2E2E2E2E2E2E2E2E2E2E2E2E2F5E2E2F5F5E2E2E2E2E2E2E2E2BEE2E2E2E2E2E2E2E26DF5E2E2E2F5E2E2E2E2E2E2
310
E2E2E2E2E2E2E2E26DE2E2E26DE2E2E2E2F5F5E2E2E2E2E2E2E2E2E2E2F5E2E2E2E2E2E2E2E2E2E2E2E2E2E2E2E2E2E2E2E2E2E2E2E2E2E2F5E2E2E2E2E2E2E2E2E2E2E2E2E2E2E2E2E2E2E2E2E2E2E2E2E2E2E2E2E2E2E2E2E2E2E2E2E2E2E2E2E2E2E2E2E2E2E2E2E2E2E2E9E2E2E2E2E2E2E2E2E2E2E2E2E2E2E2E2E2E2
310
E2E2E2E2E2E2E2E2E2E2E2E2E2E2E2E2E2E2E2E2E2E2E2E2E2E2E2E2E2E2E2E2E2E2E2E2E2E2E2E2E2E2E2E2E2E2E2E2E2E2E2E2E2E2E2E2E2E2E2E2E2E2E2E2E2E2E2E2E2E2F5E2E2E2E2E2E2E2E2E2E2E2E2E2E2E2E2E2E2E2E2E2E2E2E2F5E2E2E2F5F5E2E2E2E2E2E2E2BEE2E2E2E2E2E2E2E2F5F56DE2BEF5E2E2E2E2
310
E2E2E2E2E2E2E2E2E2E26DE2E2E26DE2E2E2E2F5F5E2E2E2E2E2E2E2E2E2E2F5E2E2E2E2E2E2E2E2E2E2E2E2E2E2E2E2E2E2E2E2E2E2E2E2E2E2F5E2E2E2E2E2E2E2E2E2E2E2E2E2E2E2E2E2E2E2E2E2E2E2E2E2E2E2E2E2E2E2E2E2E2E2E2E2E2E2E2E2E2E2E2E2E2E2E2E2E2E2E9E2E2E2E2E2E2E2E2E2E2E2E2E2E2E2E2
310
E2E2E2E2E2E2E2E2E2E2E2E2E2E2E2E2E2E2E2E2E2E2E2E2E2E2E2E2E2E2E2E2E2E2E2E2E2E2E2E2E2E2E2E2E2E2E2E2E2E2E2E2E2E2E2E2E2E2E2E2E2E2E2E2E2E2E2E2E2E2E2E2F5E2E2E2E2E2E2E2E2E2E2E2E2E2E2E2E2E2E2E2E2E2E2E2E2F5F5F5F5E2F5F5E2E2E2E2E2E2BEE2E2E2E2E2E2F5F5E2BEF5F56DF5E2E2
310
E2E2E2E2E2E2E2E2E2E2E2E26DE2E2E26DE2E2E2E2F5F5E2E2E2E2E2E2E2E2E2E2F5E2E2E2E2E2E2E2E2E2E2E2E2E2E2E2E2E2E2E2E2E2E2E2E2E2E2F5E2E2E2E2E2E2E2E2E2E2E2E2E2E2E2E2E2E2E2E2E2E2E2E2E2E2E2E2E2E2E2E2E2E2E2E2E2E2E2E2E2E2E2E2E2E2E2E2E2E2E2E9E2E2E2E2E2E2E2E2E2E2E2E2E2E2
310
E2E2E2E2E2E2E2E2E2E2E2E2E2E2E2E2E2E2E2E2E2E2E2E2E2E2E2E2E2E2E2E2E2E2E2E2E2E2E2E2E2E2E2E2E2E2E2E2E2E2E2E2E2E2E2E2E2E2E2E2E2E2E2E2E2E2E2E2E2E2E2E2E2E2F5E2E2E2E2E2E2E2E2E2E2E2E2E2E2E2E2E2E2E2E2E2E2E2E2F5F5BEF5E2E2E2F5F5E2E2E2E2BEE2E2E2E2F5F5F5E2E2F5BEBEE2F5
310
E2E2E2E2E2E2E2E2E2E2E2E2E2E26DE2E2E26DE2E2E2E2F5F5E2E2E2E2E2E2E2E2E2E2F5E2E2E2E2E2E2E2E2E2E2E2E2E2E2E2E2E2E2E2E2E2E2E2E2E2E2F5E2E2E2E2E2E2E2E2E2E2E2E2E2E2E2E2E2E2E2E2E2E2E2E2E2E2E2E2E2E2E2E2E2E2E2E2E2E2E2E2E2E2E2E2E2E2E2E2E2E2E2E9E2E2E2E2E2E2E2E2E2E2E2E2
310
E2E2E2E2E2E2E2E2E2E2E2E2E2E2E2E2E2E2E2E2E2E2E2E2E2E2E2E2E2E2E2E2E2E2E2E2E2E2E2E2E2E2E2E2E2E2E2E2E2E2E2E2E2E2E2E2E2E2E2E2E2E2E2E2E2E2E2E2E2E2E2E2E2E2E2E2F5E2E2E2E2E2E2E2E2E2E2E2E2E2E2E2E2E2E2E2E2E2E2E2E2F5F5F5F5E2E2E2E2E2F5F5F5F5F5F5F5F5F5F5E2E2E2E2BEBEF5
310
BEF528E2E2E2E2E2E2E2E2E2E2E2E2E26D6D6D6D6D6D6D6D6DF5F5E2E2E2E2E2E2E2E2E2E2F5E2E2E2E2E2E2E2E2E2E2E2E2E2E2E2E2E2E2E2E2E2E2E2E2E2E2F5E2E2E2E2E2E2E2E2E2E2E2E2E2E2E2E2E2E2E2E2E2E2E2E2E2E2E2E2E2E2E2E2E2E2E2E2E2E2E2E2E2E2E2E2E2E2E2E2E2E2E2E9E2E2E2E2E2E2E2E2E2E2
310
E2E2E2E2E2E2E2E2E2E2E2E2E2E2E2E2E2E2E2E2E2E2E2E2E2E2E2E2E2E2E2E2E2E2E2E2E2E2E2E2E2E2E2E2E2E2E2E2E2E2E2E2E2E2E2E2E2E2E2E2E2E2E2E2E2E2E2E2E2E2E2E2E2E2E2E2E2E2F5E2E2E2E2E2E2E2E2E2E2E2E2E2E2E2E2E2E2E2E2E2E2E2E26DF5F5F5F5F5F5F5F5F5F5F5F5F5F5F5F5F5F5F5F5F5F5F5
310
F5F5F56D28286DE2E2E2E2E2E2E2E2E2E2E2E2E2E2E26DE2E2E2E26DF5F5F5F5F5F5F5F5F5F5F5F5E2E2E2E2E2E2E2E2E2E2E2E2E2E2E2E2E2E2E2E2E2E2E2E2E2E2F5E2E2E2E2E2E2E2E2E2E2E2E2E2E2E2E2E2E2E2E2E2E2E2E2E2E2E2E2E2E2E2E2E2E2E2E2E2E2E2E2E2E2E2E2E2E2E2E2E2E2E2E9E2E2E2E2E2E2E2E2
310
E2E2E2E2E2E2E2E2E2E2E2E2E2E2E2E2E2E2E2E2E2E2E2E2E2E2E2E2E2E2E2E2E2E2E2E2E2E2E2E2E2E2E2E2E2E2E2E2E2E2E2E2E2E2E2E2E2E2E2E2E2E2E2E2E2E2E2E2E2E2E2E2E2E2E2E2E2E2E2E2F5E2E2E2E2E2E2E2E2E2E2E2E2E2E2E2E2E2E2E2E2E2E2E2E26DE2E2E2E2E2E2E2E2E2E2E2E2BEE2E2E2E2E2E2E2E2
310
E2E26DE2E26D2828286DE2E2E2E2E2E2E2E2E2E2E2E2E2E26DE2E2E2E26D6DE2E2E2E2E2E2E2E2E2E26DE2E2E2E2E2E2E2E2E2E2E2E2E2E2E2E2E2E2E2E2E2E2E2E2E2E2F5E2E2E2E2E2E2E2E2E2E2E2E2E2E2E2E2E2E2E2E2E2E2E2E2E2E2E2E2E2E2E2E2E2E2E2E2E2E2E2E2E2E2E2E2E2E2E2E2E2E2E2E9E2E2E2E2E2E2
310
E2E2E2E2E2E2E2E2E2E2E2E2E2E2E2E2E2E2E2E2E2E2E2E2E2E2E2E2E2E2E2E2E2E2E2E2E2E2E2E2E2E2E2E2E2E2E2E2E2E2E2E2E2E2E2E2E2E2E2E2E2E2E2E2E2E2E2E2E2E2E2E2E2E2E2E2E2E2E2E2E2E2F5E2E2E2E2E2E2E2E2E2E2E2E2E2E2E2E2E2E2E2E2E2E2E2E26DE2E2E2E2E2E2E2E2E2E2E2E2BEE2E2E2E2E2E2
310
E2E2E26DE2E2E26DE2E2282828E2E2E2E2E2E2E2E2E2E2E2E2E26DE2E2E2E26D6DE2E2E2E2E2E2E2E2E2E26DE2E2E2E2E2E2E2E2E2E2E2E2E2E2E2E2E2E2E2E2E2E2E2E2E2E2F5E2E2E2E2E2E2E2E2E2E2E2E2E2E2E2E2E2E2E2E2E2E2E2E2E2E2E2E2E2E2E2E2E2E2E2E2E2E2E2E2E2E2E2E2E2E2E2E2E2E2E2E9E2E2E2E2
310
E2E2E2E2E2E2E2E2E2E2E2E2E2E2E2E2E2E2E2E2E2E2E2E2E2E2E2E2E2E2E2E2E2E2E2E2E2E2E2E2E2E2E2E2E2E2E2E2E2E2E2E2E2E2E2E2E2E2E2E2E2E2E2E2E2E2E2E2E2E2E2E2E2E2E2E2E2E2E2E2E2E2E2E2F5E2E2E2E2E2E2E2E2E2E2E2E2E2E2E2E2E2E2E2E2E2E2E2E26DE2E2E2E2E2E2E2E2E2E2E2E2E2E2E2E2E2
310
E2E2E2E2E26DE2E2E26DE2E2E228286DE2E2E2E2E2E2E2E2E2E2E2E26DE2E2E2E26D6DE2E2E2E2E2E2E2E2E2E26DE2E2E2E2E2E2E2E2E2E2E2E2E2E2E2E2E2E2E2E2E2E2E2E2E2E2F5E2E2E2E2E2E2E2E2E2E2E2E2E2E2E2E2E2E2E2E2E2E2E2E2E2E2E2E2E2E2E2E2E2E2E2E2E2E2E2E2E2E2E2E2E2E2E2E2E2E2E2E9E2E2
310
E2E2E2E2E2E2E2E2E2E2E2E2E2E2E2E2E2E2E2E2E2E2E2E2E2E2E2E2E2E2E2E2E2E2E2E2E2E2E2E2E2E2E2E2E2E2E2E2E2E2E2E2E2E2E2E2E2E2E2E2E2E2E2E2E2E2E2E2E2E2E2E2E2E2E2E2E2E2E2E2E2E2E2E2E2E2F5E2E2E2E2E2E2E2E2E2E2E2E2E2E2E2E2E2E2E2E2E2E2E2E26DE2E2E2E2E2E2E2E2E2E2E2E2E2E2E2
310
E2E2E2E2E2E26DE2E2E2E26DE2E2E2E228E2E2E2E2E2E2E2E2E2E2E2E2E26DE2E2E2E26D6DE2E2E2E2E2E2E2E2E2E26DE2E2E2E2E2E2E2E2E2E2E2E2E2E2E2E2E2E2E2E2E2E2E2E2E2E2F5E2E2E2E2E2E2E2E2E2E2E2E2E2E2E2E2E2E2E2E2E2E2E2E2E2E2E2E2E2E2E2E2E2E2E2E2E2E2E2E2E2E2E2E2E2E2E2E2E2E2E2E9
310
E2E2E2E2E2E2E2E2E2E2E2E2E2E2E2E2E2E2E2E2E2E2E2E2E2E2E2E2E2E2E2E2E2E2E2E2E2E2E2E2E2E2E2E2E2E2E2E2E2E2E2E2E2E2E2E2E2E2E2E2E2E2E2E2E2E2E2E2E2E2E2E2E2E2E2E2E2E2E2E2E2E2E2E2E2E2E2E2F5E2E2E2E2E2E2E2E2E2E2E2E2E2E2E2E2E2E2E2E2E2E2E2E26DE2E2E2E2E2E2E2E2E2E2E2E26D
310
6D6D6D6D6D6D6D6D6DE2E2E2E26DE2E2E2E2E2E2E2E2E2E2E2E2E2E2E2E2E2E26DE2E2E26D6DF56D2828E2E2E2E2E2E2E26DE2E2E2E2E2E2E2E2E2E2E2E2E2E2E2E2E2E2E2E2E2E2E2E2E2E2F5E2E2E2E2E2E2E2E2E2E2E2E2E2E2E2E2E2E2E2E2E2E2E2E2E2E2E2E2E2E2E2E2E2E2E2E2E2E2E2E2E2E2E2E2E2E2E2E2E2E2
310
E2E9E2E2E2E2E2E2E2E2E2E2E2E2E2E2E2E2E2E2E2E2E2E2E2E2E2E2E2E2E2E2E2E2E2E2E2E2E2E2E2E2E2E2E2E2E2E2E2E2E2E2E2E2E2E2E2E2E2E2E2E2E2E2E2E2E2E2E2E2E2E2E2E2E2E2E2E2E2E2E2E2E2E2E2E2E2E2E2E2F5E2E2E2E2E2E2E2E2E2E2E2E2E2E2E2E2E2E2E2E2E2E2E2E26DE2E2E2E2E2E2E2E2E2E2E2
310
E2282828282828282828E2E2E2E2E26DE2E2E2E2E2E2E2E2E2E2E2E2E2E2E2E2E2E26DE2E2E2E2E26DE22828E2E2E2E2E2E2E26DE2E2E2E2E2E2E2E2E2E2E2E2E2E2E2E2E2E2E2E2E2E2E2E2E2E2F5E2E2E2E2E2E2E2E2E2E2E2E2E2E2E2E2E2E2E2E2E2E2E2E2E2E2E2E2E2E2E2E2E2E2E2E2E2E2E2E2E2E2E2E2E2E2E2E2
310
E2E2E2E9E2E2E2E2E2E2E2E2E2E2E2E2E2E2E2E2E2E2E2E2E2E2E2E2E2E2E2E2E2E2E2E2E2E2E2E2E2E2E2E2E2E2E2E2E2E2E2E2E2E2E2E2E2E2E2E2E2E2E2E2E2E2E2E2E2E2E2E2E2E2E2E2E2E2E2E2E2E2E2E2E2E2E2E2E2E2E2E2F5E2E2E2E2E2E2E2E2E2E2E2E2E2E2E2E2E2E2E2E2E2E2E2E26DE2E2E2E2E2E2E2E2E2
310
E2E2E2E2E2E2E2E2E2E2E2E2E2E2E2E2E26DE2E2E2E2E2E2E2E2E2E2E2E2E2E2E2E2E2E26DE2E2E2E2E26DE2E2E2E2E2E2E2E2E2E26DE2E2E2E2E2E2E2E2E2E2E2E2E2E2E2E2E2E2E2E2E2E2E2E2E2E2F5E2E2E2E2E2E2E2E2E2E2E2E2E2E2E2E2E2E2E2E2E2E2E2E2E2E2E2E2E2E2E2E2E2E2E2E2E2E2E2E2E2E2E2E2E2E2
310
E2E2E2E2E2E9E2E2E2E2E2E2E2E2E2E2E2E2E2E2E2E2E2E2E2E2E2E2E2E2E2E2E2E2E2E2E2E2E2E2E2E2E2E2E2E2E2E2E2E2E2E2E2E2E2E2E2E2E2E2E2E2E2E2E2E2E2E2E2E2E2E2E2E2E2E2E2E2E2E2E2E2E2E2E2E2E2E2E2E2E2E2E2E2F5E2E2E2E2E2E2E2E2E2E2E2E2E2E2E2E2E2E2E2E2E2E2E2E26D6D6D6D6D6D6D6D
310
6D6D6D6D6D28286D6D6D6D6D6D6D6D6D6D6D6DF5E2E2E2E2E2E2E2E2E2E2E2E2E2E2E2E2E2E26D6D6D28286DF56D6D6D6D28286D6D6D6DF5E2E2E2E2E2E2E2E2E2E2E2E2E2E2E2E2E2E2E2E2E2E2E2E2E2E2F5E2E2E2E2E2E2E2E2E2E2E2E2E2E2E2E2E2E2E2E2E2E2E2E2E2E2E2E2E2E2E2E2E2E2E2E2E2E2E2E2E2E2E2E2
310
E2E2E2E2E2E2E2E9E2E2E2E2E2E2E2E2E2E2E2E2E2E2E2E2E2E2E2E2E2E2E2E2E2E2E2E2E2E2E2E2E2E2E2E2E2E2E2E2E2E2E2E2E2E2E2E2E2E2E2E2E2E2E2E2E2E2E2E2E2E2E2E2E2E2E2E2E2E2E2E2E2E2E2E2E2E2E2E2E2E2E2E2E2E2E2E2F5E2E2E2E2E2E2E2E2E2E2E2E2E2E2E2E2E2E2E2E2E2E2E2E2E2E2E2E2E2E2
310
E2E2E2E2E228282828E2E2E2E2E2E2E2E2E2E2E2E2E2E2E2E2E2E2E2E2E2E2E2E2E2E2E2E2E2E2E2E2E2282828E2E2E2E2E2E22828E2E2E2E2E2E2E2E2E2E2E2E2E2E2E2E2E2E2E2E2E2E2E2E2E2E2E2E2E2E2E2F5E2E2E2E2E2E2E2E2E2E2E2E2E2E2E2E2E2E2E2E2E2E2E2E2E2E2E2E2E2E2E2E2E2E2E2E2E2E2E2E2E2E2
310
E2E2E2E2E2E2E2E2E2E9E2E2E2E2E2E2E2E2E2E2E2E2E2E2E2E2E2E2E2E2E2E2E2E2E2E2E2E2E2E2E2E2E2E2E2E2E2E2E2E2E2E2E2E2E2E2E2E2E2E2E2E2E2E2E2E2E2E2E2E2E2E2E2E2E2E2E2E2E2E2E2E2E2E2E2E2E2E2E2E2E2E2E2E2E2E2E2E2F5E2E2E2E2E2E2E2E2E2E2E2E2E2E2E2E2E2E2E2E2E2E2E2E2E2E2E2E2
310
E2E2E2E2E2E2E2E2E2E2E2E2E2E2E2E2E2E2E2E2E2E2E2E2E2E2E2E2E2E2E2E2E2E2E2E2E2E2E2E2E2E2E2E2E2E2E2E2E2E2E2E2E2E2E2E2E2E2E2E2E2E2E2E2E2E2E2E2E2E2E2E2E2E2E2E2E2E2E2E2E2E2E2E2E2E2F5E2E2E2E2E2E2E2E2E2E2E2E2E2E2E2E2E2E2E2E2E2E2E2E2E2E2E2E2E2E2E2E2E2E2E2E2E2E2E2E2
310
E2E2E2E2E2E2E2E2E2E2E2E9E2E2E2E2E2E2E2E2E2E2E2E2E2E2E2E2E2E2E2E2E2E2E2E2E2E2E2E2E2E2E2E2E2E2E2E2E2E2E2E2E2E2E2E2E2E2E2E2E2E2E2E2E2E2E2E2E2E2E2E2E2E2E2E2E2E2E2E2E2E2E2E2E2E2E2E2E2E2E2E2E2E2E2E2E2E2E2E2F5E2E2E2E2E2E2E2E2E2E2E2E2E2E2E2E2E2E2E2E2E2E2E2E2E2E2
310
E2E2E2E2E2E2E2E2E2E2E2E2E2E2E2E2E2E2E2E2E2E2E2E2E2E2E2E2E2E2E2E2E2E2E2E2E2E2E2E2E2E2E2E2E2E2E2E2E2E2E2E2E2E2E2E2E2E2E2E2E2E2E2E2E2E2E2E2E2E2E2E2E2E2E2E2E2E2E2E2E2E2E2E2E2E2E2E2F5E2E2E2E2E2E2E2E2E2E2E2E2E2E2E2E2E2E2E2E2E2E2E2E2E2E2E2E2E2E2E2E2E2E2E2E2E2E2
310
E2E2E2E2E2E2E2E2E2E2E2E2E2E9E2E2E2E2E2E2E2E2E2E2E2E2E2E2E2E2E2E2E2E2E2E2E2E2E2E2E2E2E2E2E2E2E2E2E2E2E2E2E2E2E2E2E2E2E2E2E2E2E2E2E2E2E2E2E2E2E2E2E2E2E2E2E2E2E2E2E2E2E2E2E2E2E2E2E2E2E2E2E2E2E2E2E2E2E2E2E2E2F5E2E2E2E2E2E2E2E2E2E2E2E2E2E2E2E2E2E2E2E2E2E2E2E2
310
E2E2E2E2E2E2E2E2E2E2E2E2E2E2E2E2E2E2E2E2E2E2E2E2E2E2E2E2E2E2E2E2E2E2E2E2E2E2E2E2E2E2E2E2E2E2E2E2E2E2E2E2E2E2E2E2E2E2E2E2E2E2E2E2E2E2E2E2E2E2E2E2E2E2E2E2E2E2E2E2E2E2E2E2E2E2E2E2E2E2F5E2E2E2E2E2E2E2E2E2E2E2E2E2E2E2E2E2E2E2E2E2E2E2E2E2E2E2E2E2E2E2E2E2E2E2E2
310
E2E2E2E2E2E2E2E2E2E2E2E2E2E2E2E9E2E2E2E2E2E2E2E2E2E2E2E2E2E2E2E2E2E2E2E2E2E2E2E2E2E2E2E2E2E2E2E2E2E2E2E2E2E2E2E2E2E2E2E2E2E2E2E2E2E2E2E2E2E2E2E2E2E2E2E2E2E2E2E2E2E2E2E2E2E2E2E2E2E2E2E2E2E2E2E2E2E2E2E2E2E2E2E2F5E2E2E2E2E2E2E2E2E2E2E2E2E2E2E2E2E2E2E2E2E2E2
310
E2E2E2E2E2E2E2E2E2E2E2E2E2E2E2E2E2E2E2E2E2E2E2E2E2E2E2E2E2E2E2E2E2E2E2E2E2E2E2E2E2E2E2E2E2E2E2E2E2E2E2E2E2E2E2E2E2E2E2E2E2E2E2E2E2E2E2E2E2E2E2E2E2E2E2E2E2E2E2E2E2E2E2E2E2E2E2E2E2E2E2E2F5E2E2E2E2E2E2E2E2E2E2E2E2E2E2E2E2E2E2E2E2E2E2E2E2E2E2E2E2E2E2E2E2E2E2
310
E2E2E2E2E2E2E2E2E2E2E2E2E2E2E2E2E2E9E2E2E2E2E2E2E2E2E2E2E2E2E2E2E2E2E2E2E2E2E2E2E2E2E2E2E2E2E2E2E2E2E2E2E2E2E2E2E2E2E2E2E2E2E2E2E2E2E2E2E2E2E2E2E2E2E2E2E2E2E2E2E2E2E2E2E2E2E2E2E2E2E2E2E2E2E2E2E2E2E2E2E2E2E2E2E2E2F5E2E2E2E2E2E2E2E2E2E2E2E2E2E2E2E2E2E2E2E2
310
E2E2E2E2E2E2E2E2E2E2E2E2E2E2E2E2E2E2E2E2E2E2E2E2E2E2E2E2E2E2E2E2E2E2E2E2E2E2E2E2E2E2E2E2E2E2E2E2E2E2E2E2E2E2E2E2E2E2E2E2E2E2E2E2E2E2E2E2E2E2E2E2E2E2E2E2E2E2E2E2E2E2E2E2E2E2E2E2E2E2E2E2E2E2F5E2E2E2E2E2E2E2E2E2E2E2E2E2E2E2E2E2E2E2E2E2E2E2E2E2E2E2E2E2E2E2E2
310
E2E2E2E2E2E2E2E2E2E2E2E2E2E2E2E2E2E2E2E9E2E2E2E2E2E2E2E2E2E2E2E2E2E2E2E2E2E2E2E2E2E2E2E2E2E2E2E2E2E2E2E2E2E2E2E2E2E2E2E2E2E2E2E2E2E2E2E2E2E2E2E2E2E2E2E2E2E2E2E2E2E2E2E2E2E2E2E2E2E2E2E2E2E2E2E2E2E2E2E2E2E2E2E2E2E2E2E2F5E2E2E2E2E2E2E2E2E2E2E2E2E2E2E2E2E2E2
310
E2E2E2E2E2E2E2E2E2E2E2E2E2E2E2E2E2E2E2E2E2E2E2E2E2E2E2E2E2E2E2E2E2E2E2E2E2E2E2E2E2E2E2E2E2E2E2E2E2E2E2E2E2E2E2E2E2E2E2E2E2E2E2E2E2E2E2E2E2E2E2E2E2E2E2E2E2E2E2E2E2E2E2E2E2E2E2E2E2E2E2E2E2E2E2E2F5E2E2E2E2E2E2E2E2E2E2E2E2E2E2E2E2E2E2E2E2E2E2E2E2E2E2E2E2E2E2
310
E2E2E2E2E2E2E2E2E2E2E2E2E2E2E2E2E2E2E2E2E2E9E2E2E2E2E2E2E2E2E2E2E2E2E2E2E2E2E2E2E2E2E2E2E2E2E2E2E2E2E2E2E2E2E2E2E2E2E2E2E2E2E2E2E2E2E2E2E2E2E2E2E2E2E2E2E2E2E2E2E2E2E2E2E2E2E2E2E2E2E2E2E2E2E2E2E2E2E2E2E2E2E2E2E2E2E2E2E2E2F5E2E2E2E2E2E2E2E2E2E2E2E2E2E2E2E2
310
E2E2E2E2E2E2E2E2E2E2E2E2E2E2E2E2E2E2E2E2E2E2E2E2E2E2E2E2E2E2E2E2E2E2E2E2E2E2E2E2E2E2E2E2E2E2E2E2E2E2E2E2E2E2E2E2E2E2E2E2E2E2E2E2E2E2E2E2E2E2E2E2E2E2E2E2E2E2E2E2E2E2E2E2E2E2E2E2E2E2E2E2E2E2E2E2E2E2F5E2E2E2E2E2E2E2E2E2E2E2E2E2E2E2E2E2E2E2E2E2E2E2E2E2E2E2E2
310
E2E2E2E2E2E2E2E2E2E2E2E2E2E2E2E2E2E2E2E2E2E2E2E9E2E2E2E2E2E2E2E2E2E2E2E2E2E2E2E2E2E2E2E2E2E2E2E2E2E2E2E2E2E2E2E2E2E2E2E2E2E2E2E2E2E2E2E2E2E2E2E2E2E2E2E2E2E2E2E2E2E2E2E2E2E2E2E2E2E2E2E2E2E2E2E2E2E2E2E2E2E2E2E2E2E2E2E2E2E2E2E2F5E2E2E2E2E2E2E2E2E2E2E2E2E2E2
310
E2E2E2E2E2E2E2E2E2E2E2E2E2E2E2E2E2E2E2E2E2E2E2E2E2E2E2E2E2E2E2E2E2E2E2E2E2E2E2E2E2E2E2E2E2E2E2E2E2E2E2E2E2E2E2E2E2E2E2E2E2E2E2E2E2E2E2E2E2E2E2E2E2E2E2E2E2E2E2E2E2E2E2E2E2E2E2E2E2E2E2E2E2E2E2E2E2E2E2E2F5E2E2E2E2E2E2E2E2E2E2E2E2E2E2E2E2E2E2E2E2E2E2E2E2E2E2
310
E2E2E2E2E2E2E2E2E2E2E2E2E2E2E2E2E2E2E2E2E2E2E2E2E2E9E2E2E2E2E2E2E2E2E2E2E2E2E2E2E2E2E2E2E2E2E2E2E2E2E2E2E2E2E2E2E2E2E2E2E2E2E2E2E2E2E2E2E2E2E2E2E2E2E2E2E2E2E2E2E2E2E2E2E2E2E2E2E2E2E2E2E2E2E2E2E2E2E2E2E2E2E2E2E2E2E2E2E2E2E2E2E2E2F5E2E2E2E2E2E2E2E2E2E2E2E2
310
E2E2E2E2E2E2E2E2E2E2E2E2E2E2E2E2E2E2E2E2E2E2E2E2E2E2E2E2E2E2E2E2E2E2E2E2E2E2E2E2E2E2E2E2E2E2E2E2E2E2E2E2E2E2E2E2E2E2E2E2E2E2E2E2E2E2E2E2E2E2E2E2E2E2E2E2E2E2E2E2E2E2E2E2E2E2E2E2E2E2E2E2E2E2E2E2E2E2E2E2E2E2F5E2E2E2E2E2E2E2E2E2E2E2E2E2E2E2E2E2E2E2E2E2E2E2E2
310
E2E2E2E2E2E2E2E2E2E2E2E2E2E2E2E2E2E2E2E2E2E2E2E2E2E2E2E9E2E2E2E2E2E2E2E2E2E2E2E2E2E2E2E2E2E2E2E2E2E2E2E2E2E2E2E2E2E2E2E2E2E2E2E2E2E2E2E2E2E2E2E2E2E2E2E2E2E2E2E2E2E2E2E2E2E2E2E2E2E2E2E2E2E2E2E2E2E2E2E2E2E2E2E2E2E2E2E2E2E2E2E2E2E2E2E2F5E2E2E2E2E2E2E2E2E2E2
310
E2E2E2E2E2E2E2E2E2E2E2E2E2E2E2E2E2E2E2E2E2E2E2E2E2E2E2E2E2E2E2E2E2E2E2E2E2E2E2E2E2E2E2E2E2E2E2E2E2E2E2E2E2E2E2E2E2E2E2E2E2E2E2E2E2E2E2E2E2E2E2E2E2E2E2E2E2E2E2E2E2E2E2E2E2E2E2E2E2E2E2E2E2E2E2E2E2E2E2E2E2E2E2E2F5E2E2E2E2E2E2E2E2E2E2E2E2E2E2E2E2E2E2E2E2E2E2
310
E2E2E2E2E2E2E2E2E2E2E2E2E2E2E2E2E2E2E2E2E2E2E2E2E2E2E2E2E2E9E2E2E2E2E2E2E2E2E2E2E2E2E2E2E2E2E2E2E2E2E2E2E2E2E2E2E2E2E2E2E2E2E2E2E2E2E2E2E2E2E2E2E2E2E2E2E2E2E2E2E2E2E2E2E2E2E2E2E2E2E2E2E2E2E2E2E2E2E2E2E2E2E2E2E2E2E2E2E2E2E2E2E2E2E2E2E2E2F5E2E2E2E2E2E2E2E2
310
E2E2E2E2E2E2E2E2E2E2E2E2E2E2E2E2E2E2E2E2E2E2E2E2E2E2E2E2E2E2E2E2E2E2E2E2E2E2E2E2E2E2E2E2E2E2E2E2E2E2E2E2E2E2E2E2E2E2E2E2E2E2E2E2E2E2E2E2E2E2E2E2E2E2E2E2E2E2E2E2E2E2E2E2E2E2E2E2E2E2E2E2E2E2E2E2E2E2E2E2E2E2E2E2E2E2F5E2E2E2E2E2E2E2E2E2E2E2E2E2E2E2E2E2E2E2E2
310
E2E2E2E2E2E2E2E2E2E2E2E2E2E2E2E2E2E2E2E2E2E2E2E2E2E2E2E2E2E2E2E9E2E2E2E2E2E2E2E2E2E2E2E2E2E2E2E2E2E2E2E2E2E2E2E2E2E2E2E2E2E2E2E2E2E2E2E2E2E2E2E2E2E2E2E2E2E2E2E2E2E2E2E2E2E2E2E2E2E2E2E2E2E2E2E2E2E2E2E2E2E2E2E2E2E2E2E2E2E2E2E2E2E2E2E2E2E2E2E2F5E2E2E2E2E2E2
310
E2E2E2E2E2E2E2E2E2E2E2E2E2E2E2E2E2E2E2E2E2E2E2E2E2E2E2E2E2E2E2E2E2E2E2E2E2E2E2E2E2E2E2E2E2E2E2E2E2E2E2E2E2E2E2E2E2E2E2E2E2E2E2E2E2E2E2E2E228282828282828282828282828282828282828282828282828282828282828282828282828282828E2E2E2E2E2E2E2E2E2E2E2E2E2E2E2E2E2E2
310
E2E2E2E2E2E2E2E2E2E2E2E2E2E2E2E2E2E2E2E2E2E2E2E2E2E2E2E2E2E2E2E2E2E9E2E2E2E2E2E2E2E2E2E2E2E2E2E2E2E2E2E2E2E2E2E2E2E2E2E2E2E2E2E2E2E2E2E2E2E2E2E2E2E2E2E2E2E2E2E2E2E2E2E2E2E2E2E2E2E2E2E2E2E2E2E2E2E2E2E2E2E2E2E2E2E2E2E2E2E2E2E2E2E2E2E2E2E2E2E2E2E2F5E2E2E2E2
310
E2E2E2E2E2E2E2E2E2E2E2E2E2E2E2E2E2E2E2E2E2E2E2E2E2E2E2E2E2E2E2E2E2E2E2E2E2E2E2E2E2E2E2E2E2E2E2E2E2E2E2E2E2E2E2E2E2E2E2E2E2E2E2E2E2E2E2E2E2E2E228282828282828282828282828282828282828282828282828282828282828282828282828282828E2E2E2E2E2E2E2E2E2E2E2E2E2E2E2E2
310
E2E2E2E2E2E2E2E2E2E2E2E2E2E2E2E2E2E2E2E2E2E2E2E2E2E2E2E2E2E2E2E2E2E2E2E9E2E2E2E2E2E2E2E2E2E2E2E2E2E2E2E2E2E2E2E2E2E2E2E2E2E2E2E2E2E2E2E2E2E2E2E2E2E2E2E2E2E2E2E2E2E2E2E2E2E2E2E2E2E2E2E2E2E2E2E2E2E2E2E2E2E2E2E2E2E2E2E2E2E2E2E2E2E2E2E2E2E2E2E2E2E2E2E2F5E2E2
310
E2E2E2E2E2E2E2E2E2E2E2E2E2E2E2E2E2E2E2E2E2E2E2E2E2E2E2E2E2E2E2E2E2E2E2E2E2E2E2E2E2E2E2E2E2E2E2E2E2E2E2E2E2E2E2E2E2E2E2E2E2E2E2E2E2E2E2E2E2E2E2E2E228E228E2E2E2E2E2E2E2E2E2E2E2E2E2E2E2E2E2E2E2E2E2E228E2E2E2E2E2E2E2E228E2E2E2E2F5E2E2E2E2E2E2E2E2E2E2E2E2E2E2
310
E2E2E2E2E2E2E2E2E2E2E2E2E2E2E2E2E2E2E2E2E2E2E2E2E2E2E2E2E2E2E2E2E2E2E2E2E2E9E2E2E2E2E2E2E2E2E2E2E2E2E2E2E2E2E2E2E2E2E2E2E2E2E2E2E2E2E2E2E2E2E2E2E2E2E2E2E2E2E2E2E2E2E2E2E2E2E2E2E2E2E2E2E2E2E2E2E2E2E2E2E2E2E2E2E2E2E2E2E2E2E2E2E2E2E2E2E2E2E2E2E2E2E2E2E2E2F5
310
E2E2E2E2E2E2E2E2E2E2E2E2E2E2E2E2E2E2E2E2E2E2E2E2E2E2E2E2E2E2E2E2E2E2E2E2E2E2E2E2E2E2E2E2E2E2E2E2E2E2E2E2E2E2E2E2E2E2E2E2E2E2E2E2E2E2E2E2E2E2E2E2E2E2E228282828282828282828282828282828282828282828282828282828282828282828282828282828E2E2E2E2E2E2E2E2E2E2E2E2
310
E2E2E2E2E2E2E2E2E2E2E2E2E2E2E2E2E2E2E2E2E2E2E2E2E2E2E2E2E2E2E2E2E2E2E2E2E2E2E2E9E2E2E2E2E2E2E2E2E2E2E2E2E2E2E2E2E2E2E2E2E2E2E2E2E2E2E2E2E2E2E2E2E2E2E2E2E2E2E2E2E2E2E2E2E2E2E2E2E2E2E2E2E2E2E2E2E2E2E2E2E2E2E2E2E2E2E2E2E2E2E2E2E2E2E2E2E2E2E2E2E2E2E2E2E2E2E2
310
E2F5E2E2E2E2E2E2E2E2E2E2E2E2E2E2E2E2E2E2E2E2E2E2E2E2E2E2E2E2E2E2E2E2E2E2E2E2E2E2E2E2E2E2E2E2E2E2E2E2E2E2E2E2E2E2E2E2E2E2E2E2E2E2E2E2E2E2E2E2E2E2E2E2E2E2E228282828282828282828282828282828282828282828282828282828282828282828282828282828E2E2E2E2E2E2E2E2E2E2
310
E2E2E2E2E2E2E2E2E2E2E2E2E2E2E2E2E2E2E2E2E2E2E2E2E2E2E2E2E2E2E2E2E2E2E2E2E2E2E2E2E2E9E2E2E2E2E2E2E2E2E2E2E2E2E2E2E2E2E2E2E2E2E2E2E2E2E2E2E2E2E2E2E2E2E2E2E2E2E2E2E2E2E2E2E2E2E2E2E2E2E2E2E2E2E2E2E2E2E2E2E2E2E2E2E2E2E2E2E2E2E2E2E2E2E2E2E2E2E2E2E2E2E2E2E2E2E2
310
E2E2E2F5E2E2E2E2E2E2E2E2E2E2E2E2E2E2E2E2E2E2E2E2E2E2E2E2E2E2E2E2E2E2E2E2E2E2E2E2E2E2E2E2E2E2E2E2E2E2E2E2E2E2E2E2E2E2E2E2E2E2E2E2E2E2E2E2E2E2E2E2E2E2E2E2E2E2E228E228E2E2E2E2E2E2E2E2E2E2E2E2E2E2E2E2E2E2E2E2E2E228E2E2E2E2E2E2E2E228E2E2E2E2F5E2E2E2E2E2E2E2E2
310
E2E2E2E2E2E2E2E2E2E2E2E2E2E2E2E2E2E2E2E2E2E2E2E2E2E2E2E2E2E2E2E2E2E2E2E2E2E2E2E2E2E2E2E9E2E2E2E2E2E2E2E2E2E2E2E2E2E2E2E2E2E2E2E2E2E2E2E2E2E2E2E2E2E2E2E2E2E2E2E2E2E2E2E2E2E2E2E2E2E2E2E2E2E2E2E2E2E2E2E2E2E2E2E2E2E2E2E2E2E2E2E2E2E2E2E2E2E2E2E2E2E2E2E2E2E2E2
310
E2E2E2E2E2F5E2E2E2E2E2E2E2E2E2E2E2E2E2E2E2E2E2E2E2E2E2E2E2E2E2E2E2E2E2E2E2E2E2E2E2E2E2E2E2E2E2E2E2E2E2E2E2E2E2E2E2E2E2E2E2E2E2E2E2E2E2E2E2E2E2E2E2E2E2E2E2E2E2E2E228282828282828282828282828282828282828282828282828282828282828282828282828282828E2E2E2E2E2E2
310
E2E2E2E2E2E2E2E2E2E2E2E2E2E2E2E2E2E2E2E2E2E2E2E2E2E2E2E2E2E2E2E2E2E2E2E2E2E2E2E2E2E2E2E2E2E9E2E2E2E2E2E2E2E2E2E2E2E2E2E2E2E2E2E2E2E2E2E2E2E2E2E2E2E2E2E2E2E2E2E2E2E2E2E2E2E2E2E2E2E2E2E2E2E2E2E2E2E2E2E2E2E2E2E2E2E2E2E2E2E2E2E2E2E2E2E2E2E2E2E2E2E2E2E2E2E2E2
310
E2E2E2E2E2E2E2F5E2E2E2E2E2E2E2E2E2E2E2E2E2E2E2E2E2E2E2E2E2E2E2E2E2E2E2E2E2E2E2E2E2E2E2E2E2E2E2E2E2E2E2E2E2E2E2E2E2E2E2E2E2E2E2E2E2E2E2E2E2E2E2E2E2E2E2E2E2E2E2E2E2E2E2282828E2E2E2E2E2E2E2E2282828282828E2E2E2E2E2E2E2E22828282828282828282828282828F5E2E2E2E2
310
E2E2E2E2E2E2E2E2E2E2E2E2E2E2E2E2E2E2E2E2E2E2E2E2E2E2E2E2E2E2E2E2E2E2E2E2E2E2E2E2E2E2E2E2E2E2E2E9E2E2E2E2E2E2E2E2E2E2E2E2E2E2E2E2E2E2E2E2E2E2E2E2E2E2E2E2E2E2E2E2E2E2E2E2E2E2E2E2E2E2E2E2E2E2E2E2E2E2E2E2E2E2E2E2E2E2E2E2E2E2E2E2E2E2E2E2E2E2E2E2E2E2E2E2E2E2E2
310
E2E2E2E2E2E2E2E2E2F5F5F5F5F5F5F5F5F5F5F5F5F5F5F5F5F5F5F5F5F5F5F5F5F5F5F5F5F5F5F5F5F5F5F5F5F5F5F5F5F5F5F5F5F5F5F5F5F5F5F5F5F5F5F5F5F5F5F5F5F5F5F5F5F5F5F5F5F5F5F5F5F5F5F5F528F528F5F5F5F5F5F5F5F5F5F5F5F5F5F5F5F5F5F5F5F5F5F528F5F5F5F5F5F5F5F528F5F5F5F5F5E2E2
310
E2E2E2E2E2E2E2E2E2E2E2E2E2E2E2E2E2E2E2E2E2E2E2E2E2E2E2E2E2E2E2E2E2E2E2E2E2E2E2E2E2E2E2E2E2E2E2E2E2E9E2E2E2E2E2E2E2E2E2E2E2E2E2E2E2E2E2E2E2E2E2E2E2E2E2E2E2E2E2E2E2E2E2E2E2E2E2E2E2E2E2E2E2E2E2E2E2E2E2E2E2E2E2E2E2E2E2E2E2E2E2E2E2E2E2E2E2E2E2E2E2E2E2E2E2E2E2
310
E2E2E2E2E2E2E2E2E2E2E2E2E2E2E2E2E2E2E2E2E2E2E2E2E2E2E2E2E2E2E2E2E2E2E2E2E2E2E2E2E2E2E2E2E2E2E2E2E2E2E2E2E2E2E2E2E2E2E2E2E2E2E2E2E2E2E2E2E2E2E2E2E2E2E2E2E2E2E2E2E2E2E2E2E2E2E2E2E2E2E2E2E2E2E2E2E2E2E2E2E2E2E2E2E2E2E2E2E2E2E2E2E2E2E2E2E2E2E2E2E2E2E2E2E2E2E2
310
E2E2E2E2E2E2E2E2E2E2E2E2E2E2E2E2E2E2E2E2E2E2E2E2E2E2E2E2E2E2E2E2E2E2E2E2E2E2E2E2E2E2E2E2E2E2E2E2E2E2E2E9E2E2E2E2E2E2E2E2E2E2E2E2E2E2E2E2E2E2E2E2E2E2E2E2E2E2E2E2E2E2E2E2E2E2E2E2E2E2E2E2E2E2E2E2E2E2E2E2E2E2E2E2E2E2E2E2E2E2E2E2E2E2E2E2E2E2E2E2E2E2E2E2E2E2E2
310
E2E2E2E2E2E2E2E2E2E2E2E2E2E2E2E2E2E2E2E2E2E2E2E2E2E2E2E2E2E2E2E2E2E2E2E2E2E2E2E2E2E2E2E2E2E2E2E2E2E2E2E2E2E2E2E2E2E2E2E2E2E2E2E2E2E2E2E2E2E2E2E2E2E2E2E2E2E2E2E2E2E2E2E2E2E2E2E2E2E2E2E2E2E2E2E2E2E2E2E2E2E2E2E2E2E2E2E2E2E2E2E2E2E2E2E2E2E2E2E2E2E2E2E2E2E2E2
310
E2E2E2E2E2E2E2E2E2E2E2E2E2E2E2E2E2E2E2E2E2E2E2E2E2E2E2E2E2E2E2E2E2E2E2E2E2E2E2E2E2E2E2E2E2E2E2E2E2E2E2E2E2E9E2E2E2E2E2E2E2E2E2E2E2E2E2E2E2E2E2E2E2E2E2E2E2E2E2E2E2E2E2E2E2E2E2E2E2E2E2E2E2E2E2E2E2E2E2E2E2E2E2E2E2E2E2E2E2E2E2E2E2E2E2E2E2E2E2E2E2E2E2E2E2E2E2
310
E2E2E2E2E2E2E2E2E2E2E2E2E2E2E2E2E2E2E2E2E2E2E2E2E2E2E2E2E2E2E2E2E2E2E2E2E2E2E2E2E2E2E2E2E2E2E2E2E2E2E2E2E2E2E2E2E2E2E2E2E2E2E2E2E2E2E2E2E2E2E2E2E2E2E2E2E2E2E2E2E2E2E2E2E2E2E2E2E2E2E2E2E2E2E2E2E2E2E2E2E2E2E2E2E2E2E2E2E2E2E2E2E2E2E2E2E2E2E2E2E2E2E2E2E2E2E2
310
E2E2E2E2E2E2E2E2E2E2E2E2E2E2E2E2E2E2E2E2E2E2E2E2E2E2E2E2E2E2E2E2E2E2E2E2E2E2E2E2E2E2E2E2E2E2E2E2E2E2E2E2E2E2E2E9E2E2E2E2E2E2E2E2E2E2E2E2E2E2E2E2E2E2E2E2E2E2E2E2E2E2E2E2E2E2E2E2E2E2E2E2E2E2E2E2E2E2E2E2E2E2E2E2E2E2E2E2E2E2E2E2E2E2E2E2E2E2E2E2E2E2E2E2E2E2E2
310
E2E2E2E2E2E2E2E2E2E2E2E2E2E2E2E2E2E2E2E2E2E2E2E2E2E2E2E2E2E2E2E2E2E2E2E2E2E2E2E2E2E2E2E2E2E2E2E2E2E2E2E2E2E2E2E2E2E2E2E2E2E2E2E2E2E2E2E2E2E2E2E2E2E2E2E2E2E2E2E2E2E2E2E2E2E2E2E2E2E2E2E2E2E2E2E2E2E2E2E2E2E2E2E2E2E2E2E2E2E2E2E2E2E2E2E2E2E2E2E2E2E2E2E2E2E2E2
310
E2E2E2E2E2E2E2E2E2E2E2E2E2E2E2E2E2E2E2E2E2E2E2E2E2E2E2E2E2E2E2E2E2E2E2E2E2E2E2E2E2E2E2E2E2E2E2E2E2E2E2E2E2E2E2E2E2E9E2E2E2E2E2E2E2E2E2E2E2E2E2E2E2E2E2E2E2E2E2E2E2E2E2E2E2E2E2E2E2E2E2E2E2E2E2E2E2E2E2E2E2E2E2E2E2E2E2E2E2E2E2E2E2E2E2E2E2E2E2E2E2E2E2E2E2E2E2
310
E2E2E2E2E2E2E2E2E2E2E2E2E2E2E2E2E2E2E2E2E2E2E2E2E2E2E2E2E2E2E2E2E2E2E2E2E2E2E2E2E2E2E2E2E2E2E2E2E2E2E2E2E2E2E2E2E2E2E2E2E2E2E2E2E2E2E2E2E2E2E2E2E2E2E2E2E2E2E2E2E2E2E2E2E2E2E2E2E2E2E2E2E2E2E2E2E2E2E2E2E2E2E2E2E2E2E2E2E2E2E2E2E2E2E2E2E2E2E2E2E2E2E2E2E2E2E2
310
E2E2E2E2E2E2E2E2E2E2E2E2E2E2E2E2E2E2E2E2E2E2E2E2E2E2E2E2E2E2E2E2E2E2E2E2E2E2E2E2E2E2E2E2E2E2E2E2E2E2E2E2E2E2E2E2E2E2E2E9E2E2E2E2E2E2E2E2E2E2E2E2E2E2E2E2E2E2E2E2E2E2E2E2E2E2E2E2E2E2E2E2E2E2E2E2E2E2E2E2E2E2E2E2E2E2E2E2E2E2E2E2E2E2E2E2E2E2E2E2E2E2E2E2E2E2E2
310
E2E2E2E2E2E2E2E2E2E2E2E2E2E2E2E2E2E2E2E2E2E2E2E2E2E2E2E2E2E2E2E2E2E2E2E2E2E2E2E2E2E2E2E2E2E2E2E2E2E2E2E2E2E2E2E2E2E2E2E2E2E2E2E2E2E2E2E2E2E2E2E2E2E2E2E2E2E2E2E2E2E2E2E2E2E2E2E2E2E2E2E2E2E2E2E2E2E2E2E2E2E2E2E2E2E2E2E2E2E2E2E2E2E2E2E2E2E2E2E2E2E2E2E2E2E2E2
310
E2E2E2E2E2E2E2E2E2E2E2E2E2E2E2E2E2E2E2E2E2E2E2E2E2E2E2E2E2E2E2E2E2E2E2E2E2E2E2E2E2E2E2E2E2E2E2E2E2E2E2E2E2E2E2E2E2E2E2E2E2E9E2E2E2E2E2E2E2E2E2E2E2E2E2E2E2E2E2E2E2E2E2E2E2E2E2E2E2E2E2E2E2E2E2E2E2E2E2E2E2E2E2E2E2E2E2E2E2E2E2E2E2E2E2E2E2E2E2E2E2E2E2E2E2E2E2
310
E2E2E2E2E2E2E2E2E2E2E2E2E2E2E2E2E2E2E2E2E2E2E2E2E2E2E2E2E2E2E2E2E2E2E2E2E2E2E2E2E2E2E2E2E2E2E2E2E2E2E2E2E2E2E2E2E2E2E2E2E2E2E2E2E2E2E2E2E2E2E2E2E2E2E2E2E2E2E2E2E2E2E2E2E2E2E2E2E2E2E2E2E2E2E2E2E2E2E2E2E2E2E2E2E2E2E2E2E2E2E2E2E2E2E2E2E2E2E2E2E2E2E2E2E2E2E2
310
E2E2E2E2E2E2E2E2E2E2E2E2E2E2E2E2E2E2E2E2E2E2E2E2E2E2E2E2E2E2E2E2E2E2E2E2E2E2E2E2E2E2E2E2E2E2E2E2E2E2E2E2E2E2E2E2E2E2E2E2E2E2E2E9E2E2E2E2E2E2E2E2E2E2E2E2E2E2E2E2E2E2E2E2E2E2E2E2E2E2E2E2E2E2E2E2E2E2E2E2E2E2E2E2E2E2E2E2E2E2E2E2E2E2E2E2E2E2E2E2E2E2E2E2E2E2E2
310
E2E2E2E2E2E2E2E2E2E2E2E2E2E2E2E2E2E2E2E2E2E2E2E2E2E2E2E2E2E2E2E2E2E2E2E2E2E2E2E2E2E2E2E2E2E2E2E2E2E2E2E2E2E2E2E2E2E2E2E2E2E2E2E2E2E2E2E2E2E2E2E2E2E2E2E2E2E2E2E2E2E2E2E2E2E2E2E2E2E2E2E2E2E2E2E2E2E2E2E2E2E2E2E2E2E2E2E2E2E2E2E2E2E2E2E2E2E2E2E2E2E2E2E2E2E2E2
310
E2E2E2E2E2E2E2E2E2E2E2E2E2E2E2E2E2E2E2E2E2E2E2E2E2E2E2E2E2E2E2E2E2E2E2E2E2E2E2E2E2E2E2E2E2E2E2E2E2E2E2E2E2E2E2E2E2E2E2E2E2E2E2E2E2E9E2E2E2E2E2E2E2E2E2E2E2E2E2E2E2E2E2E2E2E2E2E2E2E2E2E2E2E2E2E2E2E2E2E2E2E2E2E2E2E2E2E2E2E2E2E2E2E2E2E2E2E2E2E2E2E2E2E2E2E2E2
310
E2E2E2E2E2E2E2E2E2E2E2E2E2E2E2E2E2E2E2E2E2E2E2E2E2E2E2E2E2E2E2E2E2E2E2E2E2E2E2E2E2E2E2E2E2E2E2E2E2E2E2E2E2E2E2E2E2E2E2E2E2E2E2E2E2E2E2E2E2E2E2E2E2E2E2E2E2E2E2E2E2E2E2E2E2E2E2E2E2E2E2E2E2E2E2E2E2E2E2E2E2E2E2E2E2E2E2E2E2E2E2E2E2E2E2E2E2E2E2E2E2E2E2E2E2E2E2
310
E2E2E2E2E2E2E2E2E2E2E2E2E2E2E2E2E2E2E2E2E2E2E2E2E2E2E2E2E2E2E2E2E2E2E2E2E2E2E2E2E2E2E2E2E2E2E2E2E2E2E2E2E2E2E2E2E2E2E2E2E2E2E2E2E2E2E2E9E2E2E2E2E2E2E2E2E2E2E2E2E2E2E2E2E2E2E2E2E2E2E2E2E2E2E2E2E2E2E2E2E2E2E2E2E2E2E2E2E2E2E2E2E2E2E2E2E2E2E2E2E2E2E2E2E2E2E2
310
E2E2E2E2E2E2E2E2E2E2E2E2E2E2E2E2E2E2E2E2E2E2E2E2E2E2E2E2E2E2E2E2E2E2E2E2E2E2E2E2E2E2E2E2E2E2E2E2E2E2E2E2E2E2E2E2E2E2E2E2E2E2E2E2E2E2E2E2E2E2E2E2E2E2E2E2E2E2E2E2E2E2E2E2E2E2E2E2E2E2E2E2E2E2E2E2E2E2E2E2E2E2E2E2E2E2E2E2E2E2E2E2E2E2E2E2E2E2E2E2E2E2E2E2E2E2E2
310
E2E2E2E2E2E2E2E2E2E2E2E2E2E2E2E2E2E2E2E2E2E2E2E2E2E2E2E2E2E2E2E2E2E2E2E2E2E2E2E2E2E2E2E2E2E2E2E2E2E2E2E2E2E2E2E2E2E2E2E2E2E2E2E2E2E2E2E2E2E9E2E2E2E2E2E2E2E2E2E2E2E2E2E2E2E2E2E2E2E2E2E2E2E2E2E2E2E2E2E2E2E2E2E2E2E2E2E2E2E2E2E2E2E2E2E2E2E2E2E2E2E2E2E2E2E2E2
310
E2E2E2E2E2E2E2E2E2E2E2E2E2E2E2E2E2E2E2E2E2E2E2E2E2E2E2E2E2E2E2E2E2E2E2E2E2E2E2E2E2E2E2E2E2E2E2E2E2E2E2E2E2E2E2E2E2E2E2E2E2E2E2E2E2E2E2E2E2E2E2E2E2E2E2E2E2E2E2E2E2E2E2E2E2E2E2E2E2E2E2E2E2E2E2E2E2E2E2E2E2E2E2E2E2E2E2E2E2E2E2E2E2E2E2E2E2E2E2E2E2E2E2E2E2E2E2
310
E2E2E2E2E2E2E2E2E2E2E2E2E2E2E2E2E2E2E2E2E2E2E2E2E2E2E2E2E2E2E2E2E2E2E2E2E2E2E2E2E2E2E2E2E2E2E2E2E2E2E2E2E2E2E2E2E2E2E2E2E2E2E2E2E2E2E2E2E2E2E2E9E2E2E2E2E2E2E2E2E2E2E2E2E2E2E2E2E2E2E2E2E2E2E2E2E2E2E2E2E2E2E2E2E2E2E2E2E2E2E2E2E2E2E2E2E2E2E2E2E2E2E2E2E2E2E2
310
E2E2E2E2E2E2E2E2E2E2E2E2E2E2E2E2E2E2E2E2E2E2E2E2E2E2E2E2E2E2E2E2E2E2E2E2E2E2E2E2E2E2E2E2E2E2E2E2E2E2E2E2E2E2E2E2E2E2E2E2E2E2E2E2E2E2E2E2E2E2E2E2E2E2E2E2E2E2E2E2E2E2E2E2E2E2E2E2E2E2E2E2E2E2E2E2E2E2E2E2E2E2E2E2E2E2E2E2E2E2E2E2E2E2E2E2E2E2E2E2E2E2E2E2E2E2E2
310
E2E2E2E2E2E2E2E2E2E2E2E2E2E2E2E2E2E2E2E2E2E2E2E2E2E2E2E2E2E2E2E2E2E2E2E2E2E2E2E2E2E2E2E2E2E2E2E2E2E2E2E2E2E2E2E2E2E2E2E2E2E2E2E2E2E2E2E2E2E2E2E2E2E9E2E2E2E2E2E2E2E2E2E2E2E2E2E2E2E2E2E2E2E2E2E2E2E2E2E2E2E2E2E2E2E2E2E2E2E2E2E2E2E2E2E2E2E2E2E2E2E2E2E2E2E2E2
310
E2E2E2E2E2E2E2E2E2E2E2E2E2E2E2E2E2E2E2E2E2E2E2E2E2E2E2E2E2E2E2E2E2E2E2E2E2E2E2E2E2E2E2E2E2E2E2E2E2E2E2E2E2E2E2E2E2E2E2E2E2E2E2E2E2E2E2E2E2E2E2E2E2E2E2E2E2E2E2E2E2E2E2E2E2E2E2E2E2E2E2E2E2E2E2E2E2E2E2E2E2E2E2E2E2E2E2E2E2E2E2E2E2E2E2E2E2E2E2E2E2E2E2E2E2E2E2
310
E2E2E2E2E2E2E2E2E2E2E2E2E2E2E2E2E2E2E2E2E2E2E2E2E2E2E2E2E2E2E2E2E2E2E2E2E2E2E2E2E2E2E2E2E2E2E2E2E2E2E2E2E2E2E2E2E2E2E2E2E2E2E2E2E2E2E2E2E2E2E2E2E2E2E2E9E2E2E2E2E2E2E2E2E2E2E2E2E2E2E2E2E2E2E2E2E2E2E2E2E2E2E2E2E2E2E2E2E2E2E2E2E2E2E2E2E2E2E2E2E2E2E2E2E2E2E2
310
E2E2E2E2E2E2E2E2E2E2E2E2E2E2E2E2E2E2E2E2E2E2E2E2E2E2E2E2E2E2E2E2E2E2E2E2E2E2E2E2E2E2E2E2E2E2E2E2E2E2E2E2E2E2E2E2E2E2E2E2E2E2E2E2E2E2E2E2E2E2E2E2E2E2E2E2E2E2E2E2E2E2E2E2E2E2E2E2E2E2E2E2E2E2E2E2E2E2E2E2E2E2E2E2E2E2E2E2E2E2E2E2E2E2E2E2E2E2E2E2E2E2E2E2E2E2E2
310
E2E2E2E2E2E2E2E2E2E2E2E2E2E2E2E2E2E2E2E2E2E2E2E2E2E2E2E2E2E2E2E2E2E2E2E2E2E2E2E2E2E2E2E2E2E2E2E2E2E2E2E2E2E2E2E2E2E2E2E2E2E2E2E2E2E2E2E2E2E2E2E2E2E2E2E2E2E9E2E2E2E2E2E2E2E2E2E2E2E2E2E2E2E2E2E2E2E2E2E2E2E2E2E2E2E2E2E2E2E2E2E2E2E2E2E2E2E2E2E2E2E2E2E2E2E2E2
310
E2E2E2E2E2E2E2E2E2E2E2E2E2E2E2E2E2E2E2E2E2E2E2E2E2E2E2E2E2E2E2E2E2E2E2E2E2E2E2E2E2E2E2E2E2E2E2E2E2E2E2E2E2E2E2E2E2E2E2E2E2E2E2E2E2E2E2E2E2E2E2E2E2E2E2E2E2E2E2E2E2E2E2E2E2E2E2E2E2E2E2E2E2E2E2E2E2E2E2E2E2E2E2E2E2E2E2E2E2E2E2E2E2E2E2E2E2E2E2E2E2E2E2E2E2E2E2
310
E2E2E2E2E2E2E2E2E2E2E2E2E2E2E2E2E2E2E2E2E2E2E2E2E2E2E2E2E2E2E2E2E2E2E2E2E2E2E2E2E2E2E2E2E2E2E2E2E2E2E2E2E2E2E2E2E2E2E2E2E2E2E2E2E2E2E2E2E2E2E2E2E2E2E2E2E2E2E2E9E2E2E2E2E2E2E2E2E2E2E2E2E2E2E2E2E2E2E2E2E2E2E2E2E2E2E2E2E2E2E2E2E2E2E2E2E2E2E2E2E2E2E2E2E2E2E2
310
E2E2E2E2E2E2E2E2E2E2E2E2E2E2E2E2E2E2E2E2E2E2E2E2E2E2E2E2E2E2E2E2E2E2E2E2E2E2E2E2E2E2E2E2E2E2E2E2E2E2E2E2E2E2E2E2E2E2E2E2E2E2E2E2E2E2E2E2E2E2E2E2E2E2E2E2E2E2E2E2E2E2E2E2E2E2E2E2E2E2E2E2E2E2E2E2E2E2E2E2E2E2E2E2E2E2E2E2E2E2E2E2E2E2E2E2E2E2E2E2E2E2E2E2E2E2E2
310
E2E2E2E2E2E2E2E2E2E2E2E2E2E2E2E2E2E2E2E2E2E2E2E2E2E2E2E2E2E2E2E2E2E2E2E2E2E2E2E2E2E2E2E2E2E2E2E2E2E2E2E2E2E2E2E2E2E2E2E2E2E2E2E2E2E2E2E2E2E2E2E2E2E2E2E2E2E2E2E2E2E9E2E2E2E2E2E2E2E2E2E2E2E2E2E2E2E2E2E2E2E2E2E2E2E2E2E2E2E2E2E2E2E2E2E2E2E2E2E2E2E2E2E2E2E2E2
310
E2E2E2E2E2E2E2E2E2E2E2E2E2E2E2E2E2E2E2E2E2E2E2E2E2E2E2E2E2E2E2E2E2E2E2E2E2E2E2E2E2E2E2E2E2E2E2E2E2E2E2E2E2E2E2E2E2E2E2E2E2E2E2E2E2E2E2E2E2E2E2E2E2E2E2E2E2E2E2E2E2E2E2E2E2E2E2E2E2E2E2E2E2E2E2E2E2E2E2E2E2E2E2E2E2E2E2E2E2E2E2E2E2E2E2E2E2E2E2E2E2E2E2E2E2E2E2
310
E2E2E2E2E2E2E2E2E2E2E2E2E2E2E2E2E2E2E2E2E2E2E2E2E2E2E2E2E2E2E2E2E2E2E2E2E2E2E2E2E2E2E2E2E2E2E2E2E2E2E2E2E2E2E2E2E2E2E2E2E2E2E2E2E2E2E2E2E2E2E2E2E2E2E2E2E2E2E2E2E2E2E2E9E2E2E2E2E2E2E2E2E2E2E2E2E2E2E2E2E2E2E2E2E2E2E2E2E2E2E2E2E2E2E2E2E2E2E2E2E2E2E2E2E2E2E2
310
E2E2E2E2E2E2E2E2E2E2E2E2E2E2E2E2E2E2E2E2E2E2E2E2E2E2E2E2E2E2E2E2E2E2E2E2E2E2E2E2E2E2E2E2E2E2E2E2E2E2E2E2E2E2E2E2E2E2E2E2E2E2E2E2E2E2E2E2E2E2E2E2E2E2E2E2E2E2E2E2E2E2E2E2E2E2E2E2E2E2E2E2E2E2E2E2E2E2E2E2E2E2E2E2E2E2E2E2E2E2E2E2E2E2E2E2E2E2E2E2E2E2E2E2E2E2E2
310
E2E2E2E2E2E2E2E2E2E2E2E2E2E2E2E2E2E2E2E2E2E2E2E2E2E2E2E2E2E2E2E2E2E2E2E2E2E2E2E2E2E2E2E2E2E2E2E2E2E2E2E2E2E2E2E2E2E2E2E2E2E2E2E2E2E2E2E2E2E2E2E2E2E2E2E2E2E2E2E2E2E2E2E2E2E9E2E2E2E2E2E2E2E2E2E2E2E2E2E2E2E2E2E2E2E2E2E2E2E2E2E2E2E2E2E2E2E2E2E2E2E2E2E2E2E2E2
310
E2E2E2E2E2E2E2E2E2E2E2E2E2E2E2E2E2E2E2E2E2E2E2E2E2E2E2E2E2E2E2E2E2E2E2E2E2E2E2E2E2E2E2E2E2E2E2E2E2E2E2E2E2E2E2E2E2E2E2E2E2E2E2E2E2E2E2E2E2E2E2E2E2E2E2E2E2E2E2E2E2E2E2E2E2E2E2E2E2E2E2E2E2E2E2E2E2E2E2E2E2E2E2E2E2E2E2E2E2E2E2E2E2E2E2E2E2E2E2E2E2E2E2E2E2E2E2
310
E2E2E2E2E2E2E2E2E2E2E2E2E2E2E2E2E2E2E2E2E2E2E2E2E2E2E2E2E2E2E2E2E2E2E2E2E2E2E2E2E2E2E2E2E2E2E2E2E2E2E2E2E2E2E2E2E2E2E2E2E2E2E2E2E2E2E2E2E2E2E2E2E2E2E2E2E2E2E2E2E2E2E2E2E2E2E2E9E2E2E2E2E2E2E2E2E2E2E2E2E2E2E2E2E2E2E2E2E2E2E2E2E2E2E2E2E2E2E2E2E2E2E2E2E2E2E2
310
E2E2E2E2E2E2E2E2E2E2E2E2E2E2E2E2E2E2E2E2E2E2E2E2E2E2E2E2E2E2E2E2E2E2E2E2E2E2E2E2E2E2E2E2E2E2E2E2E2E2E2E2E2E2E2E2E2E2E2E2E2E2E2E2E2E2E2E2E2E2E2E2E2E2E2E2E2E2E2E2E2E2E2E2E2E2E2E2E2E2E2E2E2E2E2E2E2E2E2E2E2E2E2E2E2E2E2E2E2E2E2E2E2E2E2E2E2E2E2E2E2E2E2E2E2E2E2
310
E2E2E2E2E2E2E2E2E2E2E2E2E2E2E2E2E2E2E2E2E2E2E2E2E2E2E2E2E2E2E2E2E2E2E2E2E2E2E2E2E2E2E2E2E2E2E2E2E2E2E2E2E2E2E2E2E2E2E2E2E2E2E2E2E2E2E2E2E2E2E2E2E2E2E2E2E2E2E2E2E2E2E2E2E2E2E2E2E2E9E2E2E2E2E2E2E2E2E2E2E2E2E2E2E2E2E2E2E2E2E2E2E2E2E2E2E2E2E2E2E2E2E2E2E2E2E2
310
E2E2E2E2E2E2E2E2E2E2E2E2E2E2E2E2E2E2E2E2E2E2E2E2E2E2E2E2E2E2E2E2E2E2E2E2E2E2E2E2E2E2E2E2E2E2E2E2E2E2E2E2E2E2E2E2E2E2E2E2E2E2E2E2E2E2E2E2E2E2E2E2E2E2E2E2E2E2E2E2E2E2E2E2E2E2E2E2E2E2E2E2E2E2E2E2E2E2E2E2E2E2E2E2E2E2E2E2E2E2E2E2E2E2E2E2E2E2E2E2E2E2E2E2E2E2E2
310
E2E2E2E2E2E2E2E2E2E2E2E2E2E2E2E2E2E2E2E2E2E2E2E2E2E2E2E2E2E2E2E2E2E2E2E2E2E2E2E2E2E2E2E2E2E2E2E2E2E2E2E2E2E2E2E2E2E2E2E2E2E2E2E2E2E2E2E2E2E2E2E2E2E2E2E2E2E2E2E2E2E2E2E2E2E2E2E2E2E2E2E9E2E2E2E2E2E2E2E2E2E2E2E2E2E2E2E2E2E2E2E2E2E2E2E2E2E2E2E2E2E2E2E2E2E2E2
310
E2E2E2E2E2E2E2E2E2E2E2E2E2E2E2E2E2E2E2E2E2E2E2E2E2E2E2E2E2E2E2E2E2E2E2E2E2E2E2E2E2E2E2E2E2E2E2E2E2E2E2E2E2E2E2E2E2E2E2E2E2E2E2E2E2E2E2E2E2E2E2E2E2E2E2E2E2E2E2E2E2E2E2E2E2E2E2E2E2E2E2E2E2E2E2E2E2E2E2E2E2E2E2E2E2E2E2E2E2E2E2E2E2E2E2E2E2E2E2E2E2E2E2E2E2E2E2
310
E2E2E2E2E2E2E2E2E2E2E2E2E2E2E2E2E2E2E2E2E2E2E2E2E2E2E2E2E2E2E2E2E2E2E2E2E2E2E2E2E2E2E2E2E2E2E2E2E2E2E2E2E2E2E2E2E2E2E2E2E2E2E2E2E2E2E2E2E2E2E2E2E2E2E2E2E2E2E2E2E2E2E2E2E2E2E2E2E2E2E2E2E2E9E2E2E2E2E2E2E2E2E2E2E2E2E2E2E2E2E2E2E2E2E2E2E2E2E2E2E2E2E2E2E2E2E2
310
E2E2E2E2E2E2E2E2E2E2E2E2E2E2E2E2E2E2E2E2E2E2E2E2E2E2E2E2E2E2E2E2E2E2E2E2E2E2E2E2E2E2E2E2E2E2E2E2E2E2E2E2E2E2E2E2E2E2E2E2E2E2E2E2E2E2E2E2E2E2E2E2E2E2E2E2E2E2E2E2E2E2E2E2E2E2E2E2E2E2E2E2E2E2E2E2E2E2E2E2E2E2E2E2E2E2E2E2E2E2E2E2E2E2E2E2E2E2E2E2E2E2E2E2E2E2E2
310
E2E2E2E2E2E2E2E2E2E2E2E2E2E2E2E2E2E2E2E2E2E2E2E2E2E2E2E2E2E2E2E2E2E2E2E2E2E2E2E2E2E2E2E2E2E2E2E2E2E2E2E2E2E2E2E2E2E2E2E2E2E2E2E2E2E2E2E2E2E2E2E2E2E2E2E2E2E2E2E2E2E2E2E2E2E2E2E2E2E2E2E2E2E2E2E9E2E2E2E2E2E2E2E2E2E2E2E2E2E2E2E2E2E2E2E2E2E2E2E2E2E2E2E2E2E2E2
310
E2E2E2E2E2E2E2E2E2E2E2E2E2E2E2E2E2E2E2E2E2E2E2E2E2E2E2E2E2E2E2E2E2E2E2E2E2E2E2E2E2E2E2E2E2E2E2E2E2E2E2E2E2E2E2E2E2E2E2E2E2E2E2E2E2E2E2E2E2E2E2E2E2E2E2E2E2E2E2E2E2E2E2E2E2E2E2E2E2E2E2E2E2E2E2E2E2E2E2E2E2E2E2E2E2E2E2E2E2E2E2E2E2E2E2E2E2E2E2E2E2E2E2E2E2E2E2
310
E2E2E2E2E2E2E2E2E2E2E2E2E2E2E2E2E2E2E2E2E2E2E2E2E2E2E2E2E2E2E2E2E2E2E2E2E2E2E2E2E2E2E2E2E2E2E2E2E2E2E2E2E2E2E2E2E2E2E2E2E2E2E2E2E2E2E2E2E2E2E2E2E2E2E2E2E2E2E2E2E2E2E2E2E2E2E2E2E2E2E2E2E2E2E2E2E2E9E2E2E2E2E2E2E2E2E2E2E2E2E2E2E2E2E2E2E2E2E2E2E2E2E2E2E2E2E2
310
E2E2E2E2E2E2E2E2E2E2E2E2E2E2E2E2E2E2E2E2E2E2E2E2E2E2E2E2E2E2E2E2E2E2E2E2E2E2E2E2E2E2E2E2E2E2E2E2E2E2E2E2E2E2E2E2E2E2E2E2E2E2E2E2E2E2E2E2E2E2E2E2E2E2E2E2E2E2E2E2E2E2E2E2E2E2E2E2E2E2E2E2E2E2E2E2E2E2E2E2E2E2E2E2E2E2E2E2E2E2E2E2E2E2E2E2E2E2E2E2E2E2E2E2E2E2E2
310
E2E2E2E2E2E2E2E2E2E2E2E2E2E2E2E2E2E2E2E2E2E2E2E2E2E2E2E2E2E2E2E2E2E2E2E2E2E2E2E2E2E2E2E2E2E2E2E2E2E2E2E2E2E2E2E2E2E2E2E2E2E2E2E2E2E2E2E2E2E2E2E2E2E2E2E2E2E2E2E2E2E2E2E2E2E2E2E2E2E2E2E2E2E2E2E2E2E2E2E9E2E2E2E2E2E2E2E2E2E2E2E2E2E2E2E2E2E2E2E2E2E2E2E2E2E2E2
310
E2E2E2E2E2E2E2E2E2E2E2E2E2E2E2E2E2E2E2E2E2E2E2E2E2E2E2E2E2E2E2E2E2E2E2E2E2E2E2E2E2E2E2E2E2E2E2E2E2E2E2E2E2E2E2E2E2E2E2E2E2E2E2E2E2E2E2E2E2E2E2E2E2E2E2E2E2E2E2E2E2E2E2E2E2E2E2E2E2E2E2E2E2E2E2E2E2E2E2E2E2E2E2E2E2E2E2E2E2E2E2E2E2E2E2E2E2E2E2E2E2E2E2E2E2E2E2
310
E2E2E2E2E2E2E2E2E2E2E2E2E2E2E2E2E2E2E2E2E2E2E2E2E2E2E2E2E2E2E2E2E2E2E2E2E2E2E2E2E2E2E2E2E2E2E2E2E2E2E2E2E2E2E2E2E2E2E2E2E2E2E2E2E2E2E2E2E2E2E2E2E2E2E2E2E2E2E2E2E2E2E2E2E2E2E2E2E2E2E2E2E2E2E2E2E2E2E2E2E2E9E2E2E2E2E2E2E2E2E2E2E2E2E2E2E2E2E2E2E2E2E2E2E2E2E2
310
E2E2E2E2E2E2E2E2E2E2E2E2E2E2E2E2E2E2E2E2E2E2E2E2E2E2E2E2E2E2E2E2E2E2E2E2E2E2E2E2E2E2E2E2E2E2E2E2E2E2E2E2E2E2E2E2E2E2E2E2E2E2E2E2E2E2E2E2E2E2E2E2E2E2E2E2E2E2E2E2E2E2E2E2E2E2E2E2E2E2E2E2E2E2E2E2E2E2E2E2E2E2E2E2E2E2E2E2E2E2E2E2E2E2E2E2E2E2E2E2E2E2E2E2E2E2E2
310
E2E2E2E2E2E2E2E2E2E2E2E2E2E2E2E2E2E2E2E2E2E2E2E2E2E2E2E2E2E2E2E2E2E2E2E2E2E2E2E2E2E2E2E2E2E2E2E2E2E2E2E2E2E2E2E2E2E2E2E2E2E2E2E2E2E2E2E2E2E2E2E2E2E2E2E2E2E2E2E2E2E2E2E2E2E2E2E2E2E2E2E2E2E2E2E2E2E2E2E2E2E2E2E9E2E2E2E2E2E2E2E2E2E2E2E2E2E2E2E2E2E2E2E2E2E2E2
310
E2E2E2E2E2E2E2E2E2E2E2E2E2E2E2E2E2E2E2E2E2E2E2E2E2E2E2E2E2E2E2E2E2E2E2E2E2E2E2E2E2E2E2E2E2E2E2E2E2E2E2E2E2E2E2E2E2E2E2E2E2E2E2E2E2E2E2E2E2E2E2E2E2E2E2E2E2E2E2E2E2E2E2E2E2E2E2E2E2E2E2E2E2E2E2E2E2E2E2E2E2E2E2E2E2E2E2E2E2E2E2E2E2E2E2E2E2E2E2E2E2E2E2E2E2E2E2
310
E2E2E2E2E2E2E2E2E2E2E2E2E2E2E2E2E2E2E2E2E2E2E2E2E2E2E2E2E2E2E2E2E2E2E2E2E2E2E2E2E2E2E2E2E2E2E2E2E2E2E2E2E2E2E2E2E2E2E2E2E2E2E2E2E2E2E2E2E2E2E2E2E2E2E2E2E2E2E2E2E2E2E2E2E2E2E2E2E2E2E2E2E2E2E2E2E2E2E2E2E2E2E2E2E2E9E2E2E2E2E2E2E2E2E2E2E2E2E2E2E2E2E2E2E2E2E2
310
E2E2E2E2E2E2E2E2E2E2E2E2E2E2E2E2E2E2E2E2E2E2E2E2
  0
XRECORD
  5
4A5
102
{ACAD_REACTORS
330
4A
102
}
330
4A
100
AcDbXrecord
280
     1
102
MATERIAL
148
0.0
149
0.0
149
0.0
 93
        0
 94
      127
282
     0
 72
     0
 77
     0
171
     0
175
     0
179
     0
273
     0
  0
XRECORD
  5
4B
102
{ACAD_REACTORS
330
4A
102
}
330
4A
100
AcDbXrecord
280
     1
270
     1
271
     1
  0
XRECORD
  5
4C
102
{ACAD_REACTORS
330
4A
102
}
330
4A
100
AcDbXrecord
280
     1
270
     1
271
     1
  0
XRECORD
  5
4D
102
{ACAD_REACTORS
330
4A
102
}
330
4A
100
AcDbXrecord
280
     1
270
     1
271
     1
  0
XRECORD
  5
4E
102
{ACAD_REACTORS
330
4A
102
}
330
4A
100
AcDbXrecord
280
     1
270
     1
271
     1
  0
XRECORD
  5
4F
102
{ACAD_REACTORS
330
4A
102
}
330
4A
100
AcDbXrecord
280
     1
270
     1
271
     1
  0
XRECORD
  5
50
102
{ACAD_REACTORS
330
4A
102
}
330
4A
100
AcDbXrecord
280
     1
270
     1
271
     1
  0
XRECORD
  5
4A4
102
{ACAD_REACTORS
330
42
102
}
330
42
100
AcDbXrecord
280
     1
102
MATERIAL
148
0.0
149
0.0
149
0.0
 93
        0
 94
      127
282
     0
 72
     0
 77
     0
171
     0
175
     0
179
     0
273
     0
  0
XRECORD
  5
43
102
{ACAD_REACTORS
330
42
102
}
330
42
100
AcDbXrecord
280
     1
270
     1
271
     1
  0
XRECORD
  5
44
102
{ACAD_REACTORS
330
42
102
}
330
42
100
AcDbXrecord
280
     1
270
     1
271
     1
  0
XRECORD
  5
45
102
{ACAD_REACTORS
330
42
102
}
330
42
100
AcDbXrecord
280
     1
270
     1
271
     1
  0
XRECORD
  5
46
102
{ACAD_REACTORS
330
42
102
}
330
42
100
AcDbXrecord
280
     1
270
     1
271
     1
  0
XRECORD
  5
47
102
{ACAD_REACTORS
330
42
102
}
330
42
100
AcDbXrecord
280
     1
270
     1
271
     1
  0
XRECORD
  5
48
102
{ACAD_REACTORS
330
42
102
}
330
42
100
AcDbXrecord
280
     1
270
     1
271
     1
  0
XRECORD
  5
4A0
102
{ACAD_REACTORS
330
F
102
}
330
F
100
AcDbXrecord
280
     1
102
MATERIAL
148
0.0
149
0.0
149
0.0
 93
        0
 94
      127
282
     0
 72
     0
 77
     0
171
     0
175
     0
179
     0
273
     0
  0
XRECORD
  5
10
102
{ACAD_REACTORS
330
F
102
}
330
F
100
AcDbXrecord
280
     1
270
     1
271
     1
  0
XRECORD
  5
11
102
{ACAD_REACTORS
330
F
102
}
330
F
100
AcDbXrecord
280
     1
270
     1
271
     1
  0
XRECORD
  5
12
102
{ACAD_REACTORS
330
F
102
}
330
F
100
AcDbXrecord
280
     1
270
     1
271
     1
  0
XRECORD
  5
13
102
{ACAD_REACTORS
330
F
102
}
330
F
100
AcDbXrecord
280
     1
270
     1
271
     1
  0
XRECORD
  5
14
102
{ACAD_REACTORS
330
F
102
}
330
F
100
AcDbXrecord
280
     1
270
     1
271
     1
  0
XRECORD
  5
15
102
{ACAD_REACTORS
330
F
102
}
330
F
100
AcDbXrecord
280
     1
270
     1
271
     1
  0
CELLSTYLEMAP
  5
4C9
102
{ACAD_REACTORS
330
56
102
}
330
56
100
AcDbCellStyleMap
 90
        3
300
CELLSTYLE
  1
TABLEFORMAT_BEGIN
 90
        5
170
     1
 91
        0
 92
    32768
 62
   257
 93
        1
300
CONTENTFORMAT
  1
CONTENTFORMAT_BEGIN
 90
        0
 91
        0
 92
      512
 93
        0
300

 40
0.0
140
1.0
 94
        5
 62
     0
340
2A
144
6.0
309
CONTENTFORMAT_END
171
     1
301
MARGIN
  1
CELLMARGIN_BEGIN
 40
1.5
 40
1.5
 40
1.5
 40
1.5
 40
0.18
 40
0.18
309
CELLMARGIN_END
 94
        6
 95
        1
302
GRIDFORMAT
  1
GRIDFORMAT_BEGIN
 90
        0
 91
        1
 62
     0
 92
       -2
340
0
 93
        0
 40
1.125
309
GRIDFORMAT_END
 95
        2
302
GRIDFORMAT
  1
GRIDFORMAT_BEGIN
 90
        0
 91
        1
 62
     0
 92
       -2
340
0
 93
        0
 40
1.125
309
GRIDFORMAT_END
 95
        4
302
GRIDFORMAT
  1
GRIDFORMAT_BEGIN
 90
        0
 91
        1
 62
     0
 92
       -2
340
0
 93
        0
 40
1.125
309
GRIDFORMAT_END
 95
        8
302
GRIDFORMAT
  1
GRIDFORMAT_BEGIN
 90
        0
 91
        1
 62
     0
 92
       -2
340
0
 93
        0
 40
1.125
309
GRIDFORMAT_END
 95
       16
302
GRIDFORMAT
  1
GRIDFORMAT_BEGIN
 90
        0
 91
        1
 62
     0
 92
       -2
340
0
 93
        0
 40
1.125
309
GRIDFORMAT_END
 95
       32
302
GRIDFORMAT
  1
GRIDFORMAT_BEGIN
 90
        0
 91
        1
 62
     0
 92
       -2
340
0
 93
        0
 40
1.125
309
GRIDFORMAT_END
309
TABLEFORMAT_END
  1
CELLSTYLE_BEGIN
 90
        1
 91
        1
300
_TITLE
309
CELLSTYLE_END
300
CELLSTYLE
  1
TABLEFORMAT_BEGIN
 90
        5
170
     1
 91
        0
 92
        0
 62
   257
 93
        1
300
CONTENTFORMAT
  1
CONTENTFORMAT_BEGIN
 90
        0
 91
        0
 92
      512
 93
        0
300

 40
0.0
140
1.0
 94
        5
 62
     0
340
2A
144
4.5
309
CONTENTFORMAT_END
171
     1
301
MARGIN
  1
CELLMARGIN_BEGIN
 40
1.5
 40
1.5
 40
1.5
 40
1.5
 40
0.18
 40
0.18
309
CELLMARGIN_END
 94
        6
 95
        1
302
GRIDFORMAT
  1
GRIDFORMAT_BEGIN
 90
        0
 91
        1
 62
     0
 92
       -2
340
0
 93
        0
 40
1.125
309
GRIDFORMAT_END
 95
        2
302
GRIDFORMAT
  1
GRIDFORMAT_BEGIN
 90
        0
 91
        1
 62
     0
 92
       -2
340
0
 93
        0
 40
1.125
309
GRIDFORMAT_END
 95
        4
302
GRIDFORMAT
  1
GRIDFORMAT_BEGIN
 90
        0
 91
        1
 62
     0
 92
       -2
340
0
 93
        0
 40
1.125
309
GRIDFORMAT_END
 95
        8
302
GRIDFORMAT
  1
GRIDFORMAT_BEGIN
 90
        0
 91
        1
 62
     0
 92
       -2
340
0
 93
        0
 40
1.125
309
GRIDFORMAT_END
 95
       16
302
GRIDFORMAT
  1
GRIDFORMAT_BEGIN
 90
        0
 91
        1
 62
     0
 92
       -2
340
0
 93
        0
 40
1.125
309
GRIDFORMAT_END
 95
       32
302
GRIDFORMAT
  1
GRIDFORMAT_BEGIN
 90
        0
 91
        1
 62
     0
 92
       -2
340
0
 93
        0
 40
1.125
309
GRIDFORMAT_END
309
TABLEFORMAT_END
  1
CELLSTYLE_BEGIN
 90
        2
 91
        1
300
_HEADER
309
CELLSTYLE_END
300
CELLSTYLE
  1
TABLEFORMAT_BEGIN
 90
        5
170
     1
 91
        0
 92
        0
 62
   257
 93
        1
300
CONTENTFORMAT
  1
CONTENTFORMAT_BEGIN
 90
        0
 91
        0
 92
      512
 93
        0
300

 40
0.0
140
1.0
 94
        2
 62
     0
340
2A
144
4.5
309
CONTENTFORMAT_END
171
     1
301
MARGIN
  1
CELLMARGIN_BEGIN
 40
1.5
 40
1.5
 40
1.5
 40
1.5
 40
0.18
 40
0.18
309
CELLMARGIN_END
 94
        6
 95
        1
302
GRIDFORMAT
  1
GRIDFORMAT_BEGIN
 90
        0
 91
        1
 62
     0
 92
       -2
340
0
 93
        0
 40
1.125
309
GRIDFORMAT_END
 95
        2
302
GRIDFORMAT
  1
GRIDFORMAT_BEGIN
 90
        0
 91
        1
 62
     0
 92
       -2
340
0
 93
        0
 40
1.125
309
GRIDFORMAT_END
 95
        4
302
GRIDFORMAT
  1
GRIDFORMAT_BEGIN
 90
        0
 91
        1
 62
     0
 92
       -2
340
0
 93
        0
 40
1.125
309
GRIDFORMAT_END
 95
        8
302
GRIDFORMAT
  1
GRIDFORMAT_BEGIN
 90
        0
 91
        1
 62
     0
 92
       -2
340
0
 93
        0
 40
1.125
309
GRIDFORMAT_END
 95
       16
302
GRIDFORMAT
  1
GRIDFORMAT_BEGIN
 90
        0
 91
        1
 62
     0
 92
       -2
340
0
 93
        0
 40
1.125
309
GRIDFORMAT_END
 95
       32
302
GRIDFORMAT
  1
GRIDFORMAT_BEGIN
 90
        0
 91
        1
 62
     0
 92
       -2
340
0
 93
        0
 40
1.125
309
GRIDFORMAT_END
309
TABLEFORMAT_END
  1
CELLSTYLE_BEGIN
 90
        3
 91
        2
300
_DATA
309
CELLSTYLE_END
  0
XRECORD
  5
4D3
102
{ACAD_REACTORS
330
56
102
}
330
56
100
AcDbXrecord
280
     1
102
ACAD_ROUNDTRIP_PRE2007_TABLESTYLE
 90
      512
 91
        0
  1

 92
      512
 93
        0
  2

 94
      512
 95
        0
  3

  0
XRECORD
  5
36
102
{ACAD_REACTORS
330
35
102
}
330
35
100
AcDbXrecord
280
     1
102
RTVSPropertyOp0
 70
     1
102
RTVSPropertyOp1
 70
     1
102
RTVSPropertyOp2
 70
     1
102
RTVSPropertyOp3
 70
     1
102
RTVSPropertyOp4
 70
     1
102
RTVSPropertyOp5
 70
     1
102
RTVSPropertyOp6
 70
     1
102
RTVSPropertyOp7
 70
     1
102
RTVSPropertyOp8
 70
     1
102
RTVSPropertyOp9
 70
     1
102
RTVSPropertyOp10
 70
     1
102
RTVSPropertyOp11
 70
     1
102
RTVSPropertyOp12
 70
     1
102
RTVSPropertyOp13
 70
     1
102
RTVSPropertyOp14
 70
     1
102
RTVSPropertyOp15
 70
     1
102
RTVSPropertyOp16
 70
     1
102
RTVSPropertyOp17
 70
     1
102
RTVSPropertyOp18
 70
     1
102
RTVSPropertyOp19
 70
     1
102
RTVSPropertyOp20
 70
     1
102
RTVSPropertyOp21
 70
     1
102
RTVSPropertyOp22
 70
     1
102
RTVSPropertyOp23
 70
     1
102
RTVSPropertyOp24
 70
     1
102
RTVSPropertyOp25
 70
     1
102
RTVSPropertyOp26
 70
     1
102
RTVSPropertyOp27
 70
     1
102
RTVSPropertyOp28
 70
     1
102
RTVSPropertyOp29
 70
     1
102
RTVSPropertyOp30
 70
     1
102
RTVSPropertyOp31
 70
     1
102
RTVSPropertyOp32
 70
     1
  0
XRECORD
  5
5C
102
{ACAD_REACTORS
330
5B
102
}
330
5B
100
AcDbXrecord
280
     1
102
RTVSPropertyOp0
 70
     1
102
RTVSPropertyOp1
 70
     1
102
RTVSPropertyOp2
 70
     1
102
RTVSPropertyOp3
 70
     1
102
RTVSPropertyOp4
 70
     1
102
RTVSPropertyOp5
 70
     1
102
RTVSPropertyOp6
 70
     1
102
RTVSPropertyOp7
 70
     1
102
RTVSPropertyOp8
 70
     1
102
RTVSPropertyOp9
 70
     1
102
RTVSPropertyOp10
 70
     1
102
RTVSPropertyOp11
 70
     1
102
RTVSPropertyOp12
 70
     1
102
RTVSPropertyOp13
 70
     1
102
RTVSPropertyOp14
 70
     1
102
RTVSPropertyOp15
 70
     1
102
RTVSPropertyOp16
 70
     1
102
RTVSPropertyOp17
 70
     1
102
RTVSPropertyOp18
 70
     1
102
RTVSPropertyOp19
 70
     1
102
RTVSPropertyOp20
 70
     1
102
RTVSPropertyOp21
 70
     1
102
RTVSPropertyOp22
 70
     1
102
RTVSPropertyOp23
 70
     1
102
RTVSPropertyOp24
 70
     1
102
RTVSPropertyOp25
 70
     1
102
RTVSPropertyOp26
 70
     1
102
RTVSPropertyOp27
 70
     1
102
RTVSPropertyOp28
 70
     1
102
RTVSPropertyOp29
 70
     1
102
RTVSPropertyOp30
 70
     1
102
RTVSPropertyOp31
 70
     1
102
RTVSPropertyOp32
 70
     1
  0
XRECORD
  5
59
102
{ACAD_REACTORS
330
58
102
}
330
58
100
AcDbXrecord
280
     1
102
RTVSPropertyOp0
 70
     1
102
RTVSPropertyOp1
 70
     1
102
RTVSPropertyOp2
 70
     1
102
RTVSPropertyOp3
 70
     1
102
RTVSPropertyOp4
 70
     1
102
RTVSPropertyOp5
 70
     1
102
RTVSPropertyOp6
 70
     1
102
RTVSPropertyOp7
 70
     1
102
RTVSPropertyOp8
 70
     1
102
RTVSPropertyOp9
 70
     1
102
RTVSPropertyOp10
 70
     1
102
RTVSPropertyOp11
 70
     1
102
RTVSPropertyOp12
 70
     1
102
RTVSPropertyOp13
 70
     1
102
RTVSPropertyOp14
 70
     1
102
RTVSPropertyOp15
 70
     1
102
RTVSPropertyOp16
 70
     1
102
RTVSPropertyOp17
 70
     1
102
RTVSPropertyOp18
 70
     1
102
RTVSPropertyOp19
 70
     1
102
RTVSPropertyOp20
 70
     1
102
RTVSPropertyOp21
 70
     1
102
RTVSPropertyOp22
 70
     1
102
RTVSPropertyOp23
 70
     1
102
RTVSPropertyOp24
 70
     1
102
RTVSPropertyOp25
 70
     1
102
RTVSPropertyOp26
 70
     1
102
RTVSPropertyOp27
 70
     1
102
RTVSPropertyOp28
 70
     1
102
RTVSPropertyOp29
 70
     1
102
RTVSPropertyOp30
 70
     1
102
RTVSPropertyOp31
 70
     1
102
RTVSPropertyOp32
 70
     1
  0
ENDSEC
  0
EOF
