  0
SECTION
  2
HEADER
  9
$ACADVER
  1
AC1015
  9
$ACADMAINTVER
 70
    20
  9
$DWGCODEPAGE
  3
ANSI_949
  9
$INSBASE
 10
0.0
 20
0.0
 30
0.0
  9
$EXTMIN
 10
-6149.815764620733
 20
7047.520030546549
 30
-0.0000000011641283
  9
$EXTMAX
 10
-5007.983478822253
 20
7404.539535890859
 30
0.0000000046568154
  9
$LIMMIN
 10
0.0
 20
0.0
  9
$LIMMAX
 10
383.0
 20
273.0
  9
$ORTHOMODE
 70
     1
  9
$REGENMODE
 70
     1
  9
$FILLMODE
 70
     1
  9
$QTEXTMODE
 70
     0
  9
$MIRRTEXT
 70
     0
  9
$LTSCALE
 40
1.0
  9
$ATTMODE
 70
     1
  9
$TEXTSIZE
 40
3.0
  9
$TRACEWID
 40
1.0
  9
$TEXTSTYLE
  7
Standard
  9
$CLAYER
  8
0
  9
$CELTYPE
  6
ByLayer
  9
$CECOLOR
 62
   256
  9
$CELTSCALE
 40
1.0
  9
$DISPSILH
 70
     0
  9
$DIMSCALE
 40
1.0
  9
$DIMASZ
 40
2.5
  9
$DIMEXO
 40
1.0
  9
$DIMDLI
 40
10.0
  9
$DIMRND
 40
0.0
  9
$DIMDLE
 40
0.0
  9
$DIMEXE
 40
0.6
  9
$DIMTP
 40
0.0
  9
$DIMTM
 40
0.0
  9
$DIMTXT
 40
3.0
  9
$DIMCEN
 40
0.09
  9
$DIMTSZ
 40
0.0
  9
$DIMTOL
 70
     0
  9
$DIMLIM
 70
     0
  9
$DIMTIH
 70
     0
  9
$DIMTOH
 70
     0
  9
$DIMSE1
 70
     0
  9
$DIMSE2
 70
     0
  9
$DIMTAD
 70
     1
  9
$DIMZIN
 70
     8
  9
$DIMBLK
  1

  9
$DIMASO
 70
     1
  9
$DIMSHO
 70
     1
  9
$DIMPOST
  1

  9
$DIMAPOST
  1

  9
$DIMALT
 70
     0
  9
$DIMALTD
 70
     2
  9
$DIMALTF
 40
25.4
  9
$DIMLFAC
 40
1.0
  9
$DIMTOFL
 70
     1
  9
$DIMTVP
 40
0.0
  9
$DIMTIX
 70
     1
  9
$DIMSOXD
 70
     0
  9
$DIMSAH
 70
     0
  9
$DIMBLK1
  1

  9
$DIMBLK2
  1

  9
$DIMSTYLE
  2
STANDARD
  9
$DIMCLRD
 70
   123
  9
$DIMCLRE
 70
   123
  9
$DIMCLRT
 70
     3
  9
$DIMTFAC
 40
1.0
  9
$DIMGAP
 40
1.0
  9
$DIMJUST
 70
     0
  9
$DIMSD1
 70
     0
  9
$DIMSD2
 70
     0
  9
$DIMTOLJ
 70
     1
  9
$DIMTZIN
 70
     0
  9
$DIMALTZ
 70
     0
  9
$DIMALTTZ
 70
     0
  9
$DIMUPT
 70
     1
  9
$DIMDEC
 70
     2
  9
$DIMTDEC
 70
     2
  9
$DIMALTU
 70
     2
  9
$DIMALTTD
 70
     2
  9
$DIMTXSTY
  7
Standard
  9
$DIMAUNIT
 70
     1
  9
$DIMADEC
 70
     1
  9
$DIMALTRND
 40
0.0
  9
$DIMAZIN
 70
     2
  9
$DIMDSEP
 70
    46
  9
$DIMATFIT
 70
     0
  9
$DIMFRAC
 70
     0
  9
$DIMLDRBLK
  1

  9
$DIMLUNIT
 70
     2
  9
$DIMLWD
 70
    -2
  9
$DIMLWE
 70
    -2
  9
$DIMTMOVE
 70
     0
  9
$LUNITS
 70
     2
  9
$LUPREC
 70
     4
  9
$SKETCHINC
 40
1.0
  9
$FILLETRAD
 40
0.0
  9
$AUNITS
 70
     0
  9
$AUPREC
 70
     0
  9
$MENU
  1
.
  9
$ELEVATION
 40
0.0
  9
$PELEVATION
 40
0.0
  9
$THICKNESS
 40
0.0
  9
$LIMCHECK
 70
     0
  9
$CHAMFERA
 40
0.5
  9
$CHAMFERB
 40
0.5
  9
$CHAMFERC
 40
20.0
  9
$CHAMFERD
 40
0.0
  9
$SKPOLY
 70
     0
  9
$TDCREATE
 40
2452452.600976968
  9
$TDUCREATE
 40
2452452.225976968
  9
$TDUPDATE
 40
2456960.629207361
  9
$TDUUPDATE
 40
2456960.254207361
  9
$TDINDWG
 40
147.9508546759
  9
$TDUSRTIMER
 40
147.9508405556
  9
$USRTIMER
 70
     1
  9
$ANGBASE
 50
0.0
  9
$ANGDIR
 70
     0
  9
$PDMODE
 70
     0
  9
$PDSIZE
 40
0.0
  9
$PLINEWID
 40
0.0
  9
$SPLFRAME
 70
     0
  9
$SPLINETYPE
 70
     6
  9
$SPLINESEGS
 70
     8
  9
$HANDSEED
  5
D9B
  9
$SURFTAB1
 70
     6
  9
$SURFTAB2
 70
     6
  9
$SURFTYPE
 70
     6
  9
$SURFU
 70
     6
  9
$SURFV
 70
     6
  9
$UCSBASE
  2

  9
$UCSNAME
  2

  9
$UCSORG
 10
0.0
 20
0.0
 30
0.0
  9
$UCSXDIR
 10
1.0
 20
0.0
 30
0.0
  9
$UCSYDIR
 10
0.0
 20
1.0
 30
0.0
  9
$UCSORTHOREF
  2

  9
$UCSORTHOVIEW
 70
     0
  9
$UCSORGTOP
 10
0.0
 20
0.0
 30
0.0
  9
$UCSORGBOTTOM
 10
0.0
 20
0.0
 30
0.0
  9
$UCSORGLEFT
 10
0.0
 20
0.0
 30
0.0
  9
$UCSORGRIGHT
 10
0.0
 20
0.0
 30
0.0
  9
$UCSORGFRONT
 10
0.0
 20
0.0
 30
0.0
  9
$UCSORGBACK
 10
0.0
 20
0.0
 30
0.0
  9
$PUCSBASE
  2

  9
$PUCSNAME
  2

  9
$PUCSORG
 10
0.0
 20
0.0
 30
0.0
  9
$PUCSXDIR
 10
1.0
 20
0.0
 30
0.0
  9
$PUCSYDIR
 10
0.0
 20
1.0
 30
0.0
  9
$PUCSORTHOREF
  2

  9
$PUCSORTHOVIEW
 70
     0
  9
$PUCSORGTOP
 10
0.0
 20
0.0
 30
0.0
  9
$PUCSORGBOTTOM
 10
0.0
 20
0.0
 30
0.0
  9
$PUCSORGLEFT
 10
0.0
 20
0.0
 30
0.0
  9
$PUCSORGRIGHT
 10
0.0
 20
0.0
 30
0.0
  9
$PUCSORGFRONT
 10
0.0
 20
0.0
 30
0.0
  9
$PUCSORGBACK
 10
0.0
 20
0.0
 30
0.0
  9
$USERI1
 70
     0
  9
$USERI2
 70
     0
  9
$USERI3
 70
     0
  9
$USERI4
 70
     0
  9
$USERI5
 70
     0
  9
$USERR1
 40
0.0
  9
$USERR2
 40
0.0
  9
$USERR3
 40
0.0
  9
$USERR4
 40
0.0
  9
$USERR5
 40
0.0
  9
$WORLDVIEW
 70
     1
  9
$SHADEDGE
 70
     3
  9
$SHADEDIF
 70
    70
  9
$TILEMODE
 70
     1
  9
$MAXACTVP
 70
    48
  9
$PINSBASE
 10
0.0
 20
0.0
 30
0.0
  9
$PLIMCHECK
 70
     0
  9
$PEXTMIN
 10
40.83261737823487
 20
28.52208232879639
 30
0.0
  9
$PEXTMAX
 10
367.4935564041137
 20
256.6987409591675
 30
0.0
  9
$PLIMMIN
 10
-6.085416793823242
 20
-5.704408645629882
  9
$PLIMMAX
 10
414.0729084014892
 20
291.3062419891357
  9
$UNITMODE
 70
     0
  9
$VISRETAIN
 70
     1
  9
$PLINEGEN
 70
     0
  9
$PSLTSCALE
 70
     1
  9
$TREEDEPTH
 70
  3020
  9
$CMLSTYLE
  2
Standard
  9
$CMLJUST
 70
     0
  9
$CMLSCALE
 40
5.0
  9
$PROXYGRAPHICS
 70
     1
  9
$MEASUREMENT
 70
     1
  9
$CELWEIGHT
370
    -1
  9
$ENDCAPS
280
     0
  9
$JOINSTYLE
280
     0
  9
$LWDISPLAY
290
     0
  9
$INSUNITS
 70
     4
  9
$HYPERLINKBASE
  1

  9
$STYLESHEET
  1

  9
$XEDIT
290
     1
  9
$CEPSNTYPE
380
     0
  9
$PSTYLEMODE
290
     1
  9
$FINGERPRINTGUID
  2
{C9B48729-466C-4136-9528-EB8780B0FA35}
  9
$VERSIONGUID
  2
{48D3B531-74F5-43FF-A5F3-3508416A433F}
  9
$EXTNAMES
290
     1
  9
$PSVPSCALE
 40
0.0
  9
$OLESTARTUP
290
     0
  0
ENDSEC
  0
SECTION
  2
CLASSES
  0
CLASS
  1
ACDBDICTIONARYWDFLT
  2
AcDbDictionaryWithDefault
  3
ObjectDBX Classes
 90
        0
280
     0
281
     0
  0
CLASS
  1
DIMASSOC
  2
AcDbDimAssoc
  3
"AcDbDimAssoc|Product Desc:     AcDim ARX App For Dimension|Company:          Autodesk, Inc.|WEB Address:      www.autodesk.com"
 90
        0
280
     0
281
     0
  0
CLASS
  1
DICTIONARYVAR
  2
AcDbDictionaryVar
  3
ObjectDBX Classes
 90
        0
280
     0
281
     0
  0
CLASS
  1
ARCALIGNEDTEXT
  2
AcDbArcAlignedText
  3
ATEXT|AutoCAD Express Tool|expresstools@autodesk.com
 90
    32768
280
     1
281
     1
  0
CLASS
  1
MATERIAL
  2
AcDbMaterial
  3
ObjectDBX Classes
 90
     1153
280
     0
281
     0
  0
CLASS
  1
VISUALSTYLE
  2
AcDbVisualStyle
  3
ObjectDBX Classes
 90
     4095
280
     0
281
     0
  0
CLASS
  1
TABLESTYLE
  2
AcDbTableStyle
  3
ObjectDBX Classes
 90
     4095
280
     0
281
     0
  0
CLASS
  1
SCALE
  2
AcDbScale
  3
ObjectDBX Classes
 90
     1153
280
     0
281
     0
  0
CLASS
  1
MLEADERSTYLE
  2
AcDbMLeaderStyle
  3
ACDB_MLEADERSTYLE_CLASS
 90
     4095
280
     0
281
     0
  0
CLASS
  1
SORTENTSTABLE
  2
AcDbSortentsTable
  3
ObjectDBX Classes
 90
        0
280
     0
281
     0
  0
CLASS
  1
CELLSTYLEMAP
  2
AcDbCellStyleMap
  3
ObjectDBX Classes
 90
     1152
280
     0
281
     0
  0
CLASS
  1
EXACXREFPANELOBJECT
  2
ExAcXREFPanelObject
  3
EXAC_ESW
 90
     1025
280
     1
281
     0
  0
CLASS
  1
NPOCOLLECTION
  2
AcDbImpNonPersistentObjectsCollection
  3
ObjectDBX Classes
 90
     1153
280
     0
281
     0
  0
CLASS
  1
RASTERVARIABLES
  2
AcDbRasterVariables
  3
ISM
 90
    32768
280
     1
281
     0
  0
CLASS
  1
IMAGEDEF
  2
AcDbRasterImageDef
  3
ISM
 90
    32768
280
     1
281
     0
  0
CLASS
  1
IMAGEDEF_REACTOR
  2
AcDbRasterImageDefReactor
  3
ISM
 90
    32769
280
     1
281
     0
  0
CLASS
  1
IMAGE
  2
AcDbRasterImage
  3
ISM
 90
    34943
280
     1
281
     1
  0
CLASS
  1
ACDB_MTEXTOBJECTCONTEXTDATA_CLASS
  2
AcDbMTextObjectContextData
  3
ObjectDBX Classes
 90
    33921
280
     0
281
     0
  0
CLASS
  1
SOLID_BACKGROUND
  2
AcDbSolidBackground
  3
SCENEOE
 90
    36863
280
     1
281
     0
  0
CLASS
  1
ACME_DOCUMENT
  2
AcMeDbDoc
  3
AcMeServices
 90
    33792
280
     1
281
     0
  0
CLASS
  1
AMGSETTINGSOBJ
  2
AmgSettingsObj
  3
"AcadM|Product Description: AutoCAD Mechanical|Company: Autodesk, Inc."
 90
    33792
280
     1
281
     0
  0
CLASS
  1
ACMESCOPE
  2
AcMeScope
  3
AcMeServices
 90
    33792
280
     1
281
     0
  0
CLASS
  1
ACMECOMMANDHISTORY
  2
AcMeCommandHistory
  3
AcMeServices
 90
    33792
280
     1
281
     0
  0
CLASS
  1
ACIMSYSVARMAN
  2
AcImSysVarManager
  3
AcMeServices
 90
    33792
280
     1
281
     0
  0
CLASS
  1
ACIMINTSYSVAR
  2
AcImIntSysVar
  3
AcMeServices
 90
    33792
280
     1
281
     0
  0
CLASS
  1
ACMEDRAWINGMAN
  2
AcMeDrawingMan
  3
AcMeServices
 90
    33792
280
     1
281
     0
  0
CLASS
  1
ACMEVIEW
  2
AcMeView
  3
AcMeServices
 90
    33792
280
     1
281
     0
  0
CLASS
  1
ACDBENTITYCACHE
  2
AcMeEntityCache
  3
AcMeServices
 90
    33792
280
     1
281
     0
  0
CLASS
  1
GSMANAGER
  2
AcMeGSManager
  3
AcMeServices
 90
    33792
280
     1
281
     0
  0
CLASS
  1
AMDTINTERNALREACTOR
  2
AmdtInternalReactor
  3
AcMeServices
 90
    33792
280
     1
281
     0
  0
CLASS
  1
ACMESTATEMGR
  2
AcMeStateMgr
  3
AcMeServices
 90
    33792
280
     1
281
     0
  0
CLASS
  1
ACGREFMASTER
  2
AcGrefMaster
  3
AcAttribServices
 90
    33792
280
     1
281
     0
  0
CLASS
  1
AM_DRAWING_MGR
  2
AcDmDwgMgr
  3
AcMechDwgViewMgmt
 90
    33792
280
     1
281
     0
  0
CLASS
  1
AM_DWG_DOCUMENT
  2
AcDmDwgDocument
  3
AcMechDwgViewMgmt
 90
    33792
280
     1
281
     0
  0
CLASS
  1
AM_DWG_SHEET
  2
AcDmSheet
  3
AcMechDwgViewMgmt
 90
    33792
280
     1
281
     0
  0
CLASS
  1
AM_VIEWDIMPARMAP
  2
AcDmViewDimParMap
  3
AcMechDwgViewMgmt
 90
    33792
280
     1
281
     0
  0
CLASS
  1
ACIMREALSYSVAR
  2
AcImRealSysVar
  3
AcMeServices
 90
    33792
280
     1
281
     0
  0
CLASS
  1
AM_DWGMGR_NAME
  2
AcDmDwgMgrName
  3
AcMechDwgViewMgmt
 90
    33792
280
     1
281
     0
  0
CLASS
  1
ACME_DATABASE
  2
AcMeDbDatabase
  3
AcMeServices
 90
    33792
280
     1
281
     0
  0
CLASS
  1
ACRFINSADJUSTERMGR
  2
AcRfInsAdjusterMgr
  3
AcMeServices
 90
    33792
280
     1
281
     0
  0
CLASS
  1
ACGREFACADMASTER
  2
AcGrefacadMaster
  3
AcGrefServices
 90
    33792
280
     1
281
     0
  0
CLASS
  1
AMDTMENUSTATEMGR
  2
AmdtMenuStateMgr
  3
McadcomServices
 90
    33792
280
     1
281
     0
  0
CLASS
  1
AMDTMCOMMENUSTATE
  2
AmdtMcomMenuState
  3
McadcomServices
 90
    33792
280
     1
281
     0
  0
CLASS
  1
AMIMASTER
  2
AmiMaster
  3
AmiServices
 90
    33792
280
     1
281
     0
  0
CLASS
  1
MAPIAMMOUDLE
  2
MApiAmModule
  3
MApiAmServices
 90
    33792
280
     1
281
     0
  0
CLASS
  1
ACIMSTRSYSVAR
  2
AcImStrSysVar
  3
AcMeServices
 90
    33792
280
     1
281
     0
  0
CLASS
  1
AMDTADMENUSTATE
  2
AmdtAdMenuState
  3
DesignerServices
 90
    33792
280
     1
281
     0
  0
CLASS
  1
ADAPPL
  2
AcAdAppl
  3
DesignerServices
 90
    33792
280
     1
281
     0
  0
CLASS
  1
DEPMGR
  2
AcAdDepMgr
  3
DesignerServices
 90
    33792
280
     1
281
     0
  0
CLASS
  1
PARAMMGR
  2
AcAdParamMgr
  3
DesignerServices
 90
    33792
280
     1
281
     0
  0
CLASS
  1
PARAMSCOPE
  2
AcAdParamScope
  3
DesignerServices
 90
    33792
280
     1
281
     0
  0
CLASS
  1
NAMEDAPPL
  2
AcAdNamedAppl
  3
DesignerServices
 90
    33792
280
     1
281
     0
  0
CLASS
  1
AMDTDMMENUSTATE
  2
AmdtDmMenuState
  3
AcMechDwgViewMgmt
 90
    33792
280
     1
281
     0
  0
CLASS
  1
AMDTAMMENUSTATE
  2
AmdtAmMenuState
  3
DesignerAssemblies
 90
    33792
280
     1
281
     0
  0
CLASS
  1
ACAMPROJECT
  2
AcAmProject
  3
DesignerAssemblies
 90
    33792
280
     1
281
     0
  0
CLASS
  1
ACAMGRCOMPDEF
  2
AcAmGrCompDef
  3
DesignerAssemblies
 90
    33792
280
     1
281
     0
  0
CLASS
  1
ACCMCONTEXT
  2
AcCmContext
  3
DesignerAssemblies
 90
    33792
280
     1
281
     0
  0
CLASS
  1
ACAMCOMPDEF
  2
AcAmCompDef
  3
DesignerAssemblies
 90
    33792
280
     1
281
     0
  0
CLASS
  1
ACAMCOMPDEFMGR
  2
AcAmCompDefMgr
  3
DesignerAssemblies
 90
    33792
280
     1
281
     0
  0
CLASS
  1
AMCONTEXTMGR
  2
AcAmContextMgr
  3
DesignerAssemblies
 90
    33792
280
     1
281
     0
  0
CLASS
  1
ACAMCONTEXTMODELER
  2
AcAmContextModeler
  3
DesignerAssemblies
 90
    33792
280
     1
281
     0
  0
CLASS
  1
ACMDATADICTIONARY
  2
AcmDataDictionary
  3
"AcmSymBB|Product Description: AutoCAD Mechanical|Company: Autodesk, Inc."
 90
    33792
280
     1
281
     0
  0
CLASS
  1
CATALOGSTATE
  2
AcAmCatalogState
  3
DesignerAssemblies
 90
    33792
280
     1
281
     0
  0
CLASS
  1
ACAMGRCOMPDEFSET
  2
AcAmGrCompDefSet
  3
DesignerAssemblies
 90
    33792
280
     1
281
     0
  0
CLASS
  1
AMDTBROWSERDBTAB
  2
AmdtBrowserDbTab
  3
McadcomServices
 90
    33792
280
     1
281
     0
  0
CLASS
  1
CBROWSERAPPOBJECT
  2
CBrowserAppObject
  3
McadcomServices
 90
    33792
280
     1
281
     0
  0
CLASS
  1
DM_PLACEHOLDER
  2
AcDmSelsetPlaceholder
  3
AcMechDwgViewMgmt
 90
    33792
280
     1
281
     0
  0
CLASS
  1
ACMSTANDARDISO
  2
AcmStandardISO
  3
"Amdt_StdImp|Product Description: AutoCAD Mechanical|Company: Autodesk, Inc."
 90
    33792
280
     1
281
     0
  0
CLASS
  1
AMDTEDGESTANDARDISO13715
  2
AmdtEdgeStdISO13715
  3
"Amdt_StdImp|Product Description: AutoCAD Mechanical|Company: Autodesk, Inc."
 90
    33792
280
     1
281
     0
  0
CLASS
  1
ACMSURFSTANDARDISO2002
  2
AcmSurfTextStdISO2002
  3
"Amdt_StdImp|Product Description: AutoCAD Mechanical|Company: Autodesk, Inc."
 90
    33792
280
     1
281
     0
  0
CLASS
  1
ACMFCFSTANDARDISO
  2
AcmFCFStdISO
  3
"Amdt_StdImp|Product Description: AutoCAD Mechanical|Company: Autodesk, Inc."
 90
    33792
280
     1
281
     0
  0
CLASS
  1
ACMWELDSTANDARDISO
  2
AcmWeldingStdISO
  3
"Amdt_StdImp|Product Description: AutoCAD Mechanical|Company: Autodesk, Inc."
 90
    33792
280
     1
281
     0
  0
CLASS
  1
ACMIDSTANDARDISO
  2
AcmIdStdISO
  3
"Amdt_StdImp|Product Description: AutoCAD Mechanical|Company: Autodesk, Inc."
 90
    33792
280
     1
281
     0
  0
CLASS
  1
ACMDATUMSTANDARDISO
  2
AcmDatumStdISO
  3
"Amdt_StdImp|Product Description: AutoCAD Mechanical|Company: Autodesk, Inc."
 90
    33792
280
     1
281
     0
  0
CLASS
  1
ACMBOMSTANDARDISO
  2
AcmBOMStdISO
  3
"Amdt_StdImp|Product Description: AutoCAD Mechanical|Company: Autodesk, Inc."
 90
    33792
280
     1
281
     0
  0
CLASS
  1
ACMDETAILSTANDARDISO
  2
AmdtDetailSymStdISO
  3
"Amdt_StdImp|Product Description: AutoCAD Mechanical|Company: Autodesk, Inc."
 90
    33792
280
     1
281
     0
  0
CLASS
  1
ACMSECTIONSTANDARDISO2001
  2
AmdtSectionSymStdISO2001
  3
"Amdt_StdImp|Product Description: AutoCAD Mechanical|Company: Autodesk, Inc."
 90
    33792
280
     1
281
     0
  0
CLASS
  1
ACMCENTERLINESTANDARDISO
  2
AmdtCenterLineStdISO
  3
"Amdt_StdImp|Product Description: AutoCAD Mechanical|Company: Autodesk, Inc."
 90
    33792
280
     1
281
     0
  0
CLASS
  1
ACMTHREADLINESTANDARDISO
  2
AmdtThreadLineStdISO
  3
"Amdt_StdImp|Product Description: AutoCAD Mechanical|Company: Autodesk, Inc."
 90
    33792
280
     1
281
     0
  0
CLASS
  1
ACMNOTESTANDARDISO
  2
AmdtNoteStdISO
  3
"Amdt_StdImp|Product Description: AutoCAD Mechanical|Company: Autodesk, Inc."
 90
    33792
280
     1
281
     0
  0
CLASS
  1
ACMTAPERSTANDARDISO
  2
AcmTaperStdISO
  3
"Amdt_StdImp|Product Description: AutoCAD Mechanical|Company: Autodesk, Inc."
 90
    33792
280
     1
281
     0
  0
CLASS
  1
ACMANOOTATIONVIEWSTANDARDISO
  2
AmdtAnViewStdISO
  3
"Amdt_StdImp|Product Description: AutoCAD Mechanical|Company: Autodesk, Inc."
 90
    33792
280
     1
281
     0
  0
CLASS
  1
ACAMGLAYSTD
  2
AcAmgLayStd
  3
"AmgLay|Product Description: AutoCAD Mechanical|Company: Autodesk, Inc."
 90
    33792
280
     1
281
     0
  0
CLASS
  1
ACAMGDIMSTD
  2
AcAmgDimStd
  3
"AmgDim|Product Description: AutoCAD Mechanical|Company: Autodesk, Inc."
 90
    33792
280
     1
281
     0
  0
CLASS
  1
AMGOBJPROPCFG
  2
AmgObjPropCfg
  3
"AmgLay|Product Description: AutoCAD Mechanical|Company: Autodesk, Inc."
 90
    33793
280
     1
281
     0
  0
CLASS
  1
ACAMGHOLECHARTSTDISO
  2
AcAmgHoleChartStdISO
  3
AmgDim|Product Description: AutoCAD Mechanical|Company: Autodesk, Inc.
 90
    33792
280
     1
281
     0
  0
CLASS
  1
ACAMGTITLESTD
  2
AcAmgTitleStd
  3
"AmgTitle|Product Description: AutoCAD Mechanical|Company: Autodesk, Inc."
 90
    36863
280
     1
281
     0
  0
CLASS
  1
AMDTNOTETEMPLATEDB
  2
AmdtNoteTemplateDB
  3
AcmSymBB|Product Description: AutoCAD Mechanical|Company: Autodesk, Inc.
 90
    33792
280
     1
281
     0
  0
CLASS
  1
ACAMGFILTERDAT
  2
AcAmgFilterDat
  3
"AcadM|Product Description: AutoCAD Mechanical|Company: Autodesk, Inc."
 90
    33792
280
     1
281
     0
  0
CLASS
  1
ACAD_PROXY_OBJECT_WRAPPER
  2
AcDbProxyObjectWrapper
  3
ObjectDBX Classes
 90
    32768
280
     0
281
     0
  0
CLASS
  1
CAMSSTRUCTBTNSTATE
  2
StructBtnState
  3
DesignerAssemblies
 90
    33792
280
     1
281
     0
  0
CLASS
  1
STDPART2D
  2
AmgStdPart
  3
AmgStdPart|Product Description: AutoCAD Mechanical|Company: Autodesk, Inc.
 90
    36863
280
     1
281
     1
  0
CLASS
  1
ACAD_PROXY_ENTITY_WRAPPER
  2
AcDbProxyEntityWrapper
  3
ObjectDBX Classes
 90
    32768
280
     0
281
     1
  0
CLASS
  1
ACMSTANDARDANSI
  2
AcmStandardANSI
  3
"Amdt_StdImp|Product Description: AutoCAD Mechanical|Company: Autodesk, Inc."
 90
    33792
280
     1
281
     0
  0
CLASS
  1
ACMSURFSTANDARDANSI
  2
AcmSurfTextStdANSI
  3
"Amdt_StdImp|Product Description: AutoCAD Mechanical|Company: Autodesk, Inc."
 90
    33792
280
     1
281
     0
  0
CLASS
  1
ACMFCFSTANDARDANSI
  2
AcmFCFStdANSI
  3
"Amdt_StdImp|Product Description: AutoCAD Mechanical|Company: Autodesk, Inc."
 90
    33792
280
     1
281
     0
  0
CLASS
  1
ACMWELDSTANDARDANSI
  2
AcmWeldingStdANSI
  3
"Amdt_StdImp|Product Description: AutoCAD Mechanical|Company: Autodesk, Inc."
 90
    33792
280
     1
281
     0
  0
CLASS
  1
ACMIDSTANDARDANSI
  2
AcmIdStdANSI
  3
"Amdt_StdImp|Product Description: AutoCAD Mechanical|Company: Autodesk, Inc."
 90
    33792
280
     1
281
     0
  0
CLASS
  1
ACMDATUMSTANDARDANSI
  2
AcmDatumStdANSI
  3
"Amdt_StdImp|Product Description: AutoCAD Mechanical|Company: Autodesk, Inc."
 90
    33792
280
     1
281
     0
  0
CLASS
  1
ACMBOMSTANDARDANSI
  2
AcmBOMStdANSI
  3
"Amdt_StdImp|Product Description: AutoCAD Mechanical|Company: Autodesk, Inc."
 90
    33792
280
     1
281
     0
  0
CLASS
  1
ACMDETAILSTANDARDANSI
  2
AmdtDetailSymStdANSI
  3
"Amdt_StdImp|Product Description: AutoCAD Mechanical|Company: Autodesk, Inc."
 90
    33792
280
     1
281
     0
  0
CLASS
  1
ACMSECTIONSTANDARDANSI
  2
AmdtSectionSymStdANSI
  3
"Amdt_StdImp|Product Description: AutoCAD Mechanical|Company: Autodesk, Inc."
 90
    33792
280
     1
281
     0
  0
CLASS
  1
ACMCENTERLINESTANDARDANSI
  2
AmdtCenterLineStdANSI
  3
"Amdt_StdImp|Product Description: AutoCAD Mechanical|Company: Autodesk, Inc."
 90
    33792
280
     1
281
     0
  0
CLASS
  1
ACMTHREADLINESTANDARDANSI
  2
AmdtThreadLineStdANSI
  3
"Amdt_StdImp|Product Description: AutoCAD Mechanical|Company: Autodesk, Inc."
 90
    33792
280
     1
281
     0
  0
CLASS
  1
ACMNOTESTANDARDANSI
  2
AmdtNoteStdANSI
  3
"Amdt_StdImp|Product Description: AutoCAD Mechanical|Company: Autodesk, Inc."
 90
    33792
280
     1
281
     0
  0
CLASS
  1
ACMTAPERSTANDARDANSI
  2
AcmTaperStdANSI
  3
"Amdt_StdImp|Product Description: AutoCAD Mechanical|Company: Autodesk, Inc."
 90
    33792
280
     1
281
     0
  0
CLASS
  1
ACMANOOTATIONVIEWSTANDARDANSI
  2
AmdtAnViewStdANSI
  3
"Amdt_StdImp|Product Description: AutoCAD Mechanical|Company: Autodesk, Inc."
 90
    33792
280
     1
281
     0
  0
CLASS
  1
ACAMGHOLECHARTSTDANSI
  2
AcAmgHoleChartStdANSI
  3
AmgDim|Product Description: AutoCAD Mechanical|Company: Autodesk, Inc.
 90
    33792
280
     1
281
     0
  0
CLASS
  1
AEC_REFEDIT_STATUS_TRACKER
  2
AecDbRefEditStatusTracker
  3
AecArchBase50|Product Desc: Autodesk Architectural Desktop 2007 |Company: Autodesk,Inc. |WEB Address: www.autodesk.com
 90
    32897
280
     1
281
     0
  0
CLASS
  1
ACDBPLACEHOLDER
  2
AcDbPlaceHolder
  3
ObjectDBX Classes
 90
        0
280
     0
281
     0
  0
CLASS
  1
LAYOUT
  2
AcDbLayout
  3
ObjectDBX Classes
 90
        0
280
     0
281
     0
  0
ENDSEC
  0
SECTION
  2
TABLES
  0
TABLE
  2
VPORT
  5
31
102
{ACAD_XDICTIONARY
360
38
102
}
330
0
100
AcDbSymbolTable
 70
     1
  0
VPORT
  5
32
330
31
100
AcDbSymbolTableRecord
100
AcDbViewportTableRecord
  2
*Active
 70
     0
 10
0.0
 20
0.0
 11
1.0
 21
1.0
 12
-5578.899621721493
 22
7226.029783218705
 13
0.0
 23
0.0
 14
10.0
 24
10.0
 15
10.0
 25
10.0
 16
0.0
 26
0.0
 36
1.0
 17
0.0
 27
0.0
 37
0.0
 40
578.8047448297169
 41
1.980148883374689
 42
50.0
 43
0.0
 44
0.0
 50
0.0
 51
0.0
 71
     0
 72
   500
 73
     1
 74
     0
 75
     0
 76
     0
 77
     0
 78
     0
281
     0
 65
     1
110
0.0
120
0.0
130
0.0
111
1.0
121
0.0
131
0.0
112
0.0
122
1.0
132
0.0
 79
     0
146
0.0
1001
ACAD_NAV_VCDISPLAY
1070
     3
  0
ENDTAB
  0
TABLE
  2
LTYPE
  5
2C
330
0
100
AcDbSymbolTable
 70
     4
  0
LTYPE
  5
2D
330
2C
100
AcDbSymbolTableRecord
100
AcDbLinetypeTableRecord
  2
ByBlock
 70
     0
  3

 72
    65
 73
     0
 40
0.0
  0
LTYPE
  5
2E
330
2C
100
AcDbSymbolTableRecord
100
AcDbLinetypeTableRecord
  2
ByLayer
 70
     0
  3

 72
    65
 73
     0
 40
0.0
  0
LTYPE
  5
16
330
2C
100
AcDbSymbolTableRecord
100
AcDbLinetypeTableRecord
  2
Continuous
 70
     0
  3
Solid line
 72
    65
 73
     0
 40
0.0
  0
LTYPE
  5
80
330
2C
100
AcDbSymbolTableRecord
100
AcDbLinetypeTableRecord
  2
CENTER
 70
     0
  3
Center ____ _ ____ _ ____ _ ____ _ ____ _ ____
 72
    65
 73
     4
 40
50.8
 49
31.75
 74
     0
 49
-6.349999999999997
 74
     0
 49
6.349999999999997
 74
     0
 49
-6.349999999999997
 74
     0
  0
LTYPE
  5
88
330
2C
100
AcDbSymbolTableRecord
100
AcDbLinetypeTableRecord
  2
PHANTOM
 70
     0
  3
Phantom ______  __  __  ______  __  __  ______
 72
    65
 73
     6
 40
2.5
 49
1.25
 74
     0
 49
-0.25
 74
     0
 49
0.25
 74
     0
 49
-0.25
 74
     0
 49
0.25
 74
     0
 49
-0.25
 74
     0
  0
ENDTAB
  0
TABLE
  2
LAYER
  5
23
102
{ACAD_XDICTIONARY
360
24
102
}
330
0
100
AcDbSymbolTable
 70
     2
  0
LAYER
  5
7
102
{ACAD_XDICTIONARY
360
8
102
}
330
23
100
AcDbSymbolTableRecord
100
AcDbLayerTableRecord
  2
0
 70
     0
 62
     7
  6
Continuous
370
    -3
390
A
  0
LAYER
  5
14C
330
23
100
AcDbSymbolTableRecord
100
AcDbLayerTableRecord
  2
Defpoints
 70
     0
 62
     7
  6
Continuous
290
     0
370
    -3
390
A
  0
ENDTAB
  0
TABLE
  2
STYLE
  5
29
330
0
100
AcDbSymbolTable
 70
     4
  0
STYLE
  5
2A
330
29
100
AcDbSymbolTableRecord
100
AcDbTextStyleTableRecord
  2
Standard
 70
     0
 40
0.0
 41
1.0
 50
0.0
 71
     0
 42
3.0
  3
romans.shx
  4
whgtxt.shx
  0
STYLE
  5
190
330
29
100
AcDbSymbolTableRecord
100
AcDbTextStyleTableRecord
  2
GHS
 70
     0
 40
0.0
 41
0.6
 50
0.0
 71
     0
 42
3.0
  3
ROMANS
  4
GHS
  0
STYLE
  5
41D
330
29
100
AcDbSymbolTableRecord
100
AcDbTextStyleTableRecord
  2
WHGTXT
 70
     0
 40
0.0
 41
0.75
 50
0.0
 71
     0
 42
1.5
  3
romans.shx
  4
whgtxt.shx
  0
STYLE
  5
18C
330
29
100
AcDbSymbolTableRecord
100
AcDbTextStyleTableRecord
  2
유형1
 70
     0
 40
0.0
 41
1.0
 50
0.0
 71
     0
 42
2.0
  3
HYGTRE.TTF
  4

1001
ACAD
1000
HY견고딕
1071
    33042
  0
ENDTAB
  0
TABLE
  2
VIEW
  5
2F
330
0
100
AcDbSymbolTable
 70
     0
  0
ENDTAB
  0
TABLE
  2
UCS
  5
30
330
0
100
AcDbSymbolTable
 70
     0
  0
ENDTAB
  0
TABLE
  2
APPID
  5
39
330
0
100
AcDbSymbolTable
 70
    11
  0
APPID
  5
28
330
39
100
AcDbSymbolTableRecord
100
AcDbRegAppTableRecord
  2
ACAD
 70
     0
  0
APPID
  5
1C
330
39
100
AcDbSymbolTableRecord
100
AcDbRegAppTableRecord
  2
ACAD_PSEXT
 70
     0
  0
APPID
  5
32A
330
39
100
AcDbSymbolTableRecord
100
AcDbRegAppTableRecord
  2
ACAD_DSTYLE_DIMRADIAL_EXTENSION
 70
     0
  0
APPID
  5
37
330
39
100
AcDbSymbolTableRecord
100
AcDbRegAppTableRecord
  2
ACAD_NAV_VCDISPLAY
 70
     0
  0
APPID
  5
191
330
39
100
AcDbSymbolTableRecord
100
AcDbRegAppTableRecord
  2
ACAD_DSTYLE_DIMJAG
 70
     0
  0
APPID
  5
192
330
39
100
AcDbSymbolTableRecord
100
AcDbRegAppTableRecord
  2
ACAD_DSTYLE_DIMTALN
 70
     0
  0
APPID
  5
4B3
330
39
100
AcDbSymbolTableRecord
100
AcDbRegAppTableRecord
  2
ACAD_MLEADERVER
 70
     0
  0
APPID
  5
4CF
330
39
100
AcDbSymbolTableRecord
100
AcDbRegAppTableRecord
  2
ACAD_DSTYLE_DIM_LINETYPE
 70
     0
  0
APPID
  5
4D0
330
39
100
AcDbSymbolTableRecord
100
AcDbRegAppTableRecord
  2
ACAD_DSTYLE_DIM_EXT1_LINETYPE
 70
     0
  0
APPID
  5
4D1
330
39
100
AcDbSymbolTableRecord
100
AcDbRegAppTableRecord
  2
ACAD_DSTYLE_DIM_EXT2_LINETYPE
 70
     0
  0
APPID
  5
D88
330
39
100
AcDbSymbolTableRecord
100
AcDbRegAppTableRecord
  2
ACAD_EXEMPT_FROM_CAD_STANDARDS
 70
     0
  0
ENDTAB
  0
TABLE
  2
DIMSTYLE
  5
3A
330
0
100
AcDbSymbolTable
 70
     2
100
AcDbDimStyleTable
 71
     1
340
3B
  0
DIMSTYLE
105
3B
102
{ACAD_REACTORS
330
43E
330
44B
330
45A
330
142
330
196
330
1C0
330
1DF
330
1ED
330
1FC
330
2A2
330
2AF
330
2C2
330
2CF
330
2DD
330
2EE
330
2FD
330
31C
330
32B
330
33C
330
34F
330
3EB
330
3FB
330
40A
102
}
330
3A
100
AcDbSymbolTableRecord
100
AcDbDimStyleTableRecord
  2
STANDARD
 70
     0
 41
2.5
 42
1.0
 43
10.0
 44
0.6
 73
     0
 74
     0
 77
     1
 78
     8
 79
     2
140
3.0
147
1.0
172
     1
174
     1
176
   123
177
   123
178
     3
179
     1
271
     2
272
     2
275
     1
288
     1
289
     0
340
2A
  0
DIMSTYLE
105
18F
330
3A
100
AcDbSymbolTableRecord
100
AcDbDimStyleTableRecord
  2
STANDARD$7
 70
     0
 41
2.5
 42
0.1
 73
     0
 74
     0
 77
     1
 78
     8
140
2.5
141
0.0
147
1.0
176
   256
177
   256
178
   256
271
     2
272
     2
284
     8
289
     0
340
190
371
    -1
372
    -1
1001
ACAD_DSTYLE_DIMJAG
1070
   388
1040
1.5
1001
ACAD_DSTYLE_DIMTALN
1070
   392
1070
     0
1001
ACAD_DSTYLE_DIM_LINETYPE
1070
   380
1005
2E
1001
ACAD_DSTYLE_DIM_EXT1_LINETYPE
1070
   381
1005
2E
1001
ACAD_DSTYLE_DIM_EXT2_LINETYPE
1070
   382
1005
2E
  0
ENDTAB
  0
TABLE
  2
BLOCK_RECORD
  5
1
330
0
100
AcDbSymbolTable
 70
    70
  0
BLOCK_RECORD
  5
2
102
{ACAD_XDICTIONARY
360
3
102
}
330
1
100
AcDbSymbolTableRecord
100
AcDbBlockTableRecord
  2
*Model_Space
340
18
  0
BLOCK_RECORD
  5
1D
102
{ACAD_XDICTIONARY
360
1E
102
}
330
1
100
AcDbSymbolTableRecord
100
AcDbBlockTableRecord
  2
*Paper_Space
340
22
  0
BLOCK_RECORD
  5
43F
330
1
100
AcDbSymbolTableRecord
100
AcDbBlockTableRecord
  2
*D0
340
0
  0
BLOCK_RECORD
  5
44C
330
1
100
AcDbSymbolTableRecord
100
AcDbBlockTableRecord
  2
*D1
340
0
  0
BLOCK_RECORD
  5
45B
330
1
100
AcDbSymbolTableRecord
100
AcDbBlockTableRecord
  2
*D2
340
0
  0
BLOCK_RECORD
  5
143
330
1
100
AcDbSymbolTableRecord
100
AcDbBlockTableRecord
  2
*D3
340
0
  0
BLOCK_RECORD
  5
197
330
1
100
AcDbSymbolTableRecord
100
AcDbBlockTableRecord
  2
*D4
340
0
  0
BLOCK_RECORD
  5
1C1
330
1
100
AcDbSymbolTableRecord
100
AcDbBlockTableRecord
  2
*D5
340
0
  0
BLOCK_RECORD
  5
1E0
330
1
100
AcDbSymbolTableRecord
100
AcDbBlockTableRecord
  2
*D6
340
0
  0
BLOCK_RECORD
  5
2A3
330
1
100
AcDbSymbolTableRecord
100
AcDbBlockTableRecord
  2
*D7
340
0
  0
BLOCK_RECORD
  5
2B0
330
1
100
AcDbSymbolTableRecord
100
AcDbBlockTableRecord
  2
*D8
340
0
  0
BLOCK_RECORD
  5
2C3
330
1
100
AcDbSymbolTableRecord
100
AcDbBlockTableRecord
  2
*D9
340
0
  0
BLOCK_RECORD
  5
2D0
330
1
100
AcDbSymbolTableRecord
100
AcDbBlockTableRecord
  2
*D10
340
0
  0
BLOCK_RECORD
  5
2FE
330
1
100
AcDbSymbolTableRecord
100
AcDbBlockTableRecord
  2
*D11
340
0
  0
BLOCK_RECORD
  5
3EC
330
1
100
AcDbSymbolTableRecord
100
AcDbBlockTableRecord
  2
*D12
340
0
  0
BLOCK_RECORD
  5
1F0
330
1
100
AcDbSymbolTableRecord
100
AcDbBlockTableRecord
  2
*D13
340
0
  0
BLOCK_RECORD
  5
1FF
330
1
100
AcDbSymbolTableRecord
100
AcDbBlockTableRecord
  2
*D14
340
0
  0
BLOCK_RECORD
  5
2E0
330
1
100
AcDbSymbolTableRecord
100
AcDbBlockTableRecord
  2
*D15
340
0
  0
BLOCK_RECORD
  5
2F1
330
1
100
AcDbSymbolTableRecord
100
AcDbBlockTableRecord
  2
*D16
340
0
  0
BLOCK_RECORD
  5
31F
330
1
100
AcDbSymbolTableRecord
100
AcDbBlockTableRecord
  2
*D17
340
0
  0
BLOCK_RECORD
  5
32E
330
1
100
AcDbSymbolTableRecord
100
AcDbBlockTableRecord
  2
*D18
340
0
  0
BLOCK_RECORD
  5
33F
330
1
100
AcDbSymbolTableRecord
100
AcDbBlockTableRecord
  2
*D19
340
0
  0
BLOCK_RECORD
  5
352
330
1
100
AcDbSymbolTableRecord
100
AcDbBlockTableRecord
  2
*D20
340
0
  0
BLOCK_RECORD
  5
3FE
330
1
100
AcDbSymbolTableRecord
100
AcDbBlockTableRecord
  2
*D21
340
0
  0
BLOCK_RECORD
  5
40D
330
1
100
AcDbSymbolTableRecord
100
AcDbBlockTableRecord
  2
*D22
340
0
  0
ENDTAB
  0
ENDSEC
  0
SECTION
  2
BLOCKS
  0
BLOCK
  5
6
330
2
100
AcDbEntity
  8
0
100
AcDbBlockBegin
  2
*Model_Space
 70
     0
 10
0.0
 20
0.0
 30
0.0
  3
*Model_Space
  1

  0
ENDBLK
  5
17
330
2
100
AcDbEntity
  8
0
100
AcDbBlockEnd
  0
BLOCK
  5
20
330
1D
100
AcDbEntity
 67
     1
  8
0
100
AcDbBlockBegin
  2
*Paper_Space
 70
     0
 10
0.0
 20
0.0
 30
0.0
  3
*Paper_Space
  1

  0
ENDBLK
  5
21
330
1D
100
AcDbEntity
 67
     1
  8
0
100
AcDbBlockEnd
  0
BLOCK
  5
440
330
43F
100
AcDbEntity
  8
0
100
AcDbBlockBegin
  2
*D0
 70
     1
 10
0.0
 20
0.0
 30
0.0
  3
*D0
  1

  0
LINE
  5
441
330
43F
100
AcDbEntity
  8
0
 62
   123
370
    -2
100
AcDbLine
 10
-5287.158535208977
 20
7312.389182423361
 30
0.0
 11
-5287.158535208977
 21
7337.46770274907
 31
0.0
  0
LINE
  5
442
330
43F
100
AcDbEntity
  8
0
 62
   123
370
    -2
100
AcDbLine
 10
-5165.658535208977
 20
7307.389182423361
 30
0.0
 11
-5165.658535208977
 21
7337.46770274907
 31
0.0
  0
LINE
  5
443
330
43F
100
AcDbEntity
  8
0
 62
   123
370
    -2
100
AcDbLine
 10
-5284.658535208976
 20
7336.867702749072
 30
0.0
 11
-5168.158535208977
 21
7336.867702749072
 31
0.0
  0
SOLID
  5
444
330
43F
100
AcDbEntity
  8
0
 62
   123
100
AcDbTrace
 10
-5284.658535208976
 20
7337.284369415737
 30
0.0
 11
-5284.658535208976
 21
7336.451036082404
 31
0.0
 12
-5287.158535208977
 22
7336.867702749072
 32
0.0
 13
-5287.158535208977
 23
7336.867702749072
 33
0.0
  0
SOLID
  5
445
330
43F
100
AcDbEntity
  8
0
 62
   123
100
AcDbTrace
 10
-5168.158535208977
 20
7337.284369415737
 30
0.0
 11
-5168.158535208977
 21
7336.451036082404
 31
0.0
 12
-5165.658535208977
 22
7336.867702749072
 32
0.0
 13
-5165.658535208977
 23
7336.867702749072
 33
0.0
  0
MTEXT
  5
446
330
43F
100
AcDbEntity
  8
0
 62
     3
100
AcDbMText
 10
-5226.408535208977
 20
7339.367702749071
 30
0.0
 40
3.0
 41
0.0
 71
     5
 72
     1
  1
\A1;121.5
 73
     1
 44
1.0
1001
ACAD
1000
MTEXTBEGIN
1070
    73
1070
     1
1070
    44
1040
1.0
1070
    74
1070
     0
1000
MTEXTEND
  0
POINT
  5
447
330
43F
100
AcDbEntity
  8
Defpoints
 62
     0
100
AcDbPoint
 10
-5287.158535208977
 20
7311.38918242336
 30
0.0
  0
POINT
  5
448
330
43F
100
AcDbEntity
  8
Defpoints
 62
     0
100
AcDbPoint
 10
-5165.658535208977
 20
7306.389182423362
 30
0.0
  0
POINT
  5
449
330
43F
100
AcDbEntity
  8
Defpoints
 62
     0
100
AcDbPoint
 10
-5165.658535208977
 20
7336.867702749072
 30
0.0
  0
ENDBLK
  5
44A
330
43F
100
AcDbEntity
  8
0
100
AcDbBlockEnd
  0
BLOCK
  5
44D
330
44C
100
AcDbEntity
  8
0
100
AcDbBlockBegin
  2
*D1
 70
     1
 10
0.0
 20
0.0
 30
0.0
  3
*D1
  1

  0
LINE
  5
44E
330
44C
100
AcDbEntity
  8
0
 62
   123
370
    -2
100
AcDbLine
 10
-5287.158535208977
 20
7312.389182423361
 30
0.0
 11
-5287.158535208977
 21
7328.223604494063
 31
0.0
  0
LINE
  5
44F
330
44C
100
AcDbEntity
  8
0
 62
   123
370
    -2
100
AcDbLine
 10
-5280.658535208977
 20
7312.389182423361
 30
0.0
 11
-5280.658535208977
 21
7328.223604494063
 31
0.0
  0
LINE
  5
450
330
44C
100
AcDbEntity
  8
0
 62
   123
370
    -2
100
AcDbLine
 10
-5289.658535208977
 20
7327.623604494063
 30
0.0
 11
-5292.158535208977
 21
7327.623604494063
 31
0.0
  0
LINE
  5
451
330
44C
100
AcDbEntity
  8
0
 62
   123
370
    -2
100
AcDbLine
 10
-5278.158535208977
 20
7327.623604494063
 30
0.0
 11
-5275.658535208977
 21
7327.623604494063
 31
0.0
  0
LINE
  5
452
330
44C
100
AcDbEntity
  8
0
 62
   123
370
    -2
100
AcDbLine
 10
-5287.158535208977
 20
7327.623604494063
 30
0.0
 11
-5280.658535208977
 21
7327.623604494063
 31
0.0
  0
SOLID
  5
453
330
44C
100
AcDbEntity
  8
0
 62
   123
100
AcDbTrace
 10
-5289.658535208977
 20
7328.04027116073
 30
0.0
 11
-5289.658535208977
 21
7327.206937827397
 31
0.0
 12
-5287.158535208977
 22
7327.623604494063
 32
0.0
 13
-5287.158535208977
 23
7327.623604494063
 33
0.0
  0
SOLID
  5
454
330
44C
100
AcDbEntity
  8
0
 62
   123
100
AcDbTrace
 10
-5278.158535208977
 20
7328.04027116073
 30
0.0
 11
-5278.158535208977
 21
7327.206937827397
 31
0.0
 12
-5280.658535208977
 22
7327.623604494063
 32
0.0
 13
-5280.658535208977
 23
7327.623604494063
 33
0.0
  0
MTEXT
  5
455
330
44C
100
AcDbEntity
  8
0
 62
     3
100
AcDbMText
 10
-5283.908535208976
 20
7330.123604494064
 30
0.0
 40
3.0
 41
0.0
 71
     5
 72
     1
  1
\A1;6.5
 73
     1
 44
1.0
1001
ACAD
1000
MTEXTBEGIN
1070
    73
1070
     1
1070
    44
1040
1.0
1070
    74
1070
     0
1000
MTEXTEND
  0
POINT
  5
456
330
44C
100
AcDbEntity
  8
Defpoints
 62
     0
100
AcDbPoint
 10
-5287.158535208977
 20
7311.38918242336
 30
0.0
  0
POINT
  5
457
330
44C
100
AcDbEntity
  8
Defpoints
 62
     0
100
AcDbPoint
 10
-5280.658535208977
 20
7311.38918242336
 30
0.0
  0
POINT
  5
458
330
44C
100
AcDbEntity
  8
Defpoints
 62
     0
100
AcDbPoint
 10
-5280.658535208977
 20
7327.623604494063
 30
0.0
  0
ENDBLK
  5
459
330
44C
100
AcDbEntity
  8
0
100
AcDbBlockEnd
  0
BLOCK
  5
45C
330
45B
100
AcDbEntity
  8
0
100
AcDbBlockBegin
  2
*D2
 70
     1
 10
0.0
 20
0.0
 30
0.0
  3
*D2
  1

  0
LINE
  5
45D
330
45B
100
AcDbEntity
  8
0
 62
   123
370
    -2
100
AcDbLine
 10
-5287.158535208977
 20
7312.389182423361
 30
0.0
 11
-5287.158535208977
 21
7320.074802927185
 31
0.0
  0
LINE
  5
45E
330
45B
100
AcDbEntity
  8
0
 62
   123
370
    -2
100
AcDbLine
 10
-5289.158535208977
 20
7308.38918242336
 30
0.0
 11
-5289.158535208977
 21
7320.074802927185
 31
0.0
  0
LINE
  5
45F
330
45B
100
AcDbEntity
  8
0
 62
   123
370
    -2
100
AcDbLine
 10
-5284.658535208976
 20
7319.474802927185
 30
0.0
 11
-5282.158535208977
 21
7319.474802927185
 31
0.0
  0
LINE
  5
460
330
45B
100
AcDbEntity
  8
0
 62
   123
370
    -2
100
AcDbLine
 10
-5291.658535208977
 20
7319.474802927185
 30
0.0
 11
-5298.47486620649
 21
7319.474802927185
 31
0.0
  0
LINE
  5
461
330
45B
100
AcDbEntity
  8
0
 62
   123
370
    -2
100
AcDbLine
 10
-5287.158535208977
 20
7319.474802927185
 30
0.0
 11
-5289.158535208977
 21
7319.474802927185
 31
0.0
  0
SOLID
  5
462
330
45B
100
AcDbEntity
  8
0
 62
   123
100
AcDbTrace
 10
-5284.658535208976
 20
7319.891469593852
 30
0.0
 11
-5284.658535208976
 21
7319.058136260519
 31
0.0
 12
-5287.158535208977
 22
7319.474802927185
 32
0.0
 13
-5287.158535208977
 23
7319.474802927185
 33
0.0
  0
SOLID
  5
463
330
45B
100
AcDbEntity
  8
0
 62
   123
100
AcDbTrace
 10
-5291.658535208977
 20
7319.891469593852
 30
0.0
 11
-5291.658535208977
 21
7319.058136260519
 31
0.0
 12
-5289.158535208977
 22
7319.474802927185
 32
0.0
 13
-5289.158535208977
 23
7319.474802927185
 33
0.0
  0
MTEXT
  5
464
330
45B
100
AcDbEntity
  8
0
 62
     3
100
AcDbMText
 10
-5296.474866206491
 20
7321.974802927186
 30
0.0
 40
3.0
 41
0.0
 71
     5
 72
     1
  1
\A1;2
 73
     1
 44
1.0
1001
ACAD
1000
MTEXTBEGIN
1070
    73
1070
     1
1070
    44
1040
1.0
1070
    74
1070
     0
1000
MTEXTEND
  0
POINT
  5
465
330
45B
100
AcDbEntity
  8
Defpoints
 62
     0
100
AcDbPoint
 10
-5287.158535208977
 20
7311.38918242336
 30
0.0
  0
POINT
  5
466
330
45B
100
AcDbEntity
  8
Defpoints
 62
     0
100
AcDbPoint
 10
-5289.158535208977
 20
7307.389182423361
 30
0.0
  0
POINT
  5
467
330
45B
100
AcDbEntity
  8
Defpoints
 62
     0
100
AcDbPoint
 10
-5289.158535208977
 20
7319.474802927185
 30
0.0
  0
ENDBLK
  5
468
330
45B
100
AcDbEntity
  8
0
100
AcDbBlockEnd
  0
BLOCK
  5
144
330
143
100
AcDbEntity
  8
0
100
AcDbBlockBegin
  2
*D3
 70
     1
 10
0.0
 20
0.0
 30
0.0
  3
*D3
  1

  0
LINE
  5
145
330
143
100
AcDbEntity
  8
0
 62
   123
370
    -2
100
AcDbLine
 10
-5962.896415561317
 20
7237.72428706513
 30
0.0
 11
-5997.496415561317
 21
7237.72428706513
 31
0.0
  0
LINE
  5
146
330
143
100
AcDbEntity
  8
0
 62
   123
370
    -2
100
AcDbLine
 10
-5962.896415561317
 20
7310.724287065127
 30
0.0
 11
-5997.496415561317
 21
7310.724287065127
 31
0.0
  0
LINE
  5
147
330
143
100
AcDbEntity
  8
0
 62
   123
370
    -2
100
AcDbLine
 10
-5996.896415561316
 20
7240.224287065128
 30
0.0
 11
-5996.896415561316
 21
7308.224287065129
 31
0.0
  0
SOLID
  5
148
330
143
100
AcDbEntity
  8
0
 62
   123
100
AcDbTrace
 10
-5997.313082227983
 20
7240.224287065128
 30
0.0
 11
-5996.47974889465
 21
7240.224287065128
 31
0.0
 12
-5996.896415561316
 22
7237.72428706513
 32
0.0
 13
-5996.896415561316
 23
7237.72428706513
 33
0.0
  0
SOLID
  5
149
330
143
100
AcDbEntity
  8
0
 62
   123
100
AcDbTrace
 10
-5997.313082227983
 20
7308.224287065129
 30
0.0
 11
-5996.47974889465
 21
7308.224287065129
 31
0.0
 12
-5996.896415561316
 22
7310.724287065127
 32
0.0
 13
-5996.896415561316
 23
7310.724287065127
 33
0.0
  0
MTEXT
  5
14A
330
143
100
AcDbEntity
  8
0
 62
     3
100
AcDbMText
 10
-6000.346415561319
 20
7274.224287065127
 30
0.0
 40
3.0
 41
0.0
 71
     5
 72
     1
  1
\A1;%%C73{\H0.7x;\S  0^ -0.03;}
 11
0.0000000000000001
 21
1.0
 31
0.0
 73
     1
 44
1.0
1001
ACAD
1000
MTEXTBEGIN
1070
    73
1070
     1
1070
    44
1040
1.0
1070
    74
1070
     0
1000
MTEXTEND
  0
POINT
  5
14B
330
143
100
AcDbEntity
  8
Defpoints
 62
     0
100
AcDbPoint
 10
-5961.896415561318
 20
7237.72428706513
 30
0.0
  0
POINT
  5
14D
330
143
100
AcDbEntity
  8
Defpoints
 62
     0
100
AcDbPoint
 10
-5961.896415561318
 20
7310.724287065127
 30
0.0
  0
POINT
  5
14E
330
143
100
AcDbEntity
  8
Defpoints
 62
     0
100
AcDbPoint
 10
-5996.896415561316
 20
7310.724287065127
 30
0.0
  0
ENDBLK
  5
14F
330
143
100
AcDbEntity
  8
0
100
AcDbBlockEnd
  0
BLOCK
  5
198
330
197
100
AcDbEntity
  8
0
100
AcDbBlockBegin
  2
*D4
 70
     1
 10
0.0
 20
0.0
 30
0.0
  3
*D4
  1

  0
LINE
  5
199
330
197
100
AcDbEntity
  8
0
 62
   123
370
    -2
100
AcDbLine
 10
-5772.852848179445
 20
7176.224287065128
 30
0.0
 11
-5775.652848179444
 21
7176.224287065128
 31
0.0
  0
LINE
  5
19A
330
197
100
AcDbEntity
  8
0
 62
   123
370
    -2
100
AcDbLine
 10
-5771.952848179442
 20
7166.224287065128
 30
0.0
 11
-5775.652848179444
 21
7166.224287065128
 31
0.0
  0
LINE
  5
19B
330
197
100
AcDbEntity
  8
0
 62
   123
370
    -2
100
AcDbLine
 10
-5775.052848179445
 20
7173.724287065128
 30
0.0
 11
-5775.052848179445
 21
7168.724287065128
 31
0.0
  0
SOLID
  5
19C
330
197
100
AcDbEntity
  8
0
 62
   123
100
AcDbTrace
 10
-5775.469514846111
 20
7173.724287065128
 30
0.0
 11
-5774.636181512779
 21
7173.724287065128
 31
0.0
 12
-5775.052848179445
 22
7176.224287065128
 32
0.0
 13
-5775.052848179445
 23
7176.224287065128
 33
0.0
  0
SOLID
  5
19D
330
197
100
AcDbEntity
  8
0
 62
   123
100
AcDbTrace
 10
-5775.469514846111
 20
7168.724287065128
 30
0.0
 11
-5774.636181512779
 21
7168.724287065128
 31
0.0
 12
-5775.052848179445
 22
7166.224287065128
 32
0.0
 13
-5775.052848179445
 23
7166.224287065128
 33
0.0
  0
MTEXT
  5
19E
330
197
100
AcDbEntity
  8
0
 62
     3
100
AcDbMText
 10
-5777.552848179444
 20
7171.224287065125
 30
0.0
 40
3.0
 41
0.0
 71
     5
 72
     1
  1
\A1;10
 11
0.0000000000000001
 21
1.0
 31
0.0
 73
     1
 44
1.0
1001
ACAD
1000
MTEXTBEGIN
1070
    73
1070
     1
1070
    44
1040
1.0
1070
    74
1070
     0
1000
MTEXTEND
  0
POINT
  5
19F
330
197
100
AcDbEntity
  8
Defpoints
 62
     0
100
AcDbPoint
 10
-5771.852848179443
 20
7176.224287065128
 30
0.0
  0
POINT
  5
1A0
330
197
100
AcDbEntity
  8
Defpoints
 62
     0
100
AcDbPoint
 10
-5770.952848179442
 20
7166.224287065128
 30
0.0
  0
POINT
  5
1A1
330
197
100
AcDbEntity
  8
Defpoints
 62
     0
100
AcDbPoint
 10
-5775.052848179445
 20
7166.224287065128
 30
0.0
  0
ENDBLK
  5
1A2
330
197
100
AcDbEntity
  8
0
100
AcDbBlockEnd
  0
BLOCK
  5
1C2
330
1C1
100
AcDbEntity
  8
0
100
AcDbBlockBegin
  2
*D5
 70
     1
 10
0.0
 20
0.0
 30
0.0
  3
*D5
  1

  0
LINE
  5
1C3
330
1C1
100
AcDbEntity
  8
0
 62
   123
370
    -2
100
AcDbLine
 10
-5960.896415561315
 20
7315.224287065127
 30
0.0
 11
-5960.896415561315
 21
7340.302807390838
 31
0.0
  0
LINE
  5
1C4
330
1C1
100
AcDbEntity
  8
0
 62
   123
370
    -2
100
AcDbLine
 10
-5839.396415561317
 20
7310.224287065128
 30
0.0
 11
-5839.396415561317
 21
7340.302807390838
 31
0.0
  0
LINE
  5
1C5
330
1C1
100
AcDbEntity
  8
0
 62
   123
370
    -2
100
AcDbLine
 10
-5958.396415561317
 20
7339.702807390837
 30
0.0
 11
-5841.896415561318
 21
7339.702807390837
 31
0.0
  0
SOLID
  5
1C6
330
1C1
100
AcDbEntity
  8
0
 62
   123
100
AcDbTrace
 10
-5958.396415561317
 20
7340.119474057503
 30
0.0
 11
-5958.396415561317
 21
7339.286140724169
 31
0.0
 12
-5960.896415561315
 22
7339.702807390837
 32
0.0
 13
-5960.896415561315
 23
7339.702807390837
 33
0.0
  0
SOLID
  5
1C7
330
1C1
100
AcDbEntity
  8
0
 62
   123
100
AcDbTrace
 10
-5841.896415561318
 20
7340.119474057503
 30
0.0
 11
-5841.896415561318
 21
7339.286140724169
 31
0.0
 12
-5839.396415561317
 22
7339.702807390837
 32
0.0
 13
-5839.396415561317
 23
7339.702807390837
 33
0.0
  0
MTEXT
  5
1C8
330
1C1
100
AcDbEntity
  8
0
 62
     3
100
AcDbMText
 10
-5900.146415561319
 20
7342.202807390838
 30
0.0
 40
3.0
 41
0.0
 71
     5
 72
     1
  1
\A1;121.5
 73
     1
 44
1.0
1001
ACAD
1000
MTEXTBEGIN
1070
    73
1070
     1
1070
    44
1040
1.0
1070
    74
1070
     0
1000
MTEXTEND
  0
POINT
  5
1C9
330
1C1
100
AcDbEntity
  8
Defpoints
 62
     0
100
AcDbPoint
 10
-5960.896415561315
 20
7314.22428706513
 30
0.0
  0
POINT
  5
1CA
330
1C1
100
AcDbEntity
  8
Defpoints
 62
     0
100
AcDbPoint
 10
-5839.396415561317
 20
7309.224287065127
 30
0.0
  0
POINT
  5
1CB
330
1C1
100
AcDbEntity
  8
Defpoints
 62
     0
100
AcDbPoint
 10
-5839.396415561317
 20
7339.702807390837
 30
0.0
  0
ENDBLK
  5
1CC
330
1C1
100
AcDbEntity
  8
0
100
AcDbBlockEnd
  0
BLOCK
  5
1E1
330
1E0
100
AcDbEntity
  8
0
100
AcDbBlockBegin
  2
*D6
 70
     1
 10
0.0
 20
0.0
 30
0.0
  3
*D6
  1

  0
LINE
  5
1E2
330
1E0
100
AcDbEntity
  8
0
 62
   123
370
    -2
100
AcDbLine
 10
-5974.396415561319
 20
7278.329837065128
 30
0.0
 11
-5974.396415561319
 21
7340.302807390838
 31
0.0
  0
LINE
  5
1E3
330
1E0
100
AcDbEntity
  8
0
 62
   123
370
    -2
100
AcDbLine
 10
-5960.896415561315
 20
7315.224287065127
 30
0.0
 11
-5960.896415561315
 21
7340.302807390838
 31
0.0
  0
LINE
  5
1E4
330
1E0
100
AcDbEntity
  8
0
 62
   123
370
    -2
100
AcDbLine
 10
-5971.896415561317
 20
7339.702807390837
 30
0.0
 11
-5963.396415561319
 21
7339.702807390837
 31
0.0
  0
SOLID
  5
1E5
330
1E0
100
AcDbEntity
  8
0
 62
   123
100
AcDbTrace
 10
-5971.896415561317
 20
7340.119474057503
 30
0.0
 11
-5971.896415561317
 21
7339.286140724169
 31
0.0
 12
-5974.396415561319
 22
7339.702807390837
 32
0.0
 13
-5974.396415561319
 23
7339.702807390837
 33
0.0
  0
SOLID
  5
1E6
330
1E0
100
AcDbEntity
  8
0
 62
   123
100
AcDbTrace
 10
-5963.396415561319
 20
7340.119474057503
 30
0.0
 11
-5963.396415561319
 21
7339.286140724169
 31
0.0
 12
-5960.896415561315
 22
7339.702807390837
 32
0.0
 13
-5960.896415561315
 23
7339.702807390837
 33
0.0
  0
MTEXT
  5
1E7
330
1E0
100
AcDbEntity
  8
0
 62
     3
100
AcDbMText
 10
-5967.646415561318
 20
7342.202807390838
 30
0.0
 40
3.0
 41
0.0
 71
     5
 72
     1
  1
\A1;13.5
 73
     1
 44
1.0
1001
ACAD
1000
MTEXTBEGIN
1070
    73
1070
     1
1070
    44
1040
1.0
1070
    74
1070
     0
1000
MTEXTEND
  0
POINT
  5
1E8
330
1E0
100
AcDbEntity
  8
Defpoints
 62
     0
100
AcDbPoint
 10
-5974.396415561319
 20
7277.329837065129
 30
0.0
  0
POINT
  5
1E9
330
1E0
100
AcDbEntity
  8
Defpoints
 62
     0
100
AcDbPoint
 10
-5960.896415561315
 20
7314.22428706513
 30
0.0
  0
POINT
  5
1EA
330
1E0
100
AcDbEntity
  8
Defpoints
 62
     0
100
AcDbPoint
 10
-5960.896415561315
 20
7339.702807390837
 30
0.0
  0
ENDBLK
  5
1EB
330
1E0
100
AcDbEntity
  8
0
100
AcDbBlockEnd
  0
BLOCK
  5
2A4
330
2A3
100
AcDbEntity
  8
0
100
AcDbBlockBegin
  2
*D7
 70
     1
 10
0.0
 20
0.0
 30
0.0
  3
*D7
  1

  0
LINE
  5
2A5
330
2A3
100
AcDbEntity
  8
0
 62
   123
370
    -2
100
AcDbLine
 10
-6135.053546032366
 20
7309.224287065127
 30
0.0
 11
-6135.053546032366
 21
7340.291596393455
 31
0.0
  0
LINE
  5
2A6
330
2A3
100
AcDbEntity
  8
0
 62
   123
370
    -2
100
AcDbLine
 10
-6055.053546032367
 20
7309.224287065127
 30
0.0
 11
-6055.053546032367
 21
7340.291596393455
 31
0.0
  0
LINE
  5
2A7
330
2A3
100
AcDbEntity
  8
0
 62
   123
370
    -2
100
AcDbLine
 10
-6132.553546032367
 20
7339.691596393453
 30
0.0
 11
-6057.553546032367
 21
7339.691596393453
 31
0.0
  0
SOLID
  5
2A8
330
2A3
100
AcDbEntity
  8
0
 62
   123
100
AcDbTrace
 10
-6132.553546032367
 20
7340.108263060121
 30
0.0
 11
-6132.553546032367
 21
7339.274929726787
 31
0.0
 12
-6135.053546032366
 22
7339.691596393453
 32
0.0
 13
-6135.053546032366
 23
7339.691596393453
 33
0.0
  0
SOLID
  5
2A9
330
2A3
100
AcDbEntity
  8
0
 62
   123
100
AcDbTrace
 10
-6057.553546032367
 20
7340.108263060121
 30
0.0
 11
-6057.553546032367
 21
7339.274929726787
 31
0.0
 12
-6055.053546032367
 22
7339.691596393453
 32
0.0
 13
-6055.053546032367
 23
7339.691596393453
 33
0.0
  0
MTEXT
  5
2AA
330
2A3
100
AcDbEntity
  8
0
 62
     3
100
AcDbMText
 10
-6095.053546032367
 20
7342.191596393455
 30
0.0
 40
3.0
 41
0.0
 71
     5
 72
     1
  1
\A1;{\fGulim|b0|i0|c129|p50;□}80
 73
     1
 44
1.0
1001
ACAD
1000
MTEXTBEGIN
1070
    73
1070
     1
1070
    44
1040
1.0
1070
    74
1070
     0
1000
MTEXTEND
  0
POINT
  5
2AB
330
2A3
100
AcDbEntity
  8
Defpoints
 62
     0
100
AcDbPoint
 10
-6135.053546032366
 20
7308.224287065129
 30
0.0
  0
POINT
  5
2AC
330
2A3
100
AcDbEntity
  8
Defpoints
 62
     0
100
AcDbPoint
 10
-6055.053546032367
 20
7308.224287065129
 30
0.0
  0
POINT
  5
2AD
330
2A3
100
AcDbEntity
  8
Defpoints
 62
     0
100
AcDbPoint
 10
-6055.053546032367
 20
7339.691596393453
 30
0.0
  0
ENDBLK
  5
2AE
330
2A3
100
AcDbEntity
  8
0
100
AcDbBlockEnd
  0
BLOCK
  5
2B1
330
2B0
100
AcDbEntity
  8
0
100
AcDbBlockBegin
  2
*D8
 70
     1
 10
0.0
 20
0.0
 30
0.0
  3
*D8
  1

  0
LINE
  5
2B2
330
2B0
100
AcDbEntity
  8
0
 62
   123
370
    -2
100
AcDbLine
 10
-5470.764737112323
 20
7306.389182423365
 30
0.0
 11
-5470.764737112323
 21
7336.681007031495
 31
0.0
  0
LINE
  5
2B3
330
2B0
100
AcDbEntity
  8
0
 62
   123
370
    -2
100
AcDbLine
 10
-5390.764737112323
 20
7306.389182423365
 30
0.0
 11
-5390.764737112323
 21
7336.681007031495
 31
0.0
  0
LINE
  5
2B4
330
2B0
100
AcDbEntity
  8
0
 62
   123
370
    -2
100
AcDbLine
 10
-5468.264737112323
 20
7336.081007031495
 30
0.0
 11
-5393.264737112323
 21
7336.081007031495
 31
0.0
  0
SOLID
  5
2B5
330
2B0
100
AcDbEntity
  8
0
 62
   123
100
AcDbTrace
 10
-5468.264737112323
 20
7336.497673698159
 30
0.0
 11
-5468.264737112323
 21
7335.664340364828
 31
0.0
 12
-5470.764737112323
 22
7336.081007031495
 32
0.0
 13
-5470.764737112323
 23
7336.081007031495
 33
0.0
  0
SOLID
  5
2B6
330
2B0
100
AcDbEntity
  8
0
 62
   123
100
AcDbTrace
 10
-5393.264737112323
 20
7336.497673698159
 30
0.0
 11
-5393.264737112323
 21
7335.664340364828
 31
0.0
 12
-5390.764737112323
 22
7336.081007031495
 32
0.0
 13
-5390.764737112323
 23
7336.081007031495
 33
0.0
  0
MTEXT
  5
2B7
330
2B0
100
AcDbEntity
  8
0
 62
     3
100
AcDbMText
 10
-5430.764737112323
 20
7338.581007031494
 30
0.0
 40
3.0
 41
0.0
 71
     5
 72
     1
  1
\A1;{\fGulim|b0|i0|c129|p50;□}80
 73
     1
 44
1.0
1001
ACAD
1000
MTEXTBEGIN
1070
    73
1070
     1
1070
    44
1040
1.0
1070
    74
1070
     0
1000
MTEXTEND
  0
POINT
  5
2B8
330
2B0
100
AcDbEntity
  8
Defpoints
 62
     0
100
AcDbPoint
 10
-5470.764737112323
 20
7305.389182423366
 30
0.0
  0
POINT
  5
2B9
330
2B0
100
AcDbEntity
  8
Defpoints
 62
     0
100
AcDbPoint
 10
-5390.764737112323
 20
7305.389182423366
 30
0.0
  0
POINT
  5
2BA
330
2B0
100
AcDbEntity
  8
Defpoints
 62
     0
100
AcDbPoint
 10
-5390.764737112323
 20
7336.081007031495
 30
0.0
  0
ENDBLK
  5
2BB
330
2B0
100
AcDbEntity
  8
0
100
AcDbBlockEnd
  0
BLOCK
  5
2C4
330
2C3
100
AcDbEntity
  8
0
100
AcDbBlockBegin
  2
*D9
 70
     1
 10
0.0
 20
0.0
 30
0.0
  3
*D9
  1

  0
LINE
  5
2C5
330
2C3
100
AcDbEntity
  8
0
 62
   123
370
    -2
100
AcDbLine
 10
-5289.158535208977
 20
7234.889182423362
 30
0.0
 11
-5344.758535208974
 21
7234.889182423362
 31
0.0
  0
LINE
  5
2C6
330
2C3
100
AcDbEntity
  8
0
 62
   123
370
    -2
100
AcDbLine
 10
-5289.158535208977
 20
7307.889182423362
 30
0.0
 11
-5344.758535208974
 21
7307.889182423362
 31
0.0
  0
LINE
  5
2C7
330
2C3
100
AcDbEntity
  8
0
 62
   123
370
    -2
100
AcDbLine
 10
-5344.158535208972
 20
7237.389182423361
 30
0.0
 11
-5344.158535208972
 21
7305.38918242336
 31
0.0
  0
SOLID
  5
2C8
330
2C3
100
AcDbEntity
  8
0
 62
   123
100
AcDbTrace
 10
-5344.575201875639
 20
7237.389182423361
 30
0.0
 11
-5343.741868542306
 21
7237.389182423361
 31
0.0
 12
-5344.158535208972
 22
7234.889182423362
 32
0.0
 13
-5344.158535208972
 23
7234.889182423362
 33
0.0
  0
SOLID
  5
2C9
330
2C3
100
AcDbEntity
  8
0
 62
   123
100
AcDbTrace
 10
-5344.575201875639
 20
7305.38918242336
 30
0.0
 11
-5343.741868542306
 21
7305.38918242336
 31
0.0
 12
-5344.158535208972
 22
7307.889182423362
 32
0.0
 13
-5344.158535208972
 23
7307.889182423362
 33
0.0
  0
MTEXT
  5
2CA
330
2C3
100
AcDbEntity
  8
0
 62
     3
100
AcDbMText
 10
-5347.608535208975
 20
7271.389182423364
 30
0.0
 40
3.0
 41
0.0
 71
     5
 72
     1
  1
\A1;%%C73{\H0.7x;\S  0^ -0.03;}
 11
0.0000000000000001
 21
1.0
 31
0.0
 73
     1
 44
1.0
1001
ACAD
1000
MTEXTBEGIN
1070
    73
1070
     1
1070
    44
1040
1.0
1070
    74
1070
     0
1000
MTEXTEND
  0
POINT
  5
2CB
330
2C3
100
AcDbEntity
  8
Defpoints
 62
     0
100
AcDbPoint
 10
-5288.158535208977
 20
7234.889182423362
 30
0.0
  0
POINT
  5
2CC
330
2C3
100
AcDbEntity
  8
Defpoints
 62
     0
100
AcDbPoint
 10
-5288.158535208977
 20
7307.889182423362
 30
0.0
  0
POINT
  5
2CD
330
2C3
100
AcDbEntity
  8
Defpoints
 62
     0
100
AcDbPoint
 10
-5344.158535208972
 20
7307.889182423362
 30
0.0
  0
ENDBLK
  5
2CE
330
2C3
100
AcDbEntity
  8
0
100
AcDbBlockEnd
  0
BLOCK
  5
2D1
330
2D0
100
AcDbEntity
  8
0
100
AcDbBlockBegin
  2
*D10
 70
     1
 10
0.0
 20
0.0
 30
0.0
  3
*D10
  1

  0
LINE
  5
2D2
330
2D0
100
AcDbEntity
  8
0
 62
   123
370
    -2
100
AcDbLine
 10
-5319.658535208977
 20
7267.389182423362
 30
0.0
 11
-5328.758535208972
 21
7267.389182423362
 31
0.0
  0
LINE
  5
2D3
330
2D0
100
AcDbEntity
  8
0
 62
   123
370
    -2
100
AcDbLine
 10
-5320.158535208977
 20
7274.389182423361
 30
0.0
 11
-5328.758535208972
 21
7274.389182423361
 31
0.0
  0
LINE
  5
2D4
330
2D0
100
AcDbEntity
  8
0
 62
   123
370
    -2
100
AcDbLine
 10
-5328.158535208974
 20
7269.889182423361
 30
0.0
 11
-5328.158535208974
 21
7271.889182423362
 31
0.0
  0
SOLID
  5
2D5
330
2D0
100
AcDbEntity
  8
0
 62
   123
100
AcDbTrace
 10
-5328.57520187564
 20
7269.889182423361
 30
0.0
 11
-5327.741868542307
 21
7269.889182423361
 31
0.0
 12
-5328.158535208974
 22
7267.389182423362
 32
0.0
 13
-5328.158535208974
 23
7267.389182423362
 33
0.0
  0
SOLID
  5
2D6
330
2D0
100
AcDbEntity
  8
0
 62
   123
100
AcDbTrace
 10
-5328.57520187564
 20
7271.889182423362
 30
0.0
 11
-5327.741868542307
 21
7271.889182423362
 31
0.0
 12
-5328.158535208974
 22
7274.389182423361
 32
0.0
 13
-5328.158535208974
 23
7274.389182423361
 33
0.0
  0
MTEXT
  5
2D7
330
2D0
100
AcDbEntity
  8
0
 62
     3
100
AcDbMText
 10
-5330.658535208975
 20
7270.691957423363
 30
0.0
 40
3.0
 41
0.0
 71
     5
 72
     1
  1
\A1;7
 11
0.0000000000000001
 21
1.0
 31
0.0
 73
     1
 44
1.0
1001
ACAD
1000
MTEXTBEGIN
1070
    73
1070
     1
1070
    44
1040
1.0
1070
    74
1070
     0
1000
MTEXTEND
  0
POINT
  5
2D8
330
2D0
100
AcDbEntity
  8
Defpoints
 62
     0
100
AcDbPoint
 10
-5318.658535208977
 20
7267.389182423362
 30
0.0
  0
POINT
  5
2D9
330
2D0
100
AcDbEntity
  8
Defpoints
 62
     0
100
AcDbPoint
 10
-5319.158535208977
 20
7274.389182423361
 30
0.0
  0
POINT
  5
2DA
330
2D0
100
AcDbEntity
  8
Defpoints
 62
     0
100
AcDbPoint
 10
-5328.158535208974
 20
7274.389182423361
 30
0.0
  0
ENDBLK
  5
2DB
330
2D0
100
AcDbEntity
  8
0
100
AcDbBlockEnd
  0
BLOCK
  5
2FF
330
2FE
100
AcDbEntity
  8
0
100
AcDbBlockBegin
  2
*D11
 70
     1
 10
0.0
 20
0.0
 30
0.0
  3
*D11
  1

  0
LINE
  5
300
330
2FE
100
AcDbEntity
  8
0
 62
   123
370
    -2
100
AcDbLine
 10
-5319.158535208977
 20
7275.389182423362
 30
0.0
 11
-5319.158535208977
 21
7337.46770274907
 31
0.0
  0
LINE
  5
301
330
2FE
100
AcDbEntity
  8
0
 62
   123
370
    -2
100
AcDbLine
 10
-5287.158535208977
 20
7312.389182423361
 30
0.0
 11
-5287.158535208977
 21
7337.46770274907
 31
0.0
  0
LINE
  5
302
330
2FE
100
AcDbEntity
  8
0
 62
   123
370
    -2
100
AcDbLine
 10
-5316.658535208977
 20
7336.867702749072
 30
0.0
 11
-5289.658535208977
 21
7336.867702749072
 31
0.0
  0
SOLID
  5
303
330
2FE
100
AcDbEntity
  8
0
 62
   123
100
AcDbTrace
 10
-5316.658535208977
 20
7337.284369415737
 30
0.0
 11
-5316.658535208977
 21
7336.451036082404
 31
0.0
 12
-5319.158535208977
 22
7336.867702749072
 32
0.0
 13
-5319.158535208977
 23
7336.867702749072
 33
0.0
  0
SOLID
  5
304
330
2FE
100
AcDbEntity
  8
0
 62
   123
100
AcDbTrace
 10
-5289.658535208977
 20
7337.284369415737
 30
0.0
 11
-5289.658535208977
 21
7336.451036082404
 31
0.0
 12
-5287.158535208977
 22
7336.867702749072
 32
0.0
 13
-5287.158535208977
 23
7336.867702749072
 33
0.0
  0
MTEXT
  5
305
330
2FE
100
AcDbEntity
  8
0
 62
     3
100
AcDbMText
 10
-5303.158535208977
 20
7339.367702749071
 30
0.0
 40
3.0
 41
0.0
 71
     5
 72
     1
  1
\A1;32
 73
     1
 44
1.0
1001
ACAD
1000
MTEXTBEGIN
1070
    73
1070
     1
1070
    44
1040
1.0
1070
    74
1070
     0
1000
MTEXTEND
  0
POINT
  5
306
330
2FE
100
AcDbEntity
  8
Defpoints
 62
     0
100
AcDbPoint
 10
-5319.158535208977
 20
7274.389182423361
 30
0.0
  0
POINT
  5
307
330
2FE
100
AcDbEntity
  8
Defpoints
 62
     0
100
AcDbPoint
 10
-5287.158535208977
 20
7311.38918242336
 30
0.0
  0
POINT
  5
308
330
2FE
100
AcDbEntity
  8
Defpoints
 62
     0
100
AcDbPoint
 10
-5287.158535208977
 20
7336.867702749072
 30
0.0
  0
ENDBLK
  5
309
330
2FE
100
AcDbEntity
  8
0
100
AcDbBlockEnd
  0
BLOCK
  5
3ED
330
3EC
100
AcDbEntity
  8
0
100
AcDbBlockBegin
  2
*D12
 70
     1
 10
0.0
 20
0.0
 30
0.0
  3
*D12
  1

  0
LINE
  5
3EE
330
3EC
100
AcDbEntity
  8
0
 62
   123
370
    -2
100
AcDbLine
 10
-5099.114967827102
 20
7173.389182423362
 30
0.0
 11
-5101.914967827103
 21
7173.389182423362
 31
0.0
  0
LINE
  5
3EF
330
3EC
100
AcDbEntity
  8
0
 62
   123
370
    -2
100
AcDbLine
 10
-5098.2149678271
 20
7163.389182423362
 30
0.0
 11
-5101.914967827103
 21
7163.389182423362
 31
0.0
  0
LINE
  5
3F0
330
3EC
100
AcDbEntity
  8
0
 62
   123
370
    -2
100
AcDbLine
 10
-5101.314967827103
 20
7170.889182423362
 30
0.0
 11
-5101.314967827103
 21
7165.889182423362
 31
0.0
  0
SOLID
  5
3F1
330
3EC
100
AcDbEntity
  8
0
 62
   123
100
AcDbTrace
 10
-5101.73163449377
 20
7170.889182423362
 30
0.0
 11
-5100.898301160436
 21
7170.889182423362
 31
0.0
 12
-5101.314967827103
 22
7173.389182423362
 32
0.0
 13
-5101.314967827103
 23
7173.389182423362
 33
0.0
  0
SOLID
  5
3F2
330
3EC
100
AcDbEntity
  8
0
 62
   123
100
AcDbTrace
 10
-5101.73163449377
 20
7165.889182423362
 30
0.0
 11
-5100.898301160436
 21
7165.889182423362
 31
0.0
 12
-5101.314967827103
 22
7163.389182423362
 32
0.0
 13
-5101.314967827103
 23
7163.389182423362
 33
0.0
  0
MTEXT
  5
3F3
330
3EC
100
AcDbEntity
  8
0
 62
     3
100
AcDbMText
 10
-5103.814967827105
 20
7168.389182423361
 30
0.0
 40
3.0
 41
0.0
 71
     5
 72
     1
  1
\A1;10
 11
0.0000000000000001
 21
1.0
 31
0.0
 73
     1
 44
1.0
1001
ACAD
1000
MTEXTBEGIN
1070
    73
1070
     1
1070
    44
1040
1.0
1070
    74
1070
     0
1000
MTEXTEND
  0
POINT
  5
3F4
330
3EC
100
AcDbEntity
  8
Defpoints
 62
     0
100
AcDbPoint
 10
-5098.114967827102
 20
7173.389182423362
 30
0.0
  0
POINT
  5
3F5
330
3EC
100
AcDbEntity
  8
Defpoints
 62
     0
100
AcDbPoint
 10
-5097.214967827101
 20
7163.389182423362
 30
0.0
  0
POINT
  5
3F6
330
3EC
100
AcDbEntity
  8
Defpoints
 62
     0
100
AcDbPoint
 10
-5101.314967827103
 20
7163.389182423362
 30
0.0
  0
ENDBLK
  5
3F7
330
3EC
100
AcDbEntity
  8
0
100
AcDbBlockEnd
  0
BLOCK
  5
1F1
330
1F0
100
AcDbEntity
  8
0
100
AcDbBlockBegin
  2
*D13
 70
     1
 10
0.0
 20
0.0
 30
0.0
  3
*D13
  1

  0
LINE
  5
1F2
330
1F0
100
AcDbEntity
  8
0
 62
   123
370
    -2
100
AcDbLine
 10
-5775.052848179445
 20
7275.224287065128
 30
0.0
 11
-5775.052848179445
 21
7328.824287065129
 31
0.0
  0
LINE
  5
1F3
330
1F0
100
AcDbEntity
  8
0
 62
   123
370
    -2
100
AcDbLine
 10
-5695.052848179444
 20
7275.224287065128
 30
0.0
 11
-5695.052848179444
 21
7328.824287065129
 31
0.0
  0
LINE
  5
1F4
330
1F0
100
AcDbEntity
  8
0
 62
   123
370
    -2
100
AcDbLine
 10
-5772.552848179445
 20
7328.22428706513
 30
0.0
 11
-5697.552848179444
 21
7328.22428706513
 31
0.0
  0
SOLID
  5
1F5
330
1F0
100
AcDbEntity
  8
0
 62
   123
100
AcDbTrace
 10
-5772.552848179445
 20
7328.640953731794
 30
0.0
 11
-5772.552848179445
 21
7327.807620398461
 31
0.0
 12
-5775.052848179445
 22
7328.22428706513
 32
0.0
 13
-5775.052848179445
 23
7328.22428706513
 33
0.0
  0
SOLID
  5
1F6
330
1F0
100
AcDbEntity
  8
0
 62
   123
100
AcDbTrace
 10
-5697.552848179444
 20
7328.640953731794
 30
0.0
 11
-5697.552848179444
 21
7327.807620398461
 31
0.0
 12
-5695.052848179444
 22
7328.22428706513
 32
0.0
 13
-5695.052848179444
 23
7328.22428706513
 33
0.0
  0
MTEXT
  5
1F7
330
1F0
100
AcDbEntity
  8
0
 62
     3
100
AcDbMText
 10
-5735.052848179445
 20
7330.724287065128
 30
0.0
 40
3.0
 41
0.0
 71
     5
 72
     1
  1
\A1;%%C80
 73
     1
 44
1.0
1001
ACAD
1000
MTEXTBEGIN
1070
    73
1070
     1
1070
    44
1040
1.0
1070
    74
1070
     0
1000
MTEXTEND
  0
POINT
  5
1F8
330
1F0
100
AcDbEntity
  8
Defpoints
 62
     0
100
AcDbPoint
 10
-5775.052848179445
 20
7274.224287065128
 30
0.0
  0
POINT
  5
1F9
330
1F0
100
AcDbEntity
  8
Defpoints
 62
     0
100
AcDbPoint
 10
-5695.052848179444
 20
7274.224287065128
 30
0.0
  0
POINT
  5
1FA
330
1F0
100
AcDbEntity
  8
Defpoints
 62
     0
100
AcDbPoint
 10
-5695.052848179444
 20
7328.22428706513
 30
0.0
  0
ENDBLK
  5
1FB
330
1F0
100
AcDbEntity
  8
0
100
AcDbBlockEnd
  0
BLOCK
  5
200
330
1FF
100
AcDbEntity
  8
0
100
AcDbBlockBegin
  2
*D14
 70
     1
 10
0.0
 20
0.0
 30
0.0
  3
*D14
  1

  0
LINE
  5
201
330
1FF
100
AcDbEntity
  8
0
 62
   123
370
    -2
100
AcDbLine
 10
-5723.552848179444
 20
7231.22428706513
 30
0.0
 11
-5682.452848179445
 21
7231.22428706513
 31
0.0
  0
LINE
  5
202
330
1FF
100
AcDbEntity
  8
0
 62
   123
370
    -2
100
AcDbLine
 10
-5723.552848179444
 20
7317.22428706513
 30
0.0
 11
-5682.452848179445
 21
7317.22428706513
 31
0.0
  0
LINE
  5
203
330
1FF
100
AcDbEntity
  8
0
 62
   123
370
    -2
100
AcDbLine
 10
-5683.052848179444
 20
7233.724287065129
 30
0.0
 11
-5683.052848179444
 21
7314.724287065129
 31
0.0
  0
SOLID
  5
204
330
1FF
100
AcDbEntity
  8
0
 62
   123
100
AcDbTrace
 10
-5683.469514846112
 20
7233.724287065129
 30
0.0
 11
-5682.636181512777
 21
7233.724287065129
 31
0.0
 12
-5683.052848179444
 22
7231.22428706513
 32
0.0
 13
-5683.052848179444
 23
7231.22428706513
 33
0.0
  0
SOLID
  5
205
330
1FF
100
AcDbEntity
  8
0
 62
   123
100
AcDbTrace
 10
-5683.469514846112
 20
7314.724287065129
 30
0.0
 11
-5682.636181512777
 21
7314.724287065129
 31
0.0
 12
-5683.052848179444
 22
7317.22428706513
 32
0.0
 13
-5683.052848179444
 23
7317.22428706513
 33
0.0
  0
MTEXT
  5
206
330
1FF
100
AcDbEntity
  8
0
 62
     3
100
AcDbMText
 10
-5685.552848179447
 20
7274.224287065128
 30
0.0
 40
3.0
 41
0.0
 71
     5
 72
     1
  1
\A1;86
 11
0.0000000000000001
 21
1.0
 31
0.0
 73
     1
 44
1.0
1001
ACAD
1000
MTEXTBEGIN
1070
    73
1070
     1
1070
    44
1040
1.0
1070
    74
1070
     0
1000
MTEXTEND
  0
POINT
  5
207
330
1FF
100
AcDbEntity
  8
Defpoints
 62
     0
100
AcDbPoint
 10
-5724.552848179444
 20
7231.22428706513
 30
0.0
  0
POINT
  5
208
330
1FF
100
AcDbEntity
  8
Defpoints
 62
     0
100
AcDbPoint
 10
-5724.552848179444
 20
7317.22428706513
 30
0.0
  0
POINT
  5
209
330
1FF
100
AcDbEntity
  8
Defpoints
 62
     0
100
AcDbPoint
 10
-5683.052848179444
 20
7317.22428706513
 30
0.0
  0
ENDBLK
  5
20A
330
1FF
100
AcDbEntity
  8
0
100
AcDbBlockEnd
  0
BLOCK
  5
2E1
330
2E0
100
AcDbEntity
  8
0
100
AcDbBlockBegin
  2
*D15
 70
     1
 10
0.0
 20
0.0
 30
0.0
  3
*D15
  1

  0
LINE
  5
2E2
330
2E0
100
AcDbEntity
  8
0
 62
   123
370
    -2
100
AcDbLine
 10
-5319.658535208977
 20
7267.389182423362
 30
0.0
 11
-5336.758535208975
 21
7267.389182423362
 31
0.0
  0
LINE
  5
2E3
330
2E0
100
AcDbEntity
  8
0
 62
   123
370
    -2
100
AcDbLine
 10
-5295.158535208977
 20
7275.389182423362
 30
0.0
 11
-5336.758535208975
 21
7275.389182423362
 31
0.0
  0
LINE
  5
2E4
330
2E0
100
AcDbEntity
  8
0
 62
   123
370
    -2
100
AcDbLine
 10
-5336.158535208975
 20
7264.88918242336
 30
0.0
 11
-5336.158535208975
 21
7262.389182423361
 31
0.0
  0
LINE
  5
2E5
330
2E0
100
AcDbEntity
  8
0
 62
   123
370
    -2
100
AcDbLine
 10
-5336.158535208975
 20
7277.889182423361
 30
0.0
 11
-5336.158535208975
 21
7280.389182423362
 31
0.0
  0
LINE
  5
2E6
330
2E0
100
AcDbEntity
  8
0
 62
   123
370
    -2
100
AcDbLine
 10
-5336.158535208975
 20
7267.389182423362
 30
0.0
 11
-5336.158535208975
 21
7275.389182423362
 31
0.0
  0
SOLID
  5
2E7
330
2E0
100
AcDbEntity
  8
0
 62
   123
100
AcDbTrace
 10
-5336.575201875643
 20
7264.88918242336
 30
0.0
 11
-5335.741868542308
 21
7264.88918242336
 31
0.0
 12
-5336.158535208975
 22
7267.389182423362
 32
0.0
 13
-5336.158535208975
 23
7267.389182423362
 33
0.0
  0
SOLID
  5
2E8
330
2E0
100
AcDbEntity
  8
0
 62
   123
100
AcDbTrace
 10
-5336.575201875643
 20
7277.889182423361
 30
0.0
 11
-5335.741868542308
 21
7277.889182423361
 31
0.0
 12
-5336.158535208975
 22
7275.389182423362
 32
0.0
 13
-5336.158535208975
 23
7275.389182423362
 33
0.0
  0
MTEXT
  5
2E9
330
2E0
100
AcDbEntity
  8
0
 62
     3
100
AcDbMText
 10
-5339.608535208977
 20
7271.389182423361
 30
0.0
 40
3.0
 41
0.0
 71
     5
 72
     1
  1
\A1;%%C8{\H0.7x;\S  0^ -0.015;}
 11
0.0000000000000001
 21
1.0
 31
0.0
 73
     1
 44
1.0
1001
ACAD
1000
MTEXTBEGIN
1070
    73
1070
     1
1070
    44
1040
1.0
1070
    74
1070
     0
1000
MTEXTEND
  0
POINT
  5
2EA
330
2E0
100
AcDbEntity
  8
Defpoints
 62
     0
100
AcDbPoint
 10
-5318.658535208977
 20
7267.389182423362
 30
0.0
  0
POINT
  5
2EB
330
2E0
100
AcDbEntity
  8
Defpoints
 62
     0
100
AcDbPoint
 10
-5294.158535208977
 20
7275.389182423362
 30
0.0
  0
POINT
  5
2EC
330
2E0
100
AcDbEntity
  8
Defpoints
 62
     0
100
AcDbPoint
 10
-5336.158535208975
 20
7275.389182423362
 30
0.0
  0
ENDBLK
  5
2ED
330
2E0
100
AcDbEntity
  8
0
100
AcDbBlockEnd
  0
BLOCK
  5
2F2
330
2F1
100
AcDbEntity
  8
0
100
AcDbBlockBegin
  2
*D16
 70
     1
 10
0.0
 20
0.0
 30
0.0
  3
*D16
  1

  0
LINE
  5
2F3
330
2F1
100
AcDbEntity
  8
0
 62
   123
370
    -2
100
AcDbLine
 10
-5319.158535208977
 20
7275.389182423362
 30
0.0
 11
-5319.158535208977
 21
7285.989182423361
 31
0.0
  0
LINE
  5
2F4
330
2F1
100
AcDbEntity
  8
0
 62
   123
370
    -2
100
AcDbLine
 10
-5294.158535208977
 20
7276.389182423361
 30
0.0
 11
-5294.158535208977
 21
7285.989182423361
 31
0.0
  0
LINE
  5
2F5
330
2F1
100
AcDbEntity
  8
0
 62
   123
370
    -2
100
AcDbLine
 10
-5316.658535208977
 20
7285.389182423362
 30
0.0
 11
-5296.658535208977
 21
7285.389182423362
 31
0.0
  0
SOLID
  5
2F6
330
2F1
100
AcDbEntity
  8
0
 62
   123
100
AcDbTrace
 10
-5316.658535208977
 20
7285.805849090029
 30
0.0
 11
-5316.658535208977
 21
7284.972515756695
 31
0.0
 12
-5319.158535208977
 22
7285.389182423362
 32
0.0
 13
-5319.158535208977
 23
7285.389182423362
 33
0.0
  0
SOLID
  5
2F7
330
2F1
100
AcDbEntity
  8
0
 62
   123
100
AcDbTrace
 10
-5296.658535208977
 20
7285.805849090029
 30
0.0
 11
-5296.658535208977
 21
7284.972515756695
 31
0.0
 12
-5294.158535208977
 22
7285.389182423362
 32
0.0
 13
-5294.158535208977
 23
7285.389182423362
 33
0.0
  0
MTEXT
  5
2F8
330
2F1
100
AcDbEntity
  8
0
 62
     3
100
AcDbMText
 10
-5306.658535208977
 20
7287.889182423362
 30
0.0
 40
3.0
 41
0.0
 71
     5
 72
     1
  1
\A1;25
 73
     1
 44
1.0
1001
ACAD
1000
MTEXTBEGIN
1070
    73
1070
     1
1070
    44
1040
1.0
1070
    74
1070
     0
1000
MTEXTEND
  0
POINT
  5
2F9
330
2F1
100
AcDbEntity
  8
Defpoints
 62
     0
100
AcDbPoint
 10
-5319.158535208977
 20
7274.389182423361
 30
0.0
  0
POINT
  5
2FA
330
2F1
100
AcDbEntity
  8
Defpoints
 62
     0
100
AcDbPoint
 10
-5294.158535208977
 20
7275.389182423362
 30
0.0
  0
POINT
  5
2FB
330
2F1
100
AcDbEntity
  8
Defpoints
 62
     0
100
AcDbPoint
 10
-5294.158535208977
 20
7285.389182423362
 30
0.0
  0
ENDBLK
  5
2FC
330
2F1
100
AcDbEntity
  8
0
100
AcDbBlockEnd
  0
BLOCK
  5
320
330
31F
100
AcDbEntity
  8
0
100
AcDbBlockBegin
  2
*D17
 70
     1
 10
0.0
 20
0.0
 30
0.0
  3
*D17
  1

  0
LINE
  5
321
330
31F
100
AcDbEntity
  8
0
 62
   123
370
    -2
100
AcDbLine
 10
-6135.314532328305
 20
7245.426665939793
 30
0.0
 11
-6137.347915474563
 21
7243.972240630431
 31
0.0
  0
LINE
  5
322
330
31F
100
AcDbEntity
  8
0
 62
   123
370
    -2
100
AcDbLine
 10
-6054.792559736428
 20
7303.021908190465
 30
0.0
 11
-6029.864669946441
 21
7320.852169981606
 31
0.0
  0
LINE
  5
323
330
31F
100
AcDbEntity
  8
0
 62
   123
370
    -2
100
AcDbLine
 10
-6133.281149182045
 20
7246.881091249152
 30
0.0
 11
-6056.82594288269
 21
7301.567482881106
 31
0.0
  0
SOLID
  5
324
330
31F
100
AcDbEntity
  8
0
 62
   123
100
AcDbTrace
 10
-6135.556936546531
 20
7245.765563130834
 30
0.0
 11
-6135.072128110078
 21
7245.087768748749
 31
0.0
 12
-6133.281149182045
 22
7246.881091249152
 32
0.0
 13
-6133.281149182045
 23
7246.881091249152
 33
0.0
  0
SOLID
  5
325
330
31F
100
AcDbEntity
  8
0
 62
   123
100
AcDbTrace
 10
-6055.034963954657
 20
7303.360805381508
 30
0.0
 11
-6054.550155518203
 21
7302.683010999422
 31
0.0
 12
-6056.82594288269
 22
7301.567482881106
 32
0.0
 13
-6056.82594288269
 23
7301.567482881106
 33
0.0
  0
MTEXT
  5
326
102
{ACAD_XDICTIONARY
360
D97
102
}
330
31F
100
AcDbEntity
  8
0
 62
     3
100
AcDbMText
 10
-6039.626917824806
 20
7316.943186863911
 30
0.0
 40
3.0
 41
0.0
 71
     5
 72
     1
  1
\A1;\U+220594%%P0.5
 11
0.8133532585037761
 21
0.5817701237441551
 31
0.0
 73
     1
 44
1.0
1001
ACAD
1000
MTEXTBEGIN
1070
    73
1070
     1
1070
    44
1040
1.0
1070
    74
1070
     0
1000
MTEXTEND
  0
POINT
  5
327
330
31F
100
AcDbEntity
  8
Defpoints
 62
     0
100
AcDbPoint
 10
-6056.82594288269
 20
7301.567482881106
 30
0.0
  0
POINT
  5
328
330
31F
100
AcDbEntity
  8
Defpoints
 62
     0
100
AcDbPoint
 10
-6133.281149182045
 20
7246.881091249152
 30
0.0
  0
ENDBLK
  5
329
330
31F
100
AcDbEntity
  8
0
100
AcDbBlockEnd
  0
BLOCK
  5
32F
330
32E
100
AcDbEntity
  8
0
100
AcDbBlockBegin
  2
*D18
 70
     1
 10
0.0
 20
0.0
 30
0.0
  3
*D18
  1

  0
LINE
  5
330
330
32E
100
AcDbEntity
  8
0
 62
   123
370
    -2
100
AcDbLine
 10
-5960.896415561315
 20
7315.224287065127
 30
0.0
 11
-5960.896415561315
 21
7331.05870913583
 31
0.0
  0
LINE
  5
331
330
32E
100
AcDbEntity
  8
0
 62
   123
370
    -2
100
AcDbLine
 10
-5954.396415561316
 20
7315.224287065127
 30
0.0
 11
-5954.396415561316
 21
7331.05870913583
 31
0.0
  0
LINE
  5
332
330
32E
100
AcDbEntity
  8
0
 62
   123
370
    -2
100
AcDbLine
 10
-5963.396415561319
 20
7330.45870913583
 30
0.0
 11
-5965.896415561317
 21
7330.45870913583
 31
0.0
  0
LINE
  5
333
330
32E
100
AcDbEntity
  8
0
 62
   123
370
    -2
100
AcDbLine
 10
-5951.896415561318
 20
7330.45870913583
 30
0.0
 11
-5949.396415561317
 21
7330.45870913583
 31
0.0
  0
LINE
  5
334
330
32E
100
AcDbEntity
  8
0
 62
   123
370
    -2
100
AcDbLine
 10
-5960.896415561315
 20
7330.45870913583
 30
0.0
 11
-5954.396415561316
 21
7330.45870913583
 31
0.0
  0
SOLID
  5
335
330
32E
100
AcDbEntity
  8
0
 62
   123
100
AcDbTrace
 10
-5963.396415561319
 20
7330.875375802496
 30
0.0
 11
-5963.396415561319
 21
7330.042042469163
 31
0.0
 12
-5960.896415561315
 22
7330.45870913583
 32
0.0
 13
-5960.896415561315
 23
7330.45870913583
 33
0.0
  0
SOLID
  5
336
330
32E
100
AcDbEntity
  8
0
 62
   123
100
AcDbTrace
 10
-5951.896415561318
 20
7330.875375802496
 30
0.0
 11
-5951.896415561318
 21
7330.042042469163
 31
0.0
 12
-5954.396415561316
 22
7330.45870913583
 32
0.0
 13
-5954.396415561316
 23
7330.45870913583
 33
0.0
  0
MTEXT
  5
337
330
32E
100
AcDbEntity
  8
0
 62
     3
100
AcDbMText
 10
-5957.646415561317
 20
7332.95870913583
 30
0.0
 40
3.0
 41
0.0
 71
     5
 72
     1
  1
\A1;6.5
 73
     1
 44
1.0
1001
ACAD
1000
MTEXTBEGIN
1070
    73
1070
     1
1070
    44
1040
1.0
1070
    74
1070
     0
1000
MTEXTEND
  0
POINT
  5
338
330
32E
100
AcDbEntity
  8
Defpoints
 62
     0
100
AcDbPoint
 10
-5960.896415561315
 20
7314.22428706513
 30
0.0
  0
POINT
  5
339
330
32E
100
AcDbEntity
  8
Defpoints
 62
     0
100
AcDbPoint
 10
-5954.396415561316
 20
7314.22428706513
 30
0.0
  0
POINT
  5
33A
330
32E
100
AcDbEntity
  8
Defpoints
 62
     0
100
AcDbPoint
 10
-5954.396415561316
 20
7330.45870913583
 30
0.0
  0
ENDBLK
  5
33B
330
32E
100
AcDbEntity
  8
0
100
AcDbBlockEnd
  0
BLOCK
  5
340
330
33F
100
AcDbEntity
  8
0
100
AcDbBlockBegin
  2
*D19
 70
     1
 10
0.0
 20
0.0
 30
0.0
  3
*D19
  1

  0
LINE
  5
341
330
33F
100
AcDbEntity
  8
0
 62
   123
370
    -2
100
AcDbLine
 10
-5470.925808561379
 20
7242.452383359472
 30
0.0
 11
-5472.954145503249
 21
7240.990928861295
 31
0.0
  0
LINE
  5
342
330
33F
100
AcDbEntity
  8
0
 62
   123
370
    -2
100
AcDbLine
 10
-5390.603665663268
 20
7300.325981487254
 30
0.0
 11
-5366.46536504745
 21
7317.718076106792
 31
0.0
  0
LINE
  5
343
330
33F
100
AcDbEntity
  8
0
 62
   123
370
    -2
100
AcDbLine
 10
-5468.897471619506
 20
7243.913837857649
 30
0.0
 11
-5392.632002605139
 21
7298.864526989077
 31
0.0
  0
SOLID
  5
344
330
33F
100
AcDbEntity
  8
0
 62
   123
100
AcDbTrace
 10
-5471.169384311071
 20
7242.790439516449
 30
0.0
 11
-5470.682232811681
 21
7242.114327202493
 31
0.0
 12
-5468.897471619506
 22
7243.913837857649
 32
0.0
 13
-5468.897471619506
 23
7243.913837857649
 33
0.0
  0
SOLID
  5
345
330
33F
100
AcDbEntity
  8
0
 62
   123
100
AcDbTrace
 10
-5390.847241412964
 20
7300.664037644231
 30
0.0
 11
-5390.360089913571
 21
7299.987925330275
 31
0.0
 12
-5392.632002605139
 22
7298.864526989077
 32
0.0
 13
-5392.632002605139
 23
7298.864526989077
 33
0.0
  0
MTEXT
  5
346
102
{ACAD_XDICTIONARY
360
D99
102
}
330
33F
100
AcDbEntity
  8
0
 62
     3
100
AcDbMText
 10
-5376.214024765272
 20
7313.775327527539
 30
0.0
 40
3.0
 41
0.0
 71
     5
 72
     1
  1
\A1;\U+220594%%P0.5
 11
0.8113347767485542
 21
0.5845817992705329
 31
0.0
 73
     1
 44
1.0
1001
ACAD
1000
MTEXTBEGIN
1070
    73
1070
     1
1070
    44
1040
1.0
1070
    74
1070
     0
1000
MTEXTEND
  0
POINT
  5
347
330
33F
100
AcDbEntity
  8
Defpoints
 62
     0
100
AcDbPoint
 10
-5392.632002605139
 20
7298.864526989077
 30
0.0
  0
POINT
  5
348
330
33F
100
AcDbEntity
  8
Defpoints
 62
     0
100
AcDbPoint
 10
-5468.897471619506
 20
7243.913837857649
 30
0.0
  0
ENDBLK
  5
349
330
33F
100
AcDbEntity
  8
0
100
AcDbBlockEnd
  0
BLOCK
  5
353
330
352
100
AcDbEntity
  8
0
100
AcDbBlockBegin
  2
*D20
 70
     1
 10
0.0
 20
0.0
 30
0.0
  3
*D20
  1

  0
LINE
  5
354
330
352
100
AcDbEntity
  8
0
 62
   123
370
    -2
100
AcDbLine
 10
-5960.896415561315
 20
7315.224287065127
 30
0.0
 11
-5960.896415561315
 21
7322.909907568952
 31
0.0
  0
LINE
  5
355
330
352
100
AcDbEntity
  8
0
 62
   123
370
    -2
100
AcDbLine
 10
-5962.896415561317
 20
7311.22428706513
 30
0.0
 11
-5962.896415561317
 21
7322.909907568952
 31
0.0
  0
LINE
  5
356
330
352
100
AcDbEntity
  8
0
 62
   123
370
    -2
100
AcDbLine
 10
-5958.396415561317
 20
7322.309907568952
 30
0.0
 11
-5955.896415561316
 21
7322.309907568952
 31
0.0
  0
LINE
  5
357
330
352
100
AcDbEntity
  8
0
 62
   123
370
    -2
100
AcDbLine
 10
-5965.396415561317
 20
7322.309907568952
 30
0.0
 11
-5972.212746558829
 21
7322.309907568952
 31
0.0
  0
LINE
  5
358
330
352
100
AcDbEntity
  8
0
 62
   123
370
    -2
100
AcDbLine
 10
-5960.896415561315
 20
7322.309907568952
 30
0.0
 11
-5962.896415561317
 21
7322.309907568952
 31
0.0
  0
SOLID
  5
359
330
352
100
AcDbEntity
  8
0
 62
   123
100
AcDbTrace
 10
-5958.396415561317
 20
7322.726574235618
 30
0.0
 11
-5958.396415561317
 21
7321.893240902284
 31
0.0
 12
-5960.896415561315
 22
7322.309907568952
 32
0.0
 13
-5960.896415561315
 23
7322.309907568952
 33
0.0
  0
SOLID
  5
35A
330
352
100
AcDbEntity
  8
0
 62
   123
100
AcDbTrace
 10
-5965.396415561317
 20
7322.726574235618
 30
0.0
 11
-5965.396415561317
 21
7321.893240902284
 31
0.0
 12
-5962.896415561317
 22
7322.309907568952
 32
0.0
 13
-5962.896415561317
 23
7322.309907568952
 33
0.0
  0
MTEXT
  5
35B
330
352
100
AcDbEntity
  8
0
 62
     3
100
AcDbMText
 10
-5970.212746558829
 20
7324.809907568952
 30
0.0
 40
3.0
 41
0.0
 71
     5
 72
     1
  1
\A1;2
 73
     1
 44
1.0
1001
ACAD
1000
MTEXTBEGIN
1070
    73
1070
     1
1070
    44
1040
1.0
1070
    74
1070
     0
1000
MTEXTEND
  0
POINT
  5
35C
330
352
100
AcDbEntity
  8
Defpoints
 62
     0
100
AcDbPoint
 10
-5960.896415561315
 20
7314.22428706513
 30
0.0
  0
POINT
  5
35D
330
352
100
AcDbEntity
  8
Defpoints
 62
     0
100
AcDbPoint
 10
-5962.896415561317
 20
7310.224287065128
 30
0.0
  0
POINT
  5
35E
330
352
100
AcDbEntity
  8
Defpoints
 62
     0
100
AcDbPoint
 10
-5962.896415561317
 20
7322.309907568952
 30
0.0
  0
ENDBLK
  5
35F
330
352
100
AcDbEntity
  8
0
100
AcDbBlockEnd
  0
BLOCK
  5
3FF
330
3FE
100
AcDbEntity
  8
0
100
AcDbBlockBegin
  2
*D21
 70
     1
 10
0.0
 20
0.0
 30
0.0
  3
*D21
  1

  0
LINE
  5
400
330
3FE
100
AcDbEntity
  8
0
 62
   123
370
    -2
100
AcDbLine
 10
-5101.314967827103
 20
7272.389182423362
 30
0.0
 11
-5101.314967827103
 21
7325.989182423362
 31
0.0
  0
LINE
  5
401
330
3FE
100
AcDbEntity
  8
0
 62
   123
370
    -2
100
AcDbLine
 10
-5021.314967827103
 20
7272.389182423362
 30
0.0
 11
-5021.314967827103
 21
7325.989182423362
 31
0.0
  0
LINE
  5
402
330
3FE
100
AcDbEntity
  8
0
 62
   123
370
    -2
100
AcDbLine
 10
-5098.814967827102
 20
7325.389182423362
 30
0.0
 11
-5023.814967827103
 21
7325.389182423362
 31
0.0
  0
SOLID
  5
403
330
3FE
100
AcDbEntity
  8
0
 62
   123
100
AcDbTrace
 10
-5098.814967827102
 20
7325.805849090028
 30
0.0
 11
-5098.814967827102
 21
7324.972515756694
 31
0.0
 12
-5101.314967827103
 22
7325.389182423362
 32
0.0
 13
-5101.314967827103
 23
7325.389182423362
 33
0.0
  0
SOLID
  5
404
330
3FE
100
AcDbEntity
  8
0
 62
   123
100
AcDbTrace
 10
-5023.814967827103
 20
7325.805849090028
 30
0.0
 11
-5023.814967827103
 21
7324.972515756694
 31
0.0
 12
-5021.314967827103
 22
7325.389182423362
 32
0.0
 13
-5021.314967827103
 23
7325.389182423362
 33
0.0
  0
MTEXT
  5
405
330
3FE
100
AcDbEntity
  8
0
 62
     3
100
AcDbMText
 10
-5061.314967827103
 20
7327.889182423361
 30
0.0
 40
3.0
 41
0.0
 71
     5
 72
     1
  1
\A1;%%C80
 73
     1
 44
1.0
1001
ACAD
1000
MTEXTBEGIN
1070
    73
1070
     1
1070
    44
1040
1.0
1070
    74
1070
     0
1000
MTEXTEND
  0
POINT
  5
406
330
3FE
100
AcDbEntity
  8
Defpoints
 62
     0
100
AcDbPoint
 10
-5101.314967827103
 20
7271.389182423361
 30
0.0
  0
POINT
  5
407
330
3FE
100
AcDbEntity
  8
Defpoints
 62
     0
100
AcDbPoint
 10
-5021.314967827103
 20
7271.389182423361
 30
0.0
  0
POINT
  5
408
330
3FE
100
AcDbEntity
  8
Defpoints
 62
     0
100
AcDbPoint
 10
-5021.314967827103
 20
7325.389182423362
 30
0.0
  0
ENDBLK
  5
409
330
3FE
100
AcDbEntity
  8
0
100
AcDbBlockEnd
  0
BLOCK
  5
40E
330
40D
100
AcDbEntity
  8
0
100
AcDbBlockBegin
  2
*D22
 70
     1
 10
0.0
 20
0.0
 30
0.0
  3
*D22
  1

  0
LINE
  5
40F
330
40D
100
AcDbEntity
  8
0
 62
   123
370
    -2
100
AcDbLine
 10
-5049.814967827103
 20
7228.389182423363
 30
0.0
 11
-5008.714967827103
 21
7228.389182423363
 31
0.0
  0
LINE
  5
410
330
40D
100
AcDbEntity
  8
0
 62
   123
370
    -2
100
AcDbLine
 10
-5049.814967827103
 20
7314.389182423362
 30
0.0
 11
-5008.714967827103
 21
7314.389182423362
 31
0.0
  0
LINE
  5
411
330
40D
100
AcDbEntity
  8
0
 62
   123
370
    -2
100
AcDbLine
 10
-5009.314967827103
 20
7230.889182423364
 30
0.0
 11
-5009.314967827103
 21
7311.889182423361
 31
0.0
  0
SOLID
  5
412
330
40D
100
AcDbEntity
  8
0
 62
   123
100
AcDbTrace
 10
-5009.73163449377
 20
7230.889182423364
 30
0.0
 11
-5008.898301160436
 21
7230.889182423364
 31
0.0
 12
-5009.314967827103
 22
7228.389182423363
 32
0.0
 13
-5009.314967827103
 23
7228.389182423363
 33
0.0
  0
SOLID
  5
413
330
40D
100
AcDbEntity
  8
0
 62
   123
100
AcDbTrace
 10
-5009.73163449377
 20
7311.889182423361
 30
0.0
 11
-5008.898301160436
 21
7311.889182423361
 31
0.0
 12
-5009.314967827103
 22
7314.389182423362
 32
0.0
 13
-5009.314967827103
 23
7314.389182423362
 33
0.0
  0
MTEXT
  5
414
330
40D
100
AcDbEntity
  8
0
 62
     3
100
AcDbMText
 10
-5011.814967827104
 20
7271.389182423361
 30
0.0
 40
3.0
 41
0.0
 71
     5
 72
     1
  1
\A1;86
 11
0.0000000000000001
 21
1.0
 31
0.0
 73
     1
 44
1.0
1001
ACAD
1000
MTEXTBEGIN
1070
    73
1070
     1
1070
    44
1040
1.0
1070
    74
1070
     0
1000
MTEXTEND
  0
POINT
  5
415
330
40D
100
AcDbEntity
  8
Defpoints
 62
     0
100
AcDbPoint
 10
-5050.814967827103
 20
7228.389182423363
 30
0.0
  0
POINT
  5
416
330
40D
100
AcDbEntity
  8
Defpoints
 62
     0
100
AcDbPoint
 10
-5050.814967827103
 20
7314.389182423362
 30
0.0
  0
POINT
  5
417
330
40D
100
AcDbEntity
  8
Defpoints
 62
     0
100
AcDbPoint
 10
-5009.314967827103
 20
7314.389182423362
 30
0.0
  0
ENDBLK
  5
418
330
40D
100
AcDbEntity
  8
0
100
AcDbBlockEnd
  0
ENDSEC
  0
SECTION
  2
ENTITIES
  0
LINE
  5
7F
330
2
100
AcDbEntity
  8
0
  6
CENTER
 62
     1
100
AcDbLine
 10
-5836.396415561317
 20
7274.224287065128
 30
0.0
 11
-5977.396415561315
 21
7274.224287065128
 31
0.0
  0
LINE
  5
81
330
2
100
AcDbEntity
  8
0
100
AcDbLine
 10
-5967.396415561317
 20
7276.704837065128
 30
0.0
 11
-5974.396415561319
 21
7276.704837065128
 31
0.0
  0
LINE
  5
82
330
2
100
AcDbEntity
  8
0
100
AcDbLine
 10
-5962.896415561317
 20
7277.829837065128
 30
0.0
 11
-5973.896415561316
 21
7277.829837065128
 31
0.0
  0
ARC
  5
83
330
2
100
AcDbEntity
  8
0
100
AcDbCircle
 10
-5973.896415561316
 20
7277.329837065129
 30
0.0
 40
0.5
100
AcDbArc
 50
90.0
 51
180.0
  0
LINE
  5
84
330
2
100
AcDbEntity
  8
0
  6
CENTER
 62
     1
100
AcDbLine
 10
-5962.968168165335
 20
7277.329837065129
 30
0.0
 11
-5975.396415561316
 21
7277.329837065129
 31
0.0
  0
LINE
  5
85
330
2
100
AcDbEntity
  8
0
100
AcDbLine
 10
-5842.396415561317
 20
7267.22428706513
 30
0.0
 11
-5845.896415561316
 21
7267.22428706513
 31
0.0
  0
LINE
  5
86
330
2
100
AcDbEntity
  8
0
100
AcDbLine
 10
-5974.396415561319
 20
7271.11873706513
 30
0.0
 11
-5974.396415561319
 21
7277.329837065129
 31
0.0
  0
LINE
  5
87
330
2
100
AcDbEntity
  8
0
  6
PHANTOM
 62
     6
 48
0.5
100
AcDbLine
 10
-5967.396415561317
 20
7270.618737065129
 30
0.0
 11
-5967.396415561317
 21
7277.829837065128
 31
0.0
  0
LINE
  5
89
330
2
100
AcDbEntity
  8
0
100
AcDbLine
 10
-5874.896415561316
 20
7234.224287065128
 30
0.0
 11
-5874.896415561316
 21
7314.22428706513
 31
0.0
  0
LINE
  5
8A
330
2
100
AcDbEntity
  8
0
  6
PHANTOM
 62
     6
 48
3.0
100
AcDbLine
 10
-5862.567044334933
 20
7221.152665798499
 30
0.0
 11
-5851.475290318422
 21
7227.556492965717
 31
0.0
  0
LINE
  5
8B
330
2
100
AcDbEntity
  8
0
100
AcDbLine
 10
-5860.196415561312
 20
7246.545883024722
 30
0.0
 11
-5860.196415561316
 21
7222.521348959095
 31
0.0
  0
LINE
  5
8C
330
2
100
AcDbEntity
  8
0
100
AcDbLine
 10
-5854.596415561314
 20
7246.545883024719
 30
0.0
 11
-5854.596415561317
 21
7225.754510466557
 31
0.0
  0
LINE
  5
8D
330
2
100
AcDbEntity
  8
0
100
AcDbLine
 10
-5857.396415561318
 20
7247.354287065128
 30
0.0
 11
-5857.396415561318
 21
7224.137929712823
 31
0.0
  0
LINE
  5
8E
330
2
100
AcDbEntity
  8
0
100
AcDbLine
 10
-5845.896415561316
 20
7260.510001350843
 30
0.0
 11
-5845.896415561316
 21
7287.938572779414
 31
0.0
  0
LINE
  5
8F
330
2
100
AcDbEntity
  8
0
100
AcDbLine
 10
-5839.396415561321
 20
7239.22428706513
 30
0.0
 11
-5839.396415561314
 21
7309.224287065127
 31
0.0
  0
LINE
  5
90
330
2
100
AcDbEntity
  8
0
100
AcDbLine
 10
-5874.396415561317
 20
7317.22428706513
 30
0.0
 11
-5874.396415561315
 21
7312.053287065127
 31
0.0
  0
LINE
  5
91
330
2
100
AcDbEntity
  8
0
100
AcDbLine
 10
-5842.396415561317
 20
7314.22428706513
 30
0.0
 11
-5845.896415561316
 21
7314.22428706513
 31
0.0
  0
ARC
  5
92
330
2
100
AcDbEntity
  8
0
100
AcDbCircle
 10
-5842.396415561317
 20
7311.724287065128
 30
0.0
 40
2.5
100
AcDbArc
 50
0.0
 51
90.0
  0
LINE
  5
93
330
2
100
AcDbEntity
  8
0
100
AcDbLine
 10
-5848.396415561317
 20
7317.22428706513
 30
0.0
 11
-5874.396415561317
 21
7317.22428706513
 31
0.0
  0
ARC
  5
94
330
2
100
AcDbEntity
  8
0
100
AcDbCircle
 10
-5848.396415561317
 20
7314.724287065129
 30
0.0
 40
2.5
100
AcDbArc
 50
0.0
 51
90.0
  0
LINE
  5
95
330
2
100
AcDbEntity
  8
0
100
AcDbLine
 10
-5845.896415561316
 20
7314.724287065129
 30
0.0
 11
-5845.896415561316
 21
7314.22428706513
 31
0.0
  0
LINE
  5
96
330
2
100
AcDbEntity
  8
0
100
AcDbLine
 10
-5839.396415561317
 20
7309.224287065127
 30
0.0
 11
-5839.896415561316
 21
7309.224287065127
 31
0.0
  0
LINE
  5
97
330
2
100
AcDbEntity
  8
0
100
AcDbLine
 10
-5874.396415561317
 20
7231.224287065128
 30
0.0
 11
-5874.396415561317
 21
7236.395287065128
 31
0.0
  0
LINE
  5
98
330
2
100
AcDbEntity
  8
0
100
AcDbLine
 10
-5842.396415561317
 20
7234.224287065128
 30
0.0
 11
-5845.896415561316
 21
7234.224287065128
 31
0.0
  0
ARC
  5
99
330
2
100
AcDbEntity
  8
0
100
AcDbCircle
 10
-5842.396415561317
 20
7236.724287065128
 30
0.0
 40
2.5
100
AcDbArc
 50
270.0
 51
0.0
  0
LINE
  5
9A
330
2
100
AcDbEntity
  8
0
100
AcDbLine
 10
-5848.396415561317
 20
7231.224287065128
 30
0.0
 11
-5854.596415561317
 21
7231.224287065128
 31
0.0
  0
LINE
  5
9B
330
2
100
AcDbEntity
  8
0
100
AcDbLine
 10
-5860.196415561312
 20
7231.224287065128
 30
0.0
 11
-5874.396415561317
 21
7231.224287065128
 31
0.0
  0
LINE
  5
9C
330
2
100
AcDbEntity
  8
0
100
AcDbLine
 10
-5860.196415561312
 20
7236.395287065128
 30
0.0
 11
-5874.396415561317
 21
7236.395287065128
 31
0.0
  0
ARC
  5
9D
330
2
100
AcDbEntity
  8
0
100
AcDbCircle
 10
-5848.396415561317
 20
7233.724287065128
 30
0.0
 40
2.5
100
AcDbArc
 50
270.0
 51
0.0
  0
LINE
  5
9E
330
2
100
AcDbEntity
  8
0
100
AcDbLine
 10
-5839.896415561316
 20
7236.724287065128
 30
0.0
 11
-5839.896415561316
 21
7311.724287065128
 31
0.0
  0
LINE
  5
9F
330
2
100
AcDbEntity
  8
0
100
AcDbLine
 10
-5845.896415561316
 20
7233.724287065128
 30
0.0
 11
-5845.896415561316
 21
7234.224287065128
 31
0.0
  0
LINE
  5
A0
330
2
100
AcDbEntity
  8
0
100
AcDbLine
 10
-5839.396415561317
 20
7239.22428706513
 30
0.0
 11
-5839.896415561316
 21
7239.22428706513
 31
0.0
  0
LINE
  5
A1
102
{ACAD_REACTORS
330
32D
102
}
330
2
100
AcDbEntity
  8
0
100
AcDbLine
 10
-5954.396415561316
 20
7234.224287065128
 30
0.0
 11
-5954.396415561316
 21
7314.22428706513
 31
0.0
  0
ARC
  5
A2
330
2
100
AcDbEntity
  8
0
100
AcDbCircle
 10
-5858.896415561318
 20
7196.387631376511
 30
0.0
 40
40.00765568861701
100
AcDbArc
 50
71.03819276406248
 51
83.82996400590286
  0
ELLIPSE
  5
A3
330
2
100
AcDbEntity
  8
0
100
AcDbEllipse
 10
-5857.396415561318
 20
7246.665220536758
 30
0.0
 11
8.999999999999516
 21
0.0000000000009438
 31
0.0
210
0.0
220
0.0
230
1.0
 40
0.7071111111111527
 41
1.570796326794821
 42
3.860379041339751
  0
SPLINE
  5
A4
330
2
100
AcDbEntity
  8
0
100
AcDbSpline
210
0.0
220
0.0
230
1.0
 70
     8
 71
     3
 72
    26
 73
    22
 74
     0
 42
0.0000000001
 43
0.0000000001
 40
3.141592653589792
 40
3.141592653589792
 40
3.141592653589792
 40
3.141592653589792
 40
3.467218823503951
 40
3.467218823503951
 40
3.79284499341811
 40
3.79284499341811
 40
4.118471163332269
 40
4.118471163332269
 40
4.444097333246427
 40
4.444097333246427
 40
4.769723503160586
 40
4.769723503160586
 40
5.095349673074747
 40
5.095349673074747
 40
5.420975842988904
 40
5.420975842988904
 40
5.746602012903065
 40
5.746602012903065
 40
6.072228182817222
 40
6.072228182817222
 40
6.283185307179584
 40
6.283185307179584
 40
6.283185307179584
 40
6.283185307179584
 10
-5849.896415561318
 20
7245.940287065129
 30
0.0
 10
-5849.896415561318
 20
7246.400797650622
 30
0.0
 10
-5850.000460694412
 20
7246.863827081667
 30
0.0
 10
-5850.44546412098
 20
7247.79577250926
 30
0.0
 10
-5850.78994839603
 20
7248.263531338081
 30
0.0
 10
-5851.727405227494
 20
7249.133252514113
 30
0.0
 10
-5852.31980765466
 20
7249.533121305344
 30
0.0
 10
-5853.692634083937
 20
7250.188608989262
 30
0.0
 10
-5854.472089750274
 20
7250.443839322096
 30
0.0
 10
-5856.121698380484
 20
7250.764521333739
 30
0.0
 10
-5856.991262222159
 20
7250.829970201086
 30
0.0
 10
-5858.711366064351
 20
7250.760157446752
 30
0.0
 10
-5859.561405460439
 20
7250.624891176419
 30
0.0
 10
-5861.135572392591
 20
7250.176474650904
 30
0.0
 10
-5861.85900691608
 20
7249.863377812046
 30
0.0
 10
-5863.092650896035
 20
7249.115731703319
 30
0.0
 10
-5863.601783640955
 20
7248.681994514896
 30
0.0
 10
-5864.365532622854
 20
7247.774025131203
 30
0.0
 10
-5864.620661666609
 20
7247.302455537388
 30
0.0
 10
-5864.852384004868
 20
7246.537297465966
 30
0.0
 10
-5864.896415561315
 20
7246.238629145189
 30
0.0
 10
-5864.896415561315
 20
7245.940287065129
 30
0.0
  0
SPLINE
  5
A5
330
2
100
AcDbEntity
  8
0
100
AcDbSpline
210
0.0
220
0.0
230
1.0
 70
     8
 71
     3
 72
    42
 73
    38
 74
     0
 42
0.0000000001
 43
0.0000000001
 40
1.932891985193865
 40
1.932891985193865
 40
1.932891985193865
 40
1.932891985193865
 40
2.112657033612368
 40
2.112657033612368
 40
2.446561407782708
 40
2.446561407782708
 40
2.780465781953048
 40
2.780465781953048
 40
3.11437015612339
 40
3.11437015612339
 40
3.448274530293731
 40
3.448274530293731
 40
3.782178904464071
 40
3.782178904464071
 40
4.116083278634412
 40
4.116083278634412
 40
4.44998765280475
 40
4.44998765280475
 40
4.783892026975093
 40
4.783892026975093
 40
5.117796401145433
 40
5.117796401145433
 40
5.451700775315773
 40
5.451700775315773
 40
5.785605149486112
 40
5.785605149486112
 40
6.119509523656454
 40
6.119509523656454
 40
6.453413897826794
 40
6.453413897826794
 40
6.787318271997133
 40
6.787318271997133
 40
7.121222646167476
 40
7.121222646167476
 40
7.455127020337816
 40
7.455127020337816
 40
7.491888099862732
 40
7.491888099862732
 40
7.491888099862732
 40
7.491888099862732
 10
-5854.596415561317
 20
7240.023900319184
 30
0.0
 10
-5854.157624681761
 20
7240.141489319059
 30
0.0
 10
-5853.736903178549
 20
7240.286138427409
 30
0.0
 10
-5852.609377285116
 20
7240.766074146709
 30
0.0
 10
-5851.968080513243
 20
7241.159021077009
 30
0.0
 10
-5850.940468723612
 20
7242.030464684249
 30
0.0
 10
-5850.555055234174
 20
7242.506917620324
 30
0.0
 10
-5850.044971110264
 20
7243.461897165133
 30
0.0
 10
-5849.916826626638
 20
7243.938478304578
 30
0.0
 10
-5849.880451869382
 20
7244.883088221364
 30
0.0
 10
-5849.971364265853
 20
7245.356683919299
 30
0.0
 10
-5850.399310037831
 20
7246.312260868855
 30
0.0
 10
-5850.74053326396
 20
7246.793379327245
 30
0.0
 10
-5851.685481861218
 20
7247.689722155761
 30
0.0
 10
-5852.288657338291
 20
7248.102499560414
 30
0.0
 10
-5853.693612449907
 20
7248.776787324842
 30
0.0
 10
-5854.494291607199
 20
7249.037845266267
 30
0.0
 10
-5856.189103605689
 20
7249.359734337662
 30
0.0
 10
-5857.082572385762
 20
7249.420562954556
 30
0.0
 10
-5858.844470810221
 20
7249.331328187029
 30
0.0
 10
-5859.712329635941
 20
7249.181258546141
 30
0.0
 10
-5861.308376254509
 20
7248.696891444044
 30
0.0
 10
-5862.035748882187
 20
7248.362676136641
 30
0.0
 10
-5863.259440699549
 20
7247.573683764729
 30
0.0
 10
-5863.754540978093
 20
7247.120004365801
 30
0.0
 10
-5864.476493806158
 20
7246.180140335906
 30
0.0
 10
-5864.704527677687
 20
7245.697001510496
 30
0.0
 10
-5864.926356670806
 20
7244.74723052333
 30
0.0
 10
-5864.924260795572
 20
7244.277555906736
 30
0.0
 10
-5864.693294664196
 20
7243.327432760057
 30
0.0
 10
-5864.460232252923
 20
7242.844122509821
 30
0.0
 10
-5863.727995261633
 20
7241.905585890579
 30
0.0
 10
-5863.227742584411
 20
7241.453406567579
 30
0.0
 10
-5861.995140312426
 20
7240.669067001064
 30
0.0
 10
-5861.264010681573
 20
7240.337966267576
 30
0.0
 10
-5860.375135173751
 20
7240.073074652372
 30
0.0
 10
-5860.286152879506
 20
7240.047907859992
 30
0.0
 10
-5860.196415561316
 20
7240.02387187081
 30
0.0
  0
ELLIPSE
  5
A6
330
2
100
AcDbEntity
  8
0
100
AcDbEllipse
 10
-5857.396415561318
 20
7244.526287065126
 30
0.0
 11
-3.999999999998073
 21
0.0000000000003529
 31
0.0
210
0.0
220
0.0
230
1.0
 40
0.7070000000003339
 41
2.346193823406563
 42
7.078584137364209
  0
LINE
  5
A7
330
2
100
AcDbEntity
  8
0
  6
CENTER
 62
     1
100
AcDbLine
 10
-5735.052848179445
 20
7228.22428706513
 30
0.0
 11
-5735.052848179445
 21
7320.224287065127
 31
0.0
  0
LINE
  5
A8
330
2
100
AcDbEntity
  8
0
  6
CENTER
 62
     1
100
AcDbLine
 10
-5765.052848179444
 20
7265.224287065128
 30
0.0
 11
-5765.052848179444
 21
7283.224287065128
 31
0.0
  0
ARC
  5
A9
102
{ACAD_REACTORS
330
1EF
102
}
330
2
100
AcDbEntity
  8
0
100
AcDbCircle
 10
-5735.052848179445
 20
7274.224287065128
 30
0.0
 40
40.0
100
AcDbArc
 50
235.8069228748108
 51
214.1930771252174
  0
LINE
  5
AA
102
{ACAD_REACTORS
330
1EF
102
}
330
2
100
AcDbEntity
  8
0
  6
CENTER
 62
     1
100
AcDbLine
 10
-5690.052848179444
 20
7274.224287065128
 30
0.0
 11
-5780.052848179444
 21
7274.224287065128
 31
0.0
  0
ARC
  5
AB
330
2
100
AcDbEntity
  8
0
100
AcDbCircle
 10
-5702.174283733896
 20
7262.224287065127
 30
0.0
 40
5.0
100
AcDbArc
 50
339.9489574334742
 51
90.0
  0
LINE
  5
AC
330
2
100
AcDbEntity
  8
0
100
AcDbLine
 10
-5705.052848179445
 20
7267.22428706513
 30
0.0
 11
-5702.174283733896
 21
7267.22428706513
 31
0.0
  0
LINE
  5
AD
330
2
100
AcDbEntity
  8
0
100
AcDbLine
 10
-5705.052848179445
 20
7281.224287065128
 30
0.0
 11
-5702.174283733896
 21
7281.224287065128
 31
0.0
  0
ARC
  5
AE
330
2
100
AcDbEntity
  8
0
100
AcDbCircle
 10
-5702.174283733896
 20
7286.224287065128
 30
0.0
 40
5.0
100
AcDbArc
 50
270.0
 51
20.05104256652568
  0
ARC
  5
AF
330
2
100
AcDbEntity
  8
0
100
AcDbCircle
 10
-5705.052848179445
 20
7274.224287065128
 30
0.0
 40
7.0
100
AcDbArc
 50
90.0
 51
270.0
  0
LINE
  5
B0
330
2
100
AcDbEntity
  8
0
100
AcDbLine
 10
-5755.912498224445
 20
7240.636714958769
 30
0.0
 11
-5768.640420285805
 21
7253.364637020124
 31
0.0
  0
LINE
  5
B1
330
2
100
AcDbEntity
  8
0
 62
   123
100
AcDbLine
 10
-5769.34752706699
 20
7254.071743801313
 30
0.0
 11
-5772.175954191737
 21
7256.900170926058
 31
0.0
  0
LINE
  5
B2
330
2
100
AcDbEntity
  8
0
  6
CENTER
 62
     1
100
AcDbLine
 10
-5760.155138911565
 20
7249.121996333006
 30
0.0
 11
-5765.458439770466
 21
7243.818695474107
 31
0.0
  0
LINE
  5
B3
330
2
100
AcDbEntity
  8
0
100
AcDbLine
 10
-5755.912498224445
 20
7240.636714958769
 30
0.0
 11
-5756.247914707806
 21
7240.301298475408
 31
0.0
  0
ARC
  5
B4
330
2
100
AcDbEntity
  8
0
100
AcDbCircle
 10
-5765.052848179444
 20
7274.224287065128
 30
0.0
 40
7.0
100
AcDbArc
 50
270.0
 51
90.0
  0
LINE
  5
B5
330
2
100
AcDbEntity
  8
0
100
AcDbLine
 10
-5765.052848179444
 20
7281.224287065128
 30
0.0
 11
-5767.93141262499
 21
7281.224287065128
 31
0.0
  0
LINE
  5
B6
330
2
100
AcDbEntity
  8
0
100
AcDbLine
 10
-5765.052848179444
 20
7267.22428706513
 30
0.0
 11
-5767.93141262499
 21
7267.22428706513
 31
0.0
  0
ARC
  5
B7
330
2
100
AcDbEntity
  8
0
100
AcDbCircle
 10
-5767.93141262499
 20
7286.224287065128
 30
0.0
 40
5.0
100
AcDbArc
 50
159.9489574334743
 51
270.0
  0
ARC
  5
B8
330
2
100
AcDbEntity
  8
0
100
AcDbCircle
 10
-5767.93141262499
 20
7262.224287065127
 30
0.0
 40
5.0
100
AcDbArc
 50
90.0
 51
200.0510425665257
  0
LINE
  5
B9
330
2
100
AcDbEntity
  8
0
100
AcDbLine
 10
-5722.052848179444
 20
7233.724287065129
 30
0.0
 11
-5722.052848179444
 21
7236.395726426373
 31
0.0
  0
ARC
  5
BA
330
2
100
AcDbEntity
  8
0
100
AcDbCircle
 10
-5724.552848179444
 20
7233.724287065129
 30
0.0
 40
2.5
100
AcDbArc
 50
270.0
 51
0.0
  0
LINE
  5
BB
330
2
100
AcDbEntity
  8
0
100
AcDbLine
 10
-5748.052848179444
 20
7233.724287065129
 30
0.0
 11
-5748.052848179444
 21
7236.395726426373
 31
0.0
  0
LINE
  5
BC
102
{ACAD_REACTORS
330
1FE
102
}
330
2
100
AcDbEntity
  8
0
100
AcDbLine
 10
-5724.552848179444
 20
7231.22428706513
 30
0.0
 11
-5745.552848179444
 21
7231.22428706513
 31
0.0
  0
ARC
  5
BD
330
2
100
AcDbEntity
  8
0
100
AcDbCircle
 10
-5745.552848179444
 20
7233.724287065129
 30
0.0
 40
2.5
100
AcDbArc
 50
180.0
 51
270.0
  0
LINE
  5
BE
330
2
100
AcDbEntity
  8
0
100
AcDbLine
 10
-5722.052848179444
 20
7314.724287065129
 30
0.0
 11
-5722.052848179444
 21
7312.052847703886
 31
0.0
  0
LINE
  5
BF
330
2
100
AcDbEntity
  8
0
100
AcDbLine
 10
-5748.052848179444
 20
7314.724287065129
 30
0.0
 11
-5748.052848179444
 21
7312.052847703886
 31
0.0
  0
LINE
  5
C0
330
2
100
AcDbEntity
  8
0
100
AcDbLine
 10
-5724.552848179444
 20
7317.22428706513
 30
0.0
 11
-5745.552848179444
 21
7317.22428706513
 31
0.0
  0
ARC
  5
C1
102
{ACAD_REACTORS
330
1FE
102
}
330
2
100
AcDbEntity
  8
0
100
AcDbCircle
 10
-5724.552848179444
 20
7314.724287065129
 30
0.0
 40
2.5
100
AcDbArc
 50
0.0
 51
90.0
  0
ARC
  5
C2
330
2
100
AcDbEntity
  8
0
100
AcDbCircle
 10
-5745.552848179444
 20
7314.724287065129
 30
0.0
 40
2.5
100
AcDbArc
 50
90.0
 51
180.0
  0
LINE
  5
C3
330
2
100
AcDbEntity
  8
0
100
AcDbLine
 10
-5733.552848179445
 20
7248.993983072212
 30
0.0
 11
-5733.552848179445
 21
7257.290592843252
 31
0.0
  0
LINE
  5
C4
330
2
100
AcDbEntity
  8
0
100
AcDbLine
 10
-5736.552848179445
 20
7248.993983072212
 30
0.0
 11
-5736.552848179445
 21
7257.290592843252
 31
0.0
  0
CIRCLE
  5
C5
330
2
100
AcDbEntity
  8
0
100
AcDbCircle
 10
-5735.052848179445
 20
7274.224287065128
 30
0.0
 40
15.0
  0
ARC
  5
C6
330
2
100
AcDbEntity
  8
0
100
AcDbCircle
 10
-5735.052848179445
 20
7274.224287065128
 30
0.0
 40
17.0
100
AcDbArc
 50
275.0620929642539
 51
308.3493345859779
  0
ARC
  5
C7
330
2
100
AcDbEntity
  8
0
100
AcDbCircle
 10
-5735.052848179445
 20
7274.224287065128
 30
0.0
 40
17.0
100
AcDbArc
 50
231.6506654140221
 51
264.9379070357461
  0
CIRCLE
  5
C8
330
2
100
AcDbEntity
  8
0
100
AcDbCircle
 10
-5735.052848179445
 20
7244.224287065128
 30
0.0
 40
1.0
  0
ARC
  5
C9
330
2
100
AcDbEntity
  8
0
100
AcDbCircle
 10
-5735.052848179445
 20
7244.224287065128
 30
0.0
 40
5.0
100
AcDbArc
 50
29.55192387599328
 51
72.54239687632161
  0
ARC
  5
CA
330
2
100
AcDbEntity
  8
0
100
AcDbCircle
 10
-5735.052848179445
 20
7244.224287065128
 30
0.0
 40
5.0
100
AcDbArc
 50
107.4576031236784
 51
150.4480761240067
  0
ARC
  5
CB
330
2
100
AcDbEntity
  8
0
100
AcDbCircle
 10
-5735.052848179445
 20
7244.224287065128
 30
0.0
 40
5.0
100
AcDbArc
 50
203.5781784781646
 51
336.4218215218353
  0
LINE
  5
CC
330
2
100
AcDbEntity
  8
0
100
AcDbLine
 10
-5739.635423874397
 20
7242.22428706513
 30
0.0
 11
-5749.868240805326
 21
7265.670616144429
 31
0.0
  0
LINE
  5
CD
330
2
100
AcDbEntity
  8
0
100
AcDbLine
 10
-5739.402393596416
 20
7246.690347621091
 30
0.0
 11
-5745.600575264312
 21
7260.892165953198
 31
0.0
  0
LINE
  5
CE
330
2
100
AcDbEntity
  8
0
100
AcDbLine
 10
-5730.470272484488
 20
7242.22428706513
 30
0.0
 11
-5720.237455553562
 21
7265.670616144418
 31
0.0
  0
LINE
  5
CF
330
2
100
AcDbEntity
  8
0
100
AcDbLine
 10
-5730.703302762471
 20
7246.690347621091
 30
0.0
 11
-5724.505121094573
 21
7260.892165953198
 31
0.0
  0
LINE
  5
D0
330
2
100
AcDbEntity
  8
0
100
AcDbLine
 10
-5713.952763976375
 20
7288.138477167262
 30
0.0
 11
-5721.137838803379
 21
7283.99017228174
 31
0.0
  0
LINE
  5
D1
330
2
100
AcDbEntity
  8
0
100
AcDbLine
 10
-5712.452763976375
 20
7285.540400955908
 30
0.0
 11
-5719.637838803379
 21
7281.392096070391
 31
0.0
  0
ARC
  5
D2
330
2
100
AcDbEntity
  8
0
100
AcDbCircle
 10
-5735.052848179441
 20
7274.224287065127
 30
0.0
 40
17.0
100
AcDbArc
 50
351.6506654140782
 51
24.93790703566551
  0
CIRCLE
  5
D3
330
2
100
AcDbEntity
  8
0
100
AcDbCircle
 10
-5709.072086065908
 20
7289.224287065126
 30
0.0
 40
0.9999999999999998
  0
ARC
  5
D4
330
2
100
AcDbEntity
  8
0
100
AcDbCircle
 10
-5709.072086065908
 20
7289.224287065126
 30
0.0
 40
4.999999999999999
100
AcDbArc
 50
149.5519238759223
 51
192.5423968763011
  0
ARC
  5
D5
330
2
100
AcDbEntity
  8
0
100
AcDbCircle
 10
-5709.072086065908
 20
7289.224287065126
 30
0.0
 40
4.999999999999999
100
AcDbArc
 50
227.4576031237401
 51
270.4480761240394
  0
ARC
  5
D6
330
2
100
AcDbEntity
  8
0
100
AcDbCircle
 10
-5709.072086065908
 20
7289.224287065126
 30
0.0
 40
4.999999999999999
100
AcDbArc
 50
323.5781784782969
 51
96.42182152176644
  0
LINE
  5
D7
330
2
100
AcDbEntity
  8
0
100
AcDbLine
 10
-5705.04874741086
 20
7286.25566009853
 30
0.0
 11
-5720.237455553562
 21
7265.67061614442
 31
0.0
  0
LINE
  5
D8
330
2
100
AcDbEntity
  8
0
100
AcDbLine
 10
-5709.032984446158
 20
7284.224439961132
 30
0.0
 11
-5718.233029067746
 21
7271.755748013411
 31
0.0
  0
LINE
  5
D9
330
2
100
AcDbEntity
  8
0
100
AcDbLine
 10
-5709.631323105817
 20
7294.192914031724
 30
0.0
 11
-5735.052848179433
 21
7291.331628906533
 31
0.0
  0
LINE
  5
DA
330
2
100
AcDbEntity
  8
0
100
AcDbLine
 10
-5713.382529863133
 20
7291.758073613158
 30
0.0
 11
-5728.780756152615
 21
7290.024947228772
 31
0.0
  0
LINE
  5
DB
330
2
100
AcDbEntity
  8
0
100
AcDbLine
 10
-5757.65293238251
 20
7285.540400955909
 30
0.0
 11
-5750.467857555502
 21
7281.392096070391
 31
0.0
  0
LINE
  5
DC
330
2
100
AcDbEntity
  8
0
100
AcDbLine
 10
-5756.15293238251
 20
7288.138477167262
 30
0.0
 11
-5748.967857555502
 21
7283.990172281743
 31
0.0
  0
ARC
  5
DD
330
2
100
AcDbEntity
  8
0
100
AcDbCircle
 10
-5735.052848179441
 20
7274.224287065128
 30
0.0
 40
17.0
100
AcDbArc
 50
155.0620929642884
 51
188.3493345859216
  0
ARC
  5
DE
330
2
100
AcDbEntity
  8
0
100
AcDbCircle
 10
-5735.052848179441
 20
7274.224287065128
 30
0.0
 40
17.0
100
AcDbArc
 50
111.6506654140468
 51
144.937907035806
  0
CIRCLE
  5
DF
330
2
100
AcDbEntity
  8
0
100
AcDbCircle
 10
-5761.033610292972
 20
7289.224287065128
 30
0.0
 40
1.0
  0
ARC
  5
E0
330
2
100
AcDbEntity
  8
0
100
AcDbCircle
 10
-5761.033610292972
 20
7289.224287065128
 30
0.0
 40
5.0
100
AcDbArc
 50
269.5519238759607
 51
312.5423968762599
  0
ARC
  5
E1
330
2
100
AcDbEntity
  8
0
100
AcDbCircle
 10
-5761.033610292972
 20
7289.224287065128
 30
0.0
 40
5.0
100
AcDbArc
 50
347.4576031237953
 51
30.44807612407768
  0
ARC
  5
E2
330
2
100
AcDbEntity
  8
0
100
AcDbCircle
 10
-5761.033610292972
 20
7289.224287065128
 30
0.0
 40
5.0
100
AcDbArc
 50
83.57817847823353
 51
216.4218215218624
  0
LINE
  5
E3
330
2
100
AcDbEntity
  8
0
100
AcDbLine
 10
-5760.474373253066
 20
7294.192914031724
 30
0.0
 11
-5735.052848179437
 21
7291.331628906533
 31
0.0
  0
LINE
  5
E4
330
2
100
AcDbEntity
  8
0
100
AcDbLine
 10
-5756.723166495754
 20
7291.758073613158
 30
0.0
 11
-5741.324940206271
 21
7290.024947228772
 31
0.0
  0
LINE
  5
E5
330
2
100
AcDbEntity
  8
0
100
AcDbLine
 10
-5765.056948948021
 20
7286.255660098531
 30
0.0
 11
-5749.868240805329
 21
7265.67061614443
 31
0.0
  0
LINE
  5
E6
330
2
100
AcDbEntity
  8
0
100
AcDbLine
 10
-5761.07271191273
 20
7284.224439961132
 30
0.0
 11
-5751.872667291138
 21
7271.755748013411
 31
0.0
  0
ARC
  5
E7
330
2
100
AcDbEntity
  8
0
100
AcDbCircle
 10
-5735.052848179441
 20
7274.224287065127
 30
0.0
 40
17.0
100
AcDbArc
 50
35.06209296437871
 51
68.34933458595314
  0
CIRCLE
  5
E8
330
2
100
AcDbEntity
  8
0
100
AcDbCircle
 10
-5765.052848179444
 20
7274.224287065128
 30
0.0
 40
4.5
  0
ARC
  5
E9
330
2
100
AcDbEntity
  8
0
100
AcDbCircle
 10
-5766.177848179444
 20
7275.34928706513
 30
0.0
 40
0.625
100
AcDbArc
 50
270.0
 51
0.0
  0
ARC
  5
EA
330
2
100
AcDbEntity
  8
0
100
AcDbCircle
 10
-5763.927848179445
 20
7275.34928706513
 30
0.0
 40
0.625
100
AcDbArc
 50
180.0
 51
270.0
  0
LINE
  5
EB
330
2
100
AcDbEntity
  8
0
100
AcDbLine
 10
-5765.552848179445
 20
7271.92428706513
 30
0.0
 11
-5764.552848179445
 21
7271.92428706513
 31
0.0
  0
LINE
  5
EC
330
2
100
AcDbEntity
  8
0
100
AcDbLine
 10
-5765.552848179445
 20
7271.92428706513
 30
0.0
 11
-5765.552848179445
 21
7273.099287065128
 31
0.0
  0
LINE
  5
ED
330
2
100
AcDbEntity
  8
0
100
AcDbLine
 10
-5767.352848179445
 20
7274.724287065128
 30
0.0
 11
-5766.177848179444
 21
7274.724287065128
 31
0.0
  0
LINE
  5
EE
330
2
100
AcDbEntity
  8
0
100
AcDbLine
 10
-5767.352848179445
 20
7273.724287065128
 30
0.0
 11
-5766.177848179444
 21
7273.724287065128
 31
0.0
  0
LINE
  5
EF
330
2
100
AcDbEntity
  8
0
100
AcDbLine
 10
-5767.352848179445
 20
7274.724287065128
 30
0.0
 11
-5767.352848179445
 21
7273.724287065128
 31
0.0
  0
ARC
  5
F0
330
2
100
AcDbEntity
  8
0
100
AcDbCircle
 10
-5766.177848179444
 20
7273.099287065128
 30
0.0
 40
0.625
100
AcDbArc
 50
0.0
 51
90.0
  0
LINE
  5
F1
330
2
100
AcDbEntity
  8
0
100
AcDbLine
 10
-5764.552848179445
 20
7271.92428706513
 30
0.0
 11
-5764.552848179445
 21
7273.099287065128
 31
0.0
  0
LINE
  5
F2
330
2
100
AcDbEntity
  8
0
100
AcDbLine
 10
-5763.927848179445
 20
7274.724287065128
 30
0.0
 11
-5762.752848179444
 21
7274.724287065128
 31
0.0
  0
LINE
  5
F3
330
2
100
AcDbEntity
  8
0
100
AcDbLine
 10
-5763.927848179445
 20
7273.724287065128
 30
0.0
 11
-5762.752848179444
 21
7273.724287065128
 31
0.0
  0
LINE
  5
F4
330
2
100
AcDbEntity
  8
0
100
AcDbLine
 10
-5762.752848179444
 20
7274.724287065128
 30
0.0
 11
-5762.752848179444
 21
7273.724287065128
 31
0.0
  0
ARC
  5
F5
330
2
100
AcDbEntity
  8
0
100
AcDbCircle
 10
-5763.927848179445
 20
7273.099287065128
 30
0.0
 40
0.625
100
AcDbArc
 50
90.0
 51
180.0
  0
LINE
  5
F6
330
2
100
AcDbEntity
  8
0
100
AcDbLine
 10
-5765.552848179445
 20
7276.524287065128
 30
0.0
 11
-5764.552848179445
 21
7276.524287065128
 31
0.0
  0
LINE
  5
F7
330
2
100
AcDbEntity
  8
0
100
AcDbLine
 10
-5765.552848179445
 20
7275.34928706513
 30
0.0
 11
-5765.552848179445
 21
7276.524287065128
 31
0.0
  0
LINE
  5
F8
330
2
100
AcDbEntity
  8
0
100
AcDbLine
 10
-5764.552848179445
 20
7275.34928706513
 30
0.0
 11
-5764.552848179445
 21
7276.524287065128
 31
0.0
  0
CIRCLE
  5
F9
330
2
100
AcDbEntity
  8
0
100
AcDbCircle
 10
-5705.052848179445
 20
7274.224287065128
 30
0.0
 40
4.5
  0
ARC
  5
FA
330
2
100
AcDbEntity
  8
0
100
AcDbCircle
 10
-5706.177848179445
 20
7275.34928706513
 30
0.0
 40
0.625
100
AcDbArc
 50
270.0
 51
0.0
  0
ARC
  5
FB
330
2
100
AcDbEntity
  8
0
100
AcDbCircle
 10
-5703.927848179445
 20
7275.34928706513
 30
0.0
 40
0.625
100
AcDbArc
 50
180.0
 51
270.0
  0
LINE
  5
FC
330
2
100
AcDbEntity
  8
0
100
AcDbLine
 10
-5705.552848179444
 20
7271.92428706513
 30
0.0
 11
-5704.552848179445
 21
7271.92428706513
 31
0.0
  0
LINE
  5
FD
330
2
100
AcDbEntity
  8
0
100
AcDbLine
 10
-5705.552848179444
 20
7271.92428706513
 30
0.0
 11
-5705.552848179444
 21
7273.099287065128
 31
0.0
  0
LINE
  5
FE
330
2
100
AcDbEntity
  8
0
100
AcDbLine
 10
-5707.352848179445
 20
7274.724287065128
 30
0.0
 11
-5706.177848179445
 21
7274.724287065128
 31
0.0
  0
LINE
  5
FF
330
2
100
AcDbEntity
  8
0
100
AcDbLine
 10
-5707.352848179445
 20
7273.724287065128
 30
0.0
 11
-5706.177848179445
 21
7273.724287065128
 31
0.0
  0
LINE
  5
100
330
2
100
AcDbEntity
  8
0
100
AcDbLine
 10
-5707.352848179445
 20
7274.724287065128
 30
0.0
 11
-5707.352848179445
 21
7273.724287065128
 31
0.0
  0
ARC
  5
101
330
2
100
AcDbEntity
  8
0
100
AcDbCircle
 10
-5706.177848179445
 20
7273.099287065128
 30
0.0
 40
0.625
100
AcDbArc
 50
0.0
 51
90.0
  0
LINE
  5
102
330
2
100
AcDbEntity
  8
0
100
AcDbLine
 10
-5704.552848179445
 20
7271.92428706513
 30
0.0
 11
-5704.552848179445
 21
7273.099287065128
 31
0.0
  0
LINE
  5
103
330
2
100
AcDbEntity
  8
0
100
AcDbLine
 10
-5703.927848179445
 20
7274.724287065128
 30
0.0
 11
-5702.752848179446
 21
7274.724287065128
 31
0.0
  0
LINE
  5
104
330
2
100
AcDbEntity
  8
0
100
AcDbLine
 10
-5703.927848179445
 20
7273.724287065128
 30
0.0
 11
-5702.752848179446
 21
7273.724287065128
 31
0.0
  0
LINE
  5
105
330
2
100
AcDbEntity
  8
0
100
AcDbLine
 10
-5702.752848179446
 20
7274.724287065128
 30
0.0
 11
-5702.752848179446
 21
7273.724287065128
 31
0.0
  0
ARC
  5
106
330
2
100
AcDbEntity
  8
0
100
AcDbCircle
 10
-5703.927848179445
 20
7273.099287065128
 30
0.0
 40
0.625
100
AcDbArc
 50
90.0
 51
180.0
  0
LINE
  5
107
330
2
100
AcDbEntity
  8
0
100
AcDbLine
 10
-5705.552848179444
 20
7276.524287065128
 30
0.0
 11
-5704.552848179445
 21
7276.524287065128
 31
0.0
  0
LINE
  5
108
330
2
100
AcDbEntity
  8
0
100
AcDbLine
 10
-5705.552848179444
 20
7275.34928706513
 30
0.0
 11
-5705.552848179444
 21
7276.524287065128
 31
0.0
  0
LINE
  5
109
330
2
100
AcDbEntity
  8
0
100
AcDbLine
 10
-5704.552848179445
 20
7275.34928706513
 30
0.0
 11
-5704.552848179445
 21
7276.524287065128
 31
0.0
  0
LINE
  5
10A
330
2
100
AcDbEntity
  8
0
  6
CENTER
 62
     1
100
AcDbLine
 10
-6095.053546032367
 20
7229.224287065128
 30
0.0
 11
-6095.053546032367
 21
7319.22428706513
 31
0.0
  0
LINE
  5
10B
330
2
100
AcDbEntity
  8
0
100
AcDbLine
 10
-5771.852848179443
 20
7198.96398311517
 30
0.0
 11
-5771.852848179443
 21
7236.082151441397
 31
0.0
  0
LINE
  5
10C
330
2
100
AcDbEntity
  8
0
  6
CENTER
 62
     1
100
AcDbLine
 10
-6065.053546032367
 20
7269.224287065128
 30
0.0
 11
-6065.053546032367
 21
7279.224287065128
 31
0.0
  0
LINE
  5
10D
330
2
100
AcDbEntity
  8
0
  6
CENTER
 62
     1
100
AcDbLine
 10
-6125.053546032368
 20
7269.224287065128
 30
0.0
 11
-6125.053546032368
 21
7279.224287065128
 31
0.0
  0
LINE
  5
10E
330
2
100
AcDbEntity
  8
0
  6
CENTER
 62
     1
100
AcDbLine
 10
-6050.053546032367
 20
7274.224287065128
 30
0.0
 11
-6140.053546032367
 21
7274.224287065128
 31
0.0
  0
LINE
  5
10F
330
2
100
AcDbEntity
  8
0
100
AcDbLine
 10
-5768.640420285816
 20
7253.364637020117
 30
0.0
 11
-5768.975836769174
 21
7253.029220536757
 31
0.0
  0
LINE
  5
110
330
2
100
AcDbEntity
  8
0
100
AcDbLine
 10
-5768.640420285805
 20
7250.536209895378
 30
0.0
 11
-5758.74092534919
 21
7240.636714958769
 31
0.0
  0
LINE
  5
111
330
2
100
AcDbEntity
  8
0
100
AcDbLine
 10
-5758.033818568007
 20
7240.636714958769
 30
0.0
 11
-5756.973158396229
 21
7241.697375130546
 31
0.0
  0
ARC
  5
112
330
2
100
AcDbEntity
  8
0
100
AcDbCircle
 10
-5758.387371958599
 20
7240.99026834936
 30
0.0
 40
0.5
100
AcDbArc
 50
224.9999999999909
 51
315.000000000009
  0
ARC
  5
113
330
2
100
AcDbEntity
  8
0
100
AcDbCircle
 10
-5768.286866895213
 20
7250.889763285972
 30
0.0
 40
0.5
100
AcDbArc
 50
135.000000000009
 51
224.9999999999909
  0
LINE
  5
114
330
2
100
AcDbEntity
  8
0
100
AcDbLine
 10
-5768.640420285805
 20
7251.243316676566
 30
0.0
 11
-5767.579760114024
 21
7252.303976848345
 31
0.0
  0
LINE
  5
115
330
2
100
AcDbEntity
  8
0
  6
PHANTOM
 62
     6
 48
3.0
100
AcDbLine
 10
-5774.97165913541
 20
7197.163336770188
 30
0.0
 11
-5761.079905118902
 21
7205.183744691139
 31
0.0
  0
LINE
  5
116
330
2
100
AcDbEntity
  8
0
100
AcDbLine
 10
-5765.670571804821
 20
7247.566361414396
 30
0.0
 11
-5768.103814978632
 21
7245.133118240585
 31
0.0
  0
ARC
  5
117
330
2
100
AcDbEntity
  8
0
100
AcDbCircle
 10
-5759.052848179444
 20
7236.082151441397
 30
0.0
 40
12.8
100
AcDbArc
 50
135.000000000009
 51
180.0
  0
LINE
  5
118
330
2
100
AcDbEntity
  8
0
100
AcDbLine
 10
-5761.710773830174
 20
7243.606563439751
 30
0.0
 11
-5763.851123785173
 21
7241.466213484752
 31
0.0
  0
LINE
  5
119
330
2
100
AcDbEntity
  8
0
100
AcDbLine
 10
-5759.730874842851
 20
7241.626664452427
 30
0.0
 11
-5761.871224797852
 21
7239.48631449743
 31
0.0
  0
LINE
  5
11A
330
2
100
AcDbEntity
  8
0
100
AcDbLine
 10
-5763.690672817499
 20
7245.586462427073
 30
0.0
 11
-5766.123915991308
 21
7243.153219253263
 31
0.0
  0
ARC
  5
11B
330
2
100
AcDbEntity
  8
0
100
AcDbCircle
 10
-5759.052848179444
 20
7236.082151441397
 30
0.0
 40
10.0
100
AcDbArc
 50
135.000000000009
 51
180.0
  0
ARC
  5
11C
330
2
100
AcDbEntity
  8
0
 62
   123
100
AcDbCircle
 10
-5759.052848179444
 20
7236.082151441397
 30
0.0
 40
23.0
100
AcDbArc
 50
135.000000000009
 51
180.0
  0
LINE
  5
11D
330
2
100
AcDbEntity
  8
0
100
AcDbLine
 10
-5769.052848179445
 20
7176.224287065128
 30
0.0
 11
-5769.052848179445
 21
7197.580563868902
 31
0.0
  0
LINE
  5
11E
330
2
100
AcDbEntity
  8
0
100
AcDbLine
 10
-5769.052848179445
 20
7200.5805638689
 30
0.0
 11
-5769.052848179445
 21
7236.082151441397
 31
0.0
  0
LINE
  5
11F
330
2
100
AcDbEntity
  8
0
100
AcDbLine
 10
-5771.852848179443
 20
7176.224287065128
 30
0.0
 11
-5771.852848179443
 21
7195.963983115167
 31
0.0
  0
LINE
  5
120
330
2
100
AcDbEntity
  8
0
100
AcDbLine
 10
-5766.252848179444
 20
7176.224287065128
 30
0.0
 11
-5766.252848179444
 21
7199.197144622631
 31
0.0
  0
ARC
  5
121
330
2
100
AcDbEntity
  8
0
100
AcDbCircle
 10
-5758.052848179445
 20
7235.667937879019
 30
0.0
 40
8.199999999999999
100
AcDbArc
 50
135.000000000009
 51
180.0
  0
ARC
  5
122
330
2
100
AcDbEntity
  8
0
100
AcDbCircle
 10
-5758.052848179445
 20
7235.667937879019
 30
0.0
 40
5.399999999999997
100
AcDbArc
 50
135.000000000009
 51
180.0
  0
LINE
  5
123
330
2
100
AcDbEntity
  8
0
100
AcDbLine
 10
-5766.252848179444
 20
7202.19714462263
 30
0.0
 11
-5766.252848179444
 21
7235.667937879019
 31
0.0
  0
LINE
  5
124
330
2
100
AcDbEntity
  8
0
100
AcDbLine
 10
-5763.452848179445
 20
7203.81372537636
 30
0.0
 11
-5763.452848179445
 21
7235.667937879019
 31
0.0
  0
CIRCLE
  5
125
330
2
100
AcDbEntity
  8
0
100
AcDbCircle
 10
-6128.287564748132
 20
7240.990268349363
 30
0.0
 40
3.25
  0
LINE
  5
126
330
2
100
AcDbEntity
  8
0
  6
PHANTOM
 62
     6
 48
3.0
100
AcDbLine
 10
-5774.97165913541
 20
7194.163336770191
 30
0.0
 11
-5761.079905118902
 21
7202.183744691139
 31
0.0
  0
LINE
  5
127
330
2
100
AcDbEntity
  8
0
100
AcDbLine
 10
-5771.852848179443
 20
7176.224287065128
 30
0.0
 11
-5769.052848179441
 21
7176.224287065128
 31
0.0
  0
LINE
  5
128
330
2
100
AcDbEntity
  8
0
100
AcDbLine
 10
-5770.952848179438
 20
7166.224287065128
 30
0.0
 11
-5769.952848179443
 21
7166.224287065128
 31
0.0
  0
LINE
  5
129
330
2
100
AcDbEntity
  8
0
100
AcDbLine
 10
-5766.252848179444
 20
7176.224287065128
 30
0.0
 11
-5763.452848179445
 21
7176.224287065128
 31
0.0
  0
LINE
  5
12A
330
2
100
AcDbEntity
  8
0
100
AcDbLine
 10
-5763.452848179446
 20
7176.224287065128
 30
0.0
 11
-5763.452848179445
 21
7200.813725376359
 31
0.0
  0
LINE
  5
12B
330
2
100
AcDbEntity
  8
0
100
AcDbLine
 10
-5770.452848179442
 20
7166.224287065128
 30
0.0
 11
-5770.452848179442
 21
7176.224287065128
 31
0.0
  0
LINE
  5
12C
330
2
100
AcDbEntity
  8
0
100
AcDbLine
 10
-5770.952848179442
 20
7166.224287065128
 30
0.0
 11
-5770.952848179442
 21
7176.224287065128
 31
0.0
  0
LINE
  5
12D
330
2
100
AcDbEntity
  8
0
100
AcDbLine
 10
-5769.952848179443
 20
7166.224287065128
 30
0.0
 11
-5769.952848179443
 21
7176.224287065128
 31
0.0
  0
LINE
  5
12E
330
2
100
AcDbEntity
  8
0
100
AcDbLine
 10
-5765.35284817944
 20
7166.224287065128
 30
0.0
 11
-5764.352848179445
 21
7166.224287065128
 31
0.0
  0
LINE
  5
12F
330
2
100
AcDbEntity
  8
0
100
AcDbLine
 10
-5764.852848179445
 20
7166.224287065128
 30
0.0
 11
-5764.852848179445
 21
7176.224287065128
 31
0.0
  0
LINE
  5
130
330
2
100
AcDbEntity
  8
0
100
AcDbLine
 10
-5765.352848179444
 20
7166.224287065128
 30
0.0
 11
-5765.352848179444
 21
7176.224287065128
 31
0.0
  0
LINE
  5
131
330
2
100
AcDbEntity
  8
0
100
AcDbLine
 10
-5764.352848179445
 20
7166.224287065128
 30
0.0
 11
-5764.352848179445
 21
7176.224287065128
 31
0.0
  0
LINE
  5
132
330
2
100
AcDbEntity
  8
0
100
AcDbLine
 10
-5864.896415561315
 20
7244.526287065126
 30
0.0
 11
-5864.896415561315
 21
7245.940287065129
 31
0.0
  0
LINE
  5
133
330
2
100
AcDbEntity
  8
0
100
AcDbLine
 10
-5849.896415561318
 20
7244.526287065126
 30
0.0
 11
-5849.896415561318
 21
7245.940287065129
 31
0.0
  0
LINE
  5
134
330
2
100
AcDbEntity
  8
0
100
AcDbLine
 10
-5857.396415561318
 20
7253.029220536757
 30
0.0
 11
-5839.896415561316
 21
7253.029220536757
 31
0.0
  0
LINE
  5
135
330
2
100
AcDbEntity
  8
0
100
AcDbLine
 10
-5853.725770747789
 20
7240.301298475408
 30
0.0
 11
-5839.896415561316
 21
7240.301298475408
 31
0.0
  0
ARC
  5
136
330
2
100
AcDbEntity
  8
0
100
AcDbCircle
 10
-5842.396415561317
 20
7264.724287065128
 30
0.0
 40
2.5
100
AcDbArc
 50
0.0
 51
90.0
  0
LINE
  5
137
330
2
100
AcDbEntity
  8
0
100
AcDbLine
 10
-5840.296415561315
 20
7271.224287065128
 30
0.0
 11
-5840.296415561315
 21
7277.224287065128
 31
0.0
  0
LINE
  5
138
330
2
100
AcDbEntity
  8
0
100
AcDbLine
 10
-5843.796415561314
 20
7269.724287065128
 30
0.0
 11
-5843.796415561314
 21
7278.724287065128
 31
0.0
  0
LINE
  5
139
330
2
100
AcDbEntity
  8
0
100
AcDbLine
 10
-5845.296415561314
 20
7269.724287065128
 30
0.0
 11
-5845.296415561314
 21
7278.724287065128
 31
0.0
  0
LINE
  5
13A
330
2
100
AcDbEntity
  8
0
100
AcDbLine
 10
-5845.896415561314
 20
7269.724287065128
 30
0.0
 11
-5841.796415561315
 21
7269.724287065128
 31
0.0
  0
ARC
  5
13B
330
2
100
AcDbEntity
  8
0
100
AcDbCircle
 10
-5841.796415561315
 20
7271.224287065128
 30
0.0
 40
1.5
100
AcDbArc
 50
270.0
 51
0.0
  0
ARC
  5
13C
330
2
100
AcDbEntity
  8
0
  6
CENTER
 62
     1
100
AcDbCircle
 10
-6095.053546032367
 20
7274.224287065128
 30
0.0
 40
47.00000000000122
100
AcDbArc
 50
211.6724334264131
 51
232.3193307012699
  0
LINE
  5
13D
330
2
100
AcDbEntity
  8
0
  6
CENTER
 62
     1
100
AcDbLine
 10
-6124.044924061013
 20
7245.23290903648
 30
0.0
 11
-6132.530205435255
 21
7236.747627662241
 31
0.0
  0
ARC
  5
13E
330
2
100
AcDbEntity
  8
0
 62
     3
100
AcDbCircle
 10
-6125.053546032368
 20
7274.224287065128
 30
0.0
 40
2.5
100
AcDbArc
 50
260.0000000000478
 51
190.0000000000021
  0
CIRCLE
  5
13F
330
2
100
AcDbEntity
  8
0
100
AcDbCircle
 10
-6125.053546032368
 20
7274.224287065128
 30
0.0
 40
2.0
  0
ARC
  5
140
330
2
100
AcDbEntity
  8
0
 62
     3
100
AcDbCircle
 10
-6065.053546032367
 20
7274.224287065128
 30
0.0
 40
2.5
100
AcDbArc
 50
260.0000000000478
 51
190.0000000000021
  0
CIRCLE
  5
141
330
2
100
AcDbEntity
  8
0
100
AcDbCircle
 10
-6065.053546032367
 20
7274.224287065128
 30
0.0
 40
2.0
  0
DIMENSION
  5
142
330
2
100
AcDbEntity
  8
0
100
AcDbDimension
  2
*D3
 10
-5996.896415561316
 20
7310.724287065127
 30
0.0
 11
-6000.346415561319
 21
7274.224287065127
 31
0.0
  1
%%C<>{\H0.7x;\S  0^ -0.03;}
 71
     5
 42
73.0
  3
STANDARD
100
AcDbAlignedDimension
 13
-5961.896415561318
 23
7237.72428706513
 33
0.0
 14
-5961.896415561318
 24
7310.724287065127
 34
0.0
 50
90.0
100
AcDbRotatedDimension
  0
LINE
  5
150
330
2
100
AcDbEntity
  8
0
100
AcDbLine
 10
-5936.396415561318
 20
7243.224287065128
 30
0.0
 11
-5892.396415561318
 21
7243.224287065128
 31
0.0
  0
LINE
  5
151
330
2
100
AcDbEntity
  8
0
100
AcDbLine
 10
-5890.396415561315
 20
7245.224287065127
 30
0.0
 11
-5890.396415561315
 21
7303.22428706513
 31
0.0
  0
ARC
  5
152
330
2
100
AcDbEntity
  8
0
100
AcDbCircle
 10
-5892.396415561318
 20
7245.224287065127
 30
0.0
 40
2.0
100
AcDbArc
 50
270.0
 51
0.0
  0
LINE
  5
153
330
2
100
AcDbEntity
  8
0
100
AcDbLine
 10
-5938.396415561317
 20
7245.224287065127
 30
0.0
 11
-5938.396415561317
 21
7303.22428706513
 31
0.0
  0
ARC
  5
154
330
2
100
AcDbEntity
  8
0
100
AcDbCircle
 10
-5936.396415561318
 20
7245.224287065127
 30
0.0
 40
2.0
100
AcDbArc
 50
180.0
 51
270.0
  0
LINE
  5
155
330
2
100
AcDbEntity
  8
0
100
AcDbLine
 10
-5920.396415561318
 20
7243.224287065128
 30
0.0
 11
-5920.396415561318
 21
7305.224287065128
 31
0.0
  0
LINE
  5
156
330
2
100
AcDbEntity
  8
0
100
AcDbLine
 10
-5930.896415561317
 20
7243.224287065128
 30
0.0
 11
-5930.896415561317
 21
7305.224287065128
 31
0.0
  0
HATCH
  5
157
330
2
100
AcDbEntity
  8
0
100
AcDbHatch
 10
0.0
 20
0.0
 30
0.0
210
0.0
220
0.0
230
1.0
  2
SOLID
 70
     1
 71
     0
 91
        3
 92
        7
 72
     1
 73
     1
 93
       14
 10
-5922.634626414732
 20
7247.642605578668
 42
0.0937143382696255
 10
-5923.05203592096
 20
7249.853131894456
 42
0.0
 10
-5925.023102728489
 20
7249.853131894457
 42
-0.3419987131189617
 10
-5925.481745493172
 20
7250.20839505235
 42
0.8810189742401522
 10
-5925.792521151573
 20
7250.168920910083
 42
0.0
 10
-5925.792521151573
 20
7250.168921368143
 42
0.0
 10
-5925.792521151573
 20
7248.353131894456
 42
0.8810176860282405
 10
-5925.481745493172
 20
7248.313658210247
 42
-0.3419987131199286
 10
-5925.023102728489
 20
7248.668921368142
 42
0.0
 10
-5923.575930918349
 20
7248.668921368142
 42
-1.140543588145414
 10
-5927.7662053621
 20
7248.116289789185
 42
-0.2430703534513821
 10
-5926.991204790517
 20
7249.616289789194
 42
0.0
 10
-5928.465871474976
 20
7249.616289789194
 42
-0.2403282878310472
 10
-5928.426512119655
 20
7248.899879344111
 42
1.201119850359529
 97
        0
 92
        7
 72
     1
 73
     1
 93
       14
 10
-5922.634626414732
 20
7255.537342420774
 42
0.0937143382697012
 10
-5923.05203592096
 20
7257.747868736562
 42
0.0
 10
-5925.023102728489
 20
7257.747868736562
 42
-0.3419987131189617
 10
-5925.481745493172
 20
7258.103131894455
 42
0.8810189742401522
 10
-5925.792521151573
 20
7258.063657752187
 42
0.0
 10
-5925.792521151573
 20
7258.063658210248
 42
0.0
 10
-5925.792521151573
 20
7256.247868736562
 42
0.881017686029679
 10
-5925.481745493172
 20
7256.208395052351
 42
-0.3419987131193316
 10
-5925.023102728489
 20
7256.563658210247
 42
0.0
 10
-5923.575930918349
 20
7256.563658210247
 42
-1.140543588145414
 10
-5927.7662053621
 20
7256.011026631291
 42
-0.2430703534513821
 10
-5926.991204790517
 20
7257.511026631298
 42
0.0
 10
-5928.465871474976
 20
7257.511026631298
 42
-0.2403282878310472
 10
-5928.426512119655
 20
7256.794616186216
 42
1.201119850359529
 97
        0
 92
        7
 72
     1
 73
     1
 93
       25
 10
-5922.634626414732
 20
7263.82009718001
 42
0.0
 10
-5922.634626414735
 20
7263.836894492441
 42
0.0
 10
-5927.687257993682
 20
7265.879447683929
 42
0.0
 10
-5923.70980668094
 20
7265.879447683929
 42
-0.3419987131199597
 10
-5922.945402073135
 20
7265.287342420773
 42
0.8810176860694333
 10
-5922.634626414732
 20
7265.326816104982
 42
0.0
 10
-5922.634626414732
 20
7267.616289789194
 42
0.8810176860694735
 10
-5922.945402073135
 20
7267.655763473405
 42
-0.3419987131199634
 10
-5923.70980668094
 20
7267.063658210247
 42
0.0
 10
-5927.559446148525
 20
7267.063658210247
 42
-0.3419987131199597
 10
-5928.323850756328
 20
7267.655763473405
 42
0.8810176860694333
 10
-5928.634626414731
 20
7267.616289789194
 42
0.0
 10
-5928.634626414731
 20
7265.642605578666
 42
0.0
 10
-5924.924100098941
 20
7264.142605578666
 42
0.0
 10
-5928.634626414731
 20
7262.326816104985
 42
0.0
 10
-5928.634626414731
 20
7260.589973999718
 42
0.8810176860694735
 10
-5928.323850756328
 20
7260.550500315507
 42
-0.3419987131199635
 10
-5927.559446148525
 20
7261.142605578666
 42
0.0
 10
-5923.70980668094
 20
7261.142605578666
 42
-0.3419987131199597
 10
-5922.945402073135
 20
7260.550500315507
 42
0.8810176860694333
 10
-5922.634626414732
 20
7260.589973999718
 42
0.0
 10
-5922.634626414732
 20
7262.247868736563
 42
0.8810176860694735
 10
-5922.945402073135
 20
7262.287342420773
 42
-0.3419987131199634
 10
-5923.70980668094
 20
7261.695237157614
 42
0.0
 10
-5926.976731677892
 20
7261.695237157614
 42
0.0
 97
        0
 75
     0
 76
     1
 47
0.0347943292785178
 98
        3
 10
-5924.620133899442
 20
7245.416147133477
 10
-5923.959041851436
 20
7253.735903140226
 10
-5925.107255047874
 20
7263.274037168978
1001
ACAD
1010
0.0
1020
0.0
1030
0.0
  0
LINE
  5
158
330
2
100
AcDbEntity
  8
0
100
AcDbLine
 10
-5922.634626414732
 20
7265.326816104982
 30
0.0
 11
-5922.634626414732
 21
7267.616289789194
 31
0.0
  0
LINE
  5
159
330
2
100
AcDbEntity
  8
0
100
AcDbLine
 10
-5923.70980668094
 20
7267.063658210247
 30
0.0
 11
-5927.559446148525
 21
7267.063658210247
 31
0.0
  0
LINE
  5
15A
330
2
100
AcDbEntity
  8
0
100
AcDbLine
 10
-5927.687257993682
 20
7265.879447683929
 30
0.0
 11
-5923.70980668094
 21
7265.879447683929
 31
0.0
  0
ARC
  5
15B
330
2
100
AcDbEntity
  8
0
100
AcDbCircle
 10
-5922.792521151575
 20
7267.616289789194
 30
0.0
 40
0.1578947368421076
100
AcDbArc
 50
0.0
 51
165.522487814061
  0
ARC
  5
15C
330
2
100
AcDbEntity
  8
0
100
AcDbCircle
 10
-5923.70980668094
 20
7267.853131894455
 30
0.0
 40
0.7894736842105267
100
AcDbArc
 50
270.0
 51
345.522487814061
  0
ARC
  5
15D
330
2
100
AcDbEntity
  8
0
100
AcDbCircle
 10
-5922.792521151575
 20
7265.326816104982
 30
0.0
 40
0.1578947368421076
100
AcDbArc
 50
194.477512185939
 51
0.0
  0
ARC
  5
15E
330
2
100
AcDbEntity
  8
0
100
AcDbCircle
 10
-5923.70980668094
 20
7265.089973999717
 30
0.0
 40
0.7894736842105267
100
AcDbArc
 50
14.47751218593898
 51
90.0
  0
ARC
  5
15F
330
2
100
AcDbEntity
  8
0
100
AcDbCircle
 10
-5928.476731677892
 20
7267.616289789194
 30
0.0
 40
0.1578947368421076
100
AcDbArc
 50
14.47751218593898
 51
180.0
  0
ARC
  5
160
330
2
100
AcDbEntity
  8
0
100
AcDbCircle
 10
-5927.559446148525
 20
7267.853131894455
 30
0.0
 40
0.7894736842105267
100
AcDbArc
 50
194.477512185939
 51
270.0
  0
LINE
  5
161
330
2
100
AcDbEntity
  8
0
100
AcDbLine
 10
-5928.634626414731
 20
7265.642605578666
 30
0.0
 11
-5928.634626414731
 21
7267.616289789194
 31
0.0
  0
LINE
  5
162
330
2
100
AcDbEntity
  8
0
100
AcDbLine
 10
-5924.924100098941
 20
7264.142605578666
 30
0.0
 11
-5928.634626414731
 21
7265.642605578666
 31
0.0
  0
LINE
  5
163
330
2
100
AcDbEntity
  8
0
100
AcDbLine
 10
-5922.634626414732
 20
7263.82009718001
 30
0.0
 11
-5922.634626414732
 21
7263.836894492441
 31
0.0
  0
LINE
  5
164
330
2
100
AcDbEntity
  8
0
100
AcDbLine
 10
-5922.634626414732
 20
7260.589973999718
 30
0.0
 11
-5922.634626414732
 21
7262.247868736563
 31
0.0
  0
LINE
  5
165
330
2
100
AcDbEntity
  8
0
100
AcDbLine
 10
-5926.976731677892
 20
7261.695237157614
 30
0.0
 11
-5923.70980668094
 21
7261.695237157614
 31
0.0
  0
ARC
  5
166
330
2
100
AcDbEntity
  8
0
100
AcDbCircle
 10
-5923.70980668094
 20
7262.484710841825
 30
0.0
 40
0.7894736842105267
100
AcDbArc
 50
270.0
 51
345.522487814061
  0
ARC
  5
167
330
2
100
AcDbEntity
  8
0
100
AcDbCircle
 10
-5922.792521151575
 20
7262.247868736563
 30
0.0
 40
0.1578947368421076
100
AcDbArc
 50
0.0
 51
165.522487814061
  0
LINE
  5
168
330
2
100
AcDbEntity
  8
0
100
AcDbLine
 10
-5923.70980668094
 20
7261.142605578666
 30
0.0
 11
-5927.559446148525
 21
7261.142605578666
 31
0.0
  0
ARC
  5
169
330
2
100
AcDbEntity
  8
0
100
AcDbCircle
 10
-5923.70980668094
 20
7260.353131894454
 30
0.0
 40
0.7894736842105267
100
AcDbArc
 50
14.47751218593898
 51
90.0
  0
ARC
  5
16A
330
2
100
AcDbEntity
  8
0
100
AcDbCircle
 10
-5922.792521151575
 20
7260.589973999718
 30
0.0
 40
0.1578947368421076
100
AcDbArc
 50
194.477512185939
 51
0.0
  0
LINE
  5
16B
330
2
100
AcDbEntity
  8
0
100
AcDbLine
 10
-5926.976731677892
 20
7261.695237157614
 30
0.0
 11
-5922.634626414732
 21
7263.82009718001
 31
0.0
  0
ARC
  5
16C
330
2
100
AcDbEntity
  8
0
100
AcDbCircle
 10
-5928.476731677892
 20
7260.589973999718
 30
0.0
 40
0.1578947368421076
100
AcDbArc
 50
180.0
 51
345.522487814061
  0
ARC
  5
16D
330
2
100
AcDbEntity
  8
0
100
AcDbCircle
 10
-5927.559446148525
 20
7260.353131894454
 30
0.0
 40
0.7894736842105267
100
AcDbArc
 50
90.0
 51
165.522487814061
  0
LINE
  5
16E
330
2
100
AcDbEntity
  8
0
100
AcDbLine
 10
-5928.634626414731
 20
7260.589973999718
 30
0.0
 11
-5928.634626414731
 21
7262.326816104982
 31
0.0
  0
ARC
  5
16F
330
2
100
AcDbEntity
  8
0
100
AcDbCircle
 10
-5925.646415561317
 20
7247.737573094112
 30
0.0
 40
3.013286028982677
100
AcDbArc
 50
156.8155745922422
 51
358.1939520675005
  0
LINE
  5
170
330
2
100
AcDbEntity
  8
0
100
AcDbLine
 10
-5926.991204790517
 20
7249.616289789194
 30
0.0
 11
-5928.465871474976
 21
7249.616289789194
 31
0.0
  0
ARC
  5
171
330
2
100
AcDbEntity
  8
0
100
AcDbCircle
 10
-5925.023102728489
 20
7248.195237157614
 30
0.0
 40
0.4736842105263161
100
AcDbArc
 50
90.0
 51
165.522487814061
  0
ARC
  5
172
330
2
100
AcDbEntity
  8
0
100
AcDbCircle
 10
-5925.634626414732
 20
7248.353131894456
 30
0.0
 40
0.1578947368420963
100
AcDbArc
 50
180.0
 51
345.522487814061
  0
ARC
  5
173
330
2
100
AcDbEntity
  8
0
100
AcDbCircle
 10
-5925.023102728489
 20
7250.326816104982
 30
0.0
 40
0.4736842105263161
100
AcDbArc
 50
194.477512185939
 51
270.0
  0
LINE
  5
174
330
2
100
AcDbEntity
  8
0
100
AcDbLine
 10
-5925.792521151573
 20
7248.353131894456
 30
0.0
 11
-5925.792521151573
 21
7250.168921368142
 31
0.0
  0
LINE
  5
175
330
2
100
AcDbEntity
  8
0
100
AcDbLine
 10
-5923.575930918349
 20
7248.668921368142
 30
0.0
 11
-5925.023102728489
 21
7248.668921368142
 31
0.0
  0
ARC
  5
176
330
2
100
AcDbEntity
  8
0
100
AcDbCircle
 10
-5925.634626414732
 20
7248.116289789193
 30
0.0
 40
2.131578947368458
100
AcDbArc
 50
180.0
 51
15.02611375910247
  0
LINE
  5
177
330
2
100
AcDbEntity
  8
0
100
AcDbLine
 10
-5923.05203592096
 20
7249.853131894456
 30
0.0
 11
-5925.023102728489
 21
7249.853131894457
 31
0.0
  0
ARC
  5
178
330
2
100
AcDbEntity
  8
0
100
AcDbCircle
 10
-5925.634626414732
 20
7250.168921368142
 30
0.0
 40
0.1578947368420963
100
AcDbArc
 50
14.47751218593898
 51
180.0
  0
LINE
  5
179
330
2
100
AcDbEntity
  8
0
100
AcDbLine
 10
-5922.634626414732
 20
7263.836894492441
 30
0.0
 11
-5927.687257993682
 21
7265.879447683929
 31
0.0
  0
LINE
  5
17A
330
2
100
AcDbEntity
  8
0
100
AcDbLine
 10
-5928.634626414731
 20
7262.326816104982
 30
0.0
 11
-5924.924100098941
 21
7264.142605578666
 31
0.0
  0
ARC
  5
17B
330
2
100
AcDbEntity
  8
0
100
AcDbCircle
 10
-5928.688521669998
 20
7247.644132461681
 30
0.0
 40
6.053895447818247
100
AcDbArc
 50
359.9855491469636
 51
21.40074743277124
  0
ARC
  5
17C
330
2
100
AcDbEntity
  8
0
100
AcDbCircle
 10
-5929.148389863228
 20
7249.219506034788
 30
0.0
 40
0.7894736842105267
100
AcDbArc
 50
338.0090682493508
 51
30.1716840922445
  0
ARC
  5
17D
330
2
100
AcDbEntity
  8
0
100
AcDbCircle
 10
-5925.927093243688
 20
7248.116289789193
 30
0.0
 40
1.839112118411773
100
AcDbArc
 50
125.3521829317438
 51
180.0
  0
ARC
  5
17E
330
2
100
AcDbEntity
  8
0
100
AcDbCircle
 10
-5925.927093243688
 20
7256.011026631298
 30
0.0
 40
1.839112118411773
100
AcDbArc
 50
125.3521829317438
 51
180.0
  0
LINE
  5
17F
330
2
100
AcDbEntity
  8
0
100
AcDbLine
 10
-5926.991204790517
 20
7257.511026631298
 30
0.0
 11
-5928.465871474976
 21
7257.511026631298
 31
0.0
  0
ARC
  5
180
330
2
100
AcDbEntity
  8
0
100
AcDbCircle
 10
-5925.634626414732
 20
7256.011026631298
 30
0.0
 40
2.131578947368458
100
AcDbArc
 50
180.0
 51
15.02611375910247
  0
ARC
  5
181
330
2
100
AcDbEntity
  8
0
100
AcDbCircle
 10
-5925.646415561317
 20
7255.632309936216
 30
0.0
 40
3.013286028982677
100
AcDbArc
 50
156.8155745922422
 51
358.1939520675005
  0
ARC
  5
182
330
2
100
AcDbEntity
  8
0
100
AcDbCircle
 10
-5929.148389863228
 20
7257.114242876892
 30
0.0
 40
0.7894736842105267
100
AcDbArc
 50
338.0090682493508
 51
30.1716840922445
  0
ARC
  5
183
330
2
100
AcDbEntity
  8
0
100
AcDbCircle
 10
-5928.688521669998
 20
7255.538869303785
 30
0.0
 40
6.053895447818247
100
AcDbArc
 50
359.9855491469636
 51
21.40074743277124
  0
LINE
  5
184
330
2
100
AcDbEntity
  8
0
100
AcDbLine
 10
-5923.05203592096
 20
7257.747868736562
 30
0.0
 11
-5925.023102728489
 21
7257.747868736562
 31
0.0
  0
ARC
  5
185
330
2
100
AcDbEntity
  8
0
100
AcDbCircle
 10
-5925.634626414732
 20
7258.063658210247
 30
0.0
 40
0.1578947368420963
100
AcDbArc
 50
14.47751218593898
 51
180.0
  0
LINE
  5
186
330
2
100
AcDbEntity
  8
0
100
AcDbLine
 10
-5923.575930918349
 20
7256.563658210247
 30
0.0
 11
-5925.023102728489
 21
7256.563658210247
 31
0.0
  0
LINE
  5
187
330
2
100
AcDbEntity
  8
0
100
AcDbLine
 10
-5925.792521151573
 20
7256.247868736562
 30
0.0
 11
-5925.792521151573
 21
7258.063658210247
 31
0.0
  0
ARC
  5
188
330
2
100
AcDbEntity
  8
0
100
AcDbCircle
 10
-5925.023102728489
 20
7258.221552947087
 30
0.0
 40
0.4736842105263161
100
AcDbArc
 50
194.477512185939
 51
270.0
  0
ARC
  5
189
330
2
100
AcDbEntity
  8
0
100
AcDbCircle
 10
-5925.634626414732
 20
7256.247868736562
 30
0.0
 40
0.1578947368420963
100
AcDbArc
 50
180.0
 51
345.522487814061
  0
ARC
  5
18A
330
2
100
AcDbEntity
  8
0
100
AcDbCircle
 10
-5925.023102728489
 20
7256.089973999718
 30
0.0
 40
0.4736842105263161
100
AcDbArc
 50
90.0
 51
165.522487814061
  0
TEXT
  5
18B
330
2
100
AcDbEntity
  8
0
100
AcDbText
 10
-5891.896415561316
 20
7247.224287065129
 30
0.0
 40
2.0
  1
GOOOOOO
 50
90.0
  7
유형1
100
AcDbText
  0
LINE
  5
18D
330
2
100
AcDbEntity
  8
0
100
AcDbLine
 10
-5920.396415561318
 20
7269.224287065128
 30
0.0
 11
-5930.896415561317
 21
7269.224287065128
 31
0.0
  0
LEADER
  5
18E
330
2
100
AcDbEntity
  8
0
 62
   123
100
AcDbLeader
  3
STANDARD$7
 76
     2
 10
-5771.468847410551
 20
7256.193064144871
 30
0.0
 10
-5775.316304146732
 20
7252.345607408688
 30
0.0
1001
ACAD
1000
DSTYLE
1002
{
1070
   176
1070
   123
1070
   147
1040
1.0
1070
    77
1070
     0
1002
}
  0
TEXT
  5
193
330
2
100
AcDbEntity
  8
0
 62
     3
100
AcDbText
 10
-5783.052848179444
 20
7200.107563076577
 30
0.0
 40
3.0
  1
300 %%P10
 50
90.0
  7
GHS
100
AcDbText
  0
LEADER
  5
194
330
2
100
AcDbEntity
  8
0
 62
   123
100
AcDbLeader
  3
STANDARD$7
 76
     2
 10
-5770.452848179442
 20
7219.224287065128
 30
0.0
 10
-5741.052848179444
 20
7193.224287065127
 30
0.0
1001
ACAD
1000
DSTYLE
1002
{
1070
   176
1070
   123
1070
   147
1040
1.0
1070
    77
1070
     0
1002
}
  0
LEADER
  5
195
330
2
100
AcDbEntity
  8
0
 62
   123
100
AcDbLeader
  3
STANDARD$7
 76
     3
 10
-5764.852848179445
 20
7193.161076511561
 30
0.0
 10
-5741.052848179444
 20
7193.224287065127
 30
0.0
 10
-5682.052848179445
 20
7193.224287065127
 30
0.0
1001
ACAD
1000
DSTYLE
1002
{
1070
   176
1070
   123
1070
   147
1040
1.0
1070
    77
1070
     0
1002
}
  0
DIMENSION
  5
196
330
2
100
AcDbEntity
  8
0
100
AcDbDimension
  2
*D4
 10
-5775.052848179445
 20
7166.224287065128
 30
0.0
 11
-5777.552848179444
 21
7171.224287065125
 31
0.0
 71
     5
 42
10.0
  3
STANDARD
100
AcDbAlignedDimension
 13
-5771.852848179443
 23
7176.224287065128
 33
0.0
 14
-5770.952848179442
 24
7166.224287065128
 34
0.0
 50
90.0
100
AcDbRotatedDimension
  0
LEADER
  5
1A3
330
2
100
AcDbEntity
  8
0
 62
   123
100
AcDbLeader
  3
STANDARD$7
 76
     2
 10
-5782.052848179445
 20
7166.224287065128
 30
0.0
 10
-5782.052848179445
 20
7236.224287065128
 30
0.0
1001
ACAD
1000
DSTYLE
1002
{
1070
   176
1070
   123
1070
   147
1040
1.0
1070
    77
1070
     0
1002
}
  0
LINE
  5
1A4
330
2
100
AcDbEntity
  8
0
 62
   123
100
AcDbLine
 10
-5771.952848179442
 20
7166.224287065128
 30
0.0
 11
-5783.052848179444
 21
7166.224287065128
 31
0.0
  0
LINE
  5
1A5
330
2
100
AcDbEntity
  8
0
100
AcDbLine
 10
-6061.053546032368
 20
7234.224287065128
 30
0.0
 11
-6129.053546032367
 21
7234.224287065128
 31
0.0
  0
LINE
  5
1A6
330
2
100
AcDbEntity
  8
0
100
AcDbLine
 10
-6135.053546032366
 20
7240.224287065128
 30
0.0
 11
-6135.053546032366
 21
7308.224287065129
 31
0.0
  0
CIRCLE
  5
1A7
330
2
100
AcDbEntity
  8
0
100
AcDbCircle
 10
-6128.287564748132
 20
7307.458305780894
 30
0.0
 40
3.25
  0
LINE
  5
1A8
330
2
100
AcDbEntity
  8
0
100
AcDbLine
 10
-6061.053546032368
 20
7314.22428706513
 30
0.0
 11
-6129.053546032367
 21
7314.22428706513
 31
0.0
  0
CIRCLE
  5
1A9
330
2
100
AcDbEntity
  8
0
100
AcDbCircle
 10
-6061.8195273166
 20
7307.458305780894
 30
0.0
 40
3.25
  0
LINE
  5
1AA
330
2
100
AcDbEntity
  8
0
100
AcDbLine
 10
-6055.053546032367
 20
7240.224287065128
 30
0.0
 11
-6055.053546032367
 21
7308.224287065129
 31
0.0
  0
CIRCLE
  5
1AB
330
2
100
AcDbEntity
  8
0
100
AcDbCircle
 10
-6061.8195273166
 20
7240.990268349363
 30
0.0
 40
3.25
  0
ARC
  5
1AC
330
2
100
AcDbEntity
  8
0
100
AcDbCircle
 10
-6129.053546032367
 20
7308.224287065129
 30
0.0
 40
6.0
100
AcDbArc
 50
90.0
 51
180.0
  0
LINE
  5
1AD
330
2
100
AcDbEntity
  8
0
  6
CENTER
 62
     1
100
AcDbLine
 10
-6066.062168003716
 20
7245.23290903648
 30
0.0
 11
-6057.57688662948
 21
7236.747627662241
 31
0.0
  0
ARC
  5
1AE
330
2
100
AcDbEntity
  8
0
100
AcDbCircle
 10
-6061.053546032368
 20
7308.224287065129
 30
0.0
 40
6.0
100
AcDbArc
 50
0.0
 51
90.0
  0
ARC
  5
1AF
330
2
100
AcDbEntity
  8
0
  6
CENTER
 62
     1
100
AcDbCircle
 10
-6095.053546032367
 20
7274.224287065128
 30
0.0
 40
47.00000000000122
100
AcDbArc
 50
307.68066929873
 51
322.3193307013714
  0
ARC
  5
1B0
330
2
100
AcDbEntity
  8
0
100
AcDbCircle
 10
-6129.053546032367
 20
7240.224287065128
 30
0.0
 40
6.0
100
AcDbArc
 50
180.0
 51
270.0
  0
ARC
  5
1B1
330
2
100
AcDbEntity
  8
0
  6
CENTER
 62
     1
100
AcDbCircle
 10
-6095.053546032367
 20
7274.224287065128
 30
0.0
 40
47.00000000000122
100
AcDbArc
 50
127.68066929873
 51
142.3193307012342
  0
ARC
  5
1B2
330
2
100
AcDbEntity
  8
0
100
AcDbCircle
 10
-6061.053546032368
 20
7240.224287065128
 30
0.0
 40
6.0
100
AcDbArc
 50
270.0
 51
0.0
  0
LINE
  5
1B3
330
2
100
AcDbEntity
  8
0
  6
CENTER
 62
     1
100
AcDbLine
 10
-6124.044924061013
 20
7303.215665093777
 30
0.0
 11
-6132.530205435255
 21
7311.700946468015
 31
0.0
  0
ARC
  5
1B4
102
{ACAD_REACTORS
330
31E
102
}
330
2
100
AcDbEntity
  8
0
  6
CENTER
 62
     1
100
AcDbCircle
 10
-6095.053546032367
 20
7274.224287065128
 30
0.0
 40
47.00000000000122
100
AcDbArc
 50
31.67243342641315
 51
52.31933070126991
  0
LINE
  5
1B5
330
2
100
AcDbEntity
  8
0
  6
CENTER
 62
     1
100
AcDbLine
 10
-6066.062168003716
 20
7303.215665093777
 30
0.0
 11
-6057.57688662948
 21
7311.700946468015
 31
0.0
  0
CIRCLE
  5
1B6
330
2
100
AcDbEntity
  8
0
100
AcDbCircle
 10
-6095.053546032367
 20
7274.224287065128
 30
0.0
 40
36.5
  0
LINE
  5
1B7
330
2
100
AcDbEntity
  8
0
100
AcDbLine
 10
-5962.896415561317
 20
7238.224287065128
 30
0.0
 11
-5962.896415561317
 21
7310.224287065128
 31
0.0
  0
LINE
  5
1B8
330
2
100
AcDbEntity
  8
0
100
AcDbLine
 10
-5960.896415561315
 20
7234.224287065128
 30
0.0
 11
-5874.396415561317
 21
7234.224287065128
 31
0.0
  0
LINE
  5
1B9
330
2
100
AcDbEntity
  8
0
100
AcDbLine
 10
-5960.896415561315
 20
7237.72428706513
 30
0.0
 11
-5962.396415561316
 21
7237.72428706513
 31
0.0
  0
LINE
  5
1BA
330
2
100
AcDbEntity
  8
0
100
AcDbLine
 10
-5960.896415561315
 20
7234.224287065128
 30
0.0
 11
-5960.896415561315
 21
7314.22428706513
 31
0.0
  0
LINE
  5
1BB
330
2
100
AcDbEntity
  8
0
100
AcDbLine
 10
-5960.896415561315
 20
7314.22428706513
 30
0.0
 11
-5874.396415561317
 21
7314.22428706513
 31
0.0
  0
LINE
  5
1BC
330
2
100
AcDbEntity
  8
0
100
AcDbLine
 10
-5960.896415561315
 20
7310.724287065127
 30
0.0
 11
-5962.396415561316
 21
7310.724287065127
 31
0.0
  0
LINE
  5
1BD
102
{ACAD_REACTORS
330
351
102
}
330
2
100
AcDbEntity
  8
0
100
AcDbLine
 10
-5962.896415561317
 20
7310.224287065128
 30
0.0
 11
-5962.396415561316
 21
7310.724287065127
 31
0.0
  0
LINE
  5
1BE
330
2
100
AcDbEntity
  8
0
100
AcDbLine
 10
-5962.896415561317
 20
7238.224287065128
 30
0.0
 11
-5962.396415561316
 21
7237.72428706513
 31
0.0
  0
CIRCLE
  5
1BF
330
2
100
AcDbEntity
  8
0
100
AcDbCircle
 10
-6095.053546032367
 20
7274.224287065128
 30
0.0
 40
15.0
  0
DIMENSION
  5
1C0
330
2
100
AcDbEntity
  8
0
100
AcDbDimension
  2
*D5
 10
-5839.396415561317
 20
7339.702807390837
 30
0.0
 11
-5900.146415561319
 21
7342.202807390838
 31
0.0
 71
     5
 42
121.5
  3
STANDARD
100
AcDbAlignedDimension
 13
-5960.896415561315
 23
7314.22428706513
 33
0.0
 14
-5839.396415561317
 24
7309.224287065127
 34
0.0
100
AcDbRotatedDimension
  0
ARC
  5
1CD
330
2
100
AcDbEntity
  8
0
100
AcDbCircle
 10
-6065.053546032367
 20
7274.224287065128
 30
0.0
 40
5.0
100
AcDbArc
 50
100.8069228748603
 51
259.1930771251397
  0
ARC
  5
1CE
330
2
100
AcDbEntity
  8
0
100
AcDbCircle
 10
-6095.053546032367
 20
7274.224287065128
 30
0.0
 40
31.5
100
AcDbArc
 50
193.478456786654
 51
346.5215432133458
  0
ARC
  5
1CF
330
2
100
AcDbEntity
  8
0
100
AcDbCircle
 10
-6066.366046032367
 20
7267.348434845222
 30
0.0
 40
2.0
100
AcDbArc
 50
346.5215432133458
 51
79.19307712513965
  0
ARC
  5
1D0
330
2
100
AcDbEntity
  8
0
100
AcDbCircle
 10
-6095.053546032367
 20
7274.224287065128
 30
0.0
 40
31.5
100
AcDbArc
 50
13.478456786654
 51
166.5215432133459
  0
ARC
  5
1D1
330
2
100
AcDbEntity
  8
0
100
AcDbCircle
 10
-6066.366046032367
 20
7281.100139285034
 30
0.0
 40
2.0
100
AcDbArc
 50
280.8069228748603
 51
13.478456786654
  0
ARC
  5
1D2
330
2
100
AcDbEntity
  8
0
100
AcDbCircle
 10
-6125.053546032368
 20
7274.224287065128
 30
0.0
 40
5.0
100
AcDbArc
 50
280.8069228748603
 51
79.19307712513965
  0
ARC
  5
1D3
330
2
100
AcDbEntity
  8
0
100
AcDbCircle
 10
-6123.741046032368
 20
7267.348434845222
 30
0.0
 40
2.0
100
AcDbArc
 50
100.8069228748603
 51
193.478456786654
  0
ARC
  5
1D4
330
2
100
AcDbEntity
  8
0
100
AcDbCircle
 10
-6123.741046032368
 20
7281.100139285034
 30
0.0
 40
2.0
100
AcDbArc
 50
166.5215432133459
 51
259.1930771251397
  0
ARC
  5
1D5
330
2
100
AcDbEntity
  8
0
100
AcDbCircle
 10
-5967.396415561317
 20
7292.704837065127
 30
0.0
 40
16.0
100
AcDbArc
 50
270.0
 51
286.3348227806859
  0
LINE
  5
1D6
330
2
100
AcDbEntity
  8
0
100
AcDbLine
 10
-5967.396415561317
 20
7271.743737065128
 30
0.0
 11
-5974.396415561319
 21
7271.743737065128
 31
0.0
  0
LINE
  5
1D7
330
2
100
AcDbEntity
  8
0
100
AcDbLine
 10
-5962.896415561317
 20
7270.618737065129
 30
0.0
 11
-5973.896415561316
 21
7270.618737065129
 31
0.0
  0
ARC
  5
1D8
330
2
100
AcDbEntity
  8
0
100
AcDbCircle
 10
-5973.896415561316
 20
7271.11873706513
 30
0.0
 40
0.5
100
AcDbArc
 50
180.0
 51
270.0
  0
LINE
  5
1D9
330
2
100
AcDbEntity
  8
0
  6
CENTER
 62
     1
100
AcDbLine
 10
-5962.968168165335
 20
7271.11873706513
 30
0.0
 11
-5975.396415561316
 21
7271.11873706513
 31
0.0
  0
ARC
  5
1DA
330
2
100
AcDbEntity
  8
0
100
AcDbCircle
 10
-5967.396415561317
 20
7255.743737065128
 30
0.0
 40
16.0
100
AcDbArc
 50
73.665177219314
 51
90.0
  0
CIRCLE
  5
1DB
330
2
100
AcDbEntity
  8
0
100
AcDbCircle
 10
-6095.053546032367
 20
7274.224287065128
 30
0.0
 40
2.48055
  0
CIRCLE
  5
1DC
330
2
100
AcDbEntity
  8
0
  6
CENTER
 62
     1
100
AcDbCircle
 10
-6095.053546032367
 20
7274.224287065128
 30
0.0
 40
3.10555
  0
CIRCLE
  5
1DD
330
2
100
AcDbEntity
  8
0
100
AcDbCircle
 10
-6095.053546032367
 20
7274.224287065128
 30
0.0
 40
3.60555
  0
CIRCLE
  5
1DE
330
2
100
AcDbEntity
  8
0
100
AcDbCircle
 10
-6095.053546032367
 20
7274.224287065128
 30
0.0
 40
4.5
  0
DIMENSION
  5
1DF
330
2
100
AcDbEntity
  8
0
100
AcDbDimension
  2
*D6
 10
-5960.896415561315
 20
7339.702807390837
 30
0.0
 11
-5967.646415561318
 21
7342.202807390838
 31
0.0
 71
     5
 42
13.5
  3
STANDARD
100
AcDbAlignedDimension
 13
-5974.396415561319
 23
7277.329837065129
 33
0.0
 14
-5960.896415561315
 24
7314.22428706513
 34
0.0
100
AcDbRotatedDimension
  0
LINE
  5
1EC
330
2
100
AcDbEntity
  8
0
  6
CENTER
 62
     1
100
AcDbLine
 10
-5705.052848179445
 20
7265.224287065128
 30
0.0
 11
-5705.052848179445
 21
7283.224287065128
 31
0.0
  0
DIMENSION
  5
1ED
102
{ACAD_XDICTIONARY
360
1EE
102
}
102
{ACAD_REACTORS
330
1EF
102
}
330
2
100
AcDbEntity
  8
0
100
AcDbDimension
  2
*D13
 10
-5695.052848179444
 20
7328.22428706513
 30
0.0
 11
-5735.052848179445
 21
7330.724287065128
 31
0.0
  1
%%C<>
 71
     5
 42
80.0
  3
STANDARD
100
AcDbAlignedDimension
 13
-5775.052848179445
 23
7274.224287065128
 33
0.0
 14
-5695.052848179444
 24
7274.224287065128
 34
0.0
100
AcDbRotatedDimension
  0
DIMENSION
  5
1FC
102
{ACAD_XDICTIONARY
360
1FD
102
}
102
{ACAD_REACTORS
330
1FE
102
}
330
2
100
AcDbEntity
  8
0
100
AcDbDimension
  2
*D14
 10
-5683.052848179444
 20
7317.22428706513
 30
0.0
 11
-5685.552848179447
 21
7274.224287065128
 31
0.0
 71
     5
 42
85.99999999999818
  3
STANDARD
100
AcDbAlignedDimension
 13
-5724.552848179444
 23
7231.22428706513
 33
0.0
 14
-5724.552848179444
 24
7317.22428706513
 34
0.0
 50
90.0
100
AcDbRotatedDimension
  0
LINE
  5
20B
330
2
100
AcDbEntity
  8
0
  6
CENTER
 62
     1
100
AcDbLine
 10
-5162.658535208976
 20
7271.389182423361
 30
0.0
 11
-5322.158535208977
 21
7271.389182423361
 31
0.0
  0
LINE
  5
20C
330
2
100
AcDbEntity
  8
0
100
AcDbLine
 10
-5168.658535208977
 20
7264.389182423362
 30
0.0
 11
-5172.158535208975
 21
7264.389182423362
 31
0.0
  0
LINE
  5
20D
330
2
100
AcDbEntity
  8
0
100
AcDbLine
 10
-5201.158535208975
 20
7231.389182423362
 30
0.0
 11
-5201.158535208975
 21
7311.38918242336
 31
0.0
  0
LINE
  5
20E
330
2
100
AcDbEntity
  8
0
  6
PHANTOM
 62
     6
100
AcDbLine
 10
-5188.829163982592
 20
7218.317561156729
 30
0.0
 11
-5177.737409966081
 21
7224.721388323949
 31
0.0
  0
LINE
  5
20F
330
2
100
AcDbEntity
  8
0
100
AcDbLine
 10
-5186.458535208973
 20
7243.710778382954
 30
0.0
 11
-5186.458535208974
 21
7219.68624431733
 31
0.0
  0
LINE
  5
210
330
2
100
AcDbEntity
  8
0
100
AcDbLine
 10
-5180.858535208974
 20
7243.710778382953
 30
0.0
 11
-5180.858535208976
 21
7222.919405824788
 31
0.0
  0
LINE
  5
211
330
2
100
AcDbEntity
  8
0
100
AcDbLine
 10
-5183.658535208975
 20
7244.519182423363
 30
0.0
 11
-5183.658535208975
 21
7221.30282507106
 31
0.0
  0
LINE
  5
212
330
2
100
AcDbEntity
  8
0
100
AcDbLine
 10
-5172.158535208977
 20
7257.674896709075
 30
0.0
 11
-5172.158535208966
 21
7285.103468137648
 31
0.0
  0
LINE
  5
213
330
2
100
AcDbEntity
  8
0
100
AcDbLine
 10
-5165.658535208979
 20
7236.389182423362
 30
0.0
 11
-5165.658535208972
 21
7306.389182423362
 31
0.0
  0
LINE
  5
214
330
2
100
AcDbEntity
  8
0
100
AcDbLine
 10
-5200.658535208975
 20
7314.389182423362
 30
0.0
 11
-5200.658535208976
 21
7309.218182423361
 31
0.0
  0
LINE
  5
215
330
2
100
AcDbEntity
  8
0
100
AcDbLine
 10
-5168.658535208975
 20
7311.38918242336
 30
0.0
 11
-5172.158535208975
 21
7311.38918242336
 31
0.0
  0
ARC
  5
216
330
2
100
AcDbEntity
  8
0
100
AcDbCircle
 10
-5168.658535208975
 20
7308.889182423361
 30
0.0
 40
2.5
100
AcDbArc
 50
0.0
 51
90.0
  0
LINE
  5
217
330
2
100
AcDbEntity
  8
0
100
AcDbLine
 10
-5174.658535208975
 20
7314.389182423362
 30
0.0
 11
-5200.658535208975
 21
7314.389182423362
 31
0.0
  0
ARC
  5
218
330
2
100
AcDbEntity
  8
0
100
AcDbCircle
 10
-5174.658535208975
 20
7311.889182423361
 30
0.0
 40
2.5
100
AcDbArc
 50
0.0
 51
90.0
  0
LINE
  5
219
330
2
100
AcDbEntity
  8
0
100
AcDbLine
 10
-5172.158535208975
 20
7311.889182423361
 30
0.0
 11
-5172.158535208975
 21
7311.38918242336
 31
0.0
  0
LINE
  5
21A
330
2
100
AcDbEntity
  8
0
100
AcDbLine
 10
-5165.658535208975
 20
7306.389182423362
 30
0.0
 11
-5166.158535208975
 21
7306.389182423362
 31
0.0
  0
LINE
  5
21B
330
2
100
AcDbEntity
  8
0
100
AcDbLine
 10
-5200.658535208975
 20
7228.389182423362
 30
0.0
 11
-5200.658535208975
 21
7233.560182423362
 31
0.0
  0
LINE
  5
21C
330
2
100
AcDbEntity
  8
0
100
AcDbLine
 10
-5168.658535208975
 20
7231.389182423362
 30
0.0
 11
-5172.158535208975
 21
7231.389182423362
 31
0.0
  0
ARC
  5
21D
330
2
100
AcDbEntity
  8
0
100
AcDbCircle
 10
-5168.658535208975
 20
7233.889182423361
 30
0.0
 40
2.5
100
AcDbArc
 50
270.0
 51
0.0
  0
LINE
  5
21E
330
2
100
AcDbEntity
  8
0
100
AcDbLine
 10
-5174.658535208975
 20
7228.389182423362
 30
0.0
 11
-5180.858535208976
 21
7228.389182423362
 31
0.0
  0
LINE
  5
21F
330
2
100
AcDbEntity
  8
0
100
AcDbLine
 10
-5186.458535208973
 20
7228.389182423362
 30
0.0
 11
-5200.658535208975
 21
7228.389182423362
 31
0.0
  0
LINE
  5
220
330
2
100
AcDbEntity
  8
0
100
AcDbLine
 10
-5186.45853520897
 20
7233.560182423362
 30
0.0
 11
-5200.658535208975
 21
7233.560182423362
 31
0.0
  0
ARC
  5
221
330
2
100
AcDbEntity
  8
0
100
AcDbCircle
 10
-5174.658535208975
 20
7230.889182423361
 30
0.0
 40
2.5
100
AcDbArc
 50
270.0
 51
0.0
  0
LINE
  5
222
330
2
100
AcDbEntity
  8
0
100
AcDbLine
 10
-5166.158535208975
 20
7233.889182423361
 30
0.0
 11
-5166.158535208975
 21
7308.889182423361
 31
0.0
  0
LINE
  5
223
330
2
100
AcDbEntity
  8
0
100
AcDbLine
 10
-5172.158535208975
 20
7230.889182423361
 30
0.0
 11
-5172.158535208975
 21
7231.389182423362
 31
0.0
  0
LINE
  5
224
330
2
100
AcDbEntity
  8
0
100
AcDbLine
 10
-5165.658535208975
 20
7236.389182423362
 30
0.0
 11
-5166.158535208975
 21
7236.389182423362
 31
0.0
  0
LINE
  5
225
330
2
100
AcDbEntity
  8
0
100
AcDbLine
 10
-5280.658535208977
 20
7231.389182423362
 30
0.0
 11
-5280.658535208977
 21
7311.38918242336
 31
0.0
  0
ARC
  5
226
330
2
100
AcDbEntity
  8
0
100
AcDbCircle
 10
-5185.158535208975
 20
7193.552526734745
 30
0.0
 40
40.00765568861701
100
AcDbArc
 50
71.03819276406248
 51
83.82996400590286
  0
ELLIPSE
  5
227
330
2
100
AcDbEntity
  8
0
100
AcDbEllipse
 10
-5183.658535208975
 20
7243.830115894991
 30
0.0
 11
8.999999999999516
 21
0.0000000000009438
 31
0.0
210
0.0
220
0.0
230
1.0
 40
0.7071111111111527
 41
1.570796326794821
 42
3.860379041339751
  0
SPLINE
  5
228
330
2
100
AcDbEntity
  8
0
100
AcDbSpline
210
0.0
220
0.0
230
1.0
 70
     8
 71
     3
 72
    26
 73
    22
 74
     0
 42
0.0000000001
 43
0.0000000001
 40
3.141592653589792
 40
3.141592653589792
 40
3.141592653589792
 40
3.141592653589792
 40
3.467218823503951
 40
3.467218823503951
 40
3.79284499341811
 40
3.79284499341811
 40
4.118471163332269
 40
4.118471163332269
 40
4.444097333246427
 40
4.444097333246427
 40
4.769723503160586
 40
4.769723503160586
 40
5.095349673074747
 40
5.095349673074747
 40
5.420975842988904
 40
5.420975842988904
 40
5.746602012903065
 40
5.746602012903065
 40
6.072228182817222
 40
6.072228182817222
 40
6.283185307179584
 40
6.283185307179584
 40
6.283185307179584
 40
6.283185307179584
 10
-5176.158535208975
 20
7243.105182423362
 30
0.0
 10
-5176.158535208975
 20
7243.565693008855
 30
0.0
 10
-5176.26258034207
 20
7244.0287224399
 30
0.0
 10
-5176.707583768639
 20
7244.960667867494
 30
0.0
 10
-5177.052068043689
 20
7245.428426696316
 30
0.0
 10
-5177.989524875155
 20
7246.298147872346
 30
0.0
 10
-5178.581927302321
 20
7246.698016663579
 30
0.0
 10
-5179.954753731596
 20
7247.353504347498
 30
0.0
 10
-5180.734209397932
 20
7247.608734680328
 30
0.0
 10
-5182.383818028142
 20
7247.929416691971
 30
0.0
 10
-5183.253381869818
 20
7247.994865559316
 30
0.0
 10
-5184.973485712011
 20
7247.925052804983
 30
0.0
 10
-5185.823525108099
 20
7247.789786534652
 30
0.0
 10
-5187.397692040249
 20
7247.341370009138
 30
0.0
 10
-5188.121126563739
 20
7247.028273170279
 30
0.0
 10
-5189.354770543694
 20
7246.280627061553
 30
0.0
 10
-5189.863903288613
 20
7245.84688987313
 30
0.0
 10
-5190.627652270514
 20
7244.938920489436
 30
0.0
 10
-5190.882781314269
 20
7244.467350895622
 30
0.0
 10
-5191.114503652528
 20
7243.702192824199
 30
0.0
 10
-5191.158535208975
 20
7243.40352450342
 30
0.0
 10
-5191.158535208975
 20
7243.105182423362
 30
0.0
  0
SPLINE
  5
229
330
2
100
AcDbEntity
  8
0
100
AcDbSpline
210
0.0
220
0.0
230
1.0
 70
     8
 71
     3
 72
    42
 73
    38
 74
     0
 42
0.0000000001
 43
0.0000000001
 40
1.932891985193865
 40
1.932891985193865
 40
1.932891985193865
 40
1.932891985193865
 40
2.112657033612368
 40
2.112657033612368
 40
2.446561407782708
 40
2.446561407782708
 40
2.780465781953048
 40
2.780465781953048
 40
3.11437015612339
 40
3.11437015612339
 40
3.448274530293731
 40
3.448274530293731
 40
3.782178904464071
 40
3.782178904464071
 40
4.116083278634412
 40
4.116083278634412
 40
4.44998765280475
 40
4.44998765280475
 40
4.783892026975093
 40
4.783892026975093
 40
5.117796401145433
 40
5.117796401145433
 40
5.451700775315773
 40
5.451700775315773
 40
5.785605149486112
 40
5.785605149486112
 40
6.119509523656454
 40
6.119509523656454
 40
6.453413897826794
 40
6.453413897826794
 40
6.787318271997133
 40
6.787318271997133
 40
7.121222646167476
 40
7.121222646167476
 40
7.455127020337816
 40
7.455127020337816
 40
7.491888099862732
 40
7.491888099862732
 40
7.491888099862732
 40
7.491888099862732
 10
-5180.858535208976
 20
7237.188795677417
 30
0.0
 10
-5180.419744329418
 20
7237.306384677292
 30
0.0
 10
-5179.999022826208
 20
7237.451033785641
 30
0.0
 10
-5178.871496932774
 20
7237.930969504941
 30
0.0
 10
-5178.230200160903
 20
7238.323916435243
 30
0.0
 10
-5177.202588371271
 20
7239.195360042483
 30
0.0
 10
-5176.817174881831
 20
7239.671812978558
 30
0.0
 10
-5176.307090757924
 20
7240.626792523364
 30
0.0
 10
-5176.178946274298
 20
7241.103373662813
 30
0.0
 10
-5176.142571517043
 20
7242.047983579595
 30
0.0
 10
-5176.233483913513
 20
7242.521579277529
 30
0.0
 10
-5176.66142968549
 20
7243.477156227086
 30
0.0
 10
-5177.002652911617
 20
7243.958274685478
 30
0.0
 10
-5177.947601508877
 20
7244.854617513992
 30
0.0
 10
-5178.55077698595
 20
7245.267394918649
 30
0.0
 10
-5179.955732097566
 20
7245.941682683074
 30
0.0
 10
-5180.756411254859
 20
7246.2027406245
 30
0.0
 10
-5182.451223253351
 20
7246.524629695894
 30
0.0
 10
-5183.344692033422
 20
7246.585458312789
 30
0.0
 10
-5185.106590457881
 20
7246.496223545261
 30
0.0
 10
-5185.9744492836
 20
7246.346153904375
 30
0.0
 10
-5187.570495902168
 20
7245.861786802277
 30
0.0
 10
-5188.297868529843
 20
7245.527571494875
 30
0.0
 10
-5189.521560347206
 20
7244.738579122962
 30
0.0
 10
-5190.016660625754
 20
7244.284899724035
 30
0.0
 10
-5190.738613453817
 20
7243.345035694139
 30
0.0
 10
-5190.966647325347
 20
7242.86189686873
 30
0.0
 10
-5191.188476318465
 20
7241.912125881565
 30
0.0
 10
-5191.18638044323
 20
7241.442451264969
 30
0.0
 10
-5190.955414311858
 20
7240.492328118289
 30
0.0
 10
-5190.722351900582
 20
7240.009017868054
 30
0.0
 10
-5189.990114909291
 20
7239.070481248811
 30
0.0
 10
-5189.489862232071
 20
7238.618301925814
 30
0.0
 10
-5188.257259960089
 20
7237.833962359298
 30
0.0
 10
-5187.526130329231
 20
7237.502861625809
 30
0.0
 10
-5186.637254821413
 20
7237.237970010607
 30
0.0
 10
-5186.548272527165
 20
7237.212803218226
 30
0.0
 10
-5186.458535208974
 20
7237.188767229041
 30
0.0
  0
ELLIPSE
  5
22A
330
2
100
AcDbEntity
  8
0
100
AcDbEllipse
 10
-5183.658535208975
 20
7241.691182423361
 30
0.0
 11
-3.999999999998073
 21
0.0000000000003529
 31
0.0
210
0.0
220
0.0
230
1.0
 40
0.7070000000003339
 41
2.346193823406563
 42
7.078584137364209
  0
LINE
  5
22B
330
2
100
AcDbEntity
  8
0
  6
CENTER
 62
     1
100
AcDbLine
 10
-5430.764737112323
 20
7226.389182423361
 30
0.0
 11
-5430.764737112323
 21
7316.38918242336
 31
0.0
  0
LINE
  5
22C
330
2
100
AcDbEntity
  8
0
  6
CENTER
 62
     1
100
AcDbLine
 10
-5400.764737112324
 20
7266.38918242336
 30
0.0
 11
-5400.764737112324
 21
7276.389182423361
 31
0.0
  0
LINE
  5
22D
330
2
100
AcDbEntity
  8
0
  6
CENTER
 62
     1
100
AcDbLine
 10
-5460.764737112324
 20
7266.38918242336
 30
0.0
 11
-5460.764737112324
 21
7276.389182423361
 31
0.0
  0
LINE
  5
22E
330
2
100
AcDbEntity
  8
0
  6
CENTER
 62
     1
100
AcDbLine
 10
-5385.764737112324
 20
7271.389182423361
 30
0.0
 11
-5475.764737112324
 21
7271.389182423361
 31
0.0
  0
CIRCLE
  5
22F
330
2
100
AcDbEntity
  8
0
100
AcDbCircle
 10
-5463.99875582809
 20
7238.155163707595
 30
0.0
 40
3.25
  0
LINE
  5
230
330
2
100
AcDbEntity
  8
0
100
AcDbLine
 10
-5191.158535208975
 20
7241.691182423361
 30
0.0
 11
-5191.158535208975
 21
7243.105182423362
 31
0.0
  0
LINE
  5
231
330
2
100
AcDbEntity
  8
0
100
AcDbLine
 10
-5176.158535208975
 20
7241.691182423361
 30
0.0
 11
-5176.158535208975
 21
7243.105182423362
 31
0.0
  0
LINE
  5
232
330
2
100
AcDbEntity
  8
0
100
AcDbLine
 10
-5183.658535208975
 20
7250.19411589499
 30
0.0
 11
-5166.158535208975
 21
7250.19411589499
 31
0.0
  0
LINE
  5
233
330
2
100
AcDbEntity
  8
0
100
AcDbLine
 10
-5179.987890395448
 20
7237.466193833641
 30
0.0
 11
-5166.158535208975
 21
7237.466193833641
 31
0.0
  0
ARC
  5
234
330
2
100
AcDbEntity
  8
0
100
AcDbCircle
 10
-5168.658535208977
 20
7261.889182423361
 30
0.0
 40
2.5
100
AcDbArc
 50
0.0
 51
90.0
  0
LINE
  5
235
330
2
100
AcDbEntity
  8
0
100
AcDbLine
 10
-5166.558535208973
 20
7268.389182423361
 30
0.0
 11
-5166.55853520897
 21
7274.389182423354
 31
0.0
  0
LINE
  5
236
330
2
100
AcDbEntity
  8
0
100
AcDbLine
 10
-5170.058535208973
 20
7266.889182423361
 30
0.0
 11
-5170.058535208969
 21
7275.88918242336
 31
0.0
  0
LINE
  5
237
330
2
100
AcDbEntity
  8
0
100
AcDbLine
 10
-5171.558535208973
 20
7266.889182423361
 30
0.0
 11
-5171.558535208969
 21
7275.88918242336
 31
0.0
  0
LINE
  5
238
330
2
100
AcDbEntity
  8
0
100
AcDbLine
 10
-5172.158535208972
 20
7266.889182423361
 30
0.0
 11
-5168.058535208973
 21
7266.889182423361
 31
0.0
  0
ARC
  5
239
330
2
100
AcDbEntity
  8
0
100
AcDbCircle
 10
-5168.058535208973
 20
7268.389182423361
 30
0.0
 40
1.5
100
AcDbArc
 50
270.0
 51
0.0
  0
ARC
  5
23A
330
2
100
AcDbEntity
  8
0
  6
CENTER
 62
     1
100
AcDbCircle
 10
-5430.764737112323
 20
7271.389182423361
 30
0.0
 40
47.00000000000122
100
AcDbArc
 50
211.6724334264131
 51
232.3193307012701
  0
LINE
  5
23B
330
2
100
AcDbEntity
  8
0
  6
CENTER
 62
     1
100
AcDbLine
 10
-5459.756115140972
 20
7242.397804394714
 30
0.0
 11
-5468.241396515212
 21
7233.912523020475
 31
0.0
  0
ARC
  5
23C
330
2
100
AcDbEntity
  8
0
 62
     3
100
AcDbCircle
 10
-5460.764737112324
 20
7271.389182423361
 30
0.0
 40
2.5
100
AcDbArc
 50
260.0000000000478
 51
190.0000000000048
  0
CIRCLE
  5
23D
330
2
100
AcDbEntity
  8
0
100
AcDbCircle
 10
-5460.764737112324
 20
7271.389182423361
 30
0.0
 40
2.0
  0
ARC
  5
23E
330
2
100
AcDbEntity
  8
0
 62
     3
100
AcDbCircle
 10
-5400.764737112324
 20
7271.389182423361
 30
0.0
 40
2.5
100
AcDbArc
 50
260.0000000000478
 51
190.0000000000048
  0
CIRCLE
  5
23F
330
2
100
AcDbEntity
  8
0
100
AcDbCircle
 10
-5400.764737112324
 20
7271.389182423361
 30
0.0
 40
2.0
  0
LINE
  5
240
330
2
100
AcDbEntity
  8
0
100
AcDbLine
 10
-5262.658535208975
 20
7240.389182423361
 30
0.0
 11
-5218.658535208975
 21
7240.389182423361
 31
0.0
  0
LINE
  5
241
330
2
100
AcDbEntity
  8
0
100
AcDbLine
 10
-5216.658535208975
 20
7242.389182423362
 30
0.0
 11
-5216.658535208975
 21
7300.389182423362
 31
0.0
  0
ARC
  5
242
330
2
100
AcDbEntity
  8
0
100
AcDbCircle
 10
-5218.658535208975
 20
7242.389182423362
 30
0.0
 40
2.0
100
AcDbArc
 50
270.0
 51
0.0
  0
LINE
  5
243
330
2
100
AcDbEntity
  8
0
100
AcDbLine
 10
-5264.658535208975
 20
7242.389182423362
 30
0.0
 11
-5264.658535208975
 21
7300.389182423362
 31
0.0
  0
ARC
  5
244
330
2
100
AcDbEntity
  8
0
100
AcDbCircle
 10
-5262.658535208975
 20
7242.389182423362
 30
0.0
 40
2.0
100
AcDbArc
 50
180.0
 51
270.0
  0
LINE
  5
245
330
2
100
AcDbEntity
  8
0
100
AcDbLine
 10
-5246.658535208975
 20
7240.389182423361
 30
0.0
 11
-5246.658535208975
 21
7302.38918242336
 31
0.0
  0
LINE
  5
246
330
2
100
AcDbEntity
  8
0
100
AcDbLine
 10
-5257.158535208976
 20
7240.389182423361
 30
0.0
 11
-5257.158535208976
 21
7302.38918242336
 31
0.0
  0
HATCH
  5
247
330
2
100
AcDbEntity
  8
0
100
AcDbHatch
 10
0.0
 20
0.0
 30
0.0
210
0.0
220
0.0
230
1.0
  2
SOLID
 70
     1
 71
     0
 91
        3
 92
        7
 72
     1
 73
     1
 93
       14
 10
-5248.896746062392
 20
7244.807500936902
 42
0.0937143382696255
 10
-5249.314155568622
 20
7247.01802725269
 42
0.0
 10
-5251.285222376149
 20
7247.01802725269
 42
-0.3419987131189617
 10
-5251.743865140832
 20
7247.373290410584
 42
0.8810189742401522
 10
-5252.054640799233
 20
7247.333816268316
 42
0.0
 10
-5252.054640799233
 20
7247.333816726376
 42
0.0
 10
-5252.054640799233
 20
7245.51802725269
 42
0.8810176860282405
 10
-5251.743865140832
 20
7245.478553568479
 42
-0.3419987131199286
 10
-5251.285222376149
 20
7245.833816726373
 42
0.0
 10
-5249.838050566012
 20
7245.833816726373
 42
-1.140543588145414
 10
-5254.02832500976
 20
7245.281185147419
 42
-0.2430703534513821
 10
-5253.253324438174
 20
7246.781185147425
 42
0.0
 10
-5254.727991122636
 20
7246.781185147425
 42
-0.2403282878310472
 10
-5254.688631767312
 20
7246.064774702346
 42
1.201119850359529
 97
        0
 92
        7
 72
     1
 73
     1
 93
       14
 10
-5248.896746062392
 20
7252.702237779008
 42
0.0937143382697012
 10
-5249.314155568622
 20
7254.912764094796
 42
0.0
 10
-5251.285222376149
 20
7254.912764094796
 42
-0.3419987131189617
 10
-5251.743865140832
 20
7255.268027252689
 42
0.8810189742401522
 10
-5252.054640799233
 20
7255.22855311042
 42
0.0
 10
-5252.054640799233
 20
7255.228553568483
 42
0.0
 10
-5252.054640799233
 20
7253.412764094797
 42
0.881017686029679
 10
-5251.743865140832
 20
7253.373290410586
 42
-0.3419987131193316
 10
-5251.285222376149
 20
7253.728553568477
 42
0.0
 10
-5249.838050566012
 20
7253.728553568477
 42
-1.140543588145414
 10
-5254.02832500976
 20
7253.175921989525
 42
-0.2430703534513821
 10
-5253.253324438174
 20
7254.675921989532
 42
0.0
 10
-5254.727991122636
 20
7254.675921989532
 42
-0.2403282878310472
 10
-5254.688631767312
 20
7253.95951154445
 42
1.201119850359529
 97
        0
 92
        7
 72
     1
 73
     1
 93
       25
 10
-5248.896746062392
 20
7260.984992538245
 42
0.0
 10
-5248.896746062394
 20
7261.001789850674
 42
0.0
 10
-5253.94937764134
 20
7263.044343042166
 42
0.0
 10
-5249.971926328599
 20
7263.044343042166
 42
-0.3419987131199597
 10
-5249.207521720794
 20
7262.452237779005
 42
0.8810176860694333
 10
-5248.896746062392
 20
7262.491711463217
 42
0.0
 10
-5248.896746062392
 20
7264.781185147427
 42
0.8810176860694735
 10
-5249.207521720794
 20
7264.820658831638
 42
-0.3419987131199634
 10
-5249.971926328599
 20
7264.228553568479
 42
0.0
 10
-5253.821565796186
 20
7264.228553568479
 42
-0.3419987131199597
 10
-5254.585970403987
 20
7264.820658831638
 42
0.8810176860694333
 10
-5254.896746062392
 20
7264.781185147427
 42
0.0
 10
-5254.896746062392
 20
7262.8075009369
 42
0.0
 10
-5251.186219746601
 20
7261.307500936901
 42
0.0
 10
-5254.896746062392
 20
7259.491711463216
 42
0.0
 10
-5254.896746062392
 20
7257.754869357952
 42
0.8810176860694735
 10
-5254.585970403987
 20
7257.715395673741
 42
-0.3419987131199635
 10
-5253.821565796186
 20
7258.307500936901
 42
0.0
 10
-5249.971926328599
 20
7258.307500936901
 42
-0.3419987131199597
 10
-5249.207521720794
 20
7257.715395673741
 42
0.8810176860694333
 10
-5248.896746062392
 20
7257.754869357952
 42
0.0
 10
-5248.896746062392
 20
7259.412764094796
 42
0.8810176860694735
 10
-5249.207521720794
 20
7259.452237779005
 42
-0.3419987131199634
 10
-5249.971926328599
 20
7258.860132515849
 42
0.0
 10
-5253.238851325551
 20
7258.860132515849
 42
0.0
 97
        0
 75
     0
 76
     1
 47
0.0347943292785178
 98
        3
 10
-5250.882253547104
 20
7242.581042491711
 10
-5250.221161499092
 20
7250.900798498459
 10
-5251.369374695532
 20
7260.438932527211
1001
ACAD
1010
0.0
1020
0.0
1030
0.0
  0
LINE
  5
248
330
2
100
AcDbEntity
  8
0
100
AcDbLine
 10
-5248.896746062392
 20
7262.491711463217
 30
0.0
 11
-5248.896746062392
 21
7264.781185147427
 31
0.0
  0
LINE
  5
249
330
2
100
AcDbEntity
  8
0
100
AcDbLine
 10
-5249.971926328599
 20
7264.228553568479
 30
0.0
 11
-5253.821565796186
 21
7264.228553568479
 31
0.0
  0
LINE
  5
24A
330
2
100
AcDbEntity
  8
0
100
AcDbLine
 10
-5253.94937764134
 20
7263.044343042166
 30
0.0
 11
-5249.971926328599
 21
7263.044343042166
 31
0.0
  0
ARC
  5
24B
330
2
100
AcDbEntity
  8
0
100
AcDbCircle
 10
-5249.054640799233
 20
7264.781185147427
 30
0.0
 40
0.1578947368421076
100
AcDbArc
 50
0.0
 51
165.5224878140695
  0
ARC
  5
24C
330
2
100
AcDbEntity
  8
0
100
AcDbCircle
 10
-5249.971926328599
 20
7265.018027252691
 30
0.0
 40
0.7894736842105267
100
AcDbArc
 50
270.0
 51
345.5224878140695
  0
ARC
  5
24D
330
2
100
AcDbEntity
  8
0
100
AcDbCircle
 10
-5249.054640799233
 20
7262.491711463217
 30
0.0
 40
0.1578947368421076
100
AcDbArc
 50
194.4775121859304
 51
0.0
  0
ARC
  5
24E
330
2
100
AcDbEntity
  8
0
100
AcDbCircle
 10
-5249.971926328599
 20
7262.254869357952
 30
0.0
 40
0.7894736842105267
100
AcDbArc
 50
14.47751218593047
 51
90.0
  0
ARC
  5
24F
330
2
100
AcDbEntity
  8
0
100
AcDbCircle
 10
-5254.73885132555
 20
7264.781185147427
 30
0.0
 40
0.1578947368421076
100
AcDbArc
 50
14.47751218593047
 51
180.0
  0
ARC
  5
250
330
2
100
AcDbEntity
  8
0
100
AcDbCircle
 10
-5253.821565796186
 20
7265.018027252691
 30
0.0
 40
0.7894736842105267
100
AcDbArc
 50
194.4775121859304
 51
270.0
  0
LINE
  5
251
330
2
100
AcDbEntity
  8
0
100
AcDbLine
 10
-5254.896746062392
 20
7262.8075009369
 30
0.0
 11
-5254.896746062392
 21
7264.781185147427
 31
0.0
  0
LINE
  5
252
330
2
100
AcDbEntity
  8
0
100
AcDbLine
 10
-5251.186219746601
 20
7261.307500936901
 30
0.0
 11
-5254.896746062392
 21
7262.8075009369
 31
0.0
  0
LINE
  5
253
330
2
100
AcDbEntity
  8
0
100
AcDbLine
 10
-5248.896746062392
 20
7260.984992538245
 30
0.0
 11
-5248.896746062392
 21
7261.001789850674
 31
0.0
  0
LINE
  5
254
330
2
100
AcDbEntity
  8
0
100
AcDbLine
 10
-5248.896746062392
 20
7257.754869357952
 30
0.0
 11
-5248.896746062392
 21
7259.412764094796
 31
0.0
  0
LINE
  5
255
330
2
100
AcDbEntity
  8
0
100
AcDbLine
 10
-5253.238851325551
 20
7258.860132515849
 30
0.0
 11
-5249.971926328599
 21
7258.860132515849
 31
0.0
  0
ARC
  5
256
330
2
100
AcDbEntity
  8
0
100
AcDbCircle
 10
-5249.971926328599
 20
7259.649606200058
 30
0.0
 40
0.7894736842105267
100
AcDbArc
 50
270.0
 51
345.5224878140695
  0
ARC
  5
257
330
2
100
AcDbEntity
  8
0
100
AcDbCircle
 10
-5249.054640799233
 20
7259.412764094796
 30
0.0
 40
0.1578947368421076
100
AcDbArc
 50
0.0
 51
165.5224878140695
  0
LINE
  5
258
330
2
100
AcDbEntity
  8
0
100
AcDbLine
 10
-5249.971926328599
 20
7258.307500936901
 30
0.0
 11
-5253.821565796186
 21
7258.307500936901
 31
0.0
  0
ARC
  5
259
330
2
100
AcDbEntity
  8
0
100
AcDbCircle
 10
-5249.971926328599
 20
7257.51802725269
 30
0.0
 40
0.7894736842105267
100
AcDbArc
 50
14.47751218593047
 51
90.0
  0
ARC
  5
25A
330
2
100
AcDbEntity
  8
0
100
AcDbCircle
 10
-5249.054640799233
 20
7257.754869357952
 30
0.0
 40
0.1578947368421076
100
AcDbArc
 50
194.4775121859304
 51
0.0
  0
LINE
  5
25B
330
2
100
AcDbEntity
  8
0
100
AcDbLine
 10
-5253.238851325551
 20
7258.860132515849
 30
0.0
 11
-5248.896746062392
 21
7260.984992538245
 31
0.0
  0
ARC
  5
25C
330
2
100
AcDbEntity
  8
0
100
AcDbCircle
 10
-5254.73885132555
 20
7257.754869357952
 30
0.0
 40
0.1578947368421076
100
AcDbArc
 50
180.0
 51
345.5224878140695
  0
ARC
  5
25D
330
2
100
AcDbEntity
  8
0
100
AcDbCircle
 10
-5253.821565796186
 20
7257.51802725269
 30
0.0
 40
0.7894736842105267
100
AcDbArc
 50
90.0
 51
165.5224878140695
  0
LINE
  5
25E
330
2
100
AcDbEntity
  8
0
100
AcDbLine
 10
-5254.896746062392
 20
7257.754869357952
 30
0.0
 11
-5254.896746062392
 21
7259.491711463216
 31
0.0
  0
ARC
  5
25F
330
2
100
AcDbEntity
  8
0
100
AcDbCircle
 10
-5251.908535208976
 20
7244.902468452345
 30
0.0
 40
3.013286028982677
100
AcDbArc
 50
156.8155745922426
 51
358.1939520675018
  0
LINE
  5
260
330
2
100
AcDbEntity
  8
0
100
AcDbLine
 10
-5253.253324438174
 20
7246.781185147425
 30
0.0
 11
-5254.727991122636
 21
7246.781185147425
 31
0.0
  0
ARC
  5
261
330
2
100
AcDbEntity
  8
0
100
AcDbCircle
 10
-5251.285222376149
 20
7245.360132515847
 30
0.0
 40
0.4736842105263161
100
AcDbArc
 50
90.0
 51
165.5224878140695
  0
ARC
  5
262
330
2
100
AcDbEntity
  8
0
100
AcDbCircle
 10
-5251.896746062392
 20
7245.51802725269
 30
0.0
 40
0.1578947368420963
100
AcDbArc
 50
180.0
 51
345.5224878140695
  0
ARC
  5
263
330
2
100
AcDbEntity
  8
0
100
AcDbCircle
 10
-5251.285222376149
 20
7247.491711463215
 30
0.0
 40
0.4736842105263161
100
AcDbArc
 50
194.4775121859304
 51
270.0
  0
LINE
  5
264
330
2
100
AcDbEntity
  8
0
100
AcDbLine
 10
-5252.054640799233
 20
7245.51802725269
 30
0.0
 11
-5252.054640799233
 21
7247.333816726373
 31
0.0
  0
LINE
  5
265
330
2
100
AcDbEntity
  8
0
100
AcDbLine
 10
-5249.838050566012
 20
7245.833816726373
 30
0.0
 11
-5251.285222376149
 21
7245.833816726373
 31
0.0
  0
ARC
  5
266
330
2
100
AcDbEntity
  8
0
100
AcDbCircle
 10
-5251.896746062392
 20
7245.281185147425
 30
0.0
 40
2.131578947368458
100
AcDbArc
 50
180.0
 51
15.02611375911348
  0
LINE
  5
267
330
2
100
AcDbEntity
  8
0
100
AcDbLine
 10
-5249.314155568622
 20
7247.01802725269
 30
0.0
 11
-5251.285222376149
 21
7247.01802725269
 31
0.0
  0
ARC
  5
268
330
2
100
AcDbEntity
  8
0
100
AcDbCircle
 10
-5251.896746062392
 20
7247.333816726373
 30
0.0
 40
0.1578947368420963
100
AcDbArc
 50
14.47751218593047
 51
180.0
  0
LINE
  5
269
330
2
100
AcDbEntity
  8
0
100
AcDbLine
 10
-5248.896746062392
 20
7261.001789850674
 30
0.0
 11
-5253.94937764134
 21
7263.044343042166
 31
0.0
  0
LINE
  5
26A
330
2
100
AcDbEntity
  8
0
100
AcDbLine
 10
-5254.896746062392
 20
7259.491711463216
 30
0.0
 11
-5251.186219746601
 21
7261.307500936901
 31
0.0
  0
ARC
  5
26B
330
2
100
AcDbEntity
  8
0
100
AcDbCircle
 10
-5254.950641317659
 20
7244.809027819915
 30
0.0
 40
6.053895447818247
100
AcDbArc
 50
359.9855491469636
 51
21.40074743271938
  0
ARC
  5
26C
330
2
100
AcDbEntity
  8
0
100
AcDbCircle
 10
-5255.410509510888
 20
7246.384401393021
 30
0.0
 40
0.7894736842105267
100
AcDbArc
 50
338.0090682492796
 51
30.17168409224185
  0
ARC
  5
26D
330
2
100
AcDbEntity
  8
0
100
AcDbCircle
 10
-5252.189212891348
 20
7245.281185147425
 30
0.0
 40
1.839112118411773
100
AcDbArc
 50
125.3521829317436
 51
180.0
  0
ARC
  5
26E
330
2
100
AcDbEntity
  8
0
100
AcDbCircle
 10
-5252.189212891348
 20
7253.175921989532
 30
0.0
 40
1.839112118411773
100
AcDbArc
 50
125.3521829317436
 51
180.0
  0
LINE
  5
26F
330
2
100
AcDbEntity
  8
0
100
AcDbLine
 10
-5253.253324438174
 20
7254.675921989532
 30
0.0
 11
-5254.727991122636
 21
7254.675921989532
 31
0.0
  0
ARC
  5
270
330
2
100
AcDbEntity
  8
0
100
AcDbCircle
 10
-5251.896746062392
 20
7253.175921989532
 30
0.0
 40
2.131578947368458
100
AcDbArc
 50
180.0
 51
15.02611375911348
  0
ARC
  5
271
330
2
100
AcDbEntity
  8
0
100
AcDbCircle
 10
-5251.908535208976
 20
7252.797205294449
 30
0.0
 40
3.013286028982677
100
AcDbArc
 50
156.8155745922426
 51
358.1939520675018
  0
ARC
  5
272
330
2
100
AcDbEntity
  8
0
100
AcDbCircle
 10
-5255.410509510888
 20
7254.279138235126
 30
0.0
 40
0.7894736842105267
100
AcDbArc
 50
338.0090682492796
 51
30.17168409224185
  0
ARC
  5
273
330
2
100
AcDbEntity
  8
0
100
AcDbCircle
 10
-5254.950641317659
 20
7252.70376466202
 30
0.0
 40
6.053895447818247
100
AcDbArc
 50
359.9855491469636
 51
21.40074743271938
  0
LINE
  5
274
330
2
100
AcDbEntity
  8
0
100
AcDbLine
 10
-5249.314155568622
 20
7254.912764094796
 30
0.0
 11
-5251.285222376149
 21
7254.912764094796
 31
0.0
  0
ARC
  5
275
330
2
100
AcDbEntity
  8
0
100
AcDbCircle
 10
-5251.896746062392
 20
7255.228553568477
 30
0.0
 40
0.1578947368420963
100
AcDbArc
 50
14.47751218593047
 51
180.0
  0
LINE
  5
276
330
2
100
AcDbEntity
  8
0
100
AcDbLine
 10
-5249.838050566012
 20
7253.728553568477
 30
0.0
 11
-5251.285222376149
 21
7253.728553568477
 31
0.0
  0
LINE
  5
277
330
2
100
AcDbEntity
  8
0
100
AcDbLine
 10
-5252.054640799233
 20
7253.412764094797
 30
0.0
 11
-5252.054640799233
 21
7255.228553568477
 31
0.0
  0
ARC
  5
278
330
2
100
AcDbEntity
  8
0
100
AcDbCircle
 10
-5251.285222376149
 20
7255.386448305319
 30
0.0
 40
0.4736842105263161
100
AcDbArc
 50
194.4775121859304
 51
270.0
  0
ARC
  5
279
330
2
100
AcDbEntity
  8
0
100
AcDbCircle
 10
-5251.896746062392
 20
7253.412764094797
 30
0.0
 40
0.1578947368420963
100
AcDbArc
 50
180.0
 51
345.5224878140695
  0
ARC
  5
27A
330
2
100
AcDbEntity
  8
0
100
AcDbCircle
 10
-5251.285222376149
 20
7253.254869357952
 30
0.0
 40
0.4736842105263161
100
AcDbArc
 50
90.0
 51
165.5224878140695
  0
TEXT
  5
27B
330
2
100
AcDbEntity
  8
0
100
AcDbText
 10
-5218.158535208975
 20
7244.38918242336
 30
0.0
 40
2.0
  1
GOOOOOO
 50
90.0
  7
유형1
100
AcDbText
  0
LINE
  5
27C
330
2
100
AcDbEntity
  8
0
100
AcDbLine
 10
-5246.658535208975
 20
7266.38918242336
 30
0.0
 11
-5257.158535208976
 21
7266.38918242336
 31
0.0
  0
LINE
  5
27D
330
2
100
AcDbEntity
  8
0
100
AcDbLine
 10
-5396.764737112324
 20
7231.389182423362
 30
0.0
 11
-5464.764737112324
 21
7231.389182423362
 31
0.0
  0
LINE
  5
27E
330
2
100
AcDbEntity
  8
0
100
AcDbLine
 10
-5470.764737112324
 20
7237.389182423361
 30
0.0
 11
-5470.764737112324
 21
7305.38918242336
 31
0.0
  0
CIRCLE
  5
27F
330
2
100
AcDbEntity
  8
0
100
AcDbCircle
 10
-5463.99875582809
 20
7304.623201139128
 30
0.0
 40
3.25
  0
LINE
  5
280
330
2
100
AcDbEntity
  8
0
100
AcDbLine
 10
-5396.764737112324
 20
7311.38918242336
 30
0.0
 11
-5464.764737112324
 21
7311.38918242336
 31
0.0
  0
CIRCLE
  5
281
330
2
100
AcDbEntity
  8
0
100
AcDbCircle
 10
-5397.530718396558
 20
7304.623201139128
 30
0.0
 40
3.25
  0
LINE
  5
282
330
2
100
AcDbEntity
  8
0
100
AcDbLine
 10
-5390.764737112323
 20
7237.389182423361
 30
0.0
 11
-5390.764737112323
 21
7305.38918242336
 31
0.0
  0
CIRCLE
  5
283
330
2
100
AcDbEntity
  8
0
100
AcDbCircle
 10
-5397.530718396558
 20
7238.155163707595
 30
0.0
 40
3.25
  0
ARC
  5
284
330
2
100
AcDbEntity
  8
0
100
AcDbCircle
 10
-5464.764737112324
 20
7305.38918242336
 30
0.0
 40
6.0
100
AcDbArc
 50
90.0
 51
180.0
  0
LINE
  5
285
330
2
100
AcDbEntity
  8
0
  6
CENTER
 62
     1
100
AcDbLine
 10
-5401.773359083673
 20
7242.397804394714
 30
0.0
 11
-5393.288077709436
 21
7233.912523020475
 31
0.0
  0
ARC
  5
286
330
2
100
AcDbEntity
  8
0
100
AcDbCircle
 10
-5396.764737112324
 20
7305.38918242336
 30
0.0
 40
6.0
100
AcDbArc
 50
0.0
 51
90.0
  0
ARC
  5
287
330
2
100
AcDbEntity
  8
0
  6
CENTER
 62
     1
100
AcDbCircle
 10
-5430.764737112323
 20
7271.389182423361
 30
0.0
 40
47.00000000000122
100
AcDbArc
 50
307.6806692987299
 51
322.3193307013503
  0
ARC
  5
288
330
2
100
AcDbEntity
  8
0
100
AcDbCircle
 10
-5464.764737112324
 20
7237.389182423361
 30
0.0
 40
6.0
100
AcDbArc
 50
180.0
 51
270.0
  0
ARC
  5
289
330
2
100
AcDbEntity
  8
0
  6
CENTER
 62
     1
100
AcDbCircle
 10
-5430.764737112323
 20
7271.389182423361
 30
0.0
 40
47.00000000000122
100
AcDbArc
 50
127.6806692987299
 51
142.3193307012501
  0
ARC
  5
28A
330
2
100
AcDbEntity
  8
0
100
AcDbCircle
 10
-5396.764737112324
 20
7237.389182423361
 30
0.0
 40
6.0
100
AcDbArc
 50
270.0
 51
0.0
  0
LINE
  5
28B
330
2
100
AcDbEntity
  8
0
  6
CENTER
 62
     1
100
AcDbLine
 10
-5459.756115140972
 20
7300.380560452009
 30
0.0
 11
-5468.241396515212
 21
7308.865841826251
 31
0.0
  0
ARC
  5
28C
102
{ACAD_REACTORS
330
33E
102
}
330
2
100
AcDbEntity
  8
0
  6
CENTER
 62
     1
100
AcDbCircle
 10
-5430.764737112323
 20
7271.389182423361
 30
0.0
 40
47.00000000000122
100
AcDbArc
 50
31.67243342641319
 51
52.31933070127007
  0
LINE
  5
28D
330
2
100
AcDbEntity
  8
0
  6
CENTER
 62
     1
100
AcDbLine
 10
-5401.773359083673
 20
7300.380560452009
 30
0.0
 11
-5393.288077709436
 21
7308.865841826251
 31
0.0
  0
CIRCLE
  5
28E
330
2
100
AcDbEntity
  8
0
100
AcDbCircle
 10
-5430.764737112323
 20
7271.389182423361
 30
0.0
 40
36.5
  0
LINE
  5
28F
330
2
100
AcDbEntity
  8
0
100
AcDbLine
 10
-5289.158535208977
 20
7235.389182423361
 30
0.0
 11
-5289.158535208977
 21
7307.389182423361
 31
0.0
  0
LINE
  5
290
330
2
100
AcDbEntity
  8
0
100
AcDbLine
 10
-5287.158535208977
 20
7231.389182423362
 30
0.0
 11
-5200.658535208975
 21
7231.389182423362
 31
0.0
  0
LINE
  5
291
330
2
100
AcDbEntity
  8
0
100
AcDbLine
 10
-5287.158535208977
 20
7234.889182423362
 30
0.0
 11
-5288.658535208977
 21
7234.889182423362
 31
0.0
  0
LINE
  5
292
330
2
100
AcDbEntity
  8
0
100
AcDbLine
 10
-5287.158535208977
 20
7231.389182423362
 30
0.0
 11
-5287.158535208977
 21
7311.38918242336
 31
0.0
  0
LINE
  5
293
330
2
100
AcDbEntity
  8
0
100
AcDbLine
 10
-5287.158535208977
 20
7311.38918242336
 30
0.0
 11
-5200.658535208975
 21
7311.38918242336
 31
0.0
  0
LINE
  5
294
330
2
100
AcDbEntity
  8
0
100
AcDbLine
 10
-5287.158535208977
 20
7307.889182423362
 30
0.0
 11
-5288.658535208977
 21
7307.889182423362
 31
0.0
  0
LINE
  5
295
330
2
100
AcDbEntity
  8
0
100
AcDbLine
 10
-5289.158535208977
 20
7307.389182423361
 30
0.0
 11
-5288.658535208977
 21
7307.889182423362
 31
0.0
  0
LINE
  5
296
330
2
100
AcDbEntity
  8
0
100
AcDbLine
 10
-5289.158535208977
 20
7235.389182423361
 30
0.0
 11
-5288.658535208977
 21
7234.889182423362
 31
0.0
  0
CIRCLE
  5
297
330
2
100
AcDbEntity
  8
0
100
AcDbCircle
 10
-5430.764737112323
 20
7271.389182423361
 30
0.0
 40
15.0
  0
ARC
  5
298
330
2
100
AcDbEntity
  8
0
100
AcDbCircle
 10
-5400.764737112324
 20
7271.389182423361
 30
0.0
 40
5.0
100
AcDbArc
 50
100.8069228748603
 51
259.1930771251397
  0
ARC
  5
299
330
2
100
AcDbEntity
  8
0
100
AcDbCircle
 10
-5430.764737112323
 20
7271.389182423361
 30
0.0
 40
31.5
100
AcDbArc
 50
193.4784567866479
 51
346.5215432133519
  0
ARC
  5
29A
330
2
100
AcDbEntity
  8
0
100
AcDbCircle
 10
-5402.077237112324
 20
7264.513330203455
 30
0.0
 40
2.0
100
AcDbArc
 50
346.5215432133519
 51
79.19307712513965
  0
ARC
  5
29B
330
2
100
AcDbEntity
  8
0
100
AcDbCircle
 10
-5430.764737112323
 20
7271.389182423361
 30
0.0
 40
31.5
100
AcDbArc
 50
13.47845678664791
 51
166.5215432133519
  0
ARC
  5
29C
330
2
100
AcDbEntity
  8
0
100
AcDbCircle
 10
-5402.077237112324
 20
7278.265034643268
 30
0.0
 40
2.0
100
AcDbArc
 50
280.8069228748603
 51
13.47845678664791
  0
ARC
  5
29D
330
2
100
AcDbEntity
  8
0
100
AcDbCircle
 10
-5460.764737112324
 20
7271.389182423361
 30
0.0
 40
5.0
100
AcDbArc
 50
280.8069228748603
 51
79.19307712513965
  0
ARC
  5
29E
330
2
100
AcDbEntity
  8
0
100
AcDbCircle
 10
-5459.452237112324
 20
7264.513330203455
 30
0.0
 40
2.0
100
AcDbArc
 50
100.8069228748603
 51
193.4784567866479
  0
ARC
  5
29F
330
2
100
AcDbEntity
  8
0
100
AcDbCircle
 10
-5459.452237112324
 20
7278.265034643268
 30
0.0
 40
2.0
100
AcDbArc
 50
166.5215432133519
 51
259.1930771251397
  0
CIRCLE
  5
2A0
330
2
100
AcDbEntity
  8
0
100
AcDbCircle
 10
-5430.764737112323
 20
7271.389182423361
 30
0.0
 40
4.0
  0
CIRCLE
  5
2A1
330
2
100
AcDbEntity
  8
0
100
AcDbCircle
 10
-5430.764737112323
 20
7271.389182423361
 30
0.0
 40
4.5
  0
DIMENSION
  5
2A2
330
2
100
AcDbEntity
  8
0
100
AcDbDimension
  2
*D7
 10
-6055.053546032367
 20
7339.691596393453
 30
0.0
 11
-6095.053546032367
 21
7342.191596393455
 31
0.0
  1
{\fGulim|b0|i0|c129|p50;□}<>
 71
     5
 42
80.0
  3
STANDARD
100
AcDbAlignedDimension
 13
-6135.053546032366
 23
7308.224287065129
 33
0.0
 14
-6055.053546032367
 24
7308.224287065129
 34
0.0
100
AcDbRotatedDimension
  0
DIMENSION
  5
2AF
330
2
100
AcDbEntity
  8
0
100
AcDbDimension
  2
*D8
 10
-5390.764737112323
 20
7336.081007031495
 30
0.0
 11
-5430.764737112323
 21
7338.581007031494
 31
0.0
  1
{\fGulim|b0|i0|c129|p50;□}<>
 71
     5
 42
80.0
  3
STANDARD
100
AcDbAlignedDimension
 13
-5470.764737112323
 23
7305.389182423366
 33
0.0
 14
-5390.764737112323
 24
7305.389182423366
 34
0.0
100
AcDbRotatedDimension
  0
LINE
  5
2BC
330
2
100
AcDbEntity
  8
0
100
AcDbLine
 10
-5289.158535208977
 20
7267.389182423362
 30
0.0
 11
-5318.658535208977
 21
7267.389182423362
 31
0.0
  0
LINE
  5
2BD
330
2
100
AcDbEntity
  8
0
100
AcDbLine
 10
-5294.158535208977
 20
7274.389182423361
 30
0.0
 11
-5319.158535208977
 21
7274.389182423361
 31
0.0
  0
LINE
  5
2BE
102
{ACAD_REACTORS
330
2DF
102
}
330
2
100
AcDbEntity
  8
0
100
AcDbLine
 10
-5289.158535208977
 20
7275.389182423362
 30
0.0
 11
-5294.158535208977
 21
7275.389182423362
 31
0.0
  0
LINE
  5
2BF
102
{ACAD_REACTORS
330
2F0
102
}
330
2
100
AcDbEntity
  8
0
100
AcDbLine
 10
-5319.158535208977
 20
7267.889182423362
 30
0.0
 11
-5319.158535208977
 21
7274.389182423361
 31
0.0
  0
LINE
  5
2C0
102
{ACAD_REACTORS
330
2F0
102
}
330
2
100
AcDbEntity
  8
0
100
AcDbLine
 10
-5294.158535208977
 20
7274.389182423361
 30
0.0
 11
-5294.158535208977
 21
7275.389182423362
 31
0.0
  0
LINE
  5
2C1
330
2
100
AcDbEntity
  8
0
100
AcDbLine
 10
-5318.658535208977
 20
7267.389182423362
 30
0.0
 11
-5318.658535208975
 21
7274.389182423361
 31
0.0
  0
DIMENSION
  5
2C2
330
2
100
AcDbEntity
  8
0
100
AcDbDimension
  2
*D9
 10
-5344.158535208972
 20
7307.889182423362
 30
0.0
 11
-5344.158535208975
 21
7271.389182423364
 31
0.0
 70
   128
  1
%%C<>{\H0.7x;\S  0^ -0.03;}
 71
     5
 42
73.0
  3
STANDARD
100
AcDbAlignedDimension
 13
-5288.158535208977
 23
7234.889182423362
 33
0.0
 14
-5288.158535208977
 24
7307.889182423362
 34
0.0
 50
90.0
100
AcDbRotatedDimension
  0
DIMENSION
  5
2CF
330
2
100
AcDbEntity
  8
0
100
AcDbDimension
  2
*D10
 10
-5328.158535208974
 20
7274.389182423361
 30
0.0
 11
-5328.158535208975
 21
7270.691957423363
 31
0.0
 70
   128
 71
     5
 42
7.0
  3
STANDARD
100
AcDbAlignedDimension
 13
-5318.658535208977
 23
7267.389182423362
 33
0.0
 14
-5319.158535208977
 24
7274.389182423361
 34
0.0
 50
90.0
100
AcDbRotatedDimension
  0
LINE
  5
2DC
102
{ACAD_REACTORS
330
2DF
102
}
330
2
100
AcDbEntity
  8
0
100
AcDbLine
 10
-5318.658535208977
 20
7267.389182423362
 30
0.0
 11
-5319.158535208977
 21
7267.889182423362
 31
0.0
  0
DIMENSION
  5
2DD
102
{ACAD_XDICTIONARY
360
2DE
102
}
102
{ACAD_REACTORS
330
2DF
102
}
330
2
100
AcDbEntity
  8
0
100
AcDbDimension
  2
*D15
 10
-5336.158535208975
 20
7275.389182423362
 30
0.0
 11
-5339.608535208977
 21
7271.389182423361
 31
0.0
  1
%%C<>{\H0.7x;\S  0^ -0.015;}
 71
     5
 42
8.0
  3
STANDARD
100
AcDbAlignedDimension
 13
-5318.658535208977
 23
7267.389182423362
 33
0.0
 14
-5294.158535208977
 24
7275.389182423362
 34
0.0
 50
90.0
100
AcDbRotatedDimension
  0
DIMENSION
  5
2EE
102
{ACAD_XDICTIONARY
360
2EF
102
}
102
{ACAD_REACTORS
330
2F0
102
}
330
2
100
AcDbEntity
  8
0
100
AcDbDimension
  2
*D16
 10
-5294.158535208977
 20
7285.389182423362
 30
0.0
 11
-5306.658535208977
 21
7287.889182423362
 31
0.0
 71
     5
 42
25.0
  3
STANDARD
100
AcDbAlignedDimension
 13
-5319.158535208977
 23
7274.389182423361
 33
0.0
 14
-5294.158535208977
 24
7275.389182423362
 34
0.0
100
AcDbRotatedDimension
  0
DIMENSION
  5
2FD
330
2
100
AcDbEntity
  8
0
100
AcDbDimension
  2
*D11
 10
-5287.158535208977
 20
7336.867702749072
 30
0.0
 11
-5303.158535208977
 21
7339.367702749071
 31
0.0
 71
     5
 42
32.0
  3
STANDARD
100
AcDbAlignedDimension
 13
-5319.158535208977
 23
7274.389182423361
 33
0.0
 14
-5287.158535208977
 24
7311.38918242336
 34
0.0
100
AcDbRotatedDimension
  0
LINE
  5
30A
330
2
100
AcDbEntity
  8
0
100
AcDbLine
 10
-5936.396415561318
 20
7305.224287065128
 30
0.0
 11
-5892.396415561318
 21
7305.224287065128
 31
0.0
  0
ARC
  5
30B
330
2
100
AcDbEntity
  8
0
100
AcDbCircle
 10
-5892.396415561318
 20
7303.22428706513
 30
0.0
 40
2.0
100
AcDbArc
 50
0.0
 51
90.0
  0
ARC
  5
30C
330
2
100
AcDbEntity
  8
0
100
AcDbCircle
 10
-5936.396415561318
 20
7303.22428706513
 30
0.0
 40
2.0
100
AcDbArc
 50
90.0
 51
180.0
  0
LINE
  5
30D
330
2
100
AcDbEntity
  8
0
100
AcDbLine
 10
-5842.396415561317
 20
7281.224287065128
 30
0.0
 11
-5845.896415561316
 21
7281.224287065128
 31
0.0
  0
ARC
  5
30E
330
2
100
AcDbEntity
  8
0
100
AcDbCircle
 10
-5842.396415561317
 20
7283.724287065128
 30
0.0
 40
2.5
100
AcDbArc
 50
270.0
 51
0.0
  0
LINE
  5
30F
330
2
100
AcDbEntity
  8
0
100
AcDbLine
 10
-5845.896415561314
 20
7278.724287065128
 30
0.0
 11
-5841.796415561315
 21
7278.724287065128
 31
0.0
  0
ARC
  5
310
330
2
100
AcDbEntity
  8
0
100
AcDbCircle
 10
-5841.796415561315
 20
7277.224287065128
 30
0.0
 40
1.5
100
AcDbArc
 50
0.0
 51
90.0
  0
LINE
  5
311
330
2
100
AcDbEntity
  8
0
100
AcDbLine
 10
-5858.896415561318
 20
7312.05328706513
 30
0.0
 11
-5874.396415561317
 21
7312.053287065127
 31
0.0
  0
ARC
  5
312
330
2
100
AcDbEntity
  8
0
100
AcDbCircle
 10
-5858.896415561318
 20
7352.060942753745
 30
0.0
 40
40.00765568861701
100
AcDbArc
 50
270.0
 51
288.9618072359237
  0
LINE
  5
313
330
2
100
AcDbEntity
  8
0
100
AcDbLine
 10
-5262.658535208975
 20
7302.38918242336
 30
0.0
 11
-5218.658535208975
 21
7302.38918242336
 31
0.0
  0
ARC
  5
314
330
2
100
AcDbEntity
  8
0
100
AcDbCircle
 10
-5218.658535208975
 20
7300.389182423362
 30
0.0
 40
2.0
100
AcDbArc
 50
0.0
 51
90.0
  0
ARC
  5
315
330
2
100
AcDbEntity
  8
0
100
AcDbCircle
 10
-5262.658535208975
 20
7300.389182423362
 30
0.0
 40
2.0
100
AcDbArc
 50
90.0
 51
180.0
  0
LINE
  5
316
330
2
100
AcDbEntity
  8
0
100
AcDbLine
 10
-5168.658535208972
 20
7278.389182423357
 30
0.0
 11
-5172.15853520897
 21
7278.389182423359
 31
0.0
  0
ARC
  5
317
330
2
100
AcDbEntity
  8
0
100
AcDbCircle
 10
-5168.658535208969
 20
7280.889182423357
 30
0.0
 40
2.5
100
AcDbArc
 50
269.9999999999479
 51
0.0
  0
LINE
  5
318
330
2
100
AcDbEntity
  8
0
100
AcDbLine
 10
-5172.15853520897
 20
7275.88918242336
 30
0.0
 11
-5168.058535208969
 21
7275.889182423354
 31
0.0
  0
ARC
  5
319
330
2
100
AcDbEntity
  8
0
100
AcDbCircle
 10
-5168.05853520897
 20
7274.389182423354
 30
0.0
 40
1.5
100
AcDbArc
 50
0.0
 51
89.99999999994789
  0
LINE
  5
31A
330
2
100
AcDbEntity
  8
0
100
AcDbLine
 10
-5185.158535208975
 20
7309.218182423361
 30
0.0
 11
-5200.658535208975
 21
7309.218182423362
 31
0.0
  0
ARC
  5
31B
330
2
100
AcDbEntity
  8
0
100
AcDbCircle
 10
-5185.158535208975
 20
7349.22583811198
 30
0.0
 40
40.00765568861701
100
AcDbArc
 50
270.0
 51
288.9618072359237
  0
DIMENSION
  5
31C
102
{ACAD_XDICTIONARY
360
31D
102
}
102
{ACAD_REACTORS
330
31E
102
}
330
2
100
AcDbEntity
  8
0
100
AcDbDimension
  2
*D17
 10
-6133.281149182045
 20
7246.881091249152
 30
0.0
 11
-6038.172492515446
 21
7314.909803717651
 31
0.0
 70
   131
  1
<>%%P0.5
 71
     5
 42
94.0
  3
STANDARD
100
AcDbDiametricDimension
 15
-6056.82594288269
 25
7301.567482881106
 35
0.0
 40
0.0
1001
ACAD_DSTYLE_DIMRADIAL_EXTENSION
1070
   387
1070
     1
1070
   388
1040
0.5527882454096186
1070
   390
1040
0.9131445831769138
  0
DIMENSION
  5
32B
102
{ACAD_XDICTIONARY
360
32C
102
}
102
{ACAD_REACTORS
330
32D
102
}
330
2
100
AcDbEntity
  8
0
100
AcDbDimension
  2
*D18
 10
-5954.396415561316
 20
7330.45870913583
 30
0.0
 11
-5957.646415561317
 21
7330.45870913583
 31
0.0
 70
   128
 71
     5
 42
6.5
  3
STANDARD
100
AcDbAlignedDimension
 13
-5960.896415561315
 23
7314.22428706513
 33
0.0
 14
-5954.396415561316
 24
7314.22428706513
 34
0.0
100
AcDbRotatedDimension
  0
DIMENSION
  5
33C
102
{ACAD_XDICTIONARY
360
33D
102
}
102
{ACAD_REACTORS
330
33E
102
}
330
2
100
AcDbEntity
  8
0
100
AcDbDimension
  2
*D19
 10
-5468.897471619506
 20
7243.913837857649
 30
0.0
 11
-5374.752570267094
 21
7311.746990585668
 31
0.0
 70
   131
  1
<>%%P0.5
 71
     5
 42
94.0000000000009
  3
STANDARD
100
AcDbDiametricDimension
 15
-5392.632002605139
 25
7298.864526989077
 35
0.0
 40
0.0
1001
ACAD_DSTYLE_DIMRADIAL_EXTENSION
1070
   387
1070
     1
1070
   388
1040
0.5527882454096194
1070
   390
1040
0.9131445831769166
  0
LINE
  5
34A
330
2
100
AcDbEntity
  8
0
100
AcDbLine
 10
-5428.118985801259
 20
7274.389182423361
 30
0.0
 11
-5433.410488423387
 21
7274.389182423361
 31
0.0
  0
LEADER
  5
34B
330
2
100
AcDbEntity
  8
0
 62
   123
100
AcDbLeader
  3
STANDARD$7
 76
     3
 10
-6060.725190344296
 20
7238.473573054911
 30
0.0
 10
-6050.867713235238
 20
7221.630222570275
 30
0.0
 10
-6016.624067866621
 20
7221.630222570275
 30
0.0
1001
ACAD
1000
DSTYLE
1002
{
1070
   176
1070
   123
1070
   147
1040
1.0
1070
    77
1070
     1
1002
}
  0
TEXT
  5
34C
330
2
100
AcDbEntity
  8
0
 62
     3
100
AcDbText
 10
-6048.961870377782
 20
7223.034805448512
 30
0.0
 40
3.0
  1
4-%%C5.3 HOLE
  7
GHS
100
AcDbText
  0
LEADER
  5
34D
330
2
100
AcDbEntity
  8
0
 62
   123
100
AcDbLeader
  3
STANDARD$7
 76
     3
 10
-5396.436381424282
 20
7235.638468413118
 30
0.0
 10
-5386.578904315225
 20
7218.795117928483
 30
0.0
 10
-5352.335258946609
 20
7218.795117928483
 30
0.0
1001
ACAD
1000
DSTYLE
1002
{
1070
   176
1070
   123
1070
   147
1040
1.0
1070
    77
1070
     1
1002
}
  0
TEXT
  5
34E
330
2
100
AcDbEntity
  8
0
 62
     3
100
AcDbText
 10
-5384.673061457769
 20
7220.199700806721
 30
0.0
 40
3.0
  1
4-%%C5.3 HOLE
  7
GHS
100
AcDbText
  0
DIMENSION
  5
34F
102
{ACAD_XDICTIONARY
360
350
102
}
102
{ACAD_REACTORS
330
351
102
}
330
2
100
AcDbEntity
  8
0
100
AcDbDimension
  2
*D20
 10
-5962.896415561317
 20
7322.309907568952
 30
0.0
 11
-5970.212746558829
 21
7322.309907568952
 31
0.0
 70
   128
 71
     5
 42
2.0
  3
STANDARD
100
AcDbAlignedDimension
 13
-5960.896415561315
 23
7314.22428706513
 33
0.0
 14
-5962.896415561317
 24
7310.224287065128
 34
0.0
100
AcDbRotatedDimension
  0
MTEXT
  5
360
330
2
100
AcDbEntity
  8
0
 62
     3
100
AcDbMText
 10
-5740.052848179445
 20
7197.22428706513
 30
0.0
 40
3.0
 41
0.0
 71
     1
 72
     5
  1
{\W1;LEAD WIRE UL1015 AWG18\PRED & BLACK}
  7
GHS
 73
     1
 44
1.0
1001
ACAD
1000
MTEXTBEGIN
1070
    73
1070
     1
1070
    44
1040
1.0
1070
    74
1070
     0
1000
MTEXTEND
  0
LINE
  5
361
330
2
100
AcDbEntity
  8
0
  6
CENTER
 62
     1
100
AcDbLine
 10
-5061.314967827103
 20
7225.389182423363
 30
0.0
 11
-5061.314967827103
 21
7317.389182423362
 31
0.0
  0
LINE
  5
362
330
2
100
AcDbEntity
  8
0
  6
CENTER
 62
     1
100
AcDbLine
 10
-5091.314967827103
 20
7262.389182423361
 30
0.0
 11
-5091.314967827103
 21
7280.389182423362
 31
0.0
  0
ARC
  5
363
102
{ACAD_REACTORS
330
3FD
102
}
330
2
100
AcDbEntity
  8
0
100
AcDbCircle
 10
-5061.314967827103
 20
7271.389182423361
 30
0.0
 40
40.0
100
AcDbArc
 50
235.8069228748109
 51
214.1930771252174
  0
LINE
  5
364
102
{ACAD_REACTORS
330
3FD
102
}
330
2
100
AcDbEntity
  8
0
  6
CENTER
 62
     1
100
AcDbLine
 10
-5016.314967827103
 20
7271.389182423361
 30
0.0
 11
-5106.314967827103
 21
7271.389182423361
 31
0.0
  0
ARC
  5
365
330
2
100
AcDbEntity
  8
0
100
AcDbCircle
 10
-5028.436403381554
 20
7259.389182423362
 30
0.0
 40
5.0
100
AcDbArc
 50
339.9489574334738
 51
90.0
  0
LINE
  5
366
330
2
100
AcDbEntity
  8
0
100
AcDbLine
 10
-5031.314967827103
 20
7264.389182423362
 30
0.0
 11
-5028.436403381554
 21
7264.389182423362
 31
0.0
  0
LINE
  5
367
330
2
100
AcDbEntity
  8
0
100
AcDbLine
 10
-5031.314967827103
 20
7278.389182423362
 30
0.0
 11
-5028.436403381554
 21
7278.389182423362
 31
0.0
  0
ARC
  5
368
330
2
100
AcDbEntity
  8
0
100
AcDbCircle
 10
-5028.436403381554
 20
7283.389182423362
 30
0.0
 40
5.0
100
AcDbArc
 50
270.0
 51
20.05104256652611
  0
ARC
  5
369
330
2
100
AcDbEntity
  8
0
100
AcDbCircle
 10
-5031.314967827103
 20
7271.389182423361
 30
0.0
 40
7.0
100
AcDbArc
 50
90.0
 51
270.0
  0
LINE
  5
36A
330
2
100
AcDbEntity
  8
0
100
AcDbLine
 10
-5082.174617872103
 20
7237.801610317001
 30
0.0
 11
-5094.902539933463
 21
7250.52953237836
 31
0.0
  0
LINE
  5
36B
330
2
100
AcDbEntity
  8
0
 62
   123
100
AcDbLine
 10
-5095.609646714648
 20
7251.236639159547
 30
0.0
 11
-5098.438073839395
 21
7254.065066284292
 31
0.0
  0
LINE
  5
36C
330
2
100
AcDbEntity
  8
0
  6
CENTER
 62
     1
100
AcDbLine
 10
-5086.417258559223
 20
7246.28689169124
 30
0.0
 11
-5091.720559418124
 21
7240.98359083234
 31
0.0
  0
LINE
  5
36D
330
2
100
AcDbEntity
  8
0
100
AcDbLine
 10
-5082.174617872103
 20
7237.801610317001
 30
0.0
 11
-5082.510034355465
 21
7237.466193833641
 31
0.0
  0
ARC
  5
36E
330
2
100
AcDbEntity
  8
0
100
AcDbCircle
 10
-5091.314967827103
 20
7271.389182423361
 30
0.0
 40
7.0
100
AcDbArc
 50
270.0
 51
90.0
  0
LINE
  5
36F
330
2
100
AcDbEntity
  8
0
100
AcDbLine
 10
-5091.314967827103
 20
7278.389182423362
 30
0.0
 11
-5094.193532272647
 21
7278.389182423362
 31
0.0
  0
LINE
  5
370
330
2
100
AcDbEntity
  8
0
100
AcDbLine
 10
-5091.314967827103
 20
7264.389182423362
 30
0.0
 11
-5094.193532272647
 21
7264.389182423362
 31
0.0
  0
ARC
  5
371
330
2
100
AcDbEntity
  8
0
100
AcDbCircle
 10
-5094.193532272647
 20
7283.389182423362
 30
0.0
 40
5.0
100
AcDbArc
 50
159.9489574334739
 51
270.0
  0
ARC
  5
372
330
2
100
AcDbEntity
  8
0
100
AcDbCircle
 10
-5094.193532272647
 20
7259.389182423362
 30
0.0
 40
5.0
100
AcDbArc
 50
90.0
 51
200.0510425665261
  0
LINE
  5
373
330
2
100
AcDbEntity
  8
0
100
AcDbLine
 10
-5048.314967827103
 20
7230.889182423364
 30
0.0
 11
-5048.314967827103
 21
7233.560621784608
 31
0.0
  0
ARC
  5
374
330
2
100
AcDbEntity
  8
0
100
AcDbCircle
 10
-5050.814967827103
 20
7230.889182423364
 30
0.0
 40
2.5
100
AcDbArc
 50
270.0
 51
0.0
  0
LINE
  5
375
330
2
100
AcDbEntity
  8
0
100
AcDbLine
 10
-5074.314967827103
 20
7230.889182423364
 30
0.0
 11
-5074.314967827103
 21
7233.560621784608
 31
0.0
  0
LINE
  5
376
102
{ACAD_REACTORS
330
40C
102
}
330
2
100
AcDbEntity
  8
0
100
AcDbLine
 10
-5050.814967827103
 20
7228.389182423363
 30
0.0
 11
-5071.814967827103
 21
7228.389182423363
 31
0.0
  0
ARC
  5
377
330
2
100
AcDbEntity
  8
0
100
AcDbCircle
 10
-5071.814967827103
 20
7230.889182423364
 30
0.0
 40
2.5
100
AcDbArc
 50
180.0
 51
270.0
  0
LINE
  5
378
330
2
100
AcDbEntity
  8
0
100
AcDbLine
 10
-5048.314967827103
 20
7311.889182423361
 30
0.0
 11
-5048.314967827103
 21
7309.217743062117
 31
0.0
  0
LINE
  5
379
330
2
100
AcDbEntity
  8
0
100
AcDbLine
 10
-5074.314967827103
 20
7311.889182423363
 30
0.0
 11
-5074.314967827103
 21
7309.217743062117
 31
0.0
  0
LINE
  5
37A
330
2
100
AcDbEntity
  8
0
100
AcDbLine
 10
-5050.814967827103
 20
7314.389182423362
 30
0.0
 11
-5071.814967827103
 21
7314.389182423363
 31
0.0
  0
ARC
  5
37B
102
{ACAD_REACTORS
330
40C
102
}
330
2
100
AcDbEntity
  8
0
100
AcDbCircle
 10
-5050.814967827103
 20
7311.889182423361
 30
0.0
 40
2.5
100
AcDbArc
 50
0.0
 51
90.0
  0
ARC
  5
37C
330
2
100
AcDbEntity
  8
0
100
AcDbCircle
 10
-5071.814967827103
 20
7311.889182423363
 30
0.0
 40
2.5
100
AcDbArc
 50
90.0
 51
180.0
  0
LINE
  5
37D
330
2
100
AcDbEntity
  8
0
100
AcDbLine
 10
-5059.814967827103
 20
7246.158878430446
 30
0.0
 11
-5059.814967827103
 21
7254.455488201485
 31
0.0
  0
LINE
  5
37E
330
2
100
AcDbEntity
  8
0
100
AcDbLine
 10
-5062.814967827103
 20
7246.158878430446
 30
0.0
 11
-5062.814967827103
 21
7254.455488201485
 31
0.0
  0
CIRCLE
  5
37F
330
2
100
AcDbEntity
  8
0
100
AcDbCircle
 10
-5061.314967827103
 20
7271.389182423361
 30
0.0
 40
15.0
  0
ARC
  5
380
330
2
100
AcDbEntity
  8
0
100
AcDbCircle
 10
-5061.314967827103
 20
7271.389182423361
 30
0.0
 40
17.0
100
AcDbArc
 50
275.0620929642539
 51
308.3493345859777
  0
ARC
  5
381
330
2
100
AcDbEntity
  8
0
100
AcDbCircle
 10
-5061.314967827103
 20
7271.389182423361
 30
0.0
 40
17.0
100
AcDbArc
 50
231.6506654140223
 51
264.9379070357461
  0
CIRCLE
  5
382
330
2
100
AcDbEntity
  8
0
100
AcDbCircle
 10
-5061.314967827103
 20
7241.38918242336
 30
0.0
 40
1.0
  0
ARC
  5
383
330
2
100
AcDbEntity
  8
0
100
AcDbCircle
 10
-5061.314967827103
 20
7241.38918242336
 30
0.0
 40
5.0
100
AcDbArc
 50
29.55192387599275
 51
72.54239687632161
  0
ARC
  5
384
330
2
100
AcDbEntity
  8
0
100
AcDbCircle
 10
-5061.314967827103
 20
7241.38918242336
 30
0.0
 40
5.0
100
AcDbArc
 50
107.4576031236784
 51
150.4480761240071
  0
ARC
  5
385
330
2
100
AcDbEntity
  8
0
100
AcDbCircle
 10
-5061.314967827103
 20
7241.38918242336
 30
0.0
 40
5.0
100
AcDbArc
 50
203.5781784781638
 51
336.4218215218361
  0
LINE
  5
386
330
2
100
AcDbEntity
  8
0
100
AcDbLine
 10
-5065.897543522055
 20
7239.389182423362
 30
0.0
 11
-5076.130360452985
 21
7262.835511502662
 31
0.0
  0
LINE
  5
387
330
2
100
AcDbEntity
  8
0
100
AcDbLine
 10
-5065.664513244074
 20
7243.855242979326
 30
0.0
 11
-5071.86269491197
 21
7258.057061311432
 31
0.0
  0
LINE
  5
388
330
2
100
AcDbEntity
  8
0
100
AcDbLine
 10
-5056.732392132147
 20
7239.389182423362
 30
0.0
 11
-5046.499575201221
 21
7262.835511502652
 31
0.0
  0
LINE
  5
389
330
2
100
AcDbEntity
  8
0
100
AcDbLine
 10
-5056.965422410128
 20
7243.855242979326
 30
0.0
 11
-5050.767240742231
 21
7258.057061311432
 31
0.0
  0
LINE
  5
38A
330
2
100
AcDbEntity
  8
0
100
AcDbLine
 10
-5040.214883624033
 20
7285.303372525496
 30
0.0
 11
-5047.399958451038
 21
7281.155067639976
 31
0.0
  0
LINE
  5
38B
330
2
100
AcDbEntity
  8
0
100
AcDbLine
 10
-5038.714883624033
 20
7282.705296314141
 30
0.0
 11
-5045.899958451038
 21
7278.556991428621
 31
0.0
  0
ARC
  5
38C
330
2
100
AcDbEntity
  8
0
100
AcDbCircle
 10
-5061.314967827099
 20
7271.38918242336
 30
0.0
 40
17.0
100
AcDbArc
 50
351.6506654140789
 51
24.93790703566501
  0
CIRCLE
  5
38D
330
2
100
AcDbEntity
  8
0
100
AcDbCircle
 10
-5035.334205713566
 20
7286.38918242336
 30
0.0
 40
0.9999999999999998
  0
ARC
  5
38E
330
2
100
AcDbEntity
  8
0
100
AcDbCircle
 10
-5035.334205713566
 20
7286.38918242336
 30
0.0
 40
4.999999999999999
100
AcDbArc
 50
149.5519238759223
 51
192.5423968763007
  0
ARC
  5
38F
330
2
100
AcDbEntity
  8
0
100
AcDbCircle
 10
-5035.334205713566
 20
7286.38918242336
 30
0.0
 40
4.999999999999999
100
AcDbArc
 50
227.4576031237401
 51
270.4480761240394
  0
ARC
  5
390
330
2
100
AcDbEntity
  8
0
100
AcDbCircle
 10
-5035.334205713566
 20
7286.38918242336
 30
0.0
 40
4.999999999999999
100
AcDbArc
 50
323.5781784782968
 51
96.42182152176644
  0
LINE
  5
391
330
2
100
AcDbEntity
  8
0
100
AcDbLine
 10
-5031.310867058521
 20
7283.420555456763
 30
0.0
 11
-5046.499575201221
 21
7262.835511502654
 31
0.0
  0
LINE
  5
392
330
2
100
AcDbEntity
  8
0
100
AcDbLine
 10
-5035.295104093815
 20
7281.389335319365
 30
0.0
 11
-5044.495148715405
 21
7268.920643371645
 31
0.0
  0
LINE
  5
393
330
2
100
AcDbEntity
  8
0
100
AcDbLine
 10
-5035.893442753476
 20
7291.357809389957
 30
0.0
 11
-5061.314967827092
 21
7288.496524264767
 31
0.0
  0
LINE
  5
394
330
2
100
AcDbEntity
  8
0
100
AcDbLine
 10
-5039.64464951079
 20
7288.922968971393
 30
0.0
 11
-5055.042875800275
 21
7287.189842587006
 31
0.0
  0
LINE
  5
395
330
2
100
AcDbEntity
  8
0
100
AcDbLine
 10
-5083.915052030169
 20
7282.705296314144
 30
0.0
 11
-5076.729977203161
 21
7278.556991428621
 31
0.0
  0
LINE
  5
396
330
2
100
AcDbEntity
  8
0
100
AcDbLine
 10
-5082.415052030169
 20
7285.303372525496
 30
0.0
 11
-5075.229977203161
 21
7281.155067639976
 31
0.0
  0
ARC
  5
397
330
2
100
AcDbEntity
  8
0
100
AcDbCircle
 10
-5061.314967827099
 20
7271.389182423361
 30
0.0
 40
17.0
100
AcDbArc
 50
155.0620929642885
 51
188.349334585921
  0
ARC
  5
398
330
2
100
AcDbEntity
  8
0
100
AcDbCircle
 10
-5061.314967827099
 20
7271.389182423361
 30
0.0
 40
17.0
100
AcDbArc
 50
111.6506654140468
 51
144.9379070358064
  0
CIRCLE
  5
399
330
2
100
AcDbEntity
  8
0
100
AcDbCircle
 10
-5087.295729940631
 20
7286.389182423362
 30
0.0
 40
1.0
  0
ARC
  5
39A
330
2
100
AcDbEntity
  8
0
100
AcDbCircle
 10
-5087.295729940631
 20
7286.389182423362
 30
0.0
 40
5.0
100
AcDbArc
 50
269.5519238759607
 51
312.5423968762599
  0
ARC
  5
39B
330
2
100
AcDbEntity
  8
0
100
AcDbCircle
 10
-5087.295729940631
 20
7286.389182423362
 30
0.0
 40
5.0
100
AcDbArc
 50
347.4576031237954
 51
30.44807612407768
  0
ARC
  5
39C
330
2
100
AcDbEntity
  8
0
100
AcDbCircle
 10
-5087.295729940631
 20
7286.389182423362
 30
0.0
 40
5.0
100
AcDbArc
 50
83.57817847823353
 51
216.4218215218629
  0
LINE
  5
39D
330
2
100
AcDbEntity
  8
0
100
AcDbLine
 10
-5086.736492900725
 20
7291.357809389957
 30
0.0
 11
-5061.314967827096
 21
7288.496524264767
 31
0.0
  0
LINE
  5
39E
330
2
100
AcDbEntity
  8
0
100
AcDbLine
 10
-5082.985286143411
 20
7288.922968971393
 30
0.0
 11
-5067.587059853929
 21
7287.189842587006
 31
0.0
  0
LINE
  5
39F
330
2
100
AcDbEntity
  8
0
100
AcDbLine
 10
-5091.319068595679
 20
7283.420555456766
 30
0.0
 11
-5076.130360452989
 21
7262.835511502665
 31
0.0
  0
LINE
  5
3A0
330
2
100
AcDbEntity
  8
0
100
AcDbLine
 10
-5087.334831560387
 20
7281.389335319365
 30
0.0
 11
-5078.134786938797
 21
7268.920643371645
 31
0.0
  0
ARC
  5
3A1
330
2
100
AcDbEntity
  8
0
100
AcDbCircle
 10
-5061.314967827099
 20
7271.38918242336
 30
0.0
 40
17.0
100
AcDbArc
 50
35.06209296437944
 51
68.34933458595314
  0
CIRCLE
  5
3A2
330
2
100
AcDbEntity
  8
0
100
AcDbCircle
 10
-5091.314967827103
 20
7271.389182423361
 30
0.0
 40
4.5
  0
ARC
  5
3A3
330
2
100
AcDbEntity
  8
0
100
AcDbCircle
 10
-5092.439967827103
 20
7272.514182423361
 30
0.0
 40
0.625
100
AcDbArc
 50
270.0
 51
0.0
  0
ARC
  5
3A4
330
2
100
AcDbEntity
  8
0
100
AcDbCircle
 10
-5090.189967827103
 20
7272.514182423361
 30
0.0
 40
0.625
100
AcDbArc
 50
180.0
 51
270.0
  0
LINE
  5
3A5
330
2
100
AcDbEntity
  8
0
100
AcDbLine
 10
-5091.814967827103
 20
7269.08918242336
 30
0.0
 11
-5090.814967827103
 21
7269.08918242336
 31
0.0
  0
LINE
  5
3A6
330
2
100
AcDbEntity
  8
0
100
AcDbLine
 10
-5091.814967827103
 20
7269.08918242336
 30
0.0
 11
-5091.814967827103
 21
7270.264182423362
 31
0.0
  0
LINE
  5
3A7
330
2
100
AcDbEntity
  8
0
100
AcDbLine
 10
-5093.614967827102
 20
7271.889182423362
 30
0.0
 11
-5092.439967827103
 21
7271.889182423362
 31
0.0
  0
LINE
  5
3A8
330
2
100
AcDbEntity
  8
0
100
AcDbLine
 10
-5093.614967827102
 20
7270.889182423362
 30
0.0
 11
-5092.439967827103
 21
7270.889182423362
 31
0.0
  0
LINE
  5
3A9
330
2
100
AcDbEntity
  8
0
100
AcDbLine
 10
-5093.614967827102
 20
7271.889182423362
 30
0.0
 11
-5093.614967827102
 21
7270.889182423362
 31
0.0
  0
ARC
  5
3AA
330
2
100
AcDbEntity
  8
0
100
AcDbCircle
 10
-5092.439967827103
 20
7270.264182423362
 30
0.0
 40
0.625
100
AcDbArc
 50
0.0
 51
90.0
  0
LINE
  5
3AB
330
2
100
AcDbEntity
  8
0
100
AcDbLine
 10
-5090.814967827103
 20
7269.08918242336
 30
0.0
 11
-5090.814967827103
 21
7270.264182423362
 31
0.0
  0
LINE
  5
3AC
330
2
100
AcDbEntity
  8
0
100
AcDbLine
 10
-5090.189967827103
 20
7271.889182423362
 30
0.0
 11
-5089.014967827104
 21
7271.889182423362
 31
0.0
  0
LINE
  5
3AD
330
2
100
AcDbEntity
  8
0
100
AcDbLine
 10
-5090.189967827103
 20
7270.889182423362
 30
0.0
 11
-5089.014967827104
 21
7270.889182423362
 31
0.0
  0
LINE
  5
3AE
330
2
100
AcDbEntity
  8
0
100
AcDbLine
 10
-5089.014967827104
 20
7271.889182423362
 30
0.0
 11
-5089.014967827104
 21
7270.889182423362
 31
0.0
  0
ARC
  5
3AF
330
2
100
AcDbEntity
  8
0
100
AcDbCircle
 10
-5090.189967827103
 20
7270.264182423362
 30
0.0
 40
0.625
100
AcDbArc
 50
90.0
 51
180.0
  0
LINE
  5
3B0
330
2
100
AcDbEntity
  8
0
100
AcDbLine
 10
-5091.814967827103
 20
7273.689182423362
 30
0.0
 11
-5090.814967827103
 21
7273.689182423362
 31
0.0
  0
LINE
  5
3B1
330
2
100
AcDbEntity
  8
0
100
AcDbLine
 10
-5091.814967827103
 20
7272.514182423361
 30
0.0
 11
-5091.814967827103
 21
7273.689182423362
 31
0.0
  0
LINE
  5
3B2
330
2
100
AcDbEntity
  8
0
100
AcDbLine
 10
-5090.814967827103
 20
7272.514182423361
 30
0.0
 11
-5090.814967827103
 21
7273.689182423362
 31
0.0
  0
CIRCLE
  5
3B3
330
2
100
AcDbEntity
  8
0
100
AcDbCircle
 10
-5031.314967827103
 20
7271.389182423361
 30
0.0
 40
4.5
  0
ARC
  5
3B4
330
2
100
AcDbEntity
  8
0
100
AcDbCircle
 10
-5032.439967827103
 20
7272.514182423361
 30
0.0
 40
0.625
100
AcDbArc
 50
270.0
 51
0.0
  0
ARC
  5
3B5
330
2
100
AcDbEntity
  8
0
100
AcDbCircle
 10
-5030.189967827102
 20
7272.514182423361
 30
0.0
 40
0.625
100
AcDbArc
 50
180.0
 51
270.0
  0
LINE
  5
3B6
330
2
100
AcDbEntity
  8
0
100
AcDbLine
 10
-5031.814967827102
 20
7269.08918242336
 30
0.0
 11
-5030.814967827103
 21
7269.08918242336
 31
0.0
  0
LINE
  5
3B7
330
2
100
AcDbEntity
  8
0
100
AcDbLine
 10
-5031.814967827102
 20
7269.08918242336
 30
0.0
 11
-5031.814967827102
 21
7270.264182423362
 31
0.0
  0
LINE
  5
3B8
330
2
100
AcDbEntity
  8
0
100
AcDbLine
 10
-5033.614967827102
 20
7271.889182423362
 30
0.0
 11
-5032.439967827103
 21
7271.889182423362
 31
0.0
  0
LINE
  5
3B9
330
2
100
AcDbEntity
  8
0
100
AcDbLine
 10
-5033.614967827102
 20
7270.889182423362
 30
0.0
 11
-5032.439967827103
 21
7270.889182423362
 31
0.0
  0
LINE
  5
3BA
330
2
100
AcDbEntity
  8
0
100
AcDbLine
 10
-5033.614967827102
 20
7271.889182423362
 30
0.0
 11
-5033.614967827102
 21
7270.889182423362
 31
0.0
  0
ARC
  5
3BB
330
2
100
AcDbEntity
  8
0
100
AcDbCircle
 10
-5032.439967827103
 20
7270.264182423362
 30
0.0
 40
0.625
100
AcDbArc
 50
0.0
 51
90.0
  0
LINE
  5
3BC
330
2
100
AcDbEntity
  8
0
100
AcDbLine
 10
-5030.814967827103
 20
7269.08918242336
 30
0.0
 11
-5030.814967827103
 21
7270.264182423362
 31
0.0
  0
LINE
  5
3BD
330
2
100
AcDbEntity
  8
0
100
AcDbLine
 10
-5030.189967827102
 20
7271.889182423362
 30
0.0
 11
-5029.014967827103
 21
7271.889182423362
 31
0.0
  0
LINE
  5
3BE
330
2
100
AcDbEntity
  8
0
100
AcDbLine
 10
-5030.189967827102
 20
7270.889182423362
 30
0.0
 11
-5029.014967827103
 21
7270.889182423362
 31
0.0
  0
LINE
  5
3BF
330
2
100
AcDbEntity
  8
0
100
AcDbLine
 10
-5029.014967827103
 20
7271.889182423362
 30
0.0
 11
-5029.014967827103
 21
7270.889182423362
 31
0.0
  0
ARC
  5
3C0
330
2
100
AcDbEntity
  8
0
100
AcDbCircle
 10
-5030.189967827102
 20
7270.264182423362
 30
0.0
 40
0.625
100
AcDbArc
 50
90.0
 51
180.0
  0
LINE
  5
3C1
330
2
100
AcDbEntity
  8
0
100
AcDbLine
 10
-5031.814967827102
 20
7273.689182423362
 30
0.0
 11
-5030.814967827103
 21
7273.689182423362
 31
0.0
  0
LINE
  5
3C2
330
2
100
AcDbEntity
  8
0
100
AcDbLine
 10
-5031.814967827102
 20
7272.514182423361
 30
0.0
 11
-5031.814967827102
 21
7273.689182423362
 31
0.0
  0
LINE
  5
3C3
330
2
100
AcDbEntity
  8
0
100
AcDbLine
 10
-5030.814967827103
 20
7272.514182423361
 30
0.0
 11
-5030.814967827103
 21
7273.689182423362
 31
0.0
  0
LINE
  5
3C4
330
2
100
AcDbEntity
  8
0
100
AcDbLine
 10
-5098.114967827102
 20
7196.128878473404
 30
0.0
 11
-5098.114967827102
 21
7233.247046799633
 31
0.0
  0
LINE
  5
3C5
330
2
100
AcDbEntity
  8
0
100
AcDbLine
 10
-5094.902539933475
 20
7250.52953237835
 30
0.0
 11
-5095.237956416832
 21
7250.19411589499
 31
0.0
  0
LINE
  5
3C6
330
2
100
AcDbEntity
  8
0
100
AcDbLine
 10
-5094.902539933463
 20
7247.701105253614
 30
0.0
 11
-5085.00304499685
 21
7237.801610317001
 31
0.0
  0
LINE
  5
3C7
330
2
100
AcDbEntity
  8
0
100
AcDbLine
 10
-5084.295938215665
 20
7237.801610317001
 30
0.0
 11
-5083.235278043888
 21
7238.862270488779
 31
0.0
  0
ARC
  5
3C8
330
2
100
AcDbEntity
  8
0
100
AcDbCircle
 10
-5084.649491606256
 20
7238.155163707594
 30
0.0
 40
0.5
100
AcDbArc
 50
224.9999999999907
 51
315.0000000000093
  0
ARC
  5
3C9
330
2
100
AcDbEntity
  8
0
100
AcDbCircle
 10
-5094.548986542871
 20
7248.054658644207
 30
0.0
 40
0.5
100
AcDbArc
 50
135.0000000000093
 51
224.9999999999907
  0
LINE
  5
3CA
330
2
100
AcDbEntity
  8
0
100
AcDbLine
 10
-5094.902539933463
 20
7248.408212034799
 30
0.0
 11
-5093.841879761683
 21
7249.468872206579
 31
0.0
  0
LINE
  5
3CB
330
2
100
AcDbEntity
  8
0
  6
PHANTOM
 62
     6
 48
3.0
100
AcDbLine
 10
-5101.233778783068
 20
7194.328232128423
 30
0.0
 11
-5087.342024766559
 21
7202.348640049374
 31
0.0
  0
LINE
  5
3CC
330
2
100
AcDbEntity
  8
0
100
AcDbLine
 10
-5091.932691452478
 20
7244.731256772628
 30
0.0
 11
-5094.365934626289
 21
7242.298013598818
 31
0.0
  0
ARC
  5
3CD
330
2
100
AcDbEntity
  8
0
100
AcDbCircle
 10
-5085.314967827103
 20
7233.247046799633
 30
0.0
 40
12.8
100
AcDbArc
 50
135.0000000000093
 51
180.0
  0
LINE
  5
3CE
330
2
100
AcDbEntity
  8
0
100
AcDbLine
 10
-5087.97289347783
 20
7240.771458797984
 30
0.0
 11
-5090.113243432831
 21
7238.631108842985
 31
0.0
  0
LINE
  5
3CF
330
2
100
AcDbEntity
  8
0
100
AcDbLine
 10
-5085.99299449051
 20
7238.791559810659
 30
0.0
 11
-5088.133344445509
 21
7236.651209855661
 31
0.0
  0
LINE
  5
3D0
330
2
100
AcDbEntity
  8
0
100
AcDbLine
 10
-5089.952792465158
 20
7242.751357785308
 30
0.0
 11
-5092.386035638966
 21
7240.318114611497
 31
0.0
  0
ARC
  5
3D1
330
2
100
AcDbEntity
  8
0
100
AcDbCircle
 10
-5085.314967827103
 20
7233.247046799633
 30
0.0
 40
10.0
100
AcDbArc
 50
135.0000000000093
 51
180.0
  0
ARC
  5
3D2
330
2
100
AcDbEntity
  8
0
 62
   123
100
AcDbCircle
 10
-5085.314967827103
 20
7233.247046799633
 30
0.0
 40
23.0
100
AcDbArc
 50
135.0000000000093
 51
180.0
  0
LINE
  5
3D3
330
2
100
AcDbEntity
  8
0
100
AcDbLine
 10
-5095.314967827103
 20
7173.389182423362
 30
0.0
 11
-5095.314967827103
 21
7194.745459227134
 31
0.0
  0
LINE
  5
3D4
330
2
100
AcDbEntity
  8
0
100
AcDbLine
 10
-5095.314967827103
 20
7197.745459227133
 30
0.0
 11
-5095.314967827103
 21
7233.247046799633
 31
0.0
  0
LINE
  5
3D5
330
2
100
AcDbEntity
  8
0
100
AcDbLine
 10
-5098.114967827102
 20
7173.389182423362
 30
0.0
 11
-5098.114967827102
 21
7193.128878473402
 31
0.0
  0
LINE
  5
3D6
330
2
100
AcDbEntity
  8
0
100
AcDbLine
 10
-5092.514967827104
 20
7173.389182423362
 30
0.0
 11
-5092.514967827104
 21
7196.362039980865
 31
0.0
  0
ARC
  5
3D7
330
2
100
AcDbEntity
  8
0
100
AcDbCircle
 10
-5084.314967827103
 20
7232.832833237253
 30
0.0
 40
8.199999999999999
100
AcDbArc
 50
135.0000000000093
 51
180.0
  0
ARC
  5
3D8
330
2
100
AcDbEntity
  8
0
100
AcDbCircle
 10
-5084.314967827103
 20
7232.832833237253
 30
0.0
 40
5.399999999999997
100
AcDbArc
 50
135.0000000000093
 51
180.0
  0
LINE
  5
3D9
330
2
100
AcDbEntity
  8
0
100
AcDbLine
 10
-5092.514967827104
 20
7199.362039980865
 30
0.0
 11
-5092.514967827104
 21
7232.832833237253
 31
0.0
  0
LINE
  5
3DA
330
2
100
AcDbEntity
  8
0
100
AcDbLine
 10
-5089.714967827103
 20
7200.978620734594
 30
0.0
 11
-5089.714967827103
 21
7232.832833237253
 31
0.0
  0
LINE
  5
3DB
330
2
100
AcDbEntity
  8
0
  6
PHANTOM
 62
     6
 48
3.0
100
AcDbLine
 10
-5101.233778783068
 20
7191.328232128423
 30
0.0
 11
-5087.342024766559
 21
7199.348640049374
 31
0.0
  0
LINE
  5
3DC
330
2
100
AcDbEntity
  8
0
100
AcDbLine
 10
-5098.114967827102
 20
7173.389182423362
 30
0.0
 11
-5095.3149678271
 21
7173.389182423362
 31
0.0
  0
LINE
  5
3DD
330
2
100
AcDbEntity
  8
0
100
AcDbLine
 10
-5097.214967827097
 20
7163.389182423362
 30
0.0
 11
-5096.214967827101
 21
7163.389182423362
 31
0.0
  0
LINE
  5
3DE
330
2
100
AcDbEntity
  8
0
100
AcDbLine
 10
-5092.514967827104
 20
7173.389182423362
 30
0.0
 11
-5089.7149678271
 21
7173.389182423362
 31
0.0
  0
LINE
  5
3DF
330
2
100
AcDbEntity
  8
0
100
AcDbLine
 10
-5089.714967827103
 20
7173.389182423362
 30
0.0
 11
-5089.7149678271
 21
7197.978620734594
 31
0.0
  0
LINE
  5
3E0
330
2
100
AcDbEntity
  8
0
100
AcDbLine
 10
-5096.7149678271
 20
7163.389182423362
 30
0.0
 11
-5096.7149678271
 21
7173.389182423362
 31
0.0
  0
LINE
  5
3E1
330
2
100
AcDbEntity
  8
0
100
AcDbLine
 10
-5097.214967827101
 20
7163.389182423362
 30
0.0
 11
-5097.214967827101
 21
7173.389182423362
 31
0.0
  0
LINE
  5
3E2
330
2
100
AcDbEntity
  8
0
100
AcDbLine
 10
-5096.214967827101
 20
7163.389182423362
 30
0.0
 11
-5096.214967827101
 21
7173.389182423362
 31
0.0
  0
LINE
  5
3E3
330
2
100
AcDbEntity
  8
0
100
AcDbLine
 10
-5091.614967827098
 20
7163.389182423362
 30
0.0
 11
-5090.614967827102
 21
7163.389182423362
 31
0.0
  0
LINE
  5
3E4
330
2
100
AcDbEntity
  8
0
100
AcDbLine
 10
-5091.114967827103
 20
7163.389182423362
 30
0.0
 11
-5091.114967827103
 21
7173.389182423362
 31
0.0
  0
LINE
  5
3E5
330
2
100
AcDbEntity
  8
0
100
AcDbLine
 10
-5091.614967827102
 20
7163.389182423362
 30
0.0
 11
-5091.614967827102
 21
7173.389182423362
 31
0.0
  0
LINE
  5
3E6
330
2
100
AcDbEntity
  8
0
100
AcDbLine
 10
-5090.614967827102
 20
7163.389182423362
 30
0.0
 11
-5090.614967827102
 21
7173.389182423362
 31
0.0
  0
LEADER
  5
3E7
330
2
100
AcDbEntity
  8
0
 62
   123
100
AcDbLeader
  3
STANDARD$7
 76
     2
 10
-5097.730967058211
 20
7253.357959503105
 30
0.0
 10
-5101.578423794391
 20
7249.510502766921
 30
0.0
1001
ACAD
1000
DSTYLE
1002
{
1070
   176
1070
   123
1070
   147
1040
1.0
1070
    77
1070
     0
1002
}
  0
TEXT
  5
3E8
330
2
100
AcDbEntity
  8
0
 62
     3
100
AcDbText
 10
-5109.314967827103
 20
7197.272458434811
 30
0.0
 40
3.0
  1
300 %%P10
 50
90.0
  7
GHS
100
AcDbText
  0
LEADER
  5
3E9
330
2
100
AcDbEntity
  8
0
 62
   123
100
AcDbLeader
  3
STANDARD$7
 76
     2
 10
-5096.7149678271
 20
7216.389182423362
 30
0.0
 10
-5067.314967827103
 20
7190.389182423361
 30
0.0
1001
ACAD
1000
DSTYLE
1002
{
1070
   176
1070
   123
1070
   147
1040
1.0
1070
    77
1070
     0
1002
}
  0
LEADER
  5
3EA
330
2
100
AcDbEntity
  8
0
 62
   123
100
AcDbLeader
  3
STANDARD$7
 76
     3
 10
-5091.114967827103
 20
7190.325971869794
 30
0.0
 10
-5067.314967827103
 20
7190.389182423361
 30
0.0
 10
-5008.314967827103
 20
7190.389182423361
 30
0.0
1001
ACAD
1000
DSTYLE
1002
{
1070
   176
1070
   123
1070
   147
1040
1.0
1070
    77
1070
     0
1002
}
  0
DIMENSION
  5
3EB
330
2
100
AcDbEntity
  8
0
100
AcDbDimension
  2
*D12
 10
-5101.314967827103
 20
7163.389182423362
 30
0.0
 11
-5103.814967827105
 21
7168.389182423361
 31
0.0
 71
     5
 42
10.0
  3
STANDARD
100
AcDbAlignedDimension
 13
-5098.114967827102
 23
7173.389182423362
 33
0.0
 14
-5097.214967827101
 24
7163.389182423362
 34
0.0
 50
90.0
100
AcDbRotatedDimension
  0
LEADER
  5
3F8
330
2
100
AcDbEntity
  8
0
 62
   123
100
AcDbLeader
  3
STANDARD$7
 76
     2
 10
-5108.314967827102
 20
7163.389182423362
 30
0.0
 10
-5108.314967827102
 20
7233.389182423362
 30
0.0
1001
ACAD
1000
DSTYLE
1002
{
1070
   176
1070
   123
1070
   147
1040
1.0
1070
    77
1070
     0
1002
}
  0
LINE
  5
3F9
330
2
100
AcDbEntity
  8
0
 62
   123
100
AcDbLine
 10
-5098.2149678271
 20
7163.389182423362
 30
0.0
 11
-5109.314967827103
 21
7163.389182423362
 31
0.0
  0
LINE
  5
3FA
330
2
100
AcDbEntity
  8
0
  6
CENTER
 62
     1
100
AcDbLine
 10
-5031.314967827103
 20
7262.389182423361
 30
0.0
 11
-5031.314967827103
 21
7280.389182423362
 31
0.0
  0
DIMENSION
  5
3FB
102
{ACAD_XDICTIONARY
360
3FC
102
}
102
{ACAD_REACTORS
330
3FD
102
}
330
2
100
AcDbEntity
  8
0
100
AcDbDimension
  2
*D21
 10
-5021.314967827103
 20
7325.389182423362
 30
0.0
 11
-5061.314967827103
 21
7327.889182423361
 31
0.0
  1
%%C<>
 71
     5
 42
80.0
  3
STANDARD
100
AcDbAlignedDimension
 13
-5101.314967827103
 23
7271.389182423361
 33
0.0
 14
-5021.314967827103
 24
7271.389182423361
 34
0.0
100
AcDbRotatedDimension
  0
DIMENSION
  5
40A
102
{ACAD_XDICTIONARY
360
40B
102
}
102
{ACAD_REACTORS
330
40C
102
}
330
2
100
AcDbEntity
  8
0
100
AcDbDimension
  2
*D22
 10
-5009.314967827103
 20
7314.389182423362
 30
0.0
 11
-5011.814967827104
 21
7271.389182423361
 31
0.0
 71
     5
 42
85.99999999999818
  3
STANDARD
100
AcDbAlignedDimension
 13
-5050.814967827103
 23
7228.389182423363
 33
0.0
 14
-5050.814967827103
 24
7314.389182423362
 34
0.0
 50
90.0
100
AcDbRotatedDimension
  0
MTEXT
  5
419
330
2
100
AcDbEntity
  8
0
 62
     3
100
AcDbMText
 10
-5066.314967827103
 20
7194.389182423361
 30
0.0
 40
3.0
 41
0.0
 71
     1
 72
     5
  1
{\W1;LEAD WIRE UL1015 AWG18\PRED & BLACK}
  7
GHS
 73
     1
 44
1.0
1001
ACAD
1000
MTEXTBEGIN
1070
    73
1070
     1
1070
    44
1040
1.0
1070
    74
1070
     0
1000
MTEXTEND
  0
LINE
  5
41A
330
2
100
AcDbEntity
  8
0
100
AcDbLine
 10
-6095.294338800091
 20
7106.57963530509
 30
0.0
 11
-6115.830946202033
 21
7106.57963530509
 31
0.0
  0
LINE
  5
41B
330
2
100
AcDbEntity
  8
0
100
AcDbLine
 10
-6095.294338800091
 20
7084.121301834857
 30
0.0
 11
-6115.830946202033
 21
7084.121301834854
 31
0.0
  0
TEXT
  5
41C
330
2
100
AcDbEntity
  8
0
100
AcDbText
 10
-6125.754567397273
 20
7132.095231937109
 30
0.0
 40
3.937499999999998
  1
RED
 41
0.9
  7
WHGTXT
 72
     1
 11
-6120.523317397274
 21
7132.095231937109
 31
0.0
100
AcDbText
  0
TEXT
  5
41E
330
2
100
AcDbEntity
  8
0
100
AcDbText
 10
-6125.999910225851
 20
7123.893970289031
 30
0.0
 40
3.937499999999998
  1
BLACK
 41
0.9
  7
WHGTXT
 72
     1
 11
-6117.646785225851
 21
7123.893970289031
 31
0.0
100
AcDbText
  0
MTEXT
  5
41F
330
2
100
AcDbEntity
  8
0
100
AcDbMText
 10
-6148.648675790097
 20
7151.794052036436
 30
0.0
 40
4.999999999999999
 41
0.0
 71
     1
 72
     5
  1
{\fHYSinMyeongJo-Medium|b1|i0|c129|p18;- CONNECTION DIAGRAM}
 73
     1
 44
1.0
1001
ACAD
1000
MTEXTBEGIN
1070
    73
1070
     1
1070
    44
1040
1.0
1070
    74
1070
     0
1000
MTEXTEND
  0
TEXT
  5
420
330
2
100
AcDbEntity
  8
0
100
AcDbText
 10
-6112.598023085102
 20
7109.189556096253
 30
0.0
 40
3.937499999999998
  1
RED
 41
0.9
  7
WHGTXT
 72
     1
 11
-6107.366773085103
 21
7109.189556096253
 31
0.0
100
AcDbText
  0
LINE
  5
421
330
2
100
AcDbEntity
  8
0
100
AcDbLine
 10
-6115.830946202033
 20
7106.57963530509
 30
0.0
 11
-6124.337912682046
 21
7100.146879963239
 31
0.0
  0
LINE
  5
422
330
2
100
AcDbEntity
  8
0
100
AcDbLine
 10
-6115.830946202033
 20
7084.121301834854
 30
0.0
 11
-6124.337912682046
 21
7090.554057176705
 31
0.0
  0
TEXT
  5
423
330
2
100
AcDbEntity
  8
0
100
AcDbText
 10
-6112.780280306726
 20
7077.248301144347
 30
0.0
 40
3.937499999999998
  1
BLACK
 41
0.9
  7
WHGTXT
 72
     1
 11
-6104.427155306726
 21
7077.248301144347
 31
0.0
100
AcDbText
  0
TEXT
  5
424
330
2
100
AcDbEntity
  8
0
100
AcDbText
 10
-6131.767006298876
 20
7092.914250168607
 30
0.0
 40
4.999999999999999
  1
M
  7
WHGTXT
 72
     1
 11
-6128.909863441734
 21
7092.914250168607
 31
0.0
100
AcDbText
  0
CIRCLE
  5
425
330
2
100
AcDbEntity
  8
0
100
AcDbCircle
 10
-6128.816846036823
 20
7095.350468569971
 30
0.0
 40
6.562499999999999
  0
ARC
  5
426
330
2
100
AcDbEntity
  8
0
100
AcDbCircle
 10
-6129.650179370153
 20
7095.350468569971
 30
0.0
 40
9.0625
100
AcDbArc
 50
116.2310645593155
 51
239.2211388502675
  0
LINE
  5
427
330
2
100
AcDbEntity
  8
0
100
AcDbLine
 10
-6073.622095055284
 20
7106.57963530509
 30
0.0
 11
-6093.627672133422
 21
7106.57963530509
 31
0.0
  0
CIRCLE
  5
428
330
2
100
AcDbEntity
  8
0
100
AcDbCircle
 10
-6094.461005466752
 20
7106.57963530509
 30
0.0
 40
0.8333333333333332
  0
LINE
  5
429
330
2
100
AcDbEntity
  8
0
100
AcDbLine
 10
-6073.622095055284
 20
7084.121301834854
 30
0.0
 11
-6093.627672133422
 21
7084.121301834857
 31
0.0
  0
CIRCLE
  5
42A
330
2
100
AcDbEntity
  8
0
100
AcDbCircle
 10
-6094.461005466752
 20
7084.121301834857
 30
0.0
 40
0.8333333333333332
  0
LINE
  5
42B
330
2
100
AcDbEntity
  8
0
100
AcDbLine
 10
-6073.622095055284
 20
7084.121301834854
 30
0.0
 11
-6073.622095055284
 21
7092.069436729274
 31
0.0
  0
LINE
  5
42C
330
2
100
AcDbEntity
  8
0
100
AcDbLine
 10
-6073.622095055284
 20
7106.57963530509
 30
0.0
 11
-6073.622095055284
 21
7098.631500410667
 31
0.0
  0
CIRCLE
  5
42D
330
2
100
AcDbEntity
  8
0
100
AcDbCircle
 10
-6073.659931847295
 20
7095.350468569971
 30
0.0
 40
3.281249999999998
  0
TEXT
  5
42E
330
2
100
AcDbEntity
  8
0
100
AcDbText
 10
-6066.506678185929
 20
7095.4411418638
 30
0.0
 40
3.937499999999998
  1
DC POWER
 41
0.9
  7
WHGTXT
 72
     1
 11
-6052.706092248429
 21
7095.4411418638
 31
0.0
100
AcDbText
  0
TEXT
  5
42F
330
2
100
AcDbEntity
  8
0
100
AcDbText
 10
-6062.915467248429
 20
7089.534891863796
 30
0.0
 40
3.937499999999998
  1
SUPPLY
 41
0.9
  7
WHGTXT
 72
     1
 11
-6052.706092248429
 21
7089.534891863796
 31
0.0
100
AcDbText
  0
TEXT
  5
430
330
2
100
AcDbEntity
  8
0
100
AcDbText
 10
-6075.63870793569
 20
7093.615449675479
 30
0.0
 40
3.937499999999998
  1
-
 41
0.75
  7
WHGTXT
 72
     1
 11
-6073.81058293569
 21
7093.615449675479
 31
0.0
100
AcDbText
  0
SOLID
  5
431
330
2
100
AcDbEntity
  8
0
100
AcDbTrace
 10
-6099.22574333587
 20
7126.826274377418
 30
0.0
 11
-6099.22574333587
 21
7124.951274377419
 31
0.0
 12
-6104.850743335868
 22
7125.888774377417
 32
0.0
 13
-6104.850743335868
 23
7125.888774377417
 33
0.0
  0
CIRCLE
  5
432
330
2
100
AcDbEntity
  8
0
100
AcDbCircle
 10
-6086.580924412773
 20
7125.712526466078
 30
0.0
 40
2.550408109319824
  0
TEXT
  5
433
330
2
100
AcDbEntity
  8
0
100
AcDbText
 10
-6088.409050514094
 20
7123.790785652881
 30
0.0
 40
3.937499999999998
  1
+
 41
0.75
  7
WHGTXT
 72
     1
 11
-6086.580925514094
 21
7123.790785652881
 31
0.0
100
AcDbText
  0
LINE
  5
434
330
2
100
AcDbEntity
  8
0
100
AcDbLine
 10
-6094.395913821802
 20
7125.888774377417
 30
0.0
 11
-6099.22574333587
 21
7125.888774377417
 31
0.0
  0
TEXT
  5
435
330
2
100
AcDbEntity
  8
0
100
AcDbText
 10
-6082.187349791049
 20
7124.052372121354
 30
0.0
 40
3.937499999999998
  1
CCW
 41
0.9
  7
WHGTXT
 72
     1
 11
-6076.53422479105
 21
7124.052372121354
 31
0.0
100
AcDbText
  0
TEXT
  5
436
330
2
100
AcDbEntity
  8
0
100
AcDbText
 10
-6082.170363168114
 20
7132.099956410193
 30
0.0
 40
3.937499999999998
  1
CW
 41
0.9
  7
WHGTXT
 72
     1
 11
-6078.289113168114
 21
7132.099956410193
 31
0.0
100
AcDbText
  0
CIRCLE
  5
437
330
2
100
AcDbEntity
  8
0
100
AcDbCircle
 10
-6086.580924412773
 20
7134.14382817494
 30
0.0
 40
2.550408109319824
  0
TEXT
  5
438
330
2
100
AcDbEntity
  8
0
100
AcDbText
 10
-6088.409050514094
 20
7132.477374746684
 30
0.0
 40
3.937499999999998
  1
+
 41
0.75
  7
WHGTXT
 72
     1
 11
-6086.580925514094
 21
7132.477374746684
 31
0.0
100
AcDbText
  0
LINE
  5
439
330
2
100
AcDbEntity
  8
0
100
AcDbLine
 10
-6094.395913821802
 20
7134.32007608628
 30
0.0
 11
-6099.22574333587
 21
7134.32007608628
 31
0.0
  0
SOLID
  5
43A
330
2
100
AcDbEntity
  8
0
100
AcDbTrace
 10
-6099.22574333587
 20
7135.257576086283
 30
0.0
 11
-6099.22574333587
 21
7133.382576086281
 31
0.0
 12
-6104.850743335868
 22
7134.32007608628
 32
0.0
 13
-6104.850743335868
 23
7134.32007608628
 33
0.0
  0
SOLID
  5
43B
330
2
100
AcDbEntity
  8
0
100
AcDbTrace
 10
-6137.478876259309
 20
7101.231170450879
 30
0.0
 11
-6133.655734247684
 21
7103.479702013186
 31
0.0
 12
-6136.542966454694
 22
7100.112774747772
 32
0.0
 13
-6136.542966454694
 23
7100.112774747772
 33
0.0
1001
ACAD
1000
DSTYLE
1002
{
1070
    41
1040
3.5
1070
   147
1040
1.0
1070
    77
1070
     1
1002
}
  0
TEXT
  5
43C
330
2
100
AcDbEntity
  8
0
100
AcDbText
 10
-6148.836945398512
 20
7093.399899587453
 30
0.0
 40
3.937499999999998
  1
CW
 41
0.9
  7
WHGTXT
 72
     1
 11
-6144.955695398512
 21
7093.399899587453
 31
0.0
100
AcDbText
  0
MTEXT
  5
43D
330
2
100
AcDbEntity
  8
0
100
AcDbMText
 10
-6148.715127209246
 20
7070.302419642729
 30
0.0
 40
4.999999999999999
 41
0.0
 71
     1
 72
     5
  1
{\fHYSinMyeongJo-Medium|b0|i0|c129|p18;The direction of motor rotation is\Pas viewed from the front shaft\Pend of the motor}
 73
     1
 44
1.0
1001
ACAD
1000
MTEXTBEGIN
1070
    73
1070
     1
1070
    44
1040
1.0
1070
    74
1070
     0
1000
MTEXTEND
  0
DIMENSION
  5
43E
330
2
100
AcDbEntity
  8
0
100
AcDbDimension
  2
*D0
 10
-5165.658535208977
 20
7336.867702749072
 30
0.0
 11
-5226.408535208977
 21
7339.367702749071
 31
0.0
 71
     5
 42
121.5
  3
STANDARD
100
AcDbAlignedDimension
 13
-5287.158535208977
 23
7311.38918242336
 33
0.0
 14
-5165.658535208977
 24
7306.389182423362
 34
0.0
100
AcDbRotatedDimension
  0
DIMENSION
  5
44B
330
2
100
AcDbEntity
  8
0
100
AcDbDimension
  2
*D1
 10
-5280.658535208977
 20
7327.623604494063
 30
0.0
 11
-5283.908535208976
 21
7327.623604494063
 31
0.0
 70
   128
 71
     5
 42
6.5
  3
STANDARD
100
AcDbAlignedDimension
 13
-5287.158535208977
 23
7311.38918242336
 33
0.0
 14
-5280.658535208977
 24
7311.38918242336
 34
0.0
100
AcDbRotatedDimension
  0
DIMENSION
  5
45A
330
2
100
AcDbEntity
  8
0
100
AcDbDimension
  2
*D2
 10
-5289.158535208977
 20
7319.474802927185
 30
0.0
 11
-5296.474866206491
 21
7319.474802927185
 31
0.0
 70
   128
 71
     5
 42
2.0
  3
STANDARD
100
AcDbAlignedDimension
 13
-5287.158535208977
 23
7311.38918242336
 33
0.0
 14
-5289.158535208977
 24
7307.389182423361
 34
0.0
100
AcDbRotatedDimension
  0
LINE
  5
469
330
2
100
AcDbEntity
  8
0
100
AcDbLine
 10
-5423.753600703761
 20
7111.203204651566
 30
0.0
 11
-5444.290208105702
 21
7111.203204651566
 31
0.0
  0
LINE
  5
46A
330
2
100
AcDbEntity
  8
0
100
AcDbLine
 10
-5423.753600703761
 20
7088.744871181333
 30
0.0
 11
-5444.290208105702
 21
7088.744871181332
 31
0.0
  0
TEXT
  5
46B
330
2
100
AcDbEntity
  8
0
100
AcDbText
 10
-5454.213829300943
 20
7136.718801283585
 30
0.0
 40
3.937499999999998
  1
RED
 41
0.9
  7
WHGTXT
 72
     1
 11
-5448.982579300944
 21
7136.718801283585
 31
0.0
100
AcDbText
  0
TEXT
  5
46C
330
2
100
AcDbEntity
  8
0
100
AcDbText
 10
-5454.459172129521
 20
7128.517539635506
 30
0.0
 40
3.937499999999998
  1
BLACK
 41
0.9
  7
WHGTXT
 72
     1
 11
-5446.106047129521
 21
7128.517539635506
 31
0.0
100
AcDbText
  0
MTEXT
  5
46D
330
2
100
AcDbEntity
  8
0
100
AcDbMText
 10
-5477.107937693767
 20
7156.417621382911
 30
0.0
 40
4.999999999999999
 41
0.0
 71
     1
 72
     5
  1
{\fHYSinMyeongJo-Medium|b1|i0|c129|p18;- CONNECTION DIAGRAM}
 73
     1
 44
1.0
1001
ACAD
1000
MTEXTBEGIN
1070
    73
1070
     1
1070
    44
1040
1.0
1070
    74
1070
     0
1000
MTEXTEND
  0
TEXT
  5
46E
330
2
100
AcDbEntity
  8
0
100
AcDbText
 10
-5441.057284988775
 20
7113.813125442731
 30
0.0
 40
3.937499999999998
  1
RED
 41
0.9
  7
WHGTXT
 72
     1
 11
-5435.826034988775
 21
7113.813125442731
 31
0.0
100
AcDbText
  0
LINE
  5
46F
330
2
100
AcDbEntity
  8
0
100
AcDbLine
 10
-5444.290208105702
 20
7111.203204651566
 30
0.0
 11
-5452.797174585716
 21
7104.770449309715
 31
0.0
  0
LINE
  5
470
330
2
100
AcDbEntity
  8
0
100
AcDbLine
 10
-5444.290208105702
 20
7088.744871181332
 30
0.0
 11
-5452.797174585716
 21
7095.177626523181
 31
0.0
  0
TEXT
  5
471
330
2
100
AcDbEntity
  8
0
100
AcDbText
 10
-5441.239542210396
 20
7081.871870490822
 30
0.0
 40
3.937499999999998
  1
BLACK
 41
0.9
  7
WHGTXT
 72
     1
 11
-5432.886417210397
 21
7081.871870490822
 31
0.0
100
AcDbText
  0
TEXT
  5
472
330
2
100
AcDbEntity
  8
0
100
AcDbText
 10
-5460.226268202548
 20
7097.537819515084
 30
0.0
 40
4.999999999999999
  1
M
  7
WHGTXT
 72
     1
 11
-5457.369125345405
 21
7097.537819515084
 31
0.0
100
AcDbText
  0
CIRCLE
  5
473
330
2
100
AcDbEntity
  8
0
100
AcDbCircle
 10
-5457.276107940492
 20
7099.974037916448
 30
0.0
 40
6.562499999999999
  0
ARC
  5
474
330
2
100
AcDbEntity
  8
0
100
AcDbCircle
 10
-5458.109441273823
 20
7099.974037916448
 30
0.0
 40
9.0625
100
AcDbArc
 50
116.2310645593157
 51
239.2211388502674
  0
LINE
  5
475
330
2
100
AcDbEntity
  8
0
100
AcDbLine
 10
-5402.081356958955
 20
7111.203204651566
 30
0.0
 11
-5422.086934037092
 21
7111.203204651566
 31
0.0
  0
CIRCLE
  5
476
330
2
100
AcDbEntity
  8
0
100
AcDbCircle
 10
-5422.920267370422
 20
7111.203204651566
 30
0.0
 40
0.8333333333333332
  0
LINE
  5
477
330
2
100
AcDbEntity
  8
0
100
AcDbLine
 10
-5402.081356958955
 20
7088.744871181332
 30
0.0
 11
-5422.086934037092
 21
7088.744871181333
 31
0.0
  0
CIRCLE
  5
478
330
2
100
AcDbEntity
  8
0
100
AcDbCircle
 10
-5422.920267370422
 20
7088.744871181333
 30
0.0
 40
0.8333333333333332
  0
LINE
  5
479
330
2
100
AcDbEntity
  8
0
100
AcDbLine
 10
-5402.081356958955
 20
7088.744871181332
 30
0.0
 11
-5402.081356958955
 21
7096.693006075749
 31
0.0
  0
LINE
  5
47A
330
2
100
AcDbEntity
  8
0
100
AcDbLine
 10
-5402.081356958955
 20
7111.203204651566
 30
0.0
 11
-5402.081356958955
 21
7103.255069757145
 31
0.0
  0
CIRCLE
  5
47B
330
2
100
AcDbEntity
  8
0
100
AcDbCircle
 10
-5402.119193750965
 20
7099.974037916448
 30
0.0
 40
3.281249999999998
  0
TEXT
  5
47C
330
2
100
AcDbEntity
  8
0
100
AcDbText
 10
-5394.965940089598
 20
7100.064711210277
 30
0.0
 40
3.937499999999998
  1
DC POWER
 41
0.9
  7
WHGTXT
 72
     1
 11
-5381.165354152098
 21
7100.064711210277
 31
0.0
100
AcDbText
  0
TEXT
  5
47D
330
2
100
AcDbEntity
  8
0
100
AcDbText
 10
-5391.374729152098
 20
7094.158461210273
 30
0.0
 40
3.937499999999998
  1
SUPPLY
 41
0.9
  7
WHGTXT
 72
     1
 11
-5381.165354152098
 21
7094.158461210273
 31
0.0
100
AcDbText
  0
TEXT
  5
47E
330
2
100
AcDbEntity
  8
0
100
AcDbText
 10
-5404.09796983936
 20
7098.239019021956
 30
0.0
 40
3.937499999999998
  1
-
 41
0.75
  7
WHGTXT
 72
     1
 11
-5402.26984483936
 21
7098.239019021956
 31
0.0
100
AcDbText
  0
SOLID
  5
47F
330
2
100
AcDbEntity
  8
0
100
AcDbTrace
 10
-5427.685005239539
 20
7131.449843723896
 30
0.0
 11
-5427.685005239539
 21
7129.574843723895
 31
0.0
 12
-5433.310005239539
 22
7130.512343723893
 32
0.0
 13
-5433.310005239539
 23
7130.512343723893
 33
0.0
  0
CIRCLE
  5
480
330
2
100
AcDbEntity
  8
0
100
AcDbCircle
 10
-5415.040186316445
 20
7130.336095812555
 30
0.0
 40
2.550408109319824
  0
TEXT
  5
481
330
2
100
AcDbEntity
  8
0
100
AcDbText
 10
-5416.868312417766
 20
7128.414354999357
 30
0.0
 40
3.937499999999998
  1
+
 41
0.75
  7
WHGTXT
 72
     1
 11
-5415.040187417766
 21
7128.414354999357
 31
0.0
100
AcDbText
  0
LINE
  5
482
330
2
100
AcDbEntity
  8
0
100
AcDbLine
 10
-5422.855175725472
 20
7130.512343723893
 30
0.0
 11
-5427.685005239539
 21
7130.512343723893
 31
0.0
  0
TEXT
  5
483
330
2
100
AcDbEntity
  8
0
100
AcDbText
 10
-5410.646611694723
 20
7128.67594146783
 30
0.0
 40
3.937499999999998
  1
CCW
 41
0.9
  7
WHGTXT
 72
     1
 11
-5404.993486694722
 21
7128.67594146783
 31
0.0
100
AcDbText
  0
TEXT
  5
484
330
2
100
AcDbEntity
  8
0
100
AcDbText
 10
-5410.629625071784
 20
7136.723525756671
 30
0.0
 40
3.937499999999998
  1
CW
 41
0.9
  7
WHGTXT
 72
     1
 11
-5406.748375071784
 21
7136.723525756671
 31
0.0
100
AcDbText
  0
CIRCLE
  5
485
330
2
100
AcDbEntity
  8
0
100
AcDbCircle
 10
-5415.040186316445
 20
7138.767397521417
 30
0.0
 40
2.550408109319824
  0
TEXT
  5
486
330
2
100
AcDbEntity
  8
0
100
AcDbText
 10
-5416.868312417766
 20
7137.100944093162
 30
0.0
 40
3.937499999999998
  1
+
 41
0.75
  7
WHGTXT
 72
     1
 11
-5415.040187417766
 21
7137.100944093162
 31
0.0
100
AcDbText
  0
LINE
  5
487
330
2
100
AcDbEntity
  8
0
100
AcDbLine
 10
-5422.855175725472
 20
7138.943645432758
 30
0.0
 11
-5427.685005239539
 21
7138.943645432758
 31
0.0
  0
SOLID
  5
488
330
2
100
AcDbEntity
  8
0
100
AcDbTrace
 10
-5427.685005239539
 20
7139.881145432759
 30
0.0
 11
-5427.685005239539
 21
7138.006145432758
 31
0.0
 12
-5433.310005239539
 22
7138.943645432758
 32
0.0
 13
-5433.310005239539
 23
7138.943645432758
 33
0.0
  0
SOLID
  5
489
330
2
100
AcDbEntity
  8
0
100
AcDbTrace
 10
-5465.938138162979
 20
7105.854739797354
 30
0.0
 11
-5462.114996151353
 21
7108.103271359663
 31
0.0
 12
-5465.002228358364
 22
7104.736344094249
 32
0.0
 13
-5465.002228358364
 23
7104.736344094249
 33
0.0
1001
ACAD
1000
DSTYLE
1002
{
1070
    41
1040
3.5
1070
   147
1040
1.0
1070
    77
1070
     1
1002
}
  0
TEXT
  5
48A
330
2
100
AcDbEntity
  8
0
100
AcDbText
 10
-5477.296207302183
 20
7098.023468933931
 30
0.0
 40
3.937499999999998
  1
CW
 41
0.9
  7
WHGTXT
 72
     1
 11
-5473.414957302182
 21
7098.023468933931
 31
0.0
100
AcDbText
  0
MTEXT
  5
48B
330
2
100
AcDbEntity
  8
0
100
AcDbMText
 10
-5477.174389112917
 20
7074.925988989206
 30
0.0
 40
4.999999999999999
 41
0.0
 71
     1
 72
     5
  1
{\fHYSinMyeongJo-Medium|b0|i0|c129|p18;The direction of motor rotation is\Pas viewed from the front shaft\Pend of the motor}
 73
     1
 44
1.0
1001
ACAD
1000
MTEXTBEGIN
1070
    73
1070
     1
1070
    44
1040
1.0
1070
    74
1070
     0
1000
MTEXTEND
  0
MTEXT
  5
48C
330
2
100
AcDbEntity
  8
0
 62
     3
100
AcDbMText
 10
-5903.77984240369
 20
7402.314232789027
 30
0.0
 40
15.0
 41
0.0
 71
     2
 72
     5
  1
K8DG25N{\fGulim|b0|i0|c129|p50;\H0.9583x;□, }K8DG40N{\fGulim|b0|i0|c129|p50;\H0.9583x;□}
 73
     1
 44
1.0
1001
ACAD
1000
MTEXTBEGIN
1070
    73
1070
     1
1070
    44
1040
1.0
1070
    74
1070
     0
1000
MTEXTEND
  0
MTEXT
  5
48D
330
2
100
AcDbEntity
  8
0
 62
     3
100
AcDbMText
 10
-5224.039391914384
 20
7402.314232789014
 30
0.0
 40
15.0
 41
0.0
 71
     2
 72
     5
  1
K8DS25N{\fGulim|b0|i0|c129|p50;\H0.9583x;□, }K8DS40N{\fGulim|b0|i0|c129|p50;\H0.9583x;□}
 73
     1
 44
1.0
1001
ACAD
1000
MTEXTBEGIN
1070
    73
1070
     1
1070
    44
1040
1.0
1070
    74
1070
     0
1000
MTEXTEND
  0
ENDSEC
  0
SECTION
  2
OBJECTS
  0
DICTIONARY
  5
C
330
0
100
AcDbDictionary
281
     1
  3
ACAD_2007HEADERVARS_RT
350
D8E
  3
ACAD_COLOR
350
51
  3
ACAD_GROUP
350
3E
  3
ACAD_LAYOUT
350
19
  3
ACAD_MATERIAL
350
E
  3
ACAD_MLEADERSTYLE
350
4B1
  3
ACAD_MLINESTYLE
350
3F
  3
ACAD_PLOTSETTINGS
350
40
  3
ACAD_PLOTSTYLENAME
350
B
  3
ACAD_SCALELIST
350
52
  3
ACAD_TABLESTYLE
350
53
  3
ACAD_VISUALSTYLE
350
34
  3
ACDB_RECOMPOSE_DATA
350
49E
  3
AcDbVariableDictionary
350
495
  3
DWGPROPS
350
D8D
  0
DICTIONARY
  5
38
330
31
100
AcDbDictionary
280
     1
281
     1
  0
DICTIONARY
  5
24
330
23
100
AcDbDictionary
280
     1
281
     1
  3
ACAD_LAYERFILTERS
360
25
  3
ACAD_LAYERSTATES
360
26
  3
ACLYDICTIONARY
360
27
  0
DICTIONARY
  5
8
330
7
100
AcDbDictionary
280
     1
281
     1
  3
ADSK_XREC_LAYER_RECONCILED
360
9
  0
DICTIONARY
  5
3
330
2
100
AcDbDictionary
280
     1
281
     1
  3
ACAD_LAYOUTSELFREF
360
4
  3
ACAD_SORTENTS
360
48E
  0
DICTIONARY
  5
1E
330
1D
100
AcDbDictionary
280
     1
281
     1
  3
ACAD_LAYOUTSELFREF
360
1F
  0
DICTIONARY
  5
D97
330
326
100
AcDbDictionary
280
     1
281
     1
  3
ACAD_MTEXT_RT
360
D98
  0
DICTIONARY
  5
D99
330
346
100
AcDbDictionary
280
     1
281
     1
  3
ACAD_MTEXT_RT
360
D9A
  0
DICTIONARY
  5
1EE
330
1ED
100
AcDbDictionary
280
     1
281
     1
  3
ACAD_DIMASSOC
360
1EF
  0
DICTIONARY
  5
1FD
330
1FC
100
AcDbDictionary
280
     1
281
     1
  3
ACAD_DIMASSOC
360
1FE
  0
DICTIONARY
  5
2DE
330
2DD
100
AcDbDictionary
280
     1
281
     1
  3
ACAD_DIMASSOC
360
2DF
  0
DICTIONARY
  5
2EF
330
2EE
100
AcDbDictionary
280
     1
281
     1
  3
ACAD_DIMASSOC
360
2F0
  0
DICTIONARY
  5
31D
330
31C
100
AcDbDictionary
280
     1
281
     1
  3
ACAD_DIMASSOC
360
31E
  0
DICTIONARY
  5
32C
330
32B
100
AcDbDictionary
280
     1
281
     1
  3
ACAD_DIMASSOC
360
32D
  0
DICTIONARY
  5
33D
330
33C
100
AcDbDictionary
280
     1
281
     1
  3
ACAD_DIMASSOC
360
33E
  0
DICTIONARY
  5
350
330
34F
100
AcDbDictionary
280
     1
281
     1
  3
ACAD_DIMASSOC
360
351
  0
DICTIONARY
  5
3FC
330
3FB
100
AcDbDictionary
280
     1
281
     1
  3
ACAD_DIMASSOC
360
3FD
  0
DICTIONARY
  5
40B
330
40A
100
AcDbDictionary
280
     1
281
     1
  3
ACAD_DIMASSOC
360
40C
  0
DICTIONARY
  5
D8E
102
{ACAD_REACTORS
330
C
102
}
330
C
100
AcDbDictionary
281
     1
  3
DIMARCSYM
350
D8F
  3
DIMLTEX1
350
D91
  3
DIMLTEX2
350
D92
  3
DIMLTYPE
350
D90
  0
DICTIONARY
  5
51
102
{ACAD_REACTORS
330
C
102
}
330
C
100
AcDbDictionary
281
     1
  0
DICTIONARY
  5
3E
102
{ACAD_REACTORS
330
C
102
}
330
C
100
AcDbDictionary
281
     1
  0
DICTIONARY
  5
19
102
{ACAD_REACTORS
330
C
102
}
330
C
100
AcDbDictionary
281
     1
  3
Layout2
350
22
  3
Model
350
18
  0
DICTIONARY
  5
E
102
{ACAD_REACTORS
330
C
102
}
330
C
100
AcDbDictionary
281
     1
  3
ByBlock
350
49
  3
ByLayer
350
41
  3
Global
350
D
  0
DICTIONARY
  5
4B1
102
{ACAD_REACTORS
330
C
102
}
330
C
100
AcDbDictionary
281
     1
  3
Standard
350
4B2
  0
DICTIONARY
  5
3F
102
{ACAD_REACTORS
330
C
102
}
330
C
100
AcDbDictionary
281
     1
  3
Standard
350
54
  0
DICTIONARY
  5
40
102
{ACAD_REACTORS
330
C
102
}
330
C
100
AcDbDictionary
281
     1
  0
ACDBDICTIONARYWDFLT
  5
B
102
{ACAD_REACTORS
330
C
102
}
330
C
100
AcDbDictionary
281
     1
  3
Normal
350
A
100
AcDbDictionaryWithDefault
340
A
  0
DICTIONARY
  5
52
102
{ACAD_REACTORS
330
C
102
}
330
C
100
AcDbDictionary
281
     1
  3
*A1
350
5D
  3
A0
350
5E
  3
A1
350
5F
  3
A2
350
60
  3
A3
350
61
  3
A4
350
62
  3
A5
350
63
  3
A6
350
64
  3
A7
350
65
  3
A8
350
66
  3
A9
350
67
  3
B0
350
68
  3
B1
350
69
  3
B2
350
6A
  3
B3
350
6B
  3
B4
350
6C
  3
B5
350
6D
  3
B6
350
6E
  3
B7
350
6F
  3
B8
350
70
  3
B9
350
71
  3
C0
350
72
  3
C1
350
73
  3
C2
350
74
  3
C3
350
75
  3
C4
350
76
  3
C5
350
77
  3
C6
350
78
  3
C7
350
79
  3
C8
350
7A
  3
C9
350
7B
  3
D0
350
7C
  3
D1
350
7D
  3
D2
350
7E
  0
DICTIONARY
  5
53
102
{ACAD_REACTORS
330
C
102
}
330
C
100
AcDbDictionary
281
     1
  3
Standard
350
55
  0
DICTIONARY
  5
34
102
{ACAD_REACTORS
330
C
102
}
330
C
100
AcDbDictionary
281
     1
  3
2dWireframe
350
33
  3
3D Hidden
350
4A9
  3
3dWireframe
350
5A
  3
Basic
350
4A8
  3
Brighten
350
4AC
  3
ColorChange
350
4B0
  3
Conceptual
350
4AA
  3
Dim
350
4AB
  3
Facepattern
350
4AF
  3
Flat
350
4A4
  3
FlatWithEdges
350
4A5
  3
Gouraud
350
4A6
  3
GouraudWithEdges
350
4A7
  3
Linepattern
350
4AE
  3
Realistic
350
57
  3
Thicken
350
4AD
  0
XRECORD
  5
49E
102
{ACAD_REACTORS
330
C
102
}
330
C
100
AcDbXrecord
280
     1
 90
        1
330
55
  0
DICTIONARY
  5
495
102
{ACAD_REACTORS
330
C
102
}
330
C
100
AcDbDictionary
281
     1
  3
CANNOSCALE
350
499
  3
CMLEADERSTYLE
350
497
  3
CTABLESTYLE
350
496
  3
DIMASSOC
350
4BD
  3
HIDETEXT
350
4BC
  3
INDEXCTL
350
4BB
  3
LAYEREVAL
350
49B
  3
LAYERNOTIFY
350
49C
  3
LIGHTINGUNITS
350
49A
  3
LOFTANG1
350
D8A
  3
LOFTANG2
350
D8B
  3
MSLTSCALE
350
498
  3
SORTENTS
350
4BA
  0
XRECORD
  5
D8D
102
{ACAD_REACTORS
330
C
102
}
330
C
100
AcDbXrecord
280
     1
  1
DWGPROPS COOKIE
  2

  3

  4

  6

  7

  8
kkk
  9

300
=
301
=
302
=
303
=
304
=
305
=
306
=
307
=
308
=
309
=
 40
147.9508545601851
 41
2452452.600976968
 42
2456960.629207361
  1

 90
        0
  0
DICTIONARY
  5
25
102
{ACAD_REACTORS
330
24
102
}
330
24
100
AcDbDictionary
281
     1
  0
DICTIONARY
  5
26
102
{ACAD_REACTORS
330
24
102
}
330
24
100
AcDbDictionary
281
     1
  0
DICTIONARY
  5
27
102
{ACAD_REACTORS
330
24
102
}
330
24
100
AcDbDictionary
281
     1
1001
ACAD
1000
<All
  0
XRECORD
  5
9
102
{ACAD_REACTORS
330
8
102
}
330
8
100
AcDbXrecord
280
     1
290
     1
  0
XRECORD
  5
4
102
{ACAD_REACTORS
330
3
102
}
330
3
100
AcDbXrecord
280
     1
340
2
  0
SORTENTSTABLE
  5
48E
102
{ACAD_REACTORS
330
3
102
}
330
3
100
AcDbSortentsTable
330
2
  0
XRECORD
  5
1F
102
{ACAD_REACTORS
330
1E
102
}
330
1E
100
AcDbXrecord
280
     1
340
1D
  0
XRECORD
  5
D98
102
{ACAD_REACTORS
330
D97
102
}
330
D97
100
AcDbXrecord
280
     1
 40
10153.0
  1
\A1;\U+220594%%P0.5
  0
XRECORD
  5
D9A
102
{ACAD_REACTORS
330
D99
102
}
330
D99
100
AcDbXrecord
280
     1
 40
10153.0
  1
\A1;\U+220594%%P0.5
  0
DIMASSOC
  5
1EF
102
{ACAD_REACTORS
330
1EE
102
}
330
1EE
100
AcDbDimAssoc
330
1ED
 90
        3
 70
     0
 71
     0
  1
AcDbOsnapPointRef
 72
     6
331
AA
 73
     2
 91
        0
 40
0.9444444444444444
 10
0.0
 20
0.0
 30
0.0
332
A9
 74
     2
 92
        0
 75
     0
  1
AcDbOsnapPointRef
 72
     6
331
AA
 73
     2
 91
        0
 40
0.0555555555555556
 10
0.0
 20
0.0
 30
0.0
332
A9
 74
     2
 92
        0
 75
     0
  0
DIMASSOC
  5
1FE
102
{ACAD_REACTORS
330
1FD
102
}
330
1FD
100
AcDbDimAssoc
330
1FC
 90
        3
 70
     0
 71
     0
  1
AcDbOsnapPointRef
 72
    13
331
BC
 73
     2
 91
        0
 40
0.0
 10
0.0
 20
0.0
 30
2.000000000000000E+50
 75
     0
  1
AcDbOsnapPointRef
 72
     1
331
C1
 73
     2
 91
        0
 40
1.570796326794896
 10
0.0
 20
0.0
 30
2.000000000000000E+50
 75
     0
  0
DIMASSOC
  5
2DF
102
{ACAD_REACTORS
330
2DE
102
}
330
2DE
100
AcDbDimAssoc
330
2DD
 90
        3
 70
     0
 71
     0
  1
AcDbOsnapPointRef
 72
    13
331
2DC
 73
     2
 91
        0
 40
0.0
 10
0.0
 20
0.0
 30
2.000000000000000E+50
 75
     0
  1
AcDbOsnapPointRef
 72
     1
331
2BE
 73
     2
 91
        0
 40
1.0
 10
0.0
 20
0.0
 30
2.000000000000000E+50
 75
     0
  0
DIMASSOC
  5
2F0
102
{ACAD_REACTORS
330
2EF
102
}
330
2EF
100
AcDbDimAssoc
330
2EE
 90
        3
 70
     0
 71
     0
  1
AcDbOsnapPointRef
 72
     1
331
2BF
 73
     2
 91
        0
 40
1.0
 10
0.0
 20
0.0
 30
2.000000000000000E+50
 75
     0
  1
AcDbOsnapPointRef
 72
     1
331
2C0
 73
     2
 91
        0
 40
1.0
 10
0.0
 20
0.0
 30
2.000000000000000E+50
 75
     0
  0
DIMASSOC
  5
31E
102
{ACAD_REACTORS
330
31D
102
}
330
31D
100
AcDbDimAssoc
330
31C
 90
        2
 70
     0
 71
     0
  1
AcDbOsnapPointRef
 72
     3
331
1B4
 73
     2
 91
        0
 40
0.0
 10
0.0
 20
0.0
 30
0.0
 75
     0
  0
DIMASSOC
  5
32D
102
{ACAD_REACTORS
330
32C
102
}
330
32C
100
AcDbDimAssoc
330
32B
 90
        2
 70
     0
 71
     0
  1
AcDbOsnapPointRef
 72
     1
331
A1
 73
     2
 91
        0
 40
1.0
 10
0.0
 20
0.0
 30
2.000000000000000E+50
 75
     0
  0
DIMASSOC
  5
33E
102
{ACAD_REACTORS
330
33D
102
}
330
33D
100
AcDbDimAssoc
330
33C
 90
        2
 70
     0
 71
     0
  1
AcDbOsnapPointRef
 72
     3
331
28C
 73
     2
 91
        0
 40
0.0
 10
0.0
 20
0.0
 30
0.0
 75
     0
  0
DIMASSOC
  5
351
102
{ACAD_REACTORS
330
350
102
}
330
350
100
AcDbDimAssoc
330
34F
 90
        2
 70
     0
 71
     0
  1
AcDbOsnapPointRef
 72
    13
331
1BD
 73
     2
 91
        0
 40
0.0
 10
0.0
 20
0.0
 30
2.000000000000000E+50
 75
     0
  0
DIMASSOC
  5
3FD
102
{ACAD_REACTORS
330
3FC
102
}
330
3FC
100
AcDbDimAssoc
330
3FB
 90
        3
 70
     0
 71
     0
  1
AcDbOsnapPointRef
 72
     6
331
364
 73
     2
 91
        0
 40
0.9444444444444444
 10
0.0
 20
0.0
 30
0.0
332
363
 74
     2
 92
        0
 75
     0
  1
AcDbOsnapPointRef
 72
     6
331
364
 73
     2
 91
        0
 40
0.0555555555555556
 10
0.0
 20
0.0
 30
0.0
332
363
 74
     2
 92
        0
 75
     0
  0
DIMASSOC
  5
40C
102
{ACAD_REACTORS
330
40B
102
}
330
40B
100
AcDbDimAssoc
330
40A
 90
        3
 70
     0
 71
     0
  1
AcDbOsnapPointRef
 72
    13
331
376
 73
     2
 91
        0
 40
0.0
 10
0.0
 20
0.0
 30
2.000000000000000E+50
 75
     0
  1
AcDbOsnapPointRef
 72
     1
331
37B
 73
     2
 91
        0
 40
1.570796326794896
 10
0.0
 20
0.0
 30
2.000000000000000E+50
 75
     0
  0
XRECORD
  5
D8F
102
{ACAD_REACTORS
330
D8E
102
}
330
D8E
100
AcDbXrecord
280
     1
 70
     1
  0
XRECORD
  5
D91
102
{ACAD_REACTORS
330
D8E
102
}
330
D8E
100
AcDbXrecord
280
     1
340
2E
  0
XRECORD
  5
D92
102
{ACAD_REACTORS
330
D8E
102
}
330
D8E
100
AcDbXrecord
280
     1
340
2E
  0
XRECORD
  5
D90
102
{ACAD_REACTORS
330
D8E
102
}
330
D8E
100
AcDbXrecord
280
     1
340
2E
  0
LAYOUT
  5
22
102
{ACAD_XDICTIONARY
360
D94
102
}
102
{ACAD_REACTORS
330
19
102
}
330
19
100
AcDbPlotSettings
  1

  2
HP LaserJet 5000 Series PS
  4
A3
  6

 40
6.085416793823242
 41
5.704408645629882
 42
5.746734619140625
 43
6.085418701171875
 44
420.1583251953125
 45
297.0106506347656
 46
0.0
 47
0.0
 48
0.0
 49
0.0
140
0.0
141
0.0
142
1.0
143
1.0
 70
   688
 72
     1
 73
     0
 74
     5
  7
monochrome.ctb
 75
    16
147
1.0
148
0.0
149
0.0
100
AcDbLayout
  1
Layout2
 70
     1
 71
     1
 10
-6.085416793823242
 20
-5.704408645629882
 11
414.0729084014892
 21
291.3062419891357
 12
0.0
 22
0.0
 32
0.0
 14
40.83261737823487
 24
28.52208232879639
 34
0.0
 15
367.4935564041137
 25
256.6987409591675
 35
0.0
146
0.0
 13
0.0
 23
0.0
 33
0.0
 16
1.0
 26
0.0
 36
0.0
 17
0.0
 27
1.0
 37
0.0
 76
     0
330
1D
  0
LAYOUT
  5
18
102
{ACAD_XDICTIONARY
360
1A
102
}
102
{ACAD_REACTORS
330
19
102
}
330
19
100
AcDbPlotSettings
  1

  2
RICOH Aficio 2027 RPCS
  4
A3
  6

 40
5.027082920074462
 41
5.027085781097412
 42
5.027099609375
 43
5.027069091796875
 44
296.9259948730469
 45
419.9466552734373
 46
4.935906171798848
 47
13.44625020027143
 48
-7703.932044841464
 49
7550.951812877231
140
-7244.332044841462
141
7883.351812877229
142
1.0
143
1.199999999999999
 70
  3748
 72
     1
 73
     1
 74
     4
  7
KSJ2008.ctb
 75
     0
147
0.8630319264247825
148
7703.932044841464
149
-7550.951812877231
100
AcDbLayout
  1
Model
 70
     1
 71
     0
 10
0.0
 20
0.0
 11
12.0
 21
9.0
 12
0.0
 22
0.0
 32
0.0
 14
0.0
 24
0.0
 34
0.0
 15
0.0
 25
0.0
 35
0.0
146
0.0
 13
0.0
 23
0.0
 33
0.0
 16
1.0
 26
0.0
 36
0.0
 17
0.0
 27
1.0
 37
0.0
 76
     0
330
2
331
32
1001
ACAD_PSEXT
1000
RICOH Aficio 2027 RPCS
1000
RICOH Aficio 2027 RPCS
1000
IP_192.168.10.205
1000

1070
     0
  0
MATERIAL
  5
49
102
{ACAD_XDICTIONARY
360
4A
102
}
102
{ACAD_REACTORS
330
E
102
}
330
E
100
AcDbMaterial
  1
ByBlock
 72
     0
 43
0.0008202099737533
 43
0.0
 43
0.0
 43
0.0
 43
0.0
 43
0.0008202099737533
 43
0.0
 43
0.0
 43
0.0
 43
0.0
 43
1.0
 43
0.0
 43
0.0
 43
0.0
 43
0.0
 43
1.0
 77
     0
 47
0.0008202099737533
 47
0.0
 47
0.0
 47
0.0
 47
0.0
 47
0.0008202099737533
 47
0.0
 47
0.0
 47
0.0
 47
0.0
 47
1.0
 47
0.0
 47
0.0
 47
0.0
 47
0.0
 47
1.0
171
     0
 49
0.0008202099737533
 49
0.0
 49
0.0
 49
0.0
 49
0.0
 49
0.0008202099737533
 49
0.0
 49
0.0
 49
0.0
 49
0.0
 49
1.0
 49
0.0
 49
0.0
 49
0.0
 49
0.0
 49
1.0
175
     0
142
0.0008202099737533
142
0.0
142
0.0
142
0.0
142
0.0
142
0.0008202099737533
142
0.0
142
0.0
142
0.0
142
0.0
142
1.0
142
0.0
142
0.0
142
0.0
142
0.0
142
1.0
179
     0
144
0.0008202099737533
144
0.0
144
0.0
144
0.0
144
0.0
144
0.0008202099737533
144
0.0
144
0.0
144
0.0
144
0.0
144
1.0
144
0.0
144
0.0
144
0.0
144
0.0
144
1.0
147
0.0008202099737533
147
0.0
147
0.0
147
0.0
147
0.0
147
0.0008202099737533
147
0.0
147
0.0
147
0.0
147
0.0
147
1.0
147
0.0
147
0.0
147
0.0
147
0.0
147
1.0
  0
MATERIAL
  5
41
102
{ACAD_XDICTIONARY
360
42
102
}
102
{ACAD_REACTORS
330
E
102
}
330
E
100
AcDbMaterial
  1
ByLayer
 72
     0
 43
0.0008202099737533
 43
0.0
 43
0.0
 43
0.0
 43
0.0
 43
0.0008202099737533
 43
0.0
 43
0.0
 43
0.0
 43
0.0
 43
1.0
 43
0.0
 43
0.0
 43
0.0
 43
0.0
 43
1.0
 77
     0
 47
0.0008202099737533
 47
0.0
 47
0.0
 47
0.0
 47
0.0
 47
0.0008202099737533
 47
0.0
 47
0.0
 47
0.0
 47
0.0
 47
1.0
 47
0.0
 47
0.0
 47
0.0
 47
0.0
 47
1.0
171
     0
 49
0.0008202099737533
 49
0.0
 49
0.0
 49
0.0
 49
0.0
 49
0.0008202099737533
 49
0.0
 49
0.0
 49
0.0
 49
0.0
 49
1.0
 49
0.0
 49
0.0
 49
0.0
 49
0.0
 49
1.0
175
     0
142
0.0008202099737533
142
0.0
142
0.0
142
0.0
142
0.0
142
0.0008202099737533
142
0.0
142
0.0
142
0.0
142
0.0
142
1.0
142
0.0
142
0.0
142
0.0
142
0.0
142
1.0
179
     0
144
0.0008202099737533
144
0.0
144
0.0
144
0.0
144
0.0
144
0.0008202099737533
144
0.0
144
0.0
144
0.0
144
0.0
144
1.0
144
0.0
144
0.0
144
0.0
144
0.0
144
1.0
147
0.0008202099737533
147
0.0
147
0.0
147
0.0
147
0.0
147
0.0008202099737533
147
0.0
147
0.0
147
0.0
147
0.0
147
1.0
147
0.0
147
0.0
147
0.0
147
0.0
147
1.0
  0
MATERIAL
  5
D
102
{ACAD_XDICTIONARY
360
F
102
}
102
{ACAD_REACTORS
330
E
102
}
330
E
100
AcDbMaterial
  1
Global
 72
     0
 43
0.0008202099737533
 43
0.0
 43
0.0
 43
0.0
 43
0.0
 43
0.0008202099737533
 43
0.0
 43
0.0
 43
0.0
 43
0.0
 43
1.0
 43
0.0
 43
0.0
 43
0.0
 43
0.0
 43
1.0
 77
     0
 47
0.0008202099737533
 47
0.0
 47
0.0
 47
0.0
 47
0.0
 47
0.0008202099737533
 47
0.0
 47
0.0
 47
0.0
 47
0.0
 47
1.0
 47
0.0
 47
0.0
 47
0.0
 47
0.0
 47
1.0
171
     0
 49
0.0008202099737533
 49
0.0
 49
0.0
 49
0.0
 49
0.0
 49
0.0008202099737533
 49
0.0
 49
0.0
 49
0.0
 49
0.0
 49
1.0
 49
0.0
 49
0.0
 49
0.0
 49
0.0
 49
1.0
175
     0
142
0.0008202099737533
142
0.0
142
0.0
142
0.0
142
0.0
142
0.0008202099737533
142
0.0
142
0.0
142
0.0
142
0.0
142
1.0
142
0.0
142
0.0
142
0.0
142
0.0
142
1.0
179
     0
144
0.0008202099737533
144
0.0
144
0.0
144
0.0
144
0.0
144
0.0008202099737533
144
0.0
144
0.0
144
0.0
144
0.0
144
1.0
144
0.0
144
0.0
144
0.0
144
0.0
144
1.0
147
0.0008202099737533
147
0.0
147
0.0
147
0.0
147
0.0
147
0.0008202099737533
147
0.0
147
0.0
147
0.0
147
0.0
147
1.0
147
0.0
147
0.0
147
0.0
147
0.0
147
1.0
  0
MLEADERSTYLE
  5
4B2
102
{ACAD_REACTORS
330
4B1
102
}
330
4B1
100
AcDbMLeaderStyle
170
     2
171
     1
172
     0
 90
        2
 40
0.0
 41
0.0
173
     1
 91
-1056964608
340
2D
 92
       -2
290
     1
 42
2.0
291
     1
 43
0.36
  3
Standard
 44
4.0
300

342
2A
174
     1
178
     6
175
     1
176
     0
 93
-1056964608
 45
4.0
292
     0
297
     0
 46
4.0
 94
-1056964608
 47
1.0
 49
1.0
140
1.0
293
     1
141
0.0
294
     1
177
     0
142
1.0
295
     0
296
     0
143
0.125
1001
ACAD_MLEADERVER
1070
     2
  0
MLINESTYLE
  5
54
102
{ACAD_REACTORS
330
3F
102
}
330
3F
100
AcDbMlineStyle
  2
STANDARD
 70
     0
  3

 62
   256
 51
90.0
 52
90.0
 71
     2
 49
0.5
 62
   256
  6
BYLAYER
 49
-0.5
 62
   256
  6
BYLAYER
  0
ACDBPLACEHOLDER
  5
A
102
{ACAD_REACTORS
330
B
102
}
330
B
  0
SCALE
  5
5D
102
{ACAD_REACTORS
330
52
102
}
330
52
100
AcDbScale
 70
     0
300
1/128" = 1'-0"_1
140
0.007812
141
12.0
290
     0
  0
SCALE
  5
5E
102
{ACAD_REACTORS
330
52
102
}
330
52
100
AcDbScale
 70
     0
300
1:1
140
1.0
141
1.0
290
     1
  0
SCALE
  5
5F
102
{ACAD_REACTORS
330
52
102
}
330
52
100
AcDbScale
 70
     0
300
1:2
140
1.0
141
2.0
290
     0
  0
SCALE
  5
60
102
{ACAD_REACTORS
330
52
102
}
330
52
100
AcDbScale
 70
     0
300
1:4
140
1.0
141
4.0
290
     0
  0
SCALE
  5
61
102
{ACAD_REACTORS
330
52
102
}
330
52
100
AcDbScale
 70
     0
300
1:5
140
1.0
141
5.0
290
     0
  0
SCALE
  5
62
102
{ACAD_REACTORS
330
52
102
}
330
52
100
AcDbScale
 70
     0
300
1:8
140
1.0
141
8.0
290
     0
  0
SCALE
  5
63
102
{ACAD_REACTORS
330
52
102
}
330
52
100
AcDbScale
 70
     0
300
1:10
140
1.0
141
10.0
290
     0
  0
SCALE
  5
64
102
{ACAD_REACTORS
330
52
102
}
330
52
100
AcDbScale
 70
     0
300
1:16
140
1.0
141
16.0
290
     0
  0
SCALE
  5
65
102
{ACAD_REACTORS
330
52
102
}
330
52
100
AcDbScale
 70
     0
300
1:20
140
1.0
141
20.0
290
     0
  0
SCALE
  5
66
102
{ACAD_REACTORS
330
52
102
}
330
52
100
AcDbScale
 70
     0
300
1:30
140
1.0
141
30.0
290
     0
  0
SCALE
  5
67
102
{ACAD_REACTORS
330
52
102
}
330
52
100
AcDbScale
 70
     0
300
1:40
140
1.0
141
40.0
290
     0
  0
SCALE
  5
68
102
{ACAD_REACTORS
330
52
102
}
330
52
100
AcDbScale
 70
     0
300
1:50
140
1.0
141
50.0
290
     0
  0
SCALE
  5
69
102
{ACAD_REACTORS
330
52
102
}
330
52
100
AcDbScale
 70
     0
300
1:100
140
1.0
141
100.0
290
     0
  0
SCALE
  5
6A
102
{ACAD_REACTORS
330
52
102
}
330
52
100
AcDbScale
 70
     0
300
2:1
140
2.0
141
1.0
290
     0
  0
SCALE
  5
6B
102
{ACAD_REACTORS
330
52
102
}
330
52
100
AcDbScale
 70
     0
300
4:1
140
4.0
141
1.0
290
     0
  0
SCALE
  5
6C
102
{ACAD_REACTORS
330
52
102
}
330
52
100
AcDbScale
 70
     0
300
8:1
140
8.0
141
1.0
290
     0
  0
SCALE
  5
6D
102
{ACAD_REACTORS
330
52
102
}
330
52
100
AcDbScale
 70
     0
300
10:1
140
10.0
141
1.0
290
     0
  0
SCALE
  5
6E
102
{ACAD_REACTORS
330
52
102
}
330
52
100
AcDbScale
 70
     0
300
100:1
140
100.0
141
1.0
290
     0
  0
SCALE
  5
6F
102
{ACAD_REACTORS
330
52
102
}
330
52
100
AcDbScale
 70
     0
300
1/128" = 1'-0"
140
0.0078125
141
12.0
290
     0
  0
SCALE
  5
70
102
{ACAD_REACTORS
330
52
102
}
330
52
100
AcDbScale
 70
     0
300
1/64" = 1'-0"
140
0.015625
141
12.0
290
     0
  0
SCALE
  5
71
102
{ACAD_REACTORS
330
52
102
}
330
52
100
AcDbScale
 70
     0
300
1/32" = 1'-0"
140
0.03125
141
12.0
290
     0
  0
SCALE
  5
72
102
{ACAD_REACTORS
330
52
102
}
330
52
100
AcDbScale
 70
     0
300
1/16" = 1'-0"
140
0.0625
141
12.0
290
     0
  0
SCALE
  5
73
102
{ACAD_REACTORS
330
52
102
}
330
52
100
AcDbScale
 70
     0
300
3/32" = 1'-0"
140
0.09375
141
12.0
290
     0
  0
SCALE
  5
74
102
{ACAD_REACTORS
330
52
102
}
330
52
100
AcDbScale
 70
     0
300
1/8" = 1'-0"
140
0.125
141
12.0
290
     0
  0
SCALE
  5
75
102
{ACAD_REACTORS
330
52
102
}
330
52
100
AcDbScale
 70
     0
300
3/16" = 1'-0"
140
0.1875
141
12.0
290
     0
  0
SCALE
  5
76
102
{ACAD_REACTORS
330
52
102
}
330
52
100
AcDbScale
 70
     0
300
1/4" = 1'-0"
140
0.25
141
12.0
290
     0
  0
SCALE
  5
77
102
{ACAD_REACTORS
330
52
102
}
330
52
100
AcDbScale
 70
     0
300
3/8" = 1'-0"
140
0.375
141
12.0
290
     0
  0
SCALE
  5
78
102
{ACAD_REACTORS
330
52
102
}
330
52
100
AcDbScale
 70
     0
300
1/2" = 1'-0"
140
0.5
141
12.0
290
     0
  0
SCALE
  5
79
102
{ACAD_REACTORS
330
52
102
}
330
52
100
AcDbScale
 70
     0
300
3/4" = 1'-0"
140
0.75
141
12.0
290
     0
  0
SCALE
  5
7A
102
{ACAD_REACTORS
330
52
102
}
330
52
100
AcDbScale
 70
     0
300
1" = 1'-0"
140
1.0
141
12.0
290
     0
  0
SCALE
  5
7B
102
{ACAD_REACTORS
330
52
102
}
330
52
100
AcDbScale
 70
     0
300
1-1/2" = 1'-0"
140
1.5
141
12.0
290
     0
  0
SCALE
  5
7C
102
{ACAD_REACTORS
330
52
102
}
330
52
100
AcDbScale
 70
     0
300
3" = 1'-0"
140
3.0
141
12.0
290
     0
  0
SCALE
  5
7D
102
{ACAD_REACTORS
330
52
102
}
330
52
100
AcDbScale
 70
     0
300
6" = 1'-0"
140
6.0
141
12.0
290
     0
  0
SCALE
  5
7E
102
{ACAD_REACTORS
330
52
102
}
330
52
100
AcDbScale
 70
     0
300
1'-0" = 1'-0"
140
12.0
141
12.0
290
     0
  0
TABLESTYLE
  5
55
102
{ACAD_XDICTIONARY
360
56
102
}
102
{ACAD_REACTORS
330
53
102
}
330
53
100
AcDbTableStyle
  3
Standard
 70
     0
 71
     0
 40
1.5
 41
1.5
280
     0
281
     0
  7
Standard
140
4.5
170
     2
 62
     0
 63
     7
283
     0
274
    -2
284
     1
 64
     0
275
    -2
285
     1
 65
     0
276
    -2
286
     1
 66
     0
277
    -2
287
     1
 67
     0
278
    -2
288
     1
 68
     0
279
    -2
289
     1
 69
     0
  7
Standard
140
6.0
170
     5
 62
     0
 63
     7
283
     0
274
    -2
284
     1
 64
     0
275
    -2
285
     1
 65
     0
276
    -2
286
     1
 66
     0
277
    -2
287
     1
 67
     0
278
    -2
288
     1
 68
     0
279
    -2
289
     1
 69
     0
  7
Standard
140
4.5
170
     5
 62
     0
 63
     7
283
     0
274
    -2
284
     1
 64
     0
275
    -2
285
     1
 65
     0
276
    -2
286
     1
 66
     0
277
    -2
287
     1
 67
     0
278
    -2
288
     1
 68
     0
279
    -2
289
     1
 69
     0
  0
VISUALSTYLE
  5
33
102
{ACAD_XDICTIONARY
360
35
102
}
102
{ACAD_REACTORS
330
34
102
}
330
34
100
AcDbVisualStyle
  2
2dWireframe
 70
     4
 71
     0
 72
     2
 73
     0
 90
        0
 40
-0.6
 41
-30.0
 62
     5
 63
     7
 74
     1
 91
        4
 64
     7
 65
   257
 75
     1
175
     1
 42
1.0
 92
        0
 66
   257
 43
1.0
 76
     1
 77
     6
 78
     2
 67
     7
 79
     5
170
     0
171
     0
290
     0
174
     0
 93
        1
 44
0.0
173
     0
291
     0
 45
0.0
1001
ACAD
1000
AcDbSavedByObjectVersion
1070
     0
1000
AcDbSavedByObjectVersion
1070
     0
  0
VISUALSTYLE
  5
4A9
102
{ACAD_REACTORS
330
34
102
}
330
34
100
AcDbVisualStyle
  2
3D Hidden
 70
     6
 71
     1
 72
     2
 73
     2
 90
        0
 40
-0.6
 41
-30.0
 62
     5
 63
     7
 74
     2
 91
        2
 64
     7
 65
   257
 75
     2
175
     1
 42
40.0
 92
        0
 66
   257
 43
1.0
 76
     1
 77
     6
 78
     2
 67
     7
 79
     3
170
     0
171
     0
290
     0
174
     0
 93
        1
 44
0.0
173
     0
291
     0
 45
0.0
1001
ACAD
1000
AcDbSavedByObjectVersion
1070
     0
1000
AcDbSavedByObjectVersion
1070
     0
  0
VISUALSTYLE
  5
5A
102
{ACAD_XDICTIONARY
360
5B
102
}
102
{ACAD_REACTORS
330
34
102
}
330
34
100
AcDbVisualStyle
  2
3dWireframe
 70
     5
 71
     0
 72
     2
 73
     0
 90
        0
 40
-0.6
 41
-30.0
 62
     5
 63
     7
 74
     1
 91
        4
 64
     7
 65
   257
 75
     1
175
     1
 42
1.0
 92
        0
 66
   257
 43
1.0
 76
     1
 77
     6
 78
     2
 67
     7
 79
     5
170
     0
171
     0
290
     0
174
     0
 93
        1
 44
0.0
173
     0
291
     0
 45
0.0
1001
ACAD
1000
AcDbSavedByObjectVersion
1070
     0
1000
AcDbSavedByObjectVersion
1070
     0
  0
VISUALSTYLE
  5
4A8
102
{ACAD_REACTORS
330
34
102
}
330
34
100
AcDbVisualStyle
  2
Basic
 70
     7
 71
     1
 72
     0
 73
     1
 90
        0
 40
-0.6
 41
-30.0
 62
     5
 63
     7
 74
     0
 91
        4
 64
     7
 65
   257
 75
     1
175
     1
 42
1.0
 92
        8
 66
     7
 43
1.0
 76
     1
 77
     6
 78
     2
 67
     7
 79
     5
170
     0
171
     0
290
     0
174
     0
 93
        1
 44
0.0
173
     0
291
     1
 45
0.0
1001
ACAD
1000
AcDbSavedByObjectVersion
1070
     0
1000
AcDbSavedByObjectVersion
1070
     0
  0
VISUALSTYLE
  5
4AC
102
{ACAD_REACTORS
330
34
102
}
330
34
100
AcDbVisualStyle
  2
Brighten
 70
    12
 71
     2
 72
     2
 73
     0
 90
        0
 40
-0.6
 41
-30.0
 62
     5
 63
     7
 74
     1
 91
        4
 64
     7
 65
   257
 75
     1
175
     1
 42
1.0
 92
        8
 66
     7
 43
1.0
 76
     1
 77
     6
 78
     2
 67
     7
 79
     5
170
     0
171
     0
290
     0
174
     0
 93
        1
 44
50.0
173
     0
291
     1
 45
0.0
1001
ACAD
1000
AcDbSavedByObjectVersion
1070
     0
1000
AcDbSavedByObjectVersion
1070
     0
  0
VISUALSTYLE
  5
4B0
102
{ACAD_REACTORS
330
34
102
}
330
34
100
AcDbVisualStyle
  2
ColorChange
 70
    16
 71
     2
 72
     2
 73
     3
 90
        0
 40
-0.6
 41
-30.0
 62
     5
 63
     8
 74
     1
 91
        4
 64
     7
 65
   257
 75
     1
175
     1
 42
1.0
 92
        8
 66
     8
 43
1.0
 76
     1
 77
     6
 78
     2
 67
     7
 79
     5
170
     0
171
     0
290
     0
174
     0
 93
        1
 44
0.0
173
     0
291
     1
 45
0.0
1001
ACAD
1000
AcDbSavedByObjectVersion
1070
     0
1000
AcDbSavedByObjectVersion
1070
     0
  0
VISUALSTYLE
  5
4AA
102
{ACAD_REACTORS
330
34
102
}
330
34
100
AcDbVisualStyle
  2
Conceptual
 70
     9
 71
     3
 72
     2
 73
     0
 90
        0
 40
-0.6
 41
-30.0
 62
     5
 63
     7
 74
     2
 91
        2
 64
     7
 65
   257
 75
     1
175
     1
 42
40.0
 92
        8
 66
     7
 43
1.0
 76
     1
 77
     6
 78
     2
 67
     7
 79
     3
170
     0
171
     0
290
     0
174
     0
 93
        1
 44
0.0
173
     0
291
     0
 45
0.0
1001
ACAD
1000
AcDbSavedByObjectVersion
1070
     0
1000
AcDbSavedByObjectVersion
1070
     0
  0
VISUALSTYLE
  5
4AB
102
{ACAD_REACTORS
330
34
102
}
330
34
100
AcDbVisualStyle
  2
Dim
 70
    11
 71
     2
 72
     2
 73
     0
 90
        0
 40
-0.6
 41
-30.0
 62
     5
 63
     7
 74
     1
 91
        4
 64
     7
 65
   257
 75
     1
175
     1
 42
1.0
 92
        8
 66
     7
 43
1.0
 76
     1
 77
     6
 78
     2
 67
     7
 79
     5
170
     0
171
     0
290
     0
174
     0
 93
        1
 44
-50.0
173
     0
291
     1
 45
0.0
1001
ACAD
1000
AcDbSavedByObjectVersion
1070
     0
1000
AcDbSavedByObjectVersion
1070
     0
  0
VISUALSTYLE
  5
4AF
102
{ACAD_REACTORS
330
34
102
}
330
34
100
AcDbVisualStyle
  2
Facepattern
 70
    15
 71
     2
 72
     2
 73
     0
 90
        0
 40
-0.6
 41
-30.0
 62
     5
 63
     7
 74
     1
 91
        4
 64
     7
 65
   257
 75
     1
175
     1
 42
1.0
 92
        8
 66
     7
 43
1.0
 76
     1
 77
     6
 78
     2
 67
     7
 79
     5
170
     0
171
     0
290
     0
174
     0
 93
        1
 44
0.0
173
     0
291
     1
 45
0.0
1001
ACAD
1000
AcDbSavedByObjectVersion
1070
     0
1000
AcDbSavedByObjectVersion
1070
     0
  0
VISUALSTYLE
  5
4A4
102
{ACAD_REACTORS
330
34
102
}
330
34
100
AcDbVisualStyle
  2
Flat
 70
     0
 71
     2
 72
     1
 73
     1
 90
        2
 40
-0.6
 41
30.0
 62
     5
 63
     7
 74
     0
 91
        4
 64
     7
 65
   257
 75
     1
175
     1
 42
1.0
 92
        8
 66
     7
 43
1.0
 76
     1
 77
     6
 78
     2
 67
     7
 79
     5
170
     0
171
     0
290
     0
174
     0
 93
       13
 44
0.0
173
     0
291
     1
 45
0.0
1001
ACAD
1000
AcDbSavedByObjectVersion
1070
     0
1000
AcDbSavedByObjectVersion
1070
     0
  0
VISUALSTYLE
  5
4A5
102
{ACAD_REACTORS
330
34
102
}
330
34
100
AcDbVisualStyle
  2
FlatWithEdges
 70
     1
 71
     2
 72
     1
 73
     1
 90
        2
 40
-0.6
 41
30.0
 62
     5
 63
     7
 74
     1
 91
        4
 64
     7
 65
   257
 75
     1
175
     1
 42
1.0
 92
        0
 66
   257
 43
1.0
 76
     1
 77
     6
 78
     2
 67
     7
 79
     5
170
     0
171
     0
290
     0
174
     0
 93
       13
 44
0.0
173
     0
291
     1
 45
0.0
1001
ACAD
1000
AcDbSavedByObjectVersion
1070
     0
1000
AcDbSavedByObjectVersion
1070
     0
  0
VISUALSTYLE
  5
4A6
102
{ACAD_REACTORS
330
34
102
}
330
34
100
AcDbVisualStyle
  2
Gouraud
 70
     2
 71
     2
 72
     2
 73
     1
 90
        2
 40
-0.6
 41
30.0
 62
     5
 63
     7
 74
     0
 91
        4
 64
     7
 65
   257
 75
     1
175
     1
 42
1.0
 92
        0
 66
     7
 43
1.0
 76
     1
 77
     6
 78
     2
 67
     7
 79
     5
170
     0
171
     0
290
     0
174
     0
 93
       13
 44
0.0
173
     0
291
     1
 45
0.0
1001
ACAD
1000
AcDbSavedByObjectVersion
1070
     0
1000
AcDbSavedByObjectVersion
1070
     0
  0
VISUALSTYLE
  5
4A7
102
{ACAD_REACTORS
330
34
102
}
330
34
100
AcDbVisualStyle
  2
GouraudWithEdges
 70
     3
 71
     2
 72
     2
 73
     1
 90
        2
 40
-0.6
 41
30.0
 62
     5
 63
     7
 74
     1
 91
        4
 64
     7
 65
   257
 75
     1
175
     1
 42
1.0
 92
        0
 66
   257
 43
1.0
 76
     1
 77
     6
 78
     2
 67
     7
 79
     5
170
     0
171
     0
290
     0
174
     0
 93
       13
 44
0.0
173
     0
291
     1
 45
0.0
1001
ACAD
1000
AcDbSavedByObjectVersion
1070
     0
1000
AcDbSavedByObjectVersion
1070
     0
  0
VISUALSTYLE
  5
4AE
102
{ACAD_REACTORS
330
34
102
}
330
34
100
AcDbVisualStyle
  2
Linepattern
 70
    14
 71
     2
 72
     2
 73
     0
 90
        0
 40
-0.6
 41
-30.0
 62
     5
 63
     7
 74
     1
 91
        4
 64
     7
 65
   257
 75
     7
175
     7
 42
1.0
 92
        8
 66
     7
 43
1.0
 76
     1
 77
     6
 78
     2
 67
     7
 79
     5
170
     0
171
     0
290
     0
174
     0
 93
        1
 44
0.0
173
     0
291
     1
 45
0.0
1001
ACAD
1000
AcDbSavedByObjectVersion
1070
     0
1000
AcDbSavedByObjectVersion
1070
     0
  0
VISUALSTYLE
  5
57
102
{ACAD_XDICTIONARY
360
58
102
}
102
{ACAD_REACTORS
330
34
102
}
330
34
100
AcDbVisualStyle
  2
Realistic
 70
     8
 71
     2
 72
     2
 73
     0
 90
        0
 40
-0.6
 41
-30.0
 62
     5
 63
     7
 74
     1
 91
        0
 64
     7
 65
   257
 75
     1
175
     1
 42
1.0
 92
        8
 66
     8
 43
1.0
 76
     1
 77
     6
 78
     2
 67
     7
 79
     5
170
     0
171
     0
290
     0
174
     0
 93
       13
 44
0.0
173
     0
291
     0
 45
0.0
1001
ACAD
1000
AcDbSavedByObjectVersion
1070
     0
1000
AcDbSavedByObjectVersion
1070
     0
  0
VISUALSTYLE
  5
4AD
102
{ACAD_REACTORS
330
34
102
}
330
34
100
AcDbVisualStyle
  2
Thicken
 70
    13
 71
     2
 72
     2
 73
     0
 90
        0
 40
-0.6
 41
-30.0
 62
     5
 63
     7
 74
     1
 91
        4
 64
     7
 65
   257
 75
     1
175
     1
 42
1.0
 92
       12
 66
     7
 43
1.0
 76
     1
 77
     6
 78
     2
 67
     7
 79
     5
170
     0
171
     0
290
     0
174
     0
 93
        1
 44
0.0
173
     0
291
     1
 45
0.0
1001
ACAD
1000
AcDbSavedByObjectVersion
1070
     0
1000
AcDbSavedByObjectVersion
1070
     0
  0
DICTIONARYVAR
  5
499
102
{ACAD_REACTORS
330
495
102
}
330
495
100
DictionaryVariables
280
     0
  1
1:1
  0
DICTIONARYVAR
  5
497
102
{ACAD_REACTORS
330
495
102
}
330
495
100
DictionaryVariables
280
     0
  1
STANDARD
  0
DICTIONARYVAR
  5
496
102
{ACAD_REACTORS
330
495
102
}
330
495
100
DictionaryVariables
280
     0
  1
STANDARD
  0
DICTIONARYVAR
  5
4BD
102
{ACAD_REACTORS
330
495
102
}
330
495
100
DictionaryVariables
280
     0
  1
2
  0
DICTIONARYVAR
  5
4BC
102
{ACAD_REACTORS
330
495
102
}
330
495
100
DictionaryVariables
280
     0
  1
1
  0
DICTIONARYVAR
  5
4BB
102
{ACAD_REACTORS
330
495
102
}
330
495
100
DictionaryVariables
280
     0
  1
0
  0
DICTIONARYVAR
  5
49B
102
{ACAD_REACTORS
330
495
102
}
330
495
100
DictionaryVariables
280
     0
  1
1
  0
DICTIONARYVAR
  5
49C
102
{ACAD_REACTORS
330
495
102
}
330
495
100
DictionaryVariables
280
     0
  1
15
  0
DICTIONARYVAR
  5
49A
102
{ACAD_REACTORS
330
495
102
}
330
495
100
DictionaryVariables
280
     0
  1
0
  0
DICTIONARYVAR
  5
D8A
102
{ACAD_REACTORS
330
495
102
}
330
495
100
DictionaryVariables
280
     0
  1
1.570796
  0
DICTIONARYVAR
  5
D8B
102
{ACAD_REACTORS
330
495
102
}
330
495
100
DictionaryVariables
280
     0
  1
1.570796
  0
DICTIONARYVAR
  5
498
102
{ACAD_REACTORS
330
495
102
}
330
495
100
DictionaryVariables
280
     0
  1
0
  0
DICTIONARYVAR
  5
4BA
102
{ACAD_REACTORS
330
495
102
}
330
495
100
DictionaryVariables
280
     0
  1
127
  0
DICTIONARY
  5
D94
330
22
100
AcDbDictionary
280
     1
281
     1
  3
ACAD_XREC_ROUNDTRIP
360
D95
  0
DICTIONARY
  5
1A
330
18
100
AcDbDictionary
280
     1
281
     1
  3
ACAD_XREC_ROUNDTRIP
360
D93
  3
ADSK_XREC_LAYOUTTHUMBNAIL
360
1B
  0
DICTIONARY
  5
4A
330
49
100
AcDbDictionary
280
     1
281
     1
  3
ACAD_XREC_ROUNDTRIP
360
4CD
  3
BUMPTILE
360
4B
  3
DIFFUSETILE
360
4C
  3
OPACITYTILE
360
4D
  3
REFLECTIONTILE
360
4E
  3
REFRACTIONTILE
360
4F
  3
SPECULARTILE
360
50
  0
DICTIONARY
  5
42
330
41
100
AcDbDictionary
280
     1
281
     1
  3
ACAD_XREC_ROUNDTRIP
360
4CC
  3
BUMPTILE
360
43
  3
DIFFUSETILE
360
44
  3
OPACITYTILE
360
45
  3
REFLECTIONTILE
360
46
  3
REFRACTIONTILE
360
47
  3
SPECULARTILE
360
48
  0
DICTIONARY
  5
F
330
D
100
AcDbDictionary
280
     1
281
     1
  3
ACAD_XREC_ROUNDTRIP
360
4C8
  3
BUMPTILE
360
10
  3
DIFFUSETILE
360
11
  3
OPACITYTILE
360
12
  3
REFLECTIONTILE
360
13
  3
REFRACTIONTILE
360
14
  3
SPECULARTILE
360
15
  0
DICTIONARY
  5
56
330
55
100
AcDbDictionary
280
     1
281
     1
  3
ACAD_ROUNDTRIP_2008_TABLESTYLE_CELLSTYLEMAP
360
D8C
  3
ACAD_XREC_ROUNDTRIP
360
D96
  0
DICTIONARY
  5
35
330
33
100
AcDbDictionary
280
     1
281
     1
  3
ACAD_XREC_ROUNDTRIP
360
36
  0
DICTIONARY
  5
5B
330
5A
100
AcDbDictionary
280
     1
281
     1
  3
ACAD_XREC_ROUNDTRIP
360
5C
  0
DICTIONARY
  5
58
330
57
100
AcDbDictionary
280
     1
281
     1
  3
ACAD_XREC_ROUNDTRIP
360
59
  0
XRECORD
  5
D95
102
{ACAD_REACTORS
330
D94
102
}
330
D94
100
AcDbXrecord
280
     1
102
SHADEPLOT
 70
     0
102
SHADEPLOTRESLEVEL
 70
     2
102
SHADEPLOTCUSTOMDPI
 70
   300
  0
XRECORD
  5
D93
102
{ACAD_REACTORS
330
1A
102
}
330
1A
100
AcDbXrecord
280
     1
102
SHADEPLOT
 70
     1
102
SHADEPLOTRESLEVEL
 70
     2
102
SHADEPLOTCUSTOMDPI
 70
   300
  0
XRECORD
  5
1B
102
{ACAD_REACTORS
330
1A
102
}
330
1A
100
AcDbXrecord
280
     1
310
280000000001000073000000010008000000000000730000000000000000000000010000000000000000000000000000FFFFFF000000000000000000000000000000000000000000000000000000000000000000330000006600000099000000CC000000FF00000000330000333300006633000099330000CC330000FF3300
310
0000660000336600006666000099660000CC660000FF66000000990000339900006699000099990000CC990000FF99000000CC000033CC000066CC000099CC0000CCCC0000FFCC000000FF000033FF000066FF000099FF0000CCFF0000FFFF000000003300330033006600330099003300CC003300FF003300003333003333
310
33006633330099333300CC333300FF33330000663300336633006666330099663300CC663300FF66330000993300339933006699330099993300CC993300FF99330000CC330033CC330066CC330099CC3300CCCC3300FFCC330000FF330033FF330066FF330099FF3300CCFF3300FFFF330000006600330066006600660099
310
006600CC006600FF00660000336600333366006633660099336600CC336600FF33660000666600336666006666660099666600CC666600FF66660000996600339966006699660099996600CC996600FF99660000CC660033CC660066CC660099CC6600CCCC6600FFCC660000FF660033FF660066FF660099FF6600CCFF6600
310
FFFF660000009900330099006600990099009900CC009900FF00990000339900333399006633990099339900CC339900FF33990000669900336699006666990099669900CC669900FF66990000999900339999006699990099999900CC999900FF99990000CC990033CC990066CC990099CC9900CCCC9900FFCC990000FF99
310
0033FF990066FF990099FF9900CCFF9900FFFF99000000CC003300CC006600CC009900CC00CC00CC00FF00CC000033CC003333CC006633CC009933CC00CC33CC00FF33CC000066CC003366CC006666CC009966CC00CC66CC00FF66CC000099CC003399CC006699CC009999CC00CC99CC00FF99CC0000CCCC0033CCCC0066CC
310
CC0099CCCC00CCCCCC00FFCCCC0000FFCC0033FFCC0066FFCC0099FFCC00CCFFCC00FFFFCC000000FF003300FF006600FF009900FF00CC00FF00FF00FF000033FF003333FF006633FF009933FF00CC33FF00FF33FF000066FF003366FF006666FF009966FF00CC66FF00FF66FF000099FF003399FF006699FF009999FF00CC
310
99FF00FF99FF0000CCFF0033CCFF0066CCFF0099CCFF00CCCCFF00FFCCFF0000FFFF0033FFFF0066FFFF0099FFFF00CCFFFF00FFFFFF00000000000D0D0D001A1A1A00282828003535350043434300505050005D5D5D006B6B6B00787878008686860093939300A1A1A100AEAEAE00BBBBBB00C9C9C900D6D6D600E4E4E400
310
F1F1F100FFFFFF0000000000000000000000000000000000000000000000000000000000000000000000000000000000E2E2E2E2E2E2E2E2E2E2E2E2E2E2E2E2E2E2E2E2E2E2E2E2E2E2E2E2E2E2E2E2E2E2E2E2E2E2E2E2E2E2E2E2E2E2E2E2E2E2E2E2E2E2E2E2E2E2E2E2E2E2E2E2E2E2E2E2E2E2E2E2E2E2E2E2E2E2E2
310
E2E2E2E2E2E2E2E2E2E2E2E2E2E2E2E2E2E2E2E2E2E2E2E2E2E2E2E2E2E2E2E2E2E2E2E2E2E2E2E2E2E2E2E2E2E2E2E2E2E2E2E2E2E2E2E2E2E2E2E2E2E2E2E2E2E2E2E2E2E2E2E2E2E2E2E2E2E2E2E2E2E2E2E2E2E2E2E2E2E2E2E2E2E2E2E2E2E2E2E2E2E2E2E2E2E2E2E2E2E2E2E2E2E2E2E2E2E2E2E2E2E2E2E2E2E2E2
310
E2E2E2E2E9E2E2E2E2E2E2E2E2E2E2E2E2E2E2E2E2E2E2E2E2E2E2E2E2E2E2E2E2E2E2E2E2E2E2E2E2E2E2E2E2E2E2E2E2E2E2E2E2E2E2E2E2E2E2E2E2E2E2E2E2E2E2E2E2E2E2E2E2E2E2E2E2E2E2E2E2E2E2E2E2E2E2E2E2E2E2E2E2E2E2E2E2E2E2E2E2E2E2E2E2E2E2E2E2E2E2E2E2E2E2E2E2E2E2E2E2E2E2E2E2E2E2
310
E2E2E2E2E2E2E2E2E2E2E2E2E2E2E2E2E2E2E2E2E2E2E2E2E2E2E2E2E2E2E2E2E2E2E2E2E2E2E2E2E2E2E2E2E2E2E2E2E2E2E2E2E2E2E2E2E2E2E2E2E2E2E2E2E2E2E2E2E2E2E2E2E2E2E2E2E2E2E2E2E2E2E2E2E2E2E2E2E2E2E2E2E2E2E2E2E2E2E2E2E2E2E2E2E2E2E2E2E2E2E2E2E2E2E2E2E2E2E2E2E2E2E2E2E2E2E2
310
E2E2E2E2E2E2E9E2E2E2E2E2E2E2E2E2E2E2E2E2E2E2E2E2E2E2E2E2E2E2E2E2E2E2E2E2E2E2E2E2E2E2E2E2E2E2E2E2E2E2E2E2E2E2E2E2E2E2E2E2E2E2E2E2E2E2E2E2E2E2E2E2E2E2E2E2E2E2E2E2E2E2E2E2E2E2E2E2E2E2E2E2E2E2E2E2E2E2E2E2E2E2E2E2E2E2E2E2E2E2E2E2E2E2E2E2E2E2E2E2E2E2E2E2E2E2E2
310
E2E2E2E2E2E2E2E2E2E2E2E2E2E2E2E2E2E2E2E2E2E2E2E2E2E2E2E2E2E2E2E2E2E2E2E2E2E2E2E2E2E2E2E2E2E2E2E2E2E2E2E2E2E2E2E2E2E2E2E2E2E2E2E2E2E2E2E2E2E2E2E2E2E2E2E2E2E2E2E2E2E2E2E2E2E2E2E2E2E2E2E2E2E2E2E2E2E2E2E2E2E2E2E2E2E2E2E2E2E2E2E2E2E2E2E2E2E2E2E2E2E2E2E2E2E2E2
310
E2E2E2E2E2E2E2E2E9E2E2E2E2E2E2E2E2E2E2E2E2E2E2E2E2E2E2E2E2E2E2E2E2E2E2E2E2E2E2E2E2E2E2E2E2E2E2E2E2E2E2E2E2E2E2E2E2E2E2E2E2E2E2E2E2E2E2E2E2E2E2E2E2E2E2E2E2E2E2E2E2E2E2E2E2E2E2E2E2E2E2E2E2E2E2E2E2E2E2E2E2E2E2E2E2E2E2E2E2E2E2E2E2E2E2E2E2E2E2E2E2E2E2E2E2E2E2
310
E2E2E2E2E2E2E2E2E2E2E2E2E2E2E2E2E2E2E2E2E2E2E2E2E2E2E2E2E2E2E2E2E2E2E2E2E2E2E2E2E2E2E2E2E2E2E2E2E2E2E2E2E2E2E2E2E2E2E2E2E2E2E2E2E2E2E2E2E2E2E2E2E2E2E2E2E2E2E2E2E2F5E2E2E2F5E2E2E2E2E2E2E2E2E2E2E2E2E2E2E2E2E2E2E2E2E2E2E2E2E2E2E2E2E2E2E2E2E2E2E2E2E2E2E2E2E2
310
E2E2E2E2E2E2E2E2E2E2E9E2E2E2E2E2E2E2E2E2E2E2E2E2E2E2E2E2E2E2E2E2E2E2E2E2E2E2E2E2E2E2E2E2E2E2E2E2E2E2E2E2E2E2E2E2E2E2E2E2E2E2E2E2E2E2E2E2E2E2E2E2E2E2E2E2E2E2E2E2E2E2E2E2E2E2E2E2E2E2E2E2E2E2E2E2E2E2E2E2E2E2E2E2E2E2E2E2E2E2E2E2E2E2E2E2E2E2E2E2E2E2E2E2E2E2E2
310
E2E2E2E2E2E2E2E2E2E2E2E2E2E2E2E2E2E2E2E2E2E2E2E2E2E2E2E2E2E2E2E2E2E2E2E2E2E2E2E2E2E2E2E2E2E2E2E2E2E2E2E2E2E2E2E2E2E2E2E2E2E2E2E2E2E2E2E2E2E2E2E2E2E2E2E2E2E2E2E2E2E2F5F5F5F5F5F5E2E2E2E2E2E2E2E2E2E2E2E2E2E2E2E2E2E2E2E2E2E2E2E2E2E2E2E2E2E2E2E2E2E2E2E2E2E2E2
310
E2E2E2E2E2E2E2E2E2E2E2E2E9E2E2E2E2E2E2E2E2E2E2E2E2E2E2E2E2E2E2E2E2E2E2E2E2E2E2E2E2E2E2E2E2E2E2E2E2E2E2E2E2E2E2E2E2E2E2E2E2E2E2E2E2E2E2E2E2E2E2E2E2E2E2E2E2E2E2E2E2E2E2E2E2E2E2E2E2E2E2E2E2E2E2E2E2E2E2E2E2F5F5F5F5F5F5F5F5F5F5F5F5F5F5F5F5F5F5F5F5F5F5F5F5F5F5
310
F5F5F5F5F5F5F5F5F5F5F5F5F5F5F5F5F5F5F5F5F5F5F5F5F5F5F5F5F5F5F5F5F5F5F5F5F5F5282828282828282828282828F5F528F5F5F5F5F5F5F5F528F5F5F5F5F5F5F5F5F5F5F5F5F5F5F5F5F5F5F5F5F5F5F5F5F5F5F5F5E2E2E2E2E2E2E2E2E2E2E2E2E2E2E2E2E2E2E2E2E2E2E2E2E2E2E2E2E2E2E2E2E2E2E2E2E2
310
E2E2E2E2E2E2E2E2E2E2E2E2E2E2E9E2E2E2E2E2E2E2E2E2E2E2E2E2E2E2E2E2E2E2E2E2E2E2E2E2E2E2E2E2E2E2E2E2E2E2E2E2E2E2E2E2E2E2E2E2E2E2E2E2E2E2E2E2E2E2E2E2E2E2E2E2E2E2E2E2E2E2E2E2E2E2E2E2E2E2E2E2E2E2E2E2E2E2E2E2E2E2E2F5E2E2E2E2E2E2E2E2E2E2E2E2E2E2E2E2E2E2E2E2E2E2E2
310
E2E2E2E2E2E2E2E2E2E2E2E2E2E2E2E2E2E2E2E2E2E2E2E2E2E2E2E2E2E2E2E2E2E2E2E2E2E2E2F5282828282828282828282828E2E228E2E2E2E2E2E2E2E228E2E2E2E2E2E2E2E2E2E2E2E2E2E2E2E2E2E2E2E2E2E2E2E2E2E2E2F5E2E2E2E2E2E2E2E2E2E2E2E2E2E2E2E2E2E2E2E2E2E2E2E2E2E2E2E2E2E2E2E2E2E2E2
310
E2E2E2E2E2E2E2E2E2E2E2E2E2E2E2E2E9E2E2E2E2E2E2E2E2E2E2E2E2E2E2E2E2E2E2E2E2E2E2E2E2E2E2E2E2E2E2E2E2E2E2E2E2E2E2E2E2E2E2E2E2E2E2E2E2E2E2E2E2E2E2E2E2E2E2E2E2E2E2E2E2E2E2E2E2E2E2E2E2E2E2E2E2E2E2E2E2E2E2E2E2E2E2E2E2F5E2E2E2E2E2E2E2E2E2E2E2E2E2E2E2E2E2E2E2E2E2
310
E2E2E2E2E2E2E2E2E2E2E2E2E2E2E2E2E2E2E2E2E2E2E2E2E2E2E2E2E2E2E2E2E2E2E2E2E2E2E2E2E2F5282828282828282828282828E2E228E2E2E2E2E2E2E2E228E2E2E2E2E2E2E2E2F5F5F5F5F5F5F5F5F5F5F5E2E2E2E2E2E2E2E2F5E2E2E2E2E2E2E2E2E2E2E2E2E2E2E2E2E2E2E2E2E2E2E2E2E2E2E2E2E2E2E2E2E2
310
E2E2E2E2E2E2E2E2E2E2E2E2E2E2E2E2E2E2E9E2E2E2E2E2E2E2E2E2E2E2E2E2E2E2E2E2E2E2E2E2E2E2E2E2E2E2E2E2E2E2E2E2E2E2E2E2E2E2E2E2E2E2E2E2E2E2E2E2E2E2E2E2E2E2E2E2E2E2E2E2E2E2E2E2E2E2E2E2E2E2E2E2E2E2E2E2E2E2E2E2E2E2E2E2E2E2E2F5E2E2E2E2E2E2E2E2E2E2E2E2E2E2E2E2E2E2E2
310
E2E2E2E2E2E2E2E2E2E2E2E2E2E2E2E2E2E2E2E2E2E2E2E2E2E2E2E2E2E2E2E2E2E2E2E2E2E2E2E2E2E2E2F5282828282828282828282828E2E2282828282828282828282828282828E2E2E2F5F5E2F5F5E2F5F5F5F5F5E2E2E2E2E2E2E2E2F5E2E2E2E2E2E2E2E2E2E2E2E2E2E2E2E2E2E2E2E2E2E2E2E2E2E2E2E2E2E2E2
310
E2E2E2E2E2E2E2E2E2E2E2E2E2E2E2E2E2E2E2E2E9E2E2E2E2E2E2E2E2E2E2E2E2E2E2E2E2E2E2E2E2E2E2E2E2E2E2E2E2E2E2E2E2E2E2E2E2E2E2E2E2E2E2E2E2E2E2E2E2E2E2E2E2E2E2E2E2E2E2E2E2E2E2E2E2E2E2E2E2E2E2E2E2E2E2E2E2E2E2E2E2E2E2E2E2E2E2E2E2F5E2E2E2E2E2E2E2E2E2E2E2E2E2E2E2E2E2
310
E2E2E2E2E2E2E2E2E2E2E2E2E2E2E2E2E2E2E2E2E2E2E2E2E2E2E2E2E2E2E2E2E2E2E2E2E2E2E2E2E2E2E2E2E22828282828282828282828282828282828282828282828282828282828282828282828282828282828282828282828282828282828E2E2E2E2E2E2E2E2E2E2E2E2E2E2E2E2E2E2E2E2E2E2E2E2E2E2E2E2E2
310
E2E2E2E2E2E2E2E2E2E2E2E2E2E2E2E2E2E2E2E2E2E2E9E2E2E2E2E2E2E2E2E2E2E2E2E2E2E2E2E2E2E2E2E2E2E2E2E2E2E2E2E2E2E2E2E2E2E2E2E2E2E2E2E2E2E2E2E2E2E2E2E2E2E2E2E2E2E2E2E2E2E2E2E2E2E2E2E2E2E2E2E2E2E2E2E2E2E2E2E2E2E2E2E2E2E2E2E2E2E2E2F5E2E2E2E2E2E2E2E2E2E2E2E2E2E2E2
310
E2E2E2E2E2E2E2E2E2E2E2E2E2E2E2E2E2E2E2E2E2E2E2E2E2E2E2E2E2E2E2E2E2E2E2E2E2E2E2E2E2E2E2E2E2E2E2F52828282828282828282828282828282828282828E2E22828E2E2E2E2E2E2E2E2E2E2E2E2E2E2E2E2E2E2E2E2E2E2E2E2E2E2E2F5E2E2E2E2E2E2E2E2E2E2E2E2E2E2E2E2E2E2E2E2E2E2E2E2E2E2E2
310
E2E2E2E2E2E2E2E2E2E2E2E2E2E2E2E2E2E2E2E2E2E2E2E2E9E2E2E2E2E2E2E2E2E2E2E2E2E2E2E2E2E2E2E2E2E2E2E2E2E2E2E2E2E2E2E2E2E2E2E2E2E2E2E2E2E2E2E2E2E2E2E2E2E2E2E2E2E2E2E2E2E2E2E2E2E2E2E2E2E2E2E2E2E2E2E2E2E2E2E2E2E2E2E2E2E2E2E2E2E2E2E2E2F5E2E2E2E2E2E2E2E2E2E2E2E2E2
310
E2E2E2E2E2E2E2E2E2E2E2E2E2E2E2E2E2E2E2E2E2E2E2E2E2E2E2E2E2E2E2E2E2E2E2E2E2E2E2E2E2E2E2E2E2E2E2E2E2F5282828282828282828282828282828282828282828BEBE28E2E2E2E2E2E2E2E2E2F5F5F5F5F5F5F5F5E2E2E2E2E2E2E2E2E2E2F5E2E2E2E2E2E2E2E2E2E2E2E2E2E2E2E2E2E2E2E2E2E2E2E2E2
310
E2E2E2E2E2E2E2E2E2E2E2E2E2E2E2E2E2E2E2E2E2E2E2E2E2E2E9E2E2E2E2E2E2E2E2E2E2E2E2E2E2E2E2E2E2E2E2E2E2E2E2E2E2E2E2E2E2E2E2E2E2E2E2E2E2E2E2E2E2E2E2E2E2E2E2E2E2E2E2E2E2E2E2E2E2E2E2E2E2E2E2E2E2E2E2E2E2E2E2E2E2E2E2E2E2E2E2E2E2E2E2E2E2E2E2F5E2E2E2E2E2E2E2E2E2E2E2
310
E2E2E2E2E2E2E2E2E2E2E2E2E2E2E2E2E2E2E2E2E2E2E2E2E2E2E2E2E2E2E2E2E2E2E2E2E2E2E2E2E2E2E2E2E2E2E2E2E2E2E2F52828282828282828282828282828282828282828E2E22828282828282828282828F5F5F5F5F5F5F5F5E2E2E2E2E2E2E2E2E2E2F5E2E2E2E2E2E2E2E2E2E2E2E2E2E2E2E2E2E2E2E2E2E2E2
310
E2E2E2E2E2E2E2E2E2E2E2E2E2E2E2E2E2E2E2E2E2E2E2E2E2E2E2E2E9E2E2E2E2E2E2E2E2E2E2E2E2E2E2E2E2E2E2E2E2E2E2E2E2E2E2E2E2E2E2E2E2E2E2E2E2E2E2E2E2E2E2E2E2E2E2E2E2E2E2E2E2E2E2E2E2E2E2E2E2E2E2E2E2E2E2E2E2E2E2E2E2E2E2E2E2E2E2E2E2E2E2E2E2E2E2E2E2F5E2E2E2E2E2E2E2E2E2
310
E2E2E2E2E2E2E2E2E2E2E2E2E2E2E2E2E2E2E2E2E2E2E2E2E2E2E2E2E2E2E2E2E2E2E2E2E2E2E2E2E2E2E2E2E2E2E2E2E2E2E2E2E2F528282828282828282828282828282828282828282828282828282828282828282828282828282828282828282828282828282828E2E2E2E2E2E2E2E2E2E2E2E2E2E2E2E2E2E2E2E2E2
310
E2E2E2E2E2E2E2E2E2E2E2E2E2E2E2E2E2E2E2E2E2E2E2E2E2E2E2E2E2E2E9E2E2E2E2E2E2E2E2E2E2E2E2E2E2E2E2E2E2E2E2E2E2E2E2E2E2E2E2E2E2E2E2E2E2E2E2E2E2E2E2E2E2E2E2E2E2E2E2E2E2E2E2E2E2E2E2E2E2E2E2E2E2E2E2E2E2E2E2E2E2E2E2E2E2E2E2E2E2E2E2E2E2E2E2E2E2E2E2F5E2E2E2E2E2E2E2
310
E2E2E2E2E2E2E2E2E2E2E2E2E2E2E2E2E2E2E2E2E2E2E2E2E2E2E2E2E2E2E2E2E2E2E2E2E2E2E2E2E2E2E2E2E2E2E2E2E2E2E2E2E2E2E2F52828282828282828282828282828282828E2282828282828E2E2E2E2E2E2E2E2E2F5F5F5F5F5F5F5F5E2E2E2E2E2E2E2E2E2E2F5E2E2E2E2E2E2E2E2E2E2E2E2E2E2E2E2E2E2E2
310
E2E2E2E2E2E2E2E2E2E2E2E2E2E2E2E2E2E2E2E2E2E2E2E2E2E2E2E2E2E2E2E2E9E2E2E2E2E2E2E2E2E2E2E2E2E2E2E2E2E2E2E2E2E2E2E2E2E2E2E2E2E2E2E2E2E2E2E2E2E2E2E2E2E2E2E2E2E2E2E2E2E2E2E2E2E2E2E2E2E2E2E2E2E2E2E2E2E2E2E2E2E2E2E2E2E2E2E2E2E2E2E2E2E2E2E2E2E2E2E2E2F5E2E2E2E2E2
310
E2E2E2E2E2E2E2E2E2E2E2E2E2E2E2E2E2E2E2E2E2E2E2E2E2E2E2E2E2E2E2E2E2E2E2E2E2E2E2E2E2E2E2E2E2E2E2E2E2E2E2E2E2E2E2E2E2F5282828282828282828282828282828282828282828282828282828282828E2E2E2F5F5F5F5F5F5F5F5E2E2E2E2E2E2E2E2E2E2F5E2E2E2E2E2E2E2E2E2E2E2E2E2E2E2E2E2
310
E2E2E2E2E2E2E2E2E2E2E2E2E2E2E2E2E2E2E2E2E2E2E2E2E2E2E2E2E2E2E2E2E2E2E9E2E2E2E2E2E2E2E2E2E2E2E2E2E2E2E2E2E2E2E2E2E2E2E2E2E2E2E2E2E2E2E2E2E2E2E2E2E2E2E2E2E2E2E2E2E2E2E2E2E2E2E2E2E2E2E2E2E2E2E2E2E2E2E2E2E2E2E2E2E2E2E2E2E2E2E2E2E2E2E2E2E2E2E2E2E2E2E2F5E2E2E2
310
E2E2E2E2E2E2E2E2E2E2E2E2E2E2E2E2E2E2E2E2E2E2E2E2E2E2E2E2E2E2E2E2E2E2E2E2E2E2E2E2E2E2E2E2E2E2E2E2E2E2E2E2E2E2E2E2E2E2E2F5F5F5F5F5F5F52828282828F52828282828F5F5F5F5F5F5F5F5F5F5F5F5F5F5F5F5F5F5F5F5F5F5F5F5F5F5F5F5F5F5F5F5F5F5F5E2E2E2E2E2E2E2E2E2E2E2E2E2E2E2
310
E2E2E2E2E2E2E2E2E2E2E2E2E2E2E2E2E2E2E2E2E2E2E2E2E2E2E2E2E2E2E2E2E2E2E2E2E9E2E2E2E2E2E2E2E2E2E2E2E2E2E2E2E2E2E2E2E2E2E2E2E2E2E2E2E2E2E2E2E2E2E2E2E2E2E2E2E2E2E2E2E2E2E2E2E2E2E2E2E2E2E2E2E2E2E2E2E2E2E2E2E2E2E2E2E2E2E2E2E2E2E2E2E2E2E2E2E2E2E2E2E2E2E2E2E2F5E2
310
E2E2E2E2E2E2E2E2E2E2E2E2E2E2E2E2E2E2E2E2E2E2E2E2E2E2E2E2E2E2E2E2E2E2E2E2E2E2E2E2E2E2E2E2E2E2E2E2E2E2E2E2E2E2E2E2E2E2E2E2E2E2E2E2E2E2E2E2E2E2E2E2E2E2E2E2E2E2E2E2E2E2E2E2E2E2E2E2E2E2E2E2E2E2E2E2E2E2E2E2E2E2E2E2E2E2E2E2E2E2E2E2E2F5E2E2E2E2E2E2E2E2E2E2E2E2E2
310
E2E2E2E2E2E2E2E2E2E2E2E2E2E2E2E2E2E2E2E2E2E2E2E2E2E2E2E2E2E2E2E2E2E2E2E2E2E2E9E2E2E2E2E2E2E2E2E2E2E2E2E2E2E2E2E2E2E2E2E2E2E2E2E2E2E2E2E2E2E2E2E2E2E2E2E2E2E2E2E2E2E2E2E2E2E2E2E2E2E2E2E2E2E2E2E2E2E2E2E2E2E2E2E2E2E2E2E2E2E2E2E2E2E2E2E2E2E2E2E2E2E2E2E2E2E2E2
310
F5E2E2E2E2E2E2E2E2E2E2E2E2E2E2E2E2E2E2E2E2E2E2E2E2E2E2E2E2E2E2E2E2E2E2E2E2E2E2E2E2E2E2E2E2E2E2E2E2E2E2E2E2E2E2E2E2E2E2E2E2E2E2E2E2E2E2E2E2E2E2E2E2E2E2E2E2E2E2E2E2E2E2E2E2E2E2E2E2E2E2E2E2E2E2E2E2E2E2E2E2E2E2E2E2E2E2E2E2E2E2E2E2E2E2F5E2E2E2E2E2E2E2E2E2E2E2
310
E2E2E2E2E2E2E2E2E2E2E2E2E2E2E2E2E2E2E2E2E2E2E2E2E2E2E2E2E2E2E2E2E2E2E2E2E2E2E2E2E9E2E2E2E2E2E2E2E2E2E2E2E2E2E2E2E2E2E2E2E2E2E2E2E2E2E2E2E2E2E2E2E2E2E2E2E2E2E2E2E2E2E2E2E2E2E2E2E2E2E2E2E2E2E2E2E2E2E2E2E2E2E2E2E2E2E2E2E2E2E2E2E2E2E2E2E2E2E2E2E2E2E2E2E2E2E2
310
E2E2F5E2E2E2E2E2E2E2E2E2E2E2E2E2E2E2E2E2E2E2E2E2E2E2E2E2E2E2E2E2E2E2E2E2E2E2E2E2E2E2E2E2E2E2E2E2E2E2E2E2E2E2E2E2E2E2E2E2E2E2E2E2E2E2E2E2E2E2E2E2E2E2E2E2E2E2E2E2E2E2E2E2E2E2E2E2E2E2E2E2E2E2E2E2E2E2E2E2E2E2E2E2E2E2E2E2E2E2E2E2E2E2E2E2E2F5E2E2E2E2E2E2E2E2E2
310
E2E2E2E2E2E2E2E2E2E2E2E2E2E2E2E2E2E2E2E2E2E2E2E2E2E2E2E2E2E2E2E2E2E2E2E2E2E2E2E2E2E2E9E2E2E2E2E2E2E2E2E2E2E2E2E2E2E2E2E2E2E2E2E2E2E2E2E2E2E2E2E2E2E2E2E2E2E2E2E2E2E2E2E2E2E2E2E2E2E2E2E2E2E2E2E2E2E2E2E2E2E2E2E2E2E2E2E2E2E2E2E2E2E2E2E2E2E2E2E2E2E2E2E2E2E2E2
310
E2E2E2E2F5E2E2E2E2E2E2E2E2E2E2E2E2E2E2E2E2E2E2E2E2E2E2E2E2E2E2E2E2E2E2E2E2E2E2E2E2E2E2E2E2E2E2E2E2E2E2E2E2E2E2E2E2E2E2E2E2E2E2E2E2E2E2E2E2E2E2E2E2E2E2E2E2E2E2E2E2E2E2E2E2E2E2E2E2E2E2E2E2E2E2E2E2E2E2E2E2E2E2E2E2E2E2E2E2E2E2E2E2E2E2E2E2E2E2F5E2E2E2E2E2E2E2
310
E2E2E2E2E2E2E2E2E2E2E2E2E2E2E2E2E2E2E2E2E2E2E2E2E2E2E2E2E2E2E2E2E2E2E2E2E2E2E2E2E2E2E2E2E9E2E2E2E2E2E2E2E2E2E2E2E2E2E2E2E2E2E2E2E2E2E2E2E2E2E2E2E2E2E2E2E2E2E2E2E2E2E2E2E2E2E2E2E2E2E2E2E2E2E2E2E2E2E2E2E2E2E2E2E2E2E2E2E2E2E2E2E2E2E2E2E2E2E2E2E2E2E2E2E2E2E2
310
E2E2E2E2E2E2F5E2E2E2E2E2E2E2E2E2E2E2E2E2E2E2E2E2E2E2E2E2E2E2E2E2E2E2E2E2E2E2E2E2E2E2E2E2E2E2E2E2E2E2E2E2E2E2E2E2E2E2E2E2E2E2E2E2E2E2E2E2E2E2E2E2E2E2E2E2E2E2E2E2E2E2E2E2E2E2E2E2E2E2E2E2E2E2E2E2E2E2E2E2E2E2E2E2E2E2E2E2E2E2E2E2E2E2E2E2E2E2E2E2E2F5E2E2E2E2E2
310
E2E2E2E2E2E2E2E2E2E2E2E2E2E2E2E2E2E2E2E2E2E2E2E2E2E2E2E2E2E2E2E2E2E2E2E2E2E2E2E2E2E2E2E2E2E2E9E2E2E2E2E2E2E2E2E2E2E2E2E2E2E2E2E2E2E2E2E2E2E2E2E2E2E2E2E2E2E2E2E2E2E2E2E2E2E2E2E2E2E2E2E2E2E2E2E2E2E2E2E2E2E2E2E2E2E2E2E2E2E2E2E2E2E2E2E2E2E2E2E2E2E2E2E2E2E2E2
310
E2E2E2E2E2E2E2E2F5E2E2E2E2E2E2E2E2E2E2E2E2E2E2E2E2E2E2E2E2E2E2E2E2E2E2E2E2E2E2E2E2E2E2E2E2E2E2E2E2E2E2E2E2E2E2E2E2E2E2E2E2E2E2E2E2E2E2E2E2E2E2E2E2E2E2E2E2E2E2E2E2E2E2E2E2E2E2E2E2E2E2E2E2E2E2E2E2E2E2E2E2E2E2E2E2E2E2E2E2E2E2E2E2E2E2E2E2E2E2E2E2E2E2F5E2E2E2
310
E2E2E2E2E2E2E2E2E2E2E2E2E2E2E2E2E2E2E2E2E2E2E2E2E2E2E2E2E2E2E2E2E2E2E2E2E2E2E2E2E2E2E2E2E2E2E2E2E9E2E2E2E2E2E2E2E2E2E2E2E2E2E2E2E2E2E2E2E2E2E2E2E2E2E2E2E2E2E2E2E2E2E2E2E2E2E2E2E2E2E2E2E2E2E2E2E2E2E2E2E2E2E2E2E2E2E2E2E2E2E2E2E2E2E2E2E2E2E2E2E2E2E2E2E2E2E2
310
E2E2E2E2E2E2E2E2E2E2F5E2E2E2E2E2E2E2E2E2E2E2E2E2E2E2E2E2E2E2E2E2E2E2E2E2E2E2E2E2E2E2E2E2E2E2E2E2E2E2E2E2E2E2E2E2E2E2E2E2E2E2E2E2E2E2E2E2E2E2E2E2E2E2E2E2E2E2E2E2E2E2E2E2E2E2E2E2E2E2E2E2E2E2E2E2E2E2E2E2E2E2E2E2E2E2E2E2E2E2E2E2E2E2E2E2E2E2E2E2E2E2E2E2E2F5E2
310
E2E2E2E2E2E2E2E2E2E2E2E2E2E2E2E2E2E2E2E2E2E2E2E2E2E2E2E2E2E2E2E2E2E2E2E2E2E2E2E2E2E2E2E2E2E2E2E2E2E2E9E2E2E2E2E2E2E2E2E2E2E2E2E2E2E2E2E2E2E2E2E2E2E2E2E2E2E2E2E2E2E2E2E2E2E2E2E2E2E2E2E2E2E2E2E2E2E2E2E2E2E2E2E2E2E2E2E2E2E2E2E2E2E2E2E2E2E2E2E2E2E2E2E2E2E2E2
310
E2E2E2E2E2E2E2E2E2E2E2E2F5E2E2E2E2E2E2E2E2E2E2E2E2E2E2E2E2E2E2E2E2E2E2E2E2E2E2E2E2E2E2E2E2E2E2E2E2E2E2E2E2E2E2E2E2E2E2E2E2E2E2E2E2E2E2E2E2E2E2E2E2E2E2E2E2E2E2E2E2E2E2E2E2E2E2E2E2E2E2E2E2E2E2E2E2E2E2E2E2E2E2E2E2E2E2E2E2E2E2E2E2E2E2E2E2E2E2E2E2E2E2E2E2E2E2
310
F5E2E2E2E2E2E2E2E2E2E2E2E2E2E2E2E2E2E2E2E2E2E2E2E2E2E2E2E2E2E2E2E2E2E2E2E2E2E2E2E2E2E2E2E2E2E2E2E2E2E2E2E9E2E2E2E2E2E2E2E2E2E2E2E2E2E2E2E2E2E2E2E2E2E2E2E2E2E2E2E2E2E2E2E2E2E2E2E2E2E2E2E2E2E2E2E2E2E2E2E2E2E2E2E2E2E2E2E2E2E2E2E2E2E2E2E2E2E2E2E2E2E2E2E2E2E2
310
E2E2E2E2E2E2E2E2E2E2E2E2E2E2F5E2E2E2E2E2E2E2E2E2E2E2E2E2E2E2E2E2E2E2E2E2E2E2E2E2E2E2E2E2E2E2E2E2E2E2E2E2E2E2E2E2E2E2E2E2E2E2E2E2E2E2E2E2E2E2E2E2E2E2E2E2E2E2E2E2E2E2E2E2E2E2E2E2E2E2E2E2E2E2E2E2E2E2E2E2E2E2E2E2E2E2E2E2E2E2E2E2E2E2E2E2E2E2E2E2E2E2E2E2E2E2E2
310
E2E2F5E2E2E2E2E2E2E2E2E2E2E2E2E2E2E2E2E2E2E2E2E2E2E2E2E2E2E2E2E2E2E2E2E2E2E2E2E2E2E2E2E2E2E2E2E2E2E2E2E2E2E2E9E2E2E2E2E2E2E2E2E2E2E2E2E2E2E2E2E2E2E2E2E2E2E2E2E2E2E2E2E2E2E2E2E2E2E2E2E2E2E2E2E2E2E2E2E2E2E2E2E2E2E2E2E2E2E2E2E2E2E2E2E2E2E2E2E2E2E2E2E2E2E2E2
310
E2E2E2E2E2E2E2E2E2E2E2E2E2E2E2E2F5E2E2E2E2E2E2E2E2E2E2E2E2E2E2E2E2E2E2E2E2E2E2E2E2E2E2E2E2E2E2E2E2E2E2E2E2E2E2E2E2E2E2E2E2E2E2E2E2E2E2E2E2E2E2E2E2E2E2E2E2E2E2E2E2E2E2E2E2E2E2E2E2E2E2E2E2E2E2E2E2E2E2E2E2E2E2E2E2E2E2E2E2E2E2E2E2E2E2E2E2E2E2E2E2E2E2E2E2E2E2
310
E2E2E2E2F5E2E2E2E2E2E2E2E2E2E2E2E2E2E2E2E2E2E2E2E2E2E2E2E2E2E2E2E2E2E2E2E2E2E2E2E2E2E2E2E2E2E2E2E2E2E2E2E2E2E2E2E9E2E2E2E2E2E2E2E2E2E2E2E2E2E2E2E2E2E2E2E2E2E2E2E2E2E2E2E2E2E2E2E2E2E2E2E2E2E2E2E2E2E2E2E2E2E2E2E2E2E2E2E2E2E2E2E2E2E2E2E2E2E2E2E2E2E2E2E2E2E2
310
E2E2E2E2E2E2E2E2E2E2E2E2E2E2E2E2E2E2F5E2E2E2E2E2E2E2E2E2E2E2E2E2E2E2E2E2E2E2E2E2E2E2E2E2E2E2E2E2E2E2E2E2E2E2E2E2E2E2E2E2E2E2E2E2E2E2E2E2E2E2E2E2E2E2E2E2E2E2E2E2E2E2E2E2E2E2E2E2E2E2E2E2E2E2E2E2E2E2E2E2E2E2E2E2E2E2E2E2E2E2E2E2E2E2E2E2E2E2E2E2E2E2E2E2E2E2E2
310
E2E2E2E2E2E2F5E2E2E2E2E2E2E2E2E2E2E2E2E2E2E2E2E2E2E2E2E2E2E2E2E2E2E2E2E2E2E2E2E2E2E2E2E2E2E2E2E2E2E2E2E2E2E2E2E2E2E2E9E2E2E2E2E2E2E2E2E2E2E2E2E2E2E2E2E2E2E2E2E2E2E2E2E2E2E2E2E2E2E2E2E2E2E2E2E2E2E2E2E2E2E2E2E2E2E2E2E2E2E2E2E2E2E2E2E2E2E2E2E2E2E2E2E2E2E2E2
310
E2E2E2E2E2E2E2E2E2E2E2E2E2E2E2E2E2E2E2E2F5E2E2E2E2E2E2E2E2E2E2E2E2E2E2E2E2E2E2E2E2E2E2E2E2E2E2E2E2E2E2E2E2E2E2E2E2E2E2E2E2E2E2E2E2E2E2E2E2E2E2E2E2E2E2E2E2E2E2E2E2E2E2E2E2E2E2E2E2E2E2E2E2E2E2E2E2E2E2E2E2E2E2E2E2E2E2E2E2E2E2E2E2E2E2E2E2E2E2E2E2E2E2E2E2E2E2
310
E2E2E2E2E2E2E2E2F5E2E2E2E2E2E2E2E2E2E2E2E2E2E2E2E2E2E2E2E2E2E2E2E2E2E2E2E2E2E2E2E2E2E2E2E2E2E2E2E2E2E2E2E2E2E2E2E2E2E2E2E9E2E2E2E2E2E2E2E2E2E2E2E2E2E2E2E2E2E2E2E2E2E2E2E2E2E2E2E2E2E2E2E2E2E2E2E2E2E2E2E2E2E2E2E2E2E2E2E2E2E2E2E2E2E2E2E2E2E2E2E2E2E2E2E2E2E2
310
E2E2E2E2E2E2E2E2E2E2E2E2E2E2E2E2E2E2E2E2E2E2F5E2E2E2E2E2E2E2E2E2E2E2E2E2E2E2E2E2E2E2E2E2E2E2E2E2E2E2E2E2E2E2E2E2E2E2E2E2BEE2E2E2E2E2E2E2E2E2E2E2E2E2E2E2E2E2E2E2E2E2E2E2E2E2E2E2E2E2E2E2E2E2E2E2E2E2E2E2E2E2E2E2E2E2E2E2E2E2E2E2E2E2E2E2E2E2E2E2E2E2E2E2E2E2E2
310
E2E2E2E2E2E2E2E2E2E2F5E2E2E2E2E2E2E2E2E2E2E2E2E2E2E2E2E2E2E2E2E2E2E2E2E2E2E2E2E2E2E2E2E2E2E2E2E2E2E2E2E2E2E2E2E2E2E2E2E2E2E2E9E2E2E2E2E2E2E2E2E2E2E2E2E2E2E2E2E2E2E2E2E2E2E2E2E2E2E2E2E2E2E2E2E2E2E2E2E2E2E2E2E2E2E2E2E2E2E2E2E2E2E2E2E2E2E2E2E2E2E2E2E2E2E2E2
310
E2E2E2E2E2E2E2E2E2E2E2E2E2E2E2E2E2E2E2E2E2E2E2E2F5E2E2E2E2E2E2E2E2E2E2E2E2E2E2E2E2E2E2E2E2E2E2E2E2E2E2E2E2E2E2E2E2E2E2E2E2E2BEE2E2E2E2E2E2E2E2E2E2E2E2E2E2E2E2E2E2E2E2E2E2E2E2E2E2E2E2E2E2E2E2E2E2E2E2E2E2E2E2E2E2E2E2E2E2E2E2E2E2E2E2E2E2E2E2E2E2E2E2E2E2E2E2
310
E2E2E2E2E2E2E2E2E2E2E2E2F5E2E2E2E2E2E2E2E2E2E2E2E2E2E2E2E2E2E2E2E2E2E2E2E2E2E2E2E2E2E2E2E2E2E2E2E2E2E2E2E2E2E2E2E2E2E2E2E2E2E2E2E9E2E2E2E2E2E2E2E2E2E2E2E2E2E2E2E2E2E2E2E2E2E2E2E2E2E2E2E2E2E2E2E2E2E2E2E2E2E2E2E2E2E2E2E2E2E2E2E2E2E2E2E2E2E2E2E2E2E2E2E2E2E2
310
E2E2E2E2E2E2E2E2E2E2E2E2E2E2E2E2E2E2E2E2E2E2E2E2E2E2F5E2E2E2E2E2E2E2E2E2E2E2E2E2E2E2E2E2E2E2E2E2E2E2E2F5F5F5F5F5F5F5F5F5F5F5F5F5BEF5F5F5F5F5F5F5F5F5F5F5F5F5F5E2E2E2E2E2E2E2E2E2E2E2E2E2E2E2E2E2E2E2E2E2E2E2E2F5F5F5F5F5F5F5F5F5F5F5F5E2E2E2E2E2E2E2E2E2E2E2E2
310
E2E2E2E2E2E2E2E2E2E2E2E2E2E2F5E2E2E2E2E2E2E2E2E2E2E2E2E2E2E2E2E2E2E2E2E2E2E2E2E2E2E2E2E2E2E2E2E2E2E2E2E2E2E2E2E2E2E2E2E2E2E2E2E2E2E2E9E2E2E2E2E2E2E2E2E2E2E2E2E2E2E2E2E2E2E2E2E2E2E2E2E2E2E2E2E2E2E2E2E2E2E2E2E2E2E2E2E2E2E2E2E2E2E2E2E2E2E2E2E2E2E2E2E2E2E2E2
310
E2E2E2E2E2E2E2E2E2E2E2E2E2E2E2E2E2E2E2E2E2E2E2E2E2E2E2E2F5E2E2E2E2E2E2E2E2E2E2E2E2E2E2E2E2E2E2E2E2E2E2E2E2F5BEF5BEE2E2E2E2E2F5F5F5F5F5F5F5F5F5F5E2E2E2E2BEF5F5BEF5E2E2E2E2E2E2E2E2E2E2E2E2E2E2F56D6D6D6D6D6D6D6DF5F5E2E2E2E2E2E2E2E2E2E2F5E2E2E2E2E2E2E2E2E2E2
310
E2E2E2E2E2E2E2E2E2E2E2E2E2E2E2E2F5E2E2E2E2E2E2E2E2E2E2E2E2E2E2E2E2E2E2E2E2E2E2E2E2E2E2E2E2E2E2E2E2E2E2E2E2E2E2E2E2E2E2E2E2E2E2E2E2E2E2E2E9E2E2E2E2E2E2E2E2E2E2E2E2E2E2E2E2E2E2E2E2E2E2E2E2E2E2E2E2E2E2E2E2E2E2E2E2E2E2E2E2E2E2E2E2E2E2E2E2E2E2E2E2E2E2E2E2E2E2
310
E2E2E2E2E2E2E2E2E2E2E2E2E2E2E2E2E2E2E2E2E2E2E2E2E2E2E2E2E2E2F5E2E2E2E2E2E2E2E2E2E2E2E2E2E2E2E2E2E2E2E2E2E2E2E2F5F5BEBEE2E2E2F5F5E2E2E2E2BEE2E2E2E2F5F5F5E2E2F5F5F5E2F5E2E2E2E2E2E2E2E2E2E2E2E2E2E26DE2E2E2E2E2E2E2E2F5F5E2E2E2E2E2E2E2E2E2E2F5E2E2E2E2E2E2E2E2
310
E2E2E2E2E2E2E2E2E2E2E2E2E2E2E2E2E2E2F5E2E2E2E2E2E2E2E2E2E2E2E2E2E2E2E2E2E2E2E2E2E2E2E2E2E2E2E2E2E2E2E2E2E2E2E2E2E2E2E2E2E2E2E2E2E2E2E2E2E2E2E9E2E2E2E2E2E2E2E2E2E2E2E2E2E2E2E2E2E2E2E2E2E2E2E2E2E2E2E2E2E2E2E2E2E2E2E2E2E2E2E2E2E2E2E2E2E2E2E2E2E2E2E2E2E2E2E2
310
E2E2E2E2E2E2E2E2E2E2E2E2E2E2E2E2E2E2E2E2E2E2E2E2E2E2E2E2E2E2E2E2F5E2E2E2E2E2E2E2E2E2E2E2E2E2E2E2E2E2E2E2E2E2E2E2E2F5BEBEF5E2F5F5E2E2E2E2E2E2BEE2E2E2E2E2E2F5F5E2BEF5F5E2F5E2E2E2E2E2E2E2E2E2E2E2E2E2E26DE2E2E2E2E2E2E2E2F5F5E2E2E2E2E2E2E2E2E2E2F5E2E2E2E2E2E2
310
E2E2E2E2E2E2E2E2E2E2E2E2E2E2E2E2E2E2E2E2F5E2E2E2E2E2E2E2E2E2E2E2E2E2E2E2E2E2E2E2E2E2E2E2E2E2E2E2E2E2E2E2E2E2E2E2E2E2E2E2E2E2E2E2E2E2E2E2E2E2E2E2E9E2E2E2E2E2E2E2E2E2E2E2E2E2E2E2E2E2E2E2E2E2E2E2E2E2E2E2E2E2E2E2E2E2E2E2E2E2E2E2E2E2E2E2E2E2E2E2E2E2E2E2E2E2E2
310
E2E2E2E2E2E2E2E2E2E2E2E2E2E2E2E2E2E2E2E2E2E2E2E2E2E2E2E2E2E2E2E2E2E2F5E2E2E2E2E2E2E2E2E2E2E2E2E2E2E2E2E2E2E2E2E2E2E2E2F5BE6DE2F5F5E2E2E2E2E2E2E2E2E2E2E2E2E2E2E2E2F5F5E2E2E2F5E2E2E2E2E2E2E2E2E2E2E2E2E2E26DE2E2E2E2E2E2E2E2F5F5E2E2E2E2E2E2E2E2E2E2F5E2E2E2E2
310
E2E2E2E2E2E2E2E2E2E2E2E2E2E2E2E2E2E2E2E2E2E2F5E2E2E2E2E2E2E2E2E2E2E2E2E2E2E2E2E2E2E2E2E2E2E2E2E2E2E2E2E2E2E2E2E2E2E2E2E2E2E2E2E2E2E2E2E2E2E2E2E2E2E2E9E2E2E2E2E2E2E2E2E2E2E2E2E2E2E2E2E2E2E2E2E2E2E2E2E2E2E2E2E2E2E2E2E2E2E2E2E2E2E2E2E2E2E2E2E2E2E2E2E2E2E2E2
310
E2E2E2E2E2E2E2E2E2E2E2E2E2E2E2E2E2E2E2E2E2E2E2E2E2E2E2E2E2E2E2E2E2E2E2E2F5E2E2E2E2E2E2E2E2E2E2E2E2E2E2E2E2E2E2E2E2E2E2E2E2F5E2E2F5F5E2E2E2E2E2E2E2E2BEE2E2E2E2E2E2E2E2E2F5E2E2E2F5E2E2E2E2E2E2E2E2E2E2E2E2E2E26DE2E2E2E2E2E2E2E2F5F5E2E2E2E2E2E2E2E2E2E2F5E2E2
310
E2E2E2E2E2E2E2E2E2E2E2E2E2E2E2E2E2E2E2E2E2E2E2E2F5E2E2E2E2E2E2E2E2E2E2E2E2E2E2E2E2E2E2E2E2E2E2E2E2E2E2E2E2E2E2E2E2E2E2E2E2E2E2E2E2E2E2E2E2E2E2E2E2E2E2E2E9E2E2E2E2E2E2E2E2E2E2E2E2E2E2E2E2E2E2E2E2E2E2E2E2E2E2E2E2E2E2E2E2E2E2E2E2E2E2E2E2E2E2E2E2E2E2E2E2E2E2
310
E2E2E2E2E2E2E2E2E2E2E2E2E2E2E2E2E2E2E2E2E2E2E2E2E2E2E2E2E2E2E2E2E2E2E2E2E2E2F5E2E2E2E2E2E2E2E2E2E2E2E2E2E2E2E2E2E2E2E2E2E2E2E2F5E2E2F56D6DE2E2E2E2E2E2E2BEE2E2E2E2E2E2E2E2E2F5F5E2E2F5E2E2E2E2E2E2E2E2E2E2E2E2E2E26DE2E2E2E2E2E2E2E2F5F5E2E2E2E2E2E2E2E2E2E2F5
310
E2E2E2E2E2E2E2E2E2E2E2E2E2E2E2E2E2E2E2E2E2E2E2E2E2E2F5E2E2E2E2E2E2E2E2E2E2E2E2E2E2E2E2E2E2E2E2E2E2E2E2E2E2E2E2E2E2E2E2E2E2E2E2E2E2E2E2E2E2E2E2E2E2E2E2E2E2E2E9E2E2E2E2E2E2E2E2E2E2E2E2E2E2E2E2E2E2E2E2E2E2E2E2E2E2E2E2E2E2E2E2E2E2E2E2E2E2E2E2E2E2E2E2E2E2E2E2
310
E2E2E2E2E2E2E2E2E2E2E2E2E2E2E2E2E2E2E2E2E2E2E2E2E2E2E2E2E2E2E2E2E2E2E2E2E2E2E2E2F5E2E2E2E2E2E2E2E2E2E2E2E2E2E2E2E2E2E2E2E2E2E2E2E2F5E2F5E2E2E26DE2E2E2E2E2E2E2E2E2E2E2E2E2E2E2E2E2F5F5E2F5E2E2E2E2E2E2E2E2E2E2E2E2E2E26DE2E2E2E2E2E2E2E2F5F5E2E2E2E2E2E2E2E2E2
310
E2F5E2E2E2E2E2E2E2E2E2E2E2E2E2E2E2E2E2E2E2E2E2E2E2E2E2E2F5E2E2E2E2E2E2E2E2E2E2E2E2E2E2E2E2E2E2E2E2E2E2E2E2E2E2E2E2E2E2E2E2E2E2E2E2E2E2E2E2E2E2E2E2E2E2E2E2E2E2E2E9E2E2E2E2E2E2E2E2E2E2E2E2E2E2E2E2E2E2E2E2E2E2E2E2E2E2E2E2E2E2E2E2E2E2E2E2E2E2E2E2E2E2E2E2E2E2
310
E2E2E2E2E2E2E2E2E2E2E2E2E2E2E2E2E2E2E2E2E2E2E2E2E2E2E2E2E2E2E2E2E2E2E2E2E2E2E2E2E2E2F5E2E2E2E2E2E2E2E2E2E2E2E2E2E2E2E2E2E2E2E2E2E2E2E2F5E2F5E2E2E2E26DE2E2E2E2E2BEE2E2E2E2E2E2E2E2E2E2E2F5E2F5E2E2E2E2E2E2E2E2E2E2E2E2E2E26DE2E2E2E2E2E2E2E2F5F5E2E2E2E2E2E2E2
310
E2E2E2F5E2E2E2E2E2E2E2E2E2E2E2E2E2E2E2E2E2E2E2E2E2E2E2E2E2E2F5E2E2E2E2E2E2E2E2E2E2E2E2E2E2E2E2E2E2E2E2E2E2E2E2E2E2E2E2E2E2E2E2E2E2E2E2E2E2E2E2E2E2E2E2E2E2E2E2E2E2E2E9E2E2E2E2E2E2E2E2E2E2E2E2E2E2E2E2E2E2E2E2E2E2E2E2E2E2E2E2E2E2E2E2E2E2E2E2E2E2E2E2E2E2E2E2
310
E2E2E2E2E2E2E2E2E2E2E2E2E2E2E2E2E2E2E2E2E2E2E2E2E2E2E2E2E2E2E2E2E2E2E2E2E2E2E2E2E2E2E2E2F5E2E2E2E2E2E2E2E2E2E2E2E2E2E2E2E2E2E2E2E2E2E2E2E2F5F5F5E2E2E2E2E26DE2E2E2E2BEE2E2E2E2E2E2E2E2E2E2E2F5E2F5E2E2E2E2E2E2E2E2E2E2E2E228286DE2E2E2E2E2E2E2E2F5F5E2E2E2E2E2
310
E2E2E2E2E2F5E2E2E2E2E2E2E2E2E2E2E2E2E2E2E2E2E2E2E2E2E2E2E2E2E2E2F5E2E2E2E2E2E2E2E2E2E2E2E2E2E2E2E2E2E2E2E2E2E2E2E2E2E2E2E2E2E2E2E2E2E2E2E2E2E2E2E2E2E2E2E2E2E2E2E2E2E2E2E9E2E2E2E2E2E2E2E2E2E2E2E2E2E2E2E2E2E2E2E2E2E2E2E2E2E2E2E2E2E2E2E2E2E2E2E2E2E2E2E2E2E2
310
E2E2E2E2E2E2E2E2E2E2E2E2E2E2E2E2E2E2E2E2E2E2E2E2E2E2E2E2E2E2E2E2E2E2E2E2E2E2E2E2E2E2E2E2E2E2F5E2E2E2E2E2E2E2E2E2E2E2E2E2E2E2E2E2E2E2E2E2E2E2E2F5F5E2E2E2E2E2E2E26DE2E2E2BEE2E2E2E2E2E2E2E2E2E2E2F5F5F5E2E2E2E2E2E2E2E2E2E2E2E228286DE2E2E2E2E2E2E2E2F5F5E2E2E2
310
E2E2E2E2E2E2E2F5E2E2E2E2E2E2E2E2E2E2E2E2E2E2E2E2E2E2E2E2E2E2E2E2E2E2F5E2E2E2E2E2E2E2E2E2E2E2E2E2E2E2E2E2E2E2E2E2E2E2E2E2E2E2E2E2E2E2E2E2E2E2E2E2E2E2E2E2E2E2E2E2E2E2E2E2E2E2E9E2E2E2E2E2E2E2E2E2E2E2E2E2E2E2E2E2E2E2E2E2E2E2E2E2E2E2E2E2E2E2E2E2E2E2E2E2E2E2E2
310
E2E2E2E2E2E2E2E2E2E2E2E2E2E2E2E2E2E2E2E2E2E2E2E2E2E2E2E2E2E2E2E2E2E2E2E2E2E2E2E2E2E2E2E2E2E2E2E2F5E2E2E2E2E2E2E2E2E2E2E2E2E2E2E2E2E2E2E2E2E2E2E2E2F5F5E2E2E2E2E2E2E2E26D6DE2BEE2E2E2E2E2E2E2E2E2E2E2E2F5F5E2E2E2E2E2E2E2E2E2E2E2E228286DE2E2E2E2E2E2E2E2F5F5E2
310
E2E2E2E2E2E2E2E2E2F5E2E2E2E2E2E2E2E2E2E2E2E2E2E2E2E2E2E2E2E2E2E2E2E2E2E2F5E2E2E2E2E2E2E2E2E2E2E2E2E2E2E2E2E2E2E2E2E2E2E2E2E2E2E2E2E2E2E2E2E2E2E2E2E2E2E2E2E2E2E2E2E2E2E2E2E2E2E2E9E2E2E2E2E2E2E2E2E2E2E2E2E2E2E2E2E2E2E2E2E2E2E2E2E2E2E2E2E2E2E2E2E2E2E2E2E2E2
310
E2E2E2E2E2E2E2E2E2E2E2E2E2E2E2E2E2E2E2E2E2E2E2E2E2E2E2E2E2E2E2E2E2E2E2E2E2E2E2E2E2E2E2E2E2E2E2E2E2E2F5E2E2E2E2E2E2E2E2E2E2E2E2E2E2E2E2E2E2E2E2E2E2E2E2F5F5E2E2E2E2E2E2E2E2E2E2F5BEF5E2E2E2E2E2E2E2E2E2E2E2F5F5E2E2E2E2E2E2E2E2E2E2E2E228286DE2E2E2BEF5F5F5F5F5
310
F5E2E2E2E2E2E2E2E2E2E2F5E2E2E2E2E2E2E2E2E2E2E2E2E2E2E2E2E2E2E2E2E2E2E2E2E2E2F5E2E2E2E2E2E2E2E2E2E2E2E2E2E2E2E2E2E2E2E2E2E2E2E2E2E2E2E2E2E2E2E2E2E2E2E2E2E2E2E2E2E2E2E2E2E2E2E2E2E2E2E9E2E2E2E2E2E2E2E2E2E2E2E2E2E2E2E2E2E2E2E2E2E2E2E2E2E2E2E2E2E2E2E2E2E2E2E2
310
E2E2E2E2E2E2E2E2E2E2E2E2E2E2E2E2E2E2E2E2E2E2E2E2E2E2E2E2E2E2E2E2E2E2E2E2E2E2E2E2E2E2E2E2E2E2E2E2E2E2E2E2F5E2E2E2E2E2E2E2E2E2E2E2E2E2E2E2E2E2E2E2E2E2E2E2BEBEF5BEBEBEBEBEBEBEBEBEE2BEBEBEF5BEBEBEBEBEBEBEBEBEBEF5BEBEE2E2E2E2E2E2E2E2E2E2E2E2286DE2E2BEF5DCDCDC
310
DCF5F5E2BEBEBEE2BEBEBEBEBEBEBEBEE2E2E2E2E2E2E2E2E2E2E2E2E2E2E2E2E2E2E2E2E2E2E2E2F5E2E2E2E2E2E2E2E2E2E2E2E2E2E2E2E2E2E2E2E2E2E2E2E2E2E2E2E2E2E2E2E2E2E2E2E2E2E2E2E2E2E2E2E2E2E2E2E2E2E2E2E9E2E2E2E2E2E2E2E2E2E2E2E2E2E2E2E2E2E2E2E2E2E2E2E2E2E2E2E2E2E2E2E2E2E2
310
E2E2E2E2E2E2E2E2E2E2E2E2E2E2E2E2E2E2E2E2E2E2E2E2E2E2E2E2E2E2E2E2E2E2E2E2E2E2E2E2E2E2E2E2E2E2E2E2E2E2E2E2E2E2F5E2E2E2E2E2E2E2E2E2E2E2E2E2E2E2E2E2E2E2E2E2E2E2E2F5F5E2E2E2E2E2E2E2E2E2E2F5BEF5F5E2E2E2E2E2E2E2E2E2E2F5F5E2E2E2E2E2E2E2E2E2E2E2E2E2286DE2E2E2BEF5
310
F5F5F5F5F5E2E2E2E2E2E2E2E2E2E2F5E2E2E2E2E2E2E2E2E2E2E2E2E2E2E2E2E2E2E2E2E2E2E2E2E2E2F5E2E2E2E2E2E2E2E2E2E2E2E2E2E2E2E2E2E2E2E2E2E2E2E2E2E2E2E2E2E2E2E2E2E2E2E2E2E2E2E2E2E2E2E2E2E2E2E2E2E2E2E9E2E2E2E2E2E2E2E2E2E2E2E2E2E2E2E2E2E2E2E2E2E2E2E2E2E2E2E2E2E2E2E2
310
E2E2E2E2E2E2E2E2E2E2E2E2E2E2E2E2E2E2E2E2E2E2E2E2E2E2E2E2E2E2E2E2E2E2E2E2E2E2E2E2E2E2E2E2E2E2E2E2E2E2E2E2E2E2E2E2F5E2E2E2E2E2E2E2E2E2E2E2E2E2E2E2E2E2E2E2E2E2E2E2E2F5F5E2E2E2E2E2E2E2E2E2E2E2BEE26DE2E2E2E2E2E2E2E2E2E2F5F5E2E2E2E2E2E2E2E2E2E2E2E228286DE2E2E2
310
6DE2E2E2E2F5F5E2E2E2E2E2E2E2E2E2E2F5E2E2E2E2E2E2E2E2E2E2E2E2E2E2E2E2E2E2E2E2E2E2E2E2E2E2F5E2E2E2E2E2E2E2E2E2E2E2E2E2E2E2E2E2E2E2E2E2E2E2E2E2E2E2E2E2E2E2E2E2E2E2E2E2E2E2E2E2E2E2E2E2E2E2E2E2E2E2E9E2E2E2E2E2E2E2E2E2E2E2E2E2E2E2E2E2E2E2E2E2E2E2E2E2E2E2E2E2E2
310
E2E2E2E2E2E2E2E2E2E2E2E2E2E2E2E2E2E2E2E2E2E2E2E2E2E2E2E2E2E2E2E2E2E2E2E2E2E2E2E2E2E2E2E2E2E2E2E2E2E2E2E2E2E2E2E2E2E2F5E2E2E2E2E2E2E2E2E2E2E2E2E2E2E2E2E2E2E2E2E2E2E2E2F5F5E2E2E2E2E2E2E2E2E2E2E2BEE2E26D6DE2E2E2E2E2E2E2F5F5F5E2E2E2E2E2E2E2E2E2E2E2E228286DE2
310
E2E26DE2E2E2E2F5F5E2E2E2E2E2E2E2E2E2E2F5E2E2E2E2E2E2E2E2E2E2E2E2E2E2E2E2E2E2E2E2E2E2E2E2E2E2F5E2E2E2E2E2E2E2E2E2E2E2E2E2E2E2E2E2E2E2E2E2E2E2E2E2E2E2E2E2E2E2E2E2E2E2E2E2E2E2E2E2E2E2E2E2E2E2E2E2E2E2E9E2E2E2E2E2E2E2E2E2E2E2E2E2E2E2E2E2E2E2E2E2E2E2E2E2E2E2E2
310
E2E2E2E2E2E2E2E2E2E2E2E2E2E2E2E2E2E2E2E2E2E2E2E2E2E2E2E2E2E2E2E2E2E2E2E2E2E2E2E2E2E2E2E2E2E2E2E2E2E2E2E2E2E2E2E2E2E2E2E2F5E2E2E2E2E2E2E2E2E2E2E2E2E2E2E2E2E2E2E2E2E2E2E2E2F5F5F5E2E2E2E2E2E2E2E2E2E2BEE2E2E2E26DE2E2E2E2E2E2F5E2F5E2E2E2E2E2E2E2E2E2E2E2E22828
310
6DE2E2E26DE2E2E2E2F5F5E2E2E2E2E2E2E2E2E2E2F5E2E2E2E2E2E2E2E2E2E2E2E2E2E2E2E2E2E2E2E2E2E2E2E2E2E2F5E2E2E2E2E2E2E2E2E2E2E2E2E2E2E2E2E2E2E2E2E2E2E2E2E2E2E2E2E2E2E2E2E2E2E2E2E2E2E2E2E2E2E2E2E2E2E2E2E2E2E2E9E2E2E2E2E2E2E2E2E2E2E2E2E2E2E2E2E2E2E2E2E2E2E2E2E2E2
310
E2E2E2E2E2E2E2E2E2E2E2E2E2E2E2E2E2E2E2E2E2E2E2E2E2E2E2E2E2E2E2E2E2E2E2E2E2E2E2E2E2E2E2E2E2E2E2E2E2E2E2E2E2E2E2E2E2E2E2E2E2E2F5E2E2E2E2E2E2E2E2E2E2E2E2E2E2E2E2E2E2E2E2E2E2E2E2F5E2F5E2E2E2E2E2E2E2E2E2E2BEE2E2E2E2E26DE2E2E2E2E2F5E2F5E2E2E2E2E2E2E2E2E2E2E2E2
310
E2E26DE2E2E26DE2E2E2E2F5F5E2E2E2E2E2E2E2E2E2E2F5E2E2E2E2E2E2E2E2E2E2E2E2E2E2E2E2E2E2E2E2E2E2E2E2E2E2F5E2E2E2E2E2E2E2E2E2E2E2E2E2E2E2E2E2E2E2E2E2E2E2E2E2E2E2E2E2E2E2E2E2E2E2E2E2E2E2E2E2E2E2E2E2E2E2E2E2E2E2E9E2E2E2E2E2E2E2E2E2E2E2E2E2E2E2E2E2E2E2E2E2E2E2E2
310
E2E2E2E2E2E2E2E2E2E2E2E2E2E2E2E2E2E2E2E2E2E2E2E2E2E2E2E2E2E2E2E2E2E2E2E2E2E2E2E2E2E2E2E2E2E2E2E2E2E2E2E2E2E2E2E2E2E2E2E2E2E2E2E2F5E2E2E2E2E2E2E2E2E2E2E2E2E2E2E2E2E2E2E2E2E2E2E2E2F5E2F5E2E2E2E2E2E2E2E2E2E2E2E2E2E2E2E2E26DE2E2E2F5F5E2F5E2E2E2E2E2E2E2E2E2E2
310
E2E2E2E26DE2E2E26DE2E2E2E2F5F5E2E2E2E2E2E2E2E2E2E2F5E2E2E2E2E2E2E2E2E2E2E2E2E2E2E2E2E2E2E2E2E2E2E2E2E2E2F5E2E2E2E2E2E2E2E2E2E2E2E2E2E2E2E2E2E2E2E2E2E2E2E2E2E2E2E2E2E2E2E2E2E2E2E2E2E2E2E2E2E2E2E2E2E2E2E2E2E2E2E9E2E2E2E2E2E2E2E2E2E2E2E2E2E2E2E2E2E2E2E2E2E2
310
E2E2E2E2E2E2E2E2E2E2E2E2E2E2E2E2E2E2E2E2E2E2E2E2E2E2E2E2E2E2E2E2E2E2E2E2E2E2E2E2E2E2E2E2E2E2E2E2E2E2E2E2E2E2E2E2E2E2E2E2E2E2E2E2E2E2F5E2E2E2E2E2E2E2E2E2E2E2E2E2E2E2E2E2E2E2E2E2E2E2E2F5E2E2F5E2E2E2E2E2E2E2E2E2BEE2E2E2E2E2E2E26DE2E2F5E2E2F5E2E2E2E2E2E2E2E2
310
E2E2E2E2E2E26DE2E2E26DE2E2E2E2F5F5E2E2E2E2E2E2E2E2E2E2F5E2E2E2E2E2E2E2E2E2E2E2E2E2E2E2E2E2E2E2E2E2E2E2E2E2E2F5E2E2E2E2E2E2E2E2E2E2E2E2E2E2E2E2E2E2E2E2E2E2E2E2E2E2E2E2E2E2E2E2E2E2E2E2E2E2E2E2E2E2E2E2E2E2E2E2E2E2E2E9E2E2E2E2E2E2E2E2E2E2E2E2E2E2E2E2E2E2E2E2
310
E2E2E2E2E2E2E2E2E2E2E2E2E2E2E2E2E2E2E2E2E2E2E2E2E2E2E2E2E2E2E2E2E2E2E2E2E2E2E2E2E2E2E2E2E2E2E2E2E2E2E2E2E2E2E2E2E2E2E2E2E2E2E2E2E2E2E2E2F5E2E2E2E2E2E2E2E2E2E2E2E2E2E2E2E2E2E2E2E2E2E2E2E2F5E2E2F5F5E2E2E2E2E2E2E2E2BEE2E2E2E2E2E2E2E26DF5E2E2E2F5E2E2E2E2E2E2
310
E2E2E2E2E2E2E2E26DE2E2E26DE2E2E2E2F5F5E2E2E2E2E2E2E2E2E2E2F5E2E2E2E2E2E2E2E2E2E2E2E2E2E2E2E2E2E2E2E2E2E2E2E2E2E2F5E2E2E2E2E2E2E2E2E2E2E2E2E2E2E2E2E2E2E2E2E2E2E2E2E2E2E2E2E2E2E2E2E2E2E2E2E2E2E2E2E2E2E2E2E2E2E2E2E2E2E2E9E2E2E2E2E2E2E2E2E2E2E2E2E2E2E2E2E2E2
310
E2E2E2E2E2E2E2E2E2E2E2E2E2E2E2E2E2E2E2E2E2E2E2E2E2E2E2E2E2E2E2E2E2E2E2E2E2E2E2E2E2E2E2E2E2E2E2E2E2E2E2E2E2E2E2E2E2E2E2E2E2E2E2E2E2E2E2E2E2E2F5E2E2E2E2E2E2E2E2E2E2E2E2E2E2E2E2E2E2E2E2E2E2E2E2F5E2E2E2F5F5E2E2E2E2E2E2E2BEE2E2E2E2E2E2E2E2F5F56DE2BEF5E2E2E2E2
310
E2E2E2E2E2E2E2E2E2E26DE2E2E26DE2E2E2E2F5F5E2E2E2E2E2E2E2E2E2E2F5E2E2E2E2E2E2E2E2E2E2E2E2E2E2E2E2E2E2E2E2E2E2E2E2E2E2F5E2E2E2E2E2E2E2E2E2E2E2E2E2E2E2E2E2E2E2E2E2E2E2E2E2E2E2E2E2E2E2E2E2E2E2E2E2E2E2E2E2E2E2E2E2E2E2E2E2E2E2E9E2E2E2E2E2E2E2E2E2E2E2E2E2E2E2E2
310
E2E2E2E2E2E2E2E2E2E2E2E2E2E2E2E2E2E2E2E2E2E2E2E2E2E2E2E2E2E2E2E2E2E2E2E2E2E2E2E2E2E2E2E2E2E2E2E2E2E2E2E2E2E2E2E2E2E2E2E2E2E2E2E2E2E2E2E2E2E2E2E2F5E2E2E2E2E2E2E2E2E2E2E2E2E2E2E2E2E2E2E2E2E2E2E2E2F5F5F5F5E2F5F5E2E2E2E2E2E2BEE2E2E2E2E2E2F5F5E2BEF5F56DF5E2E2
310
E2E2E2E2E2E2E2E2E2E2E2E26DE2E2E26DE2E2E2E2F5F5E2E2E2E2E2E2E2E2E2E2F5E2E2E2E2E2E2E2E2E2E2E2E2E2E2E2E2E2E2E2E2E2E2E2E2E2E2F5E2E2E2E2E2E2E2E2E2E2E2E2E2E2E2E2E2E2E2E2E2E2E2E2E2E2E2E2E2E2E2E2E2E2E2E2E2E2E2E2E2E2E2E2E2E2E2E2E2E2E2E9E2E2E2E2E2E2E2E2E2E2E2E2E2E2
310
E2E2E2E2E2E2E2E2E2E2E2E2E2E2E2E2E2E2E2E2E2E2E2E2E2E2E2E2E2E2E2E2E2E2E2E2E2E2E2E2E2E2E2E2E2E2E2E2E2E2E2E2E2E2E2E2E2E2E2E2E2E2E2E2E2E2E2E2E2E2E2E2E2E2F5E2E2E2E2E2E2E2E2E2E2E2E2E2E2E2E2E2E2E2E2E2E2E2E2F5F5BEF5E2E2E2F5F5E2E2E2E2BEE2E2E2E2F5F5F5E2E2F5BEBEE2F5
310
E2E2E2E2E2E2E2E2E2E2E2E2E2E26DE2E2E26DE2E2E2E2F5F5E2E2E2E2E2E2E2E2E2E2F5E2E2E2E2E2E2E2E2E2E2E2E2E2E2E2E2E2E2E2E2E2E2E2E2E2E2F5E2E2E2E2E2E2E2E2E2E2E2E2E2E2E2E2E2E2E2E2E2E2E2E2E2E2E2E2E2E2E2E2E2E2E2E2E2E2E2E2E2E2E2E2E2E2E2E2E2E2E2E9E2E2E2E2E2E2E2E2E2E2E2E2
310
E2E2E2E2E2E2E2E2E2E2E2E2E2E2E2E2E2E2E2E2E2E2E2E2E2E2E2E2E2E2E2E2E2E2E2E2E2E2E2E2E2E2E2E2E2E2E2E2E2E2E2E2E2E2E2E2E2E2E2E2E2E2E2E2E2E2E2E2E2E2E2E2E2E2E2E2F5E2E2E2E2E2E2E2E2E2E2E2E2E2E2E2E2E2E2E2E2E2E2E2E2F5F5F5F5E2E2E2E2E2F5F5F5F5F5F5F5F5F5F5E2E2E2E2BEBEF5
310
BEF528E2E2E2E2E2E2E2E2E2E2E2E2E26D6D6D6D6D6D6D6D6DF5F5E2E2E2E2E2E2E2E2E2E2F5E2E2E2E2E2E2E2E2E2E2E2E2E2E2E2E2E2E2E2E2E2E2E2E2E2E2F5E2E2E2E2E2E2E2E2E2E2E2E2E2E2E2E2E2E2E2E2E2E2E2E2E2E2E2E2E2E2E2E2E2E2E2E2E2E2E2E2E2E2E2E2E2E2E2E2E2E2E2E9E2E2E2E2E2E2E2E2E2E2
310
E2E2E2E2E2E2E2E2E2E2E2E2E2E2E2E2E2E2E2E2E2E2E2E2E2E2E2E2E2E2E2E2E2E2E2E2E2E2E2E2E2E2E2E2E2E2E2E2E2E2E2E2E2E2E2E2E2E2E2E2E2E2E2E2E2E2E2E2E2E2E2E2E2E2E2E2E2E2F5E2E2E2E2E2E2E2E2E2E2E2E2E2E2E2E2E2E2E2E2E2E2E2E26DF5F5F5F5F5F5F5F5F5F5F5F5F5F5F5F5F5F5F5F5F5F5F5
310
F5F5F56D28286DE2E2E2E2E2E2E2E2E2E2E2E2E2E2E26DE2E2E2E26DF5F5F5F5F5F5F5F5F5F5F5F5E2E2E2E2E2E2E2E2E2E2E2E2E2E2E2E2E2E2E2E2E2E2E2E2E2E2F5E2E2E2E2E2E2E2E2E2E2E2E2E2E2E2E2E2E2E2E2E2E2E2E2E2E2E2E2E2E2E2E2E2E2E2E2E2E2E2E2E2E2E2E2E2E2E2E2E2E2E2E9E2E2E2E2E2E2E2E2
310
E2E2E2E2E2E2E2E2E2E2E2E2E2E2E2E2E2E2E2E2E2E2E2E2E2E2E2E2E2E2E2E2E2E2E2E2E2E2E2E2E2E2E2E2E2E2E2E2E2E2E2E2E2E2E2E2E2E2E2E2E2E2E2E2E2E2E2E2E2E2E2E2E2E2E2E2E2E2E2E2F5E2E2E2E2E2E2E2E2E2E2E2E2E2E2E2E2E2E2E2E2E2E2E2E26DE2E2E2E2E2E2E2E2E2E2E2E2BEE2E2E2E2E2E2E2E2
310
E2E26DE2E26D2828286DE2E2E2E2E2E2E2E2E2E2E2E2E2E26DE2E2E2E26D6DE2E2E2E2E2E2E2E2E2E26DE2E2E2E2E2E2E2E2E2E2E2E2E2E2E2E2E2E2E2E2E2E2E2E2E2E2F5E2E2E2E2E2E2E2E2E2E2E2E2E2E2E2E2E2E2E2E2E2E2E2E2E2E2E2E2E2E2E2E2E2E2E2E2E2E2E2E2E2E2E2E2E2E2E2E2E2E2E2E9E2E2E2E2E2E2
310
E2E2E2E2E2E2E2E2E2E2E2E2E2E2E2E2E2E2E2E2E2E2E2E2E2E2E2E2E2E2E2E2E2E2E2E2E2E2E2E2E2E2E2E2E2E2E2E2E2E2E2E2E2E2E2E2E2E2E2E2E2E2E2E2E2E2E2E2E2E2E2E2E2E2E2E2E2E2E2E2E2E2F5E2E2E2E2E2E2E2E2E2E2E2E2E2E2E2E2E2E2E2E2E2E2E2E26DE2E2E2E2E2E2E2E2E2E2E2E2BEE2E2E2E2E2E2
310
E2E2E26DE2E2E26DE2E2282828E2E2E2E2E2E2E2E2E2E2E2E2E26DE2E2E2E26D6DE2E2E2E2E2E2E2E2E2E26DE2E2E2E2E2E2E2E2E2E2E2E2E2E2E2E2E2E2E2E2E2E2E2E2E2E2F5E2E2E2E2E2E2E2E2E2E2E2E2E2E2E2E2E2E2E2E2E2E2E2E2E2E2E2E2E2E2E2E2E2E2E2E2E2E2E2E2E2E2E2E2E2E2E2E2E2E2E2E9E2E2E2E2
310
E2E2E2E2E2E2E2E2E2E2E2E2E2E2E2E2E2E2E2E2E2E2E2E2E2E2E2E2E2E2E2E2E2E2E2E2E2E2E2E2E2E2E2E2E2E2E2E2E2E2E2E2E2E2E2E2E2E2E2E2E2E2E2E2E2E2E2E2E2E2E2E2E2E2E2E2E2E2E2E2E2E2E2E2F5E2E2E2E2E2E2E2E2E2E2E2E2E2E2E2E2E2E2E2E2E2E2E2E26DE2E2E2E2E2E2E2E2E2E2E2E2E2E2E2E2E2
310
E2E2E2E2E26DE2E2E26DE2E2E228286DE2E2E2E2E2E2E2E2E2E2E2E26DE2E2E2E26D6DE2E2E2E2E2E2E2E2E2E26DE2E2E2E2E2E2E2E2E2E2E2E2E2E2E2E2E2E2E2E2E2E2E2E2E2E2F5E2E2E2E2E2E2E2E2E2E2E2E2E2E2E2E2E2E2E2E2E2E2E2E2E2E2E2E2E2E2E2E2E2E2E2E2E2E2E2E2E2E2E2E2E2E2E2E2E2E2E2E9E2E2
310
E2E2E2E2E2E2E2E2E2E2E2E2E2E2E2E2E2E2E2E2E2E2E2E2E2E2E2E2E2E2E2E2E2E2E2E2E2E2E2E2E2E2E2E2E2E2E2E2E2E2E2E2E2E2E2E2E2E2E2E2E2E2E2E2E2E2E2E2E2E2E2E2E2E2E2E2E2E2E2E2E2E2E2E2E2E2F5E2E2E2E2E2E2E2E2E2E2E2E2E2E2E2E2E2E2E2E2E2E2E2E26DE2E2E2E2E2E2E2E2E2E2E2E2E2E2E2
310
E2E2E2E2E2E26DE2E2E2E26DE2E2E2E228E2E2E2E2E2E2E2E2E2E2E2E2E26DE2E2E2E26D6DE2E2E2E2E2E2E2E2E2E26DE2E2E2E2E2E2E2E2E2E2E2E2E2E2E2E2E2E2E2E2E2E2E2E2E2E2F5E2E2E2E2E2E2E2E2E2E2E2E2E2E2E2E2E2E2E2E2E2E2E2E2E2E2E2E2E2E2E2E2E2E2E2E2E2E2E2E2E2E2E2E2E2E2E2E2E2E2E2E9
310
E2E2E2E2E2E2E2E2E2E2E2E2E2E2E2E2E2E2E2E2E2E2E2E2E2E2E2E2E2E2E2E2E2E2E2E2E2E2E2E2E2E2E2E2E2E2E2E2E2E2E2E2E2E2E2E2E2E2E2E2E2E2E2E2E2E2E2E2E2E2E2E2E2E2E2E2E2E2E2E2E2E2E2E2E2E2E2E2F5E2E2E2E2E2E2E2E2E2E2E2E2E2E2E2E2E2E2E2E2E2E2E2E26DE2E2E2E2E2E2E2E2E2E2E2E26D
310
6D6D6D6D6D6D6D6D6DE2E2E2E26DE2E2E2E2E2E2E2E2E2E2E2E2E2E2E2E2E2E26DE2E2E26D6DF56D2828E2E2E2E2E2E2E26DE2E2E2E2E2E2E2E2E2E2E2E2E2E2E2E2E2E2E2E2E2E2E2E2E2E2F5E2E2E2E2E2E2E2E2E2E2E2E2E2E2E2E2E2E2E2E2E2E2E2E2E2E2E2E2E2E2E2E2E2E2E2E2E2E2E2E2E2E2E2E2E2E2E2E2E2E2
310
E2E9E2E2E2E2E2E2E2E2E2E2E2E2E2E2E2E2E2E2E2E2E2E2E2E2E2E2E2E2E2E2E2E2E2E2E2E2E2E2E2E2E2E2E2E2E2E2E2E2E2E2E2E2E2E2E2E2E2E2E2E2E2E2E2E2E2E2E2E2E2E2E2E2E2E2E2E2E2E2E2E2E2E2E2E2E2E2E2E2F5E2E2E2E2E2E2E2E2E2E2E2E2E2E2E2E2E2E2E2E2E2E2E2E26DE2E2E2E2E2E2E2E2E2E2E2
310
E2282828282828282828E2E2E2E2E26DE2E2E2E2E2E2E2E2E2E2E2E2E2E2E2E2E2E26DE2E2E2E2E26DE22828E2E2E2E2E2E2E26DE2E2E2E2E2E2E2E2E2E2E2E2E2E2E2E2E2E2E2E2E2E2E2E2E2E2F5E2E2E2E2E2E2E2E2E2E2E2E2E2E2E2E2E2E2E2E2E2E2E2E2E2E2E2E2E2E2E2E2E2E2E2E2E2E2E2E2E2E2E2E2E2E2E2E2
310
E2E2E2E9E2E2E2E2E2E2E2E2E2E2E2E2E2E2E2E2E2E2E2E2E2E2E2E2E2E2E2E2E2E2E2E2E2E2E2E2E2E2E2E2E2E2E2E2E2E2E2E2E2E2E2E2E2E2E2E2E2E2E2E2E2E2E2E2E2E2E2E2E2E2E2E2E2E2E2E2E2E2E2E2E2E2E2E2E2E2E2E2F5E2E2E2E2E2E2E2E2E2E2E2E2E2E2E2E2E2E2E2E2E2E2E2E26DE2E2E2E2E2E2E2E2E2
310
E2E2E2E2E2E2E2E2E2E2E2E2E2E2E2E2E26DE2E2E2E2E2E2E2E2E2E2E2E2E2E2E2E2E2E26DE2E2E2E2E26DE2E2E2E2E2E2E2E2E2E26DE2E2E2E2E2E2E2E2E2E2E2E2E2E2E2E2E2E2E2E2E2E2E2E2E2E2F5E2E2E2E2E2E2E2E2E2E2E2E2E2E2E2E2E2E2E2E2E2E2E2E2E2E2E2E2E2E2E2E2E2E2E2E2E2E2E2E2E2E2E2E2E2E2
310
E2E2E2E2E2E9E2E2E2E2E2E2E2E2E2E2E2E2E2E2E2E2E2E2E2E2E2E2E2E2E2E2E2E2E2E2E2E2E2E2E2E2E2E2E2E2E2E2E2E2E2E2E2E2E2E2E2E2E2E2E2E2E2E2E2E2E2E2E2E2E2E2E2E2E2E2E2E2E2E2E2E2E2E2E2E2E2E2E2E2E2E2E2E2F5E2E2E2E2E2E2E2E2E2E2E2E2E2E2E2E2E2E2E2E2E2E2E2E26D6D6D6D6D6D6D6D
310
6D6D6D6D6D28286D6D6D6D6D6D6D6D6D6D6D6DF5E2E2E2E2E2E2E2E2E2E2E2E2E2E2E2E2E2E26D6D6D28286DF56D6D6D6D28286D6D6D6DF5E2E2E2E2E2E2E2E2E2E2E2E2E2E2E2E2E2E2E2E2E2E2E2E2E2E2F5E2E2E2E2E2E2E2E2E2E2E2E2E2E2E2E2E2E2E2E2E2E2E2E2E2E2E2E2E2E2E2E2E2E2E2E2E2E2E2E2E2E2E2E2
310
E2E2E2E2E2E2E2E9E2E2E2E2E2E2E2E2E2E2E2E2E2E2E2E2E2E2E2E2E2E2E2E2E2E2E2E2E2E2E2E2E2E2E2E2E2E2E2E2E2E2E2E2E2E2E2E2E2E2E2E2E2E2E2E2E2E2E2E2E2E2E2E2E2E2E2E2E2E2E2E2E2E2E2E2E2E2E2E2E2E2E2E2E2E2E2E2F5E2E2E2E2E2E2E2E2E2E2E2E2E2E2E2E2E2E2E2E2E2E2E2E2E2E2E2E2E2E2
310
E2E2E2E2E228282828E2E2E2E2E2E2E2E2E2E2E2E2E2E2E2E2E2E2E2E2E2E2E2E2E2E2E2E2E2E2E2E2E2282828E2E2E2E2E2E22828E2E2E2E2E2E2E2E2E2E2E2E2E2E2E2E2E2E2E2E2E2E2E2E2E2E2E2E2E2E2E2F5E2E2E2E2E2E2E2E2E2E2E2E2E2E2E2E2E2E2E2E2E2E2E2E2E2E2E2E2E2E2E2E2E2E2E2E2E2E2E2E2E2E2
310
E2E2E2E2E2E2E2E2E2E9E2E2E2E2E2E2E2E2E2E2E2E2E2E2E2E2E2E2E2E2E2E2E2E2E2E2E2E2E2E2E2E2E2E2E2E2E2E2E2E2E2E2E2E2E2E2E2E2E2E2E2E2E2E2E2E2E2E2E2E2E2E2E2E2E2E2E2E2E2E2E2E2E2E2E2E2E2E2E2E2E2E2E2E2E2E2E2E2F5E2E2E2E2E2E2E2E2E2E2E2E2E2E2E2E2E2E2E2E2E2E2E2E2E2E2E2E2
310
E2E2E2E2E2E2E2E2E2E2E2E2E2E2E2E2E2E2E2E2E2E2E2E2E2E2E2E2E2E2E2E2E2E2E2E2E2E2E2E2E2E2E2E2E2E2E2E2E2E2E2E2E2E2E2E2E2E2E2E2E2E2E2E2E2E2E2E2E2E2E2E2E2E2E2E2E2E2E2E2E2E2E2E2E2E2F5E2E2E2E2E2E2E2E2E2E2E2E2E2E2E2E2E2E2E2E2E2E2E2E2E2E2E2E2E2E2E2E2E2E2E2E2E2E2E2E2
310
E2E2E2E2E2E2E2E2E2E2E2E9E2E2E2E2E2E2E2E2E2E2E2E2E2E2E2E2E2E2E2E2E2E2E2E2E2E2E2E2E2E2E2E2E2E2E2E2E2E2E2E2E2E2E2E2E2E2E2E2E2E2E2E2E2E2E2E2E2E2E2E2E2E2E2E2E2E2E2E2E2E2E2E2E2E2E2E2E2E2E2E2E2E2E2E2E2E2E2E2F5E2E2E2E2E2E2E2E2E2E2E2E2E2E2E2E2E2E2E2E2E2E2E2E2E2E2
310
E2E2E2E2E2E2E2E2E2E2E2E2E2E2E2E2E2E2E2E2E2E2E2E2E2E2E2E2E2E2E2E2E2E2E2E2E2E2E2E2E2E2E2E2E2E2E2E2E2E2E2E2E2E2E2E2E2E2E2E2E2E2E2E2E2E2E2E2E2E2E2E2E2E2E2E2E2E2E2E2E2E2E2E2E2E2E2E2F5E2E2E2E2E2E2E2E2E2E2E2E2E2E2E2E2E2E2E2E2E2E2E2E2E2E2E2E2E2E2E2E2E2E2E2E2E2E2
310
E2E2E2E2E2E2E2E2E2E2E2E2E2E9E2E2E2E2E2E2E2E2E2E2E2E2E2E2E2E2E2E2E2E2E2E2E2E2E2E2E2E2E2E2E2E2E2E2E2E2E2E2E2E2E2E2E2E2E2E2E2E2E2E2E2E2E2E2E2E2E2E2E2E2E2E2E2E2E2E2E2E2E2E2E2E2E2E2E2E2E2E2E2E2E2E2E2E2E2E2E2E2F5E2E2E2E2E2E2E2E2E2E2E2E2E2E2E2E2E2E2E2E2E2E2E2E2
310
E2E2E2E2E2E2E2E2E2E2E2E2E2E2E2E2E2E2E2E2E2E2E2E2E2E2E2E2E2E2E2E2E2E2E2E2E2E2E2E2E2E2E2E2E2E2E2E2E2E2E2E2E2E2E2E2E2E2E2E2E2E2E2E2E2E2E2E2E2E2E2E2E2E2E2E2E2E2E2E2E2E2E2E2E2E2E2E2E2E2F5E2E2E2E2E2E2E2E2E2E2E2E2E2E2E2E2E2E2E2E2E2E2E2E2E2E2E2E2E2E2E2E2E2E2E2E2
310
E2E2E2E2E2E2E2E2E2E2E2E2E2E2E2E9E2E2E2E2E2E2E2E2E2E2E2E2E2E2E2E2E2E2E2E2E2E2E2E2E2E2E2E2E2E2E2E2E2E2E2E2E2E2E2E2E2E2E2E2E2E2E2E2E2E2E2E2E2E2E2E2E2E2E2E2E2E2E2E2E2E2E2E2E2E2E2E2E2E2E2E2E2E2E2E2E2E2E2E2E2E2E2E2F5E2E2E2E2E2E2E2E2E2E2E2E2E2E2E2E2E2E2E2E2E2E2
310
E2E2E2E2E2E2E2E2E2E2E2E2E2E2E2E2E2E2E2E2E2E2E2E2E2E2E2E2E2E2E2E2E2E2E2E2E2E2E2E2E2E2E2E2E2E2E2E2E2E2E2E2E2E2E2E2E2E2E2E2E2E2E2E2E2E2E2E2E2E2E2E2E2E2E2E2E2E2E2E2E2E2E2E2E2E2E2E2E2E2E2E2F5E2E2E2E2E2E2E2E2E2E2E2E2E2E2E2E2E2E2E2E2E2E2E2E2E2E2E2E2E2E2E2E2E2E2
310
E2E2E2E2E2E2E2E2E2E2E2E2E2E2E2E2E2E9E2E2E2E2E2E2E2E2E2E2E2E2E2E2E2E2E2E2E2E2E2E2E2E2E2E2E2E2E2E2E2E2E2E2E2E2E2E2E2E2E2E2E2E2E2E2E2E2E2E2E2E2E2E2E2E2E2E2E2E2E2E2E2E2E2E2E2E2E2E2E2E2E2E2E2E2E2E2E2E2E2E2E2E2E2E2E2E2F5E2E2E2E2E2E2E2E2E2E2E2E2E2E2E2E2E2E2E2E2
310
E2E2E2E2E2E2E2E2E2E2E2E2E2E2E2E2E2E2E2E2E2E2E2E2E2E2E2E2E2E2E2E2E2E2E2E2E2E2E2E2E2E2E2E2E2E2E2E2E2E2E2E2E2E2E2E2E2E2E2E2E2E2E2E2E2E2E2E2E2E2E2E2E2E2E2E2E2E2E2E2E2E2E2E2E2E2E2E2E2E2E2E2E2E2F5E2E2E2E2E2E2E2E2E2E2E2E2E2E2E2E2E2E2E2E2E2E2E2E2E2E2E2E2E2E2E2E2
310
E2E2E2E2E2E2E2E2E2E2E2E2E2E2E2E2E2E2E2E9E2E2E2E2E2E2E2E2E2E2E2E2E2E2E2E2E2E2E2E2E2E2E2E2E2E2E2E2E2E2E2E2E2E2E2E2E2E2E2E2E2E2E2E2E2E2E2E2E2E2E2E2E2E2E2E2E2E2E2E2E2E2E2E2E2E2E2E2E2E2E2E2E2E2E2E2E2E2E2E2E2E2E2E2E2E2E2E2F5E2E2E2E2E2E2E2E2E2E2E2E2E2E2E2E2E2E2
310
E2E2E2E2E2E2E2E2E2E2E2E2E2E2E2E2E2E2E2E2E2E2E2E2E2E2E2E2E2E2E2E2E2E2E2E2E2E2E2E2E2E2E2E2E2E2E2E2E2E2E2E2E2E2E2E2E2E2E2E2E2E2E2E2E2E2E2E2E2E2E2E2E2E2E2E2E2E2E2E2E2E2E2E2E2E2E2E2E2E2E2E2E2E2E2E2F5E2E2E2E2E2E2E2E2E2E2E2E2E2E2E2E2E2E2E2E2E2E2E2E2E2E2E2E2E2E2
310
E2E2E2E2E2E2E2E2E2E2E2E2E2E2E2E2E2E2E2E2E2E9E2E2E2E2E2E2E2E2E2E2E2E2E2E2E2E2E2E2E2E2E2E2E2E2E2E2E2E2E2E2E2E2E2E2E2E2E2E2E2E2E2E2E2E2E2E2E2E2E2E2E2E2E2E2E2E2E2E2E2E2E2E2E2E2E2E2E2E2E2E2E2E2E2E2E2E2E2E2E2E2E2E2E2E2E2E2E2E2F5E2E2E2E2E2E2E2E2E2E2E2E2E2E2E2E2
310
E2E2E2E2E2E2E2E2E2E2E2E2E2E2E2E2E2E2E2E2E2E2E2E2E2E2E2E2E2E2E2E2E2E2E2E2E2E2E2E2E2E2E2E2E2E2E2E2E2E2E2E2E2E2E2E2E2E2E2E2E2E2E2E2E2E2E2E2E2E2E2E2E2E2E2E2E2E2E2E2E2E2E2E2E2E2E2E2E2E2E2E2E2E2E2E2E2E2F5E2E2E2E2E2E2E2E2E2E2E2E2E2E2E2E2E2E2E2E2E2E2E2E2E2E2E2E2
310
E2E2E2E2E2E2E2E2E2E2E2E2E2E2E2E2E2E2E2E2E2E2E2E9E2E2E2E2E2E2E2E2E2E2E2E2E2E2E2E2E2E2E2E2E2E2E2E2E2E2E2E2E2E2E2E2E2E2E2E2E2E2E2E2E2E2E2E2E2E2E2E2E2E2E2E2E2E2E2E2E2E2E2E2E2E2E2E2E2E2E2E2E2E2E2E2E2E2E2E2E2E2E2E2E2E2E2E2E2E2E2E2F5E2E2E2E2E2E2E2E2E2E2E2E2E2E2
310
E2E2E2E2E2E2E2E2E2E2E2E2E2E2E2E2E2E2E2E2E2E2E2E2E2E2E2E2E2E2E2E2E2E2E2E2E2E2E2E2E2E2E2E2E2E2E2E2E2E2E2E2E2E2E2E2E2E2E2E2E2E2E2E2E2E2E2E2E2E2E2E2E2E2E2E2E2E2E2E2E2E2E2E2E2E2E2E2E2E2E2E2E2E2E2E2E2E2E2E2F5E2E2E2E2E2E2E2E2E2E2E2E2E2E2E2E2E2E2E2E2E2E2E2E2E2E2
310
E2E2E2E2E2E2E2E2E2E2E2E2E2E2E2E2E2E2E2E2E2E2E2E2E2E9E2E2E2E2E2E2E2E2E2E2E2E2E2E2E2E2E2E2E2E2E2E2E2E2E2E2E2E2E2E2E2E2E2E2E2E2E2E2E2E2E2E2E2E2E2E2E2E2E2E2E2E2E2E2E2E2E2E2E2E2E2E2E2E2E2E2E2E2E2E2E2E2E2E2E2E2E2E2E2E2E2E2E2E2E2E2E2E2F5E2E2E2E2E2E2E2E2E2E2E2E2
310
E2E2E2E2E2E2E2E2E2E2E2E2E2E2E2E2E2E2E2E2E2E2E2E2E2E2E2E2E2E2E2E2E2E2E2E2E2E2E2E2E2E2E2E2E2E2E2E2E2E2E2E2E2E2E2E2E2E2E2E2E2E2E2E2E2E2E2E2E2E2E2E2E2E2E2E2E2E2E2E2E2E2E2E2E2E2E2E2E2E2E2E2E2E2E2E2E2E2E2E2E2E2F5E2E2E2E2E2E2E2E2E2E2E2E2E2E2E2E2E2E2E2E2E2E2E2E2
310
E2E2E2E2E2E2E2E2E2E2E2E2E2E2E2E2E2E2E2E2E2E2E2E2E2E2E2E9E2E2E2E2E2E2E2E2E2E2E2E2E2E2E2E2E2E2E2E2E2E2E2E2E2E2E2E2E2E2E2E2E2E2E2E2E2E2E2E2E2E2E2E2E2E2E2E2E2E2E2E2E2E2E2E2E2E2E2E2E2E2E2E2E2E2E2E2E2E2E2E2E2E2E2E2E2E2E2E2E2E2E2E2E2E2E2E2F5E2E2E2E2E2E2E2E2E2E2
310
E2E2E2E2E2E2E2E2E2E2E2E2E2E2E2E2E2E2E2E2E2E2E2E2E2E2E2E2E2E2E2E2E2E2E2E2E2E2E2E2E2E2E2E2E2E2E2E2E2E2E2E2E2E2E2E2E2E2E2E2E2E2E2E2E2E2E2E2E2E2E2E2E2E2E2E2E2E2E2E2E2E2E2E2E2E2E2E2E2E2E2E2E2E2E2E2E2E2E2E2E2E2E2E2F5E2E2E2E2E2E2E2E2E2E2E2E2E2E2E2E2E2E2E2E2E2E2
310
E2E2E2E2E2E2E2E2E2E2E2E2E2E2E2E2E2E2E2E2E2E2E2E2E2E2E2E2E2E9E2E2E2E2E2E2E2E2E2E2E2E2E2E2E2E2E2E2E2E2E2E2E2E2E2E2E2E2E2E2E2E2E2E2E2E2E2E2E2E2E2E2E2E2E2E2E2E2E2E2E2E2E2E2E2E2E2E2E2E2E2E2E2E2E2E2E2E2E2E2E2E2E2E2E2E2E2E2E2E2E2E2E2E2E2E2E2E2F5E2E2E2E2E2E2E2E2
310
E2E2E2E2E2E2E2E2E2E2E2E2E2E2E2E2E2E2E2E2E2E2E2E2E2E2E2E2E2E2E2E2E2E2E2E2E2E2E2E2E2E2E2E2E2E2E2E2E2E2E2E2E2E2E2E2E2E2E2E2E2E2E2E2E2E2E2E2E2E2E2E2E2E2E2E2E2E2E2E2E2E2E2E2E2E2E2E2E2E2E2E2E2E2E2E2E2E2E2E2E2E2E2E2E2E2F5E2E2E2E2E2E2E2E2E2E2E2E2E2E2E2E2E2E2E2E2
310
E2E2E2E2E2E2E2E2E2E2E2E2E2E2E2E2E2E2E2E2E2E2E2E2E2E2E2E2E2E2E2E9E2E2E2E2E2E2E2E2E2E2E2E2E2E2E2E2E2E2E2E2E2E2E2E2E2E2E2E2E2E2E2E2E2E2E2E2E2E2E2E2E2E2E2E2E2E2E2E2E2E2E2E2E2E2E2E2E2E2E2E2E2E2E2E2E2E2E2E2E2E2E2E2E2E2E2E2E2E2E2E2E2E2E2E2E2E2E2E2F5E2E2E2E2E2E2
310
E2E2E2E2E2E2E2E2E2E2E2E2E2E2E2E2E2E2E2E2E2E2E2E2E2E2E2E2E2E2E2E2E2E2E2E2E2E2E2E2E2E2E2E2E2E2E2E2E2E2E2E2E2E2E2E2E2E2E2E2E2E2E2E2E2E2E2E2E228282828282828282828282828282828282828282828282828282828282828282828282828282828E2E2E2E2E2E2E2E2E2E2E2E2E2E2E2E2E2E2
310
E2E2E2E2E2E2E2E2E2E2E2E2E2E2E2E2E2E2E2E2E2E2E2E2E2E2E2E2E2E2E2E2E2E9E2E2E2E2E2E2E2E2E2E2E2E2E2E2E2E2E2E2E2E2E2E2E2E2E2E2E2E2E2E2E2E2E2E2E2E2E2E2E2E2E2E2E2E2E2E2E2E2E2E2E2E2E2E2E2E2E2E2E2E2E2E2E2E2E2E2E2E2E2E2E2E2E2E2E2E2E2E2E2E2E2E2E2E2E2E2E2E2F5E2E2E2E2
310
E2E2E2E2E2E2E2E2E2E2E2E2E2E2E2E2E2E2E2E2E2E2E2E2E2E2E2E2E2E2E2E2E2E2E2E2E2E2E2E2E2E2E2E2E2E2E2E2E2E2E2E2E2E2E2E2E2E2E2E2E2E2E2E2E2E2E2E2E2E2E228282828282828282828282828282828282828282828282828282828282828282828282828282828E2E2E2E2E2E2E2E2E2E2E2E2E2E2E2E2
310
E2E2E2E2E2E2E2E2E2E2E2E2E2E2E2E2E2E2E2E2E2E2E2E2E2E2E2E2E2E2E2E2E2E2E2E9E2E2E2E2E2E2E2E2E2E2E2E2E2E2E2E2E2E2E2E2E2E2E2E2E2E2E2E2E2E2E2E2E2E2E2E2E2E2E2E2E2E2E2E2E2E2E2E2E2E2E2E2E2E2E2E2E2E2E2E2E2E2E2E2E2E2E2E2E2E2E2E2E2E2E2E2E2E2E2E2E2E2E2E2E2E2E2E2F5E2E2
310
E2E2E2E2E2E2E2E2E2E2E2E2E2E2E2E2E2E2E2E2E2E2E2E2E2E2E2E2E2E2E2E2E2E2E2E2E2E2E2E2E2E2E2E2E2E2E2E2E2E2E2E2E2E2E2E2E2E2E2E2E2E2E2E2E2E2E2E2E2E2E2E2E228E228E2E2E2E2E2E2E2E2E2E2E2E2E2E2E2E2E2E2E2E2E2E228E2E2E2E2E2E2E2E228E2E2E2E2F5E2E2E2E2E2E2E2E2E2E2E2E2E2E2
310
E2E2E2E2E2E2E2E2E2E2E2E2E2E2E2E2E2E2E2E2E2E2E2E2E2E2E2E2E2E2E2E2E2E2E2E2E2E9E2E2E2E2E2E2E2E2E2E2E2E2E2E2E2E2E2E2E2E2E2E2E2E2E2E2E2E2E2E2E2E2E2E2E2E2E2E2E2E2E2E2E2E2E2E2E2E2E2E2E2E2E2E2E2E2E2E2E2E2E2E2E2E2E2E2E2E2E2E2E2E2E2E2E2E2E2E2E2E2E2E2E2E2E2E2E2E2F5
310
E2E2E2E2E2E2E2E2E2E2E2E2E2E2E2E2E2E2E2E2E2E2E2E2E2E2E2E2E2E2E2E2E2E2E2E2E2E2E2E2E2E2E2E2E2E2E2E2E2E2E2E2E2E2E2E2E2E2E2E2E2E2E2E2E2E2E2E2E2E2E2E2E2E2E228282828282828282828282828282828282828282828282828282828282828282828282828282828E2E2E2E2E2E2E2E2E2E2E2E2
310
E2E2E2E2E2E2E2E2E2E2E2E2E2E2E2E2E2E2E2E2E2E2E2E2E2E2E2E2E2E2E2E2E2E2E2E2E2E2E2E9E2E2E2E2E2E2E2E2E2E2E2E2E2E2E2E2E2E2E2E2E2E2E2E2E2E2E2E2E2E2E2E2E2E2E2E2E2E2E2E2E2E2E2E2E2E2E2E2E2E2E2E2E2E2E2E2E2E2E2E2E2E2E2E2E2E2E2E2E2E2E2E2E2E2E2E2E2E2E2E2E2E2E2E2E2E2E2
310
E2F5E2E2E2E2E2E2E2E2E2E2E2E2E2E2E2E2E2E2E2E2E2E2E2E2E2E2E2E2E2E2E2E2E2E2E2E2E2E2E2E2E2E2E2E2E2E2E2E2E2E2E2E2E2E2E2E2E2E2E2E2E2E2E2E2E2E2E2E2E2E2E2E2E2E2E228282828282828282828282828282828282828282828282828282828282828282828282828282828E2E2E2E2E2E2E2E2E2E2
310
E2E2E2E2E2E2E2E2E2E2E2E2E2E2E2E2E2E2E2E2E2E2E2E2E2E2E2E2E2E2E2E2E2E2E2E2E2E2E2E2E2E9E2E2E2E2E2E2E2E2E2E2E2E2E2E2E2E2E2E2E2E2E2E2E2E2E2E2E2E2E2E2E2E2E2E2E2E2E2E2E2E2E2E2E2E2E2E2E2E2E2E2E2E2E2E2E2E2E2E2E2E2E2E2E2E2E2E2E2E2E2E2E2E2E2E2E2E2E2E2E2E2E2E2E2E2E2
310
E2E2E2F5E2E2E2E2E2E2E2E2E2E2E2E2E2E2E2E2E2E2E2E2E2E2E2E2E2E2E2E2E2E2E2E2E2E2E2E2E2E2E2E2E2E2E2E2E2E2E2E2E2E2E2E2E2E2E2E2E2E2E2E2E2E2E2E2E2E2E2E2E2E2E2E2E2E2E228E228E2E2E2E2E2E2E2E2E2E2E2E2E2E2E2E2E2E2E2E2E2E228E2E2E2E2E2E2E2E228E2E2E2E2F5E2E2E2E2E2E2E2E2
310
E2E2E2E2E2E2E2E2E2E2E2E2E2E2E2E2E2E2E2E2E2E2E2E2E2E2E2E2E2E2E2E2E2E2E2E2E2E2E2E2E2E2E2E9E2E2E2E2E2E2E2E2E2E2E2E2E2E2E2E2E2E2E2E2E2E2E2E2E2E2E2E2E2E2E2E2E2E2E2E2E2E2E2E2E2E2E2E2E2E2E2E2E2E2E2E2E2E2E2E2E2E2E2E2E2E2E2E2E2E2E2E2E2E2E2E2E2E2E2E2E2E2E2E2E2E2E2
310
E2E2E2E2E2F5E2E2E2E2E2E2E2E2E2E2E2E2E2E2E2E2E2E2E2E2E2E2E2E2E2E2E2E2E2E2E2E2E2E2E2E2E2E2E2E2E2E2E2E2E2E2E2E2E2E2E2E2E2E2E2E2E2E2E2E2E2E2E2E2E2E2E2E2E2E2E2E2E2E2E228282828282828282828282828282828282828282828282828282828282828282828282828282828E2E2E2E2E2E2
310
E2E2E2E2E2E2E2E2E2E2E2E2E2E2E2E2E2E2E2E2E2E2E2E2E2E2E2E2E2E2E2E2E2E2E2E2E2E2E2E2E2E2E2E2E2E9E2E2E2E2E2E2E2E2E2E2E2E2E2E2E2E2E2E2E2E2E2E2E2E2E2E2E2E2E2E2E2E2E2E2E2E2E2E2E2E2E2E2E2E2E2E2E2E2E2E2E2E2E2E2E2E2E2E2E2E2E2E2E2E2E2E2E2E2E2E2E2E2E2E2E2E2E2E2E2E2E2
310
E2E2E2E2E2E2E2F5E2E2E2E2E2E2E2E2E2E2E2E2E2E2E2E2E2E2E2E2E2E2E2E2E2E2E2E2E2E2E2E2E2E2E2E2E2E2E2E2E2E2E2E2E2E2E2E2E2E2E2E2E2E2E2E2E2E2E2E2E2E2E2E2E2E2E2E2E2E2E2E2E2E2E2282828E2E2E2E2E2E2E2E2282828282828E2E2E2E2E2E2E2E22828282828282828282828282828F5E2E2E2E2
310
E2E2E2E2E2E2E2E2E2E2E2E2E2E2E2E2E2E2E2E2E2E2E2E2E2E2E2E2E2E2E2E2E2E2E2E2E2E2E2E2E2E2E2E2E2E2E2E9E2E2E2E2E2E2E2E2E2E2E2E2E2E2E2E2E2E2E2E2E2E2E2E2E2E2E2E2E2E2E2E2E2E2E2E2E2E2E2E2E2E2E2E2E2E2E2E2E2E2E2E2E2E2E2E2E2E2E2E2E2E2E2E2E2E2E2E2E2E2E2E2E2E2E2E2E2E2E2
310
E2E2E2E2E2E2E2E2E2F5F5F5F5F5F5F5F5F5F5F5F5F5F5F5F5F5F5F5F5F5F5F5F5F5F5F5F5F5F5F5F5F5F5F5F5F5F5F5F5F5F5F5F5F5F5F5F5F5F5F5F5F5F5F5F5F5F5F5F5F5F5F5F5F5F5F5F5F5F5F5F5F5F5F5F528F528F5F5F5F5F5F5F5F5F5F5F5F5F5F5F5F5F5F5F5F5F5F528F5F5F5F5F5F5F5F528F5F5F5F5F5E2E2
310
E2E2E2E2E2E2E2E2E2E2E2E2E2E2E2E2E2E2E2E2E2E2E2E2E2E2E2E2E2E2E2E2E2E2E2E2E2E2E2E2E2E2E2E2E2E2E2E2E2E9E2E2E2E2E2E2E2E2E2E2E2E2E2E2E2E2E2E2E2E2E2E2E2E2E2E2E2E2E2E2E2E2E2E2E2E2E2E2E2E2E2E2E2E2E2E2E2E2E2E2E2E2E2E2E2E2E2E2E2E2E2E2E2E2E2E2E2E2E2E2E2E2E2E2E2E2E2
310
E2E2E2E2E2E2E2E2E2E2E2E2E2E2E2E2E2E2E2E2E2E2E2E2E2E2E2E2E2E2E2E2E2E2E2E2E2E2E2E2E2E2E2E2E2E2E2E2E2E2E2E2E2E2E2E2E2E2E2E2E2E2E2E2E2E2E2E2E2E2E2E2E2E2E2E2E2E2E2E2E2E2E2E2E2E2E2E2E2E2E2E2E2E2E2E2E2E2E2E2E2E2E2E2E2E2E2E2E2E2E2E2E2E2E2E2E2E2E2E2E2E2E2E2E2E2E2
310
E2E2E2E2E2E2E2E2E2E2E2E2E2E2E2E2E2E2E2E2E2E2E2E2E2E2E2E2E2E2E2E2E2E2E2E2E2E2E2E2E2E2E2E2E2E2E2E2E2E2E2E9E2E2E2E2E2E2E2E2E2E2E2E2E2E2E2E2E2E2E2E2E2E2E2E2E2E2E2E2E2E2E2E2E2E2E2E2E2E2E2E2E2E2E2E2E2E2E2E2E2E2E2E2E2E2E2E2E2E2E2E2E2E2E2E2E2E2E2E2E2E2E2E2E2E2E2
310
E2E2E2E2E2E2E2E2E2E2E2E2E2E2E2E2E2E2E2E2E2E2E2E2E2E2E2E2E2E2E2E2E2E2E2E2E2E2E2E2E2E2E2E2E2E2E2E2E2E2E2E2E2E2E2E2E2E2E2E2E2E2E2E2E2E2E2E2E2E2E2E2E2E2E2E2E2E2E2E2E2E2E2E2E2E2E2E2E2E2E2E2E2E2E2E2E2E2E2E2E2E2E2E2E2E2E2E2E2E2E2E2E2E2E2E2E2E2E2E2E2E2E2E2E2E2E2
310
E2E2E2E2E2E2E2E2E2E2E2E2E2E2E2E2E2E2E2E2E2E2E2E2E2E2E2E2E2E2E2E2E2E2E2E2E2E2E2E2E2E2E2E2E2E2E2E2E2E2E2E2E2E9E2E2E2E2E2E2E2E2E2E2E2E2E2E2E2E2E2E2E2E2E2E2E2E2E2E2E2E2E2E2E2E2E2E2E2E2E2E2E2E2E2E2E2E2E2E2E2E2E2E2E2E2E2E2E2E2E2E2E2E2E2E2E2E2E2E2E2E2E2E2E2E2E2
310
E2E2E2E2E2E2E2E2E2E2E2E2E2E2E2E2E2E2E2E2E2E2E2E2E2E2E2E2E2E2E2E2E2E2E2E2E2E2E2E2E2E2E2E2E2E2E2E2E2E2E2E2E2E2E2E2E2E2E2E2E2E2E2E2E2E2E2E2E2E2E2E2E2E2E2E2E2E2E2E2E2E2E2E2E2E2E2E2E2E2E2E2E2E2E2E2E2E2E2E2E2E2E2E2E2E2E2E2E2E2E2E2E2E2E2E2E2E2E2E2E2E2E2E2E2E2E2
310
E2E2E2E2E2E2E2E2E2E2E2E2E2E2E2E2E2E2E2E2E2E2E2E2E2E2E2E2E2E2E2E2E2E2E2E2E2E2E2E2E2E2E2E2E2E2E2E2E2E2E2E2E2E2E2E9E2E2E2E2E2E2E2E2E2E2E2E2E2E2E2E2E2E2E2E2E2E2E2E2E2E2E2E2E2E2E2E2E2E2E2E2E2E2E2E2E2E2E2E2E2E2E2E2E2E2E2E2E2E2E2E2E2E2E2E2E2E2E2E2E2E2E2E2E2E2E2
310
E2E2E2E2E2E2E2E2E2E2E2E2E2E2E2E2E2E2E2E2E2E2E2E2E2E2E2E2E2E2E2E2E2E2E2E2E2E2E2E2E2E2E2E2E2E2E2E2E2E2E2E2E2E2E2E2E2E2E2E2E2E2E2E2E2E2E2E2E2E2E2E2E2E2E2E2E2E2E2E2E2E2E2E2E2E2E2E2E2E2E2E2E2E2E2E2E2E2E2E2E2E2E2E2E2E2E2E2E2E2E2E2E2E2E2E2E2E2E2E2E2E2E2E2E2E2E2
310
E2E2E2E2E2E2E2E2E2E2E2E2E2E2E2E2E2E2E2E2E2E2E2E2E2E2E2E2E2E2E2E2E2E2E2E2E2E2E2E2E2E2E2E2E2E2E2E2E2E2E2E2E2E2E2E2E2E9E2E2E2E2E2E2E2E2E2E2E2E2E2E2E2E2E2E2E2E2E2E2E2E2E2E2E2E2E2E2E2E2E2E2E2E2E2E2E2E2E2E2E2E2E2E2E2E2E2E2E2E2E2E2E2E2E2E2E2E2E2E2E2E2E2E2E2E2E2
310
E2E2E2E2E2E2E2E2E2E2E2E2E2E2E2E2E2E2E2E2E2E2E2E2E2E2E2E2E2E2E2E2E2E2E2E2E2E2E2E2E2E2E2E2E2E2E2E2E2E2E2E2E2E2E2E2E2E2E2E2E2E2E2E2E2E2E2E2E2E2E2E2E2E2E2E2E2E2E2E2E2E2E2E2E2E2E2E2E2E2E2E2E2E2E2E2E2E2E2E2E2E2E2E2E2E2E2E2E2E2E2E2E2E2E2E2E2E2E2E2E2E2E2E2E2E2E2
310
E2E2E2E2E2E2E2E2E2E2E2E2E2E2E2E2E2E2E2E2E2E2E2E2E2E2E2E2E2E2E2E2E2E2E2E2E2E2E2E2E2E2E2E2E2E2E2E2E2E2E2E2E2E2E2E2E2E2E2E9E2E2E2E2E2E2E2E2E2E2E2E2E2E2E2E2E2E2E2E2E2E2E2E2E2E2E2E2E2E2E2E2E2E2E2E2E2E2E2E2E2E2E2E2E2E2E2E2E2E2E2E2E2E2E2E2E2E2E2E2E2E2E2E2E2E2E2
310
E2E2E2E2E2E2E2E2E2E2E2E2E2E2E2E2E2E2E2E2E2E2E2E2E2E2E2E2E2E2E2E2E2E2E2E2E2E2E2E2E2E2E2E2E2E2E2E2E2E2E2E2E2E2E2E2E2E2E2E2E2E2E2E2E2E2E2E2E2E2E2E2E2E2E2E2E2E2E2E2E2E2E2E2E2E2E2E2E2E2E2E2E2E2E2E2E2E2E2E2E2E2E2E2E2E2E2E2E2E2E2E2E2E2E2E2E2E2E2E2E2E2E2E2E2E2E2
310
E2E2E2E2E2E2E2E2E2E2E2E2E2E2E2E2E2E2E2E2E2E2E2E2E2E2E2E2E2E2E2E2E2E2E2E2E2E2E2E2E2E2E2E2E2E2E2E2E2E2E2E2E2E2E2E2E2E2E2E2E2E9E2E2E2E2E2E2E2E2E2E2E2E2E2E2E2E2E2E2E2E2E2E2E2E2E2E2E2E2E2E2E2E2E2E2E2E2E2E2E2E2E2E2E2E2E2E2E2E2E2E2E2E2E2E2E2E2E2E2E2E2E2E2E2E2E2
310
E2E2E2E2E2E2E2E2E2E2E2E2E2E2E2E2E2E2E2E2E2E2E2E2E2E2E2E2E2E2E2E2E2E2E2E2E2E2E2E2E2E2E2E2E2E2E2E2E2E2E2E2E2E2E2E2E2E2E2E2E2E2E2E2E2E2E2E2E2E2E2E2E2E2E2E2E2E2E2E2E2E2E2E2E2E2E2E2E2E2E2E2E2E2E2E2E2E2E2E2E2E2E2E2E2E2E2E2E2E2E2E2E2E2E2E2E2E2E2E2E2E2E2E2E2E2E2
310
E2E2E2E2E2E2E2E2E2E2E2E2E2E2E2E2E2E2E2E2E2E2E2E2E2E2E2E2E2E2E2E2E2E2E2E2E2E2E2E2E2E2E2E2E2E2E2E2E2E2E2E2E2E2E2E2E2E2E2E2E2E2E2E9E2E2E2E2E2E2E2E2E2E2E2E2E2E2E2E2E2E2E2E2E2E2E2E2E2E2E2E2E2E2E2E2E2E2E2E2E2E2E2E2E2E2E2E2E2E2E2E2E2E2E2E2E2E2E2E2E2E2E2E2E2E2E2
310
E2E2E2E2E2E2E2E2E2E2E2E2E2E2E2E2E2E2E2E2E2E2E2E2E2E2E2E2E2E2E2E2E2E2E2E2E2E2E2E2E2E2E2E2E2E2E2E2E2E2E2E2E2E2E2E2E2E2E2E2E2E2E2E2E2E2E2E2E2E2E2E2E2E2E2E2E2E2E2E2E2E2E2E2E2E2E2E2E2E2E2E2E2E2E2E2E2E2E2E2E2E2E2E2E2E2E2E2E2E2E2E2E2E2E2E2E2E2E2E2E2E2E2E2E2E2E2
310
E2E2E2E2E2E2E2E2E2E2E2E2E2E2E2E2E2E2E2E2E2E2E2E2E2E2E2E2E2E2E2E2E2E2E2E2E2E2E2E2E2E2E2E2E2E2E2E2E2E2E2E2E2E2E2E2E2E2E2E2E2E2E2E2E2E9E2E2E2E2E2E2E2E2E2E2E2E2E2E2E2E2E2E2E2E2E2E2E2E2E2E2E2E2E2E2E2E2E2E2E2E2E2E2E2E2E2E2E2E2E2E2E2E2E2E2E2E2E2E2E2E2E2E2E2E2E2
310
E2E2E2E2E2E2E2E2E2E2E2E2E2E2E2E2E2E2E2E2E2E2E2E2E2E2E2E2E2E2E2E2E2E2E2E2E2E2E2E2E2E2E2E2E2E2E2E2E2E2E2E2E2E2E2E2E2E2E2E2E2E2E2E2E2E2E2E2E2E2E2E2E2E2E2E2E2E2E2E2E2E2E2E2E2E2E2E2E2E2E2E2E2E2E2E2E2E2E2E2E2E2E2E2E2E2E2E2E2E2E2E2E2E2E2E2E2E2E2E2E2E2E2E2E2E2E2
310
E2E2E2E2E2E2E2E2E2E2E2E2E2E2E2E2E2E2E2E2E2E2E2E2E2E2E2E2E2E2E2E2E2E2E2E2E2E2E2E2E2E2E2E2E2E2E2E2E2E2E2E2E2E2E2E2E2E2E2E2E2E2E2E2E2E2E2E9E2E2E2E2E2E2E2E2E2E2E2E2E2E2E2E2E2E2E2E2E2E2E2E2E2E2E2E2E2E2E2E2E2E2E2E2E2E2E2E2E2E2E2E2E2E2E2E2E2E2E2E2E2E2E2E2E2E2E2
310
E2E2E2E2E2E2E2E2E2E2E2E2E2E2E2E2E2E2E2E2E2E2E2E2E2E2E2E2E2E2E2E2E2E2E2E2E2E2E2E2E2E2E2E2E2E2E2E2E2E2E2E2E2E2E2E2E2E2E2E2E2E2E2E2E2E2E2E2E2E2E2E2E2E2E2E2E2E2E2E2E2E2E2E2E2E2E2E2E2E2E2E2E2E2E2E2E2E2E2E2E2E2E2E2E2E2E2E2E2E2E2E2E2E2E2E2E2E2E2E2E2E2E2E2E2E2E2
310
E2E2E2E2E2E2E2E2E2E2E2E2E2E2E2E2E2E2E2E2E2E2E2E2E2E2E2E2E2E2E2E2E2E2E2E2E2E2E2E2E2E2E2E2E2E2E2E2E2E2E2E2E2E2E2E2E2E2E2E2E2E2E2E2E2E2E2E2E2E9E2E2E2E2E2E2E2E2E2E2E2E2E2E2E2E2E2E2E2E2E2E2E2E2E2E2E2E2E2E2E2E2E2E2E2E2E2E2E2E2E2E2E2E2E2E2E2E2E2E2E2E2E2E2E2E2E2
310
E2E2E2E2E2E2E2E2E2E2E2E2E2E2E2E2E2E2E2E2E2E2E2E2E2E2E2E2E2E2E2E2E2E2E2E2E2E2E2E2E2E2E2E2E2E2E2E2E2E2E2E2E2E2E2E2E2E2E2E2E2E2E2E2E2E2E2E2E2E2E2E2E2E2E2E2E2E2E2E2E2E2E2E2E2E2E2E2E2E2E2E2E2E2E2E2E2E2E2E2E2E2E2E2E2E2E2E2E2E2E2E2E2E2E2E2E2E2E2E2E2E2E2E2E2E2E2
310
E2E2E2E2E2E2E2E2E2E2E2E2E2E2E2E2E2E2E2E2E2E2E2E2E2E2E2E2E2E2E2E2E2E2E2E2E2E2E2E2E2E2E2E2E2E2E2E2E2E2E2E2E2E2E2E2E2E2E2E2E2E2E2E2E2E2E2E2E2E2E2E9E2E2E2E2E2E2E2E2E2E2E2E2E2E2E2E2E2E2E2E2E2E2E2E2E2E2E2E2E2E2E2E2E2E2E2E2E2E2E2E2E2E2E2E2E2E2E2E2E2E2E2E2E2E2E2
310
E2E2E2E2E2E2E2E2E2E2E2E2E2E2E2E2E2E2E2E2E2E2E2E2E2E2E2E2E2E2E2E2E2E2E2E2E2E2E2E2E2E2E2E2E2E2E2E2E2E2E2E2E2E2E2E2E2E2E2E2E2E2E2E2E2E2E2E2E2E2E2E2E2E2E2E2E2E2E2E2E2E2E2E2E2E2E2E2E2E2E2E2E2E2E2E2E2E2E2E2E2E2E2E2E2E2E2E2E2E2E2E2E2E2E2E2E2E2E2E2E2E2E2E2E2E2E2
310
E2E2E2E2E2E2E2E2E2E2E2E2E2E2E2E2E2E2E2E2E2E2E2E2E2E2E2E2E2E2E2E2E2E2E2E2E2E2E2E2E2E2E2E2E2E2E2E2E2E2E2E2E2E2E2E2E2E2E2E2E2E2E2E2E2E2E2E2E2E2E2E2E2E9E2E2E2E2E2E2E2E2E2E2E2E2E2E2E2E2E2E2E2E2E2E2E2E2E2E2E2E2E2E2E2E2E2E2E2E2E2E2E2E2E2E2E2E2E2E2E2E2E2E2E2E2E2
310
E2E2E2E2E2E2E2E2E2E2E2E2E2E2E2E2E2E2E2E2E2E2E2E2E2E2E2E2E2E2E2E2E2E2E2E2E2E2E2E2E2E2E2E2E2E2E2E2E2E2E2E2E2E2E2E2E2E2E2E2E2E2E2E2E2E2E2E2E2E2E2E2E2E2E2E2E2E2E2E2E2E2E2E2E2E2E2E2E2E2E2E2E2E2E2E2E2E2E2E2E2E2E2E2E2E2E2E2E2E2E2E2E2E2E2E2E2E2E2E2E2E2E2E2E2E2E2
310
E2E2E2E2E2E2E2E2E2E2E2E2E2E2E2E2E2E2E2E2E2E2E2E2E2E2E2E2E2E2E2E2E2E2E2E2E2E2E2E2E2E2E2E2E2E2E2E2E2E2E2E2E2E2E2E2E2E2E2E2E2E2E2E2E2E2E2E2E2E2E2E2E2E2E2E9E2E2E2E2E2E2E2E2E2E2E2E2E2E2E2E2E2E2E2E2E2E2E2E2E2E2E2E2E2E2E2E2E2E2E2E2E2E2E2E2E2E2E2E2E2E2E2E2E2E2E2
310
E2E2E2E2E2E2E2E2E2E2E2E2E2E2E2E2E2E2E2E2E2E2E2E2E2E2E2E2E2E2E2E2E2E2E2E2E2E2E2E2E2E2E2E2E2E2E2E2E2E2E2E2E2E2E2E2E2E2E2E2E2E2E2E2E2E2E2E2E2E2E2E2E2E2E2E2E2E2E2E2E2E2E2E2E2E2E2E2E2E2E2E2E2E2E2E2E2E2E2E2E2E2E2E2E2E2E2E2E2E2E2E2E2E2E2E2E2E2E2E2E2E2E2E2E2E2E2
310
E2E2E2E2E2E2E2E2E2E2E2E2E2E2E2E2E2E2E2E2E2E2E2E2E2E2E2E2E2E2E2E2E2E2E2E2E2E2E2E2E2E2E2E2E2E2E2E2E2E2E2E2E2E2E2E2E2E2E2E2E2E2E2E2E2E2E2E2E2E2E2E2E2E2E2E2E2E9E2E2E2E2E2E2E2E2E2E2E2E2E2E2E2E2E2E2E2E2E2E2E2E2E2E2E2E2E2E2E2E2E2E2E2E2E2E2E2E2E2E2E2E2E2E2E2E2E2
310
E2E2E2E2E2E2E2E2E2E2E2E2E2E2E2E2E2E2E2E2E2E2E2E2E2E2E2E2E2E2E2E2E2E2E2E2E2E2E2E2E2E2E2E2E2E2E2E2E2E2E2E2E2E2E2E2E2E2E2E2E2E2E2E2E2E2E2E2E2E2E2E2E2E2E2E2E2E2E2E2E2E2E2E2E2E2E2E2E2E2E2E2E2E2E2E2E2E2E2E2E2E2E2E2E2E2E2E2E2E2E2E2E2E2E2E2E2E2E2E2E2E2E2E2E2E2E2
310
E2E2E2E2E2E2E2E2E2E2E2E2E2E2E2E2E2E2E2E2E2E2E2E2E2E2E2E2E2E2E2E2E2E2E2E2E2E2E2E2E2E2E2E2E2E2E2E2E2E2E2E2E2E2E2E2E2E2E2E2E2E2E2E2E2E2E2E2E2E2E2E2E2E2E2E2E2E2E2E9E2E2E2E2E2E2E2E2E2E2E2E2E2E2E2E2E2E2E2E2E2E2E2E2E2E2E2E2E2E2E2E2E2E2E2E2E2E2E2E2E2E2E2E2E2E2E2
310
E2E2E2E2E2E2E2E2E2E2E2E2E2E2E2E2E2E2E2E2E2E2E2E2E2E2E2E2E2E2E2E2E2E2E2E2E2E2E2E2E2E2E2E2E2E2E2E2E2E2E2E2E2E2E2E2E2E2E2E2E2E2E2E2E2E2E2E2E2E2E2E2E2E2E2E2E2E2E2E2E2E2E2E2E2E2E2E2E2E2E2E2E2E2E2E2E2E2E2E2E2E2E2E2E2E2E2E2E2E2E2E2E2E2E2E2E2E2E2E2E2E2E2E2E2E2E2
310
E2E2E2E2E2E2E2E2E2E2E2E2E2E2E2E2E2E2E2E2E2E2E2E2E2E2E2E2E2E2E2E2E2E2E2E2E2E2E2E2E2E2E2E2E2E2E2E2E2E2E2E2E2E2E2E2E2E2E2E2E2E2E2E2E2E2E2E2E2E2E2E2E2E2E2E2E2E2E2E2E2E9E2E2E2E2E2E2E2E2E2E2E2E2E2E2E2E2E2E2E2E2E2E2E2E2E2E2E2E2E2E2E2E2E2E2E2E2E2E2E2E2E2E2E2E2E2
310
E2E2E2E2E2E2E2E2E2E2E2E2E2E2E2E2E2E2E2E2E2E2E2E2E2E2E2E2E2E2E2E2E2E2E2E2E2E2E2E2E2E2E2E2E2E2E2E2E2E2E2E2E2E2E2E2E2E2E2E2E2E2E2E2E2E2E2E2E2E2E2E2E2E2E2E2E2E2E2E2E2E2E2E2E2E2E2E2E2E2E2E2E2E2E2E2E2E2E2E2E2E2E2E2E2E2E2E2E2E2E2E2E2E2E2E2E2E2E2E2E2E2E2E2E2E2E2
310
E2E2E2E2E2E2E2E2E2E2E2E2E2E2E2E2E2E2E2E2E2E2E2E2E2E2E2E2E2E2E2E2E2E2E2E2E2E2E2E2E2E2E2E2E2E2E2E2E2E2E2E2E2E2E2E2E2E2E2E2E2E2E2E2E2E2E2E2E2E2E2E2E2E2E2E2E2E2E2E2E2E2E2E9E2E2E2E2E2E2E2E2E2E2E2E2E2E2E2E2E2E2E2E2E2E2E2E2E2E2E2E2E2E2E2E2E2E2E2E2E2E2E2E2E2E2E2
310
E2E2E2E2E2E2E2E2E2E2E2E2E2E2E2E2E2E2E2E2E2E2E2E2E2E2E2E2E2E2E2E2E2E2E2E2E2E2E2E2E2E2E2E2E2E2E2E2E2E2E2E2E2E2E2E2E2E2E2E2E2E2E2E2E2E2E2E2E2E2E2E2E2E2E2E2E2E2E2E2E2E2E2E2E2E2E2E2E2E2E2E2E2E2E2E2E2E2E2E2E2E2E2E2E2E2E2E2E2E2E2E2E2E2E2E2E2E2E2E2E2E2E2E2E2E2E2
310
E2E2E2E2E2E2E2E2E2E2E2E2E2E2E2E2E2E2E2E2E2E2E2E2E2E2E2E2E2E2E2E2E2E2E2E2E2E2E2E2E2E2E2E2E2E2E2E2E2E2E2E2E2E2E2E2E2E2E2E2E2E2E2E2E2E2E2E2E2E2E2E2E2E2E2E2E2E2E2E2E2E2E2E2E2E9E2E2E2E2E2E2E2E2E2E2E2E2E2E2E2E2E2E2E2E2E2E2E2E2E2E2E2E2E2E2E2E2E2E2E2E2E2E2E2E2E2
310
E2E2E2E2E2E2E2E2E2E2E2E2E2E2E2E2E2E2E2E2E2E2E2E2E2E2E2E2E2E2E2E2E2E2E2E2E2E2E2E2E2E2E2E2E2E2E2E2E2E2E2E2E2E2E2E2E2E2E2E2E2E2E2E2E2E2E2E2E2E2E2E2E2E2E2E2E2E2E2E2E2E2E2E2E2E2E2E2E2E2E2E2E2E2E2E2E2E2E2E2E2E2E2E2E2E2E2E2E2E2E2E2E2E2E2E2E2E2E2E2E2E2E2E2E2E2E2
310
E2E2E2E2E2E2E2E2E2E2E2E2E2E2E2E2E2E2E2E2E2E2E2E2E2E2E2E2E2E2E2E2E2E2E2E2E2E2E2E2E2E2E2E2E2E2E2E2E2E2E2E2E2E2E2E2E2E2E2E2E2E2E2E2E2E2E2E2E2E2E2E2E2E2E2E2E2E2E2E2E2E2E2E2E2E2E2E9E2E2E2E2E2E2E2E2E2E2E2E2E2E2E2E2E2E2E2E2E2E2E2E2E2E2E2E2E2E2E2E2E2E2E2E2E2E2E2
310
E2E2E2E2E2E2E2E2E2E2E2E2E2E2E2E2E2E2E2E2E2E2E2E2E2E2E2E2E2E2E2E2E2E2E2E2E2E2E2E2E2E2E2E2E2E2E2E2E2E2E2E2E2E2E2E2E2E2E2E2E2E2E2E2E2E2E2E2E2E2E2E2E2E2E2E2E2E2E2E2E2E2E2E2E2E2E2E2E2E2E2E2E2E2E2E2E2E2E2E2E2E2E2E2E2E2E2E2E2E2E2E2E2E2E2E2E2E2E2E2E2E2E2E2E2E2E2
310
E2E2E2E2E2E2E2E2E2E2E2E2E2E2E2E2E2E2E2E2E2E2E2E2E2E2E2E2E2E2E2E2E2E2E2E2E2E2E2E2E2E2E2E2E2E2E2E2E2E2E2E2E2E2E2E2E2E2E2E2E2E2E2E2E2E2E2E2E2E2E2E2E2E2E2E2E2E2E2E2E2E2E2E2E2E2E2E2E2E9E2E2E2E2E2E2E2E2E2E2E2E2E2E2E2E2E2E2E2E2E2E2E2E2E2E2E2E2E2E2E2E2E2E2E2E2E2
310
E2E2E2E2E2E2E2E2E2E2E2E2E2E2E2E2E2E2E2E2E2E2E2E2E2E2E2E2E2E2E2E2E2E2E2E2E2E2E2E2E2E2E2E2E2E2E2E2E2E2E2E2E2E2E2E2E2E2E2E2E2E2E2E2E2E2E2E2E2E2E2E2E2E2E2E2E2E2E2E2E2E2E2E2E2E2E2E2E2E2E2E2E2E2E2E2E2E2E2E2E2E2E2E2E2E2E2E2E2E2E2E2E2E2E2E2E2E2E2E2E2E2E2E2E2E2E2
310
E2E2E2E2E2E2E2E2E2E2E2E2E2E2E2E2E2E2E2E2E2E2E2E2E2E2E2E2E2E2E2E2E2E2E2E2E2E2E2E2E2E2E2E2E2E2E2E2E2E2E2E2E2E2E2E2E2E2E2E2E2E2E2E2E2E2E2E2E2E2E2E2E2E2E2E2E2E2E2E2E2E2E2E2E2E2E2E2E2E2E2E9E2E2E2E2E2E2E2E2E2E2E2E2E2E2E2E2E2E2E2E2E2E2E2E2E2E2E2E2E2E2E2E2E2E2E2
310
E2E2E2E2E2E2E2E2E2E2E2E2E2E2E2E2E2E2E2E2E2E2E2E2E2E2E2E2E2E2E2E2E2E2E2E2E2E2E2E2E2E2E2E2E2E2E2E2E2E2E2E2E2E2E2E2E2E2E2E2E2E2E2E2E2E2E2E2E2E2E2E2E2E2E2E2E2E2E2E2E2E2E2E2E2E2E2E2E2E2E2E2E2E2E2E2E2E2E2E2E2E2E2E2E2E2E2E2E2E2E2E2E2E2E2E2E2E2E2E2E2E2E2E2E2E2E2
310
E2E2E2E2E2E2E2E2E2E2E2E2E2E2E2E2E2E2E2E2E2E2E2E2E2E2E2E2E2E2E2E2E2E2E2E2E2E2E2E2E2E2E2E2E2E2E2E2E2E2E2E2E2E2E2E2E2E2E2E2E2E2E2E2E2E2E2E2E2E2E2E2E2E2E2E2E2E2E2E2E2E2E2E2E2E2E2E2E2E2E2E2E2E9E2E2E2E2E2E2E2E2E2E2E2E2E2E2E2E2E2E2E2E2E2E2E2E2E2E2E2E2E2E2E2E2E2
310
E2E2E2E2E2E2E2E2E2E2E2E2E2E2E2E2E2E2E2E2E2E2E2E2E2E2E2E2E2E2E2E2E2E2E2E2E2E2E2E2E2E2E2E2E2E2E2E2E2E2E2E2E2E2E2E2E2E2E2E2E2E2E2E2E2E2E2E2E2E2E2E2E2E2E2E2E2E2E2E2E2E2E2E2E2E2E2E2E2E2E2E2E2E2E2E2E2E2E2E2E2E2E2E2E2E2E2E2E2E2E2E2E2E2E2E2E2E2E2E2E2E2E2E2E2E2E2
310
E2E2E2E2E2E2E2E2E2E2E2E2E2E2E2E2E2E2E2E2E2E2E2E2E2E2E2E2E2E2E2E2E2E2E2E2E2E2E2E2E2E2E2E2E2E2E2E2E2E2E2E2E2E2E2E2E2E2E2E2E2E2E2E2E2E2E2E2E2E2E2E2E2E2E2E2E2E2E2E2E2E2E2E2E2E2E2E2E2E2E2E2E2E2E2E9E2E2E2E2E2E2E2E2E2E2E2E2E2E2E2E2E2E2E2E2E2E2E2E2E2E2E2E2E2E2E2
310
E2E2E2E2E2E2E2E2E2E2E2E2E2E2E2E2E2E2E2E2E2E2E2E2E2E2E2E2E2E2E2E2E2E2E2E2E2E2E2E2E2E2E2E2E2E2E2E2E2E2E2E2E2E2E2E2E2E2E2E2E2E2E2E2E2E2E2E2E2E2E2E2E2E2E2E2E2E2E2E2E2E2E2E2E2E2E2E2E2E2E2E2E2E2E2E2E2E2E2E2E2E2E2E2E2E2E2E2E2E2E2E2E2E2E2E2E2E2E2E2E2E2E2E2E2E2E2
310
E2E2E2E2E2E2E2E2E2E2E2E2E2E2E2E2E2E2E2E2E2E2E2E2E2E2E2E2E2E2E2E2E2E2E2E2E2E2E2E2E2E2E2E2E2E2E2E2E2E2E2E2E2E2E2E2E2E2E2E2E2E2E2E2E2E2E2E2E2E2E2E2E2E2E2E2E2E2E2E2E2E2E2E2E2E2E2E2E2E2E2E2E2E2E2E2E2E9E2E2E2E2E2E2E2E2E2E2E2E2E2E2E2E2E2E2E2E2E2E2E2E2E2E2E2E2E2
310
E2E2E2E2E2E2E2E2E2E2E2E2E2E2E2E2E2E2E2E2E2E2E2E2E2E2E2E2E2E2E2E2E2E2E2E2E2E2E2E2E2E2E2E2E2E2E2E2E2E2E2E2E2E2E2E2E2E2E2E2E2E2E2E2E2E2E2E2E2E2E2E2E2E2E2E2E2E2E2E2E2E2E2E2E2E2E2E2E2E2E2E2E2E2E2E2E2E2E2E2E2E2E2E2E2E2E2E2E2E2E2E2E2E2E2E2E2E2E2E2E2E2E2E2E2E2E2
310
E2E2E2E2E2E2E2E2E2E2E2E2E2E2E2E2E2E2E2E2E2E2E2E2E2E2E2E2E2E2E2E2E2E2E2E2E2E2E2E2E2E2E2E2E2E2E2E2E2E2E2E2E2E2E2E2E2E2E2E2E2E2E2E2E2E2E2E2E2E2E2E2E2E2E2E2E2E2E2E2E2E2E2E2E2E2E2E2E2E2E2E2E2E2E2E2E2E2E2E9E2E2E2E2E2E2E2E2E2E2E2E2E2E2E2E2E2E2E2E2E2E2E2E2E2E2E2
310
E2E2E2E2E2E2E2E2E2E2E2E2E2E2E2E2E2E2E2E2E2E2E2E2E2E2E2E2E2E2E2E2E2E2E2E2E2E2E2E2E2E2E2E2E2E2E2E2E2E2E2E2E2E2E2E2E2E2E2E2E2E2E2E2E2E2E2E2E2E2E2E2E2E2E2E2E2E2E2E2E2E2E2E2E2E2E2E2E2E2E2E2E2E2E2E2E2E2E2E2E2E2E2E2E2E2E2E2E2E2E2E2E2E2E2E2E2E2E2E2E2E2E2E2E2E2E2
310
E2E2E2E2E2E2E2E2E2E2E2E2E2E2E2E2E2E2E2E2E2E2E2E2E2E2E2E2E2E2E2E2E2E2E2E2E2E2E2E2E2E2E2E2E2E2E2E2E2E2E2E2E2E2E2E2E2E2E2E2E2E2E2E2E2E2E2E2E2E2E2E2E2E2E2E2E2E2E2E2E2E2E2E2E2E2E2E2E2E2E2E2E2E2E2E2E2E2E2E2E2E9E2E2E2E2E2E2E2E2E2E2E2E2E2E2E2E2E2E2E2E2E2E2E2E2E2
310
E2E2E2E2E2E2E2E2E2E2E2E2E2E2E2E2E2E2E2E2E2E2E2E2E2E2E2E2E2E2E2E2E2E2E2E2E2E2E2E2E2E2E2E2E2E2E2E2E2E2E2E2E2E2E2E2E2E2E2E2E2E2E2E2E2E2E2E2E2E2E2E2E2E2E2E2E2E2E2E2E2E2E2E2E2E2E2E2E2E2E2E2E2E2E2E2E2E2E2E2E2E2E2E2E2E2E2E2E2E2E2E2E2E2E2E2E2E2E2E2E2E2E2E2E2E2E2
310
E2E2E2E2E2E2E2E2E2E2E2E2E2E2E2E2E2E2E2E2E2E2E2E2E2E2E2E2E2E2E2E2E2E2E2E2E2E2E2E2E2E2E2E2E2E2E2E2E2E2E2E2E2E2E2E2E2E2E2E2E2E2E2E2E2E2E2E2E2E2E2E2E2E2E2E2E2E2E2E2E2E2E2E2E2E2E2E2E2E2E2E2E2E2E2E2E2E2E2E2E2E2E2E9E2E2E2E2E2E2E2E2E2E2E2E2E2E2E2E2E2E2E2E2E2E2E2
310
E2E2E2E2E2E2E2E2E2E2E2E2E2E2E2E2E2E2E2E2E2E2E2E2E2E2E2E2E2E2E2E2E2E2E2E2E2E2E2E2E2E2E2E2E2E2E2E2E2E2E2E2E2E2E2E2E2E2E2E2E2E2E2E2E2E2E2E2E2E2E2E2E2E2E2E2E2E2E2E2E2E2E2E2E2E2E2E2E2E2E2E2E2E2E2E2E2E2E2E2E2E2E2E2E2E2E2E2E2E2E2E2E2E2E2E2E2E2E2E2E2E2E2E2E2E2E2
310
E2E2E2E2E2E2E2E2E2E2E2E2E2E2E2E2E2E2E2E2E2E2E2E2E2E2E2E2E2E2E2E2E2E2E2E2E2E2E2E2E2E2E2E2E2E2E2E2E2E2E2E2E2E2E2E2E2E2E2E2E2E2E2E2E2E2E2E2E2E2E2E2E2E2E2E2E2E2E2E2E2E2E2E2E2E2E2E2E2E2E2E2E2E2E2E2E2E2E2E2E2E2E2E2E2E9E2E2E2E2E2E2E2E2E2E2E2E2E2E2E2E2E2E2E2E2E2
310
E2E2E2E2E2E2E2E2E2E2E2E2E2E2E2E2E2E2E2E2E2E2E2E2
  0
XRECORD
  5
4CD
102
{ACAD_REACTORS
330
4A
102
}
330
4A
100
AcDbXrecord
280
     1
102
MATERIAL
148
0.0
149
0.0
149
0.0
 93
        0
 94
      127
282
     0
 72
     0
 77
     0
171
     0
175
     0
179
     0
273
     0
  0
XRECORD
  5
4B
102
{ACAD_REACTORS
330
4A
102
}
330
4A
100
AcDbXrecord
280
     1
270
     1
271
     1
  0
XRECORD
  5
4C
102
{ACAD_REACTORS
330
4A
102
}
330
4A
100
AcDbXrecord
280
     1
270
     1
271
     1
  0
XRECORD
  5
4D
102
{ACAD_REACTORS
330
4A
102
}
330
4A
100
AcDbXrecord
280
     1
270
     1
271
     1
  0
XRECORD
  5
4E
102
{ACAD_REACTORS
330
4A
102
}
330
4A
100
AcDbXrecord
280
     1
270
     1
271
     1
  0
XRECORD
  5
4F
102
{ACAD_REACTORS
330
4A
102
}
330
4A
100
AcDbXrecord
280
     1
270
     1
271
     1
  0
XRECORD
  5
50
102
{ACAD_REACTORS
330
4A
102
}
330
4A
100
AcDbXrecord
280
     1
270
     1
271
     1
  0
XRECORD
  5
4CC
102
{ACAD_REACTORS
330
42
102
}
330
42
100
AcDbXrecord
280
     1
102
MATERIAL
148
0.0
149
0.0
149
0.0
 93
        0
 94
      127
282
     0
 72
     0
 77
     0
171
     0
175
     0
179
     0
273
     0
  0
XRECORD
  5
43
102
{ACAD_REACTORS
330
42
102
}
330
42
100
AcDbXrecord
280
     1
270
     1
271
     1
  0
XRECORD
  5
44
102
{ACAD_REACTORS
330
42
102
}
330
42
100
AcDbXrecord
280
     1
270
     1
271
     1
  0
XRECORD
  5
45
102
{ACAD_REACTORS
330
42
102
}
330
42
100
AcDbXrecord
280
     1
270
     1
271
     1
  0
XRECORD
  5
46
102
{ACAD_REACTORS
330
42
102
}
330
42
100
AcDbXrecord
280
     1
270
     1
271
     1
  0
XRECORD
  5
47
102
{ACAD_REACTORS
330
42
102
}
330
42
100
AcDbXrecord
280
     1
270
     1
271
     1
  0
XRECORD
  5
48
102
{ACAD_REACTORS
330
42
102
}
330
42
100
AcDbXrecord
280
     1
270
     1
271
     1
  0
XRECORD
  5
4C8
102
{ACAD_REACTORS
330
F
102
}
330
F
100
AcDbXrecord
280
     1
102
MATERIAL
148
0.0
149
0.0
149
0.0
 93
        0
 94
      127
282
     0
 72
     0
 77
     0
171
     0
175
     0
179
     0
273
     0
  0
XRECORD
  5
10
102
{ACAD_REACTORS
330
F
102
}
330
F
100
AcDbXrecord
280
     1
270
     1
271
     1
  0
XRECORD
  5
11
102
{ACAD_REACTORS
330
F
102
}
330
F
100
AcDbXrecord
280
     1
270
     1
271
     1
  0
XRECORD
  5
12
102
{ACAD_REACTORS
330
F
102
}
330
F
100
AcDbXrecord
280
     1
270
     1
271
     1
  0
XRECORD
  5
13
102
{ACAD_REACTORS
330
F
102
}
330
F
100
AcDbXrecord
280
     1
270
     1
271
     1
  0
XRECORD
  5
14
102
{ACAD_REACTORS
330
F
102
}
330
F
100
AcDbXrecord
280
     1
270
     1
271
     1
  0
XRECORD
  5
15
102
{ACAD_REACTORS
330
F
102
}
330
F
100
AcDbXrecord
280
     1
270
     1
271
     1
  0
CELLSTYLEMAP
  5
D8C
102
{ACAD_REACTORS
330
56
102
}
330
56
100
AcDbCellStyleMap
 90
        3
300
CELLSTYLE
  1
TABLEFORMAT_BEGIN
 90
        5
170
     1
 91
        0
 92
    32768
 62
   257
 93
        1
300
CONTENTFORMAT
  1
CONTENTFORMAT_BEGIN
 90
        0
 91
        0
 92
      512
 93
        0
300

 40
0.0
140
1.0
 94
        5
 62
     0
340
2A
144
6.0
309
CONTENTFORMAT_END
171
     1
301
MARGIN
  1
CELLMARGIN_BEGIN
 40
1.5
 40
1.5
 40
1.5
 40
1.5
 40
0.18
 40
0.18
309
CELLMARGIN_END
 94
        6
 95
        1
302
GRIDFORMAT
  1
GRIDFORMAT_BEGIN
 90
        0
 91
        1
 62
     0
 92
       -2
340
0
 93
        0
 40
1.125
309
GRIDFORMAT_END
 95
        2
302
GRIDFORMAT
  1
GRIDFORMAT_BEGIN
 90
        0
 91
        1
 62
     0
 92
       -2
340
0
 93
        0
 40
1.125
309
GRIDFORMAT_END
 95
        4
302
GRIDFORMAT
  1
GRIDFORMAT_BEGIN
 90
        0
 91
        1
 62
     0
 92
       -2
340
0
 93
        0
 40
1.125
309
GRIDFORMAT_END
 95
        8
302
GRIDFORMAT
  1
GRIDFORMAT_BEGIN
 90
        0
 91
        1
 62
     0
 92
       -2
340
0
 93
        0
 40
1.125
309
GRIDFORMAT_END
 95
       16
302
GRIDFORMAT
  1
GRIDFORMAT_BEGIN
 90
        0
 91
        1
 62
     0
 92
       -2
340
0
 93
        0
 40
1.125
309
GRIDFORMAT_END
 95
       32
302
GRIDFORMAT
  1
GRIDFORMAT_BEGIN
 90
        0
 91
        1
 62
     0
 92
       -2
340
0
 93
        0
 40
1.125
309
GRIDFORMAT_END
309
TABLEFORMAT_END
  1
CELLSTYLE_BEGIN
 90
        1
 91
        1
300
_TITLE
309
CELLSTYLE_END
300
CELLSTYLE
  1
TABLEFORMAT_BEGIN
 90
        5
170
     1
 91
        0
 92
        0
 62
   257
 93
        1
300
CONTENTFORMAT
  1
CONTENTFORMAT_BEGIN
 90
        0
 91
        0
 92
      512
 93
        0
300

 40
0.0
140
1.0
 94
        5
 62
     0
340
2A
144
4.5
309
CONTENTFORMAT_END
171
     1
301
MARGIN
  1
CELLMARGIN_BEGIN
 40
1.5
 40
1.5
 40
1.5
 40
1.5
 40
0.18
 40
0.18
309
CELLMARGIN_END
 94
        6
 95
        1
302
GRIDFORMAT
  1
GRIDFORMAT_BEGIN
 90
        0
 91
        1
 62
     0
 92
       -2
340
0
 93
        0
 40
1.125
309
GRIDFORMAT_END
 95
        2
302
GRIDFORMAT
  1
GRIDFORMAT_BEGIN
 90
        0
 91
        1
 62
     0
 92
       -2
340
0
 93
        0
 40
1.125
309
GRIDFORMAT_END
 95
        4
302
GRIDFORMAT
  1
GRIDFORMAT_BEGIN
 90
        0
 91
        1
 62
     0
 92
       -2
340
0
 93
        0
 40
1.125
309
GRIDFORMAT_END
 95
        8
302
GRIDFORMAT
  1
GRIDFORMAT_BEGIN
 90
        0
 91
        1
 62
     0
 92
       -2
340
0
 93
        0
 40
1.125
309
GRIDFORMAT_END
 95
       16
302
GRIDFORMAT
  1
GRIDFORMAT_BEGIN
 90
        0
 91
        1
 62
     0
 92
       -2
340
0
 93
        0
 40
1.125
309
GRIDFORMAT_END
 95
       32
302
GRIDFORMAT
  1
GRIDFORMAT_BEGIN
 90
        0
 91
        1
 62
     0
 92
       -2
340
0
 93
        0
 40
1.125
309
GRIDFORMAT_END
309
TABLEFORMAT_END
  1
CELLSTYLE_BEGIN
 90
        2
 91
        1
300
_HEADER
309
CELLSTYLE_END
300
CELLSTYLE
  1
TABLEFORMAT_BEGIN
 90
        5
170
     1
 91
        0
 92
        0
 62
   257
 93
        1
300
CONTENTFORMAT
  1
CONTENTFORMAT_BEGIN
 90
        0
 91
        0
 92
      512
 93
        0
300

 40
0.0
140
1.0
 94
        2
 62
     0
340
2A
144
4.5
309
CONTENTFORMAT_END
171
     1
301
MARGIN
  1
CELLMARGIN_BEGIN
 40
1.5
 40
1.5
 40
1.5
 40
1.5
 40
0.18
 40
0.18
309
CELLMARGIN_END
 94
        6
 95
        1
302
GRIDFORMAT
  1
GRIDFORMAT_BEGIN
 90
        0
 91
        1
 62
     0
 92
       -2
340
0
 93
        0
 40
1.125
309
GRIDFORMAT_END
 95
        2
302
GRIDFORMAT
  1
GRIDFORMAT_BEGIN
 90
        0
 91
        1
 62
     0
 92
       -2
340
0
 93
        0
 40
1.125
309
GRIDFORMAT_END
 95
        4
302
GRIDFORMAT
  1
GRIDFORMAT_BEGIN
 90
        0
 91
        1
 62
     0
 92
       -2
340
0
 93
        0
 40
1.125
309
GRIDFORMAT_END
 95
        8
302
GRIDFORMAT
  1
GRIDFORMAT_BEGIN
 90
        0
 91
        1
 62
     0
 92
       -2
340
0
 93
        0
 40
1.125
309
GRIDFORMAT_END
 95
       16
302
GRIDFORMAT
  1
GRIDFORMAT_BEGIN
 90
        0
 91
        1
 62
     0
 92
       -2
340
0
 93
        0
 40
1.125
309
GRIDFORMAT_END
 95
       32
302
GRIDFORMAT
  1
GRIDFORMAT_BEGIN
 90
        0
 91
        1
 62
     0
 92
       -2
340
0
 93
        0
 40
1.125
309
GRIDFORMAT_END
309
TABLEFORMAT_END
  1
CELLSTYLE_BEGIN
 90
        3
 91
        2
300
_DATA
309
CELLSTYLE_END
  0
XRECORD
  5
D96
102
{ACAD_REACTORS
330
56
102
}
330
56
100
AcDbXrecord
280
     1
102
ACAD_ROUNDTRIP_PRE2007_TABLESTYLE
 90
      512
 91
        0
  1

 92
      512
 93
        0
  2

 94
      512
 95
        0
  3

  0
XRECORD
  5
36
102
{ACAD_REACTORS
330
35
102
}
330
35
100
AcDbXrecord
280
     1
102
RTVSPropertyOp0
 70
     1
102
RTVSPropertyOp1
 70
     1
102
RTVSPropertyOp2
 70
     1
102
RTVSPropertyOp3
 70
     1
102
RTVSPropertyOp4
 70
     1
102
RTVSPropertyOp5
 70
     1
102
RTVSPropertyOp6
 70
     1
102
RTVSPropertyOp7
 70
     1
102
RTVSPropertyOp8
 70
     1
102
RTVSPropertyOp9
 70
     1
102
RTVSPropertyOp10
 70
     1
102
RTVSPropertyOp11
 70
     1
102
RTVSPropertyOp12
 70
     1
102
RTVSPropertyOp13
 70
     1
102
RTVSPropertyOp14
 70
     1
102
RTVSPropertyOp15
 70
     1
102
RTVSPropertyOp16
 70
     1
102
RTVSPropertyOp17
 70
     1
102
RTVSPropertyOp18
 70
     1
102
RTVSPropertyOp19
 70
     1
102
RTVSPropertyOp20
 70
     1
102
RTVSPropertyOp21
 70
     1
102
RTVSPropertyOp22
 70
     1
102
RTVSPropertyOp23
 70
     1
102
RTVSPropertyOp24
 70
     1
102
RTVSPropertyOp25
 70
     1
102
RTVSPropertyOp26
 70
     1
102
RTVSPropertyOp27
 70
     1
102
RTVSPropertyOp28
 70
     1
102
RTVSPropertyOp29
 70
     1
102
RTVSPropertyOp30
 70
     1
102
RTVSPropertyOp31
 70
     1
102
RTVSPropertyOp32
 70
     1
  0
XRECORD
  5
5C
102
{ACAD_REACTORS
330
5B
102
}
330
5B
100
AcDbXrecord
280
     1
102
RTVSPropertyOp0
 70
     1
102
RTVSPropertyOp1
 70
     1
102
RTVSPropertyOp2
 70
     1
102
RTVSPropertyOp3
 70
     1
102
RTVSPropertyOp4
 70
     1
102
RTVSPropertyOp5
 70
     1
102
RTVSPropertyOp6
 70
     1
102
RTVSPropertyOp7
 70
     1
102
RTVSPropertyOp8
 70
     1
102
RTVSPropertyOp9
 70
     1
102
RTVSPropertyOp10
 70
     1
102
RTVSPropertyOp11
 70
     1
102
RTVSPropertyOp12
 70
     1
102
RTVSPropertyOp13
 70
     1
102
RTVSPropertyOp14
 70
     1
102
RTVSPropertyOp15
 70
     1
102
RTVSPropertyOp16
 70
     1
102
RTVSPropertyOp17
 70
     1
102
RTVSPropertyOp18
 70
     1
102
RTVSPropertyOp19
 70
     1
102
RTVSPropertyOp20
 70
     1
102
RTVSPropertyOp21
 70
     1
102
RTVSPropertyOp22
 70
     1
102
RTVSPropertyOp23
 70
     1
102
RTVSPropertyOp24
 70
     1
102
RTVSPropertyOp25
 70
     1
102
RTVSPropertyOp26
 70
     1
102
RTVSPropertyOp27
 70
     1
102
RTVSPropertyOp28
 70
     1
102
RTVSPropertyOp29
 70
     1
102
RTVSPropertyOp30
 70
     1
102
RTVSPropertyOp31
 70
     1
102
RTVSPropertyOp32
 70
     1
  0
XRECORD
  5
59
102
{ACAD_REACTORS
330
58
102
}
330
58
100
AcDbXrecord
280
     1
102
RTVSPropertyOp0
 70
     1
102
RTVSPropertyOp1
 70
     1
102
RTVSPropertyOp2
 70
     1
102
RTVSPropertyOp3
 70
     1
102
RTVSPropertyOp4
 70
     1
102
RTVSPropertyOp5
 70
     1
102
RTVSPropertyOp6
 70
     1
102
RTVSPropertyOp7
 70
     1
102
RTVSPropertyOp8
 70
     1
102
RTVSPropertyOp9
 70
     1
102
RTVSPropertyOp10
 70
     1
102
RTVSPropertyOp11
 70
     1
102
RTVSPropertyOp12
 70
     1
102
RTVSPropertyOp13
 70
     1
102
RTVSPropertyOp14
 70
     1
102
RTVSPropertyOp15
 70
     1
102
RTVSPropertyOp16
 70
     1
102
RTVSPropertyOp17
 70
     1
102
RTVSPropertyOp18
 70
     1
102
RTVSPropertyOp19
 70
     1
102
RTVSPropertyOp20
 70
     1
102
RTVSPropertyOp21
 70
     1
102
RTVSPropertyOp22
 70
     1
102
RTVSPropertyOp23
 70
     1
102
RTVSPropertyOp24
 70
     1
102
RTVSPropertyOp25
 70
     1
102
RTVSPropertyOp26
 70
     1
102
RTVSPropertyOp27
 70
     1
102
RTVSPropertyOp28
 70
     1
102
RTVSPropertyOp29
 70
     1
102
RTVSPropertyOp30
 70
     1
102
RTVSPropertyOp31
 70
     1
102
RTVSPropertyOp32
 70
     1
  0
ENDSEC
  0
EOF
