  0
SECTION
  2
HEADER
  9
$ACADVER
  1
AC1015
  9
$ACADMAINTVER
 70
    20
  9
$DWGCODEPAGE
  3
ANSI_949
  9
$INSBASE
 10
0.0
 20
0.0
 30
0.0
  9
$EXTMIN
 10
-6329.060336509545
 20
7577.802534334534
 30
-0.0000610323622112
  9
$EXTMAX
 10
-5388.230889787308
 20
7873.466814324256
 30
0.0000152650755787
  9
$LIMMIN
 10
0.0
 20
0.0
  9
$LIMMAX
 10
383.0
 20
273.0
  9
$ORTHOMODE
 70
     1
  9
$REGENMODE
 70
     1
  9
$FILLMODE
 70
     1
  9
$QTEXTMODE
 70
     0
  9
$MIRRTEXT
 70
     0
  9
$LTSCALE
 40
1.0
  9
$ATTMODE
 70
     1
  9
$TEXTSIZE
 40
3.0
  9
$TRACEWID
 40
1.0
  9
$TEXTSTYLE
  7
Standard
  9
$CLAYER
  8
0
  9
$CELTYPE
  6
ByLayer
  9
$CECOLOR
 62
   256
  9
$CELTSCALE
 40
1.0
  9
$DISPSILH
 70
     0
  9
$DIMSCALE
 40
1.0
  9
$DIMASZ
 40
2.5
  9
$DIMEXO
 40
1.0
  9
$DIMDLI
 40
10.0
  9
$DIMRND
 40
0.0
  9
$DIMDLE
 40
0.0
  9
$DIMEXE
 40
0.6
  9
$DIMTP
 40
0.0
  9
$DIMTM
 40
0.0
  9
$DIMTXT
 40
3.0
  9
$DIMCEN
 40
0.09
  9
$DIMTSZ
 40
0.0
  9
$DIMTOL
 70
     0
  9
$DIMLIM
 70
     0
  9
$DIMTIH
 70
     0
  9
$DIMTOH
 70
     0
  9
$DIMSE1
 70
     0
  9
$DIMSE2
 70
     0
  9
$DIMTAD
 70
     1
  9
$DIMZIN
 70
     8
  9
$DIMBLK
  1

  9
$DIMASO
 70
     1
  9
$DIMSHO
 70
     1
  9
$DIMPOST
  1

  9
$DIMAPOST
  1

  9
$DIMALT
 70
     0
  9
$DIMALTD
 70
     2
  9
$DIMALTF
 40
25.4
  9
$DIMLFAC
 40
1.0
  9
$DIMTOFL
 70
     1
  9
$DIMTVP
 40
0.0
  9
$DIMTIX
 70
     1
  9
$DIMSOXD
 70
     0
  9
$DIMSAH
 70
     0
  9
$DIMBLK1
  1

  9
$DIMBLK2
  1

  9
$DIMSTYLE
  2
STANDARD
  9
$DIMCLRD
 70
   123
  9
$DIMCLRE
 70
   123
  9
$DIMCLRT
 70
     3
  9
$DIMTFAC
 40
1.0
  9
$DIMGAP
 40
1.0
  9
$DIMJUST
 70
     0
  9
$DIMSD1
 70
     0
  9
$DIMSD2
 70
     0
  9
$DIMTOLJ
 70
     1
  9
$DIMTZIN
 70
     0
  9
$DIMALTZ
 70
     0
  9
$DIMALTTZ
 70
     0
  9
$DIMUPT
 70
     1
  9
$DIMDEC
 70
     2
  9
$DIMTDEC
 70
     2
  9
$DIMALTU
 70
     2
  9
$DIMALTTD
 70
     2
  9
$DIMTXSTY
  7
Standard
  9
$DIMAUNIT
 70
     1
  9
$DIMADEC
 70
     1
  9
$DIMALTRND
 40
0.0
  9
$DIMAZIN
 70
     2
  9
$DIMDSEP
 70
    46
  9
$DIMATFIT
 70
     0
  9
$DIMFRAC
 70
     0
  9
$DIMLDRBLK
  1

  9
$DIMLUNIT
 70
     2
  9
$DIMLWD
 70
    -2
  9
$DIMLWE
 70
    -2
  9
$DIMTMOVE
 70
     0
  9
$LUNITS
 70
     2
  9
$LUPREC
 70
     4
  9
$SKETCHINC
 40
1.0
  9
$FILLETRAD
 40
0.0
  9
$AUNITS
 70
     0
  9
$AUPREC
 70
     0
  9
$MENU
  1
.
  9
$ELEVATION
 40
0.0
  9
$PELEVATION
 40
0.0
  9
$THICKNESS
 40
0.0
  9
$LIMCHECK
 70
     0
  9
$CHAMFERA
 40
0.5
  9
$CHAMFERB
 40
0.5
  9
$CHAMFERC
 40
20.0
  9
$CHAMFERD
 40
0.0
  9
$SKPOLY
 70
     0
  9
$TDCREATE
 40
2452452.600976968
  9
$TDUCREATE
 40
2452452.225976968
  9
$TDUPDATE
 40
2456960.588032986
  9
$TDUUPDATE
 40
2456960.213032986
  9
$TDINDWG
 40
147.9497545718
  9
$TDUSRTIMER
 40
147.9497406829
  9
$USRTIMER
 70
     1
  9
$ANGBASE
 50
0.0
  9
$ANGDIR
 70
     0
  9
$PDMODE
 70
     0
  9
$PDSIZE
 40
0.0
  9
$PLINEWID
 40
0.0
  9
$SPLFRAME
 70
     0
  9
$SPLINETYPE
 70
     6
  9
$SPLINESEGS
 70
     8
  9
$HANDSEED
  5
3ED
  9
$SURFTAB1
 70
     6
  9
$SURFTAB2
 70
     6
  9
$SURFTYPE
 70
     6
  9
$SURFU
 70
     6
  9
$SURFV
 70
     6
  9
$UCSBASE
  2

  9
$UCSNAME
  2

  9
$UCSORG
 10
0.0
 20
0.0
 30
0.0
  9
$UCSXDIR
 10
1.0
 20
0.0
 30
0.0
  9
$UCSYDIR
 10
0.0
 20
1.0
 30
0.0
  9
$UCSORTHOREF
  2

  9
$UCSORTHOVIEW
 70
     0
  9
$UCSORGTOP
 10
0.0
 20
0.0
 30
0.0
  9
$UCSORGBOTTOM
 10
0.0
 20
0.0
 30
0.0
  9
$UCSORGLEFT
 10
0.0
 20
0.0
 30
0.0
  9
$UCSORGRIGHT
 10
0.0
 20
0.0
 30
0.0
  9
$UCSORGFRONT
 10
0.0
 20
0.0
 30
0.0
  9
$UCSORGBACK
 10
0.0
 20
0.0
 30
0.0
  9
$PUCSBASE
  2

  9
$PUCSNAME
  2

  9
$PUCSORG
 10
0.0
 20
0.0
 30
0.0
  9
$PUCSXDIR
 10
1.0
 20
0.0
 30
0.0
  9
$PUCSYDIR
 10
0.0
 20
1.0
 30
0.0
  9
$PUCSORTHOREF
  2

  9
$PUCSORTHOVIEW
 70
     0
  9
$PUCSORGTOP
 10
0.0
 20
0.0
 30
0.0
  9
$PUCSORGBOTTOM
 10
0.0
 20
0.0
 30
0.0
  9
$PUCSORGLEFT
 10
0.0
 20
0.0
 30
0.0
  9
$PUCSORGRIGHT
 10
0.0
 20
0.0
 30
0.0
  9
$PUCSORGFRONT
 10
0.0
 20
0.0
 30
0.0
  9
$PUCSORGBACK
 10
0.0
 20
0.0
 30
0.0
  9
$USERI1
 70
     0
  9
$USERI2
 70
     0
  9
$USERI3
 70
     0
  9
$USERI4
 70
     0
  9
$USERI5
 70
     0
  9
$USERR1
 40
0.0
  9
$USERR2
 40
0.0
  9
$USERR3
 40
0.0
  9
$USERR4
 40
0.0
  9
$USERR5
 40
0.0
  9
$WORLDVIEW
 70
     1
  9
$SHADEDGE
 70
     3
  9
$SHADEDIF
 70
    70
  9
$TILEMODE
 70
     1
  9
$MAXACTVP
 70
    48
  9
$PINSBASE
 10
0.0
 20
0.0
 30
0.0
  9
$PLIMCHECK
 70
     0
  9
$PEXTMIN
 10
40.83261737823487
 20
28.52208232879639
 30
0.0
  9
$PEXTMAX
 10
367.4935564041137
 20
256.6987409591675
 30
0.0
  9
$PLIMMIN
 10
-6.085416793823242
 20
-5.704408645629882
  9
$PLIMMAX
 10
414.0729084014892
 20
291.3062419891357
  9
$UNITMODE
 70
     0
  9
$VISRETAIN
 70
     1
  9
$PLINEGEN
 70
     0
  9
$PSLTSCALE
 70
     1
  9
$TREEDEPTH
 70
  3020
  9
$CMLSTYLE
  2
Standard
  9
$CMLJUST
 70
     0
  9
$CMLSCALE
 40
5.0
  9
$PROXYGRAPHICS
 70
     1
  9
$MEASUREMENT
 70
     1
  9
$CELWEIGHT
370
    -1
  9
$ENDCAPS
280
     0
  9
$JOINSTYLE
280
     0
  9
$LWDISPLAY
290
     0
  9
$INSUNITS
 70
     4
  9
$HYPERLINKBASE
  1

  9
$STYLESHEET
  1

  9
$XEDIT
290
     1
  9
$CEPSNTYPE
380
     0
  9
$PSTYLEMODE
290
     1
  9
$FINGERPRINTGUID
  2
{43154836-A466-47FF-BB3C-D8D2C20055CF}
  9
$VERSIONGUID
  2
{137275B9-0B16-4AED-AA20-B7F27E6FC86B}
  9
$EXTNAMES
290
     1
  9
$PSVPSCALE
 40
0.0
  9
$OLESTARTUP
290
     0
  0
ENDSEC
  0
SECTION
  2
CLASSES
  0
CLASS
  1
ACDBDICTIONARYWDFLT
  2
AcDbDictionaryWithDefault
  3
ObjectDBX Classes
 90
        0
280
     0
281
     0
  0
CLASS
  1
ACDBPLACEHOLDER
  2
AcDbPlaceHolder
  3
ObjectDBX Classes
 90
        0
280
     0
281
     0
  0
CLASS
  1
LAYOUT
  2
AcDbLayout
  3
ObjectDBX Classes
 90
        0
280
     0
281
     0
  0
CLASS
  1
DIMASSOC
  2
AcDbDimAssoc
  3
"AcDbDimAssoc|Product Desc:     AcDim ARX App For Dimension|Company:          Autodesk, Inc.|WEB Address:      www.autodesk.com"
 90
        0
280
     0
281
     0
  0
CLASS
  1
DICTIONARYVAR
  2
AcDbDictionaryVar
  3
ObjectDBX Classes
 90
        0
280
     0
281
     0
  0
CLASS
  1
ARCALIGNEDTEXT
  2
AcDbArcAlignedText
  3
ATEXT|AutoCAD Express Tool|expresstools@autodesk.com
 90
    32768
280
     1
281
     1
  0
CLASS
  1
MATERIAL
  2
AcDbMaterial
  3
ObjectDBX Classes
 90
     1153
280
     0
281
     0
  0
CLASS
  1
VISUALSTYLE
  2
AcDbVisualStyle
  3
ObjectDBX Classes
 90
     4095
280
     0
281
     0
  0
CLASS
  1
TABLESTYLE
  2
AcDbTableStyle
  3
ObjectDBX Classes
 90
     4095
280
     0
281
     0
  0
CLASS
  1
SCALE
  2
AcDbScale
  3
ObjectDBX Classes
 90
     1153
280
     0
281
     0
  0
CLASS
  1
MLEADERSTYLE
  2
AcDbMLeaderStyle
  3
ACDB_MLEADERSTYLE_CLASS
 90
     4095
280
     0
281
     0
  0
CLASS
  1
SORTENTSTABLE
  2
AcDbSortentsTable
  3
ObjectDBX Classes
 90
        0
280
     0
281
     0
  0
CLASS
  1
CELLSTYLEMAP
  2
AcDbCellStyleMap
  3
ObjectDBX Classes
 90
     1152
280
     0
281
     0
  0
CLASS
  1
EXACXREFPANELOBJECT
  2
ExAcXREFPanelObject
  3
EXAC_ESW
 90
     1025
280
     1
281
     0
  0
CLASS
  1
NPOCOLLECTION
  2
AcDbImpNonPersistentObjectsCollection
  3
ObjectDBX Classes
 90
     1153
280
     0
281
     0
  0
CLASS
  1
RASTERVARIABLES
  2
AcDbRasterVariables
  3
ISM
 90
    32768
280
     1
281
     0
  0
CLASS
  1
IMAGEDEF
  2
AcDbRasterImageDef
  3
ISM
 90
    32768
280
     1
281
     0
  0
CLASS
  1
IMAGEDEF_REACTOR
  2
AcDbRasterImageDefReactor
  3
ISM
 90
    32769
280
     1
281
     0
  0
CLASS
  1
IMAGE
  2
AcDbRasterImage
  3
ISM
 90
    34943
280
     1
281
     1
  0
CLASS
  1
ACDB_MTEXTOBJECTCONTEXTDATA_CLASS
  2
AcDbMTextObjectContextData
  3
ObjectDBX Classes
 90
    33921
280
     0
281
     0
  0
CLASS
  1
SOLID_BACKGROUND
  2
AcDbSolidBackground
  3
SCENEOE
 90
    36863
280
     1
281
     0
  0
CLASS
  1
ACME_DOCUMENT
  2
AcMeDbDoc
  3
AcMeServices
 90
    33792
280
     1
281
     0
  0
CLASS
  1
AMGSETTINGSOBJ
  2
AmgSettingsObj
  3
"AcadM|Product Description: AutoCAD Mechanical|Company: Autodesk, Inc."
 90
    33792
280
     1
281
     0
  0
CLASS
  1
ACMESCOPE
  2
AcMeScope
  3
AcMeServices
 90
    33792
280
     1
281
     0
  0
CLASS
  1
ACMECOMMANDHISTORY
  2
AcMeCommandHistory
  3
AcMeServices
 90
    33792
280
     1
281
     0
  0
CLASS
  1
ACIMSYSVARMAN
  2
AcImSysVarManager
  3
AcMeServices
 90
    33792
280
     1
281
     0
  0
CLASS
  1
ACIMINTSYSVAR
  2
AcImIntSysVar
  3
AcMeServices
 90
    33792
280
     1
281
     0
  0
CLASS
  1
ACMEDRAWINGMAN
  2
AcMeDrawingMan
  3
AcMeServices
 90
    33792
280
     1
281
     0
  0
CLASS
  1
ACMEVIEW
  2
AcMeView
  3
AcMeServices
 90
    33792
280
     1
281
     0
  0
CLASS
  1
ACDBENTITYCACHE
  2
AcMeEntityCache
  3
AcMeServices
 90
    33792
280
     1
281
     0
  0
CLASS
  1
GSMANAGER
  2
AcMeGSManager
  3
AcMeServices
 90
    33792
280
     1
281
     0
  0
CLASS
  1
AMDTINTERNALREACTOR
  2
AmdtInternalReactor
  3
AcMeServices
 90
    33792
280
     1
281
     0
  0
CLASS
  1
ACMESTATEMGR
  2
AcMeStateMgr
  3
AcMeServices
 90
    33792
280
     1
281
     0
  0
CLASS
  1
ACGREFMASTER
  2
AcGrefMaster
  3
AcAttribServices
 90
    33792
280
     1
281
     0
  0
CLASS
  1
AM_DRAWING_MGR
  2
AcDmDwgMgr
  3
AcMechDwgViewMgmt
 90
    33792
280
     1
281
     0
  0
CLASS
  1
AM_DWG_DOCUMENT
  2
AcDmDwgDocument
  3
AcMechDwgViewMgmt
 90
    33792
280
     1
281
     0
  0
CLASS
  1
AM_DWG_SHEET
  2
AcDmSheet
  3
AcMechDwgViewMgmt
 90
    33792
280
     1
281
     0
  0
CLASS
  1
AM_VIEWDIMPARMAP
  2
AcDmViewDimParMap
  3
AcMechDwgViewMgmt
 90
    33792
280
     1
281
     0
  0
CLASS
  1
ACIMREALSYSVAR
  2
AcImRealSysVar
  3
AcMeServices
 90
    33792
280
     1
281
     0
  0
CLASS
  1
AM_DWGMGR_NAME
  2
AcDmDwgMgrName
  3
AcMechDwgViewMgmt
 90
    33792
280
     1
281
     0
  0
CLASS
  1
ACME_DATABASE
  2
AcMeDbDatabase
  3
AcMeServices
 90
    33792
280
     1
281
     0
  0
CLASS
  1
ACRFINSADJUSTERMGR
  2
AcRfInsAdjusterMgr
  3
AcMeServices
 90
    33792
280
     1
281
     0
  0
CLASS
  1
ACGREFACADMASTER
  2
AcGrefacadMaster
  3
AcGrefServices
 90
    33792
280
     1
281
     0
  0
CLASS
  1
AMDTMENUSTATEMGR
  2
AmdtMenuStateMgr
  3
McadcomServices
 90
    33792
280
     1
281
     0
  0
CLASS
  1
AMDTMCOMMENUSTATE
  2
AmdtMcomMenuState
  3
McadcomServices
 90
    33792
280
     1
281
     0
  0
CLASS
  1
AMIMASTER
  2
AmiMaster
  3
AmiServices
 90
    33792
280
     1
281
     0
  0
CLASS
  1
MAPIAMMOUDLE
  2
MApiAmModule
  3
MApiAmServices
 90
    33792
280
     1
281
     0
  0
CLASS
  1
ACIMSTRSYSVAR
  2
AcImStrSysVar
  3
AcMeServices
 90
    33792
280
     1
281
     0
  0
CLASS
  1
AMDTADMENUSTATE
  2
AmdtAdMenuState
  3
DesignerServices
 90
    33792
280
     1
281
     0
  0
CLASS
  1
ADAPPL
  2
AcAdAppl
  3
DesignerServices
 90
    33792
280
     1
281
     0
  0
CLASS
  1
DEPMGR
  2
AcAdDepMgr
  3
DesignerServices
 90
    33792
280
     1
281
     0
  0
CLASS
  1
PARAMMGR
  2
AcAdParamMgr
  3
DesignerServices
 90
    33792
280
     1
281
     0
  0
CLASS
  1
PARAMSCOPE
  2
AcAdParamScope
  3
DesignerServices
 90
    33792
280
     1
281
     0
  0
CLASS
  1
NAMEDAPPL
  2
AcAdNamedAppl
  3
DesignerServices
 90
    33792
280
     1
281
     0
  0
CLASS
  1
AMDTDMMENUSTATE
  2
AmdtDmMenuState
  3
AcMechDwgViewMgmt
 90
    33792
280
     1
281
     0
  0
CLASS
  1
AMDTAMMENUSTATE
  2
AmdtAmMenuState
  3
DesignerAssemblies
 90
    33792
280
     1
281
     0
  0
CLASS
  1
ACAMPROJECT
  2
AcAmProject
  3
DesignerAssemblies
 90
    33792
280
     1
281
     0
  0
CLASS
  1
ACAMGRCOMPDEF
  2
AcAmGrCompDef
  3
DesignerAssemblies
 90
    33792
280
     1
281
     0
  0
CLASS
  1
ACCMCONTEXT
  2
AcCmContext
  3
DesignerAssemblies
 90
    33792
280
     1
281
     0
  0
CLASS
  1
ACAMCOMPDEF
  2
AcAmCompDef
  3
DesignerAssemblies
 90
    33792
280
     1
281
     0
  0
CLASS
  1
ACAMCOMPDEFMGR
  2
AcAmCompDefMgr
  3
DesignerAssemblies
 90
    33792
280
     1
281
     0
  0
CLASS
  1
AMCONTEXTMGR
  2
AcAmContextMgr
  3
DesignerAssemblies
 90
    33792
280
     1
281
     0
  0
CLASS
  1
ACAMCONTEXTMODELER
  2
AcAmContextModeler
  3
DesignerAssemblies
 90
    33792
280
     1
281
     0
  0
CLASS
  1
ACMDATADICTIONARY
  2
AcmDataDictionary
  3
"AcmSymBB|Product Description: AutoCAD Mechanical|Company: Autodesk, Inc."
 90
    33792
280
     1
281
     0
  0
CLASS
  1
CATALOGSTATE
  2
AcAmCatalogState
  3
DesignerAssemblies
 90
    33792
280
     1
281
     0
  0
CLASS
  1
ACAMGRCOMPDEFSET
  2
AcAmGrCompDefSet
  3
DesignerAssemblies
 90
    33792
280
     1
281
     0
  0
CLASS
  1
AMDTBROWSERDBTAB
  2
AmdtBrowserDbTab
  3
McadcomServices
 90
    33792
280
     1
281
     0
  0
CLASS
  1
CBROWSERAPPOBJECT
  2
CBrowserAppObject
  3
McadcomServices
 90
    33792
280
     1
281
     0
  0
CLASS
  1
DM_PLACEHOLDER
  2
AcDmSelsetPlaceholder
  3
AcMechDwgViewMgmt
 90
    33792
280
     1
281
     0
  0
CLASS
  1
ACMSTANDARDISO
  2
AcmStandardISO
  3
"Amdt_StdImp|Product Description: AutoCAD Mechanical|Company: Autodesk, Inc."
 90
    33792
280
     1
281
     0
  0
CLASS
  1
AMDTEDGESTANDARDISO13715
  2
AmdtEdgeStdISO13715
  3
"Amdt_StdImp|Product Description: AutoCAD Mechanical|Company: Autodesk, Inc."
 90
    33792
280
     1
281
     0
  0
CLASS
  1
ACMSURFSTANDARDISO2002
  2
AcmSurfTextStdISO2002
  3
"Amdt_StdImp|Product Description: AutoCAD Mechanical|Company: Autodesk, Inc."
 90
    33792
280
     1
281
     0
  0
CLASS
  1
ACMFCFSTANDARDISO
  2
AcmFCFStdISO
  3
"Amdt_StdImp|Product Description: AutoCAD Mechanical|Company: Autodesk, Inc."
 90
    33792
280
     1
281
     0
  0
CLASS
  1
ACMWELDSTANDARDISO
  2
AcmWeldingStdISO
  3
"Amdt_StdImp|Product Description: AutoCAD Mechanical|Company: Autodesk, Inc."
 90
    33792
280
     1
281
     0
  0
CLASS
  1
ACMIDSTANDARDISO
  2
AcmIdStdISO
  3
"Amdt_StdImp|Product Description: AutoCAD Mechanical|Company: Autodesk, Inc."
 90
    33792
280
     1
281
     0
  0
CLASS
  1
ACMDATUMSTANDARDISO
  2
AcmDatumStdISO
  3
"Amdt_StdImp|Product Description: AutoCAD Mechanical|Company: Autodesk, Inc."
 90
    33792
280
     1
281
     0
  0
CLASS
  1
ACMBOMSTANDARDISO
  2
AcmBOMStdISO
  3
"Amdt_StdImp|Product Description: AutoCAD Mechanical|Company: Autodesk, Inc."
 90
    33792
280
     1
281
     0
  0
CLASS
  1
ACMDETAILSTANDARDISO
  2
AmdtDetailSymStdISO
  3
"Amdt_StdImp|Product Description: AutoCAD Mechanical|Company: Autodesk, Inc."
 90
    33792
280
     1
281
     0
  0
CLASS
  1
ACMSECTIONSTANDARDISO2001
  2
AmdtSectionSymStdISO2001
  3
"Amdt_StdImp|Product Description: AutoCAD Mechanical|Company: Autodesk, Inc."
 90
    33792
280
     1
281
     0
  0
CLASS
  1
ACMCENTERLINESTANDARDISO
  2
AmdtCenterLineStdISO
  3
"Amdt_StdImp|Product Description: AutoCAD Mechanical|Company: Autodesk, Inc."
 90
    33792
280
     1
281
     0
  0
CLASS
  1
ACMTHREADLINESTANDARDISO
  2
AmdtThreadLineStdISO
  3
"Amdt_StdImp|Product Description: AutoCAD Mechanical|Company: Autodesk, Inc."
 90
    33792
280
     1
281
     0
  0
CLASS
  1
ACMNOTESTANDARDISO
  2
AmdtNoteStdISO
  3
"Amdt_StdImp|Product Description: AutoCAD Mechanical|Company: Autodesk, Inc."
 90
    33792
280
     1
281
     0
  0
CLASS
  1
ACMTAPERSTANDARDISO
  2
AcmTaperStdISO
  3
"Amdt_StdImp|Product Description: AutoCAD Mechanical|Company: Autodesk, Inc."
 90
    33792
280
     1
281
     0
  0
CLASS
  1
ACMANOOTATIONVIEWSTANDARDISO
  2
AmdtAnViewStdISO
  3
"Amdt_StdImp|Product Description: AutoCAD Mechanical|Company: Autodesk, Inc."
 90
    33792
280
     1
281
     0
  0
CLASS
  1
ACAMGLAYSTD
  2
AcAmgLayStd
  3
"AmgLay|Product Description: AutoCAD Mechanical|Company: Autodesk, Inc."
 90
    33792
280
     1
281
     0
  0
CLASS
  1
ACAMGDIMSTD
  2
AcAmgDimStd
  3
"AmgDim|Product Description: AutoCAD Mechanical|Company: Autodesk, Inc."
 90
    33792
280
     1
281
     0
  0
CLASS
  1
AMGOBJPROPCFG
  2
AmgObjPropCfg
  3
"AmgLay|Product Description: AutoCAD Mechanical|Company: Autodesk, Inc."
 90
    33793
280
     1
281
     0
  0
CLASS
  1
ACAMGHOLECHARTSTDISO
  2
AcAmgHoleChartStdISO
  3
AmgDim|Product Description: AutoCAD Mechanical|Company: Autodesk, Inc.
 90
    33792
280
     1
281
     0
  0
CLASS
  1
ACAMGTITLESTD
  2
AcAmgTitleStd
  3
"AmgTitle|Product Description: AutoCAD Mechanical|Company: Autodesk, Inc."
 90
    36863
280
     1
281
     0
  0
CLASS
  1
AMDTNOTETEMPLATEDB
  2
AmdtNoteTemplateDB
  3
AcmSymBB|Product Description: AutoCAD Mechanical|Company: Autodesk, Inc.
 90
    33792
280
     1
281
     0
  0
CLASS
  1
ACAMGFILTERDAT
  2
AcAmgFilterDat
  3
"AcadM|Product Description: AutoCAD Mechanical|Company: Autodesk, Inc."
 90
    33792
280
     1
281
     0
  0
CLASS
  1
ACAD_PROXY_OBJECT_WRAPPER
  2
AcDbProxyObjectWrapper
  3
ObjectDBX Classes
 90
    32768
280
     0
281
     0
  0
CLASS
  1
CAMSSTRUCTBTNSTATE
  2
StructBtnState
  3
DesignerAssemblies
 90
    33792
280
     1
281
     0
  0
CLASS
  1
STDPART2D
  2
AmgStdPart
  3
AmgStdPart|Product Description: AutoCAD Mechanical|Company: Autodesk, Inc.
 90
    36863
280
     1
281
     1
  0
CLASS
  1
ACAD_PROXY_ENTITY_WRAPPER
  2
AcDbProxyEntityWrapper
  3
ObjectDBX Classes
 90
    32768
280
     0
281
     1
  0
CLASS
  1
ACMSTANDARDANSI
  2
AcmStandardANSI
  3
"Amdt_StdImp|Product Description: AutoCAD Mechanical|Company: Autodesk, Inc."
 90
    33792
280
     1
281
     0
  0
CLASS
  1
ACMSURFSTANDARDANSI
  2
AcmSurfTextStdANSI
  3
"Amdt_StdImp|Product Description: AutoCAD Mechanical|Company: Autodesk, Inc."
 90
    33792
280
     1
281
     0
  0
CLASS
  1
ACMFCFSTANDARDANSI
  2
AcmFCFStdANSI
  3
"Amdt_StdImp|Product Description: AutoCAD Mechanical|Company: Autodesk, Inc."
 90
    33792
280
     1
281
     0
  0
CLASS
  1
ACMWELDSTANDARDANSI
  2
AcmWeldingStdANSI
  3
"Amdt_StdImp|Product Description: AutoCAD Mechanical|Company: Autodesk, Inc."
 90
    33792
280
     1
281
     0
  0
CLASS
  1
ACMIDSTANDARDANSI
  2
AcmIdStdANSI
  3
"Amdt_StdImp|Product Description: AutoCAD Mechanical|Company: Autodesk, Inc."
 90
    33792
280
     1
281
     0
  0
CLASS
  1
ACMDATUMSTANDARDANSI
  2
AcmDatumStdANSI
  3
"Amdt_StdImp|Product Description: AutoCAD Mechanical|Company: Autodesk, Inc."
 90
    33792
280
     1
281
     0
  0
CLASS
  1
ACMBOMSTANDARDANSI
  2
AcmBOMStdANSI
  3
"Amdt_StdImp|Product Description: AutoCAD Mechanical|Company: Autodesk, Inc."
 90
    33792
280
     1
281
     0
  0
CLASS
  1
ACMDETAILSTANDARDANSI
  2
AmdtDetailSymStdANSI
  3
"Amdt_StdImp|Product Description: AutoCAD Mechanical|Company: Autodesk, Inc."
 90
    33792
280
     1
281
     0
  0
CLASS
  1
ACMSECTIONSTANDARDANSI
  2
AmdtSectionSymStdANSI
  3
"Amdt_StdImp|Product Description: AutoCAD Mechanical|Company: Autodesk, Inc."
 90
    33792
280
     1
281
     0
  0
CLASS
  1
ACMCENTERLINESTANDARDANSI
  2
AmdtCenterLineStdANSI
  3
"Amdt_StdImp|Product Description: AutoCAD Mechanical|Company: Autodesk, Inc."
 90
    33792
280
     1
281
     0
  0
CLASS
  1
ACMTHREADLINESTANDARDANSI
  2
AmdtThreadLineStdANSI
  3
"Amdt_StdImp|Product Description: AutoCAD Mechanical|Company: Autodesk, Inc."
 90
    33792
280
     1
281
     0
  0
CLASS
  1
ACMNOTESTANDARDANSI
  2
AmdtNoteStdANSI
  3
"Amdt_StdImp|Product Description: AutoCAD Mechanical|Company: Autodesk, Inc."
 90
    33792
280
     1
281
     0
  0
CLASS
  1
ACMTAPERSTANDARDANSI
  2
AcmTaperStdANSI
  3
"Amdt_StdImp|Product Description: AutoCAD Mechanical|Company: Autodesk, Inc."
 90
    33792
280
     1
281
     0
  0
CLASS
  1
ACMANOOTATIONVIEWSTANDARDANSI
  2
AmdtAnViewStdANSI
  3
"Amdt_StdImp|Product Description: AutoCAD Mechanical|Company: Autodesk, Inc."
 90
    33792
280
     1
281
     0
  0
CLASS
  1
ACAMGHOLECHARTSTDANSI
  2
AcAmgHoleChartStdANSI
  3
AmgDim|Product Description: AutoCAD Mechanical|Company: Autodesk, Inc.
 90
    33792
280
     1
281
     0
  0
CLASS
  1
AEC_REFEDIT_STATUS_TRACKER
  2
AecDbRefEditStatusTracker
  3
AecArchBase50|Product Desc: Autodesk Architectural Desktop 2007 |Company: Autodesk,Inc. |WEB Address: www.autodesk.com
 90
    32897
280
     1
281
     0
  0
ENDSEC
  0
SECTION
  2
TABLES
  0
TABLE
  2
VPORT
  5
31
102
{ACAD_XDICTIONARY
360
38
102
}
330
0
100
AcDbSymbolTable
 70
     1
  0
VPORT
  5
32
330
31
100
AcDbSymbolTableRecord
100
AcDbViewportTableRecord
  2
*Active
 70
     0
 10
0.0
 20
0.0
 11
1.0
 21
1.0
 12
-5858.645613148427
 22
7725.634674329395
 13
0.0
 23
0.0
 14
10.0
 24
10.0
 15
10.0
 25
10.0
 16
0.0
 26
0.0
 36
1.0
 17
0.0
 27
0.0
 37
0.0
 40
476.9146525380832
 41
1.980148883374689
 42
50.0
 43
0.0
 44
0.0
 50
0.0
 51
0.0
 71
     0
 72
   500
 73
     1
 74
     0
 75
     0
 76
     0
 77
     0
 78
     0
281
     0
 65
     1
110
0.0
120
0.0
130
0.0
111
1.0
121
0.0
131
0.0
112
0.0
122
1.0
132
0.0
 79
     0
146
0.0
1001
ACAD_NAV_VCDISPLAY
1070
     3
  0
ENDTAB
  0
TABLE
  2
LTYPE
  5
2C
330
0
100
AcDbSymbolTable
 70
     4
  0
LTYPE
  5
2D
330
2C
100
AcDbSymbolTableRecord
100
AcDbLinetypeTableRecord
  2
ByBlock
 70
     0
  3

 72
    65
 73
     0
 40
0.0
  0
LTYPE
  5
2E
330
2C
100
AcDbSymbolTableRecord
100
AcDbLinetypeTableRecord
  2
ByLayer
 70
     0
  3

 72
    65
 73
     0
 40
0.0
  0
LTYPE
  5
16
330
2C
100
AcDbSymbolTableRecord
100
AcDbLinetypeTableRecord
  2
Continuous
 70
     0
  3
Solid line
 72
    65
 73
     0
 40
0.0
  0
LTYPE
  5
80
330
2C
100
AcDbSymbolTableRecord
100
AcDbLinetypeTableRecord
  2
CENTER
 70
     0
  3
Center ____ _ ____ _ ____ _ ____ _ ____ _ ____
 72
    65
 73
     4
 40
50.8
 49
31.75
 74
     0
 49
-6.349999999999998
 74
     0
 49
6.349999999999998
 74
     0
 49
-6.349999999999998
 74
     0
  0
LTYPE
  5
8E
330
2C
100
AcDbSymbolTableRecord
100
AcDbLinetypeTableRecord
  2
HIDDEN
 70
     0
  3
Hidden __ __ __ __ __ __ __ __ __ __ __ __ __ _
 72
    65
 73
     2
 40
9.524999999999996
 49
6.349999999999998
 74
     0
 49
-3.174999999999998
 74
     0
  0
LTYPE
  5
1C6
330
2C
100
AcDbSymbolTableRecord
100
AcDbLinetypeTableRecord
  2
PHANTOM
 70
     0
  3
Phantom ______  __  __  ______  __  __  ______
 72
    65
 73
     6
 40
2.5
 49
1.25
 74
     0
 49
-0.25
 74
     0
 49
0.25
 74
     0
 49
-0.25
 74
     0
 49
0.25
 74
     0
 49
-0.25
 74
     0
  0
ENDTAB
  0
TABLE
  2
LAYER
  5
23
102
{ACAD_XDICTIONARY
360
24
102
}
330
0
100
AcDbSymbolTable
 70
     2
  0
LAYER
  5
7
102
{ACAD_XDICTIONARY
360
8
102
}
330
23
100
AcDbSymbolTableRecord
100
AcDbLayerTableRecord
  2
0
 70
     0
 62
     7
  6
Continuous
370
    -3
390
A
  0
LAYER
  5
DB
330
23
100
AcDbSymbolTableRecord
100
AcDbLayerTableRecord
  2
Defpoints
 70
     0
 62
     7
  6
Continuous
290
     0
370
    -3
390
A
  0
ENDTAB
  0
TABLE
  2
STYLE
  5
29
330
0
100
AcDbSymbolTable
 70
     3
  0
STYLE
  5
2A
330
29
100
AcDbSymbolTableRecord
100
AcDbTextStyleTableRecord
  2
Standard
 70
     0
 40
0.0
 41
1.0
 50
0.0
 71
     0
 42
3.0
  3
romans.shx
  4
whgtxt.shx
  0
STYLE
  5
EE
330
29
100
AcDbSymbolTableRecord
100
AcDbTextStyleTableRecord
  2
GHS
 70
     0
 40
0.0
 41
0.6
 50
0.0
 71
     0
 42
3.0
  3
ROMANS
  4
GHS
  0
STYLE
  5
33D
330
29
100
AcDbSymbolTableRecord
100
AcDbTextStyleTableRecord
  2
WHGTXT
 70
     0
 40
0.0
 41
0.75
 50
0.0
 71
     0
 42
1.5
  3
romans.shx
  4
whgtxt.shx
  0
ENDTAB
  0
TABLE
  2
VIEW
  5
2F
330
0
100
AcDbSymbolTable
 70
     0
  0
ENDTAB
  0
TABLE
  2
UCS
  5
30
330
0
100
AcDbSymbolTable
 70
     0
  0
ENDTAB
  0
TABLE
  2
APPID
  5
39
330
0
100
AcDbSymbolTable
 70
    10
  0
APPID
  5
28
330
39
100
AcDbSymbolTableRecord
100
AcDbRegAppTableRecord
  2
ACAD
 70
     0
  0
APPID
  5
1C
330
39
100
AcDbSymbolTableRecord
100
AcDbRegAppTableRecord
  2
ACAD_PSEXT
 70
     0
  0
APPID
  5
1AB
330
39
100
AcDbSymbolTableRecord
100
AcDbRegAppTableRecord
  2
ACAD_DSTYLE_DIMRADIAL_EXTENSION
 70
     0
  0
APPID
  5
37
330
39
100
AcDbSymbolTableRecord
100
AcDbRegAppTableRecord
  2
ACAD_NAV_VCDISPLAY
 70
     0
  0
APPID
  5
EF
330
39
100
AcDbSymbolTableRecord
100
AcDbRegAppTableRecord
  2
ACAD_DSTYLE_DIMJAG
 70
     0
  0
APPID
  5
F0
330
39
100
AcDbSymbolTableRecord
100
AcDbRegAppTableRecord
  2
ACAD_DSTYLE_DIMTALN
 70
     0
  0
APPID
  5
3BD
330
39
100
AcDbSymbolTableRecord
100
AcDbRegAppTableRecord
  2
ACAD_DSTYLE_DIM_LINETYPE
 70
     0
  0
APPID
  5
3BE
330
39
100
AcDbSymbolTableRecord
100
AcDbRegAppTableRecord
  2
ACAD_DSTYLE_DIM_EXT1_LINETYPE
 70
     0
  0
APPID
  5
3BF
330
39
100
AcDbSymbolTableRecord
100
AcDbRegAppTableRecord
  2
ACAD_DSTYLE_DIM_EXT2_LINETYPE
 70
     0
  0
APPID
  5
3D7
330
39
100
AcDbSymbolTableRecord
100
AcDbRegAppTableRecord
  2
ACAD_MLEADERVER
 70
     0
  0
ENDTAB
  0
TABLE
  2
DIMSTYLE
  5
3A
330
0
100
AcDbSymbolTable
 70
     3
100
AcDbDimStyleTable
 71
     1
340
3B
  0
DIMSTYLE
105
3B
102
{ACAD_REACTORS
330
381
330
390
330
CF
330
DF
330
F2
330
109
330
126
330
159
330
16D
330
17A
330
19D
330
218
330
227
330
236
330
24D
330
26A
330
29B
330
2AF
330
2BC
330
2D2
330
30A
330
31B
330
32A
102
}
330
3A
100
AcDbSymbolTableRecord
100
AcDbDimStyleTableRecord
  2
STANDARD
 70
     0
 41
2.5
 42
1.0
 43
10.0
 44
0.6
 73
     0
 74
     0
 77
     1
 78
     8
 79
     2
140
3.0
147
1.0
172
     1
174
     1
176
   123
177
   123
178
     3
179
     1
271
     2
272
     2
275
     1
288
     1
289
     0
340
2A
  0
DIMSTYLE
105
ED
330
3A
100
AcDbSymbolTableRecord
100
AcDbDimStyleTableRecord
  2
STANDARD$7
 70
     0
 41
2.5
 42
0.1
 73
     0
 74
     0
 77
     1
 78
     8
140
2.5
141
0.0
147
1.0
176
   256
177
   256
178
   256
271
     2
272
     2
284
     8
289
     0
340
EE
371
    -1
372
    -1
1001
ACAD_DSTYLE_DIMJAG
1070
   388
1040
1.5
1001
ACAD_DSTYLE_DIMTALN
1070
   392
1070
     0
1001
ACAD_DSTYLE_DIM_LINETYPE
1070
   380
1005
2E
1001
ACAD_DSTYLE_DIM_EXT1_LINETYPE
1070
   381
1005
2E
1001
ACAD_DSTYLE_DIM_EXT2_LINETYPE
1070
   382
1005
2E
  0
ENDTAB
  0
TABLE
  2
BLOCK_RECORD
  5
1
330
0
100
AcDbSymbolTable
 70
    23
  0
BLOCK_RECORD
  5
2
102
{ACAD_XDICTIONARY
360
3
102
}
330
1
100
AcDbSymbolTableRecord
100
AcDbBlockTableRecord
  2
*Model_Space
340
18
  0
BLOCK_RECORD
  5
1D
102
{ACAD_XDICTIONARY
360
1E
102
}
330
1
100
AcDbSymbolTableRecord
100
AcDbBlockTableRecord
  2
*Paper_Space
340
22
  0
BLOCK_RECORD
  5
E0
330
1
100
AcDbSymbolTableRecord
100
AcDbBlockTableRecord
  2
*D0
340
0
  0
BLOCK_RECORD
  5
16E
330
1
100
AcDbSymbolTableRecord
100
AcDbBlockTableRecord
  2
*D1
340
0
  0
BLOCK_RECORD
  5
228
330
1
100
AcDbSymbolTableRecord
100
AcDbBlockTableRecord
  2
*D2
340
0
  0
BLOCK_RECORD
  5
26B
330
1
100
AcDbSymbolTableRecord
100
AcDbBlockTableRecord
  2
*D3
340
0
  0
BLOCK_RECORD
  5
2B0
330
1
100
AcDbSymbolTableRecord
100
AcDbBlockTableRecord
  2
*D4
340
0
  0
BLOCK_RECORD
  5
384
330
1
100
AcDbSymbolTableRecord
100
AcDbBlockTableRecord
  2
*D5
340
0
  0
BLOCK_RECORD
  5
393
330
1
100
AcDbSymbolTableRecord
100
AcDbBlockTableRecord
  2
*D6
340
0
  0
BLOCK_RECORD
  5
D2
330
1
100
AcDbSymbolTableRecord
100
AcDbBlockTableRecord
  2
*D7
340
0
  0
BLOCK_RECORD
  5
F5
330
1
100
AcDbSymbolTableRecord
100
AcDbBlockTableRecord
  2
*D8
340
0
  0
BLOCK_RECORD
  5
10C
330
1
100
AcDbSymbolTableRecord
100
AcDbBlockTableRecord
  2
*D9
340
0
  0
BLOCK_RECORD
  5
129
330
1
100
AcDbSymbolTableRecord
100
AcDbBlockTableRecord
  2
*D10
340
0
  0
BLOCK_RECORD
  5
15C
330
1
100
AcDbSymbolTableRecord
100
AcDbBlockTableRecord
  2
*D11
340
0
  0
BLOCK_RECORD
  5
17D
330
1
100
AcDbSymbolTableRecord
100
AcDbBlockTableRecord
  2
*D12
340
0
  0
BLOCK_RECORD
  5
1A0
330
1
100
AcDbSymbolTableRecord
100
AcDbBlockTableRecord
  2
*D13
340
0
  0
BLOCK_RECORD
  5
21B
330
1
100
AcDbSymbolTableRecord
100
AcDbBlockTableRecord
  2
*D14
340
0
  0
BLOCK_RECORD
  5
239
330
1
100
AcDbSymbolTableRecord
100
AcDbBlockTableRecord
  2
*D15
340
0
  0
BLOCK_RECORD
  5
250
330
1
100
AcDbSymbolTableRecord
100
AcDbBlockTableRecord
  2
*D16
340
0
  0
BLOCK_RECORD
  5
29E
330
1
100
AcDbSymbolTableRecord
100
AcDbBlockTableRecord
  2
*D17
340
0
  0
BLOCK_RECORD
  5
2BF
330
1
100
AcDbSymbolTableRecord
100
AcDbBlockTableRecord
  2
*D18
340
0
  0
BLOCK_RECORD
  5
2D5
330
1
100
AcDbSymbolTableRecord
100
AcDbBlockTableRecord
  2
*D19
340
0
  0
BLOCK_RECORD
  5
30D
330
1
100
AcDbSymbolTableRecord
100
AcDbBlockTableRecord
  2
*D20
340
0
  0
BLOCK_RECORD
  5
31E
330
1
100
AcDbSymbolTableRecord
100
AcDbBlockTableRecord
  2
*D21
340
0
  0
BLOCK_RECORD
  5
32D
330
1
100
AcDbSymbolTableRecord
100
AcDbBlockTableRecord
  2
*D22
340
0
  0
ENDTAB
  0
ENDSEC
  0
SECTION
  2
BLOCKS
  0
BLOCK
  5
6
330
2
100
AcDbEntity
  8
0
100
AcDbBlockBegin
  2
*Model_Space
 70
     0
 10
0.0
 20
0.0
 30
0.0
  3
*Model_Space
  1

  0
ENDBLK
  5
17
330
2
100
AcDbEntity
  8
0
100
AcDbBlockEnd
  0
BLOCK
  5
20
330
1D
100
AcDbEntity
 67
     1
  8
0
100
AcDbBlockBegin
  2
*Paper_Space
 70
     0
 10
0.0
 20
0.0
 30
0.0
  3
*Paper_Space
  1

  0
ENDBLK
  5
21
330
1D
100
AcDbEntity
 67
     1
  8
0
100
AcDbBlockEnd
  0
BLOCK
  5
E1
330
E0
100
AcDbEntity
  8
0
100
AcDbBlockBegin
  2
*D0
 70
     1
 10
0.0
 20
0.0
 30
0.0
  3
*D0
  1

  0
LINE
  5
E2
330
E0
100
AcDbEntity
  8
0
 62
   123
370
    -2
100
AcDbLine
 10
-6062.40841419998
 20
7713.323967904095
 30
0.0
 11
-6056.599224342935
 21
7700.866120053096
 31
0.0
  0
LINE
  5
E3
330
E0
100
AcDbEntity
  8
0
 62
   123
370
    -2
100
AcDbLine
 10
-6013.906899923417
 20
7732.354617206742
 30
0.0
 11
-6009.471219417021
 21
7722.842269663593
 31
0.0
  0
LINE
  5
E4
330
E0
100
AcDbEntity
  8
0
 62
   123
370
    -2
100
AcDbLine
 10
-6054.587025832389
 20
7702.46645037967
 30
0.0
 11
-6011.990559841656
 21
7722.329508681466
 31
0.0
  0
SOLID
  5
E5
330
E0
100
AcDbEntity
  8
0
 62
   123
100
AcDbTrace
 10
-6054.76311677478
 20
7702.844078624266
 30
0.0
 11
-6054.410934889997
 21
7702.088822135073
 31
0.0
 12
-6056.85279529998
 22
7701.40990472532
 32
0.0
 13
-6056.85279529998
 23
7701.40990472532
 33
0.0
  0
SOLID
  5
E6
330
E0
100
AcDbEntity
  8
0
 62
   123
100
AcDbTrace
 10
-6012.166650784049
 20
7722.707136926065
 30
0.0
 11
-6011.814468899268
 21
7721.951880436868
 31
0.0
 12
-6009.724790374065
 22
7723.386054335818
 32
0.0
 13
-6009.724790374065
 23
7723.386054335818
 33
0.0
  0
MTEXT
  5
E7
330
E0
100
AcDbEntity
  8
0
 62
     3
100
AcDbMText
 10
-6034.345338491373
 20
7714.66374899816
 30
0.0
 40
3.0
 41
0.0
 71
     5
 72
     1
  1
\A1;300
 11
0.9063077870368259
 21
0.4226182617403219
 31
0.0
 73
     1
 44
1.0
1001
ACAD
1000
MTEXTBEGIN
1070
    73
1070
     1
1070
    44
1040
1.0
1070
    74
1070
     0
1000
MTEXTEND
  0
POINT
  5
E8
330
E0
100
AcDbEntity
  8
Defpoints
 62
     0
100
AcDbPoint
 10
-6062.831032461723
 20
7714.230275691132
 30
0.0
  0
POINT
  5
E9
330
E0
100
AcDbEntity
  8
Defpoints
 62
     0
100
AcDbPoint
 10
-6014.329518185157
 20
7733.260924993778
 30
0.0
  0
POINT
  5
EA
330
E0
100
AcDbEntity
  8
Defpoints
 62
     0
100
AcDbPoint
 10
-6009.724790374065
 20
7723.386054335818
 30
0.0
  0
ENDBLK
  5
EB
330
E0
100
AcDbEntity
  8
0
100
AcDbBlockEnd
  0
BLOCK
  5
16F
330
16E
100
AcDbEntity
  8
0
100
AcDbBlockBegin
  2
*D1
 70
     1
 10
0.0
 20
0.0
 30
0.0
  3
*D1
  1

  0
LINE
  5
170
330
16E
100
AcDbEntity
  8
0
 62
   123
370
    -2
100
AcDbLine
 10
-6093.654258546912
 20
7718.671184376017
 30
0.0
 11
-6076.173559238299
 21
7718.671184376017
 31
0.0
  0
LINE
  5
171
330
16E
100
AcDbEntity
  8
0
 62
   123
370
    -2
100
AcDbLine
 10
-6093.654258546917
 20
7788.671184376018
 30
0.0
 11
-6076.173559238299
 21
7788.671184376018
 31
0.0
  0
LINE
  5
172
330
16E
100
AcDbEntity
  8
0
 62
   123
370
    -2
100
AcDbLine
 10
-6076.7735592383
 20
7721.171184376014
 30
0.0
 11
-6076.7735592383
 21
7786.171184376017
 31
0.0
  0
SOLID
  5
173
330
16E
100
AcDbEntity
  8
0
 62
   123
100
AcDbTrace
 10
-6077.190225904967
 20
7721.171184376014
 30
0.0
 11
-6076.356892571634
 21
7721.171184376014
 31
0.0
 12
-6076.7735592383
 22
7718.671184376017
 32
0.0
 13
-6076.7735592383
 23
7718.671184376017
 33
0.0
  0
SOLID
  5
174
330
16E
100
AcDbEntity
  8
0
 62
   123
100
AcDbTrace
 10
-6077.190225904967
 20
7786.171184376017
 30
0.0
 11
-6076.356892571634
 21
7786.171184376017
 31
0.0
 12
-6076.7735592383
 22
7788.671184376018
 32
0.0
 13
-6076.7735592383
 23
7788.671184376018
 33
0.0
  0
MTEXT
  5
175
330
16E
100
AcDbEntity
  8
0
 62
     3
100
AcDbMText
 10
-6079.273559238299
 20
7753.671184376016
 30
0.0
 40
3.0
 41
0.0
 71
     5
 72
     1
  1
\A1;%%C70
 11
0.0000000000000001
 21
1.0
 31
0.0
 73
     1
 44
1.0
1001
ACAD
1000
MTEXTBEGIN
1070
    73
1070
     1
1070
    44
1040
1.0
1070
    74
1070
     0
1000
MTEXTEND
  0
POINT
  5
176
330
16E
100
AcDbEntity
  8
Defpoints
 62
     0
100
AcDbPoint
 10
-6094.654258546913
 20
7718.671184376017
 30
0.0
  0
POINT
  5
177
330
16E
100
AcDbEntity
  8
Defpoints
 62
     0
100
AcDbPoint
 10
-6094.654258546917
 20
7788.671184376018
 30
0.0
  0
POINT
  5
178
330
16E
100
AcDbEntity
  8
Defpoints
 62
     0
100
AcDbPoint
 10
-6076.7735592383
 20
7788.671184376018
 30
0.0
  0
ENDBLK
  5
179
330
16E
100
AcDbEntity
  8
0
100
AcDbBlockEnd
  0
BLOCK
  5
229
330
228
100
AcDbEntity
  8
0
100
AcDbBlockBegin
  2
*D2
 70
     1
 10
0.0
 20
0.0
 30
0.0
  3
*D2
  1

  0
LINE
  5
22A
330
228
100
AcDbEntity
  8
0
 62
   123
370
    -2
100
AcDbLine
 10
-5505.501337552278
 20
7713.323967904095
 30
0.0
 11
-5499.692147695236
 21
7700.866120053099
 31
0.0
  0
LINE
  5
22B
330
228
100
AcDbEntity
  8
0
 62
   123
370
    -2
100
AcDbLine
 10
-5456.999823275717
 20
7732.354617206745
 30
0.0
 11
-5452.564142769322
 21
7722.842269663598
 31
0.0
  0
LINE
  5
22C
330
228
100
AcDbEntity
  8
0
 62
   123
370
    -2
100
AcDbLine
 10
-5497.679949184687
 20
7702.466450379674
 30
0.0
 11
-5455.083483193957
 21
7722.32950868147
 31
0.0
  0
SOLID
  5
22D
330
228
100
AcDbEntity
  8
0
 62
   123
100
AcDbTrace
 10
-5497.856040127079
 20
7702.844078624273
 30
0.0
 11
-5497.503858242296
 21
7702.088822135076
 31
0.0
 12
-5499.945718652281
 22
7701.409904725323
 32
0.0
 13
-5499.945718652281
 23
7701.409904725323
 33
0.0
  0
SOLID
  5
22E
330
228
100
AcDbEntity
  8
0
 62
   123
100
AcDbTrace
 10
-5455.259574136349
 20
7722.707136926067
 30
0.0
 11
-5454.907392251564
 21
7721.951880436873
 31
0.0
 12
-5452.817713726364
 22
7723.38605433582
 32
0.0
 13
-5452.817713726364
 23
7723.38605433582
 33
0.0
  0
MTEXT
  5
22F
330
228
100
AcDbEntity
  8
0
 62
     3
100
AcDbMText
 10
-5477.438261843674
 20
7714.663748998161
 30
0.0
 40
3.0
 41
0.0
 71
     5
 72
     1
  1
\A1;300
 11
0.9063077870368212
 21
0.4226182617403318
 31
0.0
 73
     1
 44
1.0
1001
ACAD
1000
MTEXTBEGIN
1070
    73
1070
     1
1070
    44
1040
1.0
1070
    74
1070
     0
1000
MTEXTEND
  0
POINT
  5
230
330
228
100
AcDbEntity
  8
Defpoints
 62
     0
100
AcDbPoint
 10
-5505.923955814019
 20
7714.230275691133
 30
0.0
  0
POINT
  5
231
330
228
100
AcDbEntity
  8
Defpoints
 62
     0
100
AcDbPoint
 10
-5457.422441537457
 20
7733.26092499378
 30
0.0
  0
POINT
  5
232
330
228
100
AcDbEntity
  8
Defpoints
 62
     0
100
AcDbPoint
 10
-5452.817713726364
 20
7723.38605433582
 30
0.0
  0
ENDBLK
  5
233
330
228
100
AcDbEntity
  8
0
100
AcDbBlockEnd
  0
BLOCK
  5
26C
330
26B
100
AcDbEntity
  8
0
100
AcDbBlockBegin
  2
*D3
 70
     1
 10
0.0
 20
0.0
 30
0.0
  3
*D3
  1

  0
LINE
  5
26D
330
26B
100
AcDbEntity
  8
0
 62
   123
370
    -2
100
AcDbLine
 10
-5655.247181899215
 20
7757.671184376016
 30
0.0
 11
-5655.247181899215
 21
7809.263774407655
 31
0.0
  0
LINE
  5
26E
330
26B
100
AcDbEntity
  8
0
 62
   123
370
    -2
100
AcDbLine
 10
-5623.247181899215
 20
7789.671184376017
 30
0.0
 11
-5623.247181899215
 21
7809.263774407655
 31
0.0
  0
LINE
  5
26F
330
26B
100
AcDbEntity
  8
0
 62
   123
370
    -2
100
AcDbLine
 10
-5652.747181899215
 20
7808.663774407654
 30
0.0
 11
-5625.747181899215
 21
7808.663774407654
 31
0.0
  0
SOLID
  5
270
330
26B
100
AcDbEntity
  8
0
 62
   123
100
AcDbTrace
 10
-5652.747181899215
 20
7809.080441074321
 30
0.0
 11
-5652.747181899215
 21
7808.247107740988
 31
0.0
 12
-5655.247181899215
 22
7808.663774407654
 32
0.0
 13
-5655.247181899215
 23
7808.663774407654
 33
0.0
  0
SOLID
  5
271
330
26B
100
AcDbEntity
  8
0
 62
   123
100
AcDbTrace
 10
-5625.747181899215
 20
7809.080441074321
 30
0.0
 11
-5625.747181899215
 21
7808.247107740988
 31
0.0
 12
-5623.247181899215
 22
7808.663774407654
 32
0.0
 13
-5623.247181899215
 23
7808.663774407654
 33
0.0
  0
MTEXT
  5
272
330
26B
100
AcDbEntity
  8
0
 62
     3
100
AcDbMText
 10
-5639.247181899215
 20
7811.163774407653
 30
0.0
 40
3.0
 41
0.0
 71
     5
 72
     1
  1
\A1;32
 73
     1
 44
1.0
1001
ACAD
1000
MTEXTBEGIN
1070
    73
1070
     1
1070
    44
1040
1.0
1070
    74
1070
     0
1000
MTEXTEND
  0
POINT
  5
273
330
26B
100
AcDbEntity
  8
Defpoints
 62
     0
100
AcDbPoint
 10
-5655.247181899215
 20
7756.671184376017
 30
0.0
  0
POINT
  5
274
330
26B
100
AcDbEntity
  8
Defpoints
 62
     0
100
AcDbPoint
 10
-5623.247181899215
 20
7788.671184376017
 30
0.0
  0
POINT
  5
275
330
26B
100
AcDbEntity
  8
Defpoints
 62
     0
100
AcDbPoint
 10
-5623.247181899215
 20
7808.663774407654
 30
0.0
  0
ENDBLK
  5
276
330
26B
100
AcDbEntity
  8
0
100
AcDbBlockEnd
  0
BLOCK
  5
2B1
330
2B0
100
AcDbEntity
  8
0
100
AcDbBlockBegin
  2
*D4
 70
     1
 10
0.0
 20
0.0
 30
0.0
  3
*D4
  1

  0
LINE
  5
2B2
330
2B0
100
AcDbEntity
  8
0
 62
   123
370
    -2
100
AcDbLine
 10
-5536.747181899212
 20
7718.671184376017
 30
0.0
 11
-5519.266482590598
 21
7718.671184376017
 31
0.0
  0
LINE
  5
2B3
330
2B0
100
AcDbEntity
  8
0
 62
   123
370
    -2
100
AcDbLine
 10
-5536.747181899215
 20
7788.671184376018
 30
0.0
 11
-5519.266482590598
 21
7788.671184376018
 31
0.0
  0
LINE
  5
2B4
330
2B0
100
AcDbEntity
  8
0
 62
   123
370
    -2
100
AcDbLine
 10
-5519.866482590598
 20
7721.171184376014
 30
0.0
 11
-5519.866482590598
 21
7786.171184376017
 31
0.0
  0
SOLID
  5
2B5
330
2B0
100
AcDbEntity
  8
0
 62
   123
100
AcDbTrace
 10
-5520.283149257264
 20
7721.171184376014
 30
0.0
 11
-5519.44981592393
 21
7721.171184376014
 31
0.0
 12
-5519.866482590598
 22
7718.671184376017
 32
0.0
 13
-5519.866482590598
 23
7718.671184376017
 33
0.0
  0
SOLID
  5
2B6
330
2B0
100
AcDbEntity
  8
0
 62
   123
100
AcDbTrace
 10
-5520.283149257264
 20
7786.171184376017
 30
0.0
 11
-5519.44981592393
 21
7786.171184376017
 31
0.0
 12
-5519.866482590598
 22
7788.671184376018
 32
0.0
 13
-5519.866482590598
 23
7788.671184376018
 33
0.0
  0
MTEXT
  5
2B7
330
2B0
100
AcDbEntity
  8
0
 62
     3
100
AcDbMText
 10
-5522.366482590599
 20
7753.671184376016
 30
0.0
 40
3.0
 41
0.0
 71
     5
 72
     1
  1
\A1;%%C70
 11
0.0000000000000001
 21
1.0
 31
0.0
 73
     1
 44
1.0
1001
ACAD
1000
MTEXTBEGIN
1070
    73
1070
     1
1070
    44
1040
1.0
1070
    74
1070
     0
1000
MTEXTEND
  0
POINT
  5
2B8
330
2B0
100
AcDbEntity
  8
Defpoints
 62
     0
100
AcDbPoint
 10
-5537.747181899212
 20
7718.671184376017
 30
0.0
  0
POINT
  5
2B9
330
2B0
100
AcDbEntity
  8
Defpoints
 62
     0
100
AcDbPoint
 10
-5537.747181899216
 20
7788.671184376018
 30
0.0
  0
POINT
  5
2BA
330
2B0
100
AcDbEntity
  8
Defpoints
 62
     0
100
AcDbPoint
 10
-5519.866482590598
 20
7788.671184376018
 30
0.0
  0
ENDBLK
  5
2BB
330
2B0
100
AcDbEntity
  8
0
100
AcDbBlockEnd
  0
BLOCK
  5
385
330
384
100
AcDbEntity
  8
0
100
AcDbBlockBegin
  2
*D5
 70
     1
 10
0.0
 20
0.0
 30
0.0
  3
*D5
  1

  0
LINE
  5
386
330
384
100
AcDbEntity
  8
0
 62
   123
370
    -2
100
AcDbLine
 10
-6180.154258546917
 20
7789.671184376017
 30
0.0
 11
-6180.154258546917
 21
7797.581808020152
 31
0.0
  0
LINE
  5
387
330
384
100
AcDbEntity
  8
0
 62
   123
370
    -2
100
AcDbLine
 10
-6172.654258546916
 20
7789.671184376017
 30
0.0
 11
-6172.654258546916
 21
7797.581808020152
 31
0.0
  0
LINE
  5
388
330
384
100
AcDbEntity
  8
0
 62
   123
370
    -2
100
AcDbLine
 10
-6177.654258546917
 20
7796.981808020153
 30
0.0
 11
-6175.154258546918
 21
7796.981808020153
 31
0.0
  0
SOLID
  5
389
330
384
100
AcDbEntity
  8
0
 62
   123
100
AcDbTrace
 10
-6177.654258546917
 20
7797.398474686819
 30
0.0
 11
-6177.654258546917
 21
7796.565141353484
 31
0.0
 12
-6180.154258546917
 22
7796.981808020153
 32
0.0
 13
-6180.154258546917
 23
7796.981808020153
 33
0.0
  0
SOLID
  5
38A
330
384
100
AcDbEntity
  8
0
 62
   123
100
AcDbTrace
 10
-6175.154258546918
 20
7797.398474686819
 30
0.0
 11
-6175.154258546918
 21
7796.565141353484
 31
0.0
 12
-6172.654258546916
 22
7796.981808020153
 32
0.0
 13
-6172.654258546916
 23
7796.981808020153
 33
0.0
  0
MTEXT
  5
38B
330
384
100
AcDbEntity
  8
0
 62
     3
100
AcDbMText
 10
-6176.404258546916
 20
7799.481808020151
 30
0.0
 40
3.0
 41
0.0
 71
     5
 72
     1
  1
\A1;7.5
 73
     1
 44
1.0
1001
ACAD
1000
MTEXTBEGIN
1070
    73
1070
     1
1070
    44
1040
1.0
1070
    74
1070
     0
1000
MTEXTEND
  0
POINT
  5
38C
330
384
100
AcDbEntity
  8
Defpoints
 62
     0
100
AcDbPoint
 10
-6180.154258546917
 20
7788.671184376017
 30
0.0
  0
POINT
  5
38D
330
384
100
AcDbEntity
  8
Defpoints
 62
     0
100
AcDbPoint
 10
-6172.654258546916
 20
7788.671184376017
 30
0.0
  0
POINT
  5
38E
330
384
100
AcDbEntity
  8
Defpoints
 62
     0
100
AcDbPoint
 10
-6172.654258546916
 20
7796.981808020153
 30
0.0
  0
ENDBLK
  5
38F
330
384
100
AcDbEntity
  8
0
100
AcDbBlockEnd
  0
BLOCK
  5
394
330
393
100
AcDbEntity
  8
0
100
AcDbBlockBegin
  2
*D6
 70
     1
 10
0.0
 20
0.0
 30
0.0
  3
*D6
  1

  0
LINE
  5
395
330
393
100
AcDbEntity
  8
0
 62
   123
370
    -2
100
AcDbLine
 10
-5623.247181899215
 20
7789.671184376017
 30
0.0
 11
-5623.247181899215
 21
7798.271184376017
 31
0.0
  0
LINE
  5
396
330
393
100
AcDbEntity
  8
0
 62
   123
370
    -2
100
AcDbLine
 10
-5615.747181899216
 20
7789.671184376017
 30
0.0
 11
-5615.747181899216
 21
7798.271184376017
 31
0.0
  0
LINE
  5
397
330
393
100
AcDbEntity
  8
0
 62
   123
370
    -2
100
AcDbLine
 10
-5620.747181899215
 20
7797.671184376017
 30
0.0
 11
-5618.247181899215
 21
7797.671184376017
 31
0.0
  0
SOLID
  5
398
330
393
100
AcDbEntity
  8
0
 62
   123
100
AcDbTrace
 10
-5620.747181899215
 20
7798.087851042684
 30
0.0
 11
-5620.747181899215
 21
7797.254517709349
 31
0.0
 12
-5623.247181899215
 22
7797.671184376017
 32
0.0
 13
-5623.247181899215
 23
7797.671184376017
 33
0.0
  0
SOLID
  5
399
330
393
100
AcDbEntity
  8
0
 62
   123
100
AcDbTrace
 10
-5618.247181899215
 20
7798.087851042684
 30
0.0
 11
-5618.247181899215
 21
7797.254517709349
 31
0.0
 12
-5615.747181899216
 22
7797.671184376017
 32
0.0
 13
-5615.747181899216
 23
7797.671184376017
 33
0.0
  0
MTEXT
  5
39A
330
393
100
AcDbEntity
  8
0
 62
     3
100
AcDbMText
 10
-5619.910328597621
 20
7800.171184376016
 30
0.0
 40
3.0
 41
0.0
 71
     5
 72
     1
  1
\A1;7.5
 73
     1
 44
1.0
1001
ACAD
1000
MTEXTBEGIN
1070
    73
1070
     1
1070
    44
1040
1.0
1070
    74
1070
     0
1000
MTEXTEND
  0
POINT
  5
39B
330
393
100
AcDbEntity
  8
Defpoints
 62
     0
100
AcDbPoint
 10
-5623.247181899215
 20
7788.671184376017
 30
0.0
  0
POINT
  5
39C
330
393
100
AcDbEntity
  8
Defpoints
 62
     0
100
AcDbPoint
 10
-5615.747181899216
 20
7788.671184376018
 30
0.0
  0
POINT
  5
39D
330
393
100
AcDbEntity
  8
Defpoints
 62
     0
100
AcDbPoint
 10
-5615.747181899216
 20
7797.671184376017
 30
0.0
  0
ENDBLK
  5
39E
330
393
100
AcDbEntity
  8
0
100
AcDbBlockEnd
  0
BLOCK
  5
D3
330
D2
100
AcDbEntity
  8
0
100
AcDbBlockBegin
  2
*D7
 70
     1
 10
0.0
 20
0.0
 30
0.0
  3
*D7
  1

  0
LINE
  5
D4
330
D2
100
AcDbEntity
  8
0
 62
   123
370
    -2
100
AcDbLine
 10
-6180.154258546917
 20
7789.671184376017
 30
0.0
 11
-6180.154258546917
 21
7809.570485168484
 31
0.0
  0
LINE
  5
D5
330
D2
100
AcDbEntity
  8
0
 62
   123
370
    -2
100
AcDbLine
 10
-6093.654258546917
 20
7788.671184376018
 30
0.0
 11
-6093.654258546917
 21
7809.570485168484
 31
0.0
  0
LINE
  5
D6
330
D2
100
AcDbEntity
  8
0
 62
   123
370
    -2
100
AcDbLine
 10
-6177.654258546917
 20
7808.970485168484
 30
0.0
 11
-6096.154258546917
 21
7808.970485168484
 31
0.0
  0
SOLID
  5
D7
330
D2
100
AcDbEntity
  8
0
 62
   123
100
AcDbTrace
 10
-6177.654258546917
 20
7809.38715183515
 30
0.0
 11
-6177.654258546917
 21
7808.553818501817
 31
0.0
 12
-6180.154258546917
 22
7808.970485168484
 32
0.0
 13
-6180.154258546917
 23
7808.970485168484
 33
0.0
  0
SOLID
  5
D8
330
D2
100
AcDbEntity
  8
0
 62
   123
100
AcDbTrace
 10
-6096.154258546917
 20
7809.38715183515
 30
0.0
 11
-6096.154258546917
 21
7808.553818501817
 31
0.0
 12
-6093.654258546917
 22
7808.970485168484
 32
0.0
 13
-6093.654258546917
 23
7808.970485168484
 33
0.0
  0
MTEXT
  5
D9
330
D2
100
AcDbEntity
  8
0
 62
     3
100
AcDbMText
 10
-6136.904258546917
 20
7811.470485168483
 30
0.0
 40
3.0
 41
0.0
 71
     5
 72
     1
  1
\A1;86.5
 73
     1
 44
1.0
1001
ACAD
1000
MTEXTBEGIN
1070
    73
1070
     1
1070
    44
1040
1.0
1070
    74
1070
     0
1000
MTEXTEND
  0
POINT
  5
DA
330
D2
100
AcDbEntity
  8
Defpoints
 62
     0
100
AcDbPoint
 10
-6180.154258546917
 20
7788.671184376017
 30
0.0
  0
POINT
  5
DC
330
D2
100
AcDbEntity
  8
Defpoints
 62
     0
100
AcDbPoint
 10
-6093.654258546917
 20
7787.671184376018
 30
0.0
  0
POINT
  5
DD
330
D2
100
AcDbEntity
  8
Defpoints
 62
     0
100
AcDbPoint
 10
-6093.654258546917
 20
7808.970485168484
 30
0.0
  0
ENDBLK
  5
DE
330
D2
100
AcDbEntity
  8
0
100
AcDbBlockEnd
  0
BLOCK
  5
F6
330
F5
100
AcDbEntity
  8
0
100
AcDbBlockBegin
  2
*D8
 70
     1
 10
0.0
 20
0.0
 30
0.0
  3
*D8
  1

  0
LINE
  5
F7
330
F5
100
AcDbEntity
  8
0
 62
   123
370
    -2
100
AcDbLine
 10
-6182.654258546917
 20
7721.671184376017
 30
0.0
 11
-6209.910618906743
 21
7721.671184376017
 31
0.0
  0
LINE
  5
F8
330
F5
100
AcDbEntity
  8
0
 62
   123
370
    -2
100
AcDbLine
 10
-6182.654258546917
 20
7785.671184376017
 30
0.0
 11
-6209.910618906743
 21
7785.671184376017
 31
0.0
  0
LINE
  5
F9
330
F5
100
AcDbEntity
  8
0
 62
   123
370
    -2
100
AcDbLine
 10
-6209.310618906742
 20
7724.171184376017
 30
0.0
 11
-6209.310618906742
 21
7783.171184376017
 31
0.0
  0
SOLID
  5
FA
330
F5
100
AcDbEntity
  8
0
 62
   123
100
AcDbTrace
 10
-6209.727285573409
 20
7724.171184376017
 30
0.0
 11
-6208.893952240075
 21
7724.171184376017
 31
0.0
 12
-6209.310618906742
 22
7721.671184376017
 32
0.0
 13
-6209.310618906742
 23
7721.671184376017
 33
0.0
  0
SOLID
  5
FB
330
F5
100
AcDbEntity
  8
0
 62
   123
100
AcDbTrace
 10
-6209.727285573409
 20
7783.171184376017
 30
0.0
 11
-6208.893952240075
 21
7783.171184376017
 31
0.0
 12
-6209.310618906742
 22
7785.671184376017
 32
0.0
 13
-6209.310618906742
 23
7785.671184376017
 33
0.0
  0
MTEXT
  5
FC
330
F5
100
AcDbEntity
  8
0
 62
     3
100
AcDbMText
 10
-6212.760618906743
 20
7753.671184376014
 30
0.0
 40
3.0
 41
0.0
 71
     5
 72
     1
  1
\A1;%%C64{\H0.7x;\S  0^ -0.03;}
 11
0.0000000000000001
 21
1.0
 31
0.0
 73
     1
 44
1.0
1001
ACAD
1000
MTEXTBEGIN
1070
    73
1070
     1
1070
    44
1040
1.0
1070
    74
1070
     0
1000
MTEXTEND
  0
POINT
  5
FD
330
F5
100
AcDbEntity
  8
Defpoints
 62
     0
100
AcDbPoint
 10
-6181.654258546917
 20
7721.671184376017
 30
0.0
  0
POINT
  5
FE
330
F5
100
AcDbEntity
  8
Defpoints
 62
     0
100
AcDbPoint
 10
-6181.654258546917
 20
7785.671184376017
 30
0.0
  0
POINT
  5
FF
330
F5
100
AcDbEntity
  8
Defpoints
 62
     0
100
AcDbPoint
 10
-6209.310618906742
 20
7785.671184376017
 30
0.0
  0
ENDBLK
  5
100
330
F5
100
AcDbEntity
  8
0
100
AcDbBlockEnd
  0
BLOCK
  5
10D
330
10C
100
AcDbEntity
  8
0
100
AcDbBlockBegin
  2
*D9
 70
     1
 10
0.0
 20
0.0
 30
0.0
  3
*D9
  1

  0
LINE
  5
10E
330
10C
100
AcDbEntity
  8
0
 62
   123
370
    -2
100
AcDbLine
 10
-6318.573684397893
 20
7783.671184376017
 30
0.0
 11
-6318.573684397893
 21
7807.418963609173
 31
0.0
  0
LINE
  5
10F
330
10C
100
AcDbEntity
  8
0
 62
   123
370
    -2
100
AcDbLine
 10
-6248.573684397894
 20
7783.671184376017
 30
0.0
 11
-6248.573684397894
 21
7807.418963609173
 31
0.0
  0
LINE
  5
110
330
10C
100
AcDbEntity
  8
0
 62
   123
370
    -2
100
AcDbLine
 10
-6316.073684397894
 20
7806.818963609174
 30
0.0
 11
-6251.073684397894
 21
7806.818963609174
 31
0.0
  0
SOLID
  5
111
330
10C
100
AcDbEntity
  8
0
 62
   123
100
AcDbTrace
 10
-6316.073684397894
 20
7807.23563027584
 30
0.0
 11
-6316.073684397894
 21
7806.402296942508
 31
0.0
 12
-6318.573684397893
 22
7806.818963609174
 32
0.0
 13
-6318.573684397893
 23
7806.818963609174
 33
0.0
  0
SOLID
  5
112
330
10C
100
AcDbEntity
  8
0
 62
   123
100
AcDbTrace
 10
-6251.073684397894
 20
7807.23563027584
 30
0.0
 11
-6251.073684397894
 21
7806.402296942508
 31
0.0
 12
-6248.573684397894
 22
7806.818963609174
 32
0.0
 13
-6248.573684397894
 23
7806.818963609174
 33
0.0
  0
MTEXT
  5
113
330
10C
100
AcDbEntity
  8
0
 62
     3
100
AcDbMText
 10
-6283.573684397894
 20
7809.318963609173
 30
0.0
 40
3.0
 41
0.0
 71
     5
 72
     1
  1
\A1;{\fGulim|b0|i0|c129|p50;□}70
 73
     1
 44
1.0
1001
ACAD
1000
MTEXTBEGIN
1070
    73
1070
     1
1070
    44
1040
1.0
1070
    74
1070
     0
1000
MTEXTEND
  0
POINT
  5
114
330
10C
100
AcDbEntity
  8
Defpoints
 62
     0
100
AcDbPoint
 10
-6318.573684397893
 20
7782.671184376017
 30
0.0
  0
POINT
  5
115
330
10C
100
AcDbEntity
  8
Defpoints
 62
     0
100
AcDbPoint
 10
-6248.573684397894
 20
7782.671184376017
 30
0.0
  0
POINT
  5
116
330
10C
100
AcDbEntity
  8
Defpoints
 62
     0
100
AcDbPoint
 10
-6248.573684397894
 20
7806.818963609174
 30
0.0
  0
ENDBLK
  5
117
330
10C
100
AcDbEntity
  8
0
100
AcDbBlockEnd
  0
BLOCK
  5
12A
330
129
100
AcDbEntity
  8
0
100
AcDbBlockBegin
  2
*D10
 70
     1
 10
0.0
 20
0.0
 30
0.0
  3
*D10
  1

  0
LINE
  5
12B
330
129
100
AcDbEntity
  8
0
 62
   123
370
    -2
100
AcDbLine
 10
-6193.154258546917
 20
7757.531184376016
 30
0.0
 11
-6193.154258546917
 21
7809.570485168484
 31
0.0
  0
LINE
  5
12C
330
129
100
AcDbEntity
  8
0
 62
   123
370
    -2
100
AcDbLine
 10
-6180.154258546917
 20
7789.671184376017
 30
0.0
 11
-6180.154258546917
 21
7809.570485168484
 31
0.0
  0
LINE
  5
12D
330
129
100
AcDbEntity
  8
0
 62
   123
370
    -2
100
AcDbLine
 10
-6190.654258546917
 20
7808.970485168484
 30
0.0
 11
-6182.654258546917
 21
7808.970485168484
 31
0.0
  0
SOLID
  5
12E
330
129
100
AcDbEntity
  8
0
 62
   123
100
AcDbTrace
 10
-6190.654258546917
 20
7809.38715183515
 30
0.0
 11
-6190.654258546917
 21
7808.553818501817
 31
0.0
 12
-6193.154258546917
 22
7808.970485168484
 32
0.0
 13
-6193.154258546917
 23
7808.970485168484
 33
0.0
  0
SOLID
  5
12F
330
129
100
AcDbEntity
  8
0
 62
   123
100
AcDbTrace
 10
-6182.654258546917
 20
7809.38715183515
 30
0.0
 11
-6182.654258546917
 21
7808.553818501817
 31
0.0
 12
-6180.154258546917
 22
7808.970485168484
 32
0.0
 13
-6180.154258546917
 23
7808.970485168484
 33
0.0
  0
MTEXT
  5
130
330
129
100
AcDbEntity
  8
0
 62
     3
100
AcDbMText
 10
-6186.654258546917
 20
7811.470485168483
 30
0.0
 40
3.0
 41
0.0
 71
     5
 72
     1
  1
\A1;13
 73
     1
 44
1.0
1001
ACAD
1000
MTEXTBEGIN
1070
    73
1070
     1
1070
    44
1040
1.0
1070
    74
1070
     0
1000
MTEXTEND
  0
POINT
  5
131
330
129
100
AcDbEntity
  8
Defpoints
 62
     0
100
AcDbPoint
 10
-6193.154258546917
 20
7756.531184376017
 30
0.0
  0
POINT
  5
132
330
129
100
AcDbEntity
  8
Defpoints
 62
     0
100
AcDbPoint
 10
-6180.154258546917
 20
7788.671184376017
 30
0.0
  0
POINT
  5
133
330
129
100
AcDbEntity
  8
Defpoints
 62
     0
100
AcDbPoint
 10
-6180.154258546917
 20
7808.970485168484
 30
0.0
  0
ENDBLK
  5
134
330
129
100
AcDbEntity
  8
0
100
AcDbBlockEnd
  0
BLOCK
  5
15D
330
15C
100
AcDbEntity
  8
0
100
AcDbBlockBegin
  2
*D11
 70
     1
 10
0.0
 20
0.0
 30
0.0
  3
*D11
  1

  0
LINE
  5
15E
330
15C
100
AcDbEntity
  8
0
 62
   123
370
    -2
100
AcDbLine
 10
-6022.573684397893
 20
7753.671184376014
 30
0.0
 11
-6031.254392923318
 21
7753.671184376016
 31
0.0
  0
LINE
  5
15F
330
15C
100
AcDbEntity
  8
0
 62
   123
370
    -2
100
AcDbLine
 10
-6020.031310051366
 20
7736.670714335655
 30
0.0
 11
-6026.787081825911
 21
7733.520446220436
 31
0.0
  0
ARC
  5
160
330
15C
100
AcDbEntity
  8
0
 62
   123
370
    -2
100
AcDbCircle
 10
-5983.573684397896
 20
7753.671184376017
 30
0.0
 40
47.08070852542307
100
AcDbArc
 50
183.0427809417292
 51
201.9572190582726
  0
SOLID
  5
161
330
15C
100
AcDbEntity
  8
0
 62
   123
100
AcDbTrace
 10
-6031.004537325998
 20
7751.161003105993
 30
0.0
 11
-6030.171497757198
 21
7751.183128233233
 31
0.0
 12
-6030.654392923318
 22
7753.671184376017
 32
0.0
 13
-6030.654392923318
 23
7753.671184376017
 33
0.0
  0
SOLID
  5
162
330
15C
100
AcDbEntity
  8
0
 62
   123
100
AcDbTrace
 10
-6026.857143466489
 20
7736.233042149979
 30
0.0
 11
-6027.621484197418
 21
7735.901036590559
 31
0.0
 12
-6026.243297153687
 22
7733.774017177481
 32
0.0
 13
-6026.243297153687
 23
7733.774017177481
 33
0.0
  0
MTEXT
  5
163
330
15C
100
AcDbEntity
  8
0
 62
     3
100
AcDbMText
 10
-6026.818710409521
 20
7744.083992923386
 30
0.0
 40
3.0
 41
0.0
 71
     5
 72
     1
  1
\A1;25°0'
 11
0.2164396139381123
 21
-0.9762960071199314
 31
0.0
 73
     1
 44
1.0
1001
ACAD
1000
MTEXTBEGIN
1070
    73
1070
     1
1070
    44
1040
1.0
1070
    74
1070
     0
1000
MTEXTEND
  0
POINT
  5
164
330
15C
100
AcDbEntity
  8
Defpoints
 62
     0
100
AcDbPoint
 10
-6030.157297786842
 20
7746.847689751922
 30
0.0
  0
POINT
  5
165
330
15C
100
AcDbEntity
  8
Defpoints
 62
     0
100
AcDbPoint
 10
-5983.573684397894
 20
7753.671184376017
 30
0.0
  0
POINT
  5
166
330
15C
100
AcDbEntity
  8
Defpoints
 62
     0
100
AcDbPoint
 10
-5945.573684397893
 20
7753.671184376017
 30
0.0
  0
POINT
  5
167
330
15C
100
AcDbEntity
  8
Defpoints
 62
     0
100
AcDbPoint
 10
-6021.573684397893
 20
7753.671184376016
 30
0.0
  0
POINT
  5
168
330
15C
100
AcDbEntity
  8
Defpoints
 62
     0
100
AcDbPoint
 10
-6019.125002264329
 20
7737.093332597395
 30
0.0
  0
ENDBLK
  5
169
330
15C
100
AcDbEntity
  8
0
100
AcDbBlockEnd
  0
BLOCK
  5
17E
330
17D
100
AcDbEntity
  8
0
100
AcDbBlockBegin
  2
*D12
 70
     1
 10
0.0
 20
0.0
 30
0.0
  3
*D12
  1

  0
LINE
  5
17F
330
17D
100
AcDbEntity
  8
0
 62
   123
370
    -2
100
AcDbLine
 10
-6180.154258546917
 20
7789.671184376017
 30
0.0
 11
-6180.154258546917
 21
7797.581808020152
 31
0.0
  0
LINE
  5
180
330
17D
100
AcDbEntity
  8
0
 62
   123
370
    -2
100
AcDbLine
 10
-6182.154258546916
 20
7786.171184376017
 30
0.0
 11
-6182.154258546916
 21
7797.581808020152
 31
0.0
  0
LINE
  5
181
330
17D
100
AcDbEntity
  8
0
 62
   123
370
    -2
100
AcDbLine
 10
-6177.654258546917
 20
7796.981808020153
 30
0.0
 11
-6175.154258546918
 21
7796.981808020153
 31
0.0
  0
LINE
  5
182
330
17D
100
AcDbEntity
  8
0
 62
   123
370
    -2
100
AcDbLine
 10
-6184.654258546917
 20
7796.981808020153
 30
0.0
 11
-6191.154258546917
 21
7796.981808020153
 31
0.0
  0
LINE
  5
183
330
17D
100
AcDbEntity
  8
0
 62
   123
370
    -2
100
AcDbLine
 10
-6180.154258546917
 20
7796.981808020153
 30
0.0
 11
-6182.154258546916
 21
7796.981808020153
 31
0.0
  0
SOLID
  5
184
330
17D
100
AcDbEntity
  8
0
 62
   123
100
AcDbTrace
 10
-6177.654258546917
 20
7797.398474686819
 30
0.0
 11
-6177.654258546917
 21
7796.565141353484
 31
0.0
 12
-6180.154258546917
 22
7796.981808020153
 32
0.0
 13
-6180.154258546917
 23
7796.981808020153
 33
0.0
  0
SOLID
  5
185
330
17D
100
AcDbEntity
  8
0
 62
   123
100
AcDbTrace
 10
-6184.654258546917
 20
7797.398474686819
 30
0.0
 11
-6184.654258546917
 21
7796.565141353484
 31
0.0
 12
-6182.154258546916
 22
7796.981808020153
 32
0.0
 13
-6182.154258546916
 23
7796.981808020153
 33
0.0
  0
MTEXT
  5
186
330
17D
100
AcDbEntity
  8
0
 62
     3
100
AcDbMText
 10
-6189.154258546917
 20
7799.481808020151
 30
0.0
 40
3.0
 41
0.0
 71
     5
 72
     1
  1
\A1;2
 73
     1
 44
1.0
1001
ACAD
1000
MTEXTBEGIN
1070
    73
1070
     1
1070
    44
1040
1.0
1070
    74
1070
     0
1000
MTEXTEND
  0
POINT
  5
187
330
17D
100
AcDbEntity
  8
Defpoints
 62
     0
100
AcDbPoint
 10
-6180.154258546917
 20
7788.671184376017
 30
0.0
  0
POINT
  5
188
330
17D
100
AcDbEntity
  8
Defpoints
 62
     0
100
AcDbPoint
 10
-6182.154258546916
 20
7785.171184376017
 30
0.0
  0
POINT
  5
189
330
17D
100
AcDbEntity
  8
Defpoints
 62
     0
100
AcDbPoint
 10
-6182.154258546916
 20
7796.981808020153
 30
0.0
  0
ENDBLK
  5
18A
330
17D
100
AcDbEntity
  8
0
100
AcDbBlockEnd
  0
BLOCK
  5
1A1
330
1A0
100
AcDbEntity
  8
0
100
AcDbBlockBegin
  2
*D13
 70
     1
 10
0.0
 20
0.0
 30
0.0
  3
*D13
  1

  0
LINE
  5
1A2
330
1A0
100
AcDbEntity
  8
0
 62
   123
370
    -2
100
AcDbLine
 10
-6317.591419163431
 20
7726.559494620087
 30
0.0
 11
-6319.546461391334
 21
7725.001351530668
 31
0.0
  0
LINE
  5
1A3
330
1A0
100
AcDbEntity
  8
0
 62
   123
370
    -2
100
AcDbLine
 10
-6249.555949632355
 20
7780.782874131941
 30
0.0
 11
-6225.410736605113
 21
7800.026293166078
 31
0.0
  0
LINE
  5
1A4
330
1A0
100
AcDbEntity
  8
0
 62
   123
370
    -2
100
AcDbLine
 10
-6315.636376935525
 20
7728.117637709509
 30
0.0
 11
-6251.510991860261
 21
7779.224731042519
 31
0.0
  0
SOLID
  5
1A5
330
1A0
100
AcDbEntity
  8
0
 62
   123
100
AcDbTrace
 10
-6317.851109678333
 20
7726.885334991404
 30
0.0
 11
-6317.331728648526
 21
7726.233654248772
 31
0.0
 12
-6315.636376935525
 22
7728.117637709509
 32
0.0
 13
-6315.636376935525
 23
7728.117637709509
 33
0.0
  0
SOLID
  5
1A6
330
1A0
100
AcDbEntity
  8
0
 62
   123
100
AcDbTrace
 10
-6249.815640147261
 20
7781.108714503258
 30
0.0
 11
-6249.296259117453
 21
7780.457033760623
 31
0.0
 12
-6251.510991860261
 22
7779.224731042519
 32
0.0
 13
-6251.510991860261
 23
7779.224731042519
 33
0.0
  0
MTEXT
  5
1A7
102
{ACAD_XDICTIONARY
360
3E9
102
}
330
1A0
100
AcDbEntity
  8
0
 62
     3
100
AcDbMText
 10
-6234.956623654258
 20
7795.615207914349
 30
0.0
 40
3.0
 41
0.0
 71
     5
 72
     1
  1
\A1;\U+220582%%P0.5
 11
0.7820168911617686
 21
0.6232572357684127
 31
0.0
 73
     1
 44
1.0
1001
ACAD
1000
MTEXTBEGIN
1070
    73
1070
     1
1070
    44
1040
1.0
1070
    74
1070
     0
1000
MTEXTEND
  0
POINT
  5
1A8
330
1A0
100
AcDbEntity
  8
Defpoints
 62
     0
100
AcDbPoint
 10
-6251.510991860261
 20
7779.224731042519
 30
0.0
  0
POINT
  5
1A9
330
1A0
100
AcDbEntity
  8
Defpoints
 62
     0
100
AcDbPoint
 10
-6315.636376935525
 20
7728.117637709509
 30
0.0
  0
ENDBLK
  5
1AA
330
1A0
100
AcDbEntity
  8
0
100
AcDbBlockEnd
  0
BLOCK
  5
21C
330
21B
100
AcDbEntity
  8
0
100
AcDbBlockBegin
  2
*D14
 70
     1
 10
0.0
 20
0.0
 30
0.0
  3
*D14
  1

  0
LINE
  5
21D
330
21B
100
AcDbEntity
  8
0
 62
   123
370
    -2
100
AcDbLine
 10
-5623.247181899215
 20
7789.671184376017
 30
0.0
 11
-5623.247181899215
 21
7809.263774407655
 31
0.0
  0
LINE
  5
21E
330
21B
100
AcDbEntity
  8
0
 62
   123
370
    -2
100
AcDbLine
 10
-5536.747181899215
 20
7788.671184376018
 30
0.0
 11
-5536.747181899215
 21
7809.263774407655
 31
0.0
  0
LINE
  5
21F
330
21B
100
AcDbEntity
  8
0
 62
   123
370
    -2
100
AcDbLine
 10
-5620.747181899215
 20
7808.663774407654
 30
0.0
 11
-5539.247181899217
 21
7808.663774407654
 31
0.0
  0
SOLID
  5
220
330
21B
100
AcDbEntity
  8
0
 62
   123
100
AcDbTrace
 10
-5620.747181899215
 20
7809.080441074321
 30
0.0
 11
-5620.747181899215
 21
7808.247107740988
 31
0.0
 12
-5623.247181899215
 22
7808.663774407654
 32
0.0
 13
-5623.247181899215
 23
7808.663774407654
 33
0.0
  0
SOLID
  5
221
330
21B
100
AcDbEntity
  8
0
 62
   123
100
AcDbTrace
 10
-5539.247181899217
 20
7809.080441074321
 30
0.0
 11
-5539.247181899217
 21
7808.247107740988
 31
0.0
 12
-5536.747181899215
 22
7808.663774407654
 32
0.0
 13
-5536.747181899215
 23
7808.663774407654
 33
0.0
  0
MTEXT
  5
222
330
21B
100
AcDbEntity
  8
0
 62
     3
100
AcDbMText
 10
-5579.997181899216
 20
7811.163774407653
 30
0.0
 40
3.0
 41
0.0
 71
     5
 72
     1
  1
\A1;86.5
 73
     1
 44
1.0
1001
ACAD
1000
MTEXTBEGIN
1070
    73
1070
     1
1070
    44
1040
1.0
1070
    74
1070
     0
1000
MTEXTEND
  0
POINT
  5
223
330
21B
100
AcDbEntity
  8
Defpoints
 62
     0
100
AcDbPoint
 10
-5623.247181899215
 20
7788.671184376017
 30
0.0
  0
POINT
  5
224
330
21B
100
AcDbEntity
  8
Defpoints
 62
     0
100
AcDbPoint
 10
-5536.747181899215
 20
7787.671184376018
 30
0.0
  0
POINT
  5
225
330
21B
100
AcDbEntity
  8
Defpoints
 62
     0
100
AcDbPoint
 10
-5536.747181899215
 20
7808.663774407654
 30
0.0
  0
ENDBLK
  5
226
330
21B
100
AcDbEntity
  8
0
100
AcDbBlockEnd
  0
BLOCK
  5
23A
330
239
100
AcDbEntity
  8
0
100
AcDbBlockBegin
  2
*D15
 70
     1
 10
0.0
 20
0.0
 30
0.0
  3
*D15
  1

  0
LINE
  5
23B
330
239
100
AcDbEntity
  8
0
 62
   123
370
    -2
100
AcDbLine
 10
-5625.747181899215
 20
7721.671184376017
 30
0.0
 11
-5681.925004282268
 21
7721.671184376017
 31
0.0
  0
LINE
  5
23C
330
239
100
AcDbEntity
  8
0
 62
   123
370
    -2
100
AcDbLine
 10
-5625.747181899215
 20
7785.671184376017
 30
0.0
 11
-5681.925004282268
 21
7785.671184376017
 31
0.0
  0
LINE
  5
23D
330
239
100
AcDbEntity
  8
0
 62
   123
370
    -2
100
AcDbLine
 10
-5681.325004282268
 20
7724.171184376017
 30
0.0
 11
-5681.325004282268
 21
7783.171184376017
 31
0.0
  0
SOLID
  5
23E
330
239
100
AcDbEntity
  8
0
 62
   123
100
AcDbTrace
 10
-5681.741670948934
 20
7724.171184376017
 30
0.0
 11
-5680.9083376156
 21
7724.171184376017
 31
0.0
 12
-5681.325004282268
 22
7721.671184376017
 32
0.0
 13
-5681.325004282268
 23
7721.671184376017
 33
0.0
  0
SOLID
  5
23F
330
239
100
AcDbEntity
  8
0
 62
   123
100
AcDbTrace
 10
-5681.741670948934
 20
7783.171184376017
 30
0.0
 11
-5680.9083376156
 21
7783.171184376017
 31
0.0
 12
-5681.325004282268
 22
7785.671184376017
 32
0.0
 13
-5681.325004282268
 23
7785.671184376017
 33
0.0
  0
MTEXT
  5
240
330
239
100
AcDbEntity
  8
0
 62
     3
100
AcDbMText
 10
-5684.775004282268
 20
7753.671184376016
 30
0.0
 40
3.0
 41
0.0
 71
     5
 72
     1
  1
\A1;%%C64{\H0.7x;\S  0^ -0.03;}
 11
0.0000000000000001
 21
1.0
 31
0.0
 73
     1
 44
1.0
1001
ACAD
1000
MTEXTBEGIN
1070
    73
1070
     1
1070
    44
1040
1.0
1070
    74
1070
     0
1000
MTEXTEND
  0
POINT
  5
241
330
239
100
AcDbEntity
  8
Defpoints
 62
     0
100
AcDbPoint
 10
-5624.747181899215
 20
7721.671184376017
 30
0.0
  0
POINT
  5
242
330
239
100
AcDbEntity
  8
Defpoints
 62
     0
100
AcDbPoint
 10
-5624.747181899215
 20
7785.671184376017
 30
0.0
  0
POINT
  5
243
330
239
100
AcDbEntity
  8
Defpoints
 62
     0
100
AcDbPoint
 10
-5681.325004282268
 20
7785.671184376017
 30
0.0
  0
ENDBLK
  5
244
330
239
100
AcDbEntity
  8
0
100
AcDbBlockEnd
  0
BLOCK
  5
251
330
250
100
AcDbEntity
  8
0
100
AcDbBlockBegin
  2
*D16
 70
     1
 10
0.0
 20
0.0
 30
0.0
  3
*D16
  1

  0
LINE
  5
252
330
250
100
AcDbEntity
  8
0
 62
   123
370
    -2
100
AcDbLine
 10
-5777.813877027161
 20
7783.671184376017
 30
0.0
 11
-5777.813877027161
 21
7808.788974413224
 31
0.0
  0
LINE
  5
253
330
250
100
AcDbEntity
  8
0
 62
   123
370
    -2
100
AcDbLine
 10
-5707.81387702716
 20
7783.671184376017
 30
0.0
 11
-5707.81387702716
 21
7808.788974413224
 31
0.0
  0
LINE
  5
254
330
250
100
AcDbEntity
  8
0
 62
   123
370
    -2
100
AcDbLine
 10
-5775.313877027161
 20
7808.188974413224
 30
0.0
 11
-5710.313877027161
 21
7808.188974413224
 31
0.0
  0
SOLID
  5
255
330
250
100
AcDbEntity
  8
0
 62
   123
100
AcDbTrace
 10
-5775.313877027161
 20
7808.605641079893
 30
0.0
 11
-5775.313877027161
 21
7807.772307746557
 31
0.0
 12
-5777.813877027161
 22
7808.188974413224
 32
0.0
 13
-5777.813877027161
 23
7808.188974413224
 33
0.0
  0
SOLID
  5
256
330
250
100
AcDbEntity
  8
0
 62
   123
100
AcDbTrace
 10
-5710.313877027161
 20
7808.605641079893
 30
0.0
 11
-5710.313877027161
 21
7807.772307746557
 31
0.0
 12
-5707.81387702716
 22
7808.188974413224
 32
0.0
 13
-5707.81387702716
 23
7808.188974413224
 33
0.0
  0
MTEXT
  5
257
330
250
100
AcDbEntity
  8
0
 62
     3
100
AcDbMText
 10
-5742.813877027161
 20
7810.688974413224
 30
0.0
 40
3.0
 41
0.0
 71
     5
 72
     1
  1
\A1;{\fGulim|b0|i0|c129|p50;□}70
 73
     1
 44
1.0
1001
ACAD
1000
MTEXTBEGIN
1070
    73
1070
     1
1070
    44
1040
1.0
1070
    74
1070
     0
1000
MTEXTEND
  0
POINT
  5
258
330
250
100
AcDbEntity
  8
Defpoints
 62
     0
100
AcDbPoint
 10
-5777.813877027161
 20
7782.671184376017
 30
0.0
  0
POINT
  5
259
330
250
100
AcDbEntity
  8
Defpoints
 62
     0
100
AcDbPoint
 10
-5707.81387702716
 20
7782.671184376017
 30
0.0
  0
POINT
  5
25A
330
250
100
AcDbEntity
  8
Defpoints
 62
     0
100
AcDbPoint
 10
-5707.81387702716
 20
7808.188974413224
 30
0.0
  0
ENDBLK
  5
25B
330
250
100
AcDbEntity
  8
0
100
AcDbBlockEnd
  0
BLOCK
  5
29F
330
29E
100
AcDbEntity
  8
0
100
AcDbBlockBegin
  2
*D17
 70
     1
 10
0.0
 20
0.0
 30
0.0
  3
*D17
  1

  0
LINE
  5
2A0
330
29E
100
AcDbEntity
  8
0
 62
   123
370
    -2
100
AcDbLine
 10
-5465.666607750192
 20
7753.671184376014
 30
0.0
 11
-5474.347316275615
 21
7753.671184376017
 31
0.0
  0
LINE
  5
2A1
330
29E
100
AcDbEntity
  8
0
 62
   123
370
    -2
100
AcDbLine
 10
-5463.124233403664
 20
7736.670714335655
 30
0.0
 11
-5469.880005178207
 21
7733.520446220437
 31
0.0
  0
ARC
  5
2A2
330
29E
100
AcDbEntity
  8
0
 62
   123
370
    -2
100
AcDbCircle
 10
-5426.666607750195
 20
7753.671184376017
 30
0.0
 40
47.08070852542035
100
AcDbArc
 50
183.0427809417294
 51
201.9572190582727
  0
SOLID
  5
2A3
330
29E
100
AcDbEntity
  8
0
 62
   123
100
AcDbTrace
 10
-5474.097460678297
 20
7751.161003105993
 30
0.0
 11
-5473.264421109494
 21
7751.183128233231
 31
0.0
 12
-5473.747316275614
 22
7753.671184376017
 32
0.0
 13
-5473.747316275614
 23
7753.671184376017
 33
0.0
  0
SOLID
  5
2A4
330
29E
100
AcDbEntity
  8
0
 62
   123
100
AcDbTrace
 10
-5469.950066818785
 20
7736.233042149979
 30
0.0
 11
-5470.714407549714
 21
7735.901036590559
 31
0.0
 12
-5469.336220505985
 22
7733.774017177481
 32
0.0
 13
-5469.336220505985
 23
7733.774017177481
 33
0.0
  0
MTEXT
  5
2A5
330
29E
100
AcDbEntity
  8
0
 62
     3
100
AcDbMText
 10
-5469.91163376182
 20
7744.083992923386
 30
0.0
 40
3.0
 41
0.0
 71
     5
 72
     1
  1
\A1;25°0'
 11
0.2164396139381123
 21
-0.9762960071199314
 31
0.0
 73
     1
 44
1.0
1001
ACAD
1000
MTEXTBEGIN
1070
    73
1070
     1
1070
    44
1040
1.0
1070
    74
1070
     0
1000
MTEXTEND
  0
POINT
  5
2A6
330
29E
100
AcDbEntity
  8
Defpoints
 62
     0
100
AcDbPoint
 10
-5473.250221139139
 20
7746.847689751922
 30
0.0
  0
POINT
  5
2A7
330
29E
100
AcDbEntity
  8
Defpoints
 62
     0
100
AcDbPoint
 10
-5426.666607750192
 20
7753.671184376017
 30
0.0
  0
POINT
  5
2A8
330
29E
100
AcDbEntity
  8
Defpoints
 62
     0
100
AcDbPoint
 10
-5388.666607750192
 20
7753.671184376017
 30
0.0
  0
POINT
  5
2A9
330
29E
100
AcDbEntity
  8
Defpoints
 62
     0
100
AcDbPoint
 10
-5464.666607750191
 20
7753.671184376016
 30
0.0
  0
POINT
  5
2AA
330
29E
100
AcDbEntity
  8
Defpoints
 62
     0
100
AcDbPoint
 10
-5462.217925616627
 20
7737.093332597395
 30
0.0
  0
ENDBLK
  5
2AB
330
29E
100
AcDbEntity
  8
0
100
AcDbBlockEnd
  0
BLOCK
  5
2C0
330
2BF
100
AcDbEntity
  8
0
100
AcDbBlockBegin
  2
*D18
 70
     1
 10
0.0
 20
0.0
 30
0.0
  3
*D18
  1

  0
LINE
  5
2C1
330
2BF
100
AcDbEntity
  8
0
 62
   123
370
    -2
100
AcDbLine
 10
-5623.247181899215
 20
7789.671184376017
 30
0.0
 11
-5623.247181899215
 21
7798.271184376017
 31
0.0
  0
LINE
  5
2C2
330
2BF
100
AcDbEntity
  8
0
 62
   123
370
    -2
100
AcDbLine
 10
-5625.247181899215
 20
7786.171184376017
 30
0.0
 11
-5625.247181899215
 21
7798.271184376017
 31
0.0
  0
LINE
  5
2C3
330
2BF
100
AcDbEntity
  8
0
 62
   123
370
    -2
100
AcDbLine
 10
-5620.747181899215
 20
7797.671184376017
 30
0.0
 11
-5618.247181899215
 21
7797.671184376017
 31
0.0
  0
LINE
  5
2C4
330
2BF
100
AcDbEntity
  8
0
 62
   123
370
    -2
100
AcDbLine
 10
-5627.747181899215
 20
7797.671184376017
 30
0.0
 11
-5634.247181899215
 21
7797.671184376017
 31
0.0
  0
LINE
  5
2C5
330
2BF
100
AcDbEntity
  8
0
 62
   123
370
    -2
100
AcDbLine
 10
-5623.247181899215
 20
7797.671184376017
 30
0.0
 11
-5625.247181899215
 21
7797.671184376017
 31
0.0
  0
SOLID
  5
2C6
330
2BF
100
AcDbEntity
  8
0
 62
   123
100
AcDbTrace
 10
-5620.747181899215
 20
7798.087851042684
 30
0.0
 11
-5620.747181899215
 21
7797.254517709349
 31
0.0
 12
-5623.247181899215
 22
7797.671184376017
 32
0.0
 13
-5623.247181899215
 23
7797.671184376017
 33
0.0
  0
SOLID
  5
2C7
330
2BF
100
AcDbEntity
  8
0
 62
   123
100
AcDbTrace
 10
-5627.747181899215
 20
7798.087851042684
 30
0.0
 11
-5627.747181899215
 21
7797.254517709349
 31
0.0
 12
-5625.247181899215
 22
7797.671184376017
 32
0.0
 13
-5625.247181899215
 23
7797.671184376017
 33
0.0
  0
MTEXT
  5
2C8
330
2BF
100
AcDbEntity
  8
0
 62
     3
100
AcDbMText
 10
-5632.247181899217
 20
7800.171184376016
 30
0.0
 40
3.0
 41
0.0
 71
     5
 72
     1
  1
\A1;2
 73
     1
 44
1.0
1001
ACAD
1000
MTEXTBEGIN
1070
    73
1070
     1
1070
    44
1040
1.0
1070
    74
1070
     0
1000
MTEXTEND
  0
POINT
  5
2C9
330
2BF
100
AcDbEntity
  8
Defpoints
 62
     0
100
AcDbPoint
 10
-5623.247181899215
 20
7788.671184376017
 30
0.0
  0
POINT
  5
2CA
330
2BF
100
AcDbEntity
  8
Defpoints
 62
     0
100
AcDbPoint
 10
-5625.247181899215
 20
7785.171184376017
 30
0.0
  0
POINT
  5
2CB
330
2BF
100
AcDbEntity
  8
Defpoints
 62
     0
100
AcDbPoint
 10
-5625.247181899215
 20
7797.671184376017
 30
0.0
  0
ENDBLK
  5
2CC
330
2BF
100
AcDbEntity
  8
0
100
AcDbBlockEnd
  0
BLOCK
  5
2D6
330
2D5
100
AcDbEntity
  8
0
100
AcDbBlockBegin
  2
*D19
 70
     1
 10
0.0
 20
0.0
 30
0.0
  3
*D19
  1

  0
LINE
  5
2D7
330
2D5
100
AcDbEntity
  8
0
 62
   123
370
    -2
100
AcDbLine
 10
-5776.831611792704
 20
7726.559494620092
 30
0.0
 11
-5778.786654020609
 21
7725.001351530671
 31
0.0
  0
LINE
  5
2D8
330
2D5
100
AcDbEntity
  8
0
 62
   123
370
    -2
100
AcDbLine
 10
-5708.796142261624
 20
7780.782874131944
 30
0.0
 11
-5684.650929234384
 21
7800.026293166077
 31
0.0
  0
LINE
  5
2D9
330
2D5
100
AcDbEntity
  8
0
 62
   123
370
    -2
100
AcDbLine
 10
-5774.876569564799
 20
7728.117637709512
 30
0.0
 11
-5710.751184489527
 21
7779.224731042525
 31
0.0
  0
SOLID
  5
2DA
330
2D5
100
AcDbEntity
  8
0
 62
   123
100
AcDbTrace
 10
-5777.091302307607
 20
7726.885334991407
 30
0.0
 11
-5776.571921277802
 21
7726.233654248774
 31
0.0
 12
-5774.876569564799
 22
7728.117637709512
 32
0.0
 13
-5774.876569564799
 23
7728.117637709512
 33
0.0
  0
SOLID
  5
2DB
330
2D5
100
AcDbEntity
  8
0
 62
   123
100
AcDbTrace
 10
-5709.055832776527
 20
7781.108714503258
 30
0.0
 11
-5708.53645174672
 21
7780.457033760628
 31
0.0
 12
-5710.751184489527
 22
7779.224731042525
 32
0.0
 13
-5710.751184489527
 23
7779.224731042525
 33
0.0
  0
MTEXT
  5
2DC
102
{ACAD_XDICTIONARY
360
3EB
102
}
330
2D5
100
AcDbEntity
  8
0
 62
     3
100
AcDbMText
 10
-5694.19681628353
 20
7795.615207914346
 30
0.0
 40
3.0
 41
0.0
 71
     5
 72
     1
  1
\A1;\U+220582%%P0.5
 11
0.7820168911617924
 21
0.6232572357683829
 31
0.0
 73
     1
 44
1.0
1001
ACAD
1000
MTEXTBEGIN
1070
    73
1070
     1
1070
    44
1040
1.0
1070
    74
1070
     0
1000
MTEXTEND
  0
POINT
  5
2DD
330
2D5
100
AcDbEntity
  8
Defpoints
 62
     0
100
AcDbPoint
 10
-5710.751184489527
 20
7779.224731042525
 30
0.0
  0
POINT
  5
2DE
330
2D5
100
AcDbEntity
  8
Defpoints
 62
     0
100
AcDbPoint
 10
-5774.876569564799
 20
7728.117637709512
 30
0.0
  0
ENDBLK
  5
2DF
330
2D5
100
AcDbEntity
  8
0
100
AcDbBlockEnd
  0
BLOCK
  5
30E
330
30D
100
AcDbEntity
  8
0
100
AcDbBlockBegin
  2
*D20
 70
     1
 10
0.0
 20
0.0
 30
0.0
  3
*D20
  1

  0
LINE
  5
30F
330
30D
100
AcDbEntity
  8
0
 62
   123
370
    -2
100
AcDbLine
 10
-5655.747181899215
 20
7749.671184376016
 30
0.0
 11
-5663.388320169129
 21
7749.671184376016
 31
0.0
  0
LINE
  5
310
330
30D
100
AcDbEntity
  8
0
 62
   123
370
    -2
100
AcDbLine
 10
-5656.247181899215
 20
7756.671184376017
 30
0.0
 11
-5663.388320169129
 21
7756.671184376017
 31
0.0
  0
LINE
  5
311
330
30D
100
AcDbEntity
  8
0
 62
   123
370
    -2
100
AcDbLine
 10
-5662.78832016913
 20
7747.171184376018
 30
0.0
 11
-5662.78832016913
 21
7744.671184376016
 31
0.0
  0
LINE
  5
312
330
30D
100
AcDbEntity
  8
0
 62
   123
370
    -2
100
AcDbLine
 10
-5662.78832016913
 20
7759.171184376016
 30
0.0
 11
-5662.78832016913
 21
7761.671184376017
 31
0.0
  0
LINE
  5
313
330
30D
100
AcDbEntity
  8
0
 62
   123
370
    -2
100
AcDbLine
 10
-5662.78832016913
 20
7749.671184376016
 30
0.0
 11
-5662.78832016913
 21
7756.671184376017
 31
0.0
  0
SOLID
  5
314
330
30D
100
AcDbEntity
  8
0
 62
   123
100
AcDbTrace
 10
-5663.204986835797
 20
7747.171184376018
 30
0.0
 11
-5662.371653502463
 21
7747.171184376018
 31
0.0
 12
-5662.78832016913
 22
7749.671184376016
 32
0.0
 13
-5662.78832016913
 23
7749.671184376016
 33
0.0
  0
SOLID
  5
315
330
30D
100
AcDbEntity
  8
0
 62
   123
100
AcDbTrace
 10
-5663.204986835797
 20
7759.171184376016
 30
0.0
 11
-5662.371653502463
 21
7759.171184376016
 31
0.0
 12
-5662.78832016913
 22
7756.671184376017
 32
0.0
 13
-5662.78832016913
 23
7756.671184376017
 33
0.0
  0
MTEXT
  5
316
330
30D
100
AcDbEntity
  8
0
 62
     3
100
AcDbMText
 10
-5665.288320169129
 20
7753.171184376016
 30
0.0
 40
3.0
 41
0.0
 71
     5
 72
     1
  1
\A1;7
 11
0.0000000000000001
 21
1.0
 31
0.0
 73
     1
 44
1.0
1001
ACAD
1000
MTEXTBEGIN
1070
    73
1070
     1
1070
    44
1040
1.0
1070
    74
1070
     0
1000
MTEXTEND
  0
POINT
  5
317
330
30D
100
AcDbEntity
  8
Defpoints
 62
     0
100
AcDbPoint
 10
-5654.747181899216
 20
7749.671184376016
 30
0.0
  0
POINT
  5
318
330
30D
100
AcDbEntity
  8
Defpoints
 62
     0
100
AcDbPoint
 10
-5655.247181899215
 20
7756.671184376017
 30
0.0
  0
POINT
  5
319
330
30D
100
AcDbEntity
  8
Defpoints
 62
     0
100
AcDbPoint
 10
-5662.78832016913
 20
7756.671184376017
 30
0.0
  0
ENDBLK
  5
31A
330
30D
100
AcDbEntity
  8
0
100
AcDbBlockEnd
  0
BLOCK
  5
31F
330
31E
100
AcDbEntity
  8
0
100
AcDbBlockBegin
  2
*D21
 70
     1
 10
0.0
 20
0.0
 30
0.0
  3
*D21
  1

  0
LINE
  5
320
330
31E
100
AcDbEntity
  8
0
 62
   123
370
    -2
100
AcDbLine
 10
-5655.247181899215
 20
7757.671184376016
 30
0.0
 11
-5655.247181899215
 21
7769.271184376018
 31
0.0
  0
LINE
  5
321
330
31E
100
AcDbEntity
  8
0
 62
   123
370
    -2
100
AcDbLine
 10
-5630.247181899215
 20
7758.671184376017
 30
0.0
 11
-5630.247181899215
 21
7769.271184376018
 31
0.0
  0
LINE
  5
322
330
31E
100
AcDbEntity
  8
0
 62
   123
370
    -2
100
AcDbLine
 10
-5652.747181899215
 20
7768.671184376017
 30
0.0
 11
-5632.747181899215
 21
7768.671184376017
 31
0.0
  0
SOLID
  5
323
330
31E
100
AcDbEntity
  8
0
 62
   123
100
AcDbTrace
 10
-5652.747181899215
 20
7769.087851042684
 30
0.0
 11
-5652.747181899215
 21
7768.25451770935
 31
0.0
 12
-5655.247181899215
 22
7768.671184376017
 32
0.0
 13
-5655.247181899215
 23
7768.671184376017
 33
0.0
  0
SOLID
  5
324
330
31E
100
AcDbEntity
  8
0
 62
   123
100
AcDbTrace
 10
-5632.747181899215
 20
7769.087851042684
 30
0.0
 11
-5632.747181899215
 21
7768.25451770935
 31
0.0
 12
-5630.247181899215
 22
7768.671184376017
 32
0.0
 13
-5630.247181899215
 23
7768.671184376017
 33
0.0
  0
MTEXT
  5
325
330
31E
100
AcDbEntity
  8
0
 62
     3
100
AcDbMText
 10
-5642.747181899215
 20
7771.171184376017
 30
0.0
 40
3.0
 41
0.0
 71
     5
 72
     1
  1
\A1;25
 73
     1
 44
1.0
1001
ACAD
1000
MTEXTBEGIN
1070
    73
1070
     1
1070
    44
1040
1.0
1070
    74
1070
     0
1000
MTEXTEND
  0
POINT
  5
326
330
31E
100
AcDbEntity
  8
Defpoints
 62
     0
100
AcDbPoint
 10
-5655.247181899215
 20
7756.671184376017
 30
0.0
  0
POINT
  5
327
330
31E
100
AcDbEntity
  8
Defpoints
 62
     0
100
AcDbPoint
 10
-5630.247181899215
 20
7757.671184376016
 30
0.0
  0
POINT
  5
328
330
31E
100
AcDbEntity
  8
Defpoints
 62
     0
100
AcDbPoint
 10
-5630.247181899215
 20
7768.671184376017
 30
0.0
  0
ENDBLK
  5
329
330
31E
100
AcDbEntity
  8
0
100
AcDbBlockEnd
  0
BLOCK
  5
32E
330
32D
100
AcDbEntity
  8
0
100
AcDbBlockBegin
  2
*D22
 70
     1
 10
0.0
 20
0.0
 30
0.0
  3
*D22
  1

  0
LINE
  5
32F
330
32D
100
AcDbEntity
  8
0
 62
   123
370
    -2
100
AcDbLine
 10
-5655.747181899215
 20
7749.671184376016
 30
0.0
 11
-5670.496795141531
 21
7749.671184376016
 31
0.0
  0
LINE
  5
330
330
32D
100
AcDbEntity
  8
0
 62
   123
370
    -2
100
AcDbLine
 10
-5631.247181899215
 20
7757.671184376014
 30
0.0
 11
-5670.496795141531
 21
7757.671184376014
 31
0.0
  0
LINE
  5
331
330
32D
100
AcDbEntity
  8
0
 62
   123
370
    -2
100
AcDbLine
 10
-5669.896795141529
 20
7752.171184376017
 30
0.0
 11
-5669.896795141529
 21
7755.171184376013
 31
0.0
  0
SOLID
  5
332
330
32D
100
AcDbEntity
  8
0
 62
   123
100
AcDbTrace
 10
-5670.313461808198
 20
7752.171184376017
 30
0.0
 11
-5669.480128474863
 21
7752.171184376017
 31
0.0
 12
-5669.896795141529
 22
7749.671184376016
 32
0.0
 13
-5669.896795141529
 23
7749.671184376016
 33
0.0
  0
SOLID
  5
333
330
32D
100
AcDbEntity
  8
0
 62
   123
100
AcDbTrace
 10
-5670.313461808198
 20
7755.171184376013
 30
0.0
 11
-5669.480128474863
 21
7755.171184376013
 31
0.0
 12
-5669.896795141529
 22
7757.671184376014
 32
0.0
 13
-5669.896795141529
 23
7757.671184376014
 33
0.0
  0
MTEXT
  5
334
330
32D
100
AcDbEntity
  8
0
 62
     3
100
AcDbMText
 10
-5673.846795141532
 20
7753.671184376014
 30
0.0
 40
3.0
 41
0.0
 71
     5
 72
     1
  1
\A1;%%C8{\H0.7x;\S  0^ -0.015;}(h7)
 11
0.0000000000000001
 21
1.0
 31
0.0
 73
     1
 44
1.0
1001
ACAD
1000
MTEXTBEGIN
1070
    73
1070
     1
1070
    44
1040
1.0
1070
    74
1070
     0
1000
MTEXTEND
  0
POINT
  5
335
330
32D
100
AcDbEntity
  8
Defpoints
 62
     0
100
AcDbPoint
 10
-5654.747181899216
 20
7749.671184376016
 30
0.0
  0
POINT
  5
336
330
32D
100
AcDbEntity
  8
Defpoints
 62
     0
100
AcDbPoint
 10
-5630.247181899215
 20
7757.671184376014
 30
0.0
  0
POINT
  5
337
330
32D
100
AcDbEntity
  8
Defpoints
 62
     0
100
AcDbPoint
 10
-5669.896795141529
 20
7757.671184376014
 30
0.0
  0
ENDBLK
  5
338
330
32D
100
AcDbEntity
  8
0
100
AcDbBlockEnd
  0
ENDSEC
  0
SECTION
  2
ENTITIES
  0
LINE
  5
7F
330
2
100
AcDbEntity
  8
0
  6
CENTER
 62
     1
100
AcDbLine
 10
-6090.254258546917
 20
7753.671184376017
 30
0.0
 11
-6196.154258546917
 21
7753.671184376017
 31
0.0
  0
LINE
  5
81
330
2
100
AcDbEntity
  8
0
100
AcDbLine
 10
-6182.154258546916
 20
7757.171184376017
 30
0.0
 11
-6184.118233006802
 21
7757.171184376017
 31
0.0
  0
LINE
  5
82
330
2
100
AcDbEntity
  8
0
  6
CENTER
 62
     1
100
AcDbLine
 10
-6186.154258546917
 20
7756.385184376016
 30
0.0
 11
-6194.154258546917
 21
7756.385184376016
 31
0.0
  0
LINE
  5
83
330
2
100
AcDbEntity
  8
0
100
AcDbLine
 10
-6186.154258546917
 20
7757.031184376017
 30
0.0
 11
-6192.654258546917
 21
7757.031184376017
 31
0.0
  0
LINE
  5
84
330
2
100
AcDbEntity
  8
0
100
AcDbLine
 10
-6193.154258546917
 20
7756.531184376017
 30
0.0
 11
-6192.654258546917
 21
7757.031184376017
 31
0.0
  0
LINE
  5
85
330
2
100
AcDbEntity
  8
0
100
AcDbLine
 10
-6186.154258546917
 20
7755.906184376016
 30
0.0
 11
-6193.154258546917
 21
7755.906184376016
 31
0.0
  0
LINE
  5
86
330
2
100
AcDbEntity
  8
0
100
AcDbLine
 10
-6094.654258546917
 20
7788.671184376018
 30
0.0
 11
-6180.154258546917
 21
7788.671184376017
 31
0.0
  0
LINE
  5
87
330
2
100
AcDbEntity
  8
0
100
AcDbLine
 10
-6105.204258546912
 20
7718.671184376017
 30
0.0
 11
-6180.154258546917
 21
7718.671184376017
 31
0.0
  0
LINE
  5
88
330
2
100
AcDbEntity
  8
0
100
AcDbLine
 10
-6180.154258546917
 20
7788.671184376017
 30
0.0
 11
-6180.154258546917
 21
7718.671184376017
 31
0.0
  0
LINE
  5
89
102
{ACAD_REACTORS
330
128
102
}
330
2
100
AcDbEntity
  8
0
100
AcDbLine
 10
-6193.154258546917
 20
7756.531184376017
 30
0.0
 11
-6193.154258546917
 21
7750.811184376015
 31
0.0
  0
LINE
  5
8A
102
{ACAD_REACTORS
330
383
102
}
330
2
100
AcDbEntity
  8
0
100
AcDbLine
 10
-6172.654258546916
 20
7788.671184376017
 30
0.0
 11
-6172.654258546916
 21
7718.671184376017
 31
0.0
  0
LINE
  5
8B
330
2
100
AcDbEntity
  8
0
100
AcDbLine
 10
-6182.154258546916
 20
7722.171184376017
 30
0.0
 11
-6182.154258546916
 21
7785.171184376017
 31
0.0
  0
LINE
  5
8C
102
{ACAD_REACTORS
330
F4
102
}
330
2
100
AcDbEntity
  8
0
 62
     5
100
AcDbLine
 10
-6181.654258546917
 20
7721.671184376018
 30
0.0
 11
-6181.654258546917
 21
7785.671184376017
 31
0.0
  0
LINE
  5
8D
330
2
100
AcDbEntity
  8
0
  6
HIDDEN
 62
     2
 48
0.3
370
     0
100
AcDbLine
 10
-6172.654258546916
 20
7722.421184376017
 30
0.0
 11
-6180.154258546917
 21
7722.421184376016
 31
0.0
  0
LINE
  5
8F
330
2
100
AcDbEntity
  8
0
  6
HIDDEN
 62
     2
 48
0.3
370
     0
100
AcDbLine
 10
-6172.654258546916
 20
7726.921184376016
 30
0.0
 11
-6180.154258546917
 21
7726.921184376017
 31
0.0
  0
LINE
  5
90
330
2
100
AcDbEntity
  8
0
  6
CENTER
 62
     1
100
AcDbLine
 10
-6170.154258546917
 20
7724.671184376017
 30
0.0
 11
-6183.154258546917
 21
7724.671184376017
 31
0.0
  0
LINE
  5
91
330
2
100
AcDbEntity
  8
0
100
AcDbLine
 10
-6181.654258546917
 20
7721.671184376017
 30
0.0
 11
-6182.154258546916
 21
7722.171184376017
 31
0.0
  0
LINE
  5
92
102
{ACAD_REACTORS
330
F4
102
}
330
2
100
AcDbEntity
  8
0
100
AcDbLine
 10
-6181.654258546917
 20
7721.671184376017
 30
0.0
 11
-6180.154258546917
 21
7721.671184376017
 31
0.0
  0
LINE
  5
93
102
{ACAD_REACTORS
330
17C
102
}
330
2
100
AcDbEntity
  8
0
100
AcDbLine
 10
-6181.654258546917
 20
7785.671184376017
 30
0.0
 11
-6182.154258546916
 21
7785.171184376017
 31
0.0
  0
LINE
  5
94
102
{ACAD_REACTORS
330
F4
102
}
330
2
100
AcDbEntity
  8
0
100
AcDbLine
 10
-6181.654258546917
 20
7785.671184376017
 30
0.0
 11
-6180.154258546917
 21
7785.671184376017
 31
0.0
  0
LINE
  5
95
330
2
100
AcDbEntity
  8
0
  6
CENTER
 62
     1
100
AcDbLine
 10
-5983.573684397894
 20
7715.671184376017
 30
0.0
 11
-5983.573684397894
 21
7791.671184376017
 31
0.0
  0
LINE
  5
96
102
{ACAD_REACTORS
330
15B
102
}
330
2
100
AcDbEntity
  8
0
  6
CENTER
 62
     1
100
AcDbLine
 10
-5945.573684397894
 20
7753.671184376017
 30
0.0
 11
-6021.573684397893
 21
7753.671184376017
 31
0.0
  0
LINE
  5
97
330
2
100
AcDbEntity
  8
0
100
AcDbLine
 10
-6012.573684397894
 20
7749.671184376016
 30
0.0
 11
-6016.023645877069
 21
7749.671184376016
 31
0.0
  0
LINE
  5
98
330
2
100
AcDbEntity
  8
0
100
AcDbLine
 10
-6012.573684397894
 20
7757.671184376016
 30
0.0
 11
-6016.023645877069
 21
7757.671184376016
 31
0.0
  0
LINE
  5
99
102
{ACAD_REACTORS
330
D1
102
}
330
2
100
AcDbEntity
  8
0
100
AcDbLine
 10
-6093.654258546917
 20
7787.671184376018
 30
0.0
 11
-6093.654258546912
 21
7719.671184376014
 31
0.0
  0
ARC
  5
9A
330
2
100
AcDbEntity
  8
0
100
AcDbCircle
 10
-6094.654258546913
 20
7719.671184376014
 30
0.0
 40
1.0
100
AcDbArc
 50
270.0
 51
0.0
  0
ARC
  5
9B
330
2
100
AcDbEntity
  8
0
100
AcDbCircle
 10
-6094.654258546917
 20
7787.671184376018
 30
0.0
 40
1.0
100
AcDbArc
 50
0.0
 51
90.0
  0
LINE
  5
9C
330
2
100
AcDbEntity
  8
0
  6
CENTER
 62
     1
100
AcDbLine
 10
-6283.573684397894
 20
7715.671184376017
 30
0.0
 11
-6283.573684397894
 21
7791.671184376017
 31
0.0
  0
LINE
  5
9D
102
{ACAD_REACTORS
330
10B
102
}
330
2
100
AcDbEntity
  8
0
100
AcDbLine
 10
-6248.573684397894
 20
7724.671184376017
 30
0.0
 11
-6248.573684397894
 21
7782.671184376017
 31
0.0
  0
ARC
  5
9E
330
2
100
AcDbEntity
  8
0
100
AcDbCircle
 10
-6254.573684397894
 20
7782.671184376017
 30
0.0
 40
6.0
100
AcDbArc
 50
0.0
 51
90.0
  0
ARC
  5
9F
330
2
100
AcDbEntity
  8
0
100
AcDbCircle
 10
-6254.573684397894
 20
7724.671184376017
 30
0.0
 40
6.0
100
AcDbArc
 50
270.0
 51
0.0
  0
LINE
  5
A0
102
{ACAD_REACTORS
330
10B
102
}
330
2
100
AcDbEntity
  8
0
100
AcDbLine
 10
-6318.573684397893
 20
7724.671184376017
 30
0.0
 11
-6318.573684397893
 21
7782.671184376017
 31
0.0
  0
LINE
  5
A1
330
2
100
AcDbEntity
  8
0
  6
CENTER
 62
     1
100
AcDbLine
 10
-6308.322421739426
 20
7728.922447034489
 30
0.0
 11
-6316.816325085013
 21
7720.428543688898
 31
0.0
  0
ARC
  5
A2
330
2
100
AcDbEntity
  8
0
  6
CENTER
 62
     1
100
AcDbCircle
 10
-6283.573684397896
 20
7753.671184376017
 30
0.0
 40
41.0
100
AcDbArc
 50
216.6077517660609
 51
233.3922482339352
  0
ARC
  5
A3
330
2
100
AcDbEntity
  8
0
  6
CENTER
 62
     1
100
AcDbCircle
 10
-6283.573684397892
 20
7753.671184376017
 30
0.0
 40
41.0
100
AcDbArc
 50
306.6077517660648
 51
323.3922482339391
  0
LINE
  5
A4
330
2
100
AcDbEntity
  8
0
  6
CENTER
 62
     1
100
AcDbLine
 10
-6258.824947056363
 20
7728.922447034486
 30
0.0
 11
-6250.331043710776
 21
7720.428543688896
 31
0.0
  0
LINE
  5
A5
330
2
100
AcDbEntity
  8
0
  6
CENTER
 62
     1
100
AcDbLine
 10
-6321.573684397893
 20
7753.671184376017
 30
0.0
 11
-6245.573684397894
 21
7753.671184376017
 31
0.0
  0
LINE
  5
A6
330
2
100
AcDbEntity
  8
0
100
AcDbLine
 10
-6312.573684397894
 20
7718.671184376017
 30
0.0
 11
-6254.573684397894
 21
7718.671184376017
 31
0.0
  0
ARC
  5
A7
330
2
100
AcDbEntity
  8
0
100
AcDbCircle
 10
-6312.573684397894
 20
7724.671184376017
 30
0.0
 40
6.0
100
AcDbArc
 50
180.0
 51
270.0
  0
LINE
  5
A8
330
2
100
AcDbEntity
  8
0
100
AcDbLine
 10
-6312.573684397894
 20
7788.671184376017
 30
0.0
 11
-6254.573684397894
 21
7788.671184376017
 31
0.0
  0
ARC
  5
A9
330
2
100
AcDbEntity
  8
0
100
AcDbCircle
 10
-6312.573684397894
 20
7782.671184376017
 30
0.0
 40
6.0
100
AcDbArc
 50
90.0
 51
180.0
  0
CIRCLE
  5
AA
330
2
100
AcDbEntity
  8
0
100
AcDbCircle
 10
-6012.573684397894
 20
7753.671184376017
 30
0.0
 40
3.5
  0
LINE
  5
AB
330
2
100
AcDbEntity
  8
0
100
AcDbLine
 10
-6014.573684397894
 20
7753.171184376016
 30
0.0
 11
-6014.573684397896
 21
7754.171184376016
 31
0.0
  0
LINE
  5
AC
330
2
100
AcDbEntity
  8
0
100
AcDbLine
 10
-6013.698684397894
 20
7753.171184376016
 30
0.0
 11
-6014.573684397894
 21
7753.171184376016
 31
0.0
  0
LINE
  5
AD
330
2
100
AcDbEntity
  8
0
100
AcDbLine
 10
-6013.698684397894
 20
7754.171184376017
 30
0.0
 11
-6014.573684397896
 21
7754.171184376016
 31
0.0
  0
LINE
  5
AE
330
2
100
AcDbEntity
  8
0
100
AcDbLine
 10
-6010.573684397893
 20
7753.171184376016
 30
0.0
 11
-6010.573684397893
 21
7754.171184376016
 31
0.0
  0
LINE
  5
AF
330
2
100
AcDbEntity
  8
0
100
AcDbLine
 10
-6010.573684397893
 20
7753.171184376016
 30
0.0
 11
-6011.448684397894
 21
7753.171184376016
 31
0.0
  0
LINE
  5
B0
330
2
100
AcDbEntity
  8
0
100
AcDbLine
 10
-6013.073684397893
 20
7751.671184376016
 30
0.0
 11
-6012.073684397893
 21
7751.671184376014
 31
0.0
  0
LINE
  5
B1
330
2
100
AcDbEntity
  8
0
100
AcDbLine
 10
-6012.073684397893
 20
7751.671184376014
 30
0.0
 11
-6012.073684397893
 21
7752.546184376017
 31
0.0
  0
LINE
  5
B2
330
2
100
AcDbEntity
  8
0
100
AcDbLine
 10
-6013.073684397893
 20
7751.671184376016
 30
0.0
 11
-6013.073684397893
 21
7752.546184376014
 31
0.0
  0
ARC
  5
B3
330
2
100
AcDbEntity
  8
0
100
AcDbCircle
 10
-6011.448684397893
 20
7752.546184376014
 30
0.0
 40
0.625
100
AcDbArc
 50
90.0
 51
180.0
  0
LINE
  5
B4
330
2
100
AcDbEntity
  8
0
100
AcDbLine
 10
-6013.073684397896
 20
7755.671184376016
 30
0.0
 11
-6012.073684397893
 21
7755.671184376016
 31
0.0
  0
LINE
  5
B5
330
2
100
AcDbEntity
  8
0
100
AcDbLine
 10
-6010.573684397893
 20
7754.171184376016
 30
0.0
 11
-6011.448684397893
 21
7754.171184376016
 31
0.0
  0
LINE
  5
B6
330
2
100
AcDbEntity
  8
0
100
AcDbLine
 10
-6012.073684397893
 20
7754.796184376016
 30
0.0
 11
-6012.073684397893
 21
7755.671184376016
 31
0.0
  0
ARC
  5
B7
330
2
100
AcDbEntity
  8
0
100
AcDbCircle
 10
-6011.448684397894
 20
7754.796184376016
 30
0.0
 40
0.625
100
AcDbArc
 50
180.0
 51
270.0
  0
LINE
  5
B8
330
2
100
AcDbEntity
  8
0
100
AcDbLine
 10
-6013.073684397894
 20
7754.796184376016
 30
0.0
 11
-6013.073684397896
 21
7755.671184376016
 31
0.0
  0
ARC
  5
B9
330
2
100
AcDbEntity
  8
0
100
AcDbCircle
 10
-6013.698684397894
 20
7752.546184376017
 30
0.0
 40
0.625
100
AcDbArc
 50
0.0
 51
90.0
  0
ARC
  5
BA
330
2
100
AcDbEntity
  8
0
100
AcDbCircle
 10
-6013.698684397894
 20
7754.796184376016
 30
0.0
 40
0.625
100
AcDbArc
 50
270.0
 51
0.0
  0
ARC
  5
BB
330
2
100
AcDbEntity
  8
0
100
AcDbCircle
 10
-6013.87636429164
 20
7733.472234124651
 30
0.0
 40
0.5
100
AcDbArc
 50
204.9999999999761
 51
294.9999999999338
  0
ARC
  5
BC
330
2
100
AcDbEntity
  8
0
100
AcDbCircle
 10
-6018.525165170789
 20
7743.441619782053
 30
0.0
 40
0.5
100
AcDbArc
 50
114.9999999999337
 51
204.9999999999761
  0
LINE
  5
BD
330
2
100
AcDbEntity
  8
0
100
AcDbLine
 10
-6054.930154811142
 20
7720.94880472289
 30
0.0
 11
-6016.865227755602
 21
7738.698771715998
 31
0.0
  0
LINE
  5
BE
330
2
100
AcDbEntity
  8
0
100
AcDbLine
 10
-6017.83016651462
 20
7744.317391937312
 30
0.0
 11
-6012.758747373731
 21
7733.441698492872
 31
0.0
  0
LINE
  5
BF
330
2
100
AcDbEntity
  8
0
100
AcDbLine
 10
-6013.66505516077
 20
7733.019080231132
 30
0.0
 11
-6012.758747373731
 21
7733.441698492872
 31
0.0
  0
LINE
  5
C0
330
2
100
AcDbEntity
  8
0
100
AcDbLine
 10
-6018.736474301658
 20
7743.89477367557
 30
0.0
 11
-6017.83016651462
 21
7744.317391937312
 31
0.0
  0
LINE
  5
C1
330
2
100
AcDbEntity
  8
0
100
AcDbLine
 10
-6018.978319064306
 20
7743.230310651182
 30
0.0
 11
-6014.329518185157
 21
7733.260924993778
 31
0.0
  0
LINE
  5
C2
330
2
100
AcDbEntity
  8
0
100
AcDbLine
 10
-6055.986700465492
 20
7723.214574190483
 30
0.0
 11
-6017.921773409954
 21
7740.964541183591
 31
0.0
  0
LINE
  5
C3
330
2
100
AcDbEntity
  8
0
100
AcDbLine
 10
-6053.450990895051
 20
7717.776727468261
 30
0.0
 11
-6015.386063839509
 21
7735.52669446137
 31
0.0
  0
LINE
  5
C4
330
2
100
AcDbEntity
  8
0
100
AcDbLine
 10
-6054.507536549401
 20
7720.042496935853
 30
0.0
 11
-6016.442609493861
 21
7737.792463928961
 31
0.0
  0
LINE
  5
C5
330
2
100
AcDbEntity
  8
0
100
AcDbLine
 10
-6055.986700465492
 20
7723.214574190483
 30
0.0
 11
-6054.930154811142
 21
7720.94880472289
 31
0.0
  0
LINE
  5
C6
330
2
100
AcDbEntity
  8
0
100
AcDbLine
 10
-6063.253650723461
 20
7715.136583478169
 30
0.0
 11
-6062.831032461719
 21
7714.230275691132
 31
0.0
  0
LINE
  5
C7
330
2
100
AcDbEntity
  8
0
100
AcDbLine
 10
-6054.507536549401
 20
7720.042496935853
 30
0.0
 11
-6053.450990895051
 21
7717.776727468262
 31
0.0
  0
LINE
  5
C8
330
2
100
AcDbEntity
  8
0
100
AcDbLine
 10
-6053.979263722222
 20
7718.909612202057
 30
0.0
 11
-6063.042341592591
 21
7714.683429584649
 31
0.0
  0
LINE
  5
C9
330
2
100
AcDbEntity
  8
0
100
AcDbLine
 10
-6054.190572853094
 20
7719.362766095575
 30
0.0
 11
-6063.253650723461
 21
7715.136583478169
 31
0.0
  0
LINE
  5
CA
330
2
100
AcDbEntity
  8
0
100
AcDbLine
 10
-6053.767954591355
 20
7718.456458308539
 30
0.0
 11
-6062.831032461719
 21
7714.230275691132
 31
0.0
  0
LINE
  5
CB
330
2
100
AcDbEntity
  8
0
100
AcDbLine
 10
-6064.732814639555
 20
7718.308660732795
 30
0.0
 11
-6064.310196377814
 21
7717.402352945758
 31
0.0
  0
LINE
  5
CC
330
2
100
AcDbEntity
  8
0
100
AcDbLine
 10
-6055.247118507447
 20
7721.628535563168
 30
0.0
 11
-6064.310196377814
 21
7717.402352945758
 31
0.0
  0
LINE
  5
CD
330
2
100
AcDbEntity
  8
0
100
AcDbLine
 10
-6055.458427638317
 20
7722.081689456686
 30
0.0
 11
-6064.521505508682
 21
7717.85550683928
 31
0.0
  0
LINE
  5
CE
330
2
100
AcDbEntity
  8
0
100
AcDbLine
 10
-6055.669736769186
 20
7722.534843350202
 30
0.0
 11
-6064.732814639555
 21
7718.308660732795
 31
0.0
  0
DIMENSION
  5
CF
102
{ACAD_XDICTIONARY
360
D0
102
}
102
{ACAD_REACTORS
330
D1
102
}
330
2
100
AcDbEntity
  8
0
100
AcDbDimension
  2
*D7
 10
-6093.654258546917
 20
7808.970485168484
 30
0.0
 11
-6136.904258546917
 21
7811.470485168483
 31
0.0
 71
     5
 42
86.5
  3
STANDARD
100
AcDbAlignedDimension
 13
-6180.154258546917
 23
7788.671184376017
 33
0.0
 14
-6093.654258546917
 24
7787.671184376018
 34
0.0
100
AcDbRotatedDimension
  0
DIMENSION
  5
DF
330
2
100
AcDbEntity
  8
0
100
AcDbDimension
  2
*D0
 10
-6009.724790374065
 20
7723.386054335818
 30
0.0
 11
-6034.345338491373
 21
7714.66374899816
 31
0.0
  1
300
 71
     5
 42
52.00000000000045
  3
STANDARD
100
AcDbAlignedDimension
 13
-6062.831032461719
 23
7714.230275691132
 33
0.0
 14
-6014.329518185157
 24
7733.260924993778
 34
0.0
 50
24.99999999997614
100
AcDbRotatedDimension
  0
LEADER
  5
EC
330
2
100
AcDbEntity
  8
0
 62
   123
100
AcDbLeader
  3
STANDARD$7
 76
     3
 10
-6253.483658411268
 20
7722.158800067242
 30
0.0
 10
-6243.626181302211
 20
7705.315449582606
 30
0.0
 10
-6209.382535933594
 20
7705.315449582606
 30
0.0
1001
ACAD
1000
DSTYLE
1002
{
1070
   176
1070
   123
1070
   147
1040
1.0
1070
    77
1070
     1
1002
}
  0
TEXT
  5
F1
330
2
100
AcDbEntity
  8
0
 62
     3
100
AcDbText
 10
-6241.720338444753
 20
7706.720032460842
 30
0.0
 40
3.0
  1
4-%%C5.5 HOLE
  7
GHS
100
AcDbText
  0
DIMENSION
  5
F2
102
{ACAD_XDICTIONARY
360
F3
102
}
102
{ACAD_REACTORS
330
F4
102
}
330
2
100
AcDbEntity
  8
0
100
AcDbDimension
  2
*D8
 10
-6209.310618906742
 20
7785.671184376017
 30
0.0
 11
-6212.760618906743
 21
7753.671184376014
 31
0.0
  1
%%C<>{\H0.7x;\S  0^ -0.03;}
 71
     5
 42
64.0
  3
STANDARD
100
AcDbAlignedDimension
 13
-6181.654258546917
 23
7721.671184376017
 33
0.0
 14
-6181.654258546917
 24
7785.671184376017
 34
0.0
 50
90.0
100
AcDbRotatedDimension
  0
CIRCLE
  5
101
330
2
100
AcDbEntity
  8
0
100
AcDbCircle
 10
-6312.565062426545
 20
7724.679806347367
 30
0.0
 40
2.75
  0
CIRCLE
  5
102
330
2
100
AcDbEntity
  8
0
100
AcDbCircle
 10
-6254.582306369246
 20
7724.679806347367
 30
0.0
 40
2.75
  0
LINE
  5
103
330
2
100
AcDbEntity
  8
0
  6
CENTER
 62
     1
100
AcDbLine
 10
-6308.322421739426
 20
7778.419921717547
 30
0.0
 11
-6316.816325085013
 21
7786.913825063137
 31
0.0
  0
ARC
  5
104
330
2
100
AcDbEntity
  8
0
  6
CENTER
 62
     1
100
AcDbCircle
 10
-6283.573684397896
 20
7753.671184376017
 30
0.0
 40
41.0
100
AcDbArc
 50
126.6077517660648
 51
143.3922482339391
  0
ARC
  5
105
102
{ACAD_REACTORS
330
19F
102
}
330
2
100
AcDbEntity
  8
0
  6
CENTER
 62
     1
100
AcDbCircle
 10
-6283.573684397892
 20
7753.671184376017
 30
0.0
 40
41.0
100
AcDbArc
 50
36.60775176606091
 51
53.39224823393514
  0
LINE
  5
106
330
2
100
AcDbEntity
  8
0
  6
CENTER
 62
     1
100
AcDbLine
 10
-6258.824947056363
 20
7778.419921717547
 30
0.0
 11
-6250.331043710776
 21
7786.913825063137
 31
0.0
  0
CIRCLE
  5
107
330
2
100
AcDbEntity
  8
0
100
AcDbCircle
 10
-6312.565062426545
 20
7782.662562404666
 30
0.0
 40
2.75
  0
CIRCLE
  5
108
330
2
100
AcDbEntity
  8
0
100
AcDbCircle
 10
-6254.582306369246
 20
7782.662562404667
 30
0.0
 40
2.75
  0
DIMENSION
  5
109
102
{ACAD_XDICTIONARY
360
10A
102
}
102
{ACAD_REACTORS
330
10B
102
}
330
2
100
AcDbEntity
  8
0
100
AcDbDimension
  2
*D9
 10
-6248.573684397894
 20
7806.818963609174
 30
0.0
 11
-6283.573684397894
 21
7809.318963609173
 31
0.0
  1
{\fGulim|b0|i0|c129|p50;□}<>
 71
     5
 42
70.0
  3
STANDARD
100
AcDbAlignedDimension
 13
-6318.573684397893
 23
7782.671184376017
 33
0.0
 14
-6248.573684397894
 24
7782.671184376017
 34
0.0
100
AcDbRotatedDimension
  0
CIRCLE
  5
118
330
2
100
AcDbEntity
  8
0
100
AcDbCircle
 10
-6283.573684397894
 20
7753.671184376017
 30
0.0
 40
15.0
  0
CIRCLE
  5
119
330
2
100
AcDbEntity
  8
0
100
AcDbCircle
 10
-6283.573684397894
 20
7753.671184376017
 30
0.0
 40
32.0
  0
ARC
  5
11A
330
2
100
AcDbEntity
  8
0
100
AcDbCircle
 10
-6283.573684397894
 20
7753.671184376017
 30
0.0
 40
30.5
100
AcDbArc
 50
183.6099327191621
 51
356.3900672808378
  0
ARC
  5
11B
330
2
100
AcDbEntity
  8
0
100
AcDbCircle
 10
-6283.573684397894
 20
7753.671184376017
 30
0.0
 40
30.0
100
AcDbArc
 50
184.2390207064068
 51
355.7609792935931
  0
ARC
  5
11C
330
2
100
AcDbEntity
  8
0
100
AcDbCircle
 10
-6283.573684397894
 20
7753.671184376017
 30
0.0
 40
30.5
100
AcDbArc
 50
3.609932719162184
 51
176.3900672808378
  0
ARC
  5
11D
330
2
100
AcDbEntity
  8
0
100
AcDbCircle
 10
-6283.573684397894
 20
7753.671184376017
 30
0.0
 40
30.0
100
AcDbArc
 50
4.239020706406883
 51
175.7609792935931
  0
LINE
  5
11E
330
2
100
AcDbEntity
  8
0
  6
CENTER
 62
     1
100
AcDbLine
 10
-6312.573684397894
 20
7749.671184376016
 30
0.0
 11
-6312.573684397894
 21
7757.671184376016
 31
0.0
  0
ARC
  5
11F
330
2
100
AcDbEntity
  8
0
 62
     3
100
AcDbCircle
 10
-6312.573684397894
 20
7753.671184376017
 30
0.0
 40
2.0
100
AcDbArc
 50
259.9999999999948
 51
189.9999999999536
  0
CIRCLE
  5
120
330
2
100
AcDbEntity
  8
0
100
AcDbCircle
 10
-6312.573684397894
 20
7753.671184376017
 30
0.0
 40
1.6
  0
LINE
  5
121
330
2
100
AcDbEntity
  8
0
  6
CENTER
 62
     1
100
AcDbLine
 10
-6254.573684397894
 20
7749.671184376016
 30
0.0
 11
-6254.573684397894
 21
7757.671184376016
 31
0.0
  0
ARC
  5
122
330
2
100
AcDbEntity
  8
0
 62
     3
100
AcDbCircle
 10
-6254.573684397894
 20
7753.671184376017
 30
0.0
 40
2.0
100
AcDbArc
 50
259.9999999999948
 51
189.9999999999536
  0
CIRCLE
  5
123
330
2
100
AcDbEntity
  8
0
100
AcDbCircle
 10
-6254.573684397894
 20
7753.671184376017
 30
0.0
 40
1.6
  0
ARC
  5
124
330
2
100
AcDbEntity
  8
0
100
AcDbCircle
 10
-6312.573684397894
 20
7753.671184376017
 30
0.0
 40
2.399999999999999
100
AcDbArc
 50
112.4868427080163
 51
247.5131572919837
  0
ARC
  5
125
330
2
100
AcDbEntity
  8
0
100
AcDbCircle
 10
-6254.573684397894
 20
7753.671184376017
 30
0.0
 40
2.399999999999999
100
AcDbArc
 50
292.4868427080163
 51
67.51315729198367
  0
DIMENSION
  5
126
102
{ACAD_XDICTIONARY
360
127
102
}
102
{ACAD_REACTORS
330
128
102
}
330
2
100
AcDbEntity
  8
0
100
AcDbDimension
  2
*D10
 10
-6180.154258546917
 20
7808.970485168484
 30
0.0
 11
-6186.654258546917
 21
7811.470485168483
 31
0.0
 71
     5
 42
13.0
  3
STANDARD
100
AcDbAlignedDimension
 13
-6193.154258546917
 23
7756.531184376017
 33
0.0
 14
-6180.154258546917
 24
7788.671184376017
 34
0.0
100
AcDbRotatedDimension
  0
LINE
  5
135
330
2
100
AcDbEntity
  8
0
  6
CENTER
 62
     1
100
AcDbLine
 10
-6012.573684397894
 20
7747.171184376018
 30
0.0
 11
-6012.573684397894
 21
7760.171184376017
 31
0.0
  0
CIRCLE
  5
136
330
2
100
AcDbEntity
  8
0
100
AcDbCircle
 10
-5983.573684397894
 20
7753.671184376017
 30
0.0
 40
35.0
  0
ARC
  5
137
330
2
100
AcDbEntity
  8
0
  6
CENTER
 62
     1
100
AcDbCircle
 10
-5983.573684397894
 20
7753.671184376017
 30
0.0
 40
20.0
100
AcDbArc
 50
261.3975553724878
 51
278.6024445913579
  0
ARC
  5
138
330
2
100
AcDbEntity
  8
0
  6
CENTER
 62
     1
100
AcDbCircle
 10
-5983.573684397894
 20
7753.671184376017
 30
0.0
 40
20.0
100
AcDbArc
 50
141.3975553903324
 51
158.6024446036453
  0
ARC
  5
139
330
2
100
AcDbEntity
  8
0
  6
CENTER
 62
     1
100
AcDbCircle
 10
-5983.573684397894
 20
7753.671184376017
 30
0.0
 40
20.0
100
AcDbArc
 50
21.39755541212771
 51
38.60244463020896
  0
CIRCLE
  5
13A
330
2
100
AcDbEntity
  8
0
100
AcDbCircle
 10
-5983.573684397894
 20
7733.671184376017
 30
0.0
 40
1.0
  0
CIRCLE
  5
13B
330
2
100
AcDbEntity
  8
0
100
AcDbCircle
 10
-6000.894192473583
 20
7763.671184376017
 30
0.0
 40
0.9999999999999998
  0
CIRCLE
  5
13C
330
2
100
AcDbEntity
  8
0
100
AcDbCircle
 10
-5966.253176322204
 20
7763.671184376017
 30
0.0
 40
1.0
  0
LINE
  5
13D
330
2
100
AcDbEntity
  8
0
  6
CENTER
 62
     1
100
AcDbLine
 10
-5998.296116268914
 20
7762.171184380915
 30
0.0
 11
-6003.492268690878
 21
7765.171184380851
 31
0.0
  0
LINE
  5
13E
330
2
100
AcDbEntity
  8
0
  6
CENTER
 62
     1
100
AcDbLine
 10
-5968.851252526873
 20
7762.171184380915
 30
0.0
 11
-5963.655100104908
 21
7765.171184380851
 31
0.0
  0
ARC
  5
13F
330
2
100
AcDbEntity
  8
0
100
AcDbCircle
 10
-6012.573684397894
 20
7753.671184376017
 30
0.0
 40
4.0
100
AcDbArc
 50
270.0
 51
90.0
  0
ARC
  5
140
330
2
100
AcDbEntity
  8
0
100
AcDbCircle
 10
-6016.023645877069
 20
7759.671184376017
 30
0.0
 40
2.0
100
AcDbArc
 50
169.5243183036154
 51
270.0
  0
ARC
  5
141
330
2
100
AcDbEntity
  8
0
100
AcDbCircle
 10
-6016.023645877069
 20
7747.671184376017
 30
0.0
 40
2.0
100
AcDbArc
 50
90.0
 51
190.4756816963845
  0
LINE
  5
142
330
2
100
AcDbEntity
  8
0
100
AcDbLine
 10
-5954.573684397894
 20
7749.671184376016
 30
0.0
 11
-5951.123722918718
 21
7749.671184376016
 31
0.0
  0
LINE
  5
143
330
2
100
AcDbEntity
  8
0
100
AcDbLine
 10
-5954.573684397894
 20
7757.671184376016
 30
0.0
 11
-5951.123722918718
 21
7757.671184376016
 31
0.0
  0
CIRCLE
  5
144
330
2
100
AcDbEntity
  8
0
100
AcDbCircle
 10
-5954.573684397894
 20
7753.671184376017
 30
0.0
 40
3.5
  0
LINE
  5
145
330
2
100
AcDbEntity
  8
0
100
AcDbLine
 10
-5952.573684397894
 20
7753.171184376016
 30
0.0
 11
-5952.573684397894
 21
7754.171184376016
 31
0.0
  0
LINE
  5
146
330
2
100
AcDbEntity
  8
0
100
AcDbLine
 10
-5953.448684397894
 20
7753.171184376016
 30
0.0
 11
-5952.573684397894
 21
7753.171184376016
 31
0.0
  0
LINE
  5
147
330
2
100
AcDbEntity
  8
0
100
AcDbLine
 10
-5953.448684397894
 20
7754.171184376017
 30
0.0
 11
-5952.573684397894
 21
7754.171184376016
 31
0.0
  0
LINE
  5
148
330
2
100
AcDbEntity
  8
0
100
AcDbLine
 10
-5956.573684397894
 20
7753.171184376016
 30
0.0
 11
-5956.573684397894
 21
7754.171184376016
 31
0.0
  0
LINE
  5
149
330
2
100
AcDbEntity
  8
0
100
AcDbLine
 10
-5956.573684397894
 20
7753.171184376016
 30
0.0
 11
-5955.698684397894
 21
7753.171184376016
 31
0.0
  0
LINE
  5
14A
330
2
100
AcDbEntity
  8
0
100
AcDbLine
 10
-5954.073684397894
 20
7751.671184376016
 30
0.0
 11
-5955.073684397894
 21
7751.671184376014
 31
0.0
  0
LINE
  5
14B
330
2
100
AcDbEntity
  8
0
100
AcDbLine
 10
-5955.073684397894
 20
7751.671184376014
 30
0.0
 11
-5955.073684397894
 21
7752.546184376017
 31
0.0
  0
LINE
  5
14C
330
2
100
AcDbEntity
  8
0
100
AcDbLine
 10
-5954.073684397894
 20
7751.671184376016
 30
0.0
 11
-5954.073684397894
 21
7752.546184376014
 31
0.0
  0
ARC
  5
14D
330
2
100
AcDbEntity
  8
0
100
AcDbCircle
 10
-5955.698684397894
 20
7752.546184376014
 30
0.0
 40
0.625
100
AcDbArc
 50
0.0
 51
90.0
  0
LINE
  5
14E
330
2
100
AcDbEntity
  8
0
100
AcDbLine
 10
-5954.073684397894
 20
7755.671184376016
 30
0.0
 11
-5955.073684397894
 21
7755.671184376016
 31
0.0
  0
LINE
  5
14F
330
2
100
AcDbEntity
  8
0
100
AcDbLine
 10
-5956.573684397894
 20
7754.171184376016
 30
0.0
 11
-5955.698684397894
 21
7754.171184376016
 31
0.0
  0
LINE
  5
150
330
2
100
AcDbEntity
  8
0
100
AcDbLine
 10
-5955.073684397894
 20
7754.796184376016
 30
0.0
 11
-5955.073684397894
 21
7755.671184376016
 31
0.0
  0
ARC
  5
151
330
2
100
AcDbEntity
  8
0
100
AcDbCircle
 10
-5955.698684397894
 20
7754.796184376016
 30
0.0
 40
0.625
100
AcDbArc
 50
270.0
 51
0.0
  0
LINE
  5
152
330
2
100
AcDbEntity
  8
0
100
AcDbLine
 10
-5954.073684397894
 20
7754.796184376016
 30
0.0
 11
-5954.073684397894
 21
7755.671184376016
 31
0.0
  0
ARC
  5
153
330
2
100
AcDbEntity
  8
0
100
AcDbCircle
 10
-5953.448684397894
 20
7752.546184376017
 30
0.0
 40
0.625
100
AcDbArc
 50
90.0
 51
180.0
  0
ARC
  5
154
330
2
100
AcDbEntity
  8
0
100
AcDbCircle
 10
-5953.448684397894
 20
7754.796184376016
 30
0.0
 40
0.625
100
AcDbArc
 50
180.0
 51
270.0
  0
LINE
  5
155
330
2
100
AcDbEntity
  8
0
  6
CENTER
 62
     1
100
AcDbLine
 10
-5954.573684397894
 20
7747.171184376018
 30
0.0
 11
-5954.573684397894
 21
7760.171184376017
 31
0.0
  0
ARC
  5
156
330
2
100
AcDbEntity
  8
0
100
AcDbCircle
 10
-5954.573684397894
 20
7753.671184376017
 30
0.0
 40
4.0
100
AcDbArc
 50
90.0
 51
270.0
  0
ARC
  5
157
330
2
100
AcDbEntity
  8
0
100
AcDbCircle
 10
-5951.123722918718
 20
7759.671184376017
 30
0.0
 40
2.0
100
AcDbArc
 50
270.0
 51
10.4756816963845
  0
ARC
  5
158
330
2
100
AcDbEntity
  8
0
100
AcDbCircle
 10
-5951.123722918718
 20
7747.671184376017
 30
0.0
 40
2.0
100
AcDbArc
 50
349.5243183036155
 51
90.0
  0
DIMENSION
  5
159
102
{ACAD_XDICTIONARY
360
15A
102
}
102
{ACAD_REACTORS
330
15B
102
}
330
2
100
AcDbEntity
  8
0
100
AcDbDimension
  2
*D11
 10
-6019.125002264329
 20
7737.093332597395
 30
0.0
 11
-6026.818710409521
 21
7744.083992923383
 31
0.0
 70
     2
 71
     5
 42
0.4363323129986103
  3
STANDARD
100
AcDb2LineAngularDimension
 13
-5945.573684397894
 23
7753.671184376017
 33
0.0
 14
-6021.573684397893
 24
7753.671184376017
 34
0.0
 15
-5983.573684397894
 25
7753.671184376017
 35
0.0
 16
-6030.157297786842
 26
7746.847689751922
 36
0.0
  0
LINE
  5
16A
330
2
100
AcDbEntity
  8
0
100
AcDbLine
 10
-6102.704258546912
 20
7718.671184376017
 30
0.0
 11
-6094.654258546913
 21
7718.671184376017
 31
0.0
  0
LINE
  5
16B
330
2
100
AcDbEntity
  8
0
100
AcDbLine
 10
-6107.25425854692
 20
7718.671184376017
 30
0.0
 11
-6107.254258546916
 21
7725.88847478605
 31
0.0
  0
LINE
  5
16C
330
2
100
AcDbEntity
  8
0
100
AcDbLine
 10
-6107.254258546912
 20
7734.546576740567
 30
0.0
 11
-6107.254258546916
 21
7788.671184376018
 31
0.0
  0
DIMENSION
  5
16D
330
2
100
AcDbEntity
  8
0
100
AcDbDimension
  2
*D1
 10
-6076.7735592383
 20
7788.671184376018
 30
0.0
 11
-6079.273559238299
 21
7753.671184376016
 31
0.0
  1
%%C<>
 71
     5
 42
70.00000000000182
  3
STANDARD
100
AcDbAlignedDimension
 13
-6094.654258546913
 23
7718.671184376017
 33
0.0
 14
-6094.654258546917
 24
7788.671184376018
 34
0.0
 50
90.0
100
AcDbRotatedDimension
  0
DIMENSION
  5
17A
102
{ACAD_XDICTIONARY
360
17B
102
}
102
{ACAD_REACTORS
330
17C
102
}
330
2
100
AcDbEntity
  8
0
100
AcDbDimension
  2
*D12
 10
-6182.154258546916
 20
7796.981808020153
 30
0.0
 11
-6189.154258546917
 21
7796.981808020153
 31
0.0
 70
   128
 71
     5
 42
2.0
  3
STANDARD
100
AcDbAlignedDimension
 13
-6180.154258546917
 23
7788.671184376017
 33
0.0
 14
-6182.154258546916
 24
7785.171184376017
 34
0.0
100
AcDbRotatedDimension
  0
ARC
  5
18B
330
2
100
AcDbEntity
  8
0
100
AcDbCircle
 10
-6186.154258546917
 20
7771.906184376017
 30
0.0
 40
16.0
100
AcDbArc
 50
270.0
 51
284.4775121859299
  0
ARC
  5
18C
330
2
100
AcDbEntity
  8
0
  6
CENTER
 62
     1
100
AcDbCircle
 10
-6186.154258546917
 20
7771.906184376017
 30
0.0
 40
15.52100000000001
100
AcDbArc
 50
270.0
 51
288.3121388360797
  0
ARC
  5
18D
330
2
100
AcDbEntity
  8
0
100
AcDbCircle
 10
-6186.154258546917
 20
7771.906184376017
 30
0.0
 40
14.875
100
AcDbArc
 50
270.0
 51
277.8670946141826
  0
LINE
  5
18E
330
2
100
AcDbEntity
  8
0
  6
CENTER
 62
     1
100
AcDbLine
 10
-6186.154258546917
 20
7750.957184376017
 30
0.0
 11
-6194.154258546917
 21
7750.957184376017
 31
0.0
  0
LINE
  5
18F
330
2
100
AcDbEntity
  8
0
100
AcDbLine
 10
-6186.154258546917
 20
7750.311184376015
 30
0.0
 11
-6192.654258546917
 21
7750.311184376015
 31
0.0
  0
LINE
  5
190
330
2
100
AcDbEntity
  8
0
100
AcDbLine
 10
-6193.154258546917
 20
7750.811184376015
 30
0.0
 11
-6192.654258546917
 21
7750.311184376015
 31
0.0
  0
LINE
  5
191
330
2
100
AcDbEntity
  8
0
100
AcDbLine
 10
-6186.154258546917
 20
7751.436184376017
 30
0.0
 11
-6193.154258546917
 21
7751.436184376017
 31
0.0
  0
ARC
  5
192
330
2
100
AcDbEntity
  8
0
100
AcDbCircle
 10
-6186.154258546917
 20
7735.436184376016
 30
0.0
 40
16.0
100
AcDbArc
 50
75.52248781406965
 51
90.0
  0
ARC
  5
193
330
2
100
AcDbEntity
  8
0
  6
CENTER
 62
     1
100
AcDbCircle
 10
-6186.154258546917
 20
7735.436184376016
 30
0.0
 40
15.52100000000001
100
AcDbArc
 50
71.68786116364604
 51
90.0
  0
ARC
  5
194
330
2
100
AcDbEntity
  8
0
100
AcDbCircle
 10
-6186.154258546917
 20
7735.436184376016
 30
0.0
 40
14.875
100
AcDbArc
 50
82.13290538581741
 51
90.0
  0
LINE
  5
195
330
2
100
AcDbEntity
  8
0
100
AcDbLine
 10
-6182.154258546916
 20
7750.171184376016
 30
0.0
 11
-6184.118233006802
 21
7750.171184376016
 31
0.0
  0
CIRCLE
  5
196
330
2
100
AcDbEntity
  8
0
  6
CENTER
 62
     1
100
AcDbCircle
 10
-6283.573684397894
 20
7753.671184376017
 30
0.0
 40
2.713999999999998
  0
CIRCLE
  5
197
330
2
100
AcDbEntity
  8
0
100
AcDbCircle
 10
-6283.573684397894
 20
7753.671184376017
 30
0.0
 40
3.359999999999998
  0
CIRCLE
  5
198
330
2
100
AcDbEntity
  8
0
100
AcDbCircle
 10
-6283.573684397894
 20
7753.671184376017
 30
0.0
 40
2.234999999999998
  0
LINE
  5
199
330
2
100
AcDbEntity
  8
0
  6
CENTER
 62
     1
100
AcDbLine
 10
-5983.573684397894
 20
7753.671184376017
 30
0.0
 11
-6019.125002264329
 21
7737.093332597395
 31
0.0
  0
LINE
  5
19A
330
2
100
AcDbEntity
  8
0
  6
HIDDEN
 62
     2
 48
0.3
370
     0
100
AcDbLine
 10
-6172.654258546912
 20
7784.92118437602
 30
0.0
 11
-6180.154258546913
 21
7784.92118437602
 31
0.0
  0
LINE
  5
19B
330
2
100
AcDbEntity
  8
0
  6
HIDDEN
 62
     2
 48
0.3
370
     0
100
AcDbLine
 10
-6172.654258546913
 20
7780.42118437602
 30
0.0
 11
-6180.154258546913
 21
7780.42118437602
 31
0.0
  0
LINE
  5
19C
330
2
100
AcDbEntity
  8
0
  6
CENTER
 62
     1
100
AcDbLine
 10
-6170.154258546912
 20
7782.671184376018
 30
0.0
 11
-6183.154258546911
 21
7782.67118437602
 31
0.0
  0
DIMENSION
  5
19D
102
{ACAD_XDICTIONARY
360
19E
102
}
102
{ACAD_REACTORS
330
19F
102
}
330
2
100
AcDbEntity
  8
0
100
AcDbDimension
  2
*D13
 10
-6315.636376935525
 20
7728.117637709509
 30
0.0
 11
-6233.398480564837
 21
7793.660165686444
 31
0.0
 70
   131
  1
<>%%P0.5
 71
     5
 42
82.00000000000091
  3
STANDARD
100
AcDbDiametricDimension
 15
-6251.510991860261
 25
7779.224731042519
 35
0.0
 40
0.0
1001
ACAD_DSTYLE_DIMRADIAL_EXTENSION
1070
   387
1070
     1
1070
   388
1040
0.6389258000705361
1070
   390
1040
0.9318705267243831
  0
LINE
  5
1AC
330
2
100
AcDbEntity
  8
0
100
AcDbLine
 10
-6108.354258546913
 20
7734.046576740567
 30
0.0
 11
-6108.354258546913
 21
7726.38847478605
 31
0.0
  0
LINE
  5
1AD
330
2
100
AcDbEntity
  8
0
100
AcDbLine
 10
-6102.654258546915
 20
7760.635470090303
 30
0.0
 11
-6102.654258546915
 21
7746.706898661731
 31
0.0
  0
LINE
  5
1AE
330
2
100
AcDbEntity
  8
0
100
AcDbLine
 10
-6094.654258546915
 20
7758.171184376017
 30
0.0
 11
-6102.654258546915
 21
7758.171184376017
 31
0.0
  0
LINE
  5
1AF
330
2
100
AcDbEntity
  8
0
100
AcDbLine
 10
-6094.654258546915
 20
7749.171184376017
 30
0.0
 11
-6102.654258546915
 21
7749.171184376017
 31
0.0
  0
ARC
  5
1B0
330
2
100
AcDbEntity
  8
0
100
AcDbCircle
 10
-6094.654258546915
 20
7759.171184376016
 30
0.0
 40
1.0
100
AcDbArc
 50
270.0
 51
0.0
  0
ARC
  5
1B1
330
2
100
AcDbEntity
  8
0
100
AcDbCircle
 10
-6094.654258546915
 20
7748.171184376016
 30
0.0
 40
1.0
100
AcDbArc
 50
0.0
 51
90.0
  0
ARC
  5
1B2
330
2
100
AcDbEntity
  8
0
100
AcDbCircle
 10
-6099.854258546914
 20
7755.671184376017
 30
0.0
 40
1.5
100
AcDbArc
 50
0.0
 51
90.0
  0
LINE
  5
1B3
330
2
100
AcDbEntity
  8
0
100
AcDbLine
 10
-6099.854258546914
 20
7757.171184376017
 30
0.0
 11
-6101.554258546915
 21
7757.171184376017
 31
0.0
  0
LINE
  5
1B4
330
2
100
AcDbEntity
  8
0
100
AcDbLine
 10
-6101.554258546915
 20
7750.071184376015
 30
0.0
 11
-6101.554258546915
 21
7757.271184376016
 31
0.0
  0
LINE
  5
1B5
330
2
100
AcDbEntity
  8
0
100
AcDbLine
 10
-6101.554258546915
 20
7757.271184376016
 30
0.0
 11
-6102.654258546917
 21
7757.271184376016
 31
0.0
  0
LINE
  5
1B6
330
2
100
AcDbEntity
  8
0
100
AcDbLine
 10
-6098.354258546915
 20
7751.671184376016
 30
0.0
 11
-6098.354258546915
 21
7755.671184376017
 31
0.0
  0
LINE
  5
1B7
330
2
100
AcDbEntity
  8
0
100
AcDbLine
 10
-6099.854258546914
 20
7750.171184376016
 30
0.0
 11
-6101.554258546915
 21
7750.171184376016
 31
0.0
  0
LINE
  5
1B8
330
2
100
AcDbEntity
  8
0
100
AcDbLine
 10
-6101.554258546915
 20
7750.071184376015
 30
0.0
 11
-6102.654258546913
 21
7750.071184376015
 31
0.0
  0
ARC
  5
1B9
330
2
100
AcDbEntity
  8
0
100
AcDbCircle
 10
-6099.854258546914
 20
7751.671184376016
 30
0.0
 40
1.5
100
AcDbArc
 50
270.0
 51
0.0
  0
LINE
  5
1BA
330
2
100
AcDbEntity
  8
0
100
AcDbLine
 10
-6103.954258546914
 20
7734.546576740567
 30
0.0
 11
-6107.854258546915
 21
7734.546576740567
 31
0.0
  0
ARC
  5
1BB
330
2
100
AcDbEntity
  8
0
100
AcDbCircle
 10
-6107.854258546915
 20
7734.046576740567
 30
0.0
 40
0.5
100
AcDbArc
 50
90.0
 51
180.0
  0
LINE
  5
1BC
330
2
100
AcDbEntity
  8
0
100
AcDbLine
 10
-6105.204258546912
 20
7725.88847478605
 30
0.0
 11
-6107.854258546915
 21
7725.88847478605
 31
0.0
  0
ARC
  5
1BD
330
2
100
AcDbEntity
  8
0
100
AcDbCircle
 10
-6107.854258546915
 20
7726.38847478605
 30
0.0
 40
0.5
100
AcDbArc
 50
180.0
 51
270.0
  0
ELLIPSE
  5
1BE
330
2
100
AcDbEntity
  8
0
100
AcDbEllipse
 10
-6103.954258546913
 20
7729.540784417769
 30
0.0
 11
-5.999999999999999
 21
0.0000000000006119
 31
0.0
210
0.0
220
0.0
230
1.0
 40
0.8342987204662982
 41
3.141592653589915
 42
4.712388980384774
  0
ELLIPSE
  5
1BF
330
2
100
AcDbEntity
  8
0
100
AcDbEllipse
 10
-6103.954258546913
 20
7729.540784417769
 30
0.0
 11
-6.0
 21
0.0000000000017643
 31
0.0
210
0.0
220
0.0
230
1.0
 40
0.6087182719527408
 41
1.780666919057813
 42
3.141592653590276
  0
LINE
  5
1C0
330
2
100
AcDbEntity
  8
0
100
AcDbLine
 10
-6103.954258546913
 20
7733.397510075888
 30
0.0
 11
-6107.854258546915
 21
7733.397510075888
 31
0.0
  0
ELLIPSE
  5
1C1
330
2
100
AcDbEntity
  8
0
100
AcDbEllipse
 10
-6103.954258546913
 20
7729.540784417769
 30
0.0
 11
6.0
 21
0.000000000001755
 31
0.0
210
0.0
220
0.0
230
1.0
 40
0.6427876096863657
 41
-0.000000000000455
 42
1.570796326794708
  0
ARC
  5
1C2
330
2
100
AcDbEntity
  8
0
100
AcDbCircle
 10
-6107.854258546915
 20
7732.897510075886
 30
0.0
 40
0.5
100
AcDbArc
 50
90.0
 51
180.0
  0
ELLIPSE
  5
1C3
330
2
100
AcDbEntity
  8
0
100
AcDbEllipse
 10
-6103.954258546913
 20
7730.665662734718
 30
0.0
 11
-1.25
 21
0.0
 31
0.0
210
0.0
220
0.0
230
1.0
 40
0.6427876096866385
 41
3.141592653589792
 42
6.283185307179585
  0
LINE
  5
1C4
330
2
100
AcDbEntity
  8
0
100
AcDbLine
 10
-6102.704258546914
 20
7688.665662734718
 30
0.0
 11
-6102.704258546914
 21
7708.356261657963
 31
0.0
  0
LINE
  5
1C5
330
2
100
AcDbEntity
  8
0
  6
PHANTOM
 62
     6
 48
3.0
100
AcDbLine
 10
-6107.997535899942
 20
7707.609587630051
 30
0.0
 11
-6100.704258546913
 21
7711.820363273098
 31
0.0
  0
LINE
  5
1C7
330
2
100
AcDbEntity
  8
0
100
AcDbLine
 10
-6105.204258546915
 20
7688.665662734718
 30
0.0
 11
-6105.204258546915
 21
7706.912885984988
 31
0.0
  0
LINE
  5
1C8
330
2
100
AcDbEntity
  8
0
  6
PHANTOM
 62
     6
 48
3.0
100
AcDbLine
 10
-6107.997535899942
 20
7705.300186553292
 30
0.0
 11
-6100.704258546913
 21
7709.510962196339
 31
0.0
  0
LINE
  5
1C9
330
2
100
AcDbEntity
  8
0
100
AcDbLine
 10
-6104.454258546912
 20
7678.66566273472
 30
0.0
 11
-6103.454258546912
 21
7678.66566273472
 31
0.0
  0
LINE
  5
1CA
330
2
100
AcDbEntity
  8
0
100
AcDbLine
 10
-6105.204258546912
 20
7709.222287061745
 30
0.0
 11
-6105.204258546912
 21
7730.665662734722
 31
0.0
  0
LINE
  5
1CB
330
2
100
AcDbEntity
  8
0
100
AcDbLine
 10
-6102.704258546912
 20
7710.665662734719
 30
0.0
 11
-6102.704258546912
 21
7730.665662734718
 31
0.0
  0
LINE
  5
1CC
330
2
100
AcDbEntity
  8
0
100
AcDbLine
 10
-6105.204258546915
 20
7688.665662734718
 30
0.0
 11
-6102.704258546914
 21
7688.665662734718
 31
0.0
  0
LINE
  5
1CD
330
2
100
AcDbEntity
  8
0
100
AcDbLine
 10
-6103.954258546913
 20
7688.665662734718
 30
0.0
 11
-6103.954258546914
 21
7678.66566273472
 31
0.0
  0
LINE
  5
1CE
330
2
100
AcDbEntity
  8
0
100
AcDbLine
 10
-6104.454258546915
 20
7688.665662734718
 30
0.0
 11
-6104.454258546912
 21
7678.66566273472
 31
0.0
  0
LINE
  5
1CF
330
2
100
AcDbEntity
  8
0
100
AcDbLine
 10
-6103.454258546914
 20
7688.665662734718
 30
0.0
 11
-6103.454258546912
 21
7678.66566273472
 31
0.0
  0
LINE
  5
1D0
330
2
100
AcDbEntity
  8
0
  6
CENTER
 62
     1
100
AcDbLine
 10
-5533.347181899213
 20
7753.671184376017
 30
0.0
 11
-5658.844497749851
 21
7753.671184376017
 31
0.0
  0
LINE
  5
1D1
330
2
100
AcDbEntity
  8
0
100
AcDbLine
 10
-5537.747181899216
 20
7788.671184376018
 30
0.0
 11
-5623.247181899215
 21
7788.671184376017
 31
0.0
  0
LINE
  5
1D2
330
2
100
AcDbEntity
  8
0
100
AcDbLine
 10
-5548.297181899211
 20
7718.671184376017
 30
0.0
 11
-5623.247181899215
 21
7718.671184376017
 31
0.0
  0
LINE
  5
1D3
330
2
100
AcDbEntity
  8
0
100
AcDbLine
 10
-5623.247181899215
 20
7788.671184376017
 30
0.0
 11
-5623.247181899215
 21
7718.671184376017
 31
0.0
  0
LINE
  5
1D4
102
{ACAD_REACTORS
330
392
102
}
330
2
100
AcDbEntity
  8
0
100
AcDbLine
 10
-5615.747181899216
 20
7788.671184376017
 30
0.0
 11
-5615.747181899216
 21
7718.671184376017
 31
0.0
  0
LINE
  5
1D5
330
2
100
AcDbEntity
  8
0
100
AcDbLine
 10
-5625.247181899215
 20
7722.171184376017
 30
0.0
 11
-5625.247181899215
 21
7785.171184376017
 31
0.0
  0
LINE
  5
1D6
102
{ACAD_REACTORS
330
238
102
}
330
2
100
AcDbEntity
  8
0
 62
     5
100
AcDbLine
 10
-5624.747181899215
 20
7721.671184376018
 30
0.0
 11
-5624.747181899215
 21
7785.671184376017
 31
0.0
  0
LINE
  5
1D7
330
2
100
AcDbEntity
  8
0
  6
HIDDEN
 62
     2
 48
0.3
370
     0
100
AcDbLine
 10
-5615.747181899213
 20
7722.421184376017
 30
0.0
 11
-5623.247181899215
 21
7722.421184376016
 31
0.0
  0
LINE
  5
1D8
330
2
100
AcDbEntity
  8
0
  6
HIDDEN
 62
     2
 48
0.3
370
     0
100
AcDbLine
 10
-5615.747181899213
 20
7726.921184376016
 30
0.0
 11
-5623.247181899215
 21
7726.921184376017
 31
0.0
  0
LINE
  5
1D9
330
2
100
AcDbEntity
  8
0
  6
CENTER
 62
     1
100
AcDbLine
 10
-5613.247181899215
 20
7724.671184376017
 30
0.0
 11
-5626.247181899215
 21
7724.671184376017
 31
0.0
  0
LINE
  5
1DA
330
2
100
AcDbEntity
  8
0
100
AcDbLine
 10
-5624.747181899215
 20
7721.671184376017
 30
0.0
 11
-5625.247181899215
 21
7722.171184376017
 31
0.0
  0
LINE
  5
1DB
102
{ACAD_REACTORS
330
238
102
}
330
2
100
AcDbEntity
  8
0
100
AcDbLine
 10
-5624.747181899215
 20
7721.671184376017
 30
0.0
 11
-5623.247181899215
 21
7721.671184376017
 31
0.0
  0
LINE
  5
1DC
102
{ACAD_REACTORS
330
2BE
102
}
330
2
100
AcDbEntity
  8
0
100
AcDbLine
 10
-5624.747181899215
 20
7785.671184376017
 30
0.0
 11
-5625.247181899215
 21
7785.171184376017
 31
0.0
  0
LINE
  5
1DD
102
{ACAD_REACTORS
330
238
102
}
330
2
100
AcDbEntity
  8
0
100
AcDbLine
 10
-5624.747181899215
 20
7785.671184376017
 30
0.0
 11
-5623.247181899215
 21
7785.671184376017
 31
0.0
  0
LINE
  5
1DE
330
2
100
AcDbEntity
  8
0
  6
CENTER
 62
     1
100
AcDbLine
 10
-5426.666607750192
 20
7715.671184376017
 30
0.0
 11
-5426.666607750192
 21
7791.671184376017
 31
0.0
  0
LINE
  5
1DF
102
{ACAD_REACTORS
330
29D
102
}
330
2
100
AcDbEntity
  8
0
  6
CENTER
 62
     1
100
AcDbLine
 10
-5388.666607750192
 20
7753.671184376017
 30
0.0
 11
-5464.666607750192
 21
7753.671184376017
 31
0.0
  0
LINE
  5
1E0
330
2
100
AcDbEntity
  8
0
100
AcDbLine
 10
-5455.666607750192
 20
7749.671184376016
 30
0.0
 11
-5459.116569229368
 21
7749.671184376016
 31
0.0
  0
LINE
  5
1E1
330
2
100
AcDbEntity
  8
0
100
AcDbLine
 10
-5455.666607750192
 20
7757.671184376016
 30
0.0
 11
-5459.116569229368
 21
7757.671184376016
 31
0.0
  0
LINE
  5
1E2
102
{ACAD_REACTORS
330
21A
102
}
330
2
100
AcDbEntity
  8
0
100
AcDbLine
 10
-5536.747181899215
 20
7787.671184376018
 30
0.0
 11
-5536.747181899212
 21
7719.671184376014
 31
0.0
  0
ARC
  5
1E3
330
2
100
AcDbEntity
  8
0
100
AcDbCircle
 10
-5537.747181899212
 20
7719.671184376014
 30
0.0
 40
1.0
100
AcDbArc
 50
270.0
 51
0.0
  0
ARC
  5
1E4
330
2
100
AcDbEntity
  8
0
100
AcDbCircle
 10
-5537.747181899216
 20
7787.671184376018
 30
0.0
 40
1.0
100
AcDbArc
 50
0.0
 51
90.0
  0
LINE
  5
1E5
330
2
100
AcDbEntity
  8
0
  6
CENTER
 62
     1
100
AcDbLine
 10
-5742.813877027161
 20
7715.671184376017
 30
0.0
 11
-5742.813877027161
 21
7791.671184376017
 31
0.0
  0
LINE
  5
1E6
102
{ACAD_REACTORS
330
24F
102
}
330
2
100
AcDbEntity
  8
0
100
AcDbLine
 10
-5707.81387702716
 20
7724.671184376017
 30
0.0
 11
-5707.81387702716
 21
7782.671184376017
 31
0.0
  0
ARC
  5
1E7
330
2
100
AcDbEntity
  8
0
100
AcDbCircle
 10
-5713.813877027161
 20
7782.671184376017
 30
0.0
 40
6.0
100
AcDbArc
 50
0.0
 51
90.0
  0
ARC
  5
1E8
330
2
100
AcDbEntity
  8
0
100
AcDbCircle
 10
-5713.813877027161
 20
7724.671184376017
 30
0.0
 40
6.0
100
AcDbArc
 50
270.0
 51
0.0
  0
LINE
  5
1E9
102
{ACAD_REACTORS
330
24F
102
}
330
2
100
AcDbEntity
  8
0
100
AcDbLine
 10
-5777.813877027161
 20
7724.671184376017
 30
0.0
 11
-5777.813877027161
 21
7782.671184376017
 31
0.0
  0
LINE
  5
1EA
330
2
100
AcDbEntity
  8
0
  6
CENTER
 62
     1
100
AcDbLine
 10
-5767.562614368691
 20
7728.922447034489
 30
0.0
 11
-5776.05651771428
 21
7720.428543688898
 31
0.0
  0
ARC
  5
1EB
330
2
100
AcDbEntity
  8
0
  6
CENTER
 62
     1
100
AcDbCircle
 10
-5742.813877027163
 20
7753.671184376017
 30
0.0
 40
41.0
100
AcDbArc
 50
216.6077517660607
 51
233.3922482339352
  0
ARC
  5
1EC
330
2
100
AcDbEntity
  8
0
  6
CENTER
 62
     1
100
AcDbCircle
 10
-5742.81387702716
 20
7753.671184376017
 30
0.0
 40
41.0
100
AcDbArc
 50
306.6077517660648
 51
323.3922482339393
  0
LINE
  5
1ED
330
2
100
AcDbEntity
  8
0
  6
CENTER
 62
     1
100
AcDbLine
 10
-5718.065139685631
 20
7728.922447034486
 30
0.0
 11
-5709.571236340043
 21
7720.428543688896
 31
0.0
  0
LINE
  5
1EE
330
2
100
AcDbEntity
  8
0
  6
CENTER
 62
     1
100
AcDbLine
 10
-5780.813877027161
 20
7753.671184376017
 30
0.0
 11
-5704.81387702716
 21
7753.671184376017
 31
0.0
  0
LINE
  5
1EF
330
2
100
AcDbEntity
  8
0
100
AcDbLine
 10
-5771.81387702716
 20
7718.671184376017
 30
0.0
 11
-5713.813877027161
 21
7718.671184376017
 31
0.0
  0
ARC
  5
1F0
330
2
100
AcDbEntity
  8
0
100
AcDbCircle
 10
-5771.81387702716
 20
7724.671184376017
 30
0.0
 40
6.0
100
AcDbArc
 50
180.0
 51
270.0
  0
LINE
  5
1F1
330
2
100
AcDbEntity
  8
0
100
AcDbLine
 10
-5771.81387702716
 20
7788.671184376017
 30
0.0
 11
-5713.813877027161
 21
7788.671184376017
 31
0.0
  0
ARC
  5
1F2
330
2
100
AcDbEntity
  8
0
100
AcDbCircle
 10
-5771.81387702716
 20
7782.671184376017
 30
0.0
 40
6.0
100
AcDbArc
 50
90.0
 51
180.0
  0
CIRCLE
  5
1F3
330
2
100
AcDbEntity
  8
0
100
AcDbCircle
 10
-5455.666607750192
 20
7753.671184376017
 30
0.0
 40
3.5
  0
LINE
  5
1F4
330
2
100
AcDbEntity
  8
0
100
AcDbLine
 10
-5457.666607750192
 20
7753.171184376016
 30
0.0
 11
-5457.666607750193
 21
7754.171184376016
 31
0.0
  0
LINE
  5
1F5
330
2
100
AcDbEntity
  8
0
100
AcDbLine
 10
-5456.791607750194
 20
7753.171184376016
 30
0.0
 11
-5457.666607750192
 21
7753.171184376016
 31
0.0
  0
LINE
  5
1F6
330
2
100
AcDbEntity
  8
0
100
AcDbLine
 10
-5456.791607750194
 20
7754.171184376017
 30
0.0
 11
-5457.666607750193
 21
7754.171184376016
 31
0.0
  0
LINE
  5
1F7
330
2
100
AcDbEntity
  8
0
100
AcDbLine
 10
-5453.666607750193
 20
7753.171184376016
 30
0.0
 11
-5453.666607750193
 21
7754.171184376016
 31
0.0
  0
LINE
  5
1F8
330
2
100
AcDbEntity
  8
0
100
AcDbLine
 10
-5453.666607750193
 20
7753.171184376016
 30
0.0
 11
-5454.541607750194
 21
7753.171184376016
 31
0.0
  0
LINE
  5
1F9
330
2
100
AcDbEntity
  8
0
100
AcDbLine
 10
-5456.166607750191
 20
7751.671184376016
 30
0.0
 11
-5455.166607750192
 21
7751.671184376014
 31
0.0
  0
LINE
  5
1FA
330
2
100
AcDbEntity
  8
0
100
AcDbLine
 10
-5455.166607750192
 20
7751.671184376014
 30
0.0
 11
-5455.166607750192
 21
7752.546184376017
 31
0.0
  0
LINE
  5
1FB
330
2
100
AcDbEntity
  8
0
100
AcDbLine
 10
-5456.166607750191
 20
7751.671184376016
 30
0.0
 11
-5456.166607750191
 21
7752.546184376014
 31
0.0
  0
ARC
  5
1FC
330
2
100
AcDbEntity
  8
0
100
AcDbCircle
 10
-5454.541607750191
 20
7752.546184376014
 30
0.0
 40
0.625
100
AcDbArc
 50
90.0
 51
180.0
  0
LINE
  5
1FD
330
2
100
AcDbEntity
  8
0
100
AcDbLine
 10
-5456.166607750193
 20
7755.671184376016
 30
0.0
 11
-5455.166607750192
 21
7755.671184376016
 31
0.0
  0
LINE
  5
1FE
330
2
100
AcDbEntity
  8
0
100
AcDbLine
 10
-5453.666607750193
 20
7754.171184376016
 30
0.0
 11
-5454.541607750191
 21
7754.171184376016
 31
0.0
  0
LINE
  5
1FF
330
2
100
AcDbEntity
  8
0
100
AcDbLine
 10
-5455.166607750192
 20
7754.796184376016
 30
0.0
 11
-5455.166607750192
 21
7755.671184376016
 31
0.0
  0
ARC
  5
200
330
2
100
AcDbEntity
  8
0
100
AcDbCircle
 10
-5454.541607750194
 20
7754.796184376016
 30
0.0
 40
0.625
100
AcDbArc
 50
180.0
 51
270.0
  0
LINE
  5
201
330
2
100
AcDbEntity
  8
0
100
AcDbLine
 10
-5456.166607750192
 20
7754.796184376016
 30
0.0
 11
-5456.166607750193
 21
7755.671184376016
 31
0.0
  0
ARC
  5
202
330
2
100
AcDbEntity
  8
0
100
AcDbCircle
 10
-5456.791607750194
 20
7752.546184376017
 30
0.0
 40
0.625
100
AcDbArc
 50
0.0
 51
90.0
  0
ARC
  5
203
330
2
100
AcDbEntity
  8
0
100
AcDbCircle
 10
-5456.791607750194
 20
7754.796184376016
 30
0.0
 40
0.625
100
AcDbArc
 50
270.0
 51
0.0
  0
ARC
  5
204
330
2
100
AcDbEntity
  8
0
100
AcDbCircle
 10
-5456.969287643937
 20
7733.472234124651
 30
0.0
 40
0.5
100
AcDbArc
 50
204.9999999999767
 51
294.9999999999219
  0
ARC
  5
205
330
2
100
AcDbEntity
  8
0
100
AcDbCircle
 10
-5461.618088523086
 20
7743.441619782053
 30
0.0
 40
0.5
100
AcDbArc
 50
114.9999999999219
 51
204.9999999999767
  0
LINE
  5
206
330
2
100
AcDbEntity
  8
0
100
AcDbLine
 10
-5498.023078163439
 20
7720.94880472289
 30
0.0
 11
-5459.958151107901
 21
7738.698771715998
 31
0.0
  0
LINE
  5
207
330
2
100
AcDbEntity
  8
0
100
AcDbLine
 10
-5460.92308986692
 20
7744.317391937312
 30
0.0
 11
-5455.851670726031
 21
7733.441698492872
 31
0.0
  0
LINE
  5
208
330
2
100
AcDbEntity
  8
0
100
AcDbLine
 10
-5456.757978513068
 20
7733.019080231132
 30
0.0
 11
-5455.851670726031
 21
7733.441698492872
 31
0.0
  0
LINE
  5
209
330
2
100
AcDbEntity
  8
0
100
AcDbLine
 10
-5461.829397653955
 20
7743.89477367557
 30
0.0
 11
-5460.92308986692
 21
7744.317391937312
 31
0.0
  0
LINE
  5
20A
330
2
100
AcDbEntity
  8
0
100
AcDbLine
 10
-5462.071242416604
 20
7743.230310651182
 30
0.0
 11
-5457.422441537456
 21
7733.260924993778
 31
0.0
  0
LINE
  5
20B
330
2
100
AcDbEntity
  8
0
100
AcDbLine
 10
-5499.079623817791
 20
7723.214574190483
 30
0.0
 11
-5461.014696762252
 21
7740.964541183591
 31
0.0
  0
LINE
  5
20C
330
2
100
AcDbEntity
  8
0
100
AcDbLine
 10
-5496.543914247348
 20
7717.776727468261
 30
0.0
 11
-5458.478987191807
 21
7735.52669446137
 31
0.0
  0
LINE
  5
20D
330
2
100
AcDbEntity
  8
0
100
AcDbLine
 10
-5497.6004599017
 20
7720.042496935853
 30
0.0
 11
-5459.535532846159
 21
7737.792463928961
 31
0.0
  0
LINE
  5
20E
330
2
100
AcDbEntity
  8
0
100
AcDbLine
 10
-5499.079623817791
 20
7723.214574190483
 30
0.0
 11
-5498.023078163439
 21
7720.94880472289
 31
0.0
  0
LINE
  5
20F
330
2
100
AcDbEntity
  8
0
100
AcDbLine
 10
-5506.34657407576
 20
7715.136583478169
 30
0.0
 11
-5505.923955814019
 21
7714.230275691132
 31
0.0
  0
LINE
  5
210
330
2
100
AcDbEntity
  8
0
100
AcDbLine
 10
-5497.6004599017
 20
7720.042496935853
 30
0.0
 11
-5496.543914247348
 21
7717.776727468262
 31
0.0
  0
LINE
  5
211
330
2
100
AcDbEntity
  8
0
100
AcDbLine
 10
-5497.072187074522
 20
7718.909612202057
 30
0.0
 11
-5506.13526494489
 21
7714.683429584649
 31
0.0
  0
LINE
  5
212
330
2
100
AcDbEntity
  8
0
100
AcDbLine
 10
-5497.283496205394
 20
7719.362766095575
 30
0.0
 11
-5506.34657407576
 21
7715.136583478169
 31
0.0
  0
LINE
  5
213
330
2
100
AcDbEntity
  8
0
100
AcDbLine
 10
-5496.860877943653
 20
7718.456458308539
 30
0.0
 11
-5505.923955814019
 21
7714.230275691132
 31
0.0
  0
LINE
  5
214
330
2
100
AcDbEntity
  8
0
100
AcDbLine
 10
-5507.825737991853
 20
7718.308660732795
 30
0.0
 11
-5507.403119730113
 21
7717.402352945758
 31
0.0
  0
LINE
  5
215
330
2
100
AcDbEntity
  8
0
100
AcDbLine
 10
-5498.340041859744
 20
7721.628535563168
 30
0.0
 11
-5507.403119730113
 21
7717.402352945758
 31
0.0
  0
LINE
  5
216
330
2
100
AcDbEntity
  8
0
100
AcDbLine
 10
-5498.551350990616
 20
7722.081689456686
 30
0.0
 11
-5507.614428860981
 21
7717.85550683928
 31
0.0
  0
LINE
  5
217
330
2
100
AcDbEntity
  8
0
100
AcDbLine
 10
-5498.762660121485
 20
7722.534843350202
 30
0.0
 11
-5507.825737991853
 21
7718.308660732795
 31
0.0
  0
DIMENSION
  5
218
102
{ACAD_XDICTIONARY
360
219
102
}
102
{ACAD_REACTORS
330
21A
102
}
330
2
100
AcDbEntity
  8
0
100
AcDbDimension
  2
*D14
 10
-5536.747181899215
 20
7808.663774407654
 30
0.0
 11
-5579.997181899216
 21
7811.163774407653
 31
0.0
 71
     5
 42
86.5
  3
STANDARD
100
AcDbAlignedDimension
 13
-5623.247181899215
 23
7788.671184376017
 33
0.0
 14
-5536.747181899215
 24
7787.671184376018
 34
0.0
100
AcDbRotatedDimension
  0
DIMENSION
  5
227
330
2
100
AcDbEntity
  8
0
100
AcDbDimension
  2
*D2
 10
-5452.817713726364
 20
7723.38605433582
 30
0.0
 11
-5477.438261843674
 21
7714.663748998161
 31
0.0
  1
300
 71
     5
 42
52.0
  3
STANDARD
100
AcDbAlignedDimension
 13
-5505.923955814019
 23
7714.230275691132
 33
0.0
 14
-5457.422441537456
 24
7733.260924993778
 34
0.0
 50
24.99999999997675
100
AcDbRotatedDimension
  0
LEADER
  5
234
330
2
100
AcDbEntity
  8
0
 62
   123
100
AcDbLeader
  3
STANDARD$7
 76
     3
 10
-5712.723851040535
 20
7722.158800067242
 30
0.0
 10
-5702.866373931477
 20
7705.315449582606
 30
0.0
 10
-5668.62272856286
 20
7705.315449582606
 30
0.0
1001
ACAD
1000
DSTYLE
1002
{
1070
   176
1070
   123
1070
   147
1040
1.0
1070
    77
1070
     1
1002
}
  0
TEXT
  5
235
330
2
100
AcDbEntity
  8
0
 62
     3
100
AcDbText
 10
-5700.960531074023
 20
7706.720032460842
 30
0.0
 40
3.0
  1
4-%%C5.5 HOLE
  7
GHS
100
AcDbText
  0
DIMENSION
  5
236
102
{ACAD_XDICTIONARY
360
237
102
}
102
{ACAD_REACTORS
330
238
102
}
330
2
100
AcDbEntity
  8
0
100
AcDbDimension
  2
*D15
 10
-5681.325004282268
 20
7785.671184376017
 30
0.0
 11
-5684.775004282268
 21
7753.671184376016
 31
0.0
  1
%%C<>{\H0.7x;\S  0^ -0.03;}
 71
     5
 42
64.0
  3
STANDARD
100
AcDbAlignedDimension
 13
-5624.747181899215
 23
7721.671184376017
 33
0.0
 14
-5624.747181899215
 24
7785.671184376017
 34
0.0
 50
90.0
100
AcDbRotatedDimension
  0
CIRCLE
  5
245
330
2
100
AcDbEntity
  8
0
100
AcDbCircle
 10
-5771.80525505581
 20
7724.679806347367
 30
0.0
 40
2.75
  0
CIRCLE
  5
246
330
2
100
AcDbEntity
  8
0
100
AcDbCircle
 10
-5713.822498998512
 20
7724.679806347367
 30
0.0
 40
2.75
  0
LINE
  5
247
330
2
100
AcDbEntity
  8
0
  6
CENTER
 62
     1
100
AcDbLine
 10
-5767.562614368691
 20
7778.419921717547
 30
0.0
 11
-5776.05651771428
 21
7786.913825063137
 31
0.0
  0
ARC
  5
248
330
2
100
AcDbEntity
  8
0
  6
CENTER
 62
     1
100
AcDbCircle
 10
-5742.813877027163
 20
7753.671184376017
 30
0.0
 40
41.0
100
AcDbArc
 50
126.6077517660648
 51
143.3922482339392
  0
ARC
  5
249
102
{ACAD_REACTORS
330
2D4
102
}
330
2
100
AcDbEntity
  8
0
  6
CENTER
 62
     1
100
AcDbCircle
 10
-5742.81387702716
 20
7753.671184376017
 30
0.0
 40
41.0
100
AcDbArc
 50
36.60775176606075
 51
53.39224823393522
  0
LINE
  5
24A
330
2
100
AcDbEntity
  8
0
  6
CENTER
 62
     1
100
AcDbLine
 10
-5718.065139685631
 20
7778.419921717547
 30
0.0
 11
-5709.571236340043
 21
7786.913825063137
 31
0.0
  0
CIRCLE
  5
24B
330
2
100
AcDbEntity
  8
0
100
AcDbCircle
 10
-5771.80525505581
 20
7782.662562404666
 30
0.0
 40
2.75
  0
CIRCLE
  5
24C
330
2
100
AcDbEntity
  8
0
100
AcDbCircle
 10
-5713.822498998512
 20
7782.662562404667
 30
0.0
 40
2.75
  0
DIMENSION
  5
24D
102
{ACAD_XDICTIONARY
360
24E
102
}
102
{ACAD_REACTORS
330
24F
102
}
330
2
100
AcDbEntity
  8
0
100
AcDbDimension
  2
*D16
 10
-5707.81387702716
 20
7808.188974413224
 30
0.0
 11
-5742.813877027161
 21
7810.688974413224
 31
0.0
  1
{\fGulim|b0|i0|c129|p50;□}<>
 71
     5
 42
70.0
  3
STANDARD
100
AcDbAlignedDimension
 13
-5777.813877027161
 23
7782.671184376017
 33
0.0
 14
-5707.81387702716
 24
7782.671184376017
 34
0.0
100
AcDbRotatedDimension
  0
CIRCLE
  5
25C
330
2
100
AcDbEntity
  8
0
100
AcDbCircle
 10
-5742.813877027161
 20
7753.671184376017
 30
0.0
 40
15.0
  0
CIRCLE
  5
25D
330
2
100
AcDbEntity
  8
0
100
AcDbCircle
 10
-5742.813877027161
 20
7753.671184376017
 30
0.0
 40
32.0
  0
ARC
  5
25E
330
2
100
AcDbEntity
  8
0
100
AcDbCircle
 10
-5742.813877027161
 20
7753.671184376017
 30
0.0
 40
30.5
100
AcDbArc
 50
183.6099327191623
 51
356.3900672808376
  0
ARC
  5
25F
330
2
100
AcDbEntity
  8
0
100
AcDbCircle
 10
-5742.813877027161
 20
7753.671184376017
 30
0.0
 40
30.0
100
AcDbArc
 50
184.239020706407
 51
355.760979293593
  0
ARC
  5
260
330
2
100
AcDbEntity
  8
0
100
AcDbCircle
 10
-5742.813877027161
 20
7753.671184376017
 30
0.0
 40
30.5
100
AcDbArc
 50
3.609932719162324
 51
176.3900672808376
  0
ARC
  5
261
330
2
100
AcDbEntity
  8
0
100
AcDbCircle
 10
-5742.813877027161
 20
7753.671184376017
 30
0.0
 40
30.0
100
AcDbArc
 50
4.239020706407018
 51
175.7609792935929
  0
LINE
  5
262
330
2
100
AcDbEntity
  8
0
  6
CENTER
 62
     1
100
AcDbLine
 10
-5771.81387702716
 20
7749.671184376016
 30
0.0
 11
-5771.81387702716
 21
7757.671184376016
 31
0.0
  0
ARC
  5
263
330
2
100
AcDbEntity
  8
0
 62
     3
100
AcDbCircle
 10
-5771.81387702716
 20
7753.671184376017
 30
0.0
 40
2.0
100
AcDbArc
 50
259.9999999999948
 51
189.9999999999539
  0
CIRCLE
  5
264
330
2
100
AcDbEntity
  8
0
100
AcDbCircle
 10
-5771.81387702716
 20
7753.671184376017
 30
0.0
 40
1.6
  0
LINE
  5
265
330
2
100
AcDbEntity
  8
0
  6
CENTER
 62
     1
100
AcDbLine
 10
-5713.813877027161
 20
7749.671184376016
 30
0.0
 11
-5713.813877027161
 21
7757.671184376016
 31
0.0
  0
ARC
  5
266
330
2
100
AcDbEntity
  8
0
 62
     3
100
AcDbCircle
 10
-5713.813877027161
 20
7753.671184376017
 30
0.0
 40
2.0
100
AcDbArc
 50
259.9999999999948
 51
189.9999999999539
  0
CIRCLE
  5
267
330
2
100
AcDbEntity
  8
0
100
AcDbCircle
 10
-5713.813877027161
 20
7753.671184376017
 30
0.0
 40
1.6
  0
ARC
  5
268
330
2
100
AcDbEntity
  8
0
100
AcDbCircle
 10
-5771.81387702716
 20
7753.671184376017
 30
0.0
 40
2.399999999999999
100
AcDbArc
 50
112.4868427080163
 51
247.5131572919716
  0
ARC
  5
269
330
2
100
AcDbEntity
  8
0
100
AcDbCircle
 10
-5713.813877027161
 20
7753.671184376017
 30
0.0
 40
2.399999999999999
100
AcDbArc
 50
292.4868427080164
 51
67.51315729198364
  0
DIMENSION
  5
26A
330
2
100
AcDbEntity
  8
0
100
AcDbDimension
  2
*D3
 10
-5623.247181899215
 20
7808.663774407654
 30
0.0
 11
-5639.247181899215
 21
7811.163774407653
 31
0.0
 71
     5
 42
32.0
  3
STANDARD
100
AcDbAlignedDimension
 13
-5655.247181899215
 23
7756.671184376017
 33
0.0
 14
-5623.247181899215
 24
7788.671184376017
 34
0.0
100
AcDbRotatedDimension
  0
LINE
  5
277
330
2
100
AcDbEntity
  8
0
  6
CENTER
 62
     1
100
AcDbLine
 10
-5455.666607750192
 20
7747.171184376018
 30
0.0
 11
-5455.666607750192
 21
7760.171184376017
 31
0.0
  0
CIRCLE
  5
278
330
2
100
AcDbEntity
  8
0
100
AcDbCircle
 10
-5426.666607750192
 20
7753.671184376017
 30
0.0
 40
35.0
  0
ARC
  5
279
330
2
100
AcDbEntity
  8
0
  6
CENTER
 62
     1
100
AcDbCircle
 10
-5426.666607750192
 20
7753.671184376017
 30
0.0
 40
20.0
100
AcDbArc
 50
261.3975553724878
 51
278.6024445913579
  0
ARC
  5
27A
330
2
100
AcDbEntity
  8
0
  6
CENTER
 62
     1
100
AcDbCircle
 10
-5426.666607750192
 20
7753.671184376017
 30
0.0
 40
20.0
100
AcDbArc
 50
141.397555390332
 51
158.6024446036451
  0
ARC
  5
27B
330
2
100
AcDbEntity
  8
0
  6
CENTER
 62
     1
100
AcDbCircle
 10
-5426.666607750192
 20
7753.671184376017
 30
0.0
 40
20.0
100
AcDbArc
 50
21.39755541212714
 51
38.60244463020872
  0
CIRCLE
  5
27C
330
2
100
AcDbEntity
  8
0
100
AcDbCircle
 10
-5426.666607750192
 20
7733.671184376017
 30
0.0
 40
1.0
  0
CIRCLE
  5
27D
330
2
100
AcDbEntity
  8
0
100
AcDbCircle
 10
-5443.987115825881
 20
7763.671184376017
 30
0.0
 40
0.9999999999999998
  0
CIRCLE
  5
27E
330
2
100
AcDbEntity
  8
0
100
AcDbCircle
 10
-5409.346099674504
 20
7763.671184376017
 30
0.0
 40
1.0
  0
LINE
  5
27F
330
2
100
AcDbEntity
  8
0
  6
CENTER
 62
     1
100
AcDbLine
 10
-5441.389039621212
 20
7762.171184380915
 30
0.0
 11
-5446.585192043176
 21
7765.171184380851
 31
0.0
  0
LINE
  5
280
330
2
100
AcDbEntity
  8
0
  6
CENTER
 62
     1
100
AcDbLine
 10
-5411.944175879173
 20
7762.171184380915
 30
0.0
 11
-5406.748023457208
 21
7765.171184380851
 31
0.0
  0
ARC
  5
281
330
2
100
AcDbEntity
  8
0
100
AcDbCircle
 10
-5455.666607750192
 20
7753.671184376017
 30
0.0
 40
4.0
100
AcDbArc
 50
270.0
 51
90.0
  0
ARC
  5
282
330
2
100
AcDbEntity
  8
0
100
AcDbCircle
 10
-5459.116569229368
 20
7759.671184376017
 30
0.0
 40
2.0
100
AcDbArc
 50
169.5243183036156
 51
270.0
  0
ARC
  5
283
330
2
100
AcDbEntity
  8
0
100
AcDbCircle
 10
-5459.116569229368
 20
7747.671184376017
 30
0.0
 40
2.0
100
AcDbArc
 50
90.0
 51
190.4756816963844
  0
LINE
  5
284
330
2
100
AcDbEntity
  8
0
100
AcDbLine
 10
-5397.666607750192
 20
7749.671184376016
 30
0.0
 11
-5394.216646271017
 21
7749.671184376016
 31
0.0
  0
LINE
  5
285
330
2
100
AcDbEntity
  8
0
100
AcDbLine
 10
-5397.666607750192
 20
7757.671184376016
 30
0.0
 11
-5394.216646271017
 21
7757.671184376016
 31
0.0
  0
CIRCLE
  5
286
330
2
100
AcDbEntity
  8
0
100
AcDbCircle
 10
-5397.666607750192
 20
7753.671184376017
 30
0.0
 40
3.5
  0
LINE
  5
287
330
2
100
AcDbEntity
  8
0
100
AcDbLine
 10
-5395.666607750192
 20
7753.171184376016
 30
0.0
 11
-5395.666607750191
 21
7754.171184376016
 31
0.0
  0
LINE
  5
288
330
2
100
AcDbEntity
  8
0
100
AcDbLine
 10
-5396.541607750192
 20
7753.171184376016
 30
0.0
 11
-5395.666607750192
 21
7753.171184376016
 31
0.0
  0
LINE
  5
289
330
2
100
AcDbEntity
  8
0
100
AcDbLine
 10
-5396.541607750192
 20
7754.171184376017
 30
0.0
 11
-5395.666607750191
 21
7754.171184376016
 31
0.0
  0
LINE
  5
28A
330
2
100
AcDbEntity
  8
0
100
AcDbLine
 10
-5399.666607750192
 20
7753.171184376016
 30
0.0
 11
-5399.666607750192
 21
7754.171184376016
 31
0.0
  0
LINE
  5
28B
330
2
100
AcDbEntity
  8
0
100
AcDbLine
 10
-5399.666607750192
 20
7753.171184376016
 30
0.0
 11
-5398.791607750192
 21
7753.171184376016
 31
0.0
  0
LINE
  5
28C
330
2
100
AcDbEntity
  8
0
100
AcDbLine
 10
-5397.166607750193
 20
7751.671184376016
 30
0.0
 11
-5398.166607750193
 21
7751.671184376014
 31
0.0
  0
LINE
  5
28D
330
2
100
AcDbEntity
  8
0
100
AcDbLine
 10
-5398.166607750193
 20
7751.671184376014
 30
0.0
 11
-5398.166607750193
 21
7752.546184376017
 31
0.0
  0
LINE
  5
28E
330
2
100
AcDbEntity
  8
0
100
AcDbLine
 10
-5397.166607750193
 20
7751.671184376016
 30
0.0
 11
-5397.166607750193
 21
7752.546184376014
 31
0.0
  0
ARC
  5
28F
330
2
100
AcDbEntity
  8
0
100
AcDbCircle
 10
-5398.791607750194
 20
7752.546184376014
 30
0.0
 40
0.625
100
AcDbArc
 50
0.0
 51
90.0
  0
LINE
  5
290
330
2
100
AcDbEntity
  8
0
100
AcDbLine
 10
-5397.166607750191
 20
7755.671184376016
 30
0.0
 11
-5398.166607750193
 21
7755.671184376016
 31
0.0
  0
LINE
  5
291
330
2
100
AcDbEntity
  8
0
100
AcDbLine
 10
-5399.666607750192
 20
7754.171184376016
 30
0.0
 11
-5398.791607750194
 21
7754.171184376016
 31
0.0
  0
LINE
  5
292
330
2
100
AcDbEntity
  8
0
100
AcDbLine
 10
-5398.166607750193
 20
7754.796184376016
 30
0.0
 11
-5398.166607750193
 21
7755.671184376016
 31
0.0
  0
ARC
  5
293
330
2
100
AcDbEntity
  8
0
100
AcDbCircle
 10
-5398.791607750192
 20
7754.796184376016
 30
0.0
 40
0.625
100
AcDbArc
 50
270.0
 51
0.0
  0
LINE
  5
294
330
2
100
AcDbEntity
  8
0
100
AcDbLine
 10
-5397.166607750192
 20
7754.796184376016
 30
0.0
 11
-5397.166607750191
 21
7755.671184376016
 31
0.0
  0
ARC
  5
295
330
2
100
AcDbEntity
  8
0
100
AcDbCircle
 10
-5396.541607750192
 20
7752.546184376017
 30
0.0
 40
0.625
100
AcDbArc
 50
90.0
 51
180.0
  0
ARC
  5
296
330
2
100
AcDbEntity
  8
0
100
AcDbCircle
 10
-5396.541607750192
 20
7754.796184376016
 30
0.0
 40
0.625
100
AcDbArc
 50
180.0
 51
270.0
  0
LINE
  5
297
330
2
100
AcDbEntity
  8
0
  6
CENTER
 62
     1
100
AcDbLine
 10
-5397.666607750192
 20
7747.171184376018
 30
0.0
 11
-5397.666607750192
 21
7760.171184376017
 31
0.0
  0
ARC
  5
298
330
2
100
AcDbEntity
  8
0
100
AcDbCircle
 10
-5397.666607750192
 20
7753.671184376017
 30
0.0
 40
4.0
100
AcDbArc
 50
90.0
 51
270.0
  0
ARC
  5
299
330
2
100
AcDbEntity
  8
0
100
AcDbCircle
 10
-5394.216646271017
 20
7759.671184376017
 30
0.0
 40
2.0
100
AcDbArc
 50
270.0
 51
10.47568169638439
  0
ARC
  5
29A
330
2
100
AcDbEntity
  8
0
100
AcDbCircle
 10
-5394.216646271017
 20
7747.671184376017
 30
0.0
 40
2.0
100
AcDbArc
 50
349.5243183036156
 51
90.0
  0
DIMENSION
  5
29B
102
{ACAD_XDICTIONARY
360
29C
102
}
102
{ACAD_REACTORS
330
29D
102
}
330
2
100
AcDbEntity
  8
0
100
AcDbDimension
  2
*D17
 10
-5462.217925616627
 20
7737.093332597395
 30
0.0
 11
-5469.91163376182
 21
7744.083992923386
 31
0.0
 70
     2
 71
     5
 42
0.436332312998614
  3
STANDARD
100
AcDb2LineAngularDimension
 13
-5388.666607750192
 23
7753.671184376017
 33
0.0
 14
-5464.666607750192
 24
7753.671184376017
 34
0.0
 15
-5426.666607750192
 25
7753.671184376017
 35
0.0
 16
-5473.250221139139
 26
7746.847689751922
 36
0.0
  0
LINE
  5
2AC
330
2
100
AcDbEntity
  8
0
100
AcDbLine
 10
-5545.79718189921
 20
7718.671184376017
 30
0.0
 11
-5537.747181899212
 21
7718.671184376017
 31
0.0
  0
LINE
  5
2AD
330
2
100
AcDbEntity
  8
0
100
AcDbLine
 10
-5550.347181899216
 20
7718.671184376017
 30
0.0
 11
-5550.347181899214
 21
7725.88847478605
 31
0.0
  0
LINE
  5
2AE
330
2
100
AcDbEntity
  8
0
100
AcDbLine
 10
-5550.34718189921
 20
7734.546576740567
 30
0.0
 11
-5550.347181899216
 21
7788.671184376018
 31
0.0
  0
DIMENSION
  5
2AF
330
2
100
AcDbEntity
  8
0
100
AcDbDimension
  2
*D4
 10
-5519.866482590598
 20
7788.671184376018
 30
0.0
 11
-5522.366482590599
 21
7753.671184376016
 31
0.0
  1
%%C<>
 71
     5
 42
70.00000000000182
  3
STANDARD
100
AcDbAlignedDimension
 13
-5537.747181899212
 23
7718.671184376017
 33
0.0
 14
-5537.747181899216
 24
7788.671184376018
 34
0.0
 50
90.0
100
AcDbRotatedDimension
  0
DIMENSION
  5
2BC
102
{ACAD_XDICTIONARY
360
2BD
102
}
102
{ACAD_REACTORS
330
2BE
102
}
330
2
100
AcDbEntity
  8
0
100
AcDbDimension
  2
*D18
 10
-5625.247181899215
 20
7797.671184376017
 30
0.0
 11
-5632.247181899217
 21
7797.671184376017
 31
0.0
 70
   128
 71
     5
 42
2.0
  3
STANDARD
100
AcDbAlignedDimension
 13
-5623.247181899215
 23
7788.671184376017
 33
0.0
 14
-5625.247181899215
 24
7785.171184376017
 34
0.0
100
AcDbRotatedDimension
  0
CIRCLE
  5
2CD
330
2
100
AcDbEntity
  8
0
100
AcDbCircle
 10
-5742.813877027161
 20
7753.671184376017
 30
0.0
 40
4.0
  0
LINE
  5
2CE
330
2
100
AcDbEntity
  8
0
  6
CENTER
 62
     1
100
AcDbLine
 10
-5426.666607750192
 20
7753.671184376017
 30
0.0
 11
-5462.217925616627
 21
7737.093332597395
 31
0.0
  0
LINE
  5
2CF
330
2
100
AcDbEntity
  8
0
  6
HIDDEN
 62
     2
 48
0.3
370
     0
100
AcDbLine
 10
-5615.74718189921
 20
7784.92118437602
 30
0.0
 11
-5623.247181899212
 21
7784.92118437602
 31
0.0
  0
LINE
  5
2D0
330
2
100
AcDbEntity
  8
0
  6
HIDDEN
 62
     2
 48
0.3
370
     0
100
AcDbLine
 10
-5615.747181899212
 20
7780.42118437602
 30
0.0
 11
-5623.247181899212
 21
7780.42118437602
 31
0.0
  0
LINE
  5
2D1
330
2
100
AcDbEntity
  8
0
  6
CENTER
 62
     1
100
AcDbLine
 10
-5613.247181899211
 20
7782.671184376018
 30
0.0
 11
-5626.247181899212
 21
7782.67118437602
 31
0.0
  0
DIMENSION
  5
2D2
102
{ACAD_XDICTIONARY
360
2D3
102
}
102
{ACAD_REACTORS
330
2D4
102
}
330
2
100
AcDbEntity
  8
0
100
AcDbDimension
  2
*D19
 10
-5774.876569564799
 20
7728.117637709512
 30
0.0
 11
-5692.638673194108
 21
7793.660165686444
 31
0.0
 70
   131
  1
<>%%P0.5
 71
     5
 42
82.00000000000725
  3
STANDARD
100
AcDbDiametricDimension
 15
-5710.751184489527
 25
7779.224731042525
 35
0.0
 40
0.0
1001
ACAD_DSTYLE_DIMRADIAL_EXTENSION
1070
   387
1070
     1
1070
   388
1040
0.6389258000705321
1070
   390
1040
0.9318705267243871
  0
LINE
  5
2E0
330
2
100
AcDbEntity
  8
0
100
AcDbLine
 10
-5551.447181899213
 20
7734.046576740567
 30
0.0
 11
-5551.447181899213
 21
7726.38847478605
 31
0.0
  0
LINE
  5
2E1
330
2
100
AcDbEntity
  8
0
100
AcDbLine
 10
-5545.747181899212
 20
7760.635470090303
 30
0.0
 11
-5545.747181899212
 21
7746.706898661731
 31
0.0
  0
LINE
  5
2E2
330
2
100
AcDbEntity
  8
0
100
AcDbLine
 10
-5537.747181899213
 20
7758.171184376017
 30
0.0
 11
-5545.747181899212
 21
7758.171184376017
 31
0.0
  0
LINE
  5
2E3
330
2
100
AcDbEntity
  8
0
100
AcDbLine
 10
-5537.747181899213
 20
7749.171184376017
 30
0.0
 11
-5545.747181899212
 21
7749.171184376017
 31
0.0
  0
ARC
  5
2E4
330
2
100
AcDbEntity
  8
0
100
AcDbCircle
 10
-5537.747181899213
 20
7759.171184376016
 30
0.0
 40
1.0
100
AcDbArc
 50
270.0
 51
0.0
  0
ARC
  5
2E5
330
2
100
AcDbEntity
  8
0
100
AcDbCircle
 10
-5537.747181899213
 20
7748.171184376016
 30
0.0
 40
1.0
100
AcDbArc
 50
0.0
 51
90.0
  0
ARC
  5
2E6
330
2
100
AcDbEntity
  8
0
100
AcDbCircle
 10
-5542.947181899211
 20
7755.671184376017
 30
0.0
 40
1.5
100
AcDbArc
 50
0.0
 51
90.0
  0
LINE
  5
2E7
330
2
100
AcDbEntity
  8
0
100
AcDbLine
 10
-5542.947181899211
 20
7757.171184376017
 30
0.0
 11
-5544.647181899212
 21
7757.171184376017
 31
0.0
  0
LINE
  5
2E8
330
2
100
AcDbEntity
  8
0
100
AcDbLine
 10
-5544.647181899212
 20
7750.071184376015
 30
0.0
 11
-5544.647181899212
 21
7757.271184376016
 31
0.0
  0
LINE
  5
2E9
330
2
100
AcDbEntity
  8
0
100
AcDbLine
 10
-5544.647181899212
 20
7757.271184376016
 30
0.0
 11
-5545.747181899216
 21
7757.271184376016
 31
0.0
  0
LINE
  5
2EA
330
2
100
AcDbEntity
  8
0
100
AcDbLine
 10
-5541.447181899212
 20
7751.671184376016
 30
0.0
 11
-5541.447181899212
 21
7755.671184376017
 31
0.0
  0
LINE
  5
2EB
330
2
100
AcDbEntity
  8
0
100
AcDbLine
 10
-5542.947181899211
 20
7750.171184376016
 30
0.0
 11
-5544.647181899212
 21
7750.171184376016
 31
0.0
  0
LINE
  5
2EC
330
2
100
AcDbEntity
  8
0
100
AcDbLine
 10
-5544.647181899212
 20
7750.071184376015
 30
0.0
 11
-5545.747181899212
 21
7750.071184376015
 31
0.0
  0
ARC
  5
2ED
330
2
100
AcDbEntity
  8
0
100
AcDbCircle
 10
-5542.947181899211
 20
7751.671184376016
 30
0.0
 40
1.5
100
AcDbArc
 50
270.0
 51
0.0
  0
LINE
  5
2EE
330
2
100
AcDbEntity
  8
0
100
AcDbLine
 10
-5547.047181899213
 20
7734.546576740567
 30
0.0
 11
-5550.947181899211
 21
7734.546576740567
 31
0.0
  0
ARC
  5
2EF
330
2
100
AcDbEntity
  8
0
100
AcDbCircle
 10
-5550.947181899211
 20
7734.046576740567
 30
0.0
 40
0.5
100
AcDbArc
 50
90.0
 51
180.0
  0
LINE
  5
2F0
330
2
100
AcDbEntity
  8
0
100
AcDbLine
 10
-5548.297181899211
 20
7725.88847478605
 30
0.0
 11
-5550.947181899211
 21
7725.88847478605
 31
0.0
  0
ARC
  5
2F1
330
2
100
AcDbEntity
  8
0
100
AcDbCircle
 10
-5550.947181899211
 20
7726.38847478605
 30
0.0
 40
0.5
100
AcDbArc
 50
180.0
 51
270.0
  0
ELLIPSE
  5
2F2
330
2
100
AcDbEntity
  8
0
100
AcDbEllipse
 10
-5547.047181899212
 20
7729.540784417769
 30
0.0
 11
-5.999999999999999
 21
0.0000000000006119
 31
0.0
210
0.0
220
0.0
230
1.0
 40
0.8342987204662982
 41
3.141592653589915
 42
4.712388980384774
  0
ELLIPSE
  5
2F3
330
2
100
AcDbEntity
  8
0
100
AcDbEllipse
 10
-5547.047181899212
 20
7729.540784417769
 30
0.0
 11
-6.0
 21
0.0000000000017643
 31
0.0
210
0.0
220
0.0
230
1.0
 40
0.6087182719527408
 41
1.780666919057813
 42
3.141592653590276
  0
LINE
  5
2F4
330
2
100
AcDbEntity
  8
0
100
AcDbLine
 10
-5547.047181899212
 20
7733.397510075888
 30
0.0
 11
-5550.947181899211
 21
7733.397510075888
 31
0.0
  0
ELLIPSE
  5
2F5
330
2
100
AcDbEntity
  8
0
100
AcDbEllipse
 10
-5547.047181899212
 20
7729.540784417769
 30
0.0
 11
6.0
 21
0.000000000001755
 31
0.0
210
0.0
220
0.0
230
1.0
 40
0.6427876096863657
 41
-0.000000000000455
 42
1.570796326794708
  0
ARC
  5
2F6
330
2
100
AcDbEntity
  8
0
100
AcDbCircle
 10
-5550.947181899211
 20
7732.897510075886
 30
0.0
 40
0.5
100
AcDbArc
 50
90.0
 51
180.0
  0
ELLIPSE
  5
2F7
330
2
100
AcDbEntity
  8
0
100
AcDbEllipse
 10
-5547.047181899212
 20
7730.665662734718
 30
0.0
 11
-1.25
 21
0.0
 31
0.0
210
0.0
220
0.0
230
1.0
 40
0.6427876096866385
 41
3.141592653589792
 42
6.283185307179585
  0
LINE
  5
2F8
330
2
100
AcDbEntity
  8
0
100
AcDbLine
 10
-5545.797181899213
 20
7688.665662734718
 30
0.0
 11
-5545.797181899213
 21
7708.356261657963
 31
0.0
  0
LINE
  5
2F9
330
2
100
AcDbEntity
  8
0
  6
PHANTOM
 62
     6
 48
3.0
100
AcDbLine
 10
-5551.08232498819
 20
7707.614283949593
 30
0.0
 11
-5543.797181899211
 21
7711.820363273098
 31
0.0
  0
LINE
  5
2FA
330
2
100
AcDbEntity
  8
0
100
AcDbLine
 10
-5548.297181899211
 20
7688.665662734718
 30
0.0
 11
-5548.297181899211
 21
7706.912885984988
 31
0.0
  0
LINE
  5
2FB
330
2
100
AcDbEntity
  8
0
  6
PHANTOM
 62
     6
 48
3.0
100
AcDbLine
 10
-5551.08232498819
 20
7705.304882872832
 30
0.0
 11
-5543.797181899211
 21
7709.510962196339
 31
0.0
  0
LINE
  5
2FC
330
2
100
AcDbEntity
  8
0
100
AcDbLine
 10
-5547.547181899211
 20
7678.66566273472
 30
0.0
 11
-5546.547181899212
 21
7678.66566273472
 31
0.0
  0
LINE
  5
2FD
330
2
100
AcDbEntity
  8
0
100
AcDbLine
 10
-5548.297181899211
 20
7709.222287061745
 30
0.0
 11
-5548.297181899211
 21
7730.665662734722
 31
0.0
  0
LINE
  5
2FE
330
2
100
AcDbEntity
  8
0
100
AcDbLine
 10
-5545.797181899212
 20
7710.665662734719
 30
0.0
 11
-5545.797181899212
 21
7730.665662734718
 31
0.0
  0
LINE
  5
2FF
330
2
100
AcDbEntity
  8
0
100
AcDbLine
 10
-5548.297181899211
 20
7688.665662734718
 30
0.0
 11
-5545.797181899213
 21
7688.665662734718
 31
0.0
  0
LINE
  5
300
330
2
100
AcDbEntity
  8
0
100
AcDbLine
 10
-5547.047181899212
 20
7688.665662734718
 30
0.0
 11
-5547.047181899213
 21
7678.66566273472
 31
0.0
  0
LINE
  5
301
330
2
100
AcDbEntity
  8
0
100
AcDbLine
 10
-5547.547181899211
 20
7688.665662734718
 30
0.0
 11
-5547.547181899211
 21
7678.66566273472
 31
0.0
  0
LINE
  5
302
330
2
100
AcDbEntity
  8
0
100
AcDbLine
 10
-5546.547181899213
 20
7688.665662734718
 30
0.0
 11
-5546.547181899212
 21
7678.66566273472
 31
0.0
  0
LINE
  5
303
330
2
100
AcDbEntity
  8
0
370
     0
100
AcDbLine
 10
-5625.247181899215
 20
7757.671184376016
 30
0.0
 11
-5630.247181899215
 21
7757.671184376016
 31
0.0
  0
LINE
  5
304
102
{ACAD_REACTORS
330
31D
102
}
330
2
100
AcDbEntity
  8
0
100
AcDbLine
 10
-5655.247181899215
 20
7756.671184376017
 30
0.0
 11
-5655.247181899215
 21
7750.171184376016
 31
0.0
  0
LINE
  5
305
102
{ACAD_REACTORS
330
32C
102
}
330
2
100
AcDbEntity
  8
0
100
AcDbLine
 10
-5630.247181899215
 20
7757.671184376016
 30
0.0
 11
-5630.247181899215
 21
7756.671184376017
 31
0.0
  0
LINE
  5
306
330
2
100
AcDbEntity
  8
0
100
AcDbLine
 10
-5654.747181899216
 20
7756.671184376017
 30
0.0
 11
-5654.747181899216
 21
7749.671184376016
 31
0.0
  0
LINE
  5
307
102
{ACAD_REACTORS
330
30C
102
}
330
2
100
AcDbEntity
  8
0
370
     0
100
AcDbLine
 10
-5630.247181899215
 20
7756.671184376017
 30
0.0
 11
-5655.247181899215
 21
7756.671184376017
 31
0.0
  0
LINE
  5
308
102
{ACAD_REACTORS
330
30C
330
32C
102
}
330
2
100
AcDbEntity
  8
0
370
     0
100
AcDbLine
 10
-5625.247181899215
 20
7749.671184376016
 30
0.0
 11
-5654.747181899216
 21
7749.671184376016
 31
0.0
  0
LINE
  5
309
330
2
100
AcDbEntity
  8
0
100
AcDbLine
 10
-5654.747181899216
 20
7749.671184376016
 30
0.0
 11
-5655.247181899215
 21
7750.171184376016
 31
0.0
  0
DIMENSION
  5
30A
102
{ACAD_XDICTIONARY
360
30B
102
}
102
{ACAD_REACTORS
330
30C
102
}
330
2
100
AcDbEntity
  8
0
100
AcDbDimension
  2
*D20
 10
-5662.78832016913
 20
7756.671184376017
 30
0.0
 11
-5665.288320169129
 21
7753.171184376016
 31
0.0
 71
     5
 42
7.0
  3
STANDARD
100
AcDbAlignedDimension
 13
-5654.747181899216
 23
7749.671184376016
 33
0.0
 14
-5655.247181899215
 24
7756.671184376017
 34
0.0
 50
90.0
100
AcDbRotatedDimension
  0
DIMENSION
  5
31B
102
{ACAD_XDICTIONARY
360
31C
102
}
102
{ACAD_REACTORS
330
31D
102
}
330
2
100
AcDbEntity
  8
0
100
AcDbDimension
  2
*D21
 10
-5630.247181899215
 20
7768.671184376017
 30
0.0
 11
-5642.747181899215
 21
7771.171184376017
 31
0.0
 71
     5
 42
25.0
  3
STANDARD
100
AcDbAlignedDimension
 13
-5655.247181899215
 23
7756.671184376017
 33
0.0
 14
-5630.247181899215
 24
7757.671184376016
 34
0.0
100
AcDbRotatedDimension
  0
DIMENSION
  5
32A
102
{ACAD_XDICTIONARY
360
32B
102
}
102
{ACAD_REACTORS
330
32C
102
}
330
2
100
AcDbEntity
  8
0
100
AcDbDimension
  2
*D22
 10
-5669.896795141529
 20
7757.671184376014
 30
0.0
 11
-5669.896795141532
 21
7753.671184376014
 31
0.0
 70
   128
  1
%%C<>{\H0.7x;\S  0^ -0.015;}(h7)
 71
     5
 42
7.999999999996362
  3
STANDARD
100
AcDbAlignedDimension
 13
-5654.747181899216
 23
7749.671184376016
 33
0.0
 14
-5630.247181899215
 24
7757.671184376014
 34
0.0
 50
90.0
100
AcDbRotatedDimension
  0
LINE
  5
339
330
2
100
AcDbEntity
  8
0
100
AcDbLine
 10
-5740.168125716095
 20
7756.671184376016
 30
0.0
 11
-5745.459628338225
 21
7756.671184376017
 31
0.0
  0
LINE
  5
33A
330
2
100
AcDbEntity
  8
0
100
AcDbLine
 10
-6283.04513926972
 20
7627.980551939114
 30
0.0
 11
-6300.295889487353
 21
7627.980551939114
 31
0.0
  0
LINE
  5
33B
330
2
100
AcDbEntity
  8
0
100
AcDbLine
 10
-6283.04513926972
 20
7609.115551824118
 30
0.0
 11
-6300.295889487353
 21
7609.115551824118
 31
0.0
  0
TEXT
  5
33C
330
2
100
AcDbEntity
  8
0
100
AcDbText
 10
-6308.631731291355
 20
7649.413653110011
 30
0.0
 40
3.307499999999998
  1
RED
 41
0.9
  7
WHGTXT
 72
     1
 11
-6304.237481291355
 21
7649.413653110011
 31
0.0
100
AcDbText
  0
TEXT
  5
33E
330
2
100
AcDbEntity
  8
0
100
AcDbText
 10
-6308.83781926736
 20
7642.524593325626
 30
0.0
 40
3.307499999999998
  1
BLACK
 41
0.9
  7
WHGTXT
 72
     1
 11
-6301.821194267358
 21
7642.524593325626
 31
0.0
100
AcDbText
  0
MTEXT
  5
33F
330
2
100
AcDbEntity
  8
0
100
AcDbMText
 10
-6327.862782341327
 20
7665.960661993445
 30
0.0
 40
4.199999999999998
 41
0.0
 71
     1
 72
     5
  1
{\fHYSinMyeongJo-Medium|b1|i0|c129|p18;- CONNECTION DIAGRAM}
 73
     1
 44
1.0
1001
ACAD
1000
MTEXTBEGIN
1070
    73
1070
     1
1070
    44
1040
1.0
1070
    74
1070
     0
1000
MTEXTEND
  0
TEXT
  5
340
330
2
100
AcDbEntity
  8
0
100
AcDbText
 10
-6297.580234069133
 20
7630.172885403691
 30
0.0
 40
3.307499999999998
  1
RED
 41
0.9
  7
WHGTXT
 72
     1
 11
-6293.185984069133
 21
7630.172885403691
 31
0.0
100
AcDbText
  0
LINE
  5
341
330
2
100
AcDbEntity
  8
0
100
AcDbLine
 10
-6300.295889487353
 20
7627.980551939114
 30
0.0
 11
-6307.441741330563
 21
7622.577037451961
 31
0.0
  0
LINE
  5
342
330
2
100
AcDbEntity
  8
0
100
AcDbLine
 10
-6300.295889487353
 20
7609.115551824118
 30
0.0
 11
-6307.441741330563
 21
7614.519066311271
 31
0.0
  0
TEXT
  5
343
330
2
100
AcDbEntity
  8
0
100
AcDbText
 10
-6297.733330135296
 20
7603.342231244091
 30
0.0
 40
3.307499999999998
  1
BLACK
 41
0.9
  7
WHGTXT
 72
     1
 11
-6290.716705135295
 21
7603.342231244091
 31
0.0
100
AcDbText
  0
TEXT
  5
344
330
2
100
AcDbEntity
  8
0
100
AcDbText
 10
-6313.682179968701
 20
7616.50162842447
 30
0.0
 40
4.199999999999998
  1
M
  7
WHGTXT
 72
     1
 11
-6311.282179968701
 21
7616.50162842447
 31
0.0
100
AcDbText
  0
CIRCLE
  5
345
330
2
100
AcDbEntity
  8
0
100
AcDbCircle
 10
-6311.204045348575
 20
7618.548051881616
 30
0.0
 40
5.512499999999998
  0
ARC
  5
346
330
2
100
AcDbEntity
  8
0
100
AcDbCircle
 10
-6311.904045348573
 20
7618.548051881616
 30
0.0
 40
7.612499999999998
100
AcDbArc
 50
116.2310645593024
 51
239.2211388502807
  0
LINE
  5
347
330
2
100
AcDbEntity
  8
0
100
AcDbLine
 10
-6264.840454524085
 20
7627.980551939114
 30
0.0
 11
-6281.645139269721
 21
7627.980551939114
 31
0.0
  0
CIRCLE
  5
348
330
2
100
AcDbEntity
  8
0
100
AcDbCircle
 10
-6282.345139269717
 20
7627.980551939114
 30
0.0
 40
0.7
  0
LINE
  5
349
330
2
100
AcDbEntity
  8
0
100
AcDbLine
 10
-6264.840454524085
 20
7609.115551824118
 30
0.0
 11
-6281.645139269721
 21
7609.115551824118
 31
0.0
  0
CIRCLE
  5
34A
330
2
100
AcDbEntity
  8
0
100
AcDbCircle
 10
-6282.345139269717
 20
7609.115551824118
 30
0.0
 40
0.7
  0
LINE
  5
34B
330
2
100
AcDbEntity
  8
0
100
AcDbLine
 10
-6264.840454524085
 20
7609.115551824118
 30
0.0
 11
-6264.840454524085
 21
7615.79198513543
 31
0.0
  0
LINE
  5
34C
330
2
100
AcDbEntity
  8
0
100
AcDbLine
 10
-6264.840454524085
 20
7627.980551939114
 30
0.0
 11
-6264.840454524085
 21
7621.304118627802
 31
0.0
  0
CIRCLE
  5
34D
330
2
100
AcDbEntity
  8
0
100
AcDbCircle
 10
-6264.872237429373
 20
7618.548051881616
 30
0.0
 40
2.756249999999998
  0
TEXT
  5
34E
330
2
100
AcDbEntity
  8
0
100
AcDbText
 10
-6258.863504353826
 20
7618.624217448432
 30
0.0
 40
3.307499999999998
  1
DC POWER
 41
0.9
  7
WHGTXT
 72
     1
 11
-6247.271012166326
 21
7618.624217448432
 31
0.0
100
AcDbText
  0
TEXT
  5
34F
330
2
100
AcDbEntity
  8
0
100
AcDbText
 10
-6255.846887166327
 20
7613.66296744843
 30
0.0
 40
3.307499999999998
  1
SUPPLY
 41
0.9
  7
WHGTXT
 72
     1
 11
-6247.271012166326
 21
7613.66296744843
 31
0.0
100
AcDbText
  0
TEXT
  5
350
330
2
100
AcDbEntity
  8
0
100
AcDbText
 10
-6266.534409343626
 20
7617.090636010242
 30
0.0
 40
3.307499999999998
  1
-
 41
0.75
  7
WHGTXT
 72
     1
 11
-6264.998784343625
 21
7617.090636010242
 31
0.0
100
AcDbText
  0
SOLID
  5
351
330
2
100
AcDbEntity
  8
0
100
AcDbTrace
 10
-6286.347519079775
 20
7644.987728759869
 30
0.0
 11
-6286.347519079775
 21
7643.412728759869
 31
0.0
 12
-6291.072519079776
 22
7644.200228759871
 32
0.0
 13
-6291.072519079776
 23
7644.200228759871
 33
0.0
  0
CIRCLE
  5
352
330
2
100
AcDbEntity
  8
0
100
AcDbCircle
 10
-6275.725871184375
 20
7644.052180514345
 30
0.0
 40
2.142342811828651
  0
TEXT
  5
353
330
2
100
AcDbEntity
  8
0
100
AcDbText
 10
-6277.261497109485
 20
7642.437918231259
 30
0.0
 40
3.307499999999998
  1
+
 41
0.75
  7
WHGTXT
 72
     1
 11
-6275.725872109484
 21
7642.437918231259
 31
0.0
100
AcDbText
  0
LINE
  5
354
330
2
100
AcDbEntity
  8
0
100
AcDbLine
 10
-6282.290462287956
 20
7644.200228759871
 30
0.0
 11
-6286.347519079775
 21
7644.200228759871
 31
0.0
  0
TEXT
  5
355
330
2
100
AcDbEntity
  8
0
100
AcDbText
 10
-6272.035268502128
 20
7642.657650864776
 30
0.0
 40
3.307499999999998
  1
CCW
 41
0.9
  7
WHGTXT
 72
     1
 11
-6267.286643502128
 21
7642.657650864776
 31
0.0
100
AcDbText
  0
TEXT
  5
356
330
2
100
AcDbEntity
  8
0
100
AcDbText
 10
-6272.02099973886
 20
7649.417621667403
 30
0.0
 40
3.307499999999998
  1
CW
 41
0.9
  7
WHGTXT
 72
     1
 11
-6268.760749738859
 21
7649.417621667403
 31
0.0
100
AcDbText
  0
CIRCLE
  5
357
330
2
100
AcDbEntity
  8
0
100
AcDbCircle
 10
-6275.725871184375
 20
7651.13447394979
 30
0.0
 40
2.142342811828651
  0
TEXT
  5
358
330
2
100
AcDbEntity
  8
0
100
AcDbText
 10
-6277.261497109485
 20
7649.734653070055
 30
0.0
 40
3.307499999999998
  1
+
 41
0.75
  7
WHGTXT
 72
     1
 11
-6275.725872109484
 21
7649.734653070055
 31
0.0
100
AcDbText
  0
LINE
  5
359
330
2
100
AcDbEntity
  8
0
100
AcDbLine
 10
-6282.290462287956
 20
7651.282522195316
 30
0.0
 11
-6286.347519079775
 21
7651.282522195316
 31
0.0
  0
SOLID
  5
35A
330
2
100
AcDbEntity
  8
0
100
AcDbTrace
 10
-6286.347519079775
 20
7652.070022195316
 30
0.0
 11
-6286.347519079775
 21
7650.495022195316
 31
0.0
 12
-6291.072519079776
 22
7651.282522195316
 32
0.0
 13
-6291.072519079776
 23
7651.282522195316
 33
0.0
  0
SOLID
  5
35B
330
2
100
AcDbEntity
  8
0
100
AcDbTrace
 10
-6318.480150735464
 20
7623.487841461576
 30
0.0
 11
-6315.2687114457
 21
7625.376607973915
 31
0.0
 12
-6317.693986499588
 22
7622.548389070968
 32
0.0
 13
-6317.693986499588
 23
7622.548389070968
 33
0.0
1001
ACAD
1000
DSTYLE
1002
{
1070
    41
1040
3.5
1070
   147
1040
1.0
1070
    77
1070
     1
1002
}
  0
TEXT
  5
35C
330
2
100
AcDbEntity
  8
0
100
AcDbText
 10
-6328.020928812397
 20
7616.909573936301
 30
0.0
 40
3.307499999999998
  1
CW
 41
0.9
  7
WHGTXT
 72
     1
 11
-6324.760678812396
 21
7616.909573936301
 31
0.0
100
AcDbText
  0
MTEXT
  5
35D
330
2
100
AcDbEntity
  8
0
100
AcDbMText
 10
-6327.918601533411
 20
7597.507690782733
 30
0.0
 40
4.199999999999998
 41
0.0
 71
     1
 72
     5
  1
{\fHYSinMyeongJo-Medium|b0|i0|c129|p18;The direction of motor rotation is\Pas viewed from the front shaft\Pend of the motor}
 73
     1
 44
1.0
1001
ACAD
1000
MTEXTBEGIN
1070
    73
1070
     1
1070
    44
1040
1.0
1070
    74
1070
     0
1000
MTEXTEND
  0
LINE
  5
35E
330
2
100
AcDbEntity
  8
0
100
AcDbLine
 10
-5742.285331898989
 20
7627.980551939114
 30
0.0
 11
-5759.536082116619
 21
7627.980551939114
 31
0.0
  0
LINE
  5
35F
330
2
100
AcDbEntity
  8
0
100
AcDbLine
 10
-5742.285331898989
 20
7609.115551824118
 30
0.0
 11
-5759.536082116619
 21
7609.115551824118
 31
0.0
  0
TEXT
  5
360
330
2
100
AcDbEntity
  8
0
100
AcDbText
 10
-5767.871923920623
 20
7649.413653110011
 30
0.0
 40
3.307499999999998
  1
RED
 41
0.9
  7
WHGTXT
 72
     1
 11
-5763.477673920623
 21
7649.413653110011
 31
0.0
100
AcDbText
  0
TEXT
  5
361
330
2
100
AcDbEntity
  8
0
100
AcDbText
 10
-5768.078011896625
 20
7642.524593325626
 30
0.0
 40
3.307499999999998
  1
BLACK
 41
0.9
  7
WHGTXT
 72
     1
 11
-5761.061386896624
 21
7642.524593325626
 31
0.0
100
AcDbText
  0
MTEXT
  5
362
330
2
100
AcDbEntity
  8
0
100
AcDbMText
 10
-5787.102974970594
 20
7665.960661993445
 30
0.0
 40
4.199999999999998
 41
0.0
 71
     1
 72
     5
  1
{\fHYSinMyeongJo-Medium|b1|i0|c129|p18;- CONNECTION DIAGRAM}
 73
     1
 44
1.0
1001
ACAD
1000
MTEXTBEGIN
1070
    73
1070
     1
1070
    44
1040
1.0
1070
    74
1070
     0
1000
MTEXTEND
  0
TEXT
  5
363
330
2
100
AcDbEntity
  8
0
100
AcDbText
 10
-5756.820426698398
 20
7630.172885403691
 30
0.0
 40
3.307499999999998
  1
RED
 41
0.9
  7
WHGTXT
 72
     1
 11
-5752.426176698398
 21
7630.172885403691
 31
0.0
100
AcDbText
  0
LINE
  5
364
330
2
100
AcDbEntity
  8
0
100
AcDbLine
 10
-5759.536082116619
 20
7627.980551939114
 30
0.0
 11
-5766.681933959829
 21
7622.577037451961
 31
0.0
  0
LINE
  5
365
330
2
100
AcDbEntity
  8
0
100
AcDbLine
 10
-5759.536082116619
 20
7609.115551824118
 30
0.0
 11
-5766.681933959829
 21
7614.519066311271
 31
0.0
  0
TEXT
  5
366
330
2
100
AcDbEntity
  8
0
100
AcDbText
 10
-5756.973522764562
 20
7603.342231244091
 30
0.0
 40
3.307499999999998
  1
BLACK
 41
0.9
  7
WHGTXT
 72
     1
 11
-5749.956897764562
 21
7603.342231244091
 31
0.0
100
AcDbText
  0
TEXT
  5
367
330
2
100
AcDbEntity
  8
0
100
AcDbText
 10
-5772.922372597967
 20
7616.50162842447
 30
0.0
 40
4.199999999999998
  1
M
  7
WHGTXT
 72
     1
 11
-5770.522372597968
 21
7616.50162842447
 31
0.0
100
AcDbText
  0
CIRCLE
  5
368
330
2
100
AcDbEntity
  8
0
100
AcDbCircle
 10
-5770.444237977842
 20
7618.548051881616
 30
0.0
 40
5.512499999999998
  0
ARC
  5
369
330
2
100
AcDbEntity
  8
0
100
AcDbCircle
 10
-5771.144237977839
 20
7618.548051881616
 30
0.0
 40
7.612499999999998
100
AcDbArc
 50
116.2310645593026
 51
239.2211388502806
  0
LINE
  5
36A
330
2
100
AcDbEntity
  8
0
100
AcDbLine
 10
-5724.080647153352
 20
7627.980551939114
 30
0.0
 11
-5740.885331898986
 21
7627.980551939114
 31
0.0
  0
CIRCLE
  5
36B
330
2
100
AcDbEntity
  8
0
100
AcDbCircle
 10
-5741.585331898985
 20
7627.980551939114
 30
0.0
 40
0.7
  0
LINE
  5
36C
330
2
100
AcDbEntity
  8
0
100
AcDbLine
 10
-5724.080647153352
 20
7609.115551824118
 30
0.0
 11
-5740.885331898986
 21
7609.115551824118
 31
0.0
  0
CIRCLE
  5
36D
330
2
100
AcDbEntity
  8
0
100
AcDbCircle
 10
-5741.585331898985
 20
7609.115551824118
 30
0.0
 40
0.7
  0
LINE
  5
36E
330
2
100
AcDbEntity
  8
0
100
AcDbLine
 10
-5724.080647153352
 20
7609.115551824118
 30
0.0
 11
-5724.080647153352
 21
7615.79198513543
 31
0.0
  0
LINE
  5
36F
330
2
100
AcDbEntity
  8
0
100
AcDbLine
 10
-5724.080647153352
 20
7627.980551939114
 30
0.0
 11
-5724.080647153352
 21
7621.304118627802
 31
0.0
  0
CIRCLE
  5
370
330
2
100
AcDbEntity
  8
0
100
AcDbCircle
 10
-5724.112430058639
 20
7618.548051881616
 30
0.0
 40
2.756249999999998
  0
TEXT
  5
371
330
2
100
AcDbEntity
  8
0
100
AcDbText
 10
-5718.103696983092
 20
7618.624217448432
 30
0.0
 40
3.307499999999998
  1
DC POWER
 41
0.9
  7
WHGTXT
 72
     1
 11
-5706.511204795592
 21
7618.624217448432
 31
0.0
100
AcDbText
  0
TEXT
  5
372
330
2
100
AcDbEntity
  8
0
100
AcDbText
 10
-5715.087079795592
 20
7613.66296744843
 30
0.0
 40
3.307499999999998
  1
SUPPLY
 41
0.9
  7
WHGTXT
 72
     1
 11
-5706.511204795592
 21
7613.66296744843
 31
0.0
100
AcDbText
  0
TEXT
  5
373
330
2
100
AcDbEntity
  8
0
100
AcDbText
 10
-5725.774601972891
 20
7617.090636010242
 30
0.0
 40
3.307499999999998
  1
-
 41
0.75
  7
WHGTXT
 72
     1
 11
-5724.238976972891
 21
7617.090636010242
 31
0.0
100
AcDbText
  0
SOLID
  5
374
330
2
100
AcDbEntity
  8
0
100
AcDbTrace
 10
-5745.587711709043
 20
7644.987728759869
 30
0.0
 11
-5745.587711709043
 21
7643.412728759869
 31
0.0
 12
-5750.312711709042
 22
7644.200228759871
 32
0.0
 13
-5750.312711709042
 23
7644.200228759871
 33
0.0
  0
CIRCLE
  5
375
330
2
100
AcDbEntity
  8
0
100
AcDbCircle
 10
-5734.966063813643
 20
7644.052180514345
 30
0.0
 40
2.142342811828651
  0
TEXT
  5
376
330
2
100
AcDbEntity
  8
0
100
AcDbText
 10
-5736.501689738751
 20
7642.437918231259
 30
0.0
 40
3.307499999999998
  1
+
 41
0.75
  7
WHGTXT
 72
     1
 11
-5734.966064738751
 21
7642.437918231259
 31
0.0
100
AcDbText
  0
LINE
  5
377
330
2
100
AcDbEntity
  8
0
100
AcDbLine
 10
-5741.530654917226
 20
7644.200228759871
 30
0.0
 11
-5745.587711709043
 21
7644.200228759871
 31
0.0
  0
TEXT
  5
378
330
2
100
AcDbEntity
  8
0
100
AcDbText
 10
-5731.275461131396
 20
7642.657650864776
 30
0.0
 40
3.307499999999998
  1
CCW
 41
0.9
  7
WHGTXT
 72
     1
 11
-5726.526836131395
 21
7642.657650864776
 31
0.0
100
AcDbText
  0
TEXT
  5
379
330
2
100
AcDbEntity
  8
0
100
AcDbText
 10
-5731.261192368128
 20
7649.417621667403
 30
0.0
 40
3.307499999999998
  1
CW
 41
0.9
  7
WHGTXT
 72
     1
 11
-5728.000942368128
 21
7649.417621667403
 31
0.0
100
AcDbText
  0
CIRCLE
  5
37A
330
2
100
AcDbEntity
  8
0
100
AcDbCircle
 10
-5734.966063813643
 20
7651.13447394979
 30
0.0
 40
2.142342811828651
  0
TEXT
  5
37B
330
2
100
AcDbEntity
  8
0
100
AcDbText
 10
-5736.501689738751
 20
7649.734653070055
 30
0.0
 40
3.307499999999998
  1
+
 41
0.75
  7
WHGTXT
 72
     1
 11
-5734.966064738751
 21
7649.734653070055
 31
0.0
100
AcDbText
  0
LINE
  5
37C
330
2
100
AcDbEntity
  8
0
100
AcDbLine
 10
-5741.530654917226
 20
7651.282522195316
 30
0.0
 11
-5745.587711709043
 21
7651.282522195316
 31
0.0
  0
SOLID
  5
37D
330
2
100
AcDbEntity
  8
0
100
AcDbTrace
 10
-5745.587711709043
 20
7652.070022195316
 30
0.0
 11
-5745.587711709043
 21
7650.495022195316
 31
0.0
 12
-5750.312711709042
 22
7651.282522195316
 32
0.0
 13
-5750.312711709042
 23
7651.282522195316
 33
0.0
  0
SOLID
  5
37E
330
2
100
AcDbEntity
  8
0
100
AcDbTrace
 10
-5777.72034336473
 20
7623.487841461576
 30
0.0
 11
-5774.508904074967
 21
7625.376607973915
 31
0.0
 12
-5776.934179128853
 22
7622.548389070968
 32
0.0
 13
-5776.934179128853
 23
7622.548389070968
 33
0.0
1001
ACAD
1000
DSTYLE
1002
{
1070
    41
1040
3.5
1070
   147
1040
1.0
1070
    77
1070
     1
1002
}
  0
TEXT
  5
37F
330
2
100
AcDbEntity
  8
0
100
AcDbText
 10
-5787.261121441662
 20
7616.909573936301
 30
0.0
 40
3.307499999999998
  1
CW
 41
0.9
  7
WHGTXT
 72
     1
 11
-5784.000871441662
 21
7616.909573936301
 31
0.0
100
AcDbText
  0
MTEXT
  5
380
330
2
100
AcDbEntity
  8
0
100
AcDbMText
 10
-5787.158794162679
 20
7597.507690782733
 30
0.0
 40
4.199999999999998
 41
0.0
 71
     1
 72
     5
  1
{\fHYSinMyeongJo-Medium|b0|i0|c129|p18;The direction of motor rotation is\Pas viewed from the front shaft\Pend of the motor}
 73
     1
 44
1.0
1001
ACAD
1000
MTEXTBEGIN
1070
    73
1070
     1
1070
    44
1040
1.0
1070
    74
1070
     0
1000
MTEXTEND
  0
DIMENSION
  5
381
102
{ACAD_XDICTIONARY
360
382
102
}
102
{ACAD_REACTORS
330
383
102
}
330
2
100
AcDbEntity
  8
0
100
AcDbDimension
  2
*D5
 10
-6172.654258546916
 20
7796.981808020153
 30
0.0
 11
-6176.404258546916
 21
7796.981808020153
 31
0.0
 70
   128
 71
     5
 42
7.5
  3
STANDARD
100
AcDbAlignedDimension
 13
-6180.154258546917
 23
7788.671184376017
 33
0.0
 14
-6172.654258546916
 24
7788.671184376017
 34
0.0
100
AcDbRotatedDimension
  0
DIMENSION
  5
390
102
{ACAD_XDICTIONARY
360
391
102
}
102
{ACAD_REACTORS
330
392
102
}
330
2
100
AcDbEntity
  8
0
100
AcDbDimension
  2
*D6
 10
-5615.747181899216
 20
7797.671184376017
 30
0.0
 11
-5619.910328597621
 21
7797.671184376017
 31
0.0
 70
   128
 71
     5
 42
7.5
  3
STANDARD
100
AcDbAlignedDimension
 13
-5623.247181899215
 23
7788.671184376017
 33
0.0
 14
-5615.747181899216
 24
7788.671184376018
 34
0.0
100
AcDbRotatedDimension
1001
ACAD
1000
DSTYLE
1002
{
1070
    90
1070
     1
1070
   345
1005
2E
1070
   346
1005
2E
1070
   347
1005
2E
1002
}
  0
MTEXT
  5
39F
330
2
100
AcDbEntity
  8
0
 62
     3
100
AcDbMText
 10
-6132.811489812094
 20
7871.697201637758
 30
0.0
 40
10.0
 41
0.0
 71
     2
 72
     5
  1
K7DG15N{\fGulim|b0|i0|c129|p50;\H0.9583x;□}
 73
     1
 44
1.0
1001
ACAD
1000
MTEXTBEGIN
1070
    73
1070
     1
1070
    44
1040
1.0
1070
    74
1070
     0
1000
MTEXTEND
  0
MTEXT
  5
3A0
330
2
100
AcDbEntity
  8
0
 62
     3
100
AcDbMText
 10
-5575.904413164392
 20
7871.697201637758
 30
0.0
 40
10.0
 41
0.0
 71
     2
 72
     5
  1
K7DS15N{\fGulim|b0|i0|c129|p50;\H0.9583x;□}
 73
     1
 44
1.0
1001
ACAD
1000
MTEXTBEGIN
1070
    73
1070
     1
1070
    44
1040
1.0
1070
    74
1070
     0
1000
MTEXTEND
  0
ENDSEC
  0
SECTION
  2
OBJECTS
  0
DICTIONARY
  5
C
330
0
100
AcDbDictionary
281
     1
  3
ACAD_2007HEADERVARS_RT
350
3E0
  3
ACAD_COLOR
350
51
  3
ACAD_GROUP
350
3E
  3
ACAD_LAYOUT
350
19
  3
ACAD_MATERIAL
350
E
  3
ACAD_MLEADERSTYLE
350
3D5
  3
ACAD_MLINESTYLE
350
3F
  3
ACAD_PLOTSETTINGS
350
40
  3
ACAD_PLOTSTYLENAME
350
B
  3
ACAD_SCALELIST
350
52
  3
ACAD_TABLESTYLE
350
53
  3
ACAD_VISUALSTYLE
350
34
  3
ACDB_RECOMPOSE_DATA
350
3B0
  3
AcDbVariableDictionary
350
3A7
  3
DWGPROPS
350
3DF
  0
DICTIONARY
  5
38
330
31
100
AcDbDictionary
280
     1
281
     1
  0
DICTIONARY
  5
24
330
23
100
AcDbDictionary
280
     1
281
     1
  3
ACAD_LAYERFILTERS
360
25
  3
ACAD_LAYERSTATES
360
26
  3
ACLYDICTIONARY
360
27
  0
DICTIONARY
  5
8
330
7
100
AcDbDictionary
280
     1
281
     1
  3
ADSK_XREC_LAYER_RECONCILED
360
9
  0
DICTIONARY
  5
3
330
2
100
AcDbDictionary
280
     1
281
     1
  3
ACAD_LAYOUTSELFREF
360
4
  3
ACAD_SORTENTS
360
3A1
  0
DICTIONARY
  5
1E
330
1D
100
AcDbDictionary
280
     1
281
     1
  3
ACAD_LAYOUTSELFREF
360
1F
  0
DICTIONARY
  5
3E9
330
1A7
100
AcDbDictionary
280
     1
281
     1
  3
ACAD_MTEXT_RT
360
3EA
  0
DICTIONARY
  5
3EB
330
2DC
100
AcDbDictionary
280
     1
281
     1
  3
ACAD_MTEXT_RT
360
3EC
  0
DICTIONARY
  5
D0
330
CF
100
AcDbDictionary
280
     1
281
     1
  3
ACAD_DIMASSOC
360
D1
  0
DICTIONARY
  5
F3
330
F2
100
AcDbDictionary
280
     1
281
     1
  3
ACAD_DIMASSOC
360
F4
  0
DICTIONARY
  5
10A
330
109
100
AcDbDictionary
280
     1
281
     1
  3
ACAD_DIMASSOC
360
10B
  0
DICTIONARY
  5
127
330
126
100
AcDbDictionary
280
     1
281
     1
  3
ACAD_DIMASSOC
360
128
  0
DICTIONARY
  5
15A
330
159
100
AcDbDictionary
280
     1
281
     1
  3
ACAD_DIMASSOC
360
15B
  0
DICTIONARY
  5
17B
330
17A
100
AcDbDictionary
280
     1
281
     1
  3
ACAD_DIMASSOC
360
17C
  0
DICTIONARY
  5
19E
330
19D
100
AcDbDictionary
280
     1
281
     1
  3
ACAD_DIMASSOC
360
19F
  0
DICTIONARY
  5
219
330
218
100
AcDbDictionary
280
     1
281
     1
  3
ACAD_DIMASSOC
360
21A
  0
DICTIONARY
  5
237
330
236
100
AcDbDictionary
280
     1
281
     1
  3
ACAD_DIMASSOC
360
238
  0
DICTIONARY
  5
24E
330
24D
100
AcDbDictionary
280
     1
281
     1
  3
ACAD_DIMASSOC
360
24F
  0
DICTIONARY
  5
29C
330
29B
100
AcDbDictionary
280
     1
281
     1
  3
ACAD_DIMASSOC
360
29D
  0
DICTIONARY
  5
2BD
330
2BC
100
AcDbDictionary
280
     1
281
     1
  3
ACAD_DIMASSOC
360
2BE
  0
DICTIONARY
  5
2D3
330
2D2
100
AcDbDictionary
280
     1
281
     1
  3
ACAD_DIMASSOC
360
2D4
  0
DICTIONARY
  5
30B
330
30A
100
AcDbDictionary
280
     1
281
     1
  3
ACAD_DIMASSOC
360
30C
  0
DICTIONARY
  5
31C
330
31B
100
AcDbDictionary
280
     1
281
     1
  3
ACAD_DIMASSOC
360
31D
  0
DICTIONARY
  5
32B
330
32A
100
AcDbDictionary
280
     1
281
     1
  3
ACAD_DIMASSOC
360
32C
  0
DICTIONARY
  5
382
330
381
100
AcDbDictionary
280
     1
281
     1
  3
ACAD_DIMASSOC
360
383
  0
DICTIONARY
  5
391
330
390
100
AcDbDictionary
280
     1
281
     1
  3
ACAD_DIMASSOC
360
392
  0
DICTIONARY
  5
3E0
102
{ACAD_REACTORS
330
C
102
}
330
C
100
AcDbDictionary
281
     1
  3
DIMARCSYM
350
3E1
  3
DIMLTEX1
350
3E3
  3
DIMLTEX2
350
3E4
  3
DIMLTYPE
350
3E2
  0
DICTIONARY
  5
51
102
{ACAD_REACTORS
330
C
102
}
330
C
100
AcDbDictionary
281
     1
  0
DICTIONARY
  5
3E
102
{ACAD_REACTORS
330
C
102
}
330
C
100
AcDbDictionary
281
     1
  0
DICTIONARY
  5
19
102
{ACAD_REACTORS
330
C
102
}
330
C
100
AcDbDictionary
281
     1
  3
Layout2
350
22
  3
Model
350
18
  0
DICTIONARY
  5
E
102
{ACAD_REACTORS
330
C
102
}
330
C
100
AcDbDictionary
281
     1
  3
ByBlock
350
49
  3
ByLayer
350
41
  3
Global
350
D
  0
DICTIONARY
  5
3D5
102
{ACAD_REACTORS
330
C
102
}
330
C
100
AcDbDictionary
281
     1
  3
Standard
350
3D6
  0
DICTIONARY
  5
3F
102
{ACAD_REACTORS
330
C
102
}
330
C
100
AcDbDictionary
281
     1
  3
Standard
350
54
  0
DICTIONARY
  5
40
102
{ACAD_REACTORS
330
C
102
}
330
C
100
AcDbDictionary
281
     1
  0
ACDBDICTIONARYWDFLT
  5
B
102
{ACAD_REACTORS
330
C
102
}
330
C
100
AcDbDictionary
281
     1
  3
Normal
350
A
100
AcDbDictionaryWithDefault
340
A
  0
DICTIONARY
  5
52
102
{ACAD_REACTORS
330
C
102
}
330
C
100
AcDbDictionary
281
     1
  3
*A1
350
5D
  3
A0
350
5E
  3
A1
350
5F
  3
A2
350
60
  3
A3
350
61
  3
A4
350
62
  3
A5
350
63
  3
A6
350
64
  3
A7
350
65
  3
A8
350
66
  3
A9
350
67
  3
B0
350
68
  3
B1
350
69
  3
B2
350
6A
  3
B3
350
6B
  3
B4
350
6C
  3
B5
350
6D
  3
B6
350
6E
  3
B7
350
6F
  3
B8
350
70
  3
B9
350
71
  3
C0
350
72
  3
C1
350
73
  3
C2
350
74
  3
C3
350
75
  3
C4
350
76
  3
C5
350
77
  3
C6
350
78
  3
C7
350
79
  3
C8
350
7A
  3
C9
350
7B
  3
D0
350
7C
  3
D1
350
7D
  3
D2
350
7E
  0
DICTIONARY
  5
53
102
{ACAD_REACTORS
330
C
102
}
330
C
100
AcDbDictionary
281
     1
  3
Standard
350
55
  0
DICTIONARY
  5
34
102
{ACAD_REACTORS
330
C
102
}
330
C
100
AcDbDictionary
281
     1
  3
2dWireframe
350
33
  3
3D Hidden
350
3CD
  3
3dWireframe
350
5A
  3
Basic
350
3CC
  3
Brighten
350
3D0
  3
ColorChange
350
3D4
  3
Conceptual
350
3CE
  3
Dim
350
3CF
  3
Facepattern
350
3D3
  3
Flat
350
3C8
  3
FlatWithEdges
350
3C9
  3
Gouraud
350
3CA
  3
GouraudWithEdges
350
3CB
  3
Linepattern
350
3D2
  3
Realistic
350
57
  3
Thicken
350
3D1
  0
XRECORD
  5
3B0
102
{ACAD_REACTORS
330
C
102
}
330
C
100
AcDbXrecord
280
     1
 90
        1
330
55
  0
DICTIONARY
  5
3A7
102
{ACAD_REACTORS
330
C
102
}
330
C
100
AcDbDictionary
281
     1
  3
CANNOSCALE
350
3AA
  3
CMLEADERSTYLE
350
3A9
  3
CTABLESTYLE
350
3A8
  3
DIMASSOC
350
3AE
  3
HIDETEXT
350
3AD
  3
INDEXCTL
350
3AC
  3
SORTENTS
350
3AB
  0
XRECORD
  5
3DF
102
{ACAD_REACTORS
330
C
102
}
330
C
100
AcDbXrecord
280
     1
  1
DWGPROPS COOKIE
  2

  3

  4

  6

  7

  8
kkk
  9

300
=
301
=
302
=
303
=
304
=
305
=
306
=
307
=
308
=
309
=
 40
147.9497544560185
 41
2452452.600976968
 42
2456960.588032986
  1

 90
        0
  0
DICTIONARY
  5
25
102
{ACAD_REACTORS
330
24
102
}
330
24
100
AcDbDictionary
281
     1
  0
DICTIONARY
  5
26
102
{ACAD_REACTORS
330
24
102
}
330
24
100
AcDbDictionary
281
     1
  0
DICTIONARY
  5
27
102
{ACAD_REACTORS
330
24
102
}
330
24
100
AcDbDictionary
281
     1
1001
ACAD
1000
<All
  0
XRECORD
  5
9
102
{ACAD_REACTORS
330
8
102
}
330
8
100
AcDbXrecord
280
     1
290
     1
  0
XRECORD
  5
4
102
{ACAD_REACTORS
330
3
102
}
330
3
100
AcDbXrecord
280
     1
340
2
  0
SORTENTSTABLE
  5
3A1
102
{ACAD_REACTORS
330
3
102
}
330
3
100
AcDbSortentsTable
330
2
  0
XRECORD
  5
1F
102
{ACAD_REACTORS
330
1E
102
}
330
1E
100
AcDbXrecord
280
     1
340
1D
  0
XRECORD
  5
3EA
102
{ACAD_REACTORS
330
3E9
102
}
330
3E9
100
AcDbXrecord
280
     1
 40
10115.0
  1
\A1;\U+220582%%P0.5
  0
XRECORD
  5
3EC
102
{ACAD_REACTORS
330
3EB
102
}
330
3EB
100
AcDbXrecord
280
     1
 40
10115.0
  1
\A1;\U+220582%%P0.5
  0
DIMASSOC
  5
D1
102
{ACAD_REACTORS
330
D0
102
}
330
D0
100
AcDbDimAssoc
330
CF
 90
        2
 70
     0
 71
     0
  1
AcDbOsnapPointRef
 72
    13
331
99
 73
     2
 91
        0
 40
0.0
 10
0.0
 20
0.0
 30
2.000000000000000E+50
 75
     0
  0
DIMASSOC
  5
F4
102
{ACAD_REACTORS
330
F3
102
}
330
F3
100
AcDbDimAssoc
330
F2
 90
        3
 70
     0
 71
     0
  1
AcDbOsnapPointRef
 72
     6
331
92
 73
     2
 91
        0
 40
0.0
 10
0.0
 20
0.0
 30
0.0
332
8C
 74
     2
 92
        0
 75
     0
  1
AcDbOsnapPointRef
 72
    13
331
94
 73
     2
 91
        0
 40
0.0
 10
0.0
 20
0.0
 30
2.000000000000000E+50
 75
     0
  0
DIMASSOC
  5
10B
102
{ACAD_REACTORS
330
10A
102
}
330
10A
100
AcDbDimAssoc
330
109
 90
        3
 70
     0
 71
     0
  1
AcDbOsnapPointRef
 72
     1
331
A0
 73
     2
 91
        0
 40
1.0
 10
0.0
 20
0.0
 30
2.000000000000000E+50
 75
     0
  1
AcDbOsnapPointRef
 72
     1
331
9D
 73
     2
 91
        0
 40
1.0
 10
0.0
 20
0.0
 30
2.000000000000000E+50
 75
     0
  0
DIMASSOC
  5
128
102
{ACAD_REACTORS
330
127
102
}
330
127
100
AcDbDimAssoc
330
126
 90
        1
 70
     0
 71
     0
  1
AcDbOsnapPointRef
 72
    13
331
89
 73
     2
 91
        0
 40
0.0
 10
0.0
 20
0.0
 30
2.000000000000000E+50
 75
     0
  0
DIMASSOC
  5
15B
102
{ACAD_REACTORS
330
15A
102
}
330
15A
100
AcDbDimAssoc
330
159
 90
        3
 70
     0
 71
     0
  1
AcDbOsnapPointRef
 72
    13
331
96
 73
     2
 91
        0
 40
0.0
 10
0.0
 20
0.0
 30
2.000000000000000E+50
 75
     0
  1
AcDbOsnapPointRef
 72
     1
331
96
 73
     2
 91
        0
 40
1.0
 10
0.0
 20
0.0
 30
2.000000000000000E+50
 75
     0
  0
DIMASSOC
  5
17C
102
{ACAD_REACTORS
330
17B
102
}
330
17B
100
AcDbDimAssoc
330
17A
 90
        2
 70
     0
 71
     0
  1
AcDbOsnapPointRef
 72
     1
331
93
 73
     2
 91
        0
 40
0.9999999999999998
 10
0.0
 20
0.0
 30
2.000000000000000E+50
 75
     0
  0
DIMASSOC
  5
19F
102
{ACAD_REACTORS
330
19E
102
}
330
19E
100
AcDbDimAssoc
330
19D
 90
        2
 70
     0
 71
     0
  1
AcDbOsnapPointRef
 72
     3
331
105
 73
     2
 91
        0
 40
0.0
 10
0.0
 20
0.0
 30
0.0
 75
     0
  0
DIMASSOC
  5
21A
102
{ACAD_REACTORS
330
219
102
}
330
219
100
AcDbDimAssoc
330
218
 90
        2
 70
     0
 71
     0
  1
AcDbOsnapPointRef
 72
    13
331
1E2
 73
     2
 91
        0
 40
0.0
 10
0.0
 20
0.0
 30
2.000000000000000E+50
 75
     0
  0
DIMASSOC
  5
238
102
{ACAD_REACTORS
330
237
102
}
330
237
100
AcDbDimAssoc
330
236
 90
        3
 70
     0
 71
     0
  1
AcDbOsnapPointRef
 72
     6
331
1DB
 73
     2
 91
        0
 40
0.0
 10
0.0
 20
0.0
 30
0.0
332
1D6
 74
     2
 92
        0
 75
     0
  1
AcDbOsnapPointRef
 72
    13
331
1DD
 73
     2
 91
        0
 40
0.0
 10
0.0
 20
0.0
 30
2.000000000000000E+50
 75
     0
  0
DIMASSOC
  5
24F
102
{ACAD_REACTORS
330
24E
102
}
330
24E
100
AcDbDimAssoc
330
24D
 90
        3
 70
     0
 71
     0
  1
AcDbOsnapPointRef
 72
     1
331
1E9
 73
     2
 91
        0
 40
1.0
 10
0.0
 20
0.0
 30
2.000000000000000E+50
 75
     0
  1
AcDbOsnapPointRef
 72
     1
331
1E6
 73
     2
 91
        0
 40
1.0
 10
0.0
 20
0.0
 30
2.000000000000000E+50
 75
     0
  0
DIMASSOC
  5
29D
102
{ACAD_REACTORS
330
29C
102
}
330
29C
100
AcDbDimAssoc
330
29B
 90
        3
 70
     0
 71
     0
  1
AcDbOsnapPointRef
 72
    13
331
1DF
 73
     2
 91
        0
 40
0.0
 10
0.0
 20
0.0
 30
2.000000000000000E+50
 75
     0
  1
AcDbOsnapPointRef
 72
     1
331
1DF
 73
     2
 91
        0
 40
1.0
 10
0.0
 20
0.0
 30
2.000000000000000E+50
 75
     0
  0
DIMASSOC
  5
2BE
102
{ACAD_REACTORS
330
2BD
102
}
330
2BD
100
AcDbDimAssoc
330
2BC
 90
        2
 70
     0
 71
     0
  1
AcDbOsnapPointRef
 72
     1
331
1DC
 73
     2
 91
        0
 40
0.9999999999999998
 10
0.0
 20
0.0
 30
2.000000000000000E+50
 75
     0
  0
DIMASSOC
  5
2D4
102
{ACAD_REACTORS
330
2D3
102
}
330
2D3
100
AcDbDimAssoc
330
2D2
 90
        2
 70
     0
 71
     0
  1
AcDbOsnapPointRef
 72
     3
331
249
 73
     2
 91
        0
 40
0.0
 10
0.0
 20
0.0
 30
0.0
 75
     0
  0
DIMASSOC
  5
30C
102
{ACAD_REACTORS
330
30B
102
}
330
30B
100
AcDbDimAssoc
330
30A
 90
        3
 70
     0
 71
     0
  1
AcDbOsnapPointRef
 72
     1
331
308
 73
     2
 91
        0
 40
1.0
 10
0.0
 20
0.0
 30
2.000000000000000E+50
 75
     0
  1
AcDbOsnapPointRef
 72
     1
331
307
 73
     2
 91
        0
 40
1.0
 10
0.0
 20
0.0
 30
2.000000000000000E+50
 75
     0
  0
DIMASSOC
  5
31D
102
{ACAD_REACTORS
330
31C
102
}
330
31C
100
AcDbDimAssoc
330
31B
 90
        1
 70
     0
 71
     0
  1
AcDbOsnapPointRef
 72
    13
331
304
 73
     2
 91
        0
 40
0.0
 10
0.0
 20
0.0
 30
2.000000000000000E+50
 75
     0
  0
DIMASSOC
  5
32C
102
{ACAD_REACTORS
330
32B
102
}
330
32B
100
AcDbDimAssoc
330
32A
 90
        3
 70
     0
 71
     0
  1
AcDbOsnapPointRef
 72
     1
331
308
 73
     2
 91
        0
 40
1.0
 10
0.0
 20
0.0
 30
2.000000000000000E+50
 75
     0
  1
AcDbOsnapPointRef
 72
    13
331
305
 73
     2
 91
        0
 40
0.0
 10
0.0
 20
0.0
 30
2.000000000000000E+50
 75
     0
  0
DIMASSOC
  5
383
102
{ACAD_REACTORS
330
382
102
}
330
382
100
AcDbDimAssoc
330
381
 90
        2
 70
     0
 71
     0
  1
AcDbOsnapPointRef
 72
    13
331
8A
 73
     2
 91
        0
 40
0.0
 10
0.0
 20
0.0
 30
2.000000000000000E+50
 75
     0
  0
DIMASSOC
  5
392
102
{ACAD_REACTORS
330
391
102
}
330
391
100
AcDbDimAssoc
330
390
 90
        2
 70
     0
 71
     0
  1
AcDbOsnapPointRef
 72
     8
331
1D4
 73
     2
 91
        0
 40
0.0
 10
0.0
 20
0.0
 30
0.0
 75
     1
  1
AcDbOsnapPointRef
 72
     0
 40
0.0
 10
-6959.454609224318
 20
7788.671184376017
 30
0.0
 75
     0
  0
XRECORD
  5
3E1
102
{ACAD_REACTORS
330
3E0
102
}
330
3E0
100
AcDbXrecord
280
     1
 70
     1
  0
XRECORD
  5
3E3
102
{ACAD_REACTORS
330
3E0
102
}
330
3E0
100
AcDbXrecord
280
     1
340
2E
  0
XRECORD
  5
3E4
102
{ACAD_REACTORS
330
3E0
102
}
330
3E0
100
AcDbXrecord
280
     1
340
2E
  0
XRECORD
  5
3E2
102
{ACAD_REACTORS
330
3E0
102
}
330
3E0
100
AcDbXrecord
280
     1
340
2E
  0
LAYOUT
  5
22
102
{ACAD_XDICTIONARY
360
3E6
102
}
102
{ACAD_REACTORS
330
19
102
}
330
19
100
AcDbPlotSettings
  1

  2
HP LaserJet 5000 Series PS
  4
A3
  6

 40
6.085416793823242
 41
5.704408645629882
 42
5.746734619140625
 43
6.085418701171875
 44
420.1583251953125
 45
297.0106506347656
 46
0.0
 47
0.0
 48
0.0
 49
0.0
140
0.0
141
0.0
142
1.0
143
1.0
 70
   688
 72
     1
 73
     0
 74
     5
  7
monochrome.ctb
 75
    16
147
1.0
148
0.0
149
0.0
100
AcDbLayout
  1
Layout2
 70
     1
 71
     1
 10
-6.085416793823242
 20
-5.704408645629882
 11
414.0729084014892
 21
291.3062419891357
 12
0.0
 22
0.0
 32
0.0
 14
40.83261737823487
 24
28.52208232879639
 34
0.0
 15
367.4935564041137
 25
256.6987409591675
 35
0.0
146
0.0
 13
0.0
 23
0.0
 33
0.0
 16
1.0
 26
0.0
 36
0.0
 17
0.0
 27
1.0
 37
0.0
 76
     0
330
1D
  0
LAYOUT
  5
18
102
{ACAD_XDICTIONARY
360
1A
102
}
102
{ACAD_REACTORS
330
19
102
}
330
19
100
AcDbPlotSettings
  1

  2
RICOH Aficio 2027 RPCS
  4
A3
  6

 40
5.027082920074462
 41
5.027085781097412
 42
5.027099609375
 43
5.027069091796875
 44
296.9259948730469
 45
419.9466552734373
 46
4.935906171798848
 47
13.44625020027143
 48
-7703.932044841464
 49
7550.951812877231
140
-7244.332044841462
141
7883.351812877229
142
1.0
143
1.199999999999999
 70
  3748
 72
     1
 73
     1
 74
     4
  7
KSJ2008.ctb
 75
     0
147
0.8630319264247825
148
7703.932044841464
149
-7550.951812877231
100
AcDbLayout
  1
Model
 70
     1
 71
     0
 10
0.0
 20
0.0
 11
12.0
 21
9.0
 12
0.0
 22
0.0
 32
0.0
 14
0.0
 24
0.0
 34
0.0
 15
0.0
 25
0.0
 35
0.0
146
0.0
 13
0.0
 23
0.0
 33
0.0
 16
1.0
 26
0.0
 36
0.0
 17
0.0
 27
1.0
 37
0.0
 76
     0
330
2
331
32
1001
ACAD_PSEXT
1000
RICOH Aficio 2027 RPCS
1000
RICOH Aficio 2027 RPCS
1000
IP_192.168.10.205
1000

1070
     0
  0
MATERIAL
  5
49
102
{ACAD_XDICTIONARY
360
4A
102
}
102
{ACAD_REACTORS
330
E
102
}
330
E
100
AcDbMaterial
  1
ByBlock
 72
     0
 43
0.0008202099737533
 43
0.0
 43
0.0
 43
0.0
 43
0.0
 43
0.0008202099737533
 43
0.0
 43
0.0
 43
0.0
 43
0.0
 43
1.0
 43
0.0
 43
0.0
 43
0.0
 43
0.0
 43
1.0
 77
     0
 47
0.0008202099737533
 47
0.0
 47
0.0
 47
0.0
 47
0.0
 47
0.0008202099737533
 47
0.0
 47
0.0
 47
0.0
 47
0.0
 47
1.0
 47
0.0
 47
0.0
 47
0.0
 47
0.0
 47
1.0
171
     0
 49
0.0008202099737533
 49
0.0
 49
0.0
 49
0.0
 49
0.0
 49
0.0008202099737533
 49
0.0
 49
0.0
 49
0.0
 49
0.0
 49
1.0
 49
0.0
 49
0.0
 49
0.0
 49
0.0
 49
1.0
175
     0
142
0.0008202099737533
142
0.0
142
0.0
142
0.0
142
0.0
142
0.0008202099737533
142
0.0
142
0.0
142
0.0
142
0.0
142
1.0
142
0.0
142
0.0
142
0.0
142
0.0
142
1.0
179
     0
144
0.0008202099737533
144
0.0
144
0.0
144
0.0
144
0.0
144
0.0008202099737533
144
0.0
144
0.0
144
0.0
144
0.0
144
1.0
144
0.0
144
0.0
144
0.0
144
0.0
144
1.0
147
0.0008202099737533
147
0.0
147
0.0
147
0.0
147
0.0
147
0.0008202099737533
147
0.0
147
0.0
147
0.0
147
0.0
147
1.0
147
0.0
147
0.0
147
0.0
147
0.0
147
1.0
  0
MATERIAL
  5
41
102
{ACAD_XDICTIONARY
360
42
102
}
102
{ACAD_REACTORS
330
E
102
}
330
E
100
AcDbMaterial
  1
ByLayer
 72
     0
 43
0.0008202099737533
 43
0.0
 43
0.0
 43
0.0
 43
0.0
 43
0.0008202099737533
 43
0.0
 43
0.0
 43
0.0
 43
0.0
 43
1.0
 43
0.0
 43
0.0
 43
0.0
 43
0.0
 43
1.0
 77
     0
 47
0.0008202099737533
 47
0.0
 47
0.0
 47
0.0
 47
0.0
 47
0.0008202099737533
 47
0.0
 47
0.0
 47
0.0
 47
0.0
 47
1.0
 47
0.0
 47
0.0
 47
0.0
 47
0.0
 47
1.0
171
     0
 49
0.0008202099737533
 49
0.0
 49
0.0
 49
0.0
 49
0.0
 49
0.0008202099737533
 49
0.0
 49
0.0
 49
0.0
 49
0.0
 49
1.0
 49
0.0
 49
0.0
 49
0.0
 49
0.0
 49
1.0
175
     0
142
0.0008202099737533
142
0.0
142
0.0
142
0.0
142
0.0
142
0.0008202099737533
142
0.0
142
0.0
142
0.0
142
0.0
142
1.0
142
0.0
142
0.0
142
0.0
142
0.0
142
1.0
179
     0
144
0.0008202099737533
144
0.0
144
0.0
144
0.0
144
0.0
144
0.0008202099737533
144
0.0
144
0.0
144
0.0
144
0.0
144
1.0
144
0.0
144
0.0
144
0.0
144
0.0
144
1.0
147
0.0008202099737533
147
0.0
147
0.0
147
0.0
147
0.0
147
0.0008202099737533
147
0.0
147
0.0
147
0.0
147
0.0
147
1.0
147
0.0
147
0.0
147
0.0
147
0.0
147
1.0
  0
MATERIAL
  5
D
102
{ACAD_XDICTIONARY
360
F
102
}
102
{ACAD_REACTORS
330
E
102
}
330
E
100
AcDbMaterial
  1
Global
 72
     0
 43
0.0008202099737533
 43
0.0
 43
0.0
 43
0.0
 43
0.0
 43
0.0008202099737533
 43
0.0
 43
0.0
 43
0.0
 43
0.0
 43
1.0
 43
0.0
 43
0.0
 43
0.0
 43
0.0
 43
1.0
 77
     0
 47
0.0008202099737533
 47
0.0
 47
0.0
 47
0.0
 47
0.0
 47
0.0008202099737533
 47
0.0
 47
0.0
 47
0.0
 47
0.0
 47
1.0
 47
0.0
 47
0.0
 47
0.0
 47
0.0
 47
1.0
171
     0
 49
0.0008202099737533
 49
0.0
 49
0.0
 49
0.0
 49
0.0
 49
0.0008202099737533
 49
0.0
 49
0.0
 49
0.0
 49
0.0
 49
1.0
 49
0.0
 49
0.0
 49
0.0
 49
0.0
 49
1.0
175
     0
142
0.0008202099737533
142
0.0
142
0.0
142
0.0
142
0.0
142
0.0008202099737533
142
0.0
142
0.0
142
0.0
142
0.0
142
1.0
142
0.0
142
0.0
142
0.0
142
0.0
142
1.0
179
     0
144
0.0008202099737533
144
0.0
144
0.0
144
0.0
144
0.0
144
0.0008202099737533
144
0.0
144
0.0
144
0.0
144
0.0
144
1.0
144
0.0
144
0.0
144
0.0
144
0.0
144
1.0
147
0.0008202099737533
147
0.0
147
0.0
147
0.0
147
0.0
147
0.0008202099737533
147
0.0
147
0.0
147
0.0
147
0.0
147
1.0
147
0.0
147
0.0
147
0.0
147
0.0
147
1.0
  0
MLEADERSTYLE
  5
3D6
102
{ACAD_REACTORS
330
3D5
102
}
330
3D5
100
AcDbMLeaderStyle
170
     2
171
     1
172
     0
 90
        2
 40
0.0
 41
0.0
173
     1
 91
-1056964608
340
2D
 92
       -2
290
     1
 42
2.0
291
     1
 43
0.36
  3
Standard
 44
4.0
300

342
2A
174
     1
178
     6
175
     1
176
     0
 93
-1056964608
 45
4.0
292
     0
297
     0
 46
4.0
 94
-1056964608
 47
1.0
 49
1.0
140
1.0
293
     1
141
0.0
294
     1
177
     0
142
1.0
295
     0
296
     0
143
0.125
1001
ACAD_MLEADERVER
1070
     2
  0
MLINESTYLE
  5
54
102
{ACAD_REACTORS
330
3F
102
}
330
3F
100
AcDbMlineStyle
  2
STANDARD
 70
     0
  3

 62
   256
 51
90.0
 52
90.0
 71
     2
 49
0.5
 62
   256
  6
BYLAYER
 49
-0.5
 62
   256
  6
BYLAYER
  0
ACDBPLACEHOLDER
  5
A
102
{ACAD_REACTORS
330
B
102
}
330
B
  0
SCALE
  5
5D
102
{ACAD_REACTORS
330
52
102
}
330
52
100
AcDbScale
 70
     0
300
1/128" = 1'-0"_1
140
0.007812
141
12.0
290
     0
  0
SCALE
  5
5E
102
{ACAD_REACTORS
330
52
102
}
330
52
100
AcDbScale
 70
     0
300
1:1
140
1.0
141
1.0
290
     1
  0
SCALE
  5
5F
102
{ACAD_REACTORS
330
52
102
}
330
52
100
AcDbScale
 70
     0
300
1:2
140
1.0
141
2.0
290
     0
  0
SCALE
  5
60
102
{ACAD_REACTORS
330
52
102
}
330
52
100
AcDbScale
 70
     0
300
1:4
140
1.0
141
4.0
290
     0
  0
SCALE
  5
61
102
{ACAD_REACTORS
330
52
102
}
330
52
100
AcDbScale
 70
     0
300
1:5
140
1.0
141
5.0
290
     0
  0
SCALE
  5
62
102
{ACAD_REACTORS
330
52
102
}
330
52
100
AcDbScale
 70
     0
300
1:8
140
1.0
141
8.0
290
     0
  0
SCALE
  5
63
102
{ACAD_REACTORS
330
52
102
}
330
52
100
AcDbScale
 70
     0
300
1:10
140
1.0
141
10.0
290
     0
  0
SCALE
  5
64
102
{ACAD_REACTORS
330
52
102
}
330
52
100
AcDbScale
 70
     0
300
1:16
140
1.0
141
16.0
290
     0
  0
SCALE
  5
65
102
{ACAD_REACTORS
330
52
102
}
330
52
100
AcDbScale
 70
     0
300
1:20
140
1.0
141
20.0
290
     0
  0
SCALE
  5
66
102
{ACAD_REACTORS
330
52
102
}
330
52
100
AcDbScale
 70
     0
300
1:30
140
1.0
141
30.0
290
     0
  0
SCALE
  5
67
102
{ACAD_REACTORS
330
52
102
}
330
52
100
AcDbScale
 70
     0
300
1:40
140
1.0
141
40.0
290
     0
  0
SCALE
  5
68
102
{ACAD_REACTORS
330
52
102
}
330
52
100
AcDbScale
 70
     0
300
1:50
140
1.0
141
50.0
290
     0
  0
SCALE
  5
69
102
{ACAD_REACTORS
330
52
102
}
330
52
100
AcDbScale
 70
     0
300
1:100
140
1.0
141
100.0
290
     0
  0
SCALE
  5
6A
102
{ACAD_REACTORS
330
52
102
}
330
52
100
AcDbScale
 70
     0
300
2:1
140
2.0
141
1.0
290
     0
  0
SCALE
  5
6B
102
{ACAD_REACTORS
330
52
102
}
330
52
100
AcDbScale
 70
     0
300
4:1
140
4.0
141
1.0
290
     0
  0
SCALE
  5
6C
102
{ACAD_REACTORS
330
52
102
}
330
52
100
AcDbScale
 70
     0
300
8:1
140
8.0
141
1.0
290
     0
  0
SCALE
  5
6D
102
{ACAD_REACTORS
330
52
102
}
330
52
100
AcDbScale
 70
     0
300
10:1
140
10.0
141
1.0
290
     0
  0
SCALE
  5
6E
102
{ACAD_REACTORS
330
52
102
}
330
52
100
AcDbScale
 70
     0
300
100:1
140
100.0
141
1.0
290
     0
  0
SCALE
  5
6F
102
{ACAD_REACTORS
330
52
102
}
330
52
100
AcDbScale
 70
     0
300
1/128" = 1'-0"
140
0.0078125
141
12.0
290
     0
  0
SCALE
  5
70
102
{ACAD_REACTORS
330
52
102
}
330
52
100
AcDbScale
 70
     0
300
1/64" = 1'-0"
140
0.015625
141
12.0
290
     0
  0
SCALE
  5
71
102
{ACAD_REACTORS
330
52
102
}
330
52
100
AcDbScale
 70
     0
300
1/32" = 1'-0"
140
0.03125
141
12.0
290
     0
  0
SCALE
  5
72
102
{ACAD_REACTORS
330
52
102
}
330
52
100
AcDbScale
 70
     0
300
1/16" = 1'-0"
140
0.0625
141
12.0
290
     0
  0
SCALE
  5
73
102
{ACAD_REACTORS
330
52
102
}
330
52
100
AcDbScale
 70
     0
300
3/32" = 1'-0"
140
0.09375
141
12.0
290
     0
  0
SCALE
  5
74
102
{ACAD_REACTORS
330
52
102
}
330
52
100
AcDbScale
 70
     0
300
1/8" = 1'-0"
140
0.125
141
12.0
290
     0
  0
SCALE
  5
75
102
{ACAD_REACTORS
330
52
102
}
330
52
100
AcDbScale
 70
     0
300
3/16" = 1'-0"
140
0.1875
141
12.0
290
     0
  0
SCALE
  5
76
102
{ACAD_REACTORS
330
52
102
}
330
52
100
AcDbScale
 70
     0
300
1/4" = 1'-0"
140
0.25
141
12.0
290
     0
  0
SCALE
  5
77
102
{ACAD_REACTORS
330
52
102
}
330
52
100
AcDbScale
 70
     0
300
3/8" = 1'-0"
140
0.375
141
12.0
290
     0
  0
SCALE
  5
78
102
{ACAD_REACTORS
330
52
102
}
330
52
100
AcDbScale
 70
     0
300
1/2" = 1'-0"
140
0.5
141
12.0
290
     0
  0
SCALE
  5
79
102
{ACAD_REACTORS
330
52
102
}
330
52
100
AcDbScale
 70
     0
300
3/4" = 1'-0"
140
0.75
141
12.0
290
     0
  0
SCALE
  5
7A
102
{ACAD_REACTORS
330
52
102
}
330
52
100
AcDbScale
 70
     0
300
1" = 1'-0"
140
1.0
141
12.0
290
     0
  0
SCALE
  5
7B
102
{ACAD_REACTORS
330
52
102
}
330
52
100
AcDbScale
 70
     0
300
1-1/2" = 1'-0"
140
1.5
141
12.0
290
     0
  0
SCALE
  5
7C
102
{ACAD_REACTORS
330
52
102
}
330
52
100
AcDbScale
 70
     0
300
3" = 1'-0"
140
3.0
141
12.0
290
     0
  0
SCALE
  5
7D
102
{ACAD_REACTORS
330
52
102
}
330
52
100
AcDbScale
 70
     0
300
6" = 1'-0"
140
6.0
141
12.0
290
     0
  0
SCALE
  5
7E
102
{ACAD_REACTORS
330
52
102
}
330
52
100
AcDbScale
 70
     0
300
1'-0" = 1'-0"
140
12.0
141
12.0
290
     0
  0
TABLESTYLE
  5
55
102
{ACAD_XDICTIONARY
360
56
102
}
102
{ACAD_REACTORS
330
53
102
}
330
53
100
AcDbTableStyle
  3
Standard
 70
     0
 71
     0
 40
1.5
 41
1.5
280
     0
281
     0
  7
Standard
140
4.5
170
     2
 62
     0
 63
     7
283
     0
274
    -2
284
     1
 64
     0
275
    -2
285
     1
 65
     0
276
    -2
286
     1
 66
     0
277
    -2
287
     1
 67
     0
278
    -2
288
     1
 68
     0
279
    -2
289
     1
 69
     0
  7
Standard
140
6.0
170
     5
 62
     0
 63
     7
283
     0
274
    -2
284
     1
 64
     0
275
    -2
285
     1
 65
     0
276
    -2
286
     1
 66
     0
277
    -2
287
     1
 67
     0
278
    -2
288
     1
 68
     0
279
    -2
289
     1
 69
     0
  7
Standard
140
4.5
170
     5
 62
     0
 63
     7
283
     0
274
    -2
284
     1
 64
     0
275
    -2
285
     1
 65
     0
276
    -2
286
     1
 66
     0
277
    -2
287
     1
 67
     0
278
    -2
288
     1
 68
     0
279
    -2
289
     1
 69
     0
  0
VISUALSTYLE
  5
33
102
{ACAD_XDICTIONARY
360
35
102
}
102
{ACAD_REACTORS
330
34
102
}
330
34
100
AcDbVisualStyle
  2
2dWireframe
 70
     4
 71
     0
 72
     2
 73
     0
 90
        0
 40
-0.6
 41
-30.0
 62
     5
 63
     7
 74
     1
 91
        4
 64
     7
 65
   257
 75
     1
175
     1
 42
1.0
 92
        0
 66
   257
 43
1.0
 76
     1
 77
     6
 78
     2
 67
     7
 79
     5
170
     0
171
     0
290
     0
174
     0
 93
        1
 44
0.0
173
     0
291
     0
 45
0.0
1001
ACAD
1000
AcDbSavedByObjectVersion
1070
     0
1000
AcDbSavedByObjectVersion
1070
     0
  0
VISUALSTYLE
  5
3CD
102
{ACAD_REACTORS
330
34
102
}
330
34
100
AcDbVisualStyle
  2
3D Hidden
 70
     6
 71
     1
 72
     2
 73
     2
 90
        0
 40
-0.6
 41
-30.0
 62
     5
 63
     7
 74
     2
 91
        2
 64
     7
 65
   257
 75
     2
175
     1
 42
40.0
 92
        0
 66
   257
 43
1.0
 76
     1
 77
     6
 78
     2
 67
     7
 79
     3
170
     0
171
     0
290
     0
174
     0
 93
        1
 44
0.0
173
     0
291
     0
 45
0.0
1001
ACAD
1000
AcDbSavedByObjectVersion
1070
     0
  0
VISUALSTYLE
  5
5A
102
{ACAD_XDICTIONARY
360
5B
102
}
102
{ACAD_REACTORS
330
34
102
}
330
34
100
AcDbVisualStyle
  2
3dWireframe
 70
     5
 71
     0
 72
     2
 73
     0
 90
        0
 40
-0.6
 41
-30.0
 62
     5
 63
     7
 74
     1
 91
        4
 64
     7
 65
   257
 75
     1
175
     1
 42
1.0
 92
        0
 66
   257
 43
1.0
 76
     1
 77
     6
 78
     2
 67
     7
 79
     5
170
     0
171
     0
290
     0
174
     0
 93
        1
 44
0.0
173
     0
291
     0
 45
0.0
1001
ACAD
1000
AcDbSavedByObjectVersion
1070
     0
1000
AcDbSavedByObjectVersion
1070
     0
  0
VISUALSTYLE
  5
3CC
102
{ACAD_REACTORS
330
34
102
}
330
34
100
AcDbVisualStyle
  2
Basic
 70
     7
 71
     1
 72
     0
 73
     1
 90
        0
 40
-0.6
 41
-30.0
 62
     5
 63
     7
 74
     0
 91
        4
 64
     7
 65
   257
 75
     1
175
     1
 42
1.0
 92
        8
 66
     7
 43
1.0
 76
     1
 77
     6
 78
     2
 67
     7
 79
     5
170
     0
171
     0
290
     0
174
     0
 93
        1
 44
0.0
173
     0
291
     1
 45
0.0
1001
ACAD
1000
AcDbSavedByObjectVersion
1070
     0
  0
VISUALSTYLE
  5
3D0
102
{ACAD_REACTORS
330
34
102
}
330
34
100
AcDbVisualStyle
  2
Brighten
 70
    12
 71
     2
 72
     2
 73
     0
 90
        0
 40
-0.6
 41
-30.0
 62
     5
 63
     7
 74
     1
 91
        4
 64
     7
 65
   257
 75
     1
175
     1
 42
1.0
 92
        8
 66
     7
 43
1.0
 76
     1
 77
     6
 78
     2
 67
     7
 79
     5
170
     0
171
     0
290
     0
174
     0
 93
        1
 44
50.0
173
     0
291
     1
 45
0.0
1001
ACAD
1000
AcDbSavedByObjectVersion
1070
     0
  0
VISUALSTYLE
  5
3D4
102
{ACAD_REACTORS
330
34
102
}
330
34
100
AcDbVisualStyle
  2
ColorChange
 70
    16
 71
     2
 72
     2
 73
     3
 90
        0
 40
-0.6
 41
-30.0
 62
     5
 63
     8
 74
     1
 91
        4
 64
     7
 65
   257
 75
     1
175
     1
 42
1.0
 92
        8
 66
     8
 43
1.0
 76
     1
 77
     6
 78
     2
 67
     7
 79
     5
170
     0
171
     0
290
     0
174
     0
 93
        1
 44
0.0
173
     0
291
     1
 45
0.0
1001
ACAD
1000
AcDbSavedByObjectVersion
1070
     0
  0
VISUALSTYLE
  5
3CE
102
{ACAD_REACTORS
330
34
102
}
330
34
100
AcDbVisualStyle
  2
Conceptual
 70
     9
 71
     3
 72
     2
 73
     0
 90
        0
 40
-0.6
 41
-30.0
 62
     5
 63
     7
 74
     2
 91
        2
 64
     7
 65
   257
 75
     1
175
     1
 42
40.0
 92
        8
 66
     7
 43
1.0
 76
     1
 77
     6
 78
     2
 67
     7
 79
     3
170
     0
171
     0
290
     0
174
     0
 93
        1
 44
0.0
173
     0
291
     0
 45
0.0
1001
ACAD
1000
AcDbSavedByObjectVersion
1070
     0
  0
VISUALSTYLE
  5
3CF
102
{ACAD_REACTORS
330
34
102
}
330
34
100
AcDbVisualStyle
  2
Dim
 70
    11
 71
     2
 72
     2
 73
     0
 90
        0
 40
-0.6
 41
-30.0
 62
     5
 63
     7
 74
     1
 91
        4
 64
     7
 65
   257
 75
     1
175
     1
 42
1.0
 92
        8
 66
     7
 43
1.0
 76
     1
 77
     6
 78
     2
 67
     7
 79
     5
170
     0
171
     0
290
     0
174
     0
 93
        1
 44
-50.0
173
     0
291
     1
 45
0.0
1001
ACAD
1000
AcDbSavedByObjectVersion
1070
     0
  0
VISUALSTYLE
  5
3D3
102
{ACAD_REACTORS
330
34
102
}
330
34
100
AcDbVisualStyle
  2
Facepattern
 70
    15
 71
     2
 72
     2
 73
     0
 90
        0
 40
-0.6
 41
-30.0
 62
     5
 63
     7
 74
     1
 91
        4
 64
     7
 65
   257
 75
     1
175
     1
 42
1.0
 92
        8
 66
     7
 43
1.0
 76
     1
 77
     6
 78
     2
 67
     7
 79
     5
170
     0
171
     0
290
     0
174
     0
 93
        1
 44
0.0
173
     0
291
     1
 45
0.0
1001
ACAD
1000
AcDbSavedByObjectVersion
1070
     0
  0
VISUALSTYLE
  5
3C8
102
{ACAD_REACTORS
330
34
102
}
330
34
100
AcDbVisualStyle
  2
Flat
 70
     0
 71
     2
 72
     1
 73
     1
 90
        2
 40
-0.6
 41
30.0
 62
     5
 63
     7
 74
     0
 91
        4
 64
     7
 65
   257
 75
     1
175
     1
 42
1.0
 92
        8
 66
     7
 43
1.0
 76
     1
 77
     6
 78
     2
 67
     7
 79
     5
170
     0
171
     0
290
     0
174
     0
 93
       13
 44
0.0
173
     0
291
     1
 45
0.0
1001
ACAD
1000
AcDbSavedByObjectVersion
1070
     0
  0
VISUALSTYLE
  5
3C9
102
{ACAD_REACTORS
330
34
102
}
330
34
100
AcDbVisualStyle
  2
FlatWithEdges
 70
     1
 71
     2
 72
     1
 73
     1
 90
        2
 40
-0.6
 41
30.0
 62
     5
 63
     7
 74
     1
 91
        4
 64
     7
 65
   257
 75
     1
175
     1
 42
1.0
 92
        0
 66
   257
 43
1.0
 76
     1
 77
     6
 78
     2
 67
     7
 79
     5
170
     0
171
     0
290
     0
174
     0
 93
       13
 44
0.0
173
     0
291
     1
 45
0.0
1001
ACAD
1000
AcDbSavedByObjectVersion
1070
     0
  0
VISUALSTYLE
  5
3CA
102
{ACAD_REACTORS
330
34
102
}
330
34
100
AcDbVisualStyle
  2
Gouraud
 70
     2
 71
     2
 72
     2
 73
     1
 90
        2
 40
-0.6
 41
30.0
 62
     5
 63
     7
 74
     0
 91
        4
 64
     7
 65
   257
 75
     1
175
     1
 42
1.0
 92
        0
 66
     7
 43
1.0
 76
     1
 77
     6
 78
     2
 67
     7
 79
     5
170
     0
171
     0
290
     0
174
     0
 93
       13
 44
0.0
173
     0
291
     1
 45
0.0
1001
ACAD
1000
AcDbSavedByObjectVersion
1070
     0
  0
VISUALSTYLE
  5
3CB
102
{ACAD_REACTORS
330
34
102
}
330
34
100
AcDbVisualStyle
  2
GouraudWithEdges
 70
     3
 71
     2
 72
     2
 73
     1
 90
        2
 40
-0.6
 41
30.0
 62
     5
 63
     7
 74
     1
 91
        4
 64
     7
 65
   257
 75
     1
175
     1
 42
1.0
 92
        0
 66
   257
 43
1.0
 76
     1
 77
     6
 78
     2
 67
     7
 79
     5
170
     0
171
     0
290
     0
174
     0
 93
       13
 44
0.0
173
     0
291
     1
 45
0.0
1001
ACAD
1000
AcDbSavedByObjectVersion
1070
     0
  0
VISUALSTYLE
  5
3D2
102
{ACAD_REACTORS
330
34
102
}
330
34
100
AcDbVisualStyle
  2
Linepattern
 70
    14
 71
     2
 72
     2
 73
     0
 90
        0
 40
-0.6
 41
-30.0
 62
     5
 63
     7
 74
     1
 91
        4
 64
     7
 65
   257
 75
     7
175
     7
 42
1.0
 92
        8
 66
     7
 43
1.0
 76
     1
 77
     6
 78
     2
 67
     7
 79
     5
170
     0
171
     0
290
     0
174
     0
 93
        1
 44
0.0
173
     0
291
     1
 45
0.0
1001
ACAD
1000
AcDbSavedByObjectVersion
1070
     0
  0
VISUALSTYLE
  5
57
102
{ACAD_XDICTIONARY
360
58
102
}
102
{ACAD_REACTORS
330
34
102
}
330
34
100
AcDbVisualStyle
  2
Realistic
 70
     8
 71
     2
 72
     2
 73
     0
 90
        0
 40
-0.6
 41
-30.0
 62
     5
 63
     7
 74
     1
 91
        0
 64
     7
 65
   257
 75
     1
175
     1
 42
1.0
 92
        8
 66
     8
 43
1.0
 76
     1
 77
     6
 78
     2
 67
     7
 79
     5
170
     0
171
     0
290
     0
174
     0
 93
       13
 44
0.0
173
     0
291
     0
 45
0.0
1001
ACAD
1000
AcDbSavedByObjectVersion
1070
     0
1000
AcDbSavedByObjectVersion
1070
     0
  0
VISUALSTYLE
  5
3D1
102
{ACAD_REACTORS
330
34
102
}
330
34
100
AcDbVisualStyle
  2
Thicken
 70
    13
 71
     2
 72
     2
 73
     0
 90
        0
 40
-0.6
 41
-30.0
 62
     5
 63
     7
 74
     1
 91
        4
 64
     7
 65
   257
 75
     1
175
     1
 42
1.0
 92
       12
 66
     7
 43
1.0
 76
     1
 77
     6
 78
     2
 67
     7
 79
     5
170
     0
171
     0
290
     0
174
     0
 93
        1
 44
0.0
173
     0
291
     1
 45
0.0
1001
ACAD
1000
AcDbSavedByObjectVersion
1070
     0
  0
DICTIONARYVAR
  5
3AA
102
{ACAD_REACTORS
330
3A7
102
}
330
3A7
100
DictionaryVariables
280
     0
  1
1:1
  0
DICTIONARYVAR
  5
3A9
102
{ACAD_REACTORS
330
3A7
102
}
330
3A7
100
DictionaryVariables
280
     0
  1
STANDARD
  0
DICTIONARYVAR
  5
3A8
102
{ACAD_REACTORS
330
3A7
102
}
330
3A7
100
DictionaryVariables
280
     0
  1
STANDARD
  0
DICTIONARYVAR
  5
3AE
102
{ACAD_REACTORS
330
3A7
102
}
330
3A7
100
DictionaryVariables
280
     0
  1
2
  0
DICTIONARYVAR
  5
3AD
102
{ACAD_REACTORS
330
3A7
102
}
330
3A7
100
DictionaryVariables
280
     0
  1
1
  0
DICTIONARYVAR
  5
3AC
102
{ACAD_REACTORS
330
3A7
102
}
330
3A7
100
DictionaryVariables
280
     0
  1
0
  0
DICTIONARYVAR
  5
3AB
102
{ACAD_REACTORS
330
3A7
102
}
330
3A7
100
DictionaryVariables
280
     0
  1
127
  0
DICTIONARY
  5
3E6
330
22
100
AcDbDictionary
280
     1
281
     1
  3
ACAD_XREC_ROUNDTRIP
360
3E7
  0
DICTIONARY
  5
1A
330
18
100
AcDbDictionary
280
     1
281
     1
  3
ACAD_XREC_ROUNDTRIP
360
3E5
  3
ADSK_XREC_LAYOUTTHUMBNAIL
360
1B
  0
DICTIONARY
  5
4A
330
49
100
AcDbDictionary
280
     1
281
     1
  3
ACAD_XREC_ROUNDTRIP
360
3BB
  3
BUMPTILE
360
4B
  3
DIFFUSETILE
360
4C
  3
OPACITYTILE
360
4D
  3
REFLECTIONTILE
360
4E
  3
REFRACTIONTILE
360
4F
  3
SPECULARTILE
360
50
  0
DICTIONARY
  5
42
330
41
100
AcDbDictionary
280
     1
281
     1
  3
ACAD_XREC_ROUNDTRIP
360
3BA
  3
BUMPTILE
360
43
  3
DIFFUSETILE
360
44
  3
OPACITYTILE
360
45
  3
REFLECTIONTILE
360
46
  3
REFRACTIONTILE
360
47
  3
SPECULARTILE
360
48
  0
DICTIONARY
  5
F
330
D
100
AcDbDictionary
280
     1
281
     1
  3
ACAD_XREC_ROUNDTRIP
360
3B6
  3
BUMPTILE
360
10
  3
DIFFUSETILE
360
11
  3
OPACITYTILE
360
12
  3
REFLECTIONTILE
360
13
  3
REFRACTIONTILE
360
14
  3
SPECULARTILE
360
15
  0
DICTIONARY
  5
56
330
55
100
AcDbDictionary
280
     1
281
     1
  3
ACAD_ROUNDTRIP_2008_TABLESTYLE_CELLSTYLEMAP
360
3DE
  3
ACAD_XREC_ROUNDTRIP
360
3E8
  0
DICTIONARY
  5
35
330
33
100
AcDbDictionary
280
     1
281
     1
  3
ACAD_XREC_ROUNDTRIP
360
36
  0
DICTIONARY
  5
5B
330
5A
100
AcDbDictionary
280
     1
281
     1
  3
ACAD_XREC_ROUNDTRIP
360
5C
  0
DICTIONARY
  5
58
330
57
100
AcDbDictionary
280
     1
281
     1
  3
ACAD_XREC_ROUNDTRIP
360
59
  0
XRECORD
  5
3E7
102
{ACAD_REACTORS
330
3E6
102
}
330
3E6
100
AcDbXrecord
280
     1
102
SHADEPLOT
 70
     0
102
SHADEPLOTRESLEVEL
 70
     2
102
SHADEPLOTCUSTOMDPI
 70
   300
  0
XRECORD
  5
3E5
102
{ACAD_REACTORS
330
1A
102
}
330
1A
100
AcDbXrecord
280
     1
102
SHADEPLOT
 70
     1
102
SHADEPLOTRESLEVEL
 70
     2
102
SHADEPLOTCUSTOMDPI
 70
   300
  0
XRECORD
  5
1B
102
{ACAD_REACTORS
330
1A
102
}
330
1A
100
AcDbXrecord
280
     1
310
280000000001000073000000010008000000000000730000000000000000000000010000000000000000000000000000FFFFFF000000000000000000000000000000000000000000000000000000000000000000330000006600000099000000CC000000FF00000000330000333300006633000099330000CC330000FF3300
310
0000660000336600006666000099660000CC660000FF66000000990000339900006699000099990000CC990000FF99000000CC000033CC000066CC000099CC0000CCCC0000FFCC000000FF000033FF000066FF000099FF0000CCFF0000FFFF000000003300330033006600330099003300CC003300FF003300003333003333
310
33006633330099333300CC333300FF33330000663300336633006666330099663300CC663300FF66330000993300339933006699330099993300CC993300FF99330000CC330033CC330066CC330099CC3300CCCC3300FFCC330000FF330033FF330066FF330099FF3300CCFF3300FFFF330000006600330066006600660099
310
006600CC006600FF00660000336600333366006633660099336600CC336600FF33660000666600336666006666660099666600CC666600FF66660000996600339966006699660099996600CC996600FF99660000CC660033CC660066CC660099CC6600CCCC6600FFCC660000FF660033FF660066FF660099FF6600CCFF6600
310
FFFF660000009900330099006600990099009900CC009900FF00990000339900333399006633990099339900CC339900FF33990000669900336699006666990099669900CC669900FF66990000999900339999006699990099999900CC999900FF99990000CC990033CC990066CC990099CC9900CCCC9900FFCC990000FF99
310
0033FF990066FF990099FF9900CCFF9900FFFF99000000CC003300CC006600CC009900CC00CC00CC00FF00CC000033CC003333CC006633CC009933CC00CC33CC00FF33CC000066CC003366CC006666CC009966CC00CC66CC00FF66CC000099CC003399CC006699CC009999CC00CC99CC00FF99CC0000CCCC0033CCCC0066CC
310
CC0099CCCC00CCCCCC00FFCCCC0000FFCC0033FFCC0066FFCC0099FFCC00CCFFCC00FFFFCC000000FF003300FF006600FF009900FF00CC00FF00FF00FF000033FF003333FF006633FF009933FF00CC33FF00FF33FF000066FF003366FF006666FF009966FF00CC66FF00FF66FF000099FF003399FF006699FF009999FF00CC
310
99FF00FF99FF0000CCFF0033CCFF0066CCFF0099CCFF00CCCCFF00FFCCFF0000FFFF0033FFFF0066FFFF0099FFFF00CCFFFF00FFFFFF00000000000D0D0D001A1A1A00282828003535350043434300505050005D5D5D006B6B6B00787878008686860093939300A1A1A100AEAEAE00BBBBBB00C9C9C900D6D6D600E4E4E400
310
F1F1F100FFFFFF0000000000000000000000000000000000000000000000000000000000000000000000000000000000E2E2E2E2E2E2E2E2E2E2E2E2E2E2E2E2E2E2E2E2E2E2E2E2E2E2E2E2E2E2E2E2E2E2E2E2E2E2E2E2E2E2E2E2E2E2E2E2E2E2E2E2E2E2E2E2E2E2E2E2E2E2E2E2E2E2E2E2E2E2E2E2E2E2E2E2E2E2E2
310
E2E2E2E2E2E2E2E2E2E2E2E2E2E2E2E2E2E2E2E2E2E2E2E2E2E2E2E2E2E2E2E2E2E2E2E2E2E2E2E2E2E2E2E2E2E2E2E2E2E2E2E2E2E2E2E2E2E2E2E2E2E2E2E2E2E2E2E2E2E2E2E2E2E2E2E2E2E2E2E2E2E2E2E2E2E2E2E2E2E2E2E2E2E2E2E2E2E2E2E2E2E2E2E2E2E2E2E2E2E2E2E2E2E2E2E2E2E2E2E2E2E2E2E2E2E2E2
310
E2E2E2E2E9E2E2E2E2E2E2E2E2E2E2E2E2E2E2E2E2E2E2E2E2E2E2E2E2E2E2E2E2E2E2E2E2E2E2E2E2E2E2E2E2E2E2E2E2E2E2E2E2E2E2E2E2E2E2E2E2E2E2E2E2E2E2E2E2E2E2E2E2E2E2E2E2E2E2E2E2E2E2E2E2E2E2E2E2E2E2E2E2E2E2E2E2E2E2E2E2E2E2E2E2E2E2E2E2E2E2E2E2E2E2E2E2E2E2E2E2E2E2E2E2E2E2
310
E2E2E2E2E2E2E2E2E2E2E2E2E2E2E2E2E2E2E2E2E2E2E2E2E2E2E2E2E2E2E2E2E2E2E2E2E2E2E2E2E2E2E2E2E2E2E2E2E2E2E2E2E2E2E2E2E2E2E2E2E2E2E2E2E2E2E2E2E2E2E2E2E2E2E2E2E2E2E2E2E2E2E2E2E2E2E2E2E2E2E2E2E2E2E2E2E2E2E2E2E2E2E2E2E2E2E2E2E2E2E2E2E2E2E2E2E2E2E2E2E2E2E2E2E2E2E2
310
E2E2E2E2E2E2E9E2E2E2E2E2E2E2E2E2E2E2E2E2E2E2E2E2E2E2E2E2E2E2E2E2E2E2E2E2E2E2E2E2E2E2E2E2E2E2E2E2E2E2E2E2E2E2E2E2E2E2E2E2E2E2E2E2E2E2E2E2E2E2E2E2E2E2E2E2E2E2E2E2E2E2E2E2E2E2E2E2E2E2E2E2E2E2E2E2E2E2E2E2E2E2E2E2E2E2E2E2E2E2E2E2E2E2E2E2E2E2E2E2E2E2E2E2E2E2E2
310
E2E2E2E2E2E2E2E2E2E2E2E2E2E2E2E2E2E2E2E2E2E2E2E2E2E2E2E2E2E2E2E2E2E2E2E2E2E2E2E2E2E2E2E2E2E2E2E2E2E2E2E2E2E2E2E2E2E2E2E2E2E2E2E2E2E2E2E2E2E2E2E2E2E2E2E2E2E2E2E2E2E2E2E2E2E2E2E2E2E2E2E2E2E2E2E2E2E2E2E2E2E2E2E2E2E2E2E2E2E2E2E2E2E2E2E2E2E2E2E2E2E2E2E2E2E2E2
310
E2E2E2E2E2E2E2E2E9E2E2E2E2E2E2E2E2E2E2E2E2E2E2E2E2E2E2E2E2E2E2E2E2E2E2E2E2E2E2E2E2E2E2E2E2E2E2E2E2E2E2E2E2E2E2E2E2E2E2E2E2E2E2E2E2E2E2E2E2E2E2E2E2E2E2E2E2E2E2E2E2E2E2E2E2E2E2E2E2E2E2E2E2E2E2E2E2E2E2E2E2E2E2E2E2E2E2E2E2E2E2E2E2E2E2E2E2E2E2E2E2E2E2E2E2E2E2
310
E2E2E2E2E2E2E2E2E2E2E2E2E2E2E2E2E2E2E2E2E2E2E2E2E2E2E2E2E2E2E2E2E2E2E2E2E2E2E2E2E2E2E2E2E2E2E2E2E2E2E2E2E2E2E2E2E2E2E2E2E2E2E2E2E2E2E2E2E2E2E2E2E2E2E2E2E2E2E2E2E2F5E2E2E2F5E2E2E2E2E2E2E2E2E2E2E2E2E2E2E2E2E2E2E2E2E2E2E2E2E2E2E2E2E2E2E2E2E2E2E2E2E2E2E2E2E2
310
E2E2E2E2E2E2E2E2E2E2E9E2E2E2E2E2E2E2E2E2E2E2E2E2E2E2E2E2E2E2E2E2E2E2E2E2E2E2E2E2E2E2E2E2E2E2E2E2E2E2E2E2E2E2E2E2E2E2E2E2E2E2E2E2E2E2E2E2E2E2E2E2E2E2E2E2E2E2E2E2E2E2E2E2E2E2E2E2E2E2E2E2E2E2E2E2E2E2E2E2E2E2E2E2E2E2E2E2E2E2E2E2E2E2E2E2E2E2E2E2E2E2E2E2E2E2E2
310
E2E2E2E2E2E2E2E2E2E2E2E2E2E2E2E2E2E2E2E2E2E2E2E2E2E2E2E2E2E2E2E2E2E2E2E2E2E2E2E2E2E2E2E2E2E2E2E2E2E2E2E2E2E2E2E2E2E2E2E2E2E2E2E2E2E2E2E2E2E2E2E2E2E2E2E2E2E2E2E2E2E2F5F5F5F5F5F5E2E2E2E2E2E2E2E2E2E2E2E2E2E2E2E2E2E2E2E2E2E2E2E2E2E2E2E2E2E2E2E2E2E2E2E2E2E2E2
310
E2E2E2E2E2E2E2E2E2E2E2E2E9E2E2E2E2E2E2E2E2E2E2E2E2E2E2E2E2E2E2E2E2E2E2E2E2E2E2E2E2E2E2E2E2E2E2E2E2E2E2E2E2E2E2E2E2E2E2E2E2E2E2E2E2E2E2E2E2E2E2E2E2E2E2E2E2E2E2E2E2E2E2E2E2E2E2E2E2E2E2E2E2E2E2E2E2E2E2E2E2F5F5F5F5F5F5F5F5F5F5F5F5F5F5F5F5F5F5F5F5F5F5F5F5F5F5
310
F5F5F5F5F5F5F5F5F5F5F5F5F5F5F5F5F5F5F5F5F5F5F5F5F5F5F5F5F5F5F5F5F5F5F5F5F5F5282828282828282828282828F5F528F5F5F5F5F5F5F5F528F5F5F5F5F5F5F5F5F5F5F5F5F5F5F5F5F5F5F5F5F5F5F5F5F5F5F5F5E2E2E2E2E2E2E2E2E2E2E2E2E2E2E2E2E2E2E2E2E2E2E2E2E2E2E2E2E2E2E2E2E2E2E2E2E2
310
E2E2E2E2E2E2E2E2E2E2E2E2E2E2E9E2E2E2E2E2E2E2E2E2E2E2E2E2E2E2E2E2E2E2E2E2E2E2E2E2E2E2E2E2E2E2E2E2E2E2E2E2E2E2E2E2E2E2E2E2E2E2E2E2E2E2E2E2E2E2E2E2E2E2E2E2E2E2E2E2E2E2E2E2E2E2E2E2E2E2E2E2E2E2E2E2E2E2E2E2E2E2E2F5E2E2E2E2E2E2E2E2E2E2E2E2E2E2E2E2E2E2E2E2E2E2E2
310
E2E2E2E2E2E2E2E2E2E2E2E2E2E2E2E2E2E2E2E2E2E2E2E2E2E2E2E2E2E2E2E2E2E2E2E2E2E2E2F5282828282828282828282828E2E228E2E2E2E2E2E2E2E228E2E2E2E2E2E2E2E2E2E2E2E2E2E2E2E2E2E2E2E2E2E2E2E2E2E2E2F5E2E2E2E2E2E2E2E2E2E2E2E2E2E2E2E2E2E2E2E2E2E2E2E2E2E2E2E2E2E2E2E2E2E2E2
310
E2E2E2E2E2E2E2E2E2E2E2E2E2E2E2E2E9E2E2E2E2E2E2E2E2E2E2E2E2E2E2E2E2E2E2E2E2E2E2E2E2E2E2E2E2E2E2E2E2E2E2E2E2E2E2E2E2E2E2E2E2E2E2E2E2E2E2E2E2E2E2E2E2E2E2E2E2E2E2E2E2E2E2E2E2E2E2E2E2E2E2E2E2E2E2E2E2E2E2E2E2E2E2E2E2F5E2E2E2E2E2E2E2E2E2E2E2E2E2E2E2E2E2E2E2E2E2
310
E2E2E2E2E2E2E2E2E2E2E2E2E2E2E2E2E2E2E2E2E2E2E2E2E2E2E2E2E2E2E2E2E2E2E2E2E2E2E2E2E2F5282828282828282828282828E2E228E2E2E2E2E2E2E2E228E2E2E2E2E2E2E2E2F5F5F5F5F5F5F5F5F5F5F5E2E2E2E2E2E2E2E2F5E2E2E2E2E2E2E2E2E2E2E2E2E2E2E2E2E2E2E2E2E2E2E2E2E2E2E2E2E2E2E2E2E2
310
E2E2E2E2E2E2E2E2E2E2E2E2E2E2E2E2E2E2E9E2E2E2E2E2E2E2E2E2E2E2E2E2E2E2E2E2E2E2E2E2E2E2E2E2E2E2E2E2E2E2E2E2E2E2E2E2E2E2E2E2E2E2E2E2E2E2E2E2E2E2E2E2E2E2E2E2E2E2E2E2E2E2E2E2E2E2E2E2E2E2E2E2E2E2E2E2E2E2E2E2E2E2E2E2E2E2E2F5E2E2E2E2E2E2E2E2E2E2E2E2E2E2E2E2E2E2E2
310
E2E2E2E2E2E2E2E2E2E2E2E2E2E2E2E2E2E2E2E2E2E2E2E2E2E2E2E2E2E2E2E2E2E2E2E2E2E2E2E2E2E2E2F5282828282828282828282828E2E2282828282828282828282828282828E2E2E2F5F5E2F5F5E2F5F5F5F5F5E2E2E2E2E2E2E2E2F5E2E2E2E2E2E2E2E2E2E2E2E2E2E2E2E2E2E2E2E2E2E2E2E2E2E2E2E2E2E2E2
310
E2E2E2E2E2E2E2E2E2E2E2E2E2E2E2E2E2E2E2E2E9E2E2E2E2E2E2E2E2E2E2E2E2E2E2E2E2E2E2E2E2E2E2E2E2E2E2E2E2E2E2E2E2E2E2E2E2E2E2E2E2E2E2E2E2E2E2E2E2E2E2E2E2E2E2E2E2E2E2E2E2E2E2E2E2E2E2E2E2E2E2E2E2E2E2E2E2E2E2E2E2E2E2E2E2E2E2E2E2F5E2E2E2E2E2E2E2E2E2E2E2E2E2E2E2E2E2
310
E2E2E2E2E2E2E2E2E2E2E2E2E2E2E2E2E2E2E2E2E2E2E2E2E2E2E2E2E2E2E2E2E2E2E2E2E2E2E2E2E2E2E2E2E22828282828282828282828282828282828282828282828282828282828282828282828282828282828282828282828282828282828E2E2E2E2E2E2E2E2E2E2E2E2E2E2E2E2E2E2E2E2E2E2E2E2E2E2E2E2E2
310
E2E2E2E2E2E2E2E2E2E2E2E2E2E2E2E2E2E2E2E2E2E2E9E2E2E2E2E2E2E2E2E2E2E2E2E2E2E2E2E2E2E2E2E2E2E2E2E2E2E2E2E2E2E2E2E2E2E2E2E2E2E2E2E2E2E2E2E2E2E2E2E2E2E2E2E2E2E2E2E2E2E2E2E2E2E2E2E2E2E2E2E2E2E2E2E2E2E2E2E2E2E2E2E2E2E2E2E2E2E2E2F5E2E2E2E2E2E2E2E2E2E2E2E2E2E2E2
310
E2E2E2E2E2E2E2E2E2E2E2E2E2E2E2E2E2E2E2E2E2E2E2E2E2E2E2E2E2E2E2E2E2E2E2E2E2E2E2E2E2E2E2E2E2E2E2F52828282828282828282828282828282828282828E2E22828E2E2E2E2E2E2E2E2E2E2E2E2E2E2E2E2E2E2E2E2E2E2E2E2E2E2E2F5E2E2E2E2E2E2E2E2E2E2E2E2E2E2E2E2E2E2E2E2E2E2E2E2E2E2E2
310
E2E2E2E2E2E2E2E2E2E2E2E2E2E2E2E2E2E2E2E2E2E2E2E2E9E2E2E2E2E2E2E2E2E2E2E2E2E2E2E2E2E2E2E2E2E2E2E2E2E2E2E2E2E2E2E2E2E2E2E2E2E2E2E2E2E2E2E2E2E2E2E2E2E2E2E2E2E2E2E2E2E2E2E2E2E2E2E2E2E2E2E2E2E2E2E2E2E2E2E2E2E2E2E2E2E2E2E2E2E2E2E2E2F5E2E2E2E2E2E2E2E2E2E2E2E2E2
310
E2E2E2E2E2E2E2E2E2E2E2E2E2E2E2E2E2E2E2E2E2E2E2E2E2E2E2E2E2E2E2E2E2E2E2E2E2E2E2E2E2E2E2E2E2E2E2E2E2F5282828282828282828282828282828282828282828BEBE28E2E2E2E2E2E2E2E2E2F5F5F5F5F5F5F5F5E2E2E2E2E2E2E2E2E2E2F5E2E2E2E2E2E2E2E2E2E2E2E2E2E2E2E2E2E2E2E2E2E2E2E2E2
310
E2E2E2E2E2E2E2E2E2E2E2E2E2E2E2E2E2E2E2E2E2E2E2E2E2E2E9E2E2E2E2E2E2E2E2E2E2E2E2E2E2E2E2E2E2E2E2E2E2E2E2E2E2E2E2E2E2E2E2E2E2E2E2E2E2E2E2E2E2E2E2E2E2E2E2E2E2E2E2E2E2E2E2E2E2E2E2E2E2E2E2E2E2E2E2E2E2E2E2E2E2E2E2E2E2E2E2E2E2E2E2E2E2E2E2F5E2E2E2E2E2E2E2E2E2E2E2
310
E2E2E2E2E2E2E2E2E2E2E2E2E2E2E2E2E2E2E2E2E2E2E2E2E2E2E2E2E2E2E2E2E2E2E2E2E2E2E2E2E2E2E2E2E2E2E2E2E2E2E2F52828282828282828282828282828282828282828E2E22828282828282828282828F5F5F5F5F5F5F5F5E2E2E2E2E2E2E2E2E2E2F5E2E2E2E2E2E2E2E2E2E2E2E2E2E2E2E2E2E2E2E2E2E2E2
310
E2E2E2E2E2E2E2E2E2E2E2E2E2E2E2E2E2E2E2E2E2E2E2E2E2E2E2E2E9E2E2E2E2E2E2E2E2E2E2E2E2E2E2E2E2E2E2E2E2E2E2E2E2E2E2E2E2E2E2E2E2E2E2E2E2E2E2E2E2E2E2E2E2E2E2E2E2E2E2E2E2E2E2E2E2E2E2E2E2E2E2E2E2E2E2E2E2E2E2E2E2E2E2E2E2E2E2E2E2E2E2E2E2E2E2E2E2F5E2E2E2E2E2E2E2E2E2
310
E2E2E2E2E2E2E2E2E2E2E2E2E2E2E2E2E2E2E2E2E2E2E2E2E2E2E2E2E2E2E2E2E2E2E2E2E2E2E2E2E2E2E2E2E2E2E2E2E2E2E2E2E2F528282828282828282828282828282828282828282828282828282828282828282828282828282828282828282828282828282828E2E2E2E2E2E2E2E2E2E2E2E2E2E2E2E2E2E2E2E2E2
310
E2E2E2E2E2E2E2E2E2E2E2E2E2E2E2E2E2E2E2E2E2E2E2E2E2E2E2E2E2E2E9E2E2E2E2E2E2E2E2E2E2E2E2E2E2E2E2E2E2E2E2E2E2E2E2E2E2E2E2E2E2E2E2E2E2E2E2E2E2E2E2E2E2E2E2E2E2E2E2E2E2E2E2E2E2E2E2E2E2E2E2E2E2E2E2E2E2E2E2E2E2E2E2E2E2E2E2E2E2E2E2E2E2E2E2E2E2E2E2F5E2E2E2E2E2E2E2
310
E2E2E2E2E2E2E2E2E2E2E2E2E2E2E2E2E2E2E2E2E2E2E2E2E2E2E2E2E2E2E2E2E2E2E2E2E2E2E2E2E2E2E2E2E2E2E2E2E2E2E2E2E2E2E2F52828282828282828282828282828282828E2282828282828E2E2E2E2E2E2E2E2E2F5F5F5F5F5F5F5F5E2E2E2E2E2E2E2E2E2E2F5E2E2E2E2E2E2E2E2E2E2E2E2E2E2E2E2E2E2E2
310
E2E2E2E2E2E2E2E2E2E2E2E2E2E2E2E2E2E2E2E2E2E2E2E2E2E2E2E2E2E2E2E2E9E2E2E2E2E2E2E2E2E2E2E2E2E2E2E2E2E2E2E2E2E2E2E2E2E2E2E2E2E2E2E2E2E2E2E2E2E2E2E2E2E2E2E2E2E2E2E2E2E2E2E2E2E2E2E2E2E2E2E2E2E2E2E2E2E2E2E2E2E2E2E2E2E2E2E2E2E2E2E2E2E2E2E2E2E2E2E2E2F5E2E2E2E2E2
310
E2E2E2E2E2E2E2E2E2E2E2E2E2E2E2E2E2E2E2E2E2E2E2E2E2E2E2E2E2E2E2E2E2E2E2E2E2E2E2E2E2E2E2E2E2E2E2E2E2E2E2E2E2E2E2E2E2F5282828282828282828282828282828282828282828282828282828282828E2E2E2F5F5F5F5F5F5F5F5E2E2E2E2E2E2E2E2E2E2F5E2E2E2E2E2E2E2E2E2E2E2E2E2E2E2E2E2
310
E2E2E2E2E2E2E2E2E2E2E2E2E2E2E2E2E2E2E2E2E2E2E2E2E2E2E2E2E2E2E2E2E2E2E9E2E2E2E2E2E2E2E2E2E2E2E2E2E2E2E2E2E2E2E2E2E2E2E2E2E2E2E2E2E2E2E2E2E2E2E2E2E2E2E2E2E2E2E2E2E2E2E2E2E2E2E2E2E2E2E2E2E2E2E2E2E2E2E2E2E2E2E2E2E2E2E2E2E2E2E2E2E2E2E2E2E2E2E2E2E2E2E2F5E2E2E2
310
E2E2E2E2E2E2E2E2E2E2E2E2E2E2E2E2E2E2E2E2E2E2E2E2E2E2E2E2E2E2E2E2E2E2E2E2E2E2E2E2E2E2E2E2E2E2E2E2E2E2E2E2E2E2E2E2E2E2E2F5F5F5F5F5F5F52828282828F52828282828F5F5F5F5F5F5F5F5F5F5F5F5F5F5F5F5F5F5F5F5F5F5F5F5F5F5F5F5F5F5F5F5F5F5F5E2E2E2E2E2E2E2E2E2E2E2E2E2E2E2
310
E2E2E2E2E2E2E2E2E2E2E2E2E2E2E2E2E2E2E2E2E2E2E2E2E2E2E2E2E2E2E2E2E2E2E2E2E9E2E2E2E2E2E2E2E2E2E2E2E2E2E2E2E2E2E2E2E2E2E2E2E2E2E2E2E2E2E2E2E2E2E2E2E2E2E2E2E2E2E2E2E2E2E2E2E2E2E2E2E2E2E2E2E2E2E2E2E2E2E2E2E2E2E2E2E2E2E2E2E2E2E2E2E2E2E2E2E2E2E2E2E2E2E2E2E2F5E2
310
E2E2E2E2E2E2E2E2E2E2E2E2E2E2E2E2E2E2E2E2E2E2E2E2E2E2E2E2E2E2E2E2E2E2E2E2E2E2E2E2E2E2E2E2E2E2E2E2E2E2E2E2E2E2E2E2E2E2E2E2E2E2E2E2E2E2E2E2E2E2E2E2E2E2E2E2E2E2E2E2E2E2E2E2E2E2E2E2E2E2E2E2E2E2E2E2E2E2E2E2E2E2E2E2E2E2E2E2E2E2E2E2E2F5E2E2E2E2E2E2E2E2E2E2E2E2E2
310
E2E2E2E2E2E2E2E2E2E2E2E2E2E2E2E2E2E2E2E2E2E2E2E2E2E2E2E2E2E2E2E2E2E2E2E2E2E2E9E2E2E2E2E2E2E2E2E2E2E2E2E2E2E2E2E2E2E2E2E2E2E2E2E2E2E2E2E2E2E2E2E2E2E2E2E2E2E2E2E2E2E2E2E2E2E2E2E2E2E2E2E2E2E2E2E2E2E2E2E2E2E2E2E2E2E2E2E2E2E2E2E2E2E2E2E2E2E2E2E2E2E2E2E2E2E2E2
310
F5E2E2E2E2E2E2E2E2E2E2E2E2E2E2E2E2E2E2E2E2E2E2E2E2E2E2E2E2E2E2E2E2E2E2E2E2E2E2E2E2E2E2E2E2E2E2E2E2E2E2E2E2E2E2E2E2E2E2E2E2E2E2E2E2E2E2E2E2E2E2E2E2E2E2E2E2E2E2E2E2E2E2E2E2E2E2E2E2E2E2E2E2E2E2E2E2E2E2E2E2E2E2E2E2E2E2E2E2E2E2E2E2E2E2F5E2E2E2E2E2E2E2E2E2E2E2
310
E2E2E2E2E2E2E2E2E2E2E2E2E2E2E2E2E2E2E2E2E2E2E2E2E2E2E2E2E2E2E2E2E2E2E2E2E2E2E2E2E9E2E2E2E2E2E2E2E2E2E2E2E2E2E2E2E2E2E2E2E2E2E2E2E2E2E2E2E2E2E2E2E2E2E2E2E2E2E2E2E2E2E2E2E2E2E2E2E2E2E2E2E2E2E2E2E2E2E2E2E2E2E2E2E2E2E2E2E2E2E2E2E2E2E2E2E2E2E2E2E2E2E2E2E2E2E2
310
E2E2F5E2E2E2E2E2E2E2E2E2E2E2E2E2E2E2E2E2E2E2E2E2E2E2E2E2E2E2E2E2E2E2E2E2E2E2E2E2E2E2E2E2E2E2E2E2E2E2E2E2E2E2E2E2E2E2E2E2E2E2E2E2E2E2E2E2E2E2E2E2E2E2E2E2E2E2E2E2E2E2E2E2E2E2E2E2E2E2E2E2E2E2E2E2E2E2E2E2E2E2E2E2E2E2E2E2E2E2E2E2E2E2E2E2E2F5E2E2E2E2E2E2E2E2E2
310
E2E2E2E2E2E2E2E2E2E2E2E2E2E2E2E2E2E2E2E2E2E2E2E2E2E2E2E2E2E2E2E2E2E2E2E2E2E2E2E2E2E2E9E2E2E2E2E2E2E2E2E2E2E2E2E2E2E2E2E2E2E2E2E2E2E2E2E2E2E2E2E2E2E2E2E2E2E2E2E2E2E2E2E2E2E2E2E2E2E2E2E2E2E2E2E2E2E2E2E2E2E2E2E2E2E2E2E2E2E2E2E2E2E2E2E2E2E2E2E2E2E2E2E2E2E2E2
310
E2E2E2E2F5E2E2E2E2E2E2E2E2E2E2E2E2E2E2E2E2E2E2E2E2E2E2E2E2E2E2E2E2E2E2E2E2E2E2E2E2E2E2E2E2E2E2E2E2E2E2E2E2E2E2E2E2E2E2E2E2E2E2E2E2E2E2E2E2E2E2E2E2E2E2E2E2E2E2E2E2E2E2E2E2E2E2E2E2E2E2E2E2E2E2E2E2E2E2E2E2E2E2E2E2E2E2E2E2E2E2E2E2E2E2E2E2E2E2F5E2E2E2E2E2E2E2
310
E2E2E2E2E2E2E2E2E2E2E2E2E2E2E2E2E2E2E2E2E2E2E2E2E2E2E2E2E2E2E2E2E2E2E2E2E2E2E2E2E2E2E2E2E9E2E2E2E2E2E2E2E2E2E2E2E2E2E2E2E2E2E2E2E2E2E2E2E2E2E2E2E2E2E2E2E2E2E2E2E2E2E2E2E2E2E2E2E2E2E2E2E2E2E2E2E2E2E2E2E2E2E2E2E2E2E2E2E2E2E2E2E2E2E2E2E2E2E2E2E2E2E2E2E2E2E2
310
E2E2E2E2E2E2F5E2E2E2E2E2E2E2E2E2E2E2E2E2E2E2E2E2E2E2E2E2E2E2E2E2E2E2E2E2E2E2E2E2E2E2E2E2E2E2E2E2E2E2E2E2E2E2E2E2E2E2E2E2E2E2E2E2E2E2E2E2E2E2E2E2E2E2E2E2E2E2E2E2E2E2E2E2E2E2E2E2E2E2E2E2E2E2E2E2E2E2E2E2E2E2E2E2E2E2E2E2E2E2E2E2E2E2E2E2E2E2E2E2E2F5E2E2E2E2E2
310
E2E2E2E2E2E2E2E2E2E2E2E2E2E2E2E2E2E2E2E2E2E2E2E2E2E2E2E2E2E2E2E2E2E2E2E2E2E2E2E2E2E2E2E2E2E2E9E2E2E2E2E2E2E2E2E2E2E2E2E2E2E2E2E2E2E2E2E2E2E2E2E2E2E2E2E2E2E2E2E2E2E2E2E2E2E2E2E2E2E2E2E2E2E2E2E2E2E2E2E2E2E2E2E2E2E2E2E2E2E2E2E2E2E2E2E2E2E2E2E2E2E2E2E2E2E2E2
310
E2E2E2E2E2E2E2E2F5E2E2E2E2E2E2E2E2E2E2E2E2E2E2E2E2E2E2E2E2E2E2E2E2E2E2E2E2E2E2E2E2E2E2E2E2E2E2E2E2E2E2E2E2E2E2E2E2E2E2E2E2E2E2E2E2E2E2E2E2E2E2E2E2E2E2E2E2E2E2E2E2E2E2E2E2E2E2E2E2E2E2E2E2E2E2E2E2E2E2E2E2E2E2E2E2E2E2E2E2E2E2E2E2E2E2E2E2E2E2E2E2E2E2F5E2E2E2
310
E2E2E2E2E2E2E2E2E2E2E2E2E2E2E2E2E2E2E2E2E2E2E2E2E2E2E2E2E2E2E2E2E2E2E2E2E2E2E2E2E2E2E2E2E2E2E2E2E9E2E2E2E2E2E2E2E2E2E2E2E2E2E2E2E2E2E2E2E2E2E2E2E2E2E2E2E2E2E2E2E2E2E2E2E2E2E2E2E2E2E2E2E2E2E2E2E2E2E2E2E2E2E2E2E2E2E2E2E2E2E2E2E2E2E2E2E2E2E2E2E2E2E2E2E2E2E2
310
E2E2E2E2E2E2E2E2E2E2F5E2E2E2E2E2E2E2E2E2E2E2E2E2E2E2E2E2E2E2E2E2E2E2E2E2E2E2E2E2E2E2E2E2E2E2E2E2E2E2E2E2E2E2E2E2E2E2E2E2E2E2E2E2E2E2E2E2E2E2E2E2E2E2E2E2E2E2E2E2E2E2E2E2E2E2E2E2E2E2E2E2E2E2E2E2E2E2E2E2E2E2E2E2E2E2E2E2E2E2E2E2E2E2E2E2E2E2E2E2E2E2E2E2E2F5E2
310
E2E2E2E2E2E2E2E2E2E2E2E2E2E2E2E2E2E2E2E2E2E2E2E2E2E2E2E2E2E2E2E2E2E2E2E2E2E2E2E2E2E2E2E2E2E2E2E2E2E2E9E2E2E2E2E2E2E2E2E2E2E2E2E2E2E2E2E2E2E2E2E2E2E2E2E2E2E2E2E2E2E2E2E2E2E2E2E2E2E2E2E2E2E2E2E2E2E2E2E2E2E2E2E2E2E2E2E2E2E2E2E2E2E2E2E2E2E2E2E2E2E2E2E2E2E2E2
310
E2E2E2E2E2E2E2E2E2E2E2E2F5E2E2E2E2E2E2E2E2E2E2E2E2E2E2E2E2E2E2E2E2E2E2E2E2E2E2E2E2E2E2E2E2E2E2E2E2E2E2E2E2E2E2E2E2E2E2E2E2E2E2E2E2E2E2E2E2E2E2E2E2E2E2E2E2E2E2E2E2E2E2E2E2E2E2E2E2E2E2E2E2E2E2E2E2E2E2E2E2E2E2E2E2E2E2E2E2E2E2E2E2E2E2E2E2E2E2E2E2E2E2E2E2E2E2
310
F5E2E2E2E2E2E2E2E2E2E2E2E2E2E2E2E2E2E2E2E2E2E2E2E2E2E2E2E2E2E2E2E2E2E2E2E2E2E2E2E2E2E2E2E2E2E2E2E2E2E2E2E9E2E2E2E2E2E2E2E2E2E2E2E2E2E2E2E2E2E2E2E2E2E2E2E2E2E2E2E2E2E2E2E2E2E2E2E2E2E2E2E2E2E2E2E2E2E2E2E2E2E2E2E2E2E2E2E2E2E2E2E2E2E2E2E2E2E2E2E2E2E2E2E2E2E2
310
E2E2E2E2E2E2E2E2E2E2E2E2E2E2F5E2E2E2E2E2E2E2E2E2E2E2E2E2E2E2E2E2E2E2E2E2E2E2E2E2E2E2E2E2E2E2E2E2E2E2E2E2E2E2E2E2E2E2E2E2E2E2E2E2E2E2E2E2E2E2E2E2E2E2E2E2E2E2E2E2E2E2E2E2E2E2E2E2E2E2E2E2E2E2E2E2E2E2E2E2E2E2E2E2E2E2E2E2E2E2E2E2E2E2E2E2E2E2E2E2E2E2E2E2E2E2E2
310
E2E2F5E2E2E2E2E2E2E2E2E2E2E2E2E2E2E2E2E2E2E2E2E2E2E2E2E2E2E2E2E2E2E2E2E2E2E2E2E2E2E2E2E2E2E2E2E2E2E2E2E2E2E2E9E2E2E2E2E2E2E2E2E2E2E2E2E2E2E2E2E2E2E2E2E2E2E2E2E2E2E2E2E2E2E2E2E2E2E2E2E2E2E2E2E2E2E2E2E2E2E2E2E2E2E2E2E2E2E2E2E2E2E2E2E2E2E2E2E2E2E2E2E2E2E2E2
310
E2E2E2E2E2E2E2E2E2E2E2E2E2E2E2E2F5E2E2E2E2E2E2E2E2E2E2E2E2E2E2E2E2E2E2E2E2E2E2E2E2E2E2E2E2E2E2E2E2E2E2E2E2E2E2E2E2E2E2E2E2E2E2E2E2E2E2E2E2E2E2E2E2E2E2E2E2E2E2E2E2E2E2E2E2E2E2E2E2E2E2E2E2E2E2E2E2E2E2E2E2E2E2E2E2E2E2E2E2E2E2E2E2E2E2E2E2E2E2E2E2E2E2E2E2E2E2
310
E2E2E2E2F5E2E2E2E2E2E2E2E2E2E2E2E2E2E2E2E2E2E2E2E2E2E2E2E2E2E2E2E2E2E2E2E2E2E2E2E2E2E2E2E2E2E2E2E2E2E2E2E2E2E2E2E9E2E2E2E2E2E2E2E2E2E2E2E2E2E2E2E2E2E2E2E2E2E2E2E2E2E2E2E2E2E2E2E2E2E2E2E2E2E2E2E2E2E2E2E2E2E2E2E2E2E2E2E2E2E2E2E2E2E2E2E2E2E2E2E2E2E2E2E2E2E2
310
E2E2E2E2E2E2E2E2E2E2E2E2E2E2E2E2E2E2F5E2E2E2E2E2E2E2E2E2E2E2E2E2E2E2E2E2E2E2E2E2E2E2E2E2E2E2E2E2E2E2E2E2E2E2E2E2E2E2E2E2E2E2E2E2E2E2E2E2E2E2E2E2E2E2E2E2E2E2E2E2E2E2E2E2E2E2E2E2E2E2E2E2E2E2E2E2E2E2E2E2E2E2E2E2E2E2E2E2E2E2E2E2E2E2E2E2E2E2E2E2E2E2E2E2E2E2E2
310
E2E2E2E2E2E2F5E2E2E2E2E2E2E2E2E2E2E2E2E2E2E2E2E2E2E2E2E2E2E2E2E2E2E2E2E2E2E2E2E2E2E2E2E2E2E2E2E2E2E2E2E2E2E2E2E2E2E2E9E2E2E2E2E2E2E2E2E2E2E2E2E2E2E2E2E2E2E2E2E2E2E2E2E2E2E2E2E2E2E2E2E2E2E2E2E2E2E2E2E2E2E2E2E2E2E2E2E2E2E2E2E2E2E2E2E2E2E2E2E2E2E2E2E2E2E2E2
310
E2E2E2E2E2E2E2E2E2E2E2E2E2E2E2E2E2E2E2E2F5E2E2E2E2E2E2E2E2E2E2E2E2E2E2E2E2E2E2E2E2E2E2E2E2E2E2E2E2E2E2E2E2E2E2E2E2E2E2E2E2E2E2E2E2E2E2E2E2E2E2E2E2E2E2E2E2E2E2E2E2E2E2E2E2E2E2E2E2E2E2E2E2E2E2E2E2E2E2E2E2E2E2E2E2E2E2E2E2E2E2E2E2E2E2E2E2E2E2E2E2E2E2E2E2E2E2
310
E2E2E2E2E2E2E2E2F5E2E2E2E2E2E2E2E2E2E2E2E2E2E2E2E2E2E2E2E2E2E2E2E2E2E2E2E2E2E2E2E2E2E2E2E2E2E2E2E2E2E2E2E2E2E2E2E2E2E2E2E9E2E2E2E2E2E2E2E2E2E2E2E2E2E2E2E2E2E2E2E2E2E2E2E2E2E2E2E2E2E2E2E2E2E2E2E2E2E2E2E2E2E2E2E2E2E2E2E2E2E2E2E2E2E2E2E2E2E2E2E2E2E2E2E2E2E2
310
E2E2E2E2E2E2E2E2E2E2E2E2E2E2E2E2E2E2E2E2E2E2F5E2E2E2E2E2E2E2E2E2E2E2E2E2E2E2E2E2E2E2E2E2E2E2E2E2E2E2E2E2E2E2E2E2E2E2E2E2BEE2E2E2E2E2E2E2E2E2E2E2E2E2E2E2E2E2E2E2E2E2E2E2E2E2E2E2E2E2E2E2E2E2E2E2E2E2E2E2E2E2E2E2E2E2E2E2E2E2E2E2E2E2E2E2E2E2E2E2E2E2E2E2E2E2E2
310
E2E2E2E2E2E2E2E2E2E2F5E2E2E2E2E2E2E2E2E2E2E2E2E2E2E2E2E2E2E2E2E2E2E2E2E2E2E2E2E2E2E2E2E2E2E2E2E2E2E2E2E2E2E2E2E2E2E2E2E2E2E2E9E2E2E2E2E2E2E2E2E2E2E2E2E2E2E2E2E2E2E2E2E2E2E2E2E2E2E2E2E2E2E2E2E2E2E2E2E2E2E2E2E2E2E2E2E2E2E2E2E2E2E2E2E2E2E2E2E2E2E2E2E2E2E2E2
310
E2E2E2E2E2E2E2E2E2E2E2E2E2E2E2E2E2E2E2E2E2E2E2E2F5E2E2E2E2E2E2E2E2E2E2E2E2E2E2E2E2E2E2E2E2E2E2E2E2E2E2E2E2E2E2E2E2E2E2E2E2E2BEE2E2E2E2E2E2E2E2E2E2E2E2E2E2E2E2E2E2E2E2E2E2E2E2E2E2E2E2E2E2E2E2E2E2E2E2E2E2E2E2E2E2E2E2E2E2E2E2E2E2E2E2E2E2E2E2E2E2E2E2E2E2E2E2
310
E2E2E2E2E2E2E2E2E2E2E2E2F5E2E2E2E2E2E2E2E2E2E2E2E2E2E2E2E2E2E2E2E2E2E2E2E2E2E2E2E2E2E2E2E2E2E2E2E2E2E2E2E2E2E2E2E2E2E2E2E2E2E2E2E9E2E2E2E2E2E2E2E2E2E2E2E2E2E2E2E2E2E2E2E2E2E2E2E2E2E2E2E2E2E2E2E2E2E2E2E2E2E2E2E2E2E2E2E2E2E2E2E2E2E2E2E2E2E2E2E2E2E2E2E2E2E2
310
E2E2E2E2E2E2E2E2E2E2E2E2E2E2E2E2E2E2E2E2E2E2E2E2E2E2F5E2E2E2E2E2E2E2E2E2E2E2E2E2E2E2E2E2E2E2E2E2E2E2E2F5F5F5F5F5F5F5F5F5F5F5F5F5BEF5F5F5F5F5F5F5F5F5F5F5F5F5F5E2E2E2E2E2E2E2E2E2E2E2E2E2E2E2E2E2E2E2E2E2E2E2E2F5F5F5F5F5F5F5F5F5F5F5F5E2E2E2E2E2E2E2E2E2E2E2E2
310
E2E2E2E2E2E2E2E2E2E2E2E2E2E2F5E2E2E2E2E2E2E2E2E2E2E2E2E2E2E2E2E2E2E2E2E2E2E2E2E2E2E2E2E2E2E2E2E2E2E2E2E2E2E2E2E2E2E2E2E2E2E2E2E2E2E2E9E2E2E2E2E2E2E2E2E2E2E2E2E2E2E2E2E2E2E2E2E2E2E2E2E2E2E2E2E2E2E2E2E2E2E2E2E2E2E2E2E2E2E2E2E2E2E2E2E2E2E2E2E2E2E2E2E2E2E2E2
310
E2E2E2E2E2E2E2E2E2E2E2E2E2E2E2E2E2E2E2E2E2E2E2E2E2E2E2E2F5E2E2E2E2E2E2E2E2E2E2E2E2E2E2E2E2E2E2E2E2E2E2E2E2F5BEF5BEE2E2E2E2E2F5F5F5F5F5F5F5F5F5F5E2E2E2E2BEF5F5BEF5E2E2E2E2E2E2E2E2E2E2E2E2E2E2F56D6D6D6D6D6D6D6DF5F5E2E2E2E2E2E2E2E2E2E2F5E2E2E2E2E2E2E2E2E2E2
310
E2E2E2E2E2E2E2E2E2E2E2E2E2E2E2E2F5E2E2E2E2E2E2E2E2E2E2E2E2E2E2E2E2E2E2E2E2E2E2E2E2E2E2E2E2E2E2E2E2E2E2E2E2E2E2E2E2E2E2E2E2E2E2E2E2E2E2E2E9E2E2E2E2E2E2E2E2E2E2E2E2E2E2E2E2E2E2E2E2E2E2E2E2E2E2E2E2E2E2E2E2E2E2E2E2E2E2E2E2E2E2E2E2E2E2E2E2E2E2E2E2E2E2E2E2E2E2
310
E2E2E2E2E2E2E2E2E2E2E2E2E2E2E2E2E2E2E2E2E2E2E2E2E2E2E2E2E2E2F5E2E2E2E2E2E2E2E2E2E2E2E2E2E2E2E2E2E2E2E2E2E2E2E2F5F5BEBEE2E2E2F5F5E2E2E2E2BEE2E2E2E2F5F5F5E2E2F5F5F5E2F5E2E2E2E2E2E2E2E2E2E2E2E2E2E26DE2E2E2E2E2E2E2E2F5F5E2E2E2E2E2E2E2E2E2E2F5E2E2E2E2E2E2E2E2
310
E2E2E2E2E2E2E2E2E2E2E2E2E2E2E2E2E2E2F5E2E2E2E2E2E2E2E2E2E2E2E2E2E2E2E2E2E2E2E2E2E2E2E2E2E2E2E2E2E2E2E2E2E2E2E2E2E2E2E2E2E2E2E2E2E2E2E2E2E2E2E9E2E2E2E2E2E2E2E2E2E2E2E2E2E2E2E2E2E2E2E2E2E2E2E2E2E2E2E2E2E2E2E2E2E2E2E2E2E2E2E2E2E2E2E2E2E2E2E2E2E2E2E2E2E2E2E2
310
E2E2E2E2E2E2E2E2E2E2E2E2E2E2E2E2E2E2E2E2E2E2E2E2E2E2E2E2E2E2E2E2F5E2E2E2E2E2E2E2E2E2E2E2E2E2E2E2E2E2E2E2E2E2E2E2E2F5BEBEF5E2F5F5E2E2E2E2E2E2BEE2E2E2E2E2E2F5F5E2BEF5F5E2F5E2E2E2E2E2E2E2E2E2E2E2E2E2E26DE2E2E2E2E2E2E2E2F5F5E2E2E2E2E2E2E2E2E2E2F5E2E2E2E2E2E2
310
E2E2E2E2E2E2E2E2E2E2E2E2E2E2E2E2E2E2E2E2F5E2E2E2E2E2E2E2E2E2E2E2E2E2E2E2E2E2E2E2E2E2E2E2E2E2E2E2E2E2E2E2E2E2E2E2E2E2E2E2E2E2E2E2E2E2E2E2E2E2E2E2E9E2E2E2E2E2E2E2E2E2E2E2E2E2E2E2E2E2E2E2E2E2E2E2E2E2E2E2E2E2E2E2E2E2E2E2E2E2E2E2E2E2E2E2E2E2E2E2E2E2E2E2E2E2E2
310
E2E2E2E2E2E2E2E2E2E2E2E2E2E2E2E2E2E2E2E2E2E2E2E2E2E2E2E2E2E2E2E2E2E2F5E2E2E2E2E2E2E2E2E2E2E2E2E2E2E2E2E2E2E2E2E2E2E2E2F5BE6DE2F5F5E2E2E2E2E2E2E2E2E2E2E2E2E2E2E2E2F5F5E2E2E2F5E2E2E2E2E2E2E2E2E2E2E2E2E2E26DE2E2E2E2E2E2E2E2F5F5E2E2E2E2E2E2E2E2E2E2F5E2E2E2E2
310
E2E2E2E2E2E2E2E2E2E2E2E2E2E2E2E2E2E2E2E2E2E2F5E2E2E2E2E2E2E2E2E2E2E2E2E2E2E2E2E2E2E2E2E2E2E2E2E2E2E2E2E2E2E2E2E2E2E2E2E2E2E2E2E2E2E2E2E2E2E2E2E2E2E2E9E2E2E2E2E2E2E2E2E2E2E2E2E2E2E2E2E2E2E2E2E2E2E2E2E2E2E2E2E2E2E2E2E2E2E2E2E2E2E2E2E2E2E2E2E2E2E2E2E2E2E2E2
310
E2E2E2E2E2E2E2E2E2E2E2E2E2E2E2E2E2E2E2E2E2E2E2E2E2E2E2E2E2E2E2E2E2E2E2E2F5E2E2E2E2E2E2E2E2E2E2E2E2E2E2E2E2E2E2E2E2E2E2E2E2F5E2E2F5F5E2E2E2E2E2E2E2E2BEE2E2E2E2E2E2E2E2E2F5E2E2E2F5E2E2E2E2E2E2E2E2E2E2E2E2E2E26DE2E2E2E2E2E2E2E2F5F5E2E2E2E2E2E2E2E2E2E2F5E2E2
310
E2E2E2E2E2E2E2E2E2E2E2E2E2E2E2E2E2E2E2E2E2E2E2E2F5E2E2E2E2E2E2E2E2E2E2E2E2E2E2E2E2E2E2E2E2E2E2E2E2E2E2E2E2E2E2E2E2E2E2E2E2E2E2E2E2E2E2E2E2E2E2E2E2E2E2E2E9E2E2E2E2E2E2E2E2E2E2E2E2E2E2E2E2E2E2E2E2E2E2E2E2E2E2E2E2E2E2E2E2E2E2E2E2E2E2E2E2E2E2E2E2E2E2E2E2E2E2
310
E2E2E2E2E2E2E2E2E2E2E2E2E2E2E2E2E2E2E2E2E2E2E2E2E2E2E2E2E2E2E2E2E2E2E2E2E2E2F5E2E2E2E2E2E2E2E2E2E2E2E2E2E2E2E2E2E2E2E2E2E2E2E2F5E2E2F56D6DE2E2E2E2E2E2E2BEE2E2E2E2E2E2E2E2E2F5F5E2E2F5E2E2E2E2E2E2E2E2E2E2E2E2E2E26DE2E2E2E2E2E2E2E2F5F5E2E2E2E2E2E2E2E2E2E2F5
310
E2E2E2E2E2E2E2E2E2E2E2E2E2E2E2E2E2E2E2E2E2E2E2E2E2E2F5E2E2E2E2E2E2E2E2E2E2E2E2E2E2E2E2E2E2E2E2E2E2E2E2E2E2E2E2E2E2E2E2E2E2E2E2E2E2E2E2E2E2E2E2E2E2E2E2E2E2E2E9E2E2E2E2E2E2E2E2E2E2E2E2E2E2E2E2E2E2E2E2E2E2E2E2E2E2E2E2E2E2E2E2E2E2E2E2E2E2E2E2E2E2E2E2E2E2E2E2
310
E2E2E2E2E2E2E2E2E2E2E2E2E2E2E2E2E2E2E2E2E2E2E2E2E2E2E2E2E2E2E2E2E2E2E2E2E2E2E2E2F5E2E2E2E2E2E2E2E2E2E2E2E2E2E2E2E2E2E2E2E2E2E2E2E2F5E2F5E2E2E26DE2E2E2E2E2E2E2E2E2E2E2E2E2E2E2E2E2F5F5E2F5E2E2E2E2E2E2E2E2E2E2E2E2E2E26DE2E2E2E2E2E2E2E2F5F5E2E2E2E2E2E2E2E2E2
310
E2F5E2E2E2E2E2E2E2E2E2E2E2E2E2E2E2E2E2E2E2E2E2E2E2E2E2E2F5E2E2E2E2E2E2E2E2E2E2E2E2E2E2E2E2E2E2E2E2E2E2E2E2E2E2E2E2E2E2E2E2E2E2E2E2E2E2E2E2E2E2E2E2E2E2E2E2E2E2E2E9E2E2E2E2E2E2E2E2E2E2E2E2E2E2E2E2E2E2E2E2E2E2E2E2E2E2E2E2E2E2E2E2E2E2E2E2E2E2E2E2E2E2E2E2E2E2
310
E2E2E2E2E2E2E2E2E2E2E2E2E2E2E2E2E2E2E2E2E2E2E2E2E2E2E2E2E2E2E2E2E2E2E2E2E2E2E2E2E2E2F5E2E2E2E2E2E2E2E2E2E2E2E2E2E2E2E2E2E2E2E2E2E2E2E2F5E2F5E2E2E2E26DE2E2E2E2E2BEE2E2E2E2E2E2E2E2E2E2E2F5E2F5E2E2E2E2E2E2E2E2E2E2E2E2E2E26DE2E2E2E2E2E2E2E2F5F5E2E2E2E2E2E2E2
310
E2E2E2F5E2E2E2E2E2E2E2E2E2E2E2E2E2E2E2E2E2E2E2E2E2E2E2E2E2E2F5E2E2E2E2E2E2E2E2E2E2E2E2E2E2E2E2E2E2E2E2E2E2E2E2E2E2E2E2E2E2E2E2E2E2E2E2E2E2E2E2E2E2E2E2E2E2E2E2E2E2E2E9E2E2E2E2E2E2E2E2E2E2E2E2E2E2E2E2E2E2E2E2E2E2E2E2E2E2E2E2E2E2E2E2E2E2E2E2E2E2E2E2E2E2E2E2
310
E2E2E2E2E2E2E2E2E2E2E2E2E2E2E2E2E2E2E2E2E2E2E2E2E2E2E2E2E2E2E2E2E2E2E2E2E2E2E2E2E2E2E2E2F5E2E2E2E2E2E2E2E2E2E2E2E2E2E2E2E2E2E2E2E2E2E2E2E2F5F5F5E2E2E2E2E26DE2E2E2E2BEE2E2E2E2E2E2E2E2E2E2E2F5E2F5E2E2E2E2E2E2E2E2E2E2E2E228286DE2E2E2E2E2E2E2E2F5F5E2E2E2E2E2
310
E2E2E2E2E2F5E2E2E2E2E2E2E2E2E2E2E2E2E2E2E2E2E2E2E2E2E2E2E2E2E2E2F5E2E2E2E2E2E2E2E2E2E2E2E2E2E2E2E2E2E2E2E2E2E2E2E2E2E2E2E2E2E2E2E2E2E2E2E2E2E2E2E2E2E2E2E2E2E2E2E2E2E2E2E9E2E2E2E2E2E2E2E2E2E2E2E2E2E2E2E2E2E2E2E2E2E2E2E2E2E2E2E2E2E2E2E2E2E2E2E2E2E2E2E2E2E2
310
E2E2E2E2E2E2E2E2E2E2E2E2E2E2E2E2E2E2E2E2E2E2E2E2E2E2E2E2E2E2E2E2E2E2E2E2E2E2E2E2E2E2E2E2E2E2F5E2E2E2E2E2E2E2E2E2E2E2E2E2E2E2E2E2E2E2E2E2E2E2E2F5F5E2E2E2E2E2E2E26DE2E2E2BEE2E2E2E2E2E2E2E2E2E2E2F5F5F5E2E2E2E2E2E2E2E2E2E2E2E228286DE2E2E2E2E2E2E2E2F5F5E2E2E2
310
E2E2E2E2E2E2E2F5E2E2E2E2E2E2E2E2E2E2E2E2E2E2E2E2E2E2E2E2E2E2E2E2E2E2F5E2E2E2E2E2E2E2E2E2E2E2E2E2E2E2E2E2E2E2E2E2E2E2E2E2E2E2E2E2E2E2E2E2E2E2E2E2E2E2E2E2E2E2E2E2E2E2E2E2E2E2E9E2E2E2E2E2E2E2E2E2E2E2E2E2E2E2E2E2E2E2E2E2E2E2E2E2E2E2E2E2E2E2E2E2E2E2E2E2E2E2E2
310
E2E2E2E2E2E2E2E2E2E2E2E2E2E2E2E2E2E2E2E2E2E2E2E2E2E2E2E2E2E2E2E2E2E2E2E2E2E2E2E2E2E2E2E2E2E2E2E2F5E2E2E2E2E2E2E2E2E2E2E2E2E2E2E2E2E2E2E2E2E2E2E2E2F5F5E2E2E2E2E2E2E2E26D6DE2BEE2E2E2E2E2E2E2E2E2E2E2E2F5F5E2E2E2E2E2E2E2E2E2E2E2E228286DE2E2E2E2E2E2E2E2F5F5E2
310
E2E2E2E2E2E2E2E2E2F5E2E2E2E2E2E2E2E2E2E2E2E2E2E2E2E2E2E2E2E2E2E2E2E2E2E2F5E2E2E2E2E2E2E2E2E2E2E2E2E2E2E2E2E2E2E2E2E2E2E2E2E2E2E2E2E2E2E2E2E2E2E2E2E2E2E2E2E2E2E2E2E2E2E2E2E2E2E2E9E2E2E2E2E2E2E2E2E2E2E2E2E2E2E2E2E2E2E2E2E2E2E2E2E2E2E2E2E2E2E2E2E2E2E2E2E2E2
310
E2E2E2E2E2E2E2E2E2E2E2E2E2E2E2E2E2E2E2E2E2E2E2E2E2E2E2E2E2E2E2E2E2E2E2E2E2E2E2E2E2E2E2E2E2E2E2E2E2E2F5E2E2E2E2E2E2E2E2E2E2E2E2E2E2E2E2E2E2E2E2E2E2E2E2F5F5E2E2E2E2E2E2E2E2E2E2F5BEF5E2E2E2E2E2E2E2E2E2E2E2F5F5E2E2E2E2E2E2E2E2E2E2E2E228286DE2E2E2BEF5F5F5F5F5
310
F5E2E2E2E2E2E2E2E2E2E2F5E2E2E2E2E2E2E2E2E2E2E2E2E2E2E2E2E2E2E2E2E2E2E2E2E2E2F5E2E2E2E2E2E2E2E2E2E2E2E2E2E2E2E2E2E2E2E2E2E2E2E2E2E2E2E2E2E2E2E2E2E2E2E2E2E2E2E2E2E2E2E2E2E2E2E2E2E2E2E9E2E2E2E2E2E2E2E2E2E2E2E2E2E2E2E2E2E2E2E2E2E2E2E2E2E2E2E2E2E2E2E2E2E2E2E2
310
E2E2E2E2E2E2E2E2E2E2E2E2E2E2E2E2E2E2E2E2E2E2E2E2E2E2E2E2E2E2E2E2E2E2E2E2E2E2E2E2E2E2E2E2E2E2E2E2E2E2E2E2F5E2E2E2E2E2E2E2E2E2E2E2E2E2E2E2E2E2E2E2E2E2E2E2BEBEF5BEBEBEBEBEBEBEBEBEE2BEBEBEF5BEBEBEBEBEBEBEBEBEBEF5BEBEE2E2E2E2E2E2E2E2E2E2E2E2286DE2E2BEF5DCDCDC
310
DCF5F5E2BEBEBEE2BEBEBEBEBEBEBEBEE2E2E2E2E2E2E2E2E2E2E2E2E2E2E2E2E2E2E2E2E2E2E2E2F5E2E2E2E2E2E2E2E2E2E2E2E2E2E2E2E2E2E2E2E2E2E2E2E2E2E2E2E2E2E2E2E2E2E2E2E2E2E2E2E2E2E2E2E2E2E2E2E2E2E2E2E9E2E2E2E2E2E2E2E2E2E2E2E2E2E2E2E2E2E2E2E2E2E2E2E2E2E2E2E2E2E2E2E2E2E2
310
E2E2E2E2E2E2E2E2E2E2E2E2E2E2E2E2E2E2E2E2E2E2E2E2E2E2E2E2E2E2E2E2E2E2E2E2E2E2E2E2E2E2E2E2E2E2E2E2E2E2E2E2E2E2F5E2E2E2E2E2E2E2E2E2E2E2E2E2E2E2E2E2E2E2E2E2E2E2E2F5F5E2E2E2E2E2E2E2E2E2E2F5BEF5F5E2E2E2E2E2E2E2E2E2E2F5F5E2E2E2E2E2E2E2E2E2E2E2E2E2286DE2E2E2BEF5
310
F5F5F5F5F5E2E2E2E2E2E2E2E2E2E2F5E2E2E2E2E2E2E2E2E2E2E2E2E2E2E2E2E2E2E2E2E2E2E2E2E2E2F5E2E2E2E2E2E2E2E2E2E2E2E2E2E2E2E2E2E2E2E2E2E2E2E2E2E2E2E2E2E2E2E2E2E2E2E2E2E2E2E2E2E2E2E2E2E2E2E2E2E2E2E9E2E2E2E2E2E2E2E2E2E2E2E2E2E2E2E2E2E2E2E2E2E2E2E2E2E2E2E2E2E2E2E2
310
E2E2E2E2E2E2E2E2E2E2E2E2E2E2E2E2E2E2E2E2E2E2E2E2E2E2E2E2E2E2E2E2E2E2E2E2E2E2E2E2E2E2E2E2E2E2E2E2E2E2E2E2E2E2E2E2F5E2E2E2E2E2E2E2E2E2E2E2E2E2E2E2E2E2E2E2E2E2E2E2E2F5F5E2E2E2E2E2E2E2E2E2E2E2BEE26DE2E2E2E2E2E2E2E2E2E2F5F5E2E2E2E2E2E2E2E2E2E2E2E228286DE2E2E2
310
6DE2E2E2E2F5F5E2E2E2E2E2E2E2E2E2E2F5E2E2E2E2E2E2E2E2E2E2E2E2E2E2E2E2E2E2E2E2E2E2E2E2E2E2F5E2E2E2E2E2E2E2E2E2E2E2E2E2E2E2E2E2E2E2E2E2E2E2E2E2E2E2E2E2E2E2E2E2E2E2E2E2E2E2E2E2E2E2E2E2E2E2E2E2E2E2E9E2E2E2E2E2E2E2E2E2E2E2E2E2E2E2E2E2E2E2E2E2E2E2E2E2E2E2E2E2E2
310
E2E2E2E2E2E2E2E2E2E2E2E2E2E2E2E2E2E2E2E2E2E2E2E2E2E2E2E2E2E2E2E2E2E2E2E2E2E2E2E2E2E2E2E2E2E2E2E2E2E2E2E2E2E2E2E2E2E2F5E2E2E2E2E2E2E2E2E2E2E2E2E2E2E2E2E2E2E2E2E2E2E2E2F5F5E2E2E2E2E2E2E2E2E2E2E2BEE2E26D6DE2E2E2E2E2E2E2F5F5F5E2E2E2E2E2E2E2E2E2E2E2E228286DE2
310
E2E26DE2E2E2E2F5F5E2E2E2E2E2E2E2E2E2E2F5E2E2E2E2E2E2E2E2E2E2E2E2E2E2E2E2E2E2E2E2E2E2E2E2E2E2F5E2E2E2E2E2E2E2E2E2E2E2E2E2E2E2E2E2E2E2E2E2E2E2E2E2E2E2E2E2E2E2E2E2E2E2E2E2E2E2E2E2E2E2E2E2E2E2E2E2E2E2E9E2E2E2E2E2E2E2E2E2E2E2E2E2E2E2E2E2E2E2E2E2E2E2E2E2E2E2E2
310
E2E2E2E2E2E2E2E2E2E2E2E2E2E2E2E2E2E2E2E2E2E2E2E2E2E2E2E2E2E2E2E2E2E2E2E2E2E2E2E2E2E2E2E2E2E2E2E2E2E2E2E2E2E2E2E2E2E2E2E2F5E2E2E2E2E2E2E2E2E2E2E2E2E2E2E2E2E2E2E2E2E2E2E2E2F5F5F5E2E2E2E2E2E2E2E2E2E2BEE2E2E2E26DE2E2E2E2E2E2F5E2F5E2E2E2E2E2E2E2E2E2E2E2E22828
310
6DE2E2E26DE2E2E2E2F5F5E2E2E2E2E2E2E2E2E2E2F5E2E2E2E2E2E2E2E2E2E2E2E2E2E2E2E2E2E2E2E2E2E2E2E2E2E2F5E2E2E2E2E2E2E2E2E2E2E2E2E2E2E2E2E2E2E2E2E2E2E2E2E2E2E2E2E2E2E2E2E2E2E2E2E2E2E2E2E2E2E2E2E2E2E2E2E2E2E2E9E2E2E2E2E2E2E2E2E2E2E2E2E2E2E2E2E2E2E2E2E2E2E2E2E2E2
310
E2E2E2E2E2E2E2E2E2E2E2E2E2E2E2E2E2E2E2E2E2E2E2E2E2E2E2E2E2E2E2E2E2E2E2E2E2E2E2E2E2E2E2E2E2E2E2E2E2E2E2E2E2E2E2E2E2E2E2E2E2E2F5E2E2E2E2E2E2E2E2E2E2E2E2E2E2E2E2E2E2E2E2E2E2E2E2F5E2F5E2E2E2E2E2E2E2E2E2E2BEE2E2E2E2E26DE2E2E2E2E2F5E2F5E2E2E2E2E2E2E2E2E2E2E2E2
310
E2E26DE2E2E26DE2E2E2E2F5F5E2E2E2E2E2E2E2E2E2E2F5E2E2E2E2E2E2E2E2E2E2E2E2E2E2E2E2E2E2E2E2E2E2E2E2E2E2F5E2E2E2E2E2E2E2E2E2E2E2E2E2E2E2E2E2E2E2E2E2E2E2E2E2E2E2E2E2E2E2E2E2E2E2E2E2E2E2E2E2E2E2E2E2E2E2E2E2E2E2E9E2E2E2E2E2E2E2E2E2E2E2E2E2E2E2E2E2E2E2E2E2E2E2E2
310
E2E2E2E2E2E2E2E2E2E2E2E2E2E2E2E2E2E2E2E2E2E2E2E2E2E2E2E2E2E2E2E2E2E2E2E2E2E2E2E2E2E2E2E2E2E2E2E2E2E2E2E2E2E2E2E2E2E2E2E2E2E2E2E2F5E2E2E2E2E2E2E2E2E2E2E2E2E2E2E2E2E2E2E2E2E2E2E2E2F5E2F5E2E2E2E2E2E2E2E2E2E2E2E2E2E2E2E2E26DE2E2E2F5F5E2F5E2E2E2E2E2E2E2E2E2E2
310
E2E2E2E26DE2E2E26DE2E2E2E2F5F5E2E2E2E2E2E2E2E2E2E2F5E2E2E2E2E2E2E2E2E2E2E2E2E2E2E2E2E2E2E2E2E2E2E2E2E2E2F5E2E2E2E2E2E2E2E2E2E2E2E2E2E2E2E2E2E2E2E2E2E2E2E2E2E2E2E2E2E2E2E2E2E2E2E2E2E2E2E2E2E2E2E2E2E2E2E2E2E2E2E9E2E2E2E2E2E2E2E2E2E2E2E2E2E2E2E2E2E2E2E2E2E2
310
E2E2E2E2E2E2E2E2E2E2E2E2E2E2E2E2E2E2E2E2E2E2E2E2E2E2E2E2E2E2E2E2E2E2E2E2E2E2E2E2E2E2E2E2E2E2E2E2E2E2E2E2E2E2E2E2E2E2E2E2E2E2E2E2E2E2F5E2E2E2E2E2E2E2E2E2E2E2E2E2E2E2E2E2E2E2E2E2E2E2E2F5E2E2F5E2E2E2E2E2E2E2E2E2BEE2E2E2E2E2E2E26DE2E2F5E2E2F5E2E2E2E2E2E2E2E2
310
E2E2E2E2E2E26DE2E2E26DE2E2E2E2F5F5E2E2E2E2E2E2E2E2E2E2F5E2E2E2E2E2E2E2E2E2E2E2E2E2E2E2E2E2E2E2E2E2E2E2E2E2E2F5E2E2E2E2E2E2E2E2E2E2E2E2E2E2E2E2E2E2E2E2E2E2E2E2E2E2E2E2E2E2E2E2E2E2E2E2E2E2E2E2E2E2E2E2E2E2E2E2E2E2E2E9E2E2E2E2E2E2E2E2E2E2E2E2E2E2E2E2E2E2E2E2
310
E2E2E2E2E2E2E2E2E2E2E2E2E2E2E2E2E2E2E2E2E2E2E2E2E2E2E2E2E2E2E2E2E2E2E2E2E2E2E2E2E2E2E2E2E2E2E2E2E2E2E2E2E2E2E2E2E2E2E2E2E2E2E2E2E2E2E2E2F5E2E2E2E2E2E2E2E2E2E2E2E2E2E2E2E2E2E2E2E2E2E2E2E2F5E2E2F5F5E2E2E2E2E2E2E2E2BEE2E2E2E2E2E2E2E26DF5E2E2E2F5E2E2E2E2E2E2
310
E2E2E2E2E2E2E2E26DE2E2E26DE2E2E2E2F5F5E2E2E2E2E2E2E2E2E2E2F5E2E2E2E2E2E2E2E2E2E2E2E2E2E2E2E2E2E2E2E2E2E2E2E2E2E2F5E2E2E2E2E2E2E2E2E2E2E2E2E2E2E2E2E2E2E2E2E2E2E2E2E2E2E2E2E2E2E2E2E2E2E2E2E2E2E2E2E2E2E2E2E2E2E2E2E2E2E2E9E2E2E2E2E2E2E2E2E2E2E2E2E2E2E2E2E2E2
310
E2E2E2E2E2E2E2E2E2E2E2E2E2E2E2E2E2E2E2E2E2E2E2E2E2E2E2E2E2E2E2E2E2E2E2E2E2E2E2E2E2E2E2E2E2E2E2E2E2E2E2E2E2E2E2E2E2E2E2E2E2E2E2E2E2E2E2E2E2E2F5E2E2E2E2E2E2E2E2E2E2E2E2E2E2E2E2E2E2E2E2E2E2E2E2F5E2E2E2F5F5E2E2E2E2E2E2E2BEE2E2E2E2E2E2E2E2F5F56DE2BEF5E2E2E2E2
310
E2E2E2E2E2E2E2E2E2E26DE2E2E26DE2E2E2E2F5F5E2E2E2E2E2E2E2E2E2E2F5E2E2E2E2E2E2E2E2E2E2E2E2E2E2E2E2E2E2E2E2E2E2E2E2E2E2F5E2E2E2E2E2E2E2E2E2E2E2E2E2E2E2E2E2E2E2E2E2E2E2E2E2E2E2E2E2E2E2E2E2E2E2E2E2E2E2E2E2E2E2E2E2E2E2E2E2E2E2E9E2E2E2E2E2E2E2E2E2E2E2E2E2E2E2E2
310
E2E2E2E2E2E2E2E2E2E2E2E2E2E2E2E2E2E2E2E2E2E2E2E2E2E2E2E2E2E2E2E2E2E2E2E2E2E2E2E2E2E2E2E2E2E2E2E2E2E2E2E2E2E2E2E2E2E2E2E2E2E2E2E2E2E2E2E2E2E2E2E2F5E2E2E2E2E2E2E2E2E2E2E2E2E2E2E2E2E2E2E2E2E2E2E2E2F5F5F5F5E2F5F5E2E2E2E2E2E2BEE2E2E2E2E2E2F5F5E2BEF5F56DF5E2E2
310
E2E2E2E2E2E2E2E2E2E2E2E26DE2E2E26DE2E2E2E2F5F5E2E2E2E2E2E2E2E2E2E2F5E2E2E2E2E2E2E2E2E2E2E2E2E2E2E2E2E2E2E2E2E2E2E2E2E2E2F5E2E2E2E2E2E2E2E2E2E2E2E2E2E2E2E2E2E2E2E2E2E2E2E2E2E2E2E2E2E2E2E2E2E2E2E2E2E2E2E2E2E2E2E2E2E2E2E2E2E2E2E9E2E2E2E2E2E2E2E2E2E2E2E2E2E2
310
E2E2E2E2E2E2E2E2E2E2E2E2E2E2E2E2E2E2E2E2E2E2E2E2E2E2E2E2E2E2E2E2E2E2E2E2E2E2E2E2E2E2E2E2E2E2E2E2E2E2E2E2E2E2E2E2E2E2E2E2E2E2E2E2E2E2E2E2E2E2E2E2E2E2F5E2E2E2E2E2E2E2E2E2E2E2E2E2E2E2E2E2E2E2E2E2E2E2E2F5F5BEF5E2E2E2F5F5E2E2E2E2BEE2E2E2E2F5F5F5E2E2F5BEBEE2F5
310
E2E2E2E2E2E2E2E2E2E2E2E2E2E26DE2E2E26DE2E2E2E2F5F5E2E2E2E2E2E2E2E2E2E2F5E2E2E2E2E2E2E2E2E2E2E2E2E2E2E2E2E2E2E2E2E2E2E2E2E2E2F5E2E2E2E2E2E2E2E2E2E2E2E2E2E2E2E2E2E2E2E2E2E2E2E2E2E2E2E2E2E2E2E2E2E2E2E2E2E2E2E2E2E2E2E2E2E2E2E2E2E2E2E9E2E2E2E2E2E2E2E2E2E2E2E2
310
E2E2E2E2E2E2E2E2E2E2E2E2E2E2E2E2E2E2E2E2E2E2E2E2E2E2E2E2E2E2E2E2E2E2E2E2E2E2E2E2E2E2E2E2E2E2E2E2E2E2E2E2E2E2E2E2E2E2E2E2E2E2E2E2E2E2E2E2E2E2E2E2E2E2E2E2F5E2E2E2E2E2E2E2E2E2E2E2E2E2E2E2E2E2E2E2E2E2E2E2E2F5F5F5F5E2E2E2E2E2F5F5F5F5F5F5F5F5F5F5E2E2E2E2BEBEF5
310
BEF528E2E2E2E2E2E2E2E2E2E2E2E2E26D6D6D6D6D6D6D6D6DF5F5E2E2E2E2E2E2E2E2E2E2F5E2E2E2E2E2E2E2E2E2E2E2E2E2E2E2E2E2E2E2E2E2E2E2E2E2E2F5E2E2E2E2E2E2E2E2E2E2E2E2E2E2E2E2E2E2E2E2E2E2E2E2E2E2E2E2E2E2E2E2E2E2E2E2E2E2E2E2E2E2E2E2E2E2E2E2E2E2E2E9E2E2E2E2E2E2E2E2E2E2
310
E2E2E2E2E2E2E2E2E2E2E2E2E2E2E2E2E2E2E2E2E2E2E2E2E2E2E2E2E2E2E2E2E2E2E2E2E2E2E2E2E2E2E2E2E2E2E2E2E2E2E2E2E2E2E2E2E2E2E2E2E2E2E2E2E2E2E2E2E2E2E2E2E2E2E2E2E2E2F5E2E2E2E2E2E2E2E2E2E2E2E2E2E2E2E2E2E2E2E2E2E2E2E26DF5F5F5F5F5F5F5F5F5F5F5F5F5F5F5F5F5F5F5F5F5F5F5
310
F5F5F56D28286DE2E2E2E2E2E2E2E2E2E2E2E2E2E2E26DE2E2E2E26DF5F5F5F5F5F5F5F5F5F5F5F5E2E2E2E2E2E2E2E2E2E2E2E2E2E2E2E2E2E2E2E2E2E2E2E2E2E2F5E2E2E2E2E2E2E2E2E2E2E2E2E2E2E2E2E2E2E2E2E2E2E2E2E2E2E2E2E2E2E2E2E2E2E2E2E2E2E2E2E2E2E2E2E2E2E2E2E2E2E2E9E2E2E2E2E2E2E2E2
310
E2E2E2E2E2E2E2E2E2E2E2E2E2E2E2E2E2E2E2E2E2E2E2E2E2E2E2E2E2E2E2E2E2E2E2E2E2E2E2E2E2E2E2E2E2E2E2E2E2E2E2E2E2E2E2E2E2E2E2E2E2E2E2E2E2E2E2E2E2E2E2E2E2E2E2E2E2E2E2E2F5E2E2E2E2E2E2E2E2E2E2E2E2E2E2E2E2E2E2E2E2E2E2E2E26DE2E2E2E2E2E2E2E2E2E2E2E2BEE2E2E2E2E2E2E2E2
310
E2E26DE2E26D2828286DE2E2E2E2E2E2E2E2E2E2E2E2E2E26DE2E2E2E26D6DE2E2E2E2E2E2E2E2E2E26DE2E2E2E2E2E2E2E2E2E2E2E2E2E2E2E2E2E2E2E2E2E2E2E2E2E2F5E2E2E2E2E2E2E2E2E2E2E2E2E2E2E2E2E2E2E2E2E2E2E2E2E2E2E2E2E2E2E2E2E2E2E2E2E2E2E2E2E2E2E2E2E2E2E2E2E2E2E2E9E2E2E2E2E2E2
310
E2E2E2E2E2E2E2E2E2E2E2E2E2E2E2E2E2E2E2E2E2E2E2E2E2E2E2E2E2E2E2E2E2E2E2E2E2E2E2E2E2E2E2E2E2E2E2E2E2E2E2E2E2E2E2E2E2E2E2E2E2E2E2E2E2E2E2E2E2E2E2E2E2E2E2E2E2E2E2E2E2E2F5E2E2E2E2E2E2E2E2E2E2E2E2E2E2E2E2E2E2E2E2E2E2E2E26DE2E2E2E2E2E2E2E2E2E2E2E2BEE2E2E2E2E2E2
310
E2E2E26DE2E2E26DE2E2282828E2E2E2E2E2E2E2E2E2E2E2E2E26DE2E2E2E26D6DE2E2E2E2E2E2E2E2E2E26DE2E2E2E2E2E2E2E2E2E2E2E2E2E2E2E2E2E2E2E2E2E2E2E2E2E2F5E2E2E2E2E2E2E2E2E2E2E2E2E2E2E2E2E2E2E2E2E2E2E2E2E2E2E2E2E2E2E2E2E2E2E2E2E2E2E2E2E2E2E2E2E2E2E2E2E2E2E2E9E2E2E2E2
310
E2E2E2E2E2E2E2E2E2E2E2E2E2E2E2E2E2E2E2E2E2E2E2E2E2E2E2E2E2E2E2E2E2E2E2E2E2E2E2E2E2E2E2E2E2E2E2E2E2E2E2E2E2E2E2E2E2E2E2E2E2E2E2E2E2E2E2E2E2E2E2E2E2E2E2E2E2E2E2E2E2E2E2E2F5E2E2E2E2E2E2E2E2E2E2E2E2E2E2E2E2E2E2E2E2E2E2E2E26DE2E2E2E2E2E2E2E2E2E2E2E2E2E2E2E2E2
310
E2E2E2E2E26DE2E2E26DE2E2E228286DE2E2E2E2E2E2E2E2E2E2E2E26DE2E2E2E26D6DE2E2E2E2E2E2E2E2E2E26DE2E2E2E2E2E2E2E2E2E2E2E2E2E2E2E2E2E2E2E2E2E2E2E2E2E2F5E2E2E2E2E2E2E2E2E2E2E2E2E2E2E2E2E2E2E2E2E2E2E2E2E2E2E2E2E2E2E2E2E2E2E2E2E2E2E2E2E2E2E2E2E2E2E2E2E2E2E2E9E2E2
310
E2E2E2E2E2E2E2E2E2E2E2E2E2E2E2E2E2E2E2E2E2E2E2E2E2E2E2E2E2E2E2E2E2E2E2E2E2E2E2E2E2E2E2E2E2E2E2E2E2E2E2E2E2E2E2E2E2E2E2E2E2E2E2E2E2E2E2E2E2E2E2E2E2E2E2E2E2E2E2E2E2E2E2E2E2E2F5E2E2E2E2E2E2E2E2E2E2E2E2E2E2E2E2E2E2E2E2E2E2E2E26DE2E2E2E2E2E2E2E2E2E2E2E2E2E2E2
310
E2E2E2E2E2E26DE2E2E2E26DE2E2E2E228E2E2E2E2E2E2E2E2E2E2E2E2E26DE2E2E2E26D6DE2E2E2E2E2E2E2E2E2E26DE2E2E2E2E2E2E2E2E2E2E2E2E2E2E2E2E2E2E2E2E2E2E2E2E2E2F5E2E2E2E2E2E2E2E2E2E2E2E2E2E2E2E2E2E2E2E2E2E2E2E2E2E2E2E2E2E2E2E2E2E2E2E2E2E2E2E2E2E2E2E2E2E2E2E2E2E2E2E9
310
E2E2E2E2E2E2E2E2E2E2E2E2E2E2E2E2E2E2E2E2E2E2E2E2E2E2E2E2E2E2E2E2E2E2E2E2E2E2E2E2E2E2E2E2E2E2E2E2E2E2E2E2E2E2E2E2E2E2E2E2E2E2E2E2E2E2E2E2E2E2E2E2E2E2E2E2E2E2E2E2E2E2E2E2E2E2E2E2F5E2E2E2E2E2E2E2E2E2E2E2E2E2E2E2E2E2E2E2E2E2E2E2E26DE2E2E2E2E2E2E2E2E2E2E2E26D
310
6D6D6D6D6D6D6D6D6DE2E2E2E26DE2E2E2E2E2E2E2E2E2E2E2E2E2E2E2E2E2E26DE2E2E26D6DF56D2828E2E2E2E2E2E2E26DE2E2E2E2E2E2E2E2E2E2E2E2E2E2E2E2E2E2E2E2E2E2E2E2E2E2F5E2E2E2E2E2E2E2E2E2E2E2E2E2E2E2E2E2E2E2E2E2E2E2E2E2E2E2E2E2E2E2E2E2E2E2E2E2E2E2E2E2E2E2E2E2E2E2E2E2E2
310
E2E9E2E2E2E2E2E2E2E2E2E2E2E2E2E2E2E2E2E2E2E2E2E2E2E2E2E2E2E2E2E2E2E2E2E2E2E2E2E2E2E2E2E2E2E2E2E2E2E2E2E2E2E2E2E2E2E2E2E2E2E2E2E2E2E2E2E2E2E2E2E2E2E2E2E2E2E2E2E2E2E2E2E2E2E2E2E2E2E2F5E2E2E2E2E2E2E2E2E2E2E2E2E2E2E2E2E2E2E2E2E2E2E2E26DE2E2E2E2E2E2E2E2E2E2E2
310
E2282828282828282828E2E2E2E2E26DE2E2E2E2E2E2E2E2E2E2E2E2E2E2E2E2E2E26DE2E2E2E2E26DE22828E2E2E2E2E2E2E26DE2E2E2E2E2E2E2E2E2E2E2E2E2E2E2E2E2E2E2E2E2E2E2E2E2E2F5E2E2E2E2E2E2E2E2E2E2E2E2E2E2E2E2E2E2E2E2E2E2E2E2E2E2E2E2E2E2E2E2E2E2E2E2E2E2E2E2E2E2E2E2E2E2E2E2
310
E2E2E2E9E2E2E2E2E2E2E2E2E2E2E2E2E2E2E2E2E2E2E2E2E2E2E2E2E2E2E2E2E2E2E2E2E2E2E2E2E2E2E2E2E2E2E2E2E2E2E2E2E2E2E2E2E2E2E2E2E2E2E2E2E2E2E2E2E2E2E2E2E2E2E2E2E2E2E2E2E2E2E2E2E2E2E2E2E2E2E2E2F5E2E2E2E2E2E2E2E2E2E2E2E2E2E2E2E2E2E2E2E2E2E2E2E26DE2E2E2E2E2E2E2E2E2
310
E2E2E2E2E2E2E2E2E2E2E2E2E2E2E2E2E26DE2E2E2E2E2E2E2E2E2E2E2E2E2E2E2E2E2E26DE2E2E2E2E26DE2E2E2E2E2E2E2E2E2E26DE2E2E2E2E2E2E2E2E2E2E2E2E2E2E2E2E2E2E2E2E2E2E2E2E2E2F5E2E2E2E2E2E2E2E2E2E2E2E2E2E2E2E2E2E2E2E2E2E2E2E2E2E2E2E2E2E2E2E2E2E2E2E2E2E2E2E2E2E2E2E2E2E2
310
E2E2E2E2E2E9E2E2E2E2E2E2E2E2E2E2E2E2E2E2E2E2E2E2E2E2E2E2E2E2E2E2E2E2E2E2E2E2E2E2E2E2E2E2E2E2E2E2E2E2E2E2E2E2E2E2E2E2E2E2E2E2E2E2E2E2E2E2E2E2E2E2E2E2E2E2E2E2E2E2E2E2E2E2E2E2E2E2E2E2E2E2E2E2F5E2E2E2E2E2E2E2E2E2E2E2E2E2E2E2E2E2E2E2E2E2E2E2E26D6D6D6D6D6D6D6D
310
6D6D6D6D6D28286D6D6D6D6D6D6D6D6D6D6D6DF5E2E2E2E2E2E2E2E2E2E2E2E2E2E2E2E2E2E26D6D6D28286DF56D6D6D6D28286D6D6D6DF5E2E2E2E2E2E2E2E2E2E2E2E2E2E2E2E2E2E2E2E2E2E2E2E2E2E2F5E2E2E2E2E2E2E2E2E2E2E2E2E2E2E2E2E2E2E2E2E2E2E2E2E2E2E2E2E2E2E2E2E2E2E2E2E2E2E2E2E2E2E2E2
310
E2E2E2E2E2E2E2E9E2E2E2E2E2E2E2E2E2E2E2E2E2E2E2E2E2E2E2E2E2E2E2E2E2E2E2E2E2E2E2E2E2E2E2E2E2E2E2E2E2E2E2E2E2E2E2E2E2E2E2E2E2E2E2E2E2E2E2E2E2E2E2E2E2E2E2E2E2E2E2E2E2E2E2E2E2E2E2E2E2E2E2E2E2E2E2E2F5E2E2E2E2E2E2E2E2E2E2E2E2E2E2E2E2E2E2E2E2E2E2E2E2E2E2E2E2E2E2
310
E2E2E2E2E228282828E2E2E2E2E2E2E2E2E2E2E2E2E2E2E2E2E2E2E2E2E2E2E2E2E2E2E2E2E2E2E2E2E2282828E2E2E2E2E2E22828E2E2E2E2E2E2E2E2E2E2E2E2E2E2E2E2E2E2E2E2E2E2E2E2E2E2E2E2E2E2E2F5E2E2E2E2E2E2E2E2E2E2E2E2E2E2E2E2E2E2E2E2E2E2E2E2E2E2E2E2E2E2E2E2E2E2E2E2E2E2E2E2E2E2
310
E2E2E2E2E2E2E2E2E2E9E2E2E2E2E2E2E2E2E2E2E2E2E2E2E2E2E2E2E2E2E2E2E2E2E2E2E2E2E2E2E2E2E2E2E2E2E2E2E2E2E2E2E2E2E2E2E2E2E2E2E2E2E2E2E2E2E2E2E2E2E2E2E2E2E2E2E2E2E2E2E2E2E2E2E2E2E2E2E2E2E2E2E2E2E2E2E2E2F5E2E2E2E2E2E2E2E2E2E2E2E2E2E2E2E2E2E2E2E2E2E2E2E2E2E2E2E2
310
E2E2E2E2E2E2E2E2E2E2E2E2E2E2E2E2E2E2E2E2E2E2E2E2E2E2E2E2E2E2E2E2E2E2E2E2E2E2E2E2E2E2E2E2E2E2E2E2E2E2E2E2E2E2E2E2E2E2E2E2E2E2E2E2E2E2E2E2E2E2E2E2E2E2E2E2E2E2E2E2E2E2E2E2E2E2F5E2E2E2E2E2E2E2E2E2E2E2E2E2E2E2E2E2E2E2E2E2E2E2E2E2E2E2E2E2E2E2E2E2E2E2E2E2E2E2E2
310
E2E2E2E2E2E2E2E2E2E2E2E9E2E2E2E2E2E2E2E2E2E2E2E2E2E2E2E2E2E2E2E2E2E2E2E2E2E2E2E2E2E2E2E2E2E2E2E2E2E2E2E2E2E2E2E2E2E2E2E2E2E2E2E2E2E2E2E2E2E2E2E2E2E2E2E2E2E2E2E2E2E2E2E2E2E2E2E2E2E2E2E2E2E2E2E2E2E2E2E2F5E2E2E2E2E2E2E2E2E2E2E2E2E2E2E2E2E2E2E2E2E2E2E2E2E2E2
310
E2E2E2E2E2E2E2E2E2E2E2E2E2E2E2E2E2E2E2E2E2E2E2E2E2E2E2E2E2E2E2E2E2E2E2E2E2E2E2E2E2E2E2E2E2E2E2E2E2E2E2E2E2E2E2E2E2E2E2E2E2E2E2E2E2E2E2E2E2E2E2E2E2E2E2E2E2E2E2E2E2E2E2E2E2E2E2E2F5E2E2E2E2E2E2E2E2E2E2E2E2E2E2E2E2E2E2E2E2E2E2E2E2E2E2E2E2E2E2E2E2E2E2E2E2E2E2
310
E2E2E2E2E2E2E2E2E2E2E2E2E2E9E2E2E2E2E2E2E2E2E2E2E2E2E2E2E2E2E2E2E2E2E2E2E2E2E2E2E2E2E2E2E2E2E2E2E2E2E2E2E2E2E2E2E2E2E2E2E2E2E2E2E2E2E2E2E2E2E2E2E2E2E2E2E2E2E2E2E2E2E2E2E2E2E2E2E2E2E2E2E2E2E2E2E2E2E2E2E2E2F5E2E2E2E2E2E2E2E2E2E2E2E2E2E2E2E2E2E2E2E2E2E2E2E2
310
E2E2E2E2E2E2E2E2E2E2E2E2E2E2E2E2E2E2E2E2E2E2E2E2E2E2E2E2E2E2E2E2E2E2E2E2E2E2E2E2E2E2E2E2E2E2E2E2E2E2E2E2E2E2E2E2E2E2E2E2E2E2E2E2E2E2E2E2E2E2E2E2E2E2E2E2E2E2E2E2E2E2E2E2E2E2E2E2E2E2F5E2E2E2E2E2E2E2E2E2E2E2E2E2E2E2E2E2E2E2E2E2E2E2E2E2E2E2E2E2E2E2E2E2E2E2E2
310
E2E2E2E2E2E2E2E2E2E2E2E2E2E2E2E9E2E2E2E2E2E2E2E2E2E2E2E2E2E2E2E2E2E2E2E2E2E2E2E2E2E2E2E2E2E2E2E2E2E2E2E2E2E2E2E2E2E2E2E2E2E2E2E2E2E2E2E2E2E2E2E2E2E2E2E2E2E2E2E2E2E2E2E2E2E2E2E2E2E2E2E2E2E2E2E2E2E2E2E2E2E2E2E2F5E2E2E2E2E2E2E2E2E2E2E2E2E2E2E2E2E2E2E2E2E2E2
310
E2E2E2E2E2E2E2E2E2E2E2E2E2E2E2E2E2E2E2E2E2E2E2E2E2E2E2E2E2E2E2E2E2E2E2E2E2E2E2E2E2E2E2E2E2E2E2E2E2E2E2E2E2E2E2E2E2E2E2E2E2E2E2E2E2E2E2E2E2E2E2E2E2E2E2E2E2E2E2E2E2E2E2E2E2E2E2E2E2E2E2E2F5E2E2E2E2E2E2E2E2E2E2E2E2E2E2E2E2E2E2E2E2E2E2E2E2E2E2E2E2E2E2E2E2E2E2
310
E2E2E2E2E2E2E2E2E2E2E2E2E2E2E2E2E2E9E2E2E2E2E2E2E2E2E2E2E2E2E2E2E2E2E2E2E2E2E2E2E2E2E2E2E2E2E2E2E2E2E2E2E2E2E2E2E2E2E2E2E2E2E2E2E2E2E2E2E2E2E2E2E2E2E2E2E2E2E2E2E2E2E2E2E2E2E2E2E2E2E2E2E2E2E2E2E2E2E2E2E2E2E2E2E2E2F5E2E2E2E2E2E2E2E2E2E2E2E2E2E2E2E2E2E2E2E2
310
E2E2E2E2E2E2E2E2E2E2E2E2E2E2E2E2E2E2E2E2E2E2E2E2E2E2E2E2E2E2E2E2E2E2E2E2E2E2E2E2E2E2E2E2E2E2E2E2E2E2E2E2E2E2E2E2E2E2E2E2E2E2E2E2E2E2E2E2E2E2E2E2E2E2E2E2E2E2E2E2E2E2E2E2E2E2E2E2E2E2E2E2E2E2F5E2E2E2E2E2E2E2E2E2E2E2E2E2E2E2E2E2E2E2E2E2E2E2E2E2E2E2E2E2E2E2E2
310
E2E2E2E2E2E2E2E2E2E2E2E2E2E2E2E2E2E2E2E9E2E2E2E2E2E2E2E2E2E2E2E2E2E2E2E2E2E2E2E2E2E2E2E2E2E2E2E2E2E2E2E2E2E2E2E2E2E2E2E2E2E2E2E2E2E2E2E2E2E2E2E2E2E2E2E2E2E2E2E2E2E2E2E2E2E2E2E2E2E2E2E2E2E2E2E2E2E2E2E2E2E2E2E2E2E2E2E2F5E2E2E2E2E2E2E2E2E2E2E2E2E2E2E2E2E2E2
310
E2E2E2E2E2E2E2E2E2E2E2E2E2E2E2E2E2E2E2E2E2E2E2E2E2E2E2E2E2E2E2E2E2E2E2E2E2E2E2E2E2E2E2E2E2E2E2E2E2E2E2E2E2E2E2E2E2E2E2E2E2E2E2E2E2E2E2E2E2E2E2E2E2E2E2E2E2E2E2E2E2E2E2E2E2E2E2E2E2E2E2E2E2E2E2E2F5E2E2E2E2E2E2E2E2E2E2E2E2E2E2E2E2E2E2E2E2E2E2E2E2E2E2E2E2E2E2
310
E2E2E2E2E2E2E2E2E2E2E2E2E2E2E2E2E2E2E2E2E2E9E2E2E2E2E2E2E2E2E2E2E2E2E2E2E2E2E2E2E2E2E2E2E2E2E2E2E2E2E2E2E2E2E2E2E2E2E2E2E2E2E2E2E2E2E2E2E2E2E2E2E2E2E2E2E2E2E2E2E2E2E2E2E2E2E2E2E2E2E2E2E2E2E2E2E2E2E2E2E2E2E2E2E2E2E2E2E2E2F5E2E2E2E2E2E2E2E2E2E2E2E2E2E2E2E2
310
E2E2E2E2E2E2E2E2E2E2E2E2E2E2E2E2E2E2E2E2E2E2E2E2E2E2E2E2E2E2E2E2E2E2E2E2E2E2E2E2E2E2E2E2E2E2E2E2E2E2E2E2E2E2E2E2E2E2E2E2E2E2E2E2E2E2E2E2E2E2E2E2E2E2E2E2E2E2E2E2E2E2E2E2E2E2E2E2E2E2E2E2E2E2E2E2E2E2F5E2E2E2E2E2E2E2E2E2E2E2E2E2E2E2E2E2E2E2E2E2E2E2E2E2E2E2E2
310
E2E2E2E2E2E2E2E2E2E2E2E2E2E2E2E2E2E2E2E2E2E2E2E9E2E2E2E2E2E2E2E2E2E2E2E2E2E2E2E2E2E2E2E2E2E2E2E2E2E2E2E2E2E2E2E2E2E2E2E2E2E2E2E2E2E2E2E2E2E2E2E2E2E2E2E2E2E2E2E2E2E2E2E2E2E2E2E2E2E2E2E2E2E2E2E2E2E2E2E2E2E2E2E2E2E2E2E2E2E2E2E2F5E2E2E2E2E2E2E2E2E2E2E2E2E2E2
310
E2E2E2E2E2E2E2E2E2E2E2E2E2E2E2E2E2E2E2E2E2E2E2E2E2E2E2E2E2E2E2E2E2E2E2E2E2E2E2E2E2E2E2E2E2E2E2E2E2E2E2E2E2E2E2E2E2E2E2E2E2E2E2E2E2E2E2E2E2E2E2E2E2E2E2E2E2E2E2E2E2E2E2E2E2E2E2E2E2E2E2E2E2E2E2E2E2E2E2E2F5E2E2E2E2E2E2E2E2E2E2E2E2E2E2E2E2E2E2E2E2E2E2E2E2E2E2
310
E2E2E2E2E2E2E2E2E2E2E2E2E2E2E2E2E2E2E2E2E2E2E2E2E2E9E2E2E2E2E2E2E2E2E2E2E2E2E2E2E2E2E2E2E2E2E2E2E2E2E2E2E2E2E2E2E2E2E2E2E2E2E2E2E2E2E2E2E2E2E2E2E2E2E2E2E2E2E2E2E2E2E2E2E2E2E2E2E2E2E2E2E2E2E2E2E2E2E2E2E2E2E2E2E2E2E2E2E2E2E2E2E2E2F5E2E2E2E2E2E2E2E2E2E2E2E2
310
E2E2E2E2E2E2E2E2E2E2E2E2E2E2E2E2E2E2E2E2E2E2E2E2E2E2E2E2E2E2E2E2E2E2E2E2E2E2E2E2E2E2E2E2E2E2E2E2E2E2E2E2E2E2E2E2E2E2E2E2E2E2E2E2E2E2E2E2E2E2E2E2E2E2E2E2E2E2E2E2E2E2E2E2E2E2E2E2E2E2E2E2E2E2E2E2E2E2E2E2E2E2F5E2E2E2E2E2E2E2E2E2E2E2E2E2E2E2E2E2E2E2E2E2E2E2E2
310
E2E2E2E2E2E2E2E2E2E2E2E2E2E2E2E2E2E2E2E2E2E2E2E2E2E2E2E9E2E2E2E2E2E2E2E2E2E2E2E2E2E2E2E2E2E2E2E2E2E2E2E2E2E2E2E2E2E2E2E2E2E2E2E2E2E2E2E2E2E2E2E2E2E2E2E2E2E2E2E2E2E2E2E2E2E2E2E2E2E2E2E2E2E2E2E2E2E2E2E2E2E2E2E2E2E2E2E2E2E2E2E2E2E2E2E2F5E2E2E2E2E2E2E2E2E2E2
310
E2E2E2E2E2E2E2E2E2E2E2E2E2E2E2E2E2E2E2E2E2E2E2E2E2E2E2E2E2E2E2E2E2E2E2E2E2E2E2E2E2E2E2E2E2E2E2E2E2E2E2E2E2E2E2E2E2E2E2E2E2E2E2E2E2E2E2E2E2E2E2E2E2E2E2E2E2E2E2E2E2E2E2E2E2E2E2E2E2E2E2E2E2E2E2E2E2E2E2E2E2E2E2E2F5E2E2E2E2E2E2E2E2E2E2E2E2E2E2E2E2E2E2E2E2E2E2
310
E2E2E2E2E2E2E2E2E2E2E2E2E2E2E2E2E2E2E2E2E2E2E2E2E2E2E2E2E2E9E2E2E2E2E2E2E2E2E2E2E2E2E2E2E2E2E2E2E2E2E2E2E2E2E2E2E2E2E2E2E2E2E2E2E2E2E2E2E2E2E2E2E2E2E2E2E2E2E2E2E2E2E2E2E2E2E2E2E2E2E2E2E2E2E2E2E2E2E2E2E2E2E2E2E2E2E2E2E2E2E2E2E2E2E2E2E2E2F5E2E2E2E2E2E2E2E2
310
E2E2E2E2E2E2E2E2E2E2E2E2E2E2E2E2E2E2E2E2E2E2E2E2E2E2E2E2E2E2E2E2E2E2E2E2E2E2E2E2E2E2E2E2E2E2E2E2E2E2E2E2E2E2E2E2E2E2E2E2E2E2E2E2E2E2E2E2E2E2E2E2E2E2E2E2E2E2E2E2E2E2E2E2E2E2E2E2E2E2E2E2E2E2E2E2E2E2E2E2E2E2E2E2E2E2F5E2E2E2E2E2E2E2E2E2E2E2E2E2E2E2E2E2E2E2E2
310
E2E2E2E2E2E2E2E2E2E2E2E2E2E2E2E2E2E2E2E2E2E2E2E2E2E2E2E2E2E2E2E9E2E2E2E2E2E2E2E2E2E2E2E2E2E2E2E2E2E2E2E2E2E2E2E2E2E2E2E2E2E2E2E2E2E2E2E2E2E2E2E2E2E2E2E2E2E2E2E2E2E2E2E2E2E2E2E2E2E2E2E2E2E2E2E2E2E2E2E2E2E2E2E2E2E2E2E2E2E2E2E2E2E2E2E2E2E2E2E2F5E2E2E2E2E2E2
310
E2E2E2E2E2E2E2E2E2E2E2E2E2E2E2E2E2E2E2E2E2E2E2E2E2E2E2E2E2E2E2E2E2E2E2E2E2E2E2E2E2E2E2E2E2E2E2E2E2E2E2E2E2E2E2E2E2E2E2E2E2E2E2E2E2E2E2E2E228282828282828282828282828282828282828282828282828282828282828282828282828282828E2E2E2E2E2E2E2E2E2E2E2E2E2E2E2E2E2E2
310
E2E2E2E2E2E2E2E2E2E2E2E2E2E2E2E2E2E2E2E2E2E2E2E2E2E2E2E2E2E2E2E2E2E9E2E2E2E2E2E2E2E2E2E2E2E2E2E2E2E2E2E2E2E2E2E2E2E2E2E2E2E2E2E2E2E2E2E2E2E2E2E2E2E2E2E2E2E2E2E2E2E2E2E2E2E2E2E2E2E2E2E2E2E2E2E2E2E2E2E2E2E2E2E2E2E2E2E2E2E2E2E2E2E2E2E2E2E2E2E2E2E2F5E2E2E2E2
310
E2E2E2E2E2E2E2E2E2E2E2E2E2E2E2E2E2E2E2E2E2E2E2E2E2E2E2E2E2E2E2E2E2E2E2E2E2E2E2E2E2E2E2E2E2E2E2E2E2E2E2E2E2E2E2E2E2E2E2E2E2E2E2E2E2E2E2E2E2E2E228282828282828282828282828282828282828282828282828282828282828282828282828282828E2E2E2E2E2E2E2E2E2E2E2E2E2E2E2E2
310
E2E2E2E2E2E2E2E2E2E2E2E2E2E2E2E2E2E2E2E2E2E2E2E2E2E2E2E2E2E2E2E2E2E2E2E9E2E2E2E2E2E2E2E2E2E2E2E2E2E2E2E2E2E2E2E2E2E2E2E2E2E2E2E2E2E2E2E2E2E2E2E2E2E2E2E2E2E2E2E2E2E2E2E2E2E2E2E2E2E2E2E2E2E2E2E2E2E2E2E2E2E2E2E2E2E2E2E2E2E2E2E2E2E2E2E2E2E2E2E2E2E2E2E2F5E2E2
310
E2E2E2E2E2E2E2E2E2E2E2E2E2E2E2E2E2E2E2E2E2E2E2E2E2E2E2E2E2E2E2E2E2E2E2E2E2E2E2E2E2E2E2E2E2E2E2E2E2E2E2E2E2E2E2E2E2E2E2E2E2E2E2E2E2E2E2E2E2E2E2E2E228E228E2E2E2E2E2E2E2E2E2E2E2E2E2E2E2E2E2E2E2E2E2E228E2E2E2E2E2E2E2E228E2E2E2E2F5E2E2E2E2E2E2E2E2E2E2E2E2E2E2
310
E2E2E2E2E2E2E2E2E2E2E2E2E2E2E2E2E2E2E2E2E2E2E2E2E2E2E2E2E2E2E2E2E2E2E2E2E2E9E2E2E2E2E2E2E2E2E2E2E2E2E2E2E2E2E2E2E2E2E2E2E2E2E2E2E2E2E2E2E2E2E2E2E2E2E2E2E2E2E2E2E2E2E2E2E2E2E2E2E2E2E2E2E2E2E2E2E2E2E2E2E2E2E2E2E2E2E2E2E2E2E2E2E2E2E2E2E2E2E2E2E2E2E2E2E2E2F5
310
E2E2E2E2E2E2E2E2E2E2E2E2E2E2E2E2E2E2E2E2E2E2E2E2E2E2E2E2E2E2E2E2E2E2E2E2E2E2E2E2E2E2E2E2E2E2E2E2E2E2E2E2E2E2E2E2E2E2E2E2E2E2E2E2E2E2E2E2E2E2E2E2E2E2E228282828282828282828282828282828282828282828282828282828282828282828282828282828E2E2E2E2E2E2E2E2E2E2E2E2
310
E2E2E2E2E2E2E2E2E2E2E2E2E2E2E2E2E2E2E2E2E2E2E2E2E2E2E2E2E2E2E2E2E2E2E2E2E2E2E2E9E2E2E2E2E2E2E2E2E2E2E2E2E2E2E2E2E2E2E2E2E2E2E2E2E2E2E2E2E2E2E2E2E2E2E2E2E2E2E2E2E2E2E2E2E2E2E2E2E2E2E2E2E2E2E2E2E2E2E2E2E2E2E2E2E2E2E2E2E2E2E2E2E2E2E2E2E2E2E2E2E2E2E2E2E2E2E2
310
E2F5E2E2E2E2E2E2E2E2E2E2E2E2E2E2E2E2E2E2E2E2E2E2E2E2E2E2E2E2E2E2E2E2E2E2E2E2E2E2E2E2E2E2E2E2E2E2E2E2E2E2E2E2E2E2E2E2E2E2E2E2E2E2E2E2E2E2E2E2E2E2E2E2E2E2E228282828282828282828282828282828282828282828282828282828282828282828282828282828E2E2E2E2E2E2E2E2E2E2
310
E2E2E2E2E2E2E2E2E2E2E2E2E2E2E2E2E2E2E2E2E2E2E2E2E2E2E2E2E2E2E2E2E2E2E2E2E2E2E2E2E2E9E2E2E2E2E2E2E2E2E2E2E2E2E2E2E2E2E2E2E2E2E2E2E2E2E2E2E2E2E2E2E2E2E2E2E2E2E2E2E2E2E2E2E2E2E2E2E2E2E2E2E2E2E2E2E2E2E2E2E2E2E2E2E2E2E2E2E2E2E2E2E2E2E2E2E2E2E2E2E2E2E2E2E2E2E2
310
E2E2E2F5E2E2E2E2E2E2E2E2E2E2E2E2E2E2E2E2E2E2E2E2E2E2E2E2E2E2E2E2E2E2E2E2E2E2E2E2E2E2E2E2E2E2E2E2E2E2E2E2E2E2E2E2E2E2E2E2E2E2E2E2E2E2E2E2E2E2E2E2E2E2E2E2E2E2E228E228E2E2E2E2E2E2E2E2E2E2E2E2E2E2E2E2E2E2E2E2E2E228E2E2E2E2E2E2E2E228E2E2E2E2F5E2E2E2E2E2E2E2E2
310
E2E2E2E2E2E2E2E2E2E2E2E2E2E2E2E2E2E2E2E2E2E2E2E2E2E2E2E2E2E2E2E2E2E2E2E2E2E2E2E2E2E2E2E9E2E2E2E2E2E2E2E2E2E2E2E2E2E2E2E2E2E2E2E2E2E2E2E2E2E2E2E2E2E2E2E2E2E2E2E2E2E2E2E2E2E2E2E2E2E2E2E2E2E2E2E2E2E2E2E2E2E2E2E2E2E2E2E2E2E2E2E2E2E2E2E2E2E2E2E2E2E2E2E2E2E2E2
310
E2E2E2E2E2F5E2E2E2E2E2E2E2E2E2E2E2E2E2E2E2E2E2E2E2E2E2E2E2E2E2E2E2E2E2E2E2E2E2E2E2E2E2E2E2E2E2E2E2E2E2E2E2E2E2E2E2E2E2E2E2E2E2E2E2E2E2E2E2E2E2E2E2E2E2E2E2E2E2E2E228282828282828282828282828282828282828282828282828282828282828282828282828282828E2E2E2E2E2E2
310
E2E2E2E2E2E2E2E2E2E2E2E2E2E2E2E2E2E2E2E2E2E2E2E2E2E2E2E2E2E2E2E2E2E2E2E2E2E2E2E2E2E2E2E2E2E9E2E2E2E2E2E2E2E2E2E2E2E2E2E2E2E2E2E2E2E2E2E2E2E2E2E2E2E2E2E2E2E2E2E2E2E2E2E2E2E2E2E2E2E2E2E2E2E2E2E2E2E2E2E2E2E2E2E2E2E2E2E2E2E2E2E2E2E2E2E2E2E2E2E2E2E2E2E2E2E2E2
310
E2E2E2E2E2E2E2F5E2E2E2E2E2E2E2E2E2E2E2E2E2E2E2E2E2E2E2E2E2E2E2E2E2E2E2E2E2E2E2E2E2E2E2E2E2E2E2E2E2E2E2E2E2E2E2E2E2E2E2E2E2E2E2E2E2E2E2E2E2E2E2E2E2E2E2E2E2E2E2E2E2E2E2282828E2E2E2E2E2E2E2E2282828282828E2E2E2E2E2E2E2E22828282828282828282828282828F5E2E2E2E2
310
E2E2E2E2E2E2E2E2E2E2E2E2E2E2E2E2E2E2E2E2E2E2E2E2E2E2E2E2E2E2E2E2E2E2E2E2E2E2E2E2E2E2E2E2E2E2E2E9E2E2E2E2E2E2E2E2E2E2E2E2E2E2E2E2E2E2E2E2E2E2E2E2E2E2E2E2E2E2E2E2E2E2E2E2E2E2E2E2E2E2E2E2E2E2E2E2E2E2E2E2E2E2E2E2E2E2E2E2E2E2E2E2E2E2E2E2E2E2E2E2E2E2E2E2E2E2E2
310
E2E2E2E2E2E2E2E2E2F5F5F5F5F5F5F5F5F5F5F5F5F5F5F5F5F5F5F5F5F5F5F5F5F5F5F5F5F5F5F5F5F5F5F5F5F5F5F5F5F5F5F5F5F5F5F5F5F5F5F5F5F5F5F5F5F5F5F5F5F5F5F5F5F5F5F5F5F5F5F5F5F5F5F5F528F528F5F5F5F5F5F5F5F5F5F5F5F5F5F5F5F5F5F5F5F5F5F528F5F5F5F5F5F5F5F528F5F5F5F5F5E2E2
310
E2E2E2E2E2E2E2E2E2E2E2E2E2E2E2E2E2E2E2E2E2E2E2E2E2E2E2E2E2E2E2E2E2E2E2E2E2E2E2E2E2E2E2E2E2E2E2E2E2E9E2E2E2E2E2E2E2E2E2E2E2E2E2E2E2E2E2E2E2E2E2E2E2E2E2E2E2E2E2E2E2E2E2E2E2E2E2E2E2E2E2E2E2E2E2E2E2E2E2E2E2E2E2E2E2E2E2E2E2E2E2E2E2E2E2E2E2E2E2E2E2E2E2E2E2E2E2
310
E2E2E2E2E2E2E2E2E2E2E2E2E2E2E2E2E2E2E2E2E2E2E2E2E2E2E2E2E2E2E2E2E2E2E2E2E2E2E2E2E2E2E2E2E2E2E2E2E2E2E2E2E2E2E2E2E2E2E2E2E2E2E2E2E2E2E2E2E2E2E2E2E2E2E2E2E2E2E2E2E2E2E2E2E2E2E2E2E2E2E2E2E2E2E2E2E2E2E2E2E2E2E2E2E2E2E2E2E2E2E2E2E2E2E2E2E2E2E2E2E2E2E2E2E2E2E2
310
E2E2E2E2E2E2E2E2E2E2E2E2E2E2E2E2E2E2E2E2E2E2E2E2E2E2E2E2E2E2E2E2E2E2E2E2E2E2E2E2E2E2E2E2E2E2E2E2E2E2E2E9E2E2E2E2E2E2E2E2E2E2E2E2E2E2E2E2E2E2E2E2E2E2E2E2E2E2E2E2E2E2E2E2E2E2E2E2E2E2E2E2E2E2E2E2E2E2E2E2E2E2E2E2E2E2E2E2E2E2E2E2E2E2E2E2E2E2E2E2E2E2E2E2E2E2E2
310
E2E2E2E2E2E2E2E2E2E2E2E2E2E2E2E2E2E2E2E2E2E2E2E2E2E2E2E2E2E2E2E2E2E2E2E2E2E2E2E2E2E2E2E2E2E2E2E2E2E2E2E2E2E2E2E2E2E2E2E2E2E2E2E2E2E2E2E2E2E2E2E2E2E2E2E2E2E2E2E2E2E2E2E2E2E2E2E2E2E2E2E2E2E2E2E2E2E2E2E2E2E2E2E2E2E2E2E2E2E2E2E2E2E2E2E2E2E2E2E2E2E2E2E2E2E2E2
310
E2E2E2E2E2E2E2E2E2E2E2E2E2E2E2E2E2E2E2E2E2E2E2E2E2E2E2E2E2E2E2E2E2E2E2E2E2E2E2E2E2E2E2E2E2E2E2E2E2E2E2E2E2E9E2E2E2E2E2E2E2E2E2E2E2E2E2E2E2E2E2E2E2E2E2E2E2E2E2E2E2E2E2E2E2E2E2E2E2E2E2E2E2E2E2E2E2E2E2E2E2E2E2E2E2E2E2E2E2E2E2E2E2E2E2E2E2E2E2E2E2E2E2E2E2E2E2
310
E2E2E2E2E2E2E2E2E2E2E2E2E2E2E2E2E2E2E2E2E2E2E2E2E2E2E2E2E2E2E2E2E2E2E2E2E2E2E2E2E2E2E2E2E2E2E2E2E2E2E2E2E2E2E2E2E2E2E2E2E2E2E2E2E2E2E2E2E2E2E2E2E2E2E2E2E2E2E2E2E2E2E2E2E2E2E2E2E2E2E2E2E2E2E2E2E2E2E2E2E2E2E2E2E2E2E2E2E2E2E2E2E2E2E2E2E2E2E2E2E2E2E2E2E2E2E2
310
E2E2E2E2E2E2E2E2E2E2E2E2E2E2E2E2E2E2E2E2E2E2E2E2E2E2E2E2E2E2E2E2E2E2E2E2E2E2E2E2E2E2E2E2E2E2E2E2E2E2E2E2E2E2E2E9E2E2E2E2E2E2E2E2E2E2E2E2E2E2E2E2E2E2E2E2E2E2E2E2E2E2E2E2E2E2E2E2E2E2E2E2E2E2E2E2E2E2E2E2E2E2E2E2E2E2E2E2E2E2E2E2E2E2E2E2E2E2E2E2E2E2E2E2E2E2E2
310
E2E2E2E2E2E2E2E2E2E2E2E2E2E2E2E2E2E2E2E2E2E2E2E2E2E2E2E2E2E2E2E2E2E2E2E2E2E2E2E2E2E2E2E2E2E2E2E2E2E2E2E2E2E2E2E2E2E2E2E2E2E2E2E2E2E2E2E2E2E2E2E2E2E2E2E2E2E2E2E2E2E2E2E2E2E2E2E2E2E2E2E2E2E2E2E2E2E2E2E2E2E2E2E2E2E2E2E2E2E2E2E2E2E2E2E2E2E2E2E2E2E2E2E2E2E2E2
310
E2E2E2E2E2E2E2E2E2E2E2E2E2E2E2E2E2E2E2E2E2E2E2E2E2E2E2E2E2E2E2E2E2E2E2E2E2E2E2E2E2E2E2E2E2E2E2E2E2E2E2E2E2E2E2E2E2E9E2E2E2E2E2E2E2E2E2E2E2E2E2E2E2E2E2E2E2E2E2E2E2E2E2E2E2E2E2E2E2E2E2E2E2E2E2E2E2E2E2E2E2E2E2E2E2E2E2E2E2E2E2E2E2E2E2E2E2E2E2E2E2E2E2E2E2E2E2
310
E2E2E2E2E2E2E2E2E2E2E2E2E2E2E2E2E2E2E2E2E2E2E2E2E2E2E2E2E2E2E2E2E2E2E2E2E2E2E2E2E2E2E2E2E2E2E2E2E2E2E2E2E2E2E2E2E2E2E2E2E2E2E2E2E2E2E2E2E2E2E2E2E2E2E2E2E2E2E2E2E2E2E2E2E2E2E2E2E2E2E2E2E2E2E2E2E2E2E2E2E2E2E2E2E2E2E2E2E2E2E2E2E2E2E2E2E2E2E2E2E2E2E2E2E2E2E2
310
E2E2E2E2E2E2E2E2E2E2E2E2E2E2E2E2E2E2E2E2E2E2E2E2E2E2E2E2E2E2E2E2E2E2E2E2E2E2E2E2E2E2E2E2E2E2E2E2E2E2E2E2E2E2E2E2E2E2E2E9E2E2E2E2E2E2E2E2E2E2E2E2E2E2E2E2E2E2E2E2E2E2E2E2E2E2E2E2E2E2E2E2E2E2E2E2E2E2E2E2E2E2E2E2E2E2E2E2E2E2E2E2E2E2E2E2E2E2E2E2E2E2E2E2E2E2E2
310
E2E2E2E2E2E2E2E2E2E2E2E2E2E2E2E2E2E2E2E2E2E2E2E2E2E2E2E2E2E2E2E2E2E2E2E2E2E2E2E2E2E2E2E2E2E2E2E2E2E2E2E2E2E2E2E2E2E2E2E2E2E2E2E2E2E2E2E2E2E2E2E2E2E2E2E2E2E2E2E2E2E2E2E2E2E2E2E2E2E2E2E2E2E2E2E2E2E2E2E2E2E2E2E2E2E2E2E2E2E2E2E2E2E2E2E2E2E2E2E2E2E2E2E2E2E2E2
310
E2E2E2E2E2E2E2E2E2E2E2E2E2E2E2E2E2E2E2E2E2E2E2E2E2E2E2E2E2E2E2E2E2E2E2E2E2E2E2E2E2E2E2E2E2E2E2E2E2E2E2E2E2E2E2E2E2E2E2E2E2E9E2E2E2E2E2E2E2E2E2E2E2E2E2E2E2E2E2E2E2E2E2E2E2E2E2E2E2E2E2E2E2E2E2E2E2E2E2E2E2E2E2E2E2E2E2E2E2E2E2E2E2E2E2E2E2E2E2E2E2E2E2E2E2E2E2
310
E2E2E2E2E2E2E2E2E2E2E2E2E2E2E2E2E2E2E2E2E2E2E2E2E2E2E2E2E2E2E2E2E2E2E2E2E2E2E2E2E2E2E2E2E2E2E2E2E2E2E2E2E2E2E2E2E2E2E2E2E2E2E2E2E2E2E2E2E2E2E2E2E2E2E2E2E2E2E2E2E2E2E2E2E2E2E2E2E2E2E2E2E2E2E2E2E2E2E2E2E2E2E2E2E2E2E2E2E2E2E2E2E2E2E2E2E2E2E2E2E2E2E2E2E2E2E2
310
E2E2E2E2E2E2E2E2E2E2E2E2E2E2E2E2E2E2E2E2E2E2E2E2E2E2E2E2E2E2E2E2E2E2E2E2E2E2E2E2E2E2E2E2E2E2E2E2E2E2E2E2E2E2E2E2E2E2E2E2E2E2E2E9E2E2E2E2E2E2E2E2E2E2E2E2E2E2E2E2E2E2E2E2E2E2E2E2E2E2E2E2E2E2E2E2E2E2E2E2E2E2E2E2E2E2E2E2E2E2E2E2E2E2E2E2E2E2E2E2E2E2E2E2E2E2E2
310
E2E2E2E2E2E2E2E2E2E2E2E2E2E2E2E2E2E2E2E2E2E2E2E2E2E2E2E2E2E2E2E2E2E2E2E2E2E2E2E2E2E2E2E2E2E2E2E2E2E2E2E2E2E2E2E2E2E2E2E2E2E2E2E2E2E2E2E2E2E2E2E2E2E2E2E2E2E2E2E2E2E2E2E2E2E2E2E2E2E2E2E2E2E2E2E2E2E2E2E2E2E2E2E2E2E2E2E2E2E2E2E2E2E2E2E2E2E2E2E2E2E2E2E2E2E2E2
310
E2E2E2E2E2E2E2E2E2E2E2E2E2E2E2E2E2E2E2E2E2E2E2E2E2E2E2E2E2E2E2E2E2E2E2E2E2E2E2E2E2E2E2E2E2E2E2E2E2E2E2E2E2E2E2E2E2E2E2E2E2E2E2E2E2E9E2E2E2E2E2E2E2E2E2E2E2E2E2E2E2E2E2E2E2E2E2E2E2E2E2E2E2E2E2E2E2E2E2E2E2E2E2E2E2E2E2E2E2E2E2E2E2E2E2E2E2E2E2E2E2E2E2E2E2E2E2
310
E2E2E2E2E2E2E2E2E2E2E2E2E2E2E2E2E2E2E2E2E2E2E2E2E2E2E2E2E2E2E2E2E2E2E2E2E2E2E2E2E2E2E2E2E2E2E2E2E2E2E2E2E2E2E2E2E2E2E2E2E2E2E2E2E2E2E2E2E2E2E2E2E2E2E2E2E2E2E2E2E2E2E2E2E2E2E2E2E2E2E2E2E2E2E2E2E2E2E2E2E2E2E2E2E2E2E2E2E2E2E2E2E2E2E2E2E2E2E2E2E2E2E2E2E2E2E2
310
E2E2E2E2E2E2E2E2E2E2E2E2E2E2E2E2E2E2E2E2E2E2E2E2E2E2E2E2E2E2E2E2E2E2E2E2E2E2E2E2E2E2E2E2E2E2E2E2E2E2E2E2E2E2E2E2E2E2E2E2E2E2E2E2E2E2E2E9E2E2E2E2E2E2E2E2E2E2E2E2E2E2E2E2E2E2E2E2E2E2E2E2E2E2E2E2E2E2E2E2E2E2E2E2E2E2E2E2E2E2E2E2E2E2E2E2E2E2E2E2E2E2E2E2E2E2E2
310
E2E2E2E2E2E2E2E2E2E2E2E2E2E2E2E2E2E2E2E2E2E2E2E2E2E2E2E2E2E2E2E2E2E2E2E2E2E2E2E2E2E2E2E2E2E2E2E2E2E2E2E2E2E2E2E2E2E2E2E2E2E2E2E2E2E2E2E2E2E2E2E2E2E2E2E2E2E2E2E2E2E2E2E2E2E2E2E2E2E2E2E2E2E2E2E2E2E2E2E2E2E2E2E2E2E2E2E2E2E2E2E2E2E2E2E2E2E2E2E2E2E2E2E2E2E2E2
310
E2E2E2E2E2E2E2E2E2E2E2E2E2E2E2E2E2E2E2E2E2E2E2E2E2E2E2E2E2E2E2E2E2E2E2E2E2E2E2E2E2E2E2E2E2E2E2E2E2E2E2E2E2E2E2E2E2E2E2E2E2E2E2E2E2E2E2E2E2E9E2E2E2E2E2E2E2E2E2E2E2E2E2E2E2E2E2E2E2E2E2E2E2E2E2E2E2E2E2E2E2E2E2E2E2E2E2E2E2E2E2E2E2E2E2E2E2E2E2E2E2E2E2E2E2E2E2
310
E2E2E2E2E2E2E2E2E2E2E2E2E2E2E2E2E2E2E2E2E2E2E2E2E2E2E2E2E2E2E2E2E2E2E2E2E2E2E2E2E2E2E2E2E2E2E2E2E2E2E2E2E2E2E2E2E2E2E2E2E2E2E2E2E2E2E2E2E2E2E2E2E2E2E2E2E2E2E2E2E2E2E2E2E2E2E2E2E2E2E2E2E2E2E2E2E2E2E2E2E2E2E2E2E2E2E2E2E2E2E2E2E2E2E2E2E2E2E2E2E2E2E2E2E2E2E2
310
E2E2E2E2E2E2E2E2E2E2E2E2E2E2E2E2E2E2E2E2E2E2E2E2E2E2E2E2E2E2E2E2E2E2E2E2E2E2E2E2E2E2E2E2E2E2E2E2E2E2E2E2E2E2E2E2E2E2E2E2E2E2E2E2E2E2E2E2E2E2E2E9E2E2E2E2E2E2E2E2E2E2E2E2E2E2E2E2E2E2E2E2E2E2E2E2E2E2E2E2E2E2E2E2E2E2E2E2E2E2E2E2E2E2E2E2E2E2E2E2E2E2E2E2E2E2E2
310
E2E2E2E2E2E2E2E2E2E2E2E2E2E2E2E2E2E2E2E2E2E2E2E2E2E2E2E2E2E2E2E2E2E2E2E2E2E2E2E2E2E2E2E2E2E2E2E2E2E2E2E2E2E2E2E2E2E2E2E2E2E2E2E2E2E2E2E2E2E2E2E2E2E2E2E2E2E2E2E2E2E2E2E2E2E2E2E2E2E2E2E2E2E2E2E2E2E2E2E2E2E2E2E2E2E2E2E2E2E2E2E2E2E2E2E2E2E2E2E2E2E2E2E2E2E2E2
310
E2E2E2E2E2E2E2E2E2E2E2E2E2E2E2E2E2E2E2E2E2E2E2E2E2E2E2E2E2E2E2E2E2E2E2E2E2E2E2E2E2E2E2E2E2E2E2E2E2E2E2E2E2E2E2E2E2E2E2E2E2E2E2E2E2E2E2E2E2E2E2E2E2E9E2E2E2E2E2E2E2E2E2E2E2E2E2E2E2E2E2E2E2E2E2E2E2E2E2E2E2E2E2E2E2E2E2E2E2E2E2E2E2E2E2E2E2E2E2E2E2E2E2E2E2E2E2
310
E2E2E2E2E2E2E2E2E2E2E2E2E2E2E2E2E2E2E2E2E2E2E2E2E2E2E2E2E2E2E2E2E2E2E2E2E2E2E2E2E2E2E2E2E2E2E2E2E2E2E2E2E2E2E2E2E2E2E2E2E2E2E2E2E2E2E2E2E2E2E2E2E2E2E2E2E2E2E2E2E2E2E2E2E2E2E2E2E2E2E2E2E2E2E2E2E2E2E2E2E2E2E2E2E2E2E2E2E2E2E2E2E2E2E2E2E2E2E2E2E2E2E2E2E2E2E2
310
E2E2E2E2E2E2E2E2E2E2E2E2E2E2E2E2E2E2E2E2E2E2E2E2E2E2E2E2E2E2E2E2E2E2E2E2E2E2E2E2E2E2E2E2E2E2E2E2E2E2E2E2E2E2E2E2E2E2E2E2E2E2E2E2E2E2E2E2E2E2E2E2E2E2E2E9E2E2E2E2E2E2E2E2E2E2E2E2E2E2E2E2E2E2E2E2E2E2E2E2E2E2E2E2E2E2E2E2E2E2E2E2E2E2E2E2E2E2E2E2E2E2E2E2E2E2E2
310
E2E2E2E2E2E2E2E2E2E2E2E2E2E2E2E2E2E2E2E2E2E2E2E2E2E2E2E2E2E2E2E2E2E2E2E2E2E2E2E2E2E2E2E2E2E2E2E2E2E2E2E2E2E2E2E2E2E2E2E2E2E2E2E2E2E2E2E2E2E2E2E2E2E2E2E2E2E2E2E2E2E2E2E2E2E2E2E2E2E2E2E2E2E2E2E2E2E2E2E2E2E2E2E2E2E2E2E2E2E2E2E2E2E2E2E2E2E2E2E2E2E2E2E2E2E2E2
310
E2E2E2E2E2E2E2E2E2E2E2E2E2E2E2E2E2E2E2E2E2E2E2E2E2E2E2E2E2E2E2E2E2E2E2E2E2E2E2E2E2E2E2E2E2E2E2E2E2E2E2E2E2E2E2E2E2E2E2E2E2E2E2E2E2E2E2E2E2E2E2E2E2E2E2E2E2E9E2E2E2E2E2E2E2E2E2E2E2E2E2E2E2E2E2E2E2E2E2E2E2E2E2E2E2E2E2E2E2E2E2E2E2E2E2E2E2E2E2E2E2E2E2E2E2E2E2
310
E2E2E2E2E2E2E2E2E2E2E2E2E2E2E2E2E2E2E2E2E2E2E2E2E2E2E2E2E2E2E2E2E2E2E2E2E2E2E2E2E2E2E2E2E2E2E2E2E2E2E2E2E2E2E2E2E2E2E2E2E2E2E2E2E2E2E2E2E2E2E2E2E2E2E2E2E2E2E2E2E2E2E2E2E2E2E2E2E2E2E2E2E2E2E2E2E2E2E2E2E2E2E2E2E2E2E2E2E2E2E2E2E2E2E2E2E2E2E2E2E2E2E2E2E2E2E2
310
E2E2E2E2E2E2E2E2E2E2E2E2E2E2E2E2E2E2E2E2E2E2E2E2E2E2E2E2E2E2E2E2E2E2E2E2E2E2E2E2E2E2E2E2E2E2E2E2E2E2E2E2E2E2E2E2E2E2E2E2E2E2E2E2E2E2E2E2E2E2E2E2E2E2E2E2E2E2E2E9E2E2E2E2E2E2E2E2E2E2E2E2E2E2E2E2E2E2E2E2E2E2E2E2E2E2E2E2E2E2E2E2E2E2E2E2E2E2E2E2E2E2E2E2E2E2E2
310
E2E2E2E2E2E2E2E2E2E2E2E2E2E2E2E2E2E2E2E2E2E2E2E2E2E2E2E2E2E2E2E2E2E2E2E2E2E2E2E2E2E2E2E2E2E2E2E2E2E2E2E2E2E2E2E2E2E2E2E2E2E2E2E2E2E2E2E2E2E2E2E2E2E2E2E2E2E2E2E2E2E2E2E2E2E2E2E2E2E2E2E2E2E2E2E2E2E2E2E2E2E2E2E2E2E2E2E2E2E2E2E2E2E2E2E2E2E2E2E2E2E2E2E2E2E2E2
310
E2E2E2E2E2E2E2E2E2E2E2E2E2E2E2E2E2E2E2E2E2E2E2E2E2E2E2E2E2E2E2E2E2E2E2E2E2E2E2E2E2E2E2E2E2E2E2E2E2E2E2E2E2E2E2E2E2E2E2E2E2E2E2E2E2E2E2E2E2E2E2E2E2E2E2E2E2E2E2E2E2E9E2E2E2E2E2E2E2E2E2E2E2E2E2E2E2E2E2E2E2E2E2E2E2E2E2E2E2E2E2E2E2E2E2E2E2E2E2E2E2E2E2E2E2E2E2
310
E2E2E2E2E2E2E2E2E2E2E2E2E2E2E2E2E2E2E2E2E2E2E2E2E2E2E2E2E2E2E2E2E2E2E2E2E2E2E2E2E2E2E2E2E2E2E2E2E2E2E2E2E2E2E2E2E2E2E2E2E2E2E2E2E2E2E2E2E2E2E2E2E2E2E2E2E2E2E2E2E2E2E2E2E2E2E2E2E2E2E2E2E2E2E2E2E2E2E2E2E2E2E2E2E2E2E2E2E2E2E2E2E2E2E2E2E2E2E2E2E2E2E2E2E2E2E2
310
E2E2E2E2E2E2E2E2E2E2E2E2E2E2E2E2E2E2E2E2E2E2E2E2E2E2E2E2E2E2E2E2E2E2E2E2E2E2E2E2E2E2E2E2E2E2E2E2E2E2E2E2E2E2E2E2E2E2E2E2E2E2E2E2E2E2E2E2E2E2E2E2E2E2E2E2E2E2E2E2E2E2E2E9E2E2E2E2E2E2E2E2E2E2E2E2E2E2E2E2E2E2E2E2E2E2E2E2E2E2E2E2E2E2E2E2E2E2E2E2E2E2E2E2E2E2E2
310
E2E2E2E2E2E2E2E2E2E2E2E2E2E2E2E2E2E2E2E2E2E2E2E2E2E2E2E2E2E2E2E2E2E2E2E2E2E2E2E2E2E2E2E2E2E2E2E2E2E2E2E2E2E2E2E2E2E2E2E2E2E2E2E2E2E2E2E2E2E2E2E2E2E2E2E2E2E2E2E2E2E2E2E2E2E2E2E2E2E2E2E2E2E2E2E2E2E2E2E2E2E2E2E2E2E2E2E2E2E2E2E2E2E2E2E2E2E2E2E2E2E2E2E2E2E2E2
310
E2E2E2E2E2E2E2E2E2E2E2E2E2E2E2E2E2E2E2E2E2E2E2E2E2E2E2E2E2E2E2E2E2E2E2E2E2E2E2E2E2E2E2E2E2E2E2E2E2E2E2E2E2E2E2E2E2E2E2E2E2E2E2E2E2E2E2E2E2E2E2E2E2E2E2E2E2E2E2E2E2E2E2E2E2E9E2E2E2E2E2E2E2E2E2E2E2E2E2E2E2E2E2E2E2E2E2E2E2E2E2E2E2E2E2E2E2E2E2E2E2E2E2E2E2E2E2
310
E2E2E2E2E2E2E2E2E2E2E2E2E2E2E2E2E2E2E2E2E2E2E2E2E2E2E2E2E2E2E2E2E2E2E2E2E2E2E2E2E2E2E2E2E2E2E2E2E2E2E2E2E2E2E2E2E2E2E2E2E2E2E2E2E2E2E2E2E2E2E2E2E2E2E2E2E2E2E2E2E2E2E2E2E2E2E2E2E2E2E2E2E2E2E2E2E2E2E2E2E2E2E2E2E2E2E2E2E2E2E2E2E2E2E2E2E2E2E2E2E2E2E2E2E2E2E2
310
E2E2E2E2E2E2E2E2E2E2E2E2E2E2E2E2E2E2E2E2E2E2E2E2E2E2E2E2E2E2E2E2E2E2E2E2E2E2E2E2E2E2E2E2E2E2E2E2E2E2E2E2E2E2E2E2E2E2E2E2E2E2E2E2E2E2E2E2E2E2E2E2E2E2E2E2E2E2E2E2E2E2E2E2E2E2E2E9E2E2E2E2E2E2E2E2E2E2E2E2E2E2E2E2E2E2E2E2E2E2E2E2E2E2E2E2E2E2E2E2E2E2E2E2E2E2E2
310
E2E2E2E2E2E2E2E2E2E2E2E2E2E2E2E2E2E2E2E2E2E2E2E2E2E2E2E2E2E2E2E2E2E2E2E2E2E2E2E2E2E2E2E2E2E2E2E2E2E2E2E2E2E2E2E2E2E2E2E2E2E2E2E2E2E2E2E2E2E2E2E2E2E2E2E2E2E2E2E2E2E2E2E2E2E2E2E2E2E2E2E2E2E2E2E2E2E2E2E2E2E2E2E2E2E2E2E2E2E2E2E2E2E2E2E2E2E2E2E2E2E2E2E2E2E2E2
310
E2E2E2E2E2E2E2E2E2E2E2E2E2E2E2E2E2E2E2E2E2E2E2E2E2E2E2E2E2E2E2E2E2E2E2E2E2E2E2E2E2E2E2E2E2E2E2E2E2E2E2E2E2E2E2E2E2E2E2E2E2E2E2E2E2E2E2E2E2E2E2E2E2E2E2E2E2E2E2E2E2E2E2E2E2E2E2E2E2E9E2E2E2E2E2E2E2E2E2E2E2E2E2E2E2E2E2E2E2E2E2E2E2E2E2E2E2E2E2E2E2E2E2E2E2E2E2
310
E2E2E2E2E2E2E2E2E2E2E2E2E2E2E2E2E2E2E2E2E2E2E2E2E2E2E2E2E2E2E2E2E2E2E2E2E2E2E2E2E2E2E2E2E2E2E2E2E2E2E2E2E2E2E2E2E2E2E2E2E2E2E2E2E2E2E2E2E2E2E2E2E2E2E2E2E2E2E2E2E2E2E2E2E2E2E2E2E2E2E2E2E2E2E2E2E2E2E2E2E2E2E2E2E2E2E2E2E2E2E2E2E2E2E2E2E2E2E2E2E2E2E2E2E2E2E2
310
E2E2E2E2E2E2E2E2E2E2E2E2E2E2E2E2E2E2E2E2E2E2E2E2E2E2E2E2E2E2E2E2E2E2E2E2E2E2E2E2E2E2E2E2E2E2E2E2E2E2E2E2E2E2E2E2E2E2E2E2E2E2E2E2E2E2E2E2E2E2E2E2E2E2E2E2E2E2E2E2E2E2E2E2E2E2E2E2E2E2E2E9E2E2E2E2E2E2E2E2E2E2E2E2E2E2E2E2E2E2E2E2E2E2E2E2E2E2E2E2E2E2E2E2E2E2E2
310
E2E2E2E2E2E2E2E2E2E2E2E2E2E2E2E2E2E2E2E2E2E2E2E2E2E2E2E2E2E2E2E2E2E2E2E2E2E2E2E2E2E2E2E2E2E2E2E2E2E2E2E2E2E2E2E2E2E2E2E2E2E2E2E2E2E2E2E2E2E2E2E2E2E2E2E2E2E2E2E2E2E2E2E2E2E2E2E2E2E2E2E2E2E2E2E2E2E2E2E2E2E2E2E2E2E2E2E2E2E2E2E2E2E2E2E2E2E2E2E2E2E2E2E2E2E2E2
310
E2E2E2E2E2E2E2E2E2E2E2E2E2E2E2E2E2E2E2E2E2E2E2E2E2E2E2E2E2E2E2E2E2E2E2E2E2E2E2E2E2E2E2E2E2E2E2E2E2E2E2E2E2E2E2E2E2E2E2E2E2E2E2E2E2E2E2E2E2E2E2E2E2E2E2E2E2E2E2E2E2E2E2E2E2E2E2E2E2E2E2E2E2E9E2E2E2E2E2E2E2E2E2E2E2E2E2E2E2E2E2E2E2E2E2E2E2E2E2E2E2E2E2E2E2E2E2
310
E2E2E2E2E2E2E2E2E2E2E2E2E2E2E2E2E2E2E2E2E2E2E2E2E2E2E2E2E2E2E2E2E2E2E2E2E2E2E2E2E2E2E2E2E2E2E2E2E2E2E2E2E2E2E2E2E2E2E2E2E2E2E2E2E2E2E2E2E2E2E2E2E2E2E2E2E2E2E2E2E2E2E2E2E2E2E2E2E2E2E2E2E2E2E2E2E2E2E2E2E2E2E2E2E2E2E2E2E2E2E2E2E2E2E2E2E2E2E2E2E2E2E2E2E2E2E2
310
E2E2E2E2E2E2E2E2E2E2E2E2E2E2E2E2E2E2E2E2E2E2E2E2E2E2E2E2E2E2E2E2E2E2E2E2E2E2E2E2E2E2E2E2E2E2E2E2E2E2E2E2E2E2E2E2E2E2E2E2E2E2E2E2E2E2E2E2E2E2E2E2E2E2E2E2E2E2E2E2E2E2E2E2E2E2E2E2E2E2E2E2E2E2E2E9E2E2E2E2E2E2E2E2E2E2E2E2E2E2E2E2E2E2E2E2E2E2E2E2E2E2E2E2E2E2E2
310
E2E2E2E2E2E2E2E2E2E2E2E2E2E2E2E2E2E2E2E2E2E2E2E2E2E2E2E2E2E2E2E2E2E2E2E2E2E2E2E2E2E2E2E2E2E2E2E2E2E2E2E2E2E2E2E2E2E2E2E2E2E2E2E2E2E2E2E2E2E2E2E2E2E2E2E2E2E2E2E2E2E2E2E2E2E2E2E2E2E2E2E2E2E2E2E2E2E2E2E2E2E2E2E2E2E2E2E2E2E2E2E2E2E2E2E2E2E2E2E2E2E2E2E2E2E2E2
310
E2E2E2E2E2E2E2E2E2E2E2E2E2E2E2E2E2E2E2E2E2E2E2E2E2E2E2E2E2E2E2E2E2E2E2E2E2E2E2E2E2E2E2E2E2E2E2E2E2E2E2E2E2E2E2E2E2E2E2E2E2E2E2E2E2E2E2E2E2E2E2E2E2E2E2E2E2E2E2E2E2E2E2E2E2E2E2E2E2E2E2E2E2E2E2E2E2E9E2E2E2E2E2E2E2E2E2E2E2E2E2E2E2E2E2E2E2E2E2E2E2E2E2E2E2E2E2
310
E2E2E2E2E2E2E2E2E2E2E2E2E2E2E2E2E2E2E2E2E2E2E2E2E2E2E2E2E2E2E2E2E2E2E2E2E2E2E2E2E2E2E2E2E2E2E2E2E2E2E2E2E2E2E2E2E2E2E2E2E2E2E2E2E2E2E2E2E2E2E2E2E2E2E2E2E2E2E2E2E2E2E2E2E2E2E2E2E2E2E2E2E2E2E2E2E2E2E2E2E2E2E2E2E2E2E2E2E2E2E2E2E2E2E2E2E2E2E2E2E2E2E2E2E2E2E2
310
E2E2E2E2E2E2E2E2E2E2E2E2E2E2E2E2E2E2E2E2E2E2E2E2E2E2E2E2E2E2E2E2E2E2E2E2E2E2E2E2E2E2E2E2E2E2E2E2E2E2E2E2E2E2E2E2E2E2E2E2E2E2E2E2E2E2E2E2E2E2E2E2E2E2E2E2E2E2E2E2E2E2E2E2E2E2E2E2E2E2E2E2E2E2E2E2E2E2E2E9E2E2E2E2E2E2E2E2E2E2E2E2E2E2E2E2E2E2E2E2E2E2E2E2E2E2E2
310
E2E2E2E2E2E2E2E2E2E2E2E2E2E2E2E2E2E2E2E2E2E2E2E2E2E2E2E2E2E2E2E2E2E2E2E2E2E2E2E2E2E2E2E2E2E2E2E2E2E2E2E2E2E2E2E2E2E2E2E2E2E2E2E2E2E2E2E2E2E2E2E2E2E2E2E2E2E2E2E2E2E2E2E2E2E2E2E2E2E2E2E2E2E2E2E2E2E2E2E2E2E2E2E2E2E2E2E2E2E2E2E2E2E2E2E2E2E2E2E2E2E2E2E2E2E2E2
310
E2E2E2E2E2E2E2E2E2E2E2E2E2E2E2E2E2E2E2E2E2E2E2E2E2E2E2E2E2E2E2E2E2E2E2E2E2E2E2E2E2E2E2E2E2E2E2E2E2E2E2E2E2E2E2E2E2E2E2E2E2E2E2E2E2E2E2E2E2E2E2E2E2E2E2E2E2E2E2E2E2E2E2E2E2E2E2E2E2E2E2E2E2E2E2E2E2E2E2E2E2E9E2E2E2E2E2E2E2E2E2E2E2E2E2E2E2E2E2E2E2E2E2E2E2E2E2
310
E2E2E2E2E2E2E2E2E2E2E2E2E2E2E2E2E2E2E2E2E2E2E2E2E2E2E2E2E2E2E2E2E2E2E2E2E2E2E2E2E2E2E2E2E2E2E2E2E2E2E2E2E2E2E2E2E2E2E2E2E2E2E2E2E2E2E2E2E2E2E2E2E2E2E2E2E2E2E2E2E2E2E2E2E2E2E2E2E2E2E2E2E2E2E2E2E2E2E2E2E2E2E2E2E2E2E2E2E2E2E2E2E2E2E2E2E2E2E2E2E2E2E2E2E2E2E2
310
E2E2E2E2E2E2E2E2E2E2E2E2E2E2E2E2E2E2E2E2E2E2E2E2E2E2E2E2E2E2E2E2E2E2E2E2E2E2E2E2E2E2E2E2E2E2E2E2E2E2E2E2E2E2E2E2E2E2E2E2E2E2E2E2E2E2E2E2E2E2E2E2E2E2E2E2E2E2E2E2E2E2E2E2E2E2E2E2E2E2E2E2E2E2E2E2E2E2E2E2E2E2E2E9E2E2E2E2E2E2E2E2E2E2E2E2E2E2E2E2E2E2E2E2E2E2E2
310
E2E2E2E2E2E2E2E2E2E2E2E2E2E2E2E2E2E2E2E2E2E2E2E2E2E2E2E2E2E2E2E2E2E2E2E2E2E2E2E2E2E2E2E2E2E2E2E2E2E2E2E2E2E2E2E2E2E2E2E2E2E2E2E2E2E2E2E2E2E2E2E2E2E2E2E2E2E2E2E2E2E2E2E2E2E2E2E2E2E2E2E2E2E2E2E2E2E2E2E2E2E2E2E2E2E2E2E2E2E2E2E2E2E2E2E2E2E2E2E2E2E2E2E2E2E2E2
310
E2E2E2E2E2E2E2E2E2E2E2E2E2E2E2E2E2E2E2E2E2E2E2E2E2E2E2E2E2E2E2E2E2E2E2E2E2E2E2E2E2E2E2E2E2E2E2E2E2E2E2E2E2E2E2E2E2E2E2E2E2E2E2E2E2E2E2E2E2E2E2E2E2E2E2E2E2E2E2E2E2E2E2E2E2E2E2E2E2E2E2E2E2E2E2E2E2E2E2E2E2E2E2E2E2E9E2E2E2E2E2E2E2E2E2E2E2E2E2E2E2E2E2E2E2E2E2
310
E2E2E2E2E2E2E2E2E2E2E2E2E2E2E2E2E2E2E2E2E2E2E2E2
  0
XRECORD
  5
3BB
102
{ACAD_REACTORS
330
4A
102
}
330
4A
100
AcDbXrecord
280
     1
102
MATERIAL
148
0.0
149
0.0
149
0.0
 93
        0
 94
      127
282
     0
 72
     0
 77
     0
171
     0
175
     0
179
     0
273
     0
  0
XRECORD
  5
4B
102
{ACAD_REACTORS
330
4A
102
}
330
4A
100
AcDbXrecord
280
     1
270
     1
271
     1
  0
XRECORD
  5
4C
102
{ACAD_REACTORS
330
4A
102
}
330
4A
100
AcDbXrecord
280
     1
270
     1
271
     1
  0
XRECORD
  5
4D
102
{ACAD_REACTORS
330
4A
102
}
330
4A
100
AcDbXrecord
280
     1
270
     1
271
     1
  0
XRECORD
  5
4E
102
{ACAD_REACTORS
330
4A
102
}
330
4A
100
AcDbXrecord
280
     1
270
     1
271
     1
  0
XRECORD
  5
4F
102
{ACAD_REACTORS
330
4A
102
}
330
4A
100
AcDbXrecord
280
     1
270
     1
271
     1
  0
XRECORD
  5
50
102
{ACAD_REACTORS
330
4A
102
}
330
4A
100
AcDbXrecord
280
     1
270
     1
271
     1
  0
XRECORD
  5
3BA
102
{ACAD_REACTORS
330
42
102
}
330
42
100
AcDbXrecord
280
     1
102
MATERIAL
148
0.0
149
0.0
149
0.0
 93
        0
 94
      127
282
     0
 72
     0
 77
     0
171
     0
175
     0
179
     0
273
     0
  0
XRECORD
  5
43
102
{ACAD_REACTORS
330
42
102
}
330
42
100
AcDbXrecord
280
     1
270
     1
271
     1
  0
XRECORD
  5
44
102
{ACAD_REACTORS
330
42
102
}
330
42
100
AcDbXrecord
280
     1
270
     1
271
     1
  0
XRECORD
  5
45
102
{ACAD_REACTORS
330
42
102
}
330
42
100
AcDbXrecord
280
     1
270
     1
271
     1
  0
XRECORD
  5
46
102
{ACAD_REACTORS
330
42
102
}
330
42
100
AcDbXrecord
280
     1
270
     1
271
     1
  0
XRECORD
  5
47
102
{ACAD_REACTORS
330
42
102
}
330
42
100
AcDbXrecord
280
     1
270
     1
271
     1
  0
XRECORD
  5
48
102
{ACAD_REACTORS
330
42
102
}
330
42
100
AcDbXrecord
280
     1
270
     1
271
     1
  0
XRECORD
  5
3B6
102
{ACAD_REACTORS
330
F
102
}
330
F
100
AcDbXrecord
280
     1
102
MATERIAL
148
0.0
149
0.0
149
0.0
 93
        0
 94
      127
282
     0
 72
     0
 77
     0
171
     0
175
     0
179
     0
273
     0
  0
XRECORD
  5
10
102
{ACAD_REACTORS
330
F
102
}
330
F
100
AcDbXrecord
280
     1
270
     1
271
     1
  0
XRECORD
  5
11
102
{ACAD_REACTORS
330
F
102
}
330
F
100
AcDbXrecord
280
     1
270
     1
271
     1
  0
XRECORD
  5
12
102
{ACAD_REACTORS
330
F
102
}
330
F
100
AcDbXrecord
280
     1
270
     1
271
     1
  0
XRECORD
  5
13
102
{ACAD_REACTORS
330
F
102
}
330
F
100
AcDbXrecord
280
     1
270
     1
271
     1
  0
XRECORD
  5
14
102
{ACAD_REACTORS
330
F
102
}
330
F
100
AcDbXrecord
280
     1
270
     1
271
     1
  0
XRECORD
  5
15
102
{ACAD_REACTORS
330
F
102
}
330
F
100
AcDbXrecord
280
     1
270
     1
271
     1
  0
CELLSTYLEMAP
  5
3DE
102
{ACAD_REACTORS
330
56
102
}
330
56
100
AcDbCellStyleMap
 90
        3
300
CELLSTYLE
  1
TABLEFORMAT_BEGIN
 90
        5
170
     1
 91
        0
 92
    32768
 62
   257
 93
        1
300
CONTENTFORMAT
  1
CONTENTFORMAT_BEGIN
 90
        0
 91
        0
 92
      512
 93
        0
300

 40
0.0
140
1.0
 94
        5
 62
     0
340
2A
144
6.0
309
CONTENTFORMAT_END
171
     1
301
MARGIN
  1
CELLMARGIN_BEGIN
 40
1.5
 40
1.5
 40
1.5
 40
1.5
 40
0.18
 40
0.18
309
CELLMARGIN_END
 94
        6
 95
        1
302
GRIDFORMAT
  1
GRIDFORMAT_BEGIN
 90
        0
 91
        1
 62
     0
 92
       -2
340
0
 93
        0
 40
1.125
309
GRIDFORMAT_END
 95
        2
302
GRIDFORMAT
  1
GRIDFORMAT_BEGIN
 90
        0
 91
        1
 62
     0
 92
       -2
340
0
 93
        0
 40
1.125
309
GRIDFORMAT_END
 95
        4
302
GRIDFORMAT
  1
GRIDFORMAT_BEGIN
 90
        0
 91
        1
 62
     0
 92
       -2
340
0
 93
        0
 40
1.125
309
GRIDFORMAT_END
 95
        8
302
GRIDFORMAT
  1
GRIDFORMAT_BEGIN
 90
        0
 91
        1
 62
     0
 92
       -2
340
0
 93
        0
 40
1.125
309
GRIDFORMAT_END
 95
       16
302
GRIDFORMAT
  1
GRIDFORMAT_BEGIN
 90
        0
 91
        1
 62
     0
 92
       -2
340
0
 93
        0
 40
1.125
309
GRIDFORMAT_END
 95
       32
302
GRIDFORMAT
  1
GRIDFORMAT_BEGIN
 90
        0
 91
        1
 62
     0
 92
       -2
340
0
 93
        0
 40
1.125
309
GRIDFORMAT_END
309
TABLEFORMAT_END
  1
CELLSTYLE_BEGIN
 90
        1
 91
        1
300
_TITLE
309
CELLSTYLE_END
300
CELLSTYLE
  1
TABLEFORMAT_BEGIN
 90
        5
170
     1
 91
        0
 92
        0
 62
   257
 93
        1
300
CONTENTFORMAT
  1
CONTENTFORMAT_BEGIN
 90
        0
 91
        0
 92
      512
 93
        0
300

 40
0.0
140
1.0
 94
        5
 62
     0
340
2A
144
4.5
309
CONTENTFORMAT_END
171
     1
301
MARGIN
  1
CELLMARGIN_BEGIN
 40
1.5
 40
1.5
 40
1.5
 40
1.5
 40
0.18
 40
0.18
309
CELLMARGIN_END
 94
        6
 95
        1
302
GRIDFORMAT
  1
GRIDFORMAT_BEGIN
 90
        0
 91
        1
 62
     0
 92
       -2
340
0
 93
        0
 40
1.125
309
GRIDFORMAT_END
 95
        2
302
GRIDFORMAT
  1
GRIDFORMAT_BEGIN
 90
        0
 91
        1
 62
     0
 92
       -2
340
0
 93
        0
 40
1.125
309
GRIDFORMAT_END
 95
        4
302
GRIDFORMAT
  1
GRIDFORMAT_BEGIN
 90
        0
 91
        1
 62
     0
 92
       -2
340
0
 93
        0
 40
1.125
309
GRIDFORMAT_END
 95
        8
302
GRIDFORMAT
  1
GRIDFORMAT_BEGIN
 90
        0
 91
        1
 62
     0
 92
       -2
340
0
 93
        0
 40
1.125
309
GRIDFORMAT_END
 95
       16
302
GRIDFORMAT
  1
GRIDFORMAT_BEGIN
 90
        0
 91
        1
 62
     0
 92
       -2
340
0
 93
        0
 40
1.125
309
GRIDFORMAT_END
 95
       32
302
GRIDFORMAT
  1
GRIDFORMAT_BEGIN
 90
        0
 91
        1
 62
     0
 92
       -2
340
0
 93
        0
 40
1.125
309
GRIDFORMAT_END
309
TABLEFORMAT_END
  1
CELLSTYLE_BEGIN
 90
        2
 91
        1
300
_HEADER
309
CELLSTYLE_END
300
CELLSTYLE
  1
TABLEFORMAT_BEGIN
 90
        5
170
     1
 91
        0
 92
        0
 62
   257
 93
        1
300
CONTENTFORMAT
  1
CONTENTFORMAT_BEGIN
 90
        0
 91
        0
 92
      512
 93
        0
300

 40
0.0
140
1.0
 94
        2
 62
     0
340
2A
144
4.5
309
CONTENTFORMAT_END
171
     1
301
MARGIN
  1
CELLMARGIN_BEGIN
 40
1.5
 40
1.5
 40
1.5
 40
1.5
 40
0.18
 40
0.18
309
CELLMARGIN_END
 94
        6
 95
        1
302
GRIDFORMAT
  1
GRIDFORMAT_BEGIN
 90
        0
 91
        1
 62
     0
 92
       -2
340
0
 93
        0
 40
1.125
309
GRIDFORMAT_END
 95
        2
302
GRIDFORMAT
  1
GRIDFORMAT_BEGIN
 90
        0
 91
        1
 62
     0
 92
       -2
340
0
 93
        0
 40
1.125
309
GRIDFORMAT_END
 95
        4
302
GRIDFORMAT
  1
GRIDFORMAT_BEGIN
 90
        0
 91
        1
 62
     0
 92
       -2
340
0
 93
        0
 40
1.125
309
GRIDFORMAT_END
 95
        8
302
GRIDFORMAT
  1
GRIDFORMAT_BEGIN
 90
        0
 91
        1
 62
     0
 92
       -2
340
0
 93
        0
 40
1.125
309
GRIDFORMAT_END
 95
       16
302
GRIDFORMAT
  1
GRIDFORMAT_BEGIN
 90
        0
 91
        1
 62
     0
 92
       -2
340
0
 93
        0
 40
1.125
309
GRIDFORMAT_END
 95
       32
302
GRIDFORMAT
  1
GRIDFORMAT_BEGIN
 90
        0
 91
        1
 62
     0
 92
       -2
340
0
 93
        0
 40
1.125
309
GRIDFORMAT_END
309
TABLEFORMAT_END
  1
CELLSTYLE_BEGIN
 90
        3
 91
        2
300
_DATA
309
CELLSTYLE_END
  0
XRECORD
  5
3E8
102
{ACAD_REACTORS
330
56
102
}
330
56
100
AcDbXrecord
280
     1
102
ACAD_ROUNDTRIP_PRE2007_TABLESTYLE
 90
      512
 91
        0
  1

 92
      512
 93
        0
  2

 94
      512
 95
        0
  3

  0
XRECORD
  5
36
102
{ACAD_REACTORS
330
35
102
}
330
35
100
AcDbXrecord
280
     1
102
RTVSPropertyOp0
 70
     1
102
RTVSPropertyOp1
 70
     1
102
RTVSPropertyOp2
 70
     1
102
RTVSPropertyOp3
 70
     1
102
RTVSPropertyOp4
 70
     1
102
RTVSPropertyOp5
 70
     1
102
RTVSPropertyOp6
 70
     1
102
RTVSPropertyOp7
 70
     1
102
RTVSPropertyOp8
 70
     1
102
RTVSPropertyOp9
 70
     1
102
RTVSPropertyOp10
 70
     1
102
RTVSPropertyOp11
 70
     1
102
RTVSPropertyOp12
 70
     1
102
RTVSPropertyOp13
 70
     1
102
RTVSPropertyOp14
 70
     1
102
RTVSPropertyOp15
 70
     1
102
RTVSPropertyOp16
 70
     1
102
RTVSPropertyOp17
 70
     1
102
RTVSPropertyOp18
 70
     1
102
RTVSPropertyOp19
 70
     1
102
RTVSPropertyOp20
 70
     1
102
RTVSPropertyOp21
 70
     1
102
RTVSPropertyOp22
 70
     1
102
RTVSPropertyOp23
 70
     1
102
RTVSPropertyOp24
 70
     1
102
RTVSPropertyOp25
 70
     1
102
RTVSPropertyOp26
 70
     1
102
RTVSPropertyOp27
 70
     1
102
RTVSPropertyOp28
 70
     1
102
RTVSPropertyOp29
 70
     1
102
RTVSPropertyOp30
 70
     1
102
RTVSPropertyOp31
 70
     1
102
RTVSPropertyOp32
 70
     1
  0
XRECORD
  5
5C
102
{ACAD_REACTORS
330
5B
102
}
330
5B
100
AcDbXrecord
280
     1
102
RTVSPropertyOp0
 70
     1
102
RTVSPropertyOp1
 70
     1
102
RTVSPropertyOp2
 70
     1
102
RTVSPropertyOp3
 70
     1
102
RTVSPropertyOp4
 70
     1
102
RTVSPropertyOp5
 70
     1
102
RTVSPropertyOp6
 70
     1
102
RTVSPropertyOp7
 70
     1
102
RTVSPropertyOp8
 70
     1
102
RTVSPropertyOp9
 70
     1
102
RTVSPropertyOp10
 70
     1
102
RTVSPropertyOp11
 70
     1
102
RTVSPropertyOp12
 70
     1
102
RTVSPropertyOp13
 70
     1
102
RTVSPropertyOp14
 70
     1
102
RTVSPropertyOp15
 70
     1
102
RTVSPropertyOp16
 70
     1
102
RTVSPropertyOp17
 70
     1
102
RTVSPropertyOp18
 70
     1
102
RTVSPropertyOp19
 70
     1
102
RTVSPropertyOp20
 70
     1
102
RTVSPropertyOp21
 70
     1
102
RTVSPropertyOp22
 70
     1
102
RTVSPropertyOp23
 70
     1
102
RTVSPropertyOp24
 70
     1
102
RTVSPropertyOp25
 70
     1
102
RTVSPropertyOp26
 70
     1
102
RTVSPropertyOp27
 70
     1
102
RTVSPropertyOp28
 70
     1
102
RTVSPropertyOp29
 70
     1
102
RTVSPropertyOp30
 70
     1
102
RTVSPropertyOp31
 70
     1
102
RTVSPropertyOp32
 70
     1
  0
XRECORD
  5
59
102
{ACAD_REACTORS
330
58
102
}
330
58
100
AcDbXrecord
280
     1
102
RTVSPropertyOp0
 70
     1
102
RTVSPropertyOp1
 70
     1
102
RTVSPropertyOp2
 70
     1
102
RTVSPropertyOp3
 70
     1
102
RTVSPropertyOp4
 70
     1
102
RTVSPropertyOp5
 70
     1
102
RTVSPropertyOp6
 70
     1
102
RTVSPropertyOp7
 70
     1
102
RTVSPropertyOp8
 70
     1
102
RTVSPropertyOp9
 70
     1
102
RTVSPropertyOp10
 70
     1
102
RTVSPropertyOp11
 70
     1
102
RTVSPropertyOp12
 70
     1
102
RTVSPropertyOp13
 70
     1
102
RTVSPropertyOp14
 70
     1
102
RTVSPropertyOp15
 70
     1
102
RTVSPropertyOp16
 70
     1
102
RTVSPropertyOp17
 70
     1
102
RTVSPropertyOp18
 70
     1
102
RTVSPropertyOp19
 70
     1
102
RTVSPropertyOp20
 70
     1
102
RTVSPropertyOp21
 70
     1
102
RTVSPropertyOp22
 70
     1
102
RTVSPropertyOp23
 70
     1
102
RTVSPropertyOp24
 70
     1
102
RTVSPropertyOp25
 70
     1
102
RTVSPropertyOp26
 70
     1
102
RTVSPropertyOp27
 70
     1
102
RTVSPropertyOp28
 70
     1
102
RTVSPropertyOp29
 70
     1
102
RTVSPropertyOp30
 70
     1
102
RTVSPropertyOp31
 70
     1
102
RTVSPropertyOp32
 70
     1
  0
ENDSEC
  0
EOF
