  0
SECTION
  2
HEADER
  9
$ACADVER
  1
AC1014
  9
$ACADMAINTVER
 70
     9
  9
$DWGCODEPAGE
  3
ANSI_949
  9
$INSBASE
 10
0.0
 20
0.0
 30
0.0
  9
$EXTMIN
 10
22.72720636418898
 20
41.94717639119744
 30
-0.0015258207003583
  9
$EXTMAX
 10
307.5897235511683
 20
206.0401930544062
 30
0.0000000349246037
  9
$LIMMIN
 10
-50.0
 20
-50.0
  9
$LIMMAX
 10
1200.0
 20
900.0
  9
$ORTHOMODE
 70
     0
  9
$REGENMODE
 70
     1
  9
$FILLMODE
 70
     1
  9
$QTEXTMODE
 70
     0
  9
$MIRRTEXT
 70
     1
  9
$DRAGMODE
 70
     2
  9
$LTSCALE
 40
5.0
  9
$OSMODE
 70
   567
  9
$ATTMODE
 70
     1
  9
$TEXTSIZE
 40
3.0
  9
$TRACEWID
 40
0.05
  9
$TEXTSTYLE
  7
GHS
  9
$CLAYER
  8
TXT
  9
$CELTYPE
  6
BYLAYER
  9
$CECOLOR
 62
   256
  9
$CELTSCALE
 40
1.0
  9
$DELOBJ
 70
     1
  9
$DISPSILH
 70
     0
  9
$DIMSCALE
 40
1.0
  9
$DIMASZ
 40
3.0
  9
$DIMEXO
 40
1.0
  9
$DIMDLI
 40
0.38
  9
$DIMRND
 40
0.0
  9
$DIMDLE
 40
0.0
  9
$DIMEXE
 40
1.0
  9
$DIMTP
 40
0.0
  9
$DIMTM
 40
0.0
  9
$DIMTXT
 40
4.0
  9
$DIMCEN
 40
1.0
  9
$DIMTSZ
 40
0.0
  9
$DIMTOL
 70
     0
  9
$DIMLIM
 70
     0
  9
$DIMTIH
 70
     0
  9
$DIMTOH
 70
     0
  9
$DIMSE1
 70
     0
  9
$DIMSE2
 70
     0
  9
$DIMTAD
 70
     1
  9
$DIMZIN
 70
     8
  9
$DIMBLK
  1

  9
$DIMASO
 70
     1
  9
$DIMSHO
 70
     1
  9
$DIMPOST
  1

  9
$DIMAPOST
  1

  9
$DIMALT
 70
     0
  9
$DIMALTD
 70
     2
  9
$DIMALTF
 40
25.4
  9
$DIMLFAC
 40
1.0
  9
$DIMTOFL
 70
     0
  9
$DIMTVP
 40
0.0
  9
$DIMTIX
 70
     1
  9
$DIMSOXD
 70
     0
  9
$DIMSAH
 70
     0
  9
$DIMBLK1
  1

  9
$DIMBLK2
  1

  9
$DIMSTYLE
  2
STANDARD
  9
$DIMCLRD
 70
     0
  9
$DIMCLRE
 70
     0
  9
$DIMCLRT
 70
     0
  9
$DIMTFAC
 40
1.0
  9
$DIMGAP
 40
1.0
  9
$DIMJUST
 70
     0
  9
$DIMSD1
 70
     0
  9
$DIMSD2
 70
     0
  9
$DIMTOLJ
 70
     1
  9
$DIMTZIN
 70
     8
  9
$DIMALTZ
 70
     8
  9
$DIMALTTZ
 70
     8
  9
$DIMFIT
 70
     5
  9
$DIMUPT
 70
     0
  9
$DIMUNIT
 70
     2
  9
$DIMDEC
 70
     4
  9
$DIMTDEC
 70
     4
  9
$DIMALTU
 70
     2
  9
$DIMALTTD
 70
     2
  9
$DIMTXSTY
  7
GHS
  9
$DIMAUNIT
 70
     0
  9
$LUNITS
 70
     2
  9
$LUPREC
 70
     4
  9
$SKETCHINC
 40
0.1
  9
$FILLETRAD
 40
1.0
  9
$AUNITS
 70
     0
  9
$AUPREC
 70
     4
  9
$MENU
  1
acad
  9
$ELEVATION
 40
0.0
  9
$PELEVATION
 40
0.0
  9
$THICKNESS
 40
0.0
  9
$LIMCHECK
 70
     0
  9
$BLIPMODE
 70
     1
  9
$CHAMFERA
 40
0.0
  9
$CHAMFERB
 40
0.0
  9
$CHAMFERC
 40
0.0
  9
$CHAMFERD
 40
0.0
  9
$SKPOLY
 70
     0
  9
$TDCREATE
 40
2451213.484347453
  9
$TDUPDATE
 40
2453376.854524363
  9
$TDINDWG
 40
0.6278572801
  9
$TDUSRTIMER
 40
0.6278572801
  9
$USRTIMER
 70
     1
  9
$ANGBASE
 50
0.0
  9
$ANGDIR
 70
     0
  9
$PDMODE
 70
     0
  9
$PDSIZE
 40
0.0
  9
$PLINEWID
 40
0.5
  9
$COORDS
 70
     2
  9
$SPLFRAME
 70
     0
  9
$SPLINETYPE
 70
     6
  9
$SPLINESEGS
 70
     8
  9
$ATTDIA
 70
     0
  9
$ATTREQ
 70
     1
  9
$HANDLING
 70
 22529
  9
$HANDSEED
  5
250F
  9
$SURFTAB1
 70
     6
  9
$SURFTAB2
 70
     6
  9
$SURFTYPE
 70
     6
  9
$SURFU
 70
     6
  9
$SURFV
 70
     6
  9
$UCSNAME
  2

  9
$UCSORG
 10
0.0
 20
0.0
 30
0.0
  9
$UCSXDIR
 10
1.0
 20
0.0
 30
0.0
  9
$UCSYDIR
 10
0.0
 20
1.0
 30
0.0
  9
$PUCSNAME
  2

  9
$PUCSORG
 10
0.0
 20
0.0
 30
0.0
  9
$PUCSXDIR
 10
1.0
 20
0.0
 30
0.0
  9
$PUCSYDIR
 10
0.0
 20
1.0
 30
0.0
  9
$USERI1
 70
     0
  9
$USERI2
 70
     0
  9
$USERI3
 70
     0
  9
$USERI4
 70
     0
  9
$USERI5
 70
     0
  9
$USERR1
 40
0.0
  9
$USERR2
 40
0.0
  9
$USERR3
 40
0.0
  9
$USERR4
 40
0.0
  9
$USERR5
 40
0.0
  9
$WORLDVIEW
 70
     1
  9
$SHADEDGE
 70
     3
  9
$SHADEDIF
 70
    70
  9
$TILEMODE
 70
     1
  9
$MAXACTVP
 70
    16
  9
$PINSBASE
 10
149.2599104232214
 20
50.00000000000001
 30
601.137579776771
  9
$PLIMCHECK
 70
     0
  9
$PEXTMIN
 10
1.000000000000000E+20
 20
1.000000000000000E+20
 30
1.000000000000000E+20
  9
$PEXTMAX
 10
-1.000000000000000E+20
 20
-1.000000000000000E+20
 30
-1.000000000000000E+20
  9
$PLIMMIN
 10
0.0
 20
0.0
  9
$PLIMMAX
 10
12.0
 20
9.0
  9
$UNITMODE
 70
     0
  9
$VISRETAIN
 70
     0
  9
$PLINEGEN
 70
     0
  9
$PSLTSCALE
 70
     1
  9
$TREEDEPTH
 70
  3020
  9
$PICKSTYLE
 70
     0
  9
$CMLSTYLE
  2
STANDARD
  9
$CMLJUST
 70
     0
  9
$CMLSCALE
 40
1.0
  9
$PROXYGRAPHICS
 70
     1
  9
$MEASUREMENT
 70
     0
  0
ENDSEC
  0
SECTION
  2
CLASSES
  0
CLASS
  1
ACDBDICTIONARYWDFLT
  2
AcDbDictionaryWithDefault
  3
AutoCAD 2000
 90
        0
280
     0
281
     0
  0
CLASS
  1
ACDBPLACEHOLDER
  2
AcDbPlaceHolder
  3
AutoCAD 2000
 90
        0
280
     0
281
     0
  0
CLASS
  1
LAYOUT
  2
AcDbLayout
  3
AutoCAD 2000
 90
        0
280
     0
281
     0
  0
CLASS
  1
DICTIONARYVAR
  2
AcDbDictionaryVar
  3
AutoCAD 2000
 90
        0
280
     0
281
     0
  0
CLASS
  1
LONG_TRANSACTION
  2
AcDbLongTransaction
  3
AutoCAD 2000
 90
        0
280
     0
281
     0
  0
CLASS
  1
LWPOLYLINE
  2
AcDbPolyline
  3
AutoCAD 2000
 90
        0
280
     0
281
     1
  0
CLASS
  1
HATCH
  2
AcDbHatch
  3
AutoCAD 2000
 90
        0
280
     0
281
     1
  0
CLASS
  1
XRECORD
  2
AcDbXrecord
  3
AutoCAD 2000
 90
        0
280
     0
281
     0
  0
CLASS
  1
LONG_TRANSACTION
  2
AcDbLongTransaction
  3
AutoCAD 2000
 90
        0
280
     0
281
     0
  0
CLASS
  1
LWPOLYLINE
  2
AcDbPolyline
  3
AutoCAD 2000
 90
        0
280
     0
281
     1
  0
CLASS
  1
HATCH
  2
AcDbHatch
  3
AutoCAD 2000
 90
        0
280
     0
281
     1
  0
CLASS
  1
XRECORD
  2
AcDbXrecord
  3
AutoCAD 2000
 90
        0
280
     0
281
     0
  0
CLASS
  1
DIMASSOC
  2
AcDbDimAssoc
  3
"AcDbDimAssoc|Product Desc:     AcDim ARX App For Dimension|Company:          Autodesk, Inc.|WEB Address:      www.autodesk.com"
 90
        0
280
     0
281
     0
  0
CLASS
  1
LONG_TRANSACTION
  2
AcDbLongTransaction
  3
AutoCAD 2000
 90
        0
280
     0
281
     0
  0
CLASS
  1
LWPOLYLINE
  2
AcDbPolyline
  3
AutoCAD 2000
 90
        0
280
     0
281
     1
  0
CLASS
  1
HATCH
  2
AcDbHatch
  3
AutoCAD 2000
 90
        0
280
     0
281
     1
  0
CLASS
  1
XRECORD
  2
AcDbXrecord
  3
AutoCAD 2000
 90
        0
280
     0
281
     0
  0
CLASS
  1
LONG_TRANSACTION
  2
AcDbLongTransaction
  3
AutoCAD 2000
 90
        0
280
     0
281
     0
  0
CLASS
  1
LWPOLYLINE
  2
AcDbPolyline
  3
AutoCAD 2000
 90
        0
280
     0
281
     1
  0
CLASS
  1
HATCH
  2
AcDbHatch
  3
AutoCAD 2000
 90
        0
280
     0
281
     1
  0
CLASS
  1
XRECORD
  2
AcDbXrecord
  3
AutoCAD 2000
 90
        0
280
     0
281
     0
  0
CLASS
  1
LONG_TRANSACTION
  2
AcDbLongTransaction
  3
AutoCAD 2000
 90
        0
280
     0
281
     0
  0
CLASS
  1
LWPOLYLINE
  2
AcDbPolyline
  3
AutoCAD 2000
 90
        0
280
     0
281
     1
  0
CLASS
  1
HATCH
  2
AcDbHatch
  3
AutoCAD 2000
 90
        0
280
     0
281
     1
  0
CLASS
  1
XRECORD
  2
AcDbXrecord
  3
AutoCAD 2000
 90
        0
280
     0
281
     0
  0
CLASS
  1
LONG_TRANSACTION
  2
AcDbLongTransaction
  3
AutoCAD 2000
 90
        0
280
     0
281
     0
  0
CLASS
  1
LWPOLYLINE
  2
AcDbPolyline
  3
AutoCAD 2000
 90
        0
280
     0
281
     1
  0
CLASS
  1
HATCH
  2
AcDbHatch
  3
AutoCAD 2000
 90
        0
280
     0
281
     1
  0
CLASS
  1
XRECORD
  2
AcDbXrecord
  3
AutoCAD 2000
 90
        0
280
     0
281
     0
  0
ENDSEC
  0
SECTION
  2
TABLES
  0
TABLE
  2
VPORT
  5
8
330
0
100
AcDbSymbolTable
 70
     2
  0
VPORT
  5
24A2
330
8
100
AcDbSymbolTableRecord
100
AcDbViewportTableRecord
  2
*ACTIVE
 70
     0
 10
0.0
 20
0.0
 11
1.0
 21
1.0
 12
165.1584649576786
 22
123.9936847228018
 13
0.0
 23
0.0
 14
1.0
 24
1.0
 15
0.0
 25
0.0
 16
0.0
 26
0.0
 36
1.0
 17
0.0
 27
0.0
 37
0.0
 40
184.7574657024691
 41
1.549367088607595
 42
50.0
 43
0.0
 44
0.0
 50
0.0
 51
0.0
 71
     0
 72
 10000
 73
     1
 74
     0
 75
     1
 76
     0
 77
     0
 78
     0
  0
ENDTAB
  0
TABLE
  2
LTYPE
  5
5
330
0
100
AcDbSymbolTable
 70
     2
  0
LTYPE
  5
13
330
5
100
AcDbSymbolTableRecord
100
AcDbLinetypeTableRecord
  2
BYBLOCK
 70
     0
  3

 72
    65
 73
     0
 40
0.0
  0
LTYPE
  5
14
330
5
100
AcDbSymbolTableRecord
100
AcDbLinetypeTableRecord
  2
BYLAYER
 70
     0
  3

 72
    65
 73
     0
 40
0.0
  0
LTYPE
  5
15
330
5
100
AcDbSymbolTableRecord
100
AcDbLinetypeTableRecord
  2
CONTINUOUS
 70
     0
  3
Solid line
 72
    65
 73
     0
 40
0.0
  0
LTYPE
  5
34
330
5
100
AcDbSymbolTableRecord
100
AcDbLinetypeTableRecord
  2
CENTER
 70
     0
  3
____ _ ____ _ ____ _ ____ _ ____ _ ____ _ ____ 
 72
    65
 73
     4
 40
2.0
 49
1.25
 74
     0
 49
-0.25
 74
     0
 49
0.25
 74
     0
 49
-0.25
 74
     0
  0
ENDTAB
  0
TABLE
  2
LAYER
  5
2
330
0
100
AcDbSymbolTable
 70
     9
  0
LAYER
  5
10
330
2
100
AcDbSymbolTableRecord
100
AcDbLayerTableRecord
  2
0
 70
     0
 62
     7
  6
CONTINUOUS
  0
LAYER
  5
37
330
2
100
AcDbSymbolTableRecord
100
AcDbLayerTableRecord
  2
1
 70
     0
 62
     1
  6
CONTINUOUS
  0
LAYER
  5
38
330
2
100
AcDbSymbolTableRecord
100
AcDbLayerTableRecord
  2
2
 70
     0
 62
     2
  6
CONTINUOUS
  0
LAYER
  5
39
330
2
100
AcDbSymbolTableRecord
100
AcDbLayerTableRecord
  2
4
 70
     0
 62
     4
  6
CONTINUOUS
  0
LAYER
  5
3B
330
2
100
AcDbSymbolTableRecord
100
AcDbLayerTableRecord
  2
3
 70
     0
 62
     3
  6
CONTINUOUS
  0
LAYER
  5
3C
330
2
100
AcDbSymbolTableRecord
100
AcDbLayerTableRecord
  2
DEFPOINTS
 70
     0
 62
     7
  6
CONTINUOUS
  0
LAYER
  5
3D
330
2
100
AcDbSymbolTableRecord
100
AcDbLayerTableRecord
  2
5
 70
     0
 62
    11
  6
CONTINUOUS
  0
LAYER
  5
40
330
2
100
AcDbSymbolTableRecord
100
AcDbLayerTableRecord
  2
TXT
 70
     0
 62
     3
  6
CONTINUOUS
  0
LAYER
  5
41
330
2
100
AcDbSymbolTableRecord
100
AcDbLayerTableRecord
  2
CL
 70
     0
 62
     6
  6
CENTER
  0
ENDTAB
  0
TABLE
  2
STYLE
  5
3
330
0
100
AcDbSymbolTable
 70
     2
  0
STYLE
  5
11
330
3
100
AcDbSymbolTableRecord
100
AcDbTextStyleTableRecord
  2
STANDARD
 70
     0
 40
0.0
 41
6.0
 50
0.0
 71
     0
 42
0.2
  3
txt
  4

  0
STYLE
  5
2B
330
3
100
AcDbSymbolTableRecord
100
AcDbTextStyleTableRecord
  2
GHS
 70
     0
 40
0.0
 41
0.6
 50
0.0
 71
     0
 42
3.0
  3
ROMANS
  4
GHS
  0
ENDTAB
  0
TABLE
  2
VIEW
  5
6
330
0
100
AcDbSymbolTable
 70
     0
  0
ENDTAB
  0
TABLE
  2
UCS
  5
7
330
0
100
AcDbSymbolTable
 70
     0
  0
ENDTAB
  0
TABLE
  2
APPID
  5
9
330
0
100
AcDbSymbolTable
 70
     3
  0
APPID
  5
12
330
9
100
AcDbSymbolTableRecord
100
AcDbRegAppTableRecord
  2
ACAD
 70
     0
  0
APPID
  5
C1C
330
9
100
AcDbSymbolTableRecord
100
AcDbRegAppTableRecord
  2
AVE_RENDER
 70
     0
  0
APPID
  5
C1D
330
9
100
AcDbSymbolTableRecord
100
AcDbRegAppTableRecord
  2
GOUNGUL
 70
     0
  0
ENDTAB
  0
TABLE
  2
DIMSTYLE
  5
A
330
0
100
AcDbSymbolTable
 70
     1
  0
DIMSTYLE
105
5AB
102
{ACAD_REACTORS
330
215B
330
21D1
330
21E9
330
2173
330
21B9
330
218B
330
213A
330
2122
102
}
330
A
100
AcDbSymbolTableRecord
100
AcDbDimStyleTableRecord
  2
STANDARD
 70
     0
  3

  4

  5

  6

  7

 40
1.0
 41
0.18
 42
0.0625
 43
0.38
 44
0.18
 45
0.0
 46
0.0
 47
0.0
 48
0.0
140
0.18
141
0.09
142
0.0
143
25.4
144
1.0
145
0.0
146
1.0
147
0.09
 71
     0
 72
     0
 73
     1
 74
     1
 75
     0
 76
     0
 77
     0
 78
     0
170
     0
171
     2
172
     0
173
     0
174
     0
175
     0
176
     0
177
     0
178
     0
270
     2
271
     4
272
     4
273
     2
274
     2
340
11
275
     0
280
     0
281
     0
282
     0
283
     1
284
     0
285
     0
286
     0
287
     3
288
     0
  0
ENDTAB
  0
TABLE
  2
BLOCK_RECORD
  5
1
330
0
100
AcDbSymbolTable
 70
     9
  0
BLOCK_RECORD
  5
1E
102
{ACAD_XDICTIONARY
360
5B9
102
}
330
1
100
AcDbSymbolTableRecord
100
AcDbBlockTableRecord
  2
*MODEL_SPACE
  0
BLOCK_RECORD
  5
1A
102
{ACAD_XDICTIONARY
360
5BB
102
}
330
1
100
AcDbSymbolTableRecord
100
AcDbBlockTableRecord
  2
*PAPER_SPACE
  0
BLOCK_RECORD
  5
2123
330
1
100
AcDbSymbolTableRecord
100
AcDbBlockTableRecord
  2
*D0
  0
BLOCK_RECORD
  5
213B
330
1
100
AcDbSymbolTableRecord
100
AcDbBlockTableRecord
  2
*D1
  0
BLOCK_RECORD
  5
215C
330
1
100
AcDbSymbolTableRecord
100
AcDbBlockTableRecord
  2
*D2
  0
BLOCK_RECORD
  5
2174
330
1
100
AcDbSymbolTableRecord
100
AcDbBlockTableRecord
  2
*D3
  0
BLOCK_RECORD
  5
218C
330
1
100
AcDbSymbolTableRecord
100
AcDbBlockTableRecord
  2
*D4
  0
BLOCK_RECORD
  5
21BA
330
1
100
AcDbSymbolTableRecord
100
AcDbBlockTableRecord
  2
*D5
  0
BLOCK_RECORD
  5
21D2
330
1
100
AcDbSymbolTableRecord
100
AcDbBlockTableRecord
  2
*D6
  0
BLOCK_RECORD
  5
21EA
330
1
100
AcDbSymbolTableRecord
100
AcDbBlockTableRecord
  2
*D7
  0
BLOCK_RECORD
  5
226A
330
1
100
AcDbSymbolTableRecord
100
AcDbBlockTableRecord
  2
110X85
  0
ENDTAB
  0
ENDSEC
  0
SECTION
  2
BLOCKS
  0
BLOCK
  5
46
330
1E
100
AcDbEntity
  8
0
100
AcDbBlockBegin
  2
*MODEL_SPACE
 70
     0
 10
0.0
 20
0.0
 30
0.0
  3
*MODEL_SPACE
  1

  0
ENDBLK
  5
47
330
1E
100
AcDbEntity
  8
0
100
AcDbBlockEnd
  0
BLOCK
  5
44
330
1A
100
AcDbEntity
 67
     1
  8
0
100
AcDbBlockBegin
  2
*PAPER_SPACE
 70
     0
 10
0.0
 20
0.0
 30
0.0
  3
*PAPER_SPACE
  1

  0
ENDBLK
  5
45
330
1A
100
AcDbEntity
 67
     1
  8
0
100
AcDbBlockEnd
  0
BLOCK
  5
212D
330
2123
100
AcDbEntity
  8
0
100
AcDbBlockBegin
  2
*D0
 70
     1
 10
0.0
 20
0.0
 30
0.0
  3
*D0
  1

  0
LINE
  5
24C6
330
2123
100
AcDbEntity
  8
TXT
 62
     0
100
AcDbLine
 10
300.4999999999997
 20
117.4999999999998
 30
0.0
 11
300.4999999999997
 21
144.0
 31
0.0
  0
LINE
  5
24C7
330
2123
100
AcDbEntity
  8
TXT
 62
     0
100
AcDbLine
 10
284.4999999999998
 20
138.5
 30
0.0
 11
284.4999999999998
 21
144.0
 31
0.0
  0
LINE
  5
24C8
330
2123
100
AcDbEntity
  8
TXT
 62
     0
100
AcDbLine
 10
297.4999999999997
 20
143.0
 30
0.0
 11
287.4999999999999
 21
143.0
 31
0.0
  0
SOLID
  5
24C9
330
2123
100
AcDbEntity
  8
TXT
 62
     0
100
AcDbTrace
 10
297.4999999999997
 20
143.5
 30
0.0
 11
297.4999999999997
 21
142.5
 31
0.0
 12
300.4999999999997
 22
143.0
 32
0.0
 13
300.4999999999997
 23
143.0
 33
0.0
  0
SOLID
  5
24CA
330
2123
100
AcDbEntity
  8
TXT
 62
     0
100
AcDbTrace
 10
287.4999999999999
 20
143.5
 30
0.0
 11
287.4999999999999
 21
142.5
 31
0.0
 12
284.4999999999998
 22
143.0
 32
0.0
 13
284.4999999999998
 23
143.0
 33
0.0
  0
MTEXT
  5
24CB
330
2123
100
AcDbEntity
  8
TXT
 62
     0
100
AcDbMText
 10
292.4999999999998
 20
146.0
 30
0.0
 40
4.0
 41
0.0
 71
     5
 72
     1
  1
\A1;16
  7
GHS
  0
POINT
  5
24CC
330
2123
100
AcDbEntity
  8
DEFPOINTS
 62
     0
100
AcDbPoint
 10
300.4999999999997
 20
116.4999999999998
 30
0.0
  0
POINT
  5
24CD
330
2123
100
AcDbEntity
  8
DEFPOINTS
 62
     0
100
AcDbPoint
 10
284.4999999999998
 20
137.5
 30
0.0
  0
POINT
  5
24CE
330
2123
100
AcDbEntity
  8
DEFPOINTS
 62
     0
100
AcDbPoint
 10
284.4999999999998
 20
143.0
 30
0.0
  0
ENDBLK
  5
212E
330
2123
100
AcDbEntity
  8
0
100
AcDbBlockEnd
  0
BLOCK
  5
2145
330
213B
100
AcDbEntity
  8
0
100
AcDbBlockBegin
  2
*D1
 70
     1
 10
0.0
 20
0.0
 30
0.0
  3
*D1
  1

  0
LINE
  5
24CF
330
213B
100
AcDbEntity
  8
TXT
 62
     0
100
AcDbLine
 10
150.4999999999999
 20
138.5
 30
0.0
 11
150.4999999999999
 21
144.0
 31
0.0
  0
LINE
  5
24D0
330
213B
100
AcDbEntity
  8
TXT
 62
     0
100
AcDbLine
 10
284.4999999999998
 20
138.5
 30
0.0
 11
284.4999999999998
 21
144.0
 31
0.0
  0
LINE
  5
24D1
330
213B
100
AcDbEntity
  8
TXT
 62
     0
100
AcDbLine
 10
153.4999999999998
 20
143.0
 30
0.0
 11
281.4999999999999
 21
143.0
 31
0.0
  0
SOLID
  5
24D2
330
213B
100
AcDbEntity
  8
TXT
 62
     0
100
AcDbTrace
 10
153.4999999999998
 20
143.5
 30
0.0
 11
153.4999999999998
 21
142.5
 31
0.0
 12
150.4999999999999
 22
143.0
 32
0.0
 13
150.4999999999999
 23
143.0
 33
0.0
  0
SOLID
  5
24D3
330
213B
100
AcDbEntity
  8
TXT
 62
     0
100
AcDbTrace
 10
281.4999999999999
 20
143.5
 30
0.0
 11
281.4999999999999
 21
142.5
 31
0.0
 12
284.4999999999998
 22
143.0
 32
0.0
 13
284.4999999999998
 23
143.0
 33
0.0
  0
MTEXT
  5
24D4
330
213B
100
AcDbEntity
  8
TXT
 62
     0
100
AcDbMText
 10
217.4999999999998
 20
146.0
 30
0.0
 40
4.0
 41
0.0
 71
     5
 72
     1
  1
\A1;STROKE=134
  7
GHS
  0
POINT
  5
24D5
330
213B
100
AcDbEntity
  8
DEFPOINTS
 62
     0
100
AcDbPoint
 10
150.4999999999999
 20
137.5
 30
0.0
  0
POINT
  5
24D6
330
213B
100
AcDbEntity
  8
DEFPOINTS
 62
     0
100
AcDbPoint
 10
284.4999999999998
 20
137.5
 30
0.0
  0
POINT
  5
24D7
330
213B
100
AcDbEntity
  8
DEFPOINTS
 62
     0
100
AcDbPoint
 10
284.4999999999998
 20
143.0
 30
0.0
  0
ENDBLK
  5
2146
330
213B
100
AcDbEntity
  8
0
100
AcDbBlockEnd
  0
BLOCK
  5
2166
330
215C
100
AcDbEntity
  8
0
100
AcDbBlockBegin
  2
*D2
 70
     1
 10
0.0
 20
0.0
 30
0.0
  3
*D2
  1

  0
LINE
  5
24D8
330
215C
100
AcDbEntity
  8
TXT
 62
     0
100
AcDbLine
 10
115.1999999999999
 20
55.0
 30
0.0
 11
115.1999999999999
 21
42.0
 31
0.0
  0
LINE
  5
24D9
330
215C
100
AcDbEntity
  8
TXT
 62
     0
100
AcDbLine
 10
300.4999999999997
 20
74.99999999999994
 30
0.0
 11
300.4999999999997
 21
42.0
 31
0.0
  0
LINE
  5
24DA
330
215C
100
AcDbEntity
  8
TXT
 62
     0
100
AcDbLine
 10
118.1999999999999
 20
43.0
 30
0.0
 11
297.4999999999997
 21
43.0
 31
0.0
  0
SOLID
  5
24DB
330
215C
100
AcDbEntity
  8
TXT
 62
     0
100
AcDbTrace
 10
118.1999999999999
 20
43.5
 30
0.0
 11
118.1999999999999
 21
42.5
 31
0.0
 12
115.1999999999999
 22
43.0
 32
0.0
 13
115.1999999999999
 23
43.0
 33
0.0
  0
SOLID
  5
24DC
330
215C
100
AcDbEntity
  8
TXT
 62
     0
100
AcDbTrace
 10
297.4999999999997
 20
43.5
 30
0.0
 11
297.4999999999997
 21
42.5
 31
0.0
 12
300.4999999999997
 22
43.0
 32
0.0
 13
300.4999999999997
 23
43.0
 33
0.0
  0
MTEXT
  5
24DD
330
215C
100
AcDbEntity
  8
TXT
 62
     0
100
AcDbMText
 10
207.8499999999998
 20
46.0
 30
0.0
 40
4.0
 41
0.0
 71
     5
 72
     1
  1
\A1;185.3
  7
GHS
  0
POINT
  5
24DE
330
215C
100
AcDbEntity
  8
DEFPOINTS
 62
     0
100
AcDbPoint
 10
115.1999999999999
 20
56.0
 30
0.0
  0
POINT
  5
24DF
330
215C
100
AcDbEntity
  8
DEFPOINTS
 62
     0
100
AcDbPoint
 10
300.4999999999997
 20
75.99999999999994
 30
0.0
  0
POINT
  5
24E0
330
215C
100
AcDbEntity
  8
DEFPOINTS
 62
     0
100
AcDbPoint
 10
300.4999999999997
 20
43.0
 30
0.0
  0
ENDBLK
  5
2167
330
215C
100
AcDbEntity
  8
0
100
AcDbBlockEnd
  0
BLOCK
  5
217E
330
2174
100
AcDbEntity
  8
0
100
AcDbBlockBegin
  2
*D3
 70
     1
 10
0.0
 20
0.0
 30
0.0
  3
*D3
  1

  0
LINE
  5
24E1
330
2174
100
AcDbEntity
  8
TXT
 62
     0
100
AcDbLine
 10
34.15434265698968
 20
138.5
 30
0.0
 11
34.15434265698968
 21
144.0
 31
0.0
  0
LINE
  5
24E2
330
2174
100
AcDbEntity
  8
TXT
 62
     0
100
AcDbLine
 10
59.15434265698968
 20
138.5
 30
0.0
 11
59.15434265698968
 21
144.0
 31
0.0
  0
LINE
  5
24E3
330
2174
100
AcDbEntity
  8
TXT
 62
     0
100
AcDbLine
 10
37.15434265698968
 20
143.0
 30
0.0
 11
56.15434265698969
 21
143.0
 31
0.0
  0
SOLID
  5
24E4
330
2174
100
AcDbEntity
  8
TXT
 62
     0
100
AcDbTrace
 10
37.15434265698968
 20
143.5
 30
0.0
 11
37.15434265698968
 21
142.5
 31
0.0
 12
34.15434265698968
 22
143.0
 32
0.0
 13
34.15434265698968
 23
143.0
 33
0.0
  0
SOLID
  5
24E5
330
2174
100
AcDbEntity
  8
TXT
 62
     0
100
AcDbTrace
 10
56.15434265698969
 20
143.5
 30
0.0
 11
56.15434265698969
 21
142.5
 31
0.0
 12
59.15434265698968
 22
143.0
 32
0.0
 13
59.15434265698968
 23
143.0
 33
0.0
  0
MTEXT
  5
24E6
330
2174
100
AcDbEntity
  8
TXT
 62
     0
100
AcDbMText
 10
46.65434265698968
 20
146.0
 30
0.0
 40
4.0
 41
0.0
 71
     5
 72
     1
  1
\A1;25
  7
GHS
  0
POINT
  5
24E7
330
2174
100
AcDbEntity
  8
DEFPOINTS
 62
     0
100
AcDbPoint
 10
34.15434265698968
 20
137.5
 30
0.0
  0
POINT
  5
24E8
330
2174
100
AcDbEntity
  8
DEFPOINTS
 62
     0
100
AcDbPoint
 10
59.15434265698968
 20
137.5
 30
0.0
  0
POINT
  5
24E9
330
2174
100
AcDbEntity
  8
DEFPOINTS
 62
     0
100
AcDbPoint
 10
59.15434265698968
 20
143.0
 30
0.0
  0
ENDBLK
  5
217F
330
2174
100
AcDbEntity
  8
0
100
AcDbBlockEnd
  0
BLOCK
  5
2197
330
218C
100
AcDbEntity
  8
0
100
AcDbBlockBegin
  2
*D4
 70
     1
 10
0.0
 20
0.0
 30
0.0
  3
*D4
  1

  0
LINE
  5
24EA
330
218C
100
AcDbEntity
  8
TXT
 62
     0
100
AcDbLine
 10
225.0000294627874
 20
133.5
 30
0.0
 11
225.0000294627874
 21
127.0
 31
0.0
  0
LINE
  5
24EB
330
218C
100
AcDbEntity
  8
TXT
 62
     0
100
AcDbLine
 10
230.0000294627873
 20
133.5
 30
0.0
 11
230.0000294627873
 21
127.0
 31
0.0
  0
LINE
  5
24EC
330
218C
100
AcDbEntity
  8
TXT
 62
     0
100
AcDbLine
 10
222.0000294627874
 20
128.0
 30
0.0
 11
219.0000294627874
 21
128.0
 31
0.0
  0
LINE
  5
24ED
330
218C
100
AcDbEntity
  8
TXT
 62
     0
100
AcDbLine
 10
233.0000294627873
 20
128.0
 30
0.0
 11
236.0000294627873
 21
128.0
 31
0.0
  0
MTEXT
  5
24EE
330
218C
100
AcDbEntity
  8
TXT
 62
     0
100
AcDbMText
 10
235.0420330372248
 20
130.6180072027009
 30
0.0
 40
4.0
 41
0.0
 71
     5
 72
     1
  1
\A1;%%C5
  7
GHS
  0
SOLID
  5
24EF
330
218C
100
AcDbEntity
  8
TXT
 62
     0
100
AcDbTrace
 10
222.0000294627874
 20
128.4999999999999
 30
0.0
 11
222.0000294627874
 21
127.5
 31
0.0
 12
225.0000294627874
 22
128.0
 32
0.0
 13
225.0000294627874
 23
128.0
 33
0.0
  0
SOLID
  5
24F0
330
218C
100
AcDbEntity
  8
TXT
 62
     0
100
AcDbTrace
 10
233.0000294627873
 20
128.4999999999999
 30
0.0
 11
233.0000294627873
 21
127.5
 31
0.0
 12
230.0000294627873
 22
128.0
 32
0.0
 13
230.0000294627873
 23
128.0
 33
0.0
  0
POINT
  5
24F1
330
218C
100
AcDbEntity
  8
DEFPOINTS
 62
     0
100
AcDbPoint
 10
225.0000294627874
 20
134.5
 30
0.0
  0
POINT
  5
24F2
330
218C
100
AcDbEntity
  8
DEFPOINTS
 62
     0
100
AcDbPoint
 10
230.0000294627873
 20
134.5
 30
0.0
  0
POINT
  5
24F3
330
218C
100
AcDbEntity
  8
DEFPOINTS
 62
     0
100
AcDbPoint
 10
230.0000294627873
 20
128.0
 30
0.0
  0
ENDBLK
  5
2198
330
218C
100
AcDbEntity
  8
0
100
AcDbBlockEnd
  0
BLOCK
  5
21C4
330
21BA
100
AcDbEntity
  8
0
100
AcDbBlockBegin
  2
*D5
 70
     1
 10
0.0
 20
0.0
 30
0.0
  3
*D5
  1

  0
LINE
  5
24F4
330
21BA
100
AcDbEntity
  8
TXT
 62
     0
100
AcDbLine
 10
224.0000294627874
 20
117.5
 30
0.0
 11
214.0
 21
117.5
 31
0.0
  0
LINE
  5
24F5
330
21BA
100
AcDbEntity
  8
TXT
 62
     0
100
AcDbLine
 10
224.0000294627874
 20
134.5
 30
0.0
 11
214.0
 21
134.5
 31
0.0
  0
LINE
  5
24F6
330
21BA
100
AcDbEntity
  8
TXT
 62
     0
100
AcDbLine
 10
215.0
 20
120.5
 30
0.0
 11
215.0
 21
131.5
 31
0.0
  0
SOLID
  5
24F7
330
21BA
100
AcDbEntity
  8
TXT
 62
     0
100
AcDbTrace
 10
214.5
 20
120.5
 30
0.0
 11
215.5
 21
120.5
 31
0.0
 12
215.0
 22
117.5
 32
0.0
 13
215.0
 23
117.5
 33
0.0
  0
SOLID
  5
24F8
330
21BA
100
AcDbEntity
  8
TXT
 62
     0
100
AcDbTrace
 10
214.5
 20
131.5
 30
0.0
 11
215.5
 21
131.5
 31
0.0
 12
215.0
 22
134.5
 32
0.0
 13
215.0
 23
134.5
 33
0.0
  0
MTEXT
  5
24F9
330
21BA
100
AcDbEntity
  8
TXT
 62
     0
100
AcDbMText
 10
211.9999999999999
 20
126.0
 30
0.0
 40
4.0
 41
0.0
 71
     5
 72
     1
  1
\A1;17
  7
GHS
 11
0.0000000000000001
 21
1.0
 31
0.0
  0
POINT
  5
24FA
330
21BA
100
AcDbEntity
  8
DEFPOINTS
 62
     0
100
AcDbPoint
 10
225.0000294627874
 20
117.5
 30
0.0
  0
POINT
  5
24FB
330
21BA
100
AcDbEntity
  8
DEFPOINTS
 62
     0
100
AcDbPoint
 10
225.0000294627874
 20
134.5
 30
0.0
  0
POINT
  5
24FC
330
21BA
100
AcDbEntity
  8
DEFPOINTS
 62
     0
100
AcDbPoint
 10
215.0
 20
134.5
 30
0.0
  0
ENDBLK
  5
21C5
330
21BA
100
AcDbEntity
  8
0
100
AcDbBlockEnd
  0
BLOCK
  5
21DC
330
21D2
100
AcDbEntity
  8
0
100
AcDbBlockBegin
  2
*D6
 70
     1
 10
0.0
 20
0.0
 30
0.0
  3
*D6
  1

  0
LINE
  5
24FD
330
21D2
100
AcDbEntity
  8
TXT
 62
     0
100
AcDbLine
 10
23.0
 20
81.0
 30
0.0
 11
22.99999999999999
 21
42.0
 31
0.0
  0
LINE
  5
24FE
330
21D2
100
AcDbEntity
  8
TXT
 62
     0
100
AcDbLine
 10
72.0
 20
96.5
 30
0.0
 11
72.0
 21
42.0
 31
0.0
  0
LINE
  5
24FF
330
21D2
100
AcDbEntity
  8
TXT
 62
     0
100
AcDbLine
 10
25.99999999999999
 20
43.0
 30
0.0
 11
69.0
 21
43.0
 31
0.0
  0
SOLID
  5
2500
330
21D2
100
AcDbEntity
  8
TXT
 62
     0
100
AcDbTrace
 10
25.99999999999999
 20
43.5
 30
0.0
 11
25.99999999999999
 21
42.5
 31
0.0
 12
22.99999999999999
 22
43.0
 32
0.0
 13
22.99999999999999
 23
43.0
 33
0.0
  0
SOLID
  5
2501
330
21D2
100
AcDbEntity
  8
TXT
 62
     0
100
AcDbTrace
 10
69.0
 20
43.5
 30
0.0
 11
69.0
 21
42.5
 31
0.0
 12
72.0
 22
43.0
 32
0.0
 13
72.0
 23
43.0
 33
0.0
  0
MTEXT
  5
2502
330
21D2
100
AcDbEntity
  8
TXT
 62
     0
100
AcDbMText
 10
47.5
 20
46.0
 30
0.0
 40
4.0
 41
0.0
 71
     5
 72
     1
  1
\A1;49
  7
GHS
  0
POINT
  5
2503
330
21D2
100
AcDbEntity
  8
DEFPOINTS
 62
     0
100
AcDbPoint
 10
23.0
 20
82.0
 30
0.0
  0
POINT
  5
2504
330
21D2
100
AcDbEntity
  8
DEFPOINTS
 62
     0
100
AcDbPoint
 10
72.0
 20
97.5
 30
0.0
  0
POINT
  5
2505
330
21D2
100
AcDbEntity
  8
DEFPOINTS
 62
     0
100
AcDbPoint
 10
72.0
 20
43.0
 30
0.0
  0
ENDBLK
  5
21DD
330
21D2
100
AcDbEntity
  8
0
100
AcDbBlockEnd
  0
BLOCK
  5
21F4
330
21EA
100
AcDbEntity
  8
0
100
AcDbBlockBegin
  2
*D7
 70
     1
 10
0.0
 20
0.0
 30
0.0
  3
*D7
  1

  0
LINE
  5
2506
330
21EA
100
AcDbEntity
  8
TXT
 62
     0
100
AcDbLine
 10
114.1999999999999
 20
56.0
 30
0.0
 11
91.99999999999999
 21
56.00000000000001
 31
0.0
  0
LINE
  5
2507
330
21EA
100
AcDbEntity
  8
TXT
 62
     0
100
AcDbLine
 10
135.4999999999997
 20
117.5
 30
0.0
 11
92.0
 21
117.5
 31
0.0
  0
LINE
  5
2508
330
21EA
100
AcDbEntity
  8
TXT
 62
     0
100
AcDbLine
 10
92.99999999999998
 20
59.00000000000001
 30
0.0
 11
93.0
 21
114.5
 31
0.0
  0
SOLID
  5
2509
330
21EA
100
AcDbEntity
  8
TXT
 62
     0
100
AcDbTrace
 10
92.49999999999998
 20
59.00000000000001
 30
0.0
 11
93.49999999999999
 21
59.00000000000001
 31
0.0
 12
92.99999999999998
 22
56.00000000000001
 32
0.0
 13
92.99999999999998
 23
56.00000000000001
 33
0.0
  0
SOLID
  5
250A
330
21EA
100
AcDbEntity
  8
TXT
 62
     0
100
AcDbTrace
 10
92.5
 20
114.5
 30
0.0
 11
93.49999999999999
 21
114.5
 31
0.0
 12
93.0
 22
117.5
 32
0.0
 13
93.0
 23
117.5
 33
0.0
  0
MTEXT
  5
250B
330
21EA
100
AcDbEntity
  8
TXT
 62
     0
100
AcDbMText
 10
89.99999999999998
 20
86.75000000000002
 30
0.0
 40
4.0
 41
0.0
 71
     5
 72
     1
  1
\A1;61.5
  7
GHS
 11
0.0000000000000001
 21
1.0
 31
0.0
  0
POINT
  5
250C
330
21EA
100
AcDbEntity
  8
DEFPOINTS
 62
     0
100
AcDbPoint
 10
115.1999999999999
 20
56.0
 30
0.0
  0
POINT
  5
250D
330
21EA
100
AcDbEntity
  8
DEFPOINTS
 62
     0
100
AcDbPoint
 10
136.4999999999997
 20
117.5
 30
0.0
  0
POINT
  5
250E
330
21EA
100
AcDbEntity
  8
DEFPOINTS
 62
     0
100
AcDbPoint
 10
93.0
 20
117.5
 30
0.0
  0
ENDBLK
  5
21F5
330
21EA
100
AcDbEntity
  8
0
100
AcDbBlockEnd
  0
BLOCK
  5
2273
330
226A
100
AcDbEntity
  8
0
100
AcDbBlockBegin
  2
110X85
 70
     0
 10
0.0
 20
0.0
 30
0.0
  3
110X85
  1

  0
LINE
  5
226B
330
226A
100
AcDbEntity
  8
3
100
AcDbLine
 10
0.0
 20
0.0
 30
0.0
 11
110.0
 21
0.0
 31
0.0
  0
LINE
  5
226C
330
226A
100
AcDbEntity
  8
3
100
AcDbLine
 10
0.0
 20
85.0
 30
0.0
 11
0.0
 21
0.0
 31
0.0
  0
LINE
  5
226D
330
226A
100
AcDbEntity
  8
3
100
AcDbLine
 10
110.0
 20
85.0
 30
0.0
 11
110.0
 21
0.0
 31
0.0
  0
LINE
  5
226E
330
226A
100
AcDbEntity
  8
3
100
AcDbLine
 10
0.0
 20
85.0
 30
0.0
 11
110.0
 21
85.0
 31
0.0
  0
LINE
  5
226F
330
226A
100
AcDbEntity
  8
3
100
AcDbLine
 10
112.0
 20
-5.0
 30
0.0
 11
118.0
 21
-5.0
 31
0.0
  0
LINE
  5
2270
330
226A
100
AcDbEntity
  8
3
100
AcDbLine
 10
115.0
 20
-8.0
 30
0.0
 11
115.0
 21
-2.0
 31
0.0
  0
LINE
  5
2271
330
226A
100
AcDbEntity
  8
3
100
AcDbLine
 10
-8.0
 20
90.0
 30
0.0
 11
-2.0
 21
90.0
 31
0.0
  0
LINE
  5
2272
330
226A
100
AcDbEntity
  8
3
100
AcDbLine
 10
-5.0
 20
87.0
 30
0.0
 11
-5.0
 21
93.0
 31
0.0
  0
ENDBLK
  5
2274
330
226A
100
AcDbEntity
  8
0
100
AcDbBlockEnd
  0
ENDSEC
  0
SECTION
  2
ENTITIES
  0
LINE
  5
1DE
102
{ACAD_REACTORS
330
2172
330
2200
102
}
330
1E
100
AcDbEntity
  8
2
100
AcDbLine
 10
135.4999999999997
 20
56.0
 30
0.0
 11
115.1999999999999
 21
56.0
 31
0.0
  0
LINE
  5
1E1
330
1E
100
AcDbEntity
  8
2
100
AcDbLine
 10
134.6999999999999
 20
117.0
 30
0.0
 11
115.1999999999999
 21
117.0
 31
0.0
  0
LINE
  5
20E
330
1E
100
AcDbEntity
  8
2
100
AcDbLine
 10
134.6999999999999
 20
117.0
 30
0.0
 11
134.6999999999999
 21
56.0
 31
0.0
  0
LINE
  5
212
102
{ACAD_REACTORS
330
21A4
102
}
330
1E
100
AcDbEntity
  8
4
100
AcDbLine
 10
230.0000294627873
 20
134.5
 30
0.0
 11
225.0000294627874
 21
134.5
 31
0.0
  0
LINE
  5
213
330
1E
100
AcDbEntity
  8
2
100
AcDbLine
 10
141.6999999999999
 20
92.0
 30
0.0
 11
136.4999999999999
 21
92.0
 31
0.0
  0
LINE
  5
214
330
1E
100
AcDbEntity
  8
2
100
AcDbLine
 10
135.4999999999999
 20
116.0
 30
0.0
 11
134.6999999999999
 21
116.0
 31
0.0
  0
LINE
  5
217
330
1E
100
AcDbEntity
  8
2
100
AcDbLine
 10
124.6999999999999
 20
117.0
 30
0.0
 11
124.6999999999999
 21
56.0
 31
0.0
  0
LINE
  5
219
330
1E
100
AcDbEntity
  8
2
100
AcDbLine
 10
115.1999999999999
 20
63.00000000000011
 30
0.0
 11
122.1999999999999
 21
62.99999999999989
 31
0.0
  0
ARC
  5
21A
330
1E
100
AcDbEntity
  8
2
100
AcDbCircle
 10
121.3999999999998
 20
58.20000000000004
 30
0.0
 40
1.199999999999999
100
AcDbArc
 50
180.0
 51
270.0
  0
ARC
  5
21B
330
1E
100
AcDbEntity
  8
2
100
AcDbCircle
 10
121.3999999999998
 20
60.79999999999995
 30
0.0
 40
1.199999999999999
100
AcDbArc
 50
90.0
 51
180.0
  0
LINE
  5
21C
330
1E
100
AcDbEntity
  8
2
100
AcDbLine
 10
122.1999999999999
 20
57.0
 30
0.0
 11
121.3999999999998
 21
57.0
 31
0.0
  0
LINE
  5
21D
330
1E
100
AcDbEntity
  8
2
100
AcDbLine
 10
122.1999999999999
 20
62.0
 30
0.0
 11
121.3999999999998
 21
62.0
 31
0.0
  0
LINE
  5
21E
330
1E
100
AcDbEntity
  8
2
100
AcDbLine
 10
120.1999999999999
 20
60.79999999999995
 30
0.0
 11
120.1999999999999
 21
58.20000000000004
 31
0.0
  0
LINE
  5
21F
330
1E
100
AcDbEntity
  8
2
100
AcDbLine
 10
122.1999999999999
 20
62.99999999999989
 30
0.0
 11
122.1999999999999
 21
56.0
 31
0.0
  0
LINE
  5
221
330
1E
100
AcDbEntity
  8
2
100
AcDbLine
 10
99.19999999999999
 20
86.00000000000012
 30
0.0
 11
115.1999999999999
 21
86.0
 31
0.0
  0
LINE
  5
222
330
1E
100
AcDbEntity
  8
2
100
AcDbLine
 10
99.19999999999999
 20
88.00000000000011
 30
0.0
 11
106.1999999999999
 21
95.0
 31
0.0
  0
LINE
  5
223
102
{ACAD_REACTORS
330
2172
330
2200
102
}
330
1E
100
AcDbEntity
  8
2
100
AcDbLine
 10
115.1999999999999
 20
117.0
 30
0.0
 11
115.1999999999999
 21
56.0
 31
0.0
  0
LINE
  5
224
330
1E
100
AcDbEntity
  8
2
100
AcDbLine
 10
106.1999999999999
 20
95.0
 30
0.0
 11
115.1999999999999
 21
95.0
 31
0.0
  0
LINE
  5
225
330
1E
100
AcDbEntity
  8
2
100
AcDbLine
 10
115.1999999999999
 20
109.0
 30
0.0
 11
122.1999999999997
 21
109.0
 31
0.0
  0
ARC
  5
226
330
1E
100
AcDbEntity
  8
2
100
AcDbCircle
 10
120.3999999999998
 20
111.2
 30
0.0
 40
1.199999999999999
100
AcDbArc
 50
180.0
 51
270.0
  0
ARC
  5
227
330
1E
100
AcDbEntity
  8
2
100
AcDbCircle
 10
120.3999999999998
 20
113.7999999999999
 30
0.0
 40
1.199999999999999
100
AcDbArc
 50
90.0
 51
180.0
  0
LINE
  5
228
330
1E
100
AcDbEntity
  8
2
100
AcDbLine
 10
120.3999999999998
 20
110.0
 30
0.0
 11
122.1999999999997
 21
110.0
 31
0.0
  0
LINE
  5
229
330
1E
100
AcDbEntity
  8
2
100
AcDbLine
 10
120.3999999999998
 20
115.0
 30
0.0
 11
122.1999999999997
 21
115.0
 31
0.0
  0
LINE
  5
22A
330
1E
100
AcDbEntity
  8
2
100
AcDbLine
 10
119.1999999999997
 20
113.7999999999999
 30
0.0
 11
119.1999999999997
 21
111.2
 31
0.0
  0
LINE
  5
22B
330
1E
100
AcDbEntity
  8
2
100
AcDbLine
 10
121.1999999999999
 20
115.0
 30
0.0
 11
121.1999999999997
 21
110.0
 31
0.0
  0
LINE
  5
22C
330
1E
100
AcDbEntity
  8
2
100
AcDbLine
 10
122.1999999999999
 20
116.0
 30
0.0
 11
122.1999999999999
 21
109.0
 31
0.0
  0
LINE
  5
22D
330
1E
100
AcDbEntity
  8
2
100
AcDbLine
 10
99.19999999999999
 20
88.00000000000023
 30
0.0
 11
99.19999999999999
 21
86.00000000000012
 31
0.0
  0
LINE
  5
22E
330
1E
100
AcDbEntity
  8
CL
100
AcDbLine
 10
172.5
 20
71.0
 30
0.0
 11
128.2462972761084
 21
71.0
 31
0.0
  0
LINE
  5
22F
330
1E
100
AcDbEntity
  8
3
100
AcDbLine
 10
167.1999999999999
 20
84.99999999999971
 30
0.0
 11
167.1999999999999
 21
57.00000000000002
 31
0.0
  0
ARC
  5
230
330
1E
100
AcDbEntity
  8
TXT
100
AcDbCircle
 10
135.6999999999999
 20
84.0
 30
0.0
 40
1.0
100
AcDbArc
 50
90.0
 51
180.0
  0
ARC
  5
231
330
1E
100
AcDbEntity
  8
TXT
100
AcDbCircle
 10
135.6999999999999
 20
58.0
 30
0.0
 40
1.0
100
AcDbArc
 50
180.0
 51
270.0
  0
LINE
  5
232
330
1E
100
AcDbEntity
  8
3
100
AcDbLine
 10
169.6999999999999
 20
76.0
 30
0.0
 11
169.6999999999999
 21
66.0
 31
0.0
  0
LINE
  5
233
330
1E
100
AcDbEntity
  8
3
100
AcDbLine
 10
169.6999999999999
 20
76.0
 30
0.0
 11
167.1999999999999
 21
76.0
 31
0.0
  0
LINE
  5
234
330
1E
100
AcDbEntity
  8
3
100
AcDbLine
 10
169.6999999999999
 20
66.0
 30
0.0
 11
167.1999999999999
 21
66.0
 31
0.0
  0
LINE
  5
235
330
1E
100
AcDbEntity
  8
5
100
AcDbLine
 10
172.1999999999999
 20
59.49999999999997
 30
0.0
 11
167.1999999999999
 21
59.5
 31
0.0
  0
LINE
  5
236
330
1E
100
AcDbEntity
  8
5
100
AcDbLine
 10
172.1999999999999
 20
59.99999999999997
 30
0.0
 11
167.1999999999999
 21
60.0
 31
0.0
  0
LINE
  5
237
330
1E
100
AcDbEntity
  8
5
100
AcDbLine
 10
172.2
 20
60.0
 30
0.0
 11
172.1999999999999
 21
59.5
 31
0.0
  0
LINE
  5
238
330
1E
100
AcDbEntity
  8
5
100
AcDbLine
 10
172.1999999999999
 20
82.5
 30
0.0
 11
167.1999999999999
 21
82.5
 31
0.0
  0
LINE
  5
239
330
1E
100
AcDbEntity
  8
5
100
AcDbLine
 10
172.2
 20
82.0
 30
0.0
 11
172.1999999999999
 21
82.5
 31
0.0
  0
LINE
  5
23A
330
1E
100
AcDbEntity
  8
5
100
AcDbLine
 10
172.1999999999999
 20
82.0
 30
0.0
 11
167.1999999999999
 21
82.0
 31
0.0
  0
LINE
  5
23B
330
1E
100
AcDbEntity
  8
3
100
AcDbLine
 10
164.3999999999999
 20
85.0
 30
0.0
 11
164.3999999999999
 21
57.0
 31
0.0
  0
LINE
  5
23C
330
1E
100
AcDbEntity
  8
3
100
AcDbLine
 10
167.1999999999999
 20
72.75
 30
0.0
 11
164.3999999999999
 21
72.75
 31
0.0
  0
LINE
  5
23D
330
1E
100
AcDbEntity
  8
3
100
AcDbLine
 10
167.1999999999999
 20
69.25
 30
0.0
 11
164.3999999999999
 21
69.25
 31
0.0
  0
LINE
  5
27A
330
1E
100
AcDbEntity
  8
1
100
AcDbLine
 10
134.6999999999999
 20
105.4999999999999
 30
0.0
 11
135.4999999999999
 21
105.4999999999999
 31
0.0
  0
LINE
  5
2CB
330
1E
100
AcDbEntity
  8
CL
100
AcDbLine
 10
227.5000294627874
 20
164.9806917073091
 30
0.0
 11
227.5000294627874
 21
176.9806917073091
 31
0.0
  0
LINE
  5
2CC
330
1E
100
AcDbEntity
  8
1
100
AcDbLine
 10
220.5000294627873
 20
171.9806917073091
 30
0.0
 11
220.5000294627873
 21
173.580691707309
 31
0.0
  0
LINE
  5
2CD
330
1E
100
AcDbEntity
  8
1
100
AcDbLine
 10
240.5000294627873
 20
171.9806917073091
 30
0.0
 11
240.5000294627873
 21
173.580691707309
 31
0.0
  0
LINE
  5
2CE
330
1E
100
AcDbEntity
  8
1
100
AcDbLine
 10
240.5000294627873
 20
171.9806917073091
 30
0.0
 11
231.9721654177882
 21
171.9806917073091
 31
0.0
  0
LINE
  5
2CF
330
1E
100
AcDbEntity
  8
CL
100
AcDbLine
 10
232.6600874874459
 20
170.9806917073091
 30
0.0
 11
222.5363756770669
 21
170.9806917073091
 31
0.0
  0
ARC
  5
2D0
330
1E
100
AcDbEntity
  8
1
100
AcDbCircle
 10
227.5000294627874
 20
170.9806917073091
 30
0.0
 40
4.0
100
AcDbArc
 50
319.4583981264929
 51
40.54160187350272
  0
LINE
  5
2D1
330
1E
100
AcDbEntity
  8
1
100
AcDbLine
 10
223.5000294627873
 20
170.9806917073091
 30
0.0
 11
223.5000294627873
 21
168.3806917073089
 31
0.0
  0
ARC
  5
2D2
330
1E
100
AcDbEntity
  8
1
100
AcDbCircle
 10
223.0278935077866
 20
171.4806917073091
 30
0.0
 40
0.5
100
AcDbArc
 50
353.6206297915596
 51
90.0
  0
LINE
  5
2D3
330
1E
100
AcDbEntity
  8
1
100
AcDbLine
 10
223.0278935077866
 20
171.9806917073091
 30
0.0
 11
220.5000294627873
 21
171.9806917073091
 31
0.0
  0
LINE
  5
2D4
330
1E
100
AcDbEntity
  8
1
100
AcDbLine
 10
231.5000294627874
 20
170.9806917073091
 30
0.0
 11
231.5000294627874
 21
168.3806917073089
 31
0.0
  0
ARC
  5
2D5
330
1E
100
AcDbEntity
  8
1
100
AcDbCircle
 10
231.9721654177882
 20
171.4806917073091
 30
0.0
 40
0.5
100
AcDbArc
 50
90.0
 51
186.3793702084403
  0
LINE
  5
2D6
330
1E
100
AcDbEntity
  8
CL
100
AcDbLine
 10
134.4999999999999
 20
201.1032783409724
 30
0.0
 11
301.5
 21
201.1032783409724
 31
0.0
  0
LINE
  5
2D7
330
1E
100
AcDbEntity
  8
1
100
AcDbLine
 10
240.5000294627873
 20
191.9806917073091
 30
0.0
 11
231.9721654177909
 21
191.9806917073091
 31
0.0
  0
LINE
  5
2D9
330
1E
100
AcDbEntity
  8
1
100
AcDbLine
 10
231.5000294627874
 20
192.9806917073091
 30
0.0
 11
231.5000294627874
 21
197.4806917073091
 31
0.0
  0
LINE
  5
2DA
330
1E
100
AcDbEntity
  8
1
100
AcDbLine
 10
223.5000294627873
 20
192.9806917073091
 30
0.0
 11
223.5000294627873
 21
197.4806917073091
 31
0.0
  0
CIRCLE
  5
2DB
330
1E
100
AcDbEntity
  8
1
100
AcDbCircle
 10
227.5000294627874
 20
192.9806917073091
 30
0.0
 40
4.0
  0
LINE
  5
2DC
330
1E
100
AcDbEntity
  8
CL
100
AcDbLine
 10
233.2709906555476
 20
192.9806917073091
 30
0.0
 11
222.5363756770669
 21
192.9806917073091
 31
0.0
  0
ARC
  5
2DD
330
1E
100
AcDbEntity
  8
1
100
AcDbCircle
 10
223.0278935077838
 20
192.4806917073091
 30
0.0
 40
0.5
100
AcDbArc
 50
270.0
 51
6.379370208437996
  0
LINE
  5
2DE
330
1E
100
AcDbEntity
  8
1
100
AcDbLine
 10
223.0278935077838
 20
191.9806917073091
 30
0.0
 11
220.5000294627873
 21
191.9806917073091
 31
0.0
  0
ARC
  5
2DF
330
1E
100
AcDbEntity
  8
1
100
AcDbCircle
 10
231.9721654177909
 20
192.4806917073091
 30
0.0
 40
0.5
100
AcDbArc
 50
173.6206297915619
 51
270.0
  0
LINE
  5
2F2
330
1E
100
AcDbEntity
  8
5
100
AcDbLine
 10
274.9999999999999
 20
94.09999999999991
 30
0.0
 11
260.0
 21
94.09999999999991
 31
0.0
  0
LINE
  5
2F3
330
1E
100
AcDbEntity
  8
5
100
AcDbLine
 10
298.9999999999998
 20
94.09999999999991
 30
0.0
 11
279.9999999999998
 21
94.09999999999991
 31
0.0
  0
LINE
  5
2F4
330
1E
100
AcDbEntity
  8
5
100
AcDbLine
 10
299.4999999999998
 20
94.59999999999991
 30
0.0
 11
298.9999999999998
 21
94.09999999999991
 31
0.0
  0
LINE
  5
2F5
330
1E
100
AcDbEntity
  8
5
100
AcDbLine
 10
299.0
 20
97.5
 30
0.0
 11
298.9999999999998
 21
94.09999999999991
 31
0.0
  0
ARC
  5
2F6
330
1E
100
AcDbEntity
  8
5
100
AcDbCircle
 10
261.4648700839112
 20
117.278054180399
 30
0.0
 40
28.14357866146739
100
AcDbArc
 50
311.1925631080497
 51
315.3515031215141
  0
ARC
  5
2F7
330
1E
100
AcDbEntity
  8
5
100
AcDbCircle
 10
259.6295292567234
 20
115.1278091265367
 30
0.0
 40
29.27669439955188
100
AcDbArc
 50
314.0903112290907
 51
322.9787890557697
  0
LINE
  5
2F8
330
1E
100
AcDbEntity
  8
5
100
AcDbLine
 10
279.9999999999998
 20
96.09999999999992
 30
0.0
 11
274.9999999999999
 21
96.09999999999992
 31
0.0
  0
ARC
  5
2F9
330
1E
100
AcDbEntity
  8
5
100
AcDbCircle
 10
276.0693548387154
 20
103.8403225806403
 30
0.0
 40
11.954401964405
100
AcDbArc
 50
305.4334351386484
 51
327.9691668993468
  0
LINE
  5
2FA
330
1E
100
AcDbEntity
  8
5
100
AcDbLine
 10
279.9999999999998
 20
96.09999999999992
 30
0.0
 11
279.9999999999998
 21
94.09999999999991
 31
0.0
  0
LINE
  5
2FB
330
1E
100
AcDbEntity
  8
5
100
AcDbLine
 10
274.9999999999999
 20
96.09999999999992
 30
0.0
 11
274.9999999999999
 21
94.09999999999991
 31
0.0
  0
ARC
  5
2FC
330
1E
100
AcDbEntity
  8
5
100
AcDbCircle
 10
159.6295292567236
 20
115.1278091265367
 30
0.0
 40
29.27669439955188
100
AcDbArc
 50
314.0903112290907
 51
322.9787890557697
  0
ARC
  5
2FD
330
1E
100
AcDbEntity
  8
5
100
AcDbCircle
 10
161.4648700839114
 20
117.278054180399
 30
0.0
 40
28.14357866146739
100
AcDbArc
 50
311.1925631080497
 51
315.3515031215141
  0
ARC
  5
2FE
330
1E
100
AcDbEntity
  8
5
100
AcDbCircle
 10
173.1392317022367
 20
105.3497428899886
 30
0.0
 40
14.95966131010414
100
AcDbArc
 50
311.235626871585
 51
328.3501120535928
  0
LINE
  5
2FF
330
1E
100
AcDbEntity
  8
5
100
AcDbLine
 10
194.9999999999998
 20
94.09999999999991
 30
0.0
 11
179.9999999999998
 21
94.09999999999991
 31
0.0
  0
LINE
  5
300
330
1E
100
AcDbEntity
  8
5
100
AcDbLine
 10
254.9999999999998
 20
94.09999999999991
 30
0.0
 11
240.5000294627874
 21
94.09999999999991
 31
0.0
  0
ARC
  5
301
330
1E
100
AcDbEntity
  8
5
100
AcDbCircle
 10
253.1392317022367
 20
105.3497428899886
 30
0.0
 40
14.95966131010414
100
AcDbArc
 50
311.235626871585
 51
328.3501120535928
  0
ARC
  5
302
330
1E
100
AcDbEntity
  8
5
100
AcDbCircle
 10
239.6295292567236
 20
115.1278091265367
 30
0.0
 40
29.27669439955188
100
AcDbArc
 50
314.0903112290907
 51
322.9787890557697
  0
ARC
  5
303
330
1E
100
AcDbEntity
  8
5
100
AcDbCircle
 10
241.4648700839114
 20
117.278054180399
 30
0.0
 40
28.14357866146739
100
AcDbArc
 50
311.1925631080497
 51
315.3515031215141
  0
LINE
  5
304
330
1E
100
AcDbEntity
  8
5
100
AcDbLine
 10
259.9999999999996
 20
96.09999999999992
 30
0.0
 11
254.9999999999998
 21
96.09999999999992
 31
0.0
  0
LINE
  5
305
330
1E
100
AcDbEntity
  8
5
100
AcDbLine
 10
254.9999999999998
 20
96.09999999999992
 30
0.0
 11
254.9999999999998
 21
94.09999999999991
 31
0.0
  0
LINE
  5
306
330
1E
100
AcDbEntity
  8
5
100
AcDbLine
 10
259.9999999999996
 20
96.09999999999992
 30
0.0
 11
259.9999999999998
 21
94.09999999999991
 31
0.0
  0
ARC
  5
307
330
1E
100
AcDbEntity
  8
5
100
AcDbCircle
 10
233.1392317022367
 20
105.3497428899886
 30
0.0
 40
14.95966131010414
100
AcDbArc
 50
311.235626871585
 51
328.3501120535928
  0
ARC
  5
308
330
1E
100
AcDbEntity
  8
5
100
AcDbCircle
 10
193.1392317022367
 20
105.3497428899886
 30
0.0
 40
14.95966131010414
100
AcDbArc
 50
311.235626871585
 51
328.3501120535928
  0
ARC
  5
309
330
1E
100
AcDbEntity
  8
5
100
AcDbCircle
 10
179.6295292567236
 20
115.1278091265367
 30
0.0
 40
29.27669439955188
100
AcDbArc
 50
314.0903112290907
 51
322.9787890557697
  0
LINE
  5
30A
330
1E
100
AcDbEntity
  8
5
100
AcDbLine
 10
214.9999999999999
 20
94.09999999999991
 30
0.0
 11
199.9999999999998
 21
94.09999999999991
 31
0.0
  0
ARC
  5
30B
330
1E
100
AcDbEntity
  8
5
100
AcDbCircle
 10
201.4648700839114
 20
117.278054180399
 30
0.0
 40
28.14357866146739
100
AcDbArc
 50
311.1925631080497
 51
312.5597642444633
  0
ARC
  5
30C
330
1E
100
AcDbEntity
  8
5
100
AcDbCircle
 10
199.6295292567236
 20
115.1278091265367
 30
0.0
 40
29.27669439955188
100
AcDbArc
 50
314.0903112290907
 51
315.4689731707237
  0
LINE
  5
30D
330
1E
100
AcDbEntity
  8
5
100
AcDbLine
 10
219.9999999999996
 20
96.09999999999992
 30
0.0
 11
214.9999999999999
 21
96.09999999999992
 31
0.0
  0
LINE
  5
30E
330
1E
100
AcDbEntity
  8
5
100
AcDbLine
 10
214.9999999999999
 20
96.09999999999992
 30
0.0
 11
214.9999999999999
 21
94.09999999999991
 31
0.0
  0
LINE
  5
30F
330
1E
100
AcDbEntity
  8
5
100
AcDbLine
 10
219.9999999999996
 20
96.09999999999992
 30
0.0
 11
219.9999999999998
 21
94.09999999999991
 31
0.0
  0
ARC
  5
310
330
1E
100
AcDbEntity
  8
5
100
AcDbCircle
 10
181.4648700839114
 20
117.278054180399
 30
0.0
 40
28.14357866146739
100
AcDbArc
 50
311.1925631080497
 51
315.3515031215141
  0
LINE
  5
311
330
1E
100
AcDbEntity
  8
5
100
AcDbLine
 10
199.9999999999996
 20
96.09999999999992
 30
0.0
 11
194.9999999999998
 21
96.09999999999992
 31
0.0
  0
LINE
  5
312
330
1E
100
AcDbEntity
  8
5
100
AcDbLine
 10
194.9999999999998
 20
96.09999999999992
 30
0.0
 11
194.9999999999998
 21
94.09999999999991
 31
0.0
  0
LINE
  5
313
330
1E
100
AcDbEntity
  8
5
100
AcDbLine
 10
199.9999999999996
 20
96.09999999999992
 30
0.0
 11
199.9999999999998
 21
94.09999999999991
 31
0.0
  0
LINE
  5
314
330
1E
100
AcDbEntity
  8
5
100
AcDbLine
 10
155.9999999999998
 20
94.09999999999991
 30
0.0
 11
141.5
 21
94.09999999999991
 31
0.0
  0
ARC
  5
315
330
1E
100
AcDbEntity
  8
5
100
AcDbCircle
 10
139.6295292567236
 20
115.1278091265367
 30
0.0
 40
29.27669439955188
100
AcDbArc
 50
314.0903112290907
 51
322.9787890557697
  0
ARC
  5
316
330
1E
100
AcDbEntity
  8
5
100
AcDbCircle
 10
141.4648700839114
 20
117.278054180399
 30
0.0
 40
28.14357866146739
100
AcDbArc
 50
311.1925631080497
 51
315.3515031215141
  0
LINE
  5
317
330
1E
100
AcDbEntity
  8
5
100
AcDbLine
 10
174.9999999999998
 20
94.09999999999991
 30
0.0
 11
159.9999999999998
 21
94.09999999999991
 31
0.0
  0
ARC
  5
318
330
1E
100
AcDbEntity
  8
5
100
AcDbCircle
 10
153.1392317022367
 20
105.3497428899886
 30
0.0
 40
14.95966131010414
100
AcDbArc
 50
311.235626871585
 51
328.3501120535928
  0
LINE
  5
319
330
1E
100
AcDbEntity
  8
5
100
AcDbLine
 10
179.9999999999996
 20
96.09999999999992
 30
0.0
 11
174.9999999999998
 21
96.09999999999992
 31
0.0
  0
LINE
  5
31A
330
1E
100
AcDbEntity
  8
5
100
AcDbLine
 10
174.9999999999998
 20
96.09999999999992
 30
0.0
 11
174.9999999999998
 21
94.09999999999991
 31
0.0
  0
LINE
  5
31B
330
1E
100
AcDbEntity
  8
5
100
AcDbLine
 10
179.9999999999996
 20
96.09999999999992
 30
0.0
 11
179.9999999999998
 21
94.09999999999991
 31
0.0
  0
LINE
  5
31C
330
1E
100
AcDbEntity
  8
5
100
AcDbLine
 10
159.9999999999996
 20
96.09999999999992
 30
0.0
 11
155.9999999999998
 21
96.09999999999992
 31
0.0
  0
LINE
  5
31D
330
1E
100
AcDbEntity
  8
5
100
AcDbLine
 10
155.9999999999998
 20
96.09999999999992
 30
0.0
 11
155.9999999999998
 21
94.09999999999991
 31
0.0
  0
LINE
  5
31E
330
1E
100
AcDbEntity
  8
5
100
AcDbLine
 10
159.9999999999996
 20
96.09999999999992
 30
0.0
 11
159.9999999999998
 21
94.09999999999991
 31
0.0
  0
LINE
  5
31F
330
1E
100
AcDbEntity
  8
5
100
AcDbLine
 10
136.4999999999998
 20
94.59999999999991
 30
0.0
 11
136.5
 21
97.5
 31
0.0
  0
LINE
  5
320
330
1E
100
AcDbEntity
  8
2
100
AcDbLine
 10
220.5000294627874
 20
91.5
 30
0.0
 11
240.5000294627874
 21
91.5
 31
0.0
  0
LINE
  5
321
330
1E
100
AcDbEntity
  8
2
100
AcDbLine
 10
220.5000294627879
 20
91.5
 30
0.0
 11
220.5000294627879
 21
97.5
 31
0.0
  0
LINE
  5
322
330
1E
100
AcDbEntity
  8
CL
100
AcDbLine
 10
227.5000294627874
 20
137.5
 30
0.0
 11
227.5000294627872
 21
99.00000000000005
 31
0.0
  0
LINE
  5
323
330
1E
100
AcDbEntity
  8
2
100
AcDbLine
 10
240.5000294627874
 20
91.5
 30
0.0
 11
240.5000294627874
 21
97.5
 31
0.0
  0
LINE
  5
324
330
1E
100
AcDbEntity
  8
3
100
AcDbLine
 10
255.2159735799337
 20
88.01034191723283
 30
0.0
 11
181.266483837142
 21
88.01034191723283
 31
0.0
  0
LINE
  5
325
330
1E
100
AcDbEntity
  8
3
100
AcDbLine
 10
258.2159735799337
 20
86.01034191723284
 30
0.0
 11
183.7159735799337
 21
86.01034191723284
 31
0.0
  0
LINE
  5
326
330
1E
100
AcDbEntity
  8
3
100
AcDbLine
 10
258.2159735799337
 20
86.01034191723284
 30
0.0
 11
258.2159735799337
 21
88.01034191723283
 31
0.0
  0
LINE
  5
327
330
1E
100
AcDbEntity
  8
3
100
AcDbLine
 10
245.1787920526429
 20
88.01034191723283
 30
0.0
 11
253.2159735799337
 21
92.66344701198022
 31
0.0
  0
LINE
  5
328
330
1E
100
AcDbEntity
  8
3
100
AcDbLine
 10
253.2159735799337
 20
90.35244718039075
 30
0.0
 11
253.2159735799337
 21
94.09999999999991
 31
0.0
  0
LINE
  5
329
330
1E
100
AcDbEntity
  8
3
100
AcDbLine
 10
255.2159735799337
 20
94.01034191723283
 30
0.0
 11
253.2159735799337
 21
94.01034191723283
 31
0.0
  0
LINE
  5
32A
330
1E
100
AcDbEntity
  8
3
100
AcDbLine
 10
258.2159735799337
 20
88.01034191723283
 30
0.0
 11
255.2159735799337
 21
88.01034191723283
 31
0.0
  0
LINE
  5
32B
330
1E
100
AcDbEntity
  8
3
100
AcDbLine
 10
255.2159735799337
 20
88.01034191723283
 30
0.0
 11
255.2159735799337
 21
96.09999999999992
 31
0.0
  0
LINE
  5
32C
330
1E
100
AcDbEntity
  8
3
100
AcDbLine
 10
249.1705190344792
 20
88.01034191723283
 30
0.0
 11
253.2159735799337
 21
90.35244718039075
 31
0.0
  0
LINE
  5
32D
330
1E
100
AcDbEntity
  8
3
100
AcDbLine
 10
253.2159735799337
 20
88.01034191723283
 30
0.0
 11
253.2159735799337
 21
90.35244718039075
 31
0.0
  0
LINE
  5
32E
330
1E
100
AcDbEntity
  8
3
100
AcDbLine
 10
230.7159735799337
 20
88.01034191723283
 30
0.0
 11
230.7159735799337
 21
91.5
 31
0.0
  0
LINE
  5
32F
330
1E
100
AcDbEntity
  8
3
100
AcDbLine
 10
231.7159735799339
 20
88.01034191723283
 30
0.0
 11
231.7159735799339
 21
91.5
 31
0.0
  0
ARC
  5
330
330
1E
100
AcDbEntity
  8
3
100
AcDbCircle
 10
183.7159735799337
 20
88.51034191723284
 30
0.0
 40
2.5
100
AcDbArc
 50
180.0
 51
270.0
  0
LINE
  5
331
330
1E
100
AcDbEntity
  8
3
100
AcDbLine
 10
183.2159735799337
 20
94.01034191723283
 30
0.0
 11
181.2159735799337
 21
94.01034191723283
 31
0.0
  0
LINE
  5
332
330
1E
100
AcDbEntity
  8
3
100
AcDbLine
 10
204.7159735799339
 20
88.01034191723283
 30
0.0
 11
204.7159735799339
 21
94.09999999999991
 31
0.0
  0
LINE
  5
333
330
1E
100
AcDbEntity
  8
3
100
AcDbLine
 10
205.7159735799337
 20
88.01034191723283
 30
0.0
 11
205.7159735799337
 21
94.09999999999991
 31
0.0
  0
LINE
  5
334
330
1E
100
AcDbEntity
  8
3
100
AcDbLine
 10
183.2159735799337
 20
88.01034191723283
 30
0.0
 11
183.2159735799337
 21
94.09999999999991
 31
0.0
  0
LINE
  5
335
330
1E
100
AcDbEntity
  8
3
100
AcDbLine
 10
181.2159735799337
 20
88.51034191723284
 30
0.0
 11
181.2159735799337
 21
94.09999999999991
 31
0.0
  0
LINE
  5
336
330
1E
100
AcDbEntity
  8
2
100
AcDbLine
 10
141.6999999999999
 20
97.5
 30
0.0
 11
141.6999999999999
 21
92.0
 31
0.0
  0
ARC
  5
337
330
1E
100
AcDbEntity
  8
5
100
AcDbCircle
 10
159.9306451612843
 20
103.8403225806403
 30
0.0
 40
11.954401964405
100
AcDbArc
 50
212.030833100653
 51
234.5665648613515
  0
ARC
  5
338
330
1E
100
AcDbEntity
  8
5
100
AcDbCircle
 10
176.3704707432763
 20
115.1278091265367
 30
0.0
 40
29.27669439955188
100
AcDbArc
 50
217.0212109442303
 51
225.9096887709092
  0
ARC
  5
339
330
1E
100
AcDbEntity
  8
5
100
AcDbCircle
 10
174.5351299160885
 20
117.278054180399
 30
0.0
 40
28.14357866146739
100
AcDbArc
 50
224.6484968784859
 51
228.8074368919503
  0
ARC
  5
33A
330
1E
100
AcDbEntity
  8
5
100
AcDbCircle
 10
181.860768297763
 20
105.3497428899886
 30
0.0
 40
14.95966131010414
100
AcDbArc
 50
211.6498879464072
 51
228.7643731284149
  0
ARC
  5
33B
330
1E
100
AcDbEntity
  8
5
100
AcDbCircle
 10
195.3704707432761
 20
115.1278091265367
 30
0.0
 40
29.27669439955188
100
AcDbArc
 50
217.0212109442303
 51
225.9096887709092
  0
ARC
  5
33C
330
1E
100
AcDbEntity
  8
5
100
AcDbCircle
 10
193.5351299160883
 20
117.278054180399
 30
0.0
 40
28.14357866146739
100
AcDbArc
 50
224.6484968784859
 51
228.8074368919503
  0
ARC
  5
33D
330
1E
100
AcDbEntity
  8
5
100
AcDbCircle
 10
201.860768297763
 20
105.3497428899886
 30
0.0
 40
14.95966131010414
100
AcDbArc
 50
211.6498879464071
 51
228.7643731284149
  0
ARC
  5
33E
330
1E
100
AcDbEntity
  8
5
100
AcDbCircle
 10
215.3704707432761
 20
115.1278091265367
 30
0.0
 40
29.27669439955188
100
AcDbArc
 50
217.0212109442303
 51
225.9096887709092
  0
ARC
  5
33F
330
1E
100
AcDbEntity
  8
5
100
AcDbCircle
 10
213.5351299160883
 20
117.278054180399
 30
0.0
 40
28.14357866146739
100
AcDbArc
 50
224.6484968784859
 51
228.8074368919503
  0
LINE
  5
340
330
1E
100
AcDbEntity
  8
3
100
AcDbLine
 10
199.9999999999996
 20
96.01034191723284
 30
0.0
 11
194.9999999999998
 21
96.01034191723284
 31
0.0
  0
ARC
  5
341
330
1E
100
AcDbEntity
  8
5
100
AcDbCircle
 10
221.860768297763
 20
105.3497428899886
 30
0.0
 40
14.95966131010414
100
AcDbArc
 50
211.6498879464071
 51
228.7643731284149
  0
ARC
  5
342
330
1E
100
AcDbEntity
  8
5
100
AcDbCircle
 10
235.370470743276
 20
115.1278091265367
 30
0.0
 40
29.27669439955188
100
AcDbArc
 50
217.0212109442303
 51
225.9096887709092
  0
ARC
  5
343
330
1E
100
AcDbEntity
  8
5
100
AcDbCircle
 10
233.5351299160882
 20
117.278054180399
 30
0.0
 40
28.14357866146739
100
AcDbArc
 50
224.6484968784859
 51
228.8074368919503
  0
LINE
  5
344
102
{ACAD_REACTORS
330
21A4
330
21D0
102
}
330
1E
100
AcDbEntity
  8
4
100
AcDbLine
 10
225.0000294627874
 20
117.5
 30
0.0
 11
225.0000294627874
 21
134.5
 31
0.0
  0
LINE
  5
345
102
{ACAD_REACTORS
330
21A4
102
}
330
1E
100
AcDbEntity
  8
4
100
AcDbLine
 10
230.0000294627874
 20
117.5
 30
0.0
 11
230.0000294627873
 21
134.5
 31
0.0
  0
LINE
  5
346
330
1E
100
AcDbEntity
  8
3
100
AcDbLine
 10
219.9999999999996
 20
96.01034191723284
 30
0.0
 11
214.9999999999999
 21
96.01034191723284
 31
0.0
  0
LINE
  5
347
330
1E
100
AcDbEntity
  8
5
100
AcDbLine
 10
220.5000294627879
 20
94.09999999999991
 30
0.0
 11
219.9999999999998
 21
94.09999999999991
 31
0.0
  0
ARC
  5
348
330
1E
100
AcDbEntity
  8
5
100
AcDbCircle
 10
295.3704707432761
 20
115.1278091265367
 30
0.0
 40
29.27669439955188
100
AcDbArc
 50
217.0212109442303
 51
225.9096887709092
  0
ARC
  5
349
330
1E
100
AcDbEntity
  8
5
100
AcDbCircle
 10
293.5351299160883
 20
117.278054180399
 30
0.0
 40
28.14357866146739
100
AcDbArc
 50
224.6484968784859
 51
228.8074368919503
  0
ARC
  5
34A
330
1E
100
AcDbEntity
  8
5
100
AcDbCircle
 10
281.860768297763
 20
105.3497428899886
 30
0.0
 40
14.95966131010414
100
AcDbArc
 50
211.6498879464071
 51
228.7643731284149
  0
LINE
  5
34B
330
1E
100
AcDbEntity
  8
5
100
AcDbLine
 10
296.9999999999998
 20
97.5
 30
0.0
 11
296.9999999999998
 21
94.09999999999991
 31
0.0
  0
ARC
  5
34C
330
1E
100
AcDbEntity
  8
5
100
AcDbCircle
 10
219.6295292567236
 20
115.1278091265367
 30
0.0
 40
29.27669439955188
100
AcDbArc
 50
315.4689731707224
 51
322.9787890557697
  0
ARC
  5
34D
330
1E
100
AcDbEntity
  8
5
100
AcDbCircle
 10
221.4648700839114
 20
117.278054180399
 30
0.0
 40
28.14357866146739
100
AcDbArc
 50
312.5597642444621
 51
315.3515031215141
  0
ARC
  5
34E
330
1E
100
AcDbEntity
  8
5
100
AcDbCircle
 10
261.8607682977629
 20
105.3497428899886
 30
0.0
 40
14.95966131010414
100
AcDbArc
 50
211.6498879464071
 51
228.7643731284149
  0
ARC
  5
34F
330
1E
100
AcDbEntity
  8
5
100
AcDbCircle
 10
275.370470743276
 20
115.1278091265367
 30
0.0
 40
29.27669439955188
100
AcDbArc
 50
217.0212109442303
 51
225.9096887709092
  0
ARC
  5
350
330
1E
100
AcDbEntity
  8
5
100
AcDbCircle
 10
273.5351299160882
 20
117.278054180399
 30
0.0
 40
28.14357866146739
100
AcDbArc
 50
224.6484968784859
 51
228.8074368919503
  0
LINE
  5
351
330
1E
100
AcDbEntity
  8
1
100
AcDbLine
 10
260.4999999999999
 20
194.4806917073091
 30
0.0
 11
255.2159735799337
 21
194.4806917073091
 31
0.0
  0
LINE
  5
352
330
1E
100
AcDbEntity
  8
1
100
AcDbLine
 10
149.0
 20
188.4806917073091
 30
0.0
 11
286.0
 21
188.4806917073091
 31
0.0
  0
LINE
  5
353
330
1E
100
AcDbEntity
  8
CL
100
AcDbLine
 10
292.0
 20
192.9806917073091
 30
0.0
 11
143.0
 21
192.9806917073091
 31
0.0
  0
LINE
  5
354
330
1E
100
AcDbEntity
  8
CL
100
AcDbLine
 10
305.5
 20
181.9806917073091
 30
0.0
 11
130.4999999999999
 21
181.9806917073091
 31
0.0
  0
LINE
  5
355
330
1E
100
AcDbEntity
  8
1
100
AcDbLine
 10
299.0
 20
205.9806917073091
 30
0.0
 11
137.0
 21
205.9806917073091
 31
0.0
  0
LINE
  5
356
330
1E
100
AcDbEntity
  8
1
100
AcDbLine
 10
147.1000000000001
 20
168.3806917073089
 30
0.0
 11
287.8999999999999
 21
168.3806917073089
 31
0.0
  0
LINE
  5
357
330
1E
100
AcDbEntity
  8
1
100
AcDbLine
 10
287.8999999999999
 20
173.580691707309
 30
0.0
 11
147.1000000000001
 21
173.580691707309
 31
0.0
  0
LINE
  5
358
330
1E
100
AcDbEntity
  8
CL
100
AcDbLine
 10
292.8999999999999
 20
170.9806917073091
 30
0.0
 11
142.1000000000001
 21
170.9806917073091
 31
0.0
  0
LINE
  5
359
330
1E
100
AcDbEntity
  8
1
100
AcDbLine
 10
299.5
 20
157.9806917073091
 30
0.0
 11
136.4999999999999
 21
157.9806917073091
 31
0.0
  0
LINE
  5
35A
330
1E
100
AcDbEntity
  8
1
100
AcDbLine
 10
286.0
 20
197.4806917073091
 30
0.0
 11
149.0
 21
197.480691707309
 31
0.0
  0
LINE
  5
35B
330
1E
100
AcDbEntity
  8
1
100
AcDbLine
 10
300.4999999999999
 20
204.4806917073091
 30
0.0
 11
300.4999999999999
 21
160.9806917073091
 31
0.0
  0
LINE
  5
35C
330
1E
100
AcDbEntity
  8
1
100
AcDbLine
 10
299.0
 20
160.9806917073091
 30
0.0
 11
299.0
 21
157.9806917073091
 31
0.0
  0
LINE
  5
35D
330
1E
100
AcDbEntity
  8
1
100
AcDbLine
 10
300.4999999999999
 20
160.9806917073091
 30
0.0
 11
300.4999999999999
 21
157.9806917073091
 31
0.0
  0
LINE
  5
35E
330
1E
100
AcDbEntity
  8
1
100
AcDbLine
 10
299.5
 20
160.9806917073091
 30
0.0
 11
299.5
 21
157.9806917073091
 31
0.0
  0
LINE
  5
360
330
1E
100
AcDbEntity
  8
1
100
AcDbLine
 10
300.4999999999999
 20
160.9806917073091
 30
0.0
 11
299.0
 21
160.9806917073091
 31
0.0
  0
LINE
  5
363
330
1E
100
AcDbEntity
  8
1
100
AcDbLine
 10
299.0
 20
205.9806917073091
 30
0.0
 11
299.0
 21
204.4806917073091
 31
0.0
  0
LINE
  5
367
330
1E
100
AcDbEntity
  8
1
100
AcDbLine
 10
299.0
 20
204.4806917073091
 30
0.0
 11
300.4999999999999
 21
204.4806917073091
 31
0.0
  0
LINE
  5
36A
330
1E
100
AcDbEntity
  8
1
100
AcDbLine
 10
303.5
 20
186.6806917073091
 30
0.0
 11
300.4999999999999
 21
186.9806917073091
 31
0.0
  0
LINE
  5
36B
330
1E
100
AcDbEntity
  8
1
100
AcDbLine
 10
303.5
 20
177.280691707309
 30
0.0
 11
300.4999999999999
 21
176.9806917073091
 31
0.0
  0
LINE
  5
36C
330
1E
100
AcDbEntity
  8
1
100
AcDbLine
 10
303.5
 20
177.280691707309
 30
0.0
 11
303.5
 21
186.6806917073089
 31
0.0
  0
ARC
  5
36D
330
1E
100
AcDbEntity
  8
1
100
AcDbCircle
 10
287.8999999999999
 20
170.9806917073091
 30
0.0
 40
2.6
100
AcDbArc
 50
270.0
 51
90.0
  0
ARC
  5
36E
330
1E
100
AcDbEntity
  8
1
100
AcDbCircle
 10
286.0
 20
192.9806917073091
 30
0.0
 40
4.5
100
AcDbArc
 50
270.0
 51
90.0
  0
LINE
  5
36F
330
1E
100
AcDbEntity
  8
1
100
AcDbLine
 10
137.0
 20
204.4806917073091
 30
0.0
 11
135.4999999999999
 21
204.4806917073091
 31
0.0
  0
LINE
  5
370
330
1E
100
AcDbEntity
  8
1
100
AcDbLine
 10
137.0
 20
160.9806917073091
 30
0.0
 11
135.4999999999999
 21
160.9806917073091
 31
0.0
  0
LINE
  5
372
330
1E
100
AcDbEntity
  8
1
100
AcDbLine
 10
136.4999999999999
 20
160.9806917073091
 30
0.0
 11
136.4999999999999
 21
157.9806917073091
 31
0.0
  0
LINE
  5
373
330
1E
100
AcDbEntity
  8
1
100
AcDbLine
 10
137.0
 20
160.9806917073091
 30
0.0
 11
137.0
 21
157.9806917073091
 31
0.0
  0
LINE
  5
377
330
1E
100
AcDbEntity
  8
1
100
AcDbLine
 10
135.4999999999999
 20
157.9806917073091
 30
0.0
 11
135.4999999999999
 21
160.9806917073091
 31
0.0
  0
LINE
  5
37A
330
1E
100
AcDbEntity
  8
1
100
AcDbLine
 10
137.0
 20
205.9806917073091
 30
0.0
 11
137.0
 21
204.4806917073091
 31
0.0
  0
ARC
  5
37D
330
1E
100
AcDbEntity
  8
1
100
AcDbCircle
 10
149.0
 20
192.9806917073091
 30
0.0
 40
4.5
100
AcDbArc
 50
90.0
 51
270.0
  0
ARC
  5
37E
330
1E
100
AcDbEntity
  8
1
100
AcDbCircle
 10
147.1000000000001
 20
170.9806917073091
 30
0.0
 40
2.6
100
AcDbArc
 50
90.0
 51
270.0
  0
LINE
  5
37F
330
1E
100
AcDbEntity
  8
1
100
AcDbLine
 10
135.4999999999999
 20
160.9806917073091
 30
0.0
 11
135.4999999999999
 21
204.4806917073091
 31
0.0
  0
LINE
  5
381
330
1E
100
AcDbEntity
  8
2
100
AcDbLine
 10
115.1999999999999
 20
193.980691707309
 30
0.0
 11
99.19999999999999
 21
193.980691707309
 31
0.0
  0
LINE
  5
382
330
1E
100
AcDbEntity
  8
2
100
AcDbLine
 10
115.1999999999999
 20
169.9806917073091
 30
0.0
 11
99.19999999999999
 21
169.980691707309
 31
0.0
  0
LINE
  5
383
330
1E
100
AcDbEntity
  8
2
100
AcDbLine
 10
99.19999999999999
 20
169.980691707309
 30
0.0
 11
99.19999999999999
 21
193.980691707309
 31
0.0
  0
LINE
  5
384
330
1E
100
AcDbEntity
  8
2
100
AcDbLine
 10
124.6999999999999
 20
161.9806917073092
 30
0.0
 11
124.6999999999999
 21
201.9806917073091
 31
0.0
  0
LINE
  5
385
330
1E
100
AcDbEntity
  8
2
100
AcDbLine
 10
115.1999999999999
 20
161.9806917073092
 30
0.0
 11
115.1999999999999
 21
201.9806917073091
 31
0.0
  0
LINE
  5
386
330
1E
100
AcDbEntity
  8
2
100
AcDbLine
 10
135.4999999999999
 20
201.980691707309
 30
0.0
 11
115.1999999999999
 21
201.9806917073089
 31
0.0
  0
LINE
  5
387
330
1E
100
AcDbEntity
  8
2
100
AcDbLine
 10
135.4999999999999
 20
194.9806917073089
 30
0.0
 11
134.6999999999999
 21
194.9806917073089
 31
0.0
  0
LINE
  5
388
330
1E
100
AcDbEntity
  8
2
100
AcDbLine
 10
122.1999999999999
 20
194.980691707309
 30
0.0
 11
122.1999999999999
 21
201.9806917073091
 31
0.0
  0
LINE
  5
389
330
1E
100
AcDbEntity
  8
2
100
AcDbLine
 10
135.4999999999999
 20
161.9806917073092
 30
0.0
 11
115.1999999999999
 21
161.9806917073089
 31
0.0
  0
LINE
  5
38A
330
1E
100
AcDbEntity
  8
2
100
AcDbLine
 10
122.1999999999999
 20
161.9806917073092
 30
0.0
 11
122.1999999999999
 21
168.980691707309
 31
0.0
  0
LINE
  5
38B
330
1E
100
AcDbEntity
  8
2
100
AcDbLine
 10
106.1999999999999
 20
169.980691707309
 30
0.0
 11
106.1999999999999
 21
171.980691707309
 31
0.0
  0
LINE
  5
38C
330
1E
100
AcDbEntity
  8
2
100
AcDbLine
 10
115.1999999999999
 20
191.9806917073089
 30
0.0
 11
99.19999999999999
 21
191.9806917073089
 31
0.0
  0
LINE
  5
38D
330
1E
100
AcDbEntity
  8
2
100
AcDbLine
 10
115.1999999999999
 20
171.9806917073091
 30
0.0
 11
99.19999999999999
 21
171.980691707309
 31
0.0
  0
LINE
  5
38E
330
1E
100
AcDbEntity
  8
2
100
AcDbLine
 10
106.1999999999999
 20
191.9806917073089
 30
0.0
 11
106.1999999999999
 21
193.980691707309
 31
0.0
  0
LINE
  5
38F
330
1E
100
AcDbEntity
  8
2
100
AcDbLine
 10
120.3999999999998
 20
162.9806917073091
 30
0.0
 11
122.1999999999997
 21
162.9806917073091
 31
0.0
  0
LINE
  5
390
330
1E
100
AcDbEntity
  8
2
100
AcDbLine
 10
120.3999999999998
 20
167.9806917073091
 30
0.0
 11
122.1999999999997
 21
167.9806917073091
 31
0.0
  0
LINE
  5
391
330
1E
100
AcDbEntity
  8
2
100
AcDbLine
 10
119.1999999999997
 20
166.780691707309
 30
0.0
 11
119.1999999999997
 21
164.1806917073091
 31
0.0
  0
LINE
  5
392
330
1E
100
AcDbEntity
  8
2
100
AcDbLine
 10
121.1999999999999
 20
167.9806917073091
 30
0.0
 11
121.1999999999997
 21
162.9806917073091
 31
0.0
  0
ARC
  5
393
330
1E
100
AcDbEntity
  8
2
100
AcDbCircle
 10
120.3999999999998
 20
164.1806917073091
 30
0.0
 40
1.199999999999999
100
AcDbArc
 50
180.0
 51
270.0
  0
ARC
  5
394
330
1E
100
AcDbEntity
  8
2
100
AcDbCircle
 10
120.3999999999998
 20
166.780691707309
 30
0.0
 40
1.199999999999999
100
AcDbArc
 50
90.0
 51
180.0
  0
LINE
  5
395
330
1E
100
AcDbEntity
  8
2
100
AcDbLine
 10
120.3999999999998
 20
200.9806917073092
 30
0.0
 11
122.1999999999997
 21
200.9806917073092
 31
0.0
  0
LINE
  5
396
330
1E
100
AcDbEntity
  8
2
100
AcDbLine
 10
120.3999999999998
 20
195.9806917073092
 30
0.0
 11
122.1999999999997
 21
195.9806917073092
 31
0.0
  0
LINE
  5
397
330
1E
100
AcDbEntity
  8
2
100
AcDbLine
 10
119.1999999999997
 20
197.1806917073092
 30
0.0
 11
119.1999999999997
 21
199.7806917073091
 31
0.0
  0
LINE
  5
398
330
1E
100
AcDbEntity
  8
2
100
AcDbLine
 10
121.1999999999999
 20
195.9806917073092
 30
0.0
 11
121.1999999999997
 21
200.9806917073092
 31
0.0
  0
ARC
  5
399
330
1E
100
AcDbEntity
  8
2
100
AcDbCircle
 10
120.3999999999998
 20
199.7806917073091
 30
0.0
 40
1.199999999999999
100
AcDbArc
 50
90.0
 51
180.0
  0
ARC
  5
39A
330
1E
100
AcDbEntity
  8
2
100
AcDbCircle
 10
120.3999999999998
 20
197.1806917073092
 30
0.0
 40
1.199999999999999
100
AcDbArc
 50
180.0
 51
270.0
  0
LINE
  5
39C
330
1E
100
AcDbEntity
  8
2
100
AcDbLine
 10
134.6999999999999
 20
161.9806917073092
 30
0.0
 11
134.6999999999999
 21
201.9806917073091
 31
0.0
  0
LINE
  5
39D
330
1E
100
AcDbEntity
  8
2
100
AcDbLine
 10
122.1999999999999
 20
194.9806917073089
 30
0.0
 11
115.1999999999999
 21
194.980691707309
 31
0.0
  0
LINE
  5
39E
330
1E
100
AcDbEntity
  8
2
100
AcDbLine
 10
122.1999999999999
 20
168.980691707309
 30
0.0
 11
115.1999999999999
 21
168.980691707309
 31
0.0
  0
CIRCLE
  5
3A1
330
1E
100
AcDbEntity
  8
4
100
AcDbCircle
 10
227.5000294627874
 20
170.9806917073091
 30
0.0
 40
2.5
  0
CIRCLE
  5
3A2
330
1E
100
AcDbEntity
  8
4
100
AcDbCircle
 10
227.5000294627874
 20
192.9806917073091
 30
0.0
 40
2.5
  0
LINE
  5
3A3
330
1E
100
AcDbEntity
  8
1
100
AcDbLine
 10
240.5000294627873
 20
188.4806917073091
 30
0.0
 11
240.5000294627873
 21
191.9806917073091
 31
0.0
  0
LINE
  5
3A4
330
1E
100
AcDbEntity
  8
1
100
AcDbLine
 10
220.5000294627873
 20
188.4806917073091
 30
0.0
 11
220.5000294627873
 21
191.9806917073091
 31
0.0
  0
ARC
  5
3A5
330
1E
100
AcDbEntity
  8
1
100
AcDbCircle
 10
227.5000294627874
 20
170.9806917073091
 30
0.0
 40
4.0
100
AcDbArc
 50
139.4583981264972
 51
220.541601873507
  0
LINE
  5
3A6
330
1E
100
AcDbEntity
  8
3
100
AcDbLine
 10
253.2159735799337
 20
194.1032783409724
 30
0.0
 11
243.2159735799337
 21
194.1032783409724
 31
0.0
  0
LINE
  5
3A7
330
1E
100
AcDbEntity
  8
3
100
AcDbLine
 10
255.2159735799337
 20
195.1032783409724
 30
0.0
 11
253.2159735799337
 21
195.1032783409724
 31
0.0
  0
LINE
  5
3A8
330
1E
100
AcDbEntity
  8
3
100
AcDbLine
 10
258.2159735799337
 20
194.1032783409724
 30
0.0
 11
255.2159735799337
 21
194.1032783409724
 31
0.0
  0
LINE
  5
3A9
330
1E
100
AcDbEntity
  8
3
100
AcDbLine
 10
243.2159735799337
 20
194.1032783409724
 30
0.0
 11
243.2159735799337
 21
197.4806917073091
 31
0.0
  0
LINE
  5
3AA
330
1E
100
AcDbEntity
  8
3
100
AcDbLine
 10
181.2159735799337
 20
195.1032783409724
 30
0.0
 11
183.2159735799337
 21
195.1032783409724
 31
0.0
  0
LINE
  5
3AB
330
1E
100
AcDbEntity
  8
3
100
AcDbLine
 10
181.2159735799337
 20
188.4806917073091
 30
0.0
 11
181.2159735799337
 21
197.480691707309
 31
0.0
  0
LINE
  5
3AC
330
1E
100
AcDbEntity
  8
3
100
AcDbLine
 10
183.2159735799337
 20
188.4806917073091
 30
0.0
 11
183.2159735799337
 21
197.480691707309
 31
0.0
  0
LINE
  5
3AD
330
1E
100
AcDbEntity
  8
3
100
AcDbLine
 10
204.7159735799337
 20
188.4806917073091
 30
0.0
 11
204.7159735799337
 21
197.480691707309
 31
0.0
  0
LINE
  5
3AE
330
1E
100
AcDbEntity
  8
3
100
AcDbLine
 10
205.7159735799337
 20
188.4806917073091
 30
0.0
 11
205.7159735799337
 21
197.480691707309
 31
0.0
  0
LINE
  5
3AF
330
1E
100
AcDbEntity
  8
3
100
AcDbLine
 10
253.2159735799337
 20
188.4806917073091
 30
0.0
 11
253.2159735799337
 21
197.4806917073091
 31
0.0
  0
LINE
  5
3B0
330
1E
100
AcDbEntity
  8
3
100
AcDbLine
 10
255.2159735799337
 20
188.4806917073091
 30
0.0
 11
255.2159735799337
 21
197.4806917073091
 31
0.0
  0
LINE
  5
3B1
330
1E
100
AcDbEntity
  8
3
100
AcDbLine
 10
258.2159735799337
 20
188.4806917073091
 30
0.0
 11
258.2159735799337
 21
194.1032783409724
 31
0.0
  0
LINE
  5
3B2
330
1E
100
AcDbEntity
  8
3
100
AcDbLine
 10
231.7159735799337
 20
192.0212658229452
 30
0.0
 11
231.7159735799337
 21
197.4541376456161
 31
0.0
  0
LINE
  5
3B3
330
1E
100
AcDbEntity
  8
5
100
AcDbLine
 10
274.9999999999999
 20
188.8806917073092
 30
0.0
 11
260.0
 21
188.8806917073092
 31
0.0
  0
LINE
  5
3B4
330
1E
100
AcDbEntity
  8
5
100
AcDbLine
 10
279.9999999999998
 20
188.4806917073091
 30
0.0
 11
279.9999999999998
 21
188.8806917073092
 31
0.0
  0
LINE
  5
3B5
330
1E
100
AcDbEntity
  8
5
100
AcDbLine
 10
274.9999999999999
 20
188.4806917073091
 30
0.0
 11
274.9999999999999
 21
188.8806917073092
 31
0.0
  0
LINE
  5
3B6
330
1E
100
AcDbEntity
  8
5
100
AcDbLine
 10
194.9999999999998
 20
188.8806917073092
 30
0.0
 11
179.9999999999998
 21
188.8806917073092
 31
0.0
  0
LINE
  5
3B7
330
1E
100
AcDbEntity
  8
5
100
AcDbLine
 10
253.2159735799337
 20
188.8806917073092
 30
0.0
 11
240.5000294627873
 21
188.8806917073092
 31
0.0
  0
LINE
  5
3B8
330
1E
100
AcDbEntity
  8
5
100
AcDbLine
 10
259.9999999999998
 20
188.4806917073091
 30
0.0
 11
259.9999999999998
 21
188.8806917073092
 31
0.0
  0
LINE
  5
3B9
330
1E
100
AcDbEntity
  8
5
100
AcDbLine
 10
214.9999999999999
 20
188.8806917073092
 30
0.0
 11
199.9999999999998
 21
188.8806917073092
 31
0.0
  0
LINE
  5
3BA
330
1E
100
AcDbEntity
  8
5
100
AcDbLine
 10
214.9999999999999
 20
188.4806917073091
 30
0.0
 11
214.9999999999999
 21
188.8806917073092
 31
0.0
  0
LINE
  5
3BB
330
1E
100
AcDbEntity
  8
5
100
AcDbLine
 10
194.9999999999998
 20
188.4806917073091
 30
0.0
 11
194.9999999999998
 21
188.8806917073092
 31
0.0
  0
LINE
  5
3BC
330
1E
100
AcDbEntity
  8
5
100
AcDbLine
 10
199.9999999999998
 20
188.4806917073091
 30
0.0
 11
199.9999999999998
 21
188.8806917073092
 31
0.0
  0
LINE
  5
3BD
330
1E
100
AcDbEntity
  8
5
100
AcDbLine
 10
155.9999999999998
 20
188.8806917073092
 30
0.0
 11
147.1452763009006
 21
188.8806917073092
 31
0.0
  0
LINE
  5
3BE
330
1E
100
AcDbEntity
  8
5
100
AcDbLine
 10
174.9999999999998
 20
188.8806917073092
 30
0.0
 11
159.9999999999998
 21
188.8806917073092
 31
0.0
  0
LINE
  5
3BF
330
1E
100
AcDbEntity
  8
5
100
AcDbLine
 10
174.9999999999998
 20
188.4806917073091
 30
0.0
 11
174.9999999999998
 21
188.8806917073092
 31
0.0
  0
LINE
  5
3C0
330
1E
100
AcDbEntity
  8
5
100
AcDbLine
 10
179.9999999999998
 20
188.4806917073091
 30
0.0
 11
179.9999999999998
 21
188.8806917073092
 31
0.0
  0
LINE
  5
3E3
330
1E
100
AcDbEntity
  8
3
100
AcDbLine
 10
167.1999999999999
 20
84.99999999999971
 30
0.0
 11
135.6999999999999
 21
85.00000000000003
 31
0.0
  0
LINE
  5
3E4
330
1E
100
AcDbEntity
  8
3
100
AcDbLine
 10
167.1999999999999
 20
57.00000000000002
 30
0.0
 11
135.6999999999999
 21
57.00000000000001
 31
0.0
  0
LINE
  5
3E7
330
1E
100
AcDbEntity
  8
5
100
AcDbLine
 10
287.8547236990993
 20
188.8806917073092
 30
0.0
 11
279.9999999999998
 21
188.8806917073092
 31
0.0
  0
LINE
  5
3E8
330
1E
100
AcDbEntity
  8
1
100
AcDbLine
 10
165.5
 20
197.480691707309
 30
0.0
 11
165.5
 21
194.4806917073091
 31
0.0
  0
LINE
  5
3E9
330
1E
100
AcDbEntity
  8
1
100
AcDbLine
 10
181.2159735799337
 20
194.4806917073091
 30
0.0
 11
165.5
 21
194.4806917073091
 31
0.0
  0
LINE
  5
3EA
330
1E
100
AcDbEntity
  8
1
100
AcDbLine
 10
260.4999999999999
 20
197.4304804425426
 30
0.0
 11
260.4999999999999
 21
194.4806917073091
 31
0.0
  0
TEXT
  5
3EB
330
1E
100
AcDbEntity
  8
3
100
AcDbText
 10
103.9999999999999
 20
983.0
 30
0.0
 40
3.0
  1
 
 41
0.6
  7
GHS
100
AcDbText
  0
TEXT
  5
3EC
330
1E
100
AcDbEntity
  8
3
100
AcDbText
 10
122.0
 20
953.0
 30
0.0
 40
3.0
  1
 
 41
0.6
  7
GHS
100
AcDbText
  0
TEXT
  5
3ED
330
1E
100
AcDbEntity
  8
3
100
AcDbText
 10
122.0
 20
947.0
 30
0.0
 40
3.0
  1
 
 41
0.6
  7
GHS
100
AcDbText
  0
TEXT
  5
3EE
330
1E
100
AcDbEntity
  8
3
100
AcDbText
 10
324.0
 20
905.0
 30
0.0
 40
3.0
  1
 
 41
0.6
  7
GHS
100
AcDbText
  0
TEXT
  5
3EF
330
1E
100
AcDbEntity
  8
3
100
AcDbText
 10
342.0
 20
929.0
 30
0.0
 40
3.0
  1
 
 41
0.6
  7
GHS
100
AcDbText
  0
TEXT
  5
3F0
330
1E
100
AcDbEntity
  8
3
100
AcDbText
 10
252.0
 20
923.0
 30
0.0
 40
3.0
  1
 
 41
0.6
  7
GHS
100
AcDbText
  0
TEXT
  5
3F1
330
1E
100
AcDbEntity
  8
3
100
AcDbText
 10
342.0
 20
887.0
 30
0.0
 40
3.0
  1
 
 41
0.6
  7
GHS
100
AcDbText
  0
TEXT
  5
3F2
330
1E
100
AcDbEntity
  8
3
100
AcDbText
 10
588.0
 20
929.0
 30
0.0
 40
3.0
  1
 
 41
0.6
  7
GHS
100
AcDbText
  0
TEXT
  5
3F3
330
1E
100
AcDbEntity
  8
3
100
AcDbText
 10
588.0
 20
941.0
 30
0.0
 40
3.0
  1
 
 41
0.6
  7
GHS
100
AcDbText
  0
TEXT
  5
3F4
330
1E
100
AcDbEntity
  8
3
100
AcDbText
 10
562.0
 20
905.0
 30
0.0
 40
3.0
  1
 
 41
0.6
  7
GHS
100
AcDbText
  0
TEXT
  5
3F5
330
1E
100
AcDbEntity
  8
3
100
AcDbText
 10
562.0
 20
911.0
 30
0.0
 40
3.0
  1
 
 41
0.6
  7
GHS
100
AcDbText
  0
TEXT
  5
3F6
330
1E
100
AcDbEntity
  8
3
100
AcDbText
 10
562.0
 20
923.0
 30
0.0
 40
3.0
  1
 
 41
0.6
  7
GHS
100
AcDbText
  0
TEXT
  5
3F7
330
1E
100
AcDbEntity
  8
3
100
AcDbText
 10
122.0
 20
839.0
 30
0.0
 40
3.0
  1
 
 41
0.6
  7
GHS
100
AcDbText
  0
TEXT
  5
3F8
330
1E
100
AcDbEntity
  8
3
100
AcDbText
 10
122.0
 20
809.0
 30
0.0
 40
3.0
  1
 
 41
0.6
  7
GHS
100
AcDbText
  0
TEXT
  5
3F9
330
1E
100
AcDbEntity
  8
3
100
AcDbText
 10
368.0
 20
959.0
 30
0.0
 40
3.0
  1
 
 41
0.6
  7
GHS
100
AcDbText
  0
TEXT
  5
3FA
330
1E
100
AcDbEntity
  8
3
100
AcDbText
 10
368.0
 20
941.0
 30
0.0
 40
3.0
  1
 
 41
0.6
  7
GHS
100
AcDbText
  0
TEXT
  5
3FB
330
1E
100
AcDbEntity
  8
3
100
AcDbText
 10
122.0
 20
821.0
 30
0.0
 40
3.0
  1
 
 41
0.6
  7
GHS
100
AcDbText
  0
TEXT
  5
3FC
330
1E
100
AcDbEntity
  8
3
100
AcDbText
 10
103.9999999999999
 20
821.0
 30
0.0
 40
3.0
  1
 
 41
0.6
  7
GHS
100
AcDbText
  0
TEXT
  5
3FD
330
1E
100
AcDbEntity
  8
3
100
AcDbText
 10
148.0
 20
821.0
 30
0.0
 40
3.0
  1
 
 41
0.6
  7
GHS
100
AcDbText
  0
TEXT
  5
3FE
330
1E
100
AcDbEntity
  8
3
100
AcDbText
 10
140.0
 20
821.0
 30
0.0
 40
3.0
  1
 
 41
0.6
  7
GHS
100
AcDbText
  0
TEXT
  5
3FF
330
1E
100
AcDbEntity
  8
3
100
AcDbText
 10
342.0
 20
959.0
 30
0.0
 40
3.0
  1
 
 41
0.6
  7
GHS
100
AcDbText
  0
TEXT
  5
400
330
1E
100
AcDbEntity
  8
3
100
AcDbText
 10
342.0
 20
953.0
 30
0.0
 40
3.0
  1
 
 41
0.6
  7
GHS
100
AcDbText
  0
TEXT
  5
401
330
1E
100
AcDbEntity
  8
3
100
AcDbText
 10
374.0
 20
809.0
 30
0.0
 40
3.0
  1
 
 41
0.6
  7
GHS
100
AcDbText
  0
TEXT
  5
402
330
1E
100
AcDbEntity
  8
3
100
AcDbText
 10
330.0
 20
815.0
 30
0.0
 40
3.0
  1
 
 41
0.6
  7
GHS
100
AcDbText
  0
TEXT
  5
403
330
1E
100
AcDbEntity
  8
3
100
AcDbText
 10
348.0
 20
815.0
 30
0.0
 40
3.0
  1
 
 41
5.333333333333333
  7
GHS
 72
     5
 11
364.0
 21
815.0
 31
0.0
100
AcDbText
  0
TEXT
  5
404
330
1E
100
AcDbEntity
  8
3
100
AcDbText
 10
103.9999999999999
 20
983.0
 30
0.0
 40
3.0
  1
 
 41
0.6
  7
GHS
100
AcDbText
  0
TEXT
  5
405
330
1E
100
AcDbEntity
  8
3
100
AcDbText
 10
122.0
 20
953.0
 30
0.0
 40
3.0
  1
 
 41
0.6
  7
GHS
100
AcDbText
  0
TEXT
  5
406
330
1E
100
AcDbEntity
  8
3
100
AcDbText
 10
122.0
 20
947.0
 30
0.0
 40
3.0
  1
 
 41
0.6
  7
GHS
100
AcDbText
  0
TEXT
  5
407
330
1E
100
AcDbEntity
  8
3
100
AcDbText
 10
324.0
 20
905.0
 30
0.0
 40
3.0
  1
 
 41
0.6
  7
GHS
100
AcDbText
  0
TEXT
  5
408
330
1E
100
AcDbEntity
  8
3
100
AcDbText
 10
342.0
 20
929.0
 30
0.0
 40
3.0
  1
 
 41
0.6
  7
GHS
100
AcDbText
  0
TEXT
  5
409
330
1E
100
AcDbEntity
  8
3
100
AcDbText
 10
252.0
 20
923.0
 30
0.0
 40
3.0
  1
 
 41
0.6
  7
GHS
100
AcDbText
  0
TEXT
  5
40A
330
1E
100
AcDbEntity
  8
3
100
AcDbText
 10
342.0
 20
887.0
 30
0.0
 40
3.0
  1
 
 41
0.6
  7
GHS
100
AcDbText
  0
TEXT
  5
40B
330
1E
100
AcDbEntity
  8
3
100
AcDbText
 10
588.0
 20
929.0
 30
0.0
 40
3.0
  1
 
 41
0.6
  7
GHS
100
AcDbText
  0
TEXT
  5
40C
330
1E
100
AcDbEntity
  8
3
100
AcDbText
 10
588.0
 20
941.0
 30
0.0
 40
3.0
  1
 
 41
0.6
  7
GHS
100
AcDbText
  0
TEXT
  5
40D
330
1E
100
AcDbEntity
  8
3
100
AcDbText
 10
562.0
 20
905.0
 30
0.0
 40
3.0
  1
 
 41
0.6
  7
GHS
100
AcDbText
  0
TEXT
  5
40E
330
1E
100
AcDbEntity
  8
3
100
AcDbText
 10
562.0
 20
911.0
 30
0.0
 40
3.0
  1
 
 41
0.6
  7
GHS
100
AcDbText
  0
TEXT
  5
40F
330
1E
100
AcDbEntity
  8
3
100
AcDbText
 10
562.0
 20
923.0
 30
0.0
 40
3.0
  1
 
 41
0.6
  7
GHS
100
AcDbText
  0
TEXT
  5
410
330
1E
100
AcDbEntity
  8
3
100
AcDbText
 10
122.0
 20
839.0
 30
0.0
 40
3.0
  1
 
 41
0.6
  7
GHS
100
AcDbText
  0
TEXT
  5
411
330
1E
100
AcDbEntity
  8
3
100
AcDbText
 10
122.0
 20
809.0
 30
0.0
 40
3.0
  1
 
 41
0.6
  7
GHS
100
AcDbText
  0
TEXT
  5
412
330
1E
100
AcDbEntity
  8
3
100
AcDbText
 10
368.0
 20
959.0
 30
0.0
 40
3.0
  1
 
 41
0.6
  7
GHS
100
AcDbText
  0
TEXT
  5
413
330
1E
100
AcDbEntity
  8
3
100
AcDbText
 10
368.0
 20
941.0
 30
0.0
 40
3.0
  1
 
 41
0.6
  7
GHS
100
AcDbText
  0
TEXT
  5
414
330
1E
100
AcDbEntity
  8
3
100
AcDbText
 10
122.0
 20
821.0
 30
0.0
 40
3.0
  1
 
 41
0.6
  7
GHS
100
AcDbText
  0
TEXT
  5
415
330
1E
100
AcDbEntity
  8
3
100
AcDbText
 10
103.9999999999999
 20
821.0
 30
0.0
 40
3.0
  1
 
 41
0.6
  7
GHS
100
AcDbText
  0
TEXT
  5
416
330
1E
100
AcDbEntity
  8
3
100
AcDbText
 10
148.0
 20
821.0
 30
0.0
 40
3.0
  1
 
 41
0.6
  7
GHS
100
AcDbText
  0
TEXT
  5
417
330
1E
100
AcDbEntity
  8
3
100
AcDbText
 10
140.0
 20
821.0
 30
0.0
 40
3.0
  1
 
 41
0.6
  7
GHS
100
AcDbText
  0
TEXT
  5
418
330
1E
100
AcDbEntity
  8
3
100
AcDbText
 10
342.0
 20
959.0
 30
0.0
 40
3.0
  1
 
 41
0.6
  7
GHS
100
AcDbText
  0
TEXT
  5
419
330
1E
100
AcDbEntity
  8
3
100
AcDbText
 10
342.0
 20
953.0
 30
0.0
 40
3.0
  1
 
 41
0.6
  7
GHS
100
AcDbText
  0
TEXT
  5
41A
330
1E
100
AcDbEntity
  8
3
100
AcDbText
 10
374.0
 20
809.0
 30
0.0
 40
3.0
  1
 
 41
0.6
  7
GHS
100
AcDbText
  0
TEXT
  5
41B
330
1E
100
AcDbEntity
  8
3
100
AcDbText
 10
330.0
 20
815.0
 30
0.0
 40
3.0
  1
 
 41
0.6
  7
GHS
100
AcDbText
  0
TEXT
  5
41C
330
1E
100
AcDbEntity
  8
3
100
AcDbText
 10
348.0
 20
815.0
 30
0.0
 40
3.0
  1
 
 41
5.333333333333333
  7
GHS
 72
     5
 11
364.0
 21
815.0
 31
0.0
100
AcDbText
  0
TEXT
  5
41D
330
1E
100
AcDbEntity
  8
3
100
AcDbText
 10
103.9999999999999
 20
983.0
 30
0.0
 40
3.0
  1
 
 41
0.6
  7
GHS
100
AcDbText
  0
TEXT
  5
41E
330
1E
100
AcDbEntity
  8
3
100
AcDbText
 10
122.0
 20
953.0
 30
0.0
 40
3.0
  1
 
 41
0.6
  7
GHS
100
AcDbText
  0
TEXT
  5
41F
330
1E
100
AcDbEntity
  8
3
100
AcDbText
 10
122.0
 20
947.0
 30
0.0
 40
3.0
  1
 
 41
0.6
  7
GHS
100
AcDbText
  0
TEXT
  5
420
330
1E
100
AcDbEntity
  8
3
100
AcDbText
 10
324.0
 20
905.0
 30
0.0
 40
3.0
  1
 
 41
0.6
  7
GHS
100
AcDbText
  0
TEXT
  5
421
330
1E
100
AcDbEntity
  8
3
100
AcDbText
 10
342.0
 20
929.0
 30
0.0
 40
3.0
  1
 
 41
0.6
  7
GHS
100
AcDbText
  0
TEXT
  5
422
330
1E
100
AcDbEntity
  8
3
100
AcDbText
 10
252.0
 20
923.0
 30
0.0
 40
3.0
  1
 
 41
0.6
  7
GHS
100
AcDbText
  0
TEXT
  5
423
330
1E
100
AcDbEntity
  8
3
100
AcDbText
 10
342.0
 20
887.0
 30
0.0
 40
3.0
  1
 
 41
0.6
  7
GHS
100
AcDbText
  0
TEXT
  5
424
330
1E
100
AcDbEntity
  8
3
100
AcDbText
 10
588.0
 20
929.0
 30
0.0
 40
3.0
  1
 
 41
0.6
  7
GHS
100
AcDbText
  0
TEXT
  5
425
330
1E
100
AcDbEntity
  8
3
100
AcDbText
 10
588.0
 20
941.0
 30
0.0
 40
3.0
  1
 
 41
0.6
  7
GHS
100
AcDbText
  0
TEXT
  5
426
330
1E
100
AcDbEntity
  8
3
100
AcDbText
 10
562.0
 20
905.0
 30
0.0
 40
3.0
  1
 
 41
0.6
  7
GHS
100
AcDbText
  0
TEXT
  5
427
330
1E
100
AcDbEntity
  8
3
100
AcDbText
 10
562.0
 20
911.0
 30
0.0
 40
3.0
  1
 
 41
0.6
  7
GHS
100
AcDbText
  0
TEXT
  5
428
330
1E
100
AcDbEntity
  8
3
100
AcDbText
 10
562.0
 20
923.0
 30
0.0
 40
3.0
  1
 
 41
0.6
  7
GHS
100
AcDbText
  0
TEXT
  5
429
330
1E
100
AcDbEntity
  8
3
100
AcDbText
 10
122.0
 20
839.0
 30
0.0
 40
3.0
  1
 
 41
0.6
  7
GHS
100
AcDbText
  0
TEXT
  5
42A
330
1E
100
AcDbEntity
  8
3
100
AcDbText
 10
122.0
 20
809.0
 30
0.0
 40
3.0
  1
 
 41
0.6
  7
GHS
100
AcDbText
  0
TEXT
  5
42B
330
1E
100
AcDbEntity
  8
3
100
AcDbText
 10
368.0
 20
959.0
 30
0.0
 40
3.0
  1
 
 41
0.6
  7
GHS
100
AcDbText
  0
TEXT
  5
42C
330
1E
100
AcDbEntity
  8
3
100
AcDbText
 10
368.0
 20
941.0
 30
0.0
 40
3.0
  1
 
 41
0.6
  7
GHS
100
AcDbText
  0
TEXT
  5
42D
330
1E
100
AcDbEntity
  8
3
100
AcDbText
 10
122.0
 20
821.0
 30
0.0
 40
3.0
  1
 
 41
0.6
  7
GHS
100
AcDbText
  0
TEXT
  5
42E
330
1E
100
AcDbEntity
  8
3
100
AcDbText
 10
103.9999999999999
 20
821.0
 30
0.0
 40
3.0
  1
 
 41
0.6
  7
GHS
100
AcDbText
  0
TEXT
  5
42F
330
1E
100
AcDbEntity
  8
3
100
AcDbText
 10
148.0
 20
821.0
 30
0.0
 40
3.0
  1
 
 41
0.6
  7
GHS
100
AcDbText
  0
TEXT
  5
430
330
1E
100
AcDbEntity
  8
3
100
AcDbText
 10
140.0
 20
821.0
 30
0.0
 40
3.0
  1
 
 41
0.6
  7
GHS
100
AcDbText
  0
TEXT
  5
431
330
1E
100
AcDbEntity
  8
3
100
AcDbText
 10
342.0
 20
959.0
 30
0.0
 40
3.0
  1
 
 41
0.6
  7
GHS
100
AcDbText
  0
TEXT
  5
432
330
1E
100
AcDbEntity
  8
3
100
AcDbText
 10
342.0
 20
953.0
 30
0.0
 40
3.0
  1
 
 41
0.6
  7
GHS
100
AcDbText
  0
TEXT
  5
433
330
1E
100
AcDbEntity
  8
3
100
AcDbText
 10
374.0
 20
809.0
 30
0.0
 40
3.0
  1
 
 41
0.6
  7
GHS
100
AcDbText
  0
TEXT
  5
434
330
1E
100
AcDbEntity
  8
3
100
AcDbText
 10
330.0
 20
815.0
 30
0.0
 40
3.0
  1
 
 41
0.6
  7
GHS
100
AcDbText
  0
TEXT
  5
435
330
1E
100
AcDbEntity
  8
3
100
AcDbText
 10
348.0
 20
815.0
 30
0.0
 40
3.0
  1
 
 41
5.333333333333333
  7
GHS
 72
     5
 11
364.0
 21
815.0
 31
0.0
100
AcDbText
  0
TEXT
  5
438
330
1E
100
AcDbEntity
  8
TXT
100
AcDbText
 10
921.0
 20
712.0
 30
0.0
 40
0.2
  1

 41
0.6
  7
GHS
100
AcDbText
  0
TEXT
  5
439
330
1E
100
AcDbEntity
  8
3
100
AcDbText
 10
1809.567873209544
 20
742.6380526316444
 30
0.0
 40
3.0
  1
 
 41
0.6
  7
GHS
100
AcDbText
  0
TEXT
  5
43A
330
1E
100
AcDbEntity
  8
TXT
100
AcDbText
 10
921.0
 20
1162.0
 30
0.0
 40
0.2
  1

 41
0.6
  7
GHS
100
AcDbText
  0
TEXT
  5
43B
330
1E
100
AcDbEntity
  8
3
100
AcDbText
 10
1809.567873209544
 20
1192.638052631644
 30
0.0
 40
3.0
  1
 
 41
0.6
  7
GHS
100
AcDbText
  0
TEXT
  5
43C
330
1E
100
AcDbEntity
  8
TXT
100
AcDbText
 10
1581.0
 20
712.0
 30
0.0
 40
0.2
  1

 41
0.6
  7
GHS
100
AcDbText
  0
TEXT
  5
43D
330
1E
100
AcDbEntity
  8
3
100
AcDbText
 10
2469.567873209544
 20
742.6380526316444
 30
0.0
 40
3.0
  1
 
 41
0.6
  7
GHS
100
AcDbText
  0
TEXT
  5
43E
330
1E
100
AcDbEntity
  8
TXT
100
AcDbText
 10
1103.0
 20
106.0
 30
0.0
 40
3.0
  1

 41
0.6
  7
GHS
100
AcDbText
  0
LINE
  5
46E
330
1E
100
AcDbEntity
  8
2
100
AcDbLine
 10
27.0
 20
59.5
 30
0.0
 11
27.0
 21
112.5
 31
0.0
  0
LINE
  5
46F
330
1E
100
AcDbEntity
  8
2
100
AcDbLine
 10
67.0
 20
59.5
 30
0.0
 11
67.0
 21
112.5
 31
0.0
  0
LINE
  5
470
330
1E
100
AcDbEntity
  8
1
100
AcDbLine
 10
24.5
 20
60.99999999999977
 30
0.0
 11
24.5
 21
117.5
 31
0.0
  0
LINE
  5
472
330
1E
100
AcDbEntity
  8
2
100
AcDbLine
 10
63.5
 20
56.0
 30
0.0
 11
30.5
 21
56.0
 31
0.0
  0
ARC
  5
475
330
1E
100
AcDbEntity
  8
2
100
AcDbCircle
 10
63.5
 20
59.5
 30
0.0
 40
3.5
100
AcDbArc
 50
90.0
 51
180.0
  0
CIRCLE
  5
476
330
1E
100
AcDbEntity
  8
2
100
AcDbCircle
 10
63.5
 20
59.5
 30
0.0
 40
2.5
  0
ARC
  5
477
330
1E
100
AcDbEntity
  8
2
100
AcDbCircle
 10
64.70000000000005
 20
60.69999999999982
 30
0.0
 40
0.5
100
AcDbArc
 50
180.0
 51
270.0
  0
ARC
  5
478
330
1E
100
AcDbEntity
  8
2
100
AcDbCircle
 10
64.70000000000005
 20
58.29999999999995
 30
0.0
 40
0.5
100
AcDbArc
 50
90.0
 51
180.0
  0
ARC
  5
479
330
1E
100
AcDbEntity
  8
2
100
AcDbCircle
 10
63.5
 20
59.5
 30
0.0
 40
3.5
100
AcDbArc
 50
270.0
 51
359.999999999999
  0
LINE
  5
47A
330
1E
100
AcDbEntity
  8
2
100
AcDbLine
 10
65.5
 20
58.79999999999995
 30
0.0
 11
65.5
 21
60.19999999999981
 31
0.0
  0
LINE
  5
47B
330
1E
100
AcDbEntity
  8
2
100
AcDbLine
 10
65.5
 20
58.79999999999995
 30
0.0
 11
64.70000000000005
 21
58.79999999999995
 31
0.0
  0
LINE
  5
47C
330
1E
100
AcDbEntity
  8
2
100
AcDbLine
 10
65.5
 20
60.19999999999981
 30
0.0
 11
64.70000000000005
 21
60.19999999999981
 31
0.0
  0
LINE
  5
47E
330
1E
100
AcDbEntity
  8
2
100
AcDbLine
 10
64.20000000000005
 20
60.69999999999982
 30
0.0
 11
64.20000000000005
 21
61.5
 31
0.0
  0
LINE
  5
47F
330
1E
100
AcDbEntity
  8
2
100
AcDbLine
 10
62.79999999999995
 20
60.69999999999982
 30
0.0
 11
62.79999999999995
 21
61.5
 31
0.0
  0
LINE
  5
480
330
1E
100
AcDbEntity
  8
2
100
AcDbLine
 10
61.5
 20
58.79999999999995
 30
0.0
 11
61.5
 21
60.19999999999981
 31
0.0
  0
LINE
  5
481
330
1E
100
AcDbEntity
  8
2
100
AcDbLine
 10
64.19999999999993
 20
57.5
 30
0.0
 11
62.79999999999995
 21
57.5
 31
0.0
  0
ARC
  5
482
330
1E
100
AcDbEntity
  8
2
100
AcDbCircle
 10
62.29999999999995
 20
60.69999999999982
 30
0.0
 40
0.5
100
AcDbArc
 50
270.0
 51
0.0
  0
ARC
  5
483
330
1E
100
AcDbEntity
  8
2
100
AcDbCircle
 10
62.29999999999995
 20
58.29999999999995
 30
0.0
 40
0.5
100
AcDbArc
 50
0.0
 51
90.0
  0
LINE
  5
484
330
1E
100
AcDbEntity
  8
2
100
AcDbLine
 10
64.20000000000005
 20
57.5
 30
0.0
 11
64.20000000000005
 21
58.29999999999995
 31
0.0
  0
LINE
  5
485
330
1E
100
AcDbEntity
  8
2
100
AcDbLine
 10
62.29999999999995
 20
58.79999999999995
 30
0.0
 11
61.5
 21
58.79999999999995
 31
0.0
  0
LINE
  5
486
330
1E
100
AcDbEntity
  8
2
100
AcDbLine
 10
62.79999999999995
 20
57.49999999999977
 30
0.0
 11
62.79999999999995
 21
58.29999999999995
 31
0.0
  0
LINE
  5
487
330
1E
100
AcDbEntity
  8
2
100
AcDbLine
 10
62.29999999999995
 20
60.19999999999981
 30
0.0
 11
61.5
 21
60.19999999999981
 31
0.0
  0
LINE
  5
488
330
1E
100
AcDbEntity
  8
2
100
AcDbLine
 10
64.20000000000005
 20
61.5
 30
0.0
 11
62.79999999999995
 21
61.5
 31
0.0
  0
LINE
  5
489
330
1E
100
AcDbEntity
  8
2
100
AcDbLine
 10
60.0
 20
59.5
 30
0.0
 11
60.0
 21
56.0
 31
0.0
  0
LINE
  5
48B
330
1E
100
AcDbEntity
  8
2
100
AcDbLine
 10
63.5
 20
63.0
 30
0.0
 11
67.0
 21
63.0
 31
0.0
  0
CIRCLE
  5
48C
330
1E
100
AcDbEntity
  8
2
100
AcDbCircle
 10
30.50000000000011
 20
59.5
 30
0.0
 40
2.5
  0
ARC
  5
48D
330
1E
100
AcDbEntity
  8
2
100
AcDbCircle
 10
30.50000000000011
 20
59.5
 30
0.0
 40
3.5
100
AcDbArc
 50
0.0
 51
90.0
  0
LINE
  5
48E
330
1E
100
AcDbEntity
  8
2
100
AcDbLine
 10
32.50000000000011
 20
60.19999999999981
 30
0.0
 11
31.70000000000015
 21
60.19999999999981
 31
0.0
  0
LINE
  5
48F
330
1E
100
AcDbEntity
  8
2
100
AcDbLine
 10
32.50000000000011
 20
58.79999999999995
 30
0.0
 11
31.70000000000015
 21
58.79999999999995
 31
0.0
  0
CIRCLE
  5
490
330
1E
100
AcDbEntity
  8
2
100
AcDbCircle
 10
48.46500000000003
 20
63.5
 30
0.0
 40
2.0
  0
ARC
  5
491
330
1E
100
AcDbEntity
  8
2
100
AcDbCircle
 10
49.42500000000006
 20
62.53999999999996
 30
0.0
 40
0.4
100
AcDbArc
 50
90.0
 51
180.0
  0
ARC
  5
492
330
1E
100
AcDbEntity
  8
2
100
AcDbCircle
 10
47.50499999999999
 20
62.53999999999996
 30
0.0
 40
0.4
100
AcDbArc
 50
0.0
 51
90.0
  0
LINE
  5
493
330
1E
100
AcDbEntity
  8
2
100
AcDbLine
 10
49.02499999999998
 20
61.89999999999987
 30
0.0
 11
47.90499999999997
 21
61.89999999999987
 31
0.0
  0
LINE
  5
494
330
1E
100
AcDbEntity
  8
2
100
AcDbLine
 10
49.02500000000009
 20
61.89999999999987
 30
0.0
 11
49.02500000000009
 21
62.53999999999996
 31
0.0
  0
LINE
  5
495
330
1E
100
AcDbEntity
  8
2
100
AcDbLine
 10
47.90499999999997
 20
61.89999999999987
 30
0.0
 11
47.90499999999997
 21
62.53999999999996
 31
0.0
  0
LINE
  5
497
330
1E
100
AcDbEntity
  8
2
100
AcDbLine
 10
32.50000000000011
 20
58.79999999999995
 30
0.0
 11
32.50000000000011
 21
60.19999999999981
 31
0.0
  0
LINE
  5
498
330
1E
100
AcDbEntity
  8
2
100
AcDbLine
 10
34.00000000000011
 20
59.5
 30
0.0
 11
34.00000000000011
 21
56.0
 31
0.0
  0
LINE
  5
49A
330
1E
100
AcDbEntity
  8
2
100
AcDbLine
 10
47.50499999999999
 20
64.05999999999995
 30
0.0
 11
46.86500000000001
 21
64.05999999999995
 31
0.0
  0
LINE
  5
49B
330
1E
100
AcDbEntity
  8
2
100
AcDbLine
 10
47.90499999999997
 20
64.46000000000004
 30
0.0
 11
47.90499999999997
 21
65.0999999999999
 31
0.0
  0
LINE
  5
49C
330
1E
100
AcDbEntity
  8
2
100
AcDbLine
 10
47.50499999999999
 20
62.93999999999982
 30
0.0
 11
46.86500000000001
 21
62.93999999999982
 31
0.0
  0
LINE
  5
49D
330
1E
100
AcDbEntity
  8
2
100
AcDbLine
 10
49.02500000000009
 20
64.45999999999981
 30
0.0
 11
49.02500000000009
 21
65.0999999999999
 31
0.0
  0
ARC
  5
49E
330
1E
100
AcDbEntity
  8
2
100
AcDbCircle
 10
49.42500000000006
 20
64.45999999999981
 30
0.0
 40
0.4
100
AcDbArc
 50
180.0
 51
270.0
  0
ARC
  5
49F
330
1E
100
AcDbEntity
  8
2
100
AcDbCircle
 10
47.50499999999999
 20
64.46000000000004
 30
0.0
 40
0.4
100
AcDbArc
 50
270.0
 51
0.0
  0
LINE
  5
4A0
330
1E
100
AcDbEntity
  8
2
100
AcDbLine
 10
50.06500000000006
 20
62.93999999999982
 30
0.0
 11
50.06500000000006
 21
64.05999999999995
 31
0.0
  0
LINE
  5
4A1
330
1E
100
AcDbEntity
  8
2
100
AcDbLine
 10
46.86500000000001
 20
62.93999999999982
 30
0.0
 11
46.86500000000001
 21
64.05999999999995
 31
0.0
  0
LINE
  5
4A2
330
1E
100
AcDbEntity
  8
2
100
AcDbLine
 10
49.02500000000009
 20
65.0999999999999
 30
0.0
 11
47.90499999999997
 21
65.0999999999999
 31
0.0
  0
LINE
  5
4A3
330
1E
100
AcDbEntity
  8
2
100
AcDbLine
 10
50.06500000000006
 20
64.05999999999995
 30
0.0
 11
49.42500000000006
 21
64.05999999999995
 31
0.0
  0
LINE
  5
4A4
330
1E
100
AcDbEntity
  8
2
100
AcDbLine
 10
50.06500000000006
 20
62.93999999999982
 30
0.0
 11
49.42500000000006
 21
62.93999999999982
 31
0.0
  0
ARC
  5
4A5
330
1E
100
AcDbEntity
  8
2
100
AcDbCircle
 10
30.50000000000011
 20
59.5
 30
0.0
 40
3.5
100
AcDbArc
 50
180.0000000000009
 51
270.0
  0
LINE
  5
4A6
330
1E
100
AcDbEntity
  8
2
100
AcDbLine
 10
29.30000000000006
 20
60.19999999999981
 30
0.0
 11
28.50000000000011
 21
60.19999999999981
 31
0.0
  0
LINE
  5
4A7
330
1E
100
AcDbEntity
  8
2
100
AcDbLine
 10
29.80000000000007
 20
60.69999999999982
 30
0.0
 11
29.80000000000007
 21
61.5
 31
0.0
  0
LINE
  5
4A8
330
1E
100
AcDbEntity
  8
2
100
AcDbLine
 10
29.30000000000006
 20
58.79999999999995
 30
0.0
 11
28.50000000000011
 21
58.79999999999995
 31
0.0
  0
LINE
  5
4A9
330
1E
100
AcDbEntity
  8
2
100
AcDbLine
 10
31.20000000000016
 20
60.69999999999982
 30
0.0
 11
31.20000000000016
 21
61.5
 31
0.0
  0
ARC
  5
4AA
330
1E
100
AcDbEntity
  8
2
100
AcDbCircle
 10
31.70000000000015
 20
58.29999999999995
 30
0.0
 40
0.5
100
AcDbArc
 50
90.0
 51
180.0
  0
ARC
  5
4AB
330
1E
100
AcDbEntity
  8
2
100
AcDbCircle
 10
31.70000000000015
 20
60.69999999999982
 30
0.0
 40
0.5
100
AcDbArc
 50
180.0
 51
270.0
  0
ARC
  5
4AC
330
1E
100
AcDbEntity
  8
2
100
AcDbCircle
 10
29.30000000000006
 20
60.69999999999982
 30
0.0
 40
0.5
100
AcDbArc
 50
270.0
 51
0.0
  0
ARC
  5
4AD
330
1E
100
AcDbEntity
  8
2
100
AcDbCircle
 10
29.30000000000006
 20
58.29999999999995
 30
0.0
 40
0.5
100
AcDbArc
 50
0.0
 51
90.0
  0
LINE
  5
4AE
330
1E
100
AcDbEntity
  8
2
100
AcDbLine
 10
28.50000000000011
 20
58.79999999999995
 30
0.0
 11
28.50000000000011
 21
60.19999999999981
 31
0.0
  0
LINE
  5
4AF
330
1E
100
AcDbEntity
  8
2
100
AcDbLine
 10
31.20000000000016
 20
61.5
 30
0.0
 11
29.80000000000007
 21
61.5
 31
0.0
  0
LINE
  5
4B0
330
1E
100
AcDbEntity
  8
2
100
AcDbLine
 10
31.20000000000004
 20
57.5
 30
0.0
 11
29.80000000000007
 21
57.5
 31
0.0
  0
LINE
  5
4B1
330
1E
100
AcDbEntity
  8
2
100
AcDbLine
 10
31.20000000000016
 20
57.5
 30
0.0
 11
31.20000000000016
 21
58.29999999999995
 31
0.0
  0
LINE
  5
4B2
330
1E
100
AcDbEntity
  8
2
100
AcDbLine
 10
29.80000000000007
 20
57.49999999999977
 30
0.0
 11
29.80000000000007
 21
58.29999999999995
 31
0.0
  0
LINE
  5
4B3
330
1E
100
AcDbEntity
  8
2
100
AcDbLine
 10
30.50000000000011
 20
63.0
 30
0.0
 11
27.0
 21
63.0
 31
0.0
  0
LINE
  5
4B4
102
{ACAD_REACTORS
330
218A
102
}
330
1E
100
AcDbEntity
  8
CL
100
AcDbLine
 10
34.15434265698968
 20
137.5
 30
0.0
 11
34.15434265698968
 21
114.5
 31
0.0
  0
LINE
  5
4B5
330
1E
100
AcDbEntity
  8
4
100
AcDbLine
 10
61.6543426569898
 20
117.5
 30
0.0
 11
61.6543426569898
 21
134.4999999999999
 31
0.0
  0
LINE
  5
4B6
330
1E
100
AcDbEntity
  8
4
100
AcDbLine
 10
56.6543426569898
 20
117.5
 30
0.0
 11
56.65434265698967
 21
134.4999999999999
 31
0.0
  0
LINE
  5
4B7
102
{ACAD_REACTORS
330
218A
102
}
330
1E
100
AcDbEntity
  8
CL
100
AcDbLine
 10
59.15434265698968
 20
137.5
 30
0.0
 11
59.15434265698968
 21
114.5
 31
0.0
  0
LINE
  5
4B8
330
1E
100
AcDbEntity
  8
2
100
AcDbLine
 10
59.0
 20
86.0
 30
0.0
 11
35.0
 21
86.0
 31
0.0
  0
LINE
  5
4B9
330
1E
100
AcDbEntity
  8
2
100
AcDbLine
 10
59.0
 20
88.0
 30
0.0
 11
35.0
 21
88.0
 31
0.0
  0
ARC
  5
4BA
330
1E
100
AcDbEntity
  8
2
100
AcDbCircle
 10
47.0
 20
101.0
 30
0.0
 40
16.0
100
AcDbArc
 50
69.63586519368198
 51
110.3641348063172
  0
LINE
  5
4BB
330
1E
100
AcDbEntity
  8
1
100
AcDbLine
 10
70.0
 20
117.5
 30
0.0
 11
24.0
 21
117.5
 31
0.0
  0
LINE
  5
4BC
330
1E
100
AcDbEntity
  8
1
100
AcDbLine
 10
71.0
 20
112.5
 30
0.0
 11
71.0
 21
116.5
 31
0.0
  0
LINE
  5
4BD
330
1E
100
AcDbEntity
  8
1
100
AcDbLine
 10
70.0
 20
112.5
 30
0.0
 11
70.0
 21
116.5
 31
0.0
  0
LINE
  5
4BE
102
{ACAD_REACTORS
330
21E8
102
}
330
1E
100
AcDbEntity
  8
1
100
AcDbLine
 10
68.0
 20
97.5
 30
0.0
 11
72.0
 21
97.5
 31
0.0
  0
LINE
  5
4BF
330
1E
100
AcDbEntity
  8
2
100
AcDbLine
 10
59.0
 20
86.0
 30
0.0
 11
59.0
 21
95.0
 31
0.0
  0
ARC
  5
4C0
330
1E
100
AcDbEntity
  8
2
100
AcDbCircle
 10
63.5
 20
89.50000000000001
 30
0.0
 40
3.5
100
AcDbArc
 50
90.0
 51
270.0
  0
LINE
  5
4C1
330
1E
100
AcDbEntity
  8
1
100
AcDbLine
 10
68.0
 20
88.49999999999978
 30
0.0
 11
68.0
 21
97.5
 31
0.0
  0
CIRCLE
  5
4C2
330
1E
100
AcDbEntity
  8
2
100
AcDbCircle
 10
63.5
 20
89.50000000000001
 30
0.0
 40
2.5
  0
LINE
  5
4C3
330
1E
100
AcDbEntity
  8
2
100
AcDbLine
 10
63.5
 20
86.0
 30
0.0
 11
67.0
 21
86.0
 31
0.0
  0
LINE
  5
4C4
330
1E
100
AcDbEntity
  8
2
100
AcDbLine
 10
54.55999999999995
 20
77.39999999999986
 30
0.0
 11
53.43999999999994
 21
77.39999999999986
 31
0.0
  0
LINE
  5
4C5
330
1E
100
AcDbEntity
  8
2
100
AcDbLine
 10
52.39999999999998
 20
78.43999999999983
 30
0.0
 11
52.39999999999998
 21
79.55999999999995
 31
0.0
  0
LINE
  5
4C6
330
1E
100
AcDbEntity
  8
2
100
AcDbLine
 10
55.60000000000002
 20
78.43999999999983
 30
0.0
 11
54.96000000000003
 21
78.43999999999983
 31
0.0
  0
LINE
  5
4C7
330
1E
100
AcDbEntity
  8
2
100
AcDbLine
 10
55.60000000000002
 20
79.55999999999995
 30
0.0
 11
54.96000000000003
 21
79.55999999999995
 31
0.0
  0
LINE
  5
4C8
330
1E
100
AcDbEntity
  8
2
100
AcDbLine
 10
53.43999999999994
 20
77.39999999999986
 30
0.0
 11
53.43999999999994
 21
78.03999999999996
 31
0.0
  0
LINE
  5
4C9
330
1E
100
AcDbEntity
  8
2
100
AcDbLine
 10
54.56000000000006
 20
77.39999999999986
 30
0.0
 11
54.56000000000006
 21
78.03999999999996
 31
0.0
  0
LINE
  5
4CA
330
1E
100
AcDbEntity
  8
2
100
AcDbLine
 10
54.56000000000006
 20
80.59999999999991
 30
0.0
 11
53.43999999999994
 21
80.59999999999991
 31
0.0
  0
LINE
  5
4CB
330
1E
100
AcDbEntity
  8
2
100
AcDbLine
 10
55.60000000000002
 20
78.43999999999983
 30
0.0
 11
55.60000000000002
 21
79.55999999999995
 31
0.0
  0
ARC
  5
4CC
330
1E
100
AcDbEntity
  8
2
100
AcDbCircle
 10
53.03999999999996
 20
78.03999999999996
 30
0.0
 40
0.4
100
AcDbArc
 50
0.0
 51
90.0
  0
ARC
  5
4CD
330
1E
100
AcDbEntity
  8
2
100
AcDbCircle
 10
53.03999999999996
 20
79.96000000000003
 30
0.0
 40
0.4
100
AcDbArc
 50
270.0
 51
0.0
  0
ARC
  5
4CE
330
1E
100
AcDbEntity
  8
2
100
AcDbCircle
 10
54.96000000000003
 20
79.9599999999998
 30
0.0
 40
0.4
100
AcDbArc
 50
180.0
 51
270.0
  0
ARC
  5
4CF
330
1E
100
AcDbEntity
  8
2
100
AcDbCircle
 10
54.96000000000003
 20
78.03999999999996
 30
0.0
 40
0.4
100
AcDbArc
 50
90.0
 51
180.0
  0
LINE
  5
4D0
330
1E
100
AcDbEntity
  8
2
100
AcDbLine
 10
54.56000000000006
 20
79.9599999999998
 30
0.0
 11
54.56000000000006
 21
80.59999999999991
 31
0.0
  0
LINE
  5
4D1
330
1E
100
AcDbEntity
  8
2
100
AcDbLine
 10
53.03999999999996
 20
78.43999999999983
 30
0.0
 11
52.39999999999998
 21
78.43999999999983
 31
0.0
  0
LINE
  5
4D2
330
1E
100
AcDbEntity
  8
2
100
AcDbLine
 10
53.43999999999994
 20
79.96000000000003
 30
0.0
 11
53.43999999999994
 21
80.59999999999991
 31
0.0
  0
LINE
  5
4D3
330
1E
100
AcDbEntity
  8
2
100
AcDbLine
 10
53.03999999999996
 20
79.55999999999995
 30
0.0
 11
52.39999999999998
 21
79.55999999999995
 31
0.0
  0
CIRCLE
  5
4D4
330
1E
100
AcDbEntity
  8
2
100
AcDbCircle
 10
54.0
 20
79.0
 30
0.0
 40
2.0
  0
ARC
  5
4D5
330
1E
100
AcDbEntity
  8
2
100
AcDbCircle
 10
64.70000000000005
 20
88.29999999999996
 30
0.0
 40
0.5
100
AcDbArc
 50
90.0
 51
180.0
  0
ARC
  5
4D6
330
1E
100
AcDbEntity
  8
2
100
AcDbCircle
 10
64.70000000000005
 20
90.69999999999982
 30
0.0
 40
0.5
100
AcDbArc
 50
180.0
 51
270.0
  0
LINE
  5
4D7
330
1E
100
AcDbEntity
  8
2
100
AcDbLine
 10
63.5
 20
93.0
 30
0.0
 11
67.0
 21
93.0
 31
0.0
  0
LINE
  5
4D8
330
1E
100
AcDbEntity
  8
2
100
AcDbLine
 10
65.5
 20
90.19999999999981
 30
0.0
 11
64.70000000000005
 21
90.19999999999981
 31
0.0
  0
LINE
  5
4D9
330
1E
100
AcDbEntity
  8
2
100
AcDbLine
 10
65.5
 20
88.79999999999995
 30
0.0
 11
64.70000000000005
 21
88.79999999999995
 31
0.0
  0
LINE
  5
4DA
330
1E
100
AcDbEntity
  8
2
100
AcDbLine
 10
65.5
 20
88.79999999999995
 30
0.0
 11
65.5
 21
90.19999999999981
 31
0.0
  0
LINE
  5
4DB
330
1E
100
AcDbEntity
  8
2
100
AcDbLine
 10
64.20000000000005
 20
91.5
 30
0.0
 11
62.79999999999995
 21
91.5
 31
0.0
  0
LINE
  5
4DC
330
1E
100
AcDbEntity
  8
2
100
AcDbLine
 10
62.29999999999995
 20
90.19999999999981
 30
0.0
 11
61.5
 21
90.19999999999981
 31
0.0
  0
LINE
  5
4DD
330
1E
100
AcDbEntity
  8
2
100
AcDbLine
 10
62.79999999999995
 20
87.49999999999976
 30
0.0
 11
62.79999999999995
 21
88.29999999999996
 31
0.0
  0
LINE
  5
4DE
330
1E
100
AcDbEntity
  8
2
100
AcDbLine
 10
62.29999999999995
 20
88.79999999999995
 30
0.0
 11
61.5
 21
88.79999999999995
 31
0.0
  0
LINE
  5
4DF
330
1E
100
AcDbEntity
  8
2
100
AcDbLine
 10
64.20000000000005
 20
87.5
 30
0.0
 11
64.20000000000005
 21
88.29999999999996
 31
0.0
  0
ARC
  5
4E0
330
1E
100
AcDbEntity
  8
2
100
AcDbCircle
 10
62.29999999999995
 20
88.29999999999996
 30
0.0
 40
0.5
100
AcDbArc
 50
0.0
 51
90.0
  0
ARC
  5
4E1
330
1E
100
AcDbEntity
  8
2
100
AcDbCircle
 10
62.29999999999995
 20
90.69999999999982
 30
0.0
 40
0.5
100
AcDbArc
 50
270.0
 51
0.0
  0
LINE
  5
4E2
330
1E
100
AcDbEntity
  8
2
100
AcDbLine
 10
64.19999999999993
 20
87.5
 30
0.0
 11
62.79999999999995
 21
87.5
 31
0.0
  0
LINE
  5
4E3
330
1E
100
AcDbEntity
  8
2
100
AcDbLine
 10
61.5
 20
88.79999999999995
 30
0.0
 11
61.5
 21
90.19999999999981
 31
0.0
  0
LINE
  5
4E4
330
1E
100
AcDbEntity
  8
2
100
AcDbLine
 10
62.79999999999995
 20
90.69999999999982
 30
0.0
 11
62.79999999999995
 21
91.5
 31
0.0
  0
LINE
  5
4E5
330
1E
100
AcDbEntity
  8
2
100
AcDbLine
 10
64.20000000000005
 20
90.69999999999982
 30
0.0
 11
64.20000000000005
 21
91.5
 31
0.0
  0
LINE
  5
4E6
330
1E
100
AcDbEntity
  8
2
100
AcDbLine
 10
57.0
 20
88.0
 30
0.0
 11
57.0
 21
95.0
 31
0.0
  0
LINE
  5
4E7
330
1E
100
AcDbEntity
  8
2
100
AcDbLine
 10
59.0
 20
95.0
 30
0.0
 11
57.0
 21
95.0
 31
0.0
  0
LINE
  5
4E8
330
1E
100
AcDbEntity
  8
1
100
AcDbLine
 10
70.0
 20
116.5
 30
0.0
 11
68.0
 21
116.5
 31
0.0
  0
LINE
  5
4E9
330
1E
100
AcDbEntity
  8
1
100
AcDbLine
 10
68.0
 20
112.5
 30
0.0
 11
72.0
 21
112.5
 31
0.0
  0
ARC
  5
4EA
330
1E
100
AcDbEntity
  8
1
100
AcDbCircle
 10
70.0
 20
116.5
 30
0.0
 40
1.0
100
AcDbArc
 50
0.0
 51
90.0
  0
CIRCLE
  5
4EB
330
1E
100
AcDbEntity
  8
2
100
AcDbCircle
 10
63.5
 20
112.5
 30
0.0
 40
2.5
  0
ARC
  5
4EC
330
1E
100
AcDbEntity
  8
2
100
AcDbCircle
 10
63.5
 20
112.5
 30
0.0
 40
3.5
100
AcDbArc
 50
180.0
 51
270.0
  0
LINE
  5
4ED
330
1E
100
AcDbEntity
  8
2
100
AcDbLine
 10
65.5
 20
111.7999999999999
 30
0.0
 11
65.5
 21
113.1999999999998
 31
0.0
  0
LINE
  5
4EE
330
1E
100
AcDbEntity
  8
2
100
AcDbLine
 10
61.5
 20
111.7999999999999
 30
0.0
 11
61.5
 21
113.1999999999998
 31
0.0
  0
LINE
  5
4EF
330
1E
100
AcDbEntity
  8
2
100
AcDbLine
 10
64.20000000000005
 20
110.4999999999999
 30
0.0
 11
64.20000000000005
 21
111.2999999999999
 31
0.0
  0
LINE
  5
4F0
330
1E
100
AcDbEntity
  8
2
100
AcDbLine
 10
62.79999999999995
 20
110.4999999999997
 30
0.0
 11
62.79999999999995
 21
111.2999999999999
 31
0.0
  0
LINE
  5
4F1
330
1E
100
AcDbEntity
  8
2
100
AcDbLine
 10
63.5
 20
109.0
 30
0.0
 11
67.0
 21
109.0
 31
0.0
  0
LINE
  5
4F2
330
1E
100
AcDbEntity
  8
2
100
AcDbLine
 10
64.19999999999993
 20
110.4999999999999
 30
0.0
 11
62.79999999999995
 21
110.4999999999999
 31
0.0
  0
ARC
  5
4F3
330
1E
100
AcDbEntity
  8
2
100
AcDbCircle
 10
64.70000000000005
 20
111.2999999999999
 30
0.0
 40
0.5
100
AcDbArc
 50
90.0
 51
180.0
  0
LINE
  5
4F4
330
1E
100
AcDbEntity
  8
2
100
AcDbLine
 10
65.5
 20
111.7999999999999
 30
0.0
 11
64.70000000000005
 21
111.7999999999999
 31
0.0
  0
ARC
  5
4F5
330
1E
100
AcDbEntity
  8
2
100
AcDbCircle
 10
62.29999999999995
 20
111.2999999999999
 30
0.0
 40
0.5
100
AcDbArc
 50
0.0
 51
90.0
  0
LINE
  5
4F6
330
1E
100
AcDbEntity
  8
2
100
AcDbLine
 10
62.29999999999995
 20
111.7999999999999
 30
0.0
 11
61.5
 21
111.7999999999999
 31
0.0
  0
ARC
  5
4F7
330
1E
100
AcDbEntity
  8
2
100
AcDbCircle
 10
64.70000000000005
 20
113.6999999999998
 30
0.0
 40
0.5
100
AcDbArc
 50
180.0
 51
270.0
  0
ARC
  5
4F8
330
1E
100
AcDbEntity
  8
2
100
AcDbCircle
 10
63.5
 20
112.5
 30
0.0
 40
3.5
100
AcDbArc
 50
0.0
 51
90.0
  0
LINE
  5
4F9
330
1E
100
AcDbEntity
  8
2
100
AcDbLine
 10
65.5
 20
113.1999999999998
 30
0.0
 11
64.70000000000005
 21
113.1999999999998
 31
0.0
  0
LINE
  5
4FA
330
1E
100
AcDbEntity
  8
1
100
AcDbLine
 10
68.0
 20
112.5
 30
0.0
 11
68.0
 21
117.5
 31
0.0
  0
LINE
  5
4FB
330
1E
100
AcDbEntity
  8
2
100
AcDbLine
 10
64.20000000000005
 20
113.6999999999998
 30
0.0
 11
64.20000000000005
 21
114.5
 31
0.0
  0
LINE
  5
4FC
330
1E
100
AcDbEntity
  8
2
100
AcDbLine
 10
62.79999999999995
 20
113.6999999999998
 30
0.0
 11
62.79999999999995
 21
114.5
 31
0.0
  0
ARC
  5
4FD
330
1E
100
AcDbEntity
  8
2
100
AcDbCircle
 10
62.29999999999995
 20
113.6999999999998
 30
0.0
 40
0.5
100
AcDbArc
 50
270.0
 51
0.0
  0
LINE
  5
4FE
330
1E
100
AcDbEntity
  8
2
100
AcDbLine
 10
62.29999999999995
 20
113.1999999999998
 30
0.0
 11
61.5
 21
113.1999999999998
 31
0.0
  0
LINE
  5
4FF
330
1E
100
AcDbEntity
  8
2
100
AcDbLine
 10
64.20000000000005
 20
114.5
 30
0.0
 11
62.79999999999995
 21
114.5
 31
0.0
  0
LINE
  5
500
330
1E
100
AcDbEntity
  8
2
100
AcDbLine
 10
60.0
 20
112.5
 30
0.0
 11
60.0
 21
116.0
 31
0.0
  0
LINE
  5
501
330
1E
100
AcDbEntity
  8
2
100
AcDbLine
 10
52.56776436283008
 20
116.0
 30
0.0
 11
63.5
 21
116.0
 31
0.0
  0
LINE
  5
502
330
1E
100
AcDbEntity
  8
1
100
AcDbLine
 10
23.0
 20
84.0
 30
0.0
 11
23.0
 21
116.5
 31
0.0
  0
LINE
  5
507
330
1E
100
AcDbEntity
  8
2
100
AcDbLine
 10
35.0
 20
86.0
 30
0.0
 11
35.0
 21
95.0
 31
0.0
  0
LINE
  5
508
330
1E
100
AcDbEntity
  8
2
100
AcDbLine
 10
37.0
 20
95.0
 30
0.0
 11
35.0
 21
95.0
 31
0.0
  0
LINE
  5
509
330
1E
100
AcDbEntity
  8
2
100
AcDbLine
 10
37.0
 20
88.0
 30
0.0
 11
37.0
 21
95.0
 31
0.0
  0
LINE
  5
50A
330
1E
100
AcDbEntity
  8
1
100
AcDbLine
 10
24.0
 20
84.0
 30
0.0
 11
24.0
 21
116.5
 31
0.0
  0
LINE
  5
50B
330
1E
100
AcDbEntity
  8
1
100
AcDbLine
 10
24.0
 20
84.0
 30
0.0
 11
24.0
 21
82.0
 31
0.0
  0
LINE
  5
50C
102
{ACAD_REACTORS
330
21E8
102
}
330
1E
100
AcDbEntity
  8
1
100
AcDbLine
 10
23.0
 20
84.0
 30
0.0
 11
23.0
 21
82.0
 31
0.0
  0
LINE
  5
50D
330
1E
100
AcDbEntity
  8
1
100
AcDbLine
 10
24.0
 20
82.0
 30
0.0
 11
24.5
 21
82.0
 31
0.0
  0
LINE
  5
50E
330
1E
100
AcDbEntity
  8
1
100
AcDbLine
 10
24.0
 20
81.0
 30
0.0
 11
24.5
 21
81.0
 31
0.0
  0
ARC
  5
50F
102
{ACAD_REACTORS
330
21E8
102
}
330
1E
100
AcDbEntity
  8
1
100
AcDbCircle
 10
24.0
 20
82.0
 30
0.0
 40
1.0
100
AcDbArc
 50
180.0
 51
270.0
  0
LINE
  5
510
330
1E
100
AcDbEntity
  8
1
100
AcDbLine
 10
23.0
 20
84.0
 30
0.0
 11
24.0
 21
84.0
 31
0.0
  0
CIRCLE
  5
513
330
1E
100
AcDbEntity
  8
2
100
AcDbCircle
 10
30.5
 20
112.5
 30
0.0
 40
2.5
  0
ARC
  5
514
330
1E
100
AcDbEntity
  8
2
100
AcDbCircle
 10
30.5
 20
112.5
 30
0.0
 40
3.5
100
AcDbArc
 50
270.0
 51
0.0
  0
LINE
  5
516
330
1E
100
AcDbEntity
  8
2
100
AcDbLine
 10
32.5
 20
113.1999999999998
 30
0.0
 11
31.70000000000004
 21
113.1999999999998
 31
0.0
  0
LINE
  5
517
330
1E
100
AcDbEntity
  8
2
100
AcDbLine
 10
32.5
 20
111.7999999999999
 30
0.0
 11
31.70000000000004
 21
111.7999999999999
 31
0.0
  0
LINE
  5
518
330
1E
100
AcDbEntity
  8
2
100
AcDbLine
 10
30.5
 20
116.0
 30
0.0
 11
41.43223563717015
 21
116.0
 31
0.0
  0
LINE
  5
519
330
1E
100
AcDbEntity
  8
2
100
AcDbLine
 10
32.5
 20
111.7999999999999
 30
0.0
 11
32.5
 21
113.1999999999998
 31
0.0
  0
LINE
  5
51A
330
1E
100
AcDbEntity
  8
2
100
AcDbLine
 10
34.0
 20
112.5
 30
0.0
 11
34.0
 21
116.0
 31
0.0
  0
LINE
  5
51D
330
1E
100
AcDbEntity
  8
2
100
AcDbLine
 10
28.5
 20
111.7999999999999
 30
0.0
 11
28.5
 21
113.1999999999998
 31
0.0
  0
LINE
  5
51E
330
1E
100
AcDbEntity
  8
2
100
AcDbLine
 10
29.79999999999995
 20
110.4999999999997
 30
0.0
 11
29.79999999999995
 21
111.2999999999999
 31
0.0
  0
LINE
  5
51F
330
1E
100
AcDbEntity
  8
2
100
AcDbLine
 10
31.20000000000004
 20
110.4999999999999
 30
0.0
 11
31.20000000000004
 21
111.2999999999999
 31
0.0
  0
LINE
  5
520
330
1E
100
AcDbEntity
  8
2
100
AcDbLine
 10
30.5
 20
109.0
 30
0.0
 11
27.0
 21
109.0
 31
0.0
  0
LINE
  5
523
330
1E
100
AcDbEntity
  8
2
100
AcDbLine
 10
31.19999999999993
 20
110.4999999999999
 30
0.0
 11
29.79999999999995
 21
110.4999999999999
 31
0.0
  0
LINE
  5
525
330
1E
100
AcDbEntity
  8
2
100
AcDbLine
 10
29.29999999999995
 20
111.7999999999999
 30
0.0
 11
28.5
 21
111.7999999999999
 31
0.0
  0
ARC
  5
526
330
1E
100
AcDbEntity
  8
2
100
AcDbCircle
 10
31.70000000000004
 20
111.2999999999999
 30
0.0
 40
0.5
100
AcDbArc
 50
90.0
 51
180.0
  0
ARC
  5
527
330
1E
100
AcDbEntity
  8
2
100
AcDbCircle
 10
29.29999999999995
 20
111.2999999999999
 30
0.0
 40
0.5
100
AcDbArc
 50
0.0
 51
90.0
  0
ARC
  5
528
330
1E
100
AcDbEntity
  8
2
100
AcDbCircle
 10
30.5
 20
112.5
 30
0.0
 40
3.5
100
AcDbArc
 50
90.0
 51
180.0
  0
LINE
  5
529
330
1E
100
AcDbEntity
  8
2
100
AcDbLine
 10
31.20000000000004
 20
114.5
 30
0.0
 11
29.79999999999995
 21
114.5
 31
0.0
  0
LINE
  5
52A
330
1E
100
AcDbEntity
  8
2
100
AcDbLine
 10
29.29999999999995
 20
113.1999999999998
 30
0.0
 11
28.5
 21
113.1999999999998
 31
0.0
  0
ARC
  5
52B
330
1E
100
AcDbEntity
  8
2
100
AcDbCircle
 10
29.29999999999995
 20
113.6999999999998
 30
0.0
 40
0.5
100
AcDbArc
 50
270.0
 51
0.0
  0
ARC
  5
52C
330
1E
100
AcDbEntity
  8
2
100
AcDbCircle
 10
31.70000000000004
 20
113.6999999999998
 30
0.0
 40
0.5
100
AcDbArc
 50
180.0
 51
270.0
  0
LINE
  5
52D
330
1E
100
AcDbEntity
  8
2
100
AcDbLine
 10
29.79999999999995
 20
113.6999999999998
 30
0.0
 11
29.79999999999995
 21
114.5
 31
0.0
  0
LINE
  5
52E
330
1E
100
AcDbEntity
  8
2
100
AcDbLine
 10
31.20000000000004
 20
113.6999999999998
 30
0.0
 11
31.20000000000004
 21
114.5
 31
0.0
  0
LINE
  5
52F
330
1E
100
AcDbEntity
  8
1
100
AcDbLine
 10
24.5
 20
116.5
 30
0.0
 11
24.0
 21
116.5
 31
0.0
  0
ARC
  5
530
330
1E
100
AcDbEntity
  8
1
100
AcDbCircle
 10
24.0
 20
116.5
 30
0.0
 40
1.0
100
AcDbArc
 50
90.0
 51
180.0
  0
LINE
  5
533
330
1E
100
AcDbEntity
  8
4
100
AcDbLine
 10
61.6543426569898
 20
134.4999999999999
 30
0.0
 11
56.65434265698967
 21
134.4999999999999
 31
0.0
  0
LINE
  5
559
330
1E
100
AcDbEntity
  8
4
100
AcDbLine
 10
36.6543426569898
 20
134.4999999999999
 30
0.0
 11
31.65434265698967
 21
134.4999999999999
 31
0.0
  0
LINE
  5
55A
330
1E
100
AcDbEntity
  8
4
100
AcDbLine
 10
36.6543426569898
 20
117.5
 30
0.0
 11
36.6543426569898
 21
134.4999999999999
 31
0.0
  0
LINE
  5
55B
330
1E
100
AcDbEntity
  8
4
100
AcDbLine
 10
31.6543426569898
 20
117.5
 30
0.0
 11
31.65434265698967
 21
134.4999999999999
 31
0.0
  0
LINE
  5
55D
330
1E
100
AcDbEntity
  8
2
100
AcDbLine
 10
135.4999999999999
 20
92.0
 30
0.0
 11
134.6999999999999
 21
92.0
 31
0.0
  0
LINE
  5
55E
330
1E
100
AcDbEntity
  8
5
100
AcDbLine
 10
155.9999999999998
 20
188.4806917073091
 30
0.0
 11
155.9999999999998
 21
188.8806917073092
 31
0.0
  0
LINE
  5
55F
330
1E
100
AcDbEntity
  8
5
100
AcDbLine
 10
159.9999999999998
 20
188.4806917073091
 30
0.0
 11
159.9999999999998
 21
188.8806917073092
 31
0.0
  0
LINE
  5
1CC4
330
1E
100
AcDbEntity
  8
1
100
AcDbLine
 10
162.5999999999996
 20
90.0
 30
0.0
 11
139.9999999999997
 21
90.0
 31
0.0
  0
LINE
  5
1CC5
330
1E
100
AcDbEntity
  8
1
100
AcDbLine
 10
299.4999999999997
 20
55.99999999999994
 30
0.0
 11
135.4999999999997
 21
56.0
 31
0.0
  0
LINE
  5
1CC6
330
1E
100
AcDbEntity
  8
1
100
AcDbLine
 10
295.9999999999997
 20
97.49999999999994
 30
0.0
 11
135.4999999999997
 21
97.5
 31
0.0
  0
LINE
  5
1CC8
330
1E
100
AcDbEntity
  8
CL
100
AcDbLine
 10
307.4999999999997
 20
100.9999999999999
 30
0.0
 11
131.4999999999997
 21
101.0
 31
0.0
  0
LINE
  5
1CCA
102
{ACAD_REACTORS
330
2200
102
}
330
1E
100
AcDbEntity
  8
1
100
AcDbLine
 10
299.4999999999997
 20
117.4999999999999
 30
0.0
 11
136.4999999999997
 21
117.5
 31
0.0
  0
LINE
  5
1CCF
330
1E
100
AcDbEntity
  8
1
100
AcDbLine
 10
147.4999999999997
 20
112.5
 30
0.0
 11
135.4999999999999
 21
112.5
 31
0.0
  0
LINE
  5
1CD0
330
1E
100
AcDbEntity
  8
1
100
AcDbLine
 10
244.1999999999996
 20
78.99999999999995
 30
0.0
 11
207.1999999999998
 21
78.99999999999995
 31
0.0
  0
LINE
  5
1CD1
330
1E
100
AcDbEntity
  8
1
100
AcDbLine
 10
244.1999999999996
 20
89.99999999999994
 30
0.0
 11
231.7159735799339
 21
89.99999999999996
 31
0.0
  0
LINE
  5
1CD2
330
1E
100
AcDbEntity
  8
CL
100
AcDbLine
 10
238.8999999999996
 20
76.49999999999995
 30
0.0
 11
230.8999999999996
 21
76.49999999999995
 31
0.0
  0
ARC
  5
1CD8
330
1E
100
AcDbEntity
  8
1
100
AcDbCircle
 10
288.4999999999997
 20
100.4999999999998
 30
0.0
 40
3.0
100
AcDbArc
 50
180.0
 51
270.0
  0
ARC
  5
1CD9
330
1E
100
AcDbEntity
  8
1
100
AcDbCircle
 10
288.4999999999997
 20
109.4999999999998
 30
0.0
 40
3.0
100
AcDbArc
 50
90.0
 51
180.0
  0
LINE
  5
1CDA
330
1E
100
AcDbEntity
  8
1
100
AcDbLine
 10
295.9999999999997
 20
89.99999999999994
 30
0.0
 11
273.9999999999997
 21
89.99999999999994
 31
0.0
  0
LINE
  5
1CDB
330
1E
100
AcDbEntity
  8
1
100
AcDbLine
 10
299.4999999999997
 20
78.99999999999995
 30
0.0
 11
273.9999999999997
 21
78.99999999999995
 31
0.0
  0
LINE
  5
1CDC
102
{ACAD_REACTORS
330
2139
330
2172
102
}
330
1E
100
AcDbEntity
  8
1
100
AcDbLine
 10
300.4999999999997
 20
75.99999999999994
 30
0.0
 11
300.4999999999997
 21
116.4999999999999
 31
0.0
  0
LINE
  5
1CDD
330
1E
100
AcDbEntity
  8
1
100
AcDbLine
 10
299.4999999999997
 20
75.99999999999994
 30
0.0
 11
299.4999999999997
 21
97.49999999999994
 31
0.0
  0
LINE
  5
1CDE
330
1E
100
AcDbEntity
  8
1
100
AcDbLine
 10
298.4999999999997
 20
78.99999999999995
 30
0.0
 11
298.4999999999997
 21
88.49999999999994
 31
0.0
  0
LINE
  5
1CDF
330
1E
100
AcDbEntity
  8
1
100
AcDbLine
 10
299.4999999999997
 20
55.99999999999994
 30
0.0
 11
299.4999999999997
 21
97.49999999999994
 31
0.0
  0
LINE
  5
1CE0
330
1E
100
AcDbEntity
  8
1
100
AcDbLine
 10
292.4999999999997
 20
105.4999999999999
 30
0.0
 11
290.90900974233
 21
103.9090097423302
 31
0.0
  0
LINE
  5
1CE1
330
1E
100
AcDbEntity
  8
1
100
AcDbLine
 10
292.4999999999997
 20
103.2499999999999
 30
0.0
 11
292.4999999999997
 21
107.7499999999999
 31
0.0
  0
LINE
  5
1CE2
330
1E
100
AcDbEntity
  8
1
100
AcDbLine
 10
303.4999999999997
 20
96.2999999999999
 30
0.0
 11
303.4999999999997
 21
105.6999999999998
 31
0.0
  0
LINE
  5
1CE5
330
1E
100
AcDbEntity
  8
1
100
AcDbLine
 10
292.4999999999997
 20
105.4999999999999
 30
0.0
 11
294.0909902576695
 21
103.9090097423302
 31
0.0
  0
LINE
  5
1CE6
330
1E
100
AcDbEntity
  8
1
100
AcDbLine
 10
288.4999999999997
 20
112.4999999999999
 30
0.0
 11
300.4999999999997
 21
112.4999999999999
 31
0.0
  0
ARC
  5
1CE7
102
{ACAD_REACTORS
330
2139
102
}
330
1E
100
AcDbEntity
  8
1
100
AcDbCircle
 10
299.4999999999997
 20
116.4999999999998
 30
0.0
 40
1.0
100
AcDbArc
 50
0.0
 51
90.0
  0
LINE
  5
1CE8
330
1E
100
AcDbEntity
  8
1
100
AcDbLine
 10
303.4999999999997
 20
105.6999999999998
 30
0.0
 11
300.4999999999997
 21
105.9999999999999
 31
0.0
  0
LINE
  5
1CEB
330
1E
100
AcDbEntity
  8
1
100
AcDbLine
 10
292.4999999999997
 20
105.4999999999999
 30
0.0
 11
290.2499999999997
 21
105.4999999999999
 31
0.0
  0
LINE
  5
1CEC
330
1E
100
AcDbEntity
  8
1
100
AcDbLine
 10
292.4999999999997
 20
105.4999999999999
 30
0.0
 11
290.90900974233
 21
107.0909902576696
 31
0.0
  0
LINE
  5
1CED
330
1E
100
AcDbEntity
  8
1
100
AcDbLine
 10
299.4999999999997
 20
112.4999999999999
 30
0.0
 11
299.4999999999997
 21
116.4999999999999
 31
0.0
  0
LINE
  5
1CEE
330
1E
100
AcDbEntity
  8
1
100
AcDbLine
 10
299.4999999999997
 20
116.4999999999999
 30
0.0
 11
298.9999999999998
 21
116.4999999999999
 31
0.0
  0
LINE
  5
1CEF
330
1E
100
AcDbEntity
  8
1
100
AcDbLine
 10
298.9999999999998
 20
112.4999999999999
 30
0.0
 11
298.9999999999998
 21
117.4999999999999
 31
0.0
  0
LINE
  5
1CF0
330
1E
100
AcDbEntity
  8
1
100
AcDbLine
 10
292.4999999999997
 20
105.4999999999999
 30
0.0
 11
294.7499999999997
 21
105.4999999999999
 31
0.0
  0
LINE
  5
1CF1
330
1E
100
AcDbEntity
  8
1
100
AcDbLine
 10
292.4999999999997
 20
105.4999999999999
 30
0.0
 11
294.0909902576695
 21
107.0909902576696
 31
0.0
  0
LINE
  5
1CF3
330
1E
100
AcDbEntity
  8
1
100
AcDbLine
 10
295.9999999999997
 20
97.49999999999994
 30
0.0
 11
300.4999999999997
 21
97.49999999999994
 31
0.0
  0
LINE
  5
1CF5
330
1E
100
AcDbEntity
  8
1
100
AcDbLine
 10
303.4999999999997
 20
96.2999999999999
 30
0.0
 11
300.4999999999997
 21
95.99999999999994
 31
0.0
  0
LINE
  5
1CF6
330
1E
100
AcDbEntity
  8
1
100
AcDbLine
 10
298.9999999999998
 20
92.99999999999995
 30
0.0
 11
298.9999999999998
 21
97.49999999999994
 31
0.0
  0
ARC
  5
1CF7
330
1E
100
AcDbEntity
  8
1
100
AcDbCircle
 10
295.9999999999997
 20
92.99999999999988
 30
0.0
 40
3.0
100
AcDbArc
 50
270.0
 51
0.0
  0
LINE
  5
1CF9
330
1E
100
AcDbEntity
  8
1
100
AcDbLine
 10
299.4999999999997
 20
88.49999999999994
 30
0.0
 11
298.4999999999997
 21
88.49999999999994
 31
0.0
  0
CIRCLE
  5
1CFA
330
1E
100
AcDbEntity
  8
1
100
AcDbCircle
 10
292.4999999999997
 20
66.19999999999987
 30
0.0
 40
1.75
  0
LINE
  5
1CFB
330
1E
100
AcDbEntity
  8
CL
100
AcDbLine
 10
292.4999999999997
 20
62.19999999999993
 30
0.0
 11
292.4999999999997
 21
70.19999999999993
 31
0.0
  0
LINE
  5
1CFD
102
{ACAD_REACTORS
330
2172
102
}
330
1E
100
AcDbEntity
  8
1
100
AcDbLine
 10
300.4999999999997
 20
75.99999999999994
 30
0.0
 11
299.4999999999997
 21
75.99999999999994
 31
0.0
  0
LINE
  5
1CFE
330
1E
100
AcDbEntity
  8
CL
100
AcDbLine
 10
296.4999999999997
 20
66.19999999999993
 30
0.0
 11
288.4999999999997
 21
66.19999999999993
 31
0.0
  0
LINE
  5
1CFF
330
1E
100
AcDbEntity
  8
1
100
AcDbLine
 10
244.1999999999998
 20
78.99999999999995
 30
0.0
 11
244.1999999999998
 21
86.01034191723284
 31
0.0
  0
LINE
  5
1D00
330
1E
100
AcDbEntity
  8
1
100
AcDbLine
 10
273.9999999999997
 20
78.99999999999995
 30
0.0
 11
273.9999999999997
 21
89.99999999999994
 31
0.0
  0
LINE
  5
1D01
330
1E
100
AcDbEntity
  8
1
100
AcDbLine
 10
285.4999999999997
 20
100.4999999999999
 30
0.0
 11
285.4999999999997
 21
109.4999999999999
 31
0.0
  0
LINE
  5
1D03
330
1E
100
AcDbEntity
  8
1
100
AcDbLine
 10
273.9999999999995
 20
81.99999999999993
 30
0.0
 11
244.1999999999996
 21
81.99999999999993
 31
0.0
  0
LINE
  5
1D04
330
1E
100
AcDbEntity
  8
CL
100
AcDbLine
 10
274.2999999999997
 20
76.49999999999995
 30
0.0
 11
266.2999999999997
 21
76.49999999999995
 31
0.0
  0
CIRCLE
  5
1D05
330
1E
100
AcDbEntity
  8
1
100
AcDbCircle
 10
270.2999999999997
 20
76.49999999999988
 30
0.0
 40
1.75
  0
LINE
  5
1D06
330
1E
100
AcDbEntity
  8
CL
100
AcDbLine
 10
270.2999999999997
 20
72.49999999999994
 30
0.0
 11
270.2999999999997
 21
80.49999999999995
 31
0.0
  0
LINE
  5
1D07
330
1E
100
AcDbEntity
  8
CL
100
AcDbLine
 10
252.8999999999996
 20
76.49999999999995
 30
0.0
 11
244.8999999999996
 21
76.49999999999995
 31
0.0
  0
LINE
  5
1D08
330
1E
100
AcDbEntity
  8
CL
100
AcDbLine
 10
248.8999999999996
 20
72.49999999999994
 30
0.0
 11
248.8999999999996
 21
80.49999999999995
 31
0.0
  0
CIRCLE
  5
1D09
330
1E
100
AcDbEntity
  8
1
100
AcDbCircle
 10
248.8999999999996
 20
76.49999999999988
 30
0.0
 40
1.75
  0
LINE
  5
1D0D
330
1E
100
AcDbEntity
  8
1
100
AcDbLine
 10
207.1999999999998
 20
81.99999999999993
 30
0.0
 11
167.1999999999999
 21
82.0
 31
0.0
  0
LINE
  5
1D0E
330
1E
100
AcDbEntity
  8
1
100
AcDbLine
 10
207.1999999999998
 20
78.99999999999995
 30
0.0
 11
207.1999999999998
 21
86.01034191723284
 31
0.0
  0
LINE
  5
1D0F
330
1E
100
AcDbEntity
  8
CL
100
AcDbLine
 10
216.6999999999995
 20
66.19999999999993
 30
0.0
 11
208.6999999999995
 21
66.19999999999993
 31
0.0
  0
CIRCLE
  5
1D10
330
1E
100
AcDbEntity
  8
1
100
AcDbCircle
 10
212.6999999999995
 20
66.19999999999993
 30
0.0
 40
1.75
  0
LINE
  5
1D11
330
1E
100
AcDbEntity
  8
CL
100
AcDbLine
 10
226.6999999999995
 20
62.19999999999993
 30
0.0
 11
226.6999999999995
 21
70.19999999999993
 31
0.0
  0
CIRCLE
  5
1D12
330
1E
100
AcDbEntity
  8
1
100
AcDbCircle
 10
226.6999999999995
 20
66.19999999999987
 30
0.0
 40
1.75
  0
CIRCLE
  5
1D13
330
1E
100
AcDbEntity
  8
1
100
AcDbCircle
 10
234.8999999999996
 20
76.49999999999988
 30
0.0
 40
1.75
  0
LINE
  5
1D14
330
1E
100
AcDbEntity
  8
CL
100
AcDbLine
 10
234.8999999999996
 20
72.49999999999994
 30
0.0
 11
234.8999999999996
 21
80.49999999999995
 31
0.0
  0
LINE
  5
1D15
330
1E
100
AcDbEntity
  8
CL
100
AcDbLine
 10
230.6999999999995
 20
66.19999999999993
 30
0.0
 11
222.6999999999995
 21
66.19999999999993
 31
0.0
  0
CIRCLE
  5
1D16
330
1E
100
AcDbEntity
  8
1
100
AcDbCircle
 10
195.6999999999995
 20
66.19999999999993
 30
0.0
 40
2.5
  0
LINE
  5
1D17
330
1E
100
AcDbEntity
  8
CL
100
AcDbLine
 10
195.6999999999995
 20
62.19999999999993
 30
0.0
 11
195.6999999999995
 21
70.19999999999993
 31
0.0
  0
LINE
  5
1D18
330
1E
100
AcDbEntity
  8
CL
100
AcDbLine
 10
212.6999999999995
 20
62.19999999999993
 30
0.0
 11
212.6999999999995
 21
70.19999999999993
 31
0.0
  0
LINE
  5
1D19
330
1E
100
AcDbEntity
  8
CL
100
AcDbLine
 10
199.6999999999995
 20
66.19999999999993
 30
0.0
 11
191.6999999999996
 21
66.19999999999999
 31
0.0
  0
LINE
  5
1D1A
330
1E
100
AcDbEntity
  8
1
100
AcDbLine
 10
162.5999999999997
 20
84.99999999999976
 30
0.0
 11
162.5999999999996
 21
90.0
 31
0.0
  0
LINE
  5
1D1B
330
1E
100
AcDbEntity
  8
1
100
AcDbLine
 10
150.4999999999997
 20
100.5
 30
0.0
 11
150.4999999999997
 21
109.4999999999999
 31
0.0
  0
LINE
  5
1D1C
330
1E
100
AcDbEntity
  8
1
100
AcDbLine
 10
143.4999999999997
 20
105.4999999999999
 30
0.0
 11
141.90900974233
 21
103.9090097423303
 31
0.0
  0
LINE
  5
1D1D
330
1E
100
AcDbEntity
  8
1
100
AcDbLine
 10
143.4999999999997
 20
105.4999999999999
 30
0.0
 11
145.0909902576695
 21
103.9090097423303
 31
0.0
  0
LINE
  5
1D1E
330
1E
100
AcDbEntity
  8
1
100
AcDbLine
 10
143.4999999999997
 20
103.2499999999999
 30
0.0
 11
143.4999999999997
 21
107.75
 31
0.0
  0
ARC
  5
1D1F
330
1E
100
AcDbEntity
  8
1
100
AcDbCircle
 10
147.4999999999997
 20
109.4999999999999
 30
0.0
 40
3.0
100
AcDbArc
 50
0.0
 51
90.0
  0
LINE
  5
1D20
330
1E
100
AcDbEntity
  8
1
100
AcDbLine
 10
143.4999999999997
 20
105.4999999999999
 30
0.0
 11
141.2499999999997
 21
105.4999999999999
 31
0.0
  0
LINE
  5
1D21
330
1E
100
AcDbEntity
  8
1
100
AcDbLine
 10
143.4999999999997
 20
105.4999999999999
 30
0.0
 11
141.90900974233
 21
107.0909902576696
 31
0.0
  0
LINE
  5
1D22
330
1E
100
AcDbEntity
  8
1
100
AcDbLine
 10
143.4999999999997
 20
105.4999999999999
 30
0.0
 11
145.0909902576695
 21
107.0909902576696
 31
0.0
  0
LINE
  5
1D23
330
1E
100
AcDbEntity
  8
1
100
AcDbLine
 10
143.4999999999997
 20
105.4999999999999
 30
0.0
 11
145.7499999999997
 21
105.4999999999999
 31
0.0
  0
ARC
  5
1D25
330
1E
100
AcDbEntity
  8
1
100
AcDbCircle
 10
147.4999999999997
 20
100.4999999999999
 30
0.0
 40
3.0
100
AcDbArc
 50
270.0
 51
0.0
  0
ARC
  5
1D27
330
1E
100
AcDbEntity
  8
1
100
AcDbCircle
 10
167.2999999999997
 20
76.49999999999995
 30
0.0
 40
1.5
100
AcDbArc
 50
340.5287793655115
 51
93.82255372926323
  0
ARC
  5
1D28
330
1E
100
AcDbEntity
  8
1
100
AcDbCircle
 10
167.2999999999997
 20
76.49999999999995
 30
0.0
 40
1.199999999999999
100
AcDbArc
 50
335.3756816478388
 51
94.78019184718528
  0
LINE
  5
1D2D
330
1E
100
AcDbEntity
  8
1
100
AcDbLine
 10
135.4999999999997
 20
56.0
 30
0.0
 11
135.4999999999997
 21
57.02020410288678
 31
0.0
  0
LINE
  5
1D2E
330
1E
100
AcDbEntity
  8
1
100
AcDbLine
 10
136.4999999999997
 20
56.0
 30
0.0
 11
136.4999999999997
 21
57.00000000000001
 31
0.0
  0
LINE
  5
1D37
330
1E
100
AcDbEntity
  8
1
100
AcDbLine
 10
136.9999999999997
 20
112.5
 30
0.0
 11
137.0
 21
117.5
 31
0.0
  0
LINE
  5
1D38
330
1E
100
AcDbEntity
  8
1
100
AcDbLine
 10
136.9999999999997
 20
116.5
 30
0.0
 11
136.4999999999997
 21
116.5
 31
0.0
  0
LINE
  5
1D39
330
1E
100
AcDbEntity
  8
1
100
AcDbLine
 10
136.4999999999997
 20
112.5
 30
0.0
 11
136.4999999999997
 21
116.5
 31
0.0
  0
ARC
  5
1D3A
330
1E
100
AcDbEntity
  8
1
100
AcDbCircle
 10
136.4999999999997
 20
116.4999999999999
 30
0.0
 40
1.0
100
AcDbArc
 50
90.0
 51
180.0
  0
ARC
  5
1D3C
330
1E
100
AcDbEntity
  8
1
100
AcDbCircle
 10
139.9999999999997
 20
92.99999999999995
 30
0.0
 40
3.0
100
AcDbArc
 50
199.4712206344894
 51
270.0
  0
LINE
  5
1F12
330
1E
100
AcDbEntity
  8
2
100
AcDbLine
 10
135.4999999999999
 20
168.9806917073092
 30
0.0
 11
134.6999999999999
 21
168.9806917073092
 31
0.0
  0
LINE
  5
1F13
330
1E
100
AcDbEntity
  8
1
100
AcDbLine
 10
230.7159735799337
 20
89.99999999999996
 30
0.0
 11
207.1999999999998
 21
89.99999999999994
 31
0.0
  0
LINE
  5
1F14
330
1E
100
AcDbEntity
  8
1
100
AcDbLine
 10
207.1999999999998
 20
88.01034191723283
 30
0.0
 11
207.1999999999998
 21
89.99999999999994
 31
0.0
  0
LINE
  5
1F15
330
1E
100
AcDbEntity
  8
1
100
AcDbLine
 10
244.1999999999998
 20
88.01034191723283
 30
0.0
 11
244.1999999999998
 21
89.99999999999994
 31
0.0
  0
LINE
  5
1F16
102
{ACAD_REACTORS
330
21E8
102
}
330
1E
100
AcDbEntity
  8
1
100
AcDbLine
 10
72.0
 20
97.5
 30
0.0
 11
72.0
 21
112.5
 31
0.0
  0
ARC
  5
1F1C
330
1E
100
AcDbEntity
  8
1
100
AcDbCircle
 10
29.50000000000007
 20
60.99999999999977
 30
0.0
 40
5.0
100
AcDbArc
 50
180.0
 51
270.0000000000026
  0
ARC
  5
1F31
330
1E
100
AcDbEntity
  8
1
100
AcDbCircle
 10
65.00000000000001
 20
88.49999999999978
 30
0.0
 40
3.0
100
AcDbArc
 50
311.8103148957782
 51
0.0
  0
LINE
  5
1F56
330
1E
100
AcDbEntity
  8
1
100
AcDbLine
 10
34.49999999999977
 20
56.00000000000026
 30
0.0
 11
29.50000000000028
 21
55.9999999999998
 31
0.0
  0
LINE
  5
209C
330
1E
100
AcDbEntity
  8
2
100
AcDbLine
 10
122.1999999999999
 20
93.0
 30
0.0
 11
122.1999999999999
 21
86.0
 31
0.0
  0
LINE
  5
209D
330
1E
100
AcDbEntity
  8
2
100
AcDbLine
 10
121.1999999999999
 20
92.0
 30
0.0
 11
121.1999999999997
 21
87.0
 31
0.0
  0
LINE
  5
209E
330
1E
100
AcDbEntity
  8
2
100
AcDbLine
 10
119.1999999999997
 20
90.79999999999996
 30
0.0
 11
119.1999999999997
 21
88.20000000000005
 31
0.0
  0
LINE
  5
209F
330
1E
100
AcDbEntity
  8
2
100
AcDbLine
 10
120.3999999999998
 20
92.0
 30
0.0
 11
122.1999999999997
 21
92.0
 31
0.0
  0
LINE
  5
20A0
330
1E
100
AcDbEntity
  8
2
100
AcDbLine
 10
120.3999999999998
 20
87.0
 30
0.0
 11
122.1999999999997
 21
87.0
 31
0.0
  0
ARC
  5
20A1
330
1E
100
AcDbEntity
  8
2
100
AcDbCircle
 10
120.3999999999998
 20
90.79999999999996
 30
0.0
 40
1.199999999999999
100
AcDbArc
 50
90.0
 51
180.0
  0
ARC
  5
20A2
330
1E
100
AcDbEntity
  8
2
100
AcDbCircle
 10
120.3999999999998
 20
88.20000000000005
 30
0.0
 40
1.199999999999999
100
AcDbArc
 50
180.0
 51
270.0
  0
LINE
  5
20A3
330
1E
100
AcDbEntity
  8
2
100
AcDbLine
 10
115.1999999999999
 20
86.0
 30
0.0
 11
122.1999999999997
 21
86.0
 31
0.0
  0
LINE
  5
20A4
330
1E
100
AcDbEntity
  8
2
100
AcDbLine
 10
122.1999999999999
 20
93.0
 30
0.0
 11
115.1999999999999
 21
93.0
 31
0.0
  0
LINE
  5
20A5
330
1E
100
AcDbEntity
  8
2
100
AcDbLine
 10
134.6999999999999
 20
116.0
 30
0.0
 11
115.1999999999999
 21
116.0
 31
0.0
  0
LINE
  5
20A7
330
1E
100
AcDbEntity
  8
1
100
AcDbLine
 10
135.4999999999998
 20
85.49999999999975
 30
0.0
 11
136.4999999999997
 21
85.49999999999974
 31
0.0
  0
LINE
  5
20A8
330
1E
100
AcDbEntity
  8
1
100
AcDbLine
 10
135.4999999999998
 20
84.97979589711325
 30
0.0
 11
135.4999999999999
 21
116.5
 31
0.0
  0
LINE
  5
20A9
330
1E
100
AcDbEntity
  8
1
100
AcDbLine
 10
136.4999999999997
 20
85.00000000000003
 30
0.0
 11
136.4999999999997
 21
97.5
 31
0.0
  0
LINE
  5
211A
102
{ACAD_REACTORS
330
2151
102
}
330
1E
100
AcDbEntity
  8
CL
100
AcDbLine
 10
150.4999999999999
 20
137.5
 30
0.0
 11
150.4999999999996
 21
99.00000000000009
 31
0.0
  0
LINE
  5
211B
102
{ACAD_REACTORS
330
2139
330
2151
102
}
330
1E
100
AcDbEntity
  8
CL
100
AcDbLine
 10
284.4999999999998
 20
137.5
 30
0.0
 11
284.4999999999996
 21
99.00000000000003
 31
0.0
  0
LINE
  5
2120
330
1E
100
AcDbEntity
  8
CL
100
AcDbLine
 10
227.5000294627874
 20
186.9806917073091
 30
0.0
 11
227.5000294627874
 21
198.9806917073091
 31
0.0
  0
LINE
  5
2121
330
1E
100
AcDbEntity
  8
CL
100
AcDbLine
 10
227.5000294627874
 20
176.9806917073091
 30
0.0
 11
227.5000294627874
 21
186.9806917073091
 31
0.0
  0
DIMENSION
  5
2122
102
{ACAD_XDICTIONARY
360
212F
102
}
102
{ACAD_REACTORS
330
2139
102
}
330
1E
100
AcDbEntity
  8
TXT
100
AcDbDimension
  2
*D0
 10
284.4999999999998
 20
143.0
 30
0.0
 11
292.4999999999998
 21
146.0
 31
0.0
 70
    32
  3
STANDARD
100
AcDbAlignedDimension
 13
300.4999999999997
 23
116.4999999999998
 33
0.0
 14
284.4999999999998
 24
137.5
 34
0.0
100
AcDbRotatedDimension
1001
ACAD
1000
DSTYLE
1002
{
1070
   287
1070
     5
1070
   287
1070
     5
1070
   287
1070
     5
1070
    41
1040
3.0
1070
    42
1040
1.0
1070
    44
1040
1.0
1070
    73
1070
     0
1070
    74
1070
     0
1070
    77
1070
     1
1070
    78
1070
     8
1070
   140
1040
4.0
1070
   141
1040
1.0
1070
   147
1040
1.0
1070
   174
1070
     1
1070
   279
1070
     2
1070
   284
1070
     8
1070
   285
1070
     8
1070
   286
1070
     8
1070
   340
1005
2B
1002
}
  0
DIMENSION
  5
213A
102
{ACAD_XDICTIONARY
360
2147
102
}
102
{ACAD_REACTORS
330
2151
102
}
330
1E
100
AcDbEntity
  8
TXT
100
AcDbDimension
  2
*D1
 10
284.4999999999998
 20
143.0
 30
0.0
 11
217.4999999999998
 21
146.0
 31
0.0
 70
    32
  1
STROKE=<>
  3
STANDARD
100
AcDbAlignedDimension
 13
150.4999999999999
 23
137.5
 33
0.0
 14
284.4999999999998
 24
137.5
 34
0.0
100
AcDbRotatedDimension
1001
ACAD
1000
DSTYLE
1002
{
1070
   287
1070
     5
1070
   287
1070
     5
1070
   287
1070
     5
1070
    41
1040
3.0
1070
    42
1040
1.0
1070
    44
1040
1.0
1070
    73
1070
     0
1070
    74
1070
     0
1070
    77
1070
     1
1070
    78
1070
     8
1070
   140
1040
4.0
1070
   141
1040
1.0
1070
   147
1040
1.0
1070
   174
1070
     1
1070
   279
1070
     2
1070
   284
1070
     8
1070
   285
1070
     8
1070
   286
1070
     8
1070
   340
1005
2B
1002
}
  0
DIMENSION
  5
215B
102
{ACAD_XDICTIONARY
360
2168
102
}
102
{ACAD_REACTORS
330
2172
102
}
330
1E
100
AcDbEntity
  8
TXT
100
AcDbDimension
  2
*D2
 10
300.4999999999997
 20
43.0
 30
0.0
 11
207.8499999999998
 21
46.0
 31
0.0
 70
    32
  3
STANDARD
100
AcDbAlignedDimension
 13
115.1999999999999
 23
56.0
 33
0.0
 14
300.4999999999997
 24
75.99999999999994
 34
0.0
100
AcDbRotatedDimension
1001
ACAD
1000
DSTYLE
1002
{
1070
   287
1070
     5
1070
   287
1070
     5
1070
   287
1070
     5
1070
    41
1040
3.0
1070
    42
1040
1.0
1070
    44
1040
1.0
1070
    73
1070
     0
1070
    74
1070
     0
1070
    77
1070
     1
1070
    78
1070
     8
1070
   140
1040
4.0
1070
   141
1040
1.0
1070
   147
1040
1.0
1070
   174
1070
     1
1070
   279
1070
     2
1070
   284
1070
     8
1070
   285
1070
     8
1070
   286
1070
     8
1070
   340
1005
2B
1002
}
  0
DIMENSION
  5
2173
102
{ACAD_XDICTIONARY
360
2180
102
}
102
{ACAD_REACTORS
330
218A
102
}
330
1E
100
AcDbEntity
  8
TXT
100
AcDbDimension
  2
*D3
 10
59.15434265698968
 20
143.0
 30
0.0
 11
46.65434265698968
 21
146.0
 31
0.0
 70
    32
  3
STANDARD
100
AcDbAlignedDimension
 13
34.15434265698968
 23
137.5
 33
0.0
 14
59.15434265698968
 24
137.5
 34
0.0
100
AcDbRotatedDimension
1001
ACAD
1000
DSTYLE
1002
{
1070
   287
1070
     5
1070
   287
1070
     5
1070
   287
1070
     5
1070
    41
1040
3.0
1070
    42
1040
1.0
1070
    44
1040
1.0
1070
    73
1070
     0
1070
    74
1070
     0
1070
    77
1070
     1
1070
    78
1070
     8
1070
   140
1040
4.0
1070
   141
1040
1.0
1070
   147
1040
1.0
1070
   174
1070
     1
1070
   279
1070
     2
1070
   284
1070
     8
1070
   285
1070
     8
1070
   286
1070
     8
1070
   340
1005
2B
1002
}
  0
DIMENSION
  5
218B
102
{ACAD_XDICTIONARY
360
2199
102
}
102
{ACAD_REACTORS
330
21A4
102
}
330
1E
100
AcDbEntity
  8
TXT
100
AcDbDimension
  2
*D4
 10
230.0000294627873
 20
128.0
 30
0.0
 11
235.0420330372248
 21
130.6180072027009
 31
0.0
 70
   160
  1
%%C5
  3
STANDARD
100
AcDbAlignedDimension
 13
225.0000294627874
 23
134.5
 33
0.0
 14
230.0000294627873
 24
134.5
 34
0.0
100
AcDbRotatedDimension
1001
ACAD
1000
DSTYLE
1002
{
1070
   287
1070
     5
1070
   287
1070
     5
1070
   287
1070
     5
1070
    41
1040
3.0
1070
    42
1040
1.0
1070
    44
1040
1.0
1070
    73
1070
     0
1070
    74
1070
     0
1070
    77
1070
     1
1070
    78
1070
     8
1070
   140
1040
4.0
1070
   141
1040
1.0
1070
   147
1040
1.0
1070
   174
1070
     1
1070
   279
1070
     2
1070
   284
1070
     8
1070
   285
1070
     8
1070
   286
1070
     8
1070
   340
1005
2B
1002
}
  0
DIMENSION
  5
21B9
102
{ACAD_XDICTIONARY
360
21C6
102
}
102
{ACAD_REACTORS
330
21D0
102
}
330
1E
100
AcDbEntity
  8
TXT
100
AcDbDimension
  2
*D5
 10
215.0
 20
134.5
 30
0.0
 11
211.9999999999999
 21
126.0
 31
0.0
 70
    32
  3
STANDARD
100
AcDbAlignedDimension
 13
225.0000294627874
 23
117.5
 33
0.0
 14
225.0000294627874
 24
134.5
 34
0.0
 50
90.0
100
AcDbRotatedDimension
1001
ACAD
1000
DSTYLE
1002
{
1070
   287
1070
     5
1070
   287
1070
     5
1070
   287
1070
     5
1070
    41
1040
3.0
1070
    42
1040
1.0
1070
    44
1040
1.0
1070
    73
1070
     0
1070
    74
1070
     0
1070
    77
1070
     1
1070
    78
1070
     8
1070
   140
1040
4.0
1070
   141
1040
1.0
1070
   147
1040
1.0
1070
   174
1070
     1
1070
   279
1070
     2
1070
   284
1070
     8
1070
   285
1070
     8
1070
   286
1070
     8
1070
   340
1005
2B
1002
}
  0
DIMENSION
  5
21D1
102
{ACAD_XDICTIONARY
360
21DE
102
}
102
{ACAD_REACTORS
330
21E8
102
}
330
1E
100
AcDbEntity
  8
TXT
100
AcDbDimension
  2
*D6
 10
72.0
 20
43.0
 30
0.0
 11
47.5
 21
46.0
 31
0.0
 70
    32
  3
STANDARD
100
AcDbAlignedDimension
 13
23.0
 23
82.0
 33
0.0
 14
72.0
 24
97.5
 34
0.0
100
AcDbRotatedDimension
1001
ACAD
1000
DSTYLE
1002
{
1070
   287
1070
     5
1070
   287
1070
     5
1070
   287
1070
     5
1070
    41
1040
3.0
1070
    42
1040
1.0
1070
    44
1040
1.0
1070
    73
1070
     0
1070
    74
1070
     0
1070
    77
1070
     1
1070
    78
1070
     8
1070
   140
1040
4.0
1070
   141
1040
1.0
1070
   147
1040
1.0
1070
   174
1070
     1
1070
   279
1070
     2
1070
   284
1070
     8
1070
   285
1070
     8
1070
   286
1070
     8
1070
   340
1005
2B
1002
}
  0
DIMENSION
  5
21E9
102
{ACAD_XDICTIONARY
360
21F6
102
}
102
{ACAD_REACTORS
330
2200
102
}
330
1E
100
AcDbEntity
  8
TXT
100
AcDbDimension
  2
*D7
 10
93.0
 20
117.5
 30
0.0
 11
89.99999999999998
 21
86.75000000000002
 31
0.0
 70
    32
  3
STANDARD
100
AcDbAlignedDimension
 13
115.1999999999999
 23
56.0
 33
0.0
 14
136.4999999999997
 24
117.5
 34
0.0
 50
90.0
100
AcDbRotatedDimension
1001
ACAD
1000
DSTYLE
1002
{
1070
   287
1070
     5
1070
   287
1070
     5
1070
   287
1070
     5
1070
    41
1040
3.0
1070
    42
1040
1.0
1070
    44
1040
1.0
1070
    73
1070
     0
1070
    74
1070
     0
1070
    77
1070
     1
1070
    78
1070
     8
1070
   140
1040
4.0
1070
   141
1040
1.0
1070
   147
1040
1.0
1070
   174
1070
     1
1070
   279
1070
     2
1070
   284
1070
     8
1070
   285
1070
     8
1070
   286
1070
     8
1070
   340
1005
2B
1002
}
  0
LINE
  5
22BF
330
1E
100
AcDbEntity
  8
1
100
AcDbLine
 10
150.4999999999997
 20
156.9806917073091
 30
0.0
 11
136.4999999999999
 21
156.9806917073091
 31
0.0
  0
ARC
  5
22C0
330
1E
100
AcDbEntity
  8
1
100
AcDbCircle
 10
136.4999999999999
 20
157.9806917073091
 30
0.0
 40
1.0
100
AcDbArc
 50
180.0
 51
270.0
  0
LINE
  5
22C1
330
1E
100
AcDbEntity
  8
1
100
AcDbLine
 10
150.4999999999997
 20
156.9806917073091
 30
0.0
 11
150.4999999999997
 21
157.9806917073091
 31
0.0
  0
LINE
  5
22C2
330
1E
100
AcDbEntity
  8
1
100
AcDbLine
 10
285.4999999999997
 20
156.9806917073091
 30
0.0
 11
285.4999999999997
 21
157.9806917073091
 31
0.0
  0
LINE
  5
22C3
330
1E
100
AcDbEntity
  8
1
100
AcDbLine
 10
299.5
 20
156.9806917073091
 30
0.0
 11
285.4999999999997
 21
156.9806917073091
 31
0.0
  0
ARC
  5
22C4
330
1E
100
AcDbEntity
  8
1
100
AcDbCircle
 10
299.5
 20
157.9806917073091
 30
0.0
 40
1.0
100
AcDbArc
 50
270.0000000000001
 51
0.0
  0
ENDSEC
  0
SECTION
  2
OBJECTS
  0
DICTIONARY
  5
C
330
0
100
AcDbDictionary
  3
ACAD_GROUP
350
D
  3
ACAD_LAYOUT
350
19
  3
ACAD_MLINESTYLE
350
16
  3
ACAD_PLOTSETTINGS
350
18
  3
ACAD_PLOTSTYLENAME
350
E
  3
ACDBHEADERROUNDTRIPXREC
350
24A3
  3
ACDBVARIABLEDICTIONARY
350
5EE
  0
DICTIONARY
  5
5B9
330
1E
100
AcDbDictionary
280
     1
  3
ACAD_LAYOUTSELFREF
360
24C5
  0
DICTIONARY
  5
5BB
330
1A
100
AcDbDictionary
280
     1
  3
ACAD_LAYOUTSELFREF
360
24C4
  0
DICTIONARY
  5
212F
330
2122
100
AcDbDictionary
280
     1
  3
ACAD_DIMASSOC
360
2139
  0
DICTIONARY
  5
2147
330
213A
100
AcDbDictionary
280
     1
  3
ACAD_DIMASSOC
360
2151
  0
DICTIONARY
  5
2168
330
215B
100
AcDbDictionary
280
     1
  3
ACAD_DIMASSOC
360
2172
  0
DICTIONARY
  5
2180
330
2173
100
AcDbDictionary
280
     1
  3
ACAD_DIMASSOC
360
218A
  0
DICTIONARY
  5
2199
330
218B
100
AcDbDictionary
280
     1
  3
ACAD_DIMASSOC
360
21A4
  0
DICTIONARY
  5
21C6
330
21B9
100
AcDbDictionary
280
     1
  3
ACAD_DIMASSOC
360
21D0
  0
DICTIONARY
  5
21DE
330
21D1
100
AcDbDictionary
280
     1
  3
ACAD_DIMASSOC
360
21E8
  0
DICTIONARY
  5
21F6
330
21E9
100
AcDbDictionary
280
     1
  3
ACAD_DIMASSOC
360
2200
  0
DICTIONARY
  5
D
102
{ACAD_REACTORS
330
C
102
}
330
C
100
AcDbDictionary
  0
DICTIONARY
  5
19
102
{ACAD_REACTORS
330
C
102
}
330
C
100
AcDbDictionary
  0
DICTIONARY
  5
16
102
{ACAD_REACTORS
330
C
102
}
330
C
100
AcDbDictionary
  3
STANDARD
350
17
  0
DICTIONARY
  5
18
102
{ACAD_REACTORS
330
C
102
}
330
C
100
AcDbDictionary
  0
ACDBDICTIONARYWDFLT
  5
E
102
{ACAD_REACTORS
330
C
102
}
330
C
100
AcDbDictionary
281
     1
  3
Normal
350
F
100
AcDbDictionaryWithDefault
340
F
  0
DICTIONARY
  5
24A3
102
{ACAD_REACTORS
330
C
102
}
330
C
100
AcDbDictionary
  3
CEPSNTYPE
350
24AD
  3
DIMSTYLEDATA
350
24B1
  3
FINGERPRINTGUID
350
24AE
  3
HYPERLINKBASE
350
24A6
  3
INSUNITS
350
24AC
  3
LAYOUTDICT
350
24A8
  3
LWETCUNION
350
24AB
  3
PLOTSETDICT
350
24A9
  3
PLOTSTYLNAMDICT
350
24AA
  3
PSVPSCALE
350
24B0
  3
PUCSBASE
350
24B4
  3
PUCSORGBACK
350
24BA
  3
PUCSORGBOTTOM
350
24B6
  3
PUCSORGFRONT
350
24B9
  3
PUCSORGLEFT
350
24B7
  3
PUCSORGRIGHT
350
24B8
  3
PUCSORGTOP
350
24B5
  3
PUCSORTHOREF
350
24B2
  3
PUCSORTHOVIEW
350
24B3
  3
STYLESHEET
350
24A7
  3
TSTACKALIGN
350
24A4
  3
TSTACKSIZE
350
24A5
  3
UCSBASE
350
24BD
  3
UCSORGBACK
350
24C3
  3
UCSORGBOTTOM
350
24BF
  3
UCSORGFRONT
350
24C2
  3
UCSORGLEFT
350
24C0
  3
UCSORGRIGHT
350
24C1
  3
UCSORGTOP
350
24BE
  3
UCSORTHOREF
350
24BB
  3
UCSORTHOVIEW
350
24BC
  3
VERSIONGUID
350
24AF
  0
DICTIONARY
  5
5EE
102
{ACAD_REACTORS
330
C
102
}
330
C
100
AcDbDictionary
  3
DIMASSOC
350
5F0
  3
HIDETEXT
350
5EF
  0
XRECORD
  5
24C5
102
{ACAD_REACTORS
330
5B9
102
}
330
5B9
100
AcDbXrecord
340
1E
  0
XRECORD
  5
24C4
102
{ACAD_REACTORS
330
5BB
102
}
330
5BB
100
AcDbXrecord
340
1A
  0
DIMASSOC
  5
2139
102
{ACAD_REACTORS
330
212F
102
}
330
212F
100
AcDbDimAssoc
330
2122
 90
        3
 70
     0
 71
     0
  1
AcDbOsnapPointRef
 72
     6
331
1CDC
 73
     2
 91
        0
 40
0.9999999999999985
 10
300.4999999999997
 20
116.4999999999998
 30
0.0
332
1CE7
 74
     2
 92
        0
 75
     0
  1
AcDbOsnapPointRef
 72
    13
331
211B
 73
     2
 91
        0
 40
0.0
 10
284.4999999999998
 20
137.5
 30
0.0
 75
     0
  0
DIMASSOC
  5
2151
102
{ACAD_REACTORS
330
2147
102
}
330
2147
100
AcDbDimAssoc
330
213A
 90
        3
 70
     0
 71
     0
  1
AcDbOsnapPointRef
 72
    13
331
211A
 73
     2
 91
        0
 40
0.0
 10
150.4999999999999
 20
137.5
 30
0.0
 75
     0
  1
AcDbOsnapPointRef
 72
    13
331
211B
 73
     2
 91
        0
 40
0.0
 10
284.4999999999998
 20
137.5
 30
0.0
 75
     0
  0
DIMASSOC
  5
2172
102
{ACAD_REACTORS
330
2168
102
}
330
2168
100
AcDbDimAssoc
330
215B
 90
        3
 70
     0
 71
     0
  1
AcDbOsnapPointRef
 72
     6
331
223
 73
     2
 91
        0
 40
1.0
 10
115.1999999999999
 20
56.0
 30
0.0
332
1DE
 74
     2
 92
        0
 75
     0
  1
AcDbOsnapPointRef
 72
     6
331
1CDC
 73
     2
 91
        0
 40
0.0
 10
300.4999999999997
 20
75.99999999999994
 30
0.0
332
1CFD
 74
     2
 92
        0
 75
     0
  0
DIMASSOC
  5
218A
102
{ACAD_REACTORS
330
2180
102
}
330
2180
100
AcDbDimAssoc
330
2173
 90
        3
 70
     0
 71
     0
  1
AcDbOsnapPointRef
 72
    13
331
4B4
 73
     2
 91
        0
 40
0.0
 10
34.15434265698968
 20
137.5
 30
0.0
 75
     0
  1
AcDbOsnapPointRef
 72
    13
331
4B7
 73
     2
 91
        0
 40
0.0
 10
59.15434265698968
 20
137.5
 30
0.0
 75
     0
  0
DIMASSOC
  5
21A4
102
{ACAD_REACTORS
330
2199
102
}
330
2199
100
AcDbDimAssoc
330
218B
 90
        3
 70
     0
 71
     0
  1
AcDbOsnapPointRef
 72
     6
331
344
 73
     2
 91
        0
 40
1.0
 10
225.0000294627874
 20
134.5
 30
0.0
332
212
 74
     2
 92
        0
 75
     0
  1
AcDbOsnapPointRef
 72
     6
331
345
 73
     2
 91
        0
 40
1.0
 10
230.0000294627873
 20
134.5
 30
0.0
332
212
 74
     2
 92
        0
 75
     0
  0
DIMASSOC
  5
21D0
102
{ACAD_REACTORS
330
21C6
102
}
330
21C6
100
AcDbDimAssoc
330
21B9
 90
        3
 70
     0
 71
     0
  1
AcDbOsnapPointRef
 72
    13
331
344
 73
     2
 91
        0
 40
0.0
 10
225.0000294627874
 20
117.5
 30
0.0
 75
     0
  1
AcDbOsnapPointRef
 72
     1
331
344
 73
     2
 91
        0
 40
1.0
 10
225.0000294627874
 20
134.5
 30
0.0
 75
     0
  0
DIMASSOC
  5
21E8
102
{ACAD_REACTORS
330
21DE
102
}
330
21DE
100
AcDbDimAssoc
330
21D1
 90
        3
 70
     0
 71
     0
  1
AcDbOsnapPointRef
 72
     6
331
50C
 73
     2
 91
        0
 40
1.0
 10
23.0
 20
82.0
 30
0.0
332
50F
 74
     2
 92
        0
 75
     0
  1
AcDbOsnapPointRef
 72
     6
331
1F16
 73
     2
 91
        0
 40
0.0
 10
72.0
 20
97.5
 30
0.0
332
4BE
 74
     2
 92
        0
 75
     0
  0
DIMASSOC
  5
2200
102
{ACAD_REACTORS
330
21F6
102
}
330
21F6
100
AcDbDimAssoc
330
21E9
 90
        3
 70
     0
 71
     0
  1
AcDbOsnapPointRef
 72
     6
331
223
 73
     2
 91
        0
 40
1.0
 10
115.1999999999999
 20
56.0
 30
0.0
332
1DE
 74
     2
 92
        0
 75
     0
  1
AcDbOsnapPointRef
 72
     1
331
1CCA
 73
     2
 91
        0
 40
1.0
 10
136.4999999999997
 20
117.5
 30
0.0
 75
     0
  0
MLINESTYLE
  5
17
102
{ACAD_REACTORS
330
16
102
}
330
16
100
AcDbMlineStyle
  2
STANDARD
 70
     0
  3

 62
   256
 51
90.0
 52
90.0
 71
     2
 49
0.5
 62
   256
  6
BYLAYER
 49
-0.5
 62
   256
  6
BYLAYER
  0
ACDBPLACEHOLDER
  5
F
102
{ACAD_REACTORS
330
E
102
}
330
E
100
AcDbPlaceHolder
280
     0
  0
XRECORD
  5
24AD
102
{ACAD_REACTORS
330
24A3
102
}
330
24A3
100
AcDbXrecord
 90
        0
  0
XRECORD
  5
24B1
102
{ACAD_REACTORS
330
24A3
102
}
330
24A3
100
AcDbXrecord
1000
DSTYLE
1002
{
1070
   279
 70
     2
1002
}
  0
XRECORD
  5
24AE
102
{ACAD_REACTORS
330
24A3
102
}
330
24A3
100
AcDbXrecord
  1
{EF94F2F1-B8D1-11D6-AAF0-00A0B0098DBC}
  0
XRECORD
  5
24A6
102
{ACAD_REACTORS
330
24A3
102
}
330
24A3
100
AcDbXrecord
  1

  0
XRECORD
  5
24AC
102
{ACAD_REACTORS
330
24A3
102
}
330
24A3
100
AcDbXrecord
 90
        0
  0
XRECORD
  5
24A8
102
{ACAD_REACTORS
330
24A3
102
}
330
24A3
100
AcDbXrecord
340
19
  0
XRECORD
  5
24AB
102
{ACAD_REACTORS
330
24A3
102
}
330
24A3
100
AcDbXrecord
 90
    10781
  0
XRECORD
  5
24A9
102
{ACAD_REACTORS
330
24A3
102
}
330
24A3
100
AcDbXrecord
340
18
  0
XRECORD
  5
24AA
102
{ACAD_REACTORS
330
24A3
102
}
330
24A3
100
AcDbXrecord
340
E
  0
XRECORD
  5
24B0
102
{ACAD_REACTORS
330
24A3
102
}
330
24A3
100
AcDbXrecord
 40
0.0
  0
XRECORD
  5
24B4
102
{ACAD_REACTORS
330
24A3
102
}
330
24A3
100
AcDbXrecord
340
0
  0
XRECORD
  5
24BA
102
{ACAD_REACTORS
330
24A3
102
}
330
24A3
100
AcDbXrecord
 10
0.0
 20
0.0
 30
0.0
  0
XRECORD
  5
24B6
102
{ACAD_REACTORS
330
24A3
102
}
330
24A3
100
AcDbXrecord
 10
0.0
 20
0.0
 30
0.0
  0
XRECORD
  5
24B9
102
{ACAD_REACTORS
330
24A3
102
}
330
24A3
100
AcDbXrecord
 10
0.0
 20
0.0
 30
0.0
  0
XRECORD
  5
24B7
102
{ACAD_REACTORS
330
24A3
102
}
330
24A3
100
AcDbXrecord
 10
0.0
 20
0.0
 30
0.0
  0
XRECORD
  5
24B8
102
{ACAD_REACTORS
330
24A3
102
}
330
24A3
100
AcDbXrecord
 10
0.0
 20
0.0
 30
0.0
  0
XRECORD
  5
24B5
102
{ACAD_REACTORS
330
24A3
102
}
330
24A3
100
AcDbXrecord
 10
0.0
 20
0.0
 30
0.0
  0
XRECORD
  5
24B2
102
{ACAD_REACTORS
330
24A3
102
}
330
24A3
100
AcDbXrecord
340
0
  0
XRECORD
  5
24B3
102
{ACAD_REACTORS
330
24A3
102
}
330
24A3
100
AcDbXrecord
 70
     0
  0
XRECORD
  5
24A7
102
{ACAD_REACTORS
330
24A3
102
}
330
24A3
100
AcDbXrecord
  1
acad.ctb
  0
XRECORD
  5
24A4
102
{ACAD_REACTORS
330
24A3
102
}
330
24A3
100
AcDbXrecord
 90
        1
  0
XRECORD
  5
24A5
102
{ACAD_REACTORS
330
24A3
102
}
330
24A3
100
AcDbXrecord
 90
       70
  0
XRECORD
  5
24BD
102
{ACAD_REACTORS
330
24A3
102
}
330
24A3
100
AcDbXrecord
340
0
  0
XRECORD
  5
24C3
102
{ACAD_REACTORS
330
24A3
102
}
330
24A3
100
AcDbXrecord
 10
0.0
 20
0.0
 30
0.0
  0
XRECORD
  5
24BF
102
{ACAD_REACTORS
330
24A3
102
}
330
24A3
100
AcDbXrecord
 10
0.0
 20
0.0
 30
0.0
  0
XRECORD
  5
24C2
102
{ACAD_REACTORS
330
24A3
102
}
330
24A3
100
AcDbXrecord
 10
0.0
 20
0.0
 30
0.0
  0
XRECORD
  5
24C0
102
{ACAD_REACTORS
330
24A3
102
}
330
24A3
100
AcDbXrecord
 10
0.0
 20
0.0
 30
0.0
  0
XRECORD
  5
24C1
102
{ACAD_REACTORS
330
24A3
102
}
330
24A3
100
AcDbXrecord
 10
0.0
 20
0.0
 30
0.0
  0
XRECORD
  5
24BE
102
{ACAD_REACTORS
330
24A3
102
}
330
24A3
100
AcDbXrecord
 10
0.0
 20
0.0
 30
0.0
  0
XRECORD
  5
24BB
102
{ACAD_REACTORS
330
24A3
102
}
330
24A3
100
AcDbXrecord
340
0
  0
XRECORD
  5
24BC
102
{ACAD_REACTORS
330
24A3
102
}
330
24A3
100
AcDbXrecord
 70
     0
  0
XRECORD
  5
24AF
102
{ACAD_REACTORS
330
24A3
102
}
330
24A3
100
AcDbXrecord
  1
{A67E0392-BD93-448C-A81C-B8C4B81F2482}
  0
DICTIONARYVAR
  5
5F0
102
{ACAD_REACTORS
330
5EE
102
}
330
5EE
100
DictionaryVariables
280
     0
  1
2
  0
DICTIONARYVAR
  5
5EF
102
{ACAD_REACTORS
330
5EE
102
}
330
5EE
100
DictionaryVariables
280
     0
  1
1
  0
ENDSEC
  0
EOF
