  0
SECTION
  2
HEADER
  9
$ACADVER
  1
AC1014
  9
$ACADMAINTVER
 70
     9
  9
$DWGCODEPAGE
  3
ANSI_949
  9
$INSBASE
 10
0.0
 20
0.0
 30
0.0
  9
$EXTMIN
 10
-123.6424921844645
 20
-39.74440841440173
 30
-0.0000000349181948
  9
$EXTMAX
 10
62.75162239995734
 20
85.10834095895734
 30
0.0000000814935746
  9
$LIMMIN
 10
0.0
 20
0.0
  9
$LIMMAX
 10
100.0
 20
50.0
  9
$ORTHOMODE
 70
     0
  9
$REGENMODE
 70
     1
  9
$FILLMODE
 70
     1
  9
$QTEXTMODE
 70
     0
  9
$MIRRTEXT
 70
     1
  9
$DRAGMODE
 70
     2
  9
$LTSCALE
 40
3.0
  9
$OSMODE
 70
   567
  9
$ATTMODE
 70
     1
  9
$TEXTSIZE
 40
4.0
  9
$TRACEWID
 40
0.05
  9
$TEXTSTYLE
  7
GHS
  9
$CLAYER
  8
3
  9
$CELTYPE
  6
BYLAYER
  9
$CECOLOR
 62
   256
  9
$CELTSCALE
 40
1.0
  9
$DELOBJ
 70
     1
  9
$DISPSILH
 70
     0
  9
$DIMSCALE
 40
1.0
  9
$DIMASZ
 40
3.0
  9
$DIMEXO
 40
1.0
  9
$DIMDLI
 40
0.38
  9
$DIMRND
 40
0.0
  9
$DIMDLE
 40
0.0
  9
$DIMEXE
 40
1.0
  9
$DIMTP
 40
0.0
  9
$DIMTM
 40
0.0
  9
$DIMTXT
 40
4.0
  9
$DIMCEN
 40
0.09
  9
$DIMTSZ
 40
0.0
  9
$DIMTOL
 70
     0
  9
$DIMLIM
 70
     0
  9
$DIMTIH
 70
     0
  9
$DIMTOH
 70
     0
  9
$DIMSE1
 70
     0
  9
$DIMSE2
 70
     0
  9
$DIMTAD
 70
     1
  9
$DIMZIN
 70
     8
  9
$DIMBLK
  1

  9
$DIMASO
 70
     1
  9
$DIMSHO
 70
     1
  9
$DIMPOST
  1

  9
$DIMAPOST
  1

  9
$DIMALT
 70
     0
  9
$DIMALTD
 70
     2
  9
$DIMALTF
 40
25.4
  9
$DIMLFAC
 40
1.0
  9
$DIMTOFL
 70
     1
  9
$DIMTVP
 40
0.0
  9
$DIMTIX
 70
     1
  9
$DIMSOXD
 70
     0
  9
$DIMSAH
 70
     1
  9
$DIMBLK1
  1

  9
$DIMBLK2
  1

  9
$DIMSTYLE
  2
STANDARD
  9
$DIMCLRD
 70
     0
  9
$DIMCLRE
 70
     0
  9
$DIMCLRT
 70
     0
  9
$DIMTFAC
 40
1.0
  9
$DIMGAP
 40
1.0
  9
$DIMJUST
 70
     0
  9
$DIMSD1
 70
     0
  9
$DIMSD2
 70
     0
  9
$DIMTOLJ
 70
     1
  9
$DIMTZIN
 70
     0
  9
$DIMALTZ
 70
     0
  9
$DIMALTTZ
 70
     0
  9
$DIMFIT
 70
     5
  9
$DIMUPT
 70
     0
  9
$DIMUNIT
 70
     2
  9
$DIMDEC
 70
     1
  9
$DIMTDEC
 70
     1
  9
$DIMALTU
 70
     2
  9
$DIMALTTD
 70
     2
  9
$DIMTXSTY
  7
GHS
  9
$DIMAUNIT
 70
     0
  9
$LUNITS
 70
     2
  9
$LUPREC
 70
     1
  9
$SKETCHINC
 40
0.1
  9
$FILLETRAD
 40
0.0
  9
$AUNITS
 70
     0
  9
$AUPREC
 70
     0
  9
$MENU
  1
acad
  9
$ELEVATION
 40
0.0
  9
$PELEVATION
 40
0.0
  9
$THICKNESS
 40
0.0
  9
$LIMCHECK
 70
     0
  9
$BLIPMODE
 70
     1
  9
$CHAMFERA
 40
2.0
  9
$CHAMFERB
 40
2.0
  9
$CHAMFERC
 40
0.0
  9
$CHAMFERD
 40
0.0
  9
$SKPOLY
 70
     0
  9
$TDCREATE
 40
2449855.465333912
  9
$TDUPDATE
 40
2453377.529999988
  9
$TDINDWG
 40
0.0429692361
  9
$TDUSRTIMER
 40
0.0429692361
  9
$USRTIMER
 70
     1
  9
$ANGBASE
 50
0.0
  9
$ANGDIR
 70
     0
  9
$PDMODE
 70
     0
  9
$PDSIZE
 40
0.0
  9
$PLINEWID
 40
0.0
  9
$COORDS
 70
     2
  9
$SPLFRAME
 70
     0
  9
$SPLINETYPE
 70
     6
  9
$SPLINESEGS
 70
     8
  9
$ATTDIA
 70
     0
  9
$ATTREQ
 70
     1
  9
$HANDLING
 70
 22529
  9
$HANDSEED
  5
EE4
  9
$SURFTAB1
 70
     6
  9
$SURFTAB2
 70
     6
  9
$SURFTYPE
 70
     6
  9
$SURFU
 70
     6
  9
$SURFV
 70
     6
  9
$UCSNAME
  2

  9
$UCSORG
 10
0.0
 20
0.0
 30
0.0
  9
$UCSXDIR
 10
1.0
 20
0.0
 30
0.0
  9
$UCSYDIR
 10
0.0
 20
1.0
 30
0.0
  9
$PUCSNAME
  2

  9
$PUCSORG
 10
0.0
 20
0.0
 30
0.0
  9
$PUCSXDIR
 10
1.0
 20
0.0
 30
0.0
  9
$PUCSYDIR
 10
0.0
 20
1.0
 30
0.0
  9
$USERI1
 70
     0
  9
$USERI2
 70
     0
  9
$USERI3
 70
     0
  9
$USERI4
 70
     0
  9
$USERI5
 70
     0
  9
$USERR1
 40
0.0
  9
$USERR2
 40
0.0
  9
$USERR3
 40
0.0
  9
$USERR4
 40
0.0
  9
$USERR5
 40
0.0
  9
$WORLDVIEW
 70
     1
  9
$SHADEDGE
 70
     3
  9
$SHADEDIF
 70
    70
  9
$TILEMODE
 70
     1
  9
$MAXACTVP
 70
    16
  9
$PINSBASE
 10
2220.404641079055
 20
50.00000000000001
 30
2810.473195709564
  9
$PLIMCHECK
 70
     0
  9
$PEXTMIN
 10
1.000000000000000E+20
 20
1.000000000000000E+20
 30
1.000000000000000E+20
  9
$PEXTMAX
 10
-1.000000000000000E+20
 20
-1.000000000000000E+20
 30
-1.000000000000000E+20
  9
$PLIMMIN
 10
0.0
 20
0.0
  9
$PLIMMAX
 10
12.0
 20
9.0
  9
$UNITMODE
 70
     0
  9
$VISRETAIN
 70
     0
  9
$PLINEGEN
 70
     0
  9
$PSLTSCALE
 70
     1
  9
$TREEDEPTH
 70
  3020
  9
$PICKSTYLE
 70
     0
  9
$CMLSTYLE
  2
STANDARD
  9
$CMLJUST
 70
     0
  9
$CMLSCALE
 40
1.0
  9
$PROXYGRAPHICS
 70
     1
  9
$MEASUREMENT
 70
     0
  0
ENDSEC
  0
SECTION
  2
CLASSES
  0
CLASS
  1
ACDBDICTIONARYWDFLT
  2
AcDbDictionaryWithDefault
  3
AutoCAD 2000
 90
        0
280
     0
281
     0
  0
CLASS
  1
ACDBPLACEHOLDER
  2
AcDbPlaceHolder
  3
AutoCAD 2000
 90
        0
280
     0
281
     0
  0
CLASS
  1
LAYOUT
  2
AcDbLayout
  3
AutoCAD 2000
 90
        0
280
     0
281
     0
  0
CLASS
  1
DICTIONARYVAR
  2
AcDbDictionaryVar
  3
AutoCAD 2000
 90
        0
280
     0
281
     0
  0
CLASS
  1
LONG_TRANSACTION
  2
AcDbLongTransaction
  3
AutoCAD 2000
 90
        0
280
     0
281
     0
  0
CLASS
  1
LWPOLYLINE
  2
AcDbPolyline
  3
AutoCAD 2000
 90
        0
280
     0
281
     1
  0
CLASS
  1
HATCH
  2
AcDbHatch
  3
AutoCAD 2000
 90
        0
280
     0
281
     1
  0
CLASS
  1
XRECORD
  2
AcDbXrecord
  3
AutoCAD 2000
 90
        0
280
     0
281
     0
  0
CLASS
  1
LONG_TRANSACTION
  2
AcDbLongTransaction
  3
AutoCAD 2000
 90
        0
280
     0
281
     0
  0
CLASS
  1
LWPOLYLINE
  2
AcDbPolyline
  3
AutoCAD 2000
 90
        0
280
     0
281
     1
  0
CLASS
  1
HATCH
  2
AcDbHatch
  3
AutoCAD 2000
 90
        0
280
     0
281
     1
  0
CLASS
  1
XRECORD
  2
AcDbXrecord
  3
AutoCAD 2000
 90
        0
280
     0
281
     0
  0
CLASS
  1
LONG_TRANSACTION
  2
AcDbLongTransaction
  3
AutoCAD 2000
 90
        0
280
     0
281
     0
  0
CLASS
  1
LWPOLYLINE
  2
AcDbPolyline
  3
AutoCAD 2000
 90
        0
280
     0
281
     1
  0
CLASS
  1
HATCH
  2
AcDbHatch
  3
AutoCAD 2000
 90
        0
280
     0
281
     1
  0
CLASS
  1
XRECORD
  2
AcDbXrecord
  3
AutoCAD 2000
 90
        0
280
     0
281
     0
  0
CLASS
  1
LONG_TRANSACTION
  2
AcDbLongTransaction
  3
AutoCAD 2000
 90
        0
280
     0
281
     0
  0
CLASS
  1
LWPOLYLINE
  2
AcDbPolyline
  3
AutoCAD 2000
 90
        0
280
     0
281
     1
  0
CLASS
  1
HATCH
  2
AcDbHatch
  3
AutoCAD 2000
 90
        0
280
     0
281
     1
  0
CLASS
  1
XRECORD
  2
AcDbXrecord
  3
AutoCAD 2000
 90
        0
280
     0
281
     0
  0
CLASS
  1
LONG_TRANSACTION
  2
AcDbLongTransaction
  3
AutoCAD 2000
 90
        0
280
     0
281
     0
  0
CLASS
  1
LWPOLYLINE
  2
AcDbPolyline
  3
AutoCAD 2000
 90
        0
280
     0
281
     1
  0
CLASS
  1
HATCH
  2
AcDbHatch
  3
AutoCAD 2000
 90
        0
280
     0
281
     1
  0
CLASS
  1
XRECORD
  2
AcDbXrecord
  3
AutoCAD 2000
 90
        0
280
     0
281
     0
  0
CLASS
  1
LONG_TRANSACTION
  2
AcDbLongTransaction
  3
AutoCAD 2000
 90
        0
280
     0
281
     0
  0
CLASS
  1
LWPOLYLINE
  2
AcDbPolyline
  3
AutoCAD 2000
 90
        0
280
     0
281
     1
  0
CLASS
  1
HATCH
  2
AcDbHatch
  3
AutoCAD 2000
 90
        0
280
     0
281
     1
  0
CLASS
  1
XRECORD
  2
AcDbXrecord
  3
AutoCAD 2000
 90
        0
280
     0
281
     0
  0
ENDSEC
  0
SECTION
  2
TABLES
  0
TABLE
  2
VPORT
  5
8
330
0
100
AcDbSymbolTable
 70
     2
  0
VPORT
  5
E1F
330
8
100
AcDbSymbolTableRecord
100
AcDbViewportTableRecord
  2
*ACTIVE
 70
     0
 10
0.0
 20
0.0
 11
1.0
 21
1.0
 12
-30.44543489225361
 22
22.6819662722778
 13
0.0
 23
0.0
 14
1.0
 24
1.0
 15
0.0
 25
0.0
 16
0.0
 26
0.0
 36
1.0
 17
0.0
 27
0.0
 37
0.0
 40
125.7997993053946
 41
1.549367088607595
 42
50.0
 43
0.0
 44
0.0
 50
0.0
 51
0.0
 71
     0
 72
 10000
 73
     1
 74
     0
 75
     1
 76
     0
 77
     0
 78
     0
  0
ENDTAB
  0
TABLE
  2
LTYPE
  5
5
330
0
100
AcDbSymbolTable
 70
     2
  0
LTYPE
  5
13
330
5
100
AcDbSymbolTableRecord
100
AcDbLinetypeTableRecord
  2
BYBLOCK
 70
     0
  3

 72
    65
 73
     0
 40
0.0
  0
LTYPE
  5
14
330
5
100
AcDbSymbolTableRecord
100
AcDbLinetypeTableRecord
  2
BYLAYER
 70
     0
  3

 72
    65
 73
     0
 40
0.0
  0
LTYPE
  5
15
330
5
100
AcDbSymbolTableRecord
100
AcDbLinetypeTableRecord
  2
CONTINUOUS
 70
     0
  3
Solid line
 72
    65
 73
     0
 40
0.0
  0
LTYPE
  5
45
330
5
100
AcDbSymbolTableRecord
100
AcDbLinetypeTableRecord
  2
CENTER
 70
     0
  3
____ _ ____ _ ____ _ ____ _ ____ _ ____ _ ____ 
 72
    65
 73
     4
 40
2.0
 49
1.25
 74
     0
 49
-0.25
 74
     0
 49
0.25
 74
     0
 49
-0.25
 74
     0
  0
ENDTAB
  0
TABLE
  2
LAYER
  5
2
330
0
100
AcDbSymbolTable
 70
     7
  0
LAYER
  5
10
330
2
100
AcDbSymbolTableRecord
100
AcDbLayerTableRecord
  2
0
 70
     0
 62
     7
  6
CONTINUOUS
  0
LAYER
  5
49
330
2
100
AcDbSymbolTableRecord
100
AcDbLayerTableRecord
  2
1
 70
     0
 62
     2
  6
CONTINUOUS
  0
LAYER
  5
4A
330
2
100
AcDbSymbolTableRecord
100
AcDbLayerTableRecord
  2
3
 70
     0
 62
     3
  6
CONTINUOUS
  0
LAYER
  5
4B
330
2
100
AcDbSymbolTableRecord
100
AcDbLayerTableRecord
  2
CL
 70
     0
 62
     6
  6
CENTER
  0
LAYER
  5
4C
330
2
100
AcDbSymbolTableRecord
100
AcDbLayerTableRecord
  2
DEFPOINTS
 70
     0
 62
     7
  6
CONTINUOUS
  0
LAYER
  5
56A
330
2
100
AcDbSymbolTableRecord
100
AcDbLayerTableRecord
  2
TXT
 70
     0
 62
     3
  6
CONTINUOUS
  0
LAYER
  5
56B
330
2
100
AcDbSymbolTableRecord
100
AcDbLayerTableRecord
  2
8
 70
     0
 62
     8
  6
CONTINUOUS
  0
ENDTAB
  0
TABLE
  2
STYLE
  5
3
330
0
100
AcDbSymbolTable
 70
     2
  0
STYLE
  5
11
330
3
100
AcDbSymbolTableRecord
100
AcDbTextStyleTableRecord
  2
STANDARD
 70
     0
 40
0.0
 41
0.8
 50
0.0
 71
     0
 42
4.0
  3
TXT.shx
  4

  0
STYLE
  5
39
330
3
100
AcDbSymbolTableRecord
100
AcDbTextStyleTableRecord
  2
GHS
 70
     0
 40
0.0
 41
0.6
 50
0.0
 71
     0
 42
4.0
  3
ROMANS
  4
GHS
  0
ENDTAB
  0
TABLE
  2
VIEW
  5
6
330
0
100
AcDbSymbolTable
 70
     0
  0
ENDTAB
  0
TABLE
  2
UCS
  5
7
330
0
100
AcDbSymbolTable
 70
     0
  0
ENDTAB
  0
TABLE
  2
APPID
  5
9
330
0
100
AcDbSymbolTable
 70
     1
  0
APPID
  5
12
330
9
100
AcDbSymbolTableRecord
100
AcDbRegAppTableRecord
  2
ACAD
 70
     0
  0
ENDTAB
  0
TABLE
  2
DIMSTYLE
  5
A
330
0
100
AcDbSymbolTable
 70
     1
  0
DIMSTYLE
105
423
102
{ACAD_REACTORS
330
3F8
330
417
330
407
330
3F7
330
408
330
3A9
330
3A8
330
360
330
355
330
3F1
330
3F0
330
35F
330
362
330
363
330
361
330
3C8
330
3C4
102
}
330
A
100
AcDbSymbolTableRecord
100
AcDbDimStyleTableRecord
  2
STANDARD
 70
     0
  3

  4

  5

  6

  7

 40
1.0
 41
0.18
 42
0.0625
 43
0.38
 44
0.18
 45
0.0
 46
0.0
 47
0.0
 48
0.0
140
0.18
141
0.09
142
0.0
143
25.4
144
1.0
145
0.0
146
1.0
147
0.09
 71
     0
 72
     0
 73
     1
 74
     1
 75
     0
 76
     0
 77
     0
 78
     0
170
     0
171
     2
172
     0
173
     0
174
     0
175
     0
176
     0
177
     0
178
     0
270
     2
271
     4
272
     4
273
     2
274
     2
340
11
275
     0
280
     0
281
     0
282
     0
283
     1
284
     0
285
     0
286
     0
287
     3
288
     0
  0
ENDTAB
  0
TABLE
  2
BLOCK_RECORD
  5
1
330
0
100
AcDbSymbolTable
 70
    18
  0
BLOCK_RECORD
  5
1E
102
{ACAD_XDICTIONARY
360
42E
102
}
330
1
100
AcDbSymbolTableRecord
100
AcDbBlockTableRecord
  2
*MODEL_SPACE
  0
BLOCK_RECORD
  5
1A
102
{ACAD_XDICTIONARY
360
430
102
}
330
1
100
AcDbSymbolTableRecord
100
AcDbBlockTableRecord
  2
*PAPER_SPACE
  0
BLOCK_RECORD
  5
4E2
330
1
100
AcDbSymbolTableRecord
100
AcDbBlockTableRecord
  2
110X85
  0
BLOCK_RECORD
  5
4EE
330
1
100
AcDbSymbolTableRecord
100
AcDbBlockTableRecord
  2
*D1
  0
BLOCK_RECORD
  5
4FA
330
1
100
AcDbSymbolTableRecord
100
AcDbBlockTableRecord
  2
*D2
  0
BLOCK_RECORD
  5
506
330
1
100
AcDbSymbolTableRecord
100
AcDbBlockTableRecord
  2
*D3
  0
BLOCK_RECORD
  5
512
330
1
100
AcDbSymbolTableRecord
100
AcDbBlockTableRecord
  2
*D4
  0
BLOCK_RECORD
  5
51E
330
1
100
AcDbSymbolTableRecord
100
AcDbBlockTableRecord
  2
*D5
  0
BLOCK_RECORD
  5
52A
330
1
100
AcDbSymbolTableRecord
100
AcDbBlockTableRecord
  2
*D6
  0
BLOCK_RECORD
  5
538
330
1
100
AcDbSymbolTableRecord
100
AcDbBlockTableRecord
  2
*D7
  0
BLOCK_RECORD
  5
546
330
1
100
AcDbSymbolTableRecord
100
AcDbBlockTableRecord
  2
*D8
  0
BLOCK_RECORD
  5
67E
330
1
100
AcDbSymbolTableRecord
100
AcDbBlockTableRecord
  2
*D9
  0
BLOCK_RECORD
  5
68A
330
1
100
AcDbSymbolTableRecord
100
AcDbBlockTableRecord
  2
*D10
  0
BLOCK_RECORD
  5
696
330
1
100
AcDbSymbolTableRecord
100
AcDbBlockTableRecord
  2
*D11
  0
BLOCK_RECORD
  5
6B4
330
1
100
AcDbSymbolTableRecord
100
AcDbBlockTableRecord
  2
*D12
  0
BLOCK_RECORD
  5
6C2
330
1
100
AcDbSymbolTableRecord
100
AcDbBlockTableRecord
  2
*D13
  0
BLOCK_RECORD
  5
6CE
330
1
100
AcDbSymbolTableRecord
100
AcDbBlockTableRecord
  2
*D14
  0
BLOCK_RECORD
  5
6DA
330
1
100
AcDbSymbolTableRecord
100
AcDbBlockTableRecord
  2
*D15
  0
BLOCK_RECORD
  5
6E6
330
1
100
AcDbSymbolTableRecord
100
AcDbBlockTableRecord
  2
*D16
  0
BLOCK_RECORD
  5
6F4
330
1
100
AcDbSymbolTableRecord
100
AcDbBlockTableRecord
  2
*D17
  0
ENDTAB
  0
ENDSEC
  0
SECTION
  2
BLOCKS
  0
BLOCK
  5
51
330
1E
100
AcDbEntity
  8
0
100
AcDbBlockBegin
  2
*MODEL_SPACE
 70
     0
 10
0.0
 20
0.0
 30
0.0
  3
*MODEL_SPACE
  1

  0
ENDBLK
  5
52
330
1E
100
AcDbEntity
  8
0
100
AcDbBlockEnd
  0
BLOCK
  5
4F
330
1A
100
AcDbEntity
 67
     1
  8
0
100
AcDbBlockBegin
  2
*PAPER_SPACE
 70
     0
 10
0.0
 20
0.0
 30
0.0
  3
*PAPER_SPACE
  1

  0
ENDBLK
  5
50
330
1A
100
AcDbEntity
 67
     1
  8
0
100
AcDbBlockEnd
  0
BLOCK
  5
4EB
330
4E2
100
AcDbEntity
  8
0
100
AcDbBlockBegin
  2
110X85
 70
     0
 10
0.0
 20
0.0
 30
0.0
  3
110X85
  1

  0
LINE
  5
4E3
330
4E2
100
AcDbEntity
  8
3
100
AcDbLine
 10
0.0
 20
0.0
 30
0.0
 11
110.0
 21
0.0
 31
0.0
  0
LINE
  5
4E4
330
4E2
100
AcDbEntity
  8
3
100
AcDbLine
 10
0.0
 20
85.0
 30
0.0
 11
0.0
 21
0.0
 31
0.0
  0
LINE
  5
4E5
330
4E2
100
AcDbEntity
  8
3
100
AcDbLine
 10
110.0
 20
85.0
 30
0.0
 11
110.0
 21
0.0
 31
0.0
  0
LINE
  5
4E6
330
4E2
100
AcDbEntity
  8
3
100
AcDbLine
 10
0.0
 20
85.0
 30
0.0
 11
110.0
 21
85.0
 31
0.0
  0
LINE
  5
4E7
330
4E2
100
AcDbEntity
  8
3
100
AcDbLine
 10
112.0
 20
-5.0
 30
0.0
 11
118.0
 21
-5.0
 31
0.0
  0
LINE
  5
4E8
330
4E2
100
AcDbEntity
  8
3
100
AcDbLine
 10
115.0
 20
-8.0
 30
0.0
 11
115.0
 21
-2.0
 31
0.0
  0
LINE
  5
4E9
330
4E2
100
AcDbEntity
  8
3
100
AcDbLine
 10
-8.0
 20
90.0
 30
0.0
 11
-2.0
 21
90.0
 31
0.0
  0
LINE
  5
4EA
330
4E2
100
AcDbEntity
  8
3
100
AcDbLine
 10
-5.0
 20
87.0
 30
0.0
 11
-5.0
 21
93.0
 31
0.0
  0
ENDBLK
  5
4EC
330
4E2
100
AcDbEntity
  8
0
100
AcDbBlockEnd
  0
BLOCK
  5
4F8
330
4EE
100
AcDbEntity
  8
0
100
AcDbBlockBegin
  2
*D1
 70
     1
 10
0.0
 20
0.0
 30
0.0
  3
*D1
  1

  0
LINE
  5
E84
330
4EE
100
AcDbEntity
  8
3
 62
     0
100
AcDbLine
 10
35.60000000000002
 20
-26.99999999999988
 30
0.0
 11
35.60000000000002
 21
-39.02534691659673
 31
0.0
  0
LINE
  5
E85
330
4EE
100
AcDbEntity
  8
3
 62
     0
100
AcDbLine
 10
6.600000000000022
 20
-19.99999999999988
 30
0.0
 11
6.600000000000021
 21
-39.02534691659673
 31
0.0
  0
LINE
  5
E86
330
4EE
100
AcDbEntity
  8
3
 62
     0
100
AcDbLine
 10
32.60000000000002
 20
-38.02534691659673
 30
0.0
 11
9.600000000000022
 21
-38.02534691659673
 31
0.0
  0
SOLID
  5
E87
330
4EE
100
AcDbEntity
  8
3
 62
     0
100
AcDbTrace
 10
32.60000000000002
 20
-37.52534691659673
 30
0.0
 11
32.60000000000002
 21
-38.52534691659673
 31
0.0
 12
35.60000000000002
 22
-38.02534691659673
 32
0.0
 13
35.60000000000002
 23
-38.02534691659673
 33
0.0
  0
SOLID
  5
E88
330
4EE
100
AcDbEntity
  8
3
 62
     0
100
AcDbTrace
 10
9.600000000000022
 20
-37.52534691659673
 30
0.0
 11
9.600000000000022
 21
-38.52534691659673
 31
0.0
 12
6.600000000000021
 22
-38.02534691659673
 32
0.0
 13
6.600000000000021
 23
-38.02534691659673
 33
0.0
  0
MTEXT
  5
E89
330
4EE
100
AcDbEntity
  8
3
 62
     0
100
AcDbMText
 10
21.10000000000002
 20
-33.97772786897768
 30
0.0
 40
4.0
 41
0.0
 71
     5
 72
     1
  1
\A1;29(48)
  7
GHS
  0
POINT
  5
E8A
330
4EE
100
AcDbEntity
  8
DEFPOINTS
 62
     0
100
AcDbPoint
 10
35.60000000000002
 20
-25.99999999999988
 30
0.0
  0
POINT
  5
E8B
330
4EE
100
AcDbEntity
  8
DEFPOINTS
 62
     0
100
AcDbPoint
 10
6.600000000000022
 20
-18.99999999999988
 30
0.0
  0
POINT
  5
E8C
330
4EE
100
AcDbEntity
  8
DEFPOINTS
 62
     0
100
AcDbPoint
 10
6.600000000000021
 20
-38.02534691659673
 30
0.0
  0
ENDBLK
  5
4F9
330
4EE
100
AcDbEntity
  8
0
100
AcDbBlockEnd
  0
BLOCK
  5
504
330
4FA
100
AcDbEntity
  8
0
100
AcDbBlockBegin
  2
*D2
 70
     1
 10
0.0
 20
0.0
 30
0.0
  3
*D2
  1

  0
LINE
  5
E7B
330
4FA
100
AcDbEntity
  8
3
 62
     0
100
AcDbLine
 10
6.600000000000022
 20
-19.99999999999988
 30
0.0
 11
6.600000000000021
 21
-39.02534691659673
 31
0.0
  0
LINE
  5
E7C
330
4FA
100
AcDbEntity
  8
3
 62
     0
100
AcDbLine
 10
-1.400000000000005
 20
-4.999999999999829
 30
0.0
 11
-1.400000000000007
 21
-39.02534691659673
 31
0.0
  0
LINE
  5
E7D
330
4FA
100
AcDbEntity
  8
3
 62
     0
100
AcDbLine
 10
3.600000000000021
 20
-38.02534691659673
 30
0.0
 11
1.599999999999992
 21
-38.02534691659673
 31
0.0
  0
SOLID
  5
E7E
330
4FA
100
AcDbEntity
  8
3
 62
     0
100
AcDbTrace
 10
3.600000000000021
 20
-37.52534691659673
 30
0.0
 11
3.600000000000021
 21
-38.52534691659673
 31
0.0
 12
6.600000000000021
 22
-38.02534691659673
 32
0.0
 13
6.600000000000021
 23
-38.02534691659673
 33
0.0
  0
SOLID
  5
E7F
330
4FA
100
AcDbEntity
  8
3
 62
     0
100
AcDbTrace
 10
1.599999999999992
 20
-37.52534691659673
 30
0.0
 11
1.599999999999992
 21
-38.52534691659673
 31
0.0
 12
-1.400000000000007
 22
-38.02534691659673
 32
0.0
 13
-1.400000000000007
 23
-38.02534691659673
 33
0.0
  0
MTEXT
  5
E80
330
4FA
100
AcDbEntity
  8
3
 62
     0
100
AcDbMText
 10
2.600000000000007
 20
-35.02534691659673
 30
0.0
 40
4.0
 41
0.0
 71
     5
 72
     1
  1
\A1;8
  7
GHS
  0
POINT
  5
E81
330
4FA
100
AcDbEntity
  8
DEFPOINTS
 62
     0
100
AcDbPoint
 10
6.600000000000022
 20
-18.99999999999988
 30
0.0
  0
POINT
  5
E82
330
4FA
100
AcDbEntity
  8
DEFPOINTS
 62
     0
100
AcDbPoint
 10
-1.400000000000005
 20
-3.999999999999829
 30
0.0
  0
POINT
  5
E83
330
4FA
100
AcDbEntity
  8
DEFPOINTS
 62
     0
100
AcDbPoint
 10
-1.400000000000007
 20
-38.02534691659673
 30
0.0
  0
ENDBLK
  5
505
330
4FA
100
AcDbEntity
  8
0
100
AcDbBlockEnd
  0
BLOCK
  5
510
330
506
100
AcDbEntity
  8
0
100
AcDbBlockBegin
  2
*D3
 70
     1
 10
0.0
 20
0.0
 30
0.0
  3
*D3
  1

  0
LINE
  5
EB3
330
506
100
AcDbEntity
  8
3
 62
     0
100
AcDbLine
 10
35.10000000000002
 20
63.00000000000011
 30
0.0
 11
35.10000000000002
 21
80.97465308340327
 31
0.0
  0
LINE
  5
EB4
330
506
100
AcDbEntity
  8
3
 62
     0
100
AcDbLine
 10
9.600000000000022
 20
51.4999999999992
 30
0.0
 11
9.600000000000024
 21
80.97465308340327
 31
0.0
  0
LINE
  5
EB5
330
506
100
AcDbEntity
  8
3
 62
     0
100
AcDbLine
 10
32.10000000000002
 20
79.97465308340327
 30
0.0
 11
12.60000000000002
 21
79.97465308340327
 31
0.0
  0
SOLID
  5
EB6
330
506
100
AcDbEntity
  8
3
 62
     0
100
AcDbTrace
 10
32.10000000000002
 20
80.47465308340326
 30
0.0
 11
32.10000000000002
 21
79.47465308340326
 31
0.0
 12
35.10000000000002
 22
79.97465308340327
 32
0.0
 13
35.10000000000002
 23
79.97465308340327
 33
0.0
  0
SOLID
  5
EB7
330
506
100
AcDbEntity
  8
3
 62
     0
100
AcDbTrace
 10
12.60000000000002
 20
80.47465308340326
 30
0.0
 11
12.60000000000002
 21
79.47465308340326
 31
0.0
 12
9.600000000000024
 22
79.97465308340327
 32
0.0
 13
9.600000000000024
 23
79.97465308340327
 33
0.0
  0
MTEXT
  5
EB8
330
506
100
AcDbEntity
  8
3
 62
     0
100
AcDbMText
 10
22.35000000000002
 20
82.97465308340326
 30
0.0
 40
4.0
 41
0.0
 71
     5
 72
     1
  1
\A1;26
  7
GHS
  0
POINT
  5
EB9
330
506
100
AcDbEntity
  8
DEFPOINTS
 62
     0
100
AcDbPoint
 10
35.10000000000002
 20
62.00000000000011
 30
0.0
  0
POINT
  5
EBA
330
506
100
AcDbEntity
  8
DEFPOINTS
 62
     0
100
AcDbPoint
 10
9.600000000000022
 20
50.4999999999992
 30
0.0
  0
POINT
  5
EBB
330
506
100
AcDbEntity
  8
DEFPOINTS
 62
     0
100
AcDbPoint
 10
9.600000000000024
 20
79.97465308340327
 30
0.0
  0
ENDBLK
  5
511
330
506
100
AcDbEntity
  8
0
100
AcDbBlockEnd
  0
BLOCK
  5
51C
330
512
100
AcDbEntity
  8
0
100
AcDbBlockBegin
  2
*D4
 70
     1
 10
0.0
 20
0.0
 30
0.0
  3
*D4
  1

  0
LINE
  5
E55
330
512
100
AcDbEntity
  8
3
 62
     0
100
AcDbLine
 10
5.600000000000022
 20
15.00000000000011
 30
0.0
 11
-18.35207399322131
 21
15.00000000000012
 31
0.0
  0
LINE
  5
E56
330
512
100
AcDbEntity
  8
3
 62
     0
100
AcDbLine
 10
5.600000000000022
 20
-18.99999999999988
 30
0.0
 11
-18.35207399322132
 21
-18.99999999999988
 31
0.0
  0
LINE
  5
E57
330
512
100
AcDbEntity
  8
3
 62
     0
100
AcDbLine
 10
-17.35207399322131
 20
12.00000000000012
 30
0.0
 11
-17.35207399322132
 21
-15.99999999999988
 31
0.0
  0
SOLID
  5
E58
330
512
100
AcDbEntity
  8
3
 62
     0
100
AcDbTrace
 10
-17.85207399322131
 20
12.00000000000012
 30
0.0
 11
-16.85207399322131
 21
12.00000000000012
 31
0.0
 12
-17.35207399322131
 22
15.00000000000012
 32
0.0
 13
-17.35207399322131
 23
15.00000000000012
 33
0.0
  0
SOLID
  5
E59
330
512
100
AcDbEntity
  8
3
 62
     0
100
AcDbTrace
 10
-17.85207399322132
 20
-15.99999999999988
 30
0.0
 11
-16.85207399322132
 21
-15.99999999999988
 31
0.0
 12
-17.35207399322132
 22
-18.99999999999988
 32
0.0
 13
-17.35207399322132
 23
-18.99999999999988
 33
0.0
  0
MTEXT
  5
E5A
330
512
100
AcDbEntity
  8
3
 62
     0
100
AcDbMText
 10
-20.35207399322132
 20
-1.999999999999882
 30
0.0
 40
4.0
 41
0.0
 71
     5
 72
     1
  1
\A1;%%C34
  7
GHS
 11
0.0000000000000001
 21
1.0
 31
0.0
  0
POINT
  5
E5B
330
512
100
AcDbEntity
  8
DEFPOINTS
 62
     0
100
AcDbPoint
 10
6.600000000000022
 20
15.00000000000011
 30
0.0
  0
POINT
  5
E5C
330
512
100
AcDbEntity
  8
DEFPOINTS
 62
     0
100
AcDbPoint
 10
6.600000000000022
 20
-18.99999999999988
 30
0.0
  0
POINT
  5
E5D
330
512
100
AcDbEntity
  8
DEFPOINTS
 62
     0
100
AcDbPoint
 10
-17.35207399322132
 20
-18.99999999999988
 30
0.0
  0
ENDBLK
  5
51D
330
512
100
AcDbEntity
  8
0
100
AcDbBlockEnd
  0
BLOCK
  5
528
330
51E
100
AcDbEntity
  8
0
100
AcDbBlockBegin
  2
*D5
 70
     1
 10
0.0
 20
0.0
 30
0.0
  3
*D5
  1

  0
LINE
  5
ED0
330
51E
100
AcDbEntity
  8
3
 62
     0
100
AcDbLine
 10
9.100000000000022
 20
42.99999999999875
 30
0.0
 11
-2.620779385823313
 21
42.99999999999875
 31
0.0
  0
LINE
  5
ED1
330
51E
100
AcDbEntity
  8
3
 62
     0
100
AcDbLine
 10
9.100000000000022
 20
50.9999999999992
 30
0.0
 11
-2.620779385823311
 21
50.9999999999992
 31
0.0
  0
LINE
  5
ED2
330
51E
100
AcDbEntity
  8
3
 62
     0
100
AcDbLine
 10
-1.620779385823312
 20
45.99999999999875
 30
0.0
 11
-1.620779385823312
 21
47.9999999999992
 31
0.0
  0
SOLID
  5
ED3
330
51E
100
AcDbEntity
  8
3
 62
     0
100
AcDbTrace
 10
-2.120779385823313
 20
45.99999999999875
 30
0.0
 11
-1.120779385823312
 21
45.99999999999875
 31
0.0
 12
-1.620779385823313
 22
42.99999999999875
 32
0.0
 13
-1.620779385823313
 23
42.99999999999875
 33
0.0
  0
SOLID
  5
ED4
330
51E
100
AcDbEntity
  8
3
 62
     0
100
AcDbTrace
 10
-2.120779385823312
 20
47.9999999999992
 30
0.0
 11
-1.120779385823312
 21
47.9999999999992
 31
0.0
 12
-1.620779385823311
 22
50.9999999999992
 32
0.0
 13
-1.620779385823311
 23
50.9999999999992
 33
0.0
  0
MTEXT
  5
ED5
330
51E
100
AcDbEntity
  8
3
 62
     0
100
AcDbMText
 10
-4.62077938582332
 20
46.99999999999898
 30
0.0
 40
4.0
 41
0.0
 71
     5
 72
     1
  1
\A1;%%C8
  7
GHS
 11
0.0000000000000001
 21
1.0
 31
0.0
  0
POINT
  5
ED6
330
51E
100
AcDbEntity
  8
DEFPOINTS
 62
     0
100
AcDbPoint
 10
10.10000000000002
 20
42.99999999999875
 30
0.0
  0
POINT
  5
ED7
330
51E
100
AcDbEntity
  8
DEFPOINTS
 62
     0
100
AcDbPoint
 10
10.10000000000002
 20
50.9999999999992
 30
0.0
  0
POINT
  5
ED8
330
51E
100
AcDbEntity
  8
DEFPOINTS
 62
     0
100
AcDbPoint
 10
-1.620779385823311
 20
50.9999999999992
 30
0.0
  0
ENDBLK
  5
529
330
51E
100
AcDbEntity
  8
0
100
AcDbBlockEnd
  0
BLOCK
  5
536
330
52A
100
AcDbEntity
  8
0
100
AcDbBlockBegin
  2
*D6
 70
     1
 10
0.0
 20
0.0
 30
0.0
  3
*D6
  1

  0
LINE
  5
EC5
330
52A
100
AcDbEntity
  8
3
 62
     0
100
AcDbLine
 10
9.600000000000022
 20
52.4999999999992
 30
0.0
 11
9.600000000000024
 21
73.26032900069606
 31
0.0
  0
LINE
  5
EC6
330
52A
100
AcDbEntity
  8
3
 62
     0
100
AcDbLine
 10
15.60000000000002
 20
65.19688821662533
 30
0.0
 11
15.60000000000002
 21
73.26032900069606
 31
0.0
  0
LINE
  5
EC7
330
52A
100
AcDbEntity
  8
3
 62
     0
100
AcDbLine
 10
6.600000000000024
 20
72.26032900069606
 30
0.0
 11
3.600000000000024
 21
72.26032900069606
 31
0.0
  0
LINE
  5
EC8
330
52A
100
AcDbEntity
  8
3
 62
     0
100
AcDbLine
 10
18.60000000000002
 20
72.26032900069606
 30
0.0
 11
21.60000000000002
 21
72.26032900069606
 31
0.0
  0
MTEXT
  5
EC9
330
52A
100
AcDbEntity
  8
3
 62
     0
100
AcDbMText
 10
12.60000000000002
 20
75.00000000000011
 30
0.0
 40
4.0
 41
0.0
 71
     5
 72
     1
  1
\A1;6
  7
GHS
  0
LINE
  5
ECA
330
52A
100
AcDbEntity
  8
3
 62
     0
100
AcDbLine
 10
9.600000000000024
 20
72.26032900069606
 30
0.0
 11
15.60000000000002
 21
72.26032900069606
 31
0.0
  0
SOLID
  5
ECB
330
52A
100
AcDbEntity
  8
3
 62
     0
100
AcDbTrace
 10
6.600000000000024
 20
72.76032900069606
 30
0.0
 11
6.600000000000024
 21
71.76032900069606
 31
0.0
 12
9.600000000000024
 22
72.26032900069606
 32
0.0
 13
9.600000000000024
 23
72.26032900069606
 33
0.0
  0
SOLID
  5
ECC
330
52A
100
AcDbEntity
  8
3
 62
     0
100
AcDbTrace
 10
18.60000000000002
 20
72.76032900069606
 30
0.0
 11
18.60000000000002
 21
71.76032900069606
 31
0.0
 12
15.60000000000002
 22
72.26032900069606
 32
0.0
 13
15.60000000000002
 23
72.26032900069606
 33
0.0
  0
POINT
  5
ECD
330
52A
100
AcDbEntity
  8
DEFPOINTS
 62
     0
100
AcDbPoint
 10
9.600000000000022
 20
51.4999999999992
 30
0.0
  0
POINT
  5
ECE
330
52A
100
AcDbEntity
  8
DEFPOINTS
 62
     0
100
AcDbPoint
 10
15.60000000000002
 20
64.19688821662532
 30
0.0
  0
POINT
  5
ECF
330
52A
100
AcDbEntity
  8
DEFPOINTS
 62
     0
100
AcDbPoint
 10
15.60000000000002
 20
72.26032900069606
 30
0.0
  0
ENDBLK
  5
537
330
52A
100
AcDbEntity
  8
0
100
AcDbBlockEnd
  0
BLOCK
  5
544
330
538
100
AcDbEntity
  8
0
100
AcDbBlockBegin
  2
*D7
 70
     1
 10
0.0
 20
0.0
 30
0.0
  3
*D7
  1

  0
LINE
  5
ED9
330
538
100
AcDbEntity
  8
3
 62
     0
100
AcDbLine
 10
35.09999999999911
 20
63.00000000000011
 30
0.0
 11
35.09999999999911
 21
73.48180080739723
 31
0.0
  0
LINE
  5
EDA
330
538
100
AcDbEntity
  8
3
 62
     0
100
AcDbLine
 10
35.60000000000002
 20
64.99999999999966
 30
0.0
 11
35.60000000000002
 21
73.48180080739723
 31
0.0
  0
LINE
  5
EDB
330
538
100
AcDbEntity
  8
3
 62
     0
100
AcDbLine
 10
32.09999999999911
 20
72.48180080739723
 30
0.0
 11
29.09999999999911
 21
72.48180080739723
 31
0.0
  0
LINE
  5
EDC
330
538
100
AcDbEntity
  8
3
 62
     0
100
AcDbLine
 10
38.60000000000002
 20
72.48180080739723
 30
0.0
 11
41.60000000000002
 21
72.48180080739723
 31
0.0
  0
MTEXT
  5
EDD
330
538
100
AcDbEntity
  8
3
 62
     0
100
AcDbMText
 10
40.60000000000002
 20
75.00000000000011
 30
0.0
 40
4.0
 41
0.0
 71
     5
 72
     1
  1
\A1;0.5
  7
GHS
  0
LINE
  5
EDE
330
538
100
AcDbEntity
  8
3
 62
     0
100
AcDbLine
 10
35.09999999999911
 20
72.48180080739723
 30
0.0
 11
35.60000000000002
 21
72.48180080739723
 31
0.0
  0
SOLID
  5
EDF
330
538
100
AcDbEntity
  8
3
 62
     0
100
AcDbTrace
 10
32.09999999999911
 20
72.98180080739723
 30
0.0
 11
32.09999999999911
 21
71.98180080739724
 31
0.0
 12
35.09999999999911
 22
72.48180080739723
 32
0.0
 13
35.09999999999911
 23
72.48180080739723
 33
0.0
  0
SOLID
  5
EE0
330
538
100
AcDbEntity
  8
3
 62
     0
100
AcDbTrace
 10
38.60000000000002
 20
72.98180080739723
 30
0.0
 11
38.60000000000002
 21
71.98180080739724
 31
0.0
 12
35.60000000000002
 22
72.48180080739723
 32
0.0
 13
35.60000000000002
 23
72.48180080739723
 33
0.0
  0
POINT
  5
EE1
330
538
100
AcDbEntity
  8
DEFPOINTS
 62
     0
100
AcDbPoint
 10
35.09999999999911
 20
62.00000000000011
 30
0.0
  0
POINT
  5
EE2
330
538
100
AcDbEntity
  8
DEFPOINTS
 62
     0
100
AcDbPoint
 10
35.60000000000002
 20
63.99999999999966
 30
0.0
  0
POINT
  5
EE3
330
538
100
AcDbEntity
  8
DEFPOINTS
 62
     0
100
AcDbPoint
 10
35.60000000000002
 20
72.48180080739723
 30
0.0
  0
ENDBLK
  5
545
330
538
100
AcDbEntity
  8
0
100
AcDbBlockEnd
  0
BLOCK
  5
550
330
546
100
AcDbEntity
  8
0
100
AcDbBlockBegin
  2
*D8
 70
     1
 10
0.0
 20
0.0
 30
0.0
  3
*D8
  1

  0
LINE
  5
EBC
330
546
100
AcDbEntity
  8
3
 62
     0
100
AcDbLine
 10
35.10000000000002
 20
63.00000000000011
 30
0.0
 11
35.10000000000002
 21
80.97465308340327
 31
0.0
  0
LINE
  5
EBD
330
546
100
AcDbEntity
  8
3
 62
     0
100
AcDbLine
 10
55.60000000000002
 20
64.99999999999966
 30
0.0
 11
55.60000000000002
 21
80.97465308340327
 31
0.0
  0
LINE
  5
EBE
330
546
100
AcDbEntity
  8
3
 62
     0
100
AcDbLine
 10
38.10000000000002
 20
79.97465308340327
 30
0.0
 11
52.60000000000002
 21
79.97465308340327
 31
0.0
  0
SOLID
  5
EBF
330
546
100
AcDbEntity
  8
3
 62
     0
100
AcDbTrace
 10
38.10000000000002
 20
80.47465308340326
 30
0.0
 11
38.10000000000002
 21
79.47465308340326
 31
0.0
 12
35.10000000000002
 22
79.97465308340327
 32
0.0
 13
35.10000000000002
 23
79.97465308340327
 33
0.0
  0
SOLID
  5
EC0
330
546
100
AcDbEntity
  8
3
 62
     0
100
AcDbTrace
 10
52.60000000000002
 20
80.47465308340326
 30
0.0
 11
52.60000000000002
 21
79.47465308340326
 31
0.0
 12
55.60000000000002
 22
79.97465308340327
 32
0.0
 13
55.60000000000002
 23
79.97465308340327
 33
0.0
  0
MTEXT
  5
EC1
330
546
100
AcDbEntity
  8
3
 62
     0
100
AcDbMText
 10
45.35000000000002
 20
82.97465308340326
 30
0.0
 40
4.0
 41
0.0
 71
     5
 72
     1
  1
\A1;20
  7
GHS
  0
POINT
  5
EC2
330
546
100
AcDbEntity
  8
DEFPOINTS
 62
     0
100
AcDbPoint
 10
35.10000000000002
 20
62.00000000000011
 30
0.0
  0
POINT
  5
EC3
330
546
100
AcDbEntity
  8
DEFPOINTS
 62
     0
100
AcDbPoint
 10
55.60000000000002
 20
63.99999999999966
 30
0.0
  0
POINT
  5
EC4
330
546
100
AcDbEntity
  8
DEFPOINTS
 62
     0
100
AcDbPoint
 10
55.60000000000002
 20
79.97465308340327
 30
0.0
  0
ENDBLK
  5
551
330
546
100
AcDbEntity
  8
0
100
AcDbBlockEnd
  0
BLOCK
  5
688
330
67E
100
AcDbEntity
  8
0
100
AcDbBlockBegin
  2
*D9
 70
     1
 10
0.0
 20
0.0
 30
0.0
  3
*D9
  1

  0
LINE
  5
E96
330
67E
100
AcDbEntity
  8
3
 62
     0
100
AcDbLine
 10
-117.3999999999999
 20
65.02534691659696
 30
0.0
 11
-117.3999999999999
 21
72.95747675122095
 31
0.0
  0
LINE
  5
E97
330
67E
100
AcDbEntity
  8
3
 62
     0
100
AcDbLine
 10
-87.39999999999998
 20
65.02534691659696
 30
0.0
 11
-87.39999999999998
 21
72.95747675122095
 31
0.0
  0
LINE
  5
E98
330
67E
100
AcDbEntity
  8
3
 62
     0
100
AcDbLine
 10
-114.3999999999999
 20
71.95747675122095
 30
0.0
 11
-90.39999999999997
 21
71.95747675122095
 31
0.0
  0
SOLID
  5
E99
330
67E
100
AcDbEntity
  8
3
 62
     0
100
AcDbTrace
 10
-114.3999999999999
 20
72.45747675122095
 30
0.0
 11
-114.3999999999999
 21
71.45747675122095
 31
0.0
 12
-117.3999999999999
 22
71.95747675122095
 32
0.0
 13
-117.3999999999999
 23
71.95747675122095
 33
0.0
  0
SOLID
  5
E9A
330
67E
100
AcDbEntity
  8
3
 62
     0
100
AcDbTrace
 10
-90.39999999999997
 20
72.45747675122095
 30
0.0
 11
-90.39999999999997
 21
71.45747675122095
 31
0.0
 12
-87.39999999999998
 22
71.95747675122095
 32
0.0
 13
-87.39999999999998
 23
71.95747675122095
 33
0.0
  0
MTEXT
  5
E9B
330
67E
100
AcDbEntity
  8
3
 62
     0
100
AcDbMText
 10
-102.3999999999999
 20
74.95747675122095
 30
0.0
 40
4.0
 41
0.0
 71
     5
 72
     1
  1
\A1;30
  7
GHS
  0
POINT
  5
E9C
330
67E
100
AcDbEntity
  8
DEFPOINTS
 62
     0
100
AcDbPoint
 10
-117.3999999999999
 20
64.02534691659695
 30
0.0
  0
POINT
  5
E9D
330
67E
100
AcDbEntity
  8
DEFPOINTS
 62
     0
100
AcDbPoint
 10
-87.39999999999998
 20
64.02534691659695
 30
0.0
  0
POINT
  5
E9E
330
67E
100
AcDbEntity
  8
DEFPOINTS
 62
     0
100
AcDbPoint
 10
-87.39999999999998
 20
71.95747675122095
 30
0.0
  0
ENDBLK
  5
689
330
67E
100
AcDbEntity
  8
0
100
AcDbBlockEnd
  0
BLOCK
  5
694
330
68A
100
AcDbEntity
  8
0
100
AcDbBlockBegin
  2
*D10
 70
     1
 10
0.0
 20
0.0
 30
0.0
  3
*D10
  1

  0
LINE
  5
E8D
330
68A
100
AcDbEntity
  8
3
 62
     0
100
AcDbLine
 10
-122.3999999999999
 20
60.02534691659696
 30
0.0
 11
-122.3999999999999
 21
81.0010544045382
 31
0.0
  0
LINE
  5
E8E
330
68A
100
AcDbEntity
  8
3
 62
     0
100
AcDbLine
 10
-82.39999999999998
 20
60.02534691659696
 30
0.0
 11
-82.39999999999998
 21
81.0010544045382
 31
0.0
  0
LINE
  5
E8F
330
68A
100
AcDbEntity
  8
3
 62
     0
100
AcDbLine
 10
-119.3999999999999
 20
80.0010544045382
 30
0.0
 11
-85.39999999999997
 21
80.0010544045382
 31
0.0
  0
SOLID
  5
E90
330
68A
100
AcDbEntity
  8
3
 62
     0
100
AcDbTrace
 10
-119.3999999999999
 20
80.50105440453819
 30
0.0
 11
-119.3999999999999
 21
79.50105440453819
 31
0.0
 12
-122.3999999999999
 22
80.0010544045382
 32
0.0
 13
-122.3999999999999
 23
80.0010544045382
 33
0.0
  0
SOLID
  5
E91
330
68A
100
AcDbEntity
  8
3
 62
     0
100
AcDbTrace
 10
-85.39999999999997
 20
80.50105440453819
 30
0.0
 11
-85.39999999999997
 21
79.50105440453819
 31
0.0
 12
-82.39999999999998
 22
80.0010544045382
 32
0.0
 13
-82.39999999999998
 23
80.0010544045382
 33
0.0
  0
MTEXT
  5
E92
330
68A
100
AcDbEntity
  8
3
 62
     0
100
AcDbMText
 10
-102.3999999999999
 20
83.00105440453819
 30
0.0
 40
4.0
 41
0.0
 71
     5
 72
     1
  1
\A1;40
  7
GHS
  0
POINT
  5
E93
330
68A
100
AcDbEntity
  8
DEFPOINTS
 62
     0
100
AcDbPoint
 10
-122.3999999999999
 20
59.02534691659695
 30
0.0
  0
POINT
  5
E94
330
68A
100
AcDbEntity
  8
DEFPOINTS
 62
     0
100
AcDbPoint
 10
-82.39999999999998
 20
59.02534691659695
 30
0.0
  0
POINT
  5
E95
330
68A
100
AcDbEntity
  8
DEFPOINTS
 62
     0
100
AcDbPoint
 10
-82.39999999999998
 20
80.0010544045382
 30
0.0
  0
ENDBLK
  5
695
330
68A
100
AcDbEntity
  8
0
100
AcDbBlockEnd
  0
BLOCK
  5
6A0
330
696
100
AcDbEntity
  8
0
100
AcDbBlockBegin
  2
*D11
 70
     1
 10
0.0
 20
0.0
 30
0.0
  3
*D11
  1

  0
LINE
  5
E72
330
696
100
AcDbEntity
  8
3
 62
     0
100
AcDbLine
 10
-119.399999999999
 20
-26.97465308340258
 30
0.0
 11
-119.399999999999
 21
-39.66864973396275
 31
0.0
  0
LINE
  5
E73
330
696
100
AcDbEntity
  8
3
 62
     0
100
AcDbLine
 10
-85.39999999999997
 20
-26.97465308340258
 30
0.0
 11
-85.39999999999997
 21
-39.66864973396275
 31
0.0
  0
LINE
  5
E74
330
696
100
AcDbEntity
  8
3
 62
     0
100
AcDbLine
 10
-116.399999999999
 20
-38.66864973396275
 30
0.0
 11
-88.39999999999998
 21
-38.66864973396275
 31
0.0
  0
SOLID
  5
E75
330
696
100
AcDbEntity
  8
3
 62
     0
100
AcDbTrace
 10
-116.399999999999
 20
-38.16864973396275
 30
0.0
 11
-116.399999999999
 21
-39.16864973396275
 31
0.0
 12
-119.399999999999
 22
-38.66864973396275
 32
0.0
 13
-119.399999999999
 23
-38.66864973396275
 33
0.0
  0
SOLID
  5
E76
330
696
100
AcDbEntity
  8
3
 62
     0
100
AcDbTrace
 10
-88.39999999999998
 20
-38.16864973396275
 30
0.0
 11
-88.39999999999998
 21
-39.16864973396275
 31
0.0
 12
-85.39999999999997
 22
-38.66864973396275
 32
0.0
 13
-85.39999999999997
 23
-38.66864973396275
 33
0.0
  0
MTEXT
  5
E77
330
696
100
AcDbEntity
  8
3
 62
     0
100
AcDbMText
 10
-102.3999999999995
 20
-35.66864973396275
 30
0.0
 40
4.0
 41
0.0
 71
     5
 72
     1
  1
\A1;34
  7
GHS
  0
POINT
  5
E78
330
696
100
AcDbEntity
  8
DEFPOINTS
 62
     0
100
AcDbPoint
 10
-119.399999999999
 20
-25.97465308340258
 30
0.0
  0
POINT
  5
E79
330
696
100
AcDbEntity
  8
DEFPOINTS
 62
     0
100
AcDbPoint
 10
-85.39999999999997
 20
-25.97465308340258
 30
0.0
  0
POINT
  5
E7A
330
696
100
AcDbEntity
  8
DEFPOINTS
 62
     0
100
AcDbPoint
 10
-85.39999999999997
 20
-38.66864973396275
 30
0.0
  0
ENDBLK
  5
6A1
330
696
100
AcDbEntity
  8
0
100
AcDbBlockEnd
  0
BLOCK
  5
6C0
330
6B4
100
AcDbEntity
  8
0
100
AcDbBlockBegin
  2
*D12
 70
     1
 10
0.0
 20
0.0
 30
0.0
  3
*D12
  1

  0
LINE
  5
E5E
330
6B4
100
AcDbEntity
  8
3
 62
     0
100
AcDbLine
 10
-81.95366959795808
 20
-22.97465308340304
 30
0.0
 11
-58.39999999999998
 21
-22.97465308340304
 31
0.0
  0
LINE
  5
E5F
330
6B4
100
AcDbEntity
  8
3
 62
     0
100
AcDbLine
 10
-84.39999999999997
 20
-25.97465308340258
 30
0.0
 11
-58.39999999999998
 21
-25.97465308340259
 31
0.0
  0
LINE
  5
E60
330
6B4
100
AcDbEntity
  8
3
 62
     0
100
AcDbLine
 10
-59.39999999999997
 20
-19.97465308340304
 30
0.0
 11
-59.39999999999997
 21
-16.97465308340304
 31
0.0
  0
LINE
  5
E61
330
6B4
100
AcDbEntity
  8
3
 62
     0
100
AcDbLine
 10
-59.39999999999997
 20
-28.97465308340258
 30
0.0
 11
-59.39999999999997
 21
-31.97465308340259
 31
0.0
  0
LINE
  5
E62
330
6B4
100
AcDbEntity
  8
3
 62
     0
100
AcDbLine
 10
-59.39999999999997
 20
-22.97465308340304
 30
0.0
 11
-59.39999999999997
 21
-25.97465308340259
 31
0.0
  0
SOLID
  5
E63
330
6B4
100
AcDbEntity
  8
3
 62
     0
100
AcDbTrace
 10
-59.89999999999998
 20
-19.97465308340304
 30
0.0
 11
-58.89999999999997
 21
-19.97465308340304
 31
0.0
 12
-59.39999999999997
 22
-22.97465308340304
 32
0.0
 13
-59.39999999999997
 23
-22.97465308340304
 33
0.0
  0
SOLID
  5
E64
330
6B4
100
AcDbEntity
  8
3
 62
     0
100
AcDbTrace
 10
-59.89999999999998
 20
-28.97465308340258
 30
0.0
 11
-58.89999999999997
 21
-28.97465308340258
 31
0.0
 12
-59.39999999999997
 22
-25.97465308340259
 32
0.0
 13
-59.39999999999997
 23
-25.97465308340259
 33
0.0
  0
MTEXT
  5
E65
330
6B4
100
AcDbEntity
  8
3
 62
     0
100
AcDbMText
 10
-62.39999999999997
 20
-24.47465308340282
 30
0.0
 40
4.0
 41
0.0
 71
     5
 72
     1
  1
\A1;3
  7
GHS
 11
0.0000000000000001
 21
1.0
 31
0.0
  0
POINT
  5
E66
330
6B4
100
AcDbEntity
  8
DEFPOINTS
 62
     0
100
AcDbPoint
 10
-82.95366959795808
 20
-22.97465308340304
 30
0.0
  0
POINT
  5
E67
330
6B4
100
AcDbEntity
  8
DEFPOINTS
 62
     0
100
AcDbPoint
 10
-85.39999999999997
 20
-25.97465308340258
 30
0.0
  0
POINT
  5
E68
330
6B4
100
AcDbEntity
  8
DEFPOINTS
 62
     0
100
AcDbPoint
 10
-59.39999999999997
 20
-25.97465308340259
 30
0.0
  0
ENDBLK
  5
6C1
330
6B4
100
AcDbEntity
  8
0
100
AcDbBlockEnd
  0
BLOCK
  5
6CC
330
6C2
100
AcDbEntity
  8
0
100
AcDbBlockBegin
  2
*D13
 70
     1
 10
0.0
 20
0.0
 30
0.0
  3
*D13
  1

  0
LINE
  5
E4C
330
6C2
100
AcDbEntity
  8
3
 62
     0
100
AcDbLine
 10
-84.39999999999997
 20
-25.97465308340304
 30
0.0
 11
-50.24580931102755
 21
-25.97465308340305
 31
0.0
  0
LINE
  5
E4D
330
6C2
100
AcDbEntity
  8
3
 62
     0
100
AcDbLine
 10
-85.39999999999997
 20
64.02534691659695
 30
0.0
 11
-50.24580931102753
 21
64.02534691659695
 31
0.0
  0
LINE
  5
E4E
330
6C2
100
AcDbEntity
  8
3
 62
     0
100
AcDbLine
 10
-51.24580931102755
 20
-22.97465308340305
 30
0.0
 11
-51.24580931102753
 21
61.02534691659696
 31
0.0
  0
SOLID
  5
E4F
330
6C2
100
AcDbEntity
  8
3
 62
     0
100
AcDbTrace
 10
-51.74580931102755
 20
-22.97465308340305
 30
0.0
 11
-50.74580931102754
 21
-22.97465308340305
 31
0.0
 12
-51.24580931102755
 22
-25.97465308340305
 32
0.0
 13
-51.24580931102755
 23
-25.97465308340305
 33
0.0
  0
SOLID
  5
E50
330
6C2
100
AcDbEntity
  8
3
 62
     0
100
AcDbTrace
 10
-51.74580931102752
 20
61.02534691659696
 30
0.0
 11
-50.74580931102753
 21
61.02534691659696
 31
0.0
 12
-51.24580931102753
 22
64.02534691659695
 32
0.0
 13
-51.24580931102753
 23
64.02534691659695
 33
0.0
  0
MTEXT
  5
E51
330
6C2
100
AcDbEntity
  8
3
 62
     0
100
AcDbMText
 10
-54.24580931102754
 20
19.02534691659694
 30
0.0
 40
4.0
 41
0.0
 71
     5
 72
     1
  1
\A1;90
  7
GHS
 11
0.0000000000000001
 21
1.0
 31
0.0
  0
POINT
  5
E52
330
6C2
100
AcDbEntity
  8
DEFPOINTS
 62
     0
100
AcDbPoint
 10
-85.39999999999997
 20
-25.97465308340304
 30
0.0
  0
POINT
  5
E53
330
6C2
100
AcDbEntity
  8
DEFPOINTS
 62
     0
100
AcDbPoint
 10
-86.39999999999998
 20
64.02534691659695
 30
0.0
  0
POINT
  5
E54
330
6C2
100
AcDbEntity
  8
DEFPOINTS
 62
     0
100
AcDbPoint
 10
-51.24580931102753
 20
64.02534691659695
 30
0.0
  0
ENDBLK
  5
6CD
330
6C2
100
AcDbEntity
  8
0
100
AcDbBlockEnd
  0
BLOCK
  5
6D8
330
6CE
100
AcDbEntity
  8
0
100
AcDbBlockBegin
  2
*D14
 70
     1
 10
0.0
 20
0.0
 30
0.0
  3
*D14
  1

  0
LINE
  5
E43
330
6CE
100
AcDbEntity
  8
3
 62
     0
100
AcDbLine
 10
-81.95366959795808
 20
19.02534691659695
 30
0.0
 11
-58.39999999999998
 21
19.02534691659695
 31
0.0
  0
LINE
  5
E44
330
6CE
100
AcDbEntity
  8
3
 62
     0
100
AcDbLine
 10
-94.48016160552141
 20
47.02534691659695
 30
0.0
 11
-58.39999999999998
 21
47.02534691659695
 31
0.0
  0
LINE
  5
E45
330
6CE
100
AcDbEntity
  8
3
 62
     0
100
AcDbLine
 10
-59.39999999999997
 20
22.02534691659695
 30
0.0
 11
-59.39999999999997
 21
44.02534691659695
 31
0.0
  0
SOLID
  5
E46
330
6CE
100
AcDbEntity
  8
3
 62
     0
100
AcDbTrace
 10
-59.89999999999998
 20
22.02534691659695
 30
0.0
 11
-58.89999999999997
 21
22.02534691659695
 31
0.0
 12
-59.39999999999997
 22
19.02534691659695
 32
0.0
 13
-59.39999999999997
 23
19.02534691659695
 33
0.0
  0
SOLID
  5
E47
330
6CE
100
AcDbEntity
  8
3
 62
     0
100
AcDbTrace
 10
-59.89999999999998
 20
44.02534691659695
 30
0.0
 11
-58.89999999999997
 21
44.02534691659695
 31
0.0
 12
-59.39999999999997
 22
47.02534691659695
 32
0.0
 13
-59.39999999999997
 23
47.02534691659695
 33
0.0
  0
MTEXT
  5
E48
330
6CE
100
AcDbEntity
  8
3
 62
     0
100
AcDbMText
 10
-62.39999999999998
 20
33.02534691659694
 30
0.0
 40
4.0
 41
0.0
 71
     5
 72
     1
  1
\A1;28
  7
GHS
 11
0.0000000000000001
 21
1.0
 31
0.0
  0
POINT
  5
E49
330
6CE
100
AcDbEntity
  8
DEFPOINTS
 62
     0
100
AcDbPoint
 10
-82.95366959795808
 20
19.02534691659695
 30
0.0
  0
POINT
  5
E4A
330
6CE
100
AcDbEntity
  8
DEFPOINTS
 62
     0
100
AcDbPoint
 10
-95.4801616055214
 20
47.02534691659695
 30
0.0
  0
POINT
  5
E4B
330
6CE
100
AcDbEntity
  8
DEFPOINTS
 62
     0
100
AcDbPoint
 10
-59.39999999999997
 20
47.02534691659695
 30
0.0
  0
ENDBLK
  5
6D9
330
6CE
100
AcDbEntity
  8
0
100
AcDbBlockEnd
  0
BLOCK
  5
6E4
330
6DA
100
AcDbEntity
  8
0
100
AcDbBlockBegin
  2
*D15
 70
     1
 10
0.0
 20
0.0
 30
0.0
  3
*D15
  1

  0
LINE
  5
E69
330
6DA
100
AcDbEntity
  8
3
 62
     0
100
AcDbLine
 10
-81.95366959795808
 20
-22.97465308340304
 30
0.0
 11
-58.39999999999999
 21
-22.97465308340304
 31
0.0
  0
LINE
  5
E6A
330
6DA
100
AcDbEntity
  8
3
 62
     0
100
AcDbLine
 10
-81.95366959795808
 20
19.02534691659695
 30
0.0
 11
-58.39999999999998
 21
19.02534691659695
 31
0.0
  0
LINE
  5
E6B
330
6DA
100
AcDbEntity
  8
3
 62
     0
100
AcDbLine
 10
-59.39999999999999
 20
-19.97465308340304
 30
0.0
 11
-59.39999999999997
 21
16.02534691659695
 31
0.0
  0
SOLID
  5
E6C
330
6DA
100
AcDbEntity
  8
3
 62
     0
100
AcDbTrace
 10
-59.89999999999999
 20
-19.97465308340304
 30
0.0
 11
-58.89999999999999
 21
-19.97465308340304
 31
0.0
 12
-59.39999999999999
 22
-22.97465308340304
 32
0.0
 13
-59.39999999999999
 23
-22.97465308340304
 33
0.0
  0
SOLID
  5
E6D
330
6DA
100
AcDbEntity
  8
3
 62
     0
100
AcDbTrace
 10
-59.89999999999998
 20
16.02534691659695
 30
0.0
 11
-58.89999999999997
 21
16.02534691659695
 31
0.0
 12
-59.39999999999997
 22
19.02534691659695
 32
0.0
 13
-59.39999999999997
 23
19.02534691659695
 33
0.0
  0
MTEXT
  5
E6E
330
6DA
100
AcDbEntity
  8
3
 62
     0
100
AcDbMText
 10
-62.39999999999998
 20
-1.974653083403054
 30
0.0
 40
4.0
 41
0.0
 71
     5
 72
     1
  1
\A1;42
  7
GHS
 11
0.0000000000000001
 21
1.0
 31
0.0
  0
POINT
  5
E6F
330
6DA
100
AcDbEntity
  8
DEFPOINTS
 62
     0
100
AcDbPoint
 10
-82.95366959795808
 20
-22.97465308340304
 30
0.0
  0
POINT
  5
E70
330
6DA
100
AcDbEntity
  8
DEFPOINTS
 62
     0
100
AcDbPoint
 10
-82.95366959795808
 20
19.02534691659695
 30
0.0
  0
POINT
  5
E71
330
6DA
100
AcDbEntity
  8
DEFPOINTS
 62
     0
100
AcDbPoint
 10
-59.39999999999997
 20
19.02534691659695
 30
0.0
  0
ENDBLK
  5
6E5
330
6DA
100
AcDbEntity
  8
0
100
AcDbBlockEnd
  0
BLOCK
  5
6F2
330
6E6
100
AcDbEntity
  8
0
100
AcDbBlockBegin
  2
*D16
 70
     1
 10
0.0
 20
0.0
 30
0.0
  3
*D16
  1

  0
LINE
  5
EA8
330
6E6
100
AcDbEntity
  8
3
 62
     0
100
AcDbLine
 10
-81.39999999999998
 20
59.02534691659695
 30
0.0
 11
-66.74773389141899
 21
59.02534691659695
 31
0.0
  0
LINE
  5
EA9
330
6E6
100
AcDbEntity
  8
3
 62
     0
100
AcDbLine
 10
-86.39999999999998
 20
64.02534691659695
 30
0.0
 11
-66.74773389141899
 21
64.02534691659695
 31
0.0
  0
LINE
  5
EAA
330
6E6
100
AcDbEntity
  8
3
 62
     0
100
AcDbLine
 10
-67.74773389141898
 20
56.02534691659695
 30
0.0
 11
-67.74773389141898
 21
53.02534691659695
 31
0.0
  0
LINE
  5
EAB
330
6E6
100
AcDbEntity
  8
3
 62
     0
100
AcDbLine
 10
-67.74773389141898
 20
67.02534691659696
 30
0.0
 11
-67.74773389141898
 21
70.02534691659696
 31
0.0
  0
LINE
  5
EAC
330
6E6
100
AcDbEntity
  8
3
 62
     0
100
AcDbLine
 10
-67.74773389141898
 20
59.02534691659695
 30
0.0
 11
-67.74773389141898
 21
64.02534691659695
 31
0.0
  0
SOLID
  5
EAD
330
6E6
100
AcDbEntity
  8
3
 62
     0
100
AcDbTrace
 10
-68.24773389141899
 20
56.02534691659695
 30
0.0
 11
-67.24773389141899
 21
56.02534691659695
 31
0.0
 12
-67.74773389141898
 22
59.02534691659695
 32
0.0
 13
-67.74773389141898
 23
59.02534691659695
 33
0.0
  0
SOLID
  5
EAE
330
6E6
100
AcDbEntity
  8
3
 62
     0
100
AcDbTrace
 10
-68.24773389141899
 20
67.02534691659696
 30
0.0
 11
-67.24773389141899
 21
67.02534691659696
 31
0.0
 12
-67.74773389141898
 22
64.02534691659695
 32
0.0
 13
-67.74773389141898
 23
64.02534691659695
 33
0.0
  0
MTEXT
  5
EAF
330
6E6
100
AcDbEntity
  8
3
 62
     0
100
AcDbMText
 10
-70.747733891419
 20
61.52534691659695
 30
0.0
 40
4.0
 41
0.0
 71
     5
 72
     1
  1
\A1;5
  7
GHS
 11
0.0000000000000001
 21
1.0
 31
0.0
  0
POINT
  5
EB0
330
6E6
100
AcDbEntity
  8
DEFPOINTS
 62
     0
100
AcDbPoint
 10
-82.39999999999998
 20
59.02534691659695
 30
0.0
  0
POINT
  5
EB1
330
6E6
100
AcDbEntity
  8
DEFPOINTS
 62
     0
100
AcDbPoint
 10
-87.39999999999998
 20
64.02534691659695
 30
0.0
  0
POINT
  5
EB2
330
6E6
100
AcDbEntity
  8
DEFPOINTS
 62
     0
100
AcDbPoint
 10
-67.74773389141898
 20
64.02534691659695
 30
0.0
  0
ENDBLK
  5
6F3
330
6E6
100
AcDbEntity
  8
0
100
AcDbBlockEnd
  0
BLOCK
  5
6FE
330
6F4
100
AcDbEntity
  8
0
100
AcDbBlockBegin
  2
*D17
 70
     1
 10
0.0
 20
0.0
 30
0.0
  3
*D17
  1

  0
LINE
  5
E9F
330
6F4
100
AcDbEntity
  8
3
 62
     0
100
AcDbLine
 10
-94.48016160552141
 20
47.02534691659695
 30
0.0
 11
-66.74773389141899
 21
47.02534691659695
 31
0.0
  0
LINE
  5
EA0
330
6F4
100
AcDbEntity
  8
3
 62
     0
100
AcDbLine
 10
-81.39999999999998
 20
59.02534691659695
 30
0.0
 11
-66.74773389141899
 21
59.02534691659695
 31
0.0
  0
LINE
  5
EA1
330
6F4
100
AcDbEntity
  8
3
 62
     0
100
AcDbLine
 10
-67.74773389141898
 20
50.02534691659695
 30
0.0
 11
-67.74773389141898
 21
56.02534691659695
 31
0.0
  0
SOLID
  5
EA2
330
6F4
100
AcDbEntity
  8
3
 62
     0
100
AcDbTrace
 10
-68.24773389141899
 20
50.02534691659695
 30
0.0
 11
-67.24773389141899
 21
50.02534691659695
 31
0.0
 12
-67.74773389141898
 22
47.02534691659695
 32
0.0
 13
-67.74773389141898
 23
47.02534691659695
 33
0.0
  0
SOLID
  5
EA3
330
6F4
100
AcDbEntity
  8
3
 62
     0
100
AcDbTrace
 10
-68.24773389141899
 20
56.02534691659695
 30
0.0
 11
-67.24773389141899
 21
56.02534691659695
 31
0.0
 12
-67.74773389141898
 22
59.02534691659695
 32
0.0
 13
-67.74773389141898
 23
59.02534691659695
 33
0.0
  0
MTEXT
  5
EA4
330
6F4
100
AcDbEntity
  8
3
 62
     0
100
AcDbMText
 10
-70.747733891419
 20
53.02534691659694
 30
0.0
 40
4.0
 41
0.0
 71
     5
 72
     1
  1
\A1;12
  7
GHS
 11
0.0000000000000001
 21
1.0
 31
0.0
  0
POINT
  5
EA5
330
6F4
100
AcDbEntity
  8
DEFPOINTS
 62
     0
100
AcDbPoint
 10
-95.4801616055214
 20
47.02534691659695
 30
0.0
  0
POINT
  5
EA6
330
6F4
100
AcDbEntity
  8
DEFPOINTS
 62
     0
100
AcDbPoint
 10
-82.39999999999998
 20
59.02534691659695
 30
0.0
  0
POINT
  5
EA7
330
6F4
100
AcDbEntity
  8
DEFPOINTS
 62
     0
100
AcDbPoint
 10
-67.74773389141898
 20
59.02534691659695
 30
0.0
  0
ENDBLK
  5
6FF
330
6F4
100
AcDbEntity
  8
0
100
AcDbBlockEnd
  0
ENDSEC
  0
SECTION
  2
ENTITIES
  0
LINE
  5
354
330
1E
100
AcDbEntity
  8
1
100
AcDbLine
 10
57.60000000000002
 20
17.25847681550078
 30
0.0
 11
57.60000000000002
 21
20.25847681550078
 31
0.0
  0
DIMENSION
  5
355
330
1E
100
AcDbEntity
  8
3
100
AcDbDimension
  2
*D14
 10
-59.39999999999997
 20
47.02534691659695
 30
0.0
 11
-62.39999999999998
 21
33.02534691659694
 31
0.0
 70
    32
  1
28
  3
STANDARD
100
AcDbAlignedDimension
 13
-82.95366959795808
 23
19.02534691659695
 33
0.0
 14
-95.4801616055214
 24
47.02534691659695
 34
0.0
 50
90.0
100
AcDbRotatedDimension
1001
ACAD
1000
DSTYLE
1002
{
1070
   287
1070
     5
1070
   287
1070
     5
1070
   287
1070
     5
1070
    41
1040
3.0
1070
    42
1040
1.0
1070
    44
1040
1.0
1070
    73
1070
     0
1070
    74
1070
     0
1070
    77
1070
     1
1070
    78
1070
     8
1070
   140
1040
4.0
1070
   147
1040
1.0
1070
   172
1070
     1
1070
   173
1070
     1
1070
   174
1070
     1
1070
   271
1070
     1
1070
   272
1070
     1
1070
   279
1070
     2
1070
   340
1005
39
1002
}
  0
CIRCLE
  5
356
330
1E
100
AcDbEntity
  8
1
100
AcDbCircle
 10
-85.39999999999997
 20
19.02534691659695
 30
0.0
 40
1.5
  0
CIRCLE
  5
357
330
1E
100
AcDbEntity
  8
1
100
AcDbCircle
 10
-119.3999999999999
 20
19.02534691659695
 30
0.0
 40
1.5
  0
LINE
  5
358
330
1E
100
AcDbEntity
  8
CL
100
AcDbLine
 10
-119.3999999999999
 20
22.5332620840669
 30
0.0
 11
-119.3999999999999
 21
15.38252187747696
 31
0.0
  0
LINE
  5
359
330
1E
100
AcDbEntity
  8
CL
100
AcDbLine
 10
-85.39999999999997
 20
22.5332620840669
 30
0.0
 11
-85.39999999999997
 21
15.38252187747696
 31
0.0
  0
LINE
  5
35A
330
1E
100
AcDbEntity
  8
1
100
AcDbLine
 10
-82.39999999999998
 20
59.02534691659695
 30
0.0
 11
-82.39999999999998
 21
-22.97465308340258
 31
0.0
  0
LINE
  5
35B
330
1E
100
AcDbEntity
  8
1
100
AcDbLine
 10
-122.3999999999999
 20
59.02534691659695
 30
0.0
 11
-122.399999999999
 21
-22.97465308340258
 31
0.0
  0
LINE
  5
35C
330
1E
100
AcDbEntity
  8
CL
100
AcDbLine
 10
-102.3999999999999
 20
68.12051490908891
 30
0.0
 11
-102.3999999999999
 21
19.02534691659695
 31
0.0
  0
LINE
  5
35D
330
1E
100
AcDbEntity
  8
1
100
AcDbLine
 10
35.60000000000002
 20
-25.99999999999988
 30
0.0
 11
35.60000000000002
 21
63.99999999999966
 31
0.0
  0
LINE
  5
35E
330
1E
100
AcDbEntity
  8
1
100
AcDbLine
 10
55.60000000000002
 20
-25.99999999999988
 30
0.0
 11
55.60000000000002
 21
63.99999999999966
 31
0.0
  0
DIMENSION
  5
35F
330
1E
100
AcDbEntity
  8
3
100
AcDbDimension
  2
*D13
 10
-51.24580931102753
 20
64.02534691659695
 30
0.0
 11
-54.24580931102754
 21
19.02534691659694
 31
0.0
 70
    32
  1
90
  3
STANDARD
100
AcDbAlignedDimension
 13
-85.39999999999997
 23
-25.97465308340304
 33
0.0
 14
-86.39999999999998
 24
64.02534691659695
 34
0.0
 50
90.0
100
AcDbRotatedDimension
1001
ACAD
1000
DSTYLE
1002
{
1070
   287
1070
     5
1070
   287
1070
     5
1070
   287
1070
     5
1070
    41
1040
3.0
1070
    42
1040
1.0
1070
    44
1040
1.0
1070
    73
1070
     0
1070
    74
1070
     0
1070
    77
1070
     1
1070
    78
1070
     8
1070
   140
1040
4.0
1070
   147
1040
1.0
1070
   172
1070
     1
1070
   173
1070
     1
1070
   174
1070
     1
1070
   271
1070
     1
1070
   272
1070
     1
1070
   279
1070
     2
1070
   340
1005
39
1002
}
  0
DIMENSION
  5
360
330
1E
100
AcDbEntity
  8
3
100
AcDbDimension
  2
*D4
 10
-17.35207399322132
 20
-18.99999999999988
 30
0.0
 11
-20.35207399322132
 21
-1.999999999999882
 31
0.0
 70
    32
  1
%%C34
  3
STANDARD
100
AcDbAlignedDimension
 13
6.600000000000022
 23
15.00000000000011
 33
0.0
 14
6.600000000000022
 24
-18.99999999999988
 34
0.0
 50
90.0
100
AcDbRotatedDimension
1001
ACAD
1000
DSTYLE
1002
{
1070
   287
1070
     5
1070
   287
1070
     5
1070
   287
1070
     5
1070
    41
1040
3.0
1070
    42
1040
1.0
1070
    44
1040
1.0
1070
    73
1070
     0
1070
    74
1070
     0
1070
    77
1070
     1
1070
    78
1070
     8
1070
   140
1040
4.0
1070
   147
1040
1.0
1070
   172
1070
     1
1070
   173
1070
     1
1070
   174
1070
     1
1070
   271
1070
     1
1070
   272
1070
     1
1070
   279
1070
     2
1070
   340
1005
39
1002
}
  0
DIMENSION
  5
361
330
1E
100
AcDbEntity
  8
3
100
AcDbDimension
  2
*D12
 10
-59.39999999999997
 20
-25.97465308340259
 30
0.0
 11
-62.39999999999997
 21
-24.47465308340282
 31
0.0
 70
    32
  1
3
  3
STANDARD
100
AcDbAlignedDimension
 13
-82.95366959795808
 23
-22.97465308340304
 33
0.0
 14
-85.39999999999997
 24
-25.97465308340258
 34
0.0
 50
90.0
100
AcDbRotatedDimension
1001
ACAD
1000
DSTYLE
1002
{
1070
   287
1070
     5
1070
   287
1070
     5
1070
   287
1070
     5
1070
    41
1040
3.0
1070
    42
1040
1.0
1070
    44
1040
1.0
1070
    73
1070
     0
1070
    74
1070
     0
1070
    77
1070
     1
1070
    78
1070
     8
1070
   140
1040
4.0
1070
   147
1040
1.0
1070
   172
1070
     1
1070
   173
1070
     1
1070
   174
1070
     1
1070
   271
1070
     1
1070
   272
1070
     1
1070
   279
1070
     2
1070
   340
1005
39
1002
}
  0
DIMENSION
  5
362
330
1E
100
AcDbEntity
  8
3
100
AcDbDimension
  2
*D15
 10
-59.39999999999997
 20
19.02534691659695
 30
0.0
 11
-62.39999999999998
 21
-1.974653083403054
 31
0.0
 70
    32
  1
42
  3
STANDARD
100
AcDbAlignedDimension
 13
-82.95366959795808
 23
-22.97465308340304
 33
0.0
 14
-82.95366959795808
 24
19.02534691659695
 34
0.0
 50
90.0
100
AcDbRotatedDimension
1001
ACAD
1000
DSTYLE
1002
{
1070
   287
1070
     5
1070
   287
1070
     5
1070
   287
1070
     5
1070
    41
1040
3.0
1070
    42
1040
1.0
1070
    44
1040
1.0
1070
    73
1070
     0
1070
    74
1070
     0
1070
    77
1070
     1
1070
    78
1070
     8
1070
   140
1040
4.0
1070
   147
1040
1.0
1070
   172
1070
     1
1070
   173
1070
     1
1070
   174
1070
     1
1070
   271
1070
     1
1070
   272
1070
     1
1070
   279
1070
     2
1070
   340
1005
39
1002
}
  0
DIMENSION
  5
363
330
1E
100
AcDbEntity
  8
3
100
AcDbDimension
  2
*D11
 10
-85.39999999999997
 20
-38.66864973396275
 30
0.0
 11
-102.3999999999995
 21
-35.66864973396275
 31
0.0
 70
    32
  1
34
  3
STANDARD
100
AcDbAlignedDimension
 13
-119.399999999999
 23
-25.97465308340258
 33
0.0
 14
-85.39999999999997
 24
-25.97465308340258
 34
0.0
100
AcDbRotatedDimension
1001
ACAD
1000
DSTYLE
1002
{
1070
   287
1070
     5
1070
   287
1070
     5
1070
   287
1070
     5
1070
    41
1040
3.0
1070
    42
1040
1.0
1070
    44
1040
1.0
1070
    73
1070
     0
1070
    74
1070
     0
1070
    77
1070
     1
1070
    78
1070
     8
1070
   140
1040
4.0
1070
   147
1040
1.0
1070
   172
1070
     1
1070
   173
1070
     1
1070
   174
1070
     1
1070
   271
1070
     1
1070
   272
1070
     1
1070
   279
1070
     2
1070
   340
1005
39
1002
}
  0
LINE
  5
36A
330
1E
100
AcDbEntity
  8
1
100
AcDbLine
 10
-85.39999999999997
 20
-25.97465308340258
 30
0.0
 11
-119.399999999999
 21
-25.97465308340258
 31
0.0
  0
LINE
  5
36B
330
1E
100
AcDbEntity
  8
CL
100
AcDbLine
 10
-122.3999999999993
 20
-1.97465308340304
 30
0.0
 11
-82.39999999999998
 21
-1.97465308340304
 31
0.0
  0
LINE
  5
37E
330
1E
100
AcDbEntity
  8
CL
100
AcDbLine
 10
-122.4014695933041
 20
19.02534691659695
 30
0.0
 11
-116.8078302249335
 21
19.02534691659695
 31
0.0
  0
LINE
  5
37F
330
1E
100
AcDbEntity
  8
CL
100
AcDbLine
 10
-121.8463304020427
 20
-22.97465308340304
 30
0.0
 11
-116.8078155658571
 21
-22.97465308340304
 31
0.0
  0
CIRCLE
  5
380
330
1E
100
AcDbEntity
  8
1
100
AcDbCircle
 10
-119.3999999999999
 20
-22.97465308340304
 30
0.0
 40
1.5
  0
LINE
  5
381
330
1E
100
AcDbEntity
  8
CL
100
AcDbLine
 10
-119.3999999999999
 20
-20.58148394563056
 30
0.0
 11
-119.3999999999999
 21
-25.97465308340304
 31
0.0
  0
ARC
  5
382
330
1E
100
AcDbEntity
  8
1
100
AcDbCircle
 10
-119.399999999999
 20
-22.97465308340258
 30
0.0
 40
3.0
100
AcDbArc
 50
180.0000000000006
 51
270.0
  0
CIRCLE
  5
39F
330
1E
100
AcDbEntity
  8
1
100
AcDbCircle
 10
-85.39999999999997
 20
-22.97465308340304
 30
0.0
 40
1.5
  0
LINE
  5
3A0
330
1E
100
AcDbEntity
  8
CL
100
AcDbLine
 10
-102.3999999999999
 20
15.92884894450037
 30
0.0
 11
-102.3999999999999
 21
-16.42832601638008
 31
0.0
  0
LINE
  5
3A1
330
1E
100
AcDbEntity
  8
CL
100
AcDbLine
 10
-85.39999999999997
 20
-20.58148394563056
 30
0.0
 11
-85.39999999999997
 21
-25.97465308340304
 31
0.0
  0
LINE
  5
3A2
330
1E
100
AcDbEntity
  8
CL
100
AcDbLine
 10
-102.3999999999999
 20
-20.58148394563056
 30
0.0
 11
-102.3999999999999
 21
-31.10523459249441
 31
0.0
  0
LINE
  5
3A3
330
1E
100
AcDbEntity
  8
CL
100
AcDbLine
 10
-106.3602372155977
 20
15.52534691659696
 30
0.0
 11
-98.60065367795812
 21
15.52534691659696
 31
0.0
  0
ARC
  5
3A4
330
1E
100
AcDbEntity
  8
1
100
AcDbCircle
 10
-102.3999999999999
 20
15.52534691659696
 30
0.0
 40
3.0
100
AcDbArc
 50
345.5224878140701
 51
194.4775121859298
  0
LINE
  5
3A5
330
1E
100
AcDbEntity
  8
CL
100
AcDbLine
 10
-88.29062897297024
 20
19.02534691659695
 30
0.0
 11
-82.95366959795808
 21
19.02534691659695
 31
0.0
  0
LINE
  5
3A6
330
1E
100
AcDbEntity
  8
CL
100
AcDbLine
 10
-88.62371248772831
 20
-22.97465308340304
 30
0.0
 11
-82.95366959795808
 21
-22.97465308340304
 31
0.0
  0
ARC
  5
3A7
330
1E
100
AcDbEntity
  8
1
100
AcDbCircle
 10
-85.39999999999997
 20
-22.97465308340258
 30
0.0
 40
3.0
100
AcDbArc
 50
269.9999999999992
 51
0.0
  0
DIMENSION
  5
3A8
330
1E
100
AcDbEntity
  8
3
100
AcDbDimension
  2
*D2
 10
-1.400000000000007
 20
-38.02534691659673
 30
0.0
 11
2.600000000000007
 21
-35.02534691659673
 31
0.0
 70
    32
  3
STANDARD
100
AcDbAlignedDimension
 13
6.600000000000022
 23
-18.99999999999988
 33
0.0
 14
-1.400000000000005
 24
-3.999999999999829
 34
0.0
100
AcDbRotatedDimension
1001
ACAD
1000
DSTYLE
1002
{
1070
   287
1070
     5
1070
   287
1070
     5
1070
   287
1070
     5
1070
    41
1040
3.0
1070
    42
1040
1.0
1070
    44
1040
1.0
1070
    73
1070
     0
1070
    74
1070
     0
1070
    77
1070
     1
1070
    78
1070
     8
1070
   140
1040
4.0
1070
   147
1040
1.0
1070
   172
1070
     1
1070
   173
1070
     1
1070
   174
1070
     1
1070
   271
1070
     1
1070
   272
1070
     1
1070
   279
1070
     2
1070
   340
1005
39
1002
}
  0
DIMENSION
  5
3A9
330
1E
100
AcDbEntity
  8
3
100
AcDbDimension
  2
*D1
 10
6.600000000000021
 20
-38.02534691659673
 30
0.0
 11
21.10000000000002
 21
-33.97772786897768
 31
0.0
 70
    32
  1
<>(48)
  3
STANDARD
100
AcDbAlignedDimension
 13
35.60000000000002
 23
-25.99999999999988
 33
0.0
 14
6.600000000000022
 24
-18.99999999999988
 34
0.0
100
AcDbRotatedDimension
1001
ACAD
1000
DSTYLE
1002
{
1070
   287
1070
     5
1070
   287
1070
     5
1070
   287
1070
     5
1070
    41
1040
3.0
1070
    42
1040
1.0
1070
    44
1040
1.0
1070
    73
1070
     0
1070
    74
1070
     0
1070
    77
1070
     1
1070
    78
1070
     8
1070
   140
1040
4.0
1070
   147
1040
1.0
1070
   172
1070
     1
1070
   173
1070
     1
1070
   174
1070
     1
1070
   271
1070
     1
1070
   272
1070
     1
1070
   279
1070
     2
1070
   340
1005
39
1002
}
  0
LINE
  5
3AA
330
1E
100
AcDbEntity
  8
1
100
AcDbLine
 10
34.60000000000002
 20
15.00000000000011
 30
0.0
 11
6.600000000000022
 21
15.00000000000011
 31
0.0
  0
LINE
  5
3AB
330
1E
100
AcDbEntity
  8
1
100
AcDbLine
 10
34.60000000000002
 20
-18.99999999999988
 30
0.0
 11
6.600000000000022
 21
-18.99999999999988
 31
0.0
  0
LINE
  5
3AC
330
1E
100
AcDbEntity
  8
CL
100
AcDbLine
 10
-5.922018729925525
 20
-1.999999999999886
 30
0.0
 11
60.55124468001725
 21
-1.999999999999886
 31
0.0
  0
LINE
  5
3B8
330
1E
100
AcDbEntity
  8
1
100
AcDbLine
 10
55.60000000000002
 20
16.25847681550078
 30
0.0
 11
56.60000000000002
 21
16.25847681550078
 31
0.0
  0
ARC
  5
3B9
330
1E
100
AcDbEntity
  8
1
100
AcDbCircle
 10
56.60000000000002
 20
17.25847681550078
 30
0.0
 40
1.0
100
AcDbArc
 50
270.0
 51
0.0000000000002036
  0
ARC
  5
3BA
330
1E
100
AcDbEntity
  8
1
100
AcDbCircle
 10
56.60000000000002
 20
-24.74152318449876
 30
0.0
 40
1.0
100
AcDbArc
 50
270.0
 51
0.0000000000002036
  0
ARC
  5
3BB
330
1E
100
AcDbEntity
  8
1
100
AcDbCircle
 10
56.60000000000002
 20
-21.74152318449876
 30
0.0
 40
1.0
100
AcDbArc
 50
0.0000000000001527
 51
90.0
  0
LINE
  5
3BC
330
1E
100
AcDbEntity
  8
1
100
AcDbLine
 10
55.60000000000002
 20
-25.74152318449876
 30
0.0
 11
56.60000000000002
 21
-25.74152318449876
 31
0.0
  0
LINE
  5
3BD
330
1E
100
AcDbEntity
  8
1
100
AcDbLine
 10
55.60000000000002
 20
-20.74152318449876
 30
0.0
 11
56.60000000000002
 21
-20.74152318449876
 31
0.0
  0
LINE
  5
3BE
330
1E
100
AcDbEntity
  8
1
100
AcDbLine
 10
57.60000000000002
 20
-24.74152318449876
 30
0.0
 11
57.60000000000002
 21
-21.74152318449876
 31
0.0
  0
ARC
  5
3BF
330
1E
100
AcDbEntity
  8
1
100
AcDbCircle
 10
34.60000000000002
 20
14.00000000000011
 30
0.0
 40
1.0
100
AcDbArc
 50
0.0
 51
90.0
  0
ARC
  5
3C0
330
1E
100
AcDbEntity
  8
1
100
AcDbCircle
 10
34.60000000000002
 20
-17.99999999999988
 30
0.0
 40
1.0
100
AcDbArc
 50
270.0
 51
0.0
  0
LINE
  5
3C1
330
1E
100
AcDbEntity
  8
1
100
AcDbLine
 10
35.60000000000002
 20
-17.99999999999988
 30
0.0
 11
35.60000000000002
 21
14.00000000000011
 31
0.0
  0
LINE
  5
3C2
330
1E
100
AcDbEntity
  8
1
100
AcDbLine
 10
35.60000000000002
 20
-25.99999999999988
 30
0.0
 11
55.60000000000002
 21
-25.99999999999988
 31
0.0
  0
LINE
  5
3C3
330
1E
100
AcDbEntity
  8
3
100
AcDbLine
 10
-67.4965287571016
 20
79.10821695781135
 30
0.0
 11
-42.87935260985557
 21
79.10821695781044
 31
0.0
  0
DIMENSION
  5
3C4
330
1E
100
AcDbEntity
  8
3
100
AcDbDimension
  2
*D10
 10
-82.39999999999998
 20
80.0010544045382
 30
0.0
 11
-102.3999999999999
 21
83.00105440453819
 31
0.0
 70
    32
  1
40
  3
STANDARD
100
AcDbAlignedDimension
 13
-122.3999999999999
 23
59.02534691659695
 33
0.0
 14
-82.39999999999998
 24
59.02534691659695
 34
0.0
100
AcDbRotatedDimension
1001
ACAD
1000
DSTYLE
1002
{
1070
   287
1070
     5
1070
   287
1070
     5
1070
   287
1070
     5
1070
    41
1040
3.0
1070
    42
1040
1.0
1070
    44
1040
1.0
1070
    73
1070
     0
1070
    74
1070
     0
1070
    77
1070
     1
1070
    78
1070
     8
1070
   140
1040
4.0
1070
   147
1040
1.0
1070
   172
1070
     1
1070
   173
1070
     1
1070
   174
1070
     1
1070
   271
1070
     1
1070
   272
1070
     1
1070
   279
1070
     2
1070
   340
1005
39
1002
}
  0
LINE
  5
3C5
330
1E
100
AcDbEntity
  8
3
100
AcDbLine
 10
-83.34322084473603
 20
63.43687894186189
 30
0.0
 11
-67.4965287571016
 21
79.10821695781135
 31
0.0
  0
LINE
  5
3C6
330
1E
100
AcDbEntity
  8
1
100
AcDbLine
 10
-117.3999999999999
 20
64.02534691659695
 30
0.0
 11
-87.39999999999998
 21
64.02534691659695
 31
0.0
  0
LINE
  5
3C7
330
1E
100
AcDbEntity
  8
CL
100
AcDbLine
 10
-109.3667771740114
 20
47.0253469165965
 30
0.0
 11
-95.4801616055214
 21
47.02534691659695
 31
0.0
  0
DIMENSION
  5
3C8
330
1E
100
AcDbEntity
  8
3
100
AcDbDimension
  2
*D9
 10
-87.39999999999998
 20
71.95747675122095
 30
0.0
 11
-102.3999999999999
 21
74.95747675122095
 31
0.0
 70
    32
  1
30
  3
STANDARD
100
AcDbAlignedDimension
 13
-117.3999999999999
 23
64.02534691659695
 33
0.0
 14
-87.39999999999998
 24
64.02534691659695
 34
0.0
100
AcDbRotatedDimension
1001
ACAD
1000
DSTYLE
1002
{
1070
   287
1070
     5
1070
   287
1070
     5
1070
   287
1070
     5
1070
    41
1040
3.0
1070
    42
1040
1.0
1070
    44
1040
1.0
1070
    73
1070
     0
1070
    74
1070
     0
1070
    77
1070
     1
1070
    78
1070
     8
1070
   140
1040
4.0
1070
   147
1040
1.0
1070
   172
1070
     1
1070
   173
1070
     1
1070
   174
1070
     1
1070
   271
1070
     1
1070
   272
1070
     1
1070
   279
1070
     2
1070
   340
1005
39
1002
}
  0
LINE
  5
3C9
330
1E
100
AcDbEntity
  8
CL
100
AcDbLine
 10
-117.3999999999999
 20
64.02534691659695
 30
0.0
 11
-117.399999999999
 21
51.76715824430278
 31
0.0
  0
CIRCLE
  5
3CA
330
1E
100
AcDbEntity
  8
1
100
AcDbCircle
 10
-117.3999999999999
 20
59.02534691659695
 30
0.0
 40
1.5
  0
ARC
  5
3CB
330
1E
100
AcDbEntity
  8
1
100
AcDbCircle
 10
-117.3999999999999
 20
59.02534691659695
 30
0.0
 40
2.0
100
AcDbArc
 50
180.0
 51
90.0
  0
CIRCLE
  5
3CC
330
1E
100
AcDbEntity
  8
1
100
AcDbCircle
 10
-117.3999999999999
 20
59.02534691659695
 30
0.0
 40
3.0
  0
ARC
  5
3CD
330
1E
100
AcDbEntity
  8
1
100
AcDbCircle
 10
-117.3999999999999
 20
37.02534691659696
 30
0.0
 40
2.0
100
AcDbArc
 50
180.0
 51
90.0
  0
CIRCLE
  5
3CE
330
1E
100
AcDbEntity
  8
1
100
AcDbCircle
 10
-117.3999999999999
 20
37.02534691659696
 30
0.0
 40
3.0
  0
CIRCLE
  5
3CF
330
1E
100
AcDbEntity
  8
1
100
AcDbCircle
 10
-117.3999999999999
 20
37.02534691659696
 30
0.0
 40
1.5
  0
LINE
  5
3D0
330
1E
100
AcDbEntity
  8
CL
100
AcDbLine
 10
-117.3999999999999
 20
42.09262429371131
 30
0.0
 11
-117.3999999999999
 21
29.68399180895824
 31
0.0
  0
LINE
  5
3D1
330
1E
100
AcDbEntity
  8
CL
100
AcDbLine
 10
-122.3999999999999
 20
37.09280185242198
 30
0.0
 11
-113.3644390094999
 21
37.09280185242198
 31
0.0
  0
LINE
  5
3D2
330
1E
100
AcDbEntity
  8
CL
100
AcDbLine
 10
-121.9177804952499
 20
59.02534691659695
 30
0.0
 11
-112.8822195047499
 21
59.02534691659695
 31
0.0
  0
ARC
  5
3D3
330
1E
100
AcDbEntity
  8
1
100
AcDbCircle
 10
-117.3999999999999
 20
59.02534691659695
 30
0.0
 40
5.0
100
AcDbArc
 50
90.0
 51
180.0000000000006
  0
LINE
  5
3D4
330
1E
100
AcDbEntity
  8
3
100
AcDbLine
 10
-81.39999999999998
 20
37.09280185242198
 30
0.0
 11
-67.1277338914191
 21
37.09280185242198
 31
0.0
  0
LINE
  5
3D5
330
1E
100
AcDbEntity
  8
3
100
AcDbLine
 10
-67.74773389141898
 20
34.09280185242198
 30
0.0
 11
-67.74773389141898
 21
31.09280185242198
 31
0.0
  0
SOLID
  5
3D6
330
1E
100
AcDbEntity
  8
3
100
AcDbTrace
 10
-68.24773389141899
 20
34.09280185242198
 30
0.0
 11
-67.24773389141899
 21
34.09280185242198
 31
0.0
 12
-67.74773389141898
 22
37.09280185242198
 32
0.0
 13
-67.74773389141898
 23
37.09280185242198
 33
0.0
  0
LINE
  5
3D7
330
1E
100
AcDbEntity
  8
3
100
AcDbLine
 10
-67.74773389141898
 20
37.09280185242198
 30
0.0
 11
-67.74773389141898
 21
47.02534691659695
 31
0.0
  0
TEXT
  5
3D8
330
1E
100
AcDbEntity
  8
3
100
AcDbText
 10
-69.24773389141899
 20
40.21621724165256
 30
0.0
 40
3.0
  1
10
 50
90.0
 41
0.6
  7
GHS
 72
     1
 11
-70.74773389141899
 21
42.0590743845097
 31
0.0
100
AcDbText
 73
     2
  0
POINT
  5
3D9
330
1E
100
AcDbEntity
  8
DEFPOINTS
  6
BYBLOCK
 62
     0
100
AcDbPoint
 10
-82.39999999999998
 20
37.09280185242198
 30
0.0
  0
POINT
  5
3DA
330
1E
100
AcDbEntity
  8
DEFPOINTS
  6
BYBLOCK
 62
     0
100
AcDbPoint
 10
-67.74773389141898
 20
47.02534691659695
 30
0.0
  0
LINE
  5
3DB
330
1E
100
AcDbEntity
  8
CL
100
AcDbLine
 10
-87.39999999999998
 20
64.02534691659695
 30
0.0
 11
-87.39999999999998
 21
51.76715824430278
 31
0.0
  0
CIRCLE
  5
3DC
330
1E
100
AcDbEntity
  8
1
100
AcDbCircle
 10
-87.39999999999998
 20
59.02534691659695
 30
0.0
 40
1.5
  0
ARC
  5
3DD
330
1E
100
AcDbEntity
  8
1
100
AcDbCircle
 10
-87.39999999999998
 20
59.02534691659695
 30
0.0
 40
2.0
100
AcDbArc
 50
180.0
 51
90.0
  0
CIRCLE
  5
3DE
330
1E
100
AcDbEntity
  8
1
100
AcDbCircle
 10
-87.39999999999998
 20
59.02534691659695
 30
0.0
 40
3.0
  0
CIRCLE
  5
3E0
330
1E
100
AcDbEntity
  8
1
100
AcDbCircle
 10
-102.3999999999999
 20
47.02534691659695
 30
0.0
 40
4.0
  0
ARC
  5
3E1
330
1E
100
AcDbEntity
  8
1
100
AcDbCircle
 10
-87.39999999999998
 20
37.02534691659696
 30
0.0
 40
2.0
100
AcDbArc
 50
180.0
 51
90.0
  0
CIRCLE
  5
3E2
330
1E
100
AcDbEntity
  8
1
100
AcDbCircle
 10
-87.39999999999998
 20
37.02534691659696
 30
0.0
 40
3.0
  0
CIRCLE
  5
3E3
330
1E
100
AcDbEntity
  8
1
100
AcDbCircle
 10
-87.39999999999998
 20
37.02534691659696
 30
0.0
 40
1.5
  0
LINE
  5
3E4
330
1E
100
AcDbEntity
  8
CL
100
AcDbLine
 10
-87.39999999999998
 20
42.09262429371131
 30
0.0
 11
-87.39999999999998
 21
29.68399180895824
 31
0.0
  0
LINE
  5
3E5
330
1E
100
AcDbEntity
  8
1
100
AcDbLine
 10
-100.8999999999999
 20
31.0253469165965
 30
0.0
 11
-100.8999999999999
 21
43.31724767304933
 31
0.0
  0
LINE
  5
3E6
330
1E
100
AcDbEntity
  8
1
100
AcDbLine
 10
-100.8999999999999
 20
63.0253469165965
 30
0.0
 11
-103.8999999999999
 21
63.0253469165965
 31
0.0
  0
LINE
  5
3E7
330
1E
100
AcDbEntity
  8
1
100
AcDbLine
 10
-103.8999999999999
 20
63.0253469165965
 30
0.0
 11
-103.8999999999999
 21
50.73344616014458
 31
0.0
  0
LINE
  5
3E8
330
1E
100
AcDbEntity
  8
1
100
AcDbLine
 10
-103.8999999999999
 20
31.0253469165965
 30
0.0
 11
-100.8999999999999
 21
31.0253469165965
 31
0.0
  0
LINE
  5
3E9
330
1E
100
AcDbEntity
  8
1
100
AcDbLine
 10
-103.8999999999999
 20
43.31724767304888
 30
0.0
 11
-103.8999999999999
 21
31.0253469165965
 31
0.0
  0
LINE
  5
3EA
330
1E
100
AcDbEntity
  8
1
100
AcDbLine
 10
-100.8999999999999
 20
50.73344616014503
 30
0.0
 11
-100.8999999999999
 21
63.0253469165965
 31
0.0
  0
LINE
  5
3EB
330
1E
100
AcDbEntity
  8
CL
100
AcDbLine
 10
-106.0797898759314
 20
28.0253469165965
 30
0.0
 11
-98.34111177114426
 21
28.0253469165965
 31
0.0
  0
POINT
  5
3EC
330
1E
100
AcDbEntity
  8
DEFPOINTS
  6
BYBLOCK
 62
     0
100
AcDbPoint
 10
-95.4801616055214
 20
47.02534691659695
 30
0.0
  0
LINE
  5
3ED
330
1E
100
AcDbEntity
  8
CL
100
AcDbLine
 10
-92.95532640918043
 20
37.09280185242198
 30
0.0
 11
-82.39999999999998
 21
37.09280185242198
 31
0.0
  0
LINE
  5
3EE
330
1E
100
AcDbEntity
  8
CL
100
AcDbLine
 10
-92.47310690443043
 20
59.02534691659695
 30
0.0
 11
-81.91778049524998
 21
59.02534691659695
 31
0.0
  0
ARC
  5
3EF
330
1E
100
AcDbEntity
  8
1
100
AcDbCircle
 10
-87.39999999999998
 20
59.02534691659695
 30
0.0
 40
5.0
100
AcDbArc
 50
0.0
 51
90.0
  0
DIMENSION
  5
3F0
330
1E
100
AcDbEntity
  8
3
100
AcDbDimension
  2
*D17
 10
-67.74773389141898
 20
59.02534691659695
 30
0.0
 11
-70.747733891419
 21
53.02534691659694
 31
0.0
 70
    32
  1
12
  3
STANDARD
100
AcDbAlignedDimension
 13
-95.4801616055214
 23
47.02534691659695
 33
0.0
 14
-82.39999999999998
 24
59.02534691659695
 34
0.0
 50
90.0
100
AcDbRotatedDimension
1001
ACAD
1000
DSTYLE
1002
{
1070
   287
1070
     5
1070
   287
1070
     5
1070
   287
1070
     5
1070
    41
1040
3.0
1070
    42
1040
1.0
1070
    44
1040
1.0
1070
    73
1070
     0
1070
    74
1070
     0
1070
    77
1070
     1
1070
    78
1070
     8
1070
   140
1040
4.0
1070
   147
1040
1.0
1070
   172
1070
     1
1070
   173
1070
     1
1070
   174
1070
     1
1070
   271
1070
     1
1070
   272
1070
     1
1070
   279
1070
     2
1070
   340
1005
39
1002
}
  0
DIMENSION
  5
3F1
330
1E
100
AcDbEntity
  8
3
100
AcDbDimension
  2
*D16
 10
-67.74773389141898
 20
64.02534691659695
 30
0.0
 11
-70.747733891419
 21
61.52534691659695
 31
0.0
 70
    32
  1
5
  3
STANDARD
100
AcDbAlignedDimension
 13
-82.39999999999998
 23
59.02534691659695
 33
0.0
 14
-87.39999999999998
 24
64.02534691659695
 34
0.0
 50
90.0
100
AcDbRotatedDimension
1001
ACAD
1000
DSTYLE
1002
{
1070
   287
1070
     5
1070
   287
1070
     5
1070
   287
1070
     5
1070
    41
1040
3.0
1070
    42
1040
1.0
1070
    44
1040
1.0
1070
    73
1070
     0
1070
    74
1070
     0
1070
    77
1070
     1
1070
    78
1070
     8
1070
   140
1040
4.0
1070
   147
1040
1.0
1070
   172
1070
     1
1070
   173
1070
     1
1070
   174
1070
     1
1070
   271
1070
     1
1070
   272
1070
     1
1070
   279
1070
     2
1070
   340
1005
39
1002
}
  0
LINE
  5
3F2
330
1E
100
AcDbEntity
  8
3
100
AcDbLine
 10
-94.48016160552141
 20
47.02534691659695
 30
0.0
 11
-67.1277338914191
 21
47.02534691659695
 31
0.0
  0
SOLID
  5
3F3
330
1E
100
AcDbEntity
  8
3
100
AcDbTrace
 10
-82.99163992915453
 20
63.08136401981449
 30
0.0
 11
-83.69480176031846
 21
63.7923938639093
 31
0.0
 12
-85.47631037702137
 22
61.32739344836875
 32
0.0
 13
-85.47631037702137
 23
61.32739344836875
 33
0.0
  0
CIRCLE
  5
3F4
330
1E
100
AcDbEntity
  8
1
100
AcDbCircle
 10
-102.3999999999999
 20
28.0253469165965
 30
0.0
 40
3.0
  0
DIMENSION
  5
3F7
330
1E
100
AcDbEntity
  8
3
100
AcDbDimension
  2
*D3
 10
9.600000000000024
 20
79.97465308340327
 30
0.0
 11
22.35000000000002
 21
82.97465308340326
 31
0.0
 70
    32
  1
26
  3
STANDARD
100
AcDbAlignedDimension
 13
35.10000000000002
 23
62.00000000000011
 33
0.0
 14
9.600000000000022
 24
50.4999999999992
 34
0.0
100
AcDbRotatedDimension
1001
ACAD
1000
DSTYLE
1002
{
1070
   287
1070
     5
1070
   287
1070
     5
1070
   287
1070
     5
1070
    41
1040
3.0
1070
    42
1040
1.0
1070
    44
1040
1.0
1070
    73
1070
     0
1070
    74
1070
     0
1070
    77
1070
     1
1070
    78
1070
     8
1070
   140
1040
4.0
1070
   147
1040
1.0
1070
   172
1070
     1
1070
   173
1070
     1
1070
   174
1070
     1
1070
   271
1070
     1
1070
   272
1070
     1
1070
   279
1070
     2
1070
   340
1005
39
1002
}
  0
DIMENSION
  5
3F8
330
1E
100
AcDbEntity
  8
3
100
AcDbDimension
  2
*D8
 10
55.60000000000002
 20
79.97465308340327
 30
0.0
 11
45.35000000000002
 21
82.97465308340326
 31
0.0
 70
    32
  1
20
  3
STANDARD
100
AcDbAlignedDimension
 13
35.10000000000002
 23
62.00000000000011
 33
0.0
 14
55.60000000000002
 24
63.99999999999966
 34
0.0
100
AcDbRotatedDimension
1001
ACAD
1000
DSTYLE
1002
{
1070
   287
1070
     5
1070
   287
1070
     5
1070
   287
1070
     5
1070
    41
1040
3.0
1070
    42
1040
1.0
1070
    44
1040
1.0
1070
    73
1070
     0
1070
    74
1070
     0
1070
    77
1070
     1
1070
    78
1070
     8
1070
   140
1040
4.0
1070
   147
1040
1.0
1070
   172
1070
     1
1070
   173
1070
     1
1070
   174
1070
     1
1070
   271
1070
     1
1070
   272
1070
     1
1070
   279
1070
     2
1070
   340
1005
39
1002
}
  0
LINE
  5
3F9
330
1E
100
AcDbEntity
  8
1
100
AcDbLine
 10
10.10000000000002
 20
50.9999999999992
 30
0.0
 11
35.59999999999911
 21
50.9999999999992
 31
0.0
  0
LINE
  5
3FA
330
1E
100
AcDbEntity
  8
1
100
AcDbLine
 10
10.10000000000002
 20
42.99999999999875
 30
0.0
 11
35.59999999999911
 21
42.9999999999992
 31
0.0
  0
LINE
  5
3FB
330
1E
100
AcDbEntity
  8
CL
100
AcDbLine
 10
6.830992519655069
 20
46.9999999999992
 30
0.0
 11
62.69992460025389
 21
47.00000000000011
 31
0.0
  0
LINE
  5
3FC
330
1E
100
AcDbEntity
  8
1
100
AcDbLine
 10
17.10000000000002
 20
42.99999999999892
 30
0.0
 11
17.10000000000002
 21
30.9999999999992
 31
0.0
  0
LINE
  5
3FD
330
1E
100
AcDbEntity
  8
1
100
AcDbLine
 10
14.10000000000002
 20
50.9999999999992
 30
0.0
 11
14.10000000000002
 21
62.9999999999992
 31
0.0
  0
LINE
  5
3FE
330
1E
100
AcDbEntity
  8
1
100
AcDbLine
 10
9.600000000000022
 20
43.49999999999875
 30
0.0
 11
9.600000000000022
 21
50.4999999999992
 31
0.0
  0
LINE
  5
3FF
330
1E
100
AcDbEntity
  8
1
100
AcDbLine
 10
9.600000000000022
 20
50.4999999999992
 30
0.0
 11
10.10000000000002
 21
50.9999999999992
 31
0.0
  0
LINE
  5
400
330
1E
100
AcDbEntity
  8
1
100
AcDbLine
 10
9.600000000000022
 20
43.49999999999875
 30
0.0
 11
10.10000000000002
 21
42.99999999999875
 31
0.0
  0
LINE
  5
401
330
1E
100
AcDbEntity
  8
1
100
AcDbLine
 10
10.10000000000002
 20
42.99999999999875
 30
0.0
 11
10.10000000000002
 21
50.9999999999992
 31
0.0
  0
LINE
  5
402
330
1E
100
AcDbEntity
  8
1
100
AcDbLine
 10
17.10000000000002
 20
62.9999999999992
 30
0.0
 11
17.10000000000002
 21
50.9999999999992
 31
0.0
  0
LINE
  5
403
330
1E
100
AcDbEntity
  8
1
100
AcDbLine
 10
17.10000000000002
 20
30.9999999999992
 30
0.0
 11
14.10000000000002
 21
30.9999999999992
 31
0.0
  0
LINE
  5
404
330
1E
100
AcDbEntity
  8
1
100
AcDbLine
 10
14.10000000000002
 20
30.9999999999992
 30
0.0
 11
14.10000000000002
 21
42.99999999999886
 31
0.0
  0
LINE
  5
405
330
1E
100
AcDbEntity
  8
1
100
AcDbLine
 10
14.10000000000002
 20
62.9999999999992
 30
0.0
 11
17.10000000000002
 21
62.9999999999992
 31
0.0
  0
LINE
  5
406
330
1E
100
AcDbEntity
  8
CL
100
AcDbLine
 10
15.60000000000002
 20
29.15920418420967
 30
0.0
 11
15.60000000000002
 21
64.19688821662532
 31
0.0
  0
DIMENSION
  5
407
330
1E
100
AcDbEntity
  8
3
100
AcDbDimension
  2
*D6
 10
15.60000000000002
 20
72.26032900069606
 30
0.0
 11
12.60000000000002
 21
75.00000000000011
 31
0.0
 70
   160
  1
6
  3
STANDARD
100
AcDbAlignedDimension
 13
9.600000000000022
 23
51.4999999999992
 33
0.0
 14
15.60000000000002
 24
64.19688821662532
 34
0.0
100
AcDbRotatedDimension
1001
ACAD
1000
DSTYLE
1002
{
1070
   287
1070
     5
1070
   287
1070
     5
1070
   287
1070
     5
1070
    41
1040
3.0
1070
    42
1040
1.0
1070
    44
1040
1.0
1070
    73
1070
     0
1070
    74
1070
     0
1070
    77
1070
     1
1070
    78
1070
     8
1070
   140
1040
4.0
1070
   147
1040
1.0
1070
   172
1070
     1
1070
   173
1070
     1
1070
   174
1070
     1
1070
   271
1070
     1
1070
   272
1070
     1
1070
   279
1070
     2
1070
   340
1005
39
1002
}
  0
DIMENSION
  5
408
330
1E
100
AcDbEntity
  8
3
100
AcDbDimension
  2
*D5
 10
-1.620779385823311
 20
50.9999999999992
 30
0.0
 11
-4.62077938582332
 21
46.99999999999898
 31
0.0
 70
    32
  1
%%C8
  3
STANDARD
100
AcDbAlignedDimension
 13
10.10000000000002
 23
42.99999999999875
 33
0.0
 14
10.10000000000002
 24
50.9999999999992
 34
0.0
 50
90.0
100
AcDbRotatedDimension
1001
ACAD
1000
DSTYLE
1002
{
1070
   287
1070
     5
1070
   287
1070
     5
1070
   287
1070
     5
1070
    41
1040
3.0
1070
    42
1040
1.0
1070
    44
1040
1.0
1070
    73
1070
     0
1070
    74
1070
     0
1070
    77
1070
     1
1070
    78
1070
     8
1070
   140
1040
4.0
1070
   147
1040
1.0
1070
   172
1070
     1
1070
   173
1070
     1
1070
   174
1070
     1
1070
   271
1070
     1
1070
   272
1070
     1
1070
   279
1070
     2
1070
   340
1005
39
1002
}
  0
ARC
  5
409
330
1E
100
AcDbEntity
  8
1
100
AcDbCircle
 10
56.60000000000002
 20
58.00000000000057
 30
0.0
 40
1.0
100
AcDbArc
 50
270.0
 51
0.0000000000002036
  0
LINE
  5
40A
330
1E
100
AcDbEntity
  8
1
100
AcDbLine
 10
55.60000000000002
 20
57.00000000000057
 30
0.0
 11
56.60000000000002
 21
57.00000000000057
 31
0.0
  0
LINE
  5
40B
330
1E
100
AcDbEntity
  8
1
100
AcDbLine
 10
57.60000000000002
 20
58.00000000000057
 30
0.0
 11
57.60000000000002
 21
61.00000000000057
 31
0.0
  0
ARC
  5
40C
330
1E
100
AcDbEntity
  8
1
100
AcDbCircle
 10
56.60000000000002
 20
61.00000000000057
 30
0.0
 40
1.0
100
AcDbArc
 50
0.0000000000001527
 51
90.0
  0
LINE
  5
40D
330
1E
100
AcDbEntity
  8
1
100
AcDbLine
 10
55.60000000000002
 20
62.00000000000057
 30
0.0
 11
56.60000000000002
 21
62.00000000000057
 31
0.0
  0
LINE
  5
40E
330
1E
100
AcDbEntity
  8
1
100
AcDbLine
 10
55.60000000000002
 20
21.25847681550078
 30
0.0
 11
56.60000000000002
 21
21.25847681550078
 31
0.0
  0
ARC
  5
40F
330
1E
100
AcDbEntity
  8
1
100
AcDbCircle
 10
56.60000000000002
 20
20.25847681550078
 30
0.0
 40
1.0
100
AcDbArc
 50
0.0000000000001527
 51
90.0
  0
LINE
  5
410
330
1E
100
AcDbEntity
  8
1
100
AcDbLine
 10
35.10000000000002
 20
34.00000000000057
 30
0.0
 11
35.10000000000002
 21
40.00000000000011
 31
0.0
  0
LINE
  5
411
330
1E
100
AcDbEntity
  8
1
100
AcDbLine
 10
35.09999999999911
 20
62.00000000000011
 30
0.0
 11
35.60000000000002
 21
62.00000000000057
 31
0.0
  0
LINE
  5
412
330
1E
100
AcDbEntity
  8
1
100
AcDbLine
 10
35.09999999999911
 20
55.99999999999965
 30
0.0
 11
35.60000000000002
 21
55.99999999999965
 31
0.0
  0
LINE
  5
413
330
1E
100
AcDbEntity
  8
1
100
AcDbLine
 10
35.10000000000002
 20
55.9999999999992
 30
0.0
 11
35.10000000000002
 21
62.00000000000057
 31
0.0
  0
LINE
  5
414
330
1E
100
AcDbEntity
  8
1
100
AcDbLine
 10
35.10000000000002
 20
40.00000000000011
 30
0.0
 11
35.60000000000002
 21
40.00000000000011
 31
0.0
  0
LINE
  5
415
330
1E
100
AcDbEntity
  8
1
100
AcDbLine
 10
35.10000000000002
 20
34.00000000000011
 30
0.0
 11
35.60000000000002
 21
34.00000000000011
 31
0.0
  0
LINE
  5
416
330
1E
100
AcDbEntity
  8
1
100
AcDbLine
 10
35.10000000000002
 20
31.00000000000011
 30
0.0
 11
35.60000000000002
 21
31.00000000000011
 31
0.0
  0
DIMENSION
  5
417
330
1E
100
AcDbEntity
  8
3
100
AcDbDimension
  2
*D7
 10
35.60000000000002
 20
72.48180080739723
 30
0.0
 11
40.60000000000002
 21
75.00000000000011
 31
0.0
 70
   160
  3
STANDARD
100
AcDbAlignedDimension
 13
35.09999999999911
 23
62.00000000000011
 33
0.0
 14
35.60000000000002
 24
63.99999999999966
 34
0.0
100
AcDbRotatedDimension
1001
ACAD
1000
DSTYLE
1002
{
1070
   287
1070
     5
1070
   287
1070
     5
1070
   287
1070
     5
1070
    41
1040
3.0
1070
    42
1040
1.0
1070
    44
1040
1.0
1070
    73
1070
     0
1070
    74
1070
     0
1070
    77
1070
     1
1070
    78
1070
     8
1070
   140
1040
4.0
1070
   147
1040
1.0
1070
   172
1070
     1
1070
   173
1070
     1
1070
   174
1070
     1
1070
   271
1070
     1
1070
   272
1070
     1
1070
   279
1070
     2
1070
   340
1005
39
1002
}
  0
LINE
  5
418
330
1E
100
AcDbEntity
  8
1
100
AcDbLine
 10
35.60000000000002
 20
63.99999999999966
 30
0.0
 11
55.60000000000002
 21
63.99999999999966
 31
0.0
  0
LINE
  5
419
330
1E
100
AcDbEntity
  8
1
100
AcDbLine
 10
35.10000000000002
 20
25.00000000000011
 30
0.0
 11
35.60000000000002
 21
25.00000000000011
 31
0.0
  0
LINE
  5
41A
330
1E
100
AcDbEntity
  8
1
100
AcDbLine
 10
35.10000000000002
 20
25.00000000000056
 30
0.0
 11
35.10000000000002
 21
31.00000000000011
 31
0.0
  0
SOLID
  5
41D
330
1E
100
AcDbEntity
  8
3
100
AcDbTrace
 10
12.08147099389677
 20
60.27498146179709
 30
0.0
 11
11.45274884445476
 21
59.4973514348556
 31
0.0
 12
14.10000000000016
 22
58.00000000000022
 32
0.0
 13
14.10000000000016
 23
58.00000000000022
 33
0.0
  0
LINE
  5
41E
330
1E
100
AcDbEntity
  8
3
100
AcDbLine
 10
11.76710991917576
 20
59.88616644832632
 30
0.0
 11
-9.399999999999835
 21
77.00000000000023
 31
0.0
  0
LINE
  5
41F
330
1E
100
AcDbEntity
  8
3
100
AcDbLine
 10
-9.399999999999835
 20
77.00000000000023
 30
0.0
 11
-32.39999999999997
 21
77.00000000000011
 31
0.0
  0
ARC
  5
5DB
330
1E
100
AcDbEntity
  8
8
100
AcDbCircle
 10
0.0
 20
-3.999999999999829
 30
0.0
 40
1.399999999999999
100
AcDbArc
 50
90.0
 51
270.0
  0
CIRCLE
  5
5DC
330
1E
100
AcDbEntity
  8
8
100
AcDbCircle
 10
0.0
 20
-3.999999999999829
 30
0.0
 40
0.7
  0
CIRCLE
  5
5DD
330
1E
100
AcDbEntity
  8
8
100
AcDbCircle
 10
0.0
 20
0.0
 30
0.0
 40
0.7
  0
ARC
  5
5DE
330
1E
100
AcDbEntity
  8
8
100
AcDbCircle
 10
0.0
 20
0.0
 30
0.0
 40
1.399999999999999
100
AcDbArc
 50
90.0
 51
270.0
  0
LINE
  5
5DF
330
1E
100
AcDbEntity
  8
1
100
AcDbLine
 10
9.100000000000022
 20
15.00000000000011
 30
0.0
 11
9.100000000000022
 21
-0.4999999999998864
 31
0.0
  0
LINE
  5
5E0
330
1E
100
AcDbEntity
  8
1
100
AcDbLine
 10
6.600000000000022
 20
15.00000000000011
 30
0.0
 11
6.600000000000022
 21
-18.99999999999988
 31
0.0
  0
LINE
  5
5E1
330
1E
100
AcDbEntity
  8
1
100
AcDbLine
 10
6.600000000000022
 20
3.500000000000113
 30
0.0
 11
4.000000000000113
 21
3.500000000000113
 31
0.0
  0
LINE
  5
5E2
330
1E
100
AcDbEntity
  8
1
100
AcDbLine
 10
9.100000000000022
 20
-3.499999999999886
 30
0.0
 11
9.100000000000022
 21
-18.99999999999988
 31
0.0
  0
LINE
  5
5E3
330
1E
100
AcDbEntity
  8
1
100
AcDbLine
 10
11.00000000000011
 20
-0.4999999999998864
 30
0.0
 11
11.00000000000011
 21
-3.499999999999886
 31
0.0
  0
LINE
  5
5E4
330
1E
100
AcDbEntity
  8
1
100
AcDbLine
 10
11.00000000000011
 20
-0.4999999999998864
 30
0.0
 11
9.100000000000022
 21
-0.4999999999998864
 31
0.0
  0
LINE
  5
5E5
330
1E
100
AcDbEntity
  8
1
100
AcDbLine
 10
11.00000000000011
 20
-3.499999999999886
 30
0.0
 11
9.100000000000022
 21
-3.499999999999886
 31
0.0
  0
LINE
  5
5E6
330
1E
100
AcDbEntity
  8
1
100
AcDbLine
 10
6.600000000000022
 20
-7.499999999999886
 30
0.0
 11
4.000000000000113
 21
-7.499999999999886
 31
0.0
  0
LINE
  5
5E7
330
1E
100
AcDbEntity
  8
1
100
AcDbLine
 10
4.000000000000113
 20
3.500000000000113
 30
0.0
 11
4.000000000000113
 21
-2.599999999999965
 31
0.0
  0
LINE
  5
5E8
330
1E
100
AcDbEntity
  8
1
100
AcDbLine
 10
4.000000000000113
 20
-5.399999999999806
 30
0.0
 11
4.000000000000113
 21
-7.499999999999886
 31
0.0
  0
LINE
  5
5E9
330
1E
100
AcDbEntity
  8
8
100
AcDbLine
 10
0.0
 20
-5.399999999999863
 30
0.0
 11
6.600000000000022
 21
-5.399999999999863
 31
0.0
  0
LINE
  5
5EA
330
1E
100
AcDbEntity
  8
8
100
AcDbLine
 10
0.0
 20
-2.599999999999909
 30
0.0
 11
6.600000000000022
 21
-2.599999999999909
 31
0.0
  0
LINE
  5
5EB
330
1E
100
AcDbEntity
  8
8
100
AcDbLine
 10
0.0
 20
-1.39999999999992
 30
0.0
 11
4.000000000000113
 21
-1.39999999999992
 31
0.0
  0
LINE
  5
5EC
330
1E
100
AcDbEntity
  8
8
100
AcDbLine
 10
0.0
 20
1.400000000000034
 30
0.0
 11
4.000000000000113
 21
1.400000000000034
 31
0.0
  0
CIRCLE
  5
5EF
330
1E
100
AcDbEntity
  8
1
100
AcDbCircle
 10
-102.3999999999999
 20
-1.97465308340304
 30
0.0
 40
17.0
  0
CIRCLE
  5
5F0
330
1E
100
AcDbEntity
  8
3
100
AcDbCircle
 10
-90.39999999999997
 20
1.525346916596959
 30
0.0
 40
0.85
  0
LINE
  5
5F1
330
1E
100
AcDbEntity
  8
CL
100
AcDbLine
 10
-90.39999999999997
 20
4.525346916596959
 30
0.0
 11
-90.39999999999997
 21
-1.47465308340304
 31
0.0
  0
LINE
  5
5F2
330
1E
100
AcDbEntity
  8
8
100
AcDbLine
 10
-92.19999999999993
 20
-2.47465308340304
 30
0.0
 11
-91.5999999999998
 21
-2.47465308340304
 31
0.0
  0
LINE
  5
5F3
330
1E
100
AcDbEntity
  8
1
100
AcDbLine
 10
-111.1999999999999
 20
4.22534691659689
 30
0.0
 11
-110.1999999999999
 21
4.22534691659689
 31
0.0
  0
LINE
  5
5F4
330
1E
100
AcDbEntity
  8
1
100
AcDbLine
 10
-111.1999999999999
 20
3.825346916596913
 30
0.0
 11
-110.1999999999999
 21
3.825346916597027
 31
0.0
  0
CIRCLE
  5
5F5
330
1E
100
AcDbEntity
  8
1
100
AcDbCircle
 10
-111.3999999999999
 20
4.025346916596959
 30
0.0
 40
1.5
  0
LINE
  5
5F6
330
1E
100
AcDbEntity
  8
1
100
AcDbLine
 10
-111.6000000000002
 20
4.22534691659689
 30
0.0
 11
-111.6
 21
5.225346916597004
 31
0.0
  0
LINE
  5
5F7
330
1E
100
AcDbEntity
  8
1
100
AcDbLine
 10
-111.1999999999999
 20
4.22534691659689
 30
0.0
 11
-111.1999999999999
 21
5.22534691659689
 31
0.0
  0
LINE
  5
5F8
330
1E
100
AcDbEntity
  8
1
100
AcDbLine
 10
-111.6
 20
2.825346916597027
 30
0.0
 11
-111.1999999999999
 21
2.825346916596913
 31
0.0
  0
LINE
  5
5F9
330
1E
100
AcDbEntity
  8
1
100
AcDbLine
 10
-111.6
 20
5.225346916597004
 30
0.0
 11
-111.1999999999999
 21
5.22534691659689
 31
0.0
  0
LINE
  5
5FA
330
1E
100
AcDbEntity
  8
1
100
AcDbLine
 10
-111.1999999999999
 20
2.825346916596913
 30
0.0
 11
-111.1999999999999
 21
3.825346916596913
 31
0.0
  0
LINE
  5
5FB
330
1E
100
AcDbEntity
  8
1
100
AcDbLine
 10
-111.6
 20
2.825346916597027
 30
0.0
 11
-111.6
 21
3.825346916596913
 31
0.0
  0
LINE
  5
5FC
330
1E
100
AcDbEntity
  8
1
100
AcDbLine
 10
-112.6
 20
3.825346916596913
 30
0.0
 11
-112.6
 21
4.225346916597004
 31
0.0
  0
LINE
  5
5FD
330
1E
100
AcDbEntity
  8
8
100
AcDbLine
 10
-112.6
 20
1.525346916596959
 30
0.0
 11
-112.6
 21
-1.47465308340304
 31
0.0
  0
LINE
  5
5FE
330
1E
100
AcDbEntity
  8
8
100
AcDbLine
 10
-112.5999999999997
 20
-1.47465308340304
 30
0.0
 11
-113.1999999999999
 21
-1.47465308340304
 31
0.0
  0
LINE
  5
5FF
330
1E
100
AcDbEntity
  8
8
100
AcDbLine
 10
-112.6
 20
1.525346916596959
 30
0.0
 11
-113.2000000000001
 21
1.525346916596959
 31
0.0
  0
LINE
  5
600
330
1E
100
AcDbEntity
  8
8
100
AcDbLine
 10
-113.2000000000001
 20
1.525346916596959
 30
0.0
 11
-113.1999999999999
 21
-1.47465308340304
 31
0.0
  0
LINE
  5
601
330
1E
100
AcDbEntity
  8
1
100
AcDbLine
 10
-112.6
 20
3.825346916596913
 30
0.0
 11
-111.6000000000002
 21
3.825346916596913
 31
0.0
  0
LINE
  5
602
330
1E
100
AcDbEntity
  8
1
100
AcDbLine
 10
-112.6
 20
4.225346916597004
 30
0.0
 11
-111.6000000000002
 21
4.225346916597004
 31
0.0
  0
LINE
  5
603
330
1E
100
AcDbEntity
  8
1
100
AcDbLine
 10
-95.21548955040804
 20
13.43257929621995
 30
0.0
 11
-96.69465346650065
 21
10.26050204159173
 31
0.0
  0
TEXT
  5
604
330
1E
100
AcDbEntity
  8
TXT
100
AcDbText
 10
-108.2749999999999
 20
5.525346916596959
 30
0.0
 40
2.5
  1
KOOKJAE
 41
0.7
  7
GHS
 72
     1
 11
-102.3999999999999
 21
5.525346916596959
 31
0.0
100
AcDbText
  0
ARC
  5
605
330
1E
100
AcDbEntity
  8
TXT
100
AcDbCircle
 10
-97.20000000000016
 20
6.775346916596959
 30
0.0
 40
1.8
100
AcDbArc
 50
270.0
 51
90.0
  0
ARC
  5
606
330
1E
100
AcDbEntity
  8
TXT
100
AcDbCircle
 10
-107.5999999999998
 20
6.775346916596959
 30
0.0
 40
1.8
100
AcDbArc
 50
90.0
 51
270.0
  0
LINE
  5
607
330
1E
100
AcDbEntity
  8
1
100
AcDbLine
 10
-110.1999999999999
 20
3.825346916597027
 30
0.0
 11
-110.1999999999999
 21
4.22534691659689
 31
0.0
  0
LINE
  5
608
330
1E
100
AcDbEntity
  8
TXT
100
AcDbLine
 10
-107.5999999999998
 20
4.975346916597004
 30
0.0
 11
-97.20000000000016
 21
4.975346916597004
 31
0.0
  0
CIRCLE
  5
609
330
1E
100
AcDbEntity
  8
1
100
AcDbCircle
 10
-102.3999999999999
 20
-1.97465308340304
 30
0.0
 40
1.75
  0
LINE
  5
60A
330
1E
100
AcDbEntity
  8
TXT
100
AcDbLine
 10
-107.5999999999998
 20
8.575346916596913
 30
0.0
 11
-97.20000000000016
 21
8.575346916596913
 31
0.0
  0
ARC
  5
60B
330
1E
100
AcDbEntity
  8
1
100
AcDbCircle
 10
-102.3999999999999
 20
-1.97465308340304
 30
0.0
 40
13.5
100
AcDbArc
 50
64.99999999999996
 51
115.0
  0
ARC
  5
60C
330
1E
100
AcDbEntity
  8
1
100
AcDbCircle
 10
-102.3999999999999
 20
-1.97465308340304
 30
0.0
 40
16.0
100
AcDbArc
 50
64.99999999999996
 51
71.79004313571723
  0
ARC
  5
60D
330
1E
100
AcDbEntity
  8
1
100
AcDbCircle
 10
-97.39999999999998
 20
13.22403107016759
 30
0.0
 40
1.0
100
AcDbArc
 50
71.79004313571723
 51
124.4370138724999
  0
LINE
  5
60E
330
1E
100
AcDbEntity
  8
1
100
AcDbLine
 10
-100.7177579737252
 20
12.16165626183692
 30
0.0
 11
-100.1522580534018
 21
11.33690791226922
 31
0.0
  0
LINE
  5
60F
330
1E
100
AcDbEntity
  8
1
100
AcDbLine
 10
-97.96549992032318
 20
14.04877941973529
 30
0.0
 11
-100.7177579737252
 21
12.16165626183692
 31
0.0
  0
LINE
  5
610
330
1E
100
AcDbEntity
  8
1
100
AcDbLine
 10
-97.39999999999998
 20
13.22403107016759
 30
0.0
 11
-100.1522580534018
 21
11.33690791226922
 31
0.0
  0
LINE
  5
611
330
1E
100
AcDbEntity
  8
1
100
AcDbLine
 10
-107.3999999999999
 20
13.22403107016759
 30
0.0
 11
-104.647741946598
 21
11.33690791226922
 31
0.0
  0
LINE
  5
612
330
1E
100
AcDbEntity
  8
1
100
AcDbLine
 10
-106.8345000796767
 20
14.04877941973529
 30
0.0
 11
-104.0822420262746
 21
12.16165626183692
 31
0.0
  0
LINE
  5
613
330
1E
100
AcDbEntity
  8
1
100
AcDbLine
 10
-104.0822420262746
 20
12.16165626183692
 30
0.0
 11
-104.647741946598
 21
11.33690791226922
 31
0.0
  0
ARC
  5
614
330
1E
100
AcDbEntity
  8
1
100
AcDbCircle
 10
-107.3999999999999
 20
13.22403107016759
 30
0.0
 40
1.0
100
AcDbArc
 50
55.56298612750006
 51
108.2099568642827
  0
ARC
  5
615
330
1E
100
AcDbEntity
  8
1
100
AcDbCircle
 10
-102.3999999999999
 20
-1.97465308340304
 30
0.0
 40
16.0
100
AcDbArc
 50
108.2099568642827
 51
115.0
  0
LINE
  5
616
330
1E
100
AcDbEntity
  8
1
100
AcDbLine
 10
-109.5845104495918
 20
13.43257929621995
 30
0.0
 11
-108.1053465334993
 21
10.26050204159173
 31
0.0
  0
ARC
  5
617
330
1E
100
AcDbEntity
  8
1
100
AcDbCircle
 10
-102.3999999999999
 20
-1.97465308340304
 30
0.0
 40
16.0
100
AcDbArc
 50
76.44424409446529
 51
103.5557559055347
  0
LINE
  5
618
330
1E
100
AcDbEntity
  8
CL
100
AcDbLine
 10
-87.39999999999998
 20
1.525346916596959
 30
0.0
 11
-93.39999999999998
 21
1.525346916596959
 31
0.0
  0
LINE
  5
619
330
1E
100
AcDbEntity
  8
8
100
AcDbLine
 10
-92.19999999999993
 20
-5.47465308340304
 30
0.0
 11
-91.5999999999998
 21
-5.47465308340304
 31
0.0
  0
LINE
  5
61A
330
1E
100
AcDbEntity
  8
1
100
AcDbLine
 10
-95.21548955040804
 20
-17.38188546302603
 30
0.0
 11
-96.69465346650065
 21
-14.20980820839781
 31
0.0
  0
TEXT
  5
61B
330
1E
100
AcDbEntity
  8
TXT
100
AcDbText
 10
-104.1999999999999
 20
-14.22465308340304
 30
0.0
 40
1.5
  1
P A
 41
0.8
  7
GHS
 72
     1
 11
-102.3999999999999
 21
-13.47465308340304
 31
0.0
100
AcDbText
 73
     2
  0
TEXT
  5
61C
330
1E
100
AcDbEntity
  8
TXT
100
AcDbText
 10
-106.3619047619047
 20
-10.97465308340304
 30
0.0
 40
2.0
  1
KOREA
 41
0.8
  7
GHS
 72
     1
 11
-102.3999999999999
 21
-10.97465308340304
 31
0.0
100
AcDbText
  0
LINE
  5
61D
330
1E
100
AcDbEntity
  8
1
100
AcDbLine
 10
-109.5845104495918
 20
-17.38188546302603
 30
0.0
 11
-108.1053465334993
 21
-14.20980820839781
 31
0.0
  0
ARC
  5
61E
330
1E
100
AcDbEntity
  8
1
100
AcDbCircle
 10
-102.3999999999999
 20
-1.97465308340304
 30
0.0
 40
16.0
100
AcDbArc
 50
244.9999999999999
 51
251.7900431357172
  0
ARC
  5
61F
330
1E
100
AcDbEntity
  8
1
100
AcDbCircle
 10
-107.3999999999999
 20
-17.17333723697367
 30
0.0
 40
1.0
100
AcDbArc
 50
251.7900431357172
 51
304.4370138724999
  0
LINE
  5
620
330
1E
100
AcDbEntity
  8
1
100
AcDbLine
 10
-104.0822420262746
 20
-16.110962428643
 30
0.0
 11
-104.647741946598
 21
-15.2862140790753
 31
0.0
  0
LINE
  5
621
330
1E
100
AcDbEntity
  8
1
100
AcDbLine
 10
-106.8345000796767
 20
-17.99808558654137
 30
0.0
 11
-104.0822420262746
 21
-16.110962428643
 31
0.0
  0
LINE
  5
622
330
1E
100
AcDbEntity
  8
1
100
AcDbLine
 10
-107.3999999999999
 20
-17.17333723697367
 30
0.0
 11
-104.647741946598
 21
-15.2862140790753
 31
0.0
  0
ARC
  5
623
330
1E
100
AcDbEntity
  8
1
100
AcDbCircle
 10
-102.3999999999999
 20
-1.97465308340304
 30
0.0
 40
16.0
100
AcDbArc
 50
288.2099568642828
 51
295.0
  0
LINE
  5
624
330
1E
100
AcDbEntity
  8
1
100
AcDbLine
 10
-100.7177579737252
 20
-16.110962428643
 30
0.0
 11
-100.1522580534018
 21
-15.2862140790753
 31
0.0
  0
LINE
  5
625
330
1E
100
AcDbEntity
  8
1
100
AcDbLine
 10
-97.96549992032318
 20
-17.99808558654137
 30
0.0
 11
-100.7177579737252
 21
-16.110962428643
 31
0.0
  0
LINE
  5
626
330
1E
100
AcDbEntity
  8
1
100
AcDbLine
 10
-97.39999999999998
 20
-17.17333723697367
 30
0.0
 11
-100.1522580534018
 21
-15.2862140790753
 31
0.0
  0
ARC
  5
627
330
1E
100
AcDbEntity
  8
1
100
AcDbCircle
 10
-97.39999999999998
 20
-17.17333723697367
 30
0.0
 40
1.0
100
AcDbArc
 50
235.5629861275
 51
288.2099568642828
  0
ARC
  5
628
330
1E
100
AcDbEntity
  8
1
100
AcDbCircle
 10
-102.3999999999999
 20
-1.97465308340304
 30
0.0
 40
16.0
100
AcDbArc
 50
256.4442440944652
 51
283.5557559055347
  0
ARC
  5
629
330
1E
100
AcDbEntity
  8
1
100
AcDbCircle
 10
-102.3999999999999
 20
-1.97465308340304
 30
0.0
 40
13.5
100
AcDbArc
 50
244.9999999999999
 51
295.0
  0
LINE
  5
62A
330
1E
100
AcDbEntity
  8
8
100
AcDbLine
 10
-91.5999999999998
 20
-5.47465308340304
 30
0.0
 11
-91.60000000000001
 21
-2.47465308340304
 31
0.0
  0
CIRCLE
  5
62B
330
1E
100
AcDbEntity
  8
1
100
AcDbCircle
 10
-102.3999999999999
 20
-1.97465308340304
 30
0.0
 40
5.5
  0
LINE
  5
62C
330
1E
100
AcDbEntity
  8
8
100
AcDbLine
 10
-92.19999999999993
 20
-5.47465308340304
 30
0.0
 11
-92.19999999999993
 21
-2.47465308340304
 31
0.0
  0
LINE
  5
62D
330
1E
100
AcDbEntity
  8
CL
100
AcDbLine
 10
-114.3999999999999
 20
-8.47465308340304
 30
0.0
 11
-114.3999999999999
 21
-2.47465308340304
 31
0.0
  0
CIRCLE
  5
62E
330
1E
100
AcDbEntity
  8
3
100
AcDbCircle
 10
-114.3999999999999
 20
-5.47465308340304
 30
0.0
 40
0.85
  0
LINE
  5
62F
330
1E
100
AcDbEntity
  8
CL
100
AcDbLine
 10
-117.3999999999999
 20
-5.47465308340304
 30
0.0
 11
-111.3999999999999
 21
-5.47465308340304
 31
0.0
  0
CIRCLE
  5
67D
330
1E
100
AcDbEntity
  8
1
100
AcDbCircle
 10
-102.3999999999999
 20
47.02534691659695
 30
0.0
 40
3.5
  0
TEXT
  5
B99
330
1E
100
AcDbEntity
  8
3
100
AcDbText
 10
-65.39999999999998
 20
81.00000000000012
 30
0.0
 40
4.0
  1
4-M4 TAP
 41
0.6
  7
GHS
100
AcDbText
  0
TEXT
  5
B9A
330
1E
100
AcDbEntity
  8
3
100
AcDbText
 10
-65.39999999999998
 20
73.52380952380963
 30
0.0
 40
4.0
  1
DP: 10
 41
0.6
  7
GHS
100
AcDbText
  0
TEXT
  5
B9B
330
1E
100
AcDbEntity
  8
3
100
AcDbText
 10
-31.39999999999997
 20
79.00000000000011
 30
0.0
 40
4.0
  1
SPRING PIN
 41
0.6
  7
GHS
100
AcDbText
  0
TEXT
  5
B9C
330
1E
100
AcDbEntity
  8
3
100
AcDbText
 10
-31.39999999999997
 20
71.00000000000012
 30
0.0
 40
4.0
  1
%%C3-L32
 41
0.6
  7
GHS
100
AcDbText
  0
ENDSEC
  0
SECTION
  2
OBJECTS
  0
DICTIONARY
  5
C
330
0
100
AcDbDictionary
  3
ACAD_GROUP
350
D
  3
ACAD_LAYOUT
350
19
  3
ACAD_MLINESTYLE
350
16
  3
ACAD_PLOTSETTINGS
350
18
  3
ACAD_PLOTSTYLENAME
350
E
  3
ACDBHEADERROUNDTRIPXREC
350
E20
  3
ACDBVARIABLEDICTIONARY
350
463
  0
DICTIONARY
  5
42E
330
1E
100
AcDbDictionary
280
     1
  3
ACAD_LAYOUTSELFREF
360
E42
  0
DICTIONARY
  5
430
330
1A
100
AcDbDictionary
280
     1
  3
ACAD_LAYOUTSELFREF
360
E41
  0
DICTIONARY
  5
D
102
{ACAD_REACTORS
330
C
102
}
330
C
100
AcDbDictionary
  0
DICTIONARY
  5
19
102
{ACAD_REACTORS
330
C
102
}
330
C
100
AcDbDictionary
  0
DICTIONARY
  5
16
102
{ACAD_REACTORS
330
C
102
}
330
C
100
AcDbDictionary
  3
STANDARD
350
17
  0
DICTIONARY
  5
18
102
{ACAD_REACTORS
330
C
102
}
330
C
100
AcDbDictionary
  0
ACDBDICTIONARYWDFLT
  5
E
102
{ACAD_REACTORS
330
C
102
}
330
C
100
AcDbDictionary
281
     1
  3
Normal
350
F
100
AcDbDictionaryWithDefault
340
F
  0
DICTIONARY
  5
E20
102
{ACAD_REACTORS
330
C
102
}
330
C
100
AcDbDictionary
  3
CEPSNTYPE
350
E2A
  3
DIMSTYLEDATA
350
E2E
  3
FINGERPRINTGUID
350
E2B
  3
HYPERLINKBASE
350
E23
  3
INSUNITS
350
E29
  3
LAYOUTDICT
350
E25
  3
LWETCUNION
350
E28
  3
PLOTSETDICT
350
E26
  3
PLOTSTYLNAMDICT
350
E27
  3
PSVPSCALE
350
E2D
  3
PUCSBASE
350
E31
  3
PUCSORGBACK
350
E37
  3
PUCSORGBOTTOM
350
E33
  3
PUCSORGFRONT
350
E36
  3
PUCSORGLEFT
350
E34
  3
PUCSORGRIGHT
350
E35
  3
PUCSORGTOP
350
E32
  3
PUCSORTHOREF
350
E2F
  3
PUCSORTHOVIEW
350
E30
  3
STYLESHEET
350
E24
  3
TSTACKALIGN
350
E21
  3
TSTACKSIZE
350
E22
  3
UCSBASE
350
E3A
  3
UCSORGBACK
350
E40
  3
UCSORGBOTTOM
350
E3C
  3
UCSORGFRONT
350
E3F
  3
UCSORGLEFT
350
E3D
  3
UCSORGRIGHT
350
E3E
  3
UCSORGTOP
350
E3B
  3
UCSORTHOREF
350
E38
  3
UCSORTHOVIEW
350
E39
  3
VERSIONGUID
350
E2C
  0
DICTIONARY
  5
463
102
{ACAD_REACTORS
330
C
102
}
330
C
100
AcDbDictionary
  3
DIMASSOC
350
465
  3
HIDETEXT
350
464
  0
XRECORD
  5
E42
102
{ACAD_REACTORS
330
42E
102
}
330
42E
100
AcDbXrecord
340
1E
  0
XRECORD
  5
E41
102
{ACAD_REACTORS
330
430
102
}
330
430
100
AcDbXrecord
340
1A
  0
MLINESTYLE
  5
17
102
{ACAD_REACTORS
330
16
102
}
330
16
100
AcDbMlineStyle
  2
STANDARD
 70
     0
  3

 62
   256
 51
90.0
 52
90.0
 71
     2
 49
0.5
 62
   256
  6
BYLAYER
 49
-0.5
 62
   256
  6
BYLAYER
  0
ACDBPLACEHOLDER
  5
F
102
{ACAD_REACTORS
330
E
102
}
330
E
100
AcDbPlaceHolder
280
     0
  0
XRECORD
  5
E2A
102
{ACAD_REACTORS
330
E20
102
}
330
E20
100
AcDbXrecord
 90
        0
  0
XRECORD
  5
E2E
102
{ACAD_REACTORS
330
E20
102
}
330
E20
100
AcDbXrecord
1000
DSTYLE
1002
{
1070
   279
 70
     2
1002
}
  0
XRECORD
  5
E2B
102
{ACAD_REACTORS
330
E20
102
}
330
E20
100
AcDbXrecord
  1
{EF94F2A2-B8D1-11D6-AAF0-00A0B0098DBC}
  0
XRECORD
  5
E23
102
{ACAD_REACTORS
330
E20
102
}
330
E20
100
AcDbXrecord
  1

  0
XRECORD
  5
E29
102
{ACAD_REACTORS
330
E20
102
}
330
E20
100
AcDbXrecord
 90
        0
  0
XRECORD
  5
E25
102
{ACAD_REACTORS
330
E20
102
}
330
E20
100
AcDbXrecord
340
19
  0
XRECORD
  5
E28
102
{ACAD_REACTORS
330
E20
102
}
330
E20
100
AcDbXrecord
 90
    10781
  0
XRECORD
  5
E26
102
{ACAD_REACTORS
330
E20
102
}
330
E20
100
AcDbXrecord
340
18
  0
XRECORD
  5
E27
102
{ACAD_REACTORS
330
E20
102
}
330
E20
100
AcDbXrecord
340
E
  0
XRECORD
  5
E2D
102
{ACAD_REACTORS
330
E20
102
}
330
E20
100
AcDbXrecord
 40
0.0
  0
XRECORD
  5
E31
102
{ACAD_REACTORS
330
E20
102
}
330
E20
100
AcDbXrecord
340
0
  0
XRECORD
  5
E37
102
{ACAD_REACTORS
330
E20
102
}
330
E20
100
AcDbXrecord
 10
0.0
 20
0.0
 30
0.0
  0
XRECORD
  5
E33
102
{ACAD_REACTORS
330
E20
102
}
330
E20
100
AcDbXrecord
 10
0.0
 20
0.0
 30
0.0
  0
XRECORD
  5
E36
102
{ACAD_REACTORS
330
E20
102
}
330
E20
100
AcDbXrecord
 10
0.0
 20
0.0
 30
0.0
  0
XRECORD
  5
E34
102
{ACAD_REACTORS
330
E20
102
}
330
E20
100
AcDbXrecord
 10
0.0
 20
0.0
 30
0.0
  0
XRECORD
  5
E35
102
{ACAD_REACTORS
330
E20
102
}
330
E20
100
AcDbXrecord
 10
0.0
 20
0.0
 30
0.0
  0
XRECORD
  5
E32
102
{ACAD_REACTORS
330
E20
102
}
330
E20
100
AcDbXrecord
 10
0.0
 20
0.0
 30
0.0
  0
XRECORD
  5
E2F
102
{ACAD_REACTORS
330
E20
102
}
330
E20
100
AcDbXrecord
340
0
  0
XRECORD
  5
E30
102
{ACAD_REACTORS
330
E20
102
}
330
E20
100
AcDbXrecord
 70
     0
  0
XRECORD
  5
E24
102
{ACAD_REACTORS
330
E20
102
}
330
E20
100
AcDbXrecord
  1
acad.ctb
  0
XRECORD
  5
E21
102
{ACAD_REACTORS
330
E20
102
}
330
E20
100
AcDbXrecord
 90
        1
  0
XRECORD
  5
E22
102
{ACAD_REACTORS
330
E20
102
}
330
E20
100
AcDbXrecord
 90
       70
  0
XRECORD
  5
E3A
102
{ACAD_REACTORS
330
E20
102
}
330
E20
100
AcDbXrecord
340
0
  0
XRECORD
  5
E40
102
{ACAD_REACTORS
330
E20
102
}
330
E20
100
AcDbXrecord
 10
0.0
 20
0.0
 30
0.0
  0
XRECORD
  5
E3C
102
{ACAD_REACTORS
330
E20
102
}
330
E20
100
AcDbXrecord
 10
0.0
 20
0.0
 30
0.0
  0
XRECORD
  5
E3F
102
{ACAD_REACTORS
330
E20
102
}
330
E20
100
AcDbXrecord
 10
0.0
 20
0.0
 30
0.0
  0
XRECORD
  5
E3D
102
{ACAD_REACTORS
330
E20
102
}
330
E20
100
AcDbXrecord
 10
0.0
 20
0.0
 30
0.0
  0
XRECORD
  5
E3E
102
{ACAD_REACTORS
330
E20
102
}
330
E20
100
AcDbXrecord
 10
0.0
 20
0.0
 30
0.0
  0
XRECORD
  5
E3B
102
{ACAD_REACTORS
330
E20
102
}
330
E20
100
AcDbXrecord
 10
0.0
 20
0.0
 30
0.0
  0
XRECORD
  5
E38
102
{ACAD_REACTORS
330
E20
102
}
330
E20
100
AcDbXrecord
340
0
  0
XRECORD
  5
E39
102
{ACAD_REACTORS
330
E20
102
}
330
E20
100
AcDbXrecord
 70
     0
  0
XRECORD
  5
E2C
102
{ACAD_REACTORS
330
E20
102
}
330
E20
100
AcDbXrecord
  1
{DA5B3F1C-ED13-46F4-9138-0B561F95ACDC}
  0
DICTIONARYVAR
  5
465
102
{ACAD_REACTORS
330
463
102
}
330
463
100
DictionaryVariables
280
     0
  1
2
  0
DICTIONARYVAR
  5
464
102
{ACAD_REACTORS
330
463
102
}
330
463
100
DictionaryVariables
280
     0
  1
1
  0
ENDSEC
  0
EOF
