  0
SECTION
  2
HEADER
  9
$ACADVER
  1
AC1018
  9
$ACADMAINTVER
 70
   104
  9
$DWGCODEPAGE
  3
ANSI_949
  9
$LASTSAVEDBY
  1
R&D
  9
$INSBASE
 10
2895.0
 20
134.0
 30
0.0
  9
$EXTMIN
 10
2896.5
 20
25.99999887009472
 30
0.0
  9
$EXTMAX
 10
3085.0
 20
131.0
 30
0.0
  9
$LIMMIN
 10
0.0
 20
0.0
  9
$LIMMAX
 10
4205.0
 20
2970.0
  9
$ORTHOMODE
 70
     0
  9
$REGENMODE
 70
     1
  9
$FILLMODE
 70
     1
  9
$QTEXTMODE
 70
     0
  9
$MIRRTEXT
 70
     1
  9
$LTSCALE
 40
5.0
  9
$ATTMODE
 70
     1
  9
$TEXTSIZE
 40
4.0
  9
$TRACEWID
 40
0.05
  9
$TEXTSTYLE
  7
GHS
  9
$CLAYER
  8
TEXT
  9
$CELTYPE
  6
ByLayer
  9
$CECOLOR
 62
   256
  9
$CELTSCALE
 40
1.0
  9
$DISPSILH
 70
     0
  9
$DIMSCALE
 40
1.0
  9
$DIMASZ
 40
4.0
  9
$DIMEXO
 40
1.0
  9
$DIMDLI
 40
1.0
  9
$DIMRND
 40
0.0
  9
$DIMDLE
 40
0.0
  9
$DIMEXE
 40
1.0
  9
$DIMTP
 40
0.0
  9
$DIMTM
 40
0.0
  9
$DIMTXT
 40
5.0
  9
$DIMCEN
 40
0.5
  9
$DIMTSZ
 40
0.0
  9
$DIMTOL
 70
     0
  9
$DIMLIM
 70
     0
  9
$DIMTIH
 70
     0
  9
$DIMTOH
 70
     0
  9
$DIMSE1
 70
     0
  9
$DIMSE2
 70
     0
  9
$DIMTAD
 70
     1
  9
$DIMZIN
 70
     8
  9
$DIMBLK
  1

  9
$DIMASO
 70
     1
  9
$DIMSHO
 70
     1
  9
$DIMPOST
  1

  9
$DIMAPOST
  1

  9
$DIMALT
 70
     0
  9
$DIMALTD
 70
     2
  9
$DIMALTF
 40
25.4
  9
$DIMLFAC
 40
1.0
  9
$DIMTOFL
 70
     1
  9
$DIMTVP
 40
0.0
  9
$DIMTIX
 70
     0
  9
$DIMSOXD
 70
     0
  9
$DIMSAH
 70
     0
  9
$DIMBLK1
  1

  9
$DIMBLK2
  1

  9
$DIMSTYLE
  2
Standard
  9
$DIMCLRD
 70
   256
  9
$DIMCLRE
 70
   256
  9
$DIMCLRT
 70
   256
  9
$DIMTFAC
 40
1.0
  9
$DIMGAP
 40
1.5
  9
$DIMJUST
 70
     0
  9
$DIMSD1
 70
     0
  9
$DIMSD2
 70
     0
  9
$DIMTOLJ
 70
     1
  9
$DIMTZIN
 70
     0
  9
$DIMALTZ
 70
     0
  9
$DIMALTTZ
 70
     0
  9
$DIMUPT
 70
     0
  9
$DIMDEC
 70
     3
  9
$DIMTDEC
 70
     3
  9
$DIMALTU
 70
     2
  9
$DIMALTTD
 70
     2
  9
$DIMTXSTY
  7
GHS
  9
$DIMAUNIT
 70
     0
  9
$DIMADEC
 70
     0
  9
$DIMALTRND
 40
0.0
  9
$DIMAZIN
 70
     0
  9
$DIMDSEP
 70
    46
  9
$DIMATFIT
 70
     3
  9
$DIMFRAC
 70
     0
  9
$DIMLDRBLK
  1

  9
$DIMLUNIT
 70
     2
  9
$DIMLWD
 70
    -1
  9
$DIMLWE
 70
    -1
  9
$DIMTMOVE
 70
     0
  9
$LUNITS
 70
     2
  9
$LUPREC
 70
     3
  9
$SKETCHINC
 40
0.1
  9
$FILLETRAD
 40
4.0
  9
$AUNITS
 70
     0
  9
$AUPREC
 70
     3
  9
$MENU
  1
acad
  9
$ELEVATION
 40
0.0
  9
$PELEVATION
 40
0.0
  9
$THICKNESS
 40
0.0
  9
$LIMCHECK
 70
     0
  9
$CHAMFERA
 40
0.0
  9
$CHAMFERB
 40
0.0
  9
$CHAMFERC
 40
0.0
  9
$CHAMFERD
 40
0.0
  9
$SKPOLY
 70
     0
  9
$TDCREATE
 40
2449855.468823958
  9
$TDUCREATE
 40
2449855.093823958
  9
$TDUPDATE
 40
2455883.635197905
  9
$TDUUPDATE
 40
2455883.260197905
  9
$TDINDWG
 40
4.0531498380
  9
$TDUSRTIMER
 40
4.0531498380
  9
$USRTIMER
 70
     1
  9
$ANGBASE
 50
0.0
  9
$ANGDIR
 70
     0
  9
$PDMODE
 70
     0
  9
$PDSIZE
 40
0.0
  9
$PLINEWID
 40
0.0
  9
$SPLFRAME
 70
     0
  9
$SPLINETYPE
 70
     6
  9
$SPLINESEGS
 70
     8
  9
$HANDSEED
  5
22B
  9
$SURFTAB1
 70
     6
  9
$SURFTAB2
 70
     6
  9
$SURFTYPE
 70
     6
  9
$SURFU
 70
     6
  9
$SURFV
 70
     6
  9
$UCSBASE
  2

  9
$UCSNAME
  2

  9
$UCSORG
 10
0.0
 20
0.0
 30
0.0
  9
$UCSXDIR
 10
1.0
 20
0.0
 30
0.0
  9
$UCSYDIR
 10
0.0
 20
1.0
 30
0.0
  9
$UCSORTHOREF
  2

  9
$UCSORTHOVIEW
 70
     0
  9
$UCSORGTOP
 10
0.0
 20
0.0
 30
0.0
  9
$UCSORGBOTTOM
 10
0.0
 20
0.0
 30
0.0
  9
$UCSORGLEFT
 10
0.0
 20
0.0
 30
0.0
  9
$UCSORGRIGHT
 10
0.0
 20
0.0
 30
0.0
  9
$UCSORGFRONT
 10
0.0
 20
0.0
 30
0.0
  9
$UCSORGBACK
 10
0.0
 20
0.0
 30
0.0
  9
$PUCSBASE
  2

  9
$PUCSNAME
  2

  9
$PUCSORG
 10
0.0
 20
0.0
 30
0.0
  9
$PUCSXDIR
 10
1.0
 20
0.0
 30
0.0
  9
$PUCSYDIR
 10
0.0
 20
1.0
 30
0.0
  9
$PUCSORTHOREF
  2

  9
$PUCSORTHOVIEW
 70
     0
  9
$PUCSORGTOP
 10
0.0
 20
0.0
 30
0.0
  9
$PUCSORGBOTTOM
 10
0.0
 20
0.0
 30
0.0
  9
$PUCSORGLEFT
 10
0.0
 20
0.0
 30
0.0
  9
$PUCSORGRIGHT
 10
0.0
 20
0.0
 30
0.0
  9
$PUCSORGFRONT
 10
0.0
 20
0.0
 30
0.0
  9
$PUCSORGBACK
 10
0.0
 20
0.0
 30
0.0
  9
$USERI1
 70
     0
  9
$USERI2
 70
     0
  9
$USERI3
 70
     0
  9
$USERI4
 70
     0
  9
$USERI5
 70
     0
  9
$USERR1
 40
0.0
  9
$USERR2
 40
0.0
  9
$USERR3
 40
0.0
  9
$USERR4
 40
0.0
  9
$USERR5
 40
0.0
  9
$WORLDVIEW
 70
     1
  9
$SHADEDGE
 70
     3
  9
$SHADEDIF
 70
    70
  9
$TILEMODE
 70
     1
  9
$MAXACTVP
 70
    16
  9
$PINSBASE
 10
2220.404641079056
 20
50.00000000000001
 30
2810.473195709564
  9
$PLIMCHECK
 70
     0
  9
$PEXTMIN
 10
1.000000000000000E+20
 20
1.000000000000000E+20
 30
1.000000000000000E+20
  9
$PEXTMAX
 10
-1.000000000000000E+20
 20
-1.000000000000000E+20
 30
-1.000000000000000E+20
  9
$PLIMMIN
 10
0.0
 20
0.0
  9
$PLIMMAX
 10
12.0
 20
9.0
  9
$UNITMODE
 70
     0
  9
$VISRETAIN
 70
     0
  9
$PLINEGEN
 70
     0
  9
$PSLTSCALE
 70
     1
  9
$TREEDEPTH
 70
  3020
  9
$CMLSTYLE
  2
Standard
  9
$CMLJUST
 70
     0
  9
$CMLSCALE
 40
1.0
  9
$PROXYGRAPHICS
 70
     1
  9
$MEASUREMENT
 70
     0
  9
$CELWEIGHT
370
    -1
  9
$ENDCAPS
280
     0
  9
$JOINSTYLE
280
     0
  9
$LWDISPLAY
290
     0
  9
$INSUNITS
 70
     0
  9
$HYPERLINKBASE
  1

  9
$STYLESHEET
  1

  9
$XEDIT
290
     1
  9
$CEPSNTYPE
380
     0
  9
$PSTYLEMODE
290
     1
  9
$FINGERPRINTGUID
  2
{1FC8136B-DFA0-41D5-AD50-5B36AB91CEA6}
  9
$VERSIONGUID
  2
{2C7E3435-6C68-4E5F-A45E-DAEE84716161}
  9
$EXTNAMES
290
     1
  9
$PSVPSCALE
 40
0.0
  9
$OLESTARTUP
290
     0
  9
$SORTENTS
280
   127
  9
$INDEXCTL
280
     0
  9
$HIDETEXT
280
     1
  9
$XCLIPFRAME
290
     0
  9
$HALOGAP
280
     0
  9
$OBSCOLOR
 70
   257
  9
$OBSLTYPE
280
     0
  9
$INTERSECTIONDISPLAY
280
     0
  9
$INTERSECTIONCOLOR
 70
   257
  9
$DIMASSOC
280
     2
  9
$PROJECTNAME
  1

  0
ENDSEC
  0
SECTION
  2
CLASSES
  0
CLASS
  1
ACDBDICTIONARYWDFLT
  2
AcDbDictionaryWithDefault
  3
ObjectDBX Classes
 90
        0
 91
        1
280
     0
281
     0
  0
CLASS
  1
DICTIONARYVAR
  2
AcDbDictionaryVar
  3
ObjectDBX Classes
 90
        0
 91
        9
280
     0
281
     0
  0
CLASS
  1
DIMASSOC
  2
AcDbDimAssoc
  3
"AcDbDimAssoc|Product Desc:     AcDim ARX App For Dimension|Company:          Autodesk, Inc.|WEB Address:      www.autodesk.com"
 90
        0
 91
        0
280
     0
281
     0
  0
CLASS
  1
MATERIAL
  2
AcDbMaterial
  3
ObjectDBX Classes
 90
     1153
 91
        3
280
     0
281
     0
  0
CLASS
  1
VISUALSTYLE
  2
AcDbVisualStyle
  3
ObjectDBX Classes
 90
     4095
 91
       16
280
     0
281
     0
  0
CLASS
  1
TABLESTYLE
  2
AcDbTableStyle
  3
ObjectDBX Classes
 90
     4095
 91
        1
280
     0
281
     0
  0
CLASS
  1
SCALE
  2
AcDbScale
  3
ObjectDBX Classes
 90
     1153
 91
       34
280
     0
281
     0
  0
CLASS
  1
MLEADERSTYLE
  2
AcDbMLeaderStyle
  3
ACDB_MLEADERSTYLE_CLASS
 90
     4095
 91
        1
280
     0
281
     0
  0
CLASS
  1
CELLSTYLEMAP
  2
AcDbCellStyleMap
  3
ObjectDBX Classes
 90
     1152
 91
        2
280
     0
281
     0
  0
CLASS
  1
SORTENTSTABLE
  2
AcDbSortentsTable
  3
ObjectDBX Classes
 90
        0
 91
        1
280
     0
281
     0
  0
CLASS
  1
ACDB_TEXTOBJECTCONTEXTDATA_CLASS
  2
AcDbTextObjectContextData
  3
ObjectDBX Classes
 90
     1153
 91
        0
280
     0
281
     0
  0
CLASS
  1
SOLID_BACKGROUND
  2
AcDbSolidBackground
  3
SCENEOE
 90
     4095
 91
        0
280
     0
281
     0
  0
CLASS
  1
NPOCOLLECTION
  2
AcDbImpNonPersistentObjectsCollection
  3
ObjectDBX Classes
 90
     1153
 91
        0
280
     0
281
     0
  0
ENDSEC
  0
SECTION
  2
TABLES
  0
TABLE
  2
VPORT
  5
2F
102
{ACAD_XDICTIONARY
360
33
102
}
330
0
100
AcDbSymbolTable
 70
     1
  0
VPORT
  5
30
330
2F
100
AcDbSymbolTableRecord
100
AcDbViewportTableRecord
  2
*Active
 70
     0
 10
0.0
 20
0.0
 11
1.0
 21
1.0
 12
2990.660435735465
 22
78.62711937017412
 13
0.0
 23
0.0
 14
1.0
 24
1.0
 15
0.0
 25
0.0
 16
0.0
 26
0.0
 36
1.0
 17
0.0
 27
0.0
 37
0.0
 40
117.6805797234582
 41
1.889
 42
50.0
 43
0.0
 44
0.0
 50
0.0
 51
0.0
 71
     0
 72
 10000
 73
     1
 74
     0
 75
     0
 76
     0
 77
     0
 78
     0
281
     0
 65
     1
110
0.0
120
0.0
130
0.0
111
1.0
121
0.0
131
0.0
112
0.0
122
1.0
132
0.0
 79
     0
146
0.0
  0
ENDTAB
  0
TABLE
  2
LTYPE
  5
2A
330
0
100
AcDbSymbolTable
 70
     2
  0
LTYPE
  5
2B
330
2A
100
AcDbSymbolTableRecord
100
AcDbLinetypeTableRecord
  2
ByBlock
 70
     0
  3

 72
    65
 73
     0
 40
0.0
  0
LTYPE
  5
2C
330
2A
100
AcDbSymbolTableRecord
100
AcDbLinetypeTableRecord
  2
ByLayer
 70
     0
  3

 72
    65
 73
     0
 40
0.0
  0
LTYPE
  5
16
330
2A
100
AcDbSymbolTableRecord
100
AcDbLinetypeTableRecord
  2
CONTINUOUS
 70
     0
  3
Solid line
 72
    65
 73
     0
 40
0.0
  0
LTYPE
  5
9B
330
2A
100
AcDbSymbolTableRecord
100
AcDbLinetypeTableRecord
  2
CENTER
 70
     0
  3
____ _ ____ _ ____ _ ____ _ ____ _ ____ _ ____ 
 72
    65
 73
     4
 40
2.0
 49
1.25
 74
     0
 49
-0.25
 74
     0
 49
0.25
 74
     0
 49
-0.25
 74
     0
  0
ENDTAB
  0
TABLE
  2
LAYER
  5
21
102
{ACAD_XDICTIONARY
360
22
102
}
330
0
100
AcDbSymbolTable
 70
     4
  0
LAYER
  5
7
102
{ACAD_XDICTIONARY
360
8
102
}
330
21
100
AcDbSymbolTableRecord
100
AcDbLayerTableRecord
  2
0
 70
     0
 62
     7
  6
CONTINUOUS
370
    -3
390
A
  0
LAYER
  5
98
102
{ACAD_XDICTIONARY
360
99
102
}
330
21
100
AcDbSymbolTableRecord
100
AcDbLayerTableRecord
  2
CL
 70
     0
 62
     1
  6
CENTER
370
    -3
390
A
  0
LAYER
  5
D2
330
21
100
AcDbSymbolTableRecord
100
AcDbLayerTableRecord
  2
DEFPOINTS
 70
     0
 62
     7
  6
CONTINUOUS
290
     0
370
    -3
390
A
  0
LAYER
  5
5C
102
{ACAD_XDICTIONARY
360
5D
102
}
330
21
100
AcDbSymbolTableRecord
100
AcDbLayerTableRecord
  2
TEXT
 70
     0
 62
    84
  6
CONTINUOUS
370
    -3
390
A
  0
ENDTAB
  0
TABLE
  2
STYLE
  5
27
330
0
100
AcDbSymbolTable
 70
     2
  0
STYLE
  5
28
330
27
100
AcDbSymbolTableRecord
100
AcDbTextStyleTableRecord
  2
STANDARD
 70
     0
 40
0.0
 41
0.8
 50
0.0
 71
     0
 42
4.0
  3
TXT.shx
  4

  0
STYLE
  5
37
330
27
100
AcDbSymbolTableRecord
100
AcDbTextStyleTableRecord
  2
GHS
 70
     0
 40
0.0
 41
0.6
 50
0.0
 71
     0
 42
4.0
  3
ROMANS
  4
GHS
  0
ENDTAB
  0
TABLE
  2
VIEW
  5
2D
330
0
100
AcDbSymbolTable
 70
     0
  0
ENDTAB
  0
TABLE
  2
UCS
  5
2E
330
0
100
AcDbSymbolTable
 70
     0
  0
ENDTAB
  0
TABLE
  2
APPID
  5
34
330
0
100
AcDbSymbolTable
 70
     9
  0
APPID
  5
26
330
34
100
AcDbSymbolTableRecord
100
AcDbRegAppTableRecord
  2
ACAD
 70
     0
  0
APPID
  5
38
330
34
100
AcDbSymbolTableRecord
100
AcDbRegAppTableRecord
  2
ACAD_DSTYLE_DIMJAG
 70
     0
  0
APPID
  5
39
330
34
100
AcDbSymbolTableRecord
100
AcDbRegAppTableRecord
  2
ACAD_DSTYLE_DIMTALN
 70
     0
  0
APPID
  5
1A
330
34
100
AcDbSymbolTableRecord
100
AcDbRegAppTableRecord
  2
ACAD_PSEXT
 70
     0
  0
APPID
  5
42
330
34
100
AcDbSymbolTableRecord
100
AcDbRegAppTableRecord
  2
ACAD_DSTYLE_DIMBREAK
 70
     0
  0
APPID
  5
1DD
330
34
100
AcDbSymbolTableRecord
100
AcDbRegAppTableRecord
  2
ACAD_DSTYLE_DIM_LINETYPE
 70
     0
  0
APPID
  5
1DE
330
34
100
AcDbSymbolTableRecord
100
AcDbRegAppTableRecord
  2
ACAD_DSTYLE_DIM_EXT1_LINETYPE
 70
     0
  0
APPID
  5
1DF
330
34
100
AcDbSymbolTableRecord
100
AcDbRegAppTableRecord
  2
ACAD_DSTYLE_DIM_EXT2_LINETYPE
 70
     0
  0
APPID
  5
200
330
34
100
AcDbSymbolTableRecord
100
AcDbRegAppTableRecord
  2
ACAD_MLEADERVER
 70
     0
  0
ENDTAB
  0
TABLE
  2
DIMSTYLE
  5
35
330
0
100
AcDbSymbolTable
 70
     5
100
AcDbDimStyleTable
 71
     5
340
36
340
3A
340
3B
340
43
340
44
  0
DIMSTYLE
105
36
330
35
100
AcDbSymbolTableRecord
100
AcDbDimStyleTableRecord
  2
Standard
 70
     0
 41
4.0
 42
1.0
 43
1.0
 44
1.0
 73
     0
 74
     0
 77
     1
 78
     8
140
5.0
141
0.5
147
1.5
172
     1
176
   256
177
   256
178
   256
271
     3
272
     3
340
37
371
    -1
372
    -1
1001
ACAD_DSTYLE_DIMJAG
1070
   388
1040
1.5
1001
ACAD_DSTYLE_DIMTALN
1070
   392
1070
     0
1001
ACAD_DSTYLE_DIM_LINETYPE
1070
   380
1005
2C
1001
ACAD_DSTYLE_DIM_EXT1_LINETYPE
1070
   381
1005
2C
1001
ACAD_DSTYLE_DIM_EXT2_LINETYPE
1070
   382
1005
2C
  0
DIMSTYLE
105
3A
330
35
100
AcDbSymbolTableRecord
100
AcDbDimStyleTableRecord
  2
ISO-25
 70
     0
 41
4.0
 42
2.0
 43
1.0
 44
1.0
 73
     0
 74
     0
 77
     1
 78
     8
 79
     2
140
4.0
141
0.5
143
0.03937007874016
147
1.5
171
     3
172
     1
176
   256
177
   256
178
   256
179
     4
271
     3
272
     3
274
     3
283
     0
284
     8
340
37
371
    -1
372
    -1
1001
ACAD_DSTYLE_DIMJAG
1070
   388
1040
1.5
1001
ACAD_DSTYLE_DIMTALN
1070
   392
1070
     0
1001
ACAD_DSTYLE_DIM_LINETYPE
1070
   380
1005
2C
1001
ACAD_DSTYLE_DIM_EXT1_LINETYPE
1070
   381
1005
2C
1001
ACAD_DSTYLE_DIM_EXT2_LINETYPE
1070
   382
1005
2C
  0
DIMSTYLE
105
43
330
35
100
AcDbSymbolTableRecord
100
AcDbDimStyleTableRecord
  2
2X
 70
     0
 41
3.0
 42
1.0
 43
1.0
 44
1.0
 73
     0
 74
     0
 77
     1
 78
     8
 79
     2
140
3.0
141
0.5
144
0.5
147
1.0
172
     1
176
   256
177
   256
178
   256
179
     3
271
     3
272
     3
340
37
371
    -1
372
    -1
1001
ACAD_DSTYLE_DIMBREAK
1070
   391
1040
0.125
1001
ACAD_DSTYLE_DIMJAG
1070
   388
1040
1.5
1001
ACAD_DSTYLE_DIMTALN
1070
   392
1070
     0
1001
ACAD_DSTYLE_DIM_LINETYPE
1070
   380
1005
2C
1001
ACAD_DSTYLE_DIM_EXT1_LINETYPE
1070
   381
1005
2C
1001
ACAD_DSTYLE_DIM_EXT2_LINETYPE
1070
   382
1005
2C
  0
DIMSTYLE
105
44
102
{ACAD_REACTORS
330
12A
330
11D
330
10E
330
FF
330
E5
330
F2
330
D6
330
C8
330
16F
330
162
330
17E
102
}
330
35
100
AcDbSymbolTableRecord
100
AcDbDimStyleTableRecord
  2
1X
 70
     0
 41
3.0
 42
1.0
 43
1.0
 44
1.0
 73
     0
 74
     0
 77
     1
 78
     8
140
3.0
141
0.5
147
1.0
172
     1
176
   256
177
   256
178
   256
271
     3
272
     3
340
37
371
    -1
372
    -1
1001
ACAD_DSTYLE_DIMBREAK
1070
   391
1040
0.125
1001
ACAD_DSTYLE_DIMJAG
1070
   388
1040
1.5
1001
ACAD_DSTYLE_DIMTALN
1070
   392
1070
     0
1001
ACAD_DSTYLE_DIM_LINETYPE
1070
   380
1005
2C
1001
ACAD_DSTYLE_DIM_EXT1_LINETYPE
1070
   381
1005
2C
1001
ACAD_DSTYLE_DIM_EXT2_LINETYPE
1070
   382
1005
2C
  0
DIMSTYLE
105
3B
330
35
100
AcDbSymbolTableRecord
100
AcDbDimStyleTableRecord
  2
CATALOG
 70
     0
 41
2.5
 42
1.0
 43
1.0
 44
1.0
 73
     0
 74
     0
 77
     1
 78
     8
 79
     2
140
3.0
141
0.5
147
1.0
172
     1
176
   256
177
   256
178
   256
179
     3
271
     3
272
     3
340
37
342
3C
371
    -1
372
    -1
1001
ACAD_DSTYLE_DIMBREAK
1070
   391
1040
0.125
1001
ACAD_DSTYLE_DIMJAG
1070
   388
1040
1.5
1001
ACAD_DSTYLE_DIMTALN
1070
   392
1070
     0
1001
ACAD_DSTYLE_DIM_LINETYPE
1070
   380
1005
2C
1001
ACAD_DSTYLE_DIM_EXT1_LINETYPE
1070
   381
1005
2C
1001
ACAD_DSTYLE_DIM_EXT2_LINETYPE
1070
   382
1005
2C
  0
ENDTAB
  0
TABLE
  2
BLOCK_RECORD
  5
1
330
0
100
AcDbSymbolTable
 70
    12
  0
BLOCK_RECORD
  5
2
102
{ACAD_XDICTIONARY
360
3
102
}
330
1
100
AcDbSymbolTableRecord
100
AcDbBlockTableRecord
  2
*Model_Space
340
18
  0
BLOCK_RECORD
  5
1B
102
{ACAD_XDICTIONARY
360
1C
102
}
330
1
100
AcDbSymbolTableRecord
100
AcDbBlockTableRecord
  2
*Paper_Space
340
20
  0
BLOCK_RECORD
  5
3C
330
1
100
AcDbSymbolTableRecord
100
AcDbBlockTableRecord
  2
_Open30
340
0
  0
BLOCK_RECORD
  5
C9
330
1
100
AcDbSymbolTableRecord
100
AcDbBlockTableRecord
  2
*D1
340
0
  0
BLOCK_RECORD
  5
D7
330
1
100
AcDbSymbolTableRecord
100
AcDbBlockTableRecord
  2
*D2
340
0
  0
BLOCK_RECORD
  5
E6
330
1
100
AcDbSymbolTableRecord
100
AcDbBlockTableRecord
  2
*D3
340
0
  0
BLOCK_RECORD
  5
F3
330
1
100
AcDbSymbolTableRecord
100
AcDbBlockTableRecord
  2
*D4
340
0
  0
BLOCK_RECORD
  5
100
330
1
100
AcDbSymbolTableRecord
100
AcDbBlockTableRecord
  2
*D5
340
0
  0
BLOCK_RECORD
  5
10F
330
1
100
AcDbSymbolTableRecord
100
AcDbBlockTableRecord
  2
*D6
340
0
  0
BLOCK_RECORD
  5
11E
330
1
100
AcDbSymbolTableRecord
100
AcDbBlockTableRecord
  2
*D7
340
0
  0
BLOCK_RECORD
  5
12B
330
1
100
AcDbSymbolTableRecord
100
AcDbBlockTableRecord
  2
*D8
340
0
  0
BLOCK_RECORD
  5
163
330
1
100
AcDbSymbolTableRecord
100
AcDbBlockTableRecord
  2
*D9
340
0
  0
BLOCK_RECORD
  5
170
330
1
100
AcDbSymbolTableRecord
100
AcDbBlockTableRecord
  2
*D10
340
0
  0
BLOCK_RECORD
  5
17F
330
1
100
AcDbSymbolTableRecord
100
AcDbBlockTableRecord
  2
*D11
340
0
  0
ENDTAB
  0
ENDSEC
  0
SECTION
  2
BLOCKS
  0
BLOCK
  5
6
330
2
100
AcDbEntity
  8
0
100
AcDbBlockBegin
  2
*Model_Space
 70
     0
 10
0.0
 20
0.0
 30
0.0
  3
*Model_Space
  1

  0
ENDBLK
  5
17
330
2
100
AcDbEntity
  8
0
100
AcDbBlockEnd
  0
BLOCK
  5
1E
330
1B
100
AcDbEntity
 67
     1
  8
0
100
AcDbBlockBegin
  2
*Paper_Space
 70
     0
 10
0.0
 20
0.0
 30
0.0
  3
*Paper_Space
  1

  0
ENDBLK
  5
1F
330
1B
100
AcDbEntity
 67
     1
  8
0
100
AcDbBlockEnd
  0
BLOCK
  5
3D
330
3C
100
AcDbEntity
  8
0
100
AcDbBlockBegin
  2
_Open30
 70
     0
 10
0.0
 20
0.0
 30
0.0
  3
_Open30
  1

  0
LINE
  5
3E
330
3C
100
AcDbEntity
  8
0
  6
ByBlock
 62
     0
370
    -2
100
AcDbLine
 10
-1.0
 20
0.26794919
 30
0.0
 11
0.0
 21
0.0
 31
0.0
  0
LINE
  5
3F
330
3C
100
AcDbEntity
  8
0
  6
ByBlock
 62
     0
370
    -2
100
AcDbLine
 10
0.0
 20
0.0
 30
0.0
 11
-1.0
 21
-0.26794919
 31
0.0
  0
LINE
  5
40
330
3C
100
AcDbEntity
  8
0
  6
ByBlock
 62
     0
370
    -2
100
AcDbLine
 10
0.0
 20
0.0
 30
0.0
 11
-1.0
 21
0.0
 31
0.0
  0
ENDBLK
  5
41
330
3C
100
AcDbEntity
  8
0
100
AcDbBlockEnd
  0
BLOCK
  5
CA
330
C9
100
AcDbEntity
  8
0
100
AcDbBlockBegin
  2
*D1
 70
     1
 10
0.0
 20
0.0
 30
0.0
  3
*D1
  1

  0
LINE
  5
CB
330
C9
100
AcDbEntity
  8
TEXT
100
AcDbLine
 10
2996.0
 20
112.0
 30
0.0
 11
2996.0
 21
128.0
 31
0.0
  0
LINE
  5
CC
330
C9
100
AcDbEntity
  8
TEXT
100
AcDbLine
 10
3025.5
 20
113.0
 30
0.0
 11
3025.5
 21
128.0
 31
0.0
  0
LINE
  5
CD
330
C9
100
AcDbEntity
  8
TEXT
100
AcDbLine
 10
2999.0
 20
127.0
 30
0.0
 11
3022.5
 21
127.0
 31
0.0
  0
SOLID
  5
CE
330
C9
100
AcDbEntity
  8
TEXT
100
AcDbTrace
 10
2999.0
 20
127.5
 30
0.0
 11
2999.0
 21
126.5
 31
0.0
 12
2996.0
 22
127.0
 32
0.0
 13
2996.0
 23
127.0
 33
0.0
  0
SOLID
  5
CF
330
C9
100
AcDbEntity
  8
TEXT
100
AcDbTrace
 10
3022.5
 20
127.5
 30
0.0
 11
3022.5
 21
126.5
 31
0.0
 12
3025.5
 22
127.0
 32
0.0
 13
3025.5
 23
127.0
 33
0.0
  0
MTEXT
  5
D0
330
C9
100
AcDbEntity
  8
TEXT
100
AcDbMText
 10
3010.75
 20
129.5
 30
0.0
 40
3.0
 41
0.0
 71
     5
 72
     1
  1
\A1;L 
  7
GHS
 73
     1
 44
1.0
  0
POINT
  5
D1
330
C9
100
AcDbEntity
  8
DEFPOINTS
 62
     0
100
AcDbPoint
 10
2996.0
 20
111.0
 30
0.0
  0
POINT
  5
D3
330
C9
100
AcDbEntity
  8
DEFPOINTS
 62
     0
100
AcDbPoint
 10
3025.5
 20
112.0
 30
0.0
  0
POINT
  5
D4
330
C9
100
AcDbEntity
  8
DEFPOINTS
 62
     0
100
AcDbPoint
 10
3025.5
 20
127.0
 30
0.0
  0
ENDBLK
  5
D5
330
C9
100
AcDbEntity
  8
0
100
AcDbBlockEnd
  0
BLOCK
  5
D8
330
D7
100
AcDbEntity
  8
0
100
AcDbBlockBegin
  2
*D2
 70
     1
 10
0.0
 20
0.0
 30
0.0
  3
*D2
  1

  0
LINE
  5
D9
330
D7
100
AcDbEntity
  8
TEXT
100
AcDbLine
 10
2994.0
 20
106.5
 30
0.0
 11
2994.0
 21
121.0
 31
0.0
  0
LINE
  5
DA
330
D7
100
AcDbEntity
  8
TEXT
100
AcDbLine
 10
2996.0
 20
112.0
 30
0.0
 11
2996.0
 21
121.0
 31
0.0
  0
LINE
  5
DB
330
D7
100
AcDbEntity
  8
TEXT
100
AcDbLine
 10
2991.0
 20
120.0
 30
0.0
 11
2988.0
 21
120.0
 31
0.0
  0
LINE
  5
DC
330
D7
100
AcDbEntity
  8
TEXT
100
AcDbLine
 10
2999.0
 20
120.0
 30
0.0
 11
3005.2
 21
120.0
 31
0.0
  0
LINE
  5
DD
330
D7
100
AcDbEntity
  8
TEXT
100
AcDbLine
 10
2994.0
 20
120.0
 30
0.0
 11
2996.0
 21
120.0
 31
0.0
  0
SOLID
  5
DE
330
D7
100
AcDbEntity
  8
TEXT
100
AcDbTrace
 10
2991.0
 20
120.5
 30
0.0
 11
2991.0
 21
119.5
 31
0.0
 12
2994.0
 22
120.0
 32
0.0
 13
2994.0
 23
120.0
 33
0.0
  0
SOLID
  5
DF
330
D7
100
AcDbEntity
  8
TEXT
100
AcDbTrace
 10
2999.0
 20
120.5
 30
0.0
 11
2999.0
 21
119.5
 31
0.0
 12
2996.0
 22
120.0
 32
0.0
 13
2996.0
 23
120.0
 33
0.0
  0
MTEXT
  5
E0
330
D7
100
AcDbEntity
  8
TEXT
100
AcDbMText
 10
3003.6
 20
122.5
 30
0.0
 40
3.0
 41
0.0
 71
     5
 72
     1
  1
\A1;2
  7
GHS
 73
     1
 44
1.0
  0
POINT
  5
E1
330
D7
100
AcDbEntity
  8
DEFPOINTS
 62
     0
100
AcDbPoint
 10
2994.0
 20
105.5
 30
0.0
  0
POINT
  5
E2
330
D7
100
AcDbEntity
  8
DEFPOINTS
 62
     0
100
AcDbPoint
 10
2996.0
 20
111.0
 30
0.0
  0
POINT
  5
E3
330
D7
100
AcDbEntity
  8
DEFPOINTS
 62
     0
100
AcDbPoint
 10
2996.0
 20
120.0
 30
0.0
  0
ENDBLK
  5
E4
330
D7
100
AcDbEntity
  8
0
100
AcDbBlockEnd
  0
BLOCK
  5
E7
330
E6
100
AcDbEntity
  8
0
100
AcDbBlockBegin
  2
*D3
 70
     1
 10
0.0
 20
0.0
 30
0.0
  3
*D3
  1

  0
LINE
  5
E8
330
E6
100
AcDbEntity
  8
TEXT
100
AcDbLine
 10
2977.700000000001
 20
100.5
 30
0.0
 11
2977.700000000001
 21
111.0
 31
0.0
  0
LINE
  5
E9
330
E6
100
AcDbEntity
  8
TEXT
100
AcDbLine
 10
2989.700000000001
 20
101.0
 30
0.0
 11
2989.700000000001
 21
111.0
 31
0.0
  0
LINE
  5
EA
330
E6
100
AcDbEntity
  8
TEXT
100
AcDbLine
 10
2980.700000000001
 20
110.0
 30
0.0
 11
2986.700000000001
 21
110.0
 31
0.0
  0
SOLID
  5
EB
330
E6
100
AcDbEntity
  8
TEXT
100
AcDbTrace
 10
2980.700000000001
 20
110.5
 30
0.0
 11
2980.700000000001
 21
109.5
 31
0.0
 12
2977.700000000001
 22
110.0
 32
0.0
 13
2977.700000000001
 23
110.0
 33
0.0
  0
SOLID
  5
EC
330
E6
100
AcDbEntity
  8
TEXT
100
AcDbTrace
 10
2986.700000000001
 20
110.5
 30
0.0
 11
2986.700000000001
 21
109.5
 31
0.0
 12
2989.700000000001
 22
110.0
 32
0.0
 13
2989.700000000001
 23
110.0
 33
0.0
  0
MTEXT
  5
ED
330
E6
100
AcDbEntity
  8
TEXT
100
AcDbMText
 10
2983.700000000001
 20
112.5
 30
0.0
 40
3.0
 41
0.0
 71
     5
 72
     1
  1
\A1;12
  7
GHS
 73
     1
 44
1.0
  0
POINT
  5
EE
330
E6
100
AcDbEntity
  8
DEFPOINTS
 62
     0
100
AcDbPoint
 10
2977.700000000001
 20
99.50000000000001
 30
0.0
  0
POINT
  5
EF
330
E6
100
AcDbEntity
  8
DEFPOINTS
 62
     0
100
AcDbPoint
 10
2989.700000000001
 20
100.0
 30
0.0
  0
POINT
  5
F0
330
E6
100
AcDbEntity
  8
DEFPOINTS
 62
     0
100
AcDbPoint
 10
2989.700000000001
 20
110.0
 30
0.0
  0
ENDBLK
  5
F1
330
E6
100
AcDbEntity
  8
0
100
AcDbBlockEnd
  0
BLOCK
  5
F4
330
F3
100
AcDbEntity
  8
0
100
AcDbBlockBegin
  2
*D4
 70
     1
 10
0.0
 20
0.0
 30
0.0
  3
*D4
  1

  0
LINE
  5
F5
330
F3
100
AcDbEntity
  8
TEXT
100
AcDbLine
 10
2977.700000000001
 20
100.5
 30
0.0
 11
2977.700000000001
 21
128.0
 31
0.0
  0
LINE
  5
F6
330
F3
100
AcDbEntity
  8
TEXT
100
AcDbLine
 10
2996.0
 20
112.0
 30
0.0
 11
2996.0
 21
128.0
 31
0.0
  0
LINE
  5
F7
330
F3
100
AcDbEntity
  8
TEXT
100
AcDbLine
 10
2980.700000000001
 20
127.0
 30
0.0
 11
2993.0
 21
127.0
 31
0.0
  0
SOLID
  5
F8
330
F3
100
AcDbEntity
  8
TEXT
100
AcDbTrace
 10
2980.700000000001
 20
127.5
 30
0.0
 11
2980.700000000001
 21
126.5
 31
0.0
 12
2977.700000000001
 22
127.0
 32
0.0
 13
2977.700000000001
 23
127.0
 33
0.0
  0
SOLID
  5
F9
330
F3
100
AcDbEntity
  8
TEXT
100
AcDbTrace
 10
2993.0
 20
127.5
 30
0.0
 11
2993.0
 21
126.5
 31
0.0
 12
2996.0
 22
127.0
 32
0.0
 13
2996.0
 23
127.0
 33
0.0
  0
MTEXT
  5
FA
330
F3
100
AcDbEntity
  8
TEXT
100
AcDbMText
 10
2986.85
 20
129.5
 30
0.0
 40
3.0
 41
0.0
 71
     5
 72
     1
  1
\A1;18.3
  7
GHS
 73
     1
 44
1.0
  0
POINT
  5
FB
330
F3
100
AcDbEntity
  8
DEFPOINTS
 62
     0
100
AcDbPoint
 10
2977.700000000001
 20
99.50000000000001
 30
0.0
  0
POINT
  5
FC
330
F3
100
AcDbEntity
  8
DEFPOINTS
 62
     0
100
AcDbPoint
 10
2996.0
 20
111.0
 30
0.0
  0
POINT
  5
FD
330
F3
100
AcDbEntity
  8
DEFPOINTS
 62
     0
100
AcDbPoint
 10
2996.0
 20
127.0
 30
0.0
  0
ENDBLK
  5
FE
330
F3
100
AcDbEntity
  8
0
100
AcDbBlockEnd
  0
BLOCK
  5
101
330
100
100
AcDbEntity
  8
0
100
AcDbBlockBegin
  2
*D5
 70
     1
 10
0.0
 20
0.0
 30
0.0
  3
*D5
  1

  0
LINE
  5
102
330
100
100
AcDbEntity
  8
TEXT
100
AcDbLine
 10
2977.200000000001
 20
94.0
 30
0.0
 11
2966.0
 21
94.00000000000002
 31
0.0
  0
LINE
  5
103
330
100
100
AcDbEntity
  8
TEXT
100
AcDbLine
 10
2976.700000000001
 20
99.50000000000001
 30
0.0
 11
2966.0
 21
99.50000000000002
 31
0.0
  0
LINE
  5
104
330
100
100
AcDbEntity
  8
TEXT
100
AcDbLine
 10
2967.0
 20
91.00000000000001
 30
0.0
 11
2967.0
 21
88.00000000000002
 31
0.0
  0
LINE
  5
105
330
100
100
AcDbEntity
  8
TEXT
100
AcDbLine
 10
2967.0
 20
102.5
 30
0.0
 11
2967.0
 21
111.2714285714286
 31
0.0
  0
LINE
  5
106
330
100
100
AcDbEntity
  8
TEXT
100
AcDbLine
 10
2967.0
 20
94.00000000000002
 30
0.0
 11
2967.0
 21
99.50000000000002
 31
0.0
  0
SOLID
  5
107
330
100
100
AcDbEntity
  8
TEXT
100
AcDbTrace
 10
2966.5
 20
91.00000000000001
 30
0.0
 11
2967.5
 21
91.00000000000001
 31
0.0
 12
2967.0
 22
94.00000000000002
 32
0.0
 13
2967.0
 23
94.00000000000002
 33
0.0
  0
SOLID
  5
108
330
100
100
AcDbEntity
  8
TEXT
100
AcDbTrace
 10
2966.5
 20
102.5
 30
0.0
 11
2967.5
 21
102.5
 31
0.0
 12
2967.0
 22
99.50000000000002
 32
0.0
 13
2967.0
 23
99.50000000000002
 33
0.0
  0
MTEXT
  5
109
330
100
100
AcDbEntity
  8
TEXT
100
AcDbMText
 10
2964.5
 20
108.3857142857147
 30
0.0
 40
3.0
 41
0.0
 71
     5
 72
     1
  1
\A1;5.5
  7
GHS
 11
0.0000000000000001
 21
1.0
 31
0.0
 73
     1
 44
1.0
  0
POINT
  5
10A
330
100
100
AcDbEntity
  8
DEFPOINTS
 62
     0
100
AcDbPoint
 10
2978.200000000001
 20
94.0
 30
0.0
  0
POINT
  5
10B
330
100
100
AcDbEntity
  8
DEFPOINTS
 62
     0
100
AcDbPoint
 10
2977.700000000001
 20
99.50000000000001
 30
0.0
  0
POINT
  5
10C
330
100
100
AcDbEntity
  8
DEFPOINTS
 62
     0
100
AcDbPoint
 10
2967.0
 20
99.50000000000002
 30
0.0
  0
ENDBLK
  5
10D
330
100
100
AcDbEntity
  8
0
100
AcDbBlockEnd
  0
BLOCK
  5
110
330
10F
100
AcDbEntity
  8
0
100
AcDbBlockBegin
  2
*D6
 70
     1
 10
0.0
 20
0.0
 30
0.0
  3
*D6
  1

  0
LINE
  5
111
330
10F
100
AcDbEntity
  8
TEXT
100
AcDbLine
 10
2977.200000000001
 20
94.0
 30
0.0
 11
2959.0
 21
94.00000000000002
 31
0.0
  0
LINE
  5
112
330
10F
100
AcDbEntity
  8
TEXT
100
AcDbLine
 10
2988.700000000001
 20
100.0
 30
0.0
 11
2959.0
 21
100.0
 31
0.0
  0
LINE
  5
113
330
10F
100
AcDbEntity
  8
TEXT
100
AcDbLine
 10
2960.0
 20
91.00000000000001
 30
0.0
 11
2960.0
 21
88.00000000000002
 31
0.0
  0
LINE
  5
114
330
10F
100
AcDbEntity
  8
TEXT
100
AcDbLine
 10
2960.0
 20
103.0
 30
0.0
 11
2960.0
 21
106.0
 31
0.0
  0
LINE
  5
115
330
10F
100
AcDbEntity
  8
TEXT
100
AcDbLine
 10
2960.0
 20
94.00000000000002
 30
0.0
 11
2960.0
 21
100.0
 31
0.0
  0
SOLID
  5
116
330
10F
100
AcDbEntity
  8
TEXT
100
AcDbTrace
 10
2959.5
 20
91.00000000000001
 30
0.0
 11
2960.5
 21
91.00000000000001
 31
0.0
 12
2960.0
 22
94.00000000000002
 32
0.0
 13
2960.0
 23
94.00000000000002
 33
0.0
  0
SOLID
  5
117
330
10F
100
AcDbEntity
  8
TEXT
100
AcDbTrace
 10
2959.5
 20
103.0
 30
0.0
 11
2960.5
 21
103.0
 31
0.0
 12
2960.0
 22
100.0
 32
0.0
 13
2960.0
 23
100.0
 33
0.0
  0
MTEXT
  5
118
330
10F
100
AcDbEntity
  8
TEXT
100
AcDbMText
 10
2957.5
 20
97.00000000000049
 30
0.0
 40
3.0
 41
0.0
 71
     5
 72
     1
  1
\A1;%%C6
  7
GHS
 11
0.0000000000000001
 21
1.0
 31
0.0
 73
     1
 44
1.0
  0
POINT
  5
119
330
10F
100
AcDbEntity
  8
DEFPOINTS
 62
     0
100
AcDbPoint
 10
2978.200000000001
 20
94.0
 30
0.0
  0
POINT
  5
11A
330
10F
100
AcDbEntity
  8
DEFPOINTS
 62
     0
100
AcDbPoint
 10
2989.700000000001
 20
100.0
 30
0.0
  0
POINT
  5
11B
330
10F
100
AcDbEntity
  8
DEFPOINTS
 62
     0
100
AcDbPoint
 10
2960.0
 20
100.0
 30
0.0
  0
ENDBLK
  5
11C
330
10F
100
AcDbEntity
  8
0
100
AcDbBlockEnd
  0
BLOCK
  5
11F
330
11E
100
AcDbEntity
  8
0
100
AcDbBlockBegin
  2
*D7
 70
     1
 10
0.0
 20
0.0
 30
0.0
  3
*D7
  1

  0
LINE
  5
120
330
11E
100
AcDbEntity
  8
TEXT
100
AcDbLine
 10
2993.5
 20
88.0
 30
0.0
 11
2952.0
 21
88.00000000000002
 31
0.0
  0
LINE
  5
121
330
11E
100
AcDbEntity
  8
TEXT
100
AcDbLine
 10
2993.5
 20
106.0
 30
0.0
 11
2952.0
 21
106.0
 31
0.0
  0
LINE
  5
122
330
11E
100
AcDbEntity
  8
TEXT
100
AcDbLine
 10
2953.0
 20
91.00000000000001
 30
0.0
 11
2953.0
 21
103.0
 31
0.0
  0
SOLID
  5
123
330
11E
100
AcDbEntity
  8
TEXT
100
AcDbTrace
 10
2952.5
 20
91.00000000000001
 30
0.0
 11
2953.5
 21
91.00000000000001
 31
0.0
 12
2953.0
 22
88.00000000000002
 32
0.0
 13
2953.0
 23
88.00000000000002
 33
0.0
  0
SOLID
  5
124
330
11E
100
AcDbEntity
  8
TEXT
100
AcDbTrace
 10
2952.5
 20
103.0
 30
0.0
 11
2953.5
 21
103.0
 31
0.0
 12
2953.0
 22
106.0
 32
0.0
 13
2953.0
 23
106.0
 33
0.0
  0
MTEXT
  5
125
330
11E
100
AcDbEntity
  8
TEXT
100
AcDbMText
 10
2950.5
 20
97.00000000000049
 30
0.0
 40
3.0
 41
0.0
 71
     5
 72
     1
  1
\A1;%%C18
  7
GHS
 11
0.0000000000000001
 21
1.0
 31
0.0
 73
     1
 44
1.0
  0
POINT
  5
126
330
11E
100
AcDbEntity
  8
DEFPOINTS
 62
     0
100
AcDbPoint
 10
2994.5
 20
88.0
 30
0.0
  0
POINT
  5
127
330
11E
100
AcDbEntity
  8
DEFPOINTS
 62
     0
100
AcDbPoint
 10
2994.5
 20
106.0
 30
0.0
  0
POINT
  5
128
330
11E
100
AcDbEntity
  8
DEFPOINTS
 62
     0
100
AcDbPoint
 10
2953.0
 20
106.0
 30
0.0
  0
ENDBLK
  5
129
330
11E
100
AcDbEntity
  8
0
100
AcDbBlockEnd
  0
BLOCK
  5
12C
330
12B
100
AcDbEntity
  8
0
100
AcDbBlockBegin
  2
*D8
 70
     1
 10
0.0
 20
0.0
 30
0.0
  3
*D8
  1

  0
LINE
  5
12D
330
12B
100
AcDbEntity
  8
TEXT
100
AcDbLine
 10
2996.0
 20
112.0
 30
0.0
 11
2945.0
 21
112.0
 31
0.0
  0
LINE
  5
12E
330
12B
100
AcDbEntity
  8
TEXT
100
AcDbLine
 10
2996.0
 20
82.0
 30
0.0
 11
2945.0
 21
82.00000000000001
 31
0.0
  0
LINE
  5
12F
330
12B
100
AcDbEntity
  8
TEXT
100
AcDbLine
 10
2946.0
 20
109.0
 30
0.0
 11
2946.0
 21
85.00000000000001
 31
0.0
  0
SOLID
  5
130
330
12B
100
AcDbEntity
  8
TEXT
100
AcDbTrace
 10
2945.5
 20
109.0
 30
0.0
 11
2946.5
 21
109.0
 31
0.0
 12
2946.0
 22
112.0
 32
0.0
 13
2946.0
 23
112.0
 33
0.0
  0
SOLID
  5
131
330
12B
100
AcDbEntity
  8
TEXT
100
AcDbTrace
 10
2945.5
 20
85.00000000000001
 30
0.0
 11
2946.5
 21
85.00000000000001
 31
0.0
 12
2946.0
 22
82.00000000000001
 32
0.0
 13
2946.0
 23
82.00000000000001
 33
0.0
  0
MTEXT
  5
132
330
12B
100
AcDbEntity
  8
TEXT
100
AcDbMText
 10
2943.5
 20
97.00000000000049
 30
0.0
 40
3.0
 41
0.0
 71
     5
 72
     1
  1
\A1;%%C30
  7
GHS
 11
0.0000000000000001
 21
1.0
 31
0.0
 73
     1
 44
1.0
  0
POINT
  5
133
330
12B
100
AcDbEntity
  8
DEFPOINTS
 62
     0
100
AcDbPoint
 10
2997.0
 20
112.0
 30
0.0
  0
POINT
  5
134
330
12B
100
AcDbEntity
  8
DEFPOINTS
 62
     0
100
AcDbPoint
 10
2997.0
 20
82.0
 30
0.0
  0
POINT
  5
135
330
12B
100
AcDbEntity
  8
DEFPOINTS
 62
     0
100
AcDbPoint
 10
2946.0
 20
82.00000000000001
 30
0.0
  0
ENDBLK
  5
136
330
12B
100
AcDbEntity
  8
0
100
AcDbBlockEnd
  0
BLOCK
  5
164
330
163
100
AcDbEntity
  8
0
100
AcDbBlockBegin
  2
*D9
 70
     1
 10
0.0
 20
0.0
 30
0.0
  3
*D9
  1

  0
LINE
  5
165
330
163
100
AcDbEntity
  8
TEXT
100
AcDbLine
 10
3025.5
 20
113.0
 30
0.0
 11
3025.5
 21
128.0
 31
0.0
  0
LINE
  5
166
330
163
100
AcDbEntity
  8
TEXT
100
AcDbLine
 10
3072.099999999999
 20
111.8999999999996
 30
0.0
 11
3072.099999999999
 21
128.0
 31
0.0
  0
LINE
  5
167
330
163
100
AcDbEntity
  8
TEXT
100
AcDbLine
 10
3028.5
 20
127.0
 30
0.0
 11
3069.099999999999
 21
127.0
 31
0.0
  0
SOLID
  5
168
330
163
100
AcDbEntity
  8
TEXT
100
AcDbTrace
 10
3028.5
 20
127.5
 30
0.0
 11
3028.5
 21
126.5
 31
0.0
 12
3025.5
 22
127.0
 32
0.0
 13
3025.5
 23
127.0
 33
0.0
  0
SOLID
  5
169
330
163
100
AcDbEntity
  8
TEXT
100
AcDbTrace
 10
3069.099999999999
 20
127.5
 30
0.0
 11
3069.099999999999
 21
126.5
 31
0.0
 12
3072.099999999999
 22
127.0
 32
0.0
 13
3072.099999999999
 23
127.0
 33
0.0
  0
MTEXT
  5
16A
330
163
100
AcDbEntity
  8
TEXT
100
AcDbMText
 10
3048.799999999999
 20
129.5
 30
0.0
 40
3.0
 41
0.0
 71
     5
 72
     1
  1
\A1;46.6
  7
GHS
 73
     1
 44
1.0
  0
POINT
  5
16B
330
163
100
AcDbEntity
  8
DEFPOINTS
 62
     0
100
AcDbPoint
 10
3025.5
 20
112.0
 30
0.0
  0
POINT
  5
16C
330
163
100
AcDbEntity
  8
DEFPOINTS
 62
     0
100
AcDbPoint
 10
3072.099999999999
 20
110.8999999999996
 30
0.0
  0
POINT
  5
16D
330
163
100
AcDbEntity
  8
DEFPOINTS
 62
     0
100
AcDbPoint
 10
3072.099999999999
 20
127.0
 30
0.0
  0
ENDBLK
  5
16E
330
163
100
AcDbEntity
  8
0
100
AcDbBlockEnd
  0
BLOCK
  5
171
330
170
100
AcDbEntity
  8
0
100
AcDbBlockBegin
  2
*D10
 70
     1
 10
0.0
 20
0.0
 30
0.0
  3
*D10
  1

  0
LINE
  5
172
330
170
100
AcDbEntity
  8
TEXT
100
AcDbLine
 10
3072.099999999999
 20
111.8999999999996
 30
0.0
 11
3072.099999999999
 21
128.0
 31
0.0
  0
LINE
  5
173
330
170
100
AcDbEntity
  8
TEXT
100
AcDbLine
 10
3077.099999999999
 20
109.6999999999998
 30
0.0
 11
3077.099999999999
 21
128.0
 31
0.0
  0
LINE
  5
174
330
170
100
AcDbEntity
  8
TEXT
100
AcDbLine
 10
3069.099999999999
 20
127.0
 30
0.0
 11
3066.099999999999
 21
127.0
 31
0.0
  0
LINE
  5
175
330
170
100
AcDbEntity
  8
TEXT
100
AcDbLine
 10
3080.099999999999
 20
127.0
 30
0.0
 11
3083.099999999999
 21
127.0
 31
0.0
  0
LINE
  5
176
330
170
100
AcDbEntity
  8
TEXT
100
AcDbLine
 10
3072.099999999999
 20
127.0
 30
0.0
 11
3077.099999999999
 21
127.0
 31
0.0
  0
SOLID
  5
177
330
170
100
AcDbEntity
  8
TEXT
100
AcDbTrace
 10
3069.099999999999
 20
127.5
 30
0.0
 11
3069.099999999999
 21
126.5
 31
0.0
 12
3072.099999999999
 22
127.0
 32
0.0
 13
3072.099999999999
 23
127.0
 33
0.0
  0
SOLID
  5
178
330
170
100
AcDbEntity
  8
TEXT
100
AcDbTrace
 10
3080.099999999999
 20
127.5
 30
0.0
 11
3080.099999999999
 21
126.5
 31
0.0
 12
3077.099999999999
 22
127.0
 32
0.0
 13
3077.099999999999
 23
127.0
 33
0.0
  0
MTEXT
  5
179
330
170
100
AcDbEntity
  8
TEXT
100
AcDbMText
 10
3074.599999999998
 20
129.5
 30
0.0
 40
3.0
 41
0.0
 71
     5
 72
     1
  1
\A1;5
  7
GHS
 73
     1
 44
1.0
  0
POINT
  5
17A
330
170
100
AcDbEntity
  8
DEFPOINTS
 62
     0
100
AcDbPoint
 10
3072.099999999999
 20
110.8999999999996
 30
0.0
  0
POINT
  5
17B
330
170
100
AcDbEntity
  8
DEFPOINTS
 62
     0
100
AcDbPoint
 10
3077.099999999999
 20
108.6999999999998
 30
0.0
  0
POINT
  5
17C
330
170
100
AcDbEntity
  8
DEFPOINTS
 62
     0
100
AcDbPoint
 10
3077.099999999999
 20
127.0
 30
0.0
  0
ENDBLK
  5
17D
330
170
100
AcDbEntity
  8
0
100
AcDbBlockEnd
  0
BLOCK
  5
180
330
17F
100
AcDbEntity
  8
0
100
AcDbBlockBegin
  2
*D11
 70
     1
 10
0.0
 20
0.0
 30
0.0
  3
*D11
  1

  0
LINE
  5
181
330
17F
100
AcDbEntity
  8
TEXT
100
AcDbLine
 10
3073.100000000002
 20
83.10000000000036
 30
0.0
 11
3085.0
 21
83.10000000000036
 31
0.0
  0
LINE
  5
182
330
17F
100
AcDbEntity
  8
TEXT
100
AcDbLine
 10
3073.099999999999
 20
110.8999999999996
 30
0.0
 11
3085.0
 21
110.8999999999996
 31
0.0
  0
LINE
  5
183
330
17F
100
AcDbEntity
  8
TEXT
100
AcDbLine
 10
3084.0
 20
86.10000000000036
 30
0.0
 11
3084.0
 21
107.8999999999996
 31
0.0
  0
SOLID
  5
184
330
17F
100
AcDbEntity
  8
TEXT
100
AcDbTrace
 10
3083.5
 20
86.10000000000036
 30
0.0
 11
3084.5
 21
86.10000000000036
 31
0.0
 12
3084.0
 22
83.10000000000036
 32
0.0
 13
3084.0
 23
83.10000000000036
 33
0.0
  0
SOLID
  5
185
330
17F
100
AcDbEntity
  8
TEXT
100
AcDbTrace
 10
3083.5
 20
107.8999999999996
 30
0.0
 11
3084.5
 21
107.8999999999996
 31
0.0
 12
3084.0
 22
110.8999999999996
 32
0.0
 13
3084.0
 23
110.8999999999996
 33
0.0
  0
MTEXT
  5
186
330
17F
100
AcDbEntity
  8
TEXT
100
AcDbMText
 10
3081.5
 20
97.0000000000005
 30
0.0
 40
3.0
 41
0.0
 71
     5
 72
     1
  1
\A1;%%C27.8
  7
GHS
 11
0.0000000000000001
 21
1.0
 31
0.0
 73
     1
 44
1.0
  0
POINT
  5
187
330
17F
100
AcDbEntity
  8
DEFPOINTS
 62
     0
100
AcDbPoint
 10
3072.100000000002
 20
83.10000000000036
 30
0.0
  0
POINT
  5
188
330
17F
100
AcDbEntity
  8
DEFPOINTS
 62
     0
100
AcDbPoint
 10
3072.099999999999
 20
110.8999999999996
 30
0.0
  0
POINT
  5
189
330
17F
100
AcDbEntity
  8
DEFPOINTS
 62
     0
100
AcDbPoint
 10
3084.0
 20
110.8999999999996
 30
0.0
  0
ENDBLK
  5
18A
330
17F
100
AcDbEntity
  8
0
100
AcDbBlockEnd
  0
ENDSEC
  0
SECTION
  2
ENTITIES
  0
LINE
  5
86
330
2
100
AcDbEntity
  8
TEXT
100
AcDbLine
 10
2985.999994223869
 20
65.99999887009471
 30
0.0
 11
3045.999994223868
 21
65.99999887009471
 31
0.0
  0
LINE
  5
87
330
2
100
AcDbEntity
  8
TEXT
100
AcDbLine
 10
2985.999994223869
 20
57.99999887009471
 30
0.0
 11
3045.999994223868
 21
57.99999887009471
 31
0.0
  0
LINE
  5
88
330
2
100
AcDbEntity
  8
TEXT
100
AcDbLine
 10
2985.999994223869
 20
49.99999887009471
 30
0.0
 11
3045.999994223868
 21
49.99999887009471
 31
0.0
  0
LINE
  5
89
330
2
100
AcDbEntity
  8
TEXT
100
AcDbLine
 10
2985.999994223869
 20
65.99999887009471
 30
0.0
 11
2985.999994223869
 21
25.99999887009472
 31
0.0
  0
LINE
  5
8A
330
2
100
AcDbEntity
  8
TEXT
100
AcDbLine
 10
3024.999994223869
 20
65.99999887009471
 30
0.0
 11
3024.999994223869
 21
25.99999887009472
 31
0.0
  0
LINE
  5
8B
330
2
100
AcDbEntity
  8
TEXT
100
AcDbLine
 10
3045.999994223868
 20
65.99999887009471
 30
0.0
 11
3045.999994223868
 21
25.99999887009472
 31
0.0
  0
TEXT
  5
8C
330
2
100
AcDbEntity
  8
TEXT
100
AcDbText
 10
3000.085708509583
 20
59.99999887009471
 30
0.0
 40
4.0
  1
RATIO
 41
0.6
  7
GHS
 72
     1
 11
3004.999994223869
 21
59.99999887009471
 31
0.0
100
AcDbText
  0
TEXT
  5
8D
330
2
100
AcDbEntity
  8
TEXT
100
AcDbText
 10
3033.857137081011
 20
59.99999887009471
 30
0.0
 40
4.0
  1
L
 41
0.6
  7
GHS
 72
     1
 11
3034.999994223869
 21
59.99999887009471
 31
0.0
100
AcDbText
  0
LINE
  5
8E
330
2
100
AcDbEntity
  8
TEXT
100
AcDbLine
 10
2985.999994223869
 20
41.99999887009471
 30
0.0
 11
3045.999994223868
 21
41.99999887009471
 31
0.0
  0
LINE
  5
8F
330
2
100
AcDbEntity
  8
TEXT
100
AcDbLine
 10
2985.999994223869
 20
33.99999887009471
 30
0.0
 11
3045.999994223868
 21
33.99999887009471
 31
0.0
  0
TEXT
  5
90
330
2
100
AcDbEntity
  8
TEXT
100
AcDbText
 10
2987.999994223868
 20
51.99999887009472
 30
0.0
 40
4.0
  1
1/005
 41
0.6
  7
GHS
100
AcDbText
  0
TEXT
  5
91
330
2
100
AcDbEntity
  8
TEXT
100
AcDbText
 10
2987.999994223868
 20
43.99999887009471
 30
0.0
 40
4.0
  1
1/014 ~ 1/027
 41
0.6
  7
GHS
100
AcDbText
  0
TEXT
  5
92
330
2
100
AcDbEntity
  8
TEXT
100
AcDbText
 10
2987.999994223868
 20
35.99999887009472
 30
0.0
 40
4.0
  1
1/051 ~ 1/139
 41
0.6
  7
GHS
100
AcDbText
  0
TEXT
  5
93
330
2
100
AcDbEntity
  8
TEXT
100
AcDbText
 10
2998.085708509583
 20
68.99999887009471
 30
0.0
 40
4.0
  1
GEARHEAD LENGTH
 41
0.6
  7
GHS
 72
     1
 11
3014.999994223868
 21
68.99999887009471
 31
0.0
100
AcDbText
  0
LINE
  5
94
330
2
100
AcDbEntity
  8
TEXT
100
AcDbLine
 10
2996.999994223868
 20
67.99999887009471
 30
0.0
 11
3032.999994223868
 21
67.99999887009471
 31
0.0
  0
LINE
  5
95
330
2
100
AcDbEntity
  8
TEXT
100
AcDbLine
 10
2985.999994223869
 20
25.99999887009472
 30
0.0
 11
3045.999994223868
 21
25.99999887009472
 31
0.0
  0
TEXT
  5
96
330
2
100
AcDbEntity
  8
TEXT
100
AcDbText
 10
2987.999994223868
 20
27.99999887009472
 30
0.0
 40
4.0
  1
1/189 ~ 1/721
 41
0.6
  7
GHS
100
AcDbText
  0
LINE
  5
97
330
2
100
AcDbEntity
  8
CL
100
AcDbLine
 10
2974.700000000001
 20
97.0
 30
0.0
 11
3070.9
 21
97.0
 31
0.0
  0
LINE
  5
9C
330
2
100
AcDbEntity
  8
0
100
AcDbLine
 10
2992.700000000001
 20
91.5
 30
0.0
 11
2993.299999999999
 21
91.5
 31
0.0
  0
LINE
  5
9D
330
2
100
AcDbEntity
  8
0
100
AcDbLine
 10
2993.5
 20
103.9000000000001
 30
0.0
 11
2994.0
 21
103.9000000000001
 31
0.0
  0
LINE
  5
9E
330
2
100
AcDbEntity
  8
0
100
AcDbLine
 10
2993.5
 20
90.0999999999999
 30
0.0
 11
2994.0
 21
90.0999999999999
 31
0.0
  0
LINE
  5
9F
330
2
100
AcDbEntity
  8
0
100
AcDbLine
 10
2994.5
 20
88.0
 30
0.0
 11
2996.0
 21
88.0
 31
0.0
  0
LINE
  5
A0
330
2
100
AcDbEntity
  8
0
100
AcDbLine
 10
2994.0
 20
97.0
 30
0.0
 11
2994.0
 21
88.49999999999999
 31
0.0
  0
LINE
  5
A1
330
2
100
AcDbEntity
  8
0
100
AcDbLine
 10
2993.5
 20
97.0
 30
0.0
 11
2993.5
 21
90.0999999999999
 31
0.0
  0
ARC
  5
A2
330
2
100
AcDbEntity
  8
0
100
AcDbCircle
 10
2994.5
 20
88.49999999999999
 30
0.0
 40
0.5
100
AcDbArc
 50
180.0
 51
270.0
  0
LINE
  5
A3
330
2
100
AcDbEntity
  8
0
100
AcDbLine
 10
2996.0
 20
83.0
 30
0.0
 11
2996.0
 21
111.0
 31
0.0
  0
ARC
  5
A4
330
2
100
AcDbEntity
  8
0
100
AcDbCircle
 10
2997.0
 20
83.0
 30
0.0
 40
1.0
100
AcDbArc
 50
180.0
 51
270.0
  0
LINE
  5
A5
330
2
100
AcDbEntity
  8
0
100
AcDbLine
 10
2997.0
 20
82.0
 30
0.0
 11
3025.5
 21
82.0
 31
0.0
  0
LINE
  5
A6
330
2
100
AcDbEntity
  8
0
100
AcDbLine
 10
2994.5
 20
106.0
 30
0.0
 11
2996.0
 21
106.0
 31
0.0
  0
LINE
  5
A7
330
2
100
AcDbEntity
  8
0
100
AcDbLine
 10
2994.0
 20
97.0
 30
0.0
 11
2994.0
 21
105.5
 31
0.0
  0
LINE
  5
A8
330
2
100
AcDbEntity
  8
0
100
AcDbLine
 10
2977.700000000001
 20
94.50000000000001
 30
0.0
 11
2977.700000000001
 21
99.50000000000001
 31
0.0
  0
LINE
  5
A9
330
2
100
AcDbEntity
  8
0
100
AcDbLine
 10
2989.700000000001
 20
99.50000000000001
 30
0.0
 11
2989.700000000001
 21
100.0
 31
0.0
  0
LINE
  5
AA
330
2
100
AcDbEntity
  8
0
100
AcDbLine
 10
2978.200000000001
 20
94.0
 30
0.0
 11
2978.200000000001
 21
99.50000000000001
 31
0.0
  0
ARC
  5
AB
330
2
100
AcDbEntity
  8
0
100
AcDbCircle
 10
2994.5
 20
105.5
 30
0.0
 40
0.5
100
AcDbArc
 50
90.0
 51
180.0
  0
ARC
  5
AC
330
2
100
AcDbEntity
  8
0
100
AcDbCircle
 10
2997.0
 20
111.0
 30
0.0
 40
1.0
100
AcDbArc
 50
90.0
 51
180.0
  0
LINE
  5
AD
330
2
100
AcDbEntity
  8
0
100
AcDbLine
 10
2997.0
 20
112.0
 30
0.0
 11
3025.5
 21
112.0
 31
0.0
  0
LINE
  5
AE
330
2
100
AcDbEntity
  8
0
100
AcDbLine
 10
3025.5
 20
112.0
 30
0.0
 11
3025.5
 21
82.0
 31
0.0
  0
LINE
  5
AF
330
2
100
AcDbEntity
  8
0
100
AcDbLine
 10
2993.5
 20
94.0
 30
0.0
 11
2993.4
 21
94.0
 31
0.0
  0
LINE
  5
B0
330
2
100
AcDbEntity
  8
0
100
AcDbLine
 10
2992.700000000001
 20
94.0
 30
0.0
 11
2978.200000000001
 21
94.0
 31
0.0
  0
LINE
  5
B1
330
2
100
AcDbEntity
  8
0
100
AcDbLine
 10
2993.4
 20
94.50000000000001
 30
0.0
 11
2993.299999999999
 21
94.50000000000001
 31
0.0
  0
LINE
  5
B2
330
2
100
AcDbEntity
  8
0
100
AcDbLine
 10
2992.700000000001
 20
100.0
 30
0.0
 11
2989.700000000001
 21
100.0
 31
0.0
  0
LINE
  5
B3
330
2
100
AcDbEntity
  8
0
100
AcDbLine
 10
2989.700000000001
 20
99.50000000000001
 30
0.0
 11
2977.700000000001
 21
99.50000000000001
 31
0.0
  0
LINE
  5
B4
330
2
100
AcDbEntity
  8
0
100
AcDbLine
 10
2978.200000000001
 20
94.0
 30
0.0
 11
2977.700000000001
 21
94.50000000000001
 31
0.0
  0
LINE
  5
B5
330
2
100
AcDbEntity
  8
0
100
AcDbLine
 10
2993.5
 20
97.0
 30
0.0
 11
2993.5
 21
103.9000000000001
 31
0.0
  0
LINE
  5
B6
330
2
100
AcDbEntity
  8
0
100
AcDbLine
 10
2992.700000000001
 20
91.5
 30
0.0
 11
2992.700000000001
 21
97.0
 31
0.0
  0
LINE
  5
B7
330
2
100
AcDbEntity
  8
0
100
AcDbLine
 10
2993.299999999999
 20
91.5
 30
0.0
 11
2993.299999999999
 21
97.0
 31
0.0
  0
LINE
  5
B8
330
2
100
AcDbEntity
  8
0
100
AcDbLine
 10
2992.700000000001
 20
102.5
 30
0.0
 11
2993.299999999999
 21
102.5
 31
0.0
  0
LINE
  5
B9
330
2
100
AcDbEntity
  8
0
100
AcDbLine
 10
2993.4
 20
99.50000000000001
 30
0.0
 11
2993.299999999999
 21
99.50000000000001
 31
0.0
  0
LINE
  5
BA
330
2
100
AcDbEntity
  8
0
100
AcDbLine
 10
2993.4
 20
100.0
 30
0.0
 11
2993.4
 21
94.0
 31
0.0
  0
LINE
  5
BB
330
2
100
AcDbEntity
  8
0
100
AcDbLine
 10
2992.700000000001
 20
102.5
 30
0.0
 11
2992.700000000001
 21
97.0
 31
0.0
  0
LINE
  5
BC
330
2
100
AcDbEntity
  8
0
100
AcDbLine
 10
2993.299999999999
 20
102.5
 30
0.0
 11
2993.299999999999
 21
97.0
 31
0.0
  0
LINE
  5
BD
330
2
100
AcDbEntity
  8
0
100
AcDbLine
 10
2993.5
 20
100.0
 30
0.0
 11
2993.4
 21
100.0
 31
0.0
  0
LINE
  5
BE
330
2
100
AcDbEntity
  8
0
100
AcDbLine
 10
2999.000000000008
 20
81.99999999999864
 30
0.0
 11
2999.0
 21
111.9999999999986
 31
0.0
  0
LINE
  5
BF
330
2
100
AcDbEntity
  8
0
100
AcDbLine
 10
3024.000000000008
 20
82.00000000000466
 30
0.0
 11
3024.0
 21
112.0000000000046
 31
0.0
  0
TEXT
  5
C0
330
2
100
AcDbEntity
  8
TEXT
100
AcDbText
 10
2966.0
 20
110.0
 30
0.0
 40
2.0
  1
-0.1
 50
90.0
 41
0.6
  7
GHS
100
AcDbText
  0
TEXT
  5
C1
330
2
100
AcDbEntity
  8
TEXT
100
AcDbText
 10
2963.003385090324
 20
110.2835408246919
 30
0.0
 40
2.0
  1
 0
 50
90.0
 41
0.6
  7
GHS
100
AcDbText
  0
TEXT
  5
C2
330
2
100
AcDbEntity
  8
TEXT
100
AcDbText
 10
2959.0
 20
100.0
 30
0.0
 40
2.0
  1
-0.030
 50
90.0
 41
0.6
  7
GHS
100
AcDbText
  0
TEXT
  5
C3
330
2
100
AcDbEntity
  8
TEXT
100
AcDbText
 10
2956.0
 20
100.0
 30
0.0
 40
2.0
  1
-0.015
 50
90.0
 41
0.6
  7
GHS
100
AcDbText
  0
TEXT
  5
C4
330
2
100
AcDbEntity
  8
TEXT
100
AcDbText
 10
2991.0
 20
129.0
 30
0.0
 40
2.0
  1
%%P0.5
 41
0.6
  7
GHS
100
AcDbText
  0
LINE
  5
C5
330
2
100
AcDbEntity
  8
0
100
AcDbLine
 10
3004.5
 20
112.0
 30
0.0
 11
3004.5
 21
107.4601732168494
 31
0.0
  0
LINE
  5
C6
330
2
100
AcDbEntity
  8
0
100
AcDbLine
 10
3018.5
 20
111.9809049241667
 30
0.0
 11
3018.5
 21
107.4601732168494
 31
0.0
  0
LINE
  5
C7
330
2
100
AcDbEntity
  8
0
100
AcDbLine
 10
3018.5
 20
107.4601732168494
 30
0.0
 11
3004.5
 21
107.4601732168494
 31
0.0
  0
DIMENSION
  5
C8
330
2
100
AcDbEntity
  8
TEXT
100
AcDbDimension
  2
*D1
 10
3025.5
 20
127.0
 30
0.0
 11
3010.75
 21
129.5
 31
0.0
  1
L 
 71
     5
 42
29.5
  3
1X
100
AcDbAlignedDimension
 13
2996.0
 23
111.0
 33
0.0
 14
3025.5
 24
112.0
 34
0.0
100
AcDbRotatedDimension
  0
DIMENSION
  5
D6
330
2
100
AcDbEntity
  8
TEXT
100
AcDbDimension
  2
*D2
 10
2996.0
 20
120.0
 30
0.0
 11
3003.6
 21
122.5
 31
0.0
 71
     5
 42
2.0
  3
1X
100
AcDbAlignedDimension
 13
2994.0
 23
105.5
 33
0.0
 14
2996.0
 24
111.0
 34
0.0
100
AcDbRotatedDimension
  0
DIMENSION
  5
E5
330
2
100
AcDbEntity
  8
TEXT
100
AcDbDimension
  2
*D3
 10
2989.700000000001
 20
110.0
 30
0.0
 11
2983.700000000001
 21
112.5
 31
0.0
 71
     5
 42
12.0
  3
1X
100
AcDbAlignedDimension
 13
2977.700000000001
 23
99.50000000000001
 33
0.0
 14
2989.700000000001
 24
100.0
 34
0.0
100
AcDbRotatedDimension
  0
DIMENSION
  5
F2
330
2
100
AcDbEntity
  8
TEXT
100
AcDbDimension
  2
*D4
 10
2996.0
 20
127.0
 30
0.0
 11
2986.85
 21
129.5
 31
0.0
 71
     5
 42
18.29999999999927
  3
1X
100
AcDbAlignedDimension
 13
2977.700000000001
 23
99.50000000000001
 33
0.0
 14
2996.0
 24
111.0
 34
0.0
100
AcDbRotatedDimension
  0
DIMENSION
  5
FF
330
2
100
AcDbEntity
  8
TEXT
100
AcDbDimension
  2
*D5
 10
2967.0
 20
99.50000000000002
 30
0.0
 11
2964.5
 21
108.3857142857147
 31
0.0
 71
     5
 42
5.5
  3
1X
100
AcDbAlignedDimension
 13
2978.200000000001
 23
94.0
 33
0.0
 14
2977.700000000001
 24
99.50000000000001
 34
0.0
 50
90.0
100
AcDbRotatedDimension
  0
DIMENSION
  5
10E
330
2
100
AcDbEntity
  8
TEXT
100
AcDbDimension
  2
*D6
 10
2960.0
 20
100.0
 30
0.0
 11
2957.5
 21
97.00000000000049
 31
0.0
  1
%%C<>
 71
     5
 42
6.0
  3
1X
100
AcDbAlignedDimension
 13
2978.200000000001
 23
94.0
 33
0.0
 14
2989.700000000001
 24
100.0
 34
0.0
 50
90.0
100
AcDbRotatedDimension
  0
DIMENSION
  5
11D
330
2
100
AcDbEntity
  8
TEXT
100
AcDbDimension
  2
*D7
 10
2953.0
 20
106.0
 30
0.0
 11
2950.5
 21
97.00000000000049
 31
0.0
  1
%%C<>
 71
     5
 42
18.0
  3
1X
100
AcDbAlignedDimension
 13
2994.5
 23
88.0
 33
0.0
 14
2994.5
 24
106.0
 34
0.0
 50
90.0
100
AcDbRotatedDimension
  0
DIMENSION
  5
12A
330
2
100
AcDbEntity
  8
TEXT
100
AcDbDimension
  2
*D8
 10
2946.0
 20
82.00000000000001
 30
0.0
 11
2943.5
 21
97.00000000000049
 31
0.0
  1
%%C<>
 71
     5
 42
30.0
  3
1X
100
AcDbAlignedDimension
 13
2997.0
 23
112.0
 33
0.0
 14
2997.0
 24
82.0
 34
0.0
 50
90.0
100
AcDbRotatedDimension
  0
LINE
  5
137
330
2
100
AcDbEntity
  8
0
100
AcDbLine
 10
3025.5
 20
84.30000000000019
 30
0.0
 11
3025.5
 21
109.6999999999998
 31
0.0
  0
LINE
  5
138
330
2
100
AcDbEntity
  8
0
100
AcDbLine
 10
3072.100000000002
 20
83.10000000000036
 30
0.0
 11
3072.099999999999
 21
110.8999999999996
 31
0.0
  0
LINE
  5
139
330
2
100
AcDbEntity
  8
0
100
AcDbLine
 10
3067.1
 20
95.5
 30
0.0
 11
3067.099999999999
 21
98.50000000000001
 31
0.0
  0
LINE
  5
13A
330
2
100
AcDbEntity
  8
0
100
AcDbLine
 10
3077.099999999999
 20
108.3000000000001
 30
0.0
 11
3077.099999999999
 21
108.6999999999998
 31
0.0
  0
LINE
  5
13B
330
2
100
AcDbEntity
  8
0
100
AcDbLine
 10
3068.600000000002
 20
83.09999999999991
 30
0.0
 11
3068.599999999999
 21
95.5
 31
0.0
  0
LINE
  5
13C
330
2
100
AcDbEntity
  8
0
100
AcDbLine
 10
3068.6
 20
98.50000000000001
 30
0.0
 11
3068.599999999999
 21
110.8999999999996
 31
0.0
  0
LINE
  5
13D
330
2
100
AcDbEntity
  8
0
100
AcDbLine
 10
3074.1
 20
92.0
 30
0.0
 11
3074.099999999999
 21
102.0
 31
0.0
  0
LINE
  5
13E
330
2
100
AcDbEntity
  8
0
100
AcDbLine
 10
3074.900000000002
 20
96.35000000000037
 30
0.0
 11
3074.900000000002
 21
97.64999999999965
 31
0.0
  0
ARC
  5
13F
330
2
100
AcDbEntity
  8
0
100
AcDbCircle
 10
3074.400000000002
 20
96.35000000000037
 30
0.0
 40
0.5
100
AcDbArc
 50
270.0
 51
0.0
  0
LINE
  5
140
330
2
100
AcDbEntity
  8
0
100
AcDbLine
 10
3058.500000000002
 20
83.09999999999991
 30
0.0
 11
3058.500000000002
 21
84.03042020727026
 31
0.0
  0
LINE
  5
141
330
2
100
AcDbEntity
  8
0
100
AcDbLine
 10
3062.5
 20
83.10000000000036
 30
0.0
 11
3062.5
 21
84.0304202072698
 31
0.0
  0
LINE
  5
142
330
2
100
AcDbEntity
  8
0
100
AcDbLine
 10
3030.0
 20
82.19999999999982
 30
0.0
 11
3030.0
 21
95.39999999999963
 31
0.0
  0
LINE
  5
143
330
2
100
AcDbEntity
  8
0
100
AcDbLine
 10
3030.0
 20
98.60000000000036
 30
0.0
 11
3030.0
 21
111.8000000000002
 31
0.0
  0
LINE
  5
144
330
2
100
AcDbEntity
  8
0
100
AcDbLine
 10
3057.5
 20
82.19999999999982
 30
0.0
 11
3057.5
 21
95.39999999999963
 31
0.0
  0
LINE
  5
145
330
2
100
AcDbEntity
  8
0
100
AcDbLine
 10
3057.5
 20
98.60000000000036
 30
0.0
 11
3057.499999999998
 21
111.8000000000002
 31
0.0
  0
LINE
  5
146
330
2
100
AcDbEntity
  8
0
100
AcDbLine
 10
3067.1
 20
98.50000000000001
 30
0.0
 11
3072.099999999999
 21
98.50000000000001
 31
0.0
  0
LINE
  5
147
330
2
100
AcDbEntity
  8
0
100
AcDbLine
 10
3067.1
 20
95.5
 30
0.0
 11
3072.100000000001
 21
95.5
 31
0.0
  0
LINE
  5
148
330
2
100
AcDbEntity
  8
0
100
AcDbLine
 10
3072.099999999999
 20
108.3000000000001
 30
0.0
 11
3077.099999999999
 21
108.3000000000001
 31
0.0
  0
LINE
  5
149
330
2
100
AcDbEntity
  8
0
100
AcDbLine
 10
3072.099999999999
 20
108.6999999999998
 30
0.0
 11
3077.099999999999
 21
108.6999999999998
 31
0.0
  0
LINE
  5
14A
330
2
100
AcDbEntity
  8
0
100
AcDbLine
 10
3074.1
 20
98.14999999999963
 30
0.0
 11
3074.400000000002
 21
98.14999999999963
 31
0.0
  0
ARC
  5
14B
330
2
100
AcDbEntity
  8
0
100
AcDbCircle
 10
3074.400000000002
 20
97.64999999999965
 30
0.0
 40
0.5
100
AcDbArc
 50
0.0
 51
90.0
  0
LINE
  5
14C
330
2
100
AcDbEntity
  8
0
100
AcDbLine
 10
3074.099999999999
 20
95.85000000000036
 30
0.0
 11
3074.400000000002
 21
95.85000000000036
 31
0.0
  0
LINE
  5
14D
330
2
100
AcDbEntity
  8
0
100
AcDbLine
 10
3072.099999999999
 20
102.0
 30
0.0
 11
3074.1
 21
102.0
 31
0.0
  0
LINE
  5
14E
330
2
100
AcDbEntity
  8
0
100
AcDbLine
 10
3072.100000000001
 20
92.0
 30
0.0
 11
3074.1
 21
92.0
 31
0.0
  0
LINE
  5
14F
330
2
100
AcDbEntity
  8
0
100
AcDbLine
 10
3030.0
 20
98.59999999999992
 30
0.0
 11
3057.5
 21
98.60000000000036
 31
0.0
  0
LINE
  5
150
330
2
100
AcDbEntity
  8
0
100
AcDbLine
 10
3030.0
 20
95.39999999999963
 30
0.0
 11
3057.5
 21
95.39999999999963
 31
0.0
  0
LINE
  5
151
330
2
100
AcDbEntity
  8
0
100
AcDbLine
 10
3030.0
 20
111.8000000000002
 30
0.0
 11
3057.499999999998
 21
111.8000000000002
 31
0.0
  0
LINE
  5
152
330
2
100
AcDbEntity
  8
0
100
AcDbLine
 10
3030.0
 20
82.19999999999982
 30
0.0
 11
3057.5
 21
82.19999999999982
 31
0.0
  0
LINE
  5
153
330
2
100
AcDbEntity
  8
0
100
AcDbLine
 10
3026.699999999999
 20
110.8999999999996
 30
0.0
 11
3030.0
 21
110.8999999999996
 31
0.0
  0
LINE
  5
154
330
2
100
AcDbEntity
  8
0
100
AcDbLine
 10
3057.499999999998
 20
110.8999999999996
 30
0.0
 11
3058.500000000002
 21
110.8999999999996
 31
0.0
  0
LINE
  5
155
330
2
100
AcDbEntity
  8
0
100
AcDbLine
 10
3062.5
 20
110.8999999999996
 30
0.0
 11
3072.099999999999
 21
110.8999999999996
 31
0.0
  0
ARC
  5
156
330
2
100
AcDbEntity
  8
0
100
AcDbCircle
 10
3026.699999999999
 20
109.6999999999998
 30
0.0
 40
1.199999999999999
100
AcDbArc
 50
90.0
 51
180.0
  0
LINE
  5
157
330
2
100
AcDbEntity
  8
0
100
AcDbLine
 10
3026.700000000001
 20
83.10000000000036
 30
0.0
 11
3030.0
 21
83.10000000000036
 31
0.0
  0
LINE
  5
158
330
2
100
AcDbEntity
  8
0
100
AcDbLine
 10
3057.5
 20
83.10000000000036
 30
0.0
 11
3058.500000000002
 21
83.10000000000036
 31
0.0
  0
LINE
  5
159
330
2
100
AcDbEntity
  8
0
100
AcDbLine
 10
3062.5
 20
83.10000000000036
 30
0.0
 11
3072.100000000002
 21
83.10000000000036
 31
0.0
  0
ARC
  5
15A
330
2
100
AcDbEntity
  8
0
100
AcDbCircle
 10
3026.700000000001
 20
84.30000000000019
 30
0.0
 40
1.199999999999999
100
AcDbArc
 50
180.0
 51
270.0
  0
ELLIPSE
  5
15B
330
2
100
AcDbEntity
  8
0
100
AcDbEllipse
 10
3060.5
 20
84.03042020727026
 30
0.0
 11
1.99999999999909
 21
-0.000000000000057
 31
0.0
210
0.0
220
0.0
230
1.0
 40
0.2156192973146872
 41
0.0
 42
3.141592653589793
  0
LINE
  5
15C
330
2
100
AcDbEntity
  8
0
100
AcDbLine
 10
3058.500000000002
 20
110.9000000000001
 30
0.0
 11
3058.500000000002
 21
109.9695797927297
 31
0.0
  0
LINE
  5
15D
330
2
100
AcDbEntity
  8
0
100
AcDbLine
 10
3062.5
 20
110.8999999999996
 30
0.0
 11
3062.5
 21
109.9695797927302
 31
0.0
  0
ELLIPSE
  5
15E
330
2
100
AcDbEntity
  8
0
100
AcDbEllipse
 10
3060.5
 20
109.9695797927297
 30
0.0
 11
1.99999999999909
 21
0.0000000000000567
 31
0.0
210
0.0
220
0.0
230
-1.0
 40
0.2156192973146872
 41
0.0
 42
3.141592653589793
  0
LINE
  5
15F
330
2
100
AcDbEntity
  8
0
100
AcDbLine
 10
3077.099999999999
 20
85.69999999999982
 30
0.0
 11
3077.099999999999
 21
85.30000000000018
 31
0.0
  0
LINE
  5
160
330
2
100
AcDbEntity
  8
0
100
AcDbLine
 10
3072.099999999999
 20
85.69999999999982
 30
0.0
 11
3077.099999999999
 21
85.69999999999982
 31
0.0
  0
LINE
  5
161
330
2
100
AcDbEntity
  8
0
100
AcDbLine
 10
3072.099999999999
 20
85.30000000000018
 30
0.0
 11
3077.099999999999
 21
85.30000000000018
 31
0.0
  0
DIMENSION
  5
162
330
2
100
AcDbEntity
  8
TEXT
100
AcDbDimension
  2
*D9
 10
3072.099999999999
 20
127.0
 30
0.0
 11
3048.799999999999
 21
129.5
 31
0.0
 71
     5
 42
46.59999999999854
  3
1X
100
AcDbAlignedDimension
 13
3025.5
 23
112.0
 33
0.0
 14
3072.099999999999
 24
110.8999999999996
 34
0.0
100
AcDbRotatedDimension
  0
DIMENSION
  5
16F
330
2
100
AcDbEntity
  8
TEXT
100
AcDbDimension
  2
*D10
 10
3077.099999999999
 20
127.0
 30
0.0
 11
3074.599999999998
 21
129.5
 31
0.0
 71
     5
 42
5.0
  3
1X
100
AcDbAlignedDimension
 13
3072.099999999999
 23
110.8999999999996
 33
0.0
 14
3077.099999999999
 24
108.6999999999998
 34
0.0
100
AcDbRotatedDimension
  0
DIMENSION
  5
17E
330
2
100
AcDbEntity
  8
TEXT
100
AcDbDimension
  2
*D11
 10
3084.0
 20
110.8999999999996
 30
0.0
 11
3081.5
 21
97.0000000000005
 31
0.0
  1
%%C<>
 71
     5
 42
27.79999999999927
  3
1X
100
AcDbAlignedDimension
 13
3072.100000000002
 23
83.10000000000036
 33
0.0
 14
3072.099999999999
 24
110.8999999999996
 34
0.0
 50
90.0
100
AcDbRotatedDimension
  0
LINE
  5
18B
330
2
100
AcDbEntity
  8
0
100
AcDbLine
 10
3036.499987040901
 20
100.8999999999941
 30
0.0
 11
3051.499987040901
 21
100.8999999999941
 31
0.0
  0
ARC
  5
18C
330
2
100
AcDbEntity
  8
0
100
AcDbCircle
 10
3036.499987040901
 20
103.8999999999941
 30
0.0
 40
3.0
100
AcDbArc
 50
180.0
 51
270.0
  0
LINE
  5
18D
330
2
100
AcDbEntity
  8
0
100
AcDbLine
 10
3033.499987040901
 20
103.8999999999941
 30
0.0
 11
3033.499987040901
 21
111.7999999999997
 31
0.0
  0
LINE
  5
18E
330
2
100
AcDbEntity
  8
0
100
AcDbLine
 10
3054.499987040901
 20
103.8999999999941
 30
0.0
 11
3054.499987040901
 21
111.7999999999997
 31
0.0
  0
ARC
  5
18F
330
2
100
AcDbEntity
  8
0
100
AcDbCircle
 10
3051.499987040901
 20
103.8999999999941
 30
0.0
 40
3.0
100
AcDbArc
 50
270.0
 51
0.0
  0
LINE
  5
190
330
2
100
AcDbEntity
  8
CL
100
AcDbLine
 10
2896.5
 20
97.0
 30
0.0
 11
2935.5
 21
97.0
 31
0.0
  0
LINE
  5
191
330
2
100
AcDbEntity
  8
CL
100
AcDbLine
 10
2916.0
 20
77.5
 30
0.0
 11
2916.0
 21
116.5
 31
0.0
  0
CIRCLE
  5
192
330
2
100
AcDbEntity
  8
0
100
AcDbCircle
 10
2916.0
 20
97.0
 30
0.0
 40
3.0
  0
CIRCLE
  5
193
330
2
100
AcDbEntity
  8
0
100
AcDbCircle
 10
2916.0
 20
97.0
 30
0.0
 40
2.5
  0
CIRCLE
  5
194
330
2
100
AcDbEntity
  8
0
100
AcDbCircle
 10
2916.0
 20
97.0
 30
0.0
 40
7.5
  0
CIRCLE
  5
195
330
2
100
AcDbEntity
  8
0
100
AcDbCircle
 10
2928.0
 20
96.99999999999967
 30
0.0
 40
1.7
  0
ARC
  5
196
330
2
100
AcDbEntity
  8
0
100
AcDbCircle
 10
2928.0
 20
96.99999999999967
 30
0.0
 40
1.5
100
AcDbArc
 50
259.878861153134
 51
190.2121249084073
  0
CIRCLE
  5
197
330
2
100
AcDbEntity
  8
0
100
AcDbCircle
 10
2928.0
 20
96.99999999999967
 30
0.0
 40
1.199999999999999
  0
CIRCLE
  5
198
330
2
100
AcDbEntity
  8
0
100
AcDbCircle
 10
2916.0
 20
108.9999999999996
 30
0.0
 40
1.7
  0
ARC
  5
199
330
2
100
AcDbEntity
  8
0
100
AcDbCircle
 10
2916.0
 20
108.9999999999996
 30
0.0
 40
1.5
100
AcDbArc
 50
259.878861153134
 51
190.2121249084073
  0
CIRCLE
  5
19A
330
2
100
AcDbEntity
  8
0
100
AcDbCircle
 10
2916.0
 20
108.9999999999996
 30
0.0
 40
1.199999999999999
  0
CIRCLE
  5
19B
330
2
100
AcDbEntity
  8
0
100
AcDbCircle
 10
2904.0
 20
97.0
 30
0.0
 40
1.7
  0
ARC
  5
19C
330
2
100
AcDbEntity
  8
0
100
AcDbCircle
 10
2904.0
 20
97.0
 30
0.0
 40
1.5
100
AcDbArc
 50
259.878861153134
 51
190.2121249084073
  0
CIRCLE
  5
19D
330
2
100
AcDbEntity
  8
0
100
AcDbCircle
 10
2904.0
 20
97.0
 30
0.0
 40
1.199999999999999
  0
CIRCLE
  5
19E
330
2
100
AcDbEntity
  8
0
100
AcDbCircle
 10
2916.0
 20
85.0
 30
0.0
 40
1.7
  0
ARC
  5
19F
330
2
100
AcDbEntity
  8
0
100
AcDbCircle
 10
2916.0
 20
85.0
 30
0.0
 40
1.5
100
AcDbArc
 50
259.878861153134
 51
190.2121249084073
  0
CIRCLE
  5
1A0
330
2
100
AcDbEntity
  8
0
100
AcDbCircle
 10
2916.0
 20
85.0
 30
0.0
 40
1.199999999999999
  0
LINE
  5
1A1
330
2
100
AcDbEntity
  8
0
100
AcDbLine
 10
2919.448187929913
 20
97.0
 30
0.0
 11
2919.0
 21
97.0
 31
0.0
  0
LINE
  5
1A2
330
2
100
AcDbEntity
  8
0
100
AcDbLine
 10
2917.5
 20
99.59807621135315
 30
0.0
 11
2917.724093964956
 21
99.98621834432789
 31
0.0
  0
LINE
  5
1A3
330
2
100
AcDbEntity
  8
0
100
AcDbLine
 10
2918.140118048825
 20
94.89764543021465
 30
0.0
 11
2918.900625712526
 21
93.26216278788479
 31
0.0
  0
LINE
  5
1A4
330
2
100
AcDbEntity
  8
0
100
AcDbLine
 10
2914.5
 20
99.59807621135315
 30
0.0
 11
2914.275906035044
 21
99.98621834432789
 31
0.0
  0
LINE
  5
1A5
330
2
100
AcDbEntity
  8
0
100
AcDbLine
 10
2912.551812070087
 20
97.0
 30
0.0
 11
2913.0
 21
97.0
 31
0.0
  0
LINE
  5
1A6
330
2
100
AcDbEntity
  8
0
100
AcDbLine
 10
2913.859881951175
 20
94.89764543021465
 30
0.0
 11
2913.099374287475
 21
93.26216278788479
 31
0.0
  0
ARC
  5
1A7
330
2
100
AcDbEntity
  8
0
100
AcDbCircle
 10
2916.0
 20
97.0
 30
0.0
 40
5.5
100
AcDbArc
 50
314.6678888984756
 51
225.3321111015244
  0
ARC
  5
1A8
330
2
100
AcDbEntity
  8
0
100
AcDbCircle
 10
2916.0
 20
97.0
 30
0.0
 40
4.099999999999999
100
AcDbArc
 50
9.870889606155422
 51
50.12911039383567
  0
ARC
  5
1A9
330
2
100
AcDbEntity
  8
0
100
AcDbCircle
 10
2916.0
 20
97.0
 30
0.0
 40
4.099999999999999
100
AcDbArc
 50
129.8708896061643
 51
170.1291103938445
  0
ARC
  5
1AA
330
2
100
AcDbEntity
  8
0
100
AcDbCircle
 10
2919.444681520851
 20
93.51515147819828
 30
0.0
 40
0.6
100
AcDbArc
 50
204.9386648618466
 51
314.6678888984756
  0
ARC
  5
1AB
330
2
100
AcDbEntity
  8
0
100
AcDbCircle
 10
2912.55531847915
 20
93.51515147819828
 30
0.0
 40
0.6
100
AcDbArc
 50
225.3321111015244
 51
335.0613351381534
  0
ARC
  5
1AC
330
2
100
AcDbEntity
  8
0
100
AcDbCircle
 10
2919.448187929913
 20
97.5999999999999
 30
0.0
 40
0.6
100
AcDbArc
 50
270.0
 51
9.870889606155422
  0
ARC
  5
1AD
330
2
100
AcDbEntity
  8
0
100
AcDbCircle
 10
2918.243709207227
 20
99.6862183443277
 30
0.0
 40
0.6
100
AcDbArc
 50
50.12911039383567
 51
149.999999999984
  0
ARC
  5
1AE
330
2
100
AcDbEntity
  8
0
100
AcDbCircle
 10
2913.756290792773
 20
99.6862183443277
 30
0.0
 40
0.6
100
AcDbArc
 50
30.00000000001598
 51
129.8708896061643
  0
ARC
  5
1AF
330
2
100
AcDbEntity
  8
0
100
AcDbCircle
 10
2912.551812070087
 20
97.5999999999999
 30
0.0
 40
0.6
100
AcDbArc
 50
170.1291103938445
 51
270.0
  0
LINE
  5
1B0
330
2
100
AcDbEntity
  8
0
100
AcDbLine
 10
2917.658312395179
 20
99.50000000000001
 30
0.0
 11
2914.341687604821
 21
99.50000000000001
 31
0.0
  0
CIRCLE
  5
1B1
330
2
100
AcDbEntity
  8
0
100
AcDbCircle
 10
2916.0
 20
97.0
 30
0.0
 40
6.9
  0
TEXT
  5
1B2
330
2
100
AcDbEntity
  8
TEXT
100
AcDbText
 10
2926.0
 20
70.0
 30
0.0
 40
3.0
  1
4-M3 TAP
 41
0.6
  7
GHS
100
AcDbText
  0
TEXT
  5
1B3
330
2
100
AcDbEntity
  8
TEXT
100
AcDbText
 10
2926.0
 20
65.0
 30
0.0
 40
3.0
  1
DP 4
 41
0.6
  7
GHS
100
AcDbText
  0
TEXT
  5
1B4
330
2
100
AcDbEntity
  8
TEXT
100
AcDbText
 10
2926.0
 20
61.0
 30
0.0
 40
3.0
  1
PCD %%C24
 41
0.6
  7
GHS
100
AcDbText
  0
CIRCLE
  5
1B5
330
2
100
AcDbEntity
  8
0
100
AcDbCircle
 10
2916.0
 20
97.0
 30
0.0
 40
9.0
  0
CIRCLE
  5
1B6
330
2
100
AcDbEntity
  8
0
100
AcDbCircle
 10
2916.0
 20
97.0
 30
0.0
 40
15.0
  0
CIRCLE
  5
1B7
330
2
100
AcDbEntity
  8
CL
100
AcDbCircle
 10
2916.0
 20
97.0
 30
0.0
 40
12.0
  0
TEXT
  5
1B8
330
2
100
AcDbEntity
  8
TEXT
100
AcDbText
 10
3031.999994223868
 20
51.99999887009472
 30
0.0
 40
4.0
  1
23.1
 41
0.6
  7
GHS
100
AcDbText
  0
TEXT
  5
1B9
330
2
100
AcDbEntity
  8
TEXT
100
AcDbText
 10
3031.999994223868
 20
43.99999887009471
 30
0.0
 40
4.0
  1
29.5
 41
0.6
  7
GHS
100
AcDbText
  0
TEXT
  5
1BA
330
2
100
AcDbEntity
  8
TEXT
100
AcDbText
 10
3031.999994223868
 20
35.99999887009472
 30
0.0
 40
4.0
  1
35.9
 41
0.6
  7
GHS
100
AcDbText
  0
TEXT
  5
1BB
330
2
100
AcDbEntity
  8
TEXT
100
AcDbText
 10
3031.999994223868
 20
27.99999887009472
 30
0.0
 40
4.0
  1
42.3
 41
0.6
  7
GHS
100
AcDbText
  0
LEADER
  5
1BC
330
2
100
AcDbEntity
  8
TEXT
100
AcDbLeader
  3
Standard
 76
     3
 10
2916.595105381995
 20
83.9579589334769
 30
0.0
 10
2925.0
 20
69.0
 30
0.0
 10
2940.0
 20
69.0
 30
0.0
1001
ACAD
1000
DSTYLE
1002
{
1070
   147
1040
1.0
1070
    77
1070
     0
1002
}
  0
LINE
  5
1BD
330
2
100
AcDbEntity
  8
0
100
AcDbLine
 10
3002.66666666667
 20
96.70370370370404
 30
0.0
 11
3003.185185185188
 21
96.70370370370404
 31
0.0
  0
LINE
  5
1BE
330
2
100
AcDbEntity
  8
0
100
AcDbLine
 10
3002.66666666667
 20
97.29629629629597
 30
0.0
 11
3003.185185185188
 21
97.29629629629597
 31
0.0
  0
ARC
  5
1BF
330
2
100
AcDbEntity
  8
0
100
AcDbCircle
 10
3001.333333333338
 20
96.33333333333395
 30
0.0
 40
0.37037037037
100
AcDbArc
 50
0.0
 51
90.0
  0
ARC
  5
1C0
330
2
100
AcDbEntity
  8
0
100
AcDbCircle
 10
3001.333333333338
 20
97.66666666666607
 30
0.0
 40
0.37037037037
100
AcDbArc
 50
270.0
 51
0.0
  0
ARC
  5
1C1
330
2
100
AcDbEntity
  8
0
100
AcDbCircle
 10
3002.66666666667
 20
97.66666666666607
 30
0.0
 40
0.37037037037
100
AcDbArc
 50
180.0
 51
270.0
  0
ARC
  5
1C2
330
2
100
AcDbEntity
  8
0
100
AcDbCircle
 10
3002.66666666667
 20
96.33333333333395
 30
0.0
 40
0.37037037037
100
AcDbArc
 50
90.0
 51
179.9999999999935
  0
LINE
  5
1C3
330
2
100
AcDbEntity
  8
0
100
AcDbLine
 10
3002.296296296299
 20
96.33333333333395
 30
0.0
 11
3002.296296296299
 21
95.81481481481592
 31
0.0
  0
LINE
  5
1C4
330
2
100
AcDbEntity
  8
0
100
AcDbLine
 10
3001.703703703708
 20
96.33333333333395
 30
0.0
 11
3001.703703703708
 21
95.81481481481592
 31
0.0
  0
LINE
  5
1C5
330
2
100
AcDbEntity
  8
0
100
AcDbLine
 10
3000.81481481482
 20
97.29629629629597
 30
0.0
 11
3001.333333333338
 21
97.29629629629597
 31
0.0
  0
LINE
  5
1C6
330
2
100
AcDbEntity
  8
0
100
AcDbLine
 10
3000.81481481482
 20
96.70370370370404
 30
0.0
 11
3001.333333333338
 21
96.70370370370404
 31
0.0
  0
LINE
  5
1C7
330
2
100
AcDbEntity
  8
0
100
AcDbLine
 10
3000.81481481482
 20
97.29629629629597
 30
0.0
 11
3000.81481481482
 21
96.70370370370404
 31
0.0
  0
LINE
  5
1C8
330
2
100
AcDbEntity
  8
0
100
AcDbLine
 10
3002.296296296299
 20
98.18518518518409
 30
0.0
 11
3002.296296296299
 21
97.66666666666607
 31
0.0
  0
LINE
  5
1C9
330
2
100
AcDbEntity
  8
0
100
AcDbLine
 10
3001.703703703708
 20
98.18518518518409
 30
0.0
 11
3001.703703703708
 21
97.66666666666607
 31
0.0
  0
LINE
  5
1CA
330
2
100
AcDbEntity
  8
0
100
AcDbLine
 10
3002.296296296299
 20
95.81481481481592
 30
0.0
 11
3001.703703703708
 21
95.81481481481592
 31
0.0
  0
LINE
  5
1CB
330
2
100
AcDbEntity
  8
0
100
AcDbLine
 10
3002.296296296299
 20
98.18518518518409
 30
0.0
 11
3001.703703703708
 21
98.18518518518409
 31
0.0
  0
LINE
  5
1CC
330
2
100
AcDbEntity
  8
0
100
AcDbLine
 10
3003.185185185188
 20
97.29629629629597
 30
0.0
 11
3003.185185185188
 21
96.70370370370404
 31
0.0
  0
CIRCLE
  5
1CD
330
2
100
AcDbEntity
  8
0
100
AcDbCircle
 10
3002.000000000004
 20
97.0
 30
0.0
 40
1.999999999997999
  0
ENDSEC
  0
SECTION
  2
OBJECTS
  0
DICTIONARY
  5
C
330
0
100
AcDbDictionary
281
     1
  3
ACAD_2007HEADERVARS_RT
350
223
  3
ACAD_COLOR
350
59
  3
ACAD_GROUP
350
46
  3
ACAD_LAYOUT
350
19
  3
ACAD_MATERIAL
350
E
  3
ACAD_MLEADERSTYLE
350
1FE
  3
ACAD_MLINESTYLE
350
47
  3
ACAD_PLOTSETTINGS
350
48
  3
ACAD_PLOTSTYLENAME
350
B
  3
ACAD_SCALELIST
350
5A
  3
ACAD_TABLESTYLE
350
5B
  3
ACAD_VISUALSTYLE
350
32
  3
ACDB_RECOMPOSE_DATA
350
1D2
  3
AcDbVariableDictionary
350
1E7
  0
DICTIONARY
  5
33
330
2F
100
AcDbDictionary
280
     1
281
     1
  0
DICTIONARY
  5
22
330
21
100
AcDbDictionary
280
     1
281
     1
  3
ACAD_LAYERFILTERS
360
23
  3
ACAD_LAYERSTATES
360
24
  3
ACLYDICTIONARY
360
25
  0
DICTIONARY
  5
8
330
7
100
AcDbDictionary
280
     1
281
     1
  3
ADSK_XREC_LAYER_RECONCILED
360
9
  0
DICTIONARY
  5
99
330
98
100
AcDbDictionary
280
     1
281
     1
  3
ADSK_XREC_LAYER_RECONCILED
360
9A
  0
DICTIONARY
  5
5D
330
5C
100
AcDbDictionary
280
     1
281
     1
  3
ADSK_XREC_LAYER_RECONCILED
360
5E
  0
DICTIONARY
  5
3
330
2
100
AcDbDictionary
280
     1
281
     1
  3
ACAD_LAYOUTSELFREF
360
4
  3
ACAD_SORTENTS
360
1CE
  0
DICTIONARY
  5
1C
330
1B
100
AcDbDictionary
280
     1
281
     1
  3
ACAD_LAYOUTSELFREF
360
1D
  0
DICTIONARY
  5
223
102
{ACAD_REACTORS
330
C
102
}
330
C
100
AcDbDictionary
281
     1
  3
DIMLTEX1
350
225
  3
DIMLTEX2
350
226
  3
DIMLTYPE
350
224
  0
DICTIONARY
  5
59
102
{ACAD_REACTORS
330
C
102
}
330
C
100
AcDbDictionary
281
     1
  0
DICTIONARY
  5
46
102
{ACAD_REACTORS
330
C
102
}
330
C
100
AcDbDictionary
281
     1
  0
DICTIONARY
  5
19
102
{ACAD_REACTORS
330
C
102
}
330
C
100
AcDbDictionary
281
     1
  3
Layout1
350
20
  3
Model
350
18
  0
DICTIONARY
  5
E
102
{ACAD_REACTORS
330
C
102
}
330
C
100
AcDbDictionary
281
     1
  3
ByBlock
350
51
  3
ByLayer
350
49
  3
Global
350
D
  0
DICTIONARY
  5
1FE
102
{ACAD_REACTORS
330
C
102
}
330
C
100
AcDbDictionary
281
     1
  3
Standard
350
1FF
  0
DICTIONARY
  5
47
102
{ACAD_REACTORS
330
C
102
}
330
C
100
AcDbDictionary
281
     1
  3
Standard
350
5F
  0
DICTIONARY
  5
48
102
{ACAD_REACTORS
330
C
102
}
330
C
100
AcDbDictionary
281
     1
  0
ACDBDICTIONARYWDFLT
  5
B
102
{ACAD_REACTORS
330
C
102
}
330
C
100
AcDbDictionary
281
     1
  3
Normal
350
A
100
AcDbDictionaryWithDefault
340
A
  0
DICTIONARY
  5
5A
102
{ACAD_REACTORS
330
C
102
}
330
C
100
AcDbDictionary
281
     1
  3
*A1
350
64
  3
A0
350
65
  3
A1
350
66
  3
A2
350
67
  3
A3
350
68
  3
A4
350
69
  3
A5
350
6A
  3
A6
350
6B
  3
A7
350
6C
  3
A8
350
6D
  3
A9
350
6E
  3
B0
350
6F
  3
B1
350
70
  3
B2
350
71
  3
B3
350
72
  3
B4
350
73
  3
B5
350
74
  3
B6
350
75
  3
B7
350
76
  3
B8
350
77
  3
B9
350
78
  3
C0
350
79
  3
C1
350
7A
  3
C2
350
7B
  3
C3
350
7C
  3
C4
350
7D
  3
C5
350
7E
  3
C6
350
7F
  3
C7
350
80
  3
C8
350
81
  3
C9
350
82
  3
D0
350
83
  3
D1
350
84
  3
D2
350
85
  0
DICTIONARY
  5
5B
102
{ACAD_REACTORS
330
C
102
}
330
C
100
AcDbDictionary
281
     1
  3
Standard
350
60
  0
DICTIONARY
  5
32
102
{ACAD_REACTORS
330
C
102
}
330
C
100
AcDbDictionary
281
     1
  3
2dWireframe
350
31
  3
3D Hidden
350
1F6
  3
3dWireframe
350
63
  3
Basic
350
1F5
  3
Brighten
350
1F9
  3
ColorChange
350
1FD
  3
Conceptual
350
1F7
  3
Dim
350
1F8
  3
Facepattern
350
1FC
  3
Flat
350
1F1
  3
FlatWithEdges
350
1F2
  3
Gouraud
350
1F3
  3
GouraudWithEdges
350
1F4
  3
Linepattern
350
1FB
  3
Realistic
350
62
  3
Thicken
350
1FA
  0
XRECORD
  5
1D2
102
{ACAD_REACTORS
330
C
102
}
330
C
100
AcDbXrecord
280
     1
 90
        1
330
60
  0
DICTIONARY
  5
1E7
102
{ACAD_REACTORS
330
C
102
}
330
C
100
AcDbDictionary
281
     1
  3
CANNOSCALE
350
1EB
  3
CMLEADERSTYLE
350
1E9
  3
CTABLESTYLE
350
1E8
  3
DIMASSOC
350
1EF
  3
HIDETEXT
350
1EE
  3
INDEXCTL
350
1ED
  3
LIGHTINGUNITS
350
206
  3
MSLTSCALE
350
1EA
  3
SORTENTS
350
1EC
  0
DICTIONARY
  5
23
102
{ACAD_REACTORS
330
22
102
}
330
22
100
AcDbDictionary
281
     1
  0
DICTIONARY
  5
24
102
{ACAD_REACTORS
330
22
102
}
330
22
100
AcDbDictionary
281
     1
  0
DICTIONARY
  5
25
102
{ACAD_REACTORS
330
22
102
}
330
22
100
AcDbDictionary
281
     1
1001
ACAD
1000
<All
  0
XRECORD
  5
9
102
{ACAD_REACTORS
330
8
102
}
330
8
100
AcDbXrecord
280
     1
290
     1
  0
XRECORD
  5
9A
102
{ACAD_REACTORS
330
99
102
}
330
99
100
AcDbXrecord
280
     1
290
     1
  0
XRECORD
  5
5E
102
{ACAD_REACTORS
330
5D
102
}
330
5D
100
AcDbXrecord
280
     1
290
     1
  0
XRECORD
  5
4
102
{ACAD_REACTORS
330
3
102
}
330
3
100
AcDbXrecord
280
     1
340
2
  0
SORTENTSTABLE
  5
1CE
102
{ACAD_REACTORS
330
3
102
}
330
3
100
AcDbSortentsTable
330
2
  0
XRECORD
  5
1D
102
{ACAD_REACTORS
330
1C
102
}
330
1C
100
AcDbXrecord
280
     1
340
1B
  0
XRECORD
  5
225
102
{ACAD_REACTORS
330
223
102
}
330
223
100
AcDbXrecord
280
     1
340
2C
  0
XRECORD
  5
226
102
{ACAD_REACTORS
330
223
102
}
330
223
100
AcDbXrecord
280
     1
340
2C
  0
XRECORD
  5
224
102
{ACAD_REACTORS
330
223
102
}
330
223
100
AcDbXrecord
280
     1
340
2C
  0
LAYOUT
  5
20
102
{ACAD_REACTORS
330
19
102
}
330
19
100
AcDbPlotSettings
  1

  2
HP LaserJet 5000 Series PS
  4

  6

 40
0.0
 41
0.0
 42
0.0
 43
0.0
 44
0.0
 45
0.0
 46
0.0
 47
0.0
 48
0.0
 49
0.0
140
0.0
141
0.0
142
1.0
143
1.0
 70
   688
 72
     0
 73
     0
 74
     5
  7
C:\Users\R&D\AppData\Roaming\Autodesk\Autodesk Mechanical Desktop 2008\R17.1\kor\Plot Styles\CATALOG.ctb
 75
    16
147
1.0
 76
     0
 77
     2
 78
   300
148
0.0
149
0.0
100
AcDbLayout
  1
Layout1
 70
     1
 71
     1
 10
0.0
 20
0.0
 11
12.0
 21
9.0
 12
2220.404641079056
 22
50.00000000000001
 32
2810.473195709564
 14
1.000000000000000E+20
 24
1.000000000000000E+20
 34
1.000000000000000E+20
 15
-1.000000000000000E+20
 25
-1.000000000000000E+20
 35
-1.000000000000000E+20
146
0.0
 13
0.0
 23
0.0
 33
0.0
 16
1.0
 26
0.0
 36
0.0
 17
0.0
 27
1.0
 37
0.0
 76
     0
330
1B
  0
LAYOUT
  5
18
102
{ACAD_REACTORS
330
19
102
}
330
19
100
AcDbPlotSettings
  1

  2
PublishToWeb JPG.pc3
  4
Sun_Hi-Res_(1600.00_x_1280.00_Pixels)
  6

 40
0.0
 41
0.0
 42
1.0
 43
1.0
 44
1600.0
 45
1280.0
 46
0.0
 47
0.0
 48
2595.0
 49
7.0
140
2798.0
141
134.0
142
1.0
143
0.1269543464665416
 70
 11952
 72
     2
 73
     0
 74
     4
  7
CATALOG.ctb
 75
     0
147
7.876847290640394
 76
     0
 77
     2
 78
   300
148
-2595.0
149
-7.0
100
AcDbLayout
  1
Model
 70
     1
 71
     0
 10
0.0
 20
0.0
 11
12.0
 21
9.0
 12
0.0
 22
0.0
 32
0.0
 14
0.0
 24
0.0
 34
0.0
 15
0.0
 25
0.0
 35
0.0
146
0.0
 13
0.0
 23
0.0
 33
0.0
 16
1.0
 26
0.0
 36
0.0
 17
0.0
 27
1.0
 37
0.0
 76
     0
330
2
331
30
1001
ACAD_PSEXT
1000
PublishToWeb JPG.pc3
1000
Independent JPEG Group JFIF (JPEG Compression)
1000
파일
1000

1070
     0
  0
MATERIAL
  5
51
102
{ACAD_XDICTIONARY
360
52
102
}
102
{ACAD_REACTORS
330
E
102
}
330
E
100
AcDbMaterial
  1
ByBlock
 72
     0
 43
0.0208333333333333
 43
0.0
 43
0.0
 43
0.0
 43
0.0
 43
0.0208333333333333
 43
0.0
 43
0.0
 43
0.0
 43
0.0
 43
1.0
 43
0.0
 43
0.0
 43
0.0
 43
0.0
 43
1.0
 77
     0
 47
0.0208333333333333
 47
0.0
 47
0.0
 47
0.0
 47
0.0
 47
0.0208333333333333
 47
0.0
 47
0.0
 47
0.0
 47
0.0
 47
1.0
 47
0.0
 47
0.0
 47
0.0
 47
0.0
 47
1.0
171
     0
 49
0.0208333333333333
 49
0.0
 49
0.0
 49
0.0
 49
0.0
 49
0.0208333333333333
 49
0.0
 49
0.0
 49
0.0
 49
0.0
 49
1.0
 49
0.0
 49
0.0
 49
0.0
 49
0.0
 49
1.0
175
     0
142
0.0208333333333333
142
0.0
142
0.0
142
0.0
142
0.0
142
0.0208333333333333
142
0.0
142
0.0
142
0.0
142
0.0
142
1.0
142
0.0
142
0.0
142
0.0
142
0.0
142
1.0
179
     0
144
0.0208333333333333
144
0.0
144
0.0
144
0.0
144
0.0
144
0.0208333333333333
144
0.0
144
0.0
144
0.0
144
0.0
144
1.0
144
0.0
144
0.0
144
0.0
144
0.0
144
1.0
147
0.0208333333333333
147
0.0
147
0.0
147
0.0
147
0.0
147
0.0208333333333333
147
0.0
147
0.0
147
0.0
147
0.0
147
1.0
147
0.0
147
0.0
147
0.0
147
0.0
147
1.0
  0
MATERIAL
  5
49
102
{ACAD_XDICTIONARY
360
4A
102
}
102
{ACAD_REACTORS
330
E
102
}
330
E
100
AcDbMaterial
  1
ByLayer
 72
     0
 43
0.0208333333333333
 43
0.0
 43
0.0
 43
0.0
 43
0.0
 43
0.0208333333333333
 43
0.0
 43
0.0
 43
0.0
 43
0.0
 43
1.0
 43
0.0
 43
0.0
 43
0.0
 43
0.0
 43
1.0
 77
     0
 47
0.0208333333333333
 47
0.0
 47
0.0
 47
0.0
 47
0.0
 47
0.0208333333333333
 47
0.0
 47
0.0
 47
0.0
 47
0.0
 47
1.0
 47
0.0
 47
0.0
 47
0.0
 47
0.0
 47
1.0
171
     0
 49
0.0208333333333333
 49
0.0
 49
0.0
 49
0.0
 49
0.0
 49
0.0208333333333333
 49
0.0
 49
0.0
 49
0.0
 49
0.0
 49
1.0
 49
0.0
 49
0.0
 49
0.0
 49
0.0
 49
1.0
175
     0
142
0.0208333333333333
142
0.0
142
0.0
142
0.0
142
0.0
142
0.0208333333333333
142
0.0
142
0.0
142
0.0
142
0.0
142
1.0
142
0.0
142
0.0
142
0.0
142
0.0
142
1.0
179
     0
144
0.0208333333333333
144
0.0
144
0.0
144
0.0
144
0.0
144
0.0208333333333333
144
0.0
144
0.0
144
0.0
144
0.0
144
1.0
144
0.0
144
0.0
144
0.0
144
0.0
144
1.0
147
0.0208333333333333
147
0.0
147
0.0
147
0.0
147
0.0
147
0.0208333333333333
147
0.0
147
0.0
147
0.0
147
0.0
147
1.0
147
0.0
147
0.0
147
0.0
147
0.0
147
1.0
  0
MATERIAL
  5
D
102
{ACAD_XDICTIONARY
360
F
102
}
102
{ACAD_REACTORS
330
E
102
}
330
E
100
AcDbMaterial
  1
Global
 72
     0
 43
0.0208333333333333
 43
0.0
 43
0.0
 43
0.0
 43
0.0
 43
0.0208333333333333
 43
0.0
 43
0.0
 43
0.0
 43
0.0
 43
1.0
 43
0.0
 43
0.0
 43
0.0
 43
0.0
 43
1.0
 77
     0
 47
0.0208333333333333
 47
0.0
 47
0.0
 47
0.0
 47
0.0
 47
0.0208333333333333
 47
0.0
 47
0.0
 47
0.0
 47
0.0
 47
1.0
 47
0.0
 47
0.0
 47
0.0
 47
0.0
 47
1.0
171
     0
 49
0.0208333333333333
 49
0.0
 49
0.0
 49
0.0
 49
0.0
 49
0.0208333333333333
 49
0.0
 49
0.0
 49
0.0
 49
0.0
 49
1.0
 49
0.0
 49
0.0
 49
0.0
 49
0.0
 49
1.0
175
     0
142
0.0208333333333333
142
0.0
142
0.0
142
0.0
142
0.0
142
0.0208333333333333
142
0.0
142
0.0
142
0.0
142
0.0
142
1.0
142
0.0
142
0.0
142
0.0
142
0.0
142
1.0
179
     0
144
0.0208333333333333
144
0.0
144
0.0
144
0.0
144
0.0
144
0.0208333333333333
144
0.0
144
0.0
144
0.0
144
0.0
144
1.0
144
0.0
144
0.0
144
0.0
144
0.0
144
1.0
147
0.0208333333333333
147
0.0
147
0.0
147
0.0
147
0.0
147
0.0208333333333333
147
0.0
147
0.0
147
0.0
147
0.0
147
1.0
147
0.0
147
0.0
147
0.0
147
0.0
147
1.0
  0
MLEADERSTYLE
  5
1FF
102
{ACAD_REACTORS
330
1FE
102
}
330
1FE
100
AcDbMLeaderStyle
170
     2
171
     1
172
     0
 90
        2
 40
0.0
 41
0.0
173
     1
 91
-1056964608
340
2B
 92
       -2
290
     1
 42
0.09
291
     1
 43
0.36
  3
Standard
 44
0.18
300

342
28
174
     1
178
     6
175
     1
176
     0
 93
-1056964608
 45
0.18
292
     0
297
     0
 46
0.18
 94
-1056964608
 47
1.0
 49
1.0
140
1.0
293
     1
141
0.0
294
     1
177
     0
142
1.0
295
     0
296
     0
143
0.125
1001
ACAD_MLEADERVER
1070
     2
  0
MLINESTYLE
  5
5F
102
{ACAD_REACTORS
330
47
102
}
330
47
100
AcDbMlineStyle
  2
STANDARD
 70
     0
  3

 62
   256
 51
90.0
 52
90.0
 71
     2
 49
0.5
 62
   256
  6
BYLAYER
 49
-0.5
 62
   256
  6
BYLAYER
  0
ACDBPLACEHOLDER
  5
A
102
{ACAD_REACTORS
330
B
102
}
330
B
  0
SCALE
  5
64
102
{ACAD_REACTORS
330
5A
102
}
330
5A
100
AcDbScale
 70
     0
300
1/128" = 1'-0"_1
140
0.007812
141
12.0
290
     0
  0
SCALE
  5
65
102
{ACAD_REACTORS
330
5A
102
}
330
5A
100
AcDbScale
 70
     0
300
1:1
140
1.0
141
1.0
290
     1
  0
SCALE
  5
66
102
{ACAD_REACTORS
330
5A
102
}
330
5A
100
AcDbScale
 70
     0
300
1:2
140
1.0
141
2.0
290
     0
  0
SCALE
  5
67
102
{ACAD_REACTORS
330
5A
102
}
330
5A
100
AcDbScale
 70
     0
300
1:4
140
1.0
141
4.0
290
     0
  0
SCALE
  5
68
102
{ACAD_REACTORS
330
5A
102
}
330
5A
100
AcDbScale
 70
     0
300
1:5
140
1.0
141
5.0
290
     0
  0
SCALE
  5
69
102
{ACAD_REACTORS
330
5A
102
}
330
5A
100
AcDbScale
 70
     0
300
1:8
140
1.0
141
8.0
290
     0
  0
SCALE
  5
6A
102
{ACAD_REACTORS
330
5A
102
}
330
5A
100
AcDbScale
 70
     0
300
1:10
140
1.0
141
10.0
290
     0
  0
SCALE
  5
6B
102
{ACAD_REACTORS
330
5A
102
}
330
5A
100
AcDbScale
 70
     0
300
1:16
140
1.0
141
16.0
290
     0
  0
SCALE
  5
6C
102
{ACAD_REACTORS
330
5A
102
}
330
5A
100
AcDbScale
 70
     0
300
1:20
140
1.0
141
20.0
290
     0
  0
SCALE
  5
6D
102
{ACAD_REACTORS
330
5A
102
}
330
5A
100
AcDbScale
 70
     0
300
1:30
140
1.0
141
30.0
290
     0
  0
SCALE
  5
6E
102
{ACAD_REACTORS
330
5A
102
}
330
5A
100
AcDbScale
 70
     0
300
1:40
140
1.0
141
40.0
290
     0
  0
SCALE
  5
6F
102
{ACAD_REACTORS
330
5A
102
}
330
5A
100
AcDbScale
 70
     0
300
1:50
140
1.0
141
50.0
290
     0
  0
SCALE
  5
70
102
{ACAD_REACTORS
330
5A
102
}
330
5A
100
AcDbScale
 70
     0
300
1:100
140
1.0
141
100.0
290
     0
  0
SCALE
  5
71
102
{ACAD_REACTORS
330
5A
102
}
330
5A
100
AcDbScale
 70
     0
300
2:1
140
2.0
141
1.0
290
     0
  0
SCALE
  5
72
102
{ACAD_REACTORS
330
5A
102
}
330
5A
100
AcDbScale
 70
     0
300
4:1
140
4.0
141
1.0
290
     0
  0
SCALE
  5
73
102
{ACAD_REACTORS
330
5A
102
}
330
5A
100
AcDbScale
 70
     0
300
8:1
140
8.0
141
1.0
290
     0
  0
SCALE
  5
74
102
{ACAD_REACTORS
330
5A
102
}
330
5A
100
AcDbScale
 70
     0
300
10:1
140
10.0
141
1.0
290
     0
  0
SCALE
  5
75
102
{ACAD_REACTORS
330
5A
102
}
330
5A
100
AcDbScale
 70
     0
300
100:1
140
100.0
141
1.0
290
     0
  0
SCALE
  5
76
102
{ACAD_REACTORS
330
5A
102
}
330
5A
100
AcDbScale
 70
     0
300
1/128" = 1'-0"
140
0.0078125
141
12.0
290
     0
  0
SCALE
  5
77
102
{ACAD_REACTORS
330
5A
102
}
330
5A
100
AcDbScale
 70
     0
300
1/64" = 1'-0"
140
0.015625
141
12.0
290
     0
  0
SCALE
  5
78
102
{ACAD_REACTORS
330
5A
102
}
330
5A
100
AcDbScale
 70
     0
300
1/32" = 1'-0"
140
0.03125
141
12.0
290
     0
  0
SCALE
  5
79
102
{ACAD_REACTORS
330
5A
102
}
330
5A
100
AcDbScale
 70
     0
300
1/16" = 1'-0"
140
0.0625
141
12.0
290
     0
  0
SCALE
  5
7A
102
{ACAD_REACTORS
330
5A
102
}
330
5A
100
AcDbScale
 70
     0
300
3/32" = 1'-0"
140
0.09375
141
12.0
290
     0
  0
SCALE
  5
7B
102
{ACAD_REACTORS
330
5A
102
}
330
5A
100
AcDbScale
 70
     0
300
1/8" = 1'-0"
140
0.125
141
12.0
290
     0
  0
SCALE
  5
7C
102
{ACAD_REACTORS
330
5A
102
}
330
5A
100
AcDbScale
 70
     0
300
3/16" = 1'-0"
140
0.1875
141
12.0
290
     0
  0
SCALE
  5
7D
102
{ACAD_REACTORS
330
5A
102
}
330
5A
100
AcDbScale
 70
     0
300
1/4" = 1'-0"
140
0.25
141
12.0
290
     0
  0
SCALE
  5
7E
102
{ACAD_REACTORS
330
5A
102
}
330
5A
100
AcDbScale
 70
     0
300
3/8" = 1'-0"
140
0.375
141
12.0
290
     0
  0
SCALE
  5
7F
102
{ACAD_REACTORS
330
5A
102
}
330
5A
100
AcDbScale
 70
     0
300
1/2" = 1'-0"
140
0.5
141
12.0
290
     0
  0
SCALE
  5
80
102
{ACAD_REACTORS
330
5A
102
}
330
5A
100
AcDbScale
 70
     0
300
3/4" = 1'-0"
140
0.75
141
12.0
290
     0
  0
SCALE
  5
81
102
{ACAD_REACTORS
330
5A
102
}
330
5A
100
AcDbScale
 70
     0
300
1" = 1'-0"
140
1.0
141
12.0
290
     0
  0
SCALE
  5
82
102
{ACAD_REACTORS
330
5A
102
}
330
5A
100
AcDbScale
 70
     0
300
1-1/2" = 1'-0"
140
1.5
141
12.0
290
     0
  0
SCALE
  5
83
102
{ACAD_REACTORS
330
5A
102
}
330
5A
100
AcDbScale
 70
     0
300
3" = 1'-0"
140
3.0
141
12.0
290
     0
  0
SCALE
  5
84
102
{ACAD_REACTORS
330
5A
102
}
330
5A
100
AcDbScale
 70
     0
300
6" = 1'-0"
140
6.0
141
12.0
290
     0
  0
SCALE
  5
85
102
{ACAD_REACTORS
330
5A
102
}
330
5A
100
AcDbScale
 70
     0
300
1'-0" = 1'-0"
140
12.0
141
12.0
290
     0
  0
TABLESTYLE
  5
60
102
{ACAD_XDICTIONARY
360
61
102
}
102
{ACAD_REACTORS
330
5B
102
}
330
5B
100
AcDbTableStyle
  3
Standard
 70
     0
 71
     0
 40
0.06
 41
0.06
280
     0
281
     0
  7
STANDARD
140
0.18
170
     2
 62
     0
 63
     7
283
     0
274
    -2
284
     1
 64
     0
275
    -2
285
     1
 65
     0
276
    -2
286
     1
 66
     0
277
    -2
287
     1
 67
     0
278
    -2
288
     1
 68
     0
279
    -2
289
     1
 69
     0
  7
STANDARD
140
0.25
170
     5
 62
     0
 63
     7
283
     0
274
    -2
284
     1
 64
     0
275
    -2
285
     1
 65
     0
276
    -2
286
     1
 66
     0
277
    -2
287
     1
 67
     0
278
    -2
288
     1
 68
     0
279
    -2
289
     1
 69
     0
  7
STANDARD
140
0.18
170
     5
 62
     0
 63
     7
283
     0
274
    -2
284
     1
 64
     0
275
    -2
285
     1
 65
     0
276
    -2
286
     1
 66
     0
277
    -2
287
     1
 67
     0
278
    -2
288
     1
 68
     0
279
    -2
289
     1
 69
     0
  0
VISUALSTYLE
  5
31
102
{ACAD_REACTORS
330
32
102
}
330
32
100
AcDbVisualStyle
  2
2dWireframe
 70
     4
 71
     0
 72
     2
 73
     0
 90
        0
 40
-0.6
 41
-30.0
 62
     5
 63
     7
 74
     1
 91
        4
 64
     7
 65
   257
 75
     1
175
     1
 42
1.0
 92
        0
 66
   257
 43
1.0
 76
     1
 77
     6
 78
     2
 67
     7
 79
     5
170
     0
171
     0
290
     0
174
     0
 93
        1
 44
0.0
173
     0
291
     0
 45
0.0
1001
ACAD
1000
AcDbSavedByObjectVersion
1070
     0
  0
VISUALSTYLE
  5
1F6
102
{ACAD_REACTORS
330
32
102
}
330
32
100
AcDbVisualStyle
  2
3D Hidden
 70
     6
 71
     1
 72
     2
 73
     2
 90
        0
 40
-0.6
 41
-30.0
 62
     5
 63
     7
421
 16777215
 74
     2
 91
        2
 64
     7
 65
   257
 75
     2
175
     1
 42
40.0
 92
        0
 66
   257
 43
1.0
 76
     1
 77
     6
 78
     2
 67
     7
 79
     3
170
     0
171
     0
290
     0
174
     0
 93
        1
 44
0.0
173
     0
291
     0
 45
0.0
1001
ACAD
1000
AcDbSavedByObjectVersion
1070
     0
  0
VISUALSTYLE
  5
63
102
{ACAD_REACTORS
330
32
102
}
330
32
100
AcDbVisualStyle
  2
3dWireframe
 70
     5
 71
     0
 72
     2
 73
     0
 90
        0
 40
-0.6
 41
-30.0
 62
     5
 63
     7
 74
     1
 91
        4
 64
     7
 65
   257
 75
     1
175
     1
 42
1.0
 92
        0
 66
   257
 43
1.0
 76
     1
 77
     6
 78
     2
 67
     7
 79
     5
170
     0
171
     0
290
     0
174
     0
 93
        1
 44
0.0
173
     0
291
     0
 45
0.0
1001
ACAD
1000
AcDbSavedByObjectVersion
1070
     0
  0
VISUALSTYLE
  5
1F5
102
{ACAD_REACTORS
330
32
102
}
330
32
100
AcDbVisualStyle
  2
Basic
 70
     7
 71
     1
 72
     0
 73
     1
 90
        0
 40
-0.6
 41
-30.0
 62
     5
 63
     7
421
 16777215
 74
     0
 91
        4
 64
     7
 65
   257
 75
     1
175
     1
 42
1.0
 92
        8
 66
     7
 43
1.0
 76
     1
 77
     6
 78
     2
 67
     7
 79
     5
170
     0
171
     0
290
     0
174
     0
 93
        1
 44
0.0
173
     0
291
     1
 45
0.0
1001
ACAD
1000
AcDbSavedByObjectVersion
1070
     0
  0
VISUALSTYLE
  5
1F9
102
{ACAD_REACTORS
330
32
102
}
330
32
100
AcDbVisualStyle
  2
Brighten
 70
    12
 71
     2
 72
     2
 73
     0
 90
        0
 40
-0.6
 41
-30.0
 62
     5
 63
     7
421
 16777215
 74
     1
 91
        4
 64
     7
 65
   257
 75
     1
175
     1
 42
1.0
 92
        8
 66
     7
 43
1.0
 76
     1
 77
     6
 78
     2
 67
     7
 79
     5
170
     0
171
     0
290
     0
174
     0
 93
        1
 44
50.0
173
     0
291
     1
 45
0.0
1001
ACAD
1000
AcDbSavedByObjectVersion
1070
     0
  0
VISUALSTYLE
  5
1FD
102
{ACAD_REACTORS
330
32
102
}
330
32
100
AcDbVisualStyle
  2
ColorChange
 70
    16
 71
     2
 72
     2
 73
     3
 90
        0
 40
-0.6
 41
-30.0
 62
     5
 63
     8
421
  8421504
 74
     1
 91
        4
 64
     7
 65
   257
 75
     1
175
     1
 42
1.0
 92
        8
 66
     8
424
  8421504
 43
1.0
 76
     1
 77
     6
 78
     2
 67
     7
 79
     5
170
     0
171
     0
290
     0
174
     0
 93
        1
 44
0.0
173
     0
291
     1
 45
0.0
1001
ACAD
1000
AcDbSavedByObjectVersion
1070
     0
  0
VISUALSTYLE
  5
1F7
102
{ACAD_REACTORS
330
32
102
}
330
32
100
AcDbVisualStyle
  2
Conceptual
 70
     9
 71
     3
 72
     2
 73
     0
 90
        0
 40
-0.6
 41
-30.0
 62
     5
 63
     7
421
 16777215
 74
     2
 91
        2
 64
     7
 65
   257
 75
     1
175
     1
 42
40.0
 92
        8
 66
     7
 43
1.0
 76
     1
 77
     6
 78
     2
 67
     7
 79
     3
170
     0
171
     0
290
     0
174
     0
 93
        1
 44
0.0
173
     0
291
     0
 45
0.0
1001
ACAD
1000
AcDbSavedByObjectVersion
1070
     0
  0
VISUALSTYLE
  5
1F8
102
{ACAD_REACTORS
330
32
102
}
330
32
100
AcDbVisualStyle
  2
Dim
 70
    11
 71
     2
 72
     2
 73
     0
 90
        0
 40
-0.6
 41
-30.0
 62
     5
 63
     7
421
 16777215
 74
     1
 91
        4
 64
     7
 65
   257
 75
     1
175
     1
 42
1.0
 92
        8
 66
     7
 43
1.0
 76
     1
 77
     6
 78
     2
 67
     7
 79
     5
170
     0
171
     0
290
     0
174
     0
 93
        1
 44
-50.0
173
     0
291
     1
 45
0.0
1001
ACAD
1000
AcDbSavedByObjectVersion
1070
     0
  0
VISUALSTYLE
  5
1FC
102
{ACAD_REACTORS
330
32
102
}
330
32
100
AcDbVisualStyle
  2
Facepattern
 70
    15
 71
     2
 72
     2
 73
     0
 90
        0
 40
-0.6
 41
-30.0
 62
     5
 63
     7
421
 16777215
 74
     1
 91
        4
 64
     7
 65
   257
 75
     1
175
     1
 42
1.0
 92
        8
 66
     7
 43
1.0
 76
     1
 77
     6
 78
     2
 67
     7
 79
     5
170
     0
171
     0
290
     0
174
     0
 93
        1
 44
0.0
173
     0
291
     1
 45
0.0
1001
ACAD
1000
AcDbSavedByObjectVersion
1070
     0
  0
VISUALSTYLE
  5
1F1
102
{ACAD_REACTORS
330
32
102
}
330
32
100
AcDbVisualStyle
  2
Flat
 70
     0
 71
     2
 72
     1
 73
     1
 90
        2
 40
-0.6
 41
30.0
 62
     5
 63
     7
421
 16777215
 74
     0
 91
        4
 64
     7
 65
   257
 75
     1
175
     1
 42
1.0
 92
        8
 66
     7
 43
1.0
 76
     1
 77
     6
 78
     2
 67
     7
 79
     5
170
     0
171
     0
290
     0
174
     0
 93
       13
 44
0.0
173
     0
291
     1
 45
0.0
1001
ACAD
1000
AcDbSavedByObjectVersion
1070
     0
  0
VISUALSTYLE
  5
1F2
102
{ACAD_REACTORS
330
32
102
}
330
32
100
AcDbVisualStyle
  2
FlatWithEdges
 70
     1
 71
     2
 72
     1
 73
     1
 90
        2
 40
-0.6
 41
30.0
 62
     5
 63
     7
421
 16777215
 74
     1
 91
        4
 64
     7
 65
   257
 75
     1
175
     1
 42
1.0
 92
        0
 66
   257
 43
1.0
 76
     1
 77
     6
 78
     2
 67
     7
 79
     5
170
     0
171
     0
290
     0
174
     0
 93
       13
 44
0.0
173
     0
291
     1
 45
0.0
1001
ACAD
1000
AcDbSavedByObjectVersion
1070
     0
  0
VISUALSTYLE
  5
1F3
102
{ACAD_REACTORS
330
32
102
}
330
32
100
AcDbVisualStyle
  2
Gouraud
 70
     2
 71
     2
 72
     2
 73
     1
 90
        2
 40
-0.6
 41
30.0
 62
     5
 63
     7
421
 16777215
 74
     0
 91
        4
 64
     7
 65
   257
 75
     1
175
     1
 42
1.0
 92
        0
 66
     7
 43
1.0
 76
     1
 77
     6
 78
     2
 67
     7
 79
     5
170
     0
171
     0
290
     0
174
     0
 93
       13
 44
0.0
173
     0
291
     1
 45
0.0
1001
ACAD
1000
AcDbSavedByObjectVersion
1070
     0
  0
VISUALSTYLE
  5
1F4
102
{ACAD_REACTORS
330
32
102
}
330
32
100
AcDbVisualStyle
  2
GouraudWithEdges
 70
     3
 71
     2
 72
     2
 73
     1
 90
        2
 40
-0.6
 41
30.0
 62
     5
 63
     7
421
 16777215
 74
     1
 91
        4
 64
     7
 65
   257
 75
     1
175
     1
 42
1.0
 92
        0
 66
   257
 43
1.0
 76
     1
 77
     6
 78
     2
 67
     7
 79
     5
170
     0
171
     0
290
     0
174
     0
 93
       13
 44
0.0
173
     0
291
     1
 45
0.0
1001
ACAD
1000
AcDbSavedByObjectVersion
1070
     0
  0
VISUALSTYLE
  5
1FB
102
{ACAD_REACTORS
330
32
102
}
330
32
100
AcDbVisualStyle
  2
Linepattern
 70
    14
 71
     2
 72
     2
 73
     0
 90
        0
 40
-0.6
 41
-30.0
 62
     5
 63
     7
421
 16777215
 74
     1
 91
        4
 64
     7
 65
   257
 75
     7
175
     7
 42
1.0
 92
        8
 66
     7
 43
1.0
 76
     1
 77
     6
 78
     2
 67
     7
 79
     5
170
     0
171
     0
290
     0
174
     0
 93
        1
 44
0.0
173
     0
291
     1
 45
0.0
1001
ACAD
1000
AcDbSavedByObjectVersion
1070
     0
  0
VISUALSTYLE
  5
62
102
{ACAD_REACTORS
330
32
102
}
330
32
100
AcDbVisualStyle
  2
Realistic
 70
     8
 71
     2
 72
     2
 73
     0
 90
        0
 40
-0.6
 41
-30.0
 62
     5
 63
     7
 74
     1
 91
        0
 64
     7
 65
   257
 75
     1
175
     1
 42
1.0
 92
        8
 66
     8
 43
1.0
 76
     1
 77
     6
 78
     2
 67
     7
 79
     5
170
     0
171
     0
290
     0
174
     0
 93
       13
 44
0.0
173
     0
291
     0
 45
0.0
1001
ACAD
1000
AcDbSavedByObjectVersion
1070
     0
  0
VISUALSTYLE
  5
1FA
102
{ACAD_REACTORS
330
32
102
}
330
32
100
AcDbVisualStyle
  2
Thicken
 70
    13
 71
     2
 72
     2
 73
     0
 90
        0
 40
-0.6
 41
-30.0
 62
     5
 63
     7
421
 16777215
 74
     1
 91
        4
 64
     7
 65
   257
 75
     1
175
     1
 42
1.0
 92
       12
 66
     7
 43
1.0
 76
     1
 77
     6
 78
     2
 67
     7
 79
     5
170
     0
171
     0
290
     0
174
     0
 93
        1
 44
0.0
173
     0
291
     1
 45
0.0
1001
ACAD
1000
AcDbSavedByObjectVersion
1070
     0
  0
DICTIONARYVAR
  5
1EB
102
{ACAD_REACTORS
330
1E7
102
}
330
1E7
100
DictionaryVariables
280
     0
  1
1:1
  0
DICTIONARYVAR
  5
1E9
102
{ACAD_REACTORS
330
1E7
102
}
330
1E7
100
DictionaryVariables
280
     0
  1
STANDARD
  0
DICTIONARYVAR
  5
1E8
102
{ACAD_REACTORS
330
1E7
102
}
330
1E7
100
DictionaryVariables
280
     0
  1
STANDARD
  0
DICTIONARYVAR
  5
1EF
102
{ACAD_REACTORS
330
1E7
102
}
330
1E7
100
DictionaryVariables
280
     0
  1
2
  0
DICTIONARYVAR
  5
1EE
102
{ACAD_REACTORS
330
1E7
102
}
330
1E7
100
DictionaryVariables
280
     0
  1
1
  0
DICTIONARYVAR
  5
1ED
102
{ACAD_REACTORS
330
1E7
102
}
330
1E7
100
DictionaryVariables
280
     0
  1
0
  0
DICTIONARYVAR
  5
206
102
{ACAD_REACTORS
330
1E7
102
}
330
1E7
100
DictionaryVariables
280
     0
  1
0
  0
DICTIONARYVAR
  5
1EA
102
{ACAD_REACTORS
330
1E7
102
}
330
1E7
100
DictionaryVariables
280
     0
  1
1
  0
DICTIONARYVAR
  5
1EC
102
{ACAD_REACTORS
330
1E7
102
}
330
1E7
100
DictionaryVariables
280
     0
  1
127
  0
DICTIONARY
  5
52
330
51
100
AcDbDictionary
280
     1
281
     1
  3
ACAD_XREC_ROUNDTRIP
360
229
  3
BUMPTILE
360
53
  3
DIFFUSETILE
360
54
  3
OPACITYTILE
360
55
  3
REFLECTIONTILE
360
56
  3
REFRACTIONTILE
360
57
  3
SPECULARTILE
360
58
  0
DICTIONARY
  5
4A
330
49
100
AcDbDictionary
280
     1
281
     1
  3
ACAD_XREC_ROUNDTRIP
360
228
  3
BUMPTILE
360
4B
  3
DIFFUSETILE
360
4C
  3
OPACITYTILE
360
4D
  3
REFLECTIONTILE
360
4E
  3
REFRACTIONTILE
360
4F
  3
SPECULARTILE
360
50
  0
DICTIONARY
  5
F
330
D
100
AcDbDictionary
280
     1
281
     1
  3
ACAD_XREC_ROUNDTRIP
360
227
  3
BUMPTILE
360
10
  3
DIFFUSETILE
360
11
  3
OPACITYTILE
360
12
  3
REFLECTIONTILE
360
13
  3
REFRACTIONTILE
360
14
  3
SPECULARTILE
360
15
  0
DICTIONARY
  5
61
330
60
100
AcDbDictionary
280
     1
281
     1
  3
ACAD_ROUNDTRIP_2008_TABLESTYLE_CELLSTYLEMAP
360
222
  3
ACAD_XREC_ROUNDTRIP
360
22A
  0
XRECORD
  5
229
102
{ACAD_REACTORS
330
52
102
}
330
52
100
AcDbXrecord
280
     1
102
MATERIAL
148
0.0
149
0.0
149
0.0
 93
        0
 94
      127
282
     0
 72
     0
 77
     0
171
     0
175
     0
179
     0
273
     0
  0
XRECORD
  5
53
102
{ACAD_REACTORS
330
52
102
}
330
52
100
AcDbXrecord
280
     1
270
     1
271
     1
  0
XRECORD
  5
54
102
{ACAD_REACTORS
330
52
102
}
330
52
100
AcDbXrecord
280
     1
270
     1
271
     1
  0
XRECORD
  5
55
102
{ACAD_REACTORS
330
52
102
}
330
52
100
AcDbXrecord
280
     1
270
     1
271
     1
  0
XRECORD
  5
56
102
{ACAD_REACTORS
330
52
102
}
330
52
100
AcDbXrecord
280
     1
270
     1
271
     1
  0
XRECORD
  5
57
102
{ACAD_REACTORS
330
52
102
}
330
52
100
AcDbXrecord
280
     1
270
     1
271
     1
  0
XRECORD
  5
58
102
{ACAD_REACTORS
330
52
102
}
330
52
100
AcDbXrecord
280
     1
270
     1
271
     1
  0
XRECORD
  5
228
102
{ACAD_REACTORS
330
4A
102
}
330
4A
100
AcDbXrecord
280
     1
102
MATERIAL
148
0.0
149
0.0
149
0.0
 93
        0
 94
      127
282
     0
 72
     0
 77
     0
171
     0
175
     0
179
     0
273
     0
  0
XRECORD
  5
4B
102
{ACAD_REACTORS
330
4A
102
}
330
4A
100
AcDbXrecord
280
     1
270
     1
271
     1
  0
XRECORD
  5
4C
102
{ACAD_REACTORS
330
4A
102
}
330
4A
100
AcDbXrecord
280
     1
270
     1
271
     1
  0
XRECORD
  5
4D
102
{ACAD_REACTORS
330
4A
102
}
330
4A
100
AcDbXrecord
280
     1
270
     1
271
     1
  0
XRECORD
  5
4E
102
{ACAD_REACTORS
330
4A
102
}
330
4A
100
AcDbXrecord
280
     1
270
     1
271
     1
  0
XRECORD
  5
4F
102
{ACAD_REACTORS
330
4A
102
}
330
4A
100
AcDbXrecord
280
     1
270
     1
271
     1
  0
XRECORD
  5
50
102
{ACAD_REACTORS
330
4A
102
}
330
4A
100
AcDbXrecord
280
     1
270
     1
271
     1
  0
XRECORD
  5
227
102
{ACAD_REACTORS
330
F
102
}
330
F
100
AcDbXrecord
280
     1
102
MATERIAL
148
0.0
149
0.0
149
0.0
 93
        0
 94
      127
282
     0
 72
     0
 77
     0
171
     0
175
     0
179
     0
273
     0
  0
XRECORD
  5
10
102
{ACAD_REACTORS
330
F
102
}
330
F
100
AcDbXrecord
280
     1
270
     1
271
     1
  0
XRECORD
  5
11
102
{ACAD_REACTORS
330
F
102
}
330
F
100
AcDbXrecord
280
     1
270
     1
271
     1
  0
XRECORD
  5
12
102
{ACAD_REACTORS
330
F
102
}
330
F
100
AcDbXrecord
280
     1
270
     1
271
     1
  0
XRECORD
  5
13
102
{ACAD_REACTORS
330
F
102
}
330
F
100
AcDbXrecord
280
     1
270
     1
271
     1
  0
XRECORD
  5
14
102
{ACAD_REACTORS
330
F
102
}
330
F
100
AcDbXrecord
280
     1
270
     1
271
     1
  0
XRECORD
  5
15
102
{ACAD_REACTORS
330
F
102
}
330
F
100
AcDbXrecord
280
     1
270
     1
271
     1
  0
CELLSTYLEMAP
  5
222
102
{ACAD_REACTORS
330
61
102
}
330
61
100
AcDbCellStyleMap
 90
        3
300
CELLSTYLE
  1
TABLEFORMAT_BEGIN
 90
        5
170
     1
 91
        0
 92
    32768
 62
   257
 93
        1
300
CONTENTFORMAT
  1
CONTENTFORMAT_BEGIN
 90
        0
 91
        0
 92
      512
 93
        0
300

 40
0.0
140
1.0
 94
        5
 62
     0
340
28
144
0.25
309
CONTENTFORMAT_END
171
     1
301
MARGIN
  1
CELLMARGIN_BEGIN
 40
0.06
 40
0.06
 40
0.06
 40
0.06
 40
0.18
 40
0.18
309
CELLMARGIN_END
 94
        6
 95
        1
302
GRIDFORMAT
  1
GRIDFORMAT_BEGIN
 90
        0
 91
        1
 62
     0
 92
       -2
340
0
 93
        0
 40
0.045
309
GRIDFORMAT_END
 95
        2
302
GRIDFORMAT
  1
GRIDFORMAT_BEGIN
 90
        0
 91
        1
 62
     0
 92
       -2
340
0
 93
        0
 40
0.045
309
GRIDFORMAT_END
 95
        4
302
GRIDFORMAT
  1
GRIDFORMAT_BEGIN
 90
        0
 91
        1
 62
     0
 92
       -2
340
0
 93
        0
 40
0.045
309
GRIDFORMAT_END
 95
        8
302
GRIDFORMAT
  1
GRIDFORMAT_BEGIN
 90
        0
 91
        1
 62
     0
 92
       -2
340
0
 93
        0
 40
0.045
309
GRIDFORMAT_END
 95
       16
302
GRIDFORMAT
  1
GRIDFORMAT_BEGIN
 90
        0
 91
        1
 62
     0
 92
       -2
340
0
 93
        0
 40
0.045
309
GRIDFORMAT_END
 95
       32
302
GRIDFORMAT
  1
GRIDFORMAT_BEGIN
 90
        0
 91
        1
 62
     0
 92
       -2
340
0
 93
        0
 40
0.045
309
GRIDFORMAT_END
309
TABLEFORMAT_END
  1
CELLSTYLE_BEGIN
 90
        1
 91
        1
300
_TITLE
309
CELLSTYLE_END
300
CELLSTYLE
  1
TABLEFORMAT_BEGIN
 90
        5
170
     1
 91
        0
 92
        0
 62
   257
 93
        1
300
CONTENTFORMAT
  1
CONTENTFORMAT_BEGIN
 90
        0
 91
        0
 92
      512
 93
        0
300

 40
0.0
140
1.0
 94
        5
 62
     0
340
28
144
0.18
309
CONTENTFORMAT_END
171
     1
301
MARGIN
  1
CELLMARGIN_BEGIN
 40
0.06
 40
0.06
 40
0.06
 40
0.06
 40
0.18
 40
0.18
309
CELLMARGIN_END
 94
        6
 95
        1
302
GRIDFORMAT
  1
GRIDFORMAT_BEGIN
 90
        0
 91
        1
 62
     0
 92
       -2
340
0
 93
        0
 40
0.045
309
GRIDFORMAT_END
 95
        2
302
GRIDFORMAT
  1
GRIDFORMAT_BEGIN
 90
        0
 91
        1
 62
     0
 92
       -2
340
0
 93
        0
 40
0.045
309
GRIDFORMAT_END
 95
        4
302
GRIDFORMAT
  1
GRIDFORMAT_BEGIN
 90
        0
 91
        1
 62
     0
 92
       -2
340
0
 93
        0
 40
0.045
309
GRIDFORMAT_END
 95
        8
302
GRIDFORMAT
  1
GRIDFORMAT_BEGIN
 90
        0
 91
        1
 62
     0
 92
       -2
340
0
 93
        0
 40
0.045
309
GRIDFORMAT_END
 95
       16
302
GRIDFORMAT
  1
GRIDFORMAT_BEGIN
 90
        0
 91
        1
 62
     0
 92
       -2
340
0
 93
        0
 40
0.045
309
GRIDFORMAT_END
 95
       32
302
GRIDFORMAT
  1
GRIDFORMAT_BEGIN
 90
        0
 91
        1
 62
     0
 92
       -2
340
0
 93
        0
 40
0.045
309
GRIDFORMAT_END
309
TABLEFORMAT_END
  1
CELLSTYLE_BEGIN
 90
        2
 91
        1
300
_HEADER
309
CELLSTYLE_END
300
CELLSTYLE
  1
TABLEFORMAT_BEGIN
 90
        5
170
     1
 91
        0
 92
        0
 62
   257
 93
        1
300
CONTENTFORMAT
  1
CONTENTFORMAT_BEGIN
 90
        0
 91
        0
 92
      512
 93
        0
300

 40
0.0
140
1.0
 94
        2
 62
     0
340
28
144
0.18
309
CONTENTFORMAT_END
171
     1
301
MARGIN
  1
CELLMARGIN_BEGIN
 40
0.06
 40
0.06
 40
0.06
 40
0.06
 40
0.18
 40
0.18
309
CELLMARGIN_END
 94
        6
 95
        1
302
GRIDFORMAT
  1
GRIDFORMAT_BEGIN
 90
        0
 91
        1
 62
     0
 92
       -2
340
0
 93
        0
 40
0.045
309
GRIDFORMAT_END
 95
        2
302
GRIDFORMAT
  1
GRIDFORMAT_BEGIN
 90
        0
 91
        1
 62
     0
 92
       -2
340
0
 93
        0
 40
0.045
309
GRIDFORMAT_END
 95
        4
302
GRIDFORMAT
  1
GRIDFORMAT_BEGIN
 90
        0
 91
        1
 62
     0
 92
       -2
340
0
 93
        0
 40
0.045
309
GRIDFORMAT_END
 95
        8
302
GRIDFORMAT
  1
GRIDFORMAT_BEGIN
 90
        0
 91
        1
 62
     0
 92
       -2
340
0
 93
        0
 40
0.045
309
GRIDFORMAT_END
 95
       16
302
GRIDFORMAT
  1
GRIDFORMAT_BEGIN
 90
        0
 91
        1
 62
     0
 92
       -2
340
0
 93
        0
 40
0.045
309
GRIDFORMAT_END
 95
       32
302
GRIDFORMAT
  1
GRIDFORMAT_BEGIN
 90
        0
 91
        1
 62
     0
 92
       -2
340
0
 93
        0
 40
0.045
309
GRIDFORMAT_END
309
TABLEFORMAT_END
  1
CELLSTYLE_BEGIN
 90
        3
 91
        2
300
_DATA
309
CELLSTYLE_END
  0
XRECORD
  5
22A
102
{ACAD_REACTORS
330
61
102
}
330
61
100
AcDbXrecord
280
     1
102
ACAD_ROUNDTRIP_PRE2007_TABLESTYLE
 90
      512
 91
        0
  1

 92
      512
 93
        0
  2

 94
      512
 95
        0
  3

  0
ENDSEC
  0
EOF
