  0
SECTION
  2
HEADER
  9
$ACADVER
  1
AC1018
  9
$ACADMAINTVER
 70
   104
  9
$DWGCODEPAGE
  3
ANSI_949
  9
$LASTSAVEDBY
  1
R&D
  9
$INSBASE
 10
1662.0
 20
197.0
 30
0.0
  9
$EXTMIN
 10
1665.171428571427
 20
224.3000000000002
 30
0.0
  9
$EXTMAX
 10
1900.948335202729
 20
363.8000000000002
 30
0.0
  9
$LIMMIN
 10
0.0
 20
0.0
  9
$LIMMAX
 10
4205.0
 20
2970.0
  9
$ORTHOMODE
 70
     0
  9
$REGENMODE
 70
     1
  9
$FILLMODE
 70
     1
  9
$QTEXTMODE
 70
     0
  9
$MIRRTEXT
 70
     1
  9
$LTSCALE
 40
5.0
  9
$ATTMODE
 70
     1
  9
$TEXTSIZE
 40
4.0
  9
$TRACEWID
 40
0.05
  9
$TEXTSTYLE
  7
GHS
  9
$CLAYER
  8
TEXT
  9
$CELTYPE
  6
ByLayer
  9
$CECOLOR
 62
   256
  9
$CELTSCALE
 40
1.0
  9
$DISPSILH
 70
     0
  9
$DIMSCALE
 40
1.0
  9
$DIMASZ
 40
4.0
  9
$DIMEXO
 40
1.0
  9
$DIMDLI
 40
1.0
  9
$DIMRND
 40
0.0
  9
$DIMDLE
 40
0.0
  9
$DIMEXE
 40
1.0
  9
$DIMTP
 40
0.0
  9
$DIMTM
 40
0.0
  9
$DIMTXT
 40
5.0
  9
$DIMCEN
 40
0.5
  9
$DIMTSZ
 40
0.0
  9
$DIMTOL
 70
     0
  9
$DIMLIM
 70
     0
  9
$DIMTIH
 70
     0
  9
$DIMTOH
 70
     0
  9
$DIMSE1
 70
     0
  9
$DIMSE2
 70
     0
  9
$DIMTAD
 70
     1
  9
$DIMZIN
 70
     8
  9
$DIMBLK
  1

  9
$DIMASO
 70
     1
  9
$DIMSHO
 70
     1
  9
$DIMPOST
  1

  9
$DIMAPOST
  1

  9
$DIMALT
 70
     0
  9
$DIMALTD
 70
     2
  9
$DIMALTF
 40
25.4
  9
$DIMLFAC
 40
1.0
  9
$DIMTOFL
 70
     1
  9
$DIMTVP
 40
0.0
  9
$DIMTIX
 70
     0
  9
$DIMSOXD
 70
     0
  9
$DIMSAH
 70
     0
  9
$DIMBLK1
  1

  9
$DIMBLK2
  1

  9
$DIMSTYLE
  2
Standard
  9
$DIMCLRD
 70
   256
  9
$DIMCLRE
 70
   256
  9
$DIMCLRT
 70
   256
  9
$DIMTFAC
 40
1.0
  9
$DIMGAP
 40
1.5
  9
$DIMJUST
 70
     0
  9
$DIMSD1
 70
     0
  9
$DIMSD2
 70
     0
  9
$DIMTOLJ
 70
     1
  9
$DIMTZIN
 70
     0
  9
$DIMALTZ
 70
     0
  9
$DIMALTTZ
 70
     0
  9
$DIMUPT
 70
     0
  9
$DIMDEC
 70
     3
  9
$DIMTDEC
 70
     3
  9
$DIMALTU
 70
     2
  9
$DIMALTTD
 70
     2
  9
$DIMTXSTY
  7
GHS
  9
$DIMAUNIT
 70
     0
  9
$DIMADEC
 70
     0
  9
$DIMALTRND
 40
0.0
  9
$DIMAZIN
 70
     0
  9
$DIMDSEP
 70
    46
  9
$DIMATFIT
 70
     3
  9
$DIMFRAC
 70
     0
  9
$DIMLDRBLK
  1

  9
$DIMLUNIT
 70
     2
  9
$DIMLWD
 70
    -1
  9
$DIMLWE
 70
    -1
  9
$DIMTMOVE
 70
     0
  9
$LUNITS
 70
     2
  9
$LUPREC
 70
     3
  9
$SKETCHINC
 40
0.1
  9
$FILLETRAD
 40
4.0
  9
$AUNITS
 70
     0
  9
$AUPREC
 70
     3
  9
$MENU
  1
acad
  9
$ELEVATION
 40
0.0
  9
$PELEVATION
 40
0.0
  9
$THICKNESS
 40
0.0
  9
$LIMCHECK
 70
     0
  9
$CHAMFERA
 40
0.0
  9
$CHAMFERB
 40
0.0
  9
$CHAMFERC
 40
0.0
  9
$CHAMFERD
 40
0.0
  9
$SKPOLY
 70
     0
  9
$TDCREATE
 40
2449855.468823958
  9
$TDUCREATE
 40
2449855.093823958
  9
$TDUPDATE
 40
2455883.638815914
  9
$TDUUPDATE
 40
2455883.263815914
  9
$TDINDWG
 40
4.0498083681
  9
$TDUSRTIMER
 40
4.0498083681
  9
$USRTIMER
 70
     1
  9
$ANGBASE
 50
0.0
  9
$ANGDIR
 70
     0
  9
$PDMODE
 70
     0
  9
$PDSIZE
 40
0.0
  9
$PLINEWID
 40
0.0
  9
$SPLFRAME
 70
     0
  9
$SPLINETYPE
 70
     6
  9
$SPLINESEGS
 70
     8
  9
$HANDSEED
  5
2DE
  9
$SURFTAB1
 70
     6
  9
$SURFTAB2
 70
     6
  9
$SURFTYPE
 70
     6
  9
$SURFU
 70
     6
  9
$SURFV
 70
     6
  9
$UCSBASE
  2

  9
$UCSNAME
  2

  9
$UCSORG
 10
0.0
 20
0.0
 30
0.0
  9
$UCSXDIR
 10
1.0
 20
0.0
 30
0.0
  9
$UCSYDIR
 10
0.0
 20
1.0
 30
0.0
  9
$UCSORTHOREF
  2

  9
$UCSORTHOVIEW
 70
     0
  9
$UCSORGTOP
 10
0.0
 20
0.0
 30
0.0
  9
$UCSORGBOTTOM
 10
0.0
 20
0.0
 30
0.0
  9
$UCSORGLEFT
 10
0.0
 20
0.0
 30
0.0
  9
$UCSORGRIGHT
 10
0.0
 20
0.0
 30
0.0
  9
$UCSORGFRONT
 10
0.0
 20
0.0
 30
0.0
  9
$UCSORGBACK
 10
0.0
 20
0.0
 30
0.0
  9
$PUCSBASE
  2

  9
$PUCSNAME
  2

  9
$PUCSORG
 10
0.0
 20
0.0
 30
0.0
  9
$PUCSXDIR
 10
1.0
 20
0.0
 30
0.0
  9
$PUCSYDIR
 10
0.0
 20
1.0
 30
0.0
  9
$PUCSORTHOREF
  2

  9
$PUCSORTHOVIEW
 70
     0
  9
$PUCSORGTOP
 10
0.0
 20
0.0
 30
0.0
  9
$PUCSORGBOTTOM
 10
0.0
 20
0.0
 30
0.0
  9
$PUCSORGLEFT
 10
0.0
 20
0.0
 30
0.0
  9
$PUCSORGRIGHT
 10
0.0
 20
0.0
 30
0.0
  9
$PUCSORGFRONT
 10
0.0
 20
0.0
 30
0.0
  9
$PUCSORGBACK
 10
0.0
 20
0.0
 30
0.0
  9
$USERI1
 70
     0
  9
$USERI2
 70
     0
  9
$USERI3
 70
     0
  9
$USERI4
 70
     0
  9
$USERI5
 70
     0
  9
$USERR1
 40
0.0
  9
$USERR2
 40
0.0
  9
$USERR3
 40
0.0
  9
$USERR4
 40
0.0
  9
$USERR5
 40
0.0
  9
$WORLDVIEW
 70
     1
  9
$SHADEDGE
 70
     3
  9
$SHADEDIF
 70
    70
  9
$TILEMODE
 70
     1
  9
$MAXACTVP
 70
    16
  9
$PINSBASE
 10
2220.404641079056
 20
50.00000000000001
 30
2810.473195709564
  9
$PLIMCHECK
 70
     0
  9
$PEXTMIN
 10
1.000000000000000E+20
 20
1.000000000000000E+20
 30
1.000000000000000E+20
  9
$PEXTMAX
 10
-1.000000000000000E+20
 20
-1.000000000000000E+20
 30
-1.000000000000000E+20
  9
$PLIMMIN
 10
0.0
 20
0.0
  9
$PLIMMAX
 10
12.0
 20
9.0
  9
$UNITMODE
 70
     0
  9
$VISRETAIN
 70
     0
  9
$PLINEGEN
 70
     0
  9
$PSLTSCALE
 70
     1
  9
$TREEDEPTH
 70
  3020
  9
$CMLSTYLE
  2
Standard
  9
$CMLJUST
 70
     0
  9
$CMLSCALE
 40
1.0
  9
$PROXYGRAPHICS
 70
     1
  9
$MEASUREMENT
 70
     0
  9
$CELWEIGHT
370
    -1
  9
$ENDCAPS
280
     0
  9
$JOINSTYLE
280
     0
  9
$LWDISPLAY
290
     0
  9
$INSUNITS
 70
     0
  9
$HYPERLINKBASE
  1

  9
$STYLESHEET
  1

  9
$XEDIT
290
     1
  9
$CEPSNTYPE
380
     0
  9
$PSTYLEMODE
290
     1
  9
$FINGERPRINTGUID
  2
{DA57C05B-F390-4FD6-857C-422BE8CE9CC0}
  9
$VERSIONGUID
  2
{18F8DB4B-F5D8-4976-A04D-B72DB663AD4B}
  9
$EXTNAMES
290
     1
  9
$PSVPSCALE
 40
0.0
  9
$OLESTARTUP
290
     0
  9
$SORTENTS
280
   127
  9
$INDEXCTL
280
     0
  9
$HIDETEXT
280
     1
  9
$XCLIPFRAME
290
     0
  9
$HALOGAP
280
     0
  9
$OBSCOLOR
 70
   257
  9
$OBSLTYPE
280
     0
  9
$INTERSECTIONDISPLAY
280
     0
  9
$INTERSECTIONCOLOR
 70
   257
  9
$DIMASSOC
280
     2
  9
$PROJECTNAME
  1

  0
ENDSEC
  0
SECTION
  2
CLASSES
  0
CLASS
  1
ACDBDICTIONARYWDFLT
  2
AcDbDictionaryWithDefault
  3
ObjectDBX Classes
 90
        0
 91
        1
280
     0
281
     0
  0
CLASS
  1
DICTIONARYVAR
  2
AcDbDictionaryVar
  3
ObjectDBX Classes
 90
        0
 91
        9
280
     0
281
     0
  0
CLASS
  1
DIMASSOC
  2
AcDbDimAssoc
  3
"AcDbDimAssoc|Product Desc:     AcDim ARX App For Dimension|Company:          Autodesk, Inc.|WEB Address:      www.autodesk.com"
 90
        0
 91
        3
280
     0
281
     0
  0
CLASS
  1
MATERIAL
  2
AcDbMaterial
  3
ObjectDBX Classes
 90
     1153
 91
        3
280
     0
281
     0
  0
CLASS
  1
VISUALSTYLE
  2
AcDbVisualStyle
  3
ObjectDBX Classes
 90
     4095
 91
       16
280
     0
281
     0
  0
CLASS
  1
TABLESTYLE
  2
AcDbTableStyle
  3
ObjectDBX Classes
 90
     4095
 91
        1
280
     0
281
     0
  0
CLASS
  1
SCALE
  2
AcDbScale
  3
ObjectDBX Classes
 90
     1153
 91
       34
280
     0
281
     0
  0
CLASS
  1
MLEADERSTYLE
  2
AcDbMLeaderStyle
  3
ACDB_MLEADERSTYLE_CLASS
 90
     4095
 91
        1
280
     0
281
     0
  0
CLASS
  1
CELLSTYLEMAP
  2
AcDbCellStyleMap
  3
ObjectDBX Classes
 90
     1152
 91
        2
280
     0
281
     0
  0
CLASS
  1
SORTENTSTABLE
  2
AcDbSortentsTable
  3
ObjectDBX Classes
 90
        0
 91
        1
280
     0
281
     0
  0
CLASS
  1
ACDB_TEXTOBJECTCONTEXTDATA_CLASS
  2
AcDbTextObjectContextData
  3
ObjectDBX Classes
 90
     1153
 91
        0
280
     0
281
     0
  0
CLASS
  1
SOLID_BACKGROUND
  2
AcDbSolidBackground
  3
SCENEOE
 90
     4095
 91
        0
280
     0
281
     0
  0
CLASS
  1
NPOCOLLECTION
  2
AcDbImpNonPersistentObjectsCollection
  3
ObjectDBX Classes
 90
     1153
 91
        0
280
     0
281
     0
  0
ENDSEC
  0
SECTION
  2
TABLES
  0
TABLE
  2
VPORT
  5
2F
102
{ACAD_XDICTIONARY
360
33
102
}
330
0
100
AcDbSymbolTable
 70
     1
  0
VPORT
  5
30
330
2F
100
AcDbSymbolTableRecord
100
AcDbViewportTableRecord
  2
*Active
 70
     0
 10
0.0
 20
0.0
 11
1.0
 21
1.0
 12
1783.171369998915
 22
294.0942454106334
 13
0.0
 23
0.0
 14
1.0
 24
1.0
 15
0.0
 25
0.0
 16
0.0
 26
0.0
 36
1.0
 17
0.0
 27
0.0
 37
0.0
 40
156.3951683542387
 41
1.889
 42
50.0
 43
0.0
 44
0.0
 50
0.0
 51
0.0
 71
     0
 72
 10000
 73
     1
 74
     0
 75
     0
 76
     0
 77
     0
 78
     0
281
     0
 65
     1
110
0.0
120
0.0
130
0.0
111
1.0
121
0.0
131
0.0
112
0.0
122
1.0
132
0.0
 79
     0
146
0.0
  0
ENDTAB
  0
TABLE
  2
LTYPE
  5
2A
330
0
100
AcDbSymbolTable
 70
     4
  0
LTYPE
  5
2B
330
2A
100
AcDbSymbolTableRecord
100
AcDbLinetypeTableRecord
  2
ByBlock
 70
     0
  3

 72
    65
 73
     0
 40
0.0
  0
LTYPE
  5
2C
330
2A
100
AcDbSymbolTableRecord
100
AcDbLinetypeTableRecord
  2
ByLayer
 70
     0
  3

 72
    65
 73
     0
 40
0.0
  0
LTYPE
  5
16
330
2A
100
AcDbSymbolTableRecord
100
AcDbLinetypeTableRecord
  2
CONTINUOUS
 70
     0
  3
Solid line
 72
    65
 73
     0
 40
0.0
  0
LTYPE
  5
8A
330
2A
100
AcDbSymbolTableRecord
100
AcDbLinetypeTableRecord
  2
CENTER
 70
     0
  3
____ _ ____ _ ____ _ ____ _ ____ _ ____ _ ____ 
 72
    65
 73
     4
 40
2.0
 49
1.25
 74
     0
 49
-0.25
 74
     0
 49
0.25
 74
     0
 49
-0.25
 74
     0
  0
LTYPE
  5
167
330
2A
100
AcDbSymbolTableRecord
100
AcDbLinetypeTableRecord
  2
PHANTOM
 70
     0
  3
Phantom ______  __  __  ______  __  __  ______
 72
    65
 73
     6
 40
2.5
 49
1.25
 74
     0
 49
-0.25
 74
     0
 49
0.25
 74
     0
 49
-0.25
 74
     0
 49
0.25
 74
     0
 49
-0.25
 74
     0
  0
LTYPE
  5
C7
330
2A
100
AcDbSymbolTableRecord
100
AcDbLinetypeTableRecord
  2
HIDDEN
 70
     0
  3
__ __ __ __ __ __ __ __ __ __ __ __ __ __ __ __
 72
    65
 73
     2
 40
0.375
 49
0.25
 74
     0
 49
-0.125
 74
     0
  0
ENDTAB
  0
TABLE
  2
LAYER
  5
21
102
{ACAD_XDICTIONARY
360
22
102
}
330
0
100
AcDbSymbolTable
 70
     6
  0
LAYER
  5
7
102
{ACAD_XDICTIONARY
360
8
102
}
330
21
100
AcDbSymbolTableRecord
100
AcDbLayerTableRecord
  2
0
 70
     0
 62
     7
  6
CONTINUOUS
370
    -3
390
A
  0
LAYER
  5
87
102
{ACAD_XDICTIONARY
360
88
102
}
330
21
100
AcDbSymbolTableRecord
100
AcDbLayerTableRecord
  2
CL
 70
     0
 62
     1
  6
CENTER
370
    -3
390
A
  0
LAYER
  5
F6
330
21
100
AcDbSymbolTableRecord
100
AcDbLayerTableRecord
  2
DEFPOINTS
 70
     0
 62
     7
  6
CONTINUOUS
290
     0
370
    -3
390
A
  0
LAYER
  5
5C
102
{ACAD_XDICTIONARY
360
5D
102
}
330
21
100
AcDbSymbolTableRecord
100
AcDbLayerTableRecord
  2
TEXT
 70
     0
 62
    84
  6
CONTINUOUS
370
    -3
390
A
  0
LAYER
  5
166
330
21
100
AcDbSymbolTableRecord
100
AcDbLayerTableRecord
  2
ETC
 70
     0
 62
     7
  6
PHANTOM
370
    -3
390
A
1001
AcAecLayerStandard
1000

1000

  0
LAYER
  5
C6
330
21
100
AcDbSymbolTableRecord
100
AcDbLayerTableRecord
  2
HI
 70
     0
 62
    40
  6
HIDDEN
370
    -3
390
A
  0
ENDTAB
  0
TABLE
  2
STYLE
  5
27
330
0
100
AcDbSymbolTable
 70
     2
  0
STYLE
  5
28
330
27
100
AcDbSymbolTableRecord
100
AcDbTextStyleTableRecord
  2
STANDARD
 70
     0
 40
0.0
 41
0.8
 50
0.0
 71
     0
 42
4.0
  3
TXT.shx
  4

  0
STYLE
  5
37
330
27
100
AcDbSymbolTableRecord
100
AcDbTextStyleTableRecord
  2
GHS
 70
     0
 40
0.0
 41
0.6
 50
0.0
 71
     0
 42
4.0
  3
ROMANS
  4
GHS
  0
ENDTAB
  0
TABLE
  2
VIEW
  5
2D
330
0
100
AcDbSymbolTable
 70
     0
  0
ENDTAB
  0
TABLE
  2
UCS
  5
2E
330
0
100
AcDbSymbolTable
 70
     0
  0
ENDTAB
  0
TABLE
  2
APPID
  5
34
330
0
100
AcDbSymbolTable
 70
    10
  0
APPID
  5
26
330
34
100
AcDbSymbolTableRecord
100
AcDbRegAppTableRecord
  2
ACAD
 70
     0
  0
APPID
  5
38
330
34
100
AcDbSymbolTableRecord
100
AcDbRegAppTableRecord
  2
ACAD_DSTYLE_DIMJAG
 70
     0
  0
APPID
  5
39
330
34
100
AcDbSymbolTableRecord
100
AcDbRegAppTableRecord
  2
ACAD_DSTYLE_DIMTALN
 70
     0
  0
APPID
  5
168
330
34
100
AcDbSymbolTableRecord
100
AcDbRegAppTableRecord
  2
AcAecLayerStandard
 70
     0
  0
APPID
  5
1A
330
34
100
AcDbSymbolTableRecord
100
AcDbRegAppTableRecord
  2
ACAD_PSEXT
 70
     0
  0
APPID
  5
42
330
34
100
AcDbSymbolTableRecord
100
AcDbRegAppTableRecord
  2
ACAD_DSTYLE_DIMBREAK
 70
     0
  0
APPID
  5
288
330
34
100
AcDbSymbolTableRecord
100
AcDbRegAppTableRecord
  2
ACAD_DSTYLE_DIM_LINETYPE
 70
     0
  0
APPID
  5
289
330
34
100
AcDbSymbolTableRecord
100
AcDbRegAppTableRecord
  2
ACAD_DSTYLE_DIM_EXT1_LINETYPE
 70
     0
  0
APPID
  5
28A
330
34
100
AcDbSymbolTableRecord
100
AcDbRegAppTableRecord
  2
ACAD_DSTYLE_DIM_EXT2_LINETYPE
 70
     0
  0
APPID
  5
2AF
330
34
100
AcDbSymbolTableRecord
100
AcDbRegAppTableRecord
  2
ACAD_MLEADERVER
 70
     0
  0
ENDTAB
  0
TABLE
  2
DIMSTYLE
  5
35
330
0
100
AcDbSymbolTable
 70
     5
100
AcDbDimStyleTable
 71
     5
340
36
340
3A
340
3B
340
43
340
44
  0
DIMSTYLE
105
36
330
35
100
AcDbSymbolTableRecord
100
AcDbDimStyleTableRecord
  2
Standard
 70
     0
 41
4.0
 42
1.0
 43
1.0
 44
1.0
 73
     0
 74
     0
 77
     1
 78
     8
140
5.0
141
0.5
147
1.5
172
     1
176
   256
177
   256
178
   256
271
     3
272
     3
340
37
371
    -1
372
    -1
1001
ACAD_DSTYLE_DIMJAG
1070
   388
1040
1.5
1001
ACAD_DSTYLE_DIMTALN
1070
   392
1070
     0
1001
ACAD_DSTYLE_DIM_LINETYPE
1070
   380
1005
2C
1001
ACAD_DSTYLE_DIM_EXT1_LINETYPE
1070
   381
1005
2C
1001
ACAD_DSTYLE_DIM_EXT2_LINETYPE
1070
   382
1005
2C
  0
DIMSTYLE
105
3A
102
{ACAD_REACTORS
330
EA
330
FA
330
107
330
1CD
330
1DC
330
1EB
330
1F8
330
207
330
214
330
221
330
22E
330
23D
330
24A
330
25C
330
26A
102
}
330
35
100
AcDbSymbolTableRecord
100
AcDbDimStyleTableRecord
  2
ISO-25
 70
     0
 41
4.0
 42
2.0
 43
1.0
 44
1.0
 73
     0
 74
     0
 77
     1
 78
     8
 79
     2
140
4.0
141
0.5
143
0.03937007874016
147
1.5
171
     3
172
     1
176
   256
177
   256
178
   256
179
     4
271
     3
272
     3
274
     3
283
     0
284
     8
340
37
371
    -1
372
    -1
1001
ACAD_DSTYLE_DIMJAG
1070
   388
1040
1.5
1001
ACAD_DSTYLE_DIMTALN
1070
   392
1070
     0
1001
ACAD_DSTYLE_DIM_LINETYPE
1070
   380
1005
2C
1001
ACAD_DSTYLE_DIM_EXT1_LINETYPE
1070
   381
1005
2C
1001
ACAD_DSTYLE_DIM_EXT2_LINETYPE
1070
   382
1005
2C
  0
DIMSTYLE
105
43
330
35
100
AcDbSymbolTableRecord
100
AcDbDimStyleTableRecord
  2
2X
 70
     0
 41
3.0
 42
1.0
 43
1.0
 44
1.0
 73
     0
 74
     0
 77
     1
 78
     8
 79
     2
140
3.0
141
0.5
144
0.5
147
1.0
172
     1
176
   256
177
   256
178
   256
179
     3
271
     3
272
     3
340
37
371
    -1
372
    -1
1001
ACAD_DSTYLE_DIMBREAK
1070
   391
1040
0.125
1001
ACAD_DSTYLE_DIMJAG
1070
   388
1040
1.5
1001
ACAD_DSTYLE_DIMTALN
1070
   392
1070
     0
1001
ACAD_DSTYLE_DIM_LINETYPE
1070
   380
1005
2C
1001
ACAD_DSTYLE_DIM_EXT1_LINETYPE
1070
   381
1005
2C
1001
ACAD_DSTYLE_DIM_EXT2_LINETYPE
1070
   382
1005
2C
  0
DIMSTYLE
105
44
330
35
100
AcDbSymbolTableRecord
100
AcDbDimStyleTableRecord
  2
1X
 70
     0
 41
3.0
 42
1.0
 43
1.0
 44
1.0
 73
     0
 74
     0
 77
     1
 78
     8
140
3.0
141
0.5
147
1.0
172
     1
176
   256
177
   256
178
   256
271
     3
272
     3
340
37
371
    -1
372
    -1
1001
ACAD_DSTYLE_DIMBREAK
1070
   391
1040
0.125
1001
ACAD_DSTYLE_DIMJAG
1070
   388
1040
1.5
1001
ACAD_DSTYLE_DIMTALN
1070
   392
1070
     0
1001
ACAD_DSTYLE_DIM_LINETYPE
1070
   380
1005
2C
1001
ACAD_DSTYLE_DIM_EXT1_LINETYPE
1070
   381
1005
2C
1001
ACAD_DSTYLE_DIM_EXT2_LINETYPE
1070
   382
1005
2C
  0
DIMSTYLE
105
3B
330
35
100
AcDbSymbolTableRecord
100
AcDbDimStyleTableRecord
  2
CATALOG
 70
     0
 41
2.5
 42
1.0
 43
1.0
 44
1.0
 73
     0
 74
     0
 77
     1
 78
     8
 79
     2
140
3.0
141
0.5
147
1.0
172
     1
176
   256
177
   256
178
   256
179
     3
271
     3
272
     3
340
37
342
3C
371
    -1
372
    -1
1001
ACAD_DSTYLE_DIMBREAK
1070
   391
1040
0.125
1001
ACAD_DSTYLE_DIMJAG
1070
   388
1040
1.5
1001
ACAD_DSTYLE_DIMTALN
1070
   392
1070
     0
1001
ACAD_DSTYLE_DIM_LINETYPE
1070
   380
1005
2C
1001
ACAD_DSTYLE_DIM_EXT1_LINETYPE
1070
   381
1005
2C
1001
ACAD_DSTYLE_DIM_EXT2_LINETYPE
1070
   382
1005
2C
  0
ENDTAB
  0
TABLE
  2
BLOCK_RECORD
  5
1
330
0
100
AcDbSymbolTable
 70
    16
  0
BLOCK_RECORD
  5
2
102
{ACAD_XDICTIONARY
360
3
102
}
330
1
100
AcDbSymbolTableRecord
100
AcDbBlockTableRecord
  2
*Model_Space
340
18
  0
BLOCK_RECORD
  5
1B
102
{ACAD_XDICTIONARY
360
1C
102
}
330
1
100
AcDbSymbolTableRecord
100
AcDbBlockTableRecord
  2
*Paper_Space
340
20
  0
BLOCK_RECORD
  5
3C
330
1
100
AcDbSymbolTableRecord
100
AcDbBlockTableRecord
  2
_Open30
340
0
  0
BLOCK_RECORD
  5
EB
330
1
100
AcDbSymbolTableRecord
100
AcDbBlockTableRecord
  2
*D1
340
0
  0
BLOCK_RECORD
  5
FB
330
1
100
AcDbSymbolTableRecord
100
AcDbBlockTableRecord
  2
*D2
340
0
  0
BLOCK_RECORD
  5
108
330
1
100
AcDbSymbolTableRecord
100
AcDbBlockTableRecord
  2
*D3
340
0
  0
BLOCK_RECORD
  5
1CE
330
1
100
AcDbSymbolTableRecord
100
AcDbBlockTableRecord
  2
*D4
340
0
  0
BLOCK_RECORD
  5
1DD
330
1
100
AcDbSymbolTableRecord
100
AcDbBlockTableRecord
  2
*D5
340
0
  0
BLOCK_RECORD
  5
1EC
330
1
100
AcDbSymbolTableRecord
100
AcDbBlockTableRecord
  2
*D6
340
0
  0
BLOCK_RECORD
  5
1F9
330
1
100
AcDbSymbolTableRecord
100
AcDbBlockTableRecord
  2
*D7
340
0
  0
BLOCK_RECORD
  5
208
330
1
100
AcDbSymbolTableRecord
100
AcDbBlockTableRecord
  2
*D8
340
0
  0
BLOCK_RECORD
  5
215
330
1
100
AcDbSymbolTableRecord
100
AcDbBlockTableRecord
  2
*D9
340
0
  0
BLOCK_RECORD
  5
222
330
1
100
AcDbSymbolTableRecord
100
AcDbBlockTableRecord
  2
*D10
340
0
  0
BLOCK_RECORD
  5
22F
330
1
100
AcDbSymbolTableRecord
100
AcDbBlockTableRecord
  2
*D11
340
0
  0
BLOCK_RECORD
  5
23E
330
1
100
AcDbSymbolTableRecord
100
AcDbBlockTableRecord
  2
*D12
340
0
  0
BLOCK_RECORD
  5
24D
330
1
100
AcDbSymbolTableRecord
100
AcDbBlockTableRecord
  2
*D13
340
0
  0
BLOCK_RECORD
  5
25F
330
1
100
AcDbSymbolTableRecord
100
AcDbBlockTableRecord
  2
*D14
340
0
  0
BLOCK_RECORD
  5
26D
330
1
100
AcDbSymbolTableRecord
100
AcDbBlockTableRecord
  2
*D15
340
0
  0
ENDTAB
  0
ENDSEC
  0
SECTION
  2
BLOCKS
  0
BLOCK
  5
6
330
2
100
AcDbEntity
  8
0
100
AcDbBlockBegin
  2
*Model_Space
 70
     0
 10
0.0
 20
0.0
 30
0.0
  3
*Model_Space
  1

  0
ENDBLK
  5
17
330
2
100
AcDbEntity
  8
0
100
AcDbBlockEnd
  0
BLOCK
  5
1E
330
1B
100
AcDbEntity
 67
     1
  8
0
100
AcDbBlockBegin
  2
*Paper_Space
 70
     0
 10
0.0
 20
0.0
 30
0.0
  3
*Paper_Space
  1

  0
ENDBLK
  5
1F
330
1B
100
AcDbEntity
 67
     1
  8
0
100
AcDbBlockEnd
  0
BLOCK
  5
3D
330
3C
100
AcDbEntity
  8
0
100
AcDbBlockBegin
  2
_Open30
 70
     0
 10
0.0
 20
0.0
 30
0.0
  3
_Open30
  1

  0
LINE
  5
3E
330
3C
100
AcDbEntity
  8
0
  6
ByBlock
 62
     0
370
    -2
100
AcDbLine
 10
-1.0
 20
0.26794919
 30
0.0
 11
0.0
 21
0.0
 31
0.0
  0
LINE
  5
3F
330
3C
100
AcDbEntity
  8
0
  6
ByBlock
 62
     0
370
    -2
100
AcDbLine
 10
0.0
 20
0.0
 30
0.0
 11
-1.0
 21
-0.26794919
 31
0.0
  0
LINE
  5
40
330
3C
100
AcDbEntity
  8
0
  6
ByBlock
 62
     0
370
    -2
100
AcDbLine
 10
0.0
 20
0.0
 30
0.0
 11
-1.0
 21
0.0
 31
0.0
  0
ENDBLK
  5
41
330
3C
100
AcDbEntity
  8
0
100
AcDbBlockEnd
  0
BLOCK
  5
EC
330
EB
100
AcDbEntity
  8
0
100
AcDbBlockBegin
  2
*D1
 70
     1
 10
0.0
 20
0.0
 30
0.0
  3
*D1
  1

  0
LINE
  5
ED
330
EB
100
AcDbEntity
  8
TEXT
100
AcDbLine
 10
1784.999999999998
 20
255.0
 30
0.0
 11
1777.999999999998
 21
255.0
 31
0.0
  0
LINE
  5
EE
330
EB
100
AcDbEntity
  8
TEXT
100
AcDbLine
 10
1798.999999999998
 20
262.0
 30
0.0
 11
1777.999999999998
 21
262.0
 31
0.0
  0
LINE
  5
EF
330
EB
100
AcDbEntity
  8
TEXT
100
AcDbLine
 10
1778.999999999998
 20
251.0
 30
0.0
 11
1778.999999999998
 21
247.0
 31
0.0
  0
LINE
  5
F0
330
EB
100
AcDbEntity
  8
TEXT
100
AcDbLine
 10
1778.999999999998
 20
266.0
 30
0.0
 11
1778.999999999998
 21
270.0
 31
0.0
  0
LINE
  5
F1
330
EB
100
AcDbEntity
  8
TEXT
100
AcDbLine
 10
1778.999999999998
 20
255.0
 30
0.0
 11
1778.999999999998
 21
262.0
 31
0.0
  0
SOLID
  5
F2
330
EB
100
AcDbEntity
  8
TEXT
100
AcDbTrace
 10
1778.333333333331
 20
251.0
 30
0.0
 11
1779.666666666665
 21
251.0
 31
0.0
 12
1778.999999999998
 22
255.0
 32
0.0
 13
1778.999999999998
 23
255.0
 33
0.0
  0
SOLID
  5
F3
330
EB
100
AcDbEntity
  8
TEXT
100
AcDbTrace
 10
1778.333333333331
 20
266.0
 30
0.0
 11
1779.666666666665
 21
266.0
 31
0.0
 12
1778.999999999998
 22
262.0
 32
0.0
 13
1778.999999999998
 23
262.0
 33
0.0
  0
MTEXT
  5
F4
330
EB
100
AcDbEntity
  8
TEXT
100
AcDbMText
 10
1775.499999999998
 20
258.5000000000003
 30
0.0
 40
4.0
 41
0.0
 71
     5
 72
     1
  1
7
  7
GHS
 11
0.0000000000000001
 21
1.0
 31
0.0
 73
     1
 44
1.0
  0
POINT
  5
F5
330
EB
100
AcDbEntity
  8
DEFPOINTS
 62
     0
100
AcDbPoint
 10
1786.999999999998
 20
255.0
 30
0.0
  0
POINT
  5
F7
330
EB
100
AcDbEntity
  8
DEFPOINTS
 62
     0
100
AcDbPoint
 10
1800.999999999998
 20
262.0
 30
0.0
  0
POINT
  5
F8
330
EB
100
AcDbEntity
  8
DEFPOINTS
 62
     0
100
AcDbPoint
 10
1778.999999999998
 20
262.0
 30
0.0
  0
ENDBLK
  5
F9
330
EB
100
AcDbEntity
  8
0
100
AcDbBlockEnd
  0
BLOCK
  5
FC
330
FB
100
AcDbEntity
  8
0
100
AcDbBlockBegin
  2
*D2
 70
     1
 10
0.0
 20
0.0
 30
0.0
  3
*D2
  1

  0
LINE
  5
FD
330
FB
100
AcDbEntity
  8
TEXT
100
AcDbLine
 10
1784.999999999998
 20
255.0
 30
0.0
 11
1777.999999999998
 21
255.0
 31
0.0
  0
LINE
  5
FE
330
FB
100
AcDbEntity
  8
TEXT
100
AcDbLine
 10
1807.999999999998
 20
243.3000000000002
 30
0.0
 11
1777.999999999998
 21
243.3000000000002
 31
0.0
  0
LINE
  5
FF
330
FB
100
AcDbEntity
  8
TEXT
100
AcDbLine
 10
1778.999999999998
 20
251.0
 30
0.0
 11
1778.999999999998
 21
247.3000000000002
 31
0.0
  0
SOLID
  5
100
330
FB
100
AcDbEntity
  8
TEXT
100
AcDbTrace
 10
1778.333333333331
 20
251.0
 30
0.0
 11
1779.666666666665
 21
251.0
 31
0.0
 12
1778.999999999998
 22
255.0
 32
0.0
 13
1778.999999999998
 23
255.0
 33
0.0
  0
SOLID
  5
101
330
FB
100
AcDbEntity
  8
TEXT
100
AcDbTrace
 10
1778.333333333331
 20
247.3000000000002
 30
0.0
 11
1779.666666666665
 21
247.3000000000002
 31
0.0
 12
1778.999999999998
 22
243.3000000000002
 32
0.0
 13
1778.999999999998
 23
243.3000000000002
 33
0.0
  0
MTEXT
  5
102
330
FB
100
AcDbEntity
  8
TEXT
100
AcDbMText
 10
1775.499999999998
 20
249.1500000000004
 30
0.0
 40
4.0
 41
0.0
 71
     5
 72
     1
  1
11.7
  7
GHS
 11
0.0000000000000001
 21
1.0
 31
0.0
 73
     1
 44
1.0
  0
POINT
  5
103
330
FB
100
AcDbEntity
  8
DEFPOINTS
 62
     0
100
AcDbPoint
 10
1786.999999999998
 20
255.0
 30
0.0
  0
POINT
  5
104
330
FB
100
AcDbEntity
  8
DEFPOINTS
 62
     0
100
AcDbPoint
 10
1809.999999999998
 20
243.3000000000002
 30
0.0
  0
POINT
  5
105
330
FB
100
AcDbEntity
  8
DEFPOINTS
 62
     0
100
AcDbPoint
 10
1778.999999999998
 20
243.3000000000002
 30
0.0
  0
ENDBLK
  5
106
330
FB
100
AcDbEntity
  8
0
100
AcDbBlockEnd
  0
BLOCK
  5
109
330
108
100
AcDbEntity
  8
0
100
AcDbBlockBegin
  2
*D3
 70
     1
 10
0.0
 20
0.0
 30
0.0
  3
*D3
  1

  0
LINE
  5
10A
330
108
100
AcDbEntity
  8
TEXT
100
AcDbLine
 10
1784.081415712955
 20
325.0
 30
0.0
 11
1777.999999999998
 21
325.0
 31
0.0
  0
LINE
  5
10B
330
108
100
AcDbEntity
  8
TEXT
100
AcDbLine
 10
1784.081415712955
 20
330.0
 30
0.0
 11
1777.999999999998
 21
330.0
 31
0.0
  0
LINE
  5
10C
330
108
100
AcDbEntity
  8
TEXT
100
AcDbLine
 10
1778.999999999998
 20
321.0
 30
0.0
 11
1778.999999999998
 21
317.0
 31
0.0
  0
LINE
  5
10D
330
108
100
AcDbEntity
  8
TEXT
100
AcDbLine
 10
1778.999999999998
 20
334.0
 30
0.0
 11
1778.999999999998
 21
338.0
 31
0.0
  0
LINE
  5
10E
330
108
100
AcDbEntity
  8
TEXT
100
AcDbLine
 10
1778.999999999998
 20
325.0
 30
0.0
 11
1778.999999999998
 21
330.0
 31
0.0
  0
SOLID
  5
10F
330
108
100
AcDbEntity
  8
TEXT
100
AcDbTrace
 10
1778.333333333331
 20
321.0
 30
0.0
 11
1779.666666666665
 21
321.0
 31
0.0
 12
1778.999999999998
 22
325.0
 32
0.0
 13
1778.999999999998
 23
325.0
 33
0.0
  0
SOLID
  5
110
330
108
100
AcDbEntity
  8
TEXT
100
AcDbTrace
 10
1778.333333333331
 20
334.0
 30
0.0
 11
1779.666666666665
 21
334.0
 31
0.0
 12
1778.999999999998
 22
330.0
 32
0.0
 13
1778.999999999998
 23
330.0
 33
0.0
  0
MTEXT
  5
111
330
108
100
AcDbEntity
  8
TEXT
100
AcDbMText
 10
1775.499999999998
 20
327.5000000000003
 30
0.0
 40
4.0
 41
0.0
 71
     5
 72
     1
  1
5
  7
GHS
 11
0.0000000000000001
 21
1.0
 31
0.0
 73
     1
 44
1.0
  0
POINT
  5
112
330
108
100
AcDbEntity
  8
DEFPOINTS
 62
     0
100
AcDbPoint
 10
1786.081415712955
 20
325.0
 30
0.0
  0
POINT
  5
113
330
108
100
AcDbEntity
  8
DEFPOINTS
 62
     0
100
AcDbPoint
 10
1786.081415712955
 20
330.0
 30
0.0
  0
POINT
  5
114
330
108
100
AcDbEntity
  8
DEFPOINTS
 62
     0
100
AcDbPoint
 10
1778.999999999998
 20
330.0
 30
0.0
  0
ENDBLK
  5
115
330
108
100
AcDbEntity
  8
0
100
AcDbBlockEnd
  0
BLOCK
  5
1CF
330
1CE
100
AcDbEntity
  8
0
100
AcDbBlockBegin
  2
*D4
 70
     1
 10
0.0
 20
0.0
 30
0.0
  3
*D4
  1

  0
LINE
  5
1D0
330
1CE
100
AcDbEntity
  8
TEXT
100
AcDbLine
 10
1741.699999999998
 20
259.0
 30
0.0
 11
1752.999999999998
 21
259.0
 31
0.0
  0
LINE
  5
1D1
330
1CE
100
AcDbEntity
  8
TEXT
100
AcDbLine
 10
1742.199999999998
 20
264.5
 30
0.0
 11
1752.999999999998
 21
264.5
 31
0.0
  0
LINE
  5
1D2
330
1CE
100
AcDbEntity
  8
TEXT
100
AcDbLine
 10
1751.999999999998
 20
255.0
 30
0.0
 11
1751.999999999998
 21
251.0
 31
0.0
  0
LINE
  5
1D3
330
1CE
100
AcDbEntity
  8
TEXT
100
AcDbLine
 10
1751.999999999998
 20
268.5
 30
0.0
 11
1751.999999999998
 21
280.5285714285714
 31
0.0
  0
LINE
  5
1D4
330
1CE
100
AcDbEntity
  8
TEXT
100
AcDbLine
 10
1751.999999999998
 20
259.0
 30
0.0
 11
1751.999999999998
 21
264.5
 31
0.0
  0
SOLID
  5
1D5
330
1CE
100
AcDbEntity
  8
TEXT
100
AcDbTrace
 10
1751.333333333331
 20
255.0
 30
0.0
 11
1752.666666666665
 21
255.0
 31
0.0
 12
1751.999999999998
 22
259.0
 32
0.0
 13
1751.999999999998
 23
259.0
 33
0.0
  0
SOLID
  5
1D6
330
1CE
100
AcDbEntity
  8
TEXT
100
AcDbTrace
 10
1751.333333333331
 20
268.5
 30
0.0
 11
1752.666666666665
 21
268.5
 31
0.0
 12
1751.999999999998
 22
264.5
 32
0.0
 13
1751.999999999998
 23
264.5
 33
0.0
  0
MTEXT
  5
1D7
330
1CE
100
AcDbEntity
  8
TEXT
100
AcDbMText
 10
1748.499999999998
 20
276.514285714286
 30
0.0
 40
4.0
 41
0.0
 71
     5
 72
     1
  1
5.5
  7
GHS
 11
0.0000000000000001
 21
1.0
 31
0.0
 73
     1
 44
1.0
  0
POINT
  5
1D8
330
1CE
100
AcDbEntity
  8
DEFPOINTS
 62
     0
100
AcDbPoint
 10
1739.699999999998
 20
259.0
 30
0.0
  0
POINT
  5
1D9
330
1CE
100
AcDbEntity
  8
DEFPOINTS
 62
     0
100
AcDbPoint
 10
1740.199999999998
 20
264.5
 30
0.0
  0
POINT
  5
1DA
330
1CE
100
AcDbEntity
  8
DEFPOINTS
 62
     0
100
AcDbPoint
 10
1751.999999999998
 20
264.5
 30
0.0
  0
ENDBLK
  5
1DB
330
1CE
100
AcDbEntity
  8
0
100
AcDbBlockEnd
  0
BLOCK
  5
1DE
330
1DD
100
AcDbEntity
  8
0
100
AcDbBlockBegin
  2
*D5
 70
     1
 10
0.0
 20
0.0
 30
0.0
  3
*D5
  1

  0
LINE
  5
1DF
330
1DD
100
AcDbEntity
  8
TEXT
100
AcDbLine
 10
1741.699999999998
 20
259.0
 30
0.0
 11
1761.999999999998
 21
259.0
 31
0.0
  0
LINE
  5
1E0
330
1DD
100
AcDbEntity
  8
TEXT
100
AcDbLine
 10
1730.199999999998
 20
265.0
 30
0.0
 11
1761.999999999998
 21
265.0
 31
0.0
  0
LINE
  5
1E1
330
1DD
100
AcDbEntity
  8
TEXT
100
AcDbLine
 10
1760.999999999998
 20
255.0
 30
0.0
 11
1760.999999999998
 21
251.0
 31
0.0
  0
LINE
  5
1E2
330
1DD
100
AcDbEntity
  8
TEXT
100
AcDbLine
 10
1760.999999999998
 20
269.0
 30
0.0
 11
1760.999999999998
 21
279.7714285714286
 31
0.0
  0
LINE
  5
1E3
330
1DD
100
AcDbEntity
  8
TEXT
100
AcDbLine
 10
1760.999999999998
 20
259.0
 30
0.0
 11
1760.999999999998
 21
265.0
 31
0.0
  0
SOLID
  5
1E4
330
1DD
100
AcDbEntity
  8
TEXT
100
AcDbTrace
 10
1760.333333333331
 20
255.0
 30
0.0
 11
1761.666666666665
 21
255.0
 31
0.0
 12
1760.999999999998
 22
259.0
 32
0.0
 13
1760.999999999998
 23
259.0
 33
0.0
  0
SOLID
  5
1E5
330
1DD
100
AcDbEntity
  8
TEXT
100
AcDbTrace
 10
1760.333333333331
 20
269.0
 30
0.0
 11
1761.666666666665
 21
269.0
 31
0.0
 12
1760.999999999998
 22
265.0
 32
0.0
 13
1760.999999999998
 23
265.0
 33
0.0
  0
MTEXT
  5
1E6
330
1DD
100
AcDbEntity
  8
TEXT
100
AcDbMText
 10
1757.499999999998
 20
276.3857142857146
 30
0.0
 40
4.0
 41
0.0
 71
     5
 72
     1
  1
%%C6
  7
GHS
 11
0.0000000000000001
 21
1.0
 31
0.0
 73
     1
 44
1.0
  0
POINT
  5
1E7
330
1DD
100
AcDbEntity
  8
DEFPOINTS
 62
     0
100
AcDbPoint
 10
1739.699999999998
 20
259.0
 30
0.0
  0
POINT
  5
1E8
330
1DD
100
AcDbEntity
  8
DEFPOINTS
 62
     0
100
AcDbPoint
 10
1728.199999999998
 20
265.0
 30
0.0
  0
POINT
  5
1E9
330
1DD
100
AcDbEntity
  8
DEFPOINTS
 62
     0
100
AcDbPoint
 10
1760.999999999998
 20
265.0
 30
0.0
  0
ENDBLK
  5
1EA
330
1DD
100
AcDbEntity
  8
0
100
AcDbBlockEnd
  0
BLOCK
  5
1ED
330
1EC
100
AcDbEntity
  8
0
100
AcDbBlockBegin
  2
*D6
 70
     1
 10
0.0
 20
0.0
 30
0.0
  3
*D6
  1

  0
LINE
  5
1EE
330
1EC
100
AcDbEntity
  8
TEXT
100
AcDbLine
 10
1725.799999999998
 20
256.0500000000002
 30
0.0
 11
1770.999999999998
 21
256.0500000000002
 31
0.0
  0
LINE
  5
1EF
330
1EC
100
AcDbEntity
  8
TEXT
100
AcDbLine
 10
1725.799999999998
 20
267.9500000000003
 30
0.0
 11
1770.999999999998
 21
267.9500000000003
 31
0.0
  0
LINE
  5
1F0
330
1EC
100
AcDbEntity
  8
TEXT
100
AcDbLine
 10
1769.999999999998
 20
260.0500000000002
 30
0.0
 11
1769.999999999998
 21
263.9500000000003
 31
0.0
  0
SOLID
  5
1F1
330
1EC
100
AcDbEntity
  8
TEXT
100
AcDbTrace
 10
1769.333333333331
 20
260.0500000000002
 30
0.0
 11
1770.666666666665
 21
260.0500000000002
 31
0.0
 12
1769.999999999998
 22
256.0500000000002
 32
0.0
 13
1769.999999999998
 23
256.0500000000002
 33
0.0
  0
SOLID
  5
1F2
330
1EC
100
AcDbEntity
  8
TEXT
100
AcDbTrace
 10
1769.333333333331
 20
263.9500000000003
 30
0.0
 11
1770.666666666665
 21
263.9500000000003
 31
0.0
 12
1769.999999999998
 22
267.9500000000003
 32
0.0
 13
1769.999999999998
 23
267.9500000000003
 33
0.0
  0
MTEXT
  5
1F3
330
1EC
100
AcDbEntity
  8
TEXT
100
AcDbMText
 10
1766.499999999998
 20
262.0000000000005
 30
0.0
 40
4.0
 41
0.0
 71
     5
 72
     1
  1
%%C12
  7
GHS
 11
0.0000000000000001
 21
1.0
 31
0.0
 73
     1
 44
1.0
  0
POINT
  5
1F4
330
1EC
100
AcDbEntity
  8
DEFPOINTS
 62
     0
100
AcDbPoint
 10
1723.799999999998
 20
256.0500000000002
 30
0.0
  0
POINT
  5
1F5
330
1EC
100
AcDbEntity
  8
DEFPOINTS
 62
     0
100
AcDbPoint
 10
1723.799999999998
 20
267.9500000000003
 30
0.0
  0
POINT
  5
1F6
330
1EC
100
AcDbEntity
  8
DEFPOINTS
 62
     0
100
AcDbPoint
 10
1769.999999999998
 20
267.9500000000003
 30
0.0
  0
ENDBLK
  5
1F7
330
1EC
100
AcDbEntity
  8
0
100
AcDbBlockEnd
  0
BLOCK
  5
1FA
330
1F9
100
AcDbEntity
  8
0
100
AcDbBlockBegin
  2
*D7
 70
     1
 10
0.0
 20
0.0
 30
0.0
  3
*D7
  1

  0
LINE
  5
1FB
330
1F9
100
AcDbEntity
  8
TEXT
100
AcDbLine
 10
1719.999999999998
 20
277.0
 30
0.0
 11
1719.999999999998
 21
286.0
 31
0.0
  0
LINE
  5
1FC
330
1F9
100
AcDbEntity
  8
TEXT
100
AcDbLine
 10
1724.299999999998
 20
269.4500000000003
 30
0.0
 11
1724.299999999998
 21
286.0
 31
0.0
  0
LINE
  5
1FD
330
1F9
100
AcDbEntity
  8
TEXT
100
AcDbLine
 10
1728.299999999998
 20
285.0
 30
0.0
 11
1732.299999999998
 21
285.0
 31
0.0
  0
LINE
  5
1FE
330
1F9
100
AcDbEntity
  8
TEXT
100
AcDbLine
 10
1715.999999999998
 20
285.0
 30
0.0
 11
1703.342857142855
 21
285.0
 31
0.0
  0
LINE
  5
1FF
330
1F9
100
AcDbEntity
  8
TEXT
100
AcDbLine
 10
1724.299999999998
 20
285.0
 30
0.0
 11
1719.999999999998
 21
285.0
 31
0.0
  0
SOLID
  5
200
330
1F9
100
AcDbEntity
  8
TEXT
100
AcDbTrace
 10
1728.299999999998
 20
285.6666666666667
 30
0.0
 11
1728.299999999998
 21
284.3333333333333
 31
0.0
 12
1724.299999999998
 22
285.0
 32
0.0
 13
1724.299999999998
 23
285.0
 33
0.0
  0
SOLID
  5
201
330
1F9
100
AcDbEntity
  8
TEXT
100
AcDbTrace
 10
1715.999999999998
 20
285.6666666666667
 30
0.0
 11
1715.999999999998
 21
284.3333333333333
 31
0.0
 12
1719.999999999998
 22
285.0
 32
0.0
 13
1719.999999999998
 23
285.0
 33
0.0
  0
MTEXT
  5
202
330
1F9
100
AcDbEntity
  8
TEXT
100
AcDbMText
 10
1707.357142857141
 20
288.5
 30
0.0
 40
4.0
 41
0.0
 71
     5
 72
     1
  1
4.3
  7
GHS
 73
     1
 44
1.0
  0
POINT
  5
203
330
1F9
100
AcDbEntity
  8
DEFPOINTS
 62
     0
100
AcDbPoint
 10
1719.999999999998
 20
275.0
 30
0.0
  0
POINT
  5
204
330
1F9
100
AcDbEntity
  8
DEFPOINTS
 62
     0
100
AcDbPoint
 10
1724.299999999998
 20
267.4500000000003
 30
0.0
  0
POINT
  5
205
330
1F9
100
AcDbEntity
  8
DEFPOINTS
 62
     0
100
AcDbPoint
 10
1724.299999999998
 20
285.0
 30
0.0
  0
ENDBLK
  5
206
330
1F9
100
AcDbEntity
  8
0
100
AcDbBlockEnd
  0
BLOCK
  5
209
330
208
100
AcDbEntity
  8
0
100
AcDbBlockBegin
  2
*D8
 70
     1
 10
0.0
 20
0.0
 30
0.0
  3
*D8
  1

  0
LINE
  5
20A
330
208
100
AcDbEntity
  8
TEXT
100
AcDbLine
 10
1728.199999999998
 20
267.0
 30
0.0
 11
1728.199999999998
 21
278.0
 31
0.0
  0
LINE
  5
20B
330
208
100
AcDbEntity
  8
TEXT
100
AcDbLine
 10
1740.199999999998
 20
266.5
 30
0.0
 11
1740.199999999998
 21
278.0
 31
0.0
  0
LINE
  5
20C
330
208
100
AcDbEntity
  8
TEXT
100
AcDbLine
 10
1732.199999999998
 20
277.0
 30
0.0
 11
1736.199999999998
 21
277.0
 31
0.0
  0
SOLID
  5
20D
330
208
100
AcDbEntity
  8
TEXT
100
AcDbTrace
 10
1732.199999999998
 20
277.6666666666667
 30
0.0
 11
1732.199999999998
 21
276.3333333333333
 31
0.0
 12
1728.199999999998
 22
277.0
 32
0.0
 13
1728.199999999998
 23
277.0
 33
0.0
  0
SOLID
  5
20E
330
208
100
AcDbEntity
  8
TEXT
100
AcDbTrace
 10
1736.199999999998
 20
277.6666666666667
 30
0.0
 11
1736.199999999998
 21
276.3333333333333
 31
0.0
 12
1740.199999999998
 22
277.0
 32
0.0
 13
1740.199999999998
 23
277.0
 33
0.0
  0
MTEXT
  5
20F
330
208
100
AcDbEntity
  8
TEXT
100
AcDbMText
 10
1734.199999999998
 20
280.5
 30
0.0
 40
4.0
 41
0.0
 71
     5
 72
     1
  1
12
  7
GHS
 73
     1
 44
1.0
  0
POINT
  5
210
330
208
100
AcDbEntity
  8
DEFPOINTS
 62
     0
100
AcDbPoint
 10
1728.199999999998
 20
265.0
 30
0.0
  0
POINT
  5
211
330
208
100
AcDbEntity
  8
DEFPOINTS
 62
     0
100
AcDbPoint
 10
1740.199999999998
 20
264.5
 30
0.0
  0
POINT
  5
212
330
208
100
AcDbEntity
  8
DEFPOINTS
 62
     0
100
AcDbPoint
 10
1740.199999999998
 20
277.0
 30
0.0
  0
ENDBLK
  5
213
330
208
100
AcDbEntity
  8
0
100
AcDbBlockEnd
  0
BLOCK
  5
216
330
215
100
AcDbEntity
  8
0
100
AcDbBlockBegin
  2
*D9
 70
     1
 10
0.0
 20
0.0
 30
0.0
  3
*D9
  1

  0
LINE
  5
217
330
215
100
AcDbEntity
  8
TEXT
100
AcDbLine
 10
1719.999999999998
 20
277.0
 30
0.0
 11
1719.999999999998
 21
294.0
 31
0.0
  0
LINE
  5
218
330
215
100
AcDbEntity
  8
TEXT
100
AcDbLine
 10
1740.199999999998
 20
266.5
 30
0.0
 11
1740.199999999998
 21
294.0
 31
0.0
  0
LINE
  5
219
330
215
100
AcDbEntity
  8
TEXT
100
AcDbLine
 10
1723.999999999998
 20
293.0
 30
0.0
 11
1736.199999999998
 21
293.0
 31
0.0
  0
SOLID
  5
21A
330
215
100
AcDbEntity
  8
TEXT
100
AcDbTrace
 10
1723.999999999998
 20
293.6666666666667
 30
0.0
 11
1723.999999999998
 21
292.3333333333333
 31
0.0
 12
1719.999999999998
 22
293.0
 32
0.0
 13
1719.999999999998
 23
293.0
 33
0.0
  0
SOLID
  5
21B
330
215
100
AcDbEntity
  8
TEXT
100
AcDbTrace
 10
1736.199999999998
 20
293.6666666666667
 30
0.0
 11
1736.199999999998
 21
292.3333333333333
 31
0.0
 12
1740.199999999998
 22
293.0
 32
0.0
 13
1740.199999999998
 23
293.0
 33
0.0
  0
MTEXT
  5
21C
330
215
100
AcDbEntity
  8
TEXT
100
AcDbMText
 10
1730.099999999998
 20
296.5
 30
0.0
 40
4.0
 41
0.0
 71
     5
 72
     1
  1
20.2
  7
GHS
 73
     1
 44
1.0
  0
POINT
  5
21D
330
215
100
AcDbEntity
  8
DEFPOINTS
 62
     0
100
AcDbPoint
 10
1719.999999999998
 20
275.0
 30
0.0
  0
POINT
  5
21E
330
215
100
AcDbEntity
  8
DEFPOINTS
 62
     0
100
AcDbPoint
 10
1740.199999999998
 20
264.5
 30
0.0
  0
POINT
  5
21F
330
215
100
AcDbEntity
  8
DEFPOINTS
 62
     0
100
AcDbPoint
 10
1740.199999999998
 20
293.0
 30
0.0
  0
ENDBLK
  5
220
330
215
100
AcDbEntity
  8
0
100
AcDbBlockEnd
  0
BLOCK
  5
223
330
222
100
AcDbEntity
  8
0
100
AcDbBlockBegin
  2
*D10
 70
     1
 10
0.0
 20
0.0
 30
0.0
  3
*D10
  1

  0
LINE
  5
224
330
222
100
AcDbEntity
  8
TEXT
100
AcDbLine
 10
1686.499999999998
 20
277.0
 30
0.0
 11
1686.499999999998
 21
294.0
 31
0.0
  0
LINE
  5
225
330
222
100
AcDbEntity
  8
TEXT
100
AcDbLine
 10
1719.999999999998
 20
277.0
 30
0.0
 11
1719.999999999998
 21
294.0
 31
0.0
  0
LINE
  5
226
330
222
100
AcDbEntity
  8
TEXT
100
AcDbLine
 10
1690.499999999998
 20
293.0
 30
0.0
 11
1715.999999999998
 21
293.0
 31
0.0
  0
SOLID
  5
227
330
222
100
AcDbEntity
  8
TEXT
100
AcDbTrace
 10
1690.499999999998
 20
293.6666666666667
 30
0.0
 11
1690.499999999998
 21
292.3333333333333
 31
0.0
 12
1686.499999999998
 22
293.0
 32
0.0
 13
1686.499999999998
 23
293.0
 33
0.0
  0
SOLID
  5
228
330
222
100
AcDbEntity
  8
TEXT
100
AcDbTrace
 10
1715.999999999998
 20
293.6666666666667
 30
0.0
 11
1715.999999999998
 21
292.3333333333333
 31
0.0
 12
1719.999999999998
 22
293.0
 32
0.0
 13
1719.999999999998
 23
293.0
 33
0.0
  0
MTEXT
  5
229
330
222
100
AcDbEntity
  8
TEXT
100
AcDbMText
 10
1703.249999999998
 20
296.5
 30
0.0
 40
4.0
 41
0.0
 71
     5
 72
     1
  1
33.5
  7
GHS
 73
     1
 44
1.0
  0
POINT
  5
22A
330
222
100
AcDbEntity
  8
DEFPOINTS
 62
     0
100
AcDbPoint
 10
1686.499999999998
 20
275.0
 30
0.0
  0
POINT
  5
22B
330
222
100
AcDbEntity
  8
DEFPOINTS
 62
     0
100
AcDbPoint
 10
1719.999999999998
 20
275.0
 30
0.0
  0
POINT
  5
22C
330
222
100
AcDbEntity
  8
DEFPOINTS
 62
     0
100
AcDbPoint
 10
1719.999999999998
 20
293.0
 30
0.0
  0
ENDBLK
  5
22D
330
222
100
AcDbEntity
  8
0
100
AcDbBlockEnd
  0
BLOCK
  5
230
330
22F
100
AcDbEntity
  8
0
100
AcDbBlockBegin
  2
*D11
 70
     1
 10
0.0
 20
0.0
 30
0.0
  3
*D11
  1

  0
LINE
  5
231
330
22F
100
AcDbEntity
  8
TEXT
100
AcDbLine
 10
1686.499999999998
 20
277.0
 30
0.0
 11
1686.499999999998
 21
294.0
 31
0.0
  0
LINE
  5
232
330
22F
100
AcDbEntity
  8
TEXT
100
AcDbLine
 10
1681.199999999998
 20
260.8000000000002
 30
0.0
 11
1681.199999999998
 21
294.0
 31
0.0
  0
LINE
  5
233
330
22F
100
AcDbEntity
  8
TEXT
100
AcDbLine
 10
1690.499999999998
 20
293.0
 30
0.0
 11
1694.499999999998
 21
293.0
 31
0.0
  0
LINE
  5
234
330
22F
100
AcDbEntity
  8
TEXT
100
AcDbLine
 10
1677.199999999998
 20
293.0
 30
0.0
 11
1665.171428571427
 21
293.0
 31
0.0
  0
LINE
  5
235
330
22F
100
AcDbEntity
  8
TEXT
100
AcDbLine
 10
1686.499999999998
 20
293.0
 30
0.0
 11
1681.199999999998
 21
293.0
 31
0.0
  0
SOLID
  5
236
330
22F
100
AcDbEntity
  8
TEXT
100
AcDbTrace
 10
1690.499999999998
 20
293.6666666666667
 30
0.0
 11
1690.499999999998
 21
292.3333333333333
 31
0.0
 12
1686.499999999998
 22
293.0
 32
0.0
 13
1686.499999999998
 23
293.0
 33
0.0
  0
SOLID
  5
237
330
22F
100
AcDbEntity
  8
TEXT
100
AcDbTrace
 10
1677.199999999998
 20
293.6666666666667
 30
0.0
 11
1677.199999999998
 21
292.3333333333333
 31
0.0
 12
1681.199999999998
 22
293.0
 32
0.0
 13
1681.199999999998
 23
293.0
 33
0.0
  0
MTEXT
  5
238
330
22F
100
AcDbEntity
  8
TEXT
100
AcDbMText
 10
1669.185714285712
 20
296.5
 30
0.0
 40
4.0
 41
0.0
 71
     5
 72
     1
  1
5.3
  7
GHS
 73
     1
 44
1.0
  0
POINT
  5
239
330
22F
100
AcDbEntity
  8
DEFPOINTS
 62
     0
100
AcDbPoint
 10
1686.499999999998
 20
275.0
 30
0.0
  0
POINT
  5
23A
330
22F
100
AcDbEntity
  8
DEFPOINTS
 62
     0
100
AcDbPoint
 10
1681.199999999998
 20
258.8000000000002
 30
0.0
  0
POINT
  5
23B
330
22F
100
AcDbEntity
  8
DEFPOINTS
 62
     0
100
AcDbPoint
 10
1681.199999999998
 20
293.0
 30
0.0
  0
ENDBLK
  5
23C
330
22F
100
AcDbEntity
  8
0
100
AcDbBlockEnd
  0
BLOCK
  5
23F
330
23E
100
AcDbEntity
  8
0
100
AcDbBlockBegin
  2
*D12
 70
     1
 10
0.0
 20
0.0
 30
0.0
  3
*D12
  1

  0
LINE
  5
240
330
23E
100
AcDbEntity
  8
TEXT
100
AcDbLine
 10
1740.199999999998
 20
266.5
 30
0.0
 11
1740.199999999998
 21
303.0
 31
0.0
  0
LINE
  5
241
330
23E
100
AcDbEntity
  8
TEXT
100
AcDbLine
 10
1681.199999999998
 20
260.8000000000002
 30
0.0
 11
1681.199999999998
 21
303.0
 31
0.0
  0
LINE
  5
242
330
23E
100
AcDbEntity
  8
TEXT
100
AcDbLine
 10
1736.199999999998
 20
302.0
 30
0.0
 11
1685.199999999998
 21
302.0
 31
0.0
  0
SOLID
  5
243
330
23E
100
AcDbEntity
  8
TEXT
100
AcDbTrace
 10
1736.199999999998
 20
302.6666666666667
 30
0.0
 11
1736.199999999998
 21
301.3333333333333
 31
0.0
 12
1740.199999999998
 22
302.0
 32
0.0
 13
1740.199999999998
 23
302.0
 33
0.0
  0
SOLID
  5
244
330
23E
100
AcDbEntity
  8
TEXT
100
AcDbTrace
 10
1685.199999999998
 20
302.6666666666667
 30
0.0
 11
1685.199999999998
 21
301.3333333333333
 31
0.0
 12
1681.199999999998
 22
302.0
 32
0.0
 13
1681.199999999998
 23
302.0
 33
0.0
  0
MTEXT
  5
245
330
23E
100
AcDbEntity
  8
TEXT
100
AcDbMText
 10
1710.699999999998
 20
305.5
 30
0.0
 40
4.0
 41
0.0
 71
     5
 72
     1
  1
59
  7
GHS
 73
     1
 44
1.0
  0
POINT
  5
246
330
23E
100
AcDbEntity
  8
DEFPOINTS
 62
     0
100
AcDbPoint
 10
1740.199999999998
 20
264.5
 30
0.0
  0
POINT
  5
247
330
23E
100
AcDbEntity
  8
DEFPOINTS
 62
     0
100
AcDbPoint
 10
1681.199999999998
 20
258.8000000000002
 30
0.0
  0
POINT
  5
248
330
23E
100
AcDbEntity
  8
DEFPOINTS
 62
     0
100
AcDbPoint
 10
1681.199999999998
 20
302.0
 30
0.0
  0
ENDBLK
  5
249
330
23E
100
AcDbEntity
  8
0
100
AcDbBlockEnd
  0
BLOCK
  5
24E
330
24D
100
AcDbEntity
  8
0
100
AcDbBlockBegin
  2
*D13
 70
     1
 10
0.0
 20
0.0
 30
0.0
  3
*D13
  1

  0
LINE
  5
24F
330
24D
100
AcDbEntity
  8
TEXT
100
AcDbLine
 10
1881.499999999998
 20
225.3000000000002
 30
0.0
 11
1898.0
 21
225.3000000000002
 31
0.0
  0
LINE
  5
250
330
24D
100
AcDbEntity
  8
TEXT
100
AcDbLine
 10
1881.499999999998
 20
261.3000000000002
 30
0.0
 11
1898.0
 21
261.3000000000002
 31
0.0
  0
LINE
  5
251
330
24D
100
AcDbEntity
  8
TEXT
100
AcDbLine
 10
1897.0
 20
229.3000000000002
 30
0.0
 11
1897.0
 21
257.3000000000002
 31
0.0
  0
SOLID
  5
252
330
24D
100
AcDbEntity
  8
TEXT
100
AcDbTrace
 10
1896.333333333333
 20
229.3000000000002
 30
0.0
 11
1897.666666666667
 21
229.3000000000002
 31
0.0
 12
1897.0
 22
225.3000000000002
 32
0.0
 13
1897.0
 23
225.3000000000002
 33
0.0
  0
SOLID
  5
253
330
24D
100
AcDbEntity
  8
TEXT
100
AcDbTrace
 10
1896.333333333333
 20
257.3000000000002
 30
0.0
 11
1897.666666666667
 21
257.3000000000002
 31
0.0
 12
1897.0
 22
261.3000000000002
 32
0.0
 13
1897.0
 23
261.3000000000002
 33
0.0
  0
MTEXT
  5
254
330
24D
100
AcDbEntity
  8
TEXT
100
AcDbMText
 10
1893.5
 20
243.3000000000005
 30
0.0
 40
4.0
 41
0.0
 71
     5
 72
     1
  1
%%C36
  7
GHS
 11
0.0000000000000001
 21
1.0
 31
0.0
 73
     1
 44
1.0
  0
POINT
  5
255
330
24D
100
AcDbEntity
  8
DEFPOINTS
 62
     0
100
AcDbPoint
 10
1879.499999999998
 20
225.3000000000002
 30
0.0
  0
POINT
  5
256
330
24D
100
AcDbEntity
  8
DEFPOINTS
 62
     0
100
AcDbPoint
 10
1879.499999999998
 20
261.3000000000002
 30
0.0
  0
POINT
  5
257
330
24D
100
AcDbEntity
  8
DEFPOINTS
 62
     0
100
AcDbPoint
 10
1897.0
 20
261.3000000000002
 30
0.0
  0
ENDBLK
  5
258
330
24D
100
AcDbEntity
  8
0
100
AcDbBlockEnd
  0
BLOCK
  5
260
330
25F
100
AcDbEntity
  8
0
100
AcDbBlockBegin
  2
*D14
 70
     1
 10
0.0
 20
0.0
 30
0.0
  3
*D14
  1

  0
LINE
  5
261
330
25F
100
AcDbEntity
  8
TEXT
100
AcDbLine
 10
1836.499999999998
 20
264.3000000000002
 30
0.0
 11
1836.499999999998
 21
284.0
 31
0.0
  0
LINE
  5
262
330
25F
100
AcDbEntity
  8
TEXT
100
AcDbLine
 10
1813.999999999998
 20
283.0
 30
0.0
 11
1832.499999999998
 21
283.0
 31
0.0
  0
SOLID
  5
263
330
25F
100
AcDbEntity
  8
TEXT
100
AcDbTrace
 10
1813.999999999998
 20
283.6666666666667
 30
0.0
 11
1813.999999999998
 21
282.3333333333333
 31
0.0
 12
1809.999999999998
 22
283.0
 32
0.0
 13
1809.999999999998
 23
283.0
 33
0.0
  0
SOLID
  5
264
330
25F
100
AcDbEntity
  8
TEXT
100
AcDbTrace
 10
1832.499999999998
 20
283.6666666666667
 30
0.0
 11
1832.499999999998
 21
282.3333333333333
 31
0.0
 12
1836.499999999998
 22
283.0
 32
0.0
 13
1836.499999999998
 23
283.0
 33
0.0
  0
MTEXT
  5
265
330
25F
100
AcDbEntity
  8
TEXT
100
AcDbMText
 10
1823.249999999998
 20
286.5
 30
0.0
 40
4.0
 41
0.0
 71
     5
 72
     1
  1
26.5
  7
GHS
 73
     1
 44
1.0
  0
POINT
  5
266
330
25F
100
AcDbEntity
  8
DEFPOINTS
 62
     0
100
AcDbPoint
 10
1809.999999999998
 20
284.0
 30
0.0
  0
POINT
  5
267
330
25F
100
AcDbEntity
  8
DEFPOINTS
 62
     0
100
AcDbPoint
 10
1836.499999999998
 20
262.3000000000002
 30
0.0
  0
POINT
  5
268
330
25F
100
AcDbEntity
  8
DEFPOINTS
 62
     0
100
AcDbPoint
 10
1836.499999999998
 20
283.0
 30
0.0
  0
ENDBLK
  5
269
330
25F
100
AcDbEntity
  8
0
100
AcDbBlockEnd
  0
BLOCK
  5
26E
330
26D
100
AcDbEntity
  8
0
100
AcDbBlockBegin
  2
*D15
 70
     1
 10
0.0
 20
0.0
 30
0.0
  3
*D15
  1

  0
LINE
  5
26F
330
26D
100
AcDbEntity
  8
TEXT
100
AcDbLine
 10
1836.499999999998
 20
264.3000000000002
 30
0.0
 11
1836.499999999998
 21
284.0
 31
0.0
  0
LINE
  5
270
330
26D
100
AcDbEntity
  8
TEXT
100
AcDbLine
 10
1879.499999999998
 20
263.3000000000002
 30
0.0
 11
1879.499999999998
 21
284.0
 31
0.0
  0
LINE
  5
271
330
26D
100
AcDbEntity
  8
TEXT
100
AcDbLine
 10
1840.499999999998
 20
283.0
 30
0.0
 11
1875.499999999998
 21
283.0
 31
0.0
  0
SOLID
  5
272
330
26D
100
AcDbEntity
  8
TEXT
100
AcDbTrace
 10
1840.499999999998
 20
283.6666666666667
 30
0.0
 11
1840.499999999998
 21
282.3333333333333
 31
0.0
 12
1836.499999999998
 22
283.0
 32
0.0
 13
1836.499999999998
 23
283.0
 33
0.0
  0
SOLID
  5
273
330
26D
100
AcDbEntity
  8
TEXT
100
AcDbTrace
 10
1875.499999999998
 20
283.6666666666667
 30
0.0
 11
1875.499999999998
 21
282.3333333333333
 31
0.0
 12
1879.499999999998
 22
283.0
 32
0.0
 13
1879.499999999998
 23
283.0
 33
0.0
  0
MTEXT
  5
274
330
26D
100
AcDbEntity
  8
TEXT
100
AcDbMText
 10
1857.999999999998
 20
286.5
 30
0.0
 40
4.0
 41
0.0
 71
     5
 72
     1
  1
43
  7
GHS
 73
     1
 44
1.0
  0
POINT
  5
275
330
26D
100
AcDbEntity
  8
DEFPOINTS
 62
     0
100
AcDbPoint
 10
1836.499999999998
 20
262.3000000000002
 30
0.0
  0
POINT
  5
276
330
26D
100
AcDbEntity
  8
DEFPOINTS
 62
     0
100
AcDbPoint
 10
1879.499999999998
 20
261.3000000000002
 30
0.0
  0
POINT
  5
277
330
26D
100
AcDbEntity
  8
DEFPOINTS
 62
     0
100
AcDbPoint
 10
1879.499999999998
 20
283.0
 30
0.0
  0
ENDBLK
  5
278
330
26D
100
AcDbEntity
  8
0
100
AcDbBlockEnd
  0
ENDSEC
  0
SECTION
  2
ENTITIES
  0
LINE
  5
86
102
{ACAD_REACTORS
330
25E
102
}
330
2
100
AcDbEntity
  8
CL
100
AcDbLine
 10
1809.999999999998
 20
226.0
 30
0.0
 11
1809.999999999998
 21
284.0
 31
0.0
  0
LINE
  5
8B
330
2
100
AcDbEntity
  8
0
100
AcDbLine
 10
1836.499999999998
 20
224.3000000000002
 30
0.0
 11
1836.499999999998
 21
262.3000000000002
 31
0.0
  0
LINE
  5
8C
330
2
100
AcDbEntity
  8
0
100
AcDbLine
 10
1832.499999999998
 20
224.3000000000002
 30
0.0
 11
1832.499999999998
 21
262.3000000000002
 31
0.0
  0
LINE
  5
8D
330
2
100
AcDbEntity
  8
0
100
AcDbLine
 10
1828.499999999998
 20
224.3000000000002
 30
0.0
 11
1828.499999999998
 21
233.3000000000002
 31
0.0
  0
ARC
  5
8E
330
2
100
AcDbEntity
  8
0
100
AcDbCircle
 10
1824.499999999998
 20
233.3000000000002
 30
0.0
 40
4.0
100
AcDbArc
 50
0.0
 51
90.0
  0
LINE
  5
8F
330
2
100
AcDbEntity
  8
0
100
AcDbLine
 10
1813.999999999998
 20
232.0
 30
0.0
 11
1813.999999999998
 21
233.8339895114832
 31
0.0
  0
LINE
  5
90
330
2
100
AcDbEntity
  8
0
100
AcDbLine
 10
1805.999999999998
 20
232.0
 30
0.0
 11
1805.999999999998
 21
233.8339895114832
 31
0.0
  0
LINE
  5
91
330
2
100
AcDbEntity
  8
CL
100
AcDbLine
 10
1786.999999999998
 20
255.0
 30
0.0
 11
1832.999999999998
 21
255.0
 31
0.0
  0
LINE
  5
92
330
2
100
AcDbEntity
  8
CL
100
AcDbLine
 10
1800.999999999998
 20
262.0
 30
0.0
 11
1818.999999999998
 21
262.0
 31
0.0
  0
LINE
  5
93
330
2
100
AcDbEntity
  8
CL
100
AcDbLine
 10
1809.999999999998
 20
243.3000000000002
 30
0.0
 11
1886.499999999998
 21
243.3000000000011
 31
0.0
  0
LINE
  5
94
330
2
100
AcDbEntity
  8
0
100
AcDbLine
 10
1828.499999999998
 20
224.3000000000002
 30
0.0
 11
1836.499999999998
 21
224.3000000000002
 31
0.0
  0
LINE
  5
95
330
2
100
AcDbEntity
  8
0
100
AcDbLine
 10
1819.311820445002
 20
237.3000000000002
 30
0.0
 11
1824.499999999998
 21
237.3000000000002
 31
0.0
  0
LINE
  5
96
330
2
100
AcDbEntity
  8
0
100
AcDbLine
 10
1832.499999999998
 20
262.3000000000002
 30
0.0
 11
1836.499999999998
 21
262.3000000000002
 31
0.0
  0
ARC
  5
97
330
2
100
AcDbEntity
  8
0
100
AcDbCircle
 10
1809.999999999998
 20
255.0
 30
0.0
 40
20.0
100
AcDbArc
 50
165.826620131878
 51
254.1733798680889
  0
ARC
  5
98
330
2
100
AcDbEntity
  8
0
100
AcDbCircle
 10
1803.999999999998
 20
233.8339895114832
 30
0.0
 40
2.0
100
AcDbArc
 50
0.0
 51
74.17337986808886
  0
ARC
  5
99
330
2
100
AcDbEntity
  8
0
100
AcDbCircle
 10
1788.669697220175
 20
260.3868528215516
 30
0.0
 40
2.0
100
AcDbArc
 50
345.826620131878
 51
59.99999999999946
  0
ARC
  5
9A
330
2
100
AcDbEntity
  8
0
100
AcDbCircle
 10
1809.999999999998
 20
255.0
 30
0.0
 40
20.0
100
AcDbArc
 50
285.8266201319111
 51
14.17337986812194
  0
ARC
  5
9B
330
2
100
AcDbEntity
  8
0
100
AcDbCircle
 10
1815.999999999998
 20
233.8339895114832
 30
0.0
 40
2.0
100
AcDbArc
 50
105.8266201319111
 51
180.0
  0
ARC
  5
9C
330
2
100
AcDbEntity
  8
0
100
AcDbCircle
 10
1831.330302779821
 20
260.3868528215516
 30
0.0
 40
2.0
100
AcDbArc
 50
120.0000000000005
 51
194.1733798681219
  0
ARC
  5
9D
330
2
100
AcDbEntity
  8
0
100
AcDbCircle
 10
1809.999999999998
 20
255.0
 30
0.0
 40
20.0
100
AcDbArc
 50
45.82662013178338
 51
134.1733798682166
  0
ARC
  5
9E
330
2
100
AcDbEntity
  8
0
100
AcDbCircle
 10
1794.669697220175
 20
270.7791576669651
 30
0.0
 40
2.0
100
AcDbArc
 50
239.9999999999995
 51
314.1733798682166
  0
ARC
  5
9F
330
2
100
AcDbEntity
  8
0
100
AcDbCircle
 10
1825.330302779821
 20
270.7791576669651
 30
0.0
 40
2.0
100
AcDbArc
 50
225.8266201317834
 51
300.0000000000005
  0
ARC
  5
A0
330
2
100
AcDbEntity
  8
CL
100
AcDbCircle
 10
1809.999999999998
 20
255.0
 30
0.0
 40
23.0
100
AcDbArc
 50
15.0105650921309
 51
44.98943490791065
  0
ARC
  5
A1
330
2
100
AcDbEntity
  8
CL
100
AcDbCircle
 10
1809.999999999998
 20
255.0
 30
0.0
 40
23.0
100
AcDbArc
 50
135.0105650920893
 51
164.9894349078691
  0
ARC
  5
A2
330
2
100
AcDbEntity
  8
CL
100
AcDbCircle
 10
1809.999999999998
 20
255.0
 30
0.0
 40
23.0
100
AcDbArc
 50
255.0105650921693
 51
284.9894349078306
  0
LINE
  5
A3
330
2
100
AcDbEntity
  8
CL
100
AcDbLine
 10
1824.722431864333
 20
263.5
 30
0.0
 11
1835.114736709747
 21
269.5
 31
0.0
  0
LINE
  5
A4
330
2
100
AcDbEntity
  8
0
100
AcDbLine
 10
1830.330302779823
 20
262.1189036291207
 30
0.0
 11
1831.918584287041
 21
263.0358983848619
 31
0.0
  0
LINE
  5
A5
330
2
100
AcDbEntity
  8
0
100
AcDbLine
 10
1826.330302779821
 20
269.0471068593961
 30
0.0
 11
1827.918584287041
 21
269.9641016151381
 31
0.0
  0
LINE
  5
A6
330
2
100
AcDbEntity
  8
CL
100
AcDbLine
 10
1795.277568135663
 20
263.5
 30
0.0
 11
1784.885263290249
 21
269.5
 31
0.0
  0
LINE
  5
A7
330
2
100
AcDbEntity
  8
0
100
AcDbLine
 10
1793.669697220175
 20
269.0471068593961
 30
0.0
 11
1792.081415712955
 21
269.9641016151381
 31
0.0
  0
LINE
  5
A8
330
2
100
AcDbEntity
  8
0
100
AcDbLine
 10
1789.669697220175
 20
262.1189036291207
 30
0.0
 11
1788.081415712955
 21
263.0358983848619
 31
0.0
  0
ARC
  5
A9
330
2
100
AcDbEntity
  8
0
100
AcDbCircle
 10
1790.081415712955
 20
266.5
 30
0.0
 40
4.0
100
AcDbArc
 50
59.99999999999946
 51
239.9999999999995
  0
ARC
  5
AA
330
2
100
AcDbEntity
  8
0
100
AcDbCircle
 10
1829.918584287041
 20
266.5
 30
0.0
 40
4.0
100
AcDbArc
 50
300.0000000000005
 51
120.0000000000005
  0
ARC
  5
AB
330
2
100
AcDbEntity
  8
0
100
AcDbCircle
 10
1809.999999999998
 20
232.0
 30
0.0
 40
4.0
100
AcDbArc
 50
180.0
 51
0.0
  0
CIRCLE
  5
AC
330
2
100
AcDbEntity
  8
0
100
AcDbCircle
 10
1809.999999999998
 20
255.0
 30
0.0
 40
18.0
  0
LINE
  5
AD
102
{ACAD_REACTORS
330
24C
102
}
330
2
100
AcDbEntity
  8
0
100
AcDbLine
 10
1879.499999999998
 20
225.3000000000002
 30
0.0
 11
1879.499999999998
 21
261.3000000000002
 31
0.0
  0
LINE
  5
AE
330
2
100
AcDbEntity
  8
0
100
AcDbLine
 10
1836.499999999998
 20
225.3000000000002
 30
0.0
 11
1839.5
 21
225.3000000000002
 31
0.0
  0
LINE
  5
AF
330
2
100
AcDbEntity
  8
0
100
AcDbLine
 10
1840.499999999998
 20
225.3000000000002
 30
0.0
 11
1879.499999999998
 21
225.3000000000002
 31
0.0
  0
ARC
  5
B0
330
2
100
AcDbEntity
  8
0
100
AcDbCircle
 10
1840.499999999998
 20
226.3000000000002
 30
0.0
 40
1.0
100
AcDbArc
 50
180.0
 51
270.0
  0
LINE
  5
B1
330
2
100
AcDbEntity
  8
0
100
AcDbLine
 10
1836.499999999998
 20
261.3000000000002
 30
0.0
 11
1839.499999999998
 21
261.3000000000002
 31
0.0
  0
LINE
  5
B2
102
{ACAD_REACTORS
330
24C
330
26C
102
}
330
2
100
AcDbEntity
  8
0
100
AcDbLine
 10
1840.499999999998
 20
261.3000000000002
 30
0.0
 11
1879.499999999998
 21
261.3000000000002
 31
0.0
  0
ARC
  5
B3
330
2
100
AcDbEntity
  8
0
100
AcDbCircle
 10
1840.499999999998
 20
260.3000000000002
 30
0.0
 40
1.0
100
AcDbArc
 50
90.0
 51
180.0
  0
CIRCLE
  5
B4
330
2
100
AcDbEntity
  8
0
100
AcDbCircle
 10
1809.999999999998
 20
262.0
 30
0.0
 40
3.5
  0
CIRCLE
  5
B5
330
2
100
AcDbEntity
  8
0
100
AcDbCircle
 10
1809.999999999998
 20
262.0
 30
0.0
 40
6.0
  0
CIRCLE
  5
B6
330
2
100
AcDbEntity
  8
0
100
AcDbCircle
 10
1809.999999999998
 20
262.0
 30
0.0
 40
5.5
  0
CIRCLE
  5
B7
330
2
100
AcDbEntity
  8
0
100
AcDbCircle
 10
1809.999999999998
 20
262.0
 30
0.0
 40
3.0
  0
LINE
  5
B8
102
{ACAD_REACTORS
330
25E
330
26C
102
}
330
2
100
AcDbEntity
  8
0
100
AcDbLine
 10
1830.643970895251
 20
262.3000000000002
 30
0.0
 11
1836.499999999998
 21
262.3000000000002
 31
0.0
  0
CIRCLE
  5
B9
330
2
100
AcDbEntity
  8
0
100
AcDbCircle
 10
1790.081415712955
 20
266.5
 30
0.0
 40
1.75
  0
CIRCLE
  5
BA
330
2
100
AcDbEntity
  8
0
100
AcDbCircle
 10
1829.918584287041
 20
266.5
 30
0.0
 40
1.75
  0
CIRCLE
  5
BB
330
2
100
AcDbEntity
  8
0
100
AcDbCircle
 10
1809.999999999998
 20
232.0
 30
0.0
 40
1.75
  0
LINE
  5
BC
330
2
100
AcDbEntity
  8
CL
100
AcDbLine
 10
1809.999999999998
 20
242.5
 30
0.0
 11
1809.999999999998
 21
236.5
 31
0.0
  0
LINE
  5
BD
330
2
100
AcDbEntity
  8
CL
 48
0.5
100
AcDbLine
 10
1820.825317547303
 20
261.25
 30
0.0
 11
1826.02146997001
 21
264.25
 31
0.0
  0
ARC
  5
BE
330
2
100
AcDbEntity
  8
CL
 48
0.5
100
AcDbCircle
 10
1809.999999999998
 20
255.0
 30
0.0
 40
15.5
100
AcDbArc
 50
258.8931116086861
 51
281.1068883913139
  0
LINE
  5
BF
330
2
100
AcDbEntity
  8
CL
 48
0.5
100
AcDbLine
 10
1799.174682452693
 20
261.25
 30
0.0
 11
1793.978530029986
 21
264.25
 31
0.0
  0
ARC
  5
C0
330
2
100
AcDbEntity
  8
CL
 48
0.5
100
AcDbCircle
 10
1809.999999999998
 20
255.0
 30
0.0
 40
15.5
100
AcDbArc
 50
18.89311160870111
 51
41.10688839134151
  0
ARC
  5
C1
330
2
100
AcDbEntity
  8
CL
 48
0.5
100
AcDbCircle
 10
1809.999999999998
 20
255.0
 30
0.0
 40
15.5
100
AcDbArc
 50
138.8931116086585
 51
161.1068883912989
  0
LINE
  5
C2
330
2
100
AcDbEntity
  8
0
100
AcDbLine
 10
1786.081415712955
 20
325.0
 30
0.0
 11
1833.918584287041
 21
325.0
 31
0.0
  0
LINE
  5
C3
330
2
100
AcDbEntity
  8
CL
100
AcDbLine
 10
1809.999999999998
 20
344.8000000000002
 30
0.0
 11
1886.499999999998
 21
344.8000000000002
 31
0.0
  0
LINE
  5
C4
330
2
100
AcDbEntity
  8
0
100
AcDbLine
 10
1828.499999999998
 20
363.7999999999993
 30
0.0
 11
1836.499999999998
 21
363.7999999999993
 31
0.0
  0
LINE
  5
C5
330
2
100
AcDbEntity
  8
HI
100
AcDbLine
 10
1827.418584287041
 20
325.5
 30
0.0
 11
1832.418584287041
 21
325.5
 31
0.0
  0
LINE
  5
C8
330
2
100
AcDbEntity
  8
0
100
AcDbLine
 10
1823.315723215723
 20
330.0
 30
0.0
 11
1833.918584287041
 21
330.0
 31
0.0
  0
LINE
  5
C9
330
2
100
AcDbEntity
  8
0
100
AcDbLine
 10
1790.99259300202
 20
358.5
 30
0.0
 11
1828.499999999998
 21
358.5
 31
0.0
  0
LINE
  5
CA
330
2
100
AcDbEntity
  8
CL
100
AcDbLine
 10
1809.999999999998
 20
361.5
 30
0.0
 11
1809.999999999998
 21
301.8000000000002
 31
0.0
  0
LINE
  5
CB
330
2
100
AcDbEntity
  8
0
100
AcDbLine
 10
1833.918584287041
 20
325.0
 30
0.0
 11
1833.918584287041
 21
330.0
 31
0.0
  0
LINE
  5
CC
330
2
100
AcDbEntity
  8
0
100
AcDbLine
 10
1824.752441643035
 20
325.0
 30
0.0
 11
1824.752441643035
 21
330.0
 31
0.0
  0
LINE
  5
CD
330
2
100
AcDbEntity
  8
CL
100
AcDbLine
 10
1829.918584287041
 20
322.0
 30
0.0
 11
1829.918584287041
 21
333.0
 31
0.0
  0
LINE
  5
CE
330
2
100
AcDbEntity
  8
HI
100
AcDbLine
 10
1832.418584287041
 20
325.0
 30
0.0
 11
1832.418584287041
 21
325.5
 31
0.0
  0
LINE
  5
CF
330
2
100
AcDbEntity
  8
HI
100
AcDbLine
 10
1827.418584287041
 20
325.0
 30
0.0
 11
1827.418584287041
 21
325.5
 31
0.0
  0
LINE
  5
D0
330
2
100
AcDbEntity
  8
HI
100
AcDbLine
 10
1828.268584287039
 20
325.5
 30
0.0
 11
1828.268584287039
 21
330.0
 31
0.0
  0
LINE
  5
D1
330
2
100
AcDbEntity
  8
HI
100
AcDbLine
 10
1831.568584287041
 20
325.5
 30
0.0
 11
1831.568584287041
 21
330.0
 31
0.0
  0
LINE
  5
D2
330
2
100
AcDbEntity
  8
0
100
AcDbLine
 10
1786.081415712955
 20
325.0
 30
0.0
 11
1786.081415712955
 21
330.0
 31
0.0
  0
LINE
  5
D3
330
2
100
AcDbEntity
  8
HI
100
AcDbLine
 10
1787.581415712955
 20
325.5
 30
0.0
 11
1792.581415712955
 21
325.5
 31
0.0
  0
LINE
  5
D4
330
2
100
AcDbEntity
  8
CL
100
AcDbLine
 10
1790.081415712955
 20
322.0
 30
0.0
 11
1790.081415712955
 21
333.0
 31
0.0
  0
LINE
  5
D5
330
2
100
AcDbEntity
  8
HI
100
AcDbLine
 10
1792.581415712955
 20
325.0
 30
0.0
 11
1792.581415712955
 21
325.5
 31
0.0
  0
LINE
  5
D6
330
2
100
AcDbEntity
  8
HI
100
AcDbLine
 10
1787.581415712955
 20
325.0
 30
0.0
 11
1787.581415712955
 21
325.5
 31
0.0
  0
LINE
  5
D7
330
2
100
AcDbEntity
  8
HI
100
AcDbLine
 10
1788.431415712955
 20
325.5
 30
0.0
 11
1788.431415712955
 21
330.0
 31
0.0
  0
LINE
  5
D8
330
2
100
AcDbEntity
  8
HI
100
AcDbLine
 10
1791.731415712957
 20
325.5
 30
0.0
 11
1791.731415712957
 21
330.0
 31
0.0
  0
LINE
  5
D9
330
2
100
AcDbEntity
  8
0
100
AcDbLine
 10
1790.492648684409
 20
358.0074618554863
 30
0.0
 11
1790.074626865669
 21
330.0
 31
0.0
  0
ARC
  5
DA
330
2
100
AcDbEntity
  8
0
100
AcDbCircle
 10
1790.99259300202
 20
358.0
 30
0.0
 40
0.5
100
AcDbArc
 50
90.0
 51
179.1449026037554
  0
LINE
  5
DB
330
2
100
AcDbEntity
  8
0
100
AcDbLine
 10
1825.532109292102
 20
358.5
 30
0.0
 11
1825.957482426431
 21
330.0
 31
0.0
  0
LINE
  5
DC
330
2
100
AcDbEntity
  8
0
100
AcDbLine
 10
1832.499999999998
 20
330.0
 30
0.0
 11
1832.499999999998
 21
363.7999999999993
 31
0.0
  0
LINE
  5
DD
330
2
100
AcDbEntity
  8
0
100
AcDbLine
 10
1828.499999999998
 20
330.0
 30
0.0
 11
1828.499999999998
 21
363.7999999999993
 31
0.0
  0
LINE
  5
DE
330
2
100
AcDbEntity
  8
HI
100
AcDbLine
 10
1829.999999999998
 20
325.0
 30
0.0
 11
1829.999999999998
 21
325.8000000000002
 31
0.0
  0
LINE
  5
DF
330
2
100
AcDbEntity
  8
0
100
AcDbLine
 10
1804.549999999997
 20
320.6999999999998
 30
0.0
 11
1815.449999999999
 21
320.6999999999998
 31
0.0
  0
LINE
  5
E0
330
2
100
AcDbEntity
  8
0
100
AcDbLine
 10
1815.949999999999
 20
321.1999999999998
 30
0.0
 11
1815.449999999999
 21
320.6999999999998
 31
0.0
  0
LINE
  5
E1
330
2
100
AcDbEntity
  8
0
100
AcDbLine
 10
1804.049999999998
 20
321.1999999999998
 30
0.0
 11
1804.549999999997
 21
320.6999999999998
 31
0.0
  0
LINE
  5
E2
330
2
100
AcDbEntity
  8
0
100
AcDbLine
 10
1804.049999999998
 20
321.1999999999998
 30
0.0
 11
1815.949999999999
 21
321.1999999999998
 31
0.0
  0
LINE
  5
E3
330
2
100
AcDbEntity
  8
0
100
AcDbLine
 10
1804.049999999998
 20
325.0
 30
0.0
 11
1804.049999999998
 21
321.1999999999998
 31
0.0
  0
LINE
  5
E4
330
2
100
AcDbEntity
  8
0
100
AcDbLine
 10
1815.949999999999
 20
325.0
 30
0.0
 11
1815.949999999999
 21
321.1999999999998
 31
0.0
  0
LINE
  5
E5
330
2
100
AcDbEntity
  8
0
100
AcDbLine
 10
1796.684276784273
 20
330.0
 30
0.0
 11
1786.081415712955
 21
330.0
 31
0.0
  0
LINE
  5
E6
330
2
100
AcDbEntity
  8
0
100
AcDbLine
 10
1794.467890707894
 20
358.5
 30
0.0
 11
1794.042517573565
 21
330.0
 31
0.0
  0
LINE
  5
E7
330
2
100
AcDbEntity
  8
0
100
AcDbLine
 10
1792.005412358359
 20
358.5
 30
0.0
 11
1791.580039224031
 21
330.0
 31
0.0
  0
LINE
  5
E8
330
2
100
AcDbEntity
  8
0
100
AcDbLine
 10
1836.499999999998
 20
325.8000000000002
 30
0.0
 11
1836.499999999998
 21
363.8000000000002
 31
0.0
  0
LINE
  5
E9
330
2
100
AcDbEntity
  8
0
100
AcDbLine
 10
1833.918584287041
 20
325.8000000000002
 30
0.0
 11
1836.499999999998
 21
325.8000000000002
 31
0.0
  0
DIMENSION
  5
EA
330
2
100
AcDbEntity
  8
TEXT
100
AcDbDimension
  2
*D1
 10
1778.999999999998
 20
262.0
 30
0.0
 11
1775.499999999998
 21
258.5000000000003
 31
0.0
 71
     5
 42
7.0
  3
ISO-25
100
AcDbAlignedDimension
 13
1786.999999999998
 23
255.0
 33
0.0
 14
1800.999999999998
 24
262.0
 34
0.0
 50
90.0
100
AcDbRotatedDimension
  0
DIMENSION
  5
FA
330
2
100
AcDbEntity
  8
TEXT
100
AcDbDimension
  2
*D2
 10
1778.999999999998
 20
243.3000000000002
 30
0.0
 11
1775.499999999998
 21
249.1500000000004
 31
0.0
 71
     5
 42
11.69999999999982
  3
ISO-25
100
AcDbAlignedDimension
 13
1786.999999999998
 23
255.0
 33
0.0
 14
1809.999999999998
 24
243.3000000000002
 34
0.0
 50
90.0
100
AcDbRotatedDimension
  0
DIMENSION
  5
107
330
2
100
AcDbEntity
  8
TEXT
100
AcDbDimension
  2
*D3
 10
1778.999999999998
 20
330.0
 30
0.0
 11
1775.499999999998
 21
327.5000000000003
 31
0.0
 71
     5
 42
5.0
  3
ISO-25
100
AcDbAlignedDimension
 13
1786.081415712955
 23
325.0
 33
0.0
 14
1786.081415712955
 24
330.0
 34
0.0
 50
90.0
100
AcDbRotatedDimension
  0
LWPOLYLINE
  5
116
330
2
100
AcDbEntity
  8
0
100
AcDbPolyline
 90
        4
 70
     1
 43
0.0
 10
1795.999999999998
 20
335.8000000000002
 10
1795.999999999998
 20
349.8000000000002
 10
1823.999999999998
 20
349.8000000000002
 10
1823.999999999998
 20
335.8000000000002
  0
LWPOLYLINE
  5
117
330
2
100
AcDbEntity
  8
0
100
AcDbPolyline
 90
        8
 70
     1
 43
0.0
 10
1796.999999999998
 20
337.8000000000002
 10
1796.999999999998
 20
347.8000000000002
 42
-0.4142135623730951
 10
1797.999999999998
 20
348.8000000000002
 10
1821.999999999998
 20
348.8000000000002
 42
-0.4142135623730966
 10
1822.999999999998
 20
347.8000000000002
 10
1822.999999999998
 20
337.8000000000002
 42
-0.4142135623730951
 10
1821.999999999998
 20
336.8000000000002
 10
1797.999999999998
 20
336.8000000000002
 42
-0.4142135623730951
  0
CIRCLE
  5
118
330
2
100
AcDbEntity
  8
0
100
AcDbCircle
 10
1796.57660624134
 20
262.75
 30
0.0
 40
1.75
  0
ARC
  5
119
330
2
100
AcDbEntity
  8
0
100
AcDbCircle
 10
1797.13910624134
 20
263.3125
 30
0.0
 40
0.3125
100
AcDbArc
 50
180.0
 51
270.0
  0
ARC
  5
11A
330
2
100
AcDbEntity
  8
0
100
AcDbCircle
 10
1796.01410624134
 20
263.3125
 30
0.0
 40
0.3125
100
AcDbArc
 50
270.0
 51
0.0
  0
LINE
  5
11B
330
2
100
AcDbEntity
  8
0
100
AcDbLine
 10
1797.13910624134
 20
263.0
 30
0.0
 11
1797.57660624134
 21
263.0
 31
0.0
  0
ARC
  5
11C
330
2
100
AcDbEntity
  8
0
100
AcDbCircle
 10
1797.13910624134
 20
262.1875
 30
0.0
 40
0.3125
100
AcDbArc
 50
90.0
 51
180.0
  0
LINE
  5
11D
330
2
100
AcDbEntity
  8
0
100
AcDbLine
 10
1797.13910624134
 20
262.5
 30
0.0
 11
1797.57660624134
 21
262.5
 31
0.0
  0
LINE
  5
11E
330
2
100
AcDbEntity
  8
0
100
AcDbLine
 10
1796.82660624134
 20
261.75
 30
0.0
 11
1796.82660624134
 21
262.1875
 31
0.0
  0
LINE
  5
11F
330
2
100
AcDbEntity
  8
0
100
AcDbLine
 10
1797.57660624134
 20
263.0
 30
0.0
 11
1797.57660624134
 21
262.5
 31
0.0
  0
ARC
  5
120
330
2
100
AcDbEntity
  8
0
100
AcDbCircle
 10
1796.01410624134
 20
262.1875
 30
0.0
 40
0.3125
100
AcDbArc
 50
0.0
 51
90.0
  0
LINE
  5
121
330
2
100
AcDbEntity
  8
0
100
AcDbLine
 10
1795.57660624134
 20
263.0
 30
0.0
 11
1796.01410624134
 21
263.0
 31
0.0
  0
LINE
  5
122
330
2
100
AcDbEntity
  8
0
100
AcDbLine
 10
1795.57660624134
 20
262.5
 30
0.0
 11
1796.01410624134
 21
262.5
 31
0.0
  0
LINE
  5
123
330
2
100
AcDbEntity
  8
0
100
AcDbLine
 10
1795.57660624134
 20
263.0
 30
0.0
 11
1795.57660624134
 21
262.5
 31
0.0
  0
LINE
  5
124
330
2
100
AcDbEntity
  8
0
100
AcDbLine
 10
1796.32660624134
 20
261.75
 30
0.0
 11
1796.32660624134
 21
262.1875
 31
0.0
  0
LINE
  5
125
330
2
100
AcDbEntity
  8
0
100
AcDbLine
 10
1796.32660624134
 20
261.75
 30
0.0
 11
1796.82660624134
 21
261.75
 31
0.0
  0
LINE
  5
126
330
2
100
AcDbEntity
  8
0
100
AcDbLine
 10
1796.82660624134
 20
263.3125
 30
0.0
 11
1796.82660624134
 21
263.75
 31
0.0
  0
LINE
  5
127
330
2
100
AcDbEntity
  8
0
100
AcDbLine
 10
1796.32660624134
 20
263.3125
 30
0.0
 11
1796.32660624134
 21
263.75
 31
0.0
  0
LINE
  5
128
330
2
100
AcDbEntity
  8
0
100
AcDbLine
 10
1796.32660624134
 20
263.75
 30
0.0
 11
1796.82660624134
 21
263.75
 31
0.0
  0
CIRCLE
  5
129
330
2
100
AcDbEntity
  8
0
100
AcDbCircle
 10
1823.423393758656
 20
262.75
 30
0.0
 40
1.75
  0
ARC
  5
12A
330
2
100
AcDbEntity
  8
0
100
AcDbCircle
 10
1823.985893758656
 20
263.3125
 30
0.0
 40
0.3125
100
AcDbArc
 50
180.0
 51
270.0
  0
ARC
  5
12B
330
2
100
AcDbEntity
  8
0
100
AcDbCircle
 10
1822.860893758656
 20
263.3125
 30
0.0
 40
0.3125
100
AcDbArc
 50
270.0
 51
0.0
  0
LINE
  5
12C
330
2
100
AcDbEntity
  8
0
100
AcDbLine
 10
1823.985893758656
 20
263.0
 30
0.0
 11
1824.423393758656
 21
263.0
 31
0.0
  0
ARC
  5
12D
330
2
100
AcDbEntity
  8
0
100
AcDbCircle
 10
1823.985893758656
 20
262.1875
 30
0.0
 40
0.3125
100
AcDbArc
 50
90.0
 51
180.0
  0
LINE
  5
12E
330
2
100
AcDbEntity
  8
0
100
AcDbLine
 10
1823.985893758656
 20
262.5
 30
0.0
 11
1824.423393758656
 21
262.5
 31
0.0
  0
LINE
  5
12F
330
2
100
AcDbEntity
  8
0
100
AcDbLine
 10
1823.673393758656
 20
261.75
 30
0.0
 11
1823.673393758656
 21
262.1875
 31
0.0
  0
LINE
  5
130
330
2
100
AcDbEntity
  8
0
100
AcDbLine
 10
1824.423393758656
 20
263.0
 30
0.0
 11
1824.423393758656
 21
262.5
 31
0.0
  0
ARC
  5
131
330
2
100
AcDbEntity
  8
0
100
AcDbCircle
 10
1822.860893758656
 20
262.1875
 30
0.0
 40
0.3125
100
AcDbArc
 50
0.0
 51
90.0
  0
LINE
  5
132
330
2
100
AcDbEntity
  8
0
100
AcDbLine
 10
1822.423393758656
 20
263.0
 30
0.0
 11
1822.860893758656
 21
263.0
 31
0.0
  0
LINE
  5
133
330
2
100
AcDbEntity
  8
0
100
AcDbLine
 10
1822.423393758656
 20
262.5
 30
0.0
 11
1822.860893758656
 21
262.5
 31
0.0
  0
LINE
  5
134
330
2
100
AcDbEntity
  8
0
100
AcDbLine
 10
1822.423393758656
 20
263.0
 30
0.0
 11
1822.423393758656
 21
262.5
 31
0.0
  0
LINE
  5
135
330
2
100
AcDbEntity
  8
0
100
AcDbLine
 10
1823.173393758656
 20
261.75
 30
0.0
 11
1823.173393758656
 21
262.1875
 31
0.0
  0
LINE
  5
136
330
2
100
AcDbEntity
  8
0
100
AcDbLine
 10
1823.173393758656
 20
261.75
 30
0.0
 11
1823.673393758656
 21
261.75
 31
0.0
  0
LINE
  5
137
330
2
100
AcDbEntity
  8
0
100
AcDbLine
 10
1823.673393758656
 20
263.3125
 30
0.0
 11
1823.673393758656
 21
263.75
 31
0.0
  0
LINE
  5
138
330
2
100
AcDbEntity
  8
0
100
AcDbLine
 10
1823.173393758656
 20
263.3125
 30
0.0
 11
1823.173393758656
 21
263.75
 31
0.0
  0
LINE
  5
139
330
2
100
AcDbEntity
  8
0
100
AcDbLine
 10
1823.173393758656
 20
263.75
 30
0.0
 11
1823.673393758656
 21
263.75
 31
0.0
  0
CIRCLE
  5
13A
330
2
100
AcDbEntity
  8
0
100
AcDbCircle
 10
1809.999999999998
 20
239.5
 30
0.0
 40
1.75
  0
ARC
  5
13B
330
2
100
AcDbEntity
  8
0
100
AcDbCircle
 10
1810.562499999998
 20
240.0625
 30
0.0
 40
0.3125
100
AcDbArc
 50
180.0
 51
270.0
  0
ARC
  5
13C
330
2
100
AcDbEntity
  8
0
100
AcDbCircle
 10
1809.437499999998
 20
240.0625
 30
0.0
 40
0.3125
100
AcDbArc
 50
270.0
 51
0.0
  0
LINE
  5
13D
330
2
100
AcDbEntity
  8
0
100
AcDbLine
 10
1810.562499999998
 20
239.75
 30
0.0
 11
1810.999999999998
 21
239.75
 31
0.0
  0
ARC
  5
13E
330
2
100
AcDbEntity
  8
0
100
AcDbCircle
 10
1810.562499999998
 20
238.9375
 30
0.0
 40
0.3125
100
AcDbArc
 50
90.0
 51
180.0
  0
LINE
  5
13F
330
2
100
AcDbEntity
  8
0
100
AcDbLine
 10
1810.562499999998
 20
239.25
 30
0.0
 11
1810.999999999998
 21
239.25
 31
0.0
  0
LINE
  5
140
330
2
100
AcDbEntity
  8
0
100
AcDbLine
 10
1810.249999999998
 20
238.5
 30
0.0
 11
1810.249999999998
 21
238.9375
 31
0.0
  0
LINE
  5
141
330
2
100
AcDbEntity
  8
0
100
AcDbLine
 10
1810.999999999998
 20
239.75
 30
0.0
 11
1810.999999999998
 21
239.25
 31
0.0
  0
ARC
  5
142
330
2
100
AcDbEntity
  8
0
100
AcDbCircle
 10
1809.437499999998
 20
238.9375
 30
0.0
 40
0.3125
100
AcDbArc
 50
0.0
 51
90.0
  0
LINE
  5
143
330
2
100
AcDbEntity
  8
0
100
AcDbLine
 10
1808.999999999998
 20
239.75
 30
0.0
 11
1809.437499999998
 21
239.75
 31
0.0
  0
LINE
  5
144
330
2
100
AcDbEntity
  8
0
100
AcDbLine
 10
1808.999999999998
 20
239.25
 30
0.0
 11
1809.437499999998
 21
239.25
 31
0.0
  0
LINE
  5
145
330
2
100
AcDbEntity
  8
0
100
AcDbLine
 10
1808.999999999998
 20
239.75
 30
0.0
 11
1808.999999999998
 21
239.25
 31
0.0
  0
LINE
  5
146
330
2
100
AcDbEntity
  8
0
100
AcDbLine
 10
1809.749999999998
 20
238.5
 30
0.0
 11
1809.749999999998
 21
238.9375
 31
0.0
  0
LINE
  5
147
330
2
100
AcDbEntity
  8
0
100
AcDbLine
 10
1809.749999999998
 20
238.5
 30
0.0
 11
1810.249999999998
 21
238.5
 31
0.0
  0
LINE
  5
148
330
2
100
AcDbEntity
  8
0
100
AcDbLine
 10
1810.249999999998
 20
240.0625
 30
0.0
 11
1810.249999999998
 21
240.5
 31
0.0
  0
LINE
  5
149
330
2
100
AcDbEntity
  8
0
100
AcDbLine
 10
1809.749999999998
 20
240.0625
 30
0.0
 11
1809.749999999998
 21
240.5
 31
0.0
  0
LINE
  5
14A
330
2
100
AcDbEntity
  8
0
100
AcDbLine
 10
1809.749999999998
 20
240.5
 30
0.0
 11
1810.249999999998
 21
240.5
 31
0.0
  0
CIRCLE
  5
14B
330
2
100
AcDbEntity
  8
0
100
AcDbCircle
 10
1809.999999999998
 20
255.0
 30
0.0
 40
17.5
  0
LINE
  5
14C
330
2
100
AcDbEntity
  8
0
100
AcDbLine
 10
1839.499999999998
 20
225.3000000000002
 30
0.0
 11
1839.499999999998
 21
261.3000000000002
 31
0.0
  0
LINE
  5
14D
330
2
100
AcDbEntity
  8
0
100
AcDbLine
 10
1894.499999999998
 20
353.2447404254099
 30
0.0
 11
1894.499999999998
 21
337.7491990517765
 31
0.0
  0
LINE
  5
14E
330
2
100
AcDbEntity
  8
0
100
AcDbLine
 10
1894.499999999998
 20
335.7491990517765
 30
0.0
 11
1894.499999999998
 21
320.2447404254099
 31
0.0
  0
LINE
  5
14F
330
2
100
AcDbEntity
  8
0
100
AcDbLine
 10
1895.799999999997
 20
353.2447404254099
 30
0.0
 11
1895.799999999997
 21
337.9497745989465
 31
0.0
  0
LINE
  5
150
330
2
100
AcDbEntity
  8
0
100
AcDbLine
 10
1895.799999999997
 20
335.9497745989465
 30
0.0
 11
1895.799999999997
 21
320.2447404254099
 31
0.0
  0
ARC
  5
151
330
2
100
AcDbEntity
  8
0
100
AcDbCircle
 10
1891.699999999999
 20
353.2447404254099
 30
0.0
 40
5.5
100
AcDbArc
 50
0.0
 51
90.0
  0
ARC
  5
152
330
2
100
AcDbEntity
  8
0
100
AcDbCircle
 10
1888.999999999998
 20
353.2447404254099
 30
0.0
 40
6.799999999999999
100
AcDbArc
 50
0.0
 51
50.65511274705576
  0
LINE
  5
153
330
2
100
AcDbEntity
  8
0
100
AcDbLine
 10
1890.499999999998
 20
353.2447404254099
 30
0.0
 11
1890.499999999998
 21
337.1320435220214
 31
0.0
  0
LINE
  5
154
330
2
100
AcDbEntity
  8
0
100
AcDbLine
 10
1890.499999999998
 20
335.1320435220214
 30
0.0
 11
1890.499999999998
 21
320.2447404254099
 31
0.0
  0
ARC
  5
155
330
2
100
AcDbEntity
  8
0
100
AcDbCircle
 10
1884.999999999998
 20
353.2447404254099
 30
0.0
 40
5.5
100
AcDbArc
 50
0.0
 51
90.0
  0
ARC
  5
156
330
2
100
AcDbEntity
  8
0
100
AcDbCircle
 10
1884.999999999998
 20
353.2447404254099
 30
0.0
 40
6.799999999999999
100
AcDbArc
 50
0.0
 51
53.98114580736031
  0
LINE
  5
157
330
2
100
AcDbEntity
  8
0
100
AcDbLine
 10
1891.799999999997
 20
353.2447404254099
 30
0.0
 11
1891.799999999997
 21
337.3326190691914
 31
0.0
  0
LINE
  5
158
330
2
100
AcDbEntity
  8
0
100
AcDbLine
 10
1891.799999999997
 20
335.3326190691914
 30
0.0
 11
1891.799999999997
 21
320.2447404254099
 31
0.0
  0
LINE
  5
159
330
2
100
AcDbEntity
  8
0
100
AcDbLine
 10
1893.099999999997
 20
353.2447404254099
 30
0.0
 11
1893.099999999997
 21
337.5331946163615
 31
0.0
  0
LINE
  5
15A
330
2
100
AcDbEntity
  8
0
100
AcDbLine
 10
1893.099999999997
 20
335.5331946163615
 30
0.0
 11
1893.099999999997
 21
320.2447404254099
 31
0.0
  0
LINE
  5
15B
330
2
100
AcDbEntity
  8
0
100
AcDbLine
 10
1898.499999999996
 20
320.2447404254094
 30
0.0
 11
1891.799999999997
 21
320.2447404254099
 31
0.0
  0
LINE
  5
15C
330
2
100
AcDbEntity
  8
0
100
AcDbLine
 10
1891.799999999997
 20
320.2447404254099
 30
0.0
 11
1890.499999999998
 21
320.2447404254099
 31
0.0
  0
LINE
  5
15D
330
2
100
AcDbEntity
  8
0
100
AcDbLine
 10
1891.399999999998
 20
310.2447404254099
 30
0.0
 11
1890.899999999998
 21
310.2447404254099
 31
0.0
  0
ARC
  5
15E
330
2
100
AcDbEntity
  8
0
100
AcDbCircle
 10
1886.299999999997
 20
353.2447404254099
 30
0.0
 40
6.799999999999999
100
AcDbArc
 50
0.0
 51
53.98114580736031
  0
LINE
  5
15F
330
2
100
AcDbEntity
  8
0
100
AcDbLine
 10
1897.199999999999
 20
353.2447404254099
 30
0.0
 11
1897.199999999999
 21
338.1657790343616
 31
0.0
  0
LINE
  5
160
330
2
100
AcDbEntity
  8
0
100
AcDbLine
 10
1897.199999999999
 20
336.1657790343616
 30
0.0
 11
1897.199999999999
 21
320.2447404254099
 31
0.0
  0
LINE
  5
161
330
2
100
AcDbEntity
  8
0
100
AcDbLine
 10
1898.499999999998
 20
353.2447404254099
 30
0.0
 11
1898.499999999998
 21
338.3663545815316
 31
0.0
  0
LINE
  5
162
330
2
100
AcDbEntity
  8
0
100
AcDbLine
 10
1898.499999999998
 20
336.3663545815316
 30
0.0
 11
1898.499999999998
 21
320.2447404254099
 31
0.0
  0
ARC
  5
163
330
2
100
AcDbEntity
  8
0
100
AcDbCircle
 10
1891.699999999999
 20
353.2447404254099
 30
0.0
 40
6.799999999999999
100
AcDbArc
 50
0.0
 51
90.0
  0
ARC
  5
164
330
2
100
AcDbEntity
  8
0
100
AcDbCircle
 10
1887.699999999999
 20
353.2447404254099
 30
0.0
 40
6.799999999999999
100
AcDbArc
 50
0.0
 51
53.98114580736031
  0
LINE
  5
165
330
2
100
AcDbEntity
  8
ETC
100
AcDbLine
 10
1888.46261340254
 20
334.8176974208027
 30
0.0
 11
1900.948335202729
 21
336.7441054837973
 31
0.0
  0
LINE
  5
169
330
2
100
AcDbEntity
  8
ETC
100
AcDbLine
 10
1888.46261340254
 20
336.8176974208027
 30
0.0
 11
1900.948335202729
 21
338.7441054837973
 31
0.0
  0
LINE
  5
16A
330
2
100
AcDbEntity
  8
0
100
AcDbLine
 10
1881.499999999998
 20
238.1999999999998
 30
0.0
 11
1879.499999999998
 21
238.1999999999998
 31
0.0
  0
LINE
  5
16B
330
2
100
AcDbEntity
  8
0
100
AcDbLine
 10
1881.499999999998
 20
248.4000000000005
 30
0.0
 11
1879.499999999998
 21
248.4000000000005
 31
0.0
  0
LINE
  5
16C
330
2
100
AcDbEntity
  8
0
100
AcDbLine
 10
1882.999999999998
 20
241.7125000000005
 30
0.0
 11
1881.499999999998
 21
241.7125000000005
 31
0.0
  0
LINE
  5
16D
330
2
100
AcDbEntity
  8
0
100
AcDbLine
 10
1882.999999999998
 20
244.8874999999998
 30
0.0
 11
1881.499999999998
 21
244.8874999999998
 31
0.0
  0
LINE
  5
16E
330
2
100
AcDbEntity
  8
0
100
AcDbLine
 10
1881.499999999998
 20
238.1999999999998
 30
0.0
 11
1881.499999999998
 21
248.4000000000005
 31
0.0
  0
LINE
  5
16F
330
2
100
AcDbEntity
  8
0
100
AcDbLine
 10
1883.499999999998
 20
242.2125000000006
 30
0.0
 11
1883.499999999998
 21
244.3874999999998
 31
0.0
  0
ARC
  5
170
330
2
100
AcDbEntity
  8
0
100
AcDbCircle
 10
1882.999999999998
 20
242.2125000000006
 30
0.0
 40
0.5
100
AcDbArc
 50
270.0
 51
0.0
  0
ARC
  5
171
330
2
100
AcDbEntity
  8
0
100
AcDbCircle
 10
1882.999999999998
 20
244.3874999999998
 30
0.0
 40
0.5
100
AcDbArc
 50
0.0
 51
90.0
  0
LINE
  5
172
330
2
100
AcDbEntity
  8
0
100
AcDbLine
 10
1891.699999999999
 20
360.0447404254091
 30
0.0
 11
1879.499999999998
 21
360.0447404254091
 31
0.0
  0
LINE
  5
173
330
2
100
AcDbEntity
  8
0
100
AcDbLine
 10
1891.699999999999
 20
358.7447404254099
 30
0.0
 11
1879.499999999998
 21
358.7447404254099
 31
0.0
  0
LINE
  5
174
330
2
100
AcDbEntity
  8
0
100
AcDbLine
 10
1879.499999999998
 20
326.8000000000002
 30
0.0
 11
1879.499999999998
 21
362.8000000000002
 31
0.0
  0
LINE
  5
175
330
2
100
AcDbEntity
  8
0
100
AcDbLine
 10
1836.499999999998
 20
326.8000000000002
 30
0.0
 11
1839.5
 21
326.8000000000002
 31
0.0
  0
LINE
  5
176
330
2
100
AcDbEntity
  8
0
100
AcDbLine
 10
1840.499999999998
 20
326.8000000000002
 30
0.0
 11
1879.499999999998
 21
326.8000000000002
 31
0.0
  0
ARC
  5
177
330
2
100
AcDbEntity
  8
0
100
AcDbCircle
 10
1840.499999999998
 20
327.8000000000002
 30
0.0
 40
1.0
100
AcDbArc
 50
180.0
 51
270.0
  0
LINE
  5
178
330
2
100
AcDbEntity
  8
0
100
AcDbLine
 10
1836.499999999998
 20
362.8000000000002
 30
0.0
 11
1839.499999999998
 21
362.8000000000002
 31
0.0
  0
LINE
  5
179
330
2
100
AcDbEntity
  8
0
100
AcDbLine
 10
1840.499999999998
 20
362.8000000000002
 30
0.0
 11
1879.499999999998
 21
362.8000000000002
 31
0.0
  0
ARC
  5
17A
330
2
100
AcDbEntity
  8
0
100
AcDbCircle
 10
1840.499999999998
 20
361.8000000000002
 30
0.0
 40
1.0
100
AcDbArc
 50
90.0
 51
180.0
  0
LINE
  5
17B
330
2
100
AcDbEntity
  8
0
100
AcDbLine
 10
1839.499999999998
 20
326.8000000000002
 30
0.0
 11
1839.499999999998
 21
362.8000000000002
 31
0.0
  0
LINE
  5
17C
330
2
100
AcDbEntity
  8
0
100
AcDbLine
 10
1881.499999999998
 20
339.6999999999998
 30
0.0
 11
1879.499999999998
 21
339.6999999999998
 31
0.0
  0
LINE
  5
17D
330
2
100
AcDbEntity
  8
0
100
AcDbLine
 10
1881.499999999998
 20
349.9000000000005
 30
0.0
 11
1879.499999999998
 21
349.9000000000005
 31
0.0
  0
LINE
  5
17E
330
2
100
AcDbEntity
  8
0
100
AcDbLine
 10
1882.999999999998
 20
343.2125000000005
 30
0.0
 11
1881.499999999998
 21
343.2125000000005
 31
0.0
  0
LINE
  5
17F
330
2
100
AcDbEntity
  8
0
100
AcDbLine
 10
1882.999999999998
 20
346.3874999999998
 30
0.0
 11
1881.499999999998
 21
346.3874999999998
 31
0.0
  0
LINE
  5
180
330
2
100
AcDbEntity
  8
0
100
AcDbLine
 10
1881.499999999998
 20
339.6999999999998
 30
0.0
 11
1881.499999999998
 21
349.9000000000005
 31
0.0
  0
LINE
  5
181
330
2
100
AcDbEntity
  8
0
100
AcDbLine
 10
1883.499999999998
 20
343.7125000000005
 30
0.0
 11
1883.499999999998
 21
345.8874999999998
 31
0.0
  0
ARC
  5
182
330
2
100
AcDbEntity
  8
0
100
AcDbCircle
 10
1882.999999999998
 20
343.7125000000005
 30
0.0
 40
0.5
100
AcDbArc
 50
270.0
 51
0.0
  0
ARC
  5
183
330
2
100
AcDbEntity
  8
0
100
AcDbCircle
 10
1882.999999999998
 20
345.8874999999998
 30
0.0
 40
0.5
100
AcDbArc
 50
0.0
 51
90.0
  0
LINE
  5
184
330
2
100
AcDbEntity
  8
0
100
AcDbLine
 10
1808.341687604819
 20
264.5
 30
0.0
 11
1811.658312395177
 21
264.5
 31
0.0
  0
CIRCLE
  5
185
330
2
100
AcDbEntity
  8
0
100
AcDbCircle
 10
1809.999999999998
 20
262.0
 30
0.0
 40
2.5
  0
LINE
  5
186
330
2
100
AcDbEntity
  8
0
100
AcDbLine
 10
1807.499999999998
 20
304.8000000000002
 30
0.0
 11
1812.499999999998
 21
304.8000000000002
 31
0.0
  0
LINE
  5
187
330
2
100
AcDbEntity
  8
0
100
AcDbLine
 10
1808.341687604819
 20
316.8000000000002
 30
0.0
 11
1811.658312395177
 21
316.8000000000002
 31
0.0
  0
LINE
  5
188
330
2
100
AcDbEntity
  8
0
100
AcDbLine
 10
1806.999999999998
 20
305.3000000000002
 30
0.0
 11
1807.499999999998
 21
304.8000000000002
 31
0.0
  0
LINE
  5
189
330
2
100
AcDbEntity
  8
0
100
AcDbLine
 10
1806.999999999998
 20
305.3000000000002
 30
0.0
 11
1808.341687604821
 21
305.3000000000002
 31
0.0
  0
LINE
  5
18A
330
2
100
AcDbEntity
  8
0
100
AcDbLine
 10
1811.658312395177
 20
305.3000000000002
 30
0.0
 11
1812.999999999998
 21
305.3000000000002
 31
0.0
  0
LINE
  5
18B
330
2
100
AcDbEntity
  8
0
100
AcDbLine
 10
1806.999999999998
 20
320.6999999999998
 30
0.0
 11
1806.999999999998
 21
305.3000000000002
 31
0.0
  0
LINE
  5
18C
330
2
100
AcDbEntity
  8
0
100
AcDbLine
 10
1812.999999999998
 20
320.6999999999998
 30
0.0
 11
1812.999999999998
 21
305.3000000000011
 31
0.0
  0
LINE
  5
18D
330
2
100
AcDbEntity
  8
0
100
AcDbLine
 10
1811.658312395177
 20
316.8000000000002
 30
0.0
 11
1811.658312395175
 21
305.2999999999993
 31
0.0
  0
LINE
  5
18E
330
2
100
AcDbEntity
  8
0
100
AcDbLine
 10
1808.341687604819
 20
316.8000000000002
 30
0.0
 11
1808.341687604819
 21
305.3000000000011
 31
0.0
  0
LINE
  5
18F
330
2
100
AcDbEntity
  8
0
100
AcDbLine
 10
1812.999999999998
 20
305.3000000000002
 30
0.0
 11
1812.499999999998
 21
304.8000000000002
 31
0.0
  0
ARC
  5
190
330
2
100
AcDbEntity
  8
0
100
AcDbCircle
 10
1809.999999999998
 20
307.7999999999984
 30
0.0
 40
2.999999999998722
100
AcDbArc
 50
236.4426902380581
 51
303.5573097619419
  0
LINE
  5
191
330
2
100
AcDbEntity
  8
0
100
AcDbLine
 10
1891.399999999998
 20
320.2447404254099
 30
0.0
 11
1891.399999999998
 21
310.2447404254099
 31
0.0
  0
LINE
  5
192
330
2
100
AcDbEntity
  8
0
100
AcDbLine
 10
1890.899999999998
 20
320.2447404254099
 30
0.0
 11
1890.899999999998
 21
310.2447404254099
 31
0.0
  0
LINE
  5
193
330
2
100
AcDbEntity
  8
0
100
AcDbLine
 10
1892.699999999997
 20
310.2447404254099
 30
0.0
 11
1892.199999999997
 21
310.2447404254099
 31
0.0
  0
LINE
  5
194
330
2
100
AcDbEntity
  8
0
100
AcDbLine
 10
1892.699999999997
 20
320.2447404254099
 30
0.0
 11
1892.699999999997
 21
310.2447404254099
 31
0.0
  0
LINE
  5
195
330
2
100
AcDbEntity
  8
0
100
AcDbLine
 10
1892.199999999997
 20
320.2447404254099
 30
0.0
 11
1892.199999999997
 21
310.2447404254099
 31
0.0
  0
LINE
  5
196
330
2
100
AcDbEntity
  8
0
100
AcDbLine
 10
1893.999999999996
 20
310.2447404254099
 30
0.0
 11
1893.499999999996
 21
310.2447404254099
 31
0.0
  0
LINE
  5
197
330
2
100
AcDbEntity
  8
0
100
AcDbLine
 10
1893.999999999996
 20
320.2447404254099
 30
0.0
 11
1893.999999999996
 21
310.2447404254099
 31
0.0
  0
LINE
  5
198
330
2
100
AcDbEntity
  8
0
100
AcDbLine
 10
1893.499999999996
 20
320.2447404254099
 30
0.0
 11
1893.499999999996
 21
310.2447404254099
 31
0.0
  0
LINE
  5
199
330
2
100
AcDbEntity
  8
0
100
AcDbLine
 10
1895.399999999998
 20
310.2447404254099
 30
0.0
 11
1894.899999999998
 21
310.2447404254099
 31
0.0
  0
LINE
  5
19A
330
2
100
AcDbEntity
  8
0
100
AcDbLine
 10
1895.399999999998
 20
320.2447404254099
 30
0.0
 11
1895.399999999998
 21
310.2447404254099
 31
0.0
  0
LINE
  5
19B
330
2
100
AcDbEntity
  8
0
100
AcDbLine
 10
1894.899999999998
 20
320.2447404254099
 30
0.0
 11
1894.899999999998
 21
310.2447404254099
 31
0.0
  0
LINE
  5
19C
330
2
100
AcDbEntity
  8
0
100
AcDbLine
 10
1896.699999999997
 20
310.2447404254094
 30
0.0
 11
1896.199999999997
 21
310.2447404254094
 31
0.0
  0
LINE
  5
19D
330
2
100
AcDbEntity
  8
0
100
AcDbLine
 10
1896.699999999997
 20
320.2447404254094
 30
0.0
 11
1896.699999999997
 21
310.2447404254094
 31
0.0
  0
LINE
  5
19E
330
2
100
AcDbEntity
  8
0
100
AcDbLine
 10
1896.199999999997
 20
320.2447404254094
 30
0.0
 11
1896.199999999997
 21
310.2447404254094
 31
0.0
  0
LINE
  5
19F
330
2
100
AcDbEntity
  8
0
100
AcDbLine
 10
1898.099999999999
 20
310.2447404254099
 30
0.0
 11
1897.599999999998
 21
310.2447404254099
 31
0.0
  0
LINE
  5
1A0
330
2
100
AcDbEntity
  8
0
100
AcDbLine
 10
1898.099999999999
 20
320.2447404254099
 30
0.0
 11
1898.099999999999
 21
310.2447404254099
 31
0.0
  0
LINE
  5
1A1
330
2
100
AcDbEntity
  8
0
100
AcDbLine
 10
1897.599999999998
 20
320.2447404254099
 30
0.0
 11
1897.599999999998
 21
310.2447404254099
 31
0.0
  0
LINE
  5
1A2
330
2
100
AcDbEntity
  8
0
100
AcDbLine
 10
1719.999999999998
 20
228.0
 30
0.0
 11
1719.999999999998
 21
275.0
 31
0.0
  0
LINE
  5
1A3
330
2
100
AcDbEntity
  8
0
100
AcDbLine
 10
1724.299999999998
 20
256.5500000000002
 30
0.0
 11
1724.299999999998
 21
267.4500000000003
 31
0.0
  0
LINE
  5
1A4
330
2
100
AcDbEntity
  8
0
100
AcDbLine
 10
1740.199999999998
 20
259.5
 30
0.0
 11
1740.199999999998
 21
264.5
 31
0.0
  0
LINE
  5
1A5
330
2
100
AcDbEntity
  8
0
100
AcDbLine
 10
1728.199999999998
 20
264.5
 30
0.0
 11
1728.199999999998
 21
265.0
 31
0.0
  0
LINE
  5
1A6
330
2
100
AcDbEntity
  8
0
100
AcDbLine
 10
1739.699999999998
 20
259.0
 30
0.0
 11
1740.199999999998
 21
259.5
 31
0.0
  0
LINE
  5
1A7
330
2
100
AcDbEntity
  8
0
100
AcDbLine
 10
1739.699999999998
 20
259.0
 30
0.0
 11
1739.699999999998
 21
264.5
 31
0.0
  0
LINE
  5
1A8
330
2
100
AcDbEntity
  8
0
100
AcDbLine
 10
1723.799999999998
 20
267.9500000000003
 30
0.0
 11
1724.299999999998
 21
267.4500000000003
 31
0.0
  0
LINE
  5
1A9
330
2
100
AcDbEntity
  8
0
100
AcDbLine
 10
1723.799999999998
 20
256.0500000000002
 30
0.0
 11
1724.299999999998
 21
256.5500000000002
 31
0.0
  0
LINE
  5
1AA
330
2
100
AcDbEntity
  8
0
100
AcDbLine
 10
1723.799999999998
 20
256.0500000000002
 30
0.0
 11
1723.799999999998
 21
267.9500000000003
 31
0.0
  0
LINE
  5
1AB
330
2
100
AcDbEntity
  8
0
100
AcDbLine
 10
1714.999999999998
 20
228.0
 30
0.0
 11
1714.999999999998
 21
235.7581722831669
 31
0.0
  0
LINE
  5
1AC
330
2
100
AcDbEntity
  8
0
100
AcDbLine
 10
1714.999999999998
 20
259.8971389286835
 30
0.0
 11
1714.999999999998
 21
270.5
 31
0.0
  0
LINE
  5
1AD
330
2
100
AcDbEntity
  8
0
100
AcDbLine
 10
1686.499999999998
 20
235.0
 30
0.0
 11
1686.499999999998
 21
275.0
 31
0.0
  0
LINE
  5
1AE
330
2
100
AcDbEntity
  8
CL
100
AcDbLine
 10
1676.499999999998
 20
255.0
 30
0.0
 11
1729.999999999998
 21
255.0
 31
0.0
  0
LINE
  5
1AF
330
2
100
AcDbEntity
  8
CL
100
AcDbLine
 10
1716.999999999998
 20
262.0
 30
0.0
 11
1743.199999999998
 21
262.0
 31
0.0
  0
LINE
  5
1B0
330
2
100
AcDbEntity
  8
0
100
AcDbLine
 10
1724.299999999998
 20
259.0
 30
0.0
 11
1739.699999999998
 21
259.0
 31
0.0
  0
LINE
  5
1B1
330
2
100
AcDbEntity
  8
0
100
AcDbLine
 10
1724.299999999998
 20
265.0
 30
0.0
 11
1728.199999999998
 21
265.0
 31
0.0
  0
LINE
  5
1B2
330
2
100
AcDbEntity
  8
0
100
AcDbLine
 10
1728.199999999998
 20
264.5
 30
0.0
 11
1740.199999999998
 21
264.5
 31
0.0
  0
LINE
  5
1B3
330
2
100
AcDbEntity
  8
0
100
AcDbLine
 10
1719.999999999998
 20
256.0500000000002
 30
0.0
 11
1723.799999999998
 21
256.0500000000002
 31
0.0
  0
LINE
  5
1B4
330
2
100
AcDbEntity
  8
0
100
AcDbLine
 10
1719.999999999998
 20
267.9500000000003
 30
0.0
 11
1723.799999999998
 21
267.9500000000003
 31
0.0
  0
LINE
  5
1B5
330
2
100
AcDbEntity
  8
0
100
AcDbLine
 10
1686.499999999998
 20
275.0
 30
0.0
 11
1719.999999999998
 21
275.0
 31
0.0
  0
LINE
  5
1B6
330
2
100
AcDbEntity
  8
0
100
AcDbLine
 10
1719.999999999998
 20
270.5
 30
0.0
 11
1714.999999999998
 21
270.5
 31
0.0
  0
LINE
  5
1B7
330
2
100
AcDbEntity
  8
0
100
AcDbLine
 10
1719.999999999998
 20
261.3338573559949
 30
0.0
 11
1714.999999999998
 21
261.3338573559949
 31
0.0
  0
LINE
  5
1B8
330
2
100
AcDbEntity
  8
CL
100
AcDbLine
 10
1722.999999999998
 20
266.5
 30
0.0
 11
1711.999999999998
 21
266.5
 31
0.0
  0
LINE
  5
1B9
330
2
100
AcDbEntity
  8
0
100
AcDbLine
 10
1719.999999999998
 20
228.0
 30
0.0
 11
1714.999999999998
 21
228.0
 31
0.0
  0
LINE
  5
1BA
330
2
100
AcDbEntity
  8
0
100
AcDbLine
 10
1686.499999999998
 20
235.0
 30
0.0
 11
1714.999999999998
 21
235.0
 31
0.0
  0
LINE
  5
1BB
330
2
100
AcDbEntity
  8
CL
100
AcDbLine
 10
1715.699999999998
 20
224.8000000000002
 30
0.0
 11
1715.699999999998
 21
230.8000000000002
 31
0.0
  0
LINE
  5
1BC
330
2
100
AcDbEntity
  8
CL
100
AcDbLine
 10
1684.699999999998
 20
255.8000000000002
 30
0.0
 11
1684.699999999998
 21
261.8000000000002
 31
0.0
  0
LINE
  5
1BD
330
2
100
AcDbEntity
  8
0
100
AcDbLine
 10
1681.199999999998
 20
227.8000000000002
 30
0.0
 11
1681.199999999998
 21
258.8000000000002
 31
0.0
  0
ARC
  5
1BE
330
2
100
AcDbEntity
  8
0
100
AcDbCircle
 10
1684.699999999998
 20
227.8000000000002
 30
0.0
 40
3.5
100
AcDbArc
 50
180.0
 51
270.0
  0
ARC
  5
1BF
330
2
100
AcDbEntity
  8
0
100
AcDbCircle
 10
1684.699999999998
 20
258.8000000000002
 30
0.0
 40
3.5
100
AcDbArc
 50
90.0
 51
180.0
  0
LINE
  5
1C0
330
2
100
AcDbEntity
  8
0
100
AcDbLine
 10
1719.199999999998
 20
227.8000000000002
 30
0.0
 11
1719.199999999998
 21
228.0
 31
0.0
  0
LINE
  5
1C1
330
2
100
AcDbEntity
  8
CL
100
AcDbLine
 10
1718.699999999998
 20
227.8000000000002
 30
0.0
 11
1712.699999999998
 21
227.8000000000002
 31
0.0
  0
LINE
  5
1C2
330
2
100
AcDbEntity
  8
CL
100
AcDbLine
 10
1687.699999999998
 20
258.8000000000002
 30
0.0
 11
1681.699999999998
 21
258.8000000000002
 31
0.0
  0
LINE
  5
1C3
330
2
100
AcDbEntity
  8
0
100
AcDbLine
 10
1715.699999999998
 20
224.3000000000002
 30
0.0
 11
1684.699999999998
 21
224.3000000000002
 31
0.0
  0
ARC
  5
1C4
330
2
100
AcDbEntity
  8
0
100
AcDbCircle
 10
1715.699999999998
 20
227.8000000000002
 30
0.0
 40
3.5
100
AcDbArc
 50
270.0
 51
0.0
  0
LINE
  5
1C5
330
2
100
AcDbEntity
  8
0
100
AcDbLine
 10
1686.499999999998
 20
262.3000000000002
 30
0.0
 11
1684.699999999998
 21
262.3000000000002
 31
0.0
  0
ARC
  5
1C6
330
2
100
AcDbEntity
  8
0
100
AcDbCircle
 10
1684.699999999998
 20
258.8000000000002
 30
0.0
 40
1.5
100
AcDbArc
 50
259.8788611531876
 51
190.2121249083881
  0
CIRCLE
  5
1C7
330
2
100
AcDbEntity
  8
0
100
AcDbCircle
 10
1684.699999999998
 20
258.8000000000002
 30
0.0
 40
1.199999999999999
  0
ARC
  5
1C8
330
2
100
AcDbEntity
  8
0
100
AcDbCircle
 10
1715.699999999998
 20
227.8000000000002
 30
0.0
 40
1.5
100
AcDbArc
 50
259.8788611531876
 51
7.662255660771585
  0
ARC
  5
1C9
330
2
100
AcDbEntity
  8
0
100
AcDbCircle
 10
1715.699999999998
 20
227.8000000000002
 30
0.0
 40
1.5
100
AcDbArc
 50
117.8181392846261
 51
190.2121249083881
  0
ARC
  5
1CA
330
2
100
AcDbEntity
  8
0
100
AcDbCircle
 10
1715.699999999998
 20
227.8000000000002
 30
0.0
 40
1.199999999999999
100
AcDbArc
 50
125.685334712566
 51
9.594068226862596
  0
LINE
  5
1CB
330
2
100
AcDbEntity
  8
0
100
AcDbLine
 10
1714.999999999998
 20
267.0564818504449
 30
0.0
 11
1686.499999999998
 21
267.0564818504449
 31
0.0
  0
LINE
  5
1CC
330
2
100
AcDbEntity
  8
0
100
AcDbLine
 10
1714.999999999998
 20
262.791344236512
 30
0.0
 11
1686.499999999998
 21
262.791344236512
 31
0.0
  0
DIMENSION
  5
1CD
330
2
100
AcDbEntity
  8
TEXT
100
AcDbDimension
  2
*D4
 10
1751.999999999998
 20
264.5
 30
0.0
 11
1748.499999999998
 21
276.514285714286
 31
0.0
 71
     5
 42
5.5
  3
ISO-25
100
AcDbAlignedDimension
 13
1739.699999999998
 23
259.0
 33
0.0
 14
1740.199999999998
 24
264.5
 34
0.0
 50
90.0
100
AcDbRotatedDimension
  0
DIMENSION
  5
1DC
330
2
100
AcDbEntity
  8
TEXT
100
AcDbDimension
  2
*D5
 10
1760.999999999998
 20
265.0
 30
0.0
 11
1757.499999999998
 21
276.3857142857146
 31
0.0
  1
%%C<>
 71
     5
 42
6.0
  3
ISO-25
100
AcDbAlignedDimension
 13
1739.699999999998
 23
259.0
 33
0.0
 14
1728.199999999998
 24
265.0
 34
0.0
 50
90.0
100
AcDbRotatedDimension
  0
DIMENSION
  5
1EB
330
2
100
AcDbEntity
  8
TEXT
100
AcDbDimension
  2
*D6
 10
1769.999999999998
 20
267.9500000000003
 30
0.0
 11
1766.499999999998
 21
262.0000000000005
 31
0.0
  1
%%C12
 71
     5
 42
11.90000000000009
  3
ISO-25
100
AcDbAlignedDimension
 13
1723.799999999998
 23
256.0500000000002
 33
0.0
 14
1723.799999999998
 24
267.9500000000003
 34
0.0
 50
90.0
100
AcDbRotatedDimension
  0
DIMENSION
  5
1F8
330
2
100
AcDbEntity
  8
TEXT
100
AcDbDimension
  2
*D7
 10
1724.299999999998
 20
285.0
 30
0.0
 11
1707.357142857141
 21
285.0
 31
0.0
 70
   128
 71
     5
 42
4.300000000000181
  3
ISO-25
100
AcDbAlignedDimension
 13
1719.999999999998
 23
275.0
 33
0.0
 14
1724.299999999998
 24
267.4500000000003
 34
0.0
100
AcDbRotatedDimension
  0
DIMENSION
  5
207
330
2
100
AcDbEntity
  8
TEXT
100
AcDbDimension
  2
*D8
 10
1740.199999999998
 20
277.0
 30
0.0
 11
1734.199999999998
 21
280.5
 31
0.0
 71
     5
 42
12.0
  3
ISO-25
100
AcDbAlignedDimension
 13
1728.199999999998
 23
265.0
 33
0.0
 14
1740.199999999998
 24
264.5
 34
0.0
100
AcDbRotatedDimension
  0
DIMENSION
  5
214
330
2
100
AcDbEntity
  8
TEXT
100
AcDbDimension
  2
*D9
 10
1740.199999999998
 20
293.0
 30
0.0
 11
1730.099999999998
 21
296.5
 31
0.0
 71
     5
 42
20.19999999999982
  3
ISO-25
100
AcDbAlignedDimension
 13
1719.999999999998
 23
275.0
 33
0.0
 14
1740.199999999998
 24
264.5
 34
0.0
100
AcDbRotatedDimension
  0
DIMENSION
  5
221
330
2
100
AcDbEntity
  8
TEXT
100
AcDbDimension
  2
*D10
 10
1719.999999999998
 20
293.0
 30
0.0
 11
1703.249999999998
 21
296.5
 31
0.0
 71
     5
 42
33.5
  3
ISO-25
100
AcDbAlignedDimension
 13
1686.499999999998
 23
275.0
 33
0.0
 14
1719.999999999998
 24
275.0
 34
0.0
100
AcDbRotatedDimension
  0
DIMENSION
  5
22E
330
2
100
AcDbEntity
  8
TEXT
100
AcDbDimension
  2
*D11
 10
1681.199999999998
 20
293.0
 30
0.0
 11
1669.185714285712
 21
296.5
 31
0.0
 71
     5
 42
5.300000000000181
  3
ISO-25
100
AcDbAlignedDimension
 13
1686.499999999998
 23
275.0
 33
0.0
 14
1681.199999999998
 24
258.8000000000002
 34
0.0
100
AcDbRotatedDimension
  0
DIMENSION
  5
23D
330
2
100
AcDbEntity
  8
TEXT
100
AcDbDimension
  2
*D12
 10
1681.199999999998
 20
302.0
 30
0.0
 11
1710.699999999998
 21
305.5
 31
0.0
 71
     5
 42
59.0
  3
ISO-25
100
AcDbAlignedDimension
 13
1740.199999999998
 23
264.5
 33
0.0
 14
1681.199999999998
 24
258.8000000000002
 34
0.0
100
AcDbRotatedDimension
  0
DIMENSION
  5
24A
102
{ACAD_XDICTIONARY
360
24B
102
}
102
{ACAD_REACTORS
330
24C
102
}
330
2
100
AcDbEntity
  8
TEXT
100
AcDbDimension
  2
*D13
 10
1897.0
 20
261.3000000000002
 30
0.0
 11
1893.5
 21
243.3000000000005
 31
0.0
  1
%%C<>
 71
     5
 42
35.99999999999997
  3
ISO-25
100
AcDbAlignedDimension
 13
1879.499999999998
 23
225.3000000000002
 33
0.0
 14
1879.499999999998
 24
261.3000000000002
 34
0.0
 50
90.0
100
AcDbRotatedDimension
  0
TEXT
  5
259
330
2
100
AcDbEntity
  8
TEXT
100
AcDbText
 10
1772.999999999998
 20
294.0
 30
0.0
 40
4.0
  1
3-%%C3.5 or M3 TAP (3-120%%D)
 41
0.6
  7
GHS
100
AcDbText
  0
TEXT
  5
25A
330
2
100
AcDbEntity
  8
TEXT
100
AcDbText
 10
1777.999999999998
 20
288.0
 30
0.0
 40
4.0
  1
P.C.D %%C46
 41
0.6
  7
GHS
100
AcDbText
  0
LEADER
  5
25B
330
2
100
AcDbEntity
  8
TEXT
100
AcDbLeader
  3
Standard
 76
     3
 10
1789.058000275028
 20
267.919549520592
 30
0.0
 10
1771.999999999998
 20
293.0
 30
0.0
 10
1827.999999999998
 20
293.0
 30
0.0
1001
ACAD
1000
DSTYLE
1002
{
1070
   147
1040
1.0
1070
    77
1070
     0
1002
}
  0
DIMENSION
  5
25C
102
{ACAD_XDICTIONARY
360
25D
102
}
102
{ACAD_REACTORS
330
25E
102
}
330
2
100
AcDbEntity
  8
TEXT
100
AcDbDimension
  2
*D14
 10
1836.499999999998
 20
283.0
 30
0.0
 11
1823.249999999998
 21
286.5
 31
0.0
 71
     5
 42
26.5
  3
ISO-25
100
AcDbAlignedDimension
 13
1809.999999999998
 23
284.0
 33
0.0
 14
1836.499999999998
 24
262.3000000000002
 34
0.0
100
AcDbRotatedDimension
  0
DIMENSION
  5
26A
102
{ACAD_XDICTIONARY
360
26B
102
}
102
{ACAD_REACTORS
330
26C
102
}
330
2
100
AcDbEntity
  8
TEXT
100
AcDbDimension
  2
*D15
 10
1879.499999999998
 20
283.0
 30
0.0
 11
1857.999999999998
 21
286.5
 31
0.0
 71
     5
 42
43.0
  3
ISO-25
100
AcDbAlignedDimension
 13
1836.499999999998
 23
262.3000000000002
 33
0.0
 14
1879.499999999998
 24
261.3000000000002
 34
0.0
100
AcDbRotatedDimension
  0
ENDSEC
  0
SECTION
  2
OBJECTS
  0
DICTIONARY
  5
C
330
0
100
AcDbDictionary
281
     1
  3
ACAD_2007HEADERVARS_RT
350
2D6
  3
ACAD_COLOR
350
59
  3
ACAD_GROUP
350
46
  3
ACAD_LAYOUT
350
19
  3
ACAD_MATERIAL
350
E
  3
ACAD_MLEADERSTYLE
350
2AD
  3
ACAD_MLINESTYLE
350
47
  3
ACAD_PLOTSETTINGS
350
48
  3
ACAD_PLOTSTYLENAME
350
B
  3
ACAD_SCALELIST
350
5A
  3
ACAD_TABLESTYLE
350
5B
  3
ACAD_VISUALSTYLE
350
32
  3
ACDB_RECOMPOSE_DATA
350
27D
  3
AcDbVariableDictionary
350
296
  0
DICTIONARY
  5
33
330
2F
100
AcDbDictionary
280
     1
281
     1
  0
DICTIONARY
  5
22
330
21
100
AcDbDictionary
280
     1
281
     1
  3
ACAD_LAYERFILTERS
360
23
  3
ACAD_LAYERSTATES
360
24
  3
ACLYDICTIONARY
360
25
  0
DICTIONARY
  5
8
330
7
100
AcDbDictionary
280
     1
281
     1
  3
ADSK_XREC_LAYER_RECONCILED
360
9
  0
DICTIONARY
  5
88
330
87
100
AcDbDictionary
280
     1
281
     1
  3
ADSK_XREC_LAYER_RECONCILED
360
89
  0
DICTIONARY
  5
5D
330
5C
100
AcDbDictionary
280
     1
281
     1
  3
ADSK_XREC_LAYER_RECONCILED
360
5E
  0
DICTIONARY
  5
3
330
2
100
AcDbDictionary
280
     1
281
     1
  3
ACAD_LAYOUTSELFREF
360
4
  3
ACAD_SORTENTS
360
279
  0
DICTIONARY
  5
1C
330
1B
100
AcDbDictionary
280
     1
281
     1
  3
ACAD_LAYOUTSELFREF
360
1D
  0
DICTIONARY
  5
24B
330
24A
100
AcDbDictionary
280
     1
281
     1
  3
ACAD_DIMASSOC
360
24C
  0
DICTIONARY
  5
25D
330
25C
100
AcDbDictionary
280
     1
281
     1
  3
ACAD_DIMASSOC
360
25E
  0
DICTIONARY
  5
26B
330
26A
100
AcDbDictionary
280
     1
281
     1
  3
ACAD_DIMASSOC
360
26C
  0
DICTIONARY
  5
2D6
102
{ACAD_REACTORS
330
C
102
}
330
C
100
AcDbDictionary
281
     1
  3
DIMLTEX1
350
2D8
  3
DIMLTEX2
350
2D9
  3
DIMLTYPE
350
2D7
  0
DICTIONARY
  5
59
102
{ACAD_REACTORS
330
C
102
}
330
C
100
AcDbDictionary
281
     1
  0
DICTIONARY
  5
46
102
{ACAD_REACTORS
330
C
102
}
330
C
100
AcDbDictionary
281
     1
  0
DICTIONARY
  5
19
102
{ACAD_REACTORS
330
C
102
}
330
C
100
AcDbDictionary
281
     1
  3
Layout1
350
20
  3
Model
350
18
  0
DICTIONARY
  5
E
102
{ACAD_REACTORS
330
C
102
}
330
C
100
AcDbDictionary
281
     1
  3
ByBlock
350
51
  3
ByLayer
350
49
  3
Global
350
D
  0
DICTIONARY
  5
2AD
102
{ACAD_REACTORS
330
C
102
}
330
C
100
AcDbDictionary
281
     1
  3
Standard
350
2AE
  0
DICTIONARY
  5
47
102
{ACAD_REACTORS
330
C
102
}
330
C
100
AcDbDictionary
281
     1
  3
Standard
350
5F
  0
DICTIONARY
  5
48
102
{ACAD_REACTORS
330
C
102
}
330
C
100
AcDbDictionary
281
     1
  0
ACDBDICTIONARYWDFLT
  5
B
102
{ACAD_REACTORS
330
C
102
}
330
C
100
AcDbDictionary
281
     1
  3
Normal
350
A
100
AcDbDictionaryWithDefault
340
A
  0
DICTIONARY
  5
5A
102
{ACAD_REACTORS
330
C
102
}
330
C
100
AcDbDictionary
281
     1
  3
*A1
350
64
  3
A0
350
65
  3
A1
350
66
  3
A2
350
67
  3
A3
350
68
  3
A4
350
69
  3
A5
350
6A
  3
A6
350
6B
  3
A7
350
6C
  3
A8
350
6D
  3
A9
350
6E
  3
B0
350
6F
  3
B1
350
70
  3
B2
350
71
  3
B3
350
72
  3
B4
350
73
  3
B5
350
74
  3
B6
350
75
  3
B7
350
76
  3
B8
350
77
  3
B9
350
78
  3
C0
350
79
  3
C1
350
7A
  3
C2
350
7B
  3
C3
350
7C
  3
C4
350
7D
  3
C5
350
7E
  3
C6
350
7F
  3
C7
350
80
  3
C8
350
81
  3
C9
350
82
  3
D0
350
83
  3
D1
350
84
  3
D2
350
85
  0
DICTIONARY
  5
5B
102
{ACAD_REACTORS
330
C
102
}
330
C
100
AcDbDictionary
281
     1
  3
Standard
350
60
  0
DICTIONARY
  5
32
102
{ACAD_REACTORS
330
C
102
}
330
C
100
AcDbDictionary
281
     1
  3
2dWireframe
350
31
  3
3D Hidden
350
2A5
  3
3dWireframe
350
63
  3
Basic
350
2A4
  3
Brighten
350
2A8
  3
ColorChange
350
2AC
  3
Conceptual
350
2A6
  3
Dim
350
2A7
  3
Facepattern
350
2AB
  3
Flat
350
2A0
  3
FlatWithEdges
350
2A1
  3
Gouraud
350
2A2
  3
GouraudWithEdges
350
2A3
  3
Linepattern
350
2AA
  3
Realistic
350
62
  3
Thicken
350
2A9
  0
XRECORD
  5
27D
102
{ACAD_REACTORS
330
C
102
}
330
C
100
AcDbXrecord
280
     1
 90
        1
330
60
  0
DICTIONARY
  5
296
102
{ACAD_REACTORS
330
C
102
}
330
C
100
AcDbDictionary
281
     1
  3
CANNOSCALE
350
29A
  3
CMLEADERSTYLE
350
298
  3
CTABLESTYLE
350
297
  3
DIMASSOC
350
29E
  3
HIDETEXT
350
29D
  3
INDEXCTL
350
29C
  3
LIGHTINGUNITS
350
2B5
  3
MSLTSCALE
350
299
  3
SORTENTS
350
29B
  0
DICTIONARY
  5
23
102
{ACAD_REACTORS
330
22
102
}
330
22
100
AcDbDictionary
281
     1
  0
DICTIONARY
  5
24
102
{ACAD_REACTORS
330
22
102
}
330
22
100
AcDbDictionary
281
     1
  0
DICTIONARY
  5
25
102
{ACAD_REACTORS
330
22
102
}
330
22
100
AcDbDictionary
281
     1
1001
ACAD
1000
<All
  0
XRECORD
  5
9
102
{ACAD_REACTORS
330
8
102
}
330
8
100
AcDbXrecord
280
     1
290
     1
  0
XRECORD
  5
89
102
{ACAD_REACTORS
330
88
102
}
330
88
100
AcDbXrecord
280
     1
290
     1
  0
XRECORD
  5
5E
102
{ACAD_REACTORS
330
5D
102
}
330
5D
100
AcDbXrecord
280
     1
290
     1
  0
XRECORD
  5
4
102
{ACAD_REACTORS
330
3
102
}
330
3
100
AcDbXrecord
280
     1
340
2
  0
SORTENTSTABLE
  5
279
102
{ACAD_REACTORS
330
3
102
}
330
3
100
AcDbSortentsTable
330
2
  0
XRECORD
  5
1D
102
{ACAD_REACTORS
330
1C
102
}
330
1C
100
AcDbXrecord
280
     1
340
1B
  0
DIMASSOC
  5
24C
102
{ACAD_REACTORS
330
24B
102
}
330
24B
100
AcDbDimAssoc
330
24A
 90
        3
 70
     0
 71
     0
  1
AcDbOsnapPointRef
 72
    13
331
AD
 73
     2
 91
        0
 40
0.0
 10
0.0
 20
0.0
 30
2.000000000000000E+50
 75
     0
  1
AcDbOsnapPointRef
 72
     1
331
B2
 73
     2
 91
        0
 40
1.0
 10
0.0
 20
0.0
 30
2.000000000000000E+50
 75
     0
  0
DIMASSOC
  5
25E
102
{ACAD_REACTORS
330
25D
102
}
330
25D
100
AcDbDimAssoc
330
25C
 90
        3
 70
     0
 71
     0
  1
AcDbOsnapPointRef
 72
     1
331
86
 73
     2
 91
        0
 40
1.0
 10
0.0
 20
0.0
 30
2.000000000000000E+50
 75
     0
  1
AcDbOsnapPointRef
 72
     1
331
B8
 73
     2
 91
        0
 40
0.9999999999999998
 10
0.0
 20
0.0
 30
2.000000000000000E+50
 75
     0
  0
DIMASSOC
  5
26C
102
{ACAD_REACTORS
330
26B
102
}
330
26B
100
AcDbDimAssoc
330
26A
 90
        3
 70
     0
 71
     0
  1
AcDbOsnapPointRef
 72
     1
331
B8
 73
     2
 91
        0
 40
0.9999999999999998
 10
0.0
 20
0.0
 30
2.000000000000000E+50
 75
     0
  1
AcDbOsnapPointRef
 72
     1
331
B2
 73
     2
 91
        0
 40
1.0
 10
0.0
 20
0.0
 30
2.000000000000000E+50
 75
     0
  0
XRECORD
  5
2D8
102
{ACAD_REACTORS
330
2D6
102
}
330
2D6
100
AcDbXrecord
280
     1
340
2C
  0
XRECORD
  5
2D9
102
{ACAD_REACTORS
330
2D6
102
}
330
2D6
100
AcDbXrecord
280
     1
340
2C
  0
XRECORD
  5
2D7
102
{ACAD_REACTORS
330
2D6
102
}
330
2D6
100
AcDbXrecord
280
     1
340
2C
  0
LAYOUT
  5
20
102
{ACAD_REACTORS
330
19
102
}
330
19
100
AcDbPlotSettings
  1

  2
HP LaserJet 5000 Series PS
  4

  6

 40
0.0
 41
0.0
 42
0.0
 43
0.0
 44
0.0
 45
0.0
 46
0.0
 47
0.0
 48
0.0
 49
0.0
140
0.0
141
0.0
142
1.0
143
1.0
 70
   688
 72
     0
 73
     0
 74
     5
  7
C:\Users\R&D\AppData\Roaming\Autodesk\Autodesk Mechanical Desktop 2008\R17.1\kor\Plot Styles\CATALOG.ctb
 75
    16
147
1.0
 76
     0
 77
     2
 78
   300
148
0.0
149
0.0
100
AcDbLayout
  1
Layout1
 70
     1
 71
     1
 10
0.0
 20
0.0
 11
12.0
 21
9.0
 12
2220.404641079056
 22
50.00000000000001
 32
2810.473195709564
 14
1.000000000000000E+20
 24
1.000000000000000E+20
 34
1.000000000000000E+20
 15
-1.000000000000000E+20
 25
-1.000000000000000E+20
 35
-1.000000000000000E+20
146
0.0
 13
0.0
 23
0.0
 33
0.0
 16
1.0
 26
0.0
 36
0.0
 17
0.0
 27
1.0
 37
0.0
 76
     0
330
1B
  0
LAYOUT
  5
18
102
{ACAD_REACTORS
330
19
102
}
330
19
100
AcDbPlotSettings
  1

  2
PublishToWeb JPG.pc3
  4
Sun_Hi-Res_(1600.00_x_1280.00_Pixels)
  6

 40
0.0
 41
0.0
 42
1.0
 43
1.0
 44
1600.0
 45
1280.0
 46
0.0
 47
0.0
 48
2595.0
 49
7.0
140
2798.0
141
134.0
142
1.0
143
0.1269543464665416
 70
 11952
 72
     2
 73
     0
 74
     4
  7
CATALOG.ctb
 75
     0
147
7.876847290640394
 76
     0
 77
     2
 78
   300
148
-2595.0
149
-7.0
100
AcDbLayout
  1
Model
 70
     1
 71
     0
 10
0.0
 20
0.0
 11
12.0
 21
9.0
 12
0.0
 22
0.0
 32
0.0
 14
0.0
 24
0.0
 34
0.0
 15
0.0
 25
0.0
 35
0.0
146
0.0
 13
0.0
 23
0.0
 33
0.0
 16
1.0
 26
0.0
 36
0.0
 17
0.0
 27
1.0
 37
0.0
 76
     0
330
2
331
30
1001
ACAD_PSEXT
1000
PublishToWeb JPG.pc3
1000
Independent JPEG Group JFIF (JPEG Compression)
1000
파일
1000

1070
     0
  0
MATERIAL
  5
51
102
{ACAD_XDICTIONARY
360
52
102
}
102
{ACAD_REACTORS
330
E
102
}
330
E
100
AcDbMaterial
  1
ByBlock
 72
     0
 43
0.0208333333333333
 43
0.0
 43
0.0
 43
0.0
 43
0.0
 43
0.0208333333333333
 43
0.0
 43
0.0
 43
0.0
 43
0.0
 43
1.0
 43
0.0
 43
0.0
 43
0.0
 43
0.0
 43
1.0
 77
     0
 47
0.0208333333333333
 47
0.0
 47
0.0
 47
0.0
 47
0.0
 47
0.0208333333333333
 47
0.0
 47
0.0
 47
0.0
 47
0.0
 47
1.0
 47
0.0
 47
0.0
 47
0.0
 47
0.0
 47
1.0
171
     0
 49
0.0208333333333333
 49
0.0
 49
0.0
 49
0.0
 49
0.0
 49
0.0208333333333333
 49
0.0
 49
0.0
 49
0.0
 49
0.0
 49
1.0
 49
0.0
 49
0.0
 49
0.0
 49
0.0
 49
1.0
175
     0
142
0.0208333333333333
142
0.0
142
0.0
142
0.0
142
0.0
142
0.0208333333333333
142
0.0
142
0.0
142
0.0
142
0.0
142
1.0
142
0.0
142
0.0
142
0.0
142
0.0
142
1.0
179
     0
144
0.0208333333333333
144
0.0
144
0.0
144
0.0
144
0.0
144
0.0208333333333333
144
0.0
144
0.0
144
0.0
144
0.0
144
1.0
144
0.0
144
0.0
144
0.0
144
0.0
144
1.0
147
0.0208333333333333
147
0.0
147
0.0
147
0.0
147
0.0
147
0.0208333333333333
147
0.0
147
0.0
147
0.0
147
0.0
147
1.0
147
0.0
147
0.0
147
0.0
147
0.0
147
1.0
  0
MATERIAL
  5
49
102
{ACAD_XDICTIONARY
360
4A
102
}
102
{ACAD_REACTORS
330
E
102
}
330
E
100
AcDbMaterial
  1
ByLayer
 72
     0
 43
0.0208333333333333
 43
0.0
 43
0.0
 43
0.0
 43
0.0
 43
0.0208333333333333
 43
0.0
 43
0.0
 43
0.0
 43
0.0
 43
1.0
 43
0.0
 43
0.0
 43
0.0
 43
0.0
 43
1.0
 77
     0
 47
0.0208333333333333
 47
0.0
 47
0.0
 47
0.0
 47
0.0
 47
0.0208333333333333
 47
0.0
 47
0.0
 47
0.0
 47
0.0
 47
1.0
 47
0.0
 47
0.0
 47
0.0
 47
0.0
 47
1.0
171
     0
 49
0.0208333333333333
 49
0.0
 49
0.0
 49
0.0
 49
0.0
 49
0.0208333333333333
 49
0.0
 49
0.0
 49
0.0
 49
0.0
 49
1.0
 49
0.0
 49
0.0
 49
0.0
 49
0.0
 49
1.0
175
     0
142
0.0208333333333333
142
0.0
142
0.0
142
0.0
142
0.0
142
0.0208333333333333
142
0.0
142
0.0
142
0.0
142
0.0
142
1.0
142
0.0
142
0.0
142
0.0
142
0.0
142
1.0
179
     0
144
0.0208333333333333
144
0.0
144
0.0
144
0.0
144
0.0
144
0.0208333333333333
144
0.0
144
0.0
144
0.0
144
0.0
144
1.0
144
0.0
144
0.0
144
0.0
144
0.0
144
1.0
147
0.0208333333333333
147
0.0
147
0.0
147
0.0
147
0.0
147
0.0208333333333333
147
0.0
147
0.0
147
0.0
147
0.0
147
1.0
147
0.0
147
0.0
147
0.0
147
0.0
147
1.0
  0
MATERIAL
  5
D
102
{ACAD_XDICTIONARY
360
F
102
}
102
{ACAD_REACTORS
330
E
102
}
330
E
100
AcDbMaterial
  1
Global
 72
     0
 43
0.0208333333333333
 43
0.0
 43
0.0
 43
0.0
 43
0.0
 43
0.0208333333333333
 43
0.0
 43
0.0
 43
0.0
 43
0.0
 43
1.0
 43
0.0
 43
0.0
 43
0.0
 43
0.0
 43
1.0
 77
     0
 47
0.0208333333333333
 47
0.0
 47
0.0
 47
0.0
 47
0.0
 47
0.0208333333333333
 47
0.0
 47
0.0
 47
0.0
 47
0.0
 47
1.0
 47
0.0
 47
0.0
 47
0.0
 47
0.0
 47
1.0
171
     0
 49
0.0208333333333333
 49
0.0
 49
0.0
 49
0.0
 49
0.0
 49
0.0208333333333333
 49
0.0
 49
0.0
 49
0.0
 49
0.0
 49
1.0
 49
0.0
 49
0.0
 49
0.0
 49
0.0
 49
1.0
175
     0
142
0.0208333333333333
142
0.0
142
0.0
142
0.0
142
0.0
142
0.0208333333333333
142
0.0
142
0.0
142
0.0
142
0.0
142
1.0
142
0.0
142
0.0
142
0.0
142
0.0
142
1.0
179
     0
144
0.0208333333333333
144
0.0
144
0.0
144
0.0
144
0.0
144
0.0208333333333333
144
0.0
144
0.0
144
0.0
144
0.0
144
1.0
144
0.0
144
0.0
144
0.0
144
0.0
144
1.0
147
0.0208333333333333
147
0.0
147
0.0
147
0.0
147
0.0
147
0.0208333333333333
147
0.0
147
0.0
147
0.0
147
0.0
147
1.0
147
0.0
147
0.0
147
0.0
147
0.0
147
1.0
  0
MLEADERSTYLE
  5
2AE
102
{ACAD_REACTORS
330
2AD
102
}
330
2AD
100
AcDbMLeaderStyle
170
     2
171
     1
172
     0
 90
        2
 40
0.0
 41
0.0
173
     1
 91
-1056964608
340
2B
 92
       -2
290
     1
 42
0.09
291
     1
 43
0.36
  3
Standard
 44
0.18
300

342
28
174
     1
178
     6
175
     1
176
     0
 93
-1056964608
 45
0.18
292
     0
297
     0
 46
0.18
 94
-1056964608
 47
1.0
 49
1.0
140
1.0
293
     1
141
0.0
294
     1
177
     0
142
1.0
295
     0
296
     0
143
0.125
1001
ACAD_MLEADERVER
1070
     2
  0
MLINESTYLE
  5
5F
102
{ACAD_REACTORS
330
47
102
}
330
47
100
AcDbMlineStyle
  2
STANDARD
 70
     0
  3

 62
   256
 51
90.0
 52
90.0
 71
     2
 49
0.5
 62
   256
  6
BYLAYER
 49
-0.5
 62
   256
  6
BYLAYER
  0
ACDBPLACEHOLDER
  5
A
102
{ACAD_REACTORS
330
B
102
}
330
B
  0
SCALE
  5
64
102
{ACAD_REACTORS
330
5A
102
}
330
5A
100
AcDbScale
 70
     0
300
1/128" = 1'-0"_1
140
0.007812
141
12.0
290
     0
  0
SCALE
  5
65
102
{ACAD_REACTORS
330
5A
102
}
330
5A
100
AcDbScale
 70
     0
300
1:1
140
1.0
141
1.0
290
     1
  0
SCALE
  5
66
102
{ACAD_REACTORS
330
5A
102
}
330
5A
100
AcDbScale
 70
     0
300
1:2
140
1.0
141
2.0
290
     0
  0
SCALE
  5
67
102
{ACAD_REACTORS
330
5A
102
}
330
5A
100
AcDbScale
 70
     0
300
1:4
140
1.0
141
4.0
290
     0
  0
SCALE
  5
68
102
{ACAD_REACTORS
330
5A
102
}
330
5A
100
AcDbScale
 70
     0
300
1:5
140
1.0
141
5.0
290
     0
  0
SCALE
  5
69
102
{ACAD_REACTORS
330
5A
102
}
330
5A
100
AcDbScale
 70
     0
300
1:8
140
1.0
141
8.0
290
     0
  0
SCALE
  5
6A
102
{ACAD_REACTORS
330
5A
102
}
330
5A
100
AcDbScale
 70
     0
300
1:10
140
1.0
141
10.0
290
     0
  0
SCALE
  5
6B
102
{ACAD_REACTORS
330
5A
102
}
330
5A
100
AcDbScale
 70
     0
300
1:16
140
1.0
141
16.0
290
     0
  0
SCALE
  5
6C
102
{ACAD_REACTORS
330
5A
102
}
330
5A
100
AcDbScale
 70
     0
300
1:20
140
1.0
141
20.0
290
     0
  0
SCALE
  5
6D
102
{ACAD_REACTORS
330
5A
102
}
330
5A
100
AcDbScale
 70
     0
300
1:30
140
1.0
141
30.0
290
     0
  0
SCALE
  5
6E
102
{ACAD_REACTORS
330
5A
102
}
330
5A
100
AcDbScale
 70
     0
300
1:40
140
1.0
141
40.0
290
     0
  0
SCALE
  5
6F
102
{ACAD_REACTORS
330
5A
102
}
330
5A
100
AcDbScale
 70
     0
300
1:50
140
1.0
141
50.0
290
     0
  0
SCALE
  5
70
102
{ACAD_REACTORS
330
5A
102
}
330
5A
100
AcDbScale
 70
     0
300
1:100
140
1.0
141
100.0
290
     0
  0
SCALE
  5
71
102
{ACAD_REACTORS
330
5A
102
}
330
5A
100
AcDbScale
 70
     0
300
2:1
140
2.0
141
1.0
290
     0
  0
SCALE
  5
72
102
{ACAD_REACTORS
330
5A
102
}
330
5A
100
AcDbScale
 70
     0
300
4:1
140
4.0
141
1.0
290
     0
  0
SCALE
  5
73
102
{ACAD_REACTORS
330
5A
102
}
330
5A
100
AcDbScale
 70
     0
300
8:1
140
8.0
141
1.0
290
     0
  0
SCALE
  5
74
102
{ACAD_REACTORS
330
5A
102
}
330
5A
100
AcDbScale
 70
     0
300
10:1
140
10.0
141
1.0
290
     0
  0
SCALE
  5
75
102
{ACAD_REACTORS
330
5A
102
}
330
5A
100
AcDbScale
 70
     0
300
100:1
140
100.0
141
1.0
290
     0
  0
SCALE
  5
76
102
{ACAD_REACTORS
330
5A
102
}
330
5A
100
AcDbScale
 70
     0
300
1/128" = 1'-0"
140
0.0078125
141
12.0
290
     0
  0
SCALE
  5
77
102
{ACAD_REACTORS
330
5A
102
}
330
5A
100
AcDbScale
 70
     0
300
1/64" = 1'-0"
140
0.015625
141
12.0
290
     0
  0
SCALE
  5
78
102
{ACAD_REACTORS
330
5A
102
}
330
5A
100
AcDbScale
 70
     0
300
1/32" = 1'-0"
140
0.03125
141
12.0
290
     0
  0
SCALE
  5
79
102
{ACAD_REACTORS
330
5A
102
}
330
5A
100
AcDbScale
 70
     0
300
1/16" = 1'-0"
140
0.0625
141
12.0
290
     0
  0
SCALE
  5
7A
102
{ACAD_REACTORS
330
5A
102
}
330
5A
100
AcDbScale
 70
     0
300
3/32" = 1'-0"
140
0.09375
141
12.0
290
     0
  0
SCALE
  5
7B
102
{ACAD_REACTORS
330
5A
102
}
330
5A
100
AcDbScale
 70
     0
300
1/8" = 1'-0"
140
0.125
141
12.0
290
     0
  0
SCALE
  5
7C
102
{ACAD_REACTORS
330
5A
102
}
330
5A
100
AcDbScale
 70
     0
300
3/16" = 1'-0"
140
0.1875
141
12.0
290
     0
  0
SCALE
  5
7D
102
{ACAD_REACTORS
330
5A
102
}
330
5A
100
AcDbScale
 70
     0
300
1/4" = 1'-0"
140
0.25
141
12.0
290
     0
  0
SCALE
  5
7E
102
{ACAD_REACTORS
330
5A
102
}
330
5A
100
AcDbScale
 70
     0
300
3/8" = 1'-0"
140
0.375
141
12.0
290
     0
  0
SCALE
  5
7F
102
{ACAD_REACTORS
330
5A
102
}
330
5A
100
AcDbScale
 70
     0
300
1/2" = 1'-0"
140
0.5
141
12.0
290
     0
  0
SCALE
  5
80
102
{ACAD_REACTORS
330
5A
102
}
330
5A
100
AcDbScale
 70
     0
300
3/4" = 1'-0"
140
0.75
141
12.0
290
     0
  0
SCALE
  5
81
102
{ACAD_REACTORS
330
5A
102
}
330
5A
100
AcDbScale
 70
     0
300
1" = 1'-0"
140
1.0
141
12.0
290
     0
  0
SCALE
  5
82
102
{ACAD_REACTORS
330
5A
102
}
330
5A
100
AcDbScale
 70
     0
300
1-1/2" = 1'-0"
140
1.5
141
12.0
290
     0
  0
SCALE
  5
83
102
{ACAD_REACTORS
330
5A
102
}
330
5A
100
AcDbScale
 70
     0
300
3" = 1'-0"
140
3.0
141
12.0
290
     0
  0
SCALE
  5
84
102
{ACAD_REACTORS
330
5A
102
}
330
5A
100
AcDbScale
 70
     0
300
6" = 1'-0"
140
6.0
141
12.0
290
     0
  0
SCALE
  5
85
102
{ACAD_REACTORS
330
5A
102
}
330
5A
100
AcDbScale
 70
     0
300
1'-0" = 1'-0"
140
12.0
141
12.0
290
     0
  0
TABLESTYLE
  5
60
102
{ACAD_XDICTIONARY
360
61
102
}
102
{ACAD_REACTORS
330
5B
102
}
330
5B
100
AcDbTableStyle
  3
Standard
 70
     0
 71
     0
 40
0.06
 41
0.06
280
     0
281
     0
  7
STANDARD
140
0.18
170
     2
 62
     0
 63
     7
283
     0
274
    -2
284
     1
 64
     0
275
    -2
285
     1
 65
     0
276
    -2
286
     1
 66
     0
277
    -2
287
     1
 67
     0
278
    -2
288
     1
 68
     0
279
    -2
289
     1
 69
     0
  7
STANDARD
140
0.25
170
     5
 62
     0
 63
     7
283
     0
274
    -2
284
     1
 64
     0
275
    -2
285
     1
 65
     0
276
    -2
286
     1
 66
     0
277
    -2
287
     1
 67
     0
278
    -2
288
     1
 68
     0
279
    -2
289
     1
 69
     0
  7
STANDARD
140
0.18
170
     5
 62
     0
 63
     7
283
     0
274
    -2
284
     1
 64
     0
275
    -2
285
     1
 65
     0
276
    -2
286
     1
 66
     0
277
    -2
287
     1
 67
     0
278
    -2
288
     1
 68
     0
279
    -2
289
     1
 69
     0
  0
VISUALSTYLE
  5
31
102
{ACAD_REACTORS
330
32
102
}
330
32
100
AcDbVisualStyle
  2
2dWireframe
 70
     4
 71
     0
 72
     2
 73
     0
 90
        0
 40
-0.6
 41
-30.0
 62
     5
 63
     7
 74
     1
 91
        4
 64
     7
 65
   257
 75
     1
175
     1
 42
1.0
 92
        0
 66
   257
 43
1.0
 76
     1
 77
     6
 78
     2
 67
     7
 79
     5
170
     0
171
     0
290
     0
174
     0
 93
        1
 44
0.0
173
     0
291
     0
 45
0.0
1001
ACAD
1000
AcDbSavedByObjectVersion
1070
     0
  0
VISUALSTYLE
  5
2A5
102
{ACAD_REACTORS
330
32
102
}
330
32
100
AcDbVisualStyle
  2
3D Hidden
 70
     6
 71
     1
 72
     2
 73
     2
 90
        0
 40
-0.6
 41
-30.0
 62
     5
 63
     7
421
 16777215
 74
     2
 91
        2
 64
     7
 65
   257
 75
     2
175
     1
 42
40.0
 92
        0
 66
   257
 43
1.0
 76
     1
 77
     6
 78
     2
 67
     7
 79
     3
170
     0
171
     0
290
     0
174
     0
 93
        1
 44
0.0
173
     0
291
     0
 45
0.0
1001
ACAD
1000
AcDbSavedByObjectVersion
1070
     0
  0
VISUALSTYLE
  5
63
102
{ACAD_REACTORS
330
32
102
}
330
32
100
AcDbVisualStyle
  2
3dWireframe
 70
     5
 71
     0
 72
     2
 73
     0
 90
        0
 40
-0.6
 41
-30.0
 62
     5
 63
     7
 74
     1
 91
        4
 64
     7
 65
   257
 75
     1
175
     1
 42
1.0
 92
        0
 66
   257
 43
1.0
 76
     1
 77
     6
 78
     2
 67
     7
 79
     5
170
     0
171
     0
290
     0
174
     0
 93
        1
 44
0.0
173
     0
291
     0
 45
0.0
1001
ACAD
1000
AcDbSavedByObjectVersion
1070
     0
  0
VISUALSTYLE
  5
2A4
102
{ACAD_REACTORS
330
32
102
}
330
32
100
AcDbVisualStyle
  2
Basic
 70
     7
 71
     1
 72
     0
 73
     1
 90
        0
 40
-0.6
 41
-30.0
 62
     5
 63
     7
421
 16777215
 74
     0
 91
        4
 64
     7
 65
   257
 75
     1
175
     1
 42
1.0
 92
        8
 66
     7
 43
1.0
 76
     1
 77
     6
 78
     2
 67
     7
 79
     5
170
     0
171
     0
290
     0
174
     0
 93
        1
 44
0.0
173
     0
291
     1
 45
0.0
1001
ACAD
1000
AcDbSavedByObjectVersion
1070
     0
  0
VISUALSTYLE
  5
2A8
102
{ACAD_REACTORS
330
32
102
}
330
32
100
AcDbVisualStyle
  2
Brighten
 70
    12
 71
     2
 72
     2
 73
     0
 90
        0
 40
-0.6
 41
-30.0
 62
     5
 63
     7
421
 16777215
 74
     1
 91
        4
 64
     7
 65
   257
 75
     1
175
     1
 42
1.0
 92
        8
 66
     7
 43
1.0
 76
     1
 77
     6
 78
     2
 67
     7
 79
     5
170
     0
171
     0
290
     0
174
     0
 93
        1
 44
50.0
173
     0
291
     1
 45
0.0
1001
ACAD
1000
AcDbSavedByObjectVersion
1070
     0
  0
VISUALSTYLE
  5
2AC
102
{ACAD_REACTORS
330
32
102
}
330
32
100
AcDbVisualStyle
  2
ColorChange
 70
    16
 71
     2
 72
     2
 73
     3
 90
        0
 40
-0.6
 41
-30.0
 62
     5
 63
     8
421
  8421504
 74
     1
 91
        4
 64
     7
 65
   257
 75
     1
175
     1
 42
1.0
 92
        8
 66
     8
424
  8421504
 43
1.0
 76
     1
 77
     6
 78
     2
 67
     7
 79
     5
170
     0
171
     0
290
     0
174
     0
 93
        1
 44
0.0
173
     0
291
     1
 45
0.0
1001
ACAD
1000
AcDbSavedByObjectVersion
1070
     0
  0
VISUALSTYLE
  5
2A6
102
{ACAD_REACTORS
330
32
102
}
330
32
100
AcDbVisualStyle
  2
Conceptual
 70
     9
 71
     3
 72
     2
 73
     0
 90
        0
 40
-0.6
 41
-30.0
 62
     5
 63
     7
421
 16777215
 74
     2
 91
        2
 64
     7
 65
   257
 75
     1
175
     1
 42
40.0
 92
        8
 66
     7
 43
1.0
 76
     1
 77
     6
 78
     2
 67
     7
 79
     3
170
     0
171
     0
290
     0
174
     0
 93
        1
 44
0.0
173
     0
291
     0
 45
0.0
1001
ACAD
1000
AcDbSavedByObjectVersion
1070
     0
  0
VISUALSTYLE
  5
2A7
102
{ACAD_REACTORS
330
32
102
}
330
32
100
AcDbVisualStyle
  2
Dim
 70
    11
 71
     2
 72
     2
 73
     0
 90
        0
 40
-0.6
 41
-30.0
 62
     5
 63
     7
421
 16777215
 74
     1
 91
        4
 64
     7
 65
   257
 75
     1
175
     1
 42
1.0
 92
        8
 66
     7
 43
1.0
 76
     1
 77
     6
 78
     2
 67
     7
 79
     5
170
     0
171
     0
290
     0
174
     0
 93
        1
 44
-50.0
173
     0
291
     1
 45
0.0
1001
ACAD
1000
AcDbSavedByObjectVersion
1070
     0
  0
VISUALSTYLE
  5
2AB
102
{ACAD_REACTORS
330
32
102
}
330
32
100
AcDbVisualStyle
  2
Facepattern
 70
    15
 71
     2
 72
     2
 73
     0
 90
        0
 40
-0.6
 41
-30.0
 62
     5
 63
     7
421
 16777215
 74
     1
 91
        4
 64
     7
 65
   257
 75
     1
175
     1
 42
1.0
 92
        8
 66
     7
 43
1.0
 76
     1
 77
     6
 78
     2
 67
     7
 79
     5
170
     0
171
     0
290
     0
174
     0
 93
        1
 44
0.0
173
     0
291
     1
 45
0.0
1001
ACAD
1000
AcDbSavedByObjectVersion
1070
     0
  0
VISUALSTYLE
  5
2A0
102
{ACAD_REACTORS
330
32
102
}
330
32
100
AcDbVisualStyle
  2
Flat
 70
     0
 71
     2
 72
     1
 73
     1
 90
        2
 40
-0.6
 41
30.0
 62
     5
 63
     7
421
 16777215
 74
     0
 91
        4
 64
     7
 65
   257
 75
     1
175
     1
 42
1.0
 92
        8
 66
     7
 43
1.0
 76
     1
 77
     6
 78
     2
 67
     7
 79
     5
170
     0
171
     0
290
     0
174
     0
 93
       13
 44
0.0
173
     0
291
     1
 45
0.0
1001
ACAD
1000
AcDbSavedByObjectVersion
1070
     0
  0
VISUALSTYLE
  5
2A1
102
{ACAD_REACTORS
330
32
102
}
330
32
100
AcDbVisualStyle
  2
FlatWithEdges
 70
     1
 71
     2
 72
     1
 73
     1
 90
        2
 40
-0.6
 41
30.0
 62
     5
 63
     7
421
 16777215
 74
     1
 91
        4
 64
     7
 65
   257
 75
     1
175
     1
 42
1.0
 92
        0
 66
   257
 43
1.0
 76
     1
 77
     6
 78
     2
 67
     7
 79
     5
170
     0
171
     0
290
     0
174
     0
 93
       13
 44
0.0
173
     0
291
     1
 45
0.0
1001
ACAD
1000
AcDbSavedByObjectVersion
1070
     0
  0
VISUALSTYLE
  5
2A2
102
{ACAD_REACTORS
330
32
102
}
330
32
100
AcDbVisualStyle
  2
Gouraud
 70
     2
 71
     2
 72
     2
 73
     1
 90
        2
 40
-0.6
 41
30.0
 62
     5
 63
     7
421
 16777215
 74
     0
 91
        4
 64
     7
 65
   257
 75
     1
175
     1
 42
1.0
 92
        0
 66
     7
 43
1.0
 76
     1
 77
     6
 78
     2
 67
     7
 79
     5
170
     0
171
     0
290
     0
174
     0
 93
       13
 44
0.0
173
     0
291
     1
 45
0.0
1001
ACAD
1000
AcDbSavedByObjectVersion
1070
     0
  0
VISUALSTYLE
  5
2A3
102
{ACAD_REACTORS
330
32
102
}
330
32
100
AcDbVisualStyle
  2
GouraudWithEdges
 70
     3
 71
     2
 72
     2
 73
     1
 90
        2
 40
-0.6
 41
30.0
 62
     5
 63
     7
421
 16777215
 74
     1
 91
        4
 64
     7
 65
   257
 75
     1
175
     1
 42
1.0
 92
        0
 66
   257
 43
1.0
 76
     1
 77
     6
 78
     2
 67
     7
 79
     5
170
     0
171
     0
290
     0
174
     0
 93
       13
 44
0.0
173
     0
291
     1
 45
0.0
1001
ACAD
1000
AcDbSavedByObjectVersion
1070
     0
  0
VISUALSTYLE
  5
2AA
102
{ACAD_REACTORS
330
32
102
}
330
32
100
AcDbVisualStyle
  2
Linepattern
 70
    14
 71
     2
 72
     2
 73
     0
 90
        0
 40
-0.6
 41
-30.0
 62
     5
 63
     7
421
 16777215
 74
     1
 91
        4
 64
     7
 65
   257
 75
     7
175
     7
 42
1.0
 92
        8
 66
     7
 43
1.0
 76
     1
 77
     6
 78
     2
 67
     7
 79
     5
170
     0
171
     0
290
     0
174
     0
 93
        1
 44
0.0
173
     0
291
     1
 45
0.0
1001
ACAD
1000
AcDbSavedByObjectVersion
1070
     0
  0
VISUALSTYLE
  5
62
102
{ACAD_REACTORS
330
32
102
}
330
32
100
AcDbVisualStyle
  2
Realistic
 70
     8
 71
     2
 72
     2
 73
     0
 90
        0
 40
-0.6
 41
-30.0
 62
     5
 63
     7
 74
     1
 91
        0
 64
     7
 65
   257
 75
     1
175
     1
 42
1.0
 92
        8
 66
     8
 43
1.0
 76
     1
 77
     6
 78
     2
 67
     7
 79
     5
170
     0
171
     0
290
     0
174
     0
 93
       13
 44
0.0
173
     0
291
     0
 45
0.0
1001
ACAD
1000
AcDbSavedByObjectVersion
1070
     0
  0
VISUALSTYLE
  5
2A9
102
{ACAD_REACTORS
330
32
102
}
330
32
100
AcDbVisualStyle
  2
Thicken
 70
    13
 71
     2
 72
     2
 73
     0
 90
        0
 40
-0.6
 41
-30.0
 62
     5
 63
     7
421
 16777215
 74
     1
 91
        4
 64
     7
 65
   257
 75
     1
175
     1
 42
1.0
 92
       12
 66
     7
 43
1.0
 76
     1
 77
     6
 78
     2
 67
     7
 79
     5
170
     0
171
     0
290
     0
174
     0
 93
        1
 44
0.0
173
     0
291
     1
 45
0.0
1001
ACAD
1000
AcDbSavedByObjectVersion
1070
     0
  0
DICTIONARYVAR
  5
29A
102
{ACAD_REACTORS
330
296
102
}
330
296
100
DictionaryVariables
280
     0
  1
1:1
  0
DICTIONARYVAR
  5
298
102
{ACAD_REACTORS
330
296
102
}
330
296
100
DictionaryVariables
280
     0
  1
STANDARD
  0
DICTIONARYVAR
  5
297
102
{ACAD_REACTORS
330
296
102
}
330
296
100
DictionaryVariables
280
     0
  1
STANDARD
  0
DICTIONARYVAR
  5
29E
102
{ACAD_REACTORS
330
296
102
}
330
296
100
DictionaryVariables
280
     0
  1
2
  0
DICTIONARYVAR
  5
29D
102
{ACAD_REACTORS
330
296
102
}
330
296
100
DictionaryVariables
280
     0
  1
1
  0
DICTIONARYVAR
  5
29C
102
{ACAD_REACTORS
330
296
102
}
330
296
100
DictionaryVariables
280
     0
  1
0
  0
DICTIONARYVAR
  5
2B5
102
{ACAD_REACTORS
330
296
102
}
330
296
100
DictionaryVariables
280
     0
  1
0
  0
DICTIONARYVAR
  5
299
102
{ACAD_REACTORS
330
296
102
}
330
296
100
DictionaryVariables
280
     0
  1
1
  0
DICTIONARYVAR
  5
29B
102
{ACAD_REACTORS
330
296
102
}
330
296
100
DictionaryVariables
280
     0
  1
127
  0
DICTIONARY
  5
52
330
51
100
AcDbDictionary
280
     1
281
     1
  3
ACAD_XREC_ROUNDTRIP
360
2DC
  3
BUMPTILE
360
53
  3
DIFFUSETILE
360
54
  3
OPACITYTILE
360
55
  3
REFLECTIONTILE
360
56
  3
REFRACTIONTILE
360
57
  3
SPECULARTILE
360
58
  0
DICTIONARY
  5
4A
330
49
100
AcDbDictionary
280
     1
281
     1
  3
ACAD_XREC_ROUNDTRIP
360
2DB
  3
BUMPTILE
360
4B
  3
DIFFUSETILE
360
4C
  3
OPACITYTILE
360
4D
  3
REFLECTIONTILE
360
4E
  3
REFRACTIONTILE
360
4F
  3
SPECULARTILE
360
50
  0
DICTIONARY
  5
F
330
D
100
AcDbDictionary
280
     1
281
     1
  3
ACAD_XREC_ROUNDTRIP
360
2DA
  3
BUMPTILE
360
10
  3
DIFFUSETILE
360
11
  3
OPACITYTILE
360
12
  3
REFLECTIONTILE
360
13
  3
REFRACTIONTILE
360
14
  3
SPECULARTILE
360
15
  0
DICTIONARY
  5
61
330
60
100
AcDbDictionary
280
     1
281
     1
  3
ACAD_ROUNDTRIP_2008_TABLESTYLE_CELLSTYLEMAP
360
2D5
  3
ACAD_XREC_ROUNDTRIP
360
2DD
  0
XRECORD
  5
2DC
102
{ACAD_REACTORS
330
52
102
}
330
52
100
AcDbXrecord
280
     1
102
MATERIAL
148
0.0
149
0.0
149
0.0
 93
        0
 94
      127
282
     0
 72
     0
 77
     0
171
     0
175
     0
179
     0
273
     0
  0
XRECORD
  5
53
102
{ACAD_REACTORS
330
52
102
}
330
52
100
AcDbXrecord
280
     1
270
     1
271
     1
  0
XRECORD
  5
54
102
{ACAD_REACTORS
330
52
102
}
330
52
100
AcDbXrecord
280
     1
270
     1
271
     1
  0
XRECORD
  5
55
102
{ACAD_REACTORS
330
52
102
}
330
52
100
AcDbXrecord
280
     1
270
     1
271
     1
  0
XRECORD
  5
56
102
{ACAD_REACTORS
330
52
102
}
330
52
100
AcDbXrecord
280
     1
270
     1
271
     1
  0
XRECORD
  5
57
102
{ACAD_REACTORS
330
52
102
}
330
52
100
AcDbXrecord
280
     1
270
     1
271
     1
  0
XRECORD
  5
58
102
{ACAD_REACTORS
330
52
102
}
330
52
100
AcDbXrecord
280
     1
270
     1
271
     1
  0
XRECORD
  5
2DB
102
{ACAD_REACTORS
330
4A
102
}
330
4A
100
AcDbXrecord
280
     1
102
MATERIAL
148
0.0
149
0.0
149
0.0
 93
        0
 94
      127
282
     0
 72
     0
 77
     0
171
     0
175
     0
179
     0
273
     0
  0
XRECORD
  5
4B
102
{ACAD_REACTORS
330
4A
102
}
330
4A
100
AcDbXrecord
280
     1
270
     1
271
     1
  0
XRECORD
  5
4C
102
{ACAD_REACTORS
330
4A
102
}
330
4A
100
AcDbXrecord
280
     1
270
     1
271
     1
  0
XRECORD
  5
4D
102
{ACAD_REACTORS
330
4A
102
}
330
4A
100
AcDbXrecord
280
     1
270
     1
271
     1
  0
XRECORD
  5
4E
102
{ACAD_REACTORS
330
4A
102
}
330
4A
100
AcDbXrecord
280
     1
270
     1
271
     1
  0
XRECORD
  5
4F
102
{ACAD_REACTORS
330
4A
102
}
330
4A
100
AcDbXrecord
280
     1
270
     1
271
     1
  0
XRECORD
  5
50
102
{ACAD_REACTORS
330
4A
102
}
330
4A
100
AcDbXrecord
280
     1
270
     1
271
     1
  0
XRECORD
  5
2DA
102
{ACAD_REACTORS
330
F
102
}
330
F
100
AcDbXrecord
280
     1
102
MATERIAL
148
0.0
149
0.0
149
0.0
 93
        0
 94
      127
282
     0
 72
     0
 77
     0
171
     0
175
     0
179
     0
273
     0
  0
XRECORD
  5
10
102
{ACAD_REACTORS
330
F
102
}
330
F
100
AcDbXrecord
280
     1
270
     1
271
     1
  0
XRECORD
  5
11
102
{ACAD_REACTORS
330
F
102
}
330
F
100
AcDbXrecord
280
     1
270
     1
271
     1
  0
XRECORD
  5
12
102
{ACAD_REACTORS
330
F
102
}
330
F
100
AcDbXrecord
280
     1
270
     1
271
     1
  0
XRECORD
  5
13
102
{ACAD_REACTORS
330
F
102
}
330
F
100
AcDbXrecord
280
     1
270
     1
271
     1
  0
XRECORD
  5
14
102
{ACAD_REACTORS
330
F
102
}
330
F
100
AcDbXrecord
280
     1
270
     1
271
     1
  0
XRECORD
  5
15
102
{ACAD_REACTORS
330
F
102
}
330
F
100
AcDbXrecord
280
     1
270
     1
271
     1
  0
CELLSTYLEMAP
  5
2D5
102
{ACAD_REACTORS
330
61
102
}
330
61
100
AcDbCellStyleMap
 90
        3
300
CELLSTYLE
  1
TABLEFORMAT_BEGIN
 90
        5
170
     1
 91
        0
 92
    32768
 62
   257
 93
        1
300
CONTENTFORMAT
  1
CONTENTFORMAT_BEGIN
 90
        0
 91
        0
 92
      512
 93
        0
300

 40
0.0
140
1.0
 94
        5
 62
     0
340
28
144
0.25
309
CONTENTFORMAT_END
171
     1
301
MARGIN
  1
CELLMARGIN_BEGIN
 40
0.06
 40
0.06
 40
0.06
 40
0.06
 40
0.18
 40
0.18
309
CELLMARGIN_END
 94
        6
 95
        1
302
GRIDFORMAT
  1
GRIDFORMAT_BEGIN
 90
        0
 91
        1
 62
     0
 92
       -2
340
0
 93
        0
 40
0.045
309
GRIDFORMAT_END
 95
        2
302
GRIDFORMAT
  1
GRIDFORMAT_BEGIN
 90
        0
 91
        1
 62
     0
 92
       -2
340
0
 93
        0
 40
0.045
309
GRIDFORMAT_END
 95
        4
302
GRIDFORMAT
  1
GRIDFORMAT_BEGIN
 90
        0
 91
        1
 62
     0
 92
       -2
340
0
 93
        0
 40
0.045
309
GRIDFORMAT_END
 95
        8
302
GRIDFORMAT
  1
GRIDFORMAT_BEGIN
 90
        0
 91
        1
 62
     0
 92
       -2
340
0
 93
        0
 40
0.045
309
GRIDFORMAT_END
 95
       16
302
GRIDFORMAT
  1
GRIDFORMAT_BEGIN
 90
        0
 91
        1
 62
     0
 92
       -2
340
0
 93
        0
 40
0.045
309
GRIDFORMAT_END
 95
       32
302
GRIDFORMAT
  1
GRIDFORMAT_BEGIN
 90
        0
 91
        1
 62
     0
 92
       -2
340
0
 93
        0
 40
0.045
309
GRIDFORMAT_END
309
TABLEFORMAT_END
  1
CELLSTYLE_BEGIN
 90
        1
 91
        1
300
_TITLE
309
CELLSTYLE_END
300
CELLSTYLE
  1
TABLEFORMAT_BEGIN
 90
        5
170
     1
 91
        0
 92
        0
 62
   257
 93
        1
300
CONTENTFORMAT
  1
CONTENTFORMAT_BEGIN
 90
        0
 91
        0
 92
      512
 93
        0
300

 40
0.0
140
1.0
 94
        5
 62
     0
340
28
144
0.18
309
CONTENTFORMAT_END
171
     1
301
MARGIN
  1
CELLMARGIN_BEGIN
 40
0.06
 40
0.06
 40
0.06
 40
0.06
 40
0.18
 40
0.18
309
CELLMARGIN_END
 94
        6
 95
        1
302
GRIDFORMAT
  1
GRIDFORMAT_BEGIN
 90
        0
 91
        1
 62
     0
 92
       -2
340
0
 93
        0
 40
0.045
309
GRIDFORMAT_END
 95
        2
302
GRIDFORMAT
  1
GRIDFORMAT_BEGIN
 90
        0
 91
        1
 62
     0
 92
       -2
340
0
 93
        0
 40
0.045
309
GRIDFORMAT_END
 95
        4
302
GRIDFORMAT
  1
GRIDFORMAT_BEGIN
 90
        0
 91
        1
 62
     0
 92
       -2
340
0
 93
        0
 40
0.045
309
GRIDFORMAT_END
 95
        8
302
GRIDFORMAT
  1
GRIDFORMAT_BEGIN
 90
        0
 91
        1
 62
     0
 92
       -2
340
0
 93
        0
 40
0.045
309
GRIDFORMAT_END
 95
       16
302
GRIDFORMAT
  1
GRIDFORMAT_BEGIN
 90
        0
 91
        1
 62
     0
 92
       -2
340
0
 93
        0
 40
0.045
309
GRIDFORMAT_END
 95
       32
302
GRIDFORMAT
  1
GRIDFORMAT_BEGIN
 90
        0
 91
        1
 62
     0
 92
       -2
340
0
 93
        0
 40
0.045
309
GRIDFORMAT_END
309
TABLEFORMAT_END
  1
CELLSTYLE_BEGIN
 90
        2
 91
        1
300
_HEADER
309
CELLSTYLE_END
300
CELLSTYLE
  1
TABLEFORMAT_BEGIN
 90
        5
170
     1
 91
        0
 92
        0
 62
   257
 93
        1
300
CONTENTFORMAT
  1
CONTENTFORMAT_BEGIN
 90
        0
 91
        0
 92
      512
 93
        0
300

 40
0.0
140
1.0
 94
        2
 62
     0
340
28
144
0.18
309
CONTENTFORMAT_END
171
     1
301
MARGIN
  1
CELLMARGIN_BEGIN
 40
0.06
 40
0.06
 40
0.06
 40
0.06
 40
0.18
 40
0.18
309
CELLMARGIN_END
 94
        6
 95
        1
302
GRIDFORMAT
  1
GRIDFORMAT_BEGIN
 90
        0
 91
        1
 62
     0
 92
       -2
340
0
 93
        0
 40
0.045
309
GRIDFORMAT_END
 95
        2
302
GRIDFORMAT
  1
GRIDFORMAT_BEGIN
 90
        0
 91
        1
 62
     0
 92
       -2
340
0
 93
        0
 40
0.045
309
GRIDFORMAT_END
 95
        4
302
GRIDFORMAT
  1
GRIDFORMAT_BEGIN
 90
        0
 91
        1
 62
     0
 92
       -2
340
0
 93
        0
 40
0.045
309
GRIDFORMAT_END
 95
        8
302
GRIDFORMAT
  1
GRIDFORMAT_BEGIN
 90
        0
 91
        1
 62
     0
 92
       -2
340
0
 93
        0
 40
0.045
309
GRIDFORMAT_END
 95
       16
302
GRIDFORMAT
  1
GRIDFORMAT_BEGIN
 90
        0
 91
        1
 62
     0
 92
       -2
340
0
 93
        0
 40
0.045
309
GRIDFORMAT_END
 95
       32
302
GRIDFORMAT
  1
GRIDFORMAT_BEGIN
 90
        0
 91
        1
 62
     0
 92
       -2
340
0
 93
        0
 40
0.045
309
GRIDFORMAT_END
309
TABLEFORMAT_END
  1
CELLSTYLE_BEGIN
 90
        3
 91
        2
300
_DATA
309
CELLSTYLE_END
  0
XRECORD
  5
2DD
102
{ACAD_REACTORS
330
61
102
}
330
61
100
AcDbXrecord
280
     1
102
ACAD_ROUNDTRIP_PRE2007_TABLESTYLE
 90
      512
 91
        0
  1

 92
      512
 93
        0
  2

 94
      512
 95
        0
  3

  0
ENDSEC
  0
EOF
