  0
SECTION
  2
HEADER
  9
$ACADVER
  1
AC1018
  9
$ACADMAINTVER
 70
   104
  9
$DWGCODEPAGE
  3
ANSI_949
  9
$LASTSAVEDBY
  1
R&D
  9
$INSBASE
 10
1087.0
 20
174.0
 30
0.0
  9
$EXTMIN
 10
1091.5
 20
17.99999956318333
 30
0.0
  9
$EXTMAX
 10
1256.771429202149
 20
169.6999995631832
 30
0.0
  9
$LIMMIN
 10
0.0
 20
0.0
  9
$LIMMAX
 10
4205.0
 20
2970.0
  9
$ORTHOMODE
 70
     0
  9
$REGENMODE
 70
     1
  9
$FILLMODE
 70
     1
  9
$QTEXTMODE
 70
     0
  9
$MIRRTEXT
 70
     1
  9
$LTSCALE
 40
5.0
  9
$ATTMODE
 70
     1
  9
$TEXTSIZE
 40
4.0
  9
$TRACEWID
 40
0.05
  9
$TEXTSTYLE
  7
GHS
  9
$CLAYER
  8
TEXT
  9
$CELTYPE
  6
ByLayer
  9
$CECOLOR
 62
   256
  9
$CELTSCALE
 40
1.0
  9
$DISPSILH
 70
     0
  9
$DIMSCALE
 40
1.0
  9
$DIMASZ
 40
4.0
  9
$DIMEXO
 40
1.0
  9
$DIMDLI
 40
1.0
  9
$DIMRND
 40
0.0
  9
$DIMDLE
 40
0.0
  9
$DIMEXE
 40
1.0
  9
$DIMTP
 40
0.0
  9
$DIMTM
 40
0.0
  9
$DIMTXT
 40
5.0
  9
$DIMCEN
 40
0.5
  9
$DIMTSZ
 40
0.0
  9
$DIMTOL
 70
     0
  9
$DIMLIM
 70
     0
  9
$DIMTIH
 70
     0
  9
$DIMTOH
 70
     0
  9
$DIMSE1
 70
     0
  9
$DIMSE2
 70
     0
  9
$DIMTAD
 70
     1
  9
$DIMZIN
 70
     8
  9
$DIMBLK
  1

  9
$DIMASO
 70
     1
  9
$DIMSHO
 70
     1
  9
$DIMPOST
  1

  9
$DIMAPOST
  1

  9
$DIMALT
 70
     0
  9
$DIMALTD
 70
     2
  9
$DIMALTF
 40
25.4
  9
$DIMLFAC
 40
1.0
  9
$DIMTOFL
 70
     1
  9
$DIMTVP
 40
0.0
  9
$DIMTIX
 70
     0
  9
$DIMSOXD
 70
     0
  9
$DIMSAH
 70
     0
  9
$DIMBLK1
  1

  9
$DIMBLK2
  1

  9
$DIMSTYLE
  2
Standard
  9
$DIMCLRD
 70
   256
  9
$DIMCLRE
 70
   256
  9
$DIMCLRT
 70
   256
  9
$DIMTFAC
 40
1.0
  9
$DIMGAP
 40
1.5
  9
$DIMJUST
 70
     0
  9
$DIMSD1
 70
     0
  9
$DIMSD2
 70
     0
  9
$DIMTOLJ
 70
     1
  9
$DIMTZIN
 70
     0
  9
$DIMALTZ
 70
     0
  9
$DIMALTTZ
 70
     0
  9
$DIMUPT
 70
     0
  9
$DIMDEC
 70
     3
  9
$DIMTDEC
 70
     3
  9
$DIMALTU
 70
     2
  9
$DIMALTTD
 70
     2
  9
$DIMTXSTY
  7
GHS
  9
$DIMAUNIT
 70
     0
  9
$DIMADEC
 70
     0
  9
$DIMALTRND
 40
0.0
  9
$DIMAZIN
 70
     0
  9
$DIMDSEP
 70
    46
  9
$DIMATFIT
 70
     3
  9
$DIMFRAC
 70
     0
  9
$DIMLDRBLK
  1

  9
$DIMLUNIT
 70
     2
  9
$DIMLWD
 70
    -1
  9
$DIMLWE
 70
    -1
  9
$DIMTMOVE
 70
     0
  9
$LUNITS
 70
     2
  9
$LUPREC
 70
     3
  9
$SKETCHINC
 40
0.1
  9
$FILLETRAD
 40
4.0
  9
$AUNITS
 70
     0
  9
$AUPREC
 70
     3
  9
$MENU
  1
acad
  9
$ELEVATION
 40
0.0
  9
$PELEVATION
 40
0.0
  9
$THICKNESS
 40
0.0
  9
$LIMCHECK
 70
     0
  9
$CHAMFERA
 40
0.0
  9
$CHAMFERB
 40
0.0
  9
$CHAMFERC
 40
0.0
  9
$CHAMFERD
 40
0.0
  9
$SKPOLY
 70
     0
  9
$TDCREATE
 40
2449855.468823958
  9
$TDUCREATE
 40
2449855.093823958
  9
$TDUPDATE
 40
2455883.638427408
  9
$TDUUPDATE
 40
2455883.263427408
  9
$TDINDWG
 40
4.0480266898
  9
$TDUSRTIMER
 40
4.0480266898
  9
$USRTIMER
 70
     1
  9
$ANGBASE
 50
0.0
  9
$ANGDIR
 70
     0
  9
$PDMODE
 70
     0
  9
$PDSIZE
 40
0.0
  9
$PLINEWID
 40
0.0
  9
$SPLFRAME
 70
     0
  9
$SPLINETYPE
 70
     6
  9
$SPLINESEGS
 70
     8
  9
$HANDSEED
  5
2CB
  9
$SURFTAB1
 70
     6
  9
$SURFTAB2
 70
     6
  9
$SURFTYPE
 70
     6
  9
$SURFU
 70
     6
  9
$SURFV
 70
     6
  9
$UCSBASE
  2

  9
$UCSNAME
  2

  9
$UCSORG
 10
0.0
 20
0.0
 30
0.0
  9
$UCSXDIR
 10
1.0
 20
0.0
 30
0.0
  9
$UCSYDIR
 10
0.0
 20
1.0
 30
0.0
  9
$UCSORTHOREF
  2

  9
$UCSORTHOVIEW
 70
     0
  9
$UCSORGTOP
 10
0.0
 20
0.0
 30
0.0
  9
$UCSORGBOTTOM
 10
0.0
 20
0.0
 30
0.0
  9
$UCSORGLEFT
 10
0.0
 20
0.0
 30
0.0
  9
$UCSORGRIGHT
 10
0.0
 20
0.0
 30
0.0
  9
$UCSORGFRONT
 10
0.0
 20
0.0
 30
0.0
  9
$UCSORGBACK
 10
0.0
 20
0.0
 30
0.0
  9
$PUCSBASE
  2

  9
$PUCSNAME
  2

  9
$PUCSORG
 10
0.0
 20
0.0
 30
0.0
  9
$PUCSXDIR
 10
1.0
 20
0.0
 30
0.0
  9
$PUCSYDIR
 10
0.0
 20
1.0
 30
0.0
  9
$PUCSORTHOREF
  2

  9
$PUCSORTHOVIEW
 70
     0
  9
$PUCSORGTOP
 10
0.0
 20
0.0
 30
0.0
  9
$PUCSORGBOTTOM
 10
0.0
 20
0.0
 30
0.0
  9
$PUCSORGLEFT
 10
0.0
 20
0.0
 30
0.0
  9
$PUCSORGRIGHT
 10
0.0
 20
0.0
 30
0.0
  9
$PUCSORGFRONT
 10
0.0
 20
0.0
 30
0.0
  9
$PUCSORGBACK
 10
0.0
 20
0.0
 30
0.0
  9
$USERI1
 70
     0
  9
$USERI2
 70
     0
  9
$USERI3
 70
     0
  9
$USERI4
 70
     0
  9
$USERI5
 70
     0
  9
$USERR1
 40
0.0
  9
$USERR2
 40
0.0
  9
$USERR3
 40
0.0
  9
$USERR4
 40
0.0
  9
$USERR5
 40
0.0
  9
$WORLDVIEW
 70
     1
  9
$SHADEDGE
 70
     3
  9
$SHADEDIF
 70
    70
  9
$TILEMODE
 70
     1
  9
$MAXACTVP
 70
    16
  9
$PINSBASE
 10
2220.404641079056
 20
50.00000000000001
 30
2810.473195709564
  9
$PLIMCHECK
 70
     0
  9
$PEXTMIN
 10
1.000000000000000E+20
 20
1.000000000000000E+20
 30
1.000000000000000E+20
  9
$PEXTMAX
 10
-1.000000000000000E+20
 20
-1.000000000000000E+20
 30
-1.000000000000000E+20
  9
$PLIMMIN
 10
0.0
 20
0.0
  9
$PLIMMAX
 10
12.0
 20
9.0
  9
$UNITMODE
 70
     0
  9
$VISRETAIN
 70
     0
  9
$PLINEGEN
 70
     0
  9
$PSLTSCALE
 70
     1
  9
$TREEDEPTH
 70
  3020
  9
$CMLSTYLE
  2
Standard
  9
$CMLJUST
 70
     0
  9
$CMLSCALE
 40
1.0
  9
$PROXYGRAPHICS
 70
     1
  9
$MEASUREMENT
 70
     0
  9
$CELWEIGHT
370
    -1
  9
$ENDCAPS
280
     0
  9
$JOINSTYLE
280
     0
  9
$LWDISPLAY
290
     0
  9
$INSUNITS
 70
     0
  9
$HYPERLINKBASE
  1

  9
$STYLESHEET
  1

  9
$XEDIT
290
     1
  9
$CEPSNTYPE
380
     0
  9
$PSTYLEMODE
290
     1
  9
$FINGERPRINTGUID
  2
{CEF46791-F519-4FBD-889C-4B3295975C82}
  9
$VERSIONGUID
  2
{09A3EB11-B4F1-4F2E-BC6C-851F0EEB31B9}
  9
$EXTNAMES
290
     1
  9
$PSVPSCALE
 40
0.0
  9
$OLESTARTUP
290
     0
  9
$SORTENTS
280
   127
  9
$INDEXCTL
280
     0
  9
$HIDETEXT
280
     1
  9
$XCLIPFRAME
290
     0
  9
$HALOGAP
280
     0
  9
$OBSCOLOR
 70
   257
  9
$OBSLTYPE
280
     0
  9
$INTERSECTIONDISPLAY
280
     0
  9
$INTERSECTIONCOLOR
 70
   257
  9
$DIMASSOC
280
     2
  9
$PROJECTNAME
  1

  0
ENDSEC
  0
SECTION
  2
CLASSES
  0
CLASS
  1
ACDBDICTIONARYWDFLT
  2
AcDbDictionaryWithDefault
  3
ObjectDBX Classes
 90
        0
 91
        1
280
     0
281
     0
  0
CLASS
  1
DICTIONARYVAR
  2
AcDbDictionaryVar
  3
ObjectDBX Classes
 90
        0
 91
        9
280
     0
281
     0
  0
CLASS
  1
DIMASSOC
  2
AcDbDimAssoc
  3
"AcDbDimAssoc|Product Desc:     AcDim ARX App For Dimension|Company:          Autodesk, Inc.|WEB Address:      www.autodesk.com"
 90
        0
 91
        0
280
     0
281
     0
  0
CLASS
  1
MATERIAL
  2
AcDbMaterial
  3
ObjectDBX Classes
 90
     1153
 91
        3
280
     0
281
     0
  0
CLASS
  1
VISUALSTYLE
  2
AcDbVisualStyle
  3
ObjectDBX Classes
 90
     4095
 91
       16
280
     0
281
     0
  0
CLASS
  1
TABLESTYLE
  2
AcDbTableStyle
  3
ObjectDBX Classes
 90
     4095
 91
        1
280
     0
281
     0
  0
CLASS
  1
SCALE
  2
AcDbScale
  3
ObjectDBX Classes
 90
     1153
 91
       34
280
     0
281
     0
  0
CLASS
  1
MLEADERSTYLE
  2
AcDbMLeaderStyle
  3
ACDB_MLEADERSTYLE_CLASS
 90
     4095
 91
        1
280
     0
281
     0
  0
CLASS
  1
CELLSTYLEMAP
  2
AcDbCellStyleMap
  3
ObjectDBX Classes
 90
     1152
 91
        2
280
     0
281
     0
  0
CLASS
  1
SORTENTSTABLE
  2
AcDbSortentsTable
  3
ObjectDBX Classes
 90
        0
 91
        1
280
     0
281
     0
  0
CLASS
  1
ACDB_TEXTOBJECTCONTEXTDATA_CLASS
  2
AcDbTextObjectContextData
  3
ObjectDBX Classes
 90
     1153
 91
        0
280
     0
281
     0
  0
CLASS
  1
SOLID_BACKGROUND
  2
AcDbSolidBackground
  3
SCENEOE
 90
     4095
 91
        0
280
     0
281
     0
  0
CLASS
  1
NPOCOLLECTION
  2
AcDbImpNonPersistentObjectsCollection
  3
ObjectDBX Classes
 90
     1153
 91
        0
280
     0
281
     0
  0
ENDSEC
  0
SECTION
  2
TABLES
  0
TABLE
  2
VPORT
  5
2F
102
{ACAD_XDICTIONARY
360
33
102
}
330
0
100
AcDbSymbolTable
 70
     1
  0
VPORT
  5
30
330
2F
100
AcDbSymbolTableRecord
100
AcDbViewportTableRecord
  2
*Active
 70
     0
 10
0.0
 20
0.0
 11
1.0
 21
1.0
 12
1174.267636990253
 22
93.88672564631134
 13
0.0
 23
0.0
 14
1.0
 24
1.0
 15
0.0
 25
0.0
 16
0.0
 26
0.0
 36
1.0
 17
0.0
 27
0.0
 37
0.0
 40
169.9033886652943
 41
1.889
 42
50.0
 43
0.0
 44
0.0
 50
0.0
 51
0.0
 71
     0
 72
 10000
 73
     1
 74
     0
 75
     0
 76
     0
 77
     0
 78
     0
281
     0
 65
     1
110
0.0
120
0.0
130
0.0
111
1.0
121
0.0
131
0.0
112
0.0
122
1.0
132
0.0
 79
     0
146
0.0
  0
ENDTAB
  0
TABLE
  2
LTYPE
  5
2A
330
0
100
AcDbSymbolTable
 70
     2
  0
LTYPE
  5
2B
330
2A
100
AcDbSymbolTableRecord
100
AcDbLinetypeTableRecord
  2
ByBlock
 70
     0
  3

 72
    65
 73
     0
 40
0.0
  0
LTYPE
  5
2C
330
2A
100
AcDbSymbolTableRecord
100
AcDbLinetypeTableRecord
  2
ByLayer
 70
     0
  3

 72
    65
 73
     0
 40
0.0
  0
LTYPE
  5
16
330
2A
100
AcDbSymbolTableRecord
100
AcDbLinetypeTableRecord
  2
CONTINUOUS
 70
     0
  3
Solid line
 72
    65
 73
     0
 40
0.0
  0
LTYPE
  5
8D
330
2A
100
AcDbSymbolTableRecord
100
AcDbLinetypeTableRecord
  2
CENTER
 70
     0
  3
____ _ ____ _ ____ _ ____ _ ____ _ ____ _ ____ 
 72
    65
 73
     4
 40
2.0
 49
1.25
 74
     0
 49
-0.25
 74
     0
 49
0.25
 74
     0
 49
-0.25
 74
     0
  0
ENDTAB
  0
TABLE
  2
LAYER
  5
21
102
{ACAD_XDICTIONARY
360
22
102
}
330
0
100
AcDbSymbolTable
 70
     4
  0
LAYER
  5
7
102
{ACAD_XDICTIONARY
360
8
102
}
330
21
100
AcDbSymbolTableRecord
100
AcDbLayerTableRecord
  2
0
 70
     0
 62
     7
  6
CONTINUOUS
370
    -3
390
A
  0
LAYER
  5
8A
102
{ACAD_XDICTIONARY
360
8B
102
}
330
21
100
AcDbSymbolTableRecord
100
AcDbLayerTableRecord
  2
CL
 70
     0
 62
     1
  6
CENTER
370
    -3
390
A
  0
LAYER
  5
FE
330
21
100
AcDbSymbolTableRecord
100
AcDbLayerTableRecord
  2
DEFPOINTS
 70
     0
 62
     7
  6
CONTINUOUS
290
     0
370
    -3
390
A
  0
LAYER
  5
5C
102
{ACAD_XDICTIONARY
360
5D
102
}
330
21
100
AcDbSymbolTableRecord
100
AcDbLayerTableRecord
  2
TEXT
 70
     0
 62
    84
  6
CONTINUOUS
370
    -3
390
A
  0
ENDTAB
  0
TABLE
  2
STYLE
  5
27
330
0
100
AcDbSymbolTable
 70
     2
  0
STYLE
  5
28
330
27
100
AcDbSymbolTableRecord
100
AcDbTextStyleTableRecord
  2
STANDARD
 70
     0
 40
0.0
 41
0.8
 50
0.0
 71
     0
 42
4.0
  3
TXT.shx
  4

  0
STYLE
  5
37
330
27
100
AcDbSymbolTableRecord
100
AcDbTextStyleTableRecord
  2
GHS
 70
     0
 40
0.0
 41
0.6
 50
0.0
 71
     0
 42
4.0
  3
ROMANS
  4
GHS
  0
ENDTAB
  0
TABLE
  2
VIEW
  5
2D
330
0
100
AcDbSymbolTable
 70
     0
  0
ENDTAB
  0
TABLE
  2
UCS
  5
2E
330
0
100
AcDbSymbolTable
 70
     0
  0
ENDTAB
  0
TABLE
  2
APPID
  5
34
330
0
100
AcDbSymbolTable
 70
    10
  0
APPID
  5
26
330
34
100
AcDbSymbolTableRecord
100
AcDbRegAppTableRecord
  2
ACAD
 70
     0
  0
APPID
  5
38
330
34
100
AcDbSymbolTableRecord
100
AcDbRegAppTableRecord
  2
ACAD_DSTYLE_DIMJAG
 70
     0
  0
APPID
  5
39
330
34
100
AcDbSymbolTableRecord
100
AcDbRegAppTableRecord
  2
ACAD_DSTYLE_DIMTALN
 70
     0
  0
APPID
  5
1A
330
34
100
AcDbSymbolTableRecord
100
AcDbRegAppTableRecord
  2
ACAD_PSEXT
 70
     0
  0
APPID
  5
42
330
34
100
AcDbSymbolTableRecord
100
AcDbRegAppTableRecord
  2
ACAD_DSTYLE_DIMBREAK
 70
     0
  0
APPID
  5
27C
330
34
100
AcDbSymbolTableRecord
100
AcDbRegAppTableRecord
  2
ACAD_DSTYLE_DIM_LINETYPE
 70
     0
  0
APPID
  5
27D
330
34
100
AcDbSymbolTableRecord
100
AcDbRegAppTableRecord
  2
ACAD_DSTYLE_DIM_EXT1_LINETYPE
 70
     0
  0
APPID
  5
27E
330
34
100
AcDbSymbolTableRecord
100
AcDbRegAppTableRecord
  2
ACAD_DSTYLE_DIM_EXT2_LINETYPE
 70
     0
  0
APPID
  5
29F
330
34
100
AcDbSymbolTableRecord
100
AcDbRegAppTableRecord
  2
ACAD_MLEADERVER
 70
     0
  0
APPID
  5
2A4
330
34
100
AcDbSymbolTableRecord
100
AcDbRegAppTableRecord
  2
ACAD_DSTYLE_DIMRADIAL_EXTENSION
 70
     0
  0
ENDTAB
  0
TABLE
  2
DIMSTYLE
  5
35
330
0
100
AcDbSymbolTable
 70
     5
100
AcDbDimStyleTable
 71
     5
340
36
340
3A
340
3B
340
43
340
44
  0
DIMSTYLE
105
36
330
35
100
AcDbSymbolTableRecord
100
AcDbDimStyleTableRecord
  2
Standard
 70
     0
 41
4.0
 42
1.0
 43
1.0
 44
1.0
 73
     0
 74
     0
 77
     1
 78
     8
140
5.0
141
0.5
147
1.5
172
     1
176
   256
177
   256
178
   256
271
     3
272
     3
340
37
371
    -1
372
    -1
1001
ACAD_DSTYLE_DIMJAG
1070
   388
1040
1.5
1001
ACAD_DSTYLE_DIMTALN
1070
   392
1070
     0
1001
ACAD_DSTYLE_DIM_LINETYPE
1070
   380
1005
2C
1001
ACAD_DSTYLE_DIM_EXT1_LINETYPE
1070
   381
1005
2C
1001
ACAD_DSTYLE_DIM_EXT2_LINETYPE
1070
   382
1005
2C
  0
DIMSTYLE
105
3A
102
{ACAD_REACTORS
330
25A
330
246
330
239
330
223
330
214
330
205
330
1F8
330
1EB
330
1E7
330
152
330
145
330
138
330
12B
330
11E
330
10F
330
102
330
F4
102
}
330
35
100
AcDbSymbolTableRecord
100
AcDbDimStyleTableRecord
  2
ISO-25
 70
     0
 41
4.0
 42
2.0
 43
1.0
 44
1.0
 73
     0
 74
     0
 77
     1
 78
     8
 79
     2
140
4.0
141
0.5
143
0.03937007874016
147
1.5
171
     3
172
     1
176
   256
177
   256
178
   256
179
     4
271
     3
272
     3
274
     3
283
     0
284
     8
340
37
371
    -1
372
    -1
1001
ACAD_DSTYLE_DIMJAG
1070
   388
1040
1.5
1001
ACAD_DSTYLE_DIMTALN
1070
   392
1070
     0
1001
ACAD_DSTYLE_DIM_LINETYPE
1070
   380
1005
2C
1001
ACAD_DSTYLE_DIM_EXT1_LINETYPE
1070
   381
1005
2C
1001
ACAD_DSTYLE_DIM_EXT2_LINETYPE
1070
   382
1005
2C
  0
DIMSTYLE
105
43
330
35
100
AcDbSymbolTableRecord
100
AcDbDimStyleTableRecord
  2
2X
 70
     0
 41
3.0
 42
1.0
 43
1.0
 44
1.0
 73
     0
 74
     0
 77
     1
 78
     8
 79
     2
140
3.0
141
0.5
144
0.5
147
1.0
172
     1
176
   256
177
   256
178
   256
179
     3
271
     3
272
     3
340
37
371
    -1
372
    -1
1001
ACAD_DSTYLE_DIMBREAK
1070
   391
1040
0.125
1001
ACAD_DSTYLE_DIMJAG
1070
   388
1040
1.5
1001
ACAD_DSTYLE_DIMTALN
1070
   392
1070
     0
1001
ACAD_DSTYLE_DIM_LINETYPE
1070
   380
1005
2C
1001
ACAD_DSTYLE_DIM_EXT1_LINETYPE
1070
   381
1005
2C
1001
ACAD_DSTYLE_DIM_EXT2_LINETYPE
1070
   382
1005
2C
  0
DIMSTYLE
105
44
330
35
100
AcDbSymbolTableRecord
100
AcDbDimStyleTableRecord
  2
1X
 70
     0
 41
3.0
 42
1.0
 43
1.0
 44
1.0
 73
     0
 74
     0
 77
     1
 78
     8
140
3.0
141
0.5
147
1.0
172
     1
176
   256
177
   256
178
   256
271
     3
272
     3
340
37
371
    -1
372
    -1
1001
ACAD_DSTYLE_DIMBREAK
1070
   391
1040
0.125
1001
ACAD_DSTYLE_DIMJAG
1070
   388
1040
1.5
1001
ACAD_DSTYLE_DIMTALN
1070
   392
1070
     0
1001
ACAD_DSTYLE_DIM_LINETYPE
1070
   380
1005
2C
1001
ACAD_DSTYLE_DIM_EXT1_LINETYPE
1070
   381
1005
2C
1001
ACAD_DSTYLE_DIM_EXT2_LINETYPE
1070
   382
1005
2C
  0
DIMSTYLE
105
3B
330
35
100
AcDbSymbolTableRecord
100
AcDbDimStyleTableRecord
  2
CATALOG
 70
     0
 41
2.5
 42
1.0
 43
1.0
 44
1.0
 73
     0
 74
     0
 77
     1
 78
     8
 79
     2
140
3.0
141
0.5
147
1.0
172
     1
176
   256
177
   256
178
   256
179
     3
271
     3
272
     3
340
37
342
3C
371
    -1
372
    -1
1001
ACAD_DSTYLE_DIMBREAK
1070
   391
1040
0.125
1001
ACAD_DSTYLE_DIMJAG
1070
   388
1040
1.5
1001
ACAD_DSTYLE_DIMTALN
1070
   392
1070
     0
1001
ACAD_DSTYLE_DIM_LINETYPE
1070
   380
1005
2C
1001
ACAD_DSTYLE_DIM_EXT1_LINETYPE
1070
   381
1005
2C
1001
ACAD_DSTYLE_DIM_EXT2_LINETYPE
1070
   382
1005
2C
  0
ENDTAB
  0
TABLE
  2
BLOCK_RECORD
  5
1
330
0
100
AcDbSymbolTable
 70
    17
  0
BLOCK_RECORD
  5
2
102
{ACAD_XDICTIONARY
360
3
102
}
330
1
100
AcDbSymbolTableRecord
100
AcDbBlockTableRecord
  2
*Model_Space
340
18
  0
BLOCK_RECORD
  5
1B
102
{ACAD_XDICTIONARY
360
1C
102
}
330
1
100
AcDbSymbolTableRecord
100
AcDbBlockTableRecord
  2
*Paper_Space
340
20
  0
BLOCK_RECORD
  5
25B
330
1
100
AcDbSymbolTableRecord
100
AcDbBlockTableRecord
  2
*D0
340
0
  0
BLOCK_RECORD
  5
F5
330
1
100
AcDbSymbolTableRecord
100
AcDbBlockTableRecord
  2
*D1
340
0
  0
BLOCK_RECORD
  5
103
330
1
100
AcDbSymbolTableRecord
100
AcDbBlockTableRecord
  2
*D2
340
0
  0
BLOCK_RECORD
  5
110
330
1
100
AcDbSymbolTableRecord
100
AcDbBlockTableRecord
  2
*D3
340
0
  0
BLOCK_RECORD
  5
11F
330
1
100
AcDbSymbolTableRecord
100
AcDbBlockTableRecord
  2
*D4
340
0
  0
BLOCK_RECORD
  5
12C
330
1
100
AcDbSymbolTableRecord
100
AcDbBlockTableRecord
  2
*D5
340
0
  0
BLOCK_RECORD
  5
139
330
1
100
AcDbSymbolTableRecord
100
AcDbBlockTableRecord
  2
*D6
340
0
  0
BLOCK_RECORD
  5
146
330
1
100
AcDbSymbolTableRecord
100
AcDbBlockTableRecord
  2
*D7
340
0
  0
BLOCK_RECORD
  5
153
330
1
100
AcDbSymbolTableRecord
100
AcDbBlockTableRecord
  2
*D8
340
0
  0
BLOCK_RECORD
  5
1EC
330
1
100
AcDbSymbolTableRecord
100
AcDbBlockTableRecord
  2
*D9
340
0
  0
BLOCK_RECORD
  5
1F9
330
1
100
AcDbSymbolTableRecord
100
AcDbBlockTableRecord
  2
*D10
340
0
  0
BLOCK_RECORD
  5
206
330
1
100
AcDbSymbolTableRecord
100
AcDbBlockTableRecord
  2
*D11
340
0
  0
BLOCK_RECORD
  5
215
330
1
100
AcDbSymbolTableRecord
100
AcDbBlockTableRecord
  2
*D12
340
0
  0
BLOCK_RECORD
  5
224
330
1
100
AcDbSymbolTableRecord
100
AcDbBlockTableRecord
  2
*D13
340
0
  0
BLOCK_RECORD
  5
23A
330
1
100
AcDbSymbolTableRecord
100
AcDbBlockTableRecord
  2
*D14
340
0
  0
BLOCK_RECORD
  5
247
330
1
100
AcDbSymbolTableRecord
100
AcDbBlockTableRecord
  2
*D15
340
0
  0
BLOCK_RECORD
  5
3C
330
1
100
AcDbSymbolTableRecord
100
AcDbBlockTableRecord
  2
_Open30
340
0
  0
ENDTAB
  0
ENDSEC
  0
SECTION
  2
BLOCKS
  0
BLOCK
  5
6
330
2
100
AcDbEntity
  8
0
100
AcDbBlockBegin
  2
*Model_Space
 70
     0
 10
0.0
 20
0.0
 30
0.0
  3
*Model_Space
  1

  0
ENDBLK
  5
17
330
2
100
AcDbEntity
  8
0
100
AcDbBlockEnd
  0
BLOCK
  5
1E
330
1B
100
AcDbEntity
 67
     1
  8
0
100
AcDbBlockBegin
  2
*Paper_Space
 70
     0
 10
0.0
 20
0.0
 30
0.0
  3
*Paper_Space
  1

  0
ENDBLK
  5
1F
330
1B
100
AcDbEntity
 67
     1
  8
0
100
AcDbBlockEnd
  0
BLOCK
  5
25C
330
25B
100
AcDbEntity
  8
0
100
AcDbBlockBegin
  2
*D0
 70
     1
 10
0.0
 20
0.0
 30
0.0
  3
*D0
  1

  0
LINE
  5
25D
330
25B
100
AcDbEntity
  8
TEXT
100
AcDbLine
 10
1236.000000630722
 20
114.2999995631835
 30
0.0
 11
1236.000000630722
 21
99.99999956318333
 31
0.0
  0
LINE
  5
25E
330
25B
100
AcDbEntity
  8
TEXT
100
AcDbLine
 10
1242.000000630721
 20
114.2999995631826
 30
0.0
 11
1242.000000630721
 21
99.99999956318333
 31
0.0
  0
LINE
  5
25F
330
25B
100
AcDbEntity
  8
TEXT
100
AcDbLine
 10
1232.000000630722
 20
100.9999995631833
 30
0.0
 11
1228.000000630722
 21
100.9999995631833
 31
0.0
  0
LINE
  5
260
330
25B
100
AcDbEntity
  8
TEXT
100
AcDbLine
 10
1246.000000630721
 20
100.9999995631833
 30
0.0
 11
1256.771429202149
 21
100.9999995631833
 31
0.0
  0
LINE
  5
261
330
25B
100
AcDbEntity
  8
TEXT
100
AcDbLine
 10
1236.000000630722
 20
100.9999995631833
 30
0.0
 11
1242.000000630721
 21
100.9999995631833
 31
0.0
  0
SOLID
  5
262
330
25B
100
AcDbEntity
  8
TEXT
100
AcDbTrace
 10
1232.000000630722
 20
101.66666622985
 30
0.0
 11
1232.000000630722
 21
100.3333328965166
 31
0.0
 12
1236.000000630722
 22
100.9999995631833
 32
0.0
 13
1236.000000630722
 23
100.9999995631833
 33
0.0
  0
SOLID
  5
263
330
25B
100
AcDbEntity
  8
TEXT
100
AcDbTrace
 10
1246.000000630721
 20
101.66666622985
 30
0.0
 11
1246.000000630721
 21
100.3333328965166
 31
0.0
 12
1242.000000630721
 22
100.9999995631833
 32
0.0
 13
1242.000000630721
 23
100.9999995631833
 33
0.0
  0
MTEXT
  5
264
330
25B
100
AcDbEntity
  8
TEXT
100
AcDbMText
 10
1253.385714916435
 20
104.4999995631833
 30
0.0
 40
4.0
 41
0.0
 71
     5
 72
     1
  1
%%C6
  7
GHS
 73
     1
 44
1.0
  0
POINT
  5
265
330
25B
100
AcDbEntity
  8
DEFPOINTS
 62
     0
100
AcDbPoint
 10
1236.000000630722
 20
116.2999995631835
 30
0.0
  0
POINT
  5
266
330
25B
100
AcDbEntity
  8
DEFPOINTS
 62
     0
100
AcDbPoint
 10
1242.000000630721
 20
116.2999995631826
 30
0.0
  0
POINT
  5
267
330
25B
100
AcDbEntity
  8
DEFPOINTS
 62
     0
100
AcDbPoint
 10
1242.000000630721
 20
100.9999995631833
 30
0.0
  0
ENDBLK
  5
268
330
25B
100
AcDbEntity
  8
0
100
AcDbBlockEnd
  0
BLOCK
  5
F6
330
F5
100
AcDbEntity
  8
0
100
AcDbBlockBegin
  2
*D1
 70
     1
 10
0.0
 20
0.0
 30
0.0
  3
*D1
  1

  0
LINE
  5
F7
330
F5
100
AcDbEntity
  8
TEXT
100
AcDbLine
 10
1187.000000630722
 20
47.29999956318329
 30
0.0
 11
1204.000000630722
 21
47.29999956318328
 31
0.0
  0
LINE
  5
F8
330
F5
100
AcDbEntity
  8
TEXT
100
AcDbLine
 10
1187.000000630722
 20
65.29999956318329
 30
0.0
 11
1204.000000630722
 21
65.29999956318329
 31
0.0
  0
LINE
  5
F9
330
F5
100
AcDbEntity
  8
TEXT
100
AcDbLine
 10
1203.000000630722
 20
51.29999956318329
 30
0.0
 11
1203.000000630722
 21
61.29999956318329
 31
0.0
  0
SOLID
  5
FA
330
F5
100
AcDbEntity
  8
TEXT
100
AcDbTrace
 10
1202.333333964055
 20
51.29999956318329
 30
0.0
 11
1203.666667297389
 21
51.29999956318329
 31
0.0
 12
1203.000000630722
 22
47.29999956318328
 32
0.0
 13
1203.000000630722
 23
47.29999956318328
 33
0.0
  0
SOLID
  5
FB
330
F5
100
AcDbEntity
  8
TEXT
100
AcDbTrace
 10
1202.333333964055
 20
61.29999956318329
 30
0.0
 11
1203.666667297389
 21
61.29999956318329
 31
0.0
 12
1203.000000630722
 22
65.29999956318329
 32
0.0
 13
1203.000000630722
 23
65.29999956318329
 33
0.0
  0
MTEXT
  5
FC
330
F5
100
AcDbEntity
  8
TEXT
100
AcDbMText
 10
1199.500000630722
 20
56.29999956318349
 30
0.0
 40
4.0
 41
0.0
 71
     5
 72
     1
  1
18
  7
GHS
 11
0.0000000000000001
 21
1.0
 31
0.0
 73
     1
 44
1.0
  0
POINT
  5
FD
330
F5
100
AcDbEntity
  8
DEFPOINTS
 62
     0
100
AcDbPoint
 10
1185.000000630722
 20
47.29999956318329
 30
0.0
  0
POINT
  5
FF
330
F5
100
AcDbEntity
  8
DEFPOINTS
 62
     0
100
AcDbPoint
 10
1185.000000630722
 20
65.29999956318329
 30
0.0
  0
POINT
  5
100
330
F5
100
AcDbEntity
  8
DEFPOINTS
 62
     0
100
AcDbPoint
 10
1203.000000630722
 20
65.29999956318329
 30
0.0
  0
ENDBLK
  5
101
330
F5
100
AcDbEntity
  8
0
100
AcDbBlockEnd
  0
BLOCK
  5
104
330
103
100
AcDbEntity
  8
0
100
AcDbBlockBegin
  2
*D2
 70
     1
 10
0.0
 20
0.0
 30
0.0
  3
*D2
  1

  0
LINE
  5
105
330
103
100
AcDbEntity
  8
TEXT
100
AcDbLine
 10
1186.000000630722
 20
40.29999956318306
 30
0.0
 11
1214.000000630722
 21
40.29999956318305
 31
0.0
  0
LINE
  5
106
330
103
100
AcDbEntity
  8
TEXT
100
AcDbLine
 10
1186.000000630722
 20
72.29999956318329
 30
0.0
 11
1214.000000630722
 21
72.29999956318329
 31
0.0
  0
LINE
  5
107
330
103
100
AcDbEntity
  8
TEXT
100
AcDbLine
 10
1213.000000630722
 20
44.29999956318305
 30
0.0
 11
1213.000000630722
 21
68.29999956318329
 31
0.0
  0
SOLID
  5
108
330
103
100
AcDbEntity
  8
TEXT
100
AcDbTrace
 10
1212.333333964055
 20
44.29999956318305
 30
0.0
 11
1213.666667297389
 21
44.29999956318305
 31
0.0
 12
1213.000000630722
 22
40.29999956318305
 32
0.0
 13
1213.000000630722
 23
40.29999956318305
 33
0.0
  0
SOLID
  5
109
330
103
100
AcDbEntity
  8
TEXT
100
AcDbTrace
 10
1212.333333964055
 20
68.29999956318329
 30
0.0
 11
1213.666667297389
 21
68.29999956318329
 31
0.0
 12
1213.000000630722
 22
72.29999956318329
 32
0.0
 13
1213.000000630722
 23
72.29999956318329
 33
0.0
  0
MTEXT
  5
10A
330
103
100
AcDbEntity
  8
TEXT
100
AcDbMText
 10
1209.500000630722
 20
56.29999956318338
 30
0.0
 40
4.0
 41
0.0
 71
     5
 72
     1
  1
32
  7
GHS
 11
0.0000000000000001
 21
1.0
 31
0.0
 73
     1
 44
1.0
  0
POINT
  5
10B
330
103
100
AcDbEntity
  8
DEFPOINTS
 62
     0
100
AcDbPoint
 10
1184.000000630722
 20
40.29999956318306
 30
0.0
  0
POINT
  5
10C
330
103
100
AcDbEntity
  8
DEFPOINTS
 62
     0
100
AcDbPoint
 10
1184.000000630722
 20
72.29999956318329
 30
0.0
  0
POINT
  5
10D
330
103
100
AcDbEntity
  8
DEFPOINTS
 62
     0
100
AcDbPoint
 10
1213.000000630722
 20
72.29999956318329
 30
0.0
  0
ENDBLK
  5
10E
330
103
100
AcDbEntity
  8
0
100
AcDbBlockEnd
  0
BLOCK
  5
111
330
110
100
AcDbEntity
  8
0
100
AcDbBlockBegin
  2
*D3
 70
     1
 10
0.0
 20
0.0
 30
0.0
  3
*D3
  1

  0
LINE
  5
112
330
110
100
AcDbEntity
  8
TEXT
100
AcDbLine
 10
1180.000000630722
 20
40.29999956318329
 30
0.0
 11
1180.000000630722
 21
26.99999956318334
 31
0.0
  0
LINE
  5
113
330
110
100
AcDbEntity
  8
TEXT
100
AcDbLine
 10
1186.000000630722
 20
40.29999956318306
 30
0.0
 11
1186.000000630722
 21
26.99999956318334
 31
0.0
  0
LINE
  5
114
330
110
100
AcDbEntity
  8
TEXT
100
AcDbLine
 10
1176.000000630722
 20
27.99999956318334
 30
0.0
 11
1172.000000630722
 21
27.99999956318334
 31
0.0
  0
LINE
  5
115
330
110
100
AcDbEntity
  8
TEXT
100
AcDbLine
 10
1190.000000630722
 20
27.99999956318334
 30
0.0
 11
1194.000000630722
 21
27.99999956318334
 31
0.0
  0
LINE
  5
116
330
110
100
AcDbEntity
  8
TEXT
100
AcDbLine
 10
1180.000000630722
 20
27.99999956318334
 30
0.0
 11
1186.000000630722
 21
27.99999956318334
 31
0.0
  0
SOLID
  5
117
330
110
100
AcDbEntity
  8
TEXT
100
AcDbTrace
 10
1176.000000630722
 20
28.66666622985001
 30
0.0
 11
1176.000000630722
 21
27.33333289651667
 31
0.0
 12
1180.000000630722
 22
27.99999956318334
 32
0.0
 13
1180.000000630722
 23
27.99999956318334
 33
0.0
  0
SOLID
  5
118
330
110
100
AcDbEntity
  8
TEXT
100
AcDbTrace
 10
1190.000000630722
 20
28.66666622985001
 30
0.0
 11
1190.000000630722
 21
27.33333289651667
 31
0.0
 12
1186.000000630722
 22
27.99999956318334
 32
0.0
 13
1186.000000630722
 23
27.99999956318334
 33
0.0
  0
MTEXT
  5
119
330
110
100
AcDbEntity
  8
TEXT
100
AcDbMText
 10
1183.000000630721
 20
31.49999956318334
 30
0.0
 40
4.0
 41
0.0
 71
     5
 72
     1
  1
6
  7
GHS
 73
     1
 44
1.0
  0
POINT
  5
11A
330
110
100
AcDbEntity
  8
DEFPOINTS
 62
     0
100
AcDbPoint
 10
1180.000000630722
 20
42.29999956318329
 30
0.0
  0
POINT
  5
11B
330
110
100
AcDbEntity
  8
DEFPOINTS
 62
     0
100
AcDbPoint
 10
1186.000000630722
 20
42.29999956318306
 30
0.0
  0
POINT
  5
11C
330
110
100
AcDbEntity
  8
DEFPOINTS
 62
     0
100
AcDbPoint
 10
1186.000000630722
 20
27.99999956318334
 30
0.0
  0
ENDBLK
  5
11D
330
110
100
AcDbEntity
  8
0
100
AcDbBlockEnd
  0
BLOCK
  5
120
330
11F
100
AcDbEntity
  8
0
100
AcDbBlockBegin
  2
*D4
 70
     1
 10
0.0
 20
0.0
 30
0.0
  3
*D4
  1

  0
LINE
  5
121
330
11F
100
AcDbEntity
  8
TEXT
100
AcDbLine
 10
1147.000000630722
 20
40.29999956318329
 30
0.0
 11
1147.000000630722
 21
26.99999956318334
 31
0.0
  0
LINE
  5
122
330
11F
100
AcDbEntity
  8
TEXT
100
AcDbLine
 10
1180.000000630722
 20
40.29999956318329
 30
0.0
 11
1180.000000630722
 21
26.99999956318334
 31
0.0
  0
LINE
  5
123
330
11F
100
AcDbEntity
  8
TEXT
100
AcDbLine
 10
1151.000000630722
 20
27.99999956318334
 30
0.0
 11
1176.000000630722
 21
27.99999956318334
 31
0.0
  0
SOLID
  5
124
330
11F
100
AcDbEntity
  8
TEXT
100
AcDbTrace
 10
1151.000000630722
 20
28.66666622985001
 30
0.0
 11
1151.000000630722
 21
27.33333289651667
 31
0.0
 12
1147.000000630722
 22
27.99999956318334
 32
0.0
 13
1147.000000630722
 23
27.99999956318334
 33
0.0
  0
SOLID
  5
125
330
11F
100
AcDbEntity
  8
TEXT
100
AcDbTrace
 10
1176.000000630722
 20
28.66666622985001
 30
0.0
 11
1176.000000630722
 21
27.33333289651667
 31
0.0
 12
1180.000000630722
 22
27.99999956318334
 32
0.0
 13
1180.000000630722
 23
27.99999956318334
 33
0.0
  0
MTEXT
  5
126
330
11F
100
AcDbEntity
  8
TEXT
100
AcDbMText
 10
1163.500000630722
 20
31.49999956318334
 30
0.0
 40
4.0
 41
0.0
 71
     5
 72
     1
  1
33
  7
GHS
 73
     1
 44
1.0
  0
POINT
  5
127
330
11F
100
AcDbEntity
  8
DEFPOINTS
 62
     0
100
AcDbPoint
 10
1147.000000630722
 20
42.29999956318329
 30
0.0
  0
POINT
  5
128
330
11F
100
AcDbEntity
  8
DEFPOINTS
 62
     0
100
AcDbPoint
 10
1180.000000630722
 20
42.29999956318329
 30
0.0
  0
POINT
  5
129
330
11F
100
AcDbEntity
  8
DEFPOINTS
 62
     0
100
AcDbPoint
 10
1180.000000630722
 20
27.99999956318334
 30
0.0
  0
ENDBLK
  5
12A
330
11F
100
AcDbEntity
  8
0
100
AcDbBlockEnd
  0
BLOCK
  5
12D
330
12C
100
AcDbEntity
  8
0
100
AcDbBlockBegin
  2
*D5
 70
     1
 10
0.0
 20
0.0
 30
0.0
  3
*D5
  1

  0
LINE
  5
12E
330
12C
100
AcDbEntity
  8
TEXT
100
AcDbLine
 10
1140.000000630722
 20
40.29999956318306
 30
0.0
 11
1140.000000630722
 21
17.99999956318333
 31
0.0
  0
LINE
  5
12F
330
12C
100
AcDbEntity
  8
TEXT
100
AcDbLine
 10
1186.000000630722
 20
40.29999956318306
 30
0.0
 11
1186.000000630722
 21
17.99999956318333
 31
0.0
  0
LINE
  5
130
330
12C
100
AcDbEntity
  8
TEXT
100
AcDbLine
 10
1144.000000630722
 20
18.99999956318334
 30
0.0
 11
1182.000000630722
 21
18.99999956318334
 31
0.0
  0
SOLID
  5
131
330
12C
100
AcDbEntity
  8
TEXT
100
AcDbTrace
 10
1144.000000630722
 20
19.66666622985
 30
0.0
 11
1144.000000630722
 21
18.33333289651667
 31
0.0
 12
1140.000000630722
 22
18.99999956318334
 32
0.0
 13
1140.000000630722
 23
18.99999956318334
 33
0.0
  0
SOLID
  5
132
330
12C
100
AcDbEntity
  8
TEXT
100
AcDbTrace
 10
1182.000000630722
 20
19.66666622985
 30
0.0
 11
1182.000000630722
 21
18.33333289651667
 31
0.0
 12
1186.000000630722
 22
18.99999956318334
 32
0.0
 13
1186.000000630722
 23
18.99999956318334
 33
0.0
  0
MTEXT
  5
133
330
12C
100
AcDbEntity
  8
TEXT
100
AcDbMText
 10
1163.000000630722
 20
22.49999956318334
 30
0.0
 40
4.0
 41
0.0
 71
     5
 72
     1
  1
46
  7
GHS
 73
     1
 44
1.0
  0
POINT
  5
134
330
12C
100
AcDbEntity
  8
DEFPOINTS
 62
     0
100
AcDbPoint
 10
1140.000000630722
 20
42.29999956318306
 30
0.0
  0
POINT
  5
135
330
12C
100
AcDbEntity
  8
DEFPOINTS
 62
     0
100
AcDbPoint
 10
1186.000000630722
 20
42.29999956318306
 30
0.0
  0
POINT
  5
136
330
12C
100
AcDbEntity
  8
DEFPOINTS
 62
     0
100
AcDbPoint
 10
1186.000000630722
 20
18.99999956318334
 30
0.0
  0
ENDBLK
  5
137
330
12C
100
AcDbEntity
  8
0
100
AcDbBlockEnd
  0
BLOCK
  5
13A
330
139
100
AcDbEntity
  8
0
100
AcDbBlockBegin
  2
*D6
 70
     1
 10
0.0
 20
0.0
 30
0.0
  3
*D6
  1

  0
LINE
  5
13B
330
139
100
AcDbEntity
  8
TEXT
100
AcDbLine
 10
1107.200000630721
 20
42.09999956318301
 30
0.0
 11
1096.0
 21
42.09999956318302
 31
0.0
  0
LINE
  5
13C
330
139
100
AcDbEntity
  8
TEXT
100
AcDbLine
 10
1107.200000630721
 20
66.4999995631831
 30
0.0
 11
1096.0
 21
66.4999995631831
 31
0.0
  0
LINE
  5
13D
330
139
100
AcDbEntity
  8
TEXT
100
AcDbLine
 10
1097.0
 20
46.09999956318302
 30
0.0
 11
1097.0
 21
62.49999956318311
 31
0.0
  0
SOLID
  5
13E
330
139
100
AcDbEntity
  8
TEXT
100
AcDbTrace
 10
1096.333333333333
 20
46.09999956318302
 30
0.0
 11
1097.666666666667
 21
46.09999956318302
 31
0.0
 12
1097.0
 22
42.09999956318302
 32
0.0
 13
1097.0
 23
42.09999956318302
 33
0.0
  0
SOLID
  5
13F
330
139
100
AcDbEntity
  8
TEXT
100
AcDbTrace
 10
1096.333333333333
 20
62.49999956318311
 30
0.0
 11
1097.666666666667
 21
62.49999956318311
 31
0.0
 12
1097.0
 22
66.4999995631831
 32
0.0
 13
1097.0
 23
66.4999995631831
 33
0.0
  0
MTEXT
  5
140
330
139
100
AcDbEntity
  8
TEXT
100
AcDbMText
 10
1093.5
 20
54.29999956318324
 30
0.0
 40
4.0
 41
0.0
 71
     5
 72
     1
  1
%%C24.4
  7
GHS
 11
0.0000000000000001
 21
1.0
 31
0.0
 73
     1
 44
1.0
  0
POINT
  5
141
330
139
100
AcDbEntity
  8
DEFPOINTS
 62
     0
100
AcDbPoint
 10
1109.200000630721
 20
42.09999956318301
 30
0.0
  0
POINT
  5
142
330
139
100
AcDbEntity
  8
DEFPOINTS
 62
     0
100
AcDbPoint
 10
1109.200000630721
 20
66.4999995631831
 30
0.0
  0
POINT
  5
143
330
139
100
AcDbEntity
  8
DEFPOINTS
 62
     0
100
AcDbPoint
 10
1097.0
 20
66.4999995631831
 30
0.0
  0
ENDBLK
  5
144
330
139
100
AcDbEntity
  8
0
100
AcDbBlockEnd
  0
BLOCK
  5
147
330
146
100
AcDbEntity
  8
0
100
AcDbBlockBegin
  2
*D7
 70
     1
 10
0.0
 20
0.0
 30
0.0
  3
*D7
  1

  0
LINE
  5
148
330
146
100
AcDbEntity
  8
TEXT
100
AcDbLine
 10
1171.000000630722
 20
67.29999956318329
 30
0.0
 11
1171.000000630722
 21
82.99999956318334
 31
0.0
  0
LINE
  5
149
330
146
100
AcDbEntity
  8
TEXT
100
AcDbLine
 10
1186.000000630722
 20
72.29999956318329
 30
0.0
 11
1186.000000630722
 21
82.99999956318334
 31
0.0
  0
LINE
  5
14A
330
146
100
AcDbEntity
  8
TEXT
100
AcDbLine
 10
1175.000000630721
 20
81.99999956318334
 30
0.0
 11
1182.000000630722
 21
81.99999956318334
 31
0.0
  0
SOLID
  5
14B
330
146
100
AcDbEntity
  8
TEXT
100
AcDbTrace
 10
1175.000000630721
 20
82.66666622985001
 30
0.0
 11
1175.000000630721
 21
81.33333289651666
 31
0.0
 12
1171.000000630722
 22
81.99999956318334
 32
0.0
 13
1171.000000630722
 23
81.99999956318334
 33
0.0
  0
SOLID
  5
14C
330
146
100
AcDbEntity
  8
TEXT
100
AcDbTrace
 10
1182.000000630722
 20
82.66666622985001
 30
0.0
 11
1182.000000630722
 21
81.33333289651666
 31
0.0
 12
1186.000000630722
 22
81.99999956318334
 32
0.0
 13
1186.000000630722
 23
81.99999956318334
 33
0.0
  0
MTEXT
  5
14D
330
146
100
AcDbEntity
  8
TEXT
100
AcDbMText
 10
1178.500000630722
 20
85.49999956318334
 30
0.0
 40
4.0
 41
0.0
 71
     5
 72
     1
  1
15
  7
GHS
 73
     1
 44
1.0
  0
POINT
  5
14E
330
146
100
AcDbEntity
  8
DEFPOINTS
 62
     0
100
AcDbPoint
 10
1171.000000630722
 20
65.29999956318329
 30
0.0
  0
POINT
  5
14F
330
146
100
AcDbEntity
  8
DEFPOINTS
 62
     0
100
AcDbPoint
 10
1186.000000630722
 20
70.29999956318329
 30
0.0
  0
POINT
  5
150
330
146
100
AcDbEntity
  8
DEFPOINTS
 62
     0
100
AcDbPoint
 10
1186.000000630722
 20
81.99999956318334
 30
0.0
  0
ENDBLK
  5
151
330
146
100
AcDbEntity
  8
0
100
AcDbBlockEnd
  0
BLOCK
  5
154
330
153
100
AcDbEntity
  8
0
100
AcDbBlockBegin
  2
*D8
 70
     1
 10
0.0
 20
0.0
 30
0.0
  3
*D8
  1

  0
LINE
  5
155
330
153
100
AcDbEntity
  8
TEXT
100
AcDbLine
 10
1168.000000630722
 20
114.2999995631833
 30
0.0
 11
1168.000000630722
 21
99.89999956318342
 31
0.0
  0
LINE
  5
156
330
153
100
AcDbEntity
  8
TEXT
100
AcDbLine
 10
1173.500000630722
 20
113.7999995631833
 30
0.0
 11
1173.500000630722
 21
99.89999956318342
 31
0.0
  0
LINE
  5
157
330
153
100
AcDbEntity
  8
TEXT
100
AcDbLine
 10
1164.000000630722
 20
100.8999995631834
 30
0.0
 11
1160.000000630722
 21
100.8999995631834
 31
0.0
  0
LINE
  5
158
330
153
100
AcDbEntity
  8
TEXT
100
AcDbLine
 10
1177.500000630722
 20
100.8999995631834
 30
0.0
 11
1189.528572059293
 21
100.8999995631834
 31
0.0
  0
LINE
  5
159
330
153
100
AcDbEntity
  8
TEXT
100
AcDbLine
 10
1168.000000630722
 20
100.8999995631834
 30
0.0
 11
1173.500000630722
 21
100.8999995631834
 31
0.0
  0
SOLID
  5
15A
330
153
100
AcDbEntity
  8
TEXT
100
AcDbTrace
 10
1164.000000630722
 20
101.5666662298501
 30
0.0
 11
1164.000000630722
 21
100.2333328965167
 31
0.0
 12
1168.000000630722
 22
100.8999995631834
 32
0.0
 13
1168.000000630722
 23
100.8999995631834
 33
0.0
  0
SOLID
  5
15B
330
153
100
AcDbEntity
  8
TEXT
100
AcDbTrace
 10
1177.500000630722
 20
101.5666662298501
 30
0.0
 11
1177.500000630722
 21
100.2333328965167
 31
0.0
 12
1173.500000630722
 22
100.8999995631834
 32
0.0
 13
1173.500000630722
 23
100.8999995631834
 33
0.0
  0
MTEXT
  5
15C
330
153
100
AcDbEntity
  8
TEXT
100
AcDbMText
 10
1185.514286345007
 20
104.3999995631834
 30
0.0
 40
4.0
 41
0.0
 71
     5
 72
     1
  1
5.5
  7
GHS
 73
     1
 44
1.0
  0
POINT
  5
15D
330
153
100
AcDbEntity
  8
DEFPOINTS
 62
     0
100
AcDbPoint
 10
1168.000000630722
 20
116.2999995631833
 30
0.0
  0
POINT
  5
15E
330
153
100
AcDbEntity
  8
DEFPOINTS
 62
     0
100
AcDbPoint
 10
1173.500000630722
 20
115.7999995631833
 30
0.0
  0
POINT
  5
15F
330
153
100
AcDbEntity
  8
DEFPOINTS
 62
     0
100
AcDbPoint
 10
1173.500000630722
 20
100.8999995631834
 30
0.0
  0
ENDBLK
  5
160
330
153
100
AcDbEntity
  8
0
100
AcDbBlockEnd
  0
BLOCK
  5
1ED
330
1EC
100
AcDbEntity
  8
0
100
AcDbBlockBegin
  2
*D9
 70
     1
 10
0.0
 20
0.0
 30
0.0
  3
*D9
  1

  0
LINE
  5
1EE
330
1EC
100
AcDbEntity
  8
TEXT
100
AcDbLine
 10
1103.500000630722
 20
146.7999995631835
 30
0.0
 11
1096.0
 21
146.7999995631835
 31
0.0
  0
LINE
  5
1EF
330
1EC
100
AcDbEntity
  8
TEXT
100
AcDbLine
 10
1141.400000630721
 20
131.799999563183
 30
0.0
 11
1096.0
 21
131.799999563183
 31
0.0
  0
LINE
  5
1F0
330
1EC
100
AcDbEntity
  8
TEXT
100
AcDbLine
 10
1097.0
 20
142.7999995631835
 30
0.0
 11
1097.0
 21
135.799999563183
 31
0.0
  0
SOLID
  5
1F1
330
1EC
100
AcDbEntity
  8
TEXT
100
AcDbTrace
 10
1096.333333333333
 20
142.7999995631835
 30
0.0
 11
1097.666666666667
 21
142.7999995631835
 31
0.0
 12
1097.0
 22
146.7999995631835
 32
0.0
 13
1097.0
 23
146.7999995631835
 33
0.0
  0
SOLID
  5
1F2
330
1EC
100
AcDbEntity
  8
TEXT
100
AcDbTrace
 10
1096.333333333333
 20
135.799999563183
 30
0.0
 11
1097.666666666667
 21
135.799999563183
 31
0.0
 12
1097.0
 22
131.799999563183
 32
0.0
 13
1097.0
 23
131.799999563183
 33
0.0
  0
MTEXT
  5
1F3
330
1EC
100
AcDbEntity
  8
TEXT
100
AcDbMText
 10
1093.5
 20
139.2999995631835
 30
0.0
 40
4.0
 41
0.0
 71
     5
 72
     1
  1
15
  7
GHS
 11
0.0000000000000001
 21
1.0
 31
0.0
 73
     1
 44
1.0
  0
POINT
  5
1F4
330
1EC
100
AcDbEntity
  8
DEFPOINTS
 62
     0
100
AcDbPoint
 10
1105.500000630722
 20
146.7999995631835
 30
0.0
  0
POINT
  5
1F5
330
1EC
100
AcDbEntity
  8
DEFPOINTS
 62
     0
100
AcDbPoint
 10
1143.400000630721
 20
131.799999563183
 30
0.0
  0
POINT
  5
1F6
330
1EC
100
AcDbEntity
  8
DEFPOINTS
 62
     0
100
AcDbPoint
 10
1097.0
 20
131.799999563183
 30
0.0
  0
ENDBLK
  5
1F7
330
1EC
100
AcDbEntity
  8
0
100
AcDbBlockEnd
  0
BLOCK
  5
1FA
330
1F9
100
AcDbEntity
  8
0
100
AcDbBlockBegin
  2
*D10
 70
     1
 10
0.0
 20
0.0
 30
0.0
  3
*D10
  1

  0
LINE
  5
1FB
330
1F9
100
AcDbEntity
  8
TEXT
100
AcDbLine
 10
1175.500000630722
 20
115.7999995631833
 30
0.0
 11
1204.000000630722
 21
115.7999995631832
 31
0.0
  0
LINE
  5
1FC
330
1F9
100
AcDbEntity
  8
TEXT
100
AcDbLine
 10
1185.600000630722
 20
131.799999563183
 30
0.0
 11
1204.000000630722
 21
131.799999563183
 31
0.0
  0
LINE
  5
1FD
330
1F9
100
AcDbEntity
  8
TEXT
100
AcDbLine
 10
1203.000000630722
 20
119.7999995631833
 30
0.0
 11
1203.000000630722
 21
127.799999563183
 31
0.0
  0
SOLID
  5
1FE
330
1F9
100
AcDbEntity
  8
TEXT
100
AcDbTrace
 10
1202.333333964055
 20
119.7999995631833
 30
0.0
 11
1203.666667297389
 21
119.7999995631833
 31
0.0
 12
1203.000000630722
 22
115.7999995631832
 32
0.0
 13
1203.000000630722
 23
115.7999995631832
 33
0.0
  0
SOLID
  5
1FF
330
1F9
100
AcDbEntity
  8
TEXT
100
AcDbTrace
 10
1202.333333964055
 20
127.799999563183
 30
0.0
 11
1203.666667297389
 21
127.799999563183
 31
0.0
 12
1203.000000630722
 22
131.799999563183
 32
0.0
 13
1203.000000630722
 23
131.799999563183
 33
0.0
  0
MTEXT
  5
200
330
1F9
100
AcDbEntity
  8
TEXT
100
AcDbMText
 10
1199.500000630722
 20
123.7999995631833
 30
0.0
 40
4.0
 41
0.0
 71
     5
 72
     1
  1
16
  7
GHS
 11
0.0000000000000001
 21
1.0
 31
0.0
 73
     1
 44
1.0
  0
POINT
  5
201
330
1F9
100
AcDbEntity
  8
DEFPOINTS
 62
     0
100
AcDbPoint
 10
1173.500000630722
 20
115.7999995631833
 30
0.0
  0
POINT
  5
202
330
1F9
100
AcDbEntity
  8
DEFPOINTS
 62
     0
100
AcDbPoint
 10
1183.600000630722
 20
131.799999563183
 30
0.0
  0
POINT
  5
203
330
1F9
100
AcDbEntity
  8
DEFPOINTS
 62
     0
100
AcDbPoint
 10
1203.000000630722
 20
131.799999563183
 30
0.0
  0
ENDBLK
  5
204
330
1F9
100
AcDbEntity
  8
0
100
AcDbBlockEnd
  0
BLOCK
  5
207
330
206
100
AcDbEntity
  8
0
100
AcDbBlockBegin
  2
*D11
 70
     1
 10
0.0
 20
0.0
 30
0.0
  3
*D11
  1

  0
LINE
  5
208
330
206
100
AcDbEntity
  8
TEXT
100
AcDbLine
 10
1187.000000630722
 20
155.0999995631832
 30
0.0
 11
1204.000000630722
 21
155.0999995631832
 31
0.0
  0
LINE
  5
209
330
206
100
AcDbEntity
  8
TEXT
100
AcDbLine
 10
1176.600000630722
 20
157.0999995631832
 30
0.0
 11
1204.000000630722
 21
157.0999995631832
 31
0.0
  0
LINE
  5
20A
330
206
100
AcDbEntity
  8
TEXT
100
AcDbLine
 10
1203.000000630722
 20
151.0999995631832
 30
0.0
 11
1203.000000630722
 21
147.0999995631832
 31
0.0
  0
LINE
  5
20B
330
206
100
AcDbEntity
  8
TEXT
100
AcDbLine
 10
1203.000000630722
 20
161.0999995631832
 30
0.0
 11
1203.000000630722
 21
169.6999995631832
 31
0.0
  0
LINE
  5
20C
330
206
100
AcDbEntity
  8
TEXT
100
AcDbLine
 10
1203.000000630722
 20
155.0999995631832
 30
0.0
 11
1203.000000630722
 21
157.0999995631832
 31
0.0
  0
SOLID
  5
20D
330
206
100
AcDbEntity
  8
TEXT
100
AcDbTrace
 10
1202.333333964055
 20
151.0999995631832
 30
0.0
 11
1203.666667297389
 21
151.0999995631832
 31
0.0
 12
1203.000000630722
 22
155.0999995631832
 32
0.0
 13
1203.000000630722
 23
155.0999995631832
 33
0.0
  0
SOLID
  5
20E
330
206
100
AcDbEntity
  8
TEXT
100
AcDbTrace
 10
1202.333333964055
 20
161.0999995631832
 30
0.0
 11
1203.666667297389
 21
161.0999995631832
 31
0.0
 12
1203.000000630722
 22
157.0999995631832
 32
0.0
 13
1203.000000630722
 23
157.0999995631832
 33
0.0
  0
MTEXT
  5
20F
330
206
100
AcDbEntity
  8
TEXT
100
AcDbMText
 10
1199.500000630722
 20
167.3999995631834
 30
0.0
 40
4.0
 41
0.0
 71
     5
 72
     1
  1
2
  7
GHS
 11
0.0000000000000001
 21
1.0
 31
0.0
 73
     1
 44
1.0
  0
POINT
  5
210
330
206
100
AcDbEntity
  8
DEFPOINTS
 62
     0
100
AcDbPoint
 10
1185.000000630722
 20
155.0999995631832
 30
0.0
  0
POINT
  5
211
330
206
100
AcDbEntity
  8
DEFPOINTS
 62
     0
100
AcDbPoint
 10
1174.600000630722
 20
157.0999995631832
 30
0.0
  0
POINT
  5
212
330
206
100
AcDbEntity
  8
DEFPOINTS
 62
     0
100
AcDbPoint
 10
1203.000000630722
 20
157.0999995631832
 30
0.0
  0
ENDBLK
  5
213
330
206
100
AcDbEntity
  8
0
100
AcDbBlockEnd
  0
BLOCK
  5
216
330
215
100
AcDbEntity
  8
0
100
AcDbBlockBegin
  2
*D12
 70
     1
 10
0.0
 20
0.0
 30
0.0
  3
*D12
  1

  0
LINE
  5
217
330
215
100
AcDbEntity
  8
TEXT
100
AcDbLine
 10
1175.500000630722
 20
115.7999995631833
 30
0.0
 11
1194.000000630722
 21
115.7999995631832
 31
0.0
  0
LINE
  5
218
330
215
100
AcDbEntity
  8
TEXT
100
AcDbLine
 10
1176.000000630722
 20
125.7999995631833
 30
0.0
 11
1194.000000630722
 21
125.7999995631833
 31
0.0
  0
LINE
  5
219
330
215
100
AcDbEntity
  8
TEXT
100
AcDbLine
 10
1193.000000630722
 20
111.7999995631832
 30
0.0
 11
1193.000000630722
 21
107.7999995631833
 31
0.0
  0
LINE
  5
21A
330
215
100
AcDbEntity
  8
TEXT
100
AcDbLine
 10
1193.000000630722
 20
129.7999995631833
 30
0.0
 11
1193.000000630722
 21
133.7999995631833
 31
0.0
  0
LINE
  5
21B
330
215
100
AcDbEntity
  8
TEXT
100
AcDbLine
 10
1193.000000630722
 20
115.7999995631832
 30
0.0
 11
1193.000000630722
 21
125.7999995631833
 31
0.0
  0
SOLID
  5
21C
330
215
100
AcDbEntity
  8
TEXT
100
AcDbTrace
 10
1192.333333964055
 20
111.7999995631832
 30
0.0
 11
1193.666667297388
 21
111.7999995631832
 31
0.0
 12
1193.000000630722
 22
115.7999995631832
 32
0.0
 13
1193.000000630722
 23
115.7999995631832
 33
0.0
  0
SOLID
  5
21D
330
215
100
AcDbEntity
  8
TEXT
100
AcDbTrace
 10
1192.333333964055
 20
129.7999995631833
 30
0.0
 11
1193.666667297388
 21
129.7999995631833
 31
0.0
 12
1193.000000630722
 22
125.7999995631833
 32
0.0
 13
1193.000000630722
 23
125.7999995631833
 33
0.0
  0
MTEXT
  5
21E
330
215
100
AcDbEntity
  8
TEXT
100
AcDbMText
 10
1189.500000630722
 20
120.7999995631835
 30
0.0
 40
4.0
 41
0.0
 71
     5
 72
     1
  1
10
  7
GHS
 11
0.0000000000000001
 21
1.0
 31
0.0
 73
     1
 44
1.0
  0
POINT
  5
21F
330
215
100
AcDbEntity
  8
DEFPOINTS
 62
     0
100
AcDbPoint
 10
1173.500000630722
 20
115.7999995631833
 30
0.0
  0
POINT
  5
220
330
215
100
AcDbEntity
  8
DEFPOINTS
 62
     0
100
AcDbPoint
 10
1174.000000630722
 20
125.7999995631833
 30
0.0
  0
POINT
  5
221
330
215
100
AcDbEntity
  8
DEFPOINTS
 62
     0
100
AcDbPoint
 10
1193.000000630722
 20
125.7999995631833
 30
0.0
  0
ENDBLK
  5
222
330
215
100
AcDbEntity
  8
0
100
AcDbBlockEnd
  0
BLOCK
  5
225
330
224
100
AcDbEntity
  8
0
100
AcDbBlockBegin
  2
*D13
 70
     1
 10
0.0
 20
0.0
 30
0.0
  3
*D13
  1

  0
LINE
  5
226
330
224
100
AcDbEntity
  8
TEXT
100
AcDbLine
 10
1109.200000630721
 20
40.09999956318302
 30
0.0
 11
1109.200000630721
 21
17.99999956318333
 31
0.0
  0
LINE
  5
227
330
224
100
AcDbEntity
  8
TEXT
100
AcDbLine
 10
1140.000000630722
 20
40.29999956318306
 30
0.0
 11
1140.000000630722
 21
17.99999956318333
 31
0.0
  0
LINE
  5
228
330
224
100
AcDbEntity
  8
TEXT
100
AcDbLine
 10
1113.200000630722
 20
18.99999956318334
 30
0.0
 11
1136.000000630722
 21
18.99999956318334
 31
0.0
  0
SOLID
  5
229
330
224
100
AcDbEntity
  8
TEXT
100
AcDbTrace
 10
1113.200000630722
 20
19.66666622985
 30
0.0
 11
1113.200000630722
 21
18.33333289651667
 31
0.0
 12
1109.200000630721
 22
18.99999956318334
 32
0.0
 13
1109.200000630721
 23
18.99999956318334
 33
0.0
  0
SOLID
  5
22A
330
224
100
AcDbEntity
  8
TEXT
100
AcDbTrace
 10
1136.000000630722
 20
19.66666622985
 30
0.0
 11
1136.000000630722
 21
18.33333289651667
 31
0.0
 12
1140.000000630722
 22
18.99999956318334
 32
0.0
 13
1140.000000630722
 23
18.99999956318334
 33
0.0
  0
MTEXT
  5
22B
330
224
100
AcDbEntity
  8
TEXT
100
AcDbMText
 10
1124.600000630722
 20
22.49999956318334
 30
0.0
 40
4.0
 41
0.0
 71
     5
 72
     1
  1
30.8
  7
GHS
 73
     1
 44
1.0
  0
POINT
  5
22C
330
224
100
AcDbEntity
  8
DEFPOINTS
 62
     0
100
AcDbPoint
 10
1109.200000630721
 20
42.09999956318301
 30
0.0
  0
POINT
  5
22D
330
224
100
AcDbEntity
  8
DEFPOINTS
 62
     0
100
AcDbPoint
 10
1140.000000630722
 20
42.29999956318306
 30
0.0
  0
POINT
  5
22E
330
224
100
AcDbEntity
  8
DEFPOINTS
 62
     0
100
AcDbPoint
 10
1140.000000630722
 20
18.99999956318334
 30
0.0
  0
ENDBLK
  5
22F
330
224
100
AcDbEntity
  8
0
100
AcDbBlockEnd
  0
BLOCK
  5
23B
330
23A
100
AcDbEntity
  8
0
100
AcDbBlockBegin
  2
*D14
 70
     1
 10
0.0
 20
0.0
 30
0.0
  3
*D14
  1

  0
LINE
  5
23C
330
23A
100
AcDbEntity
  8
TEXT
100
AcDbLine
 10
1185.600000630722
 20
131.799999563183
 30
0.0
 11
1204.000000630722
 21
131.799999563183
 31
0.0
  0
LINE
  5
23D
330
23A
100
AcDbEntity
  8
TEXT
100
AcDbLine
 10
1187.000000630722
 20
155.0999995631832
 30
0.0
 11
1204.000000630722
 21
155.0999995631832
 31
0.0
  0
LINE
  5
23E
330
23A
100
AcDbEntity
  8
TEXT
100
AcDbLine
 10
1203.000000630722
 20
135.799999563183
 30
0.0
 11
1203.000000630722
 21
151.0999995631832
 31
0.0
  0
SOLID
  5
23F
330
23A
100
AcDbEntity
  8
TEXT
100
AcDbTrace
 10
1202.333333964055
 20
135.799999563183
 30
0.0
 11
1203.666667297389
 21
135.799999563183
 31
0.0
 12
1203.000000630722
 22
131.799999563183
 32
0.0
 13
1203.000000630722
 23
131.799999563183
 33
0.0
  0
SOLID
  5
240
330
23A
100
AcDbEntity
  8
TEXT
100
AcDbTrace
 10
1202.333333964055
 20
151.0999995631832
 30
0.0
 11
1203.666667297389
 21
151.0999995631832
 31
0.0
 12
1203.000000630722
 22
155.0999995631832
 32
0.0
 13
1203.000000630722
 23
155.0999995631832
 33
0.0
  0
MTEXT
  5
241
330
23A
100
AcDbEntity
  8
TEXT
100
AcDbMText
 10
1199.500000630722
 20
143.4499995631833
 30
0.0
 40
4.0
 41
0.0
 71
     5
 72
     1
  1
23.3
  7
GHS
 11
0.0000000000000001
 21
1.0
 31
0.0
 73
     1
 44
1.0
  0
POINT
  5
242
330
23A
100
AcDbEntity
  8
DEFPOINTS
 62
     0
100
AcDbPoint
 10
1183.600000630722
 20
131.799999563183
 30
0.0
  0
POINT
  5
243
330
23A
100
AcDbEntity
  8
DEFPOINTS
 62
     0
100
AcDbPoint
 10
1185.000000630722
 20
155.0999995631832
 30
0.0
  0
POINT
  5
244
330
23A
100
AcDbEntity
  8
DEFPOINTS
 62
     0
100
AcDbPoint
 10
1203.000000630722
 20
155.0999995631832
 30
0.0
  0
ENDBLK
  5
245
330
23A
100
AcDbEntity
  8
0
100
AcDbBlockEnd
  0
BLOCK
  5
248
330
247
100
AcDbEntity
  8
0
100
AcDbBlockBegin
  2
*D15
 70
     1
 10
0.0
 20
0.0
 30
0.0
  3
*D15
  1

  0
LINE
  5
249
330
247
100
AcDbEntity
  8
TEXT
100
AcDbLine
 10
1147.000000630722
 20
40.29999956318329
 30
0.0
 11
1147.000000630722
 21
26.99999956318334
 31
0.0
  0
LINE
  5
24A
330
247
100
AcDbEntity
  8
TEXT
100
AcDbLine
 10
1140.000000630722
 20
40.29999956318306
 30
0.0
 11
1140.000000630722
 21
26.99999956318334
 31
0.0
  0
LINE
  5
24B
330
247
100
AcDbEntity
  8
TEXT
100
AcDbLine
 10
1151.000000630722
 20
27.99999956318334
 30
0.0
 11
1155.000000630722
 21
27.99999956318334
 31
0.0
  0
LINE
  5
24C
330
247
100
AcDbEntity
  8
TEXT
100
AcDbLine
 10
1136.000000630722
 20
27.99999956318334
 30
0.0
 11
1132.000000630722
 21
27.99999956318334
 31
0.0
  0
LINE
  5
24D
330
247
100
AcDbEntity
  8
TEXT
100
AcDbLine
 10
1147.000000630722
 20
27.99999956318334
 30
0.0
 11
1140.000000630722
 21
27.99999956318334
 31
0.0
  0
SOLID
  5
24E
330
247
100
AcDbEntity
  8
TEXT
100
AcDbTrace
 10
1151.000000630722
 20
28.66666622985001
 30
0.0
 11
1151.000000630722
 21
27.33333289651667
 31
0.0
 12
1147.000000630722
 22
27.99999956318334
 32
0.0
 13
1147.000000630722
 23
27.99999956318334
 33
0.0
  0
SOLID
  5
24F
330
247
100
AcDbEntity
  8
TEXT
100
AcDbTrace
 10
1136.000000630722
 20
28.66666622985001
 30
0.0
 11
1136.000000630722
 21
27.33333289651667
 31
0.0
 12
1140.000000630722
 22
27.99999956318334
 32
0.0
 13
1140.000000630722
 23
27.99999956318334
 33
0.0
  0
MTEXT
  5
250
330
247
100
AcDbEntity
  8
TEXT
100
AcDbMText
 10
1143.500000630722
 20
31.49999956318334
 30
0.0
 40
4.0
 41
0.0
 71
     5
 72
     1
  1
7
  7
GHS
 73
     1
 44
1.0
  0
POINT
  5
251
330
247
100
AcDbEntity
  8
DEFPOINTS
 62
     0
100
AcDbPoint
 10
1147.000000630722
 20
42.29999956318329
 30
0.0
  0
POINT
  5
252
330
247
100
AcDbEntity
  8
DEFPOINTS
 62
     0
100
AcDbPoint
 10
1140.000000630722
 20
42.29999956318306
 30
0.0
  0
POINT
  5
253
330
247
100
AcDbEntity
  8
DEFPOINTS
 62
     0
100
AcDbPoint
 10
1140.000000630722
 20
27.99999956318334
 30
0.0
  0
ENDBLK
  5
254
330
247
100
AcDbEntity
  8
0
100
AcDbBlockEnd
  0
BLOCK
  5
3D
330
3C
100
AcDbEntity
  8
0
100
AcDbBlockBegin
  2
_Open30
 70
     0
 10
0.0
 20
0.0
 30
0.0
  3
_Open30
  1

  0
LINE
  5
3E
330
3C
100
AcDbEntity
  8
0
  6
ByBlock
 62
     0
370
    -2
100
AcDbLine
 10
-1.0
 20
0.26794919
 30
0.0
 11
0.0
 21
0.0
 31
0.0
  0
LINE
  5
3F
330
3C
100
AcDbEntity
  8
0
  6
ByBlock
 62
     0
370
    -2
100
AcDbLine
 10
0.0
 20
0.0
 30
0.0
 11
-1.0
 21
-0.26794919
 31
0.0
  0
LINE
  5
40
330
3C
100
AcDbEntity
  8
0
  6
ByBlock
 62
     0
370
    -2
100
AcDbLine
 10
0.0
 20
0.0
 30
0.0
 11
-1.0
 21
0.0
 31
0.0
  0
ENDBLK
  5
41
330
3C
100
AcDbEntity
  8
0
100
AcDbBlockEnd
  0
ENDSEC
  0
SECTION
  2
ENTITIES
  0
LINE
  5
86
330
2
100
AcDbEntity
  8
0
100
AcDbLine
 10
1109.200000630721
 20
134.5999995631837
 30
0.0
 11
1109.200000630721
 21
158.9999995631838
 31
0.0
  0
LINE
  5
87
330
2
100
AcDbEntity
  8
0
100
AcDbLine
 10
1107.500000630722
 20
144.5499995631835
 30
0.0
 11
1107.500000630722
 21
149.0499995631839
 31
0.0
  0
ARC
  5
88
330
2
100
AcDbEntity
  8
0
100
AcDbCircle
 10
1108.500000630722
 20
144.5499995631835
 30
0.0
 40
1.0
100
AcDbArc
 50
180.0
 51
270.0
  0
LINE
  5
89
330
2
100
AcDbEntity
  8
CL
100
AcDbLine
 10
1143.000000630722
 20
146.7999995631835
 30
0.0
 11
1105.500000630722
 21
146.7999995631835
 31
0.0
  0
LINE
  5
8E
330
2
100
AcDbEntity
  8
0
100
AcDbLine
 10
1109.200000630721
 20
138.799999563184
 30
0.0
 11
1107.200000630721
 21
138.7999995631835
 31
0.0
  0
LINE
  5
8F
330
2
100
AcDbEntity
  8
0
100
AcDbLine
 10
1109.200000630721
 20
136.7999995631835
 30
0.0
 11
1107.200000630721
 21
136.799999563184
 31
0.0
  0
LINE
  5
90
330
2
100
AcDbEntity
  8
0
100
AcDbLine
 10
1109.200000630721
 20
143.5499995631835
 30
0.0
 11
1108.500000630722
 21
143.5499995631835
 31
0.0
  0
LINE
  5
91
330
2
100
AcDbEntity
  8
0
100
AcDbLine
 10
1109.200000630721
 20
150.0499995631839
 30
0.0
 11
1108.500000630722
 21
150.0499995631839
 31
0.0
  0
ARC
  5
92
330
2
100
AcDbEntity
  8
0
100
AcDbCircle
 10
1108.500000630722
 20
149.0499995631839
 30
0.0
 40
1.0
100
AcDbArc
 50
90.0
 51
180.0
  0
LINE
  5
93
330
2
100
AcDbEntity
  8
0
100
AcDbLine
 10
1139.000000630722
 20
134.5999995631837
 30
0.0
 11
1109.200000630721
 21
134.5999995631837
 31
0.0
  0
LINE
  5
94
330
2
100
AcDbEntity
  8
0
100
AcDbLine
 10
1140.000000630722
 20
135.5999995631837
 30
0.0
 11
1140.000000630722
 21
157.9999995631838
 31
0.0
  0
ARC
  5
95
330
2
100
AcDbEntity
  8
0
100
AcDbCircle
 10
1139.000000630722
 20
135.5999995631837
 30
0.0
 40
1.0
100
AcDbArc
 50
270.0
 51
0.0
  0
LINE
  5
96
330
2
100
AcDbEntity
  8
0
100
AcDbLine
 10
1139.000000630722
 20
158.9999995631838
 30
0.0
 11
1109.200000630721
 21
158.9999995631838
 31
0.0
  0
ARC
  5
97
330
2
100
AcDbEntity
  8
0
100
AcDbCircle
 10
1139.000000630722
 20
157.9999995631838
 30
0.0
 40
1.0
100
AcDbArc
 50
0.0
 51
90.0
  0
ARC
  5
98
330
2
100
AcDbEntity
  8
0
100
AcDbCircle
 10
1107.200000630721
 20
137.7999995631835
 30
0.0
 40
1.0
100
AcDbArc
 50
90.0
 51
270.0
  0
LINE
  5
99
330
2
100
AcDbEntity
  8
0
100
AcDbLine
 10
1109.200000630721
 20
154.799999563183
 30
0.0
 11
1107.200000630721
 21
154.7999995631835
 31
0.0
  0
LINE
  5
9A
330
2
100
AcDbEntity
  8
0
100
AcDbLine
 10
1109.200000630721
 20
156.7999995631835
 30
0.0
 11
1107.200000630721
 21
156.799999563183
 31
0.0
  0
ARC
  5
9B
330
2
100
AcDbEntity
  8
0
100
AcDbCircle
 10
1107.200000630721
 20
155.7999995631835
 30
0.0
 40
1.0
100
AcDbArc
 50
90.0
 51
270.0
  0
ARC
  5
9C
330
2
100
AcDbEntity
  8
0
100
AcDbCircle
 10
1167.400000630721
 20
156.6999995631831
 30
0.0
 40
0.4
100
AcDbArc
 50
90.0
 51
180.0
  0
LINE
  5
9D
330
2
100
AcDbEntity
  8
0
100
AcDbLine
 10
1186.000000630722
 20
135.7999995631833
 30
0.0
 11
1140.000000630722
 21
135.7999995631833
 31
0.0
  0
LINE
  5
9E
330
2
100
AcDbEntity
  8
0
100
AcDbLine
 10
1176.053590469208
 20
131.9999995631833
 30
0.0
 11
1164.600000630722
 21
131.9999995631833
 31
0.0
  0
ARC
  5
9F
330
2
100
AcDbEntity
  8
0
100
AcDbCircle
 10
1164.600000630722
 20
132.3999995631834
 30
0.0
 40
0.4
100
AcDbArc
 50
180.0
 51
270.0
  0
LINE
  5
A0
330
2
100
AcDbEntity
  8
0
100
AcDbLine
 10
1186.000000630722
 20
133.9999995631831
 30
0.0
 11
1140.000000630722
 21
133.9999995631833
 31
0.0
  0
LINE
  5
A1
330
2
100
AcDbEntity
  8
0
100
AcDbLine
 10
1185.000000630722
 20
155.0999995631832
 30
0.0
 11
1141.000000630722
 21
155.0999995631832
 31
0.0
  0
ARC
  5
A2
330
2
100
AcDbEntity
  8
0
100
AcDbCircle
 10
1141.000000630722
 20
154.0999995631832
 30
0.0
 40
1.0
100
AcDbArc
 50
90.0
 51
180.0
  0
LINE
  5
A3
330
2
100
AcDbEntity
  8
0
100
AcDbLine
 10
1140.000000630722
 20
133.9999995631833
 30
0.0
 11
1140.000000630722
 21
155.5999995631832
 31
0.0
  0
LINE
  5
A4
330
2
100
AcDbEntity
  8
0
100
AcDbLine
 10
1186.000000630722
 20
133.9999995631833
 30
0.0
 11
1186.000000630722
 21
154.0999995631832
 31
0.0
  0
LINE
  5
A5
330
2
100
AcDbEntity
  8
CL
100
AcDbLine
 10
1171.000000630722
 20
113.7999995631835
 30
0.0
 11
1171.000000630722
 21
158.0999995631832
 31
0.0
  0
LINE
  5
A6
330
2
100
AcDbEntity
  8
0
100
AcDbLine
 10
1164.200000630722
 20
132.3999995631834
 30
0.0
 11
1164.200000630722
 21
133.9999995631833
 31
0.0
  0
ARC
  5
A7
330
2
100
AcDbEntity
  8
0
100
AcDbCircle
 10
1185.000000630722
 20
154.0999995631832
 30
0.0
 40
1.0
100
AcDbArc
 50
0.0
 51
90.0
  0
LINE
  5
A8
330
2
100
AcDbEntity
  8
0
100
AcDbLine
 10
1152.000000630722
 20
156.5999995631832
 30
0.0
 11
1141.000000630722
 21
156.5999995631832
 31
0.0
  0
ARC
  5
A9
330
2
100
AcDbEntity
  8
0
100
AcDbCircle
 10
1141.000000630722
 20
155.5999995631832
 30
0.0
 40
1.0
100
AcDbArc
 50
90.0
 51
180.0
  0
LINE
  5
AA
330
2
100
AcDbEntity
  8
0
100
AcDbLine
 10
1153.000000630722
 20
155.5999995631832
 30
0.0
 11
1153.000000630722
 21
155.0999995631832
 31
0.0
  0
ARC
  5
AB
330
2
100
AcDbEntity
  8
0
100
AcDbCircle
 10
1152.000000630722
 20
155.5999995631832
 30
0.0
 40
1.0
100
AcDbArc
 50
0.0
 51
90.0
  0
LINE
  5
AC
330
2
100
AcDbEntity
  8
0
100
AcDbLine
 10
1161.380391171806
 20
156.5999995631832
 30
0.0
 11
1156.180391171805
 21
156.5999995631832
 31
0.0
  0
ARC
  5
AD
330
2
100
AcDbEntity
  8
0
100
AcDbCircle
 10
1156.180391171805
 20
156.1999995631831
 30
0.0
 40
0.4
100
AcDbArc
 50
90.0
 51
180.0
  0
LINE
  5
AE
330
2
100
AcDbEntity
  8
0
100
AcDbLine
 10
1161.780391171805
 20
156.1999995631831
 30
0.0
 11
1161.780391171805
 21
155.0999995631832
 31
0.0
  0
ARC
  5
AF
330
2
100
AcDbEntity
  8
0
100
AcDbCircle
 10
1161.380391171806
 20
156.1999995631831
 30
0.0
 40
0.4
100
AcDbArc
 50
0.0
 51
90.0
  0
LINE
  5
B0
330
2
100
AcDbEntity
  8
0
100
AcDbLine
 10
1155.780391171805
 20
156.1999995631831
 30
0.0
 11
1155.780391171805
 21
155.0999995631832
 31
0.0
  0
LINE
  5
B1
330
2
100
AcDbEntity
  8
0
100
AcDbLine
 10
1174.600000630722
 20
157.0999995631832
 30
0.0
 11
1167.400000630721
 21
157.0999995631832
 31
0.0
  0
LINE
  5
B2
330
2
100
AcDbEntity
  8
0
100
AcDbLine
 10
1175.000000630721
 20
156.6999995631831
 30
0.0
 11
1175.000000630721
 21
155.0999995631832
 31
0.0
  0
ARC
  5
B3
330
2
100
AcDbEntity
  8
0
100
AcDbCircle
 10
1174.600000630722
 20
156.6999995631831
 30
0.0
 40
0.4
100
AcDbArc
 50
0.0
 51
90.0
  0
LINE
  5
B4
330
2
100
AcDbEntity
  8
0
100
AcDbLine
 10
1167.000000630721
 20
156.6999995631831
 30
0.0
 11
1167.000000630721
 21
155.0999995631832
 31
0.0
  0
LINE
  5
B5
330
2
100
AcDbEntity
  8
0
100
AcDbLine
 10
1161.880391171806
 20
131.9999995631833
 30
0.0
 11
1155.680391171805
 21
131.9999995631833
 31
0.0
  0
ARC
  5
B6
330
2
100
AcDbEntity
  8
0
100
AcDbCircle
 10
1155.680391171805
 20
132.3999995631834
 30
0.0
 40
0.4
100
AcDbArc
 50
180.0
 51
270.0
  0
LINE
  5
B7
330
2
100
AcDbEntity
  8
0
100
AcDbLine
 10
1162.280391171806
 20
132.3999995631834
 30
0.0
 11
1162.280391171806
 21
133.9999995631833
 31
0.0
  0
ARC
  5
B8
330
2
100
AcDbEntity
  8
0
100
AcDbCircle
 10
1161.880391171806
 20
132.3999995631834
 30
0.0
 40
0.4
100
AcDbArc
 50
270.0
 51
0.0
  0
LINE
  5
B9
330
2
100
AcDbEntity
  8
0
100
AcDbLine
 10
1155.280391171805
 20
132.3999995631834
 30
0.0
 11
1155.280391171805
 21
133.9999995631833
 31
0.0
  0
LINE
  5
BA
330
2
100
AcDbEntity
  8
0
100
AcDbLine
 10
1174.000000630722
 20
131.9999995631833
 30
0.0
 11
1174.000000630722
 21
125.7999995631833
 31
0.0
  0
LINE
  5
BB
330
2
100
AcDbEntity
  8
0
100
AcDbLine
 10
1168.000000630722
 20
131.9999995631833
 30
0.0
 11
1168.000000630722
 21
116.2999995631833
 31
0.0
  0
LINE
  5
BC
330
2
100
AcDbEntity
  8
0
100
AcDbLine
 10
1173.500000630722
 20
115.7999995631833
 30
0.0
 11
1168.500000630722
 21
115.7999995631833
 31
0.0
  0
LINE
  5
BD
330
2
100
AcDbEntity
  8
0
100
AcDbLine
 10
1168.500000630722
 20
115.7999995631833
 30
0.0
 11
1168.000000630722
 21
116.2999995631833
 31
0.0
  0
LINE
  5
BE
330
2
100
AcDbEntity
  8
0
100
AcDbLine
 10
1173.500000630722
 20
115.7999995631833
 30
0.0
 11
1173.500000630722
 21
125.7999995631833
 31
0.0
  0
LINE
  5
BF
330
2
100
AcDbEntity
  8
0
100
AcDbLine
 10
1173.500000630722
 20
125.7999995631833
 30
0.0
 11
1174.000000630722
 21
125.7999995631833
 31
0.0
  0
LINE
  5
C0
330
2
100
AcDbEntity
  8
0
100
AcDbLine
 10
1173.500000630722
 20
116.2999995631833
 30
0.0
 11
1168.000000630722
 21
116.2999995631833
 31
0.0
  0
LINE
  5
C1
330
2
100
AcDbEntity
  8
CL
100
AcDbLine
 10
1185.000000630722
 20
65.29999956318329
 30
0.0
 11
1175.000000630721
 21
65.29999956318329
 31
0.0
  0
LINE
  5
C2
330
2
100
AcDbEntity
  8
CL
100
AcDbLine
 10
1171.000000630722
 20
47.29999956318329
 30
0.0
 11
1171.000000630722
 21
65.29999956318329
 31
0.0
  0
LINE
  5
C3
330
2
100
AcDbEntity
  8
0
100
AcDbLine
 10
1173.500000630722
 20
54.64168716800554
 30
0.0
 11
1173.500000630722
 21
57.95831195836104
 31
0.0
  0
LINE
  5
C4
330
2
100
AcDbEntity
  8
CL
100
AcDbLine
 10
1180.000000630722
 20
60.29999956318329
 30
0.0
 11
1180.000000630722
 21
70.29999956318329
 31
0.0
  0
CIRCLE
  5
C5
330
2
100
AcDbEntity
  8
0
100
AcDbCircle
 10
1180.000000630722
 20
65.29999956318329
 30
0.0
 40
4.0
  0
LINE
  5
C6
330
2
100
AcDbEntity
  8
CL
100
AcDbLine
 10
1185.000000630722
 20
47.29999956318329
 30
0.0
 11
1175.000000630721
 21
47.29999956318329
 31
0.0
  0
LINE
  5
C7
330
2
100
AcDbEntity
  8
CL
100
AcDbLine
 10
1180.000000630722
 20
52.29999956318329
 30
0.0
 11
1180.000000630722
 21
42.29999956318329
 31
0.0
  0
CIRCLE
  5
C8
330
2
100
AcDbEntity
  8
0
100
AcDbCircle
 10
1180.000000630722
 20
47.29999956318329
 30
0.0
 40
4.0
  0
LINE
  5
C9
330
2
100
AcDbEntity
  8
CL
100
AcDbLine
 10
1152.000000630722
 20
65.29999956318329
 30
0.0
 11
1142.000000630722
 21
65.29999956318329
 31
0.0
  0
LINE
  5
CA
330
2
100
AcDbEntity
  8
CL
100
AcDbLine
 10
1147.000000630722
 20
60.29999956318329
 30
0.0
 11
1147.000000630722
 21
70.29999956318329
 31
0.0
  0
CIRCLE
  5
CB
330
2
100
AcDbEntity
  8
0
100
AcDbCircle
 10
1147.000000630722
 20
65.29999956318329
 30
0.0
 40
4.0
  0
LINE
  5
CC
330
2
100
AcDbEntity
  8
CL
100
AcDbLine
 10
1152.000000630722
 20
47.29999956318329
 30
0.0
 11
1142.000000630722
 21
47.29999956318329
 31
0.0
  0
LINE
  5
CD
330
2
100
AcDbEntity
  8
CL
100
AcDbLine
 10
1147.000000630722
 20
52.29999956318329
 30
0.0
 11
1147.000000630722
 21
42.29999956318329
 31
0.0
  0
ARC
  5
CE
330
2
100
AcDbEntity
  8
0
100
AcDbCircle
 10
1147.000000630722
 20
47.29999956318329
 30
0.0
 40
4.0
100
AcDbArc
 50
321.2603196147139
 51
282.7504468014632
  0
CIRCLE
  5
CF
330
2
100
AcDbEntity
  8
0
100
AcDbCircle
 10
1171.000000630722
 20
56.29999956318329
 30
0.0
 40
5.0
  0
LINE
  5
D0
330
2
100
AcDbEntity
  8
0
100
AcDbLine
 10
1184.000000630722
 20
40.29999956318306
 30
0.0
 11
1142.000000630722
 21
40.29999956318306
 31
0.0
  0
ARC
  5
D1
330
2
100
AcDbEntity
  8
0
100
AcDbCircle
 10
1142.000000630722
 20
42.29999956318306
 30
0.0
 40
2.0
100
AcDbArc
 50
180.0
 51
270.0
  0
LINE
  5
D2
330
2
100
AcDbEntity
  8
0
100
AcDbLine
 10
1184.000000630722
 20
72.29999956318329
 30
0.0
 11
1142.000000630722
 21
72.29999956318329
 31
0.0
  0
ARC
  5
D3
330
2
100
AcDbEntity
  8
0
100
AcDbCircle
 10
1142.000000630722
 20
70.29999956318329
 30
0.0
 40
2.0
100
AcDbArc
 50
90.0
 51
180.0
  0
LINE
  5
D4
330
2
100
AcDbEntity
  8
0
100
AcDbLine
 10
1140.000000630722
 20
70.29999956318329
 30
0.0
 11
1140.000000630722
 21
42.29999956318306
 31
0.0
  0
LINE
  5
D5
330
2
100
AcDbEntity
  8
0
100
AcDbLine
 10
1186.000000630722
 20
70.29999956318329
 30
0.0
 11
1186.000000630722
 21
42.29999956318306
 31
0.0
  0
ARC
  5
D6
330
2
100
AcDbEntity
  8
0
100
AcDbCircle
 10
1184.000000630722
 20
70.29999956318329
 30
0.0
 40
2.0
100
AcDbArc
 50
0.0
 51
90.0
  0
ARC
  5
D7
330
2
100
AcDbEntity
  8
0
100
AcDbCircle
 10
1184.000000630722
 20
42.29999956318306
 30
0.0
 40
2.0
100
AcDbArc
 50
270.0
 51
0.0
  0
LINE
  5
D8
330
2
100
AcDbEntity
  8
0
100
AcDbLine
 10
1109.200000630721
 20
66.4999995631831
 30
0.0
 11
1109.200000630721
 21
42.09999956318301
 31
0.0
  0
LINE
  5
D9
330
2
100
AcDbEntity
  8
0
100
AcDbLine
 10
1107.500000630722
 20
56.54999956318329
 30
0.0
 11
1107.500000630722
 21
54.49999956318333
 31
0.0
  0
LINE
  5
DA
330
2
100
AcDbEntity
  8
0
100
AcDbLine
 10
1107.500000630722
 20
54.09999956318324
 30
0.0
 11
1107.500000630722
 21
52.04999956318284
 31
0.0
  0
ARC
  5
DB
330
2
100
AcDbEntity
  8
0
100
AcDbCircle
 10
1108.500000630722
 20
56.54999956318329
 30
0.0
 40
1.0
100
AcDbArc
 50
90.0
 51
180.0
  0
LINE
  5
DC
330
2
100
AcDbEntity
  8
CL
100
AcDbLine
 10
1143.000000630722
 20
54.29999956318329
 30
0.0
 11
1105.500000630722
 21
54.29999956318329
 31
0.0
  0
LINE
  5
DD
330
2
100
AcDbEntity
  8
0
100
AcDbLine
 10
1109.200000630721
 20
54.09999956318348
 30
0.0
 11
1106.200000630721
 21
54.09999956318324
 31
0.0
  0
LINE
  5
DE
330
2
100
AcDbEntity
  8
0
100
AcDbLine
 10
1109.200000630721
 20
54.49999956318333
 30
0.0
 11
1106.200000630721
 21
54.49999956318333
 31
0.0
  0
LINE
  5
DF
330
2
100
AcDbEntity
  8
0
100
AcDbLine
 10
1109.200000630721
 20
57.54999956318329
 30
0.0
 11
1108.500000630722
 21
57.54999956318329
 31
0.0
  0
LINE
  5
E0
330
2
100
AcDbEntity
  8
0
100
AcDbLine
 10
1109.200000630721
 20
51.04999956318284
 30
0.0
 11
1108.500000630722
 21
51.04999956318284
 31
0.0
  0
ARC
  5
E1
330
2
100
AcDbEntity
  8
0
100
AcDbCircle
 10
1108.500000630722
 20
52.04999956318284
 30
0.0
 40
1.0
100
AcDbArc
 50
180.0
 51
270.0
  0
LINE
  5
E2
330
2
100
AcDbEntity
  8
0
100
AcDbLine
 10
1139.000000630722
 20
66.4999995631831
 30
0.0
 11
1109.200000630721
 21
66.4999995631831
 31
0.0
  0
LINE
  5
E3
330
2
100
AcDbEntity
  8
0
100
AcDbLine
 10
1140.000000630722
 20
65.49999956318311
 30
0.0
 11
1140.000000630722
 21
43.09999956318302
 31
0.0
  0
ARC
  5
E4
330
2
100
AcDbEntity
  8
0
100
AcDbCircle
 10
1139.000000630722
 20
65.49999956318311
 30
0.0
 40
1.0
100
AcDbArc
 50
0.0
 51
90.0
  0
LINE
  5
E5
330
2
100
AcDbEntity
  8
0
100
AcDbLine
 10
1139.000000630722
 20
42.09999956318301
 30
0.0
 11
1109.200000630721
 21
42.09999956318301
 31
0.0
  0
ARC
  5
E6
330
2
100
AcDbEntity
  8
0
100
AcDbCircle
 10
1139.000000630722
 20
43.09999956318302
 30
0.0
 40
1.0
100
AcDbArc
 50
270.0
 51
0.0
  0
LINE
  5
E7
330
2
100
AcDbEntity
  8
CL
100
AcDbLine
 10
1180.000000630722
 20
56.29999956318329
 30
0.0
 11
1162.000000630722
 21
56.29999956318329
 31
0.0
  0
CIRCLE
  5
E8
330
2
100
AcDbEntity
  8
0
100
AcDbCircle
 10
1171.000000630722
 20
56.29999956318329
 30
0.0
 40
3.0
  0
CIRCLE
  5
E9
330
2
100
AcDbEntity
  8
0
100
AcDbCircle
 10
1171.000000630722
 20
56.29999956318329
 30
0.0
 40
2.5
  0
LINE
  5
EA
330
2
100
AcDbEntity
  8
0
100
AcDbLine
 10
1183.600000630722
 20
131.799999563183
 30
0.0
 11
1176.400000630721
 21
131.799999563183
 31
0.0
  0
ARC
  5
EB
330
2
100
AcDbEntity
  8
0
100
AcDbCircle
 10
1176.400000630721
 20
132.1999995631831
 30
0.0
 40
0.4
100
AcDbArc
 50
180.0
 51
270.0
  0
LINE
  5
EC
330
2
100
AcDbEntity
  8
0
100
AcDbLine
 10
1176.000000630722
 20
133.9999995631831
 30
0.0
 11
1176.000000630722
 21
132.1999995631831
 31
0.0
  0
LINE
  5
ED
330
2
100
AcDbEntity
  8
0
100
AcDbLine
 10
1184.000000630722
 20
132.6999995631831
 30
0.0
 11
1184.000000630722
 21
132.1999995631829
 31
0.0
  0
ARC
  5
EE
330
2
100
AcDbEntity
  8
0
100
AcDbCircle
 10
1183.600000630722
 20
132.1999995631829
 30
0.0
 40
0.4
100
AcDbArc
 50
270.0
 51
0.0
  0
LINE
  5
EF
330
2
100
AcDbEntity
  8
0
100
AcDbLine
 10
1150.600000630722
 20
131.799999563183
 30
0.0
 11
1143.400000630721
 21
131.799999563183
 31
0.0
  0
ARC
  5
F0
330
2
100
AcDbEntity
  8
0
100
AcDbCircle
 10
1143.400000630721
 20
132.1999995631831
 30
0.0
 40
0.4
100
AcDbArc
 50
180.0
 51
270.0
  0
LINE
  5
F1
330
2
100
AcDbEntity
  8
0
100
AcDbLine
 10
1143.000000630722
 20
132.6999995631834
 30
0.0
 11
1143.000000630722
 21
132.1999995631831
 31
0.0
  0
LINE
  5
F2
330
2
100
AcDbEntity
  8
0
100
AcDbLine
 10
1151.000000630722
 20
133.9999995631831
 30
0.0
 11
1151.000000630722
 21
132.1999995631829
 31
0.0
  0
ARC
  5
F3
330
2
100
AcDbEntity
  8
0
100
AcDbCircle
 10
1150.600000630722
 20
132.1999995631829
 30
0.0
 40
0.4
100
AcDbArc
 50
270.0
 51
0.0
  0
DIMENSION
  5
F4
330
2
100
AcDbEntity
  8
TEXT
100
AcDbDimension
  2
*D1
 10
1203.000000630722
 20
65.29999956318329
 30
0.0
 11
1199.500000630722
 21
56.29999956318349
 31
0.0
 71
     5
 42
18.0
  3
ISO-25
100
AcDbAlignedDimension
 13
1185.000000630722
 23
47.29999956318329
 33
0.0
 14
1185.000000630722
 24
65.29999956318329
 34
0.0
 50
90.0
100
AcDbRotatedDimension
  0
DIMENSION
  5
102
330
2
100
AcDbEntity
  8
TEXT
100
AcDbDimension
  2
*D2
 10
1213.000000630722
 20
72.29999956318329
 30
0.0
 11
1209.500000630722
 21
56.29999956318338
 31
0.0
 71
     5
 42
32.00000000000024
  3
ISO-25
100
AcDbAlignedDimension
 13
1184.000000630722
 23
40.29999956318306
 33
0.0
 14
1184.000000630722
 24
72.29999956318329
 34
0.0
 50
90.0
100
AcDbRotatedDimension
  0
DIMENSION
  5
10F
330
2
100
AcDbEntity
  8
TEXT
100
AcDbDimension
  2
*D3
 10
1186.000000630722
 20
27.99999956318334
 30
0.0
 11
1183.000000630721
 21
31.49999956318334
 31
0.0
 71
     5
 42
6.0
  3
ISO-25
100
AcDbAlignedDimension
 13
1180.000000630722
 23
42.29999956318329
 33
0.0
 14
1186.000000630722
 24
42.29999956318306
 34
0.0
100
AcDbRotatedDimension
  0
DIMENSION
  5
11E
330
2
100
AcDbEntity
  8
TEXT
100
AcDbDimension
  2
*D4
 10
1180.000000630722
 20
27.99999956318334
 30
0.0
 11
1163.500000630722
 21
31.49999956318334
 31
0.0
 71
     5
 42
33.0
  3
ISO-25
100
AcDbAlignedDimension
 13
1147.000000630722
 23
42.29999956318329
 33
0.0
 14
1180.000000630722
 24
42.29999956318329
 34
0.0
100
AcDbRotatedDimension
  0
DIMENSION
  5
12B
330
2
100
AcDbEntity
  8
TEXT
100
AcDbDimension
  2
*D5
 10
1186.000000630722
 20
18.99999956318334
 30
0.0
 11
1163.000000630722
 21
22.49999956318334
 31
0.0
 71
     5
 42
46.0
  3
ISO-25
100
AcDbAlignedDimension
 13
1140.000000630722
 23
42.29999956318306
 33
0.0
 14
1186.000000630722
 24
42.29999956318306
 34
0.0
100
AcDbRotatedDimension
  0
DIMENSION
  5
138
330
2
100
AcDbEntity
  8
TEXT
100
AcDbDimension
  2
*D6
 10
1097.0
 20
66.4999995631831
 30
0.0
 11
1093.5
 21
54.29999956318324
 31
0.0
  1
%%C24.4
 71
     5
 42
24.40000000000008
  3
ISO-25
100
AcDbAlignedDimension
 13
1109.200000630721
 23
42.09999956318301
 33
0.0
 14
1109.200000630721
 24
66.4999995631831
 34
0.0
 50
90.0
100
AcDbRotatedDimension
  0
DIMENSION
  5
145
330
2
100
AcDbEntity
  8
TEXT
100
AcDbDimension
  2
*D7
 10
1186.000000630722
 20
81.99999956318334
 30
0.0
 11
1178.500000630722
 21
85.49999956318334
 31
0.0
 71
     5
 42
15.0
  3
ISO-25
100
AcDbAlignedDimension
 13
1171.000000630722
 23
65.29999956318329
 33
0.0
 14
1186.000000630722
 24
70.29999956318329
 34
0.0
100
AcDbRotatedDimension
  0
DIMENSION
  5
152
330
2
100
AcDbEntity
  8
TEXT
100
AcDbDimension
  2
*D8
 10
1173.500000630722
 20
100.8999995631834
 30
0.0
 11
1185.514286345007
 21
104.3999995631834
 31
0.0
 71
     5
 42
5.5
  3
ISO-25
100
AcDbAlignedDimension
 13
1168.000000630722
 23
116.2999995631833
 33
0.0
 14
1173.500000630722
 24
115.7999995631833
 34
0.0
100
AcDbRotatedDimension
  0
LINE
  5
161
330
2
100
AcDbEntity
  8
CL
100
AcDbLine
 10
1239.000000630722
 20
112.7999995631835
 30
0.0
 11
1239.000000630722
 21
160.0999995631832
 31
0.0
  0
LINE
  5
162
330
2
100
AcDbEntity
  8
0
100
AcDbLine
 10
1255.000000630722
 20
133.9999995631833
 30
0.0
 11
1223.000000630722
 21
133.9999995631833
 31
0.0
  0
LINE
  5
163
330
2
100
AcDbEntity
  8
0
100
AcDbLine
 10
1255.000000630722
 20
135.7999995631833
 30
0.0
 11
1250.300000630721
 21
135.7999995631833
 31
0.0
  0
LINE
  5
164
330
2
100
AcDbEntity
  8
0
100
AcDbLine
 10
1227.700000630721
 20
135.7999995631833
 30
0.0
 11
1223.000000630722
 21
135.7999995631833
 31
0.0
  0
LINE
  5
165
330
2
100
AcDbEntity
  8
0
100
AcDbLine
 10
1223.000000630722
 20
133.9999995631833
 30
0.0
 11
1223.000000630722
 21
135.7999995631833
 31
0.0
  0
LINE
  5
166
330
2
100
AcDbEntity
  8
0
100
AcDbLine
 10
1255.000000630722
 20
133.9999995631833
 30
0.0
 11
1255.000000630722
 21
135.7999995631833
 31
0.0
  0
LINE
  5
167
330
2
100
AcDbEntity
  8
0
100
AcDbLine
 10
1228.000000630722
 20
153.8999995631834
 30
0.0
 11
1250.000000630722
 21
153.8999995631834
 31
0.0
  0
LINE
  5
168
330
2
100
AcDbEntity
  8
0
100
AcDbLine
 10
1228.000000630722
 20
153.8999995631834
 30
0.0
 11
1227.700000630721
 21
135.7999995631833
 31
0.0
  0
LINE
  5
169
330
2
100
AcDbEntity
  8
0
100
AcDbLine
 10
1250.000000630722
 20
153.8999995631834
 30
0.0
 11
1250.300000630721
 21
135.799999563183
 31
0.0
  0
LINE
  5
16A
330
2
100
AcDbEntity
  8
0
100
AcDbLine
 10
1251.100000630721
 20
131.7999995631833
 30
0.0
 11
1244.900000630721
 21
131.7999995631833
 31
0.0
  0
ARC
  5
16B
330
2
100
AcDbEntity
  8
0
100
AcDbCircle
 10
1244.900000630721
 20
132.1999995631834
 30
0.0
 40
0.4
100
AcDbArc
 50
180.0
 51
270.0
  0
LINE
  5
16C
330
2
100
AcDbEntity
  8
0
100
AcDbLine
 10
1244.500000630722
 20
133.9999995631833
 30
0.0
 11
1244.500000630722
 21
132.1999995631834
 31
0.0
  0
LINE
  5
16D
330
2
100
AcDbEntity
  8
0
100
AcDbLine
 10
1251.500000630722
 20
132.7626132089399
 30
0.0
 11
1251.500000630722
 21
132.1999995631831
 31
0.0
  0
ARC
  5
16E
330
2
100
AcDbEntity
  8
0
100
AcDbCircle
 10
1251.100000630721
 20
132.1999995631831
 30
0.0
 40
0.4
100
AcDbArc
 50
270.0
 51
0.0
  0
LINE
  5
16F
330
2
100
AcDbEntity
  8
0
100
AcDbLine
 10
1233.100000630721
 20
131.7999995631833
 30
0.0
 11
1226.900000630721
 21
131.7999995631833
 31
0.0
  0
ARC
  5
170
330
2
100
AcDbEntity
  8
0
100
AcDbCircle
 10
1226.900000630721
 20
132.1999995631834
 30
0.0
 40
0.4
100
AcDbArc
 50
180.0
 51
270.0
  0
LINE
  5
171
330
2
100
AcDbEntity
  8
0
100
AcDbLine
 10
1226.500000630722
 20
132.7626132089399
 30
0.0
 11
1226.500000630722
 21
132.1999995631834
 31
0.0
  0
LINE
  5
172
330
2
100
AcDbEntity
  8
0
100
AcDbLine
 10
1233.500000630722
 20
133.9999995631833
 30
0.0
 11
1233.500000630722
 21
132.1999995631831
 31
0.0
  0
ARC
  5
173
330
2
100
AcDbEntity
  8
0
100
AcDbCircle
 10
1233.100000630721
 20
132.1999995631831
 30
0.0
 40
0.4
100
AcDbArc
 50
270.0
 51
0.0
  0
LINE
  5
174
330
2
100
AcDbEntity
  8
0
100
AcDbLine
 10
1233.446410792235
 20
131.9999995631833
 30
0.0
 11
1244.553590469208
 21
131.9999995631833
 31
0.0
  0
LINE
  5
175
330
2
100
AcDbEntity
  8
0
100
AcDbLine
 10
1255.000000630722
 20
135.7999995631833
 30
0.0
 11
1250.300000630721
 21
135.7999995631833
 31
0.0
  0
LINE
  5
176
330
2
100
AcDbEntity
  8
0
100
AcDbLine
 10
1227.700000630721
 20
135.7999995631833
 30
0.0
 11
1223.000000630722
 21
135.7999995631833
 31
0.0
  0
LINE
  5
177
330
2
100
AcDbEntity
  8
0
100
AcDbLine
 10
1253.715266909913
 20
155.0999995631832
 30
0.0
 11
1224.284734351531
 21
155.0999995631832
 31
0.0
  0
ARC
  5
178
330
2
100
AcDbEntity
  8
0
100
AcDbCircle
 10
1224.284734351531
 20
154.0999995631832
 30
0.0
 40
1.0
100
AcDbArc
 50
90.0
 51
179.1185960034149
  0
LINE
  5
179
330
2
100
AcDbEntity
  8
0
100
AcDbLine
 10
1223.000000630722
 20
135.7999995631833
 30
0.0
 11
1223.284852673722
 21
154.1153823582267
 31
0.0
  0
LINE
  5
17A
330
2
100
AcDbEntity
  8
0
100
AcDbLine
 10
1255.000000630722
 20
135.7999995631833
 30
0.0
 11
1254.715148587721
 21
154.1153823582267
 31
0.0
  0
ARC
  5
17B
330
2
100
AcDbEntity
  8
0
100
AcDbCircle
 10
1253.715266909913
 20
154.0999995631832
 30
0.0
 40
1.0
100
AcDbArc
 50
0.881403996585062
 51
90.0
  0
LINE
  5
17C
330
2
100
AcDbEntity
  8
0
100
AcDbLine
 10
1242.600000630722
 20
157.0999995631832
 30
0.0
 11
1235.400000630722
 21
157.0999995631832
 31
0.0
  0
ARC
  5
17D
330
2
100
AcDbEntity
  8
0
100
AcDbCircle
 10
1235.400000630722
 20
156.6999995631831
 30
0.0
 40
0.4
100
AcDbArc
 50
90.0
 51
180.0
  0
LINE
  5
17E
330
2
100
AcDbEntity
  8
0
100
AcDbLine
 10
1243.000000630722
 20
156.6999995631831
 30
0.0
 11
1243.000000630722
 21
155.0999995631832
 31
0.0
  0
ARC
  5
17F
330
2
100
AcDbEntity
  8
0
100
AcDbCircle
 10
1242.600000630722
 20
156.6999995631831
 30
0.0
 40
0.4
100
AcDbArc
 50
0.0
 51
90.0
  0
LINE
  5
180
330
2
100
AcDbEntity
  8
0
100
AcDbLine
 10
1235.000000630722
 20
156.6999995631831
 30
0.0
 11
1235.000000630722
 21
155.0999995631832
 31
0.0
  0
LINE
  5
181
330
2
100
AcDbEntity
  8
0
100
AcDbLine
 10
1254.550000630722
 20
133.9999995631833
 30
0.0
 11
1251.050000630722
 21
133.9999995631833
 31
0.0
  0
ARC
  5
182
330
2
100
AcDbEntity
  8
0
100
AcDbCircle
 10
1253.800000630722
 20
133.4499995631833
 30
0.0
 40
0.75
100
AcDbArc
 50
270.0
 51
0.0
  0
LINE
  5
183
330
2
100
AcDbEntity
  8
0
100
AcDbLine
 10
1253.800000630722
 20
132.6999995631834
 30
0.0
 11
1251.800000630722
 21
132.6999995631834
 31
0.0
  0
LINE
  5
184
330
2
100
AcDbEntity
  8
0
100
AcDbLine
 10
1251.050000630721
 20
133.9999995631833
 30
0.0
 11
1251.050000630722
 21
133.4499995631833
 31
0.0
  0
ARC
  5
185
330
2
100
AcDbEntity
  8
0
100
AcDbCircle
 10
1251.800000630722
 20
133.4499995631833
 30
0.0
 40
0.75
100
AcDbArc
 50
180.0
 51
270.0
  0
LINE
  5
186
330
2
100
AcDbEntity
  8
0
100
AcDbLine
 10
1254.550000630721
 20
133.9999995631833
 30
0.0
 11
1254.550000630722
 21
133.4499995631833
 31
0.0
  0
LINE
  5
187
330
2
100
AcDbEntity
  8
0
100
AcDbLine
 10
1226.950000630721
 20
133.9999995631833
 30
0.0
 11
1223.450000630722
 21
133.9999995631833
 31
0.0
  0
ARC
  5
188
330
2
100
AcDbEntity
  8
0
100
AcDbCircle
 10
1226.200000630721
 20
133.4499995631833
 30
0.0
 40
0.75
100
AcDbArc
 50
270.0
 51
0.0
  0
LINE
  5
189
330
2
100
AcDbEntity
  8
0
100
AcDbLine
 10
1226.200000630721
 20
132.6999995631834
 30
0.0
 11
1224.200000630722
 21
132.6999995631834
 31
0.0
  0
LINE
  5
18A
330
2
100
AcDbEntity
  8
0
100
AcDbLine
 10
1223.450000630722
 20
133.9999995631833
 30
0.0
 11
1223.450000630722
 21
133.4499995631833
 31
0.0
  0
ARC
  5
18B
330
2
100
AcDbEntity
  8
0
100
AcDbCircle
 10
1224.200000630722
 20
133.4499995631833
 30
0.0
 40
0.75
100
AcDbArc
 50
180.0
 51
270.0
  0
LINE
  5
18C
330
2
100
AcDbEntity
  8
0
100
AcDbLine
 10
1226.950000630721
 20
133.9999995631833
 30
0.0
 11
1226.950000630721
 21
133.4499995631833
 31
0.0
  0
LINE
  5
18D
330
2
100
AcDbEntity
  8
0
100
AcDbLine
 10
1242.000000630722
 20
131.9999995631833
 30
0.0
 11
1242.000000630721
 21
116.2999995631826
 31
0.0
  0
LINE
  5
18E
330
2
100
AcDbEntity
  8
0
100
AcDbLine
 10
1236.000000630722
 20
131.9999995631832
 30
0.0
 11
1236.000000630722
 21
116.2999995631835
 31
0.0
  0
LINE
  5
18F
330
2
100
AcDbEntity
  8
0
100
AcDbLine
 10
1241.500000630722
 20
115.7999995631835
 30
0.0
 11
1236.500000630722
 21
115.7999995631835
 31
0.0
  0
LINE
  5
190
330
2
100
AcDbEntity
  8
0
100
AcDbLine
 10
1236.500000630722
 20
115.7999995631835
 30
0.0
 11
1236.000000630722
 21
116.2999995631835
 31
0.0
  0
LINE
  5
191
330
2
100
AcDbEntity
  8
0
100
AcDbLine
 10
1237.341688235544
 20
125.7999995631835
 30
0.0
 11
1240.658313025899
 21
125.7999995631835
 31
0.0
  0
LINE
  5
192
330
2
100
AcDbEntity
  8
0
100
AcDbLine
 10
1242.000000630722
 20
116.2999995631835
 30
0.0
 11
1240.658313025899
 21
116.2999995631835
 31
0.0
  0
LINE
  5
193
330
2
100
AcDbEntity
  8
0
100
AcDbLine
 10
1237.341688235544
 20
116.2999995631835
 30
0.0
 11
1236.000000630722
 21
116.2999995631835
 31
0.0
  0
LINE
  5
194
330
2
100
AcDbEntity
  8
0
100
AcDbLine
 10
1241.500000630722
 20
115.7999995631835
 30
0.0
 11
1242.000000630722
 21
116.2999995631835
 31
0.0
  0
LINE
  5
195
330
2
100
AcDbEntity
  8
0
100
AcDbLine
 10
1237.341688235544
 20
115.7999995631835
 30
0.0
 11
1237.341688235544
 21
125.7999995631833
 31
0.0
  0
LINE
  5
196
330
2
100
AcDbEntity
  8
0
100
AcDbLine
 10
1240.658313025899
 20
115.7999995631835
 30
0.0
 11
1240.658313025899
 21
125.7999995631835
 31
0.0
  0
CIRCLE
  5
197
330
2
100
AcDbEntity
  8
0
100
AcDbCircle
 10
1183.800000630722
 20
70.09999956318324
 30
0.0
 40
1.75
  0
ARC
  5
198
330
2
100
AcDbEntity
  8
0
100
AcDbCircle
 10
1184.362500630722
 20
70.66249956318324
 30
0.0
 40
0.3125
100
AcDbArc
 50
180.0
 51
270.0
  0
ARC
  5
199
330
2
100
AcDbEntity
  8
0
100
AcDbCircle
 10
1183.237500630722
 20
70.66249956318324
 30
0.0
 40
0.3125
100
AcDbArc
 50
270.0
 51
0.0
  0
LINE
  5
19A
330
2
100
AcDbEntity
  8
0
100
AcDbLine
 10
1184.362500630722
 20
70.34999956318324
 30
0.0
 11
1184.800000630722
 21
70.34999956318324
 31
0.0
  0
ARC
  5
19B
330
2
100
AcDbEntity
  8
0
100
AcDbCircle
 10
1184.362500630722
 20
69.53749956318325
 30
0.0
 40
0.3125
100
AcDbArc
 50
90.0
 51
180.0
  0
LINE
  5
19C
330
2
100
AcDbEntity
  8
0
100
AcDbLine
 10
1184.362500630722
 20
69.84999956318325
 30
0.0
 11
1184.800000630722
 21
69.84999956318325
 31
0.0
  0
LINE
  5
19D
330
2
100
AcDbEntity
  8
0
100
AcDbLine
 10
1184.050000630722
 20
69.09999956318324
 30
0.0
 11
1184.050000630722
 21
69.53749956318325
 31
0.0
  0
LINE
  5
19E
330
2
100
AcDbEntity
  8
0
100
AcDbLine
 10
1184.800000630722
 20
70.34999956318324
 30
0.0
 11
1184.800000630722
 21
69.84999956318325
 31
0.0
  0
ARC
  5
19F
330
2
100
AcDbEntity
  8
0
100
AcDbCircle
 10
1183.237500630722
 20
69.53749956318325
 30
0.0
 40
0.3125
100
AcDbArc
 50
0.0
 51
90.0
  0
LINE
  5
1A0
330
2
100
AcDbEntity
  8
0
100
AcDbLine
 10
1182.800000630722
 20
70.34999956318324
 30
0.0
 11
1183.237500630722
 21
70.34999956318324
 31
0.0
  0
LINE
  5
1A1
330
2
100
AcDbEntity
  8
0
100
AcDbLine
 10
1182.800000630722
 20
69.84999956318325
 30
0.0
 11
1183.237500630722
 21
69.84999956318325
 31
0.0
  0
LINE
  5
1A2
330
2
100
AcDbEntity
  8
0
100
AcDbLine
 10
1182.800000630722
 20
70.34999956318324
 30
0.0
 11
1182.800000630722
 21
69.84999956318325
 31
0.0
  0
LINE
  5
1A3
330
2
100
AcDbEntity
  8
0
100
AcDbLine
 10
1183.550000630722
 20
69.09999956318324
 30
0.0
 11
1183.550000630722
 21
69.53749956318325
 31
0.0
  0
LINE
  5
1A4
330
2
100
AcDbEntity
  8
0
100
AcDbLine
 10
1183.550000630722
 20
69.09999956318324
 30
0.0
 11
1184.050000630722
 21
69.09999956318324
 31
0.0
  0
LINE
  5
1A5
330
2
100
AcDbEntity
  8
0
100
AcDbLine
 10
1184.050000630722
 20
70.66249956318324
 30
0.0
 11
1184.050000630722
 21
71.09999956318325
 31
0.0
  0
LINE
  5
1A6
330
2
100
AcDbEntity
  8
0
100
AcDbLine
 10
1183.550000630722
 20
70.66249956318324
 30
0.0
 11
1183.550000630722
 21
71.09999956318325
 31
0.0
  0
LINE
  5
1A7
330
2
100
AcDbEntity
  8
0
100
AcDbLine
 10
1183.550000630722
 20
71.09999956318325
 30
0.0
 11
1184.050000630722
 21
71.09999956318325
 31
0.0
  0
CIRCLE
  5
1A8
330
2
100
AcDbEntity
  8
0
100
AcDbCircle
 10
1183.800000630722
 20
42.49999956318333
 30
0.0
 40
1.75
  0
ARC
  5
1A9
330
2
100
AcDbEntity
  8
0
100
AcDbCircle
 10
1184.362500630722
 20
43.06249956318334
 30
0.0
 40
0.3125
100
AcDbArc
 50
180.0
 51
270.0
  0
ARC
  5
1AA
330
2
100
AcDbEntity
  8
0
100
AcDbCircle
 10
1183.237500630722
 20
43.06249956318334
 30
0.0
 40
0.3125
100
AcDbArc
 50
270.0
 51
0.0
  0
LINE
  5
1AB
330
2
100
AcDbEntity
  8
0
100
AcDbLine
 10
1184.362500630722
 20
42.74999956318334
 30
0.0
 11
1184.800000630722
 21
42.74999956318334
 31
0.0
  0
ARC
  5
1AC
330
2
100
AcDbEntity
  8
0
100
AcDbCircle
 10
1184.362500630722
 20
41.93749956318334
 30
0.0
 40
0.3125
100
AcDbArc
 50
90.0
 51
180.0
  0
LINE
  5
1AD
330
2
100
AcDbEntity
  8
0
100
AcDbLine
 10
1184.362500630722
 20
42.24999956318334
 30
0.0
 11
1184.800000630722
 21
42.24999956318334
 31
0.0
  0
LINE
  5
1AE
330
2
100
AcDbEntity
  8
0
100
AcDbLine
 10
1184.050000630722
 20
41.49999956318334
 30
0.0
 11
1184.050000630722
 21
41.93749956318334
 31
0.0
  0
LINE
  5
1AF
330
2
100
AcDbEntity
  8
0
100
AcDbLine
 10
1184.800000630722
 20
42.74999956318334
 30
0.0
 11
1184.800000630722
 21
42.24999956318334
 31
0.0
  0
ARC
  5
1B0
330
2
100
AcDbEntity
  8
0
100
AcDbCircle
 10
1183.237500630722
 20
41.93749956318334
 30
0.0
 40
0.3125
100
AcDbArc
 50
0.0
 51
90.0
  0
LINE
  5
1B1
330
2
100
AcDbEntity
  8
0
100
AcDbLine
 10
1182.800000630722
 20
42.74999956318334
 30
0.0
 11
1183.237500630722
 21
42.74999956318334
 31
0.0
  0
LINE
  5
1B2
330
2
100
AcDbEntity
  8
0
100
AcDbLine
 10
1182.800000630722
 20
42.24999956318334
 30
0.0
 11
1183.237500630722
 21
42.24999956318334
 31
0.0
  0
LINE
  5
1B3
330
2
100
AcDbEntity
  8
0
100
AcDbLine
 10
1182.800000630722
 20
42.74999956318334
 30
0.0
 11
1182.800000630722
 21
42.24999956318334
 31
0.0
  0
LINE
  5
1B4
330
2
100
AcDbEntity
  8
0
100
AcDbLine
 10
1183.550000630722
 20
41.49999956318334
 30
0.0
 11
1183.550000630722
 21
41.93749956318334
 31
0.0
  0
LINE
  5
1B5
330
2
100
AcDbEntity
  8
0
100
AcDbLine
 10
1183.550000630722
 20
41.49999956318334
 30
0.0
 11
1184.050000630722
 21
41.49999956318334
 31
0.0
  0
LINE
  5
1B6
330
2
100
AcDbEntity
  8
0
100
AcDbLine
 10
1184.050000630722
 20
43.06249956318334
 30
0.0
 11
1184.050000630722
 21
43.49999956318334
 31
0.0
  0
LINE
  5
1B7
330
2
100
AcDbEntity
  8
0
100
AcDbLine
 10
1183.550000630722
 20
43.06249956318334
 30
0.0
 11
1183.550000630722
 21
43.49999956318334
 31
0.0
  0
LINE
  5
1B8
330
2
100
AcDbEntity
  8
0
100
AcDbLine
 10
1183.550000630722
 20
43.49999956318334
 30
0.0
 11
1184.050000630722
 21
43.49999956318334
 31
0.0
  0
CIRCLE
  5
1B9
330
2
100
AcDbEntity
  8
0
100
AcDbCircle
 10
1150.000000630722
 20
42.49999956318333
 30
0.0
 40
1.75
  0
ARC
  5
1BA
330
2
100
AcDbEntity
  8
0
100
AcDbCircle
 10
1150.562500630722
 20
43.06249956318334
 30
0.0
 40
0.3125
100
AcDbArc
 50
180.0
 51
270.0
  0
ARC
  5
1BB
330
2
100
AcDbEntity
  8
0
100
AcDbCircle
 10
1149.437500630722
 20
43.06249956318334
 30
0.0
 40
0.3125
100
AcDbArc
 50
270.0
 51
0.0
  0
LINE
  5
1BC
330
2
100
AcDbEntity
  8
0
100
AcDbLine
 10
1150.562500630722
 20
42.74999956318334
 30
0.0
 11
1151.000000630722
 21
42.74999956318334
 31
0.0
  0
ARC
  5
1BD
330
2
100
AcDbEntity
  8
0
100
AcDbCircle
 10
1150.562500630722
 20
41.93749956318334
 30
0.0
 40
0.3125
100
AcDbArc
 50
90.0
 51
180.0
  0
LINE
  5
1BE
330
2
100
AcDbEntity
  8
0
100
AcDbLine
 10
1150.562500630722
 20
42.24999956318334
 30
0.0
 11
1151.000000630722
 21
42.24999956318334
 31
0.0
  0
LINE
  5
1BF
330
2
100
AcDbEntity
  8
0
100
AcDbLine
 10
1150.250000630722
 20
41.49999956318334
 30
0.0
 11
1150.250000630722
 21
41.93749956318334
 31
0.0
  0
LINE
  5
1C0
330
2
100
AcDbEntity
  8
0
100
AcDbLine
 10
1151.000000630722
 20
42.74999956318334
 30
0.0
 11
1151.000000630722
 21
42.24999956318334
 31
0.0
  0
ARC
  5
1C1
330
2
100
AcDbEntity
  8
0
100
AcDbCircle
 10
1149.437500630722
 20
41.93749956318334
 30
0.0
 40
0.3125
100
AcDbArc
 50
0.0
 51
90.0
  0
LINE
  5
1C2
330
2
100
AcDbEntity
  8
0
100
AcDbLine
 10
1149.000000630722
 20
42.74999956318334
 30
0.0
 11
1149.437500630722
 21
42.74999956318334
 31
0.0
  0
LINE
  5
1C3
330
2
100
AcDbEntity
  8
0
100
AcDbLine
 10
1149.000000630722
 20
42.24999956318334
 30
0.0
 11
1149.437500630722
 21
42.24999956318334
 31
0.0
  0
LINE
  5
1C4
330
2
100
AcDbEntity
  8
0
100
AcDbLine
 10
1149.000000630722
 20
42.74999956318334
 30
0.0
 11
1149.000000630722
 21
42.24999956318334
 31
0.0
  0
LINE
  5
1C5
330
2
100
AcDbEntity
  8
0
100
AcDbLine
 10
1149.750000630722
 20
41.49999956318334
 30
0.0
 11
1149.750000630722
 21
41.93749956318334
 31
0.0
  0
LINE
  5
1C6
330
2
100
AcDbEntity
  8
0
100
AcDbLine
 10
1149.750000630722
 20
41.49999956318334
 30
0.0
 11
1150.250000630722
 21
41.49999956318334
 31
0.0
  0
LINE
  5
1C7
330
2
100
AcDbEntity
  8
0
100
AcDbLine
 10
1150.250000630722
 20
43.06249956318334
 30
0.0
 11
1150.250000630722
 21
43.49999956318334
 31
0.0
  0
LINE
  5
1C8
330
2
100
AcDbEntity
  8
0
100
AcDbLine
 10
1149.750000630722
 20
43.06249956318334
 30
0.0
 11
1149.750000630722
 21
43.49999956318334
 31
0.0
  0
LINE
  5
1C9
330
2
100
AcDbEntity
  8
0
100
AcDbLine
 10
1149.750000630722
 20
43.49999956318334
 30
0.0
 11
1150.250000630722
 21
43.49999956318334
 31
0.0
  0
CIRCLE
  5
1CA
330
2
100
AcDbEntity
  8
0
100
AcDbCircle
 10
1142.200000630722
 20
70.09999956318324
 30
0.0
 40
1.75
  0
ARC
  5
1CB
330
2
100
AcDbEntity
  8
0
100
AcDbCircle
 10
1142.762500630722
 20
70.66249956318324
 30
0.0
 40
0.3125
100
AcDbArc
 50
180.0
 51
270.0
  0
ARC
  5
1CC
330
2
100
AcDbEntity
  8
0
100
AcDbCircle
 10
1141.637500630722
 20
70.66249956318324
 30
0.0
 40
0.3125
100
AcDbArc
 50
270.0
 51
0.0
  0
LINE
  5
1CD
330
2
100
AcDbEntity
  8
0
100
AcDbLine
 10
1142.762500630722
 20
70.34999956318324
 30
0.0
 11
1143.200000630722
 21
70.34999956318324
 31
0.0
  0
ARC
  5
1CE
330
2
100
AcDbEntity
  8
0
100
AcDbCircle
 10
1142.762500630722
 20
69.53749956318325
 30
0.0
 40
0.3125
100
AcDbArc
 50
90.0
 51
180.0
  0
LINE
  5
1CF
330
2
100
AcDbEntity
  8
0
100
AcDbLine
 10
1142.762500630722
 20
69.84999956318325
 30
0.0
 11
1143.200000630722
 21
69.84999956318325
 31
0.0
  0
LINE
  5
1D0
330
2
100
AcDbEntity
  8
0
100
AcDbLine
 10
1142.450000630722
 20
69.09999956318324
 30
0.0
 11
1142.450000630722
 21
69.53749956318325
 31
0.0
  0
LINE
  5
1D1
330
2
100
AcDbEntity
  8
0
100
AcDbLine
 10
1143.200000630722
 20
70.34999956318324
 30
0.0
 11
1143.200000630722
 21
69.84999956318325
 31
0.0
  0
ARC
  5
1D2
330
2
100
AcDbEntity
  8
0
100
AcDbCircle
 10
1141.637500630722
 20
69.53749956318325
 30
0.0
 40
0.3125
100
AcDbArc
 50
0.0
 51
90.0
  0
LINE
  5
1D3
330
2
100
AcDbEntity
  8
0
100
AcDbLine
 10
1141.200000630722
 20
70.34999956318324
 30
0.0
 11
1141.637500630722
 21
70.34999956318324
 31
0.0
  0
LINE
  5
1D4
330
2
100
AcDbEntity
  8
0
100
AcDbLine
 10
1141.200000630722
 20
69.84999956318325
 30
0.0
 11
1141.637500630722
 21
69.84999956318325
 31
0.0
  0
LINE
  5
1D5
330
2
100
AcDbEntity
  8
0
100
AcDbLine
 10
1141.200000630722
 20
70.34999956318324
 30
0.0
 11
1141.200000630722
 21
69.84999956318325
 31
0.0
  0
LINE
  5
1D6
330
2
100
AcDbEntity
  8
0
100
AcDbLine
 10
1141.950000630722
 20
69.09999956318324
 30
0.0
 11
1141.950000630722
 21
69.53749956318325
 31
0.0
  0
LINE
  5
1D7
330
2
100
AcDbEntity
  8
0
100
AcDbLine
 10
1141.950000630722
 20
69.09999956318324
 30
0.0
 11
1142.450000630722
 21
69.09999956318324
 31
0.0
  0
LINE
  5
1D8
330
2
100
AcDbEntity
  8
0
100
AcDbLine
 10
1142.450000630722
 20
70.66249956318324
 30
0.0
 11
1142.450000630722
 21
71.09999956318325
 31
0.0
  0
LINE
  5
1D9
330
2
100
AcDbEntity
  8
0
100
AcDbLine
 10
1141.950000630722
 20
70.66249956318324
 30
0.0
 11
1141.950000630722
 21
71.09999956318325
 31
0.0
  0
LINE
  5
1DA
330
2
100
AcDbEntity
  8
0
100
AcDbLine
 10
1141.950000630722
 20
71.09999956318325
 30
0.0
 11
1142.450000630722
 21
71.09999956318325
 31
0.0
  0
LINE
  5
1DB
330
2
100
AcDbEntity
  8
0
100
AcDbLine
 10
1185.550000630722
 20
133.9999995631831
 30
0.0
 11
1182.050000630722
 21
133.9999995631831
 31
0.0
  0
ARC
  5
1DC
330
2
100
AcDbEntity
  8
0
100
AcDbCircle
 10
1184.800000630722
 20
133.4499995631831
 30
0.0
 40
0.75
100
AcDbArc
 50
270.0
 51
0.0
  0
LINE
  5
1DD
330
2
100
AcDbEntity
  8
0
100
AcDbLine
 10
1184.800000630722
 20
132.6999995631831
 30
0.0
 11
1182.800000630722
 21
132.6999995631831
 31
0.0
  0
LINE
  5
1DE
330
2
100
AcDbEntity
  8
0
100
AcDbLine
 10
1182.050000630721
 20
133.9999995631831
 30
0.0
 11
1182.050000630722
 21
133.4499995631831
 31
0.0
  0
ARC
  5
1DF
330
2
100
AcDbEntity
  8
0
100
AcDbCircle
 10
1182.800000630722
 20
133.4499995631831
 30
0.0
 40
0.75
100
AcDbArc
 50
180.0
 51
270.0
  0
LINE
  5
1E0
330
2
100
AcDbEntity
  8
0
100
AcDbLine
 10
1185.550000630721
 20
133.9999995631831
 30
0.0
 11
1185.550000630722
 21
133.4499995631831
 31
0.0
  0
LINE
  5
1E1
330
2
100
AcDbEntity
  8
0
100
AcDbLine
 10
1143.950000630721
 20
133.9999995631833
 30
0.0
 11
1140.450000630721
 21
133.9999995631833
 31
0.0
  0
ARC
  5
1E2
330
2
100
AcDbEntity
  8
0
100
AcDbCircle
 10
1143.200000630721
 20
133.4499995631833
 30
0.0
 40
0.75
100
AcDbArc
 50
270.0
 51
0.0
  0
LINE
  5
1E3
330
2
100
AcDbEntity
  8
0
100
AcDbLine
 10
1143.200000630721
 20
132.6999995631834
 30
0.0
 11
1141.200000630721
 21
132.6999995631834
 31
0.0
  0
LINE
  5
1E4
330
2
100
AcDbEntity
  8
0
100
AcDbLine
 10
1140.450000630721
 20
133.9999995631833
 30
0.0
 11
1140.450000630721
 21
133.4499995631833
 31
0.0
  0
ARC
  5
1E5
330
2
100
AcDbEntity
  8
0
100
AcDbCircle
 10
1141.200000630721
 20
133.4499995631833
 30
0.0
 40
0.75
100
AcDbArc
 50
180.0
 51
270.0
  0
LINE
  5
1E6
330
2
100
AcDbEntity
  8
0
100
AcDbLine
 10
1143.950000630721
 20
133.9999995631833
 30
0.0
 11
1143.950000630721
 21
133.4499995631833
 31
0.0
  0
LEADER
  5
1E7
330
2
100
AcDbEntity
  8
TEXT
100
AcDbLeader
  3
ISO-25
 76
     3
 10
1147.68146847749
 20
66.63626359915088
 30
0.0
 10
1155.000000630722
 20
81.99999956318334
 30
0.0
 10
1133.000000630722
 20
81.99999956318334
 30
0.0
  0
CIRCLE
  5
1E8
330
2
100
AcDbEntity
  8
0
100
AcDbCircle
 10
1171.000000630722
 20
56.29999956318329
 30
0.0
 40
6.799999999999999
  0
CIRCLE
  5
1E9
330
2
100
AcDbEntity
  8
0
100
AcDbCircle
 10
1158.780391171805
 20
61.80040944454276
 30
0.0
 40
3.5
  0
CIRCLE
  5
1EA
330
2
100
AcDbEntity
  8
0
100
AcDbCircle
 10
1158.968791215206
 20
50.39999956318343
 30
0.0
 40
3.5
  0
DIMENSION
  5
1EB
330
2
100
AcDbEntity
  8
TEXT
100
AcDbDimension
  2
*D9
 10
1097.0
 20
131.799999563183
 30
0.0
 11
1093.5
 21
139.2999995631835
 31
0.0
 71
     5
 42
15.00000000000045
  3
ISO-25
100
AcDbAlignedDimension
 13
1105.500000630722
 23
146.7999995631835
 33
0.0
 14
1143.400000630721
 24
131.799999563183
 34
0.0
 50
90.0
100
AcDbRotatedDimension
  0
DIMENSION
  5
1F8
330
2
100
AcDbEntity
  8
TEXT
100
AcDbDimension
  2
*D10
 10
1203.000000630722
 20
131.799999563183
 30
0.0
 11
1199.500000630722
 21
123.7999995631833
 31
0.0
 71
     5
 42
15.99999999999977
  3
ISO-25
100
AcDbAlignedDimension
 13
1173.500000630722
 23
115.7999995631833
 33
0.0
 14
1183.600000630722
 24
131.799999563183
 34
0.0
 50
90.0
100
AcDbRotatedDimension
  0
DIMENSION
  5
205
330
2
100
AcDbEntity
  8
TEXT
100
AcDbDimension
  2
*D11
 10
1203.000000630722
 20
157.0999995631832
 30
0.0
 11
1199.500000630722
 21
167.3999995631834
 31
0.0
 71
     5
 42
2.0
  3
ISO-25
100
AcDbAlignedDimension
 13
1185.000000630722
 23
155.0999995631832
 33
0.0
 14
1174.600000630722
 24
157.0999995631832
 34
0.0
 50
90.0
100
AcDbRotatedDimension
  0
DIMENSION
  5
214
330
2
100
AcDbEntity
  8
TEXT
100
AcDbDimension
  2
*D12
 10
1193.000000630722
 20
125.7999995631833
 30
0.0
 11
1189.500000630722
 21
120.7999995631835
 31
0.0
 71
     5
 42
10.0
  3
ISO-25
100
AcDbAlignedDimension
 13
1173.500000630722
 23
115.7999995631833
 33
0.0
 14
1174.000000630722
 24
125.7999995631833
 34
0.0
 50
90.0
100
AcDbRotatedDimension
  0
DIMENSION
  5
223
330
2
100
AcDbEntity
  8
TEXT
100
AcDbDimension
  2
*D13
 10
1140.000000630722
 20
18.99999956318334
 30
0.0
 11
1124.600000630722
 21
22.49999956318334
 31
0.0
 71
     5
 42
30.80000000000018
  3
ISO-25
100
AcDbAlignedDimension
 13
1109.200000630721
 23
42.09999956318301
 33
0.0
 14
1140.000000630722
 24
42.29999956318306
 34
0.0
100
AcDbRotatedDimension
  0
ARC
  5
230
330
2
100
AcDbEntity
  8
0
100
AcDbCircle
 10
1147.000000630722
 20
65.29999956318329
 30
0.0
 40
1.5
100
AcDbArc
 50
259.8788611531352
 51
190.2121249084009
  0
CIRCLE
  5
231
330
2
100
AcDbEntity
  8
0
100
AcDbCircle
 10
1147.000000630722
 20
65.29999956318329
 30
0.0
 40
1.199999999999999
  0
ARC
  5
232
330
2
100
AcDbEntity
  8
0
100
AcDbCircle
 10
1147.000000630722
 20
47.29999956318329
 30
0.0
 40
1.5
100
AcDbArc
 50
259.8788611531352
 51
190.2121249084009
  0
CIRCLE
  5
233
330
2
100
AcDbEntity
  8
0
100
AcDbCircle
 10
1147.000000630722
 20
47.29999956318329
 30
0.0
 40
1.199999999999999
  0
ARC
  5
234
330
2
100
AcDbEntity
  8
0
100
AcDbCircle
 10
1180.000000630722
 20
47.29999956318329
 30
0.0
 40
1.5
100
AcDbArc
 50
259.8788611531352
 51
190.2121249084009
  0
CIRCLE
  5
235
330
2
100
AcDbEntity
  8
0
100
AcDbCircle
 10
1180.000000630722
 20
47.29999956318329
 30
0.0
 40
1.199999999999999
  0
ARC
  5
236
330
2
100
AcDbEntity
  8
0
100
AcDbCircle
 10
1180.000000630722
 20
65.29999956318329
 30
0.0
 40
1.5
100
AcDbArc
 50
259.8788611531352
 51
190.2121249084009
  0
CIRCLE
  5
237
330
2
100
AcDbEntity
  8
0
100
AcDbCircle
 10
1180.000000630722
 20
65.29999956318329
 30
0.0
 40
1.199999999999999
  0
ARC
  5
238
330
2
100
AcDbEntity
  8
0
100
AcDbCircle
 10
1150.000000630722
 20
42.49999956318333
 30
0.0
 40
2.299999999999999
100
AcDbArc
 50
87.00957585032503
 51
157.0011905658296
  0
DIMENSION
  5
239
330
2
100
AcDbEntity
  8
TEXT
100
AcDbDimension
  2
*D14
 10
1203.000000630722
 20
155.0999995631832
 30
0.0
 11
1199.500000630722
 21
143.4499995631833
 31
0.0
 71
     5
 42
23.30000000000018
  3
ISO-25
100
AcDbAlignedDimension
 13
1183.600000630722
 23
131.799999563183
 33
0.0
 14
1185.000000630722
 24
155.0999995631832
 34
0.0
 50
90.0
100
AcDbRotatedDimension
  0
DIMENSION
  5
246
330
2
100
AcDbEntity
  8
TEXT
100
AcDbDimension
  2
*D15
 10
1140.000000630722
 20
27.99999956318334
 30
0.0
 11
1143.500000630722
 21
31.49999956318334
 31
0.0
 71
     5
 42
7.0
  3
ISO-25
100
AcDbAlignedDimension
 13
1147.000000630722
 23
42.29999956318329
 33
0.0
 14
1140.000000630722
 24
42.29999956318306
 34
0.0
100
AcDbRotatedDimension
  0
TEXT
  5
255
330
2
100
AcDbEntity
  8
TEXT
100
AcDbText
 10
1189.672204126071
 20
104.912518467423
 30
0.0
 40
2.0
  1
 0
 41
0.6
  7
GHS
100
AcDbText
  0
TEXT
  5
256
330
2
100
AcDbEntity
  8
TEXT
100
AcDbText
 10
1189.672204126071
 20
101.912518467423
 30
0.0
 40
2.0
  1
-0.1
 41
0.6
  7
GHS
100
AcDbText
  0
LINE
  5
257
330
2
100
AcDbEntity
  8
0
100
AcDbLine
 10
1106.200000630721
 20
54.09999956318324
 30
0.0
 11
1106.200000630721
 21
54.49999956318333
 31
0.0
  0
TEXT
  5
258
330
2
100
AcDbEntity
  8
TEXT
100
AcDbText
 10
1197.946941497029
 20
127.0006748643509
 30
0.0
 40
2.0
  1
+0.3
 50
90.0
 41
0.6
  7
GHS
100
AcDbText
  0
TEXT
  5
259
330
2
100
AcDbEntity
  8
TEXT
100
AcDbText
 10
1200.946941497029
 20
127.0006748643509
 30
0.0
 40
2.0
  1
 0
 50
90.0
 41
0.6
  7
GHS
100
AcDbText
  0
DIMENSION
  5
25A
330
2
100
AcDbEntity
  8
TEXT
100
AcDbDimension
  2
*D0
 10
1242.000000630721
 20
100.9999995631833
 30
0.0
 11
1253.385714916435
 21
104.4999995631833
 31
0.0
  1
%%C<>
 71
     5
 42
5.99999999999909
  3
ISO-25
100
AcDbAlignedDimension
 13
1236.000000630722
 23
116.2999995631835
 33
0.0
 14
1242.000000630721
 24
116.2999995631826
 34
0.0
100
AcDbRotatedDimension
  0
LINE
  5
269
330
2
100
AcDbEntity
  8
0
100
AcDbLine
 10
1237.341688235544
 20
115.7999995631835
 30
0.0
 11
1240.658313025899
 21
125.7999995631835
 31
0.0
  0
LINE
  5
26A
330
2
100
AcDbEntity
  8
0
100
AcDbLine
 10
1237.341688235544
 20
125.7999995631835
 30
0.0
 11
1240.658313025899
 21
115.7999995631835
 31
0.0
  0
TEXT
  5
26B
330
2
100
AcDbEntity
  8
TEXT
100
AcDbText
 10
1135.0
 20
83.0
 30
0.0
 40
4.0
  1
4-M3 TAP
 41
0.6
  7
GHS
100
AcDbText
  0
TEXT
  5
26C
330
2
100
AcDbEntity
  8
TEXT
100
AcDbText
 10
1135.0
 20
77.0
 30
0.0
 40
4.0
  1
DP 6
 41
0.6
  7
GHS
100
AcDbText
  0
ENDSEC
  0
SECTION
  2
OBJECTS
  0
DICTIONARY
  5
C
330
0
100
AcDbDictionary
281
     1
  3
ACAD_2007HEADERVARS_RT
350
2C3
  3
ACAD_COLOR
350
59
  3
ACAD_GROUP
350
46
  3
ACAD_LAYOUT
350
19
  3
ACAD_MATERIAL
350
E
  3
ACAD_MLEADERSTYLE
350
29D
  3
ACAD_MLINESTYLE
350
47
  3
ACAD_PLOTSETTINGS
350
48
  3
ACAD_PLOTSTYLENAME
350
B
  3
ACAD_SCALELIST
350
5A
  3
ACAD_TABLESTYLE
350
5B
  3
ACAD_VISUALSTYLE
350
32
  3
ACDB_RECOMPOSE_DATA
350
271
  3
AcDbVariableDictionary
350
286
  0
DICTIONARY
  5
33
330
2F
100
AcDbDictionary
280
     1
281
     1
  0
DICTIONARY
  5
22
330
21
100
AcDbDictionary
280
     1
281
     1
  3
ACAD_LAYERFILTERS
360
23
  3
ACAD_LAYERSTATES
360
24
  3
ACLYDICTIONARY
360
25
  0
DICTIONARY
  5
8
330
7
100
AcDbDictionary
280
     1
281
     1
  3
ADSK_XREC_LAYER_RECONCILED
360
9
  0
DICTIONARY
  5
8B
330
8A
100
AcDbDictionary
280
     1
281
     1
  3
ADSK_XREC_LAYER_RECONCILED
360
8C
  0
DICTIONARY
  5
5D
330
5C
100
AcDbDictionary
280
     1
281
     1
  3
ADSK_XREC_LAYER_RECONCILED
360
5E
  0
DICTIONARY
  5
3
330
2
100
AcDbDictionary
280
     1
281
     1
  3
ACAD_LAYOUTSELFREF
360
4
  3
ACAD_SORTENTS
360
26D
  0
DICTIONARY
  5
1C
330
1B
100
AcDbDictionary
280
     1
281
     1
  3
ACAD_LAYOUTSELFREF
360
1D
  0
DICTIONARY
  5
2C3
102
{ACAD_REACTORS
330
C
102
}
330
C
100
AcDbDictionary
281
     1
  3
DIMLTEX1
350
2C5
  3
DIMLTEX2
350
2C6
  3
DIMLTYPE
350
2C4
  0
DICTIONARY
  5
59
102
{ACAD_REACTORS
330
C
102
}
330
C
100
AcDbDictionary
281
     1
  0
DICTIONARY
  5
46
102
{ACAD_REACTORS
330
C
102
}
330
C
100
AcDbDictionary
281
     1
  0
DICTIONARY
  5
19
102
{ACAD_REACTORS
330
C
102
}
330
C
100
AcDbDictionary
281
     1
  3
Layout1
350
20
  3
Model
350
18
  0
DICTIONARY
  5
E
102
{ACAD_REACTORS
330
C
102
}
330
C
100
AcDbDictionary
281
     1
  3
ByBlock
350
51
  3
ByLayer
350
49
  3
Global
350
D
  0
DICTIONARY
  5
29D
102
{ACAD_REACTORS
330
C
102
}
330
C
100
AcDbDictionary
281
     1
  3
Standard
350
29E
  0
DICTIONARY
  5
47
102
{ACAD_REACTORS
330
C
102
}
330
C
100
AcDbDictionary
281
     1
  3
Standard
350
5F
  0
DICTIONARY
  5
48
102
{ACAD_REACTORS
330
C
102
}
330
C
100
AcDbDictionary
281
     1
  0
ACDBDICTIONARYWDFLT
  5
B
102
{ACAD_REACTORS
330
C
102
}
330
C
100
AcDbDictionary
281
     1
  3
Normal
350
A
100
AcDbDictionaryWithDefault
340
A
  0
DICTIONARY
  5
5A
102
{ACAD_REACTORS
330
C
102
}
330
C
100
AcDbDictionary
281
     1
  3
*A1
350
64
  3
A0
350
65
  3
A1
350
66
  3
A2
350
67
  3
A3
350
68
  3
A4
350
69
  3
A5
350
6A
  3
A6
350
6B
  3
A7
350
6C
  3
A8
350
6D
  3
A9
350
6E
  3
B0
350
6F
  3
B1
350
70
  3
B2
350
71
  3
B3
350
72
  3
B4
350
73
  3
B5
350
74
  3
B6
350
75
  3
B7
350
76
  3
B8
350
77
  3
B9
350
78
  3
C0
350
79
  3
C1
350
7A
  3
C2
350
7B
  3
C3
350
7C
  3
C4
350
7D
  3
C5
350
7E
  3
C6
350
7F
  3
C7
350
80
  3
C8
350
81
  3
C9
350
82
  3
D0
350
83
  3
D1
350
84
  3
D2
350
85
  0
DICTIONARY
  5
5B
102
{ACAD_REACTORS
330
C
102
}
330
C
100
AcDbDictionary
281
     1
  3
Standard
350
60
  0
DICTIONARY
  5
32
102
{ACAD_REACTORS
330
C
102
}
330
C
100
AcDbDictionary
281
     1
  3
2dWireframe
350
31
  3
3D Hidden
350
295
  3
3dWireframe
350
63
  3
Basic
350
294
  3
Brighten
350
298
  3
ColorChange
350
29C
  3
Conceptual
350
296
  3
Dim
350
297
  3
Facepattern
350
29B
  3
Flat
350
290
  3
FlatWithEdges
350
291
  3
Gouraud
350
292
  3
GouraudWithEdges
350
293
  3
Linepattern
350
29A
  3
Realistic
350
62
  3
Thicken
350
299
  0
XRECORD
  5
271
102
{ACAD_REACTORS
330
C
102
}
330
C
100
AcDbXrecord
280
     1
 90
        1
330
60
  0
DICTIONARY
  5
286
102
{ACAD_REACTORS
330
C
102
}
330
C
100
AcDbDictionary
281
     1
  3
CANNOSCALE
350
28A
  3
CMLEADERSTYLE
350
288
  3
CTABLESTYLE
350
287
  3
DIMASSOC
350
28E
  3
HIDETEXT
350
28D
  3
INDEXCTL
350
28C
  3
LIGHTINGUNITS
350
2A6
  3
MSLTSCALE
350
289
  3
SORTENTS
350
28B
  0
DICTIONARY
  5
23
102
{ACAD_REACTORS
330
22
102
}
330
22
100
AcDbDictionary
281
     1
  0
DICTIONARY
  5
24
102
{ACAD_REACTORS
330
22
102
}
330
22
100
AcDbDictionary
281
     1
  0
DICTIONARY
  5
25
102
{ACAD_REACTORS
330
22
102
}
330
22
100
AcDbDictionary
281
     1
1001
ACAD
1000
<All
  0
XRECORD
  5
9
102
{ACAD_REACTORS
330
8
102
}
330
8
100
AcDbXrecord
280
     1
290
     1
  0
XRECORD
  5
8C
102
{ACAD_REACTORS
330
8B
102
}
330
8B
100
AcDbXrecord
280
     1
290
     1
  0
XRECORD
  5
5E
102
{ACAD_REACTORS
330
5D
102
}
330
5D
100
AcDbXrecord
280
     1
290
     1
  0
XRECORD
  5
4
102
{ACAD_REACTORS
330
3
102
}
330
3
100
AcDbXrecord
280
     1
340
2
  0
SORTENTSTABLE
  5
26D
102
{ACAD_REACTORS
330
3
102
}
330
3
100
AcDbSortentsTable
330
2
  0
XRECORD
  5
1D
102
{ACAD_REACTORS
330
1C
102
}
330
1C
100
AcDbXrecord
280
     1
340
1B
  0
XRECORD
  5
2C5
102
{ACAD_REACTORS
330
2C3
102
}
330
2C3
100
AcDbXrecord
280
     1
340
2C
  0
XRECORD
  5
2C6
102
{ACAD_REACTORS
330
2C3
102
}
330
2C3
100
AcDbXrecord
280
     1
340
2C
  0
XRECORD
  5
2C4
102
{ACAD_REACTORS
330
2C3
102
}
330
2C3
100
AcDbXrecord
280
     1
340
2C
  0
LAYOUT
  5
20
102
{ACAD_REACTORS
330
19
102
}
330
19
100
AcDbPlotSettings
  1

  2
HP LaserJet 5000 Series PS
  4

  6

 40
0.0
 41
0.0
 42
0.0
 43
0.0
 44
0.0
 45
0.0
 46
0.0
 47
0.0
 48
0.0
 49
0.0
140
0.0
141
0.0
142
1.0
143
1.0
 70
   688
 72
     0
 73
     0
 74
     5
  7
C:\Users\R&D\AppData\Roaming\Autodesk\Autodesk Mechanical Desktop 2008\R17.1\kor\Plot Styles\CATALOG.ctb
 75
    16
147
1.0
 76
     0
 77
     2
 78
   300
148
0.0
149
0.0
100
AcDbLayout
  1
Layout1
 70
     1
 71
     1
 10
0.0
 20
0.0
 11
12.0
 21
9.0
 12
2220.404641079056
 22
50.00000000000001
 32
2810.473195709564
 14
1.000000000000000E+20
 24
1.000000000000000E+20
 34
1.000000000000000E+20
 15
-1.000000000000000E+20
 25
-1.000000000000000E+20
 35
-1.000000000000000E+20
146
0.0
 13
0.0
 23
0.0
 33
0.0
 16
1.0
 26
0.0
 36
0.0
 17
0.0
 27
1.0
 37
0.0
 76
     0
330
1B
  0
LAYOUT
  5
18
102
{ACAD_REACTORS
330
19
102
}
330
19
100
AcDbPlotSettings
  1

  2
PublishToWeb JPG.pc3
  4
Sun_Hi-Res_(1600.00_x_1280.00_Pixels)
  6

 40
0.0
 41
0.0
 42
1.0
 43
1.0
 44
1600.0
 45
1280.0
 46
0.0
 47
0.0
 48
2595.0
 49
7.0
140
2798.0
141
134.0
142
1.0
143
0.1269543464665416
 70
 11952
 72
     2
 73
     0
 74
     4
  7
CATALOG.ctb
 75
     0
147
7.876847290640394
 76
     0
 77
     2
 78
   300
148
-2595.0
149
-7.0
100
AcDbLayout
  1
Model
 70
     1
 71
     0
 10
0.0
 20
0.0
 11
12.0
 21
9.0
 12
0.0
 22
0.0
 32
0.0
 14
0.0
 24
0.0
 34
0.0
 15
0.0
 25
0.0
 35
0.0
146
0.0
 13
0.0
 23
0.0
 33
0.0
 16
1.0
 26
0.0
 36
0.0
 17
0.0
 27
1.0
 37
0.0
 76
     0
330
2
331
30
1001
ACAD_PSEXT
1000
PublishToWeb JPG.pc3
1000
Independent JPEG Group JFIF (JPEG Compression)
1000
파일
1000

1070
     0
  0
MATERIAL
  5
51
102
{ACAD_XDICTIONARY
360
52
102
}
102
{ACAD_REACTORS
330
E
102
}
330
E
100
AcDbMaterial
  1
ByBlock
 72
     0
 43
0.0208333333333333
 43
0.0
 43
0.0
 43
0.0
 43
0.0
 43
0.0208333333333333
 43
0.0
 43
0.0
 43
0.0
 43
0.0
 43
1.0
 43
0.0
 43
0.0
 43
0.0
 43
0.0
 43
1.0
 77
     0
 47
0.0208333333333333
 47
0.0
 47
0.0
 47
0.0
 47
0.0
 47
0.0208333333333333
 47
0.0
 47
0.0
 47
0.0
 47
0.0
 47
1.0
 47
0.0
 47
0.0
 47
0.0
 47
0.0
 47
1.0
171
     0
 49
0.0208333333333333
 49
0.0
 49
0.0
 49
0.0
 49
0.0
 49
0.0208333333333333
 49
0.0
 49
0.0
 49
0.0
 49
0.0
 49
1.0
 49
0.0
 49
0.0
 49
0.0
 49
0.0
 49
1.0
175
     0
142
0.0208333333333333
142
0.0
142
0.0
142
0.0
142
0.0
142
0.0208333333333333
142
0.0
142
0.0
142
0.0
142
0.0
142
1.0
142
0.0
142
0.0
142
0.0
142
0.0
142
1.0
179
     0
144
0.0208333333333333
144
0.0
144
0.0
144
0.0
144
0.0
144
0.0208333333333333
144
0.0
144
0.0
144
0.0
144
0.0
144
1.0
144
0.0
144
0.0
144
0.0
144
0.0
144
1.0
147
0.0208333333333333
147
0.0
147
0.0
147
0.0
147
0.0
147
0.0208333333333333
147
0.0
147
0.0
147
0.0
147
0.0
147
1.0
147
0.0
147
0.0
147
0.0
147
0.0
147
1.0
  0
MATERIAL
  5
49
102
{ACAD_XDICTIONARY
360
4A
102
}
102
{ACAD_REACTORS
330
E
102
}
330
E
100
AcDbMaterial
  1
ByLayer
 72
     0
 43
0.0208333333333333
 43
0.0
 43
0.0
 43
0.0
 43
0.0
 43
0.0208333333333333
 43
0.0
 43
0.0
 43
0.0
 43
0.0
 43
1.0
 43
0.0
 43
0.0
 43
0.0
 43
0.0
 43
1.0
 77
     0
 47
0.0208333333333333
 47
0.0
 47
0.0
 47
0.0
 47
0.0
 47
0.0208333333333333
 47
0.0
 47
0.0
 47
0.0
 47
0.0
 47
1.0
 47
0.0
 47
0.0
 47
0.0
 47
0.0
 47
1.0
171
     0
 49
0.0208333333333333
 49
0.0
 49
0.0
 49
0.0
 49
0.0
 49
0.0208333333333333
 49
0.0
 49
0.0
 49
0.0
 49
0.0
 49
1.0
 49
0.0
 49
0.0
 49
0.0
 49
0.0
 49
1.0
175
     0
142
0.0208333333333333
142
0.0
142
0.0
142
0.0
142
0.0
142
0.0208333333333333
142
0.0
142
0.0
142
0.0
142
0.0
142
1.0
142
0.0
142
0.0
142
0.0
142
0.0
142
1.0
179
     0
144
0.0208333333333333
144
0.0
144
0.0
144
0.0
144
0.0
144
0.0208333333333333
144
0.0
144
0.0
144
0.0
144
0.0
144
1.0
144
0.0
144
0.0
144
0.0
144
0.0
144
1.0
147
0.0208333333333333
147
0.0
147
0.0
147
0.0
147
0.0
147
0.0208333333333333
147
0.0
147
0.0
147
0.0
147
0.0
147
1.0
147
0.0
147
0.0
147
0.0
147
0.0
147
1.0
  0
MATERIAL
  5
D
102
{ACAD_XDICTIONARY
360
F
102
}
102
{ACAD_REACTORS
330
E
102
}
330
E
100
AcDbMaterial
  1
Global
 72
     0
 43
0.0208333333333333
 43
0.0
 43
0.0
 43
0.0
 43
0.0
 43
0.0208333333333333
 43
0.0
 43
0.0
 43
0.0
 43
0.0
 43
1.0
 43
0.0
 43
0.0
 43
0.0
 43
0.0
 43
1.0
 77
     0
 47
0.0208333333333333
 47
0.0
 47
0.0
 47
0.0
 47
0.0
 47
0.0208333333333333
 47
0.0
 47
0.0
 47
0.0
 47
0.0
 47
1.0
 47
0.0
 47
0.0
 47
0.0
 47
0.0
 47
1.0
171
     0
 49
0.0208333333333333
 49
0.0
 49
0.0
 49
0.0
 49
0.0
 49
0.0208333333333333
 49
0.0
 49
0.0
 49
0.0
 49
0.0
 49
1.0
 49
0.0
 49
0.0
 49
0.0
 49
0.0
 49
1.0
175
     0
142
0.0208333333333333
142
0.0
142
0.0
142
0.0
142
0.0
142
0.0208333333333333
142
0.0
142
0.0
142
0.0
142
0.0
142
1.0
142
0.0
142
0.0
142
0.0
142
0.0
142
1.0
179
     0
144
0.0208333333333333
144
0.0
144
0.0
144
0.0
144
0.0
144
0.0208333333333333
144
0.0
144
0.0
144
0.0
144
0.0
144
1.0
144
0.0
144
0.0
144
0.0
144
0.0
144
1.0
147
0.0208333333333333
147
0.0
147
0.0
147
0.0
147
0.0
147
0.0208333333333333
147
0.0
147
0.0
147
0.0
147
0.0
147
1.0
147
0.0
147
0.0
147
0.0
147
0.0
147
1.0
  0
MLEADERSTYLE
  5
29E
102
{ACAD_REACTORS
330
29D
102
}
330
29D
100
AcDbMLeaderStyle
170
     2
171
     1
172
     0
 90
        2
 40
0.0
 41
0.0
173
     1
 91
-1056964608
340
2B
 92
       -2
290
     1
 42
0.09
291
     1
 43
0.36
  3
Standard
 44
0.18
300

342
28
174
     1
178
     6
175
     1
176
     0
 93
-1056964608
 45
0.18
292
     0
297
     0
 46
0.18
 94
-1056964608
 47
1.0
 49
1.0
140
1.0
293
     1
141
0.0
294
     1
177
     0
142
1.0
295
     0
296
     0
143
0.125
1001
ACAD_MLEADERVER
1070
     2
  0
MLINESTYLE
  5
5F
102
{ACAD_REACTORS
330
47
102
}
330
47
100
AcDbMlineStyle
  2
STANDARD
 70
     0
  3

 62
   256
 51
90.0
 52
90.0
 71
     2
 49
0.5
 62
   256
  6
BYLAYER
 49
-0.5
 62
   256
  6
BYLAYER
  0
ACDBPLACEHOLDER
  5
A
102
{ACAD_REACTORS
330
B
102
}
330
B
  0
SCALE
  5
64
102
{ACAD_REACTORS
330
5A
102
}
330
5A
100
AcDbScale
 70
     0
300
1/128" = 1'-0"_1
140
0.007812
141
12.0
290
     0
  0
SCALE
  5
65
102
{ACAD_REACTORS
330
5A
102
}
330
5A
100
AcDbScale
 70
     0
300
1:1
140
1.0
141
1.0
290
     1
  0
SCALE
  5
66
102
{ACAD_REACTORS
330
5A
102
}
330
5A
100
AcDbScale
 70
     0
300
1:2
140
1.0
141
2.0
290
     0
  0
SCALE
  5
67
102
{ACAD_REACTORS
330
5A
102
}
330
5A
100
AcDbScale
 70
     0
300
1:4
140
1.0
141
4.0
290
     0
  0
SCALE
  5
68
102
{ACAD_REACTORS
330
5A
102
}
330
5A
100
AcDbScale
 70
     0
300
1:5
140
1.0
141
5.0
290
     0
  0
SCALE
  5
69
102
{ACAD_REACTORS
330
5A
102
}
330
5A
100
AcDbScale
 70
     0
300
1:8
140
1.0
141
8.0
290
     0
  0
SCALE
  5
6A
102
{ACAD_REACTORS
330
5A
102
}
330
5A
100
AcDbScale
 70
     0
300
1:10
140
1.0
141
10.0
290
     0
  0
SCALE
  5
6B
102
{ACAD_REACTORS
330
5A
102
}
330
5A
100
AcDbScale
 70
     0
300
1:16
140
1.0
141
16.0
290
     0
  0
SCALE
  5
6C
102
{ACAD_REACTORS
330
5A
102
}
330
5A
100
AcDbScale
 70
     0
300
1:20
140
1.0
141
20.0
290
     0
  0
SCALE
  5
6D
102
{ACAD_REACTORS
330
5A
102
}
330
5A
100
AcDbScale
 70
     0
300
1:30
140
1.0
141
30.0
290
     0
  0
SCALE
  5
6E
102
{ACAD_REACTORS
330
5A
102
}
330
5A
100
AcDbScale
 70
     0
300
1:40
140
1.0
141
40.0
290
     0
  0
SCALE
  5
6F
102
{ACAD_REACTORS
330
5A
102
}
330
5A
100
AcDbScale
 70
     0
300
1:50
140
1.0
141
50.0
290
     0
  0
SCALE
  5
70
102
{ACAD_REACTORS
330
5A
102
}
330
5A
100
AcDbScale
 70
     0
300
1:100
140
1.0
141
100.0
290
     0
  0
SCALE
  5
71
102
{ACAD_REACTORS
330
5A
102
}
330
5A
100
AcDbScale
 70
     0
300
2:1
140
2.0
141
1.0
290
     0
  0
SCALE
  5
72
102
{ACAD_REACTORS
330
5A
102
}
330
5A
100
AcDbScale
 70
     0
300
4:1
140
4.0
141
1.0
290
     0
  0
SCALE
  5
73
102
{ACAD_REACTORS
330
5A
102
}
330
5A
100
AcDbScale
 70
     0
300
8:1
140
8.0
141
1.0
290
     0
  0
SCALE
  5
74
102
{ACAD_REACTORS
330
5A
102
}
330
5A
100
AcDbScale
 70
     0
300
10:1
140
10.0
141
1.0
290
     0
  0
SCALE
  5
75
102
{ACAD_REACTORS
330
5A
102
}
330
5A
100
AcDbScale
 70
     0
300
100:1
140
100.0
141
1.0
290
     0
  0
SCALE
  5
76
102
{ACAD_REACTORS
330
5A
102
}
330
5A
100
AcDbScale
 70
     0
300
1/128" = 1'-0"
140
0.0078125
141
12.0
290
     0
  0
SCALE
  5
77
102
{ACAD_REACTORS
330
5A
102
}
330
5A
100
AcDbScale
 70
     0
300
1/64" = 1'-0"
140
0.015625
141
12.0
290
     0
  0
SCALE
  5
78
102
{ACAD_REACTORS
330
5A
102
}
330
5A
100
AcDbScale
 70
     0
300
1/32" = 1'-0"
140
0.03125
141
12.0
290
     0
  0
SCALE
  5
79
102
{ACAD_REACTORS
330
5A
102
}
330
5A
100
AcDbScale
 70
     0
300
1/16" = 1'-0"
140
0.0625
141
12.0
290
     0
  0
SCALE
  5
7A
102
{ACAD_REACTORS
330
5A
102
}
330
5A
100
AcDbScale
 70
     0
300
3/32" = 1'-0"
140
0.09375
141
12.0
290
     0
  0
SCALE
  5
7B
102
{ACAD_REACTORS
330
5A
102
}
330
5A
100
AcDbScale
 70
     0
300
1/8" = 1'-0"
140
0.125
141
12.0
290
     0
  0
SCALE
  5
7C
102
{ACAD_REACTORS
330
5A
102
}
330
5A
100
AcDbScale
 70
     0
300
3/16" = 1'-0"
140
0.1875
141
12.0
290
     0
  0
SCALE
  5
7D
102
{ACAD_REACTORS
330
5A
102
}
330
5A
100
AcDbScale
 70
     0
300
1/4" = 1'-0"
140
0.25
141
12.0
290
     0
  0
SCALE
  5
7E
102
{ACAD_REACTORS
330
5A
102
}
330
5A
100
AcDbScale
 70
     0
300
3/8" = 1'-0"
140
0.375
141
12.0
290
     0
  0
SCALE
  5
7F
102
{ACAD_REACTORS
330
5A
102
}
330
5A
100
AcDbScale
 70
     0
300
1/2" = 1'-0"
140
0.5
141
12.0
290
     0
  0
SCALE
  5
80
102
{ACAD_REACTORS
330
5A
102
}
330
5A
100
AcDbScale
 70
     0
300
3/4" = 1'-0"
140
0.75
141
12.0
290
     0
  0
SCALE
  5
81
102
{ACAD_REACTORS
330
5A
102
}
330
5A
100
AcDbScale
 70
     0
300
1" = 1'-0"
140
1.0
141
12.0
290
     0
  0
SCALE
  5
82
102
{ACAD_REACTORS
330
5A
102
}
330
5A
100
AcDbScale
 70
     0
300
1-1/2" = 1'-0"
140
1.5
141
12.0
290
     0
  0
SCALE
  5
83
102
{ACAD_REACTORS
330
5A
102
}
330
5A
100
AcDbScale
 70
     0
300
3" = 1'-0"
140
3.0
141
12.0
290
     0
  0
SCALE
  5
84
102
{ACAD_REACTORS
330
5A
102
}
330
5A
100
AcDbScale
 70
     0
300
6" = 1'-0"
140
6.0
141
12.0
290
     0
  0
SCALE
  5
85
102
{ACAD_REACTORS
330
5A
102
}
330
5A
100
AcDbScale
 70
     0
300
1'-0" = 1'-0"
140
12.0
141
12.0
290
     0
  0
TABLESTYLE
  5
60
102
{ACAD_XDICTIONARY
360
61
102
}
102
{ACAD_REACTORS
330
5B
102
}
330
5B
100
AcDbTableStyle
  3
Standard
 70
     0
 71
     0
 40
0.06
 41
0.06
280
     0
281
     0
  7
STANDARD
140
0.18
170
     2
 62
     0
 63
     7
283
     0
274
    -2
284
     1
 64
     0
275
    -2
285
     1
 65
     0
276
    -2
286
     1
 66
     0
277
    -2
287
     1
 67
     0
278
    -2
288
     1
 68
     0
279
    -2
289
     1
 69
     0
  7
STANDARD
140
0.25
170
     5
 62
     0
 63
     7
283
     0
274
    -2
284
     1
 64
     0
275
    -2
285
     1
 65
     0
276
    -2
286
     1
 66
     0
277
    -2
287
     1
 67
     0
278
    -2
288
     1
 68
     0
279
    -2
289
     1
 69
     0
  7
STANDARD
140
0.18
170
     5
 62
     0
 63
     7
283
     0
274
    -2
284
     1
 64
     0
275
    -2
285
     1
 65
     0
276
    -2
286
     1
 66
     0
277
    -2
287
     1
 67
     0
278
    -2
288
     1
 68
     0
279
    -2
289
     1
 69
     0
  0
VISUALSTYLE
  5
31
102
{ACAD_REACTORS
330
32
102
}
330
32
100
AcDbVisualStyle
  2
2dWireframe
 70
     4
 71
     0
 72
     2
 73
     0
 90
        0
 40
-0.6
 41
-30.0
 62
     5
 63
     7
 74
     1
 91
        4
 64
     7
 65
   257
 75
     1
175
     1
 42
1.0
 92
        0
 66
   257
 43
1.0
 76
     1
 77
     6
 78
     2
 67
     7
 79
     5
170
     0
171
     0
290
     0
174
     0
 93
        1
 44
0.0
173
     0
291
     0
 45
0.0
1001
ACAD
1000
AcDbSavedByObjectVersion
1070
     0
  0
VISUALSTYLE
  5
295
102
{ACAD_REACTORS
330
32
102
}
330
32
100
AcDbVisualStyle
  2
3D Hidden
 70
     6
 71
     1
 72
     2
 73
     2
 90
        0
 40
-0.6
 41
-30.0
 62
     5
 63
     7
421
 16777215
 74
     2
 91
        2
 64
     7
 65
   257
 75
     2
175
     1
 42
40.0
 92
        0
 66
   257
 43
1.0
 76
     1
 77
     6
 78
     2
 67
     7
 79
     3
170
     0
171
     0
290
     0
174
     0
 93
        1
 44
0.0
173
     0
291
     0
 45
0.0
1001
ACAD
1000
AcDbSavedByObjectVersion
1070
     0
  0
VISUALSTYLE
  5
63
102
{ACAD_REACTORS
330
32
102
}
330
32
100
AcDbVisualStyle
  2
3dWireframe
 70
     5
 71
     0
 72
     2
 73
     0
 90
        0
 40
-0.6
 41
-30.0
 62
     5
 63
     7
 74
     1
 91
        4
 64
     7
 65
   257
 75
     1
175
     1
 42
1.0
 92
        0
 66
   257
 43
1.0
 76
     1
 77
     6
 78
     2
 67
     7
 79
     5
170
     0
171
     0
290
     0
174
     0
 93
        1
 44
0.0
173
     0
291
     0
 45
0.0
1001
ACAD
1000
AcDbSavedByObjectVersion
1070
     0
  0
VISUALSTYLE
  5
294
102
{ACAD_REACTORS
330
32
102
}
330
32
100
AcDbVisualStyle
  2
Basic
 70
     7
 71
     1
 72
     0
 73
     1
 90
        0
 40
-0.6
 41
-30.0
 62
     5
 63
     7
421
 16777215
 74
     0
 91
        4
 64
     7
 65
   257
 75
     1
175
     1
 42
1.0
 92
        8
 66
     7
 43
1.0
 76
     1
 77
     6
 78
     2
 67
     7
 79
     5
170
     0
171
     0
290
     0
174
     0
 93
        1
 44
0.0
173
     0
291
     1
 45
0.0
1001
ACAD
1000
AcDbSavedByObjectVersion
1070
     0
  0
VISUALSTYLE
  5
298
102
{ACAD_REACTORS
330
32
102
}
330
32
100
AcDbVisualStyle
  2
Brighten
 70
    12
 71
     2
 72
     2
 73
     0
 90
        0
 40
-0.6
 41
-30.0
 62
     5
 63
     7
421
 16777215
 74
     1
 91
        4
 64
     7
 65
   257
 75
     1
175
     1
 42
1.0
 92
        8
 66
     7
 43
1.0
 76
     1
 77
     6
 78
     2
 67
     7
 79
     5
170
     0
171
     0
290
     0
174
     0
 93
        1
 44
50.0
173
     0
291
     1
 45
0.0
1001
ACAD
1000
AcDbSavedByObjectVersion
1070
     0
  0
VISUALSTYLE
  5
29C
102
{ACAD_REACTORS
330
32
102
}
330
32
100
AcDbVisualStyle
  2
ColorChange
 70
    16
 71
     2
 72
     2
 73
     3
 90
        0
 40
-0.6
 41
-30.0
 62
     5
 63
     8
421
  8421504
 74
     1
 91
        4
 64
     7
 65
   257
 75
     1
175
     1
 42
1.0
 92
        8
 66
     8
424
  8421504
 43
1.0
 76
     1
 77
     6
 78
     2
 67
     7
 79
     5
170
     0
171
     0
290
     0
174
     0
 93
        1
 44
0.0
173
     0
291
     1
 45
0.0
1001
ACAD
1000
AcDbSavedByObjectVersion
1070
     0
  0
VISUALSTYLE
  5
296
102
{ACAD_REACTORS
330
32
102
}
330
32
100
AcDbVisualStyle
  2
Conceptual
 70
     9
 71
     3
 72
     2
 73
     0
 90
        0
 40
-0.6
 41
-30.0
 62
     5
 63
     7
421
 16777215
 74
     2
 91
        2
 64
     7
 65
   257
 75
     1
175
     1
 42
40.0
 92
        8
 66
     7
 43
1.0
 76
     1
 77
     6
 78
     2
 67
     7
 79
     3
170
     0
171
     0
290
     0
174
     0
 93
        1
 44
0.0
173
     0
291
     0
 45
0.0
1001
ACAD
1000
AcDbSavedByObjectVersion
1070
     0
  0
VISUALSTYLE
  5
297
102
{ACAD_REACTORS
330
32
102
}
330
32
100
AcDbVisualStyle
  2
Dim
 70
    11
 71
     2
 72
     2
 73
     0
 90
        0
 40
-0.6
 41
-30.0
 62
     5
 63
     7
421
 16777215
 74
     1
 91
        4
 64
     7
 65
   257
 75
     1
175
     1
 42
1.0
 92
        8
 66
     7
 43
1.0
 76
     1
 77
     6
 78
     2
 67
     7
 79
     5
170
     0
171
     0
290
     0
174
     0
 93
        1
 44
-50.0
173
     0
291
     1
 45
0.0
1001
ACAD
1000
AcDbSavedByObjectVersion
1070
     0
  0
VISUALSTYLE
  5
29B
102
{ACAD_REACTORS
330
32
102
}
330
32
100
AcDbVisualStyle
  2
Facepattern
 70
    15
 71
     2
 72
     2
 73
     0
 90
        0
 40
-0.6
 41
-30.0
 62
     5
 63
     7
421
 16777215
 74
     1
 91
        4
 64
     7
 65
   257
 75
     1
175
     1
 42
1.0
 92
        8
 66
     7
 43
1.0
 76
     1
 77
     6
 78
     2
 67
     7
 79
     5
170
     0
171
     0
290
     0
174
     0
 93
        1
 44
0.0
173
     0
291
     1
 45
0.0
1001
ACAD
1000
AcDbSavedByObjectVersion
1070
     0
  0
VISUALSTYLE
  5
290
102
{ACAD_REACTORS
330
32
102
}
330
32
100
AcDbVisualStyle
  2
Flat
 70
     0
 71
     2
 72
     1
 73
     1
 90
        2
 40
-0.6
 41
30.0
 62
     5
 63
     7
421
 16777215
 74
     0
 91
        4
 64
     7
 65
   257
 75
     1
175
     1
 42
1.0
 92
        8
 66
     7
 43
1.0
 76
     1
 77
     6
 78
     2
 67
     7
 79
     5
170
     0
171
     0
290
     0
174
     0
 93
       13
 44
0.0
173
     0
291
     1
 45
0.0
1001
ACAD
1000
AcDbSavedByObjectVersion
1070
     0
  0
VISUALSTYLE
  5
291
102
{ACAD_REACTORS
330
32
102
}
330
32
100
AcDbVisualStyle
  2
FlatWithEdges
 70
     1
 71
     2
 72
     1
 73
     1
 90
        2
 40
-0.6
 41
30.0
 62
     5
 63
     7
421
 16777215
 74
     1
 91
        4
 64
     7
 65
   257
 75
     1
175
     1
 42
1.0
 92
        0
 66
   257
 43
1.0
 76
     1
 77
     6
 78
     2
 67
     7
 79
     5
170
     0
171
     0
290
     0
174
     0
 93
       13
 44
0.0
173
     0
291
     1
 45
0.0
1001
ACAD
1000
AcDbSavedByObjectVersion
1070
     0
  0
VISUALSTYLE
  5
292
102
{ACAD_REACTORS
330
32
102
}
330
32
100
AcDbVisualStyle
  2
Gouraud
 70
     2
 71
     2
 72
     2
 73
     1
 90
        2
 40
-0.6
 41
30.0
 62
     5
 63
     7
421
 16777215
 74
     0
 91
        4
 64
     7
 65
   257
 75
     1
175
     1
 42
1.0
 92
        0
 66
     7
 43
1.0
 76
     1
 77
     6
 78
     2
 67
     7
 79
     5
170
     0
171
     0
290
     0
174
     0
 93
       13
 44
0.0
173
     0
291
     1
 45
0.0
1001
ACAD
1000
AcDbSavedByObjectVersion
1070
     0
  0
VISUALSTYLE
  5
293
102
{ACAD_REACTORS
330
32
102
}
330
32
100
AcDbVisualStyle
  2
GouraudWithEdges
 70
     3
 71
     2
 72
     2
 73
     1
 90
        2
 40
-0.6
 41
30.0
 62
     5
 63
     7
421
 16777215
 74
     1
 91
        4
 64
     7
 65
   257
 75
     1
175
     1
 42
1.0
 92
        0
 66
   257
 43
1.0
 76
     1
 77
     6
 78
     2
 67
     7
 79
     5
170
     0
171
     0
290
     0
174
     0
 93
       13
 44
0.0
173
     0
291
     1
 45
0.0
1001
ACAD
1000
AcDbSavedByObjectVersion
1070
     0
  0
VISUALSTYLE
  5
29A
102
{ACAD_REACTORS
330
32
102
}
330
32
100
AcDbVisualStyle
  2
Linepattern
 70
    14
 71
     2
 72
     2
 73
     0
 90
        0
 40
-0.6
 41
-30.0
 62
     5
 63
     7
421
 16777215
 74
     1
 91
        4
 64
     7
 65
   257
 75
     7
175
     7
 42
1.0
 92
        8
 66
     7
 43
1.0
 76
     1
 77
     6
 78
     2
 67
     7
 79
     5
170
     0
171
     0
290
     0
174
     0
 93
        1
 44
0.0
173
     0
291
     1
 45
0.0
1001
ACAD
1000
AcDbSavedByObjectVersion
1070
     0
  0
VISUALSTYLE
  5
62
102
{ACAD_REACTORS
330
32
102
}
330
32
100
AcDbVisualStyle
  2
Realistic
 70
     8
 71
     2
 72
     2
 73
     0
 90
        0
 40
-0.6
 41
-30.0
 62
     5
 63
     7
 74
     1
 91
        0
 64
     7
 65
   257
 75
     1
175
     1
 42
1.0
 92
        8
 66
     8
 43
1.0
 76
     1
 77
     6
 78
     2
 67
     7
 79
     5
170
     0
171
     0
290
     0
174
     0
 93
       13
 44
0.0
173
     0
291
     0
 45
0.0
1001
ACAD
1000
AcDbSavedByObjectVersion
1070
     0
  0
VISUALSTYLE
  5
299
102
{ACAD_REACTORS
330
32
102
}
330
32
100
AcDbVisualStyle
  2
Thicken
 70
    13
 71
     2
 72
     2
 73
     0
 90
        0
 40
-0.6
 41
-30.0
 62
     5
 63
     7
421
 16777215
 74
     1
 91
        4
 64
     7
 65
   257
 75
     1
175
     1
 42
1.0
 92
       12
 66
     7
 43
1.0
 76
     1
 77
     6
 78
     2
 67
     7
 79
     5
170
     0
171
     0
290
     0
174
     0
 93
        1
 44
0.0
173
     0
291
     1
 45
0.0
1001
ACAD
1000
AcDbSavedByObjectVersion
1070
     0
  0
DICTIONARYVAR
  5
28A
102
{ACAD_REACTORS
330
286
102
}
330
286
100
DictionaryVariables
280
     0
  1
1:1
  0
DICTIONARYVAR
  5
288
102
{ACAD_REACTORS
330
286
102
}
330
286
100
DictionaryVariables
280
     0
  1
STANDARD
  0
DICTIONARYVAR
  5
287
102
{ACAD_REACTORS
330
286
102
}
330
286
100
DictionaryVariables
280
     0
  1
STANDARD
  0
DICTIONARYVAR
  5
28E
102
{ACAD_REACTORS
330
286
102
}
330
286
100
DictionaryVariables
280
     0
  1
2
  0
DICTIONARYVAR
  5
28D
102
{ACAD_REACTORS
330
286
102
}
330
286
100
DictionaryVariables
280
     0
  1
1
  0
DICTIONARYVAR
  5
28C
102
{ACAD_REACTORS
330
286
102
}
330
286
100
DictionaryVariables
280
     0
  1
0
  0
DICTIONARYVAR
  5
2A6
102
{ACAD_REACTORS
330
286
102
}
330
286
100
DictionaryVariables
280
     0
  1
0
  0
DICTIONARYVAR
  5
289
102
{ACAD_REACTORS
330
286
102
}
330
286
100
DictionaryVariables
280
     0
  1
1
  0
DICTIONARYVAR
  5
28B
102
{ACAD_REACTORS
330
286
102
}
330
286
100
DictionaryVariables
280
     0
  1
127
  0
DICTIONARY
  5
52
330
51
100
AcDbDictionary
280
     1
281
     1
  3
ACAD_XREC_ROUNDTRIP
360
2C9
  3
BUMPTILE
360
53
  3
DIFFUSETILE
360
54
  3
OPACITYTILE
360
55
  3
REFLECTIONTILE
360
56
  3
REFRACTIONTILE
360
57
  3
SPECULARTILE
360
58
  0
DICTIONARY
  5
4A
330
49
100
AcDbDictionary
280
     1
281
     1
  3
ACAD_XREC_ROUNDTRIP
360
2C8
  3
BUMPTILE
360
4B
  3
DIFFUSETILE
360
4C
  3
OPACITYTILE
360
4D
  3
REFLECTIONTILE
360
4E
  3
REFRACTIONTILE
360
4F
  3
SPECULARTILE
360
50
  0
DICTIONARY
  5
F
330
D
100
AcDbDictionary
280
     1
281
     1
  3
ACAD_XREC_ROUNDTRIP
360
2C7
  3
BUMPTILE
360
10
  3
DIFFUSETILE
360
11
  3
OPACITYTILE
360
12
  3
REFLECTIONTILE
360
13
  3
REFRACTIONTILE
360
14
  3
SPECULARTILE
360
15
  0
DICTIONARY
  5
61
330
60
100
AcDbDictionary
280
     1
281
     1
  3
ACAD_ROUNDTRIP_2008_TABLESTYLE_CELLSTYLEMAP
360
2C2
  3
ACAD_XREC_ROUNDTRIP
360
2CA
  0
XRECORD
  5
2C9
102
{ACAD_REACTORS
330
52
102
}
330
52
100
AcDbXrecord
280
     1
102
MATERIAL
148
0.0
149
0.0
149
0.0
 93
        0
 94
      127
282
     0
 72
     0
 77
     0
171
     0
175
     0
179
     0
273
     0
  0
XRECORD
  5
53
102
{ACAD_REACTORS
330
52
102
}
330
52
100
AcDbXrecord
280
     1
270
     1
271
     1
  0
XRECORD
  5
54
102
{ACAD_REACTORS
330
52
102
}
330
52
100
AcDbXrecord
280
     1
270
     1
271
     1
  0
XRECORD
  5
55
102
{ACAD_REACTORS
330
52
102
}
330
52
100
AcDbXrecord
280
     1
270
     1
271
     1
  0
XRECORD
  5
56
102
{ACAD_REACTORS
330
52
102
}
330
52
100
AcDbXrecord
280
     1
270
     1
271
     1
  0
XRECORD
  5
57
102
{ACAD_REACTORS
330
52
102
}
330
52
100
AcDbXrecord
280
     1
270
     1
271
     1
  0
XRECORD
  5
58
102
{ACAD_REACTORS
330
52
102
}
330
52
100
AcDbXrecord
280
     1
270
     1
271
     1
  0
XRECORD
  5
2C8
102
{ACAD_REACTORS
330
4A
102
}
330
4A
100
AcDbXrecord
280
     1
102
MATERIAL
148
0.0
149
0.0
149
0.0
 93
        0
 94
      127
282
     0
 72
     0
 77
     0
171
     0
175
     0
179
     0
273
     0
  0
XRECORD
  5
4B
102
{ACAD_REACTORS
330
4A
102
}
330
4A
100
AcDbXrecord
280
     1
270
     1
271
     1
  0
XRECORD
  5
4C
102
{ACAD_REACTORS
330
4A
102
}
330
4A
100
AcDbXrecord
280
     1
270
     1
271
     1
  0
XRECORD
  5
4D
102
{ACAD_REACTORS
330
4A
102
}
330
4A
100
AcDbXrecord
280
     1
270
     1
271
     1
  0
XRECORD
  5
4E
102
{ACAD_REACTORS
330
4A
102
}
330
4A
100
AcDbXrecord
280
     1
270
     1
271
     1
  0
XRECORD
  5
4F
102
{ACAD_REACTORS
330
4A
102
}
330
4A
100
AcDbXrecord
280
     1
270
     1
271
     1
  0
XRECORD
  5
50
102
{ACAD_REACTORS
330
4A
102
}
330
4A
100
AcDbXrecord
280
     1
270
     1
271
     1
  0
XRECORD
  5
2C7
102
{ACAD_REACTORS
330
F
102
}
330
F
100
AcDbXrecord
280
     1
102
MATERIAL
148
0.0
149
0.0
149
0.0
 93
        0
 94
      127
282
     0
 72
     0
 77
     0
171
     0
175
     0
179
     0
273
     0
  0
XRECORD
  5
10
102
{ACAD_REACTORS
330
F
102
}
330
F
100
AcDbXrecord
280
     1
270
     1
271
     1
  0
XRECORD
  5
11
102
{ACAD_REACTORS
330
F
102
}
330
F
100
AcDbXrecord
280
     1
270
     1
271
     1
  0
XRECORD
  5
12
102
{ACAD_REACTORS
330
F
102
}
330
F
100
AcDbXrecord
280
     1
270
     1
271
     1
  0
XRECORD
  5
13
102
{ACAD_REACTORS
330
F
102
}
330
F
100
AcDbXrecord
280
     1
270
     1
271
     1
  0
XRECORD
  5
14
102
{ACAD_REACTORS
330
F
102
}
330
F
100
AcDbXrecord
280
     1
270
     1
271
     1
  0
XRECORD
  5
15
102
{ACAD_REACTORS
330
F
102
}
330
F
100
AcDbXrecord
280
     1
270
     1
271
     1
  0
CELLSTYLEMAP
  5
2C2
102
{ACAD_REACTORS
330
61
102
}
330
61
100
AcDbCellStyleMap
 90
        3
300
CELLSTYLE
  1
TABLEFORMAT_BEGIN
 90
        5
170
     1
 91
        0
 92
    32768
 62
   257
 93
        1
300
CONTENTFORMAT
  1
CONTENTFORMAT_BEGIN
 90
        0
 91
        0
 92
      512
 93
        0
300

 40
0.0
140
1.0
 94
        5
 62
     0
340
28
144
0.25
309
CONTENTFORMAT_END
171
     1
301
MARGIN
  1
CELLMARGIN_BEGIN
 40
0.06
 40
0.06
 40
0.06
 40
0.06
 40
0.18
 40
0.18
309
CELLMARGIN_END
 94
        6
 95
        1
302
GRIDFORMAT
  1
GRIDFORMAT_BEGIN
 90
        0
 91
        1
 62
     0
 92
       -2
340
0
 93
        0
 40
0.045
309
GRIDFORMAT_END
 95
        2
302
GRIDFORMAT
  1
GRIDFORMAT_BEGIN
 90
        0
 91
        1
 62
     0
 92
       -2
340
0
 93
        0
 40
0.045
309
GRIDFORMAT_END
 95
        4
302
GRIDFORMAT
  1
GRIDFORMAT_BEGIN
 90
        0
 91
        1
 62
     0
 92
       -2
340
0
 93
        0
 40
0.045
309
GRIDFORMAT_END
 95
        8
302
GRIDFORMAT
  1
GRIDFORMAT_BEGIN
 90
        0
 91
        1
 62
     0
 92
       -2
340
0
 93
        0
 40
0.045
309
GRIDFORMAT_END
 95
       16
302
GRIDFORMAT
  1
GRIDFORMAT_BEGIN
 90
        0
 91
        1
 62
     0
 92
       -2
340
0
 93
        0
 40
0.045
309
GRIDFORMAT_END
 95
       32
302
GRIDFORMAT
  1
GRIDFORMAT_BEGIN
 90
        0
 91
        1
 62
     0
 92
       -2
340
0
 93
        0
 40
0.045
309
GRIDFORMAT_END
309
TABLEFORMAT_END
  1
CELLSTYLE_BEGIN
 90
        1
 91
        1
300
_TITLE
309
CELLSTYLE_END
300
CELLSTYLE
  1
TABLEFORMAT_BEGIN
 90
        5
170
     1
 91
        0
 92
        0
 62
   257
 93
        1
300
CONTENTFORMAT
  1
CONTENTFORMAT_BEGIN
 90
        0
 91
        0
 92
      512
 93
        0
300

 40
0.0
140
1.0
 94
        5
 62
     0
340
28
144
0.18
309
CONTENTFORMAT_END
171
     1
301
MARGIN
  1
CELLMARGIN_BEGIN
 40
0.06
 40
0.06
 40
0.06
 40
0.06
 40
0.18
 40
0.18
309
CELLMARGIN_END
 94
        6
 95
        1
302
GRIDFORMAT
  1
GRIDFORMAT_BEGIN
 90
        0
 91
        1
 62
     0
 92
       -2
340
0
 93
        0
 40
0.045
309
GRIDFORMAT_END
 95
        2
302
GRIDFORMAT
  1
GRIDFORMAT_BEGIN
 90
        0
 91
        1
 62
     0
 92
       -2
340
0
 93
        0
 40
0.045
309
GRIDFORMAT_END
 95
        4
302
GRIDFORMAT
  1
GRIDFORMAT_BEGIN
 90
        0
 91
        1
 62
     0
 92
       -2
340
0
 93
        0
 40
0.045
309
GRIDFORMAT_END
 95
        8
302
GRIDFORMAT
  1
GRIDFORMAT_BEGIN
 90
        0
 91
        1
 62
     0
 92
       -2
340
0
 93
        0
 40
0.045
309
GRIDFORMAT_END
 95
       16
302
GRIDFORMAT
  1
GRIDFORMAT_BEGIN
 90
        0
 91
        1
 62
     0
 92
       -2
340
0
 93
        0
 40
0.045
309
GRIDFORMAT_END
 95
       32
302
GRIDFORMAT
  1
GRIDFORMAT_BEGIN
 90
        0
 91
        1
 62
     0
 92
       -2
340
0
 93
        0
 40
0.045
309
GRIDFORMAT_END
309
TABLEFORMAT_END
  1
CELLSTYLE_BEGIN
 90
        2
 91
        1
300
_HEADER
309
CELLSTYLE_END
300
CELLSTYLE
  1
TABLEFORMAT_BEGIN
 90
        5
170
     1
 91
        0
 92
        0
 62
   257
 93
        1
300
CONTENTFORMAT
  1
CONTENTFORMAT_BEGIN
 90
        0
 91
        0
 92
      512
 93
        0
300

 40
0.0
140
1.0
 94
        2
 62
     0
340
28
144
0.18
309
CONTENTFORMAT_END
171
     1
301
MARGIN
  1
CELLMARGIN_BEGIN
 40
0.06
 40
0.06
 40
0.06
 40
0.06
 40
0.18
 40
0.18
309
CELLMARGIN_END
 94
        6
 95
        1
302
GRIDFORMAT
  1
GRIDFORMAT_BEGIN
 90
        0
 91
        1
 62
     0
 92
       -2
340
0
 93
        0
 40
0.045
309
GRIDFORMAT_END
 95
        2
302
GRIDFORMAT
  1
GRIDFORMAT_BEGIN
 90
        0
 91
        1
 62
     0
 92
       -2
340
0
 93
        0
 40
0.045
309
GRIDFORMAT_END
 95
        4
302
GRIDFORMAT
  1
GRIDFORMAT_BEGIN
 90
        0
 91
        1
 62
     0
 92
       -2
340
0
 93
        0
 40
0.045
309
GRIDFORMAT_END
 95
        8
302
GRIDFORMAT
  1
GRIDFORMAT_BEGIN
 90
        0
 91
        1
 62
     0
 92
       -2
340
0
 93
        0
 40
0.045
309
GRIDFORMAT_END
 95
       16
302
GRIDFORMAT
  1
GRIDFORMAT_BEGIN
 90
        0
 91
        1
 62
     0
 92
       -2
340
0
 93
        0
 40
0.045
309
GRIDFORMAT_END
 95
       32
302
GRIDFORMAT
  1
GRIDFORMAT_BEGIN
 90
        0
 91
        1
 62
     0
 92
       -2
340
0
 93
        0
 40
0.045
309
GRIDFORMAT_END
309
TABLEFORMAT_END
  1
CELLSTYLE_BEGIN
 90
        3
 91
        2
300
_DATA
309
CELLSTYLE_END
  0
XRECORD
  5
2CA
102
{ACAD_REACTORS
330
61
102
}
330
61
100
AcDbXrecord
280
     1
102
ACAD_ROUNDTRIP_PRE2007_TABLESTYLE
 90
      512
 91
        0
  1

 92
      512
 93
        0
  2

 94
      512
 95
        0
  3

  0
ENDSEC
  0
EOF
