  0
SECTION
  2
HEADER
  9
$ACADVER
  1
AC1018
  9
$ACADMAINTVER
 70
   104
  9
$DWGCODEPAGE
  3
ANSI_949
  9
$LASTSAVEDBY
  1
R&D
  9
$INSBASE
 10
595.0
 20
837.0
 30
0.0
  9
$EXTMIN
 10
600.2433212916801
 20
729.0
 30
0.0
  9
$EXTMAX
 10
827.0000000000003
 20
830.4999999999994
 30
0.0
  9
$LIMMIN
 10
0.0
 20
0.0
  9
$LIMMAX
 10
4205.0
 20
2970.0
  9
$ORTHOMODE
 70
     0
  9
$REGENMODE
 70
     1
  9
$FILLMODE
 70
     1
  9
$QTEXTMODE
 70
     0
  9
$MIRRTEXT
 70
     1
  9
$LTSCALE
 40
5.0
  9
$ATTMODE
 70
     1
  9
$TEXTSIZE
 40
4.0
  9
$TRACEWID
 40
0.05
  9
$TEXTSTYLE
  7
GHS
  9
$CLAYER
  8
TEXT
  9
$CELTYPE
  6
ByLayer
  9
$CECOLOR
 62
   256
  9
$CELTSCALE
 40
1.0
  9
$DISPSILH
 70
     0
  9
$DIMSCALE
 40
1.0
  9
$DIMASZ
 40
4.0
  9
$DIMEXO
 40
1.0
  9
$DIMDLI
 40
1.0
  9
$DIMRND
 40
0.0
  9
$DIMDLE
 40
0.0
  9
$DIMEXE
 40
1.0
  9
$DIMTP
 40
0.0
  9
$DIMTM
 40
0.0
  9
$DIMTXT
 40
5.0
  9
$DIMCEN
 40
0.5
  9
$DIMTSZ
 40
0.0
  9
$DIMTOL
 70
     0
  9
$DIMLIM
 70
     0
  9
$DIMTIH
 70
     0
  9
$DIMTOH
 70
     0
  9
$DIMSE1
 70
     0
  9
$DIMSE2
 70
     0
  9
$DIMTAD
 70
     1
  9
$DIMZIN
 70
     8
  9
$DIMBLK
  1

  9
$DIMASO
 70
     1
  9
$DIMSHO
 70
     1
  9
$DIMPOST
  1

  9
$DIMAPOST
  1

  9
$DIMALT
 70
     0
  9
$DIMALTD
 70
     2
  9
$DIMALTF
 40
25.4
  9
$DIMLFAC
 40
1.0
  9
$DIMTOFL
 70
     1
  9
$DIMTVP
 40
0.0
  9
$DIMTIX
 70
     0
  9
$DIMSOXD
 70
     0
  9
$DIMSAH
 70
     0
  9
$DIMBLK1
  1

  9
$DIMBLK2
  1

  9
$DIMSTYLE
  2
Standard
  9
$DIMCLRD
 70
   256
  9
$DIMCLRE
 70
   256
  9
$DIMCLRT
 70
   256
  9
$DIMTFAC
 40
1.0
  9
$DIMGAP
 40
1.5
  9
$DIMJUST
 70
     0
  9
$DIMSD1
 70
     0
  9
$DIMSD2
 70
     0
  9
$DIMTOLJ
 70
     1
  9
$DIMTZIN
 70
     0
  9
$DIMALTZ
 70
     0
  9
$DIMALTTZ
 70
     0
  9
$DIMUPT
 70
     0
  9
$DIMDEC
 70
     3
  9
$DIMTDEC
 70
     3
  9
$DIMALTU
 70
     2
  9
$DIMALTTD
 70
     2
  9
$DIMTXSTY
  7
GHS
  9
$DIMAUNIT
 70
     0
  9
$DIMADEC
 70
     0
  9
$DIMALTRND
 40
0.0
  9
$DIMAZIN
 70
     0
  9
$DIMDSEP
 70
    46
  9
$DIMATFIT
 70
     3
  9
$DIMFRAC
 70
     0
  9
$DIMLDRBLK
  1

  9
$DIMLUNIT
 70
     2
  9
$DIMLWD
 70
    -1
  9
$DIMLWE
 70
    -1
  9
$DIMTMOVE
 70
     0
  9
$LUNITS
 70
     2
  9
$LUPREC
 70
     3
  9
$SKETCHINC
 40
0.1
  9
$FILLETRAD
 40
4.0
  9
$AUNITS
 70
     0
  9
$AUPREC
 70
     3
  9
$MENU
  1
acad
  9
$ELEVATION
 40
0.0
  9
$PELEVATION
 40
0.0
  9
$THICKNESS
 40
0.0
  9
$LIMCHECK
 70
     0
  9
$CHAMFERA
 40
0.0
  9
$CHAMFERB
 40
0.0
  9
$CHAMFERC
 40
0.0
  9
$CHAMFERD
 40
0.0
  9
$SKPOLY
 70
     0
  9
$TDCREATE
 40
2449855.468823958
  9
$TDUCREATE
 40
2449855.093823958
  9
$TDUPDATE
 40
2455883.637239202
  9
$TDUUPDATE
 40
2455883.262239201
  9
$TDINDWG
 40
4.0607915509
  9
$TDUSRTIMER
 40
4.0607915509
  9
$USRTIMER
 70
     1
  9
$ANGBASE
 50
0.0
  9
$ANGDIR
 70
     0
  9
$PDMODE
 70
     0
  9
$PDSIZE
 40
0.0
  9
$PLINEWID
 40
0.0
  9
$SPLFRAME
 70
     0
  9
$SPLINETYPE
 70
     6
  9
$SPLINESEGS
 70
     8
  9
$HANDSEED
  5
267
  9
$SURFTAB1
 70
     6
  9
$SURFTAB2
 70
     6
  9
$SURFTYPE
 70
     6
  9
$SURFU
 70
     6
  9
$SURFV
 70
     6
  9
$UCSBASE
  2

  9
$UCSNAME
  2

  9
$UCSORG
 10
0.0
 20
0.0
 30
0.0
  9
$UCSXDIR
 10
1.0
 20
0.0
 30
0.0
  9
$UCSYDIR
 10
0.0
 20
1.0
 30
0.0
  9
$UCSORTHOREF
  2

  9
$UCSORTHOVIEW
 70
     0
  9
$UCSORGTOP
 10
0.0
 20
0.0
 30
0.0
  9
$UCSORGBOTTOM
 10
0.0
 20
0.0
 30
0.0
  9
$UCSORGLEFT
 10
0.0
 20
0.0
 30
0.0
  9
$UCSORGRIGHT
 10
0.0
 20
0.0
 30
0.0
  9
$UCSORGFRONT
 10
0.0
 20
0.0
 30
0.0
  9
$UCSORGBACK
 10
0.0
 20
0.0
 30
0.0
  9
$PUCSBASE
  2

  9
$PUCSNAME
  2

  9
$PUCSORG
 10
0.0
 20
0.0
 30
0.0
  9
$PUCSXDIR
 10
1.0
 20
0.0
 30
0.0
  9
$PUCSYDIR
 10
0.0
 20
1.0
 30
0.0
  9
$PUCSORTHOREF
  2

  9
$PUCSORTHOVIEW
 70
     0
  9
$PUCSORGTOP
 10
0.0
 20
0.0
 30
0.0
  9
$PUCSORGBOTTOM
 10
0.0
 20
0.0
 30
0.0
  9
$PUCSORGLEFT
 10
0.0
 20
0.0
 30
0.0
  9
$PUCSORGRIGHT
 10
0.0
 20
0.0
 30
0.0
  9
$PUCSORGFRONT
 10
0.0
 20
0.0
 30
0.0
  9
$PUCSORGBACK
 10
0.0
 20
0.0
 30
0.0
  9
$USERI1
 70
     0
  9
$USERI2
 70
     0
  9
$USERI3
 70
     0
  9
$USERI4
 70
     0
  9
$USERI5
 70
     0
  9
$USERR1
 40
0.0
  9
$USERR2
 40
0.0
  9
$USERR3
 40
0.0
  9
$USERR4
 40
0.0
  9
$USERR5
 40
0.0
  9
$WORLDVIEW
 70
     1
  9
$SHADEDGE
 70
     3
  9
$SHADEDIF
 70
    70
  9
$TILEMODE
 70
     1
  9
$MAXACTVP
 70
    16
  9
$PINSBASE
 10
2220.404641079056
 20
50.00000000000001
 30
2810.473195709564
  9
$PLIMCHECK
 70
     0
  9
$PEXTMIN
 10
1.000000000000000E+20
 20
1.000000000000000E+20
 30
1.000000000000000E+20
  9
$PEXTMAX
 10
-1.000000000000000E+20
 20
-1.000000000000000E+20
 30
-1.000000000000000E+20
  9
$PLIMMIN
 10
0.0
 20
0.0
  9
$PLIMMAX
 10
12.0
 20
9.0
  9
$UNITMODE
 70
     0
  9
$VISRETAIN
 70
     0
  9
$PLINEGEN
 70
     0
  9
$PSLTSCALE
 70
     1
  9
$TREEDEPTH
 70
  3020
  9
$CMLSTYLE
  2
Standard
  9
$CMLJUST
 70
     0
  9
$CMLSCALE
 40
1.0
  9
$PROXYGRAPHICS
 70
     1
  9
$MEASUREMENT
 70
     0
  9
$CELWEIGHT
370
    -1
  9
$ENDCAPS
280
     0
  9
$JOINSTYLE
280
     0
  9
$LWDISPLAY
290
     0
  9
$INSUNITS
 70
     0
  9
$HYPERLINKBASE
  1

  9
$STYLESHEET
  1

  9
$XEDIT
290
     1
  9
$CEPSNTYPE
380
     0
  9
$PSTYLEMODE
290
     1
  9
$FINGERPRINTGUID
  2
{EB530B06-8531-4A63-AD5B-A10E77C19173}
  9
$VERSIONGUID
  2
{1315CBA2-A79D-41FA-8546-A64D8CD8B812}
  9
$EXTNAMES
290
     1
  9
$PSVPSCALE
 40
0.0
  9
$OLESTARTUP
290
     0
  9
$SORTENTS
280
   127
  9
$INDEXCTL
280
     0
  9
$HIDETEXT
280
     1
  9
$XCLIPFRAME
290
     0
  9
$HALOGAP
280
     0
  9
$OBSCOLOR
 70
   257
  9
$OBSLTYPE
280
     0
  9
$INTERSECTIONDISPLAY
280
     0
  9
$INTERSECTIONCOLOR
 70
   257
  9
$DIMASSOC
280
     2
  9
$PROJECTNAME
  1

  0
ENDSEC
  0
SECTION
  2
CLASSES
  0
CLASS
  1
ACDBDICTIONARYWDFLT
  2
AcDbDictionaryWithDefault
  3
ObjectDBX Classes
 90
        0
 91
        1
280
     0
281
     0
  0
CLASS
  1
DICTIONARYVAR
  2
AcDbDictionaryVar
  3
ObjectDBX Classes
 90
        0
 91
        8
280
     0
281
     0
  0
CLASS
  1
DIMASSOC
  2
AcDbDimAssoc
  3
"AcDbDimAssoc|Product Desc:     AcDim ARX App For Dimension|Company:          Autodesk, Inc.|WEB Address:      www.autodesk.com"
 90
        0
 91
       11
280
     0
281
     0
  0
CLASS
  1
MATERIAL
  2
AcDbMaterial
  3
ObjectDBX Classes
 90
     1153
 91
        3
280
     0
281
     0
  0
CLASS
  1
VISUALSTYLE
  2
AcDbVisualStyle
  3
ObjectDBX Classes
 90
     4095
 91
       16
280
     0
281
     0
  0
CLASS
  1
TABLESTYLE
  2
AcDbTableStyle
  3
ObjectDBX Classes
 90
     4095
 91
        1
280
     0
281
     0
  0
CLASS
  1
SCALE
  2
AcDbScale
  3
ObjectDBX Classes
 90
     1153
 91
       34
280
     0
281
     0
  0
CLASS
  1
MLEADERSTYLE
  2
AcDbMLeaderStyle
  3
ACDB_MLEADERSTYLE_CLASS
 90
     4095
 91
        1
280
     0
281
     0
  0
CLASS
  1
CELLSTYLEMAP
  2
AcDbCellStyleMap
  3
ObjectDBX Classes
 90
     1152
 91
        2
280
     0
281
     0
  0
CLASS
  1
SORTENTSTABLE
  2
AcDbSortentsTable
  3
ObjectDBX Classes
 90
        0
 91
        1
280
     0
281
     0
  0
CLASS
  1
ACDB_TEXTOBJECTCONTEXTDATA_CLASS
  2
AcDbTextObjectContextData
  3
ObjectDBX Classes
 90
     1153
 91
        0
280
     0
281
     0
  0
CLASS
  1
SOLID_BACKGROUND
  2
AcDbSolidBackground
  3
SCENEOE
 90
     4095
 91
        0
280
     0
281
     0
  0
CLASS
  1
NPOCOLLECTION
  2
AcDbImpNonPersistentObjectsCollection
  3
ObjectDBX Classes
 90
     1153
 91
        0
280
     0
281
     0
  0
ENDSEC
  0
SECTION
  2
TABLES
  0
TABLE
  2
VPORT
  5
2F
102
{ACAD_XDICTIONARY
360
33
102
}
330
0
100
AcDbSymbolTable
 70
     1
  0
VPORT
  5
30
330
2F
100
AcDbSymbolTableRecord
100
AcDbViewportTableRecord
  2
*Active
 70
     0
 10
0.0
 20
0.0
 11
1.0
 21
1.0
 12
713.4235233276458
 22
779.7426105299418
 13
0.0
 23
0.0
 14
1.0
 24
1.0
 15
0.0
 25
0.0
 16
0.0
 26
0.0
 36
1.0
 17
0.0
 27
0.0
 37
0.0
 40
134.0364370306813
 41
1.889
 42
50.0
 43
0.0
 44
0.0
 50
0.0
 51
0.0
 71
     0
 72
 10000
 73
     1
 74
     0
 75
     0
 76
     0
 77
     0
 78
     0
281
     0
 65
     1
110
0.0
120
0.0
130
0.0
111
1.0
121
0.0
131
0.0
112
0.0
122
1.0
132
0.0
 79
     0
146
0.0
  0
ENDTAB
  0
TABLE
  2
LTYPE
  5
2A
330
0
100
AcDbSymbolTable
 70
     3
  0
LTYPE
  5
2B
330
2A
100
AcDbSymbolTableRecord
100
AcDbLinetypeTableRecord
  2
ByBlock
 70
     0
  3

 72
    65
 73
     0
 40
0.0
  0
LTYPE
  5
2C
330
2A
100
AcDbSymbolTableRecord
100
AcDbLinetypeTableRecord
  2
ByLayer
 70
     0
  3

 72
    65
 73
     0
 40
0.0
  0
LTYPE
  5
16
330
2A
100
AcDbSymbolTableRecord
100
AcDbLinetypeTableRecord
  2
CONTINUOUS
 70
     0
  3
Solid line
 72
    65
 73
     0
 40
0.0
  0
LTYPE
  5
90
330
2A
100
AcDbSymbolTableRecord
100
AcDbLinetypeTableRecord
  2
CENTER
 70
     0
  3
____ _ ____ _ ____ _ ____ _ ____ _ ____ _ ____ 
 72
    65
 73
     4
 40
2.0
 49
1.25
 74
     0
 49
-0.25
 74
     0
 49
0.25
 74
     0
 49
-0.25
 74
     0
  0
LTYPE
  5
1C9
330
2A
100
AcDbSymbolTableRecord
100
AcDbLinetypeTableRecord
  2
PHANTOM
 70
     0
  3
Phantom ______  __  __  ______  __  __  ______
 72
    65
 73
     6
 40
2.5
 49
1.25
 74
     0
 49
-0.25
 74
     0
 49
0.25
 74
     0
 49
-0.25
 74
     0
 49
0.25
 74
     0
 49
-0.25
 74
     0
  0
ENDTAB
  0
TABLE
  2
LAYER
  5
21
102
{ACAD_XDICTIONARY
360
22
102
}
330
0
100
AcDbSymbolTable
 70
     5
  0
LAYER
  5
7
102
{ACAD_XDICTIONARY
360
8
102
}
330
21
100
AcDbSymbolTableRecord
100
AcDbLayerTableRecord
  2
0
 70
     0
 62
     7
  6
CONTINUOUS
370
    -3
390
A
  0
LAYER
  5
8D
102
{ACAD_XDICTIONARY
360
8E
102
}
330
21
100
AcDbSymbolTableRecord
100
AcDbLayerTableRecord
  2
CL
 70
     0
 62
     1
  6
CENTER
370
    -3
390
A
  0
LAYER
  5
9B
330
21
100
AcDbSymbolTableRecord
100
AcDbLayerTableRecord
  2
DEFPOINTS
 70
     0
 62
     7
  6
CONTINUOUS
290
     0
370
    -3
390
A
  0
LAYER
  5
5C
102
{ACAD_XDICTIONARY
360
5D
102
}
330
21
100
AcDbSymbolTableRecord
100
AcDbLayerTableRecord
  2
TEXT
 70
     0
 62
    84
  6
CONTINUOUS
370
    -3
390
A
  0
LAYER
  5
1C8
330
21
100
AcDbSymbolTableRecord
100
AcDbLayerTableRecord
  2
ETC
 70
     0
 62
     7
  6
PHANTOM
370
    -3
390
A
1001
AcAecLayerStandard
1000

1000

  0
ENDTAB
  0
TABLE
  2
STYLE
  5
27
330
0
100
AcDbSymbolTable
 70
     2
  0
STYLE
  5
28
330
27
100
AcDbSymbolTableRecord
100
AcDbTextStyleTableRecord
  2
STANDARD
 70
     0
 40
0.0
 41
0.8
 50
0.0
 71
     0
 42
4.0
  3
TXT.shx
  4

  0
STYLE
  5
37
330
27
100
AcDbSymbolTableRecord
100
AcDbTextStyleTableRecord
  2
GHS
 70
     0
 40
0.0
 41
0.6
 50
0.0
 71
     0
 42
4.0
  3
ROMANS
  4
GHS
  0
ENDTAB
  0
TABLE
  2
VIEW
  5
2D
330
0
100
AcDbSymbolTable
 70
     0
  0
ENDTAB
  0
TABLE
  2
UCS
  5
2E
330
0
100
AcDbSymbolTable
 70
     0
  0
ENDTAB
  0
TABLE
  2
APPID
  5
34
330
0
100
AcDbSymbolTable
 70
    10
  0
APPID
  5
26
330
34
100
AcDbSymbolTableRecord
100
AcDbRegAppTableRecord
  2
ACAD
 70
     0
  0
APPID
  5
38
330
34
100
AcDbSymbolTableRecord
100
AcDbRegAppTableRecord
  2
ACAD_DSTYLE_DIMJAG
 70
     0
  0
APPID
  5
39
330
34
100
AcDbSymbolTableRecord
100
AcDbRegAppTableRecord
  2
ACAD_DSTYLE_DIMTALN
 70
     0
  0
APPID
  5
1CA
330
34
100
AcDbSymbolTableRecord
100
AcDbRegAppTableRecord
  2
AcAecLayerStandard
 70
     0
  0
APPID
  5
1A
330
34
100
AcDbSymbolTableRecord
100
AcDbRegAppTableRecord
  2
ACAD_PSEXT
 70
     0
  0
APPID
  5
42
330
34
100
AcDbSymbolTableRecord
100
AcDbRegAppTableRecord
  2
ACAD_DSTYLE_DIMBREAK
 70
     0
  0
APPID
  5
21D
330
34
100
AcDbSymbolTableRecord
100
AcDbRegAppTableRecord
  2
ACAD_DSTYLE_DIM_LINETYPE
 70
     0
  0
APPID
  5
21E
330
34
100
AcDbSymbolTableRecord
100
AcDbRegAppTableRecord
  2
ACAD_DSTYLE_DIM_EXT1_LINETYPE
 70
     0
  0
APPID
  5
21F
330
34
100
AcDbSymbolTableRecord
100
AcDbRegAppTableRecord
  2
ACAD_DSTYLE_DIM_EXT2_LINETYPE
 70
     0
  0
APPID
  5
242
330
34
100
AcDbSymbolTableRecord
100
AcDbRegAppTableRecord
  2
ACAD_MLEADERVER
 70
     0
  0
ENDTAB
  0
TABLE
  2
DIMSTYLE
  5
35
330
0
100
AcDbSymbolTable
 70
     5
100
AcDbDimStyleTable
 71
     5
340
36
340
3A
340
3B
340
43
340
44
  0
DIMSTYLE
105
36
102
{ACAD_REACTORS
330
B5
330
C6
330
D7
330
E6
330
F5
330
10E
330
120
330
18F
330
1A0
330
131
330
1FF
330
91
102
}
330
35
100
AcDbSymbolTableRecord
100
AcDbDimStyleTableRecord
  2
Standard
 70
     0
 41
4.0
 42
1.0
 43
1.0
 44
1.0
 73
     0
 74
     0
 77
     1
 78
     8
140
5.0
141
0.5
147
1.5
172
     1
176
   256
177
   256
178
   256
271
     3
272
     3
340
37
371
    -1
372
    -1
1001
ACAD_DSTYLE_DIMJAG
1070
   388
1040
1.5
1001
ACAD_DSTYLE_DIMTALN
1070
   392
1070
     0
1001
ACAD_DSTYLE_DIM_LINETYPE
1070
   380
1005
2C
1001
ACAD_DSTYLE_DIM_EXT1_LINETYPE
1070
   381
1005
2C
1001
ACAD_DSTYLE_DIM_EXT2_LINETYPE
1070
   382
1005
2C
  0
DIMSTYLE
105
3A
330
35
100
AcDbSymbolTableRecord
100
AcDbDimStyleTableRecord
  2
ISO-25
 70
     0
 41
4.0
 42
2.0
 43
1.0
 44
1.0
 73
     0
 74
     0
 77
     1
 78
     8
 79
     2
140
4.0
141
0.5
143
0.03937007874016
147
1.5
171
     3
172
     1
176
   256
177
   256
178
   256
179
     4
271
     3
272
     3
274
     3
283
     0
284
     8
340
37
371
    -1
372
    -1
1001
ACAD_DSTYLE_DIMJAG
1070
   388
1040
1.5
1001
ACAD_DSTYLE_DIMTALN
1070
   392
1070
     0
1001
ACAD_DSTYLE_DIM_LINETYPE
1070
   380
1005
2C
1001
ACAD_DSTYLE_DIM_EXT1_LINETYPE
1070
   381
1005
2C
1001
ACAD_DSTYLE_DIM_EXT2_LINETYPE
1070
   382
1005
2C
  0
DIMSTYLE
105
43
330
35
100
AcDbSymbolTableRecord
100
AcDbDimStyleTableRecord
  2
2X
 70
     0
 41
3.0
 42
1.0
 43
1.0
 44
1.0
 73
     0
 74
     0
 77
     1
 78
     8
 79
     2
140
3.0
141
0.5
144
0.5
147
1.0
172
     1
176
   256
177
   256
178
   256
179
     3
271
     3
272
     3
340
37
371
    -1
372
    -1
1001
ACAD_DSTYLE_DIMBREAK
1070
   391
1040
0.125
1001
ACAD_DSTYLE_DIMJAG
1070
   388
1040
1.5
1001
ACAD_DSTYLE_DIMTALN
1070
   392
1070
     0
1001
ACAD_DSTYLE_DIM_LINETYPE
1070
   380
1005
2C
1001
ACAD_DSTYLE_DIM_EXT1_LINETYPE
1070
   381
1005
2C
1001
ACAD_DSTYLE_DIM_EXT2_LINETYPE
1070
   382
1005
2C
  0
DIMSTYLE
105
44
330
35
100
AcDbSymbolTableRecord
100
AcDbDimStyleTableRecord
  2
1X
 70
     0
 41
3.0
 42
1.0
 43
1.0
 44
1.0
 73
     0
 74
     0
 77
     1
 78
     8
140
3.0
141
0.5
147
1.0
172
     1
176
   256
177
   256
178
   256
271
     3
272
     3
340
37
371
    -1
372
    -1
1001
ACAD_DSTYLE_DIMBREAK
1070
   391
1040
0.125
1001
ACAD_DSTYLE_DIMJAG
1070
   388
1040
1.5
1001
ACAD_DSTYLE_DIMTALN
1070
   392
1070
     0
1001
ACAD_DSTYLE_DIM_LINETYPE
1070
   380
1005
2C
1001
ACAD_DSTYLE_DIM_EXT1_LINETYPE
1070
   381
1005
2C
1001
ACAD_DSTYLE_DIM_EXT2_LINETYPE
1070
   382
1005
2C
  0
DIMSTYLE
105
3B
330
35
100
AcDbSymbolTableRecord
100
AcDbDimStyleTableRecord
  2
CATALOG
 70
     0
 41
2.5
 42
1.0
 43
1.0
 44
1.0
 73
     0
 74
     0
 77
     1
 78
     8
 79
     2
140
3.0
141
0.5
147
1.0
172
     1
176
   256
177
   256
178
   256
179
     3
271
     3
272
     3
340
37
342
3C
371
    -1
372
    -1
1001
ACAD_DSTYLE_DIMBREAK
1070
   391
1040
0.125
1001
ACAD_DSTYLE_DIMJAG
1070
   388
1040
1.5
1001
ACAD_DSTYLE_DIMTALN
1070
   392
1070
     0
1001
ACAD_DSTYLE_DIM_LINETYPE
1070
   380
1005
2C
1001
ACAD_DSTYLE_DIM_EXT1_LINETYPE
1070
   381
1005
2C
1001
ACAD_DSTYLE_DIM_EXT2_LINETYPE
1070
   382
1005
2C
  0
ENDTAB
  0
TABLE
  2
BLOCK_RECORD
  5
1
330
0
100
AcDbSymbolTable
 70
    13
  0
BLOCK_RECORD
  5
2
102
{ACAD_XDICTIONARY
360
3
102
}
330
1
100
AcDbSymbolTableRecord
100
AcDbBlockTableRecord
  2
*Model_Space
340
18
  0
BLOCK_RECORD
  5
1B
102
{ACAD_XDICTIONARY
360
1C
102
}
330
1
100
AcDbSymbolTableRecord
100
AcDbBlockTableRecord
  2
*Paper_Space
340
20
  0
BLOCK_RECORD
  5
3C
330
1
100
AcDbSymbolTableRecord
100
AcDbBlockTableRecord
  2
_Open30
340
0
  0
BLOCK_RECORD
  5
92
330
1
100
AcDbSymbolTableRecord
100
AcDbBlockTableRecord
  2
*D1
340
0
  0
BLOCK_RECORD
  5
B8
330
1
100
AcDbSymbolTableRecord
100
AcDbBlockTableRecord
  2
*D2
340
0
  0
BLOCK_RECORD
  5
C9
330
1
100
AcDbSymbolTableRecord
100
AcDbBlockTableRecord
  2
*D3
340
0
  0
BLOCK_RECORD
  5
DA
330
1
100
AcDbSymbolTableRecord
100
AcDbBlockTableRecord
  2
*D4
340
0
  0
BLOCK_RECORD
  5
E9
330
1
100
AcDbSymbolTableRecord
100
AcDbBlockTableRecord
  2
*D5
340
0
  0
BLOCK_RECORD
  5
F8
330
1
100
AcDbSymbolTableRecord
100
AcDbBlockTableRecord
  2
*D6
340
0
  0
BLOCK_RECORD
  5
111
330
1
100
AcDbSymbolTableRecord
100
AcDbBlockTableRecord
  2
*D7
340
0
  0
BLOCK_RECORD
  5
123
330
1
100
AcDbSymbolTableRecord
100
AcDbBlockTableRecord
  2
*D8
340
0
  0
BLOCK_RECORD
  5
134
330
1
100
AcDbSymbolTableRecord
100
AcDbBlockTableRecord
  2
*D9
340
0
  0
BLOCK_RECORD
  5
192
330
1
100
AcDbSymbolTableRecord
100
AcDbBlockTableRecord
  2
*D10
340
0
  0
BLOCK_RECORD
  5
1A3
330
1
100
AcDbSymbolTableRecord
100
AcDbBlockTableRecord
  2
*D11
340
0
  0
BLOCK_RECORD
  5
202
330
1
100
AcDbSymbolTableRecord
100
AcDbBlockTableRecord
  2
*D12
340
0
  0
ENDTAB
  0
ENDSEC
  0
SECTION
  2
BLOCKS
  0
BLOCK
  5
6
330
2
100
AcDbEntity
  8
0
100
AcDbBlockBegin
  2
*Model_Space
 70
     0
 10
0.0
 20
0.0
 30
0.0
  3
*Model_Space
  1

  0
ENDBLK
  5
17
330
2
100
AcDbEntity
  8
0
100
AcDbBlockEnd
  0
BLOCK
  5
1E
330
1B
100
AcDbEntity
 67
     1
  8
0
100
AcDbBlockBegin
  2
*Paper_Space
 70
     0
 10
0.0
 20
0.0
 30
0.0
  3
*Paper_Space
  1

  0
ENDBLK
  5
1F
330
1B
100
AcDbEntity
 67
     1
  8
0
100
AcDbBlockEnd
  0
BLOCK
  5
3D
330
3C
100
AcDbEntity
  8
0
100
AcDbBlockBegin
  2
_Open30
 70
     0
 10
0.0
 20
0.0
 30
0.0
  3
_Open30
  1

  0
LINE
  5
3E
330
3C
100
AcDbEntity
  8
0
  6
ByBlock
 62
     0
370
    -2
100
AcDbLine
 10
-1.0
 20
0.26794919
 30
0.0
 11
0.0
 21
0.0
 31
0.0
  0
LINE
  5
3F
330
3C
100
AcDbEntity
  8
0
  6
ByBlock
 62
     0
370
    -2
100
AcDbLine
 10
0.0
 20
0.0
 30
0.0
 11
-1.0
 21
-0.26794919
 31
0.0
  0
LINE
  5
40
330
3C
100
AcDbEntity
  8
0
  6
ByBlock
 62
     0
370
    -2
100
AcDbLine
 10
0.0
 20
0.0
 30
0.0
 11
-1.0
 21
0.0
 31
0.0
  0
ENDBLK
  5
41
330
3C
100
AcDbEntity
  8
0
100
AcDbBlockEnd
  0
BLOCK
  5
93
330
92
100
AcDbEntity
  8
0
100
AcDbBlockBegin
  2
*D1
 70
     1
 10
0.0
 20
0.0
 30
0.0
  3
*D1
  1

  0
LINE
  5
94
330
92
100
AcDbEntity
  8
TEXT
100
AcDbLine
 10
744.5833369920011
 20
774.4499999999995
 30
0.0
 11
827.0000000000003
 21
774.4499999999994
 31
0.0
  0
LINE
  5
95
330
92
100
AcDbEntity
  8
TEXT
100
AcDbLine
 10
744.5833369920011
 20
811.5499999999995
 30
0.0
 11
827.0000000000003
 21
811.5499999999993
 31
0.0
  0
LINE
  5
96
330
92
100
AcDbEntity
  8
TEXT
100
AcDbLine
 10
826.0000000000001
 20
778.4499999999994
 30
0.0
 11
826.0000000000001
 21
807.5499999999994
 31
0.0
  0
SOLID
  5
97
330
92
100
AcDbEntity
  8
TEXT
100
AcDbTrace
 10
825.3333333333335
 20
778.4499999999994
 30
0.0
 11
826.6666666666669
 21
778.4499999999994
 31
0.0
 12
826.0000000000001
 22
774.4499999999994
 32
0.0
 13
826.0000000000001
 23
774.4499999999994
 33
0.0
  0
SOLID
  5
98
330
92
100
AcDbEntity
  8
TEXT
100
AcDbTrace
 10
825.3333333333335
 20
807.5499999999994
 30
0.0
 11
826.6666666666669
 21
807.5499999999994
 31
0.0
 12
826.0000000000001
 22
811.5499999999993
 32
0.0
 13
826.0000000000001
 23
811.5499999999993
 33
0.0
  0
MTEXT
  5
99
330
92
100
AcDbEntity
  8
TEXT
100
AcDbMText
 10
822.0
 20
793.0
 30
0.0
 40
5.0
 41
0.0
 71
     5
 72
     1
  1
\A1;%%C37
  7
GHS
 11
0.0000000000000001
 21
1.0
 31
0.0
 73
     1
 44
1.0
  0
POINT
  5
9A
330
92
100
AcDbEntity
  8
DEFPOINTS
 62
     0
100
AcDbPoint
 10
743.5833369920011
 20
774.4499999999995
 30
0.0
  0
POINT
  5
9C
330
92
100
AcDbEntity
  8
DEFPOINTS
 62
     0
100
AcDbPoint
 10
743.5833369920011
 20
811.5499999999995
 30
0.0
  0
POINT
  5
9D
330
92
100
AcDbEntity
  8
DEFPOINTS
 62
     0
100
AcDbPoint
 10
826.0000000000001
 20
811.5499999999993
 30
0.0
  0
ENDBLK
  5
9E
330
92
100
AcDbEntity
  8
0
100
AcDbBlockEnd
  0
BLOCK
  5
B9
330
B8
100
AcDbEntity
  8
0
100
AcDbBlockBegin
  2
*D2
 70
     1
 10
0.0
 20
0.0
 30
0.0
  3
*D2
  1

  0
LINE
  5
BA
330
B8
100
AcDbEntity
  8
TEXT
100
AcDbLine
 10
701.0833369920011
 20
796.9999999999997
 30
0.0
 11
691.9999999999998
 21
796.9999999999997
 31
0.0
  0
LINE
  5
BB
330
B8
100
AcDbEntity
  8
TEXT
100
AcDbLine
 10
700.5833369920011
 20
802.4999999999996
 30
0.0
 11
691.9999999999998
 21
802.4999999999996
 31
0.0
  0
LINE
  5
BC
330
B8
100
AcDbEntity
  8
TEXT
100
AcDbLine
 10
692.9999999999997
 20
793.9999999999996
 30
0.0
 11
692.9999999999997
 21
790.9999999999996
 31
0.0
  0
LINE
  5
BD
330
B8
100
AcDbEntity
  8
TEXT
100
AcDbLine
 10
692.9999999999997
 20
805.4999999999996
 30
0.0
 11
692.9999999999997
 21
808.4999999999997
 31
0.0
  0
LINE
  5
BE
330
B8
100
AcDbEntity
  8
TEXT
100
AcDbLine
 10
692.9999999999997
 20
796.9999999999997
 30
0.0
 11
692.9999999999997
 21
802.4999999999996
 31
0.0
  0
SOLID
  5
BF
330
B8
100
AcDbEntity
  8
TEXT
100
AcDbTrace
 10
692.4999999999998
 20
793.9999999999996
 30
0.0
 11
693.4999999999997
 21
793.9999999999996
 31
0.0
 12
692.9999999999997
 22
796.9999999999997
 32
0.0
 13
692.9999999999997
 23
796.9999999999997
 33
0.0
  0
SOLID
  5
C0
330
B8
100
AcDbEntity
  8
TEXT
100
AcDbTrace
 10
692.4999999999998
 20
805.4999999999996
 30
0.0
 11
693.4999999999997
 21
805.4999999999996
 31
0.0
 12
692.9999999999997
 22
802.4999999999996
 32
0.0
 13
692.9999999999997
 23
802.4999999999996
 33
0.0
  0
MTEXT
  5
C1
330
B8
100
AcDbEntity
  8
TEXT
100
AcDbMText
 10
689.4999999999996
 20
799.7499999999997
 30
0.0
 40
4.0
 41
0.0
 71
     5
 72
     1
  1
\A1;5.5
  7
GHS
 11
0.0000000000000001
 21
1.0
 31
0.0
 73
     1
 44
1.0
  0
POINT
  5
C2
330
B8
100
AcDbEntity
  8
DEFPOINTS
 62
     0
100
AcDbPoint
 10
702.0833369920011
 20
796.9999999999997
 30
0.0
  0
POINT
  5
C3
330
B8
100
AcDbEntity
  8
DEFPOINTS
 62
     0
100
AcDbPoint
 10
701.5833369920011
 20
802.4999999999996
 30
0.0
  0
POINT
  5
C4
330
B8
100
AcDbEntity
  8
DEFPOINTS
 62
     0
100
AcDbPoint
 10
692.9999999999997
 20
802.4999999999996
 30
0.0
  0
ENDBLK
  5
C5
330
B8
100
AcDbEntity
  8
0
100
AcDbBlockEnd
  0
BLOCK
  5
CA
330
C9
100
AcDbEntity
  8
0
100
AcDbBlockBegin
  2
*D3
 70
     1
 10
0.0
 20
0.0
 30
0.0
  3
*D3
  1

  0
LINE
  5
CB
330
C9
100
AcDbEntity
  8
TEXT
100
AcDbLine
 10
701.0833369920011
 20
796.9999999999997
 30
0.0
 11
682.9999999999998
 21
796.9999999999997
 31
0.0
  0
LINE
  5
CC
330
C9
100
AcDbEntity
  8
TEXT
100
AcDbLine
 10
712.5833369920011
 20
802.9999999999997
 30
0.0
 11
682.9999999999998
 21
802.9999999999997
 31
0.0
  0
LINE
  5
CD
330
C9
100
AcDbEntity
  8
TEXT
100
AcDbLine
 10
683.9999999999998
 20
793.9999999999996
 30
0.0
 11
683.9999999999998
 21
790.9999999999996
 31
0.0
  0
LINE
  5
CE
330
C9
100
AcDbEntity
  8
TEXT
100
AcDbLine
 10
683.9999999999998
 20
805.9999999999996
 30
0.0
 11
683.9999999999998
 21
808.9999999999996
 31
0.0
  0
LINE
  5
CF
330
C9
100
AcDbEntity
  8
TEXT
100
AcDbLine
 10
683.9999999999998
 20
796.9999999999997
 30
0.0
 11
683.9999999999998
 21
802.9999999999997
 31
0.0
  0
SOLID
  5
D0
330
C9
100
AcDbEntity
  8
TEXT
100
AcDbTrace
 10
683.4999999999998
 20
793.9999999999996
 30
0.0
 11
684.4999999999997
 21
793.9999999999996
 31
0.0
 12
683.9999999999998
 22
796.9999999999997
 32
0.0
 13
683.9999999999998
 23
796.9999999999997
 33
0.0
  0
SOLID
  5
D1
330
C9
100
AcDbEntity
  8
TEXT
100
AcDbTrace
 10
683.4999999999998
 20
805.9999999999996
 30
0.0
 11
684.4999999999997
 21
805.9999999999996
 31
0.0
 12
683.9999999999998
 22
802.9999999999997
 32
0.0
 13
683.9999999999998
 23
802.9999999999997
 33
0.0
  0
MTEXT
  5
D2
330
C9
100
AcDbEntity
  8
TEXT
100
AcDbMText
 10
680.4999999999995
 20
799.9999999999998
 30
0.0
 40
4.0
 41
0.0
 71
     5
 72
     1
  1
\A1;%%C6
  7
GHS
 11
0.0000000000000001
 21
1.0
 31
0.0
 73
     1
 44
1.0
  0
POINT
  5
D3
330
C9
100
AcDbEntity
  8
DEFPOINTS
 62
     0
100
AcDbPoint
 10
702.0833369920011
 20
796.9999999999997
 30
0.0
  0
POINT
  5
D4
330
C9
100
AcDbEntity
  8
DEFPOINTS
 62
     0
100
AcDbPoint
 10
713.5833369920011
 20
802.9999999999997
 30
0.0
  0
POINT
  5
D5
330
C9
100
AcDbEntity
  8
DEFPOINTS
 62
     0
100
AcDbPoint
 10
683.9999999999998
 20
802.9999999999997
 30
0.0
  0
ENDBLK
  5
D6
330
C9
100
AcDbEntity
  8
0
100
AcDbBlockEnd
  0
BLOCK
  5
DB
330
DA
100
AcDbEntity
  8
0
100
AcDbBlockBegin
  2
*D4
 70
     1
 10
0.0
 20
0.0
 30
0.0
  3
*D4
  1

  0
LINE
  5
DC
330
DA
100
AcDbEntity
  8
TEXT
100
AcDbLine
 10
722.5833369920011
 20
811.8999999999994
 30
0.0
 11
722.5833369920011
 21
824.9999999999994
 31
0.0
  0
LINE
  5
DD
330
DA
100
AcDbEntity
  8
TEXT
100
AcDbLine
 10
743.5833369920011
 20
812.5499999999993
 30
0.0
 11
743.5833369920011
 21
824.9999999999994
 31
0.0
  0
LINE
  5
DE
330
DA
100
AcDbEntity
  8
TEXT
100
AcDbLine
 10
725.5833369920011
 20
823.9999999999994
 30
0.0
 11
740.5833369920011
 21
823.9999999999994
 31
0.0
  0
SOLID
  5
DF
330
DA
100
AcDbEntity
  8
TEXT
100
AcDbTrace
 10
725.5833369920011
 20
824.4999999999993
 30
0.0
 11
725.5833369920011
 21
823.4999999999994
 31
0.0
 12
722.5833369920011
 22
823.9999999999994
 32
0.0
 13
722.5833369920011
 23
823.9999999999994
 33
0.0
  0
SOLID
  5
E0
330
DA
100
AcDbEntity
  8
TEXT
100
AcDbTrace
 10
740.5833369920011
 20
824.4999999999993
 30
0.0
 11
740.5833369920011
 21
823.4999999999994
 31
0.0
 12
743.5833369920011
 22
823.9999999999994
 32
0.0
 13
743.5833369920011
 23
823.9999999999994
 33
0.0
  0
MTEXT
  5
E1
330
DA
100
AcDbEntity
  8
TEXT
100
AcDbMText
 10
733.0833369920011
 20
827.4999999999995
 30
0.0
 40
4.0
 41
0.0
 71
     5
 72
     1
  1
\A1;L
  7
GHS
 73
     1
 44
1.0
  0
POINT
  5
E2
330
DA
100
AcDbEntity
  8
DEFPOINTS
 62
     0
100
AcDbPoint
 10
722.5833369920011
 20
810.8999999999994
 30
0.0
  0
POINT
  5
E3
330
DA
100
AcDbEntity
  8
DEFPOINTS
 62
     0
100
AcDbPoint
 10
743.5833369920011
 20
811.5499999999993
 30
0.0
  0
POINT
  5
E4
330
DA
100
AcDbEntity
  8
DEFPOINTS
 62
     0
100
AcDbPoint
 10
743.5833369920011
 20
823.9999999999994
 30
0.0
  0
ENDBLK
  5
E5
330
DA
100
AcDbEntity
  8
0
100
AcDbBlockEnd
  0
BLOCK
  5
EA
330
E9
100
AcDbEntity
  8
0
100
AcDbBlockBegin
  2
*D5
 70
     1
 10
0.0
 20
0.0
 30
0.0
  3
*D5
  1

  0
LINE
  5
EB
330
E9
100
AcDbEntity
  8
TEXT
100
AcDbLine
 10
701.5833369920011
 20
803.4999999999996
 30
0.0
 11
701.5833369920011
 21
815.9999999999994
 31
0.0
  0
LINE
  5
EC
330
E9
100
AcDbEntity
  8
TEXT
100
AcDbLine
 10
713.5833369920011
 20
803.9999999999997
 30
0.0
 11
713.5833369920011
 21
815.9999999999994
 31
0.0
  0
LINE
  5
ED
330
E9
100
AcDbEntity
  8
TEXT
100
AcDbLine
 10
704.5833369920011
 20
814.9999999999995
 30
0.0
 11
710.5833369920011
 21
814.9999999999995
 31
0.0
  0
SOLID
  5
EE
330
E9
100
AcDbEntity
  8
TEXT
100
AcDbTrace
 10
704.5833369920011
 20
815.4999999999994
 30
0.0
 11
704.5833369920011
 21
814.4999999999994
 31
0.0
 12
701.5833369920011
 22
814.9999999999995
 32
0.0
 13
701.5833369920011
 23
814.9999999999995
 33
0.0
  0
SOLID
  5
EF
330
E9
100
AcDbEntity
  8
TEXT
100
AcDbTrace
 10
710.5833369920011
 20
815.4999999999994
 30
0.0
 11
710.5833369920011
 21
814.4999999999994
 31
0.0
 12
713.5833369920011
 22
814.9999999999995
 32
0.0
 13
713.5833369920011
 23
814.9999999999995
 33
0.0
  0
MTEXT
  5
F0
330
E9
100
AcDbEntity
  8
TEXT
100
AcDbMText
 10
707.5833369920011
 20
818.4999999999995
 30
0.0
 40
4.0
 41
0.0
 71
     5
 72
     1
  1
\A1;12
  7
GHS
 73
     1
 44
1.0
  0
POINT
  5
F1
330
E9
100
AcDbEntity
  8
DEFPOINTS
 62
     0
100
AcDbPoint
 10
701.5833369920011
 20
802.4999999999996
 30
0.0
  0
POINT
  5
F2
330
E9
100
AcDbEntity
  8
DEFPOINTS
 62
     0
100
AcDbPoint
 10
713.5833369920011
 20
802.9999999999997
 30
0.0
  0
POINT
  5
F3
330
E9
100
AcDbEntity
  8
DEFPOINTS
 62
     0
100
AcDbPoint
 10
713.5833369920011
 20
814.9999999999995
 30
0.0
  0
ENDBLK
  5
F4
330
E9
100
AcDbEntity
  8
0
100
AcDbBlockEnd
  0
BLOCK
  5
F9
330
F8
100
AcDbEntity
  8
0
100
AcDbBlockBegin
  2
*D6
 70
     1
 10
0.0
 20
0.0
 30
0.0
  3
*D6
  1

  0
LINE
  5
FA
330
F8
100
AcDbEntity
  8
TEXT
100
AcDbLine
 10
701.5833369920011
 20
803.4999999999996
 30
0.0
 11
701.5833369920011
 21
824.9999999999994
 31
0.0
  0
LINE
  5
FB
330
F8
100
AcDbEntity
  8
TEXT
100
AcDbLine
 10
722.5833369920011
 20
811.8999999999994
 30
0.0
 11
722.5833369920011
 21
824.9999999999994
 31
0.0
  0
LINE
  5
FC
330
F8
100
AcDbEntity
  8
TEXT
100
AcDbLine
 10
704.5833369920011
 20
823.9999999999994
 30
0.0
 11
719.5833369920011
 21
823.9999999999994
 31
0.0
  0
SOLID
  5
FD
330
F8
100
AcDbEntity
  8
TEXT
100
AcDbTrace
 10
704.5833369920011
 20
824.4999999999993
 30
0.0
 11
704.5833369920011
 21
823.4999999999994
 31
0.0
 12
701.5833369920011
 22
823.9999999999994
 32
0.0
 13
701.5833369920011
 23
823.9999999999994
 33
0.0
  0
SOLID
  5
FE
330
F8
100
AcDbEntity
  8
TEXT
100
AcDbTrace
 10
719.5833369920011
 20
824.4999999999993
 30
0.0
 11
719.5833369920011
 21
823.4999999999994
 31
0.0
 12
722.5833369920011
 22
823.9999999999994
 32
0.0
 13
722.5833369920011
 23
823.9999999999994
 33
0.0
  0
MTEXT
  5
FF
330
F8
100
AcDbEntity
  8
TEXT
100
AcDbMText
 10
712.0833369920011
 20
827.4999999999995
 30
0.0
 40
4.0
 41
0.0
 71
     5
 72
     1
  1
\A1;21
  7
GHS
 73
     1
 44
1.0
  0
POINT
  5
100
330
F8
100
AcDbEntity
  8
DEFPOINTS
 62
     0
100
AcDbPoint
 10
701.5833369920011
 20
802.4999999999996
 30
0.0
  0
POINT
  5
101
330
F8
100
AcDbEntity
  8
DEFPOINTS
 62
     0
100
AcDbPoint
 10
722.5833369920011
 20
810.8999999999994
 30
0.0
  0
POINT
  5
102
330
F8
100
AcDbEntity
  8
DEFPOINTS
 62
     0
100
AcDbPoint
 10
722.5833369920011
 20
823.9999999999994
 30
0.0
  0
ENDBLK
  5
103
330
F8
100
AcDbEntity
  8
0
100
AcDbBlockEnd
  0
BLOCK
  5
112
330
111
100
AcDbEntity
  8
0
100
AcDbBlockBegin
  2
*D7
 70
     1
 10
0.0
 20
0.0
 30
0.0
  3
*D7
  1

  0
LINE
  5
113
330
111
100
AcDbEntity
  8
TEXT
100
AcDbLine
 10
723.5833369920011
 20
794.0499999999996
 30
0.0
 11
736.0
 21
794.0499999999996
 31
0.0
  0
LINE
  5
114
330
111
100
AcDbEntity
  8
TEXT
100
AcDbLine
 10
723.5833369920011
 20
805.9499999999996
 30
0.0
 11
736.0
 21
805.9499999999996
 31
0.0
  0
LINE
  5
115
330
111
100
AcDbEntity
  8
TEXT
100
AcDbLine
 10
735.0
 20
797.0499999999995
 30
0.0
 11
735.0
 21
802.9499999999996
 31
0.0
  0
SOLID
  5
116
330
111
100
AcDbEntity
  8
TEXT
100
AcDbTrace
 10
734.4999999999999
 20
797.0499999999995
 30
0.0
 11
735.5
 21
797.0499999999995
 31
0.0
 12
735.0
 22
794.0499999999996
 32
0.0
 13
735.0
 23
794.0499999999996
 33
0.0
  0
SOLID
  5
117
330
111
100
AcDbEntity
  8
TEXT
100
AcDbTrace
 10
734.4999999999999
 20
802.9499999999996
 30
0.0
 11
735.5
 21
802.9499999999996
 31
0.0
 12
735.0
 22
805.9499999999996
 32
0.0
 13
735.0
 23
805.9499999999996
 33
0.0
  0
MTEXT
  5
118
330
111
100
AcDbEntity
  8
TEXT
100
AcDbMText
 10
731.4999999999997
 20
799.9999999999998
 30
0.0
 40
4.0
 41
0.0
 71
     5
 72
     1
  1
\A1;%%c12
  7
GHS
 11
0.0000000000000001
 21
1.0
 31
0.0
 73
     1
 44
1.0
  0
POINT
  5
119
330
111
100
AcDbEntity
  8
DEFPOINTS
 62
     0
100
AcDbPoint
 10
722.5833369920011
 20
794.0499999999996
 30
0.0
  0
POINT
  5
11A
330
111
100
AcDbEntity
  8
DEFPOINTS
 62
     0
100
AcDbPoint
 10
722.5833369920011
 20
805.9499999999996
 30
0.0
  0
POINT
  5
11B
330
111
100
AcDbEntity
  8
DEFPOINTS
 62
     0
100
AcDbPoint
 10
735.0
 20
805.9499999999996
 30
0.0
  0
ENDBLK
  5
11C
330
111
100
AcDbEntity
  8
0
100
AcDbBlockEnd
  0
BLOCK
  5
124
330
123
100
AcDbEntity
  8
0
100
AcDbBlockBegin
  2
*D8
 70
     1
 10
0.0
 20
0.0
 30
0.0
  3
*D8
  1

  0
LINE
  5
125
330
123
100
AcDbEntity
  8
TEXT
100
AcDbLine
 10
722.5833369920011
 20
793.0499999999995
 30
0.0
 11
722.5833369920011
 21
783.0
 31
0.0
  0
LINE
  5
126
330
123
100
AcDbEntity
  8
TEXT
100
AcDbLine
 10
717.4833369920009
 20
793.5499999999996
 30
0.0
 11
717.4833369920009
 21
783.0
 31
0.0
  0
LINE
  5
127
330
123
100
AcDbEntity
  8
TEXT
100
AcDbLine
 10
725.5833369920011
 20
784.0
 30
0.0
 11
728.5833369920011
 21
784.0
 31
0.0
  0
LINE
  5
128
330
123
100
AcDbEntity
  8
TEXT
100
AcDbLine
 10
714.483336992001
 20
784.0
 30
0.0
 11
704.1404798491438
 21
784.0
 31
0.0
  0
LINE
  5
129
330
123
100
AcDbEntity
  8
TEXT
100
AcDbLine
 10
722.5833369920011
 20
784.0
 30
0.0
 11
717.4833369920009
 21
784.0
 31
0.0
  0
SOLID
  5
12A
330
123
100
AcDbEntity
  8
TEXT
100
AcDbTrace
 10
725.5833369920011
 20
784.4999999999999
 30
0.0
 11
725.5833369920011
 21
783.4999999999999
 31
0.0
 12
722.5833369920011
 22
784.0
 32
0.0
 13
722.5833369920011
 23
784.0
 33
0.0
  0
SOLID
  5
12B
330
123
100
AcDbEntity
  8
TEXT
100
AcDbTrace
 10
714.483336992001
 20
784.4999999999999
 30
0.0
 11
714.483336992001
 21
783.4999999999999
 31
0.0
 12
717.4833369920009
 22
784.0
 32
0.0
 13
717.4833369920009
 23
784.0
 33
0.0
  0
MTEXT
  5
12C
330
123
100
AcDbEntity
  8
TEXT
100
AcDbMText
 10
707.8119084205724
 20
787.5
 30
0.0
 40
4.0
 41
0.0
 71
     5
 72
     1
  1
\A1;5.1
  7
GHS
 73
     1
 44
1.0
  0
POINT
  5
12D
330
123
100
AcDbEntity
  8
DEFPOINTS
 62
     0
100
AcDbPoint
 10
722.5833369920011
 20
794.0499999999996
 30
0.0
  0
POINT
  5
12E
330
123
100
AcDbEntity
  8
DEFPOINTS
 62
     0
100
AcDbPoint
 10
717.4833369920009
 20
794.5499999999996
 30
0.0
  0
POINT
  5
12F
330
123
100
AcDbEntity
  8
DEFPOINTS
 62
     0
100
AcDbPoint
 10
717.4833369920009
 20
784.0
 30
0.0
  0
ENDBLK
  5
130
330
123
100
AcDbEntity
  8
0
100
AcDbBlockEnd
  0
BLOCK
  5
135
330
134
100
AcDbEntity
  8
0
100
AcDbBlockBegin
  2
*D9
 70
     1
 10
0.0
 20
0.0
 30
0.0
  3
*D9
  1

  0
LINE
  5
136
330
134
100
AcDbEntity
  8
TEXT
100
AcDbLine
 10
743.5833369920011
 20
812.5499999999993
 30
0.0
 11
743.5833369920011
 21
824.9999999999994
 31
0.0
  0
LINE
  5
137
330
134
100
AcDbEntity
  8
TEXT
100
AcDbLine
 10
784.283336992001
 20
811.9999999999993
 30
0.0
 11
784.283336992001
 21
824.9999999999994
 31
0.0
  0
LINE
  5
138
330
134
100
AcDbEntity
  8
TEXT
100
AcDbLine
 10
747.5833369920011
 20
823.9999999999994
 30
0.0
 11
780.283336992001
 21
823.9999999999994
 31
0.0
  0
SOLID
  5
139
330
134
100
AcDbEntity
  8
TEXT
100
AcDbTrace
 10
747.5833369920011
 20
824.666666666666
 30
0.0
 11
747.5833369920011
 21
823.3333333333328
 31
0.0
 12
743.5833369920011
 22
823.9999999999994
 32
0.0
 13
743.5833369920011
 23
823.9999999999994
 33
0.0
  0
SOLID
  5
13A
330
134
100
AcDbEntity
  8
TEXT
100
AcDbTrace
 10
780.283336992001
 20
824.666666666666
 30
0.0
 11
780.283336992001
 21
823.3333333333328
 31
0.0
 12
784.283336992001
 22
823.9999999999994
 32
0.0
 13
784.283336992001
 23
823.9999999999994
 33
0.0
  0
MTEXT
  5
13B
330
134
100
AcDbEntity
  8
TEXT
100
AcDbMText
 10
763.9333369920011
 20
827.9999999999994
 30
0.0
 40
5.0
 41
0.0
 71
     5
 72
     1
  1
\A1;40.7
  7
GHS
 73
     1
 44
1.0
  0
POINT
  5
13C
330
134
100
AcDbEntity
  8
DEFPOINTS
 62
     0
100
AcDbPoint
 10
743.5833369920011
 20
811.5499999999993
 30
0.0
  0
POINT
  5
13D
330
134
100
AcDbEntity
  8
DEFPOINTS
 62
     0
100
AcDbPoint
 10
784.283336992001
 20
810.9999999999994
 30
0.0
  0
POINT
  5
13E
330
134
100
AcDbEntity
  8
DEFPOINTS
 62
     0
100
AcDbPoint
 10
784.283336992001
 20
823.9999999999994
 30
0.0
  0
ENDBLK
  5
13F
330
134
100
AcDbEntity
  8
0
100
AcDbBlockEnd
  0
BLOCK
  5
193
330
192
100
AcDbEntity
  8
0
100
AcDbBlockBegin
  2
*D10
 70
     1
 10
0.0
 20
0.0
 30
0.0
  3
*D10
  1

  0
LINE
  5
194
330
192
100
AcDbEntity
  8
TEXT
100
AcDbLine
 10
610.8999999999999
 20
793.0
 30
0.0
 11
600.2433212916801
 21
793.0000000000001
 31
0.0
  0
LINE
  5
195
330
192
100
AcDbEntity
  8
TEXT
100
AcDbLine
 10
643.5
 20
776.5455173280955
 30
0.0
 11
650.8783393541598
 21
763.7658586912059
 31
0.0
  0
ARC
  5
196
330
192
100
AcDbEntity
  8
TEXT
100
AcDbCircle
 10
633.9999999999998
 20
793.0000000000001
 30
0.0
 40
32.75667870831977
100
AcDbArc
 50
185.2492338826151
 51
294.7507661173848
  0
SOLID
  5
197
330
192
100
AcDbEntity
  8
TEXT
100
AcDbTrace
 10
600.8812223628608
 20
789.9802509432491
 30
0.0
 11
601.8801733503919
 21
790.0260431315646
 31
0.0
 12
601.2433212916801
 22
793.0000000000001
 32
0.0
 13
601.2433212916801
 23
793.0000000000001
 33
0.0
  0
SOLID
  5
198
330
192
100
AcDbEntity
  8
TEXT
100
AcDbTrace
 10
647.4843911269795
 20
763.6964357220695
 30
0.0
 11
647.9442094223689
 21
762.8084226955743
 31
0.0
 12
650.3783393541596
 22
764.6318840949903
 32
0.0
 13
650.3783393541596
 23
764.6318840949903
 33
0.0
  0
MTEXT
  5
199
330
192
100
AcDbEntity
  8
TEXT
100
AcDbMText
 10
619.3716606458399
 20
767.6629730082359
 30
0.0
 40
4.0
 41
0.0
 71
     5
 72
     1
  1
\A1;3-120°
  7
GHS
 11
0.866025403784438
 21
-0.500000000000001
 31
0.0
 73
     1
 44
1.0
  0
POINT
  5
19A
330
192
100
AcDbEntity
  8
DEFPOINTS
 62
     0
100
AcDbPoint
 10
608.9069283004578
 20
771.9444127918093
 30
0.0
  0
POINT
  5
19B
330
192
100
AcDbEntity
  8
DEFPOINTS
 62
     0
100
AcDbPoint
 10
611.8999999999998
 20
793.0000000000001
 30
0.0
  0
POINT
  5
19C
330
192
100
AcDbEntity
  8
DEFPOINTS
 62
     0
100
AcDbPoint
 10
640.5
 20
781.7416697508022
 30
0.0
  0
POINT
  5
19D
330
192
100
AcDbEntity
  8
DEFPOINTS
 62
     0
100
AcDbPoint
 10
643.0
 20
777.41154273188
 30
0.0
  0
POINT
  5
19E
330
192
100
AcDbEntity
  8
DEFPOINTS
 62
     0
100
AcDbPoint
 10
656.0999999999999
 20
793.0000000000001
 30
0.0
  0
ENDBLK
  5
19F
330
192
100
AcDbEntity
  8
0
100
AcDbBlockEnd
  0
BLOCK
  5
1A4
330
1A3
100
AcDbEntity
  8
0
100
AcDbBlockBegin
  2
*D11
 70
     1
 10
0.0
 20
0.0
 30
0.0
  3
*D11
  1

  0
LINE
  5
1A5
330
1A3
100
AcDbEntity
  8
TEXT
100
AcDbLine
 10
642.4999999999999
 20
800.0
 30
0.0
 11
667.9999999999995
 21
800.0
 31
0.0
  0
LINE
  5
1A6
330
1A3
100
AcDbEntity
  8
TEXT
100
AcDbLine
 10
657.1
 20
793.0
 30
0.0
 11
667.9999999999995
 21
793.0
 31
0.0
  0
LINE
  5
1A7
330
1A3
100
AcDbEntity
  8
TEXT
100
AcDbLine
 10
666.9999999999995
 20
804.0
 30
0.0
 11
666.9999999999995
 21
808.0
 31
0.0
  0
LINE
  5
1A8
330
1A3
100
AcDbEntity
  8
TEXT
100
AcDbLine
 10
666.9999999999995
 20
789.0
 30
0.0
 11
666.9999999999995
 21
785.0
 31
0.0
  0
LINE
  5
1A9
330
1A3
100
AcDbEntity
  8
TEXT
100
AcDbLine
 10
666.9999999999995
 20
800.0
 30
0.0
 11
666.9999999999995
 21
793.0
 31
0.0
  0
SOLID
  5
1AA
330
1A3
100
AcDbEntity
  8
TEXT
100
AcDbTrace
 10
666.3333333333329
 20
804.0
 30
0.0
 11
667.6666666666662
 21
804.0
 31
0.0
 12
666.9999999999995
 22
800.0
 32
0.0
 13
666.9999999999995
 23
800.0
 33
0.0
  0
SOLID
  5
1AB
330
1A3
100
AcDbEntity
  8
TEXT
100
AcDbTrace
 10
666.3333333333329
 20
789.0
 30
0.0
 11
667.6666666666662
 21
789.0
 31
0.0
 12
666.9999999999995
 22
793.0
 32
0.0
 13
666.9999999999995
 23
793.0
 33
0.0
  0
MTEXT
  5
1AC
330
1A3
100
AcDbEntity
  8
TEXT
100
AcDbMText
 10
662.9999999999993
 20
796.5000000000001
 30
0.0
 40
5.0
 41
0.0
 71
     5
 72
     1
  1
\A1;7
  7
GHS
 11
0.0000000000000001
 21
1.0
 31
0.0
 73
     1
 44
1.0
  0
POINT
  5
1AD
330
1A3
100
AcDbEntity
  8
DEFPOINTS
 62
     0
100
AcDbPoint
 10
641.5
 20
800.0
 30
0.0
  0
POINT
  5
1AE
330
1A3
100
AcDbEntity
  8
DEFPOINTS
 62
     0
100
AcDbPoint
 10
656.0999999999999
 20
793.0
 30
0.0
  0
POINT
  5
1AF
330
1A3
100
AcDbEntity
  8
DEFPOINTS
 62
     0
100
AcDbPoint
 10
666.9999999999995
 20
793.0
 30
0.0
  0
ENDBLK
  5
1B0
330
1A3
100
AcDbEntity
  8
0
100
AcDbBlockEnd
  0
BLOCK
  5
203
330
202
100
AcDbEntity
  8
0
100
AcDbBlockBegin
  2
*D12
 70
     1
 10
0.0
 20
0.0
 30
0.0
  3
*D12
  1

  0
LINE
  5
204
330
202
100
AcDbEntity
  8
TEXT
100
AcDbLine
 10
785.283336992001
 20
774.9999999999994
 30
0.0
 11
817.0000000000001
 21
774.9999999999994
 31
0.0
  0
LINE
  5
205
330
202
100
AcDbEntity
  8
TEXT
100
AcDbLine
 10
785.283336992001
 20
810.9999999999994
 30
0.0
 11
817.0000000000001
 21
810.9999999999994
 31
0.0
  0
LINE
  5
206
330
202
100
AcDbEntity
  8
TEXT
100
AcDbLine
 10
816.0000000000001
 20
778.9999999999994
 30
0.0
 11
816.0000000000001
 21
806.9999999999994
 31
0.0
  0
SOLID
  5
207
330
202
100
AcDbEntity
  8
TEXT
100
AcDbTrace
 10
815.3333333333335
 20
778.9999999999994
 30
0.0
 11
816.6666666666667
 21
778.9999999999994
 31
0.0
 12
816.0000000000001
 22
774.9999999999994
 32
0.0
 13
816.0000000000001
 23
774.9999999999994
 33
0.0
  0
SOLID
  5
208
330
202
100
AcDbEntity
  8
TEXT
100
AcDbTrace
 10
815.3333333333335
 20
806.9999999999994
 30
0.0
 11
816.6666666666667
 21
806.9999999999994
 31
0.0
 12
816.0000000000001
 22
810.9999999999994
 32
0.0
 13
816.0000000000001
 23
810.9999999999994
 33
0.0
  0
MTEXT
  5
209
330
202
100
AcDbEntity
  8
TEXT
100
AcDbMText
 10
812.0
 20
793.0
 30
0.0
 40
5.0
 41
0.0
 71
     5
 72
     1
  1
\A1;%%C36
  7
GHS
 11
0.0000000000000001
 21
1.0
 31
0.0
 73
     1
 44
1.0
  0
POINT
  5
20A
330
202
100
AcDbEntity
  8
DEFPOINTS
 62
     0
100
AcDbPoint
 10
784.283336992001
 20
774.9999999999994
 30
0.0
  0
POINT
  5
20B
330
202
100
AcDbEntity
  8
DEFPOINTS
 62
     0
100
AcDbPoint
 10
784.283336992001
 20
810.9999999999994
 30
0.0
  0
POINT
  5
20C
330
202
100
AcDbEntity
  8
DEFPOINTS
 62
     0
100
AcDbPoint
 10
816.0000000000001
 20
810.9999999999994
 30
0.0
  0
ENDBLK
  5
20D
330
202
100
AcDbEntity
  8
0
100
AcDbBlockEnd
  0
ENDSEC
  0
SECTION
  2
ENTITIES
  0
LINE
  5
86
330
2
100
AcDbEntity
  8
TEXT
100
AcDbLine
 10
663.0
 20
761.0
 30
0.0
 11
723.0
 21
761.0
 31
0.0
  0
LINE
  5
87
330
2
100
AcDbEntity
  8
TEXT
100
AcDbLine
 10
663.0
 20
753.0
 30
0.0
 11
723.0
 21
753.0
 31
0.0
  0
LINE
  5
88
330
2
100
AcDbEntity
  8
TEXT
100
AcDbLine
 10
663.0
 20
745.0
 30
0.0
 11
723.0
 21
745.0
 31
0.0
  0
LINE
  5
89
330
2
100
AcDbEntity
  8
TEXT
100
AcDbLine
 10
663.0
 20
761.0
 30
0.0
 11
663.0
 21
729.0
 31
0.0
  0
LINE
  5
8A
330
2
100
AcDbEntity
  8
TEXT
100
AcDbLine
 10
702.0
 20
761.0
 30
0.0
 11
702.0
 21
729.0
 31
0.0
  0
LINE
  5
8B
330
2
100
AcDbEntity
  8
TEXT
100
AcDbLine
 10
723.0
 20
761.0
 30
0.0
 11
723.0
 21
729.0
 31
0.0
  0
LINE
  5
8C
330
2
100
AcDbEntity
  8
CL
100
AcDbLine
 10
791.2833369920011
 20
792.9999999999994
 30
0.0
 11
720.90855187976
 21
792.9999999999994
 31
0.0
  0
DIMENSION
  5
91
330
2
100
AcDbEntity
  8
TEXT
100
AcDbDimension
  2
*D1
 10
826.0000000000001
 20
811.5499999999993
 30
0.0
 11
826.0
 21
793.0
 31
0.0
 70
   128
  1
%%C37
 71
     5
 42
37.10000000000003
  3
Standard
100
AcDbAlignedDimension
 13
743.5833369920011
 23
774.4499999999995
 33
0.0
 14
743.5833369920011
 24
811.5499999999995
 34
0.0
 50
90.0
100
AcDbRotatedDimension
  0
LINE
  5
9F
330
2
100
AcDbEntity
  8
CL
100
AcDbLine
 10
724.9975327504124
 20
799.9999999999996
 30
0.0
 11
698.5833369920011
 21
799.9999999999996
 31
0.0
  0
TEXT
  5
A0
330
2
100
AcDbEntity
  8
TEXT
100
AcDbText
 10
691.5339346844671
 20
804.4488974359207
 30
0.0
 40
2.0
  1
-0.1
 50
90.0
 41
0.6
  7
GHS
100
AcDbText
  0
TEXT
  5
A1
330
2
100
AcDbEntity
  8
TEXT
100
AcDbText
 10
688.5373197747911
 20
804.7324382606126
 30
0.0
 40
2.0
  1
 0
 50
90.0
 41
0.6
  7
GHS
100
AcDbText
  0
LINE
  5
A2
330
2
100
AcDbEntity
  8
0
100
AcDbLine
 10
743.5833369920011
 20
811.5499999999993
 30
0.0
 11
723.0833369920011
 21
811.3999999999993
 31
0.0
  0
LINE
  5
A3
330
2
100
AcDbEntity
  8
0
100
AcDbLine
 10
743.5833369920011
 20
774.4499999999995
 30
0.0
 11
723.0833369920011
 21
774.5999999999995
 31
0.0
  0
ARC
  5
A4
330
2
100
AcDbEntity
  8
0
100
AcDbCircle
 10
723.0833369920011
 20
775.0999999999995
 30
0.0
 40
0.5
100
AcDbArc
 50
180.0
 51
270.0
  0
ARC
  5
A5
330
2
100
AcDbEntity
  8
0
100
AcDbCircle
 10
723.0833369920011
 20
810.8999999999994
 30
0.0
 40
0.5
100
AcDbArc
 50
90.0
 51
180.0
  0
LINE
  5
A6
330
2
100
AcDbEntity
  8
0
100
AcDbLine
 10
717.983336992001
 20
794.0499999999996
 30
0.0
 11
717.983336992001
 21
805.9499999999996
 31
0.0
  0
LINE
  5
A7
330
2
100
AcDbEntity
  8
0
100
AcDbLine
 10
717.4833369920009
 20
805.4499999999997
 30
0.0
 11
717.4833369920009
 21
794.5499999999996
 31
0.0
  0
LINE
  5
A8
102
{ACAD_REACTORS
330
122
102
}
330
2
100
AcDbEntity
  8
0
100
AcDbLine
 10
717.4833369920009
 20
794.5499999999996
 30
0.0
 11
717.983336992001
 21
794.0499999999996
 31
0.0
  0
LINE
  5
A9
330
2
100
AcDbEntity
  8
0
100
AcDbLine
 10
717.4833369920009
 20
805.4499999999997
 30
0.0
 11
717.983336992001
 21
805.9499999999996
 31
0.0
  0
LINE
  5
AA
102
{ACAD_REACTORS
330
110
102
}
330
2
100
AcDbEntity
  8
0
100
AcDbLine
 10
722.5833369920011
 20
805.9499999999996
 30
0.0
 11
717.983336992001
 21
805.9499999999996
 31
0.0
  0
LINE
  5
AB
102
{ACAD_REACTORS
330
110
330
122
102
}
330
2
100
AcDbEntity
  8
0
100
AcDbLine
 10
722.5833369920011
 20
794.0499999999996
 30
0.0
 11
717.983336992001
 21
794.0499999999996
 31
0.0
  0
LINE
  5
AC
330
2
100
AcDbEntity
  8
0
100
AcDbLine
 10
717.4833369920009
 20
796.9999999999997
 30
0.0
 11
702.0833369920011
 21
796.9999999999997
 31
0.0
  0
LINE
  5
AD
330
2
100
AcDbEntity
  8
0
100
AcDbLine
 10
717.4833369920009
 20
802.9999999999997
 30
0.0
 11
713.5833369920011
 21
802.9999999999997
 31
0.0
  0
LINE
  5
AE
330
2
100
AcDbEntity
  8
0
100
AcDbLine
 10
701.5833369920011
 20
797.4999999999996
 30
0.0
 11
702.0833369920011
 21
796.9999999999997
 31
0.0
  0
LINE
  5
AF
102
{ACAD_REACTORS
330
C8
330
E8
102
}
330
2
100
AcDbEntity
  8
0
100
AcDbLine
 10
713.5833369920011
 20
802.9999999999997
 30
0.0
 11
713.5833369920011
 21
802.4999999999996
 31
0.0
  0
LINE
  5
B0
330
2
100
AcDbEntity
  8
0
100
AcDbLine
 10
713.5833369920011
 20
802.4999999999996
 30
0.0
 11
701.5833369920011
 21
802.4999999999996
 31
0.0
  0
LINE
  5
B1
102
{ACAD_REACTORS
330
B7
330
E8
330
F7
102
}
330
2
100
AcDbEntity
  8
0
100
AcDbLine
 10
701.5833369920011
 20
802.4999999999996
 30
0.0
 11
701.5833369920011
 21
797.4999999999996
 31
0.0
  0
LINE
  5
B2
102
{ACAD_REACTORS
330
B7
330
C8
102
}
330
2
100
AcDbEntity
  8
0
100
AcDbLine
 10
702.0833369920011
 20
802.4999999999996
 30
0.0
 11
702.0833369920011
 21
796.9999999999997
 31
0.0
  0
LINE
  5
B3
102
{ACAD_REACTORS
330
D9
330
F7
102
}
330
2
100
AcDbEntity
  8
0
100
AcDbLine
 10
722.5833369920011
 20
810.8999999999994
 30
0.0
 11
722.5833369920011
 21
775.0999999999995
 31
0.0
  0
LINE
  5
B4
102
{ACAD_REACTORS
330
D9
330
133
102
}
330
2
100
AcDbEntity
  8
0
100
AcDbLine
 10
743.5833369920011
 20
811.5499999999993
 30
0.0
 11
743.5833369920011
 21
774.4499999999995
 31
0.0
  0
DIMENSION
  5
B5
102
{ACAD_XDICTIONARY
360
B6
102
}
102
{ACAD_REACTORS
330
B7
102
}
330
2
100
AcDbEntity
  8
TEXT
100
AcDbDimension
  2
*D2
 10
692.9999999999997
 20
802.4999999999996
 30
0.0
 11
692.9999999999995
 21
799.7499999999997
 31
0.0
 70
   128
 71
     5
 42
5.5
  3
Standard
100
AcDbAlignedDimension
 13
702.0833369920011
 23
796.9999999999997
 33
0.0
 14
701.5833369920011
 24
802.4999999999996
 34
0.0
 50
90.0
100
AcDbRotatedDimension
1001
ACAD
1000
DSTYLE
1002
{
1070
    41
1040
3.0
1070
    42
1040
1.0
1070
    44
1040
1.0
1070
    73
1070
     0
1070
    74
1070
     0
1070
    77
1070
     1
1070
    78
1070
     8
1070
    79
1070
     2
1070
   140
1040
4.0
1070
   147
1040
1.5
1070
   172
1070
     1
1070
   179
1070
     3
1070
   271
1070
     3
1070
   272
1070
     3
1070
   284
1070
     8
1070
   285
1070
     8
1070
   286
1070
     8
1070
   340
1005
37
1002
}
  0
DIMENSION
  5
C6
102
{ACAD_XDICTIONARY
360
C7
102
}
102
{ACAD_REACTORS
330
C8
102
}
330
2
100
AcDbEntity
  8
TEXT
100
AcDbDimension
  2
*D3
 10
683.9999999999998
 20
802.9999999999997
 30
0.0
 11
683.9999999999995
 21
799.9999999999998
 31
0.0
 70
   128
  1
%%C6
 71
     5
 42
6.0
  3
Standard
100
AcDbAlignedDimension
 13
702.0833369920011
 23
796.9999999999997
 33
0.0
 14
713.5833369920011
 24
802.9999999999997
 34
0.0
 50
90.0
100
AcDbRotatedDimension
1001
ACAD
1000
DSTYLE
1002
{
1070
    41
1040
3.0
1070
    42
1040
1.0
1070
    44
1040
1.0
1070
    73
1070
     0
1070
    74
1070
     0
1070
    77
1070
     1
1070
    78
1070
     8
1070
    79
1070
     2
1070
   140
1040
4.0
1070
   147
1040
1.5
1070
   172
1070
     1
1070
   179
1070
     3
1070
   271
1070
     3
1070
   272
1070
     3
1070
   284
1070
     8
1070
   285
1070
     8
1070
   286
1070
     8
1070
   340
1005
37
1002
}
  0
DIMENSION
  5
D7
102
{ACAD_XDICTIONARY
360
D8
102
}
102
{ACAD_REACTORS
330
D9
102
}
330
2
100
AcDbEntity
  8
TEXT
100
AcDbDimension
  2
*D4
 10
743.5833369920011
 20
823.9999999999994
 30
0.0
 11
733.0833369920011
 21
827.4999999999995
 31
0.0
  1
L
 71
     5
 42
21.0
  3
Standard
100
AcDbAlignedDimension
 13
722.5833369920011
 23
810.8999999999994
 33
0.0
 14
743.5833369920011
 24
811.5499999999993
 34
0.0
100
AcDbRotatedDimension
1001
ACAD
1000
DSTYLE
1002
{
1070
    41
1040
3.0
1070
    42
1040
1.0
1070
    44
1040
1.0
1070
    73
1070
     0
1070
    74
1070
     0
1070
    77
1070
     1
1070
    78
1070
     8
1070
    79
1070
     2
1070
   140
1040
4.0
1070
   147
1040
1.5
1070
   172
1070
     1
1070
   179
1070
     3
1070
   271
1070
     3
1070
   272
1070
     3
1070
   284
1070
     8
1070
   285
1070
     8
1070
   286
1070
     8
1070
   340
1005
37
1002
}
  0
DIMENSION
  5
E6
102
{ACAD_XDICTIONARY
360
E7
102
}
102
{ACAD_REACTORS
330
E8
102
}
330
2
100
AcDbEntity
  8
TEXT
100
AcDbDimension
  2
*D5
 10
713.5833369920011
 20
814.9999999999995
 30
0.0
 11
707.5833369920011
 21
818.4999999999995
 31
0.0
 71
     5
 42
12.0
  3
Standard
100
AcDbAlignedDimension
 13
701.5833369920011
 23
802.4999999999996
 33
0.0
 14
713.5833369920011
 24
802.9999999999997
 34
0.0
100
AcDbRotatedDimension
1001
ACAD
1000
DSTYLE
1002
{
1070
    41
1040
3.0
1070
    42
1040
1.0
1070
    44
1040
1.0
1070
    73
1070
     0
1070
    74
1070
     0
1070
    77
1070
     1
1070
    78
1070
     8
1070
    79
1070
     2
1070
   140
1040
4.0
1070
   147
1040
1.5
1070
   172
1070
     1
1070
   179
1070
     3
1070
   271
1070
     3
1070
   272
1070
     3
1070
   284
1070
     8
1070
   285
1070
     8
1070
   286
1070
     8
1070
   340
1005
37
1002
}
  0
DIMENSION
  5
F5
102
{ACAD_XDICTIONARY
360
F6
102
}
102
{ACAD_REACTORS
330
F7
102
}
330
2
100
AcDbEntity
  8
TEXT
100
AcDbDimension
  2
*D6
 10
722.5833369920011
 20
823.9999999999994
 30
0.0
 11
712.0833369920011
 21
827.4999999999995
 31
0.0
 71
     5
 42
21.0
  3
Standard
100
AcDbAlignedDimension
 13
701.5833369920011
 23
802.4999999999996
 33
0.0
 14
722.5833369920011
 24
810.8999999999994
 34
0.0
100
AcDbRotatedDimension
1001
ACAD
1000
DSTYLE
1002
{
1070
    41
1040
3.0
1070
    42
1040
1.0
1070
    44
1040
1.0
1070
    73
1070
     0
1070
    74
1070
     0
1070
    77
1070
     1
1070
    78
1070
     8
1070
    79
1070
     2
1070
   140
1040
4.0
1070
   147
1040
1.5
1070
   172
1070
     1
1070
   179
1070
     3
1070
   271
1070
     3
1070
   272
1070
     3
1070
   284
1070
     8
1070
   285
1070
     8
1070
   286
1070
     8
1070
   340
1005
37
1002
}
  0
TEXT
  5
104
330
2
100
AcDbEntity
  8
TEXT
100
AcDbText
 10
677.0857142857143
 20
755.0
 30
0.0
 40
4.0
  1
RATIO
 41
0.6
  7
GHS
 72
     1
 11
682.0
 21
755.0
 31
0.0
100
AcDbText
  0
TEXT
  5
105
330
2
100
AcDbEntity
  8
TEXT
100
AcDbText
 10
710.8571428571429
 20
755.0
 30
0.0
 40
4.0
  1
L
 41
0.6
  7
GHS
 72
     1
 11
712.0
 21
755.0
 31
0.0
100
AcDbText
  0
LINE
  5
106
330
2
100
AcDbEntity
  8
TEXT
100
AcDbLine
 10
663.0
 20
737.0
 30
0.0
 11
723.0
 21
737.0
 31
0.0
  0
LINE
  5
107
330
2
100
AcDbEntity
  8
TEXT
100
AcDbLine
 10
663.0
 20
729.0
 30
0.0
 11
723.0
 21
729.0
 31
0.0
  0
TEXT
  5
108
330
2
100
AcDbEntity
  8
TEXT
100
AcDbText
 10
665.0
 20
747.0
 30
0.0
 40
4.0
  1
1/002 ~ 1/030
 41
0.6
  7
GHS
100
AcDbText
  0
TEXT
  5
109
330
2
100
AcDbEntity
  8
TEXT
100
AcDbText
 10
665.0
 20
739.0
 30
0.0
 40
4.0
  1
1/040 ~ 1/210
 41
0.6
  7
GHS
100
AcDbText
  0
TEXT
  5
10A
330
2
100
AcDbEntity
  8
TEXT
100
AcDbText
 10
665.0
 20
731.0
 30
0.0
 40
4.0
  1
1/240 ~ 1/2430
 41
0.6
  7
GHS
100
AcDbText
  0
TEXT
  5
10B
330
2
100
AcDbEntity
  8
TEXT
100
AcDbText
 10
710.0
 20
747.0
 30
0.0
 40
4.0
  1
21
 41
0.6
  7
GHS
100
AcDbText
  0
TEXT
  5
10C
330
2
100
AcDbEntity
  8
TEXT
100
AcDbText
 10
710.0
 20
739.0
 30
0.0
 40
4.0
  1
29
 41
0.6
  7
GHS
100
AcDbText
  0
TEXT
  5
10D
330
2
100
AcDbEntity
  8
TEXT
100
AcDbText
 10
710.0
 20
731.0
 30
0.0
 40
4.0
  1
33.7
 41
0.6
  7
GHS
100
AcDbText
  0
DIMENSION
  5
10E
102
{ACAD_XDICTIONARY
360
10F
102
}
102
{ACAD_REACTORS
330
110
102
}
330
2
100
AcDbEntity
  8
TEXT
100
AcDbDimension
  2
*D7
 10
735.0
 20
805.9499999999996
 30
0.0
 11
731.4999999999997
 21
799.9999999999998
 31
0.0
  1
%%c12
 71
     5
 42
11.90000000000009
  3
Standard
100
AcDbAlignedDimension
 13
722.5833369920011
 23
794.0499999999996
 33
0.0
 14
722.5833369920011
 24
805.9499999999996
 34
0.0
 50
90.0
100
AcDbRotatedDimension
1001
ACAD
1000
DSTYLE
1002
{
1070
    41
1040
3.0
1070
    42
1040
1.0
1070
    44
1040
1.0
1070
    73
1070
     0
1070
    74
1070
     0
1070
    77
1070
     1
1070
    78
1070
     8
1070
    79
1070
     2
1070
   140
1040
4.0
1070
   147
1040
1.5
1070
   172
1070
     1
1070
   179
1070
     3
1070
   271
1070
     3
1070
   272
1070
     3
1070
   284
1070
     8
1070
   285
1070
     8
1070
   286
1070
     8
1070
   340
1005
37
1002
}
  0
TEXT
  5
11D
330
2
100
AcDbEntity
  8
TEXT
100
AcDbText
 10
715.0
 20
826.0
 30
0.0
 40
3.0
  1
%%P0.5
 41
0.6
  7
GHS
100
AcDbText
  0
TEXT
  5
11E
330
2
100
AcDbEntity
  8
TEXT
100
AcDbText
 10
675.0857142857142
 20
764.0
 30
0.0
 40
4.0
  1
GEARHEAD LENGTH
 41
0.6
  7
GHS
 72
     1
 11
692.0
 21
764.0
 31
0.0
100
AcDbText
  0
LINE
  5
11F
330
2
100
AcDbEntity
  8
TEXT
100
AcDbLine
 10
674.0
 20
763.0
 30
0.0
 11
710.0
 21
763.0
 31
0.0
  0
DIMENSION
  5
120
102
{ACAD_XDICTIONARY
360
121
102
}
102
{ACAD_REACTORS
330
122
102
}
330
2
100
AcDbEntity
  8
TEXT
100
AcDbDimension
  2
*D8
 10
717.4833369920009
 20
784.0
 30
0.0
 11
707.8119084205724
 21
787.5
 31
0.0
 71
     5
 42
5.100000000000136
  3
Standard
100
AcDbAlignedDimension
 13
722.5833369920011
 23
794.0499999999996
 33
0.0
 14
717.4833369920009
 24
794.5499999999996
 34
0.0
100
AcDbRotatedDimension
1001
ACAD
1000
DSTYLE
1002
{
1070
    41
1040
3.0
1070
    42
1040
1.0
1070
    44
1040
1.0
1070
    73
1070
     0
1070
    74
1070
     0
1070
    77
1070
     1
1070
    78
1070
     8
1070
    79
1070
     2
1070
   140
1040
4.0
1070
   141
1040
0.5
1070
   147
1040
1.5
1070
   172
1070
     1
1070
   179
1070
     3
1070
   271
1070
     3
1070
   272
1070
     3
1070
   284
1070
     8
1070
   285
1070
     8
1070
   286
1070
     8
1070
   340
1005
37
1002
}
  0
DIMENSION
  5
131
102
{ACAD_XDICTIONARY
360
132
102
}
102
{ACAD_REACTORS
330
133
102
}
330
2
100
AcDbEntity
  8
TEXT
100
AcDbDimension
  2
*D9
 10
784.283336992001
 20
823.9999999999994
 30
0.0
 11
763.9333369920011
 21
827.9999999999994
 31
0.0
 71
     5
 42
40.69999999999993
  3
Standard
100
AcDbAlignedDimension
 13
743.5833369920011
 23
811.5499999999993
 33
0.0
 14
784.283336992001
 24
810.9999999999994
 34
0.0
100
AcDbRotatedDimension
  0
CIRCLE
  5
140
330
2
100
AcDbEntity
  8
0
100
AcDbCircle
 10
633.9999999999995
 20
792.9999999999994
 30
0.0
 40
18.4
  0
CIRCLE
  5
141
330
2
100
AcDbEntity
  8
CL
100
AcDbCircle
 10
634.0
 20
793.0
 30
0.0
 40
15.5
  0
ARC
  5
142
330
2
100
AcDbEntity
  8
0
100
AcDbCircle
 10
634.0
 20
793.0
 30
0.0
 40
12.0
100
AcDbArc
 50
138.1896851042204
 51
41.81031489577958
  0
LINE
  5
143
102
{ACAD_REACTORS
330
191
330
1A2
102
}
330
2
100
AcDbEntity
  8
CL
100
AcDbLine
 10
611.8999999999998
 20
793.0
 30
0.0
 11
656.0999999999999
 21
793.0
 31
0.0
  0
CIRCLE
  5
144
330
2
100
AcDbEntity
  8
0
100
AcDbCircle
 10
647.4233937586587
 20
800.75
 30
0.0
 40
1.8
  0
LINE
  5
145
330
2
100
AcDbEntity
  8
0
100
AcDbLine
 10
647.9890791836079
 20
801.5985281374238
 30
0.0
 11
647.6355257930147
 21
801.2449747468306
 31
0.0
  0
LINE
  5
146
330
2
100
AcDbEntity
  8
0
100
AcDbLine
 10
647.9183685054894
 20
800.5378679656439
 30
0.0
 11
648.2719218960826
 21
800.1843145750505
 31
0.0
  0
LINE
  5
147
330
2
100
AcDbEntity
  8
0
100
AcDbLine
 10
648.2719218960824
 20
801.3156854249491
 30
0.0
 11
647.9183685054894
 21
800.9621320343558
 31
0.0
  0
LINE
  5
148
330
2
100
AcDbEntity
  8
0
100
AcDbLine
 10
647.6355257930147
 20
800.2550252531694
 30
0.0
 11
647.9890791836079
 21
799.901471862576
 31
0.0
  0
LINE
  5
149
330
2
100
AcDbEntity
  8
0
100
AcDbLine
 10
647.9890791836079
 20
801.5985281374238
 30
0.0
 11
648.2719218960824
 21
801.3156854249491
 31
0.0
  0
LINE
  5
14A
330
2
100
AcDbEntity
  8
0
100
AcDbLine
 10
648.2719218960826
 20
800.1843145750505
 30
0.0
 11
647.9890791836079
 21
799.901471862576
 31
0.0
  0
LINE
  5
14B
330
2
100
AcDbEntity
  8
0
100
AcDbLine
 10
646.9284190118282
 20
800.5378679656439
 30
0.0
 11
646.5748656212347
 21
800.1843145750505
 31
0.0
  0
LINE
  5
14C
330
2
100
AcDbEntity
  8
0
100
AcDbLine
 10
647.2112617243027
 20
800.2550252531694
 30
0.0
 11
646.8577083337095
 21
799.901471862576
 31
0.0
  0
LINE
  5
14D
330
2
100
AcDbEntity
  8
0
100
AcDbLine
 10
646.5748656212347
 20
801.3156854249491
 30
0.0
 11
646.9284190118282
 21
800.9621320343558
 31
0.0
  0
LINE
  5
14E
330
2
100
AcDbEntity
  8
0
100
AcDbLine
 10
646.8577083337095
 20
801.5985281374238
 30
0.0
 11
647.2112617243027
 21
801.2449747468306
 31
0.0
  0
ARC
  5
14F
330
2
100
AcDbEntity
  8
0
100
AcDbCircle
 10
646.7162869774722
 20
800.75
 30
0.0
 40
0.3
100
AcDbArc
 50
315.0000000000001
 51
44.99999999999993
  0
ARC
  5
150
330
2
100
AcDbEntity
  8
0
100
AcDbCircle
 10
647.4233937586587
 20
801.4571067811864
 30
0.0
 40
0.3
100
AcDbArc
 50
225.0
 51
315.0000000000001
  0
ARC
  5
151
330
2
100
AcDbEntity
  8
0
100
AcDbCircle
 10
648.1305005398453
 20
800.75
 30
0.0
 40
0.3
100
AcDbArc
 50
135.0
 51
225.0
  0
ARC
  5
152
330
2
100
AcDbEntity
  8
0
100
AcDbCircle
 10
647.4233937586587
 20
800.0428932188134
 30
0.0
 40
0.3
100
AcDbArc
 50
44.99999999999993
 51
135.0
  0
LINE
  5
153
330
2
100
AcDbEntity
  8
0
100
AcDbLine
 10
646.8577083337095
 20
801.5985281374238
 30
0.0
 11
646.5748656212347
 21
801.3156854249491
 31
0.0
  0
LINE
  5
154
330
2
100
AcDbEntity
  8
0
100
AcDbLine
 10
646.5748656212347
 20
800.1843145750505
 30
0.0
 11
646.8577083337095
 21
799.901471862576
 31
0.0
  0
CIRCLE
  5
155
330
2
100
AcDbEntity
  8
0
100
AcDbCircle
 10
647.4233937586587
 20
800.75
 30
0.0
 40
2.0
  0
LINE
  5
156
330
2
100
AcDbEntity
  8
CL
100
AcDbLine
 10
633.9999999999995
 20
770.8999999999998
 30
0.0
 11
633.9999999999995
 21
815.0999999999999
 31
0.0
  0
LINE
  5
157
330
2
100
AcDbEntity
  8
CL
100
AcDbLine
 10
634.0
 20
815.0999999999999
 30
0.0
 11
634.0
 21
770.8999999999998
 31
0.0
  0
CIRCLE
  5
158
330
2
100
AcDbEntity
  8
0
100
AcDbCircle
 10
634.0
 20
800.0
 30
0.0
 40
5.5
  0
CIRCLE
  5
159
330
2
100
AcDbEntity
  8
0
100
AcDbCircle
 10
620.576606241341
 20
800.75
 30
0.0
 40
1.8
  0
CIRCLE
  5
15A
330
2
100
AcDbEntity
  8
0
100
AcDbCircle
 10
620.576606241341
 20
800.75
 30
0.0
 40
2.0
  0
CIRCLE
  5
15B
330
2
100
AcDbEntity
  8
0
100
AcDbCircle
 10
618.5
 20
793.0
 30
0.0
 40
1.199999999999999
  0
CIRCLE
  5
15C
330
2
100
AcDbEntity
  8
0
100
AcDbCircle
 10
618.5
 20
793.0
 30
0.0
 40
1.7
  0
LINE
  5
15D
330
2
100
AcDbEntity
  8
0
100
AcDbLine
 10
620.0816314945105
 20
800.5378679656439
 30
0.0
 11
619.7280781039171
 21
800.1843145750505
 31
0.0
  0
LINE
  5
15E
330
2
100
AcDbEntity
  8
0
100
AcDbLine
 10
620.364474206985
 20
800.2550252531694
 30
0.0
 11
620.0109208163919
 21
799.901471862576
 31
0.0
  0
LINE
  5
15F
330
2
100
AcDbEntity
  8
0
100
AcDbLine
 10
619.7280781039171
 20
801.3156854249491
 30
0.0
 11
620.0816314945105
 21
800.9621320343558
 31
0.0
  0
LINE
  5
160
330
2
100
AcDbEntity
  8
0
100
AcDbLine
 10
620.0109208163919
 20
801.5985281374238
 30
0.0
 11
620.364474206985
 21
801.2449747468306
 31
0.0
  0
LINE
  5
161
330
2
100
AcDbEntity
  8
0
100
AcDbLine
 10
621.1422916662902
 20
801.5985281374238
 30
0.0
 11
621.4251343787648
 21
801.3156854249491
 31
0.0
  0
LINE
  5
162
330
2
100
AcDbEntity
  8
0
100
AcDbLine
 10
621.4251343787648
 20
800.1843145750505
 30
0.0
 11
621.1422916662902
 21
799.901471862576
 31
0.0
  0
ARC
  5
163
330
2
100
AcDbEntity
  8
0
100
AcDbCircle
 10
619.8694994601546
 20
800.75
 30
0.0
 40
0.3
100
AcDbArc
 50
315.0000000000001
 51
44.99999999999993
  0
ARC
  5
164
330
2
100
AcDbEntity
  8
0
100
AcDbCircle
 10
620.576606241341
 20
801.4571067811864
 30
0.0
 40
0.3
100
AcDbArc
 50
225.0
 51
315.0000000000001
  0
LINE
  5
165
330
2
100
AcDbEntity
  8
0
100
AcDbLine
 10
621.1422916662902
 20
801.5985281374238
 30
0.0
 11
620.7887382756971
 21
801.2449747468306
 31
0.0
  0
ARC
  5
166
330
2
100
AcDbEntity
  8
0
100
AcDbCircle
 10
621.2837130225278
 20
800.75
 30
0.0
 40
0.3
100
AcDbArc
 50
135.0
 51
225.0
  0
LINE
  5
167
330
2
100
AcDbEntity
  8
0
100
AcDbLine
 10
621.0715809881717
 20
800.5378679656439
 30
0.0
 11
621.4251343787648
 21
800.1843145750505
 31
0.0
  0
LINE
  5
168
330
2
100
AcDbEntity
  8
0
100
AcDbLine
 10
621.4251343787648
 20
801.3156854249491
 30
0.0
 11
621.0715809881717
 21
800.9621320343558
 31
0.0
  0
ARC
  5
169
330
2
100
AcDbEntity
  8
0
100
AcDbCircle
 10
620.576606241341
 20
800.0428932188134
 30
0.0
 40
0.3
100
AcDbArc
 50
44.99999999999993
 51
135.0
  0
LINE
  5
16A
330
2
100
AcDbEntity
  8
0
100
AcDbLine
 10
620.7887382756971
 20
800.2550252531694
 30
0.0
 11
621.1422916662902
 21
799.901471862576
 31
0.0
  0
LINE
  5
16B
330
2
100
AcDbEntity
  8
0
100
AcDbLine
 10
620.0109208163919
 20
801.5985281374238
 30
0.0
 11
619.7280781039171
 21
801.3156854249491
 31
0.0
  0
LINE
  5
16C
330
2
100
AcDbEntity
  8
0
100
AcDbLine
 10
619.7280781039171
 20
800.1843145750505
 30
0.0
 11
620.0109208163919
 21
799.901471862576
 31
0.0
  0
LINE
  5
16D
330
2
100
AcDbEntity
  8
0
100
AcDbLine
 10
624.2020410288671
 20
798.0
 30
0.0
 11
625.0557280900009
 21
801.0
 31
0.0
  0
CIRCLE
  5
16E
330
2
100
AcDbEntity
  8
0
100
AcDbCircle
 10
634.0
 20
777.5
 30
0.0
 40
1.8
  0
LINE
  5
16F
330
2
100
AcDbEntity
  8
0
100
AcDbLine
 10
634.5656854249494
 20
778.3485281374237
 30
0.0
 11
634.8485281374239
 21
778.0656854249492
 31
0.0
  0
LINE
  5
170
330
2
100
AcDbEntity
  8
0
100
AcDbLine
 10
633.1514718625762
 20
776.9343145750505
 30
0.0
 11
633.4343145750509
 21
776.651471862576
 31
0.0
  0
LINE
  5
171
330
2
100
AcDbEntity
  8
0
100
AcDbLine
 10
634.8485281374239
 20
776.9343145750505
 30
0.0
 11
634.5656854249494
 21
776.651471862576
 31
0.0
  0
LINE
  5
172
330
2
100
AcDbEntity
  8
0
100
AcDbLine
 10
633.4343145750509
 20
778.3485281374237
 30
0.0
 11
633.1514718625762
 21
778.0656854249492
 31
0.0
  0
LINE
  5
173
330
2
100
AcDbEntity
  8
0
100
AcDbLine
 10
634.8485281374239
 20
778.0656854249492
 30
0.0
 11
634.4949747468306
 21
777.7121320343558
 31
0.0
  0
LINE
  5
174
330
2
100
AcDbEntity
  8
0
100
AcDbLine
 10
633.4343145750509
 20
778.3485281374237
 30
0.0
 11
633.7878679656442
 21
777.9949747468306
 31
0.0
  0
LINE
  5
175
330
2
100
AcDbEntity
  8
0
100
AcDbLine
 10
633.1514718625762
 20
778.0656854249492
 30
0.0
 11
633.5050252531694
 21
777.7121320343558
 31
0.0
  0
LINE
  5
176
330
2
100
AcDbEntity
  8
0
100
AcDbLine
 10
634.5656854249494
 20
778.3485281374237
 30
0.0
 11
634.212132034356
 21
777.9949747468306
 31
0.0
  0
LINE
  5
177
330
2
100
AcDbEntity
  8
0
100
AcDbLine
 10
633.5050252531695
 20
777.2878679656439
 30
0.0
 11
633.1514718625762
 21
776.9343145750505
 31
0.0
  0
LINE
  5
178
330
2
100
AcDbEntity
  8
0
100
AcDbLine
 10
634.212132034356
 20
777.0050252531693
 30
0.0
 11
634.5656854249494
 21
776.651471862576
 31
0.0
  0
LINE
  5
179
330
2
100
AcDbEntity
  8
0
100
AcDbLine
 10
633.7878679656442
 20
777.0050252531693
 30
0.0
 11
633.4343145750509
 21
776.651471862576
 31
0.0
  0
LINE
  5
17A
330
2
100
AcDbEntity
  8
0
100
AcDbLine
 10
634.4949747468306
 20
777.2878679656439
 30
0.0
 11
634.8485281374239
 21
776.9343145750505
 31
0.0
  0
ARC
  5
17B
330
2
100
AcDbEntity
  8
0
100
AcDbCircle
 10
634.0000000000002
 20
776.7928932188133
 30
0.0
 40
0.3
100
AcDbArc
 50
44.99999999999993
 51
135.0
  0
ARC
  5
17C
330
2
100
AcDbEntity
  8
0
100
AcDbCircle
 10
634.7071067811866
 20
777.5
 30
0.0
 40
0.3
100
AcDbArc
 50
135.0
 51
225.0
  0
ARC
  5
17D
330
2
100
AcDbEntity
  8
0
100
AcDbCircle
 10
634.0
 20
778.2071067811864
 30
0.0
 40
0.3
100
AcDbArc
 50
225.0
 51
315.0000000000001
  0
ARC
  5
17E
330
2
100
AcDbEntity
  8
0
100
AcDbCircle
 10
633.2928932188135
 20
777.5
 30
0.0
 40
0.3
100
AcDbArc
 50
315.0000000000001
 51
44.99999999999993
  0
LINE
  5
17F
330
2
100
AcDbEntity
  8
CL
100
AcDbLine
 10
640.5
 20
804.2583302491978
 30
0.0
 11
643.0
 21
808.5884572681198
 31
0.0
  0
CIRCLE
  5
180
330
2
100
AcDbEntity
  8
0
100
AcDbCircle
 10
641.75
 20
806.4233937586589
 30
0.0
 40
1.199999999999999
  0
CIRCLE
  5
181
330
2
100
AcDbEntity
  8
0
100
AcDbCircle
 10
641.75
 20
806.4233937586589
 30
0.0
 40
1.7
  0
CIRCLE
  5
182
330
2
100
AcDbEntity
  8
0
100
AcDbCircle
 10
634.0
 20
800.0
 30
0.0
 40
6.0
  0
LINE
  5
183
330
2
100
AcDbEntity
  8
0
100
AcDbLine
 10
643.7979589711326
 20
798.0
 30
0.0
 11
642.944271909999
 21
801.0
 31
0.0
  0
CIRCLE
  5
184
330
2
100
AcDbEntity
  8
0
100
AcDbCircle
 10
641.75
 20
779.576606241341
 30
0.0
 40
1.199999999999999
  0
CIRCLE
  5
185
330
2
100
AcDbEntity
  8
0
100
AcDbCircle
 10
641.75
 20
779.576606241341
 30
0.0
 40
1.7
  0
LINE
  5
186
102
{ACAD_REACTORS
330
191
102
}
330
2
100
AcDbEntity
  8
CL
100
AcDbLine
 10
640.5
 20
781.7416697508022
 30
0.0
 11
643.0
 21
777.41154273188
 31
0.0
  0
CIRCLE
  5
187
330
2
100
AcDbEntity
  8
0
100
AcDbCircle
 10
634.0
 20
777.5
 30
0.0
 40
2.0
  0
LINE
  5
188
102
{ACAD_REACTORS
330
1A2
102
}
330
2
100
AcDbEntity
  8
CL
100
AcDbLine
 10
626.5
 20
800.0
 30
0.0
 11
641.5
 21
800.0
 31
0.0
  0
CIRCLE
  5
189
330
2
100
AcDbEntity
  8
0
100
AcDbCircle
 10
633.9999999999996
 20
799.9999999999999
 30
0.0
 40
3.5
  0
ARC
  5
18A
330
2
100
AcDbEntity
  8
0
100
AcDbCircle
 10
633.9999999999996
 20
799.9999999999999
 30
0.0
 40
3.0
100
AcDbArc
 50
123.5573097619272
 51
56.44269023807281
  0
LINE
  5
18B
330
2
100
AcDbEntity
  8
0
100
AcDbLine
 10
636.4494897427826
 20
802.4999999999998
 30
0.0
 11
631.5505102572164
 21
802.4999999999998
 31
0.0
  0
ARC
  5
18C
330
2
100
AcDbEntity
  8
0
100
AcDbCircle
 10
634.0
 20
793.0
 30
0.0
 40
11.0
100
AcDbArc
 50
152.9643082105869
 51
27.03569178941301
  0
ARC
  5
18D
330
2
100
AcDbEntity
  8
0
100
AcDbCircle
 10
634.0
 20
800.0
 30
0.0
 40
9.0
100
AcDbArc
 50
173.6206297915588
 51
6.379370208441173
  0
ARC
  5
18E
330
2
100
AcDbEntity
  8
0
100
AcDbCircle
 10
634.0
 20
800.0
 30
0.0
 40
10.0
100
AcDbArc
 50
191.5369590328181
 51
348.4630409671819
  0
DIMENSION
  5
18F
102
{ACAD_XDICTIONARY
360
190
102
}
102
{ACAD_REACTORS
330
191
102
}
330
2
100
AcDbEntity
  8
TEXT
100
AcDbDimension
  2
*D10
 10
656.0999999999999
 20
793.0
 30
0.0
 11
619.3716606458399
 21
767.6629730082359
 31
0.0
 70
     2
  1
3-<>
 71
     5
 42
2.094395102393195
  3
Standard
100
AcDb2LineAngularDimension
 13
640.5
 23
781.7416697508022
 33
0.0
 14
643.0
 24
777.41154273188
 34
0.0
 15
611.8999999999998
 25
793.0
 35
0.0
 16
608.9069283004578
 26
771.9444127918093
 36
0.0
1001
ACAD
1000
DSTYLE
1002
{
1070
    41
1040
3.0
1070
    42
1040
1.0
1070
    44
1040
1.0
1070
    73
1070
     0
1070
    74
1070
     0
1070
    77
1070
     1
1070
    78
1070
     8
1070
    79
1070
     2
1070
   140
1040
4.0
1070
   147
1040
1.5
1070
   172
1070
     1
1070
   179
1070
     3
1070
   271
1070
     3
1070
   272
1070
     3
1070
   284
1070
     8
1070
   285
1070
     8
1070
   286
1070
     8
1070
   340
1005
37
1002
}
  0
DIMENSION
  5
1A0
102
{ACAD_XDICTIONARY
360
1A1
102
}
102
{ACAD_REACTORS
330
1A2
102
}
330
2
100
AcDbEntity
  8
TEXT
100
AcDbDimension
  2
*D11
 10
666.9999999999995
 20
793.0
 30
0.0
 11
662.9999999999993
 21
796.5000000000001
 31
0.0
 71
     5
 42
7.0
  3
Standard
100
AcDbAlignedDimension
 13
641.5
 23
800.0
 33
0.0
 14
656.0999999999999
 24
793.0
 34
0.0
 50
90.0
100
AcDbRotatedDimension
  0
LEADER
  5
1B1
330
2
100
AcDbEntity
  8
TEXT
100
AcDbLeader
  3
Standard
 76
     3
 10
641.9591943411144
 20
808.1104734033839
 30
0.0
 10
647.9999999999995
 20
820.9999999999993
 30
0.0
 10
667.9999999999995
 20
820.9999999999993
 30
0.0
1001
ACAD
1000
DSTYLE
1002
{
1070
    41
1040
3.0
1070
    42
1040
1.0
1070
    44
1040
1.0
1070
    73
1070
     0
1070
    74
1070
     0
1070
    77
1070
     0
1070
    78
1070
     8
1070
    79
1070
     2
1070
   140
1040
4.0
1070
   147
1040
1.5
1070
   172
1070
     1
1070
   179
1070
     3
1070
   271
1070
     3
1070
   272
1070
     3
1070
   284
1070
     8
1070
   285
1070
     8
1070
   286
1070
     8
1070
   340
1005
37
1002
}
  0
TEXT
  5
1B2
330
2
100
AcDbEntity
  8
TEXT
100
AcDbText
 10
648.9999999999995
 20
821.9999999999995
 30
0.0
 40
4.0
  1
3-M3 TAP
 41
0.6
  7
GHS
100
AcDbText
  0
TEXT
  5
1B3
330
2
100
AcDbEntity
  8
TEXT
100
AcDbText
 10
648.9999999999995
 20
815.523809523809
 30
0.0
 40
4.0
  1
DP 3
 41
0.6
  7
GHS
100
AcDbText
  0
LEADER
  5
1B4
330
2
100
AcDbEntity
  8
TEXT
100
AcDbLeader
  3
Standard
 76
     3
 10
627.2472940467369
 20
806.9517368921852
 30
0.0
 10
620.0
 20
821.0
 30
0.0
 10
601.0
 20
821.0
 30
0.0
1001
ACAD
1000
DSTYLE
1002
{
1070
    41
1040
3.0
1070
    42
1040
1.0
1070
    44
1040
1.0
1070
    73
1070
     0
1070
    74
1070
     0
1070
    77
1070
     0
1070
    78
1070
     8
1070
    79
1070
     2
1070
   140
1040
4.0
1070
   147
1040
1.5
1070
   172
1070
     1
1070
   179
1070
     3
1070
   271
1070
     3
1070
   272
1070
     3
1070
   284
1070
     8
1070
   285
1070
     8
1070
   286
1070
     8
1070
   340
1005
37
1002
}
  0
TEXT
  5
1B5
330
2
100
AcDbEntity
  8
TEXT
100
AcDbText
 10
601.9999999999996
 20
822.523809523809
 30
0.0
 40
4.0
  1
PCD %%C31
 41
0.6
  7
GHS
100
AcDbText
  0
LINE
  5
1B6
330
2
100
AcDbEntity
  8
0
100
AcDbLine
 10
746.283336992001
 20
810.9999999999994
 30
0.0
 11
784.283336992001
 21
810.9999999999994
 31
0.0
  0
LINE
  5
1B7
330
2
100
AcDbEntity
  8
0
100
AcDbLine
 10
746.283336992001
 20
774.9999999999994
 30
0.0
 11
784.283336992001
 21
774.9999999999994
 31
0.0
  0
ARC
  5
1B8
330
2
100
AcDbEntity
  8
0
100
AcDbCircle
 10
746.283336992001
 20
808.9999999999994
 30
0.0
 40
2.0
100
AcDbArc
 50
90.0
 51
180.0
  0
LINE
  5
1B9
102
{ACAD_REACTORS
330
201
102
}
330
2
100
AcDbEntity
  8
0
100
AcDbLine
 10
784.283336992001
 20
774.9999999999994
 30
0.0
 11
784.283336992001
 21
792.9999999999994
 31
0.0
  0
LINE
  5
1BA
102
{ACAD_REACTORS
330
201
102
}
330
2
100
AcDbEntity
  8
0
100
AcDbLine
 10
784.283336992001
 20
792.9999999999994
 30
0.0
 11
784.283336992001
 21
810.9999999999994
 31
0.0
  0
ARC
  5
1BB
330
2
100
AcDbEntity
  8
0
100
AcDbCircle
 10
746.283336992001
 20
776.9999999999994
 30
0.0
 40
2.0
100
AcDbArc
 50
180.0
 51
270.0
  0
LINE
  5
1BC
330
2
100
AcDbEntity
  8
0
100
AcDbLine
 10
786.2833369920011
 20
787.8999999999999
 30
0.0
 11
784.283336992001
 21
787.8999999999999
 31
0.0
  0
LINE
  5
1BD
330
2
100
AcDbEntity
  8
0
100
AcDbLine
 10
786.2833369920011
 20
798.0999999999998
 30
0.0
 11
784.283336992001
 21
798.0999999999998
 31
0.0
  0
LINE
  5
1BE
330
2
100
AcDbEntity
  8
0
100
AcDbLine
 10
787.783336992001
 20
791.4124999999998
 30
0.0
 11
786.2833369920011
 21
791.4124999999998
 31
0.0
  0
LINE
  5
1BF
330
2
100
AcDbEntity
  8
0
100
AcDbLine
 10
787.783336992001
 20
794.5874999999995
 30
0.0
 11
786.2833369920011
 21
794.5875
 31
0.0
  0
LINE
  5
1C0
330
2
100
AcDbEntity
  8
0
100
AcDbLine
 10
786.2833369920011
 20
787.8999999999995
 30
0.0
 11
786.2833369920011
 21
798.0999999999998
 31
0.0
  0
LINE
  5
1C1
330
2
100
AcDbEntity
  8
0
100
AcDbLine
 10
788.283336992001
 20
791.9124999999998
 30
0.0
 11
788.283336992001
 21
794.0874999999995
 31
0.0
  0
ARC
  5
1C2
330
2
100
AcDbEntity
  8
0
100
AcDbCircle
 10
787.783336992001
 20
791.9124999999998
 30
0.0
 40
0.5
100
AcDbArc
 50
270.0
 51
0.0
  0
ARC
  5
1C3
330
2
100
AcDbEntity
  8
0
100
AcDbCircle
 10
787.783336992001
 20
794.0874999999995
 30
0.0
 40
0.5
100
AcDbArc
 50
0.0
 51
90.0
  0
LINE
  5
1C4
330
2
100
AcDbEntity
  8
0
100
AcDbLine
 10
744.283336992001
 20
810.4999999999995
 30
0.0
 11
744.283336992001
 21
775.4999999999994
 31
0.0
  0
LINE
  5
1C5
330
2
100
AcDbEntity
  8
0
100
AcDbLine
 10
744.283336992001
 20
810.4999999999995
 30
0.0
 11
743.5833369920011
 21
810.4999999999995
 31
0.0
  0
LINE
  5
1C6
330
2
100
AcDbEntity
  8
0
100
AcDbLine
 10
744.283336992001
 20
775.4999999999994
 30
0.0
 11
743.5833369920011
 21
775.4999999999994
 31
0.0
  0
LINE
  5
1C7
330
2
100
AcDbEntity
  8
ETC
100
AcDbLine
 10
805.32072358946
 20
784.8351533348819
 30
0.0
 11
792.8350017892691
 21
786.7615613978759
 31
0.0
  0
LINE
  5
1CB
330
2
100
AcDbEntity
  8
0
100
AcDbLine
 10
799.2833369920015
 20
785.766654965855
 30
0.0
 11
799.283336992002
 21
763.2621963394882
 31
0.0
  0
LINE
  5
1CC
330
2
100
AcDbEntity
  8
0
100
AcDbLine
 10
797.9833369920004
 20
785.9672305130258
 30
0.0
 11
797.9833369920009
 21
763.2621963394882
 31
0.0
  0
LINE
  5
1CD
330
2
100
AcDbEntity
  8
0
100
AcDbLine
 10
803.2833369920023
 20
785.1494994360995
 30
0.0
 11
803.283336992002
 21
763.2621963394882
 31
0.0
  0
HATCH
  5
1CE
330
2
100
AcDbEntity
  8
TEXT
100
AcDbHatch
 10
0.0
 20
0.0
 30
0.0
210
0.0
220
0.0
230
1.0
  2
ANSI31
 70
     0
 71
     0
 91
        1
 92
        7
 72
     0
 73
     1
 93
        4
 10
802.9333369919998
 20
763.262196339488
 10
802.333336992002
 20
763.2621963394882
 10
802.333336992002
 20
753.2621963394882
 10
802.9333369920024
 20
753.2621963394878
 97
        0
 75
     0
 76
     1
 52
-90.00000000000001
 41
7.0
 77
     0
 78
     1
 53
315.0
 43
-6312.41668912688
 44
1771.529017972594
 45
0.6187184335382292
 46
0.6187184335382289
 79
     0
 47
0.0132446552512336
 98
        1
 10
802.6363639121184
 20
758.3944301817616
1001
ACAD
1010
0.0
1020
0.0
1030
0.0
  0
LINE
  5
1CF
330
2
100
AcDbEntity
  8
0
100
AcDbLine
 10
802.333336992002
 20
763.262196339488
 30
0.0
 11
802.3333369920031
 21
753.2621963394882
 31
0.0
  0
LINE
  5
1D0
330
2
100
AcDbEntity
  8
0
100
AcDbLine
 10
802.9333369920006
 20
763.262196339488
 30
0.0
 11
802.9333369920015
 21
753.2621963394882
 31
0.0
  0
LINE
  5
1D1
330
2
100
AcDbEntity
  8
0
100
AcDbLine
 10
801.9833369920004
 20
785.3500749832702
 30
0.0
 11
801.9833369920009
 21
763.2621963394882
 31
0.0
  0
LINE
  5
1D2
330
2
100
AcDbEntity
  8
0
100
AcDbLine
 10
800.683336992002
 20
785.5506505304407
 30
0.0
 11
800.6833369920016
 21
763.2621963394882
 31
0.0
  0
LINE
  5
1D3
330
2
100
AcDbEntity
  8
0
100
AcDbLine
 10
795.2833369920011
 20
763.2621963394882
 30
0.0
 11
803.2833369920028
 21
763.2621963394882
 31
0.0
  0
LINE
  5
1D4
330
2
100
AcDbEntity
  8
0
100
AcDbLine
 10
802.3333369920031
 20
753.2621963394882
 30
0.0
 11
802.9333369920006
 21
753.2621963394882
 31
0.0
  0
LINE
  5
1D5
330
2
100
AcDbEntity
  8
0
100
AcDbLine
 10
796.5833369920012
 20
786.1832349484399
 30
0.0
 11
796.5833369920012
 21
763.2621963394882
 31
0.0
  0
LINE
  5
1D6
330
2
100
AcDbEntity
  8
0
100
AcDbLine
 10
795.2833369920024
 20
786.3838104956104
 30
0.0
 11
795.2833369920011
 21
763.2621963394882
 31
0.0
  0
HATCH
  5
1D7
330
2
100
AcDbEntity
  8
TEXT
100
AcDbHatch
 10
0.0
 20
0.0
 30
0.0
210
0.0
220
0.0
230
1.0
  2
ANSI31
 70
     0
 71
     0
 91
        1
 92
        7
 72
     0
 73
     1
 93
        4
 10
801.6333369920014
 20
753.262196339488
 10
801.6333369920005
 20
763.262196339488
 10
801.0333369920001
 20
763.262196339488
 10
801.0333369920029
 20
753.2621963394882
 97
        0
 75
     0
 76
     1
 52
-90.00000000000001
 41
7.0
 77
     0
 78
     1
 53
315.0
 43
-6313.716689126882
 44
1771.529017972594
 45
0.6187184335382292
 46
0.6187184335382289
 79
     0
 47
0.0132446552512336
 98
        1
 10
801.3363639121173
 20
758.3944301817616
1001
ACAD
1010
0.0
1020
0.0
1030
0.0
  0
LINE
  5
1D8
330
2
100
AcDbEntity
  8
0
100
AcDbLine
 10
801.033336992001
 20
763.262196339488
 30
0.0
 11
801.0333369920019
 21
753.2621963394882
 31
0.0
  0
LINE
  5
1D9
330
2
100
AcDbEntity
  8
0
100
AcDbLine
 10
801.6333369919996
 20
763.262196339488
 30
0.0
 11
801.6333369920005
 21
753.2621963394882
 31
0.0
  0
LINE
  5
1DA
330
2
100
AcDbEntity
  8
0
100
AcDbLine
 10
801.0333369920019
 20
753.2621963394882
 30
0.0
 11
801.6333369919996
 21
753.2621963394882
 31
0.0
  0
HATCH
  5
1DB
330
2
100
AcDbEntity
  8
TEXT
100
AcDbHatch
 10
0.0
 20
0.0
 30
0.0
210
0.0
220
0.0
230
1.0
  2
ANSI31
 70
     0
 71
     0
 91
        1
 92
        7
 72
     0
 73
     1
 93
        4
 10
800.3333369920021
 20
753.262196339488
 10
800.3333369920012
 20
763.262196339488
 10
799.7333369920008
 20
763.262196339488
 10
799.7333369920036
 20
753.2621963394882
 97
        0
 75
     0
 76
     1
 52
-90.00000000000001
 41
7.0
 77
     0
 78
     1
 53
315.0
 43
-6315.016689126881
 44
1771.529017972594
 45
0.6187184335382292
 46
0.6187184335382289
 79
     0
 47
0.0132446552512336
 98
        1
 10
800.036363912118
 20
758.3944301817616
1001
ACAD
1010
0.0
1020
0.0
1030
0.0
  0
LINE
  5
1DC
330
2
100
AcDbEntity
  8
0
100
AcDbLine
 10
799.7333369920018
 20
763.262196339488
 30
0.0
 11
799.7333369920027
 21
753.2621963394882
 31
0.0
  0
LINE
  5
1DD
330
2
100
AcDbEntity
  8
0
100
AcDbLine
 10
800.3333369920003
 20
763.262196339488
 30
0.0
 11
800.3333369920012
 21
753.2621963394882
 31
0.0
  0
LINE
  5
1DE
330
2
100
AcDbEntity
  8
0
100
AcDbLine
 10
799.7333369920027
 20
753.2621963394882
 30
0.0
 11
800.3333369920003
 21
753.2621963394882
 31
0.0
  0
HATCH
  5
1DF
330
2
100
AcDbEntity
  8
TEXT
100
AcDbHatch
 10
0.0
 20
0.0
 30
0.0
210
0.0
220
0.0
230
1.0
  2
ANSI31
 70
     0
 71
     0
 91
        1
 92
        7
 72
     0
 73
     1
 93
        4
 10
798.9333369920025
 20
753.262196339488
 10
798.9333369920016
 20
763.262196339488
 10
798.3333369920012
 20
763.262196339488
 10
798.333336992004
 20
753.2621963394882
 97
        0
 75
     0
 76
     1
 52
-90.00000000000001
 41
7.0
 77
     0
 78
     1
 53
315.0
 43
-6316.416689126881
 44
1771.529017972594
 45
0.6187184335382292
 46
0.6187184335382289
 79
     0
 47
0.0132446552512336
 98
        1
 10
798.6363639121184
 20
758.3944301817616
1001
ACAD
1010
0.0
1020
0.0
1030
0.0
  0
LINE
  5
1E0
330
2
100
AcDbEntity
  8
0
100
AcDbLine
 10
798.3333369920021
 20
763.262196339488
 30
0.0
 11
798.333336992003
 21
753.2621963394882
 31
0.0
  0
LINE
  5
1E1
330
2
100
AcDbEntity
  8
0
100
AcDbLine
 10
798.9333369920006
 20
763.262196339488
 30
0.0
 11
798.9333369920016
 21
753.2621963394882
 31
0.0
  0
LINE
  5
1E2
330
2
100
AcDbEntity
  8
0
100
AcDbLine
 10
798.333336992003
 20
753.2621963394882
 30
0.0
 11
798.9333369920006
 21
753.2621963394882
 31
0.0
  0
HATCH
  5
1E3
330
2
100
AcDbEntity
  8
TEXT
100
AcDbHatch
 10
0.0
 20
0.0
 30
0.0
210
0.0
220
0.0
230
1.0
  2
ANSI31
 70
     0
 71
     0
 91
        1
 92
        7
 72
     0
 73
     1
 93
        4
 10
797.6333369920014
 20
753.262196339488
 10
797.6333369920005
 20
763.262196339488
 10
797.0333369920001
 20
763.262196339488
 10
797.0333369920028
 20
753.2621963394882
 97
        0
 75
     0
 76
     1
 52
-90.00000000000001
 41
7.0
 77
     0
 78
     1
 53
315.0
 43
-6317.716689126882
 44
1771.529017972594
 45
0.6187184335382292
 46
0.6187184335382289
 79
     0
 47
0.0132446552512336
 98
        1
 10
797.3363639121173
 20
758.3944301817616
1001
ACAD
1010
0.0
1020
0.0
1030
0.0
  0
LINE
  5
1E4
330
2
100
AcDbEntity
  8
0
100
AcDbLine
 10
797.0333369920011
 20
763.262196339488
 30
0.0
 11
797.033336992002
 21
753.2621963394882
 31
0.0
  0
LINE
  5
1E5
330
2
100
AcDbEntity
  8
0
100
AcDbLine
 10
797.6333369919996
 20
763.262196339488
 30
0.0
 11
797.6333369920005
 21
753.2621963394882
 31
0.0
  0
LINE
  5
1E6
330
2
100
AcDbEntity
  8
0
100
AcDbLine
 10
797.033336992002
 20
753.2621963394882
 30
0.0
 11
797.6333369919996
 21
753.2621963394882
 31
0.0
  0
HATCH
  5
1E7
330
2
100
AcDbEntity
  8
TEXT
100
AcDbHatch
 10
0.0
 20
0.0
 30
0.0
210
0.0
220
0.0
230
1.0
  2
ANSI31
 70
     0
 71
     0
 91
        1
 92
        7
 72
     0
 73
     1
 93
        4
 10
796.2333369920018
 20
753.262196339488
 10
796.2333369920009
 20
763.262196339488
 10
795.6333369920005
 20
763.262196339488
 10
795.6333369920032
 20
753.2621963394882
 97
        0
 75
     0
 76
     1
 52
-90.00000000000001
 41
7.0
 77
     0
 78
     1
 53
315.0
 43
-6319.116689126881
 44
1771.529017972594
 45
0.6187184335382292
 46
0.6187184335382289
 79
     0
 47
0.0132446552512336
 98
        1
 10
795.9363639121177
 20
758.3944301817616
1001
ACAD
1010
0.0
1020
0.0
1030
0.0
  0
LINE
  5
1E8
330
2
100
AcDbEntity
  8
0
100
AcDbLine
 10
795.6333369920014
 20
763.262196339488
 30
0.0
 11
795.6333369920023
 21
753.2621963394882
 31
0.0
  0
LINE
  5
1E9
330
2
100
AcDbEntity
  8
0
100
AcDbLine
 10
796.2333369919999
 20
763.262196339488
 30
0.0
 11
796.2333369920009
 21
753.2621963394882
 31
0.0
  0
LINE
  5
1EA
330
2
100
AcDbEntity
  8
0
100
AcDbLine
 10
795.6333369920023
 20
753.2621963394882
 30
0.0
 11
796.2333369919999
 21
753.2621963394882
 31
0.0
  0
LINE
  5
1EB
330
2
100
AcDbEntity
  8
0
100
AcDbLine
 10
785.283336992001
 20
806.2000000000001
 30
0.0
 11
785.283336992001
 21
803.3000000000001
 31
0.0
  0
LINE
  5
1EC
330
2
100
AcDbEntity
  8
0
100
AcDbLine
 10
799.2833369920011
 20
799.2000000000004
 30
0.0
 11
799.2833369920011
 21
787.7666549658552
 31
0.0
  0
LINE
  5
1ED
330
2
100
AcDbEntity
  8
0
100
AcDbLine
 10
800.5833369920011
 20
799.2000000000004
 30
0.0
 11
800.5833369920022
 21
787.5660794186845
 31
0.0
  0
ARC
  5
1EE
330
2
100
AcDbEntity
  8
0
100
AcDbCircle
 10
796.4833369920017
 20
799.2000000000004
 30
0.0
 40
5.5
100
AcDbArc
 50
0.0
 51
90.00000000000003
  0
ARC
  5
1EF
330
2
100
AcDbEntity
  8
0
100
AcDbCircle
 10
793.783336992001
 20
799.2000000000004
 30
0.0
 40
6.799999999999999
100
AcDbArc
 50
0.0
 51
50.65511274697714
  0
LINE
  5
1F0
330
2
100
AcDbEntity
  8
0
100
AcDbLine
 10
796.4833369920017
 20
805.9999999999998
 30
0.0
 11
785.2833369920001
 21
805.9999999999998
 31
0.0
  0
LINE
  5
1F1
330
2
100
AcDbEntity
  8
0
100
AcDbLine
 10
796.4833369920017
 20
804.7000000000002
 30
0.0
 11
785.2833369920001
 21
804.7000000000002
 31
0.0
  0
LINE
  5
1F2
330
2
100
AcDbEntity
  8
0
100
AcDbLine
 10
795.2833369920011
 20
799.2000000000004
 30
0.0
 11
795.2833369920011
 21
788.3838104956106
 31
0.0
  0
ARC
  5
1F3
330
2
100
AcDbEntity
  8
0
100
AcDbCircle
 10
789.783336992001
 20
799.2000000000004
 30
0.0
 40
5.5
100
AcDbArc
 50
0.0
 51
90.00000000000003
  0
ARC
  5
1F4
330
2
100
AcDbEntity
  8
0
100
AcDbCircle
 10
789.783336992001
 20
799.2000000000004
 30
0.0
 40
6.799999999999999
100
AcDbArc
 50
0.0
 51
53.98114580735321
  0
LINE
  5
1F5
330
2
100
AcDbEntity
  8
0
100
AcDbLine
 10
796.5833369920021
 20
799.2000000000004
 30
0.0
 11
796.583336992002
 21
788.1832349484398
 31
0.0
  0
LINE
  5
1F6
330
2
100
AcDbEntity
  8
0
100
AcDbLine
 10
797.8833369920014
 20
799.2000000000004
 30
0.0
 11
797.8833369920014
 21
787.9826594012695
 31
0.0
  0
ARC
  5
1F7
330
2
100
AcDbEntity
  8
0
100
AcDbCircle
 10
791.0833369920021
 20
799.2000000000004
 30
0.0
 40
6.799999999999999
100
AcDbArc
 50
0.0
 51
53.98114580735321
  0
LINE
  5
1F8
330
2
100
AcDbEntity
  8
0
100
AcDbLine
 10
801.9833369920018
 20
799.2000000000004
 30
0.0
 11
801.9833369920018
 21
787.3500749832701
 31
0.0
  0
LINE
  5
1F9
330
2
100
AcDbEntity
  8
0
100
AcDbLine
 10
803.283336992002
 20
799.1999999999999
 30
0.0
 11
803.2833369920018
 21
787.1494994360996
 31
0.0
  0
ARC
  5
1FA
330
2
100
AcDbEntity
  8
0
100
AcDbCircle
 10
796.4833369920017
 20
799.2000000000004
 30
0.0
 40
6.799999999999999
100
AcDbArc
 50
0.0
 51
90.00000000000003
  0
ARC
  5
1FB
330
2
100
AcDbEntity
  8
0
100
AcDbCircle
 10
792.4833369920017
 20
799.2000000000004
 30
0.0
 40
6.799999999999999
100
AcDbArc
 50
0.0
 51
53.98114580735321
  0
LINE
  5
1FC
330
2
100
AcDbEntity
  8
0
100
AcDbLine
 10
785.283336992001
 20
806.2000000000001
 30
0.0
 11
784.283336992001
 21
806.2000000000001
 31
0.0
  0
LINE
  5
1FD
330
2
100
AcDbEntity
  8
0
100
AcDbLine
 10
785.283336992001
 20
803.3000000000001
 30
0.0
 11
784.283336992001
 21
803.3000000000001
 31
0.0
  0
LINE
  5
1FE
330
2
100
AcDbEntity
  8
ETC
100
AcDbLine
 10
805.32072358946
 20
786.8351533348819
 30
0.0
 11
792.8350017892691
 21
788.7615613978758
 31
0.0
  0
DIMENSION
  5
1FF
102
{ACAD_XDICTIONARY
360
200
102
}
102
{ACAD_REACTORS
330
201
102
}
330
2
100
AcDbEntity
  8
TEXT
100
AcDbDimension
  2
*D12
 10
816.0000000000001
 20
810.9999999999994
 30
0.0
 11
816.0
 21
793.0
 31
0.0
 70
   128
  1
%%C<>
 71
     5
 42
36.0
  3
Standard
100
AcDbAlignedDimension
 13
784.283336992001
 23
774.9999999999994
 33
0.0
 14
784.283336992001
 24
810.9999999999994
 34
0.0
 50
90.0
100
AcDbRotatedDimension
  0
ENDSEC
  0
SECTION
  2
OBJECTS
  0
DICTIONARY
  5
C
330
0
100
AcDbDictionary
281
     1
  3
ACAD_2007HEADERVARS_RT
350
25F
  3
ACAD_COLOR
350
59
  3
ACAD_GROUP
350
46
  3
ACAD_LAYOUT
350
19
  3
ACAD_MATERIAL
350
E
  3
ACAD_MLEADERSTYLE
350
240
  3
ACAD_MLINESTYLE
350
47
  3
ACAD_PLOTSETTINGS
350
48
  3
ACAD_PLOTSTYLENAME
350
B
  3
ACAD_SCALELIST
350
5A
  3
ACAD_TABLESTYLE
350
5B
  3
ACAD_VISUALSTYLE
350
32
  3
ACDB_RECOMPOSE_DATA
350
212
  3
AcDbVariableDictionary
350
229
  0
DICTIONARY
  5
33
330
2F
100
AcDbDictionary
280
     1
281
     1
  0
DICTIONARY
  5
22
330
21
100
AcDbDictionary
280
     1
281
     1
  3
ACAD_LAYERFILTERS
360
23
  3
ACAD_LAYERSTATES
360
24
  3
ACLYDICTIONARY
360
25
  0
DICTIONARY
  5
8
330
7
100
AcDbDictionary
280
     1
281
     1
  3
ADSK_XREC_LAYER_RECONCILED
360
9
  0
DICTIONARY
  5
8E
330
8D
100
AcDbDictionary
280
     1
281
     1
  3
ADSK_XREC_LAYER_RECONCILED
360
8F
  0
DICTIONARY
  5
5D
330
5C
100
AcDbDictionary
280
     1
281
     1
  3
ADSK_XREC_LAYER_RECONCILED
360
5E
  0
DICTIONARY
  5
3
330
2
100
AcDbDictionary
280
     1
281
     1
  3
ACAD_LAYOUTSELFREF
360
4
  3
ACAD_SORTENTS
360
20E
  0
DICTIONARY
  5
1C
330
1B
100
AcDbDictionary
280
     1
281
     1
  3
ACAD_LAYOUTSELFREF
360
1D
  0
DICTIONARY
  5
B6
330
B5
100
AcDbDictionary
280
     1
281
     1
  3
ACAD_DIMASSOC
360
B7
  0
DICTIONARY
  5
C7
330
C6
100
AcDbDictionary
280
     1
281
     1
  3
ACAD_DIMASSOC
360
C8
  0
DICTIONARY
  5
D8
330
D7
100
AcDbDictionary
280
     1
281
     1
  3
ACAD_DIMASSOC
360
D9
  0
DICTIONARY
  5
E7
330
E6
100
AcDbDictionary
280
     1
281
     1
  3
ACAD_DIMASSOC
360
E8
  0
DICTIONARY
  5
F6
330
F5
100
AcDbDictionary
280
     1
281
     1
  3
ACAD_DIMASSOC
360
F7
  0
DICTIONARY
  5
10F
330
10E
100
AcDbDictionary
280
     1
281
     1
  3
ACAD_DIMASSOC
360
110
  0
DICTIONARY
  5
121
330
120
100
AcDbDictionary
280
     1
281
     1
  3
ACAD_DIMASSOC
360
122
  0
DICTIONARY
  5
132
330
131
100
AcDbDictionary
280
     1
281
     1
  3
ACAD_DIMASSOC
360
133
  0
DICTIONARY
  5
190
330
18F
100
AcDbDictionary
280
     1
281
     1
  3
ACAD_DIMASSOC
360
191
  0
DICTIONARY
  5
1A1
330
1A0
100
AcDbDictionary
280
     1
281
     1
  3
ACAD_DIMASSOC
360
1A2
  0
DICTIONARY
  5
200
330
1FF
100
AcDbDictionary
280
     1
281
     1
  3
ACAD_DIMASSOC
360
201
  0
DICTIONARY
  5
25F
102
{ACAD_REACTORS
330
C
102
}
330
C
100
AcDbDictionary
281
     1
  3
DIMLTEX1
350
261
  3
DIMLTEX2
350
262
  3
DIMLTYPE
350
260
  0
DICTIONARY
  5
59
102
{ACAD_REACTORS
330
C
102
}
330
C
100
AcDbDictionary
281
     1
  0
DICTIONARY
  5
46
102
{ACAD_REACTORS
330
C
102
}
330
C
100
AcDbDictionary
281
     1
  0
DICTIONARY
  5
19
102
{ACAD_REACTORS
330
C
102
}
330
C
100
AcDbDictionary
281
     1
  3
Layout1
350
20
  3
Model
350
18
  0
DICTIONARY
  5
E
102
{ACAD_REACTORS
330
C
102
}
330
C
100
AcDbDictionary
281
     1
  3
ByBlock
350
51
  3
ByLayer
350
49
  3
Global
350
D
  0
DICTIONARY
  5
240
102
{ACAD_REACTORS
330
C
102
}
330
C
100
AcDbDictionary
281
     1
  3
Standard
350
241
  0
DICTIONARY
  5
47
102
{ACAD_REACTORS
330
C
102
}
330
C
100
AcDbDictionary
281
     1
  3
Standard
350
5F
  0
DICTIONARY
  5
48
102
{ACAD_REACTORS
330
C
102
}
330
C
100
AcDbDictionary
281
     1
  0
ACDBDICTIONARYWDFLT
  5
B
102
{ACAD_REACTORS
330
C
102
}
330
C
100
AcDbDictionary
281
     1
  3
Normal
350
A
100
AcDbDictionaryWithDefault
340
A
  0
DICTIONARY
  5
5A
102
{ACAD_REACTORS
330
C
102
}
330
C
100
AcDbDictionary
281
     1
  3
*A1
350
64
  3
A0
350
65
  3
A1
350
66
  3
A2
350
67
  3
A3
350
68
  3
A4
350
69
  3
A5
350
6A
  3
A6
350
6B
  3
A7
350
6C
  3
A8
350
6D
  3
A9
350
6E
  3
B0
350
6F
  3
B1
350
70
  3
B2
350
71
  3
B3
350
72
  3
B4
350
73
  3
B5
350
74
  3
B6
350
75
  3
B7
350
76
  3
B8
350
77
  3
B9
350
78
  3
C0
350
79
  3
C1
350
7A
  3
C2
350
7B
  3
C3
350
7C
  3
C4
350
7D
  3
C5
350
7E
  3
C6
350
7F
  3
C7
350
80
  3
C8
350
81
  3
C9
350
82
  3
D0
350
83
  3
D1
350
84
  3
D2
350
85
  0
DICTIONARY
  5
5B
102
{ACAD_REACTORS
330
C
102
}
330
C
100
AcDbDictionary
281
     1
  3
Standard
350
60
  0
DICTIONARY
  5
32
102
{ACAD_REACTORS
330
C
102
}
330
C
100
AcDbDictionary
281
     1
  3
2dWireframe
350
31
  3
3D Hidden
350
238
  3
3dWireframe
350
63
  3
Basic
350
237
  3
Brighten
350
23B
  3
ColorChange
350
23F
  3
Conceptual
350
239
  3
Dim
350
23A
  3
Facepattern
350
23E
  3
Flat
350
233
  3
FlatWithEdges
350
234
  3
Gouraud
350
235
  3
GouraudWithEdges
350
236
  3
Linepattern
350
23D
  3
Realistic
350
62
  3
Thicken
350
23C
  0
XRECORD
  5
212
102
{ACAD_REACTORS
330
C
102
}
330
C
100
AcDbXrecord
280
     1
 90
        1
330
60
  0
DICTIONARY
  5
229
102
{ACAD_REACTORS
330
C
102
}
330
C
100
AcDbDictionary
281
     1
  3
CANNOSCALE
350
22D
  3
CMLEADERSTYLE
350
22B
  3
CTABLESTYLE
350
22A
  3
DIMASSOC
350
231
  3
HIDETEXT
350
230
  3
INDEXCTL
350
22F
  3
MSLTSCALE
350
22C
  3
SORTENTS
350
22E
  0
DICTIONARY
  5
23
102
{ACAD_REACTORS
330
22
102
}
330
22
100
AcDbDictionary
281
     1
  0
DICTIONARY
  5
24
102
{ACAD_REACTORS
330
22
102
}
330
22
100
AcDbDictionary
281
     1
  0
DICTIONARY
  5
25
102
{ACAD_REACTORS
330
22
102
}
330
22
100
AcDbDictionary
281
     1
1001
ACAD
1000
<All
  0
XRECORD
  5
9
102
{ACAD_REACTORS
330
8
102
}
330
8
100
AcDbXrecord
280
     1
290
     1
  0
XRECORD
  5
8F
102
{ACAD_REACTORS
330
8E
102
}
330
8E
100
AcDbXrecord
280
     1
290
     1
  0
XRECORD
  5
5E
102
{ACAD_REACTORS
330
5D
102
}
330
5D
100
AcDbXrecord
280
     1
290
     1
  0
XRECORD
  5
4
102
{ACAD_REACTORS
330
3
102
}
330
3
100
AcDbXrecord
280
     1
340
2
  0
SORTENTSTABLE
  5
20E
102
{ACAD_REACTORS
330
3
102
}
330
3
100
AcDbSortentsTable
330
2
  0
XRECORD
  5
1D
102
{ACAD_REACTORS
330
1C
102
}
330
1C
100
AcDbXrecord
280
     1
340
1B
  0
DIMASSOC
  5
B7
102
{ACAD_REACTORS
330
B6
102
}
330
B6
100
AcDbDimAssoc
330
B5
 90
        3
 70
     0
 71
     0
  1
AcDbOsnapPointRef
 72
     1
331
B2
 73
     2
 91
        0
 40
1.0
 10
0.0
 20
0.0
 30
2.000000000000000E+50
 75
     0
  1
AcDbOsnapPointRef
 72
    13
331
B1
 73
     2
 91
        0
 40
0.0
 10
0.0
 20
0.0
 30
2.000000000000000E+50
 75
     0
  0
DIMASSOC
  5
C8
102
{ACAD_REACTORS
330
C7
102
}
330
C7
100
AcDbDimAssoc
330
C6
 90
        3
 70
     0
 71
     0
  1
AcDbOsnapPointRef
 72
     1
331
B2
 73
     2
 91
        0
 40
1.0
 10
0.0
 20
0.0
 30
2.000000000000000E+50
 75
     0
  1
AcDbOsnapPointRef
 72
    13
331
AF
 73
     2
 91
        0
 40
0.0
 10
0.0
 20
0.0
 30
2.000000000000000E+50
 75
     0
  0
DIMASSOC
  5
D9
102
{ACAD_REACTORS
330
D8
102
}
330
D8
100
AcDbDimAssoc
330
D7
 90
        3
 70
     0
 71
     0
  1
AcDbOsnapPointRef
 72
    13
331
B3
 73
     2
 91
        0
 40
0.0
 10
0.0
 20
0.0
 30
2.000000000000000E+50
 75
     0
  1
AcDbOsnapPointRef
 72
    13
331
B4
 73
     2
 91
        0
 40
0.0
 10
0.0
 20
0.0
 30
2.000000000000000E+50
 75
     0
  0
DIMASSOC
  5
E8
102
{ACAD_REACTORS
330
E7
102
}
330
E7
100
AcDbDimAssoc
330
E6
 90
        3
 70
     0
 71
     0
  1
AcDbOsnapPointRef
 72
    13
331
B1
 73
     2
 91
        0
 40
0.0
 10
0.0
 20
0.0
 30
2.000000000000000E+50
 75
     0
  1
AcDbOsnapPointRef
 72
    13
331
AF
 73
     2
 91
        0
 40
0.0
 10
0.0
 20
0.0
 30
2.000000000000000E+50
 75
     0
  0
DIMASSOC
  5
F7
102
{ACAD_REACTORS
330
F6
102
}
330
F6
100
AcDbDimAssoc
330
F5
 90
        3
 70
     0
 71
     0
  1
AcDbOsnapPointRef
 72
    13
331
B1
 73
     2
 91
        0
 40
0.0
 10
0.0
 20
0.0
 30
2.000000000000000E+50
 75
     0
  1
AcDbOsnapPointRef
 72
    13
331
B3
 73
     2
 91
        0
 40
0.0
 10
0.0
 20
0.0
 30
2.000000000000000E+50
 75
     0
  0
DIMASSOC
  5
110
102
{ACAD_REACTORS
330
10F
102
}
330
10F
100
AcDbDimAssoc
330
10E
 90
        3
 70
     0
 71
     0
  1
AcDbOsnapPointRef
 72
    13
331
AB
 73
     2
 91
        0
 40
0.0
 10
0.0
 20
0.0
 30
2.000000000000000E+50
 75
     0
  1
AcDbOsnapPointRef
 72
    13
331
AA
 73
     2
 91
        0
 40
0.0
 10
0.0
 20
0.0
 30
2.000000000000000E+50
 75
     0
  0
DIMASSOC
  5
122
102
{ACAD_REACTORS
330
121
102
}
330
121
100
AcDbDimAssoc
330
120
 90
        3
 70
     0
 71
     0
  1
AcDbOsnapPointRef
 72
    13
331
AB
 73
     2
 91
        0
 40
0.0
 10
0.0
 20
0.0
 30
2.000000000000000E+50
 75
     0
  1
AcDbOsnapPointRef
 72
    13
331
A8
 73
     2
 91
        0
 40
0.0
 10
0.0
 20
0.0
 30
2.000000000000000E+50
 75
     0
  0
DIMASSOC
  5
133
102
{ACAD_REACTORS
330
132
102
}
330
132
100
AcDbDimAssoc
330
131
 90
        1
 70
     0
 71
     0
  1
AcDbOsnapPointRef
 72
    13
331
B4
 73
     2
 91
        0
 40
0.0
 10
0.0
 20
0.0
 30
2.000000000000000E+50
 75
     0
  0
DIMASSOC
  5
191
102
{ACAD_REACTORS
330
190
102
}
330
190
100
AcDbDimAssoc
330
18F
 90
       15
 70
     0
 71
     0
  1
AcDbOsnapPointRef
 72
    13
331
186
 73
     2
 91
        0
 40
0.0
 10
0.0
 20
0.0
 30
2.000000000000000E+50
 75
     0
  1
AcDbOsnapPointRef
 72
     1
331
186
 73
     2
 91
        0
 40
1.0
 10
0.0
 20
0.0
 30
2.000000000000000E+50
 75
     0
  1
AcDbOsnapPointRef
 72
    13
331
143
 73
     2
 91
        0
 40
0.0
 10
0.0
 20
0.0
 30
2.000000000000000E+50
 75
     0
  1
AcDbOsnapPointRef
 72
     1
331
143
 73
     2
 91
        0
 40
1.0
 10
0.0
 20
0.0
 30
2.000000000000000E+50
 75
     0
  0
DIMASSOC
  5
1A2
102
{ACAD_REACTORS
330
1A1
102
}
330
1A1
100
AcDbDimAssoc
330
1A0
 90
        3
 70
     0
 71
     0
  1
AcDbOsnapPointRef
 72
     1
331
188
 73
     2
 91
        0
 40
1.0
 10
0.0
 20
0.0
 30
2.000000000000000E+50
 75
     0
  1
AcDbOsnapPointRef
 72
     1
331
143
 73
     2
 91
        0
 40
1.0
 10
0.0
 20
0.0
 30
2.000000000000000E+50
 75
     0
  0
DIMASSOC
  5
201
102
{ACAD_REACTORS
330
200
102
}
330
200
100
AcDbDimAssoc
330
1FF
 90
        3
 70
     0
 71
     0
  1
AcDbOsnapPointRef
 72
    13
331
1B9
 73
     2
 91
        0
 40
0.0
 10
0.0
 20
0.0
 30
2.000000000000000E+50
 75
     0
  1
AcDbOsnapPointRef
 72
     1
331
1BA
 73
     2
 91
        0
 40
1.0
 10
0.0
 20
0.0
 30
2.000000000000000E+50
 75
     0
  0
XRECORD
  5
261
102
{ACAD_REACTORS
330
25F
102
}
330
25F
100
AcDbXrecord
280
     1
340
2C
  0
XRECORD
  5
262
102
{ACAD_REACTORS
330
25F
102
}
330
25F
100
AcDbXrecord
280
     1
340
2C
  0
XRECORD
  5
260
102
{ACAD_REACTORS
330
25F
102
}
330
25F
100
AcDbXrecord
280
     1
340
2C
  0
LAYOUT
  5
20
102
{ACAD_REACTORS
330
19
102
}
330
19
100
AcDbPlotSettings
  1

  2
HP LaserJet 5000 Series PS
  4

  6

 40
0.0
 41
0.0
 42
0.0
 43
0.0
 44
0.0
 45
0.0
 46
0.0
 47
0.0
 48
0.0
 49
0.0
140
0.0
141
0.0
142
1.0
143
1.0
 70
   688
 72
     0
 73
     0
 74
     5
  7
C:\Users\R&D\AppData\Roaming\Autodesk\Autodesk Mechanical Desktop 2008\R17.1\kor\Plot Styles\CATALOG.ctb
 75
    16
147
1.0
 76
     0
 77
     2
 78
   300
148
0.0
149
0.0
100
AcDbLayout
  1
Layout1
 70
     1
 71
     1
 10
0.0
 20
0.0
 11
12.0
 21
9.0
 12
2220.404641079056
 22
50.00000000000001
 32
2810.473195709564
 14
1.000000000000000E+20
 24
1.000000000000000E+20
 34
1.000000000000000E+20
 15
-1.000000000000000E+20
 25
-1.000000000000000E+20
 35
-1.000000000000000E+20
146
0.0
 13
0.0
 23
0.0
 33
0.0
 16
1.0
 26
0.0
 36
0.0
 17
0.0
 27
1.0
 37
0.0
 76
     0
330
1B
  0
LAYOUT
  5
18
102
{ACAD_REACTORS
330
19
102
}
330
19
100
AcDbPlotSettings
  1

  2
PublishToWeb JPG.pc3
  4
Sun_Hi-Res_(1600.00_x_1280.00_Pixels)
  6

 40
0.0
 41
0.0
 42
1.0
 43
1.0
 44
1600.0
 45
1280.0
 46
0.0
 47
0.0
 48
2595.0
 49
7.0
140
2798.0
141
134.0
142
1.0
143
0.1269543464665416
 70
 11952
 72
     2
 73
     0
 74
     4
  7
CATALOG.ctb
 75
     0
147
7.876847290640394
 76
     0
 77
     2
 78
   300
148
-2595.0
149
-7.0
100
AcDbLayout
  1
Model
 70
     1
 71
     0
 10
0.0
 20
0.0
 11
12.0
 21
9.0
 12
0.0
 22
0.0
 32
0.0
 14
0.0
 24
0.0
 34
0.0
 15
0.0
 25
0.0
 35
0.0
146
0.0
 13
0.0
 23
0.0
 33
0.0
 16
1.0
 26
0.0
 36
0.0
 17
0.0
 27
1.0
 37
0.0
 76
     0
330
2
331
30
1001
ACAD_PSEXT
1000
PublishToWeb JPG.pc3
1000
Independent JPEG Group JFIF (JPEG Compression)
1000
파일
1000

1070
     0
  0
MATERIAL
  5
51
102
{ACAD_XDICTIONARY
360
52
102
}
102
{ACAD_REACTORS
330
E
102
}
330
E
100
AcDbMaterial
  1
ByBlock
 72
     0
 43
0.0208333333333333
 43
0.0
 43
0.0
 43
0.0
 43
0.0
 43
0.0208333333333333
 43
0.0
 43
0.0
 43
0.0
 43
0.0
 43
1.0
 43
0.0
 43
0.0
 43
0.0
 43
0.0
 43
1.0
 77
     0
 47
0.0208333333333333
 47
0.0
 47
0.0
 47
0.0
 47
0.0
 47
0.0208333333333333
 47
0.0
 47
0.0
 47
0.0
 47
0.0
 47
1.0
 47
0.0
 47
0.0
 47
0.0
 47
0.0
 47
1.0
171
     0
 49
0.0208333333333333
 49
0.0
 49
0.0
 49
0.0
 49
0.0
 49
0.0208333333333333
 49
0.0
 49
0.0
 49
0.0
 49
0.0
 49
1.0
 49
0.0
 49
0.0
 49
0.0
 49
0.0
 49
1.0
175
     0
142
0.0208333333333333
142
0.0
142
0.0
142
0.0
142
0.0
142
0.0208333333333333
142
0.0
142
0.0
142
0.0
142
0.0
142
1.0
142
0.0
142
0.0
142
0.0
142
0.0
142
1.0
179
     0
144
0.0208333333333333
144
0.0
144
0.0
144
0.0
144
0.0
144
0.0208333333333333
144
0.0
144
0.0
144
0.0
144
0.0
144
1.0
144
0.0
144
0.0
144
0.0
144
0.0
144
1.0
147
0.0208333333333333
147
0.0
147
0.0
147
0.0
147
0.0
147
0.0208333333333333
147
0.0
147
0.0
147
0.0
147
0.0
147
1.0
147
0.0
147
0.0
147
0.0
147
0.0
147
1.0
  0
MATERIAL
  5
49
102
{ACAD_XDICTIONARY
360
4A
102
}
102
{ACAD_REACTORS
330
E
102
}
330
E
100
AcDbMaterial
  1
ByLayer
 72
     0
 43
0.0208333333333333
 43
0.0
 43
0.0
 43
0.0
 43
0.0
 43
0.0208333333333333
 43
0.0
 43
0.0
 43
0.0
 43
0.0
 43
1.0
 43
0.0
 43
0.0
 43
0.0
 43
0.0
 43
1.0
 77
     0
 47
0.0208333333333333
 47
0.0
 47
0.0
 47
0.0
 47
0.0
 47
0.0208333333333333
 47
0.0
 47
0.0
 47
0.0
 47
0.0
 47
1.0
 47
0.0
 47
0.0
 47
0.0
 47
0.0
 47
1.0
171
     0
 49
0.0208333333333333
 49
0.0
 49
0.0
 49
0.0
 49
0.0
 49
0.0208333333333333
 49
0.0
 49
0.0
 49
0.0
 49
0.0
 49
1.0
 49
0.0
 49
0.0
 49
0.0
 49
0.0
 49
1.0
175
     0
142
0.0208333333333333
142
0.0
142
0.0
142
0.0
142
0.0
142
0.0208333333333333
142
0.0
142
0.0
142
0.0
142
0.0
142
1.0
142
0.0
142
0.0
142
0.0
142
0.0
142
1.0
179
     0
144
0.0208333333333333
144
0.0
144
0.0
144
0.0
144
0.0
144
0.0208333333333333
144
0.0
144
0.0
144
0.0
144
0.0
144
1.0
144
0.0
144
0.0
144
0.0
144
0.0
144
1.0
147
0.0208333333333333
147
0.0
147
0.0
147
0.0
147
0.0
147
0.0208333333333333
147
0.0
147
0.0
147
0.0
147
0.0
147
1.0
147
0.0
147
0.0
147
0.0
147
0.0
147
1.0
  0
MATERIAL
  5
D
102
{ACAD_XDICTIONARY
360
F
102
}
102
{ACAD_REACTORS
330
E
102
}
330
E
100
AcDbMaterial
  1
Global
 72
     0
 43
0.0208333333333333
 43
0.0
 43
0.0
 43
0.0
 43
0.0
 43
0.0208333333333333
 43
0.0
 43
0.0
 43
0.0
 43
0.0
 43
1.0
 43
0.0
 43
0.0
 43
0.0
 43
0.0
 43
1.0
 77
     0
 47
0.0208333333333333
 47
0.0
 47
0.0
 47
0.0
 47
0.0
 47
0.0208333333333333
 47
0.0
 47
0.0
 47
0.0
 47
0.0
 47
1.0
 47
0.0
 47
0.0
 47
0.0
 47
0.0
 47
1.0
171
     0
 49
0.0208333333333333
 49
0.0
 49
0.0
 49
0.0
 49
0.0
 49
0.0208333333333333
 49
0.0
 49
0.0
 49
0.0
 49
0.0
 49
1.0
 49
0.0
 49
0.0
 49
0.0
 49
0.0
 49
1.0
175
     0
142
0.0208333333333333
142
0.0
142
0.0
142
0.0
142
0.0
142
0.0208333333333333
142
0.0
142
0.0
142
0.0
142
0.0
142
1.0
142
0.0
142
0.0
142
0.0
142
0.0
142
1.0
179
     0
144
0.0208333333333333
144
0.0
144
0.0
144
0.0
144
0.0
144
0.0208333333333333
144
0.0
144
0.0
144
0.0
144
0.0
144
1.0
144
0.0
144
0.0
144
0.0
144
0.0
144
1.0
147
0.0208333333333333
147
0.0
147
0.0
147
0.0
147
0.0
147
0.0208333333333333
147
0.0
147
0.0
147
0.0
147
0.0
147
1.0
147
0.0
147
0.0
147
0.0
147
0.0
147
1.0
  0
MLEADERSTYLE
  5
241
102
{ACAD_REACTORS
330
240
102
}
330
240
100
AcDbMLeaderStyle
170
     2
171
     1
172
     0
 90
        2
 40
0.0
 41
0.0
173
     1
 91
-1056964608
340
2B
 92
       -2
290
     1
 42
0.09
291
     1
 43
0.36
  3
Standard
 44
0.18
300

342
28
174
     1
178
     6
175
     1
176
     0
 93
-1056964608
 45
0.18
292
     0
297
     0
 46
0.18
 94
-1056964608
 47
1.0
 49
1.0
140
1.0
293
     1
141
0.0
294
     1
177
     0
142
1.0
295
     0
296
     0
143
0.125
1001
ACAD_MLEADERVER
1070
     2
  0
MLINESTYLE
  5
5F
102
{ACAD_REACTORS
330
47
102
}
330
47
100
AcDbMlineStyle
  2
STANDARD
 70
     0
  3

 62
   256
 51
90.0
 52
90.0
 71
     2
 49
0.5
 62
   256
  6
BYLAYER
 49
-0.5
 62
   256
  6
BYLAYER
  0
ACDBPLACEHOLDER
  5
A
102
{ACAD_REACTORS
330
B
102
}
330
B
  0
SCALE
  5
64
102
{ACAD_REACTORS
330
5A
102
}
330
5A
100
AcDbScale
 70
     0
300
1/128" = 1'-0"_1
140
0.007812
141
12.0
290
     0
  0
SCALE
  5
65
102
{ACAD_REACTORS
330
5A
102
}
330
5A
100
AcDbScale
 70
     0
300
1:1
140
1.0
141
1.0
290
     1
  0
SCALE
  5
66
102
{ACAD_REACTORS
330
5A
102
}
330
5A
100
AcDbScale
 70
     0
300
1:2
140
1.0
141
2.0
290
     0
  0
SCALE
  5
67
102
{ACAD_REACTORS
330
5A
102
}
330
5A
100
AcDbScale
 70
     0
300
1:4
140
1.0
141
4.0
290
     0
  0
SCALE
  5
68
102
{ACAD_REACTORS
330
5A
102
}
330
5A
100
AcDbScale
 70
     0
300
1:5
140
1.0
141
5.0
290
     0
  0
SCALE
  5
69
102
{ACAD_REACTORS
330
5A
102
}
330
5A
100
AcDbScale
 70
     0
300
1:8
140
1.0
141
8.0
290
     0
  0
SCALE
  5
6A
102
{ACAD_REACTORS
330
5A
102
}
330
5A
100
AcDbScale
 70
     0
300
1:10
140
1.0
141
10.0
290
     0
  0
SCALE
  5
6B
102
{ACAD_REACTORS
330
5A
102
}
330
5A
100
AcDbScale
 70
     0
300
1:16
140
1.0
141
16.0
290
     0
  0
SCALE
  5
6C
102
{ACAD_REACTORS
330
5A
102
}
330
5A
100
AcDbScale
 70
     0
300
1:20
140
1.0
141
20.0
290
     0
  0
SCALE
  5
6D
102
{ACAD_REACTORS
330
5A
102
}
330
5A
100
AcDbScale
 70
     0
300
1:30
140
1.0
141
30.0
290
     0
  0
SCALE
  5
6E
102
{ACAD_REACTORS
330
5A
102
}
330
5A
100
AcDbScale
 70
     0
300
1:40
140
1.0
141
40.0
290
     0
  0
SCALE
  5
6F
102
{ACAD_REACTORS
330
5A
102
}
330
5A
100
AcDbScale
 70
     0
300
1:50
140
1.0
141
50.0
290
     0
  0
SCALE
  5
70
102
{ACAD_REACTORS
330
5A
102
}
330
5A
100
AcDbScale
 70
     0
300
1:100
140
1.0
141
100.0
290
     0
  0
SCALE
  5
71
102
{ACAD_REACTORS
330
5A
102
}
330
5A
100
AcDbScale
 70
     0
300
2:1
140
2.0
141
1.0
290
     0
  0
SCALE
  5
72
102
{ACAD_REACTORS
330
5A
102
}
330
5A
100
AcDbScale
 70
     0
300
4:1
140
4.0
141
1.0
290
     0
  0
SCALE
  5
73
102
{ACAD_REACTORS
330
5A
102
}
330
5A
100
AcDbScale
 70
     0
300
8:1
140
8.0
141
1.0
290
     0
  0
SCALE
  5
74
102
{ACAD_REACTORS
330
5A
102
}
330
5A
100
AcDbScale
 70
     0
300
10:1
140
10.0
141
1.0
290
     0
  0
SCALE
  5
75
102
{ACAD_REACTORS
330
5A
102
}
330
5A
100
AcDbScale
 70
     0
300
100:1
140
100.0
141
1.0
290
     0
  0
SCALE
  5
76
102
{ACAD_REACTORS
330
5A
102
}
330
5A
100
AcDbScale
 70
     0
300
1/128" = 1'-0"
140
0.0078125
141
12.0
290
     0
  0
SCALE
  5
77
102
{ACAD_REACTORS
330
5A
102
}
330
5A
100
AcDbScale
 70
     0
300
1/64" = 1'-0"
140
0.015625
141
12.0
290
     0
  0
SCALE
  5
78
102
{ACAD_REACTORS
330
5A
102
}
330
5A
100
AcDbScale
 70
     0
300
1/32" = 1'-0"
140
0.03125
141
12.0
290
     0
  0
SCALE
  5
79
102
{ACAD_REACTORS
330
5A
102
}
330
5A
100
AcDbScale
 70
     0
300
1/16" = 1'-0"
140
0.0625
141
12.0
290
     0
  0
SCALE
  5
7A
102
{ACAD_REACTORS
330
5A
102
}
330
5A
100
AcDbScale
 70
     0
300
3/32" = 1'-0"
140
0.09375
141
12.0
290
     0
  0
SCALE
  5
7B
102
{ACAD_REACTORS
330
5A
102
}
330
5A
100
AcDbScale
 70
     0
300
1/8" = 1'-0"
140
0.125
141
12.0
290
     0
  0
SCALE
  5
7C
102
{ACAD_REACTORS
330
5A
102
}
330
5A
100
AcDbScale
 70
     0
300
3/16" = 1'-0"
140
0.1875
141
12.0
290
     0
  0
SCALE
  5
7D
102
{ACAD_REACTORS
330
5A
102
}
330
5A
100
AcDbScale
 70
     0
300
1/4" = 1'-0"
140
0.25
141
12.0
290
     0
  0
SCALE
  5
7E
102
{ACAD_REACTORS
330
5A
102
}
330
5A
100
AcDbScale
 70
     0
300
3/8" = 1'-0"
140
0.375
141
12.0
290
     0
  0
SCALE
  5
7F
102
{ACAD_REACTORS
330
5A
102
}
330
5A
100
AcDbScale
 70
     0
300
1/2" = 1'-0"
140
0.5
141
12.0
290
     0
  0
SCALE
  5
80
102
{ACAD_REACTORS
330
5A
102
}
330
5A
100
AcDbScale
 70
     0
300
3/4" = 1'-0"
140
0.75
141
12.0
290
     0
  0
SCALE
  5
81
102
{ACAD_REACTORS
330
5A
102
}
330
5A
100
AcDbScale
 70
     0
300
1" = 1'-0"
140
1.0
141
12.0
290
     0
  0
SCALE
  5
82
102
{ACAD_REACTORS
330
5A
102
}
330
5A
100
AcDbScale
 70
     0
300
1-1/2" = 1'-0"
140
1.5
141
12.0
290
     0
  0
SCALE
  5
83
102
{ACAD_REACTORS
330
5A
102
}
330
5A
100
AcDbScale
 70
     0
300
3" = 1'-0"
140
3.0
141
12.0
290
     0
  0
SCALE
  5
84
102
{ACAD_REACTORS
330
5A
102
}
330
5A
100
AcDbScale
 70
     0
300
6" = 1'-0"
140
6.0
141
12.0
290
     0
  0
SCALE
  5
85
102
{ACAD_REACTORS
330
5A
102
}
330
5A
100
AcDbScale
 70
     0
300
1'-0" = 1'-0"
140
12.0
141
12.0
290
     0
  0
TABLESTYLE
  5
60
102
{ACAD_XDICTIONARY
360
61
102
}
102
{ACAD_REACTORS
330
5B
102
}
330
5B
100
AcDbTableStyle
  3
Standard
 70
     0
 71
     0
 40
0.06
 41
0.06
280
     0
281
     0
  7
STANDARD
140
0.18
170
     2
 62
     0
 63
     7
283
     0
274
    -2
284
     1
 64
     0
275
    -2
285
     1
 65
     0
276
    -2
286
     1
 66
     0
277
    -2
287
     1
 67
     0
278
    -2
288
     1
 68
     0
279
    -2
289
     1
 69
     0
  7
STANDARD
140
0.25
170
     5
 62
     0
 63
     7
283
     0
274
    -2
284
     1
 64
     0
275
    -2
285
     1
 65
     0
276
    -2
286
     1
 66
     0
277
    -2
287
     1
 67
     0
278
    -2
288
     1
 68
     0
279
    -2
289
     1
 69
     0
  7
STANDARD
140
0.18
170
     5
 62
     0
 63
     7
283
     0
274
    -2
284
     1
 64
     0
275
    -2
285
     1
 65
     0
276
    -2
286
     1
 66
     0
277
    -2
287
     1
 67
     0
278
    -2
288
     1
 68
     0
279
    -2
289
     1
 69
     0
  0
VISUALSTYLE
  5
31
102
{ACAD_REACTORS
330
32
102
}
330
32
100
AcDbVisualStyle
  2
2dWireframe
 70
     4
 71
     0
 72
     2
 73
     0
 90
        0
 40
-0.6
 41
-30.0
 62
     5
 63
     7
 74
     1
 91
        4
 64
     7
 65
   257
 75
     1
175
     1
 42
1.0
 92
        0
 66
   257
 43
1.0
 76
     1
 77
     6
 78
     2
 67
     7
 79
     5
170
     0
171
     0
290
     0
174
     0
 93
        1
 44
0.0
173
     0
291
     0
 45
0.0
1001
ACAD
1000
AcDbSavedByObjectVersion
1070
     0
  0
VISUALSTYLE
  5
238
102
{ACAD_REACTORS
330
32
102
}
330
32
100
AcDbVisualStyle
  2
3D Hidden
 70
     6
 71
     1
 72
     2
 73
     2
 90
        0
 40
-0.6
 41
-30.0
 62
     5
 63
     7
421
 16777215
 74
     2
 91
        2
 64
     7
 65
   257
 75
     2
175
     1
 42
40.0
 92
        0
 66
   257
 43
1.0
 76
     1
 77
     6
 78
     2
 67
     7
 79
     3
170
     0
171
     0
290
     0
174
     0
 93
        1
 44
0.0
173
     0
291
     0
 45
0.0
1001
ACAD
1000
AcDbSavedByObjectVersion
1070
     0
  0
VISUALSTYLE
  5
63
102
{ACAD_REACTORS
330
32
102
}
330
32
100
AcDbVisualStyle
  2
3dWireframe
 70
     5
 71
     0
 72
     2
 73
     0
 90
        0
 40
-0.6
 41
-30.0
 62
     5
 63
     7
 74
     1
 91
        4
 64
     7
 65
   257
 75
     1
175
     1
 42
1.0
 92
        0
 66
   257
 43
1.0
 76
     1
 77
     6
 78
     2
 67
     7
 79
     5
170
     0
171
     0
290
     0
174
     0
 93
        1
 44
0.0
173
     0
291
     0
 45
0.0
1001
ACAD
1000
AcDbSavedByObjectVersion
1070
     0
  0
VISUALSTYLE
  5
237
102
{ACAD_REACTORS
330
32
102
}
330
32
100
AcDbVisualStyle
  2
Basic
 70
     7
 71
     1
 72
     0
 73
     1
 90
        0
 40
-0.6
 41
-30.0
 62
     5
 63
     7
421
 16777215
 74
     0
 91
        4
 64
     7
 65
   257
 75
     1
175
     1
 42
1.0
 92
        8
 66
     7
 43
1.0
 76
     1
 77
     6
 78
     2
 67
     7
 79
     5
170
     0
171
     0
290
     0
174
     0
 93
        1
 44
0.0
173
     0
291
     1
 45
0.0
1001
ACAD
1000
AcDbSavedByObjectVersion
1070
     0
  0
VISUALSTYLE
  5
23B
102
{ACAD_REACTORS
330
32
102
}
330
32
100
AcDbVisualStyle
  2
Brighten
 70
    12
 71
     2
 72
     2
 73
     0
 90
        0
 40
-0.6
 41
-30.0
 62
     5
 63
     7
421
 16777215
 74
     1
 91
        4
 64
     7
 65
   257
 75
     1
175
     1
 42
1.0
 92
        8
 66
     7
 43
1.0
 76
     1
 77
     6
 78
     2
 67
     7
 79
     5
170
     0
171
     0
290
     0
174
     0
 93
        1
 44
50.0
173
     0
291
     1
 45
0.0
1001
ACAD
1000
AcDbSavedByObjectVersion
1070
     0
  0
VISUALSTYLE
  5
23F
102
{ACAD_REACTORS
330
32
102
}
330
32
100
AcDbVisualStyle
  2
ColorChange
 70
    16
 71
     2
 72
     2
 73
     3
 90
        0
 40
-0.6
 41
-30.0
 62
     5
 63
     8
421
  8421504
 74
     1
 91
        4
 64
     7
 65
   257
 75
     1
175
     1
 42
1.0
 92
        8
 66
     8
424
  8421504
 43
1.0
 76
     1
 77
     6
 78
     2
 67
     7
 79
     5
170
     0
171
     0
290
     0
174
     0
 93
        1
 44
0.0
173
     0
291
     1
 45
0.0
1001
ACAD
1000
AcDbSavedByObjectVersion
1070
     0
  0
VISUALSTYLE
  5
239
102
{ACAD_REACTORS
330
32
102
}
330
32
100
AcDbVisualStyle
  2
Conceptual
 70
     9
 71
     3
 72
     2
 73
     0
 90
        0
 40
-0.6
 41
-30.0
 62
     5
 63
     7
421
 16777215
 74
     2
 91
        2
 64
     7
 65
   257
 75
     1
175
     1
 42
40.0
 92
        8
 66
     7
 43
1.0
 76
     1
 77
     6
 78
     2
 67
     7
 79
     3
170
     0
171
     0
290
     0
174
     0
 93
        1
 44
0.0
173
     0
291
     0
 45
0.0
1001
ACAD
1000
AcDbSavedByObjectVersion
1070
     0
  0
VISUALSTYLE
  5
23A
102
{ACAD_REACTORS
330
32
102
}
330
32
100
AcDbVisualStyle
  2
Dim
 70
    11
 71
     2
 72
     2
 73
     0
 90
        0
 40
-0.6
 41
-30.0
 62
     5
 63
     7
421
 16777215
 74
     1
 91
        4
 64
     7
 65
   257
 75
     1
175
     1
 42
1.0
 92
        8
 66
     7
 43
1.0
 76
     1
 77
     6
 78
     2
 67
     7
 79
     5
170
     0
171
     0
290
     0
174
     0
 93
        1
 44
-50.0
173
     0
291
     1
 45
0.0
1001
ACAD
1000
AcDbSavedByObjectVersion
1070
     0
  0
VISUALSTYLE
  5
23E
102
{ACAD_REACTORS
330
32
102
}
330
32
100
AcDbVisualStyle
  2
Facepattern
 70
    15
 71
     2
 72
     2
 73
     0
 90
        0
 40
-0.6
 41
-30.0
 62
     5
 63
     7
421
 16777215
 74
     1
 91
        4
 64
     7
 65
   257
 75
     1
175
     1
 42
1.0
 92
        8
 66
     7
 43
1.0
 76
     1
 77
     6
 78
     2
 67
     7
 79
     5
170
     0
171
     0
290
     0
174
     0
 93
        1
 44
0.0
173
     0
291
     1
 45
0.0
1001
ACAD
1000
AcDbSavedByObjectVersion
1070
     0
  0
VISUALSTYLE
  5
233
102
{ACAD_REACTORS
330
32
102
}
330
32
100
AcDbVisualStyle
  2
Flat
 70
     0
 71
     2
 72
     1
 73
     1
 90
        2
 40
-0.6
 41
30.0
 62
     5
 63
     7
421
 16777215
 74
     0
 91
        4
 64
     7
 65
   257
 75
     1
175
     1
 42
1.0
 92
        8
 66
     7
 43
1.0
 76
     1
 77
     6
 78
     2
 67
     7
 79
     5
170
     0
171
     0
290
     0
174
     0
 93
       13
 44
0.0
173
     0
291
     1
 45
0.0
1001
ACAD
1000
AcDbSavedByObjectVersion
1070
     0
  0
VISUALSTYLE
  5
234
102
{ACAD_REACTORS
330
32
102
}
330
32
100
AcDbVisualStyle
  2
FlatWithEdges
 70
     1
 71
     2
 72
     1
 73
     1
 90
        2
 40
-0.6
 41
30.0
 62
     5
 63
     7
421
 16777215
 74
     1
 91
        4
 64
     7
 65
   257
 75
     1
175
     1
 42
1.0
 92
        0
 66
   257
 43
1.0
 76
     1
 77
     6
 78
     2
 67
     7
 79
     5
170
     0
171
     0
290
     0
174
     0
 93
       13
 44
0.0
173
     0
291
     1
 45
0.0
1001
ACAD
1000
AcDbSavedByObjectVersion
1070
     0
  0
VISUALSTYLE
  5
235
102
{ACAD_REACTORS
330
32
102
}
330
32
100
AcDbVisualStyle
  2
Gouraud
 70
     2
 71
     2
 72
     2
 73
     1
 90
        2
 40
-0.6
 41
30.0
 62
     5
 63
     7
421
 16777215
 74
     0
 91
        4
 64
     7
 65
   257
 75
     1
175
     1
 42
1.0
 92
        0
 66
     7
 43
1.0
 76
     1
 77
     6
 78
     2
 67
     7
 79
     5
170
     0
171
     0
290
     0
174
     0
 93
       13
 44
0.0
173
     0
291
     1
 45
0.0
1001
ACAD
1000
AcDbSavedByObjectVersion
1070
     0
  0
VISUALSTYLE
  5
236
102
{ACAD_REACTORS
330
32
102
}
330
32
100
AcDbVisualStyle
  2
GouraudWithEdges
 70
     3
 71
     2
 72
     2
 73
     1
 90
        2
 40
-0.6
 41
30.0
 62
     5
 63
     7
421
 16777215
 74
     1
 91
        4
 64
     7
 65
   257
 75
     1
175
     1
 42
1.0
 92
        0
 66
   257
 43
1.0
 76
     1
 77
     6
 78
     2
 67
     7
 79
     5
170
     0
171
     0
290
     0
174
     0
 93
       13
 44
0.0
173
     0
291
     1
 45
0.0
1001
ACAD
1000
AcDbSavedByObjectVersion
1070
     0
  0
VISUALSTYLE
  5
23D
102
{ACAD_REACTORS
330
32
102
}
330
32
100
AcDbVisualStyle
  2
Linepattern
 70
    14
 71
     2
 72
     2
 73
     0
 90
        0
 40
-0.6
 41
-30.0
 62
     5
 63
     7
421
 16777215
 74
     1
 91
        4
 64
     7
 65
   257
 75
     7
175
     7
 42
1.0
 92
        8
 66
     7
 43
1.0
 76
     1
 77
     6
 78
     2
 67
     7
 79
     5
170
     0
171
     0
290
     0
174
     0
 93
        1
 44
0.0
173
     0
291
     1
 45
0.0
1001
ACAD
1000
AcDbSavedByObjectVersion
1070
     0
  0
VISUALSTYLE
  5
62
102
{ACAD_REACTORS
330
32
102
}
330
32
100
AcDbVisualStyle
  2
Realistic
 70
     8
 71
     2
 72
     2
 73
     0
 90
        0
 40
-0.6
 41
-30.0
 62
     5
 63
     7
 74
     1
 91
        0
 64
     7
 65
   257
 75
     1
175
     1
 42
1.0
 92
        8
 66
     8
 43
1.0
 76
     1
 77
     6
 78
     2
 67
     7
 79
     5
170
     0
171
     0
290
     0
174
     0
 93
       13
 44
0.0
173
     0
291
     0
 45
0.0
1001
ACAD
1000
AcDbSavedByObjectVersion
1070
     0
  0
VISUALSTYLE
  5
23C
102
{ACAD_REACTORS
330
32
102
}
330
32
100
AcDbVisualStyle
  2
Thicken
 70
    13
 71
     2
 72
     2
 73
     0
 90
        0
 40
-0.6
 41
-30.0
 62
     5
 63
     7
421
 16777215
 74
     1
 91
        4
 64
     7
 65
   257
 75
     1
175
     1
 42
1.0
 92
       12
 66
     7
 43
1.0
 76
     1
 77
     6
 78
     2
 67
     7
 79
     5
170
     0
171
     0
290
     0
174
     0
 93
        1
 44
0.0
173
     0
291
     1
 45
0.0
1001
ACAD
1000
AcDbSavedByObjectVersion
1070
     0
  0
DICTIONARYVAR
  5
22D
102
{ACAD_REACTORS
330
229
102
}
330
229
100
DictionaryVariables
280
     0
  1
1:1
  0
DICTIONARYVAR
  5
22B
102
{ACAD_REACTORS
330
229
102
}
330
229
100
DictionaryVariables
280
     0
  1
STANDARD
  0
DICTIONARYVAR
  5
22A
102
{ACAD_REACTORS
330
229
102
}
330
229
100
DictionaryVariables
280
     0
  1
STANDARD
  0
DICTIONARYVAR
  5
231
102
{ACAD_REACTORS
330
229
102
}
330
229
100
DictionaryVariables
280
     0
  1
2
  0
DICTIONARYVAR
  5
230
102
{ACAD_REACTORS
330
229
102
}
330
229
100
DictionaryVariables
280
     0
  1
1
  0
DICTIONARYVAR
  5
22F
102
{ACAD_REACTORS
330
229
102
}
330
229
100
DictionaryVariables
280
     0
  1
0
  0
DICTIONARYVAR
  5
22C
102
{ACAD_REACTORS
330
229
102
}
330
229
100
DictionaryVariables
280
     0
  1
1
  0
DICTIONARYVAR
  5
22E
102
{ACAD_REACTORS
330
229
102
}
330
229
100
DictionaryVariables
280
     0
  1
127
  0
DICTIONARY
  5
52
330
51
100
AcDbDictionary
280
     1
281
     1
  3
ACAD_XREC_ROUNDTRIP
360
265
  3
BUMPTILE
360
53
  3
DIFFUSETILE
360
54
  3
OPACITYTILE
360
55
  3
REFLECTIONTILE
360
56
  3
REFRACTIONTILE
360
57
  3
SPECULARTILE
360
58
  0
DICTIONARY
  5
4A
330
49
100
AcDbDictionary
280
     1
281
     1
  3
ACAD_XREC_ROUNDTRIP
360
264
  3
BUMPTILE
360
4B
  3
DIFFUSETILE
360
4C
  3
OPACITYTILE
360
4D
  3
REFLECTIONTILE
360
4E
  3
REFRACTIONTILE
360
4F
  3
SPECULARTILE
360
50
  0
DICTIONARY
  5
F
330
D
100
AcDbDictionary
280
     1
281
     1
  3
ACAD_XREC_ROUNDTRIP
360
263
  3
BUMPTILE
360
10
  3
DIFFUSETILE
360
11
  3
OPACITYTILE
360
12
  3
REFLECTIONTILE
360
13
  3
REFRACTIONTILE
360
14
  3
SPECULARTILE
360
15
  0
DICTIONARY
  5
61
330
60
100
AcDbDictionary
280
     1
281
     1
  3
ACAD_ROUNDTRIP_2008_TABLESTYLE_CELLSTYLEMAP
360
25E
  3
ACAD_XREC_ROUNDTRIP
360
266
  0
XRECORD
  5
265
102
{ACAD_REACTORS
330
52
102
}
330
52
100
AcDbXrecord
280
     1
102
MATERIAL
148
0.0
149
0.0
149
0.0
 93
        0
 94
      127
282
     0
 72
     0
 77
     0
171
     0
175
     0
179
     0
273
     0
  0
XRECORD
  5
53
102
{ACAD_REACTORS
330
52
102
}
330
52
100
AcDbXrecord
280
     1
270
     1
271
     1
  0
XRECORD
  5
54
102
{ACAD_REACTORS
330
52
102
}
330
52
100
AcDbXrecord
280
     1
270
     1
271
     1
  0
XRECORD
  5
55
102
{ACAD_REACTORS
330
52
102
}
330
52
100
AcDbXrecord
280
     1
270
     1
271
     1
  0
XRECORD
  5
56
102
{ACAD_REACTORS
330
52
102
}
330
52
100
AcDbXrecord
280
     1
270
     1
271
     1
  0
XRECORD
  5
57
102
{ACAD_REACTORS
330
52
102
}
330
52
100
AcDbXrecord
280
     1
270
     1
271
     1
  0
XRECORD
  5
58
102
{ACAD_REACTORS
330
52
102
}
330
52
100
AcDbXrecord
280
     1
270
     1
271
     1
  0
XRECORD
  5
264
102
{ACAD_REACTORS
330
4A
102
}
330
4A
100
AcDbXrecord
280
     1
102
MATERIAL
148
0.0
149
0.0
149
0.0
 93
        0
 94
      127
282
     0
 72
     0
 77
     0
171
     0
175
     0
179
     0
273
     0
  0
XRECORD
  5
4B
102
{ACAD_REACTORS
330
4A
102
}
330
4A
100
AcDbXrecord
280
     1
270
     1
271
     1
  0
XRECORD
  5
4C
102
{ACAD_REACTORS
330
4A
102
}
330
4A
100
AcDbXrecord
280
     1
270
     1
271
     1
  0
XRECORD
  5
4D
102
{ACAD_REACTORS
330
4A
102
}
330
4A
100
AcDbXrecord
280
     1
270
     1
271
     1
  0
XRECORD
  5
4E
102
{ACAD_REACTORS
330
4A
102
}
330
4A
100
AcDbXrecord
280
     1
270
     1
271
     1
  0
XRECORD
  5
4F
102
{ACAD_REACTORS
330
4A
102
}
330
4A
100
AcDbXrecord
280
     1
270
     1
271
     1
  0
XRECORD
  5
50
102
{ACAD_REACTORS
330
4A
102
}
330
4A
100
AcDbXrecord
280
     1
270
     1
271
     1
  0
XRECORD
  5
263
102
{ACAD_REACTORS
330
F
102
}
330
F
100
AcDbXrecord
280
     1
102
MATERIAL
148
0.0
149
0.0
149
0.0
 93
        0
 94
      127
282
     0
 72
     0
 77
     0
171
     0
175
     0
179
     0
273
     0
  0
XRECORD
  5
10
102
{ACAD_REACTORS
330
F
102
}
330
F
100
AcDbXrecord
280
     1
270
     1
271
     1
  0
XRECORD
  5
11
102
{ACAD_REACTORS
330
F
102
}
330
F
100
AcDbXrecord
280
     1
270
     1
271
     1
  0
XRECORD
  5
12
102
{ACAD_REACTORS
330
F
102
}
330
F
100
AcDbXrecord
280
     1
270
     1
271
     1
  0
XRECORD
  5
13
102
{ACAD_REACTORS
330
F
102
}
330
F
100
AcDbXrecord
280
     1
270
     1
271
     1
  0
XRECORD
  5
14
102
{ACAD_REACTORS
330
F
102
}
330
F
100
AcDbXrecord
280
     1
270
     1
271
     1
  0
XRECORD
  5
15
102
{ACAD_REACTORS
330
F
102
}
330
F
100
AcDbXrecord
280
     1
270
     1
271
     1
  0
CELLSTYLEMAP
  5
25E
102
{ACAD_REACTORS
330
61
102
}
330
61
100
AcDbCellStyleMap
 90
        3
300
CELLSTYLE
  1
TABLEFORMAT_BEGIN
 90
        5
170
     1
 91
        0
 92
    32768
 62
   257
 93
        1
300
CONTENTFORMAT
  1
CONTENTFORMAT_BEGIN
 90
        0
 91
        0
 92
      512
 93
        0
300

 40
0.0
140
1.0
 94
        5
 62
     0
340
28
144
0.25
309
CONTENTFORMAT_END
171
     1
301
MARGIN
  1
CELLMARGIN_BEGIN
 40
0.06
 40
0.06
 40
0.06
 40
0.06
 40
0.18
 40
0.18
309
CELLMARGIN_END
 94
        6
 95
        1
302
GRIDFORMAT
  1
GRIDFORMAT_BEGIN
 90
        0
 91
        1
 62
     0
 92
       -2
340
0
 93
        0
 40
0.045
309
GRIDFORMAT_END
 95
        2
302
GRIDFORMAT
  1
GRIDFORMAT_BEGIN
 90
        0
 91
        1
 62
     0
 92
       -2
340
0
 93
        0
 40
0.045
309
GRIDFORMAT_END
 95
        4
302
GRIDFORMAT
  1
GRIDFORMAT_BEGIN
 90
        0
 91
        1
 62
     0
 92
       -2
340
0
 93
        0
 40
0.045
309
GRIDFORMAT_END
 95
        8
302
GRIDFORMAT
  1
GRIDFORMAT_BEGIN
 90
        0
 91
        1
 62
     0
 92
       -2
340
0
 93
        0
 40
0.045
309
GRIDFORMAT_END
 95
       16
302
GRIDFORMAT
  1
GRIDFORMAT_BEGIN
 90
        0
 91
        1
 62
     0
 92
       -2
340
0
 93
        0
 40
0.045
309
GRIDFORMAT_END
 95
       32
302
GRIDFORMAT
  1
GRIDFORMAT_BEGIN
 90
        0
 91
        1
 62
     0
 92
       -2
340
0
 93
        0
 40
0.045
309
GRIDFORMAT_END
309
TABLEFORMAT_END
  1
CELLSTYLE_BEGIN
 90
        1
 91
        1
300
_TITLE
309
CELLSTYLE_END
300
CELLSTYLE
  1
TABLEFORMAT_BEGIN
 90
        5
170
     1
 91
        0
 92
        0
 62
   257
 93
        1
300
CONTENTFORMAT
  1
CONTENTFORMAT_BEGIN
 90
        0
 91
        0
 92
      512
 93
        0
300

 40
0.0
140
1.0
 94
        5
 62
     0
340
28
144
0.18
309
CONTENTFORMAT_END
171
     1
301
MARGIN
  1
CELLMARGIN_BEGIN
 40
0.06
 40
0.06
 40
0.06
 40
0.06
 40
0.18
 40
0.18
309
CELLMARGIN_END
 94
        6
 95
        1
302
GRIDFORMAT
  1
GRIDFORMAT_BEGIN
 90
        0
 91
        1
 62
     0
 92
       -2
340
0
 93
        0
 40
0.045
309
GRIDFORMAT_END
 95
        2
302
GRIDFORMAT
  1
GRIDFORMAT_BEGIN
 90
        0
 91
        1
 62
     0
 92
       -2
340
0
 93
        0
 40
0.045
309
GRIDFORMAT_END
 95
        4
302
GRIDFORMAT
  1
GRIDFORMAT_BEGIN
 90
        0
 91
        1
 62
     0
 92
       -2
340
0
 93
        0
 40
0.045
309
GRIDFORMAT_END
 95
        8
302
GRIDFORMAT
  1
GRIDFORMAT_BEGIN
 90
        0
 91
        1
 62
     0
 92
       -2
340
0
 93
        0
 40
0.045
309
GRIDFORMAT_END
 95
       16
302
GRIDFORMAT
  1
GRIDFORMAT_BEGIN
 90
        0
 91
        1
 62
     0
 92
       -2
340
0
 93
        0
 40
0.045
309
GRIDFORMAT_END
 95
       32
302
GRIDFORMAT
  1
GRIDFORMAT_BEGIN
 90
        0
 91
        1
 62
     0
 92
       -2
340
0
 93
        0
 40
0.045
309
GRIDFORMAT_END
309
TABLEFORMAT_END
  1
CELLSTYLE_BEGIN
 90
        2
 91
        1
300
_HEADER
309
CELLSTYLE_END
300
CELLSTYLE
  1
TABLEFORMAT_BEGIN
 90
        5
170
     1
 91
        0
 92
        0
 62
   257
 93
        1
300
CONTENTFORMAT
  1
CONTENTFORMAT_BEGIN
 90
        0
 91
        0
 92
      512
 93
        0
300

 40
0.0
140
1.0
 94
        2
 62
     0
340
28
144
0.18
309
CONTENTFORMAT_END
171
     1
301
MARGIN
  1
CELLMARGIN_BEGIN
 40
0.06
 40
0.06
 40
0.06
 40
0.06
 40
0.18
 40
0.18
309
CELLMARGIN_END
 94
        6
 95
        1
302
GRIDFORMAT
  1
GRIDFORMAT_BEGIN
 90
        0
 91
        1
 62
     0
 92
       -2
340
0
 93
        0
 40
0.045
309
GRIDFORMAT_END
 95
        2
302
GRIDFORMAT
  1
GRIDFORMAT_BEGIN
 90
        0
 91
        1
 62
     0
 92
       -2
340
0
 93
        0
 40
0.045
309
GRIDFORMAT_END
 95
        4
302
GRIDFORMAT
  1
GRIDFORMAT_BEGIN
 90
        0
 91
        1
 62
     0
 92
       -2
340
0
 93
        0
 40
0.045
309
GRIDFORMAT_END
 95
        8
302
GRIDFORMAT
  1
GRIDFORMAT_BEGIN
 90
        0
 91
        1
 62
     0
 92
       -2
340
0
 93
        0
 40
0.045
309
GRIDFORMAT_END
 95
       16
302
GRIDFORMAT
  1
GRIDFORMAT_BEGIN
 90
        0
 91
        1
 62
     0
 92
       -2
340
0
 93
        0
 40
0.045
309
GRIDFORMAT_END
 95
       32
302
GRIDFORMAT
  1
GRIDFORMAT_BEGIN
 90
        0
 91
        1
 62
     0
 92
       -2
340
0
 93
        0
 40
0.045
309
GRIDFORMAT_END
309
TABLEFORMAT_END
  1
CELLSTYLE_BEGIN
 90
        3
 91
        2
300
_DATA
309
CELLSTYLE_END
  0
XRECORD
  5
266
102
{ACAD_REACTORS
330
61
102
}
330
61
100
AcDbXrecord
280
     1
102
ACAD_ROUNDTRIP_PRE2007_TABLESTYLE
 90
      512
 91
        0
  1

 92
      512
 93
        0
  2

 94
      512
 95
        0
  3

  0
ENDSEC
  0
EOF
