  0
SECTION
  2
HEADER
  9
$ACADVER
  1
AC1018
  9
$ACADMAINTVER
 70
   104
  9
$DWGCODEPAGE
  3
ANSI_949
  9
$LASTSAVEDBY
  1
R&D
  9
$INSBASE
 10
295.0
 20
837.0
 30
0.0
  9
$EXTMIN
 10
300.2433212916801
 20
729.0
 30
0.0
  9
$EXTMAX
 10
521.9833369920015
 20
830.4999999999994
 30
0.0
  9
$LIMMIN
 10
0.0
 20
0.0
  9
$LIMMAX
 10
4205.0
 20
2970.0
  9
$ORTHOMODE
 70
     0
  9
$REGENMODE
 70
     1
  9
$FILLMODE
 70
     1
  9
$QTEXTMODE
 70
     0
  9
$MIRRTEXT
 70
     1
  9
$LTSCALE
 40
5.0
  9
$ATTMODE
 70
     1
  9
$TEXTSIZE
 40
4.0
  9
$TRACEWID
 40
0.05
  9
$TEXTSTYLE
  7
GHS
  9
$CLAYER
  8
TEXT
  9
$CELTYPE
  6
ByLayer
  9
$CECOLOR
 62
   256
  9
$CELTSCALE
 40
1.0
  9
$DISPSILH
 70
     0
  9
$DIMSCALE
 40
1.0
  9
$DIMASZ
 40
4.0
  9
$DIMEXO
 40
1.0
  9
$DIMDLI
 40
1.0
  9
$DIMRND
 40
0.0
  9
$DIMDLE
 40
0.0
  9
$DIMEXE
 40
1.0
  9
$DIMTP
 40
0.0
  9
$DIMTM
 40
0.0
  9
$DIMTXT
 40
5.0
  9
$DIMCEN
 40
0.5
  9
$DIMTSZ
 40
0.0
  9
$DIMTOL
 70
     0
  9
$DIMLIM
 70
     0
  9
$DIMTIH
 70
     0
  9
$DIMTOH
 70
     0
  9
$DIMSE1
 70
     0
  9
$DIMSE2
 70
     0
  9
$DIMTAD
 70
     1
  9
$DIMZIN
 70
     8
  9
$DIMBLK
  1

  9
$DIMASO
 70
     1
  9
$DIMSHO
 70
     1
  9
$DIMPOST
  1

  9
$DIMAPOST
  1

  9
$DIMALT
 70
     0
  9
$DIMALTD
 70
     2
  9
$DIMALTF
 40
25.4
  9
$DIMLFAC
 40
1.0
  9
$DIMTOFL
 70
     1
  9
$DIMTVP
 40
0.0
  9
$DIMTIX
 70
     0
  9
$DIMSOXD
 70
     0
  9
$DIMSAH
 70
     0
  9
$DIMBLK1
  1

  9
$DIMBLK2
  1

  9
$DIMSTYLE
  2
Standard
  9
$DIMCLRD
 70
   256
  9
$DIMCLRE
 70
   256
  9
$DIMCLRT
 70
   256
  9
$DIMTFAC
 40
1.0
  9
$DIMGAP
 40
1.5
  9
$DIMJUST
 70
     0
  9
$DIMSD1
 70
     0
  9
$DIMSD2
 70
     0
  9
$DIMTOLJ
 70
     1
  9
$DIMTZIN
 70
     0
  9
$DIMALTZ
 70
     0
  9
$DIMALTTZ
 70
     0
  9
$DIMUPT
 70
     0
  9
$DIMDEC
 70
     3
  9
$DIMTDEC
 70
     3
  9
$DIMALTU
 70
     2
  9
$DIMALTTD
 70
     2
  9
$DIMTXSTY
  7
GHS
  9
$DIMAUNIT
 70
     0
  9
$DIMADEC
 70
     0
  9
$DIMALTRND
 40
0.0
  9
$DIMAZIN
 70
     0
  9
$DIMDSEP
 70
    46
  9
$DIMATFIT
 70
     3
  9
$DIMFRAC
 70
     0
  9
$DIMLDRBLK
  1

  9
$DIMLUNIT
 70
     2
  9
$DIMLWD
 70
    -1
  9
$DIMLWE
 70
    -1
  9
$DIMTMOVE
 70
     0
  9
$LUNITS
 70
     2
  9
$LUPREC
 70
     3
  9
$SKETCHINC
 40
0.1
  9
$FILLETRAD
 40
4.0
  9
$AUNITS
 70
     0
  9
$AUPREC
 70
     3
  9
$MENU
  1
acad
  9
$ELEVATION
 40
0.0
  9
$PELEVATION
 40
0.0
  9
$THICKNESS
 40
0.0
  9
$LIMCHECK
 70
     0
  9
$CHAMFERA
 40
0.0
  9
$CHAMFERB
 40
0.0
  9
$CHAMFERC
 40
0.0
  9
$CHAMFERD
 40
0.0
  9
$SKPOLY
 70
     0
  9
$TDCREATE
 40
2449855.468823958
  9
$TDUCREATE
 40
2449855.093823958
  9
$TDUPDATE
 40
2455883.637091945
  9
$TDUUPDATE
 40
2455883.262091945
  9
$TDINDWG
 40
4.0602737153
  9
$TDUSRTIMER
 40
4.0602737153
  9
$USRTIMER
 70
     1
  9
$ANGBASE
 50
0.0
  9
$ANGDIR
 70
     0
  9
$PDMODE
 70
     0
  9
$PDSIZE
 40
0.0
  9
$PLINEWID
 40
0.0
  9
$SPLFRAME
 70
     0
  9
$SPLINETYPE
 70
     6
  9
$SPLINESEGS
 70
     8
  9
$HANDSEED
  5
23F
  9
$SURFTAB1
 70
     6
  9
$SURFTAB2
 70
     6
  9
$SURFTYPE
 70
     6
  9
$SURFU
 70
     6
  9
$SURFV
 70
     6
  9
$UCSBASE
  2

  9
$UCSNAME
  2

  9
$UCSORG
 10
0.0
 20
0.0
 30
0.0
  9
$UCSXDIR
 10
1.0
 20
0.0
 30
0.0
  9
$UCSYDIR
 10
0.0
 20
1.0
 30
0.0
  9
$UCSORTHOREF
  2

  9
$UCSORTHOVIEW
 70
     0
  9
$UCSORGTOP
 10
0.0
 20
0.0
 30
0.0
  9
$UCSORGBOTTOM
 10
0.0
 20
0.0
 30
0.0
  9
$UCSORGLEFT
 10
0.0
 20
0.0
 30
0.0
  9
$UCSORGRIGHT
 10
0.0
 20
0.0
 30
0.0
  9
$UCSORGFRONT
 10
0.0
 20
0.0
 30
0.0
  9
$UCSORGBACK
 10
0.0
 20
0.0
 30
0.0
  9
$PUCSBASE
  2

  9
$PUCSNAME
  2

  9
$PUCSORG
 10
0.0
 20
0.0
 30
0.0
  9
$PUCSXDIR
 10
1.0
 20
0.0
 30
0.0
  9
$PUCSYDIR
 10
0.0
 20
1.0
 30
0.0
  9
$PUCSORTHOREF
  2

  9
$PUCSORTHOVIEW
 70
     0
  9
$PUCSORGTOP
 10
0.0
 20
0.0
 30
0.0
  9
$PUCSORGBOTTOM
 10
0.0
 20
0.0
 30
0.0
  9
$PUCSORGLEFT
 10
0.0
 20
0.0
 30
0.0
  9
$PUCSORGRIGHT
 10
0.0
 20
0.0
 30
0.0
  9
$PUCSORGFRONT
 10
0.0
 20
0.0
 30
0.0
  9
$PUCSORGBACK
 10
0.0
 20
0.0
 30
0.0
  9
$USERI1
 70
     0
  9
$USERI2
 70
     0
  9
$USERI3
 70
     0
  9
$USERI4
 70
     0
  9
$USERI5
 70
     0
  9
$USERR1
 40
0.0
  9
$USERR2
 40
0.0
  9
$USERR3
 40
0.0
  9
$USERR4
 40
0.0
  9
$USERR5
 40
0.0
  9
$WORLDVIEW
 70
     1
  9
$SHADEDGE
 70
     3
  9
$SHADEDIF
 70
    70
  9
$TILEMODE
 70
     1
  9
$MAXACTVP
 70
    16
  9
$PINSBASE
 10
2220.404641079056
 20
50.00000000000001
 30
2810.473195709564
  9
$PLIMCHECK
 70
     0
  9
$PEXTMIN
 10
1.000000000000000E+20
 20
1.000000000000000E+20
 30
1.000000000000000E+20
  9
$PEXTMAX
 10
-1.000000000000000E+20
 20
-1.000000000000000E+20
 30
-1.000000000000000E+20
  9
$PLIMMIN
 10
0.0
 20
0.0
  9
$PLIMMAX
 10
12.0
 20
9.0
  9
$UNITMODE
 70
     0
  9
$VISRETAIN
 70
     0
  9
$PLINEGEN
 70
     0
  9
$PSLTSCALE
 70
     1
  9
$TREEDEPTH
 70
  3020
  9
$CMLSTYLE
  2
Standard
  9
$CMLJUST
 70
     0
  9
$CMLSCALE
 40
1.0
  9
$PROXYGRAPHICS
 70
     1
  9
$MEASUREMENT
 70
     0
  9
$CELWEIGHT
370
    -1
  9
$ENDCAPS
280
     0
  9
$JOINSTYLE
280
     0
  9
$LWDISPLAY
290
     0
  9
$INSUNITS
 70
     0
  9
$HYPERLINKBASE
  1

  9
$STYLESHEET
  1

  9
$XEDIT
290
     1
  9
$CEPSNTYPE
380
     0
  9
$PSTYLEMODE
290
     1
  9
$FINGERPRINTGUID
  2
{163B3DB8-C590-45E7-8968-942B4C9A560A}
  9
$VERSIONGUID
  2
{05F1BB3D-8653-4DF1-ADC6-43D0F8E2ABC9}
  9
$EXTNAMES
290
     1
  9
$PSVPSCALE
 40
0.0
  9
$OLESTARTUP
290
     0
  9
$SORTENTS
280
   127
  9
$INDEXCTL
280
     0
  9
$HIDETEXT
280
     1
  9
$XCLIPFRAME
290
     0
  9
$HALOGAP
280
     0
  9
$OBSCOLOR
 70
   257
  9
$OBSLTYPE
280
     0
  9
$INTERSECTIONDISPLAY
280
     0
  9
$INTERSECTIONCOLOR
 70
   257
  9
$DIMASSOC
280
     2
  9
$PROJECTNAME
  1

  0
ENDSEC
  0
SECTION
  2
CLASSES
  0
CLASS
  1
ACDBDICTIONARYWDFLT
  2
AcDbDictionaryWithDefault
  3
ObjectDBX Classes
 90
        0
 91
        1
280
     0
281
     0
  0
CLASS
  1
DICTIONARYVAR
  2
AcDbDictionaryVar
  3
ObjectDBX Classes
 90
        0
 91
        8
280
     0
281
     0
  0
CLASS
  1
DIMASSOC
  2
AcDbDimAssoc
  3
"AcDbDimAssoc|Product Desc:     AcDim ARX App For Dimension|Company:          Autodesk, Inc.|WEB Address:      www.autodesk.com"
 90
        0
 91
       11
280
     0
281
     0
  0
CLASS
  1
MATERIAL
  2
AcDbMaterial
  3
ObjectDBX Classes
 90
     1153
 91
        3
280
     0
281
     0
  0
CLASS
  1
VISUALSTYLE
  2
AcDbVisualStyle
  3
ObjectDBX Classes
 90
     4095
 91
       16
280
     0
281
     0
  0
CLASS
  1
TABLESTYLE
  2
AcDbTableStyle
  3
ObjectDBX Classes
 90
     4095
 91
        1
280
     0
281
     0
  0
CLASS
  1
SCALE
  2
AcDbScale
  3
ObjectDBX Classes
 90
     1153
 91
       34
280
     0
281
     0
  0
CLASS
  1
MLEADERSTYLE
  2
AcDbMLeaderStyle
  3
ACDB_MLEADERSTYLE_CLASS
 90
     4095
 91
        1
280
     0
281
     0
  0
CLASS
  1
CELLSTYLEMAP
  2
AcDbCellStyleMap
  3
ObjectDBX Classes
 90
     1152
 91
        2
280
     0
281
     0
  0
CLASS
  1
SORTENTSTABLE
  2
AcDbSortentsTable
  3
ObjectDBX Classes
 90
        0
 91
        1
280
     0
281
     0
  0
CLASS
  1
ACDB_TEXTOBJECTCONTEXTDATA_CLASS
  2
AcDbTextObjectContextData
  3
ObjectDBX Classes
 90
     1153
 91
        0
280
     0
281
     0
  0
CLASS
  1
SOLID_BACKGROUND
  2
AcDbSolidBackground
  3
SCENEOE
 90
     4095
 91
        0
280
     0
281
     0
  0
CLASS
  1
NPOCOLLECTION
  2
AcDbImpNonPersistentObjectsCollection
  3
ObjectDBX Classes
 90
     1153
 91
        0
280
     0
281
     0
  0
ENDSEC
  0
SECTION
  2
TABLES
  0
TABLE
  2
VPORT
  5
2F
102
{ACAD_XDICTIONARY
360
33
102
}
330
0
100
AcDbSymbolTable
 70
     1
  0
VPORT
  5
30
330
2F
100
AcDbSymbolTableRecord
100
AcDbViewportTableRecord
  2
*Active
 70
     0
 10
0.0
 20
0.0
 11
1.0
 21
1.0
 12
411.0456566578259
 22
779.7426105299418
 13
0.0
 23
0.0
 14
1.0
 24
1.0
 15
0.0
 25
0.0
 16
0.0
 26
0.0
 36
1.0
 17
0.0
 27
0.0
 37
0.0
 40
131.1162531202992
 41
1.889
 42
50.0
 43
0.0
 44
0.0
 50
0.0
 51
0.0
 71
     0
 72
 10000
 73
     1
 74
     0
 75
     0
 76
     0
 77
     0
 78
     0
281
     0
 65
     1
110
0.0
120
0.0
130
0.0
111
1.0
121
0.0
131
0.0
112
0.0
122
1.0
132
0.0
 79
     0
146
0.0
  0
ENDTAB
  0
TABLE
  2
LTYPE
  5
2A
330
0
100
AcDbSymbolTable
 70
     2
  0
LTYPE
  5
2B
330
2A
100
AcDbSymbolTableRecord
100
AcDbLinetypeTableRecord
  2
ByBlock
 70
     0
  3

 72
    65
 73
     0
 40
0.0
  0
LTYPE
  5
2C
330
2A
100
AcDbSymbolTableRecord
100
AcDbLinetypeTableRecord
  2
ByLayer
 70
     0
  3

 72
    65
 73
     0
 40
0.0
  0
LTYPE
  5
16
330
2A
100
AcDbSymbolTableRecord
100
AcDbLinetypeTableRecord
  2
CONTINUOUS
 70
     0
  3
Solid line
 72
    65
 73
     0
 40
0.0
  0
LTYPE
  5
90
330
2A
100
AcDbSymbolTableRecord
100
AcDbLinetypeTableRecord
  2
CENTER
 70
     0
  3
____ _ ____ _ ____ _ ____ _ ____ _ ____ _ ____ 
 72
    65
 73
     4
 40
2.0
 49
1.25
 74
     0
 49
-0.25
 74
     0
 49
0.25
 74
     0
 49
-0.25
 74
     0
  0
ENDTAB
  0
TABLE
  2
LAYER
  5
21
102
{ACAD_XDICTIONARY
360
22
102
}
330
0
100
AcDbSymbolTable
 70
     4
  0
LAYER
  5
7
102
{ACAD_XDICTIONARY
360
8
102
}
330
21
100
AcDbSymbolTableRecord
100
AcDbLayerTableRecord
  2
0
 70
     0
 62
     7
  6
CONTINUOUS
370
    -3
390
A
  0
LAYER
  5
8D
102
{ACAD_XDICTIONARY
360
8E
102
}
330
21
100
AcDbSymbolTableRecord
100
AcDbLayerTableRecord
  2
CL
 70
     0
 62
     1
  6
CENTER
370
    -3
390
A
  0
LAYER
  5
9B
330
21
100
AcDbSymbolTableRecord
100
AcDbLayerTableRecord
  2
DEFPOINTS
 70
     0
 62
     7
  6
CONTINUOUS
290
     0
370
    -3
390
A
  0
LAYER
  5
5C
102
{ACAD_XDICTIONARY
360
5D
102
}
330
21
100
AcDbSymbolTableRecord
100
AcDbLayerTableRecord
  2
TEXT
 70
     0
 62
    84
  6
CONTINUOUS
370
    -3
390
A
  0
ENDTAB
  0
TABLE
  2
STYLE
  5
27
330
0
100
AcDbSymbolTable
 70
     2
  0
STYLE
  5
28
330
27
100
AcDbSymbolTableRecord
100
AcDbTextStyleTableRecord
  2
STANDARD
 70
     0
 40
0.0
 41
0.8
 50
0.0
 71
     0
 42
4.0
  3
TXT.shx
  4

  0
STYLE
  5
37
330
27
100
AcDbSymbolTableRecord
100
AcDbTextStyleTableRecord
  2
GHS
 70
     0
 40
0.0
 41
0.6
 50
0.0
 71
     0
 42
4.0
  3
ROMANS
  4
GHS
  0
ENDTAB
  0
TABLE
  2
VIEW
  5
2D
330
0
100
AcDbSymbolTable
 70
     0
  0
ENDTAB
  0
TABLE
  2
UCS
  5
2E
330
0
100
AcDbSymbolTable
 70
     0
  0
ENDTAB
  0
TABLE
  2
APPID
  5
34
330
0
100
AcDbSymbolTable
 70
     9
  0
APPID
  5
26
330
34
100
AcDbSymbolTableRecord
100
AcDbRegAppTableRecord
  2
ACAD
 70
     0
  0
APPID
  5
38
330
34
100
AcDbSymbolTableRecord
100
AcDbRegAppTableRecord
  2
ACAD_DSTYLE_DIMJAG
 70
     0
  0
APPID
  5
39
330
34
100
AcDbSymbolTableRecord
100
AcDbRegAppTableRecord
  2
ACAD_DSTYLE_DIMTALN
 70
     0
  0
APPID
  5
1A
330
34
100
AcDbSymbolTableRecord
100
AcDbRegAppTableRecord
  2
ACAD_PSEXT
 70
     0
  0
APPID
  5
42
330
34
100
AcDbSymbolTableRecord
100
AcDbRegAppTableRecord
  2
ACAD_DSTYLE_DIMBREAK
 70
     0
  0
APPID
  5
1F9
330
34
100
AcDbSymbolTableRecord
100
AcDbRegAppTableRecord
  2
ACAD_DSTYLE_DIM_LINETYPE
 70
     0
  0
APPID
  5
1FA
330
34
100
AcDbSymbolTableRecord
100
AcDbRegAppTableRecord
  2
ACAD_DSTYLE_DIM_EXT1_LINETYPE
 70
     0
  0
APPID
  5
1FB
330
34
100
AcDbSymbolTableRecord
100
AcDbRegAppTableRecord
  2
ACAD_DSTYLE_DIM_EXT2_LINETYPE
 70
     0
  0
APPID
  5
21C
330
34
100
AcDbSymbolTableRecord
100
AcDbRegAppTableRecord
  2
ACAD_MLEADERVER
 70
     0
  0
ENDTAB
  0
TABLE
  2
DIMSTYLE
  5
35
330
0
100
AcDbSymbolTable
 70
     5
100
AcDbDimStyleTable
 71
     5
340
36
340
3A
340
3B
340
43
340
44
  0
DIMSTYLE
105
36
102
{ACAD_REACTORS
330
154
330
142
330
91
330
9F
330
D8
330
E9
330
FA
330
109
330
11A
330
129
330
165
330
1C3
330
1D4
102
}
330
35
100
AcDbSymbolTableRecord
100
AcDbDimStyleTableRecord
  2
Standard
 70
     0
 41
4.0
 42
1.0
 43
1.0
 44
1.0
 73
     0
 74
     0
 77
     1
 78
     8
140
5.0
141
0.5
147
1.5
172
     1
176
   256
177
   256
178
   256
271
     3
272
     3
340
37
371
    -1
372
    -1
1001
ACAD_DSTYLE_DIMJAG
1070
   388
1040
1.5
1001
ACAD_DSTYLE_DIMTALN
1070
   392
1070
     0
1001
ACAD_DSTYLE_DIM_LINETYPE
1070
   380
1005
2C
1001
ACAD_DSTYLE_DIM_EXT1_LINETYPE
1070
   381
1005
2C
1001
ACAD_DSTYLE_DIM_EXT2_LINETYPE
1070
   382
1005
2C
  0
DIMSTYLE
105
3A
330
35
100
AcDbSymbolTableRecord
100
AcDbDimStyleTableRecord
  2
ISO-25
 70
     0
 41
4.0
 42
2.0
 43
1.0
 44
1.0
 73
     0
 74
     0
 77
     1
 78
     8
 79
     2
140
4.0
141
0.5
143
0.03937007874016
147
1.5
171
     3
172
     1
176
   256
177
   256
178
   256
179
     4
271
     3
272
     3
274
     3
283
     0
284
     8
340
37
371
    -1
372
    -1
1001
ACAD_DSTYLE_DIMJAG
1070
   388
1040
1.5
1001
ACAD_DSTYLE_DIMTALN
1070
   392
1070
     0
1001
ACAD_DSTYLE_DIM_LINETYPE
1070
   380
1005
2C
1001
ACAD_DSTYLE_DIM_EXT1_LINETYPE
1070
   381
1005
2C
1001
ACAD_DSTYLE_DIM_EXT2_LINETYPE
1070
   382
1005
2C
  0
DIMSTYLE
105
43
330
35
100
AcDbSymbolTableRecord
100
AcDbDimStyleTableRecord
  2
2X
 70
     0
 41
3.0
 42
1.0
 43
1.0
 44
1.0
 73
     0
 74
     0
 77
     1
 78
     8
 79
     2
140
3.0
141
0.5
144
0.5
147
1.0
172
     1
176
   256
177
   256
178
   256
179
     3
271
     3
272
     3
340
37
371
    -1
372
    -1
1001
ACAD_DSTYLE_DIMBREAK
1070
   391
1040
0.125
1001
ACAD_DSTYLE_DIMJAG
1070
   388
1040
1.5
1001
ACAD_DSTYLE_DIMTALN
1070
   392
1070
     0
1001
ACAD_DSTYLE_DIM_LINETYPE
1070
   380
1005
2C
1001
ACAD_DSTYLE_DIM_EXT1_LINETYPE
1070
   381
1005
2C
1001
ACAD_DSTYLE_DIM_EXT2_LINETYPE
1070
   382
1005
2C
  0
DIMSTYLE
105
44
330
35
100
AcDbSymbolTableRecord
100
AcDbDimStyleTableRecord
  2
1X
 70
     0
 41
3.0
 42
1.0
 43
1.0
 44
1.0
 73
     0
 74
     0
 77
     1
 78
     8
140
3.0
141
0.5
147
1.0
172
     1
176
   256
177
   256
178
   256
271
     3
272
     3
340
37
371
    -1
372
    -1
1001
ACAD_DSTYLE_DIMBREAK
1070
   391
1040
0.125
1001
ACAD_DSTYLE_DIMJAG
1070
   388
1040
1.5
1001
ACAD_DSTYLE_DIMTALN
1070
   392
1070
     0
1001
ACAD_DSTYLE_DIM_LINETYPE
1070
   380
1005
2C
1001
ACAD_DSTYLE_DIM_EXT1_LINETYPE
1070
   381
1005
2C
1001
ACAD_DSTYLE_DIM_EXT2_LINETYPE
1070
   382
1005
2C
  0
DIMSTYLE
105
3B
330
35
100
AcDbSymbolTableRecord
100
AcDbDimStyleTableRecord
  2
CATALOG
 70
     0
 41
2.5
 42
1.0
 43
1.0
 44
1.0
 73
     0
 74
     0
 77
     1
 78
     8
 79
     2
140
3.0
141
0.5
147
1.0
172
     1
176
   256
177
   256
178
   256
179
     3
271
     3
272
     3
340
37
342
3C
371
    -1
372
    -1
1001
ACAD_DSTYLE_DIMBREAK
1070
   391
1040
0.125
1001
ACAD_DSTYLE_DIMJAG
1070
   388
1040
1.5
1001
ACAD_DSTYLE_DIMTALN
1070
   392
1070
     0
1001
ACAD_DSTYLE_DIM_LINETYPE
1070
   380
1005
2C
1001
ACAD_DSTYLE_DIM_EXT1_LINETYPE
1070
   381
1005
2C
1001
ACAD_DSTYLE_DIM_EXT2_LINETYPE
1070
   382
1005
2C
  0
ENDTAB
  0
TABLE
  2
BLOCK_RECORD
  5
1
330
0
100
AcDbSymbolTable
 70
    14
  0
BLOCK_RECORD
  5
2
102
{ACAD_XDICTIONARY
360
3
102
}
330
1
100
AcDbSymbolTableRecord
100
AcDbBlockTableRecord
  2
*Model_Space
340
18
  0
BLOCK_RECORD
  5
1B
102
{ACAD_XDICTIONARY
360
1C
102
}
330
1
100
AcDbSymbolTableRecord
100
AcDbBlockTableRecord
  2
*Paper_Space
340
20
  0
BLOCK_RECORD
  5
92
330
1
100
AcDbSymbolTableRecord
100
AcDbBlockTableRecord
  2
*D0
340
0
  0
BLOCK_RECORD
  5
A0
330
1
100
AcDbSymbolTableRecord
100
AcDbBlockTableRecord
  2
*D1
340
0
  0
BLOCK_RECORD
  5
157
330
1
100
AcDbSymbolTableRecord
100
AcDbBlockTableRecord
  2
*D2
340
0
  0
BLOCK_RECORD
  5
145
330
1
100
AcDbSymbolTableRecord
100
AcDbBlockTableRecord
  2
*D3
340
0
  0
BLOCK_RECORD
  5
DB
330
1
100
AcDbSymbolTableRecord
100
AcDbBlockTableRecord
  2
*D4
340
0
  0
BLOCK_RECORD
  5
EC
330
1
100
AcDbSymbolTableRecord
100
AcDbBlockTableRecord
  2
*D5
340
0
  0
BLOCK_RECORD
  5
FD
330
1
100
AcDbSymbolTableRecord
100
AcDbBlockTableRecord
  2
*D6
340
0
  0
BLOCK_RECORD
  5
10C
330
1
100
AcDbSymbolTableRecord
100
AcDbBlockTableRecord
  2
*D7
340
0
  0
BLOCK_RECORD
  5
11D
330
1
100
AcDbSymbolTableRecord
100
AcDbBlockTableRecord
  2
*D8
340
0
  0
BLOCK_RECORD
  5
12C
330
1
100
AcDbSymbolTableRecord
100
AcDbBlockTableRecord
  2
*D9
340
0
  0
BLOCK_RECORD
  5
168
330
1
100
AcDbSymbolTableRecord
100
AcDbBlockTableRecord
  2
*D10
340
0
  0
BLOCK_RECORD
  5
1C6
330
1
100
AcDbSymbolTableRecord
100
AcDbBlockTableRecord
  2
*D11
340
0
  0
BLOCK_RECORD
  5
1D7
330
1
100
AcDbSymbolTableRecord
100
AcDbBlockTableRecord
  2
*D12
340
0
  0
BLOCK_RECORD
  5
3C
330
1
100
AcDbSymbolTableRecord
100
AcDbBlockTableRecord
  2
_Open30
340
0
  0
ENDTAB
  0
ENDSEC
  0
SECTION
  2
BLOCKS
  0
BLOCK
  5
6
330
2
100
AcDbEntity
  8
0
100
AcDbBlockBegin
  2
*Model_Space
 70
     0
 10
0.0
 20
0.0
 30
0.0
  3
*Model_Space
  1

  0
ENDBLK
  5
17
330
2
100
AcDbEntity
  8
0
100
AcDbBlockEnd
  0
BLOCK
  5
1E
330
1B
100
AcDbEntity
 67
     1
  8
0
100
AcDbBlockBegin
  2
*Paper_Space
 70
     0
 10
0.0
 20
0.0
 30
0.0
  3
*Paper_Space
  1

  0
ENDBLK
  5
1F
330
1B
100
AcDbEntity
 67
     1
  8
0
100
AcDbBlockEnd
  0
BLOCK
  5
93
330
92
100
AcDbEntity
  8
0
100
AcDbBlockBegin
  2
*D0
 70
     1
 10
0.0
 20
0.0
 30
0.0
  3
*D0
  1

  0
LINE
  5
94
330
92
100
AcDbEntity
  8
TEXT
100
AcDbLine
 10
444.5833369920011
 20
774.4499999999995
 30
0.0
 11
521.9833369920015
 21
774.4499999999995
 31
0.0
  0
LINE
  5
95
330
92
100
AcDbEntity
  8
TEXT
100
AcDbLine
 10
444.5833369920011
 20
811.5499999999995
 30
0.0
 11
521.9833369920015
 21
811.5499999999995
 31
0.0
  0
LINE
  5
96
330
92
100
AcDbEntity
  8
TEXT
100
AcDbLine
 10
520.9833369920014
 20
777.4499999999995
 30
0.0
 11
520.9833369920014
 21
808.5499999999994
 31
0.0
  0
SOLID
  5
97
330
92
100
AcDbEntity
  8
TEXT
100
AcDbTrace
 10
520.4833369920014
 20
777.4499999999995
 30
0.0
 11
521.4833369920014
 21
777.4499999999995
 31
0.0
 12
520.9833369920014
 22
774.4499999999995
 32
0.0
 13
520.9833369920014
 23
774.4499999999995
 33
0.0
  0
SOLID
  5
98
330
92
100
AcDbEntity
  8
TEXT
100
AcDbTrace
 10
520.4833369920014
 20
808.5499999999994
 30
0.0
 11
521.4833369920014
 21
808.5499999999994
 31
0.0
 12
520.9833369920014
 22
811.5499999999995
 32
0.0
 13
520.9833369920014
 23
811.5499999999995
 33
0.0
  0
MTEXT
  5
99
330
92
100
AcDbEntity
  8
TEXT
100
AcDbMText
 10
517.4833369920012
 20
792.9999999999995
 30
0.0
 40
4.0
 41
0.0
 71
     5
 72
     1
  1
\A1;%%C37
  7
GHS
 11
0.0000000000000001
 21
1.0
 31
0.0
 73
     1
 44
1.0
  0
POINT
  5
9A
330
92
100
AcDbEntity
  8
DEFPOINTS
 62
     0
100
AcDbPoint
 10
443.5833369920011
 20
774.4499999999995
 30
0.0
  0
POINT
  5
9C
330
92
100
AcDbEntity
  8
DEFPOINTS
 62
     0
100
AcDbPoint
 10
443.5833369920011
 20
811.5499999999995
 30
0.0
  0
POINT
  5
9D
330
92
100
AcDbEntity
  8
DEFPOINTS
 62
     0
100
AcDbPoint
 10
520.9833369920014
 20
811.5499999999995
 30
0.0
  0
ENDBLK
  5
9E
330
92
100
AcDbEntity
  8
0
100
AcDbBlockEnd
  0
BLOCK
  5
A1
330
A0
100
AcDbEntity
  8
0
100
AcDbBlockBegin
  2
*D1
 70
     1
 10
0.0
 20
0.0
 30
0.0
  3
*D1
  1

  0
LINE
  5
A2
330
A0
100
AcDbEntity
  8
TEXT
100
AcDbLine
 10
493.0833369920012
 20
775.9999999999994
 30
0.0
 11
512.9833369920016
 21
775.9999999999994
 31
0.0
  0
LINE
  5
A3
330
A0
100
AcDbEntity
  8
TEXT
100
AcDbLine
 10
492.5833369920012
 20
809.9999999999994
 30
0.0
 11
512.9833369920016
 21
809.9999999999994
 31
0.0
  0
LINE
  5
A4
330
A0
100
AcDbEntity
  8
TEXT
100
AcDbLine
 10
511.9833369920014
 20
778.9999999999994
 30
0.0
 11
511.9833369920014
 21
806.9999999999994
 31
0.0
  0
SOLID
  5
A5
330
A0
100
AcDbEntity
  8
TEXT
100
AcDbTrace
 10
511.4833369920014
 20
778.9999999999994
 30
0.0
 11
512.4833369920016
 21
778.9999999999994
 31
0.0
 12
511.9833369920014
 22
775.9999999999994
 32
0.0
 13
511.9833369920014
 23
775.9999999999994
 33
0.0
  0
SOLID
  5
A6
330
A0
100
AcDbEntity
  8
TEXT
100
AcDbTrace
 10
511.4833369920014
 20
806.9999999999994
 30
0.0
 11
512.4833369920016
 21
806.9999999999994
 31
0.0
 12
511.9833369920014
 22
809.9999999999994
 32
0.0
 13
511.9833369920014
 23
809.9999999999994
 33
0.0
  0
MTEXT
  5
A7
330
A0
100
AcDbEntity
  8
TEXT
100
AcDbMText
 10
508.4833369920013
 20
792.9999999999995
 30
0.0
 40
4.0
 41
0.0
 71
     5
 72
     1
  1
\A1;%%C34
  7
GHS
 11
0.0000000000000001
 21
1.0
 31
0.0
 73
     1
 44
1.0
  0
POINT
  5
A8
330
A0
100
AcDbEntity
  8
DEFPOINTS
 62
     0
100
AcDbPoint
 10
492.0833369920012
 20
775.9999999999994
 30
0.0
  0
POINT
  5
A9
330
A0
100
AcDbEntity
  8
DEFPOINTS
 62
     0
100
AcDbPoint
 10
491.5833369920012
 20
809.9999999999994
 30
0.0
  0
POINT
  5
AA
330
A0
100
AcDbEntity
  8
DEFPOINTS
 62
     0
100
AcDbPoint
 10
511.9833369920014
 20
809.9999999999994
 30
0.0
  0
ENDBLK
  5
AB
330
A0
100
AcDbEntity
  8
0
100
AcDbBlockEnd
  0
BLOCK
  5
158
330
157
100
AcDbEntity
  8
0
100
AcDbBlockBegin
  2
*D2
 70
     1
 10
0.0
 20
0.0
 30
0.0
  3
*D2
  1

  0
LINE
  5
159
330
157
100
AcDbEntity
  8
TEXT
100
AcDbLine
 10
422.5833369920011
 20
793.0499999999995
 30
0.0
 11
422.5833369920011
 21
783.0
 31
0.0
  0
LINE
  5
15A
330
157
100
AcDbEntity
  8
TEXT
100
AcDbLine
 10
417.4833369920009
 20
793.5499999999996
 30
0.0
 11
417.4833369920009
 21
783.0
 31
0.0
  0
LINE
  5
15B
330
157
100
AcDbEntity
  8
TEXT
100
AcDbLine
 10
425.5833369920011
 20
784.0
 30
0.0
 11
428.5833369920011
 21
784.0
 31
0.0
  0
LINE
  5
15C
330
157
100
AcDbEntity
  8
TEXT
100
AcDbLine
 10
414.483336992001
 20
784.0
 30
0.0
 11
404.1404798491438
 21
784.0
 31
0.0
  0
LINE
  5
15D
330
157
100
AcDbEntity
  8
TEXT
100
AcDbLine
 10
422.5833369920011
 20
784.0
 30
0.0
 11
417.4833369920009
 21
784.0
 31
0.0
  0
SOLID
  5
15E
330
157
100
AcDbEntity
  8
TEXT
100
AcDbTrace
 10
425.5833369920011
 20
784.4999999999999
 30
0.0
 11
425.5833369920011
 21
783.4999999999999
 31
0.0
 12
422.5833369920011
 22
784.0
 32
0.0
 13
422.5833369920011
 23
784.0
 33
0.0
  0
SOLID
  5
15F
330
157
100
AcDbEntity
  8
TEXT
100
AcDbTrace
 10
414.483336992001
 20
784.4999999999999
 30
0.0
 11
414.483336992001
 21
783.4999999999999
 31
0.0
 12
417.4833369920009
 22
784.0
 32
0.0
 13
417.4833369920009
 23
784.0
 33
0.0
  0
MTEXT
  5
160
330
157
100
AcDbEntity
  8
TEXT
100
AcDbMText
 10
407.8119084205724
 20
787.5
 30
0.0
 40
4.0
 41
0.0
 71
     5
 72
     1
  1
\A1;5.1
  7
GHS
 73
     1
 44
1.0
  0
POINT
  5
161
330
157
100
AcDbEntity
  8
DEFPOINTS
 62
     0
100
AcDbPoint
 10
422.5833369920011
 20
794.0499999999996
 30
0.0
  0
POINT
  5
162
330
157
100
AcDbEntity
  8
DEFPOINTS
 62
     0
100
AcDbPoint
 10
417.4833369920009
 20
794.5499999999996
 30
0.0
  0
POINT
  5
163
330
157
100
AcDbEntity
  8
DEFPOINTS
 62
     0
100
AcDbPoint
 10
417.4833369920009
 20
784.0
 30
0.0
  0
ENDBLK
  5
164
330
157
100
AcDbEntity
  8
0
100
AcDbBlockEnd
  0
BLOCK
  5
146
330
145
100
AcDbEntity
  8
0
100
AcDbBlockBegin
  2
*D3
 70
     1
 10
0.0
 20
0.0
 30
0.0
  3
*D3
  1

  0
LINE
  5
147
330
145
100
AcDbEntity
  8
TEXT
100
AcDbLine
 10
423.5833369920011
 20
794.0499999999996
 30
0.0
 11
436.0
 21
794.0499999999996
 31
0.0
  0
LINE
  5
148
330
145
100
AcDbEntity
  8
TEXT
100
AcDbLine
 10
423.5833369920011
 20
805.9499999999996
 30
0.0
 11
436.0
 21
805.9499999999996
 31
0.0
  0
LINE
  5
149
330
145
100
AcDbEntity
  8
TEXT
100
AcDbLine
 10
435.0
 20
797.0499999999995
 30
0.0
 11
435.0
 21
802.9499999999996
 31
0.0
  0
SOLID
  5
14A
330
145
100
AcDbEntity
  8
TEXT
100
AcDbTrace
 10
434.4999999999999
 20
797.0499999999995
 30
0.0
 11
435.5
 21
797.0499999999995
 31
0.0
 12
435.0
 22
794.0499999999996
 32
0.0
 13
435.0
 23
794.0499999999996
 33
0.0
  0
SOLID
  5
14B
330
145
100
AcDbEntity
  8
TEXT
100
AcDbTrace
 10
434.4999999999999
 20
802.9499999999996
 30
0.0
 11
435.5
 21
802.9499999999996
 31
0.0
 12
435.0
 22
805.9499999999996
 32
0.0
 13
435.0
 23
805.9499999999996
 33
0.0
  0
MTEXT
  5
14C
330
145
100
AcDbEntity
  8
TEXT
100
AcDbMText
 10
431.4999999999998
 20
799.9999999999998
 30
0.0
 40
4.0
 41
0.0
 71
     5
 72
     1
  1
\A1;%%c12
  7
GHS
 11
0.0000000000000001
 21
1.0
 31
0.0
 73
     1
 44
1.0
  0
POINT
  5
14D
330
145
100
AcDbEntity
  8
DEFPOINTS
 62
     0
100
AcDbPoint
 10
422.5833369920011
 20
794.0499999999996
 30
0.0
  0
POINT
  5
14E
330
145
100
AcDbEntity
  8
DEFPOINTS
 62
     0
100
AcDbPoint
 10
422.5833369920011
 20
805.9499999999996
 30
0.0
  0
POINT
  5
14F
330
145
100
AcDbEntity
  8
DEFPOINTS
 62
     0
100
AcDbPoint
 10
435.0
 20
805.9499999999996
 30
0.0
  0
ENDBLK
  5
150
330
145
100
AcDbEntity
  8
0
100
AcDbBlockEnd
  0
BLOCK
  5
DC
330
DB
100
AcDbEntity
  8
0
100
AcDbBlockBegin
  2
*D4
 70
     1
 10
0.0
 20
0.0
 30
0.0
  3
*D4
  1

  0
LINE
  5
DD
330
DB
100
AcDbEntity
  8
TEXT
100
AcDbLine
 10
401.0833369920011
 20
796.9999999999997
 30
0.0
 11
391.9999999999997
 21
796.9999999999997
 31
0.0
  0
LINE
  5
DE
330
DB
100
AcDbEntity
  8
TEXT
100
AcDbLine
 10
400.5833369920011
 20
802.4999999999996
 30
0.0
 11
391.9999999999997
 21
802.4999999999996
 31
0.0
  0
LINE
  5
DF
330
DB
100
AcDbEntity
  8
TEXT
100
AcDbLine
 10
392.9999999999997
 20
793.9999999999996
 30
0.0
 11
392.9999999999997
 21
790.9999999999996
 31
0.0
  0
LINE
  5
E0
330
DB
100
AcDbEntity
  8
TEXT
100
AcDbLine
 10
392.9999999999997
 20
805.4999999999996
 30
0.0
 11
392.9999999999997
 21
808.4999999999997
 31
0.0
  0
LINE
  5
E1
330
DB
100
AcDbEntity
  8
TEXT
100
AcDbLine
 10
392.9999999999997
 20
796.9999999999997
 30
0.0
 11
392.9999999999997
 21
802.4999999999996
 31
0.0
  0
SOLID
  5
E2
330
DB
100
AcDbEntity
  8
TEXT
100
AcDbTrace
 10
392.4999999999997
 20
793.9999999999996
 30
0.0
 11
393.4999999999996
 21
793.9999999999996
 31
0.0
 12
392.9999999999997
 22
796.9999999999997
 32
0.0
 13
392.9999999999997
 23
796.9999999999997
 33
0.0
  0
SOLID
  5
E3
330
DB
100
AcDbEntity
  8
TEXT
100
AcDbTrace
 10
392.4999999999997
 20
805.4999999999996
 30
0.0
 11
393.4999999999996
 21
805.4999999999996
 31
0.0
 12
392.9999999999997
 22
802.4999999999996
 32
0.0
 13
392.9999999999997
 23
802.4999999999996
 33
0.0
  0
MTEXT
  5
E4
330
DB
100
AcDbEntity
  8
TEXT
100
AcDbMText
 10
389.4999999999996
 20
799.7499999999997
 30
0.0
 40
4.0
 41
0.0
 71
     5
 72
     1
  1
\A1;5.5
  7
GHS
 11
0.0000000000000001
 21
1.0
 31
0.0
 73
     1
 44
1.0
  0
POINT
  5
E5
330
DB
100
AcDbEntity
  8
DEFPOINTS
 62
     0
100
AcDbPoint
 10
402.0833369920011
 20
796.9999999999997
 30
0.0
  0
POINT
  5
E6
330
DB
100
AcDbEntity
  8
DEFPOINTS
 62
     0
100
AcDbPoint
 10
401.5833369920011
 20
802.4999999999996
 30
0.0
  0
POINT
  5
E7
330
DB
100
AcDbEntity
  8
DEFPOINTS
 62
     0
100
AcDbPoint
 10
392.9999999999997
 20
802.4999999999996
 30
0.0
  0
ENDBLK
  5
E8
330
DB
100
AcDbEntity
  8
0
100
AcDbBlockEnd
  0
BLOCK
  5
ED
330
EC
100
AcDbEntity
  8
0
100
AcDbBlockBegin
  2
*D5
 70
     1
 10
0.0
 20
0.0
 30
0.0
  3
*D5
  1

  0
LINE
  5
EE
330
EC
100
AcDbEntity
  8
TEXT
100
AcDbLine
 10
401.0833369920011
 20
796.9999999999997
 30
0.0
 11
382.9999999999996
 21
796.9999999999997
 31
0.0
  0
LINE
  5
EF
330
EC
100
AcDbEntity
  8
TEXT
100
AcDbLine
 10
412.5833369920011
 20
802.9999999999997
 30
0.0
 11
382.9999999999996
 21
802.9999999999997
 31
0.0
  0
LINE
  5
F0
330
EC
100
AcDbEntity
  8
TEXT
100
AcDbLine
 10
383.9999999999997
 20
793.9999999999996
 30
0.0
 11
383.9999999999997
 21
790.9999999999996
 31
0.0
  0
LINE
  5
F1
330
EC
100
AcDbEntity
  8
TEXT
100
AcDbLine
 10
383.9999999999997
 20
805.9999999999996
 30
0.0
 11
383.9999999999997
 21
808.9999999999996
 31
0.0
  0
LINE
  5
F2
330
EC
100
AcDbEntity
  8
TEXT
100
AcDbLine
 10
383.9999999999997
 20
796.9999999999997
 30
0.0
 11
383.9999999999997
 21
802.9999999999997
 31
0.0
  0
SOLID
  5
F3
330
EC
100
AcDbEntity
  8
TEXT
100
AcDbTrace
 10
383.4999999999997
 20
793.9999999999996
 30
0.0
 11
384.4999999999997
 21
793.9999999999996
 31
0.0
 12
383.9999999999997
 22
796.9999999999997
 32
0.0
 13
383.9999999999997
 23
796.9999999999997
 33
0.0
  0
SOLID
  5
F4
330
EC
100
AcDbEntity
  8
TEXT
100
AcDbTrace
 10
383.4999999999997
 20
805.9999999999996
 30
0.0
 11
384.4999999999997
 21
805.9999999999996
 31
0.0
 12
383.9999999999997
 22
802.9999999999997
 32
0.0
 13
383.9999999999997
 23
802.9999999999997
 33
0.0
  0
MTEXT
  5
F5
330
EC
100
AcDbEntity
  8
TEXT
100
AcDbMText
 10
380.4999999999996
 20
799.9999999999998
 30
0.0
 40
4.0
 41
0.0
 71
     5
 72
     1
  1
\A1;%%C6
  7
GHS
 11
0.0000000000000001
 21
1.0
 31
0.0
 73
     1
 44
1.0
  0
POINT
  5
F6
330
EC
100
AcDbEntity
  8
DEFPOINTS
 62
     0
100
AcDbPoint
 10
402.0833369920011
 20
796.9999999999997
 30
0.0
  0
POINT
  5
F7
330
EC
100
AcDbEntity
  8
DEFPOINTS
 62
     0
100
AcDbPoint
 10
413.5833369920011
 20
802.9999999999997
 30
0.0
  0
POINT
  5
F8
330
EC
100
AcDbEntity
  8
DEFPOINTS
 62
     0
100
AcDbPoint
 10
383.9999999999997
 20
802.9999999999997
 30
0.0
  0
ENDBLK
  5
F9
330
EC
100
AcDbEntity
  8
0
100
AcDbBlockEnd
  0
BLOCK
  5
FE
330
FD
100
AcDbEntity
  8
0
100
AcDbBlockBegin
  2
*D6
 70
     1
 10
0.0
 20
0.0
 30
0.0
  3
*D6
  1

  0
LINE
  5
FF
330
FD
100
AcDbEntity
  8
TEXT
100
AcDbLine
 10
422.5833369920011
 20
811.8999999999994
 30
0.0
 11
422.5833369920011
 21
824.9999999999994
 31
0.0
  0
LINE
  5
100
330
FD
100
AcDbEntity
  8
TEXT
100
AcDbLine
 10
443.5833369920011
 20
812.5499999999993
 30
0.0
 11
443.5833369920011
 21
824.9999999999994
 31
0.0
  0
LINE
  5
101
330
FD
100
AcDbEntity
  8
TEXT
100
AcDbLine
 10
425.5833369920011
 20
823.9999999999994
 30
0.0
 11
440.5833369920011
 21
823.9999999999994
 31
0.0
  0
SOLID
  5
102
330
FD
100
AcDbEntity
  8
TEXT
100
AcDbTrace
 10
425.5833369920011
 20
824.4999999999993
 30
0.0
 11
425.5833369920011
 21
823.4999999999994
 31
0.0
 12
422.5833369920011
 22
823.9999999999994
 32
0.0
 13
422.5833369920011
 23
823.9999999999994
 33
0.0
  0
SOLID
  5
103
330
FD
100
AcDbEntity
  8
TEXT
100
AcDbTrace
 10
440.5833369920011
 20
824.4999999999993
 30
0.0
 11
440.5833369920011
 21
823.4999999999994
 31
0.0
 12
443.5833369920011
 22
823.9999999999994
 32
0.0
 13
443.5833369920011
 23
823.9999999999994
 33
0.0
  0
MTEXT
  5
104
330
FD
100
AcDbEntity
  8
TEXT
100
AcDbMText
 10
433.0833369920011
 20
827.4999999999995
 30
0.0
 40
4.0
 41
0.0
 71
     5
 72
     1
  1
\A1;L
  7
GHS
 73
     1
 44
1.0
  0
POINT
  5
105
330
FD
100
AcDbEntity
  8
DEFPOINTS
 62
     0
100
AcDbPoint
 10
422.5833369920011
 20
810.8999999999994
 30
0.0
  0
POINT
  5
106
330
FD
100
AcDbEntity
  8
DEFPOINTS
 62
     0
100
AcDbPoint
 10
443.5833369920011
 20
811.5499999999993
 30
0.0
  0
POINT
  5
107
330
FD
100
AcDbEntity
  8
DEFPOINTS
 62
     0
100
AcDbPoint
 10
443.5833369920011
 20
823.9999999999994
 30
0.0
  0
ENDBLK
  5
108
330
FD
100
AcDbEntity
  8
0
100
AcDbBlockEnd
  0
BLOCK
  5
10D
330
10C
100
AcDbEntity
  8
0
100
AcDbBlockBegin
  2
*D7
 70
     1
 10
0.0
 20
0.0
 30
0.0
  3
*D7
  1

  0
LINE
  5
10E
330
10C
100
AcDbEntity
  8
TEXT
100
AcDbLine
 10
491.5833369920012
 20
810.9999999999994
 30
0.0
 11
491.5833369920012
 21
824.9999999999994
 31
0.0
  0
LINE
  5
10F
330
10C
100
AcDbEntity
  8
TEXT
100
AcDbLine
 10
499.5833369920013
 20
795.9999999999994
 30
0.0
 11
499.5833369920013
 21
824.9999999999994
 31
0.0
  0
LINE
  5
110
330
10C
100
AcDbEntity
  8
TEXT
100
AcDbLine
 10
488.5833369920012
 20
823.9999999999994
 30
0.0
 11
485.5833369920012
 21
823.9999999999994
 31
0.0
  0
LINE
  5
111
330
10C
100
AcDbEntity
  8
TEXT
100
AcDbLine
 10
502.5833369920014
 20
823.9999999999994
 30
0.0
 11
505.5833369920013
 21
823.9999999999994
 31
0.0
  0
LINE
  5
112
330
10C
100
AcDbEntity
  8
TEXT
100
AcDbLine
 10
491.5833369920012
 20
823.9999999999994
 30
0.0
 11
499.5833369920013
 21
823.9999999999994
 31
0.0
  0
SOLID
  5
113
330
10C
100
AcDbEntity
  8
TEXT
100
AcDbTrace
 10
488.5833369920012
 20
824.4999999999993
 30
0.0
 11
488.5833369920012
 21
823.4999999999994
 31
0.0
 12
491.5833369920012
 22
823.9999999999994
 32
0.0
 13
491.5833369920012
 23
823.9999999999994
 33
0.0
  0
SOLID
  5
114
330
10C
100
AcDbEntity
  8
TEXT
100
AcDbTrace
 10
502.5833369920014
 20
824.4999999999993
 30
0.0
 11
502.5833369920014
 21
823.4999999999994
 31
0.0
 12
499.5833369920013
 22
823.9999999999994
 32
0.0
 13
499.5833369920013
 23
823.9999999999994
 33
0.0
  0
MTEXT
  5
115
330
10C
100
AcDbEntity
  8
TEXT
100
AcDbMText
 10
495.5833369920012
 20
827.4999999999995
 30
0.0
 40
4.0
 41
0.0
 71
     5
 72
     1
  1
\A1;8
  7
GHS
 73
     1
 44
1.0
  0
POINT
  5
116
330
10C
100
AcDbEntity
  8
DEFPOINTS
 62
     0
100
AcDbPoint
 10
491.5833369920012
 20
809.9999999999994
 30
0.0
  0
POINT
  5
117
330
10C
100
AcDbEntity
  8
DEFPOINTS
 62
     0
100
AcDbPoint
 10
499.5833369920013
 20
794.9999999999994
 30
0.0
  0
POINT
  5
118
330
10C
100
AcDbEntity
  8
DEFPOINTS
 62
     0
100
AcDbPoint
 10
499.5833369920013
 20
823.9999999999994
 30
0.0
  0
ENDBLK
  5
119
330
10C
100
AcDbEntity
  8
0
100
AcDbBlockEnd
  0
BLOCK
  5
11E
330
11D
100
AcDbEntity
  8
0
100
AcDbBlockBegin
  2
*D8
 70
     1
 10
0.0
 20
0.0
 30
0.0
  3
*D8
  1

  0
LINE
  5
11F
330
11D
100
AcDbEntity
  8
TEXT
100
AcDbLine
 10
401.5833369920011
 20
803.4999999999996
 30
0.0
 11
401.5833369920011
 21
815.9999999999994
 31
0.0
  0
LINE
  5
120
330
11D
100
AcDbEntity
  8
TEXT
100
AcDbLine
 10
413.5833369920011
 20
803.9999999999997
 30
0.0
 11
413.5833369920011
 21
815.9999999999994
 31
0.0
  0
LINE
  5
121
330
11D
100
AcDbEntity
  8
TEXT
100
AcDbLine
 10
404.5833369920011
 20
814.9999999999995
 30
0.0
 11
410.5833369920011
 21
814.9999999999995
 31
0.0
  0
SOLID
  5
122
330
11D
100
AcDbEntity
  8
TEXT
100
AcDbTrace
 10
404.5833369920011
 20
815.4999999999994
 30
0.0
 11
404.5833369920011
 21
814.4999999999994
 31
0.0
 12
401.5833369920011
 22
814.9999999999995
 32
0.0
 13
401.5833369920011
 23
814.9999999999995
 33
0.0
  0
SOLID
  5
123
330
11D
100
AcDbEntity
  8
TEXT
100
AcDbTrace
 10
410.5833369920011
 20
815.4999999999994
 30
0.0
 11
410.5833369920011
 21
814.4999999999994
 31
0.0
 12
413.5833369920011
 22
814.9999999999995
 32
0.0
 13
413.5833369920011
 23
814.9999999999995
 33
0.0
  0
MTEXT
  5
124
330
11D
100
AcDbEntity
  8
TEXT
100
AcDbMText
 10
407.5833369920011
 20
818.4999999999995
 30
0.0
 40
4.0
 41
0.0
 71
     5
 72
     1
  1
\A1;12
  7
GHS
 73
     1
 44
1.0
  0
POINT
  5
125
330
11D
100
AcDbEntity
  8
DEFPOINTS
 62
     0
100
AcDbPoint
 10
401.5833369920011
 20
802.4999999999996
 30
0.0
  0
POINT
  5
126
330
11D
100
AcDbEntity
  8
DEFPOINTS
 62
     0
100
AcDbPoint
 10
413.5833369920011
 20
802.9999999999997
 30
0.0
  0
POINT
  5
127
330
11D
100
AcDbEntity
  8
DEFPOINTS
 62
     0
100
AcDbPoint
 10
413.5833369920011
 20
814.9999999999995
 30
0.0
  0
ENDBLK
  5
128
330
11D
100
AcDbEntity
  8
0
100
AcDbBlockEnd
  0
BLOCK
  5
12D
330
12C
100
AcDbEntity
  8
0
100
AcDbBlockBegin
  2
*D9
 70
     1
 10
0.0
 20
0.0
 30
0.0
  3
*D9
  1

  0
LINE
  5
12E
330
12C
100
AcDbEntity
  8
TEXT
100
AcDbLine
 10
401.5833369920011
 20
803.4999999999996
 30
0.0
 11
401.5833369920011
 21
824.9999999999994
 31
0.0
  0
LINE
  5
12F
330
12C
100
AcDbEntity
  8
TEXT
100
AcDbLine
 10
422.5833369920011
 20
811.8999999999994
 30
0.0
 11
422.5833369920011
 21
824.9999999999994
 31
0.0
  0
LINE
  5
130
330
12C
100
AcDbEntity
  8
TEXT
100
AcDbLine
 10
404.5833369920011
 20
823.9999999999994
 30
0.0
 11
419.5833369920011
 21
823.9999999999994
 31
0.0
  0
SOLID
  5
131
330
12C
100
AcDbEntity
  8
TEXT
100
AcDbTrace
 10
404.5833369920011
 20
824.4999999999993
 30
0.0
 11
404.5833369920011
 21
823.4999999999994
 31
0.0
 12
401.5833369920011
 22
823.9999999999994
 32
0.0
 13
401.5833369920011
 23
823.9999999999994
 33
0.0
  0
SOLID
  5
132
330
12C
100
AcDbEntity
  8
TEXT
100
AcDbTrace
 10
419.5833369920011
 20
824.4999999999993
 30
0.0
 11
419.5833369920011
 21
823.4999999999994
 31
0.0
 12
422.5833369920011
 22
823.9999999999994
 32
0.0
 13
422.5833369920011
 23
823.9999999999994
 33
0.0
  0
MTEXT
  5
133
330
12C
100
AcDbEntity
  8
TEXT
100
AcDbMText
 10
412.0833369920011
 20
827.4999999999995
 30
0.0
 40
4.0
 41
0.0
 71
     5
 72
     1
  1
\A1;21
  7
GHS
 73
     1
 44
1.0
  0
POINT
  5
134
330
12C
100
AcDbEntity
  8
DEFPOINTS
 62
     0
100
AcDbPoint
 10
401.5833369920011
 20
802.4999999999996
 30
0.0
  0
POINT
  5
135
330
12C
100
AcDbEntity
  8
DEFPOINTS
 62
     0
100
AcDbPoint
 10
422.5833369920011
 20
810.8999999999994
 30
0.0
  0
POINT
  5
136
330
12C
100
AcDbEntity
  8
DEFPOINTS
 62
     0
100
AcDbPoint
 10
422.5833369920011
 20
823.9999999999994
 30
0.0
  0
ENDBLK
  5
137
330
12C
100
AcDbEntity
  8
0
100
AcDbBlockEnd
  0
BLOCK
  5
169
330
168
100
AcDbEntity
  8
0
100
AcDbBlockBegin
  2
*D10
 70
     1
 10
0.0
 20
0.0
 30
0.0
  3
*D10
  1

  0
LINE
  5
16A
330
168
100
AcDbEntity
  8
TEXT
100
AcDbLine
 10
443.5833369920011
 20
812.5499999999993
 30
0.0
 11
443.5833369920011
 21
824.9999999999994
 31
0.0
  0
LINE
  5
16B
330
168
100
AcDbEntity
  8
TEXT
100
AcDbLine
 10
491.5833369920012
 20
810.9999999999994
 30
0.0
 11
491.5833369920012
 21
824.9999999999994
 31
0.0
  0
LINE
  5
16C
330
168
100
AcDbEntity
  8
TEXT
100
AcDbLine
 10
448.5833369920011
 20
823.9999999999994
 30
0.0
 11
486.5833369920012
 21
823.9999999999994
 31
0.0
  0
SOLID
  5
16D
330
168
100
AcDbEntity
  8
TEXT
100
AcDbTrace
 10
448.5833369920011
 20
824.8333333333327
 30
0.0
 11
448.5833369920011
 21
823.166666666666
 31
0.0
 12
443.5833369920011
 22
823.9999999999994
 32
0.0
 13
443.5833369920011
 23
823.9999999999994
 33
0.0
  0
SOLID
  5
16E
330
168
100
AcDbEntity
  8
TEXT
100
AcDbTrace
 10
486.5833369920012
 20
824.8333333333327
 30
0.0
 11
486.5833369920012
 21
823.166666666666
 31
0.0
 12
491.5833369920012
 22
823.9999999999994
 32
0.0
 13
491.5833369920012
 23
823.9999999999994
 33
0.0
  0
MTEXT
  5
16F
330
168
100
AcDbEntity
  8
TEXT
100
AcDbMText
 10
467.5833369920011
 20
827.9999999999994
 30
0.0
 40
5.0
 41
0.0
 71
     5
 72
     1
  1
\A1;48
  7
GHS
 73
     1
 44
1.0
  0
POINT
  5
170
330
168
100
AcDbEntity
  8
DEFPOINTS
 62
     0
100
AcDbPoint
 10
443.5833369920011
 20
811.5499999999993
 30
0.0
  0
POINT
  5
171
330
168
100
AcDbEntity
  8
DEFPOINTS
 62
     0
100
AcDbPoint
 10
491.5833369920012
 20
809.9999999999994
 30
0.0
  0
POINT
  5
172
330
168
100
AcDbEntity
  8
DEFPOINTS
 62
     0
100
AcDbPoint
 10
491.5833369920012
 20
823.9999999999994
 30
0.0
  0
ENDBLK
  5
173
330
168
100
AcDbEntity
  8
0
100
AcDbBlockEnd
  0
BLOCK
  5
1C7
330
1C6
100
AcDbEntity
  8
0
100
AcDbBlockBegin
  2
*D11
 70
     1
 10
0.0
 20
0.0
 30
0.0
  3
*D11
  1

  0
LINE
  5
1C8
330
1C6
100
AcDbEntity
  8
TEXT
100
AcDbLine
 10
310.8999999999999
 20
793.0
 30
0.0
 11
300.2433212916801
 21
793.0000000000001
 31
0.0
  0
LINE
  5
1C9
330
1C6
100
AcDbEntity
  8
TEXT
100
AcDbLine
 10
343.5
 20
776.5455173280955
 30
0.0
 11
350.8783393541598
 21
763.7658586912058
 31
0.0
  0
ARC
  5
1CA
330
1C6
100
AcDbEntity
  8
TEXT
100
AcDbCircle
 10
333.9999999999999
 20
793.0
 30
0.0
 40
32.75667870831979
100
AcDbArc
 50
185.249233882615
 51
294.7507661173848
  0
SOLID
  5
1CB
330
1C6
100
AcDbEntity
  8
TEXT
100
AcDbTrace
 10
300.881222362861
 20
789.9802509432492
 30
0.0
 11
301.8801733503921
 21
790.0260431315646
 31
0.0
 12
301.2433212916802
 22
793.0000000000002
 32
0.0
 13
301.2433212916802
 23
793.0000000000002
 33
0.0
  0
SOLID
  5
1CC
330
1C6
100
AcDbEntity
  8
TEXT
100
AcDbTrace
 10
347.4843911269795
 20
763.6964357220695
 30
0.0
 11
347.944209422369
 21
762.8084226955743
 31
0.0
 12
350.3783393541598
 22
764.6318840949903
 32
0.0
 13
350.3783393541598
 23
764.6318840949903
 33
0.0
  0
MTEXT
  5
1CD
330
1C6
100
AcDbEntity
  8
TEXT
100
AcDbMText
 10
319.3716606458399
 20
767.6629730082358
 30
0.0
 40
4.0
 41
0.0
 71
     5
 72
     1
  1
\A1;3-120°
  7
GHS
 11
0.866025403784438
 21
-0.500000000000001
 31
0.0
 73
     1
 44
1.0
  0
POINT
  5
1CE
330
1C6
100
AcDbEntity
  8
DEFPOINTS
 62
     0
100
AcDbPoint
 10
308.9069283004577
 20
771.9444127918093
 30
0.0
  0
POINT
  5
1CF
330
1C6
100
AcDbEntity
  8
DEFPOINTS
 62
     0
100
AcDbPoint
 10
311.8999999999999
 20
793.0
 30
0.0
  0
POINT
  5
1D0
330
1C6
100
AcDbEntity
  8
DEFPOINTS
 62
     0
100
AcDbPoint
 10
340.5
 20
781.7416697508022
 30
0.0
  0
POINT
  5
1D1
330
1C6
100
AcDbEntity
  8
DEFPOINTS
 62
     0
100
AcDbPoint
 10
343.0
 20
777.41154273188
 30
0.0
  0
POINT
  5
1D2
330
1C6
100
AcDbEntity
  8
DEFPOINTS
 62
     0
100
AcDbPoint
 10
356.1
 20
793.0
 30
0.0
  0
ENDBLK
  5
1D3
330
1C6
100
AcDbEntity
  8
0
100
AcDbBlockEnd
  0
BLOCK
  5
1D8
330
1D7
100
AcDbEntity
  8
0
100
AcDbBlockBegin
  2
*D12
 70
     1
 10
0.0
 20
0.0
 30
0.0
  3
*D12
  1

  0
LINE
  5
1D9
330
1D7
100
AcDbEntity
  8
TEXT
100
AcDbLine
 10
342.5
 20
800.0
 30
0.0
 11
367.9999999999996
 21
800.0
 31
0.0
  0
LINE
  5
1DA
330
1D7
100
AcDbEntity
  8
TEXT
100
AcDbLine
 10
357.1
 20
793.0
 30
0.0
 11
367.9999999999996
 21
793.0
 31
0.0
  0
LINE
  5
1DB
330
1D7
100
AcDbEntity
  8
TEXT
100
AcDbLine
 10
366.9999999999995
 20
803.0
 30
0.0
 11
366.9999999999995
 21
806.0
 31
0.0
  0
LINE
  5
1DC
330
1D7
100
AcDbEntity
  8
TEXT
100
AcDbLine
 10
366.9999999999995
 20
790.0
 30
0.0
 11
366.9999999999995
 21
787.0
 31
0.0
  0
LINE
  5
1DD
330
1D7
100
AcDbEntity
  8
TEXT
100
AcDbLine
 10
366.9999999999995
 20
800.0
 30
0.0
 11
366.9999999999995
 21
793.0
 31
0.0
  0
SOLID
  5
1DE
330
1D7
100
AcDbEntity
  8
TEXT
100
AcDbTrace
 10
366.4999999999996
 20
803.0
 30
0.0
 11
367.4999999999995
 21
803.0
 31
0.0
 12
366.9999999999995
 22
800.0
 32
0.0
 13
366.9999999999995
 23
800.0
 33
0.0
  0
SOLID
  5
1DF
330
1D7
100
AcDbEntity
  8
TEXT
100
AcDbTrace
 10
366.4999999999996
 20
790.0
 30
0.0
 11
367.4999999999995
 21
790.0
 31
0.0
 12
366.9999999999995
 22
793.0
 32
0.0
 13
366.9999999999995
 23
793.0
 33
0.0
  0
MTEXT
  5
1E0
330
1D7
100
AcDbEntity
  8
TEXT
100
AcDbMText
 10
363.4999999999994
 20
796.5000000000001
 30
0.0
 40
4.0
 41
0.0
 71
     5
 72
     1
  1
\A1;7
  7
GHS
 11
0.0000000000000001
 21
1.0
 31
0.0
 73
     1
 44
1.0
  0
POINT
  5
1E1
330
1D7
100
AcDbEntity
  8
DEFPOINTS
 62
     0
100
AcDbPoint
 10
341.5
 20
800.0
 30
0.0
  0
POINT
  5
1E2
330
1D7
100
AcDbEntity
  8
DEFPOINTS
 62
     0
100
AcDbPoint
 10
356.1
 20
793.0
 30
0.0
  0
POINT
  5
1E3
330
1D7
100
AcDbEntity
  8
DEFPOINTS
 62
     0
100
AcDbPoint
 10
366.9999999999995
 20
793.0
 30
0.0
  0
ENDBLK
  5
1E4
330
1D7
100
AcDbEntity
  8
0
100
AcDbBlockEnd
  0
BLOCK
  5
3D
330
3C
100
AcDbEntity
  8
0
100
AcDbBlockBegin
  2
_Open30
 70
     0
 10
0.0
 20
0.0
 30
0.0
  3
_Open30
  1

  0
LINE
  5
3E
330
3C
100
AcDbEntity
  8
0
  6
ByBlock
 62
     0
370
    -2
100
AcDbLine
 10
-1.0
 20
0.26794919
 30
0.0
 11
0.0
 21
0.0
 31
0.0
  0
LINE
  5
3F
330
3C
100
AcDbEntity
  8
0
  6
ByBlock
 62
     0
370
    -2
100
AcDbLine
 10
0.0
 20
0.0
 30
0.0
 11
-1.0
 21
-0.26794919
 31
0.0
  0
LINE
  5
40
330
3C
100
AcDbEntity
  8
0
  6
ByBlock
 62
     0
370
    -2
100
AcDbLine
 10
0.0
 20
0.0
 30
0.0
 11
-1.0
 21
0.0
 31
0.0
  0
ENDBLK
  5
41
330
3C
100
AcDbEntity
  8
0
100
AcDbBlockEnd
  0
ENDSEC
  0
SECTION
  2
ENTITIES
  0
LINE
  5
86
330
2
100
AcDbEntity
  8
TEXT
100
AcDbLine
 10
363.0
 20
761.0
 30
0.0
 11
423.0
 21
761.0
 31
0.0
  0
LINE
  5
87
330
2
100
AcDbEntity
  8
TEXT
100
AcDbLine
 10
363.0
 20
753.0
 30
0.0
 11
423.0
 21
753.0
 31
0.0
  0
LINE
  5
88
330
2
100
AcDbEntity
  8
TEXT
100
AcDbLine
 10
363.0
 20
745.0
 30
0.0
 11
423.0
 21
745.0
 31
0.0
  0
LINE
  5
89
330
2
100
AcDbEntity
  8
TEXT
100
AcDbLine
 10
363.0
 20
761.0
 30
0.0
 11
363.0
 21
729.0
 31
0.0
  0
LINE
  5
8A
330
2
100
AcDbEntity
  8
TEXT
100
AcDbLine
 10
402.0
 20
761.0
 30
0.0
 11
402.0
 21
729.0
 31
0.0
  0
LINE
  5
8B
330
2
100
AcDbEntity
  8
TEXT
100
AcDbLine
 10
423.0
 20
761.0
 30
0.0
 11
423.0
 21
729.0
 31
0.0
  0
LINE
  5
8C
330
2
100
AcDbEntity
  8
CL
100
AcDbLine
 10
500.5833369920014
 20
792.9999999999994
 30
0.0
 11
420.90855187976
 21
792.9999999999994
 31
0.0
  0
DIMENSION
  5
91
330
2
100
AcDbEntity
  8
TEXT
100
AcDbDimension
  2
*D0
 10
520.9833369920014
 20
811.5499999999995
 30
0.0
 11
517.4833369920012
 21
792.9999999999995
 31
0.0
  1
%%C37
 71
     5
 42
37.10000000000003
  3
Standard
100
AcDbAlignedDimension
 13
443.5833369920011
 23
774.4499999999995
 33
0.0
 14
443.5833369920011
 24
811.5499999999995
 34
0.0
 50
90.0
100
AcDbRotatedDimension
1001
ACAD
1000
DSTYLE
1002
{
1070
    41
1040
3.0
1070
    42
1040
1.0
1070
    44
1040
1.0
1070
    73
1070
     0
1070
    74
1070
     0
1070
    77
1070
     1
1070
    78
1070
     8
1070
    79
1070
     2
1070
   140
1040
4.0
1070
   147
1040
1.5
1070
   172
1070
     1
1070
   179
1070
     3
1070
   271
1070
     3
1070
   272
1070
     3
1070
   284
1070
     8
1070
   285
1070
     8
1070
   286
1070
     8
1070
   340
1005
37
1002
}
  0
DIMENSION
  5
9F
330
2
100
AcDbEntity
  8
TEXT
100
AcDbDimension
  2
*D1
 10
511.9833369920014
 20
809.9999999999994
 30
0.0
 11
508.4833369920013
 21
792.9999999999995
 31
0.0
  1
%%C34
 71
     5
 42
34.0
  3
Standard
100
AcDbAlignedDimension
 13
492.0833369920012
 23
775.9999999999994
 33
0.0
 14
491.5833369920012
 24
809.9999999999994
 34
0.0
 50
90.0
100
AcDbRotatedDimension
1001
ACAD
1000
DSTYLE
1002
{
1070
    41
1040
3.0
1070
    42
1040
1.0
1070
    44
1040
1.0
1070
    73
1070
     0
1070
    74
1070
     0
1070
    77
1070
     1
1070
    78
1070
     8
1070
    79
1070
     2
1070
   140
1040
4.0
1070
   147
1040
1.5
1070
   172
1070
     1
1070
   179
1070
     3
1070
   271
1070
     3
1070
   272
1070
     3
1070
   284
1070
     8
1070
   285
1070
     8
1070
   286
1070
     8
1070
   340
1005
37
1002
}
  0
LINE
  5
AC
330
2
100
AcDbEntity
  8
CL
100
AcDbLine
 10
424.9975327504124
 20
799.9999999999996
 30
0.0
 11
398.5833369920012
 21
799.9999999999996
 31
0.0
  0
TEXT
  5
AD
330
2
100
AcDbEntity
  8
TEXT
100
AcDbText
 10
391.5339346844671
 20
804.4488974359207
 30
0.0
 40
2.0
  1
-0.1
 50
90.0
 41
0.6
  7
GHS
100
AcDbText
  0
TEXT
  5
AE
330
2
100
AcDbEntity
  8
TEXT
100
AcDbText
 10
388.5373197747912
 20
804.7324382606126
 30
0.0
 40
2.0
  1
 0
 50
90.0
 41
0.6
  7
GHS
100
AcDbText
  0
LINE
  5
AF
330
2
100
AcDbEntity
  8
0
100
AcDbLine
 10
443.5833369920011
 20
811.5499999999993
 30
0.0
 11
423.0833369920011
 21
811.3999999999993
 31
0.0
  0
LINE
  5
B0
330
2
100
AcDbEntity
  8
0
100
AcDbLine
 10
443.5833369920011
 20
774.4499999999995
 30
0.0
 11
423.0833369920011
 21
774.5999999999995
 31
0.0
  0
ARC
  5
B1
330
2
100
AcDbEntity
  8
0
100
AcDbCircle
 10
423.0833369920011
 20
775.0999999999995
 30
0.0
 40
0.5
100
AcDbArc
 50
180.0
 51
270.0
  0
ARC
  5
B2
330
2
100
AcDbEntity
  8
0
100
AcDbCircle
 10
423.0833369920011
 20
810.8999999999994
 30
0.0
 40
0.5
100
AcDbArc
 50
90.0
 51
180.0
  0
LINE
  5
B3
330
2
100
AcDbEntity
  8
0
100
AcDbLine
 10
417.9833369920009
 20
794.0499999999996
 30
0.0
 11
417.9833369920009
 21
805.9499999999996
 31
0.0
  0
LINE
  5
B4
330
2
100
AcDbEntity
  8
0
100
AcDbLine
 10
417.4833369920009
 20
805.4499999999997
 30
0.0
 11
417.4833369920009
 21
794.5499999999996
 31
0.0
  0
LINE
  5
B5
102
{ACAD_REACTORS
330
156
102
}
330
2
100
AcDbEntity
  8
0
100
AcDbLine
 10
417.4833369920009
 20
794.5499999999996
 30
0.0
 11
417.9833369920009
 21
794.0499999999996
 31
0.0
  0
LINE
  5
B6
330
2
100
AcDbEntity
  8
0
100
AcDbLine
 10
417.4833369920009
 20
805.4499999999997
 30
0.0
 11
417.9833369920009
 21
805.9499999999996
 31
0.0
  0
LINE
  5
B7
102
{ACAD_REACTORS
330
144
102
}
330
2
100
AcDbEntity
  8
0
100
AcDbLine
 10
422.5833369920011
 20
805.9499999999996
 30
0.0
 11
417.9833369920009
 21
805.9499999999996
 31
0.0
  0
LINE
  5
B8
102
{ACAD_REACTORS
330
144
330
156
102
}
330
2
100
AcDbEntity
  8
0
100
AcDbLine
 10
422.5833369920011
 20
794.0499999999996
 30
0.0
 11
417.9833369920009
 21
794.0499999999996
 31
0.0
  0
LINE
  5
B9
330
2
100
AcDbEntity
  8
0
100
AcDbLine
 10
417.4833369920009
 20
796.9999999999997
 30
0.0
 11
402.0833369920011
 21
796.9999999999997
 31
0.0
  0
LINE
  5
BA
330
2
100
AcDbEntity
  8
0
100
AcDbLine
 10
417.4833369920009
 20
802.9999999999997
 30
0.0
 11
413.5833369920011
 21
802.9999999999997
 31
0.0
  0
LINE
  5
BB
330
2
100
AcDbEntity
  8
0
100
AcDbLine
 10
401.5833369920011
 20
797.4999999999996
 30
0.0
 11
402.0833369920011
 21
796.9999999999997
 31
0.0
  0
LINE
  5
BC
102
{ACAD_REACTORS
330
EB
330
11C
102
}
330
2
100
AcDbEntity
  8
0
100
AcDbLine
 10
413.5833369920011
 20
802.9999999999997
 30
0.0
 11
413.5833369920011
 21
802.4999999999996
 31
0.0
  0
LINE
  5
BD
330
2
100
AcDbEntity
  8
0
100
AcDbLine
 10
413.5833369920011
 20
802.4999999999996
 30
0.0
 11
401.5833369920011
 21
802.4999999999996
 31
0.0
  0
LINE
  5
BE
102
{ACAD_REACTORS
330
DA
330
11C
330
12B
102
}
330
2
100
AcDbEntity
  8
0
100
AcDbLine
 10
401.5833369920011
 20
802.4999999999996
 30
0.0
 11
401.5833369920011
 21
797.4999999999996
 31
0.0
  0
LINE
  5
BF
102
{ACAD_REACTORS
330
DA
330
EB
102
}
330
2
100
AcDbEntity
  8
0
100
AcDbLine
 10
402.0833369920011
 20
802.4999999999996
 30
0.0
 11
402.0833369920011
 21
796.9999999999997
 31
0.0
  0
LINE
  5
C0
102
{ACAD_REACTORS
330
FC
330
12B
102
}
330
2
100
AcDbEntity
  8
0
100
AcDbLine
 10
422.5833369920011
 20
810.8999999999994
 30
0.0
 11
422.5833369920011
 21
775.0999999999995
 31
0.0
  0
ARC
  5
C1
330
2
100
AcDbEntity
  8
0
100
AcDbCircle
 10
444.4833369920011
 20
776.9999999999994
 30
0.0
 40
1.0
100
AcDbArc
 50
205.8419327631397
 51
270.0
  0
LINE
  5
C2
330
2
100
AcDbEntity
  8
0
100
AcDbLine
 10
444.4833369920011
 20
775.9999999999994
 30
0.0
 11
491.5833369920012
 21
775.9999999999994
 31
0.0
  0
LINE
  5
C3
102
{ACAD_REACTORS
330
FC
330
167
102
}
330
2
100
AcDbEntity
  8
0
100
AcDbLine
 10
443.5833369920011
 20
811.5499999999993
 30
0.0
 11
443.5833369920011
 21
774.4499999999995
 31
0.0
  0
ARC
  5
C4
330
2
100
AcDbEntity
  8
0
100
AcDbCircle
 10
444.4833369920011
 20
808.9999999999994
 30
0.0
 40
1.0
100
AcDbArc
 50
90.0
 51
154.1580672368603
  0
LINE
  5
C5
330
2
100
AcDbEntity
  8
0
100
AcDbLine
 10
444.4833369920011
 20
809.9999999999994
 30
0.0
 11
491.5833369920012
 21
809.9999999999994
 31
0.0
  0
ARC
  5
C6
102
{ACAD_REACTORS
330
10B
102
}
330
2
100
AcDbEntity
  8
0
100
AcDbCircle
 10
498.1833369920013
 20
794.9999999999994
 30
0.0
 40
1.399999999999999
100
AcDbArc
 50
270.0
 51
90.0
  0
CIRCLE
  5
C7
330
2
100
AcDbEntity
  8
0
100
AcDbCircle
 10
498.1833369920013
 20
794.9999999999994
 30
0.0
 40
0.7
  0
CIRCLE
  5
C8
330
2
100
AcDbEntity
  8
0
100
AcDbCircle
 10
498.1833369920013
 20
790.9999999999995
 30
0.0
 40
0.7
  0
ARC
  5
C9
330
2
100
AcDbEntity
  8
0
100
AcDbCircle
 10
498.1833369920013
 20
790.9999999999995
 30
0.0
 40
1.399999999999999
100
AcDbArc
 50
270.0
 51
90.0
  0
LINE
  5
CA
330
2
100
AcDbEntity
  8
0
100
AcDbLine
 10
489.0833369920012
 20
775.9999999999994
 30
0.0
 11
489.0833369920012
 21
791.4999999999994
 31
0.0
  0
LINE
  5
CB
102
{ACAD_REACTORS
330
10B
330
167
102
}
330
2
100
AcDbEntity
  8
0
100
AcDbLine
 10
491.5833369920012
 20
775.9999999999994
 30
0.0
 11
491.5833369920012
 21
809.9999999999994
 31
0.0
  0
LINE
  5
CC
330
2
100
AcDbEntity
  8
0
100
AcDbLine
 10
491.5833369920012
 20
787.4999999999994
 30
0.0
 11
494.1833369920011
 21
787.4999999999994
 31
0.0
  0
LINE
  5
CD
330
2
100
AcDbEntity
  8
0
100
AcDbLine
 10
489.0833369920012
 20
794.4999999999994
 30
0.0
 11
489.0833369920012
 21
809.9999999999994
 31
0.0
  0
LINE
  5
CE
330
2
100
AcDbEntity
  8
0
100
AcDbLine
 10
487.1833369920011
 20
791.4999999999994
 30
0.0
 11
487.1833369920011
 21
794.4999999999994
 31
0.0
  0
LINE
  5
CF
330
2
100
AcDbEntity
  8
0
100
AcDbLine
 10
487.1833369920011
 20
791.4999999999994
 30
0.0
 11
489.0833369920012
 21
791.4999999999994
 31
0.0
  0
LINE
  5
D0
330
2
100
AcDbEntity
  8
0
100
AcDbLine
 10
487.1833369920011
 20
794.4999999999994
 30
0.0
 11
489.0833369920012
 21
794.4999999999994
 31
0.0
  0
LINE
  5
D1
330
2
100
AcDbEntity
  8
0
100
AcDbLine
 10
491.5833369920012
 20
798.4999999999994
 30
0.0
 11
494.1833369920011
 21
798.4999999999994
 31
0.0
  0
LINE
  5
D2
330
2
100
AcDbEntity
  8
0
100
AcDbLine
 10
494.1833369920011
 20
787.4999999999994
 30
0.0
 11
494.1833369920011
 21
793.5999999999995
 31
0.0
  0
LINE
  5
D3
330
2
100
AcDbEntity
  8
0
100
AcDbLine
 10
494.1833369920011
 20
796.3999999999993
 30
0.0
 11
494.1833369920011
 21
798.4999999999994
 31
0.0
  0
LINE
  5
D4
330
2
100
AcDbEntity
  8
0
100
AcDbLine
 10
498.1833369920013
 20
796.3999999999994
 30
0.0
 11
491.5833369920012
 21
796.3999999999994
 31
0.0
  0
LINE
  5
D5
330
2
100
AcDbEntity
  8
0
100
AcDbLine
 10
498.1833369920013
 20
793.5999999999994
 30
0.0
 11
491.5833369920012
 21
793.5999999999994
 31
0.0
  0
LINE
  5
D6
330
2
100
AcDbEntity
  8
0
100
AcDbLine
 10
498.1833369920013
 20
792.3999999999995
 30
0.0
 11
494.1833369920011
 21
792.3999999999995
 31
0.0
  0
LINE
  5
D7
330
2
100
AcDbEntity
  8
0
100
AcDbLine
 10
498.1833369920013
 20
789.5999999999995
 30
0.0
 11
494.1833369920011
 21
789.5999999999995
 31
0.0
  0
DIMENSION
  5
D8
102
{ACAD_XDICTIONARY
360
D9
102
}
102
{ACAD_REACTORS
330
DA
102
}
330
2
100
AcDbEntity
  8
TEXT
100
AcDbDimension
  2
*D4
 10
392.9999999999997
 20
802.4999999999996
 30
0.0
 11
392.9999999999996
 21
799.7499999999997
 31
0.0
 70
   128
 71
     5
 42
5.5
  3
Standard
100
AcDbAlignedDimension
 13
402.0833369920011
 23
796.9999999999997
 33
0.0
 14
401.5833369920011
 24
802.4999999999996
 34
0.0
 50
90.0
100
AcDbRotatedDimension
1001
ACAD
1000
DSTYLE
1002
{
1070
    41
1040
3.0
1070
    42
1040
1.0
1070
    44
1040
1.0
1070
    73
1070
     0
1070
    74
1070
     0
1070
    77
1070
     1
1070
    78
1070
     8
1070
    79
1070
     2
1070
   140
1040
4.0
1070
   147
1040
1.5
1070
   172
1070
     1
1070
   179
1070
     3
1070
   271
1070
     3
1070
   272
1070
     3
1070
   284
1070
     8
1070
   285
1070
     8
1070
   286
1070
     8
1070
   340
1005
37
1002
}
  0
DIMENSION
  5
E9
102
{ACAD_XDICTIONARY
360
EA
102
}
102
{ACAD_REACTORS
330
EB
102
}
330
2
100
AcDbEntity
  8
TEXT
100
AcDbDimension
  2
*D5
 10
383.9999999999997
 20
802.9999999999997
 30
0.0
 11
383.9999999999995
 21
799.9999999999998
 31
0.0
 70
   128
  1
%%C6
 71
     5
 42
6.0
  3
Standard
100
AcDbAlignedDimension
 13
402.0833369920011
 23
796.9999999999997
 33
0.0
 14
413.5833369920011
 24
802.9999999999997
 34
0.0
 50
90.0
100
AcDbRotatedDimension
1001
ACAD
1000
DSTYLE
1002
{
1070
    41
1040
3.0
1070
    42
1040
1.0
1070
    44
1040
1.0
1070
    73
1070
     0
1070
    74
1070
     0
1070
    77
1070
     1
1070
    78
1070
     8
1070
    79
1070
     2
1070
   140
1040
4.0
1070
   147
1040
1.5
1070
   172
1070
     1
1070
   179
1070
     3
1070
   271
1070
     3
1070
   272
1070
     3
1070
   284
1070
     8
1070
   285
1070
     8
1070
   286
1070
     8
1070
   340
1005
37
1002
}
  0
DIMENSION
  5
FA
102
{ACAD_XDICTIONARY
360
FB
102
}
102
{ACAD_REACTORS
330
FC
102
}
330
2
100
AcDbEntity
  8
TEXT
100
AcDbDimension
  2
*D6
 10
443.5833369920011
 20
823.9999999999994
 30
0.0
 11
433.0833369920011
 21
827.4999999999995
 31
0.0
  1
L
 71
     5
 42
21.0
  3
Standard
100
AcDbAlignedDimension
 13
422.5833369920011
 23
810.8999999999994
 33
0.0
 14
443.5833369920011
 24
811.5499999999993
 34
0.0
100
AcDbRotatedDimension
1001
ACAD
1000
DSTYLE
1002
{
1070
    41
1040
3.0
1070
    42
1040
1.0
1070
    44
1040
1.0
1070
    73
1070
     0
1070
    74
1070
     0
1070
    77
1070
     1
1070
    78
1070
     8
1070
    79
1070
     2
1070
   140
1040
4.0
1070
   147
1040
1.5
1070
   172
1070
     1
1070
   179
1070
     3
1070
   271
1070
     3
1070
   272
1070
     3
1070
   284
1070
     8
1070
   285
1070
     8
1070
   286
1070
     8
1070
   340
1005
37
1002
}
  0
DIMENSION
  5
109
102
{ACAD_XDICTIONARY
360
10A
102
}
102
{ACAD_REACTORS
330
10B
102
}
330
2
100
AcDbEntity
  8
TEXT
100
AcDbDimension
  2
*D7
 10
499.5833369920013
 20
823.9999999999994
 30
0.0
 11
495.5833369920012
 21
827.4999999999995
 31
0.0
 71
     5
 42
8.000000000000113
  3
Standard
100
AcDbAlignedDimension
 13
491.5833369920012
 23
809.9999999999994
 33
0.0
 14
499.5833369920013
 24
794.9999999999994
 34
0.0
100
AcDbRotatedDimension
1001
ACAD
1000
DSTYLE
1002
{
1070
    41
1040
3.0
1070
    42
1040
1.0
1070
    44
1040
1.0
1070
    73
1070
     0
1070
    74
1070
     0
1070
    77
1070
     1
1070
    78
1070
     8
1070
    79
1070
     2
1070
   140
1040
4.0
1070
   147
1040
1.5
1070
   172
1070
     1
1070
   179
1070
     3
1070
   271
1070
     3
1070
   272
1070
     3
1070
   284
1070
     8
1070
   285
1070
     8
1070
   286
1070
     8
1070
   340
1005
37
1002
}
  0
DIMENSION
  5
11A
102
{ACAD_XDICTIONARY
360
11B
102
}
102
{ACAD_REACTORS
330
11C
102
}
330
2
100
AcDbEntity
  8
TEXT
100
AcDbDimension
  2
*D8
 10
413.5833369920011
 20
814.9999999999995
 30
0.0
 11
407.5833369920011
 21
818.4999999999995
 31
0.0
 71
     5
 42
12.0
  3
Standard
100
AcDbAlignedDimension
 13
401.5833369920011
 23
802.4999999999996
 33
0.0
 14
413.5833369920011
 24
802.9999999999997
 34
0.0
100
AcDbRotatedDimension
1001
ACAD
1000
DSTYLE
1002
{
1070
    41
1040
3.0
1070
    42
1040
1.0
1070
    44
1040
1.0
1070
    73
1070
     0
1070
    74
1070
     0
1070
    77
1070
     1
1070
    78
1070
     8
1070
    79
1070
     2
1070
   140
1040
4.0
1070
   147
1040
1.5
1070
   172
1070
     1
1070
   179
1070
     3
1070
   271
1070
     3
1070
   272
1070
     3
1070
   284
1070
     8
1070
   285
1070
     8
1070
   286
1070
     8
1070
   340
1005
37
1002
}
  0
DIMENSION
  5
129
102
{ACAD_XDICTIONARY
360
12A
102
}
102
{ACAD_REACTORS
330
12B
102
}
330
2
100
AcDbEntity
  8
TEXT
100
AcDbDimension
  2
*D9
 10
422.5833369920011
 20
823.9999999999994
 30
0.0
 11
412.0833369920011
 21
827.4999999999995
 31
0.0
 71
     5
 42
21.0
  3
Standard
100
AcDbAlignedDimension
 13
401.5833369920011
 23
802.4999999999996
 33
0.0
 14
422.5833369920011
 24
810.8999999999994
 34
0.0
100
AcDbRotatedDimension
1001
ACAD
1000
DSTYLE
1002
{
1070
    41
1040
3.0
1070
    42
1040
1.0
1070
    44
1040
1.0
1070
    73
1070
     0
1070
    74
1070
     0
1070
    77
1070
     1
1070
    78
1070
     8
1070
    79
1070
     2
1070
   140
1040
4.0
1070
   147
1040
1.5
1070
   172
1070
     1
1070
   179
1070
     3
1070
   271
1070
     3
1070
   272
1070
     3
1070
   284
1070
     8
1070
   285
1070
     8
1070
   286
1070
     8
1070
   340
1005
37
1002
}
  0
TEXT
  5
138
330
2
100
AcDbEntity
  8
TEXT
100
AcDbText
 10
377.0857142857143
 20
755.0
 30
0.0
 40
4.0
  1
RATIO
 41
0.6
  7
GHS
 72
     1
 11
382.0
 21
755.0
 31
0.0
100
AcDbText
  0
TEXT
  5
139
330
2
100
AcDbEntity
  8
TEXT
100
AcDbText
 10
410.8571428571428
 20
755.0
 30
0.0
 40
4.0
  1
L
 41
0.6
  7
GHS
 72
     1
 11
412.0
 21
755.0
 31
0.0
100
AcDbText
  0
LINE
  5
13A
330
2
100
AcDbEntity
  8
TEXT
100
AcDbLine
 10
363.0
 20
737.0
 30
0.0
 11
423.0
 21
737.0
 31
0.0
  0
LINE
  5
13B
330
2
100
AcDbEntity
  8
TEXT
100
AcDbLine
 10
363.0
 20
729.0
 30
0.0
 11
423.0
 21
729.0
 31
0.0
  0
TEXT
  5
13C
330
2
100
AcDbEntity
  8
TEXT
100
AcDbText
 10
365.0
 20
747.0
 30
0.0
 40
4.0
  1
1/002 ~ 1/030
 41
0.6
  7
GHS
100
AcDbText
  0
TEXT
  5
13D
330
2
100
AcDbEntity
  8
TEXT
100
AcDbText
 10
365.0
 20
739.0
 30
0.0
 40
4.0
  1
1/040 ~ 1/210
 41
0.6
  7
GHS
100
AcDbText
  0
TEXT
  5
13E
330
2
100
AcDbEntity
  8
TEXT
100
AcDbText
 10
365.0
 20
731.0
 30
0.0
 40
4.0
  1
1/240 ~ 1/2430
 41
0.6
  7
GHS
100
AcDbText
  0
TEXT
  5
13F
330
2
100
AcDbEntity
  8
TEXT
100
AcDbText
 10
410.0
 20
747.0
 30
0.0
 40
4.0
  1
21
 41
0.6
  7
GHS
100
AcDbText
  0
TEXT
  5
140
330
2
100
AcDbEntity
  8
TEXT
100
AcDbText
 10
410.0
 20
739.0
 30
0.0
 40
4.0
  1
29
 41
0.6
  7
GHS
100
AcDbText
  0
TEXT
  5
141
330
2
100
AcDbEntity
  8
TEXT
100
AcDbText
 10
410.0
 20
731.0
 30
0.0
 40
4.0
  1
33.7
 41
0.6
  7
GHS
100
AcDbText
  0
DIMENSION
  5
142
102
{ACAD_XDICTIONARY
360
143
102
}
102
{ACAD_REACTORS
330
144
102
}
330
2
100
AcDbEntity
  8
TEXT
100
AcDbDimension
  2
*D3
 10
435.0
 20
805.9499999999996
 30
0.0
 11
431.4999999999998
 21
799.9999999999998
 31
0.0
  1
%%c12
 71
     5
 42
11.90000000000009
  3
Standard
100
AcDbAlignedDimension
 13
422.5833369920011
 23
794.0499999999996
 33
0.0
 14
422.5833369920011
 24
805.9499999999996
 34
0.0
 50
90.0
100
AcDbRotatedDimension
1001
ACAD
1000
DSTYLE
1002
{
1070
    41
1040
3.0
1070
    42
1040
1.0
1070
    44
1040
1.0
1070
    73
1070
     0
1070
    74
1070
     0
1070
    77
1070
     1
1070
    78
1070
     8
1070
    79
1070
     2
1070
   140
1040
4.0
1070
   147
1040
1.5
1070
   172
1070
     1
1070
   179
1070
     3
1070
   271
1070
     3
1070
   272
1070
     3
1070
   284
1070
     8
1070
   285
1070
     8
1070
   286
1070
     8
1070
   340
1005
37
1002
}
  0
TEXT
  5
151
330
2
100
AcDbEntity
  8
TEXT
100
AcDbText
 10
415.0
 20
826.0
 30
0.0
 40
3.0
  1
%%P0.5
 41
0.6
  7
GHS
100
AcDbText
  0
TEXT
  5
152
330
2
100
AcDbEntity
  8
TEXT
100
AcDbText
 10
375.0857142857143
 20
764.0
 30
0.0
 40
4.0
  1
GEARHEAD LENGTH
 41
0.6
  7
GHS
 72
     1
 11
392.0
 21
764.0
 31
0.0
100
AcDbText
  0
LINE
  5
153
330
2
100
AcDbEntity
  8
TEXT
100
AcDbLine
 10
374.0
 20
763.0
 30
0.0
 11
410.0
 21
763.0
 31
0.0
  0
DIMENSION
  5
154
102
{ACAD_XDICTIONARY
360
155
102
}
102
{ACAD_REACTORS
330
156
102
}
330
2
100
AcDbEntity
  8
TEXT
100
AcDbDimension
  2
*D2
 10
417.4833369920009
 20
784.0
 30
0.0
 11
407.8119084205724
 21
787.5
 31
0.0
 71
     5
 42
5.100000000000136
  3
Standard
100
AcDbAlignedDimension
 13
422.5833369920011
 23
794.0499999999996
 33
0.0
 14
417.4833369920009
 24
794.5499999999996
 34
0.0
100
AcDbRotatedDimension
1001
ACAD
1000
DSTYLE
1002
{
1070
    41
1040
3.0
1070
    42
1040
1.0
1070
    44
1040
1.0
1070
    73
1070
     0
1070
    74
1070
     0
1070
    77
1070
     1
1070
    78
1070
     8
1070
    79
1070
     2
1070
   140
1040
4.0
1070
   141
1040
0.5
1070
   147
1040
1.5
1070
   172
1070
     1
1070
   179
1070
     3
1070
   271
1070
     3
1070
   272
1070
     3
1070
   284
1070
     8
1070
   285
1070
     8
1070
   286
1070
     8
1070
   340
1005
37
1002
}
  0
DIMENSION
  5
165
102
{ACAD_XDICTIONARY
360
166
102
}
102
{ACAD_REACTORS
330
167
102
}
330
2
100
AcDbEntity
  8
TEXT
100
AcDbDimension
  2
*D10
 10
491.5833369920012
 20
823.9999999999994
 30
0.0
 11
467.5833369920011
 21
827.9999999999994
 31
0.0
 71
     5
 42
48.00000000000011
  3
Standard
100
AcDbAlignedDimension
 13
443.5833369920011
 23
811.5499999999993
 33
0.0
 14
491.5833369920012
 24
809.9999999999994
 34
0.0
100
AcDbRotatedDimension
1001
ACAD
1000
DSTYLE
1002
{
1070
    41
1040
5.0
1070
    42
1040
1.0
1070
    43
1040
1.0
1070
    44
1040
1.0
1070
    73
1070
     0
1070
    74
1070
     0
1070
    77
1070
     1
1070
    78
1070
     8
1070
    79
1070
     2
1070
   140
1040
5.0
1070
   141
1040
0.5
1070
   147
1040
1.5
1070
   172
1070
     1
1070
   176
1070
   256
1070
   177
1070
   256
1070
   178
1070
   256
1070
   179
1070
     3
1070
   271
1070
     3
1070
   272
1070
     3
1070
   284
1070
     8
1070
   285
1070
     8
1070
   286
1070
     8
1070
   340
1005
37
1070
   345
1005
2C
1070
   346
1005
2C
1070
   347
1005
2C
1070
   371
1070
    -1
1070
   372
1070
    -1
1002
}
  0
CIRCLE
  5
174
330
2
100
AcDbEntity
  8
0
100
AcDbCircle
 10
333.9999999999995
 20
792.9999999999994
 30
0.0
 40
18.4
  0
CIRCLE
  5
175
330
2
100
AcDbEntity
  8
CL
100
AcDbCircle
 10
334.0
 20
793.0
 30
0.0
 40
15.5
  0
ARC
  5
176
330
2
100
AcDbEntity
  8
0
100
AcDbCircle
 10
334.0
 20
793.0
 30
0.0
 40
12.0
100
AcDbArc
 50
138.18968510422
 51
41.81031489577997
  0
LINE
  5
177
102
{ACAD_REACTORS
330
1C5
330
1D6
102
}
330
2
100
AcDbEntity
  8
CL
100
AcDbLine
 10
311.8999999999999
 20
793.0
 30
0.0
 11
356.1
 21
793.0
 31
0.0
  0
CIRCLE
  5
178
330
2
100
AcDbEntity
  8
0
100
AcDbCircle
 10
347.4233937586588
 20
800.75
 30
0.0
 40
1.8
  0
LINE
  5
179
330
2
100
AcDbEntity
  8
0
100
AcDbLine
 10
347.9890791836079
 20
801.5985281374238
 30
0.0
 11
347.6355257930147
 21
801.2449747468306
 31
0.0
  0
LINE
  5
17A
330
2
100
AcDbEntity
  8
0
100
AcDbLine
 10
347.9183685054894
 20
800.5378679656439
 30
0.0
 11
348.2719218960826
 21
800.1843145750505
 31
0.0
  0
LINE
  5
17B
330
2
100
AcDbEntity
  8
0
100
AcDbLine
 10
348.2719218960825
 20
801.3156854249491
 30
0.0
 11
347.9183685054894
 21
800.9621320343558
 31
0.0
  0
LINE
  5
17C
330
2
100
AcDbEntity
  8
0
100
AcDbLine
 10
347.6355257930147
 20
800.2550252531694
 30
0.0
 11
347.9890791836079
 21
799.901471862576
 31
0.0
  0
LINE
  5
17D
330
2
100
AcDbEntity
  8
0
100
AcDbLine
 10
347.9890791836079
 20
801.5985281374238
 30
0.0
 11
348.2719218960825
 21
801.3156854249491
 31
0.0
  0
LINE
  5
17E
330
2
100
AcDbEntity
  8
0
100
AcDbLine
 10
348.2719218960826
 20
800.1843145750505
 30
0.0
 11
347.9890791836079
 21
799.901471862576
 31
0.0
  0
LINE
  5
17F
330
2
100
AcDbEntity
  8
0
100
AcDbLine
 10
346.9284190118282
 20
800.5378679656439
 30
0.0
 11
346.5748656212347
 21
800.1843145750505
 31
0.0
  0
LINE
  5
180
330
2
100
AcDbEntity
  8
0
100
AcDbLine
 10
347.2112617243027
 20
800.2550252531694
 30
0.0
 11
346.8577083337095
 21
799.901471862576
 31
0.0
  0
LINE
  5
181
330
2
100
AcDbEntity
  8
0
100
AcDbLine
 10
346.5748656212347
 20
801.3156854249491
 30
0.0
 11
346.9284190118282
 21
800.9621320343558
 31
0.0
  0
LINE
  5
182
330
2
100
AcDbEntity
  8
0
100
AcDbLine
 10
346.8577083337095
 20
801.5985281374238
 30
0.0
 11
347.2112617243027
 21
801.2449747468306
 31
0.0
  0
ARC
  5
183
330
2
100
AcDbEntity
  8
0
100
AcDbCircle
 10
346.7162869774722
 20
800.75
 30
0.0
 40
0.3
100
AcDbArc
 50
314.9999999999997
 51
45.00000000000033
  0
ARC
  5
184
330
2
100
AcDbEntity
  8
0
100
AcDbCircle
 10
347.4233937586588
 20
801.4571067811864
 30
0.0
 40
0.3
100
AcDbArc
 50
225.0000000000003
 51
314.9999999999997
  0
ARC
  5
185
330
2
100
AcDbEntity
  8
0
100
AcDbCircle
 10
348.1305005398453
 20
800.75
 30
0.0
 40
0.3
100
AcDbArc
 50
134.9999999999996
 51
225.0000000000003
  0
ARC
  5
186
330
2
100
AcDbEntity
  8
0
100
AcDbCircle
 10
347.4233937586588
 20
800.0428932188134
 30
0.0
 40
0.3
100
AcDbArc
 50
45.00000000000033
 51
134.9999999999996
  0
LINE
  5
187
330
2
100
AcDbEntity
  8
0
100
AcDbLine
 10
346.8577083337095
 20
801.5985281374238
 30
0.0
 11
346.5748656212347
 21
801.3156854249491
 31
0.0
  0
LINE
  5
188
330
2
100
AcDbEntity
  8
0
100
AcDbLine
 10
346.5748656212347
 20
800.1843145750505
 30
0.0
 11
346.8577083337095
 21
799.901471862576
 31
0.0
  0
CIRCLE
  5
189
330
2
100
AcDbEntity
  8
0
100
AcDbCircle
 10
347.4233937586588
 20
800.75
 30
0.0
 40
2.0
  0
LINE
  5
18A
330
2
100
AcDbEntity
  8
CL
100
AcDbLine
 10
333.9999999999995
 20
770.8999999999998
 30
0.0
 11
333.9999999999995
 21
815.0999999999999
 31
0.0
  0
LINE
  5
18B
330
2
100
AcDbEntity
  8
CL
100
AcDbLine
 10
334.0
 20
815.0999999999999
 30
0.0
 11
334.0
 21
770.8999999999998
 31
0.0
  0
CIRCLE
  5
18C
330
2
100
AcDbEntity
  8
0
100
AcDbCircle
 10
334.0
 20
800.0
 30
0.0
 40
5.5
  0
CIRCLE
  5
18D
330
2
100
AcDbEntity
  8
0
100
AcDbCircle
 10
320.5766062413411
 20
800.75
 30
0.0
 40
1.8
  0
CIRCLE
  5
18E
330
2
100
AcDbEntity
  8
0
100
AcDbCircle
 10
320.5766062413411
 20
800.75
 30
0.0
 40
2.0
  0
CIRCLE
  5
18F
330
2
100
AcDbEntity
  8
0
100
AcDbCircle
 10
318.5
 20
793.0
 30
0.0
 40
1.199999999999999
  0
CIRCLE
  5
190
330
2
100
AcDbEntity
  8
0
100
AcDbCircle
 10
318.5
 20
793.0
 30
0.0
 40
1.7
  0
LINE
  5
191
330
2
100
AcDbEntity
  8
0
100
AcDbLine
 10
320.0816314945105
 20
800.5378679656439
 30
0.0
 11
319.7280781039172
 21
800.1843145750505
 31
0.0
  0
LINE
  5
192
330
2
100
AcDbEntity
  8
0
100
AcDbLine
 10
320.3644742069851
 20
800.2550252531694
 30
0.0
 11
320.0109208163919
 21
799.901471862576
 31
0.0
  0
LINE
  5
193
330
2
100
AcDbEntity
  8
0
100
AcDbLine
 10
319.7280781039172
 20
801.3156854249491
 30
0.0
 11
320.0816314945105
 21
800.9621320343558
 31
0.0
  0
LINE
  5
194
330
2
100
AcDbEntity
  8
0
100
AcDbLine
 10
320.0109208163919
 20
801.5985281374238
 30
0.0
 11
320.3644742069851
 21
801.2449747468306
 31
0.0
  0
LINE
  5
195
330
2
100
AcDbEntity
  8
0
100
AcDbLine
 10
321.1422916662903
 20
801.5985281374238
 30
0.0
 11
321.4251343787648
 21
801.3156854249491
 31
0.0
  0
LINE
  5
196
330
2
100
AcDbEntity
  8
0
100
AcDbLine
 10
321.4251343787648
 20
800.1843145750505
 30
0.0
 11
321.1422916662903
 21
799.901471862576
 31
0.0
  0
ARC
  5
197
330
2
100
AcDbEntity
  8
0
100
AcDbCircle
 10
319.8694994601547
 20
800.75
 30
0.0
 40
0.3
100
AcDbArc
 50
314.9999999999997
 51
45.00000000000033
  0
ARC
  5
198
330
2
100
AcDbEntity
  8
0
100
AcDbCircle
 10
320.5766062413411
 20
801.4571067811864
 30
0.0
 40
0.3
100
AcDbArc
 50
225.0000000000003
 51
314.9999999999997
  0
LINE
  5
199
330
2
100
AcDbEntity
  8
0
100
AcDbLine
 10
321.1422916662903
 20
801.5985281374238
 30
0.0
 11
320.7887382756971
 21
801.2449747468306
 31
0.0
  0
ARC
  5
19A
330
2
100
AcDbEntity
  8
0
100
AcDbCircle
 10
321.2837130225278
 20
800.75
 30
0.0
 40
0.3
100
AcDbArc
 50
134.9999999999996
 51
225.0000000000003
  0
LINE
  5
19B
330
2
100
AcDbEntity
  8
0
100
AcDbLine
 10
321.0715809881717
 20
800.5378679656439
 30
0.0
 11
321.4251343787648
 21
800.1843145750505
 31
0.0
  0
LINE
  5
19C
330
2
100
AcDbEntity
  8
0
100
AcDbLine
 10
321.4251343787648
 20
801.3156854249491
 30
0.0
 11
321.0715809881717
 21
800.9621320343558
 31
0.0
  0
ARC
  5
19D
330
2
100
AcDbEntity
  8
0
100
AcDbCircle
 10
320.5766062413411
 20
800.0428932188134
 30
0.0
 40
0.3
100
AcDbArc
 50
45.00000000000033
 51
134.9999999999996
  0
LINE
  5
19E
330
2
100
AcDbEntity
  8
0
100
AcDbLine
 10
320.7887382756971
 20
800.2550252531694
 30
0.0
 11
321.1422916662903
 21
799.901471862576
 31
0.0
  0
LINE
  5
19F
330
2
100
AcDbEntity
  8
0
100
AcDbLine
 10
320.0109208163919
 20
801.5985281374238
 30
0.0
 11
319.7280781039172
 21
801.3156854249491
 31
0.0
  0
LINE
  5
1A0
330
2
100
AcDbEntity
  8
0
100
AcDbLine
 10
319.7280781039172
 20
800.1843145750505
 30
0.0
 11
320.0109208163919
 21
799.901471862576
 31
0.0
  0
LINE
  5
1A1
330
2
100
AcDbEntity
  8
0
100
AcDbLine
 10
324.2020410288672
 20
798.0
 30
0.0
 11
325.0557280900009
 21
801.0
 31
0.0
  0
CIRCLE
  5
1A2
330
2
100
AcDbEntity
  8
0
100
AcDbCircle
 10
334.0
 20
777.5
 30
0.0
 40
1.8
  0
LINE
  5
1A3
330
2
100
AcDbEntity
  8
0
100
AcDbLine
 10
334.5656854249494
 20
778.3485281374237
 30
0.0
 11
334.848528137424
 21
778.0656854249492
 31
0.0
  0
LINE
  5
1A4
330
2
100
AcDbEntity
  8
0
100
AcDbLine
 10
333.1514718625763
 20
776.9343145750505
 30
0.0
 11
333.4343145750509
 21
776.651471862576
 31
0.0
  0
LINE
  5
1A5
330
2
100
AcDbEntity
  8
0
100
AcDbLine
 10
334.848528137424
 20
776.9343145750505
 30
0.0
 11
334.5656854249494
 21
776.651471862576
 31
0.0
  0
LINE
  5
1A6
330
2
100
AcDbEntity
  8
0
100
AcDbLine
 10
333.4343145750509
 20
778.3485281374237
 30
0.0
 11
333.1514718625763
 21
778.0656854249492
 31
0.0
  0
LINE
  5
1A7
330
2
100
AcDbEntity
  8
0
100
AcDbLine
 10
334.848528137424
 20
778.0656854249492
 30
0.0
 11
334.4949747468306
 21
777.7121320343558
 31
0.0
  0
LINE
  5
1A8
330
2
100
AcDbEntity
  8
0
100
AcDbLine
 10
333.4343145750509
 20
778.3485281374237
 30
0.0
 11
333.7878679656442
 21
777.9949747468306
 31
0.0
  0
LINE
  5
1A9
330
2
100
AcDbEntity
  8
0
100
AcDbLine
 10
333.1514718625763
 20
778.0656854249492
 30
0.0
 11
333.5050252531694
 21
777.7121320343558
 31
0.0
  0
LINE
  5
1AA
330
2
100
AcDbEntity
  8
0
100
AcDbLine
 10
334.5656854249494
 20
778.3485281374237
 30
0.0
 11
334.2121320343561
 21
777.9949747468306
 31
0.0
  0
LINE
  5
1AB
330
2
100
AcDbEntity
  8
0
100
AcDbLine
 10
333.5050252531696
 20
777.2878679656439
 30
0.0
 11
333.1514718625763
 21
776.9343145750505
 31
0.0
  0
LINE
  5
1AC
330
2
100
AcDbEntity
  8
0
100
AcDbLine
 10
334.2121320343561
 20
777.0050252531693
 30
0.0
 11
334.5656854249494
 21
776.651471862576
 31
0.0
  0
LINE
  5
1AD
330
2
100
AcDbEntity
  8
0
100
AcDbLine
 10
333.7878679656442
 20
777.0050252531693
 30
0.0
 11
333.4343145750509
 21
776.651471862576
 31
0.0
  0
LINE
  5
1AE
330
2
100
AcDbEntity
  8
0
100
AcDbLine
 10
334.4949747468306
 20
777.2878679656439
 30
0.0
 11
334.848528137424
 21
776.9343145750505
 31
0.0
  0
ARC
  5
1AF
330
2
100
AcDbEntity
  8
0
100
AcDbCircle
 10
334.0000000000002
 20
776.7928932188133
 30
0.0
 40
0.3
100
AcDbArc
 50
45.00000000000033
 51
134.9999999999996
  0
ARC
  5
1B0
330
2
100
AcDbEntity
  8
0
100
AcDbCircle
 10
334.7071067811867
 20
777.5
 30
0.0
 40
0.3
100
AcDbArc
 50
134.9999999999996
 51
225.0000000000003
  0
ARC
  5
1B1
330
2
100
AcDbEntity
  8
0
100
AcDbCircle
 10
334.0
 20
778.2071067811864
 30
0.0
 40
0.3
100
AcDbArc
 50
225.0000000000003
 51
314.9999999999997
  0
ARC
  5
1B2
330
2
100
AcDbEntity
  8
0
100
AcDbCircle
 10
333.2928932188135
 20
777.5
 30
0.0
 40
0.3
100
AcDbArc
 50
314.9999999999997
 51
45.00000000000033
  0
LINE
  5
1B3
330
2
100
AcDbEntity
  8
CL
100
AcDbLine
 10
340.5
 20
804.2583302491978
 30
0.0
 11
343.0
 21
808.5884572681198
 31
0.0
  0
CIRCLE
  5
1B4
330
2
100
AcDbEntity
  8
0
100
AcDbCircle
 10
341.75
 20
806.4233937586589
 30
0.0
 40
1.199999999999999
  0
CIRCLE
  5
1B5
330
2
100
AcDbEntity
  8
0
100
AcDbCircle
 10
341.75
 20
806.4233937586589
 30
0.0
 40
1.7
  0
CIRCLE
  5
1B6
330
2
100
AcDbEntity
  8
0
100
AcDbCircle
 10
334.0
 20
800.0
 30
0.0
 40
6.0
  0
LINE
  5
1B7
330
2
100
AcDbEntity
  8
0
100
AcDbLine
 10
343.7979589711326
 20
798.0
 30
0.0
 11
342.9442719099991
 21
801.0
 31
0.0
  0
CIRCLE
  5
1B8
330
2
100
AcDbEntity
  8
0
100
AcDbCircle
 10
341.75
 20
779.576606241341
 30
0.0
 40
1.199999999999999
  0
CIRCLE
  5
1B9
330
2
100
AcDbEntity
  8
0
100
AcDbCircle
 10
341.75
 20
779.576606241341
 30
0.0
 40
1.7
  0
LINE
  5
1BA
102
{ACAD_REACTORS
330
1C5
102
}
330
2
100
AcDbEntity
  8
CL
100
AcDbLine
 10
340.5
 20
781.7416697508022
 30
0.0
 11
343.0
 21
777.41154273188
 31
0.0
  0
CIRCLE
  5
1BB
330
2
100
AcDbEntity
  8
0
100
AcDbCircle
 10
334.0
 20
777.5
 30
0.0
 40
2.0
  0
LINE
  5
1BC
102
{ACAD_REACTORS
330
1D6
102
}
330
2
100
AcDbEntity
  8
CL
100
AcDbLine
 10
326.5
 20
800.0
 30
0.0
 11
341.5
 21
800.0
 31
0.0
  0
CIRCLE
  5
1BD
330
2
100
AcDbEntity
  8
0
100
AcDbCircle
 10
333.9999999999997
 20
799.9999999999999
 30
0.0
 40
3.5
  0
ARC
  5
1BE
330
2
100
AcDbEntity
  8
0
100
AcDbCircle
 10
333.9999999999997
 20
799.9999999999999
 30
0.0
 40
3.0
100
AcDbArc
 50
123.5573097619277
 51
56.44269023807228
  0
LINE
  5
1BF
330
2
100
AcDbEntity
  8
0
100
AcDbLine
 10
336.4494897427827
 20
802.4999999999998
 30
0.0
 11
331.5505102572164
 21
802.4999999999998
 31
0.0
  0
ARC
  5
1C0
330
2
100
AcDbEntity
  8
0
100
AcDbCircle
 10
334.0
 20
793.0
 30
0.0
 40
11.0
100
AcDbArc
 50
152.9643082105869
 51
27.03569178941312
  0
ARC
  5
1C1
330
2
100
AcDbEntity
  8
0
100
AcDbCircle
 10
334.0
 20
800.0
 30
0.0
 40
9.0
100
AcDbArc
 50
173.6206297915586
 51
6.379370208441347
  0
ARC
  5
1C2
330
2
100
AcDbEntity
  8
0
100
AcDbCircle
 10
334.0
 20
800.0
 30
0.0
 40
10.0
100
AcDbArc
 50
191.5369590328181
 51
348.4630409671819
  0
DIMENSION
  5
1C3
102
{ACAD_XDICTIONARY
360
1C4
102
}
102
{ACAD_REACTORS
330
1C5
102
}
330
2
100
AcDbEntity
  8
TEXT
100
AcDbDimension
  2
*D11
 10
356.1
 20
793.0
 30
0.0
 11
319.3716606458399
 21
767.6629730082358
 31
0.0
 70
     2
  1
3-<>
 71
     5
 42
2.094395102393196
  3
Standard
100
AcDb2LineAngularDimension
 13
340.5
 23
781.7416697508022
 33
0.0
 14
343.0
 24
777.41154273188
 34
0.0
 15
311.8999999999999
 25
793.0
 35
0.0
 16
308.9069283004577
 26
771.9444127918093
 36
0.0
1001
ACAD
1000
DSTYLE
1002
{
1070
    41
1040
3.0
1070
    42
1040
1.0
1070
    44
1040
1.0
1070
    73
1070
     0
1070
    74
1070
     0
1070
    77
1070
     1
1070
    78
1070
     8
1070
    79
1070
     2
1070
   140
1040
4.0
1070
   147
1040
1.5
1070
   172
1070
     1
1070
   179
1070
     3
1070
   271
1070
     3
1070
   272
1070
     3
1070
   284
1070
     8
1070
   285
1070
     8
1070
   286
1070
     8
1070
   340
1005
37
1002
}
  0
DIMENSION
  5
1D4
102
{ACAD_XDICTIONARY
360
1D5
102
}
102
{ACAD_REACTORS
330
1D6
102
}
330
2
100
AcDbEntity
  8
TEXT
100
AcDbDimension
  2
*D12
 10
366.9999999999995
 20
793.0
 30
0.0
 11
363.4999999999994
 21
796.5000000000001
 31
0.0
 71
     5
 42
7.0
  3
Standard
100
AcDbAlignedDimension
 13
341.5
 23
800.0
 33
0.0
 14
356.1
 24
793.0
 34
0.0
 50
90.0
100
AcDbRotatedDimension
1001
ACAD
1000
DSTYLE
1002
{
1070
    41
1040
3.0
1070
    42
1040
1.0
1070
    44
1040
1.0
1070
    73
1070
     0
1070
    74
1070
     0
1070
    77
1070
     1
1070
    78
1070
     8
1070
    79
1070
     2
1070
   140
1040
4.0
1070
   147
1040
1.5
1070
   172
1070
     1
1070
   179
1070
     3
1070
   271
1070
     3
1070
   272
1070
     3
1070
   284
1070
     8
1070
   285
1070
     8
1070
   286
1070
     8
1070
   340
1005
37
1002
}
  0
LEADER
  5
1E5
330
2
100
AcDbEntity
  8
TEXT
100
AcDbLeader
  3
Standard
 76
     3
 10
341.9591943411144
 20
808.1104734033839
 30
0.0
 10
347.9999999999995
 20
820.9999999999993
 30
0.0
 10
367.9999999999996
 20
820.9999999999993
 30
0.0
1001
ACAD
1000
DSTYLE
1002
{
1070
    41
1040
3.0
1070
    42
1040
1.0
1070
    44
1040
1.0
1070
    73
1070
     0
1070
    74
1070
     0
1070
    77
1070
     0
1070
    78
1070
     8
1070
    79
1070
     2
1070
   140
1040
4.0
1070
   147
1040
1.5
1070
   172
1070
     1
1070
   179
1070
     3
1070
   271
1070
     3
1070
   272
1070
     3
1070
   284
1070
     8
1070
   285
1070
     8
1070
   286
1070
     8
1070
   340
1005
37
1002
}
  0
TEXT
  5
1E6
330
2
100
AcDbEntity
  8
TEXT
100
AcDbText
 10
348.9999999999995
 20
821.9999999999995
 30
0.0
 40
4.0
  1
3-M3 TAP
 41
0.6
  7
GHS
100
AcDbText
  0
TEXT
  5
1E7
330
2
100
AcDbEntity
  8
TEXT
100
AcDbText
 10
348.9999999999995
 20
815.523809523809
 30
0.0
 40
4.0
  1
DP 3
 41
0.6
  7
GHS
100
AcDbText
  0
LEADER
  5
1E8
330
2
100
AcDbEntity
  8
TEXT
100
AcDbLeader
  3
Standard
 76
     3
 10
327.2472940467369
 20
806.9517368921852
 30
0.0
 10
320.0
 20
821.0
 30
0.0
 10
301.0
 20
821.0
 30
0.0
1001
ACAD
1000
DSTYLE
1002
{
1070
    41
1040
3.0
1070
    42
1040
1.0
1070
    44
1040
1.0
1070
    73
1070
     0
1070
    74
1070
     0
1070
    77
1070
     0
1070
    78
1070
     8
1070
    79
1070
     2
1070
   140
1040
4.0
1070
   147
1040
1.5
1070
   172
1070
     1
1070
   179
1070
     3
1070
   271
1070
     3
1070
   272
1070
     3
1070
   284
1070
     8
1070
   285
1070
     8
1070
   286
1070
     8
1070
   340
1005
37
1002
}
  0
TEXT
  5
1E9
330
2
100
AcDbEntity
  8
TEXT
100
AcDbText
 10
301.9999999999996
 20
822.523809523809
 30
0.0
 40
4.0
  1
PCD %%C31
 41
0.6
  7
GHS
100
AcDbText
  0
ENDSEC
  0
SECTION
  2
OBJECTS
  0
DICTIONARY
  5
C
330
0
100
AcDbDictionary
281
     1
  3
ACAD_2007HEADERVARS_RT
350
237
  3
ACAD_COLOR
350
59
  3
ACAD_GROUP
350
46
  3
ACAD_LAYOUT
350
19
  3
ACAD_MATERIAL
350
E
  3
ACAD_MLEADERSTYLE
350
21A
  3
ACAD_MLINESTYLE
350
47
  3
ACAD_PLOTSETTINGS
350
48
  3
ACAD_PLOTSTYLENAME
350
B
  3
ACAD_SCALELIST
350
5A
  3
ACAD_TABLESTYLE
350
5B
  3
ACAD_VISUALSTYLE
350
32
  3
ACDB_RECOMPOSE_DATA
350
1EE
  3
AcDbVariableDictionary
350
203
  0
DICTIONARY
  5
33
330
2F
100
AcDbDictionary
280
     1
281
     1
  0
DICTIONARY
  5
22
330
21
100
AcDbDictionary
280
     1
281
     1
  3
ACAD_LAYERFILTERS
360
23
  3
ACAD_LAYERSTATES
360
24
  3
ACLYDICTIONARY
360
25
  0
DICTIONARY
  5
8
330
7
100
AcDbDictionary
280
     1
281
     1
  3
ADSK_XREC_LAYER_RECONCILED
360
9
  0
DICTIONARY
  5
8E
330
8D
100
AcDbDictionary
280
     1
281
     1
  3
ADSK_XREC_LAYER_RECONCILED
360
8F
  0
DICTIONARY
  5
5D
330
5C
100
AcDbDictionary
280
     1
281
     1
  3
ADSK_XREC_LAYER_RECONCILED
360
5E
  0
DICTIONARY
  5
3
330
2
100
AcDbDictionary
280
     1
281
     1
  3
ACAD_LAYOUTSELFREF
360
4
  3
ACAD_SORTENTS
360
1EA
  0
DICTIONARY
  5
1C
330
1B
100
AcDbDictionary
280
     1
281
     1
  3
ACAD_LAYOUTSELFREF
360
1D
  0
DICTIONARY
  5
D9
330
D8
100
AcDbDictionary
280
     1
281
     1
  3
ACAD_DIMASSOC
360
DA
  0
DICTIONARY
  5
EA
330
E9
100
AcDbDictionary
280
     1
281
     1
  3
ACAD_DIMASSOC
360
EB
  0
DICTIONARY
  5
FB
330
FA
100
AcDbDictionary
280
     1
281
     1
  3
ACAD_DIMASSOC
360
FC
  0
DICTIONARY
  5
10A
330
109
100
AcDbDictionary
280
     1
281
     1
  3
ACAD_DIMASSOC
360
10B
  0
DICTIONARY
  5
11B
330
11A
100
AcDbDictionary
280
     1
281
     1
  3
ACAD_DIMASSOC
360
11C
  0
DICTIONARY
  5
12A
330
129
100
AcDbDictionary
280
     1
281
     1
  3
ACAD_DIMASSOC
360
12B
  0
DICTIONARY
  5
143
330
142
100
AcDbDictionary
280
     1
281
     1
  3
ACAD_DIMASSOC
360
144
  0
DICTIONARY
  5
155
330
154
100
AcDbDictionary
280
     1
281
     1
  3
ACAD_DIMASSOC
360
156
  0
DICTIONARY
  5
166
330
165
100
AcDbDictionary
280
     1
281
     1
  3
ACAD_DIMASSOC
360
167
  0
DICTIONARY
  5
1C4
330
1C3
100
AcDbDictionary
280
     1
281
     1
  3
ACAD_DIMASSOC
360
1C5
  0
DICTIONARY
  5
1D5
330
1D4
100
AcDbDictionary
280
     1
281
     1
  3
ACAD_DIMASSOC
360
1D6
  0
DICTIONARY
  5
237
102
{ACAD_REACTORS
330
C
102
}
330
C
100
AcDbDictionary
281
     1
  3
DIMLTEX1
350
239
  3
DIMLTEX2
350
23A
  3
DIMLTYPE
350
238
  0
DICTIONARY
  5
59
102
{ACAD_REACTORS
330
C
102
}
330
C
100
AcDbDictionary
281
     1
  0
DICTIONARY
  5
46
102
{ACAD_REACTORS
330
C
102
}
330
C
100
AcDbDictionary
281
     1
  0
DICTIONARY
  5
19
102
{ACAD_REACTORS
330
C
102
}
330
C
100
AcDbDictionary
281
     1
  3
Layout1
350
20
  3
Model
350
18
  0
DICTIONARY
  5
E
102
{ACAD_REACTORS
330
C
102
}
330
C
100
AcDbDictionary
281
     1
  3
ByBlock
350
51
  3
ByLayer
350
49
  3
Global
350
D
  0
DICTIONARY
  5
21A
102
{ACAD_REACTORS
330
C
102
}
330
C
100
AcDbDictionary
281
     1
  3
Standard
350
21B
  0
DICTIONARY
  5
47
102
{ACAD_REACTORS
330
C
102
}
330
C
100
AcDbDictionary
281
     1
  3
Standard
350
5F
  0
DICTIONARY
  5
48
102
{ACAD_REACTORS
330
C
102
}
330
C
100
AcDbDictionary
281
     1
  0
ACDBDICTIONARYWDFLT
  5
B
102
{ACAD_REACTORS
330
C
102
}
330
C
100
AcDbDictionary
281
     1
  3
Normal
350
A
100
AcDbDictionaryWithDefault
340
A
  0
DICTIONARY
  5
5A
102
{ACAD_REACTORS
330
C
102
}
330
C
100
AcDbDictionary
281
     1
  3
*A1
350
64
  3
A0
350
65
  3
A1
350
66
  3
A2
350
67
  3
A3
350
68
  3
A4
350
69
  3
A5
350
6A
  3
A6
350
6B
  3
A7
350
6C
  3
A8
350
6D
  3
A9
350
6E
  3
B0
350
6F
  3
B1
350
70
  3
B2
350
71
  3
B3
350
72
  3
B4
350
73
  3
B5
350
74
  3
B6
350
75
  3
B7
350
76
  3
B8
350
77
  3
B9
350
78
  3
C0
350
79
  3
C1
350
7A
  3
C2
350
7B
  3
C3
350
7C
  3
C4
350
7D
  3
C5
350
7E
  3
C6
350
7F
  3
C7
350
80
  3
C8
350
81
  3
C9
350
82
  3
D0
350
83
  3
D1
350
84
  3
D2
350
85
  0
DICTIONARY
  5
5B
102
{ACAD_REACTORS
330
C
102
}
330
C
100
AcDbDictionary
281
     1
  3
Standard
350
60
  0
DICTIONARY
  5
32
102
{ACAD_REACTORS
330
C
102
}
330
C
100
AcDbDictionary
281
     1
  3
2dWireframe
350
31
  3
3D Hidden
350
212
  3
3dWireframe
350
63
  3
Basic
350
211
  3
Brighten
350
215
  3
ColorChange
350
219
  3
Conceptual
350
213
  3
Dim
350
214
  3
Facepattern
350
218
  3
Flat
350
20D
  3
FlatWithEdges
350
20E
  3
Gouraud
350
20F
  3
GouraudWithEdges
350
210
  3
Linepattern
350
217
  3
Realistic
350
62
  3
Thicken
350
216
  0
XRECORD
  5
1EE
102
{ACAD_REACTORS
330
C
102
}
330
C
100
AcDbXrecord
280
     1
 90
        1
330
60
  0
DICTIONARY
  5
203
102
{ACAD_REACTORS
330
C
102
}
330
C
100
AcDbDictionary
281
     1
  3
CANNOSCALE
350
207
  3
CMLEADERSTYLE
350
205
  3
CTABLESTYLE
350
204
  3
DIMASSOC
350
20B
  3
HIDETEXT
350
20A
  3
INDEXCTL
350
209
  3
MSLTSCALE
350
206
  3
SORTENTS
350
208
  0
DICTIONARY
  5
23
102
{ACAD_REACTORS
330
22
102
}
330
22
100
AcDbDictionary
281
     1
  0
DICTIONARY
  5
24
102
{ACAD_REACTORS
330
22
102
}
330
22
100
AcDbDictionary
281
     1
  0
DICTIONARY
  5
25
102
{ACAD_REACTORS
330
22
102
}
330
22
100
AcDbDictionary
281
     1
1001
ACAD
1000
<All
  0
XRECORD
  5
9
102
{ACAD_REACTORS
330
8
102
}
330
8
100
AcDbXrecord
280
     1
290
     1
  0
XRECORD
  5
8F
102
{ACAD_REACTORS
330
8E
102
}
330
8E
100
AcDbXrecord
280
     1
290
     1
  0
XRECORD
  5
5E
102
{ACAD_REACTORS
330
5D
102
}
330
5D
100
AcDbXrecord
280
     1
290
     1
  0
XRECORD
  5
4
102
{ACAD_REACTORS
330
3
102
}
330
3
100
AcDbXrecord
280
     1
340
2
  0
SORTENTSTABLE
  5
1EA
102
{ACAD_REACTORS
330
3
102
}
330
3
100
AcDbSortentsTable
330
2
  0
XRECORD
  5
1D
102
{ACAD_REACTORS
330
1C
102
}
330
1C
100
AcDbXrecord
280
     1
340
1B
  0
DIMASSOC
  5
DA
102
{ACAD_REACTORS
330
D9
102
}
330
D9
100
AcDbDimAssoc
330
D8
 90
        3
 70
     0
 71
     0
  1
AcDbOsnapPointRef
 72
     1
331
BF
 73
     2
 91
        0
 40
1.0
 10
0.0
 20
0.0
 30
2.000000000000000E+50
 75
     0
  1
AcDbOsnapPointRef
 72
    13
331
BE
 73
     2
 91
        0
 40
0.0
 10
0.0
 20
0.0
 30
2.000000000000000E+50
 75
     0
  0
DIMASSOC
  5
EB
102
{ACAD_REACTORS
330
EA
102
}
330
EA
100
AcDbDimAssoc
330
E9
 90
        3
 70
     0
 71
     0
  1
AcDbOsnapPointRef
 72
     1
331
BF
 73
     2
 91
        0
 40
1.0
 10
0.0
 20
0.0
 30
2.000000000000000E+50
 75
     0
  1
AcDbOsnapPointRef
 72
    13
331
BC
 73
     2
 91
        0
 40
0.0
 10
0.0
 20
0.0
 30
2.000000000000000E+50
 75
     0
  0
DIMASSOC
  5
FC
102
{ACAD_REACTORS
330
FB
102
}
330
FB
100
AcDbDimAssoc
330
FA
 90
        3
 70
     0
 71
     0
  1
AcDbOsnapPointRef
 72
    13
331
C0
 73
     2
 91
        0
 40
0.0
 10
0.0
 20
0.0
 30
2.000000000000000E+50
 75
     0
  1
AcDbOsnapPointRef
 72
    13
331
C3
 73
     2
 91
        0
 40
0.0
 10
0.0
 20
0.0
 30
2.000000000000000E+50
 75
     0
  0
DIMASSOC
  5
10B
102
{ACAD_REACTORS
330
10A
102
}
330
10A
100
AcDbDimAssoc
330
109
 90
        3
 70
     0
 71
     0
  1
AcDbOsnapPointRef
 72
     1
331
CB
 73
     2
 91
        0
 40
1.0
 10
0.0
 20
0.0
 30
2.000000000000000E+50
 75
     0
  1
AcDbOsnapPointRef
 72
     5
331
C6
 73
     2
 91
        0
 40
6.283185307179586
 10
0.0
 20
0.0
 30
0.0
 75
     0
  0
DIMASSOC
  5
11C
102
{ACAD_REACTORS
330
11B
102
}
330
11B
100
AcDbDimAssoc
330
11A
 90
        3
 70
     0
 71
     0
  1
AcDbOsnapPointRef
 72
    13
331
BE
 73
     2
 91
        0
 40
0.0
 10
0.0
 20
0.0
 30
2.000000000000000E+50
 75
     0
  1
AcDbOsnapPointRef
 72
    13
331
BC
 73
     2
 91
        0
 40
0.0
 10
0.0
 20
0.0
 30
2.000000000000000E+50
 75
     0
  0
DIMASSOC
  5
12B
102
{ACAD_REACTORS
330
12A
102
}
330
12A
100
AcDbDimAssoc
330
129
 90
        3
 70
     0
 71
     0
  1
AcDbOsnapPointRef
 72
    13
331
BE
 73
     2
 91
        0
 40
0.0
 10
0.0
 20
0.0
 30
2.000000000000000E+50
 75
     0
  1
AcDbOsnapPointRef
 72
    13
331
C0
 73
     2
 91
        0
 40
0.0
 10
0.0
 20
0.0
 30
2.000000000000000E+50
 75
     0
  0
DIMASSOC
  5
144
102
{ACAD_REACTORS
330
143
102
}
330
143
100
AcDbDimAssoc
330
142
 90
        3
 70
     0
 71
     0
  1
AcDbOsnapPointRef
 72
    13
331
B8
 73
     2
 91
        0
 40
0.0
 10
0.0
 20
0.0
 30
2.000000000000000E+50
 75
     0
  1
AcDbOsnapPointRef
 72
    13
331
B7
 73
     2
 91
        0
 40
0.0
 10
0.0
 20
0.0
 30
2.000000000000000E+50
 75
     0
  0
DIMASSOC
  5
156
102
{ACAD_REACTORS
330
155
102
}
330
155
100
AcDbDimAssoc
330
154
 90
        3
 70
     0
 71
     0
  1
AcDbOsnapPointRef
 72
    13
331
B8
 73
     2
 91
        0
 40
0.0
 10
0.0
 20
0.0
 30
2.000000000000000E+50
 75
     0
  1
AcDbOsnapPointRef
 72
    13
331
B5
 73
     2
 91
        0
 40
0.0
 10
0.0
 20
0.0
 30
2.000000000000000E+50
 75
     0
  0
DIMASSOC
  5
167
102
{ACAD_REACTORS
330
166
102
}
330
166
100
AcDbDimAssoc
330
165
 90
        3
 70
     0
 71
     0
  1
AcDbOsnapPointRef
 72
    13
331
C3
 73
     2
 91
        0
 40
0.0
 10
0.0
 20
0.0
 30
2.000000000000000E+50
 75
     0
  1
AcDbOsnapPointRef
 72
     1
331
CB
 73
     2
 91
        0
 40
1.0
 10
0.0
 20
0.0
 30
2.000000000000000E+50
 75
     0
  0
DIMASSOC
  5
1C5
102
{ACAD_REACTORS
330
1C4
102
}
330
1C4
100
AcDbDimAssoc
330
1C3
 90
       15
 70
     0
 71
     0
  1
AcDbOsnapPointRef
 72
    13
331
1BA
 73
     2
 91
        0
 40
0.0
 10
0.0
 20
0.0
 30
2.000000000000000E+50
 75
     0
  1
AcDbOsnapPointRef
 72
     1
331
1BA
 73
     2
 91
        0
 40
1.0
 10
0.0
 20
0.0
 30
2.000000000000000E+50
 75
     0
  1
AcDbOsnapPointRef
 72
    13
331
177
 73
     2
 91
        0
 40
0.0
 10
0.0
 20
0.0
 30
2.000000000000000E+50
 75
     0
  1
AcDbOsnapPointRef
 72
     1
331
177
 73
     2
 91
        0
 40
1.0
 10
0.0
 20
0.0
 30
2.000000000000000E+50
 75
     0
  0
DIMASSOC
  5
1D6
102
{ACAD_REACTORS
330
1D5
102
}
330
1D5
100
AcDbDimAssoc
330
1D4
 90
        3
 70
     0
 71
     0
  1
AcDbOsnapPointRef
 72
     1
331
1BC
 73
     2
 91
        0
 40
1.0
 10
0.0
 20
0.0
 30
2.000000000000000E+50
 75
     0
  1
AcDbOsnapPointRef
 72
     1
331
177
 73
     2
 91
        0
 40
1.0
 10
0.0
 20
0.0
 30
2.000000000000000E+50
 75
     0
  0
XRECORD
  5
239
102
{ACAD_REACTORS
330
237
102
}
330
237
100
AcDbXrecord
280
     1
340
2C
  0
XRECORD
  5
23A
102
{ACAD_REACTORS
330
237
102
}
330
237
100
AcDbXrecord
280
     1
340
2C
  0
XRECORD
  5
238
102
{ACAD_REACTORS
330
237
102
}
330
237
100
AcDbXrecord
280
     1
340
2C
  0
LAYOUT
  5
20
102
{ACAD_REACTORS
330
19
102
}
330
19
100
AcDbPlotSettings
  1

  2
HP LaserJet 5000 Series PS
  4

  6

 40
0.0
 41
0.0
 42
0.0
 43
0.0
 44
0.0
 45
0.0
 46
0.0
 47
0.0
 48
0.0
 49
0.0
140
0.0
141
0.0
142
1.0
143
1.0
 70
   688
 72
     0
 73
     0
 74
     5
  7
C:\Users\R&D\AppData\Roaming\Autodesk\Autodesk Mechanical Desktop 2008\R17.1\kor\Plot Styles\CATALOG.ctb
 75
    16
147
1.0
 76
     0
 77
     2
 78
   300
148
0.0
149
0.0
100
AcDbLayout
  1
Layout1
 70
     1
 71
     1
 10
0.0
 20
0.0
 11
12.0
 21
9.0
 12
2220.404641079056
 22
50.00000000000001
 32
2810.473195709564
 14
1.000000000000000E+20
 24
1.000000000000000E+20
 34
1.000000000000000E+20
 15
-1.000000000000000E+20
 25
-1.000000000000000E+20
 35
-1.000000000000000E+20
146
0.0
 13
0.0
 23
0.0
 33
0.0
 16
1.0
 26
0.0
 36
0.0
 17
0.0
 27
1.0
 37
0.0
 76
     0
330
1B
  0
LAYOUT
  5
18
102
{ACAD_REACTORS
330
19
102
}
330
19
100
AcDbPlotSettings
  1

  2
PublishToWeb JPG.pc3
  4
Sun_Hi-Res_(1600.00_x_1280.00_Pixels)
  6

 40
0.0
 41
0.0
 42
1.0
 43
1.0
 44
1600.0
 45
1280.0
 46
0.0
 47
0.0
 48
2595.0
 49
7.0
140
2798.0
141
134.0
142
1.0
143
0.1269543464665416
 70
 11952
 72
     2
 73
     0
 74
     4
  7
CATALOG.ctb
 75
     0
147
7.876847290640394
 76
     0
 77
     2
 78
   300
148
-2595.0
149
-7.0
100
AcDbLayout
  1
Model
 70
     1
 71
     0
 10
0.0
 20
0.0
 11
12.0
 21
9.0
 12
0.0
 22
0.0
 32
0.0
 14
0.0
 24
0.0
 34
0.0
 15
0.0
 25
0.0
 35
0.0
146
0.0
 13
0.0
 23
0.0
 33
0.0
 16
1.0
 26
0.0
 36
0.0
 17
0.0
 27
1.0
 37
0.0
 76
     0
330
2
331
30
1001
ACAD_PSEXT
1000
PublishToWeb JPG.pc3
1000
Independent JPEG Group JFIF (JPEG Compression)
1000
파일
1000

1070
     0
  0
MATERIAL
  5
51
102
{ACAD_XDICTIONARY
360
52
102
}
102
{ACAD_REACTORS
330
E
102
}
330
E
100
AcDbMaterial
  1
ByBlock
 72
     0
 43
0.0208333333333333
 43
0.0
 43
0.0
 43
0.0
 43
0.0
 43
0.0208333333333333
 43
0.0
 43
0.0
 43
0.0
 43
0.0
 43
1.0
 43
0.0
 43
0.0
 43
0.0
 43
0.0
 43
1.0
 77
     0
 47
0.0208333333333333
 47
0.0
 47
0.0
 47
0.0
 47
0.0
 47
0.0208333333333333
 47
0.0
 47
0.0
 47
0.0
 47
0.0
 47
1.0
 47
0.0
 47
0.0
 47
0.0
 47
0.0
 47
1.0
171
     0
 49
0.0208333333333333
 49
0.0
 49
0.0
 49
0.0
 49
0.0
 49
0.0208333333333333
 49
0.0
 49
0.0
 49
0.0
 49
0.0
 49
1.0
 49
0.0
 49
0.0
 49
0.0
 49
0.0
 49
1.0
175
     0
142
0.0208333333333333
142
0.0
142
0.0
142
0.0
142
0.0
142
0.0208333333333333
142
0.0
142
0.0
142
0.0
142
0.0
142
1.0
142
0.0
142
0.0
142
0.0
142
0.0
142
1.0
179
     0
144
0.0208333333333333
144
0.0
144
0.0
144
0.0
144
0.0
144
0.0208333333333333
144
0.0
144
0.0
144
0.0
144
0.0
144
1.0
144
0.0
144
0.0
144
0.0
144
0.0
144
1.0
147
0.0208333333333333
147
0.0
147
0.0
147
0.0
147
0.0
147
0.0208333333333333
147
0.0
147
0.0
147
0.0
147
0.0
147
1.0
147
0.0
147
0.0
147
0.0
147
0.0
147
1.0
  0
MATERIAL
  5
49
102
{ACAD_XDICTIONARY
360
4A
102
}
102
{ACAD_REACTORS
330
E
102
}
330
E
100
AcDbMaterial
  1
ByLayer
 72
     0
 43
0.0208333333333333
 43
0.0
 43
0.0
 43
0.0
 43
0.0
 43
0.0208333333333333
 43
0.0
 43
0.0
 43
0.0
 43
0.0
 43
1.0
 43
0.0
 43
0.0
 43
0.0
 43
0.0
 43
1.0
 77
     0
 47
0.0208333333333333
 47
0.0
 47
0.0
 47
0.0
 47
0.0
 47
0.0208333333333333
 47
0.0
 47
0.0
 47
0.0
 47
0.0
 47
1.0
 47
0.0
 47
0.0
 47
0.0
 47
0.0
 47
1.0
171
     0
 49
0.0208333333333333
 49
0.0
 49
0.0
 49
0.0
 49
0.0
 49
0.0208333333333333
 49
0.0
 49
0.0
 49
0.0
 49
0.0
 49
1.0
 49
0.0
 49
0.0
 49
0.0
 49
0.0
 49
1.0
175
     0
142
0.0208333333333333
142
0.0
142
0.0
142
0.0
142
0.0
142
0.0208333333333333
142
0.0
142
0.0
142
0.0
142
0.0
142
1.0
142
0.0
142
0.0
142
0.0
142
0.0
142
1.0
179
     0
144
0.0208333333333333
144
0.0
144
0.0
144
0.0
144
0.0
144
0.0208333333333333
144
0.0
144
0.0
144
0.0
144
0.0
144
1.0
144
0.0
144
0.0
144
0.0
144
0.0
144
1.0
147
0.0208333333333333
147
0.0
147
0.0
147
0.0
147
0.0
147
0.0208333333333333
147
0.0
147
0.0
147
0.0
147
0.0
147
1.0
147
0.0
147
0.0
147
0.0
147
0.0
147
1.0
  0
MATERIAL
  5
D
102
{ACAD_XDICTIONARY
360
F
102
}
102
{ACAD_REACTORS
330
E
102
}
330
E
100
AcDbMaterial
  1
Global
 72
     0
 43
0.0208333333333333
 43
0.0
 43
0.0
 43
0.0
 43
0.0
 43
0.0208333333333333
 43
0.0
 43
0.0
 43
0.0
 43
0.0
 43
1.0
 43
0.0
 43
0.0
 43
0.0
 43
0.0
 43
1.0
 77
     0
 47
0.0208333333333333
 47
0.0
 47
0.0
 47
0.0
 47
0.0
 47
0.0208333333333333
 47
0.0
 47
0.0
 47
0.0
 47
0.0
 47
1.0
 47
0.0
 47
0.0
 47
0.0
 47
0.0
 47
1.0
171
     0
 49
0.0208333333333333
 49
0.0
 49
0.0
 49
0.0
 49
0.0
 49
0.0208333333333333
 49
0.0
 49
0.0
 49
0.0
 49
0.0
 49
1.0
 49
0.0
 49
0.0
 49
0.0
 49
0.0
 49
1.0
175
     0
142
0.0208333333333333
142
0.0
142
0.0
142
0.0
142
0.0
142
0.0208333333333333
142
0.0
142
0.0
142
0.0
142
0.0
142
1.0
142
0.0
142
0.0
142
0.0
142
0.0
142
1.0
179
     0
144
0.0208333333333333
144
0.0
144
0.0
144
0.0
144
0.0
144
0.0208333333333333
144
0.0
144
0.0
144
0.0
144
0.0
144
1.0
144
0.0
144
0.0
144
0.0
144
0.0
144
1.0
147
0.0208333333333333
147
0.0
147
0.0
147
0.0
147
0.0
147
0.0208333333333333
147
0.0
147
0.0
147
0.0
147
0.0
147
1.0
147
0.0
147
0.0
147
0.0
147
0.0
147
1.0
  0
MLEADERSTYLE
  5
21B
102
{ACAD_REACTORS
330
21A
102
}
330
21A
100
AcDbMLeaderStyle
170
     2
171
     1
172
     0
 90
        2
 40
0.0
 41
0.0
173
     1
 91
-1056964608
340
2B
 92
       -2
290
     1
 42
0.09
291
     1
 43
0.36
  3
Standard
 44
0.18
300

342
28
174
     1
178
     6
175
     1
176
     0
 93
-1056964608
 45
0.18
292
     0
297
     0
 46
0.18
 94
-1056964608
 47
1.0
 49
1.0
140
1.0
293
     1
141
0.0
294
     1
177
     0
142
1.0
295
     0
296
     0
143
0.125
1001
ACAD_MLEADERVER
1070
     2
  0
MLINESTYLE
  5
5F
102
{ACAD_REACTORS
330
47
102
}
330
47
100
AcDbMlineStyle
  2
STANDARD
 70
     0
  3

 62
   256
 51
90.0
 52
90.0
 71
     2
 49
0.5
 62
   256
  6
BYLAYER
 49
-0.5
 62
   256
  6
BYLAYER
  0
ACDBPLACEHOLDER
  5
A
102
{ACAD_REACTORS
330
B
102
}
330
B
  0
SCALE
  5
64
102
{ACAD_REACTORS
330
5A
102
}
330
5A
100
AcDbScale
 70
     0
300
1/128" = 1'-0"_1
140
0.007812
141
12.0
290
     0
  0
SCALE
  5
65
102
{ACAD_REACTORS
330
5A
102
}
330
5A
100
AcDbScale
 70
     0
300
1:1
140
1.0
141
1.0
290
     1
  0
SCALE
  5
66
102
{ACAD_REACTORS
330
5A
102
}
330
5A
100
AcDbScale
 70
     0
300
1:2
140
1.0
141
2.0
290
     0
  0
SCALE
  5
67
102
{ACAD_REACTORS
330
5A
102
}
330
5A
100
AcDbScale
 70
     0
300
1:4
140
1.0
141
4.0
290
     0
  0
SCALE
  5
68
102
{ACAD_REACTORS
330
5A
102
}
330
5A
100
AcDbScale
 70
     0
300
1:5
140
1.0
141
5.0
290
     0
  0
SCALE
  5
69
102
{ACAD_REACTORS
330
5A
102
}
330
5A
100
AcDbScale
 70
     0
300
1:8
140
1.0
141
8.0
290
     0
  0
SCALE
  5
6A
102
{ACAD_REACTORS
330
5A
102
}
330
5A
100
AcDbScale
 70
     0
300
1:10
140
1.0
141
10.0
290
     0
  0
SCALE
  5
6B
102
{ACAD_REACTORS
330
5A
102
}
330
5A
100
AcDbScale
 70
     0
300
1:16
140
1.0
141
16.0
290
     0
  0
SCALE
  5
6C
102
{ACAD_REACTORS
330
5A
102
}
330
5A
100
AcDbScale
 70
     0
300
1:20
140
1.0
141
20.0
290
     0
  0
SCALE
  5
6D
102
{ACAD_REACTORS
330
5A
102
}
330
5A
100
AcDbScale
 70
     0
300
1:30
140
1.0
141
30.0
290
     0
  0
SCALE
  5
6E
102
{ACAD_REACTORS
330
5A
102
}
330
5A
100
AcDbScale
 70
     0
300
1:40
140
1.0
141
40.0
290
     0
  0
SCALE
  5
6F
102
{ACAD_REACTORS
330
5A
102
}
330
5A
100
AcDbScale
 70
     0
300
1:50
140
1.0
141
50.0
290
     0
  0
SCALE
  5
70
102
{ACAD_REACTORS
330
5A
102
}
330
5A
100
AcDbScale
 70
     0
300
1:100
140
1.0
141
100.0
290
     0
  0
SCALE
  5
71
102
{ACAD_REACTORS
330
5A
102
}
330
5A
100
AcDbScale
 70
     0
300
2:1
140
2.0
141
1.0
290
     0
  0
SCALE
  5
72
102
{ACAD_REACTORS
330
5A
102
}
330
5A
100
AcDbScale
 70
     0
300
4:1
140
4.0
141
1.0
290
     0
  0
SCALE
  5
73
102
{ACAD_REACTORS
330
5A
102
}
330
5A
100
AcDbScale
 70
     0
300
8:1
140
8.0
141
1.0
290
     0
  0
SCALE
  5
74
102
{ACAD_REACTORS
330
5A
102
}
330
5A
100
AcDbScale
 70
     0
300
10:1
140
10.0
141
1.0
290
     0
  0
SCALE
  5
75
102
{ACAD_REACTORS
330
5A
102
}
330
5A
100
AcDbScale
 70
     0
300
100:1
140
100.0
141
1.0
290
     0
  0
SCALE
  5
76
102
{ACAD_REACTORS
330
5A
102
}
330
5A
100
AcDbScale
 70
     0
300
1/128" = 1'-0"
140
0.0078125
141
12.0
290
     0
  0
SCALE
  5
77
102
{ACAD_REACTORS
330
5A
102
}
330
5A
100
AcDbScale
 70
     0
300
1/64" = 1'-0"
140
0.015625
141
12.0
290
     0
  0
SCALE
  5
78
102
{ACAD_REACTORS
330
5A
102
}
330
5A
100
AcDbScale
 70
     0
300
1/32" = 1'-0"
140
0.03125
141
12.0
290
     0
  0
SCALE
  5
79
102
{ACAD_REACTORS
330
5A
102
}
330
5A
100
AcDbScale
 70
     0
300
1/16" = 1'-0"
140
0.0625
141
12.0
290
     0
  0
SCALE
  5
7A
102
{ACAD_REACTORS
330
5A
102
}
330
5A
100
AcDbScale
 70
     0
300
3/32" = 1'-0"
140
0.09375
141
12.0
290
     0
  0
SCALE
  5
7B
102
{ACAD_REACTORS
330
5A
102
}
330
5A
100
AcDbScale
 70
     0
300
1/8" = 1'-0"
140
0.125
141
12.0
290
     0
  0
SCALE
  5
7C
102
{ACAD_REACTORS
330
5A
102
}
330
5A
100
AcDbScale
 70
     0
300
3/16" = 1'-0"
140
0.1875
141
12.0
290
     0
  0
SCALE
  5
7D
102
{ACAD_REACTORS
330
5A
102
}
330
5A
100
AcDbScale
 70
     0
300
1/4" = 1'-0"
140
0.25
141
12.0
290
     0
  0
SCALE
  5
7E
102
{ACAD_REACTORS
330
5A
102
}
330
5A
100
AcDbScale
 70
     0
300
3/8" = 1'-0"
140
0.375
141
12.0
290
     0
  0
SCALE
  5
7F
102
{ACAD_REACTORS
330
5A
102
}
330
5A
100
AcDbScale
 70
     0
300
1/2" = 1'-0"
140
0.5
141
12.0
290
     0
  0
SCALE
  5
80
102
{ACAD_REACTORS
330
5A
102
}
330
5A
100
AcDbScale
 70
     0
300
3/4" = 1'-0"
140
0.75
141
12.0
290
     0
  0
SCALE
  5
81
102
{ACAD_REACTORS
330
5A
102
}
330
5A
100
AcDbScale
 70
     0
300
1" = 1'-0"
140
1.0
141
12.0
290
     0
  0
SCALE
  5
82
102
{ACAD_REACTORS
330
5A
102
}
330
5A
100
AcDbScale
 70
     0
300
1-1/2" = 1'-0"
140
1.5
141
12.0
290
     0
  0
SCALE
  5
83
102
{ACAD_REACTORS
330
5A
102
}
330
5A
100
AcDbScale
 70
     0
300
3" = 1'-0"
140
3.0
141
12.0
290
     0
  0
SCALE
  5
84
102
{ACAD_REACTORS
330
5A
102
}
330
5A
100
AcDbScale
 70
     0
300
6" = 1'-0"
140
6.0
141
12.0
290
     0
  0
SCALE
  5
85
102
{ACAD_REACTORS
330
5A
102
}
330
5A
100
AcDbScale
 70
     0
300
1'-0" = 1'-0"
140
12.0
141
12.0
290
     0
  0
TABLESTYLE
  5
60
102
{ACAD_XDICTIONARY
360
61
102
}
102
{ACAD_REACTORS
330
5B
102
}
330
5B
100
AcDbTableStyle
  3
Standard
 70
     0
 71
     0
 40
0.06
 41
0.06
280
     0
281
     0
  7
STANDARD
140
0.18
170
     2
 62
     0
 63
     7
283
     0
274
    -2
284
     1
 64
     0
275
    -2
285
     1
 65
     0
276
    -2
286
     1
 66
     0
277
    -2
287
     1
 67
     0
278
    -2
288
     1
 68
     0
279
    -2
289
     1
 69
     0
  7
STANDARD
140
0.25
170
     5
 62
     0
 63
     7
283
     0
274
    -2
284
     1
 64
     0
275
    -2
285
     1
 65
     0
276
    -2
286
     1
 66
     0
277
    -2
287
     1
 67
     0
278
    -2
288
     1
 68
     0
279
    -2
289
     1
 69
     0
  7
STANDARD
140
0.18
170
     5
 62
     0
 63
     7
283
     0
274
    -2
284
     1
 64
     0
275
    -2
285
     1
 65
     0
276
    -2
286
     1
 66
     0
277
    -2
287
     1
 67
     0
278
    -2
288
     1
 68
     0
279
    -2
289
     1
 69
     0
  0
VISUALSTYLE
  5
31
102
{ACAD_REACTORS
330
32
102
}
330
32
100
AcDbVisualStyle
  2
2dWireframe
 70
     4
 71
     0
 72
     2
 73
     0
 90
        0
 40
-0.6
 41
-30.0
 62
     5
 63
     7
 74
     1
 91
        4
 64
     7
 65
   257
 75
     1
175
     1
 42
1.0
 92
        0
 66
   257
 43
1.0
 76
     1
 77
     6
 78
     2
 67
     7
 79
     5
170
     0
171
     0
290
     0
174
     0
 93
        1
 44
0.0
173
     0
291
     0
 45
0.0
1001
ACAD
1000
AcDbSavedByObjectVersion
1070
     0
  0
VISUALSTYLE
  5
212
102
{ACAD_REACTORS
330
32
102
}
330
32
100
AcDbVisualStyle
  2
3D Hidden
 70
     6
 71
     1
 72
     2
 73
     2
 90
        0
 40
-0.6
 41
-30.0
 62
     5
 63
     7
421
 16777215
 74
     2
 91
        2
 64
     7
 65
   257
 75
     2
175
     1
 42
40.0
 92
        0
 66
   257
 43
1.0
 76
     1
 77
     6
 78
     2
 67
     7
 79
     3
170
     0
171
     0
290
     0
174
     0
 93
        1
 44
0.0
173
     0
291
     0
 45
0.0
1001
ACAD
1000
AcDbSavedByObjectVersion
1070
     0
  0
VISUALSTYLE
  5
63
102
{ACAD_REACTORS
330
32
102
}
330
32
100
AcDbVisualStyle
  2
3dWireframe
 70
     5
 71
     0
 72
     2
 73
     0
 90
        0
 40
-0.6
 41
-30.0
 62
     5
 63
     7
 74
     1
 91
        4
 64
     7
 65
   257
 75
     1
175
     1
 42
1.0
 92
        0
 66
   257
 43
1.0
 76
     1
 77
     6
 78
     2
 67
     7
 79
     5
170
     0
171
     0
290
     0
174
     0
 93
        1
 44
0.0
173
     0
291
     0
 45
0.0
1001
ACAD
1000
AcDbSavedByObjectVersion
1070
     0
  0
VISUALSTYLE
  5
211
102
{ACAD_REACTORS
330
32
102
}
330
32
100
AcDbVisualStyle
  2
Basic
 70
     7
 71
     1
 72
     0
 73
     1
 90
        0
 40
-0.6
 41
-30.0
 62
     5
 63
     7
421
 16777215
 74
     0
 91
        4
 64
     7
 65
   257
 75
     1
175
     1
 42
1.0
 92
        8
 66
     7
 43
1.0
 76
     1
 77
     6
 78
     2
 67
     7
 79
     5
170
     0
171
     0
290
     0
174
     0
 93
        1
 44
0.0
173
     0
291
     1
 45
0.0
1001
ACAD
1000
AcDbSavedByObjectVersion
1070
     0
  0
VISUALSTYLE
  5
215
102
{ACAD_REACTORS
330
32
102
}
330
32
100
AcDbVisualStyle
  2
Brighten
 70
    12
 71
     2
 72
     2
 73
     0
 90
        0
 40
-0.6
 41
-30.0
 62
     5
 63
     7
421
 16777215
 74
     1
 91
        4
 64
     7
 65
   257
 75
     1
175
     1
 42
1.0
 92
        8
 66
     7
 43
1.0
 76
     1
 77
     6
 78
     2
 67
     7
 79
     5
170
     0
171
     0
290
     0
174
     0
 93
        1
 44
50.0
173
     0
291
     1
 45
0.0
1001
ACAD
1000
AcDbSavedByObjectVersion
1070
     0
  0
VISUALSTYLE
  5
219
102
{ACAD_REACTORS
330
32
102
}
330
32
100
AcDbVisualStyle
  2
ColorChange
 70
    16
 71
     2
 72
     2
 73
     3
 90
        0
 40
-0.6
 41
-30.0
 62
     5
 63
     8
421
  8421504
 74
     1
 91
        4
 64
     7
 65
   257
 75
     1
175
     1
 42
1.0
 92
        8
 66
     8
424
  8421504
 43
1.0
 76
     1
 77
     6
 78
     2
 67
     7
 79
     5
170
     0
171
     0
290
     0
174
     0
 93
        1
 44
0.0
173
     0
291
     1
 45
0.0
1001
ACAD
1000
AcDbSavedByObjectVersion
1070
     0
  0
VISUALSTYLE
  5
213
102
{ACAD_REACTORS
330
32
102
}
330
32
100
AcDbVisualStyle
  2
Conceptual
 70
     9
 71
     3
 72
     2
 73
     0
 90
        0
 40
-0.6
 41
-30.0
 62
     5
 63
     7
421
 16777215
 74
     2
 91
        2
 64
     7
 65
   257
 75
     1
175
     1
 42
40.0
 92
        8
 66
     7
 43
1.0
 76
     1
 77
     6
 78
     2
 67
     7
 79
     3
170
     0
171
     0
290
     0
174
     0
 93
        1
 44
0.0
173
     0
291
     0
 45
0.0
1001
ACAD
1000
AcDbSavedByObjectVersion
1070
     0
  0
VISUALSTYLE
  5
214
102
{ACAD_REACTORS
330
32
102
}
330
32
100
AcDbVisualStyle
  2
Dim
 70
    11
 71
     2
 72
     2
 73
     0
 90
        0
 40
-0.6
 41
-30.0
 62
     5
 63
     7
421
 16777215
 74
     1
 91
        4
 64
     7
 65
   257
 75
     1
175
     1
 42
1.0
 92
        8
 66
     7
 43
1.0
 76
     1
 77
     6
 78
     2
 67
     7
 79
     5
170
     0
171
     0
290
     0
174
     0
 93
        1
 44
-50.0
173
     0
291
     1
 45
0.0
1001
ACAD
1000
AcDbSavedByObjectVersion
1070
     0
  0
VISUALSTYLE
  5
218
102
{ACAD_REACTORS
330
32
102
}
330
32
100
AcDbVisualStyle
  2
Facepattern
 70
    15
 71
     2
 72
     2
 73
     0
 90
        0
 40
-0.6
 41
-30.0
 62
     5
 63
     7
421
 16777215
 74
     1
 91
        4
 64
     7
 65
   257
 75
     1
175
     1
 42
1.0
 92
        8
 66
     7
 43
1.0
 76
     1
 77
     6
 78
     2
 67
     7
 79
     5
170
     0
171
     0
290
     0
174
     0
 93
        1
 44
0.0
173
     0
291
     1
 45
0.0
1001
ACAD
1000
AcDbSavedByObjectVersion
1070
     0
  0
VISUALSTYLE
  5
20D
102
{ACAD_REACTORS
330
32
102
}
330
32
100
AcDbVisualStyle
  2
Flat
 70
     0
 71
     2
 72
     1
 73
     1
 90
        2
 40
-0.6
 41
30.0
 62
     5
 63
     7
421
 16777215
 74
     0
 91
        4
 64
     7
 65
   257
 75
     1
175
     1
 42
1.0
 92
        8
 66
     7
 43
1.0
 76
     1
 77
     6
 78
     2
 67
     7
 79
     5
170
     0
171
     0
290
     0
174
     0
 93
       13
 44
0.0
173
     0
291
     1
 45
0.0
1001
ACAD
1000
AcDbSavedByObjectVersion
1070
     0
  0
VISUALSTYLE
  5
20E
102
{ACAD_REACTORS
330
32
102
}
330
32
100
AcDbVisualStyle
  2
FlatWithEdges
 70
     1
 71
     2
 72
     1
 73
     1
 90
        2
 40
-0.6
 41
30.0
 62
     5
 63
     7
421
 16777215
 74
     1
 91
        4
 64
     7
 65
   257
 75
     1
175
     1
 42
1.0
 92
        0
 66
   257
 43
1.0
 76
     1
 77
     6
 78
     2
 67
     7
 79
     5
170
     0
171
     0
290
     0
174
     0
 93
       13
 44
0.0
173
     0
291
     1
 45
0.0
1001
ACAD
1000
AcDbSavedByObjectVersion
1070
     0
  0
VISUALSTYLE
  5
20F
102
{ACAD_REACTORS
330
32
102
}
330
32
100
AcDbVisualStyle
  2
Gouraud
 70
     2
 71
     2
 72
     2
 73
     1
 90
        2
 40
-0.6
 41
30.0
 62
     5
 63
     7
421
 16777215
 74
     0
 91
        4
 64
     7
 65
   257
 75
     1
175
     1
 42
1.0
 92
        0
 66
     7
 43
1.0
 76
     1
 77
     6
 78
     2
 67
     7
 79
     5
170
     0
171
     0
290
     0
174
     0
 93
       13
 44
0.0
173
     0
291
     1
 45
0.0
1001
ACAD
1000
AcDbSavedByObjectVersion
1070
     0
  0
VISUALSTYLE
  5
210
102
{ACAD_REACTORS
330
32
102
}
330
32
100
AcDbVisualStyle
  2
GouraudWithEdges
 70
     3
 71
     2
 72
     2
 73
     1
 90
        2
 40
-0.6
 41
30.0
 62
     5
 63
     7
421
 16777215
 74
     1
 91
        4
 64
     7
 65
   257
 75
     1
175
     1
 42
1.0
 92
        0
 66
   257
 43
1.0
 76
     1
 77
     6
 78
     2
 67
     7
 79
     5
170
     0
171
     0
290
     0
174
     0
 93
       13
 44
0.0
173
     0
291
     1
 45
0.0
1001
ACAD
1000
AcDbSavedByObjectVersion
1070
     0
  0
VISUALSTYLE
  5
217
102
{ACAD_REACTORS
330
32
102
}
330
32
100
AcDbVisualStyle
  2
Linepattern
 70
    14
 71
     2
 72
     2
 73
     0
 90
        0
 40
-0.6
 41
-30.0
 62
     5
 63
     7
421
 16777215
 74
     1
 91
        4
 64
     7
 65
   257
 75
     7
175
     7
 42
1.0
 92
        8
 66
     7
 43
1.0
 76
     1
 77
     6
 78
     2
 67
     7
 79
     5
170
     0
171
     0
290
     0
174
     0
 93
        1
 44
0.0
173
     0
291
     1
 45
0.0
1001
ACAD
1000
AcDbSavedByObjectVersion
1070
     0
  0
VISUALSTYLE
  5
62
102
{ACAD_REACTORS
330
32
102
}
330
32
100
AcDbVisualStyle
  2
Realistic
 70
     8
 71
     2
 72
     2
 73
     0
 90
        0
 40
-0.6
 41
-30.0
 62
     5
 63
     7
 74
     1
 91
        0
 64
     7
 65
   257
 75
     1
175
     1
 42
1.0
 92
        8
 66
     8
 43
1.0
 76
     1
 77
     6
 78
     2
 67
     7
 79
     5
170
     0
171
     0
290
     0
174
     0
 93
       13
 44
0.0
173
     0
291
     0
 45
0.0
1001
ACAD
1000
AcDbSavedByObjectVersion
1070
     0
  0
VISUALSTYLE
  5
216
102
{ACAD_REACTORS
330
32
102
}
330
32
100
AcDbVisualStyle
  2
Thicken
 70
    13
 71
     2
 72
     2
 73
     0
 90
        0
 40
-0.6
 41
-30.0
 62
     5
 63
     7
421
 16777215
 74
     1
 91
        4
 64
     7
 65
   257
 75
     1
175
     1
 42
1.0
 92
       12
 66
     7
 43
1.0
 76
     1
 77
     6
 78
     2
 67
     7
 79
     5
170
     0
171
     0
290
     0
174
     0
 93
        1
 44
0.0
173
     0
291
     1
 45
0.0
1001
ACAD
1000
AcDbSavedByObjectVersion
1070
     0
  0
DICTIONARYVAR
  5
207
102
{ACAD_REACTORS
330
203
102
}
330
203
100
DictionaryVariables
280
     0
  1
1:1
  0
DICTIONARYVAR
  5
205
102
{ACAD_REACTORS
330
203
102
}
330
203
100
DictionaryVariables
280
     0
  1
STANDARD
  0
DICTIONARYVAR
  5
204
102
{ACAD_REACTORS
330
203
102
}
330
203
100
DictionaryVariables
280
     0
  1
STANDARD
  0
DICTIONARYVAR
  5
20B
102
{ACAD_REACTORS
330
203
102
}
330
203
100
DictionaryVariables
280
     0
  1
2
  0
DICTIONARYVAR
  5
20A
102
{ACAD_REACTORS
330
203
102
}
330
203
100
DictionaryVariables
280
     0
  1
1
  0
DICTIONARYVAR
  5
209
102
{ACAD_REACTORS
330
203
102
}
330
203
100
DictionaryVariables
280
     0
  1
0
  0
DICTIONARYVAR
  5
206
102
{ACAD_REACTORS
330
203
102
}
330
203
100
DictionaryVariables
280
     0
  1
1
  0
DICTIONARYVAR
  5
208
102
{ACAD_REACTORS
330
203
102
}
330
203
100
DictionaryVariables
280
     0
  1
127
  0
DICTIONARY
  5
52
330
51
100
AcDbDictionary
280
     1
281
     1
  3
ACAD_XREC_ROUNDTRIP
360
23D
  3
BUMPTILE
360
53
  3
DIFFUSETILE
360
54
  3
OPACITYTILE
360
55
  3
REFLECTIONTILE
360
56
  3
REFRACTIONTILE
360
57
  3
SPECULARTILE
360
58
  0
DICTIONARY
  5
4A
330
49
100
AcDbDictionary
280
     1
281
     1
  3
ACAD_XREC_ROUNDTRIP
360
23C
  3
BUMPTILE
360
4B
  3
DIFFUSETILE
360
4C
  3
OPACITYTILE
360
4D
  3
REFLECTIONTILE
360
4E
  3
REFRACTIONTILE
360
4F
  3
SPECULARTILE
360
50
  0
DICTIONARY
  5
F
330
D
100
AcDbDictionary
280
     1
281
     1
  3
ACAD_XREC_ROUNDTRIP
360
23B
  3
BUMPTILE
360
10
  3
DIFFUSETILE
360
11
  3
OPACITYTILE
360
12
  3
REFLECTIONTILE
360
13
  3
REFRACTIONTILE
360
14
  3
SPECULARTILE
360
15
  0
DICTIONARY
  5
61
330
60
100
AcDbDictionary
280
     1
281
     1
  3
ACAD_ROUNDTRIP_2008_TABLESTYLE_CELLSTYLEMAP
360
236
  3
ACAD_XREC_ROUNDTRIP
360
23E
  0
XRECORD
  5
23D
102
{ACAD_REACTORS
330
52
102
}
330
52
100
AcDbXrecord
280
     1
102
MATERIAL
148
0.0
149
0.0
149
0.0
 93
        0
 94
      127
282
     0
 72
     0
 77
     0
171
     0
175
     0
179
     0
273
     0
  0
XRECORD
  5
53
102
{ACAD_REACTORS
330
52
102
}
330
52
100
AcDbXrecord
280
     1
270
     1
271
     1
  0
XRECORD
  5
54
102
{ACAD_REACTORS
330
52
102
}
330
52
100
AcDbXrecord
280
     1
270
     1
271
     1
  0
XRECORD
  5
55
102
{ACAD_REACTORS
330
52
102
}
330
52
100
AcDbXrecord
280
     1
270
     1
271
     1
  0
XRECORD
  5
56
102
{ACAD_REACTORS
330
52
102
}
330
52
100
AcDbXrecord
280
     1
270
     1
271
     1
  0
XRECORD
  5
57
102
{ACAD_REACTORS
330
52
102
}
330
52
100
AcDbXrecord
280
     1
270
     1
271
     1
  0
XRECORD
  5
58
102
{ACAD_REACTORS
330
52
102
}
330
52
100
AcDbXrecord
280
     1
270
     1
271
     1
  0
XRECORD
  5
23C
102
{ACAD_REACTORS
330
4A
102
}
330
4A
100
AcDbXrecord
280
     1
102
MATERIAL
148
0.0
149
0.0
149
0.0
 93
        0
 94
      127
282
     0
 72
     0
 77
     0
171
     0
175
     0
179
     0
273
     0
  0
XRECORD
  5
4B
102
{ACAD_REACTORS
330
4A
102
}
330
4A
100
AcDbXrecord
280
     1
270
     1
271
     1
  0
XRECORD
  5
4C
102
{ACAD_REACTORS
330
4A
102
}
330
4A
100
AcDbXrecord
280
     1
270
     1
271
     1
  0
XRECORD
  5
4D
102
{ACAD_REACTORS
330
4A
102
}
330
4A
100
AcDbXrecord
280
     1
270
     1
271
     1
  0
XRECORD
  5
4E
102
{ACAD_REACTORS
330
4A
102
}
330
4A
100
AcDbXrecord
280
     1
270
     1
271
     1
  0
XRECORD
  5
4F
102
{ACAD_REACTORS
330
4A
102
}
330
4A
100
AcDbXrecord
280
     1
270
     1
271
     1
  0
XRECORD
  5
50
102
{ACAD_REACTORS
330
4A
102
}
330
4A
100
AcDbXrecord
280
     1
270
     1
271
     1
  0
XRECORD
  5
23B
102
{ACAD_REACTORS
330
F
102
}
330
F
100
AcDbXrecord
280
     1
102
MATERIAL
148
0.0
149
0.0
149
0.0
 93
        0
 94
      127
282
     0
 72
     0
 77
     0
171
     0
175
     0
179
     0
273
     0
  0
XRECORD
  5
10
102
{ACAD_REACTORS
330
F
102
}
330
F
100
AcDbXrecord
280
     1
270
     1
271
     1
  0
XRECORD
  5
11
102
{ACAD_REACTORS
330
F
102
}
330
F
100
AcDbXrecord
280
     1
270
     1
271
     1
  0
XRECORD
  5
12
102
{ACAD_REACTORS
330
F
102
}
330
F
100
AcDbXrecord
280
     1
270
     1
271
     1
  0
XRECORD
  5
13
102
{ACAD_REACTORS
330
F
102
}
330
F
100
AcDbXrecord
280
     1
270
     1
271
     1
  0
XRECORD
  5
14
102
{ACAD_REACTORS
330
F
102
}
330
F
100
AcDbXrecord
280
     1
270
     1
271
     1
  0
XRECORD
  5
15
102
{ACAD_REACTORS
330
F
102
}
330
F
100
AcDbXrecord
280
     1
270
     1
271
     1
  0
CELLSTYLEMAP
  5
236
102
{ACAD_REACTORS
330
61
102
}
330
61
100
AcDbCellStyleMap
 90
        3
300
CELLSTYLE
  1
TABLEFORMAT_BEGIN
 90
        5
170
     1
 91
        0
 92
    32768
 62
   257
 93
        1
300
CONTENTFORMAT
  1
CONTENTFORMAT_BEGIN
 90
        0
 91
        0
 92
      512
 93
        0
300

 40
0.0
140
1.0
 94
        5
 62
     0
340
28
144
0.25
309
CONTENTFORMAT_END
171
     1
301
MARGIN
  1
CELLMARGIN_BEGIN
 40
0.06
 40
0.06
 40
0.06
 40
0.06
 40
0.18
 40
0.18
309
CELLMARGIN_END
 94
        6
 95
        1
302
GRIDFORMAT
  1
GRIDFORMAT_BEGIN
 90
        0
 91
        1
 62
     0
 92
       -2
340
0
 93
        0
 40
0.045
309
GRIDFORMAT_END
 95
        2
302
GRIDFORMAT
  1
GRIDFORMAT_BEGIN
 90
        0
 91
        1
 62
     0
 92
       -2
340
0
 93
        0
 40
0.045
309
GRIDFORMAT_END
 95
        4
302
GRIDFORMAT
  1
GRIDFORMAT_BEGIN
 90
        0
 91
        1
 62
     0
 92
       -2
340
0
 93
        0
 40
0.045
309
GRIDFORMAT_END
 95
        8
302
GRIDFORMAT
  1
GRIDFORMAT_BEGIN
 90
        0
 91
        1
 62
     0
 92
       -2
340
0
 93
        0
 40
0.045
309
GRIDFORMAT_END
 95
       16
302
GRIDFORMAT
  1
GRIDFORMAT_BEGIN
 90
        0
 91
        1
 62
     0
 92
       -2
340
0
 93
        0
 40
0.045
309
GRIDFORMAT_END
 95
       32
302
GRIDFORMAT
  1
GRIDFORMAT_BEGIN
 90
        0
 91
        1
 62
     0
 92
       -2
340
0
 93
        0
 40
0.045
309
GRIDFORMAT_END
309
TABLEFORMAT_END
  1
CELLSTYLE_BEGIN
 90
        1
 91
        1
300
_TITLE
309
CELLSTYLE_END
300
CELLSTYLE
  1
TABLEFORMAT_BEGIN
 90
        5
170
     1
 91
        0
 92
        0
 62
   257
 93
        1
300
CONTENTFORMAT
  1
CONTENTFORMAT_BEGIN
 90
        0
 91
        0
 92
      512
 93
        0
300

 40
0.0
140
1.0
 94
        5
 62
     0
340
28
144
0.18
309
CONTENTFORMAT_END
171
     1
301
MARGIN
  1
CELLMARGIN_BEGIN
 40
0.06
 40
0.06
 40
0.06
 40
0.06
 40
0.18
 40
0.18
309
CELLMARGIN_END
 94
        6
 95
        1
302
GRIDFORMAT
  1
GRIDFORMAT_BEGIN
 90
        0
 91
        1
 62
     0
 92
       -2
340
0
 93
        0
 40
0.045
309
GRIDFORMAT_END
 95
        2
302
GRIDFORMAT
  1
GRIDFORMAT_BEGIN
 90
        0
 91
        1
 62
     0
 92
       -2
340
0
 93
        0
 40
0.045
309
GRIDFORMAT_END
 95
        4
302
GRIDFORMAT
  1
GRIDFORMAT_BEGIN
 90
        0
 91
        1
 62
     0
 92
       -2
340
0
 93
        0
 40
0.045
309
GRIDFORMAT_END
 95
        8
302
GRIDFORMAT
  1
GRIDFORMAT_BEGIN
 90
        0
 91
        1
 62
     0
 92
       -2
340
0
 93
        0
 40
0.045
309
GRIDFORMAT_END
 95
       16
302
GRIDFORMAT
  1
GRIDFORMAT_BEGIN
 90
        0
 91
        1
 62
     0
 92
       -2
340
0
 93
        0
 40
0.045
309
GRIDFORMAT_END
 95
       32
302
GRIDFORMAT
  1
GRIDFORMAT_BEGIN
 90
        0
 91
        1
 62
     0
 92
       -2
340
0
 93
        0
 40
0.045
309
GRIDFORMAT_END
309
TABLEFORMAT_END
  1
CELLSTYLE_BEGIN
 90
        2
 91
        1
300
_HEADER
309
CELLSTYLE_END
300
CELLSTYLE
  1
TABLEFORMAT_BEGIN
 90
        5
170
     1
 91
        0
 92
        0
 62
   257
 93
        1
300
CONTENTFORMAT
  1
CONTENTFORMAT_BEGIN
 90
        0
 91
        0
 92
      512
 93
        0
300

 40
0.0
140
1.0
 94
        2
 62
     0
340
28
144
0.18
309
CONTENTFORMAT_END
171
     1
301
MARGIN
  1
CELLMARGIN_BEGIN
 40
0.06
 40
0.06
 40
0.06
 40
0.06
 40
0.18
 40
0.18
309
CELLMARGIN_END
 94
        6
 95
        1
302
GRIDFORMAT
  1
GRIDFORMAT_BEGIN
 90
        0
 91
        1
 62
     0
 92
       -2
340
0
 93
        0
 40
0.045
309
GRIDFORMAT_END
 95
        2
302
GRIDFORMAT
  1
GRIDFORMAT_BEGIN
 90
        0
 91
        1
 62
     0
 92
       -2
340
0
 93
        0
 40
0.045
309
GRIDFORMAT_END
 95
        4
302
GRIDFORMAT
  1
GRIDFORMAT_BEGIN
 90
        0
 91
        1
 62
     0
 92
       -2
340
0
 93
        0
 40
0.045
309
GRIDFORMAT_END
 95
        8
302
GRIDFORMAT
  1
GRIDFORMAT_BEGIN
 90
        0
 91
        1
 62
     0
 92
       -2
340
0
 93
        0
 40
0.045
309
GRIDFORMAT_END
 95
       16
302
GRIDFORMAT
  1
GRIDFORMAT_BEGIN
 90
        0
 91
        1
 62
     0
 92
       -2
340
0
 93
        0
 40
0.045
309
GRIDFORMAT_END
 95
       32
302
GRIDFORMAT
  1
GRIDFORMAT_BEGIN
 90
        0
 91
        1
 62
     0
 92
       -2
340
0
 93
        0
 40
0.045
309
GRIDFORMAT_END
309
TABLEFORMAT_END
  1
CELLSTYLE_BEGIN
 90
        3
 91
        2
300
_DATA
309
CELLSTYLE_END
  0
XRECORD
  5
23E
102
{ACAD_REACTORS
330
61
102
}
330
61
100
AcDbXrecord
280
     1
102
ACAD_ROUNDTRIP_PRE2007_TABLESTYLE
 90
      512
 91
        0
  1

 92
      512
 93
        0
  2

 94
      512
 95
        0
  3

  0
ENDSEC
  0
EOF
