  0
SECTION
  2
HEADER
  9
$ACADVER
  1
AC1018
  9
$ACADMAINTVER
 70
   104
  9
$DWGCODEPAGE
  3
ANSI_949
  9
$LASTSAVEDBY
  1
R&D
  9
$INSBASE
 10
3506.0
 20
7.0
 30
0.0
  9
$EXTMIN
 10
3510.0
 20
9.999998870094714
 30
0.0
  9
$EXTMAX
 10
3710.0
 20
131.0
 30
0.0
  9
$LIMMIN
 10
0.0
 20
0.0
  9
$LIMMAX
 10
4205.0
 20
2970.0
  9
$ORTHOMODE
 70
     0
  9
$REGENMODE
 70
     1
  9
$FILLMODE
 70
     1
  9
$QTEXTMODE
 70
     0
  9
$MIRRTEXT
 70
     1
  9
$LTSCALE
 40
5.0
  9
$ATTMODE
 70
     1
  9
$TEXTSIZE
 40
4.0
  9
$TRACEWID
 40
0.05
  9
$TEXTSTYLE
  7
GHS
  9
$CLAYER
  8
TEXT
  9
$CELTYPE
  6
ByLayer
  9
$CECOLOR
 62
   256
  9
$CELTSCALE
 40
1.0
  9
$DISPSILH
 70
     0
  9
$DIMSCALE
 40
1.0
  9
$DIMASZ
 40
4.0
  9
$DIMEXO
 40
1.0
  9
$DIMDLI
 40
1.0
  9
$DIMRND
 40
0.0
  9
$DIMDLE
 40
0.0
  9
$DIMEXE
 40
1.0
  9
$DIMTP
 40
0.0
  9
$DIMTM
 40
0.0
  9
$DIMTXT
 40
5.0
  9
$DIMCEN
 40
0.5
  9
$DIMTSZ
 40
0.0
  9
$DIMTOL
 70
     0
  9
$DIMLIM
 70
     0
  9
$DIMTIH
 70
     0
  9
$DIMTOH
 70
     0
  9
$DIMSE1
 70
     0
  9
$DIMSE2
 70
     0
  9
$DIMTAD
 70
     1
  9
$DIMZIN
 70
     8
  9
$DIMBLK
  1

  9
$DIMASO
 70
     1
  9
$DIMSHO
 70
     1
  9
$DIMPOST
  1

  9
$DIMAPOST
  1

  9
$DIMALT
 70
     0
  9
$DIMALTD
 70
     2
  9
$DIMALTF
 40
25.4
  9
$DIMLFAC
 40
1.0
  9
$DIMTOFL
 70
     1
  9
$DIMTVP
 40
0.0
  9
$DIMTIX
 70
     0
  9
$DIMSOXD
 70
     0
  9
$DIMSAH
 70
     0
  9
$DIMBLK1
  1

  9
$DIMBLK2
  1

  9
$DIMSTYLE
  2
Standard
  9
$DIMCLRD
 70
   256
  9
$DIMCLRE
 70
   256
  9
$DIMCLRT
 70
   256
  9
$DIMTFAC
 40
1.0
  9
$DIMGAP
 40
1.5
  9
$DIMJUST
 70
     0
  9
$DIMSD1
 70
     0
  9
$DIMSD2
 70
     0
  9
$DIMTOLJ
 70
     1
  9
$DIMTZIN
 70
     0
  9
$DIMALTZ
 70
     0
  9
$DIMALTTZ
 70
     0
  9
$DIMUPT
 70
     0
  9
$DIMDEC
 70
     3
  9
$DIMTDEC
 70
     3
  9
$DIMALTU
 70
     2
  9
$DIMALTTD
 70
     2
  9
$DIMTXSTY
  7
GHS
  9
$DIMAUNIT
 70
     0
  9
$DIMADEC
 70
     0
  9
$DIMALTRND
 40
0.0
  9
$DIMAZIN
 70
     0
  9
$DIMDSEP
 70
    46
  9
$DIMATFIT
 70
     3
  9
$DIMFRAC
 70
     0
  9
$DIMLDRBLK
  1

  9
$DIMLUNIT
 70
     2
  9
$DIMLWD
 70
    -1
  9
$DIMLWE
 70
    -1
  9
$DIMTMOVE
 70
     0
  9
$LUNITS
 70
     2
  9
$LUPREC
 70
     3
  9
$SKETCHINC
 40
0.1
  9
$FILLETRAD
 40
4.0
  9
$AUNITS
 70
     0
  9
$AUPREC
 70
     3
  9
$MENU
  1
acad
  9
$ELEVATION
 40
0.0
  9
$PELEVATION
 40
0.0
  9
$THICKNESS
 40
0.0
  9
$LIMCHECK
 70
     0
  9
$CHAMFERA
 40
0.0
  9
$CHAMFERB
 40
0.0
  9
$CHAMFERC
 40
0.0
  9
$CHAMFERD
 40
0.0
  9
$SKPOLY
 70
     0
  9
$TDCREATE
 40
2449855.468823958
  9
$TDUCREATE
 40
2449855.093823958
  9
$TDUPDATE
 40
2455883.635510116
  9
$TDUUPDATE
 40
2455883.260510116
  9
$TDINDWG
 40
4.0567026736
  9
$TDUSRTIMER
 40
4.0567026736
  9
$USRTIMER
 70
     1
  9
$ANGBASE
 50
0.0
  9
$ANGDIR
 70
     0
  9
$PDMODE
 70
     0
  9
$PDSIZE
 40
0.0
  9
$PLINEWID
 40
0.0
  9
$SPLFRAME
 70
     0
  9
$SPLINETYPE
 70
     6
  9
$SPLINESEGS
 70
     8
  9
$HANDSEED
  5
2E0
  9
$SURFTAB1
 70
     6
  9
$SURFTAB2
 70
     6
  9
$SURFTYPE
 70
     6
  9
$SURFU
 70
     6
  9
$SURFV
 70
     6
  9
$UCSBASE
  2

  9
$UCSNAME
  2

  9
$UCSORG
 10
0.0
 20
0.0
 30
0.0
  9
$UCSXDIR
 10
1.0
 20
0.0
 30
0.0
  9
$UCSYDIR
 10
0.0
 20
1.0
 30
0.0
  9
$UCSORTHOREF
  2

  9
$UCSORTHOVIEW
 70
     0
  9
$UCSORGTOP
 10
0.0
 20
0.0
 30
0.0
  9
$UCSORGBOTTOM
 10
0.0
 20
0.0
 30
0.0
  9
$UCSORGLEFT
 10
0.0
 20
0.0
 30
0.0
  9
$UCSORGRIGHT
 10
0.0
 20
0.0
 30
0.0
  9
$UCSORGFRONT
 10
0.0
 20
0.0
 30
0.0
  9
$UCSORGBACK
 10
0.0
 20
0.0
 30
0.0
  9
$PUCSBASE
  2

  9
$PUCSNAME
  2

  9
$PUCSORG
 10
0.0
 20
0.0
 30
0.0
  9
$PUCSXDIR
 10
1.0
 20
0.0
 30
0.0
  9
$PUCSYDIR
 10
0.0
 20
1.0
 30
0.0
  9
$PUCSORTHOREF
  2

  9
$PUCSORTHOVIEW
 70
     0
  9
$PUCSORGTOP
 10
0.0
 20
0.0
 30
0.0
  9
$PUCSORGBOTTOM
 10
0.0
 20
0.0
 30
0.0
  9
$PUCSORGLEFT
 10
0.0
 20
0.0
 30
0.0
  9
$PUCSORGRIGHT
 10
0.0
 20
0.0
 30
0.0
  9
$PUCSORGFRONT
 10
0.0
 20
0.0
 30
0.0
  9
$PUCSORGBACK
 10
0.0
 20
0.0
 30
0.0
  9
$USERI1
 70
     0
  9
$USERI2
 70
     0
  9
$USERI3
 70
     0
  9
$USERI4
 70
     0
  9
$USERI5
 70
     0
  9
$USERR1
 40
0.0
  9
$USERR2
 40
0.0
  9
$USERR3
 40
0.0
  9
$USERR4
 40
0.0
  9
$USERR5
 40
0.0
  9
$WORLDVIEW
 70
     1
  9
$SHADEDGE
 70
     3
  9
$SHADEDIF
 70
    70
  9
$TILEMODE
 70
     1
  9
$MAXACTVP
 70
    16
  9
$PINSBASE
 10
2220.404641079056
 20
50.00000000000001
 30
2810.473195709564
  9
$PLIMCHECK
 70
     0
  9
$PEXTMIN
 10
1.000000000000000E+20
 20
1.000000000000000E+20
 30
1.000000000000000E+20
  9
$PEXTMAX
 10
-1.000000000000000E+20
 20
-1.000000000000000E+20
 30
-1.000000000000000E+20
  9
$PLIMMIN
 10
0.0
 20
0.0
  9
$PLIMMAX
 10
12.0
 20
9.0
  9
$UNITMODE
 70
     0
  9
$VISRETAIN
 70
     0
  9
$PLINEGEN
 70
     0
  9
$PSLTSCALE
 70
     1
  9
$TREEDEPTH
 70
  3020
  9
$CMLSTYLE
  2
Standard
  9
$CMLJUST
 70
     0
  9
$CMLSCALE
 40
1.0
  9
$PROXYGRAPHICS
 70
     1
  9
$MEASUREMENT
 70
     0
  9
$CELWEIGHT
370
    -1
  9
$ENDCAPS
280
     0
  9
$JOINSTYLE
280
     0
  9
$LWDISPLAY
290
     0
  9
$INSUNITS
 70
     0
  9
$HYPERLINKBASE
  1

  9
$STYLESHEET
  1

  9
$XEDIT
290
     1
  9
$CEPSNTYPE
380
     0
  9
$PSTYLEMODE
290
     1
  9
$FINGERPRINTGUID
  2
{79F8A46F-F4F2-4C5F-A344-27F09FFDEF77}
  9
$VERSIONGUID
  2
{BCF670B4-CDBF-42C2-B2BA-CBB011A354A4}
  9
$EXTNAMES
290
     1
  9
$PSVPSCALE
 40
0.0
  9
$OLESTARTUP
290
     0
  9
$SORTENTS
280
   127
  9
$INDEXCTL
280
     0
  9
$HIDETEXT
280
     1
  9
$XCLIPFRAME
290
     0
  9
$HALOGAP
280
     0
  9
$OBSCOLOR
 70
   257
  9
$OBSLTYPE
280
     0
  9
$INTERSECTIONDISPLAY
280
     0
  9
$INTERSECTIONCOLOR
 70
   257
  9
$DIMASSOC
280
     2
  9
$PROJECTNAME
  1

  0
ENDSEC
  0
SECTION
  2
CLASSES
  0
CLASS
  1
ACDBDICTIONARYWDFLT
  2
AcDbDictionaryWithDefault
  3
ObjectDBX Classes
 90
        0
 91
        1
280
     0
281
     0
  0
CLASS
  1
DICTIONARYVAR
  2
AcDbDictionaryVar
  3
ObjectDBX Classes
 90
        0
 91
        8
280
     0
281
     0
  0
CLASS
  1
DIMASSOC
  2
AcDbDimAssoc
  3
"AcDbDimAssoc|Product Desc:     AcDim ARX App For Dimension|Company:          Autodesk, Inc.|WEB Address:      www.autodesk.com"
 90
        0
 91
        0
280
     0
281
     0
  0
CLASS
  1
MATERIAL
  2
AcDbMaterial
  3
ObjectDBX Classes
 90
     1153
 91
        3
280
     0
281
     0
  0
CLASS
  1
VISUALSTYLE
  2
AcDbVisualStyle
  3
ObjectDBX Classes
 90
     4095
 91
       16
280
     0
281
     0
  0
CLASS
  1
TABLESTYLE
  2
AcDbTableStyle
  3
ObjectDBX Classes
 90
     4095
 91
        1
280
     0
281
     0
  0
CLASS
  1
SCALE
  2
AcDbScale
  3
ObjectDBX Classes
 90
     1153
 91
       34
280
     0
281
     0
  0
CLASS
  1
MLEADERSTYLE
  2
AcDbMLeaderStyle
  3
ACDB_MLEADERSTYLE_CLASS
 90
     4095
 91
        1
280
     0
281
     0
  0
CLASS
  1
CELLSTYLEMAP
  2
AcDbCellStyleMap
  3
ObjectDBX Classes
 90
     1152
 91
        2
280
     0
281
     0
  0
CLASS
  1
SORTENTSTABLE
  2
AcDbSortentsTable
  3
ObjectDBX Classes
 90
        0
 91
        1
280
     0
281
     0
  0
CLASS
  1
ACDB_TEXTOBJECTCONTEXTDATA_CLASS
  2
AcDbTextObjectContextData
  3
ObjectDBX Classes
 90
     1153
 91
        0
280
     0
281
     0
  0
CLASS
  1
SOLID_BACKGROUND
  2
AcDbSolidBackground
  3
SCENEOE
 90
     4095
 91
        0
280
     0
281
     0
  0
CLASS
  1
NPOCOLLECTION
  2
AcDbImpNonPersistentObjectsCollection
  3
ObjectDBX Classes
 90
     1153
 91
        0
280
     0
281
     0
  0
ENDSEC
  0
SECTION
  2
TABLES
  0
TABLE
  2
VPORT
  5
2F
102
{ACAD_XDICTIONARY
360
33
102
}
330
0
100
AcDbSymbolTable
 70
     1
  0
VPORT
  5
30
330
2F
100
AcDbSymbolTableRecord
100
AcDbViewportTableRecord
  2
*Active
 70
     0
 10
0.0
 20
0.0
 11
1.0
 21
1.0
 12
3610.015427776839
 22
70.5698641566928
 13
0.0
 23
0.0
 14
1.0
 24
1.0
 15
0.0
 25
0.0
 16
0.0
 26
0.0
 36
1.0
 17
0.0
 27
0.0
 37
0.0
 40
135.6929140557385
 41
1.889
 42
50.0
 43
0.0
 44
0.0
 50
0.0
 51
0.0
 71
     0
 72
 10000
 73
     1
 74
     0
 75
     0
 76
     0
 77
     0
 78
     0
281
     0
 65
     1
110
0.0
120
0.0
130
0.0
111
1.0
121
0.0
131
0.0
112
0.0
122
1.0
132
0.0
 79
     0
146
0.0
  0
ENDTAB
  0
TABLE
  2
LTYPE
  5
2A
330
0
100
AcDbSymbolTable
 70
     3
  0
LTYPE
  5
2B
330
2A
100
AcDbSymbolTableRecord
100
AcDbLinetypeTableRecord
  2
ByBlock
 70
     0
  3

 72
    65
 73
     0
 40
0.0
  0
LTYPE
  5
2C
330
2A
100
AcDbSymbolTableRecord
100
AcDbLinetypeTableRecord
  2
ByLayer
 70
     0
  3

 72
    65
 73
     0
 40
0.0
  0
LTYPE
  5
16
330
2A
100
AcDbSymbolTableRecord
100
AcDbLinetypeTableRecord
  2
CONTINUOUS
 70
     0
  3
Solid line
 72
    65
 73
     0
 40
0.0
  0
LTYPE
  5
8A
330
2A
100
AcDbSymbolTableRecord
100
AcDbLinetypeTableRecord
  2
CENTER
 70
     0
  3
____ _ ____ _ ____ _ ____ _ ____ _ ____ _ ____ 
 72
    65
 73
     4
 40
2.0
 49
1.25
 74
     0
 49
-0.25
 74
     0
 49
0.25
 74
     0
 49
-0.25
 74
     0
  0
LTYPE
  5
1F5
330
2A
100
AcDbSymbolTableRecord
100
AcDbLinetypeTableRecord
  2
PHANTOM
 70
     0
  3
Phantom ______  __  __  ______  __  __  ______
 72
    65
 73
     6
 40
2.5
 49
1.25
 74
     0
 49
-0.25
 74
     0
 49
0.25
 74
     0
 49
-0.25
 74
     0
 49
0.25
 74
     0
 49
-0.25
 74
     0
  0
ENDTAB
  0
TABLE
  2
LAYER
  5
21
102
{ACAD_XDICTIONARY
360
22
102
}
330
0
100
AcDbSymbolTable
 70
     5
  0
LAYER
  5
7
102
{ACAD_XDICTIONARY
360
8
102
}
330
21
100
AcDbSymbolTableRecord
100
AcDbLayerTableRecord
  2
0
 70
     0
 62
     7
  6
CONTINUOUS
370
    -3
390
A
  0
LAYER
  5
87
102
{ACAD_XDICTIONARY
360
88
102
}
330
21
100
AcDbSymbolTableRecord
100
AcDbLayerTableRecord
  2
CL
 70
     0
 62
     1
  6
CENTER
370
    -3
390
A
  0
LAYER
  5
14D
330
21
100
AcDbSymbolTableRecord
100
AcDbLayerTableRecord
  2
DEFPOINTS
 70
     0
 62
     7
  6
CONTINUOUS
290
     0
370
    -3
390
A
  0
LAYER
  5
5C
102
{ACAD_XDICTIONARY
360
5D
102
}
330
21
100
AcDbSymbolTableRecord
100
AcDbLayerTableRecord
  2
TEXT
 70
     0
 62
    84
  6
CONTINUOUS
370
    -3
390
A
  0
LAYER
  5
1F4
330
21
100
AcDbSymbolTableRecord
100
AcDbLayerTableRecord
  2
ETC
 70
     0
 62
     7
  6
PHANTOM
370
    -3
390
A
1001
AcAecLayerStandard
1000

1000

  0
ENDTAB
  0
TABLE
  2
STYLE
  5
27
330
0
100
AcDbSymbolTable
 70
     2
  0
STYLE
  5
28
330
27
100
AcDbSymbolTableRecord
100
AcDbTextStyleTableRecord
  2
STANDARD
 70
     0
 40
0.0
 41
0.8
 50
0.0
 71
     0
 42
4.0
  3
TXT.shx
  4

  0
STYLE
  5
37
330
27
100
AcDbSymbolTableRecord
100
AcDbTextStyleTableRecord
  2
GHS
 70
     0
 40
0.0
 41
0.6
 50
0.0
 71
     0
 42
4.0
  3
ROMANS
  4
GHS
  0
ENDTAB
  0
TABLE
  2
VIEW
  5
2D
330
0
100
AcDbSymbolTable
 70
     0
  0
ENDTAB
  0
TABLE
  2
UCS
  5
2E
330
0
100
AcDbSymbolTable
 70
     0
  0
ENDTAB
  0
TABLE
  2
APPID
  5
34
330
0
100
AcDbSymbolTable
 70
    10
  0
APPID
  5
26
330
34
100
AcDbSymbolTableRecord
100
AcDbRegAppTableRecord
  2
ACAD
 70
     0
  0
APPID
  5
38
330
34
100
AcDbSymbolTableRecord
100
AcDbRegAppTableRecord
  2
ACAD_DSTYLE_DIMJAG
 70
     0
  0
APPID
  5
39
330
34
100
AcDbSymbolTableRecord
100
AcDbRegAppTableRecord
  2
ACAD_DSTYLE_DIMTALN
 70
     0
  0
APPID
  5
1F6
330
34
100
AcDbSymbolTableRecord
100
AcDbRegAppTableRecord
  2
AcAecLayerStandard
 70
     0
  0
APPID
  5
1A
330
34
100
AcDbSymbolTableRecord
100
AcDbRegAppTableRecord
  2
ACAD_PSEXT
 70
     0
  0
APPID
  5
42
330
34
100
AcDbSymbolTableRecord
100
AcDbRegAppTableRecord
  2
ACAD_DSTYLE_DIMBREAK
 70
     0
  0
APPID
  5
27F
330
34
100
AcDbSymbolTableRecord
100
AcDbRegAppTableRecord
  2
ACAD_DSTYLE_DIM_LINETYPE
 70
     0
  0
APPID
  5
280
330
34
100
AcDbSymbolTableRecord
100
AcDbRegAppTableRecord
  2
ACAD_DSTYLE_DIM_EXT1_LINETYPE
 70
     0
  0
APPID
  5
281
330
34
100
AcDbSymbolTableRecord
100
AcDbRegAppTableRecord
  2
ACAD_DSTYLE_DIM_EXT2_LINETYPE
 70
     0
  0
APPID
  5
2A4
330
34
100
AcDbSymbolTableRecord
100
AcDbRegAppTableRecord
  2
ACAD_MLEADERVER
 70
     0
  0
ENDTAB
  0
TABLE
  2
DIMSTYLE
  5
35
330
0
100
AcDbSymbolTable
 70
     5
100
AcDbDimStyleTable
 71
     5
340
36
340
3A
340
3B
340
43
340
44
  0
DIMSTYLE
105
36
102
{ACAD_REACTORS
330
1AF
102
}
330
35
100
AcDbSymbolTableRecord
100
AcDbDimStyleTableRecord
  2
Standard
 70
     0
 41
4.0
 42
1.0
 43
1.0
 44
1.0
 73
     0
 74
     0
 77
     1
 78
     8
140
5.0
141
0.5
147
1.5
172
     1
176
   256
177
   256
178
   256
271
     3
272
     3
340
37
371
    -1
372
    -1
1001
ACAD_DSTYLE_DIMJAG
1070
   388
1040
1.5
1001
ACAD_DSTYLE_DIMTALN
1070
   392
1070
     0
1001
ACAD_DSTYLE_DIM_LINETYPE
1070
   380
1005
2C
1001
ACAD_DSTYLE_DIM_EXT1_LINETYPE
1070
   381
1005
2C
1001
ACAD_DSTYLE_DIM_EXT2_LINETYPE
1070
   382
1005
2C
  0
DIMSTYLE
105
3A
330
35
100
AcDbSymbolTableRecord
100
AcDbDimStyleTableRecord
  2
ISO-25
 70
     0
 41
4.0
 42
2.0
 43
1.0
 44
1.0
 73
     0
 74
     0
 77
     1
 78
     8
 79
     2
140
4.0
141
0.5
143
0.03937007874016
147
1.5
171
     3
172
     1
176
   256
177
   256
178
   256
179
     4
271
     3
272
     3
274
     3
283
     0
284
     8
340
37
371
    -1
372
    -1
1001
ACAD_DSTYLE_DIMJAG
1070
   388
1040
1.5
1001
ACAD_DSTYLE_DIMTALN
1070
   392
1070
     0
1001
ACAD_DSTYLE_DIM_LINETYPE
1070
   380
1005
2C
1001
ACAD_DSTYLE_DIM_EXT1_LINETYPE
1070
   381
1005
2C
1001
ACAD_DSTYLE_DIM_EXT2_LINETYPE
1070
   382
1005
2C
  0
DIMSTYLE
105
43
330
35
100
AcDbSymbolTableRecord
100
AcDbDimStyleTableRecord
  2
2X
 70
     0
 41
3.0
 42
1.0
 43
1.0
 44
1.0
 73
     0
 74
     0
 77
     1
 78
     8
 79
     2
140
3.0
141
0.5
144
0.5
147
1.0
172
     1
176
   256
177
   256
178
   256
179
     3
271
     3
272
     3
340
37
371
    -1
372
    -1
1001
ACAD_DSTYLE_DIMBREAK
1070
   391
1040
0.125
1001
ACAD_DSTYLE_DIMJAG
1070
   388
1040
1.5
1001
ACAD_DSTYLE_DIMTALN
1070
   392
1070
     0
1001
ACAD_DSTYLE_DIM_LINETYPE
1070
   380
1005
2C
1001
ACAD_DSTYLE_DIM_EXT1_LINETYPE
1070
   381
1005
2C
1001
ACAD_DSTYLE_DIM_EXT2_LINETYPE
1070
   382
1005
2C
  0
DIMSTYLE
105
44
102
{ACAD_REACTORS
330
143
330
151
330
160
330
16D
330
17A
330
18B
330
19A
330
1CB
330
1D8
330
21D
330
24C
330
22E
330
23D
102
}
330
35
100
AcDbSymbolTableRecord
100
AcDbDimStyleTableRecord
  2
1X
 70
     0
 41
3.0
 42
1.0
 43
1.0
 44
1.0
 73
     0
 74
     0
 77
     1
 78
     8
140
3.0
141
0.5
147
1.0
172
     1
176
   256
177
   256
178
   256
271
     3
272
     3
340
37
371
    -1
372
    -1
1001
ACAD_DSTYLE_DIMBREAK
1070
   391
1040
0.125
1001
ACAD_DSTYLE_DIMJAG
1070
   388
1040
1.5
1001
ACAD_DSTYLE_DIMTALN
1070
   392
1070
     0
1001
ACAD_DSTYLE_DIM_LINETYPE
1070
   380
1005
2C
1001
ACAD_DSTYLE_DIM_EXT1_LINETYPE
1070
   381
1005
2C
1001
ACAD_DSTYLE_DIM_EXT2_LINETYPE
1070
   382
1005
2C
  0
DIMSTYLE
105
3B
330
35
100
AcDbSymbolTableRecord
100
AcDbDimStyleTableRecord
  2
CATALOG
 70
     0
 41
2.5
 42
1.0
 43
1.0
 44
1.0
 73
     0
 74
     0
 77
     1
 78
     8
 79
     2
140
3.0
141
0.5
147
1.0
172
     1
176
   256
177
   256
178
   256
179
     3
271
     3
272
     3
340
37
342
3C
371
    -1
372
    -1
1001
ACAD_DSTYLE_DIMBREAK
1070
   391
1040
0.125
1001
ACAD_DSTYLE_DIMJAG
1070
   388
1040
1.5
1001
ACAD_DSTYLE_DIMTALN
1070
   392
1070
     0
1001
ACAD_DSTYLE_DIM_LINETYPE
1070
   380
1005
2C
1001
ACAD_DSTYLE_DIM_EXT1_LINETYPE
1070
   381
1005
2C
1001
ACAD_DSTYLE_DIM_EXT2_LINETYPE
1070
   382
1005
2C
  0
ENDTAB
  0
TABLE
  2
BLOCK_RECORD
  5
1
330
0
100
AcDbSymbolTable
 70
    15
  0
BLOCK_RECORD
  5
2
102
{ACAD_XDICTIONARY
360
3
102
}
330
1
100
AcDbSymbolTableRecord
100
AcDbBlockTableRecord
  2
*Model_Space
340
18
  0
BLOCK_RECORD
  5
1B
102
{ACAD_XDICTIONARY
360
1C
102
}
330
1
100
AcDbSymbolTableRecord
100
AcDbBlockTableRecord
  2
*Paper_Space
340
20
  0
BLOCK_RECORD
  5
3C
330
1
100
AcDbSymbolTableRecord
100
AcDbBlockTableRecord
  2
_Open30
340
0
  0
BLOCK_RECORD
  5
144
330
1
100
AcDbSymbolTableRecord
100
AcDbBlockTableRecord
  2
*D1
340
0
  0
BLOCK_RECORD
  5
152
330
1
100
AcDbSymbolTableRecord
100
AcDbBlockTableRecord
  2
*D2
340
0
  0
BLOCK_RECORD
  5
161
330
1
100
AcDbSymbolTableRecord
100
AcDbBlockTableRecord
  2
*D3
340
0
  0
BLOCK_RECORD
  5
16E
330
1
100
AcDbSymbolTableRecord
100
AcDbBlockTableRecord
  2
*D4
340
0
  0
BLOCK_RECORD
  5
17B
330
1
100
AcDbSymbolTableRecord
100
AcDbBlockTableRecord
  2
*D5
340
0
  0
BLOCK_RECORD
  5
18C
330
1
100
AcDbSymbolTableRecord
100
AcDbBlockTableRecord
  2
*D6
340
0
  0
BLOCK_RECORD
  5
19B
330
1
100
AcDbSymbolTableRecord
100
AcDbBlockTableRecord
  2
*D7
340
0
  0
BLOCK_RECORD
  5
1B0
330
1
100
AcDbSymbolTableRecord
100
AcDbBlockTableRecord
  2
*D8
340
0
  0
BLOCK_RECORD
  5
1CC
330
1
100
AcDbSymbolTableRecord
100
AcDbBlockTableRecord
  2
*D9
340
0
  0
BLOCK_RECORD
  5
1D9
330
1
100
AcDbSymbolTableRecord
100
AcDbBlockTableRecord
  2
*D10
340
0
  0
BLOCK_RECORD
  5
21E
330
1
100
AcDbSymbolTableRecord
100
AcDbBlockTableRecord
  2
*D11
340
0
  0
BLOCK_RECORD
  5
24D
330
1
100
AcDbSymbolTableRecord
100
AcDbBlockTableRecord
  2
*D12
340
0
  0
BLOCK_RECORD
  5
22F
330
1
100
AcDbSymbolTableRecord
100
AcDbBlockTableRecord
  2
*D13
340
0
  0
BLOCK_RECORD
  5
23E
330
1
100
AcDbSymbolTableRecord
100
AcDbBlockTableRecord
  2
*D14
340
0
  0
ENDTAB
  0
ENDSEC
  0
SECTION
  2
BLOCKS
  0
BLOCK
  5
6
330
2
100
AcDbEntity
  8
0
100
AcDbBlockBegin
  2
*Model_Space
 70
     0
 10
0.0
 20
0.0
 30
0.0
  3
*Model_Space
  1

  0
ENDBLK
  5
17
330
2
100
AcDbEntity
  8
0
100
AcDbBlockEnd
  0
BLOCK
  5
1E
330
1B
100
AcDbEntity
 67
     1
  8
0
100
AcDbBlockBegin
  2
*Paper_Space
 70
     0
 10
0.0
 20
0.0
 30
0.0
  3
*Paper_Space
  1

  0
ENDBLK
  5
1F
330
1B
100
AcDbEntity
 67
     1
  8
0
100
AcDbBlockEnd
  0
BLOCK
  5
3D
330
3C
100
AcDbEntity
  8
0
100
AcDbBlockBegin
  2
_Open30
 70
     0
 10
0.0
 20
0.0
 30
0.0
  3
_Open30
  1

  0
LINE
  5
3E
330
3C
100
AcDbEntity
  8
0
  6
ByBlock
 62
     0
370
    -2
100
AcDbLine
 10
-1.0
 20
0.26794919
 30
0.0
 11
0.0
 21
0.0
 31
0.0
  0
LINE
  5
3F
330
3C
100
AcDbEntity
  8
0
  6
ByBlock
 62
     0
370
    -2
100
AcDbLine
 10
0.0
 20
0.0
 30
0.0
 11
-1.0
 21
-0.26794919
 31
0.0
  0
LINE
  5
40
330
3C
100
AcDbEntity
  8
0
  6
ByBlock
 62
     0
370
    -2
100
AcDbLine
 10
0.0
 20
0.0
 30
0.0
 11
-1.0
 21
0.0
 31
0.0
  0
ENDBLK
  5
41
330
3C
100
AcDbEntity
  8
0
100
AcDbBlockEnd
  0
BLOCK
  5
145
330
144
100
AcDbEntity
  8
0
100
AcDbBlockBegin
  2
*D1
 70
     1
 10
0.0
 20
0.0
 30
0.0
  3
*D1
  1

  0
LINE
  5
146
330
144
100
AcDbEntity
  8
TEXT
100
AcDbLine
 10
3624.0
 20
114.5
 30
0.0
 11
3624.0
 21
128.0
 31
0.0
  0
LINE
  5
147
330
144
100
AcDbEntity
  8
TEXT
100
AcDbLine
 10
3652.5
 20
115.5
 30
0.0
 11
3652.5
 21
128.0
 31
0.0
  0
LINE
  5
148
330
144
100
AcDbEntity
  8
TEXT
100
AcDbLine
 10
3627.0
 20
127.0
 30
0.0
 11
3649.5
 21
127.0
 31
0.0
  0
SOLID
  5
149
330
144
100
AcDbEntity
  8
TEXT
100
AcDbTrace
 10
3627.0
 20
127.5
 30
0.0
 11
3627.0
 21
126.5
 31
0.0
 12
3624.0
 22
127.0
 32
0.0
 13
3624.0
 23
127.0
 33
0.0
  0
SOLID
  5
14A
330
144
100
AcDbEntity
  8
TEXT
100
AcDbTrace
 10
3649.5
 20
127.5
 30
0.0
 11
3649.5
 21
126.5
 31
0.0
 12
3652.5
 22
127.0
 32
0.0
 13
3652.5
 23
127.0
 33
0.0
  0
MTEXT
  5
14B
330
144
100
AcDbEntity
  8
TEXT
100
AcDbMText
 10
3638.25
 20
129.5
 30
0.0
 40
3.0
 41
0.0
 71
     5
 72
     1
  1
\A1;L
  7
GHS
 73
     1
 44
1.0
  0
POINT
  5
14C
330
144
100
AcDbEntity
  8
DEFPOINTS
 62
     0
100
AcDbPoint
 10
3624.0
 20
113.5
 30
0.0
  0
POINT
  5
14E
330
144
100
AcDbEntity
  8
DEFPOINTS
 62
     0
100
AcDbPoint
 10
3652.5
 20
114.5
 30
0.0
  0
POINT
  5
14F
330
144
100
AcDbEntity
  8
DEFPOINTS
 62
     0
100
AcDbPoint
 10
3652.5
 20
127.0
 30
0.0
  0
ENDBLK
  5
150
330
144
100
AcDbEntity
  8
0
100
AcDbBlockEnd
  0
BLOCK
  5
153
330
152
100
AcDbEntity
  8
0
100
AcDbBlockBegin
  2
*D2
 70
     1
 10
0.0
 20
0.0
 30
0.0
  3
*D2
  1

  0
LINE
  5
154
330
152
100
AcDbEntity
  8
TEXT
100
AcDbLine
 10
3621.0
 20
107.5
 30
0.0
 11
3621.0
 21
121.0
 31
0.0
  0
LINE
  5
155
330
152
100
AcDbEntity
  8
TEXT
100
AcDbLine
 10
3624.0
 20
114.5
 30
0.0
 11
3624.0
 21
121.0
 31
0.0
  0
LINE
  5
156
330
152
100
AcDbEntity
  8
TEXT
100
AcDbLine
 10
3618.0
 20
120.0
 30
0.0
 11
3615.0
 21
120.0
 31
0.0
  0
LINE
  5
157
330
152
100
AcDbEntity
  8
TEXT
100
AcDbLine
 10
3627.0
 20
120.0
 30
0.0
 11
3633.2
 21
120.0
 31
0.0
  0
LINE
  5
158
330
152
100
AcDbEntity
  8
TEXT
100
AcDbLine
 10
3621.0
 20
120.0
 30
0.0
 11
3624.0
 21
120.0
 31
0.0
  0
SOLID
  5
159
330
152
100
AcDbEntity
  8
TEXT
100
AcDbTrace
 10
3618.0
 20
120.5
 30
0.0
 11
3618.0
 21
119.5
 31
0.0
 12
3621.0
 22
120.0
 32
0.0
 13
3621.0
 23
120.0
 33
0.0
  0
SOLID
  5
15A
330
152
100
AcDbEntity
  8
TEXT
100
AcDbTrace
 10
3627.0
 20
120.5
 30
0.0
 11
3627.0
 21
119.5
 31
0.0
 12
3624.0
 22
120.0
 32
0.0
 13
3624.0
 23
120.0
 33
0.0
  0
MTEXT
  5
15B
330
152
100
AcDbEntity
  8
TEXT
100
AcDbMText
 10
3631.600000000001
 20
122.5
 30
0.0
 40
3.0
 41
0.0
 71
     5
 72
     1
  1
\A1;3
  7
GHS
 73
     1
 44
1.0
  0
POINT
  5
15C
330
152
100
AcDbEntity
  8
DEFPOINTS
 62
     0
100
AcDbPoint
 10
3621.0
 20
106.5
 30
0.0
  0
POINT
  5
15D
330
152
100
AcDbEntity
  8
DEFPOINTS
 62
     0
100
AcDbPoint
 10
3624.0
 20
113.5
 30
0.0
  0
POINT
  5
15E
330
152
100
AcDbEntity
  8
DEFPOINTS
 62
     0
100
AcDbPoint
 10
3624.0
 20
120.0
 30
0.0
  0
ENDBLK
  5
15F
330
152
100
AcDbEntity
  8
0
100
AcDbBlockEnd
  0
BLOCK
  5
162
330
161
100
AcDbEntity
  8
0
100
AcDbBlockBegin
  2
*D3
 70
     1
 10
0.0
 20
0.0
 30
0.0
  3
*D3
  1

  0
LINE
  5
163
330
161
100
AcDbEntity
  8
TEXT
100
AcDbLine
 10
3604.700000000001
 20
100.5
 30
0.0
 11
3604.700000000001
 21
111.0
 31
0.0
  0
LINE
  5
164
330
161
100
AcDbEntity
  8
TEXT
100
AcDbLine
 10
3616.700000000001
 20
101.0
 30
0.0
 11
3616.700000000001
 21
111.0
 31
0.0
  0
LINE
  5
165
330
161
100
AcDbEntity
  8
TEXT
100
AcDbLine
 10
3607.700000000001
 20
110.0
 30
0.0
 11
3613.700000000001
 21
110.0
 31
0.0
  0
SOLID
  5
166
330
161
100
AcDbEntity
  8
TEXT
100
AcDbTrace
 10
3607.700000000001
 20
110.5
 30
0.0
 11
3607.700000000001
 21
109.5
 31
0.0
 12
3604.700000000001
 22
110.0
 32
0.0
 13
3604.700000000001
 23
110.0
 33
0.0
  0
SOLID
  5
167
330
161
100
AcDbEntity
  8
TEXT
100
AcDbTrace
 10
3613.700000000001
 20
110.5
 30
0.0
 11
3613.700000000001
 21
109.5
 31
0.0
 12
3616.700000000001
 22
110.0
 32
0.0
 13
3616.700000000001
 23
110.0
 33
0.0
  0
MTEXT
  5
168
330
161
100
AcDbEntity
  8
TEXT
100
AcDbMText
 10
3610.700000000001
 20
112.5
 30
0.0
 40
3.0
 41
0.0
 71
     5
 72
     1
  1
\A1;12
  7
GHS
 73
     1
 44
1.0
  0
POINT
  5
169
330
161
100
AcDbEntity
  8
DEFPOINTS
 62
     0
100
AcDbPoint
 10
3604.700000000001
 20
99.50000000000001
 30
0.0
  0
POINT
  5
16A
330
161
100
AcDbEntity
  8
DEFPOINTS
 62
     0
100
AcDbPoint
 10
3616.700000000001
 20
100.0
 30
0.0
  0
POINT
  5
16B
330
161
100
AcDbEntity
  8
DEFPOINTS
 62
     0
100
AcDbPoint
 10
3616.700000000001
 20
110.0
 30
0.0
  0
ENDBLK
  5
16C
330
161
100
AcDbEntity
  8
0
100
AcDbBlockEnd
  0
BLOCK
  5
16F
330
16E
100
AcDbEntity
  8
0
100
AcDbBlockBegin
  2
*D4
 70
     1
 10
0.0
 20
0.0
 30
0.0
  3
*D4
  1

  0
LINE
  5
170
330
16E
100
AcDbEntity
  8
TEXT
100
AcDbLine
 10
3604.700000000001
 20
100.5
 30
0.0
 11
3604.700000000001
 21
128.0
 31
0.0
  0
LINE
  5
171
330
16E
100
AcDbEntity
  8
TEXT
100
AcDbLine
 10
3624.0
 20
114.5
 30
0.0
 11
3624.0
 21
128.0
 31
0.0
  0
LINE
  5
172
330
16E
100
AcDbEntity
  8
TEXT
100
AcDbLine
 10
3607.700000000001
 20
127.0
 30
0.0
 11
3621.0
 21
127.0
 31
0.0
  0
SOLID
  5
173
330
16E
100
AcDbEntity
  8
TEXT
100
AcDbTrace
 10
3607.700000000001
 20
127.5
 30
0.0
 11
3607.700000000001
 21
126.5
 31
0.0
 12
3604.700000000001
 22
127.0
 32
0.0
 13
3604.700000000001
 23
127.0
 33
0.0
  0
SOLID
  5
174
330
16E
100
AcDbEntity
  8
TEXT
100
AcDbTrace
 10
3621.0
 20
127.5
 30
0.0
 11
3621.0
 21
126.5
 31
0.0
 12
3624.0
 22
127.0
 32
0.0
 13
3624.0
 23
127.0
 33
0.0
  0
MTEXT
  5
175
330
16E
100
AcDbEntity
  8
TEXT
100
AcDbMText
 10
3614.35
 20
129.5
 30
0.0
 40
3.0
 41
0.0
 71
     5
 72
     1
  1
\A1;19.3
  7
GHS
 73
     1
 44
1.0
  0
POINT
  5
176
330
16E
100
AcDbEntity
  8
DEFPOINTS
 62
     0
100
AcDbPoint
 10
3604.700000000001
 20
99.50000000000001
 30
0.0
  0
POINT
  5
177
330
16E
100
AcDbEntity
  8
DEFPOINTS
 62
     0
100
AcDbPoint
 10
3624.0
 20
113.5
 30
0.0
  0
POINT
  5
178
330
16E
100
AcDbEntity
  8
DEFPOINTS
 62
     0
100
AcDbPoint
 10
3624.0
 20
127.0
 30
0.0
  0
ENDBLK
  5
179
330
16E
100
AcDbEntity
  8
0
100
AcDbBlockEnd
  0
BLOCK
  5
17C
330
17B
100
AcDbEntity
  8
0
100
AcDbBlockBegin
  2
*D5
 70
     1
 10
0.0
 20
0.0
 30
0.0
  3
*D5
  1

  0
LINE
  5
17D
330
17B
100
AcDbEntity
  8
TEXT
100
AcDbLine
 10
3535.0
 20
102.3588989435398
 30
0.0
 11
3535.0
 21
121.0
 31
0.0
  0
LINE
  5
17E
330
17B
100
AcDbEntity
  8
TEXT
100
AcDbLine
 10
3553.000000000003
 20
102.3588989435393
 30
0.0
 11
3553.000000000003
 21
121.0
 31
0.0
  0
LINE
  5
17F
330
17B
100
AcDbEntity
  8
TEXT
100
AcDbLine
 10
3538.0
 20
120.0
 30
0.0
 11
3550.000000000002
 21
120.0
 31
0.0
  0
SOLID
  5
180
330
17B
100
AcDbEntity
  8
TEXT
100
AcDbTrace
 10
3538.0
 20
120.5
 30
0.0
 11
3538.0
 21
119.5
 31
0.0
 12
3535.0
 22
120.0
 32
0.0
 13
3535.0
 23
120.0
 33
0.0
  0
SOLID
  5
181
330
17B
100
AcDbEntity
  8
TEXT
100
AcDbTrace
 10
3550.000000000002
 20
120.5
 30
0.0
 11
3550.000000000002
 21
119.5
 31
0.0
 12
3553.000000000003
 22
120.0
 32
0.0
 13
3553.000000000003
 23
120.0
 33
0.0
  0
MTEXT
  5
182
330
17B
100
AcDbEntity
  8
TEXT
100
AcDbMText
 10
3544.000000000001
 20
122.5
 30
0.0
 40
3.0
 41
0.0
 71
     5
 72
     1
  1
\A1;18
  7
GHS
 73
     1
 44
1.0
  0
POINT
  5
183
330
17B
100
AcDbEntity
  8
DEFPOINTS
 62
     0
100
AcDbPoint
 10
3535.0
 20
101.3588989435397
 30
0.0
  0
POINT
  5
184
330
17B
100
AcDbEntity
  8
DEFPOINTS
 62
     0
100
AcDbPoint
 10
3553.000000000003
 20
101.3588989435393
 30
0.0
  0
POINT
  5
185
330
17B
100
AcDbEntity
  8
DEFPOINTS
 62
     0
100
AcDbPoint
 10
3553.000000000003
 20
120.0
 30
0.0
  0
ENDBLK
  5
186
330
17B
100
AcDbEntity
  8
0
100
AcDbBlockEnd
  0
BLOCK
  5
18D
330
18C
100
AcDbEntity
  8
0
100
AcDbBlockBegin
  2
*D6
 70
     1
 10
0.0
 20
0.0
 30
0.0
  3
*D6
  1

  0
LINE
  5
18E
330
18C
100
AcDbEntity
  8
TEXT
100
AcDbLine
 10
3531.625631329236
 20
84.62563132923515
 30
0.0
 11
3525.615223689146
 21
78.61522368914666
 31
0.0
  0
LINE
  5
18F
330
18C
100
AcDbEntity
  8
TEXT
100
AcDbLine
 10
3544.0
 20
76.5
 30
0.0
 11
3544.0
 21
70.99999999999454
 31
0.0
  0
ARC
  5
190
330
18C
100
AcDbEntity
  8
TEXT
100
AcDbCircle
 10
3544.0
 20
96.99999999999704
 30
0.0
 40
25.00000000000242
100
AcDbArc
 50
231.8796255350242
 51
263.1203744649708
  0
SOLID
  5
191
330
18C
100
AcDbEntity
  8
TEXT
100
AcDbTrace
 10
3528.235404997885
 20
76.95798154260796
 30
0.0
 11
3528.898811432414
 21
77.70624079087998
 31
0.0
 12
3526.322330470333
 22
79.32233047033332
 32
0.0
 13
3526.322330470333
 23
79.32233047033332
 33
0.0
  0
SOLID
  5
192
330
18C
100
AcDbEntity
  8
TEXT
100
AcDbTrace
 10
3541.035404868768
 20
72.6790991885332
 30
0.0
 11
3540.975404868768
 21
71.68090081145556
 31
0.0
 12
3544.0
 22
71.99999999999454
 32
0.0
 13
3544.0
 23
71.99999999999454
 33
0.0
  0
MTEXT
  5
193
330
18C
100
AcDbEntity
  8
TEXT
100
AcDbMText
 10
3535.389622771784
 20
76.21271051849134
 30
0.0
 40
3.0
 41
0.0
 71
     5
 72
     1
  1
\A1;45°
  7
GHS
 11
0.9238795325112693
 21
-0.382683432365132
 31
0.0
 73
     1
 44
1.0
  0
POINT
  5
194
330
18C
100
AcDbEntity
  8
DEFPOINTS
 62
     0
100
AcDbPoint
 10
3531.499999999998
 20
75.34936490538462
 30
0.0
  0
POINT
  5
195
330
18C
100
AcDbEntity
  8
DEFPOINTS
 62
     0
100
AcDbPoint
 10
3532.332738110422
 20
85.33273811042182
 30
0.0
  0
POINT
  5
196
330
18C
100
AcDbEntity
  8
DEFPOINTS
 62
     0
100
AcDbPoint
 10
3544.0
 20
77.50000000000023
 30
0.0
  0
POINT
  5
197
330
18C
100
AcDbEntity
  8
DEFPOINTS
 62
     0
100
AcDbPoint
 10
3544.0
 20
116.5
 30
0.0
  0
POINT
  5
198
330
18C
100
AcDbEntity
  8
DEFPOINTS
 62
     0
100
AcDbPoint
 10
3537.282485578729
 20
90.28248557872757
 30
0.0
  0
ENDBLK
  5
199
330
18C
100
AcDbEntity
  8
0
100
AcDbBlockEnd
  0
BLOCK
  5
19C
330
19B
100
AcDbEntity
  8
0
100
AcDbBlockBegin
  2
*D7
 70
     1
 10
0.0
 20
0.0
 30
0.0
  3
*D7
  1

  0
LINE
  5
19D
330
19B
100
AcDbEntity
  8
TEXT
100
AcDbLine
 10
3531.625631329236
 20
84.62563132923532
 30
0.0
 11
3519.947658158956
 21
72.94765815895717
 31
0.0
  0
LINE
  5
19E
330
19B
100
AcDbEntity
  8
TEXT
100
AcDbLine
 10
3556.374368670766
 20
84.62563132923532
 30
0.0
 11
3568.052341841047
 21
72.94765815895714
 31
0.0
  0
ARC
  5
19F
330
19B
100
AcDbEntity
  8
TEXT
100
AcDbCircle
 10
3544.000000000001
 20
96.99999999999786
 30
0.0
 40
33.01514803843674
100
AcDbArc
 50
230.2081101950441
 51
309.7918898049559
  0
SOLID
  5
1A0
330
19B
100
AcDbEntity
  8
TEXT
100
AcDbTrace
 10
3522.533149066396
 20
71.26276304335545
 30
0.0
 11
3523.207399188259
 21
72.00126610575058
 31
0.0
 12
3520.654764940142
 22
73.65476494014365
 32
0.0
 13
3520.654764940142
 23
73.65476494014365
 33
0.0
  0
SOLID
  5
1A1
330
19B
100
AcDbEntity
  8
TEXT
100
AcDbTrace
 10
3564.792600811742
 20
72.00126610575056
 30
0.0
 11
3565.466850933606
 21
71.26276304335542
 31
0.0
 12
3567.34523505986
 22
73.65476494014362
 32
0.0
 13
3567.34523505986
 23
73.65476494014362
 33
0.0
  0
MTEXT
  5
1A2
330
19B
100
AcDbEntity
  8
TEXT
100
AcDbMText
 10
3544.000000000001
 20
66.4848519615611
 30
0.0
 40
3.0
 41
0.0
 71
     5
 72
     1
  1
\A1;4-90°
  7
GHS
 73
     1
 44
1.0
  0
POINT
  5
1A3
330
19B
100
AcDbEntity
  8
DEFPOINTS
 62
     0
100
AcDbPoint
 10
3535.455050910774
 20
65.1098158509152
 30
0.0
  0
POINT
  5
1A4
330
19B
100
AcDbEntity
  8
DEFPOINTS
 62
     0
100
AcDbPoint
 10
3532.332738110423
 20
85.33273811042182
 30
0.0
  0
POINT
  5
1A5
330
19B
100
AcDbEntity
  8
DEFPOINTS
 62
     0
100
AcDbPoint
 10
3555.667261889579
 20
85.33273811042182
 30
0.0
  0
POINT
  5
1A6
330
19B
100
AcDbEntity
  8
DEFPOINTS
 62
     0
100
AcDbPoint
 10
3550.717514421272
 20
90.28248557872757
 30
0.0
  0
POINT
  5
1A7
330
19B
100
AcDbEntity
  8
DEFPOINTS
 62
     0
100
AcDbPoint
 10
3537.282485578729
 20
90.28248557872757
 30
0.0
  0
ENDBLK
  5
1A8
330
19B
100
AcDbEntity
  8
0
100
AcDbBlockEnd
  0
BLOCK
  5
1B1
330
1B0
100
AcDbEntity
  8
0
100
AcDbBlockBegin
  2
*D8
 70
     1
 10
0.0
 20
0.0
 30
0.0
  3
*D8
  1

  0
LINE
  5
1B2
330
1B0
100
AcDbEntity
  8
TEXT
100
AcDbLine
 10
3693.500000000002
 20
79.0
 30
0.0
 11
3710.0
 21
79.0
 31
0.0
  0
LINE
  5
1B3
330
1B0
100
AcDbEntity
  8
TEXT
100
AcDbLine
 10
3693.500000000002
 20
115.0
 30
0.0
 11
3710.0
 21
115.0
 31
0.0
  0
LINE
  5
1B4
330
1B0
100
AcDbEntity
  8
TEXT
100
AcDbLine
 10
3709.0
 20
82.0
 30
0.0
 11
3709.0
 21
112.0
 31
0.0
  0
SOLID
  5
1B5
330
1B0
100
AcDbEntity
  8
TEXT
100
AcDbTrace
 10
3708.5
 20
82.0
 30
0.0
 11
3709.5
 21
82.0
 31
0.0
 12
3709.0
 22
79.0
 32
0.0
 13
3709.0
 23
79.0
 33
0.0
  0
SOLID
  5
1B6
330
1B0
100
AcDbEntity
  8
TEXT
100
AcDbTrace
 10
3708.5
 20
112.0
 30
0.0
 11
3709.5
 21
112.0
 31
0.0
 12
3709.0
 22
115.0
 32
0.0
 13
3709.0
 23
115.0
 33
0.0
  0
MTEXT
  5
1B7
330
1B0
100
AcDbEntity
  8
TEXT
100
AcDbMText
 10
3706.5
 20
97.00000000000059
 30
0.0
 40
3.0
 41
0.0
 71
     5
 72
     1
  1
\A1;%%C36
  7
GHS
 11
0.0000000000000001
 21
1.0
 31
0.0
 73
     1
 44
1.0
  0
POINT
  5
1B8
330
1B0
100
AcDbEntity
  8
DEFPOINTS
 62
     0
100
AcDbPoint
 10
3692.500000000002
 20
79.0
 30
0.0
  0
POINT
  5
1B9
330
1B0
100
AcDbEntity
  8
DEFPOINTS
 62
     0
100
AcDbPoint
 10
3692.500000000002
 20
115.0
 30
0.0
  0
POINT
  5
1BA
330
1B0
100
AcDbEntity
  8
DEFPOINTS
 62
     0
100
AcDbPoint
 10
3709.0
 20
115.0
 30
0.0
  0
ENDBLK
  5
1BB
330
1B0
100
AcDbEntity
  8
0
100
AcDbBlockEnd
  0
BLOCK
  5
1CD
330
1CC
100
AcDbEntity
  8
0
100
AcDbBlockBegin
  2
*D9
 70
     1
 10
0.0
 20
0.0
 30
0.0
  3
*D9
  1

  0
LINE
  5
1CE
330
1CC
100
AcDbEntity
  8
TEXT
100
AcDbLine
 10
3652.5
 20
115.5
 30
0.0
 11
3652.5
 21
128.0
 31
0.0
  0
LINE
  5
1CF
330
1CC
100
AcDbEntity
  8
TEXT
100
AcDbLine
 10
3692.500000000002
 20
116.0
 30
0.0
 11
3692.500000000002
 21
128.0
 31
0.0
  0
LINE
  5
1D0
330
1CC
100
AcDbEntity
  8
TEXT
100
AcDbLine
 10
3655.5
 20
127.0
 30
0.0
 11
3689.500000000002
 21
127.0
 31
0.0
  0
SOLID
  5
1D1
330
1CC
100
AcDbEntity
  8
TEXT
100
AcDbTrace
 10
3655.5
 20
127.5
 30
0.0
 11
3655.5
 21
126.5
 31
0.0
 12
3652.5
 22
127.0
 32
0.0
 13
3652.5
 23
127.0
 33
0.0
  0
SOLID
  5
1D2
330
1CC
100
AcDbEntity
  8
TEXT
100
AcDbTrace
 10
3689.500000000002
 20
127.5
 30
0.0
 11
3689.500000000002
 21
126.5
 31
0.0
 12
3692.500000000002
 22
127.0
 32
0.0
 13
3692.500000000002
 23
127.0
 33
0.0
  0
MTEXT
  5
1D3
330
1CC
100
AcDbEntity
  8
TEXT
100
AcDbMText
 10
3672.500000000001
 20
129.5
 30
0.0
 40
3.0
 41
0.0
 71
     5
 72
     1
  1
\A1;40
  7
GHS
 73
     1
 44
1.0
  0
POINT
  5
1D4
330
1CC
100
AcDbEntity
  8
DEFPOINTS
 62
     0
100
AcDbPoint
 10
3652.5
 20
114.5
 30
0.0
  0
POINT
  5
1D5
330
1CC
100
AcDbEntity
  8
DEFPOINTS
 62
     0
100
AcDbPoint
 10
3692.500000000002
 20
115.0
 30
0.0
  0
POINT
  5
1D6
330
1CC
100
AcDbEntity
  8
DEFPOINTS
 62
     0
100
AcDbPoint
 10
3692.500000000002
 20
127.0
 30
0.0
  0
ENDBLK
  5
1D7
330
1CC
100
AcDbEntity
  8
0
100
AcDbBlockEnd
  0
BLOCK
  5
1DA
330
1D9
100
AcDbEntity
  8
0
100
AcDbBlockBegin
  2
*D10
 70
     1
 10
0.0
 20
0.0
 30
0.0
  3
*D10
  1

  0
LINE
  5
1DB
330
1D9
100
AcDbEntity
  8
TEXT
100
AcDbLine
 10
3692.500000000002
 20
116.0
 30
0.0
 11
3692.500000000002
 21
128.0
 31
0.0
  0
LINE
  5
1DC
330
1D9
100
AcDbEntity
  8
TEXT
100
AcDbLine
 10
3696.500000000002
 20
99.0875000000001
 30
0.0
 11
3696.500000000002
 21
128.0
 31
0.0
  0
LINE
  5
1DD
330
1D9
100
AcDbEntity
  8
TEXT
100
AcDbLine
 10
3689.500000000002
 20
127.0
 30
0.0
 11
3686.500000000002
 21
127.0
 31
0.0
  0
LINE
  5
1DE
330
1D9
100
AcDbEntity
  8
TEXT
100
AcDbLine
 10
3699.500000000002
 20
127.0
 30
0.0
 11
3702.500000000002
 21
127.0
 31
0.0
  0
LINE
  5
1DF
330
1D9
100
AcDbEntity
  8
TEXT
100
AcDbLine
 10
3692.500000000002
 20
127.0
 30
0.0
 11
3696.500000000002
 21
127.0
 31
0.0
  0
SOLID
  5
1E0
330
1D9
100
AcDbEntity
  8
TEXT
100
AcDbTrace
 10
3689.500000000002
 20
127.5
 30
0.0
 11
3689.500000000002
 21
126.5
 31
0.0
 12
3692.500000000002
 22
127.0
 32
0.0
 13
3692.500000000002
 23
127.0
 33
0.0
  0
SOLID
  5
1E1
330
1D9
100
AcDbEntity
  8
TEXT
100
AcDbTrace
 10
3699.500000000002
 20
127.5
 30
0.0
 11
3699.500000000002
 21
126.5
 31
0.0
 12
3696.500000000002
 22
127.0
 32
0.0
 13
3696.500000000002
 23
127.0
 33
0.0
  0
MTEXT
  5
1E2
330
1D9
100
AcDbEntity
  8
TEXT
100
AcDbMText
 10
3694.500000000002
 20
129.5
 30
0.0
 40
3.0
 41
0.0
 71
     5
 72
     1
  1
\A1;4
  7
GHS
 73
     1
 44
1.0
  0
POINT
  5
1E3
330
1D9
100
AcDbEntity
  8
DEFPOINTS
 62
     0
100
AcDbPoint
 10
3692.500000000002
 20
115.0
 30
0.0
  0
POINT
  5
1E4
330
1D9
100
AcDbEntity
  8
DEFPOINTS
 62
     0
100
AcDbPoint
 10
3696.500000000002
 20
98.0875000000001
 30
0.0
  0
POINT
  5
1E5
330
1D9
100
AcDbEntity
  8
DEFPOINTS
 62
     0
100
AcDbPoint
 10
3696.500000000002
 20
127.0
 30
0.0
  0
ENDBLK
  5
1E6
330
1D9
100
AcDbEntity
  8
0
100
AcDbBlockEnd
  0
BLOCK
  5
21F
330
21E
100
AcDbEntity
  8
0
100
AcDbBlockBegin
  2
*D11
 70
     1
 10
0.0
 20
0.0
 30
0.0
  3
*D11
  1

  0
LINE
  5
220
330
21E
100
AcDbEntity
  8
TEXT
100
AcDbLine
 10
3543.0
 20
87.0
 30
0.0
 11
3517.0
 21
87.0
 31
0.0
  0
LINE
  5
221
330
21E
100
AcDbEntity
  8
TEXT
100
AcDbLine
 10
3543.0
 20
107.0
 30
0.0
 11
3517.0
 21
107.0
 31
0.0
  0
LINE
  5
222
330
21E
100
AcDbEntity
  8
TEXT
100
AcDbLine
 10
3518.0
 20
90.0
 30
0.0
 11
3518.0
 21
104.0
 31
0.0
  0
SOLID
  5
223
330
21E
100
AcDbEntity
  8
TEXT
100
AcDbTrace
 10
3517.5
 20
90.0
 30
0.0
 11
3518.5
 21
90.0
 31
0.0
 12
3518.0
 22
87.0
 32
0.0
 13
3518.0
 23
87.0
 33
0.0
  0
SOLID
  5
224
330
21E
100
AcDbEntity
  8
TEXT
100
AcDbTrace
 10
3517.5
 20
104.0
 30
0.0
 11
3518.5
 21
104.0
 31
0.0
 12
3518.0
 22
107.0
 32
0.0
 13
3518.0
 23
107.0
 33
0.0
  0
MTEXT
  5
225
330
21E
100
AcDbEntity
  8
TEXT
100
AcDbMText
 10
3515.5
 20
97.00000000000057
 30
0.0
 40
3.0
 41
0.0
 71
     5
 72
     1
  1
\A1;%%C20
  7
GHS
 11
0.0000000000000001
 21
1.0
 31
0.0
 73
     1
 44
1.0
  0
POINT
  5
226
330
21E
100
AcDbEntity
  8
DEFPOINTS
 62
     0
100
AcDbPoint
 10
3544.0
 20
87.0
 30
0.0
  0
POINT
  5
227
330
21E
100
AcDbEntity
  8
DEFPOINTS
 62
     0
100
AcDbPoint
 10
3544.0
 20
107.0
 30
0.0
  0
POINT
  5
228
330
21E
100
AcDbEntity
  8
DEFPOINTS
 62
     0
100
AcDbPoint
 10
3518.0
 20
107.0
 30
0.0
  0
ENDBLK
  5
229
330
21E
100
AcDbEntity
  8
0
100
AcDbBlockEnd
  0
BLOCK
  5
24E
330
24D
100
AcDbEntity
  8
0
100
AcDbBlockBegin
  2
*D12
 70
     1
 10
0.0
 20
0.0
 30
0.0
  3
*D12
  1

  0
LINE
  5
24F
330
24D
100
AcDbEntity
  8
TEXT
100
AcDbLine
 10
3624.0
 20
114.5
 30
0.0
 11
3577.0
 21
114.5
 31
0.0
  0
LINE
  5
250
330
24D
100
AcDbEntity
  8
TEXT
100
AcDbLine
 10
3624.0
 20
79.5
 30
0.0
 11
3577.0
 21
79.50000000000001
 31
0.0
  0
LINE
  5
251
330
24D
100
AcDbEntity
  8
TEXT
100
AcDbLine
 10
3578.0
 20
111.5
 30
0.0
 11
3578.0
 21
82.50000000000001
 31
0.0
  0
SOLID
  5
252
330
24D
100
AcDbEntity
  8
TEXT
100
AcDbTrace
 10
3577.5
 20
111.5
 30
0.0
 11
3578.5
 21
111.5
 31
0.0
 12
3578.0
 22
114.5
 32
0.0
 13
3578.0
 23
114.5
 33
0.0
  0
SOLID
  5
253
330
24D
100
AcDbEntity
  8
TEXT
100
AcDbTrace
 10
3577.5
 20
82.50000000000001
 30
0.0
 11
3578.5
 21
82.50000000000001
 31
0.0
 12
3578.0
 22
79.50000000000001
 32
0.0
 13
3578.0
 23
79.50000000000001
 33
0.0
  0
MTEXT
  5
254
330
24D
100
AcDbEntity
  8
TEXT
100
AcDbMText
 10
3575.5
 20
97.00000000000059
 30
0.0
 40
3.0
 41
0.0
 71
     5
 72
     1
  1
\A1;%%C35
  7
GHS
 11
0.0000000000000001
 21
1.0
 31
0.0
 73
     1
 44
1.0
  0
POINT
  5
255
330
24D
100
AcDbEntity
  8
DEFPOINTS
 62
     0
100
AcDbPoint
 10
3625.0
 20
114.5
 30
0.0
  0
POINT
  5
256
330
24D
100
AcDbEntity
  8
DEFPOINTS
 62
     0
100
AcDbPoint
 10
3625.0
 20
79.5
 30
0.0
  0
POINT
  5
257
330
24D
100
AcDbEntity
  8
DEFPOINTS
 62
     0
100
AcDbPoint
 10
3578.0
 20
79.50000000000001
 30
0.0
  0
ENDBLK
  5
258
330
24D
100
AcDbEntity
  8
0
100
AcDbBlockEnd
  0
BLOCK
  5
230
330
22F
100
AcDbEntity
  8
0
100
AcDbBlockBegin
  2
*D13
 70
     1
 10
0.0
 20
0.0
 30
0.0
  3
*D13
  1

  0
LINE
  5
231
330
22F
100
AcDbEntity
  8
TEXT
100
AcDbLine
 10
3604.200000000001
 20
94.0
 30
0.0
 11
3593.0
 21
94.0
 31
0.0
  0
LINE
  5
232
330
22F
100
AcDbEntity
  8
TEXT
100
AcDbLine
 10
3603.700000000001
 20
99.50000000000001
 30
0.0
 11
3593.0
 21
99.50000000000001
 31
0.0
  0
LINE
  5
233
330
22F
100
AcDbEntity
  8
TEXT
100
AcDbLine
 10
3594.0
 20
91.0
 30
0.0
 11
3594.0
 21
88.0
 31
0.0
  0
LINE
  5
234
330
22F
100
AcDbEntity
  8
TEXT
100
AcDbLine
 10
3594.0
 20
102.5
 30
0.0
 11
3594.0
 21
105.5
 31
0.0
  0
LINE
  5
235
330
22F
100
AcDbEntity
  8
TEXT
100
AcDbLine
 10
3594.0
 20
94.0
 30
0.0
 11
3594.0
 21
99.50000000000001
 31
0.0
  0
SOLID
  5
236
330
22F
100
AcDbEntity
  8
TEXT
100
AcDbTrace
 10
3593.500000000001
 20
91.0
 30
0.0
 11
3594.5
 21
91.0
 31
0.0
 12
3594.0
 22
94.0
 32
0.0
 13
3594.0
 23
94.0
 33
0.0
  0
SOLID
  5
237
330
22F
100
AcDbEntity
  8
TEXT
100
AcDbTrace
 10
3593.500000000001
 20
102.5
 30
0.0
 11
3594.5
 21
102.5
 31
0.0
 12
3594.0
 22
99.50000000000001
 32
0.0
 13
3594.0
 23
99.50000000000001
 33
0.0
  0
MTEXT
  5
238
330
22F
100
AcDbEntity
  8
TEXT
100
AcDbMText
 10
3591.5
 20
96.75000000000059
 30
0.0
 40
3.0
 41
0.0
 71
     5
 72
     1
  1
\A1;5.5
  7
GHS
 11
0.0000000000000001
 21
1.0
 31
0.0
 73
     1
 44
1.0
  0
POINT
  5
239
330
22F
100
AcDbEntity
  8
DEFPOINTS
 62
     0
100
AcDbPoint
 10
3605.200000000001
 20
94.0
 30
0.0
  0
POINT
  5
23A
330
22F
100
AcDbEntity
  8
DEFPOINTS
 62
     0
100
AcDbPoint
 10
3604.700000000001
 20
99.50000000000001
 30
0.0
  0
POINT
  5
23B
330
22F
100
AcDbEntity
  8
DEFPOINTS
 62
     0
100
AcDbPoint
 10
3594.0
 20
99.50000000000001
 30
0.0
  0
ENDBLK
  5
23C
330
22F
100
AcDbEntity
  8
0
100
AcDbBlockEnd
  0
BLOCK
  5
23F
330
23E
100
AcDbEntity
  8
0
100
AcDbBlockBegin
  2
*D14
 70
     1
 10
0.0
 20
0.0
 30
0.0
  3
*D14
  1

  0
LINE
  5
240
330
23E
100
AcDbEntity
  8
TEXT
100
AcDbLine
 10
3604.200000000001
 20
94.0
 30
0.0
 11
3585.0
 21
94.0
 31
0.0
  0
LINE
  5
241
330
23E
100
AcDbEntity
  8
TEXT
100
AcDbLine
 10
3615.700000000001
 20
100.0
 30
0.0
 11
3585.0
 21
100.0
 31
0.0
  0
LINE
  5
242
330
23E
100
AcDbEntity
  8
TEXT
100
AcDbLine
 10
3586.0
 20
91.0
 30
0.0
 11
3586.0
 21
88.0
 31
0.0
  0
LINE
  5
243
330
23E
100
AcDbEntity
  8
TEXT
100
AcDbLine
 10
3586.0
 20
103.0
 30
0.0
 11
3586.0
 21
106.0
 31
0.0
  0
LINE
  5
244
330
23E
100
AcDbEntity
  8
TEXT
100
AcDbLine
 10
3586.0
 20
94.0
 30
0.0
 11
3586.0
 21
100.0
 31
0.0
  0
SOLID
  5
245
330
23E
100
AcDbEntity
  8
TEXT
100
AcDbTrace
 10
3585.500000000001
 20
91.0
 30
0.0
 11
3586.5
 21
91.0
 31
0.0
 12
3586.0
 22
94.0
 32
0.0
 13
3586.0
 23
94.0
 33
0.0
  0
SOLID
  5
246
330
23E
100
AcDbEntity
  8
TEXT
100
AcDbTrace
 10
3585.500000000001
 20
103.0
 30
0.0
 11
3586.5
 21
103.0
 31
0.0
 12
3586.0
 22
100.0
 32
0.0
 13
3586.0
 23
100.0
 33
0.0
  0
MTEXT
  5
247
330
23E
100
AcDbEntity
  8
TEXT
100
AcDbMText
 10
3583.5
 20
97.00000000000059
 30
0.0
 40
3.0
 41
0.0
 71
     5
 72
     1
  1
\A1;%%C6
  7
GHS
 11
0.0000000000000001
 21
1.0
 31
0.0
 73
     1
 44
1.0
  0
POINT
  5
248
330
23E
100
AcDbEntity
  8
DEFPOINTS
 62
     0
100
AcDbPoint
 10
3605.200000000001
 20
94.0
 30
0.0
  0
POINT
  5
249
330
23E
100
AcDbEntity
  8
DEFPOINTS
 62
     0
100
AcDbPoint
 10
3616.700000000001
 20
100.0
 30
0.0
  0
POINT
  5
24A
330
23E
100
AcDbEntity
  8
DEFPOINTS
 62
     0
100
AcDbPoint
 10
3586.0
 20
100.0
 30
0.0
  0
ENDBLK
  5
24B
330
23E
100
AcDbEntity
  8
0
100
AcDbBlockEnd
  0
ENDSEC
  0
SECTION
  2
ENTITIES
  0
LINE
  5
86
330
2
100
AcDbEntity
  8
CL
100
AcDbLine
 10
3601.700000000001
 20
97.0
 30
0.0
 11
3691.500000000002
 21
97.0
 31
0.0
  0
LINE
  5
8B
330
2
100
AcDbEntity
  8
0
100
AcDbLine
 10
3624.300000000001
 20
94.69999999999982
 30
0.0
 11
3627.5
 21
94.70000000000027
 31
0.0
  0
LINE
  5
8C
330
2
100
AcDbEntity
  8
0
100
AcDbLine
 10
3624.300000000001
 20
99.29999999999928
 30
0.0
 11
3627.5
 21
99.29999999999973
 31
0.0
  0
LINE
  5
8D
330
2
100
AcDbEntity
  8
0
100
AcDbLine
 10
3619.700000000001
 20
91.5
 30
0.0
 11
3620.300000000001
 21
91.5
 31
0.0
  0
LINE
  5
8E
330
2
100
AcDbEntity
  8
0
100
AcDbLine
 10
3620.5
 20
103.9000000000001
 30
0.0
 11
3621.0
 21
103.9000000000001
 31
0.0
  0
LINE
  5
8F
330
2
100
AcDbEntity
  8
0
100
AcDbLine
 10
3620.5
 20
90.0999999999999
 30
0.0
 11
3621.0
 21
90.0999999999999
 31
0.0
  0
LINE
  5
90
330
2
100
AcDbEntity
  8
0
100
AcDbLine
 10
3621.500000000001
 20
87.0
 30
0.0
 11
3624.0
 21
87.0
 31
0.0
  0
LINE
  5
91
330
2
100
AcDbEntity
  8
0
100
AcDbLine
 10
3621.0
 20
97.0
 30
0.0
 11
3621.0
 21
87.5
 31
0.0
  0
LINE
  5
92
330
2
100
AcDbEntity
  8
0
100
AcDbLine
 10
3620.5
 20
97.0
 30
0.0
 11
3620.5
 21
90.0999999999999
 31
0.0
  0
ARC
  5
93
330
2
100
AcDbEntity
  8
0
100
AcDbCircle
 10
3621.500000000001
 20
87.5
 30
0.0
 40
0.5
100
AcDbArc
 50
180.0
 51
270.0
  0
LINE
  5
94
330
2
100
AcDbEntity
  8
0
100
AcDbLine
 10
3624.0
 20
80.5
 30
0.0
 11
3624.0
 21
113.5
 31
0.0
  0
LINE
  5
95
330
2
100
AcDbEntity
  8
0
100
AcDbLine
 10
3627.5
 20
94.70000000000027
 30
0.0
 11
3627.5
 21
99.30000000000019
 31
0.0
  0
ARC
  5
96
330
2
100
AcDbEntity
  8
0
100
AcDbCircle
 10
3625.0
 20
80.5
 30
0.0
 40
1.0
100
AcDbArc
 50
180.0
 51
270.0
  0
LINE
  5
97
330
2
100
AcDbEntity
  8
0
100
AcDbLine
 10
3625.0
 20
79.5
 30
0.0
 11
3652.500000000002
 21
79.5
 31
0.0
  0
LINE
  5
98
330
2
100
AcDbEntity
  8
0
100
AcDbLine
 10
3621.500000000001
 20
107.0
 30
0.0
 11
3624.0
 21
107.0
 31
0.0
  0
LINE
  5
99
330
2
100
AcDbEntity
  8
0
100
AcDbLine
 10
3621.0
 20
97.0
 30
0.0
 11
3621.0
 21
106.5
 31
0.0
  0
LINE
  5
9A
330
2
100
AcDbEntity
  8
0
100
AcDbLine
 10
3604.700000000001
 20
94.50000000000001
 30
0.0
 11
3604.700000000001
 21
99.50000000000001
 31
0.0
  0
LINE
  5
9B
330
2
100
AcDbEntity
  8
0
100
AcDbLine
 10
3616.700000000001
 20
99.50000000000001
 30
0.0
 11
3616.700000000001
 21
100.0
 31
0.0
  0
LINE
  5
9C
330
2
100
AcDbEntity
  8
0
100
AcDbLine
 10
3605.200000000001
 20
94.0
 30
0.0
 11
3605.200000000001
 21
99.50000000000001
 31
0.0
  0
ARC
  5
9D
330
2
100
AcDbEntity
  8
0
100
AcDbCircle
 10
3621.500000000001
 20
106.5
 30
0.0
 40
0.5
100
AcDbArc
 50
90.0
 51
180.0
  0
ARC
  5
9E
330
2
100
AcDbEntity
  8
0
100
AcDbCircle
 10
3625.0
 20
113.5
 30
0.0
 40
1.0
100
AcDbArc
 50
90.0
 51
180.0
  0
LINE
  5
9F
330
2
100
AcDbEntity
  8
0
100
AcDbLine
 10
3625.0
 20
114.5
 30
0.0
 11
3632.0
 21
114.5
 31
0.0
  0
LINE
  5
A0
330
2
100
AcDbEntity
  8
CL
100
AcDbLine
 10
3524.5
 20
97.0
 30
0.0
 11
3563.5
 21
97.0
 31
0.0
  0
LINE
  5
A1
330
2
100
AcDbEntity
  8
0
100
AcDbLine
 10
3526.651801246241
 20
94.69999999999982
 30
0.0
 11
3529.5
 21
94.69999999999982
 31
0.0
  0
LINE
  5
A2
330
2
100
AcDbEntity
  8
0
100
AcDbLine
 10
3526.651801246241
 20
99.29999999999973
 30
0.0
 11
3529.5
 21
99.30000000000019
 31
0.0
  0
LINE
  5
A3
330
2
100
AcDbEntity
  8
CL
100
AcDbLine
 10
3544.0
 20
77.5
 30
0.0
 11
3544.0
 21
116.5
 31
0.0
  0
LINE
  5
A4
330
2
100
AcDbEntity
  8
0
100
AcDbLine
 10
3553.0
 20
92.64110105645931
 30
0.0
 11
3553.0
 21
101.3588989435407
 31
0.0
  0
LINE
  5
A5
330
2
100
AcDbEntity
  8
0
100
AcDbLine
 10
3535.0
 20
92.64110105645931
 30
0.0
 11
3535.0
 21
101.3588989435407
 31
0.0
  0
ARC
  5
A6
330
2
100
AcDbEntity
  8
CL
100
AcDbCircle
 10
3544.0
 20
97.0
 30
0.0
 40
13.0
100
AcDbArc
 50
119.5272399201159
 51
150.4727600799285
  0
ARC
  5
A7
330
2
100
AcDbEntity
  8
CL
100
AcDbCircle
 10
3544.0
 20
97.0
 30
0.0
 40
13.0
100
AcDbArc
 50
209.5272399200715
 51
240.4727600798841
  0
ARC
  5
A8
330
2
100
AcDbEntity
  8
CL
100
AcDbCircle
 10
3544.0
 20
97.0
 30
0.0
 40
13.0
100
AcDbArc
 50
299.5272399201159
 51
330.4727600799286
  0
ARC
  5
A9
330
2
100
AcDbEntity
  8
CL
100
AcDbCircle
 10
3544.0
 20
97.0
 30
0.0
 40
13.0
100
AcDbArc
 50
29.52723992007147
 51
60.47276007988408
  0
ARC
  5
AA
330
2
100
AcDbEntity
  8
0
100
AcDbCircle
 10
3544.0
 20
97.0
 30
0.0
 40
10.0
100
AcDbArc
 50
205.8419327631833
 51
334.1580672368167
  0
ARC
  5
AB
330
2
100
AcDbEntity
  8
0
100
AcDbCircle
 10
3544.0
 20
97.0
 30
0.0
 40
10.0
100
AcDbArc
 50
25.84193276318331
 51
154.1580672368167
  0
CIRCLE
  5
AC
330
2
100
AcDbEntity
  8
0
100
AcDbCircle
 10
3544.0
 20
97.0
 30
0.0
 40
3.0
  0
CIRCLE
  5
AD
330
2
100
AcDbEntity
  8
0
100
AcDbCircle
 10
3544.0
 20
97.0
 30
0.0
 40
2.5
  0
CIRCLE
  5
AE
330
2
100
AcDbEntity
  8
0
100
AcDbCircle
 10
3544.0
 20
97.0
 30
0.0
 40
7.5
  0
CIRCLE
  5
AF
330
2
100
AcDbEntity
  8
0
100
AcDbCircle
 10
3553.192388155427
 20
106.1923881554248
 30
0.0
 40
1.7
  0
ARC
  5
B0
330
2
100
AcDbEntity
  8
0
100
AcDbCircle
 10
3553.192388155427
 20
106.1923881554248
 30
0.0
 40
1.5
100
AcDbArc
 50
259.8788611531876
 51
190.2121249084202
  0
CIRCLE
  5
B1
330
2
100
AcDbEntity
  8
0
100
AcDbCircle
 10
3553.192388155427
 20
106.1923881554248
 30
0.0
 40
1.199999999999999
  0
LINE
  5
B2
330
2
100
AcDbEntity
  8
CL
100
AcDbLine
 10
3532.332738110423
 20
108.6672618895782
 30
0.0
 11
3537.282485578729
 21
103.7175144212724
 31
0.0
  0
LINE
  5
B3
330
2
100
AcDbEntity
  8
CL
100
AcDbLine
 10
3555.667261889579
 20
85.33273811042182
 30
0.0
 11
3550.717514421272
 21
90.28248557872757
 31
0.0
  0
LINE
  5
B4
330
2
100
AcDbEntity
  8
CL
100
AcDbLine
 10
3532.332738110423
 20
85.33273811042182
 30
0.0
 11
3537.282485578729
 21
90.28248557872757
 31
0.0
  0
CIRCLE
  5
B5
330
2
100
AcDbEntity
  8
0
100
AcDbCircle
 10
3534.807611844576
 20
106.1923881554248
 30
0.0
 40
1.7
  0
ARC
  5
B6
330
2
100
AcDbEntity
  8
0
100
AcDbCircle
 10
3534.807611844576
 20
106.1923881554248
 30
0.0
 40
1.5
100
AcDbArc
 50
259.8788611531876
 51
190.2121249084202
  0
CIRCLE
  5
B7
330
2
100
AcDbEntity
  8
0
100
AcDbCircle
 10
3534.807611844576
 20
106.1923881554248
 30
0.0
 40
1.199999999999999
  0
CIRCLE
  5
B8
330
2
100
AcDbEntity
  8
0
100
AcDbCircle
 10
3534.807611844576
 20
87.80761184457469
 30
0.0
 40
1.7
  0
ARC
  5
B9
330
2
100
AcDbEntity
  8
0
100
AcDbCircle
 10
3534.807611844576
 20
87.80761184457469
 30
0.0
 40
1.5
100
AcDbArc
 50
259.8788611531876
 51
190.2121249084202
  0
CIRCLE
  5
BA
330
2
100
AcDbEntity
  8
0
100
AcDbCircle
 10
3534.807611844576
 20
87.80761184457469
 30
0.0
 40
1.199999999999999
  0
CIRCLE
  5
BB
330
2
100
AcDbEntity
  8
0
100
AcDbCircle
 10
3553.192388155427
 20
87.80761184457469
 30
0.0
 40
1.7
  0
ARC
  5
BC
330
2
100
AcDbEntity
  8
0
100
AcDbCircle
 10
3553.192388155427
 20
87.80761184457469
 30
0.0
 40
1.5
100
AcDbArc
 50
259.8788611531876
 51
190.2121249084202
  0
CIRCLE
  5
BD
330
2
100
AcDbEntity
  8
0
100
AcDbCircle
 10
3553.192388155427
 20
87.80761184457469
 30
0.0
 40
1.199999999999999
  0
ARC
  5
BE
330
2
100
AcDbEntity
  8
0
100
AcDbCircle
 10
3529.5
 20
97.0
 30
0.0
 40
2.299999999999999
100
AcDbArc
 50
270.0
 51
90.0
  0
LINE
  5
BF
330
2
100
AcDbEntity
  8
0
100
AcDbLine
 10
3546.300000000002
 20
79.65180124623884
 30
0.0
 11
3546.300000000002
 21
82.5
 31
0.0
  0
LINE
  5
C0
330
2
100
AcDbEntity
  8
0
100
AcDbLine
 10
3541.700000000001
 20
79.65180124623884
 30
0.0
 11
3541.700000000001
 21
82.5
 31
0.0
  0
ARC
  5
C1
330
2
100
AcDbEntity
  8
0
100
AcDbCircle
 10
3544.0
 20
82.5
 30
0.0
 40
2.299999999999999
100
AcDbArc
 50
0.0
 51
180.0
  0
LINE
  5
C2
330
2
100
AcDbEntity
  8
0
100
AcDbLine
 10
3561.348198753762
 20
99.29999999999973
 30
0.0
 11
3558.5
 21
99.30000000000019
 31
0.0
  0
LINE
  5
C3
330
2
100
AcDbEntity
  8
0
100
AcDbLine
 10
3561.348198753762
 20
94.69999999999982
 30
0.0
 11
3558.5
 21
94.69999999999982
 31
0.0
  0
ARC
  5
C4
330
2
100
AcDbEntity
  8
0
100
AcDbCircle
 10
3558.5
 20
97.0
 30
0.0
 40
2.299999999999999
100
AcDbArc
 50
90.0
 51
270.0
  0
LINE
  5
C5
330
2
100
AcDbEntity
  8
0
100
AcDbLine
 10
3541.700000000001
 20
114.3481987537611
 30
0.0
 11
3541.700000000001
 21
111.5
 31
0.0
  0
LINE
  5
C6
330
2
100
AcDbEntity
  8
0
100
AcDbLine
 10
3546.300000000002
 20
114.3481987537611
 30
0.0
 11
3546.300000000002
 21
111.5
 31
0.0
  0
ARC
  5
C7
330
2
100
AcDbEntity
  8
0
100
AcDbCircle
 10
3544.0
 20
111.5
 30
0.0
 40
2.299999999999999
100
AcDbArc
 50
180.0
 51
0.0
  0
LINE
  5
C8
330
2
100
AcDbEntity
  8
CL
100
AcDbLine
 10
3555.667261889579
 20
108.6672618895782
 30
0.0
 11
3550.717514421272
 21
103.7175144212724
 31
0.0
  0
LINE
  5
C9
330
2
100
AcDbEntity
  8
0
100
AcDbLine
 10
3652.5
 20
114.5
 30
0.0
 11
3652.500000000002
 21
79.5
 31
0.0
  0
LINE
  5
CA
330
2
100
AcDbEntity
  8
0
100
AcDbLine
 10
3620.5
 20
94.0
 30
0.0
 11
3620.400000000002
 21
94.0
 31
0.0
  0
LINE
  5
CB
330
2
100
AcDbEntity
  8
0
100
AcDbLine
 10
3619.700000000001
 20
94.0
 30
0.0
 11
3605.200000000001
 21
94.0
 31
0.0
  0
LINE
  5
CC
330
2
100
AcDbEntity
  8
0
100
AcDbLine
 10
3620.400000000002
 20
94.50000000000001
 30
0.0
 11
3620.300000000001
 21
94.50000000000001
 31
0.0
  0
LINE
  5
CD
330
2
100
AcDbEntity
  8
0
100
AcDbLine
 10
3619.700000000001
 20
100.0
 30
0.0
 11
3616.700000000001
 21
100.0
 31
0.0
  0
LINE
  5
CE
330
2
100
AcDbEntity
  8
0
100
AcDbLine
 10
3616.700000000001
 20
99.50000000000001
 30
0.0
 11
3604.700000000001
 21
99.50000000000001
 31
0.0
  0
LINE
  5
CF
330
2
100
AcDbEntity
  8
0
100
AcDbLine
 10
3605.200000000001
 20
94.0
 30
0.0
 11
3604.700000000001
 21
94.50000000000001
 31
0.0
  0
LINE
  5
D0
330
2
100
AcDbEntity
  8
0
100
AcDbLine
 10
3620.5
 20
97.0
 30
0.0
 11
3620.5
 21
103.9000000000001
 31
0.0
  0
LINE
  5
D1
330
2
100
AcDbEntity
  8
0
100
AcDbLine
 10
3619.700000000001
 20
91.5
 30
0.0
 11
3619.700000000001
 21
97.0
 31
0.0
  0
LINE
  5
D2
330
2
100
AcDbEntity
  8
0
100
AcDbLine
 10
3620.300000000001
 20
91.5
 30
0.0
 11
3620.300000000001
 21
97.0
 31
0.0
  0
LINE
  5
D3
330
2
100
AcDbEntity
  8
0
100
AcDbLine
 10
3619.700000000001
 20
102.5
 30
0.0
 11
3620.300000000001
 21
102.5
 31
0.0
  0
LINE
  5
D4
330
2
100
AcDbEntity
  8
0
100
AcDbLine
 10
3620.400000000002
 20
99.50000000000001
 30
0.0
 11
3620.300000000001
 21
99.50000000000001
 31
0.0
  0
LINE
  5
D5
330
2
100
AcDbEntity
  8
0
100
AcDbLine
 10
3620.400000000002
 20
100.0
 30
0.0
 11
3620.400000000002
 21
94.0
 31
0.0
  0
LINE
  5
D6
330
2
100
AcDbEntity
  8
0
100
AcDbLine
 10
3619.700000000001
 20
102.5
 30
0.0
 11
3619.700000000001
 21
97.0
 31
0.0
  0
LINE
  5
D7
330
2
100
AcDbEntity
  8
0
100
AcDbLine
 10
3620.300000000001
 20
102.5
 30
0.0
 11
3620.300000000001
 21
97.0
 31
0.0
  0
LINE
  5
D8
330
2
100
AcDbEntity
  8
0
100
AcDbLine
 10
3620.5
 20
100.0
 30
0.0
 11
3620.400000000002
 21
100.0
 31
0.0
  0
LINE
  5
D9
330
2
100
AcDbEntity
  8
0
100
AcDbLine
 10
3547.448187929915
 20
97.0
 30
0.0
 11
3547.0
 21
97.0
 31
0.0
  0
LINE
  5
DA
330
2
100
AcDbEntity
  8
0
100
AcDbLine
 10
3545.5
 20
99.59807621135315
 30
0.0
 11
3545.724093964958
 21
99.98621834432789
 31
0.0
  0
LINE
  5
DB
330
2
100
AcDbEntity
  8
0
100
AcDbLine
 10
3546.140118048825
 20
94.89764543021465
 30
0.0
 11
3546.900625712526
 21
93.26216278788479
 31
0.0
  0
LINE
  5
DC
330
2
100
AcDbEntity
  8
0
100
AcDbLine
 10
3542.5
 20
99.59807621135315
 30
0.0
 11
3542.275906035044
 21
99.98621834432789
 31
0.0
  0
LINE
  5
DD
330
2
100
AcDbEntity
  8
0
100
AcDbLine
 10
3540.551812070088
 20
97.0
 30
0.0
 11
3541.0
 21
97.0
 31
0.0
  0
LINE
  5
DE
330
2
100
AcDbEntity
  8
0
100
AcDbLine
 10
3541.859881951177
 20
94.89764543021465
 30
0.0
 11
3541.099374287477
 21
93.26216278788479
 31
0.0
  0
ARC
  5
DF
330
2
100
AcDbEntity
  8
0
100
AcDbCircle
 10
3544.0
 20
97.0
 30
0.0
 40
5.5
100
AcDbArc
 50
314.6678888984802
 51
225.3321111015198
  0
ARC
  5
E0
330
2
100
AcDbEntity
  8
0
100
AcDbCircle
 10
3544.0
 20
97.0
 30
0.0
 40
4.099999999999999
100
AcDbArc
 50
9.870889606149017
 51
50.12911039383567
  0
ARC
  5
E1
330
2
100
AcDbEntity
  8
0
100
AcDbCircle
 10
3544.0
 20
97.0
 30
0.0
 40
4.099999999999999
100
AcDbArc
 50
129.8708896061643
 51
170.129110393851
  0
ARC
  5
E2
330
2
100
AcDbEntity
  8
0
100
AcDbCircle
 10
3547.444681520853
 20
93.51515147819828
 30
0.0
 40
0.6
100
AcDbArc
 50
204.9386648618863
 51
314.6678888984802
  0
ARC
  5
E3
330
2
100
AcDbEntity
  8
0
100
AcDbCircle
 10
3540.55531847915
 20
93.51515147819828
 30
0.0
 40
0.6
100
AcDbArc
 50
225.3321111015198
 51
335.0613351381137
  0
ARC
  5
E4
330
2
100
AcDbEntity
  8
0
100
AcDbCircle
 10
3547.448187929915
 20
97.5999999999999
 30
0.0
 40
0.6
100
AcDbArc
 50
270.0
 51
9.870889606149017
  0
ARC
  5
E5
330
2
100
AcDbEntity
  8
0
100
AcDbCircle
 10
3546.243709207228
 20
99.6862183443277
 30
0.0
 40
0.6
100
AcDbArc
 50
50.12911039383567
 51
149.999999999984
  0
ARC
  5
E6
330
2
100
AcDbEntity
  8
0
100
AcDbCircle
 10
3541.756290792773
 20
99.6862183443277
 30
0.0
 40
0.6
100
AcDbArc
 50
30.00000000001598
 51
129.8708896061643
  0
ARC
  5
E7
330
2
100
AcDbEntity
  8
0
100
AcDbCircle
 10
3540.551812070088
 20
97.5999999999999
 30
0.0
 40
0.6
100
AcDbArc
 50
170.129110393851
 51
270.0
  0
LINE
  5
E8
330
2
100
AcDbEntity
  8
0
100
AcDbLine
 10
3545.658312395179
 20
99.50000000000001
 30
0.0
 11
3542.341687604823
 21
99.50000000000001
 31
0.0
  0
CIRCLE
  5
E9
330
2
100
AcDbEntity
  8
0
100
AcDbCircle
 10
3529.5
 20
97.0
 30
0.0
 40
1.75
  0
ARC
  5
EA
330
2
100
AcDbEntity
  8
0
100
AcDbCircle
 10
3530.0625
 20
97.56250000000001
 30
0.0
 40
0.3125
100
AcDbArc
 50
180.0
 51
270.0
  0
ARC
  5
EB
330
2
100
AcDbEntity
  8
0
100
AcDbCircle
 10
3528.9375
 20
97.56250000000001
 30
0.0
 40
0.3125
100
AcDbArc
 50
270.0
 51
0.0
  0
LINE
  5
EC
330
2
100
AcDbEntity
  8
0
100
AcDbLine
 10
3530.0625
 20
97.25000000000001
 30
0.0
 11
3530.5
 21
97.25000000000001
 31
0.0
  0
ARC
  5
ED
330
2
100
AcDbEntity
  8
0
100
AcDbCircle
 10
3530.0625
 20
96.4375
 30
0.0
 40
0.3125
100
AcDbArc
 50
90.0
 51
180.0
  0
LINE
  5
EE
330
2
100
AcDbEntity
  8
0
100
AcDbLine
 10
3530.0625
 20
96.75
 30
0.0
 11
3530.5
 21
96.75
 31
0.0
  0
LINE
  5
EF
330
2
100
AcDbEntity
  8
0
100
AcDbLine
 10
3529.75
 20
96.0
 30
0.0
 11
3529.75
 21
96.4375
 31
0.0
  0
LINE
  5
F0
330
2
100
AcDbEntity
  8
0
100
AcDbLine
 10
3530.5
 20
97.25000000000001
 30
0.0
 11
3530.5
 21
96.75
 31
0.0
  0
ARC
  5
F1
330
2
100
AcDbEntity
  8
0
100
AcDbCircle
 10
3528.9375
 20
96.4375
 30
0.0
 40
0.3125
100
AcDbArc
 50
0.0
 51
90.0
  0
LINE
  5
F2
330
2
100
AcDbEntity
  8
0
100
AcDbLine
 10
3528.500000000001
 20
97.25000000000001
 30
0.0
 11
3528.9375
 21
97.25000000000001
 31
0.0
  0
LINE
  5
F3
330
2
100
AcDbEntity
  8
0
100
AcDbLine
 10
3528.500000000001
 20
96.75
 30
0.0
 11
3528.9375
 21
96.75
 31
0.0
  0
LINE
  5
F4
330
2
100
AcDbEntity
  8
0
100
AcDbLine
 10
3528.500000000001
 20
97.25000000000001
 30
0.0
 11
3528.500000000001
 21
96.75
 31
0.0
  0
LINE
  5
F5
330
2
100
AcDbEntity
  8
0
100
AcDbLine
 10
3529.250000000001
 20
96.0
 30
0.0
 11
3529.250000000001
 21
96.4375
 31
0.0
  0
LINE
  5
F6
330
2
100
AcDbEntity
  8
0
100
AcDbLine
 10
3529.250000000001
 20
96.0
 30
0.0
 11
3529.75
 21
96.0
 31
0.0
  0
LINE
  5
F7
330
2
100
AcDbEntity
  8
0
100
AcDbLine
 10
3529.75
 20
97.56250000000001
 30
0.0
 11
3529.75
 21
98.0
 31
0.0
  0
LINE
  5
F8
330
2
100
AcDbEntity
  8
0
100
AcDbLine
 10
3529.250000000001
 20
97.56250000000001
 30
0.0
 11
3529.250000000001
 21
98.0
 31
0.0
  0
LINE
  5
F9
330
2
100
AcDbEntity
  8
0
100
AcDbLine
 10
3529.250000000001
 20
98.0
 30
0.0
 11
3529.75
 21
98.0
 31
0.0
  0
CIRCLE
  5
FA
330
2
100
AcDbEntity
  8
0
100
AcDbCircle
 10
3544.0
 20
82.5
 30
0.0
 40
1.75
  0
ARC
  5
FB
330
2
100
AcDbEntity
  8
0
100
AcDbCircle
 10
3544.5625
 20
83.0625
 30
0.0
 40
0.3125
100
AcDbArc
 50
180.0
 51
270.0
  0
ARC
  5
FC
330
2
100
AcDbEntity
  8
0
100
AcDbCircle
 10
3543.4375
 20
83.0625
 30
0.0
 40
0.3125
100
AcDbArc
 50
270.0
 51
0.0
  0
LINE
  5
FD
330
2
100
AcDbEntity
  8
0
100
AcDbLine
 10
3544.5625
 20
82.75
 30
0.0
 11
3545.0
 21
82.75
 31
0.0
  0
ARC
  5
FE
330
2
100
AcDbEntity
  8
0
100
AcDbCircle
 10
3544.5625
 20
81.93749999999999
 30
0.0
 40
0.3125
100
AcDbArc
 50
90.0
 51
180.0
  0
LINE
  5
FF
330
2
100
AcDbEntity
  8
0
100
AcDbLine
 10
3544.5625
 20
82.24999999999999
 30
0.0
 11
3545.0
 21
82.24999999999999
 31
0.0
  0
LINE
  5
100
330
2
100
AcDbEntity
  8
0
100
AcDbLine
 10
3544.25
 20
81.5
 30
0.0
 11
3544.25
 21
81.93749999999999
 31
0.0
  0
LINE
  5
101
330
2
100
AcDbEntity
  8
0
100
AcDbLine
 10
3545.0
 20
82.75
 30
0.0
 11
3545.0
 21
82.24999999999999
 31
0.0
  0
ARC
  5
102
330
2
100
AcDbEntity
  8
0
100
AcDbCircle
 10
3543.4375
 20
81.93749999999999
 30
0.0
 40
0.3125
100
AcDbArc
 50
0.0
 51
90.0
  0
LINE
  5
103
330
2
100
AcDbEntity
  8
0
100
AcDbLine
 10
3543.0
 20
82.75
 30
0.0
 11
3543.4375
 21
82.75
 31
0.0
  0
LINE
  5
104
330
2
100
AcDbEntity
  8
0
100
AcDbLine
 10
3543.0
 20
82.24999999999999
 30
0.0
 11
3543.4375
 21
82.24999999999999
 31
0.0
  0
LINE
  5
105
330
2
100
AcDbEntity
  8
0
100
AcDbLine
 10
3543.0
 20
82.75
 30
0.0
 11
3543.0
 21
82.24999999999999
 31
0.0
  0
LINE
  5
106
330
2
100
AcDbEntity
  8
0
100
AcDbLine
 10
3543.75
 20
81.5
 30
0.0
 11
3543.75
 21
81.93749999999999
 31
0.0
  0
LINE
  5
107
330
2
100
AcDbEntity
  8
0
100
AcDbLine
 10
3543.75
 20
81.5
 30
0.0
 11
3544.25
 21
81.5
 31
0.0
  0
LINE
  5
108
330
2
100
AcDbEntity
  8
0
100
AcDbLine
 10
3544.25
 20
83.0625
 30
0.0
 11
3544.25
 21
83.49999999999999
 31
0.0
  0
LINE
  5
109
330
2
100
AcDbEntity
  8
0
100
AcDbLine
 10
3543.75
 20
83.0625
 30
0.0
 11
3543.75
 21
83.49999999999999
 31
0.0
  0
LINE
  5
10A
330
2
100
AcDbEntity
  8
0
100
AcDbLine
 10
3543.75
 20
83.49999999999999
 30
0.0
 11
3544.25
 21
83.49999999999999
 31
0.0
  0
CIRCLE
  5
10B
330
2
100
AcDbEntity
  8
0
100
AcDbCircle
 10
3558.5
 20
97.0
 30
0.0
 40
1.75
  0
ARC
  5
10C
330
2
100
AcDbEntity
  8
0
100
AcDbCircle
 10
3559.0625
 20
97.56250000000001
 30
0.0
 40
0.3125
100
AcDbArc
 50
180.0
 51
270.0
  0
ARC
  5
10D
330
2
100
AcDbEntity
  8
0
100
AcDbCircle
 10
3557.9375
 20
97.56250000000001
 30
0.0
 40
0.3125
100
AcDbArc
 50
270.0
 51
0.0
  0
LINE
  5
10E
330
2
100
AcDbEntity
  8
0
100
AcDbLine
 10
3559.0625
 20
97.25000000000001
 30
0.0
 11
3559.5
 21
97.25000000000001
 31
0.0
  0
ARC
  5
10F
330
2
100
AcDbEntity
  8
0
100
AcDbCircle
 10
3559.0625
 20
96.4375
 30
0.0
 40
0.3125
100
AcDbArc
 50
90.0
 51
180.0
  0
LINE
  5
110
330
2
100
AcDbEntity
  8
0
100
AcDbLine
 10
3559.0625
 20
96.75
 30
0.0
 11
3559.5
 21
96.75
 31
0.0
  0
LINE
  5
111
330
2
100
AcDbEntity
  8
0
100
AcDbLine
 10
3558.75
 20
96.0
 30
0.0
 11
3558.75
 21
96.4375
 31
0.0
  0
LINE
  5
112
330
2
100
AcDbEntity
  8
0
100
AcDbLine
 10
3559.5
 20
97.25000000000001
 30
0.0
 11
3559.5
 21
96.75
 31
0.0
  0
ARC
  5
113
330
2
100
AcDbEntity
  8
0
100
AcDbCircle
 10
3557.9375
 20
96.4375
 30
0.0
 40
0.3125
100
AcDbArc
 50
0.0
 51
90.0
  0
LINE
  5
114
330
2
100
AcDbEntity
  8
0
100
AcDbLine
 10
3557.5
 20
97.25000000000001
 30
0.0
 11
3557.9375
 21
97.25000000000001
 31
0.0
  0
LINE
  5
115
330
2
100
AcDbEntity
  8
0
100
AcDbLine
 10
3557.5
 20
96.75
 30
0.0
 11
3557.9375
 21
96.75
 31
0.0
  0
LINE
  5
116
330
2
100
AcDbEntity
  8
0
100
AcDbLine
 10
3557.5
 20
97.25000000000001
 30
0.0
 11
3557.5
 21
96.75
 31
0.0
  0
LINE
  5
117
330
2
100
AcDbEntity
  8
0
100
AcDbLine
 10
3558.250000000001
 20
96.0
 30
0.0
 11
3558.250000000001
 21
96.4375
 31
0.0
  0
LINE
  5
118
330
2
100
AcDbEntity
  8
0
100
AcDbLine
 10
3558.250000000001
 20
96.0
 30
0.0
 11
3558.75
 21
96.0
 31
0.0
  0
LINE
  5
119
330
2
100
AcDbEntity
  8
0
100
AcDbLine
 10
3558.75
 20
97.56250000000001
 30
0.0
 11
3558.75
 21
98.0
 31
0.0
  0
LINE
  5
11A
330
2
100
AcDbEntity
  8
0
100
AcDbLine
 10
3558.250000000001
 20
97.56250000000001
 30
0.0
 11
3558.250000000001
 21
98.0
 31
0.0
  0
LINE
  5
11B
330
2
100
AcDbEntity
  8
0
100
AcDbLine
 10
3558.250000000001
 20
98.0
 30
0.0
 11
3558.75
 21
98.0
 31
0.0
  0
CIRCLE
  5
11C
330
2
100
AcDbEntity
  8
0
100
AcDbCircle
 10
3544.0
 20
111.5
 30
0.0
 40
1.75
  0
ARC
  5
11D
330
2
100
AcDbEntity
  8
0
100
AcDbCircle
 10
3544.5625
 20
112.0625
 30
0.0
 40
0.3125
100
AcDbArc
 50
180.0
 51
270.0
  0
ARC
  5
11E
330
2
100
AcDbEntity
  8
0
100
AcDbCircle
 10
3543.4375
 20
112.0625
 30
0.0
 40
0.3125
100
AcDbArc
 50
270.0
 51
0.0
  0
LINE
  5
11F
330
2
100
AcDbEntity
  8
0
100
AcDbLine
 10
3544.5625
 20
111.75
 30
0.0
 11
3545.0
 21
111.75
 31
0.0
  0
ARC
  5
120
330
2
100
AcDbEntity
  8
0
100
AcDbCircle
 10
3544.5625
 20
110.9375
 30
0.0
 40
0.3125
100
AcDbArc
 50
90.0
 51
180.0
  0
LINE
  5
121
330
2
100
AcDbEntity
  8
0
100
AcDbLine
 10
3544.5625
 20
111.25
 30
0.0
 11
3545.0
 21
111.25
 31
0.0
  0
LINE
  5
122
330
2
100
AcDbEntity
  8
0
100
AcDbLine
 10
3544.25
 20
110.5
 30
0.0
 11
3544.25
 21
110.9375
 31
0.0
  0
LINE
  5
123
330
2
100
AcDbEntity
  8
0
100
AcDbLine
 10
3545.0
 20
111.75
 30
0.0
 11
3545.0
 21
111.25
 31
0.0
  0
ARC
  5
124
330
2
100
AcDbEntity
  8
0
100
AcDbCircle
 10
3543.4375
 20
110.9375
 30
0.0
 40
0.3125
100
AcDbArc
 50
0.0
 51
90.0
  0
LINE
  5
125
330
2
100
AcDbEntity
  8
0
100
AcDbLine
 10
3543.0
 20
111.75
 30
0.0
 11
3543.4375
 21
111.75
 31
0.0
  0
LINE
  5
126
330
2
100
AcDbEntity
  8
0
100
AcDbLine
 10
3543.0
 20
111.25
 30
0.0
 11
3543.4375
 21
111.25
 31
0.0
  0
LINE
  5
127
330
2
100
AcDbEntity
  8
0
100
AcDbLine
 10
3543.0
 20
111.75
 30
0.0
 11
3543.0
 21
111.25
 31
0.0
  0
LINE
  5
128
330
2
100
AcDbEntity
  8
0
100
AcDbLine
 10
3543.75
 20
110.5
 30
0.0
 11
3543.75
 21
110.9375
 31
0.0
  0
LINE
  5
129
330
2
100
AcDbEntity
  8
0
100
AcDbLine
 10
3543.75
 20
110.5
 30
0.0
 11
3544.25
 21
110.5
 31
0.0
  0
LINE
  5
12A
330
2
100
AcDbEntity
  8
0
100
AcDbLine
 10
3544.25
 20
112.0625
 30
0.0
 11
3544.25
 21
112.5
 31
0.0
  0
LINE
  5
12B
330
2
100
AcDbEntity
  8
0
100
AcDbLine
 10
3543.75
 20
112.0625
 30
0.0
 11
3543.75
 21
112.5
 31
0.0
  0
LINE
  5
12C
330
2
100
AcDbEntity
  8
0
100
AcDbLine
 10
3543.75
 20
112.5
 30
0.0
 11
3544.25
 21
112.5
 31
0.0
  0
LINE
  5
12D
330
2
100
AcDbEntity
  8
0
100
AcDbLine
 10
3647.000000000002
 20
114.5
 30
0.0
 11
3652.500000000002
 21
114.5
 31
0.0
  0
LINE
  5
12E
330
2
100
AcDbEntity
  8
0
100
AcDbLine
 10
3632.000000000007
 20
79.5
 30
0.0
 11
3632.0
 21
114.5
 31
0.0
  0
LINE
  5
12F
330
2
100
AcDbEntity
  8
0
100
AcDbLine
 10
3647.0
 20
79.5
 30
0.0
 11
3647.000000000002
 21
114.5
 31
0.0
  0
LINE
  5
130
330
2
100
AcDbEntity
  8
0
100
AcDbLine
 10
3647.000000000002
 20
114.5
 30
0.0
 11
3632.0
 21
114.5
 31
0.0
  0
CIRCLE
  5
131
330
2
100
AcDbEntity
  8
0
100
AcDbCircle
 10
3544.0
 20
97.0
 30
0.0
 40
17.5
  0
ARC
  5
132
330
2
100
AcDbEntity
  8
CL
100
AcDbCircle
 10
3544.0
 20
97.0
 30
0.0
 40
14.5
100
AcDbArc
 50
166.1361876048279
 51
193.863812395172
  0
ARC
  5
133
330
2
100
AcDbEntity
  8
CL
100
AcDbCircle
 10
3544.0
 20
97.0
 30
0.0
 40
14.5
100
AcDbArc
 50
256.1361876048642
 51
283.8638123951358
  0
ARC
  5
134
330
2
100
AcDbEntity
  8
CL
100
AcDbCircle
 10
3544.0
 20
97.0
 30
0.0
 40
14.5
100
AcDbArc
 50
346.1361876048279
 51
13.86381239517206
  0
ARC
  5
135
330
2
100
AcDbEntity
  8
CL
100
AcDbCircle
 10
3544.0
 20
97.0
 30
0.0
 40
14.5
100
AcDbArc
 50
76.13618760486428
 51
103.8638123951357
  0
TEXT
  5
136
330
2
100
AcDbEntity
  8
TEXT
100
AcDbText
 10
3618.0
 20
129.0
 30
0.0
 40
2.0
  1
%%P0.5
 41
0.6
  7
GHS
100
AcDbText
  0
LINE
  5
137
330
2
100
AcDbEntity
  8
0
100
AcDbLine
 10
3632.687352613706
 20
114.5
 30
0.0
 11
3632.687352613706
 21
108.9601732168494
 31
0.0
  0
LINE
  5
138
330
2
100
AcDbEntity
  8
0
100
AcDbLine
 10
3645.687352613706
 20
114.4809049241667
 30
0.0
 11
3645.687352613706
 21
108.9601732168494
 31
0.0
  0
LINE
  5
139
330
2
100
AcDbEntity
  8
0
100
AcDbLine
 10
3645.687352613706
 20
108.9601732168494
 30
0.0
 11
3632.687352613706
 21
108.9601732168494
 31
0.0
  0
LINE
  5
13A
330
2
100
AcDbEntity
  8
0
100
AcDbLine
 10
3627.5
 20
95.25
 30
0.0
 11
3627.5
 21
98.75
 31
0.0
  0
ARC
  5
13B
330
2
100
AcDbEntity
  8
0
100
AcDbCircle
 10
3627.0
 20
96.0
 30
0.0
 40
0.75
100
AcDbArc
 50
180.0
 51
270.0
  0
LINE
  5
13C
330
2
100
AcDbEntity
  8
0
100
AcDbLine
 10
3626.250000000001
 20
96.0
 30
0.0
 11
3626.250000000001
 21
98.0
 31
0.0
  0
LINE
  5
13D
330
2
100
AcDbEntity
  8
0
100
AcDbLine
 10
3627.5
 20
98.75
 30
0.0
 11
3627.0
 21
98.75
 31
0.0
  0
ARC
  5
13E
330
2
100
AcDbEntity
  8
0
100
AcDbCircle
 10
3627.0
 20
98.0
 30
0.0
 40
0.75
100
AcDbArc
 50
90.0
 51
180.0
  0
LINE
  5
13F
330
2
100
AcDbEntity
  8
0
100
AcDbLine
 10
3627.5
 20
95.25
 30
0.0
 11
3627.0
 21
95.25
 31
0.0
  0
ARC
  5
140
330
2
100
AcDbEntity
  8
0
100
AcDbCircle
 10
3624.300000000001
 20
99.59999999999991
 30
0.0
 40
0.3
100
AcDbArc
 50
180.0
 51
270.0
  0
ARC
  5
141
330
2
100
AcDbEntity
  8
0
100
AcDbCircle
 10
3624.300000000001
 20
94.4000000000001
 30
0.0
 40
0.3
100
AcDbArc
 50
90.0
 51
180.0
  0
CIRCLE
  5
142
330
2
100
AcDbEntity
  8
0
100
AcDbCircle
 10
3544.0
 20
97.0
 30
0.0
 40
6.9
  0
DIMENSION
  5
143
330
2
100
AcDbEntity
  8
TEXT
100
AcDbDimension
  2
*D1
 10
3652.5
 20
127.0
 30
0.0
 11
3638.25
 21
129.5
 31
0.0
  1
L
 71
     5
 42
28.5
  3
1X
100
AcDbAlignedDimension
 13
3624.0
 23
113.5
 33
0.0
 14
3652.5
 24
114.5
 34
0.0
100
AcDbRotatedDimension
  0
DIMENSION
  5
151
330
2
100
AcDbEntity
  8
TEXT
100
AcDbDimension
  2
*D2
 10
3624.0
 20
120.0
 30
0.0
 11
3631.600000000001
 21
122.5
 31
0.0
 71
     5
 42
3.0
  3
1X
100
AcDbAlignedDimension
 13
3621.0
 23
106.5
 33
0.0
 14
3624.0
 24
113.5
 34
0.0
100
AcDbRotatedDimension
  0
DIMENSION
  5
160
330
2
100
AcDbEntity
  8
TEXT
100
AcDbDimension
  2
*D3
 10
3616.700000000001
 20
110.0
 30
0.0
 11
3610.700000000001
 21
112.5
 31
0.0
 71
     5
 42
12.0
  3
1X
100
AcDbAlignedDimension
 13
3604.700000000001
 23
99.50000000000001
 33
0.0
 14
3616.700000000001
 24
100.0
 34
0.0
100
AcDbRotatedDimension
  0
DIMENSION
  5
16D
330
2
100
AcDbEntity
  8
TEXT
100
AcDbDimension
  2
*D4
 10
3624.0
 20
127.0
 30
0.0
 11
3614.35
 21
129.5
 31
0.0
 71
     5
 42
19.29999999999927
  3
1X
100
AcDbAlignedDimension
 13
3604.700000000001
 23
99.50000000000001
 33
0.0
 14
3624.0
 24
113.5
 34
0.0
100
AcDbRotatedDimension
  0
DIMENSION
  5
17A
330
2
100
AcDbEntity
  8
TEXT
100
AcDbDimension
  2
*D5
 10
3553.000000000003
 20
120.0
 30
0.0
 11
3544.000000000001
 21
122.5
 31
0.0
 71
     5
 42
18.00000000000182
  3
1X
100
AcDbAlignedDimension
 13
3535.0
 23
101.3588989435397
 33
0.0
 14
3553.000000000003
 24
101.3588989435393
 34
0.0
100
AcDbRotatedDimension
  0
LEADER
  5
187
330
2
100
AcDbEntity
  8
TEXT
100
AcDbLeader
  3
Standard
 76
     3
 10
3533.91802197224
 20
107.4001256513402
 30
0.0
 10
3525.0
 20
120.0
 30
0.0
 10
3510.0
 20
120.0
 30
0.0
1001
ACAD
1000
DSTYLE
1002
{
1070
   147
1040
1.0
1070
    77
1070
     0
1002
}
  0
TEXT
  5
188
330
2
100
AcDbEntity
  8
TEXT
100
AcDbText
 10
3511.0
 20
121.0
 30
0.0
 40
3.0
  1
4-M3 TAP
 41
0.6
  7
GHS
100
AcDbText
  0
TEXT
  5
189
330
2
100
AcDbEntity
  8
TEXT
100
AcDbText
 10
3511.0
 20
116.0
 30
0.0
 40
3.0
  1
DP 7
 41
0.6
  7
GHS
100
AcDbText
  0
TEXT
  5
18A
330
2
100
AcDbEntity
  8
TEXT
100
AcDbText
 10
3511.0
 20
112.0
 30
0.0
 40
3.0
  1
PCD %%C26
 41
0.6
  7
GHS
100
AcDbText
  0
DIMENSION
  5
18B
330
2
100
AcDbEntity
  8
TEXT
100
AcDbDimension
  2
*D6
 10
3537.282485578729
 20
90.28248557872757
 30
0.0
 11
3535.389622771784
 21
76.21271051849134
 31
0.0
 70
     2
 71
     5
 42
0.7853981633975549
  3
1X
100
AcDb2LineAngularDimension
 13
3544.0
 23
77.5
 33
0.0
 14
3544.0
 24
116.5
 34
0.0
 15
3532.332738110423
 25
85.33273811042182
 35
0.0
 16
3531.499999999998
 26
75.34936490538462
 36
0.0
  0
DIMENSION
  5
19A
330
2
100
AcDbEntity
  8
TEXT
100
AcDbDimension
  2
*D7
 10
3537.282485578729
 20
90.28248557872757
 30
0.0
 11
3544.000000000001
 21
66.4848519615611
 31
0.0
 70
     2
  1
4-<>
 71
     5
 42
1.570796326795079
  3
1X
100
AcDb2LineAngularDimension
 13
3555.667261889579
 23
85.33273811042182
 33
0.0
 14
3550.717514421272
 24
90.28248557872757
 34
0.0
 15
3532.332738110423
 25
85.33273811042182
 35
0.0
 16
3535.455050910774
 26
65.1098158509152
 36
0.0
  0
LINE
  5
1A9
330
2
100
AcDbEntity
  8
0
100
AcDbLine
 10
3654.500000000002
 20
115.0
 30
0.0
 11
3692.500000000002
 21
115.0
 31
0.0
  0
LINE
  5
1AA
330
2
100
AcDbEntity
  8
0
100
AcDbLine
 10
3654.500000000002
 20
79.0
 30
0.0
 11
3692.500000000002
 21
79.0
 31
0.0
  0
LINE
  5
1AB
330
2
100
AcDbEntity
  8
0
100
AcDbLine
 10
3663.500000000002
 20
99.29999999999973
 30
0.0
 11
3680.500000000002
 21
99.29999999999973
 31
0.0
  0
LINE
  5
1AC
330
2
100
AcDbEntity
  8
0
100
AcDbLine
 10
3661.500000000002
 20
115.0
 30
0.0
 11
3661.500000000002
 21
101.2999999999997
 31
0.0
  0
ARC
  5
1AD
330
2
100
AcDbEntity
  8
0
100
AcDbCircle
 10
3654.500000000002
 20
113.0
 30
0.0
 40
2.0
100
AcDbArc
 50
90.0
 51
180.0
  0
ARC
  5
1AE
330
2
100
AcDbEntity
  8
0
100
AcDbCircle
 10
3663.500000000002
 20
101.2999999999997
 30
0.0
 40
2.0
100
AcDbArc
 50
180.0
 51
270.0
  0
DIMENSION
  5
1AF
330
2
100
AcDbEntity
  8
TEXT
100
AcDbDimension
  2
*D8
 10
3709.0
 20
115.0
 30
0.0
 11
3706.5
 21
97.00000000000059
 31
0.0
  1
%%C36
 71
     5
 42
36.0
  3
Standard
100
AcDbAlignedDimension
 13
3692.500000000002
 23
79.0
 33
0.0
 14
3692.500000000002
 24
115.0
 34
0.0
 50
90.0
100
AcDbRotatedDimension
1001
ACAD
1000
DSTYLE
1002
{
1070
    41
1040
3.0
1070
    42
1040
1.0
1070
    44
1040
1.0
1070
    73
1070
     0
1070
    74
1070
     0
1070
    77
1070
     1
1070
    78
1070
     8
1070
   140
1040
3.0
1070
   141
1040
1.0
1070
   147
1040
1.0
1070
   174
1070
     1
1070
   279
1070
     2
1070
   284
1070
     8
1070
   285
1070
     8
1070
   286
1070
     8
1070
   340
1005
37
1002
}
  0
LINE
  5
1BC
330
2
100
AcDbEntity
  8
0
100
AcDbLine
 10
3692.500000000002
 20
79.0
 30
0.0
 11
3692.500000000002
 21
97.0
 31
0.0
  0
LINE
  5
1BD
330
2
100
AcDbEntity
  8
0
100
AcDbLine
 10
3682.500000000002
 20
115.0
 30
0.0
 11
3682.500000000002
 21
101.2999999999997
 31
0.0
  0
ARC
  5
1BE
330
2
100
AcDbEntity
  8
0
100
AcDbCircle
 10
3680.500000000002
 20
101.2999999999997
 30
0.0
 40
2.0
100
AcDbArc
 50
270.0
 51
0.0
  0
LINE
  5
1BF
330
2
100
AcDbEntity
  8
0
100
AcDbLine
 10
3692.500000000002
 20
97.0
 30
0.0
 11
3692.500000000002
 21
115.0
 31
0.0
  0
ARC
  5
1C0
330
2
100
AcDbEntity
  8
0
100
AcDbCircle
 10
3654.500000000002
 20
81.0
 30
0.0
 40
2.0
100
AcDbArc
 50
180.0
 51
270.0
  0
LINE
  5
1C1
330
2
100
AcDbEntity
  8
0
100
AcDbLine
 10
3694.500000000002
 20
91.90000000000054
 30
0.0
 11
3692.500000000002
 21
91.90000000000054
 31
0.0
  0
LINE
  5
1C2
330
2
100
AcDbEntity
  8
0
100
AcDbLine
 10
3694.500000000002
 20
102.1000000000003
 30
0.0
 11
3692.500000000002
 21
102.1000000000003
 31
0.0
  0
LINE
  5
1C3
330
2
100
AcDbEntity
  8
0
100
AcDbLine
 10
3696.000000000002
 20
95.41250000000037
 30
0.0
 11
3694.500000000002
 21
95.41250000000037
 31
0.0
  0
LINE
  5
1C4
330
2
100
AcDbEntity
  8
0
100
AcDbLine
 10
3696.000000000002
 20
98.58750000000009
 30
0.0
 11
3694.500000000002
 21
98.58750000000055
 31
0.0
  0
LINE
  5
1C5
330
2
100
AcDbEntity
  8
0
100
AcDbLine
 10
3694.500000000002
 20
91.9000000000001
 30
0.0
 11
3694.500000000002
 21
102.1000000000003
 31
0.0
  0
LINE
  5
1C6
330
2
100
AcDbEntity
  8
0
100
AcDbLine
 10
3696.500000000002
 20
95.91250000000036
 30
0.0
 11
3696.500000000002
 21
98.0875000000001
 31
0.0
  0
ARC
  5
1C7
330
2
100
AcDbEntity
  8
0
100
AcDbCircle
 10
3696.000000000002
 20
95.91250000000036
 30
0.0
 40
0.5
100
AcDbArc
 50
270.0
 51
0.0
  0
ARC
  5
1C8
330
2
100
AcDbEntity
  8
0
100
AcDbCircle
 10
3696.000000000002
 20
98.0875000000001
 30
0.0
 40
0.5
100
AcDbArc
 50
0.0
 51
90.0
  0
LINE
  5
1C9
330
2
100
AcDbEntity
  8
0
100
AcDbLine
 10
3697.0
 20
110.7447404254098
 30
0.0
 11
3692.500000000002
 21
110.7447404254098
 31
0.0
  0
LINE
  5
1CA
330
2
100
AcDbEntity
  8
0
100
AcDbLine
 10
3697.0
 20
112.2447404254099
 30
0.0
 11
3692.500000000002
 21
112.2447404254099
 31
0.0
  0
DIMENSION
  5
1CB
330
2
100
AcDbEntity
  8
TEXT
100
AcDbDimension
  2
*D9
 10
3692.500000000002
 20
127.0
 30
0.0
 11
3672.500000000001
 21
129.5
 31
0.0
 71
     5
 42
40.00000000000182
  3
1X
100
AcDbAlignedDimension
 13
3652.5
 23
114.5
 33
0.0
 14
3692.500000000002
 24
115.0
 34
0.0
100
AcDbRotatedDimension
  0
DIMENSION
  5
1D8
330
2
100
AcDbEntity
  8
TEXT
100
AcDbDimension
  2
*D10
 10
3696.500000000002
 20
127.0
 30
0.0
 11
3694.500000000002
 21
129.5
 31
0.0
 71
     5
 42
4.0
  3
1X
100
AcDbAlignedDimension
 13
3692.500000000002
 23
115.0
 33
0.0
 14
3696.500000000002
 24
98.0875000000001
 34
0.0
100
AcDbRotatedDimension
  0
LINE
  5
1E7
330
2
100
AcDbEntity
  8
0
100
AcDbLine
 10
3689.427314185149
 20
66.99999999999909
 30
0.0
 11
3674.0
 21
66.99999999999909
 31
0.0
  0
LINE
  5
1E8
330
2
100
AcDbEntity
  8
0
100
AcDbLine
 10
3689.658747508808
 20
68.50000000000022
 30
0.0
 11
3674.0
 21
68.50000000000022
 31
0.0
  0
LINE
  5
1E9
330
2
100
AcDbEntity
  8
0
100
AcDbLine
 10
3688.733014214173
 20
62.49999999999909
 30
0.0
 11
3674.0
 21
62.49999999999909
 31
0.0
  0
LINE
  5
1EA
330
2
100
AcDbEntity
  8
0
100
AcDbLine
 10
3688.964447537832
 20
64.00000000000023
 30
0.0
 11
3674.0
 21
64.00000000000023
 31
0.0
  0
LINE
  5
1EB
330
2
100
AcDbEntity
  8
0
100
AcDbLine
 10
3689.195880861491
 20
65.49999999999954
 30
0.0
 11
3674.0
 21
65.49999999999943
 31
0.0
  0
LINE
  5
1EC
330
2
100
AcDbEntity
  8
0
100
AcDbLine
 10
3674.0
 20
71.5
 30
0.0
 11
3674.000000000002
 21
64.00000000000023
 31
0.0
  0
LINE
  5
1ED
330
2
100
AcDbEntity
  8
0
100
AcDbLine
 10
3674.000000000002
 20
64.00000000000023
 30
0.0
 11
3674.000000000002
 21
62.4999999999991
 31
0.0
  0
LINE
  5
1EE
330
2
100
AcDbEntity
  8
0
100
AcDbLine
 10
3664.000000000001
 20
63.54999999999965
 30
0.0
 11
3664.000000000001
 21
62.94999999999966
 31
0.0
  0
LINE
  5
1EF
330
2
100
AcDbEntity
  8
0
100
AcDbLine
 10
3695.0
 20
69.99999999999977
 30
0.0
 11
3691.921038608953
 21
69.99999999999977
 31
0.0
  0
LINE
  5
1F0
330
2
100
AcDbEntity
  8
0
100
AcDbLine
 10
3689.890180832465
 20
69.99999999999977
 30
0.0
 11
3674.0
 21
69.99999999999977
 31
0.0
  0
LINE
  5
1F1
330
2
100
AcDbEntity
  8
0
100
AcDbLine
 10
3695.0
 20
71.49999999999875
 30
0.0
 11
3692.121614156124
 21
71.49999999999886
 31
0.0
  0
LINE
  5
1F2
330
2
100
AcDbEntity
  8
0
100
AcDbLine
 10
3690.121614156124
 20
71.49999999999909
 30
0.0
 11
3674.0
 21
71.5
 31
0.0
  0
LINE
  5
1F3
330
2
100
AcDbEntity
  8
ETC
100
AcDbLine
 10
3688.572956995395
 20
61.46261340254113
 30
0.0
 11
3690.499365058389
 21
73.94833520273187
 31
0.0
  0
LINE
  5
1F7
330
2
100
AcDbEntity
  8
ETC
100
AcDbLine
 10
3690.572956995395
 20
61.46261340254113
 30
0.0
 11
3692.499365058389
 21
73.94833520273187
 31
0.0
  0
LINE
  5
1F8
330
2
100
AcDbEntity
  8
0
100
AcDbLine
 10
3700.0
 20
76.49999999999875
 30
0.0
 11
3700.0
 21
107.7447404254098
 31
0.0
  0
ARC
  5
1F9
330
2
100
AcDbEntity
  8
0
100
AcDbCircle
 10
3695.0
 20
76.49999999999875
 30
0.0
 40
5.0
100
AcDbArc
 50
270.0
 51
0.0
  0
ARC
  5
1FA
330
2
100
AcDbEntity
  8
0
100
AcDbCircle
 10
3697.0
 20
107.7447404254098
 30
0.0
 40
3.0
100
AcDbArc
 50
0.0
 51
90.0
  0
LINE
  5
1FB
330
2
100
AcDbEntity
  8
0
100
AcDbLine
 10
3701.5
 20
69.0
 30
0.0
 11
3701.5
 21
107.7447404254098
 31
0.0
  0
ARC
  5
1FC
330
2
100
AcDbEntity
  8
0
100
AcDbCircle
 10
3695.0
 20
76.49999999999977
 30
0.0
 40
6.5
100
AcDbArc
 50
270.0
 51
0.0
  0
ARC
  5
1FD
330
2
100
AcDbEntity
  8
0
100
AcDbCircle
 10
3697.0
 20
107.7447404254098
 30
0.0
 40
4.5
100
AcDbArc
 50
0.0
 51
90.0
  0
LINE
  5
1FE
330
2
100
AcDbEntity
  8
0
100
AcDbLine
 10
3695.0
 20
68.49999999999955
 30
0.0
 11
3691.658747508807
 21
68.49999999999955
 31
0.0
  0
ARC
  5
1FF
330
2
100
AcDbEntity
  8
0
100
AcDbCircle
 10
3695.0
 20
74.99999999999954
 30
0.0
 40
6.5
100
AcDbArc
 50
270.0
 51
0.0
  0
LINE
  5
200
330
2
100
AcDbEntity
  8
0
100
AcDbLine
 10
3695.0
 20
67.0
 30
0.0
 11
3691.427314185148
 21
67.0
 31
0.0
  0
ARC
  5
201
330
2
100
AcDbEntity
  8
0
100
AcDbCircle
 10
3695.0
 20
73.5
 30
0.0
 40
6.5
100
AcDbArc
 50
270.0
 51
0.0
  0
LINE
  5
202
330
2
100
AcDbEntity
  8
0
100
AcDbLine
 10
3695.0
 20
65.49999999999887
 30
0.0
 11
3691.195880861491
 21
65.49999999999897
 31
0.0
  0
ARC
  5
203
330
2
100
AcDbEntity
  8
0
100
AcDbCircle
 10
3695.0
 20
71.99999999999886
 30
0.0
 40
6.5
100
AcDbArc
 50
270.0
 51
0.0
  0
LINE
  5
204
330
2
100
AcDbEntity
  8
0
100
AcDbLine
 10
3695.0
 20
63.9999999999992
 30
0.0
 11
3690.964447537832
 21
63.99999999999931
 31
0.0
  0
ARC
  5
205
330
2
100
AcDbEntity
  8
0
100
AcDbCircle
 10
3695.0
 20
70.4999999999992
 30
0.0
 40
6.5
100
AcDbArc
 50
270.0
 51
0.0
  0
LINE
  5
206
330
2
100
AcDbEntity
  8
0
100
AcDbLine
 10
3695.0
 20
62.5
 30
0.0
 11
3690.733014214173
 21
62.5
 31
0.0
  0
ARC
  5
207
330
2
100
AcDbEntity
  8
0
100
AcDbCircle
 10
3695.0
 20
69.0
 30
0.0
 40
6.5
100
AcDbArc
 50
270.0
 51
0.0
  0
LINE
  5
208
330
2
100
AcDbEntity
  8
TEXT
100
AcDbLine
 10
3553.999994223869
 20
49.99999887009471
 30
0.0
 11
3613.999994223868
 21
49.99999887009471
 31
0.0
  0
LINE
  5
209
330
2
100
AcDbEntity
  8
TEXT
100
AcDbLine
 10
3553.999994223869
 20
41.99999887009471
 30
0.0
 11
3613.999994223868
 21
41.99999887009471
 31
0.0
  0
LINE
  5
20A
330
2
100
AcDbEntity
  8
TEXT
100
AcDbLine
 10
3553.999994223869
 20
33.99999887009471
 30
0.0
 11
3613.999994223868
 21
33.99999887009471
 31
0.0
  0
LINE
  5
20B
330
2
100
AcDbEntity
  8
TEXT
100
AcDbLine
 10
3553.999994223869
 20
49.99999887009471
 30
0.0
 11
3553.999994223869
 21
9.999998870094714
 31
0.0
  0
LINE
  5
20C
330
2
100
AcDbEntity
  8
TEXT
100
AcDbLine
 10
3592.999994223868
 20
49.99999887009471
 30
0.0
 11
3592.999994223868
 21
9.999998870094714
 31
0.0
  0
LINE
  5
20D
330
2
100
AcDbEntity
  8
TEXT
100
AcDbLine
 10
3613.999994223868
 20
49.99999887009471
 30
0.0
 11
3613.999994223868
 21
9.999998870094714
 31
0.0
  0
TEXT
  5
20E
330
2
100
AcDbEntity
  8
TEXT
100
AcDbText
 10
3568.085708509583
 20
43.99999887009471
 30
0.0
 40
4.0
  1
RATIO
 41
0.6
  7
GHS
 72
     1
 11
3572.999994223869
 21
43.99999887009471
 31
0.0
100
AcDbText
  0
TEXT
  5
20F
330
2
100
AcDbEntity
  8
TEXT
100
AcDbText
 10
3601.857137081011
 20
43.99999887009471
 30
0.0
 40
4.0
  1
L
 41
0.6
  7
GHS
 72
     1
 11
3602.999994223868
 21
43.99999887009471
 31
0.0
100
AcDbText
  0
LINE
  5
210
330
2
100
AcDbEntity
  8
TEXT
100
AcDbLine
 10
3553.999994223869
 20
25.99999887009472
 30
0.0
 11
3613.999994223868
 21
25.99999887009472
 31
0.0
  0
LINE
  5
211
330
2
100
AcDbEntity
  8
TEXT
100
AcDbLine
 10
3553.999994223869
 20
17.99999887009471
 30
0.0
 11
3613.999994223868
 21
17.99999887009471
 31
0.0
  0
TEXT
  5
212
330
2
100
AcDbEntity
  8
TEXT
100
AcDbText
 10
3555.999994223868
 20
35.99999887009472
 30
0.0
 40
4.0
  1
1/005
 41
0.6
  7
GHS
100
AcDbText
  0
TEXT
  5
213
330
2
100
AcDbEntity
  8
TEXT
100
AcDbText
 10
3555.999994223868
 20
27.99999887009472
 30
0.0
 40
4.0
  1
1/014 ~ 1/027
 41
0.6
  7
GHS
100
AcDbText
  0
TEXT
  5
214
330
2
100
AcDbEntity
  8
TEXT
100
AcDbText
 10
3555.999994223868
 20
19.99999887009471
 30
0.0
 40
4.0
  1
1/051 ~ 1/139
 41
0.6
  7
GHS
100
AcDbText
  0
TEXT
  5
215
330
2
100
AcDbEntity
  8
TEXT
100
AcDbText
 10
3599.999994223868
 20
35.99999887009472
 30
0.0
 40
4.0
  1
22.1
 41
0.6
  7
GHS
100
AcDbText
  0
TEXT
  5
216
330
2
100
AcDbEntity
  8
TEXT
100
AcDbText
 10
3599.999994223868
 20
27.99999887009472
 30
0.0
 40
4.0
  1
28.5
 41
0.6
  7
GHS
100
AcDbText
  0
TEXT
  5
217
330
2
100
AcDbEntity
  8
TEXT
100
AcDbText
 10
3599.999994223868
 20
19.99999887009471
 30
0.0
 40
4.0
  1
34.9
 41
0.6
  7
GHS
100
AcDbText
  0
TEXT
  5
218
330
2
100
AcDbEntity
  8
TEXT
100
AcDbText
 10
3566.085708509583
 20
52.99999887009471
 30
0.0
 40
4.0
  1
GEARHEAD LENGTH
 41
0.6
  7
GHS
 72
     1
 11
3582.999994223869
 21
52.99999887009471
 31
0.0
100
AcDbText
  0
LINE
  5
219
330
2
100
AcDbEntity
  8
TEXT
100
AcDbLine
 10
3564.999994223869
 20
51.99999887009472
 30
0.0
 11
3600.999994223869
 21
51.99999887009472
 31
0.0
  0
LINE
  5
21A
330
2
100
AcDbEntity
  8
TEXT
100
AcDbLine
 10
3553.999994223869
 20
9.999998870094714
 30
0.0
 11
3613.999994223868
 21
9.999998870094714
 31
0.0
  0
TEXT
  5
21B
330
2
100
AcDbEntity
  8
TEXT
100
AcDbText
 10
3555.999994223868
 20
11.99999887009471
 30
0.0
 40
4.0
  1
1/189 ~ 1/721
 41
0.6
  7
GHS
100
AcDbText
  0
TEXT
  5
21C
330
2
100
AcDbEntity
  8
TEXT
100
AcDbText
 10
3599.999994223868
 20
11.99999887009471
 30
0.0
 40
4.0
  1
41.3
 41
0.6
  7
GHS
100
AcDbText
  0
DIMENSION
  5
21D
330
2
100
AcDbEntity
  8
TEXT
100
AcDbDimension
  2
*D11
 10
3518.0
 20
107.0
 30
0.0
 11
3515.5
 21
97.00000000000057
 31
0.0
  1
%%C<>
 71
     5
 42
20.0
  3
1X
100
AcDbAlignedDimension
 13
3544.0
 23
87.0
 33
0.0
 14
3544.0
 24
107.0
 34
0.0
 50
90.0
100
AcDbRotatedDimension
  0
TEXT
  5
22A
330
2
100
AcDbEntity
  8
TEXT
100
AcDbText
 10
3593.0
 20
101.0
 30
0.0
 40
2.0
  1
-0.1
 50
90.0
 41
0.6
  7
GHS
100
AcDbText
  0
TEXT
  5
22B
330
2
100
AcDbEntity
  8
TEXT
100
AcDbText
 10
3590.003385090323
 20
101.2835408246919
 30
0.0
 40
2.0
  1
 0
 50
90.0
 41
0.6
  7
GHS
100
AcDbText
  0
TEXT
  5
22C
330
2
100
AcDbEntity
  8
TEXT
100
AcDbText
 10
3585.0
 20
100.0
 30
0.0
 40
2.0
  1
-0.030
 50
90.0
 41
0.6
  7
GHS
100
AcDbText
  0
TEXT
  5
22D
330
2
100
AcDbEntity
  8
TEXT
100
AcDbText
 10
3582.0
 20
100.0
 30
0.0
 40
2.0
  1
-0.015
 50
90.0
 41
0.6
  7
GHS
100
AcDbText
  0
DIMENSION
  5
22E
330
2
100
AcDbEntity
  8
TEXT
100
AcDbDimension
  2
*D13
 10
3594.0
 20
99.50000000000001
 30
0.0
 11
3594.0
 21
96.75000000000059
 31
0.0
 70
   128
 71
     5
 42
5.5
  3
1X
100
AcDbAlignedDimension
 13
3605.200000000001
 23
94.0
 33
0.0
 14
3604.700000000001
 24
99.50000000000001
 34
0.0
 50
90.0
100
AcDbRotatedDimension
  0
DIMENSION
  5
23D
330
2
100
AcDbEntity
  8
TEXT
100
AcDbDimension
  2
*D14
 10
3586.0
 20
100.0
 30
0.0
 11
3583.5
 21
97.00000000000059
 31
0.0
  1
%%C<>
 71
     5
 42
6.000000000000014
  3
1X
100
AcDbAlignedDimension
 13
3605.200000000001
 23
94.0
 33
0.0
 14
3616.700000000001
 24
100.0
 34
0.0
 50
90.0
100
AcDbRotatedDimension
  0
DIMENSION
  5
24C
330
2
100
AcDbEntity
  8
TEXT
100
AcDbDimension
  2
*D12
 10
3578.0
 20
79.50000000000001
 30
0.0
 11
3575.5
 21
97.00000000000059
 31
0.0
  1
%%C<>
 71
     5
 42
35.0
  3
1X
100
AcDbAlignedDimension
 13
3625.0
 23
114.5
 33
0.0
 14
3625.0
 24
79.5
 34
0.0
 50
90.0
100
AcDbRotatedDimension
  0
LINE
  5
259
330
2
100
AcDbEntity
  8
0
100
AcDbLine
 10
3674.000000000002
 20
63.24999999999966
 30
0.0
 11
3664.000000000001
 21
63.24999999999966
 31
0.0
  0
LINE
  5
25A
330
2
100
AcDbEntity
  8
0
100
AcDbLine
 10
3674.000000000002
 20
62.94999999999966
 30
0.0
 11
3664.000000000001
 21
62.94999999999966
 31
0.0
  0
LINE
  5
25B
330
2
100
AcDbEntity
  8
0
100
AcDbLine
 10
3674.000000000002
 20
63.54999999999965
 30
0.0
 11
3664.000000000001
 21
63.54999999999965
 31
0.0
  0
LINE
  5
25C
330
2
100
AcDbEntity
  8
0
100
AcDbLine
 10
3664.000000000001
 20
65.04999999999886
 30
0.0
 11
3664.000000000001
 21
64.44999999999886
 31
0.0
  0
LINE
  5
25D
330
2
100
AcDbEntity
  8
0
100
AcDbLine
 10
3674.000000000002
 20
64.74999999999886
 30
0.0
 11
3664.000000000001
 21
64.74999999999886
 31
0.0
  0
LINE
  5
25E
330
2
100
AcDbEntity
  8
0
100
AcDbLine
 10
3674.000000000002
 20
64.44999999999886
 30
0.0
 11
3664.000000000001
 21
64.44999999999886
 31
0.0
  0
LINE
  5
25F
330
2
100
AcDbEntity
  8
0
100
AcDbLine
 10
3674.000000000002
 20
65.04999999999886
 30
0.0
 11
3664.000000000001
 21
65.04999999999886
 31
0.0
  0
LINE
  5
260
330
2
100
AcDbEntity
  8
0
100
AcDbLine
 10
3664.000000000001
 20
66.54999999999851
 30
0.0
 11
3664.000000000001
 21
65.94999999999853
 31
0.0
  0
LINE
  5
261
330
2
100
AcDbEntity
  8
0
100
AcDbLine
 10
3674.000000000002
 20
66.24999999999852
 30
0.0
 11
3664.000000000001
 21
66.24999999999852
 31
0.0
  0
LINE
  5
262
330
2
100
AcDbEntity
  8
0
100
AcDbLine
 10
3674.000000000002
 20
65.94999999999853
 30
0.0
 11
3664.000000000001
 21
65.94999999999853
 31
0.0
  0
LINE
  5
263
330
2
100
AcDbEntity
  8
0
100
AcDbLine
 10
3674.000000000002
 20
66.54999999999851
 30
0.0
 11
3664.000000000001
 21
66.54999999999851
 31
0.0
  0
LINE
  5
264
330
2
100
AcDbEntity
  8
0
100
AcDbLine
 10
3664.000000000002
 20
68.04999999999965
 30
0.0
 11
3664.000000000002
 21
67.44999999999966
 31
0.0
  0
LINE
  5
265
330
2
100
AcDbEntity
  8
0
100
AcDbLine
 10
3674.000000000003
 20
67.74999999999966
 30
0.0
 11
3664.000000000002
 21
67.74999999999966
 31
0.0
  0
LINE
  5
266
330
2
100
AcDbEntity
  8
0
100
AcDbLine
 10
3674.000000000003
 20
67.44999999999966
 30
0.0
 11
3664.000000000002
 21
67.44999999999966
 31
0.0
  0
LINE
  5
267
330
2
100
AcDbEntity
  8
0
100
AcDbLine
 10
3674.000000000003
 20
68.04999999999965
 30
0.0
 11
3664.000000000002
 21
68.04999999999965
 31
0.0
  0
LINE
  5
268
330
2
100
AcDbEntity
  8
0
100
AcDbLine
 10
3664.000000000001
 20
69.5499999999992
 30
0.0
 11
3664.000000000001
 21
68.94999999999921
 31
0.0
  0
LINE
  5
269
330
2
100
AcDbEntity
  8
0
100
AcDbLine
 10
3674.000000000002
 20
69.2499999999992
 30
0.0
 11
3664.000000000001
 21
69.2499999999992
 31
0.0
  0
LINE
  5
26A
330
2
100
AcDbEntity
  8
0
100
AcDbLine
 10
3674.000000000002
 20
68.94999999999921
 30
0.0
 11
3664.000000000001
 21
68.94999999999921
 31
0.0
  0
LINE
  5
26B
330
2
100
AcDbEntity
  8
0
100
AcDbLine
 10
3674.000000000002
 20
69.5499999999992
 30
0.0
 11
3664.000000000001
 21
69.5499999999992
 31
0.0
  0
LINE
  5
26C
330
2
100
AcDbEntity
  8
0
100
AcDbLine
 10
3664.000000000002
 20
71.04999999999943
 30
0.0
 11
3664.000000000001
 21
70.44999999999943
 31
0.0
  0
LINE
  5
26D
330
2
100
AcDbEntity
  8
0
100
AcDbLine
 10
3674.000000000002
 20
70.74999999999943
 30
0.0
 11
3664.000000000002
 21
70.74999999999943
 31
0.0
  0
LINE
  5
26E
330
2
100
AcDbEntity
  8
0
100
AcDbLine
 10
3674.000000000002
 20
70.44999999999943
 30
0.0
 11
3664.000000000002
 21
70.44999999999943
 31
0.0
  0
LINE
  5
26F
330
2
100
AcDbEntity
  8
0
100
AcDbLine
 10
3674.000000000002
 20
71.04999999999943
 30
0.0
 11
3664.000000000002
 21
71.04999999999943
 31
0.0
  0
ENDSEC
  0
SECTION
  2
OBJECTS
  0
DICTIONARY
  5
C
330
0
100
AcDbDictionary
281
     1
  3
ACAD_2007HEADERVARS_RT
350
2D8
  3
ACAD_COLOR
350
59
  3
ACAD_GROUP
350
46
  3
ACAD_LAYOUT
350
19
  3
ACAD_MATERIAL
350
E
  3
ACAD_MLEADERSTYLE
350
2A2
  3
ACAD_MLINESTYLE
350
47
  3
ACAD_PLOTSETTINGS
350
48
  3
ACAD_PLOTSTYLENAME
350
B
  3
ACAD_SCALELIST
350
5A
  3
ACAD_TABLESTYLE
350
5B
  3
ACAD_VISUALSTYLE
350
32
  3
ACDB_RECOMPOSE_DATA
350
274
  3
AcDbVariableDictionary
350
28B
  0
DICTIONARY
  5
33
330
2F
100
AcDbDictionary
280
     1
281
     1
  0
DICTIONARY
  5
22
330
21
100
AcDbDictionary
280
     1
281
     1
  3
ACAD_LAYERFILTERS
360
23
  3
ACAD_LAYERSTATES
360
24
  3
ACLYDICTIONARY
360
25
  0
DICTIONARY
  5
8
330
7
100
AcDbDictionary
280
     1
281
     1
  3
ADSK_XREC_LAYER_RECONCILED
360
9
  0
DICTIONARY
  5
88
330
87
100
AcDbDictionary
280
     1
281
     1
  3
ADSK_XREC_LAYER_RECONCILED
360
89
  0
DICTIONARY
  5
5D
330
5C
100
AcDbDictionary
280
     1
281
     1
  3
ADSK_XREC_LAYER_RECONCILED
360
5E
  0
DICTIONARY
  5
3
330
2
100
AcDbDictionary
280
     1
281
     1
  3
ACAD_LAYOUTSELFREF
360
4
  3
ACAD_SORTENTS
360
270
  0
DICTIONARY
  5
1C
330
1B
100
AcDbDictionary
280
     1
281
     1
  3
ACAD_LAYOUTSELFREF
360
1D
  0
DICTIONARY
  5
2D8
102
{ACAD_REACTORS
330
C
102
}
330
C
100
AcDbDictionary
281
     1
  3
DIMLTEX1
350
2DA
  3
DIMLTEX2
350
2DB
  3
DIMLTYPE
350
2D9
  0
DICTIONARY
  5
59
102
{ACAD_REACTORS
330
C
102
}
330
C
100
AcDbDictionary
281
     1
  0
DICTIONARY
  5
46
102
{ACAD_REACTORS
330
C
102
}
330
C
100
AcDbDictionary
281
     1
  0
DICTIONARY
  5
19
102
{ACAD_REACTORS
330
C
102
}
330
C
100
AcDbDictionary
281
     1
  3
Layout1
350
20
  3
Model
350
18
  0
DICTIONARY
  5
E
102
{ACAD_REACTORS
330
C
102
}
330
C
100
AcDbDictionary
281
     1
  3
ByBlock
350
51
  3
ByLayer
350
49
  3
Global
350
D
  0
DICTIONARY
  5
2A2
102
{ACAD_REACTORS
330
C
102
}
330
C
100
AcDbDictionary
281
     1
  3
Standard
350
2A3
  0
DICTIONARY
  5
47
102
{ACAD_REACTORS
330
C
102
}
330
C
100
AcDbDictionary
281
     1
  3
Standard
350
5F
  0
DICTIONARY
  5
48
102
{ACAD_REACTORS
330
C
102
}
330
C
100
AcDbDictionary
281
     1
  0
ACDBDICTIONARYWDFLT
  5
B
102
{ACAD_REACTORS
330
C
102
}
330
C
100
AcDbDictionary
281
     1
  3
Normal
350
A
100
AcDbDictionaryWithDefault
340
A
  0
DICTIONARY
  5
5A
102
{ACAD_REACTORS
330
C
102
}
330
C
100
AcDbDictionary
281
     1
  3
*A1
350
64
  3
A0
350
65
  3
A1
350
66
  3
A2
350
67
  3
A3
350
68
  3
A4
350
69
  3
A5
350
6A
  3
A6
350
6B
  3
A7
350
6C
  3
A8
350
6D
  3
A9
350
6E
  3
B0
350
6F
  3
B1
350
70
  3
B2
350
71
  3
B3
350
72
  3
B4
350
73
  3
B5
350
74
  3
B6
350
75
  3
B7
350
76
  3
B8
350
77
  3
B9
350
78
  3
C0
350
79
  3
C1
350
7A
  3
C2
350
7B
  3
C3
350
7C
  3
C4
350
7D
  3
C5
350
7E
  3
C6
350
7F
  3
C7
350
80
  3
C8
350
81
  3
C9
350
82
  3
D0
350
83
  3
D1
350
84
  3
D2
350
85
  0
DICTIONARY
  5
5B
102
{ACAD_REACTORS
330
C
102
}
330
C
100
AcDbDictionary
281
     1
  3
Standard
350
60
  0
DICTIONARY
  5
32
102
{ACAD_REACTORS
330
C
102
}
330
C
100
AcDbDictionary
281
     1
  3
2dWireframe
350
31
  3
3D Hidden
350
29A
  3
3dWireframe
350
63
  3
Basic
350
299
  3
Brighten
350
29D
  3
ColorChange
350
2A1
  3
Conceptual
350
29B
  3
Dim
350
29C
  3
Facepattern
350
2A0
  3
Flat
350
295
  3
FlatWithEdges
350
296
  3
Gouraud
350
297
  3
GouraudWithEdges
350
298
  3
Linepattern
350
29F
  3
Realistic
350
62
  3
Thicken
350
29E
  0
XRECORD
  5
274
102
{ACAD_REACTORS
330
C
102
}
330
C
100
AcDbXrecord
280
     1
 90
        1
330
60
  0
DICTIONARY
  5
28B
102
{ACAD_REACTORS
330
C
102
}
330
C
100
AcDbDictionary
281
     1
  3
CANNOSCALE
350
28F
  3
CMLEADERSTYLE
350
28D
  3
CTABLESTYLE
350
28C
  3
DIMASSOC
350
293
  3
HIDETEXT
350
292
  3
INDEXCTL
350
291
  3
MSLTSCALE
350
28E
  3
SORTENTS
350
290
  0
DICTIONARY
  5
23
102
{ACAD_REACTORS
330
22
102
}
330
22
100
AcDbDictionary
281
     1
  0
DICTIONARY
  5
24
102
{ACAD_REACTORS
330
22
102
}
330
22
100
AcDbDictionary
281
     1
  0
DICTIONARY
  5
25
102
{ACAD_REACTORS
330
22
102
}
330
22
100
AcDbDictionary
281
     1
1001
ACAD
1000
<All
  0
XRECORD
  5
9
102
{ACAD_REACTORS
330
8
102
}
330
8
100
AcDbXrecord
280
     1
290
     1
  0
XRECORD
  5
89
102
{ACAD_REACTORS
330
88
102
}
330
88
100
AcDbXrecord
280
     1
290
     1
  0
XRECORD
  5
5E
102
{ACAD_REACTORS
330
5D
102
}
330
5D
100
AcDbXrecord
280
     1
290
     1
  0
XRECORD
  5
4
102
{ACAD_REACTORS
330
3
102
}
330
3
100
AcDbXrecord
280
     1
340
2
  0
SORTENTSTABLE
  5
270
102
{ACAD_REACTORS
330
3
102
}
330
3
100
AcDbSortentsTable
330
2
  0
XRECORD
  5
1D
102
{ACAD_REACTORS
330
1C
102
}
330
1C
100
AcDbXrecord
280
     1
340
1B
  0
XRECORD
  5
2DA
102
{ACAD_REACTORS
330
2D8
102
}
330
2D8
100
AcDbXrecord
280
     1
340
2C
  0
XRECORD
  5
2DB
102
{ACAD_REACTORS
330
2D8
102
}
330
2D8
100
AcDbXrecord
280
     1
340
2C
  0
XRECORD
  5
2D9
102
{ACAD_REACTORS
330
2D8
102
}
330
2D8
100
AcDbXrecord
280
     1
340
2C
  0
LAYOUT
  5
20
102
{ACAD_REACTORS
330
19
102
}
330
19
100
AcDbPlotSettings
  1

  2
HP LaserJet 5000 Series PS
  4

  6

 40
0.0
 41
0.0
 42
0.0
 43
0.0
 44
0.0
 45
0.0
 46
0.0
 47
0.0
 48
0.0
 49
0.0
140
0.0
141
0.0
142
1.0
143
1.0
 70
   688
 72
     0
 73
     0
 74
     5
  7
C:\Users\R&D\AppData\Roaming\Autodesk\Autodesk Mechanical Desktop 2008\R17.1\kor\Plot Styles\CATALOG.ctb
 75
    16
147
1.0
 76
     0
 77
     2
 78
   300
148
0.0
149
0.0
100
AcDbLayout
  1
Layout1
 70
     1
 71
     1
 10
0.0
 20
0.0
 11
12.0
 21
9.0
 12
2220.404641079056
 22
50.00000000000001
 32
2810.473195709564
 14
1.000000000000000E+20
 24
1.000000000000000E+20
 34
1.000000000000000E+20
 15
-1.000000000000000E+20
 25
-1.000000000000000E+20
 35
-1.000000000000000E+20
146
0.0
 13
0.0
 23
0.0
 33
0.0
 16
1.0
 26
0.0
 36
0.0
 17
0.0
 27
1.0
 37
0.0
 76
     0
330
1B
  0
LAYOUT
  5
18
102
{ACAD_REACTORS
330
19
102
}
330
19
100
AcDbPlotSettings
  1

  2
PublishToWeb JPG.pc3
  4
Sun_Hi-Res_(1600.00_x_1280.00_Pixels)
  6

 40
0.0
 41
0.0
 42
1.0
 43
1.0
 44
1600.0
 45
1280.0
 46
0.0
 47
0.0
 48
2595.0
 49
7.0
140
2798.0
141
134.0
142
1.0
143
0.1269543464665416
 70
 11952
 72
     2
 73
     0
 74
     4
  7
CATALOG.ctb
 75
     0
147
7.876847290640394
 76
     0
 77
     2
 78
   300
148
-2595.0
149
-7.0
100
AcDbLayout
  1
Model
 70
     1
 71
     0
 10
0.0
 20
0.0
 11
12.0
 21
9.0
 12
0.0
 22
0.0
 32
0.0
 14
0.0
 24
0.0
 34
0.0
 15
0.0
 25
0.0
 35
0.0
146
0.0
 13
0.0
 23
0.0
 33
0.0
 16
1.0
 26
0.0
 36
0.0
 17
0.0
 27
1.0
 37
0.0
 76
     0
330
2
331
30
1001
ACAD_PSEXT
1000
PublishToWeb JPG.pc3
1000
Independent JPEG Group JFIF (JPEG Compression)
1000
파일
1000

1070
     0
  0
MATERIAL
  5
51
102
{ACAD_XDICTIONARY
360
52
102
}
102
{ACAD_REACTORS
330
E
102
}
330
E
100
AcDbMaterial
  1
ByBlock
 72
     0
 43
0.0208333333333333
 43
0.0
 43
0.0
 43
0.0
 43
0.0
 43
0.0208333333333333
 43
0.0
 43
0.0
 43
0.0
 43
0.0
 43
1.0
 43
0.0
 43
0.0
 43
0.0
 43
0.0
 43
1.0
 77
     0
 47
0.0208333333333333
 47
0.0
 47
0.0
 47
0.0
 47
0.0
 47
0.0208333333333333
 47
0.0
 47
0.0
 47
0.0
 47
0.0
 47
1.0
 47
0.0
 47
0.0
 47
0.0
 47
0.0
 47
1.0
171
     0
 49
0.0208333333333333
 49
0.0
 49
0.0
 49
0.0
 49
0.0
 49
0.0208333333333333
 49
0.0
 49
0.0
 49
0.0
 49
0.0
 49
1.0
 49
0.0
 49
0.0
 49
0.0
 49
0.0
 49
1.0
175
     0
142
0.0208333333333333
142
0.0
142
0.0
142
0.0
142
0.0
142
0.0208333333333333
142
0.0
142
0.0
142
0.0
142
0.0
142
1.0
142
0.0
142
0.0
142
0.0
142
0.0
142
1.0
179
     0
144
0.0208333333333333
144
0.0
144
0.0
144
0.0
144
0.0
144
0.0208333333333333
144
0.0
144
0.0
144
0.0
144
0.0
144
1.0
144
0.0
144
0.0
144
0.0
144
0.0
144
1.0
147
0.0208333333333333
147
0.0
147
0.0
147
0.0
147
0.0
147
0.0208333333333333
147
0.0
147
0.0
147
0.0
147
0.0
147
1.0
147
0.0
147
0.0
147
0.0
147
0.0
147
1.0
  0
MATERIAL
  5
49
102
{ACAD_XDICTIONARY
360
4A
102
}
102
{ACAD_REACTORS
330
E
102
}
330
E
100
AcDbMaterial
  1
ByLayer
 72
     0
 43
0.0208333333333333
 43
0.0
 43
0.0
 43
0.0
 43
0.0
 43
0.0208333333333333
 43
0.0
 43
0.0
 43
0.0
 43
0.0
 43
1.0
 43
0.0
 43
0.0
 43
0.0
 43
0.0
 43
1.0
 77
     0
 47
0.0208333333333333
 47
0.0
 47
0.0
 47
0.0
 47
0.0
 47
0.0208333333333333
 47
0.0
 47
0.0
 47
0.0
 47
0.0
 47
1.0
 47
0.0
 47
0.0
 47
0.0
 47
0.0
 47
1.0
171
     0
 49
0.0208333333333333
 49
0.0
 49
0.0
 49
0.0
 49
0.0
 49
0.0208333333333333
 49
0.0
 49
0.0
 49
0.0
 49
0.0
 49
1.0
 49
0.0
 49
0.0
 49
0.0
 49
0.0
 49
1.0
175
     0
142
0.0208333333333333
142
0.0
142
0.0
142
0.0
142
0.0
142
0.0208333333333333
142
0.0
142
0.0
142
0.0
142
0.0
142
1.0
142
0.0
142
0.0
142
0.0
142
0.0
142
1.0
179
     0
144
0.0208333333333333
144
0.0
144
0.0
144
0.0
144
0.0
144
0.0208333333333333
144
0.0
144
0.0
144
0.0
144
0.0
144
1.0
144
0.0
144
0.0
144
0.0
144
0.0
144
1.0
147
0.0208333333333333
147
0.0
147
0.0
147
0.0
147
0.0
147
0.0208333333333333
147
0.0
147
0.0
147
0.0
147
0.0
147
1.0
147
0.0
147
0.0
147
0.0
147
0.0
147
1.0
  0
MATERIAL
  5
D
102
{ACAD_XDICTIONARY
360
F
102
}
102
{ACAD_REACTORS
330
E
102
}
330
E
100
AcDbMaterial
  1
Global
 72
     0
 43
0.0208333333333333
 43
0.0
 43
0.0
 43
0.0
 43
0.0
 43
0.0208333333333333
 43
0.0
 43
0.0
 43
0.0
 43
0.0
 43
1.0
 43
0.0
 43
0.0
 43
0.0
 43
0.0
 43
1.0
 77
     0
 47
0.0208333333333333
 47
0.0
 47
0.0
 47
0.0
 47
0.0
 47
0.0208333333333333
 47
0.0
 47
0.0
 47
0.0
 47
0.0
 47
1.0
 47
0.0
 47
0.0
 47
0.0
 47
0.0
 47
1.0
171
     0
 49
0.0208333333333333
 49
0.0
 49
0.0
 49
0.0
 49
0.0
 49
0.0208333333333333
 49
0.0
 49
0.0
 49
0.0
 49
0.0
 49
1.0
 49
0.0
 49
0.0
 49
0.0
 49
0.0
 49
1.0
175
     0
142
0.0208333333333333
142
0.0
142
0.0
142
0.0
142
0.0
142
0.0208333333333333
142
0.0
142
0.0
142
0.0
142
0.0
142
1.0
142
0.0
142
0.0
142
0.0
142
0.0
142
1.0
179
     0
144
0.0208333333333333
144
0.0
144
0.0
144
0.0
144
0.0
144
0.0208333333333333
144
0.0
144
0.0
144
0.0
144
0.0
144
1.0
144
0.0
144
0.0
144
0.0
144
0.0
144
1.0
147
0.0208333333333333
147
0.0
147
0.0
147
0.0
147
0.0
147
0.0208333333333333
147
0.0
147
0.0
147
0.0
147
0.0
147
1.0
147
0.0
147
0.0
147
0.0
147
0.0
147
1.0
  0
MLEADERSTYLE
  5
2A3
102
{ACAD_REACTORS
330
2A2
102
}
330
2A2
100
AcDbMLeaderStyle
170
     2
171
     1
172
     0
 90
        2
 40
0.0
 41
0.0
173
     1
 91
-1056964608
340
2B
 92
       -2
290
     1
 42
0.09
291
     1
 43
0.36
  3
Standard
 44
0.18
300

342
28
174
     1
178
     6
175
     1
176
     0
 93
-1056964608
 45
0.18
292
     0
297
     0
 46
0.18
 94
-1056964608
 47
1.0
 49
1.0
140
1.0
293
     1
141
0.0
294
     1
177
     0
142
1.0
295
     0
296
     0
143
0.125
1001
ACAD_MLEADERVER
1070
     2
  0
MLINESTYLE
  5
5F
102
{ACAD_REACTORS
330
47
102
}
330
47
100
AcDbMlineStyle
  2
STANDARD
 70
     0
  3

 62
   256
 51
90.0
 52
90.0
 71
     2
 49
0.5
 62
   256
  6
BYLAYER
 49
-0.5
 62
   256
  6
BYLAYER
  0
ACDBPLACEHOLDER
  5
A
102
{ACAD_REACTORS
330
B
102
}
330
B
  0
SCALE
  5
64
102
{ACAD_REACTORS
330
5A
102
}
330
5A
100
AcDbScale
 70
     0
300
1/128" = 1'-0"_1
140
0.007812
141
12.0
290
     0
  0
SCALE
  5
65
102
{ACAD_REACTORS
330
5A
102
}
330
5A
100
AcDbScale
 70
     0
300
1:1
140
1.0
141
1.0
290
     1
  0
SCALE
  5
66
102
{ACAD_REACTORS
330
5A
102
}
330
5A
100
AcDbScale
 70
     0
300
1:2
140
1.0
141
2.0
290
     0
  0
SCALE
  5
67
102
{ACAD_REACTORS
330
5A
102
}
330
5A
100
AcDbScale
 70
     0
300
1:4
140
1.0
141
4.0
290
     0
  0
SCALE
  5
68
102
{ACAD_REACTORS
330
5A
102
}
330
5A
100
AcDbScale
 70
     0
300
1:5
140
1.0
141
5.0
290
     0
  0
SCALE
  5
69
102
{ACAD_REACTORS
330
5A
102
}
330
5A
100
AcDbScale
 70
     0
300
1:8
140
1.0
141
8.0
290
     0
  0
SCALE
  5
6A
102
{ACAD_REACTORS
330
5A
102
}
330
5A
100
AcDbScale
 70
     0
300
1:10
140
1.0
141
10.0
290
     0
  0
SCALE
  5
6B
102
{ACAD_REACTORS
330
5A
102
}
330
5A
100
AcDbScale
 70
     0
300
1:16
140
1.0
141
16.0
290
     0
  0
SCALE
  5
6C
102
{ACAD_REACTORS
330
5A
102
}
330
5A
100
AcDbScale
 70
     0
300
1:20
140
1.0
141
20.0
290
     0
  0
SCALE
  5
6D
102
{ACAD_REACTORS
330
5A
102
}
330
5A
100
AcDbScale
 70
     0
300
1:30
140
1.0
141
30.0
290
     0
  0
SCALE
  5
6E
102
{ACAD_REACTORS
330
5A
102
}
330
5A
100
AcDbScale
 70
     0
300
1:40
140
1.0
141
40.0
290
     0
  0
SCALE
  5
6F
102
{ACAD_REACTORS
330
5A
102
}
330
5A
100
AcDbScale
 70
     0
300
1:50
140
1.0
141
50.0
290
     0
  0
SCALE
  5
70
102
{ACAD_REACTORS
330
5A
102
}
330
5A
100
AcDbScale
 70
     0
300
1:100
140
1.0
141
100.0
290
     0
  0
SCALE
  5
71
102
{ACAD_REACTORS
330
5A
102
}
330
5A
100
AcDbScale
 70
     0
300
2:1
140
2.0
141
1.0
290
     0
  0
SCALE
  5
72
102
{ACAD_REACTORS
330
5A
102
}
330
5A
100
AcDbScale
 70
     0
300
4:1
140
4.0
141
1.0
290
     0
  0
SCALE
  5
73
102
{ACAD_REACTORS
330
5A
102
}
330
5A
100
AcDbScale
 70
     0
300
8:1
140
8.0
141
1.0
290
     0
  0
SCALE
  5
74
102
{ACAD_REACTORS
330
5A
102
}
330
5A
100
AcDbScale
 70
     0
300
10:1
140
10.0
141
1.0
290
     0
  0
SCALE
  5
75
102
{ACAD_REACTORS
330
5A
102
}
330
5A
100
AcDbScale
 70
     0
300
100:1
140
100.0
141
1.0
290
     0
  0
SCALE
  5
76
102
{ACAD_REACTORS
330
5A
102
}
330
5A
100
AcDbScale
 70
     0
300
1/128" = 1'-0"
140
0.0078125
141
12.0
290
     0
  0
SCALE
  5
77
102
{ACAD_REACTORS
330
5A
102
}
330
5A
100
AcDbScale
 70
     0
300
1/64" = 1'-0"
140
0.015625
141
12.0
290
     0
  0
SCALE
  5
78
102
{ACAD_REACTORS
330
5A
102
}
330
5A
100
AcDbScale
 70
     0
300
1/32" = 1'-0"
140
0.03125
141
12.0
290
     0
  0
SCALE
  5
79
102
{ACAD_REACTORS
330
5A
102
}
330
5A
100
AcDbScale
 70
     0
300
1/16" = 1'-0"
140
0.0625
141
12.0
290
     0
  0
SCALE
  5
7A
102
{ACAD_REACTORS
330
5A
102
}
330
5A
100
AcDbScale
 70
     0
300
3/32" = 1'-0"
140
0.09375
141
12.0
290
     0
  0
SCALE
  5
7B
102
{ACAD_REACTORS
330
5A
102
}
330
5A
100
AcDbScale
 70
     0
300
1/8" = 1'-0"
140
0.125
141
12.0
290
     0
  0
SCALE
  5
7C
102
{ACAD_REACTORS
330
5A
102
}
330
5A
100
AcDbScale
 70
     0
300
3/16" = 1'-0"
140
0.1875
141
12.0
290
     0
  0
SCALE
  5
7D
102
{ACAD_REACTORS
330
5A
102
}
330
5A
100
AcDbScale
 70
     0
300
1/4" = 1'-0"
140
0.25
141
12.0
290
     0
  0
SCALE
  5
7E
102
{ACAD_REACTORS
330
5A
102
}
330
5A
100
AcDbScale
 70
     0
300
3/8" = 1'-0"
140
0.375
141
12.0
290
     0
  0
SCALE
  5
7F
102
{ACAD_REACTORS
330
5A
102
}
330
5A
100
AcDbScale
 70
     0
300
1/2" = 1'-0"
140
0.5
141
12.0
290
     0
  0
SCALE
  5
80
102
{ACAD_REACTORS
330
5A
102
}
330
5A
100
AcDbScale
 70
     0
300
3/4" = 1'-0"
140
0.75
141
12.0
290
     0
  0
SCALE
  5
81
102
{ACAD_REACTORS
330
5A
102
}
330
5A
100
AcDbScale
 70
     0
300
1" = 1'-0"
140
1.0
141
12.0
290
     0
  0
SCALE
  5
82
102
{ACAD_REACTORS
330
5A
102
}
330
5A
100
AcDbScale
 70
     0
300
1-1/2" = 1'-0"
140
1.5
141
12.0
290
     0
  0
SCALE
  5
83
102
{ACAD_REACTORS
330
5A
102
}
330
5A
100
AcDbScale
 70
     0
300
3" = 1'-0"
140
3.0
141
12.0
290
     0
  0
SCALE
  5
84
102
{ACAD_REACTORS
330
5A
102
}
330
5A
100
AcDbScale
 70
     0
300
6" = 1'-0"
140
6.0
141
12.0
290
     0
  0
SCALE
  5
85
102
{ACAD_REACTORS
330
5A
102
}
330
5A
100
AcDbScale
 70
     0
300
1'-0" = 1'-0"
140
12.0
141
12.0
290
     0
  0
TABLESTYLE
  5
60
102
{ACAD_XDICTIONARY
360
61
102
}
102
{ACAD_REACTORS
330
5B
102
}
330
5B
100
AcDbTableStyle
  3
Standard
 70
     0
 71
     0
 40
0.06
 41
0.06
280
     0
281
     0
  7
STANDARD
140
0.18
170
     2
 62
     0
 63
     7
283
     0
274
    -2
284
     1
 64
     0
275
    -2
285
     1
 65
     0
276
    -2
286
     1
 66
     0
277
    -2
287
     1
 67
     0
278
    -2
288
     1
 68
     0
279
    -2
289
     1
 69
     0
  7
STANDARD
140
0.25
170
     5
 62
     0
 63
     7
283
     0
274
    -2
284
     1
 64
     0
275
    -2
285
     1
 65
     0
276
    -2
286
     1
 66
     0
277
    -2
287
     1
 67
     0
278
    -2
288
     1
 68
     0
279
    -2
289
     1
 69
     0
  7
STANDARD
140
0.18
170
     5
 62
     0
 63
     7
283
     0
274
    -2
284
     1
 64
     0
275
    -2
285
     1
 65
     0
276
    -2
286
     1
 66
     0
277
    -2
287
     1
 67
     0
278
    -2
288
     1
 68
     0
279
    -2
289
     1
 69
     0
  0
VISUALSTYLE
  5
31
102
{ACAD_REACTORS
330
32
102
}
330
32
100
AcDbVisualStyle
  2
2dWireframe
 70
     4
 71
     0
 72
     2
 73
     0
 90
        0
 40
-0.6
 41
-30.0
 62
     5
 63
     7
 74
     1
 91
        4
 64
     7
 65
   257
 75
     1
175
     1
 42
1.0
 92
        0
 66
   257
 43
1.0
 76
     1
 77
     6
 78
     2
 67
     7
 79
     5
170
     0
171
     0
290
     0
174
     0
 93
        1
 44
0.0
173
     0
291
     0
 45
0.0
1001
ACAD
1000
AcDbSavedByObjectVersion
1070
     0
  0
VISUALSTYLE
  5
29A
102
{ACAD_REACTORS
330
32
102
}
330
32
100
AcDbVisualStyle
  2
3D Hidden
 70
     6
 71
     1
 72
     2
 73
     2
 90
        0
 40
-0.6
 41
-30.0
 62
     5
 63
     7
421
 16777215
 74
     2
 91
        2
 64
     7
 65
   257
 75
     2
175
     1
 42
40.0
 92
        0
 66
   257
 43
1.0
 76
     1
 77
     6
 78
     2
 67
     7
 79
     3
170
     0
171
     0
290
     0
174
     0
 93
        1
 44
0.0
173
     0
291
     0
 45
0.0
1001
ACAD
1000
AcDbSavedByObjectVersion
1070
     0
  0
VISUALSTYLE
  5
63
102
{ACAD_REACTORS
330
32
102
}
330
32
100
AcDbVisualStyle
  2
3dWireframe
 70
     5
 71
     0
 72
     2
 73
     0
 90
        0
 40
-0.6
 41
-30.0
 62
     5
 63
     7
 74
     1
 91
        4
 64
     7
 65
   257
 75
     1
175
     1
 42
1.0
 92
        0
 66
   257
 43
1.0
 76
     1
 77
     6
 78
     2
 67
     7
 79
     5
170
     0
171
     0
290
     0
174
     0
 93
        1
 44
0.0
173
     0
291
     0
 45
0.0
1001
ACAD
1000
AcDbSavedByObjectVersion
1070
     0
  0
VISUALSTYLE
  5
299
102
{ACAD_REACTORS
330
32
102
}
330
32
100
AcDbVisualStyle
  2
Basic
 70
     7
 71
     1
 72
     0
 73
     1
 90
        0
 40
-0.6
 41
-30.0
 62
     5
 63
     7
421
 16777215
 74
     0
 91
        4
 64
     7
 65
   257
 75
     1
175
     1
 42
1.0
 92
        8
 66
     7
 43
1.0
 76
     1
 77
     6
 78
     2
 67
     7
 79
     5
170
     0
171
     0
290
     0
174
     0
 93
        1
 44
0.0
173
     0
291
     1
 45
0.0
1001
ACAD
1000
AcDbSavedByObjectVersion
1070
     0
  0
VISUALSTYLE
  5
29D
102
{ACAD_REACTORS
330
32
102
}
330
32
100
AcDbVisualStyle
  2
Brighten
 70
    12
 71
     2
 72
     2
 73
     0
 90
        0
 40
-0.6
 41
-30.0
 62
     5
 63
     7
421
 16777215
 74
     1
 91
        4
 64
     7
 65
   257
 75
     1
175
     1
 42
1.0
 92
        8
 66
     7
 43
1.0
 76
     1
 77
     6
 78
     2
 67
     7
 79
     5
170
     0
171
     0
290
     0
174
     0
 93
        1
 44
50.0
173
     0
291
     1
 45
0.0
1001
ACAD
1000
AcDbSavedByObjectVersion
1070
     0
  0
VISUALSTYLE
  5
2A1
102
{ACAD_REACTORS
330
32
102
}
330
32
100
AcDbVisualStyle
  2
ColorChange
 70
    16
 71
     2
 72
     2
 73
     3
 90
        0
 40
-0.6
 41
-30.0
 62
     5
 63
     8
421
  8421504
 74
     1
 91
        4
 64
     7
 65
   257
 75
     1
175
     1
 42
1.0
 92
        8
 66
     8
424
  8421504
 43
1.0
 76
     1
 77
     6
 78
     2
 67
     7
 79
     5
170
     0
171
     0
290
     0
174
     0
 93
        1
 44
0.0
173
     0
291
     1
 45
0.0
1001
ACAD
1000
AcDbSavedByObjectVersion
1070
     0
  0
VISUALSTYLE
  5
29B
102
{ACAD_REACTORS
330
32
102
}
330
32
100
AcDbVisualStyle
  2
Conceptual
 70
     9
 71
     3
 72
     2
 73
     0
 90
        0
 40
-0.6
 41
-30.0
 62
     5
 63
     7
421
 16777215
 74
     2
 91
        2
 64
     7
 65
   257
 75
     1
175
     1
 42
40.0
 92
        8
 66
     7
 43
1.0
 76
     1
 77
     6
 78
     2
 67
     7
 79
     3
170
     0
171
     0
290
     0
174
     0
 93
        1
 44
0.0
173
     0
291
     0
 45
0.0
1001
ACAD
1000
AcDbSavedByObjectVersion
1070
     0
  0
VISUALSTYLE
  5
29C
102
{ACAD_REACTORS
330
32
102
}
330
32
100
AcDbVisualStyle
  2
Dim
 70
    11
 71
     2
 72
     2
 73
     0
 90
        0
 40
-0.6
 41
-30.0
 62
     5
 63
     7
421
 16777215
 74
     1
 91
        4
 64
     7
 65
   257
 75
     1
175
     1
 42
1.0
 92
        8
 66
     7
 43
1.0
 76
     1
 77
     6
 78
     2
 67
     7
 79
     5
170
     0
171
     0
290
     0
174
     0
 93
        1
 44
-50.0
173
     0
291
     1
 45
0.0
1001
ACAD
1000
AcDbSavedByObjectVersion
1070
     0
  0
VISUALSTYLE
  5
2A0
102
{ACAD_REACTORS
330
32
102
}
330
32
100
AcDbVisualStyle
  2
Facepattern
 70
    15
 71
     2
 72
     2
 73
     0
 90
        0
 40
-0.6
 41
-30.0
 62
     5
 63
     7
421
 16777215
 74
     1
 91
        4
 64
     7
 65
   257
 75
     1
175
     1
 42
1.0
 92
        8
 66
     7
 43
1.0
 76
     1
 77
     6
 78
     2
 67
     7
 79
     5
170
     0
171
     0
290
     0
174
     0
 93
        1
 44
0.0
173
     0
291
     1
 45
0.0
1001
ACAD
1000
AcDbSavedByObjectVersion
1070
     0
  0
VISUALSTYLE
  5
295
102
{ACAD_REACTORS
330
32
102
}
330
32
100
AcDbVisualStyle
  2
Flat
 70
     0
 71
     2
 72
     1
 73
     1
 90
        2
 40
-0.6
 41
30.0
 62
     5
 63
     7
421
 16777215
 74
     0
 91
        4
 64
     7
 65
   257
 75
     1
175
     1
 42
1.0
 92
        8
 66
     7
 43
1.0
 76
     1
 77
     6
 78
     2
 67
     7
 79
     5
170
     0
171
     0
290
     0
174
     0
 93
       13
 44
0.0
173
     0
291
     1
 45
0.0
1001
ACAD
1000
AcDbSavedByObjectVersion
1070
     0
  0
VISUALSTYLE
  5
296
102
{ACAD_REACTORS
330
32
102
}
330
32
100
AcDbVisualStyle
  2
FlatWithEdges
 70
     1
 71
     2
 72
     1
 73
     1
 90
        2
 40
-0.6
 41
30.0
 62
     5
 63
     7
421
 16777215
 74
     1
 91
        4
 64
     7
 65
   257
 75
     1
175
     1
 42
1.0
 92
        0
 66
   257
 43
1.0
 76
     1
 77
     6
 78
     2
 67
     7
 79
     5
170
     0
171
     0
290
     0
174
     0
 93
       13
 44
0.0
173
     0
291
     1
 45
0.0
1001
ACAD
1000
AcDbSavedByObjectVersion
1070
     0
  0
VISUALSTYLE
  5
297
102
{ACAD_REACTORS
330
32
102
}
330
32
100
AcDbVisualStyle
  2
Gouraud
 70
     2
 71
     2
 72
     2
 73
     1
 90
        2
 40
-0.6
 41
30.0
 62
     5
 63
     7
421
 16777215
 74
     0
 91
        4
 64
     7
 65
   257
 75
     1
175
     1
 42
1.0
 92
        0
 66
     7
 43
1.0
 76
     1
 77
     6
 78
     2
 67
     7
 79
     5
170
     0
171
     0
290
     0
174
     0
 93
       13
 44
0.0
173
     0
291
     1
 45
0.0
1001
ACAD
1000
AcDbSavedByObjectVersion
1070
     0
  0
VISUALSTYLE
  5
298
102
{ACAD_REACTORS
330
32
102
}
330
32
100
AcDbVisualStyle
  2
GouraudWithEdges
 70
     3
 71
     2
 72
     2
 73
     1
 90
        2
 40
-0.6
 41
30.0
 62
     5
 63
     7
421
 16777215
 74
     1
 91
        4
 64
     7
 65
   257
 75
     1
175
     1
 42
1.0
 92
        0
 66
   257
 43
1.0
 76
     1
 77
     6
 78
     2
 67
     7
 79
     5
170
     0
171
     0
290
     0
174
     0
 93
       13
 44
0.0
173
     0
291
     1
 45
0.0
1001
ACAD
1000
AcDbSavedByObjectVersion
1070
     0
  0
VISUALSTYLE
  5
29F
102
{ACAD_REACTORS
330
32
102
}
330
32
100
AcDbVisualStyle
  2
Linepattern
 70
    14
 71
     2
 72
     2
 73
     0
 90
        0
 40
-0.6
 41
-30.0
 62
     5
 63
     7
421
 16777215
 74
     1
 91
        4
 64
     7
 65
   257
 75
     7
175
     7
 42
1.0
 92
        8
 66
     7
 43
1.0
 76
     1
 77
     6
 78
     2
 67
     7
 79
     5
170
     0
171
     0
290
     0
174
     0
 93
        1
 44
0.0
173
     0
291
     1
 45
0.0
1001
ACAD
1000
AcDbSavedByObjectVersion
1070
     0
  0
VISUALSTYLE
  5
62
102
{ACAD_REACTORS
330
32
102
}
330
32
100
AcDbVisualStyle
  2
Realistic
 70
     8
 71
     2
 72
     2
 73
     0
 90
        0
 40
-0.6
 41
-30.0
 62
     5
 63
     7
 74
     1
 91
        0
 64
     7
 65
   257
 75
     1
175
     1
 42
1.0
 92
        8
 66
     8
 43
1.0
 76
     1
 77
     6
 78
     2
 67
     7
 79
     5
170
     0
171
     0
290
     0
174
     0
 93
       13
 44
0.0
173
     0
291
     0
 45
0.0
1001
ACAD
1000
AcDbSavedByObjectVersion
1070
     0
  0
VISUALSTYLE
  5
29E
102
{ACAD_REACTORS
330
32
102
}
330
32
100
AcDbVisualStyle
  2
Thicken
 70
    13
 71
     2
 72
     2
 73
     0
 90
        0
 40
-0.6
 41
-30.0
 62
     5
 63
     7
421
 16777215
 74
     1
 91
        4
 64
     7
 65
   257
 75
     1
175
     1
 42
1.0
 92
       12
 66
     7
 43
1.0
 76
     1
 77
     6
 78
     2
 67
     7
 79
     5
170
     0
171
     0
290
     0
174
     0
 93
        1
 44
0.0
173
     0
291
     1
 45
0.0
1001
ACAD
1000
AcDbSavedByObjectVersion
1070
     0
  0
DICTIONARYVAR
  5
28F
102
{ACAD_REACTORS
330
28B
102
}
330
28B
100
DictionaryVariables
280
     0
  1
1:1
  0
DICTIONARYVAR
  5
28D
102
{ACAD_REACTORS
330
28B
102
}
330
28B
100
DictionaryVariables
280
     0
  1
STANDARD
  0
DICTIONARYVAR
  5
28C
102
{ACAD_REACTORS
330
28B
102
}
330
28B
100
DictionaryVariables
280
     0
  1
STANDARD
  0
DICTIONARYVAR
  5
293
102
{ACAD_REACTORS
330
28B
102
}
330
28B
100
DictionaryVariables
280
     0
  1
2
  0
DICTIONARYVAR
  5
292
102
{ACAD_REACTORS
330
28B
102
}
330
28B
100
DictionaryVariables
280
     0
  1
1
  0
DICTIONARYVAR
  5
291
102
{ACAD_REACTORS
330
28B
102
}
330
28B
100
DictionaryVariables
280
     0
  1
0
  0
DICTIONARYVAR
  5
28E
102
{ACAD_REACTORS
330
28B
102
}
330
28B
100
DictionaryVariables
280
     0
  1
1
  0
DICTIONARYVAR
  5
290
102
{ACAD_REACTORS
330
28B
102
}
330
28B
100
DictionaryVariables
280
     0
  1
127
  0
DICTIONARY
  5
52
330
51
100
AcDbDictionary
280
     1
281
     1
  3
ACAD_XREC_ROUNDTRIP
360
2DE
  3
BUMPTILE
360
53
  3
DIFFUSETILE
360
54
  3
OPACITYTILE
360
55
  3
REFLECTIONTILE
360
56
  3
REFRACTIONTILE
360
57
  3
SPECULARTILE
360
58
  0
DICTIONARY
  5
4A
330
49
100
AcDbDictionary
280
     1
281
     1
  3
ACAD_XREC_ROUNDTRIP
360
2DD
  3
BUMPTILE
360
4B
  3
DIFFUSETILE
360
4C
  3
OPACITYTILE
360
4D
  3
REFLECTIONTILE
360
4E
  3
REFRACTIONTILE
360
4F
  3
SPECULARTILE
360
50
  0
DICTIONARY
  5
F
330
D
100
AcDbDictionary
280
     1
281
     1
  3
ACAD_XREC_ROUNDTRIP
360
2DC
  3
BUMPTILE
360
10
  3
DIFFUSETILE
360
11
  3
OPACITYTILE
360
12
  3
REFLECTIONTILE
360
13
  3
REFRACTIONTILE
360
14
  3
SPECULARTILE
360
15
  0
DICTIONARY
  5
61
330
60
100
AcDbDictionary
280
     1
281
     1
  3
ACAD_ROUNDTRIP_2008_TABLESTYLE_CELLSTYLEMAP
360
2D7
  3
ACAD_XREC_ROUNDTRIP
360
2DF
  0
XRECORD
  5
2DE
102
{ACAD_REACTORS
330
52
102
}
330
52
100
AcDbXrecord
280
     1
102
MATERIAL
148
0.0
149
0.0
149
0.0
 93
        0
 94
      127
282
     0
 72
     0
 77
     0
171
     0
175
     0
179
     0
273
     0
  0
XRECORD
  5
53
102
{ACAD_REACTORS
330
52
102
}
330
52
100
AcDbXrecord
280
     1
270
     1
271
     1
  0
XRECORD
  5
54
102
{ACAD_REACTORS
330
52
102
}
330
52
100
AcDbXrecord
280
     1
270
     1
271
     1
  0
XRECORD
  5
55
102
{ACAD_REACTORS
330
52
102
}
330
52
100
AcDbXrecord
280
     1
270
     1
271
     1
  0
XRECORD
  5
56
102
{ACAD_REACTORS
330
52
102
}
330
52
100
AcDbXrecord
280
     1
270
     1
271
     1
  0
XRECORD
  5
57
102
{ACAD_REACTORS
330
52
102
}
330
52
100
AcDbXrecord
280
     1
270
     1
271
     1
  0
XRECORD
  5
58
102
{ACAD_REACTORS
330
52
102
}
330
52
100
AcDbXrecord
280
     1
270
     1
271
     1
  0
XRECORD
  5
2DD
102
{ACAD_REACTORS
330
4A
102
}
330
4A
100
AcDbXrecord
280
     1
102
MATERIAL
148
0.0
149
0.0
149
0.0
 93
        0
 94
      127
282
     0
 72
     0
 77
     0
171
     0
175
     0
179
     0
273
     0
  0
XRECORD
  5
4B
102
{ACAD_REACTORS
330
4A
102
}
330
4A
100
AcDbXrecord
280
     1
270
     1
271
     1
  0
XRECORD
  5
4C
102
{ACAD_REACTORS
330
4A
102
}
330
4A
100
AcDbXrecord
280
     1
270
     1
271
     1
  0
XRECORD
  5
4D
102
{ACAD_REACTORS
330
4A
102
}
330
4A
100
AcDbXrecord
280
     1
270
     1
271
     1
  0
XRECORD
  5
4E
102
{ACAD_REACTORS
330
4A
102
}
330
4A
100
AcDbXrecord
280
     1
270
     1
271
     1
  0
XRECORD
  5
4F
102
{ACAD_REACTORS
330
4A
102
}
330
4A
100
AcDbXrecord
280
     1
270
     1
271
     1
  0
XRECORD
  5
50
102
{ACAD_REACTORS
330
4A
102
}
330
4A
100
AcDbXrecord
280
     1
270
     1
271
     1
  0
XRECORD
  5
2DC
102
{ACAD_REACTORS
330
F
102
}
330
F
100
AcDbXrecord
280
     1
102
MATERIAL
148
0.0
149
0.0
149
0.0
 93
        0
 94
      127
282
     0
 72
     0
 77
     0
171
     0
175
     0
179
     0
273
     0
  0
XRECORD
  5
10
102
{ACAD_REACTORS
330
F
102
}
330
F
100
AcDbXrecord
280
     1
270
     1
271
     1
  0
XRECORD
  5
11
102
{ACAD_REACTORS
330
F
102
}
330
F
100
AcDbXrecord
280
     1
270
     1
271
     1
  0
XRECORD
  5
12
102
{ACAD_REACTORS
330
F
102
}
330
F
100
AcDbXrecord
280
     1
270
     1
271
     1
  0
XRECORD
  5
13
102
{ACAD_REACTORS
330
F
102
}
330
F
100
AcDbXrecord
280
     1
270
     1
271
     1
  0
XRECORD
  5
14
102
{ACAD_REACTORS
330
F
102
}
330
F
100
AcDbXrecord
280
     1
270
     1
271
     1
  0
XRECORD
  5
15
102
{ACAD_REACTORS
330
F
102
}
330
F
100
AcDbXrecord
280
     1
270
     1
271
     1
  0
CELLSTYLEMAP
  5
2D7
102
{ACAD_REACTORS
330
61
102
}
330
61
100
AcDbCellStyleMap
 90
        3
300
CELLSTYLE
  1
TABLEFORMAT_BEGIN
 90
        5
170
     1
 91
        0
 92
    32768
 62
   257
 93
        1
300
CONTENTFORMAT
  1
CONTENTFORMAT_BEGIN
 90
        0
 91
        0
 92
      512
 93
        0
300

 40
0.0
140
1.0
 94
        5
 62
     0
340
28
144
0.25
309
CONTENTFORMAT_END
171
     1
301
MARGIN
  1
CELLMARGIN_BEGIN
 40
0.06
 40
0.06
 40
0.06
 40
0.06
 40
0.18
 40
0.18
309
CELLMARGIN_END
 94
        6
 95
        1
302
GRIDFORMAT
  1
GRIDFORMAT_BEGIN
 90
        0
 91
        1
 62
     0
 92
       -2
340
0
 93
        0
 40
0.045
309
GRIDFORMAT_END
 95
        2
302
GRIDFORMAT
  1
GRIDFORMAT_BEGIN
 90
        0
 91
        1
 62
     0
 92
       -2
340
0
 93
        0
 40
0.045
309
GRIDFORMAT_END
 95
        4
302
GRIDFORMAT
  1
GRIDFORMAT_BEGIN
 90
        0
 91
        1
 62
     0
 92
       -2
340
0
 93
        0
 40
0.045
309
GRIDFORMAT_END
 95
        8
302
GRIDFORMAT
  1
GRIDFORMAT_BEGIN
 90
        0
 91
        1
 62
     0
 92
       -2
340
0
 93
        0
 40
0.045
309
GRIDFORMAT_END
 95
       16
302
GRIDFORMAT
  1
GRIDFORMAT_BEGIN
 90
        0
 91
        1
 62
     0
 92
       -2
340
0
 93
        0
 40
0.045
309
GRIDFORMAT_END
 95
       32
302
GRIDFORMAT
  1
GRIDFORMAT_BEGIN
 90
        0
 91
        1
 62
     0
 92
       -2
340
0
 93
        0
 40
0.045
309
GRIDFORMAT_END
309
TABLEFORMAT_END
  1
CELLSTYLE_BEGIN
 90
        1
 91
        1
300
_TITLE
309
CELLSTYLE_END
300
CELLSTYLE
  1
TABLEFORMAT_BEGIN
 90
        5
170
     1
 91
        0
 92
        0
 62
   257
 93
        1
300
CONTENTFORMAT
  1
CONTENTFORMAT_BEGIN
 90
        0
 91
        0
 92
      512
 93
        0
300

 40
0.0
140
1.0
 94
        5
 62
     0
340
28
144
0.18
309
CONTENTFORMAT_END
171
     1
301
MARGIN
  1
CELLMARGIN_BEGIN
 40
0.06
 40
0.06
 40
0.06
 40
0.06
 40
0.18
 40
0.18
309
CELLMARGIN_END
 94
        6
 95
        1
302
GRIDFORMAT
  1
GRIDFORMAT_BEGIN
 90
        0
 91
        1
 62
     0
 92
       -2
340
0
 93
        0
 40
0.045
309
GRIDFORMAT_END
 95
        2
302
GRIDFORMAT
  1
GRIDFORMAT_BEGIN
 90
        0
 91
        1
 62
     0
 92
       -2
340
0
 93
        0
 40
0.045
309
GRIDFORMAT_END
 95
        4
302
GRIDFORMAT
  1
GRIDFORMAT_BEGIN
 90
        0
 91
        1
 62
     0
 92
       -2
340
0
 93
        0
 40
0.045
309
GRIDFORMAT_END
 95
        8
302
GRIDFORMAT
  1
GRIDFORMAT_BEGIN
 90
        0
 91
        1
 62
     0
 92
       -2
340
0
 93
        0
 40
0.045
309
GRIDFORMAT_END
 95
       16
302
GRIDFORMAT
  1
GRIDFORMAT_BEGIN
 90
        0
 91
        1
 62
     0
 92
       -2
340
0
 93
        0
 40
0.045
309
GRIDFORMAT_END
 95
       32
302
GRIDFORMAT
  1
GRIDFORMAT_BEGIN
 90
        0
 91
        1
 62
     0
 92
       -2
340
0
 93
        0
 40
0.045
309
GRIDFORMAT_END
309
TABLEFORMAT_END
  1
CELLSTYLE_BEGIN
 90
        2
 91
        1
300
_HEADER
309
CELLSTYLE_END
300
CELLSTYLE
  1
TABLEFORMAT_BEGIN
 90
        5
170
     1
 91
        0
 92
        0
 62
   257
 93
        1
300
CONTENTFORMAT
  1
CONTENTFORMAT_BEGIN
 90
        0
 91
        0
 92
      512
 93
        0
300

 40
0.0
140
1.0
 94
        2
 62
     0
340
28
144
0.18
309
CONTENTFORMAT_END
171
     1
301
MARGIN
  1
CELLMARGIN_BEGIN
 40
0.06
 40
0.06
 40
0.06
 40
0.06
 40
0.18
 40
0.18
309
CELLMARGIN_END
 94
        6
 95
        1
302
GRIDFORMAT
  1
GRIDFORMAT_BEGIN
 90
        0
 91
        1
 62
     0
 92
       -2
340
0
 93
        0
 40
0.045
309
GRIDFORMAT_END
 95
        2
302
GRIDFORMAT
  1
GRIDFORMAT_BEGIN
 90
        0
 91
        1
 62
     0
 92
       -2
340
0
 93
        0
 40
0.045
309
GRIDFORMAT_END
 95
        4
302
GRIDFORMAT
  1
GRIDFORMAT_BEGIN
 90
        0
 91
        1
 62
     0
 92
       -2
340
0
 93
        0
 40
0.045
309
GRIDFORMAT_END
 95
        8
302
GRIDFORMAT
  1
GRIDFORMAT_BEGIN
 90
        0
 91
        1
 62
     0
 92
       -2
340
0
 93
        0
 40
0.045
309
GRIDFORMAT_END
 95
       16
302
GRIDFORMAT
  1
GRIDFORMAT_BEGIN
 90
        0
 91
        1
 62
     0
 92
       -2
340
0
 93
        0
 40
0.045
309
GRIDFORMAT_END
 95
       32
302
GRIDFORMAT
  1
GRIDFORMAT_BEGIN
 90
        0
 91
        1
 62
     0
 92
       -2
340
0
 93
        0
 40
0.045
309
GRIDFORMAT_END
309
TABLEFORMAT_END
  1
CELLSTYLE_BEGIN
 90
        3
 91
        2
300
_DATA
309
CELLSTYLE_END
  0
XRECORD
  5
2DF
102
{ACAD_REACTORS
330
61
102
}
330
61
100
AcDbXrecord
280
     1
102
ACAD_ROUNDTRIP_PRE2007_TABLESTYLE
 90
      512
 91
        0
  1

 92
      512
 93
        0
  2

 94
      512
 95
        0
  3

  0
ENDSEC
  0
EOF
