  0
SECTION
  2
HEADER
  9
$ACADVER
  1
AC1018
  9
$ACADMAINTVER
 70
   104
  9
$DWGCODEPAGE
  3
ANSI_949
  9
$LASTSAVEDBY
  1
R&D
  9
$INSBASE
 10
3195.0
 20
134.0
 30
0.0
  9
$EXTMIN
 10
3199.0
 20
9.999998870094714
 30
0.0
  9
$EXTMAX
 10
3395.0
 20
131.0
 30
0.0
  9
$LIMMIN
 10
0.0
 20
0.0
  9
$LIMMAX
 10
4205.0
 20
2970.0
  9
$ORTHOMODE
 70
     0
  9
$REGENMODE
 70
     1
  9
$FILLMODE
 70
     1
  9
$QTEXTMODE
 70
     0
  9
$MIRRTEXT
 70
     1
  9
$LTSCALE
 40
5.0
  9
$ATTMODE
 70
     1
  9
$TEXTSIZE
 40
4.0
  9
$TRACEWID
 40
0.05
  9
$TEXTSTYLE
  7
GHS
  9
$CLAYER
  8
TEXT
  9
$CELTYPE
  6
ByLayer
  9
$CECOLOR
 62
   256
  9
$CELTSCALE
 40
1.0
  9
$DISPSILH
 70
     0
  9
$DIMSCALE
 40
1.0
  9
$DIMASZ
 40
4.0
  9
$DIMEXO
 40
1.0
  9
$DIMDLI
 40
1.0
  9
$DIMRND
 40
0.0
  9
$DIMDLE
 40
0.0
  9
$DIMEXE
 40
1.0
  9
$DIMTP
 40
0.0
  9
$DIMTM
 40
0.0
  9
$DIMTXT
 40
5.0
  9
$DIMCEN
 40
0.5
  9
$DIMTSZ
 40
0.0
  9
$DIMTOL
 70
     0
  9
$DIMLIM
 70
     0
  9
$DIMTIH
 70
     0
  9
$DIMTOH
 70
     0
  9
$DIMSE1
 70
     0
  9
$DIMSE2
 70
     0
  9
$DIMTAD
 70
     1
  9
$DIMZIN
 70
     8
  9
$DIMBLK
  1

  9
$DIMASO
 70
     1
  9
$DIMSHO
 70
     1
  9
$DIMPOST
  1

  9
$DIMAPOST
  1

  9
$DIMALT
 70
     0
  9
$DIMALTD
 70
     2
  9
$DIMALTF
 40
25.4
  9
$DIMLFAC
 40
1.0
  9
$DIMTOFL
 70
     1
  9
$DIMTVP
 40
0.0
  9
$DIMTIX
 70
     0
  9
$DIMSOXD
 70
     0
  9
$DIMSAH
 70
     0
  9
$DIMBLK1
  1

  9
$DIMBLK2
  1

  9
$DIMSTYLE
  2
Standard
  9
$DIMCLRD
 70
   256
  9
$DIMCLRE
 70
   256
  9
$DIMCLRT
 70
   256
  9
$DIMTFAC
 40
1.0
  9
$DIMGAP
 40
1.5
  9
$DIMJUST
 70
     0
  9
$DIMSD1
 70
     0
  9
$DIMSD2
 70
     0
  9
$DIMTOLJ
 70
     1
  9
$DIMTZIN
 70
     0
  9
$DIMALTZ
 70
     0
  9
$DIMALTTZ
 70
     0
  9
$DIMUPT
 70
     0
  9
$DIMDEC
 70
     3
  9
$DIMTDEC
 70
     3
  9
$DIMALTU
 70
     2
  9
$DIMALTTD
 70
     2
  9
$DIMTXSTY
  7
GHS
  9
$DIMAUNIT
 70
     0
  9
$DIMADEC
 70
     0
  9
$DIMALTRND
 40
0.0
  9
$DIMAZIN
 70
     0
  9
$DIMDSEP
 70
    46
  9
$DIMATFIT
 70
     3
  9
$DIMFRAC
 70
     0
  9
$DIMLDRBLK
  1

  9
$DIMLUNIT
 70
     2
  9
$DIMLWD
 70
    -1
  9
$DIMLWE
 70
    -1
  9
$DIMTMOVE
 70
     0
  9
$LUNITS
 70
     2
  9
$LUPREC
 70
     3
  9
$SKETCHINC
 40
0.1
  9
$FILLETRAD
 40
4.0
  9
$AUNITS
 70
     0
  9
$AUPREC
 70
     3
  9
$MENU
  1
acad
  9
$ELEVATION
 40
0.0
  9
$PELEVATION
 40
0.0
  9
$THICKNESS
 40
0.0
  9
$LIMCHECK
 70
     0
  9
$CHAMFERA
 40
0.0
  9
$CHAMFERB
 40
0.0
  9
$CHAMFERC
 40
0.0
  9
$CHAMFERD
 40
0.0
  9
$SKPOLY
 70
     0
  9
$TDCREATE
 40
2449855.468823958
  9
$TDUCREATE
 40
2449855.093823958
  9
$TDUPDATE
 40
2455883.635317940
  9
$TDUUPDATE
 40
2455883.260317940
  9
$TDINDWG
 40
4.0546110417
  9
$TDUSRTIMER
 40
4.0546110417
  9
$USRTIMER
 70
     1
  9
$ANGBASE
 50
0.0
  9
$ANGDIR
 70
     0
  9
$PDMODE
 70
     0
  9
$PDSIZE
 40
0.0
  9
$PLINEWID
 40
0.0
  9
$SPLFRAME
 70
     0
  9
$SPLINETYPE
 70
     6
  9
$SPLINESEGS
 70
     8
  9
$HANDSEED
  5
2CF
  9
$SURFTAB1
 70
     6
  9
$SURFTAB2
 70
     6
  9
$SURFTYPE
 70
     6
  9
$SURFU
 70
     6
  9
$SURFV
 70
     6
  9
$UCSBASE
  2

  9
$UCSNAME
  2

  9
$UCSORG
 10
0.0
 20
0.0
 30
0.0
  9
$UCSXDIR
 10
1.0
 20
0.0
 30
0.0
  9
$UCSYDIR
 10
0.0
 20
1.0
 30
0.0
  9
$UCSORTHOREF
  2

  9
$UCSORTHOVIEW
 70
     0
  9
$UCSORGTOP
 10
0.0
 20
0.0
 30
0.0
  9
$UCSORGBOTTOM
 10
0.0
 20
0.0
 30
0.0
  9
$UCSORGLEFT
 10
0.0
 20
0.0
 30
0.0
  9
$UCSORGRIGHT
 10
0.0
 20
0.0
 30
0.0
  9
$UCSORGFRONT
 10
0.0
 20
0.0
 30
0.0
  9
$UCSORGBACK
 10
0.0
 20
0.0
 30
0.0
  9
$PUCSBASE
  2

  9
$PUCSNAME
  2

  9
$PUCSORG
 10
0.0
 20
0.0
 30
0.0
  9
$PUCSXDIR
 10
1.0
 20
0.0
 30
0.0
  9
$PUCSYDIR
 10
0.0
 20
1.0
 30
0.0
  9
$PUCSORTHOREF
  2

  9
$PUCSORTHOVIEW
 70
     0
  9
$PUCSORGTOP
 10
0.0
 20
0.0
 30
0.0
  9
$PUCSORGBOTTOM
 10
0.0
 20
0.0
 30
0.0
  9
$PUCSORGLEFT
 10
0.0
 20
0.0
 30
0.0
  9
$PUCSORGRIGHT
 10
0.0
 20
0.0
 30
0.0
  9
$PUCSORGFRONT
 10
0.0
 20
0.0
 30
0.0
  9
$PUCSORGBACK
 10
0.0
 20
0.0
 30
0.0
  9
$USERI1
 70
     0
  9
$USERI2
 70
     0
  9
$USERI3
 70
     0
  9
$USERI4
 70
     0
  9
$USERI5
 70
     0
  9
$USERR1
 40
0.0
  9
$USERR2
 40
0.0
  9
$USERR3
 40
0.0
  9
$USERR4
 40
0.0
  9
$USERR5
 40
0.0
  9
$WORLDVIEW
 70
     1
  9
$SHADEDGE
 70
     3
  9
$SHADEDIF
 70
    70
  9
$TILEMODE
 70
     1
  9
$MAXACTVP
 70
    16
  9
$PINSBASE
 10
2220.404641079056
 20
50.00000000000001
 30
2810.473195709564
  9
$PLIMCHECK
 70
     0
  9
$PEXTMIN
 10
1.000000000000000E+20
 20
1.000000000000000E+20
 30
1.000000000000000E+20
  9
$PEXTMAX
 10
-1.000000000000000E+20
 20
-1.000000000000000E+20
 30
-1.000000000000000E+20
  9
$PLIMMIN
 10
0.0
 20
0.0
  9
$PLIMMAX
 10
12.0
 20
9.0
  9
$UNITMODE
 70
     0
  9
$VISRETAIN
 70
     0
  9
$PLINEGEN
 70
     0
  9
$PSLTSCALE
 70
     1
  9
$TREEDEPTH
 70
  3020
  9
$CMLSTYLE
  2
Standard
  9
$CMLJUST
 70
     0
  9
$CMLSCALE
 40
1.0
  9
$PROXYGRAPHICS
 70
     1
  9
$MEASUREMENT
 70
     0
  9
$CELWEIGHT
370
    -1
  9
$ENDCAPS
280
     0
  9
$JOINSTYLE
280
     0
  9
$LWDISPLAY
290
     0
  9
$INSUNITS
 70
     0
  9
$HYPERLINKBASE
  1

  9
$STYLESHEET
  1

  9
$XEDIT
290
     1
  9
$CEPSNTYPE
380
     0
  9
$PSTYLEMODE
290
     1
  9
$FINGERPRINTGUID
  2
{0282578E-6AC1-4E76-8A2D-4F935E5B7859}
  9
$VERSIONGUID
  2
{E0AAB7B0-E4FF-4FDA-8EE4-19419068B1B1}
  9
$EXTNAMES
290
     1
  9
$PSVPSCALE
 40
0.0
  9
$OLESTARTUP
290
     0
  9
$SORTENTS
280
   127
  9
$INDEXCTL
280
     0
  9
$HIDETEXT
280
     1
  9
$XCLIPFRAME
290
     0
  9
$HALOGAP
280
     0
  9
$OBSCOLOR
 70
   257
  9
$OBSLTYPE
280
     0
  9
$INTERSECTIONDISPLAY
280
     0
  9
$INTERSECTIONCOLOR
 70
   257
  9
$DIMASSOC
280
     2
  9
$PROJECTNAME
  1

  0
ENDSEC
  0
SECTION
  2
CLASSES
  0
CLASS
  1
ACDBDICTIONARYWDFLT
  2
AcDbDictionaryWithDefault
  3
ObjectDBX Classes
 90
        0
 91
        1
280
     0
281
     0
  0
CLASS
  1
DICTIONARYVAR
  2
AcDbDictionaryVar
  3
ObjectDBX Classes
 90
        0
 91
        8
280
     0
281
     0
  0
CLASS
  1
DIMASSOC
  2
AcDbDimAssoc
  3
"AcDbDimAssoc|Product Desc:     AcDim ARX App For Dimension|Company:          Autodesk, Inc.|WEB Address:      www.autodesk.com"
 90
        0
 91
        0
280
     0
281
     0
  0
CLASS
  1
MATERIAL
  2
AcDbMaterial
  3
ObjectDBX Classes
 90
     1153
 91
        3
280
     0
281
     0
  0
CLASS
  1
VISUALSTYLE
  2
AcDbVisualStyle
  3
ObjectDBX Classes
 90
     4095
 91
       16
280
     0
281
     0
  0
CLASS
  1
TABLESTYLE
  2
AcDbTableStyle
  3
ObjectDBX Classes
 90
     4095
 91
        1
280
     0
281
     0
  0
CLASS
  1
SCALE
  2
AcDbScale
  3
ObjectDBX Classes
 90
     1153
 91
       34
280
     0
281
     0
  0
CLASS
  1
MLEADERSTYLE
  2
AcDbMLeaderStyle
  3
ACDB_MLEADERSTYLE_CLASS
 90
     4095
 91
        1
280
     0
281
     0
  0
CLASS
  1
CELLSTYLEMAP
  2
AcDbCellStyleMap
  3
ObjectDBX Classes
 90
     1152
 91
        2
280
     0
281
     0
  0
CLASS
  1
SORTENTSTABLE
  2
AcDbSortentsTable
  3
ObjectDBX Classes
 90
        0
 91
        1
280
     0
281
     0
  0
CLASS
  1
ACDB_TEXTOBJECTCONTEXTDATA_CLASS
  2
AcDbTextObjectContextData
  3
ObjectDBX Classes
 90
     1153
 91
        0
280
     0
281
     0
  0
CLASS
  1
SOLID_BACKGROUND
  2
AcDbSolidBackground
  3
SCENEOE
 90
     4095
 91
        0
280
     0
281
     0
  0
CLASS
  1
NPOCOLLECTION
  2
AcDbImpNonPersistentObjectsCollection
  3
ObjectDBX Classes
 90
     1153
 91
        0
280
     0
281
     0
  0
ENDSEC
  0
SECTION
  2
TABLES
  0
TABLE
  2
VPORT
  5
2F
102
{ACAD_XDICTIONARY
360
33
102
}
330
0
100
AcDbSymbolTable
 70
     1
  0
VPORT
  5
30
330
2F
100
AcDbSymbolTableRecord
100
AcDbViewportTableRecord
  2
*Active
 70
     0
 10
0.0
 20
0.0
 11
1.0
 21
1.0
 12
3296.997423409145
 22
70.5698641566928
 13
0.0
 23
0.0
 14
1.0
 24
1.0
 15
0.0
 25
0.0
 16
0.0
 26
0.0
 36
1.0
 17
0.0
 27
0.0
 37
0.0
 40
135.6929140557385
 41
1.889
 42
50.0
 43
0.0
 44
0.0
 50
0.0
 51
0.0
 71
     0
 72
 10000
 73
     1
 74
     0
 75
     0
 76
     0
 77
     0
 78
     0
281
     0
 65
     1
110
0.0
120
0.0
130
0.0
111
1.0
121
0.0
131
0.0
112
0.0
122
1.0
132
0.0
 79
     0
146
0.0
  0
ENDTAB
  0
TABLE
  2
LTYPE
  5
2A
330
0
100
AcDbSymbolTable
 70
     2
  0
LTYPE
  5
2B
330
2A
100
AcDbSymbolTableRecord
100
AcDbLinetypeTableRecord
  2
ByBlock
 70
     0
  3

 72
    65
 73
     0
 40
0.0
  0
LTYPE
  5
2C
330
2A
100
AcDbSymbolTableRecord
100
AcDbLinetypeTableRecord
  2
ByLayer
 70
     0
  3

 72
    65
 73
     0
 40
0.0
  0
LTYPE
  5
16
330
2A
100
AcDbSymbolTableRecord
100
AcDbLinetypeTableRecord
  2
CONTINUOUS
 70
     0
  3
Solid line
 72
    65
 73
     0
 40
0.0
  0
LTYPE
  5
8A
330
2A
100
AcDbSymbolTableRecord
100
AcDbLinetypeTableRecord
  2
CENTER
 70
     0
  3
____ _ ____ _ ____ _ ____ _ ____ _ ____ _ ____ 
 72
    65
 73
     4
 40
2.0
 49
1.25
 74
     0
 49
-0.25
 74
     0
 49
0.25
 74
     0
 49
-0.25
 74
     0
  0
ENDTAB
  0
TABLE
  2
LAYER
  5
21
102
{ACAD_XDICTIONARY
360
22
102
}
330
0
100
AcDbSymbolTable
 70
     4
  0
LAYER
  5
7
102
{ACAD_XDICTIONARY
360
8
102
}
330
21
100
AcDbSymbolTableRecord
100
AcDbLayerTableRecord
  2
0
 70
     0
 62
     7
  6
CONTINUOUS
370
    -3
390
A
  0
LAYER
  5
87
102
{ACAD_XDICTIONARY
360
88
102
}
330
21
100
AcDbSymbolTableRecord
100
AcDbLayerTableRecord
  2
CL
 70
     0
 62
     1
  6
CENTER
370
    -3
390
A
  0
LAYER
  5
180
330
21
100
AcDbSymbolTableRecord
100
AcDbLayerTableRecord
  2
DEFPOINTS
 70
     0
 62
     7
  6
CONTINUOUS
290
     0
370
    -3
390
A
  0
LAYER
  5
5C
102
{ACAD_XDICTIONARY
360
5D
102
}
330
21
100
AcDbSymbolTableRecord
100
AcDbLayerTableRecord
  2
TEXT
 70
     0
 62
    84
  6
CONTINUOUS
370
    -3
390
A
  0
ENDTAB
  0
TABLE
  2
STYLE
  5
27
330
0
100
AcDbSymbolTable
 70
     2
  0
STYLE
  5
28
330
27
100
AcDbSymbolTableRecord
100
AcDbTextStyleTableRecord
  2
STANDARD
 70
     0
 40
0.0
 41
0.8
 50
0.0
 71
     0
 42
4.0
  3
TXT.shx
  4

  0
STYLE
  5
37
330
27
100
AcDbSymbolTableRecord
100
AcDbTextStyleTableRecord
  2
GHS
 70
     0
 40
0.0
 41
0.6
 50
0.0
 71
     0
 42
4.0
  3
ROMANS
  4
GHS
  0
ENDTAB
  0
TABLE
  2
VIEW
  5
2D
330
0
100
AcDbSymbolTable
 70
     0
  0
ENDTAB
  0
TABLE
  2
UCS
  5
2E
330
0
100
AcDbSymbolTable
 70
     0
  0
ENDTAB
  0
TABLE
  2
APPID
  5
34
330
0
100
AcDbSymbolTable
 70
     9
  0
APPID
  5
26
330
34
100
AcDbSymbolTableRecord
100
AcDbRegAppTableRecord
  2
ACAD
 70
     0
  0
APPID
  5
38
330
34
100
AcDbSymbolTableRecord
100
AcDbRegAppTableRecord
  2
ACAD_DSTYLE_DIMJAG
 70
     0
  0
APPID
  5
39
330
34
100
AcDbSymbolTableRecord
100
AcDbRegAppTableRecord
  2
ACAD_DSTYLE_DIMTALN
 70
     0
  0
APPID
  5
1A
330
34
100
AcDbSymbolTableRecord
100
AcDbRegAppTableRecord
  2
ACAD_PSEXT
 70
     0
  0
APPID
  5
42
330
34
100
AcDbSymbolTableRecord
100
AcDbRegAppTableRecord
  2
ACAD_DSTYLE_DIMBREAK
 70
     0
  0
APPID
  5
274
330
34
100
AcDbSymbolTableRecord
100
AcDbRegAppTableRecord
  2
ACAD_DSTYLE_DIM_LINETYPE
 70
     0
  0
APPID
  5
275
330
34
100
AcDbSymbolTableRecord
100
AcDbRegAppTableRecord
  2
ACAD_DSTYLE_DIM_EXT1_LINETYPE
 70
     0
  0
APPID
  5
276
330
34
100
AcDbSymbolTableRecord
100
AcDbRegAppTableRecord
  2
ACAD_DSTYLE_DIM_EXT2_LINETYPE
 70
     0
  0
APPID
  5
297
330
34
100
AcDbSymbolTableRecord
100
AcDbRegAppTableRecord
  2
ACAD_MLEADERVER
 70
     0
  0
ENDTAB
  0
TABLE
  2
DIMSTYLE
  5
35
330
0
100
AcDbSymbolTable
 70
     5
100
AcDbDimStyleTable
 71
     5
340
36
340
3A
340
3B
340
43
340
44
  0
DIMSTYLE
105
36
330
35
100
AcDbSymbolTableRecord
100
AcDbDimStyleTableRecord
  2
Standard
 70
     0
 41
4.0
 42
1.0
 43
1.0
 44
1.0
 73
     0
 74
     0
 77
     1
 78
     8
140
5.0
141
0.5
147
1.5
172
     1
176
   256
177
   256
178
   256
271
     3
272
     3
340
37
371
    -1
372
    -1
1001
ACAD_DSTYLE_DIMJAG
1070
   388
1040
1.5
1001
ACAD_DSTYLE_DIMTALN
1070
   392
1070
     0
1001
ACAD_DSTYLE_DIM_LINETYPE
1070
   380
1005
2C
1001
ACAD_DSTYLE_DIM_EXT1_LINETYPE
1070
   381
1005
2C
1001
ACAD_DSTYLE_DIM_EXT2_LINETYPE
1070
   382
1005
2C
  0
DIMSTYLE
105
3A
330
35
100
AcDbSymbolTableRecord
100
AcDbDimStyleTableRecord
  2
ISO-25
 70
     0
 41
4.0
 42
2.0
 43
1.0
 44
1.0
 73
     0
 74
     0
 77
     1
 78
     8
 79
     2
140
4.0
141
0.5
143
0.03937007874016
147
1.5
171
     3
172
     1
176
   256
177
   256
178
   256
179
     4
271
     3
272
     3
274
     3
283
     0
284
     8
340
37
371
    -1
372
    -1
1001
ACAD_DSTYLE_DIMJAG
1070
   388
1040
1.5
1001
ACAD_DSTYLE_DIMTALN
1070
   392
1070
     0
1001
ACAD_DSTYLE_DIM_LINETYPE
1070
   380
1005
2C
1001
ACAD_DSTYLE_DIM_EXT1_LINETYPE
1070
   381
1005
2C
1001
ACAD_DSTYLE_DIM_EXT2_LINETYPE
1070
   382
1005
2C
  0
DIMSTYLE
105
43
330
35
100
AcDbSymbolTableRecord
100
AcDbDimStyleTableRecord
  2
2X
 70
     0
 41
3.0
 42
1.0
 43
1.0
 44
1.0
 73
     0
 74
     0
 77
     1
 78
     8
 79
     2
140
3.0
141
0.5
144
0.5
147
1.0
172
     1
176
   256
177
   256
178
   256
179
     3
271
     3
272
     3
340
37
371
    -1
372
    -1
1001
ACAD_DSTYLE_DIMBREAK
1070
   391
1040
0.125
1001
ACAD_DSTYLE_DIMJAG
1070
   388
1040
1.5
1001
ACAD_DSTYLE_DIMTALN
1070
   392
1070
     0
1001
ACAD_DSTYLE_DIM_LINETYPE
1070
   380
1005
2C
1001
ACAD_DSTYLE_DIM_EXT1_LINETYPE
1070
   381
1005
2C
1001
ACAD_DSTYLE_DIM_EXT2_LINETYPE
1070
   382
1005
2C
  0
DIMSTYLE
105
44
102
{ACAD_REACTORS
330
1AD
330
19E
330
184
330
176
330
1C9
330
1BC
330
1E7
330
1F6
330
1D6
330
191
330
229
330
258
330
23A
330
249
102
}
330
35
100
AcDbSymbolTableRecord
100
AcDbDimStyleTableRecord
  2
1X
 70
     0
 41
3.0
 42
1.0
 43
1.0
 44
1.0
 73
     0
 74
     0
 77
     1
 78
     8
140
3.0
141
0.5
147
1.0
172
     1
176
   256
177
   256
178
   256
271
     3
272
     3
340
37
371
    -1
372
    -1
1001
ACAD_DSTYLE_DIMBREAK
1070
   391
1040
0.125
1001
ACAD_DSTYLE_DIMJAG
1070
   388
1040
1.5
1001
ACAD_DSTYLE_DIMTALN
1070
   392
1070
     0
1001
ACAD_DSTYLE_DIM_LINETYPE
1070
   380
1005
2C
1001
ACAD_DSTYLE_DIM_EXT1_LINETYPE
1070
   381
1005
2C
1001
ACAD_DSTYLE_DIM_EXT2_LINETYPE
1070
   382
1005
2C
  0
DIMSTYLE
105
3B
330
35
100
AcDbSymbolTableRecord
100
AcDbDimStyleTableRecord
  2
CATALOG
 70
     0
 41
2.5
 42
1.0
 43
1.0
 44
1.0
 73
     0
 74
     0
 77
     1
 78
     8
 79
     2
140
3.0
141
0.5
147
1.0
172
     1
176
   256
177
   256
178
   256
179
     3
271
     3
272
     3
340
37
342
3C
371
    -1
372
    -1
1001
ACAD_DSTYLE_DIMBREAK
1070
   391
1040
0.125
1001
ACAD_DSTYLE_DIMJAG
1070
   388
1040
1.5
1001
ACAD_DSTYLE_DIMTALN
1070
   392
1070
     0
1001
ACAD_DSTYLE_DIM_LINETYPE
1070
   380
1005
2C
1001
ACAD_DSTYLE_DIM_EXT1_LINETYPE
1070
   381
1005
2C
1001
ACAD_DSTYLE_DIM_EXT2_LINETYPE
1070
   382
1005
2C
  0
ENDTAB
  0
TABLE
  2
BLOCK_RECORD
  5
1
330
0
100
AcDbSymbolTable
 70
    15
  0
BLOCK_RECORD
  5
2
102
{ACAD_XDICTIONARY
360
3
102
}
330
1
100
AcDbSymbolTableRecord
100
AcDbBlockTableRecord
  2
*Model_Space
340
18
  0
BLOCK_RECORD
  5
1B
102
{ACAD_XDICTIONARY
360
1C
102
}
330
1
100
AcDbSymbolTableRecord
100
AcDbBlockTableRecord
  2
*Paper_Space
340
20
  0
BLOCK_RECORD
  5
177
330
1
100
AcDbSymbolTableRecord
100
AcDbBlockTableRecord
  2
*D0
340
0
  0
BLOCK_RECORD
  5
185
330
1
100
AcDbSymbolTableRecord
100
AcDbBlockTableRecord
  2
*D1
340
0
  0
BLOCK_RECORD
  5
192
330
1
100
AcDbSymbolTableRecord
100
AcDbBlockTableRecord
  2
*D2
340
0
  0
BLOCK_RECORD
  5
19F
330
1
100
AcDbSymbolTableRecord
100
AcDbBlockTableRecord
  2
*D3
340
0
  0
BLOCK_RECORD
  5
1AE
330
1
100
AcDbSymbolTableRecord
100
AcDbBlockTableRecord
  2
*D4
340
0
  0
BLOCK_RECORD
  5
1BD
330
1
100
AcDbSymbolTableRecord
100
AcDbBlockTableRecord
  2
*D5
340
0
  0
BLOCK_RECORD
  5
1CA
330
1
100
AcDbSymbolTableRecord
100
AcDbBlockTableRecord
  2
*D6
340
0
  0
BLOCK_RECORD
  5
1D7
330
1
100
AcDbSymbolTableRecord
100
AcDbBlockTableRecord
  2
*D7
340
0
  0
BLOCK_RECORD
  5
1E8
330
1
100
AcDbSymbolTableRecord
100
AcDbBlockTableRecord
  2
*D8
340
0
  0
BLOCK_RECORD
  5
1F7
330
1
100
AcDbSymbolTableRecord
100
AcDbBlockTableRecord
  2
*D9
340
0
  0
BLOCK_RECORD
  5
3C
330
1
100
AcDbSymbolTableRecord
100
AcDbBlockTableRecord
  2
_Open30
340
0
  0
BLOCK_RECORD
  5
22A
330
1
100
AcDbSymbolTableRecord
100
AcDbBlockTableRecord
  2
*D11
340
0
  0
BLOCK_RECORD
  5
259
330
1
100
AcDbSymbolTableRecord
100
AcDbBlockTableRecord
  2
*D12
340
0
  0
BLOCK_RECORD
  5
23B
330
1
100
AcDbSymbolTableRecord
100
AcDbBlockTableRecord
  2
*D13
340
0
  0
BLOCK_RECORD
  5
24A
330
1
100
AcDbSymbolTableRecord
100
AcDbBlockTableRecord
  2
*D14
340
0
  0
ENDTAB
  0
ENDSEC
  0
SECTION
  2
BLOCKS
  0
BLOCK
  5
6
330
2
100
AcDbEntity
  8
0
100
AcDbBlockBegin
  2
*Model_Space
 70
     0
 10
0.0
 20
0.0
 30
0.0
  3
*Model_Space
  1

  0
ENDBLK
  5
17
330
2
100
AcDbEntity
  8
0
100
AcDbBlockEnd
  0
BLOCK
  5
1E
330
1B
100
AcDbEntity
 67
     1
  8
0
100
AcDbBlockBegin
  2
*Paper_Space
 70
     0
 10
0.0
 20
0.0
 30
0.0
  3
*Paper_Space
  1

  0
ENDBLK
  5
1F
330
1B
100
AcDbEntity
 67
     1
  8
0
100
AcDbBlockEnd
  0
BLOCK
  5
178
330
177
100
AcDbEntity
  8
0
100
AcDbBlockBegin
  2
*D0
 70
     1
 10
0.0
 20
0.0
 30
0.0
  3
*D0
  1

  0
LINE
  5
179
330
177
100
AcDbEntity
  8
TEXT
100
AcDbLine
 10
3313.0
 20
114.5
 30
0.0
 11
3313.0
 21
128.0
 31
0.0
  0
LINE
  5
17A
330
177
100
AcDbEntity
  8
TEXT
100
AcDbLine
 10
3347.9
 20
115.5
 30
0.0
 11
3347.9
 21
128.0
 31
0.0
  0
LINE
  5
17B
330
177
100
AcDbEntity
  8
TEXT
100
AcDbLine
 10
3316.0
 20
127.0
 30
0.0
 11
3344.9
 21
127.0
 31
0.0
  0
SOLID
  5
17C
330
177
100
AcDbEntity
  8
TEXT
100
AcDbTrace
 10
3316.0
 20
127.5
 30
0.0
 11
3316.0
 21
126.5
 31
0.0
 12
3313.0
 22
127.0
 32
0.0
 13
3313.0
 23
127.0
 33
0.0
  0
SOLID
  5
17D
330
177
100
AcDbEntity
  8
TEXT
100
AcDbTrace
 10
3344.9
 20
127.5
 30
0.0
 11
3344.9
 21
126.5
 31
0.0
 12
3347.9
 22
127.0
 32
0.0
 13
3347.9
 23
127.0
 33
0.0
  0
MTEXT
  5
17E
330
177
100
AcDbEntity
  8
TEXT
100
AcDbMText
 10
3330.45
 20
129.5
 30
0.0
 40
3.0
 41
0.0
 71
     5
 72
     1
  1
\A1;L 
  7
GHS
 73
     1
 44
1.0
  0
POINT
  5
17F
330
177
100
AcDbEntity
  8
DEFPOINTS
 62
     0
100
AcDbPoint
 10
3313.0
 20
113.5
 30
0.0
  0
POINT
  5
181
330
177
100
AcDbEntity
  8
DEFPOINTS
 62
     0
100
AcDbPoint
 10
3347.9
 20
114.5
 30
0.0
  0
POINT
  5
182
330
177
100
AcDbEntity
  8
DEFPOINTS
 62
     0
100
AcDbPoint
 10
3347.9
 20
127.0
 30
0.0
  0
ENDBLK
  5
183
330
177
100
AcDbEntity
  8
0
100
AcDbBlockEnd
  0
BLOCK
  5
186
330
185
100
AcDbEntity
  8
0
100
AcDbBlockBegin
  2
*D1
 70
     1
 10
0.0
 20
0.0
 30
0.0
  3
*D1
  1

  0
LINE
  5
187
330
185
100
AcDbEntity
  8
TEXT
100
AcDbLine
 10
3347.9
 20
115.5
 30
0.0
 11
3347.9
 21
128.0
 31
0.0
  0
LINE
  5
188
330
185
100
AcDbEntity
  8
TEXT
100
AcDbLine
 10
3376.9
 20
115.0
 30
0.0
 11
3376.9
 21
128.0
 31
0.0
  0
LINE
  5
189
330
185
100
AcDbEntity
  8
TEXT
100
AcDbLine
 10
3350.9
 20
127.0
 30
0.0
 11
3373.9
 21
127.0
 31
0.0
  0
SOLID
  5
18A
330
185
100
AcDbEntity
  8
TEXT
100
AcDbTrace
 10
3350.9
 20
127.5
 30
0.0
 11
3350.9
 21
126.5
 31
0.0
 12
3347.9
 22
127.0
 32
0.0
 13
3347.9
 23
127.0
 33
0.0
  0
SOLID
  5
18B
330
185
100
AcDbEntity
  8
TEXT
100
AcDbTrace
 10
3373.9
 20
127.5
 30
0.0
 11
3373.9
 21
126.5
 31
0.0
 12
3376.9
 22
127.0
 32
0.0
 13
3376.9
 23
127.0
 33
0.0
  0
MTEXT
  5
18C
330
185
100
AcDbEntity
  8
TEXT
100
AcDbMText
 10
3362.4
 20
129.5
 30
0.0
 40
3.0
 41
0.0
 71
     5
 72
     1
  1
\A1;M
  7
GHS
 73
     1
 44
1.0
  0
POINT
  5
18D
330
185
100
AcDbEntity
  8
DEFPOINTS
 62
     0
100
AcDbPoint
 10
3347.9
 20
114.5
 30
0.0
  0
POINT
  5
18E
330
185
100
AcDbEntity
  8
DEFPOINTS
 62
     0
100
AcDbPoint
 10
3376.9
 20
114.0
 30
0.0
  0
POINT
  5
18F
330
185
100
AcDbEntity
  8
DEFPOINTS
 62
     0
100
AcDbPoint
 10
3376.9
 20
127.0
 30
0.0
  0
ENDBLK
  5
190
330
185
100
AcDbEntity
  8
0
100
AcDbBlockEnd
  0
BLOCK
  5
193
330
192
100
AcDbEntity
  8
0
100
AcDbBlockBegin
  2
*D2
 70
     1
 10
0.0
 20
0.0
 30
0.0
  3
*D2
  1

  0
LINE
  5
194
330
192
100
AcDbEntity
  8
TEXT
100
AcDbLine
 10
3377.9
 20
114.0
 30
0.0
 11
3395.0
 21
114.0
 31
0.0
  0
LINE
  5
195
330
192
100
AcDbEntity
  8
TEXT
100
AcDbLine
 10
3377.9
 20
80.0
 30
0.0
 11
3395.0
 21
80.0
 31
0.0
  0
LINE
  5
196
330
192
100
AcDbEntity
  8
TEXT
100
AcDbLine
 10
3394.0
 20
111.0
 30
0.0
 11
3394.0
 21
83.0
 31
0.0
  0
SOLID
  5
197
330
192
100
AcDbEntity
  8
TEXT
100
AcDbTrace
 10
3393.5
 20
111.0
 30
0.0
 11
3394.5
 21
111.0
 31
0.0
 12
3394.0
 22
114.0
 32
0.0
 13
3394.0
 23
114.0
 33
0.0
  0
SOLID
  5
198
330
192
100
AcDbEntity
  8
TEXT
100
AcDbTrace
 10
3393.5
 20
83.0
 30
0.0
 11
3394.5
 21
83.0
 31
0.0
 12
3394.0
 22
80.0
 32
0.0
 13
3394.0
 23
80.0
 33
0.0
  0
MTEXT
  5
199
330
192
100
AcDbEntity
  8
TEXT
100
AcDbMText
 10
3391.5
 20
97.00000000000054
 30
0.0
 40
3.0
 41
0.0
 71
     5
 72
     1
  1
\A1;%%C34
  7
GHS
 11
0.0000000000000001
 21
1.0
 31
0.0
 73
     1
 44
1.0
  0
POINT
  5
19A
330
192
100
AcDbEntity
  8
DEFPOINTS
 62
     0
100
AcDbPoint
 10
3376.9
 20
114.0
 30
0.0
  0
POINT
  5
19B
330
192
100
AcDbEntity
  8
DEFPOINTS
 62
     0
100
AcDbPoint
 10
3376.9
 20
80.0
 30
0.0
  0
POINT
  5
19C
330
192
100
AcDbEntity
  8
DEFPOINTS
 62
     0
100
AcDbPoint
 10
3394.0
 20
80.0
 30
0.0
  0
ENDBLK
  5
19D
330
192
100
AcDbEntity
  8
0
100
AcDbBlockEnd
  0
BLOCK
  5
1A0
330
19F
100
AcDbEntity
  8
0
100
AcDbBlockBegin
  2
*D3
 70
     1
 10
0.0
 20
0.0
 30
0.0
  3
*D3
  1

  0
LINE
  5
1A1
330
19F
100
AcDbEntity
  8
TEXT
100
AcDbLine
 10
3376.9
 20
115.0
 30
0.0
 11
3376.9
 21
128.0
 31
0.0
  0
LINE
  5
1A2
330
19F
100
AcDbEntity
  8
TEXT
100
AcDbLine
 10
3384.9
 20
100.0
 30
0.0
 11
3384.9
 21
128.0
 31
0.0
  0
LINE
  5
1A3
330
19F
100
AcDbEntity
  8
TEXT
100
AcDbLine
 10
3373.9
 20
127.0
 30
0.0
 11
3370.9
 21
127.0
 31
0.0
  0
LINE
  5
1A4
330
19F
100
AcDbEntity
  8
TEXT
100
AcDbLine
 10
3387.9
 20
127.0
 30
0.0
 11
3390.9
 21
127.0
 31
0.0
  0
LINE
  5
1A5
330
19F
100
AcDbEntity
  8
TEXT
100
AcDbLine
 10
3376.9
 20
127.0
 30
0.0
 11
3384.9
 21
127.0
 31
0.0
  0
SOLID
  5
1A6
330
19F
100
AcDbEntity
  8
TEXT
100
AcDbTrace
 10
3373.9
 20
127.5
 30
0.0
 11
3373.9
 21
126.5
 31
0.0
 12
3376.9
 22
127.0
 32
0.0
 13
3376.9
 23
127.0
 33
0.0
  0
SOLID
  5
1A7
330
19F
100
AcDbEntity
  8
TEXT
100
AcDbTrace
 10
3387.9
 20
127.5
 30
0.0
 11
3387.9
 21
126.5
 31
0.0
 12
3384.9
 22
127.0
 32
0.0
 13
3384.9
 23
127.0
 33
0.0
  0
MTEXT
  5
1A8
330
19F
100
AcDbEntity
  8
TEXT
100
AcDbMText
 10
3380.9
 20
129.5
 30
0.0
 40
3.0
 41
0.0
 71
     5
 72
     1
  1
\A1;8
  7
GHS
 73
     1
 44
1.0
  0
POINT
  5
1A9
330
19F
100
AcDbEntity
  8
DEFPOINTS
 62
     0
100
AcDbPoint
 10
3376.9
 20
114.0
 30
0.0
  0
POINT
  5
1AA
330
19F
100
AcDbEntity
  8
DEFPOINTS
 62
     0
100
AcDbPoint
 10
3384.9
 20
99.0
 30
0.0
  0
POINT
  5
1AB
330
19F
100
AcDbEntity
  8
DEFPOINTS
 62
     0
100
AcDbPoint
 10
3384.9
 20
127.0
 30
0.0
  0
ENDBLK
  5
1AC
330
19F
100
AcDbEntity
  8
0
100
AcDbBlockEnd
  0
BLOCK
  5
1AF
330
1AE
100
AcDbEntity
  8
0
100
AcDbBlockBegin
  2
*D4
 70
     1
 10
0.0
 20
0.0
 30
0.0
  3
*D4
  1

  0
LINE
  5
1B0
330
1AE
100
AcDbEntity
  8
TEXT
100
AcDbLine
 10
3310.0
 20
107.5
 30
0.0
 11
3310.0
 21
121.0
 31
0.0
  0
LINE
  5
1B1
330
1AE
100
AcDbEntity
  8
TEXT
100
AcDbLine
 10
3313.0
 20
114.5
 30
0.0
 11
3313.0
 21
121.0
 31
0.0
  0
LINE
  5
1B2
330
1AE
100
AcDbEntity
  8
TEXT
100
AcDbLine
 10
3307.0
 20
120.0
 30
0.0
 11
3304.0
 21
120.0
 31
0.0
  0
LINE
  5
1B3
330
1AE
100
AcDbEntity
  8
TEXT
100
AcDbLine
 10
3316.0
 20
120.0
 30
0.0
 11
3322.2
 21
120.0
 31
0.0
  0
LINE
  5
1B4
330
1AE
100
AcDbEntity
  8
TEXT
100
AcDbLine
 10
3310.0
 20
120.0
 30
0.0
 11
3313.0
 21
120.0
 31
0.0
  0
SOLID
  5
1B5
330
1AE
100
AcDbEntity
  8
TEXT
100
AcDbTrace
 10
3307.0
 20
120.5
 30
0.0
 11
3307.0
 21
119.5
 31
0.0
 12
3310.0
 22
120.0
 32
0.0
 13
3310.0
 23
120.0
 33
0.0
  0
SOLID
  5
1B6
330
1AE
100
AcDbEntity
  8
TEXT
100
AcDbTrace
 10
3316.0
 20
120.5
 30
0.0
 11
3316.0
 21
119.5
 31
0.0
 12
3313.0
 22
120.0
 32
0.0
 13
3313.0
 23
120.0
 33
0.0
  0
MTEXT
  5
1B7
330
1AE
100
AcDbEntity
  8
TEXT
100
AcDbMText
 10
3320.600000000001
 20
122.5
 30
0.0
 40
3.0
 41
0.0
 71
     5
 72
     1
  1
\A1;3
  7
GHS
 73
     1
 44
1.0
  0
POINT
  5
1B8
330
1AE
100
AcDbEntity
  8
DEFPOINTS
 62
     0
100
AcDbPoint
 10
3310.0
 20
106.5
 30
0.0
  0
POINT
  5
1B9
330
1AE
100
AcDbEntity
  8
DEFPOINTS
 62
     0
100
AcDbPoint
 10
3313.0
 20
113.5
 30
0.0
  0
POINT
  5
1BA
330
1AE
100
AcDbEntity
  8
DEFPOINTS
 62
     0
100
AcDbPoint
 10
3313.0
 20
120.0
 30
0.0
  0
ENDBLK
  5
1BB
330
1AE
100
AcDbEntity
  8
0
100
AcDbBlockEnd
  0
BLOCK
  5
1BE
330
1BD
100
AcDbEntity
  8
0
100
AcDbBlockBegin
  2
*D5
 70
     1
 10
0.0
 20
0.0
 30
0.0
  3
*D5
  1

  0
LINE
  5
1BF
330
1BD
100
AcDbEntity
  8
TEXT
100
AcDbLine
 10
3293.700000000001
 20
100.5
 30
0.0
 11
3293.700000000001
 21
111.0
 31
0.0
  0
LINE
  5
1C0
330
1BD
100
AcDbEntity
  8
TEXT
100
AcDbLine
 10
3305.700000000001
 20
101.0
 30
0.0
 11
3305.700000000001
 21
111.0
 31
0.0
  0
LINE
  5
1C1
330
1BD
100
AcDbEntity
  8
TEXT
100
AcDbLine
 10
3296.700000000001
 20
110.0
 30
0.0
 11
3302.700000000001
 21
110.0
 31
0.0
  0
SOLID
  5
1C2
330
1BD
100
AcDbEntity
  8
TEXT
100
AcDbTrace
 10
3296.700000000001
 20
110.5
 30
0.0
 11
3296.700000000001
 21
109.5
 31
0.0
 12
3293.700000000001
 22
110.0
 32
0.0
 13
3293.700000000001
 23
110.0
 33
0.0
  0
SOLID
  5
1C3
330
1BD
100
AcDbEntity
  8
TEXT
100
AcDbTrace
 10
3302.700000000001
 20
110.5
 30
0.0
 11
3302.700000000001
 21
109.5
 31
0.0
 12
3305.700000000001
 22
110.0
 32
0.0
 13
3305.700000000001
 23
110.0
 33
0.0
  0
MTEXT
  5
1C4
330
1BD
100
AcDbEntity
  8
TEXT
100
AcDbMText
 10
3299.700000000001
 20
112.5
 30
0.0
 40
3.0
 41
0.0
 71
     5
 72
     1
  1
\A1;12
  7
GHS
 73
     1
 44
1.0
  0
POINT
  5
1C5
330
1BD
100
AcDbEntity
  8
DEFPOINTS
 62
     0
100
AcDbPoint
 10
3293.700000000001
 20
99.50000000000001
 30
0.0
  0
POINT
  5
1C6
330
1BD
100
AcDbEntity
  8
DEFPOINTS
 62
     0
100
AcDbPoint
 10
3305.700000000001
 20
100.0
 30
0.0
  0
POINT
  5
1C7
330
1BD
100
AcDbEntity
  8
DEFPOINTS
 62
     0
100
AcDbPoint
 10
3305.700000000001
 20
110.0
 30
0.0
  0
ENDBLK
  5
1C8
330
1BD
100
AcDbEntity
  8
0
100
AcDbBlockEnd
  0
BLOCK
  5
1CB
330
1CA
100
AcDbEntity
  8
0
100
AcDbBlockBegin
  2
*D6
 70
     1
 10
0.0
 20
0.0
 30
0.0
  3
*D6
  1

  0
LINE
  5
1CC
330
1CA
100
AcDbEntity
  8
TEXT
100
AcDbLine
 10
3293.700000000001
 20
100.5
 30
0.0
 11
3293.700000000001
 21
128.0
 31
0.0
  0
LINE
  5
1CD
330
1CA
100
AcDbEntity
  8
TEXT
100
AcDbLine
 10
3313.0
 20
114.5
 30
0.0
 11
3313.0
 21
128.0
 31
0.0
  0
LINE
  5
1CE
330
1CA
100
AcDbEntity
  8
TEXT
100
AcDbLine
 10
3296.700000000001
 20
127.0
 30
0.0
 11
3310.0
 21
127.0
 31
0.0
  0
SOLID
  5
1CF
330
1CA
100
AcDbEntity
  8
TEXT
100
AcDbTrace
 10
3296.700000000001
 20
127.5
 30
0.0
 11
3296.700000000001
 21
126.5
 31
0.0
 12
3293.700000000001
 22
127.0
 32
0.0
 13
3293.700000000001
 23
127.0
 33
0.0
  0
SOLID
  5
1D0
330
1CA
100
AcDbEntity
  8
TEXT
100
AcDbTrace
 10
3310.0
 20
127.5
 30
0.0
 11
3310.0
 21
126.5
 31
0.0
 12
3313.0
 22
127.0
 32
0.0
 13
3313.0
 23
127.0
 33
0.0
  0
MTEXT
  5
1D1
330
1CA
100
AcDbEntity
  8
TEXT
100
AcDbMText
 10
3303.35
 20
129.5
 30
0.0
 40
3.0
 41
0.0
 71
     5
 72
     1
  1
\A1;19.3
  7
GHS
 73
     1
 44
1.0
  0
POINT
  5
1D2
330
1CA
100
AcDbEntity
  8
DEFPOINTS
 62
     0
100
AcDbPoint
 10
3293.700000000001
 20
99.50000000000001
 30
0.0
  0
POINT
  5
1D3
330
1CA
100
AcDbEntity
  8
DEFPOINTS
 62
     0
100
AcDbPoint
 10
3313.0
 20
113.5
 30
0.0
  0
POINT
  5
1D4
330
1CA
100
AcDbEntity
  8
DEFPOINTS
 62
     0
100
AcDbPoint
 10
3313.0
 20
127.0
 30
0.0
  0
ENDBLK
  5
1D5
330
1CA
100
AcDbEntity
  8
0
100
AcDbBlockEnd
  0
BLOCK
  5
1D8
330
1D7
100
AcDbEntity
  8
0
100
AcDbBlockBegin
  2
*D7
 70
     1
 10
0.0
 20
0.0
 30
0.0
  3
*D7
  1

  0
LINE
  5
1D9
330
1D7
100
AcDbEntity
  8
TEXT
100
AcDbLine
 10
3224.0
 20
102.3588989435398
 30
0.0
 11
3224.0
 21
121.0
 31
0.0
  0
LINE
  5
1DA
330
1D7
100
AcDbEntity
  8
TEXT
100
AcDbLine
 10
3242.0
 20
102.3588989435393
 30
0.0
 11
3242.0
 21
121.0
 31
0.0
  0
LINE
  5
1DB
330
1D7
100
AcDbEntity
  8
TEXT
100
AcDbLine
 10
3227.0
 20
120.0
 30
0.0
 11
3239.0
 21
120.0
 31
0.0
  0
SOLID
  5
1DC
330
1D7
100
AcDbEntity
  8
TEXT
100
AcDbTrace
 10
3227.0
 20
120.5
 30
0.0
 11
3227.0
 21
119.5
 31
0.0
 12
3224.0
 22
120.0
 32
0.0
 13
3224.0
 23
120.0
 33
0.0
  0
SOLID
  5
1DD
330
1D7
100
AcDbEntity
  8
TEXT
100
AcDbTrace
 10
3239.0
 20
120.5
 30
0.0
 11
3239.0
 21
119.5
 31
0.0
 12
3242.0
 22
120.0
 32
0.0
 13
3242.0
 23
120.0
 33
0.0
  0
MTEXT
  5
1DE
330
1D7
100
AcDbEntity
  8
TEXT
100
AcDbMText
 10
3233.0
 20
122.5
 30
0.0
 40
3.0
 41
0.0
 71
     5
 72
     1
  1
\A1;18
  7
GHS
 73
     1
 44
1.0
  0
POINT
  5
1DF
330
1D7
100
AcDbEntity
  8
DEFPOINTS
 62
     0
100
AcDbPoint
 10
3224.0
 20
101.3588989435397
 30
0.0
  0
POINT
  5
1E0
330
1D7
100
AcDbEntity
  8
DEFPOINTS
 62
     0
100
AcDbPoint
 10
3242.0
 20
101.3588989435393
 30
0.0
  0
POINT
  5
1E1
330
1D7
100
AcDbEntity
  8
DEFPOINTS
 62
     0
100
AcDbPoint
 10
3242.0
 20
120.0
 30
0.0
  0
ENDBLK
  5
1E2
330
1D7
100
AcDbEntity
  8
0
100
AcDbBlockEnd
  0
BLOCK
  5
1E9
330
1E8
100
AcDbEntity
  8
0
100
AcDbBlockBegin
  2
*D8
 70
     1
 10
0.0
 20
0.0
 30
0.0
  3
*D8
  1

  0
LINE
  5
1EA
330
1E8
100
AcDbEntity
  8
TEXT
100
AcDbLine
 10
3220.625631329234
 20
84.62563132923538
 30
0.0
 11
3214.615223689147
 21
78.61522368915029
 31
0.0
  0
LINE
  5
1EB
330
1E8
100
AcDbEntity
  8
TEXT
100
AcDbLine
 10
3233.0
 20
76.5
 30
0.0
 11
3233.0
 21
70.99999999999886
 31
0.0
  0
ARC
  5
1EC
330
1E8
100
AcDbEntity
  8
TEXT
100
AcDbCircle
 10
3233.0
 20
96.9999999999991
 30
0.0
 40
25.00000000000011
100
AcDbArc
 50
231.8796255350252
 51
263.12037446497
  0
SOLID
  5
1ED
330
1E8
100
AcDbEntity
  8
TEXT
100
AcDbTrace
 10
3217.235404997886
 20
76.95798154261183
 30
0.0
 11
3217.898811432416
 21
77.70624079088361
 31
0.0
 12
3215.322330470335
 22
79.32233047033697
 32
0.0
 13
3215.322330470335
 23
79.32233047033697
 33
0.0
  0
SOLID
  5
1EE
330
1E8
100
AcDbEntity
  8
TEXT
100
AcDbTrace
 10
3230.035404868768
 20
72.67909918853752
 30
0.0
 11
3229.975404868768
 21
71.68090081146011
 31
0.0
 12
3233.0
 22
71.99999999999886
 32
0.0
 13
3233.0
 23
71.99999999999886
 33
0.0
  0
MTEXT
  5
1EF
330
1E8
100
AcDbEntity
  8
TEXT
100
AcDbMText
 10
3224.389622771785
 20
76.21271051849567
 30
0.0
 40
3.0
 41
0.0
 71
     5
 72
     1
  1
\A1;45°
  7
GHS
 11
0.9238795325112693
 21
-0.382683432365132
 31
0.0
 73
     1
 44
1.0
  0
POINT
  5
1F0
330
1E8
100
AcDbEntity
  8
DEFPOINTS
 62
     0
100
AcDbPoint
 10
3220.499999999999
 20
75.34936490538848
 30
0.0
  0
POINT
  5
1F1
330
1E8
100
AcDbEntity
  8
DEFPOINTS
 62
     0
100
AcDbPoint
 10
3221.332738110421
 20
85.33273811042205
 30
0.0
  0
POINT
  5
1F2
330
1E8
100
AcDbEntity
  8
DEFPOINTS
 62
     0
100
AcDbPoint
 10
3233.0
 20
77.5
 30
0.0
  0
POINT
  5
1F3
330
1E8
100
AcDbEntity
  8
DEFPOINTS
 62
     0
100
AcDbPoint
 10
3233.0
 20
116.4999999999998
 30
0.0
  0
POINT
  5
1F4
330
1E8
100
AcDbEntity
  8
DEFPOINTS
 62
     0
100
AcDbPoint
 10
3226.282485578728
 20
90.28248557872757
 30
0.0
  0
ENDBLK
  5
1F5
330
1E8
100
AcDbEntity
  8
0
100
AcDbBlockEnd
  0
BLOCK
  5
1F8
330
1F7
100
AcDbEntity
  8
0
100
AcDbBlockBegin
  2
*D9
 70
     1
 10
0.0
 20
0.0
 30
0.0
  3
*D9
  1

  0
LINE
  5
1F9
330
1F7
100
AcDbEntity
  8
TEXT
100
AcDbLine
 10
3220.625631329234
 20
84.62563132923532
 30
0.0
 11
3208.947658158955
 21
72.94765815895759
 31
0.0
  0
LINE
  5
1FA
330
1F7
100
AcDbEntity
  8
TEXT
100
AcDbLine
 10
3245.374368670766
 20
84.62563132923532
 30
0.0
 11
3257.052341841046
 21
72.94765815895757
 31
0.0
  0
ARC
  5
1FB
330
1F7
100
AcDbEntity
  8
TEXT
100
AcDbCircle
 10
3233.0
 20
96.99999999999876
 30
0.0
 40
33.01514803843742
100
AcDbArc
 50
230.2081101950439
 51
309.791889804956
  0
SOLID
  5
1FC
330
1F7
100
AcDbEntity
  8
TEXT
100
AcDbTrace
 10
3211.533149066394
 20
71.26276304335587
 30
0.0
 11
3212.207399188258
 21
72.001266105751
 31
0.0
 12
3209.654764940141
 22
73.65476494014408
 32
0.0
 13
3209.654764940141
 23
73.65476494014408
 33
0.0
  0
SOLID
  5
1FD
330
1F7
100
AcDbEntity
  8
TEXT
100
AcDbTrace
 10
3253.792600811742
 20
72.00126610575098
 30
0.0
 11
3254.466850933606
 21
71.26276304335585
 31
0.0
 12
3256.345235059859
 22
73.65476494014405
 32
0.0
 13
3256.345235059859
 23
73.65476494014405
 33
0.0
  0
MTEXT
  5
1FE
330
1F7
100
AcDbEntity
  8
TEXT
100
AcDbMText
 10
3233.0
 20
66.48485196156134
 30
0.0
 40
3.0
 41
0.0
 71
     5
 72
     1
  1
\A1;4-90°
  7
GHS
 73
     1
 44
1.0
  0
POINT
  5
1FF
330
1F7
100
AcDbEntity
  8
DEFPOINTS
 62
     0
100
AcDbPoint
 10
3224.455050910773
 20
65.10981585091546
 30
0.0
  0
POINT
  5
200
330
1F7
100
AcDbEntity
  8
DEFPOINTS
 62
     0
100
AcDbPoint
 10
3221.332738110421
 20
85.33273811042182
 30
0.0
  0
POINT
  5
201
330
1F7
100
AcDbEntity
  8
DEFPOINTS
 62
     0
100
AcDbPoint
 10
3244.667261889579
 20
85.33273811042182
 30
0.0
  0
POINT
  5
202
330
1F7
100
AcDbEntity
  8
DEFPOINTS
 62
     0
100
AcDbPoint
 10
3239.717514421272
 20
90.28248557872757
 30
0.0
  0
POINT
  5
203
330
1F7
100
AcDbEntity
  8
DEFPOINTS
 62
     0
100
AcDbPoint
 10
3226.282485578728
 20
90.28248557872757
 30
0.0
  0
ENDBLK
  5
204
330
1F7
100
AcDbEntity
  8
0
100
AcDbBlockEnd
  0
BLOCK
  5
3D
330
3C
100
AcDbEntity
  8
0
100
AcDbBlockBegin
  2
_Open30
 70
     0
 10
0.0
 20
0.0
 30
0.0
  3
_Open30
  1

  0
LINE
  5
3E
330
3C
100
AcDbEntity
  8
0
  6
ByBlock
 62
     0
370
    -2
100
AcDbLine
 10
-1.0
 20
0.26794919
 30
0.0
 11
0.0
 21
0.0
 31
0.0
  0
LINE
  5
3F
330
3C
100
AcDbEntity
  8
0
  6
ByBlock
 62
     0
370
    -2
100
AcDbLine
 10
0.0
 20
0.0
 30
0.0
 11
-1.0
 21
-0.26794919
 31
0.0
  0
LINE
  5
40
330
3C
100
AcDbEntity
  8
0
  6
ByBlock
 62
     0
370
    -2
100
AcDbLine
 10
0.0
 20
0.0
 30
0.0
 11
-1.0
 21
0.0
 31
0.0
  0
ENDBLK
  5
41
330
3C
100
AcDbEntity
  8
0
100
AcDbBlockEnd
  0
BLOCK
  5
22B
330
22A
100
AcDbEntity
  8
0
100
AcDbBlockBegin
  2
*D11
 70
     1
 10
0.0
 20
0.0
 30
0.0
  3
*D11
  1

  0
LINE
  5
22C
330
22A
100
AcDbEntity
  8
TEXT
100
AcDbLine
 10
3232.0
 20
87.0
 30
0.0
 11
3206.0
 21
87.00000000000001
 31
0.0
  0
LINE
  5
22D
330
22A
100
AcDbEntity
  8
TEXT
100
AcDbLine
 10
3232.0
 20
107.0
 30
0.0
 11
3206.0
 21
107.0
 31
0.0
  0
LINE
  5
22E
330
22A
100
AcDbEntity
  8
TEXT
100
AcDbLine
 10
3207.0
 20
90.00000000000001
 30
0.0
 11
3207.0
 21
104.0
 31
0.0
  0
SOLID
  5
22F
330
22A
100
AcDbEntity
  8
TEXT
100
AcDbTrace
 10
3206.5
 20
90.00000000000001
 30
0.0
 11
3207.5
 21
90.00000000000001
 31
0.0
 12
3207.0
 22
87.00000000000001
 32
0.0
 13
3207.0
 23
87.00000000000001
 33
0.0
  0
SOLID
  5
230
330
22A
100
AcDbEntity
  8
TEXT
100
AcDbTrace
 10
3206.5
 20
104.0
 30
0.0
 11
3207.5
 21
104.0
 31
0.0
 12
3207.0
 22
107.0
 32
0.0
 13
3207.0
 23
107.0
 33
0.0
  0
MTEXT
  5
231
330
22A
100
AcDbEntity
  8
TEXT
100
AcDbMText
 10
3204.5
 20
97.00000000000052
 30
0.0
 40
3.0
 41
0.0
 71
     5
 72
     1
  1
\A1;%%C20
  7
GHS
 11
0.0000000000000001
 21
1.0
 31
0.0
 73
     1
 44
1.0
  0
POINT
  5
232
330
22A
100
AcDbEntity
  8
DEFPOINTS
 62
     0
100
AcDbPoint
 10
3233.0
 20
87.0
 30
0.0
  0
POINT
  5
233
330
22A
100
AcDbEntity
  8
DEFPOINTS
 62
     0
100
AcDbPoint
 10
3233.0
 20
107.0
 30
0.0
  0
POINT
  5
234
330
22A
100
AcDbEntity
  8
DEFPOINTS
 62
     0
100
AcDbPoint
 10
3207.0
 20
107.0
 30
0.0
  0
ENDBLK
  5
235
330
22A
100
AcDbEntity
  8
0
100
AcDbBlockEnd
  0
BLOCK
  5
25A
330
259
100
AcDbEntity
  8
0
100
AcDbBlockBegin
  2
*D12
 70
     1
 10
0.0
 20
0.0
 30
0.0
  3
*D12
  1

  0
LINE
  5
25B
330
259
100
AcDbEntity
  8
TEXT
100
AcDbLine
 10
3313.0
 20
114.5
 30
0.0
 11
3266.0
 21
114.5
 31
0.0
  0
LINE
  5
25C
330
259
100
AcDbEntity
  8
TEXT
100
AcDbLine
 10
3313.0
 20
79.5
 30
0.0
 11
3266.0
 21
79.50000000000001
 31
0.0
  0
LINE
  5
25D
330
259
100
AcDbEntity
  8
TEXT
100
AcDbLine
 10
3267.0
 20
111.5
 30
0.0
 11
3267.0
 21
82.50000000000001
 31
0.0
  0
SOLID
  5
25E
330
259
100
AcDbEntity
  8
TEXT
100
AcDbTrace
 10
3266.5
 20
111.5
 30
0.0
 11
3267.5
 21
111.5
 31
0.0
 12
3267.0
 22
114.5
 32
0.0
 13
3267.0
 23
114.5
 33
0.0
  0
SOLID
  5
25F
330
259
100
AcDbEntity
  8
TEXT
100
AcDbTrace
 10
3266.5
 20
82.50000000000001
 30
0.0
 11
3267.5
 21
82.50000000000001
 31
0.0
 12
3267.0
 22
79.50000000000001
 32
0.0
 13
3267.0
 23
79.50000000000001
 33
0.0
  0
MTEXT
  5
260
330
259
100
AcDbEntity
  8
TEXT
100
AcDbMText
 10
3264.5
 20
97.00000000000054
 30
0.0
 40
3.0
 41
0.0
 71
     5
 72
     1
  1
\A1;%%C35
  7
GHS
 11
0.0000000000000001
 21
1.0
 31
0.0
 73
     1
 44
1.0
  0
POINT
  5
261
330
259
100
AcDbEntity
  8
DEFPOINTS
 62
     0
100
AcDbPoint
 10
3314.0
 20
114.5
 30
0.0
  0
POINT
  5
262
330
259
100
AcDbEntity
  8
DEFPOINTS
 62
     0
100
AcDbPoint
 10
3314.0
 20
79.5
 30
0.0
  0
POINT
  5
263
330
259
100
AcDbEntity
  8
DEFPOINTS
 62
     0
100
AcDbPoint
 10
3267.0
 20
79.50000000000001
 30
0.0
  0
ENDBLK
  5
264
330
259
100
AcDbEntity
  8
0
100
AcDbBlockEnd
  0
BLOCK
  5
23C
330
23B
100
AcDbEntity
  8
0
100
AcDbBlockBegin
  2
*D13
 70
     1
 10
0.0
 20
0.0
 30
0.0
  3
*D13
  1

  0
LINE
  5
23D
330
23B
100
AcDbEntity
  8
TEXT
100
AcDbLine
 10
3293.200000000001
 20
94.0
 30
0.0
 11
3282.0
 21
94.0
 31
0.0
  0
LINE
  5
23E
330
23B
100
AcDbEntity
  8
TEXT
100
AcDbLine
 10
3292.700000000001
 20
99.50000000000001
 30
0.0
 11
3282.0
 21
99.50000000000001
 31
0.0
  0
LINE
  5
23F
330
23B
100
AcDbEntity
  8
TEXT
100
AcDbLine
 10
3283.0
 20
91.0
 30
0.0
 11
3283.0
 21
88.0
 31
0.0
  0
LINE
  5
240
330
23B
100
AcDbEntity
  8
TEXT
100
AcDbLine
 10
3283.0
 20
102.5
 30
0.0
 11
3283.0
 21
105.5
 31
0.0
  0
LINE
  5
241
330
23B
100
AcDbEntity
  8
TEXT
100
AcDbLine
 10
3283.0
 20
94.0
 30
0.0
 11
3283.0
 21
99.50000000000001
 31
0.0
  0
SOLID
  5
242
330
23B
100
AcDbEntity
  8
TEXT
100
AcDbTrace
 10
3282.500000000001
 20
91.0
 30
0.0
 11
3283.5
 21
91.0
 31
0.0
 12
3283.0
 22
94.0
 32
0.0
 13
3283.0
 23
94.0
 33
0.0
  0
SOLID
  5
243
330
23B
100
AcDbEntity
  8
TEXT
100
AcDbTrace
 10
3282.500000000001
 20
102.5
 30
0.0
 11
3283.5
 21
102.5
 31
0.0
 12
3283.0
 22
99.50000000000001
 32
0.0
 13
3283.0
 23
99.50000000000001
 33
0.0
  0
MTEXT
  5
244
330
23B
100
AcDbEntity
  8
TEXT
100
AcDbMText
 10
3280.5
 20
96.75000000000054
 30
0.0
 40
3.0
 41
0.0
 71
     5
 72
     1
  1
\A1;5.5
  7
GHS
 11
0.0000000000000001
 21
1.0
 31
0.0
 73
     1
 44
1.0
  0
POINT
  5
245
330
23B
100
AcDbEntity
  8
DEFPOINTS
 62
     0
100
AcDbPoint
 10
3294.200000000001
 20
94.0
 30
0.0
  0
POINT
  5
246
330
23B
100
AcDbEntity
  8
DEFPOINTS
 62
     0
100
AcDbPoint
 10
3293.700000000001
 20
99.50000000000001
 30
0.0
  0
POINT
  5
247
330
23B
100
AcDbEntity
  8
DEFPOINTS
 62
     0
100
AcDbPoint
 10
3283.0
 20
99.50000000000001
 30
0.0
  0
ENDBLK
  5
248
330
23B
100
AcDbEntity
  8
0
100
AcDbBlockEnd
  0
BLOCK
  5
24B
330
24A
100
AcDbEntity
  8
0
100
AcDbBlockBegin
  2
*D14
 70
     1
 10
0.0
 20
0.0
 30
0.0
  3
*D14
  1

  0
LINE
  5
24C
330
24A
100
AcDbEntity
  8
TEXT
100
AcDbLine
 10
3293.200000000001
 20
94.0
 30
0.0
 11
3274.0
 21
94.0
 31
0.0
  0
LINE
  5
24D
330
24A
100
AcDbEntity
  8
TEXT
100
AcDbLine
 10
3304.700000000001
 20
100.0
 30
0.0
 11
3274.0
 21
100.0
 31
0.0
  0
LINE
  5
24E
330
24A
100
AcDbEntity
  8
TEXT
100
AcDbLine
 10
3275.0
 20
91.0
 30
0.0
 11
3275.0
 21
88.0
 31
0.0
  0
LINE
  5
24F
330
24A
100
AcDbEntity
  8
TEXT
100
AcDbLine
 10
3275.0
 20
103.0
 30
0.0
 11
3275.0
 21
106.0
 31
0.0
  0
LINE
  5
250
330
24A
100
AcDbEntity
  8
TEXT
100
AcDbLine
 10
3275.0
 20
94.0
 30
0.0
 11
3275.0
 21
100.0
 31
0.0
  0
SOLID
  5
251
330
24A
100
AcDbEntity
  8
TEXT
100
AcDbTrace
 10
3274.5
 20
91.0
 30
0.0
 11
3275.5
 21
91.0
 31
0.0
 12
3275.0
 22
94.0
 32
0.0
 13
3275.0
 23
94.0
 33
0.0
  0
SOLID
  5
252
330
24A
100
AcDbEntity
  8
TEXT
100
AcDbTrace
 10
3274.5
 20
103.0
 30
0.0
 11
3275.5
 21
103.0
 31
0.0
 12
3275.0
 22
100.0
 32
0.0
 13
3275.0
 23
100.0
 33
0.0
  0
MTEXT
  5
253
330
24A
100
AcDbEntity
  8
TEXT
100
AcDbMText
 10
3272.5
 20
97.00000000000054
 30
0.0
 40
3.0
 41
0.0
 71
     5
 72
     1
  1
\A1;%%C6
  7
GHS
 11
0.0000000000000001
 21
1.0
 31
0.0
 73
     1
 44
1.0
  0
POINT
  5
254
330
24A
100
AcDbEntity
  8
DEFPOINTS
 62
     0
100
AcDbPoint
 10
3294.200000000001
 20
94.0
 30
0.0
  0
POINT
  5
255
330
24A
100
AcDbEntity
  8
DEFPOINTS
 62
     0
100
AcDbPoint
 10
3305.700000000001
 20
100.0
 30
0.0
  0
POINT
  5
256
330
24A
100
AcDbEntity
  8
DEFPOINTS
 62
     0
100
AcDbPoint
 10
3275.0
 20
100.0
 30
0.0
  0
ENDBLK
  5
257
330
24A
100
AcDbEntity
  8
0
100
AcDbBlockEnd
  0
ENDSEC
  0
SECTION
  2
ENTITIES
  0
LINE
  5
86
330
2
100
AcDbEntity
  8
CL
100
AcDbLine
 10
3290.700000000001
 20
97.0
 30
0.0
 11
3386.9
 21
97.0
 31
0.0
  0
LINE
  5
8B
330
2
100
AcDbEntity
  8
0
100
AcDbLine
 10
3313.3
 20
94.69999999999982
 30
0.0
 11
3316.5
 21
94.70000000000027
 31
0.0
  0
LINE
  5
8C
330
2
100
AcDbEntity
  8
0
100
AcDbLine
 10
3313.3
 20
99.29999999999928
 30
0.0
 11
3316.5
 21
99.29999999999973
 31
0.0
  0
LINE
  5
8D
330
2
100
AcDbEntity
  8
0
100
AcDbLine
 10
3308.700000000001
 20
91.5
 30
0.0
 11
3309.3
 21
91.5
 31
0.0
  0
LINE
  5
8E
330
2
100
AcDbEntity
  8
0
100
AcDbLine
 10
3309.5
 20
103.9000000000001
 30
0.0
 11
3310.0
 21
103.9000000000001
 31
0.0
  0
LINE
  5
8F
330
2
100
AcDbEntity
  8
0
100
AcDbLine
 10
3309.5
 20
90.0999999999999
 30
0.0
 11
3310.0
 21
90.0999999999999
 31
0.0
  0
LINE
  5
90
330
2
100
AcDbEntity
  8
0
100
AcDbLine
 10
3310.500000000001
 20
87.0
 30
0.0
 11
3313.0
 21
87.0
 31
0.0
  0
LINE
  5
91
330
2
100
AcDbEntity
  8
0
100
AcDbLine
 10
3310.0
 20
97.0
 30
0.0
 11
3310.0
 21
87.5
 31
0.0
  0
LINE
  5
92
330
2
100
AcDbEntity
  8
0
100
AcDbLine
 10
3309.5
 20
97.0
 30
0.0
 11
3309.5
 21
90.0999999999999
 31
0.0
  0
ARC
  5
93
330
2
100
AcDbEntity
  8
0
100
AcDbCircle
 10
3310.500000000001
 20
87.5
 30
0.0
 40
0.5
100
AcDbArc
 50
180.0
 51
270.0
  0
LINE
  5
94
330
2
100
AcDbEntity
  8
0
100
AcDbLine
 10
3313.0
 20
80.5
 30
0.0
 11
3313.0
 21
113.5
 31
0.0
  0
LINE
  5
95
330
2
100
AcDbEntity
  8
0
100
AcDbLine
 10
3316.5
 20
94.70000000000027
 30
0.0
 11
3316.5
 21
99.30000000000019
 31
0.0
  0
ARC
  5
96
330
2
100
AcDbEntity
  8
0
100
AcDbCircle
 10
3314.0
 20
80.5
 30
0.0
 40
1.0
100
AcDbArc
 50
180.0
 51
270.0
  0
LINE
  5
97
330
2
100
AcDbEntity
  8
0
100
AcDbLine
 10
3314.0
 20
79.5
 30
0.0
 11
3347.900000000001
 21
79.5
 31
0.0
  0
LINE
  5
98
330
2
100
AcDbEntity
  8
0
100
AcDbLine
 10
3310.500000000001
 20
107.0
 30
0.0
 11
3313.0
 21
107.0
 31
0.0
  0
LINE
  5
99
330
2
100
AcDbEntity
  8
0
100
AcDbLine
 10
3310.0
 20
97.0
 30
0.0
 11
3310.0
 21
106.5
 31
0.0
  0
LINE
  5
9A
330
2
100
AcDbEntity
  8
0
100
AcDbLine
 10
3293.700000000001
 20
94.50000000000001
 30
0.0
 11
3293.700000000001
 21
99.50000000000001
 31
0.0
  0
LINE
  5
9B
330
2
100
AcDbEntity
  8
0
100
AcDbLine
 10
3305.700000000001
 20
99.50000000000001
 30
0.0
 11
3305.700000000001
 21
100.0
 31
0.0
  0
LINE
  5
9C
330
2
100
AcDbEntity
  8
0
100
AcDbLine
 10
3294.200000000001
 20
94.0
 30
0.0
 11
3294.200000000001
 21
99.50000000000001
 31
0.0
  0
ARC
  5
9D
330
2
100
AcDbEntity
  8
0
100
AcDbCircle
 10
3310.500000000001
 20
106.5
 30
0.0
 40
0.5
100
AcDbArc
 50
90.0
 51
180.0
  0
ARC
  5
9E
330
2
100
AcDbEntity
  8
0
100
AcDbCircle
 10
3314.0
 20
113.5
 30
0.0
 40
1.0
100
AcDbArc
 50
90.0
 51
180.0
  0
LINE
  5
9F
330
2
100
AcDbEntity
  8
0
100
AcDbLine
 10
3314.0
 20
114.5
 30
0.0
 11
3321.0
 21
114.5
 31
0.0
  0
LINE
  5
A0
330
2
100
AcDbEntity
  8
CL
100
AcDbLine
 10
3213.5
 20
97.0
 30
0.0
 11
3252.5
 21
97.0
 31
0.0
  0
LINE
  5
A1
330
2
100
AcDbEntity
  8
0
100
AcDbLine
 10
3215.651801246238
 20
94.69999999999982
 30
0.0
 11
3218.500000000001
 21
94.69999999999982
 31
0.0
  0
LINE
  5
A2
330
2
100
AcDbEntity
  8
0
100
AcDbLine
 10
3215.651801246238
 20
99.29999999999973
 30
0.0
 11
3218.500000000001
 21
99.30000000000019
 31
0.0
  0
LINE
  5
A3
330
2
100
AcDbEntity
  8
CL
100
AcDbLine
 10
3233.0
 20
77.5
 30
0.0
 11
3233.0
 21
116.5
 31
0.0
  0
LINE
  5
A4
330
2
100
AcDbEntity
  8
0
100
AcDbLine
 10
3242.0
 20
92.64110105645931
 30
0.0
 11
3242.0
 21
101.3588989435407
 31
0.0
  0
LINE
  5
A5
330
2
100
AcDbEntity
  8
0
100
AcDbLine
 10
3224.0
 20
92.64110105645931
 30
0.0
 11
3224.0
 21
101.3588989435407
 31
0.0
  0
ARC
  5
A6
330
2
100
AcDbEntity
  8
CL
100
AcDbCircle
 10
3233.0
 20
97.0
 30
0.0
 40
13.0
100
AcDbArc
 50
119.5272399201159
 51
150.4727600799285
  0
ARC
  5
A7
330
2
100
AcDbEntity
  8
CL
100
AcDbCircle
 10
3233.0
 20
97.0
 30
0.0
 40
13.0
100
AcDbArc
 50
209.5272399200715
 51
240.4727600798841
  0
ARC
  5
A8
330
2
100
AcDbEntity
  8
CL
100
AcDbCircle
 10
3233.0
 20
97.0
 30
0.0
 40
13.0
100
AcDbArc
 50
299.5272399201159
 51
330.4727600799286
  0
ARC
  5
A9
330
2
100
AcDbEntity
  8
CL
100
AcDbCircle
 10
3233.0
 20
97.0
 30
0.0
 40
13.0
100
AcDbArc
 50
29.52723992007147
 51
60.47276007988408
  0
ARC
  5
AA
330
2
100
AcDbEntity
  8
0
100
AcDbCircle
 10
3233.0
 20
97.0
 30
0.0
 40
10.0
100
AcDbArc
 50
205.8419327631833
 51
334.1580672368167
  0
ARC
  5
AB
330
2
100
AcDbEntity
  8
0
100
AcDbCircle
 10
3233.0
 20
97.0
 30
0.0
 40
10.0
100
AcDbArc
 50
25.84193276318331
 51
154.1580672368167
  0
CIRCLE
  5
AC
330
2
100
AcDbEntity
  8
0
100
AcDbCircle
 10
3233.0
 20
97.0
 30
0.0
 40
3.0
  0
CIRCLE
  5
AD
330
2
100
AcDbEntity
  8
0
100
AcDbCircle
 10
3233.0
 20
97.0
 30
0.0
 40
2.5
  0
CIRCLE
  5
AE
330
2
100
AcDbEntity
  8
0
100
AcDbCircle
 10
3233.0
 20
97.0
 30
0.0
 40
7.5
  0
CIRCLE
  5
AF
330
2
100
AcDbEntity
  8
0
100
AcDbCircle
 10
3242.192388155425
 20
106.1923881554248
 30
0.0
 40
1.7
  0
ARC
  5
B0
330
2
100
AcDbEntity
  8
0
100
AcDbCircle
 10
3242.192388155425
 20
106.1923881554248
 30
0.0
 40
1.5
100
AcDbArc
 50
259.878861153134
 51
190.2121249084073
  0
CIRCLE
  5
B1
330
2
100
AcDbEntity
  8
0
100
AcDbCircle
 10
3242.192388155425
 20
106.1923881554248
 30
0.0
 40
1.199999999999999
  0
LINE
  5
B2
330
2
100
AcDbEntity
  8
CL
100
AcDbLine
 10
3221.332738110421
 20
108.6672618895782
 30
0.0
 11
3226.282485578728
 21
103.7175144212724
 31
0.0
  0
LINE
  5
B3
330
2
100
AcDbEntity
  8
CL
100
AcDbLine
 10
3244.667261889579
 20
85.33273811042182
 30
0.0
 11
3239.717514421272
 21
90.28248557872757
 31
0.0
  0
LINE
  5
B4
330
2
100
AcDbEntity
  8
CL
100
AcDbLine
 10
3221.332738110421
 20
85.33273811042182
 30
0.0
 11
3226.282485578728
 21
90.28248557872757
 31
0.0
  0
CIRCLE
  5
B5
330
2
100
AcDbEntity
  8
0
100
AcDbCircle
 10
3223.807611844576
 20
106.1923881554248
 30
0.0
 40
1.7
  0
ARC
  5
B6
330
2
100
AcDbEntity
  8
0
100
AcDbCircle
 10
3223.807611844576
 20
106.1923881554248
 30
0.0
 40
1.5
100
AcDbArc
 50
259.878861153134
 51
190.2121249084073
  0
CIRCLE
  5
B7
330
2
100
AcDbEntity
  8
0
100
AcDbCircle
 10
3223.807611844576
 20
106.1923881554248
 30
0.0
 40
1.199999999999999
  0
CIRCLE
  5
B8
330
2
100
AcDbEntity
  8
0
100
AcDbCircle
 10
3223.807611844576
 20
87.80761184457469
 30
0.0
 40
1.7
  0
ARC
  5
B9
330
2
100
AcDbEntity
  8
0
100
AcDbCircle
 10
3223.807611844576
 20
87.80761184457469
 30
0.0
 40
1.5
100
AcDbArc
 50
259.878861153134
 51
190.2121249084073
  0
CIRCLE
  5
BA
330
2
100
AcDbEntity
  8
0
100
AcDbCircle
 10
3223.807611844576
 20
87.80761184457469
 30
0.0
 40
1.199999999999999
  0
CIRCLE
  5
BB
330
2
100
AcDbEntity
  8
0
100
AcDbCircle
 10
3242.192388155425
 20
87.80761184457469
 30
0.0
 40
1.7
  0
ARC
  5
BC
330
2
100
AcDbEntity
  8
0
100
AcDbCircle
 10
3242.192388155425
 20
87.80761184457469
 30
0.0
 40
1.5
100
AcDbArc
 50
259.878861153134
 51
190.2121249084073
  0
CIRCLE
  5
BD
330
2
100
AcDbEntity
  8
0
100
AcDbCircle
 10
3242.192388155425
 20
87.80761184457469
 30
0.0
 40
1.199999999999999
  0
ARC
  5
BE
330
2
100
AcDbEntity
  8
0
100
AcDbCircle
 10
3218.500000000001
 20
97.0
 30
0.0
 40
2.299999999999999
100
AcDbArc
 50
270.0
 51
90.0
  0
LINE
  5
BF
330
2
100
AcDbEntity
  8
0
100
AcDbLine
 10
3235.3
 20
79.65180124623884
 30
0.0
 11
3235.3
 21
82.5
 31
0.0
  0
LINE
  5
C0
330
2
100
AcDbEntity
  8
0
100
AcDbLine
 10
3230.700000000001
 20
79.65180124623884
 30
0.0
 11
3230.700000000001
 21
82.5
 31
0.0
  0
ARC
  5
C1
330
2
100
AcDbEntity
  8
0
100
AcDbCircle
 10
3233.0
 20
82.5
 30
0.0
 40
2.299999999999999
100
AcDbArc
 50
0.0
 51
180.0
  0
LINE
  5
C2
330
2
100
AcDbEntity
  8
0
100
AcDbLine
 10
3250.348198753762
 20
99.29999999999973
 30
0.0
 11
3247.5
 21
99.30000000000019
 31
0.0
  0
LINE
  5
C3
330
2
100
AcDbEntity
  8
0
100
AcDbLine
 10
3250.348198753762
 20
94.69999999999982
 30
0.0
 11
3247.5
 21
94.69999999999982
 31
0.0
  0
ARC
  5
C4
330
2
100
AcDbEntity
  8
0
100
AcDbCircle
 10
3247.5
 20
97.0
 30
0.0
 40
2.299999999999999
100
AcDbArc
 50
90.0
 51
270.0
  0
LINE
  5
C5
330
2
100
AcDbEntity
  8
0
100
AcDbLine
 10
3230.700000000001
 20
114.3481987537611
 30
0.0
 11
3230.700000000001
 21
111.5
 31
0.0
  0
LINE
  5
C6
330
2
100
AcDbEntity
  8
0
100
AcDbLine
 10
3235.3
 20
114.3481987537611
 30
0.0
 11
3235.3
 21
111.5
 31
0.0
  0
ARC
  5
C7
330
2
100
AcDbEntity
  8
0
100
AcDbCircle
 10
3233.0
 20
111.5
 30
0.0
 40
2.299999999999999
100
AcDbArc
 50
180.0
 51
0.0
  0
LINE
  5
E0
330
2
100
AcDbEntity
  8
CL
100
AcDbLine
 10
3244.667261889579
 20
108.6672618895782
 30
0.0
 11
3239.717514421272
 21
103.7175144212724
 31
0.0
  0
LINE
  5
E1
330
2
100
AcDbEntity
  8
0
100
AcDbLine
 10
3347.9
 20
114.5
 30
0.0
 11
3347.900000000001
 21
79.5
 31
0.0
  0
LINE
  5
E2
330
2
100
AcDbEntity
  8
0
100
AcDbLine
 10
3309.5
 20
94.0
 30
0.0
 11
3309.4
 21
94.0
 31
0.0
  0
LINE
  5
E3
330
2
100
AcDbEntity
  8
0
100
AcDbLine
 10
3308.700000000001
 20
94.0
 30
0.0
 11
3294.200000000001
 21
94.0
 31
0.0
  0
LINE
  5
E4
330
2
100
AcDbEntity
  8
0
100
AcDbLine
 10
3309.4
 20
94.50000000000001
 30
0.0
 11
3309.3
 21
94.50000000000001
 31
0.0
  0
LINE
  5
E5
330
2
100
AcDbEntity
  8
0
100
AcDbLine
 10
3308.700000000001
 20
100.0
 30
0.0
 11
3305.700000000001
 21
100.0
 31
0.0
  0
LINE
  5
E6
330
2
100
AcDbEntity
  8
0
100
AcDbLine
 10
3305.700000000001
 20
99.50000000000001
 30
0.0
 11
3293.700000000001
 21
99.50000000000001
 31
0.0
  0
LINE
  5
E7
330
2
100
AcDbEntity
  8
0
100
AcDbLine
 10
3294.200000000001
 20
94.0
 30
0.0
 11
3293.700000000001
 21
94.50000000000001
 31
0.0
  0
LINE
  5
E8
330
2
100
AcDbEntity
  8
0
100
AcDbLine
 10
3309.5
 20
97.0
 30
0.0
 11
3309.5
 21
103.9000000000001
 31
0.0
  0
LINE
  5
E9
330
2
100
AcDbEntity
  8
0
100
AcDbLine
 10
3308.700000000001
 20
91.5
 30
0.0
 11
3308.700000000001
 21
97.0
 31
0.0
  0
LINE
  5
EA
330
2
100
AcDbEntity
  8
0
100
AcDbLine
 10
3309.3
 20
91.5
 30
0.0
 11
3309.3
 21
97.0
 31
0.0
  0
LINE
  5
EB
330
2
100
AcDbEntity
  8
0
100
AcDbLine
 10
3308.700000000001
 20
102.5
 30
0.0
 11
3309.3
 21
102.5
 31
0.0
  0
LINE
  5
EC
330
2
100
AcDbEntity
  8
0
100
AcDbLine
 10
3309.4
 20
99.50000000000001
 30
0.0
 11
3309.3
 21
99.50000000000001
 31
0.0
  0
LINE
  5
ED
330
2
100
AcDbEntity
  8
0
100
AcDbLine
 10
3309.4
 20
100.0
 30
0.0
 11
3309.4
 21
94.0
 31
0.0
  0
LINE
  5
EE
330
2
100
AcDbEntity
  8
0
100
AcDbLine
 10
3308.700000000001
 20
102.5
 30
0.0
 11
3308.700000000001
 21
97.0
 31
0.0
  0
LINE
  5
EF
330
2
100
AcDbEntity
  8
0
100
AcDbLine
 10
3309.3
 20
102.5
 30
0.0
 11
3309.3
 21
97.0
 31
0.0
  0
LINE
  5
F0
330
2
100
AcDbEntity
  8
0
100
AcDbLine
 10
3309.5
 20
100.0
 30
0.0
 11
3309.4
 21
100.0
 31
0.0
  0
LINE
  5
F1
330
2
100
AcDbEntity
  8
0
100
AcDbLine
 10
3236.448187929913
 20
97.0
 30
0.0
 11
3236.0
 21
97.0
 31
0.0
  0
LINE
  5
F2
330
2
100
AcDbEntity
  8
0
100
AcDbLine
 10
3234.5
 20
99.59807621135315
 30
0.0
 11
3234.724093964957
 21
99.98621834432789
 31
0.0
  0
LINE
  5
F3
330
2
100
AcDbEntity
  8
0
100
AcDbLine
 10
3235.140118048825
 20
94.89764543021465
 30
0.0
 11
3235.900625712526
 21
93.26216278788479
 31
0.0
  0
LINE
  5
F4
330
2
100
AcDbEntity
  8
0
100
AcDbLine
 10
3231.5
 20
99.59807621135315
 30
0.0
 11
3231.275906035044
 21
99.98621834432789
 31
0.0
  0
LINE
  5
F5
330
2
100
AcDbEntity
  8
0
100
AcDbLine
 10
3229.551812070087
 20
97.0
 30
0.0
 11
3230.0
 21
97.0
 31
0.0
  0
LINE
  5
F6
330
2
100
AcDbEntity
  8
0
100
AcDbLine
 10
3230.859881951175
 20
94.89764543021465
 30
0.0
 11
3230.099374287475
 21
93.26216278788479
 31
0.0
  0
ARC
  5
F7
330
2
100
AcDbEntity
  8
0
100
AcDbCircle
 10
3233.0
 20
97.0
 30
0.0
 40
5.5
100
AcDbArc
 50
314.6678888984802
 51
225.3321111015198
  0
ARC
  5
F8
330
2
100
AcDbEntity
  8
0
100
AcDbCircle
 10
3233.0
 20
97.0
 30
0.0
 40
4.099999999999999
100
AcDbArc
 50
9.870889606155422
 51
50.12911039383567
  0
ARC
  5
F9
330
2
100
AcDbEntity
  8
0
100
AcDbCircle
 10
3233.0
 20
97.0
 30
0.0
 40
4.099999999999999
100
AcDbArc
 50
129.8708896061643
 51
170.1291103938445
  0
ARC
  5
FA
330
2
100
AcDbEntity
  8
0
100
AcDbCircle
 10
3236.44468152085
 20
93.51515147819828
 30
0.0
 40
0.6
100
AcDbArc
 50
204.9386648618466
 51
314.6678888984802
  0
ARC
  5
FB
330
2
100
AcDbEntity
  8
0
100
AcDbCircle
 10
3229.55531847915
 20
93.51515147819828
 30
0.0
 40
0.6
100
AcDbArc
 50
225.3321111015198
 51
335.0613351381534
  0
ARC
  5
FC
330
2
100
AcDbEntity
  8
0
100
AcDbCircle
 10
3236.448187929913
 20
97.5999999999999
 30
0.0
 40
0.6
100
AcDbArc
 50
270.0
 51
9.870889606155422
  0
ARC
  5
FD
330
2
100
AcDbEntity
  8
0
100
AcDbCircle
 10
3235.243709207227
 20
99.6862183443277
 30
0.0
 40
0.6
100
AcDbArc
 50
50.12911039383567
 51
149.999999999984
  0
ARC
  5
FE
330
2
100
AcDbEntity
  8
0
100
AcDbCircle
 10
3230.756290792773
 20
99.6862183443277
 30
0.0
 40
0.6
100
AcDbArc
 50
30.00000000001598
 51
129.8708896061643
  0
ARC
  5
FF
330
2
100
AcDbEntity
  8
0
100
AcDbCircle
 10
3229.551812070087
 20
97.5999999999999
 30
0.0
 40
0.6
100
AcDbArc
 50
170.1291103938445
 51
270.0
  0
LINE
  5
100
330
2
100
AcDbEntity
  8
0
100
AcDbLine
 10
3234.658312395179
 20
99.50000000000001
 30
0.0
 11
3231.341687604821
 21
99.50000000000001
 31
0.0
  0
CIRCLE
  5
101
330
2
100
AcDbEntity
  8
0
100
AcDbCircle
 10
3218.500000000001
 20
97.0
 30
0.0
 40
1.75
  0
ARC
  5
102
330
2
100
AcDbEntity
  8
0
100
AcDbCircle
 10
3219.0625
 20
97.56250000000001
 30
0.0
 40
0.3125
100
AcDbArc
 50
180.0
 51
270.0
  0
ARC
  5
103
330
2
100
AcDbEntity
  8
0
100
AcDbCircle
 10
3217.9375
 20
97.56250000000001
 30
0.0
 40
0.3125
100
AcDbArc
 50
270.0
 51
0.0
  0
LINE
  5
104
330
2
100
AcDbEntity
  8
0
100
AcDbLine
 10
3219.0625
 20
97.25000000000001
 30
0.0
 11
3219.5
 21
97.25000000000001
 31
0.0
  0
ARC
  5
105
330
2
100
AcDbEntity
  8
0
100
AcDbCircle
 10
3219.0625
 20
96.4375
 30
0.0
 40
0.3125
100
AcDbArc
 50
90.0
 51
180.0
  0
LINE
  5
106
330
2
100
AcDbEntity
  8
0
100
AcDbLine
 10
3219.0625
 20
96.75
 30
0.0
 11
3219.5
 21
96.75
 31
0.0
  0
LINE
  5
107
330
2
100
AcDbEntity
  8
0
100
AcDbLine
 10
3218.75
 20
96.0
 30
0.0
 11
3218.75
 21
96.4375
 31
0.0
  0
LINE
  5
108
330
2
100
AcDbEntity
  8
0
100
AcDbLine
 10
3219.5
 20
97.25000000000001
 30
0.0
 11
3219.5
 21
96.75
 31
0.0
  0
ARC
  5
109
330
2
100
AcDbEntity
  8
0
100
AcDbCircle
 10
3217.9375
 20
96.4375
 30
0.0
 40
0.3125
100
AcDbArc
 50
0.0
 51
90.0
  0
LINE
  5
10A
330
2
100
AcDbEntity
  8
0
100
AcDbLine
 10
3217.5
 20
97.25000000000001
 30
0.0
 11
3217.9375
 21
97.25000000000001
 31
0.0
  0
LINE
  5
10B
330
2
100
AcDbEntity
  8
0
100
AcDbLine
 10
3217.5
 20
96.75
 30
0.0
 11
3217.9375
 21
96.75
 31
0.0
  0
LINE
  5
10C
330
2
100
AcDbEntity
  8
0
100
AcDbLine
 10
3217.5
 20
97.25000000000001
 30
0.0
 11
3217.5
 21
96.75
 31
0.0
  0
LINE
  5
10D
330
2
100
AcDbEntity
  8
0
100
AcDbLine
 10
3218.25
 20
96.0
 30
0.0
 11
3218.25
 21
96.4375
 31
0.0
  0
LINE
  5
10E
330
2
100
AcDbEntity
  8
0
100
AcDbLine
 10
3218.25
 20
96.0
 30
0.0
 11
3218.75
 21
96.0
 31
0.0
  0
LINE
  5
10F
330
2
100
AcDbEntity
  8
0
100
AcDbLine
 10
3218.75
 20
97.56250000000001
 30
0.0
 11
3218.75
 21
98.0
 31
0.0
  0
LINE
  5
110
330
2
100
AcDbEntity
  8
0
100
AcDbLine
 10
3218.25
 20
97.56250000000001
 30
0.0
 11
3218.25
 21
98.0
 31
0.0
  0
LINE
  5
111
330
2
100
AcDbEntity
  8
0
100
AcDbLine
 10
3218.25
 20
98.0
 30
0.0
 11
3218.75
 21
98.0
 31
0.0
  0
CIRCLE
  5
112
330
2
100
AcDbEntity
  8
0
100
AcDbCircle
 10
3233.0
 20
82.5
 30
0.0
 40
1.75
  0
ARC
  5
113
330
2
100
AcDbEntity
  8
0
100
AcDbCircle
 10
3233.5625
 20
83.0625
 30
0.0
 40
0.3125
100
AcDbArc
 50
180.0
 51
270.0
  0
ARC
  5
114
330
2
100
AcDbEntity
  8
0
100
AcDbCircle
 10
3232.4375
 20
83.0625
 30
0.0
 40
0.3125
100
AcDbArc
 50
270.0
 51
0.0
  0
LINE
  5
115
330
2
100
AcDbEntity
  8
0
100
AcDbLine
 10
3233.5625
 20
82.75
 30
0.0
 11
3234.0
 21
82.75
 31
0.0
  0
ARC
  5
116
330
2
100
AcDbEntity
  8
0
100
AcDbCircle
 10
3233.5625
 20
81.93749999999999
 30
0.0
 40
0.3125
100
AcDbArc
 50
90.0
 51
180.0
  0
LINE
  5
117
330
2
100
AcDbEntity
  8
0
100
AcDbLine
 10
3233.5625
 20
82.24999999999999
 30
0.0
 11
3234.0
 21
82.24999999999999
 31
0.0
  0
LINE
  5
118
330
2
100
AcDbEntity
  8
0
100
AcDbLine
 10
3233.25
 20
81.5
 30
0.0
 11
3233.25
 21
81.93749999999999
 31
0.0
  0
LINE
  5
119
330
2
100
AcDbEntity
  8
0
100
AcDbLine
 10
3234.0
 20
82.75
 30
0.0
 11
3234.0
 21
82.24999999999999
 31
0.0
  0
ARC
  5
11A
330
2
100
AcDbEntity
  8
0
100
AcDbCircle
 10
3232.4375
 20
81.93749999999999
 30
0.0
 40
0.3125
100
AcDbArc
 50
0.0
 51
90.0
  0
LINE
  5
11B
330
2
100
AcDbEntity
  8
0
100
AcDbLine
 10
3232.0
 20
82.75
 30
0.0
 11
3232.4375
 21
82.75
 31
0.0
  0
LINE
  5
11C
330
2
100
AcDbEntity
  8
0
100
AcDbLine
 10
3232.0
 20
82.24999999999999
 30
0.0
 11
3232.4375
 21
82.24999999999999
 31
0.0
  0
LINE
  5
11D
330
2
100
AcDbEntity
  8
0
100
AcDbLine
 10
3232.0
 20
82.75
 30
0.0
 11
3232.0
 21
82.24999999999999
 31
0.0
  0
LINE
  5
11E
330
2
100
AcDbEntity
  8
0
100
AcDbLine
 10
3232.75
 20
81.5
 30
0.0
 11
3232.75
 21
81.93749999999999
 31
0.0
  0
LINE
  5
11F
330
2
100
AcDbEntity
  8
0
100
AcDbLine
 10
3232.75
 20
81.5
 30
0.0
 11
3233.25
 21
81.5
 31
0.0
  0
LINE
  5
120
330
2
100
AcDbEntity
  8
0
100
AcDbLine
 10
3233.25
 20
83.0625
 30
0.0
 11
3233.25
 21
83.49999999999999
 31
0.0
  0
LINE
  5
121
330
2
100
AcDbEntity
  8
0
100
AcDbLine
 10
3232.75
 20
83.0625
 30
0.0
 11
3232.75
 21
83.49999999999999
 31
0.0
  0
LINE
  5
122
330
2
100
AcDbEntity
  8
0
100
AcDbLine
 10
3232.75
 20
83.49999999999999
 30
0.0
 11
3233.25
 21
83.49999999999999
 31
0.0
  0
CIRCLE
  5
123
330
2
100
AcDbEntity
  8
0
100
AcDbCircle
 10
3247.5
 20
97.0
 30
0.0
 40
1.75
  0
ARC
  5
124
330
2
100
AcDbEntity
  8
0
100
AcDbCircle
 10
3248.0625
 20
97.56250000000001
 30
0.0
 40
0.3125
100
AcDbArc
 50
180.0
 51
270.0
  0
ARC
  5
125
330
2
100
AcDbEntity
  8
0
100
AcDbCircle
 10
3246.9375
 20
97.56250000000001
 30
0.0
 40
0.3125
100
AcDbArc
 50
270.0
 51
0.0
  0
LINE
  5
126
330
2
100
AcDbEntity
  8
0
100
AcDbLine
 10
3248.0625
 20
97.25000000000001
 30
0.0
 11
3248.5
 21
97.25000000000001
 31
0.0
  0
ARC
  5
127
330
2
100
AcDbEntity
  8
0
100
AcDbCircle
 10
3248.0625
 20
96.4375
 30
0.0
 40
0.3125
100
AcDbArc
 50
90.0
 51
180.0
  0
LINE
  5
128
330
2
100
AcDbEntity
  8
0
100
AcDbLine
 10
3248.0625
 20
96.75
 30
0.0
 11
3248.5
 21
96.75
 31
0.0
  0
LINE
  5
129
330
2
100
AcDbEntity
  8
0
100
AcDbLine
 10
3247.75
 20
96.0
 30
0.0
 11
3247.75
 21
96.4375
 31
0.0
  0
LINE
  5
12A
330
2
100
AcDbEntity
  8
0
100
AcDbLine
 10
3248.5
 20
97.25000000000001
 30
0.0
 11
3248.5
 21
96.75
 31
0.0
  0
ARC
  5
12B
330
2
100
AcDbEntity
  8
0
100
AcDbCircle
 10
3246.9375
 20
96.4375
 30
0.0
 40
0.3125
100
AcDbArc
 50
0.0
 51
90.0
  0
LINE
  5
12C
330
2
100
AcDbEntity
  8
0
100
AcDbLine
 10
3246.500000000001
 20
97.25000000000001
 30
0.0
 11
3246.9375
 21
97.25000000000001
 31
0.0
  0
LINE
  5
12D
330
2
100
AcDbEntity
  8
0
100
AcDbLine
 10
3246.500000000001
 20
96.75
 30
0.0
 11
3246.9375
 21
96.75
 31
0.0
  0
LINE
  5
12E
330
2
100
AcDbEntity
  8
0
100
AcDbLine
 10
3246.500000000001
 20
97.25000000000001
 30
0.0
 11
3246.500000000001
 21
96.75
 31
0.0
  0
LINE
  5
12F
330
2
100
AcDbEntity
  8
0
100
AcDbLine
 10
3247.250000000001
 20
96.0
 30
0.0
 11
3247.250000000001
 21
96.4375
 31
0.0
  0
LINE
  5
130
330
2
100
AcDbEntity
  8
0
100
AcDbLine
 10
3247.250000000001
 20
96.0
 30
0.0
 11
3247.75
 21
96.0
 31
0.0
  0
LINE
  5
131
330
2
100
AcDbEntity
  8
0
100
AcDbLine
 10
3247.75
 20
97.56250000000001
 30
0.0
 11
3247.75
 21
98.0
 31
0.0
  0
LINE
  5
132
330
2
100
AcDbEntity
  8
0
100
AcDbLine
 10
3247.250000000001
 20
97.56250000000001
 30
0.0
 11
3247.250000000001
 21
98.0
 31
0.0
  0
LINE
  5
133
330
2
100
AcDbEntity
  8
0
100
AcDbLine
 10
3247.250000000001
 20
98.0
 30
0.0
 11
3247.75
 21
98.0
 31
0.0
  0
CIRCLE
  5
134
330
2
100
AcDbEntity
  8
0
100
AcDbCircle
 10
3233.0
 20
111.5
 30
0.0
 40
1.75
  0
ARC
  5
135
330
2
100
AcDbEntity
  8
0
100
AcDbCircle
 10
3233.5625
 20
112.0625
 30
0.0
 40
0.3125
100
AcDbArc
 50
180.0
 51
270.0
  0
ARC
  5
136
330
2
100
AcDbEntity
  8
0
100
AcDbCircle
 10
3232.4375
 20
112.0625
 30
0.0
 40
0.3125
100
AcDbArc
 50
270.0
 51
0.0
  0
LINE
  5
137
330
2
100
AcDbEntity
  8
0
100
AcDbLine
 10
3233.5625
 20
111.75
 30
0.0
 11
3234.0
 21
111.75
 31
0.0
  0
ARC
  5
138
330
2
100
AcDbEntity
  8
0
100
AcDbCircle
 10
3233.5625
 20
110.9375
 30
0.0
 40
0.3125
100
AcDbArc
 50
90.0
 51
180.0
  0
LINE
  5
139
330
2
100
AcDbEntity
  8
0
100
AcDbLine
 10
3233.5625
 20
111.25
 30
0.0
 11
3234.0
 21
111.25
 31
0.0
  0
LINE
  5
13A
330
2
100
AcDbEntity
  8
0
100
AcDbLine
 10
3233.25
 20
110.5
 30
0.0
 11
3233.25
 21
110.9375
 31
0.0
  0
LINE
  5
13B
330
2
100
AcDbEntity
  8
0
100
AcDbLine
 10
3234.0
 20
111.75
 30
0.0
 11
3234.0
 21
111.25
 31
0.0
  0
ARC
  5
13C
330
2
100
AcDbEntity
  8
0
100
AcDbCircle
 10
3232.4375
 20
110.9375
 30
0.0
 40
0.3125
100
AcDbArc
 50
0.0
 51
90.0
  0
LINE
  5
13D
330
2
100
AcDbEntity
  8
0
100
AcDbLine
 10
3232.0
 20
111.75
 30
0.0
 11
3232.4375
 21
111.75
 31
0.0
  0
LINE
  5
13E
330
2
100
AcDbEntity
  8
0
100
AcDbLine
 10
3232.0
 20
111.25
 30
0.0
 11
3232.4375
 21
111.25
 31
0.0
  0
LINE
  5
13F
330
2
100
AcDbEntity
  8
0
100
AcDbLine
 10
3232.0
 20
111.75
 30
0.0
 11
3232.0
 21
111.25
 31
0.0
  0
LINE
  5
140
330
2
100
AcDbEntity
  8
0
100
AcDbLine
 10
3232.75
 20
110.5
 30
0.0
 11
3232.75
 21
110.9375
 31
0.0
  0
LINE
  5
141
330
2
100
AcDbEntity
  8
0
100
AcDbLine
 10
3232.75
 20
110.5
 30
0.0
 11
3233.25
 21
110.5
 31
0.0
  0
LINE
  5
142
330
2
100
AcDbEntity
  8
0
100
AcDbLine
 10
3233.25
 20
112.0625
 30
0.0
 11
3233.25
 21
112.5
 31
0.0
  0
LINE
  5
143
330
2
100
AcDbEntity
  8
0
100
AcDbLine
 10
3232.75
 20
112.0625
 30
0.0
 11
3232.75
 21
112.5
 31
0.0
  0
LINE
  5
144
330
2
100
AcDbEntity
  8
0
100
AcDbLine
 10
3232.75
 20
112.5
 30
0.0
 11
3233.25
 21
112.5
 31
0.0
  0
LINE
  5
145
330
2
100
AcDbEntity
  8
0
100
AcDbLine
 10
3342.400000000001
 20
114.5
 30
0.0
 11
3347.900000000001
 21
114.5
 31
0.0
  0
LINE
  5
146
330
2
100
AcDbEntity
  8
0
100
AcDbLine
 10
3321.000000000007
 20
79.5
 30
0.0
 11
3321.0
 21
114.5
 31
0.0
  0
LINE
  5
147
330
2
100
AcDbEntity
  8
0
100
AcDbLine
 10
3342.4
 20
79.5
 30
0.0
 11
3342.4
 21
114.5
 31
0.0
  0
LINE
  5
148
330
2
100
AcDbEntity
  8
0
100
AcDbLine
 10
3342.400000000001
 20
114.5
 30
0.0
 11
3321.0
 21
114.5
 31
0.0
  0
CIRCLE
  5
149
330
2
100
AcDbEntity
  8
0
100
AcDbCircle
 10
3233.0
 20
97.0
 30
0.0
 40
17.5
  0
ARC
  5
14A
330
2
100
AcDbEntity
  8
CL
100
AcDbCircle
 10
3233.0
 20
97.0
 30
0.0
 40
14.5
100
AcDbArc
 50
166.1361876048279
 51
193.863812395172
  0
ARC
  5
14B
330
2
100
AcDbEntity
  8
CL
100
AcDbCircle
 10
3233.0
 20
97.0
 30
0.0
 40
14.5
100
AcDbArc
 50
256.1361876048642
 51
283.8638123951358
  0
ARC
  5
14C
330
2
100
AcDbEntity
  8
CL
100
AcDbCircle
 10
3233.0
 20
97.0
 30
0.0
 40
14.5
100
AcDbArc
 50
346.1361876048279
 51
13.86381239517206
  0
ARC
  5
14D
330
2
100
AcDbEntity
  8
CL
100
AcDbCircle
 10
3233.0
 20
97.0
 30
0.0
 40
14.5
100
AcDbArc
 50
76.13618760486428
 51
103.8638123951357
  0
TEXT
  5
14E
330
2
100
AcDbEntity
  8
TEXT
100
AcDbText
 10
3307.0
 20
129.0
 30
0.0
 40
2.0
  1
%%P0.5
 41
0.6
  7
GHS
100
AcDbText
  0
LINE
  5
14F
330
2
100
AcDbEntity
  8
0
100
AcDbLine
 10
3324.687352613706
 20
114.5
 30
0.0
 11
3324.687352613706
 21
108.9601732168494
 31
0.0
  0
LINE
  5
150
330
2
100
AcDbEntity
  8
0
100
AcDbLine
 10
3337.687352613706
 20
114.4809049241667
 30
0.0
 11
3337.687352613706
 21
108.9601732168494
 31
0.0
  0
LINE
  5
151
330
2
100
AcDbEntity
  8
0
100
AcDbLine
 10
3337.687352613706
 20
108.9601732168494
 30
0.0
 11
3324.687352613706
 21
108.9601732168494
 31
0.0
  0
LINE
  5
152
330
2
100
AcDbEntity
  8
0
100
AcDbLine
 10
3316.5
 20
95.25
 30
0.0
 11
3316.5
 21
98.75
 31
0.0
  0
ARC
  5
153
330
2
100
AcDbEntity
  8
0
100
AcDbCircle
 10
3316.0
 20
96.0
 30
0.0
 40
0.75
100
AcDbArc
 50
180.0
 51
270.0
  0
LINE
  5
154
330
2
100
AcDbEntity
  8
0
100
AcDbLine
 10
3315.250000000001
 20
96.0
 30
0.0
 11
3315.250000000001
 21
98.0
 31
0.0
  0
LINE
  5
155
330
2
100
AcDbEntity
  8
0
100
AcDbLine
 10
3316.5
 20
98.75
 30
0.0
 11
3316.0
 21
98.75
 31
0.0
  0
ARC
  5
156
330
2
100
AcDbEntity
  8
0
100
AcDbCircle
 10
3316.0
 20
98.0
 30
0.0
 40
0.75
100
AcDbArc
 50
90.0
 51
180.0
  0
LINE
  5
157
330
2
100
AcDbEntity
  8
0
100
AcDbLine
 10
3316.5
 20
95.25
 30
0.0
 11
3316.0
 21
95.25
 31
0.0
  0
ARC
  5
158
330
2
100
AcDbEntity
  8
0
100
AcDbCircle
 10
3313.3
 20
99.59999999999991
 30
0.0
 40
0.3
100
AcDbArc
 50
180.0
 51
270.0
  0
ARC
  5
159
330
2
100
AcDbEntity
  8
0
100
AcDbCircle
 10
3313.3
 20
94.4000000000001
 30
0.0
 40
0.3
100
AcDbArc
 50
90.0
 51
180.0
  0
LINE
  5
15A
330
2
100
AcDbEntity
  8
0
100
AcDbLine
 10
3374.4
 20
95.5
 30
0.0
 11
3372.4
 21
95.5
 31
0.0
  0
LINE
  5
15B
330
2
100
AcDbEntity
  8
0
100
AcDbLine
 10
3374.4
 20
98.50000000000001
 30
0.0
 11
3372.4
 21
98.50000000000001
 31
0.0
  0
ARC
  5
15C
330
2
100
AcDbEntity
  8
0
100
AcDbCircle
 10
3348.799999999999
 20
81.0
 30
0.0
 40
1.0
100
AcDbArc
 50
205.8419327631313
 51
270.0
  0
LINE
  5
15D
330
2
100
AcDbEntity
  8
0
100
AcDbLine
 10
3348.799999999999
 20
80.0
 30
0.0
 11
3376.9
 21
80.0
 31
0.0
  0
ARC
  5
15E
330
2
100
AcDbEntity
  8
0
100
AcDbCircle
 10
3348.799999999999
 20
113.0
 30
0.0
 40
1.0
100
AcDbArc
 50
90.0
 51
154.1580672368687
  0
LINE
  5
15F
330
2
100
AcDbEntity
  8
0
100
AcDbLine
 10
3348.799999999999
 20
114.0
 30
0.0
 11
3376.9
 21
114.0
 31
0.0
  0
LINE
  5
160
330
2
100
AcDbEntity
  8
0
100
AcDbLine
 10
3383.5
 20
93.5999999999999
 30
0.0
 11
3379.5
 21
93.5999999999999
 31
0.0
  0
LINE
  5
161
330
2
100
AcDbEntity
  8
0
100
AcDbLine
 10
3383.5
 20
97.5999999999999
 30
0.0
 11
3376.9
 21
97.5999999999999
 31
0.0
  0
LINE
  5
162
330
2
100
AcDbEntity
  8
0
100
AcDbLine
 10
3383.5
 20
100.4000000000001
 30
0.0
 11
3376.9
 21
100.4000000000001
 31
0.0
  0
LINE
  5
163
330
2
100
AcDbEntity
  8
0
100
AcDbLine
 10
3379.5
 20
100.3999999999996
 30
0.0
 11
3379.5
 21
102.5
 31
0.0
  0
LINE
  5
164
330
2
100
AcDbEntity
  8
0
100
AcDbLine
 10
3379.5
 20
91.5
 30
0.0
 11
3379.5
 21
97.5999999999999
 31
0.0
  0
LINE
  5
165
330
2
100
AcDbEntity
  8
0
100
AcDbLine
 10
3376.9
 20
102.5
 30
0.0
 11
3379.5
 21
102.5
 31
0.0
  0
LINE
  5
166
330
2
100
AcDbEntity
  8
0
100
AcDbLine
 10
3376.9
 20
91.5
 30
0.0
 11
3379.5
 21
91.5
 31
0.0
  0
LINE
  5
167
330
2
100
AcDbEntity
  8
0
100
AcDbLine
 10
3376.9
 20
80.0
 30
0.0
 11
3376.9
 21
114.0
 31
0.0
  0
LINE
  5
168
330
2
100
AcDbEntity
  8
0
100
AcDbLine
 10
3374.4
 20
80.0
 30
0.0
 11
3374.4
 21
95.5
 31
0.0
  0
LINE
  5
169
330
2
100
AcDbEntity
  8
0
100
AcDbLine
 10
3374.4
 20
98.50000000000001
 30
0.0
 11
3374.4
 21
114.0
 31
0.0
  0
LINE
  5
16A
330
2
100
AcDbEntity
  8
0
100
AcDbLine
 10
3372.4
 20
95.5
 30
0.0
 11
3372.4
 21
98.50000000000001
 31
0.0
  0
ARC
  5
16B
330
2
100
AcDbEntity
  8
0
100
AcDbCircle
 10
3383.5
 20
95.0
 30
0.0
 40
1.399999999999999
100
AcDbArc
 50
270.0
 51
90.0
  0
CIRCLE
  5
16C
330
2
100
AcDbEntity
  8
0
100
AcDbCircle
 10
3383.5
 20
99.0
 30
0.0
 40
0.7
  0
ARC
  5
16D
330
2
100
AcDbEntity
  8
0
100
AcDbCircle
 10
3383.5
 20
99.0
 30
0.0
 40
1.399999999999999
100
AcDbArc
 50
270.0
 51
90.0
  0
LINE
  5
16E
330
2
100
AcDbEntity
  8
0
100
AcDbLine
 10
3372.5
 20
101.0
 30
0.0
 11
3372.5
 21
114.0
 31
0.0
  0
LINE
  5
16F
330
2
100
AcDbEntity
  8
0
100
AcDbLine
 10
3350.5
 20
101.0
 30
0.0
 11
3350.5
 21
114.0
 31
0.0
  0
LINE
  5
170
330
2
100
AcDbEntity
  8
0
100
AcDbLine
 10
3370.5
 20
99.0
 30
0.0
 11
3352.5
 21
99.0
 31
0.0
  0
ARC
  5
171
330
2
100
AcDbEntity
  8
0
100
AcDbCircle
 10
3352.5
 20
101.0
 30
0.0
 40
2.0
100
AcDbArc
 50
180.0
 51
270.0
  0
ARC
  5
172
330
2
100
AcDbEntity
  8
0
100
AcDbCircle
 10
3370.5
 20
101.0
 30
0.0
 40
2.0
100
AcDbArc
 50
270.0
 51
0.0
  0
LINE
  5
173
330
2
100
AcDbEntity
  8
0
100
AcDbLine
 10
3383.5
 20
96.40000000000009
 30
0.0
 11
3379.5
 21
96.40000000000009
 31
0.0
  0
CIRCLE
  5
174
330
2
100
AcDbEntity
  8
0
100
AcDbCircle
 10
3383.5
 20
95.0
 30
0.0
 40
0.7
  0
CIRCLE
  5
175
330
2
100
AcDbEntity
  8
0
100
AcDbCircle
 10
3233.0
 20
97.0
 30
0.0
 40
6.9
  0
DIMENSION
  5
176
330
2
100
AcDbEntity
  8
TEXT
100
AcDbDimension
  2
*D0
 10
3347.9
 20
127.0
 30
0.0
 11
3330.45
 21
129.5
 31
0.0
  1
L 
 71
     5
 42
34.89999999999964
  3
1X
100
AcDbAlignedDimension
 13
3313.0
 23
113.5
 33
0.0
 14
3347.9
 24
114.5
 34
0.0
100
AcDbRotatedDimension
  0
DIMENSION
  5
184
330
2
100
AcDbEntity
  8
TEXT
100
AcDbDimension
  2
*D1
 10
3376.9
 20
127.0
 30
0.0
 11
3362.4
 21
129.5
 31
0.0
  1
M
 71
     5
 42
29.0
  3
1X
100
AcDbAlignedDimension
 13
3347.9
 23
114.5
 33
0.0
 14
3376.9
 24
114.0
 34
0.0
100
AcDbRotatedDimension
  0
DIMENSION
  5
191
330
2
100
AcDbEntity
  8
TEXT
100
AcDbDimension
  2
*D2
 10
3394.0
 20
80.0
 30
0.0
 11
3391.5
 21
97.00000000000054
 31
0.0
  1
%%C<>
 71
     5
 42
34.0
  3
1X
100
AcDbAlignedDimension
 13
3376.9
 23
114.0
 33
0.0
 14
3376.9
 24
80.0
 34
0.0
 50
90.0
100
AcDbRotatedDimension
  0
DIMENSION
  5
19E
330
2
100
AcDbEntity
  8
TEXT
100
AcDbDimension
  2
*D3
 10
3384.9
 20
127.0
 30
0.0
 11
3380.9
 21
129.5
 31
0.0
 71
     5
 42
8.0
  3
1X
100
AcDbAlignedDimension
 13
3376.9
 23
114.0
 33
0.0
 14
3384.9
 24
99.0
 34
0.0
100
AcDbRotatedDimension
  0
DIMENSION
  5
1AD
330
2
100
AcDbEntity
  8
TEXT
100
AcDbDimension
  2
*D4
 10
3313.0
 20
120.0
 30
0.0
 11
3320.600000000001
 21
122.5
 31
0.0
 71
     5
 42
3.0
  3
1X
100
AcDbAlignedDimension
 13
3310.0
 23
106.5
 33
0.0
 14
3313.0
 24
113.5
 34
0.0
100
AcDbRotatedDimension
  0
DIMENSION
  5
1BC
330
2
100
AcDbEntity
  8
TEXT
100
AcDbDimension
  2
*D5
 10
3305.700000000001
 20
110.0
 30
0.0
 11
3299.700000000001
 21
112.5
 31
0.0
 71
     5
 42
12.0
  3
1X
100
AcDbAlignedDimension
 13
3293.700000000001
 23
99.50000000000001
 33
0.0
 14
3305.700000000001
 24
100.0
 34
0.0
100
AcDbRotatedDimension
  0
DIMENSION
  5
1C9
330
2
100
AcDbEntity
  8
TEXT
100
AcDbDimension
  2
*D6
 10
3313.0
 20
127.0
 30
0.0
 11
3303.35
 21
129.5
 31
0.0
 71
     5
 42
19.29999999999927
  3
1X
100
AcDbAlignedDimension
 13
3293.700000000001
 23
99.50000000000001
 33
0.0
 14
3313.0
 24
113.5
 34
0.0
100
AcDbRotatedDimension
  0
DIMENSION
  5
1D6
330
2
100
AcDbEntity
  8
TEXT
100
AcDbDimension
  2
*D7
 10
3242.0
 20
120.0
 30
0.0
 11
3233.0
 21
122.5
 31
0.0
 71
     5
 42
18.0
  3
1X
100
AcDbAlignedDimension
 13
3224.0
 23
101.3588989435397
 33
0.0
 14
3242.0
 24
101.3588989435393
 34
0.0
100
AcDbRotatedDimension
  0
LEADER
  5
1E3
330
2
100
AcDbEntity
  8
TEXT
100
AcDbLeader
  3
Standard
 76
     3
 10
3222.91802197224
 20
107.4001256513402
 30
0.0
 10
3214.0
 20
120.0
 30
0.0
 10
3199.0
 20
120.0
 30
0.0
1001
ACAD
1000
DSTYLE
1002
{
1070
   147
1040
1.0
1070
    77
1070
     0
1002
}
  0
TEXT
  5
1E4
330
2
100
AcDbEntity
  8
TEXT
100
AcDbText
 10
3200.0
 20
121.0
 30
0.0
 40
3.0
  1
4-M3 TAP
 41
0.6
  7
GHS
100
AcDbText
  0
TEXT
  5
1E5
330
2
100
AcDbEntity
  8
TEXT
100
AcDbText
 10
3200.0
 20
116.0
 30
0.0
 40
3.0
  1
DP 7
 41
0.6
  7
GHS
100
AcDbText
  0
TEXT
  5
1E6
330
2
100
AcDbEntity
  8
TEXT
100
AcDbText
 10
3200.0
 20
112.0
 30
0.0
 40
3.0
  1
PCD %%C26
 41
0.6
  7
GHS
100
AcDbText
  0
DIMENSION
  5
1E7
330
2
100
AcDbEntity
  8
TEXT
100
AcDbDimension
  2
*D8
 10
3226.282485578728
 20
90.28248557872757
 30
0.0
 11
3224.389622771786
 21
76.21271051849522
 31
0.0
 70
     2
 71
     5
 42
0.7853981633975451
  3
1X
100
AcDb2LineAngularDimension
 13
3233.0
 23
77.5
 33
0.0
 14
3233.0
 24
116.5
 34
0.0
 15
3221.332738110421
 25
85.33273811042182
 35
0.0
 16
3220.499999999999
 26
75.34936490538848
 36
0.0
  0
DIMENSION
  5
1F6
330
2
100
AcDbEntity
  8
TEXT
100
AcDbDimension
  2
*D9
 10
3226.282485578728
 20
90.28248557872757
 30
0.0
 11
3233.0
 21
66.48485196156134
 31
0.0
 70
     2
  1
4-<>
 71
     5
 42
1.570796326795079
  3
1X
100
AcDb2LineAngularDimension
 13
3244.667261889579
 23
85.33273811042182
 33
0.0
 14
3239.717514421272
 24
90.28248557872757
 34
0.0
 15
3221.332738110421
 25
85.33273811042182
 35
0.0
 16
3224.455050910773
 26
65.10981585091546
 36
0.0
  0
LINE
  5
205
330
2
100
AcDbEntity
  8
TEXT
100
AcDbLine
 10
3242.999994223868
 20
49.99999887009471
 30
0.0
 11
3302.999994223868
 21
49.99999887009471
 31
0.0
  0
LINE
  5
206
330
2
100
AcDbEntity
  8
TEXT
100
AcDbLine
 10
3242.999994223868
 20
41.99999887009471
 30
0.0
 11
3302.999994223868
 21
41.99999887009471
 31
0.0
  0
LINE
  5
207
330
2
100
AcDbEntity
  8
TEXT
100
AcDbLine
 10
3242.999994223868
 20
33.99999887009471
 30
0.0
 11
3302.999994223868
 21
33.99999887009471
 31
0.0
  0
LINE
  5
208
330
2
100
AcDbEntity
  8
TEXT
100
AcDbLine
 10
3242.999994223868
 20
49.99999887009471
 30
0.0
 11
3242.999994223868
 21
9.999998870094714
 31
0.0
  0
LINE
  5
209
330
2
100
AcDbEntity
  8
TEXT
100
AcDbLine
 10
3281.999994223868
 20
49.99999887009471
 30
0.0
 11
3281.999994223868
 21
9.999998870094714
 31
0.0
  0
LINE
  5
20A
330
2
100
AcDbEntity
  8
TEXT
100
AcDbLine
 10
3302.999994223868
 20
49.99999887009471
 30
0.0
 11
3302.999994223868
 21
9.999998870094714
 31
0.0
  0
TEXT
  5
20B
330
2
100
AcDbEntity
  8
TEXT
100
AcDbText
 10
3257.085708509583
 20
43.99999887009471
 30
0.0
 40
4.0
  1
RATIO
 41
0.6
  7
GHS
 72
     1
 11
3261.999994223869
 21
43.99999887009471
 31
0.0
100
AcDbText
  0
TEXT
  5
20C
330
2
100
AcDbEntity
  8
TEXT
100
AcDbText
 10
3290.857137081011
 20
43.99999887009471
 30
0.0
 40
4.0
  1
L
 41
0.6
  7
GHS
 72
     1
 11
3291.999994223868
 21
43.99999887009471
 31
0.0
100
AcDbText
  0
LINE
  5
20D
330
2
100
AcDbEntity
  8
TEXT
100
AcDbLine
 10
3242.999994223868
 20
25.99999887009472
 30
0.0
 11
3302.999994223868
 21
25.99999887009472
 31
0.0
  0
LINE
  5
20E
330
2
100
AcDbEntity
  8
TEXT
100
AcDbLine
 10
3242.999994223868
 20
17.99999887009471
 30
0.0
 11
3302.999994223868
 21
17.99999887009471
 31
0.0
  0
TEXT
  5
20F
330
2
100
AcDbEntity
  8
TEXT
100
AcDbText
 10
3244.999994223868
 20
35.99999887009472
 30
0.0
 40
4.0
  1
1/005
 41
0.6
  7
GHS
100
AcDbText
  0
TEXT
  5
210
330
2
100
AcDbEntity
  8
TEXT
100
AcDbText
 10
3244.999994223868
 20
27.99999887009472
 30
0.0
 40
4.0
  1
1/014 ~ 1/027
 41
0.6
  7
GHS
100
AcDbText
  0
TEXT
  5
211
330
2
100
AcDbEntity
  8
TEXT
100
AcDbText
 10
3244.999994223868
 20
19.99999887009471
 30
0.0
 40
4.0
  1
1/051 ~ 1/139
 41
0.6
  7
GHS
100
AcDbText
  0
TEXT
  5
212
330
2
100
AcDbEntity
  8
TEXT
100
AcDbText
 10
3288.999994223868
 20
35.99999887009472
 30
0.0
 40
4.0
  1
22.1
 41
0.6
  7
GHS
100
AcDbText
  0
TEXT
  5
213
330
2
100
AcDbEntity
  8
TEXT
100
AcDbText
 10
3288.999994223868
 20
27.99999887009472
 30
0.0
 40
4.0
  1
28.5
 41
0.6
  7
GHS
100
AcDbText
  0
TEXT
  5
214
330
2
100
AcDbEntity
  8
TEXT
100
AcDbText
 10
3288.999994223868
 20
19.99999887009471
 30
0.0
 40
4.0
  1
34.9
 41
0.6
  7
GHS
100
AcDbText
  0
TEXT
  5
215
330
2
100
AcDbEntity
  8
TEXT
100
AcDbText
 10
3255.085708509583
 20
52.99999887009471
 30
0.0
 40
4.0
  1
GEARHEAD LENGTH
 41
0.6
  7
GHS
 72
     1
 11
3271.999994223869
 21
52.99999887009471
 31
0.0
100
AcDbText
  0
LINE
  5
216
330
2
100
AcDbEntity
  8
TEXT
100
AcDbLine
 10
3253.999994223868
 20
51.99999887009472
 30
0.0
 11
3289.999994223869
 21
51.99999887009472
 31
0.0
  0
LINE
  5
217
330
2
100
AcDbEntity
  8
TEXT
100
AcDbLine
 10
3242.999994223868
 20
9.999998870094714
 30
0.0
 11
3302.999994223868
 21
9.999998870094714
 31
0.0
  0
TEXT
  5
218
330
2
100
AcDbEntity
  8
TEXT
100
AcDbText
 10
3244.999994223868
 20
11.99999887009471
 30
0.0
 40
4.0
  1
1/189 ~ 1/721
 41
0.6
  7
GHS
100
AcDbText
  0
TEXT
  5
219
330
2
100
AcDbEntity
  8
TEXT
100
AcDbText
 10
3288.999994223868
 20
11.99999887009471
 30
0.0
 40
4.0
  1
41.3
 41
0.6
  7
GHS
100
AcDbText
  0
LINE
  5
21A
330
2
100
AcDbEntity
  8
TEXT
100
AcDbLine
 10
3322.999994223869
 20
49.99999887009471
 30
0.0
 11
3382.999994223869
 21
49.99999887009471
 31
0.0
  0
LINE
  5
21B
330
2
100
AcDbEntity
  8
TEXT
100
AcDbLine
 10
3322.999994223869
 20
41.99999887009471
 30
0.0
 11
3382.999994223869
 21
41.99999887009471
 31
0.0
  0
LINE
  5
21C
330
2
100
AcDbEntity
  8
TEXT
100
AcDbLine
 10
3322.999994223869
 20
33.99999887009471
 30
0.0
 11
3382.999994223869
 21
33.99999887009471
 31
0.0
  0
LINE
  5
21D
330
2
100
AcDbEntity
  8
TEXT
100
AcDbLine
 10
3322.999994223869
 20
49.99999887009471
 30
0.0
 11
3322.999994223869
 21
25.99999887009472
 31
0.0
  0
LINE
  5
21E
330
2
100
AcDbEntity
  8
TEXT
100
AcDbLine
 10
3361.999994223868
 20
49.99999887009471
 30
0.0
 11
3361.999994223868
 21
25.99999887009472
 31
0.0
  0
LINE
  5
21F
330
2
100
AcDbEntity
  8
TEXT
100
AcDbLine
 10
3382.999994223869
 20
49.99999887009471
 30
0.0
 11
3382.999994223869
 21
25.99999887009472
 31
0.0
  0
TEXT
  5
220
330
2
100
AcDbEntity
  8
TEXT
100
AcDbText
 10
3335.942851366726
 20
43.99999887009471
 30
0.0
 40
4.0
  1
MOTOR
 41
0.6
  7
GHS
 72
     1
 11
3341.999994223868
 21
43.99999887009471
 31
0.0
100
AcDbText
  0
TEXT
  5
221
330
2
100
AcDbEntity
  8
TEXT
100
AcDbText
 10
3370.62856565244
 20
43.99999887009471
 30
0.0
 40
4.0
  1
M
 41
0.6
  7
GHS
 72
     1
 11
3371.999994223869
 21
43.99999887009471
 31
0.0
100
AcDbText
  0
LINE
  5
222
330
2
100
AcDbEntity
  8
TEXT
100
AcDbLine
 10
3322.999994223869
 20
25.99999887009472
 30
0.0
 11
3382.999994223869
 21
25.99999887009472
 31
0.0
  0
TEXT
  5
223
330
2
100
AcDbEntity
  8
TEXT
100
AcDbText
 10
3324.999994223868
 20
35.99999887009472
 30
0.0
 40
4.0
  1
KM3429 SERIES
 41
0.6
  7
GHS
100
AcDbText
  0
TEXT
  5
224
330
2
100
AcDbEntity
  8
TEXT
100
AcDbText
 10
3324.999994223868
 20
27.99999887009472
 30
0.0
 40
4.0
  1
KM3448 SERIES
 41
0.6
  7
GHS
100
AcDbText
  0
TEXT
  5
225
330
2
100
AcDbEntity
  8
TEXT
100
AcDbText
 10
3369.999994223868
 20
35.99999887009472
 30
0.0
 40
4.0
  1
29
 41
0.6
  7
GHS
100
AcDbText
  0
TEXT
  5
226
330
2
100
AcDbEntity
  8
TEXT
100
AcDbText
 10
3369.999994223868
 20
27.99999887009472
 30
0.0
 40
4.0
  1
48
 41
0.6
  7
GHS
100
AcDbText
  0
TEXT
  5
227
330
2
100
AcDbEntity
  8
TEXT
100
AcDbText
 10
3338.114279938154
 20
52.99999887009471
 30
0.0
 40
4.0
  1
MOTOR LENGTH
 41
0.6
  7
GHS
 72
     1
 11
3351.999994223869
 21
52.99999887009471
 31
0.0
100
AcDbText
  0
LINE
  5
228
330
2
100
AcDbEntity
  8
TEXT
100
AcDbLine
 10
3333.999994223868
 20
51.99999887009472
 30
0.0
 11
3369.999994223868
 21
51.99999887009472
 31
0.0
  0
DIMENSION
  5
229
330
2
100
AcDbEntity
  8
TEXT
100
AcDbDimension
  2
*D11
 10
3207.0
 20
107.0
 30
0.0
 11
3204.5
 21
97.00000000000052
 31
0.0
  1
%%C<>
 71
     5
 42
20.0
  3
1X
100
AcDbAlignedDimension
 13
3233.0
 23
87.0
 33
0.0
 14
3233.0
 24
107.0
 34
0.0
 50
90.0
100
AcDbRotatedDimension
  0
TEXT
  5
236
330
2
100
AcDbEntity
  8
TEXT
100
AcDbText
 10
3282.0
 20
101.0
 30
0.0
 40
2.0
  1
-0.1
 50
90.0
 41
0.6
  7
GHS
100
AcDbText
  0
TEXT
  5
237
330
2
100
AcDbEntity
  8
TEXT
100
AcDbText
 10
3279.003385090323
 20
101.2835408246919
 30
0.0
 40
2.0
  1
 0
 50
90.0
 41
0.6
  7
GHS
100
AcDbText
  0
TEXT
  5
238
330
2
100
AcDbEntity
  8
TEXT
100
AcDbText
 10
3274.0
 20
100.0
 30
0.0
 40
2.0
  1
-0.030
 50
90.0
 41
0.6
  7
GHS
100
AcDbText
  0
TEXT
  5
239
330
2
100
AcDbEntity
  8
TEXT
100
AcDbText
 10
3271.0
 20
100.0
 30
0.0
 40
2.0
  1
-0.015
 50
90.0
 41
0.6
  7
GHS
100
AcDbText
  0
DIMENSION
  5
23A
330
2
100
AcDbEntity
  8
TEXT
100
AcDbDimension
  2
*D13
 10
3283.0
 20
99.50000000000001
 30
0.0
 11
3283.0
 21
96.75000000000054
 31
0.0
 70
   128
 71
     5
 42
5.5
  3
1X
100
AcDbAlignedDimension
 13
3294.200000000001
 23
94.0
 33
0.0
 14
3293.700000000001
 24
99.50000000000001
 34
0.0
 50
90.0
100
AcDbRotatedDimension
  0
DIMENSION
  5
249
330
2
100
AcDbEntity
  8
TEXT
100
AcDbDimension
  2
*D14
 10
3275.0
 20
100.0
 30
0.0
 11
3272.5
 21
97.00000000000054
 31
0.0
  1
%%C<>
 71
     5
 42
6.000000000000014
  3
1X
100
AcDbAlignedDimension
 13
3294.200000000001
 23
94.0
 33
0.0
 14
3305.700000000001
 24
100.0
 34
0.0
 50
90.0
100
AcDbRotatedDimension
  0
DIMENSION
  5
258
330
2
100
AcDbEntity
  8
TEXT
100
AcDbDimension
  2
*D12
 10
3267.0
 20
79.50000000000001
 30
0.0
 11
3264.5
 21
97.00000000000054
 31
0.0
  1
%%C<>
 71
     5
 42
35.0
  3
1X
100
AcDbAlignedDimension
 13
3314.0
 23
114.5
 33
0.0
 14
3314.0
 24
79.5
 34
0.0
 50
90.0
100
AcDbRotatedDimension
  0
ENDSEC
  0
SECTION
  2
OBJECTS
  0
DICTIONARY
  5
C
330
0
100
AcDbDictionary
281
     1
  3
ACAD_2007HEADERVARS_RT
350
2C7
  3
ACAD_COLOR
350
59
  3
ACAD_GROUP
350
46
  3
ACAD_LAYOUT
350
19
  3
ACAD_MATERIAL
350
E
  3
ACAD_MLEADERSTYLE
350
295
  3
ACAD_MLINESTYLE
350
47
  3
ACAD_PLOTSETTINGS
350
48
  3
ACAD_PLOTSTYLENAME
350
B
  3
ACAD_SCALELIST
350
5A
  3
ACAD_TABLESTYLE
350
5B
  3
ACAD_VISUALSTYLE
350
32
  3
ACDB_RECOMPOSE_DATA
350
269
  3
AcDbVariableDictionary
350
27E
  0
DICTIONARY
  5
33
330
2F
100
AcDbDictionary
280
     1
281
     1
  0
DICTIONARY
  5
22
330
21
100
AcDbDictionary
280
     1
281
     1
  3
ACAD_LAYERFILTERS
360
23
  3
ACAD_LAYERSTATES
360
24
  3
ACLYDICTIONARY
360
25
  0
DICTIONARY
  5
8
330
7
100
AcDbDictionary
280
     1
281
     1
  3
ADSK_XREC_LAYER_RECONCILED
360
9
  0
DICTIONARY
  5
88
330
87
100
AcDbDictionary
280
     1
281
     1
  3
ADSK_XREC_LAYER_RECONCILED
360
89
  0
DICTIONARY
  5
5D
330
5C
100
AcDbDictionary
280
     1
281
     1
  3
ADSK_XREC_LAYER_RECONCILED
360
5E
  0
DICTIONARY
  5
3
330
2
100
AcDbDictionary
280
     1
281
     1
  3
ACAD_LAYOUTSELFREF
360
4
  3
ACAD_SORTENTS
360
265
  0
DICTIONARY
  5
1C
330
1B
100
AcDbDictionary
280
     1
281
     1
  3
ACAD_LAYOUTSELFREF
360
1D
  0
DICTIONARY
  5
2C7
102
{ACAD_REACTORS
330
C
102
}
330
C
100
AcDbDictionary
281
     1
  3
DIMLTEX1
350
2C9
  3
DIMLTEX2
350
2CA
  3
DIMLTYPE
350
2C8
  0
DICTIONARY
  5
59
102
{ACAD_REACTORS
330
C
102
}
330
C
100
AcDbDictionary
281
     1
  0
DICTIONARY
  5
46
102
{ACAD_REACTORS
330
C
102
}
330
C
100
AcDbDictionary
281
     1
  0
DICTIONARY
  5
19
102
{ACAD_REACTORS
330
C
102
}
330
C
100
AcDbDictionary
281
     1
  3
Layout1
350
20
  3
Model
350
18
  0
DICTIONARY
  5
E
102
{ACAD_REACTORS
330
C
102
}
330
C
100
AcDbDictionary
281
     1
  3
ByBlock
350
51
  3
ByLayer
350
49
  3
Global
350
D
  0
DICTIONARY
  5
295
102
{ACAD_REACTORS
330
C
102
}
330
C
100
AcDbDictionary
281
     1
  3
Standard
350
296
  0
DICTIONARY
  5
47
102
{ACAD_REACTORS
330
C
102
}
330
C
100
AcDbDictionary
281
     1
  3
Standard
350
5F
  0
DICTIONARY
  5
48
102
{ACAD_REACTORS
330
C
102
}
330
C
100
AcDbDictionary
281
     1
  0
ACDBDICTIONARYWDFLT
  5
B
102
{ACAD_REACTORS
330
C
102
}
330
C
100
AcDbDictionary
281
     1
  3
Normal
350
A
100
AcDbDictionaryWithDefault
340
A
  0
DICTIONARY
  5
5A
102
{ACAD_REACTORS
330
C
102
}
330
C
100
AcDbDictionary
281
     1
  3
*A1
350
64
  3
A0
350
65
  3
A1
350
66
  3
A2
350
67
  3
A3
350
68
  3
A4
350
69
  3
A5
350
6A
  3
A6
350
6B
  3
A7
350
6C
  3
A8
350
6D
  3
A9
350
6E
  3
B0
350
6F
  3
B1
350
70
  3
B2
350
71
  3
B3
350
72
  3
B4
350
73
  3
B5
350
74
  3
B6
350
75
  3
B7
350
76
  3
B8
350
77
  3
B9
350
78
  3
C0
350
79
  3
C1
350
7A
  3
C2
350
7B
  3
C3
350
7C
  3
C4
350
7D
  3
C5
350
7E
  3
C6
350
7F
  3
C7
350
80
  3
C8
350
81
  3
C9
350
82
  3
D0
350
83
  3
D1
350
84
  3
D2
350
85
  0
DICTIONARY
  5
5B
102
{ACAD_REACTORS
330
C
102
}
330
C
100
AcDbDictionary
281
     1
  3
Standard
350
60
  0
DICTIONARY
  5
32
102
{ACAD_REACTORS
330
C
102
}
330
C
100
AcDbDictionary
281
     1
  3
2dWireframe
350
31
  3
3D Hidden
350
28D
  3
3dWireframe
350
63
  3
Basic
350
28C
  3
Brighten
350
290
  3
ColorChange
350
294
  3
Conceptual
350
28E
  3
Dim
350
28F
  3
Facepattern
350
293
  3
Flat
350
288
  3
FlatWithEdges
350
289
  3
Gouraud
350
28A
  3
GouraudWithEdges
350
28B
  3
Linepattern
350
292
  3
Realistic
350
62
  3
Thicken
350
291
  0
XRECORD
  5
269
102
{ACAD_REACTORS
330
C
102
}
330
C
100
AcDbXrecord
280
     1
 90
        1
330
60
  0
DICTIONARY
  5
27E
102
{ACAD_REACTORS
330
C
102
}
330
C
100
AcDbDictionary
281
     1
  3
CANNOSCALE
350
282
  3
CMLEADERSTYLE
350
280
  3
CTABLESTYLE
350
27F
  3
DIMASSOC
350
286
  3
HIDETEXT
350
285
  3
INDEXCTL
350
284
  3
MSLTSCALE
350
281
  3
SORTENTS
350
283
  0
DICTIONARY
  5
23
102
{ACAD_REACTORS
330
22
102
}
330
22
100
AcDbDictionary
281
     1
  0
DICTIONARY
  5
24
102
{ACAD_REACTORS
330
22
102
}
330
22
100
AcDbDictionary
281
     1
  0
DICTIONARY
  5
25
102
{ACAD_REACTORS
330
22
102
}
330
22
100
AcDbDictionary
281
     1
1001
ACAD
1000
<All
  0
XRECORD
  5
9
102
{ACAD_REACTORS
330
8
102
}
330
8
100
AcDbXrecord
280
     1
290
     1
  0
XRECORD
  5
89
102
{ACAD_REACTORS
330
88
102
}
330
88
100
AcDbXrecord
280
     1
290
     1
  0
XRECORD
  5
5E
102
{ACAD_REACTORS
330
5D
102
}
330
5D
100
AcDbXrecord
280
     1
290
     1
  0
XRECORD
  5
4
102
{ACAD_REACTORS
330
3
102
}
330
3
100
AcDbXrecord
280
     1
340
2
  0
SORTENTSTABLE
  5
265
102
{ACAD_REACTORS
330
3
102
}
330
3
100
AcDbSortentsTable
330
2
  0
XRECORD
  5
1D
102
{ACAD_REACTORS
330
1C
102
}
330
1C
100
AcDbXrecord
280
     1
340
1B
  0
XRECORD
  5
2C9
102
{ACAD_REACTORS
330
2C7
102
}
330
2C7
100
AcDbXrecord
280
     1
340
2C
  0
XRECORD
  5
2CA
102
{ACAD_REACTORS
330
2C7
102
}
330
2C7
100
AcDbXrecord
280
     1
340
2C
  0
XRECORD
  5
2C8
102
{ACAD_REACTORS
330
2C7
102
}
330
2C7
100
AcDbXrecord
280
     1
340
2C
  0
LAYOUT
  5
20
102
{ACAD_REACTORS
330
19
102
}
330
19
100
AcDbPlotSettings
  1

  2
HP LaserJet 5000 Series PS
  4

  6

 40
0.0
 41
0.0
 42
0.0
 43
0.0
 44
0.0
 45
0.0
 46
0.0
 47
0.0
 48
0.0
 49
0.0
140
0.0
141
0.0
142
1.0
143
1.0
 70
   688
 72
     0
 73
     0
 74
     5
  7
C:\Users\R&D\AppData\Roaming\Autodesk\Autodesk Mechanical Desktop 2008\R17.1\kor\Plot Styles\CATALOG.ctb
 75
    16
147
1.0
 76
     0
 77
     2
 78
   300
148
0.0
149
0.0
100
AcDbLayout
  1
Layout1
 70
     1
 71
     1
 10
0.0
 20
0.0
 11
12.0
 21
9.0
 12
2220.404641079056
 22
50.00000000000001
 32
2810.473195709564
 14
1.000000000000000E+20
 24
1.000000000000000E+20
 34
1.000000000000000E+20
 15
-1.000000000000000E+20
 25
-1.000000000000000E+20
 35
-1.000000000000000E+20
146
0.0
 13
0.0
 23
0.0
 33
0.0
 16
1.0
 26
0.0
 36
0.0
 17
0.0
 27
1.0
 37
0.0
 76
     0
330
1B
  0
LAYOUT
  5
18
102
{ACAD_REACTORS
330
19
102
}
330
19
100
AcDbPlotSettings
  1

  2
PublishToWeb JPG.pc3
  4
Sun_Hi-Res_(1600.00_x_1280.00_Pixels)
  6

 40
0.0
 41
0.0
 42
1.0
 43
1.0
 44
1600.0
 45
1280.0
 46
0.0
 47
0.0
 48
2595.0
 49
7.0
140
2798.0
141
134.0
142
1.0
143
0.1269543464665416
 70
 11952
 72
     2
 73
     0
 74
     4
  7
CATALOG.ctb
 75
     0
147
7.876847290640394
 76
     0
 77
     2
 78
   300
148
-2595.0
149
-7.0
100
AcDbLayout
  1
Model
 70
     1
 71
     0
 10
0.0
 20
0.0
 11
12.0
 21
9.0
 12
0.0
 22
0.0
 32
0.0
 14
0.0
 24
0.0
 34
0.0
 15
0.0
 25
0.0
 35
0.0
146
0.0
 13
0.0
 23
0.0
 33
0.0
 16
1.0
 26
0.0
 36
0.0
 17
0.0
 27
1.0
 37
0.0
 76
     0
330
2
331
30
1001
ACAD_PSEXT
1000
PublishToWeb JPG.pc3
1000
Independent JPEG Group JFIF (JPEG Compression)
1000
파일
1000

1070
     0
  0
MATERIAL
  5
51
102
{ACAD_XDICTIONARY
360
52
102
}
102
{ACAD_REACTORS
330
E
102
}
330
E
100
AcDbMaterial
  1
ByBlock
 72
     0
 43
0.0208333333333333
 43
0.0
 43
0.0
 43
0.0
 43
0.0
 43
0.0208333333333333
 43
0.0
 43
0.0
 43
0.0
 43
0.0
 43
1.0
 43
0.0
 43
0.0
 43
0.0
 43
0.0
 43
1.0
 77
     0
 47
0.0208333333333333
 47
0.0
 47
0.0
 47
0.0
 47
0.0
 47
0.0208333333333333
 47
0.0
 47
0.0
 47
0.0
 47
0.0
 47
1.0
 47
0.0
 47
0.0
 47
0.0
 47
0.0
 47
1.0
171
     0
 49
0.0208333333333333
 49
0.0
 49
0.0
 49
0.0
 49
0.0
 49
0.0208333333333333
 49
0.0
 49
0.0
 49
0.0
 49
0.0
 49
1.0
 49
0.0
 49
0.0
 49
0.0
 49
0.0
 49
1.0
175
     0
142
0.0208333333333333
142
0.0
142
0.0
142
0.0
142
0.0
142
0.0208333333333333
142
0.0
142
0.0
142
0.0
142
0.0
142
1.0
142
0.0
142
0.0
142
0.0
142
0.0
142
1.0
179
     0
144
0.0208333333333333
144
0.0
144
0.0
144
0.0
144
0.0
144
0.0208333333333333
144
0.0
144
0.0
144
0.0
144
0.0
144
1.0
144
0.0
144
0.0
144
0.0
144
0.0
144
1.0
147
0.0208333333333333
147
0.0
147
0.0
147
0.0
147
0.0
147
0.0208333333333333
147
0.0
147
0.0
147
0.0
147
0.0
147
1.0
147
0.0
147
0.0
147
0.0
147
0.0
147
1.0
  0
MATERIAL
  5
49
102
{ACAD_XDICTIONARY
360
4A
102
}
102
{ACAD_REACTORS
330
E
102
}
330
E
100
AcDbMaterial
  1
ByLayer
 72
     0
 43
0.0208333333333333
 43
0.0
 43
0.0
 43
0.0
 43
0.0
 43
0.0208333333333333
 43
0.0
 43
0.0
 43
0.0
 43
0.0
 43
1.0
 43
0.0
 43
0.0
 43
0.0
 43
0.0
 43
1.0
 77
     0
 47
0.0208333333333333
 47
0.0
 47
0.0
 47
0.0
 47
0.0
 47
0.0208333333333333
 47
0.0
 47
0.0
 47
0.0
 47
0.0
 47
1.0
 47
0.0
 47
0.0
 47
0.0
 47
0.0
 47
1.0
171
     0
 49
0.0208333333333333
 49
0.0
 49
0.0
 49
0.0
 49
0.0
 49
0.0208333333333333
 49
0.0
 49
0.0
 49
0.0
 49
0.0
 49
1.0
 49
0.0
 49
0.0
 49
0.0
 49
0.0
 49
1.0
175
     0
142
0.0208333333333333
142
0.0
142
0.0
142
0.0
142
0.0
142
0.0208333333333333
142
0.0
142
0.0
142
0.0
142
0.0
142
1.0
142
0.0
142
0.0
142
0.0
142
0.0
142
1.0
179
     0
144
0.0208333333333333
144
0.0
144
0.0
144
0.0
144
0.0
144
0.0208333333333333
144
0.0
144
0.0
144
0.0
144
0.0
144
1.0
144
0.0
144
0.0
144
0.0
144
0.0
144
1.0
147
0.0208333333333333
147
0.0
147
0.0
147
0.0
147
0.0
147
0.0208333333333333
147
0.0
147
0.0
147
0.0
147
0.0
147
1.0
147
0.0
147
0.0
147
0.0
147
0.0
147
1.0
  0
MATERIAL
  5
D
102
{ACAD_XDICTIONARY
360
F
102
}
102
{ACAD_REACTORS
330
E
102
}
330
E
100
AcDbMaterial
  1
Global
 72
     0
 43
0.0208333333333333
 43
0.0
 43
0.0
 43
0.0
 43
0.0
 43
0.0208333333333333
 43
0.0
 43
0.0
 43
0.0
 43
0.0
 43
1.0
 43
0.0
 43
0.0
 43
0.0
 43
0.0
 43
1.0
 77
     0
 47
0.0208333333333333
 47
0.0
 47
0.0
 47
0.0
 47
0.0
 47
0.0208333333333333
 47
0.0
 47
0.0
 47
0.0
 47
0.0
 47
1.0
 47
0.0
 47
0.0
 47
0.0
 47
0.0
 47
1.0
171
     0
 49
0.0208333333333333
 49
0.0
 49
0.0
 49
0.0
 49
0.0
 49
0.0208333333333333
 49
0.0
 49
0.0
 49
0.0
 49
0.0
 49
1.0
 49
0.0
 49
0.0
 49
0.0
 49
0.0
 49
1.0
175
     0
142
0.0208333333333333
142
0.0
142
0.0
142
0.0
142
0.0
142
0.0208333333333333
142
0.0
142
0.0
142
0.0
142
0.0
142
1.0
142
0.0
142
0.0
142
0.0
142
0.0
142
1.0
179
     0
144
0.0208333333333333
144
0.0
144
0.0
144
0.0
144
0.0
144
0.0208333333333333
144
0.0
144
0.0
144
0.0
144
0.0
144
1.0
144
0.0
144
0.0
144
0.0
144
0.0
144
1.0
147
0.0208333333333333
147
0.0
147
0.0
147
0.0
147
0.0
147
0.0208333333333333
147
0.0
147
0.0
147
0.0
147
0.0
147
1.0
147
0.0
147
0.0
147
0.0
147
0.0
147
1.0
  0
MLEADERSTYLE
  5
296
102
{ACAD_REACTORS
330
295
102
}
330
295
100
AcDbMLeaderStyle
170
     2
171
     1
172
     0
 90
        2
 40
0.0
 41
0.0
173
     1
 91
-1056964608
340
2B
 92
       -2
290
     1
 42
0.09
291
     1
 43
0.36
  3
Standard
 44
0.18
300

342
28
174
     1
178
     6
175
     1
176
     0
 93
-1056964608
 45
0.18
292
     0
297
     0
 46
0.18
 94
-1056964608
 47
1.0
 49
1.0
140
1.0
293
     1
141
0.0
294
     1
177
     0
142
1.0
295
     0
296
     0
143
0.125
1001
ACAD_MLEADERVER
1070
     2
  0
MLINESTYLE
  5
5F
102
{ACAD_REACTORS
330
47
102
}
330
47
100
AcDbMlineStyle
  2
STANDARD
 70
     0
  3

 62
   256
 51
90.0
 52
90.0
 71
     2
 49
0.5
 62
   256
  6
BYLAYER
 49
-0.5
 62
   256
  6
BYLAYER
  0
ACDBPLACEHOLDER
  5
A
102
{ACAD_REACTORS
330
B
102
}
330
B
  0
SCALE
  5
64
102
{ACAD_REACTORS
330
5A
102
}
330
5A
100
AcDbScale
 70
     0
300
1/128" = 1'-0"_1
140
0.007812
141
12.0
290
     0
  0
SCALE
  5
65
102
{ACAD_REACTORS
330
5A
102
}
330
5A
100
AcDbScale
 70
     0
300
1:1
140
1.0
141
1.0
290
     1
  0
SCALE
  5
66
102
{ACAD_REACTORS
330
5A
102
}
330
5A
100
AcDbScale
 70
     0
300
1:2
140
1.0
141
2.0
290
     0
  0
SCALE
  5
67
102
{ACAD_REACTORS
330
5A
102
}
330
5A
100
AcDbScale
 70
     0
300
1:4
140
1.0
141
4.0
290
     0
  0
SCALE
  5
68
102
{ACAD_REACTORS
330
5A
102
}
330
5A
100
AcDbScale
 70
     0
300
1:5
140
1.0
141
5.0
290
     0
  0
SCALE
  5
69
102
{ACAD_REACTORS
330
5A
102
}
330
5A
100
AcDbScale
 70
     0
300
1:8
140
1.0
141
8.0
290
     0
  0
SCALE
  5
6A
102
{ACAD_REACTORS
330
5A
102
}
330
5A
100
AcDbScale
 70
     0
300
1:10
140
1.0
141
10.0
290
     0
  0
SCALE
  5
6B
102
{ACAD_REACTORS
330
5A
102
}
330
5A
100
AcDbScale
 70
     0
300
1:16
140
1.0
141
16.0
290
     0
  0
SCALE
  5
6C
102
{ACAD_REACTORS
330
5A
102
}
330
5A
100
AcDbScale
 70
     0
300
1:20
140
1.0
141
20.0
290
     0
  0
SCALE
  5
6D
102
{ACAD_REACTORS
330
5A
102
}
330
5A
100
AcDbScale
 70
     0
300
1:30
140
1.0
141
30.0
290
     0
  0
SCALE
  5
6E
102
{ACAD_REACTORS
330
5A
102
}
330
5A
100
AcDbScale
 70
     0
300
1:40
140
1.0
141
40.0
290
     0
  0
SCALE
  5
6F
102
{ACAD_REACTORS
330
5A
102
}
330
5A
100
AcDbScale
 70
     0
300
1:50
140
1.0
141
50.0
290
     0
  0
SCALE
  5
70
102
{ACAD_REACTORS
330
5A
102
}
330
5A
100
AcDbScale
 70
     0
300
1:100
140
1.0
141
100.0
290
     0
  0
SCALE
  5
71
102
{ACAD_REACTORS
330
5A
102
}
330
5A
100
AcDbScale
 70
     0
300
2:1
140
2.0
141
1.0
290
     0
  0
SCALE
  5
72
102
{ACAD_REACTORS
330
5A
102
}
330
5A
100
AcDbScale
 70
     0
300
4:1
140
4.0
141
1.0
290
     0
  0
SCALE
  5
73
102
{ACAD_REACTORS
330
5A
102
}
330
5A
100
AcDbScale
 70
     0
300
8:1
140
8.0
141
1.0
290
     0
  0
SCALE
  5
74
102
{ACAD_REACTORS
330
5A
102
}
330
5A
100
AcDbScale
 70
     0
300
10:1
140
10.0
141
1.0
290
     0
  0
SCALE
  5
75
102
{ACAD_REACTORS
330
5A
102
}
330
5A
100
AcDbScale
 70
     0
300
100:1
140
100.0
141
1.0
290
     0
  0
SCALE
  5
76
102
{ACAD_REACTORS
330
5A
102
}
330
5A
100
AcDbScale
 70
     0
300
1/128" = 1'-0"
140
0.0078125
141
12.0
290
     0
  0
SCALE
  5
77
102
{ACAD_REACTORS
330
5A
102
}
330
5A
100
AcDbScale
 70
     0
300
1/64" = 1'-0"
140
0.015625
141
12.0
290
     0
  0
SCALE
  5
78
102
{ACAD_REACTORS
330
5A
102
}
330
5A
100
AcDbScale
 70
     0
300
1/32" = 1'-0"
140
0.03125
141
12.0
290
     0
  0
SCALE
  5
79
102
{ACAD_REACTORS
330
5A
102
}
330
5A
100
AcDbScale
 70
     0
300
1/16" = 1'-0"
140
0.0625
141
12.0
290
     0
  0
SCALE
  5
7A
102
{ACAD_REACTORS
330
5A
102
}
330
5A
100
AcDbScale
 70
     0
300
3/32" = 1'-0"
140
0.09375
141
12.0
290
     0
  0
SCALE
  5
7B
102
{ACAD_REACTORS
330
5A
102
}
330
5A
100
AcDbScale
 70
     0
300
1/8" = 1'-0"
140
0.125
141
12.0
290
     0
  0
SCALE
  5
7C
102
{ACAD_REACTORS
330
5A
102
}
330
5A
100
AcDbScale
 70
     0
300
3/16" = 1'-0"
140
0.1875
141
12.0
290
     0
  0
SCALE
  5
7D
102
{ACAD_REACTORS
330
5A
102
}
330
5A
100
AcDbScale
 70
     0
300
1/4" = 1'-0"
140
0.25
141
12.0
290
     0
  0
SCALE
  5
7E
102
{ACAD_REACTORS
330
5A
102
}
330
5A
100
AcDbScale
 70
     0
300
3/8" = 1'-0"
140
0.375
141
12.0
290
     0
  0
SCALE
  5
7F
102
{ACAD_REACTORS
330
5A
102
}
330
5A
100
AcDbScale
 70
     0
300
1/2" = 1'-0"
140
0.5
141
12.0
290
     0
  0
SCALE
  5
80
102
{ACAD_REACTORS
330
5A
102
}
330
5A
100
AcDbScale
 70
     0
300
3/4" = 1'-0"
140
0.75
141
12.0
290
     0
  0
SCALE
  5
81
102
{ACAD_REACTORS
330
5A
102
}
330
5A
100
AcDbScale
 70
     0
300
1" = 1'-0"
140
1.0
141
12.0
290
     0
  0
SCALE
  5
82
102
{ACAD_REACTORS
330
5A
102
}
330
5A
100
AcDbScale
 70
     0
300
1-1/2" = 1'-0"
140
1.5
141
12.0
290
     0
  0
SCALE
  5
83
102
{ACAD_REACTORS
330
5A
102
}
330
5A
100
AcDbScale
 70
     0
300
3" = 1'-0"
140
3.0
141
12.0
290
     0
  0
SCALE
  5
84
102
{ACAD_REACTORS
330
5A
102
}
330
5A
100
AcDbScale
 70
     0
300
6" = 1'-0"
140
6.0
141
12.0
290
     0
  0
SCALE
  5
85
102
{ACAD_REACTORS
330
5A
102
}
330
5A
100
AcDbScale
 70
     0
300
1'-0" = 1'-0"
140
12.0
141
12.0
290
     0
  0
TABLESTYLE
  5
60
102
{ACAD_XDICTIONARY
360
61
102
}
102
{ACAD_REACTORS
330
5B
102
}
330
5B
100
AcDbTableStyle
  3
Standard
 70
     0
 71
     0
 40
0.06
 41
0.06
280
     0
281
     0
  7
STANDARD
140
0.18
170
     2
 62
     0
 63
     7
283
     0
274
    -2
284
     1
 64
     0
275
    -2
285
     1
 65
     0
276
    -2
286
     1
 66
     0
277
    -2
287
     1
 67
     0
278
    -2
288
     1
 68
     0
279
    -2
289
     1
 69
     0
  7
STANDARD
140
0.25
170
     5
 62
     0
 63
     7
283
     0
274
    -2
284
     1
 64
     0
275
    -2
285
     1
 65
     0
276
    -2
286
     1
 66
     0
277
    -2
287
     1
 67
     0
278
    -2
288
     1
 68
     0
279
    -2
289
     1
 69
     0
  7
STANDARD
140
0.18
170
     5
 62
     0
 63
     7
283
     0
274
    -2
284
     1
 64
     0
275
    -2
285
     1
 65
     0
276
    -2
286
     1
 66
     0
277
    -2
287
     1
 67
     0
278
    -2
288
     1
 68
     0
279
    -2
289
     1
 69
     0
  0
VISUALSTYLE
  5
31
102
{ACAD_REACTORS
330
32
102
}
330
32
100
AcDbVisualStyle
  2
2dWireframe
 70
     4
 71
     0
 72
     2
 73
     0
 90
        0
 40
-0.6
 41
-30.0
 62
     5
 63
     7
 74
     1
 91
        4
 64
     7
 65
   257
 75
     1
175
     1
 42
1.0
 92
        0
 66
   257
 43
1.0
 76
     1
 77
     6
 78
     2
 67
     7
 79
     5
170
     0
171
     0
290
     0
174
     0
 93
        1
 44
0.0
173
     0
291
     0
 45
0.0
1001
ACAD
1000
AcDbSavedByObjectVersion
1070
     0
  0
VISUALSTYLE
  5
28D
102
{ACAD_REACTORS
330
32
102
}
330
32
100
AcDbVisualStyle
  2
3D Hidden
 70
     6
 71
     1
 72
     2
 73
     2
 90
        0
 40
-0.6
 41
-30.0
 62
     5
 63
     7
421
 16777215
 74
     2
 91
        2
 64
     7
 65
   257
 75
     2
175
     1
 42
40.0
 92
        0
 66
   257
 43
1.0
 76
     1
 77
     6
 78
     2
 67
     7
 79
     3
170
     0
171
     0
290
     0
174
     0
 93
        1
 44
0.0
173
     0
291
     0
 45
0.0
1001
ACAD
1000
AcDbSavedByObjectVersion
1070
     0
  0
VISUALSTYLE
  5
63
102
{ACAD_REACTORS
330
32
102
}
330
32
100
AcDbVisualStyle
  2
3dWireframe
 70
     5
 71
     0
 72
     2
 73
     0
 90
        0
 40
-0.6
 41
-30.0
 62
     5
 63
     7
 74
     1
 91
        4
 64
     7
 65
   257
 75
     1
175
     1
 42
1.0
 92
        0
 66
   257
 43
1.0
 76
     1
 77
     6
 78
     2
 67
     7
 79
     5
170
     0
171
     0
290
     0
174
     0
 93
        1
 44
0.0
173
     0
291
     0
 45
0.0
1001
ACAD
1000
AcDbSavedByObjectVersion
1070
     0
  0
VISUALSTYLE
  5
28C
102
{ACAD_REACTORS
330
32
102
}
330
32
100
AcDbVisualStyle
  2
Basic
 70
     7
 71
     1
 72
     0
 73
     1
 90
        0
 40
-0.6
 41
-30.0
 62
     5
 63
     7
421
 16777215
 74
     0
 91
        4
 64
     7
 65
   257
 75
     1
175
     1
 42
1.0
 92
        8
 66
     7
 43
1.0
 76
     1
 77
     6
 78
     2
 67
     7
 79
     5
170
     0
171
     0
290
     0
174
     0
 93
        1
 44
0.0
173
     0
291
     1
 45
0.0
1001
ACAD
1000
AcDbSavedByObjectVersion
1070
     0
  0
VISUALSTYLE
  5
290
102
{ACAD_REACTORS
330
32
102
}
330
32
100
AcDbVisualStyle
  2
Brighten
 70
    12
 71
     2
 72
     2
 73
     0
 90
        0
 40
-0.6
 41
-30.0
 62
     5
 63
     7
421
 16777215
 74
     1
 91
        4
 64
     7
 65
   257
 75
     1
175
     1
 42
1.0
 92
        8
 66
     7
 43
1.0
 76
     1
 77
     6
 78
     2
 67
     7
 79
     5
170
     0
171
     0
290
     0
174
     0
 93
        1
 44
50.0
173
     0
291
     1
 45
0.0
1001
ACAD
1000
AcDbSavedByObjectVersion
1070
     0
  0
VISUALSTYLE
  5
294
102
{ACAD_REACTORS
330
32
102
}
330
32
100
AcDbVisualStyle
  2
ColorChange
 70
    16
 71
     2
 72
     2
 73
     3
 90
        0
 40
-0.6
 41
-30.0
 62
     5
 63
     8
421
  8421504
 74
     1
 91
        4
 64
     7
 65
   257
 75
     1
175
     1
 42
1.0
 92
        8
 66
     8
424
  8421504
 43
1.0
 76
     1
 77
     6
 78
     2
 67
     7
 79
     5
170
     0
171
     0
290
     0
174
     0
 93
        1
 44
0.0
173
     0
291
     1
 45
0.0
1001
ACAD
1000
AcDbSavedByObjectVersion
1070
     0
  0
VISUALSTYLE
  5
28E
102
{ACAD_REACTORS
330
32
102
}
330
32
100
AcDbVisualStyle
  2
Conceptual
 70
     9
 71
     3
 72
     2
 73
     0
 90
        0
 40
-0.6
 41
-30.0
 62
     5
 63
     7
421
 16777215
 74
     2
 91
        2
 64
     7
 65
   257
 75
     1
175
     1
 42
40.0
 92
        8
 66
     7
 43
1.0
 76
     1
 77
     6
 78
     2
 67
     7
 79
     3
170
     0
171
     0
290
     0
174
     0
 93
        1
 44
0.0
173
     0
291
     0
 45
0.0
1001
ACAD
1000
AcDbSavedByObjectVersion
1070
     0
  0
VISUALSTYLE
  5
28F
102
{ACAD_REACTORS
330
32
102
}
330
32
100
AcDbVisualStyle
  2
Dim
 70
    11
 71
     2
 72
     2
 73
     0
 90
        0
 40
-0.6
 41
-30.0
 62
     5
 63
     7
421
 16777215
 74
     1
 91
        4
 64
     7
 65
   257
 75
     1
175
     1
 42
1.0
 92
        8
 66
     7
 43
1.0
 76
     1
 77
     6
 78
     2
 67
     7
 79
     5
170
     0
171
     0
290
     0
174
     0
 93
        1
 44
-50.0
173
     0
291
     1
 45
0.0
1001
ACAD
1000
AcDbSavedByObjectVersion
1070
     0
  0
VISUALSTYLE
  5
293
102
{ACAD_REACTORS
330
32
102
}
330
32
100
AcDbVisualStyle
  2
Facepattern
 70
    15
 71
     2
 72
     2
 73
     0
 90
        0
 40
-0.6
 41
-30.0
 62
     5
 63
     7
421
 16777215
 74
     1
 91
        4
 64
     7
 65
   257
 75
     1
175
     1
 42
1.0
 92
        8
 66
     7
 43
1.0
 76
     1
 77
     6
 78
     2
 67
     7
 79
     5
170
     0
171
     0
290
     0
174
     0
 93
        1
 44
0.0
173
     0
291
     1
 45
0.0
1001
ACAD
1000
AcDbSavedByObjectVersion
1070
     0
  0
VISUALSTYLE
  5
288
102
{ACAD_REACTORS
330
32
102
}
330
32
100
AcDbVisualStyle
  2
Flat
 70
     0
 71
     2
 72
     1
 73
     1
 90
        2
 40
-0.6
 41
30.0
 62
     5
 63
     7
421
 16777215
 74
     0
 91
        4
 64
     7
 65
   257
 75
     1
175
     1
 42
1.0
 92
        8
 66
     7
 43
1.0
 76
     1
 77
     6
 78
     2
 67
     7
 79
     5
170
     0
171
     0
290
     0
174
     0
 93
       13
 44
0.0
173
     0
291
     1
 45
0.0
1001
ACAD
1000
AcDbSavedByObjectVersion
1070
     0
  0
VISUALSTYLE
  5
289
102
{ACAD_REACTORS
330
32
102
}
330
32
100
AcDbVisualStyle
  2
FlatWithEdges
 70
     1
 71
     2
 72
     1
 73
     1
 90
        2
 40
-0.6
 41
30.0
 62
     5
 63
     7
421
 16777215
 74
     1
 91
        4
 64
     7
 65
   257
 75
     1
175
     1
 42
1.0
 92
        0
 66
   257
 43
1.0
 76
     1
 77
     6
 78
     2
 67
     7
 79
     5
170
     0
171
     0
290
     0
174
     0
 93
       13
 44
0.0
173
     0
291
     1
 45
0.0
1001
ACAD
1000
AcDbSavedByObjectVersion
1070
     0
  0
VISUALSTYLE
  5
28A
102
{ACAD_REACTORS
330
32
102
}
330
32
100
AcDbVisualStyle
  2
Gouraud
 70
     2
 71
     2
 72
     2
 73
     1
 90
        2
 40
-0.6
 41
30.0
 62
     5
 63
     7
421
 16777215
 74
     0
 91
        4
 64
     7
 65
   257
 75
     1
175
     1
 42
1.0
 92
        0
 66
     7
 43
1.0
 76
     1
 77
     6
 78
     2
 67
     7
 79
     5
170
     0
171
     0
290
     0
174
     0
 93
       13
 44
0.0
173
     0
291
     1
 45
0.0
1001
ACAD
1000
AcDbSavedByObjectVersion
1070
     0
  0
VISUALSTYLE
  5
28B
102
{ACAD_REACTORS
330
32
102
}
330
32
100
AcDbVisualStyle
  2
GouraudWithEdges
 70
     3
 71
     2
 72
     2
 73
     1
 90
        2
 40
-0.6
 41
30.0
 62
     5
 63
     7
421
 16777215
 74
     1
 91
        4
 64
     7
 65
   257
 75
     1
175
     1
 42
1.0
 92
        0
 66
   257
 43
1.0
 76
     1
 77
     6
 78
     2
 67
     7
 79
     5
170
     0
171
     0
290
     0
174
     0
 93
       13
 44
0.0
173
     0
291
     1
 45
0.0
1001
ACAD
1000
AcDbSavedByObjectVersion
1070
     0
  0
VISUALSTYLE
  5
292
102
{ACAD_REACTORS
330
32
102
}
330
32
100
AcDbVisualStyle
  2
Linepattern
 70
    14
 71
     2
 72
     2
 73
     0
 90
        0
 40
-0.6
 41
-30.0
 62
     5
 63
     7
421
 16777215
 74
     1
 91
        4
 64
     7
 65
   257
 75
     7
175
     7
 42
1.0
 92
        8
 66
     7
 43
1.0
 76
     1
 77
     6
 78
     2
 67
     7
 79
     5
170
     0
171
     0
290
     0
174
     0
 93
        1
 44
0.0
173
     0
291
     1
 45
0.0
1001
ACAD
1000
AcDbSavedByObjectVersion
1070
     0
  0
VISUALSTYLE
  5
62
102
{ACAD_REACTORS
330
32
102
}
330
32
100
AcDbVisualStyle
  2
Realistic
 70
     8
 71
     2
 72
     2
 73
     0
 90
        0
 40
-0.6
 41
-30.0
 62
     5
 63
     7
 74
     1
 91
        0
 64
     7
 65
   257
 75
     1
175
     1
 42
1.0
 92
        8
 66
     8
 43
1.0
 76
     1
 77
     6
 78
     2
 67
     7
 79
     5
170
     0
171
     0
290
     0
174
     0
 93
       13
 44
0.0
173
     0
291
     0
 45
0.0
1001
ACAD
1000
AcDbSavedByObjectVersion
1070
     0
  0
VISUALSTYLE
  5
291
102
{ACAD_REACTORS
330
32
102
}
330
32
100
AcDbVisualStyle
  2
Thicken
 70
    13
 71
     2
 72
     2
 73
     0
 90
        0
 40
-0.6
 41
-30.0
 62
     5
 63
     7
421
 16777215
 74
     1
 91
        4
 64
     7
 65
   257
 75
     1
175
     1
 42
1.0
 92
       12
 66
     7
 43
1.0
 76
     1
 77
     6
 78
     2
 67
     7
 79
     5
170
     0
171
     0
290
     0
174
     0
 93
        1
 44
0.0
173
     0
291
     1
 45
0.0
1001
ACAD
1000
AcDbSavedByObjectVersion
1070
     0
  0
DICTIONARYVAR
  5
282
102
{ACAD_REACTORS
330
27E
102
}
330
27E
100
DictionaryVariables
280
     0
  1
1:1
  0
DICTIONARYVAR
  5
280
102
{ACAD_REACTORS
330
27E
102
}
330
27E
100
DictionaryVariables
280
     0
  1
STANDARD
  0
DICTIONARYVAR
  5
27F
102
{ACAD_REACTORS
330
27E
102
}
330
27E
100
DictionaryVariables
280
     0
  1
STANDARD
  0
DICTIONARYVAR
  5
286
102
{ACAD_REACTORS
330
27E
102
}
330
27E
100
DictionaryVariables
280
     0
  1
2
  0
DICTIONARYVAR
  5
285
102
{ACAD_REACTORS
330
27E
102
}
330
27E
100
DictionaryVariables
280
     0
  1
1
  0
DICTIONARYVAR
  5
284
102
{ACAD_REACTORS
330
27E
102
}
330
27E
100
DictionaryVariables
280
     0
  1
0
  0
DICTIONARYVAR
  5
281
102
{ACAD_REACTORS
330
27E
102
}
330
27E
100
DictionaryVariables
280
     0
  1
1
  0
DICTIONARYVAR
  5
283
102
{ACAD_REACTORS
330
27E
102
}
330
27E
100
DictionaryVariables
280
     0
  1
127
  0
DICTIONARY
  5
52
330
51
100
AcDbDictionary
280
     1
281
     1
  3
ACAD_XREC_ROUNDTRIP
360
2CD
  3
BUMPTILE
360
53
  3
DIFFUSETILE
360
54
  3
OPACITYTILE
360
55
  3
REFLECTIONTILE
360
56
  3
REFRACTIONTILE
360
57
  3
SPECULARTILE
360
58
  0
DICTIONARY
  5
4A
330
49
100
AcDbDictionary
280
     1
281
     1
  3
ACAD_XREC_ROUNDTRIP
360
2CC
  3
BUMPTILE
360
4B
  3
DIFFUSETILE
360
4C
  3
OPACITYTILE
360
4D
  3
REFLECTIONTILE
360
4E
  3
REFRACTIONTILE
360
4F
  3
SPECULARTILE
360
50
  0
DICTIONARY
  5
F
330
D
100
AcDbDictionary
280
     1
281
     1
  3
ACAD_XREC_ROUNDTRIP
360
2CB
  3
BUMPTILE
360
10
  3
DIFFUSETILE
360
11
  3
OPACITYTILE
360
12
  3
REFLECTIONTILE
360
13
  3
REFRACTIONTILE
360
14
  3
SPECULARTILE
360
15
  0
DICTIONARY
  5
61
330
60
100
AcDbDictionary
280
     1
281
     1
  3
ACAD_ROUNDTRIP_2008_TABLESTYLE_CELLSTYLEMAP
360
2C6
  3
ACAD_XREC_ROUNDTRIP
360
2CE
  0
XRECORD
  5
2CD
102
{ACAD_REACTORS
330
52
102
}
330
52
100
AcDbXrecord
280
     1
102
MATERIAL
148
0.0
149
0.0
149
0.0
 93
        0
 94
      127
282
     0
 72
     0
 77
     0
171
     0
175
     0
179
     0
273
     0
  0
XRECORD
  5
53
102
{ACAD_REACTORS
330
52
102
}
330
52
100
AcDbXrecord
280
     1
270
     1
271
     1
  0
XRECORD
  5
54
102
{ACAD_REACTORS
330
52
102
}
330
52
100
AcDbXrecord
280
     1
270
     1
271
     1
  0
XRECORD
  5
55
102
{ACAD_REACTORS
330
52
102
}
330
52
100
AcDbXrecord
280
     1
270
     1
271
     1
  0
XRECORD
  5
56
102
{ACAD_REACTORS
330
52
102
}
330
52
100
AcDbXrecord
280
     1
270
     1
271
     1
  0
XRECORD
  5
57
102
{ACAD_REACTORS
330
52
102
}
330
52
100
AcDbXrecord
280
     1
270
     1
271
     1
  0
XRECORD
  5
58
102
{ACAD_REACTORS
330
52
102
}
330
52
100
AcDbXrecord
280
     1
270
     1
271
     1
  0
XRECORD
  5
2CC
102
{ACAD_REACTORS
330
4A
102
}
330
4A
100
AcDbXrecord
280
     1
102
MATERIAL
148
0.0
149
0.0
149
0.0
 93
        0
 94
      127
282
     0
 72
     0
 77
     0
171
     0
175
     0
179
     0
273
     0
  0
XRECORD
  5
4B
102
{ACAD_REACTORS
330
4A
102
}
330
4A
100
AcDbXrecord
280
     1
270
     1
271
     1
  0
XRECORD
  5
4C
102
{ACAD_REACTORS
330
4A
102
}
330
4A
100
AcDbXrecord
280
     1
270
     1
271
     1
  0
XRECORD
  5
4D
102
{ACAD_REACTORS
330
4A
102
}
330
4A
100
AcDbXrecord
280
     1
270
     1
271
     1
  0
XRECORD
  5
4E
102
{ACAD_REACTORS
330
4A
102
}
330
4A
100
AcDbXrecord
280
     1
270
     1
271
     1
  0
XRECORD
  5
4F
102
{ACAD_REACTORS
330
4A
102
}
330
4A
100
AcDbXrecord
280
     1
270
     1
271
     1
  0
XRECORD
  5
50
102
{ACAD_REACTORS
330
4A
102
}
330
4A
100
AcDbXrecord
280
     1
270
     1
271
     1
  0
XRECORD
  5
2CB
102
{ACAD_REACTORS
330
F
102
}
330
F
100
AcDbXrecord
280
     1
102
MATERIAL
148
0.0
149
0.0
149
0.0
 93
        0
 94
      127
282
     0
 72
     0
 77
     0
171
     0
175
     0
179
     0
273
     0
  0
XRECORD
  5
10
102
{ACAD_REACTORS
330
F
102
}
330
F
100
AcDbXrecord
280
     1
270
     1
271
     1
  0
XRECORD
  5
11
102
{ACAD_REACTORS
330
F
102
}
330
F
100
AcDbXrecord
280
     1
270
     1
271
     1
  0
XRECORD
  5
12
102
{ACAD_REACTORS
330
F
102
}
330
F
100
AcDbXrecord
280
     1
270
     1
271
     1
  0
XRECORD
  5
13
102
{ACAD_REACTORS
330
F
102
}
330
F
100
AcDbXrecord
280
     1
270
     1
271
     1
  0
XRECORD
  5
14
102
{ACAD_REACTORS
330
F
102
}
330
F
100
AcDbXrecord
280
     1
270
     1
271
     1
  0
XRECORD
  5
15
102
{ACAD_REACTORS
330
F
102
}
330
F
100
AcDbXrecord
280
     1
270
     1
271
     1
  0
CELLSTYLEMAP
  5
2C6
102
{ACAD_REACTORS
330
61
102
}
330
61
100
AcDbCellStyleMap
 90
        3
300
CELLSTYLE
  1
TABLEFORMAT_BEGIN
 90
        5
170
     1
 91
        0
 92
    32768
 62
   257
 93
        1
300
CONTENTFORMAT
  1
CONTENTFORMAT_BEGIN
 90
        0
 91
        0
 92
      512
 93
        0
300

 40
0.0
140
1.0
 94
        5
 62
     0
340
28
144
0.25
309
CONTENTFORMAT_END
171
     1
301
MARGIN
  1
CELLMARGIN_BEGIN
 40
0.06
 40
0.06
 40
0.06
 40
0.06
 40
0.18
 40
0.18
309
CELLMARGIN_END
 94
        6
 95
        1
302
GRIDFORMAT
  1
GRIDFORMAT_BEGIN
 90
        0
 91
        1
 62
     0
 92
       -2
340
0
 93
        0
 40
0.045
309
GRIDFORMAT_END
 95
        2
302
GRIDFORMAT
  1
GRIDFORMAT_BEGIN
 90
        0
 91
        1
 62
     0
 92
       -2
340
0
 93
        0
 40
0.045
309
GRIDFORMAT_END
 95
        4
302
GRIDFORMAT
  1
GRIDFORMAT_BEGIN
 90
        0
 91
        1
 62
     0
 92
       -2
340
0
 93
        0
 40
0.045
309
GRIDFORMAT_END
 95
        8
302
GRIDFORMAT
  1
GRIDFORMAT_BEGIN
 90
        0
 91
        1
 62
     0
 92
       -2
340
0
 93
        0
 40
0.045
309
GRIDFORMAT_END
 95
       16
302
GRIDFORMAT
  1
GRIDFORMAT_BEGIN
 90
        0
 91
        1
 62
     0
 92
       -2
340
0
 93
        0
 40
0.045
309
GRIDFORMAT_END
 95
       32
302
GRIDFORMAT
  1
GRIDFORMAT_BEGIN
 90
        0
 91
        1
 62
     0
 92
       -2
340
0
 93
        0
 40
0.045
309
GRIDFORMAT_END
309
TABLEFORMAT_END
  1
CELLSTYLE_BEGIN
 90
        1
 91
        1
300
_TITLE
309
CELLSTYLE_END
300
CELLSTYLE
  1
TABLEFORMAT_BEGIN
 90
        5
170
     1
 91
        0
 92
        0
 62
   257
 93
        1
300
CONTENTFORMAT
  1
CONTENTFORMAT_BEGIN
 90
        0
 91
        0
 92
      512
 93
        0
300

 40
0.0
140
1.0
 94
        5
 62
     0
340
28
144
0.18
309
CONTENTFORMAT_END
171
     1
301
MARGIN
  1
CELLMARGIN_BEGIN
 40
0.06
 40
0.06
 40
0.06
 40
0.06
 40
0.18
 40
0.18
309
CELLMARGIN_END
 94
        6
 95
        1
302
GRIDFORMAT
  1
GRIDFORMAT_BEGIN
 90
        0
 91
        1
 62
     0
 92
       -2
340
0
 93
        0
 40
0.045
309
GRIDFORMAT_END
 95
        2
302
GRIDFORMAT
  1
GRIDFORMAT_BEGIN
 90
        0
 91
        1
 62
     0
 92
       -2
340
0
 93
        0
 40
0.045
309
GRIDFORMAT_END
 95
        4
302
GRIDFORMAT
  1
GRIDFORMAT_BEGIN
 90
        0
 91
        1
 62
     0
 92
       -2
340
0
 93
        0
 40
0.045
309
GRIDFORMAT_END
 95
        8
302
GRIDFORMAT
  1
GRIDFORMAT_BEGIN
 90
        0
 91
        1
 62
     0
 92
       -2
340
0
 93
        0
 40
0.045
309
GRIDFORMAT_END
 95
       16
302
GRIDFORMAT
  1
GRIDFORMAT_BEGIN
 90
        0
 91
        1
 62
     0
 92
       -2
340
0
 93
        0
 40
0.045
309
GRIDFORMAT_END
 95
       32
302
GRIDFORMAT
  1
GRIDFORMAT_BEGIN
 90
        0
 91
        1
 62
     0
 92
       -2
340
0
 93
        0
 40
0.045
309
GRIDFORMAT_END
309
TABLEFORMAT_END
  1
CELLSTYLE_BEGIN
 90
        2
 91
        1
300
_HEADER
309
CELLSTYLE_END
300
CELLSTYLE
  1
TABLEFORMAT_BEGIN
 90
        5
170
     1
 91
        0
 92
        0
 62
   257
 93
        1
300
CONTENTFORMAT
  1
CONTENTFORMAT_BEGIN
 90
        0
 91
        0
 92
      512
 93
        0
300

 40
0.0
140
1.0
 94
        2
 62
     0
340
28
144
0.18
309
CONTENTFORMAT_END
171
     1
301
MARGIN
  1
CELLMARGIN_BEGIN
 40
0.06
 40
0.06
 40
0.06
 40
0.06
 40
0.18
 40
0.18
309
CELLMARGIN_END
 94
        6
 95
        1
302
GRIDFORMAT
  1
GRIDFORMAT_BEGIN
 90
        0
 91
        1
 62
     0
 92
       -2
340
0
 93
        0
 40
0.045
309
GRIDFORMAT_END
 95
        2
302
GRIDFORMAT
  1
GRIDFORMAT_BEGIN
 90
        0
 91
        1
 62
     0
 92
       -2
340
0
 93
        0
 40
0.045
309
GRIDFORMAT_END
 95
        4
302
GRIDFORMAT
  1
GRIDFORMAT_BEGIN
 90
        0
 91
        1
 62
     0
 92
       -2
340
0
 93
        0
 40
0.045
309
GRIDFORMAT_END
 95
        8
302
GRIDFORMAT
  1
GRIDFORMAT_BEGIN
 90
        0
 91
        1
 62
     0
 92
       -2
340
0
 93
        0
 40
0.045
309
GRIDFORMAT_END
 95
       16
302
GRIDFORMAT
  1
GRIDFORMAT_BEGIN
 90
        0
 91
        1
 62
     0
 92
       -2
340
0
 93
        0
 40
0.045
309
GRIDFORMAT_END
 95
       32
302
GRIDFORMAT
  1
GRIDFORMAT_BEGIN
 90
        0
 91
        1
 62
     0
 92
       -2
340
0
 93
        0
 40
0.045
309
GRIDFORMAT_END
309
TABLEFORMAT_END
  1
CELLSTYLE_BEGIN
 90
        3
 91
        2
300
_DATA
309
CELLSTYLE_END
  0
XRECORD
  5
2CE
102
{ACAD_REACTORS
330
61
102
}
330
61
100
AcDbXrecord
280
     1
102
ACAD_ROUNDTRIP_PRE2007_TABLESTYLE
 90
      512
 91
        0
  1

 92
      512
 93
        0
  2

 94
      512
 95
        0
  3

  0
ENDSEC
  0
EOF
