  0
SECTION
  2
HEADER
  9
$ACADVER
  1
AC1018
  9
$ACADMAINTVER
 70
   104
  9
$DWGCODEPAGE
  3
ANSI_949
  9
$LASTSAVEDBY
  1
R&D
  9
$INSBASE
 10
2595.0
 20
324.0
 30
0.0
  9
$EXTMIN
 10
2605.0
 20
212.0
 30
0.0
  9
$EXTMAX
 10
2767.100000000001
 20
308.0000000000001
 30
0.0
  9
$LIMMIN
 10
0.0
 20
0.0
  9
$LIMMAX
 10
4205.0
 20
2970.0
  9
$ORTHOMODE
 70
     0
  9
$REGENMODE
 70
     1
  9
$FILLMODE
 70
     1
  9
$QTEXTMODE
 70
     0
  9
$MIRRTEXT
 70
     1
  9
$LTSCALE
 40
5.0
  9
$ATTMODE
 70
     1
  9
$TEXTSIZE
 40
4.0
  9
$TRACEWID
 40
0.05
  9
$TEXTSTYLE
  7
GHS
  9
$CLAYER
  8
TEXT
  9
$CELTYPE
  6
ByLayer
  9
$CECOLOR
 62
   256
  9
$CELTSCALE
 40
1.0
  9
$DISPSILH
 70
     0
  9
$DIMSCALE
 40
1.0
  9
$DIMASZ
 40
4.0
  9
$DIMEXO
 40
1.0
  9
$DIMDLI
 40
1.0
  9
$DIMRND
 40
0.0
  9
$DIMDLE
 40
0.0
  9
$DIMEXE
 40
1.0
  9
$DIMTP
 40
0.0
  9
$DIMTM
 40
0.0
  9
$DIMTXT
 40
5.0
  9
$DIMCEN
 40
0.5
  9
$DIMTSZ
 40
0.0
  9
$DIMTOL
 70
     0
  9
$DIMLIM
 70
     0
  9
$DIMTIH
 70
     0
  9
$DIMTOH
 70
     0
  9
$DIMSE1
 70
     0
  9
$DIMSE2
 70
     0
  9
$DIMTAD
 70
     1
  9
$DIMZIN
 70
     8
  9
$DIMBLK
  1

  9
$DIMASO
 70
     1
  9
$DIMSHO
 70
     1
  9
$DIMPOST
  1

  9
$DIMAPOST
  1

  9
$DIMALT
 70
     0
  9
$DIMALTD
 70
     2
  9
$DIMALTF
 40
25.4
  9
$DIMLFAC
 40
1.0
  9
$DIMTOFL
 70
     1
  9
$DIMTVP
 40
0.0
  9
$DIMTIX
 70
     0
  9
$DIMSOXD
 70
     0
  9
$DIMSAH
 70
     0
  9
$DIMBLK1
  1

  9
$DIMBLK2
  1

  9
$DIMSTYLE
  2
Standard
  9
$DIMCLRD
 70
   256
  9
$DIMCLRE
 70
   256
  9
$DIMCLRT
 70
   256
  9
$DIMTFAC
 40
1.0
  9
$DIMGAP
 40
1.5
  9
$DIMJUST
 70
     0
  9
$DIMSD1
 70
     0
  9
$DIMSD2
 70
     0
  9
$DIMTOLJ
 70
     1
  9
$DIMTZIN
 70
     0
  9
$DIMALTZ
 70
     0
  9
$DIMALTTZ
 70
     0
  9
$DIMUPT
 70
     0
  9
$DIMDEC
 70
     3
  9
$DIMTDEC
 70
     3
  9
$DIMALTU
 70
     2
  9
$DIMALTTD
 70
     2
  9
$DIMTXSTY
  7
GHS
  9
$DIMAUNIT
 70
     0
  9
$DIMADEC
 70
     0
  9
$DIMALTRND
 40
0.0
  9
$DIMAZIN
 70
     0
  9
$DIMDSEP
 70
    46
  9
$DIMATFIT
 70
     3
  9
$DIMFRAC
 70
     0
  9
$DIMLDRBLK
  1

  9
$DIMLUNIT
 70
     2
  9
$DIMLWD
 70
    -1
  9
$DIMLWE
 70
    -1
  9
$DIMTMOVE
 70
     0
  9
$LUNITS
 70
     2
  9
$LUPREC
 70
     3
  9
$SKETCHINC
 40
0.1
  9
$FILLETRAD
 40
4.0
  9
$AUNITS
 70
     0
  9
$AUPREC
 70
     3
  9
$MENU
  1
acad
  9
$ELEVATION
 40
0.0
  9
$PELEVATION
 40
0.0
  9
$THICKNESS
 40
0.0
  9
$LIMCHECK
 70
     0
  9
$CHAMFERA
 40
0.0
  9
$CHAMFERB
 40
0.0
  9
$CHAMFERC
 40
0.0
  9
$CHAMFERD
 40
0.0
  9
$SKPOLY
 70
     0
  9
$TDCREATE
 40
2449855.468823958
  9
$TDUCREATE
 40
2449855.093823958
  9
$TDUPDATE
 40
2455883.634876991
  9
$TDUUPDATE
 40
2455883.259876991
  9
$TDINDWG
 40
4.0519577894
  9
$TDUSRTIMER
 40
4.0519577894
  9
$USRTIMER
 70
     1
  9
$ANGBASE
 50
0.0
  9
$ANGDIR
 70
     0
  9
$PDMODE
 70
     0
  9
$PDSIZE
 40
0.0
  9
$PLINEWID
 40
0.0
  9
$SPLFRAME
 70
     0
  9
$SPLINETYPE
 70
     6
  9
$SPLINESEGS
 70
     8
  9
$HANDSEED
  5
263
  9
$SURFTAB1
 70
     6
  9
$SURFTAB2
 70
     6
  9
$SURFTYPE
 70
     6
  9
$SURFU
 70
     6
  9
$SURFV
 70
     6
  9
$UCSBASE
  2

  9
$UCSNAME
  2

  9
$UCSORG
 10
0.0
 20
0.0
 30
0.0
  9
$UCSXDIR
 10
1.0
 20
0.0
 30
0.0
  9
$UCSYDIR
 10
0.0
 20
1.0
 30
0.0
  9
$UCSORTHOREF
  2

  9
$UCSORTHOVIEW
 70
     0
  9
$UCSORGTOP
 10
0.0
 20
0.0
 30
0.0
  9
$UCSORGBOTTOM
 10
0.0
 20
0.0
 30
0.0
  9
$UCSORGLEFT
 10
0.0
 20
0.0
 30
0.0
  9
$UCSORGRIGHT
 10
0.0
 20
0.0
 30
0.0
  9
$UCSORGFRONT
 10
0.0
 20
0.0
 30
0.0
  9
$UCSORGBACK
 10
0.0
 20
0.0
 30
0.0
  9
$PUCSBASE
  2

  9
$PUCSNAME
  2

  9
$PUCSORG
 10
0.0
 20
0.0
 30
0.0
  9
$PUCSXDIR
 10
1.0
 20
0.0
 30
0.0
  9
$PUCSYDIR
 10
0.0
 20
1.0
 30
0.0
  9
$PUCSORTHOREF
  2

  9
$PUCSORTHOVIEW
 70
     0
  9
$PUCSORGTOP
 10
0.0
 20
0.0
 30
0.0
  9
$PUCSORGBOTTOM
 10
0.0
 20
0.0
 30
0.0
  9
$PUCSORGLEFT
 10
0.0
 20
0.0
 30
0.0
  9
$PUCSORGRIGHT
 10
0.0
 20
0.0
 30
0.0
  9
$PUCSORGFRONT
 10
0.0
 20
0.0
 30
0.0
  9
$PUCSORGBACK
 10
0.0
 20
0.0
 30
0.0
  9
$USERI1
 70
     0
  9
$USERI2
 70
     0
  9
$USERI3
 70
     0
  9
$USERI4
 70
     0
  9
$USERI5
 70
     0
  9
$USERR1
 40
0.0
  9
$USERR2
 40
0.0
  9
$USERR3
 40
0.0
  9
$USERR4
 40
0.0
  9
$USERR5
 40
0.0
  9
$WORLDVIEW
 70
     1
  9
$SHADEDGE
 70
     3
  9
$SHADEDIF
 70
    70
  9
$TILEMODE
 70
     1
  9
$MAXACTVP
 70
    16
  9
$PINSBASE
 10
2220.404641079056
 20
50.00000000000001
 30
2810.473195709564
  9
$PLIMCHECK
 70
     0
  9
$PEXTMIN
 10
1.000000000000000E+20
 20
1.000000000000000E+20
 30
1.000000000000000E+20
  9
$PEXTMAX
 10
-1.000000000000000E+20
 20
-1.000000000000000E+20
 30
-1.000000000000000E+20
  9
$PLIMMIN
 10
0.0
 20
0.0
  9
$PLIMMAX
 10
12.0
 20
9.0
  9
$UNITMODE
 70
     0
  9
$VISRETAIN
 70
     0
  9
$PLINEGEN
 70
     0
  9
$PSLTSCALE
 70
     1
  9
$TREEDEPTH
 70
  3020
  9
$CMLSTYLE
  2
Standard
  9
$CMLJUST
 70
     0
  9
$CMLSCALE
 40
1.0
  9
$PROXYGRAPHICS
 70
     1
  9
$MEASUREMENT
 70
     0
  9
$CELWEIGHT
370
    -1
  9
$ENDCAPS
280
     0
  9
$JOINSTYLE
280
     0
  9
$LWDISPLAY
290
     0
  9
$INSUNITS
 70
     0
  9
$HYPERLINKBASE
  1

  9
$STYLESHEET
  1

  9
$XEDIT
290
     1
  9
$CEPSNTYPE
380
     0
  9
$PSTYLEMODE
290
     1
  9
$FINGERPRINTGUID
  2
{0CEC9377-8FB2-4891-A449-B9E9CEF5177C}
  9
$VERSIONGUID
  2
{7E4C2C89-0F3F-4905-BF8C-C91D038B6FE9}
  9
$EXTNAMES
290
     1
  9
$PSVPSCALE
 40
0.0
  9
$OLESTARTUP
290
     0
  9
$SORTENTS
280
   127
  9
$INDEXCTL
280
     0
  9
$HIDETEXT
280
     1
  9
$XCLIPFRAME
290
     0
  9
$HALOGAP
280
     0
  9
$OBSCOLOR
 70
   257
  9
$OBSLTYPE
280
     0
  9
$INTERSECTIONDISPLAY
280
     0
  9
$INTERSECTIONCOLOR
 70
   257
  9
$DIMASSOC
280
     2
  9
$PROJECTNAME
  1

  0
ENDSEC
  0
SECTION
  2
CLASSES
  0
CLASS
  1
ACDBDICTIONARYWDFLT
  2
AcDbDictionaryWithDefault
  3
ObjectDBX Classes
 90
        0
 91
        1
280
     0
281
     0
  0
CLASS
  1
DICTIONARYVAR
  2
AcDbDictionaryVar
  3
ObjectDBX Classes
 90
        0
 91
        9
280
     0
281
     0
  0
CLASS
  1
DIMASSOC
  2
AcDbDimAssoc
  3
"AcDbDimAssoc|Product Desc:     AcDim ARX App For Dimension|Company:          Autodesk, Inc.|WEB Address:      www.autodesk.com"
 90
        0
 91
        0
280
     0
281
     0
  0
CLASS
  1
MATERIAL
  2
AcDbMaterial
  3
ObjectDBX Classes
 90
     1153
 91
        3
280
     0
281
     0
  0
CLASS
  1
VISUALSTYLE
  2
AcDbVisualStyle
  3
ObjectDBX Classes
 90
     4095
 91
       16
280
     0
281
     0
  0
CLASS
  1
TABLESTYLE
  2
AcDbTableStyle
  3
ObjectDBX Classes
 90
     4095
 91
        1
280
     0
281
     0
  0
CLASS
  1
SCALE
  2
AcDbScale
  3
ObjectDBX Classes
 90
     1153
 91
       34
280
     0
281
     0
  0
CLASS
  1
MLEADERSTYLE
  2
AcDbMLeaderStyle
  3
ACDB_MLEADERSTYLE_CLASS
 90
     4095
 91
        1
280
     0
281
     0
  0
CLASS
  1
CELLSTYLEMAP
  2
AcDbCellStyleMap
  3
ObjectDBX Classes
 90
     1152
 91
        2
280
     0
281
     0
  0
CLASS
  1
SORTENTSTABLE
  2
AcDbSortentsTable
  3
ObjectDBX Classes
 90
        0
 91
        1
280
     0
281
     0
  0
CLASS
  1
ACDB_TEXTOBJECTCONTEXTDATA_CLASS
  2
AcDbTextObjectContextData
  3
ObjectDBX Classes
 90
     1153
 91
        0
280
     0
281
     0
  0
CLASS
  1
SOLID_BACKGROUND
  2
AcDbSolidBackground
  3
SCENEOE
 90
     4095
 91
        0
280
     0
281
     0
  0
CLASS
  1
NPOCOLLECTION
  2
AcDbImpNonPersistentObjectsCollection
  3
ObjectDBX Classes
 90
     1153
 91
        0
280
     0
281
     0
  0
ENDSEC
  0
SECTION
  2
TABLES
  0
TABLE
  2
VPORT
  5
2F
102
{ACAD_XDICTIONARY
360
33
102
}
330
0
100
AcDbSymbolTable
 70
     1
  0
VPORT
  5
30
330
2F
100
AcDbSymbolTableRecord
100
AcDbViewportTableRecord
  2
*Active
 70
     0
 10
0.0
 20
0.0
 11
1.0
 21
1.0
 12
2686.055563500973
 22
260.0496492603956
 13
0.0
 23
0.0
 14
1.0
 24
1.0
 15
0.0
 25
0.0
 16
0.0
 26
0.0
 36
1.0
 17
0.0
 27
0.0
 37
0.0
 40
107.7737958407047
 41
1.888999999999999
 42
50.0
 43
0.0
 44
0.0
 50
0.0
 51
0.0
 71
     0
 72
 10000
 73
     1
 74
     0
 75
     0
 76
     0
 77
     0
 78
     0
281
     0
 65
     1
110
0.0
120
0.0
130
0.0
111
1.0
121
0.0
131
0.0
112
0.0
122
1.0
132
0.0
 79
     0
146
0.0
  0
ENDTAB
  0
TABLE
  2
LTYPE
  5
2A
330
0
100
AcDbSymbolTable
 70
     2
  0
LTYPE
  5
2B
330
2A
100
AcDbSymbolTableRecord
100
AcDbLinetypeTableRecord
  2
ByBlock
 70
     0
  3

 72
    65
 73
     0
 40
0.0
  0
LTYPE
  5
2C
330
2A
100
AcDbSymbolTableRecord
100
AcDbLinetypeTableRecord
  2
ByLayer
 70
     0
  3

 72
    65
 73
     0
 40
0.0
  0
LTYPE
  5
16
330
2A
100
AcDbSymbolTableRecord
100
AcDbLinetypeTableRecord
  2
CONTINUOUS
 70
     0
  3
Solid line
 72
    65
 73
     0
 40
0.0
  0
LTYPE
  5
95
330
2A
100
AcDbSymbolTableRecord
100
AcDbLinetypeTableRecord
  2
CENTER
 70
     0
  3
____ _ ____ _ ____ _ ____ _ ____ _ ____ _ ____ 
 72
    65
 73
     4
 40
2.0
 49
1.25
 74
     0
 49
-0.25
 74
     0
 49
0.25
 74
     0
 49
-0.25
 74
     0
  0
ENDTAB
  0
TABLE
  2
LAYER
  5
21
102
{ACAD_XDICTIONARY
360
22
102
}
330
0
100
AcDbSymbolTable
 70
     4
  0
LAYER
  5
7
102
{ACAD_XDICTIONARY
360
8
102
}
330
21
100
AcDbSymbolTableRecord
100
AcDbLayerTableRecord
  2
0
 70
     0
 62
     7
  6
CONTINUOUS
370
    -3
390
A
  0
LAYER
  5
92
102
{ACAD_XDICTIONARY
360
93
102
}
330
21
100
AcDbSymbolTableRecord
100
AcDbLayerTableRecord
  2
CL
 70
     0
 62
     1
  6
CENTER
370
    -3
390
A
  0
LAYER
  5
138
330
21
100
AcDbSymbolTableRecord
100
AcDbLayerTableRecord
  2
DEFPOINTS
 70
     0
 62
     7
  6
CONTINUOUS
290
     0
370
    -3
390
A
  0
LAYER
  5
5C
102
{ACAD_XDICTIONARY
360
5D
102
}
330
21
100
AcDbSymbolTableRecord
100
AcDbLayerTableRecord
  2
TEXT
 70
     0
 62
    84
  6
CONTINUOUS
370
    -3
390
A
  0
ENDTAB
  0
TABLE
  2
STYLE
  5
27
330
0
100
AcDbSymbolTable
 70
     2
  0
STYLE
  5
28
330
27
100
AcDbSymbolTableRecord
100
AcDbTextStyleTableRecord
  2
STANDARD
 70
     0
 40
0.0
 41
0.8
 50
0.0
 71
     0
 42
4.0
  3
TXT.shx
  4

  0
STYLE
  5
37
330
27
100
AcDbSymbolTableRecord
100
AcDbTextStyleTableRecord
  2
GHS
 70
     0
 40
0.0
 41
0.6
 50
0.0
 71
     0
 42
4.0
  3
ROMANS
  4
GHS
  0
ENDTAB
  0
TABLE
  2
VIEW
  5
2D
330
0
100
AcDbSymbolTable
 70
     0
  0
ENDTAB
  0
TABLE
  2
UCS
  5
2E
330
0
100
AcDbSymbolTable
 70
     0
  0
ENDTAB
  0
TABLE
  2
APPID
  5
34
330
0
100
AcDbSymbolTable
 70
     9
  0
APPID
  5
26
330
34
100
AcDbSymbolTableRecord
100
AcDbRegAppTableRecord
  2
ACAD
 70
     0
  0
APPID
  5
38
330
34
100
AcDbSymbolTableRecord
100
AcDbRegAppTableRecord
  2
ACAD_DSTYLE_DIMJAG
 70
     0
  0
APPID
  5
39
330
34
100
AcDbSymbolTableRecord
100
AcDbRegAppTableRecord
  2
ACAD_DSTYLE_DIMTALN
 70
     0
  0
APPID
  5
1A
330
34
100
AcDbSymbolTableRecord
100
AcDbRegAppTableRecord
  2
ACAD_PSEXT
 70
     0
  0
APPID
  5
42
330
34
100
AcDbSymbolTableRecord
100
AcDbRegAppTableRecord
  2
ACAD_DSTYLE_DIMBREAK
 70
     0
  0
APPID
  5
215
330
34
100
AcDbSymbolTableRecord
100
AcDbRegAppTableRecord
  2
ACAD_DSTYLE_DIM_LINETYPE
 70
     0
  0
APPID
  5
216
330
34
100
AcDbSymbolTableRecord
100
AcDbRegAppTableRecord
  2
ACAD_DSTYLE_DIM_EXT1_LINETYPE
 70
     0
  0
APPID
  5
217
330
34
100
AcDbSymbolTableRecord
100
AcDbRegAppTableRecord
  2
ACAD_DSTYLE_DIM_EXT2_LINETYPE
 70
     0
  0
APPID
  5
238
330
34
100
AcDbSymbolTableRecord
100
AcDbRegAppTableRecord
  2
ACAD_MLEADERVER
 70
     0
  0
ENDTAB
  0
TABLE
  2
DIMSTYLE
  5
35
330
0
100
AcDbSymbolTable
 70
     5
100
AcDbDimStyleTable
 71
     5
340
36
340
3A
340
3B
340
43
340
44
  0
DIMSTYLE
105
36
330
35
100
AcDbSymbolTableRecord
100
AcDbDimStyleTableRecord
  2
Standard
 70
     0
 41
4.0
 42
1.0
 43
1.0
 44
1.0
 73
     0
 74
     0
 77
     1
 78
     8
140
5.0
141
0.5
147
1.5
172
     1
176
   256
177
   256
178
   256
271
     3
272
     3
340
37
371
    -1
372
    -1
1001
ACAD_DSTYLE_DIMJAG
1070
   388
1040
1.5
1001
ACAD_DSTYLE_DIMTALN
1070
   392
1070
     0
1001
ACAD_DSTYLE_DIM_LINETYPE
1070
   380
1005
2C
1001
ACAD_DSTYLE_DIM_EXT1_LINETYPE
1070
   381
1005
2C
1001
ACAD_DSTYLE_DIM_EXT2_LINETYPE
1070
   382
1005
2C
  0
DIMSTYLE
105
3A
330
35
100
AcDbSymbolTableRecord
100
AcDbDimStyleTableRecord
  2
ISO-25
 70
     0
 41
4.0
 42
2.0
 43
1.0
 44
1.0
 73
     0
 74
     0
 77
     1
 78
     8
 79
     2
140
4.0
141
0.5
143
0.03937007874016
147
1.5
171
     3
172
     1
176
   256
177
   256
178
   256
179
     4
271
     3
272
     3
274
     3
283
     0
284
     8
340
37
371
    -1
372
    -1
1001
ACAD_DSTYLE_DIMJAG
1070
   388
1040
1.5
1001
ACAD_DSTYLE_DIMTALN
1070
   392
1070
     0
1001
ACAD_DSTYLE_DIM_LINETYPE
1070
   380
1005
2C
1001
ACAD_DSTYLE_DIM_EXT1_LINETYPE
1070
   381
1005
2C
1001
ACAD_DSTYLE_DIM_EXT2_LINETYPE
1070
   382
1005
2C
  0
DIMSTYLE
105
43
330
35
100
AcDbSymbolTableRecord
100
AcDbDimStyleTableRecord
  2
2X
 70
     0
 41
3.0
 42
1.0
 43
1.0
 44
1.0
 73
     0
 74
     0
 77
     1
 78
     8
 79
     2
140
3.0
141
0.5
144
0.5
147
1.0
172
     1
176
   256
177
   256
178
   256
179
     3
271
     3
272
     3
340
37
371
    -1
372
    -1
1001
ACAD_DSTYLE_DIMBREAK
1070
   391
1040
0.125
1001
ACAD_DSTYLE_DIMJAG
1070
   388
1040
1.5
1001
ACAD_DSTYLE_DIMTALN
1070
   392
1070
     0
1001
ACAD_DSTYLE_DIM_LINETYPE
1070
   380
1005
2C
1001
ACAD_DSTYLE_DIM_EXT1_LINETYPE
1070
   381
1005
2C
1001
ACAD_DSTYLE_DIM_EXT2_LINETYPE
1070
   382
1005
2C
  0
DIMSTYLE
105
44
102
{ACAD_REACTORS
330
12E
330
14D
330
15D
330
16C
330
17B
330
188
330
195
330
1A2
330
1B1
330
1C0
330
1CD
330
1F9
102
}
330
35
100
AcDbSymbolTableRecord
100
AcDbDimStyleTableRecord
  2
1X
 70
     0
 41
3.0
 42
1.0
 43
1.0
 44
1.0
 73
     0
 74
     0
 77
     1
 78
     8
140
3.0
141
0.5
147
1.0
172
     1
176
   256
177
   256
178
   256
271
     3
272
     3
340
37
371
    -1
372
    -1
1001
ACAD_DSTYLE_DIMBREAK
1070
   391
1040
0.125
1001
ACAD_DSTYLE_DIMJAG
1070
   388
1040
1.5
1001
ACAD_DSTYLE_DIMTALN
1070
   392
1070
     0
1001
ACAD_DSTYLE_DIM_LINETYPE
1070
   380
1005
2C
1001
ACAD_DSTYLE_DIM_EXT1_LINETYPE
1070
   381
1005
2C
1001
ACAD_DSTYLE_DIM_EXT2_LINETYPE
1070
   382
1005
2C
  0
DIMSTYLE
105
3B
330
35
100
AcDbSymbolTableRecord
100
AcDbDimStyleTableRecord
  2
CATALOG
 70
     0
 41
2.5
 42
1.0
 43
1.0
 44
1.0
 73
     0
 74
     0
 77
     1
 78
     8
 79
     2
140
3.0
141
0.5
147
1.0
172
     1
176
   256
177
   256
178
   256
179
     3
271
     3
272
     3
340
37
342
3C
371
    -1
372
    -1
1001
ACAD_DSTYLE_DIMBREAK
1070
   391
1040
0.125
1001
ACAD_DSTYLE_DIMJAG
1070
   388
1040
1.5
1001
ACAD_DSTYLE_DIMTALN
1070
   392
1070
     0
1001
ACAD_DSTYLE_DIM_LINETYPE
1070
   380
1005
2C
1001
ACAD_DSTYLE_DIM_EXT1_LINETYPE
1070
   381
1005
2C
1001
ACAD_DSTYLE_DIM_EXT2_LINETYPE
1070
   382
1005
2C
  0
ENDTAB
  0
TABLE
  2
BLOCK_RECORD
  5
1
330
0
100
AcDbSymbolTable
 70
    13
  0
BLOCK_RECORD
  5
2
102
{ACAD_XDICTIONARY
360
3
102
}
330
1
100
AcDbSymbolTableRecord
100
AcDbBlockTableRecord
  2
*Model_Space
340
18
  0
BLOCK_RECORD
  5
1B
102
{ACAD_XDICTIONARY
360
1C
102
}
330
1
100
AcDbSymbolTableRecord
100
AcDbBlockTableRecord
  2
*Paper_Space
340
20
  0
BLOCK_RECORD
  5
3C
330
1
100
AcDbSymbolTableRecord
100
AcDbBlockTableRecord
  2
_Open30
340
0
  0
BLOCK_RECORD
  5
12F
330
1
100
AcDbSymbolTableRecord
100
AcDbBlockTableRecord
  2
*D1
340
0
  0
BLOCK_RECORD
  5
14E
330
1
100
AcDbSymbolTableRecord
100
AcDbBlockTableRecord
  2
*D2
340
0
  0
BLOCK_RECORD
  5
15E
330
1
100
AcDbSymbolTableRecord
100
AcDbBlockTableRecord
  2
*D3
340
0
  0
BLOCK_RECORD
  5
16D
330
1
100
AcDbSymbolTableRecord
100
AcDbBlockTableRecord
  2
*D4
340
0
  0
BLOCK_RECORD
  5
17C
330
1
100
AcDbSymbolTableRecord
100
AcDbBlockTableRecord
  2
*D5
340
0
  0
BLOCK_RECORD
  5
189
330
1
100
AcDbSymbolTableRecord
100
AcDbBlockTableRecord
  2
*D6
340
0
  0
BLOCK_RECORD
  5
196
330
1
100
AcDbSymbolTableRecord
100
AcDbBlockTableRecord
  2
*D7
340
0
  0
BLOCK_RECORD
  5
1A3
330
1
100
AcDbSymbolTableRecord
100
AcDbBlockTableRecord
  2
*D8
340
0
  0
BLOCK_RECORD
  5
1B2
330
1
100
AcDbSymbolTableRecord
100
AcDbBlockTableRecord
  2
*D9
340
0
  0
BLOCK_RECORD
  5
1C1
330
1
100
AcDbSymbolTableRecord
100
AcDbBlockTableRecord
  2
*D10
340
0
  0
BLOCK_RECORD
  5
1CE
330
1
100
AcDbSymbolTableRecord
100
AcDbBlockTableRecord
  2
*D11
340
0
  0
BLOCK_RECORD
  5
1FA
330
1
100
AcDbSymbolTableRecord
100
AcDbBlockTableRecord
  2
*D12
340
0
  0
ENDTAB
  0
ENDSEC
  0
SECTION
  2
BLOCKS
  0
BLOCK
  5
6
330
2
100
AcDbEntity
  8
0
100
AcDbBlockBegin
  2
*Model_Space
 70
     0
 10
0.0
 20
0.0
 30
0.0
  3
*Model_Space
  1

  0
ENDBLK
  5
17
330
2
100
AcDbEntity
  8
0
100
AcDbBlockEnd
  0
BLOCK
  5
1E
330
1B
100
AcDbEntity
 67
     1
  8
0
100
AcDbBlockBegin
  2
*Paper_Space
 70
     0
 10
0.0
 20
0.0
 30
0.0
  3
*Paper_Space
  1

  0
ENDBLK
  5
1F
330
1B
100
AcDbEntity
 67
     1
  8
0
100
AcDbBlockEnd
  0
BLOCK
  5
3D
330
3C
100
AcDbEntity
  8
0
100
AcDbBlockBegin
  2
_Open30
 70
     0
 10
0.0
 20
0.0
 30
0.0
  3
_Open30
  1

  0
LINE
  5
3E
330
3C
100
AcDbEntity
  8
0
  6
ByBlock
 62
     0
370
    -2
100
AcDbLine
 10
-1.0
 20
0.26794919
 30
0.0
 11
0.0
 21
0.0
 31
0.0
  0
LINE
  5
3F
330
3C
100
AcDbEntity
  8
0
  6
ByBlock
 62
     0
370
    -2
100
AcDbLine
 10
0.0
 20
0.0
 30
0.0
 11
-1.0
 21
-0.26794919
 31
0.0
  0
LINE
  5
40
330
3C
100
AcDbEntity
  8
0
  6
ByBlock
 62
     0
370
    -2
100
AcDbLine
 10
0.0
 20
0.0
 30
0.0
 11
-1.0
 21
0.0
 31
0.0
  0
ENDBLK
  5
41
330
3C
100
AcDbEntity
  8
0
100
AcDbBlockEnd
  0
BLOCK
  5
130
330
12F
100
AcDbEntity
  8
0
100
AcDbBlockBegin
  2
*D1
 70
     1
 10
0.0
 20
0.0
 30
0.0
  3
*D1
  1

  0
LINE
  5
131
330
12F
100
AcDbEntity
  8
TEXT
100
AcDbLine
 10
2642.013975850865
 20
269.5007427748981
 30
0.0
 11
2654.464466094071
 21
257.0502525316963
 31
0.0
  0
LINE
  5
132
330
12F
100
AcDbEntity
  8
TEXT
100
AcDbLine
 10
2650.499257225102
 20
277.9860241491369
 30
0.0
 11
2662.949747468307
 21
265.5355339059351
 31
0.0
  0
LINE
  5
133
330
12F
100
AcDbEntity
  8
TEXT
100
AcDbLine
 10
2655.878679656443
 20
259.8786796564427
 30
0.0
 11
2660.121320343561
 21
264.1213203435616
 31
0.0
  0
SOLID
  5
134
330
12F
100
AcDbEntity
  8
TEXT
100
AcDbTrace
 10
2655.52512626585
 20
260.2322330470358
 30
0.0
 11
2656.232233047036
 21
259.5251262658494
 31
0.0
 12
2653.757359312884
 22
257.7573593128827
 32
0.0
 13
2653.757359312884
 23
257.7573593128827
 33
0.0
  0
SOLID
  5
135
330
12F
100
AcDbEntity
  8
TEXT
100
AcDbTrace
 10
2659.767766952968
 20
264.4748737341547
 30
0.0
 11
2660.474873734154
 21
263.7677669529683
 31
0.0
 12
2662.24264068712
 22
266.2426406871216
 32
0.0
 13
2662.24264068712
 23
266.2426406871216
 33
0.0
  0
MTEXT
  5
136
330
12F
100
AcDbEntity
  8
TEXT
100
AcDbMText
 10
2656.232233047035
 20
263.767766952968
 30
0.0
 40
3.0
 41
0.0
 71
     5
 72
     1
  1
\A1;12
  7
GHS
 11
0.7071067811864433
 21
0.7071067811866518
 31
0.0
 73
     1
 44
1.0
  0
POINT
  5
137
330
12F
100
AcDbEntity
  8
DEFPOINTS
 62
     0
100
AcDbPoint
 10
2641.306869069679
 20
270.2078495560845
 30
0.0
  0
POINT
  5
139
330
12F
100
AcDbEntity
  8
DEFPOINTS
 62
     0
100
AcDbPoint
 10
2649.792150443915
 20
278.6931309303234
 30
0.0
  0
POINT
  5
13A
330
12F
100
AcDbEntity
  8
DEFPOINTS
 62
     0
100
AcDbPoint
 10
2662.24264068712
 20
266.2426406871216
 30
0.0
  0
ENDBLK
  5
13B
330
12F
100
AcDbEntity
  8
0
100
AcDbBlockEnd
  0
BLOCK
  5
14F
330
14E
100
AcDbEntity
  8
0
100
AcDbBlockBegin
  2
*D2
 70
     1
 10
0.0
 20
0.0
 30
0.0
  3
*D2
  1

  0
LINE
  5
150
330
14E
100
AcDbEntity
  8
TEXT
100
AcDbLine
 10
2656.5
 20
277.0000000000002
 30
0.0
 11
2662.384776310845
 21
277.0000000000009
 31
0.0
  0
LINE
  5
151
330
14E
100
AcDbEntity
  8
TEXT
100
AcDbLine
 10
2643.0
 20
290.5
 30
0.0
 11
2643.0
 21
296.3847763108447
 31
0.0
  0
ARC
  5
152
330
14E
100
AcDbEntity
  8
TEXT
100
AcDbCircle
 10
2643.0
 20
277.0000000000002
 30
0.0
 40
18.38477631084457
100
AcDbArc
 50
9.359842762061756
 51
80.64015723793898
  0
SOLID
  5
153
330
14E
100
AcDbEntity
  8
TEXT
100
AcDbTrace
 10
2661.63834159889
 20
280.0307927419576
 30
0.0
 11
2660.641675558902
 21
279.9492034979746
 31
0.0
 12
2661.384776310845
 22
277.0000000000004
 32
0.0
 13
2661.384776310845
 23
277.0000000000004
 33
0.0
  0
SOLID
  5
154
330
14E
100
AcDbEntity
  8
TEXT
100
AcDbTrace
 10
2645.949203497974
 20
294.6416755589014
 30
0.0
 11
2646.030792741957
 21
295.6383415988896
 31
0.0
 12
2643.0
 22
295.3847763108447
 32
0.0
 13
2643.0
 23
295.3847763108447
 33
0.0
  0
MTEXT
  5
155
330
14E
100
AcDbEntity
  8
TEXT
100
AcDbMText
 10
2657.767766952962
 20
291.7677669529632
 30
0.0
 40
3.0
 41
0.0
 71
     5
 72
     1
  1
\A1;4-90°
  7
GHS
 11
0.7071067811865476
 21
-0.7071067811865475
 31
0.0
 73
     1
 44
1.0
  0
POINT
  5
156
330
14E
100
AcDbEntity
  8
DEFPOINTS
 62
     0
100
AcDbPoint
 10
2658.921683328085
 20
286.1923881554226
 30
0.0
  0
POINT
  5
157
330
14E
100
AcDbEntity
  8
DEFPOINTS
 62
     0
100
AcDbPoint
 10
2643.0
 20
264.5
 30
0.0
  0
POINT
  5
158
330
14E
100
AcDbEntity
  8
DEFPOINTS
 62
     0
100
AcDbPoint
 10
2655.5
 20
276.9999999999998
 30
0.0
  0
POINT
  5
159
330
14E
100
AcDbEntity
  8
DEFPOINTS
 62
     0
100
AcDbPoint
 10
2630.5
 20
277.0
 30
0.0
  0
POINT
  5
15A
330
14E
100
AcDbEntity
  8
DEFPOINTS
 62
     0
100
AcDbPoint
 10
2643.0
 20
289.4999999999998
 30
0.0
  0
ENDBLK
  5
15B
330
14E
100
AcDbEntity
  8
0
100
AcDbBlockEnd
  0
BLOCK
  5
15F
330
15E
100
AcDbEntity
  8
0
100
AcDbBlockBegin
  2
*D3
 70
     1
 10
0.0
 20
0.0
 30
0.0
  3
*D3
  1

  0
LINE
  5
160
330
15E
100
AcDbEntity
  8
TEXT
100
AcDbLine
 10
2699.3
 20
275.0
 30
0.0
 11
2692.0
 21
275.0
 31
0.0
  0
LINE
  5
161
330
15E
100
AcDbEntity
  8
TEXT
100
AcDbLine
 10
2699.0
 20
278.5
 30
0.0
 11
2692.0
 21
278.5
 31
0.0
  0
LINE
  5
162
330
15E
100
AcDbEntity
  8
TEXT
100
AcDbLine
 10
2693.0
 20
272.0
 30
0.0
 11
2693.0
 21
269.0
 31
0.0
  0
LINE
  5
163
330
15E
100
AcDbEntity
  8
TEXT
100
AcDbLine
 10
2693.0
 20
281.5
 30
0.0
 11
2693.0
 21
290.2714285714285
 31
0.0
  0
LINE
  5
164
330
15E
100
AcDbEntity
  8
TEXT
100
AcDbLine
 10
2693.0
 20
275.0
 30
0.0
 11
2693.0
 21
278.5
 31
0.0
  0
SOLID
  5
165
330
15E
100
AcDbEntity
  8
TEXT
100
AcDbTrace
 10
2692.5
 20
272.0
 30
0.0
 11
2693.5
 21
272.0
 31
0.0
 12
2693.0
 22
275.0
 32
0.0
 13
2693.0
 23
275.0
 33
0.0
  0
SOLID
  5
166
330
15E
100
AcDbEntity
  8
TEXT
100
AcDbTrace
 10
2692.5
 20
281.5
 30
0.0
 11
2693.5
 21
281.5
 31
0.0
 12
2693.0
 22
278.5
 32
0.0
 13
2693.0
 23
278.5
 33
0.0
  0
MTEXT
  5
167
330
15E
100
AcDbEntity
  8
TEXT
100
AcDbMText
 10
2690.5
 20
287.3857142857147
 30
0.0
 40
3.0
 41
0.0
 71
     5
 72
     1
  1
\A1;3.5
  7
GHS
 11
0.0000000000000001
 21
1.0
 31
0.0
 73
     1
 44
1.0
  0
POINT
  5
168
330
15E
100
AcDbEntity
  8
DEFPOINTS
 62
     0
100
AcDbPoint
 10
2700.299999999999
 20
275.0
 30
0.0
  0
POINT
  5
169
330
15E
100
AcDbEntity
  8
DEFPOINTS
 62
     0
100
AcDbPoint
 10
2700.0
 20
278.5
 30
0.0
  0
POINT
  5
16A
330
15E
100
AcDbEntity
  8
DEFPOINTS
 62
     0
100
AcDbPoint
 10
2693.0
 20
278.5
 30
0.0
  0
ENDBLK
  5
16B
330
15E
100
AcDbEntity
  8
0
100
AcDbBlockEnd
  0
BLOCK
  5
16E
330
16D
100
AcDbEntity
  8
0
100
AcDbBlockBegin
  2
*D4
 70
     1
 10
0.0
 20
0.0
 30
0.0
  3
*D4
  1

  0
LINE
  5
16F
330
16D
100
AcDbEntity
  8
TEXT
100
AcDbLine
 10
2699.3
 20
275.0
 30
0.0
 11
2685.0
 21
275.0
 31
0.0
  0
LINE
  5
170
330
16D
100
AcDbEntity
  8
TEXT
100
AcDbLine
 10
2707.0
 20
279.0
 30
0.0
 11
2685.0
 21
279.0
 31
0.0
  0
LINE
  5
171
330
16D
100
AcDbEntity
  8
TEXT
100
AcDbLine
 10
2686.0
 20
272.0000000000001
 30
0.0
 11
2686.0
 21
269.0000000000001
 31
0.0
  0
LINE
  5
172
330
16D
100
AcDbEntity
  8
TEXT
100
AcDbLine
 10
2686.0
 20
282.0000000000001
 30
0.0
 11
2686.0
 21
285.0000000000001
 31
0.0
  0
LINE
  5
173
330
16D
100
AcDbEntity
  8
TEXT
100
AcDbLine
 10
2686.0
 20
275.0
 30
0.0
 11
2686.0
 21
279.0
 31
0.0
  0
SOLID
  5
174
330
16D
100
AcDbEntity
  8
TEXT
100
AcDbTrace
 10
2685.5
 20
272.0000000000001
 30
0.0
 11
2686.5
 21
272.0000000000001
 31
0.0
 12
2686.0
 22
275.0
 32
0.0
 13
2686.0
 23
275.0
 33
0.0
  0
SOLID
  5
175
330
16D
100
AcDbEntity
  8
TEXT
100
AcDbTrace
 10
2685.5
 20
282.0000000000001
 30
0.0
 11
2686.5
 21
282.0000000000001
 31
0.0
 12
2686.0
 22
279.0
 32
0.0
 13
2686.0
 23
279.0
 33
0.0
  0
MTEXT
  5
176
330
16D
100
AcDbEntity
  8
TEXT
100
AcDbMText
 10
2683.5
 20
277.0000000000004
 30
0.0
 40
3.0
 41
0.0
 71
     5
 72
     1
  1
\A1;%%C4
  7
GHS
 11
0.0000000000000001
 21
1.0
 31
0.0
 73
     1
 44
1.0
  0
POINT
  5
177
330
16D
100
AcDbEntity
  8
DEFPOINTS
 62
     0
100
AcDbPoint
 10
2700.299999999999
 20
275.0
 30
0.0
  0
POINT
  5
178
330
16D
100
AcDbEntity
  8
DEFPOINTS
 62
     0
100
AcDbPoint
 10
2708.0
 20
279.0
 30
0.0
  0
POINT
  5
179
330
16D
100
AcDbEntity
  8
DEFPOINTS
 62
     0
100
AcDbPoint
 10
2686.0
 20
279.0
 30
0.0
  0
ENDBLK
  5
17A
330
16D
100
AcDbEntity
  8
0
100
AcDbBlockEnd
  0
BLOCK
  5
17D
330
17C
100
AcDbEntity
  8
0
100
AcDbBlockBegin
  2
*D5
 70
     1
 10
0.0
 20
0.0
 30
0.0
  3
*D5
  1

  0
LINE
  5
17E
330
17C
100
AcDbEntity
  8
TEXT
100
AcDbLine
 10
2711.3
 20
270.0
 30
0.0
 11
2678.0
 21
270.0000000000001
 31
0.0
  0
LINE
  5
17F
330
17C
100
AcDbEntity
  8
TEXT
100
AcDbLine
 10
2711.3
 20
284.0
 30
0.0
 11
2678.0
 21
284.0000000000001
 31
0.0
  0
LINE
  5
180
330
17C
100
AcDbEntity
  8
TEXT
100
AcDbLine
 10
2679.0
 20
273.0
 30
0.0
 11
2679.0
 21
281.0
 31
0.0
  0
SOLID
  5
181
330
17C
100
AcDbEntity
  8
TEXT
100
AcDbTrace
 10
2678.5
 20
273.0
 30
0.0
 11
2679.5
 21
273.0
 31
0.0
 12
2679.0
 22
270.0000000000001
 32
0.0
 13
2679.0
 23
270.0000000000001
 33
0.0
  0
SOLID
  5
182
330
17C
100
AcDbEntity
  8
TEXT
100
AcDbTrace
 10
2678.5
 20
281.0
 30
0.0
 11
2679.5
 21
281.0
 31
0.0
 12
2679.0
 22
284.0000000000001
 32
0.0
 13
2679.0
 23
284.0000000000001
 33
0.0
  0
MTEXT
  5
183
330
17C
100
AcDbEntity
  8
TEXT
100
AcDbMText
 10
2676.5
 20
277.0000000000004
 30
0.0
 40
3.0
 41
0.0
 71
     5
 72
     1
  1
\A1;%%C14
  7
GHS
 11
0.0000000000000001
 21
1.0
 31
0.0
 73
     1
 44
1.0
  0
POINT
  5
184
330
17C
100
AcDbEntity
  8
DEFPOINTS
 62
     0
100
AcDbPoint
 10
2712.299999999999
 20
270.0
 30
0.0
  0
POINT
  5
185
330
17C
100
AcDbEntity
  8
DEFPOINTS
 62
     0
100
AcDbPoint
 10
2712.299999999999
 20
284.0
 30
0.0
  0
POINT
  5
186
330
17C
100
AcDbEntity
  8
DEFPOINTS
 62
     0
100
AcDbPoint
 10
2679.0
 20
284.0000000000001
 30
0.0
  0
ENDBLK
  5
187
330
17C
100
AcDbEntity
  8
0
100
AcDbBlockEnd
  0
BLOCK
  5
18A
330
189
100
AcDbEntity
  8
0
100
AcDbBlockBegin
  2
*D6
 70
     1
 10
0.0
 20
0.0
 30
0.0
  3
*D6
  1

  0
LINE
  5
18B
330
189
100
AcDbEntity
  8
TEXT
100
AcDbLine
 10
2713.299999999999
 20
266.0
 30
0.0
 11
2671.0
 21
266.0000000000001
 31
0.0
  0
LINE
  5
18C
330
189
100
AcDbEntity
  8
TEXT
100
AcDbLine
 10
2713.299999999999
 20
288.0
 30
0.0
 11
2671.0
 21
288.0000000000001
 31
0.0
  0
LINE
  5
18D
330
189
100
AcDbEntity
  8
TEXT
100
AcDbLine
 10
2672.0
 20
269.0000000000001
 30
0.0
 11
2672.0
 21
285.0000000000001
 31
0.0
  0
SOLID
  5
18E
330
189
100
AcDbEntity
  8
TEXT
100
AcDbTrace
 10
2671.5
 20
269.0000000000001
 30
0.0
 11
2672.5
 21
269.0000000000001
 31
0.0
 12
2672.0
 22
266.0000000000001
 32
0.0
 13
2672.0
 23
266.0000000000001
 33
0.0
  0
SOLID
  5
18F
330
189
100
AcDbEntity
  8
TEXT
100
AcDbTrace
 10
2671.5
 20
285.0000000000001
 30
0.0
 11
2672.5
 21
285.0000000000001
 31
0.0
 12
2672.0
 22
288.0000000000001
 32
0.0
 13
2672.0
 23
288.0000000000001
 33
0.0
  0
MTEXT
  5
190
330
189
100
AcDbEntity
  8
TEXT
100
AcDbMText
 10
2669.5
 20
277.0000000000004
 30
0.0
 40
3.0
 41
0.0
 71
     5
 72
     1
  1
\A1;%%C22
  7
GHS
 11
0.0000000000000001
 21
1.0
 31
0.0
 73
     1
 44
1.0
  0
POINT
  5
191
330
189
100
AcDbEntity
  8
DEFPOINTS
 62
     0
100
AcDbPoint
 10
2714.3
 20
266.0
 30
0.0
  0
POINT
  5
192
330
189
100
AcDbEntity
  8
DEFPOINTS
 62
     0
100
AcDbPoint
 10
2714.3
 20
288.0
 30
0.0
  0
POINT
  5
193
330
189
100
AcDbEntity
  8
DEFPOINTS
 62
     0
100
AcDbPoint
 10
2672.0
 20
288.0000000000001
 30
0.0
  0
ENDBLK
  5
194
330
189
100
AcDbEntity
  8
0
100
AcDbBlockEnd
  0
BLOCK
  5
197
330
196
100
AcDbEntity
  8
0
100
AcDbBlockBegin
  2
*D7
 70
     1
 10
0.0
 20
0.0
 30
0.0
  3
*D7
  1

  0
LINE
  5
198
330
196
100
AcDbEntity
  8
TEXT
100
AcDbLine
 10
2714.0
 20
288.7
 30
0.0
 11
2714.0
 21
305.0
 31
0.0
  0
LINE
  5
199
330
196
100
AcDbEntity
  8
TEXT
100
AcDbLine
 10
2732.049999999999
 20
289.0
 30
0.0
 11
2732.049999999999
 21
305.0
 31
0.0
  0
LINE
  5
19A
330
196
100
AcDbEntity
  8
TEXT
100
AcDbLine
 10
2717.0
 20
304.0
 30
0.0
 11
2729.049999999999
 21
304.0
 31
0.0
  0
SOLID
  5
19B
330
196
100
AcDbEntity
  8
TEXT
100
AcDbTrace
 10
2717.0
 20
304.5
 30
0.0
 11
2717.0
 21
303.5
 31
0.0
 12
2714.0
 22
304.0
 32
0.0
 13
2714.0
 23
304.0
 33
0.0
  0
SOLID
  5
19C
330
196
100
AcDbEntity
  8
TEXT
100
AcDbTrace
 10
2729.049999999999
 20
304.5
 30
0.0
 11
2729.049999999999
 21
303.5
 31
0.0
 12
2732.049999999999
 22
304.0
 32
0.0
 13
2732.049999999999
 23
304.0
 33
0.0
  0
MTEXT
  5
19D
330
196
100
AcDbEntity
  8
TEXT
100
AcDbMText
 10
2723.025
 20
306.5
 30
0.0
 40
3.0
 41
0.0
 71
     5
 72
     1
  1
\A1;L
  7
GHS
 73
     1
 44
1.0
  0
POINT
  5
19E
330
196
100
AcDbEntity
  8
DEFPOINTS
 62
     0
100
AcDbPoint
 10
2714.0
 20
287.7000000000001
 30
0.0
  0
POINT
  5
19F
330
196
100
AcDbEntity
  8
DEFPOINTS
 62
     0
100
AcDbPoint
 10
2732.049999999999
 20
288.0
 30
0.0
  0
POINT
  5
1A0
330
196
100
AcDbEntity
  8
DEFPOINTS
 62
     0
100
AcDbPoint
 10
2732.049999999999
 20
304.0
 30
0.0
  0
ENDBLK
  5
1A1
330
196
100
AcDbEntity
  8
0
100
AcDbBlockEnd
  0
BLOCK
  5
1A4
330
1A3
100
AcDbEntity
  8
0
100
AcDbBlockBegin
  2
*D8
 70
     1
 10
0.0
 20
0.0
 30
0.0
  3
*D8
  1

  0
LINE
  5
1A5
330
1A3
100
AcDbEntity
  8
TEXT
100
AcDbLine
 10
2714.0
 20
288.7
 30
0.0
 11
2714.0
 21
299.0
 31
0.0
  0
LINE
  5
1A6
330
1A3
100
AcDbEntity
  8
TEXT
100
AcDbLine
 10
2712.0
 20
284.7
 30
0.0
 11
2712.0
 21
299.0
 31
0.0
  0
LINE
  5
1A7
330
1A3
100
AcDbEntity
  8
TEXT
100
AcDbLine
 10
2717.0
 20
298.0
 30
0.0
 11
2720.0
 21
298.0
 31
0.0
  0
LINE
  5
1A8
330
1A3
100
AcDbEntity
  8
TEXT
100
AcDbLine
 10
2709.0
 20
298.0
 30
0.0
 11
2702.8
 21
298.0
 31
0.0
  0
LINE
  5
1A9
330
1A3
100
AcDbEntity
  8
TEXT
100
AcDbLine
 10
2714.0
 20
298.0
 30
0.0
 11
2712.0
 21
298.0
 31
0.0
  0
SOLID
  5
1AA
330
1A3
100
AcDbEntity
  8
TEXT
100
AcDbTrace
 10
2717.0
 20
298.5
 30
0.0
 11
2717.0
 21
297.5
 31
0.0
 12
2714.0
 22
298.0
 32
0.0
 13
2714.0
 23
298.0
 33
0.0
  0
SOLID
  5
1AB
330
1A3
100
AcDbEntity
  8
TEXT
100
AcDbTrace
 10
2709.0
 20
298.5
 30
0.0
 11
2709.0
 21
297.5
 31
0.0
 12
2712.0
 22
298.0
 32
0.0
 13
2712.0
 23
298.0
 33
0.0
  0
MTEXT
  5
1AC
330
1A3
100
AcDbEntity
  8
TEXT
100
AcDbMText
 10
2704.4
 20
300.5
 30
0.0
 40
3.0
 41
0.0
 71
     5
 72
     1
  1
\A1;2
  7
GHS
 73
     1
 44
1.0
  0
POINT
  5
1AD
330
1A3
100
AcDbEntity
  8
DEFPOINTS
 62
     0
100
AcDbPoint
 10
2714.0
 20
287.7000000000001
 30
0.0
  0
POINT
  5
1AE
330
1A3
100
AcDbEntity
  8
DEFPOINTS
 62
     0
100
AcDbPoint
 10
2712.0
 20
283.7000000000001
 30
0.0
  0
POINT
  5
1AF
330
1A3
100
AcDbEntity
  8
DEFPOINTS
 62
     0
100
AcDbPoint
 10
2712.0
 20
298.0
 30
0.0
  0
ENDBLK
  5
1B0
330
1A3
100
AcDbEntity
  8
0
100
AcDbBlockEnd
  0
BLOCK
  5
1B3
330
1B2
100
AcDbEntity
  8
0
100
AcDbBlockBegin
  2
*D9
 70
     1
 10
0.0
 20
0.0
 30
0.0
  3
*D9
  1

  0
LINE
  5
1B4
330
1B2
100
AcDbEntity
  8
TEXT
100
AcDbLine
 10
2700.0
 20
279.5
 30
0.0
 11
2700.0
 21
293.0
 31
0.0
  0
LINE
  5
1B5
330
1B2
100
AcDbEntity
  8
TEXT
100
AcDbLine
 10
2708.0
 20
280.0
 30
0.0
 11
2708.0
 21
293.0
 31
0.0
  0
LINE
  5
1B6
330
1B2
100
AcDbEntity
  8
TEXT
100
AcDbLine
 10
2697.0
 20
292.0
 30
0.0
 11
2694.0
 21
292.0
 31
0.0
  0
LINE
  5
1B7
330
1B2
100
AcDbEntity
  8
TEXT
100
AcDbLine
 10
2711.0
 20
292.0
 30
0.0
 11
2714.0
 21
292.0
 31
0.0
  0
LINE
  5
1B8
330
1B2
100
AcDbEntity
  8
TEXT
100
AcDbLine
 10
2700.0
 20
292.0
 30
0.0
 11
2708.0
 21
292.0
 31
0.0
  0
SOLID
  5
1B9
330
1B2
100
AcDbEntity
  8
TEXT
100
AcDbTrace
 10
2697.0
 20
292.5
 30
0.0
 11
2697.0
 21
291.5
 31
0.0
 12
2700.0
 22
292.0
 32
0.0
 13
2700.0
 23
292.0
 33
0.0
  0
SOLID
  5
1BA
330
1B2
100
AcDbEntity
  8
TEXT
100
AcDbTrace
 10
2711.0
 20
292.5
 30
0.0
 11
2711.0
 21
291.5
 31
0.0
 12
2708.0
 22
292.0
 32
0.0
 13
2708.0
 23
292.0
 33
0.0
  0
MTEXT
  5
1BB
330
1B2
100
AcDbEntity
  8
TEXT
100
AcDbMText
 10
2704.0
 20
294.5
 30
0.0
 40
3.0
 41
0.0
 71
     5
 72
     1
  1
\A1;8
  7
GHS
 73
     1
 44
1.0
  0
POINT
  5
1BC
330
1B2
100
AcDbEntity
  8
DEFPOINTS
 62
     0
100
AcDbPoint
 10
2700.0
 20
278.5
 30
0.0
  0
POINT
  5
1BD
330
1B2
100
AcDbEntity
  8
DEFPOINTS
 62
     0
100
AcDbPoint
 10
2708.0
 20
279.0
 30
0.0
  0
POINT
  5
1BE
330
1B2
100
AcDbEntity
  8
DEFPOINTS
 62
     0
100
AcDbPoint
 10
2708.0
 20
292.0
 30
0.0
  0
ENDBLK
  5
1BF
330
1B2
100
AcDbEntity
  8
0
100
AcDbBlockEnd
  0
BLOCK
  5
1C2
330
1C1
100
AcDbEntity
  8
0
100
AcDbBlockBegin
  2
*D10
 70
     1
 10
0.0
 20
0.0
 30
0.0
  3
*D10
  1

  0
LINE
  5
1C3
330
1C1
100
AcDbEntity
  8
TEXT
100
AcDbLine
 10
2700.0
 20
279.5
 30
0.0
 11
2700.0
 21
305.0
 31
0.0
  0
LINE
  5
1C4
330
1C1
100
AcDbEntity
  8
TEXT
100
AcDbLine
 10
2714.0
 20
288.7
 30
0.0
 11
2714.0
 21
305.0
 31
0.0
  0
LINE
  5
1C5
330
1C1
100
AcDbEntity
  8
TEXT
100
AcDbLine
 10
2703.0
 20
304.0
 30
0.0
 11
2711.0
 21
304.0
 31
0.0
  0
SOLID
  5
1C6
330
1C1
100
AcDbEntity
  8
TEXT
100
AcDbTrace
 10
2703.0
 20
304.5
 30
0.0
 11
2703.0
 21
303.5
 31
0.0
 12
2700.0
 22
304.0
 32
0.0
 13
2700.0
 23
304.0
 33
0.0
  0
SOLID
  5
1C7
330
1C1
100
AcDbEntity
  8
TEXT
100
AcDbTrace
 10
2711.0
 20
304.5
 30
0.0
 11
2711.0
 21
303.5
 31
0.0
 12
2714.0
 22
304.0
 32
0.0
 13
2714.0
 23
304.0
 33
0.0
  0
MTEXT
  5
1C8
330
1C1
100
AcDbEntity
  8
TEXT
100
AcDbMText
 10
2707.0
 20
306.5
 30
0.0
 40
3.0
 41
0.0
 71
     5
 72
     1
  1
\A1;14
  7
GHS
 73
     1
 44
1.0
  0
POINT
  5
1C9
330
1C1
100
AcDbEntity
  8
DEFPOINTS
 62
     0
100
AcDbPoint
 10
2700.0
 20
278.5
 30
0.0
  0
POINT
  5
1CA
330
1C1
100
AcDbEntity
  8
DEFPOINTS
 62
     0
100
AcDbPoint
 10
2714.0
 20
287.7000000000001
 30
0.0
  0
POINT
  5
1CB
330
1C1
100
AcDbEntity
  8
DEFPOINTS
 62
     0
100
AcDbPoint
 10
2714.0
 20
304.0
 30
0.0
  0
ENDBLK
  5
1CC
330
1C1
100
AcDbEntity
  8
0
100
AcDbBlockEnd
  0
BLOCK
  5
1CF
330
1CE
100
AcDbEntity
  8
0
100
AcDbBlockBegin
  2
*D11
 70
     1
 10
0.0
 20
0.0
 30
0.0
  3
*D11
  1

  0
LINE
  5
1D0
330
1CE
100
AcDbEntity
  8
TEXT
100
AcDbLine
 10
2732.049999999999
 20
289.0
 30
0.0
 11
2732.049999999999
 21
305.0
 31
0.0
  0
LINE
  5
1D1
330
1CE
100
AcDbEntity
  8
TEXT
100
AcDbLine
 10
2751.15
 20
290.0999999999999
 30
0.0
 11
2751.15
 21
305.0
 31
0.0
  0
LINE
  5
1D2
330
1CE
100
AcDbEntity
  8
TEXT
100
AcDbLine
 10
2735.049999999999
 20
304.0
 30
0.0
 11
2748.15
 21
304.0
 31
0.0
  0
SOLID
  5
1D3
330
1CE
100
AcDbEntity
  8
TEXT
100
AcDbTrace
 10
2735.049999999999
 20
304.5
 30
0.0
 11
2735.049999999999
 21
303.5
 31
0.0
 12
2732.049999999999
 22
304.0
 32
0.0
 13
2732.049999999999
 23
304.0
 33
0.0
  0
SOLID
  5
1D4
330
1CE
100
AcDbEntity
  8
TEXT
100
AcDbTrace
 10
2748.15
 20
304.5
 30
0.0
 11
2748.15
 21
303.5
 31
0.0
 12
2751.15
 22
304.0
 32
0.0
 13
2751.15
 23
304.0
 33
0.0
  0
MTEXT
  5
1D5
330
1CE
100
AcDbEntity
  8
TEXT
100
AcDbMText
 10
2741.6
 20
306.5
 30
0.0
 40
3.0
 41
0.0
 71
     5
 72
     1
  1
\A1;19.1
  7
GHS
 73
     1
 44
1.0
  0
POINT
  5
1D6
330
1CE
100
AcDbEntity
  8
DEFPOINTS
 62
     0
100
AcDbPoint
 10
2732.049999999999
 20
288.0
 30
0.0
  0
POINT
  5
1D7
330
1CE
100
AcDbEntity
  8
DEFPOINTS
 62
     0
100
AcDbPoint
 10
2751.15
 20
289.0999999999999
 30
0.0
  0
POINT
  5
1D8
330
1CE
100
AcDbEntity
  8
DEFPOINTS
 62
     0
100
AcDbPoint
 10
2751.15
 20
304.0
 30
0.0
  0
ENDBLK
  5
1D9
330
1CE
100
AcDbEntity
  8
0
100
AcDbBlockEnd
  0
BLOCK
  5
1FB
330
1FA
100
AcDbEntity
  8
0
100
AcDbBlockBegin
  2
*D12
 70
     1
 10
0.0
 20
0.0
 30
0.0
  3
*D12
  1

  0
LINE
  5
1FC
330
1FA
100
AcDbEntity
  8
TEXT
100
AcDbLine
 10
2752.15
 20
289.0999999999999
 30
0.0
 11
2767.100000000001
 21
289.0999999999999
 31
0.0
  0
LINE
  5
1FD
330
1FA
100
AcDbEntity
  8
TEXT
100
AcDbLine
 10
2752.15
 20
264.9000000000001
 30
0.0
 11
2767.100000000001
 21
264.9000000000001
 31
0.0
  0
LINE
  5
1FE
330
1FA
100
AcDbEntity
  8
TEXT
100
AcDbLine
 10
2766.100000000001
 20
286.0999999999999
 30
0.0
 11
2766.100000000001
 21
267.9000000000001
 31
0.0
  0
SOLID
  5
1FF
330
1FA
100
AcDbEntity
  8
TEXT
100
AcDbTrace
 10
2765.600000000001
 20
286.0999999999999
 30
0.0
 11
2766.6
 21
286.0999999999999
 31
0.0
 12
2766.100000000001
 22
289.0999999999999
 32
0.0
 13
2766.100000000001
 23
289.0999999999999
 33
0.0
  0
SOLID
  5
200
330
1FA
100
AcDbEntity
  8
TEXT
100
AcDbTrace
 10
2765.600000000001
 20
267.9000000000001
 30
0.0
 11
2766.6
 21
267.9000000000001
 31
0.0
 12
2766.100000000001
 22
264.9000000000001
 32
0.0
 13
2766.100000000001
 23
264.9000000000001
 33
0.0
  0
MTEXT
  5
201
330
1FA
100
AcDbEntity
  8
TEXT
100
AcDbMText
 10
2763.6
 20
277.0000000000004
 30
0.0
 40
3.0
 41
0.0
 71
     5
 72
     1
  1
\A1;%%C24.2
  7
GHS
 11
0.0000000000000001
 21
1.0
 31
0.0
 73
     1
 44
1.0
  0
POINT
  5
202
330
1FA
100
AcDbEntity
  8
DEFPOINTS
 62
     0
100
AcDbPoint
 10
2751.15
 20
289.0999999999999
 30
0.0
  0
POINT
  5
203
330
1FA
100
AcDbEntity
  8
DEFPOINTS
 62
     0
100
AcDbPoint
 10
2751.15
 20
264.9000000000001
 30
0.0
  0
POINT
  5
204
330
1FA
100
AcDbEntity
  8
DEFPOINTS
 62
     0
100
AcDbPoint
 10
2766.100000000001
 20
264.9000000000001
 30
0.0
  0
ENDBLK
  5
205
330
1FA
100
AcDbEntity
  8
0
100
AcDbBlockEnd
  0
ENDSEC
  0
SECTION
  2
ENTITIES
  0
LINE
  5
86
330
2
100
AcDbEntity
  8
0
100
AcDbLine
 10
2751.15
 20
264.9000000000001
 30
0.0
 11
2751.15
 21
289.0999999999999
 31
0.0
  0
LINE
  5
87
330
2
100
AcDbEntity
  8
0
100
AcDbLine
 10
2752.95
 20
276.0
 30
0.0
 11
2752.95
 21
278.0
 31
0.0
  0
LINE
  5
88
330
2
100
AcDbEntity
  8
0
100
AcDbLine
 10
2752.65
 20
274.0
 30
0.0
 11
2752.65
 21
280.0
 31
0.0
  0
LINE
  5
89
330
2
100
AcDbEntity
  8
0
100
AcDbLine
 10
2752.65
 20
278.0
 30
0.0
 11
2752.95
 21
278.0
 31
0.0
  0
LINE
  5
8A
330
2
100
AcDbEntity
  8
0
100
AcDbLine
 10
2752.65
 20
276.0
 30
0.0
 11
2752.95
 21
276.0
 31
0.0
  0
LINE
  5
8B
330
2
100
AcDbEntity
  8
0
100
AcDbLine
 10
2751.15
 20
280.0
 30
0.0
 11
2752.65
 21
279.9999999999995
 31
0.0
  0
LINE
  5
8C
330
2
100
AcDbEntity
  8
0
100
AcDbLine
 10
2751.15
 20
274.0000000000005
 30
0.0
 11
2752.65
 21
274.0
 31
0.0
  0
ARC
  5
8D
330
2
100
AcDbEntity
  8
0
100
AcDbCircle
 10
2733.049999999999
 20
288.0999999999999
 30
0.0
 40
1.0
100
AcDbArc
 50
90.0
 51
180.0
  0
ARC
  5
8E
330
2
100
AcDbEntity
  8
0
100
AcDbCircle
 10
2733.049999999999
 20
265.9000000000001
 30
0.0
 40
1.0
100
AcDbArc
 50
180.0
 51
270.0
  0
LINE
  5
8F
330
2
100
AcDbEntity
  8
0
100
AcDbLine
 10
2733.049999999999
 20
264.9000000000001
 30
0.0
 11
2751.15
 21
264.9000000000001
 31
0.0
  0
LINE
  5
90
330
2
100
AcDbEntity
  8
0
100
AcDbLine
 10
2733.049999999999
 20
289.0999999999999
 30
0.0
 11
2751.15
 21
289.0999999999999
 31
0.0
  0
LINE
  5
91
330
2
100
AcDbEntity
  8
CL
100
AcDbLine
 10
2698.5
 20
277.0
 30
0.0
 11
2755.95
 21
277.0
 31
0.0
  0
LINE
  5
96
330
2
100
AcDbEntity
  8
0
100
AcDbLine
 10
2711.1
 20
275.5
 30
0.0
 11
2711.200000000001
 21
275.5
 31
0.0
  0
LINE
  5
97
330
2
100
AcDbEntity
  8
0
100
AcDbLine
 10
2711.200000000001
 20
273.5
 30
0.0
 11
2711.8
 21
273.5
 31
0.0
  0
LINE
  5
98
330
2
100
AcDbEntity
  8
0
100
AcDbLine
 10
2711.8
 20
273.5
 30
0.0
 11
2712.0
 21
273.5
 31
0.0
  0
LINE
  5
99
330
2
100
AcDbEntity
  8
0
100
AcDbLine
 10
2708.0
 20
279.0
 30
0.0
 11
2711.1
 21
279.0
 31
0.0
  0
LINE
  5
9A
330
2
100
AcDbEntity
  8
0
100
AcDbLine
 10
2700.0
 20
278.5
 30
0.0
 11
2708.0
 21
278.5
 31
0.0
  0
LINE
  5
9B
330
2
100
AcDbEntity
  8
0
100
AcDbLine
 10
2700.299999999999
 20
275.0
 30
0.0
 11
2711.1
 21
275.0
 31
0.0
  0
LINE
  5
9C
330
2
100
AcDbEntity
  8
0
 48
2.0
100
AcDbLine
 10
2732.049999999999
 20
266.0
 30
0.0
 11
2732.049999999999
 21
288.0
 31
0.0
  0
LINE
  5
9D
330
2
100
AcDbEntity
  8
0
 48
2.0
100
AcDbLine
 10
2729.450000000001
 20
266.0
 30
0.0
 11
2729.450000000001
 21
288.0
 31
0.0
  0
LINE
  5
9E
330
2
100
AcDbEntity
  8
0
100
AcDbLine
 10
2718.0
 20
266.0
 30
0.0
 11
2718.0
 21
288.0
 31
0.0
  0
LINE
  5
9F
330
2
100
AcDbEntity
  8
0
100
AcDbLine
 10
2714.0
 20
266.3
 30
0.0
 11
2714.0
 21
287.7000000000001
 31
0.0
  0
LINE
  5
A0
330
2
100
AcDbEntity
  8
0
100
AcDbLine
 10
2716.0
 20
283.3177633296294
 30
0.0
 11
2716.0
 21
286.0047690981381
 31
0.0
  0
ARC
  5
A1
330
2
100
AcDbEntity
  8
0
100
AcDbCircle
 10
2714.3
 20
287.7000000000001
 30
0.0
 40
0.3
100
AcDbArc
 50
90.0
 51
180.0
  0
ARC
  5
A2
330
2
100
AcDbEntity
  8
0
100
AcDbCircle
 10
2712.299999999999
 20
283.7000000000001
 30
0.0
 40
0.3
100
AcDbArc
 50
90.0
 51
180.0
  0
LINE
  5
A3
330
2
100
AcDbEntity
  8
0
100
AcDbLine
 10
2712.299999999999
 20
284.0
 30
0.0
 11
2714.0
 21
284.0
 31
0.0
  0
LINE
  5
A4
330
2
100
AcDbEntity
  8
0
100
AcDbLine
 10
2714.3
 20
288.0
 30
0.0
 11
2732.049999999999
 21
288.0
 31
0.0
  0
ARC
  5
A5
330
2
100
AcDbEntity
  8
0
100
AcDbCircle
 10
2714.3
 20
266.3
 30
0.0
 40
0.3
100
AcDbArc
 50
180.0
 51
270.0
  0
ARC
  5
A6
330
2
100
AcDbEntity
  8
0
100
AcDbCircle
 10
2712.299999999999
 20
270.2999999999999
 30
0.0
 40
0.3
100
AcDbArc
 50
180.0
 51
270.0
  0
LINE
  5
A7
330
2
100
AcDbEntity
  8
0
100
AcDbLine
 10
2712.299999999999
 20
270.0
 30
0.0
 11
2714.0
 21
270.0
 31
0.0
  0
LINE
  5
A8
330
2
100
AcDbEntity
  8
0
100
AcDbLine
 10
2714.3
 20
266.0
 30
0.0
 11
2732.049999999999
 21
266.0
 31
0.0
  0
LINE
  5
A9
330
2
100
AcDbEntity
  8
0
100
AcDbLine
 10
2700.0
 20
275.3
 30
0.0
 11
2700.0
 21
278.5
 31
0.0
  0
LINE
  5
AA
330
2
100
AcDbEntity
  8
0
100
AcDbLine
 10
2700.299999999999
 20
275.0
 30
0.0
 11
2700.299999999999
 21
278.5
 31
0.0
  0
LINE
  5
AB
330
2
100
AcDbEntity
  8
0
100
AcDbLine
 10
2708.0
 20
278.5
 30
0.0
 11
2708.0
 21
278.9999999999999
 31
0.0
  0
LINE
  5
AC
330
2
100
AcDbEntity
  8
0
100
AcDbLine
 10
2711.1
 20
278.5
 30
0.0
 11
2711.200000000001
 21
278.5
 31
0.0
  0
LINE
  5
AD
330
2
100
AcDbEntity
  8
0
100
AcDbLine
 10
2711.200000000001
 20
280.5
 30
0.0
 11
2711.8
 21
280.5
 31
0.0
  0
LINE
  5
AE
330
2
100
AcDbEntity
  8
0
100
AcDbLine
 10
2711.8
 20
280.5
 30
0.0
 11
2712.0
 21
280.5
 31
0.0
  0
LINE
  5
AF
330
2
100
AcDbEntity
  8
0
100
AcDbLine
 10
2712.0
 20
283.7000000000001
 30
0.0
 11
2712.0
 21
270.2999999999999
 31
0.0
  0
LINE
  5
B0
330
2
100
AcDbEntity
  8
0
100
AcDbLine
 10
2711.8
 20
280.5
 30
0.0
 11
2711.8
 21
279.0500000000001
 31
0.0
  0
LINE
  5
B1
330
2
100
AcDbEntity
  8
0
100
AcDbLine
 10
2711.8
 20
280.5
 30
0.0
 11
2711.8
 21
273.5
 31
0.0
  0
LINE
  5
B2
330
2
100
AcDbEntity
  8
0
100
AcDbLine
 10
2711.200000000001
 20
280.5
 30
0.0
 11
2711.200000000001
 21
273.5
 31
0.0
  0
LINE
  5
B3
330
2
100
AcDbEntity
  8
0
100
AcDbLine
 10
2711.1
 20
279.0
 30
0.0
 11
2711.1
 21
275.0
 31
0.0
  0
LINE
  5
B4
330
2
100
AcDbEntity
  8
0
100
AcDbLine
 10
2700.299999999999
 20
275.0
 30
0.0
 11
2700.0
 21
275.3000000000001
 31
0.0
  0
CIRCLE
  5
B5
330
2
100
AcDbEntity
  8
0
100
AcDbCircle
 10
2643.0
 20
277.0
 30
0.0
 40
11.0
  0
LINE
  5
B6
330
2
100
AcDbEntity
  8
CL
100
AcDbLine
 10
2643.0
 20
264.5
 30
0.0
 11
2643.0
 21
289.5
 31
0.0
  0
LINE
  5
B7
330
2
100
AcDbEntity
  8
CL
100
AcDbLine
 10
2655.5
 20
277.0
 30
0.0
 11
2630.5
 21
277.0
 31
0.0
  0
LINE
  5
B8
330
2
100
AcDbEntity
  8
0
100
AcDbLine
 10
2637.979541853576
 20
284.7074639149334
 30
0.0
 11
2636.682236670371
 21
286.0047690981385
 31
0.0
  0
LINE
  5
B9
330
2
100
AcDbEntity
  8
0
100
AcDbLine
 10
2635.292536085068
 20
282.0204581464243
 30
0.0
 11
2633.995230901863
 21
283.3177633296293
 31
0.0
  0
LINE
  5
BA
330
2
100
AcDbEntity
  8
0
100
AcDbLine
 10
2641.306869069679
 20
270.2078495560843
 30
0.0
 11
2636.207849556086
 21
275.3068690696771
 31
0.0
  0
LINE
  5
BB
330
2
100
AcDbEntity
  8
0
100
AcDbLine
 10
2649.792150443915
 20
278.6931309303229
 30
0.0
 11
2644.693130930322
 21
283.7921504439157
 31
0.0
  0
CIRCLE
  5
BC
330
2
100
AcDbEntity
  8
0
100
AcDbCircle
 10
2643.0
 20
277.0
 30
0.0
 40
4.9
  0
ARC
  5
BD
330
2
100
AcDbEntity
  8
0
100
AcDbCircle
 10
2643.0
 20
277.0
 30
0.0
 40
7.0
100
AcDbArc
 50
256.0027191338987
 51
13.99728086611814
  0
ARC
  5
BE
330
2
100
AcDbEntity
  8
0
100
AcDbCircle
 10
2643.0
 20
277.0
 30
0.0
 40
7.0
100
AcDbArc
 50
76.00271913389907
 51
193.9972808661181
  0
CIRCLE
  5
BF
330
2
100
AcDbEntity
  8
CL
100
AcDbCircle
 10
2643.0
 20
277.0
 30
0.0
 40
9.0
  0
ARC
  5
C0
330
2
100
AcDbEntity
  8
0
100
AcDbCircle
 10
2636.636038969322
 20
283.3639610306789
 30
0.0
 40
1.9
100
AcDbArc
 50
224.9999999999956
 51
44.99999999999559
  0
CIRCLE
  5
C1
330
2
100
AcDbEntity
  8
0
100
AcDbCircle
 10
2643.0
 20
285.9999999999998
 30
0.0
 40
0.7850000000000001
  0
LINE
  5
C2
330
2
100
AcDbEntity
  8
0
100
AcDbLine
 10
2635.292536085068
 20
271.9795418535755
 30
0.0
 11
2633.995230901863
 21
270.6822366703705
 31
0.0
  0
LINE
  5
C3
330
2
100
AcDbEntity
  8
0
100
AcDbLine
 10
2637.979541853576
 20
269.2925360850666
 30
0.0
 11
2636.682236670371
 21
267.9952309018615
 31
0.0
  0
ARC
  5
C4
330
2
100
AcDbEntity
  8
0
100
AcDbCircle
 10
2636.636038969322
 20
270.636038969321
 30
0.0
 40
1.9
100
AcDbArc
 50
315.0000000000044
 51
135.0000000000044
  0
LINE
  5
C5
330
2
100
AcDbEntity
  8
CL
100
AcDbLine
 10
2651.485281374239
 20
285.4852813742386
 30
0.0
 11
2647.24264068712
 21
281.2426406871193
 31
0.0
  0
LINE
  5
C6
330
2
100
AcDbEntity
  8
CL
100
AcDbLine
 10
2638.75735931288
 20
272.7573593128807
 30
0.0
 11
2634.514718625762
 21
268.5147186257613
 31
0.0
  0
CIRCLE
  5
C7
330
2
100
AcDbEntity
  8
0
100
AcDbCircle
 10
2634.0
 20
277.0
 30
0.0
 40
0.7850000000000001
  0
LINE
  5
C8
330
2
100
AcDbEntity
  8
0
100
AcDbLine
 10
2648.020458146425
 20
269.2925360850666
 30
0.0
 11
2649.317763329629
 21
267.9952309018615
 31
0.0
  0
LINE
  5
C9
330
2
100
AcDbEntity
  8
0
100
AcDbLine
 10
2650.707463914932
 20
271.9795418535755
 30
0.0
 11
2652.004769098138
 21
270.6822366703705
 31
0.0
  0
ARC
  5
CA
330
2
100
AcDbEntity
  8
0
100
AcDbCircle
 10
2649.363961030678
 20
270.636038969321
 30
0.0
 40
1.9
100
AcDbArc
 50
44.99999999999559
 51
224.9999999999956
  0
LINE
  5
CB
330
2
100
AcDbEntity
  8
CL
100
AcDbLine
 10
2634.514718625762
 20
285.4852813742386
 30
0.0
 11
2638.75735931288
 21
281.2426406871191
 31
0.0
  0
LINE
  5
CC
330
2
100
AcDbEntity
  8
CL
100
AcDbLine
 10
2647.24264068712
 20
272.7573593128807
 30
0.0
 11
2651.485281374239
 21
268.5147186257613
 31
0.0
  0
CIRCLE
  5
CD
330
2
100
AcDbEntity
  8
0
100
AcDbCircle
 10
2643.0
 20
268.0
 30
0.0
 40
0.7850000000000001
  0
LINE
  5
CE
330
2
100
AcDbEntity
  8
0
100
AcDbLine
 10
2650.707463914932
 20
282.0204581464245
 30
0.0
 11
2652.004769098138
 21
283.3177633296295
 31
0.0
  0
LINE
  5
CF
330
2
100
AcDbEntity
  8
0
100
AcDbLine
 10
2648.020458146425
 20
284.7074639149333
 30
0.0
 11
2649.317763329629
 21
286.0047690981383
 31
0.0
  0
ARC
  5
D0
330
2
100
AcDbEntity
  8
0
100
AcDbCircle
 10
2649.363961030678
 20
283.3639610306789
 30
0.0
 40
1.9
100
AcDbArc
 50
135.0000000000044
 51
315.0000000000044
  0
ARC
  5
D1
330
2
100
AcDbEntity
  8
0
100
AcDbCircle
 10
2652.0
 20
277.0000000000002
 30
0.0
 40
1.0
100
AcDbArc
 50
259.999999999995
 51
190.0000000000035
  0
CIRCLE
  5
D2
330
2
100
AcDbEntity
  8
0
100
AcDbCircle
 10
2652.0
 20
277.0000000000001
 30
0.0
 40
0.7850000000000001
  0
ARC
  5
D3
330
2
100
AcDbEntity
  8
0
100
AcDbCircle
 10
2643.0
 20
268.0
 30
0.0
 40
1.0
100
AcDbArc
 50
259.999999999995
 51
190.0000000000035
  0
ARC
  5
D4
330
2
100
AcDbEntity
  8
0
100
AcDbCircle
 10
2634.0
 20
277.0
 30
0.0
 40
1.0
100
AcDbArc
 50
259.999999999995
 51
190.0000000000035
  0
ARC
  5
D5
330
2
100
AcDbEntity
  8
0
100
AcDbCircle
 10
2643.0
 20
285.9999999999998
 30
0.0
 40
1.0
100
AcDbArc
 50
259.999999999995
 51
190.0000000000035
  0
CIRCLE
  5
D6
330
2
100
AcDbEntity
  8
0
100
AcDbCircle
 10
2643.0
 20
277.0
 30
0.0
 40
2.0
  0
ARC
  5
D7
330
2
100
AcDbEntity
  8
0
100
AcDbCircle
 10
2643.0
 20
277.0000000000001
 30
0.0
 40
1.7
100
AcDbArc
 50
118.0724869358255
 51
61.92751306417449
  0
LINE
  5
D8
330
2
100
AcDbEntity
  8
0
100
AcDbLine
 10
2645.061552812809
 20
277.0
 30
0.0
 11
2645.0
 21
277.0
 31
0.0
  0
LINE
  5
D9
330
2
100
AcDbEntity
  8
0
100
AcDbLine
 10
2644.0
 20
278.7320508075688
 30
0.0
 11
2644.030776406406
 21
278.7853571071357
 31
0.0
  0
LINE
  5
DA
330
2
100
AcDbEntity
  8
0
100
AcDbLine
 10
2641.626481932375
 20
275.5462296887374
 30
0.0
 11
2641.255145520383
 21
274.7476654069215
 31
0.0
  0
ARC
  5
DB
330
2
100
AcDbEntity
  8
0
100
AcDbCircle
 10
2643.0
 20
277.0
 30
0.0
 40
2.5
100
AcDbArc
 50
10.98057542761294
 51
49.01942457239584
  0
ARC
  5
DC
330
2
100
AcDbEntity
  8
0
100
AcDbCircle
 10
2645.061552812809
 20
277.4
 30
0.0
 40
0.4
100
AcDbArc
 50
270.0
 51
10.98057542761294
  0
ARC
  5
DD
330
2
100
AcDbEntity
  8
0
100
AcDbCircle
 10
2644.377186567919
 20
278.5853571071357
 30
0.0
 40
0.4
100
AcDbArc
 50
49.01942457239584
 51
149.9999999999847
  0
LINE
  5
DE
330
2
100
AcDbEntity
  8
0
100
AcDbLine
 10
2642.0
 20
278.7320508075688
 30
0.0
 11
2641.969223593595
 21
278.7853571071357
 31
0.0
  0
ARC
  5
DF
330
2
100
AcDbEntity
  8
0
100
AcDbCircle
 10
2641.622813432081
 20
278.5853571071357
 30
0.0
 40
0.4
100
AcDbArc
 50
30.00000000001528
 51
130.9805754276041
  0
ARC
  5
E0
330
2
100
AcDbEntity
  8
0
100
AcDbCircle
 10
2643.0
 20
277.0
 30
0.0
 40
2.5
100
AcDbArc
 50
130.9805754276041
 51
169.0194245723871
  0
ARC
  5
E1
330
2
100
AcDbEntity
  8
0
100
AcDbCircle
 10
2640.938447187191
 20
277.4
 30
0.0
 40
0.4
100
AcDbArc
 50
169.0194245723871
 51
270.0
  0
LINE
  5
E2
330
2
100
AcDbEntity
  8
0
100
AcDbLine
 10
2640.938447187191
 20
277.0
 30
0.0
 11
2641.0
 21
277.0
 31
0.0
  0
ARC
  5
E3
330
2
100
AcDbEntity
  8
0
100
AcDbCircle
 10
2640.801765680111
 20
274.9584893155161
 30
0.0
 40
0.5
100
AcDbArc
 50
222.8830056572683
 51
335.0613351381023
  0
ARC
  5
E4
330
2
100
AcDbEntity
  8
0
100
AcDbCircle
 10
2645.198234319889
 20
274.9584893155161
 30
0.0
 40
0.5
100
AcDbArc
 50
204.9386648618977
 51
317.1169943427317
  0
LINE
  5
E5
330
2
100
AcDbEntity
  8
0
100
AcDbLine
 10
2644.373518067625
 20
275.5462296887374
 30
0.0
 11
2644.744854479617
 21
274.7476654069215
 31
0.0
  0
LINE
  5
E6
330
2
100
AcDbEntity
  8
0
100
AcDbLine
 10
2644.322875655533
 20
278.5
 30
0.0
 11
2641.677124344468
 21
278.5
 31
0.0
  0
ARC
  5
E7
330
2
100
AcDbEntity
  8
0
100
AcDbCircle
 10
2643.0
 20
277.0
 30
0.0
 40
3.5
100
AcDbArc
 50
317.1169943427317
 51
222.8830056572683
  0
TEXT
  5
E8
330
2
100
AcDbEntity
  8
TEXT
100
AcDbText
 10
2605.8
 20
297.8571428571429
 30
0.0
 40
3.0
  1
4-M2 TAP (DP 4)
 41
0.6
  7
GHS
 72
     2
 11
2631.0
 21
297.8571428571429
 31
0.0
100
AcDbText
  0
TEXT
  5
E9
330
2
100
AcDbEntity
  8
TEXT
100
AcDbText
 10
2616.942857142857
 20
293.0
 30
0.0
 40
3.0
  1
PCD %%C18 
 41
0.6
  7
GHS
 72
     2
 11
2631.0
 21
293.0
 31
0.0
100
AcDbText
  0
CIRCLE
  5
EA
330
2
100
AcDbEntity
  8
0
100
AcDbCircle
 10
2649.363961030678
 20
283.3639610306789
 30
0.0
 40
1.75
  0
ARC
  5
EB
330
2
100
AcDbEntity
  8
0
100
AcDbCircle
 10
2650.159456159514
 20
283.3639610306789
 30
0.0
 40
0.3125
100
AcDbArc
 50
135.0000000000044
 51
224.999999999991
  0
ARC
  5
EC
330
2
100
AcDbEntity
  8
0
100
AcDbCircle
 10
2649.363961030678
 20
284.1594561595138
 30
0.0
 40
0.3125
100
AcDbArc
 50
224.9999999999956
 51
315.0000000000044
  0
LINE
  5
ED
330
2
100
AcDbEntity
  8
0
100
AcDbLine
 10
2649.938485290393
 20
283.1429901615582
 30
0.0
 11
2650.247844507161
 21
282.833630944789
 31
0.0
  0
ARC
  5
EE
330
2
100
AcDbEntity
  8
0
100
AcDbCircle
 10
2649.363961030678
 20
282.5684659018441
 30
0.0
 40
0.3125
100
AcDbArc
 50
44.99999999999559
 51
135.0000000000044
  0
LINE
  5
EF
330
2
100
AcDbEntity
  8
0
100
AcDbLine
 10
2649.584931899801
 20
282.7894367709648
 30
0.0
 11
2649.894291116569
 21
282.4800775541957
 31
0.0
  0
LINE
  5
F0
330
2
100
AcDbEntity
  8
0
100
AcDbLine
 10
2648.833630944789
 20
282.4800775541957
 30
0.0
 11
2649.142990161559
 21
282.7894367709648
 31
0.0
  0
LINE
  5
F1
330
2
100
AcDbEntity
  8
0
100
AcDbLine
 10
2650.247844507161
 20
282.833630944789
 30
0.0
 11
2649.894291116569
 21
282.4800775541957
 31
0.0
  0
ARC
  5
F2
330
2
100
AcDbEntity
  8
0
100
AcDbCircle
 10
2648.568465901844
 20
283.3639610306789
 30
0.0
 40
0.3125
100
AcDbArc
 50
315.0000000000044
 51
44.99999999999559
  0
LINE
  5
F3
330
2
100
AcDbEntity
  8
0
100
AcDbLine
 10
2648.833630944789
 20
284.2478445071621
 30
0.0
 11
2649.142990161559
 21
283.9384852903929
 31
0.0
  0
LINE
  5
F4
330
2
100
AcDbEntity
  8
0
100
AcDbLine
 10
2648.480077554195
 20
283.8942911165688
 30
0.0
 11
2648.789436770965
 21
283.5849318997997
 31
0.0
  0
LINE
  5
F5
330
2
100
AcDbEntity
  8
0
100
AcDbLine
 10
2648.833630944789
 20
284.2478445071621
 30
0.0
 11
2648.480077554195
 21
283.8942911165688
 31
0.0
  0
LINE
  5
F6
330
2
100
AcDbEntity
  8
0
100
AcDbLine
 10
2648.480077554195
 20
282.833630944789
 30
0.0
 11
2648.789436770965
 21
283.1429901615582
 31
0.0
  0
LINE
  5
F7
330
2
100
AcDbEntity
  8
0
100
AcDbLine
 10
2648.480077554195
 20
282.833630944789
 30
0.0
 11
2648.833630944789
 21
282.4800775541957
 31
0.0
  0
LINE
  5
F8
330
2
100
AcDbEntity
  8
0
100
AcDbLine
 10
2649.938485290393
 20
283.5849318997997
 30
0.0
 11
2650.247844507161
 21
283.8942911165688
 31
0.0
  0
LINE
  5
F9
330
2
100
AcDbEntity
  8
0
100
AcDbLine
 10
2649.584931899801
 20
283.9384852903929
 30
0.0
 11
2649.894291116569
 21
284.2478445071621
 31
0.0
  0
LINE
  5
FA
330
2
100
AcDbEntity
  8
0
100
AcDbLine
 10
2649.894291116569
 20
284.2478445071621
 30
0.0
 11
2650.247844507161
 21
283.8942911165688
 31
0.0
  0
CIRCLE
  5
FB
330
2
100
AcDbEntity
  8
0
100
AcDbCircle
 10
2636.636038969322
 20
283.3639610306789
 30
0.0
 40
1.75
  0
ARC
  5
FC
330
2
100
AcDbEntity
  8
0
100
AcDbCircle
 10
2637.431534098156
 20
283.3639610306789
 30
0.0
 40
0.3125
100
AcDbArc
 50
135.0000000000044
 51
224.999999999991
  0
ARC
  5
FD
330
2
100
AcDbEntity
  8
0
100
AcDbCircle
 10
2636.636038969322
 20
284.1594561595138
 30
0.0
 40
0.3125
100
AcDbArc
 50
224.9999999999956
 51
315.0000000000044
  0
LINE
  5
FE
330
2
100
AcDbEntity
  8
0
100
AcDbLine
 10
2637.210563229035
 20
283.1429901615582
 30
0.0
 11
2637.519922445805
 21
282.833630944789
 31
0.0
  0
ARC
  5
FF
330
2
100
AcDbEntity
  8
0
100
AcDbCircle
 10
2636.636038969322
 20
282.5684659018441
 30
0.0
 40
0.3125
100
AcDbArc
 50
44.99999999999559
 51
135.0000000000044
  0
LINE
  5
100
330
2
100
AcDbEntity
  8
0
100
AcDbLine
 10
2636.857009838441
 20
282.7894367709648
 30
0.0
 11
2637.166369055212
 21
282.4800775541957
 31
0.0
  0
LINE
  5
101
330
2
100
AcDbEntity
  8
0
100
AcDbLine
 10
2636.105708883432
 20
282.4800775541957
 30
0.0
 11
2636.4150681002
 21
282.7894367709648
 31
0.0
  0
LINE
  5
102
330
2
100
AcDbEntity
  8
0
100
AcDbLine
 10
2637.519922445805
 20
282.833630944789
 30
0.0
 11
2637.166369055212
 21
282.4800775541957
 31
0.0
  0
ARC
  5
103
330
2
100
AcDbEntity
  8
0
100
AcDbCircle
 10
2635.840543840486
 20
283.3639610306789
 30
0.0
 40
0.3125
100
AcDbArc
 50
315.0000000000044
 51
44.99999999999559
  0
LINE
  5
104
330
2
100
AcDbEntity
  8
0
100
AcDbLine
 10
2636.105708883432
 20
284.2478445071621
 30
0.0
 11
2636.4150681002
 21
283.9384852903929
 31
0.0
  0
LINE
  5
105
330
2
100
AcDbEntity
  8
0
100
AcDbLine
 10
2635.752155492839
 20
283.8942911165688
 30
0.0
 11
2636.061514709607
 21
283.5849318997997
 31
0.0
  0
LINE
  5
106
330
2
100
AcDbEntity
  8
0
100
AcDbLine
 10
2636.105708883432
 20
284.2478445071621
 30
0.0
 11
2635.752155492839
 21
283.8942911165688
 31
0.0
  0
LINE
  5
107
330
2
100
AcDbEntity
  8
0
100
AcDbLine
 10
2635.752155492839
 20
282.833630944789
 30
0.0
 11
2636.061514709607
 21
283.1429901615582
 31
0.0
  0
LINE
  5
108
330
2
100
AcDbEntity
  8
0
100
AcDbLine
 10
2635.752155492839
 20
282.833630944789
 30
0.0
 11
2636.105708883432
 21
282.4800775541957
 31
0.0
  0
LINE
  5
109
330
2
100
AcDbEntity
  8
0
100
AcDbLine
 10
2637.210563229035
 20
283.5849318997997
 30
0.0
 11
2637.519922445805
 21
283.8942911165688
 31
0.0
  0
LINE
  5
10A
330
2
100
AcDbEntity
  8
0
100
AcDbLine
 10
2636.857009838441
 20
283.9384852903929
 30
0.0
 11
2637.166369055212
 21
284.2478445071621
 31
0.0
  0
LINE
  5
10B
330
2
100
AcDbEntity
  8
0
100
AcDbLine
 10
2637.166369055212
 20
284.2478445071621
 30
0.0
 11
2637.519922445805
 21
283.8942911165688
 31
0.0
  0
CIRCLE
  5
10C
330
2
100
AcDbEntity
  8
0
100
AcDbCircle
 10
2636.636038969322
 20
270.636038969321
 30
0.0
 40
1.75
  0
ARC
  5
10D
330
2
100
AcDbEntity
  8
0
100
AcDbCircle
 10
2637.431534098156
 20
270.636038969321
 30
0.0
 40
0.3125
100
AcDbArc
 50
135.0000000000044
 51
224.999999999991
  0
ARC
  5
10E
330
2
100
AcDbEntity
  8
0
100
AcDbCircle
 10
2636.636038969322
 20
271.4315340981559
 30
0.0
 40
0.3125
100
AcDbArc
 50
224.9999999999956
 51
315.0000000000044
  0
LINE
  5
10F
330
2
100
AcDbEntity
  8
0
100
AcDbLine
 10
2637.210563229035
 20
270.4150681002002
 30
0.0
 11
2637.519922445805
 21
270.1057088834311
 31
0.0
  0
ARC
  5
110
330
2
100
AcDbEntity
  8
0
100
AcDbCircle
 10
2636.636038969322
 20
269.8405438404861
 30
0.0
 40
0.3125
100
AcDbArc
 50
44.99999999999559
 51
135.0000000000044
  0
LINE
  5
111
330
2
100
AcDbEntity
  8
0
100
AcDbLine
 10
2636.857009838441
 20
270.0615147096069
 30
0.0
 11
2637.166369055212
 21
269.7521554928378
 31
0.0
  0
LINE
  5
112
330
2
100
AcDbEntity
  8
0
100
AcDbLine
 10
2636.105708883432
 20
269.7521554928378
 30
0.0
 11
2636.4150681002
 21
270.0615147096069
 31
0.0
  0
LINE
  5
113
330
2
100
AcDbEntity
  8
0
100
AcDbLine
 10
2637.519922445805
 20
270.1057088834311
 30
0.0
 11
2637.166369055212
 21
269.7521554928378
 31
0.0
  0
ARC
  5
114
330
2
100
AcDbEntity
  8
0
100
AcDbCircle
 10
2635.840543840486
 20
270.636038969321
 30
0.0
 40
0.3125
100
AcDbArc
 50
315.0000000000044
 51
44.99999999999559
  0
LINE
  5
115
330
2
100
AcDbEntity
  8
0
100
AcDbLine
 10
2636.105708883432
 20
271.5199224458042
 30
0.0
 11
2636.4150681002
 21
271.2105632290352
 31
0.0
  0
LINE
  5
116
330
2
100
AcDbEntity
  8
0
100
AcDbLine
 10
2635.752155492839
 20
271.1663690552109
 30
0.0
 11
2636.061514709607
 21
270.8570098384419
 31
0.0
  0
LINE
  5
117
330
2
100
AcDbEntity
  8
0
100
AcDbLine
 10
2636.105708883432
 20
271.5199224458042
 30
0.0
 11
2635.752155492839
 21
271.1663690552109
 31
0.0
  0
LINE
  5
118
330
2
100
AcDbEntity
  8
0
100
AcDbLine
 10
2635.752155492839
 20
270.1057088834311
 30
0.0
 11
2636.061514709607
 21
270.4150681002002
 31
0.0
  0
LINE
  5
119
330
2
100
AcDbEntity
  8
0
100
AcDbLine
 10
2635.752155492839
 20
270.1057088834311
 30
0.0
 11
2636.105708883432
 21
269.7521554928378
 31
0.0
  0
LINE
  5
11A
330
2
100
AcDbEntity
  8
0
100
AcDbLine
 10
2637.210563229035
 20
270.8570098384419
 30
0.0
 11
2637.519922445805
 21
271.1663690552109
 31
0.0
  0
LINE
  5
11B
330
2
100
AcDbEntity
  8
0
100
AcDbLine
 10
2636.857009838441
 20
271.2105632290351
 30
0.0
 11
2637.166369055212
 21
271.5199224458042
 31
0.0
  0
LINE
  5
11C
330
2
100
AcDbEntity
  8
0
100
AcDbLine
 10
2637.166369055212
 20
271.5199224458042
 30
0.0
 11
2637.519922445805
 21
271.1663690552109
 31
0.0
  0
CIRCLE
  5
11D
330
2
100
AcDbEntity
  8
0
100
AcDbCircle
 10
2649.363961030678
 20
270.636038969321
 30
0.0
 40
1.75
  0
ARC
  5
11E
330
2
100
AcDbEntity
  8
0
100
AcDbCircle
 10
2650.159456159514
 20
270.6360389693212
 30
0.0
 40
0.3125
100
AcDbArc
 50
135.0000000000044
 51
224.999999999991
  0
ARC
  5
11F
330
2
100
AcDbEntity
  8
0
100
AcDbCircle
 10
2649.363961030678
 20
271.4315340981559
 30
0.0
 40
0.3125
100
AcDbArc
 50
224.9999999999956
 51
315.0000000000044
  0
LINE
  5
120
330
2
100
AcDbEntity
  8
0
100
AcDbLine
 10
2649.938485290393
 20
270.4150681002002
 30
0.0
 11
2650.247844507161
 21
270.1057088834311
 31
0.0
  0
ARC
  5
121
330
2
100
AcDbEntity
  8
0
100
AcDbCircle
 10
2649.363961030678
 20
269.8405438404861
 30
0.0
 40
0.3125
100
AcDbArc
 50
44.99999999999559
 51
135.0000000000044
  0
LINE
  5
122
330
2
100
AcDbEntity
  8
0
100
AcDbLine
 10
2649.584931899801
 20
270.0615147096069
 30
0.0
 11
2649.894291116569
 21
269.7521554928378
 31
0.0
  0
LINE
  5
123
330
2
100
AcDbEntity
  8
0
100
AcDbLine
 10
2648.833630944789
 20
269.7521554928378
 30
0.0
 11
2649.142990161559
 21
270.0615147096069
 31
0.0
  0
LINE
  5
124
330
2
100
AcDbEntity
  8
0
100
AcDbLine
 10
2650.247844507161
 20
270.1057088834311
 30
0.0
 11
2649.894291116569
 21
269.7521554928378
 31
0.0
  0
ARC
  5
125
330
2
100
AcDbEntity
  8
0
100
AcDbCircle
 10
2648.568465901844
 20
270.636038969321
 30
0.0
 40
0.3125
100
AcDbArc
 50
315.0000000000044
 51
44.99999999999559
  0
LINE
  5
126
330
2
100
AcDbEntity
  8
0
100
AcDbLine
 10
2648.833630944789
 20
271.5199224458042
 30
0.0
 11
2649.142990161559
 21
271.2105632290352
 31
0.0
  0
LINE
  5
127
330
2
100
AcDbEntity
  8
0
100
AcDbLine
 10
2648.480077554195
 20
271.1663690552109
 30
0.0
 11
2648.789436770965
 21
270.8570098384419
 31
0.0
  0
LINE
  5
128
330
2
100
AcDbEntity
  8
0
100
AcDbLine
 10
2648.833630944789
 20
271.5199224458042
 30
0.0
 11
2648.480077554195
 21
271.1663690552109
 31
0.0
  0
LINE
  5
129
330
2
100
AcDbEntity
  8
0
100
AcDbLine
 10
2648.480077554195
 20
270.1057088834311
 30
0.0
 11
2648.789436770965
 21
270.4150681002002
 31
0.0
  0
LINE
  5
12A
330
2
100
AcDbEntity
  8
0
100
AcDbLine
 10
2648.480077554195
 20
270.1057088834311
 30
0.0
 11
2648.833630944789
 21
269.7521554928378
 31
0.0
  0
LINE
  5
12B
330
2
100
AcDbEntity
  8
0
100
AcDbLine
 10
2649.938485290393
 20
270.8570098384419
 30
0.0
 11
2650.247844507161
 21
271.1663690552109
 31
0.0
  0
LINE
  5
12C
330
2
100
AcDbEntity
  8
0
100
AcDbLine
 10
2649.584931899801
 20
271.2105632290352
 30
0.0
 11
2649.894291116569
 21
271.5199224458042
 31
0.0
  0
LINE
  5
12D
330
2
100
AcDbEntity
  8
0
100
AcDbLine
 10
2649.894291116569
 20
271.5199224458042
 30
0.0
 11
2650.247844507161
 21
271.1663690552109
 31
0.0
  0
DIMENSION
  5
12E
330
2
100
AcDbEntity
  8
TEXT
100
AcDbDimension
  2
*D1
 10
2662.24264068712
 20
266.2426406871216
 30
0.0
 11
2656.232233047035
 21
263.767766952968
 31
0.0
 70
     1
 71
     5
 42
11.99999999999863
  3
1X
100
AcDbAlignedDimension
 13
2641.306869069679
 23
270.2078495560843
 33
0.0
 14
2649.792150443915
 24
278.6931309303231
 34
0.0
  0
LINE
  5
13C
330
2
100
AcDbEntity
  8
0
100
AcDbLine
 10
2714.3
 20
283.3177633296294
 30
0.0
 11
2716.0
 21
283.3177633296294
 31
0.0
  0
LINE
  5
13D
330
2
100
AcDbEntity
  8
0
100
AcDbLine
 10
2714.3
 20
286.0047690981383
 30
0.0
 11
2716.0
 21
286.0047690981381
 31
0.0
  0
LINE
  5
13E
330
2
100
AcDbEntity
  8
0
100
AcDbLine
 10
2714.75
 20
283.3177633296294
 30
0.0
 11
2714.75
 21
284.363961030679
 31
0.0
  0
LINE
  5
13F
330
2
100
AcDbEntity
  8
0
100
AcDbLine
 10
2716.0
 20
285.113961030679
 30
0.0
 11
2715.5
 21
285.113961030679
 31
0.0
  0
ARC
  5
140
330
2
100
AcDbEntity
  8
0
100
AcDbCircle
 10
2715.5
 20
284.363961030679
 30
0.0
 40
0.75
100
AcDbArc
 50
90.0
 51
180.0
  0
ARC
  5
141
330
2
100
AcDbEntity
  8
0
100
AcDbCircle
 10
2714.3
 20
285.7047690981383
 30
0.0
 40
0.3
100
AcDbArc
 50
90.0
 51
180.0
  0
ARC
  5
142
330
2
100
AcDbEntity
  8
0
100
AcDbCircle
 10
2714.3
 20
283.0177633296295
 30
0.0
 40
0.3
100
AcDbArc
 50
90.0
 51
180.0
  0
LINE
  5
143
330
2
100
AcDbEntity
  8
0
100
AcDbLine
 10
2716.0
 20
270.6822366703706
 30
0.0
 11
2716.0
 21
267.9952309018619
 31
0.0
  0
LINE
  5
144
330
2
100
AcDbEntity
  8
0
100
AcDbLine
 10
2714.3
 20
270.6822366703706
 30
0.0
 11
2716.0
 21
270.6822366703706
 31
0.0
  0
LINE
  5
145
330
2
100
AcDbEntity
  8
0
100
AcDbLine
 10
2714.3
 20
267.9952309018617
 30
0.0
 11
2716.0
 21
267.9952309018619
 31
0.0
  0
LINE
  5
146
330
2
100
AcDbEntity
  8
0
100
AcDbLine
 10
2714.75
 20
270.6822366703706
 30
0.0
 11
2714.75
 21
269.636038969321
 31
0.0
  0
LINE
  5
147
330
2
100
AcDbEntity
  8
0
100
AcDbLine
 10
2716.0
 20
268.886038969321
 30
0.0
 11
2715.5
 21
268.886038969321
 31
0.0
  0
ARC
  5
148
330
2
100
AcDbEntity
  8
0
100
AcDbCircle
 10
2715.5
 20
269.636038969321
 30
0.0
 40
0.75
100
AcDbArc
 50
180.0
 51
270.0
  0
ARC
  5
149
330
2
100
AcDbEntity
  8
0
100
AcDbCircle
 10
2714.3
 20
268.2952309018617
 30
0.0
 40
0.3
100
AcDbArc
 50
180.0
 51
270.0
  0
ARC
  5
14A
330
2
100
AcDbEntity
  8
0
100
AcDbCircle
 10
2714.3
 20
270.9822366703705
 30
0.0
 40
0.3
100
AcDbArc
 50
180.0
 51
270.0
  0
ARC
  5
14B
330
2
100
AcDbEntity
  8
0
100
AcDbCircle
 10
2712.299999999999
 20
278.3931309303229
 30
0.0
 40
0.3
100
AcDbArc
 50
90.0
 51
180.0
  0
LINE
  5
14C
330
2
100
AcDbEntity
  8
0
100
AcDbLine
 10
2712.299999999999
 20
278.6931309303228
 30
0.0
 11
2714.0
 21
278.6931309303228
 31
0.0
  0
DIMENSION
  5
14D
330
2
100
AcDbEntity
  8
TEXT
100
AcDbDimension
  2
*D2
 10
2643.0
 20
289.5
 30
0.0
 11
2657.767766952962
 21
291.7677669529628
 31
0.0
 70
     2
  1
4-<>
 71
     5
 42
1.570796326794883
  3
1X
100
AcDb2LineAngularDimension
 13
2655.5
 23
277.0
 33
0.0
 14
2630.5
 24
277.0
 34
0.0
 15
2643.0
 25
264.5
 35
0.0
 16
2658.921683328085
 26
286.1923881554226
 36
0.0
  0
LEADER
  5
15C
330
2
100
AcDbEntity
  8
TEXT
100
AcDbLeader
  3
2X
 76
     3
 10
2642.322341106034
 20
286.7353763821525
 30
0.0
 10
2632.0
 20
297.0
 30
0.0
 10
2605.0
 20
297.0
 30
0.0
1001
ACAD
1000
DSTYLE
1002
{
1070
   147
1040
1.0
1070
    77
1070
     0
1002
}
  0
DIMENSION
  5
15D
330
2
100
AcDbEntity
  8
TEXT
100
AcDbDimension
  2
*D3
 10
2693.0
 20
278.5
 30
0.0
 11
2690.5
 21
287.3857142857147
 31
0.0
 71
     5
 42
3.5
  3
1X
100
AcDbAlignedDimension
 13
2700.299999999999
 23
275.0
 33
0.0
 14
2700.0
 24
278.5
 34
0.0
 50
90.0
100
AcDbRotatedDimension
  0
DIMENSION
  5
16C
330
2
100
AcDbEntity
  8
TEXT
100
AcDbDimension
  2
*D4
 10
2686.0
 20
279.0
 30
0.0
 11
2686.0
 21
277.0000000000004
 31
0.0
 70
   128
  1
%%C<>
 71
     5
 42
4.0
  3
1X
100
AcDbAlignedDimension
 13
2700.299999999999
 23
275.0
 33
0.0
 14
2708.0
 24
279.0
 34
0.0
 50
90.0
100
AcDbRotatedDimension
  0
DIMENSION
  5
17B
330
2
100
AcDbEntity
  8
TEXT
100
AcDbDimension
  2
*D5
 10
2679.0
 20
284.0000000000001
 30
0.0
 11
2676.5
 21
277.0000000000004
 31
0.0
  1
%%C<>
 71
     5
 42
14.0
  3
1X
100
AcDbAlignedDimension
 13
2712.299999999999
 23
270.0
 33
0.0
 14
2712.299999999999
 24
284.0
 34
0.0
 50
90.0
100
AcDbRotatedDimension
  0
DIMENSION
  5
188
330
2
100
AcDbEntity
  8
TEXT
100
AcDbDimension
  2
*D6
 10
2672.0
 20
288.0000000000001
 30
0.0
 11
2669.5
 21
277.0000000000004
 31
0.0
  1
%%C<>
 71
     5
 42
22.0
  3
1X
100
AcDbAlignedDimension
 13
2714.3
 23
266.0
 33
0.0
 14
2714.3
 24
288.0
 34
0.0
 50
90.0
100
AcDbRotatedDimension
  0
DIMENSION
  5
195
330
2
100
AcDbEntity
  8
TEXT
100
AcDbDimension
  2
*D7
 10
2732.049999999999
 20
304.0
 30
0.0
 11
2723.025
 21
306.5
 31
0.0
  1
L
 71
     5
 42
18.04999999999927
  3
1X
100
AcDbAlignedDimension
 13
2714.0
 23
287.7000000000001
 33
0.0
 14
2732.049999999999
 24
288.0
 34
0.0
100
AcDbRotatedDimension
  0
DIMENSION
  5
1A2
330
2
100
AcDbEntity
  8
TEXT
100
AcDbDimension
  2
*D8
 10
2712.0
 20
298.0
 30
0.0
 11
2704.4
 21
300.5
 31
0.0
 71
     5
 42
2.0
  3
1X
100
AcDbAlignedDimension
 13
2714.0
 23
287.7000000000001
 33
0.0
 14
2712.0
 24
283.7000000000001
 34
0.0
100
AcDbRotatedDimension
  0
DIMENSION
  5
1B1
330
2
100
AcDbEntity
  8
TEXT
100
AcDbDimension
  2
*D9
 10
2708.0
 20
292.0
 30
0.0
 11
2704.0
 21
294.5
 31
0.0
 71
     5
 42
8.0
  3
1X
100
AcDbAlignedDimension
 13
2700.0
 23
278.5
 33
0.0
 14
2708.0
 24
279.0
 34
0.0
100
AcDbRotatedDimension
  0
DIMENSION
  5
1C0
330
2
100
AcDbEntity
  8
TEXT
100
AcDbDimension
  2
*D10
 10
2714.0
 20
304.0
 30
0.0
 11
2707.0
 21
306.5
 31
0.0
 71
     5
 42
14.0
  3
1X
100
AcDbAlignedDimension
 13
2700.0
 23
278.5
 33
0.0
 14
2714.0
 24
287.7000000000001
 34
0.0
100
AcDbRotatedDimension
  0
DIMENSION
  5
1CD
330
2
100
AcDbEntity
  8
TEXT
100
AcDbDimension
  2
*D11
 10
2751.15
 20
304.0
 30
0.0
 11
2741.6
 21
306.5
 31
0.0
 71
     5
 42
19.10000000000036
  3
1X
100
AcDbAlignedDimension
 13
2732.049999999999
 23
288.0
 33
0.0
 14
2751.15
 24
289.0999999999999
 34
0.0
100
AcDbRotatedDimension
  0
TEXT
  5
1DA
330
2
100
AcDbEntity
  8
TEXT
100
AcDbText
 10
2682.0
 20
285.0
 30
0.0
 40
2.0
  1
-0.015
 50
90.0
 41
0.6
  7
GHS
100
AcDbText
  0
TEXT
  5
1DB
330
2
100
AcDbEntity
  8
TEXT
100
AcDbText
 10
2685.0
 20
285.0
 30
0.0
 40
2.0
  1
-0.030
 50
90.0
 41
0.6
  7
GHS
100
AcDbText
  0
TEXT
  5
1DC
330
2
100
AcDbEntity
  8
TEXT
100
AcDbText
 10
2689.0
 20
290.0
 30
0.0
 40
2.0
  1
 0
 50
90.0
 41
0.6
  7
GHS
100
AcDbText
  0
TEXT
  5
1DD
330
2
100
AcDbEntity
  8
TEXT
100
AcDbText
 10
2692.0
 20
290.0
 30
0.0
 40
2.0
  1
-0.1
 50
90.0
 41
0.6
  7
GHS
100
AcDbText
  0
LINE
  5
1DE
330
2
100
AcDbEntity
  8
TEXT
100
AcDbLine
 10
2637.0
 20
244.0
 30
0.0
 11
2758.0
 21
244.0
 31
0.0
  0
LINE
  5
1DF
330
2
100
AcDbEntity
  8
TEXT
100
AcDbLine
 10
2637.0
 20
236.0
 30
0.0
 11
2758.0
 21
236.0
 31
0.0
  0
LINE
  5
1E0
330
2
100
AcDbEntity
  8
TEXT
100
AcDbLine
 10
2637.0
 20
228.0
 30
0.0
 11
2758.0
 21
228.0
 31
0.0
  0
LINE
  5
1E1
330
2
100
AcDbEntity
  8
TEXT
100
AcDbLine
 10
2637.0
 20
244.0
 30
0.0
 11
2637.0
 21
212.0
 31
0.0
  0
LINE
  5
1E2
330
2
100
AcDbEntity
  8
TEXT
100
AcDbLine
 10
2676.0
 20
244.0
 30
0.0
 11
2676.0
 21
212.0
 31
0.0
  0
LINE
  5
1E3
330
2
100
AcDbEntity
  8
TEXT
100
AcDbLine
 10
2697.0
 20
244.0
 30
0.0
 11
2697.0
 21
212.0
 31
0.0
  0
LINE
  5
1E4
330
2
100
AcDbEntity
  8
TEXT
100
AcDbLine
 10
2698.0
 20
244.0
 30
0.0
 11
2698.0
 21
212.0
 31
0.0
  0
TEXT
  5
1E5
330
2
100
AcDbEntity
  8
TEXT
100
AcDbText
 10
2651.085714285715
 20
238.0
 30
0.0
 40
4.0
  1
RATIO
 41
0.6
  7
GHS
 72
     1
 11
2656.0
 21
238.0
 31
0.0
100
AcDbText
  0
TEXT
  5
1E6
330
2
100
AcDbEntity
  8
TEXT
100
AcDbText
 10
2684.857142857143
 20
238.0
 30
0.0
 40
4.0
  1
L
 41
0.6
  7
GHS
 72
     1
 11
2686.0
 21
238.0
 31
0.0
100
AcDbText
  0
LINE
  5
1E7
330
2
100
AcDbEntity
  8
TEXT
100
AcDbLine
 10
2637.0
 20
220.0
 30
0.0
 11
2758.0
 21
220.0
 31
0.0
  0
LINE
  5
1E8
330
2
100
AcDbEntity
  8
TEXT
100
AcDbLine
 10
2637.0
 20
212.0
 30
0.0
 11
2758.0
 21
212.0
 31
0.0
  0
TEXT
  5
1E9
330
2
100
AcDbEntity
  8
TEXT
100
AcDbText
 10
2639.0
 20
230.0
 30
0.0
 40
4.0
  1
1/4
 41
0.6
  7
GHS
100
AcDbText
  0
TEXT
  5
1EA
330
2
100
AcDbEntity
  8
TEXT
100
AcDbText
 10
2639.0
 20
222.0
 30
0.0
 40
4.0
  1
1/14 ~ 1/19
 41
0.6
  7
GHS
100
AcDbText
  0
TEXT
  5
1EB
330
2
100
AcDbEntity
  8
TEXT
100
AcDbText
 10
2639.0
 20
214.0
 30
0.0
 40
4.0
  1
1/53 ~ 1/104
 41
0.6
  7
GHS
100
AcDbText
  0
TEXT
  5
1EC
330
2
100
AcDbEntity
  8
TEXT
100
AcDbText
 10
2682.0
 20
230.0
 30
0.0
 40
4.0
  1
14.4
 41
0.6
  7
GHS
100
AcDbText
  0
TEXT
  5
1ED
330
2
100
AcDbEntity
  8
TEXT
100
AcDbText
 10
2682.0
 20
222.0
 30
0.0
 40
4.0
  1
18.05
 41
0.6
  7
GHS
100
AcDbText
  0
TEXT
  5
1EE
330
2
100
AcDbEntity
  8
TEXT
100
AcDbText
 10
2682.0
 20
214.0
 30
0.0
 40
4.0
  1
21.7
 41
0.6
  7
GHS
100
AcDbText
  0
TEXT
  5
1EF
330
2
100
AcDbEntity
  8
TEXT
100
AcDbText
 10
2680.085714285715
 20
247.0
 30
0.0
 40
4.0
  1
GEARHEAD LENGTH
 41
0.6
  7
GHS
 72
     1
 11
2697.0
 21
247.0
 31
0.0
100
AcDbText
  0
LINE
  5
1F0
330
2
100
AcDbEntity
  8
TEXT
100
AcDbLine
 10
2679.0
 20
246.0
 30
0.0
 11
2715.0
 21
246.0
 31
0.0
  0
LINE
  5
1F1
330
2
100
AcDbEntity
  8
TEXT
100
AcDbLine
 10
2737.0
 20
244.0
 30
0.0
 11
2737.0
 21
212.0
 31
0.0
  0
LINE
  5
1F2
330
2
100
AcDbEntity
  8
TEXT
100
AcDbLine
 10
2758.0
 20
244.0
 30
0.0
 11
2758.0
 21
212.0
 31
0.0
  0
TEXT
  5
1F3
330
2
100
AcDbEntity
  8
TEXT
100
AcDbText
 10
2712.085714285715
 20
238.0
 30
0.0
 40
4.0
  1
RATIO
 41
0.6
  7
GHS
 72
     1
 11
2717.0
 21
238.0
 31
0.0
100
AcDbText
  0
TEXT
  5
1F4
330
2
100
AcDbEntity
  8
TEXT
100
AcDbText
 10
2745.857142857143
 20
238.0
 30
0.0
 40
4.0
  1
L
 41
0.6
  7
GHS
 72
     1
 11
2747.0
 21
238.0
 31
0.0
100
AcDbText
  0
TEXT
  5
1F5
330
2
100
AcDbEntity
  8
TEXT
100
AcDbText
 10
2700.0
 20
230.0
 30
0.0
 40
4.0
  1
1/198 ~ 1/455
 41
0.6
  7
GHS
100
AcDbText
  0
TEXT
  5
1F6
330
2
100
AcDbEntity
  8
TEXT
100
AcDbText
 10
2700.0
 20
222.0
 30
0.0
 40
4.0
  1
1/742 ~ 1/1996
 41
0.6
  7
GHS
100
AcDbText
  0
TEXT
  5
1F7
330
2
100
AcDbEntity
  8
TEXT
100
AcDbText
 10
2743.0
 20
230.0
 30
0.0
 40
4.0
  1
25.35
 41
0.6
  7
GHS
100
AcDbText
  0
TEXT
  5
1F8
330
2
100
AcDbEntity
  8
TEXT
100
AcDbText
 10
2743.0
 20
222.0
 30
0.0
 40
4.0
  1
29
 41
0.6
  7
GHS
100
AcDbText
  0
DIMENSION
  5
1F9
330
2
100
AcDbEntity
  8
TEXT
100
AcDbDimension
  2
*D12
 10
2766.100000000001
 20
264.9000000000001
 30
0.0
 11
2763.6
 21
277.0000000000004
 31
0.0
  1
%%C<>
 71
     5
 42
24.19999999999982
  3
1X
100
AcDbAlignedDimension
 13
2751.15
 23
289.0999999999999
 33
0.0
 14
2751.15
 24
264.9000000000001
 34
0.0
 50
90.0
100
AcDbRotatedDimension
  0
ENDSEC
  0
SECTION
  2
OBJECTS
  0
DICTIONARY
  5
C
330
0
100
AcDbDictionary
281
     1
  3
ACAD_2007HEADERVARS_RT
350
25B
  3
ACAD_COLOR
350
59
  3
ACAD_GROUP
350
46
  3
ACAD_LAYOUT
350
19
  3
ACAD_MATERIAL
350
E
  3
ACAD_MLEADERSTYLE
350
236
  3
ACAD_MLINESTYLE
350
47
  3
ACAD_PLOTSETTINGS
350
48
  3
ACAD_PLOTSTYLENAME
350
B
  3
ACAD_SCALELIST
350
5A
  3
ACAD_TABLESTYLE
350
5B
  3
ACAD_VISUALSTYLE
350
32
  3
ACDB_RECOMPOSE_DATA
350
20A
  3
AcDbVariableDictionary
350
21F
  0
DICTIONARY
  5
33
330
2F
100
AcDbDictionary
280
     1
281
     1
  0
DICTIONARY
  5
22
330
21
100
AcDbDictionary
280
     1
281
     1
  3
ACAD_LAYERFILTERS
360
23
  3
ACAD_LAYERSTATES
360
24
  3
ACLYDICTIONARY
360
25
  0
DICTIONARY
  5
8
330
7
100
AcDbDictionary
280
     1
281
     1
  3
ADSK_XREC_LAYER_RECONCILED
360
9
  0
DICTIONARY
  5
93
330
92
100
AcDbDictionary
280
     1
281
     1
  3
ADSK_XREC_LAYER_RECONCILED
360
94
  0
DICTIONARY
  5
5D
330
5C
100
AcDbDictionary
280
     1
281
     1
  3
ADSK_XREC_LAYER_RECONCILED
360
5E
  0
DICTIONARY
  5
3
330
2
100
AcDbDictionary
280
     1
281
     1
  3
ACAD_LAYOUTSELFREF
360
4
  3
ACAD_SORTENTS
360
206
  0
DICTIONARY
  5
1C
330
1B
100
AcDbDictionary
280
     1
281
     1
  3
ACAD_LAYOUTSELFREF
360
1D
  0
DICTIONARY
  5
25B
102
{ACAD_REACTORS
330
C
102
}
330
C
100
AcDbDictionary
281
     1
  3
DIMLTEX1
350
25D
  3
DIMLTEX2
350
25E
  3
DIMLTYPE
350
25C
  0
DICTIONARY
  5
59
102
{ACAD_REACTORS
330
C
102
}
330
C
100
AcDbDictionary
281
     1
  0
DICTIONARY
  5
46
102
{ACAD_REACTORS
330
C
102
}
330
C
100
AcDbDictionary
281
     1
  0
DICTIONARY
  5
19
102
{ACAD_REACTORS
330
C
102
}
330
C
100
AcDbDictionary
281
     1
  3
Layout1
350
20
  3
Model
350
18
  0
DICTIONARY
  5
E
102
{ACAD_REACTORS
330
C
102
}
330
C
100
AcDbDictionary
281
     1
  3
ByBlock
350
51
  3
ByLayer
350
49
  3
Global
350
D
  0
DICTIONARY
  5
236
102
{ACAD_REACTORS
330
C
102
}
330
C
100
AcDbDictionary
281
     1
  3
Standard
350
237
  0
DICTIONARY
  5
47
102
{ACAD_REACTORS
330
C
102
}
330
C
100
AcDbDictionary
281
     1
  3
Standard
350
5F
  0
DICTIONARY
  5
48
102
{ACAD_REACTORS
330
C
102
}
330
C
100
AcDbDictionary
281
     1
  0
ACDBDICTIONARYWDFLT
  5
B
102
{ACAD_REACTORS
330
C
102
}
330
C
100
AcDbDictionary
281
     1
  3
Normal
350
A
100
AcDbDictionaryWithDefault
340
A
  0
DICTIONARY
  5
5A
102
{ACAD_REACTORS
330
C
102
}
330
C
100
AcDbDictionary
281
     1
  3
*A1
350
64
  3
A0
350
65
  3
A1
350
66
  3
A2
350
67
  3
A3
350
68
  3
A4
350
69
  3
A5
350
6A
  3
A6
350
6B
  3
A7
350
6C
  3
A8
350
6D
  3
A9
350
6E
  3
B0
350
6F
  3
B1
350
70
  3
B2
350
71
  3
B3
350
72
  3
B4
350
73
  3
B5
350
74
  3
B6
350
75
  3
B7
350
76
  3
B8
350
77
  3
B9
350
78
  3
C0
350
79
  3
C1
350
7A
  3
C2
350
7B
  3
C3
350
7C
  3
C4
350
7D
  3
C5
350
7E
  3
C6
350
7F
  3
C7
350
80
  3
C8
350
81
  3
C9
350
82
  3
D0
350
83
  3
D1
350
84
  3
D2
350
85
  0
DICTIONARY
  5
5B
102
{ACAD_REACTORS
330
C
102
}
330
C
100
AcDbDictionary
281
     1
  3
Standard
350
60
  0
DICTIONARY
  5
32
102
{ACAD_REACTORS
330
C
102
}
330
C
100
AcDbDictionary
281
     1
  3
2dWireframe
350
31
  3
3D Hidden
350
22E
  3
3dWireframe
350
63
  3
Basic
350
22D
  3
Brighten
350
231
  3
ColorChange
350
235
  3
Conceptual
350
22F
  3
Dim
350
230
  3
Facepattern
350
234
  3
Flat
350
229
  3
FlatWithEdges
350
22A
  3
Gouraud
350
22B
  3
GouraudWithEdges
350
22C
  3
Linepattern
350
233
  3
Realistic
350
62
  3
Thicken
350
232
  0
XRECORD
  5
20A
102
{ACAD_REACTORS
330
C
102
}
330
C
100
AcDbXrecord
280
     1
 90
        1
330
60
  0
DICTIONARY
  5
21F
102
{ACAD_REACTORS
330
C
102
}
330
C
100
AcDbDictionary
281
     1
  3
CANNOSCALE
350
223
  3
CMLEADERSTYLE
350
221
  3
CTABLESTYLE
350
220
  3
DIMASSOC
350
227
  3
HIDETEXT
350
226
  3
INDEXCTL
350
225
  3
LIGHTINGUNITS
350
23E
  3
MSLTSCALE
350
222
  3
SORTENTS
350
224
  0
DICTIONARY
  5
23
102
{ACAD_REACTORS
330
22
102
}
330
22
100
AcDbDictionary
281
     1
  0
DICTIONARY
  5
24
102
{ACAD_REACTORS
330
22
102
}
330
22
100
AcDbDictionary
281
     1
  0
DICTIONARY
  5
25
102
{ACAD_REACTORS
330
22
102
}
330
22
100
AcDbDictionary
281
     1
1001
ACAD
1000
<All
  0
XRECORD
  5
9
102
{ACAD_REACTORS
330
8
102
}
330
8
100
AcDbXrecord
280
     1
290
     1
  0
XRECORD
  5
94
102
{ACAD_REACTORS
330
93
102
}
330
93
100
AcDbXrecord
280
     1
290
     1
  0
XRECORD
  5
5E
102
{ACAD_REACTORS
330
5D
102
}
330
5D
100
AcDbXrecord
280
     1
290
     1
  0
XRECORD
  5
4
102
{ACAD_REACTORS
330
3
102
}
330
3
100
AcDbXrecord
280
     1
340
2
  0
SORTENTSTABLE
  5
206
102
{ACAD_REACTORS
330
3
102
}
330
3
100
AcDbSortentsTable
330
2
  0
XRECORD
  5
1D
102
{ACAD_REACTORS
330
1C
102
}
330
1C
100
AcDbXrecord
280
     1
340
1B
  0
XRECORD
  5
25D
102
{ACAD_REACTORS
330
25B
102
}
330
25B
100
AcDbXrecord
280
     1
340
2C
  0
XRECORD
  5
25E
102
{ACAD_REACTORS
330
25B
102
}
330
25B
100
AcDbXrecord
280
     1
340
2C
  0
XRECORD
  5
25C
102
{ACAD_REACTORS
330
25B
102
}
330
25B
100
AcDbXrecord
280
     1
340
2C
  0
LAYOUT
  5
20
102
{ACAD_REACTORS
330
19
102
}
330
19
100
AcDbPlotSettings
  1

  2
HP LaserJet 5000 Series PS
  4

  6

 40
0.0
 41
0.0
 42
0.0
 43
0.0
 44
0.0
 45
0.0
 46
0.0
 47
0.0
 48
0.0
 49
0.0
140
0.0
141
0.0
142
1.0
143
1.0
 70
   688
 72
     0
 73
     0
 74
     5
  7
C:\Users\R&D\AppData\Roaming\Autodesk\Autodesk Mechanical Desktop 2008\R17.1\kor\Plot Styles\CATALOG.ctb
 75
    16
147
1.0
 76
     0
 77
     2
 78
   300
148
0.0
149
0.0
100
AcDbLayout
  1
Layout1
 70
     1
 71
     1
 10
0.0
 20
0.0
 11
12.0
 21
9.0
 12
2220.404641079056
 22
50.00000000000001
 32
2810.473195709564
 14
1.000000000000000E+20
 24
1.000000000000000E+20
 34
1.000000000000000E+20
 15
-1.000000000000000E+20
 25
-1.000000000000000E+20
 35
-1.000000000000000E+20
146
0.0
 13
0.0
 23
0.0
 33
0.0
 16
1.0
 26
0.0
 36
0.0
 17
0.0
 27
1.0
 37
0.0
 76
     0
330
1B
  0
LAYOUT
  5
18
102
{ACAD_REACTORS
330
19
102
}
330
19
100
AcDbPlotSettings
  1

  2
PublishToWeb JPG.pc3
  4
Sun_Hi-Res_(1600.00_x_1280.00_Pixels)
  6

 40
0.0
 41
0.0
 42
1.0
 43
1.0
 44
1600.0
 45
1280.0
 46
0.0
 47
0.0
 48
2595.0
 49
7.0
140
2798.0
141
134.0
142
1.0
143
0.1269543464665416
 70
 11952
 72
     2
 73
     0
 74
     4
  7
CATALOG.ctb
 75
     0
147
7.876847290640394
 76
     0
 77
     2
 78
   300
148
-2595.0
149
-7.0
100
AcDbLayout
  1
Model
 70
     1
 71
     0
 10
0.0
 20
0.0
 11
12.0
 21
9.0
 12
0.0
 22
0.0
 32
0.0
 14
0.0
 24
0.0
 34
0.0
 15
0.0
 25
0.0
 35
0.0
146
0.0
 13
0.0
 23
0.0
 33
0.0
 16
1.0
 26
0.0
 36
0.0
 17
0.0
 27
1.0
 37
0.0
 76
     0
330
2
331
30
1001
ACAD_PSEXT
1000
PublishToWeb JPG.pc3
1000
Independent JPEG Group JFIF (JPEG Compression)
1000
파일
1000

1070
     0
  0
MATERIAL
  5
51
102
{ACAD_XDICTIONARY
360
52
102
}
102
{ACAD_REACTORS
330
E
102
}
330
E
100
AcDbMaterial
  1
ByBlock
 72
     0
 43
0.0208333333333333
 43
0.0
 43
0.0
 43
0.0
 43
0.0
 43
0.0208333333333333
 43
0.0
 43
0.0
 43
0.0
 43
0.0
 43
1.0
 43
0.0
 43
0.0
 43
0.0
 43
0.0
 43
1.0
 77
     0
 47
0.0208333333333333
 47
0.0
 47
0.0
 47
0.0
 47
0.0
 47
0.0208333333333333
 47
0.0
 47
0.0
 47
0.0
 47
0.0
 47
1.0
 47
0.0
 47
0.0
 47
0.0
 47
0.0
 47
1.0
171
     0
 49
0.0208333333333333
 49
0.0
 49
0.0
 49
0.0
 49
0.0
 49
0.0208333333333333
 49
0.0
 49
0.0
 49
0.0
 49
0.0
 49
1.0
 49
0.0
 49
0.0
 49
0.0
 49
0.0
 49
1.0
175
     0
142
0.0208333333333333
142
0.0
142
0.0
142
0.0
142
0.0
142
0.0208333333333333
142
0.0
142
0.0
142
0.0
142
0.0
142
1.0
142
0.0
142
0.0
142
0.0
142
0.0
142
1.0
179
     0
144
0.0208333333333333
144
0.0
144
0.0
144
0.0
144
0.0
144
0.0208333333333333
144
0.0
144
0.0
144
0.0
144
0.0
144
1.0
144
0.0
144
0.0
144
0.0
144
0.0
144
1.0
147
0.0208333333333333
147
0.0
147
0.0
147
0.0
147
0.0
147
0.0208333333333333
147
0.0
147
0.0
147
0.0
147
0.0
147
1.0
147
0.0
147
0.0
147
0.0
147
0.0
147
1.0
  0
MATERIAL
  5
49
102
{ACAD_XDICTIONARY
360
4A
102
}
102
{ACAD_REACTORS
330
E
102
}
330
E
100
AcDbMaterial
  1
ByLayer
 72
     0
 43
0.0208333333333333
 43
0.0
 43
0.0
 43
0.0
 43
0.0
 43
0.0208333333333333
 43
0.0
 43
0.0
 43
0.0
 43
0.0
 43
1.0
 43
0.0
 43
0.0
 43
0.0
 43
0.0
 43
1.0
 77
     0
 47
0.0208333333333333
 47
0.0
 47
0.0
 47
0.0
 47
0.0
 47
0.0208333333333333
 47
0.0
 47
0.0
 47
0.0
 47
0.0
 47
1.0
 47
0.0
 47
0.0
 47
0.0
 47
0.0
 47
1.0
171
     0
 49
0.0208333333333333
 49
0.0
 49
0.0
 49
0.0
 49
0.0
 49
0.0208333333333333
 49
0.0
 49
0.0
 49
0.0
 49
0.0
 49
1.0
 49
0.0
 49
0.0
 49
0.0
 49
0.0
 49
1.0
175
     0
142
0.0208333333333333
142
0.0
142
0.0
142
0.0
142
0.0
142
0.0208333333333333
142
0.0
142
0.0
142
0.0
142
0.0
142
1.0
142
0.0
142
0.0
142
0.0
142
0.0
142
1.0
179
     0
144
0.0208333333333333
144
0.0
144
0.0
144
0.0
144
0.0
144
0.0208333333333333
144
0.0
144
0.0
144
0.0
144
0.0
144
1.0
144
0.0
144
0.0
144
0.0
144
0.0
144
1.0
147
0.0208333333333333
147
0.0
147
0.0
147
0.0
147
0.0
147
0.0208333333333333
147
0.0
147
0.0
147
0.0
147
0.0
147
1.0
147
0.0
147
0.0
147
0.0
147
0.0
147
1.0
  0
MATERIAL
  5
D
102
{ACAD_XDICTIONARY
360
F
102
}
102
{ACAD_REACTORS
330
E
102
}
330
E
100
AcDbMaterial
  1
Global
 72
     0
 43
0.0208333333333333
 43
0.0
 43
0.0
 43
0.0
 43
0.0
 43
0.0208333333333333
 43
0.0
 43
0.0
 43
0.0
 43
0.0
 43
1.0
 43
0.0
 43
0.0
 43
0.0
 43
0.0
 43
1.0
 77
     0
 47
0.0208333333333333
 47
0.0
 47
0.0
 47
0.0
 47
0.0
 47
0.0208333333333333
 47
0.0
 47
0.0
 47
0.0
 47
0.0
 47
1.0
 47
0.0
 47
0.0
 47
0.0
 47
0.0
 47
1.0
171
     0
 49
0.0208333333333333
 49
0.0
 49
0.0
 49
0.0
 49
0.0
 49
0.0208333333333333
 49
0.0
 49
0.0
 49
0.0
 49
0.0
 49
1.0
 49
0.0
 49
0.0
 49
0.0
 49
0.0
 49
1.0
175
     0
142
0.0208333333333333
142
0.0
142
0.0
142
0.0
142
0.0
142
0.0208333333333333
142
0.0
142
0.0
142
0.0
142
0.0
142
1.0
142
0.0
142
0.0
142
0.0
142
0.0
142
1.0
179
     0
144
0.0208333333333333
144
0.0
144
0.0
144
0.0
144
0.0
144
0.0208333333333333
144
0.0
144
0.0
144
0.0
144
0.0
144
1.0
144
0.0
144
0.0
144
0.0
144
0.0
144
1.0
147
0.0208333333333333
147
0.0
147
0.0
147
0.0
147
0.0
147
0.0208333333333333
147
0.0
147
0.0
147
0.0
147
0.0
147
1.0
147
0.0
147
0.0
147
0.0
147
0.0
147
1.0
  0
MLEADERSTYLE
  5
237
102
{ACAD_REACTORS
330
236
102
}
330
236
100
AcDbMLeaderStyle
170
     2
171
     1
172
     0
 90
        2
 40
0.0
 41
0.0
173
     1
 91
-1056964608
340
2B
 92
       -2
290
     1
 42
0.09
291
     1
 43
0.36
  3
Standard
 44
0.18
300

342
28
174
     1
178
     6
175
     1
176
     0
 93
-1056964608
 45
0.18
292
     0
297
     0
 46
0.18
 94
-1056964608
 47
1.0
 49
1.0
140
1.0
293
     1
141
0.0
294
     1
177
     0
142
1.0
295
     0
296
     0
143
0.125
1001
ACAD_MLEADERVER
1070
     2
  0
MLINESTYLE
  5
5F
102
{ACAD_REACTORS
330
47
102
}
330
47
100
AcDbMlineStyle
  2
STANDARD
 70
     0
  3

 62
   256
 51
90.0
 52
90.0
 71
     2
 49
0.5
 62
   256
  6
BYLAYER
 49
-0.5
 62
   256
  6
BYLAYER
  0
ACDBPLACEHOLDER
  5
A
102
{ACAD_REACTORS
330
B
102
}
330
B
  0
SCALE
  5
64
102
{ACAD_REACTORS
330
5A
102
}
330
5A
100
AcDbScale
 70
     0
300
1/128" = 1'-0"_1
140
0.007812
141
12.0
290
     0
  0
SCALE
  5
65
102
{ACAD_REACTORS
330
5A
102
}
330
5A
100
AcDbScale
 70
     0
300
1:1
140
1.0
141
1.0
290
     1
  0
SCALE
  5
66
102
{ACAD_REACTORS
330
5A
102
}
330
5A
100
AcDbScale
 70
     0
300
1:2
140
1.0
141
2.0
290
     0
  0
SCALE
  5
67
102
{ACAD_REACTORS
330
5A
102
}
330
5A
100
AcDbScale
 70
     0
300
1:4
140
1.0
141
4.0
290
     0
  0
SCALE
  5
68
102
{ACAD_REACTORS
330
5A
102
}
330
5A
100
AcDbScale
 70
     0
300
1:5
140
1.0
141
5.0
290
     0
  0
SCALE
  5
69
102
{ACAD_REACTORS
330
5A
102
}
330
5A
100
AcDbScale
 70
     0
300
1:8
140
1.0
141
8.0
290
     0
  0
SCALE
  5
6A
102
{ACAD_REACTORS
330
5A
102
}
330
5A
100
AcDbScale
 70
     0
300
1:10
140
1.0
141
10.0
290
     0
  0
SCALE
  5
6B
102
{ACAD_REACTORS
330
5A
102
}
330
5A
100
AcDbScale
 70
     0
300
1:16
140
1.0
141
16.0
290
     0
  0
SCALE
  5
6C
102
{ACAD_REACTORS
330
5A
102
}
330
5A
100
AcDbScale
 70
     0
300
1:20
140
1.0
141
20.0
290
     0
  0
SCALE
  5
6D
102
{ACAD_REACTORS
330
5A
102
}
330
5A
100
AcDbScale
 70
     0
300
1:30
140
1.0
141
30.0
290
     0
  0
SCALE
  5
6E
102
{ACAD_REACTORS
330
5A
102
}
330
5A
100
AcDbScale
 70
     0
300
1:40
140
1.0
141
40.0
290
     0
  0
SCALE
  5
6F
102
{ACAD_REACTORS
330
5A
102
}
330
5A
100
AcDbScale
 70
     0
300
1:50
140
1.0
141
50.0
290
     0
  0
SCALE
  5
70
102
{ACAD_REACTORS
330
5A
102
}
330
5A
100
AcDbScale
 70
     0
300
1:100
140
1.0
141
100.0
290
     0
  0
SCALE
  5
71
102
{ACAD_REACTORS
330
5A
102
}
330
5A
100
AcDbScale
 70
     0
300
2:1
140
2.0
141
1.0
290
     0
  0
SCALE
  5
72
102
{ACAD_REACTORS
330
5A
102
}
330
5A
100
AcDbScale
 70
     0
300
4:1
140
4.0
141
1.0
290
     0
  0
SCALE
  5
73
102
{ACAD_REACTORS
330
5A
102
}
330
5A
100
AcDbScale
 70
     0
300
8:1
140
8.0
141
1.0
290
     0
  0
SCALE
  5
74
102
{ACAD_REACTORS
330
5A
102
}
330
5A
100
AcDbScale
 70
     0
300
10:1
140
10.0
141
1.0
290
     0
  0
SCALE
  5
75
102
{ACAD_REACTORS
330
5A
102
}
330
5A
100
AcDbScale
 70
     0
300
100:1
140
100.0
141
1.0
290
     0
  0
SCALE
  5
76
102
{ACAD_REACTORS
330
5A
102
}
330
5A
100
AcDbScale
 70
     0
300
1/128" = 1'-0"
140
0.0078125
141
12.0
290
     0
  0
SCALE
  5
77
102
{ACAD_REACTORS
330
5A
102
}
330
5A
100
AcDbScale
 70
     0
300
1/64" = 1'-0"
140
0.015625
141
12.0
290
     0
  0
SCALE
  5
78
102
{ACAD_REACTORS
330
5A
102
}
330
5A
100
AcDbScale
 70
     0
300
1/32" = 1'-0"
140
0.03125
141
12.0
290
     0
  0
SCALE
  5
79
102
{ACAD_REACTORS
330
5A
102
}
330
5A
100
AcDbScale
 70
     0
300
1/16" = 1'-0"
140
0.0625
141
12.0
290
     0
  0
SCALE
  5
7A
102
{ACAD_REACTORS
330
5A
102
}
330
5A
100
AcDbScale
 70
     0
300
3/32" = 1'-0"
140
0.09375
141
12.0
290
     0
  0
SCALE
  5
7B
102
{ACAD_REACTORS
330
5A
102
}
330
5A
100
AcDbScale
 70
     0
300
1/8" = 1'-0"
140
0.125
141
12.0
290
     0
  0
SCALE
  5
7C
102
{ACAD_REACTORS
330
5A
102
}
330
5A
100
AcDbScale
 70
     0
300
3/16" = 1'-0"
140
0.1875
141
12.0
290
     0
  0
SCALE
  5
7D
102
{ACAD_REACTORS
330
5A
102
}
330
5A
100
AcDbScale
 70
     0
300
1/4" = 1'-0"
140
0.25
141
12.0
290
     0
  0
SCALE
  5
7E
102
{ACAD_REACTORS
330
5A
102
}
330
5A
100
AcDbScale
 70
     0
300
3/8" = 1'-0"
140
0.375
141
12.0
290
     0
  0
SCALE
  5
7F
102
{ACAD_REACTORS
330
5A
102
}
330
5A
100
AcDbScale
 70
     0
300
1/2" = 1'-0"
140
0.5
141
12.0
290
     0
  0
SCALE
  5
80
102
{ACAD_REACTORS
330
5A
102
}
330
5A
100
AcDbScale
 70
     0
300
3/4" = 1'-0"
140
0.75
141
12.0
290
     0
  0
SCALE
  5
81
102
{ACAD_REACTORS
330
5A
102
}
330
5A
100
AcDbScale
 70
     0
300
1" = 1'-0"
140
1.0
141
12.0
290
     0
  0
SCALE
  5
82
102
{ACAD_REACTORS
330
5A
102
}
330
5A
100
AcDbScale
 70
     0
300
1-1/2" = 1'-0"
140
1.5
141
12.0
290
     0
  0
SCALE
  5
83
102
{ACAD_REACTORS
330
5A
102
}
330
5A
100
AcDbScale
 70
     0
300
3" = 1'-0"
140
3.0
141
12.0
290
     0
  0
SCALE
  5
84
102
{ACAD_REACTORS
330
5A
102
}
330
5A
100
AcDbScale
 70
     0
300
6" = 1'-0"
140
6.0
141
12.0
290
     0
  0
SCALE
  5
85
102
{ACAD_REACTORS
330
5A
102
}
330
5A
100
AcDbScale
 70
     0
300
1'-0" = 1'-0"
140
12.0
141
12.0
290
     0
  0
TABLESTYLE
  5
60
102
{ACAD_XDICTIONARY
360
61
102
}
102
{ACAD_REACTORS
330
5B
102
}
330
5B
100
AcDbTableStyle
  3
Standard
 70
     0
 71
     0
 40
0.06
 41
0.06
280
     0
281
     0
  7
STANDARD
140
0.18
170
     2
 62
     0
 63
     7
283
     0
274
    -2
284
     1
 64
     0
275
    -2
285
     1
 65
     0
276
    -2
286
     1
 66
     0
277
    -2
287
     1
 67
     0
278
    -2
288
     1
 68
     0
279
    -2
289
     1
 69
     0
  7
STANDARD
140
0.25
170
     5
 62
     0
 63
     7
283
     0
274
    -2
284
     1
 64
     0
275
    -2
285
     1
 65
     0
276
    -2
286
     1
 66
     0
277
    -2
287
     1
 67
     0
278
    -2
288
     1
 68
     0
279
    -2
289
     1
 69
     0
  7
STANDARD
140
0.18
170
     5
 62
     0
 63
     7
283
     0
274
    -2
284
     1
 64
     0
275
    -2
285
     1
 65
     0
276
    -2
286
     1
 66
     0
277
    -2
287
     1
 67
     0
278
    -2
288
     1
 68
     0
279
    -2
289
     1
 69
     0
  0
VISUALSTYLE
  5
31
102
{ACAD_REACTORS
330
32
102
}
330
32
100
AcDbVisualStyle
  2
2dWireframe
 70
     4
 71
     0
 72
     2
 73
     0
 90
        0
 40
-0.6
 41
-30.0
 62
     5
 63
     7
 74
     1
 91
        4
 64
     7
 65
   257
 75
     1
175
     1
 42
1.0
 92
        0
 66
   257
 43
1.0
 76
     1
 77
     6
 78
     2
 67
     7
 79
     5
170
     0
171
     0
290
     0
174
     0
 93
        1
 44
0.0
173
     0
291
     0
 45
0.0
1001
ACAD
1000
AcDbSavedByObjectVersion
1070
     0
  0
VISUALSTYLE
  5
22E
102
{ACAD_REACTORS
330
32
102
}
330
32
100
AcDbVisualStyle
  2
3D Hidden
 70
     6
 71
     1
 72
     2
 73
     2
 90
        0
 40
-0.6
 41
-30.0
 62
     5
 63
     7
421
 16777215
 74
     2
 91
        2
 64
     7
 65
   257
 75
     2
175
     1
 42
40.0
 92
        0
 66
   257
 43
1.0
 76
     1
 77
     6
 78
     2
 67
     7
 79
     3
170
     0
171
     0
290
     0
174
     0
 93
        1
 44
0.0
173
     0
291
     0
 45
0.0
1001
ACAD
1000
AcDbSavedByObjectVersion
1070
     0
  0
VISUALSTYLE
  5
63
102
{ACAD_REACTORS
330
32
102
}
330
32
100
AcDbVisualStyle
  2
3dWireframe
 70
     5
 71
     0
 72
     2
 73
     0
 90
        0
 40
-0.6
 41
-30.0
 62
     5
 63
     7
 74
     1
 91
        4
 64
     7
 65
   257
 75
     1
175
     1
 42
1.0
 92
        0
 66
   257
 43
1.0
 76
     1
 77
     6
 78
     2
 67
     7
 79
     5
170
     0
171
     0
290
     0
174
     0
 93
        1
 44
0.0
173
     0
291
     0
 45
0.0
1001
ACAD
1000
AcDbSavedByObjectVersion
1070
     0
  0
VISUALSTYLE
  5
22D
102
{ACAD_REACTORS
330
32
102
}
330
32
100
AcDbVisualStyle
  2
Basic
 70
     7
 71
     1
 72
     0
 73
     1
 90
        0
 40
-0.6
 41
-30.0
 62
     5
 63
     7
421
 16777215
 74
     0
 91
        4
 64
     7
 65
   257
 75
     1
175
     1
 42
1.0
 92
        8
 66
     7
 43
1.0
 76
     1
 77
     6
 78
     2
 67
     7
 79
     5
170
     0
171
     0
290
     0
174
     0
 93
        1
 44
0.0
173
     0
291
     1
 45
0.0
1001
ACAD
1000
AcDbSavedByObjectVersion
1070
     0
  0
VISUALSTYLE
  5
231
102
{ACAD_REACTORS
330
32
102
}
330
32
100
AcDbVisualStyle
  2
Brighten
 70
    12
 71
     2
 72
     2
 73
     0
 90
        0
 40
-0.6
 41
-30.0
 62
     5
 63
     7
421
 16777215
 74
     1
 91
        4
 64
     7
 65
   257
 75
     1
175
     1
 42
1.0
 92
        8
 66
     7
 43
1.0
 76
     1
 77
     6
 78
     2
 67
     7
 79
     5
170
     0
171
     0
290
     0
174
     0
 93
        1
 44
50.0
173
     0
291
     1
 45
0.0
1001
ACAD
1000
AcDbSavedByObjectVersion
1070
     0
  0
VISUALSTYLE
  5
235
102
{ACAD_REACTORS
330
32
102
}
330
32
100
AcDbVisualStyle
  2
ColorChange
 70
    16
 71
     2
 72
     2
 73
     3
 90
        0
 40
-0.6
 41
-30.0
 62
     5
 63
     8
421
  8421504
 74
     1
 91
        4
 64
     7
 65
   257
 75
     1
175
     1
 42
1.0
 92
        8
 66
     8
424
  8421504
 43
1.0
 76
     1
 77
     6
 78
     2
 67
     7
 79
     5
170
     0
171
     0
290
     0
174
     0
 93
        1
 44
0.0
173
     0
291
     1
 45
0.0
1001
ACAD
1000
AcDbSavedByObjectVersion
1070
     0
  0
VISUALSTYLE
  5
22F
102
{ACAD_REACTORS
330
32
102
}
330
32
100
AcDbVisualStyle
  2
Conceptual
 70
     9
 71
     3
 72
     2
 73
     0
 90
        0
 40
-0.6
 41
-30.0
 62
     5
 63
     7
421
 16777215
 74
     2
 91
        2
 64
     7
 65
   257
 75
     1
175
     1
 42
40.0
 92
        8
 66
     7
 43
1.0
 76
     1
 77
     6
 78
     2
 67
     7
 79
     3
170
     0
171
     0
290
     0
174
     0
 93
        1
 44
0.0
173
     0
291
     0
 45
0.0
1001
ACAD
1000
AcDbSavedByObjectVersion
1070
     0
  0
VISUALSTYLE
  5
230
102
{ACAD_REACTORS
330
32
102
}
330
32
100
AcDbVisualStyle
  2
Dim
 70
    11
 71
     2
 72
     2
 73
     0
 90
        0
 40
-0.6
 41
-30.0
 62
     5
 63
     7
421
 16777215
 74
     1
 91
        4
 64
     7
 65
   257
 75
     1
175
     1
 42
1.0
 92
        8
 66
     7
 43
1.0
 76
     1
 77
     6
 78
     2
 67
     7
 79
     5
170
     0
171
     0
290
     0
174
     0
 93
        1
 44
-50.0
173
     0
291
     1
 45
0.0
1001
ACAD
1000
AcDbSavedByObjectVersion
1070
     0
  0
VISUALSTYLE
  5
234
102
{ACAD_REACTORS
330
32
102
}
330
32
100
AcDbVisualStyle
  2
Facepattern
 70
    15
 71
     2
 72
     2
 73
     0
 90
        0
 40
-0.6
 41
-30.0
 62
     5
 63
     7
421
 16777215
 74
     1
 91
        4
 64
     7
 65
   257
 75
     1
175
     1
 42
1.0
 92
        8
 66
     7
 43
1.0
 76
     1
 77
     6
 78
     2
 67
     7
 79
     5
170
     0
171
     0
290
     0
174
     0
 93
        1
 44
0.0
173
     0
291
     1
 45
0.0
1001
ACAD
1000
AcDbSavedByObjectVersion
1070
     0
  0
VISUALSTYLE
  5
229
102
{ACAD_REACTORS
330
32
102
}
330
32
100
AcDbVisualStyle
  2
Flat
 70
     0
 71
     2
 72
     1
 73
     1
 90
        2
 40
-0.6
 41
30.0
 62
     5
 63
     7
421
 16777215
 74
     0
 91
        4
 64
     7
 65
   257
 75
     1
175
     1
 42
1.0
 92
        8
 66
     7
 43
1.0
 76
     1
 77
     6
 78
     2
 67
     7
 79
     5
170
     0
171
     0
290
     0
174
     0
 93
       13
 44
0.0
173
     0
291
     1
 45
0.0
1001
ACAD
1000
AcDbSavedByObjectVersion
1070
     0
  0
VISUALSTYLE
  5
22A
102
{ACAD_REACTORS
330
32
102
}
330
32
100
AcDbVisualStyle
  2
FlatWithEdges
 70
     1
 71
     2
 72
     1
 73
     1
 90
        2
 40
-0.6
 41
30.0
 62
     5
 63
     7
421
 16777215
 74
     1
 91
        4
 64
     7
 65
   257
 75
     1
175
     1
 42
1.0
 92
        0
 66
   257
 43
1.0
 76
     1
 77
     6
 78
     2
 67
     7
 79
     5
170
     0
171
     0
290
     0
174
     0
 93
       13
 44
0.0
173
     0
291
     1
 45
0.0
1001
ACAD
1000
AcDbSavedByObjectVersion
1070
     0
  0
VISUALSTYLE
  5
22B
102
{ACAD_REACTORS
330
32
102
}
330
32
100
AcDbVisualStyle
  2
Gouraud
 70
     2
 71
     2
 72
     2
 73
     1
 90
        2
 40
-0.6
 41
30.0
 62
     5
 63
     7
421
 16777215
 74
     0
 91
        4
 64
     7
 65
   257
 75
     1
175
     1
 42
1.0
 92
        0
 66
     7
 43
1.0
 76
     1
 77
     6
 78
     2
 67
     7
 79
     5
170
     0
171
     0
290
     0
174
     0
 93
       13
 44
0.0
173
     0
291
     1
 45
0.0
1001
ACAD
1000
AcDbSavedByObjectVersion
1070
     0
  0
VISUALSTYLE
  5
22C
102
{ACAD_REACTORS
330
32
102
}
330
32
100
AcDbVisualStyle
  2
GouraudWithEdges
 70
     3
 71
     2
 72
     2
 73
     1
 90
        2
 40
-0.6
 41
30.0
 62
     5
 63
     7
421
 16777215
 74
     1
 91
        4
 64
     7
 65
   257
 75
     1
175
     1
 42
1.0
 92
        0
 66
   257
 43
1.0
 76
     1
 77
     6
 78
     2
 67
     7
 79
     5
170
     0
171
     0
290
     0
174
     0
 93
       13
 44
0.0
173
     0
291
     1
 45
0.0
1001
ACAD
1000
AcDbSavedByObjectVersion
1070
     0
  0
VISUALSTYLE
  5
233
102
{ACAD_REACTORS
330
32
102
}
330
32
100
AcDbVisualStyle
  2
Linepattern
 70
    14
 71
     2
 72
     2
 73
     0
 90
        0
 40
-0.6
 41
-30.0
 62
     5
 63
     7
421
 16777215
 74
     1
 91
        4
 64
     7
 65
   257
 75
     7
175
     7
 42
1.0
 92
        8
 66
     7
 43
1.0
 76
     1
 77
     6
 78
     2
 67
     7
 79
     5
170
     0
171
     0
290
     0
174
     0
 93
        1
 44
0.0
173
     0
291
     1
 45
0.0
1001
ACAD
1000
AcDbSavedByObjectVersion
1070
     0
  0
VISUALSTYLE
  5
62
102
{ACAD_REACTORS
330
32
102
}
330
32
100
AcDbVisualStyle
  2
Realistic
 70
     8
 71
     2
 72
     2
 73
     0
 90
        0
 40
-0.6
 41
-30.0
 62
     5
 63
     7
 74
     1
 91
        0
 64
     7
 65
   257
 75
     1
175
     1
 42
1.0
 92
        8
 66
     8
 43
1.0
 76
     1
 77
     6
 78
     2
 67
     7
 79
     5
170
     0
171
     0
290
     0
174
     0
 93
       13
 44
0.0
173
     0
291
     0
 45
0.0
1001
ACAD
1000
AcDbSavedByObjectVersion
1070
     0
  0
VISUALSTYLE
  5
232
102
{ACAD_REACTORS
330
32
102
}
330
32
100
AcDbVisualStyle
  2
Thicken
 70
    13
 71
     2
 72
     2
 73
     0
 90
        0
 40
-0.6
 41
-30.0
 62
     5
 63
     7
421
 16777215
 74
     1
 91
        4
 64
     7
 65
   257
 75
     1
175
     1
 42
1.0
 92
       12
 66
     7
 43
1.0
 76
     1
 77
     6
 78
     2
 67
     7
 79
     5
170
     0
171
     0
290
     0
174
     0
 93
        1
 44
0.0
173
     0
291
     1
 45
0.0
1001
ACAD
1000
AcDbSavedByObjectVersion
1070
     0
  0
DICTIONARYVAR
  5
223
102
{ACAD_REACTORS
330
21F
102
}
330
21F
100
DictionaryVariables
280
     0
  1
1:1
  0
DICTIONARYVAR
  5
221
102
{ACAD_REACTORS
330
21F
102
}
330
21F
100
DictionaryVariables
280
     0
  1
STANDARD
  0
DICTIONARYVAR
  5
220
102
{ACAD_REACTORS
330
21F
102
}
330
21F
100
DictionaryVariables
280
     0
  1
STANDARD
  0
DICTIONARYVAR
  5
227
102
{ACAD_REACTORS
330
21F
102
}
330
21F
100
DictionaryVariables
280
     0
  1
2
  0
DICTIONARYVAR
  5
226
102
{ACAD_REACTORS
330
21F
102
}
330
21F
100
DictionaryVariables
280
     0
  1
1
  0
DICTIONARYVAR
  5
225
102
{ACAD_REACTORS
330
21F
102
}
330
21F
100
DictionaryVariables
280
     0
  1
0
  0
DICTIONARYVAR
  5
23E
102
{ACAD_REACTORS
330
21F
102
}
330
21F
100
DictionaryVariables
280
     0
  1
0
  0
DICTIONARYVAR
  5
222
102
{ACAD_REACTORS
330
21F
102
}
330
21F
100
DictionaryVariables
280
     0
  1
1
  0
DICTIONARYVAR
  5
224
102
{ACAD_REACTORS
330
21F
102
}
330
21F
100
DictionaryVariables
280
     0
  1
127
  0
DICTIONARY
  5
52
330
51
100
AcDbDictionary
280
     1
281
     1
  3
ACAD_XREC_ROUNDTRIP
360
261
  3
BUMPTILE
360
53
  3
DIFFUSETILE
360
54
  3
OPACITYTILE
360
55
  3
REFLECTIONTILE
360
56
  3
REFRACTIONTILE
360
57
  3
SPECULARTILE
360
58
  0
DICTIONARY
  5
4A
330
49
100
AcDbDictionary
280
     1
281
     1
  3
ACAD_XREC_ROUNDTRIP
360
260
  3
BUMPTILE
360
4B
  3
DIFFUSETILE
360
4C
  3
OPACITYTILE
360
4D
  3
REFLECTIONTILE
360
4E
  3
REFRACTIONTILE
360
4F
  3
SPECULARTILE
360
50
  0
DICTIONARY
  5
F
330
D
100
AcDbDictionary
280
     1
281
     1
  3
ACAD_XREC_ROUNDTRIP
360
25F
  3
BUMPTILE
360
10
  3
DIFFUSETILE
360
11
  3
OPACITYTILE
360
12
  3
REFLECTIONTILE
360
13
  3
REFRACTIONTILE
360
14
  3
SPECULARTILE
360
15
  0
DICTIONARY
  5
61
330
60
100
AcDbDictionary
280
     1
281
     1
  3
ACAD_ROUNDTRIP_2008_TABLESTYLE_CELLSTYLEMAP
360
25A
  3
ACAD_XREC_ROUNDTRIP
360
262
  0
XRECORD
  5
261
102
{ACAD_REACTORS
330
52
102
}
330
52
100
AcDbXrecord
280
     1
102
MATERIAL
148
0.0
149
0.0
149
0.0
 93
        0
 94
      127
282
     0
 72
     0
 77
     0
171
     0
175
     0
179
     0
273
     0
  0
XRECORD
  5
53
102
{ACAD_REACTORS
330
52
102
}
330
52
100
AcDbXrecord
280
     1
270
     1
271
     1
  0
XRECORD
  5
54
102
{ACAD_REACTORS
330
52
102
}
330
52
100
AcDbXrecord
280
     1
270
     1
271
     1
  0
XRECORD
  5
55
102
{ACAD_REACTORS
330
52
102
}
330
52
100
AcDbXrecord
280
     1
270
     1
271
     1
  0
XRECORD
  5
56
102
{ACAD_REACTORS
330
52
102
}
330
52
100
AcDbXrecord
280
     1
270
     1
271
     1
  0
XRECORD
  5
57
102
{ACAD_REACTORS
330
52
102
}
330
52
100
AcDbXrecord
280
     1
270
     1
271
     1
  0
XRECORD
  5
58
102
{ACAD_REACTORS
330
52
102
}
330
52
100
AcDbXrecord
280
     1
270
     1
271
     1
  0
XRECORD
  5
260
102
{ACAD_REACTORS
330
4A
102
}
330
4A
100
AcDbXrecord
280
     1
102
MATERIAL
148
0.0
149
0.0
149
0.0
 93
        0
 94
      127
282
     0
 72
     0
 77
     0
171
     0
175
     0
179
     0
273
     0
  0
XRECORD
  5
4B
102
{ACAD_REACTORS
330
4A
102
}
330
4A
100
AcDbXrecord
280
     1
270
     1
271
     1
  0
XRECORD
  5
4C
102
{ACAD_REACTORS
330
4A
102
}
330
4A
100
AcDbXrecord
280
     1
270
     1
271
     1
  0
XRECORD
  5
4D
102
{ACAD_REACTORS
330
4A
102
}
330
4A
100
AcDbXrecord
280
     1
270
     1
271
     1
  0
XRECORD
  5
4E
102
{ACAD_REACTORS
330
4A
102
}
330
4A
100
AcDbXrecord
280
     1
270
     1
271
     1
  0
XRECORD
  5
4F
102
{ACAD_REACTORS
330
4A
102
}
330
4A
100
AcDbXrecord
280
     1
270
     1
271
     1
  0
XRECORD
  5
50
102
{ACAD_REACTORS
330
4A
102
}
330
4A
100
AcDbXrecord
280
     1
270
     1
271
     1
  0
XRECORD
  5
25F
102
{ACAD_REACTORS
330
F
102
}
330
F
100
AcDbXrecord
280
     1
102
MATERIAL
148
0.0
149
0.0
149
0.0
 93
        0
 94
      127
282
     0
 72
     0
 77
     0
171
     0
175
     0
179
     0
273
     0
  0
XRECORD
  5
10
102
{ACAD_REACTORS
330
F
102
}
330
F
100
AcDbXrecord
280
     1
270
     1
271
     1
  0
XRECORD
  5
11
102
{ACAD_REACTORS
330
F
102
}
330
F
100
AcDbXrecord
280
     1
270
     1
271
     1
  0
XRECORD
  5
12
102
{ACAD_REACTORS
330
F
102
}
330
F
100
AcDbXrecord
280
     1
270
     1
271
     1
  0
XRECORD
  5
13
102
{ACAD_REACTORS
330
F
102
}
330
F
100
AcDbXrecord
280
     1
270
     1
271
     1
  0
XRECORD
  5
14
102
{ACAD_REACTORS
330
F
102
}
330
F
100
AcDbXrecord
280
     1
270
     1
271
     1
  0
XRECORD
  5
15
102
{ACAD_REACTORS
330
F
102
}
330
F
100
AcDbXrecord
280
     1
270
     1
271
     1
  0
CELLSTYLEMAP
  5
25A
102
{ACAD_REACTORS
330
61
102
}
330
61
100
AcDbCellStyleMap
 90
        3
300
CELLSTYLE
  1
TABLEFORMAT_BEGIN
 90
        5
170
     1
 91
        0
 92
    32768
 62
   257
 93
        1
300
CONTENTFORMAT
  1
CONTENTFORMAT_BEGIN
 90
        0
 91
        0
 92
      512
 93
        0
300

 40
0.0
140
1.0
 94
        5
 62
     0
340
28
144
0.25
309
CONTENTFORMAT_END
171
     1
301
MARGIN
  1
CELLMARGIN_BEGIN
 40
0.06
 40
0.06
 40
0.06
 40
0.06
 40
0.18
 40
0.18
309
CELLMARGIN_END
 94
        6
 95
        1
302
GRIDFORMAT
  1
GRIDFORMAT_BEGIN
 90
        0
 91
        1
 62
     0
 92
       -2
340
0
 93
        0
 40
0.045
309
GRIDFORMAT_END
 95
        2
302
GRIDFORMAT
  1
GRIDFORMAT_BEGIN
 90
        0
 91
        1
 62
     0
 92
       -2
340
0
 93
        0
 40
0.045
309
GRIDFORMAT_END
 95
        4
302
GRIDFORMAT
  1
GRIDFORMAT_BEGIN
 90
        0
 91
        1
 62
     0
 92
       -2
340
0
 93
        0
 40
0.045
309
GRIDFORMAT_END
 95
        8
302
GRIDFORMAT
  1
GRIDFORMAT_BEGIN
 90
        0
 91
        1
 62
     0
 92
       -2
340
0
 93
        0
 40
0.045
309
GRIDFORMAT_END
 95
       16
302
GRIDFORMAT
  1
GRIDFORMAT_BEGIN
 90
        0
 91
        1
 62
     0
 92
       -2
340
0
 93
        0
 40
0.045
309
GRIDFORMAT_END
 95
       32
302
GRIDFORMAT
  1
GRIDFORMAT_BEGIN
 90
        0
 91
        1
 62
     0
 92
       -2
340
0
 93
        0
 40
0.045
309
GRIDFORMAT_END
309
TABLEFORMAT_END
  1
CELLSTYLE_BEGIN
 90
        1
 91
        1
300
_TITLE
309
CELLSTYLE_END
300
CELLSTYLE
  1
TABLEFORMAT_BEGIN
 90
        5
170
     1
 91
        0
 92
        0
 62
   257
 93
        1
300
CONTENTFORMAT
  1
CONTENTFORMAT_BEGIN
 90
        0
 91
        0
 92
      512
 93
        0
300

 40
0.0
140
1.0
 94
        5
 62
     0
340
28
144
0.18
309
CONTENTFORMAT_END
171
     1
301
MARGIN
  1
CELLMARGIN_BEGIN
 40
0.06
 40
0.06
 40
0.06
 40
0.06
 40
0.18
 40
0.18
309
CELLMARGIN_END
 94
        6
 95
        1
302
GRIDFORMAT
  1
GRIDFORMAT_BEGIN
 90
        0
 91
        1
 62
     0
 92
       -2
340
0
 93
        0
 40
0.045
309
GRIDFORMAT_END
 95
        2
302
GRIDFORMAT
  1
GRIDFORMAT_BEGIN
 90
        0
 91
        1
 62
     0
 92
       -2
340
0
 93
        0
 40
0.045
309
GRIDFORMAT_END
 95
        4
302
GRIDFORMAT
  1
GRIDFORMAT_BEGIN
 90
        0
 91
        1
 62
     0
 92
       -2
340
0
 93
        0
 40
0.045
309
GRIDFORMAT_END
 95
        8
302
GRIDFORMAT
  1
GRIDFORMAT_BEGIN
 90
        0
 91
        1
 62
     0
 92
       -2
340
0
 93
        0
 40
0.045
309
GRIDFORMAT_END
 95
       16
302
GRIDFORMAT
  1
GRIDFORMAT_BEGIN
 90
        0
 91
        1
 62
     0
 92
       -2
340
0
 93
        0
 40
0.045
309
GRIDFORMAT_END
 95
       32
302
GRIDFORMAT
  1
GRIDFORMAT_BEGIN
 90
        0
 91
        1
 62
     0
 92
       -2
340
0
 93
        0
 40
0.045
309
GRIDFORMAT_END
309
TABLEFORMAT_END
  1
CELLSTYLE_BEGIN
 90
        2
 91
        1
300
_HEADER
309
CELLSTYLE_END
300
CELLSTYLE
  1
TABLEFORMAT_BEGIN
 90
        5
170
     1
 91
        0
 92
        0
 62
   257
 93
        1
300
CONTENTFORMAT
  1
CONTENTFORMAT_BEGIN
 90
        0
 91
        0
 92
      512
 93
        0
300

 40
0.0
140
1.0
 94
        2
 62
     0
340
28
144
0.18
309
CONTENTFORMAT_END
171
     1
301
MARGIN
  1
CELLMARGIN_BEGIN
 40
0.06
 40
0.06
 40
0.06
 40
0.06
 40
0.18
 40
0.18
309
CELLMARGIN_END
 94
        6
 95
        1
302
GRIDFORMAT
  1
GRIDFORMAT_BEGIN
 90
        0
 91
        1
 62
     0
 92
       -2
340
0
 93
        0
 40
0.045
309
GRIDFORMAT_END
 95
        2
302
GRIDFORMAT
  1
GRIDFORMAT_BEGIN
 90
        0
 91
        1
 62
     0
 92
       -2
340
0
 93
        0
 40
0.045
309
GRIDFORMAT_END
 95
        4
302
GRIDFORMAT
  1
GRIDFORMAT_BEGIN
 90
        0
 91
        1
 62
     0
 92
       -2
340
0
 93
        0
 40
0.045
309
GRIDFORMAT_END
 95
        8
302
GRIDFORMAT
  1
GRIDFORMAT_BEGIN
 90
        0
 91
        1
 62
     0
 92
       -2
340
0
 93
        0
 40
0.045
309
GRIDFORMAT_END
 95
       16
302
GRIDFORMAT
  1
GRIDFORMAT_BEGIN
 90
        0
 91
        1
 62
     0
 92
       -2
340
0
 93
        0
 40
0.045
309
GRIDFORMAT_END
 95
       32
302
GRIDFORMAT
  1
GRIDFORMAT_BEGIN
 90
        0
 91
        1
 62
     0
 92
       -2
340
0
 93
        0
 40
0.045
309
GRIDFORMAT_END
309
TABLEFORMAT_END
  1
CELLSTYLE_BEGIN
 90
        3
 91
        2
300
_DATA
309
CELLSTYLE_END
  0
XRECORD
  5
262
102
{ACAD_REACTORS
330
61
102
}
330
61
100
AcDbXrecord
280
     1
102
ACAD_ROUNDTRIP_PRE2007_TABLESTYLE
 90
      512
 91
        0
  1

 92
      512
 93
        0
  2

 94
      512
 95
        0
  3

  0
ENDSEC
  0
EOF
