  0
SECTION
  2
HEADER
  9
$ACADVER
  1
AC1018
  9
$ACADMAINTVER
 70
   104
  9
$DWGCODEPAGE
  3
ANSI_949
  9
$LASTSAVEDBY
  1
R&D
  9
$INSBASE
 10
2595.0
 20
134.0
 30
0.0
  9
$EXTMIN
 10
2605.0
 20
22.0
 30
0.0
  9
$EXTMAX
 10
2780.0
 20
118.0
 30
0.0
  9
$LIMMIN
 10
0.0
 20
0.0
  9
$LIMMAX
 10
4205.0
 20
2970.0
  9
$ORTHOMODE
 70
     0
  9
$REGENMODE
 70
     1
  9
$FILLMODE
 70
     1
  9
$QTEXTMODE
 70
     0
  9
$MIRRTEXT
 70
     1
  9
$LTSCALE
 40
5.0
  9
$ATTMODE
 70
     1
  9
$TEXTSIZE
 40
4.0
  9
$TRACEWID
 40
0.05
  9
$TEXTSTYLE
  7
GHS
  9
$CLAYER
  8
TEXT
  9
$CELTYPE
  6
ByLayer
  9
$CECOLOR
 62
   256
  9
$CELTSCALE
 40
1.0
  9
$DISPSILH
 70
     0
  9
$DIMSCALE
 40
1.0
  9
$DIMASZ
 40
4.0
  9
$DIMEXO
 40
1.0
  9
$DIMDLI
 40
1.0
  9
$DIMRND
 40
0.0
  9
$DIMDLE
 40
0.0
  9
$DIMEXE
 40
1.0
  9
$DIMTP
 40
0.0
  9
$DIMTM
 40
0.0
  9
$DIMTXT
 40
5.0
  9
$DIMCEN
 40
0.5
  9
$DIMTSZ
 40
0.0
  9
$DIMTOL
 70
     0
  9
$DIMLIM
 70
     0
  9
$DIMTIH
 70
     0
  9
$DIMTOH
 70
     0
  9
$DIMSE1
 70
     0
  9
$DIMSE2
 70
     0
  9
$DIMTAD
 70
     1
  9
$DIMZIN
 70
     8
  9
$DIMBLK
  1

  9
$DIMASO
 70
     1
  9
$DIMSHO
 70
     1
  9
$DIMPOST
  1

  9
$DIMAPOST
  1

  9
$DIMALT
 70
     0
  9
$DIMALTD
 70
     2
  9
$DIMALTF
 40
25.4
  9
$DIMLFAC
 40
1.0
  9
$DIMTOFL
 70
     1
  9
$DIMTVP
 40
0.0
  9
$DIMTIX
 70
     0
  9
$DIMSOXD
 70
     0
  9
$DIMSAH
 70
     0
  9
$DIMBLK1
  1

  9
$DIMBLK2
  1

  9
$DIMSTYLE
  2
Standard
  9
$DIMCLRD
 70
   256
  9
$DIMCLRE
 70
   256
  9
$DIMCLRT
 70
   256
  9
$DIMTFAC
 40
1.0
  9
$DIMGAP
 40
1.5
  9
$DIMJUST
 70
     0
  9
$DIMSD1
 70
     0
  9
$DIMSD2
 70
     0
  9
$DIMTOLJ
 70
     1
  9
$DIMTZIN
 70
     0
  9
$DIMALTZ
 70
     0
  9
$DIMALTTZ
 70
     0
  9
$DIMUPT
 70
     0
  9
$DIMDEC
 70
     3
  9
$DIMTDEC
 70
     3
  9
$DIMALTU
 70
     2
  9
$DIMALTTD
 70
     2
  9
$DIMTXSTY
  7
GHS
  9
$DIMAUNIT
 70
     0
  9
$DIMADEC
 70
     0
  9
$DIMALTRND
 40
0.0
  9
$DIMAZIN
 70
     0
  9
$DIMDSEP
 70
    46
  9
$DIMATFIT
 70
     3
  9
$DIMFRAC
 70
     0
  9
$DIMLDRBLK
  1

  9
$DIMLUNIT
 70
     2
  9
$DIMLWD
 70
    -1
  9
$DIMLWE
 70
    -1
  9
$DIMTMOVE
 70
     0
  9
$LUNITS
 70
     2
  9
$LUPREC
 70
     3
  9
$SKETCHINC
 40
0.1
  9
$FILLETRAD
 40
4.0
  9
$AUNITS
 70
     0
  9
$AUPREC
 70
     3
  9
$MENU
  1
acad
  9
$ELEVATION
 40
0.0
  9
$PELEVATION
 40
0.0
  9
$THICKNESS
 40
0.0
  9
$LIMCHECK
 70
     0
  9
$CHAMFERA
 40
0.0
  9
$CHAMFERB
 40
0.0
  9
$CHAMFERC
 40
0.0
  9
$CHAMFERD
 40
0.0
  9
$SKPOLY
 70
     0
  9
$TDCREATE
 40
2449855.468823958
  9
$TDUCREATE
 40
2449855.093823958
  9
$TDUPDATE
 40
2455883.639780000
  9
$TDUUPDATE
 40
2455883.264780000
  9
$TDINDWG
 40
4.0525206597
  9
$TDUSRTIMER
 40
4.0525206597
  9
$USRTIMER
 70
     1
  9
$ANGBASE
 50
0.0
  9
$ANGDIR
 70
     0
  9
$PDMODE
 70
     0
  9
$PDSIZE
 40
0.0
  9
$PLINEWID
 40
0.0
  9
$SPLFRAME
 70
     0
  9
$SPLINETYPE
 70
     6
  9
$SPLINESEGS
 70
     8
  9
$HANDSEED
  5
274
  9
$SURFTAB1
 70
     6
  9
$SURFTAB2
 70
     6
  9
$SURFTYPE
 70
     6
  9
$SURFU
 70
     6
  9
$SURFV
 70
     6
  9
$UCSBASE
  2

  9
$UCSNAME
  2

  9
$UCSORG
 10
0.0
 20
0.0
 30
0.0
  9
$UCSXDIR
 10
1.0
 20
0.0
 30
0.0
  9
$UCSYDIR
 10
0.0
 20
1.0
 30
0.0
  9
$UCSORTHOREF
  2

  9
$UCSORTHOVIEW
 70
     0
  9
$UCSORGTOP
 10
0.0
 20
0.0
 30
0.0
  9
$UCSORGBOTTOM
 10
0.0
 20
0.0
 30
0.0
  9
$UCSORGLEFT
 10
0.0
 20
0.0
 30
0.0
  9
$UCSORGRIGHT
 10
0.0
 20
0.0
 30
0.0
  9
$UCSORGFRONT
 10
0.0
 20
0.0
 30
0.0
  9
$UCSORGBACK
 10
0.0
 20
0.0
 30
0.0
  9
$PUCSBASE
  2

  9
$PUCSNAME
  2

  9
$PUCSORG
 10
0.0
 20
0.0
 30
0.0
  9
$PUCSXDIR
 10
1.0
 20
0.0
 30
0.0
  9
$PUCSYDIR
 10
0.0
 20
1.0
 30
0.0
  9
$PUCSORTHOREF
  2

  9
$PUCSORTHOVIEW
 70
     0
  9
$PUCSORGTOP
 10
0.0
 20
0.0
 30
0.0
  9
$PUCSORGBOTTOM
 10
0.0
 20
0.0
 30
0.0
  9
$PUCSORGLEFT
 10
0.0
 20
0.0
 30
0.0
  9
$PUCSORGRIGHT
 10
0.0
 20
0.0
 30
0.0
  9
$PUCSORGFRONT
 10
0.0
 20
0.0
 30
0.0
  9
$PUCSORGBACK
 10
0.0
 20
0.0
 30
0.0
  9
$USERI1
 70
     0
  9
$USERI2
 70
     0
  9
$USERI3
 70
     0
  9
$USERI4
 70
     0
  9
$USERI5
 70
     0
  9
$USERR1
 40
0.0
  9
$USERR2
 40
0.0
  9
$USERR3
 40
0.0
  9
$USERR4
 40
0.0
  9
$USERR5
 40
0.0
  9
$WORLDVIEW
 70
     1
  9
$SHADEDGE
 70
     3
  9
$SHADEDIF
 70
    70
  9
$TILEMODE
 70
     1
  9
$MAXACTVP
 70
    16
  9
$PINSBASE
 10
2220.404641079056
 20
50.00000000000001
 30
2810.473195709564
  9
$PLIMCHECK
 70
     0
  9
$PEXTMIN
 10
1.000000000000000E+20
 20
1.000000000000000E+20
 30
1.000000000000000E+20
  9
$PEXTMAX
 10
-1.000000000000000E+20
 20
-1.000000000000000E+20
 30
-1.000000000000000E+20
  9
$PLIMMIN
 10
0.0
 20
0.0
  9
$PLIMMAX
 10
12.0
 20
9.0
  9
$UNITMODE
 70
     0
  9
$VISRETAIN
 70
     0
  9
$PLINEGEN
 70
     0
  9
$PSLTSCALE
 70
     1
  9
$TREEDEPTH
 70
  3020
  9
$CMLSTYLE
  2
Standard
  9
$CMLJUST
 70
     0
  9
$CMLSCALE
 40
1.0
  9
$PROXYGRAPHICS
 70
     1
  9
$MEASUREMENT
 70
     0
  9
$CELWEIGHT
370
    -1
  9
$ENDCAPS
280
     0
  9
$JOINSTYLE
280
     0
  9
$LWDISPLAY
290
     0
  9
$INSUNITS
 70
     0
  9
$HYPERLINKBASE
  1

  9
$STYLESHEET
  1

  9
$XEDIT
290
     1
  9
$CEPSNTYPE
380
     0
  9
$PSTYLEMODE
290
     1
  9
$FINGERPRINTGUID
  2
{6FB7BB36-DAE2-494F-8FDB-6C52B1DFB165}
  9
$VERSIONGUID
  2
{2AE52532-4E30-4D9B-AEC7-269DB56A45A6}
  9
$EXTNAMES
290
     1
  9
$PSVPSCALE
 40
0.0
  9
$OLESTARTUP
290
     0
  9
$SORTENTS
280
   127
  9
$INDEXCTL
280
     0
  9
$HIDETEXT
280
     1
  9
$XCLIPFRAME
290
     0
  9
$HALOGAP
280
     0
  9
$OBSCOLOR
 70
   257
  9
$OBSLTYPE
280
     0
  9
$INTERSECTIONDISPLAY
280
     0
  9
$INTERSECTIONCOLOR
 70
   257
  9
$DIMASSOC
280
     2
  9
$PROJECTNAME
  1

  0
ENDSEC
  0
SECTION
  2
CLASSES
  0
CLASS
  1
ACDBDICTIONARYWDFLT
  2
AcDbDictionaryWithDefault
  3
ObjectDBX Classes
 90
        0
 91
        1
280
     0
281
     0
  0
CLASS
  1
DICTIONARYVAR
  2
AcDbDictionaryVar
  3
ObjectDBX Classes
 90
        0
 91
        9
280
     0
281
     0
  0
CLASS
  1
DIMASSOC
  2
AcDbDimAssoc
  3
"AcDbDimAssoc|Product Desc:     AcDim ARX App For Dimension|Company:          Autodesk, Inc.|WEB Address:      www.autodesk.com"
 90
        0
 91
        0
280
     0
281
     0
  0
CLASS
  1
MATERIAL
  2
AcDbMaterial
  3
ObjectDBX Classes
 90
     1153
 91
        3
280
     0
281
     0
  0
CLASS
  1
VISUALSTYLE
  2
AcDbVisualStyle
  3
ObjectDBX Classes
 90
     4095
 91
       16
280
     0
281
     0
  0
CLASS
  1
TABLESTYLE
  2
AcDbTableStyle
  3
ObjectDBX Classes
 90
     4095
 91
        1
280
     0
281
     0
  0
CLASS
  1
SCALE
  2
AcDbScale
  3
ObjectDBX Classes
 90
     1153
 91
       34
280
     0
281
     0
  0
CLASS
  1
MLEADERSTYLE
  2
AcDbMLeaderStyle
  3
ACDB_MLEADERSTYLE_CLASS
 90
     4095
 91
        1
280
     0
281
     0
  0
CLASS
  1
CELLSTYLEMAP
  2
AcDbCellStyleMap
  3
ObjectDBX Classes
 90
     1152
 91
        2
280
     0
281
     0
  0
CLASS
  1
SORTENTSTABLE
  2
AcDbSortentsTable
  3
ObjectDBX Classes
 90
        0
 91
        1
280
     0
281
     0
  0
CLASS
  1
ACDB_TEXTOBJECTCONTEXTDATA_CLASS
  2
AcDbTextObjectContextData
  3
ObjectDBX Classes
 90
     1153
 91
        0
280
     0
281
     0
  0
CLASS
  1
SOLID_BACKGROUND
  2
AcDbSolidBackground
  3
SCENEOE
 90
     4095
 91
        0
280
     0
281
     0
  0
CLASS
  1
NPOCOLLECTION
  2
AcDbImpNonPersistentObjectsCollection
  3
ObjectDBX Classes
 90
     1153
 91
        0
280
     0
281
     0
  0
ENDSEC
  0
SECTION
  2
TABLES
  0
TABLE
  2
VPORT
  5
2F
102
{ACAD_XDICTIONARY
360
33
102
}
330
0
100
AcDbSymbolTable
 70
     1
  0
VPORT
  5
30
330
2F
100
AcDbSymbolTableRecord
100
AcDbViewportTableRecord
  2
*Active
 70
     0
 10
0.0
 20
0.0
 11
1.0
 21
1.0
 12
2692.489135132245
 22
70.03271380912747
 13
0.0
 23
0.0
 14
1.0
 24
1.0
 15
0.0
 25
0.0
 16
0.0
 26
0.0
 36
1.0
 17
0.0
 27
0.0
 37
0.0
 40
107.4735902685
 41
1.889
 42
50.0
 43
0.0
 44
0.0
 50
0.0
 51
0.0
 71
     0
 72
 10000
 73
     1
 74
     0
 75
     0
 76
     0
 77
     0
 78
     0
281
     0
 65
     1
110
0.0
120
0.0
130
0.0
111
1.0
121
0.0
131
0.0
112
0.0
122
1.0
132
0.0
 79
     0
146
0.0
  0
ENDTAB
  0
TABLE
  2
LTYPE
  5
2A
330
0
100
AcDbSymbolTable
 70
     2
  0
LTYPE
  5
2B
330
2A
100
AcDbSymbolTableRecord
100
AcDbLinetypeTableRecord
  2
ByBlock
 70
     0
  3

 72
    65
 73
     0
 40
0.0
  0
LTYPE
  5
2C
330
2A
100
AcDbSymbolTableRecord
100
AcDbLinetypeTableRecord
  2
ByLayer
 70
     0
  3

 72
    65
 73
     0
 40
0.0
  0
LTYPE
  5
16
330
2A
100
AcDbSymbolTableRecord
100
AcDbLinetypeTableRecord
  2
CONTINUOUS
 70
     0
  3
Solid line
 72
    65
 73
     0
 40
0.0
  0
LTYPE
  5
8A
330
2A
100
AcDbSymbolTableRecord
100
AcDbLinetypeTableRecord
  2
CENTER
 70
     0
  3
____ _ ____ _ ____ _ ____ _ ____ _ ____ _ ____ 
 72
    65
 73
     4
 40
2.0
 49
1.25
 74
     0
 49
-0.25
 74
     0
 49
0.25
 74
     0
 49
-0.25
 74
     0
  0
ENDTAB
  0
TABLE
  2
LAYER
  5
21
102
{ACAD_XDICTIONARY
360
22
102
}
330
0
100
AcDbSymbolTable
 70
     4
  0
LAYER
  5
7
102
{ACAD_XDICTIONARY
360
8
102
}
330
21
100
AcDbSymbolTableRecord
100
AcDbLayerTableRecord
  2
0
 70
     0
 62
     7
  6
CONTINUOUS
370
    -3
390
A
  0
LAYER
  5
87
102
{ACAD_XDICTIONARY
360
88
102
}
330
21
100
AcDbSymbolTableRecord
100
AcDbLayerTableRecord
  2
CL
 70
     0
 62
     1
  6
CENTER
370
    -3
390
A
  0
LAYER
  5
149
330
21
100
AcDbSymbolTableRecord
100
AcDbLayerTableRecord
  2
DEFPOINTS
 70
     0
 62
     7
  6
CONTINUOUS
290
     0
370
    -3
390
A
  0
LAYER
  5
5C
102
{ACAD_XDICTIONARY
360
5D
102
}
330
21
100
AcDbSymbolTableRecord
100
AcDbLayerTableRecord
  2
TEXT
 70
     0
 62
    84
  6
CONTINUOUS
370
    -3
390
A
  0
ENDTAB
  0
TABLE
  2
STYLE
  5
27
330
0
100
AcDbSymbolTable
 70
     2
  0
STYLE
  5
28
330
27
100
AcDbSymbolTableRecord
100
AcDbTextStyleTableRecord
  2
STANDARD
 70
     0
 40
0.0
 41
0.8
 50
0.0
 71
     0
 42
4.0
  3
TXT.shx
  4

  0
STYLE
  5
37
330
27
100
AcDbSymbolTableRecord
100
AcDbTextStyleTableRecord
  2
GHS
 70
     0
 40
0.0
 41
0.6
 50
0.0
 71
     0
 42
4.0
  3
ROMANS
  4
GHS
  0
ENDTAB
  0
TABLE
  2
VIEW
  5
2D
330
0
100
AcDbSymbolTable
 70
     0
  0
ENDTAB
  0
TABLE
  2
UCS
  5
2E
330
0
100
AcDbSymbolTable
 70
     0
  0
ENDTAB
  0
TABLE
  2
APPID
  5
34
330
0
100
AcDbSymbolTable
 70
     9
  0
APPID
  5
26
330
34
100
AcDbSymbolTableRecord
100
AcDbRegAppTableRecord
  2
ACAD
 70
     0
  0
APPID
  5
38
330
34
100
AcDbSymbolTableRecord
100
AcDbRegAppTableRecord
  2
ACAD_DSTYLE_DIMJAG
 70
     0
  0
APPID
  5
39
330
34
100
AcDbSymbolTableRecord
100
AcDbRegAppTableRecord
  2
ACAD_DSTYLE_DIMTALN
 70
     0
  0
APPID
  5
1A
330
34
100
AcDbSymbolTableRecord
100
AcDbRegAppTableRecord
  2
ACAD_PSEXT
 70
     0
  0
APPID
  5
42
330
34
100
AcDbSymbolTableRecord
100
AcDbRegAppTableRecord
  2
ACAD_DSTYLE_DIMBREAK
 70
     0
  0
APPID
  5
226
330
34
100
AcDbSymbolTableRecord
100
AcDbRegAppTableRecord
  2
ACAD_DSTYLE_DIM_LINETYPE
 70
     0
  0
APPID
  5
227
330
34
100
AcDbSymbolTableRecord
100
AcDbRegAppTableRecord
  2
ACAD_DSTYLE_DIM_EXT1_LINETYPE
 70
     0
  0
APPID
  5
228
330
34
100
AcDbSymbolTableRecord
100
AcDbRegAppTableRecord
  2
ACAD_DSTYLE_DIM_EXT2_LINETYPE
 70
     0
  0
APPID
  5
249
330
34
100
AcDbSymbolTableRecord
100
AcDbRegAppTableRecord
  2
ACAD_MLEADERVER
 70
     0
  0
ENDTAB
  0
TABLE
  2
DIMSTYLE
  5
35
330
0
100
AcDbSymbolTable
 70
     5
100
AcDbDimStyleTable
 71
     5
340
36
340
3A
340
3B
340
43
340
44
  0
DIMSTYLE
105
36
330
35
100
AcDbSymbolTableRecord
100
AcDbDimStyleTableRecord
  2
Standard
 70
     0
 41
4.0
 42
1.0
 43
1.0
 44
1.0
 73
     0
 74
     0
 77
     1
 78
     8
140
5.0
141
0.5
147
1.5
172
     1
176
   256
177
   256
178
   256
271
     3
272
     3
340
37
371
    -1
372
    -1
1001
ACAD_DSTYLE_DIMJAG
1070
   388
1040
1.5
1001
ACAD_DSTYLE_DIMTALN
1070
   392
1070
     0
1001
ACAD_DSTYLE_DIM_LINETYPE
1070
   380
1005
2C
1001
ACAD_DSTYLE_DIM_EXT1_LINETYPE
1070
   381
1005
2C
1001
ACAD_DSTYLE_DIM_EXT2_LINETYPE
1070
   382
1005
2C
  0
DIMSTYLE
105
3A
330
35
100
AcDbSymbolTableRecord
100
AcDbDimStyleTableRecord
  2
ISO-25
 70
     0
 41
4.0
 42
2.0
 43
1.0
 44
1.0
 73
     0
 74
     0
 77
     1
 78
     8
 79
     2
140
4.0
141
0.5
143
0.03937007874016
147
1.5
171
     3
172
     1
176
   256
177
   256
178
   256
179
     4
271
     3
272
     3
274
     3
283
     0
284
     8
340
37
371
    -1
372
    -1
1001
ACAD_DSTYLE_DIMJAG
1070
   388
1040
1.5
1001
ACAD_DSTYLE_DIMTALN
1070
   392
1070
     0
1001
ACAD_DSTYLE_DIM_LINETYPE
1070
   380
1005
2C
1001
ACAD_DSTYLE_DIM_EXT1_LINETYPE
1070
   381
1005
2C
1001
ACAD_DSTYLE_DIM_EXT2_LINETYPE
1070
   382
1005
2C
  0
DIMSTYLE
105
43
330
35
100
AcDbSymbolTableRecord
100
AcDbDimStyleTableRecord
  2
2X
 70
     0
 41
3.0
 42
1.0
 43
1.0
 44
1.0
 73
     0
 74
     0
 77
     1
 78
     8
 79
     2
140
3.0
141
0.5
144
0.5
147
1.0
172
     1
176
   256
177
   256
178
   256
179
     3
271
     3
272
     3
340
37
371
    -1
372
    -1
1001
ACAD_DSTYLE_DIMBREAK
1070
   391
1040
0.125
1001
ACAD_DSTYLE_DIMJAG
1070
   388
1040
1.5
1001
ACAD_DSTYLE_DIMTALN
1070
   392
1070
     0
1001
ACAD_DSTYLE_DIM_LINETYPE
1070
   380
1005
2C
1001
ACAD_DSTYLE_DIM_EXT1_LINETYPE
1070
   381
1005
2C
1001
ACAD_DSTYLE_DIM_EXT2_LINETYPE
1070
   382
1005
2C
  0
DIMSTYLE
105
44
102
{ACAD_REACTORS
330
13F
330
171
330
181
330
190
330
19F
330
1AC
330
1B9
330
1C6
330
1D5
330
1E4
330
1F1
330
1FE
102
}
330
35
100
AcDbSymbolTableRecord
100
AcDbDimStyleTableRecord
  2
1X
 70
     0
 41
3.0
 42
1.0
 43
1.0
 44
1.0
 73
     0
 74
     0
 77
     1
 78
     8
140
3.0
141
0.5
147
1.0
172
     1
176
   256
177
   256
178
   256
271
     3
272
     3
340
37
371
    -1
372
    -1
1001
ACAD_DSTYLE_DIMBREAK
1070
   391
1040
0.125
1001
ACAD_DSTYLE_DIMJAG
1070
   388
1040
1.5
1001
ACAD_DSTYLE_DIMTALN
1070
   392
1070
     0
1001
ACAD_DSTYLE_DIM_LINETYPE
1070
   380
1005
2C
1001
ACAD_DSTYLE_DIM_EXT1_LINETYPE
1070
   381
1005
2C
1001
ACAD_DSTYLE_DIM_EXT2_LINETYPE
1070
   382
1005
2C
  0
DIMSTYLE
105
3B
330
35
100
AcDbSymbolTableRecord
100
AcDbDimStyleTableRecord
  2
CATALOG
 70
     0
 41
2.5
 42
1.0
 43
1.0
 44
1.0
 73
     0
 74
     0
 77
     1
 78
     8
 79
     2
140
3.0
141
0.5
147
1.0
172
     1
176
   256
177
   256
178
   256
179
     3
271
     3
272
     3
340
37
342
3C
371
    -1
372
    -1
1001
ACAD_DSTYLE_DIMBREAK
1070
   391
1040
0.125
1001
ACAD_DSTYLE_DIMJAG
1070
   388
1040
1.5
1001
ACAD_DSTYLE_DIMTALN
1070
   392
1070
     0
1001
ACAD_DSTYLE_DIM_LINETYPE
1070
   380
1005
2C
1001
ACAD_DSTYLE_DIM_EXT1_LINETYPE
1070
   381
1005
2C
1001
ACAD_DSTYLE_DIM_EXT2_LINETYPE
1070
   382
1005
2C
  0
ENDTAB
  0
TABLE
  2
BLOCK_RECORD
  5
1
330
0
100
AcDbSymbolTable
 70
    13
  0
BLOCK_RECORD
  5
2
102
{ACAD_XDICTIONARY
360
3
102
}
330
1
100
AcDbSymbolTableRecord
100
AcDbBlockTableRecord
  2
*Model_Space
340
18
  0
BLOCK_RECORD
  5
1B
102
{ACAD_XDICTIONARY
360
1C
102
}
330
1
100
AcDbSymbolTableRecord
100
AcDbBlockTableRecord
  2
*Paper_Space
340
20
  0
BLOCK_RECORD
  5
140
330
1
100
AcDbSymbolTableRecord
100
AcDbBlockTableRecord
  2
*D0
340
0
  0
BLOCK_RECORD
  5
172
330
1
100
AcDbSymbolTableRecord
100
AcDbBlockTableRecord
  2
*D1
340
0
  0
BLOCK_RECORD
  5
182
330
1
100
AcDbSymbolTableRecord
100
AcDbBlockTableRecord
  2
*D2
340
0
  0
BLOCK_RECORD
  5
191
330
1
100
AcDbSymbolTableRecord
100
AcDbBlockTableRecord
  2
*D3
340
0
  0
BLOCK_RECORD
  5
1A0
330
1
100
AcDbSymbolTableRecord
100
AcDbBlockTableRecord
  2
*D4
340
0
  0
BLOCK_RECORD
  5
1AD
330
1
100
AcDbSymbolTableRecord
100
AcDbBlockTableRecord
  2
*D5
340
0
  0
BLOCK_RECORD
  5
1BA
330
1
100
AcDbSymbolTableRecord
100
AcDbBlockTableRecord
  2
*D6
340
0
  0
BLOCK_RECORD
  5
1C7
330
1
100
AcDbSymbolTableRecord
100
AcDbBlockTableRecord
  2
*D7
340
0
  0
BLOCK_RECORD
  5
1D6
330
1
100
AcDbSymbolTableRecord
100
AcDbBlockTableRecord
  2
*D8
340
0
  0
BLOCK_RECORD
  5
1E5
330
1
100
AcDbSymbolTableRecord
100
AcDbBlockTableRecord
  2
*D9
340
0
  0
BLOCK_RECORD
  5
1F2
330
1
100
AcDbSymbolTableRecord
100
AcDbBlockTableRecord
  2
*D10
340
0
  0
BLOCK_RECORD
  5
1FF
330
1
100
AcDbSymbolTableRecord
100
AcDbBlockTableRecord
  2
*D11
340
0
  0
BLOCK_RECORD
  5
3C
330
1
100
AcDbSymbolTableRecord
100
AcDbBlockTableRecord
  2
_Open30
340
0
  0
ENDTAB
  0
ENDSEC
  0
SECTION
  2
BLOCKS
  0
BLOCK
  5
6
330
2
100
AcDbEntity
  8
0
100
AcDbBlockBegin
  2
*Model_Space
 70
     0
 10
0.0
 20
0.0
 30
0.0
  3
*Model_Space
  1

  0
ENDBLK
  5
17
330
2
100
AcDbEntity
  8
0
100
AcDbBlockEnd
  0
BLOCK
  5
1E
330
1B
100
AcDbEntity
 67
     1
  8
0
100
AcDbBlockBegin
  2
*Paper_Space
 70
     0
 10
0.0
 20
0.0
 30
0.0
  3
*Paper_Space
  1

  0
ENDBLK
  5
1F
330
1B
100
AcDbEntity
 67
     1
  8
0
100
AcDbBlockEnd
  0
BLOCK
  5
141
330
140
100
AcDbEntity
  8
0
100
AcDbBlockBegin
  2
*D0
 70
     1
 10
0.0
 20
0.0
 30
0.0
  3
*D0
  1

  0
LINE
  5
142
330
140
100
AcDbEntity
  8
TEXT
100
AcDbLine
 10
2642.013975850865
 20
79.50074277489784
 30
0.0
 11
2654.464466094071
 21
67.05025253169606
 31
0.0
  0
LINE
  5
143
330
140
100
AcDbEntity
  8
TEXT
100
AcDbLine
 10
2650.499257225102
 20
87.98602414913672
 30
0.0
 11
2662.949747468307
 21
75.53553390593492
 31
0.0
  0
LINE
  5
144
330
140
100
AcDbEntity
  8
TEXT
100
AcDbLine
 10
2655.878679656443
 20
69.8786796564425
 30
0.0
 11
2660.121320343561
 21
74.12132034356137
 31
0.0
  0
SOLID
  5
145
330
140
100
AcDbEntity
  8
TEXT
100
AcDbTrace
 10
2655.52512626585
 20
70.23223304703583
 30
0.0
 11
2656.232233047036
 21
69.52512626584939
 31
0.0
 12
2653.757359312884
 22
67.7573593128825
 32
0.0
 13
2653.757359312884
 23
67.7573593128825
 33
0.0
  0
SOLID
  5
146
330
140
100
AcDbEntity
  8
TEXT
100
AcDbTrace
 10
2659.767766952968
 20
74.47487373415469
 30
0.0
 11
2660.474873734154
 21
73.76776695296825
 31
0.0
 12
2662.24264068712
 22
76.24264068712136
 32
0.0
 13
2662.24264068712
 23
76.24264068712136
 33
0.0
  0
MTEXT
  5
147
330
140
100
AcDbEntity
  8
TEXT
100
AcDbMText
 10
2656.232233047035
 20
73.76776695296825
 30
0.0
 40
3.0
 41
0.0
 71
     5
 72
     1
  1
\A1;12
  7
GHS
 11
0.7071067811864433
 21
0.7071067811866518
 31
0.0
 73
     1
 44
1.0
  0
POINT
  5
148
330
140
100
AcDbEntity
  8
DEFPOINTS
 62
     0
100
AcDbPoint
 10
2641.306869069679
 20
80.20784955608428
 30
0.0
  0
POINT
  5
14A
330
140
100
AcDbEntity
  8
DEFPOINTS
 62
     0
100
AcDbPoint
 10
2649.792150443915
 20
88.69313093032316
 30
0.0
  0
POINT
  5
14B
330
140
100
AcDbEntity
  8
DEFPOINTS
 62
     0
100
AcDbPoint
 10
2662.24264068712
 20
76.24264068712136
 30
0.0
  0
ENDBLK
  5
14C
330
140
100
AcDbEntity
  8
0
100
AcDbBlockEnd
  0
BLOCK
  5
173
330
172
100
AcDbEntity
  8
0
100
AcDbBlockBegin
  2
*D1
 70
     1
 10
0.0
 20
0.0
 30
0.0
  3
*D1
  1

  0
LINE
  5
174
330
172
100
AcDbEntity
  8
TEXT
100
AcDbLine
 10
2656.5
 20
87.0
 30
0.0
 11
2662.384776310845
 21
87.00000000000022
 31
0.0
  0
LINE
  5
175
330
172
100
AcDbEntity
  8
TEXT
100
AcDbLine
 10
2643.0
 20
100.5
 30
0.0
 11
2643.0
 21
106.3847763108447
 31
0.0
  0
ARC
  5
176
330
172
100
AcDbEntity
  8
TEXT
100
AcDbCircle
 10
2643.0
 20
86.99999999999954
 30
0.0
 40
18.38477631084511
100
AcDbArc
 50
9.359842762061539
 51
80.6401572379392
  0
SOLID
  5
177
330
172
100
AcDbEntity
  8
TEXT
100
AcDbTrace
 10
2661.63834159889
 20
90.03079274195693
 30
0.0
 11
2660.641675558902
 21
89.94920349797371
 31
0.0
 12
2661.384776310845
 22
87.0
 32
0.0
 13
2661.384776310845
 23
87.0
 33
0.0
  0
SOLID
  5
178
330
172
100
AcDbEntity
  8
TEXT
100
AcDbTrace
 10
2645.949203497974
 20
104.6416755589014
 30
0.0
 11
2646.030792741957
 21
105.6383415988896
 31
0.0
 12
2643.0
 22
105.3847763108447
 32
0.0
 13
2643.0
 23
105.3847763108447
 33
0.0
  0
MTEXT
  5
179
330
172
100
AcDbEntity
  8
TEXT
100
AcDbMText
 10
2657.767766952963
 20
101.7677669529628
 30
0.0
 40
3.0
 41
0.0
 71
     5
 72
     1
  1
\A1;4-90°
  7
GHS
 11
0.7071067811865476
 21
-0.7071067811865475
 31
0.0
 73
     1
 44
1.0
  0
POINT
  5
17A
330
172
100
AcDbEntity
  8
DEFPOINTS
 62
     0
100
AcDbPoint
 10
2658.921683328086
 20
96.19238815542235
 30
0.0
  0
POINT
  5
17B
330
172
100
AcDbEntity
  8
DEFPOINTS
 62
     0
100
AcDbPoint
 10
2643.0
 20
74.5
 30
0.0
  0
POINT
  5
17C
330
172
100
AcDbEntity
  8
DEFPOINTS
 62
     0
100
AcDbPoint
 10
2655.5
 20
87.0
 30
0.0
  0
POINT
  5
17D
330
172
100
AcDbEntity
  8
DEFPOINTS
 62
     0
100
AcDbPoint
 10
2630.5
 20
86.99999999999977
 30
0.0
  0
POINT
  5
17E
330
172
100
AcDbEntity
  8
DEFPOINTS
 62
     0
100
AcDbPoint
 10
2643.0
 20
99.50000000000024
 30
0.0
  0
ENDBLK
  5
17F
330
172
100
AcDbEntity
  8
0
100
AcDbBlockEnd
  0
BLOCK
  5
183
330
182
100
AcDbEntity
  8
0
100
AcDbBlockBegin
  2
*D2
 70
     1
 10
0.0
 20
0.0
 30
0.0
  3
*D2
  1

  0
LINE
  5
184
330
182
100
AcDbEntity
  8
TEXT
100
AcDbLine
 10
2699.3
 20
85.0
 30
0.0
 11
2692.0
 21
85.0
 31
0.0
  0
LINE
  5
185
330
182
100
AcDbEntity
  8
TEXT
100
AcDbLine
 10
2699.0
 20
88.49999999999999
 30
0.0
 11
2692.0
 21
88.49999999999999
 31
0.0
  0
LINE
  5
186
330
182
100
AcDbEntity
  8
TEXT
100
AcDbLine
 10
2693.0
 20
82.0
 30
0.0
 11
2693.0
 21
79.0
 31
0.0
  0
LINE
  5
187
330
182
100
AcDbEntity
  8
TEXT
100
AcDbLine
 10
2693.0
 20
91.5
 30
0.0
 11
2693.0
 21
100.2714285714285
 31
0.0
  0
LINE
  5
188
330
182
100
AcDbEntity
  8
TEXT
100
AcDbLine
 10
2693.0
 20
85.0
 30
0.0
 11
2693.0
 21
88.49999999999999
 31
0.0
  0
SOLID
  5
189
330
182
100
AcDbEntity
  8
TEXT
100
AcDbTrace
 10
2692.5
 20
82.0
 30
0.0
 11
2693.5
 21
82.0
 31
0.0
 12
2693.0
 22
85.0
 32
0.0
 13
2693.0
 23
85.0
 33
0.0
  0
SOLID
  5
18A
330
182
100
AcDbEntity
  8
TEXT
100
AcDbTrace
 10
2692.5
 20
91.5
 30
0.0
 11
2693.5
 21
91.5
 31
0.0
 12
2693.0
 22
88.49999999999999
 32
0.0
 13
2693.0
 23
88.49999999999999
 33
0.0
  0
MTEXT
  5
18B
330
182
100
AcDbEntity
  8
TEXT
100
AcDbMText
 10
2690.5
 20
97.38571428571471
 30
0.0
 40
3.0
 41
0.0
 71
     5
 72
     1
  1
\A1;3.5
  7
GHS
 11
0.0000000000000001
 21
1.0
 31
0.0
 73
     1
 44
1.0
  0
POINT
  5
18C
330
182
100
AcDbEntity
  8
DEFPOINTS
 62
     0
100
AcDbPoint
 10
2700.299999999999
 20
85.0
 30
0.0
  0
POINT
  5
18D
330
182
100
AcDbEntity
  8
DEFPOINTS
 62
     0
100
AcDbPoint
 10
2700.0
 20
88.49999999999999
 30
0.0
  0
POINT
  5
18E
330
182
100
AcDbEntity
  8
DEFPOINTS
 62
     0
100
AcDbPoint
 10
2693.0
 20
88.49999999999999
 30
0.0
  0
ENDBLK
  5
18F
330
182
100
AcDbEntity
  8
0
100
AcDbBlockEnd
  0
BLOCK
  5
192
330
191
100
AcDbEntity
  8
0
100
AcDbBlockBegin
  2
*D3
 70
     1
 10
0.0
 20
0.0
 30
0.0
  3
*D3
  1

  0
LINE
  5
193
330
191
100
AcDbEntity
  8
TEXT
100
AcDbLine
 10
2699.3
 20
85.0
 30
0.0
 11
2685.0
 21
85.0
 31
0.0
  0
LINE
  5
194
330
191
100
AcDbEntity
  8
TEXT
100
AcDbLine
 10
2707.0
 20
89.0
 30
0.0
 11
2685.0
 21
89.0
 31
0.0
  0
LINE
  5
195
330
191
100
AcDbEntity
  8
TEXT
100
AcDbLine
 10
2686.0
 20
82.0
 30
0.0
 11
2686.0
 21
79.0
 31
0.0
  0
LINE
  5
196
330
191
100
AcDbEntity
  8
TEXT
100
AcDbLine
 10
2686.0
 20
92.0
 30
0.0
 11
2686.0
 21
95.0
 31
0.0
  0
LINE
  5
197
330
191
100
AcDbEntity
  8
TEXT
100
AcDbLine
 10
2686.0
 20
85.0
 30
0.0
 11
2686.0
 21
89.0
 31
0.0
  0
SOLID
  5
198
330
191
100
AcDbEntity
  8
TEXT
100
AcDbTrace
 10
2685.5
 20
82.0
 30
0.0
 11
2686.5
 21
82.0
 31
0.0
 12
2686.0
 22
85.0
 32
0.0
 13
2686.0
 23
85.0
 33
0.0
  0
SOLID
  5
199
330
191
100
AcDbEntity
  8
TEXT
100
AcDbTrace
 10
2685.5
 20
92.0
 30
0.0
 11
2686.5
 21
92.0
 31
0.0
 12
2686.0
 22
89.0
 32
0.0
 13
2686.0
 23
89.0
 33
0.0
  0
MTEXT
  5
19A
330
191
100
AcDbEntity
  8
TEXT
100
AcDbMText
 10
2683.5
 20
87.00000000000043
 30
0.0
 40
3.0
 41
0.0
 71
     5
 72
     1
  1
\A1;%%C4
  7
GHS
 11
0.0000000000000001
 21
1.0
 31
0.0
 73
     1
 44
1.0
  0
POINT
  5
19B
330
191
100
AcDbEntity
  8
DEFPOINTS
 62
     0
100
AcDbPoint
 10
2700.299999999999
 20
85.0
 30
0.0
  0
POINT
  5
19C
330
191
100
AcDbEntity
  8
DEFPOINTS
 62
     0
100
AcDbPoint
 10
2708.0
 20
89.0
 30
0.0
  0
POINT
  5
19D
330
191
100
AcDbEntity
  8
DEFPOINTS
 62
     0
100
AcDbPoint
 10
2686.0
 20
89.0
 30
0.0
  0
ENDBLK
  5
19E
330
191
100
AcDbEntity
  8
0
100
AcDbBlockEnd
  0
BLOCK
  5
1A1
330
1A0
100
AcDbEntity
  8
0
100
AcDbBlockBegin
  2
*D4
 70
     1
 10
0.0
 20
0.0
 30
0.0
  3
*D4
  1

  0
LINE
  5
1A2
330
1A0
100
AcDbEntity
  8
TEXT
100
AcDbLine
 10
2711.3
 20
80.0
 30
0.0
 11
2678.0
 21
80.0
 31
0.0
  0
LINE
  5
1A3
330
1A0
100
AcDbEntity
  8
TEXT
100
AcDbLine
 10
2711.3
 20
94.0
 30
0.0
 11
2678.0
 21
94.0
 31
0.0
  0
LINE
  5
1A4
330
1A0
100
AcDbEntity
  8
TEXT
100
AcDbLine
 10
2679.0
 20
83.0
 30
0.0
 11
2679.0
 21
91.0
 31
0.0
  0
SOLID
  5
1A5
330
1A0
100
AcDbEntity
  8
TEXT
100
AcDbTrace
 10
2678.5
 20
83.0
 30
0.0
 11
2679.5
 21
83.0
 31
0.0
 12
2679.0
 22
80.0
 32
0.0
 13
2679.0
 23
80.0
 33
0.0
  0
SOLID
  5
1A6
330
1A0
100
AcDbEntity
  8
TEXT
100
AcDbTrace
 10
2678.5
 20
91.0
 30
0.0
 11
2679.5
 21
91.0
 31
0.0
 12
2679.0
 22
94.0
 32
0.0
 13
2679.0
 23
94.0
 33
0.0
  0
MTEXT
  5
1A7
330
1A0
100
AcDbEntity
  8
TEXT
100
AcDbMText
 10
2676.5
 20
87.00000000000043
 30
0.0
 40
3.0
 41
0.0
 71
     5
 72
     1
  1
\A1;%%C14
  7
GHS
 11
0.0000000000000001
 21
1.0
 31
0.0
 73
     1
 44
1.0
  0
POINT
  5
1A8
330
1A0
100
AcDbEntity
  8
DEFPOINTS
 62
     0
100
AcDbPoint
 10
2712.299999999999
 20
80.0
 30
0.0
  0
POINT
  5
1A9
330
1A0
100
AcDbEntity
  8
DEFPOINTS
 62
     0
100
AcDbPoint
 10
2712.299999999999
 20
94.0
 30
0.0
  0
POINT
  5
1AA
330
1A0
100
AcDbEntity
  8
DEFPOINTS
 62
     0
100
AcDbPoint
 10
2679.0
 20
94.0
 30
0.0
  0
ENDBLK
  5
1AB
330
1A0
100
AcDbEntity
  8
0
100
AcDbBlockEnd
  0
BLOCK
  5
1AE
330
1AD
100
AcDbEntity
  8
0
100
AcDbBlockBegin
  2
*D5
 70
     1
 10
0.0
 20
0.0
 30
0.0
  3
*D5
  1

  0
LINE
  5
1AF
330
1AD
100
AcDbEntity
  8
TEXT
100
AcDbLine
 10
2713.299999999999
 20
76.0
 30
0.0
 11
2671.0
 21
76.0
 31
0.0
  0
LINE
  5
1B0
330
1AD
100
AcDbEntity
  8
TEXT
100
AcDbLine
 10
2713.299999999999
 20
98.0
 30
0.0
 11
2671.0
 21
98.0
 31
0.0
  0
LINE
  5
1B1
330
1AD
100
AcDbEntity
  8
TEXT
100
AcDbLine
 10
2672.0
 20
79.0
 30
0.0
 11
2672.0
 21
95.0
 31
0.0
  0
SOLID
  5
1B2
330
1AD
100
AcDbEntity
  8
TEXT
100
AcDbTrace
 10
2671.5
 20
79.0
 30
0.0
 11
2672.5
 21
79.0
 31
0.0
 12
2672.0
 22
76.0
 32
0.0
 13
2672.0
 23
76.0
 33
0.0
  0
SOLID
  5
1B3
330
1AD
100
AcDbEntity
  8
TEXT
100
AcDbTrace
 10
2671.5
 20
95.0
 30
0.0
 11
2672.5
 21
95.0
 31
0.0
 12
2672.0
 22
98.0
 32
0.0
 13
2672.0
 23
98.0
 33
0.0
  0
MTEXT
  5
1B4
330
1AD
100
AcDbEntity
  8
TEXT
100
AcDbMText
 10
2669.5
 20
87.00000000000043
 30
0.0
 40
3.0
 41
0.0
 71
     5
 72
     1
  1
\A1;%%C22
  7
GHS
 11
0.0000000000000001
 21
1.0
 31
0.0
 73
     1
 44
1.0
  0
POINT
  5
1B5
330
1AD
100
AcDbEntity
  8
DEFPOINTS
 62
     0
100
AcDbPoint
 10
2714.3
 20
76.0
 30
0.0
  0
POINT
  5
1B6
330
1AD
100
AcDbEntity
  8
DEFPOINTS
 62
     0
100
AcDbPoint
 10
2714.3
 20
98.0
 30
0.0
  0
POINT
  5
1B7
330
1AD
100
AcDbEntity
  8
DEFPOINTS
 62
     0
100
AcDbPoint
 10
2672.0
 20
98.0
 30
0.0
  0
ENDBLK
  5
1B8
330
1AD
100
AcDbEntity
  8
0
100
AcDbBlockEnd
  0
BLOCK
  5
1BB
330
1BA
100
AcDbEntity
  8
0
100
AcDbBlockBegin
  2
*D6
 70
     1
 10
0.0
 20
0.0
 30
0.0
  3
*D6
  1

  0
LINE
  5
1BC
330
1BA
100
AcDbEntity
  8
TEXT
100
AcDbLine
 10
2714.0
 20
98.70000000000004
 30
0.0
 11
2714.0
 21
115.0
 31
0.0
  0
LINE
  5
1BD
330
1BA
100
AcDbEntity
  8
TEXT
100
AcDbLine
 10
2732.049999999999
 20
99.0
 30
0.0
 11
2732.049999999999
 21
115.0
 31
0.0
  0
LINE
  5
1BE
330
1BA
100
AcDbEntity
  8
TEXT
100
AcDbLine
 10
2717.0
 20
114.0
 30
0.0
 11
2729.049999999999
 21
114.0
 31
0.0
  0
SOLID
  5
1BF
330
1BA
100
AcDbEntity
  8
TEXT
100
AcDbTrace
 10
2717.0
 20
114.5
 30
0.0
 11
2717.0
 21
113.5
 31
0.0
 12
2714.0
 22
114.0
 32
0.0
 13
2714.0
 23
114.0
 33
0.0
  0
SOLID
  5
1C0
330
1BA
100
AcDbEntity
  8
TEXT
100
AcDbTrace
 10
2729.049999999999
 20
114.5
 30
0.0
 11
2729.049999999999
 21
113.5
 31
0.0
 12
2732.049999999999
 22
114.0
 32
0.0
 13
2732.049999999999
 23
114.0
 33
0.0
  0
MTEXT
  5
1C1
330
1BA
100
AcDbEntity
  8
TEXT
100
AcDbMText
 10
2723.025
 20
116.5
 30
0.0
 40
3.0
 41
0.0
 71
     5
 72
     1
  1
\A1;L
  7
GHS
 73
     1
 44
1.0
  0
POINT
  5
1C2
330
1BA
100
AcDbEntity
  8
DEFPOINTS
 62
     0
100
AcDbPoint
 10
2714.0
 20
97.70000000000004
 30
0.0
  0
POINT
  5
1C3
330
1BA
100
AcDbEntity
  8
DEFPOINTS
 62
     0
100
AcDbPoint
 10
2732.049999999999
 20
98.0
 30
0.0
  0
POINT
  5
1C4
330
1BA
100
AcDbEntity
  8
DEFPOINTS
 62
     0
100
AcDbPoint
 10
2732.049999999999
 20
114.0
 30
0.0
  0
ENDBLK
  5
1C5
330
1BA
100
AcDbEntity
  8
0
100
AcDbBlockEnd
  0
BLOCK
  5
1C8
330
1C7
100
AcDbEntity
  8
0
100
AcDbBlockBegin
  2
*D7
 70
     1
 10
0.0
 20
0.0
 30
0.0
  3
*D7
  1

  0
LINE
  5
1C9
330
1C7
100
AcDbEntity
  8
TEXT
100
AcDbLine
 10
2714.0
 20
98.70000000000004
 30
0.0
 11
2714.0
 21
109.0
 31
0.0
  0
LINE
  5
1CA
330
1C7
100
AcDbEntity
  8
TEXT
100
AcDbLine
 10
2712.0
 20
94.70000000000004
 30
0.0
 11
2712.0
 21
109.0
 31
0.0
  0
LINE
  5
1CB
330
1C7
100
AcDbEntity
  8
TEXT
100
AcDbLine
 10
2717.0
 20
108.0
 30
0.0
 11
2720.0
 21
108.0
 31
0.0
  0
LINE
  5
1CC
330
1C7
100
AcDbEntity
  8
TEXT
100
AcDbLine
 10
2709.0
 20
108.0
 30
0.0
 11
2702.8
 21
108.0
 31
0.0
  0
LINE
  5
1CD
330
1C7
100
AcDbEntity
  8
TEXT
100
AcDbLine
 10
2714.0
 20
108.0
 30
0.0
 11
2712.0
 21
108.0
 31
0.0
  0
SOLID
  5
1CE
330
1C7
100
AcDbEntity
  8
TEXT
100
AcDbTrace
 10
2717.0
 20
108.5
 30
0.0
 11
2717.0
 21
107.5
 31
0.0
 12
2714.0
 22
108.0
 32
0.0
 13
2714.0
 23
108.0
 33
0.0
  0
SOLID
  5
1CF
330
1C7
100
AcDbEntity
  8
TEXT
100
AcDbTrace
 10
2709.0
 20
108.5
 30
0.0
 11
2709.0
 21
107.5
 31
0.0
 12
2712.0
 22
108.0
 32
0.0
 13
2712.0
 23
108.0
 33
0.0
  0
MTEXT
  5
1D0
330
1C7
100
AcDbEntity
  8
TEXT
100
AcDbMText
 10
2704.4
 20
110.5
 30
0.0
 40
3.0
 41
0.0
 71
     5
 72
     1
  1
\A1;2
  7
GHS
 73
     1
 44
1.0
  0
POINT
  5
1D1
330
1C7
100
AcDbEntity
  8
DEFPOINTS
 62
     0
100
AcDbPoint
 10
2714.0
 20
97.70000000000004
 30
0.0
  0
POINT
  5
1D2
330
1C7
100
AcDbEntity
  8
DEFPOINTS
 62
     0
100
AcDbPoint
 10
2712.0
 20
93.70000000000004
 30
0.0
  0
POINT
  5
1D3
330
1C7
100
AcDbEntity
  8
DEFPOINTS
 62
     0
100
AcDbPoint
 10
2712.0
 20
108.0
 30
0.0
  0
ENDBLK
  5
1D4
330
1C7
100
AcDbEntity
  8
0
100
AcDbBlockEnd
  0
BLOCK
  5
1D7
330
1D6
100
AcDbEntity
  8
0
100
AcDbBlockBegin
  2
*D8
 70
     1
 10
0.0
 20
0.0
 30
0.0
  3
*D8
  1

  0
LINE
  5
1D8
330
1D6
100
AcDbEntity
  8
TEXT
100
AcDbLine
 10
2700.0
 20
89.50000000000001
 30
0.0
 11
2700.0
 21
103.0
 31
0.0
  0
LINE
  5
1D9
330
1D6
100
AcDbEntity
  8
TEXT
100
AcDbLine
 10
2708.0
 20
90.0
 30
0.0
 11
2708.0
 21
103.0
 31
0.0
  0
LINE
  5
1DA
330
1D6
100
AcDbEntity
  8
TEXT
100
AcDbLine
 10
2697.0
 20
102.0
 30
0.0
 11
2694.0
 21
102.0
 31
0.0
  0
LINE
  5
1DB
330
1D6
100
AcDbEntity
  8
TEXT
100
AcDbLine
 10
2711.0
 20
102.0
 30
0.0
 11
2714.0
 21
102.0
 31
0.0
  0
LINE
  5
1DC
330
1D6
100
AcDbEntity
  8
TEXT
100
AcDbLine
 10
2700.0
 20
102.0
 30
0.0
 11
2708.0
 21
102.0
 31
0.0
  0
SOLID
  5
1DD
330
1D6
100
AcDbEntity
  8
TEXT
100
AcDbTrace
 10
2697.0
 20
102.5
 30
0.0
 11
2697.0
 21
101.5
 31
0.0
 12
2700.0
 22
102.0
 32
0.0
 13
2700.0
 23
102.0
 33
0.0
  0
SOLID
  5
1DE
330
1D6
100
AcDbEntity
  8
TEXT
100
AcDbTrace
 10
2711.0
 20
102.5
 30
0.0
 11
2711.0
 21
101.5
 31
0.0
 12
2708.0
 22
102.0
 32
0.0
 13
2708.0
 23
102.0
 33
0.0
  0
MTEXT
  5
1DF
330
1D6
100
AcDbEntity
  8
TEXT
100
AcDbMText
 10
2704.0
 20
104.5
 30
0.0
 40
3.0
 41
0.0
 71
     5
 72
     1
  1
\A1;8
  7
GHS
 73
     1
 44
1.0
  0
POINT
  5
1E0
330
1D6
100
AcDbEntity
  8
DEFPOINTS
 62
     0
100
AcDbPoint
 10
2700.0
 20
88.49999999999999
 30
0.0
  0
POINT
  5
1E1
330
1D6
100
AcDbEntity
  8
DEFPOINTS
 62
     0
100
AcDbPoint
 10
2708.0
 20
89.0
 30
0.0
  0
POINT
  5
1E2
330
1D6
100
AcDbEntity
  8
DEFPOINTS
 62
     0
100
AcDbPoint
 10
2708.0
 20
102.0
 30
0.0
  0
ENDBLK
  5
1E3
330
1D6
100
AcDbEntity
  8
0
100
AcDbBlockEnd
  0
BLOCK
  5
1E6
330
1E5
100
AcDbEntity
  8
0
100
AcDbBlockBegin
  2
*D9
 70
     1
 10
0.0
 20
0.0
 30
0.0
  3
*D9
  1

  0
LINE
  5
1E7
330
1E5
100
AcDbEntity
  8
TEXT
100
AcDbLine
 10
2700.0
 20
89.50000000000001
 30
0.0
 11
2700.0
 21
115.0
 31
0.0
  0
LINE
  5
1E8
330
1E5
100
AcDbEntity
  8
TEXT
100
AcDbLine
 10
2714.0
 20
98.70000000000004
 30
0.0
 11
2714.0
 21
115.0
 31
0.0
  0
LINE
  5
1E9
330
1E5
100
AcDbEntity
  8
TEXT
100
AcDbLine
 10
2703.0
 20
114.0
 30
0.0
 11
2711.0
 21
114.0
 31
0.0
  0
SOLID
  5
1EA
330
1E5
100
AcDbEntity
  8
TEXT
100
AcDbTrace
 10
2703.0
 20
114.5
 30
0.0
 11
2703.0
 21
113.5
 31
0.0
 12
2700.0
 22
114.0
 32
0.0
 13
2700.0
 23
114.0
 33
0.0
  0
SOLID
  5
1EB
330
1E5
100
AcDbEntity
  8
TEXT
100
AcDbTrace
 10
2711.0
 20
114.5
 30
0.0
 11
2711.0
 21
113.5
 31
0.0
 12
2714.0
 22
114.0
 32
0.0
 13
2714.0
 23
114.0
 33
0.0
  0
MTEXT
  5
1EC
330
1E5
100
AcDbEntity
  8
TEXT
100
AcDbMText
 10
2707.0
 20
116.5
 30
0.0
 40
3.0
 41
0.0
 71
     5
 72
     1
  1
\A1;14
  7
GHS
 73
     1
 44
1.0
  0
POINT
  5
1ED
330
1E5
100
AcDbEntity
  8
DEFPOINTS
 62
     0
100
AcDbPoint
 10
2700.0
 20
88.49999999999999
 30
0.0
  0
POINT
  5
1EE
330
1E5
100
AcDbEntity
  8
DEFPOINTS
 62
     0
100
AcDbPoint
 10
2714.0
 20
97.70000000000004
 30
0.0
  0
POINT
  5
1EF
330
1E5
100
AcDbEntity
  8
DEFPOINTS
 62
     0
100
AcDbPoint
 10
2714.0
 20
114.0
 30
0.0
  0
ENDBLK
  5
1F0
330
1E5
100
AcDbEntity
  8
0
100
AcDbBlockEnd
  0
BLOCK
  5
1F3
330
1F2
100
AcDbEntity
  8
0
100
AcDbBlockBegin
  2
*D10
 70
     1
 10
0.0
 20
0.0
 30
0.0
  3
*D10
  1

  0
LINE
  5
1F4
330
1F2
100
AcDbEntity
  8
TEXT
100
AcDbLine
 10
2732.049999999999
 20
99.0
 30
0.0
 11
2732.049999999999
 21
115.0
 31
0.0
  0
LINE
  5
1F5
330
1F2
100
AcDbEntity
  8
TEXT
100
AcDbLine
 10
2764.049999999999
 20
98.19999999999982
 30
0.0
 11
2764.049999999999
 21
115.0
 31
0.0
  0
LINE
  5
1F6
330
1F2
100
AcDbEntity
  8
TEXT
100
AcDbLine
 10
2735.049999999999
 20
114.0
 30
0.0
 11
2761.05
 21
114.0
 31
0.0
  0
SOLID
  5
1F7
330
1F2
100
AcDbEntity
  8
TEXT
100
AcDbTrace
 10
2735.049999999999
 20
114.5
 30
0.0
 11
2735.049999999999
 21
113.5
 31
0.0
 12
2732.049999999999
 22
114.0
 32
0.0
 13
2732.049999999999
 23
114.0
 33
0.0
  0
SOLID
  5
1F8
330
1F2
100
AcDbEntity
  8
TEXT
100
AcDbTrace
 10
2761.05
 20
114.5
 30
0.0
 11
2761.05
 21
113.5
 31
0.0
 12
2764.049999999999
 22
114.0
 32
0.0
 13
2764.049999999999
 23
114.0
 33
0.0
  0
MTEXT
  5
1F9
330
1F2
100
AcDbEntity
  8
TEXT
100
AcDbMText
 10
2748.049999999999
 20
116.5
 30
0.0
 40
3.0
 41
0.0
 71
     5
 72
     1
  1
\A1;32
  7
GHS
 73
     1
 44
1.0
  0
POINT
  5
1FA
330
1F2
100
AcDbEntity
  8
DEFPOINTS
 62
     0
100
AcDbPoint
 10
2732.049999999999
 20
98.0
 30
0.0
  0
POINT
  5
1FB
330
1F2
100
AcDbEntity
  8
DEFPOINTS
 62
     0
100
AcDbPoint
 10
2764.049999999999
 20
97.19999999999982
 30
0.0
  0
POINT
  5
1FC
330
1F2
100
AcDbEntity
  8
DEFPOINTS
 62
     0
100
AcDbPoint
 10
2764.049999999999
 20
114.0
 30
0.0
  0
ENDBLK
  5
1FD
330
1F2
100
AcDbEntity
  8
0
100
AcDbBlockEnd
  0
BLOCK
  5
200
330
1FF
100
AcDbEntity
  8
0
100
AcDbBlockBegin
  2
*D11
 70
     1
 10
0.0
 20
0.0
 30
0.0
  3
*D11
  1

  0
LINE
  5
201
330
1FF
100
AcDbEntity
  8
TEXT
100
AcDbLine
 10
2765.05
 20
97.19999999999982
 30
0.0
 11
2780.0
 21
97.19999999999982
 31
0.0
  0
LINE
  5
202
330
1FF
100
AcDbEntity
  8
TEXT
100
AcDbLine
 10
2765.05
 20
76.80000000000018
 30
0.0
 11
2780.0
 21
76.80000000000018
 31
0.0
  0
LINE
  5
203
330
1FF
100
AcDbEntity
  8
TEXT
100
AcDbLine
 10
2779.0
 20
94.19999999999982
 30
0.0
 11
2779.0
 21
79.80000000000018
 31
0.0
  0
SOLID
  5
204
330
1FF
100
AcDbEntity
  8
TEXT
100
AcDbTrace
 10
2778.5
 20
94.19999999999982
 30
0.0
 11
2779.5
 21
94.19999999999982
 31
0.0
 12
2779.0
 22
97.19999999999982
 32
0.0
 13
2779.0
 23
97.19999999999982
 33
0.0
  0
SOLID
  5
205
330
1FF
100
AcDbEntity
  8
TEXT
100
AcDbTrace
 10
2778.5
 20
79.80000000000018
 30
0.0
 11
2779.5
 21
79.80000000000018
 31
0.0
 12
2779.0
 22
76.80000000000018
 32
0.0
 13
2779.0
 23
76.80000000000018
 33
0.0
  0
MTEXT
  5
206
330
1FF
100
AcDbEntity
  8
TEXT
100
AcDbMText
 10
2776.5
 20
87.00000000000043
 30
0.0
 40
3.0
 41
0.0
 71
     5
 72
     1
  1
\A1;%%C20.4
  7
GHS
 11
0.0000000000000001
 21
1.0
 31
0.0
 73
     1
 44
1.0
  0
POINT
  5
207
330
1FF
100
AcDbEntity
  8
DEFPOINTS
 62
     0
100
AcDbPoint
 10
2764.049999999999
 20
97.19999999999982
 30
0.0
  0
POINT
  5
208
330
1FF
100
AcDbEntity
  8
DEFPOINTS
 62
     0
100
AcDbPoint
 10
2764.049999999999
 20
76.80000000000018
 30
0.0
  0
POINT
  5
209
330
1FF
100
AcDbEntity
  8
DEFPOINTS
 62
     0
100
AcDbPoint
 10
2779.0
 20
76.80000000000018
 30
0.0
  0
ENDBLK
  5
20A
330
1FF
100
AcDbEntity
  8
0
100
AcDbBlockEnd
  0
BLOCK
  5
3D
330
3C
100
AcDbEntity
  8
0
100
AcDbBlockBegin
  2
_Open30
 70
     0
 10
0.0
 20
0.0
 30
0.0
  3
_Open30
  1

  0
LINE
  5
3E
330
3C
100
AcDbEntity
  8
0
  6
ByBlock
 62
     0
370
    -2
100
AcDbLine
 10
-1.0
 20
0.26794919
 30
0.0
 11
0.0
 21
0.0
 31
0.0
  0
LINE
  5
3F
330
3C
100
AcDbEntity
  8
0
  6
ByBlock
 62
     0
370
    -2
100
AcDbLine
 10
0.0
 20
0.0
 30
0.0
 11
-1.0
 21
-0.26794919
 31
0.0
  0
LINE
  5
40
330
3C
100
AcDbEntity
  8
0
  6
ByBlock
 62
     0
370
    -2
100
AcDbLine
 10
0.0
 20
0.0
 30
0.0
 11
-1.0
 21
0.0
 31
0.0
  0
ENDBLK
  5
41
330
3C
100
AcDbEntity
  8
0
100
AcDbBlockEnd
  0
ENDSEC
  0
SECTION
  2
ENTITIES
  0
LINE
  5
86
330
2
100
AcDbEntity
  8
CL
100
AcDbLine
 10
2698.5
 20
87.0
 30
0.0
 11
2768.549999999999
 21
87.0
 31
0.0
  0
LINE
  5
8B
330
2
100
AcDbEntity
  8
0
100
AcDbLine
 10
2711.1
 20
85.5
 30
0.0
 11
2711.200000000001
 21
85.5
 31
0.0
  0
LINE
  5
8C
330
2
100
AcDbEntity
  8
0
100
AcDbLine
 10
2711.200000000001
 20
83.49999999999999
 30
0.0
 11
2711.8
 21
83.49999999999999
 31
0.0
  0
LINE
  5
8D
330
2
100
AcDbEntity
  8
0
100
AcDbLine
 10
2711.8
 20
83.49999999999999
 30
0.0
 11
2712.0
 21
83.49999999999999
 31
0.0
  0
LINE
  5
8E
330
2
100
AcDbEntity
  8
0
100
AcDbLine
 10
2708.0
 20
89.0
 30
0.0
 11
2711.1
 21
89.0
 31
0.0
  0
LINE
  5
8F
330
2
100
AcDbEntity
  8
0
100
AcDbLine
 10
2700.0
 20
88.49999999999999
 30
0.0
 11
2708.0
 21
88.49999999999999
 31
0.0
  0
LINE
  5
90
330
2
100
AcDbEntity
  8
0
100
AcDbLine
 10
2700.299999999999
 20
85.0
 30
0.0
 11
2711.1
 21
85.0
 31
0.0
  0
LINE
  5
91
330
2
100
AcDbEntity
  8
0
 48
2.0
100
AcDbLine
 10
2732.049999999999
 20
76.0
 30
0.0
 11
2732.049999999999
 21
98.0
 31
0.0
  0
LINE
  5
92
330
2
100
AcDbEntity
  8
0
 48
2.0
100
AcDbLine
 10
2729.450000000001
 20
76.0
 30
0.0
 11
2729.450000000001
 21
98.0
 31
0.0
  0
LINE
  5
93
330
2
100
AcDbEntity
  8
0
100
AcDbLine
 10
2718.0
 20
76.0
 30
0.0
 11
2718.0
 21
98.0
 31
0.0
  0
LINE
  5
94
330
2
100
AcDbEntity
  8
0
100
AcDbLine
 10
2714.0
 20
76.29999999999995
 30
0.0
 11
2714.0
 21
97.70000000000004
 31
0.0
  0
LINE
  5
95
330
2
100
AcDbEntity
  8
0
100
AcDbLine
 10
2716.0
 20
93.31776332962943
 30
0.0
 11
2716.0
 21
96.00476909813814
 31
0.0
  0
ARC
  5
96
330
2
100
AcDbEntity
  8
0
100
AcDbCircle
 10
2714.3
 20
97.70000000000004
 30
0.0
 40
0.3
100
AcDbArc
 50
90.0
 51
180.0
  0
ARC
  5
97
330
2
100
AcDbEntity
  8
0
100
AcDbCircle
 10
2712.299999999999
 20
93.70000000000004
 30
0.0
 40
0.3
100
AcDbArc
 50
90.0
 51
180.0
  0
LINE
  5
98
330
2
100
AcDbEntity
  8
0
100
AcDbLine
 10
2712.299999999999
 20
94.0
 30
0.0
 11
2714.0
 21
94.0
 31
0.0
  0
LINE
  5
99
330
2
100
AcDbEntity
  8
0
100
AcDbLine
 10
2714.3
 20
98.0
 30
0.0
 11
2732.049999999999
 21
98.0
 31
0.0
  0
ARC
  5
9A
330
2
100
AcDbEntity
  8
0
100
AcDbCircle
 10
2714.3
 20
76.29999999999995
 30
0.0
 40
0.3
100
AcDbArc
 50
180.0
 51
270.0
  0
ARC
  5
9B
330
2
100
AcDbEntity
  8
0
100
AcDbCircle
 10
2712.299999999999
 20
80.29999999999995
 30
0.0
 40
0.3
100
AcDbArc
 50
180.0
 51
270.0
  0
LINE
  5
9C
330
2
100
AcDbEntity
  8
0
100
AcDbLine
 10
2712.299999999999
 20
80.0
 30
0.0
 11
2714.0
 21
80.0
 31
0.0
  0
LINE
  5
9D
330
2
100
AcDbEntity
  8
0
100
AcDbLine
 10
2714.3
 20
76.0
 30
0.0
 11
2732.049999999999
 21
76.0
 31
0.0
  0
LINE
  5
9E
330
2
100
AcDbEntity
  8
0
100
AcDbLine
 10
2700.0
 20
85.29999999999995
 30
0.0
 11
2700.0
 21
88.49999999999999
 31
0.0
  0
LINE
  5
9F
330
2
100
AcDbEntity
  8
0
100
AcDbLine
 10
2700.299999999999
 20
85.0
 30
0.0
 11
2700.299999999999
 21
88.49999999999999
 31
0.0
  0
LINE
  5
A0
330
2
100
AcDbEntity
  8
0
100
AcDbLine
 10
2708.0
 20
88.49999999999999
 30
0.0
 11
2708.0
 21
88.99999999999989
 31
0.0
  0
LINE
  5
A1
330
2
100
AcDbEntity
  8
0
100
AcDbLine
 10
2711.1
 20
88.49999999999999
 30
0.0
 11
2711.200000000001
 21
88.49999999999999
 31
0.0
  0
LINE
  5
A2
330
2
100
AcDbEntity
  8
0
100
AcDbLine
 10
2711.200000000001
 20
90.5
 30
0.0
 11
2711.8
 21
90.5
 31
0.0
  0
LINE
  5
A3
330
2
100
AcDbEntity
  8
0
100
AcDbLine
 10
2711.8
 20
90.5
 30
0.0
 11
2712.0
 21
90.5
 31
0.0
  0
LINE
  5
A4
330
2
100
AcDbEntity
  8
0
100
AcDbLine
 10
2712.0
 20
93.70000000000004
 30
0.0
 11
2712.0
 21
80.29999999999995
 31
0.0
  0
LINE
  5
A5
330
2
100
AcDbEntity
  8
0
100
AcDbLine
 10
2711.8
 20
90.5
 30
0.0
 11
2711.8
 21
89.05000000000006
 31
0.0
  0
LINE
  5
A6
330
2
100
AcDbEntity
  8
0
100
AcDbLine
 10
2711.8
 20
90.5
 30
0.0
 11
2711.8
 21
83.49999999999999
 31
0.0
  0
LINE
  5
A7
330
2
100
AcDbEntity
  8
0
100
AcDbLine
 10
2711.200000000001
 20
90.5
 30
0.0
 11
2711.200000000001
 21
83.49999999999999
 31
0.0
  0
LINE
  5
A8
330
2
100
AcDbEntity
  8
0
100
AcDbLine
 10
2711.1
 20
89.0
 30
0.0
 11
2711.1
 21
85.0
 31
0.0
  0
LINE
  5
A9
330
2
100
AcDbEntity
  8
0
100
AcDbLine
 10
2700.299999999999
 20
85.0
 30
0.0
 11
2700.0
 21
85.30000000000006
 31
0.0
  0
CIRCLE
  5
AA
330
2
100
AcDbEntity
  8
0
100
AcDbCircle
 10
2643.0
 20
87.0
 30
0.0
 40
11.0
  0
LINE
  5
AB
330
2
100
AcDbEntity
  8
CL
100
AcDbLine
 10
2643.0
 20
74.5
 30
0.0
 11
2643.0
 21
99.50000000000001
 31
0.0
  0
LINE
  5
AC
330
2
100
AcDbEntity
  8
CL
100
AcDbLine
 10
2655.5
 20
87.0
 30
0.0
 11
2630.5
 21
87.0
 31
0.0
  0
LINE
  5
AD
330
2
100
AcDbEntity
  8
0
100
AcDbLine
 10
2637.979541853576
 20
94.70746391493344
 30
0.0
 11
2636.682236670371
 21
96.00476909813847
 31
0.0
  0
LINE
  5
AE
330
2
100
AcDbEntity
  8
0
100
AcDbLine
 10
2635.292536085068
 20
92.02045814642429
 30
0.0
 11
2633.995230901863
 21
93.31776332962931
 31
0.0
  0
LINE
  5
AF
330
2
100
AcDbEntity
  8
0
100
AcDbLine
 10
2641.306869069679
 20
80.20784955608428
 30
0.0
 11
2636.207849556086
 21
85.30686906967707
 31
0.0
  0
LINE
  5
B0
330
2
100
AcDbEntity
  8
0
100
AcDbLine
 10
2649.792150443915
 20
88.69313093032292
 30
0.0
 11
2644.693130930322
 21
93.79215044391571
 31
0.0
  0
CIRCLE
  5
B1
330
2
100
AcDbEntity
  8
0
100
AcDbCircle
 10
2643.0
 20
87.0
 30
0.0
 40
4.9
  0
ARC
  5
B2
330
2
100
AcDbEntity
  8
0
100
AcDbCircle
 10
2643.0
 20
87.0
 30
0.0
 40
7.0
100
AcDbArc
 50
256.0027191338988
 51
13.99728086611853
  0
ARC
  5
B3
330
2
100
AcDbEntity
  8
0
100
AcDbCircle
 10
2643.0
 20
87.0
 30
0.0
 40
7.0
100
AcDbArc
 50
76.00271913389888
 51
193.9972808661185
  0
CIRCLE
  5
B4
330
2
100
AcDbEntity
  8
CL
100
AcDbCircle
 10
2643.0
 20
87.0
 30
0.0
 40
9.0
  0
ARC
  5
B5
330
2
100
AcDbEntity
  8
0
100
AcDbCircle
 10
2636.636038969322
 20
93.36396103067887
 30
0.0
 40
1.9
100
AcDbArc
 50
224.9999999999953
 51
44.99999999999533
  0
CIRCLE
  5
B6
330
2
100
AcDbEntity
  8
0
100
AcDbCircle
 10
2643.0
 20
95.99999999999978
 30
0.0
 40
0.7850000000000001
  0
LINE
  5
B7
330
2
100
AcDbEntity
  8
0
100
AcDbLine
 10
2635.292536085068
 20
81.97954185357549
 30
0.0
 11
2633.995230901863
 21
80.68223667037045
 31
0.0
  0
LINE
  5
B8
330
2
100
AcDbEntity
  8
0
100
AcDbLine
 10
2637.979541853576
 20
79.29253608506655
 30
0.0
 11
2636.682236670371
 21
77.99523090186153
 31
0.0
  0
ARC
  5
B9
330
2
100
AcDbEntity
  8
0
100
AcDbCircle
 10
2636.636038969322
 20
80.63603896932102
 30
0.0
 40
1.9
100
AcDbArc
 50
315.0000000000046
 51
135.0000000000046
  0
LINE
  5
BA
330
2
100
AcDbEntity
  8
CL
100
AcDbLine
 10
2651.485281374239
 20
95.48528137423863
 30
0.0
 11
2647.24264068712
 21
91.24264068711932
 31
0.0
  0
LINE
  5
BB
330
2
100
AcDbEntity
  8
CL
100
AcDbLine
 10
2638.75735931288
 20
82.75735931288068
 30
0.0
 11
2634.514718625762
 21
78.51471862576136
 31
0.0
  0
CIRCLE
  5
BC
330
2
100
AcDbEntity
  8
0
100
AcDbCircle
 10
2634.0
 20
87.0
 30
0.0
 40
0.7850000000000001
  0
LINE
  5
BD
330
2
100
AcDbEntity
  8
0
100
AcDbLine
 10
2648.020458146425
 20
79.29253608506655
 30
0.0
 11
2649.317763329629
 21
77.99523090186153
 31
0.0
  0
LINE
  5
BE
330
2
100
AcDbEntity
  8
0
100
AcDbLine
 10
2650.707463914932
 20
81.97954185357549
 30
0.0
 11
2652.004769098138
 21
80.68223667037045
 31
0.0
  0
ARC
  5
BF
330
2
100
AcDbEntity
  8
0
100
AcDbCircle
 10
2649.363961030678
 20
80.63603896932102
 30
0.0
 40
1.9
100
AcDbArc
 50
44.99999999999533
 51
224.9999999999953
  0
LINE
  5
C0
330
2
100
AcDbEntity
  8
CL
100
AcDbLine
 10
2634.514718625762
 20
95.48528137423863
 30
0.0
 11
2638.75735931288
 21
91.24264068711909
 31
0.0
  0
LINE
  5
C1
330
2
100
AcDbEntity
  8
CL
100
AcDbLine
 10
2647.24264068712
 20
82.75735931288068
 30
0.0
 11
2651.485281374239
 21
78.51471862576136
 31
0.0
  0
CIRCLE
  5
C2
330
2
100
AcDbEntity
  8
0
100
AcDbCircle
 10
2643.0
 20
78.0
 30
0.0
 40
0.7850000000000001
  0
LINE
  5
C3
330
2
100
AcDbEntity
  8
0
100
AcDbLine
 10
2650.707463914932
 20
92.02045814642451
 30
0.0
 11
2652.004769098138
 21
93.31776332962954
 31
0.0
  0
LINE
  5
C4
330
2
100
AcDbEntity
  8
0
100
AcDbLine
 10
2648.020458146425
 20
94.70746391493333
 30
0.0
 11
2649.317763329629
 21
96.00476909813824
 31
0.0
  0
ARC
  5
C5
330
2
100
AcDbEntity
  8
0
100
AcDbCircle
 10
2649.363961030678
 20
93.36396103067887
 30
0.0
 40
1.9
100
AcDbArc
 50
135.0000000000046
 51
315.0000000000046
  0
ARC
  5
C6
330
2
100
AcDbEntity
  8
0
100
AcDbCircle
 10
2652.0
 20
87.00000000000022
 30
0.0
 40
1.0
100
AcDbArc
 50
259.9999999999949
 51
190.0000000000039
  0
CIRCLE
  5
C7
330
2
100
AcDbEntity
  8
0
100
AcDbCircle
 10
2652.0
 20
87.00000000000011
 30
0.0
 40
0.7850000000000001
  0
ARC
  5
C8
330
2
100
AcDbEntity
  8
0
100
AcDbCircle
 10
2643.0
 20
78.0
 30
0.0
 40
1.0
100
AcDbArc
 50
259.9999999999949
 51
190.0000000000039
  0
ARC
  5
C9
330
2
100
AcDbEntity
  8
0
100
AcDbCircle
 10
2634.0
 20
87.0
 30
0.0
 40
1.0
100
AcDbArc
 50
259.9999999999949
 51
190.0000000000039
  0
ARC
  5
CA
330
2
100
AcDbEntity
  8
0
100
AcDbCircle
 10
2643.0
 20
95.99999999999978
 30
0.0
 40
1.0
100
AcDbArc
 50
259.9999999999949
 51
190.0000000000039
  0
CIRCLE
  5
CB
330
2
100
AcDbEntity
  8
0
100
AcDbCircle
 10
2643.0
 20
87.0
 30
0.0
 40
2.0
  0
ARC
  5
CC
330
2
100
AcDbEntity
  8
0
100
AcDbCircle
 10
2643.0
 20
87.00000000000011
 30
0.0
 40
1.7
100
AcDbArc
 50
118.0724869358253
 51
61.92751306417466
  0
LINE
  5
CD
330
2
100
AcDbEntity
  8
0
100
AcDbLine
 10
2645.061552812809
 20
87.0
 30
0.0
 11
2645.0
 21
87.0
 31
0.0
  0
LINE
  5
CE
330
2
100
AcDbEntity
  8
0
100
AcDbLine
 10
2644.0
 20
88.73205080756884
 30
0.0
 11
2644.030776406406
 21
88.78535710713572
 31
0.0
  0
LINE
  5
CF
330
2
100
AcDbEntity
  8
0
100
AcDbLine
 10
2641.626481932375
 20
85.54622968873742
 30
0.0
 11
2641.255145520383
 21
84.74766540692156
 31
0.0
  0
ARC
  5
D0
330
2
100
AcDbEntity
  8
0
100
AcDbCircle
 10
2643.0
 20
87.0
 30
0.0
 40
2.5
100
AcDbArc
 50
10.98057542761274
 51
49.01942457239599
  0
ARC
  5
D1
330
2
100
AcDbEntity
  8
0
100
AcDbCircle
 10
2645.061552812809
 20
87.39999999999998
 30
0.0
 40
0.4
100
AcDbArc
 50
270.0
 51
10.98057542761274
  0
ARC
  5
D2
330
2
100
AcDbEntity
  8
0
100
AcDbCircle
 10
2644.377186567919
 20
88.58535710713567
 30
0.0
 40
0.4
100
AcDbArc
 50
49.01942457239599
 51
149.999999999984
  0
LINE
  5
D3
330
2
100
AcDbEntity
  8
0
100
AcDbLine
 10
2642.0
 20
88.73205080756884
 30
0.0
 11
2641.969223593595
 21
88.78535710713572
 31
0.0
  0
ARC
  5
D4
330
2
100
AcDbEntity
  8
0
100
AcDbCircle
 10
2641.622813432081
 20
88.58535710713567
 30
0.0
 40
0.4
100
AcDbArc
 50
30.00000000001598
 51
130.980575427604
  0
ARC
  5
D5
330
2
100
AcDbEntity
  8
0
100
AcDbCircle
 10
2643.0
 20
87.0
 30
0.0
 40
2.5
100
AcDbArc
 50
130.980575427604
 51
169.0194245723873
  0
ARC
  5
D6
330
2
100
AcDbEntity
  8
0
100
AcDbCircle
 10
2640.938447187191
 20
87.39999999999998
 30
0.0
 40
0.4
100
AcDbArc
 50
169.0194245723873
 51
270.0
  0
LINE
  5
D7
330
2
100
AcDbEntity
  8
0
100
AcDbLine
 10
2640.938447187191
 20
87.0
 30
0.0
 11
2641.0
 21
87.0
 31
0.0
  0
ARC
  5
D8
330
2
100
AcDbEntity
  8
0
100
AcDbCircle
 10
2640.801765680111
 20
84.95848931551609
 30
0.0
 40
0.5
100
AcDbArc
 50
222.8830056572688
 51
335.0613351381018
  0
ARC
  5
D9
330
2
100
AcDbEntity
  8
0
100
AcDbCircle
 10
2645.198234319889
 20
84.95848931551609
 30
0.0
 40
0.5
100
AcDbArc
 50
204.9386648618982
 51
317.1169943427312
  0
LINE
  5
DA
330
2
100
AcDbEntity
  8
0
100
AcDbLine
 10
2644.373518067625
 20
85.54622968873742
 30
0.0
 11
2644.744854479617
 21
84.74766540692156
 31
0.0
  0
LINE
  5
DB
330
2
100
AcDbEntity
  8
0
100
AcDbLine
 10
2644.322875655533
 20
88.49999999999999
 30
0.0
 11
2641.677124344468
 21
88.49999999999999
 31
0.0
  0
ARC
  5
DC
330
2
100
AcDbEntity
  8
0
100
AcDbCircle
 10
2643.0
 20
87.0
 30
0.0
 40
3.5
100
AcDbArc
 50
317.1169943427312
 51
222.8830056572688
  0
TEXT
  5
DD
330
2
100
AcDbEntity
  8
TEXT
100
AcDbText
 10
2605.8
 20
107.8571428571429
 30
0.0
 40
3.0
  1
4-M2 TAP (DP 4)
 41
0.6
  7
GHS
 72
     2
 11
2631.0
 21
107.8571428571429
 31
0.0
100
AcDbText
  0
TEXT
  5
DE
330
2
100
AcDbEntity
  8
TEXT
100
AcDbText
 10
2616.942857142857
 20
103.0
 30
0.0
 40
3.0
  1
PCD %%C18 
 41
0.6
  7
GHS
 72
     2
 11
2631.0
 21
103.0
 31
0.0
100
AcDbText
  0
CIRCLE
  5
DF
330
2
100
AcDbEntity
  8
0
100
AcDbCircle
 10
2649.363961030678
 20
93.36396103067887
 30
0.0
 40
1.75
  0
ARC
  5
E0
330
2
100
AcDbEntity
  8
0
100
AcDbCircle
 10
2650.159456159514
 20
93.36396103067887
 30
0.0
 40
0.3125
100
AcDbArc
 50
135.0000000000046
 51
224.9999999999907
  0
ARC
  5
E1
330
2
100
AcDbEntity
  8
0
100
AcDbCircle
 10
2649.363961030678
 20
94.15945615951375
 30
0.0
 40
0.3125
100
AcDbArc
 50
224.9999999999953
 51
315.0000000000046
  0
LINE
  5
E2
330
2
100
AcDbEntity
  8
0
100
AcDbLine
 10
2649.938485290393
 20
93.14299016155814
 30
0.0
 11
2650.247844507161
 21
92.83363094478898
 31
0.0
  0
ARC
  5
E3
330
2
100
AcDbEntity
  8
0
100
AcDbCircle
 10
2649.363961030678
 20
92.56846590184409
 30
0.0
 40
0.3125
100
AcDbArc
 50
44.99999999999533
 51
135.0000000000046
  0
LINE
  5
E4
330
2
100
AcDbEntity
  8
0
100
AcDbLine
 10
2649.584931899801
 20
92.78943677096481
 30
0.0
 11
2649.894291116569
 21
92.48007755419576
 31
0.0
  0
LINE
  5
E5
330
2
100
AcDbEntity
  8
0
100
AcDbLine
 10
2648.833630944789
 20
92.48007755419576
 30
0.0
 11
2649.142990161559
 21
92.78943677096481
 31
0.0
  0
LINE
  5
E6
330
2
100
AcDbEntity
  8
0
100
AcDbLine
 10
2650.247844507161
 20
92.83363094478898
 30
0.0
 11
2649.894291116569
 21
92.48007755419576
 31
0.0
  0
ARC
  5
E7
330
2
100
AcDbEntity
  8
0
100
AcDbCircle
 10
2648.568465901844
 20
93.36396103067887
 30
0.0
 40
0.3125
100
AcDbArc
 50
315.0000000000046
 51
44.99999999999533
  0
LINE
  5
E8
330
2
100
AcDbEntity
  8
0
100
AcDbLine
 10
2648.833630944789
 20
94.24784450716208
 30
0.0
 11
2649.142990161559
 21
93.93848529039292
 31
0.0
  0
LINE
  5
E9
330
2
100
AcDbEntity
  8
0
100
AcDbLine
 10
2648.480077554195
 20
93.89429111656886
 30
0.0
 11
2648.789436770965
 21
93.5849318997997
 31
0.0
  0
LINE
  5
EA
330
2
100
AcDbEntity
  8
0
100
AcDbLine
 10
2648.833630944789
 20
94.24784450716208
 30
0.0
 11
2648.480077554195
 21
93.89429111656886
 31
0.0
  0
LINE
  5
EB
330
2
100
AcDbEntity
  8
0
100
AcDbLine
 10
2648.480077554195
 20
92.83363094478898
 30
0.0
 11
2648.789436770965
 21
93.14299016155814
 31
0.0
  0
LINE
  5
EC
330
2
100
AcDbEntity
  8
0
100
AcDbLine
 10
2648.480077554195
 20
92.83363094478898
 30
0.0
 11
2648.833630944789
 21
92.48007755419576
 31
0.0
  0
LINE
  5
ED
330
2
100
AcDbEntity
  8
0
100
AcDbLine
 10
2649.938485290393
 20
93.5849318997997
 30
0.0
 11
2650.247844507161
 21
93.89429111656886
 31
0.0
  0
LINE
  5
EE
330
2
100
AcDbEntity
  8
0
100
AcDbLine
 10
2649.584931899801
 20
93.93848529039292
 30
0.0
 11
2649.894291116569
 21
94.24784450716208
 31
0.0
  0
LINE
  5
EF
330
2
100
AcDbEntity
  8
0
100
AcDbLine
 10
2649.894291116569
 20
94.24784450716208
 30
0.0
 11
2650.247844507161
 21
93.89429111656886
 31
0.0
  0
CIRCLE
  5
F0
330
2
100
AcDbEntity
  8
0
100
AcDbCircle
 10
2636.636038969322
 20
93.36396103067887
 30
0.0
 40
1.75
  0
ARC
  5
F1
330
2
100
AcDbEntity
  8
0
100
AcDbCircle
 10
2637.431534098156
 20
93.36396103067887
 30
0.0
 40
0.3125
100
AcDbArc
 50
135.0000000000046
 51
224.9999999999907
  0
ARC
  5
F2
330
2
100
AcDbEntity
  8
0
100
AcDbCircle
 10
2636.636038969322
 20
94.15945615951375
 30
0.0
 40
0.3125
100
AcDbArc
 50
224.9999999999953
 51
315.0000000000046
  0
LINE
  5
F3
330
2
100
AcDbEntity
  8
0
100
AcDbLine
 10
2637.210563229035
 20
93.14299016155814
 30
0.0
 11
2637.519922445805
 21
92.83363094478898
 31
0.0
  0
ARC
  5
F4
330
2
100
AcDbEntity
  8
0
100
AcDbCircle
 10
2636.636038969322
 20
92.56846590184409
 30
0.0
 40
0.3125
100
AcDbArc
 50
44.99999999999533
 51
135.0000000000046
  0
LINE
  5
F5
330
2
100
AcDbEntity
  8
0
100
AcDbLine
 10
2636.857009838441
 20
92.78943677096481
 30
0.0
 11
2637.166369055212
 21
92.48007755419576
 31
0.0
  0
LINE
  5
F6
330
2
100
AcDbEntity
  8
0
100
AcDbLine
 10
2636.105708883432
 20
92.48007755419576
 30
0.0
 11
2636.4150681002
 21
92.78943677096481
 31
0.0
  0
LINE
  5
F7
330
2
100
AcDbEntity
  8
0
100
AcDbLine
 10
2637.519922445805
 20
92.83363094478898
 30
0.0
 11
2637.166369055212
 21
92.48007755419576
 31
0.0
  0
ARC
  5
F8
330
2
100
AcDbEntity
  8
0
100
AcDbCircle
 10
2635.840543840486
 20
93.36396103067887
 30
0.0
 40
0.3125
100
AcDbArc
 50
315.0000000000046
 51
44.99999999999533
  0
LINE
  5
F9
330
2
100
AcDbEntity
  8
0
100
AcDbLine
 10
2636.105708883432
 20
94.24784450716208
 30
0.0
 11
2636.4150681002
 21
93.93848529039292
 31
0.0
  0
LINE
  5
FA
330
2
100
AcDbEntity
  8
0
100
AcDbLine
 10
2635.752155492839
 20
93.89429111656886
 30
0.0
 11
2636.061514709607
 21
93.5849318997997
 31
0.0
  0
LINE
  5
FB
330
2
100
AcDbEntity
  8
0
100
AcDbLine
 10
2636.105708883432
 20
94.24784450716208
 30
0.0
 11
2635.752155492839
 21
93.89429111656886
 31
0.0
  0
LINE
  5
FC
330
2
100
AcDbEntity
  8
0
100
AcDbLine
 10
2635.752155492839
 20
92.83363094478898
 30
0.0
 11
2636.061514709607
 21
93.14299016155814
 31
0.0
  0
LINE
  5
FD
330
2
100
AcDbEntity
  8
0
100
AcDbLine
 10
2635.752155492839
 20
92.83363094478898
 30
0.0
 11
2636.105708883432
 21
92.48007755419576
 31
0.0
  0
LINE
  5
FE
330
2
100
AcDbEntity
  8
0
100
AcDbLine
 10
2637.210563229035
 20
93.5849318997997
 30
0.0
 11
2637.519922445805
 21
93.89429111656886
 31
0.0
  0
LINE
  5
FF
330
2
100
AcDbEntity
  8
0
100
AcDbLine
 10
2636.857009838441
 20
93.93848529039292
 30
0.0
 11
2637.166369055212
 21
94.24784450716208
 31
0.0
  0
LINE
  5
100
330
2
100
AcDbEntity
  8
0
100
AcDbLine
 10
2637.166369055212
 20
94.24784450716208
 30
0.0
 11
2637.519922445805
 21
93.89429111656886
 31
0.0
  0
CIRCLE
  5
101
330
2
100
AcDbEntity
  8
0
100
AcDbCircle
 10
2636.636038969322
 20
80.63603896932102
 30
0.0
 40
1.75
  0
ARC
  5
102
330
2
100
AcDbEntity
  8
0
100
AcDbCircle
 10
2637.431534098156
 20
80.63603896932102
 30
0.0
 40
0.3125
100
AcDbArc
 50
135.0000000000046
 51
224.9999999999907
  0
ARC
  5
103
330
2
100
AcDbEntity
  8
0
100
AcDbCircle
 10
2636.636038969322
 20
81.43153409815591
 30
0.0
 40
0.3125
100
AcDbArc
 50
224.9999999999953
 51
315.0000000000046
  0
LINE
  5
104
330
2
100
AcDbEntity
  8
0
100
AcDbLine
 10
2637.210563229035
 20
80.41506810020019
 30
0.0
 11
2637.519922445805
 21
80.10570888343114
 31
0.0
  0
ARC
  5
105
330
2
100
AcDbEntity
  8
0
100
AcDbCircle
 10
2636.636038969322
 20
79.84054384048613
 30
0.0
 40
0.3125
100
AcDbArc
 50
44.99999999999533
 51
135.0000000000046
  0
LINE
  5
106
330
2
100
AcDbEntity
  8
0
100
AcDbLine
 10
2636.857009838441
 20
80.06151470960697
 30
0.0
 11
2637.166369055212
 21
79.7521554928378
 31
0.0
  0
LINE
  5
107
330
2
100
AcDbEntity
  8
0
100
AcDbLine
 10
2636.105708883432
 20
79.7521554928378
 30
0.0
 11
2636.4150681002
 21
80.06151470960697
 31
0.0
  0
LINE
  5
108
330
2
100
AcDbEntity
  8
0
100
AcDbLine
 10
2637.519922445805
 20
80.10570888343114
 30
0.0
 11
2637.166369055212
 21
79.7521554928378
 31
0.0
  0
ARC
  5
109
330
2
100
AcDbEntity
  8
0
100
AcDbCircle
 10
2635.840543840486
 20
80.63603896932102
 30
0.0
 40
0.3125
100
AcDbArc
 50
315.0000000000046
 51
44.99999999999533
  0
LINE
  5
10A
330
2
100
AcDbEntity
  8
0
100
AcDbLine
 10
2636.105708883432
 20
81.51992244580425
 30
0.0
 11
2636.4150681002
 21
81.21056322903518
 31
0.0
  0
LINE
  5
10B
330
2
100
AcDbEntity
  8
0
100
AcDbLine
 10
2635.752155492839
 20
81.1663690552109
 30
0.0
 11
2636.061514709607
 21
80.85700983844185
 31
0.0
  0
LINE
  5
10C
330
2
100
AcDbEntity
  8
0
100
AcDbLine
 10
2636.105708883432
 20
81.51992244580425
 30
0.0
 11
2635.752155492839
 21
81.1663690552109
 31
0.0
  0
LINE
  5
10D
330
2
100
AcDbEntity
  8
0
100
AcDbLine
 10
2635.752155492839
 20
80.10570888343114
 30
0.0
 11
2636.061514709607
 21
80.41506810020019
 31
0.0
  0
LINE
  5
10E
330
2
100
AcDbEntity
  8
0
100
AcDbLine
 10
2635.752155492839
 20
80.10570888343114
 30
0.0
 11
2636.105708883432
 21
79.7521554928378
 31
0.0
  0
LINE
  5
10F
330
2
100
AcDbEntity
  8
0
100
AcDbLine
 10
2637.210563229035
 20
80.85700983844185
 30
0.0
 11
2637.519922445805
 21
81.1663690552109
 31
0.0
  0
LINE
  5
110
330
2
100
AcDbEntity
  8
0
100
AcDbLine
 10
2636.857009838441
 20
81.21056322903507
 30
0.0
 11
2637.166369055212
 21
81.51992244580425
 31
0.0
  0
LINE
  5
111
330
2
100
AcDbEntity
  8
0
100
AcDbLine
 10
2637.166369055212
 20
81.51992244580425
 30
0.0
 11
2637.519922445805
 21
81.1663690552109
 31
0.0
  0
CIRCLE
  5
112
330
2
100
AcDbEntity
  8
0
100
AcDbCircle
 10
2649.363961030678
 20
80.63603896932102
 30
0.0
 40
1.75
  0
ARC
  5
113
330
2
100
AcDbEntity
  8
0
100
AcDbCircle
 10
2650.159456159514
 20
80.63603896932113
 30
0.0
 40
0.3125
100
AcDbArc
 50
135.0000000000046
 51
224.9999999999907
  0
ARC
  5
114
330
2
100
AcDbEntity
  8
0
100
AcDbCircle
 10
2649.363961030678
 20
81.43153409815591
 30
0.0
 40
0.3125
100
AcDbArc
 50
224.9999999999953
 51
315.0000000000046
  0
LINE
  5
115
330
2
100
AcDbEntity
  8
0
100
AcDbLine
 10
2649.938485290393
 20
80.41506810020019
 30
0.0
 11
2650.247844507161
 21
80.10570888343114
 31
0.0
  0
ARC
  5
116
330
2
100
AcDbEntity
  8
0
100
AcDbCircle
 10
2649.363961030678
 20
79.84054384048613
 30
0.0
 40
0.3125
100
AcDbArc
 50
44.99999999999533
 51
135.0000000000046
  0
LINE
  5
117
330
2
100
AcDbEntity
  8
0
100
AcDbLine
 10
2649.584931899801
 20
80.06151470960697
 30
0.0
 11
2649.894291116569
 21
79.7521554928378
 31
0.0
  0
LINE
  5
118
330
2
100
AcDbEntity
  8
0
100
AcDbLine
 10
2648.833630944789
 20
79.7521554928378
 30
0.0
 11
2649.142990161559
 21
80.06151470960697
 31
0.0
  0
LINE
  5
119
330
2
100
AcDbEntity
  8
0
100
AcDbLine
 10
2650.247844507161
 20
80.10570888343114
 30
0.0
 11
2649.894291116569
 21
79.7521554928378
 31
0.0
  0
ARC
  5
11A
330
2
100
AcDbEntity
  8
0
100
AcDbCircle
 10
2648.568465901844
 20
80.63603896932102
 30
0.0
 40
0.3125
100
AcDbArc
 50
315.0000000000046
 51
44.99999999999533
  0
LINE
  5
11B
330
2
100
AcDbEntity
  8
0
100
AcDbLine
 10
2648.833630944789
 20
81.51992244580425
 30
0.0
 11
2649.142990161559
 21
81.21056322903518
 31
0.0
  0
LINE
  5
11C
330
2
100
AcDbEntity
  8
0
100
AcDbLine
 10
2648.480077554195
 20
81.1663690552109
 30
0.0
 11
2648.789436770965
 21
80.85700983844185
 31
0.0
  0
LINE
  5
11D
330
2
100
AcDbEntity
  8
0
100
AcDbLine
 10
2648.833630944789
 20
81.51992244580425
 30
0.0
 11
2648.480077554195
 21
81.1663690552109
 31
0.0
  0
LINE
  5
11E
330
2
100
AcDbEntity
  8
0
100
AcDbLine
 10
2648.480077554195
 20
80.10570888343114
 30
0.0
 11
2648.789436770965
 21
80.41506810020019
 31
0.0
  0
LINE
  5
11F
330
2
100
AcDbEntity
  8
0
100
AcDbLine
 10
2648.480077554195
 20
80.10570888343114
 30
0.0
 11
2648.833630944789
 21
79.7521554928378
 31
0.0
  0
LINE
  5
120
330
2
100
AcDbEntity
  8
0
100
AcDbLine
 10
2649.938485290393
 20
80.85700983844185
 30
0.0
 11
2650.247844507161
 21
81.1663690552109
 31
0.0
  0
LINE
  5
121
330
2
100
AcDbEntity
  8
0
100
AcDbLine
 10
2649.584931899801
 20
81.21056322903518
 30
0.0
 11
2649.894291116569
 21
81.51992244580425
 31
0.0
  0
LINE
  5
122
330
2
100
AcDbEntity
  8
0
100
AcDbLine
 10
2649.894291116569
 20
81.51992244580425
 30
0.0
 11
2650.247844507161
 21
81.1663690552109
 31
0.0
  0
LINE
  5
123
330
2
100
AcDbEntity
  8
0
100
AcDbLine
 10
2732.049999999999
 20
77.80000000000018
 30
0.0
 11
2732.049999999999
 21
96.19999999999983
 31
0.0
  0
LINE
  5
124
330
2
100
AcDbEntity
  8
0
100
AcDbLine
 10
2767.049999999999
 20
87.70000000000027
 30
0.0
 11
2767.049999999999
 21
86.29999999999995
 31
0.0
  0
LINE
  5
125
330
2
100
AcDbEntity
  8
0
100
AcDbLine
 10
2764.049999999999
 20
76.80000000000018
 30
0.0
 11
2764.049999999999
 21
97.19999999999982
 31
0.0
  0
LINE
  5
126
330
2
100
AcDbEntity
  8
0
100
AcDbLine
 10
2766.049999999999
 20
83.95000000000004
 30
0.0
 11
2766.049999999999
 21
90.04999999999995
 31
0.0
  0
LINE
  5
127
330
2
100
AcDbEntity
  8
0
100
AcDbLine
 10
2768.450000000001
 20
78.50000000000022
 30
0.0
 11
2768.450000000001
 21
79.90000000000032
 31
0.0
  0
LINE
  5
128
330
2
100
AcDbEntity
  8
0
100
AcDbLine
 10
2768.15
 20
78.20000000000027
 30
0.0
 11
2768.450000000001
 21
78.50000000000022
 31
0.0
  0
LINE
  5
129
330
2
100
AcDbEntity
  8
0
100
AcDbLine
 10
2764.049999999999
 20
90.04999999999995
 30
0.0
 11
2766.049999999999
 21
90.04999999999995
 31
0.0
  0
LINE
  5
12A
330
2
100
AcDbEntity
  8
0
100
AcDbLine
 10
2764.049999999999
 20
83.95000000000004
 30
0.0
 11
2766.049999999999
 21
83.95000000000004
 31
0.0
  0
LINE
  5
12B
330
2
100
AcDbEntity
  8
0
100
AcDbLine
 10
2764.049999999999
 20
80.20000000000027
 30
0.0
 11
2768.15
 21
80.20000000000027
 31
0.0
  0
LINE
  5
12C
330
2
100
AcDbEntity
  8
0
100
AcDbLine
 10
2768.450000000001
 20
79.90000000000032
 30
0.0
 11
2768.15
 21
80.20000000000027
 31
0.0
  0
LINE
  5
12D
330
2
100
AcDbEntity
  8
0
100
AcDbLine
 10
2764.049999999999
 20
78.2000000000005
 30
0.0
 11
2768.15
 21
78.20000000000027
 31
0.0
  0
LINE
  5
12E
330
2
100
AcDbEntity
  8
0
100
AcDbLine
 10
2733.049999999999
 20
93.41650000000004
 30
0.0
 11
2764.049999999999
 21
93.41650000000004
 31
0.0
  0
LINE
  5
12F
330
2
100
AcDbEntity
  8
0
100
AcDbLine
 10
2733.049999999999
 20
80.58349999999995
 30
0.0
 11
2764.049999999999
 21
80.58349999999995
 31
0.0
  0
LINE
  5
130
330
2
100
AcDbEntity
  8
0
100
AcDbLine
 10
2733.049999999999
 20
97.19999999999982
 30
0.0
 11
2764.049999999999
 21
97.19999999999982
 31
0.0
  0
ARC
  5
131
330
2
100
AcDbEntity
  8
0
100
AcDbCircle
 10
2733.049999999999
 20
96.19999999999983
 30
0.0
 40
1.0
100
AcDbArc
 50
90.0
 51
180.0
  0
LINE
  5
132
330
2
100
AcDbEntity
  8
0
100
AcDbLine
 10
2733.049999999999
 20
76.80000000000018
 30
0.0
 11
2764.049999999999
 21
76.80000000000018
 31
0.0
  0
ARC
  5
133
330
2
100
AcDbEntity
  8
0
100
AcDbCircle
 10
2733.049999999999
 20
77.80000000000018
 30
0.0
 40
1.0
100
AcDbArc
 50
180.0
 51
270.0
  0
CIRCLE
  5
134
330
2
100
AcDbEntity
  8
0
100
AcDbCircle
 10
2766.950000000001
 20
79.20000000000027
 30
0.0
 40
0.55
  0
LINE
  5
135
330
2
100
AcDbEntity
  8
0
100
AcDbLine
 10
2768.450000000001
 20
95.49999999999977
 30
0.0
 11
2768.450000000001
 21
94.09999999999968
 31
0.0
  0
LINE
  5
136
330
2
100
AcDbEntity
  8
0
100
AcDbLine
 10
2768.15
 20
95.79999999999973
 30
0.0
 11
2768.450000000001
 21
95.49999999999977
 31
0.0
  0
LINE
  5
137
330
2
100
AcDbEntity
  8
0
100
AcDbLine
 10
2764.049999999999
 20
93.79999999999972
 30
0.0
 11
2768.15
 21
93.79999999999972
 31
0.0
  0
LINE
  5
138
330
2
100
AcDbEntity
  8
0
100
AcDbLine
 10
2768.450000000001
 20
94.09999999999968
 30
0.0
 11
2768.15
 21
93.79999999999972
 31
0.0
  0
LINE
  5
139
330
2
100
AcDbEntity
  8
0
100
AcDbLine
 10
2764.049999999999
 20
95.7999999999995
 30
0.0
 11
2768.15
 21
95.79999999999973
 31
0.0
  0
CIRCLE
  5
13A
330
2
100
AcDbEntity
  8
0
100
AcDbCircle
 10
2766.950000000001
 20
94.79999999999973
 30
0.0
 40
0.55
  0
LINE
  5
13B
330
2
100
AcDbEntity
  8
0
100
AcDbLine
 10
2766.75
 20
85.99999999999978
 30
0.0
 11
2766.049999999999
 21
85.99999999999978
 31
0.0
  0
ARC
  5
13C
330
2
100
AcDbEntity
  8
0
100
AcDbCircle
 10
2766.75
 20
86.29999999999972
 30
0.0
 40
0.3
100
AcDbArc
 50
270.0
 51
0.0
  0
LINE
  5
13D
330
2
100
AcDbEntity
  8
0
100
AcDbLine
 10
2766.75
 20
88.0
 30
0.0
 11
2766.049999999999
 21
88.00000000000023
 31
0.0
  0
ARC
  5
13E
330
2
100
AcDbEntity
  8
0
100
AcDbCircle
 10
2766.75
 20
87.70000000000004
 30
0.0
 40
0.3
100
AcDbArc
 50
0.0
 51
90.0
  0
DIMENSION
  5
13F
330
2
100
AcDbEntity
  8
TEXT
100
AcDbDimension
  2
*D0
 10
2662.24264068712
 20
76.24264068712136
 30
0.0
 11
2656.232233047035
 21
73.76776695296825
 31
0.0
 70
     1
 71
     5
 42
11.99999999999863
  3
1X
100
AcDbAlignedDimension
 13
2641.306869069679
 23
80.20784955608428
 33
0.0
 14
2649.792150443915
 24
88.69313093032316
 34
0.0
  0
LINE
  5
14D
330
2
100
AcDbEntity
  8
0
100
AcDbLine
 10
2714.3
 20
93.31776332962943
 30
0.0
 11
2716.0
 21
93.31776332962943
 31
0.0
  0
LINE
  5
14E
330
2
100
AcDbEntity
  8
0
100
AcDbLine
 10
2714.3
 20
96.00476909813824
 30
0.0
 11
2716.0
 21
96.00476909813814
 31
0.0
  0
LINE
  5
14F
330
2
100
AcDbEntity
  8
0
100
AcDbLine
 10
2714.75
 20
93.31776332962943
 30
0.0
 11
2714.75
 21
94.36396103067897
 31
0.0
  0
LINE
  5
150
330
2
100
AcDbEntity
  8
0
100
AcDbLine
 10
2716.0
 20
95.11396103067898
 30
0.0
 11
2715.5
 21
95.11396103067898
 31
0.0
  0
ARC
  5
151
330
2
100
AcDbEntity
  8
0
100
AcDbCircle
 10
2715.5
 20
94.36396103067897
 30
0.0
 40
0.75
100
AcDbArc
 50
90.0
 51
180.0
  0
ARC
  5
152
330
2
100
AcDbEntity
  8
0
100
AcDbCircle
 10
2714.3
 20
95.70476909813828
 30
0.0
 40
0.3
100
AcDbArc
 50
90.0
 51
180.0
  0
ARC
  5
153
330
2
100
AcDbEntity
  8
0
100
AcDbCircle
 10
2714.3
 20
93.01776332962948
 30
0.0
 40
0.3
100
AcDbArc
 50
90.0
 51
180.0
  0
LINE
  5
154
330
2
100
AcDbEntity
  8
0
100
AcDbLine
 10
2716.0
 20
80.68223667037058
 30
0.0
 11
2716.0
 21
77.99523090186188
 31
0.0
  0
LINE
  5
155
330
2
100
AcDbEntity
  8
0
100
AcDbLine
 10
2714.3
 20
80.68223667037058
 30
0.0
 11
2716.0
 21
80.68223667037058
 31
0.0
  0
LINE
  5
156
330
2
100
AcDbEntity
  8
0
100
AcDbLine
 10
2714.3
 20
77.99523090186176
 30
0.0
 11
2716.0
 21
77.99523090186188
 31
0.0
  0
LINE
  5
157
330
2
100
AcDbEntity
  8
0
100
AcDbLine
 10
2714.75
 20
80.68223667037058
 30
0.0
 11
2714.75
 21
79.63603896932102
 31
0.0
  0
LINE
  5
158
330
2
100
AcDbEntity
  8
0
100
AcDbLine
 10
2716.0
 20
78.88603896932102
 30
0.0
 11
2715.5
 21
78.88603896932102
 31
0.0
  0
ARC
  5
159
330
2
100
AcDbEntity
  8
0
100
AcDbCircle
 10
2715.5
 20
79.63603896932102
 30
0.0
 40
0.75
100
AcDbArc
 50
180.0
 51
270.0
  0
ARC
  5
15A
330
2
100
AcDbEntity
  8
0
100
AcDbCircle
 10
2714.3
 20
78.29523090186171
 30
0.0
 40
0.3
100
AcDbArc
 50
180.0
 51
270.0
  0
ARC
  5
15B
330
2
100
AcDbEntity
  8
0
100
AcDbCircle
 10
2714.3
 20
80.98223667037052
 30
0.0
 40
0.3
100
AcDbArc
 50
180.0
 51
270.0
  0
ARC
  5
15C
330
2
100
AcDbEntity
  8
0
100
AcDbCircle
 10
2712.299999999999
 20
88.39313093032286
 30
0.0
 40
0.3
100
AcDbArc
 50
90.0
 51
180.0
  0
LINE
  5
15D
330
2
100
AcDbEntity
  8
0
100
AcDbLine
 10
2712.299999999999
 20
88.6931309303228
 30
0.0
 11
2714.0
 21
88.6931309303228
 31
0.0
  0
LINE
  5
15E
330
2
100
AcDbEntity
  8
TEXT
100
AcDbLine
 10
2637.0
 20
54.0
 30
0.0
 11
2758.0
 21
54.0
 31
0.0
  0
LINE
  5
15F
330
2
100
AcDbEntity
  8
TEXT
100
AcDbLine
 10
2637.0
 20
46.0
 30
0.0
 11
2758.0
 21
46.0
 31
0.0
  0
LINE
  5
160
330
2
100
AcDbEntity
  8
TEXT
100
AcDbLine
 10
2637.0
 20
38.0
 30
0.0
 11
2758.0
 21
38.0
 31
0.0
  0
LINE
  5
161
330
2
100
AcDbEntity
  8
TEXT
100
AcDbLine
 10
2637.0
 20
54.0
 30
0.0
 11
2637.0
 21
22.0
 31
0.0
  0
LINE
  5
162
330
2
100
AcDbEntity
  8
TEXT
100
AcDbLine
 10
2676.0
 20
54.0
 30
0.0
 11
2676.0
 21
22.0
 31
0.0
  0
LINE
  5
163
330
2
100
AcDbEntity
  8
TEXT
100
AcDbLine
 10
2697.0
 20
54.0
 30
0.0
 11
2697.0
 21
22.0
 31
0.0
  0
LINE
  5
164
330
2
100
AcDbEntity
  8
TEXT
100
AcDbLine
 10
2698.0
 20
54.0
 30
0.0
 11
2698.0
 21
22.0
 31
0.0
  0
TEXT
  5
165
330
2
100
AcDbEntity
  8
TEXT
100
AcDbText
 10
2651.085714285715
 20
48.0
 30
0.0
 40
4.0
  1
RATIO
 41
0.6
  7
GHS
 72
     1
 11
2656.0
 21
48.0
 31
0.0
100
AcDbText
  0
TEXT
  5
166
330
2
100
AcDbEntity
  8
TEXT
100
AcDbText
 10
2684.857142857143
 20
48.0
 30
0.0
 40
4.0
  1
L
 41
0.6
  7
GHS
 72
     1
 11
2686.0
 21
48.0
 31
0.0
100
AcDbText
  0
LINE
  5
167
330
2
100
AcDbEntity
  8
TEXT
100
AcDbLine
 10
2637.0
 20
30.0
 30
0.0
 11
2758.0
 21
30.0
 31
0.0
  0
LINE
  5
168
330
2
100
AcDbEntity
  8
TEXT
100
AcDbLine
 10
2637.0
 20
22.0
 30
0.0
 11
2758.0
 21
22.0
 31
0.0
  0
TEXT
  5
169
330
2
100
AcDbEntity
  8
TEXT
100
AcDbText
 10
2639.0
 20
40.0
 30
0.0
 40
4.0
  1
1/4
 41
0.6
  7
GHS
100
AcDbText
  0
TEXT
  5
16A
330
2
100
AcDbEntity
  8
TEXT
100
AcDbText
 10
2639.0
 20
32.0
 30
0.0
 40
4.0
  1
1/14 ~ 1/19
 41
0.6
  7
GHS
100
AcDbText
  0
TEXT
  5
16B
330
2
100
AcDbEntity
  8
TEXT
100
AcDbText
 10
2639.0
 20
24.0
 30
0.0
 40
4.0
  1
1/53 ~ 1/104
 41
0.6
  7
GHS
100
AcDbText
  0
TEXT
  5
16C
330
2
100
AcDbEntity
  8
TEXT
100
AcDbText
 10
2682.0
 20
40.0
 30
0.0
 40
4.0
  1
14.4
 41
0.6
  7
GHS
100
AcDbText
  0
TEXT
  5
16D
330
2
100
AcDbEntity
  8
TEXT
100
AcDbText
 10
2682.0
 20
32.0
 30
0.0
 40
4.0
  1
18.05
 41
0.6
  7
GHS
100
AcDbText
  0
TEXT
  5
16E
330
2
100
AcDbEntity
  8
TEXT
100
AcDbText
 10
2682.0
 20
24.0
 30
0.0
 40
4.0
  1
21.7
 41
0.6
  7
GHS
100
AcDbText
  0
TEXT
  5
16F
330
2
100
AcDbEntity
  8
TEXT
100
AcDbText
 10
2680.085714285715
 20
57.0
 30
0.0
 40
4.0
  1
GEARHEAD LENGTH
 41
0.6
  7
GHS
 72
     1
 11
2697.0
 21
57.0
 31
0.0
100
AcDbText
  0
LINE
  5
170
330
2
100
AcDbEntity
  8
TEXT
100
AcDbLine
 10
2679.0
 20
56.0
 30
0.0
 11
2715.0
 21
56.0
 31
0.0
  0
DIMENSION
  5
171
330
2
100
AcDbEntity
  8
TEXT
100
AcDbDimension
  2
*D1
 10
2643.0
 20
99.50000000000001
 30
0.0
 11
2657.767766952963
 21
101.7677669529623
 31
0.0
 70
     2
  1
4-<>
 71
     5
 42
1.570796326794881
  3
1X
100
AcDb2LineAngularDimension
 13
2655.5
 23
87.0
 33
0.0
 14
2630.5
 24
87.0
 34
0.0
 15
2643.0
 25
74.5
 35
0.0
 16
2658.921683328086
 26
96.19238815542235
 36
0.0
  0
LEADER
  5
180
330
2
100
AcDbEntity
  8
TEXT
100
AcDbLeader
  3
2X
 76
     3
 10
2642.322341106034
 20
96.73537638215249
 30
0.0
 10
2632.0
 20
107.0
 30
0.0
 10
2605.0
 20
107.0
 30
0.0
1001
ACAD
1000
DSTYLE
1002
{
1070
   147
1040
1.0
1070
    77
1070
     0
1002
}
  0
DIMENSION
  5
181
330
2
100
AcDbEntity
  8
TEXT
100
AcDbDimension
  2
*D2
 10
2693.0
 20
88.49999999999999
 30
0.0
 11
2690.5
 21
97.38571428571471
 31
0.0
 71
     5
 42
3.5
  3
1X
100
AcDbAlignedDimension
 13
2700.299999999999
 23
85.0
 33
0.0
 14
2700.0
 24
88.49999999999999
 34
0.0
 50
90.0
100
AcDbRotatedDimension
  0
DIMENSION
  5
190
330
2
100
AcDbEntity
  8
TEXT
100
AcDbDimension
  2
*D3
 10
2686.0
 20
89.0
 30
0.0
 11
2686.0
 21
87.00000000000043
 31
0.0
 70
   128
  1
%%C<>
 71
     5
 42
4.0
  3
1X
100
AcDbAlignedDimension
 13
2700.299999999999
 23
85.0
 33
0.0
 14
2708.0
 24
89.0
 34
0.0
 50
90.0
100
AcDbRotatedDimension
  0
DIMENSION
  5
19F
330
2
100
AcDbEntity
  8
TEXT
100
AcDbDimension
  2
*D4
 10
2679.0
 20
94.0
 30
0.0
 11
2676.5
 21
87.00000000000043
 31
0.0
  1
%%C<>
 71
     5
 42
14.0
  3
1X
100
AcDbAlignedDimension
 13
2712.299999999999
 23
80.0
 33
0.0
 14
2712.299999999999
 24
94.0
 34
0.0
 50
90.0
100
AcDbRotatedDimension
  0
DIMENSION
  5
1AC
330
2
100
AcDbEntity
  8
TEXT
100
AcDbDimension
  2
*D5
 10
2672.0
 20
98.0
 30
0.0
 11
2669.5
 21
87.00000000000043
 31
0.0
  1
%%C<>
 71
     5
 42
22.0
  3
1X
100
AcDbAlignedDimension
 13
2714.3
 23
76.0
 33
0.0
 14
2714.3
 24
98.0
 34
0.0
 50
90.0
100
AcDbRotatedDimension
  0
DIMENSION
  5
1B9
330
2
100
AcDbEntity
  8
TEXT
100
AcDbDimension
  2
*D6
 10
2732.049999999999
 20
114.0
 30
0.0
 11
2723.025
 21
116.5
 31
0.0
  1
L
 71
     5
 42
18.04999999999927
  3
1X
100
AcDbAlignedDimension
 13
2714.0
 23
97.70000000000004
 33
0.0
 14
2732.049999999999
 24
98.0
 34
0.0
100
AcDbRotatedDimension
  0
DIMENSION
  5
1C6
330
2
100
AcDbEntity
  8
TEXT
100
AcDbDimension
  2
*D7
 10
2712.0
 20
108.0
 30
0.0
 11
2704.4
 21
110.5
 31
0.0
 71
     5
 42
2.0
  3
1X
100
AcDbAlignedDimension
 13
2714.0
 23
97.70000000000004
 33
0.0
 14
2712.0
 24
93.70000000000004
 34
0.0
100
AcDbRotatedDimension
  0
DIMENSION
  5
1D5
330
2
100
AcDbEntity
  8
TEXT
100
AcDbDimension
  2
*D8
 10
2708.0
 20
102.0
 30
0.0
 11
2704.0
 21
104.5
 31
0.0
 71
     5
 42
8.0
  3
1X
100
AcDbAlignedDimension
 13
2700.0
 23
88.49999999999999
 33
0.0
 14
2708.0
 24
89.0
 34
0.0
100
AcDbRotatedDimension
  0
DIMENSION
  5
1E4
330
2
100
AcDbEntity
  8
TEXT
100
AcDbDimension
  2
*D9
 10
2714.0
 20
114.0
 30
0.0
 11
2707.0
 21
116.5
 31
0.0
 71
     5
 42
14.0
  3
1X
100
AcDbAlignedDimension
 13
2700.0
 23
88.49999999999999
 33
0.0
 14
2714.0
 24
97.70000000000004
 34
0.0
100
AcDbRotatedDimension
  0
DIMENSION
  5
1F1
330
2
100
AcDbEntity
  8
TEXT
100
AcDbDimension
  2
*D10
 10
2764.049999999999
 20
114.0
 30
0.0
 11
2748.049999999999
 21
116.5
 31
0.0
 71
     5
 42
32.0
  3
1X
100
AcDbAlignedDimension
 13
2732.049999999999
 23
98.0
 33
0.0
 14
2764.049999999999
 24
97.19999999999982
 34
0.0
100
AcDbRotatedDimension
  0
DIMENSION
  5
1FE
330
2
100
AcDbEntity
  8
TEXT
100
AcDbDimension
  2
*D11
 10
2779.0
 20
76.80000000000018
 30
0.0
 11
2776.5
 21
87.00000000000043
 31
0.0
  1
%%C<>
 71
     5
 42
20.39999999999964
  3
1X
100
AcDbAlignedDimension
 13
2764.049999999999
 23
97.19999999999982
 33
0.0
 14
2764.049999999999
 24
76.80000000000018
 34
0.0
 50
90.0
100
AcDbRotatedDimension
  0
TEXT
  5
20B
330
2
100
AcDbEntity
  8
TEXT
100
AcDbText
 10
2682.0
 20
95.0
 30
0.0
 40
2.0
  1
-0.015
 50
90.0
 41
0.6
  7
GHS
100
AcDbText
  0
TEXT
  5
20C
330
2
100
AcDbEntity
  8
TEXT
100
AcDbText
 10
2685.0
 20
95.0
 30
0.0
 40
2.0
  1
-0.030
 50
90.0
 41
0.6
  7
GHS
100
AcDbText
  0
TEXT
  5
20D
330
2
100
AcDbEntity
  8
TEXT
100
AcDbText
 10
2689.0
 20
100.0
 30
0.0
 40
2.0
  1
 0
 50
90.0
 41
0.6
  7
GHS
100
AcDbText
  0
TEXT
  5
20E
330
2
100
AcDbEntity
  8
TEXT
100
AcDbText
 10
2692.0
 20
100.0
 30
0.0
 40
2.0
  1
-0.1
 50
90.0
 41
0.6
  7
GHS
100
AcDbText
  0
LINE
  5
20F
330
2
100
AcDbEntity
  8
TEXT
100
AcDbLine
 10
2737.0
 20
54.0
 30
0.0
 11
2737.0
 21
22.0
 31
0.0
  0
LINE
  5
210
330
2
100
AcDbEntity
  8
TEXT
100
AcDbLine
 10
2758.0
 20
54.0
 30
0.0
 11
2758.0
 21
22.0
 31
0.0
  0
TEXT
  5
211
330
2
100
AcDbEntity
  8
TEXT
100
AcDbText
 10
2712.085714285715
 20
48.0
 30
0.0
 40
4.0
  1
RATIO
 41
0.6
  7
GHS
 72
     1
 11
2717.0
 21
48.0
 31
0.0
100
AcDbText
  0
TEXT
  5
212
330
2
100
AcDbEntity
  8
TEXT
100
AcDbText
 10
2745.857142857143
 20
48.0
 30
0.0
 40
4.0
  1
L
 41
0.6
  7
GHS
 72
     1
 11
2747.0
 21
48.0
 31
0.0
100
AcDbText
  0
TEXT
  5
213
330
2
100
AcDbEntity
  8
TEXT
100
AcDbText
 10
2700.0
 20
40.0
 30
0.0
 40
4.0
  1
1/198 ~ 1/455
 41
0.6
  7
GHS
100
AcDbText
  0
TEXT
  5
214
330
2
100
AcDbEntity
  8
TEXT
100
AcDbText
 10
2700.0
 20
32.0
 30
0.0
 40
4.0
  1
1/742 ~ 1/1996
 41
0.6
  7
GHS
100
AcDbText
  0
TEXT
  5
215
330
2
100
AcDbEntity
  8
TEXT
100
AcDbText
 10
2743.0
 20
40.0
 30
0.0
 40
4.0
  1
25.35
 41
0.6
  7
GHS
100
AcDbText
  0
TEXT
  5
216
330
2
100
AcDbEntity
  8
TEXT
100
AcDbText
 10
2743.0
 20
32.0
 30
0.0
 40
4.0
  1
29
 41
0.6
  7
GHS
100
AcDbText
  0
ENDSEC
  0
SECTION
  2
OBJECTS
  0
DICTIONARY
  5
C
330
0
100
AcDbDictionary
281
     1
  3
ACAD_2007HEADERVARS_RT
350
26C
  3
ACAD_COLOR
350
59
  3
ACAD_GROUP
350
46
  3
ACAD_LAYOUT
350
19
  3
ACAD_MATERIAL
350
E
  3
ACAD_MLEADERSTYLE
350
247
  3
ACAD_MLINESTYLE
350
47
  3
ACAD_PLOTSETTINGS
350
48
  3
ACAD_PLOTSTYLENAME
350
B
  3
ACAD_SCALELIST
350
5A
  3
ACAD_TABLESTYLE
350
5B
  3
ACAD_VISUALSTYLE
350
32
  3
ACDB_RECOMPOSE_DATA
350
21B
  3
AcDbVariableDictionary
350
230
  0
DICTIONARY
  5
33
330
2F
100
AcDbDictionary
280
     1
281
     1
  0
DICTIONARY
  5
22
330
21
100
AcDbDictionary
280
     1
281
     1
  3
ACAD_LAYERFILTERS
360
23
  3
ACAD_LAYERSTATES
360
24
  3
ACLYDICTIONARY
360
25
  0
DICTIONARY
  5
8
330
7
100
AcDbDictionary
280
     1
281
     1
  3
ADSK_XREC_LAYER_RECONCILED
360
9
  0
DICTIONARY
  5
88
330
87
100
AcDbDictionary
280
     1
281
     1
  3
ADSK_XREC_LAYER_RECONCILED
360
89
  0
DICTIONARY
  5
5D
330
5C
100
AcDbDictionary
280
     1
281
     1
  3
ADSK_XREC_LAYER_RECONCILED
360
5E
  0
DICTIONARY
  5
3
330
2
100
AcDbDictionary
280
     1
281
     1
  3
ACAD_LAYOUTSELFREF
360
4
  3
ACAD_SORTENTS
360
217
  0
DICTIONARY
  5
1C
330
1B
100
AcDbDictionary
280
     1
281
     1
  3
ACAD_LAYOUTSELFREF
360
1D
  0
DICTIONARY
  5
26C
102
{ACAD_REACTORS
330
C
102
}
330
C
100
AcDbDictionary
281
     1
  3
DIMLTEX1
350
26E
  3
DIMLTEX2
350
26F
  3
DIMLTYPE
350
26D
  0
DICTIONARY
  5
59
102
{ACAD_REACTORS
330
C
102
}
330
C
100
AcDbDictionary
281
     1
  0
DICTIONARY
  5
46
102
{ACAD_REACTORS
330
C
102
}
330
C
100
AcDbDictionary
281
     1
  0
DICTIONARY
  5
19
102
{ACAD_REACTORS
330
C
102
}
330
C
100
AcDbDictionary
281
     1
  3
Layout1
350
20
  3
Model
350
18
  0
DICTIONARY
  5
E
102
{ACAD_REACTORS
330
C
102
}
330
C
100
AcDbDictionary
281
     1
  3
ByBlock
350
51
  3
ByLayer
350
49
  3
Global
350
D
  0
DICTIONARY
  5
247
102
{ACAD_REACTORS
330
C
102
}
330
C
100
AcDbDictionary
281
     1
  3
Standard
350
248
  0
DICTIONARY
  5
47
102
{ACAD_REACTORS
330
C
102
}
330
C
100
AcDbDictionary
281
     1
  3
Standard
350
5F
  0
DICTIONARY
  5
48
102
{ACAD_REACTORS
330
C
102
}
330
C
100
AcDbDictionary
281
     1
  0
ACDBDICTIONARYWDFLT
  5
B
102
{ACAD_REACTORS
330
C
102
}
330
C
100
AcDbDictionary
281
     1
  3
Normal
350
A
100
AcDbDictionaryWithDefault
340
A
  0
DICTIONARY
  5
5A
102
{ACAD_REACTORS
330
C
102
}
330
C
100
AcDbDictionary
281
     1
  3
*A1
350
64
  3
A0
350
65
  3
A1
350
66
  3
A2
350
67
  3
A3
350
68
  3
A4
350
69
  3
A5
350
6A
  3
A6
350
6B
  3
A7
350
6C
  3
A8
350
6D
  3
A9
350
6E
  3
B0
350
6F
  3
B1
350
70
  3
B2
350
71
  3
B3
350
72
  3
B4
350
73
  3
B5
350
74
  3
B6
350
75
  3
B7
350
76
  3
B8
350
77
  3
B9
350
78
  3
C0
350
79
  3
C1
350
7A
  3
C2
350
7B
  3
C3
350
7C
  3
C4
350
7D
  3
C5
350
7E
  3
C6
350
7F
  3
C7
350
80
  3
C8
350
81
  3
C9
350
82
  3
D0
350
83
  3
D1
350
84
  3
D2
350
85
  0
DICTIONARY
  5
5B
102
{ACAD_REACTORS
330
C
102
}
330
C
100
AcDbDictionary
281
     1
  3
Standard
350
60
  0
DICTIONARY
  5
32
102
{ACAD_REACTORS
330
C
102
}
330
C
100
AcDbDictionary
281
     1
  3
2dWireframe
350
31
  3
3D Hidden
350
23F
  3
3dWireframe
350
63
  3
Basic
350
23E
  3
Brighten
350
242
  3
ColorChange
350
246
  3
Conceptual
350
240
  3
Dim
350
241
  3
Facepattern
350
245
  3
Flat
350
23A
  3
FlatWithEdges
350
23B
  3
Gouraud
350
23C
  3
GouraudWithEdges
350
23D
  3
Linepattern
350
244
  3
Realistic
350
62
  3
Thicken
350
243
  0
XRECORD
  5
21B
102
{ACAD_REACTORS
330
C
102
}
330
C
100
AcDbXrecord
280
     1
 90
        1
330
60
  0
DICTIONARY
  5
230
102
{ACAD_REACTORS
330
C
102
}
330
C
100
AcDbDictionary
281
     1
  3
CANNOSCALE
350
234
  3
CMLEADERSTYLE
350
232
  3
CTABLESTYLE
350
231
  3
DIMASSOC
350
238
  3
HIDETEXT
350
237
  3
INDEXCTL
350
236
  3
LIGHTINGUNITS
350
24F
  3
MSLTSCALE
350
233
  3
SORTENTS
350
235
  0
DICTIONARY
  5
23
102
{ACAD_REACTORS
330
22
102
}
330
22
100
AcDbDictionary
281
     1
  0
DICTIONARY
  5
24
102
{ACAD_REACTORS
330
22
102
}
330
22
100
AcDbDictionary
281
     1
  0
DICTIONARY
  5
25
102
{ACAD_REACTORS
330
22
102
}
330
22
100
AcDbDictionary
281
     1
1001
ACAD
1000
<All
  0
XRECORD
  5
9
102
{ACAD_REACTORS
330
8
102
}
330
8
100
AcDbXrecord
280
     1
290
     1
  0
XRECORD
  5
89
102
{ACAD_REACTORS
330
88
102
}
330
88
100
AcDbXrecord
280
     1
290
     1
  0
XRECORD
  5
5E
102
{ACAD_REACTORS
330
5D
102
}
330
5D
100
AcDbXrecord
280
     1
290
     1
  0
XRECORD
  5
4
102
{ACAD_REACTORS
330
3
102
}
330
3
100
AcDbXrecord
280
     1
340
2
  0
SORTENTSTABLE
  5
217
102
{ACAD_REACTORS
330
3
102
}
330
3
100
AcDbSortentsTable
330
2
  0
XRECORD
  5
1D
102
{ACAD_REACTORS
330
1C
102
}
330
1C
100
AcDbXrecord
280
     1
340
1B
  0
XRECORD
  5
26E
102
{ACAD_REACTORS
330
26C
102
}
330
26C
100
AcDbXrecord
280
     1
340
2C
  0
XRECORD
  5
26F
102
{ACAD_REACTORS
330
26C
102
}
330
26C
100
AcDbXrecord
280
     1
340
2C
  0
XRECORD
  5
26D
102
{ACAD_REACTORS
330
26C
102
}
330
26C
100
AcDbXrecord
280
     1
340
2C
  0
LAYOUT
  5
20
102
{ACAD_REACTORS
330
19
102
}
330
19
100
AcDbPlotSettings
  1

  2
HP LaserJet 5000 Series PS
  4

  6

 40
0.0
 41
0.0
 42
0.0
 43
0.0
 44
0.0
 45
0.0
 46
0.0
 47
0.0
 48
0.0
 49
0.0
140
0.0
141
0.0
142
1.0
143
1.0
 70
   688
 72
     0
 73
     0
 74
     5
  7
C:\Users\R&D\AppData\Roaming\Autodesk\Autodesk Mechanical Desktop 2008\R17.1\kor\Plot Styles\CATALOG.ctb
 75
    16
147
1.0
 76
     0
 77
     2
 78
   300
148
0.0
149
0.0
100
AcDbLayout
  1
Layout1
 70
     1
 71
     1
 10
0.0
 20
0.0
 11
12.0
 21
9.0
 12
2220.404641079056
 22
50.00000000000001
 32
2810.473195709564
 14
1.000000000000000E+20
 24
1.000000000000000E+20
 34
1.000000000000000E+20
 15
-1.000000000000000E+20
 25
-1.000000000000000E+20
 35
-1.000000000000000E+20
146
0.0
 13
0.0
 23
0.0
 33
0.0
 16
1.0
 26
0.0
 36
0.0
 17
0.0
 27
1.0
 37
0.0
 76
     0
330
1B
  0
LAYOUT
  5
18
102
{ACAD_REACTORS
330
19
102
}
330
19
100
AcDbPlotSettings
  1

  2
PublishToWeb JPG.pc3
  4
Sun_Hi-Res_(1600.00_x_1280.00_Pixels)
  6

 40
0.0
 41
0.0
 42
1.0
 43
1.0
 44
1600.0
 45
1280.0
 46
0.0
 47
0.0
 48
2595.0
 49
7.0
140
2798.0
141
134.0
142
1.0
143
0.1269543464665416
 70
 11952
 72
     2
 73
     0
 74
     4
  7
CATALOG.ctb
 75
     0
147
7.876847290640394
 76
     0
 77
     2
 78
   300
148
-2595.0
149
-7.0
100
AcDbLayout
  1
Model
 70
     1
 71
     0
 10
0.0
 20
0.0
 11
12.0
 21
9.0
 12
0.0
 22
0.0
 32
0.0
 14
0.0
 24
0.0
 34
0.0
 15
0.0
 25
0.0
 35
0.0
146
0.0
 13
0.0
 23
0.0
 33
0.0
 16
1.0
 26
0.0
 36
0.0
 17
0.0
 27
1.0
 37
0.0
 76
     0
330
2
331
30
1001
ACAD_PSEXT
1000
PublishToWeb JPG.pc3
1000
Independent JPEG Group JFIF (JPEG Compression)
1000
파일
1000

1070
     0
  0
MATERIAL
  5
51
102
{ACAD_XDICTIONARY
360
52
102
}
102
{ACAD_REACTORS
330
E
102
}
330
E
100
AcDbMaterial
  1
ByBlock
 72
     0
 43
0.0208333333333333
 43
0.0
 43
0.0
 43
0.0
 43
0.0
 43
0.0208333333333333
 43
0.0
 43
0.0
 43
0.0
 43
0.0
 43
1.0
 43
0.0
 43
0.0
 43
0.0
 43
0.0
 43
1.0
 77
     0
 47
0.0208333333333333
 47
0.0
 47
0.0
 47
0.0
 47
0.0
 47
0.0208333333333333
 47
0.0
 47
0.0
 47
0.0
 47
0.0
 47
1.0
 47
0.0
 47
0.0
 47
0.0
 47
0.0
 47
1.0
171
     0
 49
0.0208333333333333
 49
0.0
 49
0.0
 49
0.0
 49
0.0
 49
0.0208333333333333
 49
0.0
 49
0.0
 49
0.0
 49
0.0
 49
1.0
 49
0.0
 49
0.0
 49
0.0
 49
0.0
 49
1.0
175
     0
142
0.0208333333333333
142
0.0
142
0.0
142
0.0
142
0.0
142
0.0208333333333333
142
0.0
142
0.0
142
0.0
142
0.0
142
1.0
142
0.0
142
0.0
142
0.0
142
0.0
142
1.0
179
     0
144
0.0208333333333333
144
0.0
144
0.0
144
0.0
144
0.0
144
0.0208333333333333
144
0.0
144
0.0
144
0.0
144
0.0
144
1.0
144
0.0
144
0.0
144
0.0
144
0.0
144
1.0
147
0.0208333333333333
147
0.0
147
0.0
147
0.0
147
0.0
147
0.0208333333333333
147
0.0
147
0.0
147
0.0
147
0.0
147
1.0
147
0.0
147
0.0
147
0.0
147
0.0
147
1.0
  0
MATERIAL
  5
49
102
{ACAD_XDICTIONARY
360
4A
102
}
102
{ACAD_REACTORS
330
E
102
}
330
E
100
AcDbMaterial
  1
ByLayer
 72
     0
 43
0.0208333333333333
 43
0.0
 43
0.0
 43
0.0
 43
0.0
 43
0.0208333333333333
 43
0.0
 43
0.0
 43
0.0
 43
0.0
 43
1.0
 43
0.0
 43
0.0
 43
0.0
 43
0.0
 43
1.0
 77
     0
 47
0.0208333333333333
 47
0.0
 47
0.0
 47
0.0
 47
0.0
 47
0.0208333333333333
 47
0.0
 47
0.0
 47
0.0
 47
0.0
 47
1.0
 47
0.0
 47
0.0
 47
0.0
 47
0.0
 47
1.0
171
     0
 49
0.0208333333333333
 49
0.0
 49
0.0
 49
0.0
 49
0.0
 49
0.0208333333333333
 49
0.0
 49
0.0
 49
0.0
 49
0.0
 49
1.0
 49
0.0
 49
0.0
 49
0.0
 49
0.0
 49
1.0
175
     0
142
0.0208333333333333
142
0.0
142
0.0
142
0.0
142
0.0
142
0.0208333333333333
142
0.0
142
0.0
142
0.0
142
0.0
142
1.0
142
0.0
142
0.0
142
0.0
142
0.0
142
1.0
179
     0
144
0.0208333333333333
144
0.0
144
0.0
144
0.0
144
0.0
144
0.0208333333333333
144
0.0
144
0.0
144
0.0
144
0.0
144
1.0
144
0.0
144
0.0
144
0.0
144
0.0
144
1.0
147
0.0208333333333333
147
0.0
147
0.0
147
0.0
147
0.0
147
0.0208333333333333
147
0.0
147
0.0
147
0.0
147
0.0
147
1.0
147
0.0
147
0.0
147
0.0
147
0.0
147
1.0
  0
MATERIAL
  5
D
102
{ACAD_XDICTIONARY
360
F
102
}
102
{ACAD_REACTORS
330
E
102
}
330
E
100
AcDbMaterial
  1
Global
 72
     0
 43
0.0208333333333333
 43
0.0
 43
0.0
 43
0.0
 43
0.0
 43
0.0208333333333333
 43
0.0
 43
0.0
 43
0.0
 43
0.0
 43
1.0
 43
0.0
 43
0.0
 43
0.0
 43
0.0
 43
1.0
 77
     0
 47
0.0208333333333333
 47
0.0
 47
0.0
 47
0.0
 47
0.0
 47
0.0208333333333333
 47
0.0
 47
0.0
 47
0.0
 47
0.0
 47
1.0
 47
0.0
 47
0.0
 47
0.0
 47
0.0
 47
1.0
171
     0
 49
0.0208333333333333
 49
0.0
 49
0.0
 49
0.0
 49
0.0
 49
0.0208333333333333
 49
0.0
 49
0.0
 49
0.0
 49
0.0
 49
1.0
 49
0.0
 49
0.0
 49
0.0
 49
0.0
 49
1.0
175
     0
142
0.0208333333333333
142
0.0
142
0.0
142
0.0
142
0.0
142
0.0208333333333333
142
0.0
142
0.0
142
0.0
142
0.0
142
1.0
142
0.0
142
0.0
142
0.0
142
0.0
142
1.0
179
     0
144
0.0208333333333333
144
0.0
144
0.0
144
0.0
144
0.0
144
0.0208333333333333
144
0.0
144
0.0
144
0.0
144
0.0
144
1.0
144
0.0
144
0.0
144
0.0
144
0.0
144
1.0
147
0.0208333333333333
147
0.0
147
0.0
147
0.0
147
0.0
147
0.0208333333333333
147
0.0
147
0.0
147
0.0
147
0.0
147
1.0
147
0.0
147
0.0
147
0.0
147
0.0
147
1.0
  0
MLEADERSTYLE
  5
248
102
{ACAD_REACTORS
330
247
102
}
330
247
100
AcDbMLeaderStyle
170
     2
171
     1
172
     0
 90
        2
 40
0.0
 41
0.0
173
     1
 91
-1056964608
340
2B
 92
       -2
290
     1
 42
0.09
291
     1
 43
0.36
  3
Standard
 44
0.18
300

342
28
174
     1
178
     6
175
     1
176
     0
 93
-1056964608
 45
0.18
292
     0
297
     0
 46
0.18
 94
-1056964608
 47
1.0
 49
1.0
140
1.0
293
     1
141
0.0
294
     1
177
     0
142
1.0
295
     0
296
     0
143
0.125
1001
ACAD_MLEADERVER
1070
     2
  0
MLINESTYLE
  5
5F
102
{ACAD_REACTORS
330
47
102
}
330
47
100
AcDbMlineStyle
  2
STANDARD
 70
     0
  3

 62
   256
 51
90.0
 52
90.0
 71
     2
 49
0.5
 62
   256
  6
BYLAYER
 49
-0.5
 62
   256
  6
BYLAYER
  0
ACDBPLACEHOLDER
  5
A
102
{ACAD_REACTORS
330
B
102
}
330
B
  0
SCALE
  5
64
102
{ACAD_REACTORS
330
5A
102
}
330
5A
100
AcDbScale
 70
     0
300
1/128" = 1'-0"_1
140
0.007812
141
12.0
290
     0
  0
SCALE
  5
65
102
{ACAD_REACTORS
330
5A
102
}
330
5A
100
AcDbScale
 70
     0
300
1:1
140
1.0
141
1.0
290
     1
  0
SCALE
  5
66
102
{ACAD_REACTORS
330
5A
102
}
330
5A
100
AcDbScale
 70
     0
300
1:2
140
1.0
141
2.0
290
     0
  0
SCALE
  5
67
102
{ACAD_REACTORS
330
5A
102
}
330
5A
100
AcDbScale
 70
     0
300
1:4
140
1.0
141
4.0
290
     0
  0
SCALE
  5
68
102
{ACAD_REACTORS
330
5A
102
}
330
5A
100
AcDbScale
 70
     0
300
1:5
140
1.0
141
5.0
290
     0
  0
SCALE
  5
69
102
{ACAD_REACTORS
330
5A
102
}
330
5A
100
AcDbScale
 70
     0
300
1:8
140
1.0
141
8.0
290
     0
  0
SCALE
  5
6A
102
{ACAD_REACTORS
330
5A
102
}
330
5A
100
AcDbScale
 70
     0
300
1:10
140
1.0
141
10.0
290
     0
  0
SCALE
  5
6B
102
{ACAD_REACTORS
330
5A
102
}
330
5A
100
AcDbScale
 70
     0
300
1:16
140
1.0
141
16.0
290
     0
  0
SCALE
  5
6C
102
{ACAD_REACTORS
330
5A
102
}
330
5A
100
AcDbScale
 70
     0
300
1:20
140
1.0
141
20.0
290
     0
  0
SCALE
  5
6D
102
{ACAD_REACTORS
330
5A
102
}
330
5A
100
AcDbScale
 70
     0
300
1:30
140
1.0
141
30.0
290
     0
  0
SCALE
  5
6E
102
{ACAD_REACTORS
330
5A
102
}
330
5A
100
AcDbScale
 70
     0
300
1:40
140
1.0
141
40.0
290
     0
  0
SCALE
  5
6F
102
{ACAD_REACTORS
330
5A
102
}
330
5A
100
AcDbScale
 70
     0
300
1:50
140
1.0
141
50.0
290
     0
  0
SCALE
  5
70
102
{ACAD_REACTORS
330
5A
102
}
330
5A
100
AcDbScale
 70
     0
300
1:100
140
1.0
141
100.0
290
     0
  0
SCALE
  5
71
102
{ACAD_REACTORS
330
5A
102
}
330
5A
100
AcDbScale
 70
     0
300
2:1
140
2.0
141
1.0
290
     0
  0
SCALE
  5
72
102
{ACAD_REACTORS
330
5A
102
}
330
5A
100
AcDbScale
 70
     0
300
4:1
140
4.0
141
1.0
290
     0
  0
SCALE
  5
73
102
{ACAD_REACTORS
330
5A
102
}
330
5A
100
AcDbScale
 70
     0
300
8:1
140
8.0
141
1.0
290
     0
  0
SCALE
  5
74
102
{ACAD_REACTORS
330
5A
102
}
330
5A
100
AcDbScale
 70
     0
300
10:1
140
10.0
141
1.0
290
     0
  0
SCALE
  5
75
102
{ACAD_REACTORS
330
5A
102
}
330
5A
100
AcDbScale
 70
     0
300
100:1
140
100.0
141
1.0
290
     0
  0
SCALE
  5
76
102
{ACAD_REACTORS
330
5A
102
}
330
5A
100
AcDbScale
 70
     0
300
1/128" = 1'-0"
140
0.0078125
141
12.0
290
     0
  0
SCALE
  5
77
102
{ACAD_REACTORS
330
5A
102
}
330
5A
100
AcDbScale
 70
     0
300
1/64" = 1'-0"
140
0.015625
141
12.0
290
     0
  0
SCALE
  5
78
102
{ACAD_REACTORS
330
5A
102
}
330
5A
100
AcDbScale
 70
     0
300
1/32" = 1'-0"
140
0.03125
141
12.0
290
     0
  0
SCALE
  5
79
102
{ACAD_REACTORS
330
5A
102
}
330
5A
100
AcDbScale
 70
     0
300
1/16" = 1'-0"
140
0.0625
141
12.0
290
     0
  0
SCALE
  5
7A
102
{ACAD_REACTORS
330
5A
102
}
330
5A
100
AcDbScale
 70
     0
300
3/32" = 1'-0"
140
0.09375
141
12.0
290
     0
  0
SCALE
  5
7B
102
{ACAD_REACTORS
330
5A
102
}
330
5A
100
AcDbScale
 70
     0
300
1/8" = 1'-0"
140
0.125
141
12.0
290
     0
  0
SCALE
  5
7C
102
{ACAD_REACTORS
330
5A
102
}
330
5A
100
AcDbScale
 70
     0
300
3/16" = 1'-0"
140
0.1875
141
12.0
290
     0
  0
SCALE
  5
7D
102
{ACAD_REACTORS
330
5A
102
}
330
5A
100
AcDbScale
 70
     0
300
1/4" = 1'-0"
140
0.25
141
12.0
290
     0
  0
SCALE
  5
7E
102
{ACAD_REACTORS
330
5A
102
}
330
5A
100
AcDbScale
 70
     0
300
3/8" = 1'-0"
140
0.375
141
12.0
290
     0
  0
SCALE
  5
7F
102
{ACAD_REACTORS
330
5A
102
}
330
5A
100
AcDbScale
 70
     0
300
1/2" = 1'-0"
140
0.5
141
12.0
290
     0
  0
SCALE
  5
80
102
{ACAD_REACTORS
330
5A
102
}
330
5A
100
AcDbScale
 70
     0
300
3/4" = 1'-0"
140
0.75
141
12.0
290
     0
  0
SCALE
  5
81
102
{ACAD_REACTORS
330
5A
102
}
330
5A
100
AcDbScale
 70
     0
300
1" = 1'-0"
140
1.0
141
12.0
290
     0
  0
SCALE
  5
82
102
{ACAD_REACTORS
330
5A
102
}
330
5A
100
AcDbScale
 70
     0
300
1-1/2" = 1'-0"
140
1.5
141
12.0
290
     0
  0
SCALE
  5
83
102
{ACAD_REACTORS
330
5A
102
}
330
5A
100
AcDbScale
 70
     0
300
3" = 1'-0"
140
3.0
141
12.0
290
     0
  0
SCALE
  5
84
102
{ACAD_REACTORS
330
5A
102
}
330
5A
100
AcDbScale
 70
     0
300
6" = 1'-0"
140
6.0
141
12.0
290
     0
  0
SCALE
  5
85
102
{ACAD_REACTORS
330
5A
102
}
330
5A
100
AcDbScale
 70
     0
300
1'-0" = 1'-0"
140
12.0
141
12.0
290
     0
  0
TABLESTYLE
  5
60
102
{ACAD_XDICTIONARY
360
61
102
}
102
{ACAD_REACTORS
330
5B
102
}
330
5B
100
AcDbTableStyle
  3
Standard
 70
     0
 71
     0
 40
0.06
 41
0.06
280
     0
281
     0
  7
STANDARD
140
0.18
170
     2
 62
     0
 63
     7
283
     0
274
    -2
284
     1
 64
     0
275
    -2
285
     1
 65
     0
276
    -2
286
     1
 66
     0
277
    -2
287
     1
 67
     0
278
    -2
288
     1
 68
     0
279
    -2
289
     1
 69
     0
  7
STANDARD
140
0.25
170
     5
 62
     0
 63
     7
283
     0
274
    -2
284
     1
 64
     0
275
    -2
285
     1
 65
     0
276
    -2
286
     1
 66
     0
277
    -2
287
     1
 67
     0
278
    -2
288
     1
 68
     0
279
    -2
289
     1
 69
     0
  7
STANDARD
140
0.18
170
     5
 62
     0
 63
     7
283
     0
274
    -2
284
     1
 64
     0
275
    -2
285
     1
 65
     0
276
    -2
286
     1
 66
     0
277
    -2
287
     1
 67
     0
278
    -2
288
     1
 68
     0
279
    -2
289
     1
 69
     0
  0
VISUALSTYLE
  5
31
102
{ACAD_REACTORS
330
32
102
}
330
32
100
AcDbVisualStyle
  2
2dWireframe
 70
     4
 71
     0
 72
     2
 73
     0
 90
        0
 40
-0.6
 41
-30.0
 62
     5
 63
     7
 74
     1
 91
        4
 64
     7
 65
   257
 75
     1
175
     1
 42
1.0
 92
        0
 66
   257
 43
1.0
 76
     1
 77
     6
 78
     2
 67
     7
 79
     5
170
     0
171
     0
290
     0
174
     0
 93
        1
 44
0.0
173
     0
291
     0
 45
0.0
1001
ACAD
1000
AcDbSavedByObjectVersion
1070
     0
  0
VISUALSTYLE
  5
23F
102
{ACAD_REACTORS
330
32
102
}
330
32
100
AcDbVisualStyle
  2
3D Hidden
 70
     6
 71
     1
 72
     2
 73
     2
 90
        0
 40
-0.6
 41
-30.0
 62
     5
 63
     7
421
 16777215
 74
     2
 91
        2
 64
     7
 65
   257
 75
     2
175
     1
 42
40.0
 92
        0
 66
   257
 43
1.0
 76
     1
 77
     6
 78
     2
 67
     7
 79
     3
170
     0
171
     0
290
     0
174
     0
 93
        1
 44
0.0
173
     0
291
     0
 45
0.0
1001
ACAD
1000
AcDbSavedByObjectVersion
1070
     0
  0
VISUALSTYLE
  5
63
102
{ACAD_REACTORS
330
32
102
}
330
32
100
AcDbVisualStyle
  2
3dWireframe
 70
     5
 71
     0
 72
     2
 73
     0
 90
        0
 40
-0.6
 41
-30.0
 62
     5
 63
     7
 74
     1
 91
        4
 64
     7
 65
   257
 75
     1
175
     1
 42
1.0
 92
        0
 66
   257
 43
1.0
 76
     1
 77
     6
 78
     2
 67
     7
 79
     5
170
     0
171
     0
290
     0
174
     0
 93
        1
 44
0.0
173
     0
291
     0
 45
0.0
1001
ACAD
1000
AcDbSavedByObjectVersion
1070
     0
  0
VISUALSTYLE
  5
23E
102
{ACAD_REACTORS
330
32
102
}
330
32
100
AcDbVisualStyle
  2
Basic
 70
     7
 71
     1
 72
     0
 73
     1
 90
        0
 40
-0.6
 41
-30.0
 62
     5
 63
     7
421
 16777215
 74
     0
 91
        4
 64
     7
 65
   257
 75
     1
175
     1
 42
1.0
 92
        8
 66
     7
 43
1.0
 76
     1
 77
     6
 78
     2
 67
     7
 79
     5
170
     0
171
     0
290
     0
174
     0
 93
        1
 44
0.0
173
     0
291
     1
 45
0.0
1001
ACAD
1000
AcDbSavedByObjectVersion
1070
     0
  0
VISUALSTYLE
  5
242
102
{ACAD_REACTORS
330
32
102
}
330
32
100
AcDbVisualStyle
  2
Brighten
 70
    12
 71
     2
 72
     2
 73
     0
 90
        0
 40
-0.6
 41
-30.0
 62
     5
 63
     7
421
 16777215
 74
     1
 91
        4
 64
     7
 65
   257
 75
     1
175
     1
 42
1.0
 92
        8
 66
     7
 43
1.0
 76
     1
 77
     6
 78
     2
 67
     7
 79
     5
170
     0
171
     0
290
     0
174
     0
 93
        1
 44
50.0
173
     0
291
     1
 45
0.0
1001
ACAD
1000
AcDbSavedByObjectVersion
1070
     0
  0
VISUALSTYLE
  5
246
102
{ACAD_REACTORS
330
32
102
}
330
32
100
AcDbVisualStyle
  2
ColorChange
 70
    16
 71
     2
 72
     2
 73
     3
 90
        0
 40
-0.6
 41
-30.0
 62
     5
 63
     8
421
  8421504
 74
     1
 91
        4
 64
     7
 65
   257
 75
     1
175
     1
 42
1.0
 92
        8
 66
     8
424
  8421504
 43
1.0
 76
     1
 77
     6
 78
     2
 67
     7
 79
     5
170
     0
171
     0
290
     0
174
     0
 93
        1
 44
0.0
173
     0
291
     1
 45
0.0
1001
ACAD
1000
AcDbSavedByObjectVersion
1070
     0
  0
VISUALSTYLE
  5
240
102
{ACAD_REACTORS
330
32
102
}
330
32
100
AcDbVisualStyle
  2
Conceptual
 70
     9
 71
     3
 72
     2
 73
     0
 90
        0
 40
-0.6
 41
-30.0
 62
     5
 63
     7
421
 16777215
 74
     2
 91
        2
 64
     7
 65
   257
 75
     1
175
     1
 42
40.0
 92
        8
 66
     7
 43
1.0
 76
     1
 77
     6
 78
     2
 67
     7
 79
     3
170
     0
171
     0
290
     0
174
     0
 93
        1
 44
0.0
173
     0
291
     0
 45
0.0
1001
ACAD
1000
AcDbSavedByObjectVersion
1070
     0
  0
VISUALSTYLE
  5
241
102
{ACAD_REACTORS
330
32
102
}
330
32
100
AcDbVisualStyle
  2
Dim
 70
    11
 71
     2
 72
     2
 73
     0
 90
        0
 40
-0.6
 41
-30.0
 62
     5
 63
     7
421
 16777215
 74
     1
 91
        4
 64
     7
 65
   257
 75
     1
175
     1
 42
1.0
 92
        8
 66
     7
 43
1.0
 76
     1
 77
     6
 78
     2
 67
     7
 79
     5
170
     0
171
     0
290
     0
174
     0
 93
        1
 44
-50.0
173
     0
291
     1
 45
0.0
1001
ACAD
1000
AcDbSavedByObjectVersion
1070
     0
  0
VISUALSTYLE
  5
245
102
{ACAD_REACTORS
330
32
102
}
330
32
100
AcDbVisualStyle
  2
Facepattern
 70
    15
 71
     2
 72
     2
 73
     0
 90
        0
 40
-0.6
 41
-30.0
 62
     5
 63
     7
421
 16777215
 74
     1
 91
        4
 64
     7
 65
   257
 75
     1
175
     1
 42
1.0
 92
        8
 66
     7
 43
1.0
 76
     1
 77
     6
 78
     2
 67
     7
 79
     5
170
     0
171
     0
290
     0
174
     0
 93
        1
 44
0.0
173
     0
291
     1
 45
0.0
1001
ACAD
1000
AcDbSavedByObjectVersion
1070
     0
  0
VISUALSTYLE
  5
23A
102
{ACAD_REACTORS
330
32
102
}
330
32
100
AcDbVisualStyle
  2
Flat
 70
     0
 71
     2
 72
     1
 73
     1
 90
        2
 40
-0.6
 41
30.0
 62
     5
 63
     7
421
 16777215
 74
     0
 91
        4
 64
     7
 65
   257
 75
     1
175
     1
 42
1.0
 92
        8
 66
     7
 43
1.0
 76
     1
 77
     6
 78
     2
 67
     7
 79
     5
170
     0
171
     0
290
     0
174
     0
 93
       13
 44
0.0
173
     0
291
     1
 45
0.0
1001
ACAD
1000
AcDbSavedByObjectVersion
1070
     0
  0
VISUALSTYLE
  5
23B
102
{ACAD_REACTORS
330
32
102
}
330
32
100
AcDbVisualStyle
  2
FlatWithEdges
 70
     1
 71
     2
 72
     1
 73
     1
 90
        2
 40
-0.6
 41
30.0
 62
     5
 63
     7
421
 16777215
 74
     1
 91
        4
 64
     7
 65
   257
 75
     1
175
     1
 42
1.0
 92
        0
 66
   257
 43
1.0
 76
     1
 77
     6
 78
     2
 67
     7
 79
     5
170
     0
171
     0
290
     0
174
     0
 93
       13
 44
0.0
173
     0
291
     1
 45
0.0
1001
ACAD
1000
AcDbSavedByObjectVersion
1070
     0
  0
VISUALSTYLE
  5
23C
102
{ACAD_REACTORS
330
32
102
}
330
32
100
AcDbVisualStyle
  2
Gouraud
 70
     2
 71
     2
 72
     2
 73
     1
 90
        2
 40
-0.6
 41
30.0
 62
     5
 63
     7
421
 16777215
 74
     0
 91
        4
 64
     7
 65
   257
 75
     1
175
     1
 42
1.0
 92
        0
 66
     7
 43
1.0
 76
     1
 77
     6
 78
     2
 67
     7
 79
     5
170
     0
171
     0
290
     0
174
     0
 93
       13
 44
0.0
173
     0
291
     1
 45
0.0
1001
ACAD
1000
AcDbSavedByObjectVersion
1070
     0
  0
VISUALSTYLE
  5
23D
102
{ACAD_REACTORS
330
32
102
}
330
32
100
AcDbVisualStyle
  2
GouraudWithEdges
 70
     3
 71
     2
 72
     2
 73
     1
 90
        2
 40
-0.6
 41
30.0
 62
     5
 63
     7
421
 16777215
 74
     1
 91
        4
 64
     7
 65
   257
 75
     1
175
     1
 42
1.0
 92
        0
 66
   257
 43
1.0
 76
     1
 77
     6
 78
     2
 67
     7
 79
     5
170
     0
171
     0
290
     0
174
     0
 93
       13
 44
0.0
173
     0
291
     1
 45
0.0
1001
ACAD
1000
AcDbSavedByObjectVersion
1070
     0
  0
VISUALSTYLE
  5
244
102
{ACAD_REACTORS
330
32
102
}
330
32
100
AcDbVisualStyle
  2
Linepattern
 70
    14
 71
     2
 72
     2
 73
     0
 90
        0
 40
-0.6
 41
-30.0
 62
     5
 63
     7
421
 16777215
 74
     1
 91
        4
 64
     7
 65
   257
 75
     7
175
     7
 42
1.0
 92
        8
 66
     7
 43
1.0
 76
     1
 77
     6
 78
     2
 67
     7
 79
     5
170
     0
171
     0
290
     0
174
     0
 93
        1
 44
0.0
173
     0
291
     1
 45
0.0
1001
ACAD
1000
AcDbSavedByObjectVersion
1070
     0
  0
VISUALSTYLE
  5
62
102
{ACAD_REACTORS
330
32
102
}
330
32
100
AcDbVisualStyle
  2
Realistic
 70
     8
 71
     2
 72
     2
 73
     0
 90
        0
 40
-0.6
 41
-30.0
 62
     5
 63
     7
 74
     1
 91
        0
 64
     7
 65
   257
 75
     1
175
     1
 42
1.0
 92
        8
 66
     8
 43
1.0
 76
     1
 77
     6
 78
     2
 67
     7
 79
     5
170
     0
171
     0
290
     0
174
     0
 93
       13
 44
0.0
173
     0
291
     0
 45
0.0
1001
ACAD
1000
AcDbSavedByObjectVersion
1070
     0
  0
VISUALSTYLE
  5
243
102
{ACAD_REACTORS
330
32
102
}
330
32
100
AcDbVisualStyle
  2
Thicken
 70
    13
 71
     2
 72
     2
 73
     0
 90
        0
 40
-0.6
 41
-30.0
 62
     5
 63
     7
421
 16777215
 74
     1
 91
        4
 64
     7
 65
   257
 75
     1
175
     1
 42
1.0
 92
       12
 66
     7
 43
1.0
 76
     1
 77
     6
 78
     2
 67
     7
 79
     5
170
     0
171
     0
290
     0
174
     0
 93
        1
 44
0.0
173
     0
291
     1
 45
0.0
1001
ACAD
1000
AcDbSavedByObjectVersion
1070
     0
  0
DICTIONARYVAR
  5
234
102
{ACAD_REACTORS
330
230
102
}
330
230
100
DictionaryVariables
280
     0
  1
1:1
  0
DICTIONARYVAR
  5
232
102
{ACAD_REACTORS
330
230
102
}
330
230
100
DictionaryVariables
280
     0
  1
STANDARD
  0
DICTIONARYVAR
  5
231
102
{ACAD_REACTORS
330
230
102
}
330
230
100
DictionaryVariables
280
     0
  1
STANDARD
  0
DICTIONARYVAR
  5
238
102
{ACAD_REACTORS
330
230
102
}
330
230
100
DictionaryVariables
280
     0
  1
2
  0
DICTIONARYVAR
  5
237
102
{ACAD_REACTORS
330
230
102
}
330
230
100
DictionaryVariables
280
     0
  1
1
  0
DICTIONARYVAR
  5
236
102
{ACAD_REACTORS
330
230
102
}
330
230
100
DictionaryVariables
280
     0
  1
0
  0
DICTIONARYVAR
  5
24F
102
{ACAD_REACTORS
330
230
102
}
330
230
100
DictionaryVariables
280
     0
  1
0
  0
DICTIONARYVAR
  5
233
102
{ACAD_REACTORS
330
230
102
}
330
230
100
DictionaryVariables
280
     0
  1
1
  0
DICTIONARYVAR
  5
235
102
{ACAD_REACTORS
330
230
102
}
330
230
100
DictionaryVariables
280
     0
  1
127
  0
DICTIONARY
  5
52
330
51
100
AcDbDictionary
280
     1
281
     1
  3
ACAD_XREC_ROUNDTRIP
360
272
  3
BUMPTILE
360
53
  3
DIFFUSETILE
360
54
  3
OPACITYTILE
360
55
  3
REFLECTIONTILE
360
56
  3
REFRACTIONTILE
360
57
  3
SPECULARTILE
360
58
  0
DICTIONARY
  5
4A
330
49
100
AcDbDictionary
280
     1
281
     1
  3
ACAD_XREC_ROUNDTRIP
360
271
  3
BUMPTILE
360
4B
  3
DIFFUSETILE
360
4C
  3
OPACITYTILE
360
4D
  3
REFLECTIONTILE
360
4E
  3
REFRACTIONTILE
360
4F
  3
SPECULARTILE
360
50
  0
DICTIONARY
  5
F
330
D
100
AcDbDictionary
280
     1
281
     1
  3
ACAD_XREC_ROUNDTRIP
360
270
  3
BUMPTILE
360
10
  3
DIFFUSETILE
360
11
  3
OPACITYTILE
360
12
  3
REFLECTIONTILE
360
13
  3
REFRACTIONTILE
360
14
  3
SPECULARTILE
360
15
  0
DICTIONARY
  5
61
330
60
100
AcDbDictionary
280
     1
281
     1
  3
ACAD_ROUNDTRIP_2008_TABLESTYLE_CELLSTYLEMAP
360
26B
  3
ACAD_XREC_ROUNDTRIP
360
273
  0
XRECORD
  5
272
102
{ACAD_REACTORS
330
52
102
}
330
52
100
AcDbXrecord
280
     1
102
MATERIAL
148
0.0
149
0.0
149
0.0
 93
        0
 94
      127
282
     0
 72
     0
 77
     0
171
     0
175
     0
179
     0
273
     0
  0
XRECORD
  5
53
102
{ACAD_REACTORS
330
52
102
}
330
52
100
AcDbXrecord
280
     1
270
     1
271
     1
  0
XRECORD
  5
54
102
{ACAD_REACTORS
330
52
102
}
330
52
100
AcDbXrecord
280
     1
270
     1
271
     1
  0
XRECORD
  5
55
102
{ACAD_REACTORS
330
52
102
}
330
52
100
AcDbXrecord
280
     1
270
     1
271
     1
  0
XRECORD
  5
56
102
{ACAD_REACTORS
330
52
102
}
330
52
100
AcDbXrecord
280
     1
270
     1
271
     1
  0
XRECORD
  5
57
102
{ACAD_REACTORS
330
52
102
}
330
52
100
AcDbXrecord
280
     1
270
     1
271
     1
  0
XRECORD
  5
58
102
{ACAD_REACTORS
330
52
102
}
330
52
100
AcDbXrecord
280
     1
270
     1
271
     1
  0
XRECORD
  5
271
102
{ACAD_REACTORS
330
4A
102
}
330
4A
100
AcDbXrecord
280
     1
102
MATERIAL
148
0.0
149
0.0
149
0.0
 93
        0
 94
      127
282
     0
 72
     0
 77
     0
171
     0
175
     0
179
     0
273
     0
  0
XRECORD
  5
4B
102
{ACAD_REACTORS
330
4A
102
}
330
4A
100
AcDbXrecord
280
     1
270
     1
271
     1
  0
XRECORD
  5
4C
102
{ACAD_REACTORS
330
4A
102
}
330
4A
100
AcDbXrecord
280
     1
270
     1
271
     1
  0
XRECORD
  5
4D
102
{ACAD_REACTORS
330
4A
102
}
330
4A
100
AcDbXrecord
280
     1
270
     1
271
     1
  0
XRECORD
  5
4E
102
{ACAD_REACTORS
330
4A
102
}
330
4A
100
AcDbXrecord
280
     1
270
     1
271
     1
  0
XRECORD
  5
4F
102
{ACAD_REACTORS
330
4A
102
}
330
4A
100
AcDbXrecord
280
     1
270
     1
271
     1
  0
XRECORD
  5
50
102
{ACAD_REACTORS
330
4A
102
}
330
4A
100
AcDbXrecord
280
     1
270
     1
271
     1
  0
XRECORD
  5
270
102
{ACAD_REACTORS
330
F
102
}
330
F
100
AcDbXrecord
280
     1
102
MATERIAL
148
0.0
149
0.0
149
0.0
 93
        0
 94
      127
282
     0
 72
     0
 77
     0
171
     0
175
     0
179
     0
273
     0
  0
XRECORD
  5
10
102
{ACAD_REACTORS
330
F
102
}
330
F
100
AcDbXrecord
280
     1
270
     1
271
     1
  0
XRECORD
  5
11
102
{ACAD_REACTORS
330
F
102
}
330
F
100
AcDbXrecord
280
     1
270
     1
271
     1
  0
XRECORD
  5
12
102
{ACAD_REACTORS
330
F
102
}
330
F
100
AcDbXrecord
280
     1
270
     1
271
     1
  0
XRECORD
  5
13
102
{ACAD_REACTORS
330
F
102
}
330
F
100
AcDbXrecord
280
     1
270
     1
271
     1
  0
XRECORD
  5
14
102
{ACAD_REACTORS
330
F
102
}
330
F
100
AcDbXrecord
280
     1
270
     1
271
     1
  0
XRECORD
  5
15
102
{ACAD_REACTORS
330
F
102
}
330
F
100
AcDbXrecord
280
     1
270
     1
271
     1
  0
CELLSTYLEMAP
  5
26B
102
{ACAD_REACTORS
330
61
102
}
330
61
100
AcDbCellStyleMap
 90
        3
300
CELLSTYLE
  1
TABLEFORMAT_BEGIN
 90
        5
170
     1
 91
        0
 92
    32768
 62
   257
 93
        1
300
CONTENTFORMAT
  1
CONTENTFORMAT_BEGIN
 90
        0
 91
        0
 92
      512
 93
        0
300

 40
0.0
140
1.0
 94
        5
 62
     0
340
28
144
0.25
309
CONTENTFORMAT_END
171
     1
301
MARGIN
  1
CELLMARGIN_BEGIN
 40
0.06
 40
0.06
 40
0.06
 40
0.06
 40
0.18
 40
0.18
309
CELLMARGIN_END
 94
        6
 95
        1
302
GRIDFORMAT
  1
GRIDFORMAT_BEGIN
 90
        0
 91
        1
 62
     0
 92
       -2
340
0
 93
        0
 40
0.045
309
GRIDFORMAT_END
 95
        2
302
GRIDFORMAT
  1
GRIDFORMAT_BEGIN
 90
        0
 91
        1
 62
     0
 92
       -2
340
0
 93
        0
 40
0.045
309
GRIDFORMAT_END
 95
        4
302
GRIDFORMAT
  1
GRIDFORMAT_BEGIN
 90
        0
 91
        1
 62
     0
 92
       -2
340
0
 93
        0
 40
0.045
309
GRIDFORMAT_END
 95
        8
302
GRIDFORMAT
  1
GRIDFORMAT_BEGIN
 90
        0
 91
        1
 62
     0
 92
       -2
340
0
 93
        0
 40
0.045
309
GRIDFORMAT_END
 95
       16
302
GRIDFORMAT
  1
GRIDFORMAT_BEGIN
 90
        0
 91
        1
 62
     0
 92
       -2
340
0
 93
        0
 40
0.045
309
GRIDFORMAT_END
 95
       32
302
GRIDFORMAT
  1
GRIDFORMAT_BEGIN
 90
        0
 91
        1
 62
     0
 92
       -2
340
0
 93
        0
 40
0.045
309
GRIDFORMAT_END
309
TABLEFORMAT_END
  1
CELLSTYLE_BEGIN
 90
        1
 91
        1
300
_TITLE
309
CELLSTYLE_END
300
CELLSTYLE
  1
TABLEFORMAT_BEGIN
 90
        5
170
     1
 91
        0
 92
        0
 62
   257
 93
        1
300
CONTENTFORMAT
  1
CONTENTFORMAT_BEGIN
 90
        0
 91
        0
 92
      512
 93
        0
300

 40
0.0
140
1.0
 94
        5
 62
     0
340
28
144
0.18
309
CONTENTFORMAT_END
171
     1
301
MARGIN
  1
CELLMARGIN_BEGIN
 40
0.06
 40
0.06
 40
0.06
 40
0.06
 40
0.18
 40
0.18
309
CELLMARGIN_END
 94
        6
 95
        1
302
GRIDFORMAT
  1
GRIDFORMAT_BEGIN
 90
        0
 91
        1
 62
     0
 92
       -2
340
0
 93
        0
 40
0.045
309
GRIDFORMAT_END
 95
        2
302
GRIDFORMAT
  1
GRIDFORMAT_BEGIN
 90
        0
 91
        1
 62
     0
 92
       -2
340
0
 93
        0
 40
0.045
309
GRIDFORMAT_END
 95
        4
302
GRIDFORMAT
  1
GRIDFORMAT_BEGIN
 90
        0
 91
        1
 62
     0
 92
       -2
340
0
 93
        0
 40
0.045
309
GRIDFORMAT_END
 95
        8
302
GRIDFORMAT
  1
GRIDFORMAT_BEGIN
 90
        0
 91
        1
 62
     0
 92
       -2
340
0
 93
        0
 40
0.045
309
GRIDFORMAT_END
 95
       16
302
GRIDFORMAT
  1
GRIDFORMAT_BEGIN
 90
        0
 91
        1
 62
     0
 92
       -2
340
0
 93
        0
 40
0.045
309
GRIDFORMAT_END
 95
       32
302
GRIDFORMAT
  1
GRIDFORMAT_BEGIN
 90
        0
 91
        1
 62
     0
 92
       -2
340
0
 93
        0
 40
0.045
309
GRIDFORMAT_END
309
TABLEFORMAT_END
  1
CELLSTYLE_BEGIN
 90
        2
 91
        1
300
_HEADER
309
CELLSTYLE_END
300
CELLSTYLE
  1
TABLEFORMAT_BEGIN
 90
        5
170
     1
 91
        0
 92
        0
 62
   257
 93
        1
300
CONTENTFORMAT
  1
CONTENTFORMAT_BEGIN
 90
        0
 91
        0
 92
      512
 93
        0
300

 40
0.0
140
1.0
 94
        2
 62
     0
340
28
144
0.18
309
CONTENTFORMAT_END
171
     1
301
MARGIN
  1
CELLMARGIN_BEGIN
 40
0.06
 40
0.06
 40
0.06
 40
0.06
 40
0.18
 40
0.18
309
CELLMARGIN_END
 94
        6
 95
        1
302
GRIDFORMAT
  1
GRIDFORMAT_BEGIN
 90
        0
 91
        1
 62
     0
 92
       -2
340
0
 93
        0
 40
0.045
309
GRIDFORMAT_END
 95
        2
302
GRIDFORMAT
  1
GRIDFORMAT_BEGIN
 90
        0
 91
        1
 62
     0
 92
       -2
340
0
 93
        0
 40
0.045
309
GRIDFORMAT_END
 95
        4
302
GRIDFORMAT
  1
GRIDFORMAT_BEGIN
 90
        0
 91
        1
 62
     0
 92
       -2
340
0
 93
        0
 40
0.045
309
GRIDFORMAT_END
 95
        8
302
GRIDFORMAT
  1
GRIDFORMAT_BEGIN
 90
        0
 91
        1
 62
     0
 92
       -2
340
0
 93
        0
 40
0.045
309
GRIDFORMAT_END
 95
       16
302
GRIDFORMAT
  1
GRIDFORMAT_BEGIN
 90
        0
 91
        1
 62
     0
 92
       -2
340
0
 93
        0
 40
0.045
309
GRIDFORMAT_END
 95
       32
302
GRIDFORMAT
  1
GRIDFORMAT_BEGIN
 90
        0
 91
        1
 62
     0
 92
       -2
340
0
 93
        0
 40
0.045
309
GRIDFORMAT_END
309
TABLEFORMAT_END
  1
CELLSTYLE_BEGIN
 90
        3
 91
        2
300
_DATA
309
CELLSTYLE_END
  0
XRECORD
  5
273
102
{ACAD_REACTORS
330
61
102
}
330
61
100
AcDbXrecord
280
     1
102
ACAD_ROUNDTRIP_PRE2007_TABLESTYLE
 90
      512
 91
        0
  1

 92
      512
 93
        0
  2

 94
      512
 95
        0
  3

  0
ENDSEC
  0
EOF
