  0
SECTION
  2
HEADER
  9
$ACADVER
  1
AC1015
  9
$ACADMAINTVER
 70
    20
  9
$DWGCODEPAGE
  3
ANSI_949
  9
$INSBASE
 10
20926.23269378688
 20
-5565.255571338923
 30
0.0
  9
$EXTMIN
 10
0.3076181657468169
 20
-3.019615705744058
 30
-0.0015258207003583
  9
$EXTMAX
 10
352.0806893753827
 20
359.5874511187949
 30
0.0000000349246037
  9
$LIMMIN
 10
0.0
 20
0.0
  9
$LIMMAX
 10
420.0
 20
297.0
  9
$ORTHOMODE
 70
     0
  9
$REGENMODE
 70
     1
  9
$FILLMODE
 70
     1
  9
$QTEXTMODE
 70
     0
  9
$MIRRTEXT
 70
     0
  9
$LTSCALE
 40
1.0
  9
$ATTMODE
 70
     1
  9
$TEXTSIZE
 40
5.777225951253058
  9
$TRACEWID
 40
1.0
  9
$TEXTSTYLE
  7
STANDARD
  9
$CLAYER
  8
0
  9
$CELTYPE
  6
BYLAYER
  9
$CECOLOR
 62
   256
  9
$CELTSCALE
 40
1.0
  9
$DISPSILH
 70
     0
  9
$DIMSCALE
 40
1.0
  9
$DIMASZ
 40
3.0
  9
$DIMEXO
 40
1.0
  9
$DIMDLI
 40
10.0
  9
$DIMRND
 40
0.0
  9
$DIMDLE
 40
0.0
  9
$DIMEXE
 40
0.6
  9
$DIMTP
 40
0.0
  9
$DIMTM
 40
0.0
  9
$DIMTXT
 40
3.5
  9
$DIMCEN
 40
0.09
  9
$DIMTSZ
 40
0.0
  9
$DIMTOL
 70
     0
  9
$DIMLIM
 70
     0
  9
$DIMTIH
 70
     0
  9
$DIMTOH
 70
     0
  9
$DIMSE1
 70
     0
  9
$DIMSE2
 70
     0
  9
$DIMTAD
 70
     1
  9
$DIMZIN
 70
     8
  9
$DIMBLK
  1

  9
$DIMASO
 70
     1
  9
$DIMSHO
 70
     1
  9
$DIMPOST
  1

  9
$DIMAPOST
  1

  9
$DIMALT
 70
     0
  9
$DIMALTD
 70
     2
  9
$DIMALTF
 40
25.4
  9
$DIMLFAC
 40
1.0
  9
$DIMTOFL
 70
     1
  9
$DIMTVP
 40
0.0
  9
$DIMTIX
 70
     1
  9
$DIMSOXD
 70
     0
  9
$DIMSAH
 70
     0
  9
$DIMBLK1
  1

  9
$DIMBLK2
  1

  9
$DIMSTYLE
  2
1_1_2
  9
$DIMCLRD
 70
   123
  9
$DIMCLRE
 70
   123
  9
$DIMCLRT
 70
     3
  9
$DIMTFAC
 40
1.0
  9
$DIMGAP
 40
1.0
  9
$DIMJUST
 70
     0
  9
$DIMSD1
 70
     0
  9
$DIMSD2
 70
     0
  9
$DIMTOLJ
 70
     1
  9
$DIMTZIN
 70
     0
  9
$DIMALTZ
 70
     0
  9
$DIMALTTZ
 70
     0
  9
$DIMUPT
 70
     1
  9
$DIMDEC
 70
     2
  9
$DIMTDEC
 70
     2
  9
$DIMALTU
 70
     2
  9
$DIMALTTD
 70
     2
  9
$DIMTXSTY
  7
STANDARD
  9
$DIMAUNIT
 70
     1
  9
$DIMADEC
 70
     1
  9
$DIMALTRND
 40
0.0
  9
$DIMAZIN
 70
     2
  9
$DIMDSEP
 70
    46
  9
$DIMATFIT
 70
     3
  9
$DIMFRAC
 70
     0
  9
$DIMLDRBLK
  1

  9
$DIMLUNIT
 70
     2
  9
$DIMLWD
 70
    -2
  9
$DIMLWE
 70
    -2
  9
$DIMTMOVE
 70
     0
  9
$LUNITS
 70
     2
  9
$LUPREC
 70
     4
  9
$SKETCHINC
 40
1.0
  9
$FILLETRAD
 40
0.5
  9
$AUNITS
 70
     0
  9
$AUPREC
 70
     0
  9
$MENU
  1
.
  9
$ELEVATION
 40
0.0
  9
$PELEVATION
 40
0.0
  9
$THICKNESS
 40
0.0
  9
$LIMCHECK
 70
     0
  9
$CHAMFERA
 40
1.0
  9
$CHAMFERB
 40
1.0
  9
$CHAMFERC
 40
20.0
  9
$CHAMFERD
 40
0.0
  9
$SKPOLY
 70
     0
  9
$TDCREATE
 40
2452839.586179271
  9
$TDUCREATE
 40
2452839.211179271
  9
$TDUPDATE
 40
2456237.797693809
  9
$TDUUPDATE
 40
2456237.422693808
  9
$TDINDWG
 40
11.1266953704
  9
$TDUSRTIMER
 40
11.1266950000
  9
$USRTIMER
 70
     1
  9
$ANGBASE
 50
0.0
  9
$ANGDIR
 70
     0
  9
$PDMODE
 70
     0
  9
$PDSIZE
 40
0.0
  9
$PLINEWID
 40
0.0
  9
$SPLFRAME
 70
     0
  9
$SPLINETYPE
 70
     6
  9
$SPLINESEGS
 70
   800
  9
$HANDSEED
  5
50D
  9
$SURFTAB1
 70
     6
  9
$SURFTAB2
 70
     6
  9
$SURFTYPE
 70
     6
  9
$SURFU
 70
     6
  9
$SURFV
 70
     6
  9
$UCSBASE
  2

  9
$UCSNAME
  2

  9
$UCSORG
 10
0.0
 20
0.0
 30
0.0
  9
$UCSXDIR
 10
1.0
 20
0.0
 30
0.0
  9
$UCSYDIR
 10
0.0
 20
1.0
 30
0.0
  9
$UCSORTHOREF
  2

  9
$UCSORTHOVIEW
 70
     0
  9
$UCSORGTOP
 10
0.0
 20
0.0
 30
0.0
  9
$UCSORGBOTTOM
 10
0.0
 20
0.0
 30
0.0
  9
$UCSORGLEFT
 10
0.0
 20
0.0
 30
0.0
  9
$UCSORGRIGHT
 10
0.0
 20
0.0
 30
0.0
  9
$UCSORGFRONT
 10
0.0
 20
0.0
 30
0.0
  9
$UCSORGBACK
 10
0.0
 20
0.0
 30
0.0
  9
$PUCSBASE
  2

  9
$PUCSNAME
  2

  9
$PUCSORG
 10
0.0
 20
0.0
 30
0.0
  9
$PUCSXDIR
 10
1.0
 20
0.0
 30
0.0
  9
$PUCSYDIR
 10
0.0
 20
1.0
 30
0.0
  9
$PUCSORTHOREF
  2

  9
$PUCSORTHOVIEW
 70
     0
  9
$PUCSORGTOP
 10
0.0
 20
0.0
 30
0.0
  9
$PUCSORGBOTTOM
 10
0.0
 20
0.0
 30
0.0
  9
$PUCSORGLEFT
 10
0.0
 20
0.0
 30
0.0
  9
$PUCSORGRIGHT
 10
0.0
 20
0.0
 30
0.0
  9
$PUCSORGFRONT
 10
0.0
 20
0.0
 30
0.0
  9
$PUCSORGBACK
 10
0.0
 20
0.0
 30
0.0
  9
$USERI1
 70
     0
  9
$USERI2
 70
     0
  9
$USERI3
 70
     0
  9
$USERI4
 70
     0
  9
$USERI5
 70
     0
  9
$USERR1
 40
0.0
  9
$USERR2
 40
0.0
  9
$USERR3
 40
0.0
  9
$USERR4
 40
0.0
  9
$USERR5
 40
0.0
  9
$WORLDVIEW
 70
     1
  9
$SHADEDGE
 70
     3
  9
$SHADEDIF
 70
    70
  9
$TILEMODE
 70
     1
  9
$MAXACTVP
 70
    48
  9
$PINSBASE
 10
0.0
 20
0.0
 30
0.0
  9
$PLIMCHECK
 70
     0
  9
$PEXTMIN
 10
0.0
 20
0.0
 30
0.0
  9
$PEXTMAX
 10
0.0
 20
0.0
 30
0.0
  9
$PLIMMIN
 10
0.0
 20
0.0
  9
$PLIMMAX
 10
12.0
 20
9.0
  9
$UNITMODE
 70
     0
  9
$VISRETAIN
 70
     1
  9
$PLINEGEN
 70
     0
  9
$PSLTSCALE
 70
     1
  9
$TREEDEPTH
 70
  3020
  9
$CMLSTYLE
  2
STANDARD
  9
$CMLJUST
 70
     0
  9
$CMLSCALE
 40
20.0
  9
$PROXYGRAPHICS
 70
     1
  9
$MEASUREMENT
 70
     1
  9
$CELWEIGHT
370
    -1
  9
$ENDCAPS
280
     0
  9
$JOINSTYLE
280
     0
  9
$LWDISPLAY
290
     0
  9
$INSUNITS
 70
     4
  9
$HYPERLINKBASE
  1

  9
$STYLESHEET
  1

  9
$XEDIT
290
     1
  9
$CEPSNTYPE
380
     0
  9
$PSTYLEMODE
290
     1
  9
$FINGERPRINTGUID
  2
{FDEAD578-A652-11D2-9A35-0060089B3A3F}
  9
$VERSIONGUID
  2
{9762C7EF-0161-4A3F-BB31-C9E6CE9C9796}
  9
$EXTNAMES
290
     1
  9
$PSVPSCALE
 40
0.0
  9
$OLESTARTUP
290
     0
  0
ENDSEC
  0
SECTION
  2
CLASSES
  0
CLASS
  1
ACDBDICTIONARYWDFLT
  2
AcDbDictionaryWithDefault
  3
ObjectDBX Classes
 90
        0
280
     0
281
     0
  0
CLASS
  1
ACDBPLACEHOLDER
  2
AcDbPlaceHolder
  3
ObjectDBX Classes
 90
        0
280
     0
281
     0
  0
CLASS
  1
LAYOUT
  2
AcDbLayout
  3
ObjectDBX Classes
 90
        0
280
     0
281
     0
  0
CLASS
  1
DICTIONARYVAR
  2
AcDbDictionaryVar
  3
ObjectDBX Classes
 90
        0
280
     0
281
     0
  0
CLASS
  1
DIMASSOC
  2
AcDbDimAssoc
  3
"AcDbDimAssoc|Product Desc:     AcDim ARX App For Dimension|Company:          Autodesk, Inc.|WEB Address:      www.autodesk.com"
 90
        0
280
     0
281
     0
  0
CLASS
  1
MATERIAL
  2
AcDbMaterial
  3
ObjectDBX Classes
 90
     1153
280
     0
281
     0
  0
CLASS
  1
VISUALSTYLE
  2
AcDbVisualStyle
  3
ObjectDBX Classes
 90
     4095
280
     0
281
     0
  0
CLASS
  1
TABLESTYLE
  2
AcDbTableStyle
  3
ObjectDBX Classes
 90
     4095
280
     0
281
     0
  0
CLASS
  1
SCALE
  2
AcDbScale
  3
ObjectDBX Classes
 90
     1153
280
     0
281
     0
  0
CLASS
  1
MLEADERSTYLE
  2
AcDbMLeaderStyle
  3
ACDB_MLEADERSTYLE_CLASS
 90
     4095
280
     0
281
     0
  0
CLASS
  1
SORTENTSTABLE
  2
AcDbSortentsTable
  3
ObjectDBX Classes
 90
        0
280
     0
281
     0
  0
CLASS
  1
CELLSTYLEMAP
  2
AcDbCellStyleMap
  3
ObjectDBX Classes
 90
     1152
280
     0
281
     0
  0
ENDSEC
  0
SECTION
  2
TABLES
  0
TABLE
  2
VPORT
  5
90
330
0
100
AcDbSymbolTable
 70
     1
  0
VPORT
  5
3DA
330
90
100
AcDbSymbolTableRecord
100
AcDbViewportTableRecord
  2
*ACTIVE
 70
     0
 10
0.0
 20
0.0
 11
1.0
 21
1.0
 12
176.1941537705647
 22
178.2839177065254
 13
0.0
 23
0.0
 14
10.0
 24
10.0
 15
10.0
 25
10.0
 16
0.0
 26
0.0
 36
1.0
 17
0.0
 27
0.0
 37
0.0
 40
365.2963652187878
 41
1.584158415841584
 42
50.0
 43
0.0
 44
0.0
 50
0.0
 51
0.0
 71
     0
 72
 10000
 73
     1
 74
     3
 75
     0
 76
     0
 77
     0
 78
     1
281
     0
 65
     1
110
0.0
120
0.0
130
0.0
111
1.0
121
0.0
131
0.0
112
0.0
122
1.0
132
0.0
 79
     0
146
0.0
1001
ACAD_NAV_VCDISPLAY
1070
     3
  0
ENDTAB
  0
TABLE
  2
LTYPE
  5
8B
330
0
100
AcDbSymbolTable
 70
     3
  0
LTYPE
  5
8C
330
8B
100
AcDbSymbolTableRecord
100
AcDbLinetypeTableRecord
  2
BYBLOCK
 70
     0
  3

 72
    65
 73
     0
 40
0.0
  0
LTYPE
  5
8D
330
8B
100
AcDbSymbolTableRecord
100
AcDbLinetypeTableRecord
  2
BYLAYER
 70
     0
  3

 72
    65
 73
     0
 40
0.0
  0
LTYPE
  5
9
330
8B
100
AcDbSymbolTableRecord
100
AcDbLinetypeTableRecord
  2
CONTINUOUS
 70
     0
  3
Solid line
 72
    65
 73
     0
 40
0.0
  0
LTYPE
  5
D9
330
8B
100
AcDbSymbolTableRecord
100
AcDbLinetypeTableRecord
  2
CENTER
 70
     0
  3
Center ____ _ ____ _ ____ _ ____ _ ____ _ ____
 72
    65
 73
     4
 40
50.8
 49
31.75
 74
     0
 49
-6.349999999999997
 74
     0
 49
6.349999999999997
 74
     0
 49
-6.349999999999997
 74
     0
  0
LTYPE
  5
11B
330
8B
100
AcDbSymbolTableRecord
100
AcDbLinetypeTableRecord
  2
CENTERX2
 70
     0
  3
Center (2x) ________  __  ________  __  _____
 72
    65
 73
     4
 40
101.6
 49
63.5
 74
     0
 49
-12.7
 74
     0
 49
12.7
 74
     0
 49
-12.7
 74
     0
  0
ENDTAB
  0
TABLE
  2
LAYER
  5
12
102
{ACAD_XDICTIONARY
360
13
102
}
330
0
100
AcDbSymbolTable
 70
     7
  0
LAYER
  5
5
102
{ACAD_XDICTIONARY
360
4BB
102
}
330
12
100
AcDbSymbolTableRecord
100
AcDbLayerTableRecord
  2
0
 70
     0
 62
     7
  6
CONTINUOUS
370
    -3
390
6
  0
LAYER
  5
205
102
{ACAD_XDICTIONARY
360
4BD
102
}
330
12
100
AcDbSymbolTableRecord
100
AcDbLayerTableRecord
  2
3
 70
     0
 62
     3
  6
CONTINUOUS
370
    -3
390
6
  0
LAYER
  5
AC
330
12
100
AcDbSymbolTableRecord
100
AcDbLayerTableRecord
  2
DEFPOINTS
 70
     0
 62
     7
  6
CONTINUOUS
290
     0
370
    -3
390
6
  0
LAYER
  5
9D
102
{ACAD_XDICTIONARY
360
4BF
102
}
330
12
100
AcDbSymbolTableRecord
100
AcDbLayerTableRecord
  2
DIM
 70
     0
 62
     3
  6
CONTINUOUS
370
    -3
390
6
  0
LAYER
  5
11A
102
{ACAD_XDICTIONARY
360
4C1
102
}
330
12
100
AcDbSymbolTableRecord
100
AcDbLayerTableRecord
  2
CL
 70
     0
 62
     1
  6
CENTERX2
370
    -3
390
6
  0
LAYER
  5
D8
102
{ACAD_XDICTIONARY
360
4C3
102
}
330
12
100
AcDbSymbolTableRecord
100
AcDbLayerTableRecord
  2
CEN
 70
     0
 62
     1
  6
CENTER
370
    -3
390
6
  0
LAYER
  5
22E
102
{ACAD_XDICTIONARY
360
4C5
102
}
330
12
100
AcDbSymbolTableRecord
100
AcDbLayerTableRecord
  2
2
 70
     0
 62
     2
  6
CONTINUOUS
370
    -3
390
6
  0
ENDTAB
  0
TABLE
  2
STYLE
  5
88
330
0
100
AcDbSymbolTable
 70
     1
  0
STYLE
  5
89
330
88
100
AcDbSymbolTableRecord
100
AcDbTextStyleTableRecord
  2
STANDARD
 70
     0
 40
0.0
 41
1.0
 50
0.0
 71
     0
 42
5.777225951253058
  3
romans.shx
  4
whgtxt.shx
  0
ENDTAB
  0
TABLE
  2
VIEW
  5
8E
330
0
100
AcDbSymbolTable
 70
     0
  0
ENDTAB
  0
TABLE
  2
UCS
  5
8F
330
0
100
AcDbSymbolTable
 70
     0
  0
ENDTAB
  0
TABLE
  2
APPID
  5
92
330
0
100
AcDbSymbolTable
 70
     4
  0
APPID
  5
93
330
92
100
AcDbSymbolTableRecord
100
AcDbRegAppTableRecord
  2
ACAD
 70
     0
  0
APPID
  5
414
330
92
100
AcDbSymbolTableRecord
100
AcDbRegAppTableRecord
  2
CONTENTBLOCKICON
 70
     0
  0
APPID
  5
4CD
330
92
100
AcDbSymbolTableRecord
100
AcDbRegAppTableRecord
  2
ACAD_NAV_VCDISPLAY
 70
     0
  0
APPID
  5
508
330
92
100
AcDbSymbolTableRecord
100
AcDbRegAppTableRecord
  2
ACAD_MLEADERVER
 70
     0
  0
ENDTAB
  0
TABLE
  2
DIMSTYLE
  5
94
330
0
100
AcDbSymbolTable
 70
     2
100
AcDbDimStyleTable
 71
     1
340
A3
  0
DIMSTYLE
105
A3
102
{ACAD_REACTORS
330
11D
330
293
330
DB
330
2CB
330
106
330
2B0
330
2A1
330
F7
330
1F7
330
C7
330
216
330
146
330
1E0
330
155
330
1D0
330
1BC
330
207
330
EA
330
B3
330
A2
102
}
330
94
100
AcDbSymbolTableRecord
100
AcDbDimStyleTableRecord
  2
STANDARD
 70
     0
 41
2.5
 42
1.0
 43
10.0
 44
0.6
 73
     0
 74
     0
 77
     1
 78
     8
140
3.0
147
1.0
172
     1
174
     1
176
   123
177
   123
178
     3
271
     2
272
     2
275
     1
288
     1
340
89
  0
DIMSTYLE
105
95
330
94
100
AcDbSymbolTableRecord
100
AcDbDimStyleTableRecord
  2
1_1_2
 70
     0
 41
3.0
 42
1.0
 43
10.0
 44
0.6
 73
     0
 74
     0
 77
     1
 78
     8
140
3.5
147
1.0
172
     1
174
     1
176
   123
177
   123
178
     3
271
     2
272
     2
275
     1
288
     1
340
89
  0
ENDTAB
  0
TABLE
  2
BLOCK_RECORD
  5
1
330
0
100
AcDbSymbolTable
 70
    40
  0
BLOCK_RECORD
  5
2
102
{ACAD_XDICTIONARY
360
3
102
}
330
1
100
AcDbSymbolTableRecord
100
AcDbBlockTableRecord
  2
*MODEL_SPACE
340
460
  0
BLOCK_RECORD
  5
D
102
{ACAD_XDICTIONARY
360
E
102
}
330
1
100
AcDbSymbolTableRecord
100
AcDbBlockTableRecord
  2
*PAPER_SPACE
340
461
  0
BLOCK_RECORD
  5
120
330
1
100
AcDbSymbolTableRecord
100
AcDbBlockTableRecord
  2
*D0
340
0
  0
BLOCK_RECORD
  5
116
330
1
100
AcDbSymbolTableRecord
100
AcDbBlockTableRecord
  2
4
340
0
310
2800000020000000200000000100080000000000000400000000000000000000000000000000000000000000000080000080000000808000800000008000800080800000C0C0C000C0DCC000F0CAA6000020400000206000002080000020A0000020C0000020E00000400000004020000040400000406000004080000040A0
310
000040C0000040E00000600000006020000060400000606000006080000060A0000060C0000060E00000800000008020000080400000806000008080000080A0000080C0000080E00000A0000000A0200000A0400000A0600000A0800000A0A00000A0C00000A0E00000C0000000C0200000C0400000C0600000C0800000C0
310
A00000C0C00000C0E00000E0000000E0200000E0400000E0600000E0800000E0A00000E0C00000E0E00040000000400020004000400040006000400080004000A0004000C0004000E00040200000402020004020400040206000402080004020A0004020C0004020E000404000004040200040404000404060004040800040
310
40A0004040C0004040E00040600000406020004060400040606000406080004060A0004060C0004060E00040800000408020004080400040806000408080004080A0004080C0004080E00040A0000040A0200040A0400040A0600040A0800040A0A00040A0C00040A0E00040C0000040C0200040C0400040C0600040C08000
310
40C0A00040C0C00040C0E00040E0000040E0200040E0400040E0600040E0800040E0A00040E0C00040E0E00080000000800020008000400080006000800080008000A0008000C0008000E00080200000802020008020400080206000802080008020A0008020C0008020E00080400000804020008040400080406000804080
310
008040A0008040C0008040E00080600000806020008060400080606000806080008060A0008060C0008060E00080800000808020008080400080806000808080008080A0008080C0008080E00080A0000080A0200080A0400080A0600080A0800080A0A00080A0C00080A0E00080C0000080C0200080C0400080C0600080C0
310
800080C0A00080C0C00080C0E00080E0000080E0200080E0400080E0600080E0800080E0A00080E0C00080E0E000C0000000C0002000C0004000C0006000C0008000C000A000C000C000C000E000C0200000C0202000C0204000C0206000C0208000C020A000C020C000C020E000C0400000C0402000C0404000C0406000C0
310
408000C040A000C040C000C040E000C0600000C0602000C0604000C0606000C0608000C060A000C060C000C060E000C0800000C0802000C0804000C0806000C0808000C080A000C080C000C080E000C0A00000C0A02000C0A04000C0A06000C0A08000C0A0A000C0A0C000C0A0E000C0C00000C0C02000C0C04000C0C06000
310
C0C08000C0C0A000F0FBFF00A4A0A000808080000000FF0000FF000000FFFF00FF000000FF00FF00FFFF0000FFFFFF0000000000000000000000000000000000000000000000000000000000000000000000000000000000000000000000000000000000000000000000000000000000000000000000000000000000000000
310
0000000000000000000000000000000000000000FFFFFFFFFFFFFFFFFFFFFFFFFFFFFFFFFFFFFFFFFF000000000000000000FFFFFF00F9000000000000000000000000000000F9FFF9FF0000000000000000FF00FFF90000000000000000000000000000000000FFFFFF0000000000000000F3F3F9F9000000000000000000
310
00000000000000F9FFF9FF0000000000000000FFF9000000000000000000000000000000000000000000FF0000000000000000FF00F3F300000000000000000000000000000000000000FF0000000000000000FF000000F3000000000000000000000000000000000000FF0000000000000000FF00000000F3000000000000
310
0000000000000000000000FF0000000000000000FF0000000000F3F3000000000000000000000000000000FF0000000000000000FF00000000000000F30000000000000000000000000000FF0000000000000000FF0000000000000000F3F3000000000000000000000000FF0000000000000000FF00000000000000000000
310
F30000000000000000000000FF0000000000000000FF0000000000000000000000F300000000000000000000FF0000000000000000FF000000000000000000000000F3F30000000000000000FF0000000000000000FF0000000000000000000000000000F300000000000000FF0000000000000000FF000000000000000000
310
000000000000F3F30000000000FF0000000000000000FF0000000000000000000000000000000000F300000000FF0000000000000000FF000000000000000000000000000000000000F3000000FF0000000000000000FF00000000000000000000000000000000000000F3F300FF0000000000000000FF0000000000000000
310
00000000000000000000000000FFFF0000000000000000FF00FFF900000000000000000000000000000000F9F900F30000000000000000FF00FFFF00000000000000000000000000000000F9F9FFFFFAF300000000000000FFF900F90000000000000000000000000000F90000F9FFFAFAF300000000000000FFFFFFFFFFFF
310
FFFFFFFFFFFFFFFFFFFFFFFFFFFFFF0000FAFAFAF30000000000000000000000000000000000000000000000000000000000FAFAFAF30000000000000000000000000000000000000000000000000000000000FAFA000000000000000000000000000000000000000000000000000000000000000000000000000000000000
310
0000000000000000000000000000000000000000000000000000000000000000000000000000000000000000000000000000000000000000
102
{BLKREFS
331
142
331
115
102
}
1001
ACAD
1000
DesignCenter Data
1002
{
1070
     1
1070
     4
1002
}
  0
BLOCK_RECORD
  5
2E5
330
1
100
AcDbSymbolTableRecord
100
AcDbBlockTableRecord
  2
*D21
340
0
  0
BLOCK_RECORD
  5
2F1
330
1
100
AcDbSymbolTableRecord
100
AcDbBlockTableRecord
  2
*D22
340
0
  0
BLOCK_RECORD
  5
2FD
330
1
100
AcDbSymbolTableRecord
100
AcDbBlockTableRecord
  2
*D23
340
0
  0
BLOCK_RECORD
  5
309
330
1
100
AcDbSymbolTableRecord
100
AcDbBlockTableRecord
  2
*D24
340
0
  0
BLOCK_RECORD
  5
317
330
1
100
AcDbSymbolTableRecord
100
AcDbBlockTableRecord
  2
*D25
340
0
  0
BLOCK_RECORD
  5
323
330
1
100
AcDbSymbolTableRecord
100
AcDbBlockTableRecord
  2
*D26
340
0
  0
BLOCK_RECORD
  5
32F
330
1
100
AcDbSymbolTableRecord
100
AcDbBlockTableRecord
  2
*D27
340
0
  0
BLOCK_RECORD
  5
33B
330
1
100
AcDbSymbolTableRecord
100
AcDbBlockTableRecord
  2
*D28
340
0
  0
BLOCK_RECORD
  5
347
330
1
100
AcDbSymbolTableRecord
100
AcDbBlockTableRecord
  2
*D29
340
0
  0
BLOCK_RECORD
  5
355
330
1
100
AcDbSymbolTableRecord
100
AcDbBlockTableRecord
  2
*D30
340
0
  0
BLOCK_RECORD
  5
361
330
1
100
AcDbSymbolTableRecord
100
AcDbBlockTableRecord
  2
*D31
340
0
  0
BLOCK_RECORD
  5
36D
330
1
100
AcDbSymbolTableRecord
100
AcDbBlockTableRecord
  2
*D32
340
0
  0
BLOCK_RECORD
  5
379
330
1
100
AcDbSymbolTableRecord
100
AcDbBlockTableRecord
  2
*D33
340
0
  0
BLOCK_RECORD
  5
385
330
1
100
AcDbSymbolTableRecord
100
AcDbBlockTableRecord
  2
*D34
340
0
  0
BLOCK_RECORD
  5
393
330
1
100
AcDbSymbolTableRecord
100
AcDbBlockTableRecord
  2
*D35
340
0
  0
BLOCK_RECORD
  5
39F
330
1
100
AcDbSymbolTableRecord
100
AcDbBlockTableRecord
  2
*D36
340
0
  0
BLOCK_RECORD
  5
3AB
330
1
100
AcDbSymbolTableRecord
100
AcDbBlockTableRecord
  2
*D37
340
0
  0
BLOCK_RECORD
  5
3B7
330
1
100
AcDbSymbolTableRecord
100
AcDbBlockTableRecord
  2
*D38
340
0
  0
BLOCK_RECORD
  5
3C3
330
1
100
AcDbSymbolTableRecord
100
AcDbBlockTableRecord
  2
*D39
340
0
  0
ENDTAB
  0
ENDSEC
  0
SECTION
  2
BLOCKS
  0
BLOCK
  5
4
330
2
100
AcDbEntity
  8
0
100
AcDbBlockBegin
  2
*MODEL_SPACE
 70
     0
 10
0.0
 20
0.0
 30
0.0
  3
*MODEL_SPACE
  1

  0
ENDBLK
  5
A
330
2
100
AcDbEntity
  8
0
100
AcDbBlockEnd
  0
BLOCK
  5
F
330
D
100
AcDbEntity
 67
     1
  8
0
100
AcDbBlockBegin
  2
*PAPER_SPACE
 70
     0
 10
0.0
 20
0.0
 30
0.0
  3
*PAPER_SPACE
  1

  0
ENDBLK
  5
10
330
D
100
AcDbEntity
 67
     1
  8
0
100
AcDbBlockEnd
  0
BLOCK
  5
129
330
120
100
AcDbEntity
  8
0
100
AcDbBlockBegin
  2
*D0
 70
     1
 10
0.0
 20
0.0
 30
0.0
  3
*D0
  1

  0
LINE
  5
121
330
120
100
AcDbEntity
  8
0
 62
   123
100
AcDbLine
 10
-474.0668181331803
 20
-2516.925402556208
 30
0.0
 11
-497.6135875546876
 21
-2534.857403328699
 31
0.0
  0
LINE
  5
122
330
120
100
AcDbEntity
  8
0
 62
   123
100
AcDbLine
 10
-584.3305466904876
 20
-2600.896550796242
 30
0.0
 11
-586.3194677715837
 21
-2602.411210141828
 31
0.0
  0
MTEXT
  5
123
102
{ACAD_XDICTIONARY
360
4D2
102
}
330
120
100
AcDbEntity
  8
0
 62
     3
100
AcDbMText
 10
-484.8441670850143
 20
-2521.990466427412
 30
0.0
 40
3.0
 41
0.0
 71
     5
 72
     1
  1
\A1;\U+2205104%%P0.5
 11
0.7955684324385314
 21
0.6058637382343476
 31
0.0
 73
     1
 44
1.0
1001
ACAD
1000
MTEXTBEGIN
1070
    73
1070
     1
1070
    44
1040
1.0
1070
    74
1070
     0
1000
MTEXTEND
  0
LINE
  5
124
330
120
100
AcDbEntity
  8
0
 62
   123
100
AcDbLine
 10
-582.3416256093914
 20
-2599.381891450657
 30
0.0
 11
-499.6025086357838
 21
-2536.372062674285
 31
0.0
  0
SOLID
  5
125
330
120
100
AcDbEntity
  8
0
 62
   123
100
AcDbTrace
 10
-584.5829899147519
 20
-2600.565063949392
 30
0.0
 11
-584.0781034662234
 21
-2601.228037643092
 31
0.0
 12
-582.3416256093914
 22
-2599.381891450657
 32
0.0
 13
-582.3416256093914
 23
-2599.381891450657
 33
0.0
  0
SOLID
  5
126
330
120
100
AcDbEntity
  8
0
 62
   123
100
AcDbTrace
 10
-497.8660307789517
 20
-2534.52591648185
 30
0.0
 11
-497.3611443304232
 21
-2535.188890175549
 31
0.0
 12
-499.6025086357838
 22
-2536.372062674285
 32
0.0
 13
-499.6025086357838
 23
-2536.372062674285
 33
0.0
  0
POINT
  5
127
330
120
100
AcDbEntity
  8
DEFPOINTS
 62
     0
100
AcDbPoint
 10
-499.6025086357838
 20
-2536.372062674285
 30
0.0
  0
POINT
  5
128
330
120
100
AcDbEntity
  8
DEFPOINTS
 62
     0
100
AcDbPoint
 10
-582.3416256093914
 20
-2599.381891450657
 30
0.0
  0
ENDBLK
  5
12A
330
120
100
AcDbEntity
  8
0
100
AcDbBlockEnd
  0
BLOCK
  5
134
330
116
100
AcDbEntity
  8
0
100
AcDbBlockBegin
  2
4
 70
     0
 10
0.0
 20
0.0
 30
0.0
  3
4
  1

  0
LWPOLYLINE
  5
117
330
116
100
AcDbEntity
  8
0
100
AcDbPolyline
 90
        8
 70
     1
 43
0.0
 10
-40.0
 20
-45.00000000000045
 10
40.0
 20
-45.0
 42
0.4142135623730951
 10
45.0
 20
-40.0
 10
45.0
 20
40.0
 42
0.4142135623730951
 10
40.0
 20
45.0
 10
-40.0
 20
45.0
 42
0.4142135623730951
 10
-45.0
 20
40.0
 10
-45.0
 20
-40.00000000000045
 42
0.4142135623730951
  0
CIRCLE
  5
118
330
116
100
AcDbEntity
  8
0
100
AcDbCircle
 10
36.76955262170071
 20
36.76955262170031
 30
0.0
 40
3.25
  0
LINE
  5
119
330
116
100
AcDbEntity
  8
CL
 48
0.6
100
AcDbLine
 10
33.05724202047111
 20
33.05724202047122
 30
0.0
 11
40.48186322293008
 21
40.48186322292986
 31
0.0
  0
ARC
  5
11C
102
{ACAD_REACTORS
330
11F
102
}
330
116
100
AcDbEntity
  8
CL
 48
0.6
100
AcDbCircle
 10
0.0
 20
0.0
 30
0.0
 40
51.9999999999996
100
AcDbArc
 50
35.90024337538245
 51
54.09975662462136
  0
DIMENSION
  5
11D
102
{ACAD_XDICTIONARY
360
11E
102
}
102
{ACAD_REACTORS
330
11F
102
}
330
116
100
AcDbEntity
  8
0
100
AcDbDimension
  2
*D0
 10
-41.36955848680371
 20
-31.50491438818607
 30
0.0
 11
57.64255938315909
 21
43.89758955396246
 31
0.0
 12
540.9720671225876
 22
2567.87697706247
 32
0.0
 70
   131
  1
<>%%P0.5
 71
     5
 42
-1.0
  3
STANDARD
100
AcDbDiametricDimension
 15
41.36955848680371
 25
31.50491438818607
 35
0.0
 40
0.0
1001
ACAD
1000
DSTYLE
1002
{
1070
   287
1070
     4
1070
   287
1070
     4
1070
   287
1070
     4
1070
   287
1070
     4
1070
   279
1070
     1
1070
   289
1070
     3
1002
}
  0
ARC
  5
12B
330
116
100
AcDbEntity
  8
CL
 48
0.6
100
AcDbCircle
 10
-0.0000000000002274
 20
0.0
 30
0.0
 40
52.0
100
AcDbArc
 50
129.2128702778055
 51
140.7871297221883
  0
LINE
  5
12C
330
116
100
AcDbEntity
  8
CL
 48
0.6
100
AcDbLine
 10
-33.05724202047122
 20
33.05724202047122
 30
0.0
 11
-40.48186322292986
 21
40.48186322293031
 31
0.0
  0
CIRCLE
  5
12D
330
116
100
AcDbEntity
  8
0
100
AcDbCircle
 10
-36.76955262170054
 20
36.76955262170078
 30
0.0
 40
3.25
  0
LINE
  5
12E
330
116
100
AcDbEntity
  8
CL
 48
0.6
100
AcDbLine
 10
-33.05724202047122
 20
-33.05724202047122
 30
0.0
 11
-40.48186322293008
 21
-40.48186322292986
 31
0.0
  0
CIRCLE
  5
12F
330
116
100
AcDbEntity
  8
0
100
AcDbCircle
 10
-36.76955262170078
 20
-36.76955262170031
 30
0.0
 40
3.25
  0
ARC
  5
130
330
116
100
AcDbEntity
  8
CL
 48
0.6
100
AcDbCircle
 10
0.0
 20
0.0
 30
0.0
 40
51.9999999999996
100
AcDbArc
 50
215.9002433753824
 51
234.0997566246214
  0
ARC
  5
131
330
116
100
AcDbEntity
  8
CL
 48
0.6
100
AcDbCircle
 10
0.0
 20
0.0000000000004547
 30
0.0
 40
52.0
100
AcDbArc
 50
309.2128702778056
 51
320.7871297221883
  0
LINE
  5
132
330
116
100
AcDbEntity
  8
CL
 48
0.6
100
AcDbLine
 10
33.05724202047076
 20
-33.05724202047122
 30
0.0
 11
40.48186322292941
 21
-40.48186322293031
 31
0.0
  0
CIRCLE
  5
133
330
116
100
AcDbEntity
  8
0
100
AcDbCircle
 10
36.76955262170025
 20
-36.76955262170078
 30
0.0
 40
3.25
  0
ENDBLK
  5
135
330
116
100
AcDbEntity
  8
0
100
AcDbBlockEnd
  0
BLOCK
  5
2EF
330
2E5
100
AcDbEntity
  8
0
100
AcDbBlockBegin
  2
*D21
 70
     1
 10
0.0
 20
0.0
 30
0.0
  3
*D21
  1

  0
LINE
  5
2E6
330
2E5
100
AcDbEntity
  8
0
 62
   123
100
AcDbLine
 10
168.0223445640403
 20
283.0416261525396
 30
0.0
 11
168.0223445640403
 21
356.1763850604498
 31
0.0
  0
LINE
  5
2E7
330
2E5
100
AcDbEntity
  8
0
 62
   123
100
AcDbLine
 10
189.0223445640403
 20
323.391626152541
 30
0.0
 11
189.0223445640403
 21
356.1763850604498
 31
0.0
  0
LINE
  5
2E8
330
2E5
100
AcDbEntity
  8
0
 62
   123
100
AcDbLine
 10
170.5223445640404
 20
355.5763850604498
 30
0.0
 11
186.5223445640403
 21
355.5763850604498
 31
0.0
  0
SOLID
  5
2E9
330
2E5
100
AcDbEntity
  8
0
 62
   123
100
AcDbTrace
 10
170.5223445640404
 20
355.9930517271165
 30
0.0
 11
170.5223445640404
 21
355.1597183937831
 31
0.0
 12
168.0223445640403
 22
355.5763850604498
 32
0.0
 13
168.0223445640403
 23
355.5763850604498
 33
0.0
  0
SOLID
  5
2EA
330
2E5
100
AcDbEntity
  8
0
 62
   123
100
AcDbTrace
 10
186.5223445640403
 20
355.9930517271165
 30
0.0
 11
186.5223445640403
 21
355.1597183937831
 31
0.0
 12
189.0223445640403
 22
355.5763850604498
 32
0.0
 13
189.0223445640403
 23
355.5763850604498
 33
0.0
  0
MTEXT
  5
2EB
330
2E5
100
AcDbEntity
  8
0
 62
     3
100
AcDbMText
 10
178.5223445640294
 20
358.0763850604498
 30
0.0
 40
3.0
 41
0.0
 71
     5
 72
     1
  1
\A1;21
 73
     1
 44
1.0
1001
ACAD
1000
MTEXTBEGIN
1070
    73
1070
     1
1070
    44
1040
1.0
1070
    74
1070
     0
1000
MTEXTEND
  0
POINT
  5
2EC
330
2E5
100
AcDbEntity
  8
DEFPOINTS
 62
     0
100
AcDbPoint
 10
168.0223445640403
 20
282.0416261525397
 30
0.0
  0
POINT
  5
2ED
330
2E5
100
AcDbEntity
  8
DEFPOINTS
 62
     0
100
AcDbPoint
 10
189.0223445640403
 20
322.391626152541
 30
0.0
  0
POINT
  5
2EE
330
2E5
100
AcDbEntity
  8
DEFPOINTS
 62
     0
100
AcDbPoint
 10
189.0223445640403
 20
355.5763850604498
 30
0.0
  0
ENDBLK
  5
2F0
330
2E5
100
AcDbEntity
  8
0
100
AcDbBlockEnd
  0
BLOCK
  5
2FB
330
2F1
100
AcDbEntity
  8
0
100
AcDbBlockBegin
  2
*D22
 70
     1
 10
0.0
 20
0.0
 30
0.0
  3
*D22
  1

  0
LINE
  5
2F2
330
2F1
100
AcDbEntity
  8
0
 62
   123
100
AcDbLine
 10
186.0223445640404
 20
318.8916261525391
 30
0.0
 11
157.00208696892
 21
318.8916261525391
 31
0.0
  0
LINE
  5
2F3
330
2F1
100
AcDbEntity
  8
0
 62
   123
100
AcDbLine
 10
186.0223445640404
 20
235.8916261525391
 30
0.0
 11
157.00208696892
 21
235.8916261525391
 31
0.0
  0
LINE
  5
2F4
330
2F1
100
AcDbEntity
  8
0
 62
   123
100
AcDbLine
 10
157.60208696892
 20
316.3916261525391
 30
0.0
 11
157.60208696892
 21
238.3916261525391
 31
0.0
  0
SOLID
  5
2F5
330
2F1
100
AcDbEntity
  8
0
 62
   123
100
AcDbTrace
 10
157.1854203022534
 20
316.3916261525391
 30
0.0
 11
158.0187536355867
 21
316.3916261525391
 31
0.0
 12
157.60208696892
 22
318.8916261525391
 32
0.0
 13
157.60208696892
 23
318.8916261525391
 33
0.0
  0
SOLID
  5
2F6
330
2F1
100
AcDbEntity
  8
0
 62
   123
100
AcDbTrace
 10
157.1854203022534
 20
238.3916261525391
 30
0.0
 11
158.0187536355867
 21
238.3916261525391
 31
0.0
 12
157.60208696892
 22
235.8916261525391
 32
0.0
 13
157.60208696892
 23
235.8916261525391
 33
0.0
  0
MTEXT
  5
2F7
330
2F1
100
AcDbEntity
  8
0
 62
     3
100
AcDbMText
 10
153.65193696892
 20
277.6217837063659
 30
0.0
 40
3.0
 41
0.0
 71
     5
 72
     1
  1
\A1;\A1;{\f??|b0|i0|c0|p49;%%c}83{\f??|b0|i0|c0|p49;\H0.7x;\S+0^ -0.035;\H1.429x;(h7)}
 11
0.0000000000000001
 21
1.0
 31
0.0
 73
     1
 44
1.0
1001
ACAD
1000
MTEXTBEGIN
1070
    73
1070
     1
1070
    44
1040
1.0
1070
    74
1070
     0
1000
MTEXTEND
  0
POINT
  5
2F8
330
2F1
100
AcDbEntity
  8
DEFPOINTS
 62
     0
100
AcDbPoint
 10
187.0223445640403
 20
318.8916261525391
 30
0.0
  0
POINT
  5
2F9
330
2F1
100
AcDbEntity
  8
DEFPOINTS
 62
     0
100
AcDbPoint
 10
187.0223445640403
 20
235.8916261525391
 30
0.0
  0
POINT
  5
2FA
330
2F1
100
AcDbEntity
  8
DEFPOINTS
 62
     0
100
AcDbPoint
 10
157.60208696892
 20
235.8916261525391
 30
0.0
  0
ENDBLK
  5
2FC
330
2F1
100
AcDbEntity
  8
0
100
AcDbBlockEnd
  0
BLOCK
  5
307
330
2FD
100
AcDbEntity
  8
0
100
AcDbBlockBegin
  2
*D23
 70
     1
 10
0.0
 20
0.0
 30
0.0
  3
*D23
  1

  0
LINE
  5
4B2
330
2FD
100
AcDbEntity
  8
0
 62
   123
370
    -2
100
AcDbLine
 10
318.0223445640404
 20
322.391626152541
 30
0.0
 11
345.4204932339552
 21
322.391626152541
 31
0.0
  0
LINE
  5
4B3
330
2FD
100
AcDbEntity
  8
0
 62
   123
370
    -2
100
AcDbLine
 10
318.0223445640404
 20
232.3916261525382
 30
0.0
 11
345.4204932339552
 21
232.3916261525381
 31
0.0
  0
LINE
  5
4B4
330
2FD
100
AcDbEntity
  8
0
 62
   123
370
    -2
100
AcDbLine
 10
344.8204932339552
 20
319.891626152541
 30
0.0
 11
344.8204932339552
 21
234.8916261525381
 31
0.0
  0
SOLID
  5
4B5
330
2FD
100
AcDbEntity
  8
0
 62
   123
100
AcDbTrace
 10
344.4038265672885
 20
319.891626152541
 30
0.0
 11
345.2371599006219
 21
319.891626152541
 31
0.0
 12
344.8204932339552
 22
322.391626152541
 32
0.0
 13
344.8204932339552
 23
322.391626152541
 33
0.0
  0
SOLID
  5
4B6
330
2FD
100
AcDbEntity
  8
0
 62
   123
100
AcDbTrace
 10
344.4038265672885
 20
234.8916261525381
 30
0.0
 11
345.2371599006219
 21
234.8916261525381
 31
0.0
 12
344.8204932339552
 22
232.3916261525381
 32
0.0
 13
344.8204932339552
 23
232.3916261525381
 33
0.0
  0
MTEXT
  5
4B7
330
2FD
100
AcDbEntity
  8
0
 62
     3
100
AcDbMText
 10
342.3204932339552
 20
277.3916261525391
 30
0.0
 40
3.0
 41
0.0
 71
     5
 72
     1
  1
\A1;%%C90
 11
0.0000000000000001
 21
1.0
 31
0.0
 73
     1
 44
1.0
1001
ACAD
1000
MTEXTBEGIN
1070
    73
1070
     1
1070
    44
1040
1.0
1070
    74
1070
     0
1000
MTEXTEND
  0
POINT
  5
4B8
330
2FD
100
AcDbEntity
  8
DEFPOINTS
 62
     0
100
AcDbPoint
 10
317.0223445640404
 20
322.391626152541
 30
0.0
  0
POINT
  5
4B9
330
2FD
100
AcDbEntity
  8
DEFPOINTS
 62
     0
100
AcDbPoint
 10
317.0223445640404
 20
232.3916261525382
 30
0.0
  0
POINT
  5
4BA
330
2FD
100
AcDbEntity
  8
DEFPOINTS
 62
     0
100
AcDbPoint
 10
344.8204932339552
 20
232.3916261525381
 30
0.0
  0
ENDBLK
  5
308
330
2FD
100
AcDbEntity
  8
0
100
AcDbBlockEnd
  0
BLOCK
  5
315
330
309
100
AcDbEntity
  8
0
100
AcDbBlockBegin
  2
*D24
 70
     1
 10
0.0
 20
0.0
 30
0.0
  3
*D24
  1

  0
LINE
  5
495
330
309
100
AcDbEntity
  8
0
 62
   123
370
    -2
100
AcDbLine
 10
67.95728809969293
 20
223.8016958353982
 30
0.0
 11
67.95728809969293
 21
204.3214971159259
 31
0.0
  0
LINE
  5
496
330
309
100
AcDbEntity
  8
0
 62
   123
370
    -2
100
AcDbLine
 10
86.98590846028654
 20
231.4463948769625
 30
0.0
 11
95.91978635111962
 21
209.8852979083125
 31
0.0
  0
ARC
  5
497
330
309
100
AcDbEntity
  8
0
 62
   123
370
    -2
100
AcDbCircle
 10
67.95728809969294
 20
277.3702292731505
 30
0.0
 40
72.44873215722449
100
AcDbArc
 50
271.9772127434109
 51
290.52954415398
  0
SOLID
  5
498
330
309
100
AcDbEntity
  8
0
 62
   123
100
AcDbTrace
 10
70.46410495615389
 20
204.5480264219293
 30
0.0
 11
70.44972697277654
 21
205.3812357101867
 31
0.0
 12
67.95728809969294
 22
204.9214971159259
 32
0.0
 13
67.95728809969294
 23
204.9214971159259
 33
0.0
  0
SOLID
  5
499
330
309
100
AcDbEntity
  8
0
 62
   123
100
AcDbTrace
 10
93.21152572800185
 20
209.9102342571604
 30
0.0
 11
93.51718902132949
 21
209.1349830749255
 31
0.0
 12
95.69011092137024
 22
210.4395985460259
 32
0.0
 13
95.69011092137024
 23
210.4395985460259
 33
0.0
  0
MTEXT
  5
49A
330
309
100
AcDbEntity
  8
0
 62
     3
100
AcDbMText
 10
81.55189742080958
 20
209.0465682443929
 30
0.0
 40
3.0
 41
0.0
 71
     5
 72
     1
  1
\A1;22\U+00B030'
 11
0.980773775186957
 21
0.1951481537333221
 31
0.0
 73
     1
 44
1.0
1001
ACAD
1000
MTEXTBEGIN
1070
    73
1070
     1
1070
    44
1040
1.0
1070
    74
1070
     0
1000
MTEXTEND
  0
POINT
  5
49B
330
309
100
AcDbEntity
  8
DEFPOINTS
 62
     0
100
AcDbPoint
 10
77.41656882956466
 20
205.5416778519869
 30
0.0
  0
POINT
  5
49C
330
309
100
AcDbEntity
  8
DEFPOINTS
 62
     0
100
AcDbPoint
 10
67.95728809969296
 20
224.8016958353982
 30
0.0
  0
POINT
  5
49D
330
309
100
AcDbEntity
  8
DEFPOINTS
 62
     0
100
AcDbPoint
 10
67.95728809969296
 20
277.3702292731504
 30
0.0
  0
POINT
  5
49E
330
309
100
AcDbEntity
  8
DEFPOINTS
 62
     0
100
AcDbPoint
 10
86.60311607737094
 20
232.3702292731514
 30
0.0
  0
POINT
  5
49F
330
309
100
AcDbEntity
  8
DEFPOINTS
 62
     0
100
AcDbPoint
 10
67.95728809969293
 20
331.000374036902
 30
0.0
  0
ENDBLK
  5
316
330
309
100
AcDbEntity
  8
0
100
AcDbBlockEnd
  0
BLOCK
  5
321
330
317
100
AcDbEntity
  8
0
100
AcDbBlockBegin
  2
*D25
 70
     1
 10
0.0
 20
0.0
 30
0.0
  3
*D25
  1

  0
LINE
  5
318
330
317
100
AcDbEntity
  8
0
 62
   123
100
AcDbLine
 10
195.9074711803005
 20
124.4077714333834
 30
0.0
 11
125.355156417931
 21
124.4077714333834
 31
0.0
  0
LINE
  5
319
330
317
100
AcDbEntity
  8
0
 62
   123
100
AcDbLine
 10
195.9074711803005
 20
41.40777143338346
 30
0.0
 11
125.355156417931
 21
41.40777143338347
 31
0.0
  0
LINE
  5
31A
330
317
100
AcDbEntity
  8
0
 62
   123
100
AcDbLine
 10
125.955156417931
 20
121.9077714333834
 30
0.0
 11
125.955156417931
 21
43.90777143338347
 31
0.0
  0
SOLID
  5
31B
330
317
100
AcDbEntity
  8
0
 62
   123
100
AcDbTrace
 10
125.5384897512643
 20
121.9077714333834
 30
0.0
 11
126.3718230845976
 21
121.9077714333834
 31
0.0
 12
125.955156417931
 22
124.4077714333834
 32
0.0
 13
125.955156417931
 23
124.4077714333834
 33
0.0
  0
SOLID
  5
31C
330
317
100
AcDbEntity
  8
0
 62
   123
100
AcDbTrace
 10
125.5384897512643
 20
43.90777143338347
 30
0.0
 11
126.3718230845976
 21
43.90777143338347
 31
0.0
 12
125.955156417931
 22
41.40777143338347
 32
0.0
 13
125.955156417931
 23
41.40777143338347
 33
0.0
  0
MTEXT
  5
31D
330
317
100
AcDbEntity
  8
0
 62
     3
100
AcDbMText
 10
122.0050064179309
 20
84.27272806613563
 30
0.0
 40
3.0
 41
0.0
 71
     5
 72
     1
  1
\A1;\A1;{\f??|b0|i0|c0|p49;%%C}83{\f??|b0|i0|c0|p49;\H0.7x;\S+0^ -0.035;\H1.429x;(h}7{\f??|b0|i0|c0|p49;)}
 11
0.0000000000000001
 21
1.0
 31
0.0
 73
     1
 44
1.0
1001
ACAD
1000
MTEXTBEGIN
1070
    73
1070
     1
1070
    44
1040
1.0
1070
    74
1070
     0
1000
MTEXTEND
  0
POINT
  5
31E
330
317
100
AcDbEntity
  8
DEFPOINTS
 62
     0
100
AcDbPoint
 10
196.9074711803004
 20
124.4077714333834
 30
0.0
  0
POINT
  5
31F
330
317
100
AcDbEntity
  8
DEFPOINTS
 62
     0
100
AcDbPoint
 10
196.9074711803004
 20
41.40777143338346
 30
0.0
  0
POINT
  5
320
330
317
100
AcDbEntity
  8
DEFPOINTS
 62
     0
100
AcDbPoint
 10
125.955156417931
 20
41.40777143338347
 30
0.0
  0
ENDBLK
  5
322
330
317
100
AcDbEntity
  8
0
100
AcDbBlockEnd
  0
BLOCK
  5
32D
330
323
100
AcDbEntity
  8
0
100
AcDbBlockBegin
  2
*D26
 70
     1
 10
0.0
 20
0.0
 30
0.0
  3
*D26
  1

  0
LINE
  5
3D1
330
323
100
AcDbEntity
  8
0
 62
   123
100
AcDbLine
 10
161.9074711803004
 20
88.90777143338437
 30
0.0
 11
161.9074711803004
 21
167.5957574998661
 31
0.0
  0
LINE
  5
3D2
330
323
100
AcDbEntity
  8
0
 62
   123
100
AcDbLine
 10
198.9074711803004
 20
129.1161047667173
 30
0.0
 11
198.9074711803004
 21
167.5957574998661
 31
0.0
  0
LINE
  5
3D3
330
323
100
AcDbEntity
  8
0
 62
   123
100
AcDbLine
 10
164.4074711803004
 20
166.9957574998661
 30
0.0
 11
196.4074711803004
 21
166.9957574998661
 31
0.0
  0
SOLID
  5
3D4
330
323
100
AcDbEntity
  8
0
 62
   123
100
AcDbTrace
 10
164.4074711803004
 20
167.4124241665328
 30
0.0
 11
164.4074711803004
 21
166.5790908331995
 31
0.0
 12
161.9074711803004
 22
166.9957574998661
 32
0.0
 13
161.9074711803004
 23
166.9957574998661
 33
0.0
  0
SOLID
  5
3D5
330
323
100
AcDbEntity
  8
0
 62
   123
100
AcDbTrace
 10
196.4074711803004
 20
167.4124241665328
 30
0.0
 11
196.4074711803004
 21
166.5790908331995
 31
0.0
 12
198.9074711803004
 22
166.9957574998661
 32
0.0
 13
198.9074711803004
 23
166.9957574998661
 33
0.0
  0
MTEXT
  5
3D6
330
323
100
AcDbEntity
  8
0
 62
     3
100
AcDbMText
 10
180.4074711803004
 20
169.495757499866
 30
0.0
 40
3.0
 41
0.0
 71
     5
 72
     1
  1
\A1;37
 73
     1
 44
1.0
1001
ACAD
1000
MTEXTBEGIN
1070
    73
1070
     1
1070
    44
1040
1.0
1070
    74
1070
     0
1000
MTEXTEND
  0
POINT
  5
3D7
330
323
100
AcDbEntity
  8
DEFPOINTS
 62
     0
100
AcDbPoint
 10
161.9074711803004
 20
87.90777143338436
 30
0.0
  0
POINT
  5
3D8
330
323
100
AcDbEntity
  8
DEFPOINTS
 62
     0
100
AcDbPoint
 10
198.9074711803004
 20
128.1161047667173
 30
0.0
  0
POINT
  5
3D9
330
323
100
AcDbEntity
  8
DEFPOINTS
 62
     0
100
AcDbPoint
 10
198.9074711803004
 20
166.9957574998661
 30
0.0
  0
ENDBLK
  5
32E
330
323
100
AcDbEntity
  8
0
100
AcDbBlockEnd
  0
BLOCK
  5
339
330
32F
100
AcDbEntity
  8
0
100
AcDbBlockBegin
  2
*D27
 70
     1
 10
0.0
 20
0.0
 30
0.0
  3
*D27
  1

  0
LINE
  5
4A9
330
32F
100
AcDbEntity
  8
0
 62
   123
370
    -2
100
AcDbLine
 10
327.9074711803004
 20
127.9077714333843
 30
0.0
 11
352.0797189179735
 21
127.9077714333842
 31
0.0
  0
LINE
  5
4AA
330
32F
100
AcDbEntity
  8
0
 62
   123
370
    -2
100
AcDbLine
 10
327.9074711803004
 20
37.90777143338436
 30
0.0
 11
352.0797189179735
 21
37.90777143338436
 31
0.0
  0
LINE
  5
4AB
330
32F
100
AcDbEntity
  8
0
 62
   123
370
    -2
100
AcDbLine
 10
351.4797189179735
 20
125.4077714333843
 30
0.0
 11
351.4797189179735
 21
40.40777143338435
 31
0.0
  0
SOLID
  5
4AC
330
32F
100
AcDbEntity
  8
0
 62
   123
100
AcDbTrace
 10
351.0630522513068
 20
125.4077714333843
 30
0.0
 11
351.8963855846402
 21
125.4077714333843
 31
0.0
 12
351.4797189179735
 22
127.9077714333843
 32
0.0
 13
351.4797189179735
 23
127.9077714333843
 33
0.0
  0
SOLID
  5
4AD
330
32F
100
AcDbEntity
  8
0
 62
   123
100
AcDbTrace
 10
351.0630522513068
 20
40.40777143338435
 30
0.0
 11
351.8963855846402
 21
40.40777143338435
 31
0.0
 12
351.4797189179735
 22
37.90777143338436
 32
0.0
 13
351.4797189179735
 23
37.90777143338436
 33
0.0
  0
MTEXT
  5
4AE
330
32F
100
AcDbEntity
  8
0
 62
     3
100
AcDbMText
 10
348.9797189179735
 20
82.90777143338436
 30
0.0
 40
3.0
 41
0.0
 71
     5
 72
     1
  1
\A1;%%C90
 11
0.0000000000000001
 21
1.0
 31
0.0
 73
     1
 44
1.0
1001
ACAD
1000
MTEXTBEGIN
1070
    73
1070
     1
1070
    44
1040
1.0
1070
    74
1070
     0
1000
MTEXTEND
  0
POINT
  5
4AF
330
32F
100
AcDbEntity
  8
DEFPOINTS
 62
     0
100
AcDbPoint
 10
326.9074711803004
 20
127.9077714333843
 30
0.0
  0
POINT
  5
4B0
330
32F
100
AcDbEntity
  8
DEFPOINTS
 62
     0
100
AcDbPoint
 10
326.9074711803004
 20
37.90777143338436
 30
0.0
  0
POINT
  5
4B1
330
32F
100
AcDbEntity
  8
DEFPOINTS
 62
     0
100
AcDbPoint
 10
351.4797189179735
 20
37.90777143338436
 30
0.0
  0
ENDBLK
  5
33A
330
32F
100
AcDbEntity
  8
0
100
AcDbBlockEnd
  0
BLOCK
  5
345
330
33B
100
AcDbEntity
  8
0
100
AcDbBlockBegin
  2
*D28
 70
     1
 10
0.0
 20
0.0
 30
0.0
  3
*D28
  1

  0
LINE
  5
33C
330
33B
100
AcDbEntity
  8
0
 62
   123
100
AcDbLine
 10
198.9074711803004
 20
144.0077714333838
 30
0.0
 11
198.9074711803004
 21
167.5957574998697
 31
0.0
  0
LINE
  5
33D
330
33B
100
AcDbEntity
  8
0
 62
   123
100
AcDbLine
 10
333.9074711803005
 20
121.4077714333843
 30
0.0
 11
333.9074711803005
 21
167.5957574998697
 31
0.0
  0
LINE
  5
33E
330
33B
100
AcDbEntity
  8
0
 62
   123
100
AcDbLine
 10
201.4074711803004
 20
166.9957574998696
 30
0.0
 11
331.4074711803005
 21
166.9957574998696
 31
0.0
  0
SOLID
  5
33F
330
33B
100
AcDbEntity
  8
0
 62
   123
100
AcDbTrace
 10
201.4074711803004
 20
167.4124241665364
 30
0.0
 11
201.4074711803004
 21
166.5790908332031
 31
0.0
 12
198.9074711803004
 22
166.9957574998696
 32
0.0
 13
198.9074711803004
 23
166.9957574998696
 33
0.0
  0
SOLID
  5
340
330
33B
100
AcDbEntity
  8
0
 62
   123
100
AcDbTrace
 10
331.4074711803005
 20
167.4124241665364
 30
0.0
 11
331.4074711803005
 21
166.5790908332031
 31
0.0
 12
333.9074711803005
 22
166.9957574998696
 32
0.0
 13
333.9074711803005
 23
166.9957574998696
 33
0.0
  0
MTEXT
  5
341
330
33B
100
AcDbEntity
  8
0
 62
     3
100
AcDbMText
 10
266.4074711803004
 20
169.4957574998698
 30
0.0
 40
3.0
 41
0.0
 71
     5
 72
     1
  1
\A1;135
 73
     1
 44
1.0
1001
ACAD
1000
MTEXTBEGIN
1070
    73
1070
     1
1070
    44
1040
1.0
1070
    74
1070
     0
1000
MTEXTEND
  0
POINT
  5
342
330
33B
100
AcDbEntity
  8
DEFPOINTS
 62
     0
100
AcDbPoint
 10
198.9074711803004
 20
143.0077714333838
 30
0.0
  0
POINT
  5
343
330
33B
100
AcDbEntity
  8
DEFPOINTS
 62
     0
100
AcDbPoint
 10
333.9074711803005
 20
120.4077714333843
 30
0.0
  0
POINT
  5
344
330
33B
100
AcDbEntity
  8
DEFPOINTS
 62
     0
100
AcDbPoint
 10
333.9074711803005
 20
166.9957574998696
 30
0.0
  0
ENDBLK
  5
346
330
33B
100
AcDbEntity
  8
0
100
AcDbBlockEnd
  0
BLOCK
  5
353
330
347
100
AcDbEntity
  8
0
100
AcDbBlockBegin
  2
*D29
 70
     1
 10
0.0
 20
0.0
 30
0.0
  3
*D29
  1

  0
LINE
  5
47F
330
347
100
AcDbEntity
  8
0
 62
   123
370
    -2
100
AcDbLine
 10
49.56366183164837
 20
30.13833738913755
 30
0.0
 11
49.56485962112126
 21
9.837990323232119
 31
0.0
  0
LINE
  5
480
330
347
100
AcDbEntity
  8
0
 62
   123
370
    -2
100
AcDbLine
 10
68.58600551794698
 20
36.96254015780758
 30
0.0
 11
77.51999132362572
 21
15.40118274654189
 31
0.0
  0
ARC
  5
481
330
347
100
AcDbEntity
  8
0
 62
   123
370
    -2
100
AcDbCircle
 10
49.56054996884477
 20
82.87873657101378
 30
0.0
 40
72.44074637492373
100
AcDbArc
 50
271.9808113763666
 51
290.5293261667383
  0
SOLID
  5
482
330
347
100
AcDbEntity
  8
0
 62
   123
100
AcDbTrace
 10
52.0716638173861
 20
10.06467230830945
 30
0.0
 11
52.0572350868437
 21
10.89788071932039
 31
0.0
 12
49.56482421908208
 22
10.4379903221877
 32
0.0
 13
49.56482421908208
 23
10.4379903221877
 33
0.0
  0
SOLID
  5
483
330
347
100
AcDbEntity
  8
0
 62
   123
100
AcDbTrace
 10
74.81172969350409
 20
15.42612381039749
 30
0.0
 11
75.1173915120727
 21
14.65087204670148
 31
0.0
 12
77.29031589387644
 22
15.9554833842553
 32
0.0
 13
77.29031589387644
 23
15.9554833842553
 33
0.0
  0
MTEXT
  5
484
330
347
100
AcDbEntity
  8
0
 62
     3
100
AcDbMText
 10
63.15561630641014
 20
14.56330883594069
 30
0.0
 40
3.0
 41
0.0
 71
     5
 72
     1
  1
\A1;22\U+00B030'
 11
0.9807680175580038
 21
0.1951770881413672
 31
0.0
 73
     1
 44
1.0
1001
ACAD
1000
MTEXTBEGIN
1070
    73
1070
     1
1070
    44
1040
1.0
1070
    74
1070
     0
1000
MTEXTEND
  0
POINT
  5
485
330
347
100
AcDbEntity
  8
DEFPOINTS
 62
     0
100
AcDbPoint
 10
59.02161313407255
 20
11.05847467271939
 30
0.0
  0
POINT
  5
486
330
347
100
AcDbEntity
  8
DEFPOINTS
 62
     0
100
AcDbPoint
 10
49.56360282824972
 20
31.13833738739686
 30
0.0
  0
POINT
  5
487
330
347
100
AcDbEntity
  8
DEFPOINTS
 62
     0
100
AcDbPoint
 10
49.55738515736084
 20
82.88637455399564
 30
0.0
  0
POINT
  5
488
330
347
100
AcDbEntity
  8
DEFPOINTS
 62
     0
100
AcDbPoint
 10
68.20321313503153
 20
37.88637455399658
 30
0.0
  0
POINT
  5
489
330
347
100
AcDbEntity
  8
DEFPOINTS
 62
     0
100
AcDbPoint
 10
49.55738515736084
 20
136.5165193177481
 30
0.0
  0
ENDBLK
  5
354
330
347
100
AcDbEntity
  8
0
100
AcDbBlockEnd
  0
BLOCK
  5
35F
330
355
100
AcDbEntity
  8
0
100
AcDbBlockBegin
  2
*D30
 70
     1
 10
0.0
 20
0.0
 30
0.0
  3
*D30
  1

  0
LINE
  5
356
330
355
100
AcDbEntity
  8
0
 62
   123
100
AcDbLine
 10
160.9074711803004
 20
76.90777143338346
 30
0.0
 11
137.4123076776435
 21
76.90777143338348
 31
0.0
  0
LINE
  5
357
330
355
100
AcDbEntity
  8
0
 62
   123
100
AcDbLine
 10
190.9074711803004
 20
88.90777143338345
 30
0.0
 11
137.4123076776435
 21
88.90777143338345
 31
0.0
  0
LINE
  5
358
330
355
100
AcDbEntity
  8
0
 62
   123
100
AcDbLine
 10
138.0123076776435
 20
79.40777143338348
 30
0.0
 11
138.0123076776435
 21
86.40777143338345
 31
0.0
  0
SOLID
  5
359
330
355
100
AcDbEntity
  8
0
 62
   123
100
AcDbTrace
 10
137.5956410109769
 20
79.40777143338348
 30
0.0
 11
138.4289743443102
 21
79.40777143338348
 31
0.0
 12
138.0123076776435
 22
76.90777143338348
 32
0.0
 13
138.0123076776435
 23
76.90777143338348
 33
0.0
  0
SOLID
  5
35A
330
355
100
AcDbEntity
  8
0
 62
   123
100
AcDbTrace
 10
137.5956410109769
 20
86.40777143338345
 30
0.0
 11
138.4289743443102
 21
86.40777143338345
 31
0.0
 12
138.0123076776435
 22
88.90777143338345
 32
0.0
 13
138.0123076776435
 23
88.90777143338345
 33
0.0
  0
MTEXT
  5
35B
330
355
100
AcDbEntity
  8
0
 62
     3
100
AcDbMText
 10
134.0621576776435
 20
82.90777143338349
 30
0.0
 40
3.0
 41
0.0
 71
     5
 72
     1
  1
\A1;\A1;{\f??|b0|i0|c0|p49;%%C}12{\f??|b0|i0|c0|p49;\H0.7x;\S+0^ -0.018;\H1.429x;(h}7{\f??|b0|i0|c0|p49;)}
 11
0.0000000000000001
 21
1.0
 31
0.0
 73
     1
 44
1.0
1001
ACAD
1000
MTEXTBEGIN
1070
    73
1070
     1
1070
    44
1040
1.0
1070
    74
1070
     0
1000
MTEXTEND
  0
POINT
  5
35C
330
355
100
AcDbEntity
  8
DEFPOINTS
 62
     0
100
AcDbPoint
 10
161.9074711803004
 20
76.90777143338346
 30
0.0
  0
POINT
  5
35D
330
355
100
AcDbEntity
  8
DEFPOINTS
 62
     0
100
AcDbPoint
 10
191.9074711803004
 20
88.90777143338345
 30
0.0
  0
POINT
  5
35E
330
355
100
AcDbEntity
  8
DEFPOINTS
 62
     0
100
AcDbPoint
 10
138.0123076776435
 20
88.90777143338345
 30
0.0
  0
ENDBLK
  5
360
330
355
100
AcDbEntity
  8
0
100
AcDbBlockEnd
  0
BLOCK
  5
36B
330
361
100
AcDbEntity
  8
0
100
AcDbBlockBegin
  2
*D31
 70
     1
 10
0.0
 20
0.0
 30
0.0
  3
*D31
  1

  0
LINE
  5
362
330
361
100
AcDbEntity
  8
0
 62
   123
100
AcDbLine
 10
161.9074711803004
 20
88.90777143338345
 30
0.0
 11
161.9074711803004
 21
108.4391489095338
 31
0.0
  0
LINE
  5
363
330
361
100
AcDbEntity
  8
0
 62
   123
100
AcDbLine
 10
191.9074711803004
 20
89.90777143338345
 30
0.0
 11
191.9074711803004
 21
108.4391489095338
 31
0.0
  0
LINE
  5
364
330
361
100
AcDbEntity
  8
0
 62
   123
100
AcDbLine
 10
164.4074711803004
 20
107.8391489095338
 30
0.0
 11
189.4074711803004
 21
107.8391489095338
 31
0.0
  0
SOLID
  5
365
330
361
100
AcDbEntity
  8
0
 62
   123
100
AcDbTrace
 10
164.4074711803004
 20
108.2558155762004
 30
0.0
 11
164.4074711803004
 21
107.4224822428671
 31
0.0
 12
161.9074711803004
 22
107.8391489095338
 32
0.0
 13
161.9074711803004
 23
107.8391489095338
 33
0.0
  0
SOLID
  5
366
330
361
100
AcDbEntity
  8
0
 62
   123
100
AcDbTrace
 10
189.4074711803004
 20
108.2558155762004
 30
0.0
 11
189.4074711803004
 21
107.4224822428671
 31
0.0
 12
191.9074711803004
 22
107.8391489095338
 32
0.0
 13
191.9074711803004
 23
107.8391489095338
 33
0.0
  0
MTEXT
  5
367
330
361
100
AcDbEntity
  8
0
 62
     3
100
AcDbMText
 10
178.1661555447935
 20
110.3391489095338
 30
0.0
 40
3.0
 41
0.0
 71
     5
 72
     1
  1
\A1;30
 73
     1
 44
1.0
1001
ACAD
1000
MTEXTBEGIN
1070
    73
1070
     1
1070
    44
1040
1.0
1070
    74
1070
     0
1000
MTEXTEND
  0
POINT
  5
368
330
361
100
AcDbEntity
  8
DEFPOINTS
 62
     0
100
AcDbPoint
 10
161.9074711803004
 20
87.90777143338344
 30
0.0
  0
POINT
  5
369
330
361
100
AcDbEntity
  8
DEFPOINTS
 62
     0
100
AcDbPoint
 10
191.9074711803004
 20
88.90777143338345
 30
0.0
  0
POINT
  5
36A
330
361
100
AcDbEntity
  8
DEFPOINTS
 62
     0
100
AcDbPoint
 10
191.9074711803004
 20
107.8391489095338
 30
0.0
  0
ENDBLK
  5
36C
330
361
100
AcDbEntity
  8
0
100
AcDbBlockEnd
  0
BLOCK
  5
377
330
36D
100
AcDbEntity
  8
0
100
AcDbBlockBegin
  2
*D32
 70
     1
 10
0.0
 20
0.0
 30
0.0
  3
*D32
  1

  0
LINE
  5
36E
330
36D
100
AcDbEntity
  8
0
 62
   123
100
AcDbLine
 10
160.9074711803004
 20
76.90777143338346
 30
0.0
 11
147.6223704162316
 21
76.90777143338348
 31
0.0
  0
LINE
  5
36F
330
36D
100
AcDbEntity
  8
0
 62
   123
100
AcDbLine
 10
160.9074711803004
 20
87.90777143338344
 30
0.0
 11
147.6223704162316
 21
87.90777143338345
 31
0.0
  0
LINE
  5
370
330
36D
100
AcDbEntity
  8
0
 62
   123
100
AcDbLine
 10
148.2223704162316
 20
79.40777143338348
 30
0.0
 11
148.2223704162316
 21
85.40777143338345
 31
0.0
  0
SOLID
  5
371
330
36D
100
AcDbEntity
  8
0
 62
   123
100
AcDbTrace
 10
147.8057037495649
 20
79.40777143338348
 30
0.0
 11
148.6390370828981
 21
79.40777143338348
 31
0.0
 12
148.2223704162316
 22
76.90777143338348
 32
0.0
 13
148.2223704162316
 23
76.90777143338348
 33
0.0
  0
SOLID
  5
372
330
36D
100
AcDbEntity
  8
0
 62
   123
100
AcDbTrace
 10
147.8057037495649
 20
85.40777143338345
 30
0.0
 11
148.6390370828981
 21
85.40777143338345
 31
0.0
 12
148.2223704162316
 22
87.90777143338345
 32
0.0
 13
148.2223704162316
 23
87.90777143338345
 33
0.0
  0
MTEXT
  5
373
330
36D
100
AcDbEntity
  8
0
 62
     3
100
AcDbMText
 10
145.7223704162315
 20
82.40777143338254
 30
0.0
 40
3.0
 41
0.0
 71
     5
 72
     1
  1
\A1;11
 11
0.0000000000000001
 21
1.0
 31
0.0
 73
     1
 44
1.0
1001
ACAD
1000
MTEXTBEGIN
1070
    73
1070
     1
1070
    44
1040
1.0
1070
    74
1070
     0
1000
MTEXTEND
  0
POINT
  5
374
330
36D
100
AcDbEntity
  8
DEFPOINTS
 62
     0
100
AcDbPoint
 10
161.9074711803004
 20
76.90777143338346
 30
0.0
  0
POINT
  5
375
330
36D
100
AcDbEntity
  8
DEFPOINTS
 62
     0
100
AcDbPoint
 10
161.9074711803004
 20
87.90777143338344
 30
0.0
  0
POINT
  5
376
330
36D
100
AcDbEntity
  8
DEFPOINTS
 62
     0
100
AcDbPoint
 10
148.2223704162316
 20
87.90777143338345
 30
0.0
  0
ENDBLK
  5
378
330
36D
100
AcDbEntity
  8
0
100
AcDbBlockEnd
  0
BLOCK
  5
383
330
379
100
AcDbEntity
  8
0
100
AcDbBlockBegin
  2
*D33
 70
     1
 10
0.0
 20
0.0
 30
0.0
  3
*D33
  1

  0
LINE
  5
37A
330
379
100
AcDbEntity
  8
0
 62
   123
100
AcDbLine
 10
4.563602828249712
 20
123.8649776745887
 30
0.0
 11
4.563602828249713
 21
141.1102040762412
 31
0.0
  0
LINE
  5
37B
330
379
100
AcDbEntity
  8
0
 62
   123
100
AcDbLine
 10
94.56360282824972
 20
123.8649776745887
 30
0.0
 11
94.56360282824972
 21
141.1102040762412
 31
0.0
  0
LINE
  5
37C
330
379
100
AcDbEntity
  8
0
 62
   123
100
AcDbLine
 10
7.063602828249714
 20
140.5102040762412
 30
0.0
 11
92.06360282824972
 21
140.5102040762412
 31
0.0
  0
SOLID
  5
37D
330
379
100
AcDbEntity
  8
0
 62
   123
100
AcDbTrace
 10
7.063602828249714
 20
140.9268707429079
 30
0.0
 11
7.063602828249714
 21
140.0935374095746
 31
0.0
 12
4.563602828249713
 22
140.5102040762412
 32
0.0
 13
4.563602828249713
 23
140.5102040762412
 33
0.0
  0
SOLID
  5
37E
330
379
100
AcDbEntity
  8
0
 62
   123
100
AcDbTrace
 10
92.06360282824972
 20
140.9268707429079
 30
0.0
 11
92.06360282824972
 21
140.0935374095746
 31
0.0
 12
94.56360282824972
 22
140.5102040762412
 32
0.0
 13
94.56360282824972
 23
140.5102040762412
 33
0.0
  0
MTEXT
  5
37F
330
379
100
AcDbEntity
  8
0
 62
     3
100
AcDbMText
 10
49.56360282824971
 20
143.0102040762412
 30
0.0
 40
3.0
 41
0.0
 71
     5
 72
     1
  1
\A1;90
 73
     1
 44
1.0
1001
ACAD
1000
MTEXTBEGIN
1070
    73
1070
     1
1070
    44
1040
1.0
1070
    74
1070
     0
1000
MTEXTEND
  0
POINT
  5
380
330
379
100
AcDbEntity
  8
DEFPOINTS
 62
     0
100
AcDbPoint
 10
4.563602828249712
 20
122.8649776745887
 30
0.0
  0
POINT
  5
381
330
379
100
AcDbEntity
  8
DEFPOINTS
 62
     0
100
AcDbPoint
 10
94.56360282824972
 20
122.8649776745887
 30
0.0
  0
POINT
  5
382
330
379
100
AcDbEntity
  8
DEFPOINTS
 62
     0
100
AcDbPoint
 10
94.56360282824972
 20
140.5102040762412
 30
0.0
  0
ENDBLK
  5
384
330
379
100
AcDbEntity
  8
0
100
AcDbBlockEnd
  0
BLOCK
  5
391
330
385
100
AcDbEntity
  8
0
100
AcDbBlockBegin
  2
*D34
 70
     1
 10
0.0
 20
0.0
 30
0.0
  3
*D34
  1

  0
LINE
  5
386
330
385
100
AcDbEntity
  8
0
 62
   123
100
AcDbLine
 10
196.9074711803004
 20
125.4077714333834
 30
0.0
 11
196.9074711803004
 21
142.555962064977
 31
0.0
  0
LINE
  5
387
330
385
100
AcDbEntity
  8
0
 62
   123
100
AcDbLine
 10
198.9074711803004
 20
128.9077714333852
 30
0.0
 11
198.9074711803004
 21
142.555962064977
 31
0.0
  0
LINE
  5
388
330
385
100
AcDbEntity
  8
0
 62
   123
100
AcDbLine
 10
194.4074711803004
 20
141.955962064977
 30
0.0
 11
191.9074711803004
 21
141.955962064977
 31
0.0
  0
LINE
  5
389
330
385
100
AcDbEntity
  8
0
 62
   123
100
AcDbLine
 10
201.4074711803004
 20
141.955962064977
 30
0.0
 11
203.9074711803004
 21
141.955962064977
 31
0.0
  0
LINE
  5
38A
330
385
100
AcDbEntity
  8
0
 62
   123
100
AcDbLine
 10
196.9074711803004
 20
141.955962064977
 30
0.0
 11
198.9074711803004
 21
141.955962064977
 31
0.0
  0
SOLID
  5
38B
330
385
100
AcDbEntity
  8
0
 62
   123
100
AcDbTrace
 10
194.4074711803004
 20
142.3726287316436
 30
0.0
 11
194.4074711803004
 21
141.5392953983103
 31
0.0
 12
196.9074711803004
 22
141.955962064977
 32
0.0
 13
196.9074711803004
 23
141.955962064977
 33
0.0
  0
SOLID
  5
38C
330
385
100
AcDbEntity
  8
0
 62
   123
100
AcDbTrace
 10
201.4074711803004
 20
142.3726287316436
 30
0.0
 11
201.4074711803004
 21
141.5392953983103
 31
0.0
 12
198.9074711803004
 22
141.955962064977
 32
0.0
 13
198.9074711803004
 23
141.955962064977
 33
0.0
  0
MTEXT
  5
38D
330
385
100
AcDbEntity
  8
0
 62
     3
100
AcDbMText
 10
197.9074711803004
 20
144.455962064977
 30
0.0
 40
3.0
 41
0.0
 71
     5
 72
     1
  1
\A1;2
 73
     1
 44
1.0
1001
ACAD
1000
MTEXTBEGIN
1070
    73
1070
     1
1070
    44
1040
1.0
1070
    74
1070
     0
1000
MTEXTEND
  0
POINT
  5
38E
330
385
100
AcDbEntity
  8
DEFPOINTS
 62
     0
100
AcDbPoint
 10
196.9074711803004
 20
124.4077714333834
 30
0.0
  0
POINT
  5
38F
330
385
100
AcDbEntity
  8
DEFPOINTS
 62
     0
100
AcDbPoint
 10
198.9074711803004
 20
127.9077714333852
 30
0.0
  0
POINT
  5
390
330
385
100
AcDbEntity
  8
DEFPOINTS
 62
     0
100
AcDbPoint
 10
198.9074711803004
 20
141.955962064977
 30
0.0
  0
ENDBLK
  5
392
330
385
100
AcDbEntity
  8
0
100
AcDbBlockEnd
  0
BLOCK
  5
39D
330
393
100
AcDbEntity
  8
0
100
AcDbBlockBegin
  2
*D35
 70
     1
 10
0.0
 20
0.0
 30
0.0
  3
*D35
  1

  0
LINE
  5
394
330
393
100
AcDbEntity
  8
0
 62
   123
100
AcDbLine
 10
198.9074711803004
 20
128.1161047667183
 30
0.0
 11
198.9074711803004
 21
153.7958193632381
 31
0.0
  0
LINE
  5
395
330
393
100
AcDbEntity
  8
0
 62
   123
100
AcDbLine
 10
206.4074711803004
 20
127.5065087749135
 30
0.0
 11
206.4074711803004
 21
153.7958193632381
 31
0.0
  0
LINE
  5
396
330
393
100
AcDbEntity
  8
0
 62
   123
100
AcDbLine
 10
201.4074711803004
 20
153.1958193632381
 30
0.0
 11
203.9074711803004
 21
153.1958193632381
 31
0.0
  0
SOLID
  5
397
330
393
100
AcDbEntity
  8
0
 62
   123
100
AcDbTrace
 10
201.4074711803004
 20
153.6124860299047
 30
0.0
 11
201.4074711803004
 21
152.7791526965714
 31
0.0
 12
198.9074711803004
 22
153.1958193632381
 32
0.0
 13
198.9074711803004
 23
153.1958193632381
 33
0.0
  0
SOLID
  5
398
330
393
100
AcDbEntity
  8
0
 62
   123
100
AcDbTrace
 10
203.9074711803004
 20
153.6124860299047
 30
0.0
 11
203.9074711803004
 21
152.7791526965714
 31
0.0
 12
206.4074711803004
 22
153.1958193632381
 32
0.0
 13
206.4074711803004
 23
153.1958193632381
 33
0.0
  0
MTEXT
  5
399
330
393
100
AcDbEntity
  8
0
 62
     3
100
AcDbMText
 10
202.6574711803005
 20
155.6958193632381
 30
0.0
 40
3.0
 41
0.0
 71
     5
 72
     1
  1
\A1;7.5
 73
     1
 44
1.0
1001
ACAD
1000
MTEXTBEGIN
1070
    73
1070
     1
1070
    44
1040
1.0
1070
    74
1070
     0
1000
MTEXTEND
  0
POINT
  5
39A
330
393
100
AcDbEntity
  8
DEFPOINTS
 62
     0
100
AcDbPoint
 10
198.9074711803004
 20
127.1161047667183
 30
0.0
  0
POINT
  5
39B
330
393
100
AcDbEntity
  8
DEFPOINTS
 62
     0
100
AcDbPoint
 10
206.4074711803004
 20
126.5065087749135
 30
0.0
  0
POINT
  5
39C
330
393
100
AcDbEntity
  8
DEFPOINTS
 62
     0
100
AcDbPoint
 10
206.4074711803004
 20
153.1958193632381
 30
0.0
  0
ENDBLK
  5
39E
330
393
100
AcDbEntity
  8
0
100
AcDbBlockEnd
  0
BLOCK
  5
3A9
330
39F
100
AcDbEntity
  8
0
100
AcDbBlockBegin
  2
*D36
 70
     1
 10
0.0
 20
0.0
 30
0.0
  3
*D36
  1

  0
LINE
  5
3A0
330
39F
100
AcDbEntity
  8
0
 62
   123
100
AcDbLine
 10
22.95728809970023
 20
318.3488323937426
 30
0.0
 11
22.95728809970023
 21
339.4100313290442
 31
0.0
  0
LINE
  5
3A1
330
39F
100
AcDbEntity
  8
0
 62
   123
100
AcDbLine
 10
112.9572880997002
 20
318.3488323937426
 30
0.0
 11
112.9572880997002
 21
339.4100313290442
 31
0.0
  0
LINE
  5
3A2
330
39F
100
AcDbEntity
  8
0
 62
   123
100
AcDbLine
 10
25.45728809970023
 20
338.8100313290442
 30
0.0
 11
110.4572880997002
 21
338.8100313290442
 31
0.0
  0
SOLID
  5
3A3
330
39F
100
AcDbEntity
  8
0
 62
   123
100
AcDbTrace
 10
25.45728809970023
 20
339.2266979957109
 30
0.0
 11
25.45728809970023
 21
338.3933646623775
 31
0.0
 12
22.95728809970023
 22
338.8100313290442
 32
0.0
 13
22.95728809970023
 23
338.8100313290442
 33
0.0
  0
SOLID
  5
3A4
330
39F
100
AcDbEntity
  8
0
 62
   123
100
AcDbTrace
 10
110.4572880997002
 20
339.2266979957109
 30
0.0
 11
110.4572880997002
 21
338.3933646623775
 31
0.0
 12
112.9572880997002
 22
338.8100313290442
 32
0.0
 13
112.9572880997002
 23
338.8100313290442
 33
0.0
  0
MTEXT
  5
3A5
330
39F
100
AcDbEntity
  8
0
 62
     3
100
AcDbMText
 10
67.95728809969296
 20
341.3100313290442
 30
0.0
 40
3.0
 41
0.0
 71
     5
 72
     1
  1
\A1;90
 73
     1
 44
1.0
1001
ACAD
1000
MTEXTBEGIN
1070
    73
1070
     1
1070
    44
1040
1.0
1070
    74
1070
     0
1000
MTEXTEND
  0
POINT
  5
3A6
330
39F
100
AcDbEntity
  8
DEFPOINTS
 62
     0
100
AcDbPoint
 10
22.95728809970023
 20
317.3488323937426
 30
0.0
  0
POINT
  5
3A7
330
39F
100
AcDbEntity
  8
DEFPOINTS
 62
     0
100
AcDbPoint
 10
112.9572880997002
 20
317.3488323937426
 30
0.0
  0
POINT
  5
3A8
330
39F
100
AcDbEntity
  8
DEFPOINTS
 62
     0
100
AcDbPoint
 10
112.9572880997002
 20
338.8100313290442
 30
0.0
  0
ENDBLK
  5
3AA
330
39F
100
AcDbEntity
  8
0
100
AcDbBlockEnd
  0
BLOCK
  5
3B5
330
3AB
100
AcDbEntity
  8
0
100
AcDbBlockBegin
  2
*D37
 70
     1
 10
0.0
 20
0.0
 30
0.0
  3
*D37
  1

  0
LINE
  5
3AC
330
3AB
100
AcDbEntity
  8
0
 62
   123
100
AcDbLine
 10
189.0223445640403
 20
338.4916261525395
 30
0.0
 11
189.0223445640403
 21
356.1763850604498
 31
0.0
  0
LINE
  5
3AD
330
3AB
100
AcDbEntity
  8
0
 62
   123
100
AcDbLine
 10
324.0223445640403
 20
315.8916261525409
 30
0.0
 11
324.0223445640403
 21
356.1763850604498
 31
0.0
  0
LINE
  5
3AE
330
3AB
100
AcDbEntity
  8
0
 62
   123
100
AcDbLine
 10
191.5223445640403
 20
355.5763850604498
 30
0.0
 11
321.5223445640404
 21
355.5763850604498
 31
0.0
  0
SOLID
  5
3AF
330
3AB
100
AcDbEntity
  8
0
 62
   123
100
AcDbTrace
 10
191.5223445640403
 20
355.9930517271165
 30
0.0
 11
191.5223445640403
 21
355.1597183937831
 31
0.0
 12
189.0223445640403
 22
355.5763850604498
 32
0.0
 13
189.0223445640403
 23
355.5763850604498
 33
0.0
  0
SOLID
  5
3B0
330
3AB
100
AcDbEntity
  8
0
 62
   123
100
AcDbTrace
 10
321.5223445640404
 20
355.9930517271165
 30
0.0
 11
321.5223445640404
 21
355.1597183937831
 31
0.0
 12
324.0223445640403
 22
355.5763850604498
 32
0.0
 13
324.0223445640403
 23
355.5763850604498
 33
0.0
  0
MTEXT
  5
3B1
330
3AB
100
AcDbEntity
  8
0
 62
     3
100
AcDbMText
 10
256.5223445640294
 20
358.0763850604498
 30
0.0
 40
3.0
 41
0.0
 71
     5
 72
     1
  1
\A1;135
 73
     1
 44
1.0
1001
ACAD
1000
MTEXTBEGIN
1070
    73
1070
     1
1070
    44
1040
1.0
1070
    74
1070
     0
1000
MTEXTEND
  0
POINT
  5
3B2
330
3AB
100
AcDbEntity
  8
DEFPOINTS
 62
     0
100
AcDbPoint
 10
189.0223445640403
 20
337.4916261525395
 30
0.0
  0
POINT
  5
3B3
330
3AB
100
AcDbEntity
  8
DEFPOINTS
 62
     0
100
AcDbPoint
 10
324.0223445640403
 20
314.891626152541
 30
0.0
  0
POINT
  5
3B4
330
3AB
100
AcDbEntity
  8
DEFPOINTS
 62
     0
100
AcDbPoint
 10
324.0223445640403
 20
355.5763850604498
 30
0.0
  0
ENDBLK
  5
3B6
330
3AB
100
AcDbEntity
  8
0
100
AcDbBlockEnd
  0
BLOCK
  5
3C1
330
3B7
100
AcDbEntity
  8
0
100
AcDbBlockBegin
  2
*D38
 70
     1
 10
0.0
 20
0.0
 30
0.0
  3
*D38
  1

  0
LINE
  5
3B8
330
3B7
100
AcDbEntity
  8
0
 62
   123
100
AcDbLine
 10
189.0223445640403
 20
322.5999594858731
 30
0.0
 11
189.0223445640403
 21
345.3229367271357
 31
0.0
  0
LINE
  5
3B9
330
3B7
100
AcDbEntity
  8
0
 62
   123
100
AcDbLine
 10
196.5223445640404
 20
321.9903634940692
 30
0.0
 11
196.5223445640404
 21
345.3229367271357
 31
0.0
  0
LINE
  5
3BA
330
3B7
100
AcDbEntity
  8
0
 62
   123
100
AcDbLine
 10
191.5223445640403
 20
344.7229367271356
 30
0.0
 11
194.0223445640403
 21
344.7229367271356
 31
0.0
  0
SOLID
  5
3BB
330
3B7
100
AcDbEntity
  8
0
 62
   123
100
AcDbTrace
 10
191.5223445640403
 20
345.1396033938024
 30
0.0
 11
191.5223445640403
 21
344.306270060469
 31
0.0
 12
189.0223445640403
 22
344.7229367271356
 32
0.0
 13
189.0223445640403
 23
344.7229367271356
 33
0.0
  0
SOLID
  5
3BC
330
3B7
100
AcDbEntity
  8
0
 62
   123
100
AcDbTrace
 10
194.0223445640403
 20
345.1396033938024
 30
0.0
 11
194.0223445640403
 21
344.306270060469
 31
0.0
 12
196.5223445640404
 22
344.7229367271356
 32
0.0
 13
196.5223445640404
 23
344.7229367271356
 33
0.0
  0
MTEXT
  5
3BD
330
3B7
100
AcDbEntity
  8
0
 62
     3
100
AcDbMText
 10
192.7723445640403
 20
347.2229367271356
 30
0.0
 40
3.0
 41
0.0
 71
     5
 72
     1
  1
\A1;7.5
 73
     1
 44
1.0
1001
ACAD
1000
MTEXTBEGIN
1070
    73
1070
     1
1070
    44
1040
1.0
1070
    74
1070
     0
1000
MTEXTEND
  0
POINT
  5
3BE
330
3B7
100
AcDbEntity
  8
DEFPOINTS
 62
     0
100
AcDbPoint
 10
189.0223445640403
 20
321.5999594858731
 30
0.0
  0
POINT
  5
3BF
330
3B7
100
AcDbEntity
  8
DEFPOINTS
 62
     0
100
AcDbPoint
 10
196.5223445640404
 20
320.9903634940692
 30
0.0
  0
POINT
  5
3C0
330
3B7
100
AcDbEntity
  8
DEFPOINTS
 62
     0
100
AcDbPoint
 10
196.5223445640404
 20
344.7229367271356
 30
0.0
  0
ENDBLK
  5
3C2
330
3B7
100
AcDbEntity
  8
0
100
AcDbBlockEnd
  0
BLOCK
  5
3CF
330
3C3
100
AcDbEntity
  8
0
100
AcDbBlockBegin
  2
*D39
 70
     1
 10
0.0
 20
0.0
 30
0.0
  3
*D39
  1

  0
LINE
  5
3C4
330
3C3
100
AcDbEntity
  8
0
 62
   123
100
AcDbLine
 10
187.0223445640403
 20
319.8916261525391
 30
0.0
 11
187.0223445640403
 21
334.5926110669366
 31
0.0
  0
LINE
  5
3C5
330
3C3
100
AcDbEntity
  8
0
 62
   123
100
AcDbLine
 10
189.0223445640403
 20
323.391626152541
 30
0.0
 11
189.0223445640403
 21
334.5926110669366
 31
0.0
  0
LINE
  5
3C6
330
3C3
100
AcDbEntity
  8
0
 62
   123
100
AcDbLine
 10
184.5223445640403
 20
333.9926110669366
 30
0.0
 11
182.0223445640404
 21
333.9926110669366
 31
0.0
  0
LINE
  5
3C7
330
3C3
100
AcDbEntity
  8
0
 62
   123
100
AcDbLine
 10
191.5223445640403
 20
333.9926110669366
 30
0.0
 11
194.0223445640403
 21
333.9926110669366
 31
0.0
  0
LINE
  5
3C8
330
3C3
100
AcDbEntity
  8
0
 62
   123
100
AcDbLine
 10
187.0223445640403
 20
333.9926110669366
 30
0.0
 11
189.0223445640403
 21
333.9926110669366
 31
0.0
  0
SOLID
  5
3C9
330
3C3
100
AcDbEntity
  8
0
 62
   123
100
AcDbTrace
 10
184.5223445640403
 20
334.4092777336034
 30
0.0
 11
184.5223445640403
 21
333.5759444002698
 31
0.0
 12
187.0223445640403
 22
333.9926110669366
 32
0.0
 13
187.0223445640403
 23
333.9926110669366
 33
0.0
  0
SOLID
  5
3CA
330
3C3
100
AcDbEntity
  8
0
 62
   123
100
AcDbTrace
 10
191.5223445640403
 20
334.4092777336034
 30
0.0
 11
191.5223445640403
 21
333.5759444002698
 31
0.0
 12
189.0223445640403
 22
333.9926110669366
 32
0.0
 13
189.0223445640403
 23
333.9926110669366
 33
0.0
  0
MTEXT
  5
3CB
330
3C3
100
AcDbEntity
  8
0
 62
     3
100
AcDbMText
 10
188.0223445640403
 20
336.4926110669366
 30
0.0
 40
3.0
 41
0.0
 71
     5
 72
     1
  1
\A1;2
 73
     1
 44
1.0
1001
ACAD
1000
MTEXTBEGIN
1070
    73
1070
     1
1070
    44
1040
1.0
1070
    74
1070
     0
1000
MTEXTEND
  0
POINT
  5
3CC
330
3C3
100
AcDbEntity
  8
DEFPOINTS
 62
     0
100
AcDbPoint
 10
187.0223445640403
 20
318.8916261525391
 30
0.0
  0
POINT
  5
3CD
330
3C3
100
AcDbEntity
  8
DEFPOINTS
 62
     0
100
AcDbPoint
 10
189.0223445640403
 20
322.391626152541
 30
0.0
  0
POINT
  5
3CE
330
3C3
100
AcDbEntity
  8
DEFPOINTS
 62
     0
100
AcDbPoint
 10
189.0223445640403
 20
333.9926110669366
 30
0.0
  0
ENDBLK
  5
3D0
330
3C3
100
AcDbEntity
  8
0
100
AcDbBlockEnd
  0
ENDSEC
  0
SECTION
  2
ENTITIES
  0
MTEXT
  5
9B
102
{ACAD_REACTORS
330
C4
102
}
330
2
100
AcDbEntity
  8
0
 62
     3
100
AcDbMText
 10
93.96149835318285
 20
349.8398314579199
 30
0.0
 40
3.0
 41
0.0
 71
     9
 72
     1
  1
4-%%C6.5 hole
 73
     1
 44
1.0
1001
ACAD
1000
MTEXTBEGIN
1070
    73
1070
     1
1070
    44
1040
1.0
1070
    74
1070
     0
1000
MTEXTEND
  0
MTEXT
  5
9C
330
2
100
AcDbEntity
  8
DIM
100
AcDbMText
 10
240.353189881469
 20
193.7841705753107
 30
0.0
 40
3.5
 41
0.0
 71
     5
 72
     1
  1
UL Style 3271 , AWG20
 73
     1
 44
1.0
1001
ACAD
1000
MTEXTBEGIN
1070
    73
1070
     1
1070
    44
1040
1.0
1070
    74
1070
     0
1000
MTEXTEND
  0
MTEXT
  5
9E
330
2
100
AcDbEntity
  8
DIM
100
AcDbMText
 10
244.5501095540421
 20
200.1684722333784
 30
0.0
 40
3.5
 41
0.0
 71
     5
 72
     1
  1
MOTOR LEAD WIRE 300mm
 73
     1
 44
1.0
1001
ACAD
1000
MTEXTBEGIN
1070
    73
1070
     1
1070
    44
1040
1.0
1070
    74
1070
     0
1000
MTEXTEND
  0
MTEXT
  5
9F
102
{ACAD_REACTORS
330
C5
102
}
330
2
100
AcDbEntity
  8
0
 62
     3
100
AcDbMText
 10
75.5678130817396
 20
155.3559767387659
 30
0.0
 40
3.0
 41
0.0
 71
     9
 72
     1
  1
4-%%C6.5 hole
 73
     1
 44
1.0
1001
ACAD
1000
MTEXTBEGIN
1070
    73
1070
     1
1070
    44
1040
1.0
1070
    74
1070
     0
1000
MTEXTEND
  0
MTEXT
  5
A0
330
2
100
AcDbEntity
  8
DIM
100
AcDbMText
 10
254.3603285140016
 20
5.684617514224553
 30
0.0
 40
3.5
 41
0.0
 71
     5
 72
     1
  1
MOTOR LEAD WIRE 300mm
 73
     1
 44
1.0
1001
ACAD
1000
MTEXTBEGIN
1070
    73
1070
     1
1070
    44
1040
1.0
1070
    74
1070
     0
1000
MTEXTEND
  0
MTEXT
  5
A1
330
2
100
AcDbEntity
  8
DIM
100
AcDbMText
 10
249.0286273293604
 20
-0.6752180024832342
 30
0.0
 40
3.5
 41
0.0
 71
     5
 72
     1
  1
UL Style 3271, AWG20
 73
     1
 44
1.0
1001
ACAD
1000
MTEXTBEGIN
1070
    73
1070
     1
1070
    44
1040
1.0
1070
    74
1070
     0
1000
MTEXTEND
  0
DIMENSION
  5
A2
330
2
100
AcDbEntity
  8
0
100
AcDbDimension
  2
*D24
 10
67.95728809969296
 20
331.000374036902
 30
0.0
 11
81.55189742080956
 21
209.0465682443928
 31
0.0
 70
    34
  1
<>
 71
     5
 42
0.3928170118054162
  3
STANDARD
100
AcDb2LineAngularDimension
 13
67.95728809969296
 23
277.3702292731504
 33
0.0
 14
86.60311607737092
 24
232.3702292731514
 34
0.0
 15
67.95728809969296
 25
224.8016958353982
 35
0.0
 16
77.41656882956466
 26
205.5416778519869
 36
0.0
1001
ACAD
1000
DSTYLE
1002
{
1070
   179
1070
     1
1070
   271
1070
     1
1002
}
  0
DIMENSION
  5
B3
330
2
100
AcDbEntity
  8
0
100
AcDbDimension
  2
*D29
 10
49.55738515736084
 20
136.5165193177481
 30
0.0
 11
63.15561630641014
 21
14.56330883594069
 31
0.0
 70
    34
  1
<>
 71
     5
 42
0.3927580084065871
  3
STANDARD
100
AcDb2LineAngularDimension
 13
49.55738515736084
 23
82.88637455399564
 33
0.0
 14
68.20321313503153
 24
37.88637455399658
 34
0.0
 15
49.56360282824971
 25
31.13833738739685
 35
0.0
 16
59.02161313407255
 26
11.05847467271939
 36
0.0
1001
ACAD
1000
DSTYLE
1002
{
1070
   179
1070
     1
1070
   271
1070
     1
1002
}
  0
LEADER
  5
C2
330
2
100
AcDbEntity
  8
0
100
AcDbLeader
  3
STANDARD
 76
     2
 10
203.6596088971418
 20
217.150742826886
 30
0.0
 10
208.2960428132683
 20
197.6684722333784
 30
0.0
1001
ACAD
1000
DSTYLE
1002
{
1070
     5
1000

1070
   342
1005
0
1002
}
  0
LEADER
  5
C3
330
2
100
AcDbEntity
  8
0
100
AcDbLeader
  3
STANDARD
 76
     2
 10
213.3803063727427
 20
22.66688810772939
 30
0.0
 10
218.0167402888837
 20
3.184617514223646
 30
0.0
1001
ACAD
1000
DSTYLE
1002
{
1070
     5
1000

1070
   342
1005
0
1002
}
  0
LEADER
  5
C4
330
2
100
AcDbEntity
  8
0
100
AcDbLeader
  3
STANDARD
 73
     0
 75
     1
 40
3.0
 41
26.65178571428571
 76
     3
 10
104.7514812961198
 20
317.3108006053444
 30
0.0
 10
97.46149835318282
 20
348.8398314579198
 30
0.0
 10
94.96149835318282
 20
348.8398314579198
 30
0.0
340
9B
1001
ACAD
1000
DSTYLE
1002
{
1070
     5
1000

1070
   342
1005
0
1002
}
  0
LEADER
  5
C5
330
2
100
AcDbEntity
  8
0
100
AcDbLeader
  3
STANDARD
 73
     0
 75
     1
 40
3.0
 41
26.65178571428571
 76
     3
 10
86.35779602468392
 20
122.8269458861896
 30
0.0
 10
79.06781308173957
 20
154.355976738766
 30
0.0
 10
76.56781308173957
 20
154.355976738766
 30
0.0
340
9F
1001
ACAD
1000
DSTYLE
1002
{
1070
     5
1000

1070
   342
1005
0
1002
}
  0
ARC
  5
C6
330
2
100
AcDbEntity
  8
0
100
AcDbCircle
 10
326.9074711803004
 20
120.9077714333834
 30
0.0
 40
7.0
100
AcDbArc
 50
359.9999999999998
 51
90.0000000000001
  0
DIMENSION
  5
C7
330
2
100
AcDbEntity
  8
0
100
AcDbDimension
  2
*D28
 10
333.9074711803005
 20
166.9957574998696
 30
0.0
 11
266.4074711803004
 21
166.9957574998696
 31
0.0
 70
   160
 71
     5
 42
-1.0
  3
STANDARD
100
AcDbAlignedDimension
 13
198.9074711803004
 23
143.0077714333838
 33
0.0
 14
333.9074711803005
 24
120.4077714333843
 34
0.0
100
AcDbRotatedDimension
  0
ARC
  5
D4
330
2
100
AcDbEntity
  8
0
100
AcDbCircle
 10
326.9074711803004
 20
55.50384683162338
 30
0.0
 40
7.0
100
AcDbArc
 50
359.9999999999997
 51
89.99999999999984
  0
ARC
  5
D5
330
2
100
AcDbEntity
  8
0
100
AcDbCircle
 10
326.9074711803004
 20
69.50384683162337
 30
0.0
 40
7.0
100
AcDbArc
 50
269.9999999999998
 51
359.9999999999998
  0
ARC
  5
D6
330
2
100
AcDbEntity
  8
0
100
AcDbCircle
 10
326.9074711803004
 20
44.90777143338346
 30
0.0
 40
7.0
100
AcDbArc
 50
269.9999999999998
 51
359.9999999999997
  0
LINE
  5
D7
330
2
100
AcDbEntity
  8
CEN
 48
0.6
100
AcDbLine
 10
341.7240043820347
 20
82.90777143338345
 30
0.0
 11
154.0574746309612
 21
82.90777143338345
 31
0.0
  0
LINE
  5
DA
330
2
100
AcDbEntity
  8
CEN
 48
0.6
100
AcDbLine
 10
333.5858703283641
 20
277.3916261525391
 30
0.0
 11
160.5288340165425
 21
277.3916261525391
 31
0.0
  0
DIMENSION
  5
DB
330
2
100
AcDbEntity
  8
0
100
AcDbDimension
  2
*D23
 10
344.8204932339552
 20
232.3916261525381
 30
0.0
 11
344.8204932339552
 21
277.3916261525391
 31
0.0
 70
   160
  1
%%C<>
 71
     5
 42
90.00000000000282
  3
STANDARD
100
AcDbAlignedDimension
 13
317.0223445640404
 23
322.391626152541
 33
0.0
 14
317.0223445640404
 24
232.3916261525382
 34
0.0
 50
90.0
100
AcDbRotatedDimension
  0
ARC
  5
E8
330
2
100
AcDbEntity
  8
0
100
AcDbCircle
 10
326.9074711803004
 20
110.3116960351453
 30
0.0
 40
7.0
100
AcDbArc
 50
270.0
 51
359.9999999999998
  0
ARC
  5
E9
330
2
100
AcDbEntity
  8
0
100
AcDbCircle
 10
326.9074711803004
 20
96.31169603514535
 30
0.0
 40
7.0
100
AcDbArc
 50
359.9999999999998
 51
90.0
  0
DIMENSION
  5
EA
330
2
100
AcDbEntity
  8
0
100
AcDbDimension
  2
*D27
 10
351.4797189179735
 20
37.90777143338436
 30
0.0
 11
351.4797189179735
 21
82.90777143338436
 31
0.0
 70
   160
  1
%%C<>
 71
     5
 42
89.99999999999994
  3
STANDARD
100
AcDbAlignedDimension
 13
326.9074711803004
 23
127.9077714333843
 33
0.0
 14
326.9074711803004
 24
37.90777143338436
 34
0.0
 50
90.0
100
AcDbRotatedDimension
  0
DIMENSION
  5
F7
102
{ACAD_XDICTIONARY
360
F8
102
}
102
{ACAD_REACTORS
330
F9
102
}
330
2
100
AcDbEntity
  8
0
100
AcDbDimension
  2
*D22
 10
157.60208696892
 20
235.8916261525391
 30
0.0
 11
157.60208696892
 21
277.6217837063659
 31
0.0
 70
   160
  1
\A1;{\f??|b0|i0|c0|p49;%%c}<>{\f??|b0|i0|c0|p49;\H0.7x;\S+0^ -0.035;\H1.429x;(h7)}
 71
     5
 42
-1.0
  3
STANDARD
100
AcDbAlignedDimension
 13
187.0223445640403
 23
318.8916261525391
 33
0.0
 14
187.0223445640403
 24
235.8916261525391
 34
0.0
 50
90.0
100
AcDbRotatedDimension
  0
DIMENSION
  5
106
330
2
100
AcDbEntity
  8
0
100
AcDbDimension
  2
*D21
 10
189.0223445640403
 20
355.5763850604498
 30
0.0
 11
178.5223445640294
 21
355.5763850604498
 31
0.0
 70
   160
 71
     5
 42
-1.0
  3
STANDARD
100
AcDbAlignedDimension
 13
168.0223445640403
 23
282.0416261525397
 33
0.0
 14
189.0223445640403
 24
322.391626152541
 34
0.0
100
AcDbRotatedDimension
  0
ARC
  5
113
330
2
100
AcDbEntity
  8
0
 48
0.6
100
AcDbCircle
 10
67.88182378551209
 20
277.3916261525391
 30
0.0
 40
36.81561599999999
100
AcDbArc
 50
26.36567250321681
 51
63.63432749678904
  0
ARC
  5
114
330
2
100
AcDbEntity
  8
0
 48
0.6
100
AcDbCircle
 10
67.88182378551209
 20
277.3916261525391
 30
0.0
 40
36.81561599999999
100
AcDbArc
 50
116.3656725032109
 51
153.634327496783
  0
INSERT
  5
115
330
2
100
AcDbEntity
  8
0
100
AcDbBlockReference
  2
4
 10
67.95728809969296
 20
277.3916261525391
 30
0.0
  0
LINE
  5
136
330
2
100
AcDbEntity
  8
CEN
 48
0.6
100
AcDbLine
 10
67.95728809969296
 20
224.8016958353982
 30
0.0
 11
67.95728809969296
 21
329.9815564696809
 31
0.0
  0
CIRCLE
  5
137
330
2
100
AcDbEntity
  8
0
 48
0.6
100
AcDbCircle
 10
67.95728809969296
 20
277.3916261525391
 30
0.0
 40
42.00000000000005
  0
CIRCLE
  5
138
330
2
100
AcDbEntity
  8
0
 48
0.6
100
AcDbCircle
 10
67.95728809969296
 20
277.3916261525391
 30
0.0
 40
43.5
  0
ARC
  5
139
330
2
100
AcDbEntity
  8
0
100
AcDbCircle
 10
317.0223445640404
 20
304.7955507543001
 30
0.0
 40
7.0
100
AcDbArc
 50
270.0
 51
359.9999999999998
  0
ARC
  5
13A
330
2
100
AcDbEntity
  8
0
100
AcDbCircle
 10
317.0223445640404
 20
290.7955507543018
 30
0.0
 40
7.0
100
AcDbArc
 50
359.9999999999998
 51
90.0
  0
LINE
  5
13B
330
2
100
AcDbEntity
  8
0
100
AcDbLine
 10
257.1223445640425
 20
304.8916261525391
 30
0.0
 11
257.1223445640425
 21
249.8916261525391
 31
0.0
  0
LINE
  5
13C
330
2
100
AcDbEntity
  8
0
100
AcDbLine
 10
324.0223445640403
 20
304.7955507543001
 30
0.0
 11
324.0223445640403
 21
249.9877015507791
 31
0.0
  0
LINE
  5
13D
330
2
100
AcDbEntity
  8
0
100
AcDbLine
 10
299.0223445640403
 20
322.391626152541
 30
0.0
 11
299.0223445640294
 21
232.3916261525382
 31
0.0
  0
LINE
  5
13E
330
2
100
AcDbEntity
  8
0
100
AcDbLine
 10
195.6223445640425
 20
322.3916261525382
 30
0.0
 11
195.6223445640425
 21
304.8916261525391
 31
0.0
  0
LINE
  5
13F
102
{ACAD_REACTORS
330
F9
102
}
330
2
100
AcDbEntity
  8
0
100
AcDbLine
 10
187.0223445640403
 20
318.8916261525391
 30
0.0
 11
187.0223445640403
 21
235.8916261525391
 31
0.0
  0
LINE
  5
140
330
2
100
AcDbEntity
  8
0
100
AcDbLine
 10
189.0223445640403
 20
322.3916261525382
 30
0.0
 11
189.0223445640403
 21
232.3916261525382
 31
0.0
  0
LINE
  5
141
330
2
100
AcDbEntity
  8
0
100
AcDbLine
 10
206.4074711803004
 20
118.8065087749137
 30
0.0
 11
206.4074711803004
 21
126.5065087749135
 31
0.0
  0
INSERT
  5
142
330
2
100
AcDbEntity
  8
0
100
AcDbBlockReference
  2
4
 10
49.56360282824971
 20
82.90777143338164
 30
0.0
  0
CIRCLE
  5
143
330
2
100
AcDbEntity
  8
0
 48
0.6
100
AcDbCircle
 10
49.56360282824971
 20
82.90777143338345
 30
0.0
 40
42.00000000000005
  0
CIRCLE
  5
144
330
2
100
AcDbEntity
  8
0
 48
0.6
100
AcDbCircle
 10
49.56360282824971
 20
82.90777143338345
 30
0.0
 40
43.5
  0
LINE
  5
145
330
2
100
AcDbEntity
  8
CEN
 48
0.6
100
AcDbLine
 10
49.56360282824971
 20
31.13833738739685
 30
0.0
 11
49.56360282824971
 21
134.6772054793718
 31
0.0
  0
DIMENSION
  5
146
102
{ACAD_XDICTIONARY
360
147
102
}
102
{ACAD_REACTORS
330
148
102
}
330
2
100
AcDbEntity
  8
0
100
AcDbDimension
  2
*D26
 10
198.9074711803004
 20
166.9957574998661
 30
0.0
 11
180.4074711803004
 21
166.9957574998661
 31
0.0
 70
   160
 71
     5
 42
-1.0
  3
STANDARD
100
AcDbAlignedDimension
 13
161.9074711803004
 23
87.90777143338436
 33
0.0
 14
198.9074711803004
 24
128.1161047667173
 34
0.0
100
AcDbRotatedDimension
  0
DIMENSION
  5
155
102
{ACAD_XDICTIONARY
360
156
102
}
102
{ACAD_REACTORS
330
157
102
}
330
2
100
AcDbEntity
  8
0
100
AcDbDimension
  2
*D25
 10
125.955156417931
 20
41.40777143338347
 30
0.0
 11
125.955156417931
 21
84.27272806613563
 31
0.0
 70
   160
  1
\A1;{\f??|b0|i0|c0|p49;%%C}<>{\f??|b0|i0|c0|p49;\H0.7x;\S+0^ -0.035;\H1.429x;(h}7{\f??|b0|i0|c0|p49;)}
 71
     5
 42
-1.0
  3
STANDARD
100
AcDbAlignedDimension
 13
196.9074711803004
 23
124.4077714333834
 33
0.0
 14
196.9074711803004
 24
41.40777143338346
 34
0.0
 50
90.0
100
AcDbRotatedDimension
  0
LINE
  5
164
102
{ACAD_REACTORS
330
157
102
}
330
2
100
AcDbEntity
  8
0
100
AcDbLine
 10
196.9074711803004
 20
124.4077714333834
 30
0.0
 11
196.9074711803004
 21
41.40777143338346
 31
0.0
  0
LINE
  5
165
330
2
100
AcDbEntity
  8
0
100
AcDbLine
 10
308.9074711803005
 20
127.9077714333834
 30
0.0
 11
308.9074711803005
 21
37.90777143338254
 31
0.0
  0
LINE
  5
166
330
2
100
AcDbEntity
  8
0
100
AcDbLine
 10
205.507471180299
 20
127.9077714333852
 30
0.0
 11
205.507471180299
 21
110.4077714333834
 31
0.0
  0
LINE
  5
167
330
2
100
AcDbEntity
  8
0
100
AcDbLine
 10
198.9074711803004
 20
127.9077714333834
 30
0.0
 11
198.9074711803004
 21
37.90777143338254
 31
0.0
  0
LINE
  5
168
330
2
100
AcDbEntity
  8
0
100
AcDbLine
 10
308.9074711803005
 20
103.3116960351453
 30
0.0
 11
326.9074711803004
 21
103.3116960351453
 31
0.0
  0
LINE
  5
169
330
2
100
AcDbEntity
  8
0
100
AcDbLine
 10
267.007471180299
 20
110.4077714333834
 30
0.0
 11
205.507471180299
 21
110.4077714333834
 31
0.0
  0
LINE
  5
16A
330
2
100
AcDbEntity
  8
0
100
AcDbLine
 10
205.507471180299
 20
118.8065087749137
 30
0.0
 11
206.4074711803004
 21
118.8065087749137
 31
0.0
  0
ARC
  5
16B
330
2
100
AcDbEntity
  8
0
 48
0.6
100
AcDbCircle
 10
49.48813851406885
 20
82.90777143338345
 30
0.0
 40
33.74764799999999
100
AcDbArc
 50
72.28019184719491
 51
107.719808152805
  0
ARC
  5
16C
330
2
100
AcDbEntity
  8
0
 48
0.6
100
AcDbCircle
 10
38.28284947401334
 20
117.9767189366684
 30
0.0
 40
3.067967999999998
100
AcDbArc
 50
231.948674480613
 51
287.7198081528051
  0
ARC
  5
16D
330
2
100
AcDbEntity
  8
0
 48
0.6
100
AcDbCircle
 10
34.5008602259586
 20
113.1449213494533
 30
0.0
 40
3.067967999999998
100
AcDbArc
 50
51.94867448061305
 51
116.3656725032109
  0
ARC
  5
16E
330
2
100
AcDbEntity
  8
0
 48
0.6
100
AcDbCircle
 10
60.69342755413163
 20
117.9767189366684
 30
0.0
 40
3.067967999999998
100
AcDbArc
 50
252.2801918471949
 51
308.0513255193868
  0
ARC
  5
16F
330
2
100
AcDbEntity
  8
0
 48
0.6
100
AcDbCircle
 10
64.47541680217182
 20
113.1449213494533
 30
0.0
 40
3.067967999999998
100
AcDbArc
 50
63.63432749678904
 51
128.0513255193868
  0
LINE
  5
170
330
2
100
AcDbEntity
  8
0
100
AcDbLine
 10
314.3472933613338
 20
83.76279444509055
 30
0.0
 11
316.0537005886617
 21
82.05638721776267
 31
0.0
  0
LINE
  5
171
330
2
100
AcDbEntity
  8
0
100
AcDbLine
 10
316.0573393847517
 20
83.76279444509055
 30
0.0
 11
314.3509321574201
 21
82.05638721776267
 31
0.0
  0
LINE
  5
172
330
2
100
AcDbEntity
  8
0
100
AcDbLine
 10
308.9074711803005
 20
62.50384683162336
 30
0.0
 11
326.9074711803004
 21
62.50384683162336
 31
0.0
  0
LINE
  5
173
330
2
100
AcDbEntity
  8
0
100
AcDbLine
 10
316.8078306017305
 20
37.01883604773866
 30
0.0
 11
316.8078306017305
 21
37.90777143338254
 31
0.0
  0
LINE
  5
174
330
2
100
AcDbEntity
  8
0
100
AcDbLine
 10
313.3745111292082
 20
36.01883604773866
 30
0.0
 11
315.8078306017305
 21
36.01883604773866
 31
0.0
  0
ARC
  5
175
330
2
100
AcDbEntity
  8
0
100
AcDbCircle
 10
315.8078306017305
 20
37.01883604773866
 30
0.0
 40
1.0
100
AcDbArc
 50
269.9999999999998
 51
0.0
  0
LINE
  5
176
330
2
100
AcDbEntity
  8
0
100
AcDbLine
 10
312.3745111292082
 20
37.90777143338254
 30
0.0
 11
312.3745111292082
 21
37.01883604773866
 31
0.0
  0
ARC
  5
177
330
2
100
AcDbEntity
  8
0
100
AcDbCircle
 10
313.3745111292082
 20
37.01883604773866
 30
0.0
 40
1.0
100
AcDbArc
 50
180.0
 51
270.0
  0
LINE
  5
178
330
2
100
AcDbEntity
  8
0
100
AcDbLine
 10
267.007471180299
 20
55.40777143338345
 30
0.0
 11
205.507471180299
 21
55.40777143338345
 31
0.0
  0
LINE
  5
179
330
2
100
AcDbEntity
  8
0
100
AcDbLine
 10
205.507471180299
 20
47.00903409185411
 30
0.0
 11
206.4074711803004
 21
47.00903409185411
 31
0.0
  0
LINE
  5
17A
330
2
100
AcDbEntity
  8
0
100
AcDbLine
 10
215.9074711803004
 20
37.90777143338254
 30
0.0
 11
215.9074711803004
 21
37.40777143338346
 31
0.0
  0
ARC
  5
17B
330
2
100
AcDbEntity
  8
0
100
AcDbCircle
 10
215.4074711803005
 20
37.40777143338346
 30
0.0
 40
0.5
100
AcDbArc
 50
270.0
 51
0.0
  0
ARC
  5
17C
330
2
100
AcDbEntity
  8
0
100
AcDbCircle
 10
247.2101931803008
 20
36.81912543338603
 30
0.0
 40
37.855792
100
AcDbArc
 50
212.7486590000019
 51
219.5987459999966
  0
ARC
  5
17D
330
2
100
AcDbEntity
  8
0
100
AcDbCircle
 10
217.183537180299
 20
17.14010443338338
 30
0.0
 40
0.7499080000000001
100
AcDbArc
 50
242.6628950000009
 51
2.834422999996808
  0
ARC
  5
17E
330
2
100
AcDbEntity
  8
0
100
AcDbCircle
 10
247.2101931803008
 20
36.81912543338603
 30
0.0
 40
36.555792
100
AcDbArc
 50
179.8610604128513
 51
213.8176429999978
  0
ARC
  5
17F
330
2
100
AcDbEntity
  8
0
100
AcDbCircle
 10
216.1205061803011
 20
16.37793743338352
 30
0.0
 40
0.7499080000000001
100
AcDbArc
 50
62.66289500000094
 51
182.8344229999968
  0
ARC
  5
180
330
2
100
AcDbEntity
  8
0
100
AcDbCircle
 10
214.6225251803007
 20
16.30377143338319
 30
0.0
 40
0.7499080000000001
100
AcDbArc
 50
242.6628950000009
 51
2.834422999996808
  0
ARC
  5
183
330
2
100
AcDbEntity
  8
0
100
AcDbCircle
 10
218.6815191802998
 20
17.21427043338644
 30
0.0
 40
0.7499080000000001
100
AcDbArc
 50
62.66289500000094
 51
182.8344229999968
  0
ARC
  5
184
330
2
100
AcDbEntity
  8
0
100
AcDbCircle
 10
218.3037401803012
 20
13.39205243338438
 30
0.0
 40
0.7499080000000001
100
AcDbArc
 50
249.5129820000002
 51
9.684509999999278
  0
ARC
  5
185
330
2
100
AcDbEntity
  8
0
100
AcDbCircle
 10
219.7821821803009
 20
13.64435543338641
 30
0.0
 40
0.7499080000000001
100
AcDbArc
 50
69.51298200000024
 51
189.6845099999992
  0
ARC
  5
186
330
2
100
AcDbEntity
  8
0
100
AcDbCircle
 10
247.2101931803008
 20
36.81912543338603
 30
0.0
 40
35.255792
100
AcDbArc
 50
213.8564239999994
 51
219.5987459999966
  0
ARC
  5
187
330
2
100
AcDbEntity
  8
0
100
AcDbCircle
 10
247.2101931803008
 20
36.81912543338603
 30
0.0
 40
33.95579199999999
100
AcDbArc
 50
179.8504230000004
 51
213.8981229999992
  0
LINE
  5
189
330
2
100
AcDbEntity
  8
0
100
AcDbLine
 10
205.9074711803004
 20
37.90777143338254
 30
0.0
 11
205.9074711803004
 21
37.40777143338346
 31
0.0
  0
LINE
  5
18A
330
2
100
AcDbEntity
  8
0
100
AcDbLine
 10
205.507471180299
 20
39.30903409185521
 30
0.0
 11
206.4074711803004
 21
39.30903409185521
 31
0.0
  0
ARC
  5
18B
330
2
100
AcDbEntity
  8
0
100
AcDbCircle
 10
206.4074711803004
 20
37.40777143338346
 30
0.0
 40
0.5
100
AcDbArc
 50
180.0
 51
270.0
  0
ARC
  5
18C
330
2
100
AcDbEntity
  8
0
100
AcDbCircle
 10
247.2101931803008
 20
36.81912543338603
 30
0.0
 40
39.15579199999999
100
AcDbArc
 50
179.8702869999971
 51
212.7486590000019
  0
LINE
  5
18E
330
2
100
AcDbEntity
  8
0
100
AcDbLine
 10
215.4074711803005
 20
36.90777143338346
 30
0.0
 11
206.4074711803004
 21
36.90777143338346
 31
0.0
  0
LINE
  5
18F
330
2
100
AcDbEntity
  8
0
 62
   123
100
AcDbLine
 10
218.0167402888837
 20
3.184617514223646
 30
0.0
 11
289.8541096439839
 21
3.184617514223646
 31
0.0
  0
LINE
  5
190
330
2
100
AcDbEntity
  8
0
100
AcDbLine
 10
206.4074711803004
 20
47.00903409185411
 30
0.0
 11
206.4074711803004
 21
39.30903409185521
 31
0.0
  0
LINE
  5
191
330
2
100
AcDbEntity
  8
0
100
AcDbLine
 10
326.9074711803004
 20
37.90777143338254
 30
0.0
 11
205.507471180299
 21
37.90777143338254
 31
0.0
  0
CIRCLE
  5
192
330
2
100
AcDbEntity
  8
0
100
AcDbCircle
 10
315.2023163730409
 20
82.90777143338345
 30
0.0
 40
2.147836038934201
  0
LINE
  5
193
330
2
100
AcDbEntity
  8
CEN
 48
0.6
100
AcDbLine
 10
0.310326613849611
 20
82.90777143338164
 30
0.0
 11
98.81687904265344
 21
82.90777143338164
 31
0.0
  0
ARC
  5
194
330
2
100
AcDbEntity
  8
0
 48
0.6
100
AcDbCircle
 10
49.48813851406885
 20
82.90777143338345
 30
0.0
 40
33.74764799999999
100
AcDbArc
 50
252.2801918471949
 51
287.7198081528051
  0
LINE
  5
195
330
2
100
AcDbEntity
  8
CL
 48
0.6
100
AcDbLine
 10
68.20321313503153
 20
37.90777143339437
 30
0.0
 11
49.56360282824971
 21
82.90777143339253
 31
0.0
  0
CIRCLE
  5
196
330
2
100
AcDbEntity
  8
0
 48
0.6
100
AcDbCircle
 10
49.56360282824971
 20
82.90777143338345
 30
0.0
 40
6.0
  0
LINE
  5
197
330
2
100
AcDbEntity
  8
0
 48
0.6
100
AcDbLine
 10
46.24697803789239
 20
87.90777143338344
 30
0.0
 11
52.88022761859973
 21
87.90777143338344
 31
0.0
  0
ARC
  5
198
330
2
100
AcDbEntity
  8
0
 48
0.6
100
AcDbCircle
 10
14.41919101078019
 20
94.11306047344806
 30
0.0
 40
3.067967999999998
100
AcDbArc
 50
342.2801918472014
 51
38.05132551937779
  0
ARC
  5
199
330
2
100
AcDbEntity
  8
0
 48
0.6
100
AcDbCircle
 10
19.25098859799982
 20
97.89504972148643
 30
0.0
 40
3.067967999999998
100
AcDbArc
 50
153.634327496783
 51
218.0513255193776
  0
ARC
  5
19A
330
2
100
AcDbEntity
  8
0
 48
0.6
100
AcDbCircle
 10
14.41919101078019
 20
71.70248239332159
 30
0.0
 40
3.067967999999998
100
AcDbArc
 50
321.9486744806221
 51
17.71980815279839
  0
ARC
  5
19B
330
2
100
AcDbEntity
  8
0
 48
0.6
100
AcDbCircle
 10
38.28284947401334
 20
47.83882393010026
 30
0.0
 40
3.067967999999998
100
AcDbArc
 50
72.28019184719491
 51
128.0513255193868
  0
ARC
  5
19C
330
2
100
AcDbEntity
  8
0
 48
0.6
100
AcDbCircle
 10
49.48813851406885
 20
82.90777143338345
 30
0.0
 40
36.81561599999999
100
AcDbArc
 50
206.3656725032168
 51
243.634327496789
  0
ARC
  5
19D
330
2
100
AcDbEntity
  8
0
 48
0.6
100
AcDbCircle
 10
34.5008602259586
 20
52.67062151731444
 30
0.0
 40
3.067967999999998
100
AcDbArc
 50
243.634327496789
 51
308.0513255193868
  0
ARC
  5
19E
330
2
100
AcDbEntity
  8
0
 48
0.6
100
AcDbCircle
 10
19.25098859799982
 20
67.92049314528139
 30
0.0
 40
3.067967999999998
100
AcDbArc
 50
141.9486744806222
 51
206.3656725032168
  0
ARC
  5
19F
330
2
100
AcDbEntity
  8
0
 48
0.6
100
AcDbCircle
 10
49.48813851406885
 20
82.90777143338345
 30
0.0
 40
33.74764799999999
100
AcDbArc
 50
162.2801918472015
 51
197.7198081527984
  0
LINE
  5
1A0
330
2
100
AcDbEntity
  8
0
100
AcDbLine
 10
191.9074711803004
 20
88.90777143338345
 30
0.0
 11
191.9074711803004
 21
87.90777143338344
 31
0.0
  0
LINE
  5
1A1
102
{ACAD_REACTORS
330
1D2
330
1E2
102
}
330
2
100
AcDbEntity
  8
CL
  6
ByBlock
 62
     0
100
AcDbLine
 10
196.9074711803004
 20
88.90777143338345
 30
0.0
 11
191.9074711803004
 21
88.90777143338345
 31
0.0
  0
ARC
  5
1A2
330
2
100
AcDbEntity
  8
0
 48
0.6
100
AcDbCircle
 10
84.55708601735024
 20
94.11306047344806
 30
0.0
 40
3.067967999999998
100
AcDbArc
 50
141.9486744806222
 51
197.7198081527984
  0
ARC
  5
1A3
330
2
100
AcDbEntity
  8
0
 48
0.6
100
AcDbCircle
 10
79.72528843014152
 20
97.89504972148643
 30
0.0
 40
3.067967999999998
100
AcDbArc
 50
321.9486744806221
 51
26.36567250321681
  0
LINE
  5
1A4
102
{ACAD_REACTORS
330
1D2
330
1BE
330
148
102
}
330
2
100
AcDbEntity
  8
CL
  6
ByBlock
 62
     0
100
AcDbLine
 10
191.9074711803004
 20
87.90777143338344
 30
0.0
 11
161.9074711803004
 21
87.90777143338344
 31
0.0
  0
ARC
  5
1A5
330
2
100
AcDbEntity
  8
0
 48
0.6
100
AcDbCircle
 10
84.55708601735024
 20
71.70248239332159
 30
0.0
 40
3.067967999999998
100
AcDbArc
 50
162.2801918472015
 51
218.0513255193776
  0
ARC
  5
1A6
330
2
100
AcDbEntity
  8
0
 48
0.6
100
AcDbCircle
 10
49.48813851406885
 20
82.90777143338345
 30
0.0
 40
36.81561599999999
100
AcDbArc
 50
296.3656725032108
 51
333.6343274967831
  0
ARC
  5
1A7
330
2
100
AcDbEntity
  8
0
 48
0.6
100
AcDbCircle
 10
79.72528843014152
 20
67.92049314528139
 30
0.0
 40
3.067967999999998
100
AcDbArc
 50
333.6343274967831
 51
38.05132551937779
  0
ARC
  5
1A8
330
2
100
AcDbEntity
  8
0
 48
0.6
100
AcDbCircle
 10
60.69342755413163
 20
47.83882393010026
 30
0.0
 40
3.067967999999998
100
AcDbArc
 50
51.94867448061305
 51
107.719808152805
  0
ARC
  5
1A9
330
2
100
AcDbEntity
  8
0
 48
0.6
100
AcDbCircle
 10
64.47541680217182
 20
52.67062151731444
 30
0.0
 40
3.067967999999998
100
AcDbArc
 50
231.948674480613
 51
296.3656725032108
  0
LINE
  5
1AA
102
{ACAD_REACTORS
330
1BE
330
1E2
102
}
330
2
100
AcDbEntity
  8
CL
  6
ByBlock
 62
     0
100
AcDbLine
 10
196.9074711803004
 20
76.90777143338346
 30
0.0
 11
161.9074711803004
 21
76.90777143338346
 31
0.0
  0
LINE
  5
1AB
330
2
100
AcDbEntity
  8
0
100
AcDbLine
 10
198.9074711803004
 20
41.40777143338346
 30
0.0
 11
196.9074711803004
 21
41.40777143338346
 31
0.0
  0
LINE
  5
1AC
330
2
100
AcDbEntity
  8
0
 48
0.6
100
AcDbLine
 10
71.08849864809961
 20
37.90777143338619
 30
0.0
 11
65.34744842156944
 21
37.90777143338619
 31
0.0
  0
ARC
  5
1AD
330
2
100
AcDbEntity
  8
0
100
AcDbCircle
 10
101.8814181790694
 20
52.21832408192494
 30
0.0
 40
37.855792
100
AcDbArc
 50
235.2486590000054
 51
242.0987460000029
  0
ARC
  5
1AE
330
2
100
AcDbEntity
  8
0
100
AcDbCircle
 10
79.62522417907165
 20
20.79384808192571
 30
0.0
 40
0.7499080000000001
100
AcDbArc
 50
265.1628950000044
 51
25.33442299999946
  0
ARC
  5
1AF
330
2
100
AcDbEntity
  8
0
100
AcDbCircle
 10
80.98079717906875
 20
21.43562108192509
 30
0.0
 40
0.7499080000000001
100
AcDbArc
 50
85.16289500000455
 51
205.3344229999993
  0
ARC
  5
1B0
330
2
100
AcDbEntity
  8
0
100
AcDbCircle
 10
83.026813179069
 20
23.18834808192332
 30
0.0
 40
0.7499080000000001
100
AcDbArc
 50
85.16289500000455
 51
205.3344229999993
  0
ARC
  5
1B1
330
2
100
AcDbEntity
  8
0
100
AcDbCircle
 10
85.40984117906919
 20
20.31138308192475
 30
0.0
 40
0.7499080000000001
100
AcDbArc
 50
92.01298199999559
 51
212.184510000001
  0
ARC
  5
1B2
330
2
100
AcDbEntity
  8
0
100
AcDbCircle
 10
84.14049017907018
 20
19.51251008192502
 30
0.0
 40
0.7499080000000001
100
AcDbArc
 50
272.0129819999954
 51
32.18451000000101
  0
ARC
  5
1B3
330
2
100
AcDbEntity
  8
0
100
AcDbCircle
 10
101.8814181790694
 20
52.21832408192494
 30
0.0
 40
35.255792
100
AcDbArc
 50
236.3564240000014
 51
242.0987460000029
  0
ARC
  5
1B4
330
2
100
AcDbEntity
  8
0
100
AcDbCircle
 10
81.67124117906858
 20
22.54657608192337
 30
0.0
 40
0.7499080000000001
100
AcDbArc
 50
265.1628950000044
 51
25.33442299999946
  0
ARC
  5
1B7
330
2
100
AcDbEntity
  8
0
100
AcDbCircle
 10
101.8814181790694
 20
52.21832408192494
 30
0.0
 40
36.555792
100
AcDbArc
 50
203.0460947298203
 51
236.3176429999981
  0
ARC
  5
1B8
330
2
100
AcDbEntity
  8
0
100
AcDbCircle
 10
101.8814181790694
 20
52.21832408192494
 30
0.0
 40
33.95579199999999
100
AcDbArc
 50
204.9259499999998
 51
236.3981230000006
  0
ARC
  5
1BB
330
2
100
AcDbEntity
  8
0
100
AcDbCircle
 10
101.8814181790694
 20
52.21832408192494
 30
0.0
 40
39.15579199999999
100
AcDbArc
 50
201.4369589999971
 51
235.2486590000054
  0
DIMENSION
  5
1BC
102
{ACAD_XDICTIONARY
360
1BD
102
}
102
{ACAD_REACTORS
330
1BE
102
}
330
2
100
AcDbEntity
  8
0
100
AcDbDimension
  2
*D32
 10
148.2223704162316
 20
87.90777143338345
 30
0.0
 11
148.2223704162315
 21
82.40777143338254
 31
0.0
 70
   160
  1
<>
 71
     5
 42
-1.0
  3
STANDARD
100
AcDbAlignedDimension
 13
161.9074711803004
 23
76.90777143338346
 33
0.0
 14
161.9074711803004
 24
87.90777143338344
 34
0.0
 50
90.0
100
AcDbRotatedDimension
  0
LINE
  5
1CB
330
2
100
AcDbEntity
  8
0
100
AcDbLine
 10
161.9074711803004
 20
87.90777143338344
 30
0.0
 11
161.9074711803004
 21
76.90777143338346
 31
0.0
  0
ARC
  5
1CC
330
2
100
AcDbEntity
  8
0
 48
0.6
100
AcDbCircle
 10
49.48813851406885
 20
82.90777143338345
 30
0.0
 40
33.74764799999999
100
AcDbArc
 50
342.2801918472014
 51
17.71980815279839
  0
LINE
  5
1CD
330
2
100
AcDbEntity
  8
0
100
AcDbLine
 10
198.9074711803004
 20
37.90777143338254
 30
0.0
 11
205.507471180299
 21
37.90777143338254
 31
0.0
  0
CIRCLE
  5
1CE
330
2
100
AcDbEntity
  8
0
 48
0.6
100
AcDbCircle
 10
49.56360282824971
 20
82.90777143338164
 30
0.0
 40
20.0
  0
ARC
  5
1CF
330
2
100
AcDbEntity
  8
0
 48
0.6
100
AcDbCircle
 10
49.48813851406885
 20
82.90777143338345
 30
0.0
 40
36.81561599999999
100
AcDbArc
 50
116.3656725032109
 51
153.634327496783
  0
DIMENSION
  5
1D0
102
{ACAD_XDICTIONARY
360
1D1
102
}
102
{ACAD_REACTORS
330
1D2
102
}
330
2
100
AcDbEntity
  8
0
100
AcDbDimension
  2
*D31
 10
191.9074711803004
 20
107.8391489095338
 30
0.0
 11
178.1661555447935
 21
107.8391489095338
 31
0.0
 70
   160
 71
     5
 42
-1.0
  3
STANDARD
100
AcDbAlignedDimension
 13
161.9074711803004
 23
87.90777143338344
 33
0.0
 14
191.9074711803004
 24
88.90777143338345
 34
0.0
100
AcDbRotatedDimension
  0
ARC
  5
1DF
330
2
100
AcDbEntity
  8
0
 48
0.6
100
AcDbCircle
 10
49.48813851406885
 20
82.90777143338345
 30
0.0
 40
36.81561599999999
100
AcDbArc
 50
26.36567250321681
 51
63.63432749678904
  0
DIMENSION
  5
1E0
102
{ACAD_XDICTIONARY
360
1E1
102
}
102
{ACAD_REACTORS
330
1E2
102
}
330
2
100
AcDbEntity
  8
0
100
AcDbDimension
  2
*D30
 10
138.0123076776435
 20
88.90777143338345
 30
0.0
 11
138.0123076776435
 21
82.90777143338349
 31
0.0
 70
   160
  1
\A1;{\f??|b0|i0|c0|p49;%%C}12{\f??|b0|i0|c0|p49;\H0.7x;\S+0^ -0.018;\H1.429x;(h}7{\f??|b0|i0|c0|p49;)}
 71
     5
 42
-1.0
  3
STANDARD
100
AcDbAlignedDimension
 13
161.9074711803004
 23
76.90777143338346
 33
0.0
 14
191.9074711803004
 24
88.90777143338345
 34
0.0
 50
90.0
100
AcDbRotatedDimension
  0
LINE
  5
1EF
330
2
100
AcDbEntity
  8
0
100
AcDbLine
 10
267.007471180299
 20
110.4077714333834
 30
0.0
 11
267.007471180299
 21
55.40777143338345
 31
0.0
  0
ARC
  5
1F0
330
2
100
AcDbEntity
  8
0
100
AcDbCircle
 10
315.8078306017305
 20
128.7967068190291
 30
0.0
 40
1.0
100
AcDbArc
 50
359.9999999999998
 51
90.00000000000005
  0
ARC
  5
1F1
330
2
100
AcDbEntity
  8
0
100
AcDbCircle
 10
313.3745111292082
 20
128.7967068190291
 30
0.0
 40
1.0
100
AcDbArc
 50
89.99999999999991
 51
179.9999999999998
  0
LINE
  5
1F2
330
2
100
AcDbEntity
  8
0
100
AcDbLine
 10
316.8078306017305
 20
128.7967068190291
 30
0.0
 11
316.8078306017305
 21
127.9077714333834
 31
0.0
  0
LINE
  5
1F3
330
2
100
AcDbEntity
  8
0
100
AcDbLine
 10
312.3745111292082
 20
127.9077714333834
 30
0.0
 11
312.3745111292082
 21
128.7967068190291
 31
0.0
  0
LINE
  5
1F4
330
2
100
AcDbEntity
  8
0
100
AcDbLine
 10
313.3745111292082
 20
129.7967068190291
 30
0.0
 11
315.8078306017305
 21
129.7967068190291
 31
0.0
  0
LINE
  5
1F5
102
{ACAD_REACTORS
330
209
102
}
330
2
100
AcDbEntity
  8
0
100
AcDbLine
 10
205.507471180299
 20
126.5065087749135
 30
0.0
 11
206.4074711803004
 21
126.5065087749135
 31
0.0
  0
LINE
  5
1F6
330
2
100
AcDbEntity
  8
0
100
AcDbLine
 10
326.9074711803004
 20
127.9077714333834
 30
0.0
 11
205.507471180299
 21
127.9077714333834
 31
0.0
  0
DIMENSION
  5
1F7
330
2
100
AcDbEntity
  8
0
100
AcDbDimension
  2
*D33
 10
94.56360282824972
 20
140.5102040762412
 30
0.0
 11
49.56360282824971
 21
140.5102040762412
 31
0.0
 70
   160
 71
     5
 42
-1.0
  3
STANDARD
100
AcDbAlignedDimension
 13
4.563602828249712
 23
122.8649776745887
 33
0.0
 14
94.56360282824972
 24
122.8649776745887
 34
0.0
100
AcDbRotatedDimension
  0
LWPOLYLINE
  5
204
330
2
100
AcDbEntity
  8
3
100
AcDbPolyline
 90
        4
 70
     1
 43
0.0
 10
43.26810758411737
 20
141.2861556034513
 10
46.56810758412029
 20
141.2861556034513
 10
46.56810758412029
 20
144.7861556034513
 10
43.26810758411737
 20
144.7861556034513
  0
LINE
  5
206
330
2
100
AcDbEntity
  8
0
100
AcDbLine
 10
198.9074711803004
 20
124.4077714333834
 30
0.0
 11
196.9074711803004
 21
124.4077714333834
 31
0.0
  0
DIMENSION
  5
207
102
{ACAD_XDICTIONARY
360
208
102
}
102
{ACAD_REACTORS
330
209
102
}
330
2
100
AcDbEntity
  8
0
100
AcDbDimension
  2
*D35
 10
206.4074711803004
 20
153.1958193632381
 30
0.0
 11
202.6574711803005
 21
153.1958193632381
 31
0.0
 70
   160
 71
     5
 42
-1.0
  3
STANDARD
100
AcDbAlignedDimension
 13
198.9074711803004
 23
127.1161047667183
 33
0.0
 14
206.4074711803004
 24
126.5065087749135
 34
0.0
100
AcDbRotatedDimension
  0
DIMENSION
  5
216
330
2
100
AcDbEntity
  8
0
100
AcDbDimension
  2
*D34
 10
198.9074711803004
 20
141.955962064977
 30
0.0
 11
197.9074711803004
 21
141.955962064977
 31
0.0
 70
   160
 71
     5
 42
-1.0
  3
STANDARD
100
AcDbAlignedDimension
 13
196.9074711803004
 23
124.4077714333834
 33
0.0
 14
198.9074711803004
 24
127.9077714333852
 34
0.0
100
AcDbRotatedDimension
  0
LINE
  5
225
330
2
100
AcDbEntity
  8
0
100
AcDbLine
 10
198.9074711803004
 20
127.9077714333834
 30
0.0
 11
205.507471180299
 21
127.9077714333834
 31
0.0
  0
LINE
  5
226
330
2
100
AcDbEntity
  8
0
100
AcDbLine
 10
324.0223445640403
 20
249.9877015507791
 30
0.0
 11
324.0223445640403
 21
239.3916261525391
 31
0.0
  0
LINE
  5
227
330
2
100
AcDbEntity
  8
0
100
AcDbLine
 10
324.0223445640403
 20
290.7955507543018
 30
0.0
 11
324.0223445640403
 21
263.987701550779
 31
0.0
  0
LINE
  5
228
330
2
100
AcDbEntity
  8
0
100
AcDbLine
 10
169.0223445640294
 20
283.0416261525379
 30
0.0
 11
187.0223445640403
 21
283.0416261525379
 31
0.0
  0
LINE
  5
229
330
2
100
AcDbEntity
  8
0
100
AcDbLine
 10
169.0223445640294
 20
282.1416261525391
 30
0.0
 11
182.0223445640294
 21
282.1416261525391
 31
0.0
  0
LINE
  5
22A
330
2
100
AcDbEntity
  8
CEN
 48
0.6
100
AcDbLine
 10
166.4615126423887
 20
282.5311261525385
 30
0.0
 11
190.0223445640294
 21
282.5311261525385
 31
0.0
  0
LINE
  5
22B
330
2
100
AcDbEntity
  8
0
100
AcDbLine
 10
169.0223445640294
 20
271.7416261525395
 30
0.0
 11
187.0223445640403
 21
271.7416261525395
 31
0.0
  0
LINE
  5
22C
330
2
100
AcDbEntity
  8
0
100
AcDbLine
 10
169.0223445640294
 20
272.6416261525382
 30
0.0
 11
182.0223445640294
 21
272.6416261525382
 31
0.0
  0
LINE
  5
22D
330
2
100
AcDbEntity
  8
2
100
AcDbLine
 10
182.0223445640294
 20
280.9902562562239
 30
0.0
 11
169.0223445640294
 21
274.4228969441919
 31
0.0
  0
LINE
  5
22F
330
2
100
AcDbEntity
  8
2
100
AcDbLine
 10
182.0223445640294
 20
280.011715529552
 30
0.0
 11
169.0223445640294
 21
273.131624821709
 31
0.0
  0
LINE
  5
230
330
2
100
AcDbEntity
  8
2
100
AcDbLine
 10
182.0223445640294
 20
278.8465260368901
 30
0.0
 11
170.1197967269399
 21
272.6416261525382
 31
0.0
  0
LINE
  5
231
330
2
100
AcDbEntity
  8
CEN
 48
0.6
100
AcDbLine
 10
166.268067416684
 20
272.2521261525407
 30
0.0
 11
190.0223445640294
 21
272.2521261525407
 31
0.0
  0
ARC
  5
232
330
2
100
AcDbEntity
  8
0
 48
0.6
100
AcDbCircle
 10
98.11897370158114
 20
292.3789044406412
 30
0.0
 40
3.067967999999998
100
AcDbArc
 50
321.9486744806221
 51
26.36567250321681
  0
ARC
  5
233
330
2
100
AcDbEntity
  8
0
 48
0.6
100
AcDbCircle
 10
102.9507712888007
 20
288.5969151926037
 30
0.0
 40
3.067967999999998
100
AcDbArc
 50
141.9486744806222
 51
197.7198081527984
  0
LINE
  5
234
330
2
100
AcDbEntity
  8
0
100
AcDbLine
 10
168.0223445640403
 20
282.0416261525378
 30
0.0
 11
169.0223445640294
 21
283.0416261525379
 31
0.0
  0
ARC
  5
235
330
2
100
AcDbEntity
  8
0
 48
0.6
100
AcDbCircle
 10
37.64467386944307
 20
292.3789044406412
 30
0.0
 40
3.067967999999998
100
AcDbArc
 50
153.634327496783
 51
218.0513255193776
  0
ARC
  5
236
330
2
100
AcDbEntity
  8
0
 48
0.6
100
AcDbCircle
 10
32.81287628223072
 20
288.5969151926037
 30
0.0
 40
3.067967999999998
100
AcDbArc
 50
342.2801918472014
 51
38.05132551937779
  0
ARC
  5
237
330
2
100
AcDbEntity
  8
0
 48
0.6
100
AcDbCircle
 10
98.11897370158114
 20
262.404347864438
 30
0.0
 40
3.067967999999998
100
AcDbArc
 50
333.6343274967831
 51
38.05132551937779
  0
ARC
  5
238
330
2
100
AcDbEntity
  8
0
 48
0.6
100
AcDbCircle
 10
82.86910207362234
 20
247.154476236471
 30
0.0
 40
3.067967999999998
100
AcDbArc
 50
231.948674480613
 51
296.3656725032108
  0
ARC
  5
239
330
2
100
AcDbEntity
  8
0
 48
0.6
100
AcDbCircle
 10
79.08711282558217
 20
242.3226786492559
 30
0.0
 40
3.067967999999998
100
AcDbArc
 50
51.94867448061305
 51
107.719808152805
  0
ARC
  5
23A
330
2
100
AcDbEntity
  8
0
 48
0.6
100
AcDbCircle
 10
67.88182378551209
 20
277.3916261525391
 30
0.0
 40
36.81561599999999
100
AcDbArc
 50
296.3656725032108
 51
333.6343274967831
  0
ARC
  5
23B
330
2
100
AcDbEntity
  8
0
 48
0.6
100
AcDbCircle
 10
102.9507712888007
 20
266.1863371124773
 30
0.0
 40
3.067967999999998
100
AcDbArc
 50
162.2801918472015
 51
218.0513255193776
  0
ARC
  5
23C
330
2
100
AcDbEntity
  8
0
 48
0.6
100
AcDbCircle
 10
67.88182378551209
 20
277.3916261525391
 30
0.0
 40
33.74764799999999
100
AcDbArc
 50
252.2801918471949
 51
287.7198081528051
  0
CIRCLE
  5
23D
330
2
100
AcDbEntity
  8
0
 48
0.6
100
AcDbCircle
 10
67.95728809969296
 20
277.3916261525391
 30
0.0
 40
4.244956963364868
  0
ARC
  5
23E
330
2
100
AcDbEntity
  8
0
100
AcDbCircle
 10
103.8035264505088
 20
214.7952378010795
 30
0.0
 40
0.7499080000000001
100
AcDbArc
 50
92.01298199999559
 51
212.184510000001
  0
ARC
  5
23F
330
2
100
AcDbEntity
  8
0
100
AcDbCircle
 10
102.5341754505098
 20
213.9963648010807
 30
0.0
 40
0.7499080000000001
100
AcDbArc
 50
272.0129819999954
 51
32.18451000000101
  0
ARC
  5
240
330
2
100
AcDbEntity
  8
0
100
AcDbCircle
 10
120.275103450509
 20
246.7021788010779
 30
0.0
 40
35.255792
100
AcDbArc
 50
236.3564240000014
 51
242.0987460000029
  0
ARC
  5
241
330
2
100
AcDbEntity
  8
0
100
AcDbCircle
 10
100.0649264505118
 20
217.030430801079
 30
0.0
 40
0.7499080000000001
100
AcDbArc
 50
265.1628950000044
 51
25.33442299999946
  0
ARC
  5
242
330
2
100
AcDbEntity
  8
0
100
AcDbCircle
 10
101.4204984505122
 20
217.6722028010808
 30
0.0
 40
0.7499080000000001
100
AcDbArc
 50
85.16289500000455
 51
205.3344229999993
  0
ARC
  5
246
330
2
100
AcDbEntity
  8
0
100
AcDbCircle
 10
98.01890945051129
 20
215.2777028010796
 30
0.0
 40
0.7499080000000001
100
AcDbArc
 50
265.1628950000044
 51
25.33442299999946
  0
ARC
  5
247
330
2
100
AcDbEntity
  8
0
100
AcDbCircle
 10
99.374482450512
 20
215.9194758010798
 30
0.0
 40
0.7499080000000001
100
AcDbArc
 50
85.16289500000455
 51
205.3344229999993
  0
ARC
  5
248
330
2
100
AcDbEntity
  8
0
100
AcDbCircle
 10
120.275103450509
 20
246.7021788010779
 30
0.0
 40
39.15579199999999
100
AcDbArc
 50
201.4369589999971
 51
235.2486590000054
  0
LINE
  5
24A
330
2
100
AcDbEntity
  8
0
 48
0.6
100
AcDbLine
 10
89.48218391954286
 20
232.3916261525409
 30
0.0
 11
83.74113369301992
 21
232.3916261525409
 31
0.0
  0
ARC
  5
24B
330
2
100
AcDbEntity
  8
0
100
AcDbCircle
 10
120.275103450509
 20
246.7021788010779
 30
0.0
 40
33.95579199999999
100
AcDbArc
 50
204.9259499999998
 51
236.3981230000006
  0
ARC
  5
24C
330
2
100
AcDbEntity
  8
0
100
AcDbCircle
 10
120.275103450509
 20
246.7021788010779
 30
0.0
 40
36.555792
100
AcDbArc
 50
203.0460947298095
 51
236.3176429999981
  0
ARC
  5
24D
330
2
100
AcDbEntity
  8
0
100
AcDbCircle
 10
120.275103450509
 20
246.7021788010779
 30
0.0
 40
37.855792
100
AcDbArc
 50
235.2486590000054
 51
242.0987460000029
  0
LINE
  5
24E
330
2
100
AcDbEntity
  8
CL
 48
0.6
100
AcDbLine
 10
86.60311607737092
 20
232.3916261525482
 30
0.0
 11
67.96350577058183
 21
277.3916261525481
 31
0.0
  0
LINE
  5
24F
330
2
100
AcDbEntity
  8
0
100
AcDbLine
 10
168.0223445640403
 20
272.7416261525395
 30
0.0
 11
169.0223445640294
 21
271.7416261525395
 31
0.0
  0
ARC
  5
250
330
2
100
AcDbEntity
  8
0
 48
0.6
100
AcDbCircle
 10
52.89454549740913
 20
247.154476236471
 30
0.0
 40
3.067967999999998
100
AcDbArc
 50
243.634327496789
 51
308.0513255193868
  0
ARC
  5
251
330
2
100
AcDbEntity
  8
0
 48
0.6
100
AcDbCircle
 10
37.64467386944307
 20
262.404347864438
 30
0.0
 40
3.067967999999998
100
AcDbArc
 50
141.9486744806222
 51
206.3656725032168
  0
ARC
  5
252
330
2
100
AcDbEntity
  8
0
 48
0.6
100
AcDbCircle
 10
67.88182378551209
 20
277.3916261525391
 30
0.0
 40
36.81561599999999
100
AcDbArc
 50
206.3656725032168
 51
243.634327496789
  0
ARC
  5
253
330
2
100
AcDbEntity
  8
0
 48
0.6
100
AcDbCircle
 10
32.81287628223072
 20
266.1863371124773
 30
0.0
 40
3.067967999999998
100
AcDbArc
 50
321.9486744806221
 51
17.71980815279839
  0
ARC
  5
254
330
2
100
AcDbEntity
  8
0
 48
0.6
100
AcDbCircle
 10
56.67653474545295
 20
242.3226786492559
 30
0.0
 40
3.067967999999998
100
AcDbArc
 50
72.28019184719491
 51
128.0513255193868
  0
LINE
  5
255
330
2
100
AcDbEntity
  8
CEN
 48
0.6
100
AcDbLine
 10
18.71022955619264
 20
277.3916261525391
 30
0.0
 11
117.2167819849819
 21
277.3916261525391
 31
0.0
  0
ARC
  5
256
330
2
100
AcDbEntity
  8
0
 48
0.6
100
AcDbCircle
 10
67.88182378551209
 20
277.3916261525391
 30
0.0
 40
33.74764799999999
100
AcDbArc
 50
342.2801918472014
 51
17.71980815279839
  0
ARC
  5
257
330
2
100
AcDbEntity
  8
0
 48
0.6
100
AcDbCircle
 10
67.88182378551209
 20
277.3916261525391
 30
0.0
 40
33.74764799999999
100
AcDbArc
 50
162.2801918472015
 51
197.7198081527984
  0
CIRCLE
  5
258
330
2
100
AcDbEntity
  8
0
 48
0.6
100
AcDbCircle
 10
67.96350577058183
 20
277.3916261525391
 30
0.0
 40
20.0
  0
CIRCLE
  5
259
330
2
100
AcDbEntity
  8
0
 48
0.6
100
AcDbCircle
 10
67.95728809969296
 20
277.3916261525391
 30
0.0
 40
5.65
  0
LINE
  5
25A
330
2
100
AcDbEntity
  8
2
100
AcDbLine
 10
169.0223445640294
 20
283.0416261525379
 30
0.0
 11
169.0223445640294
 21
271.7416261525395
 31
0.0
  0
LINE
  5
25B
330
2
100
AcDbEntity
  8
0
100
AcDbLine
 10
168.0223445640403
 20
282.0416261525378
 30
0.0
 11
168.0223445640403
 21
272.7416261525395
 31
0.0
  0
LINE
  5
25C
330
2
100
AcDbEntity
  8
0
100
AcDbLine
 10
299.0223445640294
 20
297.7955507543001
 30
0.0
 11
317.0223445640404
 21
297.7955507543001
 31
0.0
  0
ARC
  5
25D
330
2
100
AcDbEntity
  8
0
100
AcDbCircle
 10
182.0655314748692
 20
308.9578570415607
 30
0.0
 40
26.81626566475105
100
AcDbArc
 50
269.9077265708258
 51
280.6520097392901
  0
LINE
  5
25E
330
2
100
AcDbEntity
  8
0
100
AcDbLine
 10
176.0223445640404
 20
283.0416261525379
 30
0.0
 11
187.0223445640403
 21
283.0416261525379
 31
0.0
  0
LINE
  5
25F
330
2
100
AcDbEntity
  8
0
100
AcDbLine
 10
257.1223445640425
 20
249.8916261525391
 30
0.0
 11
195.6223445640425
 21
249.8916261525391
 31
0.0
  0
CIRCLE
  5
260
330
2
100
AcDbEntity
  8
0
100
AcDbCircle
 10
305.3171897567808
 20
277.3916261525391
 30
0.0
 40
2.147836038934201
  0
LINE
  5
261
330
2
100
AcDbEntity
  8
0
100
AcDbLine
 10
304.4621667450702
 20
278.246649164248
 30
0.0
 11
306.1685739724016
 21
276.5402419369184
 31
0.0
  0
LINE
  5
262
330
2
100
AcDbEntity
  8
0
100
AcDbLine
 10
306.1722127684916
 20
278.246649164248
 30
0.0
 11
304.46580554116
 21
276.5402419369184
 31
0.0
  0
LINE
  5
263
330
2
100
AcDbEntity
  8
0
100
AcDbLine
 10
299.0223445640294
 20
256.9877015507791
 30
0.0
 11
317.0223445640404
 21
256.9877015507791
 31
0.0
  0
LINE
  5
264
330
2
100
AcDbEntity
  8
0
100
AcDbLine
 10
195.6223445640425
 20
241.4928888110089
 30
0.0
 11
196.5223445640404
 21
241.4928888110089
 31
0.0
  0
LINE
  5
265
330
2
100
AcDbEntity
  8
0
100
AcDbLine
 10
189.0223445640403
 20
280.2116261525407
 30
0.0
 11
189.0223445640403
 21
274.5716261525394
 31
0.0
  0
LINE
  5
266
330
2
100
AcDbEntity
  8
0
100
AcDbLine
 10
189.0223445640403
 20
280.2116261525407
 30
0.0
 11
189.0223445640403
 21
274.5716261525394
 31
0.0
  0
ARC
  5
267
330
2
100
AcDbEntity
  8
0
100
AcDbCircle
 10
182.0655314748692
 20
245.8253952634895
 30
0.0
 40
26.81626566478071
100
AcDbArc
 50
79.34799026071575
 51
90.09227342916824
  0
LINE
  5
268
330
2
100
AcDbEntity
  8
0
100
AcDbLine
 10
176.0223445640404
 20
271.7416261525395
 30
0.0
 11
187.0223445640403
 21
271.7416261525395
 31
0.0
  0
LINE
  5
269
330
2
100
AcDbEntity
  8
0
100
AcDbLine
 10
303.7999611908126
 20
230.5026907668943
 30
0.0
 11
306.2332806633312
 21
230.5026907668943
 31
0.0
  0
ARC
  5
26A
330
2
100
AcDbEntity
  8
0
100
AcDbCircle
 10
306.2332806633312
 20
231.5026907668943
 30
0.0
 40
1.0
100
AcDbArc
 50
269.9999999999998
 51
0.0
  0
ARC
  5
26B
330
2
100
AcDbEntity
  8
0
100
AcDbCircle
 10
303.7999611908126
 20
231.5026907668943
 30
0.0
 40
1.0
100
AcDbArc
 50
180.0
 51
270.0
  0
LINE
  5
26C
330
2
100
AcDbEntity
  8
0
100
AcDbLine
 10
307.2332806633312
 20
231.5026907668943
 30
0.0
 11
307.2332806633312
 21
232.3916261525382
 31
0.0
  0
LINE
  5
26D
330
2
100
AcDbEntity
  8
0
100
AcDbLine
 10
302.7999611908126
 20
232.3916261525382
 30
0.0
 11
302.7999611908126
 21
231.5026907668943
 31
0.0
  0
LINE
  5
26E
330
2
100
AcDbEntity
  8
0
100
AcDbLine
 10
302.7999611908126
 20
232.3916261525382
 30
0.0
 11
307.2332806633312
 21
232.3916261525382
 31
0.0
  0
ARC
  5
26F
330
2
100
AcDbEntity
  8
0
100
AcDbCircle
 10
237.3250665640407
 20
231.3029801525408
 30
0.0
 40
36.555792
100
AcDbArc
 50
179.86106041285
 51
213.8176429999978
  0
ARC
  5
270
330
2
100
AcDbEntity
  8
0
100
AcDbCircle
 10
206.235379564041
 20
210.8617921525392
 30
0.0
 40
0.7499080000000001
100
AcDbArc
 50
62.66289500000094
 51
182.8344229999968
  0
ARC
  5
271
330
2
100
AcDbEntity
  8
0
100
AcDbCircle
 10
237.3250665640407
 20
231.3029801525408
 30
0.0
 40
37.855792
100
AcDbArc
 50
212.7486590000019
 51
219.5987459999966
  0
ARC
  5
272
330
2
100
AcDbEntity
  8
0
100
AcDbCircle
 10
237.3250665640407
 20
231.3029801525408
 30
0.0
 40
39.15579199999999
100
AcDbArc
 50
179.8702869999971
 51
212.7486590000019
  0
ARC
  5
275
330
2
100
AcDbEntity
  8
0
100
AcDbCircle
 10
204.7373985640297
 20
210.7876261525398
 30
0.0
 40
0.7499080000000001
100
AcDbArc
 50
242.6628950000009
 51
2.834422999996808
  0
LINE
  5
278
330
2
100
AcDbEntity
  8
0
100
AcDbLine
 10
206.0223445640403
 20
232.3916261525382
 30
0.0
 11
206.0223445640403
 21
231.8916261525391
 31
0.0
  0
LINE
  5
279
330
2
100
AcDbEntity
  8
0
100
AcDbLine
 10
196.0223445640295
 20
232.3916261525382
 30
0.0
 11
196.0223445640295
 21
231.8916261525391
 31
0.0
  0
LINE
  5
27A
330
2
100
AcDbEntity
  8
0
100
AcDbLine
 10
195.6223445640425
 20
233.7928888110109
 30
0.0
 11
196.5223445640404
 21
233.7928888110109
 31
0.0
  0
LINE
  5
27B
330
2
100
AcDbEntity
  8
0
100
AcDbLine
 10
205.5223445640294
 20
231.3916261525391
 30
0.0
 11
196.5223445640404
 21
231.3916261525391
 31
0.0
  0
ARC
  5
27C
330
2
100
AcDbEntity
  8
0
100
AcDbCircle
 10
196.5223445640404
 20
231.8916261525391
 30
0.0
 40
0.5
100
AcDbArc
 50
180.0
 51
270.0
  0
ARC
  5
27D
330
2
100
AcDbEntity
  8
0
100
AcDbCircle
 10
205.5223445640294
 20
231.8916261525391
 30
0.0
 40
0.5
100
AcDbArc
 50
270.0
 51
0.0
  0
ARC
  5
27E
330
2
100
AcDbEntity
  8
0
100
AcDbCircle
 10
207.2984105640425
 20
211.6239591525409
 30
0.0
 40
0.7499080000000001
100
AcDbArc
 50
242.6628950000009
 51
2.834422999996808
  0
ARC
  5
27F
330
2
100
AcDbEntity
  8
0
100
AcDbCircle
 10
237.3250665640407
 20
231.3029801525408
 30
0.0
 40
33.95579199999999
100
AcDbArc
 50
179.8504230000004
 51
213.8981229999992
  0
ARC
  5
280
330
2
100
AcDbEntity
  8
0
100
AcDbCircle
 10
208.7963925640397
 20
211.6981251525394
 30
0.0
 40
0.7499080000000001
100
AcDbArc
 50
62.66289500000094
 51
182.8344229999968
  0
ARC
  5
281
330
2
100
AcDbEntity
  8
0
100
AcDbCircle
 10
208.4186135640411
 20
207.875907152541
 30
0.0
 40
0.7499080000000001
100
AcDbArc
 50
249.5129820000002
 51
9.684509999999278
  0
ARC
  5
282
330
2
100
AcDbEntity
  8
0
100
AcDbCircle
 10
209.8970555640298
 20
208.1282101525394
 30
0.0
 40
0.7499080000000001
100
AcDbArc
 50
69.51298200000024
 51
189.6845099999992
  0
ARC
  5
283
330
2
100
AcDbEntity
  8
0
100
AcDbCircle
 10
237.3250665640407
 20
231.3029801525408
 30
0.0
 40
35.255792
100
AcDbArc
 50
213.8564239999994
 51
219.5987459999966
  0
LINE
  5
284
330
2
100
AcDbEntity
  8
0
100
AcDbLine
 10
317.0223445640404
 20
232.3916261525382
 30
0.0
 11
195.6223445640425
 21
232.3916261525382
 31
0.0
  0
LINE
  5
285
330
2
100
AcDbEntity
  8
0
 62
   123
100
AcDbLine
 10
208.2960428132683
 20
197.6684722333784
 30
0.0
 11
279.4467530183828
 21
197.6684722333784
 31
0.0
  0
LINE
  5
286
330
2
100
AcDbEntity
  8
0
100
AcDbLine
 10
189.0223445640403
 20
235.8916261525391
 30
0.0
 11
187.0223445640403
 21
235.8916261525391
 31
0.0
  0
LINE
  5
287
330
2
100
AcDbEntity
  8
0
100
AcDbLine
 10
189.0223445640403
 20
232.3916261525382
 30
0.0
 11
195.6223445640425
 21
232.3916261525382
 31
0.0
  0
LINE
  5
288
330
2
100
AcDbEntity
  8
0
100
AcDbLine
 10
196.5223445640404
 20
241.4928888110089
 30
0.0
 11
196.5223445640404
 21
233.7928888110109
 31
0.0
  0
LINE
  5
289
330
2
100
AcDbEntity
  8
2
100
AcDbLine
 10
182.0223445640294
 20
282.1416261525391
 30
0.0
 11
182.0223445640294
 21
272.6416261525382
 31
0.0
  0
ARC
  5
28A
330
2
100
AcDbEntity
  8
0
100
AcDbCircle
 10
317.0223445640404
 20
263.987701550779
 30
0.0
 40
7.0
100
AcDbArc
 50
269.9999999999998
 51
359.9999999999998
  0
ARC
  5
28B
330
2
100
AcDbEntity
  8
0
100
AcDbCircle
 10
317.0223445640404
 20
249.9877015507791
 30
0.0
 40
7.0
100
AcDbArc
 50
359.9999999999997
 51
89.99999999999984
  0
ARC
  5
28C
330
2
100
AcDbEntity
  8
0
100
AcDbCircle
 10
317.0223445640404
 20
239.3916261525391
 30
0.0
 40
7.0
100
AcDbArc
 50
269.9999999999998
 51
359.9999999999997
  0
LINE
  5
28D
330
2
100
AcDbEntity
  8
0
100
AcDbLine
 10
324.0223445640403
 20
315.3916261525409
 30
0.0
 11
324.0223445640403
 21
304.7955507543001
 31
0.0
  0
ARC
  5
28E
330
2
100
AcDbEntity
  8
0
 48
0.6
100
AcDbCircle
 10
82.86910207362234
 20
307.6287760686091
 30
0.0
 40
3.067967999999998
100
AcDbArc
 50
63.63432749678904
 51
128.0513255193868
  0
ARC
  5
28F
330
2
100
AcDbEntity
  8
0
 48
0.6
100
AcDbCircle
 10
79.08711282558217
 20
312.4605736558241
 30
0.0
 40
3.067967999999998
100
AcDbArc
 50
252.2801918471949
 51
308.0513255193868
  0
ARC
  5
290
330
2
100
AcDbEntity
  8
0
 48
0.6
100
AcDbCircle
 10
67.88182378551209
 20
277.3916261525391
 30
0.0
 40
33.74764799999999
100
AcDbArc
 50
72.28019184719491
 51
107.719808152805
  0
LWPOLYLINE
  5
291
330
2
100
AcDbEntity
  8
3
100
AcDbPolyline
 90
        4
 70
     1
 43
0.0
 10
61.66179285556063
 20
339.270010322607
 10
64.96179285555991
 20
339.270010322607
 10
64.96179285555991
 20
342.770010322607
 10
61.66179285556063
 20
342.770010322607
  0
ARC
  5
292
330
2
100
AcDbEntity
  8
0
 48
0.6
100
AcDbCircle
 10
52.89454549740913
 20
307.6287760686091
 30
0.0
 40
3.067967999999998
100
AcDbArc
 50
51.94867448061305
 51
116.3656725032109
  0
DIMENSION
  5
293
330
2
100
AcDbEntity
  8
0
100
AcDbDimension
  2
*D36
 10
112.9572880997002
 20
338.8100313290442
 30
0.0
 11
67.95728809969296
 21
338.8100313290442
 31
0.0
 70
   160
 71
     5
 42
-1.0
  3
STANDARD
100
AcDbAlignedDimension
 13
22.95728809970023
 23
317.3488323937426
 33
0.0
 14
112.9572880997002
 24
317.3488323937426
 34
0.0
100
AcDbRotatedDimension
  0
ARC
  5
2A0
330
2
100
AcDbEntity
  8
0
 48
0.6
100
AcDbCircle
 10
56.67653474545295
 20
312.4605736558241
 30
0.0
 40
3.067967999999998
100
AcDbArc
 50
231.948674480613
 51
287.7198081528051
  0
DIMENSION
  5
2A1
330
2
100
AcDbEntity
  8
0
100
AcDbDimension
  2
*D39
 10
189.0223445640403
 20
333.9926110669366
 30
0.0
 11
188.0223445640403
 21
333.9926110669366
 31
0.0
 70
   160
 71
     5
 42
-1.0
  3
STANDARD
100
AcDbAlignedDimension
 13
187.0223445640403
 23
318.8916261525391
 33
0.0
 14
189.0223445640403
 24
322.391626152541
 34
0.0
100
AcDbRotatedDimension
  0
DIMENSION
  5
2B0
102
{ACAD_XDICTIONARY
360
2B1
102
}
102
{ACAD_REACTORS
330
2B2
102
}
330
2
100
AcDbEntity
  8
0
100
AcDbDimension
  2
*D38
 10
196.5223445640404
 20
344.7229367271356
 30
0.0
 11
192.7723445640403
 21
344.7229367271356
 31
0.0
 70
   160
 71
     5
 42
-1.0
  3
STANDARD
100
AcDbAlignedDimension
 13
189.0223445640403
 23
321.5999594858731
 33
0.0
 14
196.5223445640404
 24
320.9903634940692
 34
0.0
100
AcDbRotatedDimension
  0
LINE
  5
2BF
330
2
100
AcDbEntity
  8
0
100
AcDbLine
 10
257.1223445640425
 20
304.8916261525391
 30
0.0
 11
195.6223445640425
 21
304.8916261525391
 31
0.0
  0
ARC
  5
2C0
330
2
100
AcDbEntity
  8
0
100
AcDbCircle
 10
306.2332806633312
 20
323.2805615381848
 30
0.0
 40
1.0
100
AcDbArc
 50
359.9999999999998
 51
90.00000000000005
  0
ARC
  5
2C1
330
2
100
AcDbEntity
  8
0
100
AcDbCircle
 10
303.7999611908126
 20
323.2805615381848
 30
0.0
 40
1.0
100
AcDbArc
 50
89.99999999999991
 51
179.9999999999998
  0
LINE
  5
2C2
330
2
100
AcDbEntity
  8
0
100
AcDbLine
 10
303.7999611908126
 20
324.2805615381848
 30
0.0
 11
306.2332806633312
 21
324.2805615381848
 31
0.0
  0
LINE
  5
2C3
330
2
100
AcDbEntity
  8
0
100
AcDbLine
 10
307.2332806633312
 20
323.2805615381848
 30
0.0
 11
307.2332806633312
 21
322.391626152541
 31
0.0
  0
LINE
  5
2C4
330
2
100
AcDbEntity
  8
0
100
AcDbLine
 10
302.7999611908126
 20
322.391626152541
 30
0.0
 11
302.7999611908126
 21
323.2805615381848
 31
0.0
  0
LINE
  5
2C5
102
{ACAD_REACTORS
330
2B2
102
}
330
2
100
AcDbEntity
  8
0
100
AcDbLine
 10
195.6223445640425
 20
320.9903634940692
 30
0.0
 11
196.5223445640404
 21
320.9903634940692
 31
0.0
  0
LINE
  5
2C6
330
2
100
AcDbEntity
  8
0
100
AcDbLine
 10
195.6223445640425
 20
313.2903634940694
 30
0.0
 11
196.5223445640404
 21
313.2903634940694
 31
0.0
  0
LINE
  5
2C7
330
2
100
AcDbEntity
  8
0
100
AcDbLine
 10
196.5223445640404
 20
313.2903634940694
 30
0.0
 11
196.5223445640404
 21
320.9903634940692
 31
0.0
  0
LINE
  5
2C8
330
2
100
AcDbEntity
  8
0
100
AcDbLine
 10
317.0223445640404
 20
322.391626152541
 30
0.0
 11
195.6223445640425
 21
322.3916261525382
 31
0.0
  0
LINE
  5
2C9
330
2
100
AcDbEntity
  8
0
100
AcDbLine
 10
189.0223445640403
 20
318.8916261525391
 30
0.0
 11
187.0223445640403
 21
318.8916261525391
 31
0.0
  0
LINE
  5
2CA
330
2
100
AcDbEntity
  8
0
100
AcDbLine
 10
189.0223445640403
 20
322.3916261525382
 30
0.0
 11
195.6223445640425
 21
322.3916261525382
 31
0.0
  0
DIMENSION
  5
2CB
330
2
100
AcDbEntity
  8
0
100
AcDbDimension
  2
*D37
 10
324.0223445640403
 20
355.5763850604498
 30
0.0
 11
256.5223445640294
 21
355.5763850604498
 31
0.0
 70
   160
 71
     5
 42
-1.0
  3
STANDARD
100
AcDbAlignedDimension
 13
189.0223445640403
 23
337.4916261525395
 33
0.0
 14
324.0223445640403
 24
314.891626152541
 34
0.0
100
AcDbRotatedDimension
  0
ARC
  5
2D8
330
2
100
AcDbEntity
  8
0
100
AcDbCircle
 10
317.0223445640404
 20
315.3916261525409
 30
0.0
 40
7.0
100
AcDbArc
 50
359.9999999999998
 51
90.0000000000001
  0
LINE
  5
2D9
330
2
100
AcDbEntity
  8
0
100
AcDbLine
 10
333.9074711803005
 20
120.9077714333834
 30
0.0
 11
333.9074711803005
 21
110.3116960351453
 31
0.0
  0
LINE
  5
2DA
330
2
100
AcDbEntity
  8
0
100
AcDbLine
 10
333.9074711803005
 20
55.50384683162338
 30
0.0
 11
333.9074711803005
 21
44.90777143338346
 31
0.0
  0
LINE
  5
2DB
330
2
100
AcDbEntity
  8
0
100
AcDbLine
 10
333.9074711803005
 20
96.31169603514535
 30
0.0
 11
333.9074711803005
 21
69.50384683162337
 31
0.0
  0
LINE
  5
2DC
330
2
100
AcDbEntity
  8
0
100
AcDbLine
 10
333.9074711803005
 20
110.3116960351453
 30
0.0
 11
333.9074711803005
 21
55.50384683162338
 31
0.0
  0
LINE
  5
466
330
2
100
AcDbEntity
  8
0
100
AcDbLine
 10
205.507471180299
 20
55.40777143338345
 30
0.0
 11
205.507471180299
 21
37.90777143338254
 31
0.0
  0
LINE
  5
468
330
2
100
AcDbEntity
  8
0
100
AcDbLine
 10
195.6223445640425
 20
249.8916261525391
 30
0.0
 11
195.6223445640425
 21
232.3916261525382
 31
0.0
  0
ENDSEC
  0
SECTION
  2
OBJECTS
  0
DICTIONARY
  5
8
330
0
100
AcDbDictionary
281
     1
  3
ACAD_CIP_PREVIOUS_PRODUCT_INFO
350
465
  3
ACAD_COLOR
350
449
  3
ACAD_GROUP
350
97
  3
ACAD_LAYOUT
350
C
  3
ACAD_MATERIAL
350
417
  3
ACAD_MLEADERSTYLE
350
45E
  3
ACAD_MLINESTYLE
350
98
  3
ACAD_PLOTSETTINGS
350
99
  3
ACAD_PLOTSTYLENAME
350
7
  3
ACAD_SCALELIST
350
44C
  3
ACAD_TABLESTYLE
350
44A
  3
ACAD_VISUALSTYLE
350
430
  3
ACDB_RECOMPOSE_DATA
350
4D0
  3
ACDBVARIABLEDICTIONARY
350
2DD
  3
DWGPROPS
350
4D1
  0
DICTIONARY
  5
13
330
12
100
AcDbDictionary
280
     1
281
     1
  3
ACAD_LAYERFILTERS
360
14
  3
ACAD_LAYERSTATES
360
87
  0
DICTIONARY
  5
4BB
330
5
100
AcDbDictionary
280
     1
281
     1
  3
ADSK_XREC_LAYER_RECONCILED
360
4BC
  0
DICTIONARY
  5
4BD
330
205
100
AcDbDictionary
280
     1
281
     1
  3
ADSK_XREC_LAYER_RECONCILED
360
4BE
  0
DICTIONARY
  5
4BF
330
9D
100
AcDbDictionary
280
     1
281
     1
  3
ADSK_XREC_LAYER_RECONCILED
360
4C0
  0
DICTIONARY
  5
4C1
330
11A
100
AcDbDictionary
280
     1
281
     1
  3
ADSK_XREC_LAYER_RECONCILED
360
4C2
  0
DICTIONARY
  5
4C3
330
D8
100
AcDbDictionary
280
     1
281
     1
  3
ADSK_XREC_LAYER_RECONCILED
360
4C4
  0
DICTIONARY
  5
4C5
330
22E
100
AcDbDictionary
280
     1
281
     1
  3
ADSK_XREC_LAYER_RECONCILED
360
4C6
  0
DICTIONARY
  5
3
330
2
100
AcDbDictionary
280
     1
281
     1
  3
ACAD_LAYOUTSELFREF
360
3FC
  3
ACAD_SORTENTS
360
467
  0
DICTIONARY
  5
E
330
D
100
AcDbDictionary
280
     1
281
     1
  3
ACAD_LAYOUTSELFREF
360
3FD
  0
DICTIONARY
  5
4D2
330
123
100
AcDbDictionary
280
     1
281
     1
  3
ACAD_MTEXT_RT
360
4D3
  0
DICTIONARY
  5
11E
330
11D
100
AcDbDictionary
280
     1
281
     1
  3
ACAD_DIMASSOC
360
11F
  0
DICTIONARY
  5
F8
330
F7
100
AcDbDictionary
280
     1
281
     1
  3
ACAD_DIMASSOC
360
F9
  0
DICTIONARY
  5
147
330
146
100
AcDbDictionary
280
     1
281
     1
  3
ACAD_DIMASSOC
360
148
  0
DICTIONARY
  5
156
330
155
100
AcDbDictionary
280
     1
281
     1
  3
ACAD_DIMASSOC
360
157
  0
DICTIONARY
  5
1BD
330
1BC
100
AcDbDictionary
280
     1
281
     1
  3
ACAD_DIMASSOC
360
1BE
  0
DICTIONARY
  5
1D1
330
1D0
100
AcDbDictionary
280
     1
281
     1
  3
ACAD_DIMASSOC
360
1D2
  0
DICTIONARY
  5
1E1
330
1E0
100
AcDbDictionary
280
     1
281
     1
  3
ACAD_DIMASSOC
360
1E2
  0
DICTIONARY
  5
208
330
207
100
AcDbDictionary
280
     1
281
     1
  3
ACAD_DIMASSOC
360
209
  0
DICTIONARY
  5
2B1
330
2B0
100
AcDbDictionary
280
     1
281
     1
  3
ACAD_DIMASSOC
360
2B2
  0
XRECORD
  5
465
102
{ACAD_REACTORS
330
8
102
}
330
8
100
AcDbXrecord
280
     1
300
AMECH_PP
300
2012
300
PDSP_F_S
  0
DICTIONARY
  5
449
102
{ACAD_REACTORS
330
8
102
}
330
8
100
AcDbDictionary
281
     1
  0
DICTIONARY
  5
97
102
{ACAD_REACTORS
330
8
102
}
330
8
100
AcDbDictionary
281
     1
  0
DICTIONARY
  5
C
102
{ACAD_REACTORS
330
8
102
}
330
8
100
AcDbDictionary
281
     1
  3
Model
350
460
  3
배치1
350
461
  0
DICTIONARY
  5
417
102
{ACAD_REACTORS
330
8
102
}
330
8
100
AcDbDictionary
281
     1
  3
ByBlock
350
420
  3
ByLayer
350
418
  3
Global
350
428
  0
DICTIONARY
  5
45E
102
{ACAD_REACTORS
330
8
102
}
330
8
100
AcDbDictionary
281
     1
  3
Standard
350
45F
  0
DICTIONARY
  5
98
102
{ACAD_REACTORS
330
8
102
}
330
8
100
AcDbDictionary
281
     1
  3
STANDARD
350
9A
  0
DICTIONARY
  5
99
102
{ACAD_REACTORS
330
8
102
}
330
8
100
AcDbDictionary
281
     1
  0
ACDBDICTIONARYWDFLT
  5
7
102
{ACAD_REACTORS
330
8
102
}
330
8
100
AcDbDictionary
281
     1
  3
Normal
350
6
100
AcDbDictionaryWithDefault
340
6
  0
DICTIONARY
  5
44C
102
{ACAD_REACTORS
330
8
102
}
330
8
100
AcDbDictionary
281
     1
  3
A0
350
44D
  3
A1
350
44E
  3
A2
350
44F
  3
A3
350
450
  3
A4
350
451
  3
A5
350
452
  3
A6
350
453
  3
A7
350
454
  3
A8
350
455
  3
A9
350
456
  3
B0
350
457
  3
B1
350
458
  3
B2
350
459
  3
B3
350
45A
  3
B4
350
45B
  3
B5
350
45C
  3
B6
350
45D
  0
DICTIONARY
  5
44A
102
{ACAD_REACTORS
330
8
102
}
330
8
100
AcDbDictionary
281
     1
  3
Standard
350
44B
  0
DICTIONARY
  5
430
102
{ACAD_REACTORS
330
8
102
}
330
8
100
AcDbDictionary
281
     1
  3
2dWireframe
350
436
  3
Basic
350
435
  3
Brighten
350
43C
  3
ColorChange
350
440
  3
Conceptual
350
439
  3
Dim
350
43B
  3
EdgeColorOff
350
448
  3
Facepattern
350
43F
  3
Flat
350
431
  3
FlatWithEdges
350
432
  3
Gouraud
350
433
  3
GouraudWithEdges
350
434
  3
Hidden
350
438
  3
JitterOff
350
446
  3
Linepattern
350
43E
  3
OverhangOff
350
447
  3
Realistic
350
43A
  3
Shaded
350
445
  3
Shaded with edges
350
444
  3
Shades of Gray
350
441
  3
Sketchy
350
442
  3
Thicken
350
43D
  3
Wireframe
350
437
  3
X-Ray
350
443
  0
XRECORD
  5
4D0
102
{ACAD_REACTORS
330
8
102
}
330
8
100
AcDbXrecord
280
     1
 90
        1
330
44B
  0
DICTIONARY
  5
2DD
102
{ACAD_REACTORS
330
8
102
}
330
8
100
AcDbDictionary
281
     1
  3
CANNOSCALE
350
4C9
  3
CMLEADERSTYLE
350
4C8
  3
CTABLESTYLE
350
4C7
  3
DIMASSOC
350
2DF
  3
HIDETEXT
350
2DE
  3
INDEXCTL
350
4CB
  3
SORTENTS
350
4CA
  3
XCLIPFRAME
350
4CC
  0
XRECORD
  5
4D1
102
{ACAD_REACTORS
330
8
102
}
330
8
100
AcDbXrecord
280
     1
  1
DWGPROPS COOKIE
  2

  3

  4

  6

  7

  8
김성진
  9

300
=
301
=
302
=
303
=
304
=
305
=
306
=
307
=
308
=
309
=
 40
11.12669501157407
 41
2452839.586179271
 42
2456237.797693809
  1

 90
        0
  0
DICTIONARY
  5
14
102
{ACAD_REACTORS
330
13
102
}
330
13
100
AcDbDictionary
280
     1
281
     1
  3
$LAYERS
360
15
  3
-_UND_0
360
16
  3
-PEGC
360
17
  3
101
360
18
  3
102
360
19
  3
1DUC
360
1A
  3
1EQ
360
1B
  3
1TUB
360
1C
  3
2
360
1D
  3
2000
360
1E
  3
50
360
1F
  3
58J
360
20
  3
65
360
21
  3
AA
360
22
  3
ACABADOS
360
23
  3
AGUA_Y_DREN
360
24
  3
AIRE
360
25
  3
ALLE_AUS
360
26
  3
ALLES_MIT_S
360
27
  3
AMARILLO
360
28
  3
APAGADOS
360
29
  3
ARR
360
2A
  3
BA
360
2B
  3
BACKS
360
2C
  3
BASE
360
2D
  3
BLOQ_INUTIL
360
2E
  3
CADKON
360
2F
  3
CARPINTERIA
360
30
  3
CERRADOS
360
31
  3
COL
360
32
  3
COLOR
360
33
  3
COLOR_250
360
34
  3
COLORES
360
35
  3
CONGELADOS
360
36
  3
CONJUNTO
360
37
  3
D1
360
38
  3
DA_
360
39
  3
DET-
360
3A
  3
DOR-H
360
3B
  3
EJES
360
3C
  3
ELECTRICO
360
3D
  3
F1
360
3E
  3
FROZEN
360
3F
  3
GRID
360
40
  3
GRIDTXT
360
41
  3
HATCH
360
42
  3
HCAD
360
43
  3
INSTALACIONES
360
44
  3
JIZNI
360
45
  3
KCK
360
46
  3
KKK
360
47
  3
LAY
360
48
  3
LAYER-0
360
4C
  3
LAYER-1
360
4D
  3
LAYER_1_UND_0
360
49
  3
LAYER_2_UND_0
360
4A
  3
LAYER_9_UND_0_SCHRAFFUR
360
4B
  3
LOCK
360
4E
  3
LOCKED
360
4F
  3
LOTES
360
50
  3
LUNAR
360
51
  3
LUNAR2
360
52
  3
M
360
53
  3
MIS_LAYERS
360
54
  3
MRKCK
360
55
  3
NECADKON
360
56
  3
NI_LH
360
57
  3
NI_RH
360
58
  3
NUM
360
59
  3
OFF
360
5A
  3
ON
360
5B
  3
PBASE
360
5C
  3
PEGC
360
5D
  3
PEGCT
360
5E
  3
PFRAME
360
5F
  3
PGRID
360
60
  3
PGRIDT
360
61
  3
PLAFONES
360
62
  3
PLANTAS
360
63
  3
PLOT
360
64
  3
PRENDIDAS
360
65
  3
PRENDIDOS
360
66
  3
PRINT
360
67
  3
PT
360
68
  3
PTH
360
69
  3
PVGRID
360
6A
  3
RED_DE_AGUA_POTABLE
360
6B
  3
RED_DE_ENERGIA_ELECTRICA
360
6C
  3
SEVERNI
360
6D
  3
SHIN
360
6E
  3
SHOW_ALL_LAYER
360
6F
  3
SIN
360
70
  3
STORAGE-CART
360
71
  3
T
360
72
  3
TEXTOS
360
73
  3
TEXTURAS
360
74
  3
TUBERIAS
360
75
  3
UNFRZ
360
76
  3
VA
360
78
  3
VENTILACI\U+00D3N
360
79
  3
VYHODNI
360
7A
  3
V\U+0160ECHNY_NEPOU\U+017D\U+00CDVAN\U+00C9
360
77
  3
YO
360
7B
  3
ZAPADNI
360
7C
  3
사용
360
7D
  3
신규
360
7E
  3
실박스
360
7F
  3
우리토목
360
80
  3
주차
360
81
  3
지상정밀
360
82
  3
쩜선
360
83
  3
플로터_작업층
360
84
  3
현재_작업층
360
85
  3
현재_잠금
360
86
  0
DICTIONARY
  5
87
102
{ACAD_REACTORS
330
13
102
}
330
13
100
AcDbDictionary
281
     1
  0
XRECORD
  5
4BC
102
{ACAD_REACTORS
330
4BB
102
}
330
4BB
100
AcDbXrecord
280
     1
290
     1
  0
XRECORD
  5
4BE
102
{ACAD_REACTORS
330
4BD
102
}
330
4BD
100
AcDbXrecord
280
     1
290
     1
  0
XRECORD
  5
4C0
102
{ACAD_REACTORS
330
4BF
102
}
330
4BF
100
AcDbXrecord
280
     1
290
     1
  0
XRECORD
  5
4C2
102
{ACAD_REACTORS
330
4C1
102
}
330
4C1
100
AcDbXrecord
280
     1
290
     1
  0
XRECORD
  5
4C4
102
{ACAD_REACTORS
330
4C3
102
}
330
4C3
100
AcDbXrecord
280
     1
290
     1
  0
XRECORD
  5
4C6
102
{ACAD_REACTORS
330
4C5
102
}
330
4C5
100
AcDbXrecord
280
     1
290
     1
  0
XRECORD
  5
3FC
102
{ACAD_REACTORS
330
3
102
}
330
3
100
AcDbXrecord
280
     1
340
2
  0
SORTENTSTABLE
  5
467
102
{ACAD_REACTORS
330
3
102
}
330
3
100
AcDbSortentsTable
330
2
331
2C0
  5
2C2
331
22A
  5
22C
331
227
  5
229
331
2CB
  5
2D9
331
27F
  5
281
331
25D
  5
25F
331
1AB
  5
1AD
331
189
  5
18B
331
13F
  5
140
331
26E
  5
270
331
234
  5
236
331
19A
  5
19C
331
178
  5
17A
331
C6
  5
C6
331
228
  5
22A
331
225
  5
227
331
1EF
  5
1F1
331
1A9
  5
1AB
331
187
  5
189
331
13D
  5
13D
331
27D
  5
27F
331
25B
  5
25D
331
2C9
  5
2CB
331
207
  5
225
331
28E
  5
290
331
26C
  5
26E
331
232
  5
234
331
198
  5
19A
331
176
  5
178
331
145
  5
146
331
DA
  5
DA
331
C4
  5
C4
331
2B0
  5
2C0
331
27B
  5
27D
331
259
  5
25B
331
241
  5
243
331
1A7
  5
1A9
331
185
  5
187
331
28C
  5
28E
331
26A
  5
26C
331
230
  5
232
331
196
  5
198
331
174
  5
176
331
143
  5
144
331
13B
  5
13B
331
136
  5
136
331
115
  5
115
331
C2
  5
C2
331
9E
  5
9E
331
257
  5
259
331
23F
  5
241
331
1A5
  5
1A7
331
183
  5
185
331
279
  5
27B
331
1D0
  5
1E0
331
139
  5
139
331
2DB
  5
466
331
268
  5
26A
331
194
  5
196
331
172
  5
174
331
141
  5
142
331
28A
  5
28C
331
113
  5
113
331
E9
  5
E9
331
A2
  5
A2
331
106
  5
106
331
9C
  5
9C
331
255
  5
257
331
23D
  5
23F
331
1A3
  5
1A5
331
2D9
  5
2DB
331
293
  5
2A1
331
288
  5
28A
331
266
  5
268
331
24E
  5
250
331
1B4
  5
1B6
331
192
  5
194
331
170
  5
172
331
1F6
  5
204
331
D7
  5
D7
331
A0
  5
A0
331
2C7
  5
2C9
331
275
  5
277
331
253
  5
255
331
23B
  5
23D
331
1A1
  5
1A3
331
468
  5
13F
331
291
  5
293
331
286
  5
288
331
264
  5
266
331
24C
  5
24E
331
1B2
  5
1B4
331
190
  5
192
331
1F4
  5
1F6
331
16E
  5
170
331
2BF
  5
2C1
331
17F
  5
181
331
D5
  5
D5
331
2C5
  5
2C7
331
251
  5
253
331
239
  5
23B
331
2A1
  5
2BF
331
22F
  5
231
331
16C
  5
16E
331
262
  5
264
331
24A
  5
24C
331
1B0
  5
1B2
331
18E
  5
190
331
166
  5
167
331
284
  5
286
331
1F2
  5
1F4
331
17D
  5
17F
331
1CF
  5
1DF
331
466
  5
168
331
19F
  5
1A1
331
1BB
  5
1CB
331
2C3
  5
2C5
331
271
  5
273
331
22D
  5
230
331
16A
  5
16C
331
260
  5
262
331
248
  5
24A
331
1AE
  5
1B0
331
18C
  5
18E
331
164
  5
165
331
282
  5
284
331
1F0
  5
1F2
331
1CD
  5
1CF
331
17B
  5
17D
331
237
  5
239
331
19D
  5
19F
331
2C1
  5
2C3
331
22B
  5
22D
331
280
  5
282
331
25E
  5
260
331
246
  5
248
331
1AC
  5
1AE
331
18A
  5
18C
331
168
  5
16A
331
1CB
  5
1CD
331
179
  5
17B
331
26F
  5
271
331
235
  5
237
331
19B
  5
19D
331
C7
  5
C7
331
229
  5
22B
331
226
  5
228
331
1AA
  5
1AC
331
13E
  5
13E
331
2CA
  5
2D8
331
27E
  5
280
331
25C
  5
25E
331
28F
  5
291
331
26D
  5
26F
331
233
  5
235
331
199
  5
19B
331
177
  5
179
331
146
  5
155
331
DB
  5
DB
331
C5
  5
C5
331
27C
  5
27E
331
25A
  5
25C
331
242
  5
244
331
1A8
  5
1AA
331
186
  5
188
331
2C8
  5
2CA
331
206
  5
216
331
1DF
  5
1EF
331
175
  5
177
331
144
  5
145
331
28D
  5
28F
331
26B
  5
26D
331
231
  5
233
331
197
  5
199
331
13C
  5
13C
331
137
  5
137
331
C3
  5
C3
331
9F
  5
9F
331
27A
  5
27C
331
258
  5
25A
331
240
  5
242
331
1A6
  5
1A8
331
184
  5
186
331
2DC
  5
468
331
204
  5
207
331
269
  5
26B
331
1E0
  5
1F0
331
1B7
  5
1B9
331
195
  5
197
331
173
  5
175
331
142
  5
143
331
13A
  5
13A
331
28B
  5
28D
331
114
  5
114
331
EA
  5
EA
331
278
  5
27A
331
256
  5
258
331
23E
  5
240
331
1A4
  5
1A6
331
138
  5
138
331
2DA
  5
2DC
331
267
  5
269
331
24F
  5
251
331
193
  5
195
331
171
  5
173
331
140
  5
141
331
289
  5
28B
331
E8
  5
E8
331
A1
  5
A1
331
1F7
  5
206
331
9B
  5
9B
331
254
  5
256
331
23C
  5
23E
331
1A2
  5
1A4
331
180
  5
182
331
2D8
  5
2DA
331
155
  5
164
331
216
  5
226
331
287
  5
289
331
265
  5
267
331
24D
  5
24F
331
1B3
  5
1B5
331
191
  5
193
331
16F
  5
171
331
1F5
  5
1F7
331
292
  5
2A0
331
D6
  5
D6
331
2C6
  5
2C8
331
252
  5
254
331
23A
  5
23C
331
1A0
  5
1A2
331
290
  5
292
331
263
  5
265
331
24B
  5
24D
331
1B1
  5
1B3
331
18F
  5
191
331
167
  5
169
331
16D
  5
16F
331
285
  5
287
331
1BC
  5
1CC
331
1F3
  5
1F5
331
17E
  5
180
331
D4
  5
D4
331
272
  5
274
331
250
  5
252
331
238
  5
23A
331
2C4
  5
2C6
331
2A0
  5
2B0
331
16B
  5
16D
331
261
  5
263
331
1AF
  5
1B1
331
165
  5
166
331
283
  5
285
331
1F1
  5
1F3
331
1CE
  5
1D0
331
17C
  5
17E
331
19E
  5
1A0
331
B3
  5
B3
331
2C2
  5
2C4
331
270
  5
272
331
22C
  5
22F
331
25F
  5
261
331
247
  5
249
331
1AD
  5
1AF
331
18B
  5
18D
331
169
  5
16B
331
281
  5
283
331
1B8
  5
1BA
331
1CC
  5
1CE
331
17A
  5
17C
331
236
  5
238
331
19C
  5
19E
331
F7
  5
F7
  0
XRECORD
  5
3FD
102
{ACAD_REACTORS
330
E
102
}
330
E
100
AcDbXrecord
280
     1
340
D
  0
XRECORD
  5
4D3
102
{ACAD_REACTORS
330
4D2
102
}
330
4D2
100
AcDbXrecord
280
     1
 40
11034.0
  1
\A1;\U+2205104%%P0.5
  0
DIMASSOC
  5
11F
102
{ACAD_REACTORS
330
11E
102
}
330
11E
100
AcDbDimAssoc
330
11D
 90
        2
 70
     0
 71
     0
  1
AcDbOsnapPointRef
 72
     3
331
11C
 73
     2
 91
        0
 40
0.0
 10
0.0
 20
0.0
 30
0.0
 75
     0
  0
DIMASSOC
  5
F9
102
{ACAD_REACTORS
330
F8
102
}
330
F8
100
AcDbDimAssoc
330
F7
 90
        3
 70
     0
 71
     0
  1
AcDbOsnapPointRef
 72
    13
331
13F
 73
     2
 91
        0
 40
0.0
 10
187.0223445640403
 20
318.8916261525391
 30
0.0
 75
     0
  1
AcDbOsnapPointRef
 72
     1
331
13F
 73
     2
 91
        0
 40
1.0
 10
187.0223445640403
 20
235.8916261525391
 30
0.0
 75
     0
  0
DIMASSOC
  5
148
102
{ACAD_REACTORS
330
147
102
}
330
147
100
AcDbDimAssoc
330
146
 90
        1
 70
     0
 71
     0
  1
AcDbOsnapPointRef
 72
     1
331
1A4
 73
     2
 91
        0
 40
1.0
 10
161.9074711803004
 20
87.90777143338344
 30
0.0
 75
     0
  0
DIMASSOC
  5
157
102
{ACAD_REACTORS
330
156
102
}
330
156
100
AcDbDimAssoc
330
155
 90
        3
 70
     0
 71
     0
  1
AcDbOsnapPointRef
 72
    13
331
164
 73
     2
 91
        0
 40
0.0
 10
196.9074711803004
 20
124.4077714333834
 30
0.0
 75
     0
  1
AcDbOsnapPointRef
 72
     1
331
164
 73
     2
 91
        0
 40
1.0
 10
196.9074711803004
 20
41.40777143338346
 30
0.0
 75
     0
  0
DIMASSOC
  5
1BE
102
{ACAD_REACTORS
330
1BD
102
}
330
1BD
100
AcDbDimAssoc
330
1BC
 90
        3
 70
     0
 71
     0
  1
AcDbOsnapPointRef
 72
     1
331
1AA
 73
     2
 91
        0
 40
1.0
 10
161.9074711803004
 20
76.90777143338346
 30
0.0
 75
     0
  1
AcDbOsnapPointRef
 72
     1
331
1A4
 73
     2
 91
        0
 40
1.0
 10
161.9074711803004
 20
87.90777143338344
 30
0.0
 75
     0
  0
DIMASSOC
  5
1D2
102
{ACAD_REACTORS
330
1D1
102
}
330
1D1
100
AcDbDimAssoc
330
1D0
 90
        3
 70
     0
 71
     0
  1
AcDbOsnapPointRef
 72
     1
331
1A4
 73
     2
 91
        0
 40
1.0
 10
161.9074711803004
 20
87.90777143338344
 30
0.0
 75
     0
  1
AcDbOsnapPointRef
 72
     1
331
1A1
 73
     2
 91
        0
 40
1.0
 10
191.9074711803004
 20
88.90777143338345
 30
0.0
 75
     0
  0
DIMASSOC
  5
1E2
102
{ACAD_REACTORS
330
1E1
102
}
330
1E1
100
AcDbDimAssoc
330
1E0
 90
        3
 70
     0
 71
     0
  1
AcDbOsnapPointRef
 72
     1
331
1AA
 73
     2
 91
        0
 40
1.0
 10
161.9074711803004
 20
76.90777143338346
 30
0.0
 75
     0
  1
AcDbOsnapPointRef
 72
     1
331
1A1
 73
     2
 91
        0
 40
1.0
 10
191.9074711803004
 20
88.90777143338345
 30
0.0
 75
     0
  0
DIMASSOC
  5
209
102
{ACAD_REACTORS
330
208
102
}
330
208
100
AcDbDimAssoc
330
207
 90
        2
 70
     0
 71
     0
  1
AcDbOsnapPointRef
 72
     1
331
1F5
 73
     2
 91
        0
 40
1.0
 10
206.4074711803004
 20
126.5065087749135
 30
0.0
 75
     0
  0
DIMASSOC
  5
2B2
102
{ACAD_REACTORS
330
2B1
102
}
330
2B1
100
AcDbDimAssoc
330
2B0
 90
        2
 70
     0
 71
     0
  1
AcDbOsnapPointRef
 72
     1
331
2C5
 73
     2
 91
        0
 40
1.0
 10
196.5223445640404
 20
320.9903634940692
 30
0.0
 75
     0
  0
LAYOUT
  5
460
102
{ACAD_XDICTIONARY
360
509
102
}
102
{ACAD_REACTORS
330
C
102
}
330
C
100
AcDbPlotSettings
  1

  2
RICOH Aficio 2027 RPCS
  4

  6

 40
0.0
 41
0.0
 42
0.0
 43
0.0
 44
0.0
 45
0.0
 46
0.0
 47
0.0
 48
0.0
 49
0.0
140
0.0
141
0.0
142
1.0
143
1.0
 70
  1712
 72
     0
 73
     0
 74
     0
  7

 75
     0
147
1.0
148
0.0
149
0.0
100
AcDbLayout
  1
Model
 70
     1
 71
     0
 10
0.0
 20
0.0
 11
12.0
 21
9.0
 12
0.0
 22
0.0
 32
0.0
 14
0.0
 24
0.0
 34
0.0
 15
0.0
 25
0.0
 35
0.0
146
0.0
 13
0.0
 23
0.0
 33
0.0
 16
1.0
 26
0.0
 36
0.0
 17
0.0
 27
1.0
 37
0.0
 76
     0
330
2
331
3DA
  0
LAYOUT
  5
461
102
{ACAD_XDICTIONARY
360
50B
102
}
102
{ACAD_REACTORS
330
C
102
}
330
C
100
AcDbPlotSettings
  1

  2
RICOH Aficio 2027 RPCS
  4

  6

 40
0.0
 41
0.0
 42
0.0
 43
0.0
 44
0.0
 45
0.0
 46
0.0
 47
0.0
 48
0.0
 49
0.0
140
0.0
141
0.0
142
1.0
143
1.0
 70
   688
 72
     0
 73
     0
 74
     5
  7

 75
    16
147
1.0
148
0.0
149
0.0
100
AcDbLayout
  1
배치1
 70
     1
 71
     1
 10
0.0
 20
0.0
 11
12.0
 21
9.0
 12
0.0
 22
0.0
 32
0.0
 14
0.0
 24
0.0
 34
0.0
 15
0.0
 25
0.0
 35
0.0
146
0.0
 13
0.0
 23
0.0
 33
0.0
 16
1.0
 26
0.0
 36
0.0
 17
0.0
 27
1.0
 37
0.0
 76
     0
330
D
  0
MATERIAL
  5
420
102
{ACAD_XDICTIONARY
360
421
102
}
102
{ACAD_REACTORS
330
417
102
}
330
417
100
AcDbMaterial
  1
ByBlock
 72
     0
 43
0.0008202099737533
 43
0.0
 43
0.0
 43
0.0
 43
0.0
 43
0.0008202099737533
 43
0.0
 43
0.0
 43
0.0
 43
0.0
 43
1.0
 43
0.0
 43
0.0
 43
0.0
 43
0.0
 43
1.0
 77
     0
 47
0.0008202099737533
 47
0.0
 47
0.0
 47
0.0
 47
0.0
 47
0.0008202099737533
 47
0.0
 47
0.0
 47
0.0
 47
0.0
 47
1.0
 47
0.0
 47
0.0
 47
0.0
 47
0.0
 47
1.0
171
     0
 49
0.0008202099737533
 49
0.0
 49
0.0
 49
0.0
 49
0.0
 49
0.0008202099737533
 49
0.0
 49
0.0
 49
0.0
 49
0.0
 49
1.0
 49
0.0
 49
0.0
 49
0.0
 49
0.0
 49
1.0
175
     0
142
0.0008202099737533
142
0.0
142
0.0
142
0.0
142
0.0
142
0.0008202099737533
142
0.0
142
0.0
142
0.0
142
0.0
142
1.0
142
0.0
142
0.0
142
0.0
142
0.0
142
1.0
179
     0
144
0.0008202099737533
144
0.0
144
0.0
144
0.0
144
0.0
144
0.0008202099737533
144
0.0
144
0.0
144
0.0
144
0.0
144
1.0
144
0.0
144
0.0
144
0.0
144
0.0
144
1.0
147
0.0008202099737533
147
0.0
147
0.0
147
0.0
147
0.0
147
0.0008202099737533
147
0.0
147
0.0
147
0.0
147
0.0
147
1.0
147
0.0
147
0.0
147
0.0
147
0.0
147
1.0
  0
MATERIAL
  5
418
102
{ACAD_XDICTIONARY
360
419
102
}
102
{ACAD_REACTORS
330
417
102
}
330
417
100
AcDbMaterial
  1
ByLayer
 72
     0
 43
0.0008202099737533
 43
0.0
 43
0.0
 43
0.0
 43
0.0
 43
0.0008202099737533
 43
0.0
 43
0.0
 43
0.0
 43
0.0
 43
1.0
 43
0.0
 43
0.0
 43
0.0
 43
0.0
 43
1.0
 77
     0
 47
0.0008202099737533
 47
0.0
 47
0.0
 47
0.0
 47
0.0
 47
0.0008202099737533
 47
0.0
 47
0.0
 47
0.0
 47
0.0
 47
1.0
 47
0.0
 47
0.0
 47
0.0
 47
0.0
 47
1.0
171
     0
 49
0.0008202099737533
 49
0.0
 49
0.0
 49
0.0
 49
0.0
 49
0.0008202099737533
 49
0.0
 49
0.0
 49
0.0
 49
0.0
 49
1.0
 49
0.0
 49
0.0
 49
0.0
 49
0.0
 49
1.0
175
     0
142
0.0008202099737533
142
0.0
142
0.0
142
0.0
142
0.0
142
0.0008202099737533
142
0.0
142
0.0
142
0.0
142
0.0
142
1.0
142
0.0
142
0.0
142
0.0
142
0.0
142
1.0
179
     0
144
0.0008202099737533
144
0.0
144
0.0
144
0.0
144
0.0
144
0.0008202099737533
144
0.0
144
0.0
144
0.0
144
0.0
144
1.0
144
0.0
144
0.0
144
0.0
144
0.0
144
1.0
147
0.0008202099737533
147
0.0
147
0.0
147
0.0
147
0.0
147
0.0008202099737533
147
0.0
147
0.0
147
0.0
147
0.0
147
1.0
147
0.0
147
0.0
147
0.0
147
0.0
147
1.0
  0
MATERIAL
  5
428
102
{ACAD_XDICTIONARY
360
429
102
}
102
{ACAD_REACTORS
330
417
102
}
330
417
100
AcDbMaterial
  1
Global
 72
     0
 43
0.0008202099737533
 43
0.0
 43
0.0
 43
0.0
 43
0.0
 43
0.0008202099737533
 43
0.0
 43
0.0
 43
0.0
 43
0.0
 43
1.0
 43
0.0
 43
0.0
 43
0.0
 43
0.0
 43
1.0
 77
     0
 47
0.0008202099737533
 47
0.0
 47
0.0
 47
0.0
 47
0.0
 47
0.0008202099737533
 47
0.0
 47
0.0
 47
0.0
 47
0.0
 47
1.0
 47
0.0
 47
0.0
 47
0.0
 47
0.0
 47
1.0
171
     0
 49
0.0008202099737533
 49
0.0
 49
0.0
 49
0.0
 49
0.0
 49
0.0008202099737533
 49
0.0
 49
0.0
 49
0.0
 49
0.0
 49
1.0
 49
0.0
 49
0.0
 49
0.0
 49
0.0
 49
1.0
175
     0
142
0.0008202099737533
142
0.0
142
0.0
142
0.0
142
0.0
142
0.0008202099737533
142
0.0
142
0.0
142
0.0
142
0.0
142
1.0
142
0.0
142
0.0
142
0.0
142
0.0
142
1.0
179
     0
144
0.0008202099737533
144
0.0
144
0.0
144
0.0
144
0.0
144
0.0008202099737533
144
0.0
144
0.0
144
0.0
144
0.0
144
1.0
144
0.0
144
0.0
144
0.0
144
0.0
144
1.0
147
0.0008202099737533
147
0.0
147
0.0
147
0.0
147
0.0
147
0.0008202099737533
147
0.0
147
0.0
147
0.0
147
0.0
147
1.0
147
0.0
147
0.0
147
0.0
147
0.0
147
1.0
  0
MLEADERSTYLE
  5
45F
102
{ACAD_REACTORS
330
45E
102
}
330
45E
100
AcDbMLeaderStyle
170
     2
171
     1
172
     0
 90
        2
 40
0.0
 41
0.0
173
     1
 91
-1056964608
340
8C
 92
       -2
290
     1
 42
2.0
291
     1
 43
0.36
  3
Standard
 44
4.0
300

342
89
174
     1
178
     6
175
     1
176
     0
 93
-1056964608
 45
4.0
292
     0
297
     0
 46
4.0
 94
-1056964608
 47
1.0
 49
1.0
140
1.0
293
     1
141
0.0
294
     1
177
     0
142
1.0
295
     0
296
     0
143
0.125
1001
ACAD_MLEADERVER
1070
     2
  0
MLINESTYLE
  5
9A
102
{ACAD_REACTORS
330
98
102
}
330
98
100
AcDbMlineStyle
  2
STANDARD
 70
     0
  3

 62
   256
 51
90.0
 52
90.0
 71
     2
 49
0.5
 62
   256
  6
BYLAYER
 49
-0.5
 62
   256
  6
BYLAYER
  0
ACDBPLACEHOLDER
  5
6
102
{ACAD_REACTORS
330
7
102
}
330
7
  0
SCALE
  5
44D
102
{ACAD_REACTORS
330
44C
102
}
330
44C
100
AcDbScale
 70
     0
300
1:1
140
1.0
141
1.0
290
     1
  0
SCALE
  5
44E
102
{ACAD_REACTORS
330
44C
102
}
330
44C
100
AcDbScale
 70
     0
300
1:2
140
1.0
141
2.0
290
     0
  0
SCALE
  5
44F
102
{ACAD_REACTORS
330
44C
102
}
330
44C
100
AcDbScale
 70
     0
300
1:4
140
1.0
141
4.0
290
     0
  0
SCALE
  5
450
102
{ACAD_REACTORS
330
44C
102
}
330
44C
100
AcDbScale
 70
     0
300
1:5
140
1.0
141
5.0
290
     0
  0
SCALE
  5
451
102
{ACAD_REACTORS
330
44C
102
}
330
44C
100
AcDbScale
 70
     0
300
1:8
140
1.0
141
8.0
290
     0
  0
SCALE
  5
452
102
{ACAD_REACTORS
330
44C
102
}
330
44C
100
AcDbScale
 70
     0
300
1:10
140
1.0
141
10.0
290
     0
  0
SCALE
  5
453
102
{ACAD_REACTORS
330
44C
102
}
330
44C
100
AcDbScale
 70
     0
300
1:16
140
1.0
141
16.0
290
     0
  0
SCALE
  5
454
102
{ACAD_REACTORS
330
44C
102
}
330
44C
100
AcDbScale
 70
     0
300
1:20
140
1.0
141
20.0
290
     0
  0
SCALE
  5
455
102
{ACAD_REACTORS
330
44C
102
}
330
44C
100
AcDbScale
 70
     0
300
1:30
140
1.0
141
30.0
290
     0
  0
SCALE
  5
456
102
{ACAD_REACTORS
330
44C
102
}
330
44C
100
AcDbScale
 70
     0
300
1:40
140
1.0
141
40.0
290
     0
  0
SCALE
  5
457
102
{ACAD_REACTORS
330
44C
102
}
330
44C
100
AcDbScale
 70
     0
300
1:50
140
1.0
141
50.0
290
     0
  0
SCALE
  5
458
102
{ACAD_REACTORS
330
44C
102
}
330
44C
100
AcDbScale
 70
     0
300
1:100
140
1.0
141
100.0
290
     0
  0
SCALE
  5
459
102
{ACAD_REACTORS
330
44C
102
}
330
44C
100
AcDbScale
 70
     0
300
2:1
140
2.0
141
1.0
290
     0
  0
SCALE
  5
45A
102
{ACAD_REACTORS
330
44C
102
}
330
44C
100
AcDbScale
 70
     0
300
4:1
140
4.0
141
1.0
290
     0
  0
SCALE
  5
45B
102
{ACAD_REACTORS
330
44C
102
}
330
44C
100
AcDbScale
 70
     0
300
8:1
140
8.0
141
1.0
290
     0
  0
SCALE
  5
45C
102
{ACAD_REACTORS
330
44C
102
}
330
44C
100
AcDbScale
 70
     0
300
10:1
140
10.0
141
1.0
290
     0
  0
SCALE
  5
45D
102
{ACAD_REACTORS
330
44C
102
}
330
44C
100
AcDbScale
 70
     0
300
100:1
140
100.0
141
1.0
290
     0
  0
TABLESTYLE
  5
44B
102
{ACAD_XDICTIONARY
360
4CE
102
}
102
{ACAD_REACTORS
330
44A
102
}
330
44A
100
AcDbTableStyle
  3
Standard
 70
     0
 71
     0
 40
1.5
 41
1.5
280
     0
281
     0
  7
STANDARD
140
4.5
170
     2
 62
     0
 63
     7
283
     0
274
    -2
284
     1
 64
     0
275
    -2
285
     1
 65
     0
276
    -2
286
     1
 66
     0
277
    -2
287
     1
 67
     0
278
    -2
288
     1
 68
     0
279
    -2
289
     1
 69
     0
  7
STANDARD
140
6.0
170
     5
 62
     0
 63
     7
283
     0
274
    -2
284
     1
 64
     0
275
    -2
285
     1
 65
     0
276
    -2
286
     1
 66
     0
277
    -2
287
     1
 67
     0
278
    -2
288
     1
 68
     0
279
    -2
289
     1
 69
     0
  7
STANDARD
140
4.5
170
     5
 62
     0
 63
     7
283
     0
274
    -2
284
     1
 64
     0
275
    -2
285
     1
 65
     0
276
    -2
286
     1
 66
     0
277
    -2
287
     1
 67
     0
278
    -2
288
     1
 68
     0
279
    -2
289
     1
 69
     0
  0
VISUALSTYLE
  5
436
102
{ACAD_XDICTIONARY
360
4E1
102
}
102
{ACAD_REACTORS
330
430
102
}
330
430
100
AcDbVisualStyle
  2
2dWireframe
 70
     4
 71
     0
 72
     2
 73
     0
 90
        0
 40
-0.6
 41
-30.0
 62
     5
 63
     7
 74
     1
 91
        4
 64
     7
 65
   257
 75
     1
175
     1
 42
1.0
 92
        0
 66
   257
 43
1.0
 76
     1
 77
     6
 78
     2
 67
     7
 79
     5
170
     0
171
     0
290
     0
174
     0
 93
        1
 44
0.0
173
     0
291
     0
 45
0.0
1001
ACAD
1000
AcDbSavedByObjectVersion
1070
     0
  0
VISUALSTYLE
  5
435
102
{ACAD_XDICTIONARY
360
4DF
102
}
102
{ACAD_REACTORS
330
430
102
}
330
430
100
AcDbVisualStyle
  2
Basic
 70
     7
 71
     1
 72
     0
 73
     1
 90
        0
 40
-0.6
 41
-30.0
 62
     5
 63
     7
 74
     0
 91
        4
 64
     7
 65
   257
 75
     1
175
     1
 42
1.0
 92
        8
 66
     7
 43
1.0
 76
     1
 77
     6
 78
     2
 67
     7
 79
     5
170
     0
171
     0
290
     0
174
     0
 93
        1
 44
0.0
173
     0
291
     1
 45
0.0
1001
ACAD
1000
AcDbSavedByObjectVersion
1070
     0
  0
VISUALSTYLE
  5
43C
102
{ACAD_XDICTIONARY
360
4ED
102
}
102
{ACAD_REACTORS
330
430
102
}
330
430
100
AcDbVisualStyle
  2
Brighten
 70
    12
 71
     2
 72
     2
 73
     0
 90
        0
 40
-0.6
 41
-30.0
 62
     5
 63
     7
 74
     1
 91
        4
 64
     7
 65
   257
 75
     1
175
     1
 42
1.0
 92
        8
 66
     7
 43
1.0
 76
     1
 77
     6
 78
     2
 67
     7
 79
     5
170
     0
171
     0
290
     0
174
     0
 93
        1
 44
50.0
173
     0
291
     1
 45
0.0
1001
ACAD
1000
AcDbSavedByObjectVersion
1070
     0
  0
VISUALSTYLE
  5
440
102
{ACAD_XDICTIONARY
360
4F5
102
}
102
{ACAD_REACTORS
330
430
102
}
330
430
100
AcDbVisualStyle
  2
ColorChange
 70
    16
 71
     2
 72
     2
 73
     3
 90
        0
 40
-0.6
 41
-30.0
 62
     5
 63
     8
 74
     1
 91
        4
 64
     7
 65
   257
 75
     1
175
     1
 42
1.0
 92
        8
 66
     8
 43
1.0
 76
     1
 77
     6
 78
     2
 67
     7
 79
     5
170
     0
171
     0
290
     0
174
     0
 93
        1
 44
0.0
173
     0
291
     1
 45
0.0
1001
ACAD
1000
AcDbSavedByObjectVersion
1070
     0
  0
VISUALSTYLE
  5
439
102
{ACAD_XDICTIONARY
360
4E7
102
}
102
{ACAD_REACTORS
330
430
102
}
330
430
100
AcDbVisualStyle
  2
Conceptual
 70
     9
 71
     3
 72
     2
 73
     0
 90
        0
 40
-0.6
 41
-30.0
 62
     5
 63
     7
 74
     2
 91
        2
 64
     7
 65
   257
 75
     1
175
     1
 42
179.0
 92
        8
 66
     7
 43
1.0
 76
     1
 77
     6
 78
     2
 67
     7
 79
     3
170
     0
171
     0
290
     0
174
     0
 93
        1
 44
0.0
173
     0
291
     0
 45
0.0
1001
ACAD
1000
AcDbSavedByObjectVersion
1070
     0
  0
VISUALSTYLE
  5
43B
102
{ACAD_XDICTIONARY
360
4EB
102
}
102
{ACAD_REACTORS
330
430
102
}
330
430
100
AcDbVisualStyle
  2
Dim
 70
    11
 71
     2
 72
     2
 73
     0
 90
        0
 40
-0.6
 41
-30.0
 62
     5
 63
     7
 74
     1
 91
        4
 64
     7
 65
   257
 75
     1
175
     1
 42
1.0
 92
        8
 66
     7
 43
1.0
 76
     1
 77
     6
 78
     2
 67
     7
 79
     5
170
     0
171
     0
290
     0
174
     0
 93
        1
 44
-50.0
173
     0
291
     1
 45
0.0
1001
ACAD
1000
AcDbSavedByObjectVersion
1070
     0
  0
VISUALSTYLE
  5
448
102
{ACAD_XDICTIONARY
360
505
102
}
102
{ACAD_REACTORS
330
430
102
}
330
430
100
AcDbVisualStyle
  2
EdgeColorOff
 70
    22
 71
     2
 72
     2
 73
     0
 90
        0
 40
-0.6
 41
-30.0
 62
     5
 63
     7
 74
     1
 91
        4
 64
     7
 65
   257
 75
     1
175
     1
 42
1.0
 92
        8
 66
     7
 43
1.0
 76
     1
 77
     6
 78
     2
 67
     7
 79
     5
170
     0
171
     0
290
     0
174
     0
 93
        1
 44
0.0
173
     0
291
     1
 45
0.0
1001
ACAD
1000
AcDbSavedByObjectVersion
1070
     0
  0
VISUALSTYLE
  5
43F
102
{ACAD_XDICTIONARY
360
4F3
102
}
102
{ACAD_REACTORS
330
430
102
}
330
430
100
AcDbVisualStyle
  2
Facepattern
 70
    15
 71
     2
 72
     2
 73
     0
 90
        0
 40
-0.6
 41
-30.0
 62
     5
 63
     7
 74
     1
 91
        4
 64
     7
 65
   257
 75
     1
175
     1
 42
1.0
 92
        8
 66
     7
 43
1.0
 76
     1
 77
     6
 78
     2
 67
     7
 79
     5
170
     0
171
     0
290
     0
174
     0
 93
        1
 44
0.0
173
     0
291
     1
 45
0.0
1001
ACAD
1000
AcDbSavedByObjectVersion
1070
     0
  0
VISUALSTYLE
  5
431
102
{ACAD_XDICTIONARY
360
4D7
102
}
102
{ACAD_REACTORS
330
430
102
}
330
430
100
AcDbVisualStyle
  2
Flat
 70
     0
 71
     2
 72
     1
 73
     1
 90
        2
 40
-0.6
 41
30.0
 62
     5
 63
     7
 74
     0
 91
        0
 64
     7
 65
   257
 75
     1
175
     1
 42
1.0
 92
        8
 66
     7
 43
1.0
 76
     1
 77
     6
 78
     2
 67
     7
 79
     5
170
     0
171
     0
290
     0
174
     0
 93
       13
 44
0.0
173
     0
291
     1
 45
0.0
1001
ACAD
1000
AcDbSavedByObjectVersion
1070
     0
  0
VISUALSTYLE
  5
432
102
{ACAD_XDICTIONARY
360
4D9
102
}
102
{ACAD_REACTORS
330
430
102
}
330
430
100
AcDbVisualStyle
  2
FlatWithEdges
 70
     1
 71
     2
 72
     1
 73
     1
 90
        2
 40
-0.6
 41
30.0
 62
     5
 63
     7
 74
     1
 91
        0
 64
     7
 65
   257
 75
     1
175
     1
 42
1.0
 92
        0
 66
   257
 43
1.0
 76
     1
 77
     6
 78
     2
 67
     7
 79
     5
170
     0
171
     0
290
     0
174
     0
 93
       13
 44
0.0
173
     0
291
     1
 45
0.0
1001
ACAD
1000
AcDbSavedByObjectVersion
1070
     0
  0
VISUALSTYLE
  5
433
102
{ACAD_XDICTIONARY
360
4DB
102
}
102
{ACAD_REACTORS
330
430
102
}
330
430
100
AcDbVisualStyle
  2
Gouraud
 70
     2
 71
     2
 72
     2
 73
     1
 90
        2
 40
-0.6
 41
30.0
 62
     5
 63
     7
 74
     0
 91
        0
 64
     7
 65
   257
 75
     1
175
     1
 42
1.0
 92
        0
 66
     7
 43
1.0
 76
     1
 77
     6
 78
     2
 67
     7
 79
     5
170
     0
171
     0
290
     0
174
     0
 93
       13
 44
0.0
173
     0
291
     1
 45
0.0
1001
ACAD
1000
AcDbSavedByObjectVersion
1070
     0
  0
VISUALSTYLE
  5
434
102
{ACAD_XDICTIONARY
360
4DD
102
}
102
{ACAD_REACTORS
330
430
102
}
330
430
100
AcDbVisualStyle
  2
GouraudWithEdges
 70
     3
 71
     2
 72
     2
 73
     1
 90
        2
 40
-0.6
 41
30.0
 62
     5
 63
     7
 74
     1
 91
        0
 64
     7
 65
   257
 75
     1
175
     1
 42
1.0
 92
        0
 66
   257
 43
1.0
 76
     1
 77
     6
 78
     2
 67
     7
 79
     5
170
     0
171
     0
290
     0
174
     0
 93
       13
 44
0.0
173
     0
291
     1
 45
0.0
1001
ACAD
1000
AcDbSavedByObjectVersion
1070
     0
  0
VISUALSTYLE
  5
438
102
{ACAD_XDICTIONARY
360
4E5
102
}
102
{ACAD_REACTORS
330
430
102
}
330
430
100
AcDbVisualStyle
  2
Hidden
 70
     6
 71
     1
 72
     2
 73
     2
 90
        0
 40
-0.6
 41
-30.0
 62
     5
 63
     7
 74
     2
 91
        2
 64
     7
 65
   257
 75
     2
175
     1
 42
40.0
 92
        0
 66
   257
 43
1.0
 76
     1
 77
     6
 78
     2
 67
     7
 79
     3
170
     0
171
     0
290
     0
174
     0
 93
        1
 44
0.0
173
     0
291
     0
 45
0.0
1001
ACAD
1000
AcDbSavedByObjectVersion
1070
     0
  0
VISUALSTYLE
  5
446
102
{ACAD_XDICTIONARY
360
501
102
}
102
{ACAD_REACTORS
330
430
102
}
330
430
100
AcDbVisualStyle
  2
JitterOff
 70
    20
 71
     2
 72
     2
 73
     0
 90
        0
 40
-0.6
 41
-30.0
 62
     5
 63
     7
 74
     1
 91
        4
 64
     7
 65
   257
 75
     1
175
     1
 42
1.0
 92
       10
 66
     7
 43
1.0
 76
     1
 77
     6
 78
     2
 67
     7
 79
     5
170
     0
171
     0
290
     0
174
     0
 93
        1
 44
0.0
173
     0
291
     1
 45
0.0
1001
ACAD
1000
AcDbSavedByObjectVersion
1070
     0
  0
VISUALSTYLE
  5
43E
102
{ACAD_XDICTIONARY
360
4F1
102
}
102
{ACAD_REACTORS
330
430
102
}
330
430
100
AcDbVisualStyle
  2
Linepattern
 70
    14
 71
     2
 72
     2
 73
     0
 90
        0
 40
-0.6
 41
-30.0
 62
     5
 63
     7
 74
     1
 91
        4
 64
     7
 65
   257
 75
     7
175
     7
 42
1.0
 92
        8
 66
     7
 43
1.0
 76
     1
 77
     6
 78
     2
 67
     7
 79
     5
170
     0
171
     0
290
     0
174
     0
 93
        1
 44
0.0
173
     0
291
     1
 45
0.0
1001
ACAD
1000
AcDbSavedByObjectVersion
1070
     0
  0
VISUALSTYLE
  5
447
102
{ACAD_XDICTIONARY
360
503
102
}
102
{ACAD_REACTORS
330
430
102
}
330
430
100
AcDbVisualStyle
  2
OverhangOff
 70
    21
 71
     2
 72
     2
 73
     0
 90
        0
 40
-0.6
 41
-30.0
 62
     5
 63
     7
 74
     1
 91
        4
 64
     7
 65
   257
 75
     1
175
     1
 42
1.0
 92
        9
 66
     7
 43
1.0
 76
     1
 77
     6
 78
     2
 67
     7
 79
     5
170
     0
171
     0
290
     0
174
     0
 93
        1
 44
0.0
173
     0
291
     1
 45
0.0
1001
ACAD
1000
AcDbSavedByObjectVersion
1070
     0
  0
VISUALSTYLE
  5
43A
102
{ACAD_XDICTIONARY
360
4E9
102
}
102
{ACAD_REACTORS
330
430
102
}
330
430
100
AcDbVisualStyle
  2
Realistic
 70
     8
 71
     2
 72
     3
 73
     0
 90
        2
 40
-0.6
 41
30.0
 62
     5
 63
     7
 74
     0
 91
        0
 64
     7
 65
   257
 75
     1
175
     1
 42
1.0
 92
        8
 66
   257
 43
1.0
 76
     1
 77
     6
 78
     2
 67
     7
 79
     3
170
     0
171
     0
290
     0
174
     0
 93
       13
 44
0.0
173
     0
291
     0
 45
0.0
1001
ACAD
1000
AcDbSavedByObjectVersion
1070
     0
  0
VISUALSTYLE
  5
445
102
{ACAD_XDICTIONARY
360
4FF
102
}
102
{ACAD_REACTORS
330
430
102
}
330
430
100
AcDbVisualStyle
  2
Shaded
 70
    27
 71
     2
 72
     2
 73
     1
 90
        2
 40
-0.6
 41
30.0
 62
     5
 63
     7
 74
     0
 91
        4
 64
     7
 65
   257
 75
     1
175
     1
 42
1.0
 92
        8
 66
   257
 43
1.0
 76
     1
 77
     6
 78
     2
 67
     8
 79
     3
170
     0
171
     0
290
     0
174
     0
 93
        5
 44
0.0
173
     0
291
     0
 45
0.0
1001
ACAD
1000
AcDbSavedByObjectVersion
1070
     0
  0
VISUALSTYLE
  5
444
102
{ACAD_XDICTIONARY
360
4FD
102
}
102
{ACAD_REACTORS
330
430
102
}
330
430
100
AcDbVisualStyle
  2
Shaded with edges
 70
    26
 71
     2
 72
     2
 73
     1
 90
        2
 40
-0.6
 41
30.0
 62
     5
 63
     7
 74
     1
 91
       10
 64
     7
 65
   257
 75
     2
175
     1
 42
1.0
 92
        8
 66
   257
 43
1.0
 76
     1
 77
     6
 78
     2
 67
     7
 79
     3
170
     0
171
     0
290
     0
174
     0
 93
        5
 44
0.0
173
     0
291
     0
 45
0.0
1001
ACAD
1000
AcDbSavedByObjectVersion
1070
     0
  0
VISUALSTYLE
  5
441
102
{ACAD_XDICTIONARY
360
4F7
102
}
102
{ACAD_REACTORS
330
430
102
}
330
430
100
AcDbVisualStyle
  2
Shades of Gray
 70
    23
 71
     2
 72
     2
 73
     3
 90
        0
 40
-0.6
 41
-30.0
 62
     5
 63
     7
 74
     2
 91
        2
 64
     7
 65
     7
 75
     1
175
     1
 42
40.0
 92
        8
 66
     7
 43
1.0
 76
     1
 77
     6
 78
     2
 67
     7
 79
     3
170
     0
171
     0
290
     0
174
     0
 93
        1
 44
0.0
173
     0
291
     0
 45
0.0
1001
ACAD
1000
AcDbSavedByObjectVersion
1070
     0
  0
VISUALSTYLE
  5
442
102
{ACAD_XDICTIONARY
360
4F9
102
}
102
{ACAD_REACTORS
330
430
102
}
330
430
100
AcDbVisualStyle
  2
Sketchy
 70
    24
 71
     1
 72
     2
 73
     2
 90
        0
 40
-0.6
 41
-30.0
 62
     5
 63
     7
 74
     2
 91
        2
 64
     7
 65
     7
 75
     1
175
     1
 42
40.0
 92
       11
 66
     7
 43
1.0
 76
     1
 77
     6
 78
     2
 67
     7
 79
     6
170
     0
171
     0
290
     0
174
     0
 93
        1
 44
0.0
173
     0
291
     0
 45
0.0
1001
ACAD
1000
AcDbSavedByObjectVersion
1070
     0
  0
VISUALSTYLE
  5
43D
102
{ACAD_XDICTIONARY
360
4EF
102
}
102
{ACAD_REACTORS
330
430
102
}
330
430
100
AcDbVisualStyle
  2
Thicken
 70
    13
 71
     2
 72
     2
 73
     0
 90
        0
 40
-0.6
 41
-30.0
 62
     5
 63
     7
 74
     1
 91
        4
 64
     7
 65
   257
 75
     1
175
     1
 42
1.0
 92
       12
 66
     7
 43
1.0
 76
     1
 77
     6
 78
     2
 67
     7
 79
     5
170
     0
171
     0
290
     0
174
     0
 93
        1
 44
0.0
173
     0
291
     1
 45
0.0
1001
ACAD
1000
AcDbSavedByObjectVersion
1070
     0
  0
VISUALSTYLE
  5
437
102
{ACAD_XDICTIONARY
360
4E3
102
}
102
{ACAD_REACTORS
330
430
102
}
330
430
100
AcDbVisualStyle
  2
Wireframe
 70
     5
 71
     0
 72
     2
 73
     0
 90
        0
 40
-0.6
 41
-30.0
 62
     5
 63
     7
 74
     1
 91
        4
 64
     7
 65
   257
 75
     1
175
     1
 42
1.0
 92
        0
 66
   257
 43
1.0
 76
     1
 77
     6
 78
     2
 67
     7
 79
     3
170
     0
171
     0
290
     0
174
     0
 93
        1
 44
0.0
173
     0
291
     0
 45
0.0
1001
ACAD
1000
AcDbSavedByObjectVersion
1070
     0
  0
VISUALSTYLE
  5
443
102
{ACAD_XDICTIONARY
360
4FB
102
}
102
{ACAD_REACTORS
330
430
102
}
330
430
100
AcDbVisualStyle
  2
X-Ray
 70
    25
 71
     2
 72
     2
 73
     1
 90
        1
 40
0.5
 41
-30.0
 62
     5
 63
     7
 74
     1
 91
        0
 64
     7
 65
   257
 75
     1
175
     1
 42
1.0
 92
        8
 66
     7
 43
1.0
 76
     1
 77
     6
 78
     2
 67
     7
 79
     3
170
     0
171
     0
290
     0
174
     0
 93
       13
 44
0.0
173
     0
291
     0
 45
0.0
1001
ACAD
1000
AcDbSavedByObjectVersion
1070
     0
  0
DICTIONARYVAR
  5
4C9
102
{ACAD_REACTORS
330
2DD
102
}
330
2DD
100
DictionaryVariables
280
     0
  1
1:1
  0
DICTIONARYVAR
  5
4C8
102
{ACAD_REACTORS
330
2DD
102
}
330
2DD
100
DictionaryVariables
280
     0
  1
STANDARD
  0
DICTIONARYVAR
  5
4C7
102
{ACAD_REACTORS
330
2DD
102
}
330
2DD
100
DictionaryVariables
280
     0
  1
STANDARD
  0
DICTIONARYVAR
  5
2DF
102
{ACAD_REACTORS
330
2DD
102
}
330
2DD
100
DictionaryVariables
280
     0
  1
2
  0
DICTIONARYVAR
  5
2DE
102
{ACAD_REACTORS
330
2DD
102
}
330
2DD
100
DictionaryVariables
280
     0
  1
1
  0
DICTIONARYVAR
  5
4CB
102
{ACAD_REACTORS
330
2DD
102
}
330
2DD
100
DictionaryVariables
280
     0
  1
0
  0
DICTIONARYVAR
  5
4CA
102
{ACAD_REACTORS
330
2DD
102
}
330
2DD
100
DictionaryVariables
280
     0
  1
127
  0
DICTIONARYVAR
  5
4CC
102
{ACAD_REACTORS
330
2DD
102
}
330
2DD
100
DictionaryVariables
280
     0
  1
2
  0
XRECORD
  5
15
102
{ACAD_REACTORS
330
14
102
}
330
14
100
AcDbXrecord
280
     1
  1
$layers
  1
*
  1
*
  1
*
 70
     0
  1
*
  1
*
  0
XRECORD
  5
16
102
{ACAD_REACTORS
330
14
102
}
330
14
100
AcDbXrecord
280
     1
  1
- und 0
  1
-*,0
  1
*
  1
*
 70
     0
  1
*
  1
*
  0
XRECORD
  5
17
102
{ACAD_REACTORS
330
14
102
}
330
14
100
AcDbXrecord
280
     1
  1
-pegc
  1
*-pegc
  1
*
  1
*
 70
     0
  1
*
  1
*
  0
XRECORD
  5
18
102
{ACAD_REACTORS
330
14
102
}
330
14
100
AcDbXrecord
280
     1
  1
101
  1
*101
  1
*
  1
*
 70
   256
  1
*
  1
*
  0
XRECORD
  5
19
102
{ACAD_REACTORS
330
14
102
}
330
14
100
AcDbXrecord
280
     1
  1
102
  1
102*
  1
*
  1
*
 70
     0
  1
*
  1
*
  0
XRECORD
  5
1A
102
{ACAD_REACTORS
330
14
102
}
330
14
100
AcDbXrecord
280
     1
  1
1duc
  1
*1duc*
  1
*
  1
*
 70
     0
  1
*
  1
*
  0
XRECORD
  5
1B
102
{ACAD_REACTORS
330
14
102
}
330
14
100
AcDbXrecord
280
     1
  1
1eq
  1
*1eq*
  1
*
  1
*
 70
     0
  1
*
  1
*
  0
XRECORD
  5
1C
102
{ACAD_REACTORS
330
14
102
}
330
14
100
AcDbXrecord
280
     1
  1
1tub
  1
*1t*
  1
*
  1
*
 70
     0
  1
*
  1
*
  0
XRECORD
  5
1D
102
{ACAD_REACTORS
330
14
102
}
330
14
100
AcDbXrecord
280
     1
  1
2
  1
*
  1
2
  1
*
 70
     0
  1
*
  1
*
  0
XRECORD
  5
1E
102
{ACAD_REACTORS
330
14
102
}
330
14
100
AcDbXrecord
280
     1
  1
2000
  1
2000*
  1
*
  1
*
 70
     0
  1
*
  1
*
  0
XRECORD
  5
1F
102
{ACAD_REACTORS
330
14
102
}
330
14
100
AcDbXrecord
280
     1
  1
50
  1
*-50
  1
*
  1
*
 70
     0
  1
*
  1
*
  0
XRECORD
  5
20
102
{ACAD_REACTORS
330
14
102
}
330
14
100
AcDbXrecord
280
     1
  1
58J
  1
*58*
  1
*
  1
*
 70
     0
  1
*
  1
*
  0
XRECORD
  5
21
102
{ACAD_REACTORS
330
14
102
}
330
14
100
AcDbXrecord
280
     1
  1
65
  1
*65
  1
*
  1
*
 70
     0
  1
*
  1
*
  0
XRECORD
  5
22
102
{ACAD_REACTORS
330
14
102
}
330
14
100
AcDbXrecord
280
     1
  1
aa
  1
aa*
  1
*
  1
*
 70
     0
  1
*
  1
*
  0
XRECORD
  5
23
102
{ACAD_REACTORS
330
14
102
}
330
14
100
AcDbXrecord
280
     1
  1
acabados
  1
a-*
  1
*
  1
*
 70
     5
  1
*
  1
*
  0
XRECORD
  5
24
102
{ACAD_REACTORS
330
14
102
}
330
14
100
AcDbXrecord
280
     1
  1
AGUA Y DREN
  1
A-DS-*
  1
*
  1
*
 70
     0
  1
*
  1
*
  0
XRECORD
  5
25
102
{ACAD_REACTORS
330
14
102
}
330
14
100
AcDbXrecord
280
     1
  1
Aire
  1
*
  1
*
  1
*
 70
     0
  1
*
  1
*
  0
XRECORD
  5
26
102
{ACAD_REACTORS
330
14
102
}
330
14
100
AcDbXrecord
280
     1
  1
alle aus
  1
99999999999
  1
*
  1
*
 70
     0
  1
*
  1
*
  0
XRECORD
  5
27
102
{ACAD_REACTORS
330
14
102
}
330
14
100
AcDbXrecord
280
     1
  1
Alles mit S
  1
s*
  1
*
  1
*
 70
     0
  1
*
  1
*
  0
XRECORD
  5
28
102
{ACAD_REACTORS
330
14
102
}
330
14
100
AcDbXrecord
280
     1
  1
amarillo
  1
*
  1
yellow
  1
*
 70
     0
  1
*
  1
*
  0
XRECORD
  5
29
102
{ACAD_REACTORS
330
14
102
}
330
14
100
AcDbXrecord
280
     1
  1
APAGADOS
  1
*
  1
*
  1
*
 70
     4
  1
*
  1
*
  0
XRECORD
  5
2A
102
{ACAD_REACTORS
330
14
102
}
330
14
100
AcDbXrecord
280
     1
  1
ARR
  1
ARR*
  1
*
  1
*
 70
     0
  1
*
  1
*
  0
XRECORD
  5
2B
102
{ACAD_REACTORS
330
14
102
}
330
14
100
AcDbXrecord
280
     1
  1
ba
  1
*
  1
*
  1
*
 70
     0
  1
*
  1
*
  0
XRECORD
  5
2C
102
{ACAD_REACTORS
330
14
102
}
330
14
100
AcDbXrecord
280
     1
  1
BACKS
  1
*-H
  1
*
  1
*
 70
     0
  1
*
  1
*
  0
XRECORD
  5
2D
102
{ACAD_REACTORS
330
14
102
}
330
14
100
AcDbXrecord
280
     1
  1
BASE
  1
*-PBASE
  1
*
  1
*
 70
     0
  1
*
  1
*
  0
XRECORD
  5
2E
102
{ACAD_REACTORS
330
14
102
}
330
14
100
AcDbXrecord
280
     1
  1
BLOQ_INUTIL
  1
*
  1
*
  1
*
 70
     0
  1
*
  1
*
  0
XRECORD
  5
2F
102
{ACAD_REACTORS
330
14
102
}
330
14
100
AcDbXrecord
280
     1
  1
CADKON
  1
?[KAHBSM]?????[23M],?[KAHBSM]?????[23M][1456A-DGHILN-SU-Z]
  1
*
  1
*
 70
     0
  1
*
  1
*
  0
XRECORD
  5
30
102
{ACAD_REACTORS
330
14
102
}
330
14
100
AcDbXrecord
280
     1
  1
carpinteria
  1
carp*
  1
*
  1
*
 70
     0
  1
*
  1
*
  0
XRECORD
  5
31
102
{ACAD_REACTORS
330
14
102
}
330
14
100
AcDbXrecord
280
     1
  1
cerrados
  1
*
  1
*
  1
*
 70
   256
  1
*
  1
*
  0
XRECORD
  5
32
102
{ACAD_REACTORS
330
14
102
}
330
14
100
AcDbXrecord
280
     1
  1
COL
  1
*
  1
*
  1
*
 70
     1
  1
*
  1
*
  0
XRECORD
  5
33
102
{ACAD_REACTORS
330
14
102
}
330
14
100
AcDbXrecord
280
     1
  1
COLOR
  1
*
  1
253
  1
*
 70
     0
  1
*
  1
*
  0
XRECORD
  5
34
102
{ACAD_REACTORS
330
14
102
}
330
14
100
AcDbXrecord
280
     1
  1
color 250
  1
*
  1
250
  1
*
 70
     0
  1
*
  1
*
  0
XRECORD
  5
35
102
{ACAD_REACTORS
330
14
102
}
330
14
100
AcDbXrecord
280
     1
  1
COLORES
  1
*
  1
6
  1
*
 70
     0
  1
*
  1
*
  0
XRECORD
  5
36
102
{ACAD_REACTORS
330
14
102
}
330
14
100
AcDbXrecord
280
     1
  1
Congelados
  1
*
  1
*
  1
*
 70
     4
  1
*
  1
*
  0
XRECORD
  5
37
102
{ACAD_REACTORS
330
14
102
}
330
14
100
AcDbXrecord
280
     1
  1
CONJUNTO
  1
CON-*
  1
*
  1
*
 70
     0
  1
*
  1
*
  0
XRECORD
  5
38
102
{ACAD_REACTORS
330
14
102
}
330
14
100
AcDbXrecord
280
     1
  1
d1
  1
achurados
  1
*
  1
*
 70
     0
  1
*
  1
*
  0
XRECORD
  5
39
102
{ACAD_REACTORS
330
14
102
}
330
14
100
AcDbXrecord
280
     1
  1
DA_
  1
DA*
  1
*
  1
*
 70
     0
  1
*
  1
*
  0
XRECORD
  5
3A
102
{ACAD_REACTORS
330
14
102
}
330
14
100
AcDbXrecord
280
     1
  1
DET-
  1
*
  1
*
  1
*
 70
     0
  1
*
  1
*
  0
XRECORD
  5
3B
102
{ACAD_REACTORS
330
14
102
}
330
14
100
AcDbXrecord
280
     1
  1
DOR-H
  1
*
  1
7
  1
*
 70
     0
  1
*
  1
*
  0
XRECORD
  5
3C
102
{ACAD_REACTORS
330
14
102
}
330
14
100
AcDbXrecord
280
     1
  1
ejes
  1
eje*
  1
*
  1
*
 70
     0
  1
*
  1
*
  0
XRECORD
  5
3D
102
{ACAD_REACTORS
330
14
102
}
330
14
100
AcDbXrecord
280
     1
  1
ELECTRICO
  1
ELEC-*
  1
*
  1
*
 70
     0
  1
*
  1
*
  0
XRECORD
  5
3E
102
{ACAD_REACTORS
330
14
102
}
330
14
100
AcDbXrecord
280
     1
  1
F1
  1
Halaxref*
  1
*
  1
*
 70
     0
  1
*
  1
*
  0
XRECORD
  5
3F
102
{ACAD_REACTORS
330
14
102
}
330
14
100
AcDbXrecord
280
     1
  1
frozen
  1
*
  1
*
  1
*
 70
     4
  1
*
  1
*
  0
XRECORD
  5
40
102
{ACAD_REACTORS
330
14
102
}
330
14
100
AcDbXrecord
280
     1
  1
grid
  1
*-PGRID
  1
*
  1
*
 70
     1
  1
*
  1
*
  0
XRECORD
  5
41
102
{ACAD_REACTORS
330
14
102
}
330
14
100
AcDbXrecord
280
     1
  1
GRIDTXT
  1
*-PGRIDT
  1
*
  1
*
 70
     0
  1
*
  1
*
  0
XRECORD
  5
42
102
{ACAD_REACTORS
330
14
102
}
330
14
100
AcDbXrecord
280
     1
  1
HATCH
  1
HAT*
  1
*
  1
*
 70
     0
  1
*
  1
*
  0
XRECORD
  5
43
102
{ACAD_REACTORS
330
14
102
}
330
14
100
AcDbXrecord
280
     1
  1
HCAD
  1
1HCAD-*
  1
*
  1
*
 70
    13
  1
*
  1
*
  0
XRECORD
  5
44
102
{ACAD_REACTORS
330
14
102
}
330
14
100
AcDbXrecord
280
     1
  1
INSTALACIONES
  1
I-*
  1
*
  1
*
 70
     0
  1
*
  1
*
  0
XRECORD
  5
45
102
{ACAD_REACTORS
330
14
102
}
330
14
100
AcDbXrecord
280
     1
  1
JIZNI
  1
*-J
  1
*
  1
*
 70
     0
  1
*
  1
*
  0
XRECORD
  5
46
102
{ACAD_REACTORS
330
14
102
}
330
14
100
AcDbXrecord
280
     1
  1
kck
  1
*
  1
*
  1
*
 70
     0
  1
*
  1
*
  0
XRECORD
  5
47
102
{ACAD_REACTORS
330
14
102
}
330
14
100
AcDbXrecord
280
     1
  1
kkk
  1
k
  1
*
  1
*
 70
     0
  1
*
  1
*
  0
XRECORD
  5
48
102
{ACAD_REACTORS
330
14
102
}
330
14
100
AcDbXrecord
280
     1
  1
lay
  1
??-*
  1
*
  1
*
 70
     0
  1
*
  1
*
  0
XRECORD
  5
4C
102
{ACAD_REACTORS
330
14
102
}
330
14
100
AcDbXrecord
280
     1
  1
Layer-0
  1
0*
  1
*
  1
*
 70
     0
  1
*
  1
*
  0
XRECORD
  5
4D
102
{ACAD_REACTORS
330
14
102
}
330
14
100
AcDbXrecord
280
     1
  1
Layer-1
  1
1*
  1
*
  1
*
 70
     0
  1
*
  1
*
  0
XRECORD
  5
49
102
{ACAD_REACTORS
330
14
102
}
330
14
100
AcDbXrecord
280
     1
  1
Layer 1 und 0
  1
1*,0
  1
*
  1
*
 70
     0
  1
*
  1
*
  0
XRECORD
  5
4A
102
{ACAD_REACTORS
330
14
102
}
330
14
100
AcDbXrecord
280
     1
  1
Layer 2 und 0
  1
2*,0
  1
*
  1
*
 70
     0
  1
*
  1
*
  0
XRECORD
  5
4B
102
{ACAD_REACTORS
330
14
102
}
330
14
100
AcDbXrecord
280
     1
  1
Layer 9 und 0 Schraffur
  1
9*,0
  1
*
  1
*
 70
     0
  1
*
  1
*
  0
XRECORD
  5
4E
102
{ACAD_REACTORS
330
14
102
}
330
14
100
AcDbXrecord
280
     1
  1
LOCK
  1
*
  1
*
  1
*
 70
   256
  1
*
  1
*
  0
XRECORD
  5
4F
102
{ACAD_REACTORS
330
14
102
}
330
14
100
AcDbXrecord
280
     1
  1
locked
  1
*
  1
*
  1
*
 70
   256
  1
*
  1
*
  0
XRECORD
  5
50
102
{ACAD_REACTORS
330
14
102
}
330
14
100
AcDbXrecord
280
     1
  1
Lotes
  1
*
  1
*
  1
*
 70
     1
  1
*
  1
*
  0
XRECORD
  5
51
102
{ACAD_REACTORS
330
14
102
}
330
14
100
AcDbXrecord
280
     1
  1
LUNAR
  1
*
  1
*
  1
*
 70
    48
  1
*
  1
*
  0
XRECORD
  5
52
102
{ACAD_REACTORS
330
14
102
}
330
14
100
AcDbXrecord
280
     1
  1
LUNAR2
  1
*
  1
*
  1
*
 70
    12
  1
*
  1
*
  0
XRECORD
  5
53
102
{ACAD_REACTORS
330
14
102
}
330
14
100
AcDbXrecord
280
     1
  1
M
  1
M*
  1
*
  1
*
 70
     0
  1
*
  1
*
  0
XRECORD
  5
54
102
{ACAD_REACTORS
330
14
102
}
330
14
100
AcDbXrecord
280
     1
  1
mis_layers
  1
mis_*
  1
*
  1
*
 70
     0
  1
*
  1
*
  0
XRECORD
  5
55
102
{ACAD_REACTORS
330
14
102
}
330
14
100
AcDbXrecord
280
     1
  1
MRKCK
  1
*
  1
*
  1
*
 70
     0
  1
*
  1
*
  0
XRECORD
  5
56
102
{ACAD_REACTORS
330
14
102
}
330
14
100
AcDbXrecord
280
     1
  1
NECADKON
  1
~*?[KAHBSM]?????[23M]*
  1
*
  1
*
 70
     0
  1
*
  1
*
  0
XRECORD
  5
57
102
{ACAD_REACTORS
330
14
102
}
330
14
100
AcDbXrecord
280
     1
  1
NI_LH
  1
NI_LH*
  1
*
  1
*
 70
     0
  1
*
  1
*
  0
XRECORD
  5
58
102
{ACAD_REACTORS
330
14
102
}
330
14
100
AcDbXrecord
280
     1
  1
NI_RH
  1
NI_RH*
  1
*
  1
*
 70
     0
  1
*
  1
*
  0
XRECORD
  5
59
102
{ACAD_REACTORS
330
14
102
}
330
14
100
AcDbXrecord
280
     1
  1
NUM
  1
NUM*
  1
*
  1
*
 70
     0
  1
*
  1
*
  0
XRECORD
  5
5A
102
{ACAD_REACTORS
330
14
102
}
330
14
100
AcDbXrecord
280
     1
  1
off
  1
*
  1
*
  1
*
 70
     3
  1
*
  1
*
  0
XRECORD
  5
5B
102
{ACAD_REACTORS
330
14
102
}
330
14
100
AcDbXrecord
280
     1
  1
on
  1
*
  1
*
  1
*
 70
     0
  1
*
  1
*
  0
XRECORD
  5
5C
102
{ACAD_REACTORS
330
14
102
}
330
14
100
AcDbXrecord
280
     1
  1
PBASE
  1
*PBASE
  1
*
  1
*
 70
     0
  1
*
  1
*
  0
XRECORD
  5
5D
102
{ACAD_REACTORS
330
14
102
}
330
14
100
AcDbXrecord
280
     1
  1
PEGC
  1
*PEGC
  1
*
  1
*
 70
     0
  1
*
  1
*
  0
XRECORD
  5
5E
102
{ACAD_REACTORS
330
14
102
}
330
14
100
AcDbXrecord
280
     1
  1
PEGCT
  1
*PEGCT
  1
*
  1
*
 70
     0
  1
*
  1
*
  0
XRECORD
  5
5F
102
{ACAD_REACTORS
330
14
102
}
330
14
100
AcDbXrecord
280
     1
  1
PFRAME
  1
PFRAME*
  1
*
  1
*
 70
     0
  1
*
  1
*
  0
XRECORD
  5
60
102
{ACAD_REACTORS
330
14
102
}
330
14
100
AcDbXrecord
280
     1
  1
PGRID
  1
*PGRID
  1
*
  1
*
 70
     0
  1
*
  1
*
  0
XRECORD
  5
61
102
{ACAD_REACTORS
330
14
102
}
330
14
100
AcDbXrecord
280
     1
  1
PGRIDT
  1
*PGRIDT
  1
*
  1
*
 70
     0
  1
*
  1
*
  0
XRECORD
  5
62
102
{ACAD_REACTORS
330
14
102
}
330
14
100
AcDbXrecord
280
     1
  1
PLAFONES
  1
0-*
  1
*
  1
*
 70
     0
  1
*
  1
*
  0
XRECORD
  5
63
102
{ACAD_REACTORS
330
14
102
}
330
14
100
AcDbXrecord
280
     1
  1
PLANTAS
  1
P-*
  1
*
  1
*
 70
     0
  1
*
  1
*
  0
XRECORD
  5
64
102
{ACAD_REACTORS
330
14
102
}
330
14
100
AcDbXrecord
280
     1
  1
Plot
  1
*
  1
*
  1
*
 70
  1024
  1
*
  1
*
  0
XRECORD
  5
65
102
{ACAD_REACTORS
330
14
102
}
330
14
100
AcDbXrecord
280
     1
  1
PRENDIDAS
  1
*
  1
*
  1
*
 70
    13
  1
*
  1
*
  0
XRECORD
  5
66
102
{ACAD_REACTORS
330
14
102
}
330
14
100
AcDbXrecord
280
     1
  1
PRENDIDOS
  1
*
  1
*
  1
*
 70
    12
  1
*
  1
*
  0
XRECORD
  5
67
102
{ACAD_REACTORS
330
14
102
}
330
14
100
AcDbXrecord
280
     1
  1
print
  1
*
  1
7
  1
*
 70
  1280
  1
*
  1
*
  0
XRECORD
  5
68
102
{ACAD_REACTORS
330
14
102
}
330
14
100
AcDbXrecord
280
     1
  1
PT
  1
PT-*
  1
*
  1
*
 70
     0
  1
*
  1
*
  0
XRECORD
  5
69
102
{ACAD_REACTORS
330
14
102
}
330
14
100
AcDbXrecord
280
     1
  1
PTH
  1
PTH*
  1
*
  1
*
 70
     0
  1
*
  1
*
  0
XRECORD
  5
6A
102
{ACAD_REACTORS
330
14
102
}
330
14
100
AcDbXrecord
280
     1
  1
PVGRID
  1
*PVGRID
  1
*
  1
*
 70
     0
  1
*
  1
*
  0
XRECORD
  5
6B
102
{ACAD_REACTORS
330
14
102
}
330
14
100
AcDbXrecord
280
     1
  1
Red de Agua Potable
  1
Red de Agua Potable
  1
*
  1
*
 70
     1
  1
*
  1
*
  0
XRECORD
  5
6C
102
{ACAD_REACTORS
330
14
102
}
330
14
100
AcDbXrecord
280
     1
  1
Red de Energia Electrica
  1
Lotes
  1
*
  1
*
 70
     1
  1
*
  1
*
  0
XRECORD
  5
6D
102
{ACAD_REACTORS
330
14
102
}
330
14
100
AcDbXrecord
280
     1
  1
SEVERNI
  1
*-S
  1
*
  1
*
 70
     0
  1
*
  1
*
  0
XRECORD
  5
6E
102
{ACAD_REACTORS
330
14
102
}
330
14
100
AcDbXrecord
280
     1
  1
shin
  1
일*
  1
*
  1
*
 70
     0
  1
*
  1
*
  0
XRECORD
  5
6F
102
{ACAD_REACTORS
330
14
102
}
330
14
100
AcDbXrecord
280
     1
  1
SHOW ALL LAYER
  1
*
  1
*
  1
*
 70
     0
  1
*
  1
*
  0
XRECORD
  5
70
102
{ACAD_REACTORS
330
14
102
}
330
14
100
AcDbXrecord
280
     1
  1
sin
  1
sin
  1
*
  1
*
 70
     0
  1
*
  1
*
  0
XRECORD
  5
71
102
{ACAD_REACTORS
330
14
102
}
330
14
100
AcDbXrecord
280
     1
  1
STORAGE-CART
  1
STORAGE-CART*
  1
*
  1
*
 70
     0
  1
*
  1
*
  0
XRECORD
  5
72
102
{ACAD_REACTORS
330
14
102
}
330
14
100
AcDbXrecord
280
     1
  1
T
  1
T*
  1
*
  1
*
 70
     0
  1
*
  1
*
  0
XRECORD
  5
73
102
{ACAD_REACTORS
330
14
102
}
330
14
100
AcDbXrecord
280
     1
  1
TEXTOS
  1
TXT*
  1
*
  1
*
 70
     0
  1
*
  1
*
  0
XRECORD
  5
74
102
{ACAD_REACTORS
330
14
102
}
330
14
100
AcDbXrecord
280
     1
  1
TEXTURAS
  1
*TEXTURAS
  1
*
  1
*
 70
     0
  1
*
  1
*
  0
XRECORD
  5
75
102
{ACAD_REACTORS
330
14
102
}
330
14
100
AcDbXrecord
280
     1
  1
TUBERIAS
  1
T*
  1
*
  1
*
 70
     0
  1
*
  1
*
  0
XRECORD
  5
76
102
{ACAD_REACTORS
330
14
102
}
330
14
100
AcDbXrecord
280
     1
  1
UNFRZ
  1
*
  1
*
  1
*
 70
    12
  1
*
  1
*
  0
XRECORD
  5
78
102
{ACAD_REACTORS
330
14
102
}
330
14
100
AcDbXrecord
280
     1
  1
VA
  1
VA*
  1
*
  1
*
 70
     0
  1
*
  1
*
  0
XRECORD
  5
79
102
{ACAD_REACTORS
330
14
102
}
330
14
100
AcDbXrecord
280
     1
  1
Ventilaci\U+00F3n
  1
*
  1
*
  1
*
 70
     0
  1
*
  1
*
  0
XRECORD
  5
7A
102
{ACAD_REACTORS
330
14
102
}
330
14
100
AcDbXrecord
280
     1
  1
VYHODNI
  1
*-V
  1
*
  1
*
 70
     0
  1
*
  1
*
  0
XRECORD
  5
77
102
{ACAD_REACTORS
330
14
102
}
330
14
100
AcDbXrecord
280
     1
  1
v\U+0161echny nepou\U+017E\U+00EDvan\U+00E9
  1
*
  1
*
  1
*
 70
     0
  1
*
  1
*
  0
XRECORD
  5
7B
102
{ACAD_REACTORS
330
14
102
}
330
14
100
AcDbXrecord
280
     1
  1
Yo
  1
Muros
  1
*
  1
*
 70
     0
  1
*
  1
*
  0
XRECORD
  5
7C
102
{ACAD_REACTORS
330
14
102
}
330
14
100
AcDbXrecord
280
     1
  1
ZAPADNI
  1
*-Z
  1
*
  1
*
 70
     0
  1
*
  1
*
  0
XRECORD
  5
7D
102
{ACAD_REACTORS
330
14
102
}
330
14
100
AcDbXrecord
280
     1
  1
사용
  1
*
  1
*
  1
*
 70
   256
  1
*
  1
*
  0
XRECORD
  5
7E
102
{ACAD_REACTORS
330
14
102
}
330
14
100
AcDbXrecord
280
     1
  1
신규
  1
신규
  1
*
  1
*
 70
     0
  1
*
  1
*
  0
XRECORD
  5
7F
102
{ACAD_REACTORS
330
14
102
}
330
14
100
AcDbXrecord
280
     1
  1
실박스
  1
BLO,SYM,SYM1,SYM2
  1
*
  1
*
 70
     0
  1
*
  1
*
  0
XRECORD
  5
80
102
{ACAD_REACTORS
330
14
102
}
330
14
100
AcDbXrecord
280
     1
  1
우리토목
  1
w-*
  1
*
  1
*
 70
     0
  1
*
  1
*
  0
XRECORD
  5
81
102
{ACAD_REACTORS
330
14
102
}
330
14
100
AcDbXrecord
280
     1
  1
주차
  1
car*
  1
*
  1
*
 70
     0
  1
*
  1
*
  0
XRECORD
  5
82
102
{ACAD_REACTORS
330
14
102
}
330
14
100
AcDbXrecord
280
     1
  1
지상정밀
  1
*
  1
*
  1
*
 70
     0
  1
*
  1
*
  0
XRECORD
  5
83
102
{ACAD_REACTORS
330
14
102
}
330
14
100
AcDbXrecord
280
     1
  1
쩜선
  1
*
  1
*
  1
*
 70
     0
  1
*
  1
*
  0
XRECORD
  5
84
102
{ACAD_REACTORS
330
14
102
}
330
14
100
AcDbXrecord
280
     1
  1
플로터 작업층
  1
*
  1
*
  1
*
 70
  1025
  1
*
  1
*
  0
XRECORD
  5
85
102
{ACAD_REACTORS
330
14
102
}
330
14
100
AcDbXrecord
280
     1
  1
현재 작업층
  1
*
  1
*
  1
*
 70
     1
  1
*
  1
*
  0
XRECORD
  5
86
102
{ACAD_REACTORS
330
14
102
}
330
14
100
AcDbXrecord
280
     1
  1
현재 잠금
  1
*
  1
*
  1
*
 70
   257
  1
*
  1
*
  0
DICTIONARY
  5
509
330
460
100
AcDbDictionary
280
     1
281
     1
  3
ACAD_XREC_ROUNDTRIP
360
50A
  0
DICTIONARY
  5
50B
330
461
100
AcDbDictionary
280
     1
281
     1
  3
ACAD_XREC_ROUNDTRIP
360
50C
  0
DICTIONARY
  5
421
330
420
100
AcDbDictionary
280
     1
281
     1
  3
ACAD_XREC_ROUNDTRIP
360
4D5
  3
BUMPTILE
360
423
  3
DIFFUSETILE
360
422
  3
OPACITYTILE
360
426
  3
REFLECTIONTILE
360
425
  3
REFRACTIONTILE
360
427
  3
SPECULARTILE
360
424
  0
DICTIONARY
  5
419
330
418
100
AcDbDictionary
280
     1
281
     1
  3
ACAD_XREC_ROUNDTRIP
360
4D4
  3
BUMPTILE
360
41B
  3
DIFFUSETILE
360
41A
  3
OPACITYTILE
360
41E
  3
REFLECTIONTILE
360
41D
  3
REFRACTIONTILE
360
41F
  3
SPECULARTILE
360
41C
  0
DICTIONARY
  5
429
330
428
100
AcDbDictionary
280
     1
281
     1
  3
ACAD_XREC_ROUNDTRIP
360
4D6
  3
BUMPTILE
360
42B
  3
DIFFUSETILE
360
42A
  3
OPACITYTILE
360
42E
  3
REFLECTIONTILE
360
42D
  3
REFRACTIONTILE
360
42F
  3
SPECULARTILE
360
42C
  0
DICTIONARY
  5
4CE
330
44B
100
AcDbDictionary
280
     1
281
     1
  3
ACAD_ROUNDTRIP_2008_TABLESTYLE_CELLSTYLEMAP
360
4CF
  3
ACAD_XREC_ROUNDTRIP
360
507
  0
DICTIONARY
  5
4E1
330
436
100
AcDbDictionary
280
     1
281
     1
  3
ACAD_XREC_ROUNDTRIP
360
4E2
  0
DICTIONARY
  5
4DF
330
435
100
AcDbDictionary
280
     1
281
     1
  3
ACAD_XREC_ROUNDTRIP
360
4E0
  0
DICTIONARY
  5
4ED
330
43C
100
AcDbDictionary
280
     1
281
     1
  3
ACAD_XREC_ROUNDTRIP
360
4EE
  0
DICTIONARY
  5
4F5
330
440
100
AcDbDictionary
280
     1
281
     1
  3
ACAD_XREC_ROUNDTRIP
360
4F6
  0
DICTIONARY
  5
4E7
330
439
100
AcDbDictionary
280
     1
281
     1
  3
ACAD_XREC_ROUNDTRIP
360
4E8
  0
DICTIONARY
  5
4EB
330
43B
100
AcDbDictionary
280
     1
281
     1
  3
ACAD_XREC_ROUNDTRIP
360
4EC
  0
DICTIONARY
  5
505
330
448
100
AcDbDictionary
280
     1
281
     1
  3
ACAD_XREC_ROUNDTRIP
360
506
  0
DICTIONARY
  5
4F3
330
43F
100
AcDbDictionary
280
     1
281
     1
  3
ACAD_XREC_ROUNDTRIP
360
4F4
  0
DICTIONARY
  5
4D7
330
431
100
AcDbDictionary
280
     1
281
     1
  3
ACAD_XREC_ROUNDTRIP
360
4D8
  0
DICTIONARY
  5
4D9
330
432
100
AcDbDictionary
280
     1
281
     1
  3
ACAD_XREC_ROUNDTRIP
360
4DA
  0
DICTIONARY
  5
4DB
330
433
100
AcDbDictionary
280
     1
281
     1
  3
ACAD_XREC_ROUNDTRIP
360
4DC
  0
DICTIONARY
  5
4DD
330
434
100
AcDbDictionary
280
     1
281
     1
  3
ACAD_XREC_ROUNDTRIP
360
4DE
  0
DICTIONARY
  5
4E5
330
438
100
AcDbDictionary
280
     1
281
     1
  3
ACAD_XREC_ROUNDTRIP
360
4E6
  0
DICTIONARY
  5
501
330
446
100
AcDbDictionary
280
     1
281
     1
  3
ACAD_XREC_ROUNDTRIP
360
502
  0
DICTIONARY
  5
4F1
330
43E
100
AcDbDictionary
280
     1
281
     1
  3
ACAD_XREC_ROUNDTRIP
360
4F2
  0
DICTIONARY
  5
503
330
447
100
AcDbDictionary
280
     1
281
     1
  3
ACAD_XREC_ROUNDTRIP
360
504
  0
DICTIONARY
  5
4E9
330
43A
100
AcDbDictionary
280
     1
281
     1
  3
ACAD_XREC_ROUNDTRIP
360
4EA
  0
DICTIONARY
  5
4FF
330
445
100
AcDbDictionary
280
     1
281
     1
  3
ACAD_XREC_ROUNDTRIP
360
500
  0
DICTIONARY
  5
4FD
330
444
100
AcDbDictionary
280
     1
281
     1
  3
ACAD_XREC_ROUNDTRIP
360
4FE
  0
DICTIONARY
  5
4F7
330
441
100
AcDbDictionary
280
     1
281
     1
  3
ACAD_XREC_ROUNDTRIP
360
4F8
  0
DICTIONARY
  5
4F9
330
442
100
AcDbDictionary
280
     1
281
     1
  3
ACAD_XREC_ROUNDTRIP
360
4FA
  0
DICTIONARY
  5
4EF
330
43D
100
AcDbDictionary
280
     1
281
     1
  3
ACAD_XREC_ROUNDTRIP
360
4F0
  0
DICTIONARY
  5
4E3
330
437
100
AcDbDictionary
280
     1
281
     1
  3
ACAD_XREC_ROUNDTRIP
360
4E4
  0
DICTIONARY
  5
4FB
330
443
100
AcDbDictionary
280
     1
281
     1
  3
ACAD_XREC_ROUNDTRIP
360
4FC
  0
XRECORD
  5
50A
102
{ACAD_REACTORS
330
509
102
}
330
509
100
AcDbXrecord
280
     1
102
SHADEPLOT
 70
     0
102
SHADEPLOTRESLEVEL
 70
     2
102
SHADEPLOTCUSTOMDPI
 70
   300
  0
XRECORD
  5
50C
102
{ACAD_REACTORS
330
50B
102
}
330
50B
100
AcDbXrecord
280
     1
102
SHADEPLOT
 70
     0
102
SHADEPLOTRESLEVEL
 70
     2
102
SHADEPLOTCUSTOMDPI
 70
   300
  0
XRECORD
  5
4D5
102
{ACAD_REACTORS
330
421
102
}
330
421
100
AcDbXrecord
280
     1
102
MATERIAL
148
0.0
149
0.0
149
0.0
 93
        0
 94
      127
282
     0
 72
     0
 77
     0
171
     0
175
     0
179
     0
273
     0
  0
XRECORD
  5
423
102
{ACAD_REACTORS
330
421
102
}
330
421
100
AcDbXrecord
280
     1
270
     1
271
     1
  0
XRECORD
  5
422
102
{ACAD_REACTORS
330
421
102
}
330
421
100
AcDbXrecord
280
     1
270
     1
271
     1
  0
XRECORD
  5
426
102
{ACAD_REACTORS
330
421
102
}
330
421
100
AcDbXrecord
280
     1
270
     1
271
     1
  0
XRECORD
  5
425
102
{ACAD_REACTORS
330
421
102
}
330
421
100
AcDbXrecord
280
     1
270
     1
271
     1
  0
XRECORD
  5
427
102
{ACAD_REACTORS
330
421
102
}
330
421
100
AcDbXrecord
280
     1
270
     1
271
     1
  0
XRECORD
  5
424
102
{ACAD_REACTORS
330
421
102
}
330
421
100
AcDbXrecord
280
     1
270
     1
271
     1
  0
XRECORD
  5
4D4
102
{ACAD_REACTORS
330
419
102
}
330
419
100
AcDbXrecord
280
     1
102
MATERIAL
148
0.0
149
0.0
149
0.0
 93
        0
 94
      127
282
     0
 72
     0
 77
     0
171
     0
175
     0
179
     0
273
     0
  0
XRECORD
  5
41B
102
{ACAD_REACTORS
330
419
102
}
330
419
100
AcDbXrecord
280
     1
270
     1
271
     1
  0
XRECORD
  5
41A
102
{ACAD_REACTORS
330
419
102
}
330
419
100
AcDbXrecord
280
     1
270
     1
271
     1
  0
XRECORD
  5
41E
102
{ACAD_REACTORS
330
419
102
}
330
419
100
AcDbXrecord
280
     1
270
     1
271
     1
  0
XRECORD
  5
41D
102
{ACAD_REACTORS
330
419
102
}
330
419
100
AcDbXrecord
280
     1
270
     1
271
     1
  0
XRECORD
  5
41F
102
{ACAD_REACTORS
330
419
102
}
330
419
100
AcDbXrecord
280
     1
270
     1
271
     1
  0
XRECORD
  5
41C
102
{ACAD_REACTORS
330
419
102
}
330
419
100
AcDbXrecord
280
     1
270
     1
271
     1
  0
XRECORD
  5
4D6
102
{ACAD_REACTORS
330
429
102
}
330
429
100
AcDbXrecord
280
     1
102
MATERIAL
148
0.0
149
0.0
149
0.0
 93
        0
 94
      127
282
     0
 72
     0
 77
     0
171
     0
175
     0
179
     0
273
     0
  0
XRECORD
  5
42B
102
{ACAD_REACTORS
330
429
102
}
330
429
100
AcDbXrecord
280
     1
270
     1
271
     1
  0
XRECORD
  5
42A
102
{ACAD_REACTORS
330
429
102
}
330
429
100
AcDbXrecord
280
     1
270
     1
271
     1
  0
XRECORD
  5
42E
102
{ACAD_REACTORS
330
429
102
}
330
429
100
AcDbXrecord
280
     1
270
     1
271
     1
  0
XRECORD
  5
42D
102
{ACAD_REACTORS
330
429
102
}
330
429
100
AcDbXrecord
280
     1
270
     1
271
     1
  0
XRECORD
  5
42F
102
{ACAD_REACTORS
330
429
102
}
330
429
100
AcDbXrecord
280
     1
270
     1
271
     1
  0
XRECORD
  5
42C
102
{ACAD_REACTORS
330
429
102
}
330
429
100
AcDbXrecord
280
     1
270
     1
271
     1
  0
CELLSTYLEMAP
  5
4CF
102
{ACAD_REACTORS
330
4CE
102
}
330
4CE
100
AcDbCellStyleMap
 90
        3
300
CELLSTYLE
  1
TABLEFORMAT_BEGIN
 90
        5
170
     1
 91
        0
 92
    32768
 62
   257
 93
        1
300
CONTENTFORMAT
  1
CONTENTFORMAT_BEGIN
 90
        0
 91
        0
 92
      512
 93
        0
300

 40
0.0
140
1.0
 94
        5
 62
     0
340
89
144
6.0
309
CONTENTFORMAT_END
171
     1
301
MARGIN
  1
CELLMARGIN_BEGIN
 40
1.5
 40
1.5
 40
1.5
 40
1.5
 40
4.5
 40
4.5
309
CELLMARGIN_END
 94
        6
 95
        1
302
GRIDFORMAT
  1
GRIDFORMAT_BEGIN
 90
        0
 91
        1
 62
     0
 92
       -2
340
0
 93
        0
 40
1.125
309
GRIDFORMAT_END
 95
        2
302
GRIDFORMAT
  1
GRIDFORMAT_BEGIN
 90
        0
 91
        1
 62
     0
 92
       -2
340
0
 93
        0
 40
1.125
309
GRIDFORMAT_END
 95
        4
302
GRIDFORMAT
  1
GRIDFORMAT_BEGIN
 90
        0
 91
        1
 62
     0
 92
       -2
340
0
 93
        0
 40
1.125
309
GRIDFORMAT_END
 95
        8
302
GRIDFORMAT
  1
GRIDFORMAT_BEGIN
 90
        0
 91
        1
 62
     0
 92
       -2
340
0
 93
        0
 40
1.125
309
GRIDFORMAT_END
 95
       16
302
GRIDFORMAT
  1
GRIDFORMAT_BEGIN
 90
        0
 91
        1
 62
     0
 92
       -2
340
0
 93
        0
 40
1.125
309
GRIDFORMAT_END
 95
       32
302
GRIDFORMAT
  1
GRIDFORMAT_BEGIN
 90
        0
 91
        1
 62
     0
 92
       -2
340
0
 93
        0
 40
1.125
309
GRIDFORMAT_END
309
TABLEFORMAT_END
  1
CELLSTYLE_BEGIN
 90
        1
 91
        1
300
_TITLE
309
CELLSTYLE_END
300
CELLSTYLE
  1
TABLEFORMAT_BEGIN
 90
        5
170
     1
 91
        0
 92
        0
 62
   257
 93
        1
300
CONTENTFORMAT
  1
CONTENTFORMAT_BEGIN
 90
        0
 91
        0
 92
      512
 93
        0
300

 40
0.0
140
1.0
 94
        5
 62
     0
340
89
144
4.5
309
CONTENTFORMAT_END
171
     1
301
MARGIN
  1
CELLMARGIN_BEGIN
 40
1.5
 40
1.5
 40
1.5
 40
1.5
 40
4.5
 40
4.5
309
CELLMARGIN_END
 94
        6
 95
        1
302
GRIDFORMAT
  1
GRIDFORMAT_BEGIN
 90
        0
 91
        1
 62
     0
 92
       -2
340
0
 93
        0
 40
1.125
309
GRIDFORMAT_END
 95
        2
302
GRIDFORMAT
  1
GRIDFORMAT_BEGIN
 90
        0
 91
        1
 62
     0
 92
       -2
340
0
 93
        0
 40
1.125
309
GRIDFORMAT_END
 95
        4
302
GRIDFORMAT
  1
GRIDFORMAT_BEGIN
 90
        0
 91
        1
 62
     0
 92
       -2
340
0
 93
        0
 40
1.125
309
GRIDFORMAT_END
 95
        8
302
GRIDFORMAT
  1
GRIDFORMAT_BEGIN
 90
        0
 91
        1
 62
     0
 92
       -2
340
0
 93
        0
 40
1.125
309
GRIDFORMAT_END
 95
       16
302
GRIDFORMAT
  1
GRIDFORMAT_BEGIN
 90
        0
 91
        1
 62
     0
 92
       -2
340
0
 93
        0
 40
1.125
309
GRIDFORMAT_END
 95
       32
302
GRIDFORMAT
  1
GRIDFORMAT_BEGIN
 90
        0
 91
        1
 62
     0
 92
       -2
340
0
 93
        0
 40
1.125
309
GRIDFORMAT_END
309
TABLEFORMAT_END
  1
CELLSTYLE_BEGIN
 90
        2
 91
        1
300
_HEADER
309
CELLSTYLE_END
300
CELLSTYLE
  1
TABLEFORMAT_BEGIN
 90
        5
170
     1
 91
        0
 92
        0
 62
   257
 93
        1
300
CONTENTFORMAT
  1
CONTENTFORMAT_BEGIN
 90
        0
 91
        0
 92
      512
 93
        0
300

 40
0.0
140
1.0
 94
        2
 62
     0
340
89
144
4.5
309
CONTENTFORMAT_END
171
     1
301
MARGIN
  1
CELLMARGIN_BEGIN
 40
1.5
 40
1.5
 40
1.5
 40
1.5
 40
4.5
 40
4.5
309
CELLMARGIN_END
 94
        6
 95
        1
302
GRIDFORMAT
  1
GRIDFORMAT_BEGIN
 90
        0
 91
        1
 62
     0
 92
       -2
340
0
 93
        0
 40
1.125
309
GRIDFORMAT_END
 95
        2
302
GRIDFORMAT
  1
GRIDFORMAT_BEGIN
 90
        0
 91
        1
 62
     0
 92
       -2
340
0
 93
        0
 40
1.125
309
GRIDFORMAT_END
 95
        4
302
GRIDFORMAT
  1
GRIDFORMAT_BEGIN
 90
        0
 91
        1
 62
     0
 92
       -2
340
0
 93
        0
 40
1.125
309
GRIDFORMAT_END
 95
        8
302
GRIDFORMAT
  1
GRIDFORMAT_BEGIN
 90
        0
 91
        1
 62
     0
 92
       -2
340
0
 93
        0
 40
1.125
309
GRIDFORMAT_END
 95
       16
302
GRIDFORMAT
  1
GRIDFORMAT_BEGIN
 90
        0
 91
        1
 62
     0
 92
       -2
340
0
 93
        0
 40
1.125
309
GRIDFORMAT_END
 95
       32
302
GRIDFORMAT
  1
GRIDFORMAT_BEGIN
 90
        0
 91
        1
 62
     0
 92
       -2
340
0
 93
        0
 40
1.125
309
GRIDFORMAT_END
309
TABLEFORMAT_END
  1
CELLSTYLE_BEGIN
 90
        3
 91
        2
300
_DATA
309
CELLSTYLE_END
  0
XRECORD
  5
507
102
{ACAD_REACTORS
330
4CE
102
}
330
4CE
100
AcDbXrecord
280
     1
102
ACAD_ROUNDTRIP_PRE2007_TABLESTYLE
 90
      512
 91
        0
  1

 92
      512
 93
        0
  2

 94
      512
 95
        0
  3

  0
XRECORD
  5
4E2
102
{ACAD_REACTORS
330
4E1
102
}
330
4E1
100
AcDbXrecord
280
     1
102
RTVSPropertyOp0
 70
     1
102
RTVSPropertyOp1
 70
     1
102
RTVSPropertyOp2
 70
     1
102
RTVSPropertyOp3
 70
     1
102
RTVSPropertyOp4
 70
     1
102
RTVSPropertyOp5
 70
     1
102
RTVSPropertyOp6
 70
     1
102
RTVSPropertyOp7
 70
     1
102
RTVSPropertyOp8
 70
     1
102
RTVSPropertyOp9
 70
     1
102
RTVSPropertyOp10
 70
     1
102
RTVSPropertyOp11
 70
     1
102
RTVSPropertyOp12
 70
     1
102
RTVSPropertyOp13
 70
     1
102
RTVSPropertyOp14
 70
     1
102
RTVSPropertyOp15
 70
     1
102
RTVSPropertyOp16
 70
     1
102
RTVSPropertyOp17
 70
     1
102
RTVSPropertyOp18
 70
     1
102
RTVSPropertyOp19
 70
     1
102
RTVSPropertyOp20
 70
     1
102
RTVSPropertyOp21
 70
     1
102
RTVSPropertyOp22
 70
     1
102
RTVSPropertyOp23
 70
     1
102
RTVSPropertyOp24
 70
     1
102
RTVSPropertyOp25
 70
     1
102
RTVSPropertyOp26
 70
     1
102
RTVSPropertyOp27
 70
     1
102
RTVSPropertyOp28
 70
     1
102
RTVSPropertyOp29
 70
     1
102
RTVSPropertyOp30
 70
     1
102
RTVSPropertyOp31
 70
     1
102
RTVSPropertyOp32
 70
     1
  0
XRECORD
  5
4E0
102
{ACAD_REACTORS
330
4DF
102
}
330
4DF
100
AcDbXrecord
280
     1
102
RTVSPropertyOp0
 70
     1
102
RTVSPropertyOp1
 70
     1
102
RTVSPropertyOp2
 70
     1
102
RTVSPropertyOp3
 70
     1
102
RTVSPropertyOp4
 70
     1
102
RTVSPropertyOp5
 70
     1
102
RTVSPropertyOp6
 70
     1
102
RTVSPropertyOp7
 70
     1
102
RTVSPropertyOp8
 70
     1
102
RTVSPropertyOp9
 70
     1
102
RTVSPropertyOp10
 70
     1
102
RTVSPropertyOp11
 70
     1
102
RTVSPropertyOp12
 70
     1
102
RTVSPropertyOp13
 70
     1
102
RTVSPropertyOp14
 70
     1
102
RTVSPropertyOp15
 70
     1
102
RTVSPropertyOp16
 70
     1
102
RTVSPropertyOp17
 70
     1
102
RTVSPropertyOp18
 70
     1
102
RTVSPropertyOp19
 70
     1
102
RTVSPropertyOp20
 70
     1
102
RTVSPropertyOp21
 70
     1
102
RTVSPropertyOp22
 70
     1
102
RTVSPropertyOp23
 70
     1
102
RTVSPropertyOp24
 70
     1
102
RTVSPropertyOp25
 70
     1
102
RTVSPropertyOp26
 70
     1
102
RTVSPropertyOp27
 70
     1
102
RTVSPropertyOp28
 70
     1
102
RTVSPropertyOp29
 70
     1
102
RTVSPropertyOp30
 70
     1
102
RTVSPropertyOp31
 70
     1
102
RTVSPropertyOp32
 70
     1
  0
XRECORD
  5
4EE
102
{ACAD_REACTORS
330
4ED
102
}
330
4ED
100
AcDbXrecord
280
     1
102
RTVSPropertyOp0
 70
     1
102
RTVSPropertyOp1
 70
     1
102
RTVSPropertyOp2
 70
     1
102
RTVSPropertyOp3
 70
     1
102
RTVSPropertyOp4
 70
     1
102
RTVSPropertyOp5
 70
     1
102
RTVSPropertyOp6
 70
     1
102
RTVSPropertyOp7
 70
     1
102
RTVSPropertyOp8
 70
     1
102
RTVSPropertyOp9
 70
     1
102
RTVSPropertyOp10
 70
     1
102
RTVSPropertyOp11
 70
     1
102
RTVSPropertyOp12
 70
     1
102
RTVSPropertyOp13
 70
     1
102
RTVSPropertyOp14
 70
     1
102
RTVSPropertyOp15
 70
     1
102
RTVSPropertyOp16
 70
     1
102
RTVSPropertyOp17
 70
     1
102
RTVSPropertyOp18
 70
     1
102
RTVSPropertyOp19
 70
     1
102
RTVSPropertyOp20
 70
     1
102
RTVSPropertyOp21
 70
     1
102
RTVSPropertyOp22
 70
     1
102
RTVSPropertyOp23
 70
     1
102
RTVSPropertyOp24
 70
     1
102
RTVSPropertyOp25
 70
     1
102
RTVSPropertyOp26
 70
     1
102
RTVSPropertyOp27
 70
     1
102
RTVSPropertyOp28
 70
     1
102
RTVSPropertyOp29
 70
     1
102
RTVSPropertyOp30
 70
     1
102
RTVSPropertyOp31
 70
     1
102
RTVSPropertyOp32
 70
     1
  0
XRECORD
  5
4F6
102
{ACAD_REACTORS
330
4F5
102
}
330
4F5
100
AcDbXrecord
280
     1
102
RTVSPropertyOp0
 70
     1
102
RTVSPropertyOp1
 70
     1
102
RTVSPropertyOp2
 70
     1
102
RTVSPropertyOp3
 70
     1
102
RTVSPropertyOp4
 70
     1
102
RTVSPropertyOp5
 70
     1
102
RTVSPropertyOp6
 70
     1
102
RTVSPropertyOp7
 70
     1
102
RTVSPropertyOp8
 70
     1
102
RTVSPropertyOp9
 70
     1
102
RTVSPropertyOp10
 70
     1
102
RTVSPropertyOp11
 70
     1
102
RTVSPropertyOp12
 70
     1
102
RTVSPropertyOp13
 70
     1
102
RTVSPropertyOp14
 70
     1
102
RTVSPropertyOp15
 70
     1
102
RTVSPropertyOp16
 70
     1
102
RTVSPropertyOp17
 70
     1
102
RTVSPropertyOp18
 70
     1
102
RTVSPropertyOp19
 70
     1
102
RTVSPropertyOp20
 70
     1
102
RTVSPropertyOp21
 70
     1
102
RTVSPropertyOp22
 70
     1
102
RTVSPropertyOp23
 70
     1
102
RTVSPropertyOp24
 70
     1
102
RTVSPropertyOp25
 70
     1
102
RTVSPropertyOp26
 70
     1
102
RTVSPropertyOp27
 70
     1
102
RTVSPropertyOp28
 70
     1
102
RTVSPropertyOp29
 70
     1
102
RTVSPropertyOp30
 70
     1
102
RTVSPropertyOp31
 70
     1
102
RTVSPropertyOp32
 70
     1
  0
XRECORD
  5
4E8
102
{ACAD_REACTORS
330
4E7
102
}
330
4E7
100
AcDbXrecord
280
     1
102
RTVSPropertyOp0
 70
     1
102
RTVSPropertyOp1
 70
     1
102
RTVSPropertyOp2
 70
     1
102
RTVSPropertyOp3
 70
     1
102
RTVSPropertyOp4
 70
     1
102
RTVSPropertyOp5
 70
     1
102
RTVSPropertyOp6
 70
     1
102
RTVSPropertyOp7
 70
     1
102
RTVSPropertyOp8
 70
     1
102
RTVSPropertyOp9
 70
     1
102
RTVSPropertyOp10
 70
     1
102
RTVSPropertyOp11
 70
     1
102
RTVSPropertyOp12
 70
     1
102
RTVSPropertyOp13
 70
     1
102
RTVSPropertyOp14
 70
     1
102
RTVSPropertyOp15
 70
     1
102
RTVSPropertyOp16
 70
     1
102
RTVSPropertyOp17
 70
     1
102
RTVSPropertyOp18
 70
     1
102
RTVSPropertyOp19
 70
     1
102
RTVSPropertyOp20
 70
     1
102
RTVSPropertyOp21
 70
     1
102
RTVSPropertyOp22
 70
     1
102
RTVSPropertyOp23
 70
     1
102
RTVSPropertyOp24
 70
     1
102
RTVSPropertyOp25
 70
     1
102
RTVSPropertyOp26
 70
     1
102
RTVSPropertyOp27
 70
     1
102
RTVSPropertyOp28
 70
     1
102
RTVSPropertyOp29
 70
     1
102
RTVSPropertyOp30
 70
     1
102
RTVSPropertyOp31
 70
     1
102
RTVSPropertyOp32
 70
     1
  0
XRECORD
  5
4EC
102
{ACAD_REACTORS
330
4EB
102
}
330
4EB
100
AcDbXrecord
280
     1
102
RTVSPropertyOp0
 70
     1
102
RTVSPropertyOp1
 70
     1
102
RTVSPropertyOp2
 70
     1
102
RTVSPropertyOp3
 70
     1
102
RTVSPropertyOp4
 70
     1
102
RTVSPropertyOp5
 70
     1
102
RTVSPropertyOp6
 70
     1
102
RTVSPropertyOp7
 70
     1
102
RTVSPropertyOp8
 70
     1
102
RTVSPropertyOp9
 70
     1
102
RTVSPropertyOp10
 70
     1
102
RTVSPropertyOp11
 70
     1
102
RTVSPropertyOp12
 70
     1
102
RTVSPropertyOp13
 70
     1
102
RTVSPropertyOp14
 70
     1
102
RTVSPropertyOp15
 70
     1
102
RTVSPropertyOp16
 70
     1
102
RTVSPropertyOp17
 70
     1
102
RTVSPropertyOp18
 70
     1
102
RTVSPropertyOp19
 70
     1
102
RTVSPropertyOp20
 70
     1
102
RTVSPropertyOp21
 70
     1
102
RTVSPropertyOp22
 70
     1
102
RTVSPropertyOp23
 70
     1
102
RTVSPropertyOp24
 70
     1
102
RTVSPropertyOp25
 70
     1
102
RTVSPropertyOp26
 70
     1
102
RTVSPropertyOp27
 70
     1
102
RTVSPropertyOp28
 70
     1
102
RTVSPropertyOp29
 70
     1
102
RTVSPropertyOp30
 70
     1
102
RTVSPropertyOp31
 70
     1
102
RTVSPropertyOp32
 70
     1
  0
XRECORD
  5
506
102
{ACAD_REACTORS
330
505
102
}
330
505
100
AcDbXrecord
280
     1
102
RTVSPropertyOp0
 70
     0
102
RTVSPropertyOp1
 70
     0
102
RTVSPropertyOp2
 70
     0
102
RTVSPropertyOp3
 70
     0
102
RTVSPropertyOp4
 70
     0
102
RTVSPropertyOp5
 70
     0
102
RTVSPropertyOp6
 70
     0
102
RTVSPropertyOp7
 70
     0
102
RTVSPropertyOp8
 70
     0
102
RTVSPropertyOp9
 70
     0
102
RTVSPropertyOp10
 70
     0
102
RTVSPropertyOp11
 70
     0
102
RTVSPropertyOp12
 70
     0
102
RTVSPropertyOp13
 70
     0
102
RTVSPropertyOp14
 70
     2
102
RTVSPropertyOp15
 70
     0
102
RTVSPropertyOp16
 70
     0
102
RTVSPropertyOp17
 70
     0
102
RTVSPropertyOp18
 70
     0
102
RTVSPropertyOp19
 70
     0
102
RTVSPropertyOp20
 70
     0
102
RTVSPropertyOp21
 70
     0
102
RTVSPropertyOp22
 70
     0
102
RTVSPropertyOp23
 70
     0
102
RTVSPropertyOp24
 70
     0
102
RTVSPropertyOp25
 70
     0
102
RTVSPropertyOp26
 70
     0
102
RTVSPropertyOp27
 70
     0
102
RTVSPropertyOp28
 70
     0
102
RTVSPropertyOp29
 70
     0
102
RTVSPropertyOp30
 70
     0
102
RTVSPropertyOp31
 70
     0
102
RTVSPropertyOp32
 70
     0
  0
XRECORD
  5
4F4
102
{ACAD_REACTORS
330
4F3
102
}
330
4F3
100
AcDbXrecord
280
     1
102
RTVSPropertyOp0
 70
     1
102
RTVSPropertyOp1
 70
     1
102
RTVSPropertyOp2
 70
     1
102
RTVSPropertyOp3
 70
     1
102
RTVSPropertyOp4
 70
     1
102
RTVSPropertyOp5
 70
     1
102
RTVSPropertyOp6
 70
     1
102
RTVSPropertyOp7
 70
     1
102
RTVSPropertyOp8
 70
     1
102
RTVSPropertyOp9
 70
     1
102
RTVSPropertyOp10
 70
     1
102
RTVSPropertyOp11
 70
     1
102
RTVSPropertyOp12
 70
     1
102
RTVSPropertyOp13
 70
     1
102
RTVSPropertyOp14
 70
     1
102
RTVSPropertyOp15
 70
     1
102
RTVSPropertyOp16
 70
     1
102
RTVSPropertyOp17
 70
     1
102
RTVSPropertyOp18
 70
     1
102
RTVSPropertyOp19
 70
     1
102
RTVSPropertyOp20
 70
     1
102
RTVSPropertyOp21
 70
     1
102
RTVSPropertyOp22
 70
     1
102
RTVSPropertyOp23
 70
     1
102
RTVSPropertyOp24
 70
     1
102
RTVSPropertyOp25
 70
     1
102
RTVSPropertyOp26
 70
     1
102
RTVSPropertyOp27
 70
     1
102
RTVSPropertyOp28
 70
     1
102
RTVSPropertyOp29
 70
     1
102
RTVSPropertyOp30
 70
     1
102
RTVSPropertyOp31
 70
     1
102
RTVSPropertyOp32
 70
     1
  0
XRECORD
  5
4D8
102
{ACAD_REACTORS
330
4D7
102
}
330
4D7
100
AcDbXrecord
280
     1
102
RTVSPropertyOp0
 70
     1
102
RTVSPropertyOp1
 70
     1
102
RTVSPropertyOp2
 70
     1
102
RTVSPropertyOp3
 70
     1
102
RTVSPropertyOp4
 70
     1
102
RTVSPropertyOp5
 70
     1
102
RTVSPropertyOp6
 70
     1
102
RTVSPropertyOp7
 70
     1
102
RTVSPropertyOp8
 70
     1
102
RTVSPropertyOp9
 70
     1
102
RTVSPropertyOp10
 70
     1
102
RTVSPropertyOp11
 70
     1
102
RTVSPropertyOp12
 70
     1
102
RTVSPropertyOp13
 70
     1
102
RTVSPropertyOp14
 70
     1
102
RTVSPropertyOp15
 70
     1
102
RTVSPropertyOp16
 70
     1
102
RTVSPropertyOp17
 70
     1
102
RTVSPropertyOp18
 70
     1
102
RTVSPropertyOp19
 70
     1
102
RTVSPropertyOp20
 70
     1
102
RTVSPropertyOp21
 70
     1
102
RTVSPropertyOp22
 70
     1
102
RTVSPropertyOp23
 70
     1
102
RTVSPropertyOp24
 70
     1
102
RTVSPropertyOp25
 70
     1
102
RTVSPropertyOp26
 70
     1
102
RTVSPropertyOp27
 70
     1
102
RTVSPropertyOp28
 70
     1
102
RTVSPropertyOp29
 70
     1
102
RTVSPropertyOp30
 70
     1
102
RTVSPropertyOp31
 70
     1
102
RTVSPropertyOp32
 70
     1
  0
XRECORD
  5
4DA
102
{ACAD_REACTORS
330
4D9
102
}
330
4D9
100
AcDbXrecord
280
     1
102
RTVSPropertyOp0
 70
     1
102
RTVSPropertyOp1
 70
     1
102
RTVSPropertyOp2
 70
     1
102
RTVSPropertyOp3
 70
     1
102
RTVSPropertyOp4
 70
     1
102
RTVSPropertyOp5
 70
     1
102
RTVSPropertyOp6
 70
     1
102
RTVSPropertyOp7
 70
     1
102
RTVSPropertyOp8
 70
     1
102
RTVSPropertyOp9
 70
     1
102
RTVSPropertyOp10
 70
     1
102
RTVSPropertyOp11
 70
     1
102
RTVSPropertyOp12
 70
     1
102
RTVSPropertyOp13
 70
     1
102
RTVSPropertyOp14
 70
     1
102
RTVSPropertyOp15
 70
     1
102
RTVSPropertyOp16
 70
     1
102
RTVSPropertyOp17
 70
     1
102
RTVSPropertyOp18
 70
     1
102
RTVSPropertyOp19
 70
     1
102
RTVSPropertyOp20
 70
     1
102
RTVSPropertyOp21
 70
     1
102
RTVSPropertyOp22
 70
     1
102
RTVSPropertyOp23
 70
     1
102
RTVSPropertyOp24
 70
     1
102
RTVSPropertyOp25
 70
     1
102
RTVSPropertyOp26
 70
     1
102
RTVSPropertyOp27
 70
     1
102
RTVSPropertyOp28
 70
     1
102
RTVSPropertyOp29
 70
     1
102
RTVSPropertyOp30
 70
     1
102
RTVSPropertyOp31
 70
     1
102
RTVSPropertyOp32
 70
     1
  0
XRECORD
  5
4DC
102
{ACAD_REACTORS
330
4DB
102
}
330
4DB
100
AcDbXrecord
280
     1
102
RTVSPropertyOp0
 70
     1
102
RTVSPropertyOp1
 70
     1
102
RTVSPropertyOp2
 70
     1
102
RTVSPropertyOp3
 70
     1
102
RTVSPropertyOp4
 70
     1
102
RTVSPropertyOp5
 70
     1
102
RTVSPropertyOp6
 70
     1
102
RTVSPropertyOp7
 70
     1
102
RTVSPropertyOp8
 70
     1
102
RTVSPropertyOp9
 70
     1
102
RTVSPropertyOp10
 70
     1
102
RTVSPropertyOp11
 70
     1
102
RTVSPropertyOp12
 70
     1
102
RTVSPropertyOp13
 70
     1
102
RTVSPropertyOp14
 70
     1
102
RTVSPropertyOp15
 70
     1
102
RTVSPropertyOp16
 70
     1
102
RTVSPropertyOp17
 70
     1
102
RTVSPropertyOp18
 70
     1
102
RTVSPropertyOp19
 70
     1
102
RTVSPropertyOp20
 70
     1
102
RTVSPropertyOp21
 70
     1
102
RTVSPropertyOp22
 70
     1
102
RTVSPropertyOp23
 70
     1
102
RTVSPropertyOp24
 70
     1
102
RTVSPropertyOp25
 70
     1
102
RTVSPropertyOp26
 70
     1
102
RTVSPropertyOp27
 70
     1
102
RTVSPropertyOp28
 70
     1
102
RTVSPropertyOp29
 70
     1
102
RTVSPropertyOp30
 70
     1
102
RTVSPropertyOp31
 70
     1
102
RTVSPropertyOp32
 70
     1
  0
XRECORD
  5
4DE
102
{ACAD_REACTORS
330
4DD
102
}
330
4DD
100
AcDbXrecord
280
     1
102
RTVSPropertyOp0
 70
     1
102
RTVSPropertyOp1
 70
     1
102
RTVSPropertyOp2
 70
     1
102
RTVSPropertyOp3
 70
     1
102
RTVSPropertyOp4
 70
     1
102
RTVSPropertyOp5
 70
     1
102
RTVSPropertyOp6
 70
     1
102
RTVSPropertyOp7
 70
     1
102
RTVSPropertyOp8
 70
     1
102
RTVSPropertyOp9
 70
     1
102
RTVSPropertyOp10
 70
     1
102
RTVSPropertyOp11
 70
     1
102
RTVSPropertyOp12
 70
     1
102
RTVSPropertyOp13
 70
     1
102
RTVSPropertyOp14
 70
     1
102
RTVSPropertyOp15
 70
     1
102
RTVSPropertyOp16
 70
     1
102
RTVSPropertyOp17
 70
     1
102
RTVSPropertyOp18
 70
     1
102
RTVSPropertyOp19
 70
     1
102
RTVSPropertyOp20
 70
     1
102
RTVSPropertyOp21
 70
     1
102
RTVSPropertyOp22
 70
     1
102
RTVSPropertyOp23
 70
     1
102
RTVSPropertyOp24
 70
     1
102
RTVSPropertyOp25
 70
     1
102
RTVSPropertyOp26
 70
     1
102
RTVSPropertyOp27
 70
     1
102
RTVSPropertyOp28
 70
     1
102
RTVSPropertyOp29
 70
     1
102
RTVSPropertyOp30
 70
     1
102
RTVSPropertyOp31
 70
     1
102
RTVSPropertyOp32
 70
     1
  0
XRECORD
  5
4E6
102
{ACAD_REACTORS
330
4E5
102
}
330
4E5
100
AcDbXrecord
280
     1
102
RTVSPropertyOp0
 70
     1
102
RTVSPropertyOp1
 70
     1
102
RTVSPropertyOp2
 70
     1
102
RTVSPropertyOp3
 70
     1
102
RTVSPropertyOp4
 70
     1
102
RTVSPropertyOp5
 70
     1
102
RTVSPropertyOp6
 70
     1
102
RTVSPropertyOp7
 70
     1
102
RTVSPropertyOp8
 70
     1
102
RTVSPropertyOp9
 70
     1
102
RTVSPropertyOp10
 70
     1
102
RTVSPropertyOp11
 70
     1
102
RTVSPropertyOp12
 70
     1
102
RTVSPropertyOp13
 70
     1
102
RTVSPropertyOp14
 70
     1
102
RTVSPropertyOp15
 70
     1
102
RTVSPropertyOp16
 70
     1
102
RTVSPropertyOp17
 70
     1
102
RTVSPropertyOp18
 70
     1
102
RTVSPropertyOp19
 70
     1
102
RTVSPropertyOp20
 70
     1
102
RTVSPropertyOp21
 70
     1
102
RTVSPropertyOp22
 70
     1
102
RTVSPropertyOp23
 70
     1
102
RTVSPropertyOp24
 70
     1
102
RTVSPropertyOp25
 70
     1
102
RTVSPropertyOp26
 70
     1
102
RTVSPropertyOp27
 70
     1
102
RTVSPropertyOp28
 70
     1
102
RTVSPropertyOp29
 70
     1
102
RTVSPropertyOp30
 70
     1
102
RTVSPropertyOp31
 70
     1
102
RTVSPropertyOp32
 70
     1
  0
XRECORD
  5
502
102
{ACAD_REACTORS
330
501
102
}
330
501
100
AcDbXrecord
280
     1
102
RTVSPropertyOp0
 70
     0
102
RTVSPropertyOp1
 70
     0
102
RTVSPropertyOp2
 70
     0
102
RTVSPropertyOp3
 70
     0
102
RTVSPropertyOp4
 70
     0
102
RTVSPropertyOp5
 70
     0
102
RTVSPropertyOp6
 70
     0
102
RTVSPropertyOp7
 70
     0
102
RTVSPropertyOp8
 70
     0
102
RTVSPropertyOp9
 70
     0
102
RTVSPropertyOp10
 70
     0
102
RTVSPropertyOp11
 70
     0
102
RTVSPropertyOp12
 70
     0
102
RTVSPropertyOp13
 70
     0
102
RTVSPropertyOp14
 70
     2
102
RTVSPropertyOp15
 70
     0
102
RTVSPropertyOp16
 70
     0
102
RTVSPropertyOp17
 70
     0
102
RTVSPropertyOp18
 70
     0
102
RTVSPropertyOp19
 70
     0
102
RTVSPropertyOp20
 70
     0
102
RTVSPropertyOp21
 70
     0
102
RTVSPropertyOp22
 70
     0
102
RTVSPropertyOp23
 70
     0
102
RTVSPropertyOp24
 70
     0
102
RTVSPropertyOp25
 70
     0
102
RTVSPropertyOp26
 70
     0
102
RTVSPropertyOp27
 70
     0
102
RTVSPropertyOp28
 70
     0
102
RTVSPropertyOp29
 70
     0
102
RTVSPropertyOp30
 70
     0
102
RTVSPropertyOp31
 70
     0
102
RTVSPropertyOp32
 70
     0
  0
XRECORD
  5
4F2
102
{ACAD_REACTORS
330
4F1
102
}
330
4F1
100
AcDbXrecord
280
     1
102
RTVSPropertyOp0
 70
     1
102
RTVSPropertyOp1
 70
     1
102
RTVSPropertyOp2
 70
     1
102
RTVSPropertyOp3
 70
     1
102
RTVSPropertyOp4
 70
     1
102
RTVSPropertyOp5
 70
     1
102
RTVSPropertyOp6
 70
     1
102
RTVSPropertyOp7
 70
     1
102
RTVSPropertyOp8
 70
     1
102
RTVSPropertyOp9
 70
     1
102
RTVSPropertyOp10
 70
     1
102
RTVSPropertyOp11
 70
     1
102
RTVSPropertyOp12
 70
     1
102
RTVSPropertyOp13
 70
     1
102
RTVSPropertyOp14
 70
     1
102
RTVSPropertyOp15
 70
     1
102
RTVSPropertyOp16
 70
     1
102
RTVSPropertyOp17
 70
     1
102
RTVSPropertyOp18
 70
     1
102
RTVSPropertyOp19
 70
     1
102
RTVSPropertyOp20
 70
     1
102
RTVSPropertyOp21
 70
     1
102
RTVSPropertyOp22
 70
     1
102
RTVSPropertyOp23
 70
     1
102
RTVSPropertyOp24
 70
     1
102
RTVSPropertyOp25
 70
     1
102
RTVSPropertyOp26
 70
     1
102
RTVSPropertyOp27
 70
     1
102
RTVSPropertyOp28
 70
     1
102
RTVSPropertyOp29
 70
     1
102
RTVSPropertyOp30
 70
     1
102
RTVSPropertyOp31
 70
     1
102
RTVSPropertyOp32
 70
     1
  0
XRECORD
  5
504
102
{ACAD_REACTORS
330
503
102
}
330
503
100
AcDbXrecord
280
     1
102
RTVSPropertyOp0
 70
     0
102
RTVSPropertyOp1
 70
     0
102
RTVSPropertyOp2
 70
     0
102
RTVSPropertyOp3
 70
     0
102
RTVSPropertyOp4
 70
     0
102
RTVSPropertyOp5
 70
     0
102
RTVSPropertyOp6
 70
     0
102
RTVSPropertyOp7
 70
     0
102
RTVSPropertyOp8
 70
     0
102
RTVSPropertyOp9
 70
     0
102
RTVSPropertyOp10
 70
     0
102
RTVSPropertyOp11
 70
     0
102
RTVSPropertyOp12
 70
     0
102
RTVSPropertyOp13
 70
     0
102
RTVSPropertyOp14
 70
     2
102
RTVSPropertyOp15
 70
     0
102
RTVSPropertyOp16
 70
     0
102
RTVSPropertyOp17
 70
     0
102
RTVSPropertyOp18
 70
     0
102
RTVSPropertyOp19
 70
     0
102
RTVSPropertyOp20
 70
     0
102
RTVSPropertyOp21
 70
     0
102
RTVSPropertyOp22
 70
     0
102
RTVSPropertyOp23
 70
     0
102
RTVSPropertyOp24
 70
     0
102
RTVSPropertyOp25
 70
     0
102
RTVSPropertyOp26
 70
     0
102
RTVSPropertyOp27
 70
     0
102
RTVSPropertyOp28
 70
     0
102
RTVSPropertyOp29
 70
     0
102
RTVSPropertyOp30
 70
     0
102
RTVSPropertyOp31
 70
     0
102
RTVSPropertyOp32
 70
     0
  0
XRECORD
  5
4EA
102
{ACAD_REACTORS
330
4E9
102
}
330
4E9
100
AcDbXrecord
280
     1
102
RTVSPropertyOp0
 70
     1
102
RTVSPropertyOp1
 70
     1
102
RTVSPropertyOp2
 70
     1
102
RTVSPropertyOp3
 70
     1
102
RTVSPropertyOp4
 70
     1
102
RTVSPropertyOp5
 70
     1
102
RTVSPropertyOp6
 70
     1
102
RTVSPropertyOp7
 70
     1
102
RTVSPropertyOp8
 70
     1
102
RTVSPropertyOp9
 70
     1
102
RTVSPropertyOp10
 70
     1
102
RTVSPropertyOp11
 70
     1
102
RTVSPropertyOp12
 70
     1
102
RTVSPropertyOp13
 70
     1
102
RTVSPropertyOp14
 70
     1
102
RTVSPropertyOp15
 70
     1
102
RTVSPropertyOp16
 70
     1
102
RTVSPropertyOp17
 70
     1
102
RTVSPropertyOp18
 70
     1
102
RTVSPropertyOp19
 70
     1
102
RTVSPropertyOp20
 70
     1
102
RTVSPropertyOp21
 70
     1
102
RTVSPropertyOp22
 70
     1
102
RTVSPropertyOp23
 70
     1
102
RTVSPropertyOp24
 70
     1
102
RTVSPropertyOp25
 70
     1
102
RTVSPropertyOp26
 70
     1
102
RTVSPropertyOp27
 70
     1
102
RTVSPropertyOp28
 70
     1
102
RTVSPropertyOp29
 70
     1
102
RTVSPropertyOp30
 70
     1
102
RTVSPropertyOp31
 70
     1
102
RTVSPropertyOp32
 70
     1
  0
XRECORD
  5
500
102
{ACAD_REACTORS
330
4FF
102
}
330
4FF
100
AcDbXrecord
280
     1
102
RTVSPropertyOp0
 70
     1
102
RTVSPropertyOp1
 70
     1
102
RTVSPropertyOp2
 70
     1
102
RTVSPropertyOp3
 70
     1
102
RTVSPropertyOp4
 70
     1
102
RTVSPropertyOp5
 70
     1
102
RTVSPropertyOp6
 70
     1
102
RTVSPropertyOp7
 70
     1
102
RTVSPropertyOp8
 70
     1
102
RTVSPropertyOp9
 70
     1
102
RTVSPropertyOp10
 70
     1
102
RTVSPropertyOp11
 70
     1
102
RTVSPropertyOp12
 70
     1
102
RTVSPropertyOp13
 70
     1
102
RTVSPropertyOp14
 70
     1
102
RTVSPropertyOp15
 70
     1
102
RTVSPropertyOp16
 70
     1
102
RTVSPropertyOp17
 70
     1
102
RTVSPropertyOp18
 70
     1
102
RTVSPropertyOp19
 70
     1
102
RTVSPropertyOp20
 70
     1
102
RTVSPropertyOp21
 70
     1
102
RTVSPropertyOp22
 70
     1
102
RTVSPropertyOp23
 70
     1
102
RTVSPropertyOp24
 70
     1
102
RTVSPropertyOp25
 70
     1
102
RTVSPropertyOp26
 70
     1
102
RTVSPropertyOp27
 70
     1
102
RTVSPropertyOp28
 70
     1
102
RTVSPropertyOp29
 70
     1
102
RTVSPropertyOp30
 70
     1
102
RTVSPropertyOp31
 70
     1
102
RTVSPropertyOp32
 70
     1
  0
XRECORD
  5
4FE
102
{ACAD_REACTORS
330
4FD
102
}
330
4FD
100
AcDbXrecord
280
     1
102
RTVSPropertyOp0
 70
     1
102
RTVSPropertyOp1
 70
     1
102
RTVSPropertyOp2
 70
     1
102
RTVSPropertyOp3
 70
     1
102
RTVSPropertyOp4
 70
     1
102
RTVSPropertyOp5
 70
     1
102
RTVSPropertyOp6
 70
     1
102
RTVSPropertyOp7
 70
     1
102
RTVSPropertyOp8
 70
     1
102
RTVSPropertyOp9
 70
     1
102
RTVSPropertyOp10
 70
     1
102
RTVSPropertyOp11
 70
     1
102
RTVSPropertyOp12
 70
     1
102
RTVSPropertyOp13
 70
     1
102
RTVSPropertyOp14
 70
     1
102
RTVSPropertyOp15
 70
     1
102
RTVSPropertyOp16
 70
     1
102
RTVSPropertyOp17
 70
     1
102
RTVSPropertyOp18
 70
     1
102
RTVSPropertyOp19
 70
     1
102
RTVSPropertyOp20
 70
     1
102
RTVSPropertyOp21
 70
     1
102
RTVSPropertyOp22
 70
     1
102
RTVSPropertyOp23
 70
     1
102
RTVSPropertyOp24
 70
     1
102
RTVSPropertyOp25
 70
     1
102
RTVSPropertyOp26
 70
     1
102
RTVSPropertyOp27
 70
     1
102
RTVSPropertyOp28
 70
     1
102
RTVSPropertyOp29
 70
     1
102
RTVSPropertyOp30
 70
     1
102
RTVSPropertyOp31
 70
     1
102
RTVSPropertyOp32
 70
     1
  0
XRECORD
  5
4F8
102
{ACAD_REACTORS
330
4F7
102
}
330
4F7
100
AcDbXrecord
280
     1
102
RTVSPropertyOp0
 70
     1
102
RTVSPropertyOp1
 70
     1
102
RTVSPropertyOp2
 70
     1
102
RTVSPropertyOp3
 70
     1
102
RTVSPropertyOp4
 70
     1
102
RTVSPropertyOp5
 70
     1
102
RTVSPropertyOp6
 70
     1
102
RTVSPropertyOp7
 70
     1
102
RTVSPropertyOp8
 70
     1
102
RTVSPropertyOp9
 70
     1
102
RTVSPropertyOp10
 70
     1
102
RTVSPropertyOp11
 70
     1
102
RTVSPropertyOp12
 70
     1
102
RTVSPropertyOp13
 70
     1
102
RTVSPropertyOp14
 70
     1
102
RTVSPropertyOp15
 70
     1
102
RTVSPropertyOp16
 70
     1
102
RTVSPropertyOp17
 70
     1
102
RTVSPropertyOp18
 70
     1
102
RTVSPropertyOp19
 70
     1
102
RTVSPropertyOp20
 70
     1
102
RTVSPropertyOp21
 70
     1
102
RTVSPropertyOp22
 70
     1
102
RTVSPropertyOp23
 70
     1
102
RTVSPropertyOp24
 70
     1
102
RTVSPropertyOp25
 70
     1
102
RTVSPropertyOp26
 70
     1
102
RTVSPropertyOp27
 70
     1
102
RTVSPropertyOp28
 70
     1
102
RTVSPropertyOp29
 70
     1
102
RTVSPropertyOp30
 70
     1
102
RTVSPropertyOp31
 70
     1
102
RTVSPropertyOp32
 70
     1
  0
XRECORD
  5
4FA
102
{ACAD_REACTORS
330
4F9
102
}
330
4F9
100
AcDbXrecord
280
     1
102
RTVSPropertyOp0
 70
     1
102
RTVSPropertyOp1
 70
     1
102
RTVSPropertyOp2
 70
     1
102
RTVSPropertyOp3
 70
     1
102
RTVSPropertyOp4
 70
     1
102
RTVSPropertyOp5
 70
     1
102
RTVSPropertyOp6
 70
     1
102
RTVSPropertyOp7
 70
     1
102
RTVSPropertyOp8
 70
     1
102
RTVSPropertyOp9
 70
     1
102
RTVSPropertyOp10
 70
     1
102
RTVSPropertyOp11
 70
     1
102
RTVSPropertyOp12
 70
     1
102
RTVSPropertyOp13
 70
     1
102
RTVSPropertyOp14
 70
     1
102
RTVSPropertyOp15
 70
     1
102
RTVSPropertyOp16
 70
     1
102
RTVSPropertyOp17
 70
     1
102
RTVSPropertyOp18
 70
     1
102
RTVSPropertyOp19
 70
     1
102
RTVSPropertyOp20
 70
     1
102
RTVSPropertyOp21
 70
     1
102
RTVSPropertyOp22
 70
     1
102
RTVSPropertyOp23
 70
     1
102
RTVSPropertyOp24
 70
     1
102
RTVSPropertyOp25
 70
     1
102
RTVSPropertyOp26
 70
     1
102
RTVSPropertyOp27
 70
     1
102
RTVSPropertyOp28
 70
     1
102
RTVSPropertyOp29
 70
     1
102
RTVSPropertyOp30
 70
     1
102
RTVSPropertyOp31
 70
     1
102
RTVSPropertyOp32
 70
     1
  0
XRECORD
  5
4F0
102
{ACAD_REACTORS
330
4EF
102
}
330
4EF
100
AcDbXrecord
280
     1
102
RTVSPropertyOp0
 70
     1
102
RTVSPropertyOp1
 70
     1
102
RTVSPropertyOp2
 70
     1
102
RTVSPropertyOp3
 70
     1
102
RTVSPropertyOp4
 70
     1
102
RTVSPropertyOp5
 70
     1
102
RTVSPropertyOp6
 70
     1
102
RTVSPropertyOp7
 70
     1
102
RTVSPropertyOp8
 70
     1
102
RTVSPropertyOp9
 70
     1
102
RTVSPropertyOp10
 70
     1
102
RTVSPropertyOp11
 70
     1
102
RTVSPropertyOp12
 70
     1
102
RTVSPropertyOp13
 70
     1
102
RTVSPropertyOp14
 70
     1
102
RTVSPropertyOp15
 70
     1
102
RTVSPropertyOp16
 70
     1
102
RTVSPropertyOp17
 70
     1
102
RTVSPropertyOp18
 70
     1
102
RTVSPropertyOp19
 70
     1
102
RTVSPropertyOp20
 70
     1
102
RTVSPropertyOp21
 70
     1
102
RTVSPropertyOp22
 70
     1
102
RTVSPropertyOp23
 70
     1
102
RTVSPropertyOp24
 70
     1
102
RTVSPropertyOp25
 70
     1
102
RTVSPropertyOp26
 70
     1
102
RTVSPropertyOp27
 70
     1
102
RTVSPropertyOp28
 70
     1
102
RTVSPropertyOp29
 70
     1
102
RTVSPropertyOp30
 70
     1
102
RTVSPropertyOp31
 70
     1
102
RTVSPropertyOp32
 70
     1
  0
XRECORD
  5
4E4
102
{ACAD_REACTORS
330
4E3
102
}
330
4E3
100
AcDbXrecord
280
     1
102
RTVSPropertyOp0
 70
     1
102
RTVSPropertyOp1
 70
     1
102
RTVSPropertyOp2
 70
     1
102
RTVSPropertyOp3
 70
     1
102
RTVSPropertyOp4
 70
     1
102
RTVSPropertyOp5
 70
     1
102
RTVSPropertyOp6
 70
     1
102
RTVSPropertyOp7
 70
     1
102
RTVSPropertyOp8
 70
     1
102
RTVSPropertyOp9
 70
     1
102
RTVSPropertyOp10
 70
     1
102
RTVSPropertyOp11
 70
     1
102
RTVSPropertyOp12
 70
     1
102
RTVSPropertyOp13
 70
     1
102
RTVSPropertyOp14
 70
     1
102
RTVSPropertyOp15
 70
     1
102
RTVSPropertyOp16
 70
     1
102
RTVSPropertyOp17
 70
     1
102
RTVSPropertyOp18
 70
     1
102
RTVSPropertyOp19
 70
     1
102
RTVSPropertyOp20
 70
     1
102
RTVSPropertyOp21
 70
     1
102
RTVSPropertyOp22
 70
     1
102
RTVSPropertyOp23
 70
     1
102
RTVSPropertyOp24
 70
     1
102
RTVSPropertyOp25
 70
     1
102
RTVSPropertyOp26
 70
     1
102
RTVSPropertyOp27
 70
     1
102
RTVSPropertyOp28
 70
     1
102
RTVSPropertyOp29
 70
     1
102
RTVSPropertyOp30
 70
     1
102
RTVSPropertyOp31
 70
     1
102
RTVSPropertyOp32
 70
     1
  0
XRECORD
  5
4FC
102
{ACAD_REACTORS
330
4FB
102
}
330
4FB
100
AcDbXrecord
280
     1
102
RTVSPropertyOp0
 70
     1
102
RTVSPropertyOp1
 70
     1
102
RTVSPropertyOp2
 70
     1
102
RTVSPropertyOp3
 70
     1
102
RTVSPropertyOp4
 70
     1
102
RTVSPropertyOp5
 70
     1
102
RTVSPropertyOp6
 70
     1
102
RTVSPropertyOp7
 70
     1
102
RTVSPropertyOp8
 70
     1
102
RTVSPropertyOp9
 70
     1
102
RTVSPropertyOp10
 70
     1
102
RTVSPropertyOp11
 70
     1
102
RTVSPropertyOp12
 70
     1
102
RTVSPropertyOp13
 70
     1
102
RTVSPropertyOp14
 70
     1
102
RTVSPropertyOp15
 70
     1
102
RTVSPropertyOp16
 70
     1
102
RTVSPropertyOp17
 70
     1
102
RTVSPropertyOp18
 70
     1
102
RTVSPropertyOp19
 70
     1
102
RTVSPropertyOp20
 70
     1
102
RTVSPropertyOp21
 70
     1
102
RTVSPropertyOp22
 70
     1
102
RTVSPropertyOp23
 70
     1
102
RTVSPropertyOp24
 70
     1
102
RTVSPropertyOp25
 70
     1
102
RTVSPropertyOp26
 70
     1
102
RTVSPropertyOp27
 70
     1
102
RTVSPropertyOp28
 70
     1
102
RTVSPropertyOp29
 70
     1
102
RTVSPropertyOp30
 70
     1
102
RTVSPropertyOp31
 70
     1
102
RTVSPropertyOp32
 70
     1
  0
ENDSEC
  0
EOF
