  0
SECTION
  2
HEADER
  9
$ACADVER
  1
AC1015
  9
$ACADMAINTVER
 70
    20
  9
$DWGCODEPAGE
  3
ANSI_949
  9
$INSBASE
 10
0.0
 20
0.0
 30
0.0
  9
$EXTMIN
 10
-180.9548495969723
 20
-196.1538323694162
 30
-0.0015258207003583
  9
$EXTMAX
 10
198.0565520332081
 20
163.4892367322859
 30
0.0000000349246037
  9
$LIMMIN
 10
0.0
 20
0.0
  9
$LIMMAX
 10
420.0
 20
297.0
  9
$ORTHOMODE
 70
     1
  9
$REGENMODE
 70
     1
  9
$FILLMODE
 70
     1
  9
$QTEXTMODE
 70
     0
  9
$MIRRTEXT
 70
     0
  9
$LTSCALE
 40
1.0
  9
$ATTMODE
 70
     1
  9
$TEXTSIZE
 40
5.777225951253058
  9
$TRACEWID
 40
1.0
  9
$TEXTSTYLE
  7
STANDARD
  9
$CLAYER
  8
0
  9
$CELTYPE
  6
BYLAYER
  9
$CECOLOR
 62
   256
  9
$CELTSCALE
 40
1.0
  9
$DISPSILH
 70
     0
  9
$DIMSCALE
 40
1.0
  9
$DIMASZ
 40
3.5
  9
$DIMEXO
 40
1.0
  9
$DIMDLI
 40
10.0
  9
$DIMRND
 40
0.0
  9
$DIMDLE
 40
0.0
  9
$DIMEXE
 40
0.6
  9
$DIMTP
 40
0.0
  9
$DIMTM
 40
0.0
  9
$DIMTXT
 40
3.0
  9
$DIMCEN
 40
0.09
  9
$DIMTSZ
 40
0.0
  9
$DIMTOL
 70
     0
  9
$DIMLIM
 70
     0
  9
$DIMTIH
 70
     0
  9
$DIMTOH
 70
     0
  9
$DIMSE1
 70
     0
  9
$DIMSE2
 70
     0
  9
$DIMTAD
 70
     1
  9
$DIMZIN
 70
     8
  9
$DIMBLK
  1

  9
$DIMASO
 70
     1
  9
$DIMSHO
 70
     1
  9
$DIMPOST
  1

  9
$DIMAPOST
  1

  9
$DIMALT
 70
     0
  9
$DIMALTD
 70
     2
  9
$DIMALTF
 40
25.4
  9
$DIMLFAC
 40
1.0
  9
$DIMTOFL
 70
     1
  9
$DIMTVP
 40
0.0
  9
$DIMTIX
 70
     1
  9
$DIMSOXD
 70
     0
  9
$DIMSAH
 70
     0
  9
$DIMBLK1
  1

  9
$DIMBLK2
  1

  9
$DIMSTYLE
  2
STANDARD
  9
$DIMCLRD
 70
   123
  9
$DIMCLRE
 70
   123
  9
$DIMCLRT
 70
     3
  9
$DIMTFAC
 40
1.0
  9
$DIMGAP
 40
1.0
  9
$DIMJUST
 70
     0
  9
$DIMSD1
 70
     0
  9
$DIMSD2
 70
     0
  9
$DIMTOLJ
 70
     1
  9
$DIMTZIN
 70
     0
  9
$DIMALTZ
 70
     0
  9
$DIMALTTZ
 70
     0
  9
$DIMUPT
 70
     1
  9
$DIMDEC
 70
     2
  9
$DIMTDEC
 70
     2
  9
$DIMALTU
 70
     2
  9
$DIMALTTD
 70
     2
  9
$DIMTXSTY
  7
STANDARD
  9
$DIMAUNIT
 70
     1
  9
$DIMADEC
 70
     1
  9
$DIMALTRND
 40
0.0
  9
$DIMAZIN
 70
     2
  9
$DIMDSEP
 70
    46
  9
$DIMATFIT
 70
     3
  9
$DIMFRAC
 70
     0
  9
$DIMLDRBLK
  1

  9
$DIMLUNIT
 70
     2
  9
$DIMLWD
 70
    -2
  9
$DIMLWE
 70
    -2
  9
$DIMTMOVE
 70
     0
  9
$LUNITS
 70
     2
  9
$LUPREC
 70
     4
  9
$SKETCHINC
 40
1.0
  9
$FILLETRAD
 40
5.0
  9
$AUNITS
 70
     0
  9
$AUPREC
 70
     0
  9
$MENU
  1
.
  9
$ELEVATION
 40
0.0
  9
$PELEVATION
 40
0.0
  9
$THICKNESS
 40
0.0
  9
$LIMCHECK
 70
     0
  9
$CHAMFERA
 40
1.0
  9
$CHAMFERB
 40
1.0
  9
$CHAMFERC
 40
20.0
  9
$CHAMFERD
 40
0.0
  9
$SKPOLY
 70
     0
  9
$TDCREATE
 40
2452839.586179271
  9
$TDUCREATE
 40
2452839.211179271
  9
$TDUPDATE
 40
2456237.805827489
  9
$TDUUPDATE
 40
2456237.430827489
  9
$TDINDWG
 40
9.3059799769
  9
$TDUSRTIMER
 40
9.3059799769
  9
$USRTIMER
 70
     1
  9
$ANGBASE
 50
0.0
  9
$ANGDIR
 70
     0
  9
$PDMODE
 70
     0
  9
$PDSIZE
 40
0.0
  9
$PLINEWID
 40
0.0
  9
$SPLFRAME
 70
     0
  9
$SPLINETYPE
 70
     6
  9
$SPLINESEGS
 70
   800
  9
$HANDSEED
  5
518
  9
$SURFTAB1
 70
     6
  9
$SURFTAB2
 70
     6
  9
$SURFTYPE
 70
     6
  9
$SURFU
 70
     6
  9
$SURFV
 70
     6
  9
$UCSBASE
  2

  9
$UCSNAME
  2

  9
$UCSORG
 10
0.0
 20
0.0
 30
0.0
  9
$UCSXDIR
 10
1.0
 20
0.0
 30
0.0
  9
$UCSYDIR
 10
0.0
 20
1.0
 30
0.0
  9
$UCSORTHOREF
  2

  9
$UCSORTHOVIEW
 70
     0
  9
$UCSORGTOP
 10
0.0
 20
0.0
 30
0.0
  9
$UCSORGBOTTOM
 10
0.0
 20
0.0
 30
0.0
  9
$UCSORGLEFT
 10
0.0
 20
0.0
 30
0.0
  9
$UCSORGRIGHT
 10
0.0
 20
0.0
 30
0.0
  9
$UCSORGFRONT
 10
0.0
 20
0.0
 30
0.0
  9
$UCSORGBACK
 10
0.0
 20
0.0
 30
0.0
  9
$PUCSBASE
  2

  9
$PUCSNAME
  2

  9
$PUCSORG
 10
0.0
 20
0.0
 30
0.0
  9
$PUCSXDIR
 10
1.0
 20
0.0
 30
0.0
  9
$PUCSYDIR
 10
0.0
 20
1.0
 30
0.0
  9
$PUCSORTHOREF
  2

  9
$PUCSORTHOVIEW
 70
     0
  9
$PUCSORGTOP
 10
0.0
 20
0.0
 30
0.0
  9
$PUCSORGBOTTOM
 10
0.0
 20
0.0
 30
0.0
  9
$PUCSORGLEFT
 10
0.0
 20
0.0
 30
0.0
  9
$PUCSORGRIGHT
 10
0.0
 20
0.0
 30
0.0
  9
$PUCSORGFRONT
 10
0.0
 20
0.0
 30
0.0
  9
$PUCSORGBACK
 10
0.0
 20
0.0
 30
0.0
  9
$USERI1
 70
     0
  9
$USERI2
 70
     0
  9
$USERI3
 70
     0
  9
$USERI4
 70
     0
  9
$USERI5
 70
     0
  9
$USERR1
 40
0.0
  9
$USERR2
 40
0.0
  9
$USERR3
 40
0.0
  9
$USERR4
 40
0.0
  9
$USERR5
 40
0.0
  9
$WORLDVIEW
 70
     1
  9
$SHADEDGE
 70
     3
  9
$SHADEDIF
 70
    70
  9
$TILEMODE
 70
     1
  9
$MAXACTVP
 70
    48
  9
$PINSBASE
 10
0.0
 20
0.0
 30
0.0
  9
$PLIMCHECK
 70
     0
  9
$PEXTMIN
 10
0.0
 20
0.0
 30
0.0
  9
$PEXTMAX
 10
0.0
 20
0.0
 30
0.0
  9
$PLIMMIN
 10
0.0
 20
0.0
  9
$PLIMMAX
 10
12.0
 20
9.0
  9
$UNITMODE
 70
     0
  9
$VISRETAIN
 70
     1
  9
$PLINEGEN
 70
     0
  9
$PSLTSCALE
 70
     1
  9
$TREEDEPTH
 70
  3020
  9
$CMLSTYLE
  2
STANDARD
  9
$CMLJUST
 70
     0
  9
$CMLSCALE
 40
20.0
  9
$PROXYGRAPHICS
 70
     1
  9
$MEASUREMENT
 70
     1
  9
$CELWEIGHT
370
    -1
  9
$ENDCAPS
280
     0
  9
$JOINSTYLE
280
     0
  9
$LWDISPLAY
290
     0
  9
$INSUNITS
 70
     4
  9
$HYPERLINKBASE
  1

  9
$STYLESHEET
  1

  9
$XEDIT
290
     1
  9
$CEPSNTYPE
380
     0
  9
$PSTYLEMODE
290
     1
  9
$FINGERPRINTGUID
  2
{FDEAD578-A652-11D2-9A35-0060089B3A3F}
  9
$VERSIONGUID
  2
{B03F7452-B77A-416D-8661-2CB552B5EB89}
  9
$EXTNAMES
290
     1
  9
$PSVPSCALE
 40
0.0
  9
$OLESTARTUP
290
     0
  0
ENDSEC
  0
SECTION
  2
CLASSES
  0
CLASS
  1
ACDBDICTIONARYWDFLT
  2
AcDbDictionaryWithDefault
  3
ObjectDBX Classes
 90
        0
280
     0
281
     0
  0
CLASS
  1
ACDBPLACEHOLDER
  2
AcDbPlaceHolder
  3
ObjectDBX Classes
 90
        0
280
     0
281
     0
  0
CLASS
  1
LAYOUT
  2
AcDbLayout
  3
ObjectDBX Classes
 90
        0
280
     0
281
     0
  0
CLASS
  1
DICTIONARYVAR
  2
AcDbDictionaryVar
  3
ObjectDBX Classes
 90
        0
280
     0
281
     0
  0
CLASS
  1
DIMASSOC
  2
AcDbDimAssoc
  3
"AcDbDimAssoc|Product Desc:     AcDim ARX App For Dimension|Company:          Autodesk, Inc.|WEB Address:      www.autodesk.com"
 90
        0
280
     0
281
     0
  0
CLASS
  1
MATERIAL
  2
AcDbMaterial
  3
ObjectDBX Classes
 90
     1153
280
     0
281
     0
  0
CLASS
  1
VISUALSTYLE
  2
AcDbVisualStyle
  3
ObjectDBX Classes
 90
     4095
280
     0
281
     0
  0
CLASS
  1
TABLESTYLE
  2
AcDbTableStyle
  3
ObjectDBX Classes
 90
     4095
280
     0
281
     0
  0
CLASS
  1
SCALE
  2
AcDbScale
  3
ObjectDBX Classes
 90
     1153
280
     0
281
     0
  0
CLASS
  1
MLEADERSTYLE
  2
AcDbMLeaderStyle
  3
ACDB_MLEADERSTYLE_CLASS
 90
     4095
280
     0
281
     0
  0
CLASS
  1
SORTENTSTABLE
  2
AcDbSortentsTable
  3
ObjectDBX Classes
 90
        0
280
     0
281
     0
  0
CLASS
  1
CELLSTYLEMAP
  2
AcDbCellStyleMap
  3
ObjectDBX Classes
 90
     1152
280
     0
281
     0
  0
ENDSEC
  0
SECTION
  2
TABLES
  0
TABLE
  2
VPORT
  5
1E
330
0
100
AcDbSymbolTable
 70
     1
  0
VPORT
  5
421
330
1E
100
AcDbSymbolTableRecord
100
AcDbViewportTableRecord
  2
*ACTIVE
 70
     0
 10
0.0
 20
0.0
 11
1.0
 21
1.0
 12
8.550851218117969
 22
-16.33229781856516
 13
0.0
 23
0.0
 14
10.0
 24
10.0
 15
10.0
 25
10.0
 16
0.0
 26
0.0
 36
1.0
 17
0.0
 27
0.0
 37
0.0
 40
362.3103848181548
 41
1.584158415841584
 42
50.0
 43
0.0
 44
0.0
 50
0.0
 51
0.0
 71
     0
 72
 10000
 73
     1
 74
     3
 75
     0
 76
     0
 77
     0
 78
     1
281
     0
 65
     1
110
0.0
120
0.0
130
0.0
111
1.0
121
0.0
131
0.0
112
0.0
122
1.0
132
0.0
 79
     0
146
0.0
1001
ACAD_NAV_VCDISPLAY
1070
     3
  0
ENDTAB
  0
TABLE
  2
LTYPE
  5
19
330
0
100
AcDbSymbolTable
 70
     4
  0
LTYPE
  5
1A
330
19
100
AcDbSymbolTableRecord
100
AcDbLinetypeTableRecord
  2
BYBLOCK
 70
     0
  3

 72
    65
 73
     0
 40
0.0
  0
LTYPE
  5
1B
330
19
100
AcDbSymbolTableRecord
100
AcDbLinetypeTableRecord
  2
BYLAYER
 70
     0
  3

 72
    65
 73
     0
 40
0.0
  0
LTYPE
  5
9
330
19
100
AcDbSymbolTableRecord
100
AcDbLinetypeTableRecord
  2
CONTINUOUS
 70
     0
  3
Solid line
 72
    65
 73
     0
 40
0.0
  0
LTYPE
  5
6D
330
19
100
AcDbSymbolTableRecord
100
AcDbLinetypeTableRecord
  2
CENTER
 70
     0
  3
Center ____ _ ____ _ ____ _ ____ _ ____ _ ____
 72
    65
 73
     4
 40
50.8
 49
31.75
 74
     0
 49
-6.349999999999998
 74
     0
 49
6.349999999999998
 74
     0
 49
-6.349999999999998
 74
     0
  0
LTYPE
  5
E3
330
19
100
AcDbSymbolTableRecord
100
AcDbLinetypeTableRecord
  2
CENTERX2
 70
     0
  3
Center (2x) ________  __  ________  __  _____
 72
    65
 73
     4
 40
101.6
 49
63.5
 74
     0
 49
-12.7
 74
     0
 49
12.7
 74
     0
 49
-12.7
 74
     0
  0
ENDTAB
  0
TABLE
  2
LAYER
  5
12
102
{ACAD_XDICTIONARY
360
13
102
}
330
0
100
AcDbSymbolTable
 70
     7
  0
LAYER
  5
5
102
{ACAD_XDICTIONARY
360
4C8
102
}
330
12
100
AcDbSymbolTableRecord
100
AcDbLayerTableRecord
  2
0
 70
     0
 62
     7
  6
CONTINUOUS
370
    -3
390
6
  0
LAYER
  5
160
102
{ACAD_XDICTIONARY
360
4CA
102
}
330
12
100
AcDbSymbolTableRecord
100
AcDbLayerTableRecord
  2
3
 70
     0
 62
     3
  6
CONTINUOUS
370
    -3
390
6
  0
LAYER
  5
3B
330
12
100
AcDbSymbolTableRecord
100
AcDbLayerTableRecord
  2
DEFPOINTS
 70
     0
 62
     7
  6
CONTINUOUS
290
     0
370
    -3
390
6
  0
LAYER
  5
2A
102
{ACAD_XDICTIONARY
360
4CC
102
}
330
12
100
AcDbSymbolTableRecord
100
AcDbLayerTableRecord
  2
DIM
 70
     0
 62
     3
  6
CONTINUOUS
370
    -3
390
6
  0
LAYER
  5
E2
102
{ACAD_XDICTIONARY
360
4CE
102
}
330
12
100
AcDbSymbolTableRecord
100
AcDbLayerTableRecord
  2
CL
 70
     0
 62
     1
  6
CENTERX2
370
    -3
390
6
  0
LAYER
  5
86
102
{ACAD_XDICTIONARY
360
4D0
102
}
330
12
100
AcDbSymbolTableRecord
100
AcDbLayerTableRecord
  2
CEN
 70
     0
 62
     1
  6
CENTER
370
    -3
390
6
  0
LAYER
  5
235
102
{ACAD_XDICTIONARY
360
4D2
102
}
330
12
100
AcDbSymbolTableRecord
100
AcDbLayerTableRecord
  2
2
 70
     0
 62
     2
  6
CONTINUOUS
370
    -3
390
6
  0
ENDTAB
  0
TABLE
  2
STYLE
  5
16
330
0
100
AcDbSymbolTable
 70
     1
  0
STYLE
  5
17
330
16
100
AcDbSymbolTableRecord
100
AcDbTextStyleTableRecord
  2
STANDARD
 70
     0
 40
0.0
 41
1.0
 50
0.0
 71
     0
 42
5.777225951253058
  3
romans.shx
  4
whgtxt.shx
  0
ENDTAB
  0
TABLE
  2
VIEW
  5
1C
330
0
100
AcDbSymbolTable
 70
     0
  0
ENDTAB
  0
TABLE
  2
UCS
  5
1D
330
0
100
AcDbSymbolTable
 70
     0
  0
ENDTAB
  0
TABLE
  2
APPID
  5
20
330
0
100
AcDbSymbolTable
 70
     4
  0
APPID
  5
21
330
20
100
AcDbSymbolTableRecord
100
AcDbRegAppTableRecord
  2
ACAD
 70
     0
  0
APPID
  5
4C1
330
20
100
AcDbSymbolTableRecord
100
AcDbRegAppTableRecord
  2
ACAD_EXEMPT_FROM_CAD_STANDARDS
 70
     0
  0
APPID
  5
4DA
330
20
100
AcDbSymbolTableRecord
100
AcDbRegAppTableRecord
  2
ACAD_NAV_VCDISPLAY
 70
     0
  0
APPID
  5
513
330
20
100
AcDbSymbolTableRecord
100
AcDbRegAppTableRecord
  2
ACAD_MLEADERVER
 70
     0
  0
ENDTAB
  0
TABLE
  2
DIMSTYLE
  5
22
330
0
100
AcDbSymbolTable
 70
     2
100
AcDbDimStyleTable
 71
     1
340
23
  0
DIMSTYLE
105
23
102
{ACAD_REACTORS
330
273
330
29D
330
287
330
1D4
330
C3
330
1C2
330
1E1
330
165
330
D2
330
73
330
E5
330
F6
330
25E
330
239
330
5B
330
30
330
106
330
1A7
330
46
330
191
330
150
102
}
330
22
100
AcDbSymbolTableRecord
100
AcDbDimStyleTableRecord
  2
STANDARD
 70
     0
 41
3.5
 42
1.0
 43
10.0
 44
0.6
 73
     0
 74
     0
 77
     1
 78
     8
140
3.0
147
1.0
172
     1
174
     1
176
   123
177
   123
178
     3
271
     2
272
     2
275
     1
288
     1
340
17
  0
ENDTAB
  0
TABLE
  2
BLOCK_RECORD
  5
1
330
0
100
AcDbSymbolTable
 70
    22
  0
BLOCK_RECORD
  5
2
102
{ACAD_XDICTIONARY
360
3
102
}
330
1
100
AcDbSymbolTableRecord
100
AcDbBlockTableRecord
  2
*MODEL_SPACE
340
4A6
  0
BLOCK_RECORD
  5
D
102
{ACAD_XDICTIONARY
360
E
102
}
330
1
100
AcDbSymbolTableRecord
100
AcDbBlockTableRecord
  2
*PAPER_SPACE
340
4A7
  0
BLOCK_RECORD
  5
2B3
330
1
100
AcDbSymbolTableRecord
100
AcDbBlockTableRecord
  2
*D0
340
0
  0
BLOCK_RECORD
  5
2C1
330
1
100
AcDbSymbolTableRecord
100
AcDbBlockTableRecord
  2
*D1
340
0
  0
BLOCK_RECORD
  5
2CF
330
1
100
AcDbSymbolTableRecord
100
AcDbBlockTableRecord
  2
*D2
340
0
  0
BLOCK_RECORD
  5
2DB
330
1
100
AcDbSymbolTableRecord
100
AcDbBlockTableRecord
  2
*D3
340
0
  0
BLOCK_RECORD
  5
2E9
330
1
100
AcDbSymbolTableRecord
100
AcDbBlockTableRecord
  2
*D4
340
0
  0
BLOCK_RECORD
  5
2F7
330
1
100
AcDbSymbolTableRecord
100
AcDbBlockTableRecord
  2
*D5
340
0
  0
BLOCK_RECORD
  5
303
330
1
100
AcDbSymbolTableRecord
100
AcDbBlockTableRecord
  2
*D6
340
0
  0
BLOCK_RECORD
  5
30F
330
1
100
AcDbSymbolTableRecord
100
AcDbBlockTableRecord
  2
*D7
340
0
  0
BLOCK_RECORD
  5
31B
330
1
100
AcDbSymbolTableRecord
100
AcDbBlockTableRecord
  2
*D8
340
0
  0
BLOCK_RECORD
  5
327
330
1
100
AcDbSymbolTableRecord
100
AcDbBlockTableRecord
  2
*D9
340
0
  0
BLOCK_RECORD
  5
332
330
1
100
AcDbSymbolTableRecord
100
AcDbBlockTableRecord
  2
*D10
340
0
  0
BLOCK_RECORD
  5
33E
330
1
100
AcDbSymbolTableRecord
100
AcDbBlockTableRecord
  2
*D11
340
0
  0
BLOCK_RECORD
  5
34A
330
1
100
AcDbSymbolTableRecord
100
AcDbBlockTableRecord
  2
*D12
340
0
  0
BLOCK_RECORD
  5
355
330
1
100
AcDbSymbolTableRecord
100
AcDbBlockTableRecord
  2
*D13
340
0
  0
BLOCK_RECORD
  5
361
330
1
100
AcDbSymbolTableRecord
100
AcDbBlockTableRecord
  2
*D14
340
0
  0
BLOCK_RECORD
  5
36F
330
1
100
AcDbSymbolTableRecord
100
AcDbBlockTableRecord
  2
*D15
340
0
  0
BLOCK_RECORD
  5
37B
330
1
100
AcDbSymbolTableRecord
100
AcDbBlockTableRecord
  2
*D16
340
0
  0
BLOCK_RECORD
  5
387
330
1
100
AcDbSymbolTableRecord
100
AcDbBlockTableRecord
  2
*D17
340
0
  0
BLOCK_RECORD
  5
393
330
1
100
AcDbSymbolTableRecord
100
AcDbBlockTableRecord
  2
*D18
340
0
  0
BLOCK_RECORD
  5
39F
330
1
100
AcDbSymbolTableRecord
100
AcDbBlockTableRecord
  2
*D19
340
0
  0
BLOCK_RECORD
  5
3AD
330
1
100
AcDbSymbolTableRecord
100
AcDbBlockTableRecord
  2
*D20
340
0
  0
ENDTAB
  0
ENDSEC
  0
SECTION
  2
BLOCKS
  0
BLOCK
  5
4
330
2
100
AcDbEntity
  8
0
100
AcDbBlockBegin
  2
*MODEL_SPACE
 70
     0
 10
0.0
 20
0.0
 30
0.0
  3
*MODEL_SPACE
  1

  0
ENDBLK
  5
A
330
2
100
AcDbEntity
  8
0
100
AcDbBlockEnd
  0
BLOCK
  5
F
330
D
100
AcDbEntity
 67
     1
  8
0
100
AcDbBlockBegin
  2
*PAPER_SPACE
 70
     0
 10
0.0
 20
0.0
 30
0.0
  3
*PAPER_SPACE
  1

  0
ENDBLK
  5
10
330
D
100
AcDbEntity
 67
     1
  8
0
100
AcDbBlockEnd
  0
BLOCK
  5
2BF
330
2B3
100
AcDbEntity
  8
0
100
AcDbBlockBegin
  2
*D0
 70
     1
 10
0.0
 20
0.0
 30
0.0
  3
*D0
  1

  0
LINE
  5
2B4
330
2B3
100
AcDbEntity
  8
0
 62
   123
100
AcDbLine
 10
21.84508695544082
 20
123.7755375745468
 30
0.0
 11
21.84508695544082
 21
138.4765224889429
 31
0.0
  0
LINE
  5
2B5
330
2B3
100
AcDbEntity
  8
0
 62
   123
100
AcDbLine
 10
23.84508695544082
 20
127.2755375745473
 30
0.0
 11
23.84508695544082
 21
138.4765224889429
 31
0.0
  0
LINE
  5
2B6
330
2B3
100
AcDbEntity
  8
0
 62
   123
100
AcDbLine
 10
18.34508695544082
 20
137.876522488943
 30
0.0
 11
14.84508695544082
 21
137.876522488943
 31
0.0
  0
LINE
  5
2B7
330
2B3
100
AcDbEntity
  8
0
 62
   123
100
AcDbLine
 10
27.34508695544082
 20
137.876522488943
 30
0.0
 11
30.84508695544082
 21
137.876522488943
 31
0.0
  0
LINE
  5
2B8
330
2B3
100
AcDbEntity
  8
0
 62
   123
100
AcDbLine
 10
21.84508695544082
 20
137.876522488943
 30
0.0
 11
23.84508695544082
 21
137.876522488943
 31
0.0
  0
SOLID
  5
2B9
330
2B3
100
AcDbEntity
  8
0
 62
   123
100
AcDbTrace
 10
18.34508695544082
 20
138.4598558222763
 30
0.0
 11
18.34508695544082
 21
137.2931891556095
 31
0.0
 12
21.84508695544082
 22
137.876522488943
 32
0.0
 13
21.84508695544082
 23
137.876522488943
 33
0.0
  0
SOLID
  5
2BA
330
2B3
100
AcDbEntity
  8
0
 62
   123
100
AcDbTrace
 10
27.34508695544082
 20
138.4598558222763
 30
0.0
 11
27.34508695544082
 21
137.2931891556095
 31
0.0
 12
23.84508695544082
 22
137.876522488943
 32
0.0
 13
23.84508695544082
 23
137.876522488943
 33
0.0
  0
MTEXT
  5
2BB
330
2B3
100
AcDbEntity
  8
0
 62
     3
100
AcDbMText
 10
22.84508695544082
 20
140.376522488943
 30
0.0
 40
3.0
 41
0.0
 71
     5
 72
     1
  1
\A1;2
 73
     1
 44
1.0
1001
ACAD
1000
MTEXTBEGIN
1070
    73
1070
     1
1070
    44
1040
1.0
1070
    74
1070
     0
1000
MTEXTEND
  0
POINT
  5
2BC
330
2B3
100
AcDbEntity
  8
DEFPOINTS
 62
     0
100
AcDbPoint
 10
21.84508695544082
 20
122.7755375745468
 30
0.0
  0
POINT
  5
2BD
330
2B3
100
AcDbEntity
  8
DEFPOINTS
 62
     0
100
AcDbPoint
 10
23.84508695544082
 20
126.2755375745473
 30
0.0
  0
POINT
  5
2BE
330
2B3
100
AcDbEntity
  8
DEFPOINTS
 62
     0
100
AcDbPoint
 10
23.84508695544082
 20
137.876522488943
 30
0.0
  0
ENDBLK
  5
2C0
330
2B3
100
AcDbEntity
  8
0
100
AcDbBlockEnd
  0
BLOCK
  5
2CD
330
2C1
100
AcDbEntity
  8
0
100
AcDbBlockBegin
  2
*D1
 70
     1
 10
0.0
 20
0.0
 30
0.0
  3
*D1
  1

  0
LINE
  5
2C2
330
2C1
100
AcDbEntity
  8
0
 62
   123
100
AcDbLine
 10
23.84508695544082
 20
126.4838709078803
 30
0.0
 11
23.84508695544082
 21
149.2068481491433
 31
0.0
  0
LINE
  5
2C3
330
2C1
100
AcDbEntity
  8
0
 62
   123
100
AcDbLine
 10
31.34508695544082
 20
125.874274916076
 30
0.0
 11
31.34508695544082
 21
149.2068481491433
 31
0.0
  0
LINE
  5
2C4
330
2C1
100
AcDbEntity
  8
0
 62
   123
100
AcDbLine
 10
20.34508695544082
 20
148.6068481491433
 30
0.0
 11
16.84508695544082
 21
148.6068481491433
 31
0.0
  0
LINE
  5
2C5
330
2C1
100
AcDbEntity
  8
0
 62
   123
100
AcDbLine
 10
34.84508695544082
 20
148.6068481491433
 30
0.0
 11
38.34508695544082
 21
148.6068481491433
 31
0.0
  0
LINE
  5
2C6
330
2C1
100
AcDbEntity
  8
0
 62
   123
100
AcDbLine
 10
23.84508695544082
 20
148.6068481491433
 30
0.0
 11
31.34508695544082
 21
148.6068481491433
 31
0.0
  0
SOLID
  5
2C7
330
2C1
100
AcDbEntity
  8
0
 62
   123
100
AcDbTrace
 10
20.34508695544082
 20
149.1901814824767
 30
0.0
 11
20.34508695544082
 21
148.02351481581
 31
0.0
 12
23.84508695544082
 22
148.6068481491433
 32
0.0
 13
23.84508695544082
 23
148.6068481491433
 33
0.0
  0
SOLID
  5
2C8
330
2C1
100
AcDbEntity
  8
0
 62
   123
100
AcDbTrace
 10
34.84508695544082
 20
149.1901814824767
 30
0.0
 11
34.84508695544082
 21
148.02351481581
 31
0.0
 12
31.34508695544082
 22
148.6068481491433
 32
0.0
 13
31.34508695544082
 23
148.6068481491433
 33
0.0
  0
MTEXT
  5
2C9
330
2C1
100
AcDbEntity
  8
0
 62
     3
100
AcDbMText
 10
27.59508695544082
 20
151.1068481491433
 30
0.0
 40
3.0
 41
0.0
 71
     5
 72
     1
  1
\A1;7.5
 73
     1
 44
1.0
1001
ACAD
1000
MTEXTBEGIN
1070
    73
1070
     1
1070
    44
1040
1.0
1070
    74
1070
     0
1000
MTEXTEND
  0
POINT
  5
2CA
330
2C1
100
AcDbEntity
  8
DEFPOINTS
 62
     0
100
AcDbPoint
 10
23.84508695544082
 20
125.4838709078803
 30
0.0
  0
POINT
  5
2CB
330
2C1
100
AcDbEntity
  8
DEFPOINTS
 62
     0
100
AcDbPoint
 10
31.34508695544082
 20
124.874274916076
 30
0.0
  0
POINT
  5
2CC
330
2C1
100
AcDbEntity
  8
DEFPOINTS
 62
     0
100
AcDbPoint
 10
31.34508695544082
 20
148.6068481491433
 30
0.0
  0
ENDBLK
  5
2CE
330
2C1
100
AcDbEntity
  8
0
100
AcDbBlockEnd
  0
BLOCK
  5
2D9
330
2CF
100
AcDbEntity
  8
0
100
AcDbBlockBegin
  2
*D2
 70
     1
 10
0.0
 20
0.0
 30
0.0
  3
*D2
  1

  0
LINE
  5
4AF
330
2CF
100
AcDbEntity
  8
0
 62
   123
370
    -2
100
AcDbLine
 10
23.84508695544082
 20
142.3755375745467
 30
0.0
 11
23.84508695544082
 21
160.0602964824566
 31
0.0
  0
LINE
  5
4B0
330
2CF
100
AcDbEntity
  8
0
 62
   123
370
    -2
100
AcDbLine
 10
178.8450869554408
 20
119.7755375745473
 30
0.0
 11
178.8450869554408
 21
160.0602964824566
 31
0.0
  0
LINE
  5
4B1
330
2CF
100
AcDbEntity
  8
0
 62
   123
370
    -2
100
AcDbLine
 10
27.34508695544082
 20
159.4602964824566
 30
0.0
 11
175.3450869554408
 21
159.4602964824566
 31
0.0
  0
SOLID
  5
4B2
330
2CF
100
AcDbEntity
  8
0
 62
   123
100
AcDbTrace
 10
27.34508695544082
 20
160.0436298157899
 30
0.0
 11
27.34508695544082
 21
158.8769631491232
 31
0.0
 12
23.84508695544082
 22
159.4602964824566
 32
0.0
 13
23.84508695544082
 23
159.4602964824566
 33
0.0
  0
SOLID
  5
4B3
330
2CF
100
AcDbEntity
  8
0
 62
   123
100
AcDbTrace
 10
175.3450869554408
 20
160.0436298157899
 30
0.0
 11
175.3450869554408
 21
158.8769631491232
 31
0.0
 12
178.8450869554408
 22
159.4602964824566
 32
0.0
 13
178.8450869554408
 23
159.4602964824566
 33
0.0
  0
MTEXT
  5
4B4
330
2CF
100
AcDbEntity
  8
0
 62
     3
100
AcDbMText
 10
101.3450869554408
 20
161.9602964824566
 30
0.0
 40
3.0
 41
0.0
 71
     5
 72
     1
  1
\A1;155
 73
     1
 44
1.0
1001
ACAD
1000
MTEXTBEGIN
1070
    73
1070
     1
1070
    44
1040
1.0
1070
    74
1070
     0
1000
MTEXTEND
  0
POINT
  5
4B5
330
2CF
100
AcDbEntity
  8
DEFPOINTS
 62
     0
100
AcDbPoint
 10
23.84508695544082
 20
141.3755375745467
 30
0.0
  0
POINT
  5
4B6
330
2CF
100
AcDbEntity
  8
DEFPOINTS
 62
     0
100
AcDbPoint
 10
178.8450869554408
 20
118.7755375745473
 30
0.0
  0
POINT
  5
4B7
330
2CF
100
AcDbEntity
  8
DEFPOINTS
 62
     0
100
AcDbPoint
 10
178.8450869554408
 20
159.4602964824566
 30
0.0
  0
ENDBLK
  5
2DA
330
2CF
100
AcDbEntity
  8
0
100
AcDbBlockEnd
  0
BLOCK
  5
2E7
330
2DB
100
AcDbEntity
  8
0
100
AcDbBlockBegin
  2
*D3
 70
     1
 10
0.0
 20
0.0
 30
0.0
  3
*D3
  1

  0
LINE
  5
2DC
330
2DB
100
AcDbEntity
  8
0
 62
   123
100
AcDbLine
 10
21.84508695544082
 20
-67.72246134700434
 30
0.0
 11
21.84508695544082
 21
-50.57427071541033
 31
0.0
  0
LINE
  5
2DD
330
2DB
100
AcDbEntity
  8
0
 62
   123
100
AcDbLine
 10
23.84508695544082
 20
-64.2224613470039
 30
0.0
 11
23.84508695544082
 21
-50.57427071541033
 31
0.0
  0
LINE
  5
2DE
330
2DB
100
AcDbEntity
  8
0
 62
   123
100
AcDbLine
 10
18.34508695544082
 20
-51.17427071541033
 30
0.0
 11
14.84508695544082
 21
-51.17427071541033
 31
0.0
  0
LINE
  5
2DF
330
2DB
100
AcDbEntity
  8
0
 62
   123
100
AcDbLine
 10
27.34508695544082
 20
-51.17427071541033
 30
0.0
 11
30.84508695544082
 21
-51.17427071541033
 31
0.0
  0
LINE
  5
2E0
330
2DB
100
AcDbEntity
  8
0
 62
   123
100
AcDbLine
 10
21.84508695544082
 20
-51.17427071541033
 30
0.0
 11
23.84508695544082
 21
-51.17427071541033
 31
0.0
  0
SOLID
  5
2E1
330
2DB
100
AcDbEntity
  8
0
 62
   123
100
AcDbTrace
 10
18.34508695544082
 20
-50.590937382077
 30
0.0
 11
18.34508695544082
 21
-51.75760404874367
 31
0.0
 12
21.84508695544082
 22
-51.17427071541033
 32
0.0
 13
21.84508695544082
 23
-51.17427071541033
 33
0.0
  0
SOLID
  5
2E2
330
2DB
100
AcDbEntity
  8
0
 62
   123
100
AcDbTrace
 10
27.34508695544082
 20
-50.590937382077
 30
0.0
 11
27.34508695544082
 21
-51.75760404874367
 31
0.0
 12
23.84508695544082
 22
-51.17427071541033
 32
0.0
 13
23.84508695544082
 23
-51.17427071541033
 33
0.0
  0
MTEXT
  5
2E3
330
2DB
100
AcDbEntity
  8
0
 62
     3
100
AcDbMText
 10
22.84508695544082
 20
-48.67427071541033
 30
0.0
 40
3.0
 41
0.0
 71
     5
 72
     1
  1
\A1;2
 73
     1
 44
1.0
1001
ACAD
1000
MTEXTBEGIN
1070
    73
1070
     1
1070
    44
1040
1.0
1070
    74
1070
     0
1000
MTEXTEND
  0
POINT
  5
2E4
330
2DB
100
AcDbEntity
  8
DEFPOINTS
 62
     0
100
AcDbPoint
 10
21.84508695544082
 20
-68.72246134700436
 30
0.0
  0
POINT
  5
2E5
330
2DB
100
AcDbEntity
  8
DEFPOINTS
 62
     0
100
AcDbPoint
 10
23.84508695544082
 20
-65.2224613470039
 30
0.0
  0
POINT
  5
2E6
330
2DB
100
AcDbEntity
  8
DEFPOINTS
 62
     0
100
AcDbPoint
 10
23.84508695544082
 20
-51.17427071541033
 30
0.0
  0
ENDBLK
  5
2E8
330
2DB
100
AcDbEntity
  8
0
100
AcDbBlockEnd
  0
BLOCK
  5
2F5
330
2E9
100
AcDbEntity
  8
0
100
AcDbBlockBegin
  2
*D4
 70
     1
 10
0.0
 20
0.0
 30
0.0
  3
*D4
  1

  0
LINE
  5
2EA
330
2E9
100
AcDbEntity
  8
0
 62
   123
100
AcDbLine
 10
23.84508695544082
 20
-65.01412801367087
 30
0.0
 11
23.84508695544082
 21
-39.33441341714969
 31
0.0
  0
LINE
  5
2EB
330
2E9
100
AcDbEntity
  8
0
 62
   123
100
AcDbLine
 10
31.34508695544082
 20
-65.62372400547521
 30
0.0
 11
31.34508695544082
 21
-39.33441341714969
 31
0.0
  0
LINE
  5
2EC
330
2E9
100
AcDbEntity
  8
0
 62
   123
100
AcDbLine
 10
20.34508695544082
 20
-39.93441341714969
 30
0.0
 11
16.84508695544082
 21
-39.93441341714969
 31
0.0
  0
LINE
  5
2ED
330
2E9
100
AcDbEntity
  8
0
 62
   123
100
AcDbLine
 10
34.84508695544082
 20
-39.93441341714969
 30
0.0
 11
38.34508695544082
 21
-39.93441341714969
 31
0.0
  0
LINE
  5
2EE
330
2E9
100
AcDbEntity
  8
0
 62
   123
100
AcDbLine
 10
23.84508695544082
 20
-39.93441341714969
 30
0.0
 11
31.34508695544082
 21
-39.93441341714969
 31
0.0
  0
SOLID
  5
2EF
330
2E9
100
AcDbEntity
  8
0
 62
   123
100
AcDbTrace
 10
20.34508695544082
 20
-39.35108008381636
 30
0.0
 11
20.34508695544082
 21
-40.51774675048303
 31
0.0
 12
23.84508695544082
 22
-39.93441341714969
 32
0.0
 13
23.84508695544082
 23
-39.93441341714969
 33
0.0
  0
SOLID
  5
2F0
330
2E9
100
AcDbEntity
  8
0
 62
   123
100
AcDbTrace
 10
34.84508695544082
 20
-39.35108008381636
 30
0.0
 11
34.84508695544082
 21
-40.51774675048303
 31
0.0
 12
31.34508695544082
 22
-39.93441341714969
 32
0.0
 13
31.34508695544082
 23
-39.93441341714969
 33
0.0
  0
MTEXT
  5
2F1
330
2E9
100
AcDbEntity
  8
0
 62
     3
100
AcDbMText
 10
27.59508695544082
 20
-37.43441341714969
 30
0.0
 40
3.0
 41
0.0
 71
     5
 72
     1
  1
\A1;7.5
 73
     1
 44
1.0
1001
ACAD
1000
MTEXTBEGIN
1070
    73
1070
     1
1070
    44
1040
1.0
1070
    74
1070
     0
1000
MTEXTEND
  0
POINT
  5
2F2
330
2E9
100
AcDbEntity
  8
DEFPOINTS
 62
     0
100
AcDbPoint
 10
23.84508695544082
 20
-66.01412801367087
 30
0.0
  0
POINT
  5
2F3
330
2E9
100
AcDbEntity
  8
DEFPOINTS
 62
     0
100
AcDbPoint
 10
31.34508695544082
 20
-66.62372400547521
 30
0.0
  0
POINT
  5
2F4
330
2E9
100
AcDbEntity
  8
DEFPOINTS
 62
     0
100
AcDbPoint
 10
31.34508695544082
 20
-39.93441341714969
 30
0.0
  0
ENDBLK
  5
2F6
330
2E9
100
AcDbEntity
  8
0
100
AcDbBlockEnd
  0
BLOCK
  5
301
330
2F7
100
AcDbEntity
  8
0
100
AcDbBlockBegin
  2
*D5
 70
     1
 10
0.0
 20
0.0
 30
0.0
  3
*D5
  1

  0
LINE
  5
4B8
330
2F7
100
AcDbEntity
  8
0
 62
   123
370
    -2
100
AcDbLine
 10
23.84508695544082
 20
-49.12246134700399
 30
0.0
 11
23.84508695544082
 21
-25.53447528051983
 31
0.0
  0
LINE
  5
4B9
330
2F7
100
AcDbEntity
  8
0
 62
   123
370
    -2
100
AcDbLine
 10
178.8450869554408
 20
-71.72246134700434
 30
0.0
 11
178.8450869554408
 21
-25.53447528051983
 31
0.0
  0
LINE
  5
4BA
330
2F7
100
AcDbEntity
  8
0
 62
   123
370
    -2
100
AcDbLine
 10
27.34508695544082
 20
-26.13447528051983
 30
0.0
 11
175.3450869554408
 21
-26.13447528051983
 31
0.0
  0
SOLID
  5
4BB
330
2F7
100
AcDbEntity
  8
0
 62
   123
100
AcDbTrace
 10
27.34508695544082
 20
-25.5511419471865
 30
0.0
 11
27.34508695544082
 21
-26.71780861385316
 31
0.0
 12
23.84508695544082
 22
-26.13447528051983
 32
0.0
 13
23.84508695544082
 23
-26.13447528051983
 33
0.0
  0
SOLID
  5
4BC
330
2F7
100
AcDbEntity
  8
0
 62
   123
100
AcDbTrace
 10
175.3450869554408
 20
-25.5511419471865
 30
0.0
 11
175.3450869554408
 21
-26.71780861385316
 31
0.0
 12
178.8450869554408
 22
-26.13447528051983
 32
0.0
 13
178.8450869554408
 23
-26.13447528051983
 33
0.0
  0
MTEXT
  5
4BD
330
2F7
100
AcDbEntity
  8
0
 62
     3
100
AcDbMText
 10
101.3450869554408
 20
-23.63447528051983
 30
0.0
 40
3.0
 41
0.0
 71
     5
 72
     1
  1
\A1;155
 73
     1
 44
1.0
1001
ACAD
1000
MTEXTBEGIN
1070
    73
1070
     1
1070
    44
1040
1.0
1070
    74
1070
     0
1000
MTEXTEND
  0
POINT
  5
4BE
330
2F7
100
AcDbEntity
  8
DEFPOINTS
 62
     0
100
AcDbPoint
 10
23.84508695544082
 20
-50.12246134700399
 30
0.0
  0
POINT
  5
4BF
330
2F7
100
AcDbEntity
  8
DEFPOINTS
 62
     0
100
AcDbPoint
 10
178.8450869554408
 20
-72.72246134700434
 30
0.0
  0
POINT
  5
4C0
330
2F7
100
AcDbEntity
  8
DEFPOINTS
 62
     0
100
AcDbPoint
 10
178.8450869554408
 20
-26.13447528051983
 30
0.0
  0
ENDBLK
  5
302
330
2F7
100
AcDbEntity
  8
0
100
AcDbBlockEnd
  0
BLOCK
  5
30D
330
303
100
AcDbEntity
  8
0
100
AcDbBlockBegin
  2
*D6
 70
     1
 10
0.0
 20
0.0
 30
0.0
  3
*D6
  1

  0
LINE
  5
304
330
303
100
AcDbEntity
  8
0
 62
   123
100
AcDbLine
 10
2.84508695544082
 20
86.92553757454698
 30
0.0
 11
2.845086955440823
 21
160.0602964824566
 31
0.0
  0
LINE
  5
305
330
303
100
AcDbEntity
  8
0
 62
   123
100
AcDbLine
 10
23.84508695544082
 20
127.2755375745473
 30
0.0
 11
23.84508695544082
 21
160.0602964824566
 31
0.0
  0
LINE
  5
306
330
303
100
AcDbEntity
  8
0
 62
   123
100
AcDbLine
 10
6.345086955440824
 20
159.4602964824566
 30
0.0
 11
20.34508695544082
 21
159.4602964824566
 31
0.0
  0
SOLID
  5
307
330
303
100
AcDbEntity
  8
0
 62
   123
100
AcDbTrace
 10
6.345086955440824
 20
160.04362981579
 30
0.0
 11
6.345086955440824
 21
158.8769631491233
 31
0.0
 12
2.845086955440823
 22
159.4602964824566
 32
0.0
 13
2.845086955440823
 23
159.4602964824566
 33
0.0
  0
SOLID
  5
308
330
303
100
AcDbEntity
  8
0
 62
   123
100
AcDbTrace
 10
20.34508695544082
 20
160.04362981579
 30
0.0
 11
20.34508695544082
 21
158.8769631491233
 31
0.0
 12
23.84508695544082
 22
159.4602964824566
 32
0.0
 13
23.84508695544082
 23
159.4602964824566
 33
0.0
  0
MTEXT
  5
309
330
303
100
AcDbEntity
  8
0
 62
     3
100
AcDbMText
 10
13.34508695544082
 20
161.9602964824566
 30
0.0
 40
3.0
 41
0.0
 71
     5
 72
     1
  1
\A1;21
 73
     1
 44
1.0
1001
ACAD
1000
MTEXTBEGIN
1070
    73
1070
     1
1070
    44
1040
1.0
1070
    74
1070
     0
1000
MTEXTEND
  0
POINT
  5
30A
330
303
100
AcDbEntity
  8
DEFPOINTS
 62
     0
100
AcDbPoint
 10
2.84508695544082
 20
85.92553757454698
 30
0.0
  0
POINT
  5
30B
330
303
100
AcDbEntity
  8
DEFPOINTS
 62
     0
100
AcDbPoint
 10
23.84508695544082
 20
126.2755375745473
 30
0.0
  0
POINT
  5
30C
330
303
100
AcDbEntity
  8
DEFPOINTS
 62
     0
100
AcDbPoint
 10
23.84508695544082
 20
159.4602964824566
 30
0.0
  0
ENDBLK
  5
30E
330
303
100
AcDbEntity
  8
0
100
AcDbBlockEnd
  0
BLOCK
  5
319
330
30F
100
AcDbEntity
  8
0
100
AcDbBlockBegin
  2
*D7
 70
     1
 10
0.0
 20
0.0
 30
0.0
  3
*D7
  1

  0
LINE
  5
310
330
30F
100
AcDbEntity
  8
0
 62
   123
100
AcDbLine
 10
172.8450869554408
 20
126.2755375745473
 30
0.0
 11
198.0429769503604
 21
126.2755375745473
 31
0.0
  0
LINE
  5
311
330
30F
100
AcDbEntity
  8
0
 62
   123
100
AcDbLine
 10
172.8450869554408
 20
36.27553757454688
 30
0.0
 11
198.0429769503603
 21
36.27553757454688
 31
0.0
  0
LINE
  5
312
330
30F
100
AcDbEntity
  8
0
 62
   123
100
AcDbLine
 10
197.4429769503604
 20
122.7755375745473
 30
0.0
 11
197.4429769503603
 21
39.77553757454688
 31
0.0
  0
SOLID
  5
313
330
30F
100
AcDbEntity
  8
0
 62
   123
100
AcDbTrace
 10
196.859643617027
 20
122.7755375745473
 30
0.0
 11
198.0263102836937
 21
122.7755375745473
 31
0.0
 12
197.4429769503604
 22
126.2755375745473
 32
0.0
 13
197.4429769503604
 23
126.2755375745473
 33
0.0
  0
SOLID
  5
314
330
30F
100
AcDbEntity
  8
0
 62
   123
100
AcDbTrace
 10
196.859643617027
 20
39.77553757454688
 30
0.0
 11
198.0263102836937
 21
39.77553757454688
 31
0.0
 12
197.4429769503603
 22
36.27553757454688
 32
0.0
 13
197.4429769503603
 23
36.27553757454688
 33
0.0
  0
MTEXT
  5
315
330
30F
100
AcDbEntity
  8
0
 62
     3
100
AcDbMText
 10
194.9429769503604
 20
81.27553757454689
 30
0.0
 40
3.0
 41
0.0
 71
     5
 72
     1
  1
\A1;%%C90
 11
0.0000000000000001
 21
1.0
 31
0.0
 73
     1
 44
1.0
1001
ACAD
1000
MTEXTBEGIN
1070
    73
1070
     1
1070
    44
1040
1.0
1070
    74
1070
     0
1000
MTEXTEND
  0
POINT
  5
316
330
30F
100
AcDbEntity
  8
DEFPOINTS
 62
     0
100
AcDbPoint
 10
171.8450869554408
 20
126.2755375745473
 30
0.0
  0
POINT
  5
317
330
30F
100
AcDbEntity
  8
DEFPOINTS
 62
     0
100
AcDbPoint
 10
171.8450869554408
 20
36.27553757454688
 30
0.0
  0
POINT
  5
318
330
30F
100
AcDbEntity
  8
DEFPOINTS
 62
     0
100
AcDbPoint
 10
197.4429769503603
 20
36.27553757454688
 30
0.0
  0
ENDBLK
  5
31A
330
30F
100
AcDbEntity
  8
0
100
AcDbBlockEnd
  0
BLOCK
  5
325
330
31B
100
AcDbEntity
  8
0
100
AcDbBlockBegin
  2
*D8
 70
     1
 10
0.0
 20
0.0
 30
0.0
  3
*D8
  1

  0
LINE
  5
31C
330
31B
100
AcDbEntity
  8
0
 62
   123
100
AcDbLine
 10
-148.7431561908852
 20
122.2327438157499
 30
0.0
 11
-148.7431561908852
 21
140.2011813750042
 31
0.0
  0
LINE
  5
31D
330
31B
100
AcDbEntity
  8
0
 62
   123
100
AcDbLine
 10
-58.7431561908852
 20
122.2327438157503
 30
0.0
 11
-58.7431561908852
 21
140.2011813750042
 31
0.0
  0
LINE
  5
31E
330
31B
100
AcDbEntity
  8
0
 62
   123
100
AcDbLine
 10
-145.2431561908851
 20
139.6011813750042
 30
0.0
 11
-62.2431561908852
 21
139.6011813750042
 31
0.0
  0
SOLID
  5
31F
330
31B
100
AcDbEntity
  8
0
 62
   123
100
AcDbTrace
 10
-145.2431561908851
 20
140.1845147083375
 30
0.0
 11
-145.2431561908851
 21
139.0178480416708
 31
0.0
 12
-148.7431561908852
 22
139.6011813750042
 32
0.0
 13
-148.7431561908852
 23
139.6011813750042
 33
0.0
  0
SOLID
  5
320
330
31B
100
AcDbEntity
  8
0
 62
   123
100
AcDbTrace
 10
-62.2431561908852
 20
140.1845147083375
 30
0.0
 11
-62.2431561908852
 21
139.0178480416708
 31
0.0
 12
-58.7431561908852
 22
139.6011813750042
 32
0.0
 13
-58.7431561908852
 23
139.6011813750042
 33
0.0
  0
MTEXT
  5
321
330
31B
100
AcDbEntity
  8
0
 62
     3
100
AcDbMText
 10
-103.7431561908852
 20
142.1011813750042
 30
0.0
 40
3.0
 41
0.0
 71
     5
 72
     1
  1
\A1;90
 73
     1
 44
1.0
1001
ACAD
1000
MTEXTBEGIN
1070
    73
1070
     1
1070
    44
1040
1.0
1070
    74
1070
     0
1000
MTEXTEND
  0
POINT
  5
322
330
31B
100
AcDbEntity
  8
DEFPOINTS
 62
     0
100
AcDbPoint
 10
-148.7431561908852
 20
121.2327438157499
 30
0.0
  0
POINT
  5
323
330
31B
100
AcDbEntity
  8
DEFPOINTS
 62
     0
100
AcDbPoint
 10
-58.7431561908852
 20
121.2327438157503
 30
0.0
  0
POINT
  5
324
330
31B
100
AcDbEntity
  8
DEFPOINTS
 62
     0
100
AcDbPoint
 10
-58.7431561908852
 20
139.6011813750042
 30
0.0
  0
ENDBLK
  5
326
330
31B
100
AcDbEntity
  8
0
100
AcDbBlockEnd
  0
BLOCK
  5
330
330
327
100
AcDbEntity
  8
0
100
AcDbBlockBegin
  2
*D9
 70
     1
 10
0.0
 20
0.0
 30
0.0
  3
*D9
  1

  0
LINE
  5
3C3
330
327
100
AcDbEntity
  8
0
 62
   123
100
AcDbLine
 10
-175.7589439769212
 20
-139.2022715774106
 30
0.0
 11
-178.7439130770102
 21
-141.0298271775263
 31
0.0
  0
LINE
  5
3C4
330
327
100
AcDbEntity
  8
0
 62
   123
100
AcDbLine
 10
-81.09278108838767
 20
-81.24265111659774
 30
0.0
 11
-58.73597170608729
 21
-67.55463264226047
 31
0.0
  0
LINE
  5
3C5
330
327
100
AcDbEntity
  8
0
 62
   123
100
AcDbLine
 10
-172.7739748768323
 20
-137.3747159772948
 30
0.0
 11
-84.07775018847656
 21
-83.07020671671351
 31
0.0
  0
SOLID
  5
3C6
330
327
100
AcDbEntity
  8
0
 62
   123
100
AcDbTrace
 10
-176.0635365769405
 20
-138.7047767273958
 30
0.0
 11
-175.454351376902
 21
-139.6997664274254
 31
0.0
 12
-172.7739748768323
 22
-137.3747159772948
 32
0.0
 13
-172.7739748768323
 23
-137.3747159772948
 33
0.0
  0
SOLID
  5
3C7
330
327
100
AcDbEntity
  8
0
 62
   123
100
AcDbTrace
 10
-81.39737368840693
 20
-80.74515626658294
 30
0.0
 11
-80.78818848836833
 21
-81.74014596661256
 31
0.0
 12
-84.07775018847656
 22
-83.07020671671351
 32
0.0
 13
-84.07775018847656
 23
-83.07020671671351
 33
0.0
  0
MTEXT
  5
3C8
330
327
100
AcDbEntity
  8
0
 62
     3
100
AcDbMText
 10
-69.72728870441764
 20
-71.35274329359294
 30
0.0
 40
3.0
 41
0.0
 71
     5
 72
     1
  1
\A1;{\f??|b0|i0|c0|p49;%%C104%%P0.5}
 11
0.8528483143111186
 21
0.5221587428902091
 31
0.0
 73
     1
 44
1.0
1001
ACAD
1000
MTEXTBEGIN
1070
    73
1070
     1
1070
    44
1040
1.0
1070
    74
1070
     0
1000
MTEXTEND
  0
POINT
  5
3C9
330
327
100
AcDbEntity
  8
DEFPOINTS
 62
     0
100
AcDbPoint
 10
-84.07775018847656
 20
-83.07020671671351
 30
0.0
  0
POINT
  5
3CA
330
327
100
AcDbEntity
  8
DEFPOINTS
 62
     0
100
AcDbPoint
 10
-172.7739748768323
 20
-137.3747159772948
 30
0.0
  0
ENDBLK
  5
331
330
327
100
AcDbEntity
  8
0
100
AcDbBlockEnd
  0
BLOCK
  5
33C
330
332
100
AcDbEntity
  8
0
100
AcDbBlockBegin
  2
*D10
 70
     1
 10
0.0
 20
0.0
 30
0.0
  3
*D10
  1

  0
LINE
  5
333
330
332
100
AcDbEntity
  8
0
 62
   123
100
AcDbLine
 10
-14.15491304455918
 20
-116.2224613470043
 30
0.0
 11
-27.4400138086263
 21
-116.2224613470043
 31
0.0
  0
LINE
  5
334
330
332
100
AcDbEntity
  8
0
 62
   123
100
AcDbLine
 10
-14.15491304455918
 20
-105.2224613470043
 30
0.0
 11
-27.4400138086263
 21
-105.2224613470043
 31
0.0
  0
LINE
  5
335
330
332
100
AcDbEntity
  8
0
 62
   123
100
AcDbLine
 10
-26.8400138086263
 20
-112.7224613470043
 30
0.0
 11
-26.8400138086263
 21
-108.7224613470043
 31
0.0
  0
SOLID
  5
336
330
332
100
AcDbEntity
  8
0
 62
   123
100
AcDbTrace
 10
-27.42334714195963
 20
-112.7224613470043
 30
0.0
 11
-26.25668047529297
 21
-112.7224613470043
 31
0.0
 12
-26.8400138086263
 22
-116.2224613470043
 32
0.0
 13
-26.8400138086263
 23
-116.2224613470043
 33
0.0
  0
SOLID
  5
337
330
332
100
AcDbEntity
  8
0
 62
   123
100
AcDbTrace
 10
-27.42334714195963
 20
-108.7224613470043
 30
0.0
 11
-26.25668047529297
 21
-108.7224613470043
 31
0.0
 12
-26.8400138086263
 22
-105.2224613470043
 32
0.0
 13
-26.8400138086263
 23
-105.2224613470043
 33
0.0
  0
MTEXT
  5
338
330
332
100
AcDbEntity
  8
0
 62
     3
100
AcDbMText
 10
-29.34001380862628
 20
-110.7224613470043
 30
0.0
 40
3.0
 41
0.0
 71
     5
 72
     1
  1
\A1;11
 11
0.0000000000000001
 21
1.0
 31
0.0
 73
     1
 44
1.0
1001
ACAD
1000
MTEXTBEGIN
1070
    73
1070
     1
1070
    44
1040
1.0
1070
    74
1070
     0
1000
MTEXTEND
  0
POINT
  5
339
330
332
100
AcDbEntity
  8
DEFPOINTS
 62
     0
100
AcDbPoint
 10
-13.15491304455917
 20
-116.2224613470043
 30
0.0
  0
POINT
  5
33A
330
332
100
AcDbEntity
  8
DEFPOINTS
 62
     0
100
AcDbPoint
 10
-13.15491304455917
 20
-105.2224613470043
 30
0.0
  0
POINT
  5
33B
330
332
100
AcDbEntity
  8
DEFPOINTS
 62
     0
100
AcDbPoint
 10
-26.8400138086263
 20
-105.2224613470043
 30
0.0
  0
ENDBLK
  5
33D
330
332
100
AcDbEntity
  8
0
100
AcDbBlockEnd
  0
BLOCK
  5
348
330
33E
100
AcDbEntity
  8
0
100
AcDbBlockBegin
  2
*D11
 70
     1
 10
0.0
 20
0.0
 30
0.0
  3
*D11
  1

  0
LINE
  5
33F
330
33E
100
AcDbEntity
  8
0
 62
   123
100
AcDbLine
 10
-173.350398218472
 20
-69.26525510580131
 30
0.0
 11
-173.350398218472
 21
-51.29681754654702
 31
0.0
  0
LINE
  5
340
330
33E
100
AcDbEntity
  8
0
 62
   123
100
AcDbLine
 10
-83.35039821847203
 20
-69.26525510580086
 30
0.0
 11
-83.35039821847203
 21
-51.29681754654702
 31
0.0
  0
LINE
  5
341
330
33E
100
AcDbEntity
  8
0
 62
   123
100
AcDbLine
 10
-169.850398218472
 20
-51.89681754654703
 30
0.0
 11
-86.85039821847203
 21
-51.89681754654703
 31
0.0
  0
SOLID
  5
342
330
33E
100
AcDbEntity
  8
0
 62
   123
100
AcDbTrace
 10
-169.850398218472
 20
-51.31348421321369
 30
0.0
 11
-169.850398218472
 21
-52.48015087988036
 31
0.0
 12
-173.350398218472
 22
-51.89681754654703
 32
0.0
 13
-173.350398218472
 23
-51.89681754654703
 33
0.0
  0
SOLID
  5
343
330
33E
100
AcDbEntity
  8
0
 62
   123
100
AcDbTrace
 10
-86.85039821847203
 20
-51.31348421321369
 30
0.0
 11
-86.85039821847203
 21
-52.48015087988036
 31
0.0
 12
-83.35039821847203
 22
-51.89681754654703
 32
0.0
 13
-83.35039821847203
 23
-51.89681754654703
 33
0.0
  0
MTEXT
  5
344
330
33E
100
AcDbEntity
  8
0
 62
     3
100
AcDbMText
 10
-128.350398218472
 20
-49.39681754654703
 30
0.0
 40
3.0
 41
0.0
 71
     5
 72
     1
  1
\A1;90
 73
     1
 44
1.0
1001
ACAD
1000
MTEXTBEGIN
1070
    73
1070
     1
1070
    44
1040
1.0
1070
    74
1070
     0
1000
MTEXTEND
  0
POINT
  5
345
330
33E
100
AcDbEntity
  8
DEFPOINTS
 62
     0
100
AcDbPoint
 10
-173.350398218472
 20
-70.26525510580133
 30
0.0
  0
POINT
  5
346
330
33E
100
AcDbEntity
  8
DEFPOINTS
 62
     0
100
AcDbPoint
 10
-83.35039821847203
 20
-70.26525510580086
 30
0.0
  0
POINT
  5
347
330
33E
100
AcDbEntity
  8
DEFPOINTS
 62
     0
100
AcDbPoint
 10
-83.35039821847203
 20
-51.89681754654703
 30
0.0
  0
ENDBLK
  5
349
330
33E
100
AcDbEntity
  8
0
100
AcDbBlockEnd
  0
BLOCK
  5
353
330
34A
100
AcDbEntity
  8
0
100
AcDbBlockBegin
  2
*D12
 70
     1
 10
0.0
 20
0.0
 30
0.0
  3
*D12
  1

  0
LINE
  5
3BB
330
34A
100
AcDbEntity
  8
0
 62
   123
100
AcDbLine
 10
-151.1517019493326
 20
52.29572734414029
 30
0.0
 11
-154.1366710494215
 21
50.46817174402447
 31
0.0
  0
LINE
  5
3BC
330
34A
100
AcDbEntity
  8
0
 62
   123
100
AcDbLine
 10
-56.48553906080143
 20
110.2553478049545
 30
0.0
 11
-34.12872967850276
 21
123.9433662792914
 31
0.0
  0
LINE
  5
3BD
330
34A
100
AcDbEntity
  8
0
 62
   123
100
AcDbLine
 10
-148.1667328492437
 20
54.12328294425607
 30
0.0
 11
-59.47050816089033
 21
108.4277922048387
 31
0.0
  0
SOLID
  5
3BE
330
34A
100
AcDbEntity
  8
0
 62
   123
100
AcDbTrace
 10
-151.4562945493519
 20
52.79322219415509
 30
0.0
 11
-150.8471093493133
 21
51.79823249412547
 31
0.0
 12
-148.1667328492437
 22
54.12328294425607
 32
0.0
 13
-148.1667328492437
 23
54.12328294425607
 33
0.0
  0
SOLID
  5
3BF
330
34A
100
AcDbEntity
  8
0
 62
   123
100
AcDbTrace
 10
-56.79013166082075
 20
110.7528426549693
 30
0.0
 11
-56.18094646078215
 21
109.7578529549397
 31
0.0
 12
-59.47050816089033
 22
108.4277922048387
 32
0.0
 13
-59.47050816089033
 23
108.4277922048387
 33
0.0
  0
MTEXT
  5
3C0
330
34A
100
AcDbEntity
  8
0
 62
     3
100
AcDbMText
 10
-45.12004667683305
 20
120.1452556279588
 30
0.0
 40
3.0
 41
0.0
 71
     5
 72
     1
  1
\A1;{\f??|b0|i0|c0|p49;%%C104%%P0.5}
 11
0.8528483143111071
 21
0.5221587428902279
 31
0.0
 73
     1
 44
1.0
1001
ACAD
1000
MTEXTBEGIN
1070
    73
1070
     1
1070
    44
1040
1.0
1070
    74
1070
     0
1000
MTEXTEND
  0
POINT
  5
3C1
330
34A
100
AcDbEntity
  8
DEFPOINTS
 62
     0
100
AcDbPoint
 10
-59.47050816089033
 20
108.4277922048387
 30
0.0
  0
POINT
  5
3C2
330
34A
100
AcDbEntity
  8
DEFPOINTS
 62
     0
100
AcDbPoint
 10
-148.1667328492437
 20
54.12328294425607
 30
0.0
  0
ENDBLK
  5
354
330
34A
100
AcDbEntity
  8
0
100
AcDbBlockEnd
  0
BLOCK
  5
35F
330
355
100
AcDbEntity
  8
0
100
AcDbBlockBegin
  2
*D13
 70
     1
 10
0.0
 20
0.0
 30
0.0
  3
*D13
  1

  0
LINE
  5
356
330
355
100
AcDbEntity
  8
0
 62
   123
100
AcDbLine
 10
-13.15491304455917
 20
-104.2224613470043
 30
0.0
 11
-13.15491304455917
 21
-25.53447528051984
 31
0.0
  0
LINE
  5
357
330
355
100
AcDbEntity
  8
0
 62
   123
100
AcDbLine
 10
23.84508695544082
 20
-64.01412801367087
 30
0.0
 11
23.84508695544082
 21
-25.53447528051983
 31
0.0
  0
LINE
  5
358
330
355
100
AcDbEntity
  8
0
 62
   123
100
AcDbLine
 10
-9.654913044559172
 20
-26.13447528051983
 30
0.0
 11
20.34508695544082
 21
-26.13447528051983
 31
0.0
  0
SOLID
  5
359
330
355
100
AcDbEntity
  8
0
 62
   123
100
AcDbTrace
 10
-9.654913044559172
 20
-25.5511419471865
 30
0.0
 11
-9.654913044559172
 21
-26.71780861385316
 31
0.0
 12
-13.15491304455917
 22
-26.13447528051983
 32
0.0
 13
-13.15491304455917
 23
-26.13447528051983
 33
0.0
  0
SOLID
  5
35A
330
355
100
AcDbEntity
  8
0
 62
   123
100
AcDbTrace
 10
20.34508695544082
 20
-25.5511419471865
 30
0.0
 11
20.34508695544082
 21
-26.71780861385316
 31
0.0
 12
23.84508695544082
 22
-26.13447528051983
 32
0.0
 13
23.84508695544082
 23
-26.13447528051983
 33
0.0
  0
MTEXT
  5
35B
330
355
100
AcDbEntity
  8
0
 62
     3
100
AcDbMText
 10
5.34508695544082
 20
-23.63447528051983
 30
0.0
 40
3.0
 41
0.0
 71
     5
 72
     1
  1
\A1;37
 73
     1
 44
1.0
1001
ACAD
1000
MTEXTBEGIN
1070
    73
1070
     1
1070
    44
1040
1.0
1070
    74
1070
     0
1000
MTEXTEND
  0
POINT
  5
35C
330
355
100
AcDbEntity
  8
DEFPOINTS
 62
     0
100
AcDbPoint
 10
-13.15491304455917
 20
-105.2224613470043
 30
0.0
  0
POINT
  5
35D
330
355
100
AcDbEntity
  8
DEFPOINTS
 62
     0
100
AcDbPoint
 10
23.84508695544082
 20
-65.01412801367087
 30
0.0
  0
POINT
  5
35E
330
355
100
AcDbEntity
  8
DEFPOINTS
 62
     0
100
AcDbPoint
 10
23.84508695544082
 20
-26.13447528051983
 30
0.0
  0
ENDBLK
  5
360
330
355
100
AcDbEntity
  8
0
100
AcDbBlockEnd
  0
BLOCK
  5
36D
330
361
100
AcDbEntity
  8
0
100
AcDbBlockBegin
  2
*D14
 70
     1
 10
0.0
 20
0.0
 30
0.0
  3
*D14
  1

  0
LINE
  5
362
330
361
100
AcDbEntity
  8
0
 62
   123
100
AcDbLine
 10
-14.15491304455918
 20
-116.2224613470043
 30
0.0
 11
-37.65007654721796
 21
-116.2224613470043
 31
0.0
  0
LINE
  5
363
330
361
100
AcDbEntity
  8
0
 62
   123
100
AcDbLine
 10
15.84508695544082
 20
-104.2224613470043
 30
0.0
 11
-37.65007654721795
 21
-104.2224613470043
 31
0.0
  0
LINE
  5
364
330
361
100
AcDbEntity
  8
0
 62
   123
100
AcDbLine
 10
-37.05007654721796
 20
-119.7224613470043
 30
0.0
 11
-37.05007654721796
 21
-123.2224613470043
 31
0.0
  0
LINE
  5
365
330
361
100
AcDbEntity
  8
0
 62
   123
100
AcDbLine
 10
-37.05007654721795
 20
-100.7224613470043
 30
0.0
 11
-37.05007654721795
 21
-67.02104706128962
 31
0.0
  0
LINE
  5
366
330
361
100
AcDbEntity
  8
0
 62
   123
100
AcDbLine
 10
-37.05007654721796
 20
-116.2224613470043
 30
0.0
 11
-37.05007654721795
 21
-104.2224613470043
 31
0.0
  0
SOLID
  5
367
330
361
100
AcDbEntity
  8
0
 62
   123
100
AcDbTrace
 10
-37.6334098805513
 20
-119.7224613470043
 30
0.0
 11
-36.46674321388462
 21
-119.7224613470043
 31
0.0
 12
-37.05007654721796
 22
-116.2224613470043
 32
0.0
 13
-37.05007654721796
 23
-116.2224613470043
 33
0.0
  0
SOLID
  5
368
330
361
100
AcDbEntity
  8
0
 62
   123
100
AcDbTrace
 10
-37.63340988055129
 20
-100.7224613470043
 30
0.0
 11
-36.46674321388462
 21
-100.7224613470043
 31
0.0
 12
-37.05007654721795
 22
-104.2224613470043
 32
0.0
 13
-37.05007654721795
 23
-104.2224613470043
 33
0.0
  0
MTEXT
  5
369
330
361
100
AcDbEntity
  8
0
 62
     3
100
AcDbMText
 10
-41.00022654721793
 20
-82.12175420414679
 30
0.0
 40
3.0
 41
0.0
 71
     5
 72
     1
  1
\A1;\A1;{\f??|b0|i0|c0|p49;%%C}12{\f??|b0|i0|c0|p49;\H0.7x;\S+0^ -0.018;\H1.429x;(h}7{\f??|b0|i0|c0|p49;)}
 11
0.0000000000000001
 21
1.0
 31
0.0
 73
     1
 44
1.0
1001
ACAD
1000
MTEXTBEGIN
1070
    73
1070
     1
1070
    44
1040
1.0
1070
    74
1070
     0
1000
MTEXTEND
  0
POINT
  5
36A
330
361
100
AcDbEntity
  8
DEFPOINTS
 62
     0
100
AcDbPoint
 10
-13.15491304455917
 20
-116.2224613470043
 30
0.0
  0
POINT
  5
36B
330
361
100
AcDbEntity
  8
DEFPOINTS
 62
     0
100
AcDbPoint
 10
16.84508695544082
 20
-104.2224613470043
 30
0.0
  0
POINT
  5
36C
330
361
100
AcDbEntity
  8
DEFPOINTS
 62
     0
100
AcDbPoint
 10
-37.05007654721795
 20
-104.2224613470043
 30
0.0
  0
ENDBLK
  5
36E
330
361
100
AcDbEntity
  8
0
100
AcDbBlockEnd
  0
BLOCK
  5
379
330
36F
100
AcDbEntity
  8
0
100
AcDbBlockBegin
  2
*D15
 70
     1
 10
0.0
 20
0.0
 30
0.0
  3
*D15
  1

  0
LINE
  5
370
330
36F
100
AcDbEntity
  8
0
 62
   123
100
AcDbLine
 10
-13.15491304455917
 20
-104.2224613470043
 30
0.0
 11
-13.15491304455917
 21
-84.69108387085489
 31
0.0
  0
LINE
  5
371
330
36F
100
AcDbEntity
  8
0
 62
   123
100
AcDbLine
 10
16.84508695544082
 20
-103.2224613470043
 30
0.0
 11
16.84508695544082
 21
-84.69108387085489
 31
0.0
  0
LINE
  5
372
330
36F
100
AcDbEntity
  8
0
 62
   123
100
AcDbLine
 10
-9.654913044559176
 20
-85.29108387085489
 30
0.0
 11
13.34508695544082
 21
-85.29108387085489
 31
0.0
  0
SOLID
  5
373
330
36F
100
AcDbEntity
  8
0
 62
   123
100
AcDbTrace
 10
-9.654913044559176
 20
-84.70775053752156
 30
0.0
 11
-9.654913044559176
 21
-85.87441720418821
 31
0.0
 12
-13.15491304455917
 22
-85.29108387085489
 32
0.0
 13
-13.15491304455917
 23
-85.29108387085489
 33
0.0
  0
SOLID
  5
374
330
36F
100
AcDbEntity
  8
0
 62
   123
100
AcDbTrace
 10
13.34508695544082
 20
-84.70775053752156
 30
0.0
 11
13.34508695544082
 21
-85.87441720418821
 31
0.0
 12
16.84508695544082
 22
-85.29108387085489
 32
0.0
 13
16.84508695544082
 23
-85.29108387085489
 33
0.0
  0
MTEXT
  5
375
330
36F
100
AcDbEntity
  8
0
 62
     3
100
AcDbMText
 10
3.103771319938458
 20
-82.79108387085489
 30
0.0
 40
3.0
 41
0.0
 71
     5
 72
     1
  1
\A1;30
 73
     1
 44
1.0
1001
ACAD
1000
MTEXTBEGIN
1070
    73
1070
     1
1070
    44
1040
1.0
1070
    74
1070
     0
1000
MTEXTEND
  0
POINT
  5
376
330
36F
100
AcDbEntity
  8
DEFPOINTS
 62
     0
100
AcDbPoint
 10
-13.15491304455917
 20
-105.2224613470043
 30
0.0
  0
POINT
  5
377
330
36F
100
AcDbEntity
  8
DEFPOINTS
 62
     0
100
AcDbPoint
 10
16.84508695544082
 20
-104.2224613470043
 30
0.0
  0
POINT
  5
378
330
36F
100
AcDbEntity
  8
DEFPOINTS
 62
     0
100
AcDbPoint
 10
16.84508695544082
 20
-85.29108387085489
 30
0.0
  0
ENDBLK
  5
37A
330
36F
100
AcDbEntity
  8
0
100
AcDbBlockEnd
  0
BLOCK
  5
385
330
37B
100
AcDbEntity
  8
0
100
AcDbBlockBegin
  2
*D16
 70
     1
 10
0.0
 20
0.0
 30
0.0
  3
*D16
  1

  0
LINE
  5
37C
330
37B
100
AcDbEntity
  8
0
 62
   123
100
AcDbLine
 10
20.84508695544081
 20
122.7755375745468
 30
0.0
 11
-22.86941372144935
 21
122.7755375745468
 31
0.0
  0
LINE
  5
37D
330
37B
100
AcDbEntity
  8
0
 62
   123
100
AcDbLine
 10
20.84508695544081
 20
39.77553757454689
 30
0.0
 11
-22.86941372144938
 21
39.7755375745469
 31
0.0
  0
LINE
  5
37E
330
37B
100
AcDbEntity
  8
0
 62
   123
100
AcDbLine
 10
-22.26941372144936
 20
119.2755375745468
 30
0.0
 11
-22.26941372144937
 21
43.2755375745469
 31
0.0
  0
SOLID
  5
37F
330
37B
100
AcDbEntity
  8
0
 62
   123
100
AcDbTrace
 10
-22.85274705478269
 20
119.2755375745468
 30
0.0
 11
-21.68608038811603
 21
119.2755375745468
 31
0.0
 12
-22.26941372144935
 22
122.7755375745468
 32
0.0
 13
-22.26941372144935
 23
122.7755375745468
 33
0.0
  0
SOLID
  5
380
330
37B
100
AcDbEntity
  8
0
 62
   123
100
AcDbTrace
 10
-22.8527470547827
 20
43.2755375745469
 30
0.0
 11
-21.68608038811604
 21
43.2755375745469
 31
0.0
 12
-22.26941372144938
 22
39.7755375745469
 32
0.0
 13
-22.26941372144938
 23
39.7755375745469
 33
0.0
  0
MTEXT
  5
381
330
37B
100
AcDbEntity
  8
0
 62
     3
100
AcDbMText
 10
-26.21956372144938
 20
81.50569512837501
 30
0.0
 40
3.0
 41
0.0
 71
     5
 72
     1
  1
\A1;\A1;{\f??|b0|i0|c0|p49;%%c}83{\f??|b0|i0|c0|p49;\H0.7x;\S+0^ -0.035;\H1.429x;(h7)}
 11
0.0000000000000001
 21
1.0
 31
0.0
 73
     1
 44
1.0
1001
ACAD
1000
MTEXTBEGIN
1070
    73
1070
     1
1070
    44
1040
1.0
1070
    74
1070
     0
1000
MTEXTEND
  0
POINT
  5
382
330
37B
100
AcDbEntity
  8
DEFPOINTS
 62
     0
100
AcDbPoint
 10
21.84508695544082
 20
122.7755375745468
 30
0.0
  0
POINT
  5
383
330
37B
100
AcDbEntity
  8
DEFPOINTS
 62
     0
100
AcDbPoint
 10
21.84508695544082
 20
39.77553757454689
 30
0.0
  0
POINT
  5
384
330
37B
100
AcDbEntity
  8
DEFPOINTS
 62
     0
100
AcDbPoint
 10
-22.26941372144938
 20
39.7755375745469
 30
0.0
  0
ENDBLK
  5
386
330
37B
100
AcDbEntity
  8
0
100
AcDbBlockEnd
  0
BLOCK
  5
391
330
387
100
AcDbEntity
  8
0
100
AcDbBlockBegin
  2
*D17
 70
     1
 10
0.0
 20
0.0
 30
0.0
  3
*D17
  1

  0
LINE
  5
388
330
387
100
AcDbEntity
  8
0
 62
   123
100
AcDbLine
 10
20.84508695544081
 20
-68.72246134700436
 30
0.0
 11
-49.70722780692503
 21
-68.72246134700434
 31
0.0
  0
LINE
  5
389
330
387
100
AcDbEntity
  8
0
 62
   123
100
AcDbLine
 10
20.84508695544081
 20
-151.7224613470043
 30
0.0
 11
-49.70722780692507
 21
-151.7224613470043
 31
0.0
  0
LINE
  5
38A
330
387
100
AcDbEntity
  8
0
 62
   123
100
AcDbLine
 10
-49.10722780692505
 20
-72.22246134700434
 30
0.0
 11
-49.10722780692506
 21
-148.2224613470043
 31
0.0
  0
SOLID
  5
38B
330
387
100
AcDbEntity
  8
0
 62
   123
100
AcDbTrace
 10
-49.69056114025838
 20
-72.22246134700434
 30
0.0
 11
-48.52389447359171
 21
-72.22246134700434
 31
0.0
 12
-49.10722780692505
 22
-68.72246134700434
 32
0.0
 13
-49.10722780692505
 23
-68.72246134700434
 33
0.0
  0
SOLID
  5
38C
330
387
100
AcDbEntity
  8
0
 62
   123
100
AcDbTrace
 10
-49.69056114025839
 20
-148.2224613470043
 30
0.0
 11
-48.52389447359173
 21
-148.2224613470043
 31
0.0
 12
-49.10722780692506
 22
-151.7224613470043
 32
0.0
 13
-49.10722780692506
 23
-151.7224613470043
 33
0.0
  0
MTEXT
  5
38D
330
387
100
AcDbEntity
  8
0
 62
     3
100
AcDbMText
 10
-53.05737780692504
 20
-108.8575047142521
 30
0.0
 40
3.0
 41
0.0
 71
     5
 72
     1
  1
\A1;\A1;{\f??|b0|i0|c0|p49;%%C}83{\f??|b0|i0|c0|p49;\H0.7x;\S+0^ -0.035;\H1.429x;(h}7{\f??|b0|i0|c0|p49;)}
 11
0.0000000000000001
 21
1.0
 31
0.0
 73
     1
 44
1.0
1001
ACAD
1000
MTEXTBEGIN
1070
    73
1070
     1
1070
    44
1040
1.0
1070
    74
1070
     0
1000
MTEXTEND
  0
POINT
  5
38E
330
387
100
AcDbEntity
  8
DEFPOINTS
 62
     0
100
AcDbPoint
 10
21.84508695544082
 20
-68.72246134700436
 30
0.0
  0
POINT
  5
38F
330
387
100
AcDbEntity
  8
DEFPOINTS
 62
     0
100
AcDbPoint
 10
21.84508695544082
 20
-151.7224613470043
 30
0.0
  0
POINT
  5
390
330
387
100
AcDbEntity
  8
DEFPOINTS
 62
     0
100
AcDbPoint
 10
-49.10722780692506
 20
-151.7224613470043
 30
0.0
  0
ENDBLK
  5
392
330
387
100
AcDbEntity
  8
0
100
AcDbBlockEnd
  0
BLOCK
  5
39D
330
393
100
AcDbEntity
  8
0
100
AcDbBlockBegin
  2
*D18
 70
     1
 10
0.0
 20
0.0
 30
0.0
  3
*D18
  1

  0
LINE
  5
394
330
393
100
AcDbEntity
  8
0
 62
   123
100
AcDbLine
 10
172.8450869554408
 20
-65.22246134700434
 30
0.0
 11
194.0290969729299
 21
-65.22246134700434
 31
0.0
  0
LINE
  5
395
330
393
100
AcDbEntity
  8
0
 62
   123
100
AcDbLine
 10
172.8450869554408
 20
-155.2224613470043
 30
0.0
 11
194.0290969729299
 21
-155.2224613470043
 31
0.0
  0
LINE
  5
396
330
393
100
AcDbEntity
  8
0
 62
   123
100
AcDbLine
 10
193.4290969729299
 20
-68.72246134700436
 30
0.0
 11
193.4290969729299
 21
-151.7224613470043
 31
0.0
  0
SOLID
  5
397
330
393
100
AcDbEntity
  8
0
 62
   123
100
AcDbTrace
 10
192.8457636395966
 20
-68.72246134700436
 30
0.0
 11
194.0124303062632
 21
-68.72246134700436
 31
0.0
 12
193.4290969729299
 22
-65.22246134700434
 32
0.0
 13
193.4290969729299
 23
-65.22246134700434
 33
0.0
  0
SOLID
  5
398
330
393
100
AcDbEntity
  8
0
 62
   123
100
AcDbTrace
 10
192.8457636395966
 20
-151.7224613470043
 30
0.0
 11
194.0124303062632
 21
-151.7224613470043
 31
0.0
 12
193.4290969729299
 22
-155.2224613470043
 32
0.0
 13
193.4290969729299
 23
-155.2224613470043
 33
0.0
  0
MTEXT
  5
399
330
393
100
AcDbEntity
  8
0
 62
     3
100
AcDbMText
 10
190.9290969729299
 20
-110.2224613470043
 30
0.0
 40
3.0
 41
0.0
 71
     5
 72
     1
  1
\A1;%%C90
 11
0.0000000000000001
 21
1.0
 31
0.0
 73
     1
 44
1.0
1001
ACAD
1000
MTEXTBEGIN
1070
    73
1070
     1
1070
    44
1040
1.0
1070
    74
1070
     0
1000
MTEXTEND
  0
POINT
  5
39A
330
393
100
AcDbEntity
  8
DEFPOINTS
 62
     0
100
AcDbPoint
 10
171.8450869554408
 20
-65.22246134700434
 30
0.0
  0
POINT
  5
39B
330
393
100
AcDbEntity
  8
DEFPOINTS
 62
     0
100
AcDbPoint
 10
171.8450869554408
 20
-155.2224613470043
 30
0.0
  0
POINT
  5
39C
330
393
100
AcDbEntity
  8
DEFPOINTS
 62
     0
100
AcDbPoint
 10
193.4290969729299
 20
-155.2224613470043
 30
0.0
  0
ENDBLK
  5
39E
330
393
100
AcDbEntity
  8
0
100
AcDbBlockEnd
  0
BLOCK
  5
3AB
330
39F
100
AcDbEntity
  8
0
100
AcDbBlockBegin
  2
*D19
 70
     1
 10
0.0
 20
0.0
 30
0.0
  3
*D19
  1

  0
LINE
  5
450
330
39F
100
AcDbEntity
  8
0
 62
   123
100
AcDbLine
 10
-128.3503982184729
 20
-162.4900815652372
 30
0.0
 11
-128.3503982184729
 21
-176.417803686623
 31
0.0
  0
LINE
  5
451
330
39F
100
AcDbEntity
  8
0
 62
   123
100
AcDbLine
 10
-109.7361003708023
 20
-155.1717028104093
 30
0.0
 11
-103.0224986172567
 21
-171.3797712161906
 31
0.0
  0
ARC
  5
452
330
39F
100
AcDbEntity
  8
0
 62
   123
100
AcDbCircle
 10
-128.3503982184729
 20
-110.2328124925107
 30
0.0
 40
65.58499119411232
100
AcDbArc
 50
273.0580019668498
 51
289.4419980331502
  0
SOLID
  5
453
330
39F
100
AcDbEntity
  8
0
 62
   123
100
AcDbTrace
 10
-124.8360793586213
 20
-176.3075390529889
 30
0.0
 11
-124.8672094484406
 21
-175.1412877813416
 31
0.0
 12
-128.3503982184729
 22
-175.817803686623
 32
0.0
 13
-128.3503982184729
 23
-175.817803686623
 33
0.0
  0
SOLID
  5
454
330
39F
100
AcDbEntity
  8
0
 62
   123
100
AcDbTrace
 10
-106.7290469178644
 20
-171.5333829324677
 30
0.0
 11
-106.3115023310595
 21
-172.6227715817298
 31
0.0
 12
-103.2521086766758
 22
-170.825443496684
 32
0.0
 13
-103.2521086766758
 23
-170.825443496684
 33
0.0
  0
MTEXT
  5
455
330
39F
100
AcDbEntity
  8
0
 62
     3
100
AcDbMText
 10
-116.0988670640334
 20
-171.8254189042339
 30
0.0
 40
3.0
 41
0.0
 71
     5
 72
     1
  1
\A1;22\U+00B030'
 11
0.9807852804032302
 21
0.1950903220161293
 31
0.0
 73
     1
 44
1.0
1001
ACAD
1000
MTEXTBEGIN
1070
    73
1070
     1
1070
    44
1040
1.0
1070
    74
1070
     0
1000
MTEXTEND
  0
POINT
  5
456
330
39F
100
AcDbEntity
  8
DEFPOINTS
 62
     0
100
AcDbPoint
 10
-119.7898390511198
 20
-175.2567149951599
 30
0.0
  0
POINT
  5
457
330
39F
100
AcDbEntity
  8
DEFPOINTS
 62
     0
100
AcDbPoint
 10
-128.3503982184729
 20
-161.4900815652372
 30
0.0
  0
POINT
  5
458
330
39F
100
AcDbEntity
  8
DEFPOINTS
 62
     0
100
AcDbPoint
 10
-128.3738238100559
 20
-110.1762581116044
 30
0.0
  0
POINT
  5
459
330
39F
100
AcDbEntity
  8
DEFPOINTS
 62
     0
100
AcDbPoint
 10
-110.1187838031673
 20
-154.247823277898
 30
0.0
  0
POINT
  5
45A
330
39F
100
AcDbEntity
  8
DEFPOINTS
 62
     0
100
AcDbPoint
 10
-128.3503982184729
 20
-63.24782327789852
 30
0.0
  0
ENDBLK
  5
3AC
330
39F
100
AcDbEntity
  8
0
100
AcDbBlockEnd
  0
BLOCK
  5
3B9
330
3AD
100
AcDbEntity
  8
0
100
AcDbBlockBegin
  2
*D20
 70
     1
 10
0.0
 20
0.0
 30
0.0
  3
*D20
  1

  0
LINE
  5
445
330
3AD
100
AcDbEntity
  8
0
 62
   123
100
AcDbLine
 10
-103.743156190886
 20
29.00791735631401
 30
0.0
 11
-103.7431561908861
 21
15.08019523492824
 31
0.0
  0
LINE
  5
446
330
3AD
100
AcDbEntity
  8
0
 62
   123
100
AcDbLine
 10
-85.12885834321545
 20
36.32629611114186
 30
0.0
 11
-78.41525658966991
 21
20.11822770536047
 31
0.0
  0
ARC
  5
447
330
3AD
100
AcDbEntity
  8
0
 62
   123
100
AcDbCircle
 10
-103.743156190886
 20
81.2651864290405
 30
0.0
 40
65.58499119411225
100
AcDbArc
 50
273.0580019668498
 51
289.4419980331502
  0
SOLID
  5
448
330
3AD
100
AcDbEntity
  8
0
 62
   123
100
AcDbTrace
 10
-100.2288373310345
 20
15.1904598685623
 30
0.0
 11
-100.2599674208538
 21
16.35671114020961
 31
0.0
 12
-103.7431561908861
 22
15.68019523492824
 32
0.0
 13
-103.7431561908861
 23
15.68019523492824
 33
0.0
  0
SOLID
  5
449
330
3AD
100
AcDbEntity
  8
0
 62
   123
100
AcDbTrace
 10
-82.12180489027764
 20
19.96461598908354
 30
0.0
 11
-81.7042603034727
 21
18.87522733982147
 31
0.0
 12
-78.64486664908897
 22
20.67255542486724
 32
0.0
 13
-78.64486664908897
 23
20.67255542486724
 33
0.0
  0
MTEXT
  5
44A
330
3AD
100
AcDbEntity
  8
0
 62
     3
100
AcDbMText
 10
-91.49162503644669
 20
19.67258001731728
 30
0.0
 40
3.0
 41
0.0
 71
     5
 72
     1
  1
\A1;22\U+00B030'
 11
0.9807852804032302
 21
0.1950903220161293
 31
0.0
 73
     1
 44
1.0
1001
ACAD
1000
MTEXTBEGIN
1070
    73
1070
     1
1070
    44
1040
1.0
1070
    74
1070
     0
1000
MTEXTEND
  0
POINT
  5
44B
330
3AD
100
AcDbEntity
  8
DEFPOINTS
 62
     0
100
AcDbPoint
 10
-95.18259702353301
 20
16.24128392639131
 30
0.0
  0
POINT
  5
44C
330
3AD
100
AcDbEntity
  8
DEFPOINTS
 62
     0
100
AcDbPoint
 10
-103.7431561908861
 20
30.007917356314
 30
0.0
  0
POINT
  5
44D
330
3AD
100
AcDbEntity
  8
DEFPOINTS
 62
     0
100
AcDbPoint
 10
-103.766581782469
 20
81.32174080994673
 30
0.0
  0
POINT
  5
44E
330
3AD
100
AcDbEntity
  8
DEFPOINTS
 62
     0
100
AcDbPoint
 10
-85.51154177558055
 20
37.25017564365316
 30
0.0
  0
POINT
  5
44F
330
3AD
100
AcDbEntity
  8
DEFPOINTS
 62
     0
100
AcDbPoint
 10
-103.7431561908861
 20
128.2501756436527
 30
0.0
  0
ENDBLK
  5
3BA
330
3AD
100
AcDbEntity
  8
0
100
AcDbBlockEnd
  0
ENDSEC
  0
SECTION
  2
ENTITIES
  0
MTEXT
  5
29
330
2
100
AcDbEntity
  8
DIM
100
AcDbMText
 10
75.17593227287398
 20
-2.331918002681959
 30
0.0
 40
3.5
 41
0.0
 71
     5
 72
     1
  1
UL Style 3271 , AWG20
 73
     1
 44
1.0
1001
ACAD
1000
MTEXTBEGIN
1070
    73
1070
     1
1070
    44
1040
1.0
1070
    74
1070
     0
1000
MTEXTEND
  0
MTEXT
  5
2B
330
2
100
AcDbEntity
  8
DIM
100
AcDbMText
 10
79.37285194544711
 20
4.052383655385709
 30
0.0
 40
3.5
 41
0.0
 71
     5
 72
     1
  1
MOTOR LEAD WIRE 300mm
 73
     1
 44
1.0
1001
ACAD
1000
MTEXTBEGIN
1070
    73
1070
     1
1070
    44
1040
1.0
1070
    74
1070
     0
1000
MTEXTEND
  0
LEADER
  5
2C
330
2
100
AcDbEntity
  8
0
100
AcDbLeader
  3
STANDARD
 76
     2
 10
38.48235128854139
 20
21.03465424889191
 30
0.0
 10
43.1187852046787
 20
1.552383655385709
 30
0.0
1001
ACAD
1000
DSTYLE
1002
{
1070
     5
1000

1070
    77
1070
     1
1070
   147
1040
1.0
1070
   342
1005
0
1002
}
  0
MTEXT
  5
2D
330
2
100
AcDbEntity
  8
DIM
100
AcDbMText
 10
79.29794428914101
 20
-187.4456152661655
 30
0.0
 40
3.5
 41
0.0
 71
     5
 72
     1
  1
MOTOR LEAD WIRE 300mm
 73
     1
 44
1.0
1001
ACAD
1000
MTEXTBEGIN
1070
    73
1070
     1
1070
    44
1040
1.0
1070
    74
1070
     0
1000
MTEXTEND
  0
MTEXT
  5
2E
330
2
100
AcDbEntity
  8
DIM
100
AcDbMText
 10
73.96624310450532
 20
-193.8054507828728
 30
0.0
 40
3.5
 41
0.0
 71
     5
 72
     1
  1
UL Style 3271, AWG20
 73
     1
 44
1.0
1001
ACAD
1000
MTEXTBEGIN
1070
    73
1070
     1
1070
    44
1040
1.0
1070
    74
1070
     0
1000
MTEXTEND
  0
LEADER
  5
2F
330
2
100
AcDbEntity
  8
0
100
AcDbLeader
  3
STANDARD
 76
     2
 10
38.31792214788947
 20
-170.4633446726593
 30
0.0
 10
42.95435606402588
 20
-189.9456152661655
 30
0.0
1001
ACAD
1000
DSTYLE
1002
{
1070
     5
1000

1070
    77
1070
     1
1070
   147
1040
1.0
1070
   342
1005
0
1002
}
  0
DIMENSION
  5
30
102
{ACAD_XDICTIONARY
360
31
102
}
102
{ACAD_REACTORS
330
32
102
}
330
2
100
AcDbEntity
  8
0
100
AcDbDimension
  2
*D20
 10
-103.7431561908861
 20
128.2501756436527
 30
0.0
 11
-91.49162503644665
 21
19.67258001731728
 31
0.0
 70
    34
 71
     5
 42
-1.0
  3
STANDARD
100
AcDb2LineAngularDimension
 13
-103.766581782469
 23
81.32174080994673
 33
0.0
 14
-85.51154177558055
 24
37.25017564365316
 34
0.0
 15
-103.7431561908861
 25
30.00791735631401
 35
0.0
 16
-95.18259702353301
 26
16.24128392639131
 36
0.0
1001
ACAD
1000
DSTYLE
1002
{
1070
   271
1070
     1
1070
   271
1070
     1
1070
   271
1070
     1
1070
   271
1070
     1
1070
   271
1070
     1
1070
   271
1070
     1
1070
   271
1070
     1
1070
   271
1070
     1
1070
   271
1070
     1
1070
   271
1070
     1
1070
   271
1070
     1
1070
   271
1070
     1
1070
   271
1070
     1
1070
   271
1070
     1
1070
   271
1070
     1
1070
   271
1070
     1
1070
   271
1070
     1
1070
   271
1070
     1
1070
   271
1070
     1
1070
   271
1070
     1
1070
   271
1070
     1
1070
   271
1070
     1
1070
   271
1070
     1
1070
   271
1070
     1
1070
   271
1070
     1
1070
   271
1070
     1
1070
   271
1070
     1
1070
   271
1070
     1
1070
   271
1070
     1
1070
   271
1070
     1
1070
   271
1070
     1
1070
   271
1070
     1
1070
   271
1070
     1
1070
   271
1070
     1
1070
   271
1070
     1
1070
   271
1070
     1
1070
   271
1070
     1
1070
   271
1070
     1
1070
   271
1070
     1
1070
   271
1070
     1
1070
   271
1070
     1
1070
   271
1070
     1
1070
   271
1070
     1
1070
   271
1070
     1
1070
   271
1070
     1
1070
   271
1070
     1
1070
   271
1070
     1
1070
   271
1070
     1
1070
   271
1070
     1
1070
   271
1070
     1
1070
   271
1070
     1
1070
   271
1070
     1
1070
   271
1070
     1
1070
   271
1070
     1
1070
   271
1070
     1
1070
   271
1070
     1
1070
   271
1070
     1
1070
   271
1070
     1
1070
   271
1070
     1
1070
   271
1070
     1
1070
   271
1070
     1
1070
   271
1070
     1
1070
   271
1070
     1
1070
   271
1070
     1
1070
   271
1070
     1
1070
   271
1070
     1
1070
   271
1070
     1
1070
   271
1070
     1
1070
   271
1070
     1
1070
   271
1070
     1
1070
   271
1070
     1
1070
   271
1070
     1
1070
   271
1070
     1
1070
   271
1070
     1
1070
   271
1070
     1
1070
   271
1070
     1
1070
   271
1070
     1
1070
   271
1070
     1
1070
   271
1070
     1
1070
   271
1070
     1
1070
   271
1070
     1
1070
   271
1070
     1
1070
   271
1070
     1
1070
   271
1070
     1
1070
   271
1070
     1
1070
   271
1070
     1
1070
   271
1070
     1
1070
   271
1070
     1
1070
   271
1070
     1
1002
}
  0
LEADER
  5
42
102
{ACAD_XDICTIONARY
360
43
102
}
102
{ACAD_REACTORS
330
44
102
}
330
2
100
AcDbEntity
  8
0
100
AcDbLeader
  3
STANDARD
 73
     0
 75
     1
 40
3.0
 41
26.65178571428571
 76
     3
 10
-66.94896299445645
 20
121.1947120273521
 30
0.0
 10
-73.23894593739442
 20
152.7237428799271
 30
0.0
 10
-76.73894593739442
 20
152.7237428799271
 30
0.0
340
45
1001
ACAD
1000
DSTYLE
1002
{
1070
     5
1000

1070
    77
1070
     1
1070
   147
1040
1.0
1070
   342
1005
0
1002
}
  0
MTEXT
  5
45
102
{ACAD_REACTORS
330
42
102
}
330
2
100
AcDbEntity
  8
0
 62
     3
100
AcDbMText
 10
-77.73894593739441
 20
153.7237428799271
 30
0.0
 40
3.0
 41
0.0
 71
     9
 72
     1
  1
4-%%C6.5 hole
 73
     1
 44
1.0
1001
ACAD
1000
MTEXTBEGIN
1070
    73
1070
     1
1070
    44
1040
1.0
1070
    74
1070
     0
1000
MTEXTEND
  0
DIMENSION
  5
46
102
{ACAD_XDICTIONARY
360
47
102
}
102
{ACAD_REACTORS
330
48
102
}
330
2
100
AcDbEntity
  8
0
100
AcDbDimension
  2
*D19
 10
-128.3503982184729
 20
-63.24782327789853
 30
0.0
 11
-116.0988670640334
 21
-171.8254189042339
 31
0.0
 70
    34
 71
     5
 42
-1.0
  3
STANDARD
100
AcDb2LineAngularDimension
 13
-128.3738238100559
 23
-110.1762581116045
 33
0.0
 14
-110.1187838031673
 24
-154.247823277898
 34
0.0
 15
-128.3503982184729
 25
-161.4900815652372
 35
0.0
 16
-119.7898390511198
 26
-175.2567149951599
 36
0.0
1001
ACAD
1000
DSTYLE
1002
{
1070
   271
1070
     1
1070
   271
1070
     1
1070
   271
1070
     1
1070
   271
1070
     1
1070
   271
1070
     1
1070
   271
1070
     1
1070
   271
1070
     1
1070
   271
1070
     1
1070
   271
1070
     1
1070
   271
1070
     1
1070
   271
1070
     1
1070
   271
1070
     1
1070
   271
1070
     1
1070
   271
1070
     1
1070
   271
1070
     1
1070
   271
1070
     1
1070
   271
1070
     1
1070
   271
1070
     1
1070
   271
1070
     1
1070
   271
1070
     1
1070
   271
1070
     1
1070
   271
1070
     1
1070
   271
1070
     1
1070
   271
1070
     1
1070
   271
1070
     1
1070
   271
1070
     1
1070
   271
1070
     1
1070
   271
1070
     1
1070
   271
1070
     1
1070
   271
1070
     1
1070
   271
1070
     1
1070
   271
1070
     1
1070
   271
1070
     1
1070
   271
1070
     1
1070
   271
1070
     1
1070
   271
1070
     1
1070
   271
1070
     1
1070
   271
1070
     1
1070
   271
1070
     1
1070
   271
1070
     1
1070
   271
1070
     1
1070
   271
1070
     1
1070
   271
1070
     1
1070
   271
1070
     1
1070
   271
1070
     1
1070
   271
1070
     1
1070
   271
1070
     1
1070
   271
1070
     1
1070
   271
1070
     1
1070
   271
1070
     1
1070
   271
1070
     1
1070
   271
1070
     1
1070
   271
1070
     1
1070
   271
1070
     1
1070
   271
1070
     1
1070
   271
1070
     1
1070
   271
1070
     1
1070
   271
1070
     1
1070
   271
1070
     1
1070
   271
1070
     1
1070
   271
1070
     1
1070
   271
1070
     1
1070
   271
1070
     1
1070
   271
1070
     1
1070
   271
1070
     1
1070
   271
1070
     1
1070
   271
1070
     1
1070
   271
1070
     1
1070
   271
1070
     1
1070
   271
1070
     1
1070
   271
1070
     1
1070
   271
1070
     1
1070
   271
1070
     1
1070
   271
1070
     1
1070
   271
1070
     1
1070
   271
1070
     1
1070
   271
1070
     1
1070
   271
1070
     1
1070
   271
1070
     1
1070
   271
1070
     1
1070
   271
1070
     1
1070
   271
1070
     1
1070
   271
1070
     1
1070
   271
1070
     1
1070
   271
1070
     1
1070
   271
1070
     1
1070
   271
1070
     1
1070
   271
1070
     1
1070
   271
1070
     1
1002
}
  0
LEADER
  5
57
102
{ACAD_XDICTIONARY
360
58
102
}
102
{ACAD_REACTORS
330
59
102
}
330
2
100
AcDbEntity
  8
0
100
AcDbLeader
  3
STANDARD
 73
     0
 75
     1
 40
3.0
 41
26.65178571428571
 76
     3
 10
-91.55620502204328
 20
-70.30328689419912
 30
0.0
 10
-97.84618796498122
 20
-38.77425604162408
 30
0.0
 10
-101.3461879649812
 20
-38.77425604162408
 30
0.0
340
5A
1001
ACAD
1000
DSTYLE
1002
{
1070
     5
1000

1070
    77
1070
     1
1070
   147
1040
1.0
1070
   342
1005
0
1002
}
  0
MTEXT
  5
5A
102
{ACAD_REACTORS
330
57
102
}
330
2
100
AcDbEntity
  8
0
 62
     3
100
AcDbMText
 10
-102.3461879649812
 20
-37.77425604162408
 30
0.0
 40
3.0
 41
0.0
 71
     9
 72
     1
  1
4-%%C6.5 hole
 73
     1
 44
1.0
1001
ACAD
1000
MTEXTBEGIN
1070
    73
1070
     1
1070
    44
1040
1.0
1070
    74
1070
     0
1000
MTEXTEND
  0
DIMENSION
  5
5B
330
2
100
AcDbEntity
  8
0
100
AcDbDimension
  2
*D18
 10
193.4290969729299
 20
-155.2224613470043
 30
0.0
 11
193.4290969729299
 21
-110.2224613470043
 31
0.0
 70
   160
  1
%%C<>
 71
     5
 42
-1.0
  3
STANDARD
100
AcDbAlignedDimension
 13
171.8450869554408
 23
-65.22246134700434
 33
0.0
 14
171.8450869554408
 24
-155.2224613470043
 34
0.0
 50
90.0
100
AcDbRotatedDimension
  0
LINE
  5
68
330
2
100
AcDbEntity
  8
0
100
AcDbLine
 10
153.8450869554408
 20
-65.22246134700434
 30
0.0
 11
153.8450869554408
 21
-155.2224613470043
 31
0.0
  0
LINE
  5
69
330
2
100
AcDbEntity
  8
0
100
AcDbLine
 10
178.8450869554408
 20
-72.22246134700434
 30
0.0
 11
178.8450869554408
 21
-148.2224613470043
 31
0.0
  0
LINE
  5
6A
330
2
100
AcDbEntity
  8
0
100
AcDbLine
 10
31.34508695544082
 20
-146.1211986885337
 30
0.0
 11
31.34508695544082
 21
-153.8211986885334
 31
0.0
  0
CIRCLE
  5
6B
330
2
100
AcDbEntity
  8
0
100
AcDbCircle
 10
-91.48721365745222
 20
-146.7297845869961
 30
0.0
 40
3.25
  0
LINE
  5
6C
330
2
100
AcDbEntity
  8
0
  6
CENTER
 62
     1
100
AcDbLine
 10
-87.00350620433438
 20
-151.1658003276188
 30
0.0
 11
-96.0259071426617
 21
-142.2393676825099
 31
0.0
  0
ARC
  5
6E
330
2
100
AcDbEntity
  8
0
  6
CENTER
 62
     1
100
AcDbCircle
 10
-128.4259495199494
 20
-110.1301972548881
 30
0.0
 40
52.0
100
AcDbArc
 50
301.0049770438206
 51
334.223486044558
  0
CIRCLE
  5
6F
330
2
100
AcDbEntity
  8
0
100
AcDbCircle
 10
-165.1082313122096
 20
-146.9868140626376
 30
0.0
 40
3.25
  0
ARC
  5
70
330
2
100
AcDbEntity
  8
0
  6
CENTER
 62
     1
100
AcDbCircle
 10
-128.4259495199494
 20
-110.1301972548881
 30
0.0
 40
52.0
100
AcDbArc
 50
206.176580262604
 51
239.3950892633414
  0
LINE
  5
71
330
2
100
AcDbEntity
  8
0
  6
CENTER
 62
     1
100
AcDbLine
 10
-169.5608553501606
 20
-151.4540287824434
 30
0.0
 11
-160.6010024342231
 21
-142.4648155696891
 31
0.0
  0
LINE
  5
72
102
{ACAD_REACTORS
330
48
102
}
330
2
100
AcDbEntity
  8
CEN
100
AcDbLine
 10
-128.3738238100559
 20
-110.1762581116045
 30
0.0
 11
-110.1187838031673
 21
-154.247823277898
 31
0.0
  0
DIMENSION
  5
73
102
{ACAD_XDICTIONARY
360
74
102
}
102
{ACAD_REACTORS
330
75
102
}
330
2
100
AcDbEntity
  8
0
100
AcDbDimension
  2
*D17
 10
-49.10722780692506
 20
-151.7224613470043
 30
0.0
 11
-49.10722780692504
 21
-108.8575047142521
 31
0.0
 70
   160
  1
\A1;{\f??|b0|i0|c0|p49;%%C}<>{\f??|b0|i0|c0|p49;\H0.7x;\S+0^ -0.035;\H1.429x;(h}7{\f??|b0|i0|c0|p49;)}
 71
     5
 42
-1.0
  3
STANDARD
100
AcDbAlignedDimension
 13
21.84508695544082
 23
-68.72246134700436
 33
0.0
 14
21.84508695544082
 24
-151.7224613470043
 34
0.0
 50
90.0
100
AcDbRotatedDimension
  0
LINE
  5
82
102
{ACAD_REACTORS
330
75
102
}
330
2
100
AcDbEntity
  8
0
100
AcDbLine
 10
21.84508695544082
 20
-68.72246134700436
 30
0.0
 11
21.84508695544082
 21
-151.7224613470043
 31
0.0
  0
LINE
  5
83
330
2
100
AcDbEntity
  8
0
100
AcDbLine
 10
30.44508695544118
 20
-65.22246134700345
 30
0.0
 11
30.445086955441
 21
-82.72246134700436
 31
0.0
  0
LINE
  5
84
330
2
100
AcDbEntity
  8
0
100
AcDbLine
 10
23.84508695544082
 20
-65.2224613470039
 30
0.0
 11
23.84508695544082
 21
-155.2224613470048
 31
0.0
  0
LINE
  5
85
330
2
100
AcDbEntity
  8
CEN
100
AcDbLine
 10
-128.3503982184729
 20
-161.4900815652372
 30
0.0
 11
-128.350398218472
 21
-58.34347729686124
 31
0.0
  0
CIRCLE
  5
87
330
2
100
AcDbEntity
  8
0
100
AcDbCircle
 10
-128.350398218472
 20
-110.2224613470043
 30
0.0
 40
42.00000000000005
  0
CIRCLE
  5
88
330
2
100
AcDbEntity
  8
0
100
AcDbCircle
 10
-128.350398218472
 20
-110.2224613470043
 30
0.0
 40
43.5
  0
LINE
  5
89
330
2
100
AcDbEntity
  8
0
100
AcDbLine
 10
-173.3503982184738
 20
-70.2224613470048
 30
0.0
 11
-173.3503982184738
 21
-150.2224613470039
 31
0.0
  0
LINE
  5
8A
330
2
100
AcDbEntity
  8
0
100
AcDbLine
 10
-172.8503982184738
 20
-70.2224613470048
 30
0.0
 11
-172.8503982184738
 21
-150.2224613470039
 31
0.0
  0
LINE
  5
8B
330
2
100
AcDbEntity
  8
0
100
AcDbLine
 10
-83.35039821847386
 20
-70.2224613470048
 30
0.0
 11
-83.35039821847386
 21
-150.2224613470039
 31
0.0
  0
LINE
  5
8C
330
2
100
AcDbEntity
  8
0
100
AcDbLine
 10
-83.85039821847383
 20
-70.2224613470048
 30
0.0
 11
-83.85039821847383
 21
-150.2224613470039
 31
0.0
  0
ARC
  5
8D
330
2
100
AcDbEntity
  8
0
100
AcDbCircle
 10
-76.03258286765505
 20
-140.9119086984641
 30
0.0
 40
39.15579199999999
100
AcDbArc
 50
201.4369589999971
 51
235.2486590000055
  0
ARC
  5
8F
330
2
100
AcDbEntity
  8
0
100
AcDbCircle
 10
-76.03258286765505
 20
-140.9119086984641
 30
0.0
 40
33.955792
100
AcDbArc
 50
204.9259499999998
 51
236.3981230000006
  0
ARC
  5
91
330
2
100
AcDbEntity
  8
0
100
AcDbCircle
 10
-92.5041598676553
 20
-172.8188496984644
 30
0.0
 40
0.7499080000000001
100
AcDbArc
 50
92.01298199999559
 51
212.184510000001
  0
ARC
  5
92
330
2
100
AcDbEntity
  8
0
100
AcDbCircle
 10
-93.7735108676552
 20
-173.6177226984641
 30
0.0
 40
0.7499080000000001
100
AcDbArc
 50
272.0129819999955
 51
32.18451000000101
  0
ARC
  5
93
330
2
100
AcDbEntity
  8
0
100
AcDbCircle
 10
-76.03258286765505
 20
-140.9119086984641
 30
0.0
 40
35.255792
100
AcDbArc
 50
236.3564240000014
 51
242.0987460000029
  0
ARC
  5
94
330
2
100
AcDbEntity
  8
0
100
AcDbCircle
 10
-96.24275986765496
 20
-170.5836566984644
 30
0.0
 40
0.7499080000000001
100
AcDbArc
 50
265.1628950000045
 51
25.33442299999946
  0
ARC
  5
95
330
2
100
AcDbEntity
  8
0
100
AcDbCircle
 10
-94.88718786765458
 20
-169.9418846984644
 30
0.0
 40
0.7499080000000001
100
AcDbArc
 50
85.16289500000455
 51
205.3344229999994
  0
ARC
  5
97
330
2
100
AcDbEntity
  8
0
100
AcDbCircle
 10
-76.03258286765505
 20
-140.9119086984641
 30
0.0
 40
37.855792
100
AcDbArc
 50
235.2486590000055
 51
242.0987460000029
  0
ARC
  5
98
330
2
100
AcDbEntity
  8
0
100
AcDbCircle
 10
-98.28877686765554
 20
-172.3363846984643
 30
0.0
 40
0.7499080000000001
100
AcDbArc
 50
265.1628950000045
 51
25.33442299999946
  0
ARC
  5
99
330
2
100
AcDbEntity
  8
0
100
AcDbCircle
 10
-96.9332038676548
 20
-171.6946116984645
 30
0.0
 40
0.7499080000000001
100
AcDbArc
 50
85.16289500000455
 51
205.3344229999994
  0
ARC
  5
9A
330
2
100
AcDbEntity
  8
0
100
AcDbCircle
 10
-76.03258286765505
 20
-140.9119086984641
 30
0.0
 40
36.555792
100
AcDbArc
 50
203.046094729814
 51
236.3176429999982
  0
LINE
  5
9C
330
2
100
AcDbEntity
  8
0
100
AcDbLine
 10
-168.3503982184738
 20
-155.2224613470039
 30
0.0
 11
-88.35039821847386
 21
-155.2224613470039
 31
0.0
  0
LINE
  5
9D
330
2
100
AcDbEntity
  8
0
100
AcDbLine
 10
-168.3503982184738
 20
-154.7224613470039
 30
0.0
 11
-88.35039821847386
 21
-154.7224613470039
 31
0.0
  0
ARC
  5
9E
330
2
100
AcDbEntity
  8
0
100
AcDbCircle
 10
-168.3503982184738
 20
-150.2224613470039
 30
0.0
 40
5.0
100
AcDbArc
 50
180.0
 51
270.0
  0
ARC
  5
A0
330
2
100
AcDbEntity
  8
0
100
AcDbCircle
 10
-168.3503982184738
 20
-150.2224613470039
 30
0.0
 40
4.5
100
AcDbArc
 50
180.0
 51
270.0
  0
ARC
  5
A1
330
2
100
AcDbEntity
  8
0
100
AcDbCircle
 10
-88.35039821847386
 20
-150.2224613470039
 30
0.0
 40
5.0
100
AcDbArc
 50
270.0
 51
0.0
  0
ARC
  5
A2
330
2
100
AcDbEntity
  8
0
100
AcDbCircle
 10
-88.35039821847386
 20
-150.2224613470039
 30
0.0
 40
4.5
100
AcDbArc
 50
270.0
 51
0.0
  0
ARC
  5
A3
330
2
100
AcDbEntity
  8
0
100
AcDbCircle
 10
158.3121269043513
 20
-156.1113967326505
 30
0.0
 40
1.0
100
AcDbArc
 50
180.0
 51
270.0
  0
LINE
  5
A4
330
2
100
AcDbEntity
  8
0
100
AcDbLine
 10
157.3121269043513
 20
-155.2224613470043
 30
0.0
 11
157.3121269043513
 21
-156.1113967326505
 31
0.0
  0
ARC
  5
A5
330
2
100
AcDbEntity
  8
0
100
AcDbCircle
 10
171.8450869554408
 20
-148.2224613470043
 30
0.0
 40
7.0
100
AcDbArc
 50
269.9999999999998
 51
359.9999999999997
  0
ARC
  5
A6
330
2
100
AcDbEntity
  8
0
100
AcDbCircle
 10
160.7454463768717
 20
-156.1113967326505
 30
0.0
 40
1.0
100
AcDbArc
 50
269.9999999999998
 51
0.0
  0
LINE
  5
A7
330
2
100
AcDbEntity
  8
0
100
AcDbLine
 10
158.3121269043513
 20
-157.1113967326505
 30
0.0
 11
160.7454463768717
 21
-157.1113967326505
 31
0.0
  0
LINE
  5
A8
330
2
100
AcDbEntity
  8
0
100
AcDbLine
 10
161.7454463768717
 20
-156.1113967326505
 30
0.0
 11
161.7454463768717
 21
-155.2224613470043
 31
0.0
  0
LINE
  5
AA
330
2
100
AcDbEntity
  8
0
 62
   123
100
AcDbLine
 10
42.95435606402588
 20
-189.9456152661655
 30
0.0
 11
114.7917254191215
 21
-189.9456152661655
 31
0.0
  0
LINE
  5
AB
330
2
100
AcDbEntity
  8
0
100
AcDbLine
 10
40.84508695544082
 20
-155.2224613470043
 30
0.0
 11
40.84508695544082
 21
-155.7224613470043
 31
0.0
  0
ARC
  5
AC
330
2
100
AcDbEntity
  8
0
100
AcDbCircle
 10
40.34508695544082
 20
-155.7224613470043
 30
0.0
 40
0.5
100
AcDbArc
 50
270.0
 51
0.0
  0
ARC
  5
AD
330
2
100
AcDbEntity
  8
0
100
AcDbCircle
 10
72.14780895544027
 20
-156.311107347004
 30
0.0
 40
37.855792
100
AcDbArc
 50
212.7486590000019
 51
219.5987459999967
  0
ARC
  5
AE
330
2
100
AcDbEntity
  8
0
100
AcDbCircle
 10
42.12115295544026
 20
-175.9901283470044
 30
0.0
 40
0.7499080000000001
100
AcDbArc
 50
242.6628950000009
 51
2.834422999996808
  0
ARC
  5
AF
330
2
100
AcDbEntity
  8
0
100
AcDbCircle
 10
72.14780895544027
 20
-156.311107347004
 30
0.0
 40
36.555792
100
AcDbArc
 50
179.8610604128478
 51
213.8176429999978
  0
ARC
  5
B0
330
2
100
AcDbEntity
  8
0
100
AcDbCircle
 10
41.05812195544057
 20
-176.7522953470042
 30
0.0
 40
0.7499080000000001
100
AcDbArc
 50
62.66289500000094
 51
182.8344229999968
  0
ARC
  5
B1
330
2
100
AcDbEntity
  8
0
100
AcDbCircle
 10
39.56014095544015
 20
-176.8264613470041
 30
0.0
 40
0.7499080000000001
100
AcDbArc
 50
242.6628950000009
 51
2.834422999996808
  0
ARC
  5
B4
330
2
100
AcDbEntity
  8
0
100
AcDbCircle
 10
43.61913495544013
 20
-175.9159623470041
 30
0.0
 40
0.7499080000000001
100
AcDbArc
 50
62.66289500000094
 51
182.8344229999968
  0
ARC
  5
B5
330
2
100
AcDbEntity
  8
0
100
AcDbCircle
 10
43.24135595544065
 20
-179.7381803470043
 30
0.0
 40
0.7499080000000001
100
AcDbArc
 50
249.5129820000002
 51
9.684509999999278
  0
ARC
  5
B6
330
2
100
AcDbEntity
  8
0
100
AcDbCircle
 10
44.71979795544029
 20
-179.485877347004
 30
0.0
 40
0.7499080000000001
100
AcDbArc
 50
69.51298200000024
 51
189.6845099999992
  0
ARC
  5
B7
330
2
100
AcDbEntity
  8
0
100
AcDbCircle
 10
72.14780895544027
 20
-156.311107347004
 30
0.0
 40
35.255792
100
AcDbArc
 50
213.8564239999995
 51
219.5987459999967
  0
ARC
  5
B8
330
2
100
AcDbEntity
  8
0
100
AcDbCircle
 10
72.14780895544027
 20
-156.311107347004
 30
0.0
 40
33.955792
100
AcDbArc
 50
179.8504230000004
 51
213.8981229999992
  0
LINE
  5
BA
330
2
100
AcDbEntity
  8
0
100
AcDbLine
 10
23.84508695544082
 20
-155.2224613470048
 30
0.0
 11
171.8450869554408
 21
-155.2224613470043
 31
0.0
  0
LINE
  5
BB
330
2
100
AcDbEntity
  8
0
100
AcDbLine
 10
23.84508695544082
 20
-151.7224613470043
 30
0.0
 11
21.84508695544082
 21
-151.7224613470043
 31
0.0
  0
LINE
  5
BC
330
2
100
AcDbEntity
  8
0
100
AcDbLine
 10
30.84508695544082
 20
-155.2224613470043
 30
0.0
 11
30.84508695544082
 21
-155.7224613470043
 31
0.0
  0
LINE
  5
BD
330
2
100
AcDbEntity
  8
0
100
AcDbLine
 10
30.44508695544027
 20
-153.8211986885334
 30
0.0
 11
31.34508695544082
 21
-153.8211986885334
 31
0.0
  0
ARC
  5
BE
330
2
100
AcDbEntity
  8
0
100
AcDbCircle
 10
31.34508695544082
 20
-155.7224613470043
 30
0.0
 40
0.5
100
AcDbArc
 50
180.0
 51
270.0
  0
ARC
  5
BF
330
2
100
AcDbEntity
  8
0
100
AcDbCircle
 10
72.14780895544027
 20
-156.311107347004
 30
0.0
 40
39.15579199999999
100
AcDbArc
 50
179.8702869999972
 51
212.7486590000019
  0
LINE
  5
C1
330
2
100
AcDbEntity
  8
0
100
AcDbLine
 10
40.34508695544082
 20
-156.2224613470043
 30
0.0
 11
31.34508695544082
 21
-156.2224613470043
 31
0.0
  0
LINE
  5
C2
330
2
100
AcDbEntity
  8
CEN
100
AcDbLine
 10
186.3935644403982
 20
-110.2224613470043
 30
0.0
 11
-21.00490959389208
 21
-110.2224613470043
 31
0.0
  0
DIMENSION
  5
C3
102
{ACAD_XDICTIONARY
360
C4
102
}
102
{ACAD_REACTORS
330
C5
102
}
330
2
100
AcDbEntity
  8
0
100
AcDbDimension
  2
*D16
 10
-22.26941372144938
 20
39.7755375745469
 30
0.0
 11
-22.26941372144938
 21
81.50569512837501
 31
0.0
 70
   160
  1
\A1;{\f??|b0|i0|c0|p49;%%c}<>{\f??|b0|i0|c0|p49;\H0.7x;\S+0^ -0.035;\H1.429x;(h7)}
 71
     5
 42
-1.0
  3
STANDARD
100
AcDbAlignedDimension
 13
21.84508695544082
 23
122.7755375745468
 33
0.0
 14
21.84508695544082
 24
39.77553757454689
 34
0.0
 50
90.0
100
AcDbRotatedDimension
  0
DIMENSION
  5
D2
102
{ACAD_XDICTIONARY
360
D3
102
}
102
{ACAD_REACTORS
330
D4
102
}
330
2
100
AcDbEntity
  8
0
100
AcDbDimension
  2
*D15
 10
16.84508695544082
 20
-85.29108387085489
 30
0.0
 11
3.103771319938458
 21
-85.29108387085489
 31
0.0
 70
   160
 71
     5
 42
-1.0
  3
STANDARD
100
AcDbAlignedDimension
 13
-13.15491304455917
 23
-105.2224613470043
 33
0.0
 14
16.84508695544082
 24
-104.2224613470043
 34
0.0
100
AcDbRotatedDimension
  0
LINE
  5
E1
102
{ACAD_REACTORS
330
D4
330
167
330
F8
102
}
330
2
100
AcDbEntity
  8
CL
  6
ByBlock
 62
     0
100
AcDbLine
 10
16.84508695544082
 20
-105.2224613470043
 30
0.0
 11
-13.15491304455917
 21
-105.2224613470043
 31
0.0
  0
LINE
  5
E4
102
{ACAD_REACTORS
330
167
330
E7
102
}
330
2
100
AcDbEntity
  8
CL
  6
ByBlock
 62
     0
100
AcDbLine
 10
21.84508695544082
 20
-116.2224613470043
 30
0.0
 11
-13.15491304455917
 21
-116.2224613470043
 31
0.0
  0
DIMENSION
  5
E5
102
{ACAD_XDICTIONARY
360
E6
102
}
102
{ACAD_REACTORS
330
E7
102
}
330
2
100
AcDbEntity
  8
0
100
AcDbDimension
  2
*D14
 10
-37.05007654721795
 20
-104.2224613470043
 30
0.0
 11
-37.05007654721793
 21
-82.12175420414679
 31
0.0
 70
   160
  1
\A1;{\f??|b0|i0|c0|p49;%%C}12{\f??|b0|i0|c0|p49;\H0.7x;\S+0^ -0.018;\H1.429x;(h}7{\f??|b0|i0|c0|p49;)}
 71
     5
 42
-1.0
  3
STANDARD
100
AcDbAlignedDimension
 13
-13.15491304455917
 23
-116.2224613470043
 33
0.0
 14
16.84508695544082
 24
-104.2224613470043
 34
0.0
 50
90.0
100
AcDbRotatedDimension
  0
DIMENSION
  5
F6
102
{ACAD_XDICTIONARY
360
F7
102
}
102
{ACAD_REACTORS
330
F8
102
}
330
2
100
AcDbEntity
  8
0
100
AcDbDimension
  2
*D13
 10
23.84508695544082
 20
-26.13447528051983
 30
0.0
 11
5.34508695544082
 21
-26.13447528051983
 31
0.0
 70
   160
 71
     5
 42
-1.0
  3
STANDARD
100
AcDbAlignedDimension
 13
-13.15491304455917
 23
-105.2224613470043
 33
0.0
 14
23.84508695544082
 24
-65.01412801367087
 34
0.0
100
AcDbRotatedDimension
  0
LINE
  5
105
330
2
100
AcDbEntity
  8
CEN
100
AcDbLine
 10
-103.7431561908861
 20
30.00791735631401
 30
0.0
 11
-103.7431561908852
 21
133.15452162469
 31
0.0
  0
DIMENSION
  5
106
102
{ACAD_XDICTIONARY
360
107
102
}
102
{ACAD_REACTORS
330
108
102
}
330
2
100
AcDbEntity
  8
0
100
AcDbDimension
  2
*D12
 10
-148.1667328492437
 20
54.12328294425607
 30
0.0
 11
-43.81464981960749
 21
118.013134842181
 31
0.0
 70
   163
  1
{\f??|b0|i0|c0|p49;%%C104%%P0.5}
 71
     5
 42
-1.0
  3
STANDARD
100
AcDbDiametricDimension
 15
-59.47050816089033
 25
108.4277922048387
 35
0.0
 40
0.0
  0
CIRCLE
  5
114
330
2
100
AcDbEntity
  8
0
100
AcDbCircle
 10
-103.7431561908852
 20
81.27553757454689
 30
0.0
 40
42.00000000000005
  0
CIRCLE
  5
115
330
2
100
AcDbEntity
  8
0
100
AcDbCircle
 10
-103.7431561908852
 20
81.27553757454689
 30
0.0
 40
43.5
  0
ARC
  5
116
102
{ACAD_REACTORS
330
108
102
}
330
2
100
AcDbEntity
  8
0
  6
CENTER
 62
     1
100
AcDbCircle
 10
-103.8186205050678
 20
81.27553757454689
 30
0.0
 40
52.0
100
AcDbArc
 50
25.88455172623838
 51
59.10306072697585
  0
ARC
  5
117
330
2
100
AcDbEntity
  8
0
  6
CENTER
 62
     1
100
AcDbCircle
 10
-103.8186205050678
 20
81.27553757454689
 30
0.0
 40
52.0
100
AcDbArc
 50
120.7129485074549
 51
153.9314575081924
  0
ARC
  5
118
330
2
100
AcDbEntity
  8
0
100
AcDbCircle
 10
-103.8186205050678
 20
81.27553757454689
 30
0.0
 40
36.81561599999999
100
AcDbArc
 50
116.3656725032109
 51
153.6343274967831
  0
ARC
  5
119
330
2
100
AcDbEntity
  8
0
100
AcDbCircle
 10
-103.8186205050678
 20
81.27553757454689
 30
0.0
 40
36.81561599999999
100
AcDbArc
 50
26.36567250321681
 51
63.63432749678904
  0
LINE
  5
11A
330
2
100
AcDbEntity
  8
0
100
AcDbLine
 10
-148.743156190887
 20
121.2755375745464
 30
0.0
 11
-148.743156190887
 21
41.27553757454734
 31
0.0
  0
LINE
  5
11B
330
2
100
AcDbEntity
  8
0
100
AcDbLine
 10
-148.243156190887
 20
121.2755375745464
 30
0.0
 11
-148.243156190887
 21
41.27553757454734
 31
0.0
  0
LINE
  5
11C
330
2
100
AcDbEntity
  8
0
100
AcDbLine
 10
-58.74315619088702
 20
121.2755375745464
 30
0.0
 11
-58.74315619088702
 21
41.27553757454734
 31
0.0
  0
LINE
  5
11D
330
2
100
AcDbEntity
  8
0
100
AcDbLine
 10
-59.24315619088702
 20
121.2755375745464
 30
0.0
 11
-59.24315619088702
 21
41.27553757454734
 31
0.0
  0
ARC
  5
11E
330
2
100
AcDbEntity
  8
0
100
AcDbCircle
 10
-51.42534084006821
 20
50.58609022308701
 30
0.0
 40
39.15579199999999
100
AcDbArc
 50
201.4369589999971
 51
235.2486590000055
  0
ARC
  5
120
330
2
100
AcDbEntity
  8
0
100
AcDbCircle
 10
-51.42534084006821
 20
50.58609022308701
 30
0.0
 40
33.955792
100
AcDbArc
 50
204.9259499999998
 51
236.3981230000006
  0
ARC
  5
122
330
2
100
AcDbEntity
  8
0
100
AcDbCircle
 10
-67.89691784006845
 20
18.67914922308682
 30
0.0
 40
0.7499080000000001
100
AcDbArc
 50
92.01298199999559
 51
212.184510000001
  0
ARC
  5
123
330
2
100
AcDbEntity
  8
0
100
AcDbCircle
 10
-69.16626884006837
 20
17.88027622308709
 30
0.0
 40
0.7499080000000001
100
AcDbArc
 50
272.0129819999955
 51
32.18451000000101
  0
ARC
  5
124
330
2
100
AcDbEntity
  8
0
100
AcDbCircle
 10
-51.42534084006821
 20
50.58609022308701
 30
0.0
 40
35.255792
100
AcDbArc
 50
236.3564240000014
 51
242.0987460000029
  0
ARC
  5
125
330
2
100
AcDbEntity
  8
0
100
AcDbCircle
 10
-71.63551784006812
 20
20.9143422230868
 30
0.0
 40
0.7499080000000001
100
AcDbArc
 50
265.1628950000045
 51
25.33442299999946
  0
ARC
  5
126
330
2
100
AcDbEntity
  8
0
100
AcDbCircle
 10
-70.27994584006774
 20
21.5561142230872
 30
0.0
 40
0.7499080000000001
100
AcDbArc
 50
85.16289500000455
 51
205.3344229999994
  0
ARC
  5
128
330
2
100
AcDbEntity
  8
0
100
AcDbCircle
 10
-51.42534084006821
 20
50.58609022308701
 30
0.0
 40
37.855792
100
AcDbArc
 50
235.2486590000055
 51
242.0987460000029
  0
ARC
  5
129
330
2
100
AcDbEntity
  8
0
100
AcDbCircle
 10
-73.68153484006871
 20
19.16161422308687
 30
0.0
 40
0.7499080000000001
100
AcDbArc
 50
265.1628950000045
 51
25.33442299999946
  0
ARC
  5
12A
330
2
100
AcDbEntity
  8
0
100
AcDbCircle
 10
-72.32596184006799
 20
19.80338722308715
 30
0.0
 40
0.7499080000000001
100
AcDbArc
 50
85.16289500000455
 51
205.3344229999994
  0
ARC
  5
12B
330
2
100
AcDbEntity
  8
0
100
AcDbCircle
 10
-51.42534084006821
 20
50.58609022308701
 30
0.0
 40
36.555792
100
AcDbArc
 50
203.046094729814
 51
236.3176429999982
  0
LINE
  5
12D
330
2
100
AcDbEntity
  8
0
100
AcDbLine
 10
-143.743156190887
 20
36.27553757454734
 30
0.0
 11
-63.74315619088702
 21
36.27553757454734
 31
0.0
  0
LINE
  5
12E
330
2
100
AcDbEntity
  8
CEN
100
AcDbLine
 10
-156.7532608083531
 20
81.27553757454689
 30
0.0
 11
-52.07533515513683
 21
81.27553757454689
 31
0.0
  0
CIRCLE
  5
12F
330
2
100
AcDbEntity
  8
0
100
AcDbCircle
 10
-66.8799716298654
 20
44.76821433455508
 30
0.0
 40
3.25
  0
LINE
  5
130
330
2
100
AcDbEntity
  8
0
  6
CENTER
 62
     1
100
AcDbLine
 10
-62.39626417674752
 20
40.33219859393284
 30
0.0
 11
-71.41866511507487
 21
49.25863123904128
 31
0.0
  0
ARC
  5
131
330
2
100
AcDbEntity
  8
0
  6
CENTER
 62
     1
100
AcDbCircle
 10
-103.8187074923625
 20
81.36780166666312
 30
0.0
 40
52.0
100
AcDbArc
 50
301.0049770438206
 51
334.223486044558
  0
LINE
  5
132
330
2
100
AcDbEntity
  8
0
100
AcDbLine
 10
-143.743156190887
 20
36.77553757454735
 30
0.0
 11
-63.74315619088702
 21
36.77553757454735
 31
0.0
  0
CIRCLE
  5
133
330
2
100
AcDbEntity
  8
0
100
AcDbCircle
 10
-103.8186205050678
 20
81.27553757454689
 30
0.0
 40
3.198036349121024
  0
CIRCLE
  5
134
330
2
100
AcDbEntity
  8
0
100
AcDbCircle
 10
-103.8186205050678
 20
81.27553757454689
 30
0.0
 40
4.235
  0
CIRCLE
  5
135
330
2
100
AcDbEntity
  8
0
100
AcDbCircle
 10
-103.4958819397643
 20
81.27553757454689
 30
0.0
 40
20.0
  0
ARC
  5
136
330
2
100
AcDbEntity
  8
0
100
AcDbCircle
 10
-103.8186205050678
 20
81.27553757454689
 30
0.0
 40
33.74764799999999
100
AcDbArc
 50
252.2801918471949
 51
287.7198081528051
  0
CIRCLE
  5
137
330
2
100
AcDbEntity
  8
0
100
AcDbCircle
 10
-140.5009892846228
 20
44.51118485891401
 30
0.0
 40
3.25
  0
ARC
  5
138
330
2
100
AcDbEntity
  8
0
  6
CENTER
 62
     1
100
AcDbCircle
 10
-103.8187074923625
 20
81.36780166666312
 30
0.0
 40
52.0
100
AcDbArc
 50
206.176580262604
 51
239.3950892633414
  0
LINE
  5
139
330
2
100
AcDbEntity
  8
0
  6
CENTER
 62
     1
100
AcDbLine
 10
-144.9536133225737
 20
40.04397013910784
 30
0.0
 11
-135.9937604066362
 21
49.03318335186213
 31
0.0
  0
ARC
  5
13A
330
2
100
AcDbEntity
  8
0
100
AcDbCircle
 10
-115.0239095451306
 20
46.20659007126278
 30
0.0
 40
3.067967999999998
100
AcDbArc
 50
72.28019184719491
 51
128.0513255193869
  0
ARC
  5
13B
330
2
100
AcDbEntity
  8
0
100
AcDbCircle
 10
-118.8058987931708
 20
51.0383876584774
 30
0.0
 40
3.067967999999998
100
AcDbArc
 50
243.634327496789
 51
308.0513255193868
  0
ARC
  5
13C
330
2
100
AcDbEntity
  8
0
100
AcDbCircle
 10
-134.0557704211369
 20
96.26281586264987
 30
0.0
 40
3.067967999999998
100
AcDbArc
 50
153.6343274967831
 51
218.0513255193777
  0
ARC
  5
13D
330
2
100
AcDbEntity
  8
0
100
AcDbCircle
 10
-138.887568008352
 20
92.48082661461058
 30
0.0
 40
3.067967999999998
100
AcDbArc
 50
342.2801918472015
 51
38.05132551937779
  0
ARC
  5
13E
330
2
100
AcDbEntity
  8
0
100
AcDbCircle
 10
-134.0557704211369
 20
66.28825928644437
 30
0.0
 40
3.067967999999998
100
AcDbArc
 50
141.9486744806222
 51
206.3656725032168
  0
ARC
  5
13F
330
2
100
AcDbEntity
  8
0
100
AcDbCircle
 10
-138.887568008352
 20
70.0702485344832
 30
0.0
 40
3.067967999999998
100
AcDbArc
 50
321.9486744806221
 51
17.71980815279839
  0
ARC
  5
140
330
2
100
AcDbEntity
  8
0
100
AcDbCircle
 10
-103.8186205050678
 20
81.27553757454689
 30
0.0
 40
33.74764799999999
100
AcDbArc
 50
162.2801918472015
 51
197.7198081527984
  0
ARC
  5
141
330
2
100
AcDbEntity
  8
0
100
AcDbCircle
 10
-143.743156190887
 20
41.27553757454734
 30
0.0
 40
5.0
100
AcDbArc
 50
180.0
 51
270.0
  0
ARC
  5
142
330
2
100
AcDbEntity
  8
0
100
AcDbCircle
 10
-103.8186205050678
 20
81.27553757454689
 30
0.0
 40
36.81561599999999
100
AcDbArc
 50
206.3656725032168
 51
243.634327496789
  0
LINE
  5
143
102
{ACAD_REACTORS
330
32
102
}
330
2
100
AcDbEntity
  8
CEN
100
AcDbLine
 10
-103.766581782469
 20
81.32174080994673
 30
0.0
 11
-85.51154177558055
 21
37.25017564365316
 31
0.0
  0
ARC
  5
144
330
2
100
AcDbEntity
  8
0
100
AcDbCircle
 10
-73.58147058899795
 20
96.26281586264987
 30
0.0
 40
3.067967999999998
100
AcDbArc
 50
321.9486744806221
 51
26.36567250321681
  0
ARC
  5
145
330
2
100
AcDbEntity
  8
0
100
AcDbCircle
 10
-68.74967300178377
 20
92.48082661461058
 30
0.0
 40
3.067967999999998
100
AcDbArc
 50
141.9486744806222
 51
197.7198081527984
  0
ARC
  5
146
330
2
100
AcDbEntity
  8
0
100
AcDbCircle
 10
-73.58147058899795
 20
66.28825928644437
 30
0.0
 40
3.067967999999998
100
AcDbArc
 50
333.6343274967831
 51
38.05132551937779
  0
ARC
  5
147
330
2
100
AcDbEntity
  8
0
100
AcDbCircle
 10
-68.74967300178377
 20
70.0702485344832
 30
0.0
 40
3.067967999999998
100
AcDbArc
 50
162.2801918472015
 51
218.0513255193777
  0
ARC
  5
148
330
2
100
AcDbEntity
  8
0
100
AcDbCircle
 10
-92.61333146500419
 20
46.20659007126278
 30
0.0
 40
3.067967999999998
100
AcDbArc
 50
51.94867448061305
 51
107.719808152805
  0
ARC
  5
149
330
2
100
AcDbEntity
  8
0
100
AcDbCircle
 10
-88.83134221696492
 20
51.0383876584774
 30
0.0
 40
3.067967999999998
100
AcDbArc
 50
231.948674480613
 51
296.3656725032109
  0
ARC
  5
14B
330
2
100
AcDbEntity
  8
0
100
AcDbCircle
 10
-103.8186205050678
 20
81.27553757454689
 30
0.0
 40
36.81561599999999
100
AcDbArc
 50
296.3656725032109
 51
333.6343274967831
  0
ARC
  5
14C
330
2
100
AcDbEntity
  8
0
100
AcDbCircle
 10
-103.8186205050678
 20
81.27553757454689
 30
0.0
 40
33.74764799999999
100
AcDbArc
 50
342.2801918472015
 51
17.71980815279839
  0
ARC
  5
14D
330
2
100
AcDbEntity
  8
0
100
AcDbCircle
 10
-143.743156190887
 20
41.27553757454734
 30
0.0
 40
4.5
100
AcDbArc
 50
180.0
 51
270.0
  0
ARC
  5
14E
330
2
100
AcDbEntity
  8
0
100
AcDbCircle
 10
-63.74315619088702
 20
41.27553757454734
 30
0.0
 40
5.0
100
AcDbArc
 50
270.0
 51
0.0
  0
ARC
  5
14F
330
2
100
AcDbEntity
  8
0
100
AcDbCircle
 10
-63.74315619088702
 20
41.27553757454734
 30
0.0
 40
4.5
100
AcDbArc
 50
270.0
 51
0.0
  0
DIMENSION
  5
150
330
2
100
AcDbEntity
  8
0
100
AcDbDimension
  2
*D11
 10
-83.35039821847203
 20
-51.89681754654703
 30
0.0
 11
-128.350398218472
 21
-51.89681754654703
 31
0.0
 70
   160
 71
     5
 42
-1.0
  3
STANDARD
100
AcDbAlignedDimension
 13
-173.350398218472
 23
-70.26525510580133
 33
0.0
 14
-83.35039821847203
 24
-70.26525510580086
 34
0.0
100
AcDbRotatedDimension
  0
LINE
  5
15D
330
2
100
AcDbEntity
  8
0
100
AcDbLine
 10
-168.3503982184738
 20
-65.2224613470048
 30
0.0
 11
-88.35039821847386
 21
-65.2224613470048
 31
0.0
  0
LINE
  5
15E
330
2
100
AcDbEntity
  8
0
100
AcDbLine
 10
-168.3503982184738
 20
-65.72246134700481
 30
0.0
 11
-88.35039821847386
 21
-65.72246134700481
 31
0.0
  0
LWPOLYLINE
  5
15F
330
2
100
AcDbEntity
  8
3
100
AcDbPolyline
 90
        4
 70
     1
 43
0.0
 10
-134.6458934626061
 20
-51.2547012553432
 10
-131.345893462606
 20
-51.2547012553432
 10
-131.345893462606
 20
-47.75470125534321
 10
-134.6458934626061
 20
-47.75470125534321
  0
ARC
  5
161
330
2
100
AcDbEntity
  8
0
100
AcDbCircle
 10
-168.3503982184738
 20
-70.2224613470048
 30
0.0
 40
5.0
100
AcDbArc
 50
90.00000000000005
 51
180.0
  0
ARC
  5
162
330
2
100
AcDbEntity
  8
0
100
AcDbCircle
 10
-168.3503982184738
 20
-70.2224613470048
 30
0.0
 40
4.5
100
AcDbArc
 50
90.00000000000005
 51
180.0
  0
ARC
  5
163
330
2
100
AcDbEntity
  8
0
100
AcDbCircle
 10
-88.35039821847386
 20
-70.2224613470048
 30
0.0
 40
5.0
100
AcDbArc
 50
0.0
 51
90.00000000000005
  0
ARC
  5
164
330
2
100
AcDbEntity
  8
0
100
AcDbCircle
 10
-88.35039821847386
 20
-70.2224613470048
 30
0.0
 40
4.5
100
AcDbArc
 50
0.0
 51
90.00000000000005
  0
DIMENSION
  5
165
102
{ACAD_XDICTIONARY
360
166
102
}
102
{ACAD_REACTORS
330
167
102
}
330
2
100
AcDbEntity
  8
0
100
AcDbDimension
  2
*D10
 10
-26.8400138086263
 20
-105.2224613470043
 30
0.0
 11
-26.84001380862628
 21
-110.7224613470043
 31
0.0
 70
   160
  1
<>
 71
     5
 42
-1.0
  3
STANDARD
100
AcDbAlignedDimension
 13
-13.15491304455917
 23
-116.2224613470043
 33
0.0
 14
-13.15491304455917
 24
-105.2224613470043
 34
0.0
 50
90.0
100
AcDbRotatedDimension
  0
LINE
  5
174
330
2
100
AcDbEntity
  8
0
100
AcDbLine
 10
-13.15491304455917
 20
-105.2224613470043
 30
0.0
 11
-13.15491304455917
 21
-116.2224613470043
 31
0.0
  0
LINE
  5
175
330
2
100
AcDbEntity
  8
CEN
100
AcDbLine
 10
-180.9439975320424
 20
-110.2224613470043
 30
0.0
 11
-74.97042840725476
 21
-110.2224613470043
 31
0.0
  0
CIRCLE
  5
176
330
2
100
AcDbEntity
  8
0
100
AcDbCircle
 10
-128.4258625326547
 20
-110.2224613470043
 30
0.0
 40
3.198036349121024
  0
CIRCLE
  5
177
330
2
100
AcDbEntity
  8
0
100
AcDbCircle
 10
-128.4258625326547
 20
-110.2224613470043
 30
0.0
 40
4.235
  0
CIRCLE
  5
178
330
2
100
AcDbEntity
  8
0
100
AcDbCircle
 10
-128.1031239673511
 20
-110.2224613470043
 30
0.0
 40
20.0
  0
ARC
  5
179
330
2
100
AcDbEntity
  8
0
100
AcDbCircle
 10
-128.4258625326547
 20
-110.2224613470043
 30
0.0
 40
33.74764799999999
100
AcDbArc
 50
72.28019184719491
 51
107.719808152805
  0
ARC
  5
17A
330
2
100
AcDbEntity
  8
0
100
AcDbCircle
 10
-128.4258625326547
 20
-110.2224613470043
 30
0.0
 40
33.74764799999999
100
AcDbArc
 50
252.2801918471949
 51
287.7198081528051
  0
ARC
  5
17B
330
2
100
AcDbEntity
  8
0
100
AcDbCircle
 10
-143.4131408207576
 20
-79.98531143093487
 30
0.0
 40
3.067967999999998
100
AcDbArc
 50
51.94867448061305
 51
116.3656725032109
  0
ARC
  5
17C
330
2
100
AcDbEntity
  8
0
100
AcDbCircle
 10
-139.6311515727175
 20
-75.15351384372023
 30
0.0
 40
3.067967999999998
100
AcDbArc
 50
231.948674480613
 51
287.7198081528051
  0
ARC
  5
17D
330
2
100
AcDbEntity
  8
0
100
AcDbCircle
 10
-139.6311515727175
 20
-145.2914088502884
 30
0.0
 40
3.067967999999998
100
AcDbArc
 50
72.28019184719491
 51
128.0513255193869
  0
ARC
  5
17E
330
2
100
AcDbEntity
  8
0
100
AcDbCircle
 10
-143.4131408207576
 20
-140.4596112630738
 30
0.0
 40
3.067967999999998
100
AcDbArc
 50
243.634327496789
 51
308.0513255193868
  0
ARC
  5
17F
330
2
100
AcDbEntity
  8
0
100
AcDbCircle
 10
-158.6630124487237
 20
-95.2351830589014
 30
0.0
 40
3.067967999999998
100
AcDbArc
 50
153.6343274967831
 51
218.0513255193777
  0
ARC
  5
180
330
2
100
AcDbEntity
  8
0
100
AcDbCircle
 10
-163.4948100359388
 20
-99.01717230694069
 30
0.0
 40
3.067967999999998
100
AcDbArc
 50
342.2801918472015
 51
38.05132551937779
  0
ARC
  5
181
330
2
100
AcDbEntity
  8
0
100
AcDbCircle
 10
-158.6630124487237
 20
-125.2097396351073
 30
0.0
 40
3.067967999999998
100
AcDbArc
 50
141.9486744806222
 51
206.3656725032168
  0
ARC
  5
182
330
2
100
AcDbEntity
  8
0
100
AcDbCircle
 10
-163.4948100359388
 20
-121.427750387068
 30
0.0
 40
3.067967999999998
100
AcDbArc
 50
321.9486744806221
 51
17.71980815279839
  0
ARC
  5
183
330
2
100
AcDbEntity
  8
0
100
AcDbCircle
 10
-128.4258625326547
 20
-110.2224613470043
 30
0.0
 40
33.74764799999999
100
AcDbArc
 50
162.2801918472015
 51
197.7198081527984
  0
ARC
  5
184
330
2
100
AcDbEntity
  8
0
100
AcDbCircle
 10
-128.4258625326547
 20
-110.2224613470043
 30
0.0
 40
36.81561599999999
100
AcDbArc
 50
206.3656725032168
 51
243.634327496789
  0
ARC
  5
185
330
2
100
AcDbEntity
  8
0
100
AcDbCircle
 10
-128.4258625326547
 20
-110.2224613470043
 30
0.0
 40
36.81561599999999
100
AcDbArc
 50
116.3656725032109
 51
153.6343274967831
  0
ARC
  5
186
330
2
100
AcDbEntity
  8
0
100
AcDbCircle
 10
-98.18871261658479
 20
-95.2351830589014
 30
0.0
 40
3.067967999999998
100
AcDbArc
 50
321.9486744806221
 51
26.36567250321681
  0
ARC
  5
187
330
2
100
AcDbEntity
  8
0
100
AcDbCircle
 10
-93.35691502937059
 20
-99.01717230694069
 30
0.0
 40
3.067967999999998
100
AcDbArc
 50
141.9486744806222
 51
197.7198081527984
  0
ARC
  5
188
330
2
100
AcDbEntity
  8
0
100
AcDbCircle
 10
-113.4385842445517
 20
-79.98531143093487
 30
0.0
 40
3.067967999999998
100
AcDbArc
 50
63.63432749678904
 51
128.0513255193869
  0
ARC
  5
189
330
2
100
AcDbEntity
  8
0
100
AcDbCircle
 10
-117.220573492591
 20
-75.15351384372023
 30
0.0
 40
3.067967999999998
100
AcDbArc
 50
252.2801918471949
 51
308.0513255193868
  0
ARC
  5
18A
330
2
100
AcDbEntity
  8
0
100
AcDbCircle
 10
-128.4258625326547
 20
-110.2224613470043
 30
0.0
 40
36.81561599999999
100
AcDbArc
 50
26.36567250321681
 51
63.63432749678904
  0
ARC
  5
18B
330
2
100
AcDbEntity
  8
0
100
AcDbCircle
 10
-98.18871261658479
 20
-125.2097396351073
 30
0.0
 40
3.067967999999998
100
AcDbArc
 50
333.6343274967831
 51
38.05132551937779
  0
ARC
  5
18C
330
2
100
AcDbEntity
  8
0
100
AcDbCircle
 10
-93.35691502937059
 20
-121.427750387068
 30
0.0
 40
3.067967999999998
100
AcDbArc
 50
162.2801918472015
 51
218.0513255193777
  0
ARC
  5
18D
330
2
100
AcDbEntity
  8
0
100
AcDbCircle
 10
-117.220573492591
 20
-145.2914088502884
 30
0.0
 40
3.067967999999998
100
AcDbArc
 50
51.94867448061305
 51
107.719808152805
  0
ARC
  5
18E
330
2
100
AcDbEntity
  8
0
100
AcDbCircle
 10
-113.4385842445517
 20
-140.4596112630738
 30
0.0
 40
3.067967999999998
100
AcDbArc
 50
231.948674480613
 51
296.3656725032109
  0
ARC
  5
18F
330
2
100
AcDbEntity
  8
0
100
AcDbCircle
 10
-128.4258625326547
 20
-110.2224613470043
 30
0.0
 40
36.81561599999999
100
AcDbArc
 50
296.3656725032109
 51
333.6343274967831
  0
ARC
  5
190
330
2
100
AcDbEntity
  8
0
100
AcDbCircle
 10
-128.4258625326547
 20
-110.2224613470043
 30
0.0
 40
33.74764799999999
100
AcDbArc
 50
342.2801918472015
 51
17.71980815279839
  0
DIMENSION
  5
191
102
{ACAD_XDICTIONARY
360
192
102
}
102
{ACAD_REACTORS
330
193
102
}
330
2
100
AcDbEntity
  8
0
100
AcDbDimension
  2
*D9
 10
-172.7739748768323
 20
-137.3747159772948
 30
0.0
 11
-68.4218918471921
 21
-73.48486407937072
 31
0.0
 70
   163
  1
{\f??|b0|i0|c0|p49;%%C104%%P0.5}
 71
     5
 42
-1.0
  3
STANDARD
100
AcDbDiametricDimension
 15
-84.07775018847656
 25
-83.07020671671351
 35
0.0
 40
0.0
  0
CIRCLE
  5
19F
102
{ACAD_REACTORS
330
59
102
}
330
2
100
AcDbEntity
  8
0
100
AcDbCircle
 10
-91.55620502204328
 20
-73.55328689419912
 30
0.0
 40
3.25
  0
ARC
  5
1A0
102
{ACAD_REACTORS
330
193
102
}
330
2
100
AcDbEntity
  8
0
  6
CENTER
 62
     1
100
AcDbCircle
 10
-128.4258625326547
 20
-110.2224613470043
 30
0.0
 40
52.0
100
AcDbArc
 50
25.88455172623838
 51
59.10306072697585
  0
LINE
  5
1A1
330
2
100
AcDbEntity
  8
0
  6
CENTER
 62
     1
100
AcDbLine
 10
-87.08087015198362
 20
-69.10882449959945
 30
0.0
 11
-96.08642324686387
 21
-78.05225403836629
 31
0.0
  0
CIRCLE
  5
1A2
330
2
100
AcDbEntity
  8
0
100
AcDbCircle
 10
-165.1775764537851
 20
-73.43507867496009
 30
0.0
 40
3.25
  0
LINE
  5
1A3
330
2
100
AcDbEntity
  8
0
  6
CENTER
 62
     1
100
AcDbLine
 10
-169.6386160172641
 20
-68.97626782572388
 30
0.0
 11
-160.6618288463114
 21
-77.94857023631085
 31
0.0
  0
ARC
  5
1A4
330
2
100
AcDbEntity
  8
0
  6
CENTER
 62
     1
100
AcDbCircle
 10
-128.4258625326547
 20
-110.2224613470043
 30
0.0
 40
52.0
100
AcDbArc
 50
120.7129485074549
 51
153.9314575081924
  0
CIRCLE
  5
1A5
102
{ACAD_REACTORS
330
44
102
}
330
2
100
AcDbEntity
  8
0
100
AcDbCircle
 10
-66.94896299445645
 20
117.9447120273521
 30
0.0
 40
3.25
  0
LINE
  5
1A6
330
2
100
AcDbEntity
  8
0
  6
CENTER
 62
     1
100
AcDbLine
 10
-62.47362812439678
 20
122.3891744219517
 30
0.0
 11
-71.47918121927705
 21
113.4457448831853
 31
0.0
  0
DIMENSION
  5
1A7
330
2
100
AcDbEntity
  8
0
100
AcDbDimension
  2
*D8
 10
-58.7431561908852
 20
139.6011813750042
 30
0.0
 11
-103.7431561908852
 21
139.6011813750042
 31
0.0
 70
   160
 71
     5
 42
-1.0
  3
STANDARD
100
AcDbAlignedDimension
 13
-148.7431561908852
 23
121.2327438157499
 33
0.0
 14
-58.7431561908852
 24
121.2327438157503
 34
0.0
100
AcDbRotatedDimension
  0
LINE
  5
1B4
330
2
100
AcDbEntity
  8
0
100
AcDbLine
 10
-143.743156190887
 20
126.2755375745464
 30
0.0
 11
-63.74315619088702
 21
126.2755375745464
 31
0.0
  0
LINE
  5
1B5
330
2
100
AcDbEntity
  8
0
100
AcDbLine
 10
-143.743156190887
 20
125.7755375745464
 30
0.0
 11
-63.74315619088702
 21
125.7755375745464
 31
0.0
  0
ARC
  5
1B6
330
2
100
AcDbEntity
  8
0
100
AcDbCircle
 10
-103.8186205050678
 20
81.27553757454689
 30
0.0
 40
33.74764799999999
100
AcDbArc
 50
72.28019184719491
 51
107.719808152805
  0
CIRCLE
  5
1B7
330
2
100
AcDbEntity
  8
0
100
AcDbCircle
 10
-140.5703344261983
 20
118.0629202465911
 30
0.0
 40
3.25
  0
LINE
  5
1B8
330
2
100
AcDbEntity
  8
0
  6
CENTER
 62
     1
100
AcDbLine
 10
-145.0313739896773
 20
122.5217310958273
 30
0.0
 11
-136.0545868187245
 21
113.5494286852404
 31
0.0
  0
LWPOLYLINE
  5
1B9
330
2
100
AcDbEntity
  8
3
100
AcDbPolyline
 90
        4
 70
     1
 43
0.0
 10
-110.0386514350193
 20
140.243297666208
 10
-106.7386514350191
 20
140.243297666208
 10
-106.7386514350191
 20
143.743297666208
 10
-110.0386514350193
 20
143.743297666208
  0
ARC
  5
1BA
330
2
100
AcDbEntity
  8
0
100
AcDbCircle
 10
-118.8058987931708
 20
111.5126874906163
 30
0.0
 40
3.067967999999998
100
AcDbArc
 50
51.94867448061305
 51
116.3656725032109
  0
ARC
  5
1BB
330
2
100
AcDbEntity
  8
0
100
AcDbCircle
 10
-115.0239095451306
 20
116.3444850778309
 30
0.0
 40
3.067967999999998
100
AcDbArc
 50
231.948674480613
 51
287.7198081528051
  0
ARC
  5
1BC
330
2
100
AcDbEntity
  8
0
100
AcDbCircle
 10
-88.83134221696492
 20
111.5126874906163
 30
0.0
 40
3.067967999999998
100
AcDbArc
 50
63.63432749678904
 51
128.0513255193869
  0
ARC
  5
1BD
330
2
100
AcDbEntity
  8
0
100
AcDbCircle
 10
-92.61333146500419
 20
116.3444850778309
 30
0.0
 40
3.067967999999998
100
AcDbArc
 50
252.2801918471949
 51
308.0513255193868
  0
ARC
  5
1BE
330
2
100
AcDbEntity
  8
0
100
AcDbCircle
 10
-143.743156190887
 20
121.2755375745464
 30
0.0
 40
5.0
100
AcDbArc
 50
90.00000000000005
 51
180.0
  0
ARC
  5
1BF
330
2
100
AcDbEntity
  8
0
100
AcDbCircle
 10
-143.743156190887
 20
121.2755375745464
 30
0.0
 40
4.5
100
AcDbArc
 50
90.00000000000005
 51
180.0
  0
ARC
  5
1C0
330
2
100
AcDbEntity
  8
0
100
AcDbCircle
 10
-63.74315619088702
 20
121.2755375745464
 30
0.0
 40
5.0
100
AcDbArc
 50
0.0
 51
90.00000000000005
  0
ARC
  5
1C1
330
2
100
AcDbEntity
  8
0
100
AcDbCircle
 10
-63.74315619088702
 20
121.2755375745464
 30
0.0
 40
4.5
100
AcDbArc
 50
0.0
 51
90.00000000000005
  0
DIMENSION
  5
1C2
330
2
100
AcDbEntity
  8
0
100
AcDbDimension
  2
*D7
 10
197.4429769503603
 20
36.27553757454688
 30
0.0
 11
197.4429769503603
 21
81.27553757454689
 31
0.0
 70
   160
  1
%%C<>
 71
     5
 42
-1.0
  3
STANDARD
100
AcDbAlignedDimension
 13
171.8450869554408
 23
126.2755375745473
 33
0.0
 14
171.8450869554408
 24
36.27553757454688
 34
0.0
 50
90.0
100
AcDbRotatedDimension
  0
LINE
  5
1CF
330
2
100
AcDbEntity
  8
0
100
AcDbLine
 10
153.8450869554417
 20
126.2755375745473
 30
0.0
 11
153.8450869554408
 21
36.27553757454688
 31
0.0
  0
LINE
  5
1D1
330
2
100
AcDbEntity
  8
0
100
AcDbLine
 10
30.44508695544118
 20
126.2755375745473
 30
0.0
 11
30.445086955441
 21
108.7755375745468
 31
0.0
  0
LINE
  5
1D2
102
{ACAD_REACTORS
330
C5
102
}
330
2
100
AcDbEntity
  8
0
100
AcDbLine
 10
21.84508695544082
 20
122.7755375745468
 30
0.0
 11
21.84508695544082
 21
39.77553757454689
 31
0.0
  0
LINE
  5
1D3
330
2
100
AcDbEntity
  8
0
100
AcDbLine
 10
23.84508695544082
 20
126.2755375745473
 30
0.0
 11
23.84508695544082
 21
36.27553757454643
 31
0.0
  0
DIMENSION
  5
1D4
330
2
100
AcDbEntity
  8
0
100
AcDbDimension
  2
*D6
 10
23.84508695544082
 20
159.4602964824566
 30
0.0
 11
13.34508695544082
 21
159.4602964824566
 31
0.0
 70
   160
 71
     5
 42
-1.0
  3
STANDARD
100
AcDbAlignedDimension
 13
2.84508695544082
 23
85.92553757454698
 33
0.0
 14
23.84508695544082
 24
126.2755375745473
 34
0.0
100
AcDbRotatedDimension
  0
DIMENSION
  5
1E1
330
2
100
AcDbEntity
  8
0
100
AcDbDimension
  2
*D5
 10
178.8450869554408
 20
-26.13447528051983
 30
0.0
 11
101.3450869554408
 21
-26.13447528051983
 31
0.0
 70
   160
 71
     5
 42
155.0
  3
STANDARD
100
AcDbAlignedDimension
 13
23.84508695544082
 23
-50.12246134700399
 33
0.0
 14
178.8450869554408
 24
-72.72246134700434
 34
0.0
100
AcDbRotatedDimension
  0
LINE
  5
1EF
330
2
100
AcDbEntity
  8
0
100
AcDbLine
 10
153.8450869554408
 20
-130.6263859487644
 30
0.0
 11
171.8450869554408
 21
-130.6263859487644
 31
0.0
  0
LINE
  5
1F0
330
2
100
AcDbEntity
  8
0
100
AcDbLine
 10
153.8450869554408
 20
-89.81853674524382
 30
0.0
 11
171.8450869554408
 21
-89.81853674524382
 31
0.0
  0
ARC
  5
1F2
330
2
100
AcDbEntity
  8
0
100
AcDbCircle
 10
171.8450869554408
 20
-123.6263859487644
 30
0.0
 40
7.0
100
AcDbArc
 50
269.9999999999998
 51
359.9999999999998
  0
ARC
  5
1F3
330
2
100
AcDbEntity
  8
0
100
AcDbCircle
 10
171.8450869554408
 20
-137.6263859487644
 30
0.0
 40
7.0
100
AcDbArc
 50
359.9999999999997
 51
89.99999999999984
  0
LINE
  5
1F5
330
2
100
AcDbEntity
  8
0
100
AcDbLine
 10
160.994955159892
 20
-109.3674383352972
 30
0.0
 11
159.2885479325631
 21
-111.0738455626256
 31
0.0
  0
LINE
  5
1F6
330
2
100
AcDbEntity
  8
0
100
AcDbLine
 10
159.2849091364778
 20
-109.3674383352972
 30
0.0
 11
160.9913163638057
 21
-111.0738455626256
 31
0.0
  0
CIRCLE
  5
1F7
330
2
100
AcDbEntity
  8
0
100
AcDbCircle
 10
160.1399321481849
 20
-110.2224613470043
 30
0.0
 40
2.147836038934201
  0
ARC
  5
1F8
330
2
100
AcDbEntity
  8
0
100
AcDbCircle
 10
171.8450869554408
 20
-96.81853674524383
 30
0.0
 40
7.0
100
AcDbArc
 50
359.9999999999998
 51
90.0
  0
ARC
  5
1F9
330
2
100
AcDbEntity
  8
0
100
AcDbCircle
 10
171.8450869554408
 20
-82.81853674524382
 30
0.0
 40
7.0
100
AcDbArc
 50
270.0
 51
359.9999999999998
  0
LINE
  5
1FA
330
2
100
AcDbEntity
  8
CEN
100
AcDbLine
 10
186.2083540447729
 20
81.27553757454689
 30
0.0
 11
-4.648423592056132
 21
81.27553757454689
 31
0.0
  0
ARC
  5
1FB
330
2
100
AcDbEntity
  8
0
100
AcDbCircle
 10
158.3121269043513
 20
-64.33352596135772
 30
0.0
 40
1.0
100
AcDbArc
 50
89.99999999999991
 51
179.9999999999998
  0
LINE
  5
1FC
330
2
100
AcDbEntity
  8
0
100
AcDbLine
 10
157.3121269043513
 20
-65.22246134700434
 30
0.0
 11
157.3121269043513
 21
-64.33352596135772
 31
0.0
  0
ARC
  5
1FD
330
2
100
AcDbEntity
  8
0
100
AcDbCircle
 10
171.8450869554408
 20
-72.22246134700434
 30
0.0
 40
7.0
100
AcDbArc
 50
359.9999999999998
 51
90.0000000000001
  0
LINE
  5
1FE
330
2
100
AcDbEntity
  8
0
100
AcDbLine
 10
158.3121269043513
 20
-63.33352596135775
 30
0.0
 11
160.7454463768717
 21
-63.33352596135775
 31
0.0
  0
ARC
  5
1FF
330
2
100
AcDbEntity
  8
0
100
AcDbCircle
 10
160.7454463768717
 20
-64.33352596135772
 30
0.0
 40
1.0
100
AcDbArc
 50
359.9999999999998
 51
90.00000000000005
  0
LINE
  5
200
330
2
100
AcDbEntity
  8
0
100
AcDbLine
 10
161.7454463768717
 20
-64.33352596135772
 30
0.0
 11
161.7454463768717
 21
-65.22246134700434
 31
0.0
  0
ARC
  5
204
330
2
100
AcDbEntity
  8
0
100
AcDbCircle
 10
171.8450869554408
 20
43.27553757454689
 30
0.0
 40
7.0
100
AcDbArc
 50
269.9999999999998
 51
359.9999999999997
  0
LINE
  5
206
330
2
100
AcDbEntity
  8
0
100
AcDbLine
 10
157.6227035822121
 20
36.27553757454688
 30
0.0
 11
157.6227035822121
 21
35.38660218890072
 31
0.0
  0
LINE
  5
207
330
2
100
AcDbEntity
  8
0
100
AcDbLine
 10
162.0560230547335
 20
35.38660218890072
 30
0.0
 11
162.0560230547325
 21
36.27553757454688
 31
0.0
  0
ARC
  5
208
330
2
100
AcDbEntity
  8
0
100
AcDbCircle
 10
158.6227035822121
 20
35.38660218890072
 30
0.0
 40
1.0
100
AcDbArc
 50
180.0
 51
270.0
  0
ARC
  5
209
330
2
100
AcDbEntity
  8
0
100
AcDbCircle
 10
161.0560230547334
 20
35.38660218890072
 30
0.0
 40
1.0
100
AcDbArc
 50
269.9999999999998
 51
0.0
  0
LINE
  5
20A
330
2
100
AcDbEntity
  8
0
100
AcDbLine
 10
158.6227035822121
 20
34.38660218890072
 30
0.0
 11
161.0560230547334
 21
34.38660218890072
 31
0.0
  0
LINE
  5
20B
330
2
100
AcDbEntity
  8
0
100
AcDbLine
 10
153.8450869554408
 20
60.87161297278635
 30
0.0
 11
171.8450869554408
 21
60.87161297278635
 31
0.0
  0
LINE
  5
20C
330
2
100
AcDbEntity
  8
0
100
AcDbLine
 10
178.8450869554408
 20
119.2755375745473
 30
0.0
 11
178.8450869554408
 21
43.27553757454689
 31
0.0
  0
ARC
  5
20D
330
2
100
AcDbEntity
  8
0
100
AcDbCircle
 10
171.8450869554408
 20
53.87161297278635
 30
0.0
 40
7.0
100
AcDbArc
 50
359.9999999999997
 51
89.99999999999984
  0
ARC
  5
20E
330
2
100
AcDbEntity
  8
0
100
AcDbCircle
 10
171.8450869554408
 20
67.87161297278635
 30
0.0
 40
7.0
100
AcDbArc
 50
269.9999999999998
 51
359.9999999999998
  0
ARC
  5
20F
330
2
100
AcDbEntity
  8
0
100
AcDbCircle
 10
171.8450869554408
 20
94.67946217630743
 30
0.0
 40
7.0
100
AcDbArc
 50
359.9999999999998
 51
90.0
  0
LINE
  5
210
330
2
100
AcDbEntity
  8
0
100
AcDbLine
 10
160.994955159892
 20
82.13056058625443
 30
0.0
 11
159.2885479325631
 21
80.42415335892565
 31
0.0
  0
LINE
  5
211
330
2
100
AcDbEntity
  8
0
100
AcDbLine
 10
159.2849091364769
 20
82.13056058625443
 30
0.0
 11
160.9913163638066
 21
80.42415335892565
 31
0.0
  0
CIRCLE
  5
212
330
2
100
AcDbEntity
  8
0
100
AcDbCircle
 10
160.1399321481849
 20
81.27553757454689
 30
0.0
 40
2.147836038934201
  0
LINE
  5
213
330
2
100
AcDbEntity
  8
0
100
AcDbLine
 10
153.8450869554408
 20
101.6794621763074
 30
0.0
 11
171.8450869554408
 21
101.6794621763074
 31
0.0
  0
ARC
  5
214
330
2
100
AcDbEntity
  8
0
100
AcDbCircle
 10
171.8450869554408
 20
108.6794621763074
 30
0.0
 40
7.0
100
AcDbArc
 50
270.0
 51
359.9999999999998
  0
LINE
  5
216
330
2
100
AcDbEntity
  8
0
100
AcDbLine
 10
91.94508695544028
 20
53.77553757454688
 30
0.0
 11
30.44508695544027
 21
53.77553757454688
 31
0.0
  0
LINE
  5
217
330
2
100
AcDbEntity
  8
0
100
AcDbLine
 10
91.9450869554412
 20
108.7755375745468
 30
0.0
 11
30.44508695544027
 21
108.7755375745468
 31
0.0
  0
LINE
  5
218
330
2
100
AcDbEntity
  8
0
 62
   123
100
AcDbLine
 10
43.1187852046787
 20
1.552383655385709
 30
0.0
 11
114.2694954097869
 21
1.552383655385709
 31
0.0
  0
LINE
  5
219
330
2
100
AcDbEntity
  8
0
100
AcDbLine
 10
30.44508695544027
 20
45.37680023301755
 30
0.0
 11
31.34508695544082
 21
45.37680023301755
 31
0.0
  0
ARC
  5
21A
330
2
100
AcDbEntity
  8
0
100
AcDbCircle
 10
72.14780895544027
 20
35.18689157454718
 30
0.0
 40
36.555792
100
AcDbArc
 50
179.8610604128478
 51
213.8176429999978
  0
ARC
  5
21B
330
2
100
AcDbEntity
  8
0
100
AcDbCircle
 10
41.05812195544057
 20
14.74570357454695
 30
0.0
 40
0.7499080000000001
100
AcDbArc
 50
62.66289500000094
 51
182.8344229999968
  0
ARC
  5
21C
330
2
100
AcDbEntity
  8
0
100
AcDbCircle
 10
72.14780895544027
 20
35.18689157454718
 30
0.0
 40
37.855792
100
AcDbArc
 50
212.7486590000019
 51
219.5987459999967
  0
ARC
  5
21D
330
2
100
AcDbEntity
  8
0
100
AcDbCircle
 10
72.14780895544027
 20
35.18689157454718
 30
0.0
 40
39.15579199999999
100
AcDbArc
 50
179.8702869999972
 51
212.7486590000019
  0
ARC
  5
220
330
2
100
AcDbEntity
  8
0
100
AcDbCircle
 10
39.56014095544015
 20
14.67153757454707
 30
0.0
 40
0.7499080000000001
100
AcDbArc
 50
242.6628950000009
 51
2.834422999996808
  0
LINE
  5
223
330
2
100
AcDbEntity
  8
0
100
AcDbLine
 10
40.84508695544082
 20
36.27553757454688
 30
0.0
 11
40.84508695544082
 21
35.77553757454689
 31
0.0
  0
LINE
  5
224
330
2
100
AcDbEntity
  8
0
100
AcDbLine
 10
30.84508695544082
 20
36.27553757454688
 30
0.0
 11
30.84508695544082
 21
35.77553757454689
 31
0.0
  0
LINE
  5
225
330
2
100
AcDbEntity
  8
0
100
AcDbLine
 10
30.44508695544027
 20
37.67680023301772
 30
0.0
 11
31.34508695544082
 21
37.67680023301772
 31
0.0
  0
LINE
  5
226
330
2
100
AcDbEntity
  8
0
100
AcDbLine
 10
40.34508695544082
 20
35.27553757454688
 30
0.0
 11
31.34508695544082
 21
35.27553757454688
 31
0.0
  0
ARC
  5
227
330
2
100
AcDbEntity
  8
0
100
AcDbCircle
 10
31.34508695544082
 20
35.77553757454689
 30
0.0
 40
0.5
100
AcDbArc
 50
180.0
 51
270.0
  0
ARC
  5
228
330
2
100
AcDbEntity
  8
0
100
AcDbCircle
 10
40.34508695544082
 20
35.77553757454689
 30
0.0
 40
0.5
100
AcDbArc
 50
270.0
 51
0.0
  0
ARC
  5
229
330
2
100
AcDbEntity
  8
0
100
AcDbCircle
 10
42.12115295544026
 20
15.50787057454726
 30
0.0
 40
0.7499080000000001
100
AcDbArc
 50
242.6628950000009
 51
2.834422999996808
  0
ARC
  5
22A
330
2
100
AcDbEntity
  8
0
100
AcDbCircle
 10
72.14780895544027
 20
35.18689157454718
 30
0.0
 40
33.955792
100
AcDbArc
 50
179.8504230000004
 51
213.8981229999992
  0
ARC
  5
22B
330
2
100
AcDbEntity
  8
0
100
AcDbCircle
 10
43.61913495544103
 20
15.58203657454714
 30
0.0
 40
0.7499080000000001
100
AcDbArc
 50
62.66289500000094
 51
182.8344229999968
  0
ARC
  5
22C
330
2
100
AcDbEntity
  8
0
100
AcDbCircle
 10
43.24135595544065
 20
11.75981857454689
 30
0.0
 40
0.7499080000000001
100
AcDbArc
 50
249.5129820000002
 51
9.684509999999278
  0
ARC
  5
22D
330
2
100
AcDbEntity
  8
0
100
AcDbCircle
 10
44.71979795544029
 20
12.0121215745471
 30
0.0
 40
0.7499080000000001
100
AcDbArc
 50
69.51298200000024
 51
189.6845099999992
  0
ARC
  5
22E
330
2
100
AcDbEntity
  8
0
100
AcDbCircle
 10
72.14780895544027
 20
35.18689157454718
 30
0.0
 40
35.255792
100
AcDbArc
 50
213.8564239999995
 51
219.5987459999967
  0
LINE
  5
22F
330
2
100
AcDbEntity
  8
0
100
AcDbLine
 10
31.34508695544082
 20
45.37680023301755
 30
0.0
 11
31.34508695544082
 21
37.67680023301772
 31
0.0
  0
ARC
  5
232
330
2
100
AcDbEntity
  8
0
100
AcDbCircle
 10
16.88827386627326
 20
112.8417684635669
 30
0.0
 40
26.81626566475106
100
AcDbArc
 50
269.9077265708259
 51
280.6520097392902
  0
ARC
  5
233
330
2
100
AcDbEntity
  8
0
100
AcDbCircle
 10
16.88827386627053
 20
49.70930668549682
 30
0.0
 40
26.81626566478072
100
AcDbArc
 50
79.34799026071575
 51
90.09227342916824
  0
LINE
  5
234
330
2
100
AcDbEntity
  8
2
100
AcDbLine
 10
16.84508695544082
 20
86.02553757454689
 30
0.0
 11
16.84508695544082
 21
76.52553757454689
 31
0.0
  0
LINE
  5
236
330
2
100
AcDbEntity
  8
0
100
AcDbLine
 10
23.84508695544082
 20
39.77553757454689
 30
0.0
 11
21.84508695544082
 21
39.77553757454689
 31
0.0
  0
LINE
  5
237
330
2
100
AcDbEntity
  8
0
100
AcDbLine
 10
23.84508695544082
 20
36.27553757454643
 30
0.0
 11
171.8450869554408
 21
36.27553757454688
 31
0.0
  0
LINE
  5
238
330
2
100
AcDbEntity
  8
0
100
AcDbLine
 10
91.94508695544028
 20
108.7755375745468
 30
0.0
 11
91.94508695544028
 21
53.77553757454688
 31
0.0
  0
DIMENSION
  5
239
102
{ACAD_XDICTIONARY
360
23A
102
}
102
{ACAD_REACTORS
330
23B
102
}
330
2
100
AcDbEntity
  8
0
100
AcDbDimension
  2
*D4
 10
31.34508695544082
 20
-39.93441341714969
 30
0.0
 11
27.59508695544082
 21
-39.93441341714969
 31
0.0
 70
   160
 71
     5
 42
-1.0
  3
STANDARD
100
AcDbAlignedDimension
 13
23.84508695544082
 23
-66.01412801367087
 33
0.0
 14
31.34508695544082
 24
-66.62372400547521
 34
0.0
100
AcDbRotatedDimension
  0
LINE
  5
24A
330
2
100
AcDbEntity
  8
0
100
AcDbLine
 10
23.84508695544082
 20
-65.2224613470039
 30
0.0
 11
171.8450869554408
 21
-65.22246134700434
 31
0.0
  0
LINE
  5
24B
102
{ACAD_REACTORS
330
23B
102
}
330
2
100
AcDbEntity
  8
0
100
AcDbLine
 10
30.44508695544027
 20
-66.62372400547521
 30
0.0
 11
31.34508695544082
 21
-66.62372400547521
 31
0.0
  0
LINE
  5
24C
330
2
100
AcDbEntity
  8
0
100
AcDbLine
 10
23.84508695544082
 20
-68.72246134700436
 30
0.0
 11
21.84508695544082
 21
-68.72246134700436
 31
0.0
  0
LINE
  5
24D
330
2
100
AcDbEntity
  8
0
100
AcDbLine
 10
30.44508695544027
 20
-74.32372400547501
 30
0.0
 11
31.34508695544082
 21
-74.32372400547501
 31
0.0
  0
LINE
  5
24E
330
2
100
AcDbEntity
  8
0
100
AcDbLine
 10
31.34508695544082
 20
-74.32372400547501
 30
0.0
 11
31.34508695544082
 21
-66.62372400547521
 31
0.0
  0
LINE
  5
24F
330
2
100
AcDbEntity
  8
2
100
AcDbLine
 10
3.84508695544082
 20
86.92553757454698
 30
0.0
 11
3.84508695544082
 21
75.62553757454679
 31
0.0
  0
LINE
  5
250
330
2
100
AcDbEntity
  8
0
100
AcDbLine
 10
2.84508695544082
 20
85.92553757454698
 30
0.0
 11
2.84508695544082
 21
76.6255375745468
 31
0.0
  0
LINE
  5
251
330
2
100
AcDbEntity
  8
0
100
AcDbLine
 10
2.84508695544082
 20
76.6255375745468
 30
0.0
 11
3.84508695544082
 21
75.62553757454679
 31
0.0
  0
LINE
  5
252
330
2
100
AcDbEntity
  8
0
100
AcDbLine
 10
2.84508695544082
 20
85.92553757454698
 30
0.0
 11
3.84508695544082
 21
86.92553757454698
 31
0.0
  0
LINE
  5
255
330
2
100
AcDbEntity
  8
0
100
AcDbLine
 10
3.84508695544082
 20
86.92553757454698
 30
0.0
 11
21.84508695544082
 21
86.92553757454698
 31
0.0
  0
LINE
  5
256
330
2
100
AcDbEntity
  8
0
100
AcDbLine
 10
3.84508695544082
 20
86.02553757454689
 30
0.0
 11
16.84508695544082
 21
86.02553757454689
 31
0.0
  0
LINE
  5
257
330
2
100
AcDbEntity
  8
0
100
AcDbLine
 10
3.84508695544082
 20
75.62553757454679
 30
0.0
 11
21.84508695544082
 21
75.62553757454679
 31
0.0
  0
LINE
  5
258
330
2
100
AcDbEntity
  8
0
100
AcDbLine
 10
3.84508695544082
 20
76.52553757454689
 30
0.0
 11
16.84508695544082
 21
76.52553757454689
 31
0.0
  0
LINE
  5
259
330
2
100
AcDbEntity
  8
2
100
AcDbLine
 10
16.84508695544082
 20
84.87416767823061
 30
0.0
 11
3.84508695544082
 21
78.30680836619876
 31
0.0
  0
LINE
  5
25A
330
2
100
AcDbEntity
  8
2
100
AcDbLine
 10
16.84508695544082
 20
83.89562695155836
 30
0.0
 11
3.84508695544082
 21
77.01553624371536
 31
0.0
  0
LINE
  5
25B
330
2
100
AcDbEntity
  8
CEN
 48
0.6
100
AcDbLine
 10
1.284255033795488
 20
86.41503757454666
 30
0.0
 11
24.84508695544082
 21
86.41503757454666
 31
0.0
  0
LINE
  5
25C
330
2
100
AcDbEntity
  8
2
100
AcDbLine
 10
16.84508695544082
 20
82.73043745889706
 30
0.0
 11
4.942539118342209
 21
76.52553757454689
 31
0.0
  0
LINE
  5
25D
330
2
100
AcDbEntity
  8
CEN
 48
0.6
100
AcDbLine
 10
1.090809808084485
 20
76.1360375745471
 30
0.0
 11
24.84508695544082
 21
76.1360375745471
 31
0.0
  0
DIMENSION
  5
25E
330
2
100
AcDbEntity
  8
0
100
AcDbDimension
  2
*D3
 10
23.84508695544082
 20
-51.17427071541033
 30
0.0
 11
22.84508695544082
 21
-51.17427071541033
 31
0.0
 70
   160
 71
     5
 42
-1.0
  3
STANDARD
100
AcDbAlignedDimension
 13
21.84508695544082
 23
-68.72246134700436
 33
0.0
 14
23.84508695544082
 24
-65.2224613470039
 34
0.0
100
AcDbRotatedDimension
  0
LINE
  5
26D
330
2
100
AcDbEntity
  8
0
100
AcDbLine
 10
91.9450869554412
 20
-82.72246134700436
 30
0.0
 11
30.44508695544118
 21
-82.72246134700436
 31
0.0
  0
LINE
  5
26E
330
2
100
AcDbEntity
  8
0
100
AcDbLine
 10
91.9450869554412
 20
-137.7224613470043
 30
0.0
 11
30.44508695544027
 21
-137.7224613470043
 31
0.0
  0
LINE
  5
26F
330
2
100
AcDbEntity
  8
0
100
AcDbLine
 10
91.9450869554412
 20
-82.72246134700436
 30
0.0
 11
91.9450869554412
 21
-137.7224613470043
 31
0.0
  0
LINE
  5
270
330
2
100
AcDbEntity
  8
0
100
AcDbLine
 10
16.84508695544082
 20
-104.2224613470043
 30
0.0
 11
16.84508695544082
 21
-105.2224613470043
 31
0.0
  0
LINE
  5
271
102
{ACAD_REACTORS
330
D4
330
E7
102
}
330
2
100
AcDbEntity
  8
CL
  6
ByBlock
 62
     0
100
AcDbLine
 10
21.84508695544082
 20
-104.2224613470043
 30
0.0
 11
16.84508695544082
 21
-104.2224613470043
 31
0.0
  0
LINE
  5
272
330
2
100
AcDbEntity
  8
0
100
AcDbLine
 10
30.44508695544027
 20
-146.1211986885337
 30
0.0
 11
31.34508695544082
 21
-146.1211986885337
 31
0.0
  0
DIMENSION
  5
273
330
2
100
AcDbEntity
  8
0
100
AcDbDimension
  2
*D2
 10
178.8450869554408
 20
159.4602964824566
 30
0.0
 11
101.3450869554408
 21
159.4602964824566
 31
0.0
 70
   160
 71
     5
 42
155.0
  3
STANDARD
100
AcDbAlignedDimension
 13
23.84508695544082
 23
141.3755375745467
 33
0.0
 14
178.8450869554408
 24
118.7755375745473
 34
0.0
100
AcDbRotatedDimension
  0
LINE
  5
280
330
2
100
AcDbEntity
  8
0
100
AcDbLine
 10
157.622703582213
 20
126.2755375745473
 30
0.0
 11
157.622703582213
 21
127.164472960193
 31
0.0
  0
LINE
  5
281
330
2
100
AcDbEntity
  8
0
100
AcDbLine
 10
162.0560230547335
 20
127.164472960193
 30
0.0
 11
162.0560230547335
 21
126.2755375745473
 31
0.0
  0
LINE
  5
282
330
2
100
AcDbEntity
  8
0
100
AcDbLine
 10
158.622703582213
 20
128.164472960193
 30
0.0
 11
161.0560230547334
 21
128.164472960193
 31
0.0
  0
ARC
  5
283
330
2
100
AcDbEntity
  8
0
100
AcDbCircle
 10
158.622703582213
 20
127.164472960193
 30
0.0
 40
1.0
100
AcDbArc
 50
89.99999999999991
 51
179.9999999999998
  0
ARC
  5
284
330
2
100
AcDbEntity
  8
0
100
AcDbCircle
 10
161.0560230547334
 20
127.164472960193
 30
0.0
 40
1.0
100
AcDbArc
 50
359.9999999999998
 51
90.00000000000005
  0
ARC
  5
285
330
2
100
AcDbEntity
  8
0
100
AcDbCircle
 10
171.8450869554408
 20
119.2755375745473
 30
0.0
 40
7.0
100
AcDbArc
 50
359.9999999999998
 51
90.0000000000001
  0
DIMENSION
  5
287
102
{ACAD_XDICTIONARY
360
288
102
}
102
{ACAD_REACTORS
330
289
102
}
330
2
100
AcDbEntity
  8
0
100
AcDbDimension
  2
*D1
 10
31.34508695544082
 20
148.6068481491433
 30
0.0
 11
27.59508695544082
 21
148.6068481491433
 31
0.0
 70
   160
 71
     5
 42
-1.0
  3
STANDARD
100
AcDbAlignedDimension
 13
23.84508695544082
 23
125.4838709078803
 33
0.0
 14
31.34508695544082
 24
124.874274916076
 34
0.0
100
AcDbRotatedDimension
  0
LINE
  5
298
102
{ACAD_REACTORS
330
289
102
}
330
2
100
AcDbEntity
  8
0
100
AcDbLine
 10
30.44508695544027
 20
124.874274916076
 30
0.0
 11
31.34508695544082
 21
124.874274916076
 31
0.0
  0
LINE
  5
299
330
2
100
AcDbEntity
  8
0
100
AcDbLine
 10
30.44508695544027
 20
117.1742749160762
 30
0.0
 11
31.34508695544082
 21
117.1742749160762
 31
0.0
  0
LINE
  5
29A
330
2
100
AcDbEntity
  8
0
100
AcDbLine
 10
31.34508695544082
 20
117.1742749160762
 30
0.0
 11
31.34508695544082
 21
124.874274916076
 31
0.0
  0
LINE
  5
29B
330
2
100
AcDbEntity
  8
0
100
AcDbLine
 10
23.84508695544082
 20
122.7755375745468
 30
0.0
 11
21.84508695544082
 21
122.7755375745468
 31
0.0
  0
LINE
  5
29C
330
2
100
AcDbEntity
  8
0
100
AcDbLine
 10
23.84508695544082
 20
126.2755375745473
 30
0.0
 11
171.8450869554408
 21
126.2755375745473
 31
0.0
  0
DIMENSION
  5
29D
330
2
100
AcDbEntity
  8
0
100
AcDbDimension
  2
*D0
 10
23.84508695544082
 20
137.876522488943
 30
0.0
 11
22.84508695544082
 21
137.876522488943
 31
0.0
 70
   160
 71
     5
 42
-1.0
  3
STANDARD
100
AcDbAlignedDimension
 13
21.84508695544082
 23
122.7755375745468
 33
0.0
 14
23.84508695544082
 24
126.2755375745473
 34
0.0
100
AcDbRotatedDimension
  0
LINE
  5
4AC
330
2
100
AcDbEntity
  8
0
100
AcDbLine
 10
30.44508695544044
 20
-137.7224613470043
 30
0.0
 11
30.44508695544027
 21
-155.2224613470048
 31
0.0
  0
LINE
  5
4AE
330
2
100
AcDbEntity
  8
0
100
AcDbLine
 10
30.44508695544045
 20
53.77553757454688
 30
0.0
 11
30.44508695544027
 21
36.27553757454643
 31
0.0
  0
ENDSEC
  0
SECTION
  2
OBJECTS
  0
DICTIONARY
  5
8
330
0
100
AcDbDictionary
281
     1
  3
ACAD_CIP_PREVIOUS_PRODUCT_INFO
350
4AB
  3
ACAD_COLOR
350
48F
  3
ACAD_GROUP
350
25
  3
ACAD_LAYOUT
350
C
  3
ACAD_MATERIAL
350
45D
  3
ACAD_MLEADERSTYLE
350
4A4
  3
ACAD_MLINESTYLE
350
26
  3
ACAD_PLOTSETTINGS
350
27
  3
ACAD_PLOTSTYLENAME
350
7
  3
ACAD_SCALELIST
350
492
  3
ACAD_TABLESTYLE
350
490
  3
ACAD_VISUALSTYLE
350
476
  3
ACDB_RECOMPOSE_DATA
350
4DD
  3
ACDBVARIABLEDICTIONARY
350
2AC
  3
DWGPROPS
350
4DE
  0
DICTIONARY
  5
13
330
12
100
AcDbDictionary
280
     1
281
     1
  3
ACAD_LAYERFILTERS
360
14
  3
ACAD_LAYERSTATES
360
15
  0
DICTIONARY
  5
4C8
330
5
100
AcDbDictionary
280
     1
281
     1
  3
ADSK_XREC_LAYER_RECONCILED
360
4C9
  0
DICTIONARY
  5
4CA
330
160
100
AcDbDictionary
280
     1
281
     1
  3
ADSK_XREC_LAYER_RECONCILED
360
4CB
  0
DICTIONARY
  5
4CC
330
2A
100
AcDbDictionary
280
     1
281
     1
  3
ADSK_XREC_LAYER_RECONCILED
360
4CD
  0
DICTIONARY
  5
4CE
330
E2
100
AcDbDictionary
280
     1
281
     1
  3
ADSK_XREC_LAYER_RECONCILED
360
4CF
  0
DICTIONARY
  5
4D0
330
86
100
AcDbDictionary
280
     1
281
     1
  3
ADSK_XREC_LAYER_RECONCILED
360
4D1
  0
DICTIONARY
  5
4D2
330
235
100
AcDbDictionary
280
     1
281
     1
  3
ADSK_XREC_LAYER_RECONCILED
360
4D3
  0
DICTIONARY
  5
3
330
2
100
AcDbDictionary
280
     1
281
     1
  3
ACAD_LAYOUTSELFREF
360
443
  3
ACAD_SORTENTS
360
4AD
  0
DICTIONARY
  5
E
330
D
100
AcDbDictionary
280
     1
281
     1
  3
ACAD_LAYOUTSELFREF
360
444
  0
DICTIONARY
  5
31
330
30
100
AcDbDictionary
280
     1
281
     1
  3
ACAD_DIMASSOC
360
32
  0
DICTIONARY
  5
43
330
42
100
AcDbDictionary
280
     1
281
     1
  3
ACAD_DIMASSOC
360
44
  0
DICTIONARY
  5
47
330
46
100
AcDbDictionary
280
     1
281
     1
  3
ACAD_DIMASSOC
360
48
  0
DICTIONARY
  5
58
330
57
100
AcDbDictionary
280
     1
281
     1
  3
ACAD_DIMASSOC
360
59
  0
DICTIONARY
  5
74
330
73
100
AcDbDictionary
280
     1
281
     1
  3
ACAD_DIMASSOC
360
75
  0
DICTIONARY
  5
C4
330
C3
100
AcDbDictionary
280
     1
281
     1
  3
ACAD_DIMASSOC
360
C5
  0
DICTIONARY
  5
D3
330
D2
100
AcDbDictionary
280
     1
281
     1
  3
ACAD_DIMASSOC
360
D4
  0
DICTIONARY
  5
E6
330
E5
100
AcDbDictionary
280
     1
281
     1
  3
ACAD_DIMASSOC
360
E7
  0
DICTIONARY
  5
F7
330
F6
100
AcDbDictionary
280
     1
281
     1
  3
ACAD_DIMASSOC
360
F8
  0
DICTIONARY
  5
107
330
106
100
AcDbDictionary
280
     1
281
     1
  3
ACAD_DIMASSOC
360
108
  0
DICTIONARY
  5
166
330
165
100
AcDbDictionary
280
     1
281
     1
  3
ACAD_DIMASSOC
360
167
  0
DICTIONARY
  5
192
330
191
100
AcDbDictionary
280
     1
281
     1
  3
ACAD_DIMASSOC
360
193
  0
DICTIONARY
  5
23A
330
239
100
AcDbDictionary
280
     1
281
     1
  3
ACAD_DIMASSOC
360
23B
  0
DICTIONARY
  5
288
330
287
100
AcDbDictionary
280
     1
281
     1
  3
ACAD_DIMASSOC
360
289
  0
XRECORD
  5
4AB
102
{ACAD_REACTORS
330
8
102
}
330
8
100
AcDbXrecord
280
     1
300
AMECH_PP
300
2012
300
PDSP_F_S
  0
DICTIONARY
  5
48F
102
{ACAD_REACTORS
330
8
102
}
330
8
100
AcDbDictionary
281
     1
  0
DICTIONARY
  5
25
102
{ACAD_REACTORS
330
8
102
}
330
8
100
AcDbDictionary
281
     1
  0
DICTIONARY
  5
C
102
{ACAD_REACTORS
330
8
102
}
330
8
100
AcDbDictionary
281
     1
  3
Model
350
4A6
  3
배치1
350
4A7
  0
DICTIONARY
  5
45D
102
{ACAD_REACTORS
330
8
102
}
330
8
100
AcDbDictionary
281
     1
  3
ByBlock
350
466
  3
ByLayer
350
45E
  3
Global
350
46E
  0
DICTIONARY
  5
4A4
102
{ACAD_REACTORS
330
8
102
}
330
8
100
AcDbDictionary
281
     1
  3
Standard
350
4A5
  0
DICTIONARY
  5
26
102
{ACAD_REACTORS
330
8
102
}
330
8
100
AcDbDictionary
281
     1
  3
STANDARD
350
28
  0
DICTIONARY
  5
27
102
{ACAD_REACTORS
330
8
102
}
330
8
100
AcDbDictionary
281
     1
  0
ACDBDICTIONARYWDFLT
  5
7
102
{ACAD_REACTORS
330
8
102
}
330
8
100
AcDbDictionary
281
     1
  3
Normal
350
6
100
AcDbDictionaryWithDefault
340
6
  0
DICTIONARY
  5
492
102
{ACAD_REACTORS
330
8
102
}
330
8
100
AcDbDictionary
281
     1
  3
A0
350
493
  3
A1
350
494
  3
A2
350
495
  3
A3
350
496
  3
A4
350
497
  3
A5
350
498
  3
A6
350
499
  3
A7
350
49A
  3
A8
350
49B
  3
A9
350
49C
  3
B0
350
49D
  3
B1
350
49E
  3
B2
350
49F
  3
B3
350
4A0
  3
B4
350
4A1
  3
B5
350
4A2
  3
B6
350
4A3
  0
DICTIONARY
  5
490
102
{ACAD_REACTORS
330
8
102
}
330
8
100
AcDbDictionary
281
     1
  3
Standard
350
491
  0
DICTIONARY
  5
476
102
{ACAD_REACTORS
330
8
102
}
330
8
100
AcDbDictionary
281
     1
  3
2dWireframe
350
47C
  3
Basic
350
47B
  3
Brighten
350
482
  3
ColorChange
350
486
  3
Conceptual
350
47F
  3
Dim
350
481
  3
EdgeColorOff
350
48E
  3
Facepattern
350
485
  3
Flat
350
477
  3
FlatWithEdges
350
478
  3
Gouraud
350
479
  3
GouraudWithEdges
350
47A
  3
Hidden
350
47E
  3
JitterOff
350
48C
  3
Linepattern
350
484
  3
OverhangOff
350
48D
  3
Realistic
350
480
  3
Shaded
350
48B
  3
Shaded with edges
350
48A
  3
Shades of Gray
350
487
  3
Sketchy
350
488
  3
Thicken
350
483
  3
Wireframe
350
47D
  3
X-Ray
350
489
  0
XRECORD
  5
4DD
102
{ACAD_REACTORS
330
8
102
}
330
8
100
AcDbXrecord
280
     1
 90
        1
330
491
  0
DICTIONARY
  5
2AC
102
{ACAD_REACTORS
330
8
102
}
330
8
100
AcDbDictionary
281
     1
  3
CANNOSCALE
350
4D6
  3
CMLEADERSTYLE
350
4D5
  3
CTABLESTYLE
350
4D4
  3
DIMASSOC
350
2AE
  3
HIDETEXT
350
2AD
  3
INDEXCTL
350
4D8
  3
SORTENTS
350
4D7
  3
XCLIPFRAME
350
4D9
  0
XRECORD
  5
4DE
102
{ACAD_REACTORS
330
8
102
}
330
8
100
AcDbXrecord
280
     1
  1
DWGPROPS COOKIE
  2

  3

  4

  6

  7

  8
김성진
  9

300
=
301
=
302
=
303
=
304
=
305
=
306
=
307
=
308
=
309
=
 40
9.305979791666667
 41
2452839.586179271
 42
2456237.805827489
  1

 90
        0
  0
DICTIONARY
  5
14
102
{ACAD_REACTORS
330
13
102
}
330
13
100
AcDbDictionary
280
     1
281
     1
  0
DICTIONARY
  5
15
102
{ACAD_REACTORS
330
13
102
}
330
13
100
AcDbDictionary
281
     1
  0
XRECORD
  5
4C9
102
{ACAD_REACTORS
330
4C8
102
}
330
4C8
100
AcDbXrecord
280
     1
290
     1
  0
XRECORD
  5
4CB
102
{ACAD_REACTORS
330
4CA
102
}
330
4CA
100
AcDbXrecord
280
     1
290
     1
  0
XRECORD
  5
4CD
102
{ACAD_REACTORS
330
4CC
102
}
330
4CC
100
AcDbXrecord
280
     1
290
     1
  0
XRECORD
  5
4CF
102
{ACAD_REACTORS
330
4CE
102
}
330
4CE
100
AcDbXrecord
280
     1
290
     1
  0
XRECORD
  5
4D1
102
{ACAD_REACTORS
330
4D0
102
}
330
4D0
100
AcDbXrecord
280
     1
290
     1
  0
XRECORD
  5
4D3
102
{ACAD_REACTORS
330
4D2
102
}
330
4D2
100
AcDbXrecord
280
     1
290
     1
  0
XRECORD
  5
443
102
{ACAD_REACTORS
330
3
102
}
330
3
100
AcDbXrecord
280
     1
340
2
  0
SORTENTSTABLE
  5
4AD
102
{ACAD_REACTORS
330
3
102
}
330
3
100
AcDbSortentsTable
330
2
331
18F
  5
190
331
15D
  5
15E
331
133
  5
134
331
119
  5
11A
331
225
  5
227
331
D2
  5
E1
331
26F
  5
271
331
A6
  5
A7
331
214
  5
216
331
1C1
  5
1C2
331
1B8
  5
1B9
331
17E
  5
17F
331
144
  5
145
331
24E
  5
250
331
95
  5
96
331
12A
  5
12B
331
B7
  5
B8
331
F6
  5
105
331
150
  5
15D
331
131
  5
132
331
18D
  5
18E
331
84
  5
85
331
223
  5
225
331
1CF
  5
1D0
331
26D
  5
26F
331
A4
  5
A5
331
1A7
  5
1B4
331
212
  5
214
331
1B6
  5
1B7
331
17C
  5
17D
331
142
  5
143
331
128
  5
129
331
24C
  5
24E
331
93
  5
94
331
117
  5
118
331
B5
  5
B6
331
6B
  5
6B
331
284
  5
286
331
1FF
  5
201
331
18B
  5
18C
331
82
  5
82
331
1A5
  5
1A6
331
A2
  5
A3
331
273
  5
281
331
17A
  5
17B
331
140
  5
141
331
126
  5
127
331
210
  5
212
331
1F6
  5
1F8
331
24A
  5
24C
331
91
  5
92
331
1B4
  5
1B5
331
4AE
  5
1D3
331
115
  5
116
331
69
  5
69
331
282
  5
284
331
1FD
  5
1FF
331
189
  5
18A
331
239
  5
24B
331
A0
  5
A1
331
271
  5
273
331
178
  5
179
331
13E
  5
13F
331
124
  5
125
331
20E
  5
210
331
C3
  5
D2
331
B1
  5
B2
331
8F
  5
90
331
1A3
  5
1A4
331
14F
  5
150
331
4AC
  5
84
331
280
  5
282
331
21D
  5
21F
331
1FB
  5
1FD
331
257
  5
259
331
9E
  5
9F
331
237
  5
239
331
176
  5
177
331
165
  5
174
331
13C
  5
13D
331
122
  5
123
331
1F2
  5
1F4
331
C1
  5
C2
331
1A1
  5
1A2
331
20C
  5
20E
331
22E
  5
230
331
8D
  5
8E
331
AF
  5
B0
331
73
  5
73
331
14D
  5
14E
331
30
  5
30
331
187
  5
188
331
2E
  5
2E
331
21B
  5
21D
331
1F9
  5
1FB
331
25D
  5
26D
331
255
  5
257
331
9C
  5
9D
331
1F0
  5
1F2
331
174
  5
175
331
163
  5
164
331
13A
  5
13B
331
120
  5
121
331
BE
  5
BF
331
20A
  5
20C
331
22C
  5
22E
331
8B
  5
8C
331
190
  5
191
331
AD
  5
AE
331
14B
  5
14C
331
E4
  5
E5
331
71
  5
71
331
1BF
  5
1C0
331
185
  5
186
331
2C
  5
2C
331
219
  5
21B
331
25B
  5
25D
331
9A
  5
9B
331
233
  5
236
331
208
  5
20A
331
161
  5
162
331
138
  5
139
331
11E
  5
11F
331
105
  5
106
331
22A
  5
22C
331
89
  5
8A
331
BC
  5
BD
331
AB
  5
AC
331
29C
  5
4AC
331
183
  5
184
331
149
  5
14A
331
12F
  5
130
331
1BD
  5
1BE
331
46
  5
46
331
259
  5
25B
331
251
  5
253
331
98
  5
99
331
206
  5
208
331
1D3
  5
1E1
331
136
  5
137
331
11C
  5
11D
331
BA
  5
BB
331
228
  5
22A
331
29A
  5
29C
331
181
  5
182
331
147
  5
148
331
12D
  5
12E
331
217
  5
219
331
1BB
  5
1BC
331
5A
  5
5A
331
57
  5
57
331
15E
  5
15F
331
134
  5
135
331
11A
  5
11B
331
B8
  5
B9
331
226
  5
228
331
204
  5
206
331
1D1
  5
1D2
331
87
  5
88
331
A7
  5
A8
331
6E
  5
6E
331
298
  5
29A
331
17F
  5
180
331
145
  5
146
331
12B
  5
12C
331
1C2
  5
1CF
331
24F
  5
251
331
1B9
  5
1BA
331
42
  5
42
331
132
  5
133
331
118
  5
119
331
287
  5
299
331
224
  5
226
331
18E
  5
18F
331
85
  5
87
331
26E
  5
270
331
A5
  5
A6
331
213
  5
215
331
1C0
  5
1C1
331
1B7
  5
1B8
331
17D
  5
17E
331
143
  5
144
331
129
  5
12A
331
24D
  5
24F
331
94
  5
95
331
B6
  5
B7
331
6C
  5
6C
331
130
  5
131
331
285
  5
287
331
200
  5
202
331
18C
  5
18D
331
83
  5
83
331
1A6
  5
1A7
331
A3
  5
A4
331
211
  5
213
331
1F7
  5
1F9
331
1B5
  5
1B6
331
17B
  5
17C
331
141
  5
142
331
24B
  5
24D
331
92
  5
93
331
116
  5
117
331
B4
  5
B5
331
6A
  5
6A
331
283
  5
285
331
220
  5
222
331
1FE
  5
200
331
18A
  5
18B
331
1A4
  5
1A5
331
A1
  5
A2
331
272
  5
280
331
20F
  5
211
331
1F5
  5
1F7
331
179
  5
17A
331
13F
  5
140
331
125
  5
126
331
114
  5
115
331
68
  5
68
331
281
  5
283
331
1FC
  5
1FE
331
188
  5
189
331
238
  5
24A
331
270
  5
272
331
177
  5
178
331
13D
  5
13E
331
123
  5
124
331
20D
  5
20F
331
1F3
  5
1F5
331
C2
  5
C3
331
22F
  5
231
331
1A2
  5
1A3
331
14E
  5
14F
331
B0
  5
B1
331
2F
  5
2F
331
21C
  5
21E
331
1FA
  5
1FC
331
1E1
  5
1EF
331
25E
  5
26E
331
256
  5
258
331
9D
  5
9E
331
1A0
  5
1A1
331
236
  5
238
331
175
  5
176
331
164
  5
165
331
13B
  5
13C
331
19F
  5
1A0
331
BF
  5
C0
331
20B
  5
20D
331
22D
  5
22F
331
8C
  5
8D
331
191
  5
19F
331
AE
  5
AF
331
14C
  5
14D
331
E5
  5
F6
331
72
  5
72
331
186
  5
187
331
2D
  5
2D
331
21A
  5
21C
331
1F8
  5
1FA
331
25C
  5
25E
331
234
  5
237
331
1EF
  5
1F1
331
162
  5
163
331
139
  5
13A
331
106
  5
114
331
BD
  5
BE
331
209
  5
20B
331
22B
  5
22D
331
8A
  5
8B
331
AC
  5
AD
331
70
  5
70
331
29D
  5
4AE
331
184
  5
185
331
1BE
  5
1BF
331
2B
  5
2B
331
218
  5
21A
331
25A
  5
25C
331
252
  5
254
331
99
  5
9A
331
232
  5
234
331
207
  5
209
331
1D4
  5
1EE
331
137
  5
138
331
11D
  5
11E
331
229
  5
22B
331
88
  5
89
331
BB
  5
BC
331
AA
  5
AB
331
E1
  5
E4
331
5B
  5
5B
331
148
  5
149
331
12E
  5
12F
331
45
  5
45
331
29B
  5
29D
331
182
  5
183
331
1BC
  5
1BD
331
29
  5
29
331
258
  5
25A
331
250
  5
252
331
227
  5
229
331
1D2
  5
1D4
331
15F
  5
161
331
135
  5
136
331
11B
  5
11C
331
299
  5
29B
331
180
  5
181
331
146
  5
147
331
A8
  5
A9
331
216
  5
218
331
97
  5
98
331
1BA
  5
1BB
331
6F
  5
6F
  0
XRECORD
  5
444
102
{ACAD_REACTORS
330
E
102
}
330
E
100
AcDbXrecord
280
     1
340
D
  0
DIMASSOC
  5
32
102
{ACAD_REACTORS
330
31
102
}
330
31
100
AcDbDimAssoc
330
30
 90
        3
 70
     0
 71
     0
  1
AcDbOsnapPointRef
 72
    13
331
143
 73
     2
 91
        0
 40
0.0
 10
-103.766581782469
 20
81.32174080994673
 30
0.0
 75
     0
  1
AcDbOsnapPointRef
 72
     1
331
143
 73
     2
 91
        0
 40
1.0
 10
-85.51154177558055
 20
37.25017564365316
 30
0.0
 75
     0
  0
DIMASSOC
  5
44
102
{ACAD_REACTORS
330
43
102
}
330
43
100
AcDbDimAssoc
330
42
 90
        1
 70
     0
 71
     0
  1
AcDbOsnapPointRef
 72
     5
331
1A5
 73
     2
 91
        0
 40
1.570796326794896
 10
-66.94896299445645
 20
121.1947120273521
 30
0.0
 75
     0
  0
DIMASSOC
  5
48
102
{ACAD_REACTORS
330
47
102
}
330
47
100
AcDbDimAssoc
330
46
 90
        3
 70
     0
 71
     0
  1
AcDbOsnapPointRef
 72
    13
331
72
 73
     2
 91
        0
 40
0.0
 10
-128.3738238100559
 20
-110.1762581116045
 30
0.0
 75
     0
  1
AcDbOsnapPointRef
 72
     1
331
72
 73
     2
 91
        0
 40
1.0
 10
-110.1187838031673
 20
-154.247823277898
 30
0.0
 75
     0
  0
DIMASSOC
  5
59
102
{ACAD_REACTORS
330
58
102
}
330
58
100
AcDbDimAssoc
330
57
 90
        1
 70
     0
 71
     0
  1
AcDbOsnapPointRef
 72
     5
331
19F
 73
     2
 91
        0
 40
1.570796326794896
 10
-91.55620502204328
 20
-70.30328689419912
 30
0.0
 75
     0
  0
DIMASSOC
  5
75
102
{ACAD_REACTORS
330
74
102
}
330
74
100
AcDbDimAssoc
330
73
 90
        3
 70
     0
 71
     0
  1
AcDbOsnapPointRef
 72
    13
331
82
 73
     2
 91
        0
 40
0.0
 10
21.84508695544082
 20
-68.72246134700436
 30
0.0
 75
     0
  1
AcDbOsnapPointRef
 72
     1
331
82
 73
     2
 91
        0
 40
1.0
 10
21.84508695544082
 20
-151.7224613470043
 30
0.0
 75
     0
  0
DIMASSOC
  5
C5
102
{ACAD_REACTORS
330
C4
102
}
330
C4
100
AcDbDimAssoc
330
C3
 90
        3
 70
     0
 71
     0
  1
AcDbOsnapPointRef
 72
    13
331
1D2
 73
     2
 91
        0
 40
0.0
 10
21.84508695544082
 20
122.7755375745468
 30
0.0
 75
     0
  1
AcDbOsnapPointRef
 72
     1
331
1D2
 73
     2
 91
        0
 40
1.0
 10
21.84508695544082
 20
39.77553757454689
 30
0.0
 75
     0
  0
DIMASSOC
  5
D4
102
{ACAD_REACTORS
330
D3
102
}
330
D3
100
AcDbDimAssoc
330
D2
 90
        3
 70
     0
 71
     0
  1
AcDbOsnapPointRef
 72
     1
331
E1
 73
     2
 91
        0
 40
1.0
 10
-13.15491304455917
 20
-105.2224613470043
 30
0.0
 75
     0
  1
AcDbOsnapPointRef
 72
     1
331
271
 73
     2
 91
        0
 40
1.0
 10
16.84508695544082
 20
-104.2224613470043
 30
0.0
 75
     0
  0
DIMASSOC
  5
E7
102
{ACAD_REACTORS
330
E6
102
}
330
E6
100
AcDbDimAssoc
330
E5
 90
        3
 70
     0
 71
     0
  1
AcDbOsnapPointRef
 72
     1
331
E4
 73
     2
 91
        0
 40
1.0
 10
-13.15491304455917
 20
-116.2224613470043
 30
0.0
 75
     0
  1
AcDbOsnapPointRef
 72
     1
331
271
 73
     2
 91
        0
 40
1.0
 10
16.84508695544082
 20
-104.2224613470043
 30
0.0
 75
     0
  0
DIMASSOC
  5
F8
102
{ACAD_REACTORS
330
F7
102
}
330
F7
100
AcDbDimAssoc
330
F6
 90
        1
 70
     0
 71
     0
  1
AcDbOsnapPointRef
 72
     1
331
E1
 73
     2
 91
        0
 40
1.0
 10
-13.15491304455917
 20
-105.2224613470043
 30
0.0
 75
     0
  0
DIMASSOC
  5
108
102
{ACAD_REACTORS
330
107
102
}
330
107
100
AcDbDimAssoc
330
106
 90
        2
 70
     0
 71
     0
  1
AcDbOsnapPointRef
 72
     3
331
116
 73
     2
 91
        0
 40
0.0
 10
-103.8186205050678
 20
81.27553757454689
 30
0.0
 75
     0
  0
DIMASSOC
  5
167
102
{ACAD_REACTORS
330
166
102
}
330
166
100
AcDbDimAssoc
330
165
 90
        3
 70
     0
 71
     0
  1
AcDbOsnapPointRef
 72
     1
331
E4
 73
     2
 91
        0
 40
1.0
 10
-13.15491304455917
 20
-116.2224613470043
 30
0.0
 75
     0
  1
AcDbOsnapPointRef
 72
     1
331
E1
 73
     2
 91
        0
 40
1.0
 10
-13.15491304455917
 20
-105.2224613470043
 30
0.0
 75
     0
  0
DIMASSOC
  5
193
102
{ACAD_REACTORS
330
192
102
}
330
192
100
AcDbDimAssoc
330
191
 90
        2
 70
     0
 71
     0
  1
AcDbOsnapPointRef
 72
     3
331
1A0
 73
     2
 91
        0
 40
0.0
 10
-128.4258625326547
 20
-110.2224613470043
 30
0.0
 75
     0
  0
DIMASSOC
  5
23B
102
{ACAD_REACTORS
330
23A
102
}
330
23A
100
AcDbDimAssoc
330
239
 90
        2
 70
     0
 71
     0
  1
AcDbOsnapPointRef
 72
     1
331
24B
 73
     2
 91
        0
 40
1.0
 10
31.34508695544082
 20
-66.62372400547521
 30
0.0
 75
     0
  0
DIMASSOC
  5
289
102
{ACAD_REACTORS
330
288
102
}
330
288
100
AcDbDimAssoc
330
287
 90
        2
 70
     0
 71
     0
  1
AcDbOsnapPointRef
 72
     1
331
298
 73
     2
 91
        0
 40
1.0
 10
31.34508695544082
 20
124.874274916076
 30
0.0
 75
     0
  0
LAYOUT
  5
4A6
102
{ACAD_XDICTIONARY
360
514
102
}
102
{ACAD_REACTORS
330
C
102
}
330
C
100
AcDbPlotSettings
  1

  2
RICOH Aficio 2027 RPCS
  4

  6

 40
0.0
 41
0.0
 42
0.0
 43
0.0
 44
0.0
 45
0.0
 46
0.0
 47
0.0
 48
0.0
 49
0.0
140
0.0
141
0.0
142
1.0
143
1.0
 70
  1712
 72
     0
 73
     0
 74
     0
  7

 75
     0
147
1.0
148
0.0
149
0.0
100
AcDbLayout
  1
Model
 70
     1
 71
     0
 10
0.0
 20
0.0
 11
12.0
 21
9.0
 12
0.0
 22
0.0
 32
0.0
 14
0.0
 24
0.0
 34
0.0
 15
0.0
 25
0.0
 35
0.0
146
0.0
 13
0.0
 23
0.0
 33
0.0
 16
1.0
 26
0.0
 36
0.0
 17
0.0
 27
1.0
 37
0.0
 76
     0
330
2
331
421
  0
LAYOUT
  5
4A7
102
{ACAD_XDICTIONARY
360
516
102
}
102
{ACAD_REACTORS
330
C
102
}
330
C
100
AcDbPlotSettings
  1

  2
RICOH Aficio 2027 RPCS
  4

  6

 40
0.0
 41
0.0
 42
0.0
 43
0.0
 44
0.0
 45
0.0
 46
0.0
 47
0.0
 48
0.0
 49
0.0
140
0.0
141
0.0
142
1.0
143
1.0
 70
   688
 72
     0
 73
     0
 74
     5
  7

 75
    16
147
1.0
148
0.0
149
0.0
100
AcDbLayout
  1
배치1
 70
     1
 71
     1
 10
0.0
 20
0.0
 11
12.0
 21
9.0
 12
0.0
 22
0.0
 32
0.0
 14
0.0
 24
0.0
 34
0.0
 15
0.0
 25
0.0
 35
0.0
146
0.0
 13
0.0
 23
0.0
 33
0.0
 16
1.0
 26
0.0
 36
0.0
 17
0.0
 27
1.0
 37
0.0
 76
     0
330
D
  0
MATERIAL
  5
466
102
{ACAD_XDICTIONARY
360
467
102
}
102
{ACAD_REACTORS
330
45D
102
}
330
45D
100
AcDbMaterial
  1
ByBlock
 72
     0
 43
0.0008202099737533
 43
0.0
 43
0.0
 43
0.0
 43
0.0
 43
0.0008202099737533
 43
0.0
 43
0.0
 43
0.0
 43
0.0
 43
1.0
 43
0.0
 43
0.0
 43
0.0
 43
0.0
 43
1.0
 77
     0
 47
0.0008202099737533
 47
0.0
 47
0.0
 47
0.0
 47
0.0
 47
0.0008202099737533
 47
0.0
 47
0.0
 47
0.0
 47
0.0
 47
1.0
 47
0.0
 47
0.0
 47
0.0
 47
0.0
 47
1.0
171
     0
 49
0.0008202099737533
 49
0.0
 49
0.0
 49
0.0
 49
0.0
 49
0.0008202099737533
 49
0.0
 49
0.0
 49
0.0
 49
0.0
 49
1.0
 49
0.0
 49
0.0
 49
0.0
 49
0.0
 49
1.0
175
     0
142
0.0008202099737533
142
0.0
142
0.0
142
0.0
142
0.0
142
0.0008202099737533
142
0.0
142
0.0
142
0.0
142
0.0
142
1.0
142
0.0
142
0.0
142
0.0
142
0.0
142
1.0
179
     0
144
0.0008202099737533
144
0.0
144
0.0
144
0.0
144
0.0
144
0.0008202099737533
144
0.0
144
0.0
144
0.0
144
0.0
144
1.0
144
0.0
144
0.0
144
0.0
144
0.0
144
1.0
147
0.0008202099737533
147
0.0
147
0.0
147
0.0
147
0.0
147
0.0008202099737533
147
0.0
147
0.0
147
0.0
147
0.0
147
1.0
147
0.0
147
0.0
147
0.0
147
0.0
147
1.0
  0
MATERIAL
  5
45E
102
{ACAD_XDICTIONARY
360
45F
102
}
102
{ACAD_REACTORS
330
45D
102
}
330
45D
100
AcDbMaterial
  1
ByLayer
 72
     0
 43
0.0008202099737533
 43
0.0
 43
0.0
 43
0.0
 43
0.0
 43
0.0008202099737533
 43
0.0
 43
0.0
 43
0.0
 43
0.0
 43
1.0
 43
0.0
 43
0.0
 43
0.0
 43
0.0
 43
1.0
 77
     0
 47
0.0008202099737533
 47
0.0
 47
0.0
 47
0.0
 47
0.0
 47
0.0008202099737533
 47
0.0
 47
0.0
 47
0.0
 47
0.0
 47
1.0
 47
0.0
 47
0.0
 47
0.0
 47
0.0
 47
1.0
171
     0
 49
0.0008202099737533
 49
0.0
 49
0.0
 49
0.0
 49
0.0
 49
0.0008202099737533
 49
0.0
 49
0.0
 49
0.0
 49
0.0
 49
1.0
 49
0.0
 49
0.0
 49
0.0
 49
0.0
 49
1.0
175
     0
142
0.0008202099737533
142
0.0
142
0.0
142
0.0
142
0.0
142
0.0008202099737533
142
0.0
142
0.0
142
0.0
142
0.0
142
1.0
142
0.0
142
0.0
142
0.0
142
0.0
142
1.0
179
     0
144
0.0008202099737533
144
0.0
144
0.0
144
0.0
144
0.0
144
0.0008202099737533
144
0.0
144
0.0
144
0.0
144
0.0
144
1.0
144
0.0
144
0.0
144
0.0
144
0.0
144
1.0
147
0.0008202099737533
147
0.0
147
0.0
147
0.0
147
0.0
147
0.0008202099737533
147
0.0
147
0.0
147
0.0
147
0.0
147
1.0
147
0.0
147
0.0
147
0.0
147
0.0
147
1.0
  0
MATERIAL
  5
46E
102
{ACAD_XDICTIONARY
360
46F
102
}
102
{ACAD_REACTORS
330
45D
102
}
330
45D
100
AcDbMaterial
  1
Global
 72
     0
 43
0.0008202099737533
 43
0.0
 43
0.0
 43
0.0
 43
0.0
 43
0.0008202099737533
 43
0.0
 43
0.0
 43
0.0
 43
0.0
 43
1.0
 43
0.0
 43
0.0
 43
0.0
 43
0.0
 43
1.0
 77
     0
 47
0.0008202099737533
 47
0.0
 47
0.0
 47
0.0
 47
0.0
 47
0.0008202099737533
 47
0.0
 47
0.0
 47
0.0
 47
0.0
 47
1.0
 47
0.0
 47
0.0
 47
0.0
 47
0.0
 47
1.0
171
     0
 49
0.0008202099737533
 49
0.0
 49
0.0
 49
0.0
 49
0.0
 49
0.0008202099737533
 49
0.0
 49
0.0
 49
0.0
 49
0.0
 49
1.0
 49
0.0
 49
0.0
 49
0.0
 49
0.0
 49
1.0
175
     0
142
0.0008202099737533
142
0.0
142
0.0
142
0.0
142
0.0
142
0.0008202099737533
142
0.0
142
0.0
142
0.0
142
0.0
142
1.0
142
0.0
142
0.0
142
0.0
142
0.0
142
1.0
179
     0
144
0.0008202099737533
144
0.0
144
0.0
144
0.0
144
0.0
144
0.0008202099737533
144
0.0
144
0.0
144
0.0
144
0.0
144
1.0
144
0.0
144
0.0
144
0.0
144
0.0
144
1.0
147
0.0008202099737533
147
0.0
147
0.0
147
0.0
147
0.0
147
0.0008202099737533
147
0.0
147
0.0
147
0.0
147
0.0
147
1.0
147
0.0
147
0.0
147
0.0
147
0.0
147
1.0
  0
MLEADERSTYLE
  5
4A5
102
{ACAD_REACTORS
330
4A4
102
}
330
4A4
100
AcDbMLeaderStyle
170
     2
171
     1
172
     0
 90
        2
 40
0.0
 41
0.0
173
     1
 91
-1056964608
340
1A
 92
       -2
290
     1
 42
2.0
291
     1
 43
0.36
  3
Standard
 44
4.0
300

342
17
174
     1
178
     6
175
     1
176
     0
 93
-1056964608
 45
4.0
292
     0
297
     0
 46
4.0
 94
-1056964608
 47
1.0
 49
1.0
140
1.0
293
     1
141
0.0
294
     1
177
     0
142
1.0
295
     0
296
     0
143
0.125
1001
ACAD_MLEADERVER
1070
     2
  0
MLINESTYLE
  5
28
102
{ACAD_REACTORS
330
26
102
}
330
26
100
AcDbMlineStyle
  2
STANDARD
 70
     0
  3

 62
   256
 51
90.0
 52
90.0
 71
     2
 49
0.5
 62
   256
  6
BYLAYER
 49
-0.5
 62
   256
  6
BYLAYER
  0
ACDBPLACEHOLDER
  5
6
102
{ACAD_REACTORS
330
7
102
}
330
7
  0
SCALE
  5
493
102
{ACAD_REACTORS
330
492
102
}
330
492
100
AcDbScale
 70
     0
300
1:1
140
1.0
141
1.0
290
     1
  0
SCALE
  5
494
102
{ACAD_REACTORS
330
492
102
}
330
492
100
AcDbScale
 70
     0
300
1:2
140
1.0
141
2.0
290
     0
  0
SCALE
  5
495
102
{ACAD_REACTORS
330
492
102
}
330
492
100
AcDbScale
 70
     0
300
1:4
140
1.0
141
4.0
290
     0
  0
SCALE
  5
496
102
{ACAD_REACTORS
330
492
102
}
330
492
100
AcDbScale
 70
     0
300
1:5
140
1.0
141
5.0
290
     0
  0
SCALE
  5
497
102
{ACAD_REACTORS
330
492
102
}
330
492
100
AcDbScale
 70
     0
300
1:8
140
1.0
141
8.0
290
     0
  0
SCALE
  5
498
102
{ACAD_REACTORS
330
492
102
}
330
492
100
AcDbScale
 70
     0
300
1:10
140
1.0
141
10.0
290
     0
  0
SCALE
  5
499
102
{ACAD_REACTORS
330
492
102
}
330
492
100
AcDbScale
 70
     0
300
1:16
140
1.0
141
16.0
290
     0
  0
SCALE
  5
49A
102
{ACAD_REACTORS
330
492
102
}
330
492
100
AcDbScale
 70
     0
300
1:20
140
1.0
141
20.0
290
     0
  0
SCALE
  5
49B
102
{ACAD_REACTORS
330
492
102
}
330
492
100
AcDbScale
 70
     0
300
1:30
140
1.0
141
30.0
290
     0
  0
SCALE
  5
49C
102
{ACAD_REACTORS
330
492
102
}
330
492
100
AcDbScale
 70
     0
300
1:40
140
1.0
141
40.0
290
     0
  0
SCALE
  5
49D
102
{ACAD_REACTORS
330
492
102
}
330
492
100
AcDbScale
 70
     0
300
1:50
140
1.0
141
50.0
290
     0
  0
SCALE
  5
49E
102
{ACAD_REACTORS
330
492
102
}
330
492
100
AcDbScale
 70
     0
300
1:100
140
1.0
141
100.0
290
     0
  0
SCALE
  5
49F
102
{ACAD_REACTORS
330
492
102
}
330
492
100
AcDbScale
 70
     0
300
2:1
140
2.0
141
1.0
290
     0
  0
SCALE
  5
4A0
102
{ACAD_REACTORS
330
492
102
}
330
492
100
AcDbScale
 70
     0
300
4:1
140
4.0
141
1.0
290
     0
  0
SCALE
  5
4A1
102
{ACAD_REACTORS
330
492
102
}
330
492
100
AcDbScale
 70
     0
300
8:1
140
8.0
141
1.0
290
     0
  0
SCALE
  5
4A2
102
{ACAD_REACTORS
330
492
102
}
330
492
100
AcDbScale
 70
     0
300
10:1
140
10.0
141
1.0
290
     0
  0
SCALE
  5
4A3
102
{ACAD_REACTORS
330
492
102
}
330
492
100
AcDbScale
 70
     0
300
100:1
140
100.0
141
1.0
290
     0
  0
TABLESTYLE
  5
491
102
{ACAD_XDICTIONARY
360
4DB
102
}
102
{ACAD_REACTORS
330
490
102
}
330
490
100
AcDbTableStyle
  3
Standard
 70
     0
 71
     0
 40
1.5
 41
1.5
280
     0
281
     0
  7
STANDARD
140
4.5
170
     2
 62
     0
 63
     7
283
     0
274
    -2
284
     1
 64
     0
275
    -2
285
     1
 65
     0
276
    -2
286
     1
 66
     0
277
    -2
287
     1
 67
     0
278
    -2
288
     1
 68
     0
279
    -2
289
     1
 69
     0
  7
STANDARD
140
6.0
170
     5
 62
     0
 63
     7
283
     0
274
    -2
284
     1
 64
     0
275
    -2
285
     1
 65
     0
276
    -2
286
     1
 66
     0
277
    -2
287
     1
 67
     0
278
    -2
288
     1
 68
     0
279
    -2
289
     1
 69
     0
  7
STANDARD
140
4.5
170
     5
 62
     0
 63
     7
283
     0
274
    -2
284
     1
 64
     0
275
    -2
285
     1
 65
     0
276
    -2
286
     1
 66
     0
277
    -2
287
     1
 67
     0
278
    -2
288
     1
 68
     0
279
    -2
289
     1
 69
     0
  0
VISUALSTYLE
  5
47C
102
{ACAD_XDICTIONARY
360
4EC
102
}
102
{ACAD_REACTORS
330
476
102
}
330
476
100
AcDbVisualStyle
  2
2dWireframe
 70
     4
 71
     0
 72
     2
 73
     0
 90
        0
 40
-0.6
 41
-30.0
 62
     5
 63
     7
 74
     1
 91
        4
 64
     7
 65
   257
 75
     1
175
     1
 42
1.0
 92
        0
 66
   257
 43
1.0
 76
     1
 77
     6
 78
     2
 67
     7
 79
     5
170
     0
171
     0
290
     0
174
     0
 93
        1
 44
0.0
173
     0
291
     0
 45
0.0
1001
ACAD
1000
AcDbSavedByObjectVersion
1070
     0
  0
VISUALSTYLE
  5
47B
102
{ACAD_XDICTIONARY
360
4EA
102
}
102
{ACAD_REACTORS
330
476
102
}
330
476
100
AcDbVisualStyle
  2
Basic
 70
     7
 71
     1
 72
     0
 73
     1
 90
        0
 40
-0.6
 41
-30.0
 62
     5
 63
     7
 74
     0
 91
        4
 64
     7
 65
   257
 75
     1
175
     1
 42
1.0
 92
        8
 66
     7
 43
1.0
 76
     1
 77
     6
 78
     2
 67
     7
 79
     5
170
     0
171
     0
290
     0
174
     0
 93
        1
 44
0.0
173
     0
291
     1
 45
0.0
1001
ACAD
1000
AcDbSavedByObjectVersion
1070
     0
  0
VISUALSTYLE
  5
482
102
{ACAD_XDICTIONARY
360
4F8
102
}
102
{ACAD_REACTORS
330
476
102
}
330
476
100
AcDbVisualStyle
  2
Brighten
 70
    12
 71
     2
 72
     2
 73
     0
 90
        0
 40
-0.6
 41
-30.0
 62
     5
 63
     7
 74
     1
 91
        4
 64
     7
 65
   257
 75
     1
175
     1
 42
1.0
 92
        8
 66
     7
 43
1.0
 76
     1
 77
     6
 78
     2
 67
     7
 79
     5
170
     0
171
     0
290
     0
174
     0
 93
        1
 44
50.0
173
     0
291
     1
 45
0.0
1001
ACAD
1000
AcDbSavedByObjectVersion
1070
     0
  0
VISUALSTYLE
  5
486
102
{ACAD_XDICTIONARY
360
500
102
}
102
{ACAD_REACTORS
330
476
102
}
330
476
100
AcDbVisualStyle
  2
ColorChange
 70
    16
 71
     2
 72
     2
 73
     3
 90
        0
 40
-0.6
 41
-30.0
 62
     5
 63
     8
 74
     1
 91
        4
 64
     7
 65
   257
 75
     1
175
     1
 42
1.0
 92
        8
 66
     8
 43
1.0
 76
     1
 77
     6
 78
     2
 67
     7
 79
     5
170
     0
171
     0
290
     0
174
     0
 93
        1
 44
0.0
173
     0
291
     1
 45
0.0
1001
ACAD
1000
AcDbSavedByObjectVersion
1070
     0
  0
VISUALSTYLE
  5
47F
102
{ACAD_XDICTIONARY
360
4F2
102
}
102
{ACAD_REACTORS
330
476
102
}
330
476
100
AcDbVisualStyle
  2
Conceptual
 70
     9
 71
     3
 72
     2
 73
     0
 90
        0
 40
-0.6
 41
-30.0
 62
     5
 63
     7
 74
     2
 91
        2
 64
     7
 65
   257
 75
     1
175
     1
 42
179.0
 92
        8
 66
     7
 43
1.0
 76
     1
 77
     6
 78
     2
 67
     7
 79
     3
170
     0
171
     0
290
     0
174
     0
 93
        1
 44
0.0
173
     0
291
     0
 45
0.0
1001
ACAD
1000
AcDbSavedByObjectVersion
1070
     0
  0
VISUALSTYLE
  5
481
102
{ACAD_XDICTIONARY
360
4F6
102
}
102
{ACAD_REACTORS
330
476
102
}
330
476
100
AcDbVisualStyle
  2
Dim
 70
    11
 71
     2
 72
     2
 73
     0
 90
        0
 40
-0.6
 41
-30.0
 62
     5
 63
     7
 74
     1
 91
        4
 64
     7
 65
   257
 75
     1
175
     1
 42
1.0
 92
        8
 66
     7
 43
1.0
 76
     1
 77
     6
 78
     2
 67
     7
 79
     5
170
     0
171
     0
290
     0
174
     0
 93
        1
 44
-50.0
173
     0
291
     1
 45
0.0
1001
ACAD
1000
AcDbSavedByObjectVersion
1070
     0
  0
VISUALSTYLE
  5
48E
102
{ACAD_XDICTIONARY
360
510
102
}
102
{ACAD_REACTORS
330
476
102
}
330
476
100
AcDbVisualStyle
  2
EdgeColorOff
 70
    22
 71
     2
 72
     2
 73
     0
 90
        0
 40
-0.6
 41
-30.0
 62
     5
 63
     7
 74
     1
 91
        4
 64
     7
 65
   257
 75
     1
175
     1
 42
1.0
 92
        8
 66
     7
 43
1.0
 76
     1
 77
     6
 78
     2
 67
     7
 79
     5
170
     0
171
     0
290
     0
174
     0
 93
        1
 44
0.0
173
     0
291
     1
 45
0.0
1001
ACAD
1000
AcDbSavedByObjectVersion
1070
     0
  0
VISUALSTYLE
  5
485
102
{ACAD_XDICTIONARY
360
4FE
102
}
102
{ACAD_REACTORS
330
476
102
}
330
476
100
AcDbVisualStyle
  2
Facepattern
 70
    15
 71
     2
 72
     2
 73
     0
 90
        0
 40
-0.6
 41
-30.0
 62
     5
 63
     7
 74
     1
 91
        4
 64
     7
 65
   257
 75
     1
175
     1
 42
1.0
 92
        8
 66
     7
 43
1.0
 76
     1
 77
     6
 78
     2
 67
     7
 79
     5
170
     0
171
     0
290
     0
174
     0
 93
        1
 44
0.0
173
     0
291
     1
 45
0.0
1001
ACAD
1000
AcDbSavedByObjectVersion
1070
     0
  0
VISUALSTYLE
  5
477
102
{ACAD_XDICTIONARY
360
4E2
102
}
102
{ACAD_REACTORS
330
476
102
}
330
476
100
AcDbVisualStyle
  2
Flat
 70
     0
 71
     2
 72
     1
 73
     1
 90
        2
 40
-0.6
 41
30.0
 62
     5
 63
     7
 74
     0
 91
        0
 64
     7
 65
   257
 75
     1
175
     1
 42
1.0
 92
        8
 66
     7
 43
1.0
 76
     1
 77
     6
 78
     2
 67
     7
 79
     5
170
     0
171
     0
290
     0
174
     0
 93
       13
 44
0.0
173
     0
291
     1
 45
0.0
1001
ACAD
1000
AcDbSavedByObjectVersion
1070
     0
  0
VISUALSTYLE
  5
478
102
{ACAD_XDICTIONARY
360
4E4
102
}
102
{ACAD_REACTORS
330
476
102
}
330
476
100
AcDbVisualStyle
  2
FlatWithEdges
 70
     1
 71
     2
 72
     1
 73
     1
 90
        2
 40
-0.6
 41
30.0
 62
     5
 63
     7
 74
     1
 91
        0
 64
     7
 65
   257
 75
     1
175
     1
 42
1.0
 92
        0
 66
   257
 43
1.0
 76
     1
 77
     6
 78
     2
 67
     7
 79
     5
170
     0
171
     0
290
     0
174
     0
 93
       13
 44
0.0
173
     0
291
     1
 45
0.0
1001
ACAD
1000
AcDbSavedByObjectVersion
1070
     0
  0
VISUALSTYLE
  5
479
102
{ACAD_XDICTIONARY
360
4E6
102
}
102
{ACAD_REACTORS
330
476
102
}
330
476
100
AcDbVisualStyle
  2
Gouraud
 70
     2
 71
     2
 72
     2
 73
     1
 90
        2
 40
-0.6
 41
30.0
 62
     5
 63
     7
 74
     0
 91
        0
 64
     7
 65
   257
 75
     1
175
     1
 42
1.0
 92
        0
 66
     7
 43
1.0
 76
     1
 77
     6
 78
     2
 67
     7
 79
     5
170
     0
171
     0
290
     0
174
     0
 93
       13
 44
0.0
173
     0
291
     1
 45
0.0
1001
ACAD
1000
AcDbSavedByObjectVersion
1070
     0
  0
VISUALSTYLE
  5
47A
102
{ACAD_XDICTIONARY
360
4E8
102
}
102
{ACAD_REACTORS
330
476
102
}
330
476
100
AcDbVisualStyle
  2
GouraudWithEdges
 70
     3
 71
     2
 72
     2
 73
     1
 90
        2
 40
-0.6
 41
30.0
 62
     5
 63
     7
 74
     1
 91
        0
 64
     7
 65
   257
 75
     1
175
     1
 42
1.0
 92
        0
 66
   257
 43
1.0
 76
     1
 77
     6
 78
     2
 67
     7
 79
     5
170
     0
171
     0
290
     0
174
     0
 93
       13
 44
0.0
173
     0
291
     1
 45
0.0
1001
ACAD
1000
AcDbSavedByObjectVersion
1070
     0
  0
VISUALSTYLE
  5
47E
102
{ACAD_XDICTIONARY
360
4F0
102
}
102
{ACAD_REACTORS
330
476
102
}
330
476
100
AcDbVisualStyle
  2
Hidden
 70
     6
 71
     1
 72
     2
 73
     2
 90
        0
 40
-0.6
 41
-30.0
 62
     5
 63
     7
 74
     2
 91
        2
 64
     7
 65
   257
 75
     2
175
     1
 42
40.0
 92
        0
 66
   257
 43
1.0
 76
     1
 77
     6
 78
     2
 67
     7
 79
     3
170
     0
171
     0
290
     0
174
     0
 93
        1
 44
0.0
173
     0
291
     0
 45
0.0
1001
ACAD
1000
AcDbSavedByObjectVersion
1070
     0
  0
VISUALSTYLE
  5
48C
102
{ACAD_XDICTIONARY
360
50C
102
}
102
{ACAD_REACTORS
330
476
102
}
330
476
100
AcDbVisualStyle
  2
JitterOff
 70
    20
 71
     2
 72
     2
 73
     0
 90
        0
 40
-0.6
 41
-30.0
 62
     5
 63
     7
 74
     1
 91
        4
 64
     7
 65
   257
 75
     1
175
     1
 42
1.0
 92
       10
 66
     7
 43
1.0
 76
     1
 77
     6
 78
     2
 67
     7
 79
     5
170
     0
171
     0
290
     0
174
     0
 93
        1
 44
0.0
173
     0
291
     1
 45
0.0
1001
ACAD
1000
AcDbSavedByObjectVersion
1070
     0
  0
VISUALSTYLE
  5
484
102
{ACAD_XDICTIONARY
360
4FC
102
}
102
{ACAD_REACTORS
330
476
102
}
330
476
100
AcDbVisualStyle
  2
Linepattern
 70
    14
 71
     2
 72
     2
 73
     0
 90
        0
 40
-0.6
 41
-30.0
 62
     5
 63
     7
 74
     1
 91
        4
 64
     7
 65
   257
 75
     7
175
     7
 42
1.0
 92
        8
 66
     7
 43
1.0
 76
     1
 77
     6
 78
     2
 67
     7
 79
     5
170
     0
171
     0
290
     0
174
     0
 93
        1
 44
0.0
173
     0
291
     1
 45
0.0
1001
ACAD
1000
AcDbSavedByObjectVersion
1070
     0
  0
VISUALSTYLE
  5
48D
102
{ACAD_XDICTIONARY
360
50E
102
}
102
{ACAD_REACTORS
330
476
102
}
330
476
100
AcDbVisualStyle
  2
OverhangOff
 70
    21
 71
     2
 72
     2
 73
     0
 90
        0
 40
-0.6
 41
-30.0
 62
     5
 63
     7
 74
     1
 91
        4
 64
     7
 65
   257
 75
     1
175
     1
 42
1.0
 92
        9
 66
     7
 43
1.0
 76
     1
 77
     6
 78
     2
 67
     7
 79
     5
170
     0
171
     0
290
     0
174
     0
 93
        1
 44
0.0
173
     0
291
     1
 45
0.0
1001
ACAD
1000
AcDbSavedByObjectVersion
1070
     0
  0
VISUALSTYLE
  5
480
102
{ACAD_XDICTIONARY
360
4F4
102
}
102
{ACAD_REACTORS
330
476
102
}
330
476
100
AcDbVisualStyle
  2
Realistic
 70
     8
 71
     2
 72
     3
 73
     0
 90
        2
 40
-0.6
 41
30.0
 62
     5
 63
     7
 74
     0
 91
        0
 64
     7
 65
   257
 75
     1
175
     1
 42
1.0
 92
        8
 66
   257
 43
1.0
 76
     1
 77
     6
 78
     2
 67
     7
 79
     3
170
     0
171
     0
290
     0
174
     0
 93
       13
 44
0.0
173
     0
291
     0
 45
0.0
1001
ACAD
1000
AcDbSavedByObjectVersion
1070
     0
  0
VISUALSTYLE
  5
48B
102
{ACAD_XDICTIONARY
360
50A
102
}
102
{ACAD_REACTORS
330
476
102
}
330
476
100
AcDbVisualStyle
  2
Shaded
 70
    27
 71
     2
 72
     2
 73
     1
 90
        2
 40
-0.6
 41
30.0
 62
     5
 63
     7
 74
     0
 91
        4
 64
     7
 65
   257
 75
     1
175
     1
 42
1.0
 92
        8
 66
   257
 43
1.0
 76
     1
 77
     6
 78
     2
 67
     8
 79
     3
170
     0
171
     0
290
     0
174
     0
 93
        5
 44
0.0
173
     0
291
     0
 45
0.0
1001
ACAD
1000
AcDbSavedByObjectVersion
1070
     0
  0
VISUALSTYLE
  5
48A
102
{ACAD_XDICTIONARY
360
508
102
}
102
{ACAD_REACTORS
330
476
102
}
330
476
100
AcDbVisualStyle
  2
Shaded with edges
 70
    26
 71
     2
 72
     2
 73
     1
 90
        2
 40
-0.6
 41
30.0
 62
     5
 63
     7
 74
     1
 91
       10
 64
     7
 65
   257
 75
     2
175
     1
 42
1.0
 92
        8
 66
   257
 43
1.0
 76
     1
 77
     6
 78
     2
 67
     7
 79
     3
170
     0
171
     0
290
     0
174
     0
 93
        5
 44
0.0
173
     0
291
     0
 45
0.0
1001
ACAD
1000
AcDbSavedByObjectVersion
1070
     0
  0
VISUALSTYLE
  5
487
102
{ACAD_XDICTIONARY
360
502
102
}
102
{ACAD_REACTORS
330
476
102
}
330
476
100
AcDbVisualStyle
  2
Shades of Gray
 70
    23
 71
     2
 72
     2
 73
     3
 90
        0
 40
-0.6
 41
-30.0
 62
     5
 63
     7
 74
     2
 91
        2
 64
     7
 65
     7
 75
     1
175
     1
 42
40.0
 92
        8
 66
     7
 43
1.0
 76
     1
 77
     6
 78
     2
 67
     7
 79
     3
170
     0
171
     0
290
     0
174
     0
 93
        1
 44
0.0
173
     0
291
     0
 45
0.0
1001
ACAD
1000
AcDbSavedByObjectVersion
1070
     0
  0
VISUALSTYLE
  5
488
102
{ACAD_XDICTIONARY
360
504
102
}
102
{ACAD_REACTORS
330
476
102
}
330
476
100
AcDbVisualStyle
  2
Sketchy
 70
    24
 71
     1
 72
     2
 73
     2
 90
        0
 40
-0.6
 41
-30.0
 62
     5
 63
     7
 74
     2
 91
        2
 64
     7
 65
     7
 75
     1
175
     1
 42
40.0
 92
       11
 66
     7
 43
1.0
 76
     1
 77
     6
 78
     2
 67
     7
 79
     6
170
     0
171
     0
290
     0
174
     0
 93
        1
 44
0.0
173
     0
291
     0
 45
0.0
1001
ACAD
1000
AcDbSavedByObjectVersion
1070
     0
  0
VISUALSTYLE
  5
483
102
{ACAD_XDICTIONARY
360
4FA
102
}
102
{ACAD_REACTORS
330
476
102
}
330
476
100
AcDbVisualStyle
  2
Thicken
 70
    13
 71
     2
 72
     2
 73
     0
 90
        0
 40
-0.6
 41
-30.0
 62
     5
 63
     7
 74
     1
 91
        4
 64
     7
 65
   257
 75
     1
175
     1
 42
1.0
 92
       12
 66
     7
 43
1.0
 76
     1
 77
     6
 78
     2
 67
     7
 79
     5
170
     0
171
     0
290
     0
174
     0
 93
        1
 44
0.0
173
     0
291
     1
 45
0.0
1001
ACAD
1000
AcDbSavedByObjectVersion
1070
     0
  0
VISUALSTYLE
  5
47D
102
{ACAD_XDICTIONARY
360
4EE
102
}
102
{ACAD_REACTORS
330
476
102
}
330
476
100
AcDbVisualStyle
  2
Wireframe
 70
     5
 71
     0
 72
     2
 73
     0
 90
        0
 40
-0.6
 41
-30.0
 62
     5
 63
     7
 74
     1
 91
        4
 64
     7
 65
   257
 75
     1
175
     1
 42
1.0
 92
        0
 66
   257
 43
1.0
 76
     1
 77
     6
 78
     2
 67
     7
 79
     3
170
     0
171
     0
290
     0
174
     0
 93
        1
 44
0.0
173
     0
291
     0
 45
0.0
1001
ACAD
1000
AcDbSavedByObjectVersion
1070
     0
  0
VISUALSTYLE
  5
489
102
{ACAD_XDICTIONARY
360
506
102
}
102
{ACAD_REACTORS
330
476
102
}
330
476
100
AcDbVisualStyle
  2
X-Ray
 70
    25
 71
     2
 72
     2
 73
     1
 90
        1
 40
0.5
 41
-30.0
 62
     5
 63
     7
 74
     1
 91
        0
 64
     7
 65
   257
 75
     1
175
     1
 42
1.0
 92
        8
 66
     7
 43
1.0
 76
     1
 77
     6
 78
     2
 67
     7
 79
     3
170
     0
171
     0
290
     0
174
     0
 93
       13
 44
0.0
173
     0
291
     0
 45
0.0
1001
ACAD
1000
AcDbSavedByObjectVersion
1070
     0
  0
DICTIONARYVAR
  5
4D6
102
{ACAD_REACTORS
330
2AC
102
}
330
2AC
100
DictionaryVariables
280
     0
  1
1:1
  0
DICTIONARYVAR
  5
4D5
102
{ACAD_REACTORS
330
2AC
102
}
330
2AC
100
DictionaryVariables
280
     0
  1
STANDARD
  0
DICTIONARYVAR
  5
4D4
102
{ACAD_REACTORS
330
2AC
102
}
330
2AC
100
DictionaryVariables
280
     0
  1
STANDARD
  0
DICTIONARYVAR
  5
2AE
102
{ACAD_REACTORS
330
2AC
102
}
330
2AC
100
DictionaryVariables
280
     0
  1
2
  0
DICTIONARYVAR
  5
2AD
102
{ACAD_REACTORS
330
2AC
102
}
330
2AC
100
DictionaryVariables
280
     0
  1
1
  0
DICTIONARYVAR
  5
4D8
102
{ACAD_REACTORS
330
2AC
102
}
330
2AC
100
DictionaryVariables
280
     0
  1
0
  0
DICTIONARYVAR
  5
4D7
102
{ACAD_REACTORS
330
2AC
102
}
330
2AC
100
DictionaryVariables
280
     0
  1
127
  0
DICTIONARYVAR
  5
4D9
102
{ACAD_REACTORS
330
2AC
102
}
330
2AC
100
DictionaryVariables
280
     0
  1
2
  0
DICTIONARY
  5
514
330
4A6
100
AcDbDictionary
280
     1
281
     1
  3
ACAD_XREC_ROUNDTRIP
360
515
  0
DICTIONARY
  5
516
330
4A7
100
AcDbDictionary
280
     1
281
     1
  3
ACAD_XREC_ROUNDTRIP
360
517
  0
DICTIONARY
  5
467
330
466
100
AcDbDictionary
280
     1
281
     1
  3
ACAD_XREC_ROUNDTRIP
360
4E0
  3
BUMPTILE
360
469
  3
DIFFUSETILE
360
468
  3
OPACITYTILE
360
46C
  3
REFLECTIONTILE
360
46B
  3
REFRACTIONTILE
360
46D
  3
SPECULARTILE
360
46A
  0
DICTIONARY
  5
45F
330
45E
100
AcDbDictionary
280
     1
281
     1
  3
ACAD_XREC_ROUNDTRIP
360
4DF
  3
BUMPTILE
360
461
  3
DIFFUSETILE
360
460
  3
OPACITYTILE
360
464
  3
REFLECTIONTILE
360
463
  3
REFRACTIONTILE
360
465
  3
SPECULARTILE
360
462
  0
DICTIONARY
  5
46F
330
46E
100
AcDbDictionary
280
     1
281
     1
  3
ACAD_XREC_ROUNDTRIP
360
4E1
  3
BUMPTILE
360
471
  3
DIFFUSETILE
360
470
  3
OPACITYTILE
360
474
  3
REFLECTIONTILE
360
473
  3
REFRACTIONTILE
360
475
  3
SPECULARTILE
360
472
  0
DICTIONARY
  5
4DB
330
491
100
AcDbDictionary
280
     1
281
     1
  3
ACAD_ROUNDTRIP_2008_TABLESTYLE_CELLSTYLEMAP
360
4DC
  3
ACAD_XREC_ROUNDTRIP
360
512
  0
DICTIONARY
  5
4EC
330
47C
100
AcDbDictionary
280
     1
281
     1
  3
ACAD_XREC_ROUNDTRIP
360
4ED
  0
DICTIONARY
  5
4EA
330
47B
100
AcDbDictionary
280
     1
281
     1
  3
ACAD_XREC_ROUNDTRIP
360
4EB
  0
DICTIONARY
  5
4F8
330
482
100
AcDbDictionary
280
     1
281
     1
  3
ACAD_XREC_ROUNDTRIP
360
4F9
  0
DICTIONARY
  5
500
330
486
100
AcDbDictionary
280
     1
281
     1
  3
ACAD_XREC_ROUNDTRIP
360
501
  0
DICTIONARY
  5
4F2
330
47F
100
AcDbDictionary
280
     1
281
     1
  3
ACAD_XREC_ROUNDTRIP
360
4F3
  0
DICTIONARY
  5
4F6
330
481
100
AcDbDictionary
280
     1
281
     1
  3
ACAD_XREC_ROUNDTRIP
360
4F7
  0
DICTIONARY
  5
510
330
48E
100
AcDbDictionary
280
     1
281
     1
  3
ACAD_XREC_ROUNDTRIP
360
511
  0
DICTIONARY
  5
4FE
330
485
100
AcDbDictionary
280
     1
281
     1
  3
ACAD_XREC_ROUNDTRIP
360
4FF
  0
DICTIONARY
  5
4E2
330
477
100
AcDbDictionary
280
     1
281
     1
  3
ACAD_XREC_ROUNDTRIP
360
4E3
  0
DICTIONARY
  5
4E4
330
478
100
AcDbDictionary
280
     1
281
     1
  3
ACAD_XREC_ROUNDTRIP
360
4E5
  0
DICTIONARY
  5
4E6
330
479
100
AcDbDictionary
280
     1
281
     1
  3
ACAD_XREC_ROUNDTRIP
360
4E7
  0
DICTIONARY
  5
4E8
330
47A
100
AcDbDictionary
280
     1
281
     1
  3
ACAD_XREC_ROUNDTRIP
360
4E9
  0
DICTIONARY
  5
4F0
330
47E
100
AcDbDictionary
280
     1
281
     1
  3
ACAD_XREC_ROUNDTRIP
360
4F1
  0
DICTIONARY
  5
50C
330
48C
100
AcDbDictionary
280
     1
281
     1
  3
ACAD_XREC_ROUNDTRIP
360
50D
  0
DICTIONARY
  5
4FC
330
484
100
AcDbDictionary
280
     1
281
     1
  3
ACAD_XREC_ROUNDTRIP
360
4FD
  0
DICTIONARY
  5
50E
330
48D
100
AcDbDictionary
280
     1
281
     1
  3
ACAD_XREC_ROUNDTRIP
360
50F
  0
DICTIONARY
  5
4F4
330
480
100
AcDbDictionary
280
     1
281
     1
  3
ACAD_XREC_ROUNDTRIP
360
4F5
  0
DICTIONARY
  5
50A
330
48B
100
AcDbDictionary
280
     1
281
     1
  3
ACAD_XREC_ROUNDTRIP
360
50B
  0
DICTIONARY
  5
508
330
48A
100
AcDbDictionary
280
     1
281
     1
  3
ACAD_XREC_ROUNDTRIP
360
509
  0
DICTIONARY
  5
502
330
487
100
AcDbDictionary
280
     1
281
     1
  3
ACAD_XREC_ROUNDTRIP
360
503
  0
DICTIONARY
  5
504
330
488
100
AcDbDictionary
280
     1
281
     1
  3
ACAD_XREC_ROUNDTRIP
360
505
  0
DICTIONARY
  5
4FA
330
483
100
AcDbDictionary
280
     1
281
     1
  3
ACAD_XREC_ROUNDTRIP
360
4FB
  0
DICTIONARY
  5
4EE
330
47D
100
AcDbDictionary
280
     1
281
     1
  3
ACAD_XREC_ROUNDTRIP
360
4EF
  0
DICTIONARY
  5
506
330
489
100
AcDbDictionary
280
     1
281
     1
  3
ACAD_XREC_ROUNDTRIP
360
507
  0
XRECORD
  5
515
102
{ACAD_REACTORS
330
514
102
}
330
514
100
AcDbXrecord
280
     1
102
SHADEPLOT
 70
     0
102
SHADEPLOTRESLEVEL
 70
     2
102
SHADEPLOTCUSTOMDPI
 70
   300
  0
XRECORD
  5
517
102
{ACAD_REACTORS
330
516
102
}
330
516
100
AcDbXrecord
280
     1
102
SHADEPLOT
 70
     0
102
SHADEPLOTRESLEVEL
 70
     2
102
SHADEPLOTCUSTOMDPI
 70
   300
  0
XRECORD
  5
4E0
102
{ACAD_REACTORS
330
467
102
}
330
467
100
AcDbXrecord
280
     1
102
MATERIAL
148
0.0
149
0.0
149
0.0
 93
        0
 94
      127
282
     0
 72
     0
 77
     0
171
     0
175
     0
179
     0
273
     0
  0
XRECORD
  5
469
102
{ACAD_REACTORS
330
467
102
}
330
467
100
AcDbXrecord
280
     1
270
     1
271
     1
  0
XRECORD
  5
468
102
{ACAD_REACTORS
330
467
102
}
330
467
100
AcDbXrecord
280
     1
270
     1
271
     1
  0
XRECORD
  5
46C
102
{ACAD_REACTORS
330
467
102
}
330
467
100
AcDbXrecord
280
     1
270
     1
271
     1
  0
XRECORD
  5
46B
102
{ACAD_REACTORS
330
467
102
}
330
467
100
AcDbXrecord
280
     1
270
     1
271
     1
  0
XRECORD
  5
46D
102
{ACAD_REACTORS
330
467
102
}
330
467
100
AcDbXrecord
280
     1
270
     1
271
     1
  0
XRECORD
  5
46A
102
{ACAD_REACTORS
330
467
102
}
330
467
100
AcDbXrecord
280
     1
270
     1
271
     1
  0
XRECORD
  5
4DF
102
{ACAD_REACTORS
330
45F
102
}
330
45F
100
AcDbXrecord
280
     1
102
MATERIAL
148
0.0
149
0.0
149
0.0
 93
        0
 94
      127
282
     0
 72
     0
 77
     0
171
     0
175
     0
179
     0
273
     0
  0
XRECORD
  5
461
102
{ACAD_REACTORS
330
45F
102
}
330
45F
100
AcDbXrecord
280
     1
270
     1
271
     1
  0
XRECORD
  5
460
102
{ACAD_REACTORS
330
45F
102
}
330
45F
100
AcDbXrecord
280
     1
270
     1
271
     1
  0
XRECORD
  5
464
102
{ACAD_REACTORS
330
45F
102
}
330
45F
100
AcDbXrecord
280
     1
270
     1
271
     1
  0
XRECORD
  5
463
102
{ACAD_REACTORS
330
45F
102
}
330
45F
100
AcDbXrecord
280
     1
270
     1
271
     1
  0
XRECORD
  5
465
102
{ACAD_REACTORS
330
45F
102
}
330
45F
100
AcDbXrecord
280
     1
270
     1
271
     1
  0
XRECORD
  5
462
102
{ACAD_REACTORS
330
45F
102
}
330
45F
100
AcDbXrecord
280
     1
270
     1
271
     1
  0
XRECORD
  5
4E1
102
{ACAD_REACTORS
330
46F
102
}
330
46F
100
AcDbXrecord
280
     1
102
MATERIAL
148
0.0
149
0.0
149
0.0
 93
        0
 94
      127
282
     0
 72
     0
 77
     0
171
     0
175
     0
179
     0
273
     0
  0
XRECORD
  5
471
102
{ACAD_REACTORS
330
46F
102
}
330
46F
100
AcDbXrecord
280
     1
270
     1
271
     1
  0
XRECORD
  5
470
102
{ACAD_REACTORS
330
46F
102
}
330
46F
100
AcDbXrecord
280
     1
270
     1
271
     1
  0
XRECORD
  5
474
102
{ACAD_REACTORS
330
46F
102
}
330
46F
100
AcDbXrecord
280
     1
270
     1
271
     1
  0
XRECORD
  5
473
102
{ACAD_REACTORS
330
46F
102
}
330
46F
100
AcDbXrecord
280
     1
270
     1
271
     1
  0
XRECORD
  5
475
102
{ACAD_REACTORS
330
46F
102
}
330
46F
100
AcDbXrecord
280
     1
270
     1
271
     1
  0
XRECORD
  5
472
102
{ACAD_REACTORS
330
46F
102
}
330
46F
100
AcDbXrecord
280
     1
270
     1
271
     1
  0
CELLSTYLEMAP
  5
4DC
102
{ACAD_REACTORS
330
4DB
102
}
330
4DB
100
AcDbCellStyleMap
 90
        3
300
CELLSTYLE
  1
TABLEFORMAT_BEGIN
 90
        5
170
     1
 91
        0
 92
    32768
 62
   257
 93
        1
300
CONTENTFORMAT
  1
CONTENTFORMAT_BEGIN
 90
        0
 91
        0
 92
      512
 93
        0
300

 40
0.0
140
1.0
 94
        5
 62
     0
340
17
144
6.0
309
CONTENTFORMAT_END
171
     1
301
MARGIN
  1
CELLMARGIN_BEGIN
 40
1.5
 40
1.5
 40
1.5
 40
1.5
 40
4.5
 40
4.5
309
CELLMARGIN_END
 94
        6
 95
        1
302
GRIDFORMAT
  1
GRIDFORMAT_BEGIN
 90
        0
 91
        1
 62
     0
 92
       -2
340
0
 93
        0
 40
1.125
309
GRIDFORMAT_END
 95
        2
302
GRIDFORMAT
  1
GRIDFORMAT_BEGIN
 90
        0
 91
        1
 62
     0
 92
       -2
340
0
 93
        0
 40
1.125
309
GRIDFORMAT_END
 95
        4
302
GRIDFORMAT
  1
GRIDFORMAT_BEGIN
 90
        0
 91
        1
 62
     0
 92
       -2
340
0
 93
        0
 40
1.125
309
GRIDFORMAT_END
 95
        8
302
GRIDFORMAT
  1
GRIDFORMAT_BEGIN
 90
        0
 91
        1
 62
     0
 92
       -2
340
0
 93
        0
 40
1.125
309
GRIDFORMAT_END
 95
       16
302
GRIDFORMAT
  1
GRIDFORMAT_BEGIN
 90
        0
 91
        1
 62
     0
 92
       -2
340
0
 93
        0
 40
1.125
309
GRIDFORMAT_END
 95
       32
302
GRIDFORMAT
  1
GRIDFORMAT_BEGIN
 90
        0
 91
        1
 62
     0
 92
       -2
340
0
 93
        0
 40
1.125
309
GRIDFORMAT_END
309
TABLEFORMAT_END
  1
CELLSTYLE_BEGIN
 90
        1
 91
        1
300
_TITLE
309
CELLSTYLE_END
300
CELLSTYLE
  1
TABLEFORMAT_BEGIN
 90
        5
170
     1
 91
        0
 92
        0
 62
   257
 93
        1
300
CONTENTFORMAT
  1
CONTENTFORMAT_BEGIN
 90
        0
 91
        0
 92
      512
 93
        0
300

 40
0.0
140
1.0
 94
        5
 62
     0
340
17
144
4.5
309
CONTENTFORMAT_END
171
     1
301
MARGIN
  1
CELLMARGIN_BEGIN
 40
1.5
 40
1.5
 40
1.5
 40
1.5
 40
4.5
 40
4.5
309
CELLMARGIN_END
 94
        6
 95
        1
302
GRIDFORMAT
  1
GRIDFORMAT_BEGIN
 90
        0
 91
        1
 62
     0
 92
       -2
340
0
 93
        0
 40
1.125
309
GRIDFORMAT_END
 95
        2
302
GRIDFORMAT
  1
GRIDFORMAT_BEGIN
 90
        0
 91
        1
 62
     0
 92
       -2
340
0
 93
        0
 40
1.125
309
GRIDFORMAT_END
 95
        4
302
GRIDFORMAT
  1
GRIDFORMAT_BEGIN
 90
        0
 91
        1
 62
     0
 92
       -2
340
0
 93
        0
 40
1.125
309
GRIDFORMAT_END
 95
        8
302
GRIDFORMAT
  1
GRIDFORMAT_BEGIN
 90
        0
 91
        1
 62
     0
 92
       -2
340
0
 93
        0
 40
1.125
309
GRIDFORMAT_END
 95
       16
302
GRIDFORMAT
  1
GRIDFORMAT_BEGIN
 90
        0
 91
        1
 62
     0
 92
       -2
340
0
 93
        0
 40
1.125
309
GRIDFORMAT_END
 95
       32
302
GRIDFORMAT
  1
GRIDFORMAT_BEGIN
 90
        0
 91
        1
 62
     0
 92
       -2
340
0
 93
        0
 40
1.125
309
GRIDFORMAT_END
309
TABLEFORMAT_END
  1
CELLSTYLE_BEGIN
 90
        2
 91
        1
300
_HEADER
309
CELLSTYLE_END
300
CELLSTYLE
  1
TABLEFORMAT_BEGIN
 90
        5
170
     1
 91
        0
 92
        0
 62
   257
 93
        1
300
CONTENTFORMAT
  1
CONTENTFORMAT_BEGIN
 90
        0
 91
        0
 92
      512
 93
        0
300

 40
0.0
140
1.0
 94
        2
 62
     0
340
17
144
4.5
309
CONTENTFORMAT_END
171
     1
301
MARGIN
  1
CELLMARGIN_BEGIN
 40
1.5
 40
1.5
 40
1.5
 40
1.5
 40
4.5
 40
4.5
309
CELLMARGIN_END
 94
        6
 95
        1
302
GRIDFORMAT
  1
GRIDFORMAT_BEGIN
 90
        0
 91
        1
 62
     0
 92
       -2
340
0
 93
        0
 40
1.125
309
GRIDFORMAT_END
 95
        2
302
GRIDFORMAT
  1
GRIDFORMAT_BEGIN
 90
        0
 91
        1
 62
     0
 92
       -2
340
0
 93
        0
 40
1.125
309
GRIDFORMAT_END
 95
        4
302
GRIDFORMAT
  1
GRIDFORMAT_BEGIN
 90
        0
 91
        1
 62
     0
 92
       -2
340
0
 93
        0
 40
1.125
309
GRIDFORMAT_END
 95
        8
302
GRIDFORMAT
  1
GRIDFORMAT_BEGIN
 90
        0
 91
        1
 62
     0
 92
       -2
340
0
 93
        0
 40
1.125
309
GRIDFORMAT_END
 95
       16
302
GRIDFORMAT
  1
GRIDFORMAT_BEGIN
 90
        0
 91
        1
 62
     0
 92
       -2
340
0
 93
        0
 40
1.125
309
GRIDFORMAT_END
 95
       32
302
GRIDFORMAT
  1
GRIDFORMAT_BEGIN
 90
        0
 91
        1
 62
     0
 92
       -2
340
0
 93
        0
 40
1.125
309
GRIDFORMAT_END
309
TABLEFORMAT_END
  1
CELLSTYLE_BEGIN
 90
        3
 91
        2
300
_DATA
309
CELLSTYLE_END
  0
XRECORD
  5
512
102
{ACAD_REACTORS
330
4DB
102
}
330
4DB
100
AcDbXrecord
280
     1
102
ACAD_ROUNDTRIP_PRE2007_TABLESTYLE
 90
      512
 91
        0
  1

 92
      512
 93
        0
  2

 94
      512
 95
        0
  3

  0
XRECORD
  5
4ED
102
{ACAD_REACTORS
330
4EC
102
}
330
4EC
100
AcDbXrecord
280
     1
102
RTVSPropertyOp0
 70
     1
102
RTVSPropertyOp1
 70
     1
102
RTVSPropertyOp2
 70
     1
102
RTVSPropertyOp3
 70
     1
102
RTVSPropertyOp4
 70
     1
102
RTVSPropertyOp5
 70
     1
102
RTVSPropertyOp6
 70
     1
102
RTVSPropertyOp7
 70
     1
102
RTVSPropertyOp8
 70
     1
102
RTVSPropertyOp9
 70
     1
102
RTVSPropertyOp10
 70
     1
102
RTVSPropertyOp11
 70
     1
102
RTVSPropertyOp12
 70
     1
102
RTVSPropertyOp13
 70
     1
102
RTVSPropertyOp14
 70
     1
102
RTVSPropertyOp15
 70
     1
102
RTVSPropertyOp16
 70
     1
102
RTVSPropertyOp17
 70
     1
102
RTVSPropertyOp18
 70
     1
102
RTVSPropertyOp19
 70
     1
102
RTVSPropertyOp20
 70
     1
102
RTVSPropertyOp21
 70
     1
102
RTVSPropertyOp22
 70
     1
102
RTVSPropertyOp23
 70
     1
102
RTVSPropertyOp24
 70
     1
102
RTVSPropertyOp25
 70
     1
102
RTVSPropertyOp26
 70
     1
102
RTVSPropertyOp27
 70
     1
102
RTVSPropertyOp28
 70
     1
102
RTVSPropertyOp29
 70
     1
102
RTVSPropertyOp30
 70
     1
102
RTVSPropertyOp31
 70
     1
102
RTVSPropertyOp32
 70
     1
  0
XRECORD
  5
4EB
102
{ACAD_REACTORS
330
4EA
102
}
330
4EA
100
AcDbXrecord
280
     1
102
RTVSPropertyOp0
 70
     1
102
RTVSPropertyOp1
 70
     1
102
RTVSPropertyOp2
 70
     1
102
RTVSPropertyOp3
 70
     1
102
RTVSPropertyOp4
 70
     1
102
RTVSPropertyOp5
 70
     1
102
RTVSPropertyOp6
 70
     1
102
RTVSPropertyOp7
 70
     1
102
RTVSPropertyOp8
 70
     1
102
RTVSPropertyOp9
 70
     1
102
RTVSPropertyOp10
 70
     1
102
RTVSPropertyOp11
 70
     1
102
RTVSPropertyOp12
 70
     1
102
RTVSPropertyOp13
 70
     1
102
RTVSPropertyOp14
 70
     1
102
RTVSPropertyOp15
 70
     1
102
RTVSPropertyOp16
 70
     1
102
RTVSPropertyOp17
 70
     1
102
RTVSPropertyOp18
 70
     1
102
RTVSPropertyOp19
 70
     1
102
RTVSPropertyOp20
 70
     1
102
RTVSPropertyOp21
 70
     1
102
RTVSPropertyOp22
 70
     1
102
RTVSPropertyOp23
 70
     1
102
RTVSPropertyOp24
 70
     1
102
RTVSPropertyOp25
 70
     1
102
RTVSPropertyOp26
 70
     1
102
RTVSPropertyOp27
 70
     1
102
RTVSPropertyOp28
 70
     1
102
RTVSPropertyOp29
 70
     1
102
RTVSPropertyOp30
 70
     1
102
RTVSPropertyOp31
 70
     1
102
RTVSPropertyOp32
 70
     1
  0
XRECORD
  5
4F9
102
{ACAD_REACTORS
330
4F8
102
}
330
4F8
100
AcDbXrecord
280
     1
102
RTVSPropertyOp0
 70
     1
102
RTVSPropertyOp1
 70
     1
102
RTVSPropertyOp2
 70
     1
102
RTVSPropertyOp3
 70
     1
102
RTVSPropertyOp4
 70
     1
102
RTVSPropertyOp5
 70
     1
102
RTVSPropertyOp6
 70
     1
102
RTVSPropertyOp7
 70
     1
102
RTVSPropertyOp8
 70
     1
102
RTVSPropertyOp9
 70
     1
102
RTVSPropertyOp10
 70
     1
102
RTVSPropertyOp11
 70
     1
102
RTVSPropertyOp12
 70
     1
102
RTVSPropertyOp13
 70
     1
102
RTVSPropertyOp14
 70
     1
102
RTVSPropertyOp15
 70
     1
102
RTVSPropertyOp16
 70
     1
102
RTVSPropertyOp17
 70
     1
102
RTVSPropertyOp18
 70
     1
102
RTVSPropertyOp19
 70
     1
102
RTVSPropertyOp20
 70
     1
102
RTVSPropertyOp21
 70
     1
102
RTVSPropertyOp22
 70
     1
102
RTVSPropertyOp23
 70
     1
102
RTVSPropertyOp24
 70
     1
102
RTVSPropertyOp25
 70
     1
102
RTVSPropertyOp26
 70
     1
102
RTVSPropertyOp27
 70
     1
102
RTVSPropertyOp28
 70
     1
102
RTVSPropertyOp29
 70
     1
102
RTVSPropertyOp30
 70
     1
102
RTVSPropertyOp31
 70
     1
102
RTVSPropertyOp32
 70
     1
  0
XRECORD
  5
501
102
{ACAD_REACTORS
330
500
102
}
330
500
100
AcDbXrecord
280
     1
102
RTVSPropertyOp0
 70
     1
102
RTVSPropertyOp1
 70
     1
102
RTVSPropertyOp2
 70
     1
102
RTVSPropertyOp3
 70
     1
102
RTVSPropertyOp4
 70
     1
102
RTVSPropertyOp5
 70
     1
102
RTVSPropertyOp6
 70
     1
102
RTVSPropertyOp7
 70
     1
102
RTVSPropertyOp8
 70
     1
102
RTVSPropertyOp9
 70
     1
102
RTVSPropertyOp10
 70
     1
102
RTVSPropertyOp11
 70
     1
102
RTVSPropertyOp12
 70
     1
102
RTVSPropertyOp13
 70
     1
102
RTVSPropertyOp14
 70
     1
102
RTVSPropertyOp15
 70
     1
102
RTVSPropertyOp16
 70
     1
102
RTVSPropertyOp17
 70
     1
102
RTVSPropertyOp18
 70
     1
102
RTVSPropertyOp19
 70
     1
102
RTVSPropertyOp20
 70
     1
102
RTVSPropertyOp21
 70
     1
102
RTVSPropertyOp22
 70
     1
102
RTVSPropertyOp23
 70
     1
102
RTVSPropertyOp24
 70
     1
102
RTVSPropertyOp25
 70
     1
102
RTVSPropertyOp26
 70
     1
102
RTVSPropertyOp27
 70
     1
102
RTVSPropertyOp28
 70
     1
102
RTVSPropertyOp29
 70
     1
102
RTVSPropertyOp30
 70
     1
102
RTVSPropertyOp31
 70
     1
102
RTVSPropertyOp32
 70
     1
  0
XRECORD
  5
4F3
102
{ACAD_REACTORS
330
4F2
102
}
330
4F2
100
AcDbXrecord
280
     1
102
RTVSPropertyOp0
 70
     1
102
RTVSPropertyOp1
 70
     1
102
RTVSPropertyOp2
 70
     1
102
RTVSPropertyOp3
 70
     1
102
RTVSPropertyOp4
 70
     1
102
RTVSPropertyOp5
 70
     1
102
RTVSPropertyOp6
 70
     1
102
RTVSPropertyOp7
 70
     1
102
RTVSPropertyOp8
 70
     1
102
RTVSPropertyOp9
 70
     1
102
RTVSPropertyOp10
 70
     1
102
RTVSPropertyOp11
 70
     1
102
RTVSPropertyOp12
 70
     1
102
RTVSPropertyOp13
 70
     1
102
RTVSPropertyOp14
 70
     1
102
RTVSPropertyOp15
 70
     1
102
RTVSPropertyOp16
 70
     1
102
RTVSPropertyOp17
 70
     1
102
RTVSPropertyOp18
 70
     1
102
RTVSPropertyOp19
 70
     1
102
RTVSPropertyOp20
 70
     1
102
RTVSPropertyOp21
 70
     1
102
RTVSPropertyOp22
 70
     1
102
RTVSPropertyOp23
 70
     1
102
RTVSPropertyOp24
 70
     1
102
RTVSPropertyOp25
 70
     1
102
RTVSPropertyOp26
 70
     1
102
RTVSPropertyOp27
 70
     1
102
RTVSPropertyOp28
 70
     1
102
RTVSPropertyOp29
 70
     1
102
RTVSPropertyOp30
 70
     1
102
RTVSPropertyOp31
 70
     1
102
RTVSPropertyOp32
 70
     1
  0
XRECORD
  5
4F7
102
{ACAD_REACTORS
330
4F6
102
}
330
4F6
100
AcDbXrecord
280
     1
102
RTVSPropertyOp0
 70
     1
102
RTVSPropertyOp1
 70
     1
102
RTVSPropertyOp2
 70
     1
102
RTVSPropertyOp3
 70
     1
102
RTVSPropertyOp4
 70
     1
102
RTVSPropertyOp5
 70
     1
102
RTVSPropertyOp6
 70
     1
102
RTVSPropertyOp7
 70
     1
102
RTVSPropertyOp8
 70
     1
102
RTVSPropertyOp9
 70
     1
102
RTVSPropertyOp10
 70
     1
102
RTVSPropertyOp11
 70
     1
102
RTVSPropertyOp12
 70
     1
102
RTVSPropertyOp13
 70
     1
102
RTVSPropertyOp14
 70
     1
102
RTVSPropertyOp15
 70
     1
102
RTVSPropertyOp16
 70
     1
102
RTVSPropertyOp17
 70
     1
102
RTVSPropertyOp18
 70
     1
102
RTVSPropertyOp19
 70
     1
102
RTVSPropertyOp20
 70
     1
102
RTVSPropertyOp21
 70
     1
102
RTVSPropertyOp22
 70
     1
102
RTVSPropertyOp23
 70
     1
102
RTVSPropertyOp24
 70
     1
102
RTVSPropertyOp25
 70
     1
102
RTVSPropertyOp26
 70
     1
102
RTVSPropertyOp27
 70
     1
102
RTVSPropertyOp28
 70
     1
102
RTVSPropertyOp29
 70
     1
102
RTVSPropertyOp30
 70
     1
102
RTVSPropertyOp31
 70
     1
102
RTVSPropertyOp32
 70
     1
  0
XRECORD
  5
511
102
{ACAD_REACTORS
330
510
102
}
330
510
100
AcDbXrecord
280
     1
102
RTVSPropertyOp0
 70
     0
102
RTVSPropertyOp1
 70
     0
102
RTVSPropertyOp2
 70
     0
102
RTVSPropertyOp3
 70
     0
102
RTVSPropertyOp4
 70
     0
102
RTVSPropertyOp5
 70
     0
102
RTVSPropertyOp6
 70
     0
102
RTVSPropertyOp7
 70
     0
102
RTVSPropertyOp8
 70
     0
102
RTVSPropertyOp9
 70
     0
102
RTVSPropertyOp10
 70
     0
102
RTVSPropertyOp11
 70
     0
102
RTVSPropertyOp12
 70
     0
102
RTVSPropertyOp13
 70
     0
102
RTVSPropertyOp14
 70
     2
102
RTVSPropertyOp15
 70
     0
102
RTVSPropertyOp16
 70
     0
102
RTVSPropertyOp17
 70
     0
102
RTVSPropertyOp18
 70
     0
102
RTVSPropertyOp19
 70
     0
102
RTVSPropertyOp20
 70
     0
102
RTVSPropertyOp21
 70
     0
102
RTVSPropertyOp22
 70
     0
102
RTVSPropertyOp23
 70
     0
102
RTVSPropertyOp24
 70
     0
102
RTVSPropertyOp25
 70
     0
102
RTVSPropertyOp26
 70
     0
102
RTVSPropertyOp27
 70
     0
102
RTVSPropertyOp28
 70
     0
102
RTVSPropertyOp29
 70
     0
102
RTVSPropertyOp30
 70
     0
102
RTVSPropertyOp31
 70
     0
102
RTVSPropertyOp32
 70
     0
  0
XRECORD
  5
4FF
102
{ACAD_REACTORS
330
4FE
102
}
330
4FE
100
AcDbXrecord
280
     1
102
RTVSPropertyOp0
 70
     1
102
RTVSPropertyOp1
 70
     1
102
RTVSPropertyOp2
 70
     1
102
RTVSPropertyOp3
 70
     1
102
RTVSPropertyOp4
 70
     1
102
RTVSPropertyOp5
 70
     1
102
RTVSPropertyOp6
 70
     1
102
RTVSPropertyOp7
 70
     1
102
RTVSPropertyOp8
 70
     1
102
RTVSPropertyOp9
 70
     1
102
RTVSPropertyOp10
 70
     1
102
RTVSPropertyOp11
 70
     1
102
RTVSPropertyOp12
 70
     1
102
RTVSPropertyOp13
 70
     1
102
RTVSPropertyOp14
 70
     1
102
RTVSPropertyOp15
 70
     1
102
RTVSPropertyOp16
 70
     1
102
RTVSPropertyOp17
 70
     1
102
RTVSPropertyOp18
 70
     1
102
RTVSPropertyOp19
 70
     1
102
RTVSPropertyOp20
 70
     1
102
RTVSPropertyOp21
 70
     1
102
RTVSPropertyOp22
 70
     1
102
RTVSPropertyOp23
 70
     1
102
RTVSPropertyOp24
 70
     1
102
RTVSPropertyOp25
 70
     1
102
RTVSPropertyOp26
 70
     1
102
RTVSPropertyOp27
 70
     1
102
RTVSPropertyOp28
 70
     1
102
RTVSPropertyOp29
 70
     1
102
RTVSPropertyOp30
 70
     1
102
RTVSPropertyOp31
 70
     1
102
RTVSPropertyOp32
 70
     1
  0
XRECORD
  5
4E3
102
{ACAD_REACTORS
330
4E2
102
}
330
4E2
100
AcDbXrecord
280
     1
102
RTVSPropertyOp0
 70
     1
102
RTVSPropertyOp1
 70
     1
102
RTVSPropertyOp2
 70
     1
102
RTVSPropertyOp3
 70
     1
102
RTVSPropertyOp4
 70
     1
102
RTVSPropertyOp5
 70
     1
102
RTVSPropertyOp6
 70
     1
102
RTVSPropertyOp7
 70
     1
102
RTVSPropertyOp8
 70
     1
102
RTVSPropertyOp9
 70
     1
102
RTVSPropertyOp10
 70
     1
102
RTVSPropertyOp11
 70
     1
102
RTVSPropertyOp12
 70
     1
102
RTVSPropertyOp13
 70
     1
102
RTVSPropertyOp14
 70
     1
102
RTVSPropertyOp15
 70
     1
102
RTVSPropertyOp16
 70
     1
102
RTVSPropertyOp17
 70
     1
102
RTVSPropertyOp18
 70
     1
102
RTVSPropertyOp19
 70
     1
102
RTVSPropertyOp20
 70
     1
102
RTVSPropertyOp21
 70
     1
102
RTVSPropertyOp22
 70
     1
102
RTVSPropertyOp23
 70
     1
102
RTVSPropertyOp24
 70
     1
102
RTVSPropertyOp25
 70
     1
102
RTVSPropertyOp26
 70
     1
102
RTVSPropertyOp27
 70
     1
102
RTVSPropertyOp28
 70
     1
102
RTVSPropertyOp29
 70
     1
102
RTVSPropertyOp30
 70
     1
102
RTVSPropertyOp31
 70
     1
102
RTVSPropertyOp32
 70
     1
  0
XRECORD
  5
4E5
102
{ACAD_REACTORS
330
4E4
102
}
330
4E4
100
AcDbXrecord
280
     1
102
RTVSPropertyOp0
 70
     1
102
RTVSPropertyOp1
 70
     1
102
RTVSPropertyOp2
 70
     1
102
RTVSPropertyOp3
 70
     1
102
RTVSPropertyOp4
 70
     1
102
RTVSPropertyOp5
 70
     1
102
RTVSPropertyOp6
 70
     1
102
RTVSPropertyOp7
 70
     1
102
RTVSPropertyOp8
 70
     1
102
RTVSPropertyOp9
 70
     1
102
RTVSPropertyOp10
 70
     1
102
RTVSPropertyOp11
 70
     1
102
RTVSPropertyOp12
 70
     1
102
RTVSPropertyOp13
 70
     1
102
RTVSPropertyOp14
 70
     1
102
RTVSPropertyOp15
 70
     1
102
RTVSPropertyOp16
 70
     1
102
RTVSPropertyOp17
 70
     1
102
RTVSPropertyOp18
 70
     1
102
RTVSPropertyOp19
 70
     1
102
RTVSPropertyOp20
 70
     1
102
RTVSPropertyOp21
 70
     1
102
RTVSPropertyOp22
 70
     1
102
RTVSPropertyOp23
 70
     1
102
RTVSPropertyOp24
 70
     1
102
RTVSPropertyOp25
 70
     1
102
RTVSPropertyOp26
 70
     1
102
RTVSPropertyOp27
 70
     1
102
RTVSPropertyOp28
 70
     1
102
RTVSPropertyOp29
 70
     1
102
RTVSPropertyOp30
 70
     1
102
RTVSPropertyOp31
 70
     1
102
RTVSPropertyOp32
 70
     1
  0
XRECORD
  5
4E7
102
{ACAD_REACTORS
330
4E6
102
}
330
4E6
100
AcDbXrecord
280
     1
102
RTVSPropertyOp0
 70
     1
102
RTVSPropertyOp1
 70
     1
102
RTVSPropertyOp2
 70
     1
102
RTVSPropertyOp3
 70
     1
102
RTVSPropertyOp4
 70
     1
102
RTVSPropertyOp5
 70
     1
102
RTVSPropertyOp6
 70
     1
102
RTVSPropertyOp7
 70
     1
102
RTVSPropertyOp8
 70
     1
102
RTVSPropertyOp9
 70
     1
102
RTVSPropertyOp10
 70
     1
102
RTVSPropertyOp11
 70
     1
102
RTVSPropertyOp12
 70
     1
102
RTVSPropertyOp13
 70
     1
102
RTVSPropertyOp14
 70
     1
102
RTVSPropertyOp15
 70
     1
102
RTVSPropertyOp16
 70
     1
102
RTVSPropertyOp17
 70
     1
102
RTVSPropertyOp18
 70
     1
102
RTVSPropertyOp19
 70
     1
102
RTVSPropertyOp20
 70
     1
102
RTVSPropertyOp21
 70
     1
102
RTVSPropertyOp22
 70
     1
102
RTVSPropertyOp23
 70
     1
102
RTVSPropertyOp24
 70
     1
102
RTVSPropertyOp25
 70
     1
102
RTVSPropertyOp26
 70
     1
102
RTVSPropertyOp27
 70
     1
102
RTVSPropertyOp28
 70
     1
102
RTVSPropertyOp29
 70
     1
102
RTVSPropertyOp30
 70
     1
102
RTVSPropertyOp31
 70
     1
102
RTVSPropertyOp32
 70
     1
  0
XRECORD
  5
4E9
102
{ACAD_REACTORS
330
4E8
102
}
330
4E8
100
AcDbXrecord
280
     1
102
RTVSPropertyOp0
 70
     1
102
RTVSPropertyOp1
 70
     1
102
RTVSPropertyOp2
 70
     1
102
RTVSPropertyOp3
 70
     1
102
RTVSPropertyOp4
 70
     1
102
RTVSPropertyOp5
 70
     1
102
RTVSPropertyOp6
 70
     1
102
RTVSPropertyOp7
 70
     1
102
RTVSPropertyOp8
 70
     1
102
RTVSPropertyOp9
 70
     1
102
RTVSPropertyOp10
 70
     1
102
RTVSPropertyOp11
 70
     1
102
RTVSPropertyOp12
 70
     1
102
RTVSPropertyOp13
 70
     1
102
RTVSPropertyOp14
 70
     1
102
RTVSPropertyOp15
 70
     1
102
RTVSPropertyOp16
 70
     1
102
RTVSPropertyOp17
 70
     1
102
RTVSPropertyOp18
 70
     1
102
RTVSPropertyOp19
 70
     1
102
RTVSPropertyOp20
 70
     1
102
RTVSPropertyOp21
 70
     1
102
RTVSPropertyOp22
 70
     1
102
RTVSPropertyOp23
 70
     1
102
RTVSPropertyOp24
 70
     1
102
RTVSPropertyOp25
 70
     1
102
RTVSPropertyOp26
 70
     1
102
RTVSPropertyOp27
 70
     1
102
RTVSPropertyOp28
 70
     1
102
RTVSPropertyOp29
 70
     1
102
RTVSPropertyOp30
 70
     1
102
RTVSPropertyOp31
 70
     1
102
RTVSPropertyOp32
 70
     1
  0
XRECORD
  5
4F1
102
{ACAD_REACTORS
330
4F0
102
}
330
4F0
100
AcDbXrecord
280
     1
102
RTVSPropertyOp0
 70
     1
102
RTVSPropertyOp1
 70
     1
102
RTVSPropertyOp2
 70
     1
102
RTVSPropertyOp3
 70
     1
102
RTVSPropertyOp4
 70
     1
102
RTVSPropertyOp5
 70
     1
102
RTVSPropertyOp6
 70
     1
102
RTVSPropertyOp7
 70
     1
102
RTVSPropertyOp8
 70
     1
102
RTVSPropertyOp9
 70
     1
102
RTVSPropertyOp10
 70
     1
102
RTVSPropertyOp11
 70
     1
102
RTVSPropertyOp12
 70
     1
102
RTVSPropertyOp13
 70
     1
102
RTVSPropertyOp14
 70
     1
102
RTVSPropertyOp15
 70
     1
102
RTVSPropertyOp16
 70
     1
102
RTVSPropertyOp17
 70
     1
102
RTVSPropertyOp18
 70
     1
102
RTVSPropertyOp19
 70
     1
102
RTVSPropertyOp20
 70
     1
102
RTVSPropertyOp21
 70
     1
102
RTVSPropertyOp22
 70
     1
102
RTVSPropertyOp23
 70
     1
102
RTVSPropertyOp24
 70
     1
102
RTVSPropertyOp25
 70
     1
102
RTVSPropertyOp26
 70
     1
102
RTVSPropertyOp27
 70
     1
102
RTVSPropertyOp28
 70
     1
102
RTVSPropertyOp29
 70
     1
102
RTVSPropertyOp30
 70
     1
102
RTVSPropertyOp31
 70
     1
102
RTVSPropertyOp32
 70
     1
  0
XRECORD
  5
50D
102
{ACAD_REACTORS
330
50C
102
}
330
50C
100
AcDbXrecord
280
     1
102
RTVSPropertyOp0
 70
     0
102
RTVSPropertyOp1
 70
     0
102
RTVSPropertyOp2
 70
     0
102
RTVSPropertyOp3
 70
     0
102
RTVSPropertyOp4
 70
     0
102
RTVSPropertyOp5
 70
     0
102
RTVSPropertyOp6
 70
     0
102
RTVSPropertyOp7
 70
     0
102
RTVSPropertyOp8
 70
     0
102
RTVSPropertyOp9
 70
     0
102
RTVSPropertyOp10
 70
     0
102
RTVSPropertyOp11
 70
     0
102
RTVSPropertyOp12
 70
     0
102
RTVSPropertyOp13
 70
     0
102
RTVSPropertyOp14
 70
     2
102
RTVSPropertyOp15
 70
     0
102
RTVSPropertyOp16
 70
     0
102
RTVSPropertyOp17
 70
     0
102
RTVSPropertyOp18
 70
     0
102
RTVSPropertyOp19
 70
     0
102
RTVSPropertyOp20
 70
     0
102
RTVSPropertyOp21
 70
     0
102
RTVSPropertyOp22
 70
     0
102
RTVSPropertyOp23
 70
     0
102
RTVSPropertyOp24
 70
     0
102
RTVSPropertyOp25
 70
     0
102
RTVSPropertyOp26
 70
     0
102
RTVSPropertyOp27
 70
     0
102
RTVSPropertyOp28
 70
     0
102
RTVSPropertyOp29
 70
     0
102
RTVSPropertyOp30
 70
     0
102
RTVSPropertyOp31
 70
     0
102
RTVSPropertyOp32
 70
     0
  0
XRECORD
  5
4FD
102
{ACAD_REACTORS
330
4FC
102
}
330
4FC
100
AcDbXrecord
280
     1
102
RTVSPropertyOp0
 70
     1
102
RTVSPropertyOp1
 70
     1
102
RTVSPropertyOp2
 70
     1
102
RTVSPropertyOp3
 70
     1
102
RTVSPropertyOp4
 70
     1
102
RTVSPropertyOp5
 70
     1
102
RTVSPropertyOp6
 70
     1
102
RTVSPropertyOp7
 70
     1
102
RTVSPropertyOp8
 70
     1
102
RTVSPropertyOp9
 70
     1
102
RTVSPropertyOp10
 70
     1
102
RTVSPropertyOp11
 70
     1
102
RTVSPropertyOp12
 70
     1
102
RTVSPropertyOp13
 70
     1
102
RTVSPropertyOp14
 70
     1
102
RTVSPropertyOp15
 70
     1
102
RTVSPropertyOp16
 70
     1
102
RTVSPropertyOp17
 70
     1
102
RTVSPropertyOp18
 70
     1
102
RTVSPropertyOp19
 70
     1
102
RTVSPropertyOp20
 70
     1
102
RTVSPropertyOp21
 70
     1
102
RTVSPropertyOp22
 70
     1
102
RTVSPropertyOp23
 70
     1
102
RTVSPropertyOp24
 70
     1
102
RTVSPropertyOp25
 70
     1
102
RTVSPropertyOp26
 70
     1
102
RTVSPropertyOp27
 70
     1
102
RTVSPropertyOp28
 70
     1
102
RTVSPropertyOp29
 70
     1
102
RTVSPropertyOp30
 70
     1
102
RTVSPropertyOp31
 70
     1
102
RTVSPropertyOp32
 70
     1
  0
XRECORD
  5
50F
102
{ACAD_REACTORS
330
50E
102
}
330
50E
100
AcDbXrecord
280
     1
102
RTVSPropertyOp0
 70
     0
102
RTVSPropertyOp1
 70
     0
102
RTVSPropertyOp2
 70
     0
102
RTVSPropertyOp3
 70
     0
102
RTVSPropertyOp4
 70
     0
102
RTVSPropertyOp5
 70
     0
102
RTVSPropertyOp6
 70
     0
102
RTVSPropertyOp7
 70
     0
102
RTVSPropertyOp8
 70
     0
102
RTVSPropertyOp9
 70
     0
102
RTVSPropertyOp10
 70
     0
102
RTVSPropertyOp11
 70
     0
102
RTVSPropertyOp12
 70
     0
102
RTVSPropertyOp13
 70
     0
102
RTVSPropertyOp14
 70
     2
102
RTVSPropertyOp15
 70
     0
102
RTVSPropertyOp16
 70
     0
102
RTVSPropertyOp17
 70
     0
102
RTVSPropertyOp18
 70
     0
102
RTVSPropertyOp19
 70
     0
102
RTVSPropertyOp20
 70
     0
102
RTVSPropertyOp21
 70
     0
102
RTVSPropertyOp22
 70
     0
102
RTVSPropertyOp23
 70
     0
102
RTVSPropertyOp24
 70
     0
102
RTVSPropertyOp25
 70
     0
102
RTVSPropertyOp26
 70
     0
102
RTVSPropertyOp27
 70
     0
102
RTVSPropertyOp28
 70
     0
102
RTVSPropertyOp29
 70
     0
102
RTVSPropertyOp30
 70
     0
102
RTVSPropertyOp31
 70
     0
102
RTVSPropertyOp32
 70
     0
  0
XRECORD
  5
4F5
102
{ACAD_REACTORS
330
4F4
102
}
330
4F4
100
AcDbXrecord
280
     1
102
RTVSPropertyOp0
 70
     1
102
RTVSPropertyOp1
 70
     1
102
RTVSPropertyOp2
 70
     1
102
RTVSPropertyOp3
 70
     1
102
RTVSPropertyOp4
 70
     1
102
RTVSPropertyOp5
 70
     1
102
RTVSPropertyOp6
 70
     1
102
RTVSPropertyOp7
 70
     1
102
RTVSPropertyOp8
 70
     1
102
RTVSPropertyOp9
 70
     1
102
RTVSPropertyOp10
 70
     1
102
RTVSPropertyOp11
 70
     1
102
RTVSPropertyOp12
 70
     1
102
RTVSPropertyOp13
 70
     1
102
RTVSPropertyOp14
 70
     1
102
RTVSPropertyOp15
 70
     1
102
RTVSPropertyOp16
 70
     1
102
RTVSPropertyOp17
 70
     1
102
RTVSPropertyOp18
 70
     1
102
RTVSPropertyOp19
 70
     1
102
RTVSPropertyOp20
 70
     1
102
RTVSPropertyOp21
 70
     1
102
RTVSPropertyOp22
 70
     1
102
RTVSPropertyOp23
 70
     1
102
RTVSPropertyOp24
 70
     1
102
RTVSPropertyOp25
 70
     1
102
RTVSPropertyOp26
 70
     1
102
RTVSPropertyOp27
 70
     1
102
RTVSPropertyOp28
 70
     1
102
RTVSPropertyOp29
 70
     1
102
RTVSPropertyOp30
 70
     1
102
RTVSPropertyOp31
 70
     1
102
RTVSPropertyOp32
 70
     1
  0
XRECORD
  5
50B
102
{ACAD_REACTORS
330
50A
102
}
330
50A
100
AcDbXrecord
280
     1
102
RTVSPropertyOp0
 70
     1
102
RTVSPropertyOp1
 70
     1
102
RTVSPropertyOp2
 70
     1
102
RTVSPropertyOp3
 70
     1
102
RTVSPropertyOp4
 70
     1
102
RTVSPropertyOp5
 70
     1
102
RTVSPropertyOp6
 70
     1
102
RTVSPropertyOp7
 70
     1
102
RTVSPropertyOp8
 70
     1
102
RTVSPropertyOp9
 70
     1
102
RTVSPropertyOp10
 70
     1
102
RTVSPropertyOp11
 70
     1
102
RTVSPropertyOp12
 70
     1
102
RTVSPropertyOp13
 70
     1
102
RTVSPropertyOp14
 70
     1
102
RTVSPropertyOp15
 70
     1
102
RTVSPropertyOp16
 70
     1
102
RTVSPropertyOp17
 70
     1
102
RTVSPropertyOp18
 70
     1
102
RTVSPropertyOp19
 70
     1
102
RTVSPropertyOp20
 70
     1
102
RTVSPropertyOp21
 70
     1
102
RTVSPropertyOp22
 70
     1
102
RTVSPropertyOp23
 70
     1
102
RTVSPropertyOp24
 70
     1
102
RTVSPropertyOp25
 70
     1
102
RTVSPropertyOp26
 70
     1
102
RTVSPropertyOp27
 70
     1
102
RTVSPropertyOp28
 70
     1
102
RTVSPropertyOp29
 70
     1
102
RTVSPropertyOp30
 70
     1
102
RTVSPropertyOp31
 70
     1
102
RTVSPropertyOp32
 70
     1
  0
XRECORD
  5
509
102
{ACAD_REACTORS
330
508
102
}
330
508
100
AcDbXrecord
280
     1
102
RTVSPropertyOp0
 70
     1
102
RTVSPropertyOp1
 70
     1
102
RTVSPropertyOp2
 70
     1
102
RTVSPropertyOp3
 70
     1
102
RTVSPropertyOp4
 70
     1
102
RTVSPropertyOp5
 70
     1
102
RTVSPropertyOp6
 70
     1
102
RTVSPropertyOp7
 70
     1
102
RTVSPropertyOp8
 70
     1
102
RTVSPropertyOp9
 70
     1
102
RTVSPropertyOp10
 70
     1
102
RTVSPropertyOp11
 70
     1
102
RTVSPropertyOp12
 70
     1
102
RTVSPropertyOp13
 70
     1
102
RTVSPropertyOp14
 70
     1
102
RTVSPropertyOp15
 70
     1
102
RTVSPropertyOp16
 70
     1
102
RTVSPropertyOp17
 70
     1
102
RTVSPropertyOp18
 70
     1
102
RTVSPropertyOp19
 70
     1
102
RTVSPropertyOp20
 70
     1
102
RTVSPropertyOp21
 70
     1
102
RTVSPropertyOp22
 70
     1
102
RTVSPropertyOp23
 70
     1
102
RTVSPropertyOp24
 70
     1
102
RTVSPropertyOp25
 70
     1
102
RTVSPropertyOp26
 70
     1
102
RTVSPropertyOp27
 70
     1
102
RTVSPropertyOp28
 70
     1
102
RTVSPropertyOp29
 70
     1
102
RTVSPropertyOp30
 70
     1
102
RTVSPropertyOp31
 70
     1
102
RTVSPropertyOp32
 70
     1
  0
XRECORD
  5
503
102
{ACAD_REACTORS
330
502
102
}
330
502
100
AcDbXrecord
280
     1
102
RTVSPropertyOp0
 70
     1
102
RTVSPropertyOp1
 70
     1
102
RTVSPropertyOp2
 70
     1
102
RTVSPropertyOp3
 70
     1
102
RTVSPropertyOp4
 70
     1
102
RTVSPropertyOp5
 70
     1
102
RTVSPropertyOp6
 70
     1
102
RTVSPropertyOp7
 70
     1
102
RTVSPropertyOp8
 70
     1
102
RTVSPropertyOp9
 70
     1
102
RTVSPropertyOp10
 70
     1
102
RTVSPropertyOp11
 70
     1
102
RTVSPropertyOp12
 70
     1
102
RTVSPropertyOp13
 70
     1
102
RTVSPropertyOp14
 70
     1
102
RTVSPropertyOp15
 70
     1
102
RTVSPropertyOp16
 70
     1
102
RTVSPropertyOp17
 70
     1
102
RTVSPropertyOp18
 70
     1
102
RTVSPropertyOp19
 70
     1
102
RTVSPropertyOp20
 70
     1
102
RTVSPropertyOp21
 70
     1
102
RTVSPropertyOp22
 70
     1
102
RTVSPropertyOp23
 70
     1
102
RTVSPropertyOp24
 70
     1
102
RTVSPropertyOp25
 70
     1
102
RTVSPropertyOp26
 70
     1
102
RTVSPropertyOp27
 70
     1
102
RTVSPropertyOp28
 70
     1
102
RTVSPropertyOp29
 70
     1
102
RTVSPropertyOp30
 70
     1
102
RTVSPropertyOp31
 70
     1
102
RTVSPropertyOp32
 70
     1
  0
XRECORD
  5
505
102
{ACAD_REACTORS
330
504
102
}
330
504
100
AcDbXrecord
280
     1
102
RTVSPropertyOp0
 70
     1
102
RTVSPropertyOp1
 70
     1
102
RTVSPropertyOp2
 70
     1
102
RTVSPropertyOp3
 70
     1
102
RTVSPropertyOp4
 70
     1
102
RTVSPropertyOp5
 70
     1
102
RTVSPropertyOp6
 70
     1
102
RTVSPropertyOp7
 70
     1
102
RTVSPropertyOp8
 70
     1
102
RTVSPropertyOp9
 70
     1
102
RTVSPropertyOp10
 70
     1
102
RTVSPropertyOp11
 70
     1
102
RTVSPropertyOp12
 70
     1
102
RTVSPropertyOp13
 70
     1
102
RTVSPropertyOp14
 70
     1
102
RTVSPropertyOp15
 70
     1
102
RTVSPropertyOp16
 70
     1
102
RTVSPropertyOp17
 70
     1
102
RTVSPropertyOp18
 70
     1
102
RTVSPropertyOp19
 70
     1
102
RTVSPropertyOp20
 70
     1
102
RTVSPropertyOp21
 70
     1
102
RTVSPropertyOp22
 70
     1
102
RTVSPropertyOp23
 70
     1
102
RTVSPropertyOp24
 70
     1
102
RTVSPropertyOp25
 70
     1
102
RTVSPropertyOp26
 70
     1
102
RTVSPropertyOp27
 70
     1
102
RTVSPropertyOp28
 70
     1
102
RTVSPropertyOp29
 70
     1
102
RTVSPropertyOp30
 70
     1
102
RTVSPropertyOp31
 70
     1
102
RTVSPropertyOp32
 70
     1
  0
XRECORD
  5
4FB
102
{ACAD_REACTORS
330
4FA
102
}
330
4FA
100
AcDbXrecord
280
     1
102
RTVSPropertyOp0
 70
     1
102
RTVSPropertyOp1
 70
     1
102
RTVSPropertyOp2
 70
     1
102
RTVSPropertyOp3
 70
     1
102
RTVSPropertyOp4
 70
     1
102
RTVSPropertyOp5
 70
     1
102
RTVSPropertyOp6
 70
     1
102
RTVSPropertyOp7
 70
     1
102
RTVSPropertyOp8
 70
     1
102
RTVSPropertyOp9
 70
     1
102
RTVSPropertyOp10
 70
     1
102
RTVSPropertyOp11
 70
     1
102
RTVSPropertyOp12
 70
     1
102
RTVSPropertyOp13
 70
     1
102
RTVSPropertyOp14
 70
     1
102
RTVSPropertyOp15
 70
     1
102
RTVSPropertyOp16
 70
     1
102
RTVSPropertyOp17
 70
     1
102
RTVSPropertyOp18
 70
     1
102
RTVSPropertyOp19
 70
     1
102
RTVSPropertyOp20
 70
     1
102
RTVSPropertyOp21
 70
     1
102
RTVSPropertyOp22
 70
     1
102
RTVSPropertyOp23
 70
     1
102
RTVSPropertyOp24
 70
     1
102
RTVSPropertyOp25
 70
     1
102
RTVSPropertyOp26
 70
     1
102
RTVSPropertyOp27
 70
     1
102
RTVSPropertyOp28
 70
     1
102
RTVSPropertyOp29
 70
     1
102
RTVSPropertyOp30
 70
     1
102
RTVSPropertyOp31
 70
     1
102
RTVSPropertyOp32
 70
     1
  0
XRECORD
  5
4EF
102
{ACAD_REACTORS
330
4EE
102
}
330
4EE
100
AcDbXrecord
280
     1
102
RTVSPropertyOp0
 70
     1
102
RTVSPropertyOp1
 70
     1
102
RTVSPropertyOp2
 70
     1
102
RTVSPropertyOp3
 70
     1
102
RTVSPropertyOp4
 70
     1
102
RTVSPropertyOp5
 70
     1
102
RTVSPropertyOp6
 70
     1
102
RTVSPropertyOp7
 70
     1
102
RTVSPropertyOp8
 70
     1
102
RTVSPropertyOp9
 70
     1
102
RTVSPropertyOp10
 70
     1
102
RTVSPropertyOp11
 70
     1
102
RTVSPropertyOp12
 70
     1
102
RTVSPropertyOp13
 70
     1
102
RTVSPropertyOp14
 70
     1
102
RTVSPropertyOp15
 70
     1
102
RTVSPropertyOp16
 70
     1
102
RTVSPropertyOp17
 70
     1
102
RTVSPropertyOp18
 70
     1
102
RTVSPropertyOp19
 70
     1
102
RTVSPropertyOp20
 70
     1
102
RTVSPropertyOp21
 70
     1
102
RTVSPropertyOp22
 70
     1
102
RTVSPropertyOp23
 70
     1
102
RTVSPropertyOp24
 70
     1
102
RTVSPropertyOp25
 70
     1
102
RTVSPropertyOp26
 70
     1
102
RTVSPropertyOp27
 70
     1
102
RTVSPropertyOp28
 70
     1
102
RTVSPropertyOp29
 70
     1
102
RTVSPropertyOp30
 70
     1
102
RTVSPropertyOp31
 70
     1
102
RTVSPropertyOp32
 70
     1
  0
XRECORD
  5
507
102
{ACAD_REACTORS
330
506
102
}
330
506
100
AcDbXrecord
280
     1
102
RTVSPropertyOp0
 70
     1
102
RTVSPropertyOp1
 70
     1
102
RTVSPropertyOp2
 70
     1
102
RTVSPropertyOp3
 70
     1
102
RTVSPropertyOp4
 70
     1
102
RTVSPropertyOp5
 70
     1
102
RTVSPropertyOp6
 70
     1
102
RTVSPropertyOp7
 70
     1
102
RTVSPropertyOp8
 70
     1
102
RTVSPropertyOp9
 70
     1
102
RTVSPropertyOp10
 70
     1
102
RTVSPropertyOp11
 70
     1
102
RTVSPropertyOp12
 70
     1
102
RTVSPropertyOp13
 70
     1
102
RTVSPropertyOp14
 70
     1
102
RTVSPropertyOp15
 70
     1
102
RTVSPropertyOp16
 70
     1
102
RTVSPropertyOp17
 70
     1
102
RTVSPropertyOp18
 70
     1
102
RTVSPropertyOp19
 70
     1
102
RTVSPropertyOp20
 70
     1
102
RTVSPropertyOp21
 70
     1
102
RTVSPropertyOp22
 70
     1
102
RTVSPropertyOp23
 70
     1
102
RTVSPropertyOp24
 70
     1
102
RTVSPropertyOp25
 70
     1
102
RTVSPropertyOp26
 70
     1
102
RTVSPropertyOp27
 70
     1
102
RTVSPropertyOp28
 70
     1
102
RTVSPropertyOp29
 70
     1
102
RTVSPropertyOp30
 70
     1
102
RTVSPropertyOp31
 70
     1
102
RTVSPropertyOp32
 70
     1
  0
ENDSEC
  0
EOF
