  0
SECTION
  2
HEADER
  9
$ACADVER
  1
AC1014
  9
$ACADMAINTVER
 70
     9
  9
$DWGCODEPAGE
  3
ANSI_949
  9
$INSBASE
 10
0.0
 20
0.0
 30
0.0
  9
$EXTMIN
 10
7.426032023242441
 20
-10.66897084179436
 30
-0.0015258207003583
  9
$EXTMAX
 10
416.9462600666156
 20
374.948333894019
 30
0.0000000349246037
  9
$LIMMIN
 10
0.0
 20
0.0
  9
$LIMMAX
 10
420.0
 20
297.0
  9
$ORTHOMODE
 70
     0
  9
$REGENMODE
 70
     1
  9
$FILLMODE
 70
     1
  9
$QTEXTMODE
 70
     0
  9
$MIRRTEXT
 70
     0
  9
$DRAGMODE
 70
     2
  9
$LTSCALE
 40
0.2
  9
$OSMODE
 70
   567
  9
$ATTMODE
 70
     1
  9
$TEXTSIZE
 40
5.777225951253058
  9
$TRACEWID
 40
1.0
  9
$TEXTSTYLE
  7
STANDARD
  9
$CLAYER
  8
0
  9
$CELTYPE
  6
BYLAYER
  9
$CECOLOR
 62
   256
  9
$CELTSCALE
 40
1.0
  9
$DELOBJ
 70
     1
  9
$DISPSILH
 70
     0
  9
$DIMSCALE
 40
1.0
  9
$DIMASZ
 40
3.0
  9
$DIMEXO
 40
1.0
  9
$DIMDLI
 40
10.0
  9
$DIMRND
 40
0.0
  9
$DIMDLE
 40
0.0
  9
$DIMEXE
 40
0.6
  9
$DIMTP
 40
0.0
  9
$DIMTM
 40
0.0
  9
$DIMTXT
 40
3.5
  9
$DIMCEN
 40
0.09
  9
$DIMTSZ
 40
0.0
  9
$DIMTOL
 70
     0
  9
$DIMLIM
 70
     0
  9
$DIMTIH
 70
     0
  9
$DIMTOH
 70
     0
  9
$DIMSE1
 70
     0
  9
$DIMSE2
 70
     0
  9
$DIMTAD
 70
     1
  9
$DIMZIN
 70
     8
  9
$DIMBLK
  1

  9
$DIMASO
 70
     1
  9
$DIMSHO
 70
     1
  9
$DIMPOST
  1

  9
$DIMAPOST
  1

  9
$DIMALT
 70
     0
  9
$DIMALTD
 70
     2
  9
$DIMALTF
 40
25.4
  9
$DIMLFAC
 40
1.0
  9
$DIMTOFL
 70
     1
  9
$DIMTVP
 40
0.0
  9
$DIMTIX
 70
     1
  9
$DIMSOXD
 70
     0
  9
$DIMSAH
 70
     0
  9
$DIMBLK1
  1

  9
$DIMBLK2
  1

  9
$DIMSTYLE
  2
1_1_2
  9
$DIMCLRD
 70
   123
  9
$DIMCLRE
 70
   123
  9
$DIMCLRT
 70
     3
  9
$DIMTFAC
 40
1.0
  9
$DIMGAP
 40
1.0
  9
$DIMJUST
 70
     0
  9
$DIMSD1
 70
     0
  9
$DIMSD2
 70
     0
  9
$DIMTOLJ
 70
     1
  9
$DIMTZIN
 70
     0
  9
$DIMALTZ
 70
     0
  9
$DIMALTTZ
 70
     0
  9
$DIMFIT
 70
     0
  9
$DIMUPT
 70
     1
  9
$DIMUNIT
 70
     2
  9
$DIMDEC
 70
     2
  9
$DIMTDEC
 70
     2
  9
$DIMALTU
 70
     2
  9
$DIMALTTD
 70
     2
  9
$DIMTXSTY
  7
STANDARD
  9
$DIMAUNIT
 70
     1
  9
$LUNITS
 70
     2
  9
$LUPREC
 70
     4
  9
$SKETCHINC
 40
1.0
  9
$FILLETRAD
 40
0.5
  9
$AUNITS
 70
     0
  9
$AUPREC
 70
     0
  9
$MENU
  1
.
  9
$ELEVATION
 40
0.0
  9
$PELEVATION
 40
0.0
  9
$THICKNESS
 40
0.0
  9
$LIMCHECK
 70
     0
  9
$BLIPMODE
 70
     1
  9
$CHAMFERA
 40
1.0
  9
$CHAMFERB
 40
1.0
  9
$CHAMFERC
 40
20.0
  9
$CHAMFERD
 40
0.0
  9
$SKPOLY
 70
     0
  9
$TDCREATE
 40
2452839.586179271
  9
$TDUPDATE
 40
2453376.729072430
  9
$TDINDWG
 40
11.1175169444
  9
$TDUSRTIMER
 40
11.1175167593
  9
$USRTIMER
 70
     1
  9
$ANGBASE
 50
0.0
  9
$ANGDIR
 70
     0
  9
$PDMODE
 70
     0
  9
$PDSIZE
 40
0.0
  9
$PLINEWID
 40
0.0
  9
$COORDS
 70
     2
  9
$SPLFRAME
 70
     0
  9
$SPLINETYPE
 70
     6
  9
$SPLINESEGS
 70
   800
  9
$ATTDIA
 70
     0
  9
$ATTREQ
 70
     1
  9
$HANDLING
 70
 22529
  9
$HANDSEED
  5
43C
  9
$SURFTAB1
 70
     6
  9
$SURFTAB2
 70
     6
  9
$SURFTYPE
 70
     6
  9
$SURFU
 70
     6
  9
$SURFV
 70
     6
  9
$UCSNAME
  2

  9
$UCSORG
 10
0.0
 20
0.0
 30
0.0
  9
$UCSXDIR
 10
1.0
 20
0.0
 30
0.0
  9
$UCSYDIR
 10
0.0
 20
1.0
 30
0.0
  9
$PUCSNAME
  2

  9
$PUCSORG
 10
0.0
 20
0.0
 30
0.0
  9
$PUCSXDIR
 10
1.0
 20
0.0
 30
0.0
  9
$PUCSYDIR
 10
0.0
 20
1.0
 30
0.0
  9
$USERI1
 70
     0
  9
$USERI2
 70
     0
  9
$USERI3
 70
     0
  9
$USERI4
 70
     0
  9
$USERI5
 70
     0
  9
$USERR1
 40
0.0
  9
$USERR2
 40
0.0
  9
$USERR3
 40
0.0
  9
$USERR4
 40
0.0
  9
$USERR5
 40
0.0
  9
$WORLDVIEW
 70
     1
  9
$SHADEDGE
 70
     3
  9
$SHADEDIF
 70
    70
  9
$TILEMODE
 70
     1
  9
$MAXACTVP
 70
    48
  9
$PINSBASE
 10
0.0
 20
0.0
 30
0.0
  9
$PLIMCHECK
 70
     0
  9
$PEXTMIN
 10
0.0
 20
0.0
 30
0.0
  9
$PEXTMAX
 10
0.0
 20
0.0
 30
0.0
  9
$PLIMMIN
 10
0.0
 20
0.0
  9
$PLIMMAX
 10
12.0
 20
9.0
  9
$UNITMODE
 70
     0
  9
$VISRETAIN
 70
     1
  9
$PLINEGEN
 70
     0
  9
$PSLTSCALE
 70
     1
  9
$TREEDEPTH
 70
  3020
  9
$PICKSTYLE
 70
     0
  9
$CMLSTYLE
  2
STANDARD
  9
$CMLJUST
 70
     0
  9
$CMLSCALE
 40
20.0
  9
$PROXYGRAPHICS
 70
     1
  9
$MEASUREMENT
 70
     1
  0
ENDSEC
  0
SECTION
  2
CLASSES
  0
CLASS
  1
ACDBDICTIONARYWDFLT
  2
AcDbDictionaryWithDefault
  3
AutoCAD 2000
 90
        0
280
     0
281
     0
  0
CLASS
  1
ACDBPLACEHOLDER
  2
AcDbPlaceHolder
  3
AutoCAD 2000
 90
        0
280
     0
281
     0
  0
CLASS
  1
LAYOUT
  2
AcDbLayout
  3
AutoCAD 2000
 90
        0
280
     0
281
     0
  0
CLASS
  1
DICTIONARYVAR
  2
AcDbDictionaryVar
  3
AutoCAD 2000
 90
        0
280
     0
281
     0
  0
CLASS
  1
DIMASSOC
  2
AcDbDimAssoc
  3
"AcDbDimAssoc|Product Desc:     AcDim ARX App For Dimension|Company:          Autodesk, Inc.|WEB Address:      www.autodesk.com"
 90
        0
280
     0
281
     0
  0
CLASS
  1
LONG_TRANSACTION
  2
AcDbLongTransaction
  3
AutoCAD 2000
 90
        0
280
     0
281
     0
  0
CLASS
  1
LWPOLYLINE
  2
AcDbPolyline
  3
AutoCAD 2000
 90
        0
280
     0
281
     1
  0
CLASS
  1
HATCH
  2
AcDbHatch
  3
AutoCAD 2000
 90
        0
280
     0
281
     1
  0
CLASS
  1
XRECORD
  2
AcDbXrecord
  3
AutoCAD 2000
 90
        0
280
     0
281
     0
  0
CLASS
  1
LONG_TRANSACTION
  2
AcDbLongTransaction
  3
AutoCAD 2000
 90
        0
280
     0
281
     0
  0
CLASS
  1
LWPOLYLINE
  2
AcDbPolyline
  3
AutoCAD 2000
 90
        0
280
     0
281
     1
  0
CLASS
  1
HATCH
  2
AcDbHatch
  3
AutoCAD 2000
 90
        0
280
     0
281
     1
  0
CLASS
  1
XRECORD
  2
AcDbXrecord
  3
AutoCAD 2000
 90
        0
280
     0
281
     0
  0
CLASS
  1
LONG_TRANSACTION
  2
AcDbLongTransaction
  3
AutoCAD 2000
 90
        0
280
     0
281
     0
  0
CLASS
  1
LWPOLYLINE
  2
AcDbPolyline
  3
AutoCAD 2000
 90
        0
280
     0
281
     1
  0
CLASS
  1
HATCH
  2
AcDbHatch
  3
AutoCAD 2000
 90
        0
280
     0
281
     1
  0
CLASS
  1
XRECORD
  2
AcDbXrecord
  3
AutoCAD 2000
 90
        0
280
     0
281
     0
  0
CLASS
  1
LONG_TRANSACTION
  2
AcDbLongTransaction
  3
AutoCAD 2000
 90
        0
280
     0
281
     0
  0
CLASS
  1
LWPOLYLINE
  2
AcDbPolyline
  3
AutoCAD 2000
 90
        0
280
     0
281
     1
  0
CLASS
  1
HATCH
  2
AcDbHatch
  3
AutoCAD 2000
 90
        0
280
     0
281
     1
  0
CLASS
  1
XRECORD
  2
AcDbXrecord
  3
AutoCAD 2000
 90
        0
280
     0
281
     0
  0
CLASS
  1
LONG_TRANSACTION
  2
AcDbLongTransaction
  3
AutoCAD 2000
 90
        0
280
     0
281
     0
  0
CLASS
  1
LWPOLYLINE
  2
AcDbPolyline
  3
AutoCAD 2000
 90
        0
280
     0
281
     1
  0
CLASS
  1
HATCH
  2
AcDbHatch
  3
AutoCAD 2000
 90
        0
280
     0
281
     1
  0
CLASS
  1
XRECORD
  2
AcDbXrecord
  3
AutoCAD 2000
 90
        0
280
     0
281
     0
  0
CLASS
  1
LONG_TRANSACTION
  2
AcDbLongTransaction
  3
AutoCAD 2000
 90
        0
280
     0
281
     0
  0
CLASS
  1
LWPOLYLINE
  2
AcDbPolyline
  3
AutoCAD 2000
 90
        0
280
     0
281
     1
  0
CLASS
  1
HATCH
  2
AcDbHatch
  3
AutoCAD 2000
 90
        0
280
     0
281
     1
  0
CLASS
  1
XRECORD
  2
AcDbXrecord
  3
AutoCAD 2000
 90
        0
280
     0
281
     0
  0
CLASS
  1
LONG_TRANSACTION
  2
AcDbLongTransaction
  3
AutoCAD 2000
 90
        0
280
     0
281
     0
  0
CLASS
  1
LWPOLYLINE
  2
AcDbPolyline
  3
AutoCAD 2000
 90
        0
280
     0
281
     1
  0
CLASS
  1
HATCH
  2
AcDbHatch
  3
AutoCAD 2000
 90
        0
280
     0
281
     1
  0
CLASS
  1
XRECORD
  2
AcDbXrecord
  3
AutoCAD 2000
 90
        0
280
     0
281
     0
  0
CLASS
  1
LONG_TRANSACTION
  2
AcDbLongTransaction
  3
AutoCAD 2000
 90
        0
280
     0
281
     0
  0
CLASS
  1
LWPOLYLINE
  2
AcDbPolyline
  3
AutoCAD 2000
 90
        0
280
     0
281
     1
  0
CLASS
  1
HATCH
  2
AcDbHatch
  3
AutoCAD 2000
 90
        0
280
     0
281
     1
  0
CLASS
  1
XRECORD
  2
AcDbXrecord
  3
AutoCAD 2000
 90
        0
280
     0
281
     0
  0
CLASS
  1
LONG_TRANSACTION
  2
AcDbLongTransaction
  3
AutoCAD 2000
 90
        0
280
     0
281
     0
  0
CLASS
  1
LWPOLYLINE
  2
AcDbPolyline
  3
AutoCAD 2000
 90
        0
280
     0
281
     1
  0
CLASS
  1
HATCH
  2
AcDbHatch
  3
AutoCAD 2000
 90
        0
280
     0
281
     1
  0
CLASS
  1
XRECORD
  2
AcDbXrecord
  3
AutoCAD 2000
 90
        0
280
     0
281
     0
  0
CLASS
  1
LONG_TRANSACTION
  2
AcDbLongTransaction
  3
AutoCAD 2000
 90
        0
280
     0
281
     0
  0
CLASS
  1
LWPOLYLINE
  2
AcDbPolyline
  3
AutoCAD 2000
 90
        0
280
     0
281
     1
  0
CLASS
  1
HATCH
  2
AcDbHatch
  3
AutoCAD 2000
 90
        0
280
     0
281
     1
  0
CLASS
  1
XRECORD
  2
AcDbXrecord
  3
AutoCAD 2000
 90
        0
280
     0
281
     0
  0
CLASS
  1
LONG_TRANSACTION
  2
AcDbLongTransaction
  3
AutoCAD 2000
 90
        0
280
     0
281
     0
  0
CLASS
  1
LWPOLYLINE
  2
AcDbPolyline
  3
AutoCAD 2000
 90
        0
280
     0
281
     1
  0
CLASS
  1
HATCH
  2
AcDbHatch
  3
AutoCAD 2000
 90
        0
280
     0
281
     1
  0
CLASS
  1
XRECORD
  2
AcDbXrecord
  3
AutoCAD 2000
 90
        0
280
     0
281
     0
  0
CLASS
  1
LONG_TRANSACTION
  2
AcDbLongTransaction
  3
AutoCAD 2000
 90
        0
280
     0
281
     0
  0
CLASS
  1
LWPOLYLINE
  2
AcDbPolyline
  3
AutoCAD 2000
 90
        0
280
     0
281
     1
  0
CLASS
  1
HATCH
  2
AcDbHatch
  3
AutoCAD 2000
 90
        0
280
     0
281
     1
  0
CLASS
  1
XRECORD
  2
AcDbXrecord
  3
AutoCAD 2000
 90
        0
280
     0
281
     0
  0
CLASS
  1
LONG_TRANSACTION
  2
AcDbLongTransaction
  3
AutoCAD 2000
 90
        0
280
     0
281
     0
  0
CLASS
  1
LWPOLYLINE
  2
AcDbPolyline
  3
AutoCAD 2000
 90
        0
280
     0
281
     1
  0
CLASS
  1
HATCH
  2
AcDbHatch
  3
AutoCAD 2000
 90
        0
280
     0
281
     1
  0
CLASS
  1
XRECORD
  2
AcDbXrecord
  3
AutoCAD 2000
 90
        0
280
     0
281
     0
  0
CLASS
  1
LONG_TRANSACTION
  2
AcDbLongTransaction
  3
AutoCAD 2000
 90
        0
280
     0
281
     0
  0
CLASS
  1
LWPOLYLINE
  2
AcDbPolyline
  3
AutoCAD 2000
 90
        0
280
     0
281
     1
  0
CLASS
  1
HATCH
  2
AcDbHatch
  3
AutoCAD 2000
 90
        0
280
     0
281
     1
  0
CLASS
  1
XRECORD
  2
AcDbXrecord
  3
AutoCAD 2000
 90
        0
280
     0
281
     0
  0
CLASS
  1
LONG_TRANSACTION
  2
AcDbLongTransaction
  3
AutoCAD 2000
 90
        0
280
     0
281
     0
  0
CLASS
  1
LWPOLYLINE
  2
AcDbPolyline
  3
AutoCAD 2000
 90
        0
280
     0
281
     1
  0
CLASS
  1
HATCH
  2
AcDbHatch
  3
AutoCAD 2000
 90
        0
280
     0
281
     1
  0
CLASS
  1
XRECORD
  2
AcDbXrecord
  3
AutoCAD 2000
 90
        0
280
     0
281
     0
  0
CLASS
  1
LONG_TRANSACTION
  2
AcDbLongTransaction
  3
AutoCAD 2000
 90
        0
280
     0
281
     0
  0
CLASS
  1
LWPOLYLINE
  2
AcDbPolyline
  3
AutoCAD 2000
 90
        0
280
     0
281
     1
  0
CLASS
  1
HATCH
  2
AcDbHatch
  3
AutoCAD 2000
 90
        0
280
     0
281
     1
  0
CLASS
  1
XRECORD
  2
AcDbXrecord
  3
AutoCAD 2000
 90
        0
280
     0
281
     0
  0
CLASS
  1
LONG_TRANSACTION
  2
AcDbLongTransaction
  3
AutoCAD 2000
 90
        0
280
     0
281
     0
  0
CLASS
  1
LWPOLYLINE
  2
AcDbPolyline
  3
AutoCAD 2000
 90
        0
280
     0
281
     1
  0
CLASS
  1
HATCH
  2
AcDbHatch
  3
AutoCAD 2000
 90
        0
280
     0
281
     1
  0
CLASS
  1
XRECORD
  2
AcDbXrecord
  3
AutoCAD 2000
 90
        0
280
     0
281
     0
  0
CLASS
  1
LONG_TRANSACTION
  2
AcDbLongTransaction
  3
AutoCAD 2000
 90
        0
280
     0
281
     0
  0
CLASS
  1
LWPOLYLINE
  2
AcDbPolyline
  3
AutoCAD 2000
 90
        0
280
     0
281
     1
  0
CLASS
  1
HATCH
  2
AcDbHatch
  3
AutoCAD 2000
 90
        0
280
     0
281
     1
  0
CLASS
  1
XRECORD
  2
AcDbXrecord
  3
AutoCAD 2000
 90
        0
280
     0
281
     0
  0
CLASS
  1
LONG_TRANSACTION
  2
AcDbLongTransaction
  3
AutoCAD 2000
 90
        0
280
     0
281
     0
  0
CLASS
  1
LWPOLYLINE
  2
AcDbPolyline
  3
AutoCAD 2000
 90
        0
280
     0
281
     1
  0
CLASS
  1
HATCH
  2
AcDbHatch
  3
AutoCAD 2000
 90
        0
280
     0
281
     1
  0
CLASS
  1
XRECORD
  2
AcDbXrecord
  3
AutoCAD 2000
 90
        0
280
     0
281
     0
  0
CLASS
  1
LONG_TRANSACTION
  2
AcDbLongTransaction
  3
AutoCAD 2000
 90
        0
280
     0
281
     0
  0
CLASS
  1
LWPOLYLINE
  2
AcDbPolyline
  3
AutoCAD 2000
 90
        0
280
     0
281
     1
  0
CLASS
  1
HATCH
  2
AcDbHatch
  3
AutoCAD 2000
 90
        0
280
     0
281
     1
  0
CLASS
  1
XRECORD
  2
AcDbXrecord
  3
AutoCAD 2000
 90
        0
280
     0
281
     0
  0
CLASS
  1
LONG_TRANSACTION
  2
AcDbLongTransaction
  3
AutoCAD 2000
 90
        0
280
     0
281
     0
  0
CLASS
  1
LWPOLYLINE
  2
AcDbPolyline
  3
AutoCAD 2000
 90
        0
280
     0
281
     1
  0
CLASS
  1
HATCH
  2
AcDbHatch
  3
AutoCAD 2000
 90
        0
280
     0
281
     1
  0
CLASS
  1
XRECORD
  2
AcDbXrecord
  3
AutoCAD 2000
 90
        0
280
     0
281
     0
  0
CLASS
  1
LONG_TRANSACTION
  2
AcDbLongTransaction
  3
AutoCAD 2000
 90
        0
280
     0
281
     0
  0
CLASS
  1
LWPOLYLINE
  2
AcDbPolyline
  3
AutoCAD 2000
 90
        0
280
     0
281
     1
  0
CLASS
  1
HATCH
  2
AcDbHatch
  3
AutoCAD 2000
 90
        0
280
     0
281
     1
  0
CLASS
  1
XRECORD
  2
AcDbXrecord
  3
AutoCAD 2000
 90
        0
280
     0
281
     0
  0
CLASS
  1
LONG_TRANSACTION
  2
AcDbLongTransaction
  3
AutoCAD 2000
 90
        0
280
     0
281
     0
  0
CLASS
  1
LWPOLYLINE
  2
AcDbPolyline
  3
AutoCAD 2000
 90
        0
280
     0
281
     1
  0
CLASS
  1
HATCH
  2
AcDbHatch
  3
AutoCAD 2000
 90
        0
280
     0
281
     1
  0
CLASS
  1
XRECORD
  2
AcDbXrecord
  3
AutoCAD 2000
 90
        0
280
     0
281
     0
  0
CLASS
  1
LONG_TRANSACTION
  2
AcDbLongTransaction
  3
AutoCAD 2000
 90
        0
280
     0
281
     0
  0
CLASS
  1
LWPOLYLINE
  2
AcDbPolyline
  3
AutoCAD 2000
 90
        0
280
     0
281
     1
  0
CLASS
  1
HATCH
  2
AcDbHatch
  3
AutoCAD 2000
 90
        0
280
     0
281
     1
  0
CLASS
  1
XRECORD
  2
AcDbXrecord
  3
AutoCAD 2000
 90
        0
280
     0
281
     0
  0
CLASS
  1
LONG_TRANSACTION
  2
AcDbLongTransaction
  3
AutoCAD 2000
 90
        0
280
     0
281
     0
  0
CLASS
  1
LWPOLYLINE
  2
AcDbPolyline
  3
AutoCAD 2000
 90
        0
280
     0
281
     1
  0
CLASS
  1
HATCH
  2
AcDbHatch
  3
AutoCAD 2000
 90
        0
280
     0
281
     1
  0
CLASS
  1
XRECORD
  2
AcDbXrecord
  3
AutoCAD 2000
 90
        0
280
     0
281
     0
  0
CLASS
  1
LONG_TRANSACTION
  2
AcDbLongTransaction
  3
AutoCAD 2000
 90
        0
280
     0
281
     0
  0
CLASS
  1
LWPOLYLINE
  2
AcDbPolyline
  3
AutoCAD 2000
 90
        0
280
     0
281
     1
  0
CLASS
  1
HATCH
  2
AcDbHatch
  3
AutoCAD 2000
 90
        0
280
     0
281
     1
  0
CLASS
  1
XRECORD
  2
AcDbXrecord
  3
AutoCAD 2000
 90
        0
280
     0
281
     0
  0
CLASS
  1
LONG_TRANSACTION
  2
AcDbLongTransaction
  3
AutoCAD 2000
 90
        0
280
     0
281
     0
  0
CLASS
  1
LWPOLYLINE
  2
AcDbPolyline
  3
AutoCAD 2000
 90
        0
280
     0
281
     1
  0
CLASS
  1
HATCH
  2
AcDbHatch
  3
AutoCAD 2000
 90
        0
280
     0
281
     1
  0
CLASS
  1
XRECORD
  2
AcDbXrecord
  3
AutoCAD 2000
 90
        0
280
     0
281
     0
  0
CLASS
  1
LONG_TRANSACTION
  2
AcDbLongTransaction
  3
AutoCAD 2000
 90
        0
280
     0
281
     0
  0
CLASS
  1
LWPOLYLINE
  2
AcDbPolyline
  3
AutoCAD 2000
 90
        0
280
     0
281
     1
  0
CLASS
  1
HATCH
  2
AcDbHatch
  3
AutoCAD 2000
 90
        0
280
     0
281
     1
  0
CLASS
  1
XRECORD
  2
AcDbXrecord
  3
AutoCAD 2000
 90
        0
280
     0
281
     0
  0
CLASS
  1
LONG_TRANSACTION
  2
AcDbLongTransaction
  3
AutoCAD 2000
 90
        0
280
     0
281
     0
  0
CLASS
  1
LWPOLYLINE
  2
AcDbPolyline
  3
AutoCAD 2000
 90
        0
280
     0
281
     1
  0
CLASS
  1
HATCH
  2
AcDbHatch
  3
AutoCAD 2000
 90
        0
280
     0
281
     1
  0
CLASS
  1
XRECORD
  2
AcDbXrecord
  3
AutoCAD 2000
 90
        0
280
     0
281
     0
  0
CLASS
  1
LONG_TRANSACTION
  2
AcDbLongTransaction
  3
AutoCAD 2000
 90
        0
280
     0
281
     0
  0
CLASS
  1
LWPOLYLINE
  2
AcDbPolyline
  3
AutoCAD 2000
 90
        0
280
     0
281
     1
  0
CLASS
  1
HATCH
  2
AcDbHatch
  3
AutoCAD 2000
 90
        0
280
     0
281
     1
  0
CLASS
  1
XRECORD
  2
AcDbXrecord
  3
AutoCAD 2000
 90
        0
280
     0
281
     0
  0
CLASS
  1
LONG_TRANSACTION
  2
AcDbLongTransaction
  3
AutoCAD 2000
 90
        0
280
     0
281
     0
  0
CLASS
  1
LWPOLYLINE
  2
AcDbPolyline
  3
AutoCAD 2000
 90
        0
280
     0
281
     1
  0
CLASS
  1
HATCH
  2
AcDbHatch
  3
AutoCAD 2000
 90
        0
280
     0
281
     1
  0
CLASS
  1
XRECORD
  2
AcDbXrecord
  3
AutoCAD 2000
 90
        0
280
     0
281
     0
  0
CLASS
  1
LONG_TRANSACTION
  2
AcDbLongTransaction
  3
AutoCAD 2000
 90
        0
280
     0
281
     0
  0
CLASS
  1
LWPOLYLINE
  2
AcDbPolyline
  3
AutoCAD 2000
 90
        0
280
     0
281
     1
  0
CLASS
  1
HATCH
  2
AcDbHatch
  3
AutoCAD 2000
 90
        0
280
     0
281
     1
  0
CLASS
  1
XRECORD
  2
AcDbXrecord
  3
AutoCAD 2000
 90
        0
280
     0
281
     0
  0
CLASS
  1
LONG_TRANSACTION
  2
AcDbLongTransaction
  3
AutoCAD 2000
 90
        0
280
     0
281
     0
  0
CLASS
  1
LWPOLYLINE
  2
AcDbPolyline
  3
AutoCAD 2000
 90
        0
280
     0
281
     1
  0
CLASS
  1
HATCH
  2
AcDbHatch
  3
AutoCAD 2000
 90
        0
280
     0
281
     1
  0
CLASS
  1
XRECORD
  2
AcDbXrecord
  3
AutoCAD 2000
 90
        0
280
     0
281
     0
  0
CLASS
  1
LONG_TRANSACTION
  2
AcDbLongTransaction
  3
AutoCAD 2000
 90
        0
280
     0
281
     0
  0
CLASS
  1
LWPOLYLINE
  2
AcDbPolyline
  3
AutoCAD 2000
 90
        0
280
     0
281
     1
  0
CLASS
  1
HATCH
  2
AcDbHatch
  3
AutoCAD 2000
 90
        0
280
     0
281
     1
  0
CLASS
  1
XRECORD
  2
AcDbXrecord
  3
AutoCAD 2000
 90
        0
280
     0
281
     0
  0
CLASS
  1
LONG_TRANSACTION
  2
AcDbLongTransaction
  3
AutoCAD 2000
 90
        0
280
     0
281
     0
  0
CLASS
  1
LWPOLYLINE
  2
AcDbPolyline
  3
AutoCAD 2000
 90
        0
280
     0
281
     1
  0
CLASS
  1
HATCH
  2
AcDbHatch
  3
AutoCAD 2000
 90
        0
280
     0
281
     1
  0
CLASS
  1
XRECORD
  2
AcDbXrecord
  3
AutoCAD 2000
 90
        0
280
     0
281
     0
  0
CLASS
  1
LONG_TRANSACTION
  2
AcDbLongTransaction
  3
AutoCAD 2000
 90
        0
280
     0
281
     0
  0
CLASS
  1
LWPOLYLINE
  2
AcDbPolyline
  3
AutoCAD 2000
 90
        0
280
     0
281
     1
  0
CLASS
  1
HATCH
  2
AcDbHatch
  3
AutoCAD 2000
 90
        0
280
     0
281
     1
  0
CLASS
  1
XRECORD
  2
AcDbXrecord
  3
AutoCAD 2000
 90
        0
280
     0
281
     0
  0
CLASS
  1
LONG_TRANSACTION
  2
AcDbLongTransaction
  3
AutoCAD 2000
 90
        0
280
     0
281
     0
  0
CLASS
  1
LWPOLYLINE
  2
AcDbPolyline
  3
AutoCAD 2000
 90
        0
280
     0
281
     1
  0
CLASS
  1
HATCH
  2
AcDbHatch
  3
AutoCAD 2000
 90
        0
280
     0
281
     1
  0
CLASS
  1
XRECORD
  2
AcDbXrecord
  3
AutoCAD 2000
 90
        0
280
     0
281
     0
  0
CLASS
  1
LONG_TRANSACTION
  2
AcDbLongTransaction
  3
AutoCAD 2000
 90
        0
280
     0
281
     0
  0
CLASS
  1
LWPOLYLINE
  2
AcDbPolyline
  3
AutoCAD 2000
 90
        0
280
     0
281
     1
  0
CLASS
  1
HATCH
  2
AcDbHatch
  3
AutoCAD 2000
 90
        0
280
     0
281
     1
  0
CLASS
  1
XRECORD
  2
AcDbXrecord
  3
AutoCAD 2000
 90
        0
280
     0
281
     0
  0
CLASS
  1
LONG_TRANSACTION
  2
AcDbLongTransaction
  3
AutoCAD 2000
 90
        0
280
     0
281
     0
  0
CLASS
  1
LWPOLYLINE
  2
AcDbPolyline
  3
AutoCAD 2000
 90
        0
280
     0
281
     1
  0
CLASS
  1
HATCH
  2
AcDbHatch
  3
AutoCAD 2000
 90
        0
280
     0
281
     1
  0
CLASS
  1
XRECORD
  2
AcDbXrecord
  3
AutoCAD 2000
 90
        0
280
     0
281
     0
  0
CLASS
  1
LONG_TRANSACTION
  2
AcDbLongTransaction
  3
AutoCAD 2000
 90
        0
280
     0
281
     0
  0
CLASS
  1
LWPOLYLINE
  2
AcDbPolyline
  3
AutoCAD 2000
 90
        0
280
     0
281
     1
  0
CLASS
  1
HATCH
  2
AcDbHatch
  3
AutoCAD 2000
 90
        0
280
     0
281
     1
  0
CLASS
  1
XRECORD
  2
AcDbXrecord
  3
AutoCAD 2000
 90
        0
280
     0
281
     0
  0
CLASS
  1
LONG_TRANSACTION
  2
AcDbLongTransaction
  3
AutoCAD 2000
 90
        0
280
     0
281
     0
  0
CLASS
  1
LWPOLYLINE
  2
AcDbPolyline
  3
AutoCAD 2000
 90
        0
280
     0
281
     1
  0
CLASS
  1
HATCH
  2
AcDbHatch
  3
AutoCAD 2000
 90
        0
280
     0
281
     1
  0
CLASS
  1
XRECORD
  2
AcDbXrecord
  3
AutoCAD 2000
 90
        0
280
     0
281
     0
  0
CLASS
  1
LONG_TRANSACTION
  2
AcDbLongTransaction
  3
AutoCAD 2000
 90
        0
280
     0
281
     0
  0
CLASS
  1
LWPOLYLINE
  2
AcDbPolyline
  3
AutoCAD 2000
 90
        0
280
     0
281
     1
  0
CLASS
  1
HATCH
  2
AcDbHatch
  3
AutoCAD 2000
 90
        0
280
     0
281
     1
  0
CLASS
  1
XRECORD
  2
AcDbXrecord
  3
AutoCAD 2000
 90
        0
280
     0
281
     0
  0
CLASS
  1
LONG_TRANSACTION
  2
AcDbLongTransaction
  3
AutoCAD 2000
 90
        0
280
     0
281
     0
  0
CLASS
  1
LWPOLYLINE
  2
AcDbPolyline
  3
AutoCAD 2000
 90
        0
280
     0
281
     1
  0
CLASS
  1
HATCH
  2
AcDbHatch
  3
AutoCAD 2000
 90
        0
280
     0
281
     1
  0
CLASS
  1
XRECORD
  2
AcDbXrecord
  3
AutoCAD 2000
 90
        0
280
     0
281
     0
  0
CLASS
  1
LONG_TRANSACTION
  2
AcDbLongTransaction
  3
AutoCAD 2000
 90
        0
280
     0
281
     0
  0
CLASS
  1
LWPOLYLINE
  2
AcDbPolyline
  3
AutoCAD 2000
 90
        0
280
     0
281
     1
  0
CLASS
  1
HATCH
  2
AcDbHatch
  3
AutoCAD 2000
 90
        0
280
     0
281
     1
  0
CLASS
  1
XRECORD
  2
AcDbXrecord
  3
AutoCAD 2000
 90
        0
280
     0
281
     0
  0
CLASS
  1
LONG_TRANSACTION
  2
AcDbLongTransaction
  3
AutoCAD 2000
 90
        0
280
     0
281
     0
  0
CLASS
  1
LWPOLYLINE
  2
AcDbPolyline
  3
AutoCAD 2000
 90
        0
280
     0
281
     1
  0
CLASS
  1
HATCH
  2
AcDbHatch
  3
AutoCAD 2000
 90
        0
280
     0
281
     1
  0
CLASS
  1
XRECORD
  2
AcDbXrecord
  3
AutoCAD 2000
 90
        0
280
     0
281
     0
  0
CLASS
  1
LONG_TRANSACTION
  2
AcDbLongTransaction
  3
AutoCAD 2000
 90
        0
280
     0
281
     0
  0
CLASS
  1
LWPOLYLINE
  2
AcDbPolyline
  3
AutoCAD 2000
 90
        0
280
     0
281
     1
  0
CLASS
  1
HATCH
  2
AcDbHatch
  3
AutoCAD 2000
 90
        0
280
     0
281
     1
  0
CLASS
  1
XRECORD
  2
AcDbXrecord
  3
AutoCAD 2000
 90
        0
280
     0
281
     0
  0
CLASS
  1
LONG_TRANSACTION
  2
AcDbLongTransaction
  3
AutoCAD 2000
 90
        0
280
     0
281
     0
  0
CLASS
  1
LWPOLYLINE
  2
AcDbPolyline
  3
AutoCAD 2000
 90
        0
280
     0
281
     1
  0
CLASS
  1
HATCH
  2
AcDbHatch
  3
AutoCAD 2000
 90
        0
280
     0
281
     1
  0
CLASS
  1
XRECORD
  2
AcDbXrecord
  3
AutoCAD 2000
 90
        0
280
     0
281
     0
  0
CLASS
  1
LONG_TRANSACTION
  2
AcDbLongTransaction
  3
AutoCAD 2000
 90
        0
280
     0
281
     0
  0
CLASS
  1
LWPOLYLINE
  2
AcDbPolyline
  3
AutoCAD 2000
 90
        0
280
     0
281
     1
  0
CLASS
  1
HATCH
  2
AcDbHatch
  3
AutoCAD 2000
 90
        0
280
     0
281
     1
  0
CLASS
  1
XRECORD
  2
AcDbXrecord
  3
AutoCAD 2000
 90
        0
280
     0
281
     0
  0
CLASS
  1
LONG_TRANSACTION
  2
AcDbLongTransaction
  3
AutoCAD 2000
 90
        0
280
     0
281
     0
  0
CLASS
  1
LWPOLYLINE
  2
AcDbPolyline
  3
AutoCAD 2000
 90
        0
280
     0
281
     1
  0
CLASS
  1
HATCH
  2
AcDbHatch
  3
AutoCAD 2000
 90
        0
280
     0
281
     1
  0
CLASS
  1
XRECORD
  2
AcDbXrecord
  3
AutoCAD 2000
 90
        0
280
     0
281
     0
  0
CLASS
  1
LONG_TRANSACTION
  2
AcDbLongTransaction
  3
AutoCAD 2000
 90
        0
280
     0
281
     0
  0
CLASS
  1
LWPOLYLINE
  2
AcDbPolyline
  3
AutoCAD 2000
 90
        0
280
     0
281
     1
  0
CLASS
  1
HATCH
  2
AcDbHatch
  3
AutoCAD 2000
 90
        0
280
     0
281
     1
  0
CLASS
  1
XRECORD
  2
AcDbXrecord
  3
AutoCAD 2000
 90
        0
280
     0
281
     0
  0
CLASS
  1
LONG_TRANSACTION
  2
AcDbLongTransaction
  3
AutoCAD 2000
 90
        0
280
     0
281
     0
  0
CLASS
  1
LWPOLYLINE
  2
AcDbPolyline
  3
AutoCAD 2000
 90
        0
280
     0
281
     1
  0
CLASS
  1
HATCH
  2
AcDbHatch
  3
AutoCAD 2000
 90
        0
280
     0
281
     1
  0
CLASS
  1
XRECORD
  2
AcDbXrecord
  3
AutoCAD 2000
 90
        0
280
     0
281
     0
  0
CLASS
  1
LONG_TRANSACTION
  2
AcDbLongTransaction
  3
AutoCAD 2000
 90
        0
280
     0
281
     0
  0
CLASS
  1
LWPOLYLINE
  2
AcDbPolyline
  3
AutoCAD 2000
 90
        0
280
     0
281
     1
  0
CLASS
  1
HATCH
  2
AcDbHatch
  3
AutoCAD 2000
 90
        0
280
     0
281
     1
  0
CLASS
  1
XRECORD
  2
AcDbXrecord
  3
AutoCAD 2000
 90
        0
280
     0
281
     0
  0
CLASS
  1
LONG_TRANSACTION
  2
AcDbLongTransaction
  3
AutoCAD 2000
 90
        0
280
     0
281
     0
  0
CLASS
  1
LWPOLYLINE
  2
AcDbPolyline
  3
AutoCAD 2000
 90
        0
280
     0
281
     1
  0
CLASS
  1
HATCH
  2
AcDbHatch
  3
AutoCAD 2000
 90
        0
280
     0
281
     1
  0
CLASS
  1
XRECORD
  2
AcDbXrecord
  3
AutoCAD 2000
 90
        0
280
     0
281
     0
  0
CLASS
  1
LONG_TRANSACTION
  2
AcDbLongTransaction
  3
AutoCAD 2000
 90
        0
280
     0
281
     0
  0
CLASS
  1
LWPOLYLINE
  2
AcDbPolyline
  3
AutoCAD 2000
 90
        0
280
     0
281
     1
  0
CLASS
  1
HATCH
  2
AcDbHatch
  3
AutoCAD 2000
 90
        0
280
     0
281
     1
  0
CLASS
  1
XRECORD
  2
AcDbXrecord
  3
AutoCAD 2000
 90
        0
280
     0
281
     0
  0
CLASS
  1
LONG_TRANSACTION
  2
AcDbLongTransaction
  3
AutoCAD 2000
 90
        0
280
     0
281
     0
  0
CLASS
  1
LWPOLYLINE
  2
AcDbPolyline
  3
AutoCAD 2000
 90
        0
280
     0
281
     1
  0
CLASS
  1
HATCH
  2
AcDbHatch
  3
AutoCAD 2000
 90
        0
280
     0
281
     1
  0
CLASS
  1
XRECORD
  2
AcDbXrecord
  3
AutoCAD 2000
 90
        0
280
     0
281
     0
  0
CLASS
  1
LONG_TRANSACTION
  2
AcDbLongTransaction
  3
AutoCAD 2000
 90
        0
280
     0
281
     0
  0
CLASS
  1
LWPOLYLINE
  2
AcDbPolyline
  3
AutoCAD 2000
 90
        0
280
     0
281
     1
  0
CLASS
  1
HATCH
  2
AcDbHatch
  3
AutoCAD 2000
 90
        0
280
     0
281
     1
  0
CLASS
  1
XRECORD
  2
AcDbXrecord
  3
AutoCAD 2000
 90
        0
280
     0
281
     0
  0
CLASS
  1
LONG_TRANSACTION
  2
AcDbLongTransaction
  3
AutoCAD 2000
 90
        0
280
     0
281
     0
  0
CLASS
  1
LWPOLYLINE
  2
AcDbPolyline
  3
AutoCAD 2000
 90
        0
280
     0
281
     1
  0
CLASS
  1
HATCH
  2
AcDbHatch
  3
AutoCAD 2000
 90
        0
280
     0
281
     1
  0
CLASS
  1
XRECORD
  2
AcDbXrecord
  3
AutoCAD 2000
 90
        0
280
     0
281
     0
  0
CLASS
  1
LONG_TRANSACTION
  2
AcDbLongTransaction
  3
AutoCAD 2000
 90
        0
280
     0
281
     0
  0
CLASS
  1
LWPOLYLINE
  2
AcDbPolyline
  3
AutoCAD 2000
 90
        0
280
     0
281
     1
  0
CLASS
  1
HATCH
  2
AcDbHatch
  3
AutoCAD 2000
 90
        0
280
     0
281
     1
  0
CLASS
  1
XRECORD
  2
AcDbXrecord
  3
AutoCAD 2000
 90
        0
280
     0
281
     0
  0
CLASS
  1
LONG_TRANSACTION
  2
AcDbLongTransaction
  3
AutoCAD 2000
 90
        0
280
     0
281
     0
  0
CLASS
  1
LWPOLYLINE
  2
AcDbPolyline
  3
AutoCAD 2000
 90
        0
280
     0
281
     1
  0
CLASS
  1
HATCH
  2
AcDbHatch
  3
AutoCAD 2000
 90
        0
280
     0
281
     1
  0
CLASS
  1
XRECORD
  2
AcDbXrecord
  3
AutoCAD 2000
 90
        0
280
     0
281
     0
  0
CLASS
  1
LONG_TRANSACTION
  2
AcDbLongTransaction
  3
AutoCAD 2000
 90
        0
280
     0
281
     0
  0
CLASS
  1
LWPOLYLINE
  2
AcDbPolyline
  3
AutoCAD 2000
 90
        0
280
     0
281
     1
  0
CLASS
  1
HATCH
  2
AcDbHatch
  3
AutoCAD 2000
 90
        0
280
     0
281
     1
  0
CLASS
  1
XRECORD
  2
AcDbXrecord
  3
AutoCAD 2000
 90
        0
280
     0
281
     0
  0
CLASS
  1
LONG_TRANSACTION
  2
AcDbLongTransaction
  3
AutoCAD 2000
 90
        0
280
     0
281
     0
  0
CLASS
  1
LWPOLYLINE
  2
AcDbPolyline
  3
AutoCAD 2000
 90
        0
280
     0
281
     1
  0
CLASS
  1
HATCH
  2
AcDbHatch
  3
AutoCAD 2000
 90
        0
280
     0
281
     1
  0
CLASS
  1
XRECORD
  2
AcDbXrecord
  3
AutoCAD 2000
 90
        0
280
     0
281
     0
  0
CLASS
  1
LONG_TRANSACTION
  2
AcDbLongTransaction
  3
AutoCAD 2000
 90
        0
280
     0
281
     0
  0
CLASS
  1
LWPOLYLINE
  2
AcDbPolyline
  3
AutoCAD 2000
 90
        0
280
     0
281
     1
  0
CLASS
  1
HATCH
  2
AcDbHatch
  3
AutoCAD 2000
 90
        0
280
     0
281
     1
  0
CLASS
  1
XRECORD
  2
AcDbXrecord
  3
AutoCAD 2000
 90
        0
280
     0
281
     0
  0
CLASS
  1
LONG_TRANSACTION
  2
AcDbLongTransaction
  3
AutoCAD 2000
 90
        0
280
     0
281
     0
  0
CLASS
  1
LWPOLYLINE
  2
AcDbPolyline
  3
AutoCAD 2000
 90
        0
280
     0
281
     1
  0
CLASS
  1
HATCH
  2
AcDbHatch
  3
AutoCAD 2000
 90
        0
280
     0
281
     1
  0
CLASS
  1
XRECORD
  2
AcDbXrecord
  3
AutoCAD 2000
 90
        0
280
     0
281
     0
  0
CLASS
  1
LONG_TRANSACTION
  2
AcDbLongTransaction
  3
AutoCAD 2000
 90
        0
280
     0
281
     0
  0
CLASS
  1
LWPOLYLINE
  2
AcDbPolyline
  3
AutoCAD 2000
 90
        0
280
     0
281
     1
  0
CLASS
  1
HATCH
  2
AcDbHatch
  3
AutoCAD 2000
 90
        0
280
     0
281
     1
  0
CLASS
  1
XRECORD
  2
AcDbXrecord
  3
AutoCAD 2000
 90
        0
280
     0
281
     0
  0
CLASS
  1
LONG_TRANSACTION
  2
AcDbLongTransaction
  3
AutoCAD 2000
 90
        0
280
     0
281
     0
  0
CLASS
  1
LWPOLYLINE
  2
AcDbPolyline
  3
AutoCAD 2000
 90
        0
280
     0
281
     1
  0
CLASS
  1
HATCH
  2
AcDbHatch
  3
AutoCAD 2000
 90
        0
280
     0
281
     1
  0
CLASS
  1
XRECORD
  2
AcDbXrecord
  3
AutoCAD 2000
 90
        0
280
     0
281
     0
  0
CLASS
  1
LONG_TRANSACTION
  2
AcDbLongTransaction
  3
AutoCAD 2000
 90
        0
280
     0
281
     0
  0
CLASS
  1
LWPOLYLINE
  2
AcDbPolyline
  3
AutoCAD 2000
 90
        0
280
     0
281
     1
  0
CLASS
  1
HATCH
  2
AcDbHatch
  3
AutoCAD 2000
 90
        0
280
     0
281
     1
  0
CLASS
  1
XRECORD
  2
AcDbXrecord
  3
AutoCAD 2000
 90
        0
280
     0
281
     0
  0
CLASS
  1
LONG_TRANSACTION
  2
AcDbLongTransaction
  3
AutoCAD 2000
 90
        0
280
     0
281
     0
  0
CLASS
  1
LWPOLYLINE
  2
AcDbPolyline
  3
AutoCAD 2000
 90
        0
280
     0
281
     1
  0
CLASS
  1
HATCH
  2
AcDbHatch
  3
AutoCAD 2000
 90
        0
280
     0
281
     1
  0
CLASS
  1
XRECORD
  2
AcDbXrecord
  3
AutoCAD 2000
 90
        0
280
     0
281
     0
  0
CLASS
  1
LONG_TRANSACTION
  2
AcDbLongTransaction
  3
AutoCAD 2000
 90
        0
280
     0
281
     0
  0
CLASS
  1
LWPOLYLINE
  2
AcDbPolyline
  3
AutoCAD 2000
 90
        0
280
     0
281
     1
  0
CLASS
  1
HATCH
  2
AcDbHatch
  3
AutoCAD 2000
 90
        0
280
     0
281
     1
  0
CLASS
  1
XRECORD
  2
AcDbXrecord
  3
AutoCAD 2000
 90
        0
280
     0
281
     0
  0
CLASS
  1
LONG_TRANSACTION
  2
AcDbLongTransaction
  3
AutoCAD 2000
 90
        0
280
     0
281
     0
  0
CLASS
  1
LWPOLYLINE
  2
AcDbPolyline
  3
AutoCAD 2000
 90
        0
280
     0
281
     1
  0
CLASS
  1
HATCH
  2
AcDbHatch
  3
AutoCAD 2000
 90
        0
280
     0
281
     1
  0
CLASS
  1
XRECORD
  2
AcDbXrecord
  3
AutoCAD 2000
 90
        0
280
     0
281
     0
  0
CLASS
  1
LONG_TRANSACTION
  2
AcDbLongTransaction
  3
AutoCAD 2000
 90
        0
280
     0
281
     0
  0
CLASS
  1
LWPOLYLINE
  2
AcDbPolyline
  3
AutoCAD 2000
 90
        0
280
     0
281
     1
  0
CLASS
  1
HATCH
  2
AcDbHatch
  3
AutoCAD 2000
 90
        0
280
     0
281
     1
  0
CLASS
  1
XRECORD
  2
AcDbXrecord
  3
AutoCAD 2000
 90
        0
280
     0
281
     0
  0
CLASS
  1
LONG_TRANSACTION
  2
AcDbLongTransaction
  3
AutoCAD 2000
 90
        0
280
     0
281
     0
  0
CLASS
  1
LWPOLYLINE
  2
AcDbPolyline
  3
AutoCAD 2000
 90
        0
280
     0
281
     1
  0
CLASS
  1
HATCH
  2
AcDbHatch
  3
AutoCAD 2000
 90
        0
280
     0
281
     1
  0
CLASS
  1
XRECORD
  2
AcDbXrecord
  3
AutoCAD 2000
 90
        0
280
     0
281
     0
  0
CLASS
  1
LONG_TRANSACTION
  2
AcDbLongTransaction
  3
AutoCAD 2000
 90
        0
280
     0
281
     0
  0
CLASS
  1
LWPOLYLINE
  2
AcDbPolyline
  3
AutoCAD 2000
 90
        0
280
     0
281
     1
  0
CLASS
  1
HATCH
  2
AcDbHatch
  3
AutoCAD 2000
 90
        0
280
     0
281
     1
  0
CLASS
  1
XRECORD
  2
AcDbXrecord
  3
AutoCAD 2000
 90
        0
280
     0
281
     0
  0
CLASS
  1
LONG_TRANSACTION
  2
AcDbLongTransaction
  3
AutoCAD 2000
 90
        0
280
     0
281
     0
  0
CLASS
  1
LWPOLYLINE
  2
AcDbPolyline
  3
AutoCAD 2000
 90
        0
280
     0
281
     1
  0
CLASS
  1
HATCH
  2
AcDbHatch
  3
AutoCAD 2000
 90
        0
280
     0
281
     1
  0
CLASS
  1
XRECORD
  2
AcDbXrecord
  3
AutoCAD 2000
 90
        0
280
     0
281
     0
  0
CLASS
  1
LONG_TRANSACTION
  2
AcDbLongTransaction
  3
AutoCAD 2000
 90
        0
280
     0
281
     0
  0
CLASS
  1
LWPOLYLINE
  2
AcDbPolyline
  3
AutoCAD 2000
 90
        0
280
     0
281
     1
  0
CLASS
  1
HATCH
  2
AcDbHatch
  3
AutoCAD 2000
 90
        0
280
     0
281
     1
  0
CLASS
  1
XRECORD
  2
AcDbXrecord
  3
AutoCAD 2000
 90
        0
280
     0
281
     0
  0
CLASS
  1
LONG_TRANSACTION
  2
AcDbLongTransaction
  3
AutoCAD 2000
 90
        0
280
     0
281
     0
  0
CLASS
  1
LWPOLYLINE
  2
AcDbPolyline
  3
AutoCAD 2000
 90
        0
280
     0
281
     1
  0
CLASS
  1
HATCH
  2
AcDbHatch
  3
AutoCAD 2000
 90
        0
280
     0
281
     1
  0
CLASS
  1
XRECORD
  2
AcDbXrecord
  3
AutoCAD 2000
 90
        0
280
     0
281
     0
  0
CLASS
  1
LONG_TRANSACTION
  2
AcDbLongTransaction
  3
AutoCAD 2000
 90
        0
280
     0
281
     0
  0
CLASS
  1
LWPOLYLINE
  2
AcDbPolyline
  3
AutoCAD 2000
 90
        0
280
     0
281
     1
  0
CLASS
  1
HATCH
  2
AcDbHatch
  3
AutoCAD 2000
 90
        0
280
     0
281
     1
  0
CLASS
  1
XRECORD
  2
AcDbXrecord
  3
AutoCAD 2000
 90
        0
280
     0
281
     0
  0
CLASS
  1
LONG_TRANSACTION
  2
AcDbLongTransaction
  3
AutoCAD 2000
 90
        0
280
     0
281
     0
  0
CLASS
  1
LWPOLYLINE
  2
AcDbPolyline
  3
AutoCAD 2000
 90
        0
280
     0
281
     1
  0
CLASS
  1
HATCH
  2
AcDbHatch
  3
AutoCAD 2000
 90
        0
280
     0
281
     1
  0
CLASS
  1
XRECORD
  2
AcDbXrecord
  3
AutoCAD 2000
 90
        0
280
     0
281
     0
  0
CLASS
  1
LONG_TRANSACTION
  2
AcDbLongTransaction
  3
AutoCAD 2000
 90
        0
280
     0
281
     0
  0
CLASS
  1
LWPOLYLINE
  2
AcDbPolyline
  3
AutoCAD 2000
 90
        0
280
     0
281
     1
  0
CLASS
  1
HATCH
  2
AcDbHatch
  3
AutoCAD 2000
 90
        0
280
     0
281
     1
  0
CLASS
  1
XRECORD
  2
AcDbXrecord
  3
AutoCAD 2000
 90
        0
280
     0
281
     0
  0
CLASS
  1
LONG_TRANSACTION
  2
AcDbLongTransaction
  3
AutoCAD 2000
 90
        0
280
     0
281
     0
  0
CLASS
  1
LWPOLYLINE
  2
AcDbPolyline
  3
AutoCAD 2000
 90
        0
280
     0
281
     1
  0
CLASS
  1
HATCH
  2
AcDbHatch
  3
AutoCAD 2000
 90
        0
280
     0
281
     1
  0
CLASS
  1
XRECORD
  2
AcDbXrecord
  3
AutoCAD 2000
 90
        0
280
     0
281
     0
  0
CLASS
  1
LONG_TRANSACTION
  2
AcDbLongTransaction
  3
AutoCAD 2000
 90
        0
280
     0
281
     0
  0
CLASS
  1
LWPOLYLINE
  2
AcDbPolyline
  3
AutoCAD 2000
 90
        0
280
     0
281
     1
  0
CLASS
  1
HATCH
  2
AcDbHatch
  3
AutoCAD 2000
 90
        0
280
     0
281
     1
  0
CLASS
  1
XRECORD
  2
AcDbXrecord
  3
AutoCAD 2000
 90
        0
280
     0
281
     0
  0
CLASS
  1
LONG_TRANSACTION
  2
AcDbLongTransaction
  3
AutoCAD 2000
 90
        0
280
     0
281
     0
  0
CLASS
  1
LWPOLYLINE
  2
AcDbPolyline
  3
AutoCAD 2000
 90
        0
280
     0
281
     1
  0
CLASS
  1
HATCH
  2
AcDbHatch
  3
AutoCAD 2000
 90
        0
280
     0
281
     1
  0
CLASS
  1
XRECORD
  2
AcDbXrecord
  3
AutoCAD 2000
 90
        0
280
     0
281
     0
  0
CLASS
  1
LONG_TRANSACTION
  2
AcDbLongTransaction
  3
AutoCAD 2000
 90
        0
280
     0
281
     0
  0
CLASS
  1
LWPOLYLINE
  2
AcDbPolyline
  3
AutoCAD 2000
 90
        0
280
     0
281
     1
  0
CLASS
  1
HATCH
  2
AcDbHatch
  3
AutoCAD 2000
 90
        0
280
     0
281
     1
  0
CLASS
  1
XRECORD
  2
AcDbXrecord
  3
AutoCAD 2000
 90
        0
280
     0
281
     0
  0
CLASS
  1
LONG_TRANSACTION
  2
AcDbLongTransaction
  3
AutoCAD 2000
 90
        0
280
     0
281
     0
  0
CLASS
  1
LWPOLYLINE
  2
AcDbPolyline
  3
AutoCAD 2000
 90
        0
280
     0
281
     1
  0
CLASS
  1
HATCH
  2
AcDbHatch
  3
AutoCAD 2000
 90
        0
280
     0
281
     1
  0
CLASS
  1
XRECORD
  2
AcDbXrecord
  3
AutoCAD 2000
 90
        0
280
     0
281
     0
  0
CLASS
  1
LONG_TRANSACTION
  2
AcDbLongTransaction
  3
AutoCAD 2000
 90
        0
280
     0
281
     0
  0
CLASS
  1
LWPOLYLINE
  2
AcDbPolyline
  3
AutoCAD 2000
 90
        0
280
     0
281
     1
  0
CLASS
  1
HATCH
  2
AcDbHatch
  3
AutoCAD 2000
 90
        0
280
     0
281
     1
  0
CLASS
  1
XRECORD
  2
AcDbXrecord
  3
AutoCAD 2000
 90
        0
280
     0
281
     0
  0
CLASS
  1
LONG_TRANSACTION
  2
AcDbLongTransaction
  3
AutoCAD 2000
 90
        0
280
     0
281
     0
  0
CLASS
  1
LWPOLYLINE
  2
AcDbPolyline
  3
AutoCAD 2000
 90
        0
280
     0
281
     1
  0
CLASS
  1
HATCH
  2
AcDbHatch
  3
AutoCAD 2000
 90
        0
280
     0
281
     1
  0
CLASS
  1
XRECORD
  2
AcDbXrecord
  3
AutoCAD 2000
 90
        0
280
     0
281
     0
  0
CLASS
  1
LONG_TRANSACTION
  2
AcDbLongTransaction
  3
AutoCAD 2000
 90
        0
280
     0
281
     0
  0
CLASS
  1
LWPOLYLINE
  2
AcDbPolyline
  3
AutoCAD 2000
 90
        0
280
     0
281
     1
  0
CLASS
  1
HATCH
  2
AcDbHatch
  3
AutoCAD 2000
 90
        0
280
     0
281
     1
  0
CLASS
  1
XRECORD
  2
AcDbXrecord
  3
AutoCAD 2000
 90
        0
280
     0
281
     0
  0
CLASS
  1
LONG_TRANSACTION
  2
AcDbLongTransaction
  3
AutoCAD 2000
 90
        0
280
     0
281
     0
  0
CLASS
  1
LWPOLYLINE
  2
AcDbPolyline
  3
AutoCAD 2000
 90
        0
280
     0
281
     1
  0
CLASS
  1
HATCH
  2
AcDbHatch
  3
AutoCAD 2000
 90
        0
280
     0
281
     1
  0
CLASS
  1
XRECORD
  2
AcDbXrecord
  3
AutoCAD 2000
 90
        0
280
     0
281
     0
  0
CLASS
  1
LONG_TRANSACTION
  2
AcDbLongTransaction
  3
AutoCAD 2000
 90
        0
280
     0
281
     0
  0
CLASS
  1
LWPOLYLINE
  2
AcDbPolyline
  3
AutoCAD 2000
 90
        0
280
     0
281
     1
  0
CLASS
  1
HATCH
  2
AcDbHatch
  3
AutoCAD 2000
 90
        0
280
     0
281
     1
  0
CLASS
  1
XRECORD
  2
AcDbXrecord
  3
AutoCAD 2000
 90
        0
280
     0
281
     0
  0
CLASS
  1
LONG_TRANSACTION
  2
AcDbLongTransaction
  3
AutoCAD 2000
 90
        0
280
     0
281
     0
  0
CLASS
  1
LWPOLYLINE
  2
AcDbPolyline
  3
AutoCAD 2000
 90
        0
280
     0
281
     1
  0
CLASS
  1
HATCH
  2
AcDbHatch
  3
AutoCAD 2000
 90
        0
280
     0
281
     1
  0
CLASS
  1
XRECORD
  2
AcDbXrecord
  3
AutoCAD 2000
 90
        0
280
     0
281
     0
  0
CLASS
  1
LONG_TRANSACTION
  2
AcDbLongTransaction
  3
AutoCAD 2000
 90
        0
280
     0
281
     0
  0
CLASS
  1
LWPOLYLINE
  2
AcDbPolyline
  3
AutoCAD 2000
 90
        0
280
     0
281
     1
  0
CLASS
  1
HATCH
  2
AcDbHatch
  3
AutoCAD 2000
 90
        0
280
     0
281
     1
  0
CLASS
  1
XRECORD
  2
AcDbXrecord
  3
AutoCAD 2000
 90
        0
280
     0
281
     0
  0
CLASS
  1
LONG_TRANSACTION
  2
AcDbLongTransaction
  3
AutoCAD 2000
 90
        0
280
     0
281
     0
  0
CLASS
  1
LWPOLYLINE
  2
AcDbPolyline
  3
AutoCAD 2000
 90
        0
280
     0
281
     1
  0
CLASS
  1
HATCH
  2
AcDbHatch
  3
AutoCAD 2000
 90
        0
280
     0
281
     1
  0
CLASS
  1
XRECORD
  2
AcDbXrecord
  3
AutoCAD 2000
 90
        0
280
     0
281
     0
  0
CLASS
  1
LONG_TRANSACTION
  2
AcDbLongTransaction
  3
AutoCAD 2000
 90
        0
280
     0
281
     0
  0
CLASS
  1
LWPOLYLINE
  2
AcDbPolyline
  3
AutoCAD 2000
 90
        0
280
     0
281
     1
  0
CLASS
  1
HATCH
  2
AcDbHatch
  3
AutoCAD 2000
 90
        0
280
     0
281
     1
  0
CLASS
  1
XRECORD
  2
AcDbXrecord
  3
AutoCAD 2000
 90
        0
280
     0
281
     0
  0
CLASS
  1
LONG_TRANSACTION
  2
AcDbLongTransaction
  3
AutoCAD 2000
 90
        0
280
     0
281
     0
  0
CLASS
  1
LWPOLYLINE
  2
AcDbPolyline
  3
AutoCAD 2000
 90
        0
280
     0
281
     1
  0
CLASS
  1
HATCH
  2
AcDbHatch
  3
AutoCAD 2000
 90
        0
280
     0
281
     1
  0
CLASS
  1
XRECORD
  2
AcDbXrecord
  3
AutoCAD 2000
 90
        0
280
     0
281
     0
  0
CLASS
  1
LONG_TRANSACTION
  2
AcDbLongTransaction
  3
AutoCAD 2000
 90
        0
280
     0
281
     0
  0
CLASS
  1
LWPOLYLINE
  2
AcDbPolyline
  3
AutoCAD 2000
 90
        0
280
     0
281
     1
  0
CLASS
  1
HATCH
  2
AcDbHatch
  3
AutoCAD 2000
 90
        0
280
     0
281
     1
  0
CLASS
  1
XRECORD
  2
AcDbXrecord
  3
AutoCAD 2000
 90
        0
280
     0
281
     0
  0
CLASS
  1
LONG_TRANSACTION
  2
AcDbLongTransaction
  3
AutoCAD 2000
 90
        0
280
     0
281
     0
  0
CLASS
  1
LWPOLYLINE
  2
AcDbPolyline
  3
AutoCAD 2000
 90
        0
280
     0
281
     1
  0
CLASS
  1
HATCH
  2
AcDbHatch
  3
AutoCAD 2000
 90
        0
280
     0
281
     1
  0
CLASS
  1
XRECORD
  2
AcDbXrecord
  3
AutoCAD 2000
 90
        0
280
     0
281
     0
  0
CLASS
  1
LONG_TRANSACTION
  2
AcDbLongTransaction
  3
AutoCAD 2000
 90
        0
280
     0
281
     0
  0
CLASS
  1
LWPOLYLINE
  2
AcDbPolyline
  3
AutoCAD 2000
 90
        0
280
     0
281
     1
  0
CLASS
  1
HATCH
  2
AcDbHatch
  3
AutoCAD 2000
 90
        0
280
     0
281
     1
  0
CLASS
  1
XRECORD
  2
AcDbXrecord
  3
AutoCAD 2000
 90
        0
280
     0
281
     0
  0
CLASS
  1
LONG_TRANSACTION
  2
AcDbLongTransaction
  3
AutoCAD 2000
 90
        0
280
     0
281
     0
  0
CLASS
  1
LWPOLYLINE
  2
AcDbPolyline
  3
AutoCAD 2000
 90
        0
280
     0
281
     1
  0
CLASS
  1
HATCH
  2
AcDbHatch
  3
AutoCAD 2000
 90
        0
280
     0
281
     1
  0
CLASS
  1
XRECORD
  2
AcDbXrecord
  3
AutoCAD 2000
 90
        0
280
     0
281
     0
  0
CLASS
  1
LONG_TRANSACTION
  2
AcDbLongTransaction
  3
AutoCAD 2000
 90
        0
280
     0
281
     0
  0
CLASS
  1
LWPOLYLINE
  2
AcDbPolyline
  3
AutoCAD 2000
 90
        0
280
     0
281
     1
  0
CLASS
  1
HATCH
  2
AcDbHatch
  3
AutoCAD 2000
 90
        0
280
     0
281
     1
  0
CLASS
  1
XRECORD
  2
AcDbXrecord
  3
AutoCAD 2000
 90
        0
280
     0
281
     0
  0
CLASS
  1
LONG_TRANSACTION
  2
AcDbLongTransaction
  3
AutoCAD 2000
 90
        0
280
     0
281
     0
  0
CLASS
  1
LWPOLYLINE
  2
AcDbPolyline
  3
AutoCAD 2000
 90
        0
280
     0
281
     1
  0
CLASS
  1
HATCH
  2
AcDbHatch
  3
AutoCAD 2000
 90
        0
280
     0
281
     1
  0
CLASS
  1
XRECORD
  2
AcDbXrecord
  3
AutoCAD 2000
 90
        0
280
     0
281
     0
  0
CLASS
  1
LONG_TRANSACTION
  2
AcDbLongTransaction
  3
AutoCAD 2000
 90
        0
280
     0
281
     0
  0
CLASS
  1
LWPOLYLINE
  2
AcDbPolyline
  3
AutoCAD 2000
 90
        0
280
     0
281
     1
  0
CLASS
  1
HATCH
  2
AcDbHatch
  3
AutoCAD 2000
 90
        0
280
     0
281
     1
  0
CLASS
  1
XRECORD
  2
AcDbXrecord
  3
AutoCAD 2000
 90
        0
280
     0
281
     0
  0
ENDSEC
  0
SECTION
  2
TABLES
  0
TABLE
  2
VPORT
  5
92
330
0
100
AcDbSymbolTable
 70
     2
  0
VPORT
  5
400
330
92
100
AcDbSymbolTableRecord
100
AcDbViewportTableRecord
  2
*ACTIVE
 70
     0
 10
0.0
 20
0.0
 11
1.0
 21
1.0
 12
212.186146044929
 22
182.1396815261123
 13
0.0
 23
0.0
 14
10.0
 24
10.0
 15
10.0
 25
10.0
 16
0.0
 26
0.0
 36
1.0
 17
0.0
 27
0.0
 37
0.0
 40
388.5423411813442
 41
1.549367088607595
 42
50.0
 43
0.0
 44
0.0
 50
0.0
 51
0.0
 71
     0
 72
 10000
 73
     1
 74
     3
 75
     0
 76
     0
 77
     0
 78
     1
  0
ENDTAB
  0
TABLE
  2
LTYPE
  5
8D
330
0
100
AcDbSymbolTable
 70
     3
  0
LTYPE
  5
8E
330
8D
100
AcDbSymbolTableRecord
100
AcDbLinetypeTableRecord
  2
BYBLOCK
 70
     0
  3

 72
    65
 73
     0
 40
0.0
  0
LTYPE
  5
8F
330
8D
100
AcDbSymbolTableRecord
100
AcDbLinetypeTableRecord
  2
BYLAYER
 70
     0
  3

 72
    65
 73
     0
 40
0.0
  0
LTYPE
  5
A
330
8D
100
AcDbSymbolTableRecord
100
AcDbLinetypeTableRecord
  2
CONTINUOUS
 70
     0
  3
Solid line
 72
    65
 73
     0
 40
0.0
  0
LTYPE
  5
279
330
8D
100
AcDbSymbolTableRecord
100
AcDbLinetypeTableRecord
  2
CENTER
 70
     0
  3
Center ____ _ ____ _ ____ _ ____ _ ____ _ ____
 72
    65
 73
     4
 40
50.8
 49
31.75
 74
     0
 49
-6.349999999999998
 74
     0
 49
6.349999999999998
 74
     0
 49
-6.349999999999998
 74
     0
  0
LTYPE
  5
B6
330
8D
100
AcDbSymbolTableRecord
100
AcDbLinetypeTableRecord
  2
CENTERX2
 70
     0
  3
Center (2x) ________  __  ________  __  _____
 72
    65
 73
     4
 40
101.6
 49
63.5
 74
     0
 49
-12.7
 74
     0
 49
12.7
 74
     0
 49
-12.7
 74
     0
  0
ENDTAB
  0
TABLE
  2
LAYER
  5
14
102
{ACAD_XDICTIONARY
360
15
102
}
330
0
100
AcDbSymbolTable
 70
     6
  0
LAYER
  5
6
330
14
100
AcDbSymbolTableRecord
100
AcDbLayerTableRecord
  2
0
 70
     0
 62
     7
  6
CONTINUOUS
  0
LAYER
  5
A7
330
14
100
AcDbSymbolTableRecord
100
AcDbLayerTableRecord
  2
DEFPOINTS
 70
     0
 62
     7
  6
CONTINUOUS
  0
LAYER
  5
107
330
14
100
AcDbSymbolTableRecord
100
AcDbLayerTableRecord
  2
DIM
 70
     0
 62
     3
  6
CONTINUOUS
  0
LAYER
  5
B5
330
14
100
AcDbSymbolTableRecord
100
AcDbLayerTableRecord
  2
CL
 70
     0
 62
     1
  6
CENTERX2
  0
LAYER
  5
278
330
14
100
AcDbSymbolTableRecord
100
AcDbLayerTableRecord
  2
CEN
 70
     0
 62
     1
  6
CENTER
  0
LAYER
  5
281
330
14
100
AcDbSymbolTableRecord
100
AcDbLayerTableRecord
  2
2
 70
     0
 62
     2
  6
CONTINUOUS
  0
ENDTAB
  0
TABLE
  2
STYLE
  5
8A
330
0
100
AcDbSymbolTable
 70
     1
  0
STYLE
  5
8B
330
8A
100
AcDbSymbolTableRecord
100
AcDbTextStyleTableRecord
  2
STANDARD
 70
     0
 40
0.0
 41
1.0
 50
0.0
 71
     0
 42
5.777225951253058
  3
romans.shx
  4
whgtxt.shx
  0
ENDTAB
  0
TABLE
  2
VIEW
  5
90
330
0
100
AcDbSymbolTable
 70
     0
  0
ENDTAB
  0
TABLE
  2
UCS
  5
91
330
0
100
AcDbSymbolTable
 70
     0
  0
ENDTAB
  0
TABLE
  2
APPID
  5
94
330
0
100
AcDbSymbolTable
 70
     2
  0
APPID
  5
95
330
94
100
AcDbSymbolTableRecord
100
AcDbRegAppTableRecord
  2
ACAD
 70
     0
  0
APPID
  5
424
330
94
100
AcDbSymbolTableRecord
100
AcDbRegAppTableRecord
  2
CONTENTBLOCKICON
 70
     0
  0
ENDTAB
  0
TABLE
  2
DIMSTYLE
  5
96
330
0
100
AcDbSymbolTable
 70
     2
  0
DIMSTYLE
105
9E
102
{ACAD_REACTORS
330
BD
330
F6
330
144
330
181
330
18E
330
216
330
28C
330
29B
330
2C0
330
2CD
330
22B
330
2AA
330
2E7
330
9D
330
166
330
1E3
330
1F2
330
1B1
330
1C1
330
1D2
330
E7
330
156
102
}
330
96
100
AcDbSymbolTableRecord
100
AcDbDimStyleTableRecord
  2
STANDARD
 70
     0
  3

  4

  5

  6

  7

 40
1.0
 41
2.5
 42
1.0
 43
10.0
 44
0.6
 45
0.0
 46
0.0
 47
0.0
 48
0.0
140
3.0
141
0.09
142
0.0
143
25.4
144
1.0
145
0.0
146
1.0
147
1.0
 71
     0
 72
     0
 73
     0
 74
     0
 75
     0
 76
     0
 77
     1
 78
     8
170
     0
171
     2
172
     1
173
     0
174
     1
175
     0
176
   123
177
   123
178
     3
270
     2
271
     2
272
     2
273
     2
274
     2
340
8B
275
     1
280
     0
281
     0
282
     0
283
     1
284
     0
285
     0
286
     0
287
     0
288
     1
  0
DIMSTYLE
105
9C
330
96
100
AcDbSymbolTableRecord
100
AcDbDimStyleTableRecord
  2
1_1_2
 70
     0
  3

  4

  5

  6

  7

 40
1.0
 41
3.0
 42
1.0
 43
10.0
 44
0.6
 45
0.0
 46
0.0
 47
0.0
 48
0.0
140
3.5
141
0.09
142
0.0
143
25.4
144
1.0
145
0.0
146
1.0
147
1.0
 71
     0
 72
     0
 73
     0
 74
     0
 75
     0
 76
     0
 77
     1
 78
     8
170
     0
171
     2
172
     1
173
     0
174
     1
175
     0
176
   123
177
   123
178
     3
270
     2
271
     2
272
     2
273
     2
274
     2
340
8B
275
     1
280
     0
281
     0
282
     0
283
     1
284
     0
285
     0
286
     0
287
     0
288
     1
  0
ENDTAB
  0
TABLE
  2
BLOCK_RECORD
  5
1
330
0
100
AcDbSymbolTable
 70
    45
  0
BLOCK_RECORD
  5
2
102
{ACAD_XDICTIONARY
360
3
102
}
330
1
100
AcDbSymbolTableRecord
100
AcDbBlockTableRecord
  2
*MODEL_SPACE
  0
BLOCK_RECORD
  5
E
102
{ACAD_XDICTIONARY
360
F
102
}
330
1
100
AcDbSymbolTableRecord
100
AcDbBlockTableRecord
  2
*PAPER_SPACE
  0
BLOCK_RECORD
  5
C0
330
1
100
AcDbSymbolTableRecord
100
AcDbBlockTableRecord
  2
*D0
  0
BLOCK_RECORD
  5
B8
330
1
100
AcDbSymbolTableRecord
100
AcDbBlockTableRecord
  2
4
1001
ACAD
1000
DesignCenter Data
1002
{
1070
     1
1070
     4
1002
}
1001
CONTENTBLOCKICON
1071
        0
1004
2800000020000000200000000100080000000000000400000000000000000000000000000000000000000000000080000080000000808000800000008000800080800000C0C0C000C0DCC000F0CAA6000020400000206000002080000020A0000020C0000020E00000400000004020000040400000406000004080000040A0
1004
000040C0000040E00000600000006020000060400000606000006080000060A0000060C0000060E00000800000008020000080400000806000008080000080A0000080C0000080E00000A0000000A0200000A0400000A0600000A0800000A0A00000A0C00000A0E00000C0000000C0200000C0400000C0600000C0800000C0
1004
A00000C0C00000C0E00000E0000000E0200000E0400000E0600000E0800000E0A00000E0C00000E0E00040000000400020004000400040006000400080004000A0004000C0004000E00040200000402020004020400040206000402080004020A0004020C0004020E000404000004040200040404000404060004040800040
1004
40A0004040C0004040E00040600000406020004060400040606000406080004060A0004060C0004060E00040800000408020004080400040806000408080004080A0004080C0004080E00040A0000040A0200040A0400040A0600040A0800040A0A00040A0C00040A0E00040C0000040C0200040C0400040C0600040C08000
1004
40C0A00040C0C00040C0E00040E0000040E0200040E0400040E0600040E0800040E0A00040E0C00040E0E00080000000800020008000400080006000800080008000A0008000C0008000E00080200000802020008020400080206000802080008020A0008020C0008020E00080400000804020008040400080406000804080
1004
008040A0008040C0008040E00080600000806020008060400080606000806080008060A0008060C0008060E00080800000808020008080400080806000808080008080A0008080C0008080E00080A0000080A0200080A0400080A0600080A0800080A0A00080A0C00080A0E00080C0000080C0200080C0400080C0600080C0
1004
800080C0A00080C0C00080C0E00080E0000080E0200080E0400080E0600080E0800080E0A00080E0C00080E0E000C0000000C0002000C0004000C0006000C0008000C000A000C000C000C000E000C0200000C0202000C0204000C0206000C0208000C020A000C020C000C020E000C0400000C0402000C0404000C0406000C0
1004
408000C040A000C040C000C040E000C0600000C0602000C0604000C0606000C0608000C060A000C060C000C060E000C0800000C0802000C0804000C0806000C0808000C080A000C080C000C080E000C0A00000C0A02000C0A04000C0A06000C0A08000C0A0A000C0A0C000C0A0E000C0C00000C0C02000C0C04000C0C06000
1004
C0C08000C0C0A000F0FBFF00A4A0A000808080000000FF0000FF000000FFFF00FF000000FF00FF00FFFF0000FFFFFF0000000000000000000000000000000000000000000000000000000000000000000000000000000000000000000000000000000000000000000000000000000000000000000000000000000000000000
1004
0000000000000000000000000000000000000000FFFFFFFFFFFFFFFFFFFFFFFFFFFFFFFFFFFFFFFFFF000000000000000000FFFFFF00F9000000000000000000000000000000F9FFF9FF0000000000000000FF00FFF90000000000000000000000000000000000FFFFFF0000000000000000F3F3F9F9000000000000000000
1004
00000000000000F9FFF9FF0000000000000000FFF9000000000000000000000000000000000000000000FF0000000000000000FF00F3F300000000000000000000000000000000000000FF0000000000000000FF000000F3000000000000000000000000000000000000FF0000000000000000FF00000000F3000000000000
1004
0000000000000000000000FF0000000000000000FF0000000000F3F3000000000000000000000000000000FF0000000000000000FF00000000000000F30000000000000000000000000000FF0000000000000000FF0000000000000000F3F3000000000000000000000000FF0000000000000000FF00000000000000000000
1004
F30000000000000000000000FF0000000000000000FF0000000000000000000000F300000000000000000000FF0000000000000000FF000000000000000000000000F3F30000000000000000FF0000000000000000FF0000000000000000000000000000F300000000000000FF0000000000000000FF000000000000000000
1004
000000000000F3F30000000000FF0000000000000000FF0000000000000000000000000000000000F300000000FF0000000000000000FF000000000000000000000000000000000000F3000000FF0000000000000000FF00000000000000000000000000000000000000F3F300FF0000000000000000FF0000000000000000
1004
00000000000000000000000000FFFF0000000000000000FF00FFF900000000000000000000000000000000F9F900F30000000000000000FF00FFFF00000000000000000000000000000000F9F9FFFFFAF300000000000000FFF900F90000000000000000000000000000F90000F9FFFAFAF300000000000000FFFFFFFFFFFF
1004
FFFFFFFFFFFFFFFFFFFFFFFFFFFFFF0000FAFAFAF30000000000000000000000000000000000000000000000000000000000FAFAFAF30000000000000000000000000000000000000000000000000000000000FAFA000000000000000000000000000000000000000000000000000000000000000000000000000000000000
1004
0000000000000000000000000000000000000000000000000000000000000000000000000000000000000000000000000000000000000000
  0
BLOCK_RECORD
  5
D8
330
1
100
AcDbSymbolTableRecord
100
AcDbBlockTableRecord
  2
2
1001
ACAD
1000
DesignCenter Data
1002
{
1070
     1
1070
     4
1002
}
1001
CONTENTBLOCKICON
1071
        0
1004
2800000020000000200000000100080000000000000400000000000000000000000000000000000000000000000080000080000000808000800000008000800080800000C0C0C000C0DCC000F0CAA6000020400000206000002080000020A0000020C0000020E00000400000004020000040400000406000004080000040A0
1004
000040C0000040E00000600000006020000060400000606000006080000060A0000060C0000060E00000800000008020000080400000806000008080000080A0000080C0000080E00000A0000000A0200000A0400000A0600000A0800000A0A00000A0C00000A0E00000C0000000C0200000C0400000C0600000C0800000C0
1004
A00000C0C00000C0E00000E0000000E0200000E0400000E0600000E0800000E0A00000E0C00000E0E00040000000400020004000400040006000400080004000A0004000C0004000E00040200000402020004020400040206000402080004020A0004020C0004020E000404000004040200040404000404060004040800040
1004
40A0004040C0004040E00040600000406020004060400040606000406080004060A0004060C0004060E00040800000408020004080400040806000408080004080A0004080C0004080E00040A0000040A0200040A0400040A0600040A0800040A0A00040A0C00040A0E00040C0000040C0200040C0400040C0600040C08000
1004
40C0A00040C0C00040C0E00040E0000040E0200040E0400040E0600040E0800040E0A00040E0C00040E0E00080000000800020008000400080006000800080008000A0008000C0008000E00080200000802020008020400080206000802080008020A0008020C0008020E00080400000804020008040400080406000804080
1004
008040A0008040C0008040E00080600000806020008060400080606000806080008060A0008060C0008060E00080800000808020008080400080806000808080008080A0008080C0008080E00080A0000080A0200080A0400080A0600080A0800080A0A00080A0C00080A0E00080C0000080C0200080C0400080C0600080C0
1004
800080C0A00080C0C00080C0E00080E0000080E0200080E0400080E0600080E0800080E0A00080E0C00080E0E000C0000000C0002000C0004000C0006000C0008000C000A000C000C000C000E000C0200000C0202000C0204000C0206000C0208000C020A000C020C000C020E000C0400000C0402000C0404000C0406000C0
1004
408000C040A000C040C000C040E000C0600000C0602000C0604000C0606000C0608000C060A000C060C000C060E000C0800000C0802000C0804000C0806000C0808000C080A000C080C000C080E000C0A00000C0A02000C0A04000C0A06000C0A08000C0A0A000C0A0C000C0A0E000C0C00000C0C02000C0C04000C0C06000
1004
C0C08000C0C0A000F0FBFF00A4A0A000808080000000FF0000FF000000FFFF00FF000000FF00FF00FFFF0000FFFFFF00000000000000000000000000000000000000000000000000000000000000000000000000000000FFFFFFFFFFFFFFFFFFFFFFFFFFFFFFFFFFFF00000000000000000000000000FF0000000000000000
1004
00000000000000000000FF0000000000000000000000000000000000000000000000000000000000000000000000000000000000000000000000000000000000000000000000000000000000000000000000000000000000000000000000000000000000000000000000000000000000000000FF0000000000000000000000
1004
000000000000000000000000000000FF000000FF00000000000000000000000000000000000000000000000000000000FF0000FF00000000000000000000000000000000000000000000000000000000FF0000FF00000000000000000000000000000000000000000000000000000000FF0000FF0000000000000000000000
1004
0000000000000000000000000000000000FF0000FF00000000000000000000000000000000000000000000000000000000FF0000FF00000000000000000000000000000000000000000000000000000000FF0000FF00000000000000000000000000000000000000000000000000000000FF0000FF00000000000000000000
1004
000000000000000000000000000000000000FF0000FF00000000000000000000000000000000000000000000000000000000FF0000FF00000000000000000000000000000000000000000000000000000000FF0000FF00000000000000000000000000000000000000000000000000000000FF0000FF000000000000000000
1004
00000000000000000000000000000000000000FF0000FF00000000000000000000000000000000000000000000000000000000FF0000FF00000000000000000000000000000000000000000000000000000000FF0000FF00000000000000000000000000000000000000000000000000000000FF0000FF0000000000000000
1004
0000000000000000000000000000000000000000FF0000FF00000000000000000000000000000000000000000000000000000000FF0000FF00000000000000000000000000000000000000000000000000000000FF000000FF0000000000000000000000000000000000000000000000000000FF0000000000000000000000
1004
000000000000000000000000000000000000000000000000000000000000000000000000000000000000000000000000000000000000000000000000000000000000000000000000000000000000000000000000000000000000000000FF000000000000000000000000000000000000FF00000000000000000000000000FF
1004
FFFFFFFFFFFFFFFFFFFFFFFFFFFFFFFFFF000000000000000000000000000000000000000000000000000000000000000000000000000000
  0
BLOCK_RECORD
  5
F7
330
1
100
AcDbSymbolTableRecord
100
AcDbBlockTableRecord
  2
*D3
  0
BLOCK_RECORD
  5
145
330
1
100
AcDbSymbolTableRecord
100
AcDbBlockTableRecord
  2
*D4
  0
BLOCK_RECORD
  5
182
330
1
100
AcDbSymbolTableRecord
100
AcDbBlockTableRecord
  2
*D5
  0
BLOCK_RECORD
  5
18F
330
1
100
AcDbSymbolTableRecord
100
AcDbBlockTableRecord
  2
*D6
  0
BLOCK_RECORD
  5
217
330
1
100
AcDbSymbolTableRecord
100
AcDbBlockTableRecord
  2
*D7
  0
BLOCK_RECORD
  5
28D
330
1
100
AcDbSymbolTableRecord
100
AcDbBlockTableRecord
  2
*D8
  0
BLOCK_RECORD
  5
2C1
330
1
100
AcDbSymbolTableRecord
100
AcDbBlockTableRecord
  2
*D9
  0
BLOCK_RECORD
  5
2CE
330
1
100
AcDbSymbolTableRecord
100
AcDbBlockTableRecord
  2
*D10
  0
BLOCK_RECORD
  5
2AB
330
1
100
AcDbSymbolTableRecord
100
AcDbBlockTableRecord
  2
*D11
  0
BLOCK_RECORD
  5
2E8
330
1
100
AcDbSymbolTableRecord
100
AcDbBlockTableRecord
  2
*D12
  0
BLOCK_RECORD
  5
9F
330
1
100
AcDbSymbolTableRecord
100
AcDbBlockTableRecord
  2
*D13
  0
BLOCK_RECORD
  5
1E4
330
1
100
AcDbSymbolTableRecord
100
AcDbBlockTableRecord
  2
*D14
  0
BLOCK_RECORD
  5
157
330
1
100
AcDbSymbolTableRecord
100
AcDbBlockTableRecord
  2
*D15
  0
BLOCK_RECORD
  5
29E
330
1
100
AcDbSymbolTableRecord
100
AcDbBlockTableRecord
  2
*D16
  0
BLOCK_RECORD
  5
22E
330
1
100
AcDbSymbolTableRecord
100
AcDbBlockTableRecord
  2
*D17
  0
BLOCK_RECORD
  5
169
330
1
100
AcDbSymbolTableRecord
100
AcDbBlockTableRecord
  2
*D18
  0
BLOCK_RECORD
  5
1F5
330
1
100
AcDbSymbolTableRecord
100
AcDbBlockTableRecord
  2
*D19
  0
BLOCK_RECORD
  5
1B4
330
1
100
AcDbSymbolTableRecord
100
AcDbBlockTableRecord
  2
*D20
  0
BLOCK_RECORD
  5
1C4
330
1
100
AcDbSymbolTableRecord
100
AcDbBlockTableRecord
  2
*D21
  0
BLOCK_RECORD
  5
1D5
330
1
100
AcDbSymbolTableRecord
100
AcDbBlockTableRecord
  2
*D22
  0
BLOCK_RECORD
  5
EA
330
1
100
AcDbSymbolTableRecord
100
AcDbBlockTableRecord
  2
*D23
  0
BLOCK_RECORD
  5
2FC
330
1
100
AcDbSymbolTableRecord
100
AcDbBlockTableRecord
  2
*D24
  0
BLOCK_RECORD
  5
30A
330
1
100
AcDbSymbolTableRecord
100
AcDbBlockTableRecord
  2
*D25
  0
BLOCK_RECORD
  5
316
330
1
100
AcDbSymbolTableRecord
100
AcDbBlockTableRecord
  2
*D26
  0
BLOCK_RECORD
  5
322
330
1
100
AcDbSymbolTableRecord
100
AcDbBlockTableRecord
  2
*D27
  0
BLOCK_RECORD
  5
330
330
1
100
AcDbSymbolTableRecord
100
AcDbBlockTableRecord
  2
*D28
  0
BLOCK_RECORD
  5
33C
330
1
100
AcDbSymbolTableRecord
100
AcDbBlockTableRecord
  2
*D29
  0
BLOCK_RECORD
  5
348
330
1
100
AcDbSymbolTableRecord
100
AcDbBlockTableRecord
  2
*D30
  0
BLOCK_RECORD
  5
356
330
1
100
AcDbSymbolTableRecord
100
AcDbBlockTableRecord
  2
*D31
  0
BLOCK_RECORD
  5
362
330
1
100
AcDbSymbolTableRecord
100
AcDbBlockTableRecord
  2
*D32
  0
BLOCK_RECORD
  5
36E
330
1
100
AcDbSymbolTableRecord
100
AcDbBlockTableRecord
  2
*D33
  0
BLOCK_RECORD
  5
37A
330
1
100
AcDbSymbolTableRecord
100
AcDbBlockTableRecord
  2
*D34
  0
BLOCK_RECORD
  5
386
330
1
100
AcDbSymbolTableRecord
100
AcDbBlockTableRecord
  2
*D35
  0
BLOCK_RECORD
  5
392
330
1
100
AcDbSymbolTableRecord
100
AcDbBlockTableRecord
  2
*D36
  0
BLOCK_RECORD
  5
39E
330
1
100
AcDbSymbolTableRecord
100
AcDbBlockTableRecord
  2
*D37
  0
BLOCK_RECORD
  5
3AA
330
1
100
AcDbSymbolTableRecord
100
AcDbBlockTableRecord
  2
*D38
  0
BLOCK_RECORD
  5
3B6
330
1
100
AcDbSymbolTableRecord
100
AcDbBlockTableRecord
  2
*D39
  0
BLOCK_RECORD
  5
3C2
330
1
100
AcDbSymbolTableRecord
100
AcDbBlockTableRecord
  2
*D40
  0
BLOCK_RECORD
  5
3CE
330
1
100
AcDbSymbolTableRecord
100
AcDbBlockTableRecord
  2
*D41
  0
BLOCK_RECORD
  5
3DA
330
1
100
AcDbSymbolTableRecord
100
AcDbBlockTableRecord
  2
*D42
  0
BLOCK_RECORD
  5
3E8
330
1
100
AcDbSymbolTableRecord
100
AcDbBlockTableRecord
  2
*D43
  0
BLOCK_RECORD
  5
3F4
330
1
100
AcDbSymbolTableRecord
100
AcDbBlockTableRecord
  2
*D44
  0
ENDTAB
  0
ENDSEC
  0
SECTION
  2
BLOCKS
  0
BLOCK
  5
5
330
2
100
AcDbEntity
  8
0
100
AcDbBlockBegin
  2
*MODEL_SPACE
 70
     0
 10
0.0
 20
0.0
 30
0.0
  3
*MODEL_SPACE
  1

  0
ENDBLK
  5
B
330
2
100
AcDbEntity
  8
0
100
AcDbBlockEnd
  0
BLOCK
  5
11
330
E
100
AcDbEntity
 67
     1
  8
0
100
AcDbBlockBegin
  2
*PAPER_SPACE
 70
     0
 10
0.0
 20
0.0
 30
0.0
  3
*PAPER_SPACE
  1

  0
ENDBLK
  5
12
330
E
100
AcDbEntity
 67
     1
  8
0
100
AcDbBlockEnd
  0
BLOCK
  5
C9
330
C0
100
AcDbEntity
  8
0
100
AcDbBlockBegin
  2
*D0
 70
     1
 10
0.0
 20
0.0
 30
0.0
  3
*D0
  1

  0
LINE
  5
C1
330
C0
100
AcDbEntity
  8
0
 62
   123
100
AcDbLine
 10
-474.0668181331803
 20
-2516.925402556208
 30
0.0
 11
-497.6135875546876
 21
-2534.857403328699
 31
0.0
  0
LINE
  5
C2
330
C0
100
AcDbEntity
  8
0
 62
   123
100
AcDbLine
 10
-584.3305466904876
 20
-2600.896550796242
 30
0.0
 11
-586.3194677715838
 21
-2602.411210141828
 31
0.0
  0
MTEXT
  5
C3
330
C0
100
AcDbEntity
  8
0
 62
     3
100
AcDbMText
 10
-484.8441670850144
 20
-2521.990466427412
 30
0.0
 40
3.0
 41
0.0
 71
     5
 72
     1
  1
\A1;\U+2205104%%P0.5
 11
0.7955684324385314
 21
0.6058637382343476
 31
0.0
1001
ACAD
1000
MTEXTBEGIN
1070
    73
1070
     1
1070
    44
1040
1.0
1070
    74
1070
     0
1000
MTEXTEND
  0
LINE
  5
C4
330
C0
100
AcDbEntity
  8
0
 62
   123
100
AcDbLine
 10
-582.3416256093914
 20
-2599.381891450657
 30
0.0
 11
-499.6025086357839
 21
-2536.372062674285
 31
0.0
  0
SOLID
  5
C5
330
C0
100
AcDbEntity
  8
0
 62
   123
100
AcDbTrace
 10
-584.5829899147519
 20
-2600.565063949392
 30
0.0
 11
-584.0781034662234
 21
-2601.228037643092
 31
0.0
 12
-582.3416256093914
 22
-2599.381891450657
 32
0.0
 13
-582.3416256093914
 23
-2599.381891450657
 33
0.0
  0
SOLID
  5
C6
330
C0
100
AcDbEntity
  8
0
 62
   123
100
AcDbTrace
 10
-497.8660307789517
 20
-2534.52591648185
 30
0.0
 11
-497.3611443304232
 21
-2535.188890175549
 31
0.0
 12
-499.6025086357839
 22
-2536.372062674285
 32
0.0
 13
-499.6025086357839
 23
-2536.372062674285
 33
0.0
  0
POINT
  5
C7
330
C0
100
AcDbEntity
  8
DEFPOINTS
 62
     0
100
AcDbPoint
 10
-499.6025086357839
 20
-2536.372062674285
 30
0.0
  0
POINT
  5
C8
330
C0
100
AcDbEntity
  8
DEFPOINTS
 62
     0
100
AcDbPoint
 10
-582.3416256093914
 20
-2599.381891450657
 30
0.0
  0
ENDBLK
  5
CA
330
C0
100
AcDbEntity
  8
0
100
AcDbBlockEnd
  0
BLOCK
  5
D4
330
B8
100
AcDbEntity
  8
0
100
AcDbBlockBegin
  2
4
 70
     0
 10
0.0
 20
0.0
 30
0.0
  3
4
  1

  0
LWPOLYLINE
  5
B9
330
B8
100
AcDbEntity
  8
0
100
AcDbPolyline
 90
        8
 70
     1
 43
0.0
 10
-40.0
 20
-45.00000000000045
 10
40.0
 20
-45.0
 42
0.4142135623730951
 10
45.0
 20
-40.0
 10
45.0
 20
40.0
 42
0.4142135623730951
 10
40.0
 20
45.0
 10
-40.0
 20
45.0
 42
0.4142135623730951
 10
-45.0
 20
40.0
 10
-45.0
 20
-40.00000000000045
 42
0.4142135623730951
  0
CIRCLE
  5
BA
330
B8
100
AcDbEntity
  8
0
100
AcDbCircle
 10
36.76955262170071
 20
36.76955262170031
 30
0.0
 40
3.25
  0
LINE
  5
BB
330
B8
100
AcDbEntity
  8
CL
 48
0.6
100
AcDbLine
 10
33.05724202047111
 20
33.05724202047122
 30
0.0
 11
40.48186322293008
 21
40.48186322292986
 31
0.0
  0
ARC
  5
BC
102
{ACAD_REACTORS
330
BF
102
}
330
B8
100
AcDbEntity
  8
CL
 48
0.6
100
AcDbCircle
 10
0.0
 20
0.0
 30
0.0
 40
51.9999999999996
100
AcDbArc
 50
35.90024337538245
 51
54.09975662462136
  0
DIMENSION
  5
BD
102
{ACAD_XDICTIONARY
360
BE
102
}
102
{ACAD_REACTORS
330
BF
102
}
330
B8
100
AcDbEntity
  8
0
100
AcDbDimension
  2
*D0
 10
-41.36955848680371
 20
-31.50491438818607
 30
0.0
 11
57.64255938315909
 21
43.89758955396246
 31
0.0
 12
540.9720671225876
 22
2567.87697706247
 32
0.0
 70
   131
  1
<>%%P0.5
  3
STANDARD
100
AcDbDiametricDimension
 15
41.36955848680371
 25
31.50491438818607
 35
0.0
 40
0.0
1001
ACAD
1000
DSTYLE
1002
{
1070
   287
1070
     4
1070
   287
1070
     4
1070
   287
1070
     4
1070
   287
1070
     4
1070
   287
1070
     4
1070
   279
1070
     1
1070
   289
1070
     3
1002
}
  0
ARC
  5
CB
330
B8
100
AcDbEntity
  8
CL
 48
0.6
100
AcDbCircle
 10
-0.0000000000002274
 20
0.0
 30
0.0
 40
52.0
100
AcDbArc
 50
129.2128702778055
 51
140.7871297221883
  0
LINE
  5
CC
330
B8
100
AcDbEntity
  8
CL
 48
0.6
100
AcDbLine
 10
-33.05724202047122
 20
33.05724202047122
 30
0.0
 11
-40.48186322292986
 21
40.48186322293031
 31
0.0
  0
CIRCLE
  5
CD
330
B8
100
AcDbEntity
  8
0
100
AcDbCircle
 10
-36.76955262170054
 20
36.76955262170077
 30
0.0
 40
3.25
  0
LINE
  5
CE
330
B8
100
AcDbEntity
  8
CL
 48
0.6
100
AcDbLine
 10
-33.05724202047122
 20
-33.05724202047122
 30
0.0
 11
-40.48186322293008
 21
-40.48186322292986
 31
0.0
  0
CIRCLE
  5
CF
330
B8
100
AcDbEntity
  8
0
100
AcDbCircle
 10
-36.76955262170077
 20
-36.76955262170031
 30
0.0
 40
3.25
  0
ARC
  5
D0
330
B8
100
AcDbEntity
  8
CL
 48
0.6
100
AcDbCircle
 10
0.0
 20
0.0
 30
0.0
 40
51.9999999999996
100
AcDbArc
 50
215.9002433753824
 51
234.0997566246214
  0
ARC
  5
D1
330
B8
100
AcDbEntity
  8
CL
 48
0.6
100
AcDbCircle
 10
0.0
 20
0.0000000000004547
 30
0.0
 40
52.0
100
AcDbArc
 50
309.2128702778056
 51
320.7871297221883
  0
LINE
  5
D2
330
B8
100
AcDbEntity
  8
CL
 48
0.6
100
AcDbLine
 10
33.05724202047076
 20
-33.05724202047122
 30
0.0
 11
40.48186322292941
 21
-40.48186322293031
 31
0.0
  0
CIRCLE
  5
D3
330
B8
100
AcDbEntity
  8
0
100
AcDbCircle
 10
36.76955262170025
 20
-36.76955262170077
 30
0.0
 40
3.25
  0
ENDBLK
  5
D5
330
B8
100
AcDbEntity
  8
0
100
AcDbBlockEnd
  0
BLOCK
  5
E5
330
D8
100
AcDbEntity
  8
0
100
AcDbBlockBegin
  2
2
 70
     0
 10
0.0
 20
0.0
 30
0.0
  3
2
  1

  0
LINE
  5
D9
330
D8
100
AcDbEntity
  8
0
100
AcDbLine
 10
46.0
 20
-29.00000000000044
 30
0.0
 11
46.0
 21
28.99999999999954
 31
0.0
  0
ARC
  5
DA
330
D8
100
AcDbEntity
  8
0
100
AcDbCircle
 10
45.0
 20
-29.00000000000089
 30
0.0
 40
1.0
100
AcDbArc
 50
270.0
 51
0.0
  0
ARC
  5
DB
330
D8
100
AcDbEntity
  8
0
100
AcDbCircle
 10
45.0
 20
28.99999999999909
 30
0.0
 40
1.0
100
AcDbArc
 50
0.0
 51
90.0
  0
ARC
  5
DC
330
D8
100
AcDbEntity
  8
0
100
AcDbCircle
 10
-28.99999999999954
 20
45.0
 30
0.0
 40
1.0
100
AcDbArc
 50
90.0
 51
180.0
  0
ARC
  5
DD
330
D8
100
AcDbEntity
  8
0
100
AcDbCircle
 10
29.00000000000089
 20
45.0
 30
0.0
 40
1.0
100
AcDbArc
 50
0.0
 51
90.0
  0
LINE
  5
DE
330
D8
100
AcDbEntity
  8
0
100
AcDbLine
 10
29.0
 20
46.0
 30
0.0
 11
-29.0
 21
46.0
 31
0.0
  0
LINE
  5
DF
330
D8
100
AcDbEntity
  8
0
100
AcDbLine
 10
-46.0
 20
29.0
 30
0.0
 11
-46.0
 21
-29.00000000000044
 31
0.0
  0
ARC
  5
E0
330
D8
100
AcDbEntity
  8
0
100
AcDbCircle
 10
-44.99999999999954
 20
-29.0
 30
0.0
 40
1.0
100
AcDbArc
 50
180.0
 51
270.0
  0
ARC
  5
E1
330
D8
100
AcDbEntity
  8
0
100
AcDbCircle
 10
-44.99999999999954
 20
29.0
 30
0.0
 40
1.0
100
AcDbArc
 50
90.0
 51
180.0
  0
LINE
  5
E2
330
D8
100
AcDbEntity
  8
0
100
AcDbLine
 10
-29.0
 20
-46.00000000000045
 30
0.0
 11
29.0
 21
-46.00000000000045
 31
0.0
  0
ARC
  5
E3
330
D8
100
AcDbEntity
  8
0
100
AcDbCircle
 10
-29.0
 20
-45.00000000000045
 30
0.0
 40
1.0
100
AcDbArc
 50
180.0
 51
270.0
  0
ARC
  5
E4
330
D8
100
AcDbEntity
  8
0
100
AcDbCircle
 10
29.0
 20
-45.00000000000045
 30
0.0
 40
1.0
100
AcDbArc
 50
270.0
 51
0.0
  0
ENDBLK
  5
E6
330
D8
100
AcDbEntity
  8
0
100
AcDbBlockEnd
  0
BLOCK
  5
103
330
F7
100
AcDbEntity
  8
0
100
AcDbBlockBegin
  2
*D3
 70
     1
 10
0.0
 20
0.0
 30
0.0
  3
*D3
  1

  0
LINE
  5
F8
330
F7
100
AcDbEntity
  8
0
 62
   123
100
AcDbLine
 10
7865.247124362373
 20
-5982.656349421784
 30
0.0
 11
7865.247124362376
 21
-6001.074936815257
 31
0.0
  0
LINE
  5
F9
330
F7
100
AcDbEntity
  8
0
 62
   123
100
AcDbLine
 10
7884.275744722969
 20
-5973.950039054219
 30
0.0
 11
7893.209622613801
 21
-5995.51113602287
 31
0.0
  0
ARC
  5
FA
330
F7
100
AcDbEntity
  8
0
 62
   123
100
AcDbCircle
 10
7865.247124362373
 20
-5928.026204658031
 30
0.0
 40
72.44873215722584
100
AcDbArc
 50
271.9772127434109
 51
290.5295441539806
  0
SOLID
  5
FB
330
F7
100
AcDbEntity
  8
0
 62
   123
100
AcDbTrace
 10
7867.753941218835
 20
-6000.848407509254
 30
0.0
 11
7867.739563235459
 21
-6000.015198220996
 31
0.0
 12
7865.247124362373
 22
-6000.474936815258
 32
0.0
 13
7865.247124362373
 23
-6000.474936815258
 33
0.0
  0
SOLID
  5
FC
330
F7
100
AcDbEntity
  8
0
 62
   123
100
AcDbTrace
 10
7890.501361990684
 20
-5995.486199674022
 30
0.0
 11
7890.807025284013
 21
-5996.261450856257
 31
0.0
 12
7892.979947184054
 22
-5994.956835385157
 32
0.0
 13
7892.979947184054
 23
-5994.956835385157
 33
0.0
  0
MTEXT
  5
FD
330
F7
100
AcDbEntity
  8
0
 62
     3
100
AcDbMText
 10
7878.841733683493
 20
-5996.34986568679
 30
0.0
 40
3.0
 41
0.0
 71
     5
 72
     1
  1
\A1;22°30'
 11
0.9807737751869577
 21
0.1951481537333186
 31
0.0
1001
ACAD
1000
MTEXTBEGIN
1070
    73
1070
     1
1070
    44
1040
1.0
1070
    74
1070
     0
1000
MTEXTEND
  0
POINT
  5
FE
330
F7
100
AcDbEntity
  8
DEFPOINTS
 62
     0
100
AcDbPoint
 10
7874.706405092246
 20
-5999.854756079196
 30
0.0
  0
POINT
  5
FF
330
F7
100
AcDbEntity
  8
DEFPOINTS
 62
     0
100
AcDbPoint
 10
7865.247124362373
 20
-5981.656349421784
 30
0.0
  0
POINT
  5
100
330
F7
100
AcDbEntity
  8
DEFPOINTS
 62
     0
100
AcDbPoint
 10
7865.247124362373
 20
-5928.026204658031
 30
0.0
  0
POINT
  5
101
330
F7
100
AcDbEntity
  8
DEFPOINTS
 62
     0
100
AcDbPoint
 10
7883.892952340054
 20
-5973.02620465803
 30
0.0
  0
POINT
  5
102
330
F7
100
AcDbEntity
  8
DEFPOINTS
 62
     0
100
AcDbPoint
 10
7865.247124362373
 20
-5874.396059894278
 30
0.0
  0
ENDBLK
  5
104
330
F7
100
AcDbEntity
  8
0
100
AcDbBlockEnd
  0
BLOCK
  5
151
330
145
100
AcDbEntity
  8
0
100
AcDbBlockBegin
  2
*D4
 70
     1
 10
0.0
 20
0.0
 30
0.0
  3
*D4
  1

  0
LINE
  5
146
330
145
100
AcDbEntity
  8
0
 62
   123
100
AcDbLine
 10
7873.78190503982
 20
-5780.733581216736
 30
0.0
 11
7873.78190503982
 21
-5799.152168610213
 31
0.0
  0
LINE
  5
147
330
145
100
AcDbEntity
  8
0
 62
   123
100
AcDbLine
 10
7892.810525400412
 20
-5772.027270849174
 30
0.0
 11
7901.744403291246
 21
-5793.588367817824
 31
0.0
  0
ARC
  5
148
330
145
100
AcDbEntity
  8
0
 62
   123
100
AcDbCircle
 10
7873.78190503982
 20
-5726.103436452984
 30
0.0
 40
72.44873215722687
100
AcDbArc
 50
271.9772127434101
 51
290.5295441539795
  0
SOLID
  5
149
330
145
100
AcDbEntity
  8
0
 62
   123
100
AcDbTrace
 10
7876.28872189628
 20
-5798.925639304209
 30
0.0
 11
7876.274343912903
 21
-5798.092430015952
 31
0.0
 12
7873.78190503982
 22
-5798.552168610211
 32
0.0
 13
7873.78190503982
 23
-5798.552168610211
 33
0.0
  0
SOLID
  5
14A
330
145
100
AcDbEntity
  8
0
 62
   123
100
AcDbTrace
 10
7899.036142668129
 20
-5793.563431468978
 30
0.0
 11
7899.341805961455
 21
-5794.338682651212
 31
0.0
 12
7901.514727861497
 22
-5793.034067180112
 32
0.0
 13
7901.514727861497
 23
-5793.034067180112
 33
0.0
  0
MTEXT
  5
14B
330
145
100
AcDbEntity
  8
0
 62
     3
100
AcDbMText
 10
7887.376514360936
 20
-5794.427097481746
 30
0.0
 40
3.0
 41
0.0
 71
     5
 72
     1
  1
\A1;22°30'
 11
0.9807737751869577
 21
0.1951481537333186
 31
0.0
1001
ACAD
1000
MTEXTBEGIN
1070
    73
1070
     1
1070
    44
1040
1.0
1070
    74
1070
     0
1000
MTEXTEND
  0
POINT
  5
14C
330
145
100
AcDbEntity
  8
DEFPOINTS
 62
     0
100
AcDbPoint
 10
7883.241185769691
 20
-5797.931987874152
 30
0.0
  0
POINT
  5
14D
330
145
100
AcDbEntity
  8
DEFPOINTS
 62
     0
100
AcDbPoint
 10
7873.78190503982
 20
-5779.733581216737
 30
0.0
  0
POINT
  5
14E
330
145
100
AcDbEntity
  8
DEFPOINTS
 62
     0
100
AcDbPoint
 10
7873.78190503982
 20
-5726.103436452984
 30
0.0
  0
POINT
  5
14F
330
145
100
AcDbEntity
  8
DEFPOINTS
 62
     0
100
AcDbPoint
 10
7892.427733017497
 20
-5771.103436452984
 30
0.0
  0
POINT
  5
150
330
145
100
AcDbEntity
  8
DEFPOINTS
 62
     0
100
AcDbPoint
 10
7873.78190503982
 20
-5672.473291689232
 30
0.0
  0
ENDBLK
  5
152
330
145
100
AcDbEntity
  8
0
100
AcDbBlockEnd
  0
BLOCK
  5
18C
330
182
100
AcDbEntity
  8
0
100
AcDbBlockBegin
  2
*D5
 70
     1
 10
0.0
 20
0.0
 30
0.0
  3
*D5
  1

  0
LINE
  5
183
330
182
100
AcDbEntity
  8
0
 62
   123
100
AcDbLine
 10
7819.25334203326
 20
-5898.02620465803
 30
0.0
 11
7819.25334203326
 21
-5852.570918715208
 31
0.0
  0
LINE
  5
184
330
182
100
AcDbEntity
  8
0
 62
   123
100
AcDbLine
 10
7911.253342033262
 20
-5898.02620465803
 30
0.0
 11
7911.253342033262
 21
-5852.570918715208
 31
0.0
  0
LINE
  5
185
330
182
100
AcDbEntity
  8
0
 62
   123
100
AcDbLine
 10
7821.75334203326
 20
-5853.170918715211
 30
0.0
 11
7908.753342033263
 21
-5853.170918715211
 31
0.0
  0
SOLID
  5
186
330
182
100
AcDbEntity
  8
0
 62
   123
100
AcDbTrace
 10
7821.75334203326
 20
-5852.754252048542
 30
0.0
 11
7821.75334203326
 21
-5853.587585381877
 31
0.0
 12
7819.25334203326
 22
-5853.170918715211
 32
0.0
 13
7819.25334203326
 23
-5853.170918715211
 33
0.0
  0
SOLID
  5
187
330
182
100
AcDbEntity
  8
0
 62
   123
100
AcDbTrace
 10
7908.753342033263
 20
-5852.754252048542
 30
0.0
 11
7908.753342033263
 21
-5853.587585381877
 31
0.0
 12
7911.253342033262
 22
-5853.170918715211
 32
0.0
 13
7911.253342033262
 23
-5853.170918715211
 33
0.0
  0
MTEXT
  5
188
330
182
100
AcDbEntity
  8
0
 62
     3
100
AcDbMText
 10
7865.253342033259
 20
-5850.67091871521
 30
0.0
 40
3.0
 41
0.0
 71
     5
 72
     1
  1
\A1;92
1001
ACAD
1000
MTEXTBEGIN
1070
    73
1070
     1
1070
    44
1040
1.0
1070
    74
1070
     0
1000
MTEXTEND
  0
POINT
  5
189
330
182
100
AcDbEntity
  8
DEFPOINTS
 62
     0
100
AcDbPoint
 10
7819.25334203326
 20
-5899.026204658031
 30
0.0
  0
POINT
  5
18A
330
182
100
AcDbEntity
  8
DEFPOINTS
 62
     0
100
AcDbPoint
 10
7911.253342033262
 20
-5899.026204658031
 30
0.0
  0
POINT
  5
18B
330
182
100
AcDbEntity
  8
DEFPOINTS
 62
     0
100
AcDbPoint
 10
7911.253342033262
 20
-5853.170918715211
 30
0.0
  0
ENDBLK
  5
18D
330
182
100
AcDbEntity
  8
0
100
AcDbBlockEnd
  0
BLOCK
  5
199
330
18F
100
AcDbEntity
  8
0
100
AcDbBlockBegin
  2
*D6
 70
     1
 10
0.0
 20
0.0
 30
0.0
  3
*D6
  1

  0
LINE
  5
190
330
18F
100
AcDbEntity
  8
0
 62
   123
100
AcDbLine
 10
7820.253342033263
 20
-5887.068998416828
 30
0.0
 11
7820.253342033263
 21
-5863.961581206933
 31
0.0
  0
LINE
  5
191
330
18F
100
AcDbEntity
  8
0
 62
   123
100
AcDbLine
 10
7910.253342033259
 20
-5887.068998416828
 30
0.0
 11
7910.253342033259
 21
-5863.961581206933
 31
0.0
  0
LINE
  5
192
330
18F
100
AcDbEntity
  8
0
 62
   123
100
AcDbLine
 10
7822.753342033263
 20
-5864.561581206934
 30
0.0
 11
7907.753342033259
 21
-5864.561581206934
 31
0.0
  0
SOLID
  5
193
330
18F
100
AcDbEntity
  8
0
 62
   123
100
AcDbTrace
 10
7822.753342033263
 20
-5864.144914540267
 30
0.0
 11
7822.753342033263
 21
-5864.978247873601
 31
0.0
 12
7820.253342033263
 22
-5864.561581206934
 32
0.0
 13
7820.253342033263
 23
-5864.561581206934
 33
0.0
  0
SOLID
  5
194
330
18F
100
AcDbEntity
  8
0
 62
   123
100
AcDbTrace
 10
7907.753342033259
 20
-5864.144914540267
 30
0.0
 11
7907.753342033259
 21
-5864.978247873601
 31
0.0
 12
7910.253342033259
 22
-5864.561581206934
 32
0.0
 13
7910.253342033259
 23
-5864.561581206934
 33
0.0
  0
MTEXT
  5
195
330
18F
100
AcDbEntity
  8
0
 62
     3
100
AcDbMText
 10
7865.253342033259
 20
-5862.061581206933
 30
0.0
 40
3.0
 41
0.0
 71
     5
 72
     1
  1
\A1;90
1001
ACAD
1000
MTEXTBEGIN
1070
    73
1070
     1
1070
    44
1040
1.0
1070
    74
1070
     0
1000
MTEXTEND
  0
POINT
  5
196
330
18F
100
AcDbEntity
  8
DEFPOINTS
 62
     0
100
AcDbPoint
 10
7820.253342033263
 20
-5888.068998416827
 30
0.0
  0
POINT
  5
197
330
18F
100
AcDbEntity
  8
DEFPOINTS
 62
     0
100
AcDbPoint
 10
7910.253342033259
 20
-5888.068998416827
 30
0.0
  0
POINT
  5
198
330
18F
100
AcDbEntity
  8
DEFPOINTS
 62
     0
100
AcDbPoint
 10
7910.253342033259
 20
-5864.561581206934
 30
0.0
  0
ENDBLK
  5
19A
330
18F
100
AcDbEntity
  8
0
100
AcDbBlockEnd
  0
BLOCK
  5
221
330
217
100
AcDbEntity
  8
0
100
AcDbBlockBegin
  2
*D7
 70
     1
 10
0.0
 20
0.0
 30
0.0
  3
*D7
  1

  0
LINE
  5
218
330
217
100
AcDbEntity
  8
0
 62
   123
100
AcDbLine
 10
7989.166059412096
 20
-5680.103436452983
 30
0.0
 11
7989.166059412096
 21
-5658.109140049635
 31
0.0
  0
LINE
  5
219
330
217
100
AcDbEntity
  8
0
 62
   123
100
AcDbLine
 10
8169.164981612745
 20
-5681.923623164019
 30
0.0
 11
8169.164981612745
 21
-5658.109140049635
 31
0.0
  0
LINE
  5
21A
330
217
100
AcDbEntity
  8
0
 62
   123
100
AcDbLine
 10
7991.666059412096
 20
-5658.709140049634
 30
0.0
 11
8166.664981612745
 21
-5658.709140049634
 31
0.0
  0
SOLID
  5
21B
330
217
100
AcDbEntity
  8
0
 62
   123
100
AcDbTrace
 10
7991.666059412096
 20
-5658.292473382967
 30
0.0
 11
7991.666059412096
 21
-5659.125806716303
 31
0.0
 12
7989.166059412096
 22
-5658.709140049634
 32
0.0
 13
7989.166059412096
 23
-5658.709140049634
 33
0.0
  0
SOLID
  5
21C
330
217
100
AcDbEntity
  8
0
 62
   123
100
AcDbTrace
 10
8166.664981612745
 20
-5658.292473382967
 30
0.0
 11
8166.664981612745
 21
-5659.125806716303
 31
0.0
 12
8169.164981612745
 22
-5658.709140049634
 32
0.0
 13
8169.164981612745
 23
-5658.709140049634
 33
0.0
  0
MTEXT
  5
21D
330
217
100
AcDbEntity
  8
0
 62
     3
100
AcDbMText
 10
8064.66552051242
 20
-5656.209140049636
 30
0.0
 40
3.0
 41
0.0
 71
     5
 72
     1
  1
\A1;180
1001
ACAD
1000
MTEXTBEGIN
1070
    73
1070
     1
1070
    44
1040
1.0
1070
    74
1070
     0
1000
MTEXTEND
  0
POINT
  5
21E
330
217
100
AcDbEntity
  8
DEFPOINTS
 62
     0
100
AcDbPoint
 10
7989.166059412096
 20
-5681.103436452985
 30
0.0
  0
POINT
  5
21F
330
217
100
AcDbEntity
  8
DEFPOINTS
 62
     0
100
AcDbPoint
 10
8169.164981612745
 20
-5682.923623164018
 30
0.0
  0
POINT
  5
220
330
217
100
AcDbEntity
  8
DEFPOINTS
 62
     0
100
AcDbPoint
 10
8169.164981612745
 20
-5658.709140049634
 30
0.0
  0
ENDBLK
  5
222
330
217
100
AcDbEntity
  8
0
100
AcDbBlockEnd
  0
BLOCK
  5
299
330
28D
100
AcDbEntity
  8
0
100
AcDbBlockBegin
  2
*D8
 70
     1
 10
0.0
 20
0.0
 30
0.0
  3
*D8
  1

  0
LINE
  5
28E
330
28D
100
AcDbEntity
  8
0
 62
   123
100
AcDbLine
 10
7987.166059412095
 20
-5683.603436452983
 30
0.0
 11
7987.166059412095
 21
-5667.870782888734
 31
0.0
  0
LINE
  5
28F
330
28D
100
AcDbEntity
  8
0
 62
   123
100
AcDbLine
 10
7989.166059412096
 20
-5680.103436452983
 30
0.0
 11
7989.166059412096
 21
-5667.870782888734
 31
0.0
  0
LINE
  5
290
330
28D
100
AcDbEntity
  8
0
 62
   123
100
AcDbLine
 10
7991.666059412096
 20
-5668.470782888735
 30
0.0
 11
7994.166059412099
 21
-5668.470782888735
 31
0.0
  0
LINE
  5
291
330
28D
100
AcDbEntity
  8
0
 62
   123
100
AcDbLine
 10
7984.666059412096
 20
-5668.470782888735
 30
0.0
 11
7976.166059412097
 21
-5668.470782888735
 31
0.0
  0
LINE
  5
292
330
28D
100
AcDbEntity
  8
0
 62
   123
100
AcDbLine
 10
7989.166059412096
 20
-5668.470782888735
 30
0.0
 11
7987.166059412095
 21
-5668.470782888735
 31
0.0
  0
SOLID
  5
293
330
28D
100
AcDbEntity
  8
0
 62
   123
100
AcDbTrace
 10
7991.666059412096
 20
-5668.054116222068
 30
0.0
 11
7991.666059412096
 21
-5668.887449555402
 31
0.0
 12
7989.166059412096
 22
-5668.470782888735
 32
0.0
 13
7989.166059412096
 23
-5668.470782888735
 33
0.0
  0
SOLID
  5
294
330
28D
100
AcDbEntity
  8
0
 62
   123
100
AcDbTrace
 10
7984.666059412096
 20
-5668.054116222068
 30
0.0
 11
7984.666059412096
 21
-5668.887449555402
 31
0.0
 12
7987.166059412095
 22
-5668.470782888735
 32
0.0
 13
7987.166059412095
 23
-5668.470782888735
 33
0.0
  0
MTEXT
  5
295
330
28D
100
AcDbEntity
  8
0
 62
     3
100
AcDbMText
 10
7978.166059412096
 20
-5665.970782888734
 30
0.0
 40
3.0
 41
0.0
 71
     5
 72
     1
  1
\A1;2
1001
ACAD
1000
MTEXTBEGIN
1070
    73
1070
     1
1070
    44
1040
1.0
1070
    74
1070
     0
1000
MTEXTEND
  0
POINT
  5
296
330
28D
100
AcDbEntity
  8
DEFPOINTS
 62
     0
100
AcDbPoint
 10
7987.166059412095
 20
-5684.603436452984
 30
0.0
  0
POINT
  5
297
330
28D
100
AcDbEntity
  8
DEFPOINTS
 62
     0
100
AcDbPoint
 10
7989.166059412096
 20
-5681.103436452985
 30
0.0
  0
POINT
  5
298
330
28D
100
AcDbEntity
  8
DEFPOINTS
 62
     0
100
AcDbPoint
 10
7989.166059412096
 20
-5668.470782888735
 30
0.0
  0
ENDBLK
  5
29A
330
28D
100
AcDbEntity
  8
0
100
AcDbBlockEnd
  0
BLOCK
  5
2CB
330
2C1
100
AcDbEntity
  8
0
100
AcDbBlockBegin
  2
*D9
 70
     1
 10
0.0
 20
0.0
 30
0.0
  3
*D9
  1

  0
LINE
  5
2C2
330
2C1
100
AcDbEntity
  8
0
 62
   123
100
AcDbLine
 10
7828.788122710708
 20
-5685.146230211781
 30
0.0
 11
7828.788122710708
 21
-5662.038813001887
 31
0.0
  0
LINE
  5
2C3
330
2C1
100
AcDbEntity
  8
0
 62
   123
100
AcDbLine
 10
7918.788122710704
 20
-5685.146230211781
 30
0.0
 11
7918.788122710704
 21
-5662.038813001887
 31
0.0
  0
LINE
  5
2C4
330
2C1
100
AcDbEntity
  8
0
 62
   123
100
AcDbLine
 10
7831.288122710708
 20
-5662.638813001889
 30
0.0
 11
7916.288122710705
 21
-5662.638813001889
 31
0.0
  0
SOLID
  5
2C5
330
2C1
100
AcDbEntity
  8
0
 62
   123
100
AcDbTrace
 10
7831.288122710708
 20
-5662.222146335221
 30
0.0
 11
7831.288122710708
 21
-5663.055479668553
 31
0.0
 12
7828.788122710708
 22
-5662.638813001889
 32
0.0
 13
7828.788122710708
 23
-5662.638813001889
 33
0.0
  0
SOLID
  5
2C6
330
2C1
100
AcDbEntity
  8
0
 62
   123
100
AcDbTrace
 10
7916.288122710705
 20
-5662.222146335221
 30
0.0
 11
7916.288122710705
 21
-5663.055479668553
 31
0.0
 12
7918.788122710704
 22
-5662.638813001889
 32
0.0
 13
7918.788122710704
 23
-5662.638813001889
 33
0.0
  0
MTEXT
  5
2C7
330
2C1
100
AcDbEntity
  8
0
 62
     3
100
AcDbMText
 10
7873.788122710705
 20
-5660.138813001887
 30
0.0
 40
3.0
 41
0.0
 71
     5
 72
     1
  1
\A1;90
1001
ACAD
1000
MTEXTBEGIN
1070
    73
1070
     1
1070
    44
1040
1.0
1070
    74
1070
     0
1000
MTEXTEND
  0
POINT
  5
2C8
330
2C1
100
AcDbEntity
  8
DEFPOINTS
 62
     0
100
AcDbPoint
 10
7828.788122710708
 20
-5686.146230211782
 30
0.0
  0
POINT
  5
2C9
330
2C1
100
AcDbEntity
  8
DEFPOINTS
 62
     0
100
AcDbPoint
 10
7918.788122710704
 20
-5686.146230211782
 30
0.0
  0
POINT
  5
2CA
330
2C1
100
AcDbEntity
  8
DEFPOINTS
 62
     0
100
AcDbPoint
 10
7918.788122710704
 20
-5662.638813001889
 30
0.0
  0
ENDBLK
  5
2CC
330
2C1
100
AcDbEntity
  8
0
100
AcDbBlockEnd
  0
BLOCK
  5
2D8
330
2CE
100
AcDbEntity
  8
0
100
AcDbBlockBegin
  2
*D10
 70
     1
 10
0.0
 20
0.0
 30
0.0
  3
*D10
  1

  0
LINE
  5
2CF
330
2CE
100
AcDbEntity
  8
0
 62
   123
100
AcDbLine
 10
7827.788122710704
 20
-5696.103436452983
 30
0.0
 11
7827.788122710704
 21
-5650.648150510164
 31
0.0
  0
LINE
  5
2D0
330
2CE
100
AcDbEntity
  8
0
 62
   123
100
AcDbLine
 10
7919.788122710709
 20
-5696.103436452983
 30
0.0
 11
7919.788122710709
 21
-5650.648150510164
 31
0.0
  0
LINE
  5
2D1
330
2CE
100
AcDbEntity
  8
0
 62
   123
100
AcDbLine
 10
7830.288122710705
 20
-5651.248150510163
 30
0.0
 11
7917.288122710708
 21
-5651.248150510163
 31
0.0
  0
SOLID
  5
2D2
330
2CE
100
AcDbEntity
  8
0
 62
   123
100
AcDbTrace
 10
7830.288122710705
 20
-5650.831483843496
 30
0.0
 11
7830.288122710705
 21
-5651.664817176831
 31
0.0
 12
7827.788122710704
 22
-5651.248150510163
 32
0.0
 13
7827.788122710704
 23
-5651.248150510163
 33
0.0
  0
SOLID
  5
2D3
330
2CE
100
AcDbEntity
  8
0
 62
   123
100
AcDbTrace
 10
7917.288122710708
 20
-5650.831483843496
 30
0.0
 11
7917.288122710708
 21
-5651.664817176831
 31
0.0
 12
7919.788122710709
 22
-5651.248150510163
 32
0.0
 13
7919.788122710709
 23
-5651.248150510163
 33
0.0
  0
MTEXT
  5
2D4
330
2CE
100
AcDbEntity
  8
0
 62
     3
100
AcDbMText
 10
7873.788122710705
 20
-5648.748150510163
 30
0.0
 40
3.0
 41
0.0
 71
     5
 72
     1
  1
\A1;92
1001
ACAD
1000
MTEXTBEGIN
1070
    73
1070
     1
1070
    44
1040
1.0
1070
    74
1070
     0
1000
MTEXTEND
  0
POINT
  5
2D5
330
2CE
100
AcDbEntity
  8
DEFPOINTS
 62
     0
100
AcDbPoint
 10
7827.788122710704
 20
-5697.103436452984
 30
0.0
  0
POINT
  5
2D6
330
2CE
100
AcDbEntity
  8
DEFPOINTS
 62
     0
100
AcDbPoint
 10
7919.788122710709
 20
-5697.103436452984
 30
0.0
  0
POINT
  5
2D7
330
2CE
100
AcDbEntity
  8
DEFPOINTS
 62
     0
100
AcDbPoint
 10
7919.788122710709
 20
-5651.248150510163
 30
0.0
  0
ENDBLK
  5
2D9
330
2CE
100
AcDbEntity
  8
0
100
AcDbBlockEnd
  0
BLOCK
  5
2B5
330
2AB
100
AcDbEntity
  8
0
100
AcDbBlockBegin
  2
*D11
 70
     1
 10
0.0
 20
0.0
 30
0.0
  3
*D11
  1

  0
LINE
  5
2AC
330
2AB
100
AcDbEntity
  8
0
 62
   123
100
AcDbLine
 10
7968.166059412097
 20
-5720.453436452983
 30
0.0
 11
7968.166059412097
 21
-5658.109140049635
 31
0.0
  0
LINE
  5
2AD
330
2AB
100
AcDbEntity
  8
0
 62
   123
100
AcDbLine
 10
7989.166059412096
 20
-5679.895103119649
 30
0.0
 11
7989.166059412096
 21
-5658.109140049635
 31
0.0
  0
LINE
  5
2AE
330
2AB
100
AcDbEntity
  8
0
 62
   123
100
AcDbLine
 10
7970.666059412097
 20
-5658.709140049634
 30
0.0
 11
7986.666059412097
 21
-5658.709140049634
 31
0.0
  0
SOLID
  5
2AF
330
2AB
100
AcDbEntity
  8
0
 62
   123
100
AcDbTrace
 10
7970.666059412097
 20
-5658.292473382967
 30
0.0
 11
7970.666059412097
 21
-5659.125806716303
 31
0.0
 12
7968.166059412097
 22
-5658.709140049634
 32
0.0
 13
7968.166059412097
 23
-5658.709140049634
 33
0.0
  0
SOLID
  5
2B0
330
2AB
100
AcDbEntity
  8
0
 62
   123
100
AcDbTrace
 10
7986.666059412097
 20
-5658.292473382967
 30
0.0
 11
7986.666059412097
 21
-5659.125806716303
 31
0.0
 12
7989.166059412096
 22
-5658.709140049634
 32
0.0
 13
7989.166059412096
 23
-5658.709140049634
 33
0.0
  0
MTEXT
  5
2B1
330
2AB
100
AcDbEntity
  8
0
 62
     3
100
AcDbMText
 10
7978.666059412097
 20
-5656.209140049636
 30
0.0
 40
3.0
 41
0.0
 71
     5
 72
     1
  1
\A1;21
1001
ACAD
1000
MTEXTBEGIN
1070
    73
1070
     1
1070
    44
1040
1.0
1070
    74
1070
     0
1000
MTEXTEND
  0
POINT
  5
2B2
330
2AB
100
AcDbEntity
  8
DEFPOINTS
 62
     0
100
AcDbPoint
 10
7968.166059412097
 20
-5721.453436452985
 30
0.0
  0
POINT
  5
2B3
330
2AB
100
AcDbEntity
  8
DEFPOINTS
 62
     0
100
AcDbPoint
 10
7989.166059412096
 20
-5680.895103119649
 30
0.0
  0
POINT
  5
2B4
330
2AB
100
AcDbEntity
  8
DEFPOINTS
 62
     0
100
AcDbPoint
 10
7989.166059412096
 20
-5658.709140049634
 30
0.0
  0
ENDBLK
  5
2B6
330
2AB
100
AcDbEntity
  8
0
100
AcDbBlockEnd
  0
BLOCK
  5
2F2
330
2E8
100
AcDbEntity
  8
0
100
AcDbBlockBegin
  2
*D12
 70
     1
 10
0.0
 20
0.0
 30
0.0
  3
*D12
  1

  0
LINE
  5
2E9
330
2E8
100
AcDbEntity
  8
0
 62
   123
100
AcDbLine
 10
8168.164981612745
 20
-5679.923623164018
 30
0.0
 11
8189.651442449292
 21
-5679.923623164018
 31
0.0
  0
LINE
  5
2EA
330
2E8
100
AcDbEntity
  8
0
 62
   123
100
AcDbLine
 10
8168.164981612745
 20
-5771.92362316402
 30
0.0
 11
8189.651442449292
 21
-5771.92362316402
 31
0.0
  0
LINE
  5
2EB
330
2E8
100
AcDbEntity
  8
0
 62
   123
100
AcDbLine
 10
8189.051442449292
 20
-5682.423623164019
 30
0.0
 11
8189.051442449292
 21
-5769.423623164019
 31
0.0
  0
SOLID
  5
2EC
330
2E8
100
AcDbEntity
  8
0
 62
   123
100
AcDbTrace
 10
8188.634775782624
 20
-5682.423623164019
 30
0.0
 11
8189.468109115958
 21
-5682.423623164019
 31
0.0
 12
8189.051442449292
 22
-5679.923623164018
 32
0.0
 13
8189.051442449292
 23
-5679.923623164018
 33
0.0
  0
SOLID
  5
2ED
330
2E8
100
AcDbEntity
  8
0
 62
   123
100
AcDbTrace
 10
8188.634775782624
 20
-5769.423623164019
 30
0.0
 11
8189.468109115958
 21
-5769.423623164019
 31
0.0
 12
8189.051442449292
 22
-5771.92362316402
 32
0.0
 13
8189.051442449292
 23
-5771.92362316402
 33
0.0
  0
MTEXT
  5
2EE
330
2E8
100
AcDbEntity
  8
0
 62
     3
100
AcDbMText
 10
8186.551442449292
 20
-5725.923623164018
 30
0.0
 40
3.0
 41
0.0
 71
     5
 72
     1
  1
\A1;92
 11
0.0000000000000001
 21
1.0
 31
0.0
1001
ACAD
1000
MTEXTBEGIN
1070
    73
1070
     1
1070
    44
1040
1.0
1070
    74
1070
     0
1000
MTEXTEND
  0
POINT
  5
2EF
330
2E8
100
AcDbEntity
  8
DEFPOINTS
 62
     0
100
AcDbPoint
 10
8167.164981612744
 20
-5679.923623164018
 30
0.0
  0
POINT
  5
2F0
330
2E8
100
AcDbEntity
  8
DEFPOINTS
 62
     0
100
AcDbPoint
 10
8167.164981612744
 20
-5771.92362316402
 30
0.0
  0
POINT
  5
2F1
330
2E8
100
AcDbEntity
  8
DEFPOINTS
 62
     0
100
AcDbPoint
 10
8189.051442449292
 20
-5771.92362316402
 30
0.0
  0
ENDBLK
  5
2F3
330
2E8
100
AcDbEntity
  8
0
100
AcDbBlockEnd
  0
BLOCK
  5
AA
330
9F
100
AcDbEntity
  8
0
100
AcDbBlockBegin
  2
*D13
 70
     1
 10
0.0
 20
0.0
 30
0.0
  3
*D13
  1

  0
LINE
  5
A0
330
9F
100
AcDbEntity
  8
0
 62
   123
100
AcDbLine
 10
8201.054101787894
 20
-5881.846391369065
 30
0.0
 11
8222.540562624443
 21
-5881.846391369065
 31
0.0
  0
LINE
  5
A1
330
9F
100
AcDbEntity
  8
0
 62
   123
100
AcDbLine
 10
8201.054101787894
 20
-5973.846391369066
 30
0.0
 11
8222.540562624443
 21
-5973.846391369066
 31
0.0
  0
LINE
  5
A2
330
9F
100
AcDbEntity
  8
0
 62
   123
100
AcDbLine
 10
8221.940562624443
 20
-5884.346391369065
 30
0.0
 11
8221.940562624443
 21
-5971.346391369066
 31
0.0
  0
SOLID
  5
A3
330
9F
100
AcDbEntity
  8
0
 62
   123
100
AcDbTrace
 10
8221.523895957776
 20
-5884.346391369065
 30
0.0
 11
8222.357229291109
 21
-5884.346391369065
 31
0.0
 12
8221.940562624443
 22
-5881.846391369065
 32
0.0
 13
8221.940562624443
 23
-5881.846391369065
 33
0.0
  0
SOLID
  5
A4
330
9F
100
AcDbEntity
  8
0
 62
   123
100
AcDbTrace
 10
8221.523895957776
 20
-5971.346391369066
 30
0.0
 11
8222.357229291109
 21
-5971.346391369066
 31
0.0
 12
8221.940562624443
 22
-5973.846391369066
 32
0.0
 13
8221.940562624443
 23
-5973.846391369066
 33
0.0
  0
MTEXT
  5
A5
330
9F
100
AcDbEntity
  8
0
 62
     3
100
AcDbMText
 10
8219.440562624445
 20
-5927.846391369065
 30
0.0
 40
3.0
 41
0.0
 71
     5
 72
     1
  1
\A1;92
 11
0.0000000000000001
 21
1.0
 31
0.0
1001
ACAD
1000
MTEXTBEGIN
1070
    73
1070
     1
1070
    44
1040
1.0
1070
    74
1070
     0
1000
MTEXTEND
  0
POINT
  5
A6
330
9F
100
AcDbEntity
  8
DEFPOINTS
 62
     0
100
AcDbPoint
 10
8200.054101787895
 20
-5881.846391369065
 30
0.0
  0
POINT
  5
A8
330
9F
100
AcDbEntity
  8
DEFPOINTS
 62
     0
100
AcDbPoint
 10
8200.054101787895
 20
-5973.846391369066
 30
0.0
  0
POINT
  5
A9
330
9F
100
AcDbEntity
  8
DEFPOINTS
 62
     0
100
AcDbPoint
 10
8221.940562624443
 20
-5973.846391369066
 30
0.0
  0
ENDBLK
  5
AB
330
9F
100
AcDbEntity
  8
0
100
AcDbBlockEnd
  0
BLOCK
  5
1F0
330
1E4
100
AcDbEntity
  8
0
100
AcDbBlockBegin
  2
*D14
 70
     1
 10
0.0
 20
0.0
 30
0.0
  3
*D14
  1

  0
LINE
  5
1E5
330
1E4
100
AcDbEntity
  8
0
 62
   123
100
AcDbLine
 10
8020.055179587251
 20
-5885.52620465803
 30
0.0
 11
8020.055179587251
 21
-5869.793551093779
 31
0.0
  0
LINE
  5
1E6
330
1E4
100
AcDbEntity
  8
0
 62
   123
100
AcDbLine
 10
8022.055179587249
 20
-5882.02620465803
 30
0.0
 11
8022.055179587249
 21
-5869.793551093779
 31
0.0
  0
LINE
  5
1E7
330
1E4
100
AcDbEntity
  8
0
 62
   123
100
AcDbLine
 10
8024.555179587251
 20
-5870.393551093781
 30
0.0
 11
8027.055179587248
 21
-5870.393551093781
 31
0.0
  0
LINE
  5
1E8
330
1E4
100
AcDbEntity
  8
0
 62
   123
100
AcDbLine
 10
8017.555179587249
 20
-5870.393551093781
 30
0.0
 11
8009.055179587248
 21
-5870.393551093781
 31
0.0
  0
LINE
  5
1E9
330
1E4
100
AcDbEntity
  8
0
 62
   123
100
AcDbLine
 10
8022.055179587249
 20
-5870.393551093781
 30
0.0
 11
8020.055179587251
 21
-5870.393551093781
 31
0.0
  0
SOLID
  5
1EA
330
1E4
100
AcDbEntity
  8
0
 62
   123
100
AcDbTrace
 10
8024.555179587251
 20
-5869.976884427114
 30
0.0
 11
8024.555179587251
 21
-5870.810217760448
 31
0.0
 12
8022.055179587249
 22
-5870.393551093781
 32
0.0
 13
8022.055179587249
 23
-5870.393551093781
 33
0.0
  0
SOLID
  5
1EB
330
1E4
100
AcDbEntity
  8
0
 62
   123
100
AcDbTrace
 10
8017.555179587249
 20
-5869.976884427114
 30
0.0
 11
8017.555179587249
 21
-5870.810217760448
 31
0.0
 12
8020.055179587251
 22
-5870.393551093781
 32
0.0
 13
8020.055179587251
 23
-5870.393551093781
 33
0.0
  0
MTEXT
  5
1EC
330
1E4
100
AcDbEntity
  8
0
 62
     3
100
AcDbMText
 10
8011.05517958725
 20
-5867.893551093781
 30
0.0
 40
3.0
 41
0.0
 71
     5
 72
     1
  1
\A1;2
1001
ACAD
1000
MTEXTBEGIN
1070
    73
1070
     1
1070
    44
1040
1.0
1070
    74
1070
     0
1000
MTEXTEND
  0
POINT
  5
1ED
330
1E4
100
AcDbEntity
  8
DEFPOINTS
 62
     0
100
AcDbPoint
 10
8020.055179587251
 20
-5886.52620465803
 30
0.0
  0
POINT
  5
1EE
330
1E4
100
AcDbEntity
  8
DEFPOINTS
 62
     0
100
AcDbPoint
 10
8022.055179587249
 20
-5883.02620465803
 30
0.0
  0
POINT
  5
1EF
330
1E4
100
AcDbEntity
  8
DEFPOINTS
 62
     0
100
AcDbPoint
 10
8022.055179587249
 20
-5870.393551093781
 30
0.0
  0
ENDBLK
  5
1F1
330
1E4
100
AcDbEntity
  8
0
100
AcDbBlockEnd
  0
BLOCK
  5
161
330
157
100
AcDbEntity
  8
0
100
AcDbBlockBegin
  2
*D15
 70
     1
 10
0.0
 20
0.0
 30
0.0
  3
*D15
  1

  0
LINE
  5
158
330
157
100
AcDbEntity
  8
0
 62
   123
100
AcDbLine
 10
8022.055179587249
 20
-5882.02620465803
 30
0.0
 11
8022.055179587249
 21
-5856.74634888535
 31
0.0
  0
LINE
  5
159
330
157
100
AcDbEntity
  8
0
 62
   123
100
AcDbLine
 10
8202.054101787897
 20
-5883.846391369065
 30
0.0
 11
8202.054101787897
 21
-5856.74634888535
 31
0.0
  0
LINE
  5
15A
330
157
100
AcDbEntity
  8
0
 62
   123
100
AcDbLine
 10
8024.555179587251
 20
-5857.34634888535
 30
0.0
 11
8199.554101787894
 21
-5857.34634888535
 31
0.0
  0
SOLID
  5
15B
330
157
100
AcDbEntity
  8
0
 62
   123
100
AcDbTrace
 10
8024.555179587251
 20
-5856.929682218684
 30
0.0
 11
8024.555179587251
 21
-5857.763015552016
 31
0.0
 12
8022.055179587249
 22
-5857.34634888535
 32
0.0
 13
8022.055179587249
 23
-5857.34634888535
 33
0.0
  0
SOLID
  5
15C
330
157
100
AcDbEntity
  8
0
 62
   123
100
AcDbTrace
 10
8199.554101787894
 20
-5856.929682218684
 30
0.0
 11
8199.554101787894
 21
-5857.763015552016
 31
0.0
 12
8202.054101787897
 22
-5857.34634888535
 32
0.0
 13
8202.054101787897
 23
-5857.34634888535
 33
0.0
  0
MTEXT
  5
15D
330
157
100
AcDbEntity
  8
0
 62
     3
100
AcDbMText
 10
8097.554640687574
 20
-5854.846348885351
 30
0.0
 40
3.0
 41
0.0
 71
     5
 72
     1
  1
\A1;180
1001
ACAD
1000
MTEXTBEGIN
1070
    73
1070
     1
1070
    44
1040
1.0
1070
    74
1070
     0
1000
MTEXTEND
  0
POINT
  5
15E
330
157
100
AcDbEntity
  8
DEFPOINTS
 62
     0
100
AcDbPoint
 10
8022.055179587249
 20
-5883.02620465803
 30
0.0
  0
POINT
  5
15F
330
157
100
AcDbEntity
  8
DEFPOINTS
 62
     0
100
AcDbPoint
 10
8202.054101787897
 20
-5884.846391369065
 30
0.0
  0
POINT
  5
160
330
157
100
AcDbEntity
  8
DEFPOINTS
 62
     0
100
AcDbPoint
 10
8202.054101787897
 20
-5857.34634888535
 30
0.0
  0
ENDBLK
  5
162
330
157
100
AcDbEntity
  8
0
100
AcDbBlockEnd
  0
BLOCK
  5
2A8
330
29E
100
AcDbEntity
  8
0
100
AcDbBlockBegin
  2
*D16
 70
     1
 10
0.0
 20
0.0
 30
0.0
  3
*D16
  1

  0
LINE
  5
29F
330
29E
100
AcDbEntity
  8
0
 62
   123
100
AcDbLine
 10
7989.166059412096
 20
-5679.895103119649
 30
0.0
 11
7989.166059412096
 21
-5667.870782888734
 31
0.0
  0
LINE
  5
2A0
330
29E
100
AcDbEntity
  8
0
 62
   123
100
AcDbLine
 10
7996.666059412096
 20
-5681.504699111455
 30
0.0
 11
7996.666059412096
 21
-5667.870782888734
 31
0.0
  0
LINE
  5
2A1
330
29E
100
AcDbEntity
  8
0
 62
   123
100
AcDbLine
 10
7991.666059412096
 20
-5668.470782888735
 30
0.0
 11
7994.166059412099
 21
-5668.470782888735
 31
0.0
  0
SOLID
  5
2A2
330
29E
100
AcDbEntity
  8
0
 62
   123
100
AcDbTrace
 10
7991.666059412096
 20
-5668.054116222068
 30
0.0
 11
7991.666059412096
 21
-5668.887449555402
 31
0.0
 12
7989.166059412096
 22
-5668.470782888735
 32
0.0
 13
7989.166059412096
 23
-5668.470782888735
 33
0.0
  0
SOLID
  5
2A3
330
29E
100
AcDbEntity
  8
0
 62
   123
100
AcDbTrace
 10
7994.166059412099
 20
-5668.054116222068
 30
0.0
 11
7994.166059412099
 21
-5668.887449555402
 31
0.0
 12
7996.666059412096
 22
-5668.470782888735
 32
0.0
 13
7996.666059412096
 23
-5668.470782888735
 33
0.0
  0
MTEXT
  5
2A4
330
29E
100
AcDbEntity
  8
0
 62
     3
100
AcDbMText
 10
7992.916059412097
 20
-5665.970782888734
 30
0.0
 40
3.0
 41
0.0
 71
     5
 72
     1
  1
\A1;7.5
1001
ACAD
1000
MTEXTBEGIN
1070
    73
1070
     1
1070
    44
1040
1.0
1070
    74
1070
     0
1000
MTEXTEND
  0
POINT
  5
2A5
330
29E
100
AcDbEntity
  8
DEFPOINTS
 62
     0
100
AcDbPoint
 10
7989.166059412096
 20
-5680.895103119649
 30
0.0
  0
POINT
  5
2A6
330
29E
100
AcDbEntity
  8
DEFPOINTS
 62
     0
100
AcDbPoint
 10
7996.666059412096
 20
-5682.504699111455
 30
0.0
  0
POINT
  5
2A7
330
29E
100
AcDbEntity
  8
DEFPOINTS
 62
     0
100
AcDbPoint
 10
7996.666059412096
 20
-5668.470782888735
 30
0.0
  0
ENDBLK
  5
2A9
330
29E
100
AcDbEntity
  8
0
100
AcDbBlockEnd
  0
BLOCK
  5
238
330
22E
100
AcDbEntity
  8
0
100
AcDbBlockBegin
  2
*D17
 70
     1
 10
0.0
 20
0.0
 30
0.0
  3
*D17
  1

  0
LINE
  5
22F
330
22E
100
AcDbEntity
  8
0
 62
   123
100
AcDbLine
 10
7986.166059412096
 20
-5684.603436452984
 30
0.0
 11
7956.800610814295
 21
-5684.603436452984
 31
0.0
  0
LINE
  5
230
330
22E
100
AcDbEntity
  8
0
 62
   123
100
AcDbLine
 10
7986.166059412096
 20
-5767.603436452983
 30
0.0
 11
7956.800610814295
 21
-5767.603436452983
 31
0.0
  0
LINE
  5
231
330
22E
100
AcDbEntity
  8
0
 62
   123
100
AcDbLine
 10
7957.400610814295
 20
-5687.103436452983
 30
0.0
 11
7957.400610814295
 21
-5765.103436452983
 31
0.0
  0
SOLID
  5
232
330
22E
100
AcDbEntity
  8
0
 62
   123
100
AcDbTrace
 10
7956.983944147627
 20
-5687.103436452983
 30
0.0
 11
7957.817277480962
 21
-5687.103436452983
 31
0.0
 12
7957.400610814295
 22
-5684.603436452984
 32
0.0
 13
7957.400610814295
 23
-5684.603436452984
 33
0.0
  0
SOLID
  5
233
330
22E
100
AcDbEntity
  8
0
 62
   123
100
AcDbTrace
 10
7956.983944147627
 20
-5765.103436452983
 30
0.0
 11
7957.817277480962
 21
-5765.103436452983
 31
0.0
 12
7957.400610814295
 22
-5767.603436452983
 32
0.0
 13
7957.400610814295
 23
-5767.603436452983
 33
0.0
  0
MTEXT
  5
234
330
22E
100
AcDbEntity
  8
0
 62
     3
100
AcDbMText
 10
7953.450460814294
 20
-5724.738479820231
 30
0.0
 40
3.0
 41
0.0
 71
     5
 72
     1
  1
\A1;\A1;{\f??|b0|i0|c0|p49;%%C}83{\f??|b0|i0|c0|p49;\H0.7x;\S+0^ -0.035;\H1.429x;(h}7{\f??|b0|i0|c0|p49;)}
 11
0.0000000000000001
 21
1.0
 31
0.0
1001
ACAD
1000
MTEXTBEGIN
1070
    73
1070
     1
1070
    44
1040
1.0
1070
    74
1070
     0
1000
MTEXTEND
  0
POINT
  5
235
330
22E
100
AcDbEntity
  8
DEFPOINTS
 62
     0
100
AcDbPoint
 10
7987.166059412095
 20
-5684.603436452984
 30
0.0
  0
POINT
  5
236
330
22E
100
AcDbEntity
  8
DEFPOINTS
 62
     0
100
AcDbPoint
 10
7987.166059412095
 20
-5767.603436452983
 30
0.0
  0
POINT
  5
237
330
22E
100
AcDbEntity
  8
DEFPOINTS
 62
     0
100
AcDbPoint
 10
7957.400610814295
 20
-5767.603436452983
 30
0.0
  0
ENDBLK
  5
239
330
22E
100
AcDbEntity
  8
0
100
AcDbBlockEnd
  0
BLOCK
  5
173
330
169
100
AcDbEntity
  8
0
100
AcDbBlockBegin
  2
*D18
 70
     1
 10
0.0
 20
0.0
 30
0.0
  3
*D18
  1

  0
LINE
  5
16A
330
169
100
AcDbEntity
  8
0
 62
   123
100
AcDbLine
 10
8022.055179587249
 20
-5881.817871324696
 30
0.0
 11
8022.055179587249
 21
-5869.793551093779
 31
0.0
  0
LINE
  5
16B
330
169
100
AcDbEntity
  8
0
 62
   123
100
AcDbLine
 10
8029.55517958725
 20
-5883.427467316502
 30
0.0
 11
8029.55517958725
 21
-5869.793551093779
 31
0.0
  0
LINE
  5
16C
330
169
100
AcDbEntity
  8
0
 62
   123
100
AcDbLine
 10
8024.555179587251
 20
-5870.393551093781
 30
0.0
 11
8027.055179587248
 21
-5870.393551093781
 31
0.0
  0
SOLID
  5
16D
330
169
100
AcDbEntity
  8
0
 62
   123
100
AcDbTrace
 10
8024.555179587251
 20
-5869.976884427114
 30
0.0
 11
8024.555179587251
 21
-5870.810217760448
 31
0.0
 12
8022.055179587249
 22
-5870.393551093781
 32
0.0
 13
8022.055179587249
 23
-5870.393551093781
 33
0.0
  0
SOLID
  5
16E
330
169
100
AcDbEntity
  8
0
 62
   123
100
AcDbTrace
 10
8027.055179587248
 20
-5869.976884427114
 30
0.0
 11
8027.055179587248
 21
-5870.810217760448
 31
0.0
 12
8029.55517958725
 22
-5870.393551093781
 32
0.0
 13
8029.55517958725
 23
-5870.393551093781
 33
0.0
  0
MTEXT
  5
16F
330
169
100
AcDbEntity
  8
0
 62
     3
100
AcDbMText
 10
8025.80517958725
 20
-5867.893551093781
 30
0.0
 40
3.0
 41
0.0
 71
     5
 72
     1
  1
\A1;7.5
1001
ACAD
1000
MTEXTBEGIN
1070
    73
1070
     1
1070
    44
1040
1.0
1070
    74
1070
     0
1000
MTEXTEND
  0
POINT
  5
170
330
169
100
AcDbEntity
  8
DEFPOINTS
 62
     0
100
AcDbPoint
 10
8022.055179587249
 20
-5882.817871324697
 30
0.0
  0
POINT
  5
171
330
169
100
AcDbEntity
  8
DEFPOINTS
 62
     0
100
AcDbPoint
 10
8029.55517958725
 20
-5884.427467316502
 30
0.0
  0
POINT
  5
172
330
169
100
AcDbEntity
  8
DEFPOINTS
 62
     0
100
AcDbPoint
 10
8029.55517958725
 20
-5870.393551093781
 30
0.0
  0
ENDBLK
  5
174
330
169
100
AcDbEntity
  8
0
100
AcDbBlockEnd
  0
BLOCK
  5
1FF
330
1F5
100
AcDbEntity
  8
0
100
AcDbBlockBegin
  2
*D19
 70
     1
 10
0.0
 20
0.0
 30
0.0
  3
*D19
  1

  0
LINE
  5
1F6
330
1F5
100
AcDbEntity
  8
0
 62
   123
100
AcDbLine
 10
7985.05517958725
 20
-5922.02620465803
 30
0.0
 11
7985.05517958725
 21
-5856.74634888535
 31
0.0
  0
LINE
  5
1F7
330
1F5
100
AcDbEntity
  8
0
 62
   123
100
AcDbLine
 10
8022.055179587249
 20
-5881.817871324696
 30
0.0
 11
8022.055179587249
 21
-5856.74634888535
 31
0.0
  0
LINE
  5
1F8
330
1F5
100
AcDbEntity
  8
0
 62
   123
100
AcDbLine
 10
7987.55517958725
 20
-5857.34634888535
 30
0.0
 11
8019.55517958725
 21
-5857.34634888535
 31
0.0
  0
SOLID
  5
1F9
330
1F5
100
AcDbEntity
  8
0
 62
   123
100
AcDbTrace
 10
7987.55517958725
 20
-5856.929682218684
 30
0.0
 11
7987.55517958725
 21
-5857.763015552016
 31
0.0
 12
7985.05517958725
 22
-5857.34634888535
 32
0.0
 13
7985.05517958725
 23
-5857.34634888535
 33
0.0
  0
SOLID
  5
1FA
330
1F5
100
AcDbEntity
  8
0
 62
   123
100
AcDbTrace
 10
8019.55517958725
 20
-5856.929682218684
 30
0.0
 11
8019.55517958725
 21
-5857.763015552016
 31
0.0
 12
8022.055179587249
 22
-5857.34634888535
 32
0.0
 13
8022.055179587249
 23
-5857.34634888535
 33
0.0
  0
MTEXT
  5
1FB
330
1F5
100
AcDbEntity
  8
0
 62
     3
100
AcDbMText
 10
8005.305179587251
 20
-5854.846348885351
 30
0.0
 40
3.0
 41
0.0
 71
     5
 72
     1
  1
\A1;37
1001
ACAD
1000
MTEXTBEGIN
1070
    73
1070
     1
1070
    44
1040
1.0
1070
    74
1070
     0
1000
MTEXTEND
  0
POINT
  5
1FC
330
1F5
100
AcDbEntity
  8
DEFPOINTS
 62
     0
100
AcDbPoint
 10
7985.05517958725
 20
-5923.02620465803
 30
0.0
  0
POINT
  5
1FD
330
1F5
100
AcDbEntity
  8
DEFPOINTS
 62
     0
100
AcDbPoint
 10
8022.055179587249
 20
-5882.817871324697
 30
0.0
  0
POINT
  5
1FE
330
1F5
100
AcDbEntity
  8
DEFPOINTS
 62
     0
100
AcDbPoint
 10
8022.055179587249
 20
-5857.34634888535
 30
0.0
  0
ENDBLK
  5
200
330
1F5
100
AcDbEntity
  8
0
100
AcDbBlockEnd
  0
BLOCK
  5
1BE
330
1B4
100
AcDbEntity
  8
0
100
AcDbBlockBegin
  2
*D20
 70
     1
 10
0.0
 20
0.0
 30
0.0
  3
*D20
  1

  0
LINE
  5
1B5
330
1B4
100
AcDbEntity
  8
0
 62
   123
100
AcDbLine
 10
7984.05517958725
 20
-5934.02620465803
 30
0.0
 11
7971.98669870654
 21
-5934.02620465803
 31
0.0
  0
LINE
  5
1B6
330
1B4
100
AcDbEntity
  8
0
 62
   123
100
AcDbLine
 10
7984.05517958725
 20
-5923.02620465803
 30
0.0
 11
7971.98669870654
 21
-5923.02620465803
 31
0.0
  0
LINE
  5
1B7
330
1B4
100
AcDbEntity
  8
0
 62
   123
100
AcDbLine
 10
7972.586698706539
 20
-5931.52620465803
 30
0.0
 11
7972.586698706539
 21
-5925.52620465803
 31
0.0
  0
SOLID
  5
1B8
330
1B4
100
AcDbEntity
  8
0
 62
   123
100
AcDbTrace
 10
7972.170032039871
 20
-5931.52620465803
 30
0.0
 11
7973.003365373205
 21
-5931.52620465803
 31
0.0
 12
7972.586698706539
 22
-5934.02620465803
 32
0.0
 13
7972.586698706539
 23
-5934.02620465803
 33
0.0
  0
SOLID
  5
1B9
330
1B4
100
AcDbEntity
  8
0
 62
   123
100
AcDbTrace
 10
7972.170032039871
 20
-5925.52620465803
 30
0.0
 11
7973.003365373205
 21
-5925.52620465803
 31
0.0
 12
7972.586698706539
 22
-5923.02620465803
 32
0.0
 13
7972.586698706539
 23
-5923.02620465803
 33
0.0
  0
MTEXT
  5
1BA
330
1B4
100
AcDbEntity
  8
0
 62
     3
100
AcDbMText
 10
7970.086698706539
 20
-5928.52620465803
 30
0.0
 40
3.0
 41
0.0
 71
     5
 72
     1
  1
\A1;11
 11
0.0000000000000001
 21
1.0
 31
0.0
1001
ACAD
1000
MTEXTBEGIN
1070
    73
1070
     1
1070
    44
1040
1.0
1070
    74
1070
     0
1000
MTEXTEND
  0
POINT
  5
1BB
330
1B4
100
AcDbEntity
  8
DEFPOINTS
 62
     0
100
AcDbPoint
 10
7985.05517958725
 20
-5934.02620465803
 30
0.0
  0
POINT
  5
1BC
330
1B4
100
AcDbEntity
  8
DEFPOINTS
 62
     0
100
AcDbPoint
 10
7985.05517958725
 20
-5923.02620465803
 30
0.0
  0
POINT
  5
1BD
330
1B4
100
AcDbEntity
  8
DEFPOINTS
 62
     0
100
AcDbPoint
 10
7972.586698706539
 20
-5923.02620465803
 30
0.0
  0
ENDBLK
  5
1BF
330
1B4
100
AcDbEntity
  8
0
100
AcDbBlockEnd
  0
BLOCK
  5
1CE
330
1C4
100
AcDbEntity
  8
0
100
AcDbBlockBegin
  2
*D21
 70
     1
 10
0.0
 20
0.0
 30
0.0
  3
*D21
  1

  0
LINE
  5
1C5
330
1C4
100
AcDbEntity
  8
0
 62
   123
100
AcDbLine
 10
7985.05517958725
 20
-5922.02620465803
 30
0.0
 11
7985.05517958725
 21
-5896.828948170689
 31
0.0
  0
LINE
  5
1C6
330
1C4
100
AcDbEntity
  8
0
 62
   123
100
AcDbLine
 10
8015.05517958725
 20
-5921.02620465803
 30
0.0
 11
8015.05517958725
 21
-5896.828948170689
 31
0.0
  0
LINE
  5
1C7
330
1C4
100
AcDbEntity
  8
0
 62
   123
100
AcDbLine
 10
7987.55517958725
 20
-5897.428948170688
 30
0.0
 11
8012.55517958725
 21
-5897.428948170688
 31
0.0
  0
SOLID
  5
1C8
330
1C4
100
AcDbEntity
  8
0
 62
   123
100
AcDbTrace
 10
7987.55517958725
 20
-5897.012281504022
 30
0.0
 11
7987.55517958725
 21
-5897.845614837354
 31
0.0
 12
7985.05517958725
 22
-5897.428948170688
 32
0.0
 13
7985.05517958725
 23
-5897.428948170688
 33
0.0
  0
SOLID
  5
1C9
330
1C4
100
AcDbEntity
  8
0
 62
   123
100
AcDbTrace
 10
8012.55517958725
 20
-5897.012281504022
 30
0.0
 11
8012.55517958725
 21
-5897.845614837354
 31
0.0
 12
8015.05517958725
 22
-5897.428948170688
 32
0.0
 13
8015.05517958725
 23
-5897.428948170688
 33
0.0
  0
MTEXT
  5
1CA
330
1C4
100
AcDbEntity
  8
0
 62
     3
100
AcDbMText
 10
8001.31386395175
 20
-5894.928948170688
 30
0.0
 40
3.0
 41
0.0
 71
     5
 72
     1
  1
\A1;30
1001
ACAD
1000
MTEXTBEGIN
1070
    73
1070
     1
1070
    44
1040
1.0
1070
    74
1070
     0
1000
MTEXTEND
  0
POINT
  5
1CB
330
1C4
100
AcDbEntity
  8
DEFPOINTS
 62
     0
100
AcDbPoint
 10
7985.05517958725
 20
-5923.02620465803
 30
0.0
  0
POINT
  5
1CC
330
1C4
100
AcDbEntity
  8
DEFPOINTS
 62
     0
100
AcDbPoint
 10
8015.05517958725
 20
-5922.02620465803
 30
0.0
  0
POINT
  5
1CD
330
1C4
100
AcDbEntity
  8
DEFPOINTS
 62
     0
100
AcDbPoint
 10
8015.05517958725
 20
-5897.428948170688
 30
0.0
  0
ENDBLK
  5
1CF
330
1C4
100
AcDbEntity
  8
0
100
AcDbBlockEnd
  0
BLOCK
  5
1DF
330
1D5
100
AcDbEntity
  8
0
100
AcDbBlockBegin
  2
*D22
 70
     1
 10
0.0
 20
0.0
 30
0.0
  3
*D22
  1

  0
LINE
  5
1D6
330
1D5
100
AcDbEntity
  8
0
 62
   123
100
AcDbLine
 10
7984.05517958725
 20
-5934.02620465803
 30
0.0
 11
7961.118217825831
 21
-5934.02620465803
 31
0.0
  0
LINE
  5
1D7
330
1D5
100
AcDbEntity
  8
0
 62
   123
100
AcDbLine
 10
8014.05517958725
 20
-5922.02620465803
 30
0.0
 11
7961.118217825831
 21
-5922.02620465803
 31
0.0
  0
LINE
  5
1D8
330
1D5
100
AcDbEntity
  8
0
 62
   123
100
AcDbLine
 10
7961.71821782583
 20
-5931.52620465803
 30
0.0
 11
7961.71821782583
 21
-5924.52620465803
 31
0.0
  0
SOLID
  5
1D9
330
1D5
100
AcDbEntity
  8
0
 62
   123
100
AcDbTrace
 10
7961.301551159163
 20
-5931.52620465803
 30
0.0
 11
7962.134884492496
 21
-5931.52620465803
 31
0.0
 12
7961.71821782583
 22
-5934.02620465803
 32
0.0
 13
7961.71821782583
 23
-5934.02620465803
 33
0.0
  0
SOLID
  5
1DA
330
1D5
100
AcDbEntity
  8
0
 62
   123
100
AcDbTrace
 10
7961.301551159163
 20
-5924.52620465803
 30
0.0
 11
7962.134884492496
 21
-5924.52620465803
 31
0.0
 12
7961.71821782583
 22
-5922.02620465803
 32
0.0
 13
7961.71821782583
 23
-5922.02620465803
 33
0.0
  0
MTEXT
  5
1DB
330
1D5
100
AcDbEntity
  8
0
 62
     3
100
AcDbMText
 10
7957.768067825831
 20
-5928.026204658028
 30
0.0
 40
3.0
 41
0.0
 71
     5
 72
     1
  1
\A1;\A1;{\f??|b0|i0|c0|p49;%%C}12{\f??|b0|i0|c0|p49;\H0.7x;\S+0^ -0.018;\H1.429x;(h}7{\f??|b0|i0|c0|p49;)}
 11
0.0000000000000001
 21
1.0
 31
0.0
1001
ACAD
1000
MTEXTBEGIN
1070
    73
1070
     1
1070
    44
1040
1.0
1070
    74
1070
     0
1000
MTEXTEND
  0
POINT
  5
1DC
330
1D5
100
AcDbEntity
  8
DEFPOINTS
 62
     0
100
AcDbPoint
 10
7985.05517958725
 20
-5934.02620465803
 30
0.0
  0
POINT
  5
1DD
330
1D5
100
AcDbEntity
  8
DEFPOINTS
 62
     0
100
AcDbPoint
 10
8015.05517958725
 20
-5922.02620465803
 30
0.0
  0
POINT
  5
1DE
330
1D5
100
AcDbEntity
  8
DEFPOINTS
 62
     0
100
AcDbPoint
 10
7961.71821782583
 20
-5922.02620465803
 30
0.0
  0
ENDBLK
  5
1E0
330
1D5
100
AcDbEntity
  8
0
100
AcDbBlockEnd
  0
BLOCK
  5
F4
330
EA
100
AcDbEntity
  8
0
100
AcDbBlockBegin
  2
*D23
 70
     1
 10
0.0
 20
0.0
 30
0.0
  3
*D23
  1

  0
LINE
  5
EB
330
EA
100
AcDbEntity
  8
0
 62
   123
100
AcDbLine
 10
8019.055179587249
 20
-5886.52620465803
 30
0.0
 11
7948.639097751168
 21
-5886.52620465803
 31
0.0
  0
LINE
  5
EC
330
EA
100
AcDbEntity
  8
0
 62
   123
100
AcDbLine
 10
8019.055179587249
 20
-5969.526204658031
 30
0.0
 11
7948.639097751168
 21
-5969.526204658031
 31
0.0
  0
LINE
  5
ED
330
EA
100
AcDbEntity
  8
0
 62
   123
100
AcDbLine
 10
7949.239097751167
 20
-5889.02620465803
 30
0.0
 11
7949.239097751167
 21
-5967.02620465803
 31
0.0
  0
SOLID
  5
EE
330
EA
100
AcDbEntity
  8
0
 62
   123
100
AcDbTrace
 10
7948.822431084501
 20
-5889.02620465803
 30
0.0
 11
7949.655764417835
 21
-5889.02620465803
 31
0.0
 12
7949.239097751167
 22
-5886.52620465803
 32
0.0
 13
7949.239097751167
 23
-5886.52620465803
 33
0.0
  0
SOLID
  5
EF
330
EA
100
AcDbEntity
  8
0
 62
   123
100
AcDbTrace
 10
7948.822431084501
 20
-5967.02620465803
 30
0.0
 11
7949.655764417835
 21
-5967.02620465803
 31
0.0
 12
7949.239097751167
 22
-5969.526204658031
 32
0.0
 13
7949.239097751167
 23
-5969.526204658031
 33
0.0
  0
MTEXT
  5
F0
330
EA
100
AcDbEntity
  8
0
 62
     3
100
AcDbMText
 10
7945.28894775117
 20
-5926.661248025278
 30
0.0
 40
3.0
 41
0.0
 71
     5
 72
     1
  1
\A1;\A1;{\f??|b0|i0|c0|p49;%%C}83{\f??|b0|i0|c0|p49;\H0.7x;\S+0^ -0.035;\H1.429x;(h}7{\f??|b0|i0|c0|p49;)}
 11
0.0000000000000001
 21
1.0
 31
0.0
1001
ACAD
1000
MTEXTBEGIN
1070
    73
1070
     1
1070
    44
1040
1.0
1070
    74
1070
     0
1000
MTEXTEND
  0
POINT
  5
F1
330
EA
100
AcDbEntity
  8
DEFPOINTS
 62
     0
100
AcDbPoint
 10
8020.055179587251
 20
-5886.52620465803
 30
0.0
  0
POINT
  5
F2
330
EA
100
AcDbEntity
  8
DEFPOINTS
 62
     0
100
AcDbPoint
 10
8020.055179587251
 20
-5969.526204658031
 30
0.0
  0
POINT
  5
F3
330
EA
100
AcDbEntity
  8
DEFPOINTS
 62
     0
100
AcDbPoint
 10
7949.239097751167
 20
-5969.526204658031
 30
0.0
  0
ENDBLK
  5
F5
330
EA
100
AcDbEntity
  8
0
100
AcDbBlockEnd
  0
BLOCK
  5
308
330
2FC
100
AcDbEntity
  8
0
100
AcDbBlockBegin
  2
*D24
 70
     1
 10
0.0
 20
0.0
 30
0.0
  3
*D24
  1

  0
LINE
  5
426
330
2FC
100
AcDbEntity
  8
0
 62
   123
100
AcDbLine
 10
58.06205911196594
 20
39.39995570384143
 30
0.0
 11
58.06205911196592
 21
20.98136831036798
 31
0.0
  0
LINE
  5
427
330
2FC
100
AcDbEntity
  8
0
 62
   123
100
AcDbLine
 10
77.09067947256132
 20
48.10626607140587
 30
0.0
 11
86.02455736339527
 21
26.54516910275547
 31
0.0
  0
ARC
  5
428
330
2FC
100
AcDbEntity
  8
0
 62
   123
100
AcDbCircle
 10
58.06205911196594
 20
94.03010046759481
 30
0.0
 40
72.44873215722684
100
AcDbArc
 50
271.9772127434109
 51
290.5295441539816
  0
SOLID
  5
429
330
2FC
100
AcDbEntity
  8
0
 62
   123
100
AcDbTrace
 10
60.56887596842688
 20
21.20789761637131
 30
0.0
 11
60.55449798504952
 21
22.04110690462874
 31
0.0
 12
58.06205911196593
 22
21.58136831036798
 32
0.0
 13
58.06205911196593
 23
21.58136831036798
 33
0.0
  0
SOLID
  5
42A
330
2FC
100
AcDbEntity
  8
0
 62
   123
100
AcDbTrace
 10
83.31629674027752
 20
26.5701054516033
 30
0.0
 11
83.62196003360519
 21
25.79485426936845
 31
0.0
 12
85.79488193364591
 22
27.09946974046884
 32
0.0
 13
85.79488193364591
 23
27.09946974046884
 33
0.0
  0
MTEXT
  5
42B
330
2FC
100
AcDbEntity
  8
0
 62
     3
100
AcDbMText
 10
71.65666843308393
 20
25.70643943883518
 30
0.0
 40
3.0
 41
0.0
 71
     5
 72
     1
  1
\A1;22°30'
 11
0.9807737751869542
 21
0.1951481537333361
 31
0.0
  0
POINT
  5
42C
330
2FC
100
AcDbEntity
  8
DEFPOINTS
 62
     0
100
AcDbPoint
 10
67.52133984183858
 20
22.20154904642904
 30
0.0
  0
POINT
  5
42D
330
2FC
100
AcDbEntity
  8
DEFPOINTS
 62
     0
100
AcDbPoint
 10
58.06205911196594
 20
40.39995570384143
 30
0.0
  0
POINT
  5
42E
330
2FC
100
AcDbEntity
  8
DEFPOINTS
 62
     0
100
AcDbPoint
 10
58.06205911196594
 20
94.03010046759481
 30
0.0
  0
POINT
  5
42F
330
2FC
100
AcDbEntity
  8
DEFPOINTS
 62
     0
100
AcDbPoint
 10
76.70788708964572
 20
49.03010046759481
 30
0.0
  0
POINT
  5
430
330
2FC
100
AcDbEntity
  8
DEFPOINTS
 62
     0
100
AcDbPoint
 10
58.06205911196594
 20
147.6602452313472
 30
0.0
  0
ENDBLK
  5
309
330
2FC
100
AcDbEntity
  8
0
100
AcDbBlockEnd
  0
BLOCK
  5
314
330
30A
100
AcDbEntity
  8
0
100
AcDbBlockBegin
  2
*D25
 70
     1
 10
0.0
 20
0.0
 30
0.0
  3
*D25
  1

  0
LINE
  5
30B
330
30A
100
AcDbEntity
  8
0
 62
   123
100
AcDbLine
 10
211.8701143368434
 20
135.5301004675948
 30
0.0
 11
141.4540325007623
 21
135.5301004675948
 31
0.0
  0
LINE
  5
30C
330
30A
100
AcDbEntity
  8
0
 62
   123
100
AcDbLine
 10
211.8701143368434
 20
52.53010046759391
 30
0.0
 11
141.4540325007623
 21
52.53010046759394
 31
0.0
  0
LINE
  5
30D
330
30A
100
AcDbEntity
  8
0
 62
   123
100
AcDbLine
 10
142.0540325007623
 20
133.0301004675948
 30
0.0
 11
142.0540325007623
 21
55.03010046759394
 31
0.0
  0
SOLID
  5
30E
330
30A
100
AcDbEntity
  8
0
 62
   123
100
AcDbTrace
 10
141.6373658340956
 20
133.0301004675948
 30
0.0
 11
142.470699167429
 21
133.0301004675948
 31
0.0
 12
142.0540325007623
 22
135.5301004675948
 32
0.0
 13
142.0540325007623
 23
135.5301004675948
 33
0.0
  0
SOLID
  5
30F
330
30A
100
AcDbEntity
  8
0
 62
   123
100
AcDbTrace
 10
141.6373658340956
 20
55.03010046759394
 30
0.0
 11
142.4706991674289
 21
55.03010046759394
 31
0.0
 12
142.0540325007623
 22
52.53010046759394
 32
0.0
 13
142.0540325007623
 23
52.53010046759394
 33
0.0
  0
MTEXT
  5
310
330
30A
100
AcDbEntity
  8
0
 62
     3
100
AcDbMText
 10
138.1038825007623
 20
95.39505710034701
 30
0.0
 40
3.0
 41
0.0
 71
     5
 72
     1
  1
\A1;\A1;{\f??|b0|i0|c0|p49;%%C}83{\f??|b0|i0|c0|p49;\H0.7x;\S+0^ -0.035;\H1.429x;(h}7{\f??|b0|i0|c0|p49;)}
 11
0.0000000000000001
 21
1.0
 31
0.0
1001
ACAD
1000
MTEXTBEGIN
1070
    73
1070
     1
1070
    44
1040
1.0
1070
    74
1070
     0
1000
MTEXTEND
  0
POINT
  5
311
330
30A
100
AcDbEntity
  8
DEFPOINTS
 62
     0
100
AcDbPoint
 10
212.8701143368434
 20
135.5301004675948
 30
0.0
  0
POINT
  5
312
330
30A
100
AcDbEntity
  8
DEFPOINTS
 62
     0
100
AcDbPoint
 10
212.8701143368434
 20
52.53010046759391
 30
0.0
  0
POINT
  5
313
330
30A
100
AcDbEntity
  8
DEFPOINTS
 62
     0
100
AcDbPoint
 10
142.0540325007623
 20
52.53010046759394
 30
0.0
  0
ENDBLK
  5
315
330
30A
100
AcDbEntity
  8
0
100
AcDbBlockEnd
  0
BLOCK
  5
320
330
316
100
AcDbEntity
  8
0
100
AcDbBlockBegin
  2
*D26
 70
     1
 10
0.0
 20
0.0
 30
0.0
  3
*D26
  1

  0
LINE
  5
317
330
316
100
AcDbEntity
  8
0
 62
   123
100
AcDbLine
 10
393.8690365374877
 20
140.2099137565601
 30
0.0
 11
415.3554973740371
 21
140.2099137565601
 31
0.0
  0
LINE
  5
318
330
316
100
AcDbEntity
  8
0
 62
   123
100
AcDbLine
 10
393.8690365374877
 20
48.20991375655921
 30
0.0
 11
415.355497374037
 21
48.20991375655921
 31
0.0
  0
LINE
  5
319
330
316
100
AcDbEntity
  8
0
 62
   123
100
AcDbLine
 10
414.7554973740371
 20
137.7099137565601
 30
0.0
 11
414.755497374037
 21
50.70991375655921
 31
0.0
  0
SOLID
  5
31A
330
316
100
AcDbEntity
  8
0
 62
   123
100
AcDbTrace
 10
414.3388307073704
 20
137.7099137565601
 30
0.0
 11
415.1721640407037
 21
137.7099137565601
 31
0.0
 12
414.7554973740371
 22
140.2099137565601
 32
0.0
 13
414.7554973740371
 23
140.2099137565601
 33
0.0
  0
SOLID
  5
31B
330
316
100
AcDbEntity
  8
0
 62
   123
100
AcDbTrace
 10
414.3388307073704
 20
50.70991375655921
 30
0.0
 11
415.1721640407037
 21
50.70991375655921
 31
0.0
 12
414.755497374037
 22
48.20991375655921
 32
0.0
 13
414.755497374037
 23
48.20991375655921
 33
0.0
  0
MTEXT
  5
31C
330
316
100
AcDbEntity
  8
0
 62
     3
100
AcDbMText
 10
412.2554973740371
 20
94.20991375656013
 30
0.0
 40
3.0
 41
0.0
 71
     5
 72
     1
  1
\A1;92
 11
0.0000000000000001
 21
1.0
 31
0.0
1001
ACAD
1000
MTEXTBEGIN
1070
    73
1070
     1
1070
    44
1040
1.0
1070
    74
1070
     0
1000
MTEXTEND
  0
POINT
  5
31D
330
316
100
AcDbEntity
  8
DEFPOINTS
 62
     0
100
AcDbPoint
 10
392.8690365374878
 20
140.2099137565601
 30
0.0
  0
POINT
  5
31E
330
316
100
AcDbEntity
  8
DEFPOINTS
 62
     0
100
AcDbPoint
 10
392.8690365374878
 20
48.20991375655921
 30
0.0
  0
POINT
  5
31F
330
316
100
AcDbEntity
  8
DEFPOINTS
 62
     0
100
AcDbPoint
 10
414.755497374037
 20
48.20991375655921
 30
0.0
  0
ENDBLK
  5
321
330
316
100
AcDbEntity
  8
0
100
AcDbBlockEnd
  0
BLOCK
  5
32E
330
322
100
AcDbEntity
  8
0
100
AcDbBlockBegin
  2
*D27
 70
     1
 10
0.0
 20
0.0
 30
0.0
  3
*D27
  1

  0
LINE
  5
431
330
322
100
AcDbEntity
  8
0
 62
   123
100
AcDbLine
 10
66.59683978941302
 20
241.3227239088883
 30
0.0
 11
66.59683978941301
 21
222.9041365154123
 31
0.0
  0
LINE
  5
432
330
322
100
AcDbEntity
  8
0
 62
   123
100
AcDbLine
 10
85.62546015000563
 20
250.0290342764527
 30
0.0
 11
94.55933804083981
 21
228.4679373077986
 31
0.0
  0
ARC
  5
433
330
322
100
AcDbEntity
  8
0
 62
   123
100
AcDbCircle
 10
66.59683978941302
 20
295.9528686726416
 30
0.0
 40
72.44873215722925
100
AcDbArc
 50
271.9772127434108
 51
290.5295441539787
  0
SOLID
  5
434
330
322
100
AcDbEntity
  8
0
 62
   123
100
AcDbTrace
 10
69.10365664587397
 20
223.1306658214157
 30
0.0
 11
69.08927866249661
 21
223.9638751096731
 31
0.0
 12
66.59683978941302
 22
223.5041365154123
 32
0.0
 13
66.59683978941302
 23
223.5041365154123
 33
0.0
  0
SOLID
  5
435
330
322
100
AcDbEntity
  8
0
 62
   123
100
AcDbTrace
 10
91.85107741772204
 20
228.4928736566465
 30
0.0
 11
92.15674071104968
 21
227.7176224744116
 31
0.0
 12
94.32966261109044
 22
229.0222379455119
 32
0.0
 13
94.32966261109044
 23
229.0222379455119
 33
0.0
  0
MTEXT
  5
436
330
322
100
AcDbEntity
  8
0
 62
     3
100
AcDbMText
 10
80.19144911052974
 20
227.6292076438793
 30
0.0
 40
3.0
 41
0.0
 71
     5
 72
     1
  1
\A1;22°30'
 11
0.9807737751869593
 21
0.1951481537333099
 31
0.0
  0
POINT
  5
437
330
322
100
AcDbEntity
  8
DEFPOINTS
 62
     0
100
AcDbPoint
 10
76.05612051928469
 20
224.1243172514733
 30
0.0
  0
POINT
  5
438
330
322
100
AcDbEntity
  8
DEFPOINTS
 62
     0
100
AcDbPoint
 10
66.59683978941302
 20
242.3227239088883
 30
0.0
  0
POINT
  5
439
330
322
100
AcDbEntity
  8
DEFPOINTS
 62
     0
100
AcDbPoint
 10
66.59683978941302
 20
295.9528686726416
 30
0.0
  0
POINT
  5
43A
330
322
100
AcDbEntity
  8
DEFPOINTS
 62
     0
100
AcDbPoint
 10
85.2426677670901
 20
250.9528686726416
 30
0.0
  0
POINT
  5
43B
330
322
100
AcDbEntity
  8
DEFPOINTS
 62
     0
100
AcDbPoint
 10
66.59683978941302
 20
349.5830134363923
 30
0.0
  0
ENDBLK
  5
32F
330
322
100
AcDbEntity
  8
0
100
AcDbBlockEnd
  0
BLOCK
  5
33A
330
330
100
AcDbEntity
  8
0
100
AcDbBlockBegin
  2
*D28
 70
     1
 10
0.0
 20
0.0
 30
0.0
  3
*D28
  1

  0
LINE
  5
331
330
330
100
AcDbEntity
  8
0
 62
   123
100
AcDbLine
 10
214.8701143368416
 20
140.0301004675948
 30
0.0
 11
214.8701143368416
 21
165.3099562402745
 31
0.0
  0
LINE
  5
332
330
330
100
AcDbEntity
  8
0
 62
   123
100
AcDbLine
 10
394.8690365374896
 20
138.2099137565601
 30
0.0
 11
394.8690365374896
 21
165.3099562402745
 31
0.0
  0
LINE
  5
333
330
330
100
AcDbEntity
  8
0
 62
   123
100
AcDbLine
 10
217.3701143368416
 20
164.7099562402745
 30
0.0
 11
392.3690365374895
 21
164.7099562402745
 31
0.0
  0
SOLID
  5
334
330
330
100
AcDbEntity
  8
0
 62
   123
100
AcDbTrace
 10
217.3701143368416
 20
165.1266229069412
 30
0.0
 11
217.3701143368416
 21
164.2932895736078
 31
0.0
 12
214.8701143368416
 22
164.7099562402745
 32
0.0
 13
214.8701143368416
 23
164.7099562402745
 33
0.0
  0
SOLID
  5
335
330
330
100
AcDbEntity
  8
0
 62
   123
100
AcDbTrace
 10
392.3690365374895
 20
165.1266229069412
 30
0.0
 11
392.3690365374895
 21
164.2932895736078
 31
0.0
 12
394.8690365374896
 22
164.7099562402745
 32
0.0
 13
394.8690365374896
 23
164.7099562402745
 33
0.0
  0
MTEXT
  5
336
330
330
100
AcDbEntity
  8
0
 62
     3
100
AcDbMText
 10
290.3695754371674
 20
167.2099562402745
 30
0.0
 40
3.0
 41
0.0
 71
     5
 72
     1
  1
\A1;180
1001
ACAD
1000
MTEXTBEGIN
1070
    73
1070
     1
1070
    44
1040
1.0
1070
    74
1070
     0
1000
MTEXTEND
  0
POINT
  5
337
330
330
100
AcDbEntity
  8
DEFPOINTS
 62
     0
100
AcDbPoint
 10
214.8701143368416
 20
139.0301004675948
 30
0.0
  0
POINT
  5
338
330
330
100
AcDbEntity
  8
DEFPOINTS
 62
     0
100
AcDbPoint
 10
394.8690365374896
 20
137.2099137565601
 30
0.0
  0
POINT
  5
339
330
330
100
AcDbEntity
  8
DEFPOINTS
 62
     0
100
AcDbPoint
 10
394.8690365374896
 20
164.7099562402745
 30
0.0
  0
ENDBLK
  5
33B
330
330
100
AcDbEntity
  8
0
100
AcDbBlockEnd
  0
BLOCK
  5
346
330
33C
100
AcDbEntity
  8
0
100
AcDbBlockBegin
  2
*D29
 70
     1
 10
0.0
 20
0.0
 30
0.0
  3
*D29
  1

  0
LINE
  5
33D
330
33C
100
AcDbEntity
  8
0
 62
   123
100
AcDbLine
 10
177.8701143368425
 20
100.0301004675948
 30
0.0
 11
177.8701143368425
 21
165.3099562402745
 31
0.0
  0
LINE
  5
33E
330
33C
100
AcDbEntity
  8
0
 62
   123
100
AcDbLine
 10
214.8701143368416
 20
140.2384338009278
 30
0.0
 11
214.8701143368416
 21
165.3099562402745
 31
0.0
  0
LINE
  5
33F
330
33C
100
AcDbEntity
  8
0
 62
   123
100
AcDbLine
 10
180.3701143368425
 20
164.7099562402745
 30
0.0
 11
212.3701143368416
 21
164.7099562402745
 31
0.0
  0
SOLID
  5
340
330
33C
100
AcDbEntity
  8
0
 62
   123
100
AcDbTrace
 10
180.3701143368425
 20
165.1266229069412
 30
0.0
 11
180.3701143368425
 21
164.2932895736078
 31
0.0
 12
177.8701143368425
 22
164.7099562402745
 32
0.0
 13
177.8701143368425
 23
164.7099562402745
 33
0.0
  0
SOLID
  5
341
330
33C
100
AcDbEntity
  8
0
 62
   123
100
AcDbTrace
 10
212.3701143368416
 20
165.1266229069412
 30
0.0
 11
212.3701143368416
 21
164.2932895736078
 31
0.0
 12
214.8701143368416
 22
164.7099562402745
 32
0.0
 13
214.8701143368416
 23
164.7099562402745
 33
0.0
  0
MTEXT
  5
342
330
33C
100
AcDbEntity
  8
0
 62
     3
100
AcDbMText
 10
198.1201143368434
 20
167.2099562402745
 30
0.0
 40
3.0
 41
0.0
 71
     5
 72
     1
  1
\A1;37
1001
ACAD
1000
MTEXTBEGIN
1070
    73
1070
     1
1070
    44
1040
1.0
1070
    74
1070
     0
1000
MTEXTEND
  0
POINT
  5
343
330
33C
100
AcDbEntity
  8
DEFPOINTS
 62
     0
100
AcDbPoint
 10
177.8701143368425
 20
99.03010046759483
 30
0.0
  0
POINT
  5
344
330
33C
100
AcDbEntity
  8
DEFPOINTS
 62
     0
100
AcDbPoint
 10
214.8701143368416
 20
139.2384338009278
 30
0.0
  0
POINT
  5
345
330
33C
100
AcDbEntity
  8
DEFPOINTS
 62
     0
100
AcDbPoint
 10
214.8701143368416
 20
164.7099562402745
 30
0.0
  0
ENDBLK
  5
347
330
33C
100
AcDbEntity
  8
0
100
AcDbBlockEnd
  0
BLOCK
  5
354
330
348
100
AcDbEntity
  8
0
100
AcDbBlockBegin
  2
*D30
 70
     1
 10
0.0
 20
0.0
 30
0.0
  3
*D30
  1

  0
LINE
  5
349
330
348
100
AcDbEntity
  8
0
 62
   123
100
AcDbLine
 10
212.8701143368434
 20
136.5301004675948
 30
0.0
 11
212.8701143368434
 21
152.262754031844
 31
0.0
  0
LINE
  5
34A
330
348
100
AcDbEntity
  8
0
 62
   123
100
AcDbLine
 10
214.8701143368416
 20
140.0301004675948
 30
0.0
 11
214.8701143368416
 21
152.262754031844
 31
0.0
  0
LINE
  5
34B
330
348
100
AcDbEntity
  8
0
 62
   123
100
AcDbLine
 10
217.3701143368416
 20
151.662754031844
 30
0.0
 11
219.8701143368416
 21
151.662754031844
 31
0.0
  0
LINE
  5
34C
330
348
100
AcDbEntity
  8
0
 62
   123
100
AcDbLine
 10
210.3701143368434
 20
151.662754031844
 30
0.0
 11
201.8701143368425
 21
151.662754031844
 31
0.0
  0
LINE
  5
34D
330
348
100
AcDbEntity
  8
0
 62
   123
100
AcDbLine
 10
214.8701143368416
 20
151.662754031844
 30
0.0
 11
212.8701143368434
 21
151.662754031844
 31
0.0
  0
SOLID
  5
34E
330
348
100
AcDbEntity
  8
0
 62
   123
100
AcDbTrace
 10
217.3701143368416
 20
152.0794206985107
 30
0.0
 11
217.3701143368416
 21
151.2460873651774
 31
0.0
 12
214.8701143368416
 22
151.662754031844
 32
0.0
 13
214.8701143368416
 23
151.662754031844
 33
0.0
  0
SOLID
  5
34F
330
348
100
AcDbEntity
  8
0
 62
   123
100
AcDbTrace
 10
210.3701143368434
 20
152.0794206985107
 30
0.0
 11
210.3701143368434
 21
151.2460873651774
 31
0.0
 12
212.8701143368434
 22
151.662754031844
 32
0.0
 13
212.8701143368434
 23
151.662754031844
 33
0.0
  0
MTEXT
  5
350
330
348
100
AcDbEntity
  8
0
 62
     3
100
AcDbMText
 10
203.8701143368425
 20
154.162754031844
 30
0.0
 40
3.0
 41
0.0
 71
     5
 72
     1
  1
\A1;2
1001
ACAD
1000
MTEXTBEGIN
1070
    73
1070
     1
1070
    44
1040
1.0
1070
    74
1070
     0
1000
MTEXTEND
  0
POINT
  5
351
330
348
100
AcDbEntity
  8
DEFPOINTS
 62
     0
100
AcDbPoint
 10
212.8701143368434
 20
135.5301004675948
 30
0.0
  0
POINT
  5
352
330
348
100
AcDbEntity
  8
DEFPOINTS
 62
     0
100
AcDbPoint
 10
214.8701143368416
 20
139.0301004675948
 30
0.0
  0
POINT
  5
353
330
348
100
AcDbEntity
  8
DEFPOINTS
 62
     0
100
AcDbPoint
 10
214.8701143368416
 20
151.662754031844
 30
0.0
  0
ENDBLK
  5
355
330
348
100
AcDbEntity
  8
0
100
AcDbBlockEnd
  0
BLOCK
  5
360
330
356
100
AcDbEntity
  8
0
100
AcDbBlockBegin
  2
*D31
 70
     1
 10
0.0
 20
0.0
 30
0.0
  3
*D31
  1

  0
LINE
  5
357
330
356
100
AcDbEntity
  8
0
 62
   123
100
AcDbLine
 10
176.8701143368425
 20
88.03010046759482
 30
0.0
 11
153.9331525754227
 21
88.03010046759483
 31
0.0
  0
LINE
  5
358
330
356
100
AcDbEntity
  8
0
 62
   123
100
AcDbLine
 10
206.8701143368425
 20
100.0301004675948
 30
0.0
 11
153.9331525754227
 21
100.0301004675948
 31
0.0
  0
LINE
  5
359
330
356
100
AcDbEntity
  8
0
 62
   123
100
AcDbLine
 10
154.5331525754227
 20
90.53010046759483
 30
0.0
 11
154.5331525754227
 21
97.53010046759484
 31
0.0
  0
SOLID
  5
35A
330
356
100
AcDbEntity
  8
0
 62
   123
100
AcDbTrace
 10
154.116485908756
 20
90.53010046759483
 30
0.0
 11
154.9498192420894
 21
90.53010046759483
 31
0.0
 12
154.5331525754227
 22
88.03010046759483
 32
0.0
 13
154.5331525754227
 23
88.03010046759483
 33
0.0
  0
SOLID
  5
35B
330
356
100
AcDbEntity
  8
0
 62
   123
100
AcDbTrace
 10
154.116485908756
 20
97.53010046759484
 30
0.0
 11
154.9498192420894
 21
97.53010046759484
 31
0.0
 12
154.5331525754227
 22
100.0301004675948
 32
0.0
 13
154.5331525754227
 23
100.0301004675948
 33
0.0
  0
MTEXT
  5
35C
330
356
100
AcDbEntity
  8
0
 62
     3
100
AcDbMText
 10
150.5830025754227
 20
94.03010046759485
 30
0.0
 40
3.0
 41
0.0
 71
     5
 72
     1
  1
\A1;\A1;{\f??|b0|i0|c0|p49;%%C}12{\f??|b0|i0|c0|p49;\H0.7x;\S+0^ -0.018;\H1.429x;(h}7{\f??|b0|i0|c0|p49;)}
 11
0.0000000000000001
 21
1.0
 31
0.0
1001
ACAD
1000
MTEXTBEGIN
1070
    73
1070
     1
1070
    44
1040
1.0
1070
    74
1070
     0
1000
MTEXTEND
  0
POINT
  5
35D
330
356
100
AcDbEntity
  8
DEFPOINTS
 62
     0
100
AcDbPoint
 10
177.8701143368425
 20
88.03010046759482
 30
0.0
  0
POINT
  5
35E
330
356
100
AcDbEntity
  8
DEFPOINTS
 62
     0
100
AcDbPoint
 10
207.8701143368425
 20
100.0301004675948
 30
0.0
  0
POINT
  5
35F
330
356
100
AcDbEntity
  8
DEFPOINTS
 62
     0
100
AcDbPoint
 10
154.5331525754227
 20
100.0301004675948
 30
0.0
  0
ENDBLK
  5
361
330
356
100
AcDbEntity
  8
0
100
AcDbBlockEnd
  0
BLOCK
  5
36C
330
362
100
AcDbEntity
  8
0
100
AcDbBlockBegin
  2
*D32
 70
     1
 10
0.0
 20
0.0
 30
0.0
  3
*D32
  1

  0
LINE
  5
363
330
362
100
AcDbEntity
  8
0
 62
   123
100
AcDbLine
 10
177.8701143368425
 20
100.0301004675948
 30
0.0
 11
177.8701143368425
 21
125.2273569549366
 31
0.0
  0
LINE
  5
364
330
362
100
AcDbEntity
  8
0
 62
   123
100
AcDbLine
 10
207.8701143368425
 20
101.0301004675948
 30
0.0
 11
207.8701143368425
 21
125.2273569549366
 31
0.0
  0
LINE
  5
365
330
362
100
AcDbEntity
  8
0
 62
   123
100
AcDbLine
 10
180.3701143368425
 20
124.6273569549366
 30
0.0
 11
205.3701143368425
 21
124.6273569549366
 31
0.0
  0
SOLID
  5
366
330
362
100
AcDbEntity
  8
0
 62
   123
100
AcDbTrace
 10
180.3701143368425
 20
125.0440236216033
 30
0.0
 11
180.3701143368425
 21
124.2106902882699
 31
0.0
 12
177.8701143368425
 22
124.6273569549366
 32
0.0
 13
177.8701143368425
 23
124.6273569549366
 33
0.0
  0
SOLID
  5
367
330
362
100
AcDbEntity
  8
0
 62
   123
100
AcDbTrace
 10
205.3701143368425
 20
125.0440236216033
 30
0.0
 11
205.3701143368425
 21
124.2106902882699
 31
0.0
 12
207.8701143368425
 22
124.6273569549366
 32
0.0
 13
207.8701143368425
 23
124.6273569549366
 33
0.0
  0
MTEXT
  5
368
330
362
100
AcDbEntity
  8
0
 62
     3
100
AcDbMText
 10
194.1287987013429
 20
127.1273569549366
 30
0.0
 40
3.0
 41
0.0
 71
     5
 72
     1
  1
\A1;30
1001
ACAD
1000
MTEXTBEGIN
1070
    73
1070
     1
1070
    44
1040
1.0
1070
    74
1070
     0
1000
MTEXTEND
  0
POINT
  5
369
330
362
100
AcDbEntity
  8
DEFPOINTS
 62
     0
100
AcDbPoint
 10
177.8701143368425
 20
99.03010046759483
 30
0.0
  0
POINT
  5
36A
330
362
100
AcDbEntity
  8
DEFPOINTS
 62
     0
100
AcDbPoint
 10
207.8701143368425
 20
100.0301004675948
 30
0.0
  0
POINT
  5
36B
330
362
100
AcDbEntity
  8
DEFPOINTS
 62
     0
100
AcDbPoint
 10
207.8701143368425
 20
124.6273569549366
 30
0.0
  0
ENDBLK
  5
36D
330
362
100
AcDbEntity
  8
0
100
AcDbBlockEnd
  0
BLOCK
  5
378
330
36E
100
AcDbEntity
  8
0
100
AcDbBlockBegin
  2
*D33
 70
     1
 10
0.0
 20
0.0
 30
0.0
  3
*D33
  1

  0
LINE
  5
36F
330
36E
100
AcDbEntity
  8
0
 62
   123
100
AcDbLine
 10
176.8701143368425
 20
88.03010046759482
 30
0.0
 11
164.801633456132
 21
88.03010046759482
 31
0.0
  0
LINE
  5
370
330
36E
100
AcDbEntity
  8
0
 62
   123
100
AcDbLine
 10
176.8701143368425
 20
99.03010046759483
 30
0.0
 11
164.801633456132
 21
99.03010046759483
 31
0.0
  0
LINE
  5
371
330
36E
100
AcDbEntity
  8
0
 62
   123
100
AcDbLine
 10
165.401633456132
 20
90.53010046759482
 30
0.0
 11
165.401633456132
 21
96.53010046759483
 31
0.0
  0
SOLID
  5
372
330
36E
100
AcDbEntity
  8
0
 62
   123
100
AcDbTrace
 10
164.9849667894653
 20
90.53010046759482
 30
0.0
 11
165.8183001227986
 21
90.53010046759482
 31
0.0
 12
165.401633456132
 22
88.03010046759482
 32
0.0
 13
165.401633456132
 23
88.03010046759482
 33
0.0
  0
SOLID
  5
373
330
36E
100
AcDbEntity
  8
0
 62
   123
100
AcDbTrace
 10
164.9849667894653
 20
96.53010046759483
 30
0.0
 11
165.8183001227986
 21
96.53010046759483
 31
0.0
 12
165.401633456132
 22
99.03010046759483
 32
0.0
 13
165.401633456132
 23
99.03010046759483
 33
0.0
  0
MTEXT
  5
374
330
36E
100
AcDbEntity
  8
0
 62
     3
100
AcDbMText
 10
162.901633456132
 20
93.53010046759482
 30
0.0
 40
3.0
 41
0.0
 71
     5
 72
     1
  1
\A1;11
 11
0.0000000000000001
 21
1.0
 31
0.0
1001
ACAD
1000
MTEXTBEGIN
1070
    73
1070
     1
1070
    44
1040
1.0
1070
    74
1070
     0
1000
MTEXTEND
  0
POINT
  5
375
330
36E
100
AcDbEntity
  8
DEFPOINTS
 62
     0
100
AcDbPoint
 10
177.8701143368425
 20
88.03010046759482
 30
0.0
  0
POINT
  5
376
330
36E
100
AcDbEntity
  8
DEFPOINTS
 62
     0
100
AcDbPoint
 10
177.8701143368425
 20
99.03010046759483
 30
0.0
  0
POINT
  5
377
330
36E
100
AcDbEntity
  8
DEFPOINTS
 62
     0
100
AcDbPoint
 10
165.401633456132
 20
99.03010046759483
 30
0.0
  0
ENDBLK
  5
379
330
36E
100
AcDbEntity
  8
0
100
AcDbBlockEnd
  0
BLOCK
  5
384
330
37A
100
AcDbEntity
  8
0
100
AcDbBlockBegin
  2
*D34
 70
     1
 10
0.0
 20
0.0
 30
0.0
  3
*D34
  1

  0
LINE
  5
37B
330
37A
100
AcDbEntity
  8
0
 62
   123
100
AcDbLine
 10
13.06827678285571
 20
134.9873067087974
 30
0.0
 11
13.06827678285572
 21
158.0947239186913
 31
0.0
  0
LINE
  5
37C
330
37A
100
AcDbEntity
  8
0
 62
   123
100
AcDbLine
 10
103.068276782852
 20
134.9873067087974
 30
0.0
 11
103.068276782852
 21
158.0947239186913
 31
0.0
  0
LINE
  5
37D
330
37A
100
AcDbEntity
  8
0
 62
   123
100
AcDbLine
 10
15.56827678285572
 20
157.4947239186912
 30
0.0
 11
100.568276782852
 21
157.4947239186912
 31
0.0
  0
SOLID
  5
37E
330
37A
100
AcDbEntity
  8
0
 62
   123
100
AcDbTrace
 10
15.56827678285572
 20
157.9113905853579
 30
0.0
 11
15.56827678285572
 21
157.0780572520246
 31
0.0
 12
13.06827678285572
 22
157.4947239186912
 32
0.0
 13
13.06827678285572
 23
157.4947239186912
 33
0.0
  0
SOLID
  5
37F
330
37A
100
AcDbEntity
  8
0
 62
   123
100
AcDbTrace
 10
100.568276782852
 20
157.9113905853579
 30
0.0
 11
100.568276782852
 21
157.0780572520246
 31
0.0
 12
103.068276782852
 22
157.4947239186912
 32
0.0
 13
103.068276782852
 23
157.4947239186912
 33
0.0
  0
MTEXT
  5
380
330
37A
100
AcDbEntity
  8
0
 62
     3
100
AcDbMText
 10
58.06827678285208
 20
159.9947239186913
 30
0.0
 40
3.0
 41
0.0
 71
     5
 72
     1
  1
\A1;90
1001
ACAD
1000
MTEXTBEGIN
1070
    73
1070
     1
1070
    44
1040
1.0
1070
    74
1070
     0
1000
MTEXTEND
  0
POINT
  5
381
330
37A
100
AcDbEntity
  8
DEFPOINTS
 62
     0
100
AcDbPoint
 10
13.06827678285571
 20
133.9873067087974
 30
0.0
  0
POINT
  5
382
330
37A
100
AcDbEntity
  8
DEFPOINTS
 62
     0
100
AcDbPoint
 10
103.068276782852
 20
133.9873067087974
 30
0.0
  0
POINT
  5
383
330
37A
100
AcDbEntity
  8
DEFPOINTS
 62
     0
100
AcDbPoint
 10
103.068276782852
 20
157.4947239186912
 30
0.0
  0
ENDBLK
  5
385
330
37A
100
AcDbEntity
  8
0
100
AcDbBlockEnd
  0
BLOCK
  5
390
330
386
100
AcDbEntity
  8
0
100
AcDbBlockBegin
  2
*D35
 70
     1
 10
0.0
 20
0.0
 30
0.0
  3
*D35
  1

  0
LINE
  5
387
330
386
100
AcDbEntity
  8
0
 62
   123
100
AcDbLine
 10
12.06827678285208
 20
124.0301004675939
 30
0.0
 11
12.06827678285208
 21
169.4853864104139
 31
0.0
  0
LINE
  5
388
330
386
100
AcDbEntity
  8
0
 62
   123
100
AcDbLine
 10
104.0682767828548
 20
124.0301004675939
 30
0.0
 11
104.0682767828548
 21
169.4853864104139
 31
0.0
  0
LINE
  5
389
330
386
100
AcDbEntity
  8
0
 62
   123
100
AcDbLine
 10
14.56827678285208
 20
168.8853864104139
 30
0.0
 11
101.5682767828548
 21
168.8853864104139
 31
0.0
  0
SOLID
  5
38A
330
386
100
AcDbEntity
  8
0
 62
   123
100
AcDbTrace
 10
14.56827678285208
 20
169.3020530770806
 30
0.0
 11
14.56827678285208
 21
168.4687197437473
 31
0.0
 12
12.06827678285208
 22
168.8853864104139
 32
0.0
 13
12.06827678285208
 23
168.8853864104139
 33
0.0
  0
SOLID
  5
38B
330
386
100
AcDbEntity
  8
0
 62
   123
100
AcDbTrace
 10
101.5682767828548
 20
169.3020530770806
 30
0.0
 11
101.5682767828548
 21
168.4687197437473
 31
0.0
 12
104.0682767828548
 22
168.8853864104139
 32
0.0
 13
104.0682767828548
 23
168.8853864104139
 33
0.0
  0
MTEXT
  5
38C
330
386
100
AcDbEntity
  8
0
 62
     3
100
AcDbMText
 10
58.06827678285208
 20
171.3853864104139
 30
0.0
 40
3.0
 41
0.0
 71
     5
 72
     1
  1
\A1;92
1001
ACAD
1000
MTEXTBEGIN
1070
    73
1070
     1
1070
    44
1040
1.0
1070
    74
1070
     0
1000
MTEXTEND
  0
POINT
  5
38D
330
386
100
AcDbEntity
  8
DEFPOINTS
 62
     0
100
AcDbPoint
 10
12.06827678285208
 20
123.0301004675939
 30
0.0
  0
POINT
  5
38E
330
386
100
AcDbEntity
  8
DEFPOINTS
 62
     0
100
AcDbPoint
 10
104.0682767828548
 20
123.0301004675939
 30
0.0
  0
POINT
  5
38F
330
386
100
AcDbEntity
  8
DEFPOINTS
 62
     0
100
AcDbPoint
 10
104.0682767828548
 20
168.8853864104139
 30
0.0
  0
ENDBLK
  5
391
330
386
100
AcDbEntity
  8
0
100
AcDbBlockEnd
  0
BLOCK
  5
39C
330
392
100
AcDbEntity
  8
0
100
AcDbBlockBegin
  2
*D36
 70
     1
 10
0.0
 20
0.0
 30
0.0
  3
*D36
  1

  0
LINE
  5
393
330
392
100
AcDbEntity
  8
0
 62
   123
100
AcDbLine
 10
214.8701143368416
 20
140.2384338009278
 30
0.0
 11
214.8701143368416
 21
152.262754031844
 31
0.0
  0
LINE
  5
394
330
392
100
AcDbEntity
  8
0
 62
   123
100
AcDbLine
 10
222.3701143368425
 20
138.628837809123
 30
0.0
 11
222.3701143368425
 21
152.262754031844
 31
0.0
  0
LINE
  5
395
330
392
100
AcDbEntity
  8
0
 62
   123
100
AcDbLine
 10
217.3701143368416
 20
151.662754031844
 30
0.0
 11
219.8701143368425
 21
151.662754031844
 31
0.0
  0
SOLID
  5
396
330
392
100
AcDbEntity
  8
0
 62
   123
100
AcDbTrace
 10
217.3701143368416
 20
152.0794206985107
 30
0.0
 11
217.3701143368416
 21
151.2460873651774
 31
0.0
 12
214.8701143368416
 22
151.662754031844
 32
0.0
 13
214.8701143368416
 23
151.662754031844
 33
0.0
  0
SOLID
  5
397
330
392
100
AcDbEntity
  8
0
 62
   123
100
AcDbTrace
 10
219.8701143368425
 20
152.0794206985107
 30
0.0
 11
219.8701143368425
 21
151.2460873651774
 31
0.0
 12
222.3701143368425
 22
151.662754031844
 32
0.0
 13
222.3701143368425
 23
151.662754031844
 33
0.0
  0
MTEXT
  5
398
330
392
100
AcDbEntity
  8
0
 62
     3
100
AcDbMText
 10
218.6201143368421
 20
154.162754031844
 30
0.0
 40
3.0
 41
0.0
 71
     5
 72
     1
  1
\A1;7.5
1001
ACAD
1000
MTEXTBEGIN
1070
    73
1070
     1
1070
    44
1040
1.0
1070
    74
1070
     0
1000
MTEXTEND
  0
POINT
  5
399
330
392
100
AcDbEntity
  8
DEFPOINTS
 62
     0
100
AcDbPoint
 10
214.8701143368416
 20
139.2384338009278
 30
0.0
  0
POINT
  5
39A
330
392
100
AcDbEntity
  8
DEFPOINTS
 62
     0
100
AcDbPoint
 10
222.3701143368425
 20
137.628837809123
 30
0.0
  0
POINT
  5
39B
330
392
100
AcDbEntity
  8
DEFPOINTS
 62
     0
100
AcDbPoint
 10
222.3701143368425
 20
151.662754031844
 30
0.0
  0
ENDBLK
  5
39D
330
392
100
AcDbEntity
  8
0
100
AcDbBlockEnd
  0
BLOCK
  5
3A8
330
39E
100
AcDbEntity
  8
0
100
AcDbBlockBegin
  2
*D37
 70
     1
 10
0.0
 20
0.0
 30
0.0
  3
*D37
  1

  0
LINE
  5
39F
330
39E
100
AcDbEntity
  8
0
 62
   123
100
AcDbLine
 10
181.9809941616886
 20
341.9528686726407
 30
0.0
 11
181.9809941616886
 21
363.9471650759902
 31
0.0
  0
LINE
  5
3A0
330
39E
100
AcDbEntity
  8
0
 62
   123
100
AcDbLine
 10
361.9799163623383
 20
340.132681961606
 30
0.0
 11
361.9799163623383
 21
363.9471650759902
 31
0.0
  0
LINE
  5
3A1
330
39E
100
AcDbEntity
  8
0
 62
   123
100
AcDbLine
 10
184.4809941616886
 20
363.3471650759902
 30
0.0
 11
359.4799163623383
 21
363.3471650759902
 31
0.0
  0
SOLID
  5
3A2
330
39E
100
AcDbEntity
  8
0
 62
   123
100
AcDbTrace
 10
184.4809941616886
 20
363.7638317426569
 30
0.0
 11
184.4809941616886
 21
362.9304984093235
 31
0.0
 12
181.9809941616886
 22
363.3471650759902
 32
0.0
 13
181.9809941616886
 23
363.3471650759902
 33
0.0
  0
SOLID
  5
3A3
330
39E
100
AcDbEntity
  8
0
 62
   123
100
AcDbTrace
 10
359.4799163623383
 20
363.7638317426569
 30
0.0
 11
359.4799163623383
 21
362.9304984093235
 31
0.0
 12
361.9799163623383
 22
363.3471650759902
 32
0.0
 13
361.9799163623383
 23
363.3471650759902
 33
0.0
  0
MTEXT
  5
3A4
330
39E
100
AcDbEntity
  8
0
 62
     3
100
AcDbMText
 10
257.4804552620134
 20
365.8471650759902
 30
0.0
 40
3.0
 41
0.0
 71
     5
 72
     1
  1
\A1;180
1001
ACAD
1000
MTEXTBEGIN
1070
    73
1070
     1
1070
    44
1040
1.0
1070
    74
1070
     0
1000
MTEXTEND
  0
POINT
  5
3A5
330
39E
100
AcDbEntity
  8
DEFPOINTS
 62
     0
100
AcDbPoint
 10
181.9809941616886
 20
340.9528686726407
 30
0.0
  0
POINT
  5
3A6
330
39E
100
AcDbEntity
  8
DEFPOINTS
 62
     0
100
AcDbPoint
 10
361.9799163623383
 20
339.132681961606
 30
0.0
  0
POINT
  5
3A7
330
39E
100
AcDbEntity
  8
DEFPOINTS
 62
     0
100
AcDbPoint
 10
361.9799163623383
 20
363.3471650759902
 30
0.0
  0
ENDBLK
  5
3A9
330
39E
100
AcDbEntity
  8
0
100
AcDbBlockEnd
  0
BLOCK
  5
3B4
330
3AA
100
AcDbEntity
  8
0
100
AcDbBlockBegin
  2
*D38
 70
     1
 10
0.0
 20
0.0
 30
0.0
  3
*D38
  1

  0
LINE
  5
3AB
330
3AA
100
AcDbEntity
  8
0
 62
   123
100
AcDbLine
 10
20.60305746029734
 20
325.9528686726416
 30
0.0
 11
20.60305746029735
 21
371.4081546154617
 31
0.0
  0
LINE
  5
3AC
330
3AA
100
AcDbEntity
  8
0
 62
   123
100
AcDbLine
 10
112.6030574603019
 20
325.9528686726416
 30
0.0
 11
112.6030574603019
 21
371.4081546154617
 31
0.0
  0
LINE
  5
3AD
330
3AA
100
AcDbEntity
  8
0
 62
   123
100
AcDbLine
 10
23.10305746029735
 20
370.8081546154617
 30
0.0
 11
110.1030574603018
 21
370.8081546154617
 31
0.0
  0
SOLID
  5
3AE
330
3AA
100
AcDbEntity
  8
0
 62
   123
100
AcDbTrace
 10
23.10305746029735
 20
371.2248212821283
 30
0.0
 11
23.10305746029735
 21
370.391487948795
 31
0.0
 12
20.60305746029735
 22
370.8081546154617
 32
0.0
 13
20.60305746029735
 23
370.8081546154617
 33
0.0
  0
SOLID
  5
3AF
330
3AA
100
AcDbEntity
  8
0
 62
   123
100
AcDbTrace
 10
110.1030574603018
 20
371.2248212821283
 30
0.0
 11
110.1030574603018
 21
370.391487948795
 31
0.0
 12
112.6030574603019
 22
370.8081546154617
 32
0.0
 13
112.6030574603019
 23
370.8081546154617
 33
0.0
  0
MTEXT
  5
3B0
330
3AA
100
AcDbEntity
  8
0
 62
     3
100
AcDbMText
 10
66.60305746029826
 20
373.3081546154617
 30
0.0
 40
3.0
 41
0.0
 71
     5
 72
     1
  1
\A1;92
1001
ACAD
1000
MTEXTBEGIN
1070
    73
1070
     1
1070
    44
1040
1.0
1070
    74
1070
     0
1000
MTEXTEND
  0
POINT
  5
3B1
330
3AA
100
AcDbEntity
  8
DEFPOINTS
 62
     0
100
AcDbPoint
 10
20.60305746029734
 20
324.9528686726416
 30
0.0
  0
POINT
  5
3B2
330
3AA
100
AcDbEntity
  8
DEFPOINTS
 62
     0
100
AcDbPoint
 10
112.6030574603019
 20
324.9528686726416
 30
0.0
  0
POINT
  5
3B3
330
3AA
100
AcDbEntity
  8
DEFPOINTS
 62
     0
100
AcDbPoint
 10
112.6030574603019
 20
370.8081546154617
 30
0.0
  0
ENDBLK
  5
3B5
330
3AA
100
AcDbEntity
  8
0
100
AcDbBlockEnd
  0
BLOCK
  5
3C0
330
3B6
100
AcDbEntity
  8
0
100
AcDbBlockBegin
  2
*D39
 70
     1
 10
0.0
 20
0.0
 30
0.0
  3
*D39
  1

  0
LINE
  5
3B7
330
3B6
100
AcDbEntity
  8
0
 62
   123
100
AcDbLine
 10
21.60305746030098
 20
336.9100749138424
 30
0.0
 11
21.60305746030098
 21
360.0174921237363
 31
0.0
  0
LINE
  5
3B8
330
3B6
100
AcDbEntity
  8
0
 62
   123
100
AcDbLine
 10
111.6030574602973
 20
336.9100749138424
 30
0.0
 11
111.6030574602973
 21
360.0174921237363
 31
0.0
  0
LINE
  5
3B9
330
3B6
100
AcDbEntity
  8
0
 62
   123
100
AcDbLine
 10
24.10305746030099
 20
359.4174921237363
 30
0.0
 11
109.1030574602973
 21
359.4174921237363
 31
0.0
  0
SOLID
  5
3BA
330
3B6
100
AcDbEntity
  8
0
 62
   123
100
AcDbTrace
 10
24.10305746030099
 20
359.834158790403
 30
0.0
 11
24.10305746030099
 21
359.0008254570696
 31
0.0
 12
21.60305746030098
 22
359.4174921237363
 32
0.0
 13
21.60305746030098
 23
359.4174921237363
 33
0.0
  0
SOLID
  5
3BB
330
3B6
100
AcDbEntity
  8
0
 62
   123
100
AcDbTrace
 10
109.1030574602973
 20
359.834158790403
 30
0.0
 11
109.1030574602973
 21
359.0008254570696
 31
0.0
 12
111.6030574602973
 22
359.4174921237363
 32
0.0
 13
111.6030574602973
 23
359.4174921237363
 33
0.0
  0
MTEXT
  5
3BC
330
3B6
100
AcDbEntity
  8
0
 62
     3
100
AcDbMText
 10
66.60305746029826
 20
361.9174921237363
 30
0.0
 40
3.0
 41
0.0
 71
     5
 72
     1
  1
\A1;90
1001
ACAD
1000
MTEXTBEGIN
1070
    73
1070
     1
1070
    44
1040
1.0
1070
    74
1070
     0
1000
MTEXTEND
  0
POINT
  5
3BD
330
3B6
100
AcDbEntity
  8
DEFPOINTS
 62
     0
100
AcDbPoint
 10
21.60305746030098
 20
335.9100749138424
 30
0.0
  0
POINT
  5
3BE
330
3B6
100
AcDbEntity
  8
DEFPOINTS
 62
     0
100
AcDbPoint
 10
111.6030574602973
 20
335.9100749138424
 30
0.0
  0
POINT
  5
3BF
330
3B6
100
AcDbEntity
  8
DEFPOINTS
 62
     0
100
AcDbPoint
 10
111.6030574602973
 20
359.4174921237363
 30
0.0
  0
ENDBLK
  5
3C1
330
3B6
100
AcDbEntity
  8
0
100
AcDbBlockEnd
  0
BLOCK
  5
3CC
330
3C2
100
AcDbEntity
  8
0
100
AcDbBlockBegin
  2
*D40
 70
     1
 10
0.0
 20
0.0
 30
0.0
  3
*D40
  1

  0
LINE
  5
3C3
330
3C2
100
AcDbEntity
  8
0
 62
   123
100
AcDbLine
 10
160.9809941616895
 20
301.6028686726404
 30
0.0
 11
160.9809941616895
 21
363.9471650759902
 31
0.0
  0
LINE
  5
3C4
330
3C2
100
AcDbEntity
  8
0
 62
   123
100
AcDbLine
 10
181.9809941616886
 20
342.1612020059756
 30
0.0
 11
181.9809941616886
 21
363.9471650759902
 31
0.0
  0
LINE
  5
3C5
330
3C2
100
AcDbEntity
  8
0
 62
   123
100
AcDbLine
 10
163.4809941616895
 20
363.3471650759902
 30
0.0
 11
179.4809941616886
 21
363.3471650759902
 31
0.0
  0
SOLID
  5
3C6
330
3C2
100
AcDbEntity
  8
0
 62
   123
100
AcDbTrace
 10
163.4809941616895
 20
363.7638317426569
 30
0.0
 11
163.4809941616895
 21
362.9304984093235
 31
0.0
 12
160.9809941616895
 22
363.3471650759902
 32
0.0
 13
160.9809941616895
 23
363.3471650759902
 33
0.0
  0
SOLID
  5
3C7
330
3C2
100
AcDbEntity
  8
0
 62
   123
100
AcDbTrace
 10
179.4809941616886
 20
363.7638317426569
 30
0.0
 11
179.4809941616886
 21
362.9304984093235
 31
0.0
 12
181.9809941616886
 22
363.3471650759902
 32
0.0
 13
181.9809941616886
 23
363.3471650759902
 33
0.0
  0
MTEXT
  5
3C8
330
3C2
100
AcDbEntity
  8
0
 62
     3
100
AcDbMText
 10
171.4809941616895
 20
365.8471650759902
 30
0.0
 40
3.0
 41
0.0
 71
     5
 72
     1
  1
\A1;21
1001
ACAD
1000
MTEXTBEGIN
1070
    73
1070
     1
1070
    44
1040
1.0
1070
    74
1070
     0
1000
MTEXTEND
  0
POINT
  5
3C9
330
3C2
100
AcDbEntity
  8
DEFPOINTS
 62
     0
100
AcDbPoint
 10
160.9809941616895
 20
300.6028686726403
 30
0.0
  0
POINT
  5
3CA
330
3C2
100
AcDbEntity
  8
DEFPOINTS
 62
     0
100
AcDbPoint
 10
181.9809941616886
 20
341.1612020059756
 30
0.0
  0
POINT
  5
3CB
330
3C2
100
AcDbEntity
  8
DEFPOINTS
 62
     0
100
AcDbPoint
 10
181.9809941616886
 20
363.3471650759902
 30
0.0
  0
ENDBLK
  5
3CD
330
3C2
100
AcDbEntity
  8
0
100
AcDbBlockEnd
  0
BLOCK
  5
3D8
330
3CE
100
AcDbEntity
  8
0
100
AcDbBlockBegin
  2
*D41
 70
     1
 10
0.0
 20
0.0
 30
0.0
  3
*D41
  1

  0
LINE
  5
3CF
330
3CE
100
AcDbEntity
  8
0
 62
   123
100
AcDbLine
 10
181.9809941616886
 20
342.1612020059756
 30
0.0
 11
181.9809941616886
 21
354.18552223689
 31
0.0
  0
LINE
  5
3D0
330
3CE
100
AcDbEntity
  8
0
 62
   123
100
AcDbLine
 10
189.4809941616886
 20
340.5516060141699
 30
0.0
 11
189.4809941616886
 21
354.18552223689
 31
0.0
  0
LINE
  5
3D1
330
3CE
100
AcDbEntity
  8
0
 62
   123
100
AcDbLine
 10
184.4809941616886
 20
353.58552223689
 30
0.0
 11
186.9809941616886
 21
353.58552223689
 31
0.0
  0
SOLID
  5
3D2
330
3CE
100
AcDbEntity
  8
0
 62
   123
100
AcDbTrace
 10
184.4809941616886
 20
354.0021889035567
 30
0.0
 11
184.4809941616886
 21
353.1688555702233
 31
0.0
 12
181.9809941616886
 22
353.58552223689
 32
0.0
 13
181.9809941616886
 23
353.58552223689
 33
0.0
  0
SOLID
  5
3D3
330
3CE
100
AcDbEntity
  8
0
 62
   123
100
AcDbTrace
 10
186.9809941616886
 20
354.0021889035567
 30
0.0
 11
186.9809941616886
 21
353.1688555702233
 31
0.0
 12
189.4809941616886
 22
353.58552223689
 32
0.0
 13
189.4809941616886
 23
353.58552223689
 33
0.0
  0
MTEXT
  5
3D4
330
3CE
100
AcDbEntity
  8
0
 62
     3
100
AcDbMText
 10
185.7309941616886
 20
356.08552223689
 30
0.0
 40
3.0
 41
0.0
 71
     5
 72
     1
  1
\A1;7.5
1001
ACAD
1000
MTEXTBEGIN
1070
    73
1070
     1
1070
    44
1040
1.0
1070
    74
1070
     0
1000
MTEXTEND
  0
POINT
  5
3D5
330
3CE
100
AcDbEntity
  8
DEFPOINTS
 62
     0
100
AcDbPoint
 10
181.9809941616886
 20
341.1612020059756
 30
0.0
  0
POINT
  5
3D6
330
3CE
100
AcDbEntity
  8
DEFPOINTS
 62
     0
100
AcDbPoint
 10
189.4809941616886
 20
339.5516060141699
 30
0.0
  0
POINT
  5
3D7
330
3CE
100
AcDbEntity
  8
DEFPOINTS
 62
     0
100
AcDbPoint
 10
189.4809941616886
 20
353.58552223689
 30
0.0
  0
ENDBLK
  5
3D9
330
3CE
100
AcDbEntity
  8
0
100
AcDbBlockEnd
  0
BLOCK
  5
3E6
330
3DA
100
AcDbEntity
  8
0
100
AcDbBlockBegin
  2
*D42
 70
     1
 10
0.0
 20
0.0
 30
0.0
  3
*D42
  1

  0
LINE
  5
3DB
330
3DA
100
AcDbEntity
  8
0
 62
   123
100
AcDbLine
 10
179.9809941616886
 20
338.4528686726416
 30
0.0
 11
179.9809941616886
 21
354.18552223689
 31
0.0
  0
LINE
  5
3DC
330
3DA
100
AcDbEntity
  8
0
 62
   123
100
AcDbLine
 10
181.9809941616886
 20
341.9528686726407
 30
0.0
 11
181.9809941616886
 21
354.18552223689
 31
0.0
  0
LINE
  5
3DD
330
3DA
100
AcDbEntity
  8
0
 62
   123
100
AcDbLine
 10
184.4809941616886
 20
353.58552223689
 30
0.0
 11
186.9809941616886
 21
353.58552223689
 31
0.0
  0
LINE
  5
3DE
330
3DA
100
AcDbEntity
  8
0
 62
   123
100
AcDbLine
 10
177.4809941616886
 20
353.58552223689
 30
0.0
 11
168.9809941616886
 21
353.58552223689
 31
0.0
  0
LINE
  5
3DF
330
3DA
100
AcDbEntity
  8
0
 62
   123
100
AcDbLine
 10
181.9809941616886
 20
353.58552223689
 30
0.0
 11
179.9809941616886
 21
353.58552223689
 31
0.0
  0
SOLID
  5
3E0
330
3DA
100
AcDbEntity
  8
0
 62
   123
100
AcDbTrace
 10
184.4809941616886
 20
354.0021889035567
 30
0.0
 11
184.4809941616886
 21
353.1688555702233
 31
0.0
 12
181.9809941616886
 22
353.58552223689
 32
0.0
 13
181.9809941616886
 23
353.58552223689
 33
0.0
  0
SOLID
  5
3E1
330
3DA
100
AcDbEntity
  8
0
 62
   123
100
AcDbTrace
 10
177.4809941616886
 20
354.0021889035567
 30
0.0
 11
177.4809941616886
 21
353.1688555702233
 31
0.0
 12
179.9809941616886
 22
353.58552223689
 32
0.0
 13
179.9809941616886
 23
353.58552223689
 33
0.0
  0
MTEXT
  5
3E2
330
3DA
100
AcDbEntity
  8
0
 62
     3
100
AcDbMText
 10
170.9809941616886
 20
356.08552223689
 30
0.0
 40
3.0
 41
0.0
 71
     5
 72
     1
  1
\A1;2
1001
ACAD
1000
MTEXTBEGIN
1070
    73
1070
     1
1070
    44
1040
1.0
1070
    74
1070
     0
1000
MTEXTEND
  0
POINT
  5
3E3
330
3DA
100
AcDbEntity
  8
DEFPOINTS
 62
     0
100
AcDbPoint
 10
179.9809941616886
 20
337.4528686726416
 30
0.0
  0
POINT
  5
3E4
330
3DA
100
AcDbEntity
  8
DEFPOINTS
 62
     0
100
AcDbPoint
 10
181.9809941616886
 20
340.9528686726407
 30
0.0
  0
POINT
  5
3E5
330
3DA
100
AcDbEntity
  8
DEFPOINTS
 62
     0
100
AcDbPoint
 10
181.9809941616886
 20
353.58552223689
 30
0.0
  0
ENDBLK
  5
3E7
330
3DA
100
AcDbEntity
  8
0
100
AcDbBlockEnd
  0
BLOCK
  5
3F2
330
3E8
100
AcDbEntity
  8
0
100
AcDbBlockBegin
  2
*D43
 70
     1
 10
0.0
 20
0.0
 30
0.0
  3
*D43
  1

  0
LINE
  5
3E9
330
3E8
100
AcDbEntity
  8
0
 62
   123
100
AcDbLine
 10
178.9809941616886
 20
337.4528686726416
 30
0.0
 11
149.6155455638877
 21
337.4528686726416
 31
0.0
  0
LINE
  5
3EA
330
3E8
100
AcDbEntity
  8
0
 62
   123
100
AcDbLine
 10
178.9809941616886
 20
254.4528686726416
 30
0.0
 11
149.6155455638876
 21
254.4528686726416
 31
0.0
  0
LINE
  5
3EB
330
3E8
100
AcDbEntity
  8
0
 62
   123
100
AcDbLine
 10
150.2155455638876
 20
334.9528686726416
 30
0.0
 11
150.2155455638876
 21
256.9528686726416
 31
0.0
  0
SOLID
  5
3EC
330
3E8
100
AcDbEntity
  8
0
 62
   123
100
AcDbTrace
 10
149.798878897221
 20
334.9528686726416
 30
0.0
 11
150.6322122305543
 21
334.9528686726416
 31
0.0
 12
150.2155455638876
 22
337.4528686726416
 32
0.0
 13
150.2155455638876
 23
337.4528686726416
 33
0.0
  0
SOLID
  5
3ED
330
3E8
100
AcDbEntity
  8
0
 62
   123
100
AcDbTrace
 10
149.798878897221
 20
256.9528686726416
 30
0.0
 11
150.6322122305543
 21
256.9528686726416
 31
0.0
 12
150.2155455638876
 22
254.4528686726416
 32
0.0
 13
150.2155455638876
 23
254.4528686726416
 33
0.0
  0
MTEXT
  5
3EE
330
3E8
100
AcDbEntity
  8
0
 62
     3
100
AcDbMText
 10
146.2653955638876
 20
297.3178253053938
 30
0.0
 40
3.0
 41
0.0
 71
     5
 72
     1
  1
\A1;\A1;{\f??|b0|i0|c0|p49;%%C}83{\f??|b0|i0|c0|p49;\H0.7x;\S+0^ -0.035;\H1.429x;(h}7{\f??|b0|i0|c0|p49;)}
 11
0.0000000000000001
 21
1.0
 31
0.0
1001
ACAD
1000
MTEXTBEGIN
1070
    73
1070
     1
1070
    44
1040
1.0
1070
    74
1070
     0
1000
MTEXTEND
  0
POINT
  5
3EF
330
3E8
100
AcDbEntity
  8
DEFPOINTS
 62
     0
100
AcDbPoint
 10
179.9809941616886
 20
337.4528686726416
 30
0.0
  0
POINT
  5
3F0
330
3E8
100
AcDbEntity
  8
DEFPOINTS
 62
     0
100
AcDbPoint
 10
179.9809941616886
 20
254.4528686726416
 30
0.0
  0
POINT
  5
3F1
330
3E8
100
AcDbEntity
  8
DEFPOINTS
 62
     0
100
AcDbPoint
 10
150.2155455638876
 20
254.4528686726416
 30
0.0
  0
ENDBLK
  5
3F3
330
3E8
100
AcDbEntity
  8
0
100
AcDbBlockEnd
  0
BLOCK
  5
3FE
330
3F4
100
AcDbEntity
  8
0
100
AcDbBlockBegin
  2
*D44
 70
     1
 10
0.0
 20
0.0
 30
0.0
  3
*D44
  1

  0
LINE
  5
3F5
330
3F4
100
AcDbEntity
  8
0
 62
   123
100
AcDbLine
 10
360.9799163623365
 20
342.132681961606
 30
0.0
 11
382.466377198885
 21
342.132681961606
 31
0.0
  0
LINE
  5
3F6
330
3F4
100
AcDbEntity
  8
0
 62
   123
100
AcDbLine
 10
360.9799163623365
 20
250.1326819616051
 30
0.0
 11
382.466377198885
 21
250.1326819616051
 31
0.0
  0
LINE
  5
3F7
330
3F4
100
AcDbEntity
  8
0
 62
   123
100
AcDbLine
 10
381.866377198885
 20
339.632681961606
 30
0.0
 11
381.866377198885
 21
252.6326819616051
 31
0.0
  0
SOLID
  5
3F8
330
3F4
100
AcDbEntity
  8
0
 62
   123
100
AcDbTrace
 10
381.4497105322183
 20
339.632681961606
 30
0.0
 11
382.2830438655516
 21
339.632681961606
 31
0.0
 12
381.866377198885
 22
342.132681961606
 32
0.0
 13
381.866377198885
 23
342.132681961606
 33
0.0
  0
SOLID
  5
3F9
330
3F4
100
AcDbEntity
  8
0
 62
   123
100
AcDbTrace
 10
381.4497105322183
 20
252.6326819616051
 30
0.0
 11
382.2830438655516
 21
252.6326819616051
 31
0.0
 12
381.866377198885
 22
250.1326819616051
 32
0.0
 13
381.866377198885
 23
250.1326819616051
 33
0.0
  0
MTEXT
  5
3FA
330
3F4
100
AcDbEntity
  8
0
 62
     3
100
AcDbMText
 10
379.3663771988849
 20
296.132681961606
 30
0.0
 40
3.0
 41
0.0
 71
     5
 72
     1
  1
\A1;92
 11
0.0000000000000001
 21
1.0
 31
0.0
1001
ACAD
1000
MTEXTBEGIN
1070
    73
1070
     1
1070
    44
1040
1.0
1070
    74
1070
     0
1000
MTEXTEND
  0
POINT
  5
3FB
330
3F4
100
AcDbEntity
  8
DEFPOINTS
 62
     0
100
AcDbPoint
 10
359.9799163623365
 20
342.132681961606
 30
0.0
  0
POINT
  5
3FC
330
3F4
100
AcDbEntity
  8
DEFPOINTS
 62
     0
100
AcDbPoint
 10
359.9799163623365
 20
250.1326819616051
 30
0.0
  0
POINT
  5
3FD
330
3F4
100
AcDbEntity
  8
DEFPOINTS
 62
     0
100
AcDbPoint
 10
381.866377198885
 20
250.1326819616051
 30
0.0
  0
ENDBLK
  5
3FF
330
3F4
100
AcDbEntity
  8
0
100
AcDbBlockEnd
  0
ENDSEC
  0
SECTION
  2
ENTITIES
  0
DIMENSION
  5
9D
330
2
100
AcDbEntity
  8
0
100
AcDbDimension
  2
*D26
 10
414.755497374037
 20
48.20991375655921
 30
0.0
 11
414.755497374037
 21
94.20991375656013
 31
0.0
 70
   160
  3
STANDARD
100
AcDbAlignedDimension
 13
392.8690365374878
 23
140.2099137565601
 33
0.0
 14
392.8690365374878
 24
48.20991375655921
 34
0.0
 50
90.0
100
AcDbRotatedDimension
  0
LINE
  5
AC
330
2
100
AcDbEntity
  8
0
100
AcDbLine
 10
394.8690365374896
 20
137.2099137565601
 30
0.0
 11
394.8690365374896
 21
51.20991375656013
 31
0.0
  0
LINE
  5
AD
330
2
100
AcDbEntity
  8
0
100
AcDbLine
 10
336.210149044532
 20
140.2099137565601
 30
0.0
 11
336.210149044532
 21
48.20991375655921
 31
0.0
  0
LINE
  5
AE
330
2
100
AcDbEntity
  8
0
100
AcDbLine
 10
214.8701143368416
 20
139.0301004675948
 30
0.0
 11
214.8701143368416
 21
49.03010046759482
 31
0.0
  0
LINE
  5
AF
102
{ACAD_REACTORS
330
E9
102
}
330
2
100
AcDbEntity
  8
0
100
AcDbLine
 10
212.8701143368434
 20
135.5301004675948
 30
0.0
 11
212.8701143368434
 21
52.53010046759391
 31
0.0
  0
LINE
  5
B0
330
2
100
AcDbEntity
  8
0
100
AcDbLine
 10
221.4701143368447
 20
139.0301004675948
 30
0.0
 11
221.4701143368447
 21
49.03010046759482
 31
0.0
  0
LINE
  5
B1
330
2
100
AcDbEntity
  8
0
100
AcDbLine
 10
222.3701143368425
 20
58.13136312606548
 30
0.0
 11
222.3701143368425
 21
50.43136312606566
 31
0.0
  0
CIRCLE
  5
B2
330
2
100
AcDbEntity
  8
0
 48
0.6
100
AcDbCircle
 10
58.06827678285571
 20
94.03010046759481
 30
0.0
 40
43.5
  0
CIRCLE
  5
B3
330
2
100
AcDbEntity
  8
0
 48
0.6
100
AcDbCircle
 10
58.06827678285571
 20
94.03010046759481
 30
0.0
 40
42.00000000000005
  0
LINE
  5
B4
330
2
100
AcDbEntity
  8
CL
 48
0.6
100
AcDbLine
 10
58.06827678285571
 20
40.39995570384144
 30
0.0
 11
58.06827678285571
 21
147.6602452313472
 31
0.0
  0
INSERT
  5
B7
330
2
100
AcDbEntity
  8
0
100
AcDbBlockReference
  2
4
 10
58.06827678285571
 20
94.03010046759481
 30
0.0
  0
LINE
  5
D6
330
2
100
AcDbEntity
  8
CL
 48
0.6
100
AcDbLine
 10
76.70788708964574
 20
49.03010046759482
 30
0.0
 11
58.06827678285571
 21
94.03010046759481
 31
0.0
  0
INSERT
  5
D7
330
2
100
AcDbEntity
  8
0
100
AcDbBlockReference
  2
2
 10
58.06827678285571
 20
94.03010046759481
 30
0.0
  0
DIMENSION
  5
E7
102
{ACAD_XDICTIONARY
360
E8
102
}
102
{ACAD_REACTORS
330
E9
102
}
330
2
100
AcDbEntity
  8
0
100
AcDbDimension
  2
*D25
 10
142.0540325007623
 20
52.53010046759394
 30
0.0
 11
142.0540325007623
 21
95.39505710034701
 31
0.0
 70
   160
  1
\A1;{\f??|b0|i0|c0|p49;%%C}<>{\f??|b0|i0|c0|p49;\H0.7x;\S+0^ -0.035;\H1.429x;(h}7{\f??|b0|i0|c0|p49;)}
  3
STANDARD
100
AcDbAlignedDimension
 13
212.8701143368434
 23
135.5301004675948
 33
0.0
 14
212.8701143368434
 24
52.53010046759391
 34
0.0
 50
90.0
100
AcDbRotatedDimension
  0
DIMENSION
  5
F6
330
2
100
AcDbEntity
  8
0
100
AcDbDimension
  2
*D24
 10
58.06205911196594
 20
147.6602452313472
 30
0.0
 11
71.65666843308393
 21
25.70643943883518
 31
0.0
 70
    34
  1
<>
  3
STANDARD
100
AcDb2LineAngularDimension
 13
58.06205911196594
 23
94.03010046759481
 33
0.0
 14
76.70788708964574
 24
49.03010046759482
 34
0.0
 15
58.06205911196594
 25
40.39995570384144
 35
0.0
 16
67.52133984183858
 26
22.20154904642904
 36
0.0
1001
ACAD
1000
DSTYLE
1002
{
1070
   271
1070
     1
1070
   271
1070
     1
1070
   271
1070
     1
1070
   271
1070
     1
1070
   271
1070
     1
1070
   271
1070
     1
1070
   271
1070
     1
1002
}
  0
LINE
  5
105
330
2
100
AcDbEntity
  8
0
 62
   123
100
AcDbLine
 10
204.8869457324017
 20
2.254643675748411
 30
0.0
 11
288.3401486557477
 21
2.254643675748411
 31
0.0
  0
MTEXT
  5
106
330
2
100
AcDbEntity
  8
DIM
100
AcDbMText
 10
250.2788456506632
 20
5.875715861530807
 30
0.0
 40
3.5
 41
0.0
 71
     5
 72
     1
  1
MOTOR LEAD WIRE 300mm
1001
ACAD
1000
MTEXTBEGIN
1070
    73
1070
     1
1070
    44
1040
1.0
1070
    74
1070
     0
1000
MTEXTEND
  0
LEADER
  5
108
330
2
100
AcDbEntity
  8
0
100
AcDbLeader
  3
STANDARD
 76
     2
 10
229.7069895511922
 20
32.1470602925674
 30
0.0
 10
204.8869457324017
 20
2.254643675748411
 30
0.0
1001
ACAD
1000
DSTYLE
1002
{
1070
     5
1000

1070
   342
1005
0
1002
}
  0
MTEXT
  5
109
330
2
100
AcDbEntity
  8
DIM
100
AcDbMText
 10
242.6272042935734
 20
-1.495150053040561
 30
0.0
 40
3.5
 41
0.0
 71
     5
 72
     1
  1
UL Style 3271, AWG20
1001
ACAD
1000
MTEXTBEGIN
1070
    73
1070
     1
1070
    44
1040
1.0
1070
    74
1070
     0
1000
MTEXTEND
  0
LINE
  5
10A
330
2
100
AcDbEntity
  8
0
100
AcDbLine
 10
336.210149044532
 20
49.03010046759482
 30
0.0
 11
221.4701143368447
 21
49.03010046759482
 31
0.0
  0
ARC
  5
10B
330
2
100
AcDbEntity
  8
0
100
AcDbCircle
 10
263.1728363368429
 20
47.94145446759557
 30
0.0
 40
36.555792
100
AcDbArc
 50
179.8610604128478
 51
213.8176429999978
  0
ARC
  5
10C
330
2
100
AcDbEntity
  8
0
100
AcDbCircle
 10
263.1728363368429
 20
47.94145446759557
 30
0.0
 40
33.95579199999999
100
AcDbArc
 50
179.8504230000004
 51
213.8981229999992
  0
LINE
  5
10D
330
2
100
AcDbEntity
  8
0
100
AcDbLine
 10
231.3701143368425
 20
48.03010046759391
 30
0.0
 11
222.3701143368425
 21
48.03010046759391
 31
0.0
  0
ARC
  5
10E
330
2
100
AcDbEntity
  8
0
100
AcDbCircle
 10
263.1728363368429
 20
47.94145446759557
 30
0.0
 40
39.15579199999999
100
AcDbArc
 50
179.8702869999971
 51
212.7486590000019
  0
ARC
  5
10F
330
2
100
AcDbEntity
  8
0
100
AcDbCircle
 10
222.3701143368425
 20
48.53010046759482
 30
0.0
 40
0.5
100
AcDbArc
 50
180.0
 51
270.0
  0
LINE
  5
110
330
2
100
AcDbEntity
  8
0
100
AcDbLine
 10
221.8701143368434
 20
49.03010046759482
 30
0.0
 11
221.8701143368434
 21
48.53010046759482
 31
0.0
  0
LINE
  5
111
330
2
100
AcDbEntity
  8
0
100
AcDbLine
 10
214.8701143368416
 20
49.03010046759482
 30
0.0
 11
221.4701143368447
 21
49.03010046759482
 31
0.0
  0
LINE
  5
112
330
2
100
AcDbEntity
  8
0
100
AcDbLine
 10
214.8701143368416
 20
52.53010046759391
 30
0.0
 11
212.8701143368434
 21
52.53010046759391
 31
0.0
  0
LINE
  5
113
330
2
100
AcDbEntity
  8
0
100
AcDbLine
 10
221.4701143368447
 20
50.43136312606566
 30
0.0
 11
222.3701143368425
 21
50.43136312606566
 31
0.0
  0
ARC
  5
114
330
2
100
AcDbEntity
  8
0
100
AcDbCircle
 10
110.3798744627883
 20
63.34065311613358
 30
0.0
 40
39.15579199999999
100
AcDbArc
 50
201.4369589999971
 51
235.2486590000054
  0
ARC
  5
115
330
2
100
AcDbEntity
  8
0
 48
0.6
100
AcDbCircle
 10
110.3798744627883
 20
63.34065311613358
 30
0.0
 40
33.95579199999999
100
AcDbArc
 50
204.9259499999998
 51
236.3981230000006
  0
ARC
  5
116
330
2
100
AcDbEntity
  8
0
 48
0.6
100
AcDbCircle
 10
110.6324318144033
 20
63.62114406872024
 30
0.0
 40
36.92930121396881
100
AcDbArc
 50
203.2726782588581
 51
236.2329275593634
  0
ARC
  5
117
330
2
100
AcDbEntity
  8
0
 48
0.6
100
AcDbCircle
 10
91.52526946278612
 20
34.31067711613559
 30
0.0
 40
0.7499080000000001
100
AcDbArc
 50
85.16289500000455
 51
205.3344229999993
  0
ARC
  5
118
330
2
100
AcDbEntity
  8
0
100
AcDbCircle
 10
93.90829746278996
 20
31.43371211613521
 30
0.0
 40
0.7499080000000001
100
AcDbArc
 50
92.01298199999559
 51
212.184510000001
  0
ARC
  5
119
330
2
100
AcDbEntity
  8
0
100
AcDbCircle
 10
92.63894646278732
 20
30.63483911613548
 30
0.0
 40
0.7499080000000001
100
AcDbArc
 50
272.0129819999954
 51
32.18451000000101
  0
ARC
  5
11A
330
2
100
AcDbEntity
  8
0
 48
0.6
100
AcDbCircle
 10
110.3798744627883
 20
63.34065311613358
 30
0.0
 40
35.255792
100
AcDbArc
 50
236.3564240000014
 51
242.0987460000029
  0
ARC
  5
11B
330
2
100
AcDbEntity
  8
0
 48
0.6
100
AcDbCircle
 10
90.16969746278574
 20
33.66890511613473
 30
0.0
 40
0.7499080000000001
100
AcDbArc
 50
265.1628950000044
 51
25.33442299999946
  0
ARC
  5
11C
330
2
100
AcDbEntity
  8
0
100
AcDbCircle
 10
88.12368046278606
 20
31.91617711613435
 30
0.0
 40
0.7499080000000001
100
AcDbArc
 50
265.1628950000044
 51
25.33442299999946
  0
ARC
  5
11D
330
2
100
AcDbEntity
  8
0
 48
0.6
100
AcDbCircle
 10
89.47925346278589
 20
32.55795011613372
 30
0.0
 40
0.7499080000000001
100
AcDbArc
 50
85.16289500000455
 51
205.3344229999993
  0
ARC
  5
11E
330
2
100
AcDbEntity
  8
0
100
AcDbCircle
 10
110.3798744627883
 20
63.34065311613358
 30
0.0
 40
37.855792
100
AcDbArc
 50
235.2486590000054
 51
242.0987460000029
  0
MTEXT
  5
11F
330
2
100
AcDbEntity
  8
DIM
100
AcDbMText
 10
363.2864771829799
 20
-8.28389123589477
 30
0.0
 40
3.5
 41
0.0
 71
     5
 72
     1
  1
UL Style 3266 , AWG24
1001
ACAD
1000
MTEXTBEGIN
1070
    73
1070
     1
1070
    44
1040
1.0
1070
    74
1070
     0
1000
MTEXTEND
  0
MTEXT
  5
120
330
2
100
AcDbEntity
  8
DIM
100
AcDbMText
 10
368.1229140066652
 20
0.8170362378396021
 30
0.0
 40
3.5
 41
0.0
 71
     5
 72
     1
  1
BRAKE LEAD WIRE 300mm
1001
ACAD
1000
MTEXTBEGIN
1070
    73
1070
     1
1070
    44
1040
1.0
1070
    74
1070
     0
1000
MTEXTEND
  0
LINE
  5
121
330
2
100
AcDbEntity
  8
0
 62
   123
 48
0.6
100
AcDbLine
 10
323.1016606398543
 20
-3.71193680998931
 30
0.0
 11
407.4231894261847
 21
-3.71193680998931
 31
0.0
  0
LEADER
  5
122
330
2
100
AcDbEntity
  8
0
 48
0.6
100
AcDbLeader
  3
STANDARD
 76
     2
 10
348.1372474732443
 20
31.27987885485799
 30
0.0
 10
323.1016606398543
 20
-3.71193680998931
 30
0.0
1001
ACAD
1000
DSTYLE
1002
{
1070
     5
1000

1070
   342
1005
0
1002
}
  0
ARC
  5
123
330
2
100
AcDbEntity
  8
0
100
AcDbCircle
 10
234.2663833368433
 20
24.51438146759483
 30
0.0
 40
0.7499080000000001
100
AcDbArc
 50
249.5129820000002
 51
9.684509999999278
  0
ARC
  5
124
330
2
100
AcDbEntity
  8
0
100
AcDbCircle
 10
263.1728363368429
 20
47.94145446759557
 30
0.0
 40
35.255792
100
AcDbArc
 50
213.8564239999994
 51
219.5987459999966
  0
ARC
  5
125
330
2
100
AcDbEntity
  8
0
100
AcDbCircle
 10
234.6441623368409
 20
28.33659946759508
 30
0.0
 40
0.7499080000000001
100
AcDbArc
 50
62.66289500000094
 51
182.8344229999968
  0
ARC
  5
126
330
2
100
AcDbEntity
  8
0
100
AcDbCircle
 10
233.1461803368438
 20
28.26243346759383
 30
0.0
 40
0.7499080000000001
100
AcDbArc
 50
242.6628950000009
 51
2.834422999996808
  0
ARC
  5
127
330
2
100
AcDbEntity
  8
0
100
AcDbCircle
 10
263.1728363368429
 20
47.94145446759557
 30
0.0
 40
37.855792
100
AcDbArc
 50
212.7486590000019
 51
219.5987459999966
  0
ARC
  5
128
330
2
100
AcDbEntity
  8
0
100
AcDbCircle
 10
232.0831493368423
 20
27.50026646759488
 30
0.0
 40
0.7499080000000001
100
AcDbArc
 50
62.66289500000094
 51
182.8344229999968
  0
ARC
  5
129
330
2
100
AcDbEntity
  8
0
100
AcDbCircle
 10
231.3701143368425
 20
48.53010046759482
 30
0.0
 40
0.5
100
AcDbArc
 50
270.0
 51
0.0
  0
LINE
  5
12A
330
2
100
AcDbEntity
  8
0
100
AcDbLine
 10
231.8701143368416
 20
49.03010046759482
 30
0.0
 11
231.8701143368416
 21
48.53010046759482
 31
0.0
  0
ARC
  5
12B
330
2
100
AcDbEntity
  8
0
100
AcDbCircle
 10
230.5851683368428
 20
27.42610046759637
 30
0.0
 40
0.7499080000000001
100
AcDbArc
 50
242.6628950000009
 51
2.834422999996808
  0
ARC
  5
12C
330
2
100
AcDbEntity
  8
0
100
AcDbCircle
 10
235.7448253368438
 20
24.76668446759504
 30
0.0
 40
0.7499080000000001
100
AcDbArc
 50
69.51298200000024
 51
189.6845099999992
  0
LINE
  5
12D
330
2
100
AcDbEntity
  8
0
100
AcDbLine
 10
391.8690365374895
 20
48.20991375655921
 30
0.0
 11
336.210149044532
 21
48.20991375655921
 31
0.0
  0
LINE
  5
12E
330
2
100
AcDbEntity
  8
0
 48
0.6
100
AcDbLine
 10
351.5087670893817
 20
47.2099137565574
 30
0.0
 11
342.5087670893817
 21
47.2099137565574
 31
0.0
  0
ARC
  5
12F
330
2
100
AcDbEntity
  8
0
 48
0.6
100
AcDbCircle
 10
383.3114890893794
 20
47.12126775655725
 30
0.0
 40
39.15579199999999
100
AcDbArc
 50
179.8702869999971
 51
212.7486590000019
  0
ARC
  5
130
330
2
100
AcDbEntity
  8
0
 48
0.6
100
AcDbCircle
 10
342.5087670893817
 20
47.70991375655739
 30
0.0
 40
0.5
100
AcDbArc
 50
180.0
 51
270.0
  0
LINE
  5
131
330
2
100
AcDbEntity
  8
0
 48
0.6
100
AcDbLine
 10
342.0087670893799
 20
48.20991375655921
 30
0.0
 11
342.0087670893799
 21
47.70991375655739
 31
0.0
  0
ARC
  5
132
330
2
100
AcDbEntity
  8
0
 48
0.6
100
AcDbCircle
 10
351.5087670893817
 20
47.70991375655739
 30
0.0
 40
0.5
100
AcDbArc
 50
270.0
 51
0.0
  0
LINE
  5
133
330
2
100
AcDbEntity
  8
0
 48
0.6
100
AcDbLine
 10
352.0087670893826
 20
48.20991375655921
 30
0.0
 11
352.0087670893826
 21
47.70991375655739
 31
0.0
  0
ARC
  5
134
330
2
100
AcDbEntity
  8
0
 48
0.6
100
AcDbCircle
 10
353.2848330893812
 20
27.44224675655732
 30
0.0
 40
0.7499080000000001
100
AcDbArc
 50
242.6628950000009
 51
2.834422999996808
  0
ARC
  5
135
330
2
100
AcDbEntity
  8
0
 48
0.6
100
AcDbCircle
 10
354.782815089382
 20
27.51641275655765
 30
0.0
 40
0.7499080000000001
100
AcDbArc
 50
62.66289500000094
 51
182.8344229999968
  0
ARC
  5
136
330
2
100
AcDbEntity
  8
0
 48
0.6
100
AcDbCircle
 10
350.723821089382
 20
26.60591375655986
 30
0.0
 40
0.7499080000000001
100
AcDbArc
 50
242.6628950000009
 51
2.834422999996808
  0
ARC
  5
137
330
2
100
AcDbEntity
  8
0
 48
0.6
100
AcDbCircle
 10
352.2218020893788
 20
26.68007975655746
 30
0.0
 40
0.7499080000000001
100
AcDbArc
 50
62.66289500000094
 51
182.8344229999968
  0
ARC
  5
138
330
2
100
AcDbEntity
  8
0
 48
0.6
100
AcDbCircle
 10
383.3114890893794
 20
47.12126775655725
 30
0.0
 40
36.555792
100
AcDbArc
 50
179.8610604128478
 51
213.8176429999978
  0
ARC
  5
139
330
2
100
AcDbEntity
  8
0
 48
0.6
100
AcDbCircle
 10
383.3114890893794
 20
47.12126775655725
 30
0.0
 40
33.95579199999999
100
AcDbArc
 50
179.8504230000004
 51
213.8981229999992
  0
ARC
  5
13A
330
2
100
AcDbEntity
  8
0
100
AcDbCircle
 10
391.8690365374895
 20
51.20991375656013
 30
0.0
 40
3.0
100
AcDbArc
 50
270.0
 51
359.9999999999997
  0
LEADER
  5
13B
330
2
100
AcDbEntity
  8
0
 48
0.6
100
AcDbLeader
  3
STANDARD
 76
     2
 10
315.2481272980903
 20
233.2026470599048
 30
0.0
 10
290.2125404647004
 20
198.2108313950575
 30
0.0
1001
ACAD
1000
DSTYLE
1002
{
1070
     5
1000

1070
   342
1005
0
1002
}
  0
LEADER
  5
13C
330
2
100
AcDbEntity
  8
0
100
AcDbLeader
  3
STANDARD
 76
     2
 10
196.8178693760392
 20
234.0698284976124
 30
0.0
 10
171.9978255572486
 20
204.1774118807934
 30
0.0
1001
ACAD
1000
DSTYLE
1002
{
1070
     5
1000

1070
   342
1005
0
1002
}
  0
ARC
  5
13D
330
2
100
AcDbEntity
  8
0
100
AcDbCircle
 10
230.2837161616908
 20
249.8642226726406
 30
0.0
 40
39.15579199999999
100
AcDbArc
 50
179.8702869999971
 51
212.7486590000019
  0
ARC
  5
13E
330
2
100
AcDbEntity
  8
0
100
AcDbCircle
 10
230.2837161616908
 20
249.8642226726406
 30
0.0
 40
33.95579199999999
100
AcDbArc
 50
179.8504230000004
 51
213.8981229999992
  0
ARC
  5
13F
330
2
100
AcDbEntity
  8
0
100
AcDbCircle
 10
230.2837161616908
 20
249.8642226726406
 30
0.0
 40
36.555792
100
AcDbArc
 50
179.8610604128478
 51
213.8176429999978
  0
ARC
  5
140
330
2
100
AcDbEntity
  8
0
100
AcDbCircle
 10
201.7550421616888
 20
230.2593676726419
 30
0.0
 40
0.7499080000000001
100
AcDbArc
 50
62.66289500000094
 51
182.8344229999968
  0
ARC
  5
141
330
2
100
AcDbEntity
  8
0
 48
0.6
100
AcDbCircle
 10
350.4223689142254
 20
249.044035961604
 30
0.0
 40
33.95579199999999
100
AcDbArc
 50
179.8504230000004
 51
213.8981229999992
  0
ARC
  5
142
330
2
100
AcDbEntity
  8
0
 48
0.6
100
AcDbCircle
 10
350.4223689142254
 20
249.044035961604
 30
0.0
 40
36.555792
100
AcDbArc
 50
179.8610604128478
 51
213.8176429999978
  0
ARC
  5
143
330
2
100
AcDbEntity
  8
0
 48
0.6
100
AcDbCircle
 10
350.4223689142254
 20
249.044035961604
 30
0.0
 40
39.15579199999999
100
AcDbArc
 50
179.8702869999971
 51
212.7486590000019
  0
DIMENSION
  5
144
330
2
100
AcDbEntity
  8
0
100
AcDbDimension
  2
*D27
 10
66.59683978941302
 20
349.5830134363923
 30
0.0
 11
80.19144911052972
 21
227.6292076438793
 31
0.0
 70
    34
  1
<>
  3
STANDARD
100
AcDb2LineAngularDimension
 13
66.59683978941302
 23
295.9528686726416
 33
0.0
 14
85.2426677670901
 24
250.9528686726416
 34
0.0
 15
66.59683978941302
 25
242.3227239088883
 35
0.0
 16
76.05612051928469
 26
224.1243172514733
 36
0.0
1001
ACAD
1000
DSTYLE
1002
{
1070
   271
1070
     1
1070
   271
1070
     1
1070
   271
1070
     1
1070
   271
1070
     1
1070
   271
1070
     1
1070
   271
1070
     1
1070
   271
1070
     1
1002
}
  0
MTEXT
  5
153
330
2
100
AcDbEntity
  8
DIM
100
AcDbMText
 10
209.7380841184185
 20
200.4276181520044
 30
0.0
 40
3.5
 41
0.0
 71
     5
 72
     1
  1
UL Style 3271, AWG20
1001
ACAD
1000
MTEXTBEGIN
1070
    73
1070
     1
1070
    44
1040
1.0
1070
    74
1070
     0
1000
MTEXTEND
  0
MTEXT
  5
154
330
2
100
AcDbEntity
  8
DIM
100
AcDbMText
 10
217.3897254755093
 20
207.7984840665767
 30
0.0
 40
3.5
 41
0.0
 71
     5
 72
     1
  1
MOTOR LEAD WIRE 300mm
1001
ACAD
1000
MTEXTBEGIN
1070
    73
1070
     1
1070
    44
1040
1.0
1070
    74
1070
     0
1000
MTEXTEND
  0
LINE
  5
155
330
2
100
AcDbEntity
  8
0
 62
   123
100
AcDbLine
 10
171.9978255572486
 20
204.1774118807934
 30
0.0
 11
255.4510284805946
 21
204.1774118807934
 31
0.0
  0
DIMENSION
  5
156
330
2
100
AcDbEntity
  8
0
100
AcDbDimension
  2
*D28
 10
394.8690365374896
 20
164.7099562402745
 30
0.0
 11
290.3695754371674
 21
164.7099562402745
 31
0.0
 70
   160
  3
STANDARD
100
AcDbAlignedDimension
 13
214.8701143368416
 23
139.0301004675948
 33
0.0
 14
394.8690365374896
 24
137.2099137565601
 34
0.0
100
AcDbRotatedDimension
  0
LINE
  5
163
330
2
100
AcDbEntity
  8
0
100
AcDbLine
 10
336.210149044532
 20
139.0301004675948
 30
0.0
 11
221.4701143368447
 21
139.0301004675948
 31
0.0
  0
LINE
  5
164
330
2
100
AcDbEntity
  8
CL
 48
0.6
100
AcDbLine
 10
402.749392229236
 20
94.03010046759481
 30
0.0
 11
170.0201177875105
 21
94.03010046759481
 31
0.0
  0
LINE
  5
165
330
2
100
AcDbEntity
  8
0
100
AcDbLine
 10
221.4701143368447
 20
58.13136312606548
 30
0.0
 11
222.3701143368425
 21
58.13136312606548
 31
0.0
  0
DIMENSION
  5
166
102
{ACAD_XDICTIONARY
360
167
102
}
102
{ACAD_REACTORS
330
168
102
}
330
2
100
AcDbEntity
  8
0
100
AcDbDimension
  2
*D36
 10
222.3701143368425
 20
151.662754031844
 30
0.0
 11
218.6201143368421
 21
151.662754031844
 31
0.0
 70
   160
  3
STANDARD
100
AcDbAlignedDimension
 13
214.8701143368416
 23
139.2384338009278
 33
0.0
 14
222.3701143368425
 24
137.628837809123
 34
0.0
100
AcDbRotatedDimension
  0
LINE
  5
175
330
2
100
AcDbEntity
  8
0
100
AcDbLine
 10
222.3701143368425
 20
129.9288378091232
 30
0.0
 11
222.3701143368425
 21
137.628837809123
 31
0.0
  0
LINE
  5
176
330
2
100
AcDbEntity
  8
0
100
AcDbLine
 10
214.8701143368416
 20
135.5301004675948
 30
0.0
 11
212.8701143368434
 21
135.5301004675948
 31
0.0
  0
LINE
  5
177
330
2
100
AcDbEntity
  8
0
100
AcDbLine
 10
214.8701143368416
 20
139.0301004675948
 30
0.0
 11
221.4701143368447
 21
139.0301004675948
 31
0.0
  0
LINE
  5
178
330
2
100
AcDbEntity
  8
0
100
AcDbLine
 10
221.4701143368447
 20
129.9288378091232
 30
0.0
 11
222.3701143368425
 21
129.9288378091232
 31
0.0
  0
LINE
  5
179
102
{ACAD_REACTORS
330
168
102
}
330
2
100
AcDbEntity
  8
0
100
AcDbLine
 10
221.4701143368447
 20
137.628837809123
 30
0.0
 11
222.3701143368425
 21
137.628837809123
 31
0.0
  0
ARC
  5
17A
330
2
100
AcDbEntity
  8
0
 48
0.6
100
AcDbCircle
 10
57.99281246867121
 20
94.03010046759481
 30
0.0
 40
36.81561599999999
100
AcDbArc
 50
296.3656725032108
 51
333.6343274967831
  0
ARC
  5
17B
330
2
100
AcDbEntity
  8
0
 48
0.6
100
AcDbCircle
 10
57.99281246867121
 20
94.03010046759481
 30
0.0
 40
36.81561599999999
100
AcDbArc
 50
206.3656725032168
 51
243.634327496789
  0
ARC
  5
17C
330
2
100
AcDbEntity
  8
0
 48
0.6
100
AcDbCircle
 10
46.78752342860753
 20
58.96115296431162
 30
0.0
 40
3.067967999999998
100
AcDbArc
 50
72.28019184719491
 51
128.0513255193868
  0
ARC
  5
17D
330
2
100
AcDbEntity
  8
0
 48
0.6
100
AcDbCircle
 10
43.00553418056824
 20
63.79295055152579
 30
0.0
 40
3.067967999999998
100
AcDbArc
 50
243.634327496789
 51
308.0513255193868
  0
ARC
  5
17E
330
2
100
AcDbEntity
  8
0
 48
0.6
100
AcDbCircle
 10
69.19810150873672
 20
58.96115296431162
 30
0.0
 40
3.067967999999998
100
AcDbArc
 50
51.94867448061305
 51
107.719808152805
  0
ARC
  5
17F
330
2
100
AcDbEntity
  8
0
 48
0.6
100
AcDbCircle
 10
72.98009075677419
 20
63.79295055152579
 30
0.0
 40
3.067967999999998
100
AcDbArc
 50
231.948674480613
 51
296.3656725032108
  0
ARC
  5
180
330
2
100
AcDbEntity
  8
0
 48
0.6
100
AcDbCircle
 10
57.99281246867121
 20
94.03010046759481
 30
0.0
 40
33.74764799999999
100
AcDbArc
 50
252.2801918471949
 51
287.7198081528051
  0
DIMENSION
  5
181
330
2
100
AcDbEntity
  8
0
100
AcDbDimension
  2
*D35
 10
104.0682767828548
 20
168.8853864104139
 30
0.0
 11
58.06827678285208
 21
168.8853864104139
 31
0.0
 70
   160
  3
STANDARD
100
AcDbAlignedDimension
 13
12.06827678285208
 23
123.0301004675939
 33
0.0
 14
104.0682767828548
 24
123.0301004675939
 34
0.0
100
AcDbRotatedDimension
  0
DIMENSION
  5
18E
330
2
100
AcDbEntity
  8
0
100
AcDbDimension
  2
*D34
 10
103.068276782852
 20
157.4947239186912
 30
0.0
 11
58.06827678285208
 21
157.4947239186912
 31
0.0
 70
   160
  3
STANDARD
100
AcDbAlignedDimension
 13
13.06827678285571
 23
133.9873067087974
 33
0.0
 14
103.068276782852
 24
133.9873067087974
 34
0.0
100
AcDbRotatedDimension
  0
LINE
  5
19B
330
2
100
AcDbEntity
  8
CL
 48
0.6
100
AcDbLine
 10
8.815000568456525
 20
94.03010046759481
 30
0.0
 11
107.3215529972567
 21
94.03010046759481
 31
0.0
  0
ARC
  5
19C
330
2
100
AcDbEntity
  8
0
 48
0.6
100
AcDbCircle
 10
57.99281246867121
 20
94.03010046759481
 30
0.0
 40
36.81561599999999
100
AcDbArc
 50
26.36567250321681
 51
63.63432749678904
  0
CIRCLE
  5
19D
330
2
100
AcDbEntity
  8
0
 48
0.6
100
AcDbCircle
 10
58.06827678285571
 20
94.03010046759481
 30
0.0
 40
20.0
  0
ARC
  5
19E
330
2
100
AcDbEntity
  8
0
 48
0.6
100
AcDbCircle
 10
57.99281246867121
 20
94.03010046759481
 30
0.0
 40
36.81561599999999
100
AcDbArc
 50
116.3656725032109
 51
153.634327496783
  0
ARC
  5
19F
330
2
100
AcDbEntity
  8
0
 48
0.6
100
AcDbCircle
 10
57.99281246867121
 20
94.03010046759481
 30
0.0
 40
33.74764799999999
100
AcDbArc
 50
162.2801918472015
 51
197.7198081527984
  0
ARC
  5
1A0
330
2
100
AcDbEntity
  8
0
 48
0.6
100
AcDbCircle
 10
27.75566255260219
 20
109.0173787556977
 30
0.0
 40
3.067967999999998
100
AcDbArc
 50
153.634327496783
 51
218.0513255193776
  0
ARC
  5
1A1
330
2
100
AcDbEntity
  8
0
 48
0.6
100
AcDbCircle
 10
22.9238649653862
 20
105.2353895076576
 30
0.0
 40
3.067967999999998
100
AcDbArc
 50
342.2801918472014
 51
38.05132551937779
  0
LINE
  5
1A2
330
2
100
AcDbEntity
  8
0
 48
0.6
100
AcDbLine
 10
54.75165199250205
 20
99.03010046759483
 30
0.0
 11
61.38490157321303
 21
99.03010046759483
 31
0.0
  0
CIRCLE
  5
1A3
330
2
100
AcDbEntity
  8
0
 48
0.6
100
AcDbCircle
 10
58.06827678285571
 20
94.03010046759481
 30
0.0
 40
6.0
  0
ARC
  5
1A4
330
2
100
AcDbEntity
  8
0
 48
0.6
100
AcDbCircle
 10
46.78752342860753
 20
129.0990479708789
 30
0.0
 40
3.067967999999998
100
AcDbArc
 50
231.948674480613
 51
287.7198081528051
  0
ARC
  5
1A5
330
2
100
AcDbEntity
  8
0
 48
0.6
100
AcDbCircle
 10
43.00553418056824
 20
124.2672503836647
 30
0.0
 40
3.067967999999998
100
AcDbArc
 50
51.94867448061305
 51
116.3656725032109
  0
ARC
  5
1A6
330
2
100
AcDbEntity
  8
0
 48
0.6
100
AcDbCircle
 10
69.19810150873672
 20
129.0990479708789
 30
0.0
 40
3.067967999999998
100
AcDbArc
 50
252.2801918471949
 51
308.0513255193868
  0
ARC
  5
1A7
330
2
100
AcDbEntity
  8
0
 48
0.6
100
AcDbCircle
 10
72.98009075677419
 20
124.2672503836647
 30
0.0
 40
3.067967999999998
100
AcDbArc
 50
63.63432749678904
 51
128.0513255193868
  0
ARC
  5
1A8
330
2
100
AcDbEntity
  8
0
 48
0.6
100
AcDbCircle
 10
57.99281246867121
 20
94.03010046759481
 30
0.0
 40
33.74764799999999
100
AcDbArc
 50
72.28019184719491
 51
107.719808152805
  0
ARC
  5
1A9
330
2
100
AcDbEntity
  8
0
 48
0.6
100
AcDbCircle
 10
27.75566255260219
 20
79.04282217949185
 30
0.0
 40
3.067967999999998
100
AcDbArc
 50
141.9486744806222
 51
206.3656725032168
  0
ARC
  5
1AA
330
2
100
AcDbEntity
  8
0
 48
0.6
100
AcDbCircle
 10
22.9238649653862
 20
82.82481142753022
 30
0.0
 40
3.067967999999998
100
AcDbArc
 50
321.9486744806221
 51
17.71980815279839
  0
LWPOLYLINE
  5
1AB
330
2
100
AcDbEntity
  8
0
 62
     3
100
AcDbPolyline
 90
        4
 70
     1
 43
0.0
 10
52.40473612712321
 20
158.3388406509084
 10
55.04503311315147
 20
158.3388406509084
 10
55.04503311315147
 20
161.4076574686096
 10
52.40473612712321
 20
161.4076574686096
  0
LINE
  5
1AC
330
2
100
AcDbEntity
  8
0
100
AcDbLine
 10
207.8701143368425
 20
100.0301004675948
 30
0.0
 11
207.8701143368425
 21
99.03010046759483
 31
0.0
  0
ARC
  5
1AD
330
2
100
AcDbEntity
  8
0
 48
0.6
100
AcDbCircle
 10
57.99281246867121
 20
94.03010046759481
 30
0.0
 40
33.74764799999999
100
AcDbArc
 50
342.2801918472014
 51
17.71980815279839
  0
ARC
  5
1AE
330
2
100
AcDbEntity
  8
0
 48
0.6
100
AcDbCircle
 10
88.22996238474388
 20
109.0173787556977
 30
0.0
 40
3.067967999999998
100
AcDbArc
 50
321.9486744806221
 51
26.36567250321681
  0
ARC
  5
1AF
330
2
100
AcDbEntity
  8
0
 48
0.6
100
AcDbCircle
 10
93.06175997195714
 20
105.2353895076576
 30
0.0
 40
3.067967999999998
100
AcDbArc
 50
141.9486744806222
 51
197.7198081527984
  0
LINE
  5
1B0
330
2
100
AcDbEntity
  8
0
100
AcDbLine
 10
177.8701143368425
 20
99.03010046759483
 30
0.0
 11
177.8701143368425
 21
88.03010046759482
 31
0.0
  0
DIMENSION
  5
1B1
102
{ACAD_XDICTIONARY
360
1B2
102
}
102
{ACAD_REACTORS
330
1B3
102
}
330
2
100
AcDbEntity
  8
0
100
AcDbDimension
  2
*D33
 10
165.401633456132
 20
99.03010046759483
 30
0.0
 11
165.401633456132
 21
93.53010046759482
 31
0.0
 70
   160
  1
<>
  3
STANDARD
100
AcDbAlignedDimension
 13
177.8701143368425
 23
88.03010046759482
 33
0.0
 14
177.8701143368425
 24
99.03010046759483
 34
0.0
 50
90.0
100
AcDbRotatedDimension
  0
LINE
  5
1C0
102
{ACAD_REACTORS
330
1C3
330
1B3
330
1F4
102
}
330
2
100
AcDbEntity
  8
CL
  6
BYBLOCK
 62
     0
100
AcDbLine
 10
207.8701143368425
 20
99.03010046759483
 30
0.0
 11
177.8701143368425
 21
99.03010046759483
 31
0.0
  0
DIMENSION
  5
1C1
102
{ACAD_XDICTIONARY
360
1C2
102
}
102
{ACAD_REACTORS
330
1C3
102
}
330
2
100
AcDbEntity
  8
0
100
AcDbDimension
  2
*D32
 10
207.8701143368425
 20
124.6273569549366
 30
0.0
 11
194.1287987013429
 21
124.6273569549366
 31
0.0
 70
   160
  3
STANDARD
100
AcDbAlignedDimension
 13
177.8701143368425
 23
99.03010046759483
 33
0.0
 14
207.8701143368425
 24
100.0301004675948
 34
0.0
100
AcDbRotatedDimension
  0
ARC
  5
1D0
330
2
100
AcDbEntity
  8
0
 48
0.6
100
AcDbCircle
 10
88.22996238474388
 20
79.04282217949185
 30
0.0
 40
3.067967999999998
100
AcDbArc
 50
333.6343274967831
 51
38.05132551937779
  0
ARC
  5
1D1
330
2
100
AcDbEntity
  8
0
 48
0.6
100
AcDbCircle
 10
93.06175997195714
 20
82.82481142753022
 30
0.0
 40
3.067967999999998
100
AcDbArc
 50
162.2801918472015
 51
218.0513255193776
  0
DIMENSION
  5
1D2
102
{ACAD_XDICTIONARY
360
1D3
102
}
102
{ACAD_REACTORS
330
1D4
102
}
330
2
100
AcDbEntity
  8
0
100
AcDbDimension
  2
*D31
 10
154.5331525754227
 20
100.0301004675948
 30
0.0
 11
154.5331525754227
 21
94.03010046759485
 31
0.0
 70
   160
  1
\A1;{\f??|b0|i0|c0|p49;%%C}12{\f??|b0|i0|c0|p49;\H0.7x;\S+0^ -0.018;\H1.429x;(h}7{\f??|b0|i0|c0|p49;)}
  3
STANDARD
100
AcDbAlignedDimension
 13
177.8701143368425
 23
88.03010046759482
 33
0.0
 14
207.8701143368425
 24
100.0301004675948
 34
0.0
 50
90.0
100
AcDbRotatedDimension
  0
LEADER
  5
1E1
330
2
100
AcDbEntity
  8
0
100
AcDbLeader
  3
STANDARD
 73
     0
 75
     1
 40
3.0
 41
26.65178571428571
 76
     3
 10
94.86246997928356
 20
133.9492749204
 30
0.0
 10
89.31469789475613
 20
146.7898403035578
 30
0.0
 10
86.81469789475613
 20
146.7898403035578
 30
0.0
340
1E2
1001
ACAD
1000
DSTYLE
1002
{
1070
     5
1000

1070
    77
1070
     1
1070
   147
1040
1.0
1070
   342
1005
0
1002
}
  0
MTEXT
  5
1E2
102
{ACAD_REACTORS
330
1E1
102
}
330
2
100
AcDbEntity
  8
0
 62
     3
100
AcDbMText
 10
85.81469789475614
 20
147.7898403035578
 30
0.0
 40
3.0
 41
0.0
 71
     9
 72
     1
  1
4-%%C6.5 hole
1001
ACAD
1000
MTEXTBEGIN
1070
    73
1070
     1
1070
    44
1040
1.0
1070
    74
1070
     0
1000
MTEXTEND
  0
DIMENSION
  5
1E3
330
2
100
AcDbEntity
  8
0
100
AcDbDimension
  2
*D30
 10
214.8701143368416
 20
151.662754031844
 30
0.0
 11
203.8701143368425
 21
151.662754031844
 31
0.0
 70
   160
  3
STANDARD
100
AcDbAlignedDimension
 13
212.8701143368434
 23
135.5301004675948
 33
0.0
 14
214.8701143368416
 24
139.0301004675948
 34
0.0
100
AcDbRotatedDimension
  0
DIMENSION
  5
1F2
102
{ACAD_XDICTIONARY
360
1F3
102
}
102
{ACAD_REACTORS
330
1F4
102
}
330
2
100
AcDbEntity
  8
0
100
AcDbDimension
  2
*D29
 10
214.8701143368416
 20
164.7099562402745
 30
0.0
 11
198.1201143368434
 21
164.7099562402745
 31
0.0
 70
   160
  3
STANDARD
100
AcDbAlignedDimension
 13
177.8701143368425
 23
99.03010046759483
 33
0.0
 14
214.8701143368416
 24
139.2384338009278
 34
0.0
100
AcDbRotatedDimension
  0
LINE
  5
201
102
{ACAD_REACTORS
330
1C3
330
1D4
102
}
330
2
100
AcDbEntity
  8
CL
  6
BYBLOCK
 62
     0
100
AcDbLine
 10
212.8701143368434
 20
100.0301004675948
 30
0.0
 11
207.8701143368425
 21
100.0301004675948
 31
0.0
  0
LINE
  5
202
102
{ACAD_REACTORS
330
1B3
330
1D4
102
}
330
2
100
AcDbEntity
  8
CL
  6
BYBLOCK
 62
     0
100
AcDbLine
 10
212.8701143368434
 20
88.03010046759482
 30
0.0
 11
177.8701143368425
 21
88.03010046759482
 31
0.0
  0
ARC
  5
203
330
2
100
AcDbEntity
  8
0
100
AcDbCircle
 10
202.855705161689
 20
226.6894526726419
 30
0.0
 40
0.7499080000000001
100
AcDbArc
 50
69.51298200000024
 51
189.6845099999992
  0
ARC
  5
204
330
2
100
AcDbEntity
  8
0
100
AcDbCircle
 10
197.6960481616888
 20
229.3488686726413
 30
0.0
 40
0.7499080000000001
100
AcDbArc
 50
242.6628950000009
 51
2.834422999996808
  0
ARC
  5
205
330
2
100
AcDbEntity
  8
0
100
AcDbCircle
 10
199.1940291616911
 20
229.4230346726417
 30
0.0
 40
0.7499080000000001
100
AcDbArc
 50
62.66289500000094
 51
182.8344229999968
  0
ARC
  5
206
330
2
100
AcDbEntity
  8
0
100
AcDbCircle
 10
230.2837161616908
 20
249.8642226726406
 30
0.0
 40
37.855792
100
AcDbArc
 50
212.7486590000019
 51
219.5987459999966
  0
ARC
  5
207
330
2
100
AcDbEntity
  8
0
100
AcDbCircle
 10
200.2570601616926
 20
230.1852016726416
 30
0.0
 40
0.7499080000000001
100
AcDbArc
 50
242.6628950000009
 51
2.834422999996808
  0
ARC
  5
208
330
2
100
AcDbEntity
  8
0
100
AcDbCircle
 10
230.2837161616908
 20
249.8642226726406
 30
0.0
 40
35.255792
100
AcDbArc
 50
213.8564239999994
 51
219.5987459999966
  0
ARC
  5
209
330
2
100
AcDbEntity
  8
0
100
AcDbCircle
 10
201.3772631616902
 20
226.4371496726398
 30
0.0
 40
0.7499080000000001
100
AcDbArc
 50
249.5129820000002
 51
9.684509999999278
  0
MTEXT
  5
20A
330
2
100
AcDbEntity
  8
DIM
100
AcDbMText
 10
330.3973570078251
 20
193.6388769691511
 30
0.0
 40
3.5
 41
0.0
 71
     5
 72
     1
  1
UL Style 3266 , AWG24
1001
ACAD
1000
MTEXTBEGIN
1070
    73
1070
     1
1070
    44
1040
1.0
1070
    74
1070
     0
1000
MTEXTEND
  0
MTEXT
  5
20B
330
2
100
AcDbEntity
  8
DIM
100
AcDbMText
 10
335.2337938315113
 20
202.7398044428846
 30
0.0
 40
3.5
 41
0.0
 71
     5
 72
     1
  1
BRAKE LEAD WIRE 300mm
1001
ACAD
1000
MTEXTBEGIN
1070
    73
1070
     1
1070
    44
1040
1.0
1070
    74
1070
     0
1000
MTEXTEND
  0
LINE
  5
20C
330
2
100
AcDbEntity
  8
0
 62
   123
 48
0.6
100
AcDbLine
 10
290.2125404647004
 20
198.2108313950575
 30
0.0
 11
374.5340692510335
 21
198.2108313950575
 31
0.0
  0
LINE
  5
20D
330
2
100
AcDbEntity
  8
0
100
AcDbLine
 10
336.210149044532
 20
117.4800427085629
 30
0.0
 11
394.8690365374896
 21
117.4800427085629
 31
0.0
  0
LINE
  5
20E
330
2
100
AcDbEntity
  8
0
100
AcDbLine
 10
391.8690365374895
 20
140.2099137565601
 30
0.0
 11
336.210149044532
 21
140.2099137565601
 31
0.0
  0
ARC
  5
20F
330
2
100
AcDbEntity
  8
0
100
AcDbCircle
 10
391.8690365374895
 20
137.2099137565601
 30
0.0
 40
3.0
100
AcDbArc
 50
359.9999999999997
 51
90.00000000000046
  0
LINE
  5
210
330
2
100
AcDbEntity
  8
0
100
AcDbLine
 10
336.210149044532
 20
70.93978480455553
 30
0.0
 11
394.8690365374896
 21
70.93978480455553
 31
0.0
  0
ARC
  5
211
330
2
100
AcDbEntity
  8
0
 48
0.6
100
AcDbCircle
 10
319.3326819142257
 20
228.6028479616052
 30
0.0
 40
0.7499080000000001
100
AcDbArc
 50
62.66289500000094
 51
182.8344229999968
  0
ARC
  5
212
330
2
100
AcDbEntity
  8
0
 48
0.6
100
AcDbCircle
 10
317.8347009142298
 20
228.5286819616048
 30
0.0
 40
0.7499080000000001
100
AcDbArc
 50
242.6628950000009
 51
2.834422999996808
  0
ARC
  5
213
330
2
100
AcDbEntity
  8
0
 48
0.6
100
AcDbCircle
 10
321.8936949142289
 20
229.4391809616036
 30
0.0
 40
0.7499080000000001
100
AcDbArc
 50
62.66289500000094
 51
182.8344229999968
  0
ARC
  5
214
330
2
100
AcDbEntity
  8
0
 48
0.6
100
AcDbCircle
 10
320.3957129142263
 20
229.3650149616041
 30
0.0
 40
0.7499080000000001
100
AcDbArc
 50
242.6628950000009
 51
2.834422999996808
  0
LINE
  5
215
330
2
100
AcDbEntity
  8
0
100
AcDbLine
 10
303.321028869379
 20
250.9528686726416
 30
0.0
 11
188.5809941616926
 21
250.9528686726416
 31
0.0
  0
DIMENSION
  5
216
330
2
100
AcDbEntity
  8
0
100
AcDbDimension
  2
*D37
 10
361.9799163623383
 20
363.3471650759902
 30
0.0
 11
257.4804552620134
 21
363.3471650759902
 31
0.0
 70
   160
  3
STANDARD
100
AcDbAlignedDimension
 13
181.9809941616886
 23
340.9528686726407
 33
0.0
 14
361.9799163623383
 24
339.132681961606
 34
0.0
100
AcDbRotatedDimension
  0
LINE
  5
223
330
2
100
AcDbEntity
  8
CL
 48
0.6
100
AcDbLine
 10
369.8602720540812
 20
295.9528686726416
 30
0.0
 11
154.0937388505644
 21
295.9528686726416
 31
0.0
  0
LINE
  5
224
330
2
100
AcDbEntity
  8
0
100
AcDbLine
 10
303.321028869379
 20
340.9528686726407
 30
0.0
 11
188.5809941616926
 21
340.9528686726407
 31
0.0
  0
LINE
  5
225
330
2
100
AcDbEntity
  8
0
100
AcDbLine
 10
188.5809941616926
 20
340.9528686726407
 30
0.0
 11
188.5809941616926
 21
250.9528686726416
 31
0.0
  0
LINE
  5
226
102
{ACAD_REACTORS
330
22D
102
}
330
2
100
AcDbEntity
  8
0
100
AcDbLine
 10
179.9809941616886
 20
337.4528686726416
 30
0.0
 11
179.9809941616886
 21
254.4528686726416
 31
0.0
  0
LINE
  5
227
330
2
100
AcDbEntity
  8
0
100
AcDbLine
 10
181.9809941616886
 20
340.9528686726407
 30
0.0
 11
181.9809941616886
 21
250.9528686726416
 31
0.0
  0
LINE
  5
228
330
2
100
AcDbEntity
  8
CL
 48
0.6
100
AcDbLine
 10
66.60305746030099
 20
242.3227239088883
 30
0.0
 11
66.60305746030099
 21
349.5830134363923
 31
0.0
  0
ARC
  5
229
330
2
100
AcDbEntity
  8
0
 48
0.6
100
AcDbCircle
 10
66.52759314611649
 20
295.9528686726416
 30
0.0
 40
36.81561599999999
100
AcDbArc
 50
206.3656725032168
 51
243.634327496789
  0
ARC
  5
22A
330
2
100
AcDbEntity
  8
0
 48
0.6
100
AcDbCircle
 10
66.52759314611649
 20
295.9528686726416
 30
0.0
 40
36.81561599999999
100
AcDbArc
 50
296.3656725032108
 51
333.6343274967831
  0
DIMENSION
  5
22B
102
{ACAD_XDICTIONARY
360
22C
102
}
102
{ACAD_REACTORS
330
22D
102
}
330
2
100
AcDbEntity
  8
0
100
AcDbDimension
  2
*D43
 10
150.2155455638876
 20
254.4528686726416
 30
0.0
 11
150.2155455638876
 21
297.3178253053938
 31
0.0
 70
   160
  1
\A1;{\f??|b0|i0|c0|p49;%%C}<>{\f??|b0|i0|c0|p49;\H0.7x;\S+0^ -0.035;\H1.429x;(h}7{\f??|b0|i0|c0|p49;)}
  3
STANDARD
100
AcDbAlignedDimension
 13
179.9809941616886
 23
337.4528686726416
 33
0.0
 14
179.9809941616886
 24
254.4528686726416
 34
0.0
 50
90.0
100
AcDbRotatedDimension
  0
LINE
  5
23A
330
2
100
AcDbEntity
  8
CL
 48
0.6
100
AcDbLine
 10
85.2426677670901
 20
250.9528686726416
 30
0.0
 11
66.60305746030099
 21
295.9528686726416
 31
0.0
  0
LINE
  5
23B
330
2
100
AcDbEntity
  8
0
100
AcDbLine
 10
112.6030574603019
 20
266.9528686726416
 30
0.0
 11
112.6030574603019
 21
324.9528686726416
 31
0.0
  0
ARC
  5
23C
330
2
100
AcDbEntity
  8
0
 48
0.6
100
AcDbCircle
 10
66.52759314611649
 20
295.9528686726416
 30
0.0
 40
33.74764799999999
100
AcDbArc
 50
252.2801918471949
 51
287.7198081528051
  0
ARC
  5
23D
330
2
100
AcDbEntity
  8
0
 48
0.6
100
AcDbCircle
 10
81.51487143421945
 20
265.7157187565726
 30
0.0
 40
3.067967999999998
100
AcDbArc
 50
231.948674480613
 51
296.3656725032108
  0
ARC
  5
23E
330
2
100
AcDbEntity
  8
0
 48
0.6
100
AcDbCircle
 10
77.73288218618382
 20
260.8839211693566
 30
0.0
 40
3.067967999999998
100
AcDbArc
 50
51.94867448061305
 51
107.719808152805
  0
ARC
  5
23F
330
2
100
AcDbEntity
  8
0
 48
0.6
100
AcDbCircle
 10
51.54031485801351
 20
265.7157187565726
 30
0.0
 40
3.067967999999998
100
AcDbArc
 50
243.634327496789
 51
308.0513255193868
  0
ARC
  5
240
330
2
100
AcDbEntity
  8
0
 48
0.6
100
AcDbCircle
 10
55.32230410605371
 20
260.8839211693566
 30
0.0
 40
3.067967999999998
100
AcDbArc
 50
72.28019184719491
 51
128.0513255193868
  0
ARC
  5
241
330
2
100
AcDbEntity
  8
0
 48
0.6
100
AcDbCircle
 10
100.0600501402314
 20
236.2334453211806
 30
0.0
 40
0.7499080000000001
100
AcDbArc
 50
85.16289500000455
 51
205.3344229999993
  0
ARC
  5
242
330
2
100
AcDbEntity
  8
0
100
AcDbCircle
 10
102.4430781402361
 20
233.3564803211802
 30
0.0
 40
0.7499080000000001
100
AcDbArc
 50
92.01298199999559
 51
212.184510000001
  0
ARC
  5
243
330
2
100
AcDbEntity
  8
0
100
AcDbCircle
 10
101.1737271402316
 20
232.5576073211814
 30
0.0
 40
0.7499080000000001
100
AcDbArc
 50
272.0129819999954
 51
32.18451000000101
  0
ARC
  5
244
330
2
100
AcDbEntity
  8
0
 48
0.6
100
AcDbCircle
 10
118.9146551402345
 20
265.2634213211804
 30
0.0
 40
35.255792
100
AcDbArc
 50
236.3564240000014
 51
242.0987460000029
  0
ARC
  5
245
330
2
100
AcDbEntity
  8
0
 48
0.6
100
AcDbCircle
 10
98.70447814023101
 20
235.5916733211806
 30
0.0
 40
0.7499080000000001
100
AcDbArc
 50
265.1628950000044
 51
25.33442299999946
  0
ARC
  5
246
330
2
100
AcDbEntity
  8
0
100
AcDbCircle
 10
96.65846114023043
 20
233.8389453211803
 30
0.0
 40
0.7499080000000001
100
AcDbArc
 50
265.1628950000044
 51
25.33442299999946
  0
ARC
  5
247
330
2
100
AcDbEntity
  8
0
 48
0.6
100
AcDbCircle
 10
98.01403414023116
 20
234.4807183211805
 30
0.0
 40
0.7499080000000001
100
AcDbArc
 50
85.16289500000455
 51
205.3344229999993
  0
ARC
  5
248
330
2
100
AcDbEntity
  8
0
100
AcDbCircle
 10
118.9146551402345
 20
265.2634213211804
 30
0.0
 40
37.855792
100
AcDbArc
 50
235.2486590000054
 51
242.0987460000029
  0
ARC
  5
249
330
2
100
AcDbEntity
  8
0
100
AcDbCircle
 10
118.9146551402345
 20
265.2634213211804
 30
0.0
 40
39.15579199999999
100
AcDbArc
 50
201.4369589999971
 51
235.2486590000054
  0
ARC
  5
24A
330
2
100
AcDbEntity
  8
0
 48
0.6
100
AcDbCircle
 10
118.9146551402345
 20
265.2634213211804
 30
0.0
 40
33.95579199999999
100
AcDbArc
 50
204.9259499999998
 51
236.3981230000006
  0
ARC
  5
24B
330
2
100
AcDbEntity
  8
0
 48
0.6
100
AcDbCircle
 10
119.1672124918495
 20
265.5439122737671
 30
0.0
 40
36.92930121396881
100
AcDbArc
 50
203.2726782588581
 51
236.2329275593634
  0
LINE
  5
24C
330
2
100
AcDbEntity
  8
0
100
AcDbLine
 10
37.60305746030189
 20
249.9528686726416
 30
0.0
 11
95.6030574603019
 21
249.9528686726416
 31
0.0
  0
ARC
  5
24D
330
2
100
AcDbEntity
  8
0
100
AcDbCircle
 10
37.60305746030189
 20
250.9528686726416
 30
0.0
 40
1.0
100
AcDbArc
 50
180.0
 51
270.0
  0
ARC
  5
24E
330
2
100
AcDbEntity
  8
0
100
AcDbCircle
 10
95.6030574603019
 20
250.9528686726416
 30
0.0
 40
1.0
100
AcDbArc
 50
270.0
 51
0.0
  0
ARC
  5
24F
330
2
100
AcDbEntity
  8
0
100
AcDbCircle
 10
111.6030574603009
 20
266.9528686726407
 30
0.0
 40
1.0
100
AcDbArc
 50
270.0
 51
0.0
  0
LINE
  5
250
330
2
100
AcDbEntity
  8
0
100
AcDbLine
 10
198.4809941616913
 20
249.9528686726416
 30
0.0
 11
189.4809941616886
 21
249.9528686726416
 31
0.0
  0
LINE
  5
251
330
2
100
AcDbEntity
  8
0
100
AcDbLine
 10
188.5809941616926
 20
252.3541313311115
 30
0.0
 11
189.4809941616886
 21
252.3541313311115
 31
0.0
  0
LINE
  5
252
330
2
100
AcDbEntity
  8
0
100
AcDbLine
 10
181.9809941616886
 20
254.4528686726416
 30
0.0
 11
179.9809941616886
 21
254.4528686726416
 31
0.0
  0
LINE
  5
253
330
2
100
AcDbEntity
  8
0
100
AcDbLine
 10
181.9809941616886
 20
250.9528686726416
 30
0.0
 11
188.5809941616926
 21
250.9528686726416
 31
0.0
  0
LINE
  5
254
330
2
100
AcDbEntity
  8
0
100
AcDbLine
 10
188.9809941616895
 20
250.9528686726416
 30
0.0
 11
188.9809941616895
 21
250.4528686726416
 31
0.0
  0
ARC
  5
255
330
2
100
AcDbEntity
  8
0
100
AcDbCircle
 10
189.4809941616886
 20
250.4528686726416
 30
0.0
 40
0.5
100
AcDbArc
 50
180.0
 51
270.0
  0
LINE
  5
256
330
2
100
AcDbEntity
  8
0
100
AcDbLine
 10
189.4809941616886
 20
260.0541313311123
 30
0.0
 11
189.4809941616886
 21
252.3541313311115
 31
0.0
  0
LINE
  5
257
330
2
100
AcDbEntity
  8
0
100
AcDbLine
 10
188.5809941616926
 20
260.0541313311123
 30
0.0
 11
189.4809941616886
 21
260.0541313311123
 31
0.0
  0
LINE
  5
258
330
2
100
AcDbEntity
  8
0
100
AcDbLine
 10
198.9809941616886
 20
250.9528686726416
 30
0.0
 11
198.9809941616886
 21
250.4528686726416
 31
0.0
  0
ARC
  5
259
330
2
100
AcDbEntity
  8
0
100
AcDbCircle
 10
198.4809941616913
 20
250.4528686726416
 30
0.0
 40
0.5
100
AcDbArc
 50
270.0
 51
0.0
  0
LWPOLYLINE
  5
25A
330
2
100
AcDbEntity
  8
0
 62
     3
100
AcDbPolyline
 90
        4
 70
     1
 43
0.0
 10
60.93951680456848
 20
360.2616088559543
 10
63.57981379059584
 20
360.2616088559543
 10
63.57981379059584
 20
363.3304256736546
 10
60.93951680456848
 20
363.3304256736546
  0
ARC
  5
25B
330
2
100
AcDbEntity
  8
0
 48
0.6
100
AcDbCircle
 10
101.5965406494015
 20
284.747579632577
 30
0.0
 40
3.067967999999998
100
AcDbArc
 50
162.2801918472015
 51
218.0513255193776
  0
ARC
  5
25C
330
2
100
AcDbEntity
  8
0
 48
0.6
100
AcDbCircle
 10
31.45864564283147
 20
284.747579632577
 30
0.0
 40
3.067967999999998
100
AcDbArc
 50
321.9486744806221
 51
17.71980815279839
  0
CIRCLE
  5
25D
330
2
100
AcDbEntity
  8
0
 48
0.6
100
AcDbCircle
 10
66.60305746030099
 20
295.9528686726416
 30
0.0
 40
20.0
  0
ARC
  5
25E
330
2
100
AcDbEntity
  8
0
 48
0.6
100
AcDbCircle
 10
96.76474306218915
 20
280.9655903845387
 30
0.0
 40
3.067967999999998
100
AcDbArc
 50
333.6343274967831
 51
38.05132551937779
  0
ARC
  5
25F
330
2
100
AcDbEntity
  8
0
 48
0.6
100
AcDbCircle
 10
36.29044323004837
 20
280.9655903845387
 30
0.0
 40
3.067967999999998
100
AcDbArc
 50
141.9486744806222
 51
206.3656725032168
  0
ARC
  5
260
330
2
100
AcDbEntity
  8
0
 48
0.6
100
AcDbCircle
 10
101.5965406494015
 20
307.1581577127035
 30
0.0
 40
3.067967999999998
100
AcDbArc
 50
141.9486744806222
 51
197.7198081527984
  0
ARC
  5
261
330
2
100
AcDbEntity
  8
0
 48
0.6
100
AcDbCircle
 10
96.76474306218915
 20
310.9401469607437
 30
0.0
 40
3.067967999999998
100
AcDbArc
 50
321.9486744806221
 51
26.36567250321681
  0
ARC
  5
262
330
2
100
AcDbEntity
  8
0
 48
0.6
100
AcDbCircle
 10
66.52759314611649
 20
295.9528686726416
 30
0.0
 40
33.74764799999999
100
AcDbArc
 50
342.2801918472014
 51
17.71980815279839
  0
ARC
  5
263
330
2
100
AcDbEntity
  8
0
 48
0.6
100
AcDbCircle
 10
66.52759314611649
 20
295.9528686726416
 30
0.0
 40
33.74764799999999
100
AcDbArc
 50
72.28019184719491
 51
107.719808152805
  0
ARC
  5
264
330
2
100
AcDbEntity
  8
0
 48
0.6
100
AcDbCircle
 10
81.51487143421945
 20
326.1900185887097
 30
0.0
 40
3.067967999999998
100
AcDbArc
 50
63.63432749678904
 51
128.0513255193868
  0
ARC
  5
265
330
2
100
AcDbEntity
  8
0
 48
0.6
100
AcDbCircle
 10
77.73288218618382
 20
331.0218161759248
 30
0.0
 40
3.067967999999998
100
AcDbArc
 50
252.2801918471949
 51
308.0513255193868
  0
ARC
  5
266
330
2
100
AcDbEntity
  8
0
 48
0.6
100
AcDbCircle
 10
51.54031485801351
 20
326.1900185887097
 30
0.0
 40
3.067967999999998
100
AcDbArc
 50
51.94867448061305
 51
116.3656725032109
  0
ARC
  5
267
330
2
100
AcDbEntity
  8
0
 48
0.6
100
AcDbCircle
 10
55.32230410605371
 20
331.0218161759248
 30
0.0
 40
3.067967999999998
100
AcDbArc
 50
231.948674480613
 51
287.7198081528051
  0
CIRCLE
  5
268
330
2
100
AcDbEntity
  8
0
 48
0.6
100
AcDbCircle
 10
66.60305746030099
 20
295.9528686726416
 30
0.0
 40
6.0
  0
ARC
  5
269
330
2
100
AcDbEntity
  8
0
 48
0.6
100
AcDbCircle
 10
31.45864564283147
 20
307.1581577127035
 30
0.0
 40
3.067967999999998
100
AcDbArc
 50
342.2801918472014
 51
38.05132551937779
  0
ARC
  5
26A
330
2
100
AcDbEntity
  8
0
 48
0.6
100
AcDbCircle
 10
36.29044323004837
 20
310.9401469607437
 30
0.0
 40
3.067967999999998
100
AcDbArc
 50
153.634327496783
 51
218.0513255193776
  0
ARC
  5
26B
330
2
100
AcDbEntity
  8
0
 48
0.6
100
AcDbCircle
 10
66.52759314611649
 20
295.9528686726416
 30
0.0
 40
33.74764799999999
100
AcDbArc
 50
162.2801918472015
 51
197.7198081527984
  0
ARC
  5
26C
330
2
100
AcDbEntity
  8
0
 48
0.6
100
AcDbCircle
 10
66.52759314611649
 20
295.9528686726416
 30
0.0
 40
36.81561599999999
100
AcDbArc
 50
116.3656725032109
 51
153.634327496783
  0
ARC
  5
26D
330
2
100
AcDbEntity
  8
0
 48
0.6
100
AcDbCircle
 10
66.52759314611649
 20
295.9528686726416
 30
0.0
 40
36.81561599999999
100
AcDbArc
 50
26.36567250321681
 51
63.63432749678904
  0
ARC
  5
26E
330
2
100
AcDbEntity
  8
0
100
AcDbCircle
 10
111.6030574603009
 20
324.9528686726407
 30
0.0
 40
1.0
100
AcDbArc
 50
0.0
 51
89.99999999999998
  0
ARC
  5
26F
330
2
100
AcDbEntity
  8
0
100
AcDbCircle
 10
37.60305746030189
 20
340.9528686726407
 30
0.0
 40
1.0
100
AcDbArc
 50
90.0
 51
179.9999999999999
  0
ARC
  5
270
330
2
100
AcDbEntity
  8
0
100
AcDbCircle
 10
95.6030574603019
 20
340.9528686726407
 30
0.0
 40
1.0
100
AcDbArc
 50
0.0
 51
90.0
  0
LINE
  5
271
330
2
100
AcDbEntity
  8
0
100
AcDbLine
 10
95.6030574603019
 20
341.9528686726416
 30
0.0
 11
37.60305746030189
 21
341.9528686726416
 31
0.0
  0
ARC
  5
272
330
2
100
AcDbEntity
  8
0
 48
0.6
100
AcDbCircle
 10
175.0241810725228
 20
327.5190995616612
 30
0.0
 40
26.81626566475105
100
AcDbArc
 50
269.907726570802
 51
280.6520097393286
  0
LINE
  5
273
330
2
100
AcDbEntity
  8
0
 48
0.6
100
AcDbLine
 10
160.9809941616895
 20
300.6028686726403
 30
0.0
 11
161.9809941616895
 21
301.6028686726412
 31
0.0
  0
LINE
  5
274
330
2
100
AcDbEntity
  8
0
 48
0.6
100
AcDbLine
 10
161.9809941616895
 20
301.6028686726412
 30
0.0
 11
179.9809941616886
 21
301.6028686726412
 31
0.0
  0
LINE
  5
275
330
2
100
AcDbEntity
  8
0
 48
0.6
100
AcDbLine
 10
161.9809941616895
 20
300.7028686726416
 30
0.0
 11
174.9809941616895
 21
300.7028686726416
 31
0.0
  0
LINE
  5
276
330
2
100
AcDbEntity
  8
0
 48
0.6
100
AcDbLine
 10
168.9809941616895
 20
301.6028686726412
 30
0.0
 11
179.9809941616886
 21
301.6028686726412
 31
0.0
  0
LINE
  5
277
330
2
100
AcDbEntity
  8
CEN
 48
0.6
100
AcDbLine
 10
159.420162240046
 20
301.09236867264
 30
0.0
 11
182.9809941616886
 21
301.09236867264
 31
0.0
  0
ARC
  5
27A
330
2
100
AcDbEntity
  8
0
 48
0.6
100
AcDbCircle
 10
175.0241810725174
 20
264.3866377835911
 30
0.0
 40
26.81626566478071
100
AcDbArc
 50
79.34799026067249
 51
90.09227342919791
  0
LINE
  5
27B
330
2
100
AcDbEntity
  8
0
 48
0.6
100
AcDbLine
 10
160.9809941616895
 20
291.3028686726411
 30
0.0
 11
161.9809941616895
 21
290.3028686726411
 31
0.0
  0
LINE
  5
27C
330
2
100
AcDbEntity
  8
0
 48
0.6
100
AcDbLine
 10
161.9809941616895
 20
290.3028686726411
 30
0.0
 11
179.9809941616886
 21
290.3028686726411
 31
0.0
  0
LINE
  5
27D
330
2
100
AcDbEntity
  8
0
 48
0.6
100
AcDbLine
 10
161.9809941616895
 20
291.2028686726416
 30
0.0
 11
174.9809941616895
 21
291.2028686726416
 31
0.0
  0
LINE
  5
27E
330
2
100
AcDbEntity
  8
0
 48
0.6
100
AcDbLine
 10
168.9809941616895
 20
290.3028686726411
 30
0.0
 11
179.9809941616886
 21
290.3028686726411
 31
0.0
  0
LINE
  5
27F
330
2
100
AcDbEntity
  8
CEN
 48
0.6
100
AcDbLine
 10
159.2267170143341
 20
290.8133686726387
 30
0.0
 11
182.9809941616886
 21
290.8133686726387
 31
0.0
  0
LINE
  5
280
330
2
100
AcDbEntity
  8
2
 48
0.6
100
AcDbLine
 10
174.9809941616895
 20
297.40776855699
 30
0.0
 11
163.07844632459
 21
291.2028686726416
 31
0.0
  0
LINE
  5
282
330
2
100
AcDbEntity
  8
2
 48
0.6
100
AcDbLine
 10
174.9809941616895
 20
300.7028686726416
 30
0.0
 11
174.9809941616895
 21
291.2028686726416
 31
0.0
  0
LINE
  5
283
330
2
100
AcDbEntity
  8
2
 48
0.6
100
AcDbLine
 10
161.9809941616895
 20
301.6028686726412
 30
0.0
 11
161.9809941616895
 21
290.3028686726393
 31
0.0
  0
LINE
  5
284
330
2
100
AcDbEntity
  8
0
 48
0.6
100
AcDbLine
 10
160.9809941616895
 20
300.6028686726403
 30
0.0
 11
160.9809941616895
 21
291.3028686726411
 31
0.0
  0
LINE
  5
285
330
2
100
AcDbEntity
  8
2
 48
0.6
100
AcDbLine
 10
174.9809941616895
 20
298.5729580496517
 30
0.0
 11
161.9809941616895
 21
291.6928673418078
 31
0.0
  0
LINE
  5
286
330
2
100
AcDbEntity
  8
2
 48
0.6
100
AcDbLine
 10
174.9809941616895
 20
299.5514987763245
 30
0.0
 11
161.9809941616895
 21
292.9841394642917
 31
0.0
  0
LINE
  5
287
102
{ACAD_REACTORS
330
29D
102
}
330
2
100
AcDbEntity
  8
0
100
AcDbLine
 10
188.5809941616926
 20
339.5516060141699
 30
0.0
 11
189.4809941616886
 21
339.5516060141699
 31
0.0
  0
LINE
  5
288
330
2
100
AcDbEntity
  8
0
100
AcDbLine
 10
188.5809941616926
 20
331.8516060141701
 30
0.0
 11
189.4809941616886
 21
331.8516060141701
 31
0.0
  0
LINE
  5
289
330
2
100
AcDbEntity
  8
0
100
AcDbLine
 10
181.9809941616886
 20
340.9528686726407
 30
0.0
 11
188.5809941616926
 21
340.9528686726407
 31
0.0
  0
LINE
  5
28A
330
2
100
AcDbEntity
  8
0
100
AcDbLine
 10
181.9809941616886
 20
337.4528686726416
 30
0.0
 11
179.9809941616886
 21
337.4528686726416
 31
0.0
  0
LINE
  5
28B
330
2
100
AcDbEntity
  8
0
100
AcDbLine
 10
189.4809941616886
 20
331.8516060141701
 30
0.0
 11
189.4809941616886
 21
339.5516060141699
 31
0.0
  0
DIMENSION
  5
28C
330
2
100
AcDbEntity
  8
0
100
AcDbDimension
  2
*D42
 10
181.9809941616886
 20
353.58552223689
 30
0.0
 11
170.9809941616886
 21
353.58552223689
 31
0.0
 70
   160
  3
STANDARD
100
AcDbAlignedDimension
 13
179.9809941616886
 23
337.4528686726416
 33
0.0
 14
181.9809941616886
 24
340.9528686726407
 34
0.0
100
AcDbRotatedDimension
  0
DIMENSION
  5
29B
102
{ACAD_XDICTIONARY
360
29C
102
}
102
{ACAD_REACTORS
330
29D
102
}
330
2
100
AcDbEntity
  8
0
100
AcDbDimension
  2
*D41
 10
189.4809941616886
 20
353.58552223689
 30
0.0
 11
185.7309941616886
 21
353.58552223689
 31
0.0
 70
   160
  3
STANDARD
100
AcDbAlignedDimension
 13
181.9809941616886
 23
341.1612020059756
 33
0.0
 14
189.4809941616886
 24
339.5516060141699
 34
0.0
100
AcDbRotatedDimension
  0
DIMENSION
  5
2AA
330
2
100
AcDbEntity
  8
0
100
AcDbDimension
  2
*D40
 10
181.9809941616886
 20
363.3471650759902
 30
0.0
 11
171.4809941616895
 21
363.3471650759902
 31
0.0
 70
   160
  3
STANDARD
100
AcDbAlignedDimension
 13
160.9809941616895
 23
300.6028686726403
 33
0.0
 14
181.9809941616886
 24
341.1612020059756
 34
0.0
100
AcDbRotatedDimension
  0
LEADER
  5
2B7
330
2
100
AcDbEntity
  8
0
100
AcDbLeader
  3
STANDARD
 73
     0
 75
     1
 40
3.0
 41
26.65178571428571
 76
     3
 10
103.397250656727
 20
335.8720431254468
 30
0.0
 10
97.8494785722014
 20
348.7126085086038
 30
0.0
 10
95.3494785722014
 20
348.7126085086038
 30
0.0
340
2B8
1001
ACAD
1000
DSTYLE
1002
{
1070
     5
1000

1070
    77
1070
     1
1070
   147
1040
1.0
1070
   342
1005
0
1002
}
  0
MTEXT
  5
2B8
102
{ACAD_REACTORS
330
2B7
102
}
330
2
100
AcDbEntity
  8
0
 62
     3
100
AcDbMText
 10
94.34947857220141
 20
349.7126085086037
 30
0.0
 40
3.0
 41
0.0
 71
     9
 72
     1
  1
4-%%C6.5 hole
1001
ACAD
1000
MTEXTBEGIN
1070
    73
1070
     1
1070
    44
1040
1.0
1070
    74
1070
     0
1000
MTEXTEND
  0
LINE
  5
2B9
330
2
100
AcDbEntity
  8
0
100
AcDbLine
 10
20.60305746030189
 20
324.9528686726416
 30
0.0
 11
20.60305746030189
 21
266.9528686726416
 31
0.0
  0
ARC
  5
2BA
330
2
100
AcDbEntity
  8
0
100
AcDbCircle
 10
21.60305746030098
 20
266.9528686726416
 30
0.0
 40
1.0
100
AcDbArc
 50
179.9999999999999
 51
269.9999999999999
  0
ARC
  5
2BB
330
2
100
AcDbEntity
  8
0
100
AcDbCircle
 10
21.60305746030098
 20
324.9528686726416
 30
0.0
 40
1.0
100
AcDbArc
 50
89.99999999999992
 51
179.9999999999999
  0
CIRCLE
  5
2BC
330
2
100
AcDbEntity
  8
0
 48
0.6
100
AcDbCircle
 10
66.60305746030099
 20
295.9528686726416
 30
0.0
 40
42.00000000000005
  0
CIRCLE
  5
2BD
330
2
100
AcDbEntity
  8
0
 48
0.6
100
AcDbCircle
 10
66.60305746030099
 20
295.9528686726416
 30
0.0
 40
43.5
  0
INSERT
  5
2BE
330
2
100
AcDbEntity
  8
0
100
AcDbBlockReference
  2
4
 10
66.60305746030099
 20
295.9528686726416
 30
0.0
  0
LINE
  5
2BF
330
2
100
AcDbEntity
  8
CL
 48
0.6
100
AcDbLine
 10
17.34978124590179
 20
295.9528686726416
 30
0.0
 11
115.856333674701
 21
295.9528686726416
 31
0.0
  0
DIMENSION
  5
2C0
330
2
100
AcDbEntity
  8
0
100
AcDbDimension
  2
*D39
 10
111.6030574602973
 20
359.4174921237363
 30
0.0
 11
66.60305746029826
 21
359.4174921237363
 31
0.0
 70
   160
  3
STANDARD
100
AcDbAlignedDimension
 13
21.60305746030098
 23
335.9100749138424
 33
0.0
 14
111.6030574602973
 24
335.9100749138424
 34
0.0
100
AcDbRotatedDimension
  0
DIMENSION
  5
2CD
330
2
100
AcDbEntity
  8
0
100
AcDbDimension
  2
*D38
 10
112.6030574603019
 20
370.8081546154617
 30
0.0
 11
66.60305746029826
 21
370.8081546154617
 31
0.0
 70
   160
  3
STANDARD
100
AcDbAlignedDimension
 13
20.60305746029734
 23
324.9528686726416
 33
0.0
 14
112.6030574603019
 24
324.9528686726416
 34
0.0
100
AcDbRotatedDimension
  0
LINE
  5
2DA
330
2
100
AcDbEntity
  8
0
100
AcDbLine
 10
303.321028869379
 20
342.132681961606
 30
0.0
 11
303.321028869379
 21
250.1326819616051
 31
0.0
  0
LINE
  5
2DB
330
2
100
AcDbEntity
  8
0
100
AcDbLine
 10
361.9799163623383
 20
339.132681961606
 30
0.0
 11
361.9799163623383
 21
253.1326819616051
 31
0.0
  0
LINE
  5
2DC
330
2
100
AcDbEntity
  8
0
100
AcDbLine
 10
358.9799163623383
 20
250.1326819616051
 30
0.0
 11
303.321028869379
 21
250.1326819616051
 31
0.0
  0
ARC
  5
2DD
330
2
100
AcDbEntity
  8
0
100
AcDbCircle
 10
358.9799163623383
 20
253.1326819616051
 30
0.0
 40
3.0
100
AcDbArc
 50
270.0
 51
359.9999999999997
  0
LINE
  5
2DE
330
2
100
AcDbEntity
  8
0
 48
0.6
100
AcDbLine
 10
319.1196469142305
 20
250.1326819616051
 30
0.0
 11
319.1196469142305
 21
249.6326819616051
 31
0.0
  0
ARC
  5
2DF
330
2
100
AcDbEntity
  8
0
 48
0.6
100
AcDbCircle
 10
318.6196469142278
 20
249.6326819616051
 30
0.0
 40
0.5
100
AcDbArc
 50
270.0
 51
0.0
  0
LINE
  5
2E0
330
2
100
AcDbEntity
  8
0
 48
0.6
100
AcDbLine
 10
309.1196469142287
 20
250.1326819616051
 30
0.0
 11
309.1196469142287
 21
249.6326819616051
 31
0.0
  0
ARC
  5
2E1
330
2
100
AcDbEntity
  8
0
 48
0.6
100
AcDbCircle
 10
309.6196469142287
 20
249.6326819616051
 30
0.0
 40
0.5
100
AcDbArc
 50
180.0
 51
270.0
  0
LINE
  5
2E2
330
2
100
AcDbEntity
  8
0
 48
0.6
100
AcDbLine
 10
318.6196469142278
 20
249.1326819616042
 30
0.0
 11
309.6196469142287
 21
249.1326819616042
 31
0.0
  0
LINE
  5
2E3
330
2
100
AcDbEntity
  8
0
100
AcDbLine
 10
303.321028869379
 20
272.8625530096005
 30
0.0
 11
361.9799163623383
 21
272.8625530096005
 31
0.0
  0
LINE
  5
2E4
330
2
100
AcDbEntity
  8
0
100
AcDbLine
 10
358.9799163623383
 20
342.132681961606
 30
0.0
 11
303.321028869379
 21
342.132681961606
 31
0.0
  0
LINE
  5
2E5
330
2
100
AcDbEntity
  8
0
100
AcDbLine
 10
303.321028869379
 20
319.4028109136079
 30
0.0
 11
361.9799163623383
 21
319.4028109136079
 31
0.0
  0
ARC
  5
2E6
330
2
100
AcDbEntity
  8
0
100
AcDbCircle
 10
358.9799163623383
 20
339.132681961606
 30
0.0
 40
3.0
100
AcDbArc
 50
359.9999999999997
 51
90.00000000000046
  0
DIMENSION
  5
2E7
330
2
100
AcDbEntity
  8
0
100
AcDbDimension
  2
*D44
 10
381.866377198885
 20
250.1326819616051
 30
0.0
 11
381.8663771988849
 21
296.132681961606
 31
0.0
 70
   160
  3
STANDARD
100
AcDbAlignedDimension
 13
359.9799163623365
 23
342.132681961606
 33
0.0
 14
359.9799163623365
 24
250.1326819616051
 34
0.0
 50
90.0
100
AcDbRotatedDimension
  0
ENDSEC
  0
SECTION
  2
OBJECTS
  0
DICTIONARY
  5
9
330
0
100
AcDbDictionary
  3
ACAD_GROUP
350
98
  3
ACAD_LAYOUT
350
D
  3
ACAD_MLINESTYLE
350
99
  3
ACAD_PLOTSETTINGS
350
9A
  3
ACAD_PLOTSTYLENAME
350
8
  3
ACDBHEADERROUNDTRIPXREC
350
401
  3
ACDBVARIABLEDICTIONARY
350
2F4
  0
DICTIONARY
  5
15
330
14
100
AcDbDictionary
280
     1
  3
ACAD_LAYERFILTERS
360
16
  3
ACAD_LAYERSTATES
360
89
  0
DICTIONARY
  5
3
330
2
100
AcDbDictionary
280
     1
  3
ACAD_LAYOUTSELFREF
360
422
  0
DICTIONARY
  5
F
330
E
100
AcDbDictionary
280
     1
  3
ACAD_LAYOUTSELFREF
360
423
  0
DICTIONARY
  5
BE
330
BD
100
AcDbDictionary
280
     1
  3
ACAD_DIMASSOC
360
BF
  0
DICTIONARY
  5
E8
330
E7
100
AcDbDictionary
280
     1
  3
ACAD_DIMASSOC
360
E9
  0
DICTIONARY
  5
167
330
166
100
AcDbDictionary
280
     1
  3
ACAD_DIMASSOC
360
168
  0
DICTIONARY
  5
1B2
330
1B1
100
AcDbDictionary
280
     1
  3
ACAD_DIMASSOC
360
1B3
  0
DICTIONARY
  5
1C2
330
1C1
100
AcDbDictionary
280
     1
  3
ACAD_DIMASSOC
360
1C3
  0
DICTIONARY
  5
1D3
330
1D2
100
AcDbDictionary
280
     1
  3
ACAD_DIMASSOC
360
1D4
  0
DICTIONARY
  5
1F3
330
1F2
100
AcDbDictionary
280
     1
  3
ACAD_DIMASSOC
360
1F4
  0
DICTIONARY
  5
22C
330
22B
100
AcDbDictionary
280
     1
  3
ACAD_DIMASSOC
360
22D
  0
DICTIONARY
  5
29C
330
29B
100
AcDbDictionary
280
     1
  3
ACAD_DIMASSOC
360
29D
  0
DICTIONARY
  5
98
102
{ACAD_REACTORS
330
9
102
}
330
9
100
AcDbDictionary
  0
DICTIONARY
  5
D
102
{ACAD_REACTORS
330
9
102
}
330
9
100
AcDbDictionary
  0
DICTIONARY
  5
99
102
{ACAD_REACTORS
330
9
102
}
330
9
100
AcDbDictionary
  3
STANDARD
350
9B
  0
DICTIONARY
  5
9A
102
{ACAD_REACTORS
330
9
102
}
330
9
100
AcDbDictionary
  0
ACDBDICTIONARYWDFLT
  5
8
102
{ACAD_REACTORS
330
9
102
}
330
9
100
AcDbDictionary
281
     1
  3
Normal
350
7
100
AcDbDictionaryWithDefault
340
7
  0
DICTIONARY
  5
401
102
{ACAD_REACTORS
330
9
102
}
330
9
100
AcDbDictionary
  3
CEPSNTYPE
350
40B
  3
DIMSTYLEDATA
350
40F
  3
FINGERPRINTGUID
350
40C
  3
HYPERLINKBASE
350
404
  3
INSUNITS
350
40A
  3
LAYOUTDICT
350
406
  3
LWETCUNION
350
409
  3
PLOTSETDICT
350
407
  3
PLOTSTYLNAMDICT
350
408
  3
PSVPSCALE
350
40E
  3
PUCSBASE
350
412
  3
PUCSORGBACK
350
418
  3
PUCSORGBOTTOM
350
414
  3
PUCSORGFRONT
350
417
  3
PUCSORGLEFT
350
415
  3
PUCSORGRIGHT
350
416
  3
PUCSORGTOP
350
413
  3
PUCSORTHOREF
350
410
  3
PUCSORTHOVIEW
350
411
  3
STYLESHEET
350
405
  3
TSTACKALIGN
350
402
  3
TSTACKSIZE
350
403
  3
UCSBASE
350
41B
  3
UCSORGBACK
350
421
  3
UCSORGBOTTOM
350
41D
  3
UCSORGFRONT
350
420
  3
UCSORGLEFT
350
41E
  3
UCSORGRIGHT
350
41F
  3
UCSORGTOP
350
41C
  3
UCSORTHOREF
350
419
  3
UCSORTHOVIEW
350
41A
  3
VERSIONGUID
350
40D
  0
DICTIONARY
  5
2F4
102
{ACAD_REACTORS
330
9
102
}
330
9
100
AcDbDictionary
  3
DIMASSOC
350
2F6
  3
HIDETEXT
350
2F5
  0
DICTIONARY
  5
16
102
{ACAD_REACTORS
330
15
102
}
330
15
100
AcDbDictionary
280
     1
  3
$LAYERS
360
17
  3
-_UND_0
360
18
  3
-PEGC
360
19
  3
101
360
1A
  3
102
360
1B
  3
1DUC
360
1C
  3
1EQ
360
1D
  3
1TUB
360
1E
  3
2
360
1F
  3
2000
360
20
  3
50
360
21
  3
58J
360
22
  3
65
360
23
  3
AA
360
24
  3
ACABADOS
360
25
  3
AGUA_Y_DREN
360
26
  3
AIRE
360
27
  3
ALLE_AUS
360
28
  3
ALLES_MIT_S
360
29
  3
AMARILLO
360
2A
  3
APAGADOS
360
2B
  3
ARR
360
2C
  3
BA
360
2D
  3
BACKS
360
2E
  3
BASE
360
2F
  3
BLOQ_INUTIL
360
30
  3
CADKON
360
31
  3
CARPINTERIA
360
32
  3
CERRADOS
360
33
  3
COL
360
34
  3
COLOR
360
35
  3
COLOR_250
360
36
  3
COLORES
360
37
  3
CONGELADOS
360
38
  3
CONJUNTO
360
39
  3
D1
360
3A
  3
DA_
360
3B
  3
DET-
360
3C
  3
DOR-H
360
3D
  3
EJES
360
3E
  3
ELECTRICO
360
3F
  3
F1
360
40
  3
FROZEN
360
41
  3
GRID
360
42
  3
GRIDTXT
360
43
  3
HATCH
360
44
  3
HCAD
360
45
  3
INSTALACIONES
360
46
  3
JIZNI
360
47
  3
KCK
360
48
  3
KKK
360
49
  3
LAY
360
4A
  3
LAYER-0
360
4E
  3
LAYER-1
360
4F
  3
LAYER_1_UND_0
360
4B
  3
LAYER_2_UND_0
360
4C
  3
LAYER_9_UND_0_SCHRAFFUR
360
4D
  3
LOCK
360
50
  3
LOCKED
360
51
  3
LOTES
360
52
  3
LUNAR
360
53
  3
LUNAR2
360
54
  3
M
360
55
  3
MIS_LAYERS
360
56
  3
MRKCK
360
57
  3
NECADKON
360
58
  3
NI_LH
360
59
  3
NI_RH
360
5A
  3
NUM
360
5B
  3
OFF
360
5C
  3
ON
360
5D
  3
PBASE
360
5E
  3
PEGC
360
5F
  3
PEGCT
360
60
  3
PFRAME
360
61
  3
PGRID
360
62
  3
PGRIDT
360
63
  3
PLAFONES
360
64
  3
PLANTAS
360
65
  3
PLOT
360
66
  3
PRENDIDAS
360
67
  3
PRENDIDOS
360
68
  3
PRINT
360
69
  3
PT
360
6A
  3
PTH
360
6B
  3
PVGRID
360
6C
  3
RED_DE_AGUA_POTABLE
360
6D
  3
RED_DE_ENERGIA_ELECTRICA
360
6E
  3
SEVERNI
360
6F
  3
SHIN
360
70
  3
SHOW_ALL_LAYER
360
71
  3
SIN
360
72
  3
STORAGE-CART
360
73
  3
T
360
74
  3
TEXTOS
360
75
  3
TEXTURAS
360
76
  3
TUBERIAS
360
77
  3
UNFRZ
360
78
  3
V\U+0160ECHNY_NEPOU\U+017D\U+00CDVAN\U+00C9
360
79
  3
VA
360
7A
  3
VENTILACI\U+00D3N
360
7B
  3
VYHODNI
360
7C
  3
YO
360
7D
  3
ZAPADNI
360
7E
  3
사용
360
7F
  3
신규
360
80
  3
실박스
360
81
  3
우리토목
360
82
  3
주차
360
83
  3
지상정밀
360
84
  3
쩜선
360
85
  3
플로터_작업층
360
86
  3
현재_작업층
360
87
  3
현재_잠금
360
88
  0
DICTIONARY
  5
89
102
{ACAD_REACTORS
330
15
102
}
330
15
100
AcDbDictionary
  0
XRECORD
  5
422
102
{ACAD_REACTORS
330
3
102
}
330
3
100
AcDbXrecord
340
2
  0
XRECORD
  5
423
102
{ACAD_REACTORS
330
F
102
}
330
F
100
AcDbXrecord
340
E
  0
DIMASSOC
  5
BF
102
{ACAD_REACTORS
330
BE
102
}
330
BE
100
AcDbDimAssoc
330
BD
 90
        2
 70
     0
 71
     0
  1
AcDbOsnapPointRef
 72
     3
331
BC
 73
     2
 91
        0
 40
0.0
 10
0.0
 20
0.0
 30
0.0
 75
     0
  0
DIMASSOC
  5
E9
102
{ACAD_REACTORS
330
E8
102
}
330
E8
100
AcDbDimAssoc
330
E7
 90
        3
 70
     0
 71
     0
  1
AcDbOsnapPointRef
 72
    13
331
AF
 73
     2
 91
        0
 40
0.0
 10
212.8701143368434
 20
135.5301004675948
 30
0.0
 75
     0
  1
AcDbOsnapPointRef
 72
     1
331
AF
 73
     2
 91
        0
 40
1.0
 10
212.8701143368434
 20
52.53010046759391
 30
0.0
 75
     0
  0
DIMASSOC
  5
168
102
{ACAD_REACTORS
330
167
102
}
330
167
100
AcDbDimAssoc
330
166
 90
        2
 70
     0
 71
     0
  1
AcDbOsnapPointRef
 72
     1
331
179
 73
     2
 91
        0
 40
1.0
 10
222.3701143368425
 20
137.628837809123
 30
0.0
 75
     0
  0
DIMASSOC
  5
1B3
102
{ACAD_REACTORS
330
1B2
102
}
330
1B2
100
AcDbDimAssoc
330
1B1
 90
        3
 70
     0
 71
     0
  1
AcDbOsnapPointRef
 72
     1
331
202
 73
     2
 91
        0
 40
1.0
 10
177.8701143368425
 20
88.03010046759482
 30
0.0
 75
     0
  1
AcDbOsnapPointRef
 72
     1
331
1C0
 73
     2
 91
        0
 40
1.0
 10
177.8701143368425
 20
99.03010046759483
 30
0.0
 75
     0
  0
DIMASSOC
  5
1C3
102
{ACAD_REACTORS
330
1C2
102
}
330
1C2
100
AcDbDimAssoc
330
1C1
 90
        3
 70
     0
 71
     0
  1
AcDbOsnapPointRef
 72
     1
331
1C0
 73
     2
 91
        0
 40
1.0
 10
177.8701143368425
 20
99.03010046759483
 30
0.0
 75
     0
  1
AcDbOsnapPointRef
 72
     1
331
201
 73
     2
 91
        0
 40
1.0
 10
207.8701143368425
 20
100.0301004675948
 30
0.0
 75
     0
  0
DIMASSOC
  5
1D4
102
{ACAD_REACTORS
330
1D3
102
}
330
1D3
100
AcDbDimAssoc
330
1D2
 90
        3
 70
     0
 71
     0
  1
AcDbOsnapPointRef
 72
     1
331
202
 73
     2
 91
        0
 40
1.0
 10
177.8701143368425
 20
88.03010046759482
 30
0.0
 75
     0
  1
AcDbOsnapPointRef
 72
     1
331
201
 73
     2
 91
        0
 40
1.0
 10
207.8701143368425
 20
100.0301004675948
 30
0.0
 75
     0
  0
DIMASSOC
  5
1F4
102
{ACAD_REACTORS
330
1F3
102
}
330
1F3
100
AcDbDimAssoc
330
1F2
 90
        1
 70
     0
 71
     0
  1
AcDbOsnapPointRef
 72
     1
331
1C0
 73
     2
 91
        0
 40
1.0
 10
177.8701143368425
 20
99.03010046759483
 30
0.0
 75
     0
  0
DIMASSOC
  5
22D
102
{ACAD_REACTORS
330
22C
102
}
330
22C
100
AcDbDimAssoc
330
22B
 90
        3
 70
     0
 71
     0
  1
AcDbOsnapPointRef
 72
    13
331
226
 73
     2
 91
        0
 40
0.0
 10
179.9809941616886
 20
337.4528686726416
 30
0.0
 75
     0
  1
AcDbOsnapPointRef
 72
     1
331
226
 73
     2
 91
        0
 40
1.0
 10
179.9809941616886
 20
254.4528686726416
 30
0.0
 75
     0
  0
DIMASSOC
  5
29D
102
{ACAD_REACTORS
330
29C
102
}
330
29C
100
AcDbDimAssoc
330
29B
 90
        2
 70
     0
 71
     0
  1
AcDbOsnapPointRef
 72
     1
331
287
 73
     2
 91
        0
 40
1.0
 10
189.4809941616886
 20
339.5516060141699
 30
0.0
 75
     0
  0
MLINESTYLE
  5
9B
102
{ACAD_REACTORS
330
99
102
}
330
99
100
AcDbMlineStyle
  2
STANDARD
 70
     0
  3

 62
   256
 51
90.0
 52
90.0
 71
     2
 49
0.5
 62
   256
  6
BYLAYER
 49
-0.5
 62
   256
  6
BYLAYER
  0
ACDBPLACEHOLDER
  5
7
102
{ACAD_REACTORS
330
8
102
}
330
8
100
AcDbPlaceHolder
280
     0
  0
XRECORD
  5
40B
102
{ACAD_REACTORS
330
401
102
}
330
401
100
AcDbXrecord
 90
        0
  0
XRECORD
  5
40F
102
{ACAD_REACTORS
330
401
102
}
330
401
100
AcDbXrecord
1000
DSTYLE
1002
{
1070
    79
 70
     2
1070
   179
 70
     1
1070
   289
 70
     0
1002
}
  0
XRECORD
  5
40C
102
{ACAD_REACTORS
330
401
102
}
330
401
100
AcDbXrecord
  1
{FDEAD578-A652-11D2-9A35-0060089B3A3F}
  0
XRECORD
  5
404
102
{ACAD_REACTORS
330
401
102
}
330
401
100
AcDbXrecord
  1

  0
XRECORD
  5
40A
102
{ACAD_REACTORS
330
401
102
}
330
401
100
AcDbXrecord
 90
        4
  0
XRECORD
  5
406
102
{ACAD_REACTORS
330
401
102
}
330
401
100
AcDbXrecord
340
D
  0
XRECORD
  5
409
102
{ACAD_REACTORS
330
401
102
}
330
401
100
AcDbXrecord
 90
    10781
  0
XRECORD
  5
407
102
{ACAD_REACTORS
330
401
102
}
330
401
100
AcDbXrecord
340
9A
  0
XRECORD
  5
408
102
{ACAD_REACTORS
330
401
102
}
330
401
100
AcDbXrecord
340
8
  0
XRECORD
  5
40E
102
{ACAD_REACTORS
330
401
102
}
330
401
100
AcDbXrecord
 40
0.0
  0
XRECORD
  5
412
102
{ACAD_REACTORS
330
401
102
}
330
401
100
AcDbXrecord
340
0
  0
XRECORD
  5
418
102
{ACAD_REACTORS
330
401
102
}
330
401
100
AcDbXrecord
 10
0.0
 20
0.0
 30
0.0
  0
XRECORD
  5
414
102
{ACAD_REACTORS
330
401
102
}
330
401
100
AcDbXrecord
 10
0.0
 20
0.0
 30
0.0
  0
XRECORD
  5
417
102
{ACAD_REACTORS
330
401
102
}
330
401
100
AcDbXrecord
 10
0.0
 20
0.0
 30
0.0
  0
XRECORD
  5
415
102
{ACAD_REACTORS
330
401
102
}
330
401
100
AcDbXrecord
 10
0.0
 20
0.0
 30
0.0
  0
XRECORD
  5
416
102
{ACAD_REACTORS
330
401
102
}
330
401
100
AcDbXrecord
 10
0.0
 20
0.0
 30
0.0
  0
XRECORD
  5
413
102
{ACAD_REACTORS
330
401
102
}
330
401
100
AcDbXrecord
 10
0.0
 20
0.0
 30
0.0
  0
XRECORD
  5
410
102
{ACAD_REACTORS
330
401
102
}
330
401
100
AcDbXrecord
340
0
  0
XRECORD
  5
411
102
{ACAD_REACTORS
330
401
102
}
330
401
100
AcDbXrecord
 70
     0
  0
XRECORD
  5
405
102
{ACAD_REACTORS
330
401
102
}
330
401
100
AcDbXrecord
  1

  0
XRECORD
  5
402
102
{ACAD_REACTORS
330
401
102
}
330
401
100
AcDbXrecord
 90
        1
  0
XRECORD
  5
403
102
{ACAD_REACTORS
330
401
102
}
330
401
100
AcDbXrecord
 90
       70
  0
XRECORD
  5
41B
102
{ACAD_REACTORS
330
401
102
}
330
401
100
AcDbXrecord
340
0
  0
XRECORD
  5
421
102
{ACAD_REACTORS
330
401
102
}
330
401
100
AcDbXrecord
 10
0.0
 20
0.0
 30
0.0
  0
XRECORD
  5
41D
102
{ACAD_REACTORS
330
401
102
}
330
401
100
AcDbXrecord
 10
0.0
 20
0.0
 30
0.0
  0
XRECORD
  5
420
102
{ACAD_REACTORS
330
401
102
}
330
401
100
AcDbXrecord
 10
0.0
 20
0.0
 30
0.0
  0
XRECORD
  5
41E
102
{ACAD_REACTORS
330
401
102
}
330
401
100
AcDbXrecord
 10
0.0
 20
0.0
 30
0.0
  0
XRECORD
  5
41F
102
{ACAD_REACTORS
330
401
102
}
330
401
100
AcDbXrecord
 10
0.0
 20
0.0
 30
0.0
  0
XRECORD
  5
41C
102
{ACAD_REACTORS
330
401
102
}
330
401
100
AcDbXrecord
 10
0.0
 20
0.0
 30
0.0
  0
XRECORD
  5
419
102
{ACAD_REACTORS
330
401
102
}
330
401
100
AcDbXrecord
340
0
  0
XRECORD
  5
41A
102
{ACAD_REACTORS
330
401
102
}
330
401
100
AcDbXrecord
 70
     0
  0
XRECORD
  5
40D
102
{ACAD_REACTORS
330
401
102
}
330
401
100
AcDbXrecord
  1
{B96542BF-465C-42DD-8175-AB65328FD272}
  0
DICTIONARYVAR
  5
2F6
102
{ACAD_REACTORS
330
2F4
102
}
330
2F4
100
DictionaryVariables
280
     0
  1
2
  0
DICTIONARYVAR
  5
2F5
102
{ACAD_REACTORS
330
2F4
102
}
330
2F4
100
DictionaryVariables
280
     0
  1
1
  0
XRECORD
  5
17
102
{ACAD_REACTORS
330
16
102
}
330
16
100
AcDbXrecord
  1
$layers
  1
*
  1
*
  1
*
 70
     0
  1
*
  1
*
  0
XRECORD
  5
18
102
{ACAD_REACTORS
330
16
102
}
330
16
100
AcDbXrecord
  1
- und 0
  1
-*,0
  1
*
  1
*
 70
     0
  1
*
  1
*
  0
XRECORD
  5
19
102
{ACAD_REACTORS
330
16
102
}
330
16
100
AcDbXrecord
  1
-pegc
  1
*-pegc
  1
*
  1
*
 70
     0
  1
*
  1
*
  0
XRECORD
  5
1A
102
{ACAD_REACTORS
330
16
102
}
330
16
100
AcDbXrecord
  1
101
  1
*101
  1
*
  1
*
 70
   256
  1
*
  1
*
  0
XRECORD
  5
1B
102
{ACAD_REACTORS
330
16
102
}
330
16
100
AcDbXrecord
  1
102
  1
102*
  1
*
  1
*
 70
     0
  1
*
  1
*
  0
XRECORD
  5
1C
102
{ACAD_REACTORS
330
16
102
}
330
16
100
AcDbXrecord
  1
1duc
  1
*1duc*
  1
*
  1
*
 70
     0
  1
*
  1
*
  0
XRECORD
  5
1D
102
{ACAD_REACTORS
330
16
102
}
330
16
100
AcDbXrecord
  1
1eq
  1
*1eq*
  1
*
  1
*
 70
     0
  1
*
  1
*
  0
XRECORD
  5
1E
102
{ACAD_REACTORS
330
16
102
}
330
16
100
AcDbXrecord
  1
1tub
  1
*1t*
  1
*
  1
*
 70
     0
  1
*
  1
*
  0
XRECORD
  5
1F
102
{ACAD_REACTORS
330
16
102
}
330
16
100
AcDbXrecord
  1
2
  1
*
  1
2
  1
*
 70
     0
  1
*
  1
*
  0
XRECORD
  5
20
102
{ACAD_REACTORS
330
16
102
}
330
16
100
AcDbXrecord
  1
2000
  1
2000*
  1
*
  1
*
 70
     0
  1
*
  1
*
  0
XRECORD
  5
21
102
{ACAD_REACTORS
330
16
102
}
330
16
100
AcDbXrecord
  1
50
  1
*-50
  1
*
  1
*
 70
     0
  1
*
  1
*
  0
XRECORD
  5
22
102
{ACAD_REACTORS
330
16
102
}
330
16
100
AcDbXrecord
  1
58J
  1
*58*
  1
*
  1
*
 70
     0
  1
*
  1
*
  0
XRECORD
  5
23
102
{ACAD_REACTORS
330
16
102
}
330
16
100
AcDbXrecord
  1
65
  1
*65
  1
*
  1
*
 70
     0
  1
*
  1
*
  0
XRECORD
  5
24
102
{ACAD_REACTORS
330
16
102
}
330
16
100
AcDbXrecord
  1
aa
  1
aa*
  1
*
  1
*
 70
     0
  1
*
  1
*
  0
XRECORD
  5
25
102
{ACAD_REACTORS
330
16
102
}
330
16
100
AcDbXrecord
  1
acabados
  1
a-*
  1
*
  1
*
 70
     5
  1
*
  1
*
  0
XRECORD
  5
26
102
{ACAD_REACTORS
330
16
102
}
330
16
100
AcDbXrecord
  1
AGUA Y DREN
  1
A-DS-*
  1
*
  1
*
 70
     0
  1
*
  1
*
  0
XRECORD
  5
27
102
{ACAD_REACTORS
330
16
102
}
330
16
100
AcDbXrecord
  1
Aire
  1
*
  1
*
  1
*
 70
     0
  1
*
  1
*
  0
XRECORD
  5
28
102
{ACAD_REACTORS
330
16
102
}
330
16
100
AcDbXrecord
  1
alle aus
  1
99999999999
  1
*
  1
*
 70
     0
  1
*
  1
*
  0
XRECORD
  5
29
102
{ACAD_REACTORS
330
16
102
}
330
16
100
AcDbXrecord
  1
Alles mit S
  1
s*
  1
*
  1
*
 70
     0
  1
*
  1
*
  0
XRECORD
  5
2A
102
{ACAD_REACTORS
330
16
102
}
330
16
100
AcDbXrecord
  1
amarillo
  1
*
  1
yellow
  1
*
 70
     0
  1
*
  1
*
  0
XRECORD
  5
2B
102
{ACAD_REACTORS
330
16
102
}
330
16
100
AcDbXrecord
  1
APAGADOS
  1
*
  1
*
  1
*
 70
     4
  1
*
  1
*
  0
XRECORD
  5
2C
102
{ACAD_REACTORS
330
16
102
}
330
16
100
AcDbXrecord
  1
ARR
  1
ARR*
  1
*
  1
*
 70
     0
  1
*
  1
*
  0
XRECORD
  5
2D
102
{ACAD_REACTORS
330
16
102
}
330
16
100
AcDbXrecord
  1
ba
  1
*
  1
*
  1
*
 70
     0
  1
*
  1
*
  0
XRECORD
  5
2E
102
{ACAD_REACTORS
330
16
102
}
330
16
100
AcDbXrecord
  1
BACKS
  1
*-H
  1
*
  1
*
 70
     0
  1
*
  1
*
  0
XRECORD
  5
2F
102
{ACAD_REACTORS
330
16
102
}
330
16
100
AcDbXrecord
  1
BASE
  1
*-PBASE
  1
*
  1
*
 70
     0
  1
*
  1
*
  0
XRECORD
  5
30
102
{ACAD_REACTORS
330
16
102
}
330
16
100
AcDbXrecord
  1
BLOQ_INUTIL
  1
*
  1
*
  1
*
 70
     0
  1
*
  1
*
  0
XRECORD
  5
31
102
{ACAD_REACTORS
330
16
102
}
330
16
100
AcDbXrecord
  1
CADKON
  1
?[KAHBSM]?????[23M],?[KAHBSM]?????[23M][1456A-DGHILN-SU-Z]
  1
*
  1
*
 70
     0
  1
*
  1
*
  0
XRECORD
  5
32
102
{ACAD_REACTORS
330
16
102
}
330
16
100
AcDbXrecord
  1
carpinteria
  1
carp*
  1
*
  1
*
 70
     0
  1
*
  1
*
  0
XRECORD
  5
33
102
{ACAD_REACTORS
330
16
102
}
330
16
100
AcDbXrecord
  1
cerrados
  1
*
  1
*
  1
*
 70
   256
  1
*
  1
*
  0
XRECORD
  5
34
102
{ACAD_REACTORS
330
16
102
}
330
16
100
AcDbXrecord
  1
COL
  1
*
  1
*
  1
*
 70
     1
  1
*
  1
*
  0
XRECORD
  5
35
102
{ACAD_REACTORS
330
16
102
}
330
16
100
AcDbXrecord
  1
COLOR
  1
*
  1
253
  1
*
 70
     0
  1
*
  1
*
  0
XRECORD
  5
36
102
{ACAD_REACTORS
330
16
102
}
330
16
100
AcDbXrecord
  1
color 250
  1
*
  1
250
  1
*
 70
     0
  1
*
  1
*
  0
XRECORD
  5
37
102
{ACAD_REACTORS
330
16
102
}
330
16
100
AcDbXrecord
  1
COLORES
  1
*
  1
6
  1
*
 70
     0
  1
*
  1
*
  0
XRECORD
  5
38
102
{ACAD_REACTORS
330
16
102
}
330
16
100
AcDbXrecord
  1
Congelados
  1
*
  1
*
  1
*
 70
     4
  1
*
  1
*
  0
XRECORD
  5
39
102
{ACAD_REACTORS
330
16
102
}
330
16
100
AcDbXrecord
  1
CONJUNTO
  1
CON-*
  1
*
  1
*
 70
     0
  1
*
  1
*
  0
XRECORD
  5
3A
102
{ACAD_REACTORS
330
16
102
}
330
16
100
AcDbXrecord
  1
d1
  1
achurados
  1
*
  1
*
 70
     0
  1
*
  1
*
  0
XRECORD
  5
3B
102
{ACAD_REACTORS
330
16
102
}
330
16
100
AcDbXrecord
  1
DA_
  1
DA*
  1
*
  1
*
 70
     0
  1
*
  1
*
  0
XRECORD
  5
3C
102
{ACAD_REACTORS
330
16
102
}
330
16
100
AcDbXrecord
  1
DET-
  1
*
  1
*
  1
*
 70
     0
  1
*
  1
*
  0
XRECORD
  5
3D
102
{ACAD_REACTORS
330
16
102
}
330
16
100
AcDbXrecord
  1
DOR-H
  1
*
  1
7
  1
*
 70
     0
  1
*
  1
*
  0
XRECORD
  5
3E
102
{ACAD_REACTORS
330
16
102
}
330
16
100
AcDbXrecord
  1
ejes
  1
eje*
  1
*
  1
*
 70
     0
  1
*
  1
*
  0
XRECORD
  5
3F
102
{ACAD_REACTORS
330
16
102
}
330
16
100
AcDbXrecord
  1
ELECTRICO
  1
ELEC-*
  1
*
  1
*
 70
     0
  1
*
  1
*
  0
XRECORD
  5
40
102
{ACAD_REACTORS
330
16
102
}
330
16
100
AcDbXrecord
  1
F1
  1
Halaxref*
  1
*
  1
*
 70
     0
  1
*
  1
*
  0
XRECORD
  5
41
102
{ACAD_REACTORS
330
16
102
}
330
16
100
AcDbXrecord
  1
frozen
  1
*
  1
*
  1
*
 70
     4
  1
*
  1
*
  0
XRECORD
  5
42
102
{ACAD_REACTORS
330
16
102
}
330
16
100
AcDbXrecord
  1
grid
  1
*-PGRID
  1
*
  1
*
 70
     1
  1
*
  1
*
  0
XRECORD
  5
43
102
{ACAD_REACTORS
330
16
102
}
330
16
100
AcDbXrecord
  1
GRIDTXT
  1
*-PGRIDT
  1
*
  1
*
 70
     0
  1
*
  1
*
  0
XRECORD
  5
44
102
{ACAD_REACTORS
330
16
102
}
330
16
100
AcDbXrecord
  1
HATCH
  1
HAT*
  1
*
  1
*
 70
     0
  1
*
  1
*
  0
XRECORD
  5
45
102
{ACAD_REACTORS
330
16
102
}
330
16
100
AcDbXrecord
  1
HCAD
  1
1HCAD-*
  1
*
  1
*
 70
    13
  1
*
  1
*
  0
XRECORD
  5
46
102
{ACAD_REACTORS
330
16
102
}
330
16
100
AcDbXrecord
  1
INSTALACIONES
  1
I-*
  1
*
  1
*
 70
     0
  1
*
  1
*
  0
XRECORD
  5
47
102
{ACAD_REACTORS
330
16
102
}
330
16
100
AcDbXrecord
  1
JIZNI
  1
*-J
  1
*
  1
*
 70
     0
  1
*
  1
*
  0
XRECORD
  5
48
102
{ACAD_REACTORS
330
16
102
}
330
16
100
AcDbXrecord
  1
kck
  1
*
  1
*
  1
*
 70
     0
  1
*
  1
*
  0
XRECORD
  5
49
102
{ACAD_REACTORS
330
16
102
}
330
16
100
AcDbXrecord
  1
kkk
  1
k
  1
*
  1
*
 70
     0
  1
*
  1
*
  0
XRECORD
  5
4A
102
{ACAD_REACTORS
330
16
102
}
330
16
100
AcDbXrecord
  1
lay
  1
??-*
  1
*
  1
*
 70
     0
  1
*
  1
*
  0
XRECORD
  5
4E
102
{ACAD_REACTORS
330
16
102
}
330
16
100
AcDbXrecord
  1
Layer-0
  1
0*
  1
*
  1
*
 70
     0
  1
*
  1
*
  0
XRECORD
  5
4F
102
{ACAD_REACTORS
330
16
102
}
330
16
100
AcDbXrecord
  1
Layer-1
  1
1*
  1
*
  1
*
 70
     0
  1
*
  1
*
  0
XRECORD
  5
4B
102
{ACAD_REACTORS
330
16
102
}
330
16
100
AcDbXrecord
  1
Layer 1 und 0
  1
1*,0
  1
*
  1
*
 70
     0
  1
*
  1
*
  0
XRECORD
  5
4C
102
{ACAD_REACTORS
330
16
102
}
330
16
100
AcDbXrecord
  1
Layer 2 und 0
  1
2*,0
  1
*
  1
*
 70
     0
  1
*
  1
*
  0
XRECORD
  5
4D
102
{ACAD_REACTORS
330
16
102
}
330
16
100
AcDbXrecord
  1
Layer 9 und 0 Schraffur
  1
9*,0
  1
*
  1
*
 70
     0
  1
*
  1
*
  0
XRECORD
  5
50
102
{ACAD_REACTORS
330
16
102
}
330
16
100
AcDbXrecord
  1
LOCK
  1
*
  1
*
  1
*
 70
   256
  1
*
  1
*
  0
XRECORD
  5
51
102
{ACAD_REACTORS
330
16
102
}
330
16
100
AcDbXrecord
  1
locked
  1
*
  1
*
  1
*
 70
   256
  1
*
  1
*
  0
XRECORD
  5
52
102
{ACAD_REACTORS
330
16
102
}
330
16
100
AcDbXrecord
  1
Lotes
  1
*
  1
*
  1
*
 70
     1
  1
*
  1
*
  0
XRECORD
  5
53
102
{ACAD_REACTORS
330
16
102
}
330
16
100
AcDbXrecord
  1
LUNAR
  1
*
  1
*
  1
*
 70
    48
  1
*
  1
*
  0
XRECORD
  5
54
102
{ACAD_REACTORS
330
16
102
}
330
16
100
AcDbXrecord
  1
LUNAR2
  1
*
  1
*
  1
*
 70
    12
  1
*
  1
*
  0
XRECORD
  5
55
102
{ACAD_REACTORS
330
16
102
}
330
16
100
AcDbXrecord
  1
M
  1
M*
  1
*
  1
*
 70
     0
  1
*
  1
*
  0
XRECORD
  5
56
102
{ACAD_REACTORS
330
16
102
}
330
16
100
AcDbXrecord
  1
mis_layers
  1
mis_*
  1
*
  1
*
 70
     0
  1
*
  1
*
  0
XRECORD
  5
57
102
{ACAD_REACTORS
330
16
102
}
330
16
100
AcDbXrecord
  1
MRKCK
  1
*
  1
*
  1
*
 70
     0
  1
*
  1
*
  0
XRECORD
  5
58
102
{ACAD_REACTORS
330
16
102
}
330
16
100
AcDbXrecord
  1
NECADKON
  1
~*?[KAHBSM]?????[23M]*
  1
*
  1
*
 70
     0
  1
*
  1
*
  0
XRECORD
  5
59
102
{ACAD_REACTORS
330
16
102
}
330
16
100
AcDbXrecord
  1
NI_LH
  1
NI_LH*
  1
*
  1
*
 70
     0
  1
*
  1
*
  0
XRECORD
  5
5A
102
{ACAD_REACTORS
330
16
102
}
330
16
100
AcDbXrecord
  1
NI_RH
  1
NI_RH*
  1
*
  1
*
 70
     0
  1
*
  1
*
  0
XRECORD
  5
5B
102
{ACAD_REACTORS
330
16
102
}
330
16
100
AcDbXrecord
  1
NUM
  1
NUM*
  1
*
  1
*
 70
     0
  1
*
  1
*
  0
XRECORD
  5
5C
102
{ACAD_REACTORS
330
16
102
}
330
16
100
AcDbXrecord
  1
off
  1
*
  1
*
  1
*
 70
     3
  1
*
  1
*
  0
XRECORD
  5
5D
102
{ACAD_REACTORS
330
16
102
}
330
16
100
AcDbXrecord
  1
on
  1
*
  1
*
  1
*
 70
     0
  1
*
  1
*
  0
XRECORD
  5
5E
102
{ACAD_REACTORS
330
16
102
}
330
16
100
AcDbXrecord
  1
PBASE
  1
*PBASE
  1
*
  1
*
 70
     0
  1
*
  1
*
  0
XRECORD
  5
5F
102
{ACAD_REACTORS
330
16
102
}
330
16
100
AcDbXrecord
  1
PEGC
  1
*PEGC
  1
*
  1
*
 70
     0
  1
*
  1
*
  0
XRECORD
  5
60
102
{ACAD_REACTORS
330
16
102
}
330
16
100
AcDbXrecord
  1
PEGCT
  1
*PEGCT
  1
*
  1
*
 70
     0
  1
*
  1
*
  0
XRECORD
  5
61
102
{ACAD_REACTORS
330
16
102
}
330
16
100
AcDbXrecord
  1
PFRAME
  1
PFRAME*
  1
*
  1
*
 70
     0
  1
*
  1
*
  0
XRECORD
  5
62
102
{ACAD_REACTORS
330
16
102
}
330
16
100
AcDbXrecord
  1
PGRID
  1
*PGRID
  1
*
  1
*
 70
     0
  1
*
  1
*
  0
XRECORD
  5
63
102
{ACAD_REACTORS
330
16
102
}
330
16
100
AcDbXrecord
  1
PGRIDT
  1
*PGRIDT
  1
*
  1
*
 70
     0
  1
*
  1
*
  0
XRECORD
  5
64
102
{ACAD_REACTORS
330
16
102
}
330
16
100
AcDbXrecord
  1
PLAFONES
  1
0-*
  1
*
  1
*
 70
     0
  1
*
  1
*
  0
XRECORD
  5
65
102
{ACAD_REACTORS
330
16
102
}
330
16
100
AcDbXrecord
  1
PLANTAS
  1
P-*
  1
*
  1
*
 70
     0
  1
*
  1
*
  0
XRECORD
  5
66
102
{ACAD_REACTORS
330
16
102
}
330
16
100
AcDbXrecord
  1
Plot
  1
*
  1
*
  1
*
 70
  1024
  1
*
  1
*
  0
XRECORD
  5
67
102
{ACAD_REACTORS
330
16
102
}
330
16
100
AcDbXrecord
  1
PRENDIDAS
  1
*
  1
*
  1
*
 70
    13
  1
*
  1
*
  0
XRECORD
  5
68
102
{ACAD_REACTORS
330
16
102
}
330
16
100
AcDbXrecord
  1
PRENDIDOS
  1
*
  1
*
  1
*
 70
    12
  1
*
  1
*
  0
XRECORD
  5
69
102
{ACAD_REACTORS
330
16
102
}
330
16
100
AcDbXrecord
  1
print
  1
*
  1
7
  1
*
 70
  1280
  1
*
  1
*
  0
XRECORD
  5
6A
102
{ACAD_REACTORS
330
16
102
}
330
16
100
AcDbXrecord
  1
PT
  1
PT-*
  1
*
  1
*
 70
     0
  1
*
  1
*
  0
XRECORD
  5
6B
102
{ACAD_REACTORS
330
16
102
}
330
16
100
AcDbXrecord
  1
PTH
  1
PTH*
  1
*
  1
*
 70
     0
  1
*
  1
*
  0
XRECORD
  5
6C
102
{ACAD_REACTORS
330
16
102
}
330
16
100
AcDbXrecord
  1
PVGRID
  1
*PVGRID
  1
*
  1
*
 70
     0
  1
*
  1
*
  0
XRECORD
  5
6D
102
{ACAD_REACTORS
330
16
102
}
330
16
100
AcDbXrecord
  1
Red de Agua Potable
  1
Red de Agua Potable
  1
*
  1
*
 70
     1
  1
*
  1
*
  0
XRECORD
  5
6E
102
{ACAD_REACTORS
330
16
102
}
330
16
100
AcDbXrecord
  1
Red de Energia Electrica
  1
Lotes
  1
*
  1
*
 70
     1
  1
*
  1
*
  0
XRECORD
  5
6F
102
{ACAD_REACTORS
330
16
102
}
330
16
100
AcDbXrecord
  1
SEVERNI
  1
*-S
  1
*
  1
*
 70
     0
  1
*
  1
*
  0
XRECORD
  5
70
102
{ACAD_REACTORS
330
16
102
}
330
16
100
AcDbXrecord
  1
shin
  1
일*
  1
*
  1
*
 70
     0
  1
*
  1
*
  0
XRECORD
  5
71
102
{ACAD_REACTORS
330
16
102
}
330
16
100
AcDbXrecord
  1
SHOW ALL LAYER
  1
*
  1
*
  1
*
 70
     0
  1
*
  1
*
  0
XRECORD
  5
72
102
{ACAD_REACTORS
330
16
102
}
330
16
100
AcDbXrecord
  1
sin
  1
sin
  1
*
  1
*
 70
     0
  1
*
  1
*
  0
XRECORD
  5
73
102
{ACAD_REACTORS
330
16
102
}
330
16
100
AcDbXrecord
  1
STORAGE-CART
  1
STORAGE-CART*
  1
*
  1
*
 70
     0
  1
*
  1
*
  0
XRECORD
  5
74
102
{ACAD_REACTORS
330
16
102
}
330
16
100
AcDbXrecord
  1
T
  1
T*
  1
*
  1
*
 70
     0
  1
*
  1
*
  0
XRECORD
  5
75
102
{ACAD_REACTORS
330
16
102
}
330
16
100
AcDbXrecord
  1
TEXTOS
  1
TXT*
  1
*
  1
*
 70
     0
  1
*
  1
*
  0
XRECORD
  5
76
102
{ACAD_REACTORS
330
16
102
}
330
16
100
AcDbXrecord
  1
TEXTURAS
  1
*TEXTURAS
  1
*
  1
*
 70
     0
  1
*
  1
*
  0
XRECORD
  5
77
102
{ACAD_REACTORS
330
16
102
}
330
16
100
AcDbXrecord
  1
TUBERIAS
  1
T*
  1
*
  1
*
 70
     0
  1
*
  1
*
  0
XRECORD
  5
78
102
{ACAD_REACTORS
330
16
102
}
330
16
100
AcDbXrecord
  1
UNFRZ
  1
*
  1
*
  1
*
 70
    12
  1
*
  1
*
  0
XRECORD
  5
79
102
{ACAD_REACTORS
330
16
102
}
330
16
100
AcDbXrecord
  1
v\U+0161echny nepou\U+017E\U+00EDvan\U+00E9
  1
*
  1
*
  1
*
 70
     0
  1
*
  1
*
  0
XRECORD
  5
7A
102
{ACAD_REACTORS
330
16
102
}
330
16
100
AcDbXrecord
  1
VA
  1
VA*
  1
*
  1
*
 70
     0
  1
*
  1
*
  0
XRECORD
  5
7B
102
{ACAD_REACTORS
330
16
102
}
330
16
100
AcDbXrecord
  1
Ventilaci\U+00F3n
  1
*
  1
*
  1
*
 70
     0
  1
*
  1
*
  0
XRECORD
  5
7C
102
{ACAD_REACTORS
330
16
102
}
330
16
100
AcDbXrecord
  1
VYHODNI
  1
*-V
  1
*
  1
*
 70
     0
  1
*
  1
*
  0
XRECORD
  5
7D
102
{ACAD_REACTORS
330
16
102
}
330
16
100
AcDbXrecord
  1
Yo
  1
Muros
  1
*
  1
*
 70
     0
  1
*
  1
*
  0
XRECORD
  5
7E
102
{ACAD_REACTORS
330
16
102
}
330
16
100
AcDbXrecord
  1
ZAPADNI
  1
*-Z
  1
*
  1
*
 70
     0
  1
*
  1
*
  0
XRECORD
  5
7F
102
{ACAD_REACTORS
330
16
102
}
330
16
100
AcDbXrecord
  1
사용
  1
*
  1
*
  1
*
 70
   256
  1
*
  1
*
  0
XRECORD
  5
80
102
{ACAD_REACTORS
330
16
102
}
330
16
100
AcDbXrecord
  1
신규
  1
신규
  1
*
  1
*
 70
     0
  1
*
  1
*
  0
XRECORD
  5
81
102
{ACAD_REACTORS
330
16
102
}
330
16
100
AcDbXrecord
  1
실박스
  1
BLO,SYM,SYM1,SYM2
  1
*
  1
*
 70
     0
  1
*
  1
*
  0
XRECORD
  5
82
102
{ACAD_REACTORS
330
16
102
}
330
16
100
AcDbXrecord
  1
우리토목
  1
w-*
  1
*
  1
*
 70
     0
  1
*
  1
*
  0
XRECORD
  5
83
102
{ACAD_REACTORS
330
16
102
}
330
16
100
AcDbXrecord
  1
주차
  1
car*
  1
*
  1
*
 70
     0
  1
*
  1
*
  0
XRECORD
  5
84
102
{ACAD_REACTORS
330
16
102
}
330
16
100
AcDbXrecord
  1
지상정밀
  1
*
  1
*
  1
*
 70
     0
  1
*
  1
*
  0
XRECORD
  5
85
102
{ACAD_REACTORS
330
16
102
}
330
16
100
AcDbXrecord
  1
쩜선
  1
*
  1
*
  1
*
 70
     0
  1
*
  1
*
  0
XRECORD
  5
86
102
{ACAD_REACTORS
330
16
102
}
330
16
100
AcDbXrecord
  1
플로터 작업층
  1
*
  1
*
  1
*
 70
  1025
  1
*
  1
*
  0
XRECORD
  5
87
102
{ACAD_REACTORS
330
16
102
}
330
16
100
AcDbXrecord
  1
현재 작업층
  1
*
  1
*
  1
*
 70
     1
  1
*
  1
*
  0
XRECORD
  5
88
102
{ACAD_REACTORS
330
16
102
}
330
16
100
AcDbXrecord
  1
현재 잠금
  1
*
  1
*
  1
*
 70
   257
  1
*
  1
*
  0
ENDSEC
  0
EOF
