  0
SECTION
  2
HEADER
  9
$ACADVER
  1
AC1014
  9
$ACADMAINTVER
 70
     9
  9
$DWGCODEPAGE
  3
ANSI_949
  9
$INSBASE
 10
0.0
 20
0.0
 30
0.0
  9
$EXTMIN
 10
-7.741385258836089
 20
-40.9134661535063
 30
-0.0015258207003583
  9
$EXTMAX
 10
277.9116016475745
 20
294.5254713606045
 30
0.0000000349246037
  9
$LIMMIN
 10
0.0
 20
0.0
  9
$LIMMAX
 10
420.0
 20
297.0
  9
$ORTHOMODE
 70
     0
  9
$REGENMODE
 70
     1
  9
$FILLMODE
 70
     1
  9
$QTEXTMODE
 70
     0
  9
$MIRRTEXT
 70
     0
  9
$DRAGMODE
 70
     2
  9
$LTSCALE
 40
0.2
  9
$OSMODE
 70
   567
  9
$ATTMODE
 70
     1
  9
$TEXTSIZE
 40
5.777225951253058
  9
$TRACEWID
 40
1.0
  9
$TEXTSTYLE
  7
STANDARD
  9
$CLAYER
  8
0
  9
$CELTYPE
  6
BYLAYER
  9
$CECOLOR
 62
   256
  9
$CELTSCALE
 40
1.0
  9
$DELOBJ
 70
     1
  9
$DISPSILH
 70
     0
  9
$DIMSCALE
 40
1.0
  9
$DIMASZ
 40
3.0
  9
$DIMEXO
 40
1.0
  9
$DIMDLI
 40
10.0
  9
$DIMRND
 40
0.0
  9
$DIMDLE
 40
0.0
  9
$DIMEXE
 40
0.6
  9
$DIMTP
 40
0.0
  9
$DIMTM
 40
0.0
  9
$DIMTXT
 40
3.5
  9
$DIMCEN
 40
0.09
  9
$DIMTSZ
 40
0.0
  9
$DIMTOL
 70
     0
  9
$DIMLIM
 70
     0
  9
$DIMTIH
 70
     0
  9
$DIMTOH
 70
     0
  9
$DIMSE1
 70
     0
  9
$DIMSE2
 70
     0
  9
$DIMTAD
 70
     1
  9
$DIMZIN
 70
     8
  9
$DIMBLK
  1

  9
$DIMASO
 70
     1
  9
$DIMSHO
 70
     1
  9
$DIMPOST
  1

  9
$DIMAPOST
  1

  9
$DIMALT
 70
     0
  9
$DIMALTD
 70
     2
  9
$DIMALTF
 40
25.4
  9
$DIMLFAC
 40
1.0
  9
$DIMTOFL
 70
     1
  9
$DIMTVP
 40
0.0
  9
$DIMTIX
 70
     1
  9
$DIMSOXD
 70
     0
  9
$DIMSAH
 70
     0
  9
$DIMBLK1
  1

  9
$DIMBLK2
  1

  9
$DIMSTYLE
  2
1_1_2
  9
$DIMCLRD
 70
   123
  9
$DIMCLRE
 70
   123
  9
$DIMCLRT
 70
     3
  9
$DIMTFAC
 40
1.0
  9
$DIMGAP
 40
1.0
  9
$DIMJUST
 70
     0
  9
$DIMSD1
 70
     0
  9
$DIMSD2
 70
     0
  9
$DIMTOLJ
 70
     1
  9
$DIMTZIN
 70
     0
  9
$DIMALTZ
 70
     0
  9
$DIMALTTZ
 70
     0
  9
$DIMFIT
 70
     0
  9
$DIMUPT
 70
     1
  9
$DIMUNIT
 70
     2
  9
$DIMDEC
 70
     2
  9
$DIMTDEC
 70
     2
  9
$DIMALTU
 70
     2
  9
$DIMALTTD
 70
     2
  9
$DIMTXSTY
  7
STANDARD
  9
$DIMAUNIT
 70
     1
  9
$LUNITS
 70
     2
  9
$LUPREC
 70
     4
  9
$SKETCHINC
 40
1.0
  9
$FILLETRAD
 40
0.5
  9
$AUNITS
 70
     0
  9
$AUPREC
 70
     0
  9
$MENU
  1
.
  9
$ELEVATION
 40
0.0
  9
$PELEVATION
 40
0.0
  9
$THICKNESS
 40
0.0
  9
$LIMCHECK
 70
     0
  9
$BLIPMODE
 70
     1
  9
$CHAMFERA
 40
1.0
  9
$CHAMFERB
 40
1.0
  9
$CHAMFERC
 40
20.0
  9
$CHAMFERD
 40
0.0
  9
$SKPOLY
 70
     0
  9
$TDCREATE
 40
2452839.586179271
  9
$TDUPDATE
 40
2453376.728181226
  9
$TDINDWG
 40
11.1156650810
  9
$TDUSRTIMER
 40
11.1156650810
  9
$USRTIMER
 70
     1
  9
$ANGBASE
 50
0.0
  9
$ANGDIR
 70
     0
  9
$PDMODE
 70
     0
  9
$PDSIZE
 40
0.0
  9
$PLINEWID
 40
0.0
  9
$COORDS
 70
     2
  9
$SPLFRAME
 70
     0
  9
$SPLINETYPE
 70
     6
  9
$SPLINESEGS
 70
   800
  9
$ATTDIA
 70
     0
  9
$ATTREQ
 70
     1
  9
$HANDLING
 70
 22529
  9
$HANDSEED
  5
410
  9
$SURFTAB1
 70
     6
  9
$SURFTAB2
 70
     6
  9
$SURFTYPE
 70
     6
  9
$SURFU
 70
     6
  9
$SURFV
 70
     6
  9
$UCSNAME
  2

  9
$UCSORG
 10
0.0
 20
0.0
 30
0.0
  9
$UCSXDIR
 10
1.0
 20
0.0
 30
0.0
  9
$UCSYDIR
 10
0.0
 20
1.0
 30
0.0
  9
$PUCSNAME
  2

  9
$PUCSORG
 10
0.0
 20
0.0
 30
0.0
  9
$PUCSXDIR
 10
1.0
 20
0.0
 30
0.0
  9
$PUCSYDIR
 10
0.0
 20
1.0
 30
0.0
  9
$USERI1
 70
     0
  9
$USERI2
 70
     0
  9
$USERI3
 70
     0
  9
$USERI4
 70
     0
  9
$USERI5
 70
     0
  9
$USERR1
 40
0.0
  9
$USERR2
 40
0.0
  9
$USERR3
 40
0.0
  9
$USERR4
 40
0.0
  9
$USERR5
 40
0.0
  9
$WORLDVIEW
 70
     1
  9
$SHADEDGE
 70
     3
  9
$SHADEDIF
 70
    70
  9
$TILEMODE
 70
     1
  9
$MAXACTVP
 70
    48
  9
$PINSBASE
 10
0.0
 20
0.0
 30
0.0
  9
$PLIMCHECK
 70
     0
  9
$PEXTMIN
 10
0.0
 20
0.0
 30
0.0
  9
$PEXTMAX
 10
0.0
 20
0.0
 30
0.0
  9
$PLIMMIN
 10
0.0
 20
0.0
  9
$PLIMMAX
 10
12.0
 20
9.0
  9
$UNITMODE
 70
     0
  9
$VISRETAIN
 70
     1
  9
$PLINEGEN
 70
     0
  9
$PSLTSCALE
 70
     1
  9
$TREEDEPTH
 70
  3020
  9
$PICKSTYLE
 70
     0
  9
$CMLSTYLE
  2
STANDARD
  9
$CMLJUST
 70
     0
  9
$CMLSCALE
 40
20.0
  9
$PROXYGRAPHICS
 70
     1
  9
$MEASUREMENT
 70
     1
  0
ENDSEC
  0
SECTION
  2
CLASSES
  0
CLASS
  1
ACDBDICTIONARYWDFLT
  2
AcDbDictionaryWithDefault
  3
AutoCAD 2000
 90
        0
280
     0
281
     0
  0
CLASS
  1
ACDBPLACEHOLDER
  2
AcDbPlaceHolder
  3
AutoCAD 2000
 90
        0
280
     0
281
     0
  0
CLASS
  1
LAYOUT
  2
AcDbLayout
  3
AutoCAD 2000
 90
        0
280
     0
281
     0
  0
CLASS
  1
DICTIONARYVAR
  2
AcDbDictionaryVar
  3
AutoCAD 2000
 90
        0
280
     0
281
     0
  0
CLASS
  1
DIMASSOC
  2
AcDbDimAssoc
  3
"AcDbDimAssoc|Product Desc:     AcDim ARX App For Dimension|Company:          Autodesk, Inc.|WEB Address:      www.autodesk.com"
 90
        0
280
     0
281
     0
  0
CLASS
  1
LONG_TRANSACTION
  2
AcDbLongTransaction
  3
AutoCAD 2000
 90
        0
280
     0
281
     0
  0
CLASS
  1
LWPOLYLINE
  2
AcDbPolyline
  3
AutoCAD 2000
 90
        0
280
     0
281
     1
  0
CLASS
  1
HATCH
  2
AcDbHatch
  3
AutoCAD 2000
 90
        0
280
     0
281
     1
  0
CLASS
  1
XRECORD
  2
AcDbXrecord
  3
AutoCAD 2000
 90
        0
280
     0
281
     0
  0
CLASS
  1
LONG_TRANSACTION
  2
AcDbLongTransaction
  3
AutoCAD 2000
 90
        0
280
     0
281
     0
  0
CLASS
  1
LWPOLYLINE
  2
AcDbPolyline
  3
AutoCAD 2000
 90
        0
280
     0
281
     1
  0
CLASS
  1
HATCH
  2
AcDbHatch
  3
AutoCAD 2000
 90
        0
280
     0
281
     1
  0
CLASS
  1
XRECORD
  2
AcDbXrecord
  3
AutoCAD 2000
 90
        0
280
     0
281
     0
  0
CLASS
  1
LONG_TRANSACTION
  2
AcDbLongTransaction
  3
AutoCAD 2000
 90
        0
280
     0
281
     0
  0
CLASS
  1
LWPOLYLINE
  2
AcDbPolyline
  3
AutoCAD 2000
 90
        0
280
     0
281
     1
  0
CLASS
  1
HATCH
  2
AcDbHatch
  3
AutoCAD 2000
 90
        0
280
     0
281
     1
  0
CLASS
  1
XRECORD
  2
AcDbXrecord
  3
AutoCAD 2000
 90
        0
280
     0
281
     0
  0
CLASS
  1
LONG_TRANSACTION
  2
AcDbLongTransaction
  3
AutoCAD 2000
 90
        0
280
     0
281
     0
  0
CLASS
  1
LWPOLYLINE
  2
AcDbPolyline
  3
AutoCAD 2000
 90
        0
280
     0
281
     1
  0
CLASS
  1
HATCH
  2
AcDbHatch
  3
AutoCAD 2000
 90
        0
280
     0
281
     1
  0
CLASS
  1
XRECORD
  2
AcDbXrecord
  3
AutoCAD 2000
 90
        0
280
     0
281
     0
  0
CLASS
  1
LONG_TRANSACTION
  2
AcDbLongTransaction
  3
AutoCAD 2000
 90
        0
280
     0
281
     0
  0
CLASS
  1
LWPOLYLINE
  2
AcDbPolyline
  3
AutoCAD 2000
 90
        0
280
     0
281
     1
  0
CLASS
  1
HATCH
  2
AcDbHatch
  3
AutoCAD 2000
 90
        0
280
     0
281
     1
  0
CLASS
  1
XRECORD
  2
AcDbXrecord
  3
AutoCAD 2000
 90
        0
280
     0
281
     0
  0
CLASS
  1
LONG_TRANSACTION
  2
AcDbLongTransaction
  3
AutoCAD 2000
 90
        0
280
     0
281
     0
  0
CLASS
  1
LWPOLYLINE
  2
AcDbPolyline
  3
AutoCAD 2000
 90
        0
280
     0
281
     1
  0
CLASS
  1
HATCH
  2
AcDbHatch
  3
AutoCAD 2000
 90
        0
280
     0
281
     1
  0
CLASS
  1
XRECORD
  2
AcDbXrecord
  3
AutoCAD 2000
 90
        0
280
     0
281
     0
  0
CLASS
  1
LONG_TRANSACTION
  2
AcDbLongTransaction
  3
AutoCAD 2000
 90
        0
280
     0
281
     0
  0
CLASS
  1
LWPOLYLINE
  2
AcDbPolyline
  3
AutoCAD 2000
 90
        0
280
     0
281
     1
  0
CLASS
  1
HATCH
  2
AcDbHatch
  3
AutoCAD 2000
 90
        0
280
     0
281
     1
  0
CLASS
  1
XRECORD
  2
AcDbXrecord
  3
AutoCAD 2000
 90
        0
280
     0
281
     0
  0
CLASS
  1
LONG_TRANSACTION
  2
AcDbLongTransaction
  3
AutoCAD 2000
 90
        0
280
     0
281
     0
  0
CLASS
  1
LWPOLYLINE
  2
AcDbPolyline
  3
AutoCAD 2000
 90
        0
280
     0
281
     1
  0
CLASS
  1
HATCH
  2
AcDbHatch
  3
AutoCAD 2000
 90
        0
280
     0
281
     1
  0
CLASS
  1
XRECORD
  2
AcDbXrecord
  3
AutoCAD 2000
 90
        0
280
     0
281
     0
  0
CLASS
  1
LONG_TRANSACTION
  2
AcDbLongTransaction
  3
AutoCAD 2000
 90
        0
280
     0
281
     0
  0
CLASS
  1
LWPOLYLINE
  2
AcDbPolyline
  3
AutoCAD 2000
 90
        0
280
     0
281
     1
  0
CLASS
  1
HATCH
  2
AcDbHatch
  3
AutoCAD 2000
 90
        0
280
     0
281
     1
  0
CLASS
  1
XRECORD
  2
AcDbXrecord
  3
AutoCAD 2000
 90
        0
280
     0
281
     0
  0
CLASS
  1
LONG_TRANSACTION
  2
AcDbLongTransaction
  3
AutoCAD 2000
 90
        0
280
     0
281
     0
  0
CLASS
  1
LWPOLYLINE
  2
AcDbPolyline
  3
AutoCAD 2000
 90
        0
280
     0
281
     1
  0
CLASS
  1
HATCH
  2
AcDbHatch
  3
AutoCAD 2000
 90
        0
280
     0
281
     1
  0
CLASS
  1
XRECORD
  2
AcDbXrecord
  3
AutoCAD 2000
 90
        0
280
     0
281
     0
  0
CLASS
  1
LONG_TRANSACTION
  2
AcDbLongTransaction
  3
AutoCAD 2000
 90
        0
280
     0
281
     0
  0
CLASS
  1
LWPOLYLINE
  2
AcDbPolyline
  3
AutoCAD 2000
 90
        0
280
     0
281
     1
  0
CLASS
  1
HATCH
  2
AcDbHatch
  3
AutoCAD 2000
 90
        0
280
     0
281
     1
  0
CLASS
  1
XRECORD
  2
AcDbXrecord
  3
AutoCAD 2000
 90
        0
280
     0
281
     0
  0
CLASS
  1
LONG_TRANSACTION
  2
AcDbLongTransaction
  3
AutoCAD 2000
 90
        0
280
     0
281
     0
  0
CLASS
  1
LWPOLYLINE
  2
AcDbPolyline
  3
AutoCAD 2000
 90
        0
280
     0
281
     1
  0
CLASS
  1
HATCH
  2
AcDbHatch
  3
AutoCAD 2000
 90
        0
280
     0
281
     1
  0
CLASS
  1
XRECORD
  2
AcDbXrecord
  3
AutoCAD 2000
 90
        0
280
     0
281
     0
  0
CLASS
  1
LONG_TRANSACTION
  2
AcDbLongTransaction
  3
AutoCAD 2000
 90
        0
280
     0
281
     0
  0
CLASS
  1
LWPOLYLINE
  2
AcDbPolyline
  3
AutoCAD 2000
 90
        0
280
     0
281
     1
  0
CLASS
  1
HATCH
  2
AcDbHatch
  3
AutoCAD 2000
 90
        0
280
     0
281
     1
  0
CLASS
  1
XRECORD
  2
AcDbXrecord
  3
AutoCAD 2000
 90
        0
280
     0
281
     0
  0
CLASS
  1
LONG_TRANSACTION
  2
AcDbLongTransaction
  3
AutoCAD 2000
 90
        0
280
     0
281
     0
  0
CLASS
  1
LWPOLYLINE
  2
AcDbPolyline
  3
AutoCAD 2000
 90
        0
280
     0
281
     1
  0
CLASS
  1
HATCH
  2
AcDbHatch
  3
AutoCAD 2000
 90
        0
280
     0
281
     1
  0
CLASS
  1
XRECORD
  2
AcDbXrecord
  3
AutoCAD 2000
 90
        0
280
     0
281
     0
  0
CLASS
  1
LONG_TRANSACTION
  2
AcDbLongTransaction
  3
AutoCAD 2000
 90
        0
280
     0
281
     0
  0
CLASS
  1
LWPOLYLINE
  2
AcDbPolyline
  3
AutoCAD 2000
 90
        0
280
     0
281
     1
  0
CLASS
  1
HATCH
  2
AcDbHatch
  3
AutoCAD 2000
 90
        0
280
     0
281
     1
  0
CLASS
  1
XRECORD
  2
AcDbXrecord
  3
AutoCAD 2000
 90
        0
280
     0
281
     0
  0
CLASS
  1
LONG_TRANSACTION
  2
AcDbLongTransaction
  3
AutoCAD 2000
 90
        0
280
     0
281
     0
  0
CLASS
  1
LWPOLYLINE
  2
AcDbPolyline
  3
AutoCAD 2000
 90
        0
280
     0
281
     1
  0
CLASS
  1
HATCH
  2
AcDbHatch
  3
AutoCAD 2000
 90
        0
280
     0
281
     1
  0
CLASS
  1
XRECORD
  2
AcDbXrecord
  3
AutoCAD 2000
 90
        0
280
     0
281
     0
  0
CLASS
  1
LONG_TRANSACTION
  2
AcDbLongTransaction
  3
AutoCAD 2000
 90
        0
280
     0
281
     0
  0
CLASS
  1
LWPOLYLINE
  2
AcDbPolyline
  3
AutoCAD 2000
 90
        0
280
     0
281
     1
  0
CLASS
  1
HATCH
  2
AcDbHatch
  3
AutoCAD 2000
 90
        0
280
     0
281
     1
  0
CLASS
  1
XRECORD
  2
AcDbXrecord
  3
AutoCAD 2000
 90
        0
280
     0
281
     0
  0
CLASS
  1
LONG_TRANSACTION
  2
AcDbLongTransaction
  3
AutoCAD 2000
 90
        0
280
     0
281
     0
  0
CLASS
  1
LWPOLYLINE
  2
AcDbPolyline
  3
AutoCAD 2000
 90
        0
280
     0
281
     1
  0
CLASS
  1
HATCH
  2
AcDbHatch
  3
AutoCAD 2000
 90
        0
280
     0
281
     1
  0
CLASS
  1
XRECORD
  2
AcDbXrecord
  3
AutoCAD 2000
 90
        0
280
     0
281
     0
  0
CLASS
  1
LONG_TRANSACTION
  2
AcDbLongTransaction
  3
AutoCAD 2000
 90
        0
280
     0
281
     0
  0
CLASS
  1
LWPOLYLINE
  2
AcDbPolyline
  3
AutoCAD 2000
 90
        0
280
     0
281
     1
  0
CLASS
  1
HATCH
  2
AcDbHatch
  3
AutoCAD 2000
 90
        0
280
     0
281
     1
  0
CLASS
  1
XRECORD
  2
AcDbXrecord
  3
AutoCAD 2000
 90
        0
280
     0
281
     0
  0
CLASS
  1
LONG_TRANSACTION
  2
AcDbLongTransaction
  3
AutoCAD 2000
 90
        0
280
     0
281
     0
  0
CLASS
  1
LWPOLYLINE
  2
AcDbPolyline
  3
AutoCAD 2000
 90
        0
280
     0
281
     1
  0
CLASS
  1
HATCH
  2
AcDbHatch
  3
AutoCAD 2000
 90
        0
280
     0
281
     1
  0
CLASS
  1
XRECORD
  2
AcDbXrecord
  3
AutoCAD 2000
 90
        0
280
     0
281
     0
  0
CLASS
  1
LONG_TRANSACTION
  2
AcDbLongTransaction
  3
AutoCAD 2000
 90
        0
280
     0
281
     0
  0
CLASS
  1
LWPOLYLINE
  2
AcDbPolyline
  3
AutoCAD 2000
 90
        0
280
     0
281
     1
  0
CLASS
  1
HATCH
  2
AcDbHatch
  3
AutoCAD 2000
 90
        0
280
     0
281
     1
  0
CLASS
  1
XRECORD
  2
AcDbXrecord
  3
AutoCAD 2000
 90
        0
280
     0
281
     0
  0
CLASS
  1
LONG_TRANSACTION
  2
AcDbLongTransaction
  3
AutoCAD 2000
 90
        0
280
     0
281
     0
  0
CLASS
  1
LWPOLYLINE
  2
AcDbPolyline
  3
AutoCAD 2000
 90
        0
280
     0
281
     1
  0
CLASS
  1
HATCH
  2
AcDbHatch
  3
AutoCAD 2000
 90
        0
280
     0
281
     1
  0
CLASS
  1
XRECORD
  2
AcDbXrecord
  3
AutoCAD 2000
 90
        0
280
     0
281
     0
  0
CLASS
  1
LONG_TRANSACTION
  2
AcDbLongTransaction
  3
AutoCAD 2000
 90
        0
280
     0
281
     0
  0
CLASS
  1
LWPOLYLINE
  2
AcDbPolyline
  3
AutoCAD 2000
 90
        0
280
     0
281
     1
  0
CLASS
  1
HATCH
  2
AcDbHatch
  3
AutoCAD 2000
 90
        0
280
     0
281
     1
  0
CLASS
  1
XRECORD
  2
AcDbXrecord
  3
AutoCAD 2000
 90
        0
280
     0
281
     0
  0
CLASS
  1
LONG_TRANSACTION
  2
AcDbLongTransaction
  3
AutoCAD 2000
 90
        0
280
     0
281
     0
  0
CLASS
  1
LWPOLYLINE
  2
AcDbPolyline
  3
AutoCAD 2000
 90
        0
280
     0
281
     1
  0
CLASS
  1
HATCH
  2
AcDbHatch
  3
AutoCAD 2000
 90
        0
280
     0
281
     1
  0
CLASS
  1
XRECORD
  2
AcDbXrecord
  3
AutoCAD 2000
 90
        0
280
     0
281
     0
  0
CLASS
  1
LONG_TRANSACTION
  2
AcDbLongTransaction
  3
AutoCAD 2000
 90
        0
280
     0
281
     0
  0
CLASS
  1
LWPOLYLINE
  2
AcDbPolyline
  3
AutoCAD 2000
 90
        0
280
     0
281
     1
  0
CLASS
  1
HATCH
  2
AcDbHatch
  3
AutoCAD 2000
 90
        0
280
     0
281
     1
  0
CLASS
  1
XRECORD
  2
AcDbXrecord
  3
AutoCAD 2000
 90
        0
280
     0
281
     0
  0
CLASS
  1
LONG_TRANSACTION
  2
AcDbLongTransaction
  3
AutoCAD 2000
 90
        0
280
     0
281
     0
  0
CLASS
  1
LWPOLYLINE
  2
AcDbPolyline
  3
AutoCAD 2000
 90
        0
280
     0
281
     1
  0
CLASS
  1
HATCH
  2
AcDbHatch
  3
AutoCAD 2000
 90
        0
280
     0
281
     1
  0
CLASS
  1
XRECORD
  2
AcDbXrecord
  3
AutoCAD 2000
 90
        0
280
     0
281
     0
  0
CLASS
  1
LONG_TRANSACTION
  2
AcDbLongTransaction
  3
AutoCAD 2000
 90
        0
280
     0
281
     0
  0
CLASS
  1
LWPOLYLINE
  2
AcDbPolyline
  3
AutoCAD 2000
 90
        0
280
     0
281
     1
  0
CLASS
  1
HATCH
  2
AcDbHatch
  3
AutoCAD 2000
 90
        0
280
     0
281
     1
  0
CLASS
  1
XRECORD
  2
AcDbXrecord
  3
AutoCAD 2000
 90
        0
280
     0
281
     0
  0
CLASS
  1
LONG_TRANSACTION
  2
AcDbLongTransaction
  3
AutoCAD 2000
 90
        0
280
     0
281
     0
  0
CLASS
  1
LWPOLYLINE
  2
AcDbPolyline
  3
AutoCAD 2000
 90
        0
280
     0
281
     1
  0
CLASS
  1
HATCH
  2
AcDbHatch
  3
AutoCAD 2000
 90
        0
280
     0
281
     1
  0
CLASS
  1
XRECORD
  2
AcDbXrecord
  3
AutoCAD 2000
 90
        0
280
     0
281
     0
  0
CLASS
  1
LONG_TRANSACTION
  2
AcDbLongTransaction
  3
AutoCAD 2000
 90
        0
280
     0
281
     0
  0
CLASS
  1
LWPOLYLINE
  2
AcDbPolyline
  3
AutoCAD 2000
 90
        0
280
     0
281
     1
  0
CLASS
  1
HATCH
  2
AcDbHatch
  3
AutoCAD 2000
 90
        0
280
     0
281
     1
  0
CLASS
  1
XRECORD
  2
AcDbXrecord
  3
AutoCAD 2000
 90
        0
280
     0
281
     0
  0
CLASS
  1
LONG_TRANSACTION
  2
AcDbLongTransaction
  3
AutoCAD 2000
 90
        0
280
     0
281
     0
  0
CLASS
  1
LWPOLYLINE
  2
AcDbPolyline
  3
AutoCAD 2000
 90
        0
280
     0
281
     1
  0
CLASS
  1
HATCH
  2
AcDbHatch
  3
AutoCAD 2000
 90
        0
280
     0
281
     1
  0
CLASS
  1
XRECORD
  2
AcDbXrecord
  3
AutoCAD 2000
 90
        0
280
     0
281
     0
  0
CLASS
  1
LONG_TRANSACTION
  2
AcDbLongTransaction
  3
AutoCAD 2000
 90
        0
280
     0
281
     0
  0
CLASS
  1
LWPOLYLINE
  2
AcDbPolyline
  3
AutoCAD 2000
 90
        0
280
     0
281
     1
  0
CLASS
  1
HATCH
  2
AcDbHatch
  3
AutoCAD 2000
 90
        0
280
     0
281
     1
  0
CLASS
  1
XRECORD
  2
AcDbXrecord
  3
AutoCAD 2000
 90
        0
280
     0
281
     0
  0
CLASS
  1
LONG_TRANSACTION
  2
AcDbLongTransaction
  3
AutoCAD 2000
 90
        0
280
     0
281
     0
  0
CLASS
  1
LWPOLYLINE
  2
AcDbPolyline
  3
AutoCAD 2000
 90
        0
280
     0
281
     1
  0
CLASS
  1
HATCH
  2
AcDbHatch
  3
AutoCAD 2000
 90
        0
280
     0
281
     1
  0
CLASS
  1
XRECORD
  2
AcDbXrecord
  3
AutoCAD 2000
 90
        0
280
     0
281
     0
  0
CLASS
  1
LONG_TRANSACTION
  2
AcDbLongTransaction
  3
AutoCAD 2000
 90
        0
280
     0
281
     0
  0
CLASS
  1
LWPOLYLINE
  2
AcDbPolyline
  3
AutoCAD 2000
 90
        0
280
     0
281
     1
  0
CLASS
  1
HATCH
  2
AcDbHatch
  3
AutoCAD 2000
 90
        0
280
     0
281
     1
  0
CLASS
  1
XRECORD
  2
AcDbXrecord
  3
AutoCAD 2000
 90
        0
280
     0
281
     0
  0
CLASS
  1
LONG_TRANSACTION
  2
AcDbLongTransaction
  3
AutoCAD 2000
 90
        0
280
     0
281
     0
  0
CLASS
  1
LWPOLYLINE
  2
AcDbPolyline
  3
AutoCAD 2000
 90
        0
280
     0
281
     1
  0
CLASS
  1
HATCH
  2
AcDbHatch
  3
AutoCAD 2000
 90
        0
280
     0
281
     1
  0
CLASS
  1
XRECORD
  2
AcDbXrecord
  3
AutoCAD 2000
 90
        0
280
     0
281
     0
  0
CLASS
  1
LONG_TRANSACTION
  2
AcDbLongTransaction
  3
AutoCAD 2000
 90
        0
280
     0
281
     0
  0
CLASS
  1
LWPOLYLINE
  2
AcDbPolyline
  3
AutoCAD 2000
 90
        0
280
     0
281
     1
  0
CLASS
  1
HATCH
  2
AcDbHatch
  3
AutoCAD 2000
 90
        0
280
     0
281
     1
  0
CLASS
  1
XRECORD
  2
AcDbXrecord
  3
AutoCAD 2000
 90
        0
280
     0
281
     0
  0
CLASS
  1
LONG_TRANSACTION
  2
AcDbLongTransaction
  3
AutoCAD 2000
 90
        0
280
     0
281
     0
  0
CLASS
  1
LWPOLYLINE
  2
AcDbPolyline
  3
AutoCAD 2000
 90
        0
280
     0
281
     1
  0
CLASS
  1
HATCH
  2
AcDbHatch
  3
AutoCAD 2000
 90
        0
280
     0
281
     1
  0
CLASS
  1
XRECORD
  2
AcDbXrecord
  3
AutoCAD 2000
 90
        0
280
     0
281
     0
  0
CLASS
  1
LONG_TRANSACTION
  2
AcDbLongTransaction
  3
AutoCAD 2000
 90
        0
280
     0
281
     0
  0
CLASS
  1
LWPOLYLINE
  2
AcDbPolyline
  3
AutoCAD 2000
 90
        0
280
     0
281
     1
  0
CLASS
  1
HATCH
  2
AcDbHatch
  3
AutoCAD 2000
 90
        0
280
     0
281
     1
  0
CLASS
  1
XRECORD
  2
AcDbXrecord
  3
AutoCAD 2000
 90
        0
280
     0
281
     0
  0
CLASS
  1
LONG_TRANSACTION
  2
AcDbLongTransaction
  3
AutoCAD 2000
 90
        0
280
     0
281
     0
  0
CLASS
  1
LWPOLYLINE
  2
AcDbPolyline
  3
AutoCAD 2000
 90
        0
280
     0
281
     1
  0
CLASS
  1
HATCH
  2
AcDbHatch
  3
AutoCAD 2000
 90
        0
280
     0
281
     1
  0
CLASS
  1
XRECORD
  2
AcDbXrecord
  3
AutoCAD 2000
 90
        0
280
     0
281
     0
  0
CLASS
  1
LONG_TRANSACTION
  2
AcDbLongTransaction
  3
AutoCAD 2000
 90
        0
280
     0
281
     0
  0
CLASS
  1
LWPOLYLINE
  2
AcDbPolyline
  3
AutoCAD 2000
 90
        0
280
     0
281
     1
  0
CLASS
  1
HATCH
  2
AcDbHatch
  3
AutoCAD 2000
 90
        0
280
     0
281
     1
  0
CLASS
  1
XRECORD
  2
AcDbXrecord
  3
AutoCAD 2000
 90
        0
280
     0
281
     0
  0
CLASS
  1
LONG_TRANSACTION
  2
AcDbLongTransaction
  3
AutoCAD 2000
 90
        0
280
     0
281
     0
  0
CLASS
  1
LWPOLYLINE
  2
AcDbPolyline
  3
AutoCAD 2000
 90
        0
280
     0
281
     1
  0
CLASS
  1
HATCH
  2
AcDbHatch
  3
AutoCAD 2000
 90
        0
280
     0
281
     1
  0
CLASS
  1
XRECORD
  2
AcDbXrecord
  3
AutoCAD 2000
 90
        0
280
     0
281
     0
  0
CLASS
  1
LONG_TRANSACTION
  2
AcDbLongTransaction
  3
AutoCAD 2000
 90
        0
280
     0
281
     0
  0
CLASS
  1
LWPOLYLINE
  2
AcDbPolyline
  3
AutoCAD 2000
 90
        0
280
     0
281
     1
  0
CLASS
  1
HATCH
  2
AcDbHatch
  3
AutoCAD 2000
 90
        0
280
     0
281
     1
  0
CLASS
  1
XRECORD
  2
AcDbXrecord
  3
AutoCAD 2000
 90
        0
280
     0
281
     0
  0
CLASS
  1
LONG_TRANSACTION
  2
AcDbLongTransaction
  3
AutoCAD 2000
 90
        0
280
     0
281
     0
  0
CLASS
  1
LWPOLYLINE
  2
AcDbPolyline
  3
AutoCAD 2000
 90
        0
280
     0
281
     1
  0
CLASS
  1
HATCH
  2
AcDbHatch
  3
AutoCAD 2000
 90
        0
280
     0
281
     1
  0
CLASS
  1
XRECORD
  2
AcDbXrecord
  3
AutoCAD 2000
 90
        0
280
     0
281
     0
  0
CLASS
  1
LONG_TRANSACTION
  2
AcDbLongTransaction
  3
AutoCAD 2000
 90
        0
280
     0
281
     0
  0
CLASS
  1
LWPOLYLINE
  2
AcDbPolyline
  3
AutoCAD 2000
 90
        0
280
     0
281
     1
  0
CLASS
  1
HATCH
  2
AcDbHatch
  3
AutoCAD 2000
 90
        0
280
     0
281
     1
  0
CLASS
  1
XRECORD
  2
AcDbXrecord
  3
AutoCAD 2000
 90
        0
280
     0
281
     0
  0
CLASS
  1
LONG_TRANSACTION
  2
AcDbLongTransaction
  3
AutoCAD 2000
 90
        0
280
     0
281
     0
  0
CLASS
  1
LWPOLYLINE
  2
AcDbPolyline
  3
AutoCAD 2000
 90
        0
280
     0
281
     1
  0
CLASS
  1
HATCH
  2
AcDbHatch
  3
AutoCAD 2000
 90
        0
280
     0
281
     1
  0
CLASS
  1
XRECORD
  2
AcDbXrecord
  3
AutoCAD 2000
 90
        0
280
     0
281
     0
  0
CLASS
  1
LONG_TRANSACTION
  2
AcDbLongTransaction
  3
AutoCAD 2000
 90
        0
280
     0
281
     0
  0
CLASS
  1
LWPOLYLINE
  2
AcDbPolyline
  3
AutoCAD 2000
 90
        0
280
     0
281
     1
  0
CLASS
  1
HATCH
  2
AcDbHatch
  3
AutoCAD 2000
 90
        0
280
     0
281
     1
  0
CLASS
  1
XRECORD
  2
AcDbXrecord
  3
AutoCAD 2000
 90
        0
280
     0
281
     0
  0
CLASS
  1
LONG_TRANSACTION
  2
AcDbLongTransaction
  3
AutoCAD 2000
 90
        0
280
     0
281
     0
  0
CLASS
  1
LWPOLYLINE
  2
AcDbPolyline
  3
AutoCAD 2000
 90
        0
280
     0
281
     1
  0
CLASS
  1
HATCH
  2
AcDbHatch
  3
AutoCAD 2000
 90
        0
280
     0
281
     1
  0
CLASS
  1
XRECORD
  2
AcDbXrecord
  3
AutoCAD 2000
 90
        0
280
     0
281
     0
  0
CLASS
  1
LONG_TRANSACTION
  2
AcDbLongTransaction
  3
AutoCAD 2000
 90
        0
280
     0
281
     0
  0
CLASS
  1
LWPOLYLINE
  2
AcDbPolyline
  3
AutoCAD 2000
 90
        0
280
     0
281
     1
  0
CLASS
  1
HATCH
  2
AcDbHatch
  3
AutoCAD 2000
 90
        0
280
     0
281
     1
  0
CLASS
  1
XRECORD
  2
AcDbXrecord
  3
AutoCAD 2000
 90
        0
280
     0
281
     0
  0
CLASS
  1
LONG_TRANSACTION
  2
AcDbLongTransaction
  3
AutoCAD 2000
 90
        0
280
     0
281
     0
  0
CLASS
  1
LWPOLYLINE
  2
AcDbPolyline
  3
AutoCAD 2000
 90
        0
280
     0
281
     1
  0
CLASS
  1
HATCH
  2
AcDbHatch
  3
AutoCAD 2000
 90
        0
280
     0
281
     1
  0
CLASS
  1
XRECORD
  2
AcDbXrecord
  3
AutoCAD 2000
 90
        0
280
     0
281
     0
  0
CLASS
  1
LONG_TRANSACTION
  2
AcDbLongTransaction
  3
AutoCAD 2000
 90
        0
280
     0
281
     0
  0
CLASS
  1
LWPOLYLINE
  2
AcDbPolyline
  3
AutoCAD 2000
 90
        0
280
     0
281
     1
  0
CLASS
  1
HATCH
  2
AcDbHatch
  3
AutoCAD 2000
 90
        0
280
     0
281
     1
  0
CLASS
  1
XRECORD
  2
AcDbXrecord
  3
AutoCAD 2000
 90
        0
280
     0
281
     0
  0
CLASS
  1
LONG_TRANSACTION
  2
AcDbLongTransaction
  3
AutoCAD 2000
 90
        0
280
     0
281
     0
  0
CLASS
  1
LWPOLYLINE
  2
AcDbPolyline
  3
AutoCAD 2000
 90
        0
280
     0
281
     1
  0
CLASS
  1
HATCH
  2
AcDbHatch
  3
AutoCAD 2000
 90
        0
280
     0
281
     1
  0
CLASS
  1
XRECORD
  2
AcDbXrecord
  3
AutoCAD 2000
 90
        0
280
     0
281
     0
  0
CLASS
  1
LONG_TRANSACTION
  2
AcDbLongTransaction
  3
AutoCAD 2000
 90
        0
280
     0
281
     0
  0
CLASS
  1
LWPOLYLINE
  2
AcDbPolyline
  3
AutoCAD 2000
 90
        0
280
     0
281
     1
  0
CLASS
  1
HATCH
  2
AcDbHatch
  3
AutoCAD 2000
 90
        0
280
     0
281
     1
  0
CLASS
  1
XRECORD
  2
AcDbXrecord
  3
AutoCAD 2000
 90
        0
280
     0
281
     0
  0
CLASS
  1
LONG_TRANSACTION
  2
AcDbLongTransaction
  3
AutoCAD 2000
 90
        0
280
     0
281
     0
  0
CLASS
  1
LWPOLYLINE
  2
AcDbPolyline
  3
AutoCAD 2000
 90
        0
280
     0
281
     1
  0
CLASS
  1
HATCH
  2
AcDbHatch
  3
AutoCAD 2000
 90
        0
280
     0
281
     1
  0
CLASS
  1
XRECORD
  2
AcDbXrecord
  3
AutoCAD 2000
 90
        0
280
     0
281
     0
  0
CLASS
  1
LONG_TRANSACTION
  2
AcDbLongTransaction
  3
AutoCAD 2000
 90
        0
280
     0
281
     0
  0
CLASS
  1
LWPOLYLINE
  2
AcDbPolyline
  3
AutoCAD 2000
 90
        0
280
     0
281
     1
  0
CLASS
  1
HATCH
  2
AcDbHatch
  3
AutoCAD 2000
 90
        0
280
     0
281
     1
  0
CLASS
  1
XRECORD
  2
AcDbXrecord
  3
AutoCAD 2000
 90
        0
280
     0
281
     0
  0
CLASS
  1
LONG_TRANSACTION
  2
AcDbLongTransaction
  3
AutoCAD 2000
 90
        0
280
     0
281
     0
  0
CLASS
  1
LWPOLYLINE
  2
AcDbPolyline
  3
AutoCAD 2000
 90
        0
280
     0
281
     1
  0
CLASS
  1
HATCH
  2
AcDbHatch
  3
AutoCAD 2000
 90
        0
280
     0
281
     1
  0
CLASS
  1
XRECORD
  2
AcDbXrecord
  3
AutoCAD 2000
 90
        0
280
     0
281
     0
  0
CLASS
  1
LONG_TRANSACTION
  2
AcDbLongTransaction
  3
AutoCAD 2000
 90
        0
280
     0
281
     0
  0
CLASS
  1
LWPOLYLINE
  2
AcDbPolyline
  3
AutoCAD 2000
 90
        0
280
     0
281
     1
  0
CLASS
  1
HATCH
  2
AcDbHatch
  3
AutoCAD 2000
 90
        0
280
     0
281
     1
  0
CLASS
  1
XRECORD
  2
AcDbXrecord
  3
AutoCAD 2000
 90
        0
280
     0
281
     0
  0
CLASS
  1
LONG_TRANSACTION
  2
AcDbLongTransaction
  3
AutoCAD 2000
 90
        0
280
     0
281
     0
  0
CLASS
  1
LWPOLYLINE
  2
AcDbPolyline
  3
AutoCAD 2000
 90
        0
280
     0
281
     1
  0
CLASS
  1
HATCH
  2
AcDbHatch
  3
AutoCAD 2000
 90
        0
280
     0
281
     1
  0
CLASS
  1
XRECORD
  2
AcDbXrecord
  3
AutoCAD 2000
 90
        0
280
     0
281
     0
  0
CLASS
  1
LONG_TRANSACTION
  2
AcDbLongTransaction
  3
AutoCAD 2000
 90
        0
280
     0
281
     0
  0
CLASS
  1
LWPOLYLINE
  2
AcDbPolyline
  3
AutoCAD 2000
 90
        0
280
     0
281
     1
  0
CLASS
  1
HATCH
  2
AcDbHatch
  3
AutoCAD 2000
 90
        0
280
     0
281
     1
  0
CLASS
  1
XRECORD
  2
AcDbXrecord
  3
AutoCAD 2000
 90
        0
280
     0
281
     0
  0
CLASS
  1
LONG_TRANSACTION
  2
AcDbLongTransaction
  3
AutoCAD 2000
 90
        0
280
     0
281
     0
  0
CLASS
  1
LWPOLYLINE
  2
AcDbPolyline
  3
AutoCAD 2000
 90
        0
280
     0
281
     1
  0
CLASS
  1
HATCH
  2
AcDbHatch
  3
AutoCAD 2000
 90
        0
280
     0
281
     1
  0
CLASS
  1
XRECORD
  2
AcDbXrecord
  3
AutoCAD 2000
 90
        0
280
     0
281
     0
  0
CLASS
  1
LONG_TRANSACTION
  2
AcDbLongTransaction
  3
AutoCAD 2000
 90
        0
280
     0
281
     0
  0
CLASS
  1
LWPOLYLINE
  2
AcDbPolyline
  3
AutoCAD 2000
 90
        0
280
     0
281
     1
  0
CLASS
  1
HATCH
  2
AcDbHatch
  3
AutoCAD 2000
 90
        0
280
     0
281
     1
  0
CLASS
  1
XRECORD
  2
AcDbXrecord
  3
AutoCAD 2000
 90
        0
280
     0
281
     0
  0
CLASS
  1
LONG_TRANSACTION
  2
AcDbLongTransaction
  3
AutoCAD 2000
 90
        0
280
     0
281
     0
  0
CLASS
  1
LWPOLYLINE
  2
AcDbPolyline
  3
AutoCAD 2000
 90
        0
280
     0
281
     1
  0
CLASS
  1
HATCH
  2
AcDbHatch
  3
AutoCAD 2000
 90
        0
280
     0
281
     1
  0
CLASS
  1
XRECORD
  2
AcDbXrecord
  3
AutoCAD 2000
 90
        0
280
     0
281
     0
  0
CLASS
  1
LONG_TRANSACTION
  2
AcDbLongTransaction
  3
AutoCAD 2000
 90
        0
280
     0
281
     0
  0
CLASS
  1
LWPOLYLINE
  2
AcDbPolyline
  3
AutoCAD 2000
 90
        0
280
     0
281
     1
  0
CLASS
  1
HATCH
  2
AcDbHatch
  3
AutoCAD 2000
 90
        0
280
     0
281
     1
  0
CLASS
  1
XRECORD
  2
AcDbXrecord
  3
AutoCAD 2000
 90
        0
280
     0
281
     0
  0
CLASS
  1
LONG_TRANSACTION
  2
AcDbLongTransaction
  3
AutoCAD 2000
 90
        0
280
     0
281
     0
  0
CLASS
  1
LWPOLYLINE
  2
AcDbPolyline
  3
AutoCAD 2000
 90
        0
280
     0
281
     1
  0
CLASS
  1
HATCH
  2
AcDbHatch
  3
AutoCAD 2000
 90
        0
280
     0
281
     1
  0
CLASS
  1
XRECORD
  2
AcDbXrecord
  3
AutoCAD 2000
 90
        0
280
     0
281
     0
  0
CLASS
  1
LONG_TRANSACTION
  2
AcDbLongTransaction
  3
AutoCAD 2000
 90
        0
280
     0
281
     0
  0
CLASS
  1
LWPOLYLINE
  2
AcDbPolyline
  3
AutoCAD 2000
 90
        0
280
     0
281
     1
  0
CLASS
  1
HATCH
  2
AcDbHatch
  3
AutoCAD 2000
 90
        0
280
     0
281
     1
  0
CLASS
  1
XRECORD
  2
AcDbXrecord
  3
AutoCAD 2000
 90
        0
280
     0
281
     0
  0
CLASS
  1
LONG_TRANSACTION
  2
AcDbLongTransaction
  3
AutoCAD 2000
 90
        0
280
     0
281
     0
  0
CLASS
  1
LWPOLYLINE
  2
AcDbPolyline
  3
AutoCAD 2000
 90
        0
280
     0
281
     1
  0
CLASS
  1
HATCH
  2
AcDbHatch
  3
AutoCAD 2000
 90
        0
280
     0
281
     1
  0
CLASS
  1
XRECORD
  2
AcDbXrecord
  3
AutoCAD 2000
 90
        0
280
     0
281
     0
  0
CLASS
  1
LONG_TRANSACTION
  2
AcDbLongTransaction
  3
AutoCAD 2000
 90
        0
280
     0
281
     0
  0
CLASS
  1
LWPOLYLINE
  2
AcDbPolyline
  3
AutoCAD 2000
 90
        0
280
     0
281
     1
  0
CLASS
  1
HATCH
  2
AcDbHatch
  3
AutoCAD 2000
 90
        0
280
     0
281
     1
  0
CLASS
  1
XRECORD
  2
AcDbXrecord
  3
AutoCAD 2000
 90
        0
280
     0
281
     0
  0
CLASS
  1
LONG_TRANSACTION
  2
AcDbLongTransaction
  3
AutoCAD 2000
 90
        0
280
     0
281
     0
  0
CLASS
  1
LWPOLYLINE
  2
AcDbPolyline
  3
AutoCAD 2000
 90
        0
280
     0
281
     1
  0
CLASS
  1
HATCH
  2
AcDbHatch
  3
AutoCAD 2000
 90
        0
280
     0
281
     1
  0
CLASS
  1
XRECORD
  2
AcDbXrecord
  3
AutoCAD 2000
 90
        0
280
     0
281
     0
  0
CLASS
  1
LONG_TRANSACTION
  2
AcDbLongTransaction
  3
AutoCAD 2000
 90
        0
280
     0
281
     0
  0
CLASS
  1
LWPOLYLINE
  2
AcDbPolyline
  3
AutoCAD 2000
 90
        0
280
     0
281
     1
  0
CLASS
  1
HATCH
  2
AcDbHatch
  3
AutoCAD 2000
 90
        0
280
     0
281
     1
  0
CLASS
  1
XRECORD
  2
AcDbXrecord
  3
AutoCAD 2000
 90
        0
280
     0
281
     0
  0
CLASS
  1
LONG_TRANSACTION
  2
AcDbLongTransaction
  3
AutoCAD 2000
 90
        0
280
     0
281
     0
  0
CLASS
  1
LWPOLYLINE
  2
AcDbPolyline
  3
AutoCAD 2000
 90
        0
280
     0
281
     1
  0
CLASS
  1
HATCH
  2
AcDbHatch
  3
AutoCAD 2000
 90
        0
280
     0
281
     1
  0
CLASS
  1
XRECORD
  2
AcDbXrecord
  3
AutoCAD 2000
 90
        0
280
     0
281
     0
  0
CLASS
  1
LONG_TRANSACTION
  2
AcDbLongTransaction
  3
AutoCAD 2000
 90
        0
280
     0
281
     0
  0
CLASS
  1
LWPOLYLINE
  2
AcDbPolyline
  3
AutoCAD 2000
 90
        0
280
     0
281
     1
  0
CLASS
  1
HATCH
  2
AcDbHatch
  3
AutoCAD 2000
 90
        0
280
     0
281
     1
  0
CLASS
  1
XRECORD
  2
AcDbXrecord
  3
AutoCAD 2000
 90
        0
280
     0
281
     0
  0
CLASS
  1
LONG_TRANSACTION
  2
AcDbLongTransaction
  3
AutoCAD 2000
 90
        0
280
     0
281
     0
  0
CLASS
  1
LWPOLYLINE
  2
AcDbPolyline
  3
AutoCAD 2000
 90
        0
280
     0
281
     1
  0
CLASS
  1
HATCH
  2
AcDbHatch
  3
AutoCAD 2000
 90
        0
280
     0
281
     1
  0
CLASS
  1
XRECORD
  2
AcDbXrecord
  3
AutoCAD 2000
 90
        0
280
     0
281
     0
  0
CLASS
  1
LONG_TRANSACTION
  2
AcDbLongTransaction
  3
AutoCAD 2000
 90
        0
280
     0
281
     0
  0
CLASS
  1
LWPOLYLINE
  2
AcDbPolyline
  3
AutoCAD 2000
 90
        0
280
     0
281
     1
  0
CLASS
  1
HATCH
  2
AcDbHatch
  3
AutoCAD 2000
 90
        0
280
     0
281
     1
  0
CLASS
  1
XRECORD
  2
AcDbXrecord
  3
AutoCAD 2000
 90
        0
280
     0
281
     0
  0
CLASS
  1
LONG_TRANSACTION
  2
AcDbLongTransaction
  3
AutoCAD 2000
 90
        0
280
     0
281
     0
  0
CLASS
  1
LWPOLYLINE
  2
AcDbPolyline
  3
AutoCAD 2000
 90
        0
280
     0
281
     1
  0
CLASS
  1
HATCH
  2
AcDbHatch
  3
AutoCAD 2000
 90
        0
280
     0
281
     1
  0
CLASS
  1
XRECORD
  2
AcDbXrecord
  3
AutoCAD 2000
 90
        0
280
     0
281
     0
  0
CLASS
  1
LONG_TRANSACTION
  2
AcDbLongTransaction
  3
AutoCAD 2000
 90
        0
280
     0
281
     0
  0
CLASS
  1
LWPOLYLINE
  2
AcDbPolyline
  3
AutoCAD 2000
 90
        0
280
     0
281
     1
  0
CLASS
  1
HATCH
  2
AcDbHatch
  3
AutoCAD 2000
 90
        0
280
     0
281
     1
  0
CLASS
  1
XRECORD
  2
AcDbXrecord
  3
AutoCAD 2000
 90
        0
280
     0
281
     0
  0
CLASS
  1
LONG_TRANSACTION
  2
AcDbLongTransaction
  3
AutoCAD 2000
 90
        0
280
     0
281
     0
  0
CLASS
  1
LWPOLYLINE
  2
AcDbPolyline
  3
AutoCAD 2000
 90
        0
280
     0
281
     1
  0
CLASS
  1
HATCH
  2
AcDbHatch
  3
AutoCAD 2000
 90
        0
280
     0
281
     1
  0
CLASS
  1
XRECORD
  2
AcDbXrecord
  3
AutoCAD 2000
 90
        0
280
     0
281
     0
  0
CLASS
  1
LONG_TRANSACTION
  2
AcDbLongTransaction
  3
AutoCAD 2000
 90
        0
280
     0
281
     0
  0
CLASS
  1
LWPOLYLINE
  2
AcDbPolyline
  3
AutoCAD 2000
 90
        0
280
     0
281
     1
  0
CLASS
  1
HATCH
  2
AcDbHatch
  3
AutoCAD 2000
 90
        0
280
     0
281
     1
  0
CLASS
  1
XRECORD
  2
AcDbXrecord
  3
AutoCAD 2000
 90
        0
280
     0
281
     0
  0
CLASS
  1
LONG_TRANSACTION
  2
AcDbLongTransaction
  3
AutoCAD 2000
 90
        0
280
     0
281
     0
  0
CLASS
  1
LWPOLYLINE
  2
AcDbPolyline
  3
AutoCAD 2000
 90
        0
280
     0
281
     1
  0
CLASS
  1
HATCH
  2
AcDbHatch
  3
AutoCAD 2000
 90
        0
280
     0
281
     1
  0
CLASS
  1
XRECORD
  2
AcDbXrecord
  3
AutoCAD 2000
 90
        0
280
     0
281
     0
  0
CLASS
  1
LONG_TRANSACTION
  2
AcDbLongTransaction
  3
AutoCAD 2000
 90
        0
280
     0
281
     0
  0
CLASS
  1
LWPOLYLINE
  2
AcDbPolyline
  3
AutoCAD 2000
 90
        0
280
     0
281
     1
  0
CLASS
  1
HATCH
  2
AcDbHatch
  3
AutoCAD 2000
 90
        0
280
     0
281
     1
  0
CLASS
  1
XRECORD
  2
AcDbXrecord
  3
AutoCAD 2000
 90
        0
280
     0
281
     0
  0
CLASS
  1
LONG_TRANSACTION
  2
AcDbLongTransaction
  3
AutoCAD 2000
 90
        0
280
     0
281
     0
  0
CLASS
  1
LWPOLYLINE
  2
AcDbPolyline
  3
AutoCAD 2000
 90
        0
280
     0
281
     1
  0
CLASS
  1
HATCH
  2
AcDbHatch
  3
AutoCAD 2000
 90
        0
280
     0
281
     1
  0
CLASS
  1
XRECORD
  2
AcDbXrecord
  3
AutoCAD 2000
 90
        0
280
     0
281
     0
  0
CLASS
  1
LONG_TRANSACTION
  2
AcDbLongTransaction
  3
AutoCAD 2000
 90
        0
280
     0
281
     0
  0
CLASS
  1
LWPOLYLINE
  2
AcDbPolyline
  3
AutoCAD 2000
 90
        0
280
     0
281
     1
  0
CLASS
  1
HATCH
  2
AcDbHatch
  3
AutoCAD 2000
 90
        0
280
     0
281
     1
  0
CLASS
  1
XRECORD
  2
AcDbXrecord
  3
AutoCAD 2000
 90
        0
280
     0
281
     0
  0
CLASS
  1
LONG_TRANSACTION
  2
AcDbLongTransaction
  3
AutoCAD 2000
 90
        0
280
     0
281
     0
  0
CLASS
  1
LWPOLYLINE
  2
AcDbPolyline
  3
AutoCAD 2000
 90
        0
280
     0
281
     1
  0
CLASS
  1
HATCH
  2
AcDbHatch
  3
AutoCAD 2000
 90
        0
280
     0
281
     1
  0
CLASS
  1
XRECORD
  2
AcDbXrecord
  3
AutoCAD 2000
 90
        0
280
     0
281
     0
  0
CLASS
  1
LONG_TRANSACTION
  2
AcDbLongTransaction
  3
AutoCAD 2000
 90
        0
280
     0
281
     0
  0
CLASS
  1
LWPOLYLINE
  2
AcDbPolyline
  3
AutoCAD 2000
 90
        0
280
     0
281
     1
  0
CLASS
  1
HATCH
  2
AcDbHatch
  3
AutoCAD 2000
 90
        0
280
     0
281
     1
  0
CLASS
  1
XRECORD
  2
AcDbXrecord
  3
AutoCAD 2000
 90
        0
280
     0
281
     0
  0
CLASS
  1
LONG_TRANSACTION
  2
AcDbLongTransaction
  3
AutoCAD 2000
 90
        0
280
     0
281
     0
  0
CLASS
  1
LWPOLYLINE
  2
AcDbPolyline
  3
AutoCAD 2000
 90
        0
280
     0
281
     1
  0
CLASS
  1
HATCH
  2
AcDbHatch
  3
AutoCAD 2000
 90
        0
280
     0
281
     1
  0
CLASS
  1
XRECORD
  2
AcDbXrecord
  3
AutoCAD 2000
 90
        0
280
     0
281
     0
  0
CLASS
  1
LONG_TRANSACTION
  2
AcDbLongTransaction
  3
AutoCAD 2000
 90
        0
280
     0
281
     0
  0
CLASS
  1
LWPOLYLINE
  2
AcDbPolyline
  3
AutoCAD 2000
 90
        0
280
     0
281
     1
  0
CLASS
  1
HATCH
  2
AcDbHatch
  3
AutoCAD 2000
 90
        0
280
     0
281
     1
  0
CLASS
  1
XRECORD
  2
AcDbXrecord
  3
AutoCAD 2000
 90
        0
280
     0
281
     0
  0
CLASS
  1
LONG_TRANSACTION
  2
AcDbLongTransaction
  3
AutoCAD 2000
 90
        0
280
     0
281
     0
  0
CLASS
  1
LWPOLYLINE
  2
AcDbPolyline
  3
AutoCAD 2000
 90
        0
280
     0
281
     1
  0
CLASS
  1
HATCH
  2
AcDbHatch
  3
AutoCAD 2000
 90
        0
280
     0
281
     1
  0
CLASS
  1
XRECORD
  2
AcDbXrecord
  3
AutoCAD 2000
 90
        0
280
     0
281
     0
  0
CLASS
  1
LONG_TRANSACTION
  2
AcDbLongTransaction
  3
AutoCAD 2000
 90
        0
280
     0
281
     0
  0
CLASS
  1
LWPOLYLINE
  2
AcDbPolyline
  3
AutoCAD 2000
 90
        0
280
     0
281
     1
  0
CLASS
  1
HATCH
  2
AcDbHatch
  3
AutoCAD 2000
 90
        0
280
     0
281
     1
  0
CLASS
  1
XRECORD
  2
AcDbXrecord
  3
AutoCAD 2000
 90
        0
280
     0
281
     0
  0
CLASS
  1
LONG_TRANSACTION
  2
AcDbLongTransaction
  3
AutoCAD 2000
 90
        0
280
     0
281
     0
  0
CLASS
  1
LWPOLYLINE
  2
AcDbPolyline
  3
AutoCAD 2000
 90
        0
280
     0
281
     1
  0
CLASS
  1
HATCH
  2
AcDbHatch
  3
AutoCAD 2000
 90
        0
280
     0
281
     1
  0
CLASS
  1
XRECORD
  2
AcDbXrecord
  3
AutoCAD 2000
 90
        0
280
     0
281
     0
  0
CLASS
  1
LONG_TRANSACTION
  2
AcDbLongTransaction
  3
AutoCAD 2000
 90
        0
280
     0
281
     0
  0
CLASS
  1
LWPOLYLINE
  2
AcDbPolyline
  3
AutoCAD 2000
 90
        0
280
     0
281
     1
  0
CLASS
  1
HATCH
  2
AcDbHatch
  3
AutoCAD 2000
 90
        0
280
     0
281
     1
  0
CLASS
  1
XRECORD
  2
AcDbXrecord
  3
AutoCAD 2000
 90
        0
280
     0
281
     0
  0
CLASS
  1
LONG_TRANSACTION
  2
AcDbLongTransaction
  3
AutoCAD 2000
 90
        0
280
     0
281
     0
  0
CLASS
  1
LWPOLYLINE
  2
AcDbPolyline
  3
AutoCAD 2000
 90
        0
280
     0
281
     1
  0
CLASS
  1
HATCH
  2
AcDbHatch
  3
AutoCAD 2000
 90
        0
280
     0
281
     1
  0
CLASS
  1
XRECORD
  2
AcDbXrecord
  3
AutoCAD 2000
 90
        0
280
     0
281
     0
  0
CLASS
  1
LONG_TRANSACTION
  2
AcDbLongTransaction
  3
AutoCAD 2000
 90
        0
280
     0
281
     0
  0
CLASS
  1
LWPOLYLINE
  2
AcDbPolyline
  3
AutoCAD 2000
 90
        0
280
     0
281
     1
  0
CLASS
  1
HATCH
  2
AcDbHatch
  3
AutoCAD 2000
 90
        0
280
     0
281
     1
  0
CLASS
  1
XRECORD
  2
AcDbXrecord
  3
AutoCAD 2000
 90
        0
280
     0
281
     0
  0
CLASS
  1
LONG_TRANSACTION
  2
AcDbLongTransaction
  3
AutoCAD 2000
 90
        0
280
     0
281
     0
  0
CLASS
  1
LWPOLYLINE
  2
AcDbPolyline
  3
AutoCAD 2000
 90
        0
280
     0
281
     1
  0
CLASS
  1
HATCH
  2
AcDbHatch
  3
AutoCAD 2000
 90
        0
280
     0
281
     1
  0
CLASS
  1
XRECORD
  2
AcDbXrecord
  3
AutoCAD 2000
 90
        0
280
     0
281
     0
  0
CLASS
  1
LONG_TRANSACTION
  2
AcDbLongTransaction
  3
AutoCAD 2000
 90
        0
280
     0
281
     0
  0
CLASS
  1
LWPOLYLINE
  2
AcDbPolyline
  3
AutoCAD 2000
 90
        0
280
     0
281
     1
  0
CLASS
  1
HATCH
  2
AcDbHatch
  3
AutoCAD 2000
 90
        0
280
     0
281
     1
  0
CLASS
  1
XRECORD
  2
AcDbXrecord
  3
AutoCAD 2000
 90
        0
280
     0
281
     0
  0
CLASS
  1
LONG_TRANSACTION
  2
AcDbLongTransaction
  3
AutoCAD 2000
 90
        0
280
     0
281
     0
  0
CLASS
  1
LWPOLYLINE
  2
AcDbPolyline
  3
AutoCAD 2000
 90
        0
280
     0
281
     1
  0
CLASS
  1
HATCH
  2
AcDbHatch
  3
AutoCAD 2000
 90
        0
280
     0
281
     1
  0
CLASS
  1
XRECORD
  2
AcDbXrecord
  3
AutoCAD 2000
 90
        0
280
     0
281
     0
  0
CLASS
  1
LONG_TRANSACTION
  2
AcDbLongTransaction
  3
AutoCAD 2000
 90
        0
280
     0
281
     0
  0
CLASS
  1
LWPOLYLINE
  2
AcDbPolyline
  3
AutoCAD 2000
 90
        0
280
     0
281
     1
  0
CLASS
  1
HATCH
  2
AcDbHatch
  3
AutoCAD 2000
 90
        0
280
     0
281
     1
  0
CLASS
  1
XRECORD
  2
AcDbXrecord
  3
AutoCAD 2000
 90
        0
280
     0
281
     0
  0
CLASS
  1
LONG_TRANSACTION
  2
AcDbLongTransaction
  3
AutoCAD 2000
 90
        0
280
     0
281
     0
  0
CLASS
  1
LWPOLYLINE
  2
AcDbPolyline
  3
AutoCAD 2000
 90
        0
280
     0
281
     1
  0
CLASS
  1
HATCH
  2
AcDbHatch
  3
AutoCAD 2000
 90
        0
280
     0
281
     1
  0
CLASS
  1
XRECORD
  2
AcDbXrecord
  3
AutoCAD 2000
 90
        0
280
     0
281
     0
  0
CLASS
  1
LONG_TRANSACTION
  2
AcDbLongTransaction
  3
AutoCAD 2000
 90
        0
280
     0
281
     0
  0
CLASS
  1
LWPOLYLINE
  2
AcDbPolyline
  3
AutoCAD 2000
 90
        0
280
     0
281
     1
  0
CLASS
  1
HATCH
  2
AcDbHatch
  3
AutoCAD 2000
 90
        0
280
     0
281
     1
  0
CLASS
  1
XRECORD
  2
AcDbXrecord
  3
AutoCAD 2000
 90
        0
280
     0
281
     0
  0
CLASS
  1
LONG_TRANSACTION
  2
AcDbLongTransaction
  3
AutoCAD 2000
 90
        0
280
     0
281
     0
  0
CLASS
  1
LWPOLYLINE
  2
AcDbPolyline
  3
AutoCAD 2000
 90
        0
280
     0
281
     1
  0
CLASS
  1
HATCH
  2
AcDbHatch
  3
AutoCAD 2000
 90
        0
280
     0
281
     1
  0
CLASS
  1
XRECORD
  2
AcDbXrecord
  3
AutoCAD 2000
 90
        0
280
     0
281
     0
  0
CLASS
  1
LONG_TRANSACTION
  2
AcDbLongTransaction
  3
AutoCAD 2000
 90
        0
280
     0
281
     0
  0
CLASS
  1
LWPOLYLINE
  2
AcDbPolyline
  3
AutoCAD 2000
 90
        0
280
     0
281
     1
  0
CLASS
  1
HATCH
  2
AcDbHatch
  3
AutoCAD 2000
 90
        0
280
     0
281
     1
  0
CLASS
  1
XRECORD
  2
AcDbXrecord
  3
AutoCAD 2000
 90
        0
280
     0
281
     0
  0
CLASS
  1
LONG_TRANSACTION
  2
AcDbLongTransaction
  3
AutoCAD 2000
 90
        0
280
     0
281
     0
  0
CLASS
  1
LWPOLYLINE
  2
AcDbPolyline
  3
AutoCAD 2000
 90
        0
280
     0
281
     1
  0
CLASS
  1
HATCH
  2
AcDbHatch
  3
AutoCAD 2000
 90
        0
280
     0
281
     1
  0
CLASS
  1
XRECORD
  2
AcDbXrecord
  3
AutoCAD 2000
 90
        0
280
     0
281
     0
  0
CLASS
  1
LONG_TRANSACTION
  2
AcDbLongTransaction
  3
AutoCAD 2000
 90
        0
280
     0
281
     0
  0
CLASS
  1
LWPOLYLINE
  2
AcDbPolyline
  3
AutoCAD 2000
 90
        0
280
     0
281
     1
  0
CLASS
  1
HATCH
  2
AcDbHatch
  3
AutoCAD 2000
 90
        0
280
     0
281
     1
  0
CLASS
  1
XRECORD
  2
AcDbXrecord
  3
AutoCAD 2000
 90
        0
280
     0
281
     0
  0
CLASS
  1
LONG_TRANSACTION
  2
AcDbLongTransaction
  3
AutoCAD 2000
 90
        0
280
     0
281
     0
  0
CLASS
  1
LWPOLYLINE
  2
AcDbPolyline
  3
AutoCAD 2000
 90
        0
280
     0
281
     1
  0
CLASS
  1
HATCH
  2
AcDbHatch
  3
AutoCAD 2000
 90
        0
280
     0
281
     1
  0
CLASS
  1
XRECORD
  2
AcDbXrecord
  3
AutoCAD 2000
 90
        0
280
     0
281
     0
  0
ENDSEC
  0
SECTION
  2
TABLES
  0
TABLE
  2
VPORT
  5
92
330
0
100
AcDbSymbolTable
 70
     2
  0
VPORT
  5
3D6
330
92
100
AcDbSymbolTableRecord
100
AcDbViewportTableRecord
  2
*ACTIVE
 70
     0
 10
0.0
 20
0.0
 11
1.0
 21
1.0
 12
135.0851081943692
 22
126.8060026035491
 13
0.0
 23
0.0
 14
10.0
 24
10.0
 15
10.0
 25
10.0
 16
0.0
 26
0.0
 36
1.0
 17
0.0
 27
0.0
 37
0.0
 40
337.9833542335604
 41
1.549367088607595
 42
50.0
 43
0.0
 44
0.0
 50
0.0
 51
0.0
 71
     0
 72
 10000
 73
     1
 74
     3
 75
     0
 76
     0
 77
     0
 78
     1
  0
ENDTAB
  0
TABLE
  2
LTYPE
  5
8D
330
0
100
AcDbSymbolTable
 70
     2
  0
LTYPE
  5
8E
330
8D
100
AcDbSymbolTableRecord
100
AcDbLinetypeTableRecord
  2
BYBLOCK
 70
     0
  3

 72
    65
 73
     0
 40
0.0
  0
LTYPE
  5
8F
330
8D
100
AcDbSymbolTableRecord
100
AcDbLinetypeTableRecord
  2
BYLAYER
 70
     0
  3

 72
    65
 73
     0
 40
0.0
  0
LTYPE
  5
A
330
8D
100
AcDbSymbolTableRecord
100
AcDbLinetypeTableRecord
  2
CONTINUOUS
 70
     0
  3
Solid line
 72
    65
 73
     0
 40
0.0
  0
LTYPE
  5
C9
330
8D
100
AcDbSymbolTableRecord
100
AcDbLinetypeTableRecord
  2
CENTER
 70
     0
  3
Center ____ _ ____ _ ____ _ ____ _ ____ _ ____
 72
    65
 73
     4
 40
50.8
 49
31.75
 74
     0
 49
-6.349999999999998
 74
     0
 49
6.349999999999998
 74
     0
 49
-6.349999999999998
 74
     0
  0
ENDTAB
  0
TABLE
  2
LAYER
  5
14
102
{ACAD_XDICTIONARY
360
15
102
}
330
0
100
AcDbSymbolTable
 70
     6
  0
LAYER
  5
6
330
14
100
AcDbSymbolTableRecord
100
AcDbLayerTableRecord
  2
0
 70
     0
 62
     7
  6
CONTINUOUS
  0
LAYER
  5
F8
330
14
100
AcDbSymbolTableRecord
100
AcDbLayerTableRecord
  2
3
 70
     0
 62
     3
  6
CONTINUOUS
  0
LAYER
  5
B1
330
14
100
AcDbSymbolTableRecord
100
AcDbLayerTableRecord
  2
DEFPOINTS
 70
     0
 62
     7
  6
CONTINUOUS
  0
LAYER
  5
9E
330
14
100
AcDbSymbolTableRecord
100
AcDbLayerTableRecord
  2
DIM
 70
     0
 62
     3
  6
CONTINUOUS
  0
LAYER
  5
C8
330
14
100
AcDbSymbolTableRecord
100
AcDbLayerTableRecord
  2
CEN
 70
     0
 62
     1
  6
CENTER
  0
LAYER
  5
18E
330
14
100
AcDbSymbolTableRecord
100
AcDbLayerTableRecord
  2
2
 70
     0
 62
     2
  6
CONTINUOUS
  0
ENDTAB
  0
TABLE
  2
STYLE
  5
8A
330
0
100
AcDbSymbolTable
 70
     1
  0
STYLE
  5
8B
330
8A
100
AcDbSymbolTableRecord
100
AcDbTextStyleTableRecord
  2
STANDARD
 70
     0
 40
0.0
 41
1.0
 50
0.0
 71
     0
 42
5.777225951253058
  3
romans.shx
  4
whgtxt.shx
  0
ENDTAB
  0
TABLE
  2
VIEW
  5
90
330
0
100
AcDbSymbolTable
 70
     0
  0
ENDTAB
  0
TABLE
  2
UCS
  5
91
330
0
100
AcDbSymbolTable
 70
     0
  0
ENDTAB
  0
TABLE
  2
APPID
  5
94
330
0
100
AcDbSymbolTable
 70
     1
  0
APPID
  5
95
330
94
100
AcDbSymbolTableRecord
100
AcDbRegAppTableRecord
  2
ACAD
 70
     0
  0
ENDTAB
  0
TABLE
  2
DIMSTYLE
  5
96
330
0
100
AcDbSymbolTable
 70
     2
  0
DIMSTYLE
105
A0
102
{ACAD_REACTORS
330
246
330
264
330
275
330
285
330
296
330
2C4
330
11D
330
148
330
159
330
169
330
178
330
1B0
330
199
330
222
330
1C3
330
1D3
330
109
330
A6
330
B5
102
}
330
96
100
AcDbSymbolTableRecord
100
AcDbDimStyleTableRecord
  2
STANDARD
 70
     0
  3

  4

  5

  6

  7

 40
1.0
 41
2.5
 42
1.0
 43
10.0
 44
0.6
 45
0.0
 46
0.0
 47
0.0
 48
0.0
140
3.0
141
0.09
142
0.0
143
25.4
144
1.0
145
0.0
146
1.0
147
1.0
 71
     0
 72
     0
 73
     0
 74
     0
 75
     0
 76
     0
 77
     1
 78
     8
170
     0
171
     2
172
     1
173
     0
174
     1
175
     0
176
   123
177
   123
178
     3
270
     2
271
     2
272
     2
273
     2
274
     2
340
8B
275
     1
280
     0
281
     0
282
     0
283
     1
284
     0
285
     0
286
     0
287
     0
288
     1
  0
DIMSTYLE
105
9C
330
96
100
AcDbSymbolTableRecord
100
AcDbDimStyleTableRecord
  2
1_1_2
 70
     0
  3

  4

  5

  6

  7

 40
1.0
 41
3.0
 42
1.0
 43
10.0
 44
0.6
 45
0.0
 46
0.0
 47
0.0
 48
0.0
140
3.5
141
0.09
142
0.0
143
25.4
144
1.0
145
0.0
146
1.0
147
1.0
 71
     0
 72
     0
 73
     0
 74
     0
 75
     0
 76
     0
 77
     1
 78
     8
170
     0
171
     2
172
     1
173
     0
174
     1
175
     0
176
   123
177
   123
178
     3
270
     2
271
     2
272
     2
273
     2
274
     2
340
8B
275
     1
280
     0
281
     0
282
     0
283
     1
284
     0
285
     0
286
     0
287
     0
288
     1
  0
ENDTAB
  0
TABLE
  2
BLOCK_RECORD
  5
1
330
0
100
AcDbSymbolTable
 70
    38
  0
BLOCK_RECORD
  5
2
102
{ACAD_XDICTIONARY
360
3
102
}
330
1
100
AcDbSymbolTableRecord
100
AcDbBlockTableRecord
  2
*MODEL_SPACE
  0
BLOCK_RECORD
  5
E
102
{ACAD_XDICTIONARY
360
F
102
}
330
1
100
AcDbSymbolTableRecord
100
AcDbBlockTableRecord
  2
*PAPER_SPACE
  0
BLOCK_RECORD
  5
297
330
1
100
AcDbSymbolTableRecord
100
AcDbBlockTableRecord
  2
*D0
  0
BLOCK_RECORD
  5
2C5
330
1
100
AcDbSymbolTableRecord
100
AcDbBlockTableRecord
  2
*D1
  0
BLOCK_RECORD
  5
11E
330
1
100
AcDbSymbolTableRecord
100
AcDbBlockTableRecord
  2
*D2
  0
BLOCK_RECORD
  5
15A
330
1
100
AcDbSymbolTableRecord
100
AcDbBlockTableRecord
  2
*D3
  0
BLOCK_RECORD
  5
179
330
1
100
AcDbSymbolTableRecord
100
AcDbBlockTableRecord
  2
*D4
  0
BLOCK_RECORD
  5
249
330
1
100
AcDbSymbolTableRecord
100
AcDbBlockTableRecord
  2
*D5
  0
BLOCK_RECORD
  5
267
330
1
100
AcDbSymbolTableRecord
100
AcDbBlockTableRecord
  2
*D6
  0
BLOCK_RECORD
  5
278
330
1
100
AcDbSymbolTableRecord
100
AcDbBlockTableRecord
  2
*D7
  0
BLOCK_RECORD
  5
288
330
1
100
AcDbSymbolTableRecord
100
AcDbBlockTableRecord
  2
*D8
  0
BLOCK_RECORD
  5
14B
330
1
100
AcDbSymbolTableRecord
100
AcDbBlockTableRecord
  2
*D9
  0
BLOCK_RECORD
  5
16C
330
1
100
AcDbSymbolTableRecord
100
AcDbBlockTableRecord
  2
*D10
  0
BLOCK_RECORD
  5
1B3
330
1
100
AcDbSymbolTableRecord
100
AcDbBlockTableRecord
  2
*D11
  0
BLOCK_RECORD
  5
19C
330
1
100
AcDbSymbolTableRecord
100
AcDbBlockTableRecord
  2
*D12
  0
BLOCK_RECORD
  5
225
330
1
100
AcDbSymbolTableRecord
100
AcDbBlockTableRecord
  2
*D13
  0
BLOCK_RECORD
  5
1C6
330
1
100
AcDbSymbolTableRecord
100
AcDbBlockTableRecord
  2
*D14
  0
BLOCK_RECORD
  5
1D6
330
1
100
AcDbSymbolTableRecord
100
AcDbBlockTableRecord
  2
*D15
  0
BLOCK_RECORD
  5
10C
330
1
100
AcDbSymbolTableRecord
100
AcDbBlockTableRecord
  2
*D16
  0
BLOCK_RECORD
  5
A9
330
1
100
AcDbSymbolTableRecord
100
AcDbBlockTableRecord
  2
*D17
  0
BLOCK_RECORD
  5
B8
330
1
100
AcDbSymbolTableRecord
100
AcDbBlockTableRecord
  2
*D18
  0
BLOCK_RECORD
  5
2DA
330
1
100
AcDbSymbolTableRecord
100
AcDbBlockTableRecord
  2
*D19
  0
BLOCK_RECORD
  5
2E5
330
1
100
AcDbSymbolTableRecord
100
AcDbBlockTableRecord
  2
*D20
  0
BLOCK_RECORD
  5
2F3
330
1
100
AcDbSymbolTableRecord
100
AcDbBlockTableRecord
  2
*D21
  0
BLOCK_RECORD
  5
2FF
330
1
100
AcDbSymbolTableRecord
100
AcDbBlockTableRecord
  2
*D22
  0
BLOCK_RECORD
  5
30B
330
1
100
AcDbSymbolTableRecord
100
AcDbBlockTableRecord
  2
*D23
  0
BLOCK_RECORD
  5
317
330
1
100
AcDbSymbolTableRecord
100
AcDbBlockTableRecord
  2
*D24
  0
BLOCK_RECORD
  5
325
330
1
100
AcDbSymbolTableRecord
100
AcDbBlockTableRecord
  2
*D25
  0
BLOCK_RECORD
  5
331
330
1
100
AcDbSymbolTableRecord
100
AcDbBlockTableRecord
  2
*D26
  0
BLOCK_RECORD
  5
33D
330
1
100
AcDbSymbolTableRecord
100
AcDbBlockTableRecord
  2
*D27
  0
BLOCK_RECORD
  5
34B
330
1
100
AcDbSymbolTableRecord
100
AcDbBlockTableRecord
  2
*D28
  0
BLOCK_RECORD
  5
357
330
1
100
AcDbSymbolTableRecord
100
AcDbBlockTableRecord
  2
*D29
  0
BLOCK_RECORD
  5
362
330
1
100
AcDbSymbolTableRecord
100
AcDbBlockTableRecord
  2
*D30
  0
BLOCK_RECORD
  5
370
330
1
100
AcDbSymbolTableRecord
100
AcDbBlockTableRecord
  2
*D31
  0
BLOCK_RECORD
  5
37C
330
1
100
AcDbSymbolTableRecord
100
AcDbBlockTableRecord
  2
*D32
  0
BLOCK_RECORD
  5
388
330
1
100
AcDbSymbolTableRecord
100
AcDbBlockTableRecord
  2
*D33
  0
BLOCK_RECORD
  5
394
330
1
100
AcDbSymbolTableRecord
100
AcDbBlockTableRecord
  2
*D34
  0
BLOCK_RECORD
  5
3A2
330
1
100
AcDbSymbolTableRecord
100
AcDbBlockTableRecord
  2
*D35
  0
BLOCK_RECORD
  5
3AE
330
1
100
AcDbSymbolTableRecord
100
AcDbBlockTableRecord
  2
*D36
  0
BLOCK_RECORD
  5
3BA
330
1
100
AcDbSymbolTableRecord
100
AcDbBlockTableRecord
  2
*D37
  0
ENDTAB
  0
ENDSEC
  0
SECTION
  2
BLOCKS
  0
BLOCK
  5
5
330
2
100
AcDbEntity
  8
0
100
AcDbBlockBegin
  2
*MODEL_SPACE
 70
     0
 10
0.0
 20
0.0
 30
0.0
  3
*MODEL_SPACE
  1

  0
ENDBLK
  5
B
330
2
100
AcDbEntity
  8
0
100
AcDbBlockEnd
  0
BLOCK
  5
11
330
E
100
AcDbEntity
 67
     1
  8
0
100
AcDbBlockBegin
  2
*PAPER_SPACE
 70
     0
 10
0.0
 20
0.0
 30
0.0
  3
*PAPER_SPACE
  1

  0
ENDBLK
  5
12
330
E
100
AcDbEntity
 67
     1
  8
0
100
AcDbBlockEnd
  0
BLOCK
  5
2A1
330
297
100
AcDbEntity
  8
0
100
AcDbBlockBegin
  2
*D0
 70
     1
 10
0.0
 20
0.0
 30
0.0
  3
*D0
  1

  0
LINE
  5
298
330
297
100
AcDbEntity
  8
0
 62
   123
100
AcDbLine
 10
8081.880019703936
 20
-1483.60574466667
 30
0.0
 11
8081.880019703936
 21
-1431.09751649745
 31
0.0
  0
LINE
  5
299
330
297
100
AcDbEntity
  8
0
 62
   123
100
AcDbLine
 10
8094.380729141034
 20
-1455.91524466667
 30
0.0
 11
8094.380729141034
 21
-1431.09751649745
 31
0.0
  0
LINE
  5
29A
330
297
100
AcDbEntity
  8
0
 62
   123
100
AcDbLine
 10
8084.380019703933
 20
-1431.697516497449
 30
0.0
 11
8091.880729141035
 21
-1431.697516497449
 31
0.0
  0
SOLID
  5
29B
330
297
100
AcDbEntity
  8
0
 62
   123
100
AcDbTrace
 10
8084.380019703933
 20
-1431.280849830783
 30
0.0
 11
8084.380019703933
 21
-1432.114183164117
 31
0.0
 12
8081.880019703936
 22
-1431.697516497449
 32
0.0
 13
8081.880019703936
 23
-1431.697516497449
 33
0.0
  0
SOLID
  5
29C
330
297
100
AcDbEntity
  8
0
 62
   123
100
AcDbTrace
 10
8091.880729141035
 20
-1431.280849830783
 30
0.0
 11
8091.880729141035
 21
-1432.114183164117
 31
0.0
 12
8094.380729141034
 22
-1431.697516497449
 32
0.0
 13
8094.380729141034
 23
-1431.697516497449
 33
0.0
  0
MTEXT
  5
29D
330
297
100
AcDbEntity
  8
0
 62
     3
100
AcDbMText
 10
8088.130374422483
 20
-1429.197516497449
 30
0.0
 40
3.0
 41
0.0
 71
     5
 72
     1
  1
\A1;12.5
1001
ACAD
1000
MTEXTBEGIN
1070
    73
1070
     1
1070
    44
1040
1.0
1070
    74
1070
     0
1000
MTEXTEND
  0
POINT
  5
29E
330
297
100
AcDbEntity
  8
DEFPOINTS
 62
     0
100
AcDbPoint
 10
8081.880019703936
 20
-1484.60574466667
 30
0.0
  0
POINT
  5
29F
330
297
100
AcDbEntity
  8
DEFPOINTS
 62
     0
100
AcDbPoint
 10
8094.380729141034
 20
-1456.915244666669
 30
0.0
  0
POINT
  5
2A0
330
297
100
AcDbEntity
  8
DEFPOINTS
 62
     0
100
AcDbPoint
 10
8094.380729141034
 20
-1431.697516497449
 30
0.0
  0
ENDBLK
  5
2A2
330
297
100
AcDbEntity
  8
0
100
AcDbBlockEnd
  0
BLOCK
  5
2CF
330
2C5
100
AcDbEntity
  8
0
100
AcDbBlockBegin
  2
*D1
 70
     1
 10
0.0
 20
0.0
 30
0.0
  3
*D1
  1

  0
LINE
  5
2C6
330
2C5
100
AcDbEntity
  8
0
 62
   123
100
AcDbLine
 10
8209.380729141033
 20
-1456.915244666669
 30
0.0
 11
8225.6062911172
 21
-1456.915244666669
 31
0.0
  0
LINE
  5
2C7
330
2C5
100
AcDbEntity
  8
0
 62
   123
100
AcDbLine
 10
8209.380729141033
 20
-1516.91524466667
 30
0.0
 11
8225.6062911172
 21
-1516.91524466667
 31
0.0
  0
LINE
  5
2C8
330
2C5
100
AcDbEntity
  8
0
 62
   123
100
AcDbLine
 10
8225.0062911172
 20
-1459.415244666669
 30
0.0
 11
8225.0062911172
 21
-1514.415244666669
 31
0.0
  0
SOLID
  5
2C9
330
2C5
100
AcDbEntity
  8
0
 62
   123
100
AcDbTrace
 10
8224.589624450533
 20
-1459.415244666669
 30
0.0
 11
8225.422957783866
 21
-1459.415244666669
 31
0.0
 12
8225.0062911172
 22
-1456.915244666669
 32
0.0
 13
8225.0062911172
 23
-1456.915244666669
 33
0.0
  0
SOLID
  5
2CA
330
2C5
100
AcDbEntity
  8
0
 62
   123
100
AcDbTrace
 10
8224.589624450533
 20
-1514.415244666669
 30
0.0
 11
8225.422957783866
 21
-1514.415244666669
 31
0.0
 12
8225.0062911172
 22
-1516.91524466667
 32
0.0
 13
8225.0062911172
 23
-1516.91524466667
 33
0.0
  0
MTEXT
  5
2CB
330
2C5
100
AcDbEntity
  8
0
 62
     3
100
AcDbMText
 10
8222.506291117198
 20
-1486.915244666669
 30
0.0
 40
3.0
 41
0.0
 71
     5
 72
     1
  1
\A1;%%C60
 11
0.0000000000000001
 21
1.0
 31
0.0
1001
ACAD
1000
MTEXTBEGIN
1070
    73
1070
     1
1070
    44
1040
1.0
1070
    74
1070
     0
1000
MTEXTEND
  0
POINT
  5
2CC
330
2C5
100
AcDbEntity
  8
DEFPOINTS
 62
     0
100
AcDbPoint
 10
8208.380729141032
 20
-1456.915244666669
 30
0.0
  0
POINT
  5
2CD
330
2C5
100
AcDbEntity
  8
DEFPOINTS
 62
     0
100
AcDbPoint
 10
8208.380729141032
 20
-1516.91524466667
 30
0.0
  0
POINT
  5
2CE
330
2C5
100
AcDbEntity
  8
DEFPOINTS
 62
     0
100
AcDbPoint
 10
8225.0062911172
 20
-1516.91524466667
 30
0.0
  0
ENDBLK
  5
2D0
330
2C5
100
AcDbEntity
  8
0
100
AcDbBlockEnd
  0
BLOCK
  5
128
330
11E
100
AcDbEntity
  8
0
100
AcDbBlockBegin
  2
*D2
 70
     1
 10
0.0
 20
0.0
 30
0.0
  3
*D2
  1

  0
LINE
  5
11F
330
11E
100
AcDbEntity
  8
0
 62
   123
100
AcDbLine
 10
8211.708337005402
 20
-1631.87944673996
 30
0.0
 11
8227.933898981568
 21
-1631.87944673996
 31
0.0
  0
LINE
  5
120
330
11E
100
AcDbEntity
  8
0
 62
   123
100
AcDbLine
 10
8211.708337005402
 20
-1691.879446739961
 30
0.0
 11
8227.933898981568
 21
-1691.879446739961
 31
0.0
  0
LINE
  5
121
330
11E
100
AcDbEntity
  8
0
 62
   123
100
AcDbLine
 10
8227.333898981569
 20
-1634.37944673996
 30
0.0
 11
8227.333898981569
 21
-1689.379446739961
 31
0.0
  0
SOLID
  5
122
330
11E
100
AcDbEntity
  8
0
 62
   123
100
AcDbTrace
 10
8226.917232314901
 20
-1634.37944673996
 30
0.0
 11
8227.750565648234
 21
-1634.37944673996
 31
0.0
 12
8227.333898981569
 22
-1631.87944673996
 32
0.0
 13
8227.333898981569
 23
-1631.87944673996
 33
0.0
  0
SOLID
  5
123
330
11E
100
AcDbEntity
  8
0
 62
   123
100
AcDbTrace
 10
8226.917232314901
 20
-1689.379446739961
 30
0.0
 11
8227.750565648234
 21
-1689.379446739961
 31
0.0
 12
8227.333898981569
 22
-1691.879446739961
 32
0.0
 13
8227.333898981569
 23
-1691.879446739961
 33
0.0
  0
MTEXT
  5
124
330
11E
100
AcDbEntity
  8
0
 62
     3
100
AcDbMText
 10
8224.83389898157
 20
-1661.879446739961
 30
0.0
 40
3.0
 41
0.0
 71
     5
 72
     1
  1
\A1;%%C60
 11
0.0000000000000001
 21
1.0
 31
0.0
1001
ACAD
1000
MTEXTBEGIN
1070
    73
1070
     1
1070
    44
1040
1.0
1070
    74
1070
     0
1000
MTEXTEND
  0
POINT
  5
125
330
11E
100
AcDbEntity
  8
DEFPOINTS
 62
     0
100
AcDbPoint
 10
8210.708337005403
 20
-1631.87944673996
 30
0.0
  0
POINT
  5
126
330
11E
100
AcDbEntity
  8
DEFPOINTS
 62
     0
100
AcDbPoint
 10
8210.708337005403
 20
-1691.879446739961
 30
0.0
  0
POINT
  5
127
330
11E
100
AcDbEntity
  8
DEFPOINTS
 62
     0
100
AcDbPoint
 10
8227.333898981569
 20
-1691.879446739961
 30
0.0
  0
ENDBLK
  5
129
330
11E
100
AcDbEntity
  8
0
100
AcDbBlockEnd
  0
BLOCK
  5
164
330
15A
100
AcDbEntity
  8
0
100
AcDbBlockBegin
  2
*D3
 70
     1
 10
0.0
 20
0.0
 30
0.0
  3
*D3
  1

  0
LINE
  5
15B
330
15A
100
AcDbEntity
  8
0
 62
   123
100
AcDbLine
 10
8072.708337005403
 20
-1658.879333954791
 30
0.0
 11
8072.708337005403
 21
-1611.633553247806
 31
0.0
  0
LINE
  5
15C
330
15A
100
AcDbEntity
  8
0
 62
   123
100
AcDbLine
 10
8096.708337005404
 20
-1630.87944673996
 30
0.0
 11
8096.708337005404
 21
-1611.633553247806
 31
0.0
  0
LINE
  5
15D
330
15A
100
AcDbEntity
  8
0
 62
   123
100
AcDbLine
 10
8075.208337005404
 20
-1612.233553247807
 30
0.0
 11
8094.208337005403
 21
-1612.233553247807
 31
0.0
  0
SOLID
  5
15E
330
15A
100
AcDbEntity
  8
0
 62
   123
100
AcDbTrace
 10
8075.208337005404
 20
-1611.81688658114
 30
0.0
 11
8075.208337005404
 21
-1612.650219914473
 31
0.0
 12
8072.708337005403
 22
-1612.233553247807
 32
0.0
 13
8072.708337005403
 23
-1612.233553247807
 33
0.0
  0
SOLID
  5
15F
330
15A
100
AcDbEntity
  8
0
 62
   123
100
AcDbTrace
 10
8094.208337005403
 20
-1611.81688658114
 30
0.0
 11
8094.208337005403
 21
-1612.650219914473
 31
0.0
 12
8096.708337005404
 22
-1612.233553247807
 32
0.0
 13
8096.708337005404
 23
-1612.233553247807
 33
0.0
  0
MTEXT
  5
160
330
15A
100
AcDbEntity
  8
0
 62
     3
100
AcDbMText
 10
8084.708337005405
 20
-1609.733553247806
 30
0.0
 40
3.0
 41
0.0
 71
     5
 72
     1
  1
\A1;24
1001
ACAD
1000
MTEXTBEGIN
1070
    73
1070
     1
1070
    44
1040
1.0
1070
    74
1070
     0
1000
MTEXTEND
  0
POINT
  5
161
330
15A
100
AcDbEntity
  8
DEFPOINTS
 62
     0
100
AcDbPoint
 10
8072.708337005403
 20
-1659.879333954791
 30
0.0
  0
POINT
  5
162
330
15A
100
AcDbEntity
  8
DEFPOINTS
 62
     0
100
AcDbPoint
 10
8096.708337005404
 20
-1631.87944673996
 30
0.0
  0
POINT
  5
163
330
15A
100
AcDbEntity
  8
DEFPOINTS
 62
     0
100
AcDbPoint
 10
8096.708337005404
 20
-1612.233553247807
 30
0.0
  0
ENDBLK
  5
165
330
15A
100
AcDbEntity
  8
0
100
AcDbBlockEnd
  0
BLOCK
  5
185
330
179
100
AcDbEntity
  8
0
100
AcDbBlockBegin
  2
*D4
 70
     1
 10
0.0
 20
0.0
 30
0.0
  3
*D4
  1

  0
LINE
  5
17A
330
179
100
AcDbEntity
  8
0
 62
   123
100
AcDbLine
 10
8072.208337005404
 20
-1658.879557125416
 30
0.0
 11
8058.160706132838
 21
-1658.879557125416
 31
0.0
  0
LINE
  5
17B
330
179
100
AcDbEntity
  8
0
 62
   123
100
AcDbLine
 10
8072.208337005404
 20
-1664.879336354504
 30
0.0
 11
8058.160706132838
 21
-1664.879336354504
 31
0.0
  0
LINE
  5
17C
330
179
100
AcDbEntity
  8
0
 62
   123
100
AcDbLine
 10
8058.760706132842
 20
-1656.379557125418
 30
0.0
 11
8058.760706132842
 21
-1653.879557125416
 31
0.0
  0
LINE
  5
17D
330
179
100
AcDbEntity
  8
0
 62
   123
100
AcDbLine
 10
8058.760706132842
 20
-1667.379336354504
 30
0.0
 11
8058.760706132842
 21
-1669.879336354504
 31
0.0
  0
LINE
  5
17E
330
179
100
AcDbEntity
  8
0
 62
   123
100
AcDbLine
 10
8058.760706132842
 20
-1658.879557125416
 30
0.0
 11
8058.760706132842
 21
-1664.879336354504
 31
0.0
  0
SOLID
  5
17F
330
179
100
AcDbEntity
  8
0
 62
   123
100
AcDbTrace
 10
8058.344039466172
 20
-1656.379557125418
 30
0.0
 11
8059.177372799506
 21
-1656.379557125418
 31
0.0
 12
8058.760706132842
 22
-1658.879557125416
 32
0.0
 13
8058.760706132842
 23
-1658.879557125416
 33
0.0
  0
SOLID
  5
180
330
179
100
AcDbEntity
  8
0
 62
   123
100
AcDbTrace
 10
8058.344039466172
 20
-1667.379336354504
 30
0.0
 11
8059.177372799506
 21
-1667.379336354504
 31
0.0
 12
8058.760706132842
 22
-1664.879336354504
 32
0.0
 13
8058.760706132842
 23
-1664.879336354504
 33
0.0
  0
MTEXT
  5
181
330
179
100
AcDbEntity
  8
0
 62
     3
100
AcDbMText
 10
8054.81055613284
 20
-1661.87944673996
 30
0.0
 40
3.0
 41
0.0
 71
     5
 72
     1
  1
\A1;\A1;%%c6{\H0.7x;\S+0^ -0.012;\f??|b0|i0|c0|p49;\H1.429x;(h7)}  
 11
0.0000000000000001
 21
1.0
 31
0.0
1001
ACAD
1000
MTEXTBEGIN
1070
    73
1070
     1
1070
    44
1040
1.0
1070
    74
1070
     0
1000
MTEXTEND
  0
POINT
  5
182
330
179
100
AcDbEntity
  8
DEFPOINTS
 62
     0
100
AcDbPoint
 10
8073.208337005404
 20
-1658.879557125416
 30
0.0
  0
POINT
  5
183
330
179
100
AcDbEntity
  8
DEFPOINTS
 62
     0
100
AcDbPoint
 10
8073.208337005404
 20
-1664.879336354504
 30
0.0
  0
POINT
  5
184
330
179
100
AcDbEntity
  8
DEFPOINTS
 62
     0
100
AcDbPoint
 10
8058.760706132842
 20
-1664.879336354504
 30
0.0
  0
ENDBLK
  5
186
330
179
100
AcDbEntity
  8
0
100
AcDbBlockEnd
  0
BLOCK
  5
253
330
249
100
AcDbEntity
  8
0
100
AcDbBlockBegin
  2
*D5
 70
     1
 10
0.0
 20
0.0
 30
0.0
  3
*D5
  1

  0
LINE
  5
24A
330
249
100
AcDbEntity
  8
0
 62
   123
100
AcDbLine
 10
8094.380729141034
 20
-1455.915244666669
 30
0.0
 11
8094.380729141034
 21
-1431.097516497449
 31
0.0
  0
LINE
  5
24B
330
249
100
AcDbEntity
  8
0
 62
   123
100
AcDbLine
 10
8209.380729141036
 20
-1456.915244666669
 30
0.0
 11
8209.380729141036
 21
-1431.097516497449
 31
0.0
  0
LINE
  5
24C
330
249
100
AcDbEntity
  8
0
 62
   123
100
AcDbLine
 10
8096.880729141034
 20
-1431.697516497449
 30
0.0
 11
8206.880729141031
 21
-1431.697516497449
 31
0.0
  0
SOLID
  5
24D
330
249
100
AcDbEntity
  8
0
 62
   123
100
AcDbTrace
 10
8096.880729141034
 20
-1431.280849830781
 30
0.0
 11
8096.880729141034
 21
-1432.114183164116
 31
0.0
 12
8094.380729141034
 22
-1431.697516497449
 32
0.0
 13
8094.380729141034
 23
-1431.697516497449
 33
0.0
  0
SOLID
  5
24E
330
249
100
AcDbEntity
  8
0
 62
   123
100
AcDbTrace
 10
8206.880729141031
 20
-1431.280849830781
 30
0.0
 11
8206.880729141031
 21
-1432.114183164116
 31
0.0
 12
8209.380729141036
 22
-1431.697516497449
 32
0.0
 13
8209.380729141036
 23
-1431.697516497449
 33
0.0
  0
MTEXT
  5
24F
330
249
100
AcDbEntity
  8
0
 62
     3
100
AcDbMText
 10
8151.880729141034
 20
-1429.197516497449
 30
0.0
 40
3.0
 41
0.0
 71
     5
 72
     1
  1
\A1;115
1001
ACAD
1000
MTEXTBEGIN
1070
    73
1070
     1
1070
    44
1040
1.0
1070
    74
1070
     0
1000
MTEXTEND
  0
POINT
  5
250
330
249
100
AcDbEntity
  8
DEFPOINTS
 62
     0
100
AcDbPoint
 10
8094.380729141034
 20
-1456.915244666669
 30
0.0
  0
POINT
  5
251
330
249
100
AcDbEntity
  8
DEFPOINTS
 62
     0
100
AcDbPoint
 10
8209.380729141036
 20
-1457.915244666668
 30
0.0
  0
POINT
  5
252
330
249
100
AcDbEntity
  8
DEFPOINTS
 62
     0
100
AcDbPoint
 10
8209.380729141036
 20
-1431.697516497449
 30
0.0
  0
ENDBLK
  5
254
330
249
100
AcDbEntity
  8
0
100
AcDbBlockEnd
  0
BLOCK
  5
271
330
267
100
AcDbEntity
  8
0
100
AcDbBlockBegin
  2
*D6
 70
     1
 10
0.0
 20
0.0
 30
0.0
  3
*D6
  1

  0
LINE
  5
268
330
267
100
AcDbEntity
  8
0
 62
   123
100
AcDbLine
 10
8094.380729141034
 20
-1445.48342389196
 30
0.0
 11
8094.380729141034
 21
-1443.951399523769
 31
0.0
  0
LINE
  5
269
330
267
100
AcDbEntity
  8
0
 62
   123
100
AcDbLine
 10
8101.380729141034
 20
-1457.316507325141
 30
0.0
 11
8101.380729141034
 21
-1443.951399523769
 31
0.0
  0
LINE
  5
26A
330
267
100
AcDbEntity
  8
0
 62
   123
100
AcDbLine
 10
8096.880729141034
 20
-1444.55139952377
 30
0.0
 11
8098.880729141034
 21
-1444.55139952377
 31
0.0
  0
SOLID
  5
26B
330
267
100
AcDbEntity
  8
0
 62
   123
100
AcDbTrace
 10
8096.880729141034
 20
-1444.134732857103
 30
0.0
 11
8096.880729141034
 21
-1444.968066190437
 31
0.0
 12
8094.380729141034
 22
-1444.55139952377
 32
0.0
 13
8094.380729141034
 23
-1444.55139952377
 33
0.0
  0
SOLID
  5
26C
330
267
100
AcDbEntity
  8
0
 62
   123
100
AcDbTrace
 10
8098.880729141034
 20
-1444.134732857103
 30
0.0
 11
8098.880729141034
 21
-1444.968066190437
 31
0.0
 12
8101.380729141034
 22
-1444.55139952377
 32
0.0
 13
8101.380729141034
 23
-1444.55139952377
 33
0.0
  0
MTEXT
  5
26D
330
267
100
AcDbEntity
  8
0
 62
     3
100
AcDbMText
 10
8097.880729141035
 20
-1442.051399523769
 30
0.0
 40
3.0
 41
0.0
 71
     5
 72
     1
  1
\A1;7
1001
ACAD
1000
MTEXTBEGIN
1070
    73
1070
     1
1070
    44
1040
1.0
1070
    74
1070
     0
1000
MTEXTEND
  0
POINT
  5
26E
330
267
100
AcDbEntity
  8
DEFPOINTS
 62
     0
100
AcDbPoint
 10
8094.380729141034
 20
-1446.483423891959
 30
0.0
  0
POINT
  5
26F
330
267
100
AcDbEntity
  8
DEFPOINTS
 62
     0
100
AcDbPoint
 10
8101.380729141034
 20
-1458.31650732514
 30
0.0
  0
POINT
  5
270
330
267
100
AcDbEntity
  8
DEFPOINTS
 62
     0
100
AcDbPoint
 10
8101.380729141034
 20
-1444.55139952377
 30
0.0
  0
ENDBLK
  5
272
330
267
100
AcDbEntity
  8
0
100
AcDbBlockEnd
  0
BLOCK
  5
282
330
278
100
AcDbEntity
  8
0
100
AcDbBlockBegin
  2
*D7
 70
     1
 10
0.0
 20
0.0
 30
0.0
  3
*D7
  1

  0
LINE
  5
279
330
278
100
AcDbEntity
  8
0
 62
   123
100
AcDbLine
 10
8091.380729141034
 20
-1459.915244666669
 30
0.0
 11
8071.612050541899
 21
-1459.915244666669
 31
0.0
  0
LINE
  5
27A
330
278
100
AcDbEntity
  8
0
 62
   123
100
AcDbLine
 10
8091.380729141034
 20
-1513.915244666669
 30
0.0
 11
8071.612050541899
 21
-1513.915244666669
 31
0.0
  0
LINE
  5
27B
330
278
100
AcDbEntity
  8
0
 62
   123
100
AcDbLine
 10
8072.212050541901
 20
-1462.41524466667
 30
0.0
 11
8072.212050541901
 21
-1511.415244666669
 31
0.0
  0
SOLID
  5
27C
330
278
100
AcDbEntity
  8
0
 62
   123
100
AcDbTrace
 10
8071.795383875233
 20
-1462.41524466667
 30
0.0
 11
8072.628717208569
 21
-1462.41524466667
 31
0.0
 12
8072.212050541901
 22
-1459.915244666669
 32
0.0
 13
8072.212050541901
 23
-1459.915244666669
 33
0.0
  0
SOLID
  5
27D
330
278
100
AcDbEntity
  8
0
 62
   123
100
AcDbTrace
 10
8071.795383875233
 20
-1511.415244666669
 30
0.0
 11
8072.628717208569
 21
-1511.415244666669
 31
0.0
 12
8072.212050541901
 22
-1513.915244666669
 32
0.0
 13
8072.212050541901
 23
-1513.915244666669
 33
0.0
  0
MTEXT
  5
27E
330
278
100
AcDbEntity
  8
0
 62
     3
100
AcDbMText
 10
8068.261900541903
 20
-1486.915244666669
 30
0.0
 40
3.0
 41
0.0
 71
     5
 72
     1
  1
\A1;\A1;%%C54{\f??|b0|i0|c0|p49;\H0.7x;\S+0^ -0.03;\H1.429x;(h7)} 
 11
0.0000000000000001
 21
1.0
 31
0.0
1001
ACAD
1000
MTEXTBEGIN
1070
    73
1070
     1
1070
    44
1040
1.0
1070
    74
1070
     0
1000
MTEXTEND
  0
POINT
  5
27F
330
278
100
AcDbEntity
  8
DEFPOINTS
 62
     0
100
AcDbPoint
 10
8092.380729141034
 20
-1459.915244666669
 30
0.0
  0
POINT
  5
280
330
278
100
AcDbEntity
  8
DEFPOINTS
 62
     0
100
AcDbPoint
 10
8092.380729141034
 20
-1513.915244666669
 30
0.0
  0
POINT
  5
281
330
278
100
AcDbEntity
  8
DEFPOINTS
 62
     0
100
AcDbPoint
 10
8072.212050541901
 20
-1513.915244666669
 30
0.0
  0
ENDBLK
  5
283
330
278
100
AcDbEntity
  8
0
100
AcDbBlockEnd
  0
BLOCK
  5
294
330
288
100
AcDbEntity
  8
0
100
AcDbBlockBegin
  2
*D8
 70
     1
 10
0.0
 20
0.0
 30
0.0
  3
*D8
  1

  0
LINE
  5
289
330
288
100
AcDbEntity
  8
0
 62
   123
100
AcDbLine
 10
8092.380729141034
 20
-1458.91524466667
 30
0.0
 11
8092.380729141034
 21
-1443.951399523769
 31
0.0
  0
LINE
  5
28A
330
288
100
AcDbEntity
  8
0
 62
   123
100
AcDbLine
 10
8094.380729141034
 20
-1455.91524466667
 30
0.0
 11
8094.380729141034
 21
-1443.951399523769
 31
0.0
  0
LINE
  5
28B
330
288
100
AcDbEntity
  8
0
 62
   123
100
AcDbLine
 10
8096.880729141034
 20
-1444.55139952377
 30
0.0
 11
8099.380729141033
 21
-1444.55139952377
 31
0.0
  0
LINE
  5
28C
330
288
100
AcDbEntity
  8
0
 62
   123
100
AcDbLine
 10
8089.880729141034
 20
-1444.55139952377
 30
0.0
 11
8083.380729141033
 21
-1444.55139952377
 31
0.0
  0
LINE
  5
28D
330
288
100
AcDbEntity
  8
0
 62
   123
100
AcDbLine
 10
8094.380729141034
 20
-1444.55139952377
 30
0.0
 11
8092.380729141034
 21
-1444.55139952377
 31
0.0
  0
SOLID
  5
28E
330
288
100
AcDbEntity
  8
0
 62
   123
100
AcDbTrace
 10
8096.880729141034
 20
-1444.134732857103
 30
0.0
 11
8096.880729141034
 21
-1444.968066190437
 31
0.0
 12
8094.380729141034
 22
-1444.55139952377
 32
0.0
 13
8094.380729141034
 23
-1444.55139952377
 33
0.0
  0
SOLID
  5
28F
330
288
100
AcDbEntity
  8
0
 62
   123
100
AcDbTrace
 10
8089.880729141034
 20
-1444.134732857103
 30
0.0
 11
8089.880729141034
 21
-1444.968066190437
 31
0.0
 12
8092.380729141034
 22
-1444.55139952377
 32
0.0
 13
8092.380729141034
 23
-1444.55139952377
 33
0.0
  0
MTEXT
  5
290
330
288
100
AcDbEntity
  8
0
 62
     3
100
AcDbMText
 10
8085.380729141034
 20
-1442.051399523769
 30
0.0
 40
3.0
 41
0.0
 71
     5
 72
     1
  1
\A1;2
1001
ACAD
1000
MTEXTBEGIN
1070
    73
1070
     1
1070
    44
1040
1.0
1070
    74
1070
     0
1000
MTEXTEND
  0
POINT
  5
291
330
288
100
AcDbEntity
  8
DEFPOINTS
 62
     0
100
AcDbPoint
 10
8092.380729141034
 20
-1459.915244666669
 30
0.0
  0
POINT
  5
292
330
288
100
AcDbEntity
  8
DEFPOINTS
 62
     0
100
AcDbPoint
 10
8094.380729141034
 20
-1456.915244666669
 30
0.0
  0
POINT
  5
293
330
288
100
AcDbEntity
  8
DEFPOINTS
 62
     0
100
AcDbPoint
 10
8094.380729141034
 20
-1444.55139952377
 30
0.0
  0
ENDBLK
  5
295
330
288
100
AcDbEntity
  8
0
100
AcDbBlockEnd
  0
BLOCK
  5
157
330
14B
100
AcDbEntity
  8
0
100
AcDbBlockBegin
  2
*D9
 70
     1
 10
0.0
 20
0.0
 30
0.0
  3
*D9
  1

  0
LINE
  5
14C
330
14B
100
AcDbEntity
  8
0
 62
   123
100
AcDbLine
 10
8094.708337005403
 20
-1633.87944673996
 30
0.0
 11
8094.708337005403
 21
-1622.071113406627
 31
0.0
  0
LINE
  5
14D
330
14B
100
AcDbEntity
  8
0
 62
   123
100
AcDbLine
 10
8096.708337005404
 20
-1630.87944673996
 30
0.0
 11
8096.708337005404
 21
-1622.071113406627
 31
0.0
  0
LINE
  5
14E
330
14B
100
AcDbEntity
  8
0
 62
   123
100
AcDbLine
 10
8099.208337005403
 20
-1622.671113406627
 30
0.0
 11
8101.708337005403
 21
-1622.671113406627
 31
0.0
  0
LINE
  5
14F
330
14B
100
AcDbEntity
  8
0
 62
   123
100
AcDbLine
 10
8092.208337005404
 20
-1622.671113406627
 30
0.0
 11
8085.708337005405
 21
-1622.671113406627
 31
0.0
  0
LINE
  5
150
330
14B
100
AcDbEntity
  8
0
 62
   123
100
AcDbLine
 10
8096.708337005404
 20
-1622.671113406627
 30
0.0
 11
8094.708337005403
 21
-1622.671113406627
 31
0.0
  0
SOLID
  5
151
330
14B
100
AcDbEntity
  8
0
 62
   123
100
AcDbTrace
 10
8099.208337005403
 20
-1622.25444673996
 30
0.0
 11
8099.208337005403
 21
-1623.087780073294
 31
0.0
 12
8096.708337005404
 22
-1622.671113406627
 32
0.0
 13
8096.708337005404
 23
-1622.671113406627
 33
0.0
  0
SOLID
  5
152
330
14B
100
AcDbEntity
  8
0
 62
   123
100
AcDbTrace
 10
8092.208337005404
 20
-1622.25444673996
 30
0.0
 11
8092.208337005404
 21
-1623.087780073294
 31
0.0
 12
8094.708337005403
 22
-1622.671113406627
 32
0.0
 13
8094.708337005403
 23
-1622.671113406627
 33
0.0
  0
MTEXT
  5
153
330
14B
100
AcDbEntity
  8
0
 62
     3
100
AcDbMText
 10
8087.708337005404
 20
-1620.171113406627
 30
0.0
 40
3.0
 41
0.0
 71
     5
 72
     1
  1
\A1;2
1001
ACAD
1000
MTEXTBEGIN
1070
    73
1070
     1
1070
    44
1040
1.0
1070
    74
1070
     0
1000
MTEXTEND
  0
POINT
  5
154
330
14B
100
AcDbEntity
  8
DEFPOINTS
 62
     0
100
AcDbPoint
 10
8094.708337005403
 20
-1634.879446739961
 30
0.0
  0
POINT
  5
155
330
14B
100
AcDbEntity
  8
DEFPOINTS
 62
     0
100
AcDbPoint
 10
8096.708337005404
 20
-1631.87944673996
 30
0.0
  0
POINT
  5
156
330
14B
100
AcDbEntity
  8
DEFPOINTS
 62
     0
100
AcDbPoint
 10
8096.708337005404
 20
-1622.671113406627
 30
0.0
  0
ENDBLK
  5
158
330
14B
100
AcDbEntity
  8
0
100
AcDbBlockEnd
  0
BLOCK
  5
176
330
16C
100
AcDbEntity
  8
0
100
AcDbBlockBegin
  2
*D10
 70
     1
 10
0.0
 20
0.0
 30
0.0
  3
*D10
  1

  0
LINE
  5
16D
330
16C
100
AcDbEntity
  8
0
 62
   123
100
AcDbLine
 10
8093.708337005404
 20
-1634.879446739961
 30
0.0
 11
8047.837280857732
 21
-1634.879446739961
 31
0.0
  0
LINE
  5
16E
330
16C
100
AcDbEntity
  8
0
 62
   123
100
AcDbLine
 10
8093.708337005404
 20
-1688.879446739961
 30
0.0
 11
8047.837280857732
 21
-1688.879446739961
 31
0.0
  0
LINE
  5
16F
330
16C
100
AcDbEntity
  8
0
 62
   123
100
AcDbLine
 10
8048.437280857733
 20
-1637.37944673996
 30
0.0
 11
8048.437280857733
 21
-1686.379446739961
 31
0.0
  0
SOLID
  5
170
330
16C
100
AcDbEntity
  8
0
 62
   123
100
AcDbTrace
 10
8048.020614191065
 20
-1637.37944673996
 30
0.0
 11
8048.853947524399
 21
-1637.37944673996
 31
0.0
 12
8048.437280857733
 22
-1634.879446739961
 32
0.0
 13
8048.437280857733
 23
-1634.879446739961
 33
0.0
  0
SOLID
  5
171
330
16C
100
AcDbEntity
  8
0
 62
   123
100
AcDbTrace
 10
8048.020614191065
 20
-1686.379446739961
 30
0.0
 11
8048.853947524399
 21
-1686.379446739961
 31
0.0
 12
8048.437280857733
 22
-1688.879446739961
 32
0.0
 13
8048.437280857733
 23
-1688.879446739961
 33
0.0
  0
MTEXT
  5
172
330
16C
100
AcDbEntity
  8
0
 62
     3
100
AcDbMText
 10
8044.487130857733
 20
-1661.879446739961
 30
0.0
 40
3.0
 41
0.0
 71
     5
 72
     1
  1
\A1;\A1;%%C54{\f??|b0|i0|c0|p49;\H0.7x;\S+0^ -0.03;\H1.429x;(h7)} 
 11
0.0000000000000001
 21
1.0
 31
0.0
1001
ACAD
1000
MTEXTBEGIN
1070
    73
1070
     1
1070
    44
1040
1.0
1070
    74
1070
     0
1000
MTEXTEND
  0
POINT
  5
173
330
16C
100
AcDbEntity
  8
DEFPOINTS
 62
     0
100
AcDbPoint
 10
8094.708337005403
 20
-1634.879446739961
 30
0.0
  0
POINT
  5
174
330
16C
100
AcDbEntity
  8
DEFPOINTS
 62
     0
100
AcDbPoint
 10
8094.708337005403
 20
-1688.879446739961
 30
0.0
  0
POINT
  5
175
330
16C
100
AcDbEntity
  8
DEFPOINTS
 62
     0
100
AcDbPoint
 10
8048.437280857733
 20
-1688.879446739961
 30
0.0
  0
ENDBLK
  5
177
330
16C
100
AcDbEntity
  8
0
100
AcDbBlockEnd
  0
BLOCK
  5
1BD
330
1B3
100
AcDbEntity
  8
0
100
AcDbBlockBegin
  2
*D11
 70
     1
 10
0.0
 20
0.0
 30
0.0
  3
*D11
  1

  0
LINE
  5
1B4
330
1B3
100
AcDbEntity
  8
0
 62
   123
100
AcDbLine
 10
8096.708337005404
 20
-1630.87944673996
 30
0.0
 11
8096.708337005404
 21
-1611.633553247806
 31
0.0
  0
LINE
  5
1B5
330
1B3
100
AcDbEntity
  8
0
 62
   123
100
AcDbLine
 10
8211.708337005402
 20
-1631.87944673996
 30
0.0
 11
8211.708337005402
 21
-1611.633553247806
 31
0.0
  0
LINE
  5
1B6
330
1B3
100
AcDbEntity
  8
0
 62
   123
100
AcDbLine
 10
8099.208337005403
 20
-1612.233553247806
 30
0.0
 11
8209.208337005403
 21
-1612.233553247806
 31
0.0
  0
SOLID
  5
1B7
330
1B3
100
AcDbEntity
  8
0
 62
   123
100
AcDbTrace
 10
8099.208337005403
 20
-1611.81688658114
 30
0.0
 11
8099.208337005403
 21
-1612.650219914473
 31
0.0
 12
8096.708337005404
 22
-1612.233553247806
 32
0.0
 13
8096.708337005404
 23
-1612.233553247806
 33
0.0
  0
SOLID
  5
1B8
330
1B3
100
AcDbEntity
  8
0
 62
   123
100
AcDbTrace
 10
8209.208337005403
 20
-1611.81688658114
 30
0.0
 11
8209.208337005403
 21
-1612.650219914473
 31
0.0
 12
8211.708337005402
 22
-1612.233553247806
 32
0.0
 13
8211.708337005402
 23
-1612.233553247806
 33
0.0
  0
MTEXT
  5
1B9
330
1B3
100
AcDbEntity
  8
0
 62
     3
100
AcDbMText
 10
8154.208337005403
 20
-1609.733553247806
 30
0.0
 40
3.0
 41
0.0
 71
     5
 72
     1
  1
\A1;115
1001
ACAD
1000
MTEXTBEGIN
1070
    73
1070
     1
1070
    44
1040
1.0
1070
    74
1070
     0
1000
MTEXTEND
  0
POINT
  5
1BA
330
1B3
100
AcDbEntity
  8
DEFPOINTS
 62
     0
100
AcDbPoint
 10
8096.708337005404
 20
-1631.87944673996
 30
0.0
  0
POINT
  5
1BB
330
1B3
100
AcDbEntity
  8
DEFPOINTS
 62
     0
100
AcDbPoint
 10
8211.708337005402
 20
-1632.87944673996
 30
0.0
  0
POINT
  5
1BC
330
1B3
100
AcDbEntity
  8
DEFPOINTS
 62
     0
100
AcDbPoint
 10
8211.708337005402
 20
-1612.233553247806
 30
0.0
  0
ENDBLK
  5
1BE
330
1B3
100
AcDbEntity
  8
0
100
AcDbBlockEnd
  0
BLOCK
  5
1A6
330
19C
100
AcDbEntity
  8
0
100
AcDbBlockBegin
  2
*D12
 70
     1
 10
0.0
 20
0.0
 30
0.0
  3
*D12
  1

  0
LINE
  5
19D
330
19C
100
AcDbEntity
  8
0
 62
   123
100
AcDbLine
 10
8096.708337005404
 20
-1621.671113406627
 30
0.0
 11
8096.708337005404
 21
-1622.071113406627
 31
0.0
  0
LINE
  5
19E
330
19C
100
AcDbEntity
  8
0
 62
   123
100
AcDbLine
 10
8103.708337005405
 20
-1632.280709398432
 30
0.0
 11
8103.708337005405
 21
-1622.071113406627
 31
0.0
  0
LINE
  5
19F
330
19C
100
AcDbEntity
  8
0
 62
   123
100
AcDbLine
 10
8099.208337005403
 20
-1622.671113406627
 30
0.0
 11
8101.208337005401
 21
-1622.671113406627
 31
0.0
  0
SOLID
  5
1A0
330
19C
100
AcDbEntity
  8
0
 62
   123
100
AcDbTrace
 10
8099.208337005403
 20
-1622.25444673996
 30
0.0
 11
8099.208337005403
 21
-1623.087780073294
 31
0.0
 12
8096.708337005404
 22
-1622.671113406627
 32
0.0
 13
8096.708337005404
 23
-1622.671113406627
 33
0.0
  0
SOLID
  5
1A1
330
19C
100
AcDbEntity
  8
0
 62
   123
100
AcDbTrace
 10
8101.208337005401
 20
-1622.25444673996
 30
0.0
 11
8101.208337005401
 21
-1623.087780073294
 31
0.0
 12
8103.708337005405
 22
-1622.671113406627
 32
0.0
 13
8103.708337005405
 23
-1622.671113406627
 33
0.0
  0
MTEXT
  5
1A2
330
19C
100
AcDbEntity
  8
0
 62
     3
100
AcDbMText
 10
8100.208337005403
 20
-1620.171113406627
 30
0.0
 40
3.0
 41
0.0
 71
     5
 72
     1
  1
\A1;7
1001
ACAD
1000
MTEXTBEGIN
1070
    73
1070
     1
1070
    44
1040
1.0
1070
    74
1070
     0
1000
MTEXTEND
  0
POINT
  5
1A3
330
19C
100
AcDbEntity
  8
DEFPOINTS
 62
     0
100
AcDbPoint
 10
8096.708337005404
 20
-1622.671113406627
 30
0.0
  0
POINT
  5
1A4
330
19C
100
AcDbEntity
  8
DEFPOINTS
 62
     0
100
AcDbPoint
 10
8103.708337005405
 20
-1633.280709398432
 30
0.0
  0
POINT
  5
1A5
330
19C
100
AcDbEntity
  8
DEFPOINTS
 62
     0
100
AcDbPoint
 10
8103.708337005405
 20
-1622.671113406627
 30
0.0
  0
ENDBLK
  5
1A7
330
19C
100
AcDbEntity
  8
0
100
AcDbBlockEnd
  0
BLOCK
  5
231
330
225
100
AcDbEntity
  8
0
100
AcDbBlockBegin
  2
*D13
 70
     1
 10
0.0
 20
0.0
 30
0.0
  3
*D13
  1

  0
LINE
  5
226
330
225
100
AcDbEntity
  8
0
 62
   123
100
AcDbLine
 10
7994.063615319468
 20
-1522.91524466667
 30
0.0
 11
7994.063615319468
 21
-1539.434103507011
 31
0.0
  0
LINE
  5
227
330
225
100
AcDbEntity
  8
0
 62
   123
100
AcDbLine
 10
8007.739707369998
 20
-1519.93225157531
 30
0.0
 11
8014.161712484391
 21
-1535.436343420109
 31
0.0
  0
ARC
  5
228
330
225
100
AcDbEntity
  8
0
 62
   123
100
AcDbCircle
 10
7994.063615319466
 20
-1486.915244666661
 30
0.0
 40
51.91885884035064
100
AcDbArc
 50
272.759176411852
 51
289.7408235881463
  0
SOLID
  5
229
330
225
100
AcDbEntity
  8
0
 62
   123
100
AcDbTrace
 10
7996.572922324559
 20
-1539.190459319814
 30
0.0
 11
7996.552858966272
 21
-1538.357367544498
 31
0.0
 12
7994.063615319468
 22
-1538.834103507011
 32
0.0
 13
7994.063615319468
 23
-1538.834103507011
 33
0.0
  0
SOLID
  5
22A
330
225
100
AcDbEntity
  8
0
 62
   123
100
AcDbTrace
 10
8011.449902213788
 20
-1535.394161405178
 30
0.0
 11
8011.750176507767
 21
-1536.171515759908
 31
0.0
 12
8013.932102424972
 22
-1534.882015700604
 32
0.0
 13
8013.932102424972
 23
-1534.882015700604
 33
0.0
  0
MTEXT
  5
22B
330
225
100
AcDbEntity
  8
0
 62
     3
100
AcDbMText
 10
8003.649016312296
 20
-1535.104309625773
 30
0.0
 40
3.0
 41
0.0
 71
     5
 72
     1
  1
\A1;22°30'
 11
0.9807852804032325
 21
0.1950903220161171
 31
0.0
1001
ACAD
1000
MTEXTBEGIN
1070
    73
1070
     1
1070
    44
1040
1.0
1070
    74
1070
     0
1000
MTEXTEND
  0
POINT
  5
22C
330
225
100
AcDbEntity
  8
DEFPOINTS
 62
     0
100
AcDbPoint
 10
8000.840386268308
 20
-1538.389930472319
 30
0.0
  0
POINT
  5
22D
330
225
100
AcDbEntity
  8
DEFPOINTS
 62
     0
100
AcDbPoint
 10
7994.063615319468
 20
-1521.915244666669
 30
0.0
  0
POINT
  5
22E
330
225
100
AcDbEntity
  8
DEFPOINTS
 62
     0
100
AcDbPoint
 10
7994.063615319472
 20
-1486.915244666668
 30
0.0
  0
POINT
  5
22F
330
225
100
AcDbEntity
  8
DEFPOINTS
 62
     0
100
AcDbPoint
 10
8007.357023937631
 20
-1519.008372042799
 30
0.0
  0
POINT
  5
230
330
225
100
AcDbEntity
  8
DEFPOINTS
 62
     0
100
AcDbPoint
 10
7994.063615319468
 20
-1451.915244666669
 30
0.0
  0
ENDBLK
  5
232
330
225
100
AcDbEntity
  8
0
100
AcDbBlockEnd
  0
BLOCK
  5
1CF
330
1C6
100
AcDbEntity
  8
0
100
AcDbBlockBegin
  2
*D14
 70
     1
 10
0.0
 20
0.0
 30
0.0
  3
*D14
  1

  0
LINE
  5
1C7
330
1C6
100
AcDbEntity
  8
0
 62
   123
100
AcDbLine
 10
7962.589394105434
 20
-1507.302088438312
 30
0.0
 11
7960.491112691165
 21
-1508.661211356422
 31
0.0
  0
LINE
  5
1C8
330
1C6
100
AcDbEntity
  8
0
 62
   123
100
AcDbLine
 10
8025.537836533509
 20
-1466.528400895021
 30
0.0
 11
8046.909529521924
 21
-1452.68528264509
 31
0.0
  0
LINE
  5
1C9
330
1C6
100
AcDbEntity
  8
0
 62
   123
100
AcDbLine
 10
7964.687675519704
 20
-1505.942965520202
 30
0.0
 11
8023.439555119241
 21
-1467.88752381313
 31
0.0
  0
SOLID
  5
1CA
330
1C6
100
AcDbEntity
  8
0
 62
   123
100
AcDbTrace
 10
7962.362873619085
 20
-1506.952374869267
 30
0.0
 11
7962.815914591788
 21
-1507.651802007356
 31
0.0
 12
7964.687675519704
 22
-1505.942965520202
 32
0.0
 13
7964.687675519704
 23
-1505.942965520202
 33
0.0
  0
SOLID
  5
1CB
330
1C6
100
AcDbEntity
  8
0
 62
   123
100
AcDbTrace
 10
8025.311316047156
 20
-1466.178687325975
 30
0.0
 11
8025.764357019864
 21
-1466.878114464066
 31
0.0
 12
8023.439555119241
 22
-1467.88752381313
 32
0.0
 13
8023.439555119241
 23
-1467.88752381313
 33
0.0
  0
MTEXT
  5
1CC
330
1C6
100
AcDbEntity
  8
0
 62
     3
100
AcDbMText
 10
8036.977428254086
 20
-1456.139989153383
 30
0.0
 40
3.0
 41
0.0
 71
     5
 72
     1
  1
\A1;\U+220570%%p0.5
 11
0.8393125657077678
 21
0.5436491672439532
 31
0.0
1001
ACAD
1000
MTEXTBEGIN
1070
    73
1070
     1
1070
    44
1040
1.0
1070
    74
1070
     0
1000
MTEXTEND
  0
POINT
  5
1CD
330
1C6
100
AcDbEntity
  8
DEFPOINTS
 62
     0
100
AcDbPoint
 10
8023.439555119241
 20
-1467.88752381313
 30
0.0
  0
POINT
  5
1CE
330
1C6
100
AcDbEntity
  8
DEFPOINTS
 62
     0
100
AcDbPoint
 10
7964.687675519704
 20
-1505.942965520202
 30
0.0
  0
ENDBLK
  5
1D0
330
1C6
100
AcDbEntity
  8
0
100
AcDbBlockEnd
  0
BLOCK
  5
1E0
330
1D6
100
AcDbEntity
  8
0
100
AcDbBlockBegin
  2
*D15
 70
     1
 10
0.0
 20
0.0
 30
0.0
  3
*D15
  1

  0
LINE
  5
1D7
330
1D6
100
AcDbEntity
  8
0
 62
   123
100
AcDbLine
 10
7964.063615319466
 20
-1460.915244666669
 30
0.0
 11
7964.063615319466
 21
-1442.664146872363
 31
0.0
  0
LINE
  5
1D8
330
1D6
100
AcDbEntity
  8
0
 62
   123
100
AcDbLine
 10
8024.063615319468
 20
-1460.915244666669
 30
0.0
 11
8024.063615319468
 21
-1442.664146872363
 31
0.0
  0
LINE
  5
1D9
330
1D6
100
AcDbEntity
  8
0
 62
   123
100
AcDbLine
 10
7966.563615319468
 20
-1443.264146872364
 30
0.0
 11
8021.563615319468
 21
-1443.264146872364
 31
0.0
  0
SOLID
  5
1DA
330
1D6
100
AcDbEntity
  8
0
 62
   123
100
AcDbTrace
 10
7966.563615319468
 20
-1442.847480205696
 30
0.0
 11
7966.563615319468
 21
-1443.680813539031
 31
0.0
 12
7964.063615319466
 22
-1443.264146872364
 32
0.0
 13
7964.063615319466
 23
-1443.264146872364
 33
0.0
  0
SOLID
  5
1DB
330
1D6
100
AcDbEntity
  8
0
 62
   123
100
AcDbTrace
 10
8021.563615319468
 20
-1442.847480205696
 30
0.0
 11
8021.563615319468
 21
-1443.680813539031
 31
0.0
 12
8024.063615319468
 22
-1443.264146872364
 32
0.0
 13
8024.063615319468
 23
-1443.264146872364
 33
0.0
  0
MTEXT
  5
1DC
330
1D6
100
AcDbEntity
  8
0
 62
     3
100
AcDbMText
 10
7993.732876559808
 20
-1440.764146872363
 30
0.0
 40
3.0
 41
0.0
 71
     5
 72
     1
  1
\A1;60
1001
ACAD
1000
MTEXTBEGIN
1070
    73
1070
     1
1070
    44
1040
1.0
1070
    74
1070
     0
1000
MTEXTEND
  0
POINT
  5
1DD
330
1D6
100
AcDbEntity
  8
DEFPOINTS
 62
     0
100
AcDbPoint
 10
7964.063615319466
 20
-1461.915244666669
 30
0.0
  0
POINT
  5
1DE
330
1D6
100
AcDbEntity
  8
DEFPOINTS
 62
     0
100
AcDbPoint
 10
8024.063615319468
 20
-1461.915244666669
 30
0.0
  0
POINT
  5
1DF
330
1D6
100
AcDbEntity
  8
DEFPOINTS
 62
     0
100
AcDbPoint
 10
8024.063615319468
 20
-1443.264146872364
 30
0.0
  0
ENDBLK
  5
1E1
330
1D6
100
AcDbEntity
  8
0
100
AcDbBlockEnd
  0
BLOCK
  5
118
330
10C
100
AcDbEntity
  8
0
100
AcDbBlockBegin
  2
*D16
 70
     1
 10
0.0
 20
0.0
 30
0.0
  3
*D16
  1

  0
LINE
  5
10D
330
10C
100
AcDbEntity
  8
0
 62
   123
100
AcDbLine
 10
7996.558129201851
 20
-1697.879446739962
 30
0.0
 11
7996.558129201851
 21
-1714.398305580302
 31
0.0
  0
LINE
  5
10E
330
10C
100
AcDbEntity
  8
0
 62
   123
100
AcDbLine
 10
8010.23422125238
 20
-1694.896453648601
 30
0.0
 11
8016.656226366775
 21
-1710.4005454934
 31
0.0
  0
ARC
  5
10F
330
10C
100
AcDbEntity
  8
0
 62
   123
100
AcDbCircle
 10
7996.558129201851
 20
-1661.879446739952
 30
0.0
 40
51.91885884035053
100
AcDbArc
 50
272.759176411852
 51
289.7408235881476
  0
SOLID
  5
110
330
10C
100
AcDbEntity
  8
0
 62
   123
100
AcDbTrace
 10
7999.067436206942
 20
-1714.154661393104
 30
0.0
 11
7999.047372848656
 21
-1713.321569617789
 31
0.0
 12
7996.558129201851
 22
-1713.798305580302
 32
0.0
 13
7996.558129201851
 23
-1713.798305580302
 33
0.0
  0
SOLID
  5
111
330
10C
100
AcDbEntity
  8
0
 62
   123
100
AcDbTrace
 10
8013.944416096173
 20
-1710.358363478468
 30
0.0
 11
8014.244690390151
 21
-1711.1357178332
 31
0.0
 12
8016.426616307354
 22
-1709.846217773894
 32
0.0
 13
8016.426616307354
 23
-1709.846217773894
 33
0.0
  0
MTEXT
  5
112
330
10C
100
AcDbEntity
  8
0
 62
     3
100
AcDbMText
 10
8006.14353019468
 20
-1710.068511699063
 30
0.0
 40
3.0
 41
0.0
 71
     5
 72
     1
  1
\A1;22°30'
 11
0.9807852804032325
 21
0.1950903220161171
 31
0.0
1001
ACAD
1000
MTEXTBEGIN
1070
    73
1070
     1
1070
    44
1040
1.0
1070
    74
1070
     0
1000
MTEXTEND
  0
POINT
  5
113
330
10C
100
AcDbEntity
  8
DEFPOINTS
 62
     0
100
AcDbPoint
 10
8003.334900150695
 20
-1713.354132545609
 30
0.0
  0
POINT
  5
114
330
10C
100
AcDbEntity
  8
DEFPOINTS
 62
     0
100
AcDbPoint
 10
7996.558129201851
 20
-1696.879446739961
 30
0.0
  0
POINT
  5
115
330
10C
100
AcDbEntity
  8
DEFPOINTS
 62
     0
100
AcDbPoint
 10
7996.558129201855
 20
-1661.87944673996
 30
0.0
  0
POINT
  5
116
330
10C
100
AcDbEntity
  8
DEFPOINTS
 62
     0
100
AcDbPoint
 10
8009.851537820017
 20
-1693.97257411609
 30
0.0
  0
POINT
  5
117
330
10C
100
AcDbEntity
  8
DEFPOINTS
 62
     0
100
AcDbPoint
 10
7996.558129201851
 20
-1626.879446739962
 30
0.0
  0
ENDBLK
  5
119
330
10C
100
AcDbEntity
  8
0
100
AcDbBlockEnd
  0
BLOCK
  5
B3
330
A9
100
AcDbEntity
  8
0
100
AcDbBlockBegin
  2
*D17
 70
     1
 10
0.0
 20
0.0
 30
0.0
  3
*D17
  1

  0
LINE
  5
AA
330
A9
100
AcDbEntity
  8
0
 62
   123
100
AcDbLine
 10
7965.083907987817
 20
-1682.266290511611
 30
0.0
 11
7962.985626573547
 21
-1683.625413429722
 31
0.0
  0
LINE
  5
AB
330
A9
100
AcDbEntity
  8
0
 62
   123
100
AcDbLine
 10
8028.032350415889
 20
-1641.492602968306
 30
0.0
 11
8049.404043404296
 21
-1627.649484718376
 31
0.0
  0
LINE
  5
AC
330
A9
100
AcDbEntity
  8
0
 62
   123
100
AcDbLine
 10
7967.182189402085
 20
-1680.907167593502
 30
0.0
 11
8025.934069001619
 21
-1642.851725886418
 31
0.0
  0
SOLID
  5
AD
330
A9
100
AcDbEntity
  8
0
 62
   123
100
AcDbTrace
 10
7964.857387501464
 20
-1681.916576942567
 30
0.0
 11
7965.310428474167
 21
-1682.616004080657
 31
0.0
 12
7967.182189402085
 22
-1680.907167593502
 32
0.0
 13
7967.182189402085
 23
-1680.907167593502
 33
0.0
  0
SOLID
  5
AE
330
A9
100
AcDbEntity
  8
0
 62
   123
100
AcDbTrace
 10
8027.805829929539
 20
-1641.142889399263
 30
0.0
 11
8028.258870902241
 21
-1641.842316537353
 31
0.0
 12
8025.934069001619
 22
-1642.851725886418
 32
0.0
 13
8025.934069001619
 23
-1642.851725886418
 33
0.0
  0
MTEXT
  5
AF
330
A9
100
AcDbEntity
  8
0
 62
     3
100
AcDbMText
 10
8039.471942136456
 20
-1631.104191226673
 30
0.0
 40
3.0
 41
0.0
 71
     5
 72
     1
  1
\A1;\U+220570%%p0.5
 11
0.8393125657076772
 21
0.5436491672440935
 31
0.0
1001
ACAD
1000
MTEXTBEGIN
1070
    73
1070
     1
1070
    44
1040
1.0
1070
    74
1070
     0
1000
MTEXTEND
  0
POINT
  5
B0
330
A9
100
AcDbEntity
  8
DEFPOINTS
 62
     0
100
AcDbPoint
 10
8025.934069001619
 20
-1642.851725886418
 30
0.0
  0
POINT
  5
B2
330
A9
100
AcDbEntity
  8
DEFPOINTS
 62
     0
100
AcDbPoint
 10
7967.182189402085
 20
-1680.907167593502
 30
0.0
  0
ENDBLK
  5
B4
330
A9
100
AcDbEntity
  8
0
100
AcDbBlockEnd
  0
BLOCK
  5
C2
330
B8
100
AcDbEntity
  8
0
100
AcDbBlockBegin
  2
*D18
 70
     1
 10
0.0
 20
0.0
 30
0.0
  3
*D18
  1

  0
LINE
  5
B9
330
B8
100
AcDbEntity
  8
0
 62
   123
100
AcDbLine
 10
7966.55812920185
 20
-1635.87944673996
 30
0.0
 11
7966.55812920185
 21
-1617.628348945654
 31
0.0
  0
LINE
  5
BA
330
B8
100
AcDbEntity
  8
0
 62
   123
100
AcDbLine
 10
8026.55812920185
 20
-1635.87944673996
 30
0.0
 11
8026.55812920185
 21
-1617.628348945654
 31
0.0
  0
LINE
  5
BB
330
B8
100
AcDbEntity
  8
0
 62
   123
100
AcDbLine
 10
7969.058129201852
 20
-1618.228348945654
 30
0.0
 11
8024.058129201852
 21
-1618.228348945654
 31
0.0
  0
SOLID
  5
BC
330
B8
100
AcDbEntity
  8
0
 62
   123
100
AcDbTrace
 10
7969.058129201852
 20
-1617.811682278988
 30
0.0
 11
7969.058129201852
 21
-1618.645015612322
 31
0.0
 12
7966.55812920185
 22
-1618.228348945654
 32
0.0
 13
7966.55812920185
 23
-1618.228348945654
 33
0.0
  0
SOLID
  5
BD
330
B8
100
AcDbEntity
  8
0
 62
   123
100
AcDbTrace
 10
8024.058129201852
 20
-1617.811682278988
 30
0.0
 11
8024.058129201852
 21
-1618.645015612322
 31
0.0
 12
8026.55812920185
 22
-1618.228348945654
 32
0.0
 13
8026.55812920185
 23
-1618.228348945654
 33
0.0
  0
MTEXT
  5
BE
330
B8
100
AcDbEntity
  8
0
 62
     3
100
AcDbMText
 10
7996.227390442193
 20
-1615.728348945655
 30
0.0
 40
3.0
 41
0.0
 71
     5
 72
     1
  1
\A1;60
1001
ACAD
1000
MTEXTBEGIN
1070
    73
1070
     1
1070
    44
1040
1.0
1070
    74
1070
     0
1000
MTEXTEND
  0
POINT
  5
BF
330
B8
100
AcDbEntity
  8
DEFPOINTS
 62
     0
100
AcDbPoint
 10
7966.55812920185
 20
-1636.87944673996
 30
0.0
  0
POINT
  5
C0
330
B8
100
AcDbEntity
  8
DEFPOINTS
 62
     0
100
AcDbPoint
 10
8026.55812920185
 20
-1636.87944673996
 30
0.0
  0
POINT
  5
C1
330
B8
100
AcDbEntity
  8
DEFPOINTS
 62
     0
100
AcDbPoint
 10
8026.55812920185
 20
-1618.228348945654
 30
0.0
  0
ENDBLK
  5
C3
330
B8
100
AcDbEntity
  8
0
100
AcDbBlockEnd
  0
BLOCK
  5
2E3
330
2DA
100
AcDbEntity
  8
0
100
AcDbBlockBegin
  2
*D19
 70
     1
 10
0.0
 20
0.0
 30
0.0
  3
*D19
  1

  0
LINE
  5
3CE
330
2DA
100
AcDbEntity
  8
0
 62
   123
100
AcDbLine
 10
-0.068472059055253
 20
39.94238173265855
 30
0.0
 11
-2.166753473324469
 21
38.58325881454836
 31
0.0
  0
LINE
  5
3CF
330
2DA
100
AcDbEntity
  8
0
 62
   123
100
AcDbLine
 10
62.87997036901754
 20
80.71606927596201
 30
0.0
 11
84.25166335742595
 21
94.55918752589283
 31
0.0
  0
LINE
  5
3D0
330
2DA
100
AcDbEntity
  8
0
 62
   123
100
AcDbLine
 10
2.029809355213963
 20
41.30150465076875
 30
0.0
 11
60.78168895474831
 21
79.35694635785182
 31
0.0
  0
SOLID
  5
3D1
330
2DA
100
AcDbEntity
  8
0
 62
   123
100
AcDbTrace
 10
-0.2949925454069522
 20
40.29209530170342
 30
0.0
 11
0.1580484272964426
 21
39.59266816361369
 31
0.0
 12
2.029809355213963
 22
41.30150465076875
 32
0.0
 13
2.029809355213963
 23
41.30150465076875
 33
0.0
  0
SOLID
  5
3D2
330
2DA
100
AcDbEntity
  8
0
 62
   123
100
AcDbTrace
 10
62.65344988266583
 20
81.0657828450069
 30
0.0
 11
63.10649085536923
 21
80.36635570691714
 31
0.0
 12
60.78168895474831
 22
79.35694635785182
 32
0.0
 13
60.78168895474831
 23
79.35694635785182
 33
0.0
  0
MTEXT
  5
3D3
330
2DA
100
AcDbEntity
  8
0
 62
     3
100
AcDbMText
 10
74.3195620895872
 20
91.10448101759756
 30
0.0
 40
3.0
 41
0.0
 71
     5
 72
     1
  1
\A1;\U+220570%%p0.5
 11
0.8393125657076868
 21
0.5436491672440784
 31
0.0
1001
ACAD
1000
MTEXTBEGIN
1070
    73
1070
     1
1070
    44
1040
1.0
1070
    74
1070
     0
1000
MTEXTEND
  0
POINT
  5
3D4
330
2DA
100
AcDbEntity
  8
DEFPOINTS
 62
     0
100
AcDbPoint
 10
60.78168895474831
 20
79.35694635785182
 30
0.0
  0
POINT
  5
3D5
330
2DA
100
AcDbEntity
  8
DEFPOINTS
 62
     0
100
AcDbPoint
 10
2.029809355213963
 20
41.30150465076875
 30
0.0
  0
ENDBLK
  5
2E4
330
2DA
100
AcDbEntity
  8
0
100
AcDbBlockEnd
  0
BLOCK
  5
2F1
330
2E5
100
AcDbEntity
  8
0
100
AcDbBlockBegin
  2
*D20
 70
     1
 10
0.0
 20
0.0
 30
0.0
  3
*D20
  1

  0
LINE
  5
3FA
330
2E5
100
AcDbEntity
  8
0
 62
   123
100
AcDbLine
 10
31.40574915497927
 20
24.32922550430817
 30
0.0
 11
31.40574915497927
 21
7.810366663966734
 31
0.0
  0
LINE
  5
3FB
330
2E5
100
AcDbEntity
  8
0
 62
   123
100
AcDbLine
 10
45.08184120550833
 20
27.31221859566774
 30
0.0
 11
51.50384631990217
 21
11.80812675086768
 31
0.0
  0
ARC
  5
3FC
330
2E5
100
AcDbEntity
  8
0
 62
   123
100
AcDbCircle
 10
31.40574915497927
 20
60.32922550432006
 30
0.0
 40
51.91885884035333
100
AcDbArc
 50
272.7591764118518
 51
289.7408235881468
  0
SOLID
  5
3FD
330
2E5
100
AcDbEntity
  8
0
 62
   123
100
AcDbTrace
 10
33.91505616006909
 20
8.054010851164102
 30
0.0
 11
33.89499280178401
 21
8.887102626479864
 31
0.0
 12
31.40574915497927
 22
8.410366663966733
 32
0.0
 13
31.40574915497927
 23
8.410366663966733
 33
0.0
  0
SOLID
  5
3FE
330
2E5
100
AcDbEntity
  8
0
 62
   123
100
AcDbTrace
 10
48.79203604930006
 20
11.85030876580024
 30
0.0
 11
49.09231034327998
 21
11.0729544110692
 31
0.0
 12
51.27423626048313
 22
12.36245447037446
 32
0.0
 13
51.27423626048313
 23
12.36245447037446
 33
0.0
  0
MTEXT
  5
3FF
330
2E5
100
AcDbEntity
  8
0
 62
     3
100
AcDbMText
 10
40.99115014780823
 20
12.14016054520584
 30
0.0
 40
3.0
 41
0.0
 71
     5
 72
     1
  1
\A1;22°30'
 11
0.9807852804032325
 21
0.1950903220161171
 31
0.0
  0
POINT
  5
400
330
2E5
100
AcDbEntity
  8
DEFPOINTS
 62
     0
100
AcDbPoint
 10
38.18252010382053
 20
8.854539698659465
 30
0.0
  0
POINT
  5
401
330
2E5
100
AcDbEntity
  8
DEFPOINTS
 62
     0
100
AcDbPoint
 10
31.40574915497927
 20
25.32922550430817
 30
0.0
  0
POINT
  5
402
330
2E5
100
AcDbEntity
  8
DEFPOINTS
 62
     0
100
AcDbPoint
 10
31.40574915498382
 20
60.32922550430908
 30
0.0
  0
POINT
  5
403
330
2E5
100
AcDbEntity
  8
DEFPOINTS
 62
     0
100
AcDbPoint
 10
44.69915777314326
 20
28.23609812817903
 30
0.0
  0
POINT
  5
404
330
2E5
100
AcDbEntity
  8
DEFPOINTS
 62
     0
100
AcDbPoint
 10
31.40574915497927
 20
95.32922550430816
 30
0.0
  0
ENDBLK
  5
2F2
330
2E5
100
AcDbEntity
  8
0
100
AcDbBlockEnd
  0
BLOCK
  5
2FD
330
2F3
100
AcDbEntity
  8
0
100
AcDbBlockBegin
  2
*D21
 70
     1
 10
0.0
 20
0.0
 30
0.0
  3
*D21
  1

  0
LINE
  5
2F4
330
2F3
100
AcDbEntity
  8
0
 62
   123
100
AcDbLine
 10
1.405749154979275
 20
86.32922550430908
 30
0.0
 11
1.405749154979276
 21
104.5803232986141
 31
0.0
  0
LINE
  5
2F5
330
2F3
100
AcDbEntity
  8
0
 62
   123
100
AcDbLine
 10
61.40574915497928
 20
86.32922550430908
 30
0.0
 11
61.40574915497928
 21
104.5803232986141
 31
0.0
  0
LINE
  5
2F6
330
2F3
100
AcDbEntity
  8
0
 62
   123
100
AcDbLine
 10
3.905749154979276
 20
103.9803232986141
 30
0.0
 11
58.90574915497928
 21
103.9803232986141
 31
0.0
  0
SOLID
  5
2F7
330
2F3
100
AcDbEntity
  8
0
 62
   123
100
AcDbTrace
 10
3.905749154979276
 20
104.3969899652808
 30
0.0
 11
3.905749154979276
 21
103.5636566319474
 31
0.0
 12
1.405749154979276
 22
103.9803232986141
 32
0.0
 13
1.405749154979276
 23
103.9803232986141
 33
0.0
  0
SOLID
  5
2F8
330
2F3
100
AcDbEntity
  8
0
 62
   123
100
AcDbTrace
 10
58.90574915497928
 20
104.3969899652808
 30
0.0
 11
58.90574915497928
 21
103.5636566319474
 31
0.0
 12
61.40574915497928
 22
103.9803232986141
 32
0.0
 13
61.40574915497928
 23
103.9803232986141
 33
0.0
  0
MTEXT
  5
2F9
330
2F3
100
AcDbEntity
  8
0
 62
     3
100
AcDbMText
 10
31.07501039532144
 20
106.4803232986141
 30
0.0
 40
3.0
 41
0.0
 71
     5
 72
     1
  1
\A1;60
1001
ACAD
1000
MTEXTBEGIN
1070
    73
1070
     1
1070
    44
1040
1.0
1070
    74
1070
     0
1000
MTEXTEND
  0
POINT
  5
2FA
330
2F3
100
AcDbEntity
  8
DEFPOINTS
 62
     0
100
AcDbPoint
 10
1.405749154979275
 20
85.32922550430908
 30
0.0
  0
POINT
  5
2FB
330
2F3
100
AcDbEntity
  8
DEFPOINTS
 62
     0
100
AcDbPoint
 10
61.40574915497928
 20
85.32922550430908
 30
0.0
  0
POINT
  5
2FC
330
2F3
100
AcDbEntity
  8
DEFPOINTS
 62
     0
100
AcDbPoint
 10
61.40574915497928
 20
103.9803232986141
 30
0.0
  0
ENDBLK
  5
2FE
330
2F3
100
AcDbEntity
  8
0
100
AcDbBlockEnd
  0
BLOCK
  5
309
330
2FF
100
AcDbEntity
  8
0
100
AcDbBlockBegin
  2
*D22
 70
     1
 10
0.0
 20
0.0
 30
0.0
  3
*D22
  1

  0
LINE
  5
300
330
2FF
100
AcDbEntity
  8
0
 62
   123
100
AcDbLine
 10
131.5559569585329
 20
91.32922550430908
 30
0.0
 11
131.5559569585329
 21
110.5751189964629
 31
0.0
  0
LINE
  5
301
330
2FF
100
AcDbEntity
  8
0
 62
   123
100
AcDbLine
 10
246.5559569585311
 20
90.32922550430908
 30
0.0
 11
246.5559569585311
 21
110.5751189964629
 31
0.0
  0
LINE
  5
302
330
2FF
100
AcDbEntity
  8
0
 62
   123
100
AcDbLine
 10
134.0559569585329
 20
109.9751189964629
 30
0.0
 11
244.0559569585311
 21
109.9751189964629
 31
0.0
  0
SOLID
  5
303
330
2FF
100
AcDbEntity
  8
0
 62
   123
100
AcDbTrace
 10
134.0559569585329
 20
110.3917856631295
 30
0.0
 11
134.0559569585329
 21
109.5584523297962
 31
0.0
 12
131.5559569585329
 22
109.9751189964629
 32
0.0
 13
131.5559569585329
 23
109.9751189964629
 33
0.0
  0
SOLID
  5
304
330
2FF
100
AcDbEntity
  8
0
 62
   123
100
AcDbTrace
 10
244.0559569585311
 20
110.3917856631295
 30
0.0
 11
244.0559569585311
 21
109.5584523297962
 31
0.0
 12
246.5559569585311
 22
109.9751189964629
 32
0.0
 13
246.5559569585311
 23
109.9751189964629
 33
0.0
  0
MTEXT
  5
305
330
2FF
100
AcDbEntity
  8
0
 62
     3
100
AcDbMText
 10
189.0559569585311
 20
112.4751189964629
 30
0.0
 40
3.0
 41
0.0
 71
     5
 72
     1
  1
\A1;115
1001
ACAD
1000
MTEXTBEGIN
1070
    73
1070
     1
1070
    44
1040
1.0
1070
    74
1070
     0
1000
MTEXTEND
  0
POINT
  5
306
330
2FF
100
AcDbEntity
  8
DEFPOINTS
 62
     0
100
AcDbPoint
 10
131.5559569585329
 20
90.32922550430908
 30
0.0
  0
POINT
  5
307
330
2FF
100
AcDbEntity
  8
DEFPOINTS
 62
     0
100
AcDbPoint
 10
246.5559569585311
 20
89.32922550430907
 30
0.0
  0
POINT
  5
308
330
2FF
100
AcDbEntity
  8
DEFPOINTS
 62
     0
100
AcDbPoint
 10
246.5559569585311
 20
109.9751189964629
 30
0.0
  0
ENDBLK
  5
30A
330
2FF
100
AcDbEntity
  8
0
100
AcDbBlockEnd
  0
BLOCK
  5
315
330
30B
100
AcDbEntity
  8
0
100
AcDbBlockBegin
  2
*D23
 70
     1
 10
0.0
 20
0.0
 30
0.0
  3
*D23
  1

  0
LINE
  5
30C
330
30B
100
AcDbEntity
  8
0
 62
   123
100
AcDbLine
 10
131.5559569585329
 20
100.5375588376421
 30
0.0
 11
131.5559569585329
 21
100.1375588376421
 31
0.0
  0
LINE
  5
30D
330
30B
100
AcDbEntity
  8
0
 62
   123
100
AcDbLine
 10
138.5559569585329
 20
89.92796284583709
 30
0.0
 11
138.5559569585329
 21
100.1375588376421
 31
0.0
  0
LINE
  5
30E
330
30B
100
AcDbEntity
  8
0
 62
   123
100
AcDbLine
 10
134.0559569585329
 20
99.53755883764211
 30
0.0
 11
136.0559569585329
 21
99.53755883764211
 31
0.0
  0
SOLID
  5
30F
330
30B
100
AcDbEntity
  8
0
 62
   123
100
AcDbTrace
 10
134.0559569585329
 20
99.95422550430879
 30
0.0
 11
134.0559569585329
 21
99.12089217097545
 31
0.0
 12
131.5559569585329
 22
99.53755883764211
 32
0.0
 13
131.5559569585329
 23
99.53755883764211
 33
0.0
  0
SOLID
  5
310
330
30B
100
AcDbEntity
  8
0
 62
   123
100
AcDbTrace
 10
136.0559569585329
 20
99.95422550430879
 30
0.0
 11
136.0559569585329
 21
99.12089217097545
 31
0.0
 12
138.5559569585329
 22
99.53755883764211
 32
0.0
 13
138.5559569585329
 23
99.53755883764211
 33
0.0
  0
MTEXT
  5
311
330
30B
100
AcDbEntity
  8
0
 62
     3
100
AcDbMText
 10
135.0559569585311
 20
102.0375588376421
 30
0.0
 40
3.0
 41
0.0
 71
     5
 72
     1
  1
\A1;7
1001
ACAD
1000
MTEXTBEGIN
1070
    73
1070
     1
1070
    44
1040
1.0
1070
    74
1070
     0
1000
MTEXTEND
  0
POINT
  5
312
330
30B
100
AcDbEntity
  8
DEFPOINTS
 62
     0
100
AcDbPoint
 10
131.5559569585329
 20
99.53755883764211
 30
0.0
  0
POINT
  5
313
330
30B
100
AcDbEntity
  8
DEFPOINTS
 62
     0
100
AcDbPoint
 10
138.5559569585329
 20
88.9279628458371
 30
0.0
  0
POINT
  5
314
330
30B
100
AcDbEntity
  8
DEFPOINTS
 62
     0
100
AcDbPoint
 10
138.5559569585329
 20
99.53755883764211
 30
0.0
  0
ENDBLK
  5
316
330
30B
100
AcDbEntity
  8
0
100
AcDbBlockEnd
  0
BLOCK
  5
323
330
317
100
AcDbEntity
  8
0
100
AcDbBlockBegin
  2
*D24
 70
     1
 10
0.0
 20
0.0
 30
0.0
  3
*D24
  1

  0
LINE
  5
318
330
317
100
AcDbEntity
  8
0
 62
   123
100
AcDbLine
 10
107.0559569585329
 20
63.32911511885232
 30
0.0
 11
93.00832608596959
 21
63.32911511885232
 31
0.0
  0
LINE
  5
319
330
317
100
AcDbEntity
  8
0
 62
   123
100
AcDbLine
 10
107.0559569585329
 20
57.32933588976493
 30
0.0
 11
93.00832608596959
 21
57.32933588976493
 31
0.0
  0
LINE
  5
31A
330
317
100
AcDbEntity
  8
0
 62
   123
100
AcDbLine
 10
93.60832608596957
 20
65.82911511885233
 30
0.0
 11
93.60832608596957
 21
68.32911511885233
 31
0.0
  0
LINE
  5
31B
330
317
100
AcDbEntity
  8
0
 62
   123
100
AcDbLine
 10
93.60832608596957
 20
54.82933588976493
 30
0.0
 11
93.60832608596957
 21
52.32933588976493
 31
0.0
  0
LINE
  5
31C
330
317
100
AcDbEntity
  8
0
 62
   123
100
AcDbLine
 10
93.60832608596957
 20
63.32911511885232
 30
0.0
 11
93.60832608596957
 21
57.32933588976493
 31
0.0
  0
SOLID
  5
31D
330
317
100
AcDbEntity
  8
0
 62
   123
100
AcDbTrace
 10
93.19165941930291
 20
65.82911511885233
 30
0.0
 11
94.02499275263625
 21
65.82911511885233
 31
0.0
 12
93.60832608596957
 22
63.32911511885232
 32
0.0
 13
93.60832608596957
 23
63.32911511885232
 33
0.0
  0
SOLID
  5
31E
330
317
100
AcDbEntity
  8
0
 62
   123
100
AcDbTrace
 10
93.19165941930291
 20
54.82933588976493
 30
0.0
 11
94.02499275263625
 21
54.82933588976493
 31
0.0
 12
93.60832608596957
 22
57.32933588976493
 32
0.0
 13
93.60832608596957
 23
57.32933588976493
 33
0.0
  0
MTEXT
  5
31F
330
317
100
AcDbEntity
  8
0
 62
     3
100
AcDbMText
 10
89.65817608596957
 20
60.32922550430864
 30
0.0
 40
3.0
 41
0.0
 71
     5
 72
     1
  1
\A1;\A1;%%c6{\H0.7x;\S+0^ -0.012;\f??|b0|i0|c0|p49;\H1.429x;(h7)}  
 11
0.0000000000000001
 21
1.0
 31
0.0
1001
ACAD
1000
MTEXTBEGIN
1070
    73
1070
     1
1070
    44
1040
1.0
1070
    74
1070
     0
1000
MTEXTEND
  0
POINT
  5
320
330
317
100
AcDbEntity
  8
DEFPOINTS
 62
     0
100
AcDbPoint
 10
108.0559569585329
 20
63.32911511885232
 30
0.0
  0
POINT
  5
321
330
317
100
AcDbEntity
  8
DEFPOINTS
 62
     0
100
AcDbPoint
 10
108.0559569585329
 20
57.32933588976493
 30
0.0
  0
POINT
  5
322
330
317
100
AcDbEntity
  8
DEFPOINTS
 62
     0
100
AcDbPoint
 10
93.60832608596957
 20
57.32933588976493
 30
0.0
  0
ENDBLK
  5
324
330
317
100
AcDbEntity
  8
0
100
AcDbBlockEnd
  0
BLOCK
  5
32F
330
325
100
AcDbEntity
  8
0
100
AcDbBlockBegin
  2
*D25
 70
     1
 10
0.0
 20
0.0
 30
0.0
  3
*D25
  1

  0
LINE
  5
326
330
325
100
AcDbEntity
  8
0
 62
   123
100
AcDbLine
 10
128.5559569585311
 20
87.32922550430817
 30
0.0
 11
82.68490081086149
 21
87.32922550430819
 31
0.0
  0
LINE
  5
327
330
325
100
AcDbEntity
  8
0
 62
   123
100
AcDbLine
 10
128.5559569585311
 20
33.32922550430817
 30
0.0
 11
82.68490081086149
 21
33.32922550430817
 31
0.0
  0
LINE
  5
328
330
325
100
AcDbEntity
  8
0
 62
   123
100
AcDbLine
 10
83.28490081086149
 20
84.82922550430819
 30
0.0
 11
83.28490081086149
 21
35.82922550430817
 31
0.0
  0
SOLID
  5
329
330
325
100
AcDbEntity
  8
0
 62
   123
100
AcDbTrace
 10
82.86823414419481
 20
84.82922550430819
 30
0.0
 11
83.70156747752815
 21
84.82922550430819
 31
0.0
 12
83.28490081086149
 22
87.32922550430819
 32
0.0
 13
83.28490081086149
 23
87.32922550430819
 33
0.0
  0
SOLID
  5
32A
330
325
100
AcDbEntity
  8
0
 62
   123
100
AcDbTrace
 10
82.86823414419481
 20
35.82922550430817
 30
0.0
 11
83.70156747752815
 21
35.82922550430817
 31
0.0
 12
83.28490081086149
 22
33.32922550430817
 32
0.0
 13
83.28490081086149
 23
33.32922550430817
 33
0.0
  0
MTEXT
  5
32B
330
325
100
AcDbEntity
  8
0
 62
     3
100
AcDbMText
 10
79.33475081086148
 20
60.32922550430817
 30
0.0
 40
3.0
 41
0.0
 71
     5
 72
     1
  1
\A1;\A1;%%C54{\f??|b0|i0|c0|p49;\H0.7x;\S+0^ -0.03;\H1.429x;(h7)} 
 11
0.0000000000000001
 21
1.0
 31
0.0
1001
ACAD
1000
MTEXTBEGIN
1070
    73
1070
     1
1070
    44
1040
1.0
1070
    74
1070
     0
1000
MTEXTEND
  0
POINT
  5
32C
330
325
100
AcDbEntity
  8
DEFPOINTS
 62
     0
100
AcDbPoint
 10
129.5559569585311
 20
87.32922550430817
 30
0.0
  0
POINT
  5
32D
330
325
100
AcDbEntity
  8
DEFPOINTS
 62
     0
100
AcDbPoint
 10
129.5559569585311
 20
33.32922550430817
 30
0.0
  0
POINT
  5
32E
330
325
100
AcDbEntity
  8
DEFPOINTS
 62
     0
100
AcDbPoint
 10
83.28490081086149
 20
33.32922550430817
 30
0.0
  0
ENDBLK
  5
330
330
325
100
AcDbEntity
  8
0
100
AcDbBlockEnd
  0
BLOCK
  5
33B
330
331
100
AcDbEntity
  8
0
100
AcDbBlockBegin
  2
*D26
 70
     1
 10
0.0
 20
0.0
 30
0.0
  3
*D26
  1

  0
LINE
  5
332
330
331
100
AcDbEntity
  8
0
 62
   123
100
AcDbLine
 10
107.5559569585311
 20
63.32933828947807
 30
0.0
 11
107.5559569585311
 21
110.575118996462
 31
0.0
  0
LINE
  5
333
330
331
100
AcDbEntity
  8
0
 62
   123
100
AcDbLine
 10
131.5559569585329
 20
91.32922550430908
 30
0.0
 11
131.5559569585329
 21
110.575118996462
 31
0.0
  0
LINE
  5
334
330
331
100
AcDbEntity
  8
0
 62
   123
100
AcDbLine
 10
110.0559569585311
 20
109.975118996462
 30
0.0
 11
129.0559569585329
 21
109.975118996462
 31
0.0
  0
SOLID
  5
335
330
331
100
AcDbEntity
  8
0
 62
   123
100
AcDbTrace
 10
110.0559569585311
 20
110.3917856631286
 30
0.0
 11
110.0559569585311
 21
109.5584523297953
 31
0.0
 12
107.5559569585311
 22
109.975118996462
 32
0.0
 13
107.5559569585311
 23
109.975118996462
 33
0.0
  0
SOLID
  5
336
330
331
100
AcDbEntity
  8
0
 62
   123
100
AcDbTrace
 10
129.0559569585329
 20
110.3917856631286
 30
0.0
 11
129.0559569585329
 21
109.5584523297953
 31
0.0
 12
131.5559569585329
 22
109.975118996462
 32
0.0
 13
131.5559569585329
 23
109.975118996462
 33
0.0
  0
MTEXT
  5
337
330
331
100
AcDbEntity
  8
0
 62
     3
100
AcDbMText
 10
119.5559569585329
 20
112.475118996462
 30
0.0
 40
3.0
 41
0.0
 71
     5
 72
     1
  1
\A1;24
1001
ACAD
1000
MTEXTBEGIN
1070
    73
1070
     1
1070
    44
1040
1.0
1070
    74
1070
     0
1000
MTEXTEND
  0
POINT
  5
338
330
331
100
AcDbEntity
  8
DEFPOINTS
 62
     0
100
AcDbPoint
 10
107.5559569585311
 20
62.32933828947807
 30
0.0
  0
POINT
  5
339
330
331
100
AcDbEntity
  8
DEFPOINTS
 62
     0
100
AcDbPoint
 10
131.5559569585329
 20
90.32922550430908
 30
0.0
  0
POINT
  5
33A
330
331
100
AcDbEntity
  8
DEFPOINTS
 62
     0
100
AcDbPoint
 10
131.5559569585329
 20
109.975118996462
 30
0.0
  0
ENDBLK
  5
33C
330
331
100
AcDbEntity
  8
0
100
AcDbBlockEnd
  0
BLOCK
  5
349
330
33D
100
AcDbEntity
  8
0
100
AcDbBlockBegin
  2
*D27
 70
     1
 10
0.0
 20
0.0
 30
0.0
  3
*D27
  1

  0
LINE
  5
33E
330
33D
100
AcDbEntity
  8
0
 62
   123
100
AcDbLine
 10
129.5559569585311
 20
88.32922550430817
 30
0.0
 11
129.5559569585311
 21
100.1375588376421
 31
0.0
  0
LINE
  5
33F
330
33D
100
AcDbEntity
  8
0
 62
   123
100
AcDbLine
 10
131.5559569585329
 20
91.32922550430908
 30
0.0
 11
131.5559569585329
 21
100.1375588376421
 31
0.0
  0
LINE
  5
340
330
33D
100
AcDbEntity
  8
0
 62
   123
100
AcDbLine
 10
134.0559569585329
 20
99.53755883764211
 30
0.0
 11
136.5559569585329
 21
99.53755883764211
 31
0.0
  0
LINE
  5
341
330
33D
100
AcDbEntity
  8
0
 62
   123
100
AcDbLine
 10
127.0559569585311
 20
99.53755883764211
 30
0.0
 11
120.5559569585311
 21
99.53755883764211
 31
0.0
  0
LINE
  5
342
330
33D
100
AcDbEntity
  8
0
 62
   123
100
AcDbLine
 10
131.5559569585329
 20
99.53755883764211
 30
0.0
 11
129.5559569585311
 21
99.53755883764211
 31
0.0
  0
SOLID
  5
343
330
33D
100
AcDbEntity
  8
0
 62
   123
100
AcDbTrace
 10
134.0559569585329
 20
99.95422550430879
 30
0.0
 11
134.0559569585329
 21
99.12089217097545
 31
0.0
 12
131.5559569585329
 22
99.53755883764211
 32
0.0
 13
131.5559569585329
 23
99.53755883764211
 33
0.0
  0
SOLID
  5
344
330
33D
100
AcDbEntity
  8
0
 62
   123
100
AcDbTrace
 10
127.0559569585311
 20
99.95422550430879
 30
0.0
 11
127.0559569585311
 21
99.12089217097545
 31
0.0
 12
129.5559569585311
 22
99.53755883764211
 32
0.0
 13
129.5559569585311
 23
99.53755883764211
 33
0.0
  0
MTEXT
  5
345
330
33D
100
AcDbEntity
  8
0
 62
     3
100
AcDbMText
 10
122.5559569585311
 20
102.0375588376421
 30
0.0
 40
3.0
 41
0.0
 71
     5
 72
     1
  1
\A1;2
1001
ACAD
1000
MTEXTBEGIN
1070
    73
1070
     1
1070
    44
1040
1.0
1070
    74
1070
     0
1000
MTEXTEND
  0
POINT
  5
346
330
33D
100
AcDbEntity
  8
DEFPOINTS
 62
     0
100
AcDbPoint
 10
129.5559569585311
 20
87.32922550430817
 30
0.0
  0
POINT
  5
347
330
33D
100
AcDbEntity
  8
DEFPOINTS
 62
     0
100
AcDbPoint
 10
131.5559569585329
 20
90.32922550430908
 30
0.0
  0
POINT
  5
348
330
33D
100
AcDbEntity
  8
DEFPOINTS
 62
     0
100
AcDbPoint
 10
131.5559569585329
 20
99.53755883764211
 30
0.0
  0
ENDBLK
  5
34A
330
33D
100
AcDbEntity
  8
0
100
AcDbBlockEnd
  0
BLOCK
  5
355
330
34B
100
AcDbEntity
  8
0
100
AcDbBlockBegin
  2
*D28
 70
     1
 10
0.0
 20
0.0
 30
0.0
  3
*D28
  1

  0
LINE
  5
34C
330
34B
100
AcDbEntity
  8
0
 62
   123
100
AcDbLine
 10
246.5559569585311
 20
90.32922550430908
 30
0.0
 11
262.781518934698
 21
90.32922550430908
 31
0.0
  0
LINE
  5
34D
330
34B
100
AcDbEntity
  8
0
 62
   123
100
AcDbLine
 10
246.5559569585311
 20
30.32922550430817
 30
0.0
 11
262.781518934698
 21
30.32922550430816
 31
0.0
  0
LINE
  5
34E
330
34B
100
AcDbEntity
  8
0
 62
   123
100
AcDbLine
 10
262.181518934698
 20
87.82922550430908
 30
0.0
 11
262.181518934698
 21
32.82922550430817
 31
0.0
  0
SOLID
  5
34F
330
34B
100
AcDbEntity
  8
0
 62
   123
100
AcDbTrace
 10
261.7648522680313
 20
87.82922550430908
 30
0.0
 11
262.5981856013647
 21
87.82922550430908
 31
0.0
 12
262.181518934698
 22
90.32922550430908
 32
0.0
 13
262.181518934698
 23
90.32922550430908
 33
0.0
  0
SOLID
  5
350
330
34B
100
AcDbEntity
  8
0
 62
   123
100
AcDbTrace
 10
261.7648522680313
 20
32.82922550430817
 30
0.0
 11
262.5981856013647
 21
32.82922550430817
 31
0.0
 12
262.181518934698
 22
30.32922550430816
 32
0.0
 13
262.181518934698
 23
30.32922550430816
 33
0.0
  0
MTEXT
  5
351
330
34B
100
AcDbEntity
  8
0
 62
     3
100
AcDbMText
 10
259.681518934698
 20
60.32922550430817
 30
0.0
 40
3.0
 41
0.0
 71
     5
 72
     1
  1
\A1;%%C60
 11
0.0000000000000001
 21
1.0
 31
0.0
1001
ACAD
1000
MTEXTBEGIN
1070
    73
1070
     1
1070
    44
1040
1.0
1070
    74
1070
     0
1000
MTEXTEND
  0
POINT
  5
352
330
34B
100
AcDbEntity
  8
DEFPOINTS
 62
     0
100
AcDbPoint
 10
245.5559569585311
 20
90.32922550430908
 30
0.0
  0
POINT
  5
353
330
34B
100
AcDbEntity
  8
DEFPOINTS
 62
     0
100
AcDbPoint
 10
245.5559569585311
 20
30.32922550430817
 30
0.0
  0
POINT
  5
354
330
34B
100
AcDbEntity
  8
DEFPOINTS
 62
     0
100
AcDbPoint
 10
262.181518934698
 20
30.32922550430816
 30
0.0
  0
ENDBLK
  5
356
330
34B
100
AcDbEntity
  8
0
100
AcDbBlockEnd
  0
BLOCK
  5
360
330
357
100
AcDbEntity
  8
0
100
AcDbBlockBegin
  2
*D29
 70
     1
 10
0.0
 20
0.0
 30
0.0
  3
*D29
  1

  0
LINE
  5
3C6
330
357
100
AcDbEntity
  8
0
 62
   123
100
AcDbLine
 10
-2.562985941436522
 20
214.9065838059557
 30
0.0
 11
-4.661267355705902
 21
213.5474608878458
 31
0.0
  0
LINE
  5
3C7
330
357
100
AcDbEntity
  8
0
 62
   123
100
AcDbLine
 10
60.38545648663774
 20
255.6802713492491
 30
0.0
 11
81.75714947505198
 21
269.52338959918
 31
0.0
  0
LINE
  5
3C8
330
357
100
AcDbEntity
  8
0
 62
   123
100
AcDbLine
 10
-0.4647045271671289
 20
216.2657067240657
 30
0.0
 11
58.28717507236835
 21
254.3211484311392
 31
0.0
  0
SOLID
  5
3C9
330
357
100
AcDbEntity
  8
0
 62
   123
100
AcDbTrace
 10
-2.789506427788168
 20
215.2562973750006
 30
0.0
 11
-2.336465455084876
 21
214.5568702369109
 31
0.0
 12
-0.4647045271671289
 22
216.2657067240657
 32
0.0
 13
-0.4647045271671289
 23
216.2657067240657
 33
0.0
  0
SOLID
  5
3CA
330
357
100
AcDbEntity
  8
0
 62
   123
100
AcDbTrace
 10
60.1589360002861
 20
256.029984918294
 30
0.0
 11
60.61197697298941
 21
255.3305577802042
 31
0.0
 12
58.28717507236835
 22
254.3211484311392
 32
0.0
 13
58.28717507236835
 23
254.3211484311392
 33
0.0
  0
MTEXT
  5
3CB
330
357
100
AcDbEntity
  8
0
 62
     3
100
AcDbMText
 10
71.8250482072129
 20
266.068683090886
 30
0.0
 40
3.0
 41
0.0
 71
     5
 72
     1
  1
\A1;\U+220570%%p0.5
 11
0.8393125657077538
 21
0.5436491672439747
 31
0.0
1001
ACAD
1000
MTEXTBEGIN
1070
    73
1070
     1
1070
    44
1040
1.0
1070
    74
1070
     0
1000
MTEXTEND
  0
POINT
  5
3CC
330
357
100
AcDbEntity
  8
DEFPOINTS
 62
     0
100
AcDbPoint
 10
58.28717507236835
 20
254.3211484311392
 30
0.0
  0
POINT
  5
3CD
330
357
100
AcDbEntity
  8
DEFPOINTS
 62
     0
100
AcDbPoint
 10
-0.4647045271671289
 20
216.2657067240657
 30
0.0
  0
ENDBLK
  5
361
330
357
100
AcDbEntity
  8
0
100
AcDbBlockEnd
  0
BLOCK
  5
36E
330
362
100
AcDbEntity
  8
0
100
AcDbBlockBegin
  2
*D30
 70
     1
 10
0.0
 20
0.0
 30
0.0
  3
*D30
  1

  0
LINE
  5
405
330
362
100
AcDbEntity
  8
0
 62
   123
100
AcDbLine
 10
28.91123527259698
 20
199.2934275775992
 30
0.0
 11
28.91123527259696
 21
182.7745687372574
 31
0.0
  0
LINE
  5
406
330
362
100
AcDbEntity
  8
0
 62
   123
100
AcDbLine
 10
42.58732732312418
 20
202.2764206689588
 30
0.0
 11
49.00933243751799
 21
186.7723288241578
 31
0.0
  0
ARC
  5
407
330
362
100
AcDbEntity
  8
0
 62
   123
100
AcDbCircle
 10
28.91123527259698
 20
235.2934275776088
 30
0.0
 40
51.91885884035144
100
AcDbArc
 50
272.7591764118519
 51
289.7408235881453
  0
SOLID
  5
408
330
362
100
AcDbEntity
  8
0
 62
   123
100
AcDbTrace
 10
31.4205422776868
 20
183.0182129244548
 30
0.0
 11
31.4004789194017
 21
183.8513046997706
 31
0.0
 12
28.91123527259697
 22
183.3745687372574
 32
0.0
 13
28.91123527259697
 23
183.3745687372574
 33
0.0
  0
SOLID
  5
409
330
362
100
AcDbEntity
  8
0
 62
   123
100
AcDbTrace
 10
46.29752216691588
 20
186.8145108390904
 30
0.0
 11
46.59779646089576
 21
186.0371564843594
 31
0.0
 12
48.77972237809896
 22
187.3266565436646
 32
0.0
 13
48.77972237809896
 23
187.3266565436646
 33
0.0
  0
MTEXT
  5
40A
330
362
100
AcDbEntity
  8
0
 62
     3
100
AcDbMText
 10
38.49663626542497
 20
187.1043626184963
 30
0.0
 40
3.0
 41
0.0
 71
     5
 72
     1
  1
\A1;22°30'
 11
0.980785280403235
 21
0.195090322016105
 31
0.0
  0
POINT
  5
40B
330
362
100
AcDbEntity
  8
DEFPOINTS
 62
     0
100
AcDbPoint
 10
35.68800622143759
 20
183.8187417719501
 30
0.0
  0
POINT
  5
40C
330
362
100
AcDbEntity
  8
DEFPOINTS
 62
     0
100
AcDbPoint
 10
28.91123527259697
 20
200.2934275775992
 30
0.0
  0
POINT
  5
40D
330
362
100
AcDbEntity
  8
DEFPOINTS
 62
     0
100
AcDbPoint
 10
28.9112352726006
 20
235.2934275776001
 30
0.0
  0
POINT
  5
40E
330
362
100
AcDbEntity
  8
DEFPOINTS
 62
     0
100
AcDbPoint
 10
42.20464389075913
 20
203.20030020147
 30
0.0
  0
POINT
  5
40F
330
362
100
AcDbEntity
  8
DEFPOINTS
 62
     0
100
AcDbPoint
 10
28.91123527259697
 20
270.2934275775992
 30
0.0
  0
ENDBLK
  5
36F
330
362
100
AcDbEntity
  8
0
100
AcDbBlockEnd
  0
BLOCK
  5
37A
330
370
100
AcDbEntity
  8
0
100
AcDbBlockBegin
  2
*D31
 70
     1
 10
0.0
 20
0.0
 30
0.0
  3
*D31
  1

  0
LINE
  5
371
330
370
100
AcDbEntity
  8
0
 62
   123
100
AcDbLine
 10
-1.08876472740485
 20
261.2934275776001
 30
0.0
 11
-1.088764727404849
 21
279.5445253719052
 31
0.0
  0
LINE
  5
372
330
370
100
AcDbEntity
  8
0
 62
   123
100
AcDbLine
 10
58.91123527259697
 20
261.2934275776001
 30
0.0
 11
58.91123527259697
 21
279.5445253719052
 31
0.0
  0
LINE
  5
373
330
370
100
AcDbEntity
  8
0
 62
   123
100
AcDbLine
 10
1.41123527259515
 20
278.9445253719052
 30
0.0
 11
56.41123527259697
 21
278.9445253719052
 31
0.0
  0
SOLID
  5
374
330
370
100
AcDbEntity
  8
0
 62
   123
100
AcDbTrace
 10
1.41123527259515
 20
279.3611920385719
 30
0.0
 11
1.41123527259515
 21
278.5278587052385
 31
0.0
 12
-1.088764727404849
 22
278.9445253719052
 32
0.0
 13
-1.088764727404849
 23
278.9445253719052
 33
0.0
  0
SOLID
  5
375
330
370
100
AcDbEntity
  8
0
 62
   123
100
AcDbTrace
 10
56.41123527259697
 20
279.3611920385719
 30
0.0
 11
56.41123527259697
 21
278.5278587052385
 31
0.0
 12
58.91123527259697
 22
278.9445253719052
 32
0.0
 13
58.91123527259697
 23
278.9445253719052
 33
0.0
  0
MTEXT
  5
376
330
370
100
AcDbEntity
  8
0
 62
     3
100
AcDbMText
 10
28.58049651293731
 20
281.4445253719052
 30
0.0
 40
3.0
 41
0.0
 71
     5
 72
     1
  1
\A1;60
1001
ACAD
1000
MTEXTBEGIN
1070
    73
1070
     1
1070
    44
1040
1.0
1070
    74
1070
     0
1000
MTEXTEND
  0
POINT
  5
377
330
370
100
AcDbEntity
  8
DEFPOINTS
 62
     0
100
AcDbPoint
 10
-1.08876472740485
 20
260.2934275776001
 30
0.0
  0
POINT
  5
378
330
370
100
AcDbEntity
  8
DEFPOINTS
 62
     0
100
AcDbPoint
 10
58.91123527259697
 20
260.2934275776001
 30
0.0
  0
POINT
  5
379
330
370
100
AcDbEntity
  8
DEFPOINTS
 62
     0
100
AcDbPoint
 10
58.91123527259697
 20
278.9445253719052
 30
0.0
  0
ENDBLK
  5
37B
330
370
100
AcDbEntity
  8
0
100
AcDbBlockEnd
  0
BLOCK
  5
386
330
37C
100
AcDbEntity
  8
0
100
AcDbBlockBegin
  2
*D32
 70
     1
 10
0.0
 20
0.0
 30
0.0
  3
*D32
  1

  0
LINE
  5
37D
330
37C
100
AcDbEntity
  8
0
 62
   123
100
AcDbLine
 10
244.2283490941608
 20
265.2934275776001
 30
0.0
 11
260.4539110703278
 21
265.2934275776001
 31
0.0
  0
LINE
  5
37E
330
37C
100
AcDbEntity
  8
0
 62
   123
100
AcDbLine
 10
244.2283490941608
 20
205.2934275775992
 30
0.0
 11
260.4539110703278
 21
205.2934275775992
 31
0.0
  0
LINE
  5
37F
330
37C
100
AcDbEntity
  8
0
 62
   123
100
AcDbLine
 10
259.8539110703277
 20
262.7934275776001
 30
0.0
 11
259.8539110703277
 21
207.7934275775992
 31
0.0
  0
SOLID
  5
380
330
37C
100
AcDbEntity
  8
0
 62
   123
100
AcDbTrace
 10
259.4372444036611
 20
262.7934275776001
 30
0.0
 11
260.2705777369944
 21
262.7934275776001
 31
0.0
 12
259.8539110703277
 22
265.2934275776001
 32
0.0
 13
259.8539110703277
 23
265.2934275776001
 33
0.0
  0
SOLID
  5
381
330
37C
100
AcDbEntity
  8
0
 62
   123
100
AcDbTrace
 10
259.4372444036611
 20
207.7934275775992
 30
0.0
 11
260.2705777369944
 21
207.7934275775992
 31
0.0
 12
259.8539110703277
 22
205.2934275775992
 32
0.0
 13
259.8539110703277
 23
205.2934275775992
 33
0.0
  0
MTEXT
  5
382
330
37C
100
AcDbEntity
  8
0
 62
     3
100
AcDbMText
 10
257.3539110703277
 20
235.2934275775992
 30
0.0
 40
3.0
 41
0.0
 71
     5
 72
     1
  1
\A1;%%C60
 11
0.0000000000000001
 21
1.0
 31
0.0
1001
ACAD
1000
MTEXTBEGIN
1070
    73
1070
     1
1070
    44
1040
1.0
1070
    74
1070
     0
1000
MTEXTEND
  0
POINT
  5
383
330
37C
100
AcDbEntity
  8
DEFPOINTS
 62
     0
100
AcDbPoint
 10
243.2283490941608
 20
265.2934275776001
 30
0.0
  0
POINT
  5
384
330
37C
100
AcDbEntity
  8
DEFPOINTS
 62
     0
100
AcDbPoint
 10
243.2283490941608
 20
205.2934275775992
 30
0.0
  0
POINT
  5
385
330
37C
100
AcDbEntity
  8
DEFPOINTS
 62
     0
100
AcDbPoint
 10
259.8539110703277
 20
205.2934275775992
 30
0.0
  0
ENDBLK
  5
387
330
37C
100
AcDbEntity
  8
0
100
AcDbBlockEnd
  0
BLOCK
  5
392
330
388
100
AcDbEntity
  8
0
100
AcDbBlockBegin
  2
*D33
 70
     1
 10
0.0
 20
0.0
 30
0.0
  3
*D33
  1

  0
LINE
  5
389
330
388
100
AcDbEntity
  8
0
 62
   123
100
AcDbLine
 10
116.7276396570641
 20
238.602927577599
 30
0.0
 11
116.7276396570641
 21
291.1111557468192
 31
0.0
  0
LINE
  5
38A
330
388
100
AcDbEntity
  8
0
 62
   123
100
AcDbLine
 10
129.2283490941626
 20
266.2934275776001
 30
0.0
 11
129.2283490941626
 21
291.1111557468192
 31
0.0
  0
LINE
  5
38B
330
388
100
AcDbEntity
  8
0
 62
   123
100
AcDbLine
 10
119.2276396570641
 20
290.5111557468192
 30
0.0
 11
126.7283490941627
 21
290.5111557468192
 31
0.0
  0
SOLID
  5
38C
330
388
100
AcDbEntity
  8
0
 62
   123
100
AcDbTrace
 10
119.2276396570641
 20
290.9278224134859
 30
0.0
 11
119.2276396570641
 21
290.0944890801525
 31
0.0
 12
116.7276396570641
 22
290.5111557468192
 32
0.0
 13
116.7276396570641
 23
290.5111557468192
 33
0.0
  0
SOLID
  5
38D
330
388
100
AcDbEntity
  8
0
 62
   123
100
AcDbTrace
 10
126.7283490941627
 20
290.9278224134859
 30
0.0
 11
126.7283490941627
 21
290.0944890801525
 31
0.0
 12
129.2283490941626
 22
290.5111557468192
 32
0.0
 13
129.2283490941626
 23
290.5111557468192
 33
0.0
  0
MTEXT
  5
38E
330
388
100
AcDbEntity
  8
0
 62
     3
100
AcDbMText
 10
122.977994375612
 20
293.0111557468192
 30
0.0
 40
3.0
 41
0.0
 71
     5
 72
     1
  1
\A1;12.5
1001
ACAD
1000
MTEXTBEGIN
1070
    73
1070
     1
1070
    44
1040
1.0
1070
    74
1070
     0
1000
MTEXTEND
  0
POINT
  5
38F
330
388
100
AcDbEntity
  8
DEFPOINTS
 62
     0
100
AcDbPoint
 10
116.7276396570641
 20
237.602927577599
 30
0.0
  0
POINT
  5
390
330
388
100
AcDbEntity
  8
DEFPOINTS
 62
     0
100
AcDbPoint
 10
129.2283490941626
 20
265.2934275776001
 30
0.0
  0
POINT
  5
391
330
388
100
AcDbEntity
  8
DEFPOINTS
 62
     0
100
AcDbPoint
 10
129.2283490941626
 20
290.5111557468192
 30
0.0
  0
ENDBLK
  5
393
330
388
100
AcDbEntity
  8
0
100
AcDbBlockEnd
  0
BLOCK
  5
3A0
330
394
100
AcDbEntity
  8
0
100
AcDbBlockBegin
  2
*D34
 70
     1
 10
0.0
 20
0.0
 30
0.0
  3
*D34
  1

  0
LINE
  5
395
330
394
100
AcDbEntity
  8
0
 62
   123
100
AcDbLine
 10
127.2283490941626
 20
263.2934275775992
 30
0.0
 11
127.2283490941626
 21
278.2572727204993
 31
0.0
  0
LINE
  5
396
330
394
100
AcDbEntity
  8
0
 62
   123
100
AcDbLine
 10
129.2283490941626
 20
266.2934275776001
 30
0.0
 11
129.2283490941626
 21
278.2572727204993
 31
0.0
  0
LINE
  5
397
330
394
100
AcDbEntity
  8
0
 62
   123
100
AcDbLine
 10
131.7283490941626
 20
277.6572727204993
 30
0.0
 11
134.2283490941627
 21
277.6572727204993
 31
0.0
  0
LINE
  5
398
330
394
100
AcDbEntity
  8
0
 62
   123
100
AcDbLine
 10
124.7283490941627
 20
277.6572727204993
 30
0.0
 11
118.2283490941626
 21
277.6572727204993
 31
0.0
  0
LINE
  5
399
330
394
100
AcDbEntity
  8
0
 62
   123
100
AcDbLine
 10
129.2283490941626
 20
277.6572727204993
 30
0.0
 11
127.2283490941626
 21
277.6572727204993
 31
0.0
  0
SOLID
  5
39A
330
394
100
AcDbEntity
  8
0
 62
   123
100
AcDbTrace
 10
131.7283490941626
 20
278.073939387166
 30
0.0
 11
131.7283490941626
 21
277.2406060538326
 31
0.0
 12
129.2283490941626
 22
277.6572727204993
 32
0.0
 13
129.2283490941626
 23
277.6572727204993
 33
0.0
  0
SOLID
  5
39B
330
394
100
AcDbEntity
  8
0
 62
   123
100
AcDbTrace
 10
124.7283490941627
 20
278.073939387166
 30
0.0
 11
124.7283490941627
 21
277.2406060538326
 31
0.0
 12
127.2283490941626
 22
277.6572727204993
 32
0.0
 13
127.2283490941626
 23
277.6572727204993
 33
0.0
  0
MTEXT
  5
39C
330
394
100
AcDbEntity
  8
0
 62
     3
100
AcDbMText
 10
120.2283490941626
 20
280.1572727204993
 30
0.0
 40
3.0
 41
0.0
 71
     5
 72
     1
  1
\A1;2
1001
ACAD
1000
MTEXTBEGIN
1070
    73
1070
     1
1070
    44
1040
1.0
1070
    74
1070
     0
1000
MTEXTEND
  0
POINT
  5
39D
330
394
100
AcDbEntity
  8
DEFPOINTS
 62
     0
100
AcDbPoint
 10
127.2283490941626
 20
262.2934275775992
 30
0.0
  0
POINT
  5
39E
330
394
100
AcDbEntity
  8
DEFPOINTS
 62
     0
100
AcDbPoint
 10
129.2283490941626
 20
265.2934275776001
 30
0.0
  0
POINT
  5
39F
330
394
100
AcDbEntity
  8
DEFPOINTS
 62
     0
100
AcDbPoint
 10
129.2283490941626
 20
277.6572727204993
 30
0.0
  0
ENDBLK
  5
3A1
330
394
100
AcDbEntity
  8
0
100
AcDbBlockEnd
  0
BLOCK
  5
3AC
330
3A2
100
AcDbEntity
  8
0
100
AcDbBlockBegin
  2
*D35
 70
     1
 10
0.0
 20
0.0
 30
0.0
  3
*D35
  1

  0
LINE
  5
3A3
330
3A2
100
AcDbEntity
  8
0
 62
   123
100
AcDbLine
 10
126.2283490941626
 20
262.2934275775992
 30
0.0
 11
106.4596704950294
 21
262.2934275775992
 31
0.0
  0
LINE
  5
3A4
330
3A2
100
AcDbEntity
  8
0
 62
   123
100
AcDbLine
 10
126.2283490941626
 20
208.2934275775992
 30
0.0
 11
106.4596704950294
 21
208.2934275775992
 31
0.0
  0
LINE
  5
3A5
330
3A2
100
AcDbEntity
  8
0
 62
   123
100
AcDbLine
 10
107.0596704950294
 20
259.7934275775992
 30
0.0
 11
107.0596704950294
 21
210.7934275775992
 31
0.0
  0
SOLID
  5
3A6
330
3A2
100
AcDbEntity
  8
0
 62
   123
100
AcDbTrace
 10
106.6430038283628
 20
259.7934275775992
 30
0.0
 11
107.4763371616961
 21
259.7934275775992
 31
0.0
 12
107.0596704950294
 22
262.2934275775992
 32
0.0
 13
107.0596704950294
 23
262.2934275775992
 33
0.0
  0
SOLID
  5
3A7
330
3A2
100
AcDbEntity
  8
0
 62
   123
100
AcDbTrace
 10
106.6430038283627
 20
210.7934275775992
 30
0.0
 11
107.4763371616961
 21
210.7934275775992
 31
0.0
 12
107.0596704950294
 22
208.2934275775992
 32
0.0
 13
107.0596704950294
 23
208.2934275775992
 33
0.0
  0
MTEXT
  5
3A8
330
3A2
100
AcDbEntity
  8
0
 62
     3
100
AcDbMText
 10
103.1095204950294
 20
235.2934275775992
 30
0.0
 40
3.0
 41
0.0
 71
     5
 72
     1
  1
\A1;\A1;%%C54{\f??|b0|i0|c0|p49;\H0.7x;\S+0^ -0.03;\H1.429x;(h7)} 
 11
0.0000000000000001
 21
1.0
 31
0.0
1001
ACAD
1000
MTEXTBEGIN
1070
    73
1070
     1
1070
    44
1040
1.0
1070
    74
1070
     0
1000
MTEXTEND
  0
POINT
  5
3A9
330
3A2
100
AcDbEntity
  8
DEFPOINTS
 62
     0
100
AcDbPoint
 10
127.2283490941626
 20
262.2934275775992
 30
0.0
  0
POINT
  5
3AA
330
3A2
100
AcDbEntity
  8
DEFPOINTS
 62
     0
100
AcDbPoint
 10
127.2283490941626
 20
208.2934275775992
 30
0.0
  0
POINT
  5
3AB
330
3A2
100
AcDbEntity
  8
DEFPOINTS
 62
     0
100
AcDbPoint
 10
107.0596704950294
 20
208.2934275775992
 30
0.0
  0
ENDBLK
  5
3AD
330
3A2
100
AcDbEntity
  8
0
100
AcDbBlockEnd
  0
BLOCK
  5
3B8
330
3AE
100
AcDbEntity
  8
0
100
AcDbBlockBegin
  2
*D36
 70
     1
 10
0.0
 20
0.0
 30
0.0
  3
*D36
  1

  0
LINE
  5
3AF
330
3AE
100
AcDbEntity
  8
0
 62
   123
100
AcDbLine
 10
129.2283490941626
 20
276.7252483523102
 30
0.0
 11
129.2283490941626
 21
278.2572727204993
 31
0.0
  0
LINE
  5
3B0
330
3AE
100
AcDbEntity
  8
0
 62
   123
100
AcDbLine
 10
136.2283490941627
 20
264.8921649191281
 30
0.0
 11
136.2283490941627
 21
278.2572727204993
 31
0.0
  0
LINE
  5
3B1
330
3AE
100
AcDbEntity
  8
0
 62
   123
100
AcDbLine
 10
131.7283490941626
 20
277.6572727204993
 30
0.0
 11
133.7283490941626
 21
277.6572727204993
 31
0.0
  0
SOLID
  5
3B2
330
3AE
100
AcDbEntity
  8
0
 62
   123
100
AcDbTrace
 10
131.7283490941626
 20
278.073939387166
 30
0.0
 11
131.7283490941626
 21
277.2406060538326
 31
0.0
 12
129.2283490941626
 22
277.6572727204993
 32
0.0
 13
129.2283490941626
 23
277.6572727204993
 33
0.0
  0
SOLID
  5
3B3
330
3AE
100
AcDbEntity
  8
0
 62
   123
100
AcDbTrace
 10
133.7283490941626
 20
278.073939387166
 30
0.0
 11
133.7283490941626
 21
277.2406060538326
 31
0.0
 12
136.2283490941627
 22
277.6572727204993
 32
0.0
 13
136.2283490941627
 23
277.6572727204993
 33
0.0
  0
MTEXT
  5
3B4
330
3AE
100
AcDbEntity
  8
0
 62
     3
100
AcDbMText
 10
132.7283490941636
 20
280.1572727204993
 30
0.0
 40
3.0
 41
0.0
 71
     5
 72
     1
  1
\A1;7
1001
ACAD
1000
MTEXTBEGIN
1070
    73
1070
     1
1070
    44
1040
1.0
1070
    74
1070
     0
1000
MTEXTEND
  0
POINT
  5
3B5
330
3AE
100
AcDbEntity
  8
DEFPOINTS
 62
     0
100
AcDbPoint
 10
129.2283490941626
 20
275.7252483523102
 30
0.0
  0
POINT
  5
3B6
330
3AE
100
AcDbEntity
  8
DEFPOINTS
 62
     0
100
AcDbPoint
 10
136.2283490941627
 20
263.8921649191281
 30
0.0
  0
POINT
  5
3B7
330
3AE
100
AcDbEntity
  8
DEFPOINTS
 62
     0
100
AcDbPoint
 10
136.2283490941627
 20
277.6572727204993
 30
0.0
  0
ENDBLK
  5
3B9
330
3AE
100
AcDbEntity
  8
0
100
AcDbBlockEnd
  0
BLOCK
  5
3C4
330
3BA
100
AcDbEntity
  8
0
100
AcDbBlockBegin
  2
*D37
 70
     1
 10
0.0
 20
0.0
 30
0.0
  3
*D37
  1

  0
LINE
  5
3BB
330
3BA
100
AcDbEntity
  8
0
 62
   123
100
AcDbLine
 10
129.2283490941626
 20
266.2934275776001
 30
0.0
 11
129.2283490941626
 21
291.1111557468201
 31
0.0
  0
LINE
  5
3BC
330
3BA
100
AcDbEntity
  8
0
 62
   123
100
AcDbLine
 10
244.2283490941645
 20
265.2934275776001
 30
0.0
 11
244.2283490941645
 21
291.1111557468201
 31
0.0
  0
LINE
  5
3BD
330
3BA
100
AcDbEntity
  8
0
 62
   123
100
AcDbLine
 10
131.7283490941626
 20
290.5111557468201
 30
0.0
 11
241.7283490941645
 21
290.5111557468201
 31
0.0
  0
SOLID
  5
3BE
330
3BA
100
AcDbEntity
  8
0
 62
   123
100
AcDbTrace
 10
131.7283490941626
 20
290.9278224134867
 30
0.0
 11
131.7283490941626
 21
290.0944890801534
 31
0.0
 12
129.2283490941626
 22
290.5111557468201
 32
0.0
 13
129.2283490941626
 23
290.5111557468201
 33
0.0
  0
SOLID
  5
3BF
330
3BA
100
AcDbEntity
  8
0
 62
   123
100
AcDbTrace
 10
241.7283490941645
 20
290.9278224134867
 30
0.0
 11
241.7283490941645
 21
290.0944890801534
 31
0.0
 12
244.2283490941645
 22
290.5111557468201
 32
0.0
 13
244.2283490941645
 23
290.5111557468201
 33
0.0
  0
MTEXT
  5
3C0
330
3BA
100
AcDbEntity
  8
0
 62
     3
100
AcDbMText
 10
186.7283490941627
 20
293.0111557468201
 30
0.0
 40
3.0
 41
0.0
 71
     5
 72
     1
  1
\A1;115
1001
ACAD
1000
MTEXTBEGIN
1070
    73
1070
     1
1070
    44
1040
1.0
1070
    74
1070
     0
1000
MTEXTEND
  0
POINT
  5
3C1
330
3BA
100
AcDbEntity
  8
DEFPOINTS
 62
     0
100
AcDbPoint
 10
129.2283490941626
 20
265.2934275776001
 30
0.0
  0
POINT
  5
3C2
330
3BA
100
AcDbEntity
  8
DEFPOINTS
 62
     0
100
AcDbPoint
 10
244.2283490941645
 20
264.2934275776001
 30
0.0
  0
POINT
  5
3C3
330
3BA
100
AcDbEntity
  8
DEFPOINTS
 62
     0
100
AcDbPoint
 10
244.2283490941645
 20
290.5111557468201
 30
0.0
  0
ENDBLK
  5
3C5
330
3BA
100
AcDbEntity
  8
0
100
AcDbBlockEnd
  0
ENDSEC
  0
SECTION
  2
ENTITIES
  0
MTEXT
  5
9D
330
2
100
AcDbEntity
  8
DIM
100
AcDbMText
 10
236.0407261889558
 20
-21.40402204200768
 30
0.0
 40
3.5
 41
0.0
 71
     5
 72
     1
  1
UL Style 3266 , AWG22
1001
ACAD
1000
MTEXTBEGIN
1070
    73
1070
     1
1070
    44
1040
1.0
1070
    74
1070
     0
1000
MTEXTEND
  0
LEADER
  5
9F
330
2
100
AcDbEntity
  8
0
 48
0.6
100
AcDbLeader
  3
STANDARD
 76
     2
 10
145.9320885501192
 20
12.96863686261099
 30
0.0
 10
122.2766606230079
 20
-34.63513013234592
 30
0.0
1001
ACAD
1000
DSTYLE
1002
{
1070
     5
1000

1070
    77
1070
     1
1070
   147
1040
1.0
1070
   342
1005
0
1002
}
  0
MTEXT
  5
A1
330
2
100
AcDbEntity
  8
DIM
100
AcDbMText
 10
158.5748881017116
 20
-38.56601290764411
 30
0.0
 40
3.5
 41
0.0
 71
     5
 72
     1
  1
UL Style 3266 , AWG20
1001
ACAD
1000
MTEXTBEGIN
1070
    73
1070
     1
1070
    44
1040
1.0
1070
    74
1070
     0
1000
MTEXTEND
  0
MTEXT
  5
A2
330
2
100
AcDbEntity
  8
DIM
100
AcDbMText
 10
163.1073514916579
 20
-31.26014699985375
 30
0.0
 40
3.5
 41
0.0
 71
     5
 72
     1
  1
MOTOR LEAD WIRE 300mm
1001
ACAD
1000
MTEXTBEGIN
1070
    73
1070
     1
1070
    44
1040
1.0
1070
    74
1070
     0
1000
MTEXTEND
  0
LINE
  5
A3
330
2
100
AcDbEntity
  8
0
 62
   123
 48
0.6
100
AcDbLine
 10
122.2766606230079
 20
-34.63513013234592
 30
0.0
 11
201.1417184679867
 21
-34.63513013234592
 31
0.0
  0
LEADER
  5
A4
330
2
100
AcDbEntity
  8
0
 48
0.6
100
AcDbLeader
  3
STANDARD
 76
     2
 10
143.2601042707492
 20
188.0165878219681
 30
0.0
 10
119.6046763436397
 20
140.412820827011
 30
0.0
1001
ACAD
1000
DSTYLE
1002
{
1070
     5
1000

1070
    77
1070
     1
1070
   147
1040
1.0
1070
   342
1005
0
1002
}
  0
MTEXT
  5
A5
330
2
100
AcDbEntity
  8
DIM
100
AcDbMText
 10
233.3687419095858
 20
153.6439289173492
 30
0.0
 40
3.5
 41
0.0
 71
     5
 72
     1
  1
UL Style 3266 , AWG22
1001
ACAD
1000
MTEXTBEGIN
1070
    73
1070
     1
1070
    44
1040
1.0
1070
    74
1070
     0
1000
MTEXTEND
  0
DIMENSION
  5
A6
102
{ACAD_XDICTIONARY
360
A7
102
}
102
{ACAD_REACTORS
330
A8
102
}
330
2
100
AcDbEntity
  8
0
 48
0.6
100
AcDbDimension
  2
*D19
 10
2.029809355213963
 20
41.30150465076875
 30
0.0
 11
75.67868500769741
 21
89.00619960332832
 31
0.0
 70
   163
  1
<>%%p0.5
  3
STANDARD
100
AcDbDiametricDimension
 15
60.78168895474831
 25
79.35694635785182
 35
0.0
 40
0.0
  0
DIMENSION
  5
B5
102
{ACAD_XDICTIONARY
360
B6
102
}
102
{ACAD_REACTORS
330
B7
102
}
330
2
100
AcDbEntity
  8
0
 48
0.6
100
AcDbDimension
  2
*D21
 10
61.40574915497928
 20
103.9803232986141
 30
0.0
 11
31.07501039532144
 21
103.9803232986141
 31
0.0
 70
   160
  1
60
  3
STANDARD
100
AcDbAlignedDimension
 13
1.405749154979275
 23
85.32922550430908
 33
0.0
 14
61.40574915497928
 24
85.32922550430908
 34
0.0
100
AcDbRotatedDimension
  0
ARC
  5
C4
330
2
100
AcDbEntity
  8
0
 48
0.6
100
AcDbCircle
 10
77.44867390648687
 20
44.6397781528492
 30
0.0
 40
33.95579199999999
100
AcDbArc
 50
204.9259499999998
 51
236.3981230000006
  0
CIRCLE
  5
C5
330
2
100
AcDbEntity
  8
0
 48
0.6
100
AcDbCircle
 10
31.40574915497927
 20
60.32922550430817
 30
0.0
 40
27.00000000000005
  0
CIRCLE
  5
C6
330
2
100
AcDbEntity
  8
0
 48
0.6
100
AcDbCircle
 10
31.40574915497927
 20
60.32922550430817
 30
0.0
 40
28.5
  0
LINE
  5
C7
330
2
100
AcDbEntity
  8
CEN
 48
0.6
100
AcDbLine
 10
-3.594250845019814
 20
60.32922550430817
 30
0.0
 11
66.405749154982
 21
60.32922550430817
 31
0.0
  0
ARC
  5
CA
330
2
100
AcDbEntity
  8
0
 48
0.6
100
AcDbCircle
 10
56.40574915497928
 20
85.32922550430908
 30
0.0
 40
5.0
100
AcDbArc
 50
0.0
 51
90.0
  0
ARC
  5
CB
102
{ACAD_REACTORS
330
A8
102
}
330
2
100
AcDbEntity
  8
CEN
 48
0.6
100
AcDbCircle
 10
31.40574915497927
 20
60.32922550430908
 30
0.0
 40
35.0
100
AcDbArc
 50
21.71935007261406
 51
51.18655059757116
  0
LINE
  5
CC
330
2
100
AcDbEntity
  8
CEN
 48
0.6
100
AcDbLine
 10
53.1492826764661
 20
82.072759025795
 30
0.0
 11
59.15969031655368
 21
88.08316666588098
 31
0.0
  0
CIRCLE
  5
CD
330
2
100
AcDbEntity
  8
0
 48
0.6
100
AcDbCircle
 10
56.15448649650989
 20
85.07796284583809
 30
0.0
 40
2.25
  0
ARC
  5
CE
330
2
100
AcDbEntity
  8
0
 48
0.6
100
AcDbCircle
 10
77.44867390648687
 20
44.6397781528492
 30
0.0
 40
35.255792
100
AcDbArc
 50
236.3564240000014
 51
242.0987460000029
  0
ARC
  5
CF
330
2
100
AcDbEntity
  8
0
 48
0.6
100
AcDbCircle
 10
58.59406890648734
 20
15.60980215284916
 30
0.0
 40
0.7499080000000001
100
AcDbArc
 50
85.16289500000455
 51
205.3344229999993
  0
ARC
  5
D0
330
2
100
AcDbEntity
  8
0
 48
0.6
100
AcDbCircle
 10
56.40574915497928
 20
35.32922550430908
 30
0.0
 40
5.0
100
AcDbArc
 50
270.0
 51
0.0
  0
ARC
  5
D1
330
2
100
AcDbEntity
  8
0
 48
0.6
100
AcDbCircle
 10
77.44867390648687
 20
44.6397781528492
 30
0.0
 40
37.855792
100
AcDbArc
 50
235.2486590000054
 51
242.0987460000029
  0
ARC
  5
D2
330
2
100
AcDbEntity
  8
CEN
 48
0.6
100
AcDbCircle
 10
31.40574915497654
 20
60.32922550430726
 30
0.0
 40
35.0
100
AcDbArc
 50
308.0383738498413
 51
321.9616261501601
  0
LINE
  5
D3
330
2
100
AcDbEntity
  8
CEN
 48
0.6
100
AcDbLine
 10
53.14928267646246
 20
38.58569198282202
 30
0.0
 11
59.15969031654913
 21
32.57528434273627
 31
0.0
  0
CIRCLE
  5
D4
330
2
100
AcDbEntity
  8
0
 48
0.6
100
AcDbCircle
 10
56.15448649650625
 20
35.58048816277801
 30
0.0
 40
2.25
  0
ARC
  5
D5
330
2
100
AcDbEntity
  8
0
 48
0.6
100
AcDbCircle
 10
31.40574915497927
 20
60.32922550430817
 30
0.0
 40
24.0
100
AcDbArc
 50
26.36567250321681
 51
63.63432749678904
  0
ARC
  5
D6
330
2
100
AcDbEntity
  8
0
 48
0.6
100
AcDbCircle
 10
31.40574915497927
 20
60.32922550430817
 30
0.0
 40
24.0
100
AcDbArc
 50
296.3656725032108
 51
333.6343274967831
  0
ARC
  5
D7
330
2
100
AcDbEntity
  8
0
 48
0.6
100
AcDbCircle
 10
77.44867390648687
 20
44.6397781528492
 30
0.0
 40
39.15579199999999
100
AcDbArc
 50
201.4369589999971
 51
235.2486590000054
  0
ARC
  5
D8
330
2
100
AcDbEntity
  8
0
 48
0.6
100
AcDbCircle
 10
77.44867390648687
 20
44.6397781528492
 30
0.0
 40
36.555792
100
AcDbArc
 50
203.0460947298102
 51
236.3176429999981
  0
LINE
  5
D9
330
2
100
AcDbEntity
  8
0
 48
0.6
100
AcDbLine
 10
6.405749154979275
 20
30.32922550430908
 30
0.0
 11
56.40574915497928
 21
30.32922550430908
 31
0.0
  0
LINE
  5
DA
330
2
100
AcDbEntity
  8
0
 48
0.6
100
AcDbLine
 10
6.405749154979275
 20
90.32922550430908
 30
0.0
 11
56.40574915497928
 21
90.32922550430908
 31
0.0
  0
LINE
  5
DB
102
{ACAD_REACTORS
330
10B
102
}
330
2
100
AcDbEntity
  8
CEN
 48
0.6
100
AcDbLine
 10
31.40574915497927
 20
25.32922550430817
 30
0.0
 11
31.40574915497927
 21
95.32922550430816
 31
0.0
  0
ARC
  5
DC
330
2
100
AcDbEntity
  8
0
 48
0.6
100
AcDbCircle
 10
6.405749154979275
 20
85.32922550430908
 30
0.0
 40
5.0
100
AcDbArc
 50
90.0
 51
180.0
  0
ARC
  5
DD
330
2
100
AcDbEntity
  8
0
 48
0.6
100
AcDbCircle
 10
31.40574915497927
 20
60.32922550430817
 30
0.0
 40
24.0
100
AcDbArc
 50
116.3656725032109
 51
153.634327496783
  0
ARC
  5
DE
330
2
100
AcDbEntity
  8
0
 48
0.6
100
AcDbCircle
 10
8.544397600281627
 20
67.63392297185919
 30
0.0
 40
2.0
100
AcDbArc
 50
342.2801918472014
 51
38.05132551937779
  0
ARC
  5
DF
330
2
100
AcDbEntity
  8
0
 48
0.6
100
AcDbCircle
 10
11.6942333138304
 20
70.09939148263834
 30
0.0
 40
2.0
100
AcDbArc
 50
153.634327496783
 51
218.0513255193776
  0
CIRCLE
  5
E0
330
2
100
AcDbEntity
  8
0
 48
0.6
100
AcDbCircle
 10
31.40574915497927
 20
60.32922550430817
 30
0.0
 40
3.000000000000055
  0
CIRCLE
  5
E1
330
2
100
AcDbEntity
  8
0
 48
0.6
100
AcDbCircle
 10
31.40574915497927
 20
60.32922550430817
 30
0.0
 40
2.000000000000055
  0
ARC
  5
E2
330
2
100
AcDbEntity
  8
0
 48
0.6
100
AcDbCircle
 10
31.40574915497927
 20
60.32922550430817
 30
0.0
 40
22.0
100
AcDbArc
 50
72.28019184719491
 51
107.719808152805
  0
ARC
  5
E3
330
2
100
AcDbEntity
  8
0
 48
0.6
100
AcDbCircle
 10
24.10105168743029
 20
83.19057705900808
 30
0.0
 40
2.0
100
AcDbArc
 50
231.948674480613
 51
287.7198081528051
  0
ARC
  5
E4
330
2
100
AcDbEntity
  8
0
 48
0.6
100
AcDbCircle
 10
21.63558317664956
 20
80.04074134545817
 30
0.0
 40
2.0
100
AcDbArc
 50
51.94867448061305
 51
116.3656725032109
  0
ARC
  5
E5
330
2
100
AcDbEntity
  8
0
 48
0.6
100
AcDbCircle
 10
41.1759151333108
 20
80.04074134545817
 30
0.0
 40
2.0
100
AcDbArc
 50
63.63432749678904
 51
128.0513255193868
  0
ARC
  5
E6
330
2
100
AcDbEntity
  8
0
 48
0.6
100
AcDbCircle
 10
38.7104466225328
 20
83.19057705900808
 30
0.0
 40
2.0
100
AcDbArc
 50
252.2801918471949
 51
308.0513255193868
  0
ARC
  5
E7
330
2
100
AcDbEntity
  8
0
 48
0.6
100
AcDbCircle
 10
31.40574915497927
 20
60.32922550430817
 30
0.0
 40
22.0
100
AcDbArc
 50
252.2801918471949
 51
287.7198081528051
  0
ARC
  5
E8
330
2
100
AcDbEntity
  8
0
 48
0.6
100
AcDbCircle
 10
31.40574915497927
 20
60.32922550430817
 30
0.0
 40
24.0
100
AcDbArc
 50
206.3656725032168
 51
243.634327496789
  0
ARC
  5
E9
330
2
100
AcDbEntity
  8
0
 48
0.6
100
AcDbCircle
 10
8.544397600281627
 20
53.02452803675715
 30
0.0
 40
2.0
100
AcDbArc
 50
321.9486744806221
 51
17.71980815279839
  0
ARC
  5
EA
330
2
100
AcDbEntity
  8
0
 48
0.6
100
AcDbCircle
 10
11.6942333138304
 20
50.559059525978
 30
0.0
 40
2.0
100
AcDbArc
 50
141.9486744806222
 51
206.3656725032168
  0
ARC
  5
EB
330
2
100
AcDbEntity
  8
0
 48
0.6
100
AcDbCircle
 10
24.10105168743029
 20
37.46787394960915
 30
0.0
 40
2.0
100
AcDbArc
 50
72.28019184719491
 51
128.0513255193868
  0
ARC
  5
EC
330
2
100
AcDbEntity
  8
0
 48
0.6
100
AcDbCircle
 10
21.63558317664956
 20
40.61770966315907
 30
0.0
 40
2.0
100
AcDbArc
 50
243.634327496789
 51
308.0513255193868
  0
ARC
  5
ED
330
2
100
AcDbEntity
  8
0
 48
0.6
100
AcDbCircle
 10
41.1759151333108
 20
40.61770966315907
 30
0.0
 40
2.0
100
AcDbArc
 50
231.948674480613
 51
296.3656725032108
  0
ARC
  5
EE
330
2
100
AcDbEntity
  8
0
 48
0.6
100
AcDbCircle
 10
38.7104466225328
 20
37.46787394960915
 30
0.0
 40
2.0
100
AcDbArc
 50
51.94867448061305
 51
107.719808152805
  0
CIRCLE
  5
EF
330
2
100
AcDbEntity
  8
0
 48
0.6
100
AcDbCircle
 10
31.40574915497927
 20
60.32922550430817
 30
0.0
 40
13.0
  0
ARC
  5
F0
330
2
100
AcDbEntity
  8
0
 48
0.6
100
AcDbCircle
 10
31.40574915497927
 20
60.32922550430817
 30
0.0
 40
22.0
100
AcDbArc
 50
162.2801918472015
 51
197.7198081527984
  0
LINE
  5
F1
102
{ACAD_REACTORS
330
10B
102
}
330
2
100
AcDbEntity
  8
0
  6
CENTER
 62
     1
 48
0.6
100
AcDbLine
 10
31.40574915498382
 20
60.32922550430908
 30
0.0
 11
44.69915777314326
 21
28.23609812818017
 31
0.0
  0
ARC
  5
F2
330
2
100
AcDbEntity
  8
0
 48
0.6
100
AcDbCircle
 10
6.405749154979275
 20
35.32922550430908
 30
0.0
 40
5.0
100
AcDbArc
 50
180.0
 51
270.0
  0
LINE
  5
F3
102
{ACAD_REACTORS
330
B7
102
}
330
2
100
AcDbEntity
  8
0
 48
0.6
100
AcDbLine
 10
1.405749154979275
 20
85.32922550430908
 30
0.0
 11
1.405749154979275
 21
35.32922550430908
 31
0.0
  0
LINE
  5
F4
330
2
100
AcDbEntity
  8
CEN
 48
0.6
100
AcDbLine
 10
9.66221563349336
 20
38.58569198282202
 30
0.0
 11
3.65180799340851
 21
32.57528434273627
 31
0.0
  0
ARC
  5
F5
330
2
100
AcDbEntity
  8
CEN
 48
0.6
100
AcDbCircle
 10
31.40574915497927
 20
60.32922550430908
 30
0.0
 40
35.0
100
AcDbArc
 50
199.5241366191914
 51
231.1865505975711
  0
CIRCLE
  5
F6
330
2
100
AcDbEntity
  8
0
 48
0.6
100
AcDbCircle
 10
6.657011813452299
 20
35.58048816277892
 30
0.0
 40
2.25
  0
LWPOLYLINE
  5
F7
330
2
100
AcDbEntity
  8
3
 48
0.6
100
AcDbPolyline
 90
        4
 70
     1
 43
0.0
 10
24.45748574205936
 20
104.7204096639379
 10
27.75748574205954
 20
104.7204096639379
 10
27.75748574205954
 20
108.2204096639379
 10
24.45748574205936
 20
108.2204096639379
  0
ARC
  5
F9
330
2
100
AcDbEntity
  8
0
 48
0.6
100
AcDbCircle
 10
54.26710070968056
 20
67.63392297185919
 30
0.0
 40
2.0
100
AcDbArc
 50
141.9486744806222
 51
197.7198081527984
  0
ARC
  5
FA
330
2
100
AcDbEntity
  8
0
 48
0.6
100
AcDbCircle
 10
51.11726499612905
 20
70.09939148263834
 30
0.0
 40
2.0
100
AcDbArc
 50
321.9486744806221
 51
26.36567250321681
  0
ARC
  5
FB
330
2
100
AcDbEntity
  8
0
 48
0.6
100
AcDbCircle
 10
57.23849690648603
 20
14.96803015284831
 30
0.0
 40
0.7499080000000001
100
AcDbArc
 50
265.1628950000044
 51
25.33442299999946
  0
ARC
  5
FC
330
2
100
AcDbEntity
  8
0
 48
0.6
100
AcDbCircle
 10
56.54805290648528
 20
13.85707515284821
 30
0.0
 40
0.7499080000000001
100
AcDbArc
 50
85.16289500000455
 51
205.3344229999993
  0
ARC
  5
FD
330
2
100
AcDbEntity
  8
0
 48
0.6
100
AcDbCircle
 10
55.19247990648818
 20
13.21530215284815
 30
0.0
 40
0.7499080000000001
100
AcDbArc
 50
265.1628950000044
 51
25.33442299999946
  0
ARC
  5
FE
330
2
100
AcDbEntity
  8
0
 48
0.6
100
AcDbCircle
 10
54.26710070968056
 20
53.02452803675715
 30
0.0
 40
2.0
100
AcDbArc
 50
162.2801918472015
 51
218.0513255193776
  0
ARC
  5
FF
330
2
100
AcDbEntity
  8
0
 48
0.6
100
AcDbCircle
 10
51.11726499612905
 20
50.559059525978
 30
0.0
 40
2.0
100
AcDbArc
 50
333.6343274967831
 51
38.05132551937779
  0
ARC
  5
100
330
2
100
AcDbEntity
  8
0
 48
0.6
100
AcDbCircle
 10
31.40574915497927
 20
60.32922550430817
 30
0.0
 40
22.0
100
AcDbArc
 50
342.2801918472014
 51
17.71980815279839
  0
ARC
  5
101
330
2
100
AcDbEntity
  8
CEN
 48
0.6
100
AcDbCircle
 10
31.40574915497654
 20
60.32922550430726
 30
0.0
 40
35.0
100
AcDbArc
 50
128.038373849838
 51
141.9616261501576
  0
LINE
  5
102
330
2
100
AcDbEntity
  8
CEN
 48
0.6
100
AcDbLine
 10
9.662215633489722
 20
82.07275902579409
 30
0.0
 11
3.651807993403053
 21
88.08316666588007
 31
0.0
  0
CIRCLE
  5
103
330
2
100
AcDbEntity
  8
0
 48
0.6
100
AcDbCircle
 10
6.657011813448661
 20
85.07796284583719
 30
0.0
 40
2.25
  0
ARC
  5
104
330
2
100
AcDbEntity
  8
0
 48
0.6
100
AcDbCircle
 10
59.7077459064867
 20
11.93396415284814
 30
0.0
 40
0.7499080000000001
100
AcDbArc
 50
272.0129819999954
 51
32.18451000000101
  0
ARC
  5
105
330
2
100
AcDbEntity
  8
0
 48
0.6
100
AcDbCircle
 10
60.97709690648844
 20
12.7328371528481
 30
0.0
 40
0.7499080000000001
100
AcDbArc
 50
92.01298199999559
 51
212.184510000001
  0
LINE
  5
106
102
{ACAD_REACTORS
330
B7
102
}
330
2
100
AcDbEntity
  8
0
 48
0.6
100
AcDbLine
 10
61.40574915497928
 20
85.32922550430908
 30
0.0
 11
61.40574915497928
 21
35.32922550430908
 31
0.0
  0
LEADER
  5
107
330
2
100
AcDbEntity
  8
0
100
AcDbLeader
  3
STANDARD
 73
     0
 75
     1
 40
3.0
 41
26.65178571428571
 76
     3
 10
56.23294480818731
 20
86.82933119673885
 30
0.0
 10
51.2316276494621
 20
112.259184717182
 30
0.0
 10
48.7316276494621
 20
112.259184717182
 30
0.0
340
108
1001
ACAD
1000
DSTYLE
1002
{
1070
     5
1000

1070
    77
1070
     1
1070
   147
1040
1.0
1070
   342
1005
0
1002
}
  0
MTEXT
  5
108
102
{ACAD_REACTORS
330
107
102
}
330
2
100
AcDbEntity
  8
0
 62
     3
100
AcDbMText
 10
47.73162764946209
 20
113.259184717182
 30
0.0
 40
3.0
 41
0.0
 71
     9
 72
     1
  1
4-%%c4.5 hole
1001
ACAD
1000
MTEXTBEGIN
1070
    73
1070
     1
1070
    44
1040
1.0
1070
    74
1070
     0
1000
MTEXTEND
  0
DIMENSION
  5
109
102
{ACAD_XDICTIONARY
360
10A
102
}
102
{ACAD_REACTORS
330
10B
102
}
330
2
100
AcDbEntity
  8
0
 48
0.6
100
AcDbDimension
  2
*D20
 10
31.40574915497927
 20
95.32922550430816
 30
0.0
 11
40.99115014780823
 21
12.14016054520584
 31
0.0
 70
    34
  1
<>
  3
STANDARD
100
AcDb2LineAngularDimension
 13
31.40574915498382
 23
60.32922550430908
 33
0.0
 14
44.69915777314326
 24
28.23609812817903
 34
0.0
 15
31.40574915497927
 25
25.32922550430817
 35
0.0
 16
38.18252010382053
 26
8.854539698659465
 36
0.0
1001
ACAD
1000
DSTYLE
1002
{
1070
   271
1070
     1
1070
   271
1070
     1
1070
   271
1070
     1
1070
   271
1070
     1
1070
   271
1070
     1
1070
   271
1070
     1
1070
   271
1070
     1
1070
   271
1070
     1
1070
   271
1070
     1
1070
   271
1070
     1
1070
   271
1070
     1
1070
   271
1070
     1
1070
   271
1070
     1
1070
   271
1070
     1
1070
   271
1070
     1
1070
   271
1070
     1
1070
   271
1070
     1
1070
   271
1070
     1
1070
   271
1070
     1
1070
   271
1070
     1
1070
   271
1070
     1
1070
   271
1070
     1
1070
   271
1070
     1
1070
   271
1070
     1
1070
   271
1070
     1
1070
   271
1070
     1
1070
   271
1070
     1
1070
   271
1070
     1
1070
   271
1070
     1
1070
   271
1070
     1
1070
   271
1070
     1
1070
   271
1070
     1
1070
   271
1070
     1
1070
   271
1070
     1
1070
   271
1070
     1
1070
   271
1070
     1
1070
   271
1070
     1
1070
   271
1070
     1
1070
   271
1070
     1
1070
   271
1070
     1
1070
   271
1070
     1
1070
   271
1070
     1
1070
   271
1070
     1
1070
   271
1070
     1
1070
   271
1070
     1
1070
   271
1070
     1
1070
   271
1070
     1
1070
   271
1070
     1
1070
   271
1070
     1
1070
   271
1070
     1
1070
   271
1070
     1
1070
   271
1070
     1
1070
   271
1070
     1
1070
   271
1070
     1
1070
   271
1070
     1
1070
   271
1070
     1
1070
   271
1070
     1
1070
   271
1070
     1
1070
   271
1070
     1
1070
   271
1070
     1
1070
   271
1070
     1
1070
   271
1070
     1
1070
   271
1070
     1
1070
   271
1070
     1
1070
   271
1070
     1
1070
   271
1070
     1
1070
   271
1070
     1
1070
   271
1070
     1
1070
   271
1070
     1
1070
   271
1070
     1
1070
   271
1070
     1
1070
   271
1070
     1
1070
   271
1070
     1
1070
   271
1070
     1
1070
   271
1070
     1
1070
   271
1070
     1
1070
   271
1070
     1
1070
   271
1070
     1
1070
   271
1070
     1
1070
   271
1070
     1
1070
   271
1070
     1
1070
   271
1070
     1
1070
   271
1070
     1
1070
   271
1070
     1
1070
   271
1070
     1
1070
   271
1070
     1
1070
   271
1070
     1
1070
   271
1070
     1
1070
   271
1070
     1
1070
   271
1070
     1
1070
   271
1070
     1
1070
   271
1070
     1
1070
   271
1070
     1
1070
   271
1070
     1
1070
   271
1070
     1
1070
   271
1070
     1
1070
   271
1070
     1
1070
   271
1070
     1
1070
   271
1070
     1
1002
}
  0
LEADER
  5
11A
330
2
100
AcDbEntity
  8
0
 48
0.6
100
AcDbLeader
  3
STANDARD
 76
     2
 10
227.0155246783015
 20
14.07618507585903
 30
0.0
 10
193.5053125165868
 20
-17.12881641961303
 30
0.0
1001
ACAD
1000
DSTYLE
1002
{
1070
     5
1000

1070
    77
1070
     1
1070
   147
1040
1.0
1070
   342
1005
0
1002
}
  0
MTEXT
  5
11B
330
2
100
AcDbEntity
  8
DIM
100
AcDbMText
 10
238.9758739788994
 20
-13.02549258896078
 30
0.0
 40
3.5
 41
0.0
 71
     5
 72
     1
  1
BRAKE LEAD WIRE 300mm
1001
ACAD
1000
MTEXTBEGIN
1070
    73
1070
     1
1070
    44
1040
1.0
1070
    74
1070
     0
1000
MTEXTEND
  0
LINE
  5
11C
330
2
100
AcDbEntity
  8
0
 62
   123
 48
0.6
100
AcDbLine
 10
193.5053125165868
 20
-17.12881641961303
 30
0.0
 11
276.0993004761548
 21
-17.12881641961303
 31
0.0
  0
DIMENSION
  5
11D
330
2
100
AcDbEntity
  8
0
 48
0.6
100
AcDbDimension
  2
*D28
 10
262.181518934698
 20
30.32922550430816
 30
0.0
 11
262.181518934698
 21
60.32922550430817
 31
0.0
 70
   160
  1
%%C<>
  3
STANDARD
100
AcDbAlignedDimension
 13
245.5559569585311
 23
90.32922550430908
 33
0.0
 14
245.5559569585311
 24
30.32922550430817
 34
0.0
 50
90.0
100
AcDbRotatedDimension
  0
LINE
  5
12A
102
{ACAD_REACTORS
330
1B2
102
}
330
2
100
AcDbEntity
  8
0
 48
0.6
100
AcDbLine
 10
246.5559569585311
 20
89.32922550430907
 30
0.0
 11
246.5559569585311
 21
31.32922550430908
 31
0.0
  0
LINE
  5
12B
330
2
100
AcDbEntity
  8
0
 48
0.6
100
AcDbLine
 10
245.5559569585311
 20
90.32922550430908
 30
0.0
 11
245.5559569585311
 21
30.32922550430908
 31
0.0
  0
LINE
  5
12C
330
2
100
AcDbEntity
  8
0
100
AcDbLine
 10
210.3361789956397
 20
90.32922550430908
 30
0.0
 11
210.3361789956397
 21
30.32922550430908
 31
0.0
  0
ARC
  5
12D
330
2
100
AcDbEntity
  8
0
 48
0.6
100
AcDbCircle
 10
179.8596181316252
 20
29.20304274918294
 30
0.0
 40
37.855792
100
AcDbArc
 50
212.7486590000019
 51
219.5987459999966
  0
ARC
  5
12E
330
2
100
AcDbEntity
  8
0
 48
0.6
100
AcDbCircle
 10
152.4316071316252
 20
6.028272749183088
 30
0.0
 40
0.7499080000000001
100
AcDbArc
 50
69.51298200000024
 51
189.6845099999992
  0
ARC
  5
12F
330
2
100
AcDbEntity
  8
0
 48
0.6
100
AcDbCircle
 10
150.9531651316256
 20
5.775969749182195
 30
0.0
 40
0.7499080000000001
100
AcDbArc
 50
249.5129820000002
 51
9.684509999999278
  0
ARC
  5
130
330
2
100
AcDbEntity
  8
0
 48
0.6
100
AcDbCircle
 10
179.8596181316252
 20
29.20304274918294
 30
0.0
 40
35.255792
100
AcDbArc
 50
213.8564239999994
 51
219.5987459999966
  0
ARC
  5
131
330
2
100
AcDbEntity
  8
0
 48
0.6
100
AcDbCircle
 10
148.0559569585311
 20
29.82922550430817
 30
0.0
 40
0.5
100
AcDbArc
 50
270.0
 51
0.0
  0
LINE
  5
132
330
2
100
AcDbEntity
  8
0
 48
0.6
100
AcDbLine
 10
148.5559569585311
 20
30.32922550430817
 30
0.0
 11
148.5559569585311
 21
29.82922550430817
 31
0.0
  0
ARC
  5
133
330
2
100
AcDbEntity
  8
0
 48
0.6
100
AcDbCircle
 10
148.7689919585318
 20
8.799391504308232
 30
0.0
 40
0.7499080000000001
100
AcDbArc
 50
62.66289500000094
 51
182.8344229999968
  0
ARC
  5
134
330
2
100
AcDbEntity
  8
0
 48
0.6
100
AcDbCircle
 10
147.2710109585295
 20
8.725225504308127
 30
0.0
 40
0.7499080000000001
100
AcDbArc
 50
242.6628950000009
 51
2.834422999996808
  0
ARC
  5
135
330
2
100
AcDbEntity
  8
0
 48
0.6
100
AcDbCircle
 10
151.3300049585313
 20
9.635724504309109
 30
0.0
 40
0.7499080000000001
100
AcDbArc
 50
62.66289500000094
 51
182.8344229999968
  0
ARC
  5
136
330
2
100
AcDbEntity
  8
0
 48
0.6
100
AcDbCircle
 10
149.8320229585315
 20
9.561558504309005
 30
0.0
 40
0.7499080000000001
100
AcDbArc
 50
242.6628950000009
 51
2.834422999996808
  0
CIRCLE
  5
137
330
2
100
AcDbEntity
  8
0
100
AcDbCircle
 10
212.4840142639859
 20
60.32740610626615
 30
0.0
 40
2.147836038934201
  0
LINE
  5
138
330
2
100
AcDbEntity
  8
0
100
AcDbLine
 10
211.6289912522779
 20
61.18242911797302
 30
0.0
 11
213.3353984796058
 21
59.47602189064309
 31
0.0
  0
LINE
  5
139
330
2
100
AcDbEntity
  8
0
100
AcDbLine
 10
213.3390372756921
 20
61.18242911797302
 30
0.0
 11
211.6326300483642
 21
59.47602189064309
 31
0.0
  0
LINE
  5
13A
330
2
100
AcDbEntity
  8
0
 48
0.6
100
AcDbLine
 10
229.2511986833287
 20
29.32922550430816
 30
0.0
 11
220.2511986833306
 21
29.32922550430816
 31
0.0
  0
ARC
  5
13B
330
2
100
AcDbEntity
  8
0
 48
0.6
100
AcDbCircle
 10
220.2511986833306
 20
29.82922550430817
 30
0.0
 40
0.5
100
AcDbArc
 50
180.0
 51
270.0
  0
LINE
  5
13C
330
2
100
AcDbEntity
  8
0
 48
0.6
100
AcDbLine
 10
219.7511986833305
 20
30.32922550430817
 30
0.0
 11
219.7511986833305
 21
29.82922550430817
 31
0.0
  0
ARC
  5
13D
330
2
100
AcDbEntity
  8
0
 48
0.6
100
AcDbCircle
 10
229.2511986833287
 20
29.82922550430817
 30
0.0
 40
0.5
100
AcDbArc
 50
270.0
 51
0.0
  0
LINE
  5
13E
330
2
100
AcDbEntity
  8
0
 48
0.6
100
AcDbLine
 10
229.7511986833305
 20
30.32922550430817
 30
0.0
 11
229.7511986833305
 21
29.82922550430817
 31
0.0
  0
LINE
  5
13F
330
2
100
AcDbEntity
  8
0
 48
0.6
100
AcDbLine
 10
246.5559569585311
 20
31.32922550430908
 30
0.0
 11
245.5559569585311
 21
30.32922550430908
 31
0.0
  0
ARC
  5
140
330
2
100
AcDbEntity
  8
0
 48
0.6
100
AcDbCircle
 10
228.4662526833308
 20
8.725225504308127
 30
0.0
 40
0.7499080000000001
100
AcDbArc
 50
242.6628950000009
 51
2.834422999996808
  0
ARC
  5
141
330
2
100
AcDbEntity
  8
0
 48
0.6
100
AcDbCircle
 10
229.9642336833312
 20
8.799391504308232
 30
0.0
 40
0.7499080000000001
100
AcDbArc
 50
62.66289500000094
 51
182.8344229999968
  0
ARC
  5
142
330
2
100
AcDbEntity
  8
0
 48
0.6
100
AcDbCircle
 10
231.0272646833327
 20
9.561558504309005
 30
0.0
 40
0.7499080000000001
100
AcDbArc
 50
242.6628950000009
 51
2.834422999996808
  0
ARC
  5
143
330
2
100
AcDbEntity
  8
0
 48
0.6
100
AcDbCircle
 10
232.5252466833317
 20
9.635724504309109
 30
0.0
 40
0.7499080000000001
100
AcDbArc
 50
62.66289500000094
 51
182.8344229999968
  0
ARC
  5
144
330
2
100
AcDbEntity
  8
0
 48
0.6
100
AcDbCircle
 10
261.0539206833309
 20
29.24057950430915
 30
0.0
 40
33.95579199999999
100
AcDbArc
 50
179.8504230000004
 51
213.8981229999992
  0
ARC
  5
145
330
2
100
AcDbEntity
  8
0
 48
0.6
100
AcDbCircle
 10
261.0539206833309
 20
29.24057950430915
 30
0.0
 40
39.15579199999999
100
AcDbArc
 50
179.8702869999971
 51
212.7486590000019
  0
ARC
  5
146
330
2
100
AcDbEntity
  8
0
 48
0.6
100
AcDbCircle
 10
261.0539206833309
 20
29.24057950430915
 30
0.0
 40
36.555792
100
AcDbArc
 50
179.8610604128478
 51
213.8176429999978
  0
LINE
  5
147
102
{ACAD_REACTORS
330
1B2
102
}
330
2
100
AcDbEntity
  8
0
 48
0.6
100
AcDbLine
 10
246.5559569585311
 20
89.32922550430907
 30
0.0
 11
245.5559569585311
 21
90.32922550430908
 31
0.0
  0
DIMENSION
  5
148
102
{ACAD_XDICTIONARY
360
149
102
}
102
{ACAD_REACTORS
330
14A
102
}
330
2
100
AcDbEntity
  8
0
 48
0.6
100
AcDbDimension
  2
*D27
 10
131.5559569585329
 20
99.53755883764211
 30
0.0
 11
122.5559569585311
 21
99.53755883764211
 31
0.0
 70
   160
  3
STANDARD
100
AcDbAlignedDimension
 13
129.5559569585311
 23
87.32922550430817
 33
0.0
 14
131.5559569585329
 24
90.32922550430908
 34
0.0
100
AcDbRotatedDimension
  0
DIMENSION
  5
159
330
2
100
AcDbEntity
  8
0
 48
0.6
100
AcDbDimension
  2
*D26
 10
131.5559569585329
 20
109.975118996462
 30
0.0
 11
119.5559569585329
 21
109.975118996462
 31
0.0
 70
   160
  3
STANDARD
100
AcDbAlignedDimension
 13
107.5559569585311
 23
62.32933828947807
 33
0.0
 14
131.5559569585329
 24
90.32922550430908
 34
0.0
100
AcDbRotatedDimension
  0
LINE
  5
166
330
2
100
AcDbEntity
  8
0
 48
0.6
100
AcDbLine
 10
138.5559569585329
 20
81.22796284583705
 30
0.0
 11
138.5559569585329
 21
88.9279628458371
 31
0.0
  0
LINE
  5
167
330
2
100
AcDbEntity
  8
0
 48
0.6
100
AcDbLine
 10
137.6559569585306
 20
90.32922550430908
 30
0.0
 11
137.6559569585306
 21
30.32922550430726
 31
0.0
  0
LINE
  5
168
102
{ACAD_REACTORS
330
14A
330
1B2
102
}
330
2
100
AcDbEntity
  8
0
 48
0.6
100
AcDbLine
 10
131.5559569585329
 20
90.32922550430908
 30
0.0
 11
131.5559569585329
 21
30.32922550430726
 31
0.0
  0
DIMENSION
  5
169
102
{ACAD_XDICTIONARY
360
16A
102
}
102
{ACAD_REACTORS
330
16B
102
}
330
2
100
AcDbEntity
  8
0
 48
0.6
100
AcDbDimension
  2
*D25
 10
83.28490081086149
 20
33.32922550430817
 30
0.0
 11
83.28490081086147
 21
60.32922550430817
 31
0.0
 70
   160
  1
\A1;%%C<>{\f??|b0|i0|c0|p49;\H0.7x;\S+0^ -0.03;\H1.429x;(h7)} 
  3
STANDARD
100
AcDbAlignedDimension
 13
129.5559569585311
 23
87.32922550430817
 33
0.0
 14
129.5559569585311
 24
33.32922550430817
 34
0.0
 50
90.0
100
AcDbRotatedDimension
  0
DIMENSION
  5
178
330
2
100
AcDbEntity
  8
0
 48
0.6
100
AcDbDimension
  2
*D24
 10
93.60832608596957
 20
57.32933588976493
 30
0.0
 11
93.60832608596956
 21
60.32922550430864
 31
0.0
 70
   160
  1
\A1;%%c<>{\H0.7x;\S+0^ -0.012;\f??|b0|i0|c0|p49;\H1.429x;(h7)}  
  3
STANDARD
100
AcDbAlignedDimension
 13
108.0559569585329
 23
63.32911511885232
 33
0.0
 14
108.0559569585329
 24
57.32933588976493
 34
0.0
 50
90.0
100
AcDbRotatedDimension
  0
LINE
  5
187
330
2
100
AcDbEntity
  8
0
 48
0.6
100
AcDbLine
 10
138.5559569585329
 20
30.32922550430817
 30
0.0
 11
138.5559569585329
 21
29.82922550430817
 31
0.0
  0
ARC
  5
188
330
2
100
AcDbEntity
  8
0
 48
0.6
100
AcDbCircle
 10
139.0559569585302
 20
29.82922550430817
 30
0.0
 40
0.5
100
AcDbArc
 50
180.0
 51
270.0
  0
LINE
  5
189
330
2
100
AcDbEntity
  8
0
 48
0.6
100
AcDbLine
 10
131.5559569585329
 20
63.32922550432886
 30
0.0
 11
131.5559569585329
 21
57.32922550428702
 31
0.0
  0
LINE
  5
18A
330
2
100
AcDbEntity
  8
0
 48
0.6
100
AcDbLine
 10
131.5559569585329
 20
87.32922550430817
 30
0.0
 11
129.5559569585311
 21
87.32922550430817
 31
0.0
  0
LINE
  5
18B
330
2
100
AcDbEntity
  8
0
 48
0.6
100
AcDbLine
 10
137.6559569585306
 20
81.22796284583705
 30
0.0
 11
138.5559569585329
 21
81.22796284583705
 31
0.0
  0
LINE
  5
18C
330
2
100
AcDbEntity
  8
0
 48
0.6
100
AcDbLine
 10
107.5559569585311
 20
62.82911511885231
 30
0.0
 11
107.5559569585311
 21
57.82933588976494
 31
0.0
  0
LINE
  5
18D
330
2
100
AcDbEntity
  8
2
 48
0.6
100
AcDbLine
 10
108.0559569585329
 20
63.32911511885232
 30
0.0
 11
108.0559569585329
 21
57.32933588976493
 31
0.0
  0
LINE
  5
18F
330
2
100
AcDbEntity
  8
0
 48
0.6
100
AcDbLine
 10
107.5559569585311
 20
57.82933588976494
 30
0.0
 11
108.0559569585329
 21
57.32933588976493
 31
0.0
  0
LINE
  5
190
330
2
100
AcDbEntity
  8
0
 48
0.6
100
AcDbLine
 10
107.5559569585311
 20
62.82911511885231
 30
0.0
 11
108.0559569585329
 21
63.32911511885232
 31
0.0
  0
LINE
  5
191
330
2
100
AcDbEntity
  8
0
 48
0.6
100
AcDbLine
 10
108.0559569585329
 20
57.32933588976493
 30
0.0
 11
129.5559569585302
 21
57.32923510302521
 31
0.0
  0
LINE
  5
192
330
2
100
AcDbEntity
  8
0
 48
0.6
100
AcDbLine
 10
108.0559569585329
 20
63.32911511885232
 30
0.0
 11
129.5559569585311
 21
63.32923510306523
 31
0.0
  0
LINE
  5
193
330
2
100
AcDbEntity
  8
0
 48
0.6
100
AcDbLine
 10
138.5559569585329
 20
39.43048816277883
 30
0.0
 11
138.5559569585329
 21
31.73048816277901
 31
0.0
  0
LINE
  5
194
330
2
100
AcDbEntity
  8
0
 48
0.6
100
AcDbLine
 10
131.5559569585329
 20
33.32922550430817
 30
0.0
 11
129.5559569585311
 21
33.32922550430817
 31
0.0
  0
LINE
  5
195
330
2
100
AcDbEntity
  8
0
 48
0.6
100
AcDbLine
 10
137.6559569585306
 20
31.73048816277901
 30
0.0
 11
138.5559569585329
 21
31.73048816277901
 31
0.0
  0
LINE
  5
196
330
2
100
AcDbEntity
  8
0
 48
0.6
100
AcDbLine
 10
131.5559569585329
 20
30.32922550430726
 30
0.0
 11
137.6559569585306
 21
30.32922550430726
 31
0.0
  0
LINE
  5
197
330
2
100
AcDbEntity
  8
0
 48
0.6
100
AcDbLine
 10
137.6559569585306
 20
39.43048816277883
 30
0.0
 11
138.5559569585329
 21
39.43048816277883
 31
0.0
  0
LINE
  5
198
102
{ACAD_REACTORS
330
16B
330
14A
102
}
330
2
100
AcDbEntity
  8
0
 48
0.6
100
AcDbLine
 10
129.5559569585311
 20
87.32922550430817
 30
0.0
 11
129.5559569585311
 21
33.32922550430817
 31
0.0
  0
DIMENSION
  5
199
102
{ACAD_XDICTIONARY
360
19A
102
}
102
{ACAD_REACTORS
330
19B
102
}
330
2
100
AcDbEntity
  8
0
 48
0.6
100
AcDbDimension
  2
*D23
 10
138.5559569585329
 20
99.53755883764211
 30
0.0
 11
135.0559569585311
 21
99.53755883764211
 31
0.0
 70
   160
  3
STANDARD
100
AcDbAlignedDimension
 13
131.5559569585329
 23
99.53755883764211
 33
0.0
 14
138.5559569585329
 24
88.9279628458371
 34
0.0
100
AcDbRotatedDimension
  0
LINE
  5
1A8
102
{ACAD_REACTORS
330
19B
102
}
330
2
100
AcDbEntity
  8
0
 48
0.6
100
AcDbLine
 10
137.6559569585306
 20
88.9279628458371
 30
0.0
 11
138.5559569585329
 21
88.9279628458371
 31
0.0
  0
LINE
  5
1A9
330
2
100
AcDbEntity
  8
0
 48
0.6
100
AcDbLine
 10
131.5559569585329
 20
90.32922550430908
 30
0.0
 11
137.6559569585306
 21
90.32922550430908
 31
0.0
  0
LINE
  5
1AA
330
2
100
AcDbEntity
  8
0
 48
0.6
100
AcDbLine
 10
245.5559569585311
 20
30.32922550430908
 30
0.0
 11
137.6559569585306
 21
30.32922550430908
 31
0.0
  0
LINE
  5
1AB
330
2
100
AcDbEntity
  8
CEN
 48
0.6
100
AcDbLine
 10
100.8821212809471
 20
60.32922550430817
 30
0.0
 11
252.6422968690458
 21
60.32922550430817
 31
0.0
  0
LINE
  5
1AC
330
2
100
AcDbEntity
  8
0
 48
0.6
100
AcDbLine
 10
148.0559569585311
 20
29.32922550430816
 30
0.0
 11
139.0559569585302
 21
29.32922550430816
 31
0.0
  0
ARC
  5
1AD
330
2
100
AcDbEntity
  8
0
 48
0.6
100
AcDbCircle
 10
179.8586789585315
 20
29.24057950430915
 30
0.0
 40
39.15579199999999
100
AcDbArc
 50
179.8702869999971
 51
212.7486590000019
  0
ARC
  5
1AE
330
2
100
AcDbEntity
  8
0
 48
0.6
100
AcDbCircle
 10
179.8586789585315
 20
29.24057950430915
 30
0.0
 40
33.95579199999999
100
AcDbArc
 50
179.8504230000004
 51
213.8981229999992
  0
ARC
  5
1AF
330
2
100
AcDbEntity
  8
0
 48
0.6
100
AcDbCircle
 10
179.8586789585315
 20
29.24057950430915
 30
0.0
 40
36.555792
100
AcDbArc
 50
179.8610604128478
 51
213.8176429999978
  0
DIMENSION
  5
1B0
102
{ACAD_XDICTIONARY
360
1B1
102
}
102
{ACAD_REACTORS
330
1B2
102
}
330
2
100
AcDbEntity
  8
0
100
AcDbDimension
  2
*D22
 10
246.5559569585311
 20
109.9751189964629
 30
0.0
 11
189.0559569585311
 21
109.9751189964629
 31
0.0
 70
   160
  3
STANDARD
100
AcDbAlignedDimension
 13
131.5559569585329
 23
90.32922550430908
 33
0.0
 14
246.5559569585311
 24
89.32922550430907
 34
0.0
100
AcDbRotatedDimension
  0
LINE
  5
1BF
330
2
100
AcDbEntity
  8
0
 48
0.6
100
AcDbLine
 10
245.5559569585311
 20
90.32922550430908
 30
0.0
 11
137.6559569585306
 21
90.32922550430908
 31
0.0
  0
LINE
  5
1C0
330
2
100
AcDbEntity
  8
0
 62
   123
 48
0.6
100
AcDbLine
 10
119.6046763436397
 20
140.412820827011
 30
0.0
 11
198.4697341886203
 21
140.412820827011
 31
0.0
  0
MTEXT
  5
1C1
330
2
100
AcDbEntity
  8
DIM
100
AcDbMText
 10
155.9029038223452
 20
136.4819380517128
 30
0.0
 40
3.5
 41
0.0
 71
     5
 72
     1
  1
UL Style 3266 , AWG20
1001
ACAD
1000
MTEXTBEGIN
1070
    73
1070
     1
1070
    44
1040
1.0
1070
    74
1070
     0
1000
MTEXTEND
  0
MTEXT
  5
1C2
330
2
100
AcDbEntity
  8
DIM
100
AcDbMText
 10
160.4353672122879
 20
143.7878039595032
 30
0.0
 40
3.5
 41
0.0
 71
     5
 72
     1
  1
MOTOR LEAD WIRE 300mm
1001
ACAD
1000
MTEXTBEGIN
1070
    73
1070
     1
1070
    44
1040
1.0
1070
    74
1070
     0
1000
MTEXTEND
  0
DIMENSION
  5
1C3
102
{ACAD_XDICTIONARY
360
1C4
102
}
102
{ACAD_REACTORS
330
1C5
102
}
330
2
100
AcDbEntity
  8
0
 48
0.6
100
AcDbDimension
  2
*D29
 10
-0.4647045271671289
 20
216.2657067240657
 30
0.0
 11
73.18417112532284
 21
263.9704016766165
 31
0.0
 70
   163
  1
<>%%p0.5
  3
STANDARD
100
AcDbDiametricDimension
 15
58.28717507236835
 25
254.3211484311392
 35
0.0
 40
0.0
  0
CIRCLE
  5
1D1
330
2
100
AcDbEntity
  8
0
 48
0.6
100
AcDbCircle
 10
28.91123527259697
 20
235.2934275775992
 30
0.0
 40
13.0
  0
LWPOLYLINE
  5
1D2
330
2
100
AcDbEntity
  8
3
 48
0.6
100
AcDbPolyline
 90
        4
 70
     1
 43
0.0
 10
21.96297185967796
 20
279.684611737229
 10
25.26297185967541
 20
279.684611737229
 10
25.26297185967541
 20
283.1846117372281
 10
21.96297185967796
 20
283.1846117372281
  0
DIMENSION
  5
1D3
102
{ACAD_XDICTIONARY
360
1D4
102
}
102
{ACAD_REACTORS
330
1D5
102
}
330
2
100
AcDbEntity
  8
0
 48
0.6
100
AcDbDimension
  2
*D31
 10
58.91123527259697
 20
278.9445253719052
 30
0.0
 11
28.58049651293731
 21
278.9445253719052
 31
0.0
 70
   160
  1
60
  3
STANDARD
100
AcDbAlignedDimension
 13
-1.08876472740485
 23
260.2934275776001
 33
0.0
 14
58.91123527259697
 24
260.2934275776001
 34
0.0
100
AcDbRotatedDimension
  0
CIRCLE
  5
1E2
330
2
100
AcDbEntity
  8
0
 48
0.6
100
AcDbCircle
 10
28.91123527259697
 20
235.2934275775992
 30
0.0
 40
27.00000000000005
  0
CIRCLE
  5
1E3
330
2
100
AcDbEntity
  8
0
 48
0.6
100
AcDbCircle
 10
28.91123527259697
 20
235.2934275775992
 30
0.0
 40
28.5
  0
LINE
  5
1E4
330
2
100
AcDbEntity
  8
0
 48
0.6
100
AcDbLine
 10
3.911235272597878
 20
205.2934275776001
 30
0.0
 11
53.91123527259788
 21
205.2934275776001
 31
0.0
  0
LINE
  5
1E5
330
2
100
AcDbEntity
  8
0
 48
0.6
100
AcDbLine
 10
3.911235272597878
 20
265.2934275776001
 30
0.0
 11
53.91123527259788
 21
265.2934275776001
 31
0.0
  0
ARC
  5
1E6
330
2
100
AcDbEntity
  8
0
 48
0.6
100
AcDbCircle
 10
28.91123527259697
 20
235.2934275775992
 30
0.0
 40
22.0
100
AcDbArc
 50
72.28019184719491
 51
107.719808152805
  0
ARC
  5
1E7
330
2
100
AcDbEntity
  8
0
 48
0.6
100
AcDbCircle
 10
28.91123527259697
 20
235.2934275775992
 30
0.0
 40
22.0
100
AcDbArc
 50
252.2801918471949
 51
287.7198081528051
  0
LINE
  5
1E8
330
2
100
AcDbEntity
  8
CEN
 48
0.6
100
AcDbLine
 10
-6.088764727403031
 20
235.2934275775992
 30
0.0
 11
63.91123527259697
 21
235.2934275775992
 31
0.0
  0
ARC
  5
1E9
330
2
100
AcDbEntity
  8
0
 48
0.6
100
AcDbCircle
 10
9.199719431449011
 20
225.523261599269
 30
0.0
 40
2.0
100
AcDbArc
 50
141.9486744806222
 51
206.3656725032168
  0
ARC
  5
1EA
330
2
100
AcDbEntity
  8
0
 48
0.6
100
AcDbCircle
 10
21.60653780504799
 20
212.4320760228999
 30
0.0
 40
2.0
100
AcDbArc
 50
72.28019184719491
 51
128.0513255193868
  0
ARC
  5
1EB
330
2
100
AcDbEntity
  8
0
 48
0.6
100
AcDbCircle
 10
19.14106929426543
 20
215.5819117364492
 30
0.0
 40
2.0
100
AcDbArc
 50
243.634327496789
 51
308.0513255193868
  0
ARC
  5
1EC
330
2
100
AcDbEntity
  8
0
 48
0.6
100
AcDbCircle
 10
28.91123527259697
 20
235.2934275775992
 30
0.0
 40
22.0
100
AcDbArc
 50
162.2801918472015
 51
197.7198081527984
  0
ARC
  5
1ED
330
2
100
AcDbEntity
  8
0
 48
0.6
100
AcDbCircle
 10
3.911235272597878
 20
210.2934275776001
 30
0.0
 40
5.0
100
AcDbArc
 50
180.0
 51
270.0
  0
LINE
  5
1EE
102
{ACAD_REACTORS
330
1D5
102
}
330
2
100
AcDbEntity
  8
0
 48
0.6
100
AcDbLine
 10
-1.08876472740485
 20
260.2934275776001
 30
0.0
 11
-1.08876472740485
 21
210.2934275776001
 31
0.0
  0
LINE
  5
1EF
330
2
100
AcDbEntity
  8
CEN
 48
0.6
100
AcDbLine
 10
7.167701751110143
 20
213.549894056113
 30
0.0
 11
1.157294111024384
 21
207.5394864160273
 31
0.0
  0
CIRCLE
  5
1F0
330
2
100
AcDbEntity
  8
0
 48
0.6
100
AcDbCircle
 10
4.162497931069083
 20
210.5446902360702
 30
0.0
 40
2.25
  0
ARC
  5
1F1
330
2
100
AcDbEntity
  8
0
 48
0.6
100
AcDbCircle
 10
3.911235272597878
 20
260.2934275776001
 30
0.0
 40
5.0
100
AcDbArc
 50
90.0
 51
180.0
  0
ARC
  5
1F2
330
2
100
AcDbEntity
  8
0
 48
0.6
100
AcDbCircle
 10
28.91123527259697
 20
235.2934275775992
 30
0.0
 40
24.0
100
AcDbArc
 50
116.3656725032109
 51
153.634327496783
  0
ARC
  5
1F3
330
2
100
AcDbEntity
  8
0
 48
0.6
100
AcDbCircle
 10
6.04988371789841
 20
242.5981250451502
 30
0.0
 40
2.0
100
AcDbArc
 50
342.2801918472014
 51
38.05132551937779
  0
ARC
  5
1F4
330
2
100
AcDbEntity
  8
0
 48
0.6
100
AcDbCircle
 10
9.199719431449011
 20
245.0635935559289
 30
0.0
 40
2.0
100
AcDbArc
 50
153.634327496783
 51
218.0513255193776
  0
ARC
  5
1F5
330
2
100
AcDbEntity
  8
0
 48
0.6
100
AcDbCircle
 10
21.60653780504799
 20
258.1547791322991
 30
0.0
 40
2.0
100
AcDbArc
 50
231.948674480613
 51
287.7198081528051
  0
ARC
  5
1F6
330
2
100
AcDbEntity
  8
0
 48
0.6
100
AcDbCircle
 10
19.14106929426543
 20
255.0049434187489
 30
0.0
 40
2.0
100
AcDbArc
 50
51.94867448061305
 51
116.3656725032109
  0
ARC
  5
1F7
330
2
100
AcDbEntity
  8
0
 48
0.6
100
AcDbCircle
 10
28.91123527259697
 20
235.2934275775992
 30
0.0
 40
24.0
100
AcDbArc
 50
206.3656725032168
 51
243.634327496789
  0
ARC
  5
1F8
330
2
100
AcDbEntity
  8
0
 48
0.6
100
AcDbCircle
 10
6.04988371789841
 20
227.9887301100482
 30
0.0
 40
2.0
100
AcDbArc
 50
321.9486744806221
 51
17.71980815279839
  0
ARC
  5
1F9
330
2
100
AcDbEntity
  8
CEN
 48
0.6
100
AcDbCircle
 10
28.91123527259697
 20
235.2934275776001
 30
0.0
 40
35.0
100
AcDbArc
 50
199.5241366191914
 51
231.1865505975711
  0
ARC
  5
1FA
330
2
100
AcDbEntity
  8
CEN
 48
0.6
100
AcDbCircle
 10
28.91123527259878
 20
235.2934275776031
 30
0.0
 40
35.0
100
AcDbArc
 50
128.038373849838
 51
141.9616261501576
  0
LINE
  5
1FB
330
2
100
AcDbEntity
  8
CEN
 48
0.6
100
AcDbLine
 10
7.167701751111962
 20
257.0369610990912
 30
0.0
 11
1.157294111027113
 21
263.0473687391761
 31
0.0
  0
CIRCLE
  5
1FC
330
2
100
AcDbEntity
  8
0
 48
0.6
100
AcDbCircle
 10
4.162497931070902
 20
260.042164919133
 30
0.0
 40
2.25
  0
ARC
  5
1FD
330
2
100
AcDbEntity
  8
0
 48
0.6
100
AcDbCircle
 10
74.95416002410275
 20
219.60398022614
 30
0.0
 40
33.95579199999999
100
AcDbArc
 50
204.9259499999998
 51
236.3981230000006
  0
ARC
  5
1FE
330
2
100
AcDbEntity
  8
0
 48
0.6
100
AcDbCircle
 10
74.95416002410275
 20
219.60398022614
 30
0.0
 40
39.15579199999999
100
AcDbArc
 50
201.4369589999971
 51
235.2486590000054
  0
ARC
  5
1FF
330
2
100
AcDbEntity
  8
0
 48
0.6
100
AcDbCircle
 10
74.95416002410275
 20
219.60398022614
 30
0.0
 40
36.555792
100
AcDbArc
 50
203.0460947298102
 51
236.3176429999981
  0
ARC
  5
200
330
2
100
AcDbEntity
  8
0
 48
0.6
100
AcDbCircle
 10
74.95416002410275
 20
219.60398022614
 30
0.0
 40
35.255792
100
AcDbArc
 50
236.3564240000014
 51
242.0987460000029
  0
ARC
  5
201
330
2
100
AcDbEntity
  8
0
 48
0.6
100
AcDbCircle
 10
54.74398302410373
 20
189.9322322261389
 30
0.0
 40
0.7499080000000001
100
AcDbArc
 50
265.1628950000044
 51
25.33442299999946
  0
ARC
  5
202
330
2
100
AcDbEntity
  8
0
 48
0.6
100
AcDbCircle
 10
56.09955502410503
 20
190.5740042261402
 30
0.0
 40
0.7499080000000001
100
AcDbArc
 50
85.16289500000455
 51
205.3344229999993
  0
ARC
  5
203
330
2
100
AcDbEntity
  8
0
 48
0.6
100
AcDbCircle
 10
54.05353902410388
 20
188.8212772261388
 30
0.0
 40
0.7499080000000001
100
AcDbArc
 50
85.16289500000455
 51
205.3344229999993
  0
ARC
  5
204
330
2
100
AcDbEntity
  8
0
 48
0.6
100
AcDbCircle
 10
57.2132320241044
 20
186.898166226139
 30
0.0
 40
0.7499080000000001
100
AcDbArc
 50
272.0129819999954
 51
32.18451000000101
  0
ARC
  5
205
330
2
100
AcDbEntity
  8
0
 48
0.6
100
AcDbCircle
 10
58.48258302410432
 20
187.6970392261389
 30
0.0
 40
0.7499080000000001
100
AcDbArc
 50
92.01298199999559
 51
212.184510000001
  0
ARC
  5
206
330
2
100
AcDbEntity
  8
0
 48
0.6
100
AcDbCircle
 10
52.69796602410497
 20
188.1795042261401
 30
0.0
 40
0.7499080000000001
100
AcDbArc
 50
265.1628950000044
 51
25.33442299999946
  0
ARC
  5
207
330
2
100
AcDbEntity
  8
0
 48
0.6
100
AcDbCircle
 10
74.95416002410275
 20
219.60398022614
 30
0.0
 40
37.855792
100
AcDbArc
 50
235.2486590000054
 51
242.0987460000029
  0
ARC
  5
208
330
2
100
AcDbEntity
  8
0
 48
0.6
100
AcDbCircle
 10
38.68140125092668
 20
215.5819117364492
 30
0.0
 40
2.0
100
AcDbArc
 50
231.948674480613
 51
296.3656725032108
  0
ARC
  5
209
330
2
100
AcDbEntity
  8
0
 48
0.6
100
AcDbCircle
 10
36.21593274014867
 20
212.4320760228999
 30
0.0
 40
2.0
100
AcDbArc
 50
51.94867448061305
 51
107.719808152805
  0
LINE
  5
20A
102
{ACAD_REACTORS
330
224
102
}
330
2
100
AcDbEntity
  8
0
  6
CENTER
 62
     1
 48
0.6
100
AcDbLine
 10
28.9112352726006
 20
235.2934275776001
 30
0.0
 11
42.20464389075914
 21
203.2003002014712
 31
0.0
  0
ARC
  5
20B
330
2
100
AcDbEntity
  8
0
 48
0.6
100
AcDbCircle
 10
53.91123527259788
 20
260.2934275776001
 30
0.0
 40
5.0
100
AcDbArc
 50
0.0
 51
90.0
  0
ARC
  5
20C
330
2
100
AcDbEntity
  8
0
 48
0.6
100
AcDbCircle
 10
51.77258682729735
 20
242.5981250451502
 30
0.0
 40
2.0
100
AcDbArc
 50
141.9486744806222
 51
197.7198081527984
  0
ARC
  5
20D
330
2
100
AcDbEntity
  8
0
 48
0.6
100
AcDbCircle
 10
48.62275111374765
 20
245.0635935559289
 30
0.0
 40
2.0
100
AcDbArc
 50
321.9486744806221
 51
26.36567250321681
  0
ARC
  5
20E
102
{ACAD_REACTORS
330
1C5
102
}
330
2
100
AcDbEntity
  8
CEN
 48
0.6
100
AcDbCircle
 10
28.91123527259697
 20
235.2934275776001
 30
0.0
 40
35.0
100
AcDbArc
 50
21.71935007261406
 51
51.18655059757116
  0
LINE
  5
20F
330
2
100
AcDbEntity
  8
CEN
 48
0.6
100
AcDbLine
 10
50.65476879408288
 20
257.036961099086
 30
0.0
 11
56.66517643416955
 21
263.047368739172
 31
0.0
  0
CIRCLE
  5
210
330
2
100
AcDbEntity
  8
0
 48
0.6
100
AcDbCircle
 10
53.65997261412758
 20
260.0421649191289
 30
0.0
 40
2.25
  0
ARC
  5
211
330
2
100
AcDbEntity
  8
0
 48
0.6
100
AcDbCircle
 10
51.77258682729735
 20
227.9887301100482
 30
0.0
 40
2.0
100
AcDbArc
 50
162.2801918472015
 51
218.0513255193776
  0
ARC
  5
212
330
2
100
AcDbEntity
  8
0
 48
0.6
100
AcDbCircle
 10
48.62275111374765
 20
225.523261599269
 30
0.0
 40
2.0
100
AcDbArc
 50
333.6343274967831
 51
38.05132551937779
  0
ARC
  5
213
330
2
100
AcDbEntity
  8
0
 48
0.6
100
AcDbCircle
 10
53.91123527259788
 20
210.2934275776001
 30
0.0
 40
5.0
100
AcDbArc
 50
270.0
 51
0.0
  0
LINE
  5
214
102
{ACAD_REACTORS
330
1D5
102
}
330
2
100
AcDbEntity
  8
0
 48
0.6
100
AcDbLine
 10
58.91123527259697
 20
260.2934275776001
 30
0.0
 11
58.91123527259697
 21
210.2934275776001
 31
0.0
  0
ARC
  5
215
330
2
100
AcDbEntity
  8
0
 48
0.6
100
AcDbCircle
 10
28.91123527259697
 20
235.2934275775992
 30
0.0
 40
22.0
100
AcDbArc
 50
342.2801918472014
 51
17.71980815279839
  0
ARC
  5
216
330
2
100
AcDbEntity
  8
0
 48
0.6
100
AcDbCircle
 10
28.91123527259697
 20
235.2934275775992
 30
0.0
 40
24.0
100
AcDbArc
 50
26.36567250321681
 51
63.63432749678904
  0
ARC
  5
217
330
2
100
AcDbEntity
  8
0
 48
0.6
100
AcDbCircle
 10
28.91123527259697
 20
235.2934275775992
 30
0.0
 40
24.0
100
AcDbArc
 50
296.3656725032108
 51
333.6343274967831
  0
LINE
  5
218
102
{ACAD_REACTORS
330
224
102
}
330
2
100
AcDbEntity
  8
CEN
 48
0.6
100
AcDbLine
 10
28.91123527259697
 20
200.2934275775992
 30
0.0
 11
28.91123527259697
 21
270.2934275775992
 31
0.0
  0
CIRCLE
  5
219
330
2
100
AcDbEntity
  8
0
 48
0.6
100
AcDbCircle
 10
28.91123527259697
 20
235.2934275775992
 30
0.0
 40
3.000000000000055
  0
CIRCLE
  5
21A
330
2
100
AcDbEntity
  8
0
 48
0.6
100
AcDbCircle
 10
28.91123527259697
 20
235.2934275775992
 30
0.0
 40
2.000000000000055
  0
ARC
  5
21B
330
2
100
AcDbEntity
  8
0
 48
0.6
100
AcDbCircle
 10
38.68140125092668
 20
255.0049434187489
 30
0.0
 40
2.0
100
AcDbArc
 50
63.63432749678904
 51
128.0513255193868
  0
ARC
  5
21C
330
2
100
AcDbEntity
  8
0
 48
0.6
100
AcDbCircle
 10
36.21593274014867
 20
258.1547791322991
 30
0.0
 40
2.0
100
AcDbArc
 50
252.2801918471949
 51
308.0513255193868
  0
ARC
  5
21D
330
2
100
AcDbEntity
  8
CEN
 48
0.6
100
AcDbCircle
 10
28.91123527259878
 20
235.2934275776031
 30
0.0
 40
35.0
100
AcDbArc
 50
308.0383738498413
 51
321.9616261501601
  0
LINE
  5
21E
330
2
100
AcDbEntity
  8
CEN
 48
0.6
100
AcDbLine
 10
50.65476879408561
 20
213.5498940561181
 30
0.0
 11
56.66517643417137
 21
207.5394864160321
 31
0.0
  0
CIRCLE
  5
21F
330
2
100
AcDbEntity
  8
0
 48
0.6
100
AcDbCircle
 10
53.65997261412758
 20
210.5446902360743
 30
0.0
 40
2.25
  0
LEADER
  5
220
330
2
100
AcDbEntity
  8
0
100
AcDbLeader
  3
STANDARD
 73
     0
 75
     1
 40
3.0
 41
26.65178571428571
 76
     3
 10
53.73843092580409
 20
261.7935332700301
 30
0.0
 10
48.73711376707797
 20
287.2233867904731
 30
0.0
 10
46.23711376707797
 20
287.2233867904731
 30
0.0
340
221
1001
ACAD
1000
DSTYLE
1002
{
1070
     5
1000

1070
    77
1070
     1
1070
   147
1040
1.0
1070
   342
1005
0
1002
}
  0
MTEXT
  5
221
102
{ACAD_REACTORS
330
220
102
}
330
2
100
AcDbEntity
  8
0
 62
     3
100
AcDbMText
 10
45.23711376707796
 20
288.223386790473
 30
0.0
 40
3.0
 41
0.0
 71
     9
 72
     1
  1
4-%%c4.5 hole
1001
ACAD
1000
MTEXTBEGIN
1070
    73
1070
     1
1070
    44
1040
1.0
1070
    74
1070
     0
1000
MTEXTEND
  0
DIMENSION
  5
222
102
{ACAD_XDICTIONARY
360
223
102
}
102
{ACAD_REACTORS
330
224
102
}
330
2
100
AcDbEntity
  8
0
 48
0.6
100
AcDbDimension
  2
*D30
 10
28.91123527259697
 20
270.2934275775992
 30
0.0
 11
38.49663626542497
 21
187.1043626184963
 31
0.0
 70
    34
  1
<>
  3
STANDARD
100
AcDb2LineAngularDimension
 13
28.9112352726006
 23
235.2934275776001
 33
0.0
 14
42.20464389075914
 24
203.20030020147
 34
0.0
 15
28.91123527259697
 25
200.2934275775992
 35
0.0
 16
35.68800622143759
 26
183.8187417719501
 36
0.0
1001
ACAD
1000
DSTYLE
1002
{
1070
   271
1070
     1
1070
   271
1070
     1
1070
   271
1070
     1
1070
   271
1070
     1
1070
   271
1070
     1
1070
   271
1070
     1
1070
   271
1070
     1
1070
   271
1070
     1
1070
   271
1070
     1
1070
   271
1070
     1
1070
   271
1070
     1
1070
   271
1070
     1
1070
   271
1070
     1
1070
   271
1070
     1
1070
   271
1070
     1
1070
   271
1070
     1
1070
   271
1070
     1
1070
   271
1070
     1
1070
   271
1070
     1
1070
   271
1070
     1
1070
   271
1070
     1
1070
   271
1070
     1
1070
   271
1070
     1
1070
   271
1070
     1
1070
   271
1070
     1
1070
   271
1070
     1
1070
   271
1070
     1
1070
   271
1070
     1
1070
   271
1070
     1
1070
   271
1070
     1
1070
   271
1070
     1
1070
   271
1070
     1
1070
   271
1070
     1
1070
   271
1070
     1
1070
   271
1070
     1
1070
   271
1070
     1
1070
   271
1070
     1
1070
   271
1070
     1
1070
   271
1070
     1
1070
   271
1070
     1
1070
   271
1070
     1
1070
   271
1070
     1
1070
   271
1070
     1
1070
   271
1070
     1
1070
   271
1070
     1
1070
   271
1070
     1
1070
   271
1070
     1
1070
   271
1070
     1
1070
   271
1070
     1
1070
   271
1070
     1
1070
   271
1070
     1
1070
   271
1070
     1
1070
   271
1070
     1
1070
   271
1070
     1
1070
   271
1070
     1
1070
   271
1070
     1
1070
   271
1070
     1
1070
   271
1070
     1
1070
   271
1070
     1
1070
   271
1070
     1
1070
   271
1070
     1
1070
   271
1070
     1
1070
   271
1070
     1
1070
   271
1070
     1
1070
   271
1070
     1
1070
   271
1070
     1
1070
   271
1070
     1
1070
   271
1070
     1
1070
   271
1070
     1
1070
   271
1070
     1
1070
   271
1070
     1
1070
   271
1070
     1
1070
   271
1070
     1
1070
   271
1070
     1
1070
   271
1070
     1
1070
   271
1070
     1
1070
   271
1070
     1
1070
   271
1070
     1
1070
   271
1070
     1
1070
   271
1070
     1
1070
   271
1070
     1
1070
   271
1070
     1
1070
   271
1070
     1
1070
   271
1070
     1
1070
   271
1070
     1
1070
   271
1070
     1
1070
   271
1070
     1
1070
   271
1070
     1
1070
   271
1070
     1
1070
   271
1070
     1
1070
   271
1070
     1
1070
   271
1070
     1
1070
   271
1070
     1
1070
   271
1070
     1
1070
   271
1070
     1
1070
   271
1070
     1
1070
   271
1070
     1
1070
   271
1070
     1
1070
   271
1070
     1
1002
}
  0
ARC
  5
233
330
2
100
AcDbEntity
  8
0
 48
0.6
100
AcDbCircle
 10
177.5310710941603
 20
204.2047815776002
 30
0.0
 40
39.15579199999999
100
AcDbArc
 50
179.8702869999971
 51
212.7486590000019
  0
ARC
  5
234
330
2
100
AcDbEntity
  8
0
 48
0.6
100
AcDbCircle
 10
177.5310710941603
 20
204.2047815776002
 30
0.0
 40
33.95579199999999
100
AcDbArc
 50
179.8504230000004
 51
213.8981229999992
  0
ARC
  5
235
330
2
100
AcDbEntity
  8
0
 48
0.6
100
AcDbCircle
 10
177.5310710941603
 20
204.2047815776002
 30
0.0
 40
36.555792
100
AcDbArc
 50
179.8610604128478
 51
213.8176429999978
  0
ARC
  5
236
330
2
100
AcDbEntity
  8
0
 48
0.6
100
AcDbCircle
 10
258.7263128189624
 20
204.2047815776002
 30
0.0
 40
33.95579199999999
100
AcDbArc
 50
179.8504230000004
 51
213.8981229999992
  0
ARC
  5
237
330
2
100
AcDbEntity
  8
0
 48
0.6
100
AcDbCircle
 10
258.7263128189624
 20
204.2047815776002
 30
0.0
 40
39.15579199999999
100
AcDbArc
 50
179.8702869999971
 51
212.7486590000019
  0
ARC
  5
238
330
2
100
AcDbEntity
  8
0
 48
0.6
100
AcDbCircle
 10
258.7263128189624
 20
204.2047815776002
 30
0.0
 40
36.555792
100
AcDbArc
 50
179.8610604128478
 51
213.8176429999978
  0
ARC
  5
239
330
2
100
AcDbEntity
  8
0
 48
0.6
100
AcDbCircle
 10
177.5320102672567
 20
204.167244822474
 30
0.0
 40
37.855792
100
AcDbArc
 50
212.7486590000019
 51
219.5987459999966
  0
ARC
  5
23A
330
2
100
AcDbEntity
  8
0
 48
0.6
100
AcDbCircle
 10
150.1039992672558
 20
180.9924748224741
 30
0.0
 40
0.7499080000000001
100
AcDbArc
 50
69.51298200000024
 51
189.6845099999992
  0
ARC
  5
23B
330
2
100
AcDbEntity
  8
0
 48
0.6
100
AcDbCircle
 10
148.6255572672562
 20
180.7401718224732
 30
0.0
 40
0.7499080000000001
100
AcDbArc
 50
249.5129820000002
 51
9.684509999999278
  0
ARC
  5
23C
330
2
100
AcDbEntity
  8
0
 48
0.6
100
AcDbCircle
 10
177.5320102672567
 20
204.167244822474
 30
0.0
 40
35.255792
100
AcDbArc
 50
213.8564239999994
 51
219.5987459999966
  0
ARC
  5
23D
330
2
100
AcDbEntity
  8
0
 48
0.6
100
AcDbCircle
 10
146.4413840941606
 20
183.7635935775993
 30
0.0
 40
0.7499080000000001
100
AcDbArc
 50
62.66289500000094
 51
182.8344229999968
  0
ARC
  5
23E
330
2
100
AcDbEntity
  8
0
 48
0.6
100
AcDbCircle
 10
144.9434030941602
 20
183.6894275775991
 30
0.0
 40
0.7499080000000001
100
AcDbArc
 50
242.6628950000009
 51
2.834422999996808
  0
ARC
  5
23F
330
2
100
AcDbEntity
  8
0
 48
0.6
100
AcDbCircle
 10
149.002397094161
 20
184.5999265775992
 30
0.0
 40
0.7499080000000001
100
AcDbArc
 50
62.66289500000094
 51
182.8344229999968
  0
ARC
  5
240
330
2
100
AcDbEntity
  8
0
 48
0.6
100
AcDbCircle
 10
147.5044150941612
 20
184.5257605776
 30
0.0
 40
0.7499080000000001
100
AcDbArc
 50
242.6628950000009
 51
2.834422999996808
  0
ARC
  5
241
330
2
100
AcDbEntity
  8
0
 48
0.6
100
AcDbCircle
 10
226.1386448189614
 20
183.6894275775991
 30
0.0
 40
0.7499080000000001
100
AcDbArc
 50
242.6628950000009
 51
2.834422999996808
  0
ARC
  5
242
330
2
100
AcDbEntity
  8
0
 48
0.6
100
AcDbCircle
 10
227.6366258189645
 20
183.7635935775993
 30
0.0
 40
0.7499080000000001
100
AcDbArc
 50
62.66289500000094
 51
182.8344229999968
  0
ARC
  5
243
330
2
100
AcDbEntity
  8
0
 48
0.6
100
AcDbCircle
 10
228.6996568189624
 20
184.5257605776
 30
0.0
 40
0.7499080000000001
100
AcDbArc
 50
242.6628950000009
 51
2.834422999996808
  0
ARC
  5
244
330
2
100
AcDbEntity
  8
0
 48
0.6
100
AcDbCircle
 10
230.197638818965
 20
184.5999265775992
 30
0.0
 40
0.7499080000000001
100
AcDbArc
 50
62.66289500000094
 51
182.8344229999968
  0
LINE
  5
245
330
2
100
AcDbEntity
  8
0
 48
0.6
100
AcDbLine
 10
243.2283490941608
 20
205.2934275776001
 30
0.0
 11
135.3283490941612
 21
205.2934275776001
 31
0.0
  0
DIMENSION
  5
246
102
{ACAD_XDICTIONARY
360
247
102
}
102
{ACAD_REACTORS
330
248
102
}
330
2
100
AcDbEntity
  8
0
100
AcDbDimension
  2
*D37
 10
244.2283490941645
 20
290.5111557468201
 30
0.0
 11
186.7283490941627
 21
290.5111557468201
 31
0.0
 70
   160
  3
STANDARD
100
AcDbAlignedDimension
 13
129.2283490941626
 23
265.2934275776001
 33
0.0
 14
244.2283490941645
 24
264.2934275776001
 34
0.0
100
AcDbRotatedDimension
  0
LINE
  5
255
330
2
100
AcDbEntity
  8
0
 48
0.6
100
AcDbLine
 10
243.2283490941608
 20
265.2934275776001
 30
0.0
 11
135.3283490941612
 21
265.2934275776001
 31
0.0
  0
LINE
  5
256
330
2
100
AcDbEntity
  8
CEN
 48
0.6
100
AcDbLine
 10
112.0831875647836
 20
235.2934275775992
 30
0.0
 11
250.3146890046737
 21
235.2934275775992
 31
0.0
  0
LINE
  5
257
330
2
100
AcDbEntity
  8
0
 48
0.6
100
AcDbLine
 10
136.2283490941627
 20
256.192164919129
 30
0.0
 11
136.2283490941627
 21
263.8921649191281
 31
0.0
  0
LINE
  5
258
330
2
100
AcDbEntity
  8
0
 48
0.6
100
AcDbLine
 10
135.3283490941612
 20
265.2934275776001
 30
0.0
 11
135.3283490941612
 21
205.2934275775978
 31
0.0
  0
LINE
  5
259
102
{ACAD_REACTORS
330
287
330
248
102
}
330
2
100
AcDbEntity
  8
0
 48
0.6
100
AcDbLine
 10
129.2283490941626
 20
265.2934275776001
 30
0.0
 11
129.2283490941626
 21
205.2934275775978
 31
0.0
  0
ARC
  5
25A
330
2
100
AcDbEntity
  8
0
 48
0.6
100
AcDbCircle
 10
145.7283490941636
 20
204.7934275775992
 30
0.0
 40
0.5
100
AcDbArc
 50
270.0
 51
0.0
  0
LINE
  5
25B
330
2
100
AcDbEntity
  8
0
 48
0.6
100
AcDbLine
 10
145.7283490941636
 20
204.2934275775992
 30
0.0
 11
136.7283490941636
 21
204.2934275775992
 31
0.0
  0
LINE
  5
25C
330
2
100
AcDbEntity
  8
0
 48
0.6
100
AcDbLine
 10
136.2283490941627
 20
205.2934275775992
 30
0.0
 11
136.2283490941627
 21
204.7934275775992
 31
0.0
  0
ARC
  5
25D
330
2
100
AcDbEntity
  8
0
 48
0.6
100
AcDbCircle
 10
136.7283490941636
 20
204.7934275775992
 30
0.0
 40
0.5
100
AcDbArc
 50
180.0
 51
270.0
  0
LINE
  5
25E
330
2
100
AcDbEntity
  8
0
 48
0.6
100
AcDbLine
 10
146.2283490941626
 20
205.2934275775992
 30
0.0
 11
146.2283490941626
 21
204.7934275775992
 31
0.0
  0
LINE
  5
25F
330
2
100
AcDbEntity
  8
0
 48
0.6
100
AcDbLine
 10
135.3283490941612
 20
256.192164919129
 30
0.0
 11
136.2283490941627
 21
256.192164919129
 31
0.0
  0
LINE
  5
260
330
2
100
AcDbEntity
  8
0
 48
0.6
100
AcDbLine
 10
136.2283490941627
 20
214.3946902360703
 30
0.0
 11
136.2283490941627
 21
206.6946902360703
 31
0.0
  0
LINE
  5
261
330
2
100
AcDbEntity
  8
0
 48
0.6
100
AcDbLine
 10
135.3283490941612
 20
206.6946902360703
 30
0.0
 11
136.2283490941627
 21
206.6946902360703
 31
0.0
  0
LINE
  5
262
330
2
100
AcDbEntity
  8
0
 48
0.6
100
AcDbLine
 10
129.2283490941626
 20
205.2934275775978
 30
0.0
 11
135.3283490941612
 21
205.2934275775978
 31
0.0
  0
LINE
  5
263
330
2
100
AcDbEntity
  8
0
 48
0.6
100
AcDbLine
 10
135.3283490941612
 20
214.3946902360703
 30
0.0
 11
136.2283490941627
 21
214.3946902360703
 31
0.0
  0
DIMENSION
  5
264
102
{ACAD_XDICTIONARY
360
265
102
}
102
{ACAD_REACTORS
330
266
102
}
330
2
100
AcDbEntity
  8
0
 48
0.6
100
AcDbDimension
  2
*D36
 10
136.2283490941627
 20
277.6572727204993
 30
0.0
 11
132.7283490941636
 21
277.6572727204993
 31
0.0
 70
   160
  3
STANDARD
100
AcDbAlignedDimension
 13
129.2283490941626
 23
275.7252483523102
 33
0.0
 14
136.2283490941627
 24
263.8921649191281
 34
0.0
100
AcDbRotatedDimension
  0
LINE
  5
273
102
{ACAD_REACTORS
330
266
102
}
330
2
100
AcDbEntity
  8
0
 48
0.6
100
AcDbLine
 10
135.3283490941612
 20
263.8921649191281
 30
0.0
 11
136.2283490941627
 21
263.8921649191281
 31
0.0
  0
LINE
  5
274
330
2
100
AcDbEntity
  8
0
 48
0.6
100
AcDbLine
 10
129.2283490941626
 20
265.2934275776001
 30
0.0
 11
135.3283490941612
 21
265.2934275776001
 31
0.0
  0
DIMENSION
  5
275
102
{ACAD_XDICTIONARY
360
276
102
}
102
{ACAD_REACTORS
330
277
102
}
330
2
100
AcDbEntity
  8
0
 48
0.6
100
AcDbDimension
  2
*D35
 10
107.0596704950294
 20
208.2934275775992
 30
0.0
 11
107.0596704950294
 21
235.2934275775992
 31
0.0
 70
   160
  1
\A1;%%C<>{\f??|b0|i0|c0|p49;\H0.7x;\S+0^ -0.03;\H1.429x;(h7)} 
  3
STANDARD
100
AcDbAlignedDimension
 13
127.2283490941626
 23
262.2934275775992
 33
0.0
 14
127.2283490941626
 24
208.2934275775992
 34
0.0
 50
90.0
100
AcDbRotatedDimension
  0
LINE
  5
284
102
{ACAD_REACTORS
330
277
330
287
102
}
330
2
100
AcDbEntity
  8
0
 48
0.6
100
AcDbLine
 10
127.2283490941626
 20
262.2934275775992
 30
0.0
 11
127.2283490941626
 21
208.2934275775992
 31
0.0
  0
DIMENSION
  5
285
102
{ACAD_XDICTIONARY
360
286
102
}
102
{ACAD_REACTORS
330
287
102
}
330
2
100
AcDbEntity
  8
0
 48
0.6
100
AcDbDimension
  2
*D34
 10
129.2283490941626
 20
277.6572727204993
 30
0.0
 11
120.2283490941626
 21
277.6572727204993
 31
0.0
 70
   160
  3
STANDARD
100
AcDbAlignedDimension
 13
127.2283490941626
 23
262.2934275775992
 33
0.0
 14
129.2283490941626
 24
265.2934275776001
 34
0.0
100
AcDbRotatedDimension
  0
DIMENSION
  5
296
330
2
100
AcDbEntity
  8
0
 48
0.6
100
AcDbDimension
  2
*D33
 10
129.2283490941626
 20
290.5111557468192
 30
0.0
 11
122.977994375612
 21
290.5111557468192
 31
0.0
 70
   160
  3
STANDARD
100
AcDbAlignedDimension
 13
116.7276396570641
 23
237.602927577599
 33
0.0
 14
129.2283490941626
 24
265.2934275776001
 34
0.0
100
AcDbRotatedDimension
  0
LINE
  5
2A3
330
2
100
AcDbEntity
  8
0
 48
0.6
100
AcDbLine
 10
129.2283490941626
 20
262.2934275775992
 30
0.0
 11
127.2283490941626
 21
262.2934275775992
 31
0.0
  0
LINE
  5
2A4
330
2
100
AcDbEntity
  8
0
 48
0.6
100
AcDbLine
 10
129.2283490941626
 20
208.2934275775992
 30
0.0
 11
127.2283490941626
 21
208.2934275775992
 31
0.0
  0
LINE
  5
2A5
330
2
100
AcDbEntity
  8
0
100
AcDbLine
 10
208.0085711312722
 20
265.2934275776001
 30
0.0
 11
208.0085711312722
 21
205.2934275776001
 31
0.0
  0
CIRCLE
  5
2A6
330
2
100
AcDbEntity
  8
0
100
AcDbCircle
 10
210.1564063996156
 20
235.2916081795572
 30
0.0
 40
2.147836038934201
  0
LINE
  5
2A7
330
2
100
AcDbEntity
  8
0
100
AcDbLine
 10
209.3013833879085
 20
236.146631191264
 30
0.0
 11
211.0077906152355
 21
234.4402239639339
 31
0.0
  0
LINE
  5
2A8
330
2
100
AcDbEntity
  8
0
100
AcDbLine
 10
211.0114294113218
 20
236.146631191264
 30
0.0
 11
209.305022183993
 21
234.4402239639339
 31
0.0
  0
LINE
  5
2A9
330
2
100
AcDbEntity
  8
0
 48
0.6
100
AcDbLine
 10
226.923590818962
 20
204.2934275775992
 30
0.0
 11
217.9235908189621
 21
204.2934275775992
 31
0.0
  0
ARC
  5
2AA
330
2
100
AcDbEntity
  8
0
 48
0.6
100
AcDbCircle
 10
217.9235908189621
 20
204.7934275775992
 30
0.0
 40
0.5
100
AcDbArc
 50
180.0
 51
270.0
  0
LINE
  5
2AB
330
2
100
AcDbEntity
  8
0
 48
0.6
100
AcDbLine
 10
217.4235908189611
 20
205.2934275775992
 30
0.0
 11
217.4235908189611
 21
204.7934275775992
 31
0.0
  0
ARC
  5
2AC
330
2
100
AcDbEntity
  8
0
 48
0.6
100
AcDbCircle
 10
226.923590818962
 20
204.7934275775992
 30
0.0
 40
0.5
100
AcDbArc
 50
270.0
 51
0.0
  0
LINE
  5
2AD
330
2
100
AcDbEntity
  8
0
 48
0.6
100
AcDbLine
 10
227.4235908189621
 20
205.2934275775992
 30
0.0
 11
227.4235908189621
 21
204.7934275775992
 31
0.0
  0
LINE
  5
2AE
102
{ACAD_REACTORS
330
248
102
}
330
2
100
AcDbEntity
  8
0
 48
0.6
100
AcDbLine
 10
244.2283490941645
 20
264.2934275776001
 30
0.0
 11
244.2283490941645
 21
206.2934275776001
 31
0.0
  0
LINE
  5
2AF
330
2
100
AcDbEntity
  8
0
 48
0.6
100
AcDbLine
 10
243.2283490941608
 20
265.2934275776001
 30
0.0
 11
243.2283490941608
 21
205.2934275776001
 31
0.0
  0
LINE
  5
2B0
330
2
100
AcDbEntity
  8
0
 48
0.6
100
AcDbLine
 10
244.2283490941645
 20
206.2934275776001
 30
0.0
 11
243.2283490941608
 21
205.2934275776001
 31
0.0
  0
LINE
  5
2B1
102
{ACAD_REACTORS
330
248
102
}
330
2
100
AcDbEntity
  8
0
 48
0.6
100
AcDbLine
 10
244.2283490941608
 20
264.2934275776001
 30
0.0
 11
243.2283490941608
 21
265.2934275776001
 31
0.0
  0
LINE
  5
2B2
330
2
100
AcDbEntity
  8
2
100
AcDbLine
 10
123.2283490941626
 20
236.0587270392199
 30
0.0
 11
118.077273993098
 21
233.3734275776
 31
0.0
  0
LINE
  5
2B3
330
2
100
AcDbEntity
  8
2
100
AcDbLine
 10
123.2283490941626
 20
237.213427577599
 30
0.0
 11
116.7283490941617
 21
233.773382223678
 31
0.0
  0
LINE
  5
2B4
330
2
100
AcDbEntity
  8
2
100
AcDbLine
 10
121.2283490941617
 20
237.213427577599
 30
0.0
 11
116.7283490941617
 21
234.9401108926642
 31
0.0
  0
LINE
  5
2B5
330
2
100
AcDbEntity
  8
0
100
AcDbLine
 10
116.7276396570641
 20
233.3734275776
 30
0.0
 11
123.2283490941626
 21
233.3734275776
 31
0.0
  0
LINE
  5
2B6
330
2
100
AcDbEntity
  8
CEN
 48
0.6
100
AcDbLine
 10
114.7283490941626
 20
232.9839275775991
 30
0.0
 11
130.2283490941626
 21
232.9839275775991
 31
0.0
  0
LINE
  5
2B7
330
2
100
AcDbEntity
  8
0
100
AcDbLine
 10
117.2276396570641
 20
232.4734275775979
 30
0.0
 11
127.2283490941626
 21
232.4734275775993
 31
0.0
  0
LINE
  5
2B8
330
2
100
AcDbEntity
  8
0
100
AcDbLine
 10
116.7276396570641
 20
237.213427577599
 30
0.0
 11
123.2283490941626
 21
237.213427577599
 31
0.0
  0
LINE
  5
2B9
330
2
100
AcDbEntity
  8
CEN
 48
0.6
100
AcDbLine
 10
114.7283490941626
 20
237.602927577599
 30
0.0
 11
130.2283490941626
 21
237.602927577599
 31
0.0
  0
LINE
  5
2BA
330
2
100
AcDbEntity
  8
0
100
AcDbLine
 10
117.2276396570641
 20
238.1134275775991
 30
0.0
 11
127.2283490941626
 21
238.1134275776001
 31
0.0
  0
LINE
  5
2BB
330
2
100
AcDbEntity
  8
2
100
AcDbLine
 10
117.2276396570641
 20
238.1134275776001
 30
0.0
 11
117.2276396570641
 21
232.4734275775979
 31
0.0
  0
LINE
  5
2BC
330
2
100
AcDbEntity
  8
0
100
AcDbLine
 10
116.7276396570641
 20
237.6134275776
 30
0.0
 11
116.7276396570641
 21
232.9734275775992
 31
0.0
  0
LINE
  5
2BD
330
2
100
AcDbEntity
  8
0
100
AcDbLine
 10
116.7276396570641
 20
232.9734275775992
 30
0.0
 11
117.2276396570641
 21
232.4734275775979
 31
0.0
  0
LINE
  5
2BE
330
2
100
AcDbEntity
  8
0
100
AcDbLine
 10
117.2276396570641
 20
238.1134275776001
 30
0.0
 11
116.7276396570641
 21
237.6134275776
 31
0.0
  0
LINE
  5
2BF
330
2
100
AcDbEntity
  8
2
100
AcDbLine
 10
123.2283490941626
 20
237.213427577599
 30
0.0
 11
123.2283490941626
 21
233.3734275776
 31
0.0
  0
ARC
  5
2C0
330
2
100
AcDbEntity
  8
0
100
AcDbCircle
 10
121.7684768287063
 20
203.1909458079021
 30
0.0
 40
30.21776684021463
100
AcDbArc
 50
79.59038642143004
 51
87.23086447349437
  0
ARC
  5
2C1
330
2
100
AcDbEntity
  8
0
100
AcDbCircle
 10
121.7684768287063
 20
267.395909347294
 30
0.0
 40
30.21776684021192
100
AcDbArc
 50
272.7691355265055
 51
280.40961357857
  0
LEADER
  5
2C2
330
2
100
AcDbEntity
  8
0
 48
0.6
100
AcDbLeader
  3
STANDARD
 76
     2
 10
224.3435403989324
 20
189.1241360352159
 30
0.0
 10
190.8333282372195
 20
157.919134539743
 30
0.0
1001
ACAD
1000
DSTYLE
1002
{
1070
     5
1000

1070
    77
1070
     1
1070
   147
1040
1.0
1070
   342
1005
0
1002
}
  0
LINE
  5
2C3
330
2
100
AcDbEntity
  8
0
 62
   123
 48
0.6
100
AcDbLine
 10
190.8333282372195
 20
157.919134539743
 30
0.0
 11
273.4273161967867
 21
157.919134539743
 31
0.0
  0
DIMENSION
  5
2C4
330
2
100
AcDbEntity
  8
0
 48
0.6
100
AcDbDimension
  2
*D32
 10
259.8539110703277
 20
205.2934275775992
 30
0.0
 11
259.8539110703277
 21
235.2934275775992
 31
0.0
 70
   160
  1
%%C<>
  3
STANDARD
100
AcDbAlignedDimension
 13
243.2283490941608
 23
265.2934275776001
 33
0.0
 14
243.2283490941608
 24
205.2934275775992
 34
0.0
 50
90.0
100
AcDbRotatedDimension
  0
MTEXT
  5
2D1
330
2
100
AcDbEntity
  8
DIM
100
AcDbMText
 10
236.3038896995312
 20
162.0224583703961
 30
0.0
 40
3.5
 41
0.0
 71
     5
 72
     1
  1
BRAKE LEAD WIRE 300mm
1001
ACAD
1000
MTEXTBEGIN
1070
    73
1070
     1
1070
    44
1040
1.0
1070
    74
1070
     0
1000
MTEXTEND
  0
ENDSEC
  0
SECTION
  2
OBJECTS
  0
DICTIONARY
  5
9
330
0
100
AcDbDictionary
  3
ACAD_GROUP
350
98
  3
ACAD_LAYOUT
350
D
  3
ACAD_MLINESTYLE
350
99
  3
ACAD_PLOTSETTINGS
350
9A
  3
ACAD_PLOTSTYLENAME
350
8
  3
ACDBHEADERROUNDTRIPXREC
350
3D7
  3
ACDBVARIABLEDICTIONARY
350
2D2
  0
DICTIONARY
  5
15
330
14
100
AcDbDictionary
280
     1
  3
ACAD_LAYERFILTERS
360
16
  3
ACAD_LAYERSTATES
360
89
  0
DICTIONARY
  5
3
330
2
100
AcDbDictionary
280
     1
  3
ACAD_LAYOUTSELFREF
360
3F8
  0
DICTIONARY
  5
F
330
E
100
AcDbDictionary
280
     1
  3
ACAD_LAYOUTSELFREF
360
3F9
  0
DICTIONARY
  5
A7
330
A6
100
AcDbDictionary
280
     1
  3
ACAD_DIMASSOC
360
A8
  0
DICTIONARY
  5
B6
330
B5
100
AcDbDictionary
280
     1
  3
ACAD_DIMASSOC
360
B7
  0
DICTIONARY
  5
10A
330
109
100
AcDbDictionary
280
     1
  3
ACAD_DIMASSOC
360
10B
  0
DICTIONARY
  5
149
330
148
100
AcDbDictionary
280
     1
  3
ACAD_DIMASSOC
360
14A
  0
DICTIONARY
  5
16A
330
169
100
AcDbDictionary
280
     1
  3
ACAD_DIMASSOC
360
16B
  0
DICTIONARY
  5
19A
330
199
100
AcDbDictionary
280
     1
  3
ACAD_DIMASSOC
360
19B
  0
DICTIONARY
  5
1B1
330
1B0
100
AcDbDictionary
280
     1
  3
ACAD_DIMASSOC
360
1B2
  0
DICTIONARY
  5
1C4
330
1C3
100
AcDbDictionary
280
     1
  3
ACAD_DIMASSOC
360
1C5
  0
DICTIONARY
  5
1D4
330
1D3
100
AcDbDictionary
280
     1
  3
ACAD_DIMASSOC
360
1D5
  0
DICTIONARY
  5
223
330
222
100
AcDbDictionary
280
     1
  3
ACAD_DIMASSOC
360
224
  0
DICTIONARY
  5
247
330
246
100
AcDbDictionary
280
     1
  3
ACAD_DIMASSOC
360
248
  0
DICTIONARY
  5
265
330
264
100
AcDbDictionary
280
     1
  3
ACAD_DIMASSOC
360
266
  0
DICTIONARY
  5
276
330
275
100
AcDbDictionary
280
     1
  3
ACAD_DIMASSOC
360
277
  0
DICTIONARY
  5
286
330
285
100
AcDbDictionary
280
     1
  3
ACAD_DIMASSOC
360
287
  0
DICTIONARY
  5
98
102
{ACAD_REACTORS
330
9
102
}
330
9
100
AcDbDictionary
  0
DICTIONARY
  5
D
102
{ACAD_REACTORS
330
9
102
}
330
9
100
AcDbDictionary
  0
DICTIONARY
  5
99
102
{ACAD_REACTORS
330
9
102
}
330
9
100
AcDbDictionary
  3
STANDARD
350
9B
  0
DICTIONARY
  5
9A
102
{ACAD_REACTORS
330
9
102
}
330
9
100
AcDbDictionary
  0
ACDBDICTIONARYWDFLT
  5
8
102
{ACAD_REACTORS
330
9
102
}
330
9
100
AcDbDictionary
281
     1
  3
Normal
350
7
100
AcDbDictionaryWithDefault
340
7
  0
DICTIONARY
  5
3D7
102
{ACAD_REACTORS
330
9
102
}
330
9
100
AcDbDictionary
  3
CEPSNTYPE
350
3E1
  3
DIMSTYLEDATA
350
3E5
  3
FINGERPRINTGUID
350
3E2
  3
HYPERLINKBASE
350
3DA
  3
INSUNITS
350
3E0
  3
LAYOUTDICT
350
3DC
  3
LWETCUNION
350
3DF
  3
PLOTSETDICT
350
3DD
  3
PLOTSTYLNAMDICT
350
3DE
  3
PSVPSCALE
350
3E4
  3
PUCSBASE
350
3E8
  3
PUCSORGBACK
350
3EE
  3
PUCSORGBOTTOM
350
3EA
  3
PUCSORGFRONT
350
3ED
  3
PUCSORGLEFT
350
3EB
  3
PUCSORGRIGHT
350
3EC
  3
PUCSORGTOP
350
3E9
  3
PUCSORTHOREF
350
3E6
  3
PUCSORTHOVIEW
350
3E7
  3
STYLESHEET
350
3DB
  3
TSTACKALIGN
350
3D8
  3
TSTACKSIZE
350
3D9
  3
UCSBASE
350
3F1
  3
UCSORGBACK
350
3F7
  3
UCSORGBOTTOM
350
3F3
  3
UCSORGFRONT
350
3F6
  3
UCSORGLEFT
350
3F4
  3
UCSORGRIGHT
350
3F5
  3
UCSORGTOP
350
3F2
  3
UCSORTHOREF
350
3EF
  3
UCSORTHOVIEW
350
3F0
  3
VERSIONGUID
350
3E3
  0
DICTIONARY
  5
2D2
102
{ACAD_REACTORS
330
9
102
}
330
9
100
AcDbDictionary
  3
DIMASSOC
350
2D4
  3
HIDETEXT
350
2D3
  0
DICTIONARY
  5
16
102
{ACAD_REACTORS
330
15
102
}
330
15
100
AcDbDictionary
280
     1
  3
$LAYERS
360
17
  3
-_UND_0
360
18
  3
-PEGC
360
19
  3
101
360
1A
  3
102
360
1B
  3
1DUC
360
1C
  3
1EQ
360
1D
  3
1TUB
360
1E
  3
2
360
1F
  3
2000
360
20
  3
50
360
21
  3
58J
360
22
  3
65
360
23
  3
AA
360
24
  3
ACABADOS
360
25
  3
AGUA_Y_DREN
360
26
  3
AIRE
360
27
  3
ALLE_AUS
360
28
  3
ALLES_MIT_S
360
29
  3
AMARILLO
360
2A
  3
APAGADOS
360
2B
  3
ARR
360
2C
  3
BA
360
2D
  3
BACKS
360
2E
  3
BASE
360
2F
  3
BLOQ_INUTIL
360
30
  3
CADKON
360
31
  3
CARPINTERIA
360
32
  3
CERRADOS
360
33
  3
COL
360
34
  3
COLOR
360
35
  3
COLOR_250
360
36
  3
COLORES
360
37
  3
CONGELADOS
360
38
  3
CONJUNTO
360
39
  3
D1
360
3A
  3
DA_
360
3B
  3
DET-
360
3C
  3
DOR-H
360
3D
  3
EJES
360
3E
  3
ELECTRICO
360
3F
  3
F1
360
40
  3
FROZEN
360
41
  3
GRID
360
42
  3
GRIDTXT
360
43
  3
HATCH
360
44
  3
HCAD
360
45
  3
INSTALACIONES
360
46
  3
JIZNI
360
47
  3
KCK
360
48
  3
KKK
360
49
  3
LAY
360
4A
  3
LAYER-0
360
4E
  3
LAYER-1
360
4F
  3
LAYER_1_UND_0
360
4B
  3
LAYER_2_UND_0
360
4C
  3
LAYER_9_UND_0_SCHRAFFUR
360
4D
  3
LOCK
360
50
  3
LOCKED
360
51
  3
LOTES
360
52
  3
LUNAR
360
53
  3
LUNAR2
360
54
  3
M
360
55
  3
MIS_LAYERS
360
56
  3
MRKCK
360
57
  3
NECADKON
360
58
  3
NI_LH
360
59
  3
NI_RH
360
5A
  3
NUM
360
5B
  3
OFF
360
5C
  3
ON
360
5D
  3
PBASE
360
5E
  3
PEGC
360
5F
  3
PEGCT
360
60
  3
PFRAME
360
61
  3
PGRID
360
62
  3
PGRIDT
360
63
  3
PLAFONES
360
64
  3
PLANTAS
360
65
  3
PLOT
360
66
  3
PRENDIDAS
360
67
  3
PRENDIDOS
360
68
  3
PRINT
360
69
  3
PT
360
6A
  3
PTH
360
6B
  3
PVGRID
360
6C
  3
RED_DE_AGUA_POTABLE
360
6D
  3
RED_DE_ENERGIA_ELECTRICA
360
6E
  3
SEVERNI
360
6F
  3
SHIN
360
70
  3
SHOW_ALL_LAYER
360
71
  3
SIN
360
72
  3
STORAGE-CART
360
73
  3
T
360
74
  3
TEXTOS
360
75
  3
TEXTURAS
360
76
  3
TUBERIAS
360
77
  3
UNFRZ
360
78
  3
V\U+0160ECHNY_NEPOU\U+017D\U+00CDVAN\U+00C9
360
79
  3
VA
360
7A
  3
VENTILACI\U+00D3N
360
7B
  3
VYHODNI
360
7C
  3
YO
360
7D
  3
ZAPADNI
360
7E
  3
사용
360
7F
  3
신규
360
80
  3
실박스
360
81
  3
우리토목
360
82
  3
주차
360
83
  3
지상정밀
360
84
  3
쩜선
360
85
  3
플로터_작업층
360
86
  3
현재_작업층
360
87
  3
현재_잠금
360
88
  0
DICTIONARY
  5
89
102
{ACAD_REACTORS
330
15
102
}
330
15
100
AcDbDictionary
  0
XRECORD
  5
3F8
102
{ACAD_REACTORS
330
3
102
}
330
3
100
AcDbXrecord
340
2
  0
XRECORD
  5
3F9
102
{ACAD_REACTORS
330
F
102
}
330
F
100
AcDbXrecord
340
E
  0
DIMASSOC
  5
A8
102
{ACAD_REACTORS
330
A7
102
}
330
A7
100
AcDbDimAssoc
330
A6
 90
        2
 70
     0
 71
     0
  1
AcDbOsnapPointRef
 72
     3
331
CB
 73
     2
 91
        0
 40
0.0
 10
31.40574915497927
 20
60.32922550430908
 30
0.0
 75
     0
  0
DIMASSOC
  5
B7
102
{ACAD_REACTORS
330
B6
102
}
330
B6
100
AcDbDimAssoc
330
B5
 90
        3
 70
     0
 71
     0
  1
AcDbOsnapPointRef
 72
    13
331
F3
 73
     2
 91
        0
 40
0.0
 10
1.405749154979275
 20
85.32922550430908
 30
0.0
 75
     0
  1
AcDbOsnapPointRef
 72
    13
331
106
 73
     2
 91
        0
 40
0.0
 10
61.40574915497928
 20
85.32922550430908
 30
0.0
 75
     0
  0
DIMASSOC
  5
10B
102
{ACAD_REACTORS
330
10A
102
}
330
10A
100
AcDbDimAssoc
330
109
 90
       15
 70
     0
 71
     0
  1
AcDbOsnapPointRef
 72
    13
331
F1
 73
     2
 91
        0
 40
0.0
 10
31.40574915498382
 20
60.32922550430908
 30
0.0
 75
     0
  1
AcDbOsnapPointRef
 72
     1
331
F1
 73
     2
 91
        0
 40
1.0
 10
44.69915777314326
 20
28.23609812818017
 30
0.0
 75
     0
  1
AcDbOsnapPointRef
 72
    13
331
DB
 73
     2
 91
        0
 40
0.0
 10
31.40574915497927
 20
25.32922550430817
 30
0.0
 75
     0
  1
AcDbOsnapPointRef
 72
     1
331
DB
 73
     2
 91
        0
 40
1.0
 10
31.40574915497927
 20
95.32922550430816
 30
0.0
 75
     0
  0
DIMASSOC
  5
14A
102
{ACAD_REACTORS
330
149
102
}
330
149
100
AcDbDimAssoc
330
148
 90
        3
 70
     0
 71
     0
  1
AcDbOsnapPointRef
 72
    13
331
198
 73
     2
 91
        0
 40
0.0
 10
129.5559569585311
 20
87.32922550430817
 30
0.0
 75
     0
  1
AcDbOsnapPointRef
 72
    13
331
168
 73
     2
 91
        0
 40
0.0
 10
131.5559569585329
 20
90.32922550430908
 30
0.0
 75
     0
  0
DIMASSOC
  5
16B
102
{ACAD_REACTORS
330
16A
102
}
330
16A
100
AcDbDimAssoc
330
169
 90
        3
 70
     0
 71
     0
  1
AcDbOsnapPointRef
 72
    13
331
198
 73
     2
 91
        0
 40
0.0
 10
129.5559569585311
 20
87.32922550430817
 30
0.0
 75
     0
  1
AcDbOsnapPointRef
 72
     1
331
198
 73
     2
 91
        0
 40
1.0
 10
129.5559569585311
 20
33.32922550430817
 30
0.0
 75
     0
  0
DIMASSOC
  5
19B
102
{ACAD_REACTORS
330
19A
102
}
330
19A
100
AcDbDimAssoc
330
199
 90
        2
 70
     0
 71
     0
  1
AcDbOsnapPointRef
 72
     1
331
1A8
 73
     2
 91
        0
 40
1.0
 10
138.5559569585329
 20
88.9279628458371
 30
0.0
 75
     0
  0
DIMASSOC
  5
1B2
102
{ACAD_REACTORS
330
1B1
102
}
330
1B1
100
AcDbDimAssoc
330
1B0
 90
        3
 70
     0
 71
     0
  1
AcDbOsnapPointRef
 72
    13
331
168
 73
     2
 91
        0
 40
0.0
 10
131.5559569585329
 20
90.32922550430908
 30
0.0
 75
     0
  1
AcDbOsnapPointRef
 72
     6
331
12A
 73
     2
 91
        0
 40
0.0000000000000078
 10
246.5559569585311
 20
89.32922550430907
 30
0.0
332
147
 74
     2
 92
        0
 75
     0
  0
DIMASSOC
  5
1C5
102
{ACAD_REACTORS
330
1C4
102
}
330
1C4
100
AcDbDimAssoc
330
1C3
 90
        2
 70
     0
 71
     0
  1
AcDbOsnapPointRef
 72
     3
331
20E
 73
     2
 91
        0
 40
0.0
 10
28.91123527259697
 20
235.2934275776001
 30
0.0
 75
     0
  0
DIMASSOC
  5
1D5
102
{ACAD_REACTORS
330
1D4
102
}
330
1D4
100
AcDbDimAssoc
330
1D3
 90
        3
 70
     0
 71
     0
  1
AcDbOsnapPointRef
 72
    13
331
1EE
 73
     2
 91
        0
 40
0.0
 10
-1.08876472740485
 20
260.2934275776001
 30
0.0
 75
     0
  1
AcDbOsnapPointRef
 72
    13
331
214
 73
     2
 91
        0
 40
0.0
 10
58.91123527259697
 20
260.2934275776001
 30
0.0
 75
     0
  0
DIMASSOC
  5
224
102
{ACAD_REACTORS
330
223
102
}
330
223
100
AcDbDimAssoc
330
222
 90
       15
 70
     0
 71
     0
  1
AcDbOsnapPointRef
 72
    13
331
20A
 73
     2
 91
        0
 40
0.0
 10
28.9112352726006
 20
235.2934275776001
 30
0.0
 75
     0
  1
AcDbOsnapPointRef
 72
     1
331
20A
 73
     2
 91
        0
 40
1.0
 10
42.20464389075914
 20
203.2003002014712
 30
0.0
 75
     0
  1
AcDbOsnapPointRef
 72
    13
331
218
 73
     2
 91
        0
 40
0.0
 10
28.91123527259697
 20
200.2934275775992
 30
0.0
 75
     0
  1
AcDbOsnapPointRef
 72
     1
331
218
 73
     2
 91
        0
 40
1.0
 10
28.91123527259697
 20
270.2934275775992
 30
0.0
 75
     0
  0
DIMASSOC
  5
248
102
{ACAD_REACTORS
330
247
102
}
330
247
100
AcDbDimAssoc
330
246
 90
        3
 70
     0
 71
     0
  1
AcDbOsnapPointRef
 72
    13
331
259
 73
     2
 91
        0
 40
0.0
 10
129.2283490941626
 20
265.2934275776001
 30
0.0
 75
     0
  1
AcDbOsnapPointRef
 72
     6
331
2AE
 73
     2
 91
        0
 40
0.0000000000000078
 10
244.2283490941645
 20
264.2934275775965
 30
0.0
332
2B1
 74
     2
 92
        0
 75
     0
  0
DIMASSOC
  5
266
102
{ACAD_REACTORS
330
265
102
}
330
265
100
AcDbDimAssoc
330
264
 90
        2
 70
     0
 71
     0
  1
AcDbOsnapPointRef
 72
     1
331
273
 73
     2
 91
        0
 40
1.0
 10
136.2283490941627
 20
263.8921649191281
 30
0.0
 75
     0
  0
DIMASSOC
  5
277
102
{ACAD_REACTORS
330
276
102
}
330
276
100
AcDbDimAssoc
330
275
 90
        3
 70
     0
 71
     0
  1
AcDbOsnapPointRef
 72
    13
331
284
 73
     2
 91
        0
 40
0.0
 10
127.2283490941626
 20
262.2934275775992
 30
0.0
 75
     0
  1
AcDbOsnapPointRef
 72
     1
331
284
 73
     2
 91
        0
 40
1.0
 10
127.2283490941626
 20
208.2934275775992
 30
0.0
 75
     0
  0
DIMASSOC
  5
287
102
{ACAD_REACTORS
330
286
102
}
330
286
100
AcDbDimAssoc
330
285
 90
        3
 70
     0
 71
     0
  1
AcDbOsnapPointRef
 72
    13
331
284
 73
     2
 91
        0
 40
0.0
 10
127.2283490941626
 20
262.2934275775992
 30
0.0
 75
     0
  1
AcDbOsnapPointRef
 72
    13
331
259
 73
     2
 91
        0
 40
0.0
 10
129.2283490941626
 20
265.2934275776001
 30
0.0
 75
     0
  0
MLINESTYLE
  5
9B
102
{ACAD_REACTORS
330
99
102
}
330
99
100
AcDbMlineStyle
  2
STANDARD
 70
     0
  3

 62
   256
 51
90.0
 52
90.0
 71
     2
 49
0.5
 62
   256
  6
BYLAYER
 49
-0.5
 62
   256
  6
BYLAYER
  0
ACDBPLACEHOLDER
  5
7
102
{ACAD_REACTORS
330
8
102
}
330
8
100
AcDbPlaceHolder
280
     0
  0
XRECORD
  5
3E1
102
{ACAD_REACTORS
330
3D7
102
}
330
3D7
100
AcDbXrecord
 90
        0
  0
XRECORD
  5
3E5
102
{ACAD_REACTORS
330
3D7
102
}
330
3D7
100
AcDbXrecord
1000
DSTYLE
1002
{
1070
    79
 70
     2
1070
   179
 70
     1
1070
   289
 70
     0
1002
}
  0
XRECORD
  5
3E2
102
{ACAD_REACTORS
330
3D7
102
}
330
3D7
100
AcDbXrecord
  1
{FDEAD578-A652-11D2-9A35-0060089B3A3F}
  0
XRECORD
  5
3DA
102
{ACAD_REACTORS
330
3D7
102
}
330
3D7
100
AcDbXrecord
  1

  0
XRECORD
  5
3E0
102
{ACAD_REACTORS
330
3D7
102
}
330
3D7
100
AcDbXrecord
 90
        4
  0
XRECORD
  5
3DC
102
{ACAD_REACTORS
330
3D7
102
}
330
3D7
100
AcDbXrecord
340
D
  0
XRECORD
  5
3DF
102
{ACAD_REACTORS
330
3D7
102
}
330
3D7
100
AcDbXrecord
 90
    10781
  0
XRECORD
  5
3DD
102
{ACAD_REACTORS
330
3D7
102
}
330
3D7
100
AcDbXrecord
340
9A
  0
XRECORD
  5
3DE
102
{ACAD_REACTORS
330
3D7
102
}
330
3D7
100
AcDbXrecord
340
8
  0
XRECORD
  5
3E4
102
{ACAD_REACTORS
330
3D7
102
}
330
3D7
100
AcDbXrecord
 40
0.0
  0
XRECORD
  5
3E8
102
{ACAD_REACTORS
330
3D7
102
}
330
3D7
100
AcDbXrecord
340
0
  0
XRECORD
  5
3EE
102
{ACAD_REACTORS
330
3D7
102
}
330
3D7
100
AcDbXrecord
 10
0.0
 20
0.0
 30
0.0
  0
XRECORD
  5
3EA
102
{ACAD_REACTORS
330
3D7
102
}
330
3D7
100
AcDbXrecord
 10
0.0
 20
0.0
 30
0.0
  0
XRECORD
  5
3ED
102
{ACAD_REACTORS
330
3D7
102
}
330
3D7
100
AcDbXrecord
 10
0.0
 20
0.0
 30
0.0
  0
XRECORD
  5
3EB
102
{ACAD_REACTORS
330
3D7
102
}
330
3D7
100
AcDbXrecord
 10
0.0
 20
0.0
 30
0.0
  0
XRECORD
  5
3EC
102
{ACAD_REACTORS
330
3D7
102
}
330
3D7
100
AcDbXrecord
 10
0.0
 20
0.0
 30
0.0
  0
XRECORD
  5
3E9
102
{ACAD_REACTORS
330
3D7
102
}
330
3D7
100
AcDbXrecord
 10
0.0
 20
0.0
 30
0.0
  0
XRECORD
  5
3E6
102
{ACAD_REACTORS
330
3D7
102
}
330
3D7
100
AcDbXrecord
340
0
  0
XRECORD
  5
3E7
102
{ACAD_REACTORS
330
3D7
102
}
330
3D7
100
AcDbXrecord
 70
     0
  0
XRECORD
  5
3DB
102
{ACAD_REACTORS
330
3D7
102
}
330
3D7
100
AcDbXrecord
  1

  0
XRECORD
  5
3D8
102
{ACAD_REACTORS
330
3D7
102
}
330
3D7
100
AcDbXrecord
 90
        1
  0
XRECORD
  5
3D9
102
{ACAD_REACTORS
330
3D7
102
}
330
3D7
100
AcDbXrecord
 90
       70
  0
XRECORD
  5
3F1
102
{ACAD_REACTORS
330
3D7
102
}
330
3D7
100
AcDbXrecord
340
0
  0
XRECORD
  5
3F7
102
{ACAD_REACTORS
330
3D7
102
}
330
3D7
100
AcDbXrecord
 10
0.0
 20
0.0
 30
0.0
  0
XRECORD
  5
3F3
102
{ACAD_REACTORS
330
3D7
102
}
330
3D7
100
AcDbXrecord
 10
0.0
 20
0.0
 30
0.0
  0
XRECORD
  5
3F6
102
{ACAD_REACTORS
330
3D7
102
}
330
3D7
100
AcDbXrecord
 10
0.0
 20
0.0
 30
0.0
  0
XRECORD
  5
3F4
102
{ACAD_REACTORS
330
3D7
102
}
330
3D7
100
AcDbXrecord
 10
0.0
 20
0.0
 30
0.0
  0
XRECORD
  5
3F5
102
{ACAD_REACTORS
330
3D7
102
}
330
3D7
100
AcDbXrecord
 10
0.0
 20
0.0
 30
0.0
  0
XRECORD
  5
3F2
102
{ACAD_REACTORS
330
3D7
102
}
330
3D7
100
AcDbXrecord
 10
0.0
 20
0.0
 30
0.0
  0
XRECORD
  5
3EF
102
{ACAD_REACTORS
330
3D7
102
}
330
3D7
100
AcDbXrecord
340
0
  0
XRECORD
  5
3F0
102
{ACAD_REACTORS
330
3D7
102
}
330
3D7
100
AcDbXrecord
 70
     0
  0
XRECORD
  5
3E3
102
{ACAD_REACTORS
330
3D7
102
}
330
3D7
100
AcDbXrecord
  1
{94C68545-71AF-4F52-A992-DCB601818166}
  0
DICTIONARYVAR
  5
2D4
102
{ACAD_REACTORS
330
2D2
102
}
330
2D2
100
DictionaryVariables
280
     0
  1
2
  0
DICTIONARYVAR
  5
2D3
102
{ACAD_REACTORS
330
2D2
102
}
330
2D2
100
DictionaryVariables
280
     0
  1
1
  0
XRECORD
  5
17
102
{ACAD_REACTORS
330
16
102
}
330
16
100
AcDbXrecord
  1
$layers
  1
*
  1
*
  1
*
 70
     0
  1
*
  1
*
  0
XRECORD
  5
18
102
{ACAD_REACTORS
330
16
102
}
330
16
100
AcDbXrecord
  1
- und 0
  1
-*,0
  1
*
  1
*
 70
     0
  1
*
  1
*
  0
XRECORD
  5
19
102
{ACAD_REACTORS
330
16
102
}
330
16
100
AcDbXrecord
  1
-pegc
  1
*-pegc
  1
*
  1
*
 70
     0
  1
*
  1
*
  0
XRECORD
  5
1A
102
{ACAD_REACTORS
330
16
102
}
330
16
100
AcDbXrecord
  1
101
  1
*101
  1
*
  1
*
 70
   256
  1
*
  1
*
  0
XRECORD
  5
1B
102
{ACAD_REACTORS
330
16
102
}
330
16
100
AcDbXrecord
  1
102
  1
102*
  1
*
  1
*
 70
     0
  1
*
  1
*
  0
XRECORD
  5
1C
102
{ACAD_REACTORS
330
16
102
}
330
16
100
AcDbXrecord
  1
1duc
  1
*1duc*
  1
*
  1
*
 70
     0
  1
*
  1
*
  0
XRECORD
  5
1D
102
{ACAD_REACTORS
330
16
102
}
330
16
100
AcDbXrecord
  1
1eq
  1
*1eq*
  1
*
  1
*
 70
     0
  1
*
  1
*
  0
XRECORD
  5
1E
102
{ACAD_REACTORS
330
16
102
}
330
16
100
AcDbXrecord
  1
1tub
  1
*1t*
  1
*
  1
*
 70
     0
  1
*
  1
*
  0
XRECORD
  5
1F
102
{ACAD_REACTORS
330
16
102
}
330
16
100
AcDbXrecord
  1
2
  1
*
  1
2
  1
*
 70
     0
  1
*
  1
*
  0
XRECORD
  5
20
102
{ACAD_REACTORS
330
16
102
}
330
16
100
AcDbXrecord
  1
2000
  1
2000*
  1
*
  1
*
 70
     0
  1
*
  1
*
  0
XRECORD
  5
21
102
{ACAD_REACTORS
330
16
102
}
330
16
100
AcDbXrecord
  1
50
  1
*-50
  1
*
  1
*
 70
     0
  1
*
  1
*
  0
XRECORD
  5
22
102
{ACAD_REACTORS
330
16
102
}
330
16
100
AcDbXrecord
  1
58J
  1
*58*
  1
*
  1
*
 70
     0
  1
*
  1
*
  0
XRECORD
  5
23
102
{ACAD_REACTORS
330
16
102
}
330
16
100
AcDbXrecord
  1
65
  1
*65
  1
*
  1
*
 70
     0
  1
*
  1
*
  0
XRECORD
  5
24
102
{ACAD_REACTORS
330
16
102
}
330
16
100
AcDbXrecord
  1
aa
  1
aa*
  1
*
  1
*
 70
     0
  1
*
  1
*
  0
XRECORD
  5
25
102
{ACAD_REACTORS
330
16
102
}
330
16
100
AcDbXrecord
  1
acabados
  1
a-*
  1
*
  1
*
 70
     5
  1
*
  1
*
  0
XRECORD
  5
26
102
{ACAD_REACTORS
330
16
102
}
330
16
100
AcDbXrecord
  1
AGUA Y DREN
  1
A-DS-*
  1
*
  1
*
 70
     0
  1
*
  1
*
  0
XRECORD
  5
27
102
{ACAD_REACTORS
330
16
102
}
330
16
100
AcDbXrecord
  1
Aire
  1
*
  1
*
  1
*
 70
     0
  1
*
  1
*
  0
XRECORD
  5
28
102
{ACAD_REACTORS
330
16
102
}
330
16
100
AcDbXrecord
  1
alle aus
  1
99999999999
  1
*
  1
*
 70
     0
  1
*
  1
*
  0
XRECORD
  5
29
102
{ACAD_REACTORS
330
16
102
}
330
16
100
AcDbXrecord
  1
Alles mit S
  1
s*
  1
*
  1
*
 70
     0
  1
*
  1
*
  0
XRECORD
  5
2A
102
{ACAD_REACTORS
330
16
102
}
330
16
100
AcDbXrecord
  1
amarillo
  1
*
  1
yellow
  1
*
 70
     0
  1
*
  1
*
  0
XRECORD
  5
2B
102
{ACAD_REACTORS
330
16
102
}
330
16
100
AcDbXrecord
  1
APAGADOS
  1
*
  1
*
  1
*
 70
     4
  1
*
  1
*
  0
XRECORD
  5
2C
102
{ACAD_REACTORS
330
16
102
}
330
16
100
AcDbXrecord
  1
ARR
  1
ARR*
  1
*
  1
*
 70
     0
  1
*
  1
*
  0
XRECORD
  5
2D
102
{ACAD_REACTORS
330
16
102
}
330
16
100
AcDbXrecord
  1
ba
  1
*
  1
*
  1
*
 70
     0
  1
*
  1
*
  0
XRECORD
  5
2E
102
{ACAD_REACTORS
330
16
102
}
330
16
100
AcDbXrecord
  1
BACKS
  1
*-H
  1
*
  1
*
 70
     0
  1
*
  1
*
  0
XRECORD
  5
2F
102
{ACAD_REACTORS
330
16
102
}
330
16
100
AcDbXrecord
  1
BASE
  1
*-PBASE
  1
*
  1
*
 70
     0
  1
*
  1
*
  0
XRECORD
  5
30
102
{ACAD_REACTORS
330
16
102
}
330
16
100
AcDbXrecord
  1
BLOQ_INUTIL
  1
*
  1
*
  1
*
 70
     0
  1
*
  1
*
  0
XRECORD
  5
31
102
{ACAD_REACTORS
330
16
102
}
330
16
100
AcDbXrecord
  1
CADKON
  1
?[KAHBSM]?????[23M],?[KAHBSM]?????[23M][1456A-DGHILN-SU-Z]
  1
*
  1
*
 70
     0
  1
*
  1
*
  0
XRECORD
  5
32
102
{ACAD_REACTORS
330
16
102
}
330
16
100
AcDbXrecord
  1
carpinteria
  1
carp*
  1
*
  1
*
 70
     0
  1
*
  1
*
  0
XRECORD
  5
33
102
{ACAD_REACTORS
330
16
102
}
330
16
100
AcDbXrecord
  1
cerrados
  1
*
  1
*
  1
*
 70
   256
  1
*
  1
*
  0
XRECORD
  5
34
102
{ACAD_REACTORS
330
16
102
}
330
16
100
AcDbXrecord
  1
COL
  1
*
  1
*
  1
*
 70
     1
  1
*
  1
*
  0
XRECORD
  5
35
102
{ACAD_REACTORS
330
16
102
}
330
16
100
AcDbXrecord
  1
COLOR
  1
*
  1
253
  1
*
 70
     0
  1
*
  1
*
  0
XRECORD
  5
36
102
{ACAD_REACTORS
330
16
102
}
330
16
100
AcDbXrecord
  1
color 250
  1
*
  1
250
  1
*
 70
     0
  1
*
  1
*
  0
XRECORD
  5
37
102
{ACAD_REACTORS
330
16
102
}
330
16
100
AcDbXrecord
  1
COLORES
  1
*
  1
6
  1
*
 70
     0
  1
*
  1
*
  0
XRECORD
  5
38
102
{ACAD_REACTORS
330
16
102
}
330
16
100
AcDbXrecord
  1
Congelados
  1
*
  1
*
  1
*
 70
     4
  1
*
  1
*
  0
XRECORD
  5
39
102
{ACAD_REACTORS
330
16
102
}
330
16
100
AcDbXrecord
  1
CONJUNTO
  1
CON-*
  1
*
  1
*
 70
     0
  1
*
  1
*
  0
XRECORD
  5
3A
102
{ACAD_REACTORS
330
16
102
}
330
16
100
AcDbXrecord
  1
d1
  1
achurados
  1
*
  1
*
 70
     0
  1
*
  1
*
  0
XRECORD
  5
3B
102
{ACAD_REACTORS
330
16
102
}
330
16
100
AcDbXrecord
  1
DA_
  1
DA*
  1
*
  1
*
 70
     0
  1
*
  1
*
  0
XRECORD
  5
3C
102
{ACAD_REACTORS
330
16
102
}
330
16
100
AcDbXrecord
  1
DET-
  1
*
  1
*
  1
*
 70
     0
  1
*
  1
*
  0
XRECORD
  5
3D
102
{ACAD_REACTORS
330
16
102
}
330
16
100
AcDbXrecord
  1
DOR-H
  1
*
  1
7
  1
*
 70
     0
  1
*
  1
*
  0
XRECORD
  5
3E
102
{ACAD_REACTORS
330
16
102
}
330
16
100
AcDbXrecord
  1
ejes
  1
eje*
  1
*
  1
*
 70
     0
  1
*
  1
*
  0
XRECORD
  5
3F
102
{ACAD_REACTORS
330
16
102
}
330
16
100
AcDbXrecord
  1
ELECTRICO
  1
ELEC-*
  1
*
  1
*
 70
     0
  1
*
  1
*
  0
XRECORD
  5
40
102
{ACAD_REACTORS
330
16
102
}
330
16
100
AcDbXrecord
  1
F1
  1
Halaxref*
  1
*
  1
*
 70
     0
  1
*
  1
*
  0
XRECORD
  5
41
102
{ACAD_REACTORS
330
16
102
}
330
16
100
AcDbXrecord
  1
frozen
  1
*
  1
*
  1
*
 70
     4
  1
*
  1
*
  0
XRECORD
  5
42
102
{ACAD_REACTORS
330
16
102
}
330
16
100
AcDbXrecord
  1
grid
  1
*-PGRID
  1
*
  1
*
 70
     1
  1
*
  1
*
  0
XRECORD
  5
43
102
{ACAD_REACTORS
330
16
102
}
330
16
100
AcDbXrecord
  1
GRIDTXT
  1
*-PGRIDT
  1
*
  1
*
 70
     0
  1
*
  1
*
  0
XRECORD
  5
44
102
{ACAD_REACTORS
330
16
102
}
330
16
100
AcDbXrecord
  1
HATCH
  1
HAT*
  1
*
  1
*
 70
     0
  1
*
  1
*
  0
XRECORD
  5
45
102
{ACAD_REACTORS
330
16
102
}
330
16
100
AcDbXrecord
  1
HCAD
  1
1HCAD-*
  1
*
  1
*
 70
    13
  1
*
  1
*
  0
XRECORD
  5
46
102
{ACAD_REACTORS
330
16
102
}
330
16
100
AcDbXrecord
  1
INSTALACIONES
  1
I-*
  1
*
  1
*
 70
     0
  1
*
  1
*
  0
XRECORD
  5
47
102
{ACAD_REACTORS
330
16
102
}
330
16
100
AcDbXrecord
  1
JIZNI
  1
*-J
  1
*
  1
*
 70
     0
  1
*
  1
*
  0
XRECORD
  5
48
102
{ACAD_REACTORS
330
16
102
}
330
16
100
AcDbXrecord
  1
kck
  1
*
  1
*
  1
*
 70
     0
  1
*
  1
*
  0
XRECORD
  5
49
102
{ACAD_REACTORS
330
16
102
}
330
16
100
AcDbXrecord
  1
kkk
  1
k
  1
*
  1
*
 70
     0
  1
*
  1
*
  0
XRECORD
  5
4A
102
{ACAD_REACTORS
330
16
102
}
330
16
100
AcDbXrecord
  1
lay
  1
??-*
  1
*
  1
*
 70
     0
  1
*
  1
*
  0
XRECORD
  5
4E
102
{ACAD_REACTORS
330
16
102
}
330
16
100
AcDbXrecord
  1
Layer-0
  1
0*
  1
*
  1
*
 70
     0
  1
*
  1
*
  0
XRECORD
  5
4F
102
{ACAD_REACTORS
330
16
102
}
330
16
100
AcDbXrecord
  1
Layer-1
  1
1*
  1
*
  1
*
 70
     0
  1
*
  1
*
  0
XRECORD
  5
4B
102
{ACAD_REACTORS
330
16
102
}
330
16
100
AcDbXrecord
  1
Layer 1 und 0
  1
1*,0
  1
*
  1
*
 70
     0
  1
*
  1
*
  0
XRECORD
  5
4C
102
{ACAD_REACTORS
330
16
102
}
330
16
100
AcDbXrecord
  1
Layer 2 und 0
  1
2*,0
  1
*
  1
*
 70
     0
  1
*
  1
*
  0
XRECORD
  5
4D
102
{ACAD_REACTORS
330
16
102
}
330
16
100
AcDbXrecord
  1
Layer 9 und 0 Schraffur
  1
9*,0
  1
*
  1
*
 70
     0
  1
*
  1
*
  0
XRECORD
  5
50
102
{ACAD_REACTORS
330
16
102
}
330
16
100
AcDbXrecord
  1
LOCK
  1
*
  1
*
  1
*
 70
   256
  1
*
  1
*
  0
XRECORD
  5
51
102
{ACAD_REACTORS
330
16
102
}
330
16
100
AcDbXrecord
  1
locked
  1
*
  1
*
  1
*
 70
   256
  1
*
  1
*
  0
XRECORD
  5
52
102
{ACAD_REACTORS
330
16
102
}
330
16
100
AcDbXrecord
  1
Lotes
  1
*
  1
*
  1
*
 70
     1
  1
*
  1
*
  0
XRECORD
  5
53
102
{ACAD_REACTORS
330
16
102
}
330
16
100
AcDbXrecord
  1
LUNAR
  1
*
  1
*
  1
*
 70
    48
  1
*
  1
*
  0
XRECORD
  5
54
102
{ACAD_REACTORS
330
16
102
}
330
16
100
AcDbXrecord
  1
LUNAR2
  1
*
  1
*
  1
*
 70
    12
  1
*
  1
*
  0
XRECORD
  5
55
102
{ACAD_REACTORS
330
16
102
}
330
16
100
AcDbXrecord
  1
M
  1
M*
  1
*
  1
*
 70
     0
  1
*
  1
*
  0
XRECORD
  5
56
102
{ACAD_REACTORS
330
16
102
}
330
16
100
AcDbXrecord
  1
mis_layers
  1
mis_*
  1
*
  1
*
 70
     0
  1
*
  1
*
  0
XRECORD
  5
57
102
{ACAD_REACTORS
330
16
102
}
330
16
100
AcDbXrecord
  1
MRKCK
  1
*
  1
*
  1
*
 70
     0
  1
*
  1
*
  0
XRECORD
  5
58
102
{ACAD_REACTORS
330
16
102
}
330
16
100
AcDbXrecord
  1
NECADKON
  1
~*?[KAHBSM]?????[23M]*
  1
*
  1
*
 70
     0
  1
*
  1
*
  0
XRECORD
  5
59
102
{ACAD_REACTORS
330
16
102
}
330
16
100
AcDbXrecord
  1
NI_LH
  1
NI_LH*
  1
*
  1
*
 70
     0
  1
*
  1
*
  0
XRECORD
  5
5A
102
{ACAD_REACTORS
330
16
102
}
330
16
100
AcDbXrecord
  1
NI_RH
  1
NI_RH*
  1
*
  1
*
 70
     0
  1
*
  1
*
  0
XRECORD
  5
5B
102
{ACAD_REACTORS
330
16
102
}
330
16
100
AcDbXrecord
  1
NUM
  1
NUM*
  1
*
  1
*
 70
     0
  1
*
  1
*
  0
XRECORD
  5
5C
102
{ACAD_REACTORS
330
16
102
}
330
16
100
AcDbXrecord
  1
off
  1
*
  1
*
  1
*
 70
     3
  1
*
  1
*
  0
XRECORD
  5
5D
102
{ACAD_REACTORS
330
16
102
}
330
16
100
AcDbXrecord
  1
on
  1
*
  1
*
  1
*
 70
     0
  1
*
  1
*
  0
XRECORD
  5
5E
102
{ACAD_REACTORS
330
16
102
}
330
16
100
AcDbXrecord
  1
PBASE
  1
*PBASE
  1
*
  1
*
 70
     0
  1
*
  1
*
  0
XRECORD
  5
5F
102
{ACAD_REACTORS
330
16
102
}
330
16
100
AcDbXrecord
  1
PEGC
  1
*PEGC
  1
*
  1
*
 70
     0
  1
*
  1
*
  0
XRECORD
  5
60
102
{ACAD_REACTORS
330
16
102
}
330
16
100
AcDbXrecord
  1
PEGCT
  1
*PEGCT
  1
*
  1
*
 70
     0
  1
*
  1
*
  0
XRECORD
  5
61
102
{ACAD_REACTORS
330
16
102
}
330
16
100
AcDbXrecord
  1
PFRAME
  1
PFRAME*
  1
*
  1
*
 70
     0
  1
*
  1
*
  0
XRECORD
  5
62
102
{ACAD_REACTORS
330
16
102
}
330
16
100
AcDbXrecord
  1
PGRID
  1
*PGRID
  1
*
  1
*
 70
     0
  1
*
  1
*
  0
XRECORD
  5
63
102
{ACAD_REACTORS
330
16
102
}
330
16
100
AcDbXrecord
  1
PGRIDT
  1
*PGRIDT
  1
*
  1
*
 70
     0
  1
*
  1
*
  0
XRECORD
  5
64
102
{ACAD_REACTORS
330
16
102
}
330
16
100
AcDbXrecord
  1
PLAFONES
  1
0-*
  1
*
  1
*
 70
     0
  1
*
  1
*
  0
XRECORD
  5
65
102
{ACAD_REACTORS
330
16
102
}
330
16
100
AcDbXrecord
  1
PLANTAS
  1
P-*
  1
*
  1
*
 70
     0
  1
*
  1
*
  0
XRECORD
  5
66
102
{ACAD_REACTORS
330
16
102
}
330
16
100
AcDbXrecord
  1
Plot
  1
*
  1
*
  1
*
 70
  1024
  1
*
  1
*
  0
XRECORD
  5
67
102
{ACAD_REACTORS
330
16
102
}
330
16
100
AcDbXrecord
  1
PRENDIDAS
  1
*
  1
*
  1
*
 70
    13
  1
*
  1
*
  0
XRECORD
  5
68
102
{ACAD_REACTORS
330
16
102
}
330
16
100
AcDbXrecord
  1
PRENDIDOS
  1
*
  1
*
  1
*
 70
    12
  1
*
  1
*
  0
XRECORD
  5
69
102
{ACAD_REACTORS
330
16
102
}
330
16
100
AcDbXrecord
  1
print
  1
*
  1
7
  1
*
 70
  1280
  1
*
  1
*
  0
XRECORD
  5
6A
102
{ACAD_REACTORS
330
16
102
}
330
16
100
AcDbXrecord
  1
PT
  1
PT-*
  1
*
  1
*
 70
     0
  1
*
  1
*
  0
XRECORD
  5
6B
102
{ACAD_REACTORS
330
16
102
}
330
16
100
AcDbXrecord
  1
PTH
  1
PTH*
  1
*
  1
*
 70
     0
  1
*
  1
*
  0
XRECORD
  5
6C
102
{ACAD_REACTORS
330
16
102
}
330
16
100
AcDbXrecord
  1
PVGRID
  1
*PVGRID
  1
*
  1
*
 70
     0
  1
*
  1
*
  0
XRECORD
  5
6D
102
{ACAD_REACTORS
330
16
102
}
330
16
100
AcDbXrecord
  1
Red de Agua Potable
  1
Red de Agua Potable
  1
*
  1
*
 70
     1
  1
*
  1
*
  0
XRECORD
  5
6E
102
{ACAD_REACTORS
330
16
102
}
330
16
100
AcDbXrecord
  1
Red de Energia Electrica
  1
Lotes
  1
*
  1
*
 70
     1
  1
*
  1
*
  0
XRECORD
  5
6F
102
{ACAD_REACTORS
330
16
102
}
330
16
100
AcDbXrecord
  1
SEVERNI
  1
*-S
  1
*
  1
*
 70
     0
  1
*
  1
*
  0
XRECORD
  5
70
102
{ACAD_REACTORS
330
16
102
}
330
16
100
AcDbXrecord
  1
shin
  1
일*
  1
*
  1
*
 70
     0
  1
*
  1
*
  0
XRECORD
  5
71
102
{ACAD_REACTORS
330
16
102
}
330
16
100
AcDbXrecord
  1
SHOW ALL LAYER
  1
*
  1
*
  1
*
 70
     0
  1
*
  1
*
  0
XRECORD
  5
72
102
{ACAD_REACTORS
330
16
102
}
330
16
100
AcDbXrecord
  1
sin
  1
sin
  1
*
  1
*
 70
     0
  1
*
  1
*
  0
XRECORD
  5
73
102
{ACAD_REACTORS
330
16
102
}
330
16
100
AcDbXrecord
  1
STORAGE-CART
  1
STORAGE-CART*
  1
*
  1
*
 70
     0
  1
*
  1
*
  0
XRECORD
  5
74
102
{ACAD_REACTORS
330
16
102
}
330
16
100
AcDbXrecord
  1
T
  1
T*
  1
*
  1
*
 70
     0
  1
*
  1
*
  0
XRECORD
  5
75
102
{ACAD_REACTORS
330
16
102
}
330
16
100
AcDbXrecord
  1
TEXTOS
  1
TXT*
  1
*
  1
*
 70
     0
  1
*
  1
*
  0
XRECORD
  5
76
102
{ACAD_REACTORS
330
16
102
}
330
16
100
AcDbXrecord
  1
TEXTURAS
  1
*TEXTURAS
  1
*
  1
*
 70
     0
  1
*
  1
*
  0
XRECORD
  5
77
102
{ACAD_REACTORS
330
16
102
}
330
16
100
AcDbXrecord
  1
TUBERIAS
  1
T*
  1
*
  1
*
 70
     0
  1
*
  1
*
  0
XRECORD
  5
78
102
{ACAD_REACTORS
330
16
102
}
330
16
100
AcDbXrecord
  1
UNFRZ
  1
*
  1
*
  1
*
 70
    12
  1
*
  1
*
  0
XRECORD
  5
79
102
{ACAD_REACTORS
330
16
102
}
330
16
100
AcDbXrecord
  1
v\U+0161echny nepou\U+017E\U+00EDvan\U+00E9
  1
*
  1
*
  1
*
 70
     0
  1
*
  1
*
  0
XRECORD
  5
7A
102
{ACAD_REACTORS
330
16
102
}
330
16
100
AcDbXrecord
  1
VA
  1
VA*
  1
*
  1
*
 70
     0
  1
*
  1
*
  0
XRECORD
  5
7B
102
{ACAD_REACTORS
330
16
102
}
330
16
100
AcDbXrecord
  1
Ventilaci\U+00F3n
  1
*
  1
*
  1
*
 70
     0
  1
*
  1
*
  0
XRECORD
  5
7C
102
{ACAD_REACTORS
330
16
102
}
330
16
100
AcDbXrecord
  1
VYHODNI
  1
*-V
  1
*
  1
*
 70
     0
  1
*
  1
*
  0
XRECORD
  5
7D
102
{ACAD_REACTORS
330
16
102
}
330
16
100
AcDbXrecord
  1
Yo
  1
Muros
  1
*
  1
*
 70
     0
  1
*
  1
*
  0
XRECORD
  5
7E
102
{ACAD_REACTORS
330
16
102
}
330
16
100
AcDbXrecord
  1
ZAPADNI
  1
*-Z
  1
*
  1
*
 70
     0
  1
*
  1
*
  0
XRECORD
  5
7F
102
{ACAD_REACTORS
330
16
102
}
330
16
100
AcDbXrecord
  1
사용
  1
*
  1
*
  1
*
 70
   256
  1
*
  1
*
  0
XRECORD
  5
80
102
{ACAD_REACTORS
330
16
102
}
330
16
100
AcDbXrecord
  1
신규
  1
신규
  1
*
  1
*
 70
     0
  1
*
  1
*
  0
XRECORD
  5
81
102
{ACAD_REACTORS
330
16
102
}
330
16
100
AcDbXrecord
  1
실박스
  1
BLO,SYM,SYM1,SYM2
  1
*
  1
*
 70
     0
  1
*
  1
*
  0
XRECORD
  5
82
102
{ACAD_REACTORS
330
16
102
}
330
16
100
AcDbXrecord
  1
우리토목
  1
w-*
  1
*
  1
*
 70
     0
  1
*
  1
*
  0
XRECORD
  5
83
102
{ACAD_REACTORS
330
16
102
}
330
16
100
AcDbXrecord
  1
주차
  1
car*
  1
*
  1
*
 70
     0
  1
*
  1
*
  0
XRECORD
  5
84
102
{ACAD_REACTORS
330
16
102
}
330
16
100
AcDbXrecord
  1
지상정밀
  1
*
  1
*
  1
*
 70
     0
  1
*
  1
*
  0
XRECORD
  5
85
102
{ACAD_REACTORS
330
16
102
}
330
16
100
AcDbXrecord
  1
쩜선
  1
*
  1
*
  1
*
 70
     0
  1
*
  1
*
  0
XRECORD
  5
86
102
{ACAD_REACTORS
330
16
102
}
330
16
100
AcDbXrecord
  1
플로터 작업층
  1
*
  1
*
  1
*
 70
  1025
  1
*
  1
*
  0
XRECORD
  5
87
102
{ACAD_REACTORS
330
16
102
}
330
16
100
AcDbXrecord
  1
현재 작업층
  1
*
  1
*
  1
*
 70
     1
  1
*
  1
*
  0
XRECORD
  5
88
102
{ACAD_REACTORS
330
16
102
}
330
16
100
AcDbXrecord
  1
현재 잠금
  1
*
  1
*
  1
*
 70
   257
  1
*
  1
*
  0
ENDSEC
  0
EOF
